  0
SECTION
  2
HEADER
  9
$ACADVER
  1
AC1014
  9
$ACADMAINTVER
 70
     9
  9
$DWGCODEPAGE
  3
ANSI_932
  9
$INSBASE
 10
0.0
 20
0.0
 30
0.0
  9
$EXTMIN
 10
-0.0128164049386896
 20
-0.0090630292066862
 30
-0.0000000100021362
  9
$EXTMAX
 10
398.8000497813338
 20
275.8226172440017
 30
0.0000000100021363
  9
$LIMMIN
 10
0.0
 20
0.0
  9
$LIMMAX
 10
420.0
 20
297.0
  9
$ORTHOMODE
 70
     0
  9
$REGENMODE
 70
     1
  9
$FILLMODE
 70
     1
  9
$QTEXTMODE
 70
     0
  9
$MIRRTEXT
 70
     1
  9
$DRAGMODE
 70
     2
  9
$LTSCALE
 40
1.0
  9
$OSMODE
 70
    37
  9
$ATTMODE
 70
     1
  9
$TEXTSIZE
 40
2.5
  9
$TRACEWID
 40
1.0
  9
$TEXTSTYLE
  7
STANDARD
  9
$CLAYER
  8
NOKITOI
  9
$CELTYPE
  6
BYLAYER
  9
$CECOLOR
 62
   256
  9
$CELTSCALE
 40
1.0
  9
$DELOBJ
 70
     1
  9
$DISPSILH
 70
     0
  9
$DIMSCALE
 40
1.0
  9
$DIMASZ
 40
3.0
  9
$DIMEXO
 40
3.0
  9
$DIMDLI
 40
7.0
  9
$DIMRND
 40
0.0
  9
$DIMDLE
 40
0.0
  9
$DIMEXE
 40
1.5
  9
$DIMTP
 40
0.0
  9
$DIMTM
 40
0.0
  9
$DIMTXT
 40
3.0
  9
$DIMCEN
 40
150.0
  9
$DIMTSZ
 40
0.0
  9
$DIMTOL
 70
     0
  9
$DIMLIM
 70
     0
  9
$DIMTIH
 70
     0
  9
$DIMTOH
 70
     0
  9
$DIMSE1
 70
     0
  9
$DIMSE2
 70
     0
  9
$DIMTAD
 70
     3
  9
$DIMZIN
 70
     0
  9
$DIMBLK
  1

  9
$DIMASO
 70
     1
  9
$DIMSHO
 70
     1
  9
$DIMPOST
  1

  9
$DIMAPOST
  1

  9
$DIMALT
 70
     0
  9
$DIMALTD
 70
     2
  9
$DIMALTF
 40
25.4
  9
$DIMLFAC
 40
1.0
  9
$DIMTOFL
 70
     1
  9
$DIMTVP
 40
0.0
  9
$DIMTIX
 70
     0
  9
$DIMSOXD
 70
     0
  9
$DIMSAH
 70
     1
  9
$DIMBLK1
  1
OPEN
  9
$DIMBLK2
  1
OPEN
  9
$DIMSTYLE
  2
STANDARD
  9
$DIMCLRD
 70
   256
  9
$DIMCLRE
 70
   256
  9
$DIMCLRT
 70
   256
  9
$DIMTFAC
 40
1.0
  9
$DIMGAP
 40
1.0
  9
$DIMJUST
 70
     0
  9
$DIMSD1
 70
     0
  9
$DIMSD2
 70
     0
  9
$DIMTOLJ
 70
     1
  9
$DIMTZIN
 70
     0
  9
$DIMALTZ
 70
     0
  9
$DIMALTTZ
 70
     0
  9
$DIMFIT
 70
     3
  9
$DIMUPT
 70
     0
  9
$DIMUNIT
 70
     2
  9
$DIMDEC
 70
     0
  9
$DIMTDEC
 70
     0
  9
$DIMALTU
 70
     2
  9
$DIMALTTD
 70
     2
  9
$DIMTXSTY
  7
STANDARD
  9
$DIMAUNIT
 70
     0
  9
$LUNITS
 70
     2
  9
$LUPREC
 70
     4
  9
$SKETCHINC
 40
1.0
  9
$FILLETRAD
 40
10.0
  9
$AUNITS
 70
     0
  9
$AUPREC
 70
     0
  9
$MENU
  1
.
  9
$ELEVATION
 40
0.0
  9
$PELEVATION
 40
0.0
  9
$THICKNESS
 40
0.0
  9
$LIMCHECK
 70
     0
  9
$BLIPMODE
 70
     0
  9
$CHAMFERA
 40
10.0
  9
$CHAMFERB
 40
10.0
  9
$CHAMFERC
 40
20.0
  9
$CHAMFERD
 40
0.0
  9
$SKPOLY
 70
     0
  9
$TDCREATE
 40
2450994.350997107
  9
$TDUPDATE
 40
2454515.384354768
  9
$TDINDWG
 40
0.0768584722
  9
$TDUSRTIMER
 40
0.0768584722
  9
$USRTIMER
 70
     1
  9
$ANGBASE
 50
0.0
  9
$ANGDIR
 70
     0
  9
$PDMODE
 70
     1
  9
$PDSIZE
 40
0.0
  9
$PLINEWID
 40
0.0
  9
$COORDS
 70
     2
  9
$SPLFRAME
 70
     0
  9
$SPLINETYPE
 70
     6
  9
$SPLINESEGS
 70
     8
  9
$ATTDIA
 70
     0
  9
$ATTREQ
 70
     1
  9
$HANDLING
 70
 10241
  9
$HANDSEED
  5
AB0
  9
$SURFTAB1
 70
     6
  9
$SURFTAB2
 70
     6
  9
$SURFTYPE
 70
     6
  9
$SURFU
 70
     6
  9
$SURFV
 70
     6
  9
$UCSNAME
  2

  9
$UCSORG
 10
0.0
 20
0.0
 30
0.0
  9
$UCSXDIR
 10
1.0
 20
0.0
 30
0.0
  9
$UCSYDIR
 10
0.0
 20
1.0
 30
0.0
  9
$PUCSNAME
  2

  9
$PUCSORG
 10
0.0
 20
0.0
 30
0.0
  9
$PUCSXDIR
 10
1.0
 20
0.0
 30
0.0
  9
$PUCSYDIR
 10
0.0
 20
1.0
 30
0.0
  9
$USERI1
 70
     0
  9
$USERI2
 70
     0
  9
$USERI3
 70
     0
  9
$USERI4
 70
     0
  9
$USERI5
 70
     0
  9
$USERR1
 40
0.0
  9
$USERR2
 40
0.0
  9
$USERR3
 40
0.0
  9
$USERR4
 40
0.0
  9
$USERR5
 40
0.0
  9
$WORLDVIEW
 70
     1
  9
$SHADEDGE
 70
     3
  9
$SHADEDIF
 70
    70
  9
$TILEMODE
 70
     1
  9
$MAXACTVP
 70
    16
  9
$PINSBASE
 10
0.0
 20
0.0
 30
0.0
  9
$PLIMCHECK
 70
     0
  9
$PEXTMIN
 10
0.0
 20
0.0
 30
0.0
  9
$PEXTMAX
 10
420.0
 20
297.0
 30
0.0
  9
$PLIMMIN
 10
0.0
 20
0.0
  9
$PLIMMAX
 10
420.0
 20
297.0
  9
$UNITMODE
 70
     0
  9
$VISRETAIN
 70
     0
  9
$PLINEGEN
 70
     0
  9
$PSLTSCALE
 70
     1
  9
$TREEDEPTH
 70
  3020
  9
$PICKSTYLE
 70
     1
  9
$CMLSTYLE
  2
STANDARD
  9
$CMLJUST
 70
     0
  9
$CMLSCALE
 40
1.0
  9
$PROXYGRAPHICS
 70
     1
  9
$MEASUREMENT
 70
     1
  0
ENDSEC
  0
SECTION
  2
CLASSES
  0
CLASS
  1
ACDBDICTIONARYWDFLT
  2
AcDbDictionaryWithDefault
  3
AutoCAD 2000
 90
        0
280
     0
281
     0
  0
CLASS
  1
ACDBPLACEHOLDER
  2
AcDbPlaceHolder
  3
AutoCAD 2000
 90
        0
280
     0
281
     0
  0
CLASS
  1
LAYOUT
  2
AcDbLayout
  3
AutoCAD 2000
 90
        0
280
     0
281
     0
  0
CLASS
  1
LONG_TRANSACTION
  2
AcDbLongTransaction
  3
AutoCAD 2000
 90
        0
280
     0
281
     0
  0
CLASS
  1
LWPOLYLINE
  2
AcDbPolyline
  3
AutoCAD 2000
 90
        0
280
     0
281
     1
  0
CLASS
  1
HATCH
  2
AcDbHatch
  3
AutoCAD 2000
 90
        0
280
     0
281
     1
  0
CLASS
  1
XRECORD
  2
AcDbXrecord
  3
AutoCAD 2000
 90
        0
280
     0
281
     0
  0
CLASS
  1
LONG_TRANSACTION
  2
AcDbLongTransaction
  3
AutoCAD 2000
 90
        0
280
     0
281
     0
  0
CLASS
  1
LWPOLYLINE
  2
AcDbPolyline
  3
AutoCAD 2000
 90
        0
280
     0
281
     1
  0
CLASS
  1
HATCH
  2
AcDbHatch
  3
AutoCAD 2000
 90
        0
280
     0
281
     1
  0
CLASS
  1
XRECORD
  2
AcDbXrecord
  3
AutoCAD 2000
 90
        0
280
     0
281
     0
  0
CLASS
  1
LONG_TRANSACTION
  2
AcDbLongTransaction
  3
AutoCAD 2000
 90
        0
280
     0
281
     0
  0
CLASS
  1
LWPOLYLINE
  2
AcDbPolyline
  3
AutoCAD 2000
 90
        0
280
     0
281
     1
  0
CLASS
  1
HATCH
  2
AcDbHatch
  3
AutoCAD 2000
 90
        0
280
     0
281
     1
  0
CLASS
  1
XRECORD
  2
AcDbXrecord
  3
AutoCAD 2000
 90
        0
280
     0
281
     0
  0
ENDSEC
  0
SECTION
  2
TABLES
  0
TABLE
  2
VPORT
  5
8
330
0
100
AcDbSymbolTable
 70
     2
  0
VPORT
  5
A8C
330
8
100
AcDbSymbolTableRecord
100
AcDbViewportTableRecord
  2
*ACTIVE
 70
     0
 10
0.0
 20
0.0
 11
1.0
 21
1.0
 12
217.757396116507
 22
128.2756679386597
 13
0.0
 23
0.0
 14
5.0
 24
5.0
 15
0.0
 25
0.0
 16
0.0
 26
0.0
 36
1.0
 17
0.0
 27
0.0
 37
0.0
 40
357.5143547878206
 41
1.570153061224489
 42
50.0
 43
0.0
 44
0.0
 50
0.0
 51
0.0
 71
     0
 72
   100
 73
     1
 74
     0
 75
     0
 76
     0
 77
     0
 78
     0
  0
ENDTAB
  0
TABLE
  2
LTYPE
  5
5
330
0
100
AcDbSymbolTable
 70
     3
  0
LTYPE
  5
14
330
5
100
AcDbSymbolTableRecord
100
AcDbLinetypeTableRecord
  2
BYBLOCK
 70
     0
  3

 72
    65
 73
     0
 40
0.0
  0
LTYPE
  5
15
330
5
100
AcDbSymbolTableRecord
100
AcDbLinetypeTableRecord
  2
BYLAYER
 70
     0
  3

 72
    65
 73
     0
 40
0.0
  0
LTYPE
  5
16
330
5
100
AcDbSymbolTableRecord
100
AcDbLinetypeTableRecord
  2
CONTINUOUS
 70
     0
  3
Solid line
 72
    65
 73
     0
 40
0.0
  0
LTYPE
  5
120
330
5
100
AcDbSymbolTableRecord
100
AcDbLinetypeTableRecord
  2
CENTER
 70
     0
  3
____ _ ____ _ ____ _ ____ _ ____ _ ____ _ ____ 
 72
    65
 73
     4
 40
2.0
 49
1.25
 74
     0
 49
-0.25
 74
     0
 49
0.25
 74
     0
 49
-0.25
 74
     0
  0
LTYPE
  5
122
330
5
100
AcDbSymbolTableRecord
100
AcDbLinetypeTableRecord
  2
PHANTOM
 70
     0
  3
______  __  __  ______  __  __  ______  __  __ 
 72
    65
 73
     6
 40
2.5
 49
1.25
 74
     0
 49
-0.25
 74
     0
 49
0.25
 74
     0
 49
-0.25
 74
     0
 49
0.25
 74
     0
 49
-0.25
 74
     0
  0
ENDTAB
  0
TABLE
  2
LAYER
  5
2
330
0
100
AcDbSymbolTable
 70
     9
  0
LAYER
  5
F
330
2
100
AcDbSymbolTableRecord
100
AcDbLayerTableRecord
  2
0
 70
     0
 62
     7
  6
CONTINUOUS
  0
LAYER
  5
62
330
2
100
AcDbSymbolTableRecord
100
AcDbLayerTableRecord
  2
VIEWPORT
 70
     0
 62
     7
  6
CONTINUOUS
  0
LAYER
  5
6B
330
2
100
AcDbSymbolTableRecord
100
AcDbLayerTableRecord
  2
ZUWAKU
 70
     0
 62
     7
  6
CONTINUOUS
  0
LAYER
  5
14E
330
2
100
AcDbSymbolTableRecord
100
AcDbLayerTableRecord
  2
NOKITOI
 70
     0
 62
     8
  6
PHANTOM
  0
LAYER
  5
14F
330
2
100
AcDbSymbolTableRecord
100
AcDbLayerTableRecord
  2
SEIHIN
 70
     0
 62
     3
  6
CONTINUOUS
  0
LAYER
  5
150
330
2
100
AcDbSymbolTableRecord
100
AcDbLayerTableRecord
  2
SUNPOU
 70
     0
 62
     4
  6
CONTINUOUS
  0
LAYER
  5
151
330
2
100
AcDbSymbolTableRecord
100
AcDbLayerTableRecord
  2
CENTER_L
 70
     0
 62
     1
  6
CENTER
  0
LAYER
  5
479
330
2
100
AcDbSymbolTableRecord
100
AcDbLayerTableRecord
  2
DEFPOINTS
 70
     0
 62
     7
  6
CONTINUOUS
  0
LAYER
  5
878
330
2
100
AcDbSymbolTableRecord
100
AcDbLayerTableRecord
  2
MOJI
 70
     0
 62
     2
  6
CONTINUOUS
  0
ENDTAB
  0
TABLE
  2
STYLE
  5
3
330
0
100
AcDbSymbolTable
 70
     2
  0
STYLE
  5
10
330
3
100
AcDbSymbolTableRecord
100
AcDbTextStyleTableRecord
  2
STANDARD
 70
     0
 40
0.0
 41
1.0
 50
0.0
 71
     0
 42
2.5
  3
TXT
  4
bigfont.shx
  0
STYLE
  5
879
330
3
100
AcDbSymbolTableRecord
100
AcDbTextStyleTableRecord
  2
ｽﾀｲﾙ1
 70
     0
 40
0.0
 41
1.0
 50
0.0
 71
     0
 42
2.5
  3
MS PGothic.ttf
  4

1001
ACAD
1000
MS PGothic
1071
    32818
  0
ENDTAB
  0
TABLE
  2
VIEW
  5
6
330
0
100
AcDbSymbolTable
 70
     0
  0
ENDTAB
  0
TABLE
  2
UCS
  5
7
330
0
100
AcDbSymbolTable
 70
     0
  0
ENDTAB
  0
TABLE
  2
APPID
  5
9
330
0
100
AcDbSymbolTable
 70
     1
  0
APPID
  5
11
330
9
100
AcDbSymbolTableRecord
100
AcDbRegAppTableRecord
  2
ACAD
 70
     0
  0
ENDTAB
  0
TABLE
  2
DIMSTYLE
  5
A
330
0
100
AcDbSymbolTable
 70
     1
  0
DIMSTYLE
105
1D
102
{ACAD_REACTORS
330
4E6
330
4E7
330
52F
330
53C
330
55B
330
568
330
575
330
59A
330
5A7
330
5B6
330
5C3
330
5D2
330
5DF
330
5EC
330
5F9
330
606
330
614
102
}
330
A
100
AcDbSymbolTableRecord
100
AcDbDimStyleTableRecord
  2
STANDARD
 70
     0
  3

  4

  5

  6

  7

 40
1.0
 41
0.18
 42
0.0625
 43
0.38
 44
0.18
 45
0.0
 46
0.0
 47
0.0
 48
0.0
140
0.18
141
0.09
142
0.0
143
25.4
144
1.0
145
0.0
146
1.0
147
0.09
 71
     0
 72
     0
 73
     1
 74
     1
 75
     0
 76
     0
 77
     0
 78
     0
170
     0
171
     2
172
     0
173
     0
174
     0
175
     0
176
     0
177
     0
178
     0
270
     2
271
     4
272
     4
273
     2
274
     2
340
10
275
     0
280
     0
281
     0
282
     0
283
     1
284
     0
285
     0
286
     0
287
     3
288
     0
  0
ENDTAB
  0
TABLE
  2
BLOCK_RECORD
  5
1
330
0
100
AcDbSymbolTable
 70
    18
  0
BLOCK_RECORD
  5
1A
102
{ACAD_XDICTIONARY
360
799
102
}
330
1
100
AcDbSymbolTableRecord
100
AcDbBlockTableRecord
  2
*MODEL_SPACE
  0
BLOCK_RECORD
  5
17
102
{ACAD_XDICTIONARY
360
797
102
}
330
1
100
AcDbSymbolTableRecord
100
AcDbBlockTableRecord
  2
*PAPER_SPACE
  0
BLOCK_RECORD
  5
B2
330
1
100
AcDbSymbolTableRecord
100
AcDbBlockTableRecord
  2
_OPEN
  0
BLOCK_RECORD
  5
4EE
330
1
100
AcDbSymbolTableRecord
100
AcDbBlockTableRecord
  2
*D1
  0
BLOCK_RECORD
  5
4FA
330
1
100
AcDbSymbolTableRecord
100
AcDbBlockTableRecord
  2
*D2
  0
BLOCK_RECORD
  5
530
330
1
100
AcDbSymbolTableRecord
100
AcDbBlockTableRecord
  2
*D3
  0
BLOCK_RECORD
  5
53D
330
1
100
AcDbSymbolTableRecord
100
AcDbBlockTableRecord
  2
*D4
  0
BLOCK_RECORD
  5
55C
330
1
100
AcDbSymbolTableRecord
100
AcDbBlockTableRecord
  2
*D5
  0
BLOCK_RECORD
  5
569
330
1
100
AcDbSymbolTableRecord
100
AcDbBlockTableRecord
  2
*D6
  0
BLOCK_RECORD
  5
576
330
1
100
AcDbSymbolTableRecord
100
AcDbBlockTableRecord
  2
*D7
  0
BLOCK_RECORD
  5
59B
330
1
100
AcDbSymbolTableRecord
100
AcDbBlockTableRecord
  2
*D8
  0
BLOCK_RECORD
  5
5A8
330
1
100
AcDbSymbolTableRecord
100
AcDbBlockTableRecord
  2
*D9
  0
BLOCK_RECORD
  5
5B7
330
1
100
AcDbSymbolTableRecord
100
AcDbBlockTableRecord
  2
*D10
  0
BLOCK_RECORD
  5
5C4
330
1
100
AcDbSymbolTableRecord
100
AcDbBlockTableRecord
  2
*D11
  0
BLOCK_RECORD
  5
5D3
330
1
100
AcDbSymbolTableRecord
100
AcDbBlockTableRecord
  2
*D12
  0
BLOCK_RECORD
  5
5E0
330
1
100
AcDbSymbolTableRecord
100
AcDbBlockTableRecord
  2
*D13
  0
BLOCK_RECORD
  5
5ED
330
1
100
AcDbSymbolTableRecord
100
AcDbBlockTableRecord
  2
*D14
  0
BLOCK_RECORD
  5
5FA
330
1
100
AcDbSymbolTableRecord
100
AcDbBlockTableRecord
  2
*D15
  0
BLOCK_RECORD
  5
607
330
1
100
AcDbSymbolTableRecord
100
AcDbBlockTableRecord
  2
*D16
  0
BLOCK_RECORD
  5
615
330
1
100
AcDbSymbolTableRecord
100
AcDbBlockTableRecord
  2
*D17
  0
ENDTAB
  0
ENDSEC
  0
SECTION
  2
BLOCKS
  0
BLOCK
  5
1B
330
1A
100
AcDbEntity
  8
0
100
AcDbBlockBegin
  2
*MODEL_SPACE
 70
     0
 10
0.0
 20
0.0
 30
0.0
  3
*MODEL_SPACE
  1

  0
ENDBLK
  5
1C
330
1A
100
AcDbEntity
  8
0
100
AcDbBlockEnd
  0
BLOCK
  5
18
330
17
100
AcDbEntity
 67
     1
  8
0
100
AcDbBlockBegin
  2
*PAPER_SPACE
 70
     0
 10
0.0
 20
0.0
 30
0.0
  3
*PAPER_SPACE
  1

  0
ENDBLK
  5
19
330
17
100
AcDbEntity
 67
     1
  8
0
100
AcDbBlockEnd
  0
BLOCK
  5
B3
330
B2
100
AcDbEntity
  8
0
100
AcDbBlockBegin
  2
_OPEN
 70
     0
 10
0.0
 20
0.0
 30
0.0
  3
_OPEN
  1

  0
LINE
  5
B4
330
B2
100
AcDbEntity
  8
0
  6
BYBLOCK
 62
     0
100
AcDbLine
 10
-1.0
 20
0.1666666666666666
 30
0.0
 11
0.0
 21
0.0
 31
0.0
  0
LINE
  5
B5
330
B2
100
AcDbEntity
  8
0
  6
BYBLOCK
 62
     0
100
AcDbLine
 10
0.0
 20
0.0
 30
0.0
 11
-1.0
 21
-0.1666666666666666
 31
0.0
  0
LINE
  5
B6
330
B2
100
AcDbEntity
  8
0
  6
BYBLOCK
 62
     0
100
AcDbLine
 10
0.0
 20
0.0
 30
0.0
 11
-1.0
 21
0.0
 31
0.0
  0
ENDBLK
  5
B7
330
B2
100
AcDbEntity
  8
0
100
AcDbBlockEnd
  0
BLOCK
  5
4F8
330
4EE
100
AcDbEntity
  8
0
100
AcDbBlockBegin
  2
*D1
 70
     1
 10
0.0
 20
0.0
 30
0.0
  3
*D1
  1

  0
LINE
  5
A6B
330
4EE
100
AcDbEntity
  8
SUNPOU
 62
     4
100
AcDbLine
 10
244.9580679369435
 20
250.160087773619
 30
0.0
 11
283.1665921679797
 21
250.160087773619
 31
0.0
  0
LINE
  5
A6C
330
4EE
100
AcDbEntity
  8
SUNPOU
 62
     4
100
AcDbLine
 10
244.9580679369435
 20
205.160087773619
 30
0.0
 11
283.1665921679797
 21
205.160087773619
 31
0.0
  0
LINE
  5
A6D
330
4EE
100
AcDbEntity
  8
SUNPOU
 62
     4
100
AcDbLine
 10
281.6665921679797
 20
247.1600877736189
 30
0.0
 11
281.6665921679797
 21
208.160087773619
 31
0.0
  0
INSERT
  5
A6E
330
4EE
100
AcDbEntity
  8
SUNPOU
 62
     4
100
AcDbBlockReference
  2
_OPEN
 10
281.6665921679797
 20
250.160087773619
 30
0.0
 41
3.0
 42
3.0
 43
3.0
 50
90.0
  0
INSERT
  5
A6F
330
4EE
100
AcDbEntity
  8
SUNPOU
 62
     4
100
AcDbBlockReference
  2
_OPEN
 10
281.6665921679797
 20
205.160087773619
 30
0.0
 41
3.0
 42
3.0
 43
3.0
 50
270.0
  0
MTEXT
  5
A70
330
4EE
100
AcDbEntity
  8
SUNPOU
 62
     4
100
AcDbMText
 10
279.1665921679796
 20
227.660087773619
 30
0.0
 40
3.0
 41
0.0
 71
     5
 72
     1
  1
\A1;45
 11
0.0000000000000001
 21
1.0
 31
0.0
1001
ACAD
1000
MTEXTBEGIN
1070
    73
1070
     1
1070
    44
1040
1.0
1070
    74
1070
     0
1000
MTEXTEND
  0
POINT
  5
A71
330
4EE
100
AcDbEntity
  8
DEFPOINTS
 62
     0
100
AcDbPoint
 10
241.9580679369435
 20
250.160087773619
 30
0.0
  0
POINT
  5
A72
330
4EE
100
AcDbEntity
  8
DEFPOINTS
 62
     0
100
AcDbPoint
 10
241.9580679369435
 20
205.160087773619
 30
0.0
  0
POINT
  5
A73
330
4EE
100
AcDbEntity
  8
DEFPOINTS
 62
     0
100
AcDbPoint
 10
281.6665921679797
 20
205.160087773619
 30
0.0
  0
ENDBLK
  5
4F9
330
4EE
100
AcDbEntity
  8
0
100
AcDbBlockEnd
  0
BLOCK
  5
504
330
4FA
100
AcDbEntity
  8
0
100
AcDbBlockBegin
  2
*D2
 70
     1
 10
0.0
 20
0.0
 30
0.0
  3
*D2
  1

  0
LINE
  5
A62
330
4FA
100
AcDbEntity
  8
SUNPOU
 62
     4
100
AcDbLine
 10
245.7669679369435
 20
244.160087773619
 30
0.0
 11
273.1837666790644
 21
244.160087773619
 31
0.0
  0
LINE
  5
A63
330
4FA
100
AcDbEntity
  8
SUNPOU
 62
     4
100
AcDbLine
 10
245.7669679369435
 20
211.160087773619
 30
0.0
 11
273.1837666790644
 21
211.160087773619
 31
0.0
  0
LINE
  5
A64
330
4FA
100
AcDbEntity
  8
SUNPOU
 62
     4
100
AcDbLine
 10
271.6837666790644
 20
241.160087773619
 30
0.0
 11
271.6837666790644
 21
214.160087773619
 31
0.0
  0
INSERT
  5
A65
330
4FA
100
AcDbEntity
  8
SUNPOU
 62
     4
100
AcDbBlockReference
  2
_OPEN
 10
271.6837666790644
 20
244.160087773619
 30
0.0
 41
3.0
 42
3.0
 43
3.0
 50
90.0
  0
INSERT
  5
A66
330
4FA
100
AcDbEntity
  8
SUNPOU
 62
     4
100
AcDbBlockReference
  2
_OPEN
 10
271.6837666790644
 20
211.160087773619
 30
0.0
 41
3.0
 42
3.0
 43
3.0
 50
270.0
  0
MTEXT
  5
A67
330
4FA
100
AcDbEntity
  8
SUNPOU
 62
     4
100
AcDbMText
 10
269.1837666790643
 20
227.660087773619
 30
0.0
 40
3.0
 41
0.0
 71
     5
 72
     1
  1
\A1;33
 11
0.0000000000000001
 21
1.0
 31
0.0
1001
ACAD
1000
MTEXTBEGIN
1070
    73
1070
     1
1070
    44
1040
1.0
1070
    74
1070
     0
1000
MTEXTEND
  0
POINT
  5
A68
330
4FA
100
AcDbEntity
  8
DEFPOINTS
 62
     0
100
AcDbPoint
 10
242.7669679369435
 20
244.160087773619
 30
0.0
  0
POINT
  5
A69
330
4FA
100
AcDbEntity
  8
DEFPOINTS
 62
     0
100
AcDbPoint
 10
242.7669679369435
 20
211.160087773619
 30
0.0
  0
POINT
  5
A6A
330
4FA
100
AcDbEntity
  8
DEFPOINTS
 62
     0
100
AcDbPoint
 10
271.6837666790644
 20
211.160087773619
 30
0.0
  0
ENDBLK
  5
505
330
4FA
100
AcDbEntity
  8
0
100
AcDbBlockEnd
  0
BLOCK
  5
53A
330
530
100
AcDbEntity
  8
0
100
AcDbBlockBegin
  2
*D3
 70
     1
 10
0.0
 20
0.0
 30
0.0
  3
*D3
  1

  0
LINE
  5
A02
330
530
100
AcDbEntity
  8
SUNPOU
 62
     4
100
AcDbLine
 10
188.0137091134141
 20
131.991487773619
 30
0.0
 11
188.0137091134141
 21
152.8672299023874
 31
0.0
  0
LINE
  5
A03
330
530
100
AcDbEntity
  8
SUNPOU
 62
     4
100
AcDbLine
 10
233.0137720439475
 20
131.991487773619
 30
0.0
 11
233.0137720439475
 21
152.8672299023874
 31
0.0
  0
LINE
  5
A04
330
530
100
AcDbEntity
  8
SUNPOU
 62
     4
100
AcDbLine
 10
191.0137091134141
 20
151.3672299023873
 30
0.0
 11
230.0137720439475
 21
151.3672299023873
 31
0.0
  0
INSERT
  5
A05
330
530
100
AcDbEntity
  8
SUNPOU
 62
     4
100
AcDbBlockReference
  2
_OPEN
 10
188.0137091134141
 20
151.3672299023873
 30
0.0
 41
3.0
 42
3.0
 43
3.0
 50
180.0
  0
INSERT
  5
A06
330
530
100
AcDbEntity
  8
SUNPOU
 62
     4
100
AcDbBlockReference
  2
_OPEN
 10
233.0137720439475
 20
151.3672299023873
 30
0.0
 41
3.0
 42
3.0
 43
3.0
  0
MTEXT
  5
A07
330
530
100
AcDbEntity
  8
SUNPOU
 62
     4
100
AcDbMText
 10
210.5137405786808
 20
153.8672299023874
 30
0.0
 40
3.0
 41
0.0
 71
     5
 72
     1
  1
\A1;45
1001
ACAD
1000
MTEXTBEGIN
1070
    73
1070
     1
1070
    44
1040
1.0
1070
    74
1070
     0
1000
MTEXTEND
  0
POINT
  5
A08
330
530
100
AcDbEntity
  8
DEFPOINTS
 62
     0
100
AcDbPoint
 10
188.0137091134141
 20
128.991487773619
 30
0.0
  0
POINT
  5
A09
330
530
100
AcDbEntity
  8
DEFPOINTS
 62
     0
100
AcDbPoint
 10
233.0137720439475
 20
128.991487773619
 30
0.0
  0
POINT
  5
A0A
330
530
100
AcDbEntity
  8
DEFPOINTS
 62
     0
100
AcDbPoint
 10
233.0137720439475
 20
151.3672299023873
 30
0.0
  0
ENDBLK
  5
53B
330
530
100
AcDbEntity
  8
0
100
AcDbBlockEnd
  0
BLOCK
  5
547
330
53D
100
AcDbEntity
  8
0
100
AcDbBlockBegin
  2
*D4
 70
     1
 10
0.0
 20
0.0
 30
0.0
  3
*D4
  1

  0
LINE
  5
9F9
330
53D
100
AcDbEntity
  8
SUNPOU
 62
     4
100
AcDbLine
 10
233.0137720439475
 20
131.991487773619
 30
0.0
 11
233.0137720439475
 21
160.4202162460727
 31
0.0
  0
LINE
  5
9FA
330
53D
100
AcDbEntity
  8
SUNPOU
 62
     4
100
AcDbLine
 10
92.01376793694356
 20
120.491387773619
 30
0.0
 11
92.01376793694356
 21
160.4202162460727
 31
0.0
  0
LINE
  5
9FB
330
53D
100
AcDbEntity
  8
SUNPOU
 62
     4
100
AcDbLine
 10
230.0137720439475
 20
158.9202162460727
 30
0.0
 11
95.01376793694356
 21
158.9202162460727
 31
0.0
  0
INSERT
  5
9FC
330
53D
100
AcDbEntity
  8
SUNPOU
 62
     4
100
AcDbBlockReference
  2
_OPEN
 10
233.0137720439475
 20
158.9202162460727
 30
0.0
 41
3.0
 42
3.0
 43
3.0
  0
INSERT
  5
9FD
330
53D
100
AcDbEntity
  8
SUNPOU
 62
     4
100
AcDbBlockReference
  2
_OPEN
 10
92.01376793694356
 20
158.9202162460727
 30
0.0
 41
3.0
 42
3.0
 43
3.0
 50
180.0
  0
MTEXT
  5
9FE
330
53D
100
AcDbEntity
  8
SUNPOU
 62
     4
100
AcDbMText
 10
162.5137699904455
 20
161.4202162460727
 30
0.0
 40
3.0
 41
0.0
 71
     5
 72
     1
  1
\A1;141
1001
ACAD
1000
MTEXTBEGIN
1070
    73
1070
     1
1070
    44
1040
1.0
1070
    74
1070
     0
1000
MTEXTEND
  0
POINT
  5
9FF
330
53D
100
AcDbEntity
  8
DEFPOINTS
 62
     0
100
AcDbPoint
 10
233.0137720439475
 20
128.991487773619
 30
0.0
  0
POINT
  5
A00
330
53D
100
AcDbEntity
  8
DEFPOINTS
 62
     0
100
AcDbPoint
 10
92.01376793694356
 20
117.491387773619
 30
0.0
  0
POINT
  5
A01
330
53D
100
AcDbEntity
  8
DEFPOINTS
 62
     0
100
AcDbPoint
 10
92.01376793694356
 20
158.9202162460727
 30
0.0
  0
ENDBLK
  5
548
330
53D
100
AcDbEntity
  8
0
100
AcDbBlockEnd
  0
BLOCK
  5
566
330
55C
100
AcDbEntity
  8
0
100
AcDbBlockBegin
  2
*D5
 70
     1
 10
0.0
 20
0.0
 30
0.0
  3
*D5
  1

  0
LINE
  5
9F0
330
55C
100
AcDbEntity
  8
SUNPOU
 62
     4
100
AcDbLine
 10
203.1827679369436
 20
120.789787773619
 30
0.0
 11
203.1827679369436
 21
144.6061517178286
 31
0.0
  0
LINE
  5
9F1
330
55C
100
AcDbEntity
  8
SUNPOU
 62
     4
100
AcDbLine
 10
233.0137720439475
 20
131.991487773619
 30
0.0
 11
233.0137720439475
 21
144.6061517178286
 31
0.0
  0
LINE
  5
9F2
330
55C
100
AcDbEntity
  8
SUNPOU
 62
     4
100
AcDbLine
 10
206.1827679369436
 20
143.1061517178286
 30
0.0
 11
230.0137720439475
 21
143.1061517178286
 31
0.0
  0
INSERT
  5
9F3
330
55C
100
AcDbEntity
  8
SUNPOU
 62
     4
100
AcDbBlockReference
  2
_OPEN
 10
203.1827679369436
 20
143.1061517178286
 30
0.0
 41
3.0
 42
3.0
 43
3.0
 50
180.0
  0
INSERT
  5
9F4
330
55C
100
AcDbEntity
  8
SUNPOU
 62
     4
100
AcDbBlockReference
  2
_OPEN
 10
233.0137720439475
 20
143.1061517178286
 30
0.0
 41
3.0
 42
3.0
 43
3.0
  0
MTEXT
  5
9F5
330
55C
100
AcDbEntity
  8
SUNPOU
 62
     4
100
AcDbMText
 10
218.0982699904455
 20
145.6061517178286
 30
0.0
 40
3.0
 41
0.0
 71
     5
 72
     1
  1
\A1;30
1001
ACAD
1000
MTEXTBEGIN
1070
    73
1070
     1
1070
    44
1040
1.0
1070
    74
1070
     0
1000
MTEXTEND
  0
POINT
  5
9F6
330
55C
100
AcDbEntity
  8
DEFPOINTS
 62
     0
100
AcDbPoint
 10
203.1827679369436
 20
117.789787773619
 30
0.0
  0
POINT
  5
9F7
330
55C
100
AcDbEntity
  8
DEFPOINTS
 62
     0
100
AcDbPoint
 10
233.0137720439475
 20
128.991487773619
 30
0.0
  0
POINT
  5
9F8
330
55C
100
AcDbEntity
  8
DEFPOINTS
 62
     0
100
AcDbPoint
 10
233.0137720439475
 20
143.1061517178286
 30
0.0
  0
ENDBLK
  5
567
330
55C
100
AcDbEntity
  8
0
100
AcDbBlockEnd
  0
BLOCK
  5
573
330
569
100
AcDbEntity
  8
0
100
AcDbBlockBegin
  2
*D6
 70
     1
 10
0.0
 20
0.0
 30
0.0
  3
*D6
  1

  0
LINE
  5
A3C
330
569
100
AcDbEntity
  8
SUNPOU
 62
     4
100
AcDbLine
 10
256.7160521679841
 20
88.29492324402407
 30
0.0
 11
274.2374834176889
 21
97.05559547730135
 31
0.0
  0
LINE
  5
A3D
330
569
100
AcDbEntity
  8
SUNPOU
 62
     4
100
AcDbLine
 10
235.6970562749881
 20
130.333123244024
 30
0.0
 11
253.2184875246929
 21
139.0937954773013
 31
0.0
  0
LINE
  5
A3E
330
569
100
AcDbEntity
  8
SUNPOU
 62
     4
100
AcDbLine
 10
271.5542058317635
 20
99.06806197313938
 30
0.0
 11
253.2184808795777
 21
135.7396935110582
 31
0.0
  0
INSERT
  5
A3F
330
569
100
AcDbEntity
  8
SUNPOU
 62
     4
100
AcDbBlockReference
  2
_OPEN
 10
272.8958413021686
 20
96.38477774209881
 30
0.0
 41
3.0
 42
3.0
 43
3.0
 50
296.5649376632195
  0
INSERT
  5
A40
330
569
100
AcDbEntity
  8
SUNPOU
 62
     4
100
AcDbBlockReference
  2
_OPEN
 10
251.8768454091726
 20
138.4229777420988
 30
0.0
 41
3.0
 42
3.0
 43
3.0
 50
116.5649376632195
  0
MTEXT
  5
A41
330
569
100
AcDbEntity
  8
SUNPOU
 62
     4
100
AcDbMText
 10
264.6224135482045
 20
118.5219073007697
 30
0.0
 40
3.0
 41
0.0
 71
     5
 72
     1
  1
\A1;47
 11
0.4472118234683579
 21
-0.8944280770135218
 31
0.0
1001
ACAD
1000
MTEXTBEGIN
1070
    73
1070
     1
1070
    44
1040
1.0
1070
    74
1070
     0
1000
MTEXTEND
  0
POINT
  5
A42
330
569
100
AcDbEntity
  8
DEFPOINTS
 62
     0
100
AcDbPoint
 10
254.0327679369435
 20
86.95328777361899
 30
0.0
  0
POINT
  5
A43
330
569
100
AcDbEntity
  8
DEFPOINTS
 62
     0
100
AcDbPoint
 10
233.0137720439475
 20
128.9914877736189
 30
0.0
  0
POINT
  5
A44
330
569
100
AcDbEntity
  8
DEFPOINTS
 62
     0
100
AcDbPoint
 10
251.8768454091726
 20
138.4229777420988
 30
0.0
  0
ENDBLK
  5
574
330
569
100
AcDbEntity
  8
0
100
AcDbBlockEnd
  0
BLOCK
  5
582
330
576
100
AcDbEntity
  8
0
100
AcDbBlockBegin
  2
*D7
 70
     1
 10
0.0
 20
0.0
 30
0.0
  3
*D7
  1

  0
LINE
  5
A45
330
576
100
AcDbEntity
  8
SUNPOU
 62
     4
100
AcDbLine
 10
254.4797887291867
 20
83.8227462068446
 30
0.0
 11
263.2806416224231
 21
66.21907243001039
 31
0.0
  0
LINE
  5
A46
330
576
100
AcDbEntity
  8
SUNPOU
 62
     4
100
AcDbLine
 10
255.3742887291867
 20
84.26994620684459
 30
0.0
 11
264.1751416224231
 21
66.66627243001037
 31
0.0
  0
LINE
  5
A47
330
576
100
AcDbEntity
  8
SUNPOU
 62
     4
100
AcDbLine
 10
259.9265396595271
 20
66.21922242115445
 30
0.0
 11
257.2431980927528
 21
64.87770162891132
 31
0.0
  0
LINE
  5
A48
330
576
100
AcDbEntity
  8
SUNPOU
 62
     4
100
AcDbLine
 10
266.187722793076
 20
69.34946400564069
 30
0.0
 11
277.3683126546361
 21
74.9391339733204
 31
0.0
  0
LINE
  5
A49
330
576
100
AcDbEntity
  8
SUNPOU
 62
     4
100
AcDbLine
 10
262.6098812263015
 20
67.56074321339759
 30
0.0
 11
263.5043812263015
 21
68.00794321339757
 31
0.0
  0
INSERT
  5
A4A
330
576
100
AcDbEntity
  8
SUNPOU
 62
     4
100
AcDbBlockReference
  2
_OPEN
 10
262.6098812263015
 20
67.56074321339759
 30
0.0
 41
3.0
 42
3.0
 43
3.0
 50
26.56248898320024
  0
INSERT
  5
A4B
330
576
100
AcDbEntity
  8
SUNPOU
 62
     4
100
AcDbBlockReference
  2
_OPEN
 10
263.5043812263015
 20
68.00794321339757
 30
0.0
 41
3.0
 42
3.0
 43
3.0
 50
206.5624889832002
  0
MTEXT
  5
A4C
330
576
100
AcDbEntity
  8
SUNPOU
 62
     4
100
AcDbMText
 10
272.0017545137072
 20
75.05117735791412
 30
0.0
 40
3.0
 41
0.0
 71
     5
 72
     1
  1
\A1;t1.0
 11
0.8944471889248053
 21
0.4471735974143753
 31
0.0
1001
ACAD
1000
MTEXTBEGIN
1070
    73
1070
     1
1070
    44
1040
1.0
1070
    74
1070
     0
1000
MTEXTEND
  0
POINT
  5
A4D
330
576
100
AcDbEntity
  8
DEFPOINTS
 62
     0
100
AcDbPoint
 10
253.1382679369436
 20
86.50608777361901
 30
0.0
  0
POINT
  5
A4E
330
576
100
AcDbEntity
  8
DEFPOINTS
 62
     0
100
AcDbPoint
 10
254.0327679369436
 20
86.95328777361899
 30
0.0
  0
POINT
  5
A4F
330
576
100
AcDbEntity
  8
DEFPOINTS
 62
     0
100
AcDbPoint
 10
263.5043812263015
 20
68.00794321339757
 30
0.0
  0
ENDBLK
  5
583
330
576
100
AcDbEntity
  8
0
100
AcDbBlockEnd
  0
BLOCK
  5
5A5
330
59B
100
AcDbEntity
  8
0
100
AcDbBlockBegin
  2
*D8
 70
     1
 10
0.0
 20
0.0
 30
0.0
  3
*D8
  1

  0
LINE
  5
9E7
330
59B
100
AcDbEntity
  8
SUNPOU
 62
     4
100
AcDbLine
 10
251.0327679369435
 20
86.95328777361899
 30
0.0
 11
56.06146143265004
 21
86.95328777361906
 31
0.0
  0
LINE
  5
9E8
330
59B
100
AcDbEntity
  8
SUNPOU
 62
     4
100
AcDbLine
 10
88.96456793694365
 20
117.491387773619
 30
0.0
 11
56.06146143265005
 21
117.491387773619
 31
0.0
  0
LINE
  5
9E9
330
59B
100
AcDbEntity
  8
SUNPOU
 62
     4
100
AcDbLine
 10
57.56146143265004
 20
89.95328777361905
 30
0.0
 11
57.56146143265005
 21
114.491387773619
 31
0.0
  0
INSERT
  5
9EA
330
59B
100
AcDbEntity
  8
SUNPOU
 62
     4
100
AcDbBlockReference
  2
_OPEN
 10
57.56146143265004
 20
86.95328777361906
 30
0.0
 41
3.0
 42
3.0
 43
3.0
 50
270.0
  0
INSERT
  5
9EB
330
59B
100
AcDbEntity
  8
SUNPOU
 62
     4
100
AcDbBlockReference
  2
_OPEN
 10
57.56146143265005
 20
117.491387773619
 30
0.0
 41
3.0
 42
3.0
 43
3.0
 50
90.0
  0
MTEXT
  5
9EC
330
59B
100
AcDbEntity
  8
SUNPOU
 62
     4
100
AcDbMText
 10
55.06146143265002
 20
102.222337773619
 30
0.0
 40
3.0
 41
0.0
 71
     5
 72
     1
  1
\A1;31
 11
0.0000000000000001
 21
1.0
 31
0.0
1001
ACAD
1000
MTEXTBEGIN
1070
    73
1070
     1
1070
    44
1040
1.0
1070
    74
1070
     0
1000
MTEXTEND
  0
POINT
  5
9ED
330
59B
100
AcDbEntity
  8
DEFPOINTS
 62
     0
100
AcDbPoint
 10
254.0327679369435
 20
86.95328777361899
 30
0.0
  0
POINT
  5
9EE
330
59B
100
AcDbEntity
  8
DEFPOINTS
 62
     0
100
AcDbPoint
 10
91.96456793694364
 20
117.491387773619
 30
0.0
  0
POINT
  5
9EF
330
59B
100
AcDbEntity
  8
DEFPOINTS
 62
     0
100
AcDbPoint
 10
57.56146143265005
 20
117.491387773619
 30
0.0
  0
ENDBLK
  5
5A6
330
59B
100
AcDbEntity
  8
0
100
AcDbBlockEnd
  0
BLOCK
  5
5B4
330
5A8
100
AcDbEntity
  8
0
100
AcDbBlockBegin
  2
*D9
 70
     1
 10
0.0
 20
0.0
 30
0.0
  3
*D9
  1

  0
LINE
  5
A0B
330
5A8
100
AcDbEntity
  8
SUNPOU
 62
     4
100
AcDbLine
 10
89.01376793694357
 20
117.491387773619
 30
0.0
 11
65.03808891530661
 21
117.491387773619
 31
0.0
  0
LINE
  5
A0C
330
5A8
100
AcDbEntity
  8
SUNPOU
 62
     4
100
AcDbLine
 10
90.41376793694354
 20
112.491387773619
 30
0.0
 11
65.03808891530661
 21
112.491387773619
 31
0.0
  0
LINE
  5
A0D
330
5A8
100
AcDbEntity
  8
SUNPOU
 62
     4
100
AcDbLine
 10
66.53808891530662
 20
120.491387773619
 30
0.0
 11
66.53808891530662
 21
123.491387773619
 31
0.0
  0
LINE
  5
A0E
330
5A8
100
AcDbEntity
  8
SUNPOU
 62
     4
100
AcDbLine
 10
66.53808891530662
 20
109.491387773619
 30
0.0
 11
66.53808891530662
 21
106.491387773619
 31
0.0
  0
LINE
  5
A0F
330
5A8
100
AcDbEntity
  8
SUNPOU
 62
     4
100
AcDbLine
 10
66.53808891530662
 20
117.491387773619
 30
0.0
 11
66.53808891530662
 21
112.491387773619
 31
0.0
  0
INSERT
  5
A10
330
5A8
100
AcDbEntity
  8
SUNPOU
 62
     4
100
AcDbBlockReference
  2
_OPEN
 10
66.53808891530662
 20
117.491387773619
 30
0.0
 41
3.0
 42
3.0
 43
3.0
 50
270.0
  0
INSERT
  5
A11
330
5A8
100
AcDbEntity
  8
SUNPOU
 62
     4
100
AcDbBlockReference
  2
_OPEN
 10
66.53808891530662
 20
112.491387773619
 30
0.0
 41
3.0
 42
3.0
 43
3.0
 50
90.0
  0
MTEXT
  5
A12
330
5A8
100
AcDbEntity
  8
SUNPOU
 62
     4
100
AcDbMText
 10
64.03808891530658
 20
114.991387773619
 30
0.0
 40
3.0
 41
0.0
 71
     5
 72
     1
  1
\A1;5
 11
0.0000000000000001
 21
1.0
 31
0.0
1001
ACAD
1000
MTEXTBEGIN
1070
    73
1070
     1
1070
    44
1040
1.0
1070
    74
1070
     0
1000
MTEXTEND
  0
POINT
  5
A13
330
5A8
100
AcDbEntity
  8
DEFPOINTS
 62
     0
100
AcDbPoint
 10
92.01376793694356
 20
117.491387773619
 30
0.0
  0
POINT
  5
A14
330
5A8
100
AcDbEntity
  8
DEFPOINTS
 62
     0
100
AcDbPoint
 10
93.41376793694355
 20
112.491387773619
 30
0.0
  0
POINT
  5
A15
330
5A8
100
AcDbEntity
  8
DEFPOINTS
 62
     0
100
AcDbPoint
 10
66.53808891530662
 20
112.491387773619
 30
0.0
  0
ENDBLK
  5
5B5
330
5A8
100
AcDbEntity
  8
0
100
AcDbBlockEnd
  0
BLOCK
  5
5C1
330
5B7
100
AcDbEntity
  8
0
100
AcDbBlockBegin
  2
*D10
 70
     1
 10
0.0
 20
0.0
 30
0.0
  3
*D10
  1

  0
LINE
  5
A7D
330
5B7
100
AcDbEntity
  8
SUNPOU
 62
     4
100
AcDbLine
 10
309.6369538935827
 20
167.3029725496804
 30
0.0
 11
291.6952855376125
 21
158.332269265898
 31
0.0
  0
LINE
  5
A7E
330
5B7
100
AcDbEntity
  8
SUNPOU
 62
     4
100
AcDbLine
 10
316.7923081441327
 20
152.9920552367716
 30
0.0
 11
298.8506397881625
 21
144.0213519529892
 31
0.0
  0
LINE
  5
A7F
330
5B7
100
AcDbEntity
  8
SUNPOU
 62
     4
100
AcDbLine
 10
294.3785553649355
 20
156.3197924253411
 30
0.0
 11
298.8506593642141
 21
147.3754539191817
 31
0.0
  0
INSERT
  5
A80
330
5B7
100
AcDbEntity
  8
SUNPOU
 62
     4
100
AcDbBlockReference
  2
_OPEN
 10
293.0369302392998
 20
159.0030818287158
 30
0.0
 41
3.0
 42
3.0
 43
3.0
 50
116.5647167730698
  0
INSERT
  5
A81
330
5B7
100
AcDbEntity
  8
SUNPOU
 62
     4
100
AcDbBlockReference
  2
_OPEN
 10
300.1922844898498
 20
144.692164515807
 30
0.0
 41
3.0
 42
3.0
 43
3.0
 50
296.5647167730697
  0
MTEXT
  5
A82
330
5B7
100
AcDbEntity
  8
SUNPOU
 62
     4
100
AcDbMText
 10
298.8506818673871
 20
152.9656441102912
 30
0.0
 40
3.0
 41
0.0
 71
     5
 72
     1
  1
\A1;16
 11
0.4472083752118906
 21
-0.894429801124907
 31
0.0
1001
ACAD
1000
MTEXTBEGIN
1070
    73
1070
     1
1070
    44
1040
1.0
1070
    74
1070
     0
1000
MTEXTEND
  0
POINT
  5
A83
330
5B7
100
AcDbEntity
  8
DEFPOINTS
 62
     0
100
AcDbPoint
 10
312.3202432969574
 20
168.644597675316
 30
0.0
  0
POINT
  5
A84
330
5B7
100
AcDbEntity
  8
DEFPOINTS
 62
     0
100
AcDbPoint
 10
319.4755975475074
 20
154.3336803624073
 30
0.0
  0
POINT
  5
A85
330
5B7
100
AcDbEntity
  8
DEFPOINTS
 62
     0
100
AcDbPoint
 10
300.1922844898498
 20
144.692164515807
 30
0.0
  0
ENDBLK
  5
5C2
330
5B7
100
AcDbEntity
  8
0
100
AcDbBlockEnd
  0
BLOCK
  5
5D0
330
5C4
100
AcDbEntity
  8
0
100
AcDbBlockBegin
  2
*D11
 70
     1
 10
0.0
 20
0.0
 30
0.0
  3
*D11
  1

  0
LINE
  5
A31
330
5C4
100
AcDbEntity
  8
SUNPOU
 62
     4
100
AcDbLine
 10
342.7306863639433
 20
138.0103469871199
 30
0.0
 11
323.7092707999012
 21
128.4996392051059
 31
0.0
  0
LINE
  5
A32
330
5C4
100
AcDbEntity
  8
SUNPOU
 62
     4
100
AcDbLine
 10
345.4139865458457
 20
132.6437466233111
 30
0.0
 11
326.3925709818036
 21
123.1330388412971
 31
0.0
  0
LINE
  5
A33
330
5C4
100
AcDbEntity
  8
SUNPOU
 62
     4
100
AcDbLine
 10
323.7092707999022
 20
131.8537411713555
 30
0.0
 11
322.3676300134032
 21
134.5370227443557
 31
0.0
  0
LINE
  5
A34
330
5C4
100
AcDbEntity
  8
SUNPOU
 62
     4
100
AcDbLine
 10
329.0758525548028
 20
121.1205776615465
 30
0.0
 11
330.4174933413019
 21
118.4372960885464
 31
0.0
  0
LINE
  5
A35
330
5C4
100
AcDbEntity
  8
SUNPOU
 62
     4
100
AcDbLine
 10
325.0509115864013
 20
129.1704595983554
 30
0.0
 11
327.7342117683037
 21
123.8038592345467
 31
0.0
  0
INSERT
  5
A36
330
5C4
100
AcDbEntity
  8
SUNPOU
 62
     4
100
AcDbBlockReference
  2
_OPEN
 10
325.0509115864013
 20
129.1704595983554
 30
0.0
 41
3.0
 42
3.0
 43
3.0
 50
296.565051177061
  0
INSERT
  5
A37
330
5C4
100
AcDbEntity
  8
SUNPOU
 62
     4
100
AcDbBlockReference
  2
_OPEN
 10
327.7342117683037
 20
123.8038592345467
 30
0.0
 41
3.0
 42
3.0
 43
3.0
 50
116.5650511770609
  0
MTEXT
  5
A38
330
5C4
100
AcDbEntity
  8
SUNPOU
 62
     4
100
AcDbMText
 10
328.6286296548526
 20
127.6051934052003
 30
0.0
 40
3.0
 41
0.0
 71
     5
 72
     1
  1
\A1;6
 11
0.4472135954996927
 21
-0.8944271910000484
 31
0.0
1001
ACAD
1000
MTEXTBEGIN
1070
    73
1070
     1
1070
    44
1040
1.0
1070
    74
1070
     0
1000
MTEXTEND
  0
POINT
  5
A39
330
5C4
100
AcDbEntity
  8
DEFPOINTS
 62
     0
100
AcDbPoint
 10
345.4139679369435
 20
139.3519877736189
 30
0.0
  0
POINT
  5
A3A
330
5C4
100
AcDbEntity
  8
DEFPOINTS
 62
     0
100
AcDbPoint
 10
348.0972681188459
 20
133.9853874098102
 30
0.0
  0
POINT
  5
A3B
330
5C4
100
AcDbEntity
  8
DEFPOINTS
 62
     0
100
AcDbPoint
 10
327.7342117683037
 20
123.8038592345467
 30
0.0
  0
ENDBLK
  5
5D1
330
5C4
100
AcDbEntity
  8
0
100
AcDbBlockEnd
  0
BLOCK
  5
5DD
330
5D3
100
AcDbEntity
  8
0
100
AcDbBlockBegin
  2
*D12
 70
     1
 10
0.0
 20
0.0
 30
0.0
  3
*D12
  1

  0
LINE
  5
A28
330
5D3
100
AcDbEntity
  8
SUNPOU
 62
     4
100
AcDbLine
 10
324.394986279211
 20
174.6818471565847
 30
0.0
 11
283.4190214646456
 21
154.1938679841539
 31
0.0
  0
LINE
  5
A29
330
5D3
100
AcDbEntity
  8
SUNPOU
 62
     4
100
AcDbLine
 10
345.4140228418954
 20
132.6437673938146
 30
0.0
 11
304.4380580273299
 21
112.1557882213838
 31
0.0
  0
LINE
  5
A2A
330
5D3
100
AcDbEntity
  8
SUNPOU
 62
     4
100
AcDbLine
 10
286.1023029105461
 20
152.1814066349385
 30
0.0
 11
304.4380582391619
 21
115.5098901876334
 31
0.0
  0
INSERT
  5
A2B
330
5D3
100
AcDbEntity
  8
SUNPOU
 62
     4
100
AcDbBlockReference
  2
_OPEN
 10
284.7606622935118
 20
154.864688292671
 30
0.0
 41
3.0
 42
3.0
 43
3.0
 50
116.5650475585007
  0
INSERT
  5
A2C
330
5D3
100
AcDbEntity
  8
SUNPOU
 62
     4
100
AcDbBlockReference
  2
_OPEN
 10
305.7796988561962
 20
112.8266085299009
 30
0.0
 41
3.0
 42
3.0
 43
3.0
 50
296.5650475585007
  0
MTEXT
  5
A2D
330
5D3
100
AcDbEntity
  8
SUNPOU
 62
     4
100
AcDbMText
 10
297.5062486229645
 20
134.9636822588145
 30
0.0
 40
3.0
 41
0.0
 71
     5
 72
     1
  1
\A1;47
 11
0.4472135390114357
 21
-0.8944272192441747
 31
0.0
1001
ACAD
1000
MTEXTBEGIN
1070
    73
1070
     1
1070
    44
1040
1.0
1070
    74
1070
     0
1000
MTEXTEND
  0
POINT
  5
A2E
330
5D3
100
AcDbEntity
  8
DEFPOINTS
 62
     0
100
AcDbPoint
 10
327.0782679369435
 20
176.023487773619
 30
0.0
  0
POINT
  5
A2F
330
5D3
100
AcDbEntity
  8
DEFPOINTS
 62
     0
100
AcDbPoint
 10
348.0973044996279
 20
133.9854080108489
 30
0.0
  0
POINT
  5
A30
330
5D3
100
AcDbEntity
  8
DEFPOINTS
 62
     0
100
AcDbPoint
 10
305.7796988561962
 20
112.8266085299009
 30
0.0
  0
ENDBLK
  5
5DE
330
5D3
100
AcDbEntity
  8
0
100
AcDbBlockEnd
  0
BLOCK
  5
5EA
330
5E0
100
AcDbEntity
  8
0
100
AcDbBlockBegin
  2
*D13
 70
     1
 10
0.0
 20
0.0
 30
0.0
  3
*D13
  1

  0
LINE
  5
A74
330
5E0
100
AcDbEntity
  8
SUNPOU
 62
     4
100
AcDbLine
 10
312.320211812006
 20
171.9985627365602
 30
0.0
 11
306.3666950053232
 21
183.9055972899289
 31
0.0
  0
LINE
  5
A75
330
5E0
100
AcDbEntity
  8
SUNPOU
 62
     4
100
AcDbLine
 10
339.1530122356797
 20
185.4149618892367
 30
0.0
 11
333.1994954289969
 21
197.3219964426055
 31
0.0
  0
LINE
  5
A76
330
5E0
100
AcDbEntity
  8
SUNPOU
 62
     4
100
AcDbLine
 10
309.7207969715729
 20
183.9055971840128
 30
0.0
 11
331.1870341645142
 21
194.6387149331553
 31
0.0
  0
INSERT
  5
A77
330
5E0
100
AcDbEntity
  8
SUNPOU
 62
     4
100
AcDbBlockReference
  2
_OPEN
 10
307.0375153562067
 20
182.5639564822458
 30
0.0
 41
3.0
 42
3.0
 43
3.0
 50
206.5650493677873
  0
INSERT
  5
A78
330
5E0
100
AcDbEntity
  8
SUNPOU
 62
     4
100
AcDbBlockReference
  2
_OPEN
 10
333.8703157798803
 20
195.9803556349223
 30
0.0
 41
3.0
 42
3.0
 43
3.0
 50
26.56504936778738
  0
MTEXT
  5
A79
330
5E0
100
AcDbEntity
  8
SUNPOU
 62
     4
100
AcDbMText
 10
319.3358816499044
 20
191.5082240713892
 30
0.0
 40
3.0
 41
0.0
 71
     5
 72
     1
  1
\A1;30
 11
0.8944272051220615
 21
0.4472135672556659
 31
0.0
1001
ACAD
1000
MTEXTBEGIN
1070
    73
1070
     1
1070
    44
1040
1.0
1070
    74
1070
     0
1000
MTEXTEND
  0
POINT
  5
A7A
330
5E0
100
AcDbEntity
  8
DEFPOINTS
 62
     0
100
AcDbPoint
 10
313.661852513773
 20
169.315281121194
 30
0.0
  0
POINT
  5
A7B
330
5E0
100
AcDbEntity
  8
DEFPOINTS
 62
     0
100
AcDbPoint
 10
340.4946529374466
 20
182.7316802738705
 30
0.0
  0
POINT
  5
A7C
330
5E0
100
AcDbEntity
  8
DEFPOINTS
 62
     0
100
AcDbPoint
 10
333.8703157798803
 20
195.9803556349223
 30
0.0
  0
ENDBLK
  5
5EB
330
5E0
100
AcDbEntity
  8
0
100
AcDbBlockEnd
  0
BLOCK
  5
5F7
330
5ED
100
AcDbEntity
  8
0
100
AcDbBlockBegin
  2
*D14
 70
     1
 10
0.0
 20
0.0
 30
0.0
  3
*D14
  1

  0
LINE
  5
A59
330
5ED
100
AcDbEntity
  8
SUNPOU
 62
     4
100
AcDbLine
 10
316.4826344231604
 20
160.3196729829648
 30
0.0
 11
301.5322761586338
 21
190.2205921188518
 31
0.0
  0
LINE
  5
A5A
330
5ED
100
AcDbEntity
  8
SUNPOU
 62
     4
100
AcDbLine
 10
345.9988344231604
 20
175.0776729829648
 30
0.0
 11
331.0484761586338
 21
204.9785921188518
 31
0.0
  0
LINE
  5
A5B
330
5ED
100
AcDbEntity
  8
SUNPOU
 62
     4
100
AcDbLine
 10
304.8863781248711
 20
190.220583027962
 30
0.0
 11
329.0360077061795
 21
202.2953160003958
 31
0.0
  0
INSERT
  5
A5C
330
5ED
100
AcDbEntity
  8
SUNPOU
 62
     4
100
AcDbBlockReference
  2
_OPEN
 10
302.2030929155253
 20
188.8789495141789
 30
0.0
 41
3.0
 42
3.0
 43
3.0
 50
206.564895883762
  0
INSERT
  5
A5D
330
5ED
100
AcDbEntity
  8
SUNPOU
 62
     4
100
AcDbBlockReference
  2
_OPEN
 10
331.7192929155253
 20
203.6369495141789
 30
0.0
 41
3.0
 42
3.0
 43
3.0
 50
26.56489588376206
  0
MTEXT
  5
A5E
330
5ED
100
AcDbEntity
  8
SUNPOU
 62
     4
100
AcDbMText
 10
315.8431649873728
 20
198.4940205219671
 30
0.0
 40
3.0
 41
0.0
 71
     5
 72
     1
  1
\A1;33
 11
0.8944284031152676
 21
0.4472111712610411
 31
0.0
1001
ACAD
1000
MTEXTBEGIN
1070
    73
1070
     1
1070
    44
1040
1.0
1070
    74
1070
     0
1000
MTEXTEND
  0
POINT
  5
A5F
330
5ED
100
AcDbEntity
  8
DEFPOINTS
 62
     0
100
AcDbPoint
 10
317.8242679369435
 20
157.6363877736189
 30
0.0
  0
POINT
  5
A60
330
5ED
100
AcDbEntity
  8
DEFPOINTS
 62
     0
100
AcDbPoint
 10
347.3404679369435
 20
172.394387773619
 30
0.0
  0
POINT
  5
A61
330
5ED
100
AcDbEntity
  8
DEFPOINTS
 62
     0
100
AcDbPoint
 10
331.7192929155253
 20
203.6369495141789
 30
0.0
  0
ENDBLK
  5
5F8
330
5ED
100
AcDbEntity
  8
0
100
AcDbBlockEnd
  0
BLOCK
  5
604
330
5FA
100
AcDbEntity
  8
0
100
AcDbBlockBegin
  2
*D15
 70
     1
 10
0.0
 20
0.0
 30
0.0
  3
*D15
  1

  0
LINE
  5
A50
330
5FA
100
AcDbEntity
  8
SUNPOU
 62
     4
100
AcDbLine
 10
310.0841298171072
 20
159.7002706799489
 30
0.0
 11
292.8277077176606
 21
194.2132006267433
 31
0.0
  0
LINE
  5
A51
330
5FA
100
AcDbEntity
  8
SUNPOU
 62
     4
100
AcDbLine
 10
350.3334298171074
 20
179.8248706799488
 30
0.0
 11
333.0770077176607
 21
214.3378006267433
 31
0.0
  0
LINE
  5
A52
330
5FA
100
AcDbEntity
  8
SUNPOU
 62
     4
100
AcDbLine
 10
296.1818096839087
 20
194.2131972934146
 30
0.0
 11
331.0645438712489
 21
211.654521053742
 31
0.0
  0
INSERT
  5
A53
330
5FA
100
AcDbEntity
  8
SUNPOU
 62
     4
100
AcDbBlockReference
  2
_OPEN
 10
293.4985267775788
 20
192.8715591735783
 30
0.0
 41
3.0
 42
3.0
 43
3.0
 50
206.5649942361543
  0
INSERT
  5
A54
330
5FA
100
AcDbEntity
  8
SUNPOU
 62
     4
100
AcDbBlockReference
  2
_OPEN
 10
333.7478267775789
 20
212.9961591735783
 30
0.0
 41
3.0
 42
3.0
 43
3.0
 50
26.56499423615426
  0
MTEXT
  5
A55
330
5FA
100
AcDbEntity
  8
SUNPOU
 62
     4
100
AcDbMText
 10
312.5051450110485
 20
205.1699282621866
 30
0.0
 40
3.0
 41
0.0
 71
     5
 72
     1
  1
\A1;45
 11
0.8944276354432961
 21
0.4472127066120932
 31
0.0
1001
ACAD
1000
MTEXTBEGIN
1070
    73
1070
     1
1070
    44
1040
1.0
1070
    74
1070
     0
1000
MTEXTEND
  0
POINT
  5
A56
330
5FA
100
AcDbEntity
  8
DEFPOINTS
 62
     0
100
AcDbPoint
 10
311.4257679369436
 20
157.016987773619
 30
0.0
  0
POINT
  5
A57
330
5FA
100
AcDbEntity
  8
DEFPOINTS
 62
     0
100
AcDbPoint
 10
351.6750679369436
 20
177.1415877736189
 30
0.0
  0
POINT
  5
A58
330
5FA
100
AcDbEntity
  8
DEFPOINTS
 62
     0
100
AcDbPoint
 10
333.7478267775789
 20
212.9961591735783
 30
0.0
  0
ENDBLK
  5
605
330
5FA
100
AcDbEntity
  8
0
100
AcDbBlockEnd
  0
BLOCK
  5
611
330
607
100
AcDbEntity
  8
0
100
AcDbBlockBegin
  2
*D16
 70
     1
 10
0.0
 20
0.0
 30
0.0
  3
*D16
  1

  0
LINE
  5
A1F
330
607
100
AcDbEntity
  8
SUNPOU
 62
     4
100
AcDbLine
 10
93.41376793694355
 20
234.160087773619
 30
0.0
 11
65.03808891530666
 21
234.160087773619
 31
0.0
  0
LINE
  5
A20
330
607
100
AcDbEntity
  8
SUNPOU
 62
     4
100
AcDbLine
 10
93.41376793694355
 20
221.160087773619
 30
0.0
 11
65.03808891530664
 21
221.160087773619
 31
0.0
  0
LINE
  5
A21
330
607
100
AcDbEntity
  8
SUNPOU
 62
     4
100
AcDbLine
 10
66.53808891530665
 20
231.160087773619
 30
0.0
 11
66.53808891530665
 21
224.1600877736189
 31
0.0
  0
INSERT
  5
A22
330
607
100
AcDbEntity
  8
SUNPOU
 62
     4
100
AcDbBlockReference
  2
_OPEN
 10
66.53808891530665
 20
234.160087773619
 30
0.0
 41
3.0
 42
3.0
 43
3.0
 50
90.0
  0
INSERT
  5
A23
330
607
100
AcDbEntity
  8
SUNPOU
 62
     4
100
AcDbBlockReference
  2
_OPEN
 10
66.53808891530665
 20
221.160087773619
 30
0.0
 41
3.0
 42
3.0
 43
3.0
 50
270.0
  0
MTEXT
  5
A24
330
607
100
AcDbEntity
  8
SUNPOU
 62
     4
100
AcDbMText
 10
64.03808891530662
 20
227.660087773619
 30
0.0
 40
3.0
 41
0.0
 71
     5
 72
     1
  1
\A1;13
 11
0.0000000000000001
 21
1.0
 31
0.0
1001
ACAD
1000
MTEXTBEGIN
1070
    73
1070
     1
1070
    44
1040
1.0
1070
    74
1070
     0
1000
MTEXTEND
  0
POINT
  5
A25
330
607
100
AcDbEntity
  8
DEFPOINTS
 62
     0
100
AcDbPoint
 10
96.41376793694355
 20
234.160087773619
 30
0.0
  0
POINT
  5
A26
330
607
100
AcDbEntity
  8
DEFPOINTS
 62
     0
100
AcDbPoint
 10
96.41376793694355
 20
221.160087773619
 30
0.0
  0
POINT
  5
A27
330
607
100
AcDbEntity
  8
DEFPOINTS
 62
     0
100
AcDbPoint
 10
66.53808891530665
 20
221.160087773619
 30
0.0
  0
ENDBLK
  5
612
330
607
100
AcDbEntity
  8
0
100
AcDbBlockEnd
  0
BLOCK
  5
61F
330
615
100
AcDbEntity
  8
0
100
AcDbBlockBegin
  2
*D17
 70
     1
 10
0.0
 20
0.0
 30
0.0
  3
*D17
  1

  0
LINE
  5
A16
330
615
100
AcDbEntity
  8
SUNPOU
 62
     4
100
AcDbLine
 10
89.01376793694357
 20
237.660087773619
 30
0.0
 11
56.06146143265007
 21
237.660087773619
 31
0.0
  0
LINE
  5
A17
330
615
100
AcDbEntity
  8
SUNPOU
 62
     4
100
AcDbLine
 10
89.01376793694357
 20
217.660087773619
 30
0.0
 11
56.06146143265007
 21
217.660087773619
 31
0.0
  0
LINE
  5
A18
330
615
100
AcDbEntity
  8
SUNPOU
 62
     4
100
AcDbLine
 10
57.56146143265007
 20
234.660087773619
 30
0.0
 11
57.56146143265007
 21
220.660087773619
 31
0.0
  0
INSERT
  5
A19
330
615
100
AcDbEntity
  8
SUNPOU
 62
     4
100
AcDbBlockReference
  2
_OPEN
 10
57.56146143265007
 20
237.660087773619
 30
0.0
 41
3.0
 42
3.0
 43
3.0
 50
90.0
  0
INSERT
  5
A1A
330
615
100
AcDbEntity
  8
SUNPOU
 62
     4
100
AcDbBlockReference
  2
_OPEN
 10
57.56146143265007
 20
217.660087773619
 30
0.0
 41
3.0
 42
3.0
 43
3.0
 50
270.0
  0
MTEXT
  5
A1B
330
615
100
AcDbEntity
  8
SUNPOU
 62
     4
100
AcDbMText
 10
55.06146143265003
 20
227.660087773619
 30
0.0
 40
3.0
 41
0.0
 71
     5
 72
     1
  1
\A1;20
 11
0.0000000000000001
 21
1.0
 31
0.0
1001
ACAD
1000
MTEXTBEGIN
1070
    73
1070
     1
1070
    44
1040
1.0
1070
    74
1070
     0
1000
MTEXTEND
  0
POINT
  5
A1C
330
615
100
AcDbEntity
  8
DEFPOINTS
 62
     0
100
AcDbPoint
 10
92.01376793694356
 20
237.660087773619
 30
0.0
  0
POINT
  5
A1D
330
615
100
AcDbEntity
  8
DEFPOINTS
 62
     0
100
AcDbPoint
 10
92.01376793694356
 20
217.660087773619
 30
0.0
  0
POINT
  5
A1E
330
615
100
AcDbEntity
  8
DEFPOINTS
 62
     0
100
AcDbPoint
 10
57.56146143265007
 20
217.660087773619
 30
0.0
  0
ENDBLK
  5
620
330
615
100
AcDbEntity
  8
0
100
AcDbBlockEnd
  0
ENDSEC
  0
SECTION
  2
ENTITIES
  0
LINE
  5
293
330
1A
100
AcDbEntity
  8
CENTER_L
  6
CENTER
 62
     1
 48
5.0
100
AcDbLine
 10
259.2518679369435
 20
227.660087773619
 30
0.0
 11
86.54776793694356
 21
227.660087773619
 31
0.0
  0
LINE
  5
294
330
1A
100
AcDbEntity
  8
SEIHIN
  6
CONTINUOUS
 62
     3
100
AcDbLine
 10
96.41376793694355
 20
234.160087773619
 30
0.0
 11
156.4667679369435
 21
234.160087773619
 31
0.0
  0
LINE
  5
295
330
1A
100
AcDbEntity
  8
SEIHIN
  6
CONTINUOUS
 62
     3
100
AcDbLine
 10
96.41376793694355
 20
221.160087773619
 30
0.0
 11
156.4667679369435
 21
221.160087773619
 31
0.0
  0
LINE
  5
296
330
1A
100
AcDbEntity
  8
SEIHIN
  6
CONTINUOUS
 62
     3
100
AcDbLine
 10
112.0137679369435
 20
112.491387773619
 30
0.0
 11
119.8137679369435
 21
107.991387773619
 31
0.0
  0
LINE
  5
297
330
1A
100
AcDbEntity
  8
SEIHIN
  6
CONTINUOUS
 62
     3
100
AcDbLine
 10
118.3409679369435
 20
102.491387773619
 30
0.0
 11
187.0137679369435
 21
102.491387773619
 31
0.0
  0
LINE
  5
29E
330
1A
100
AcDbEntity
  8
SEIHIN
  6
CONTINUOUS
 62
     3
100
AcDbLine
 10
93.41376793694355
 20
111.591387773619
 30
0.0
 11
101.0878679369435
 21
111.591387773619
 31
0.0
  0
LINE
  5
29F
330
1A
100
AcDbEntity
  8
SEIHIN
  6
CONTINUOUS
 62
     3
100
AcDbLine
 10
93.41376793694355
 20
112.491387773619
 30
0.0
 11
112.0137679369435
 21
112.491387773619
 31
0.0
  0
ARC
  5
2A2
330
1A
100
AcDbEntity
  8
SEIHIN
  6
CONTINUOUS
 62
     3
100
AcDbCircle
 10
93.41376793694355
 20
112.991387773619
 30
0.0
 40
1.399999999999991
100
AcDbArc
 50
180.0
 51
270.0
  0
ARC
  5
2A3
330
1A
100
AcDbEntity
  8
SEIHIN
  6
CONTINUOUS
 62
     3
100
AcDbCircle
 10
93.41376793694355
 20
112.991387773619
 30
0.0
 40
0.5
100
AcDbArc
 50
180.0
 51
270.0
  0
LINE
  5
2A4
330
1A
100
AcDbEntity
  8
SEIHIN
  6
CONTINUOUS
 62
     3
100
AcDbLine
 10
92.91376793694354
 20
112.991387773619
 30
0.0
 11
92.91376793694354
 21
117.491387773619
 31
0.0
  0
LINE
  5
2A5
330
1A
100
AcDbEntity
  8
SEIHIN
  6
CONTINUOUS
 62
     3
100
AcDbLine
 10
92.01376793694356
 20
117.491387773619
 30
0.0
 11
92.01376793694356
 21
112.991487773619
 31
0.0
  0
LINE
  5
2A6
330
1A
100
AcDbEntity
  8
SEIHIN
  6
CONTINUOUS
 62
     3
100
AcDbLine
 10
92.01376793694356
 20
117.491387773619
 30
0.0
 11
92.91376793694354
 21
117.491387773619
 31
0.0
  0
LINE
  5
2A7
330
1A
100
AcDbEntity
  8
SEIHIN
  6
CONTINUOUS
 62
     3
100
AcDbLine
 10
105.6137679369435
 20
106.991387773619
 30
0.0
 11
110.5409679369435
 21
106.991387773619
 31
0.0
  0
ARC
  5
2A8
330
1A
100
AcDbEntity
  8
SEIHIN
  6
CONTINUOUS
 62
     3
100
AcDbCircle
 10
105.6137679369435
 20
111.591387773619
 30
0.0
 40
4.59999999999998
100
AcDbArc
 50
180.0
 51
270.0
  0
ARC
  5
2A9
330
1A
100
AcDbEntity
  8
SEIHIN
  6
CONTINUOUS
 62
     3
100
AcDbCircle
 10
99.51376793694358
 20
111.591387773619
 30
0.0
 40
1.5
100
AcDbArc
 50
180.0
 51
270.0
  0
LINE
  5
2AA
330
1A
100
AcDbEntity
  8
SEIHIN
  6
CONTINUOUS
 62
     3
100
AcDbLine
 10
99.51376793694358
 20
110.0913877736189
 30
0.0
 11
101.2651679369435
 21
110.0913877736189
 31
0.0
  0
LINE
  5
2AB
330
1A
100
AcDbEntity
  8
SEIHIN
  6
CONTINUOUS
 62
     3
100
AcDbLine
 10
110.5409679369435
 20
106.991387773619
 30
0.0
 11
118.3409679369435
 21
102.491387773619
 31
0.0
  0
LINE
  5
2BC
330
1A
100
AcDbEntity
  8
SEIHIN
  6
CONTINUOUS
 62
     3
100
AcDbLine
 10
92.91376793694354
 20
217.660087773619
 30
0.0
 11
92.91376793694354
 21
227.660087773619
 31
0.0
  0
LINE
  5
2BD
330
1A
100
AcDbEntity
  8
SEIHIN
  6
CONTINUOUS
 62
     3
100
AcDbLine
 10
92.01376793694356
 20
217.660087773619
 30
0.0
 11
92.01376793694356
 21
227.660087773619
 31
0.0
  0
ARC
  5
2BE
330
1A
100
AcDbEntity
  8
SEIHIN
  6
CONTINUOUS
 62
     3
100
AcDbCircle
 10
96.41376793694355
 20
217.660087773619
 30
0.0
 40
3.5
100
AcDbArc
 50
90.0
 51
180.0
  0
LINE
  5
2BF
330
1A
100
AcDbEntity
  8
SEIHIN
  6
CONTINUOUS
 62
     3
100
AcDbLine
 10
92.01376793694356
 20
217.660087773619
 30
0.0
 11
92.91376793694354
 21
217.660087773619
 31
0.0
  0
LINE
  5
2C2
330
1A
100
AcDbEntity
  8
SEIHIN
  6
CONTINUOUS
 62
     3
100
AcDbLine
 10
92.01376793694356
 20
237.660087773619
 30
0.0
 11
92.01376793694356
 21
227.660087773619
 31
0.0
  0
LINE
  5
2C3
330
1A
100
AcDbEntity
  8
SEIHIN
  6
CONTINUOUS
 62
     3
100
AcDbLine
 10
92.91376793694354
 20
237.660087773619
 30
0.0
 11
92.91376793694354
 21
227.660087773619
 31
0.0
  0
ARC
  5
2C4
330
1A
100
AcDbEntity
  8
SEIHIN
  6
CONTINUOUS
 62
     3
100
AcDbCircle
 10
96.41376793694355
 20
237.660087773619
 30
0.0
 40
3.5
100
AcDbArc
 50
180.0
 51
270.0
  0
LINE
  5
2C5
330
1A
100
AcDbEntity
  8
SEIHIN
  6
CONTINUOUS
 62
     3
100
AcDbLine
 10
92.01376793694356
 20
237.660087773619
 30
0.0
 11
92.91376793694354
 21
237.660087773619
 31
0.0
  0
LINE
  5
2C6
330
1A
100
AcDbEntity
  8
SEIHIN
  6
CONTINUOUS
 62
     3
100
AcDbLine
 10
112.0137679369435
 20
221.160087773619
 30
0.0
 11
112.0137679369435
 21
227.660087773619
 31
0.0
  0
ARC
  5
2C7
330
1A
100
AcDbEntity
  8
SEIHIN
  6
CONTINUOUS
 62
     3
100
AcDbCircle
 10
102.2637679369435
 20
227.660087773619
 30
0.0
 40
1.75
100
AcDbArc
 50
0.0
 51
90.0
  0
ARC
  5
2C8
330
1A
100
AcDbEntity
  8
SEIHIN
  6
CONTINUOUS
 62
     3
100
AcDbCircle
 10
102.2637679369435
 20
227.660087773619
 30
0.0
 40
1.75
100
AcDbArc
 50
270.0
 51
0.0
  0
ARC
  5
2C9
330
1A
100
AcDbEntity
  8
SEIHIN
  6
CONTINUOUS
 62
     3
100
AcDbCircle
 10
99.76376793694356
 20
227.660087773619
 30
0.0
 40
1.75
100
AcDbArc
 50
90.0
 51
180.0
  0
ARC
  5
2CA
330
1A
100
AcDbEntity
  8
SEIHIN
  6
CONTINUOUS
 62
     3
100
AcDbCircle
 10
99.76376793694356
 20
227.660087773619
 30
0.0
 40
1.75
100
AcDbArc
 50
180.0
 51
270.0
  0
LINE
  5
2CB
330
1A
100
AcDbEntity
  8
SEIHIN
  6
CONTINUOUS
 62
     3
100
AcDbLine
 10
99.76376793694356
 20
229.410087773619
 30
0.0
 11
102.2637679369435
 21
229.410087773619
 31
0.0
  0
LINE
  5
2CC
330
1A
100
AcDbEntity
  8
SEIHIN
  6
CONTINUOUS
 62
     3
100
AcDbLine
 10
99.76376793694356
 20
225.910087773619
 30
0.0
 11
102.2637679369435
 21
225.910087773619
 31
0.0
  0
LINE
  5
2CD
330
1A
100
AcDbEntity
  8
SEIHIN
  6
CONTINUOUS
 62
     3
100
AcDbLine
 10
112.0137679369435
 20
234.160087773619
 30
0.0
 11
112.0137679369435
 21
227.660087773619
 31
0.0
  0
LINE
  5
2D2
330
1A
100
AcDbEntity
  8
SUNPOU
  6
CONTINUOUS
 62
     4
100
AcDbLine
 10
256.7801713285553
 20
81.45605824132269
 30
0.0
 11
278.1775431924032
 21
38.65166384270287
 31
0.0
  0
MTEXT
  5
2D3
330
1A
100
AcDbEntity
  8
SUNPOU
  6
CONTINUOUS
 62
     4
100
AcDbMText
 10
260.2372989139142
 20
46.83581945088775
 30
0.0
 40
3.0
 41
0.0
 71
     1
 72
     5
  1
{\W1.714286;10}
 11
0.9998476952003704
 21
0.017452403917724
 31
0.0
1001
ACAD
1000
MTEXTBEGIN
1070
    73
1070
     1
1070
    44
1040
1.0
1070
    74
1070
     0
1000
MTEXTEND
1000
MTEXTBEGIN
1070
    73
1070
     1
1070
    44
1040
1.0
1070
    74
1070
     0
1000
MTEXTEND
1000
MTEXTBEGIN
1070
    73
1070
     1
1070
    44
1040
1.0
1070
    74
1070
     0
1000
MTEXTEND
  0
LINE
  5
2D4
330
1A
100
AcDbEntity
  8
SUNPOU
  6
CONTINUOUS
 62
     4
100
AcDbLine
 10
268.1775431924032
 20
38.65166384270287
 30
0.0
 11
268.1775431924032
 21
58.65166384270287
 31
0.0
  0
MTEXT
  5
2D5
330
1A
100
AcDbEntity
  8
SUNPOU
  6
CONTINUOUS
 62
     4
100
AcDbMText
 10
272.1355743131266
 20
36.54204908647091
 30
0.0
 40
3.0
 41
0.0
 71
     1
 72
     5
  1
{\W1.500000;5}
 11
0.9998476952003704
 21
0.017452403917724
 31
0.0
1001
ACAD
1000
MTEXTBEGIN
1070
    73
1070
     1
1070
    44
1040
1.0
1070
    74
1070
     0
1000
MTEXTEND
1000
MTEXTBEGIN
1070
    73
1070
     1
1070
    44
1040
1.0
1070
    74
1070
     0
1000
MTEXTEND
1000
MTEXTBEGIN
1070
    73
1070
     1
1070
    44
1040
1.0
1070
    74
1070
     0
1000
MTEXTEND
  0
LINE
  5
2D6
330
1A
100
AcDbEntity
  8
SUNPOU
  6
CONTINUOUS
 62
     4
100
AcDbLine
 10
278.1775431924032
 20
38.65166384270287
 30
0.0
 11
268.1775431924032
 21
38.65166384270287
 31
0.0
  0
LINE
  5
2E5
330
1A
100
AcDbEntity
  8
SEIHIN
  6
CONTINUOUS
 62
     3
100
AcDbLine
 10
194.6532679369435
 20
123.491487773619
 30
0.0
 11
227.0137679369435
 21
123.491487773619
 31
0.0
  0
LINE
  5
2E6
330
1A
100
AcDbEntity
  8
SEIHIN
  6
CONTINUOUS
 62
     3
100
AcDbLine
 10
191.4778679369435
 20
128.991487773619
 30
0.0
 11
231.1596679369435
 21
128.991487773619
 31
0.0
  0
ARC
  5
2EA
330
1A
100
AcDbEntity
  8
SEIHIN
  6
CONTINUOUS
 62
     3
100
AcDbCircle
 10
191.4778679369435
 20
122.991487773619
 30
0.0
 40
6.000020601595919
100
AcDbArc
 50
90.0
 51
150.0002271632824
  0
LINE
  5
2EC
330
1A
100
AcDbEntity
  8
SEIHIN
  6
CONTINUOUS
 62
     3
100
AcDbLine
 10
159.4666679369435
 20
103.491487773619
 30
0.0
 11
176.1780679369435
 21
103.491487773619
 31
0.0
  0
LINE
  5
2ED
330
1A
100
AcDbEntity
  8
SEIHIN
  6
CONTINUOUS
 62
     3
100
AcDbLine
 10
156.4667679369435
 20
108.991487773619
 30
0.0
 11
176.4667679369435
 21
108.991487773619
 31
0.0
  0
LINE
  5
2EE
330
1A
100
AcDbEntity
  8
SEIHIN
  6
CONTINUOUS
 62
     3
100
AcDbLine
 10
119.8137679369435
 20
107.991387773619
 30
0.0
 11
156.4667679369435
 21
107.991387773619
 31
0.0
  0
LINE
  5
2EF
330
1A
100
AcDbEntity
  8
SEIHIN
  6
CONTINUOUS
 62
     3
100
AcDbLine
 10
156.4667679369435
 20
106.491487773619
 30
0.0
 11
159.4666679369435
 21
103.491487773619
 31
0.0
  0
LINE
  5
2F0
330
1A
100
AcDbEntity
  8
SEIHIN
  6
CONTINUOUS
 62
     3
100
AcDbLine
 10
156.4667679369435
 20
106.491487773619
 30
0.0
 11
156.4667679369435
 21
108.991487773619
 31
0.0
  0
LINE
  5
2F2
330
1A
100
AcDbEntity
  8
SEIHIN
  6
CONTINUOUS
 62
     3
100
AcDbLine
 10
181.3741679369435
 20
106.491487773619
 30
0.0
 11
189.4570679369435
 21
120.491487773619
 31
0.0
  0
LINE
  5
2F3
330
1A
100
AcDbEntity
  8
SEIHIN
  6
CONTINUOUS
 62
     3
100
AcDbLine
 10
182.2401679369435
 20
107.991387773619
 30
0.0
 11
191.0137679369435
 21
107.991387773619
 31
0.0
  0
LINE
  5
2F6
330
1A
100
AcDbEntity
  8
SEIHIN
  6
CONTINUOUS
 62
     3
100
AcDbLine
 10
176.4667679369435
 20
108.991487773619
 30
0.0
 11
186.2816679369435
 21
125.991487773619
 31
0.0
  0
ARC
  5
2F7
330
1A
100
AcDbEntity
  8
SEIHIN
  6
CONTINUOUS
 62
     3
100
AcDbCircle
 10
176.1780679369435
 20
109.491487773619
 30
0.0
 40
6.000002300832452
100
AcDbArc
 50
270.0
 51
329.9989227074963
  0
LINE
  5
2F8
330
1A
100
AcDbEntity
  8
SEIHIN
  6
CONTINUOUS
 62
     3
100
AcDbLine
 10
206.3427679369435
 20
106.671487773619
 30
0.0
 11
206.3427679369435
 21
123.491487773619
 31
0.0
  0
LINE
  5
2F9
330
1A
100
AcDbEntity
  8
SEIHIN
  6
CONTINUOUS
 62
     3
100
AcDbLine
 10
203.4627679369435
 20
101.491487773619
 30
0.0
 11
203.4627679369435
 21
123.491487773619
 31
0.0
  0
LINE
  5
2FA
330
1A
100
AcDbEntity
  8
SEIHIN
  6
CONTINUOUS
 62
     3
100
AcDbLine
 10
206.7427679369435
 20
106.671487773619
 30
0.0
 11
206.7427679369435
 21
123.491487773619
 31
0.0
  0
LINE
  5
2FB
330
1A
100
AcDbEntity
  8
SEIHIN
  6
CONTINUOUS
 62
     3
100
AcDbLine
 10
197.5333679369435
 20
108.402687773619
 30
0.0
 11
201.7833679369435
 21
101.0414877736189
 31
0.0
  0
LINE
  5
2FC
330
1A
100
AcDbEntity
  8
SEIHIN
  6
CONTINUOUS
 62
     3
100
AcDbLine
 10
201.2637679369435
 20
100.741487773619
 30
0.0
 11
197.0137679369435
 21
108.102687773619
 31
0.0
  0
ARC
  5
2FD
330
1A
100
AcDbEntity
  8
SEIHIN
  6
CONTINUOUS
 62
     3
100
AcDbCircle
 10
191.9137679369435
 20
105.991387773619
 30
0.0
 40
1.099983692940071
100
AcDbArc
 50
295.0134320108427
 51
90.0
  0
LINE
  5
2FE
330
1A
100
AcDbEntity
  8
SEIHIN
  6
CONTINUOUS
 62
     3
100
AcDbLine
 10
187.0137679369435
 20
102.491387773619
 30
0.0
 11
192.3788679369435
 21
104.994587773619
 31
0.0
  0
LINE
  5
2FF
330
1A
100
AcDbEntity
  8
SEIHIN
  6
CONTINUOUS
 62
     3
100
AcDbLine
 10
191.9137679369435
 20
107.091387773619
 30
0.0
 11
191.0137679369435
 21
107.091387773619
 31
0.0
  0
LINE
  5
300
330
1A
100
AcDbEntity
  8
SEIHIN
  6
CONTINUOUS
 62
     3
100
AcDbLine
 10
191.0137679369435
 20
107.991387773619
 30
0.0
 11
191.0137679369435
 21
107.091387773619
 31
0.0
  0
LINE
  5
301
330
1A
100
AcDbEntity
  8
SEIHIN
  6
CONTINUOUS
 62
     3
100
AcDbLine
 10
197.5333679369435
 20
108.402687773619
 30
0.0
 11
197.0137679369435
 21
108.102687773619
 31
0.0
  0
ARC
  5
302
330
1A
100
AcDbEntity
  8
SEIHIN
  6
CONTINUOUS
 62
     3
100
AcDbCircle
 10
204.0627679369435
 20
106.671487773619
 30
0.0
 40
2.280011908929052
100
AcDbArc
 50
277.0059496684493
 51
0.0
  0
ARC
  5
303
330
1A
100
AcDbEntity
  8
SEIHIN
  6
CONTINUOUS
 62
     3
100
AcDbCircle
 10
204.0627679369435
 20
106.671487773619
 30
0.0
 40
2.680018549311909
100
AcDbArc
 50
279.0465365345733
 51
0.0
  0
ARC
  5
304
330
1A
100
AcDbEntity
  8
SEIHIN
  6
CONTINUOUS
 62
     3
100
AcDbCircle
 10
204.4627679369436
 20
103.415987773619
 30
0.0
 40
0.9999789645575026
100
AcDbArc
 50
97.00206574617972
 51
180.0
  0
ARC
  5
305
330
1A
100
AcDbEntity
  8
SEIHIN
  6
CONTINUOUS
 62
     3
100
AcDbCircle
 10
202.5627679369435
 20
101.491487773619
 30
0.0
 40
1.499983499818478
100
AcDbArc
 50
210.0007277808278
 51
0.0
  0
ARC
  5
306
330
1A
100
AcDbEntity
  8
SEIHIN
  6
CONTINUOUS
 62
     3
100
AcDbCircle
 10
202.5627679369435
 20
101.491487773619
 30
0.0
 40
0.8999900998911121
100
AcDbArc
 50
210.0007277808293
 51
0.0
  0
ARC
  5
307
330
1A
100
AcDbEntity
  8
SEIHIN
  6
CONTINUOUS
 62
     3
100
AcDbCircle
 10
204.5627679369435
 20
103.530987773619
 30
0.0
 40
0.5000081998655269
100
AcDbArc
 50
99.04411226652698
 51
180.0
  0
LINE
  5
308
330
1A
100
AcDbEntity
  8
SEIHIN
  6
CONTINUOUS
 62
     3
100
AcDbLine
 10
204.0627679369435
 20
103.530987773619
 30
0.0
 11
204.0627679369435
 21
101.491487773619
 31
0.0
  0
ARC
  5
309
330
1A
100
AcDbEntity
  8
SEIHIN
  6
CONTINUOUS
 62
     3
100
AcDbCircle
 10
194.6532679369435
 20
117.491487773619
 30
0.0
 40
5.999977300330799
100
AcDbArc
 50
90.0
 51
149.9997496981193
  0
LINE
  5
310
330
1A
100
AcDbEntity
  8
SEIHIN
  6
CONTINUOUS
 62
     3
100
AcDbLine
 10
233.8429679369435
 20
127.333087773619
 30
0.0
 11
254.0327679369435
 21
86.95328777361899
 31
0.0
  0
LINE
  5
311
330
1A
100
AcDbEntity
  8
CENTER_L
  6
CENTER
 62
     1
 48
5.0
100
AcDbLine
 10
245.5834679369435
 20
89.43678777361901
 30
0.0
 11
254.9502679369435
 21
94.12008777361903
 31
0.0
  0
LINE
  5
312
330
1A
100
AcDbEntity
  8
SEIHIN
  6
CONTINUOUS
 62
     3
100
AcDbLine
 10
236.5914679369435
 20
119.5999877736189
 30
0.0
 11
253.1382679369435
 21
86.50608777361901
 31
0.0
  0
LINE
  5
313
330
1A
100
AcDbEntity
  8
SEIHIN
  6
CONTINUOUS
 62
     3
100
AcDbLine
 10
253.1383679369435
 20
86.50608777361901
 30
0.0
 11
254.0327679369435
 21
86.95328777361899
 31
0.0
  0
LINE
  5
314
330
1A
100
AcDbEntity
  8
SEIHIN
  6
CONTINUOUS
 62
     3
100
AcDbLine
 10
227.0137679369435
 20
123.491487773619
 30
0.0
 11
235.4734679369435
 21
124.072087773619
 31
0.0
  0
LINE
  5
315
330
1A
100
AcDbEntity
  8
SEIHIN
  6
CONTINUOUS
 62
     3
100
AcDbLine
 10
236.5914679369435
 20
119.5999877736189
 30
0.0
 11
227.0137679369435
 21
123.491487773619
 31
0.0
  0
LINE
  5
316
330
1A
100
AcDbEntity
  8
CENTER_L
  6
CENTER
 62
     1
 48
5.0
100
AcDbLine
 10
234.9743679369435
 20
112.083087773619
 30
0.0
 11
243.7698679369435
 21
116.480787773619
 31
0.0
  0
LINE
  5
317
330
1A
100
AcDbEntity
  8
SEIHIN
  6
CONTINUOUS
 62
     3
100
AcDbLine
 10
233.0837679369435
 20
121.025087773619
 30
0.0
 11
239.9455679369435
 21
107.301587773619
 31
0.0
  0
ARC
  5
318
330
1A
100
AcDbEntity
  8
SEIHIN
  6
CONTINUOUS
 62
     3
100
AcDbCircle
 10
242.1815679369435
 20
108.419587773619
 30
0.0
 40
2.49999108108409
100
AcDbArc
 50
206.565051177078
 51
296.5660760912952
  0
LINE
  5
319
330
1A
100
AcDbEntity
  8
SEIHIN
  6
CONTINUOUS
 62
     3
100
AcDbLine
 10
241.0635679369435
 20
110.655687773619
 30
0.0
 11
241.9579679369435
 21
111.102887773619
 31
0.0
  0
LINE
  5
31A
330
1A
100
AcDbEntity
  8
SEIHIN
  6
CONTINUOUS
 62
     3
100
AcDbLine
 10
236.5914679369435
 20
119.5999877736189
 30
0.0
 11
237.4858679369435
 21
120.047187773619
 31
0.0
  0
LINE
  5
31B
330
1A
100
AcDbEntity
  8
SEIHIN
  6
CONTINUOUS
 62
     3
100
AcDbLine
 10
237.0162679369435
 20
116.5141877736189
 30
0.0
 11
235.1883679369435
 21
120.169987773619
 31
0.0
  0
ARC
  5
31C
330
1A
100
AcDbEntity
  8
SEIHIN
  6
CONTINUOUS
 62
     3
100
AcDbCircle
 10
237.9106679369435
 20
116.961387773619
 30
0.0
 40
0.9999695995379013
100
AcDbArc
 50
206.565051177078
 51
296.5650511770758
  0
ARC
  5
325
330
1A
100
AcDbEntity
  8
SEIHIN
  6
CONTINUOUS
 62
     3
100
AcDbCircle
 10
231.1596679369435
 20
125.991487773619
 30
0.0
 40
2.999999120833098
100
AcDbArc
 50
26.56419706152476
 51
90.0
  0
LINE
  5
335
330
1A
100
AcDbEntity
  8
SEIHIN
  6
CONTINUOUS
 62
     3
100
AcDbLine
 10
233.0137679369435
 20
242.660087773619
 30
0.0
 11
176.4667679369435
 21
235.410087773619
 31
0.0
  0
LINE
  5
337
330
1A
100
AcDbEntity
  8
SEIHIN
  6
CONTINUOUS
 62
     3
100
AcDbLine
 10
233.0137679369435
 20
212.660087773619
 30
0.0
 11
176.4667679369435
 21
219.910087773619
 31
0.0
  0
LINE
  5
339
330
1A
100
AcDbEntity
  8
SEIHIN
  6
CONTINUOUS
 62
     3
100
AcDbLine
 10
156.4667679369435
 20
235.410087773619
 30
0.0
 11
176.4667679369435
 21
235.410087773619
 31
0.0
  0
LINE
  5
33A
330
1A
100
AcDbEntity
  8
SEIHIN
  6
CONTINUOUS
 62
     3
100
AcDbLine
 10
156.4667679369435
 20
219.910087773619
 30
0.0
 11
176.4667679369435
 21
219.910087773619
 31
0.0
  0
LINE
  5
33B
330
1A
100
AcDbEntity
  8
SEIHIN
  6
CONTINUOUS
 62
     3
100
AcDbLine
 10
119.8137679369435
 20
221.160087773619
 30
0.0
 11
119.8137679369435
 21
227.660087773619
 31
0.0
  0
LINE
  5
33C
330
1A
100
AcDbEntity
  8
SEIHIN
  6
CONTINUOUS
 62
     3
100
AcDbLine
 10
119.8137679369435
 20
234.160087773619
 30
0.0
 11
119.8137679369435
 21
227.660087773619
 31
0.0
  0
LINE
  5
33D
330
1A
100
AcDbEntity
  8
SEIHIN
  6
CONTINUOUS
 62
     3
100
AcDbLine
 10
156.4667679369435
 20
219.909987773619
 30
0.0
 11
156.4667679369435
 21
227.6601877736189
 31
0.0
  0
LINE
  5
33E
330
1A
100
AcDbEntity
  8
SEIHIN
  6
CONTINUOUS
 62
     3
100
AcDbLine
 10
156.4667679369435
 20
235.410087773619
 30
0.0
 11
156.4667679369435
 21
227.659987773619
 31
0.0
  0
ARC
  5
33F
330
1A
100
AcDbEntity
  8
SEIHIN
  6
CONTINUOUS
 62
     3
100
AcDbCircle
 10
187.0137679369435
 20
227.660087773619
 30
0.0
 40
4.0
100
AcDbArc
 50
90.0
 51
180.0
  0
ARC
  5
340
330
1A
100
AcDbEntity
  8
SEIHIN
  6
CONTINUOUS
 62
     3
100
AcDbCircle
 10
187.0137679369435
 20
227.660087773619
 30
0.0
 40
4.0
100
AcDbArc
 50
180.0
 51
270.0
  0
LINE
  5
341
330
1A
100
AcDbEntity
  8
SEIHIN
  6
CONTINUOUS
 62
     3
100
AcDbLine
 10
176.4667679369435
 20
219.910087773619
 30
0.0
 11
176.4667679369435
 21
227.660087773619
 31
0.0
  0
LINE
  5
342
330
1A
100
AcDbEntity
  8
SEIHIN
  6
CONTINUOUS
 62
     3
100
AcDbLine
 10
176.4667679369435
 20
235.410087773619
 30
0.0
 11
176.4667679369435
 21
227.660087773619
 31
0.0
  0
ARC
  5
343
330
1A
100
AcDbEntity
  8
SEIHIN
  6
CONTINUOUS
 62
     3
100
AcDbCircle
 10
186.0640679369435
 20
227.660287773619
 30
0.0
 40
4.449707363967419
100
AcDbArc
 50
302.7686484195352
 51
359.9974247351743
  0
ARC
  5
344
330
1A
100
AcDbEntity
  8
SEIHIN
  6
CONTINUOUS
 62
     3
100
AcDbCircle
 10
189.0137679369435
 20
223.077787773619
 30
0.0
 40
1.000029624122413
100
AcDbArc
 50
122.7699941687521
 51
180.0
  0
LINE
  5
345
330
1A
100
AcDbEntity
  8
SEIHIN
  6
CONTINUOUS
 62
     3
100
AcDbLine
 10
188.0137679369435
 20
218.803587773619
 30
0.0
 11
188.0137679369435
 21
223.077787773619
 31
0.0
  0
ARC
  5
346
330
1A
100
AcDbEntity
  8
SEIHIN
  6
CONTINUOUS
 62
     3
100
AcDbCircle
 10
189.0137679369435
 20
232.242387773619
 30
0.0
 40
1.000029624122413
100
AcDbArc
 50
180.0
 51
237.2300058312478
  0
ARC
  5
347
330
1A
100
AcDbEntity
  8
SEIHIN
  6
CONTINUOUS
 62
     3
100
AcDbCircle
 10
186.0640679369435
 20
227.659887773619
 30
0.0
 40
4.449707363967419
100
AcDbArc
 50
0.0025752648256108
 51
57.23135158046479
  0
LINE
  5
348
330
1A
100
AcDbEntity
  8
SEIHIN
  6
CONTINUOUS
 62
     3
100
AcDbLine
 10
188.0137679369435
 20
236.516487773619
 30
0.0
 11
188.0137679369435
 21
232.242387773619
 31
0.0
  0
LINE
  5
34A
330
1A
100
AcDbEntity
  8
SEIHIN
  6
CONTINUOUS
 62
     3
100
AcDbLine
 10
233.0137679369435
 20
232.242387773619
 30
0.0
 11
233.0137679369435
 21
241.4698877736189
 31
0.0
  0
LINE
  5
34B
330
1A
100
AcDbEntity
  8
SEIHIN
  6
CONTINUOUS
 62
     3
100
AcDbLine
 10
252.0528679369435
 20
235.961487773619
 30
0.0
 11
241.9580679369435
 21
250.160087773619
 31
0.0
  0
LINE
  5
34E
330
1A
100
AcDbEntity
  8
SEIHIN
  6
CONTINUOUS
 62
     3
100
AcDbLine
 10
252.0528679369435
 20
219.358687773619
 30
0.0
 11
241.9580679369435
 21
205.160087773619
 31
0.0
  0
LINE
  5
34F
330
1A
100
AcDbEntity
  8
SEIHIN
  6
CONTINUOUS
 62
     3
100
AcDbLine
 10
237.4858679369435
 20
205.160087773619
 30
0.0
 11
235.4734679369435
 21
212.660087773619
 31
0.0
  0
LINE
  5
350
330
1A
100
AcDbEntity
  8
SEIHIN
  6
CONTINUOUS
 62
     3
100
AcDbLine
 10
236.5914679369435
 20
205.160087773619
 30
0.0
 11
228.7185679369435
 21
212.303487773619
 31
0.0
  0
LINE
  5
352
330
1A
100
AcDbEntity
  8
SEIHIN
  6
CONTINUOUS
 62
     3
100
AcDbLine
 10
241.9579679369435
 20
205.160087773619
 30
0.0
 11
236.5914679369435
 21
205.160087773619
 31
0.0
  0
ARC
  5
353
330
1A
100
AcDbEntity
  8
SEIHIN
  6
CONTINUOUS
 62
     3
100
AcDbCircle
 10
234.9634679369435
 20
227.659887773619
 30
0.0
 40
4.449707363967411
100
AcDbArc
 50
122.7686484195362
 51
179.9974247351744
  0
ARC
  5
354
330
1A
100
AcDbEntity
  8
SEIHIN
  6
CONTINUOUS
 62
     3
100
AcDbCircle
 10
234.9634679369435
 20
227.660287773619
 30
0.0
 40
4.449707363967411
100
AcDbArc
 50
180.0025752648256
 51
237.2313515804637
  0
ARC
  5
355
330
1A
100
AcDbEntity
  8
SEIHIN
  6
CONTINUOUS
 62
     3
100
AcDbCircle
 10
225.3586679369435
 20
208.600587773619
 30
0.0
 40
5.00002067942129
100
AcDbArc
 50
47.78034549306005
 51
82.69333700565153
  0
LINE
  5
356
330
1A
100
AcDbEntity
  8
CENTER_L
  6
CENTER
 62
     1
 48
5.0
100
AcDbLine
 10
251.3495679369435
 20
224.244987773619
 30
0.0
 11
251.3495679369435
 21
231.137887773619
 31
0.0
  0
LINE
  5
358
330
1A
100
AcDbEntity
  8
SEIHIN
  6
CONTINUOUS
 62
     3
100
AcDbLine
 10
233.0137679369435
 20
223.077787773619
 30
0.0
 11
233.0137679369435
 21
213.850287773619
 31
0.0
  0
LINE
  5
35A
330
1A
100
AcDbEntity
  8
SEIHIN
  6
CONTINUOUS
 62
     3
100
AcDbLine
 10
235.4734679369435
 20
212.660087773619
 30
0.0
 11
233.0137679369435
 21
212.660087773619
 31
0.0
  0
ARC
  5
35E
330
1A
100
AcDbEntity
  8
SEIHIN
  6
CONTINUOUS
 62
     3
100
AcDbCircle
 10
232.0137679369435
 20
223.077787773619
 30
0.0
 40
1.000029624122422
100
AcDbArc
 50
0.0
 51
57.23000583125238
  0
ARC
  5
361
330
1A
100
AcDbEntity
  8
SEIHIN
  6
CONTINUOUS
 62
     3
100
AcDbCircle
 10
232.0137679369435
 20
232.242387773619
 30
0.0
 40
1.000029624122422
100
AcDbArc
 50
302.7699941687476
 51
0.0
  0
LINE
  5
36F
330
1A
100
AcDbEntity
  8
SEIHIN
  6
CONTINUOUS
 62
     3
100
AcDbLine
 10
236.5914679369435
 20
250.160087773619
 30
0.0
 11
228.7185679369435
 21
243.016587773619
 31
0.0
  0
ARC
  5
370
330
1A
100
AcDbEntity
  8
SEIHIN
  6
CONTINUOUS
 62
     3
100
AcDbCircle
 10
225.3586679369435
 20
246.719587773619
 30
0.0
 40
5.000107302344535
100
AcDbArc
 50
277.3065172597948
 51
312.2188844981966
  0
LINE
  5
374
330
1A
100
AcDbEntity
  8
SEIHIN
  6
CONTINUOUS
 62
     3
100
AcDbLine
 10
237.4858679369435
 20
250.160087773619
 30
0.0
 11
235.4734679369435
 21
242.660087773619
 31
0.0
  0
LINE
  5
375
330
1A
100
AcDbEntity
  8
SEIHIN
  6
CONTINUOUS
 62
     3
100
AcDbLine
 10
235.4734679369435
 20
242.660087773619
 30
0.0
 11
233.0137679369435
 21
242.660087773619
 31
0.0
  0
LINE
  5
377
330
1A
100
AcDbEntity
  8
SEIHIN
  6
CONTINUOUS
 62
     3
100
AcDbLine
 10
241.9579679369435
 20
250.160087773619
 30
0.0
 11
236.5914679369435
 21
250.160087773619
 31
0.0
  0
ARC
  5
38A
330
1A
100
AcDbEntity
  8
SEIHIN
  6
CONTINUOUS
 62
     3
100
AcDbCircle
 10
343.6251679369435
 20
142.929687773619
 30
0.0
 40
10.00000945174554
100
AcDbArc
 50
238.7221003441697
 51
296.5647949427941
  0
CIRCLE
  5
38B
330
1A
100
AcDbEntity
  8
SEIHIN
  6
CONTINUOUS
 62
     3
100
AcDbCircle
 10
345.4139679369435
 20
139.351987773619
 30
0.0
 40
2.049999999999954
  0
LINE
  5
38C
330
1A
100
AcDbEntity
  8
CENTER_L
  6
CENTER
 62
     1
 48
5.0
100
AcDbLine
 10
341.0192679369435
 20
137.1545877736189
 30
0.0
 11
345.4139679369435
 21
139.351987773619
 31
0.0
  0
LINE
  5
38D
330
1A
100
AcDbEntity
  8
SEIHIN
  6
CONTINUOUS
 62
     3
100
AcDbLine
 10
351.6750679369436
 20
177.1415877736189
 30
0.0
 11
342.9543679369436
 21
177.812387773619
 31
0.0
  0
LINE
  5
38E
330
1A
100
AcDbEntity
  8
CENTER_L
  6
CENTER
 62
     1
 48
5.0
100
AcDbLine
 10
349.7143679369435
 20
130.7512877736189
 30
0.0
 11
325.3514679369435
 21
179.476987773619
 31
0.0
  0
ARC
  5
38F
330
1A
100
AcDbEntity
  8
SEIHIN
  6
CONTINUOUS
 62
     3
100
AcDbCircle
 10
336.4697679369435
 20
157.2405877736189
 30
0.0
 40
3.999967841120723
100
AcDbArc
 50
296.5644105856384
 51
26.56441058563925
  0
ARC
  5
390
330
1A
100
AcDbEntity
  8
SEIHIN
  6
CONTINUOUS
 62
     3
100
AcDbCircle
 10
336.4697679369435
 20
157.2405877736189
 30
0.0
 40
3.999990201800517
100
AcDbArc
 50
206.5656917613544
 51
296.5644105856387
  0
CIRCLE
  5
391
330
1A
100
AcDbEntity
  8
SEIHIN
  6
CONTINUOUS
 62
     3
100
AcDbCircle
 10
319.4755679369435
 20
154.333687773619
 30
0.0
 40
2.050000000000011
  0
LINE
  5
392
330
1A
100
AcDbEntity
  8
CENTER_L
  6
CENTER
 62
     1
 48
5.0
100
AcDbLine
 10
315.9707679369435
 20
152.581287773619
 30
0.0
 11
323.8586679369435
 21
156.5251877736189
 31
0.0
  0
LINE
  5
393
330
1A
100
AcDbEntity
  8
CENTER_L
  6
CENTER
 62
     1
 48
5.0
100
AcDbLine
 10
321.2509679369435
 20
150.7828877736189
 30
0.0
 11
317.8242679369435
 21
157.6363877736189
 31
0.0
  0
LINE
  5
394
330
1A
100
AcDbEntity
  8
SEIHIN
  6
CONTINUOUS
 62
     3
100
AcDbLine
 10
315.8978679369435
 20
148.072687773619
 30
0.0
 11
311.4257679369435
 21
157.016987773619
 31
0.0
  0
LINE
  5
395
330
1A
100
AcDbEntity
  8
SEIHIN
  6
CONTINUOUS
 62
     3
100
AcDbLine
 10
315.8978679369435
 20
148.072687773619
 30
0.0
 11
338.4332679369435
 21
134.383087773619
 31
0.0
  0
ARC
  5
396
330
1A
100
AcDbEntity
  8
SEIHIN
  6
CONTINUOUS
 62
     3
100
AcDbCircle
 10
321.0184679369435
 20
166.9003877736189
 30
0.0
 40
1.499954399306852
100
AcDbArc
 50
26.56505117707798
 51
206.5650511770769
  0
LINE
  5
397
330
1A
100
AcDbEntity
  8
SEIHIN
  6
CONTINUOUS
 62
     3
100
AcDbLine
 10
319.6768679369435
 20
166.229587773619
 30
0.0
 11
322.8073679369435
 21
159.9685877736189
 31
0.0
  0
LINE
  5
398
330
1A
100
AcDbEntity
  8
SEIHIN
  6
CONTINUOUS
 62
     3
100
AcDbLine
 10
315.0034679369435
 20
169.9861877736189
 30
0.0
 11
323.5005760851105
 21
174.2346714771113
 31
0.0
  0
ARC
  5
39A
330
1A
100
AcDbEntity
  8
SEIHIN
  6
CONTINUOUS
 62
     3
100
AcDbCircle
 10
315.6742679369435
 20
168.644487773619
 30
0.0
 40
1.499999120999755
100
AcDbArc
 50
116.5633429969018
 51
206.565051177076
  0
LINE
  5
39B
330
1A
100
AcDbEntity
  8
SEIHIN
  6
CONTINUOUS
 62
     3
100
AcDbLine
 10
311.4257679369435
 20
157.016987773619
 30
0.0
 11
316.1215679369435
 21
164.395987773619
 31
0.0
  0
LINE
  5
39C
330
1A
100
AcDbEntity
  8
SEIHIN
  6
CONTINUOUS
 62
     3
100
AcDbLine
 10
316.1215679369435
 20
164.395987773619
 30
0.0
 11
314.3326679369435
 21
167.973687773619
 31
0.0
  0
ARC
  5
39F
330
1A
100
AcDbEntity
  8
SEIHIN
  6
CONTINUOUS
 62
     3
100
AcDbCircle
 10
341.1431679369435
 20
169.136487773619
 30
0.0
 40
1.500021481679497
100
AcDbArc
 50
206.5667593063298
 51
26.56505117707798
  0
LINE
  5
3A0
330
1A
100
AcDbEntity
  8
SEIHIN
  6
CONTINUOUS
 62
     3
100
AcDbLine
 10
336.6710679369435
 20
174.726587773619
 30
0.0
 11
339.8014679369435
 21
168.465587773619
 31
0.0
  0
LINE
  5
3A1
330
1A
100
AcDbEntity
  8
SEIHIN
  6
CONTINUOUS
 62
     3
100
AcDbLine
 10
340.0474679369435
 20
159.029387773619
 30
0.0
 11
330.6559679369435
 21
177.812387773619
 31
0.0
  0
LINE
  5
3A2
330
1A
100
AcDbEntity
  8
SEIHIN
  6
CONTINUOUS
 62
     3
100
AcDbLine
 10
332.8919679369435
 20
155.451687773619
 30
0.0
 11
323.5005679369435
 21
174.2346877736189
 31
0.0
  0
LINE
  5
3A3
330
1A
100
AcDbEntity
  8
SEIHIN
  6
CONTINUOUS
 62
     3
100
AcDbLine
 10
322.3600679369435
 20
167.5711877736189
 30
0.0
 11
325.4906679369435
 21
161.310187773619
 31
0.0
  0
ARC
  5
3A4
330
1A
100
AcDbEntity
  8
SEIHIN
  6
CONTINUOUS
 62
     3
100
AcDbCircle
 10
324.1489679369435
 20
160.639387773619
 30
0.0
 40
1.49999912099973
100
AcDbArc
 50
206.5650511770789
 51
26.56334299689986
  0
LINE
  5
3A5
330
1A
100
AcDbEntity
  8
SEIHIN
  6
CONTINUOUS
 62
     3
100
AcDbLine
 10
339.1530679369435
 20
182.060887773619
 30
0.0
 11
330.6559879369436
 21
177.812347773619
 31
0.0
  0
ARC
  5
3A6
330
1A
100
AcDbEntity
  8
SEIHIN
  6
CONTINUOUS
 62
     3
100
AcDbCircle
 10
326.2061679369435
 20
177.7676877736189
 30
0.0
 40
4.450011695471816
100
AcDbArc
 50
296.5650511770789
 51
0.5755393954553686
  0
ARC
  5
3A7
330
1A
100
AcDbEntity
  8
SEIHIN
  6
CONTINUOUS
 62
     3
100
AcDbCircle
 10
326.2061679369435
 20
177.7676877736189
 30
0.0
 40
4.449991596053495
100
AcDbArc
 50
232.5548152824206
 51
296.5650511770786
  0
ARC
  5
3A8
330
1A
100
AcDbEntity
  8
SEIHIN
  6
CONTINUOUS
 62
     3
100
AcDbCircle
 10
338.0126679369435
 20
175.397387773619
 30
0.0
 40
1.499999120999717
100
AcDbArc
 50
26.56505117707702
 51
206.5633429968998
  0
LINE
  5
3A9
330
1A
100
AcDbEntity
  8
SEIHIN
  6
CONTINUOUS
 62
     3
100
AcDbLine
 10
339.3542679369435
 20
176.068287773619
 30
0.0
 11
342.4847679369435
 21
169.807287773619
 31
0.0
  0
ARC
  5
3AA
330
1A
100
AcDbEntity
  8
SEIHIN
  6
CONTINUOUS
 62
     3
100
AcDbCircle
 10
339.8238679369435
 20
180.7192877736189
 30
0.0
 40
1.499999120999755
100
AcDbArc
 50
26.56334299690181
 51
116.565051177076
  0
LINE
  5
3AB
330
1A
100
AcDbEntity
  8
SEIHIN
  6
CONTINUOUS
 62
     3
100
AcDbLine
 10
342.9543679369436
 20
177.812387773619
 30
0.0
 11
341.1654679369435
 21
181.390087773619
 31
0.0
  0
LINE
  5
3AD
330
1A
100
AcDbEntity
  8
SEIHIN
  6
CONTINUOUS
 62
     3
100
AcDbLine
 10
356.1471679369435
 20
168.1972877736189
 30
0.0
 11
353.5775679369435
 21
141.9551877736189
 31
0.0
  0
ARC
  5
3AE
330
1A
100
AcDbEntity
  8
SEIHIN
  6
CONTINUOUS
 62
     3
100
AcDbCircle
 10
343.6251679369435
 20
142.929687773619
 30
0.0
 40
10.00000729549718
100
AcDbArc
 50
296.5647949427943
 51
354.4070784744897
  0
LINE
  5
3AF
330
1A
100
AcDbEntity
  8
CENTER_L
  6
CENTER
 62
     1
 48
5.0
100
AcDbLine
 10
349.3676679369436
 20
141.328787773619
 30
0.0
 11
345.4139679369435
 21
139.351987773619
 31
0.0
  0
CIRCLE
  5
3B0
330
1A
100
AcDbEntity
  8
SEIHIN
  6
CONTINUOUS
 62
     3
100
AcDbCircle
 10
348.9917679369435
 20
169.091687773619
 30
0.0
 40
2.049999999999954
  0
LINE
  5
3B1
330
1A
100
AcDbEntity
  8
CENTER_L
  6
CENTER
 62
     1
 48
5.0
100
AcDbLine
 10
350.7671679369435
 20
165.540987773619
 30
0.0
 11
347.3404679369435
 21
172.394387773619
 31
0.0
  0
LINE
  5
3B2
330
1A
100
AcDbEntity
  8
CENTER_L
  6
CENTER
 62
     1
 48
5.0
100
AcDbLine
 10
352.8282679369435
 20
171.009887773619
 30
0.0
 11
344.6086679369435
 21
166.9001877736189
 31
0.0
  0
LINE
  5
3B3
330
1A
100
AcDbEntity
  8
SEIHIN
  6
CONTINUOUS
 62
     3
100
AcDbLine
 10
356.1471679369435
 20
168.1972877736189
 30
0.0
 11
351.6750679369436
 21
177.1415877736189
 31
0.0
  0
LINE
  5
413
330
1A
100
AcDbEntity
  8
NOKITOI
  6
PHANTOM
 62
     8
 48
5.0
100
AcDbLine
 10
113.0652679369437
 20
68.787387773619
 30
0.0
 11
179.2958679369436
 21
68.78728777361914
 31
0.0
  0
LINE
  5
414
330
1A
100
AcDbEntity
  8
NOKITOI
  6
PHANTOM
 62
     8
 48
5.0
100
AcDbLine
 10
179.2958679369436
 20
68.78728777361914
 30
0.0
 11
113.0652679369437
 21
68.787387773619
 31
0.0
  0
LINE
  5
415
330
1A
100
AcDbEntity
  8
NOKITOI
  6
PHANTOM
 62
     8
 48
5.0
100
AcDbLine
 10
118.3809679369437
 20
70.08078777361902
 30
0.0
 11
173.9801679369437
 21
70.08068777361899
 31
0.0
  0
LINE
  5
416
330
1A
100
AcDbEntity
  8
NOKITOI
  6
PHANTOM
 62
     8
 48
5.0
100
AcDbLine
 10
103.1636679369435
 20
81.90898777361899
 30
0.0
 11
97.23266793694364
 21
110.0788877736191
 31
0.0
  0
LINE
  5
417
330
1A
100
AcDbEntity
  8
NOKITOI
  6
PHANTOM
 62
     8
 48
5.0
100
AcDbLine
 10
102.0550679369436
 20
80.89608777361901
 30
0.0
 11
96.21646793694351
 21
108.6273877736191
 31
0.0
  0
LINE
  5
418
330
1A
100
AcDbEntity
  8
NOKITOI
  6
PHANTOM
 62
     8
 48
5.0
100
AcDbLine
 10
113.7401679369435
 20
70.08738777361902
 30
0.0
 11
116.3819679369435
 21
70.08738777361902
 31
0.0
  0
LINE
  5
419
330
1A
100
AcDbEntity
  8
NOKITOI
  6
PHANTOM
 62
     8
 48
5.0
100
AcDbLine
 10
116.5196679369435
 20
77.47708777361913
 30
0.0
 11
110.2987679369436
 21
77.47708777361913
 31
0.0
  0
LINE
  5
41A
330
1A
100
AcDbEntity
  8
NOKITOI
  6
PHANTOM
 62
     8
 48
5.0
100
AcDbLine
 10
118.1820679369437
 20
78.77708777361914
 30
0.0
 11
108.2713679369436
 21
78.77708777361914
 31
0.0
  0
ARC
  5
41B
330
1A
100
AcDbEntity
  8
NOKITOI
  6
PHANTOM
 62
     8
 48
5.0
100
AcDbCircle
 10
99.29504177573456
 20
67.68104766413512
 30
0.0
 40
14.22848866365036
100
AcDbArc
 50
51.52529185494234
 51
71.45345265407101
  0
ARC
  5
41C
330
1A
100
AcDbEntity
  8
NOKITOI
  6
PHANTOM
 62
     8
 48
5.0
100
AcDbCircle
 10
99.29497500673045
 20
67.68107980072532
 30
0.0
 40
12.93471022655885
100
AcDbArc
 50
8.676219579622188
 51
74.45245455808934
  0
ARC
  5
41D
330
1A
100
AcDbEntity
  8
NOKITOI
  6
PHANTOM
 62
     8
 48
5.0
100
AcDbCircle
 10
99.29497313395694
 20
67.68107715785101
 30
0.0
 40
14.23472333170272
100
AcDbArc
 50
11.37541821407346
 51
40.79334907830746
  0
ARC
  5
41E
330
1A
100
AcDbEntity
  8
NOKITOI
  6
PHANTOM
 62
     8
 48
5.0
100
AcDbCircle
 10
113.7402448958154
 20
70.58740663790735
 30
0.0
 40
0.5000188648192144
100
AcDbArc
 50
191.386728855441
 51
270.0026402191986
  0
ARC
  5
41F
330
1A
100
AcDbEntity
  8
NOKITOI
  6
PHANTOM
 62
     8
 48
5.0
100
AcDbCircle
 10
113.0652755509613
 20
69.78238123337511
 30
0.0
 40
0.9949934597852239
100
AcDbArc
 50
188.6761125650602
 51
269.9995615538234
  0
ARC
  5
420
330
1A
100
AcDbEntity
  8
NOKITOI
  6
PHANTOM
 62
     8
 48
5.0
100
AcDbCircle
 10
110.2987715962468
 20
77.17709576549871
 30
0.0
 40
0.2999920081427447
100
AcDbArc
 50
90.00069889403132
 51
220.79672841758
  0
ARC
  5
421
330
1A
100
AcDbEntity
  8
NOKITOI
  6
PHANTOM
 62
     8
 48
5.0
100
AcDbCircle
 10
108.2713712493027
 20
78.97608661783369
 30
0.0
 40
0.1989988442421132
100
AcDbArc
 50
231.5280949042407
 51
269.9990463050553
  0
ARC
  5
422
330
1A
100
AcDbEntity
  8
NOKITOI
  6
PHANTOM
 62
     8
 48
5.0
100
AcDbCircle
 10
104.137287818715
 20
82.11396543653904
 30
0.0
 40
0.995060928010462
100
AcDbArc
 50
191.8877567214143
 51
251.4524867922937
  0
ARC
  5
423
330
1A
100
AcDbEntity
  8
NOKITOI
  6
PHANTOM
 62
     8
 48
5.0
100
AcDbCircle
 10
103.0287079613311
 20
81.1010451093932
 30
0.0
 40
0.9949785960395137
100
AcDbArc
 50
191.8875585738772
 51
254.4495841050101
  0
LINE
  5
424
330
1A
100
AcDbEntity
  8
NOKITOI
  6
PHANTOM
 62
     8
 48
5.0
100
AcDbLine
 10
118.1819679369436
 20
70.27978777361915
 30
0.0
 11
118.1820679369437
 21
78.77708777361914
 31
0.0
  0
LINE
  5
425
330
1A
100
AcDbEntity
  8
NOKITOI
  6
PHANTOM
 62
     8
 48
5.0
100
AcDbLine
 10
116.8819679369435
 20
70.58738777361913
 30
0.0
 11
116.8819679369435
 21
77.11468777361915
 31
0.0
  0
ARC
  5
426
330
1A
100
AcDbEntity
  8
NOKITOI
  6
PHANTOM
 62
     8
 48
5.0
100
AcDbCircle
 10
116.3819679369434
 20
70.58738777361907
 30
0.0
 40
0.5000000000000569
100
AcDbArc
 50
270.0000000000065
 51
0.0000000000065138
  0
ARC
  5
427
330
1A
100
AcDbEntity
  8
NOKITOI
  6
PHANTOM
 62
     8
 48
5.0
100
AcDbCircle
 10
118.3809679369437
 20
70.27978777361909
 30
0.0
 40
0.1990000000000691
100
AcDbArc
 50
179.9999999999837
 51
269.9999999999837
  0
LINE
  5
428
330
1A
100
AcDbEntity
  8
NOKITOI
  6
PHANTOM
 62
     8
 48
5.0
100
AcDbLine
 10
117.3769679369435
 20
77.97198777361899
 30
0.0
 11
116.5196679369435
 21
77.47708777361913
 31
0.0
  0
LINE
  5
429
330
1A
100
AcDbEntity
  8
NOKITOI
  6
PHANTOM
 62
     8
 48
5.0
100
AcDbLine
 10
117.3769679369435
 20
77.97198777361899
 30
0.0
 11
116.8819679369435
 21
77.11468777361915
 31
0.0
  0
LINE
  5
42A
330
1A
100
AcDbEntity
  8
NOKITOI
  6
PHANTOM
 62
     8
 48
5.0
100
AcDbLine
 10
94.10626793694365
 20
113.5850877736191
 30
0.0
 11
94.10626793694365
 21
115.9989877736191
 31
0.0
  0
LINE
  5
42B
330
1A
100
AcDbEntity
  8
NOKITOI
  6
PHANTOM
 62
     8
 48
5.0
100
AcDbLine
 10
90.47206793694357
 20
115.9989877736191
 30
0.0
 11
90.47206793694357
 21
112.0687877736191
 31
0.0
  0
LINE
  5
42C
330
1A
100
AcDbEntity
  8
NOKITOI
  6
PHANTOM
 62
     8
 48
5.0
100
AcDbLine
 10
95.39966793694356
 20
117.789887773619
 30
0.0
 11
95.39966793694356
 21
113.5850877736191
 31
0.0
  0
LINE
  5
42D
330
1A
100
AcDbEntity
  8
NOKITOI
  6
PHANTOM
 62
     8
 48
5.0
100
AcDbLine
 10
89.17856793694369
 20
109.780387773619
 30
0.0
 11
89.17856793694369
 21
117.789887773619
 31
0.0
  0
LINE
  5
42E
330
1A
100
AcDbEntity
  8
NOKITOI
  6
PHANTOM
 62
     8
 48
5.0
100
AcDbLine
 10
96.02176793694372
 20
108.7853877736189
 30
0.0
 11
90.1735679369437
 21
108.7853877736189
 31
0.0
  0
ARC
  5
42F
330
1A
100
AcDbEntity
  8
NOKITOI
  6
PHANTOM
 62
     8
 48
5.0
100
AcDbCircle
 10
92.46201793694359
 20
112.0688377736192
 30
0.0
 40
1.989950000628206
100
AcDbArc
 50
180.0014396286237
 51
270.0014396286237
  0
ARC
  5
430
330
1A
100
AcDbEntity
  8
NOKITOI
  6
PHANTOM
 62
     8
 48
5.0
100
AcDbCircle
 10
90.1735679369437
 20
109.780387773619
 30
0.0
 40
0.9950000000000045
100
AcDbArc
 50
180.0
 51
270.0
  0
LINE
  5
431
330
1A
100
AcDbEntity
  8
NOKITOI
  6
PHANTOM
 62
     8
 48
5.0
100
AcDbLine
 10
95.39966793694356
 20
113.5850877736191
 30
0.0
 11
94.10626793694365
 21
113.5850877736191
 31
0.0
  0
LINE
  5
432
330
1A
100
AcDbEntity
  8
NOKITOI
  6
PHANTOM
 62
     8
 48
5.0
100
AcDbLine
 10
92.46206793694369
 20
110.0788877736191
 30
0.0
 11
97.23266793694364
 21
110.0788877736191
 31
0.0
  0
ARC
  5
433
330
1A
100
AcDbEntity
  8
NOKITOI
  6
PHANTOM
 62
     8
 48
5.0
100
AcDbCircle
 10
96.02174949432942
 20
108.5864027370558
 30
0.0
 40
0.1989850374177657
100
AcDbArc
 50
11.88631382809341
 51
89.9946896310657
  0
LINE
  5
434
330
1A
100
AcDbEntity
  8
NOKITOI
  6
PHANTOM
 62
     8
 48
5.0
100
AcDbLine
 10
90.1735679369437
 20
118.7848877736191
 30
0.0
 11
94.40476793694363
 21
118.7848877736191
 31
0.0
  0
ARC
  5
435
330
1A
100
AcDbEntity
  8
NOKITOI
  6
PHANTOM
 62
     8
 48
5.0
100
AcDbCircle
 10
91.96451793694354
 20
115.998937773619
 30
0.0
 40
1.49245000083754
100
AcDbArc
 50
89.99808047909004
 51
179.99808047909
  0
ARC
  5
436
330
1A
100
AcDbEntity
  8
NOKITOI
  6
PHANTOM
 62
     8
 48
5.0
100
AcDbCircle
 10
90.1735679369437
 20
117.789887773619
 30
0.0
 40
0.9950000000000613
100
AcDbArc
 50
90.00000000000325
 51
180.0000000000032
  0
ARC
  5
437
330
1A
100
AcDbEntity
  8
NOKITOI
  6
PHANTOM
 62
     8
 48
5.0
100
AcDbCircle
 10
94.40471793694355
 20
117.7899377736191
 30
0.0
 40
0.9949500012563332
100
AcDbArc
 50
359.9971206704047
 51
89.99712067040476
  0
ARC
  5
438
330
1A
100
AcDbEntity
  8
NOKITOI
  6
PHANTOM
 62
     8
 48
5.0
100
AcDbCircle
 10
92.61376793694358
 20
115.998987773619
 30
0.0
 40
1.492399999999918
100
AcDbArc
 50
0.0000000000024427
 51
90.00000000000245
  0
LINE
  5
439
330
1A
100
AcDbEntity
  8
NOKITOI
  6
PHANTOM
 62
     8
 48
5.0
100
AcDbLine
 10
92.61376793694358
 20
117.491387773619
 30
0.0
 11
91.96456793694364
 21
117.491387773619
 31
0.0
  0
LINE
  5
43A
330
1A
100
AcDbEntity
  8
NOKITOI
  6
PHANTOM
 62
     8
 48
5.0
100
AcDbLine
 10
190.3061679369437
 20
80.895887773619
 30
0.0
 11
196.1448679369435
 21
108.627287773619
 31
0.0
  0
LINE
  5
43B
330
1A
100
AcDbEntity
  8
NOKITOI
  6
PHANTOM
 62
     8
 48
5.0
100
AcDbLine
 10
189.1974679369437
 20
81.90838777361916
 30
0.0
 11
194.6524679369435
 21
107.817287773619
 31
0.0
  0
ARC
  5
43C
330
1A
100
AcDbEntity
  8
NOKITOI
  6
PHANTOM
 62
     8
 48
5.0
100
AcDbCircle
 10
193.0660567806227
 20
67.68107519214495
 30
0.0
 40
12.93449408578155
100
AcDbArc
 50
105.5473332353541
 51
171.3240617643019
  0
ARC
  5
43D
330
1A
100
AcDbEntity
  8
NOKITOI
  6
PHANTOM
 62
     8
 48
5.0
100
AcDbCircle
 10
193.0661624035318
 20
67.6809815333537
 30
0.0
 40
12.93461262833301
100
AcDbArc
 50
105.5476727870197
 51
171.3237222126367
  0
ARC
  5
43E
330
1A
100
AcDbEntity
  8
NOKITOI
  6
PHANTOM
 62
     8
 48
5.0
100
AcDbCircle
 10
193.0661263916344
 20
67.68090290906278
 30
0.0
 40
14.23462403148678
100
AcDbArc
 50
139.2075062369003
 51
168.623785948384
  0
LINE
  5
43F
330
1A
100
AcDbEntity
  8
NOKITOI
  6
PHANTOM
 62
     8
 48
5.0
100
AcDbLine
 10
182.0621679369434
 20
77.47668777361901
 30
0.0
 11
175.8415679369436
 21
77.47668777361901
 31
0.0
  0
LINE
  5
440
330
1A
100
AcDbEntity
  8
NOKITOI
  6
PHANTOM
 62
     8
 48
5.0
100
AcDbLine
 10
174.1792679369435
 20
78.77678777361899
 30
0.0
 11
184.1597679369435
 21
78.77668777361913
 31
0.0
  0
LINE
  5
441
330
1A
100
AcDbEntity
  8
NOKITOI
  6
PHANTOM
 62
     8
 48
5.0
100
AcDbLine
 10
169.9801679369437
 20
70.08068777361899
 30
0.0
 11
155.2257679369435
 21
70.08068777361899
 31
0.0
  0
LINE
  5
442
330
1A
100
AcDbEntity
  8
NOKITOI
  6
PHANTOM
 62
     8
 48
5.0
100
AcDbLine
 10
174.1791679369436
 20
70.27978777361915
 30
0.0
 11
174.1792679369435
 21
78.77678777361899
 31
0.0
  0
LINE
  5
443
330
1A
100
AcDbEntity
  8
NOKITOI
  6
PHANTOM
 62
     8
 48
5.0
100
AcDbLine
 10
175.4792679369437
 20
77.114387773619
 30
0.0
 11
175.4792679369437
 21
70.58728777361904
 31
0.0
  0
LINE
  5
444
330
1A
100
AcDbEntity
  8
NOKITOI
  6
PHANTOM
 62
     8
 48
5.0
100
AcDbLine
 10
178.6209679369437
 20
70.08728777361915
 30
0.0
 11
175.9792679369436
 21
70.08728777361915
 31
0.0
  0
ARC
  5
445
330
1A
100
AcDbEntity
  8
NOKITOI
  6
PHANTOM
 62
     8
 48
5.0
100
AcDbCircle
 10
175.9792679369435
 20
70.5872877736191
 30
0.0
 40
0.4999999999999432
100
AcDbArc
 50
180.0000000000065
 51
270.0000000000065
  0
ARC
  5
446
330
1A
100
AcDbEntity
  8
NOKITOI
  6
PHANTOM
 62
     8
 48
5.0
100
AcDbCircle
 10
173.9801179369436
 20
70.27973777361907
 30
0.0
 40
0.1990500062799141
100
AcDbArc
 50
270.0143923080609
 51
0.0143923080609163
  0
ARC
  5
447
330
1A
100
AcDbEntity
  8
NOKITOI
  6
PHANTOM
 62
     8
 48
5.0
100
AcDbCircle
 10
178.6209909780719
 20
70.58730663790734
 30
0.0
 40
0.5000188648190603
100
AcDbArc
 50
269.9973597808037
 51
348.6132711445605
  0
ARC
  5
448
330
1A
100
AcDbEntity
  8
NOKITOI
  6
PHANTOM
 62
     8
 48
5.0
100
AcDbCircle
 10
179.2959178650396
 20
69.78233066121774
 30
0.0
 40
0.9950428888512103
100
AcDbArc
 50
269.9971250795227
 51
351.3214426795066
  0
LINE
  5
449
330
1A
100
AcDbEntity
  8
NOKITOI
  6
PHANTOM
 62
     8
 48
5.0
100
AcDbLine
 10
174.9842679369434
 20
77.97168777361901
 30
0.0
 11
175.8415679369436
 21
77.47668777361901
 31
0.0
  0
LINE
  5
44A
330
1A
100
AcDbEntity
  8
NOKITOI
  6
PHANTOM
 62
     8
 48
5.0
100
AcDbLine
 10
174.9842679369434
 20
77.97168777361901
 30
0.0
 11
175.4792679369437
 21
77.114387773619
 31
0.0
  0
ARC
  5
44B
330
1A
100
AcDbEntity
  8
NOKITOI
  6
PHANTOM
 62
     8
 48
5.0
100
AcDbCircle
 10
193.0661824404922
 20
67.68099569780753
 30
0.0
 40
14.22809199964113
100
AcDbArc
 50
108.5474584936553
 51
128.7537062451649
  0
ARC
  5
44C
330
1A
100
AcDbEntity
  8
NOKITOI
  6
PHANTOM
 62
     8
 48
5.0
100
AcDbCircle
 10
182.0621816147949
 20
77.17665790992518
 30
0.0
 40
0.3000298640056128
100
AcDbArc
 50
319.2190584222774
 51
90.00261201719977
  0
ARC
  5
44D
330
1A
100
AcDbEntity
  8
NOKITOI
  6
PHANTOM
 62
     8
 48
5.0
100
AcDbCircle
 10
188.2239115064947
 20
82.113436725388
 30
0.0
 40
0.9950135261271753
100
AcDbArc
 50
288.5445751594485
 51
348.1074736523477
  0
ARC
  5
44E
330
1A
100
AcDbEntity
  8
NOKITOI
  6
PHANTOM
 62
     8
 48
5.0
100
AcDbCircle
 10
189.3325422737958
 20
81.10096702500655
 30
0.0
 40
0.9949690575286499
100
AcDbArc
 50
285.5437330810334
 51
348.1110361155299
  0
LINE
  5
44F
330
1A
100
AcDbEntity
  8
NOKITOI
  6
PHANTOM
 62
     8
 48
5.0
100
AcDbLine
 10
202.1877679369436
 20
118.7847877736191
 30
0.0
 11
196.9840679369436
 21
118.7846877736189
 31
0.0
  0
LINE
  5
450
330
1A
100
AcDbEntity
  8
NOKITOI
  6
PHANTOM
 62
     8
 48
5.0
100
AcDbLine
 10
196.3395679369435
 20
108.7851877736191
 30
0.0
 11
202.1877679369436
 21
108.7851877736191
 31
0.0
  0
LINE
  5
451
330
1A
100
AcDbEntity
  8
NOKITOI
  6
PHANTOM
 62
     8
 48
5.0
100
AcDbLine
 10
201.8827679369437
 20
110.0851877736189
 30
0.0
 11
196.4584679369437
 21
110.085287773619
 31
0.0
  0
LINE
  5
452
330
1A
100
AcDbEntity
  8
NOKITOI
  6
PHANTOM
 62
     8
 48
5.0
100
AcDbLine
 10
198.0163679369434
 20
117.4846877736191
 30
0.0
 11
196.4584679369437
 21
110.085287773619
 31
0.0
  0
LINE
  5
453
330
1A
100
AcDbEntity
  8
NOKITOI
  6
PHANTOM
 62
     8
 48
5.0
100
AcDbLine
 10
194.6524679369435
 20
107.817287773619
 30
0.0
 11
196.9615679369434
 21
118.7846877736189
 31
0.0
  0
ARC
  5
454
330
1A
100
AcDbEntity
  8
NOKITOI
  6
PHANTOM
 62
     8
 48
5.0
100
AcDbCircle
 10
196.3395863795578
 20
108.5863027370558
 30
0.0
 40
0.1989850374179911
100
AcDbArc
 50
90.00531036897097
 51
168.1136861719431
  0
LINE
  5
455
330
1A
100
AcDbEntity
  8
NOKITOI
  6
PHANTOM
 62
     8
 48
5.0
100
AcDbLine
 10
201.8827679369437
 20
110.0851877736189
 30
0.0
 11
201.8827679369437
 21
117.4846877736191
 31
0.0
  0
LINE
  5
456
330
1A
100
AcDbEntity
  8
NOKITOI
  6
PHANTOM
 62
     8
 48
5.0
100
AcDbLine
 10
203.1827679369436
 20
109.7801877736189
 30
0.0
 11
203.1827679369436
 21
117.789787773619
 31
0.0
  0
ARC
  5
457
330
1A
100
AcDbEntity
  8
NOKITOI
  6
PHANTOM
 62
     8
 48
5.0
100
AcDbCircle
 10
202.1877679369437
 20
109.780187773619
 30
0.0
 40
0.9949999999999192
100
AcDbArc
 50
269.9999999999951
 51
359.9999999999951
  0
LINE
  5
458
330
1A
100
AcDbEntity
  8
NOKITOI
  6
PHANTOM
 62
     8
 48
5.0
100
AcDbLine
 10
201.8827679369437
 20
117.4846877736191
 30
0.0
 11
198.0163679369434
 21
117.4846877736191
 31
0.0
  0
ARC
  5
459
330
1A
100
AcDbEntity
  8
NOKITOI
  6
PHANTOM
 62
     8
 48
5.0
100
AcDbCircle
 10
202.1877679369436
 20
117.789787773619
 30
0.0
 40
0.9950000000000613
100
AcDbArc
 50
359.9999999999967
 51
89.99999999999674
  0
ELLIPSE
  5
4B6
330
1A
100
AcDbEntity
  8
SEIHIN
  6
CONTINUOUS
 62
     3
100
AcDbEllipse
 10
238.5816257219304
 20
218.1601946014289
 30
0.0
 11
-0.0000008586227076
 21
1.528449523356075
 31
0.0
210
0.0
220
0.0
230
-1.0
 40
0.4466666666663274
 41
0.000000250919733
 42
3.141592904509525
  0
LINE
  5
4B7
330
1A
100
AcDbEntity
  8
CENTER_L
  6
CENTER
 62
     1
 48
5.0
100
AcDbLine
 10
242.7669679369435
 20
211.160087773619
 30
0.0
 11
238.0330679369435
 21
211.160087773619
 31
0.0
  0
LINE
  5
4B9
330
1A
100
AcDbEntity
  8
CENTER_L
  6
CENTER
 62
     1
 48
5.0
100
AcDbLine
 10
242.7669679369435
 20
244.160087773619
 30
0.0
 11
238.0330679369435
 21
244.160087773619
 31
0.0
  0
ELLIPSE
  5
4BA
330
1A
100
AcDbEntity
  8
SEIHIN
  6
CONTINUOUS
 62
     3
100
AcDbEllipse
 10
238.5816257219304
 20
237.1599809458091
 30
0.0
 11
-0.0000008586227076
 21
-1.528449523356075
 31
0.0
210
0.0
220
0.0
230
1.0
 40
0.4466666666663274
 41
0.000000250919733
 42
3.141592904509525
  0
ELLIPSE
  5
4BE
330
1A
100
AcDbEntity
  8
SEIHIN
  6
CONTINUOUS
 62
     3
100
AcDbEllipse
 10
235.4512257219304
 20
218.1601946014289
 30
0.0
 11
-0.0000008586227076
 21
1.528449523356075
 31
0.0
210
0.0
220
0.0
230
-1.0
 40
0.4466666666663274
 41
3.141592904509525
 42
6.283185558099319
  0
ELLIPSE
  5
4BF
330
1A
100
AcDbEntity
  8
SEIHIN
  6
CONTINUOUS
 62
     3
100
AcDbEllipse
 10
235.4512257219304
 20
237.1599809458091
 30
0.0
 11
-0.0000008586227076
 21
-1.528449523356075
 31
0.0
210
0.0
220
0.0
230
1.0
 40
0.4466666666663274
 41
3.141592904509525
 42
6.283185558099319
  0
LINE
  5
4D2
330
1A
100
AcDbEntity
  8
SEIHIN
  6
CONTINUOUS
 62
     3
100
AcDbLine
 10
238.5816265805531
 20
216.6317450780728
 30
0.0
 11
235.4512265805531
 21
216.6317450780728
 31
0.0
  0
LINE
  5
4D4
330
1A
100
AcDbEntity
  8
SEIHIN
  6
CONTINUOUS
 62
     3
100
AcDbLine
 10
238.5816250346124
 20
219.688644124785
 30
0.0
 11
235.4512248633077
 21
219.688644124785
 31
0.0
  0
LINE
  5
4D7
330
1A
100
AcDbEntity
  8
SEIHIN
  6
CONTINUOUS
 62
     3
100
AcDbLine
 10
238.5816250346124
 20
235.631531422453
 30
0.0
 11
235.4512248633077
 21
235.631531422453
 31
0.0
  0
LINE
  5
4DB
330
1A
100
AcDbEntity
  8
SEIHIN
  6
CONTINUOUS
 62
     3
100
AcDbLine
 10
238.5816265805531
 20
238.6884304691651
 30
0.0
 11
235.4512265805531
 21
238.6884304691651
 31
0.0
  0
ELLIPSE
  5
4DE
330
1A
100
AcDbEntity
  8
SEIHIN
  6
CONTINUOUS
 62
     3
100
AcDbEllipse
 10
240.1692232942659
 20
211.160087258351
 30
0.0
 11
-0.0000011372584729
 21
2.024453852710011
 31
0.0
210
0.0
220
0.0
230
-1.0
 40
0.4463414898625748
 41
3.141545122358066
 42
9.424730429537651
  0
ELLIPSE
  5
4DF
330
1A
100
AcDbEntity
  8
SEIHIN
  6
CONTINUOUS
 62
     3
100
AcDbEllipse
 10
239.2747555025742
 20
211.1601489991952
 30
0.0
 11
-0.0000011376766044
 21
2.025198176028001
 31
0.0
210
0.0
220
0.0
230
-1.0
 40
0.4463414898625748
 41
0.5180240757174213
 42
2.623630696993638
  0
ELLIPSE
  5
4E0
330
1A
100
AcDbEntity
  8
SEIHIN
  6
CONTINUOUS
 62
     3
100
AcDbEllipse
 10
240.1692232942659
 20
244.1600882888869
 30
0.0
 11
-0.0000011372584729
 21
-2.024453852710011
 31
0.0
210
0.0
220
0.0
230
1.0
 40
0.4463414898625748
 41
3.141545122358066
 42
9.424730429537651
  0
ELLIPSE
  5
4E1
330
1A
100
AcDbEntity
  8
SEIHIN
  6
CONTINUOUS
 62
     3
100
AcDbEllipse
 10
239.2747555025742
 20
244.1600265480427
 30
0.0
 11
-0.0000011376766044
 21
-2.025198176028001
 31
0.0
210
0.0
220
0.0
230
1.0
 40
0.4463414898625748
 41
0.5180240757174213
 42
2.623630696993638
  0
ELLIPSE
  5
4E2
330
1A
100
AcDbEntity
  8
SEIHIN
  6
CONTINUOUS
 62
     3
100
AcDbEllipse
 10
251.3495873602809
 20
227.6600667728498
 30
0.0
 11
-0.0000011743743843
 21
-2.090524540857784
 31
0.0
210
0.0
220
0.0
230
1.0
 40
0.4463414898625748
 41
-3.141570167528054
 42
3.141615139651531
  0
ELLIPSE
  5
4E3
330
1A
100
AcDbEntity
  8
SEIHIN
  6
CONTINUOUS
 62
     3
100
AcDbEllipse
 10
250.4551195686161
 20
227.6600647531151
 30
0.0
 11
-0.0000011556632126
 21
-2.0572164543542
 31
0.0
210
0.0
220
0.0
230
1.0
 40
0.4463414898625747
 41
0.4896435518770082
 42
2.651951618891374
  0
ELLIPSE
  5
4E4
330
1A
100
AcDbEntity
  8
SEIHIN
  6
CONTINUOUS
 62
     3
100
AcDbEllipse
 10
249.5606543358531
 20
227.6600382087214
 30
0.0
 11
-0.0000056185035488
 21
-10.00159693721671
 31
0.0
210
0.0
220
0.0
230
1.0
 40
0.4470000446996679
 41
0.5962938852613524
 42
2.615145239164927
  0
DIMENSION
  5
4E6
330
1A
100
AcDbEntity
  8
SUNPOU
100
AcDbDimension
  2
*D1
 10
281.6665921679797
 20
205.160087773619
 30
0.0
 11
279.1665921679796
 21
227.660087773619
 31
0.0
 70
    32
  3
STANDARD
100
AcDbAlignedDimension
 13
241.9580679369435
 23
250.160087773619
 33
0.0
 14
241.9580679369435
 24
205.160087773619
 34
0.0
 50
90.0
100
AcDbRotatedDimension
1001
ACAD
1000
DSTYLE
1002
{
1070
    41
1040
3.0
1070
    42
1040
3.0
1070
    43
1040
7.0
1070
    44
1040
1.5
1070
    73
1070
     0
1070
    74
1070
     0
1070
    77
1070
     3
1070
   140
1040
3.0
1070
   141
1040
150.0
1070
   147
1040
1.0
1070
   172
1070
     1
1070
   173
1070
     1
1070
   176
1070
     4
1070
   177
1070
     4
1070
   178
1070
     4
1070
   271
1070
     0
1070
   272
1070
     2
1070
   341
1005
B2
1070
     6
1000
OPEN
1070
     7
1000
OPEN
1002
}
  0
DIMENSION
  5
4E7
330
1A
100
AcDbEntity
  8
SUNPOU
100
AcDbDimension
  2
*D2
 10
271.6837666790644
 20
211.160087773619
 30
0.0
 11
269.1837666790643
 21
227.660087773619
 31
0.0
 70
    32
  3
STANDARD
100
AcDbAlignedDimension
 13
242.7669679369435
 23
244.160087773619
 33
0.0
 14
242.7669679369435
 24
211.160087773619
 34
0.0
 50
90.0
100
AcDbRotatedDimension
1001
ACAD
1000
DSTYLE
1002
{
1070
    41
1040
3.0
1070
    42
1040
3.0
1070
    43
1040
7.0
1070
    44
1040
1.5
1070
    73
1070
     0
1070
    74
1070
     0
1070
    77
1070
     3
1070
   140
1040
3.0
1070
   141
1040
150.0
1070
   147
1040
1.0
1070
   172
1070
     1
1070
   173
1070
     1
1070
   176
1070
     4
1070
   177
1070
     4
1070
   178
1070
     4
1070
   271
1070
     0
1070
   272
1070
     2
1070
   341
1005
B2
1070
     6
1000
OPEN
1070
     7
1000
OPEN
1002
}
  0
LINE
  5
4E8
330
1A
100
AcDbEntity
  8
CENTER_L
  6
CENTER
 62
     1
 48
5.0
100
AcDbLine
 10
240.1692679369435
 20
207.774887773619
 30
0.0
 11
240.1692679369435
 21
215.0082877736189
 31
0.0
  0
LINE
  5
4EC
330
1A
100
AcDbEntity
  8
CENTER_L
  6
CENTER
 62
     1
 48
5.0
100
AcDbLine
 10
240.1692679369435
 20
247.545287773619
 30
0.0
 11
240.1692679369435
 21
240.311887773619
 31
0.0
  0
ELLIPSE
  5
52A
330
1A
100
AcDbEntity
  8
SEIHIN
  6
CONTINUOUS
 62
     3
100
AcDbEllipse
 10
242.4052358698483
 20
227.6600911943863
 30
0.0
 11
-0.0000022446405592
 21
-3.995726121468982
 31
0.0
210
0.0
220
0.0
230
1.0
 40
0.4474999301672538
 41
1.570795722715059
 42
3.141560875422462
  0
ELLIPSE
  5
52B
330
1A
100
AcDbEntity
  8
SEIHIN
  6
CONTINUOUS
 62
     3
100
AcDbEllipse
 10
242.4052358698483
 20
227.6600843504187
 30
0.0
 11
-0.0000022446405592
 21
3.995726121468982
 31
0.0
210
0.0
220
0.0
230
-1.0
 40
0.4474999301672538
 41
1.570795722715059
 42
3.141560875422462
  0
LINE
  5
52C
330
1A
100
AcDbEntity
  8
SEIHIN
  6
CONTINUOUS
 62
     3
100
AcDbLine
 10
242.4051949997498
 20
223.6600877724025
 30
0.0
 11
188.0137679369435
 21
223.6600877724025
 31
0.0
  0
LINE
  5
52E
330
1A
100
AcDbEntity
  8
SEIHIN
  6
CONTINUOUS
 62
     3
100
AcDbLine
 10
242.405194999397
 20
231.6600877800742
 30
0.0
 11
188.0137679365907
 21
231.6600877752765
 31
0.0
  0
DIMENSION
  5
52F
330
1A
100
AcDbEntity
  8
SUNPOU
100
AcDbDimension
  2
*D3
 10
233.0137720439475
 20
151.3672299023873
 30
0.0
 11
210.5137405786808
 21
153.8672299023874
 31
0.0
 70
    32
  3
STANDARD
100
AcDbAlignedDimension
 13
188.0137091134141
 23
128.991487773619
 33
0.0
 14
233.0137720439475
 24
128.991487773619
 34
0.0
100
AcDbRotatedDimension
1001
ACAD
1000
DSTYLE
1002
{
1070
    41
1040
3.0
1070
    42
1040
3.0
1070
    43
1040
7.0
1070
    44
1040
1.5
1070
    73
1070
     0
1070
    74
1070
     0
1070
    77
1070
     3
1070
   140
1040
3.0
1070
   141
1040
150.0
1070
   147
1040
1.0
1070
   172
1070
     1
1070
   173
1070
     1
1070
   176
1070
     4
1070
   177
1070
     4
1070
   178
1070
     4
1070
   271
1070
     0
1070
   272
1070
     2
1070
   341
1005
B2
1070
     6
1000
OPEN
1070
     7
1000
OPEN
1002
}
  0
DIMENSION
  5
53C
330
1A
100
AcDbEntity
  8
SUNPOU
100
AcDbDimension
  2
*D4
 10
92.01376793694356
 20
158.9202162460727
 30
0.0
 11
162.5137699904455
 21
161.4202162460727
 31
0.0
 70
    32
  3
STANDARD
100
AcDbAlignedDimension
 13
233.0137720439475
 23
128.991487773619
 33
0.0
 14
92.01376793694356
 24
117.491387773619
 34
0.0
100
AcDbRotatedDimension
1001
ACAD
1000
DSTYLE
1002
{
1070
    41
1040
3.0
1070
    42
1040
3.0
1070
    43
1040
7.0
1070
    44
1040
1.5
1070
    73
1070
     0
1070
    74
1070
     0
1070
    77
1070
     3
1070
   140
1040
3.0
1070
   141
1040
150.0
1070
   147
1040
1.0
1070
   172
1070
     1
1070
   173
1070
     1
1070
   176
1070
     4
1070
   177
1070
     4
1070
   178
1070
     4
1070
   271
1070
     0
1070
   272
1070
     2
1070
   341
1005
B2
1070
     6
1000
OPEN
1070
     7
1000
OPEN
1002
}
  0
DIMENSION
  5
55B
330
1A
100
AcDbEntity
  8
SUNPOU
100
AcDbDimension
  2
*D5
 10
233.0137720439475
 20
143.1061517178286
 30
0.0
 11
218.0982699904455
 21
145.6061517178286
 31
0.0
 70
    32
  3
STANDARD
100
AcDbAlignedDimension
 13
203.1827679369436
 23
117.789787773619
 33
0.0
 14
233.0137720439475
 24
128.991487773619
 34
0.0
100
AcDbRotatedDimension
1001
ACAD
1000
DSTYLE
1002
{
1070
    41
1040
3.0
1070
    42
1040
3.0
1070
    43
1040
7.0
1070
    44
1040
1.5
1070
    73
1070
     0
1070
    74
1070
     0
1070
    77
1070
     3
1070
   140
1040
3.0
1070
   141
1040
150.0
1070
   147
1040
1.0
1070
   172
1070
     1
1070
   173
1070
     1
1070
   176
1070
     4
1070
   177
1070
     4
1070
   178
1070
     4
1070
   271
1070
     0
1070
   272
1070
     2
1070
   341
1005
B2
1070
     6
1000
OPEN
1070
     7
1000
OPEN
1002
}
  0
DIMENSION
  5
568
330
1A
100
AcDbEntity
  8
SUNPOU
100
AcDbDimension
  2
*D6
 10
251.8768454091726
 20
138.4229777420988
 30
0.0
 11
264.6224135482045
 21
118.5219073007697
 31
0.0
 70
    33
  3
STANDARD
100
AcDbAlignedDimension
 13
254.0327679369435
 23
86.95328777361899
 33
0.0
 14
233.0137720439475
 24
128.991487773619
 34
0.0
1001
ACAD
1000
DSTYLE
1002
{
1070
    41
1040
3.0
1070
    42
1040
3.0
1070
    43
1040
7.0
1070
    44
1040
1.5
1070
    73
1070
     0
1070
    74
1070
     0
1070
    77
1070
     3
1070
   140
1040
3.0
1070
   141
1040
150.0
1070
   147
1040
1.0
1070
   172
1070
     1
1070
   173
1070
     1
1070
   176
1070
     4
1070
   177
1070
     4
1070
   178
1070
     4
1070
   271
1070
     0
1070
   272
1070
     2
1070
   341
1005
B2
1070
     6
1000
OPEN
1070
     7
1000
OPEN
1002
}
  0
DIMENSION
  5
575
330
1A
100
AcDbEntity
  8
SUNPOU
100
AcDbDimension
  2
*D7
 10
263.5043812263015
 20
68.00794321339757
 30
0.0
 11
272.0017545137072
 21
75.05117735791412
 31
0.0
 70
    33
  1
t<>
  3
STANDARD
100
AcDbAlignedDimension
 13
253.1382679369435
 23
86.50608777361901
 33
0.0
 14
254.0327679369435
 24
86.95328777361899
 34
0.0
1001
ACAD
1000
DSTYLE
1002
{
1070
    41
1040
3.0
1070
    42
1040
3.0
1070
    43
1040
7.0
1070
    44
1040
1.5
1070
    73
1070
     0
1070
    74
1070
     0
1070
    77
1070
     3
1070
   140
1040
3.0
1070
   141
1040
150.0
1070
   147
1040
1.0
1070
   172
1070
     1
1070
   173
1070
     1
1070
   176
1070
     4
1070
   177
1070
     4
1070
   178
1070
     4
1070
   271
1070
     1
1070
   272
1070
     2
1070
   341
1005
B2
1070
     6
1000
OPEN
1070
     7
1000
OPEN
1002
}
  0
DIMENSION
  5
59A
330
1A
100
AcDbEntity
  8
SUNPOU
100
AcDbDimension
  2
*D8
 10
57.56146143265005
 20
117.491387773619
 30
0.0
 11
55.06146143265002
 21
102.222337773619
 31
0.0
 70
    32
  3
STANDARD
100
AcDbAlignedDimension
 13
254.0327679369435
 23
86.95328777361899
 33
0.0
 14
91.96456793694364
 24
117.491387773619
 34
0.0
 50
90.0
100
AcDbRotatedDimension
1001
ACAD
1000
DSTYLE
1002
{
1070
    41
1040
3.0
1070
    42
1040
3.0
1070
    43
1040
7.0
1070
    44
1040
1.5
1070
    73
1070
     0
1070
    74
1070
     0
1070
    77
1070
     3
1070
   140
1040
3.0
1070
   141
1040
150.0
1070
   147
1040
1.0
1070
   172
1070
     1
1070
   173
1070
     1
1070
   176
1070
     4
1070
   177
1070
     4
1070
   178
1070
     4
1070
   271
1070
     0
1070
   272
1070
     2
1070
   341
1005
B2
1070
     6
1000
OPEN
1070
     7
1000
OPEN
1002
}
  0
DIMENSION
  5
5A7
330
1A
100
AcDbEntity
  8
SUNPOU
100
AcDbDimension
  2
*D9
 10
66.53808891530662
 20
112.491387773619
 30
0.0
 11
64.03808891530658
 21
114.991387773619
 31
0.0
 70
    32
  3
STANDARD
100
AcDbAlignedDimension
 13
92.01376793694356
 23
117.491387773619
 33
0.0
 14
93.41376793694355
 24
112.491387773619
 34
0.0
 50
90.0
100
AcDbRotatedDimension
1001
ACAD
1000
DSTYLE
1002
{
1070
    41
1040
3.0
1070
    42
1040
3.0
1070
    43
1040
7.0
1070
    44
1040
1.5
1070
    73
1070
     0
1070
    74
1070
     0
1070
    77
1070
     3
1070
   140
1040
3.0
1070
   141
1040
150.0
1070
   147
1040
1.0
1070
   172
1070
     1
1070
   173
1070
     1
1070
   176
1070
     4
1070
   177
1070
     4
1070
   178
1070
     4
1070
   271
1070
     0
1070
   272
1070
     2
1070
   341
1005
B2
1070
     6
1000
OPEN
1070
     7
1000
OPEN
1002
}
  0
DIMENSION
  5
5B6
330
1A
100
AcDbEntity
  8
SUNPOU
100
AcDbDimension
  2
*D10
 10
300.1922844898498
 20
144.692164515807
 30
0.0
 11
298.8506818673871
 21
152.9656441102912
 31
0.0
 70
    33
  3
STANDARD
100
AcDbAlignedDimension
 13
312.3202432969574
 23
168.644597675316
 33
0.0
 14
319.4755975475073
 24
154.3336803624072
 34
0.0
1001
ACAD
1000
DSTYLE
1002
{
1070
    41
1040
3.0
1070
    42
1040
3.0
1070
    43
1040
7.0
1070
    44
1040
1.5
1070
    73
1070
     0
1070
    74
1070
     0
1070
    77
1070
     3
1070
   140
1040
3.0
1070
   141
1040
150.0
1070
   147
1040
1.0
1070
   172
1070
     1
1070
   173
1070
     1
1070
   176
1070
     4
1070
   177
1070
     4
1070
   178
1070
     4
1070
   271
1070
     0
1070
   272
1070
     2
1070
   341
1005
B2
1070
     6
1000
OPEN
1070
     7
1000
OPEN
1002
}
  0
DIMENSION
  5
5C3
330
1A
100
AcDbEntity
  8
SUNPOU
100
AcDbDimension
  2
*D11
 10
327.7342117683037
 20
123.8038592345467
 30
0.0
 11
328.6286296548526
 21
127.6051934052003
 31
0.0
 70
    33
  3
STANDARD
100
AcDbAlignedDimension
 13
345.4139679369435
 23
139.351987773619
 33
0.0
 14
348.0972681188459
 24
133.9853874098102
 34
0.0
1001
ACAD
1000
DSTYLE
1002
{
1070
    41
1040
3.0
1070
    42
1040
3.0
1070
    43
1040
7.0
1070
    44
1040
1.5
1070
    73
1070
     0
1070
    74
1070
     0
1070
    77
1070
     3
1070
   140
1040
3.0
1070
   141
1040
150.0
1070
   147
1040
1.0
1070
   172
1070
     1
1070
   173
1070
     1
1070
   176
1070
     4
1070
   177
1070
     4
1070
   178
1070
     4
1070
   271
1070
     0
1070
   272
1070
     2
1070
   341
1005
B2
1070
     6
1000
OPEN
1070
     7
1000
OPEN
1002
}
  0
DIMENSION
  5
5D2
330
1A
100
AcDbEntity
  8
SUNPOU
100
AcDbDimension
  2
*D12
 10
305.7796988561962
 20
112.8266085299009
 30
0.0
 11
297.5062486229645
 21
134.9636822588145
 31
0.0
 70
    33
  3
STANDARD
100
AcDbAlignedDimension
 13
327.0782679369435
 23
176.023487773619
 33
0.0
 14
348.0973044996279
 24
133.9854080108489
 34
0.0
1001
ACAD
1000
DSTYLE
1002
{
1070
    41
1040
3.0
1070
    42
1040
3.0
1070
    43
1040
7.0
1070
    44
1040
1.5
1070
    73
1070
     0
1070
    74
1070
     0
1070
    77
1070
     3
1070
   140
1040
3.0
1070
   141
1040
150.0
1070
   147
1040
1.0
1070
   172
1070
     1
1070
   173
1070
     1
1070
   176
1070
     4
1070
   177
1070
     4
1070
   178
1070
     4
1070
   271
1070
     0
1070
   272
1070
     2
1070
   341
1005
B2
1070
     6
1000
OPEN
1070
     7
1000
OPEN
1002
}
  0
DIMENSION
  5
5DF
330
1A
100
AcDbEntity
  8
SUNPOU
100
AcDbDimension
  2
*D13
 10
333.8703157798803
 20
195.9803556349223
 30
0.0
 11
319.3358816499044
 21
191.5082240713892
 31
0.0
 70
    33
  3
STANDARD
100
AcDbAlignedDimension
 13
313.661852513773
 23
169.315281121194
 33
0.0
 14
340.4946529374466
 24
182.7316802738705
 34
0.0
1001
ACAD
1000
DSTYLE
1002
{
1070
    41
1040
3.0
1070
    42
1040
3.0
1070
    43
1040
7.0
1070
    44
1040
1.5
1070
    73
1070
     0
1070
    74
1070
     0
1070
    77
1070
     3
1070
   140
1040
3.0
1070
   141
1040
150.0
1070
   147
1040
1.0
1070
   172
1070
     1
1070
   173
1070
     1
1070
   176
1070
     4
1070
   177
1070
     4
1070
   178
1070
     4
1070
   271
1070
     0
1070
   272
1070
     2
1070
   341
1005
B2
1070
     6
1000
OPEN
1070
     7
1000
OPEN
1002
}
  0
DIMENSION
  5
5EC
330
1A
100
AcDbEntity
  8
SUNPOU
100
AcDbDimension
  2
*D14
 10
331.7192929155253
 20
203.6369495141789
 30
0.0
 11
315.8431649873728
 21
198.4940205219671
 31
0.0
 70
    33
  3
STANDARD
100
AcDbAlignedDimension
 13
317.8242679369435
 23
157.6363877736189
 33
0.0
 14
347.3404679369435
 24
172.394387773619
 34
0.0
1001
ACAD
1000
DSTYLE
1002
{
1070
    41
1040
3.0
1070
    42
1040
3.0
1070
    43
1040
7.0
1070
    44
1040
1.5
1070
    73
1070
     0
1070
    74
1070
     0
1070
    77
1070
     3
1070
   140
1040
3.0
1070
   141
1040
150.0
1070
   147
1040
1.0
1070
   172
1070
     1
1070
   173
1070
     1
1070
   176
1070
     4
1070
   177
1070
     4
1070
   178
1070
     4
1070
   271
1070
     0
1070
   272
1070
     2
1070
   341
1005
B2
1070
     6
1000
OPEN
1070
     7
1000
OPEN
1002
}
  0
DIMENSION
  5
5F9
330
1A
100
AcDbEntity
  8
SUNPOU
100
AcDbDimension
  2
*D15
 10
333.7478267775789
 20
212.9961591735783
 30
0.0
 11
312.5051450110485
 21
205.1699282621866
 31
0.0
 70
    33
  3
STANDARD
100
AcDbAlignedDimension
 13
311.4257679369435
 23
157.016987773619
 33
0.0
 14
351.6750679369436
 24
177.1415877736189
 34
0.0
1001
ACAD
1000
DSTYLE
1002
{
1070
    41
1040
3.0
1070
    42
1040
3.0
1070
    43
1040
7.0
1070
    44
1040
1.5
1070
    73
1070
     0
1070
    74
1070
     0
1070
    77
1070
     3
1070
   140
1040
3.0
1070
   141
1040
150.0
1070
   147
1040
1.0
1070
   172
1070
     1
1070
   173
1070
     1
1070
   176
1070
     4
1070
   177
1070
     4
1070
   178
1070
     4
1070
   271
1070
     0
1070
   272
1070
     2
1070
   341
1005
B2
1070
     6
1000
OPEN
1070
     7
1000
OPEN
1002
}
  0
DIMENSION
  5
606
330
1A
100
AcDbEntity
  8
SUNPOU
100
AcDbDimension
  2
*D16
 10
66.53808891530665
 20
221.160087773619
 30
0.0
 11
64.03808891530662
 21
227.660087773619
 31
0.0
 70
    32
  3
STANDARD
100
AcDbAlignedDimension
 13
96.41376793694355
 23
234.160087773619
 33
0.0
 14
96.41376793694355
 24
221.160087773619
 34
0.0
 50
90.0
100
AcDbRotatedDimension
1001
ACAD
1000
DSTYLE
1002
{
1070
    41
1040
3.0
1070
    42
1040
3.0
1070
    43
1040
7.0
1070
    44
1040
1.5
1070
    73
1070
     0
1070
    74
1070
     0
1070
    77
1070
     3
1070
   140
1040
3.0
1070
   141
1040
150.0
1070
   147
1040
1.0
1070
   172
1070
     1
1070
   173
1070
     1
1070
   176
1070
     4
1070
   177
1070
     4
1070
   178
1070
     4
1070
   271
1070
     0
1070
   272
1070
     2
1070
   341
1005
B2
1070
     6
1000
OPEN
1070
     7
1000
OPEN
1002
}
  0
DIMENSION
  5
614
330
1A
100
AcDbEntity
  8
SUNPOU
100
AcDbDimension
  2
*D17
 10
57.56146143265007
 20
217.660087773619
 30
0.0
 11
55.06146143265003
 21
227.660087773619
 31
0.0
 70
    32
  3
STANDARD
100
AcDbAlignedDimension
 13
92.01376793694356
 23
237.660087773619
 33
0.0
 14
92.01376793694356
 24
217.660087773619
 34
0.0
 50
90.0
100
AcDbRotatedDimension
1001
ACAD
1000
DSTYLE
1002
{
1070
    41
1040
3.0
1070
    42
1040
3.0
1070
    43
1040
7.0
1070
    44
1040
1.5
1070
    73
1070
     0
1070
    74
1070
     0
1070
    77
1070
     3
1070
   140
1040
3.0
1070
   141
1040
150.0
1070
   147
1040
1.0
1070
   172
1070
     1
1070
   173
1070
     1
1070
   176
1070
     4
1070
   177
1070
     4
1070
   178
1070
     4
1070
   271
1070
     0
1070
   272
1070
     2
1070
   341
1005
B2
1070
     6
1000
OPEN
1070
     7
1000
OPEN
1002
}
  0
LEADER
  5
6C1
330
1A
100
AcDbEntity
  8
SUNPOU
100
AcDbLeader
  3
STANDARD
 40
3.0
 41
15.59999999999999
 76
     3
 10
317.9980141092524
 20
155.3557731435157
 30
0.0
 10
290.6725993016321
 20
174.8582714769441
 30
0.0
 10
272.1459737866757
 20
174.8582714769441
 30
0.0
213
0.0
223
1.5
233
0.0
1001
ACAD
1000
DSTYLE
1002
{
1070
     6
1000
OPEN
1070
    41
1040
3.0
1070
    42
1040
3.0
1070
    43
1040
7.0
1070
    44
1040
1.5
1070
    73
1070
     0
1070
    74
1070
     0
1070
    77
1070
     0
1070
   140
1040
3.0
1070
   141
1040
150.0
1070
   147
1040
1.0
1070
   172
1070
     1
1070
   173
1070
     1
1070
   176
1070
     4
1070
   177
1070
     4
1070
   178
1070
     4
1070
   271
1070
     0
1070
   272
1070
     2
1070
   341
1005
B2
1070
   343
1005
B2
1070
   344
1005
B2
1002
}
  0
MTEXT
  5
6C9
330
1A
100
AcDbEntity
  8
SUNPOU
 62
     4
100
AcDbMText
 10
288.9962370203168
 20
175.7667981154212
 30
0.0
 40
3.0
 41
0.0
 71
     9
 72
     5
  1
\A1;3-φ4.2
1001
ACAD
1000
MTEXTBEGIN
1070
    73
1070
     1
1070
    44
1040
1.0
1070
    74
1070
     0
1000
MTEXTEND
1000
MTEXTBEGIN
1070
    73
1070
     1
1070
    44
1040
1.0
1070
    74
1070
     0
1000
MTEXTEND
1000
MTEXTBEGIN
1070
    73
1070
     1
1070
    44
1040
1.0
1070
    74
1070
     0
1000
MTEXTEND
  0
LWPOLYLINE
  5
933
330
1A
100
AcDbEntity
  8
ZUWAKU
100
AcDbPolyline
 90
        4
 70
     1
 43
0.0
 10
0.4000000601703278
 20
275.4000001794725
 10
0.4000000601703278
 20
0.4000001794725563
 10
398.4000000601703
 20
0.4000001794725563
 10
398.4000000601703
 20
275.4000001794725
  0
LWPOLYLINE
  5
934
330
1A
100
AcDbEntity
  8
ZUWAKU
100
AcDbPolyline
 90
        4
 70
     1
 43
0.0
 10
0.2000000601703391
 20
275.6000001794725
 10
0.2000000601703391
 20
0.2000001794725676
 10
398.6000000601703
 20
0.2000001794725561
 10
398.6000000601703
 20
275.6000001794725
  0
LWPOLYLINE
  5
935
330
1A
100
AcDbEntity
  8
ZUWAKU
100
AcDbPolyline
 90
        4
 70
     1
 43
0.0
 10
0.0000000601703505
 20
275.8000001794725
 10
0.0000000601703505
 20
0.0000001794725222
 10
398.8000000601704
 20
0.0000001794725559
 10
398.8000000601704
 20
275.8000001794726
  0
LWPOLYLINE
  5
936
330
1A
100
AcDbEntity
  8
ZUWAKU
100
AcDbPolyline
 90
        4
 70
     1
 43
0.0
 10
0.300000060170305
 20
275.5000001794726
 10
0.300000060170305
 20
0.3000001794725335
 10
398.5000000601704
 20
0.3000001794725566
 10
398.5000000601703
 20
275.5000001794726
  0
LWPOLYLINE
  5
937
330
1A
100
AcDbEntity
  8
ZUWAKU
100
AcDbPolyline
 90
        4
 70
     1
 43
0.0
 10
0.1000000601703164
 20
275.7000001794725
 10
0.1000000601703164
 20
0.1000001794725449
 10
398.7000000601702
 20
0.1000001794725565
 10
398.7000000601704
 20
275.7000001794725
  0
LINE
  5
938
330
1A
100
AcDbEntity
  8
ZUWAKU
100
AcDbLine
 10
0.0000000601703505
 20
15.00000017947252
 30
0.0
 11
398.7000000601702
 21
15.00000017947252
 31
0.0
  0
LINE
  5
939
330
1A
100
AcDbEntity
  8
ZUWAKU
100
AcDbLine
 10
0.0000000601703505
 20
15.10000017947252
 30
0.0
 11
398.7000000601702
 21
15.10000017947252
 31
0.0
  0
LINE
  5
93A
330
1A
100
AcDbEntity
  8
ZUWAKU
100
AcDbLine
 10
0.0000000601703505
 20
15.20000017947252
 30
0.0
 11
398.7000000601702
 21
15.20000017947252
 31
0.0
  0
LINE
  5
93B
330
1A
100
AcDbEntity
  8
ZUWAKU
100
AcDbLine
 10
0.0000000601703505
 20
15.30000017947252
 30
0.0
 11
398.7000000601702
 21
15.30000017947252
 31
0.0
  0
LINE
  5
93C
330
1A
100
AcDbEntity
  8
ZUWAKU
100
AcDbLine
 10
0.0000000601703505
 20
15.40000017947252
 30
0.0
 11
398.7000000601702
 21
15.40000017947252
 31
0.0
  0
LINE
  5
93D
330
1A
100
AcDbEntity
  8
ZUWAKU
100
AcDbLine
 10
104.3233007052043
 20
7.700000179472539
 30
0.0
 11
223.712182045666
 21
7.700000179472539
 31
0.0
  0
LINE
  5
93E
330
1A
100
AcDbEntity
  8
ZUWAKU
100
AcDbLine
 10
104.3233007052043
 20
7.800000179472538
 30
0.0
 11
223.712182045666
 21
7.800000179472542
 31
0.0
  0
LINE
  5
93F
330
1A
100
AcDbEntity
  8
ZUWAKU
100
AcDbLine
 10
104.3233007052043
 20
7.600000179472541
 30
0.0
 11
223.712182045666
 21
7.600000179472537
 31
0.0
  0
CIRCLE
  5
940
330
1A
100
AcDbEntity
  8
ZUWAKU
100
AcDbCircle
 10
12.9961061375609
 20
7.600000179472523
 30
0.0
 40
0.875
  0
LINE
  5
941
330
1A
100
AcDbEntity
  8
ZUWAKU
100
AcDbLine
 10
13.4336061375609
 20
3.575000179472525
 30
0.0
 11
12.47110613756092
 21
3.575000179472525
 31
0.0
  0
LINE
  5
942
330
1A
100
AcDbEntity
  8
ZUWAKU
100
AcDbLine
 10
12.47110613756092
 20
4.975000179472523
 30
0.0
 11
13.4336061375609
 21
4.975000179472523
 31
0.0
  0
LINE
  5
943
330
1A
100
AcDbEntity
  8
ZUWAKU
100
AcDbLine
 10
13.4336061375609
 20
10.22500017947252
 30
0.0
 11
12.47110613756092
 21
10.22500017947252
 31
0.0
  0
LINE
  5
944
330
1A
100
AcDbEntity
  8
ZUWAKU
100
AcDbLine
 10
12.47110613756092
 20
11.6250001794725
 30
0.0
 11
13.4336061375609
 21
11.62500017947252
 31
0.0
  0
HATCH
  5
945
330
1A
100
AcDbEntity
  8
ZUWAKU
100
AcDbHatch
 10
0.0
 20
0.0
 30
0.0
210
0.0
220
0.0
230
1.0
  2
ANSI37
 70
     0
 71
     0
 91
        8
 92
        7
 72
     1
 73
     1
 93
       24
 10
7.251131390730279
 20
8.822424419964313
 42
-0.1989123673796348
 10
7.046106137560911
 20
9.317399166794839
 42
0.0
 10
7.046106137560911
 20
9.962500179472527
 42
-0.4142135623730912
 10
7.3086061375609
 20
10.22500017947252
 42
0.0
 10
8.796106137560855
 20
10.22500017947252
 42
0.4142135623731546
 10
9.0586061375609
 20
10.48750017947251
 42
0.0
 10
9.0586061375609
 20
11.36250017947252
 42
0.4142135623731586
 10
8.796106137560855
 20
11.62500017947252
 42
0.0
 10
7.046106137560911
 20
11.62500017947252
 42
0.4142135623730928
 10
5.646106137560934
 20
10.22500017947253
 42
0.0
 10
5.646106137560934
 20
9.317399166794903
 42
0.1989123673796619
 10
6.26118189706915
 20
7.832474926303099
 42
0.0
 10
7.716080884391487
 20
6.37757593898077
 42
-0.1989123673796613
 10
7.921106137560911
 20
5.882601192150177
 42
0.0
 10
7.921106137560911
 20
5.237500179472519
 42
-0.4142135623730911
 10
7.658606137560923
 20
4.975000179472523
 42
0.0
 10
6.171106137560968
 20
4.975000179472523
 42
0.4142135623731526
 10
5.908606137560923
 20
4.712500179472529
 42
0.0
 10
5.908606137560923
 20
3.837500179472518
 42
0.4142135623731526
 10
6.171106137560968
 20
3.575000179472525
 42
0.0
 10
7.921106137560911
 20
3.575000179472525
 42
0.4142135623731044
 10
9.321106137560946
 20
4.975000179472512
 42
0.0
 10
9.321106137560946
 20
5.882601192150149
 42
0.1989123673796604
 10
8.706030378052673
 20
7.367525432641919
 42
0.0
 97
        0
 92
        7
 72
     1
 73
     1
 93
       16
 10
11.77110613756093
 20
9.525000179472527
 42
-0.4142135623730935
 10
12.47110613756092
 20
10.22500017947252
 42
0.0
 10
13.4336061375609
 20
10.22500017947252
 42
0.4142135623731546
 10
13.69610613756094
 20
10.48750017947251
 42
0.0
 10
13.69610613756094
 20
11.36250017947252
 42
0.4142135623730951
 10
13.43360613756095
 20
11.62500017947252
 42
0.0
 10
12.47110613756086
 20
11.6250001794725
 42
0.4142135623730892
 10
10.3711061375609
 20
9.525000179472492
 42
0.0
 10
10.3711061375609
 20
5.675000179472537
 42
0.4142135623730969
 10
12.47110613756092
 20
3.575000179472525
 42
0.0
 10
13.4336061375609
 20
3.575000179472525
 42
0.4142135623731526
 10
13.69610613756094
 20
3.837500179472518
 42
0.0
 10
13.69610613756094
 20
4.712500179472529
 42
0.4142135623730891
 10
13.43360613756095
 20
4.975000179472523
 42
0.0
 10
12.47110613756092
 20
4.975000179472523
 42
-0.4142135623730928
 10
11.77110613756093
 20
5.675000179472517
 42
0.0
 97
        0
 92
        7
 72
     1
 73
     1
 93
        2
 10
12.1211061375609
 20
7.600000179472523
 42
1.0
 10
13.8711061375609
 20
7.600000179472523
 42
1.0
 97
        0
 92
        7
 72
     1
 73
     1
 93
       26
 10
18.65742937864991
 20
9.602523776254237
 42
0.0
 10
19.18824919521881
 20
11.28345319538903
 42
0.5069206636600134
 10
18.93793374562113
 20
11.62500017947252
 42
0.0
 10
18.08848905581652
 20
11.62500017947252
 42
0.3272098845218764
 10
17.83817360621884
 20
11.441547163556
 42
0.0
 10
16.90403866890295
 20
8.483453195389063
 42
-0.3272098845219541
 10
16.65372321930522
 20
8.300000179472522
 42
0.0
 10
16.58360613756099
 20
8.300000179472522
 42
-0.4142135623731526
 10
16.32110613756094
 20
8.562500179472516
 42
0.0
 10
16.32110613756094
 20
11.36250017947252
 42
0.4142135623730951
 10
16.05860613756095
 20
11.62500017947252
 42
0.0
 10
15.1836061375609
 20
11.62500017947252
 42
0.4142135623730871
 10
14.92110613756091
 20
11.36250017947253
 42
0.0
 10
14.92110613756091
 20
3.837500179472518
 42
0.4142135623730891
 10
15.1836061375609
 20
3.575000179472525
 42
0.0
 10
16.0586061375609
 20
3.575000179472525
 42
0.4142135623731526
 10
16.32110613756094
 20
3.837500179472518
 42
0.0
 10
16.32110613756094
 20
6.63750017947253
 42
-0.4142135623731526
 10
16.58360613756099
 20
6.900000179472524
 42
0.0
 10
16.65372321930527
 20
6.900000179472524
 42
-0.3272098845218915
 10
16.90403866890295
 20
6.716547163555986
 42
0.0
 10
17.83817360621884
 20
3.75845319538906
 42
0.3272098845218902
 10
18.08848905581652
 20
3.575000179472525
 42
0.0
 10
18.93793374562113
 20
3.575000179472525
 42
0.5069206636600335
 10
19.18824919521881
 20
3.916547163556028
 42
0.0
 10
18.02505350598198
 20
7.600000179472592
 42
0.0
 97
        0
 92
        7
 72
     1
 73
     1
 93
        8
 10
21.7461061375609
 20
11.36250017947252
 42
0.4142135623731546
 10
21.48360613756085
 20
11.62500017947252
 42
0.0
 10
20.60860613756096
 20
11.62500017947252
 42
0.4142135623731507
 10
20.34610613756092
 20
11.36250017947253
 42
0.0
 10
20.34610613756092
 20
3.837500179472518
 42
0.4142135623731526
 10
20.60860613756096
 20
3.575000179472525
 42
0.0
 10
21.48360613756085
 20
3.575000179472525
 42
0.4142135623731526
 10
21.7461061375609
 20
3.837500179472518
 42
0.0
 97
        0
 92
        7
 72
     1
 73
     1
 93
       24
 10
24.19610613756094
 20
9.962500179472527
 42
-0.4142135623731546
 10
24.45860613756099
 20
10.22500017947252
 42
0.0
 10
25.94610613756094
 20
10.22500017947252
 42
0.4142135623730911
 10
26.20860613756093
 20
10.48750017947251
 42
0.0
 10
26.20860613756093
 20
11.36250017947252
 42
0.4142135623730952
 10
25.94610613756094
 20
11.62500017947252
 42
0.0
 10
24.19610613756094
 20
11.62500017947252
 42
0.4142135623731048
 10
22.79610613756091
 20
10.22500017947253
 42
0.0
 10
22.79610613756091
 20
9.317399166794903
 42
0.1989123673796613
 10
23.41118189706918
 20
7.832474926303127
 42
0.0
 10
24.86608088439152
 20
6.377575938980793
 42
-0.1989123673796402
 10
25.07110613756094
 20
5.882601192150257
 42
0.0
 10
25.07110613756094
 20
5.237500179472519
 42
-0.4142135623730911
 10
24.80860613756096
 20
4.975000179472523
 42
0.0
 10
23.32110613756094
 20
4.975000179472523
 42
0.4142135623731526
 10
23.05860613756089
 20
4.712500179472529
 42
0.0
 10
23.05860613756089
 20
3.837500179472518
 42
0.4142135623730891
 10
23.32110613756089
 20
3.575000179472525
 42
0.0
 10
25.07110613756094
 20
3.575000179472525
 42
0.4142135623730925
 10
26.47110613756092
 20
4.975000179472512
 42
0.0
 10
26.47110613756092
 20
5.882601192150149
 42
0.1989123673796675
 10
25.85603037805265
 20
7.367525432641976
 42
0.0
 10
24.40113139073037
 20
8.822424419964233
 42
-0.1989123673796652
 10
24.19610613756094
 20
9.317399166794817
 42
0.0
 97
        0
 92
        7
 72
     1
 73
     1
 93
       16
 10
28.92110613756091
 20
11.36250017947251
 42
0.414213562373103
 10
28.65860613756092
 20
11.62500017947252
 42
0.0
 10
27.78360613756092
 20
11.62500017947252
 42
0.4142135623730871
 10
27.52110613756093
 20
11.36250017947253
 42
0.0
 10
27.52110613756093
 20
4.975000179472512
 42
0.4142135623730926
 10
28.92110613756091
 20
3.575000179472525
 42
0.0
 10
30.67110613756091
 20
3.575000179472525
 42
0.4142135623731044
 10
32.07110613756094
 20
4.975000179472512
 42
0.0
 10
32.07110613756094
 20
11.36250017947252
 42
0.4142135623730951
 10
31.80860613756095
 20
11.62500017947252
 42
0.0
 10
30.9336061375609
 20
11.62500017947252
 42
0.4142135623730871
 10
30.67110613756091
 20
11.36250017947253
 42
0.0
 10
30.67110613756091
 20
5.500000179472511
 42
-0.414213562373088
 10
30.14610613756093
 20
4.975000179472523
 42
0.0
 10
29.44610613756094
 20
4.975000179472523
 42
-0.4142135623731197
 10
28.92110613756091
 20
5.500000179472511
 42
0.0
 97
        0
 92
        7
 72
     1
 73
     1
 93
        8
 10
34.52110613756093
 20
11.36250017947253
 42
0.4142135623730871
 10
34.25860613756094
 20
11.62500017947252
 42
0.0
 10
33.38360613756094
 20
11.62500017947252
 42
0.4142135623731507
 10
33.1211061375609
 20
11.36250017947253
 42
0.0
 10
33.1211061375609
 20
3.837500179472518
 42
0.4142135623730891
 10
33.38360613756089
 20
3.575000179472525
 42
0.0
 10
34.25860613756094
 20
3.575000179472525
 42
0.4142135623730891
 10
34.52110613756093
 20
3.837500179472518
 42
0.0
 97
        0
 75
     0
 76
     1
 52
0.0
 41
0.1
 77
     0
 78
     2
 53
45.0
 43
-450.4711521071691
 44
-6.599999820527443
 45
-0.2245064030267288
 46
0.2245064030267288
 79
     0
 53
135.0
 43
-450.4711521071691
 44
-6.599999820527443
 45
-0.2245064030267288
 46
-0.2245064030267288
 79
     0
 47
0.057451373970553
 98
        8
 10
8.039927541682004
 20
7.583587002415299
 10
11.20225756338993
 20
9.422031270698028
 10
12.58218400300018
 20
7.755941002507881
 10
15.45703005098892
 20
8.100649002693273
 10
20.91923606964872
 20
8.330455136464081
 10
23.44910050773512
 20
9.709288337676127
 10
28.27884304637052
 20
9.364579137020029
 10
33.91353986998172
 20
9.594385270790837
  0
ARC
  5
946
330
1A
100
AcDbEntity
  8
ZUWAKU
100
AcDbCircle
 10
7.7461061375609
 20
9.317399166794874
 30
0.0
 40
2.099999999999999
100
AcDbArc
 50
180.0
 51
225.0
  0
LINE
  5
947
330
1A
100
AcDbEntity
  8
ZUWAKU
100
AcDbLine
 10
10.3711061375609
 20
5.675000179472526
 30
0.0
 11
10.3711061375609
 21
9.525000179472502
 31
0.0
  0
LINE
  5
948
330
1A
100
AcDbEntity
  8
ZUWAKU
100
AcDbLine
 10
11.77110613756093
 20
9.525000179472524
 30
0.0
 11
11.77110613756093
 21
5.675000179472526
 31
0.0
  0
ARC
  5
949
330
1A
100
AcDbEntity
  8
ZUWAKU
100
AcDbCircle
 10
7.7461061375609
 20
9.317399166794874
 30
0.0
 40
0.7
100
AcDbArc
 50
180.0000000000016
 51
224.9999999999988
  0
ARC
  5
94A
330
1A
100
AcDbEntity
  8
ZUWAKU
100
AcDbCircle
 10
12.47110613756092
 20
5.675000179472526
 30
0.0
 40
2.099999999999999
100
AcDbArc
 50
180.0
 51
270.0
  0
ARC
  5
94B
330
1A
100
AcDbEntity
  8
ZUWAKU
100
AcDbCircle
 10
7.921106137560911
 20
4.975000179472523
 30
0.0
 40
1.399999999999999
100
AcDbArc
 50
270.0
 51
0.0
  0
ARC
  5
94C
330
1A
100
AcDbEntity
  8
ZUWAKU
100
AcDbCircle
 10
7.221106137560923
 20
5.882601192150175
 30
0.0
 40
2.099999999999999
100
AcDbArc
 50
0.0
 51
45.0
  0
LINE
  5
94D
330
1A
100
AcDbEntity
  8
ZUWAKU
100
AcDbLine
 10
6.26118189706915
 20
7.832474926303113
 30
0.0
 11
7.716080884391487
 21
6.377575938980783
 31
0.0
  0
LINE
  5
94E
330
1A
100
AcDbEntity
  8
ZUWAKU
100
AcDbLine
 10
6.171106137560911
 20
4.975000179472523
 30
0.0
 11
7.658606137560923
 21
4.975000179472523
 31
0.0
  0
LINE
  5
94F
330
1A
100
AcDbEntity
  8
ZUWAKU
100
AcDbLine
 10
6.171106137560911
 20
3.575000179472525
 30
0.0
 11
7.921106137560911
 21
3.575000179472525
 31
0.0
  0
ARC
  5
950
330
1A
100
AcDbEntity
  8
ZUWAKU
100
AcDbCircle
 10
6.171106137560911
 20
4.712500179472524
 30
0.0
 40
0.2625
100
AcDbArc
 50
90.0
 51
180.0
  0
ARC
  5
951
330
1A
100
AcDbEntity
  8
ZUWAKU
100
AcDbCircle
 10
6.171106137560911
 20
3.837500179472524
 30
0.0
 40
0.2625
100
AcDbArc
 50
180.0
 51
270.0
  0
LINE
  5
952
330
1A
100
AcDbEntity
  8
ZUWAKU
100
AcDbLine
 10
5.908606137560923
 20
3.837500179472524
 30
0.0
 11
5.908606137560923
 21
4.712500179472524
 31
0.0
  0
ARC
  5
953
330
1A
100
AcDbEntity
  8
ZUWAKU
100
AcDbCircle
 10
7.221106137560923
 20
5.882601192150197
 30
0.0
 40
0.7
100
AcDbArc
 50
0.0
 51
45.0
  0
ARC
  5
954
330
1A
100
AcDbEntity
  8
ZUWAKU
100
AcDbCircle
 10
7.658606137560923
 20
5.237500179472526
 30
0.0
 40
0.2625
100
AcDbArc
 50
270.0
 51
0.0
  0
LINE
  5
955
330
1A
100
AcDbEntity
  8
ZUWAKU
100
AcDbLine
 10
7.921106137560911
 20
5.237500179472526
 30
0.0
 11
7.921106137560911
 21
5.882601192150197
 31
0.0
  0
LINE
  5
956
330
1A
100
AcDbEntity
  8
ZUWAKU
100
AcDbLine
 10
8.706030378052673
 20
7.367525432641937
 30
0.0
 11
7.251131390730336
 21
8.822424419964274
 31
0.0
  0
ARC
  5
957
330
1A
100
AcDbEntity
  8
ZUWAKU
100
AcDbCircle
 10
12.47110613756092
 20
5.675000179472526
 30
0.0
 40
0.7
100
AcDbArc
 50
180.0
 51
270.0
  0
LINE
  5
958
330
1A
100
AcDbEntity
  8
ZUWAKU
100
AcDbLine
 10
9.321106137560946
 20
4.975000179472523
 30
0.0
 11
9.321106137560946
 21
5.882601192150197
 31
0.0
  0
ARC
  5
959
330
1A
100
AcDbEntity
  8
ZUWAKU
100
AcDbCircle
 10
8.796106137560911
 20
10.48750017947252
 30
0.0
 40
0.2625
100
AcDbArc
 50
270.0
 51
0.0
  0
ARC
  5
95A
330
1A
100
AcDbEntity
  8
ZUWAKU
100
AcDbCircle
 10
8.796106137560911
 20
11.36250017947252
 30
0.0
 40
0.2625
100
AcDbArc
 50
0.0
 51
90.0
  0
ARC
  5
95B
330
1A
100
AcDbEntity
  8
ZUWAKU
100
AcDbCircle
 10
7.046106137560911
 20
10.22500017947252
 30
0.0
 40
1.399999999999999
100
AcDbArc
 50
90.0
 51
180.0
  0
LINE
  5
95C
330
1A
100
AcDbEntity
  8
ZUWAKU
100
AcDbLine
 10
5.646106137560934
 20
10.22500017947252
 30
0.0
 11
5.646106137560934
 21
9.317399166794853
 31
0.0
  0
LINE
  5
95D
330
1A
100
AcDbEntity
  8
ZUWAKU
100
AcDbLine
 10
8.796106137560911
 20
10.22500017947252
 30
0.0
 11
7.3086061375609
 21
10.22500017947252
 31
0.0
  0
LINE
  5
95E
330
1A
100
AcDbEntity
  8
ZUWAKU
100
AcDbLine
 10
7.046106137560911
 20
9.962500179472524
 30
0.0
 11
7.046106137560911
 21
9.317399166794853
 31
0.0
  0
ARC
  5
95F
330
1A
100
AcDbEntity
  8
ZUWAKU
100
AcDbCircle
 10
7.3086061375609
 20
9.962500179472524
 30
0.0
 40
0.2625
100
AcDbArc
 50
90.0
 51
180.0
  0
LINE
  5
960
330
1A
100
AcDbEntity
  8
ZUWAKU
100
AcDbLine
 10
7.046106137560911
 20
11.62500017947252
 30
0.0
 11
8.796106137560911
 21
11.62500017947252
 31
0.0
  0
ARC
  5
961
330
1A
100
AcDbEntity
  8
ZUWAKU
100
AcDbCircle
 10
12.47110613756092
 20
9.525000179472502
 30
0.0
 40
2.099999999999999
100
AcDbArc
 50
90.0
 51
180.0
  0
ARC
  5
962
330
1A
100
AcDbEntity
  8
ZUWAKU
100
AcDbCircle
 10
12.47110613756092
 20
9.525000179472524
 30
0.0
 40
0.7
100
AcDbArc
 50
90.0
 51
180.0
  0
LINE
  5
963
330
1A
100
AcDbEntity
  8
ZUWAKU
100
AcDbLine
 10
9.0586061375609
 20
11.36250017947252
 30
0.0
 11
9.0586061375609
 21
10.48750017947252
 31
0.0
  0
TEXT
  5
964
330
1A
100
AcDbEntity
  8
MOJI
100
AcDbText
 10
46.47889485425491
 20
6.370589244609902
 30
0.0
 40
3.0
  1
ライナートップ
 41
0.9
  7
ｽﾀｲﾙ1
100
AcDbText
  0
LINE
  5
965
330
1A
100
AcDbEntity
  8
ZUWAKU
100
AcDbLine
 10
17.83817360621884
 20
11.441547163556
 30
0.0
 11
16.90403866890295
 21
8.483453195389039
 31
0.0
  0
LINE
  5
966
330
1A
100
AcDbEntity
  8
ZUWAKU
100
AcDbLine
 10
14.92110613756091
 20
11.36250017947252
 30
0.0
 11
14.92110613756091
 21
3.837500179472524
 31
0.0
  0
LINE
  5
967
330
1A
100
AcDbEntity
  8
ZUWAKU
100
AcDbLine
 10
16.32110613756094
 20
8.562500179472525
 30
0.0
 11
16.32110613756094
 21
11.36250017947252
 31
0.0
  0
LINE
  5
968
330
1A
100
AcDbEntity
  8
ZUWAKU
100
AcDbLine
 10
28.92110613756091
 20
5.500000179472522
 30
0.0
 11
28.92110613756091
 21
11.36250017947252
 31
0.0
  0
LINE
  5
969
330
1A
100
AcDbEntity
  8
ZUWAKU
100
AcDbLine
 10
27.52110613756093
 20
11.36250017947252
 30
0.0
 11
27.52110613756093
 21
4.975000179472523
 31
0.0
  0
LINE
  5
96A
330
1A
100
AcDbEntity
  8
ZUWAKU
100
AcDbLine
 10
21.7461061375609
 20
3.837500179472524
 30
0.0
 11
21.7461061375609
 21
11.36250017947252
 31
0.0
  0
LINE
  5
96B
330
1A
100
AcDbEntity
  8
ZUWAKU
100
AcDbLine
 10
20.34610613756092
 20
11.36250017947252
 30
0.0
 11
20.34610613756092
 21
3.837500179472524
 31
0.0
  0
LINE
  5
96C
330
1A
100
AcDbEntity
  8
ZUWAKU
100
AcDbLine
 10
18.65742937864991
 20
9.602523776254237
 30
0.0
 11
18.02505350598198
 21
7.600000179472534
 31
0.0
  0
ARC
  5
96D
330
1A
100
AcDbEntity
  8
ZUWAKU
100
AcDbCircle
 10
24.89610613756093
 20
9.317399166794874
 30
0.0
 40
2.099999999999999
100
AcDbArc
 50
180.0
 51
225.0
  0
ARC
  5
96E
330
1A
100
AcDbEntity
  8
ZUWAKU
100
AcDbCircle
 10
24.89610613756093
 20
9.317399166794874
 30
0.0
 40
0.7
100
AcDbArc
 50
180.0000000000016
 51
224.9999999999988
  0
LINE
  5
96F
330
1A
100
AcDbEntity
  8
ZUWAKU
100
AcDbLine
 10
33.1211061375609
 20
11.36250017947252
 30
0.0
 11
33.1211061375609
 21
3.837500179472524
 31
0.0
  0
LINE
  5
970
330
1A
100
AcDbEntity
  8
ZUWAKU
100
AcDbLine
 10
34.52110613756093
 20
3.837500179472524
 30
0.0
 11
34.52110613756093
 21
11.36250017947252
 31
0.0
  0
LINE
  5
971
330
1A
100
AcDbEntity
  8
ZUWAKU
100
AcDbLine
 10
30.67110613756091
 20
11.36250017947252
 30
0.0
 11
30.67110613756091
 21
5.500000179472522
 31
0.0
  0
LINE
  5
972
330
1A
100
AcDbEntity
  8
ZUWAKU
100
AcDbLine
 10
32.07110613756094
 20
4.975000179472523
 30
0.0
 11
32.07110613756094
 21
11.36250017947252
 31
0.0
  0
LINE
  5
973
330
1A
100
AcDbEntity
  8
ZUWAKU
100
AcDbLine
 10
39.56331483416454
 20
15.00000017947252
 30
0.0
 11
39.56331483416454
 21
0.4000001794725563
 31
0.0
  0
LINE
  5
974
330
1A
100
AcDbEntity
  8
ZUWAKU
100
AcDbLine
 10
39.76331483416447
 20
15.00000017947252
 30
0.0
 11
39.76331483416458
 21
0.4000001794725563
 31
0.0
  0
LINE
  5
975
330
1A
100
AcDbEntity
  8
ZUWAKU
100
AcDbLine
 10
39.66331483416445
 20
15.00000017947252
 30
0.0
 11
39.66331483416457
 21
0.4000001794725563
 31
0.0
  0
LINE
  5
976
330
1A
100
AcDbEntity
  8
ZUWAKU
100
AcDbLine
 10
28.92110613756091
 20
3.575000179472525
 30
0.0
 11
30.67110613756091
 21
3.575000179472525
 31
0.0
  0
LINE
  5
977
330
1A
100
AcDbEntity
  8
ZUWAKU
100
AcDbLine
 10
30.14610613756093
 20
4.975000179472523
 30
0.0
 11
29.44610613756094
 21
4.975000179472523
 31
0.0
  0
LINE
  5
978
330
1A
100
AcDbEntity
  8
ZUWAKU
100
AcDbLine
 10
20.60860613756091
 20
3.575000179472525
 30
0.0
 11
21.48360613756091
 21
3.575000179472525
 31
0.0
  0
LINE
  5
979
330
1A
100
AcDbEntity
  8
ZUWAKU
100
AcDbLine
 10
17.83817360621884
 20
3.758453195389037
 30
0.0
 11
16.90403866890295
 21
6.716547163556008
 31
0.0
  0
ARC
  5
97A
330
1A
100
AcDbEntity
  8
ZUWAKU
100
AcDbCircle
 10
16.58360613756093
 20
6.637500179472525
 30
0.0
 40
0.2625
100
AcDbArc
 50
90.0
 51
180.0
  0
ARC
  5
97B
330
1A
100
AcDbEntity
  8
ZUWAKU
100
AcDbCircle
 10
16.65372321930527
 20
6.637500179472525
 30
0.0
 40
0.2625
100
AcDbArc
 50
17.52556837372303
 51
90.0
  0
ARC
  5
97C
330
1A
100
AcDbEntity
  8
ZUWAKU
100
AcDbCircle
 10
15.1836061375609
 20
3.837500179472524
 30
0.0
 40
0.2625
100
AcDbArc
 50
180.0
 51
270.0
  0
ARC
  5
97D
330
1A
100
AcDbEntity
  8
ZUWAKU
100
AcDbCircle
 10
13.4336061375609
 20
4.712500179472524
 30
0.0
 40
0.2625
100
AcDbArc
 50
0.0
 51
90.0
  0
ARC
  5
97E
330
1A
100
AcDbEntity
  8
ZUWAKU
100
AcDbCircle
 10
13.4336061375609
 20
3.837500179472524
 30
0.0
 40
0.2625
100
AcDbArc
 50
270.0
 51
0.0
  0
LINE
  5
97F
330
1A
100
AcDbEntity
  8
ZUWAKU
100
AcDbLine
 10
13.69610613756094
 20
4.712500179472524
 30
0.0
 11
13.69610613756094
 21
3.837500179472524
 31
0.0
  0
LINE
  5
980
330
1A
100
AcDbEntity
  8
ZUWAKU
100
AcDbLine
 10
16.32110613756094
 20
3.837500179472524
 30
0.0
 11
16.32110613756094
 21
6.637500179472525
 31
0.0
  0
ARC
  5
981
330
1A
100
AcDbEntity
  8
ZUWAKU
100
AcDbCircle
 10
16.0586061375609
 20
3.837500179472524
 30
0.0
 40
0.2625
100
AcDbArc
 50
270.0
 51
0.0
  0
LINE
  5
982
330
1A
100
AcDbEntity
  8
ZUWAKU
100
AcDbLine
 10
15.1836061375609
 20
3.575000179472525
 30
0.0
 11
16.0586061375609
 21
3.575000179472525
 31
0.0
  0
ARC
  5
983
330
1A
100
AcDbEntity
  8
ZUWAKU
100
AcDbCircle
 10
16.58360613756093
 20
8.562500179472525
 30
0.0
 40
0.2625
100
AcDbArc
 50
180.0
 51
270.0
  0
LINE
  5
984
330
1A
100
AcDbEntity
  8
ZUWAKU
100
AcDbLine
 10
16.58360613756093
 20
6.900000179472524
 30
0.0
 11
16.65372321930527
 21
6.900000179472524
 31
0.0
  0
LINE
  5
985
330
1A
100
AcDbEntity
  8
ZUWAKU
100
AcDbLine
 10
16.65372321930527
 20
8.300000179472522
 30
0.0
 11
16.58360613756093
 21
8.300000179472522
 31
0.0
  0
ARC
  5
986
330
1A
100
AcDbEntity
  8
ZUWAKU
100
AcDbCircle
 10
16.65372321930527
 20
8.562500179472525
 30
0.0
 40
0.2625
100
AcDbArc
 50
270.0
 51
342.4744316262769
  0
ARC
  5
987
330
1A
100
AcDbEntity
  8
ZUWAKU
100
AcDbCircle
 10
18.08848905581658
 20
3.837500179472524
 30
0.0
 40
0.2625
100
AcDbArc
 50
197.525568373723
 51
270.0
  0
LINE
  5
988
330
1A
100
AcDbEntity
  8
ZUWAKU
100
AcDbLine
 10
19.18824919521881
 20
3.91654716355601
 30
0.0
 11
18.02505350598198
 21
7.600000179472534
 31
0.0
  0
ARC
  5
989
330
1A
100
AcDbEntity
  8
ZUWAKU
100
AcDbCircle
 10
18.93793374562108
 20
3.837500179472524
 30
0.0
 40
0.2625
100
AcDbArc
 50
270.0
 51
17.52556837372303
  0
LINE
  5
98A
330
1A
100
AcDbEntity
  8
ZUWAKU
100
AcDbLine
 10
18.08848905581658
 20
3.575000179472525
 30
0.0
 11
18.93793374562108
 21
3.575000179472525
 31
0.0
  0
ARC
  5
98B
330
1A
100
AcDbEntity
  8
ZUWAKU
100
AcDbCircle
 10
20.60860613756091
 20
3.837500179472524
 30
0.0
 40
0.2625
100
AcDbArc
 50
180.0
 51
270.0
  0
ARC
  5
98C
330
1A
100
AcDbEntity
  8
ZUWAKU
100
AcDbCircle
 10
25.07110613756094
 20
4.975000179472523
 30
0.0
 40
1.399999999999999
100
AcDbArc
 50
270.0
 51
0.0
  0
ARC
  5
98D
330
1A
100
AcDbEntity
  8
ZUWAKU
100
AcDbCircle
 10
28.92110613756091
 20
4.975000179472523
 30
0.0
 40
1.399999999999999
100
AcDbArc
 50
180.0
 51
270.0
  0
LINE
  5
98E
330
1A
100
AcDbEntity
  8
ZUWAKU
100
AcDbLine
 10
25.8560303780527
 20
7.367525432641937
 30
0.0
 11
24.40113139073031
 21
8.822424419964274
 31
0.0
  0
LINE
  5
98F
330
1A
100
AcDbEntity
  8
ZUWAKU
100
AcDbLine
 10
23.41118189706918
 20
7.832474926303113
 30
0.0
 11
24.86608088439152
 21
6.377575938980783
 31
0.0
  0
LINE
  5
990
330
1A
100
AcDbEntity
  8
ZUWAKU
100
AcDbLine
 10
23.32110613756094
 20
3.575000179472525
 30
0.0
 11
25.07110613756094
 21
3.575000179472525
 31
0.0
  0
LINE
  5
991
330
1A
100
AcDbEntity
  8
ZUWAKU
100
AcDbLine
 10
23.32110613756094
 20
4.975000179472523
 30
0.0
 11
24.8086061375609
 21
4.975000179472523
 31
0.0
  0
ARC
  5
992
330
1A
100
AcDbEntity
  8
ZUWAKU
100
AcDbCircle
 10
23.32110613756094
 20
4.712500179472524
 30
0.0
 40
0.2625
100
AcDbArc
 50
90.0
 51
180.0
  0
ARC
  5
993
330
1A
100
AcDbEntity
  8
ZUWAKU
100
AcDbCircle
 10
21.48360613756091
 20
3.837500179472524
 30
0.0
 40
0.2625
100
AcDbArc
 50
270.0
 51
0.0
  0
ARC
  5
994
330
1A
100
AcDbEntity
  8
ZUWAKU
100
AcDbCircle
 10
23.32110613756094
 20
3.837500179472524
 30
0.0
 40
0.2625
100
AcDbArc
 50
180.0
 51
270.0
  0
LINE
  5
995
330
1A
100
AcDbEntity
  8
ZUWAKU
100
AcDbLine
 10
23.05860613756089
 20
3.837500179472524
 30
0.0
 11
23.05860613756089
 21
4.712500179472524
 31
0.0
  0
ARC
  5
996
330
1A
100
AcDbEntity
  8
ZUWAKU
100
AcDbCircle
 10
24.8086061375609
 20
5.237500179472526
 30
0.0
 40
0.2625
100
AcDbArc
 50
270.0
 51
0.0
  0
ARC
  5
997
330
1A
100
AcDbEntity
  8
ZUWAKU
100
AcDbCircle
 10
24.3711061375609
 20
5.882601192150197
 30
0.0
 40
0.7
100
AcDbArc
 50
0.0
 51
45.0
  0
LINE
  5
998
330
1A
100
AcDbEntity
  8
ZUWAKU
100
AcDbLine
 10
25.07110613756094
 20
5.237500179472526
 30
0.0
 11
25.07110613756094
 21
5.882601192150197
 31
0.0
  0
ARC
  5
999
330
1A
100
AcDbEntity
  8
ZUWAKU
100
AcDbCircle
 10
29.44610613756094
 20
5.500000179472522
 30
0.0
 40
0.525
100
AcDbArc
 50
180.0
 51
270.0
  0
ARC
  5
99A
330
1A
100
AcDbEntity
  8
ZUWAKU
100
AcDbCircle
 10
24.3711061375609
 20
5.882601192150175
 30
0.0
 40
2.099999999999999
100
AcDbArc
 50
0.0
 51
45.0
  0
LINE
  5
99B
330
1A
100
AcDbEntity
  8
ZUWAKU
100
AcDbLine
 10
26.47110613756092
 20
4.975000179472523
 30
0.0
 11
26.47110613756092
 21
5.882601192150197
 31
0.0
  0
ARC
  5
99C
330
1A
100
AcDbEntity
  8
ZUWAKU
100
AcDbCircle
 10
30.67110613756091
 20
4.975000179472523
 30
0.0
 40
1.399999999999999
100
AcDbArc
 50
270.0
 51
0.0
  0
LINE
  5
99D
330
1A
100
AcDbEntity
  8
ZUWAKU
100
AcDbLine
 10
33.38360613756094
 20
3.575000179472525
 30
0.0
 11
34.25860613756094
 21
3.575000179472525
 31
0.0
  0
ARC
  5
99E
330
1A
100
AcDbEntity
  8
ZUWAKU
100
AcDbCircle
 10
30.14610613756093
 20
5.500000179472522
 30
0.0
 40
0.525
100
AcDbArc
 50
270.0
 51
0.0
  0
ARC
  5
99F
330
1A
100
AcDbEntity
  8
ZUWAKU
100
AcDbCircle
 10
33.38360613756094
 20
3.837500179472524
 30
0.0
 40
0.2625
100
AcDbArc
 50
180.0
 51
270.0
  0
ARC
  5
9A0
330
1A
100
AcDbEntity
  8
ZUWAKU
100
AcDbCircle
 10
34.25860613756094
 20
3.837500179472524
 30
0.0
 40
0.2625
100
AcDbArc
 50
270.0
 51
0.0
  0
LINE
  5
9A1
330
1A
100
AcDbEntity
  8
ZUWAKU
100
AcDbLine
 10
21.48360613756091
 20
11.62500017947252
 30
0.0
 11
20.60860613756091
 21
11.62500017947252
 31
0.0
  0
LINE
  5
9A2
330
1A
100
AcDbEntity
  8
ZUWAKU
100
AcDbLine
 10
13.69610613756094
 20
11.36250017947252
 30
0.0
 11
13.69610613756094
 21
10.48750017947252
 31
0.0
  0
ARC
  5
9A3
330
1A
100
AcDbEntity
  8
ZUWAKU
100
AcDbCircle
 10
13.4336061375609
 20
10.48750017947252
 30
0.0
 40
0.2625
100
AcDbArc
 50
270.0
 51
0.0
  0
ARC
  5
9A4
330
1A
100
AcDbEntity
  8
ZUWAKU
100
AcDbCircle
 10
15.1836061375609
 20
11.36250017947252
 30
0.0
 40
0.2625
100
AcDbArc
 50
90.0
 51
180.0
  0
ARC
  5
9A5
330
1A
100
AcDbEntity
  8
ZUWAKU
100
AcDbCircle
 10
13.4336061375609
 20
11.36250017947252
 30
0.0
 40
0.2625
100
AcDbArc
 50
0.0
 51
90.0
  0
LINE
  5
9A6
330
1A
100
AcDbEntity
  8
ZUWAKU
100
AcDbLine
 10
16.0586061375609
 20
11.62500017947252
 30
0.0
 11
15.1836061375609
 21
11.62500017947252
 31
0.0
  0
ARC
  5
9A7
330
1A
100
AcDbEntity
  8
ZUWAKU
100
AcDbCircle
 10
16.0586061375609
 20
11.36250017947252
 30
0.0
 40
0.2625
100
AcDbArc
 50
0.0
 51
90.0
  0
ARC
  5
9A8
330
1A
100
AcDbEntity
  8
ZUWAKU
100
AcDbCircle
 10
18.08848905581658
 20
11.36250017947252
 30
0.0
 40
0.2625
100
AcDbArc
 50
90.0
 51
162.4744316262769
  0
LINE
  5
9A9
330
1A
100
AcDbEntity
  8
ZUWAKU
100
AcDbLine
 10
19.18824919521881
 20
11.28345319538903
 30
0.0
 11
18.65742937864991
 21
9.602523776254237
 31
0.0
  0
ARC
  5
9AA
330
1A
100
AcDbEntity
  8
ZUWAKU
100
AcDbCircle
 10
18.93793374562108
 20
11.36250017947252
 30
0.0
 40
0.2625
100
AcDbArc
 50
342.4744316262769
 51
90.0
  0
LINE
  5
9AB
330
1A
100
AcDbEntity
  8
ZUWAKU
100
AcDbLine
 10
18.08848905581658
 20
11.62500017947252
 30
0.0
 11
18.93793374562108
 21
11.62500017947252
 31
0.0
  0
ARC
  5
9AC
330
1A
100
AcDbEntity
  8
ZUWAKU
100
AcDbCircle
 10
20.60860613756091
 20
11.36250017947252
 30
0.0
 40
0.2625
100
AcDbArc
 50
90.0
 51
180.0
  0
LINE
  5
9AD
330
1A
100
AcDbEntity
  8
ZUWAKU
100
AcDbLine
 10
25.94610613756094
 20
10.22500017947252
 30
0.0
 11
24.45860613756093
 21
10.22500017947252
 31
0.0
  0
LINE
  5
9AE
330
1A
100
AcDbEntity
  8
ZUWAKU
100
AcDbLine
 10
24.19610613756094
 20
11.62500017947252
 30
0.0
 11
25.94610613756094
 21
11.62500017947252
 31
0.0
  0
ARC
  5
9AF
330
1A
100
AcDbEntity
  8
ZUWAKU
100
AcDbCircle
 10
24.19610613756094
 20
10.22500017947252
 30
0.0
 40
1.399999999999999
100
AcDbArc
 50
90.0
 51
180.0
  0
LINE
  5
9B0
330
1A
100
AcDbEntity
  8
ZUWAKU
100
AcDbLine
 10
22.79610613756091
 20
10.22500017947252
 30
0.0
 11
22.79610613756091
 21
9.317399166794853
 31
0.0
  0
ARC
  5
9B1
330
1A
100
AcDbEntity
  8
ZUWAKU
100
AcDbCircle
 10
21.48360613756091
 20
11.36250017947252
 30
0.0
 40
0.2625
100
AcDbArc
 50
0.0
 51
90.0
  0
LINE
  5
9B2
330
1A
100
AcDbEntity
  8
ZUWAKU
100
AcDbLine
 10
24.19610613756094
 20
9.962500179472524
 30
0.0
 11
24.19610613756094
 21
9.317399166794853
 31
0.0
  0
ARC
  5
9B3
330
1A
100
AcDbEntity
  8
ZUWAKU
100
AcDbCircle
 10
24.45860613756093
 20
9.962500179472524
 30
0.0
 40
0.2625
100
AcDbArc
 50
90.0
 51
180.0
  0
LINE
  5
9B4
330
1A
100
AcDbEntity
  8
ZUWAKU
100
AcDbLine
 10
26.20860613756093
 20
11.36250017947252
 30
0.0
 11
26.20860613756093
 21
10.48750017947252
 31
0.0
  0
ARC
  5
9B5
330
1A
100
AcDbEntity
  8
ZUWAKU
100
AcDbCircle
 10
25.94610613756094
 20
10.48750017947252
 30
0.0
 40
0.2625
100
AcDbArc
 50
270.0
 51
0.0
  0
ARC
  5
9B6
330
1A
100
AcDbEntity
  8
ZUWAKU
100
AcDbCircle
 10
25.94610613756094
 20
11.36250017947252
 30
0.0
 40
0.2625
100
AcDbArc
 50
0.0
 51
90.0
  0
LINE
  5
9B7
330
1A
100
AcDbEntity
  8
ZUWAKU
100
AcDbLine
 10
28.65860613756092
 20
11.62500017947252
 30
0.0
 11
27.78360613756092
 21
11.62500017947252
 31
0.0
  0
ARC
  5
9B8
330
1A
100
AcDbEntity
  8
ZUWAKU
100
AcDbCircle
 10
27.78360613756092
 20
11.36250017947252
 30
0.0
 40
0.2625
100
AcDbArc
 50
90.0
 51
180.0
  0
ARC
  5
9B9
330
1A
100
AcDbEntity
  8
ZUWAKU
100
AcDbCircle
 10
28.65860613756092
 20
11.36250017947252
 30
0.0
 40
0.2625
100
AcDbArc
 50
0.0
 51
90.0
  0
LINE
  5
9BA
330
1A
100
AcDbEntity
  8
ZUWAKU
100
AcDbLine
 10
34.25860613756094
 20
11.62500017947252
 30
0.0
 11
33.38360613756094
 21
11.62500017947252
 31
0.0
  0
ARC
  5
9BB
330
1A
100
AcDbEntity
  8
ZUWAKU
100
AcDbCircle
 10
30.9336061375609
 20
11.36250017947252
 30
0.0
 40
0.2625
100
AcDbArc
 50
90.0
 51
180.0
  0
LINE
  5
9BC
330
1A
100
AcDbEntity
  8
ZUWAKU
100
AcDbLine
 10
31.8086061375609
 20
11.62500017947252
 30
0.0
 11
30.9336061375609
 21
11.62500017947252
 31
0.0
  0
ARC
  5
9BD
330
1A
100
AcDbEntity
  8
ZUWAKU
100
AcDbCircle
 10
31.8086061375609
 20
11.36250017947252
 30
0.0
 40
0.2625
100
AcDbArc
 50
0.0
 51
90.0
  0
ARC
  5
9BE
330
1A
100
AcDbEntity
  8
ZUWAKU
100
AcDbCircle
 10
33.38360613756094
 20
11.36250017947252
 30
0.0
 40
0.2625
100
AcDbArc
 50
90.0
 51
180.0
  0
ARC
  5
9BF
330
1A
100
AcDbEntity
  8
ZUWAKU
100
AcDbCircle
 10
34.25860613756094
 20
11.36250017947252
 30
0.0
 40
0.2625
100
AcDbArc
 50
0.0
 51
90.0
  0
TEXT
  5
9C0
330
1A
100
AcDbEntity
  8
MOJI
100
AcDbText
 10
119.9136014005959
 20
1.602460708176232
 30
0.0
 40
2.799999999999999
  1
Ｘ７０Ｕ－５－３０
 41
0.9
  7
ｽﾀｲﾙ1
100
AcDbText
  0
TEXT
  5
9C1
330
1A
100
AcDbEntity
  8
MOJI
100
AcDbText
 10
119.9136014005959
 20
9.002460708176215
 30
0.0
 40
2.799999999999999
  1
ステンレス金具正面打（吊）固定式（内吊り）
 41
0.9
  7
ｽﾀｲﾙ1
100
AcDbText
  0
LINE
  5
9C2
330
1A
100
AcDbEntity
  8
ZUWAKU
100
AcDbLine
 10
104.2233007052042
 20
15.00000017947252
 30
0.0
 11
104.2233007052043
 21
0.4000001794725563
 31
0.0
  0
LINE
  5
9C3
330
1A
100
AcDbEntity
  8
ZUWAKU
100
AcDbLine
 10
104.3233007052042
 20
15.00000017947252
 30
0.0
 11
104.3233007052043
 21
0.4000001794725563
 31
0.0
  0
LINE
  5
9C4
330
1A
100
AcDbEntity
  8
ZUWAKU
100
AcDbLine
 10
104.1233007052043
 20
15.00000017947252
 30
0.0
 11
104.1233007052043
 21
0.4000001794725563
 31
0.0
  0
TEXT
  5
9C5
330
1A
100
AcDbEntity
  8
ZUWAKU
100
AcDbText
 10
104.8620232163091
 20
4.827678448665331
 30
0.0
 40
2.0
  1
サイズ
 41
0.9
  7
ｽﾀｲﾙ1
100
AcDbText
  0
TEXT
  5
9C6
330
1A
100
AcDbEntity
  8
ZUWAKU
100
AcDbText
 10
104.862023216309
 20
12.02767844866531
 30
0.0
 40
2.0
  1
品名
 41
0.9
  7
ｽﾀｲﾙ1
100
AcDbText
  0
TEXT
  5
9C7
330
1A
100
AcDbEntity
  8
ZUWAKU
100
AcDbText
 10
329.1019689038215
 20
9.002460708176215
 30
0.0
 40
2.799999999999999
  1
　　．　　．　　
 41
0.9
  7
ｽﾀｲﾙ1
100
AcDbText
  0
LINE
  5
9C8
330
1A
100
AcDbEntity
  8
ZUWAKU
100
AcDbLine
 10
324.4086013152724
 20
7.800000179472538
 30
0.0
 11
348.624505334441
 21
7.800000179472538
 31
0.0
  0
LINE
  5
9C9
330
1A
100
AcDbEntity
  8
ZUWAKU
100
AcDbLine
 10
324.4086013152725
 20
7.700000179472541
 30
0.0
 11
348.624505334441
 21
7.700000179472539
 31
0.0
  0
LINE
  5
9CA
330
1A
100
AcDbEntity
  8
ZUWAKU
100
AcDbLine
 10
324.4086013152724
 20
7.600000179472537
 30
0.0
 11
348.624505334441
 21
7.600000179472539
 31
0.0
  0
LINE
  5
9CB
330
1A
100
AcDbEntity
  8
ZUWAKU
100
AcDbLine
 10
252.5995898092407
 20
7.800000179472538
 30
0.0
 11
276.2634779432265
 21
7.800000179472538
 31
0.0
  0
LINE
  5
9CC
330
1A
100
AcDbEntity
  8
ZUWAKU
100
AcDbLine
 10
252.5995898092407
 20
7.700000179472539
 30
0.0
 11
276.2634779432265
 21
7.700000179472539
 31
0.0
  0
LINE
  5
9CD
330
1A
100
AcDbEntity
  8
ZUWAKU
100
AcDbLine
 10
252.5995898092407
 20
7.600000179472541
 30
0.0
 11
276.2634779432265
 21
7.600000179472541
 31
0.0
  0
LINE
  5
9CE
330
1A
100
AcDbEntity
  8
ZUWAKU
100
AcDbLine
 10
252.3995898092408
 20
15.00000017947252
 30
0.0
 11
252.3995898092408
 21
0.4000001794725563
 31
0.0
  0
LINE
  5
9CF
330
1A
100
AcDbEntity
  8
ZUWAKU
100
AcDbLine
 10
252.5995898092407
 20
15.00000017947252
 30
0.0
 11
252.5995898092409
 21
0.4000001794725563
 31
0.0
  0
LINE
  5
9D0
330
1A
100
AcDbEntity
  8
ZUWAKU
100
AcDbLine
 10
252.4995898092407
 20
15.00000017947252
 30
0.0
 11
252.4995898092408
 21
0.4000001794725563
 31
0.0
  0
TEXT
  5
9D1
330
1A
100
AcDbEntity
  8
MOJI
100
AcDbText
 10
264.0204540463268
 20
9.002460708176215
 30
0.0
 40
2.799999999999999
  1
Ａ３
 41
0.9
  7
ｽﾀｲﾙ1
100
AcDbText
  0
LINE
  5
9D2
330
1A
100
AcDbEntity
  8
ZUWAKU
100
AcDbLine
 10
223.712182045666
 20
15.00000017947252
 30
0.0
 11
223.712182045666
 21
0.4000001794725563
 31
0.0
  0
LINE
  5
9D3
330
1A
100
AcDbEntity
  8
ZUWAKU
100
AcDbLine
 10
223.9121820456659
 20
15.00000017947252
 30
0.0
 11
223.9121820456661
 21
0.4000001794725563
 31
0.0
  0
LINE
  5
9D4
330
1A
100
AcDbEntity
  8
ZUWAKU
100
AcDbLine
 10
223.8121820456659
 20
15.00000017947252
 30
0.0
 11
223.812182045666
 21
0.4000001794725563
 31
0.0
  0
TEXT
  5
9D5
330
1A
100
AcDbEntity
  8
MOJI
100
AcDbText
 10
231.2836392211646
 20
5.971309040302514
 30
0.0
 40
2.799999999999999
  1
ＬＦ６９Ｇ
 41
0.9
  7
ｽﾀｲﾙ1
100
AcDbText
  0
TEXT
  5
9D6
330
1A
100
AcDbEntity
  8
ZUWAKU
100
AcDbText
 10
253.3383123203457
 20
4.827678448665331
 30
0.0
 40
2.0
  1
縮尺
 41
0.9
  7
ｽﾀｲﾙ1
100
AcDbText
  0
TEXT
  5
9D7
330
1A
100
AcDbEntity
  8
MOJI
100
AcDbText
 10
264.0204540463268
 20
1.602460708176232
 30
0.0
 40
2.799999999999999
  1
１/１
 41
0.9
  7
ｽﾀｲﾙ1
100
AcDbText
  0
TEXT
  5
9D8
330
1A
100
AcDbEntity
  8
ZUWAKU
100
AcDbText
 10
224.6509045567707
 20
12.02767844866531
 30
0.0
 40
2.0
  1
品番
 41
0.9
  7
ｽﾀｲﾙ1
100
AcDbText
  0
TEXT
  5
9D9
330
1A
100
AcDbEntity
  8
ZUWAKU
100
AcDbText
 10
253.3383123203456
 20
12.02767844866531
 30
0.0
 40
2.0
  1
用紙
 41
0.9
  7
ｽﾀｲﾙ1
100
AcDbText
  0
LINE
  5
9DA
330
1A
100
AcDbEntity
  8
ZUWAKU
100
AcDbLine
 10
276.2634779432265
 20
15.00000017947252
 30
0.0
 11
276.2634779432265
 21
0.4000001794725563
 31
0.0
  0
LINE
  5
9DB
330
1A
100
AcDbEntity
  8
ZUWAKU
100
AcDbLine
 10
276.4634779432264
 20
15.00000017947252
 30
0.0
 11
276.4634779432266
 21
0.4000001794725563
 31
0.0
  0
LINE
  5
9DC
330
1A
100
AcDbEntity
  8
ZUWAKU
100
AcDbLine
 10
276.3634779432265
 20
15.00000017947252
 30
0.0
 11
276.3634779432265
 21
0.4000001794725563
 31
0.0
  0
LINE
  5
9DD
330
1A
100
AcDbEntity
  8
ZUWAKU
100
AcDbLine
 10
324.2086013152726
 20
15.00000017947252
 30
0.0
 11
324.2086013152726
 21
0.4000001794725563
 31
0.0
  0
LINE
  5
9DE
330
1A
100
AcDbEntity
  8
ZUWAKU
100
AcDbLine
 10
324.4086013152725
 20
15.00000017947252
 30
0.0
 11
324.4086013152726
 21
0.4000001794725563
 31
0.0
  0
LINE
  5
9DF
330
1A
100
AcDbEntity
  8
ZUWAKU
100
AcDbLine
 10
324.3086013152725
 20
15.00000017947252
 30
0.0
 11
324.3086013152726
 21
0.4000001794725563
 31
0.0
  0
TEXT
  5
9E0
330
1A
100
AcDbEntity
  8
ZUWAKU
100
AcDbText
 10
325.1473238263773
 20
12.02767844866531
 30
0.0
 40
2.0
  1
DATE
 41
0.9
  7
ｽﾀｲﾙ1
100
AcDbText
  0
TEXT
  5
9E1
330
1A
100
AcDbEntity
  8
ZUWAKU
100
AcDbText
 10
354.2640421562922
 20
8.776919847315923
 30
0.0
 40
3.0
  1
積水化学工業株式会社
 41
0.9
  7
ｽﾀｲﾙ1
100
AcDbText
  0
LINE
  5
9E2
330
1A
100
AcDbEntity
  8
ZUWAKU
100
AcDbLine
 10
348.9245053344409
 20
15.00000017947252
 30
0.0
 11
348.924505334441
 21
0.4000001794725563
 31
0.0
  0
LINE
  5
9E3
330
1A
100
AcDbEntity
  8
ZUWAKU
100
AcDbLine
 10
348.8245053344409
 20
15.00000017947252
 30
0.0
 11
348.824505334441
 21
0.4000001794725563
 31
0.0
  0
LINE
  5
9E4
330
1A
100
AcDbEntity
  8
ZUWAKU
100
AcDbLine
 10
348.7245053344409
 20
15.00000017947252
 30
0.0
 11
348.7245053344409
 21
0.4000001794725563
 31
0.0
  0
LINE
  5
9E5
330
1A
100
AcDbEntity
  8
ZUWAKU
100
AcDbLine
 10
348.624505334441
 20
15.00000017947252
 30
0.0
 11
348.624505334441
 21
0.4000001794725563
 31
0.0
  0
TEXT
  5
9E6
330
1A
100
AcDbEntity
  8
ZUWAKU
100
AcDbText
 10
354.2640421562922
 20
3.324420336399555
 30
0.0
 40
3.0
  1
建材事業部
 41
0.9
  7
ｽﾀｲﾙ1
100
AcDbText
  0
VIEWPORT
  5
22
330
17
100
AcDbEntity
 67
     1
  8
0
100
AcDbViewport
 10
313.6808219178082
 20
148.5
 30
0.0
 40
627.3616438356165
 41
297.0
 68
     2
 69
     1
1001
ACAD
1000
MVIEW
1002
{
1070
    16
1010
0.0
1020
0.0
1030
0.0
1010
0.0
1020
0.0
1030
1.0
1040
0.0
1040
297.0
1040
313.6808219178082
1040
148.5
1040
50.0
1040
0.0
1040
0.0
1070
     0
1070
   100
1070
     1
1070
     0
1070
     0
1070
     0
1070
     0
1070
     0
1040
0.0
1040
0.0
1040
0.0
1040
1.0
1040
1.0
1040
10.0
1040
10.0
1070
     0
1002
{
1002
}
1002
}
  0
VIEWPORT
  5
64
330
17
100
AcDbEntity
 67
     1
  8
VIEWPORT
100
AcDbViewport
 10
210.0
 20
148.5
 30
0.0
 40
420.0
 41
297.0
 68
     1
 69
     2
1001
ACAD
1000
MVIEW
1002
{
1070
    16
1010
0.0
1020
0.0
1030
0.0
1010
0.0
1020
0.0
1030
1.0
1040
0.0
1040
302.9399999999998
1040
210.0
1040
148.5
1040
50.0
1040
0.0
1040
0.0
1070
     0
1070
   100
1070
     1
1070
     0
1070
     0
1070
     0
1070
     0
1070
     0
1040
0.0
1040
0.0
1040
0.0
1040
5.0
1040
5.0
1040
0.0
1040
0.0
1070
     0
1002
{
1002
}
1002
}
  0
ENDSEC
  0
SECTION
  2
OBJECTS
  0
DICTIONARY
  5
C
330
0
100
AcDbDictionary
  3
ACAD_GROUP
350
D
  3
ACAD_LAYOUT
350
3C0
  3
ACAD_MLINESTYLE
350
E
  3
ACAD_PLOTSETTINGS
350
3C1
  3
ACAD_PLOTSTYLENAME
350
3BE
  3
ACDBHEADERROUNDTRIPXREC
350
A8D
  0
DICTIONARY
  5
799
330
1A
100
AcDbDictionary
280
     1
  3
ACAD_LAYOUTSELFREF
360
AAF
  0
DICTIONARY
  5
797
330
17
100
AcDbDictionary
280
     1
  3
ACAD_LAYOUTSELFREF
360
AAE
  0
DICTIONARY
  5
D
102
{ACAD_REACTORS
330
C
102
}
330
C
100
AcDbDictionary
  0
DICTIONARY
  5
3C0
102
{ACAD_REACTORS
330
C
102
}
330
C
100
AcDbDictionary
  0
DICTIONARY
  5
E
102
{ACAD_REACTORS
330
C
102
}
330
C
100
AcDbDictionary
  3
STANDARD
350
13
  0
DICTIONARY
  5
3C1
102
{ACAD_REACTORS
330
C
102
}
330
C
100
AcDbDictionary
  0
ACDBDICTIONARYWDFLT
  5
3BE
102
{ACAD_REACTORS
330
C
102
}
330
C
100
AcDbDictionary
281
     1
  3
Normal
350
3BF
100
AcDbDictionaryWithDefault
340
3BF
1001
ACAD
1000
TREAT_AS_HARD
1070
     0
1000
TREAT_AS_HARD
1070
     0
  0
DICTIONARY
  5
A8D
102
{ACAD_REACTORS
330
C
102
}
330
C
100
AcDbDictionary
  3
TSTACKALIGN
350
A8E
  3
TSTACKSIZE
350
A8F
  3
HYPERLINKBASE
350
A90
  3
STYLESHEET
350
A91
  3
LAYOUTDICT
350
A92
  3
PLOTSETDICT
350
A93
  3
PLOTSTYLNAMDICT
350
A94
  3
LWETCUNION
350
A95
  3
INSUNITS
350
A96
  3
CEPSNTYPE
350
A97
  3
FINGERPRINTGUID
350
A98
  3
VERSIONGUID
350
A99
  3
PSVPSCALE
350
A9A
  3
DIMSTYLEDATA
350
A9B
  3
PUCSORTHOREF
350
A9C
  3
PUCSORTHOVIEW
350
A9D
  3
PUCSBASE
350
A9E
  3
PUCSORGTOP
350
A9F
  3
PUCSORGBOTTOM
350
AA0
  3
PUCSORGLEFT
350
AA1
  3
PUCSORGRIGHT
350
AA2
  3
PUCSORGFRONT
350
AA3
  3
PUCSORGBACK
350
AA4
  3
UCSORTHOREF
350
AA5
  3
UCSORTHOVIEW
350
AA6
  3
UCSBASE
350
AA7
  3
UCSORGTOP
350
AA8
  3
UCSORGBOTTOM
350
AA9
  3
UCSORGLEFT
350
AAA
  3
UCSORGRIGHT
350
AAB
  3
UCSORGFRONT
350
AAC
  3
UCSORGBACK
350
AAD
  0
XRECORD
  5
AAF
102
{ACAD_REACTORS
330
799
102
}
330
799
100
AcDbXrecord
340
1A
  0
XRECORD
  5
AAE
102
{ACAD_REACTORS
330
797
102
}
330
797
100
AcDbXrecord
340
17
  0
MLINESTYLE
  5
13
102
{ACAD_REACTORS
330
E
102
}
330
E
100
AcDbMlineStyle
  2
STANDARD
 70
     0
  3

 62
     0
 51
90.0
 52
90.0
 71
     2
 49
0.5
 62
   256
  6
BYLAYER
 49
-0.5
 62
   256
  6
BYLAYER
  0
ACDBPLACEHOLDER
  5
3BF
102
{ACAD_REACTORS
330
3BE
102
}
330
3BE
100
AcDbPlaceHolder
280
     0
  0
XRECORD
  5
A8E
102
{ACAD_REACTORS
330
A8D
102
}
330
A8D
100
AcDbXrecord
 90
        1
  0
XRECORD
  5
A8F
102
{ACAD_REACTORS
330
A8D
102
}
330
A8D
100
AcDbXrecord
 90
       70
  0
XRECORD
  5
A90
102
{ACAD_REACTORS
330
A8D
102
}
330
A8D
100
AcDbXrecord
  1

  0
XRECORD
  5
A91
102
{ACAD_REACTORS
330
A8D
102
}
330
A8D
100
AcDbXrecord
  1
systemprinter.ctb
  0
XRECORD
  5
A92
102
{ACAD_REACTORS
330
A8D
102
}
330
A8D
100
AcDbXrecord
340
3C0
  0
XRECORD
  5
A93
102
{ACAD_REACTORS
330
A8D
102
}
330
A8D
100
AcDbXrecord
340
3C1
  0
XRECORD
  5
A94
102
{ACAD_REACTORS
330
A8D
102
}
330
A8D
100
AcDbXrecord
340
3BE
  0
XRECORD
  5
A95
102
{ACAD_REACTORS
330
A8D
102
}
330
A8D
100
AcDbXrecord
 90
    10781
  0
XRECORD
  5
A96
102
{ACAD_REACTORS
330
A8D
102
}
330
A8D
100
AcDbXrecord
 90
        0
  0
XRECORD
  5
A97
102
{ACAD_REACTORS
330
A8D
102
}
330
A8D
100
AcDbXrecord
 90
        0
  0
XRECORD
  5
A98
102
{ACAD_REACTORS
330
A8D
102
}
330
A8D
100
AcDbXrecord
  1
{F946B5DE-B1B3-4D91-BA90-AFEEB3A2FE49}
  0
XRECORD
  5
A99
102
{ACAD_REACTORS
330
A8D
102
}
330
A8D
100
AcDbXrecord
  1
{DB7C6639-43DF-48D5-AFFB-E9362BED7F8A}
  0
XRECORD
  5
A9A
102
{ACAD_REACTORS
330
A8D
102
}
330
A8D
100
AcDbXrecord
 40
0.0
  0
XRECORD
  5
A9B
102
{ACAD_REACTORS
330
A8D
102
}
330
A8D
100
AcDbXrecord
1000
DSTYLE
1002
{
1070
   341
340
B2
1070
   343
340
B2
1070
   344
340
B2
1070
   371
 70
    -1
1070
   372
 70
    -1
1002
}
  0
XRECORD
  5
A9C
102
{ACAD_REACTORS
330
A8D
102
}
330
A8D
100
AcDbXrecord
340
0
  0
XRECORD
  5
A9D
102
{ACAD_REACTORS
330
A8D
102
}
330
A8D
100
AcDbXrecord
 70
     0
  0
XRECORD
  5
A9E
102
{ACAD_REACTORS
330
A8D
102
}
330
A8D
100
AcDbXrecord
340
0
  0
XRECORD
  5
A9F
102
{ACAD_REACTORS
330
A8D
102
}
330
A8D
100
AcDbXrecord
 10
0.0
 20
0.0
 30
0.0
  0
XRECORD
  5
AA0
102
{ACAD_REACTORS
330
A8D
102
}
330
A8D
100
AcDbXrecord
 10
0.0
 20
0.0
 30
0.0
  0
XRECORD
  5
AA1
102
{ACAD_REACTORS
330
A8D
102
}
330
A8D
100
AcDbXrecord
 10
0.0
 20
0.0
 30
0.0
  0
XRECORD
  5
AA2
102
{ACAD_REACTORS
330
A8D
102
}
330
A8D
100
AcDbXrecord
 10
0.0
 20
0.0
 30
0.0
  0
XRECORD
  5
AA3
102
{ACAD_REACTORS
330
A8D
102
}
330
A8D
100
AcDbXrecord
 10
0.0
 20
0.0
 30
0.0
  0
XRECORD
  5
AA4
102
{ACAD_REACTORS
330
A8D
102
}
330
A8D
100
AcDbXrecord
 10
0.0
 20
0.0
 30
0.0
  0
XRECORD
  5
AA5
102
{ACAD_REACTORS
330
A8D
102
}
330
A8D
100
AcDbXrecord
340
0
  0
XRECORD
  5
AA6
102
{ACAD_REACTORS
330
A8D
102
}
330
A8D
100
AcDbXrecord
 70
     0
  0
XRECORD
  5
AA7
102
{ACAD_REACTORS
330
A8D
102
}
330
A8D
100
AcDbXrecord
340
0
  0
XRECORD
  5
AA8
102
{ACAD_REACTORS
330
A8D
102
}
330
A8D
100
AcDbXrecord
 10
0.0
 20
0.0
 30
0.0
  0
XRECORD
  5
AA9
102
{ACAD_REACTORS
330
A8D
102
}
330
A8D
100
AcDbXrecord
 10
0.0
 20
0.0
 30
0.0
  0
XRECORD
  5
AAA
102
{ACAD_REACTORS
330
A8D
102
}
330
A8D
100
AcDbXrecord
 10
0.0
 20
0.0
 30
0.0
  0
XRECORD
  5
AAB
102
{ACAD_REACTORS
330
A8D
102
}
330
A8D
100
AcDbXrecord
 10
0.0
 20
0.0
 30
0.0
  0
XRECORD
  5
AAC
102
{ACAD_REACTORS
330
A8D
102
}
330
A8D
100
AcDbXrecord
 10
0.0
 20
0.0
 30
0.0
  0
XRECORD
  5
AAD
102
{ACAD_REACTORS
330
A8D
102
}
330
A8D
100
AcDbXrecord
 10
0.0
 20
0.0
 30
0.0
  0
ENDSEC
  0
EOF
