  0
SECTION
  2
HEADER
  9
$ACADVER
  1
AC1014
  9
$ACADMAINTVER
 70
     9
  9
$DWGCODEPAGE
  3
ANSI_932
  9
$INSBASE
 10
0.0
 20
0.0
 30
0.0
  9
$EXTMIN
 10
0.0000000601703505
 20
0.0000001794725222
 30
-0.00000001
  9
$EXTMAX
 10
398.8000000601704
 20
275.8000001794726
 30
0.00000001
  9
$LIMMIN
 10
0.0
 20
0.0
  9
$LIMMAX
 10
420.0
 20
297.0
  9
$ORTHOMODE
 70
     0
  9
$REGENMODE
 70
     1
  9
$FILLMODE
 70
     1
  9
$QTEXTMODE
 70
     0
  9
$MIRRTEXT
 70
     1
  9
$DRAGMODE
 70
     2
  9
$LTSCALE
 40
1.0
  9
$OSMODE
 70
    37
  9
$ATTMODE
 70
     1
  9
$TEXTSIZE
 40
2.5
  9
$TRACEWID
 40
1.0
  9
$TEXTSTYLE
  7
STANDARD
  9
$CLAYER
  8
SUNPOU
  9
$CELTYPE
  6
BYLAYER
  9
$CECOLOR
 62
   256
  9
$CELTSCALE
 40
1.0
  9
$DELOBJ
 70
     1
  9
$DISPSILH
 70
     0
  9
$DIMSCALE
 40
1.0
  9
$DIMASZ
 40
3.0
  9
$DIMEXO
 40
3.0
  9
$DIMDLI
 40
7.0
  9
$DIMRND
 40
0.0
  9
$DIMDLE
 40
0.0
  9
$DIMEXE
 40
1.5
  9
$DIMTP
 40
0.0
  9
$DIMTM
 40
0.0
  9
$DIMTXT
 40
3.0
  9
$DIMCEN
 40
150.0
  9
$DIMTSZ
 40
0.0
  9
$DIMTOL
 70
     0
  9
$DIMLIM
 70
     0
  9
$DIMTIH
 70
     0
  9
$DIMTOH
 70
     0
  9
$DIMSE1
 70
     0
  9
$DIMSE2
 70
     0
  9
$DIMTAD
 70
     3
  9
$DIMZIN
 70
     0
  9
$DIMBLK
  1

  9
$DIMASO
 70
     1
  9
$DIMSHO
 70
     1
  9
$DIMPOST
  1

  9
$DIMAPOST
  1

  9
$DIMALT
 70
     0
  9
$DIMALTD
 70
     2
  9
$DIMALTF
 40
25.4
  9
$DIMLFAC
 40
1.0
  9
$DIMTOFL
 70
     1
  9
$DIMTVP
 40
0.0
  9
$DIMTIX
 70
     0
  9
$DIMSOXD
 70
     0
  9
$DIMSAH
 70
     1
  9
$DIMBLK1
  1
OPEN
  9
$DIMBLK2
  1
OPEN
  9
$DIMSTYLE
  2
STANDARD
  9
$DIMCLRD
 70
   256
  9
$DIMCLRE
 70
   256
  9
$DIMCLRT
 70
   256
  9
$DIMTFAC
 40
1.0
  9
$DIMGAP
 40
1.0
  9
$DIMJUST
 70
     0
  9
$DIMSD1
 70
     0
  9
$DIMSD2
 70
     0
  9
$DIMTOLJ
 70
     1
  9
$DIMTZIN
 70
     0
  9
$DIMALTZ
 70
     0
  9
$DIMALTTZ
 70
     0
  9
$DIMFIT
 70
     3
  9
$DIMUPT
 70
     0
  9
$DIMUNIT
 70
     2
  9
$DIMDEC
 70
     0
  9
$DIMTDEC
 70
     0
  9
$DIMALTU
 70
     2
  9
$DIMALTTD
 70
     2
  9
$DIMTXSTY
  7
STANDARD
  9
$DIMAUNIT
 70
     0
  9
$LUNITS
 70
     2
  9
$LUPREC
 70
     4
  9
$SKETCHINC
 40
1.0
  9
$FILLETRAD
 40
10.0
  9
$AUNITS
 70
     0
  9
$AUPREC
 70
     0
  9
$MENU
  1
.
  9
$ELEVATION
 40
0.0
  9
$PELEVATION
 40
0.0
  9
$THICKNESS
 40
0.0
  9
$LIMCHECK
 70
     0
  9
$BLIPMODE
 70
     0
  9
$CHAMFERA
 40
10.0
  9
$CHAMFERB
 40
10.0
  9
$CHAMFERC
 40
20.0
  9
$CHAMFERD
 40
0.0
  9
$SKPOLY
 70
     0
  9
$TDCREATE
 40
2450994.350997107
  9
$TDUPDATE
 40
2454515.418903866
  9
$TDINDWG
 40
0.0151118056
  9
$TDUSRTIMER
 40
0.0151118056
  9
$USRTIMER
 70
     1
  9
$ANGBASE
 50
0.0
  9
$ANGDIR
 70
     0
  9
$PDMODE
 70
     1
  9
$PDSIZE
 40
0.0
  9
$PLINEWID
 40
0.0
  9
$COORDS
 70
     2
  9
$SPLFRAME
 70
     0
  9
$SPLINETYPE
 70
     6
  9
$SPLINESEGS
 70
     8
  9
$ATTDIA
 70
     0
  9
$ATTREQ
 70
     1
  9
$HANDLING
 70
 10241
  9
$HANDSEED
  5
C18
  9
$SURFTAB1
 70
     6
  9
$SURFTAB2
 70
     6
  9
$SURFTYPE
 70
     6
  9
$SURFU
 70
     6
  9
$SURFV
 70
     6
  9
$UCSNAME
  2

  9
$UCSORG
 10
0.0
 20
0.0
 30
0.0
  9
$UCSXDIR
 10
1.0
 20
0.0
 30
0.0
  9
$UCSYDIR
 10
0.0
 20
1.0
 30
0.0
  9
$PUCSNAME
  2

  9
$PUCSORG
 10
0.0
 20
0.0
 30
0.0
  9
$PUCSXDIR
 10
1.0
 20
0.0
 30
0.0
  9
$PUCSYDIR
 10
0.0
 20
1.0
 30
0.0
  9
$USERI1
 70
     0
  9
$USERI2
 70
     0
  9
$USERI3
 70
     0
  9
$USERI4
 70
     0
  9
$USERI5
 70
     0
  9
$USERR1
 40
0.0
  9
$USERR2
 40
0.0
  9
$USERR3
 40
0.0
  9
$USERR4
 40
0.0
  9
$USERR5
 40
0.0
  9
$WORLDVIEW
 70
     1
  9
$SHADEDGE
 70
     3
  9
$SHADEDIF
 70
    70
  9
$TILEMODE
 70
     1
  9
$MAXACTVP
 70
    16
  9
$PINSBASE
 10
0.0
 20
0.0
 30
0.0
  9
$PLIMCHECK
 70
     0
  9
$PEXTMIN
 10
0.0
 20
0.0
 30
0.0
  9
$PEXTMAX
 10
420.0
 20
297.0
 30
0.0
  9
$PLIMMIN
 10
0.0
 20
0.0
  9
$PLIMMAX
 10
420.0
 20
297.0
  9
$UNITMODE
 70
     0
  9
$VISRETAIN
 70
     0
  9
$PLINEGEN
 70
     0
  9
$PSLTSCALE
 70
     1
  9
$TREEDEPTH
 70
  3020
  9
$PICKSTYLE
 70
     1
  9
$CMLSTYLE
  2
STANDARD
  9
$CMLJUST
 70
     0
  9
$CMLSCALE
 40
1.0
  9
$PROXYGRAPHICS
 70
     1
  9
$MEASUREMENT
 70
     1
  0
ENDSEC
  0
SECTION
  2
CLASSES
  0
CLASS
  1
ACDBDICTIONARYWDFLT
  2
AcDbDictionaryWithDefault
  3
AutoCAD 2000
 90
        0
280
     0
281
     0
  0
CLASS
  1
ACDBPLACEHOLDER
  2
AcDbPlaceHolder
  3
AutoCAD 2000
 90
        0
280
     0
281
     0
  0
CLASS
  1
LAYOUT
  2
AcDbLayout
  3
AutoCAD 2000
 90
        0
280
     0
281
     0
  0
CLASS
  1
LONG_TRANSACTION
  2
AcDbLongTransaction
  3
AutoCAD 2000
 90
        0
280
     0
281
     0
  0
CLASS
  1
LWPOLYLINE
  2
AcDbPolyline
  3
AutoCAD 2000
 90
        0
280
     0
281
     1
  0
CLASS
  1
HATCH
  2
AcDbHatch
  3
AutoCAD 2000
 90
        0
280
     0
281
     1
  0
CLASS
  1
XRECORD
  2
AcDbXrecord
  3
AutoCAD 2000
 90
        0
280
     0
281
     0
  0
CLASS
  1
LONG_TRANSACTION
  2
AcDbLongTransaction
  3
AutoCAD 2000
 90
        0
280
     0
281
     0
  0
CLASS
  1
LWPOLYLINE
  2
AcDbPolyline
  3
AutoCAD 2000
 90
        0
280
     0
281
     1
  0
CLASS
  1
HATCH
  2
AcDbHatch
  3
AutoCAD 2000
 90
        0
280
     0
281
     1
  0
CLASS
  1
XRECORD
  2
AcDbXrecord
  3
AutoCAD 2000
 90
        0
280
     0
281
     0
  0
CLASS
  1
LONG_TRANSACTION
  2
AcDbLongTransaction
  3
AutoCAD 2000
 90
        0
280
     0
281
     0
  0
CLASS
  1
LWPOLYLINE
  2
AcDbPolyline
  3
AutoCAD 2000
 90
        0
280
     0
281
     1
  0
CLASS
  1
HATCH
  2
AcDbHatch
  3
AutoCAD 2000
 90
        0
280
     0
281
     1
  0
CLASS
  1
XRECORD
  2
AcDbXrecord
  3
AutoCAD 2000
 90
        0
280
     0
281
     0
  0
ENDSEC
  0
SECTION
  2
TABLES
  0
TABLE
  2
VPORT
  5
8
330
0
100
AcDbSymbolTable
 70
     2
  0
VPORT
  5
BF4
330
8
100
AcDbSymbolTableRecord
100
AcDbViewportTableRecord
  2
*ACTIVE
 70
     0
 10
0.0
 20
0.0
 11
1.0
 21
1.0
 12
213.0605854361656
 22
148.8830643116851
 13
0.0
 23
0.0
 14
5.0
 24
5.0
 15
0.0
 25
0.0
 16
0.0
 26
0.0
 36
1.0
 17
0.0
 27
0.0
 37
0.0
 40
375.7255411700587
 41
1.570153061224489
 42
50.0
 43
0.0
 44
0.0
 50
0.0
 51
0.0
 71
     0
 72
   100
 73
     1
 74
     0
 75
     0
 76
     0
 77
     0
 78
     0
  0
ENDTAB
  0
TABLE
  2
LTYPE
  5
5
330
0
100
AcDbSymbolTable
 70
     3
  0
LTYPE
  5
14
330
5
100
AcDbSymbolTableRecord
100
AcDbLinetypeTableRecord
  2
BYBLOCK
 70
     0
  3

 72
    65
 73
     0
 40
0.0
  0
LTYPE
  5
15
330
5
100
AcDbSymbolTableRecord
100
AcDbLinetypeTableRecord
  2
BYLAYER
 70
     0
  3

 72
    65
 73
     0
 40
0.0
  0
LTYPE
  5
16
330
5
100
AcDbSymbolTableRecord
100
AcDbLinetypeTableRecord
  2
CONTINUOUS
 70
     0
  3
Solid line
 72
    65
 73
     0
 40
0.0
  0
LTYPE
  5
120
330
5
100
AcDbSymbolTableRecord
100
AcDbLinetypeTableRecord
  2
CENTER
 70
     0
  3
____ _ ____ _ ____ _ ____ _ ____ _ ____ _ ____ 
 72
    65
 73
     4
 40
2.0
 49
1.25
 74
     0
 49
-0.25
 74
     0
 49
0.25
 74
     0
 49
-0.25
 74
     0
  0
LTYPE
  5
122
330
5
100
AcDbSymbolTableRecord
100
AcDbLinetypeTableRecord
  2
PHANTOM
 70
     0
  3
______  __  __  ______  __  __  ______  __  __ 
 72
    65
 73
     6
 40
2.5
 49
1.25
 74
     0
 49
-0.25
 74
     0
 49
0.25
 74
     0
 49
-0.25
 74
     0
 49
0.25
 74
     0
 49
-0.25
 74
     0
  0
ENDTAB
  0
TABLE
  2
LAYER
  5
2
330
0
100
AcDbSymbolTable
 70
     9
  0
LAYER
  5
F
330
2
100
AcDbSymbolTableRecord
100
AcDbLayerTableRecord
  2
0
 70
     0
 62
     7
  6
CONTINUOUS
  0
LAYER
  5
62
330
2
100
AcDbSymbolTableRecord
100
AcDbLayerTableRecord
  2
VIEWPORT
 70
     0
 62
     7
  6
CONTINUOUS
  0
LAYER
  5
6B
330
2
100
AcDbSymbolTableRecord
100
AcDbLayerTableRecord
  2
ZUWAKU
 70
     0
 62
     7
  6
CONTINUOUS
  0
LAYER
  5
14E
330
2
100
AcDbSymbolTableRecord
100
AcDbLayerTableRecord
  2
NOKITOI
 70
     0
 62
     8
  6
PHANTOM
  0
LAYER
  5
14F
330
2
100
AcDbSymbolTableRecord
100
AcDbLayerTableRecord
  2
SEIHIN
 70
     0
 62
     3
  6
CONTINUOUS
  0
LAYER
  5
150
330
2
100
AcDbSymbolTableRecord
100
AcDbLayerTableRecord
  2
SUNPOU
 70
     0
 62
     4
  6
CONTINUOUS
  0
LAYER
  5
151
330
2
100
AcDbSymbolTableRecord
100
AcDbLayerTableRecord
  2
CENTER_L
 70
     0
 62
     1
  6
CENTER
  0
LAYER
  5
4C7
330
2
100
AcDbSymbolTableRecord
100
AcDbLayerTableRecord
  2
DEFPOINTS
 70
     0
 62
     7
  6
CONTINUOUS
  0
LAYER
  5
9E0
330
2
100
AcDbSymbolTableRecord
100
AcDbLayerTableRecord
  2
MOJI
 70
     0
 62
     2
  6
CONTINUOUS
  0
ENDTAB
  0
TABLE
  2
STYLE
  5
3
330
0
100
AcDbSymbolTable
 70
     2
  0
STYLE
  5
10
330
3
100
AcDbSymbolTableRecord
100
AcDbTextStyleTableRecord
  2
STANDARD
 70
     0
 40
0.0
 41
1.0
 50
0.0
 71
     0
 42
2.5
  3
TXT
  4
bigfont.shx
  0
STYLE
  5
9E1
330
3
100
AcDbSymbolTableRecord
100
AcDbTextStyleTableRecord
  2
ｽﾀｲﾙ1
 70
     0
 40
0.0
 41
1.0
 50
0.0
 71
     0
 42
2.5
  3
MS PGothic.ttf
  4

1001
ACAD
1000
MS PGothic
1071
    32818
  0
ENDTAB
  0
TABLE
  2
VIEW
  5
6
330
0
100
AcDbSymbolTable
 70
     0
  0
ENDTAB
  0
TABLE
  2
UCS
  5
7
330
0
100
AcDbSymbolTable
 70
     0
  0
ENDTAB
  0
TABLE
  2
APPID
  5
9
330
0
100
AcDbSymbolTable
 70
     1
  0
APPID
  5
11
330
9
100
AcDbSymbolTableRecord
100
AcDbRegAppTableRecord
  2
ACAD
 70
     0
  0
ENDTAB
  0
TABLE
  2
DIMSTYLE
  5
A
330
0
100
AcDbSymbolTable
 70
     1
  0
DIMSTYLE
105
1D
102
{ACAD_REACTORS
330
558
330
55C
330
561
330
562
330
567
330
568
330
658
330
65E
330
6FD
330
6FA
330
735
330
742
330
74F
330
75C
330
769
330
778
330
785
102
}
330
A
100
AcDbSymbolTableRecord
100
AcDbDimStyleTableRecord
  2
STANDARD
 70
     0
  3

  4

  5

  6

  7

 40
1.0
 41
0.18
 42
0.0625
 43
0.38
 44
0.18
 45
0.0
 46
0.0
 47
0.0
 48
0.0
140
0.18
141
0.09
142
0.0
143
25.4
144
1.0
145
0.0
146
1.0
147
0.09
 71
     0
 72
     0
 73
     1
 74
     1
 75
     0
 76
     0
 77
     0
 78
     0
170
     0
171
     2
172
     0
173
     0
174
     0
175
     0
176
     0
177
     0
178
     0
270
     2
271
     4
272
     4
273
     2
274
     2
340
10
275
     0
280
     0
281
     0
282
     0
283
     1
284
     0
285
     0
286
     0
287
     3
288
     0
  0
ENDTAB
  0
TABLE
  2
BLOCK_RECORD
  5
1
330
0
100
AcDbSymbolTable
 70
    18
  0
BLOCK_RECORD
  5
1A
102
{ACAD_XDICTIONARY
360
901
102
}
330
1
100
AcDbSymbolTableRecord
100
AcDbBlockTableRecord
  2
*MODEL_SPACE
  0
BLOCK_RECORD
  5
17
102
{ACAD_XDICTIONARY
360
8FF
102
}
330
1
100
AcDbSymbolTableRecord
100
AcDbBlockTableRecord
  2
*PAPER_SPACE
  0
BLOCK_RECORD
  5
B2
330
1
100
AcDbSymbolTableRecord
100
AcDbBlockTableRecord
  2
_OPEN
  0
BLOCK_RECORD
  5
59E
330
1
100
AcDbSymbolTableRecord
100
AcDbBlockTableRecord
  2
*D1
  0
BLOCK_RECORD
  5
5AA
330
1
100
AcDbSymbolTableRecord
100
AcDbBlockTableRecord
  2
*D2
  0
BLOCK_RECORD
  5
5B8
330
1
100
AcDbSymbolTableRecord
100
AcDbBlockTableRecord
  2
*D3
  0
BLOCK_RECORD
  5
5C4
330
1
100
AcDbSymbolTableRecord
100
AcDbBlockTableRecord
  2
*D4
  0
BLOCK_RECORD
  5
5D0
330
1
100
AcDbSymbolTableRecord
100
AcDbBlockTableRecord
  2
*D5
  0
BLOCK_RECORD
  5
5DC
330
1
100
AcDbSymbolTableRecord
100
AcDbBlockTableRecord
  2
*D6
  0
BLOCK_RECORD
  5
65F
330
1
100
AcDbSymbolTableRecord
100
AcDbBlockTableRecord
  2
*D7
  0
BLOCK_RECORD
  5
66B
330
1
100
AcDbSymbolTableRecord
100
AcDbBlockTableRecord
  2
*D8
  0
BLOCK_RECORD
  5
70B
330
1
100
AcDbSymbolTableRecord
100
AcDbBlockTableRecord
  2
*D9
  0
BLOCK_RECORD
  5
717
330
1
100
AcDbSymbolTableRecord
100
AcDbBlockTableRecord
  2
*D10
  0
BLOCK_RECORD
  5
736
330
1
100
AcDbSymbolTableRecord
100
AcDbBlockTableRecord
  2
*D11
  0
BLOCK_RECORD
  5
743
330
1
100
AcDbSymbolTableRecord
100
AcDbBlockTableRecord
  2
*D12
  0
BLOCK_RECORD
  5
750
330
1
100
AcDbSymbolTableRecord
100
AcDbBlockTableRecord
  2
*D13
  0
BLOCK_RECORD
  5
75D
330
1
100
AcDbSymbolTableRecord
100
AcDbBlockTableRecord
  2
*D14
  0
BLOCK_RECORD
  5
76A
330
1
100
AcDbSymbolTableRecord
100
AcDbBlockTableRecord
  2
*D15
  0
BLOCK_RECORD
  5
779
330
1
100
AcDbSymbolTableRecord
100
AcDbBlockTableRecord
  2
*D16
  0
BLOCK_RECORD
  5
786
330
1
100
AcDbSymbolTableRecord
100
AcDbBlockTableRecord
  2
*D17
  0
ENDTAB
  0
ENDSEC
  0
SECTION
  2
BLOCKS
  0
BLOCK
  5
1B
330
1A
100
AcDbEntity
  8
0
100
AcDbBlockBegin
  2
*MODEL_SPACE
 70
     0
 10
0.0
 20
0.0
 30
0.0
  3
*MODEL_SPACE
  1

  0
ENDBLK
  5
1C
330
1A
100
AcDbEntity
  8
0
100
AcDbBlockEnd
  0
BLOCK
  5
18
330
17
100
AcDbEntity
 67
     1
  8
0
100
AcDbBlockBegin
  2
*PAPER_SPACE
 70
     0
 10
0.0
 20
0.0
 30
0.0
  3
*PAPER_SPACE
  1

  0
ENDBLK
  5
19
330
17
100
AcDbEntity
 67
     1
  8
0
100
AcDbBlockEnd
  0
BLOCK
  5
B3
330
B2
100
AcDbEntity
  8
0
100
AcDbBlockBegin
  2
_OPEN
 70
     0
 10
0.0
 20
0.0
 30
0.0
  3
_OPEN
  1

  0
LINE
  5
B4
330
B2
100
AcDbEntity
  8
0
  6
BYBLOCK
 62
     0
100
AcDbLine
 10
-1.0
 20
0.1666666666666666
 30
0.0
 11
0.0
 21
0.0
 31
0.0
  0
LINE
  5
B5
330
B2
100
AcDbEntity
  8
0
  6
BYBLOCK
 62
     0
100
AcDbLine
 10
0.0
 20
0.0
 30
0.0
 11
-1.0
 21
-0.1666666666666666
 31
0.0
  0
LINE
  5
B6
330
B2
100
AcDbEntity
  8
0
  6
BYBLOCK
 62
     0
100
AcDbLine
 10
0.0
 20
0.0
 30
0.0
 11
-1.0
 21
0.0
 31
0.0
  0
ENDBLK
  5
B7
330
B2
100
AcDbEntity
  8
0
100
AcDbBlockEnd
  0
BLOCK
  5
5A8
330
59E
100
AcDbEntity
  8
0
100
AcDbBlockBegin
  2
*D1
 70
     1
 10
0.0
 20
0.0
 30
0.0
  3
*D1
  1

  0
LINE
  5
B99
330
59E
100
AcDbEntity
  8
SUNPOU
 62
     4
100
AcDbLine
 10
323.5981714391955
 20
169.1621300204054
 30
0.0
 11
282.62220662463
 21
148.6741508479746
 31
0.0
  0
LINE
  5
B9A
330
59E
100
AcDbEntity
  8
SUNPOU
 62
     4
100
AcDbLine
 10
344.6172080018798
 20
127.1240502576353
 30
0.0
 11
303.6412431873143
 21
106.6360710852045
 31
0.0
  0
LINE
  5
B9B
330
59E
100
AcDbEntity
  8
SUNPOU
 62
     4
100
AcDbLine
 10
285.3054880705306
 20
146.6616894987593
 30
0.0
 11
303.6412433991462
 21
109.9901730514542
 31
0.0
  0
INSERT
  5
B9C
330
59E
100
AcDbEntity
  8
SUNPOU
 62
     4
100
AcDbBlockReference
  2
_OPEN
 10
283.9638474534962
 20
149.3449711564918
 30
0.0
 41
3.0
 42
3.0
 43
3.0
 50
116.5650475585006
  0
INSERT
  5
B9D
330
59E
100
AcDbEntity
  8
SUNPOU
 62
     4
100
AcDbBlockReference
  2
_OPEN
 10
304.9828840161805
 20
107.3068913937217
 30
0.0
 41
3.0
 42
3.0
 43
3.0
 50
296.5650475585006
  0
MTEXT
  5
B9E
330
59E
100
AcDbEntity
  8
SUNPOU
 62
     4
100
AcDbMText
 10
296.7094337829488
 20
129.4439651226354
 30
0.0
 40
3.0
 41
0.0
 71
     5
 72
     1
  1
\A1;47
 11
0.4472135390114337
 21
-0.8944272192441758
 31
0.0
1001
ACAD
1000
MTEXTBEGIN
1070
    73
1070
     1
1070
    44
1040
1.0
1070
    74
1070
     0
1000
MTEXTEND
  0
POINT
  5
B9F
330
59E
100
AcDbEntity
  8
DEFPOINTS
 62
     0
100
AcDbPoint
 10
326.2814530969281
 20
170.5037706374397
 30
0.0
  0
POINT
  5
BA0
330
59E
100
AcDbEntity
  8
DEFPOINTS
 62
     0
100
AcDbPoint
 10
347.3004896596123
 20
128.4656908746696
 30
0.0
  0
POINT
  5
BA1
330
59E
100
AcDbEntity
  8
DEFPOINTS
 62
     0
100
AcDbPoint
 10
304.9828840161805
 20
107.3068913937217
 30
0.0
  0
ENDBLK
  5
5A9
330
59E
100
AcDbEntity
  8
0
100
AcDbBlockEnd
  0
BLOCK
  5
5B6
330
5AA
100
AcDbEntity
  8
0
100
AcDbBlockBegin
  2
*D2
 70
     1
 10
0.0
 20
0.0
 30
0.0
  3
*D2
  1

  0
LINE
  5
BB6
330
5AA
100
AcDbEntity
  8
SUNPOU
 62
     4
100
AcDbLine
 10
341.9338715239279
 20
132.4906298509406
 30
0.0
 11
322.9124559598857
 21
122.9799220689266
 31
0.0
  0
LINE
  5
BB7
330
5AA
100
AcDbEntity
  8
SUNPOU
 62
     4
100
AcDbLine
 10
344.6171717058303
 20
127.1240294871319
 30
0.0
 11
325.5957561417881
 21
117.6133217051178
 31
0.0
  0
LINE
  5
BB8
330
5AA
100
AcDbEntity
  8
SUNPOU
 62
     4
100
AcDbLine
 10
322.9124559598866
 20
126.3340240351763
 30
0.0
 11
321.5708151733876
 21
129.0173056081764
 31
0.0
  0
LINE
  5
BB9
330
5AA
100
AcDbEntity
  8
SUNPOU
 62
     4
100
AcDbLine
 10
328.2790377147872
 20
115.6008605253672
 30
0.0
 11
329.6206785012863
 21
112.9175789523671
 31
0.0
  0
LINE
  5
BBA
330
5AA
100
AcDbEntity
  8
SUNPOU
 62
     4
100
AcDbLine
 10
324.2540967463858
 20
123.6507424621761
 30
0.0
 11
326.9373969282881
 21
118.2841420983674
 31
0.0
  0
INSERT
  5
BBB
330
5AA
100
AcDbEntity
  8
SUNPOU
 62
     4
100
AcDbBlockReference
  2
_OPEN
 10
324.2540967463858
 20
123.6507424621761
 30
0.0
 41
3.0
 42
3.0
 43
3.0
 50
296.565051177061
  0
INSERT
  5
BBC
330
5AA
100
AcDbEntity
  8
SUNPOU
 62
     4
100
AcDbBlockReference
  2
_OPEN
 10
326.9373969282881
 20
118.2841420983674
 30
0.0
 41
3.0
 42
3.0
 43
3.0
 50
116.5650511770609
  0
MTEXT
  5
BBD
330
5AA
100
AcDbEntity
  8
SUNPOU
 62
     4
100
AcDbMText
 10
327.8318148148371
 20
122.0854762690209
 30
0.0
 40
3.0
 41
0.0
 71
     5
 72
     1
  1
\A1;6
 11
0.4472135954996927
 21
-0.8944271910000484
 31
0.0
1001
ACAD
1000
MTEXTBEGIN
1070
    73
1070
     1
1070
    44
1040
1.0
1070
    74
1070
     0
1000
MTEXTEND
  0
POINT
  5
BBE
330
5AA
100
AcDbEntity
  8
DEFPOINTS
 62
     0
100
AcDbPoint
 10
344.6171530969281
 20
133.8322706374397
 30
0.0
  0
POINT
  5
BBF
330
5AA
100
AcDbEntity
  8
DEFPOINTS
 62
     0
100
AcDbPoint
 10
347.3004532788305
 20
128.465670273631
 30
0.0
  0
POINT
  5
BC0
330
5AA
100
AcDbEntity
  8
DEFPOINTS
 62
     0
100
AcDbPoint
 10
326.9373969282881
 20
118.2841420983674
 30
0.0
  0
ENDBLK
  5
5B7
330
5AA
100
AcDbEntity
  8
0
100
AcDbBlockEnd
  0
BLOCK
  5
5C2
330
5B8
100
AcDbEntity
  8
0
100
AcDbBlockBegin
  2
*D3
 70
     1
 10
0.0
 20
0.0
 30
0.0
  3
*D3
  1

  0
LINE
  5
BC1
330
5B8
100
AcDbEntity
  8
SUNPOU
 62
     4
100
AcDbLine
 10
309.2873149770918
 20
154.1805535437696
 30
0.0
 11
292.0308928776452
 21
188.693483490564
 31
0.0
  0
LINE
  5
BC2
330
5B8
100
AcDbEntity
  8
SUNPOU
 62
     4
100
AcDbLine
 10
349.5366149770919
 20
174.3051535437696
 30
0.0
 11
332.2801928776453
 21
208.818083490564
 31
0.0
  0
LINE
  5
BC3
330
5B8
100
AcDbEntity
  8
SUNPOU
 62
     4
100
AcDbLine
 10
295.3849948438932
 20
188.6934801572353
 30
0.0
 11
330.2677290312335
 21
206.1348039175628
 31
0.0
  0
INSERT
  5
BC4
330
5B8
100
AcDbEntity
  8
SUNPOU
 62
     4
100
AcDbBlockReference
  2
_OPEN
 10
292.7017119375633
 20
187.351842037399
 30
0.0
 41
3.0
 42
3.0
 43
3.0
 50
206.5649942361543
  0
INSERT
  5
BC5
330
5B8
100
AcDbEntity
  8
SUNPOU
 62
     4
100
AcDbBlockReference
  2
_OPEN
 10
332.9510119375634
 20
207.4764420373991
 30
0.0
 41
3.0
 42
3.0
 43
3.0
 50
26.56499423615426
  0
MTEXT
  5
BC6
330
5B8
100
AcDbEntity
  8
SUNPOU
 62
     4
100
AcDbMText
 10
311.7083301710331
 20
199.6502111260073
 30
0.0
 40
3.0
 41
0.0
 71
     5
 72
     1
  1
\A1;45
 11
0.8944276354432961
 21
0.4472127066120932
 31
0.0
1001
ACAD
1000
MTEXTBEGIN
1070
    73
1070
     1
1070
    44
1040
1.0
1070
    74
1070
     0
1000
MTEXTEND
  0
POINT
  5
BC7
330
5B8
100
AcDbEntity
  8
DEFPOINTS
 62
     0
100
AcDbPoint
 10
310.6289530969281
 20
151.4972706374397
 30
0.0
  0
POINT
  5
BC8
330
5B8
100
AcDbEntity
  8
DEFPOINTS
 62
     0
100
AcDbPoint
 10
350.8782530969282
 20
171.6218706374398
 30
0.0
  0
POINT
  5
BC9
330
5B8
100
AcDbEntity
  8
DEFPOINTS
 62
     0
100
AcDbPoint
 10
332.9510119375634
 20
207.4764420373991
 30
0.0
  0
ENDBLK
  5
5C3
330
5B8
100
AcDbEntity
  8
0
100
AcDbBlockEnd
  0
BLOCK
  5
5CE
330
5C4
100
AcDbEntity
  8
0
100
AcDbBlockBegin
  2
*D4
 70
     1
 10
0.0
 20
0.0
 30
0.0
  3
*D4
  1

  0
LINE
  5
BDC
330
5C4
100
AcDbEntity
  8
SUNPOU
 62
     4
100
AcDbLine
 10
315.685819583145
 20
154.7999558467855
 30
0.0
 11
300.7354613186183
 21
184.7008749826727
 31
0.0
  0
LINE
  5
BDD
330
5C4
100
AcDbEntity
  8
SUNPOU
 62
     4
100
AcDbLine
 10
345.2020195831451
 20
169.5579558467856
 30
0.0
 11
330.2516613186183
 21
199.4588749826728
 31
0.0
  0
LINE
  5
BDE
330
5C4
100
AcDbEntity
  8
SUNPOU
 62
     4
100
AcDbLine
 10
304.0895632848556
 20
184.7008658917829
 30
0.0
 11
328.239192866164
 21
196.7755988642167
 31
0.0
  0
INSERT
  5
BDF
330
5C4
100
AcDbEntity
  8
SUNPOU
 62
     4
100
AcDbBlockReference
  2
_OPEN
 10
301.4062780755098
 20
183.3592323779998
 30
0.0
 41
3.0
 42
3.0
 43
3.0
 50
206.564895883762
  0
INSERT
  5
BE0
330
5C4
100
AcDbEntity
  8
SUNPOU
 62
     4
100
AcDbBlockReference
  2
_OPEN
 10
330.9224780755099
 20
198.1172323779999
 30
0.0
 41
3.0
 42
3.0
 43
3.0
 50
26.56489588376206
  0
MTEXT
  5
BE1
330
5C4
100
AcDbEntity
  8
SUNPOU
 62
     4
100
AcDbMText
 10
315.0463501473574
 20
192.974303385788
 30
0.0
 40
3.0
 41
0.0
 71
     5
 72
     1
  1
\A1;33
 11
0.8944284031152676
 21
0.4472111712610411
 31
0.0
1001
ACAD
1000
MTEXTBEGIN
1070
    73
1070
     1
1070
    44
1040
1.0
1070
    74
1070
     0
1000
MTEXTEND
  0
POINT
  5
BE2
330
5C4
100
AcDbEntity
  8
DEFPOINTS
 62
     0
100
AcDbPoint
 10
317.0274530969281
 20
152.1166706374397
 30
0.0
  0
POINT
  5
BE3
330
5C4
100
AcDbEntity
  8
DEFPOINTS
 62
     0
100
AcDbPoint
 10
346.5436530969282
 20
166.8746706374398
 30
0.0
  0
POINT
  5
BE4
330
5C4
100
AcDbEntity
  8
DEFPOINTS
 62
     0
100
AcDbPoint
 10
330.9224780755099
 20
198.1172323779999
 30
0.0
  0
ENDBLK
  5
5CF
330
5C4
100
AcDbEntity
  8
0
100
AcDbBlockEnd
  0
BLOCK
  5
5DA
330
5D0
100
AcDbEntity
  8
0
100
AcDbBlockBegin
  2
*D5
 70
     1
 10
0.0
 20
0.0
 30
0.0
  3
*D5
  1

  0
LINE
  5
BE5
330
5D0
100
AcDbEntity
  8
SUNPOU
 62
     4
100
AcDbLine
 10
311.5233969719905
 20
166.4788456003809
 30
0.0
 11
305.5698801653078
 21
178.3858801537496
 31
0.0
  0
LINE
  5
BE6
330
5D0
100
AcDbEntity
  8
SUNPOU
 62
     4
100
AcDbLine
 10
338.3561973956643
 20
179.8952447530574
 30
0.0
 11
332.4026805889815
 21
191.8022793064261
 31
0.0
  0
LINE
  5
BE7
330
5D0
100
AcDbEntity
  8
SUNPOU
 62
     4
100
AcDbLine
 10
308.9239821315575
 20
178.3858800478335
 30
0.0
 11
330.3902193244989
 21
189.118997796976
 31
0.0
  0
INSERT
  5
BE8
330
5D0
100
AcDbEntity
  8
SUNPOU
 62
     4
100
AcDbBlockReference
  2
_OPEN
 10
306.2407005161913
 20
177.0442393460665
 30
0.0
 41
3.0
 42
3.0
 43
3.0
 50
206.5650493677873
  0
INSERT
  5
BE9
330
5D0
100
AcDbEntity
  8
SUNPOU
 62
     4
100
AcDbBlockReference
  2
_OPEN
 10
333.073500939865
 20
190.460638498743
 30
0.0
 41
3.0
 42
3.0
 43
3.0
 50
26.56504936778732
  0
MTEXT
  5
BEA
330
5D0
100
AcDbEntity
  8
SUNPOU
 62
     4
100
AcDbMText
 10
318.5390668098891
 20
185.9885069352099
 30
0.0
 40
3.0
 41
0.0
 71
     5
 72
     1
  1
\A1;30
 11
0.8944272051220616
 21
0.4472135672556651
 31
0.0
1001
ACAD
1000
MTEXTBEGIN
1070
    73
1070
     1
1070
    44
1040
1.0
1070
    74
1070
     0
1000
MTEXTEND
  0
POINT
  5
BEB
330
5D0
100
AcDbEntity
  8
DEFPOINTS
 62
     0
100
AcDbPoint
 10
312.8650376737575
 20
163.7955639850147
 30
0.0
  0
POINT
  5
BEC
330
5D0
100
AcDbEntity
  8
DEFPOINTS
 62
     0
100
AcDbPoint
 10
339.6978380974313
 20
177.2119631376912
 30
0.0
  0
POINT
  5
BED
330
5D0
100
AcDbEntity
  8
DEFPOINTS
 62
     0
100
AcDbPoint
 10
333.073500939865
 20
190.460638498743
 30
0.0
  0
ENDBLK
  5
5DB
330
5D0
100
AcDbEntity
  8
0
100
AcDbBlockEnd
  0
BLOCK
  5
5E6
330
5DC
100
AcDbEntity
  8
0
100
AcDbBlockBegin
  2
*D6
 70
     1
 10
0.0
 20
0.0
 30
0.0
  3
*D6
  1

  0
LINE
  5
B90
330
5DC
100
AcDbEntity
  8
SUNPOU
 62
     4
100
AcDbLine
 10
308.8401390535672
 20
161.7832554135011
 30
0.0
 11
290.8984706975974
 21
152.8125521297189
 31
0.0
  0
LINE
  5
B91
330
5DC
100
AcDbEntity
  8
SUNPOU
 62
     4
100
AcDbLine
 10
315.9954933041173
 20
147.4723381005923
 30
0.0
 11
298.0538249481473
 21
138.50163481681
 31
0.0
  0
LINE
  5
B92
330
5DC
100
AcDbEntity
  8
SUNPOU
 62
     4
100
AcDbLine
 10
293.5817405249204
 20
150.800075289162
 30
0.0
 11
298.0538445241991
 21
141.8557367830026
 31
0.0
  0
INSERT
  5
B93
330
5DC
100
AcDbEntity
  8
SUNPOU
 62
     4
100
AcDbBlockReference
  2
_OPEN
 10
292.2401153992847
 20
153.4833646925367
 30
0.0
 41
3.0
 42
3.0
 43
3.0
 50
116.5647167730698
  0
INSERT
  5
B94
330
5DC
100
AcDbEntity
  8
SUNPOU
 62
     4
100
AcDbBlockReference
  2
_OPEN
 10
299.3954696498347
 20
139.1724473796279
 30
0.0
 41
3.0
 42
3.0
 43
3.0
 50
296.5647167730697
  0
MTEXT
  5
B95
330
5DC
100
AcDbEntity
  8
SUNPOU
 62
     4
100
AcDbMText
 10
298.0538670273719
 20
147.445926974112
 30
0.0
 40
3.0
 41
0.0
 71
     5
 72
     1
  1
\A1;16
 11
0.4472083752118906
 21
-0.894429801124907
 31
0.0
1001
ACAD
1000
MTEXTBEGIN
1070
    73
1070
     1
1070
    44
1040
1.0
1070
    74
1070
     0
1000
MTEXTEND
  0
POINT
  5
B96
330
5DC
100
AcDbEntity
  8
DEFPOINTS
 62
     0
100
AcDbPoint
 10
311.523428456942
 20
163.1248805391368
 30
0.0
  0
POINT
  5
B97
330
5DC
100
AcDbEntity
  8
DEFPOINTS
 62
     0
100
AcDbPoint
 10
318.678782707492
 20
148.813963226228
 30
0.0
  0
POINT
  5
B98
330
5DC
100
AcDbEntity
  8
DEFPOINTS
 62
     0
100
AcDbPoint
 10
299.3954696498347
 20
139.1724473796279
 30
0.0
  0
ENDBLK
  5
5E7
330
5DC
100
AcDbEntity
  8
0
100
AcDbBlockEnd
  0
BLOCK
  5
669
330
65F
100
AcDbEntity
  8
0
100
AcDbBlockBegin
  2
*D7
 70
     1
 10
0.0
 20
0.0
 30
0.0
  3
*D7
  1

  0
LINE
  5
BA2
330
65F
100
AcDbEntity
  8
SUNPOU
 62
     4
100
AcDbLine
 10
260.548137453612
 20
85.08960174951511
 30
0.0
 11
278.0695687033168
 21
93.85027398279234
 31
0.0
  0
LINE
  5
BA3
330
65F
100
AcDbEntity
  8
SUNPOU
 62
     4
100
AcDbLine
 10
239.529141560616
 20
127.1278017495151
 30
0.0
 11
257.0505728103208
 21
135.8884739827923
 31
0.0
  0
LINE
  5
BA4
330
65F
100
AcDbEntity
  8
SUNPOU
 62
     4
100
AcDbLine
 10
275.3862911173914
 20
95.86274047863041
 30
0.0
 11
257.0505661652056
 21
132.5343720165492
 31
0.0
  0
INSERT
  5
BA5
330
65F
100
AcDbEntity
  8
SUNPOU
 62
     4
100
AcDbBlockReference
  2
_OPEN
 10
276.7279265877965
 20
93.17945624758982
 30
0.0
 41
3.0
 42
3.0
 43
3.0
 50
296.5649376632195
  0
INSERT
  5
BA6
330
65F
100
AcDbEntity
  8
SUNPOU
 62
     4
100
AcDbBlockReference
  2
_OPEN
 10
255.7089306948005
 20
135.2176562475898
 30
0.0
 41
3.0
 42
3.0
 43
3.0
 50
116.5649376632195
  0
MTEXT
  5
BA7
330
65F
100
AcDbEntity
  8
SUNPOU
 62
     4
100
AcDbMText
 10
268.4544988338323
 20
115.3165858062607
 30
0.0
 40
3.0
 41
0.0
 71
     5
 72
     1
  1
\A1;47
 11
0.4472118234683579
 21
-0.8944280770135218
 31
0.0
1001
ACAD
1000
MTEXTBEGIN
1070
    73
1070
     1
1070
    44
1040
1.0
1070
    74
1070
     0
1000
MTEXTEND
  0
POINT
  5
BA8
330
65F
100
AcDbEntity
  8
DEFPOINTS
 62
     0
100
AcDbPoint
 10
257.8648532225715
 20
83.74796627911003
 30
0.0
  0
POINT
  5
BA9
330
65F
100
AcDbEntity
  8
DEFPOINTS
 62
     0
100
AcDbPoint
 10
236.8458573295755
 20
125.78616627911
 30
0.0
  0
POINT
  5
BAA
330
65F
100
AcDbEntity
  8
DEFPOINTS
 62
     0
100
AcDbPoint
 10
255.7089306948005
 20
135.2176562475898
 30
0.0
  0
ENDBLK
  5
66A
330
65F
100
AcDbEntity
  8
0
100
AcDbBlockEnd
  0
BLOCK
  5
677
330
66B
100
AcDbEntity
  8
0
100
AcDbBlockBegin
  2
*D8
 70
     1
 10
0.0
 20
0.0
 30
0.0
  3
*D8
  1

  0
LINE
  5
BAB
330
66B
100
AcDbEntity
  8
SUNPOU
 62
     4
100
AcDbLine
 10
258.3118740148147
 20
80.61742471233563
 30
0.0
 11
267.1127269080511
 21
63.01375093550137
 31
0.0
  0
LINE
  5
BAC
330
66B
100
AcDbEntity
  8
SUNPOU
 62
     4
100
AcDbLine
 10
259.2063740148146
 20
81.06462471233561
 30
0.0
 11
268.007226908051
 21
63.46095093550133
 31
0.0
  0
LINE
  5
BAD
330
66B
100
AcDbEntity
  8
SUNPOU
 62
     4
100
AcDbLine
 10
263.7586249451551
 20
63.01390092664546
 30
0.0
 11
261.0752833783807
 21
61.67238013440233
 31
0.0
  0
LINE
  5
BAE
330
66B
100
AcDbEntity
  8
SUNPOU
 62
     4
100
AcDbLine
 10
270.0198080787039
 20
66.14414251113167
 30
0.0
 11
281.200397940264
 21
71.73381247881137
 31
0.0
  0
LINE
  5
BAF
330
66B
100
AcDbEntity
  8
SUNPOU
 62
     4
100
AcDbLine
 10
266.4419665119296
 20
64.35542171888858
 30
0.0
 11
267.3364665119295
 21
64.80262171888854
 31
0.0
  0
INSERT
  5
BB0
330
66B
100
AcDbEntity
  8
SUNPOU
 62
     4
100
AcDbBlockReference
  2
_OPEN
 10
266.4419665119296
 20
64.35542171888858
 30
0.0
 41
3.0
 42
3.0
 43
3.0
 50
26.56248898320024
  0
INSERT
  5
BB1
330
66B
100
AcDbEntity
  8
SUNPOU
 62
     4
100
AcDbBlockReference
  2
_OPEN
 10
267.3364665119295
 20
64.80262171888854
 30
0.0
 41
3.0
 42
3.0
 43
3.0
 50
206.5624889832002
  0
MTEXT
  5
BB2
330
66B
100
AcDbEntity
  8
SUNPOU
 62
     4
100
AcDbMText
 10
275.8338397993352
 20
71.84585586340509
 30
0.0
 40
3.0
 41
0.0
 71
     5
 72
     1
  1
\A1;t1.0
 11
0.8944471889248053
 21
0.4471735974143753
 31
0.0
1001
ACAD
1000
MTEXTBEGIN
1070
    73
1070
     1
1070
    44
1040
1.0
1070
    74
1070
     0
1000
MTEXTEND
  0
POINT
  5
BB3
330
66B
100
AcDbEntity
  8
DEFPOINTS
 62
     0
100
AcDbPoint
 10
256.9703532225716
 20
83.30076627911006
 30
0.0
  0
POINT
  5
BB4
330
66B
100
AcDbEntity
  8
DEFPOINTS
 62
     0
100
AcDbPoint
 10
257.8648532225715
 20
83.74796627911001
 30
0.0
  0
POINT
  5
BB5
330
66B
100
AcDbEntity
  8
DEFPOINTS
 62
     0
100
AcDbPoint
 10
267.3364665119295
 20
64.80262171888854
 30
0.0
  0
ENDBLK
  5
678
330
66B
100
AcDbEntity
  8
0
100
AcDbBlockEnd
  0
BLOCK
  5
715
330
70B
100
AcDbEntity
  8
0
100
AcDbBlockBegin
  2
*D9
 70
     1
 10
0.0
 20
0.0
 30
0.0
  3
*D9
  1

  0
LINE
  5
BCA
330
70B
100
AcDbEntity
  8
SUNPOU
 62
     4
100
AcDbLine
 10
249.5989899798816
 20
240.9548530859332
 30
0.0
 11
277.0157887220024
 21
240.9548530859332
 31
0.0
  0
LINE
  5
BCB
330
70B
100
AcDbEntity
  8
SUNPOU
 62
     4
100
AcDbLine
 10
249.5989899798816
 20
207.9548530859332
 30
0.0
 11
277.0157887220024
 21
207.9548530859332
 31
0.0
  0
LINE
  5
BCC
330
70B
100
AcDbEntity
  8
SUNPOU
 62
     4
100
AcDbLine
 10
275.5157887220024
 20
237.9548530859332
 30
0.0
 11
275.5157887220024
 21
210.9548530859332
 31
0.0
  0
INSERT
  5
BCD
330
70B
100
AcDbEntity
  8
SUNPOU
 62
     4
100
AcDbBlockReference
  2
_OPEN
 10
275.5157887220024
 20
240.9548530859332
 30
0.0
 41
3.0
 42
3.0
 43
3.0
 50
90.0
  0
INSERT
  5
BCE
330
70B
100
AcDbEntity
  8
SUNPOU
 62
     4
100
AcDbBlockReference
  2
_OPEN
 10
275.5157887220024
 20
207.9548530859332
 30
0.0
 41
3.0
 42
3.0
 43
3.0
 50
270.0
  0
MTEXT
  5
BCF
330
70B
100
AcDbEntity
  8
SUNPOU
 62
     4
100
AcDbMText
 10
273.0157887220024
 20
224.4548530859332
 30
0.0
 40
3.0
 41
0.0
 71
     5
 72
     1
  1
\A1;33
 11
0.0000000000000001
 21
1.0
 31
0.0
1001
ACAD
1000
MTEXTBEGIN
1070
    73
1070
     1
1070
    44
1040
1.0
1070
    74
1070
     0
1000
MTEXTEND
  0
POINT
  5
BD0
330
70B
100
AcDbEntity
  8
DEFPOINTS
 62
     0
100
AcDbPoint
 10
246.5989899798815
 20
240.9548530859332
 30
0.0
  0
POINT
  5
BD1
330
70B
100
AcDbEntity
  8
DEFPOINTS
 62
     0
100
AcDbPoint
 10
246.5989899798815
 20
207.9548530859332
 30
0.0
  0
POINT
  5
BD2
330
70B
100
AcDbEntity
  8
DEFPOINTS
 62
     0
100
AcDbPoint
 10
275.5157887220024
 20
207.9548530859332
 30
0.0
  0
ENDBLK
  5
716
330
70B
100
AcDbEntity
  8
0
100
AcDbBlockEnd
  0
BLOCK
  5
721
330
717
100
AcDbEntity
  8
0
100
AcDbBlockBegin
  2
*D10
 70
     1
 10
0.0
 20
0.0
 30
0.0
  3
*D10
  1

  0
LINE
  5
BD3
330
717
100
AcDbEntity
  8
SUNPOU
 62
     4
100
AcDbLine
 10
248.7900899798816
 20
246.9548530859332
 30
0.0
 11
286.9986142109177
 21
246.9548530859332
 31
0.0
  0
LINE
  5
BD4
330
717
100
AcDbEntity
  8
SUNPOU
 62
     4
100
AcDbLine
 10
248.7900899798816
 20
201.9548530859332
 30
0.0
 11
286.9986142109177
 21
201.9548530859332
 31
0.0
  0
LINE
  5
BD5
330
717
100
AcDbEntity
  8
SUNPOU
 62
     4
100
AcDbLine
 10
285.4986142109177
 20
243.9548530859332
 30
0.0
 11
285.4986142109177
 21
204.9548530859332
 31
0.0
  0
INSERT
  5
BD6
330
717
100
AcDbEntity
  8
SUNPOU
 62
     4
100
AcDbBlockReference
  2
_OPEN
 10
285.4986142109177
 20
246.9548530859332
 30
0.0
 41
3.0
 42
3.0
 43
3.0
 50
90.0
  0
INSERT
  5
BD7
330
717
100
AcDbEntity
  8
SUNPOU
 62
     4
100
AcDbBlockReference
  2
_OPEN
 10
285.4986142109177
 20
201.9548530859332
 30
0.0
 41
3.0
 42
3.0
 43
3.0
 50
270.0
  0
MTEXT
  5
BD8
330
717
100
AcDbEntity
  8
SUNPOU
 62
     4
100
AcDbMText
 10
282.9986142109177
 20
224.4548530859332
 30
0.0
 40
3.0
 41
0.0
 71
     5
 72
     1
  1
\A1;45
 11
0.0000000000000001
 21
1.0
 31
0.0
1001
ACAD
1000
MTEXTBEGIN
1070
    73
1070
     1
1070
    44
1040
1.0
1070
    74
1070
     0
1000
MTEXTEND
  0
POINT
  5
BD9
330
717
100
AcDbEntity
  8
DEFPOINTS
 62
     0
100
AcDbPoint
 10
245.7900899798815
 20
246.9548530859332
 30
0.0
  0
POINT
  5
BDA
330
717
100
AcDbEntity
  8
DEFPOINTS
 62
     0
100
AcDbPoint
 10
245.7900899798815
 20
201.9548530859332
 30
0.0
  0
POINT
  5
BDB
330
717
100
AcDbEntity
  8
DEFPOINTS
 62
     0
100
AcDbPoint
 10
285.4986142109177
 20
201.9548530859332
 30
0.0
  0
ENDBLK
  5
722
330
717
100
AcDbEntity
  8
0
100
AcDbBlockEnd
  0
BLOCK
  5
740
330
736
100
AcDbEntity
  8
0
100
AcDbBlockBegin
  2
*D11
 70
     1
 10
0.0
 20
0.0
 30
0.0
  3
*D11
  1

  0
LINE
  5
B6A
330
736
100
AcDbEntity
  8
SUNPOU
 62
     4
100
AcDbLine
 10
192.0148552760686
 20
117.58456627911
 30
0.0
 11
192.0148552760686
 21
149.4210646484318
 31
0.0
  0
LINE
  5
B6B
330
736
100
AcDbEntity
  8
SUNPOU
 62
     4
100
AcDbLine
 10
236.8458573295755
 20
128.78616627911
 30
0.0
 11
236.8458573295755
 21
149.4210646484318
 31
0.0
  0
LINE
  5
B6C
330
736
100
AcDbEntity
  8
SUNPOU
 62
     4
100
AcDbLine
 10
195.0148552760686
 20
147.9210646484318
 30
0.0
 11
233.8458573295755
 21
147.9210646484318
 31
0.0
  0
INSERT
  5
B6D
330
736
100
AcDbEntity
  8
SUNPOU
 62
     4
100
AcDbBlockReference
  2
_OPEN
 10
192.0148552760686
 20
147.9210646484318
 30
0.0
 41
3.0
 42
3.0
 43
3.0
 50
180.0
  0
INSERT
  5
B6E
330
736
100
AcDbEntity
  8
SUNPOU
 62
     4
100
AcDbBlockReference
  2
_OPEN
 10
236.8458573295755
 20
147.9210646484318
 30
0.0
 41
3.0
 42
3.0
 43
3.0
  0
MTEXT
  5
B6F
330
736
100
AcDbEntity
  8
SUNPOU
 62
     4
100
AcDbMText
 10
214.430356302822
 20
150.4210646484318
 30
0.0
 40
3.0
 41
0.0
 71
     5
 72
     1
  1
\A1;45
1001
ACAD
1000
MTEXTBEGIN
1070
    73
1070
     1
1070
    44
1040
1.0
1070
    74
1070
     0
1000
MTEXTEND
  0
POINT
  5
B70
330
736
100
AcDbEntity
  8
DEFPOINTS
 62
     0
100
AcDbPoint
 10
192.0148552760686
 20
114.58456627911
 30
0.0
  0
POINT
  5
B71
330
736
100
AcDbEntity
  8
DEFPOINTS
 62
     0
100
AcDbPoint
 10
236.8458573295755
 20
125.78616627911
 30
0.0
  0
POINT
  5
B72
330
736
100
AcDbEntity
  8
DEFPOINTS
 62
     0
100
AcDbPoint
 10
236.8458573295755
 20
147.9210646484318
 30
0.0
  0
ENDBLK
  5
741
330
736
100
AcDbEntity
  8
0
100
AcDbBlockEnd
  0
BLOCK
  5
74D
330
743
100
AcDbEntity
  8
0
100
AcDbBlockBegin
  2
*D12
 70
     1
 10
0.0
 20
0.0
 30
0.0
  3
*D12
  1

  0
LINE
  5
B61
330
743
100
AcDbEntity
  8
SUNPOU
 62
     4
100
AcDbLine
 10
176.845796452539
 20
128.78616627911
 30
0.0
 11
176.845796452539
 21
157.5441014458904
 31
0.0
  0
LINE
  5
B62
330
743
100
AcDbEntity
  8
SUNPOU
 62
     4
100
AcDbLine
 10
236.8458573295755
 20
128.78616627911
 30
0.0
 11
236.8458573295755
 21
157.5441014458904
 31
0.0
  0
LINE
  5
B63
330
743
100
AcDbEntity
  8
SUNPOU
 62
     4
100
AcDbLine
 10
179.845796452539
 20
156.0441014458904
 30
0.0
 11
233.8458573295755
 21
156.0441014458904
 31
0.0
  0
INSERT
  5
B64
330
743
100
AcDbEntity
  8
SUNPOU
 62
     4
100
AcDbBlockReference
  2
_OPEN
 10
176.845796452539
 20
156.0441014458904
 30
0.0
 41
3.0
 42
3.0
 43
3.0
 50
180.0
  0
INSERT
  5
B65
330
743
100
AcDbEntity
  8
SUNPOU
 62
     4
100
AcDbBlockReference
  2
_OPEN
 10
236.8458573295755
 20
156.0441014458904
 30
0.0
 41
3.0
 42
3.0
 43
3.0
  0
MTEXT
  5
B66
330
743
100
AcDbEntity
  8
SUNPOU
 62
     4
100
AcDbMText
 10
206.8458268910573
 20
158.5441014458904
 30
0.0
 40
3.0
 41
0.0
 71
     5
 72
     1
  1
\A1;60
1001
ACAD
1000
MTEXTBEGIN
1070
    73
1070
     1
1070
    44
1040
1.0
1070
    74
1070
     0
1000
MTEXTEND
  0
POINT
  5
B67
330
743
100
AcDbEntity
  8
DEFPOINTS
 62
     0
100
AcDbPoint
 10
176.845796452539
 20
125.78616627911
 30
0.0
  0
POINT
  5
B68
330
743
100
AcDbEntity
  8
DEFPOINTS
 62
     0
100
AcDbPoint
 10
236.8458573295755
 20
125.78616627911
 30
0.0
  0
POINT
  5
B69
330
743
100
AcDbEntity
  8
DEFPOINTS
 62
     0
100
AcDbPoint
 10
236.8458573295755
 20
156.0441014458904
 30
0.0
  0
ENDBLK
  5
74E
330
743
100
AcDbEntity
  8
0
100
AcDbBlockEnd
  0
BLOCK
  5
75A
330
750
100
AcDbEntity
  8
0
100
AcDbBlockBegin
  2
*D13
 70
     1
 10
0.0
 20
0.0
 30
0.0
  3
*D13
  1

  0
LINE
  5
B58
330
750
100
AcDbEntity
  8
SUNPOU
 62
     4
100
AcDbLine
 10
236.8458573295755
 20
128.78616627911
 30
0.0
 11
236.8458573295755
 21
165.8809027925299
 31
0.0
  0
LINE
  5
B59
330
750
100
AcDbEntity
  8
SUNPOU
 62
     4
100
AcDbLine
 10
80.79665527606861
 20
117.28616627911
 30
0.0
 11
80.79665527606861
 21
165.8809027925299
 31
0.0
  0
LINE
  5
B5A
330
750
100
AcDbEntity
  8
SUNPOU
 62
     4
100
AcDbLine
 10
233.8458573295755
 20
164.3809027925299
 30
0.0
 11
83.79665527606862
 21
164.3809027925299
 31
0.0
  0
INSERT
  5
B5B
330
750
100
AcDbEntity
  8
SUNPOU
 62
     4
100
AcDbBlockReference
  2
_OPEN
 10
236.8458573295755
 20
164.3809027925299
 30
0.0
 41
3.0
 42
3.0
 43
3.0
  0
INSERT
  5
B5C
330
750
100
AcDbEntity
  8
SUNPOU
 62
     4
100
AcDbBlockReference
  2
_OPEN
 10
80.79665527606861
 20
164.3809027925299
 30
0.0
 41
3.0
 42
3.0
 43
3.0
 50
180.0
  0
MTEXT
  5
B5D
330
750
100
AcDbEntity
  8
SUNPOU
 62
     4
100
AcDbMText
 10
158.821256302822
 20
166.8809027925299
 30
0.0
 40
3.0
 41
0.0
 71
     5
 72
     1
  1
\A1;156
1001
ACAD
1000
MTEXTBEGIN
1070
    73
1070
     1
1070
    44
1040
1.0
1070
    74
1070
     0
1000
MTEXTEND
  0
POINT
  5
B5E
330
750
100
AcDbEntity
  8
DEFPOINTS
 62
     0
100
AcDbPoint
 10
236.8458573295755
 20
125.78616627911
 30
0.0
  0
POINT
  5
B5F
330
750
100
AcDbEntity
  8
DEFPOINTS
 62
     0
100
AcDbPoint
 10
80.79665527606861
 20
114.28616627911
 30
0.0
  0
POINT
  5
B60
330
750
100
AcDbEntity
  8
DEFPOINTS
 62
     0
100
AcDbPoint
 10
80.79665527606861
 20
164.3809027925299
 30
0.0
  0
ENDBLK
  5
75B
330
750
100
AcDbEntity
  8
0
100
AcDbBlockEnd
  0
BLOCK
  5
767
330
75D
100
AcDbEntity
  8
0
100
AcDbBlockBegin
  2
*D14
 70
     1
 10
0.0
 20
0.0
 30
0.0
  3
*D14
  1

  0
LINE
  5
B4F
330
75D
100
AcDbEntity
  8
SUNPOU
 62
     4
100
AcDbLine
 10
254.8648552760684
 20
83.74806627911008
 30
0.0
 11
53.83414394223654
 21
83.74806627911013
 31
0.0
  0
LINE
  5
B50
330
75D
100
AcDbEntity
  8
SUNPOU
 62
     4
100
AcDbLine
 10
77.84585527606847
 20
114.28616627911
 30
0.0
 11
53.83414394223656
 21
114.28616627911
 31
0.0
  0
LINE
  5
B51
330
75D
100
AcDbEntity
  8
SUNPOU
 62
     4
100
AcDbLine
 10
55.33414394223655
 20
86.74806627911014
 30
0.0
 11
55.33414394223655
 21
111.28616627911
 31
0.0
  0
INSERT
  5
B52
330
75D
100
AcDbEntity
  8
SUNPOU
 62
     4
100
AcDbBlockReference
  2
_OPEN
 10
55.33414394223655
 20
83.74806627911013
 30
0.0
 41
3.0
 42
3.0
 43
3.0
 50
270.0
  0
INSERT
  5
B53
330
75D
100
AcDbEntity
  8
SUNPOU
 62
     4
100
AcDbBlockReference
  2
_OPEN
 10
55.33414394223655
 20
114.28616627911
 30
0.0
 41
3.0
 42
3.0
 43
3.0
 50
90.0
  0
MTEXT
  5
B54
330
75D
100
AcDbEntity
  8
SUNPOU
 62
     4
100
AcDbMText
 10
52.83414394223654
 20
99.01711627911012
 30
0.0
 40
3.0
 41
0.0
 71
     5
 72
     1
  1
\A1;31
 11
0.0000000000000001
 21
1.0
 31
0.0
1001
ACAD
1000
MTEXTBEGIN
1070
    73
1070
     1
1070
    44
1040
1.0
1070
    74
1070
     0
1000
MTEXTEND
  0
POINT
  5
B55
330
75D
100
AcDbEntity
  8
DEFPOINTS
 62
     0
100
AcDbPoint
 10
257.8648552760684
 20
83.74806627911008
 30
0.0
  0
POINT
  5
B56
330
75D
100
AcDbEntity
  8
DEFPOINTS
 62
     0
100
AcDbPoint
 10
80.84585527606847
 20
114.28616627911
 30
0.0
  0
POINT
  5
B57
330
75D
100
AcDbEntity
  8
DEFPOINTS
 62
     0
100
AcDbPoint
 10
55.33414394223655
 20
114.28616627911
 30
0.0
  0
ENDBLK
  5
768
330
75D
100
AcDbEntity
  8
0
100
AcDbBlockEnd
  0
BLOCK
  5
776
330
76A
100
AcDbEntity
  8
0
100
AcDbBlockBegin
  2
*D15
 70
     1
 10
0.0
 20
0.0
 30
0.0
  3
*D15
  1

  0
LINE
  5
B73
330
76A
100
AcDbEntity
  8
SUNPOU
 62
     4
100
AcDbLine
 10
77.79665527606862
 20
114.28616627911
 30
0.0
 11
62.05879531853362
 21
114.28616627911
 31
0.0
  0
LINE
  5
B74
330
76A
100
AcDbEntity
  8
SUNPOU
 62
     4
100
AcDbLine
 10
79.24585527606848
 20
109.28616627911
 30
0.0
 11
62.05879531853361
 21
109.28616627911
 31
0.0
  0
LINE
  5
B75
330
76A
100
AcDbEntity
  8
SUNPOU
 62
     4
100
AcDbLine
 10
63.55879531853362
 20
117.28616627911
 30
0.0
 11
63.55879531853362
 21
120.28616627911
 31
0.0
  0
LINE
  5
B76
330
76A
100
AcDbEntity
  8
SUNPOU
 62
     4
100
AcDbLine
 10
63.55879531853361
 20
106.28616627911
 30
0.0
 11
63.55879531853361
 21
103.28616627911
 31
0.0
  0
LINE
  5
B77
330
76A
100
AcDbEntity
  8
SUNPOU
 62
     4
100
AcDbLine
 10
63.55879531853362
 20
114.28616627911
 30
0.0
 11
63.55879531853361
 21
109.28616627911
 31
0.0
  0
INSERT
  5
B78
330
76A
100
AcDbEntity
  8
SUNPOU
 62
     4
100
AcDbBlockReference
  2
_OPEN
 10
63.55879531853362
 20
114.28616627911
 30
0.0
 41
3.0
 42
3.0
 43
3.0
 50
270.0
  0
INSERT
  5
B79
330
76A
100
AcDbEntity
  8
SUNPOU
 62
     4
100
AcDbBlockReference
  2
_OPEN
 10
63.55879531853361
 20
109.28616627911
 30
0.0
 41
3.0
 42
3.0
 43
3.0
 50
90.0
  0
MTEXT
  5
B7A
330
76A
100
AcDbEntity
  8
SUNPOU
 62
     4
100
AcDbMText
 10
61.0587953185336
 20
111.78616627911
 30
0.0
 40
3.0
 41
0.0
 71
     5
 72
     1
  1
\A1;5
 11
0.0000000000000001
 21
1.0
 31
0.0
1001
ACAD
1000
MTEXTBEGIN
1070
    73
1070
     1
1070
    44
1040
1.0
1070
    74
1070
     0
1000
MTEXTEND
  0
POINT
  5
B7B
330
76A
100
AcDbEntity
  8
DEFPOINTS
 62
     0
100
AcDbPoint
 10
80.79665527606861
 20
114.28616627911
 30
0.0
  0
POINT
  5
B7C
330
76A
100
AcDbEntity
  8
DEFPOINTS
 62
     0
100
AcDbPoint
 10
82.24585527606848
 20
109.28616627911
 30
0.0
  0
POINT
  5
B7D
330
76A
100
AcDbEntity
  8
DEFPOINTS
 62
     0
100
AcDbPoint
 10
63.55879531853361
 20
109.28616627911
 30
0.0
  0
ENDBLK
  5
777
330
76A
100
AcDbEntity
  8
0
100
AcDbBlockEnd
  0
BLOCK
  5
783
330
779
100
AcDbEntity
  8
0
100
AcDbBlockBegin
  2
*D16
 70
     1
 10
0.0
 20
0.0
 30
0.0
  3
*D16
  1

  0
LINE
  5
B87
330
779
100
AcDbEntity
  8
SUNPOU
 62
     4
100
AcDbLine
 10
82.24585527606848
 20
230.95476627911
 30
0.0
 11
62.05879531853363
 21
230.95476627911
 31
0.0
  0
LINE
  5
B88
330
779
100
AcDbEntity
  8
SUNPOU
 62
     4
100
AcDbLine
 10
82.24585527606848
 20
217.95476627911
 30
0.0
 11
62.05879531853363
 21
217.9547662791101
 31
0.0
  0
LINE
  5
B89
330
779
100
AcDbEntity
  8
SUNPOU
 62
     4
100
AcDbLine
 10
63.55879531853363
 20
227.95476627911
 30
0.0
 11
63.55879531853363
 21
220.95476627911
 31
0.0
  0
INSERT
  5
B8A
330
779
100
AcDbEntity
  8
SUNPOU
 62
     4
100
AcDbBlockReference
  2
_OPEN
 10
63.55879531853363
 20
230.95476627911
 30
0.0
 41
3.0
 42
3.0
 43
3.0
 50
90.0
  0
INSERT
  5
B8B
330
779
100
AcDbEntity
  8
SUNPOU
 62
     4
100
AcDbBlockReference
  2
_OPEN
 10
63.55879531853363
 20
217.9547662791101
 30
0.0
 41
3.0
 42
3.0
 43
3.0
 50
270.0
  0
MTEXT
  5
B8C
330
779
100
AcDbEntity
  8
SUNPOU
 62
     4
100
AcDbMText
 10
61.0587953185336
 20
224.45476627911
 30
0.0
 40
3.0
 41
0.0
 71
     5
 72
     1
  1
\A1;13
 11
0.0000000000000001
 21
1.0
 31
0.0
1001
ACAD
1000
MTEXTBEGIN
1070
    73
1070
     1
1070
    44
1040
1.0
1070
    74
1070
     0
1000
MTEXTEND
  0
POINT
  5
B8D
330
779
100
AcDbEntity
  8
DEFPOINTS
 62
     0
100
AcDbPoint
 10
85.24585527606848
 20
230.95476627911
 30
0.0
  0
POINT
  5
B8E
330
779
100
AcDbEntity
  8
DEFPOINTS
 62
     0
100
AcDbPoint
 10
85.24585527606848
 20
217.95476627911
 30
0.0
  0
POINT
  5
B8F
330
779
100
AcDbEntity
  8
DEFPOINTS
 62
     0
100
AcDbPoint
 10
63.55879531853363
 20
217.9547662791101
 30
0.0
  0
ENDBLK
  5
784
330
779
100
AcDbEntity
  8
0
100
AcDbBlockEnd
  0
BLOCK
  5
790
330
786
100
AcDbEntity
  8
0
100
AcDbBlockBegin
  2
*D17
 70
     1
 10
0.0
 20
0.0
 30
0.0
  3
*D17
  1

  0
LINE
  5
B7E
330
786
100
AcDbEntity
  8
SUNPOU
 62
     4
100
AcDbLine
 10
77.84595527606848
 20
234.45476627911
 30
0.0
 11
53.83414394223658
 21
234.4547662791101
 31
0.0
  0
LINE
  5
B7F
330
786
100
AcDbEntity
  8
SUNPOU
 62
     4
100
AcDbLine
 10
77.84595527606848
 20
214.45476627911
 30
0.0
 11
53.83414394223658
 21
214.45476627911
 31
0.0
  0
LINE
  5
B80
330
786
100
AcDbEntity
  8
SUNPOU
 62
     4
100
AcDbLine
 10
55.33414394223658
 20
231.45476627911
 30
0.0
 11
55.33414394223658
 21
217.4547662791101
 31
0.0
  0
INSERT
  5
B81
330
786
100
AcDbEntity
  8
SUNPOU
 62
     4
100
AcDbBlockReference
  2
_OPEN
 10
55.33414394223658
 20
234.4547662791101
 30
0.0
 41
3.0
 42
3.0
 43
3.0
 50
90.0
  0
INSERT
  5
B82
330
786
100
AcDbEntity
  8
SUNPOU
 62
     4
100
AcDbBlockReference
  2
_OPEN
 10
55.33414394223658
 20
214.45476627911
 30
0.0
 41
3.0
 42
3.0
 43
3.0
 50
270.0
  0
MTEXT
  5
B83
330
786
100
AcDbEntity
  8
SUNPOU
 62
     4
100
AcDbMText
 10
52.83414394223655
 20
224.45476627911
 30
0.0
 40
3.0
 41
0.0
 71
     5
 72
     1
  1
\A1;20
 11
0.0000000000000001
 21
1.0
 31
0.0
1001
ACAD
1000
MTEXTBEGIN
1070
    73
1070
     1
1070
    44
1040
1.0
1070
    74
1070
     0
1000
MTEXTEND
  0
POINT
  5
B84
330
786
100
AcDbEntity
  8
DEFPOINTS
 62
     0
100
AcDbPoint
 10
80.84595527606849
 20
234.45476627911
 30
0.0
  0
POINT
  5
B85
330
786
100
AcDbEntity
  8
DEFPOINTS
 62
     0
100
AcDbPoint
 10
80.84595527606849
 20
214.45476627911
 30
0.0
  0
POINT
  5
B86
330
786
100
AcDbEntity
  8
DEFPOINTS
 62
     0
100
AcDbPoint
 10
55.33414394223658
 20
214.45476627911
 30
0.0
  0
ENDBLK
  5
791
330
786
100
AcDbEntity
  8
0
100
AcDbBlockEnd
  0
ENDSEC
  0
SECTION
  2
ENTITIES
  0
LINE
  5
293
330
1A
100
AcDbEntity
  8
CENTER_L
  6
CENTER
 62
     1
 48
5.0
100
AcDbLine
 10
263.0840552760684
 20
224.45476627911
 30
0.0
 11
74.10785527606847
 21
224.45476627911
 31
0.0
  0
LINE
  5
294
330
1A
100
AcDbEntity
  8
SEIHIN
  6
CONTINUOUS
 62
     3
100
AcDbLine
 10
85.24585527606848
 20
230.95476627911
 30
0.0
 11
145.2988552760684
 21
230.95476627911
 31
0.0
  0
LINE
  5
295
330
1A
100
AcDbEntity
  8
SEIHIN
  6
CONTINUOUS
 62
     3
100
AcDbLine
 10
85.24585527606848
 20
217.95476627911
 30
0.0
 11
145.2988552760684
 21
217.95476627911
 31
0.0
  0
LINE
  5
296
330
1A
100
AcDbEntity
  8
SEIHIN
  6
CONTINUOUS
 62
     3
100
AcDbLine
 10
107.1731552760684
 20
99.28616627911006
 30
0.0
 11
175.8458552760684
 21
99.28616627911006
 31
0.0
  0
LINE
  5
297
330
1A
100
AcDbEntity
  8
SEIHIN
  6
CONTINUOUS
 62
     3
100
AcDbLine
 10
108.6458552760684
 20
104.78616627911
 30
0.0
 11
145.2988552760684
 21
104.78616627911
 31
0.0
  0
ARC
  5
299
330
1A
100
AcDbEntity
  8
SEIHIN
  6
CONTINUOUS
 62
     3
100
AcDbCircle
 10
82.24585527606848
 20
109.78616627911
 30
0.0
 40
1.400000000000005
100
AcDbArc
 50
180.0
 51
270.0
  0
LINE
  5
29A
330
1A
100
AcDbEntity
  8
SEIHIN
  6
CONTINUOUS
 62
     3
100
AcDbLine
 10
80.84585527606847
 20
114.28616627911
 30
0.0
 11
81.74585527606849
 21
114.28616627911
 31
0.0
  0
LINE
  5
2A1
330
1A
100
AcDbEntity
  8
SEIHIN
  6
CONTINUOUS
 62
     3
100
AcDbLine
 10
80.84585527606847
 20
114.28616627911
 30
0.0
 11
80.84585527606847
 21
109.78616627911
 31
0.0
  0
LINE
  5
2A3
330
1A
100
AcDbEntity
  8
SEIHIN
  6
CONTINUOUS
 62
     3
100
AcDbLine
 10
99.3730552760685
 20
103.78616627911
 30
0.0
 11
107.1731552760684
 21
99.28616627911006
 31
0.0
  0
LINE
  5
2A4
330
1A
100
AcDbEntity
  8
SEIHIN
  6
CONTINUOUS
 62
     3
100
AcDbLine
 10
100.8458552760684
 20
109.28616627911
 30
0.0
 11
108.6458552760684
 21
104.78616627911
 31
0.0
  0
LINE
  5
2A5
330
1A
100
AcDbEntity
  8
SEIHIN
  6
CONTINUOUS
 62
     3
100
AcDbLine
 10
81.74585527606849
 20
109.78616627911
 30
0.0
 11
81.74585527606849
 21
114.28616627911
 31
0.0
  0
ARC
  5
2A6
330
1A
100
AcDbEntity
  8
SEIHIN
  6
CONTINUOUS
 62
     3
100
AcDbCircle
 10
94.44585527606847
 20
108.38616627911
 30
0.0
 40
4.599999999999994
100
AcDbArc
 50
180.0
 51
270.0
  0
LINE
  5
2A7
330
1A
100
AcDbEntity
  8
SEIHIN
  6
CONTINUOUS
 62
     3
100
AcDbLine
 10
82.24585527606848
 20
109.28616627911
 30
0.0
 11
100.8458552760684
 21
109.28616627911
 31
0.0
  0
ARC
  5
2A8
330
1A
100
AcDbEntity
  8
SEIHIN
  6
CONTINUOUS
 62
     3
100
AcDbCircle
 10
88.34585527606847
 20
108.38616627911
 30
0.0
 40
1.5
100
AcDbArc
 50
180.0
 51
270.0
  0
LINE
  5
2A9
330
1A
100
AcDbEntity
  8
SEIHIN
  6
CONTINUOUS
 62
     3
100
AcDbLine
 10
82.24585527606848
 20
108.38616627911
 30
0.0
 11
89.91995527606846
 21
108.38616627911
 31
0.0
  0
ARC
  5
2AA
330
1A
100
AcDbEntity
  8
SEIHIN
  6
CONTINUOUS
 62
     3
100
AcDbCircle
 10
82.24585527606848
 20
109.78616627911
 30
0.0
 40
0.5
100
AcDbArc
 50
180.0
 51
270.0
  0
LINE
  5
2AB
330
1A
100
AcDbEntity
  8
SEIHIN
  6
CONTINUOUS
 62
     3
100
AcDbLine
 10
88.34585527606847
 20
106.88616627911
 30
0.0
 11
90.09725527606846
 21
106.88616627911
 31
0.0
  0
LINE
  5
2AC
330
1A
100
AcDbEntity
  8
SEIHIN
  6
CONTINUOUS
 62
     3
100
AcDbLine
 10
94.44585527606847
 20
103.78616627911
 30
0.0
 11
99.3730552760685
 21
103.78616627911
 31
0.0
  0
ARC
  5
2B1
330
1A
100
AcDbEntity
  8
SEIHIN
  6
CONTINUOUS
 62
     3
100
AcDbCircle
 10
85.24585527606848
 20
234.45476627911
 30
0.0
 40
3.5
100
AcDbArc
 50
180.0
 51
270.0
  0
ARC
  5
2B2
330
1A
100
AcDbEntity
  8
SEIHIN
  6
CONTINUOUS
 62
     3
100
AcDbCircle
 10
85.24585527606848
 20
214.45476627911
 30
0.0
 40
3.5
100
AcDbArc
 50
90.0
 51
180.0
  0
LINE
  5
2B3
330
1A
100
AcDbEntity
  8
SEIHIN
  6
CONTINUOUS
 62
     3
100
AcDbLine
 10
80.84595527606849
 20
234.45476627911
 30
0.0
 11
81.74585527606849
 21
234.45476627911
 31
0.0
  0
LINE
  5
2B4
330
1A
100
AcDbEntity
  8
SEIHIN
  6
CONTINUOUS
 62
     3
100
AcDbLine
 10
80.84595527606849
 20
214.45476627911
 30
0.0
 11
81.74585527606849
 21
214.45476627911
 31
0.0
  0
LINE
  5
2C1
330
1A
100
AcDbEntity
  8
SEIHIN
  6
CONTINUOUS
 62
     3
100
AcDbLine
 10
80.84595527606849
 20
214.45476627911
 30
0.0
 11
80.84595527606849
 21
224.45476627911
 31
0.0
  0
LINE
  5
2C4
330
1A
100
AcDbEntity
  8
SEIHIN
  6
CONTINUOUS
 62
     3
100
AcDbLine
 10
80.84595527606849
 20
234.45476627911
 30
0.0
 11
80.84595527606849
 21
224.45476627911
 31
0.0
  0
LINE
  5
2C5
330
1A
100
AcDbEntity
  8
SEIHIN
  6
CONTINUOUS
 62
     3
100
AcDbLine
 10
81.74585527606849
 20
214.45476627911
 30
0.0
 11
81.74585527606849
 21
224.45476627911
 31
0.0
  0
LINE
  5
2C6
330
1A
100
AcDbEntity
  8
SEIHIN
  6
CONTINUOUS
 62
     3
100
AcDbLine
 10
100.8458552760684
 20
217.95476627911
 30
0.0
 11
100.8458552760684
 21
224.45476627911
 31
0.0
  0
ARC
  5
2C7
330
1A
100
AcDbEntity
  8
SEIHIN
  6
CONTINUOUS
 62
     3
100
AcDbCircle
 10
91.09595527606847
 20
224.45476627911
 30
0.0
 40
1.75
100
AcDbArc
 50
0.0
 51
90.0
  0
ARC
  5
2C8
330
1A
100
AcDbEntity
  8
SEIHIN
  6
CONTINUOUS
 62
     3
100
AcDbCircle
 10
91.09595527606847
 20
224.45476627911
 30
0.0
 40
1.75
100
AcDbArc
 50
270.0
 51
0.0
  0
LINE
  5
2C9
330
1A
100
AcDbEntity
  8
SEIHIN
  6
CONTINUOUS
 62
     3
100
AcDbLine
 10
81.74585527606849
 20
234.45476627911
 30
0.0
 11
81.74585527606849
 21
224.45476627911
 31
0.0
  0
ARC
  5
2CA
330
1A
100
AcDbEntity
  8
SEIHIN
  6
CONTINUOUS
 62
     3
100
AcDbCircle
 10
88.59595527606847
 20
224.45476627911
 30
0.0
 40
1.75
100
AcDbArc
 50
90.0
 51
180.0
  0
ARC
  5
2CB
330
1A
100
AcDbEntity
  8
SEIHIN
  6
CONTINUOUS
 62
     3
100
AcDbCircle
 10
88.59595527606847
 20
224.45476627911
 30
0.0
 40
1.75
100
AcDbArc
 50
180.0
 51
270.0
  0
LINE
  5
2CC
330
1A
100
AcDbEntity
  8
SEIHIN
  6
CONTINUOUS
 62
     3
100
AcDbLine
 10
88.59595527606847
 20
226.20476627911
 30
0.0
 11
91.09595527606847
 21
226.20476627911
 31
0.0
  0
LINE
  5
2CD
330
1A
100
AcDbEntity
  8
SEIHIN
  6
CONTINUOUS
 62
     3
100
AcDbLine
 10
88.59595527606847
 20
222.70476627911
 30
0.0
 11
91.09595527606847
 21
222.70476627911
 31
0.0
  0
LINE
  5
2CE
330
1A
100
AcDbEntity
  8
SEIHIN
  6
CONTINUOUS
 62
     3
100
AcDbLine
 10
100.8458552760684
 20
230.95476627911
 30
0.0
 11
100.8458552760684
 21
224.45476627911
 31
0.0
  0
LINE
  5
2CF
330
1A
100
AcDbEntity
  8
SEIHIN
  6
CONTINUOUS
 62
     3
100
AcDbLine
 10
108.6458552760684
 20
217.95476627911
 30
0.0
 11
108.6458552760684
 21
224.45476627911
 31
0.0
  0
LINE
  5
2D0
330
1A
100
AcDbEntity
  8
SEIHIN
  6
CONTINUOUS
 62
     3
100
AcDbLine
 10
108.6458552760684
 20
230.95476627911
 30
0.0
 11
108.6458552760684
 21
224.45476627911
 31
0.0
  0
LINE
  5
2E5
330
1A
100
AcDbEntity
  8
SEIHIN
  6
CONTINUOUS
 62
     3
100
AcDbLine
 10
183.4853552760684
 20
120.28616627911
 30
0.0
 11
230.8458552760684
 21
120.28616627911
 31
0.0
  0
LINE
  5
2E6
330
1A
100
AcDbEntity
  8
SEIHIN
  6
CONTINUOUS
 62
     3
100
AcDbLine
 10
180.3099552760684
 20
125.78616627911
 30
0.0
 11
234.9917552760684
 21
125.78616627911
 31
0.0
  0
ARC
  5
2EA
330
1A
100
AcDbEntity
  8
SEIHIN
  6
CONTINUOUS
 62
     3
100
AcDbCircle
 10
180.3099552760684
 20
119.78616627911
 30
0.0
 40
6.000020601595926
100
AcDbArc
 50
90.0
 51
150.0002271632826
  0
ARC
  5
2EB
330
1A
100
AcDbEntity
  8
SEIHIN
  6
CONTINUOUS
 62
     3
100
AcDbCircle
 10
165.0101552760684
 20
106.28616627911
 30
0.0
 40
6.000020601595919
100
AcDbArc
 50
270.0
 51
330.0002271632824
  0
LINE
  5
2EC
330
1A
100
AcDbEntity
  8
SEIHIN
  6
CONTINUOUS
 62
     3
100
AcDbLine
 10
165.2988552760684
 20
105.78616627911
 30
0.0
 11
175.1137552760684
 21
122.78616627911
 31
0.0
  0
LINE
  5
2ED
330
1A
100
AcDbEntity
  8
SEIHIN
  6
CONTINUOUS
 62
     3
100
AcDbLine
 10
145.2988552760684
 20
103.28616627911
 30
0.0
 11
148.2988552760684
 21
100.28616627911
 31
0.0
  0
LINE
  5
2EE
330
1A
100
AcDbEntity
  8
SEIHIN
  6
CONTINUOUS
 62
     3
100
AcDbLine
 10
145.2988552760684
 20
105.78616627911
 30
0.0
 11
165.2988552760684
 21
105.78616627911
 31
0.0
  0
LINE
  5
2EF
330
1A
100
AcDbEntity
  8
SEIHIN
  6
CONTINUOUS
 62
     3
100
AcDbLine
 10
145.2988552760684
 20
103.28616627911
 30
0.0
 11
145.2988552760684
 21
105.78616627911
 31
0.0
  0
LINE
  5
2F4
330
1A
100
AcDbEntity
  8
SEIHIN
  6
CONTINUOUS
 62
     3
100
AcDbLine
 10
148.2988552760684
 20
100.28616627911
 30
0.0
 11
165.0101552760684
 21
100.28616627911
 31
0.0
  0
ARC
  5
2F5
330
1A
100
AcDbEntity
  8
SEIHIN
  6
CONTINUOUS
 62
     3
100
AcDbCircle
 10
191.3949552760684
 20
98.28616627911006
 30
0.0
 40
0.8999834015381409
100
AcDbArc
 50
209.9975448481888
 51
0.0
  0
ARC
  5
2F6
330
1A
100
AcDbEntity
  8
SEIHIN
  6
CONTINUOUS
 62
     3
100
AcDbCircle
 10
191.3949552760684
 20
98.28616627911006
 30
0.0
 40
1.500026801187791
100
AcDbArc
 50
209.9988179477394
 51
0.0
  0
LINE
  5
2F7
330
1A
100
AcDbEntity
  8
SEIHIN
  6
CONTINUOUS
 62
     3
100
AcDbLine
 10
190.0958552760684
 20
97.53616627911007
 30
0.0
 11
185.8458552760684
 21
104.89736627911
 31
0.0
  0
LINE
  5
2F8
330
1A
100
AcDbEntity
  8
SEIHIN
  6
CONTINUOUS
 62
     3
100
AcDbLine
 10
170.2063552760684
 20
103.28616627911
 30
0.0
 11
178.2892552760684
 21
117.28616627911
 31
0.0
  0
LINE
  5
2F9
330
1A
100
AcDbEntity
  8
SEIHIN
  6
CONTINUOUS
 62
     3
100
AcDbLine
 10
175.8458552760684
 20
99.28616627911006
 30
0.0
 11
181.2109552760684
 21
101.78926627911
 31
0.0
  0
LINE
  5
2FA
330
1A
100
AcDbEntity
  8
SEIHIN
  6
CONTINUOUS
 62
     3
100
AcDbLine
 10
180.7458552760684
 20
103.88616627911
 30
0.0
 11
179.8458552760684
 21
103.88616627911
 31
0.0
  0
LINE
  5
2FB
330
1A
100
AcDbEntity
  8
SEIHIN
  6
CONTINUOUS
 62
     3
100
AcDbLine
 10
179.8458552760684
 20
104.78616627911
 30
0.0
 11
179.8458552760684
 21
103.88616627911
 31
0.0
  0
LINE
  5
2FC
330
1A
100
AcDbEntity
  8
SEIHIN
  6
CONTINUOUS
 62
     3
100
AcDbLine
 10
171.0723552760684
 20
104.78616627911
 30
0.0
 11
179.8458552760684
 21
104.78616627911
 31
0.0
  0
LINE
  5
2FD
330
1A
100
AcDbEntity
  8
SEIHIN
  6
CONTINUOUS
 62
     3
100
AcDbLine
 10
186.3654552760684
 20
105.19746627911
 30
0.0
 11
190.6154552760684
 21
97.83616627911008
 31
0.0
  0
ARC
  5
2FE
330
1A
100
AcDbEntity
  8
SEIHIN
  6
CONTINUOUS
 62
     3
100
AcDbCircle
 10
180.7458552760684
 20
102.78616627911
 30
0.0
 40
1.100029003780697
100
AcDbArc
 50
295.0112297255593
 51
90.0
  0
LINE
  5
2FF
330
1A
100
AcDbEntity
  8
SEIHIN
  6
CONTINUOUS
 62
     3
100
AcDbLine
 10
186.3654552760684
 20
105.19736627911
 30
0.0
 11
185.8458552760684
 21
104.89736627911
 31
0.0
  0
ARC
  5
300
330
1A
100
AcDbEntity
  8
SEIHIN
  6
CONTINUOUS
 62
     3
100
AcDbCircle
 10
183.4853552760684
 20
114.28616627911
 30
0.0
 40
5.999977300330799
100
AcDbArc
 50
90.0
 51
149.9997496981193
  0
LINE
  5
301
330
1A
100
AcDbEntity
  8
SEIHIN
  6
CONTINUOUS
 62
     3
100
AcDbLine
 10
195.1749552760684
 20
103.46616627911
 30
0.0
 11
195.1749552760684
 21
120.28616627911
 31
0.0
  0
LINE
  5
302
330
1A
100
AcDbEntity
  8
SEIHIN
  6
CONTINUOUS
 62
     3
100
AcDbLine
 10
192.2948552760684
 20
98.28616627911006
 30
0.0
 11
192.2948552760684
 21
120.28616627911
 31
0.0
  0
LINE
  5
303
330
1A
100
AcDbEntity
  8
SEIHIN
  6
CONTINUOUS
 62
     3
100
AcDbLine
 10
195.5748552760685
 20
103.46616627911
 30
0.0
 11
195.5748552760685
 21
120.28616627911
 31
0.0
  0
ARC
  5
304
330
1A
100
AcDbEntity
  8
SEIHIN
  6
CONTINUOUS
 62
     3
100
AcDbCircle
 10
193.2948552760684
 20
100.21066627911
 30
0.0
 40
0.999978964557499
100
AcDbArc
 50
97.00206574617647
 51
180.0
  0
ARC
  5
305
330
1A
100
AcDbEntity
  8
SEIHIN
  6
CONTINUOUS
 62
     3
100
AcDbCircle
 10
192.8949552760684
 20
103.46616627911
 30
0.0
 40
2.280005811388714
100
AcDbArc
 50
277.0034554715109
 51
0.0
  0
ARC
  5
306
330
1A
100
AcDbEntity
  8
SEIHIN
  6
CONTINUOUS
 62
     3
100
AcDbCircle
 10
193.3949552760684
 20
100.32576627911
 30
0.0
 40
0.4999666877805739
100
AcDbArc
 50
99.05723202624512
 51
180.0
  0
ARC
  5
307
330
1A
100
AcDbEntity
  8
SEIHIN
  6
CONTINUOUS
 62
     3
100
AcDbCircle
 10
192.8949552760684
 20
103.46616627911
 30
0.0
 40
2.679960688390231
100
AcDbArc
 50
279.044425242652
 51
0.0
  0
LINE
  5
308
330
1A
100
AcDbEntity
  8
SEIHIN
  6
CONTINUOUS
 62
     3
100
AcDbLine
 10
192.8949552760684
 20
100.32576627911
 30
0.0
 11
192.8949552760684
 21
98.28616627911006
 31
0.0
  0
ARC
  5
310
330
1A
100
AcDbEntity
  8
SEIHIN
  6
CONTINUOUS
 62
     3
100
AcDbCircle
 10
234.9917552760684
 20
122.78616627911
 30
0.0
 40
2.999999120833058
100
AcDbArc
 50
26.56419706152524
 51
90.0
  0
LINE
  5
311
330
1A
100
AcDbEntity
  8
CENTER_L
  6
CENTER
 62
     1
 48
5.0
100
AcDbLine
 10
250.0733552760684
 20
86.56036627911007
 30
0.0
 11
258.2509552760684
 21
90.64916627911006
 31
0.0
  0
LINE
  5
312
330
1A
100
AcDbEntity
  8
SEIHIN
  6
CONTINUOUS
 62
     3
100
AcDbLine
 10
256.9704552760684
 20
83.30086627911006
 30
0.0
 11
257.8648552760684
 21
83.74806627911008
 31
0.0
  0
LINE
  5
313
330
1A
100
AcDbEntity
  8
SEIHIN
  6
CONTINUOUS
 62
     3
100
AcDbLine
 10
237.6750552760684
 20
124.12776627911
 30
0.0
 11
257.8648552760684
 21
83.74806627911008
 31
0.0
  0
LINE
  5
314
330
1A
100
AcDbEntity
  8
SEIHIN
  6
CONTINUOUS
 62
     3
100
AcDbLine
 10
240.4235552760685
 20
116.39466627911
 30
0.0
 11
256.9704552760684
 21
83.30086627911006
 31
0.0
  0
LINE
  5
315
330
1A
100
AcDbEntity
  8
SEIHIN
  6
CONTINUOUS
 62
     3
100
AcDbLine
 10
230.8458552760684
 20
120.28616627911
 30
0.0
 11
239.3055552760684
 21
120.86676627911
 31
0.0
  0
LINE
  5
316
330
1A
100
AcDbEntity
  8
SEIHIN
  6
CONTINUOUS
 62
     3
100
AcDbLine
 10
240.4235552760685
 20
116.39466627911
 30
0.0
 11
230.8458552760684
 21
120.28616627911
 31
0.0
  0
LINE
  5
317
330
1A
100
AcDbEntity
  8
CENTER_L
  6
CENTER
 62
     1
 48
5.0
100
AcDbLine
 10
238.7419552760685
 20
108.84556627911
 30
0.0
 11
247.4716552760684
 21
113.21046627911
 31
0.0
  0
LINE
  5
318
330
1A
100
AcDbEntity
  8
SEIHIN
  6
CONTINUOUS
 62
     3
100
AcDbLine
 10
236.9159552760684
 20
117.81986627911
 30
0.0
 11
243.7776552760684
 21
104.09626627911
 31
0.0
  0
ARC
  5
319
330
1A
100
AcDbEntity
  8
SEIHIN
  6
CONTINUOUS
 62
     3
100
AcDbCircle
 10
246.0137552760684
 20
105.21436627911
 30
0.0
 40
2.500035802643645
100
AcDbArc
 50
206.566076091295
 51
296.5640262445266
  0
LINE
  5
31A
330
1A
100
AcDbEntity
  8
SEIHIN
  6
CONTINUOUS
 62
     3
100
AcDbLine
 10
244.8957552760684
 20
107.45036627911
 30
0.0
 11
245.7901552760684
 21
107.89756627911
 31
0.0
  0
ARC
  5
31B
330
1A
100
AcDbEntity
  8
SEIHIN
  6
CONTINUOUS
 62
     3
100
AcDbCircle
 10
241.7428552760684
 20
113.75606627911
 30
0.0
 40
1.000014321397432
100
AcDbArc
 50
206.5624889831989
 51
296.5650511770764
  0
LINE
  5
31C
330
1A
100
AcDbEntity
  8
SEIHIN
  6
CONTINUOUS
 62
     3
100
AcDbLine
 10
240.4235552760685
 20
116.39466627911
 30
0.0
 11
241.3180552760684
 21
116.84186627911
 31
0.0
  0
LINE
  5
31D
330
1A
100
AcDbEntity
  8
SEIHIN
  6
CONTINUOUS
 62
     3
100
AcDbLine
 10
240.8484552760684
 20
113.30886627911
 30
0.0
 11
239.0204552760684
 21
116.96476627911
 31
0.0
  0
LINE
  5
334
330
1A
100
AcDbEntity
  8
SEIHIN
  6
CONTINUOUS
 62
     3
100
AcDbLine
 10
246.2373552760684
 20
228.45476627911
 30
0.0
 11
210.8458552760684
 21
228.45476627911
 31
0.0
  0
LINE
  5
335
330
1A
100
AcDbEntity
  8
SEIHIN
  6
CONTINUOUS
 62
     3
100
AcDbLine
 10
236.8458552760684
 20
239.45476627911
 30
0.0
 11
165.2988552760684
 21
232.20476627911
 31
0.0
  0
LINE
  5
336
330
1A
100
AcDbEntity
  8
SEIHIN
  6
CONTINUOUS
 62
     3
100
AcDbLine
 10
236.8458552760684
 20
228.45476627911
 30
0.0
 11
177.0328781330973
 21
228.45476627911
 31
0.0
  0
LINE
  5
337
330
1A
100
AcDbEntity
  8
SEIHIN
  6
CONTINUOUS
 62
     3
100
AcDbLine
 10
236.8458552760684
 20
209.45476627911
 30
0.0
 11
165.2988552760684
 21
216.70476627911
 31
0.0
  0
LINE
  5
338
330
1A
100
AcDbEntity
  8
SEIHIN
  6
CONTINUOUS
 62
     3
100
AcDbLine
 10
246.2373552760684
 20
220.45476627911
 30
0.0
 11
177.032858229062
 21
220.45476627911
 31
0.0
  0
LINE
  5
339
330
1A
100
AcDbEntity
  8
SEIHIN
  6
CONTINUOUS
 62
     3
100
AcDbLine
 10
145.2988552760684
 20
232.20476627911
 30
0.0
 11
165.2988552760684
 21
232.20476627911
 31
0.0
  0
LINE
  5
33A
330
1A
100
AcDbEntity
  8
SEIHIN
  6
CONTINUOUS
 62
     3
100
AcDbLine
 10
145.2988552760684
 20
216.70476627911
 30
0.0
 11
165.2988552760684
 21
216.70476627911
 31
0.0
  0
LINE
  5
33B
330
1A
100
AcDbEntity
  8
SEIHIN
  6
CONTINUOUS
 62
     3
100
AcDbLine
 10
145.2988552760684
 20
216.70476627911
 30
0.0
 11
145.2988552760684
 21
224.4548662791101
 31
0.0
  0
LINE
  5
33C
330
1A
100
AcDbEntity
  8
SEIHIN
  6
CONTINUOUS
 62
     3
100
AcDbLine
 10
145.2988552760684
 20
232.20486627911
 30
0.0
 11
145.2988552760684
 21
224.45466627911
 31
0.0
  0
LINE
  5
33D
330
1A
100
AcDbEntity
  8
SEIHIN
  6
CONTINUOUS
 62
     3
100
AcDbLine
 10
165.2988552760684
 20
216.70476627911
 30
0.0
 11
165.2988552760684
 21
224.45476627911
 31
0.0
  0
LINE
  5
33E
330
1A
100
AcDbEntity
  8
SEIHIN
  6
CONTINUOUS
 62
     3
100
AcDbLine
 10
165.2988552760684
 20
232.20476627911
 30
0.0
 11
165.2988552760684
 21
224.45476627911
 31
0.0
  0
ARC
  5
33F
330
1A
100
AcDbEntity
  8
SEIHIN
  6
CONTINUOUS
 62
     3
100
AcDbCircle
 10
174.8961552760684
 20
224.45496627911
 30
0.0
 40
4.449734426773668
100
AcDbArc
 50
302.7697311251006
 51
359.9974247351743
  0
ARC
  5
340
330
1A
100
AcDbEntity
  8
SEIHIN
  6
CONTINUOUS
 62
     3
100
AcDbCircle
 10
175.8458552760684
 20
224.45476627911
 30
0.0
 40
4.0
100
AcDbArc
 50
180.0
 51
270.0
  0
ARC
  5
341
330
1A
100
AcDbEntity
  8
SEIHIN
  6
CONTINUOUS
 62
     3
100
AcDbCircle
 10
177.8458552760684
 20
219.87256627911
 30
0.0
 40
0.9999605184411958
100
AcDbArc
 50
122.7682775533438
 51
180.0
  0
LINE
  5
342
330
1A
100
AcDbEntity
  8
SEIHIN
  6
CONTINUOUS
 62
     3
100
AcDbLine
 10
176.8458552760684
 20
216.40786627911
 30
0.0
 11
176.8458552760684
 21
219.87256627911
 31
0.0
  0
ARC
  5
343
330
1A
100
AcDbEntity
  8
SEIHIN
  6
CONTINUOUS
 62
     3
100
AcDbCircle
 10
177.8458552760684
 20
229.03706627911
 30
0.0
 40
1.00000256249344
100
AcDbArc
 50
180.0
 51
237.2348235232262
  0
ARC
  5
344
330
1A
100
AcDbEntity
  8
SEIHIN
  6
CONTINUOUS
 62
     3
100
AcDbCircle
 10
175.8458552760684
 20
224.45476627911
 30
0.0
 40
4.0
100
AcDbArc
 50
90.0
 51
180.0
  0
ARC
  5
345
330
1A
100
AcDbEntity
  8
SEIHIN
  6
CONTINUOUS
 62
     3
100
AcDbCircle
 10
174.8961552760684
 20
224.45466627911
 30
0.0
 40
4.44969238261943
100
AcDbArc
 50
0.0012876324131945
 51
57.22957192335162
  0
LINE
  5
346
330
1A
100
AcDbEntity
  8
SEIHIN
  6
CONTINUOUS
 62
     3
100
AcDbLine
 10
176.8458552760684
 20
232.50166627911
 30
0.0
 11
176.8458552760684
 21
229.03706627911
 31
0.0
  0
LINE
  5
348
330
1A
100
AcDbEntity
  8
SEIHIN
  6
CONTINUOUS
 62
     3
100
AcDbLine
 10
236.8458552760684
 20
229.03706627911
 30
0.0
 11
236.8458552760684
 21
238.26456627911
 31
0.0
  0
LINE
  5
350
330
1A
100
AcDbEntity
  8
SEIHIN
  6
CONTINUOUS
 62
     3
100
AcDbLine
 10
240.4235552760685
 20
201.95476627911
 30
0.0
 11
232.7869552760684
 21
208.88386627911
 31
0.0
  0
ARC
  5
354
330
1A
100
AcDbEntity
  8
SEIHIN
  6
CONTINUOUS
 62
     3
100
AcDbCircle
 10
238.7956552760684
 20
224.45466627911
 30
0.0
 40
4.449742382619502
100
AcDbArc
 50
122.7704280766493
 51
179.9987123965234
  0
ARC
  5
355
330
1A
100
AcDbEntity
  8
SEIHIN
  6
CONTINUOUS
 62
     3
100
AcDbCircle
 10
238.7956552760684
 20
224.45496627911
 30
0.0
 40
4.449784426773685
100
AcDbArc
 50
180.0025752069522
 51
237.230268874899
  0
ARC
  5
356
330
1A
100
AcDbEntity
  8
SEIHIN
  6
CONTINUOUS
 62
     3
100
AcDbCircle
 10
229.4271552760684
 20
205.18096627911
 30
0.0
 40
4.999974575434887
100
AcDbArc
 50
47.781194133176
 51
84.21358128327083
  0
LINE
  5
359
330
1A
100
AcDbEntity
  8
SEIHIN
  6
CONTINUOUS
 62
     3
100
AcDbLine
 10
236.8458552760684
 20
219.87256627911
 30
0.0
 11
236.8458552760684
 21
210.64506627911
 31
0.0
  0
LINE
  5
35C
330
1A
100
AcDbEntity
  8
SEIHIN
  6
CONTINUOUS
 62
     3
100
AcDbLine
 10
239.3056552760684
 20
209.45476627911
 30
0.0
 11
236.8458552760684
 21
209.45476627911
 31
0.0
  0
ARC
  5
35E
330
1A
100
AcDbEntity
  8
SEIHIN
  6
CONTINUOUS
 62
     3
100
AcDbCircle
 10
235.8458552760684
 20
219.87256627911
 30
0.0
 40
0.9999875823457951
100
AcDbArc
 50
0.0
 51
57.22690451742488
  0
ARC
  5
360
330
1A
100
AcDbEntity
  8
SEIHIN
  6
CONTINUOUS
 62
     3
100
AcDbCircle
 10
235.8458552760684
 20
229.03706627911
 30
0.0
 40
1.000029624122422
100
AcDbArc
 50
302.7699941687476
 51
0.0
  0
LINE
  5
36F
330
1A
100
AcDbEntity
  8
SEIHIN
  6
CONTINUOUS
 62
     3
100
AcDbLine
 10
240.4235552760685
 20
246.95476627911
 30
0.0
 11
232.5506552760685
 21
239.81136627911
 31
0.0
  0
ARC
  5
370
330
1A
100
AcDbEntity
  8
SEIHIN
  6
CONTINUOUS
 62
     3
100
AcDbCircle
 10
229.4271552760684
 20
243.72866627911
 30
0.0
 40
4.999969534906371
100
AcDbArc
 50
275.7852786323867
 51
312.2188058668236
  0
LINE
  5
376
330
1A
100
AcDbEntity
  8
SEIHIN
  6
CONTINUOUS
 62
     3
100
AcDbLine
 10
239.3056552760684
 20
239.45476627911
 30
0.0
 11
236.8458552760684
 21
239.45476627911
 31
0.0
  0
LINE
  5
413
330
1A
100
AcDbEntity
  8
NOKITOI
  6
PHANTOM
 62
     8
 48
5.0
100
AcDbLine
 10
101.8973552760686
 20
65.58216627911005
 30
0.0
 11
168.1279552760686
 21
65.58206627911019
 31
0.0
  0
LINE
  5
414
330
1A
100
AcDbEntity
  8
NOKITOI
  6
PHANTOM
 62
     8
 48
5.0
100
AcDbLine
 10
168.1279552760686
 20
65.58206627911019
 30
0.0
 11
101.8973552760686
 21
65.58216627911005
 31
0.0
  0
LINE
  5
415
330
1A
100
AcDbEntity
  8
NOKITOI
  6
PHANTOM
 62
     8
 48
5.0
100
AcDbLine
 10
107.2130552760686
 20
66.87556627911007
 30
0.0
 11
162.8122552760686
 21
66.87546627911004
 31
0.0
  0
LINE
  5
416
330
1A
100
AcDbEntity
  8
NOKITOI
  6
PHANTOM
 62
     8
 48
5.0
100
AcDbLine
 10
91.99575527606851
 20
78.70376627911006
 30
0.0
 11
86.06475527606859
 21
106.8736662791102
 31
0.0
  0
LINE
  5
417
330
1A
100
AcDbEntity
  8
NOKITOI
  6
PHANTOM
 62
     8
 48
5.0
100
AcDbLine
 10
90.8871552760686
 20
77.69086627911005
 30
0.0
 11
85.04855527606844
 21
105.4221662791102
 31
0.0
  0
LINE
  5
418
330
1A
100
AcDbEntity
  8
NOKITOI
  6
PHANTOM
 62
     8
 48
5.0
100
AcDbLine
 10
102.5722552760685
 20
66.88216627911007
 30
0.0
 11
105.2140552760685
 21
66.88216627911007
 31
0.0
  0
LINE
  5
419
330
1A
100
AcDbEntity
  8
NOKITOI
  6
PHANTOM
 62
     8
 48
5.0
100
AcDbLine
 10
105.3517552760685
 20
74.27186627911019
 30
0.0
 11
99.1308552760686
 21
74.27186627911019
 31
0.0
  0
LINE
  5
41A
330
1A
100
AcDbEntity
  8
NOKITOI
  6
PHANTOM
 62
     8
 48
5.0
100
AcDbLine
 10
107.0141552760686
 20
75.57186627911019
 30
0.0
 11
97.10345527606865
 21
75.57186627911019
 31
0.0
  0
ARC
  5
41B
330
1A
100
AcDbEntity
  8
NOKITOI
  6
PHANTOM
 62
     8
 48
5.0
100
AcDbCircle
 10
88.12712911485949
 20
64.47582616962617
 30
0.0
 40
14.22848866365036
100
AcDbArc
 50
51.52529185494234
 51
71.45345265407101
  0
ARC
  5
41C
330
1A
100
AcDbEntity
  8
NOKITOI
  6
PHANTOM
 62
     8
 48
5.0
100
AcDbCircle
 10
88.12706234585538
 20
64.47585830621637
 30
0.0
 40
12.93471022655885
100
AcDbArc
 50
8.676219579622188
 51
74.45245455808934
  0
ARC
  5
41D
330
1A
100
AcDbEntity
  8
NOKITOI
  6
PHANTOM
 62
     8
 48
5.0
100
AcDbCircle
 10
88.12706047308187
 20
64.47585566334206
 30
0.0
 40
14.23472333170272
100
AcDbArc
 50
11.37541821407346
 51
40.79334907830746
  0
ARC
  5
41E
330
1A
100
AcDbEntity
  8
NOKITOI
  6
PHANTOM
 62
     8
 48
5.0
100
AcDbCircle
 10
102.5723322349403
 20
67.3821851433984
 30
0.0
 40
0.5000188648192144
100
AcDbArc
 50
191.386728855441
 51
270.0026402191986
  0
ARC
  5
41F
330
1A
100
AcDbEntity
  8
NOKITOI
  6
PHANTOM
 62
     8
 48
5.0
100
AcDbCircle
 10
101.8973628900862
 20
66.57715973886616
 30
0.0
 40
0.9949934597852239
100
AcDbArc
 50
188.6761125650602
 51
269.9995615538234
  0
ARC
  5
420
330
1A
100
AcDbEntity
  8
NOKITOI
  6
PHANTOM
 62
     8
 48
5.0
100
AcDbCircle
 10
99.13085893537175
 20
73.97187427098976
 30
0.0
 40
0.2999920081427447
100
AcDbArc
 50
90.00069889403132
 51
220.79672841758
  0
ARC
  5
421
330
1A
100
AcDbEntity
  8
NOKITOI
  6
PHANTOM
 62
     8
 48
5.0
100
AcDbCircle
 10
97.10345858842766
 20
75.77086512332474
 30
0.0
 40
0.1989988442421132
100
AcDbArc
 50
231.5280949042407
 51
269.9990463050553
  0
ARC
  5
422
330
1A
100
AcDbEntity
  8
NOKITOI
  6
PHANTOM
 62
     8
 48
5.0
100
AcDbCircle
 10
92.96937515783998
 20
78.90874394203009
 30
0.0
 40
0.995060928010462
100
AcDbArc
 50
191.8877567214143
 51
251.4524867922937
  0
ARC
  5
423
330
1A
100
AcDbEntity
  8
NOKITOI
  6
PHANTOM
 62
     8
 48
5.0
100
AcDbCircle
 10
91.86079530045606
 20
77.89582361488425
 30
0.0
 40
0.9949785960395137
100
AcDbArc
 50
191.8875585738772
 51
254.4495841050101
  0
LINE
  5
424
330
1A
100
AcDbEntity
  8
NOKITOI
  6
PHANTOM
 62
     8
 48
5.0
100
AcDbLine
 10
107.0140552760685
 20
67.0745662791102
 30
0.0
 11
107.0141552760686
 21
75.57186627911019
 31
0.0
  0
LINE
  5
425
330
1A
100
AcDbEntity
  8
NOKITOI
  6
PHANTOM
 62
     8
 48
5.0
100
AcDbLine
 10
105.7140552760685
 20
67.38216627911018
 30
0.0
 11
105.7140552760685
 21
73.9094662791102
 31
0.0
  0
ARC
  5
426
330
1A
100
AcDbEntity
  8
NOKITOI
  6
PHANTOM
 62
     8
 48
5.0
100
AcDbCircle
 10
105.2140552760683
 20
67.38216627911012
 30
0.0
 40
0.5000000000000569
100
AcDbArc
 50
270.0000000000065
 51
0.0000000000065138
  0
ARC
  5
427
330
1A
100
AcDbEntity
  8
NOKITOI
  6
PHANTOM
 62
     8
 48
5.0
100
AcDbCircle
 10
107.2130552760686
 20
67.07456627911014
 30
0.0
 40
0.1990000000000691
100
AcDbArc
 50
179.9999999999837
 51
269.9999999999837
  0
LINE
  5
428
330
1A
100
AcDbEntity
  8
NOKITOI
  6
PHANTOM
 62
     8
 48
5.0
100
AcDbLine
 10
106.2090552760685
 20
74.76676627911004
 30
0.0
 11
105.3517552760685
 21
74.27186627911019
 31
0.0
  0
LINE
  5
429
330
1A
100
AcDbEntity
  8
NOKITOI
  6
PHANTOM
 62
     8
 48
5.0
100
AcDbLine
 10
106.2090552760685
 20
74.76676627911004
 30
0.0
 11
105.7140552760685
 21
73.9094662791102
 31
0.0
  0
LINE
  5
42A
330
1A
100
AcDbEntity
  8
NOKITOI
  6
PHANTOM
 62
     8
 48
5.0
100
AcDbLine
 10
82.93835527606859
 20
110.3798662791101
 30
0.0
 11
82.93835527606859
 21
112.7937662791101
 31
0.0
  0
LINE
  5
42B
330
1A
100
AcDbEntity
  8
NOKITOI
  6
PHANTOM
 62
     8
 48
5.0
100
AcDbLine
 10
79.30415527606851
 20
112.7937662791101
 30
0.0
 11
79.30415527606851
 21
108.8635662791101
 31
0.0
  0
LINE
  5
42C
330
1A
100
AcDbEntity
  8
NOKITOI
  6
PHANTOM
 62
     8
 48
5.0
100
AcDbLine
 10
84.23175527606849
 20
114.58466627911
 30
0.0
 11
84.23175527606849
 21
110.3798662791101
 31
0.0
  0
LINE
  5
42D
330
1A
100
AcDbEntity
  8
NOKITOI
  6
PHANTOM
 62
     8
 48
5.0
100
AcDbLine
 10
78.01065527606863
 20
106.57516627911
 30
0.0
 11
78.01065527606863
 21
114.58466627911
 31
0.0
  0
LINE
  5
42E
330
1A
100
AcDbEntity
  8
NOKITOI
  6
PHANTOM
 62
     8
 48
5.0
100
AcDbLine
 10
84.85385527606865
 20
105.58016627911
 30
0.0
 11
79.00565527606864
 21
105.58016627911
 31
0.0
  0
ARC
  5
42F
330
1A
100
AcDbEntity
  8
NOKITOI
  6
PHANTOM
 62
     8
 48
5.0
100
AcDbCircle
 10
81.29410527606854
 20
108.8636162791102
 30
0.0
 40
1.989950000628206
100
AcDbArc
 50
180.0014396286237
 51
270.0014396286237
  0
ARC
  5
430
330
1A
100
AcDbEntity
  8
NOKITOI
  6
PHANTOM
 62
     8
 48
5.0
100
AcDbCircle
 10
79.00565527606864
 20
106.57516627911
 30
0.0
 40
0.9950000000000045
100
AcDbArc
 50
180.0
 51
270.0
  0
LINE
  5
431
330
1A
100
AcDbEntity
  8
NOKITOI
  6
PHANTOM
 62
     8
 48
5.0
100
AcDbLine
 10
84.23175527606849
 20
110.3798662791101
 30
0.0
 11
82.93835527606859
 21
110.3798662791101
 31
0.0
  0
LINE
  5
432
330
1A
100
AcDbEntity
  8
NOKITOI
  6
PHANTOM
 62
     8
 48
5.0
100
AcDbLine
 10
81.29415527606864
 20
106.8736662791102
 30
0.0
 11
86.06475527606859
 21
106.8736662791102
 31
0.0
  0
ARC
  5
433
330
1A
100
AcDbEntity
  8
NOKITOI
  6
PHANTOM
 62
     8
 48
5.0
100
AcDbCircle
 10
84.85383683345435
 20
105.3811812425469
 30
0.0
 40
0.1989850374177657
100
AcDbArc
 50
11.88631382809341
 51
89.9946896310657
  0
LINE
  5
434
330
1A
100
AcDbEntity
  8
NOKITOI
  6
PHANTOM
 62
     8
 48
5.0
100
AcDbLine
 10
79.00565527606864
 20
115.5796662791101
 30
0.0
 11
83.23685527606858
 21
115.5796662791101
 31
0.0
  0
ARC
  5
435
330
1A
100
AcDbEntity
  8
NOKITOI
  6
PHANTOM
 62
     8
 48
5.0
100
AcDbCircle
 10
80.79660527606847
 20
112.79371627911
 30
0.0
 40
1.49245000083754
100
AcDbArc
 50
89.99808047909004
 51
179.99808047909
  0
ARC
  5
436
330
1A
100
AcDbEntity
  8
NOKITOI
  6
PHANTOM
 62
     8
 48
5.0
100
AcDbCircle
 10
79.00565527606864
 20
114.5846662791101
 30
0.0
 40
0.9950000000000613
100
AcDbArc
 50
90.00000000000325
 51
180.0000000000032
  0
ARC
  5
437
330
1A
100
AcDbEntity
  8
NOKITOI
  6
PHANTOM
 62
     8
 48
5.0
100
AcDbCircle
 10
83.23680527606848
 20
114.5847162791101
 30
0.0
 40
0.9949500012563332
100
AcDbArc
 50
359.9971206704047
 51
89.99712067040476
  0
ARC
  5
438
330
1A
100
AcDbEntity
  8
NOKITOI
  6
PHANTOM
 62
     8
 48
5.0
100
AcDbCircle
 10
81.44585527606853
 20
112.7937662791101
 30
0.0
 40
1.492399999999918
100
AcDbArc
 50
0.0000000000024427
 51
90.00000000000245
  0
LINE
  5
439
330
1A
100
AcDbEntity
  8
NOKITOI
  6
PHANTOM
 62
     8
 48
5.0
100
AcDbLine
 10
81.44585527606853
 20
114.28616627911
 30
0.0
 11
80.79665527606858
 21
114.28616627911
 31
0.0
  0
LINE
  5
43A
330
1A
100
AcDbEntity
  8
NOKITOI
  6
PHANTOM
 62
     8
 48
5.0
100
AcDbLine
 10
179.1382552760686
 20
77.69066627911005
 30
0.0
 11
184.9769552760684
 21
105.42206627911
 31
0.0
  0
LINE
  5
43B
330
1A
100
AcDbEntity
  8
NOKITOI
  6
PHANTOM
 62
     8
 48
5.0
100
AcDbLine
 10
178.0295552760686
 20
78.7031662791102
 30
0.0
 11
183.4845552760684
 21
104.61206627911
 31
0.0
  0
ARC
  5
43C
330
1A
100
AcDbEntity
  8
NOKITOI
  6
PHANTOM
 62
     8
 48
5.0
100
AcDbCircle
 10
181.8981441197477
 20
64.47585369763601
 30
0.0
 40
12.93449408578155
100
AcDbArc
 50
105.5473332353541
 51
171.3240617643019
  0
ARC
  5
43D
330
1A
100
AcDbEntity
  8
NOKITOI
  6
PHANTOM
 62
     8
 48
5.0
100
AcDbCircle
 10
181.8982497426567
 20
64.47576003884475
 30
0.0
 40
12.93461262833301
100
AcDbArc
 50
105.5476727870197
 51
171.3237222126367
  0
ARC
  5
43E
330
1A
100
AcDbEntity
  8
NOKITOI
  6
PHANTOM
 62
     8
 48
5.0
100
AcDbCircle
 10
181.8982137307593
 20
64.47568141455383
 30
0.0
 40
14.23462403148678
100
AcDbArc
 50
139.2075062369003
 51
168.623785948384
  0
LINE
  5
43F
330
1A
100
AcDbEntity
  8
NOKITOI
  6
PHANTOM
 62
     8
 48
5.0
100
AcDbLine
 10
170.8942552760684
 20
74.27146627911006
 30
0.0
 11
164.6736552760686
 21
74.27146627911006
 31
0.0
  0
LINE
  5
440
330
1A
100
AcDbEntity
  8
NOKITOI
  6
PHANTOM
 62
     8
 48
5.0
100
AcDbLine
 10
163.0113552760684
 20
75.57156627911004
 30
0.0
 11
172.9918552760684
 21
75.57146627911018
 31
0.0
  0
LINE
  5
441
330
1A
100
AcDbEntity
  8
NOKITOI
  6
PHANTOM
 62
     8
 48
5.0
100
AcDbLine
 10
158.8122552760686
 20
66.87546627911004
 30
0.0
 11
144.0578552760684
 21
66.87546627911004
 31
0.0
  0
LINE
  5
442
330
1A
100
AcDbEntity
  8
NOKITOI
  6
PHANTOM
 62
     8
 48
5.0
100
AcDbLine
 10
163.0112552760685
 20
67.0745662791102
 30
0.0
 11
163.0113552760684
 21
75.57156627911004
 31
0.0
  0
LINE
  5
443
330
1A
100
AcDbEntity
  8
NOKITOI
  6
PHANTOM
 62
     8
 48
5.0
100
AcDbLine
 10
164.3113552760686
 20
73.90916627911005
 30
0.0
 11
164.3113552760686
 21
67.38206627911009
 31
0.0
  0
LINE
  5
444
330
1A
100
AcDbEntity
  8
NOKITOI
  6
PHANTOM
 62
     8
 48
5.0
100
AcDbLine
 10
167.4530552760686
 20
66.88206627911021
 30
0.0
 11
164.8113552760686
 21
66.88206627911021
 31
0.0
  0
ARC
  5
445
330
1A
100
AcDbEntity
  8
NOKITOI
  6
PHANTOM
 62
     8
 48
5.0
100
AcDbCircle
 10
164.8113552760685
 20
67.38206627911015
 30
0.0
 40
0.4999999999999432
100
AcDbArc
 50
180.0000000000065
 51
270.0000000000065
  0
ARC
  5
446
330
1A
100
AcDbEntity
  8
NOKITOI
  6
PHANTOM
 62
     8
 48
5.0
100
AcDbCircle
 10
162.8122052760685
 20
67.07451627911012
 30
0.0
 40
0.1990500062799141
100
AcDbArc
 50
270.0143923080609
 51
0.0143923080609163
  0
ARC
  5
447
330
1A
100
AcDbEntity
  8
NOKITOI
  6
PHANTOM
 62
     8
 48
5.0
100
AcDbCircle
 10
167.4530783171968
 20
67.3820851433984
 30
0.0
 40
0.5000188648190603
100
AcDbArc
 50
269.9973597808037
 51
348.6132711445605
  0
ARC
  5
448
330
1A
100
AcDbEntity
  8
NOKITOI
  6
PHANTOM
 62
     8
 48
5.0
100
AcDbCircle
 10
168.1280052041645
 20
66.57710916670879
 30
0.0
 40
0.9950428888512103
100
AcDbArc
 50
269.9971250795227
 51
351.3214426795066
  0
LINE
  5
449
330
1A
100
AcDbEntity
  8
NOKITOI
  6
PHANTOM
 62
     8
 48
5.0
100
AcDbLine
 10
163.8163552760684
 20
74.76646627911006
 30
0.0
 11
164.6736552760686
 21
74.27146627911006
 31
0.0
  0
LINE
  5
44A
330
1A
100
AcDbEntity
  8
NOKITOI
  6
PHANTOM
 62
     8
 48
5.0
100
AcDbLine
 10
163.8163552760684
 20
74.76646627911006
 30
0.0
 11
164.3113552760686
 21
73.90916627911005
 31
0.0
  0
ARC
  5
44B
330
1A
100
AcDbEntity
  8
NOKITOI
  6
PHANTOM
 62
     8
 48
5.0
100
AcDbCircle
 10
181.8982697796171
 20
64.47577420329858
 30
0.0
 40
14.22809199964113
100
AcDbArc
 50
108.5474584936553
 51
128.7537062451649
  0
ARC
  5
44C
330
1A
100
AcDbEntity
  8
NOKITOI
  6
PHANTOM
 62
     8
 48
5.0
100
AcDbCircle
 10
170.8942689539199
 20
73.97143641541624
 30
0.0
 40
0.3000298640056128
100
AcDbArc
 50
319.2190584222774
 51
90.00261201719977
  0
ARC
  5
44D
330
1A
100
AcDbEntity
  8
NOKITOI
  6
PHANTOM
 62
     8
 48
5.0
100
AcDbCircle
 10
177.0559988456196
 20
78.90821523087905
 30
0.0
 40
0.9950135261271753
100
AcDbArc
 50
288.5445751594485
 51
348.1074736523477
  0
ARC
  5
44E
330
1A
100
AcDbEntity
  8
NOKITOI
  6
PHANTOM
 62
     8
 48
5.0
100
AcDbCircle
 10
178.1646296129207
 20
77.8957455304976
 30
0.0
 40
0.9949690575286499
100
AcDbArc
 50
285.5437330810334
 51
348.1110361155299
  0
LINE
  5
44F
330
1A
100
AcDbEntity
  8
NOKITOI
  6
PHANTOM
 62
     8
 48
5.0
100
AcDbLine
 10
191.0198552760686
 20
115.5795662791101
 30
0.0
 11
185.8161552760685
 21
115.57946627911
 31
0.0
  0
LINE
  5
450
330
1A
100
AcDbEntity
  8
NOKITOI
  6
PHANTOM
 62
     8
 48
5.0
100
AcDbLine
 10
185.1716552760684
 20
105.5799662791102
 30
0.0
 11
191.0198552760686
 21
105.5799662791102
 31
0.0
  0
LINE
  5
451
330
1A
100
AcDbEntity
  8
NOKITOI
  6
PHANTOM
 62
     8
 48
5.0
100
AcDbLine
 10
190.7148552760686
 20
106.87996627911
 30
0.0
 11
185.2905552760686
 21
106.88006627911
 31
0.0
  0
LINE
  5
452
330
1A
100
AcDbEntity
  8
NOKITOI
  6
PHANTOM
 62
     8
 48
5.0
100
AcDbLine
 10
186.8484552760684
 20
114.2794662791102
 30
0.0
 11
185.2905552760686
 21
106.88006627911
 31
0.0
  0
LINE
  5
453
330
1A
100
AcDbEntity
  8
NOKITOI
  6
PHANTOM
 62
     8
 48
5.0
100
AcDbLine
 10
183.4845552760684
 20
104.61206627911
 30
0.0
 11
185.7936552760684
 21
115.57946627911
 31
0.0
  0
ARC
  5
454
330
1A
100
AcDbEntity
  8
NOKITOI
  6
PHANTOM
 62
     8
 48
5.0
100
AcDbCircle
 10
185.1716737186827
 20
105.3810812425468
 30
0.0
 40
0.1989850374179911
100
AcDbArc
 50
90.00531036897097
 51
168.1136861719431
  0
LINE
  5
455
330
1A
100
AcDbEntity
  8
NOKITOI
  6
PHANTOM
 62
     8
 48
5.0
100
AcDbLine
 10
190.7148552760686
 20
106.87996627911
 30
0.0
 11
190.7148552760686
 21
114.2794662791102
 31
0.0
  0
LINE
  5
456
330
1A
100
AcDbEntity
  8
NOKITOI
  6
PHANTOM
 62
     8
 48
5.0
100
AcDbLine
 10
192.0148552760686
 20
106.57496627911
 30
0.0
 11
192.0148552760686
 21
114.58456627911
 31
0.0
  0
ARC
  5
457
330
1A
100
AcDbEntity
  8
NOKITOI
  6
PHANTOM
 62
     8
 48
5.0
100
AcDbCircle
 10
191.0198552760687
 20
106.5749662791101
 30
0.0
 40
0.9949999999999192
100
AcDbArc
 50
269.9999999999951
 51
359.9999999999951
  0
LINE
  5
458
330
1A
100
AcDbEntity
  8
NOKITOI
  6
PHANTOM
 62
     8
 48
5.0
100
AcDbLine
 10
190.7148552760686
 20
114.2794662791102
 30
0.0
 11
186.8484552760684
 21
114.2794662791102
 31
0.0
  0
ARC
  5
459
330
1A
100
AcDbEntity
  8
NOKITOI
  6
PHANTOM
 62
     8
 48
5.0
100
AcDbCircle
 10
191.0198552760686
 20
114.5845662791101
 30
0.0
 40
0.9950000000000613
100
AcDbArc
 50
359.9999999999967
 51
89.99999999999674
  0
DIMENSION
  5
558
330
1A
100
AcDbEntity
  8
SUNPOU
100
AcDbDimension
  2
*D1
 10
304.9828840161805
 20
107.3068913937217
 30
0.0
 11
296.7094337829488
 21
129.4439651226354
 31
0.0
 70
    33
  3
STANDARD
100
AcDbAlignedDimension
 13
326.2814530969281
 23
170.5037706374397
 33
0.0
 14
347.3004896596124
 24
128.4656908746696
 34
0.0
1001
ACAD
1000
DSTYLE
1002
{
1070
    41
1040
3.0
1070
    42
1040
3.0
1070
    43
1040
7.0
1070
    44
1040
1.5
1070
    73
1070
     0
1070
    74
1070
     0
1070
    77
1070
     3
1070
   140
1040
3.0
1070
   141
1040
150.0
1070
   147
1040
1.0
1070
   172
1070
     1
1070
   173
1070
     1
1070
   176
1070
     4
1070
   177
1070
     4
1070
   178
1070
     4
1070
   271
1070
     0
1070
   272
1070
     2
1070
   341
1005
B2
1070
     6
1000
OPEN
1070
     7
1000
OPEN
1002
}
  0
ARC
  5
559
330
1A
100
AcDbEntity
  8
SEIHIN
  6
CONTINUOUS
 62
     3
100
AcDbCircle
 10
342.8283530969281
 20
137.4099706374397
 30
0.0
 40
10.00000729549718
100
AcDbArc
 50
296.5647949427931
 51
354.407078474489
  0
LINE
  5
55A
330
1A
100
AcDbEntity
  8
SEIHIN
  6
CONTINUOUS
 62
     3
100
AcDbLine
 10
315.1010530969281
 20
142.5529706374397
 30
0.0
 11
337.6364530969281
 21
128.8633706374397
 31
0.0
  0
LINE
  5
55B
330
1A
100
AcDbEntity
  8
CENTER_L
  6
CENTER
 62
     1
 48
5.0
100
AcDbLine
 10
348.917553096928
 20
125.2315706374397
 30
0.0
 11
324.5546530969281
 21
173.9572706374397
 31
0.0
  0
DIMENSION
  5
55C
330
1A
100
AcDbEntity
  8
SUNPOU
100
AcDbDimension
  2
*D2
 10
326.9373969282881
 20
118.2841420983674
 30
0.0
 11
327.8318148148371
 21
122.0854762690209
 31
0.0
 70
    33
  3
STANDARD
100
AcDbAlignedDimension
 13
344.6171530969281
 23
133.8322706374397
 33
0.0
 14
347.3004532788305
 24
128.465670273631
 34
0.0
1001
ACAD
1000
DSTYLE
1002
{
1070
    41
1040
3.0
1070
    42
1040
3.0
1070
    43
1040
7.0
1070
    44
1040
1.5
1070
    73
1070
     0
1070
    74
1070
     0
1070
    77
1070
     3
1070
   140
1040
3.0
1070
   141
1040
150.0
1070
   147
1040
1.0
1070
   172
1070
     1
1070
   173
1070
     1
1070
   176
1070
     4
1070
   177
1070
     4
1070
   178
1070
     4
1070
   271
1070
     0
1070
   272
1070
     2
1070
   341
1005
B2
1070
     6
1000
OPEN
1070
     7
1000
OPEN
1002
}
  0
LINE
  5
55D
330
1A
100
AcDbEntity
  8
CENTER_L
  6
CENTER
 62
     1
 48
5.0
100
AcDbLine
 10
348.5708530969281
 20
135.8090706374397
 30
0.0
 11
344.6171530969281
 21
133.8322706374397
 31
0.0
  0
CIRCLE
  5
55E
330
1A
100
AcDbEntity
  8
SEIHIN
  6
CONTINUOUS
 62
     3
100
AcDbCircle
 10
344.6171530969281
 20
133.8322706374397
 30
0.0
 40
2.049999999999954
  0
ARC
  5
55F
330
1A
100
AcDbEntity
  8
SEIHIN
  6
CONTINUOUS
 62
     3
100
AcDbCircle
 10
342.8283530969281
 20
137.4099706374397
 30
0.0
 40
10.00000945174554
100
AcDbArc
 50
238.7221003441709
 51
296.5647949427931
  0
LINE
  5
560
330
1A
100
AcDbEntity
  8
CENTER_L
  6
CENTER
 62
     1
 48
5.0
100
AcDbLine
 10
340.2224530969281
 20
131.6348706374397
 30
0.0
 11
344.6171530969281
 21
133.8322706374397
 31
0.0
  0
DIMENSION
  5
561
330
1A
100
AcDbEntity
  8
SUNPOU
100
AcDbDimension
  2
*D3
 10
332.9510119375634
 20
207.4764420373991
 30
0.0
 11
311.7083301710331
 21
199.6502111260073
 31
0.0
 70
    33
  3
STANDARD
100
AcDbAlignedDimension
 13
310.6289530969281
 23
151.4972706374397
 33
0.0
 14
350.8782530969281
 24
171.6218706374397
 34
0.0
1001
ACAD
1000
DSTYLE
1002
{
1070
    41
1040
3.0
1070
    42
1040
3.0
1070
    43
1040
7.0
1070
    44
1040
1.5
1070
    73
1070
     0
1070
    74
1070
     0
1070
    77
1070
     3
1070
   140
1040
3.0
1070
   141
1040
150.0
1070
   147
1040
1.0
1070
   172
1070
     1
1070
   173
1070
     1
1070
   176
1070
     4
1070
   177
1070
     4
1070
   178
1070
     4
1070
   271
1070
     0
1070
   272
1070
     2
1070
   341
1005
B2
1070
     6
1000
OPEN
1070
     7
1000
OPEN
1002
}
  0
DIMENSION
  5
562
330
1A
100
AcDbEntity
  8
SUNPOU
100
AcDbDimension
  2
*D4
 10
330.9224780755099
 20
198.1172323779999
 30
0.0
 11
315.0463501473574
 21
192.974303385788
 31
0.0
 70
    33
  3
STANDARD
100
AcDbAlignedDimension
 13
317.0274530969281
 23
152.1166706374397
 33
0.0
 14
346.5436530969281
 24
166.8746706374397
 34
0.0
1001
ACAD
1000
DSTYLE
1002
{
1070
    41
1040
3.0
1070
    42
1040
3.0
1070
    43
1040
7.0
1070
    44
1040
1.5
1070
    73
1070
     0
1070
    74
1070
     0
1070
    77
1070
     3
1070
   140
1040
3.0
1070
   141
1040
150.0
1070
   147
1040
1.0
1070
   172
1070
     1
1070
   173
1070
     1
1070
   176
1070
     4
1070
   177
1070
     4
1070
   178
1070
     4
1070
   271
1070
     0
1070
   272
1070
     2
1070
   341
1005
B2
1070
     6
1000
OPEN
1070
     7
1000
OPEN
1002
}
  0
LINE
  5
563
330
1A
100
AcDbEntity
  8
CENTER_L
  6
CENTER
 62
     1
 48
5.0
100
AcDbLine
 10
352.0314530969281
 20
165.4901706374397
 30
0.0
 11
343.8118530969281
 21
161.3804706374397
 31
0.0
  0
LINE
  5
564
330
1A
100
AcDbEntity
  8
SEIHIN
  6
CONTINUOUS
 62
     3
100
AcDbLine
 10
350.8782530969281
 20
171.6218706374397
 30
0.0
 11
342.1575530969281
 21
172.2926706374397
 31
0.0
  0
MTEXT
  5
565
330
1A
100
AcDbEntity
  8
SUNPOU
 62
     4
100
AcDbMText
 10
288.1994221803013
 20
170.2470809792419
 30
0.0
 40
3.0
 41
0.0
 71
     9
 72
     5
  1
\A1;3-φ4.2
1001
ACAD
1000
MTEXTBEGIN
1070
    73
1070
     1
1070
    44
1040
1.0
1070
    74
1070
     0
1000
MTEXTEND
1000
MTEXTBEGIN
1070
    73
1070
     1
1070
    44
1040
1.0
1070
    74
1070
     0
1000
MTEXTEND
1000
MTEXTBEGIN
1070
    73
1070
     1
1070
    44
1040
1.0
1070
    74
1070
     0
1000
MTEXTEND
  0
LEADER
  5
566
330
1A
100
AcDbEntity
  8
SUNPOU
100
AcDbLeader
  3
STANDARD
 40
3.0
 41
15.59999999999999
 76
     3
 10
317.201199269237
 20
149.8360560073365
 30
0.0
 10
289.8757844616166
 20
169.3385543407649
 30
0.0
 10
271.3491589466603
 20
169.3385543407649
 30
0.0
213
0.0
223
1.5
233
0.0
1001
ACAD
1000
DSTYLE
1002
{
1070
     6
1000
OPEN
1070
    41
1040
3.0
1070
    42
1040
3.0
1070
    43
1040
7.0
1070
    44
1040
1.5
1070
    73
1070
     0
1070
    74
1070
     0
1070
    77
1070
     0
1070
   140
1040
3.0
1070
   141
1040
150.0
1070
   147
1040
1.0
1070
   172
1070
     1
1070
   173
1070
     1
1070
   176
1070
     4
1070
   177
1070
     4
1070
   178
1070
     4
1070
   271
1070
     0
1070
   272
1070
     2
1070
   341
1005
B2
1070
   343
1005
B2
1070
   344
1005
B2
1002
}
  0
DIMENSION
  5
567
330
1A
100
AcDbEntity
  8
SUNPOU
100
AcDbDimension
  2
*D5
 10
333.073500939865
 20
190.460638498743
 30
0.0
 11
318.5390668098891
 21
185.9885069352099
 31
0.0
 70
    33
  3
STANDARD
100
AcDbAlignedDimension
 13
312.8650376737576
 23
163.7955639850147
 33
0.0
 14
339.6978380974313
 24
177.2119631376912
 34
0.0
1001
ACAD
1000
DSTYLE
1002
{
1070
    41
1040
3.0
1070
    42
1040
3.0
1070
    43
1040
7.0
1070
    44
1040
1.5
1070
    73
1070
     0
1070
    74
1070
     0
1070
    77
1070
     3
1070
   140
1040
3.0
1070
   141
1040
150.0
1070
   147
1040
1.0
1070
   172
1070
     1
1070
   173
1070
     1
1070
   176
1070
     4
1070
   177
1070
     4
1070
   178
1070
     4
1070
   271
1070
     0
1070
   272
1070
     2
1070
   341
1005
B2
1070
     6
1000
OPEN
1070
     7
1000
OPEN
1002
}
  0
DIMENSION
  5
568
330
1A
100
AcDbEntity
  8
SUNPOU
100
AcDbDimension
  2
*D6
 10
299.3954696498347
 20
139.1724473796279
 30
0.0
 11
298.0538670273719
 21
147.445926974112
 31
0.0
 70
    33
  3
STANDARD
100
AcDbAlignedDimension
 13
311.523428456942
 23
163.1248805391368
 33
0.0
 14
318.6787827074919
 24
148.8139632262279
 34
0.0
1001
ACAD
1000
DSTYLE
1002
{
1070
    41
1040
3.0
1070
    42
1040
3.0
1070
    43
1040
7.0
1070
    44
1040
1.5
1070
    73
1070
     0
1070
    74
1070
     0
1070
    77
1070
     3
1070
   140
1040
3.0
1070
   141
1040
150.0
1070
   147
1040
1.0
1070
   172
1070
     1
1070
   173
1070
     1
1070
   176
1070
     4
1070
   177
1070
     4
1070
   178
1070
     4
1070
   271
1070
     0
1070
   272
1070
     2
1070
   341
1005
B2
1070
     6
1000
OPEN
1070
     7
1000
OPEN
1002
}
  0
LINE
  5
569
330
1A
100
AcDbEntity
  8
SEIHIN
  6
CONTINUOUS
 62
     3
100
AcDbLine
 10
310.6289530969281
 20
151.4972706374397
 30
0.0
 11
315.3247530969281
 21
158.8762706374397
 31
0.0
  0
LINE
  5
56A
330
1A
100
AcDbEntity
  8
SEIHIN
  6
CONTINUOUS
 62
     3
100
AcDbLine
 10
315.1010530969281
 20
142.5529706374397
 30
0.0
 11
310.6289530969281
 21
151.4972706374397
 31
0.0
  0
LINE
  5
56B
330
1A
100
AcDbEntity
  8
SEIHIN
  6
CONTINUOUS
 62
     3
100
AcDbLine
 10
321.5632530969281
 20
162.0514706374397
 30
0.0
 11
324.6938530969281
 21
155.7904706374397
 31
0.0
  0
LINE
  5
56C
330
1A
100
AcDbEntity
  8
SEIHIN
  6
CONTINUOUS
 62
     3
100
AcDbLine
 10
332.095153096928
 20
149.9319706374397
 30
0.0
 11
322.7037530969281
 21
168.7149706374397
 31
0.0
  0
LINE
  5
56D
330
1A
100
AcDbEntity
  8
SEIHIN
  6
CONTINUOUS
 62
     3
100
AcDbLine
 10
339.2506530969281
 20
153.5096706374397
 30
0.0
 11
329.8591530969281
 21
172.2926706374397
 31
0.0
  0
LINE
  5
56E
330
1A
100
AcDbEntity
  8
SEIHIN
  6
CONTINUOUS
 62
     3
100
AcDbLine
 10
315.3247530969281
 20
158.8762706374397
 30
0.0
 11
313.5358530969281
 21
162.4539706374397
 31
0.0
  0
LINE
  5
56F
330
1A
100
AcDbEntity
  8
SEIHIN
  6
CONTINUOUS
 62
     3
100
AcDbLine
 10
318.8800530969281
 20
160.7098706374397
 30
0.0
 11
322.0105530969281
 21
154.4488706374397
 31
0.0
  0
LINE
  5
570
330
1A
100
AcDbEntity
  8
CENTER_L
  6
CENTER
 62
     1
 48
5.0
100
AcDbLine
 10
320.4541530969281
 20
145.2631706374397
 30
0.0
 11
317.0274530969281
 21
152.1166706374397
 31
0.0
  0
LINE
  5
571
330
1A
100
AcDbEntity
  8
CENTER_L
  6
CENTER
 62
     1
 48
5.0
100
AcDbLine
 10
315.173953096928
 20
147.0615706374397
 30
0.0
 11
323.0618530969281
 21
151.0054706374397
 31
0.0
  0
CIRCLE
  5
572
330
1A
100
AcDbEntity
  8
SEIHIN
  6
CONTINUOUS
 62
     3
100
AcDbCircle
 10
318.6787530969281
 20
148.8139706374397
 30
0.0
 40
2.050000000000011
  0
ARC
  5
573
330
1A
100
AcDbEntity
  8
SEIHIN
  6
CONTINUOUS
 62
     3
100
AcDbCircle
 10
323.3521530969281
 20
155.1196706374397
 30
0.0
 40
1.49999912099973
100
AcDbArc
 50
206.5650511770794
 51
26.56334299690023
  0
ARC
  5
574
330
1A
100
AcDbEntity
  8
SEIHIN
  6
CONTINUOUS
 62
     3
100
AcDbCircle
 10
335.6729530969281
 20
151.7208706374397
 30
0.0
 40
3.999990201800517
100
AcDbArc
 50
206.5656917613539
 51
296.5644105856388
  0
ARC
  5
575
330
1A
100
AcDbEntity
  8
SEIHIN
  6
CONTINUOUS
 62
     3
100
AcDbCircle
 10
335.6729530969281
 20
151.7208706374397
 30
0.0
 40
3.999967841120723
100
AcDbArc
 50
296.5644105856388
 51
26.56441058563879
  0
ARC
  5
576
330
1A
100
AcDbEntity
  8
SEIHIN
  6
CONTINUOUS
 62
     3
100
AcDbCircle
 10
325.4093530969281
 20
172.2479706374397
 30
0.0
 40
4.450011695471816
100
AcDbArc
 50
296.5650511770794
 51
0.5755393954560081
  0
LINE
  5
577
330
1A
100
AcDbEntity
  8
SEIHIN
  6
CONTINUOUS
 62
     3
100
AcDbLine
 10
314.206653096928
 20
164.4664706374397
 30
0.0
 11
322.7037612450952
 21
168.714954340932
 31
0.0
  0
ARC
  5
578
330
1A
100
AcDbEntity
  8
SEIHIN
  6
CONTINUOUS
 62
     3
100
AcDbCircle
 10
320.2216530969281
 20
161.3806706374397
 30
0.0
 40
1.499954399306852
100
AcDbArc
 50
26.56505117707798
 51
206.565051177078
  0
ARC
  5
579
330
1A
100
AcDbEntity
  8
SEIHIN
  6
CONTINUOUS
 62
     3
100
AcDbCircle
 10
314.8774530969281
 20
163.1247706374397
 30
0.0
 40
1.499999120999755
100
AcDbArc
 50
116.5633429969031
 51
206.5650511770765
  0
ARC
  5
57A
330
1A
100
AcDbEntity
  8
SEIHIN
  6
CONTINUOUS
 62
     3
100
AcDbCircle
 10
325.4093530969281
 20
172.2479706374397
 30
0.0
 40
4.449991596053495
100
AcDbArc
 50
232.55481528242
 51
296.5650511770794
  0
ARC
  5
57B
330
1A
100
AcDbEntity
  8
SEIHIN
  6
CONTINUOUS
 62
     3
100
AcDbCircle
 10
337.2158530969281
 20
169.8776706374397
 30
0.0
 40
1.499999120999717
100
AcDbArc
 50
26.56505117707798
 51
206.5633429969001
  0
LINE
  5
57C
330
1A
100
AcDbEntity
  8
SEIHIN
  6
CONTINUOUS
 62
     3
100
AcDbLine
 10
335.874253096928
 20
169.2068706374397
 30
0.0
 11
339.004653096928
 21
162.9458706374397
 31
0.0
  0
LINE
  5
57D
330
1A
100
AcDbEntity
  8
SEIHIN
  6
CONTINUOUS
 62
     3
100
AcDbLine
 10
338.5574530969281
 20
170.5485706374397
 30
0.0
 11
341.6879530969282
 21
164.2875706374397
 31
0.0
  0
ARC
  5
57E
330
1A
100
AcDbEntity
  8
SEIHIN
  6
CONTINUOUS
 62
     3
100
AcDbCircle
 10
340.3463530969281
 20
163.6167706374397
 30
0.0
 40
1.500021481679497
100
AcDbArc
 50
206.5667593063298
 51
26.56505117707798
  0
LINE
  5
57F
330
1A
100
AcDbEntity
  8
SEIHIN
  6
CONTINUOUS
 62
     3
100
AcDbLine
 10
338.3562530969281
 20
176.5411706374397
 30
0.0
 11
329.8591730969281
 21
172.2926306374398
 31
0.0
  0
ARC
  5
580
330
1A
100
AcDbEntity
  8
SEIHIN
  6
CONTINUOUS
 62
     3
100
AcDbCircle
 10
339.0270530969281
 20
175.1995706374397
 30
0.0
 40
1.499999120999755
100
AcDbArc
 50
26.56334299690168
 51
116.5650511770765
  0
LINE
  5
581
330
1A
100
AcDbEntity
  8
SEIHIN
  6
CONTINUOUS
 62
     3
100
AcDbLine
 10
342.1575530969281
 20
172.2926706374397
 30
0.0
 11
340.368653096928
 21
175.8703706374397
 31
0.0
  0
LINE
  5
582
330
1A
100
AcDbEntity
  8
SEIHIN
  6
CONTINUOUS
 62
     3
100
AcDbLine
 10
355.3503530969281
 20
162.6775706374397
 30
0.0
 11
352.7807530969281
 21
136.4354706374397
 31
0.0
  0
LINE
  5
583
330
1A
100
AcDbEntity
  8
SEIHIN
  6
CONTINUOUS
 62
     3
100
AcDbLine
 10
355.3503530969281
 20
162.6775706374397
 30
0.0
 11
350.8782530969281
 21
171.6218706374397
 31
0.0
  0
LINE
  5
584
330
1A
100
AcDbEntity
  8
CENTER_L
  6
CENTER
 62
     1
 48
5.0
100
AcDbLine
 10
349.9703530969281
 20
160.0212706374397
 30
0.0
 11
346.5436530969281
 21
166.8746706374397
 31
0.0
  0
CIRCLE
  5
585
330
1A
100
AcDbEntity
  8
SEIHIN
  6
CONTINUOUS
 62
     3
100
AcDbCircle
 10
348.1949530969281
 20
163.5719706374397
 30
0.0
 40
2.049999999999954
  0
DIMENSION
  5
658
330
1A
100
AcDbEntity
  8
SUNPOU
100
AcDbDimension
  2
*D7
 10
255.7089306948005
 20
135.2176562475898
 30
0.0
 11
268.4544988338323
 21
115.3165858062607
 31
0.0
 70
    33
  3
STANDARD
100
AcDbAlignedDimension
 13
257.8648532225715
 23
83.74796627911004
 33
0.0
 14
236.8458573295755
 24
125.78616627911
 34
0.0
1001
ACAD
1000
DSTYLE
1002
{
1070
    41
1040
3.0
1070
    42
1040
3.0
1070
    43
1040
7.0
1070
    44
1040
1.5
1070
    73
1070
     0
1070
    74
1070
     0
1070
    77
1070
     3
1070
   140
1040
3.0
1070
   141
1040
150.0
1070
   147
1040
1.0
1070
   172
1070
     1
1070
   173
1070
     1
1070
   176
1070
     4
1070
   177
1070
     4
1070
   178
1070
     4
1070
   271
1070
     0
1070
   272
1070
     2
1070
   341
1005
B2
1070
     6
1000
OPEN
1070
     7
1000
OPEN
1002
}
  0
LINE
  5
659
330
1A
100
AcDbEntity
  8
SUNPOU
  6
CONTINUOUS
 62
     4
100
AcDbLine
 10
272.0096284780311
 20
35.44634234819392
 30
0.0
 11
272.0096284780311
 21
55.44634234819392
 31
0.0
  0
LINE
  5
65A
330
1A
100
AcDbEntity
  8
SUNPOU
  6
CONTINUOUS
 62
     4
100
AcDbLine
 10
260.6122566141833
 20
78.25073674681374
 30
0.0
 11
282.0096284780311
 21
35.44634234819392
 31
0.0
  0
MTEXT
  5
65B
330
1A
100
AcDbEntity
  8
SUNPOU
  6
CONTINUOUS
 62
     4
100
AcDbMText
 10
264.0693841995422
 20
43.6304979563788
 30
0.0
 40
3.0
 41
0.0
 71
     1
 72
     5
  1
{\W1.714286;10}
 11
0.9998476952003704
 21
0.017452403917724
 31
0.0
1001
ACAD
1000
MTEXTBEGIN
1070
    73
1070
     1
1070
    44
1040
1.0
1070
    74
1070
     0
1000
MTEXTEND
1000
MTEXTBEGIN
1070
    73
1070
     1
1070
    44
1040
1.0
1070
    74
1070
     0
1000
MTEXTEND
1000
MTEXTBEGIN
1070
    73
1070
     1
1070
    44
1040
1.0
1070
    74
1070
     0
1000
MTEXTEND
  0
MTEXT
  5
65C
330
1A
100
AcDbEntity
  8
SUNPOU
  6
CONTINUOUS
 62
     4
100
AcDbMText
 10
275.9676595987546
 20
33.33672759196196
 30
0.0
 40
3.0
 41
0.0
 71
     1
 72
     5
  1
{\W1.500000;5}
 11
0.9998476952003704
 21
0.017452403917724
 31
0.0
1001
ACAD
1000
MTEXTBEGIN
1070
    73
1070
     1
1070
    44
1040
1.0
1070
    74
1070
     0
1000
MTEXTEND
1000
MTEXTBEGIN
1070
    73
1070
     1
1070
    44
1040
1.0
1070
    74
1070
     0
1000
MTEXTEND
1000
MTEXTBEGIN
1070
    73
1070
     1
1070
    44
1040
1.0
1070
    74
1070
     0
1000
MTEXTEND
  0
LINE
  5
65D
330
1A
100
AcDbEntity
  8
SUNPOU
  6
CONTINUOUS
 62
     4
100
AcDbLine
 10
282.0096284780311
 20
35.44634234819392
 30
0.0
 11
272.0096284780311
 21
35.44634234819392
 31
0.0
  0
DIMENSION
  5
65E
330
1A
100
AcDbEntity
  8
SUNPOU
100
AcDbDimension
  2
*D8
 10
267.3364665119295
 20
64.80262171888854
 30
0.0
 11
275.8338397993352
 21
71.84585586340509
 31
0.0
 70
    33
  1
t<>
  3
STANDARD
100
AcDbAlignedDimension
 13
256.9703532225715
 23
83.30076627911006
 33
0.0
 14
257.8648532225715
 24
83.74796627911004
 34
0.0
1001
ACAD
1000
DSTYLE
1002
{
1070
    41
1040
3.0
1070
    42
1040
3.0
1070
    43
1040
7.0
1070
    44
1040
1.5
1070
    73
1070
     0
1070
    74
1070
     0
1070
    77
1070
     3
1070
   140
1040
3.0
1070
   141
1040
150.0
1070
   147
1040
1.0
1070
   172
1070
     1
1070
   173
1070
     1
1070
   176
1070
     4
1070
   177
1070
     4
1070
   178
1070
     4
1070
   271
1070
     1
1070
   272
1070
     2
1070
   341
1005
B2
1070
     6
1000
OPEN
1070
     7
1000
OPEN
1002
}
  0
ELLIPSE
  5
6ED
330
1A
100
AcDbEntity
  8
SEIHIN
  6
CONTINUOUS
 62
     3
100
AcDbEllipse
 10
246.2372579127863
 20
224.4548496627329
 30
0.0
 11
-0.0000022446405592
 21
3.995726121468982
 31
0.0
210
0.0
220
0.0
230
-1.0
 40
0.4474999301672538
 41
1.570795722715059
 42
3.141560875422462
  0
ELLIPSE
  5
6EE
330
1A
100
AcDbEntity
  8
SEIHIN
  6
CONTINUOUS
 62
     3
100
AcDbEllipse
 10
246.2372579127863
 20
224.4548565067005
 30
0.0
 11
-0.0000022446405592
 21
-3.995726121468982
 31
0.0
210
0.0
220
0.0
230
1.0
 40
0.4474999301672538
 41
1.570795722715059
 42
3.141560875422462
  0
ELLIPSE
  5
6EF
330
1A
100
AcDbEntity
  8
SEIHIN
  6
CONTINUOUS
 62
     3
100
AcDbEllipse
 10
253.3926763787911
 20
224.4548035210356
 30
0.0
 11
-0.0000056185035488
 21
-10.00159693721671
 31
0.0
210
0.0
220
0.0
230
1.0
 40
0.4470000446996679
 41
0.5962938852613524
 42
2.615145239164927
  0
ELLIPSE
  5
6F0
330
1A
100
AcDbEntity
  8
SEIHIN
  6
CONTINUOUS
 62
     3
100
AcDbEllipse
 10
254.2871416115541
 20
224.4548300654293
 30
0.0
 11
-0.0000011556632126
 21
-2.0572164543542
 31
0.0
210
0.0
220
0.0
230
1.0
 40
0.4463414898625747
 41
0.4896435518770082
 42
2.651951618891374
  0
ELLIPSE
  5
6F1
330
1A
100
AcDbEntity
  8
SEIHIN
  6
CONTINUOUS
 62
     3
100
AcDbEllipse
 10
255.181609403219
 20
224.454832085164
 30
0.0
 11
-0.0000011743743843
 21
-2.090524540857784
 31
0.0
210
0.0
220
0.0
230
1.0
 40
0.4463414898625748
 41
-3.141570167528054
 42
3.141615139651531
  0
ELLIPSE
  5
6F2
330
1A
100
AcDbEntity
  8
SEIHIN
  6
CONTINUOUS
 62
     3
100
AcDbEllipse
 10
243.1067775455122
 20
240.9547918603569
 30
0.0
 11
-0.0000011376766044
 21
-2.025198176028001
 31
0.0
210
0.0
220
0.0
230
1.0
 40
0.4463414898625748
 41
0.5180240757174213
 42
2.623630696993638
  0
ELLIPSE
  5
6F3
330
1A
100
AcDbEntity
  8
SEIHIN
  6
CONTINUOUS
 62
     3
100
AcDbEllipse
 10
244.0012453372039
 20
240.9548536012012
 30
0.0
 11
-0.0000011372584729
 21
-2.024453852710011
 31
0.0
210
0.0
220
0.0
230
1.0
 40
0.4463414898625748
 41
3.141545122358066
 42
9.424730429537651
  0
ELLIPSE
  5
6F4
330
1A
100
AcDbEntity
  8
SEIHIN
  6
CONTINUOUS
 62
     3
100
AcDbEllipse
 10
243.1067775455122
 20
207.9549143115094
 30
0.0
 11
-0.0000011376766044
 21
2.025198176028001
 31
0.0
210
0.0
220
0.0
230
-1.0
 40
0.4463414898625748
 41
0.5180240757174213
 42
2.623630696993638
  0
ELLIPSE
  5
6F5
330
1A
100
AcDbEntity
  8
SEIHIN
  6
CONTINUOUS
 62
     3
100
AcDbEllipse
 10
244.0012453372039
 20
207.9548525706652
 30
0.0
 11
-0.0000011372584729
 21
2.024453852710011
 31
0.0
210
0.0
220
0.0
230
-1.0
 40
0.4463414898625748
 41
3.141545122358066
 42
9.424730429537651
  0
ELLIPSE
  5
6F6
330
1A
100
AcDbEntity
  8
SEIHIN
  6
CONTINUOUS
 62
     3
100
AcDbEllipse
 10
239.2832477648684
 20
233.9547462581232
 30
0.0
 11
-0.0000008586227076
 21
-1.528449523356075
 31
0.0
210
0.0
220
0.0
230
1.0
 40
0.4466666666663274
 41
3.141592904509525
 42
6.283185558099319
  0
ELLIPSE
  5
6F7
330
1A
100
AcDbEntity
  8
SEIHIN
  6
CONTINUOUS
 62
     3
100
AcDbEllipse
 10
239.2832477648684
 20
214.9549599137431
 30
0.0
 11
-0.0000008586227076
 21
1.528449523356075
 31
0.0
210
0.0
220
0.0
230
-1.0
 40
0.4466666666663274
 41
3.141592904509525
 42
6.283185558099319
  0
ELLIPSE
  5
6F8
330
1A
100
AcDbEntity
  8
SEIHIN
  6
CONTINUOUS
 62
     3
100
AcDbEllipse
 10
242.4136477648684
 20
233.9547462581232
 30
0.0
 11
-0.0000008586227076
 21
-1.528449523356075
 31
0.0
210
0.0
220
0.0
230
1.0
 40
0.4466666666663274
 41
0.000000250919733
 42
3.141592904509525
  0
ELLIPSE
  5
6F9
330
1A
100
AcDbEntity
  8
SEIHIN
  6
CONTINUOUS
 62
     3
100
AcDbEllipse
 10
242.4136477648684
 20
214.9549599137431
 30
0.0
 11
-0.0000008586227076
 21
1.528449523356075
 31
0.0
210
0.0
220
0.0
230
-1.0
 40
0.4466666666663274
 41
0.000000250919733
 42
3.141592904509525
  0
DIMENSION
  5
6FA
330
1A
100
AcDbEntity
  8
SUNPOU
100
AcDbDimension
  2
*D10
 10
285.4986142109177
 20
201.9548530859332
 30
0.0
 11
282.9986142109177
 21
224.4548530859332
 31
0.0
 70
    32
  3
STANDARD
100
AcDbAlignedDimension
 13
245.7900899798815
 23
246.9548530859332
 33
0.0
 14
245.7900899798815
 24
201.9548530859332
 34
0.0
 50
90.0
100
AcDbRotatedDimension
1001
ACAD
1000
DSTYLE
1002
{
1070
    41
1040
3.0
1070
    42
1040
3.0
1070
    43
1040
7.0
1070
    44
1040
1.5
1070
    73
1070
     0
1070
    74
1070
     0
1070
    77
1070
     3
1070
   140
1040
3.0
1070
   141
1040
150.0
1070
   147
1040
1.0
1070
   172
1070
     1
1070
   173
1070
     1
1070
   176
1070
     4
1070
   177
1070
     4
1070
   178
1070
     4
1070
   271
1070
     0
1070
   272
1070
     2
1070
   341
1005
B2
1070
     6
1000
OPEN
1070
     7
1000
OPEN
1002
}
  0
LINE
  5
6FB
330
1A
100
AcDbEntity
  8
SEIHIN
  6
CONTINUOUS
 62
     3
100
AcDbLine
 10
255.8848899798816
 20
232.7562530859332
 30
0.0
 11
245.7900899798815
 21
246.9548530859332
 31
0.0
  0
LINE
  5
6FC
330
1A
100
AcDbEntity
  8
SEIHIN
  6
CONTINUOUS
 62
     3
100
AcDbLine
 10
241.3178899798816
 20
246.9548530859332
 30
0.0
 11
239.3054899798816
 21
239.4548530859332
 31
0.0
  0
DIMENSION
  5
6FD
330
1A
100
AcDbEntity
  8
SUNPOU
100
AcDbDimension
  2
*D9
 10
275.5157887220024
 20
207.9548530859332
 30
0.0
 11
273.0157887220024
 21
224.4548530859332
 31
0.0
 70
    32
  3
STANDARD
100
AcDbAlignedDimension
 13
246.5989899798815
 23
240.9548530859332
 33
0.0
 14
246.5989899798815
 24
207.9548530859332
 34
0.0
 50
90.0
100
AcDbRotatedDimension
1001
ACAD
1000
DSTYLE
1002
{
1070
    41
1040
3.0
1070
    42
1040
3.0
1070
    43
1040
7.0
1070
    44
1040
1.5
1070
    73
1070
     0
1070
    74
1070
     0
1070
    77
1070
     3
1070
   140
1040
3.0
1070
   141
1040
150.0
1070
   147
1040
1.0
1070
   172
1070
     1
1070
   173
1070
     1
1070
   176
1070
     4
1070
   177
1070
     4
1070
   178
1070
     4
1070
   271
1070
     0
1070
   272
1070
     2
1070
   341
1005
B2
1070
     6
1000
OPEN
1070
     7
1000
OPEN
1002
}
  0
LINE
  5
6FE
330
1A
100
AcDbEntity
  8
CENTER_L
  6
CENTER
 62
     1
 48
5.0
100
AcDbLine
 10
255.1815899798816
 20
221.0397530859332
 30
0.0
 11
255.1815899798816
 21
227.9326530859332
 31
0.0
  0
LINE
  5
6FF
330
1A
100
AcDbEntity
  8
CENTER_L
  6
CENTER
 62
     1
 48
5.0
100
AcDbLine
 10
246.5989899798815
 20
207.9548530859332
 30
0.0
 11
241.8650899798815
 21
207.9548530859332
 31
0.0
  0
LINE
  5
700
330
1A
100
AcDbEntity
  8
SEIHIN
  6
CONTINUOUS
 62
     3
100
AcDbLine
 10
245.7899899798815
 20
201.9548530859332
 30
0.0
 11
240.4234899798816
 21
201.9548530859332
 31
0.0
  0
LINE
  5
701
330
1A
100
AcDbEntity
  8
CENTER_L
  6
CENTER
 62
     1
 48
5.0
100
AcDbLine
 10
244.0012899798816
 20
204.5696530859332
 30
0.0
 11
244.0012899798816
 21
211.8030530859331
 31
0.0
  0
LINE
  5
702
330
1A
100
AcDbEntity
  8
SEIHIN
  6
CONTINUOUS
 62
     3
100
AcDbLine
 10
241.3178899798816
 20
201.9548530859332
 30
0.0
 11
239.3054899798816
 21
209.4548530859332
 31
0.0
  0
LINE
  5
703
330
1A
100
AcDbEntity
  8
SEIHIN
  6
CONTINUOUS
 62
     3
100
AcDbLine
 10
242.4136486234911
 20
213.426510390387
 30
0.0
 11
239.2832486234911
 21
213.426510390387
 31
0.0
  0
LINE
  5
704
330
1A
100
AcDbEntity
  8
SEIHIN
  6
CONTINUOUS
 62
     3
100
AcDbLine
 10
242.4136470775505
 20
216.4834094370992
 30
0.0
 11
239.2832469062458
 21
216.4834094370992
 31
0.0
  0
LINE
  5
705
330
1A
100
AcDbEntity
  8
SEIHIN
  6
CONTINUOUS
 62
     3
100
AcDbLine
 10
255.8848899798816
 20
216.1534530859332
 30
0.0
 11
245.7900899798815
 21
201.9548530859332
 31
0.0
  0
LINE
  5
706
330
1A
100
AcDbEntity
  8
CENTER_L
  6
CENTER
 62
     1
 48
5.0
100
AcDbLine
 10
246.5989899798815
 20
240.9548530859332
 30
0.0
 11
241.8650899798815
 21
240.9548530859332
 31
0.0
  0
LINE
  5
707
330
1A
100
AcDbEntity
  8
SEIHIN
  6
CONTINUOUS
 62
     3
100
AcDbLine
 10
242.4136470775505
 20
232.4262967347672
 30
0.0
 11
239.2832469062458
 21
232.4262967347672
 31
0.0
  0
LINE
  5
708
330
1A
100
AcDbEntity
  8
CENTER_L
  6
CENTER
 62
     1
 48
5.0
100
AcDbLine
 10
244.0012899798816
 20
244.3400530859332
 30
0.0
 11
244.0012899798816
 21
237.1066530859332
 31
0.0
  0
LINE
  5
709
330
1A
100
AcDbEntity
  8
SEIHIN
  6
CONTINUOUS
 62
     3
100
AcDbLine
 10
242.4136486234911
 20
235.4831957814793
 30
0.0
 11
239.2832486234911
 21
235.4831957814793
 31
0.0
  0
LINE
  5
70A
330
1A
100
AcDbEntity
  8
SEIHIN
  6
CONTINUOUS
 62
     3
100
AcDbLine
 10
245.7899899798815
 20
246.9548530859332
 30
0.0
 11
240.4234899798816
 21
246.9548530859332
 31
0.0
  0
DIMENSION
  5
735
330
1A
100
AcDbEntity
  8
SUNPOU
100
AcDbDimension
  2
*D11
 10
236.8458573295755
 20
147.9210646484318
 30
0.0
 11
214.430356302822
 21
150.4210646484318
 31
0.0
 70
    32
  3
STANDARD
100
AcDbAlignedDimension
 13
192.0148552760686
 23
114.58456627911
 33
0.0
 14
236.8458573295755
 24
125.78616627911
 34
0.0
100
AcDbRotatedDimension
1001
ACAD
1000
DSTYLE
1002
{
1070
    41
1040
3.0
1070
    42
1040
3.0
1070
    43
1040
7.0
1070
    44
1040
1.5
1070
    73
1070
     0
1070
    74
1070
     0
1070
    77
1070
     3
1070
   140
1040
3.0
1070
   141
1040
150.0
1070
   147
1040
1.0
1070
   172
1070
     1
1070
   173
1070
     1
1070
   176
1070
     4
1070
   177
1070
     4
1070
   178
1070
     4
1070
   271
1070
     0
1070
   272
1070
     2
1070
   341
1005
B2
1070
     6
1000
OPEN
1070
     7
1000
OPEN
1002
}
  0
DIMENSION
  5
742
330
1A
100
AcDbEntity
  8
SUNPOU
100
AcDbDimension
  2
*D12
 10
236.8458573295755
 20
156.0441014458904
 30
0.0
 11
206.8458268910573
 21
158.5441014458904
 31
0.0
 70
    32
  3
STANDARD
100
AcDbAlignedDimension
 13
176.845796452539
 23
125.78616627911
 33
0.0
 14
236.8458573295755
 24
125.78616627911
 34
0.0
100
AcDbRotatedDimension
1001
ACAD
1000
DSTYLE
1002
{
1070
    41
1040
3.0
1070
    42
1040
3.0
1070
    43
1040
7.0
1070
    44
1040
1.5
1070
    73
1070
     0
1070
    74
1070
     0
1070
    77
1070
     3
1070
   140
1040
3.0
1070
   141
1040
150.0
1070
   147
1040
1.0
1070
   172
1070
     1
1070
   173
1070
     1
1070
   176
1070
     4
1070
   177
1070
     4
1070
   178
1070
     4
1070
   271
1070
     0
1070
   272
1070
     2
1070
   341
1005
B2
1070
     6
1000
OPEN
1070
     7
1000
OPEN
1002
}
  0
DIMENSION
  5
74F
330
1A
100
AcDbEntity
  8
SUNPOU
100
AcDbDimension
  2
*D13
 10
80.79665527606861
 20
164.3809027925299
 30
0.0
 11
158.821256302822
 21
166.8809027925299
 31
0.0
 70
    32
  3
STANDARD
100
AcDbAlignedDimension
 13
236.8458573295755
 23
125.78616627911
 33
0.0
 14
80.79665527606861
 24
114.28616627911
 34
0.0
100
AcDbRotatedDimension
1001
ACAD
1000
DSTYLE
1002
{
1070
    41
1040
3.0
1070
    42
1040
3.0
1070
    43
1040
7.0
1070
    44
1040
1.5
1070
    73
1070
     0
1070
    74
1070
     0
1070
    77
1070
     3
1070
   140
1040
3.0
1070
   141
1040
150.0
1070
   147
1040
1.0
1070
   172
1070
     1
1070
   173
1070
     1
1070
   176
1070
     4
1070
   177
1070
     4
1070
   178
1070
     4
1070
   271
1070
     0
1070
   272
1070
     2
1070
   341
1005
B2
1070
     6
1000
OPEN
1070
     7
1000
OPEN
1002
}
  0
DIMENSION
  5
75C
330
1A
100
AcDbEntity
  8
SUNPOU
100
AcDbDimension
  2
*D14
 10
55.33414394223655
 20
114.28616627911
 30
0.0
 11
52.83414394223654
 21
99.01711627911012
 31
0.0
 70
    32
  3
STANDARD
100
AcDbAlignedDimension
 13
257.8648552760684
 23
83.74806627911008
 33
0.0
 14
80.84585527606847
 24
114.28616627911
 34
0.0
 50
90.0
100
AcDbRotatedDimension
1001
ACAD
1000
DSTYLE
1002
{
1070
    41
1040
3.0
1070
    42
1040
3.0
1070
    43
1040
7.0
1070
    44
1040
1.5
1070
    73
1070
     0
1070
    74
1070
     0
1070
    77
1070
     3
1070
   140
1040
3.0
1070
   141
1040
150.0
1070
   147
1040
1.0
1070
   172
1070
     1
1070
   173
1070
     1
1070
   176
1070
     4
1070
   177
1070
     4
1070
   178
1070
     4
1070
   271
1070
     0
1070
   272
1070
     2
1070
   341
1005
B2
1070
     6
1000
OPEN
1070
     7
1000
OPEN
1002
}
  0
DIMENSION
  5
769
330
1A
100
AcDbEntity
  8
SUNPOU
100
AcDbDimension
  2
*D15
 10
63.55879531853361
 20
109.28616627911
 30
0.0
 11
61.0587953185336
 21
111.78616627911
 31
0.0
 70
    32
  3
STANDARD
100
AcDbAlignedDimension
 13
80.79665527606861
 23
114.28616627911
 33
0.0
 14
82.24585527606848
 24
109.28616627911
 34
0.0
 50
90.0
100
AcDbRotatedDimension
1001
ACAD
1000
DSTYLE
1002
{
1070
    41
1040
3.0
1070
    42
1040
3.0
1070
    43
1040
7.0
1070
    44
1040
1.5
1070
    73
1070
     0
1070
    74
1070
     0
1070
    77
1070
     3
1070
   140
1040
3.0
1070
   141
1040
150.0
1070
   147
1040
1.0
1070
   172
1070
     1
1070
   173
1070
     1
1070
   176
1070
     4
1070
   177
1070
     4
1070
   178
1070
     4
1070
   271
1070
     0
1070
   272
1070
     2
1070
   341
1005
B2
1070
     6
1000
OPEN
1070
     7
1000
OPEN
1002
}
  0
DIMENSION
  5
778
330
1A
100
AcDbEntity
  8
SUNPOU
100
AcDbDimension
  2
*D16
 10
63.55879531853363
 20
217.9547662791101
 30
0.0
 11
61.0587953185336
 21
224.45476627911
 31
0.0
 70
    32
  3
STANDARD
100
AcDbAlignedDimension
 13
85.24585527606848
 23
230.95476627911
 33
0.0
 14
85.24585527606848
 24
217.95476627911
 34
0.0
 50
90.0
100
AcDbRotatedDimension
1001
ACAD
1000
DSTYLE
1002
{
1070
    41
1040
3.0
1070
    42
1040
3.0
1070
    43
1040
7.0
1070
    44
1040
1.5
1070
    73
1070
     0
1070
    74
1070
     0
1070
    77
1070
     3
1070
   140
1040
3.0
1070
   141
1040
150.0
1070
   147
1040
1.0
1070
   172
1070
     1
1070
   173
1070
     1
1070
   176
1070
     4
1070
   177
1070
     4
1070
   178
1070
     4
1070
   271
1070
     0
1070
   272
1070
     2
1070
   341
1005
B2
1070
     6
1000
OPEN
1070
     7
1000
OPEN
1002
}
  0
DIMENSION
  5
785
330
1A
100
AcDbEntity
  8
SUNPOU
100
AcDbDimension
  2
*D17
 10
55.33414394223658
 20
214.45476627911
 30
0.0
 11
52.83414394223655
 21
224.45476627911
 31
0.0
 70
    32
  3
STANDARD
100
AcDbAlignedDimension
 13
80.84595527606849
 23
234.45476627911
 33
0.0
 14
80.84595527606849
 24
214.45476627911
 34
0.0
 50
90.0
100
AcDbRotatedDimension
1001
ACAD
1000
DSTYLE
1002
{
1070
    41
1040
3.0
1070
    42
1040
3.0
1070
    43
1040
7.0
1070
    44
1040
1.5
1070
    73
1070
     0
1070
    74
1070
     0
1070
    77
1070
     3
1070
   140
1040
3.0
1070
   141
1040
150.0
1070
   147
1040
1.0
1070
   172
1070
     1
1070
   173
1070
     1
1070
   176
1070
     4
1070
   177
1070
     4
1070
   178
1070
     4
1070
   271
1070
     0
1070
   272
1070
     2
1070
   341
1005
B2
1070
     6
1000
OPEN
1070
     7
1000
OPEN
1002
}
  0
LWPOLYLINE
  5
A9B
330
1A
100
AcDbEntity
  8
ZUWAKU
100
AcDbPolyline
 90
        4
 70
     1
 43
0.0
 10
0.4000000601703278
 20
275.4000001794725
 10
0.4000000601703278
 20
0.4000001794725563
 10
398.4000000601703
 20
0.4000001794725563
 10
398.4000000601703
 20
275.4000001794725
  0
LWPOLYLINE
  5
A9C
330
1A
100
AcDbEntity
  8
ZUWAKU
100
AcDbPolyline
 90
        4
 70
     1
 43
0.0
 10
0.2000000601703391
 20
275.6000001794725
 10
0.2000000601703391
 20
0.2000001794725676
 10
398.6000000601703
 20
0.2000001794725561
 10
398.6000000601703
 20
275.6000001794725
  0
LWPOLYLINE
  5
A9D
330
1A
100
AcDbEntity
  8
ZUWAKU
100
AcDbPolyline
 90
        4
 70
     1
 43
0.0
 10
0.0000000601703505
 20
275.8000001794725
 10
0.0000000601703505
 20
0.0000001794725222
 10
398.8000000601704
 20
0.0000001794725559
 10
398.8000000601704
 20
275.8000001794726
  0
LWPOLYLINE
  5
A9E
330
1A
100
AcDbEntity
  8
ZUWAKU
100
AcDbPolyline
 90
        4
 70
     1
 43
0.0
 10
0.300000060170305
 20
275.5000001794726
 10
0.300000060170305
 20
0.3000001794725335
 10
398.5000000601704
 20
0.3000001794725566
 10
398.5000000601703
 20
275.5000001794726
  0
LWPOLYLINE
  5
A9F
330
1A
100
AcDbEntity
  8
ZUWAKU
100
AcDbPolyline
 90
        4
 70
     1
 43
0.0
 10
0.1000000601703164
 20
275.7000001794725
 10
0.1000000601703164
 20
0.1000001794725449
 10
398.7000000601702
 20
0.1000001794725565
 10
398.7000000601704
 20
275.7000001794725
  0
LINE
  5
AA0
330
1A
100
AcDbEntity
  8
ZUWAKU
100
AcDbLine
 10
0.0000000601703505
 20
15.00000017947252
 30
0.0
 11
398.7000000601702
 21
15.00000017947252
 31
0.0
  0
LINE
  5
AA1
330
1A
100
AcDbEntity
  8
ZUWAKU
100
AcDbLine
 10
0.0000000601703505
 20
15.10000017947252
 30
0.0
 11
398.7000000601702
 21
15.10000017947252
 31
0.0
  0
LINE
  5
AA2
330
1A
100
AcDbEntity
  8
ZUWAKU
100
AcDbLine
 10
0.0000000601703505
 20
15.20000017947252
 30
0.0
 11
398.7000000601702
 21
15.20000017947252
 31
0.0
  0
LINE
  5
AA3
330
1A
100
AcDbEntity
  8
ZUWAKU
100
AcDbLine
 10
0.0000000601703505
 20
15.30000017947252
 30
0.0
 11
398.7000000601702
 21
15.30000017947252
 31
0.0
  0
LINE
  5
AA4
330
1A
100
AcDbEntity
  8
ZUWAKU
100
AcDbLine
 10
0.0000000601703505
 20
15.40000017947252
 30
0.0
 11
398.7000000601702
 21
15.40000017947252
 31
0.0
  0
LINE
  5
AA5
330
1A
100
AcDbEntity
  8
ZUWAKU
100
AcDbLine
 10
104.3233007052043
 20
7.700000179472539
 30
0.0
 11
223.712182045666
 21
7.700000179472539
 31
0.0
  0
LINE
  5
AA6
330
1A
100
AcDbEntity
  8
ZUWAKU
100
AcDbLine
 10
104.3233007052043
 20
7.800000179472538
 30
0.0
 11
223.712182045666
 21
7.800000179472542
 31
0.0
  0
LINE
  5
AA7
330
1A
100
AcDbEntity
  8
ZUWAKU
100
AcDbLine
 10
104.3233007052043
 20
7.600000179472541
 30
0.0
 11
223.712182045666
 21
7.600000179472537
 31
0.0
  0
CIRCLE
  5
AA8
330
1A
100
AcDbEntity
  8
ZUWAKU
100
AcDbCircle
 10
12.9961061375609
 20
7.600000179472523
 30
0.0
 40
0.875
  0
LINE
  5
AA9
330
1A
100
AcDbEntity
  8
ZUWAKU
100
AcDbLine
 10
13.4336061375609
 20
3.575000179472525
 30
0.0
 11
12.47110613756092
 21
3.575000179472525
 31
0.0
  0
LINE
  5
AAA
330
1A
100
AcDbEntity
  8
ZUWAKU
100
AcDbLine
 10
12.47110613756092
 20
4.975000179472523
 30
0.0
 11
13.4336061375609
 21
4.975000179472523
 31
0.0
  0
LINE
  5
AAB
330
1A
100
AcDbEntity
  8
ZUWAKU
100
AcDbLine
 10
13.4336061375609
 20
10.22500017947252
 30
0.0
 11
12.47110613756092
 21
10.22500017947252
 31
0.0
  0
LINE
  5
AAC
330
1A
100
AcDbEntity
  8
ZUWAKU
100
AcDbLine
 10
12.47110613756092
 20
11.6250001794725
 30
0.0
 11
13.4336061375609
 21
11.62500017947252
 31
0.0
  0
HATCH
  5
AAD
330
1A
100
AcDbEntity
  8
ZUWAKU
100
AcDbHatch
 10
0.0
 20
0.0
 30
0.0
210
0.0
220
0.0
230
1.0
  2
ANSI37
 70
     0
 71
     0
 91
        8
 92
        7
 72
     1
 73
     1
 93
       24
 10
7.251131390730279
 20
8.822424419964313
 42
-0.1989123673796348
 10
7.046106137560911
 20
9.317399166794839
 42
0.0
 10
7.046106137560911
 20
9.962500179472527
 42
-0.4142135623730912
 10
7.3086061375609
 20
10.22500017947252
 42
0.0
 10
8.796106137560855
 20
10.22500017947252
 42
0.4142135623731546
 10
9.0586061375609
 20
10.48750017947251
 42
0.0
 10
9.0586061375609
 20
11.36250017947252
 42
0.4142135623731586
 10
8.796106137560855
 20
11.62500017947252
 42
0.0
 10
7.046106137560911
 20
11.62500017947252
 42
0.4142135623730928
 10
5.646106137560934
 20
10.22500017947253
 42
0.0
 10
5.646106137560934
 20
9.317399166794903
 42
0.1989123673796619
 10
6.26118189706915
 20
7.832474926303099
 42
0.0
 10
7.716080884391487
 20
6.37757593898077
 42
-0.1989123673796613
 10
7.921106137560911
 20
5.882601192150177
 42
0.0
 10
7.921106137560911
 20
5.237500179472519
 42
-0.4142135623730911
 10
7.658606137560923
 20
4.975000179472523
 42
0.0
 10
6.171106137560968
 20
4.975000179472523
 42
0.4142135623731526
 10
5.908606137560923
 20
4.712500179472529
 42
0.0
 10
5.908606137560923
 20
3.837500179472518
 42
0.4142135623731526
 10
6.171106137560968
 20
3.575000179472525
 42
0.0
 10
7.921106137560911
 20
3.575000179472525
 42
0.4142135623731044
 10
9.321106137560946
 20
4.975000179472512
 42
0.0
 10
9.321106137560946
 20
5.882601192150149
 42
0.1989123673796604
 10
8.706030378052673
 20
7.367525432641919
 42
0.0
 97
        0
 92
        7
 72
     1
 73
     1
 93
       16
 10
11.77110613756093
 20
9.525000179472527
 42
-0.4142135623730935
 10
12.47110613756092
 20
10.22500017947252
 42
0.0
 10
13.4336061375609
 20
10.22500017947252
 42
0.4142135623731546
 10
13.69610613756094
 20
10.48750017947251
 42
0.0
 10
13.69610613756094
 20
11.36250017947252
 42
0.4142135623730951
 10
13.43360613756095
 20
11.62500017947252
 42
0.0
 10
12.47110613756086
 20
11.6250001794725
 42
0.4142135623730892
 10
10.3711061375609
 20
9.525000179472492
 42
0.0
 10
10.3711061375609
 20
5.675000179472537
 42
0.4142135623730969
 10
12.47110613756092
 20
3.575000179472525
 42
0.0
 10
13.4336061375609
 20
3.575000179472525
 42
0.4142135623731526
 10
13.69610613756094
 20
3.837500179472518
 42
0.0
 10
13.69610613756094
 20
4.712500179472529
 42
0.4142135623730891
 10
13.43360613756095
 20
4.975000179472523
 42
0.0
 10
12.47110613756092
 20
4.975000179472523
 42
-0.4142135623730928
 10
11.77110613756093
 20
5.675000179472517
 42
0.0
 97
        0
 92
        7
 72
     1
 73
     1
 93
        2
 10
12.1211061375609
 20
7.600000179472523
 42
1.0
 10
13.8711061375609
 20
7.600000179472523
 42
1.0
 97
        0
 92
        7
 72
     1
 73
     1
 93
       26
 10
18.65742937864991
 20
9.602523776254237
 42
0.0
 10
19.18824919521881
 20
11.28345319538903
 42
0.5069206636600134
 10
18.93793374562113
 20
11.62500017947252
 42
0.0
 10
18.08848905581652
 20
11.62500017947252
 42
0.3272098845218764
 10
17.83817360621884
 20
11.441547163556
 42
0.0
 10
16.90403866890295
 20
8.483453195389063
 42
-0.3272098845219541
 10
16.65372321930522
 20
8.300000179472522
 42
0.0
 10
16.58360613756099
 20
8.300000179472522
 42
-0.4142135623731526
 10
16.32110613756094
 20
8.562500179472516
 42
0.0
 10
16.32110613756094
 20
11.36250017947252
 42
0.4142135623730951
 10
16.05860613756095
 20
11.62500017947252
 42
0.0
 10
15.1836061375609
 20
11.62500017947252
 42
0.4142135623730871
 10
14.92110613756091
 20
11.36250017947253
 42
0.0
 10
14.92110613756091
 20
3.837500179472518
 42
0.4142135623730891
 10
15.1836061375609
 20
3.575000179472525
 42
0.0
 10
16.0586061375609
 20
3.575000179472525
 42
0.4142135623731526
 10
16.32110613756094
 20
3.837500179472518
 42
0.0
 10
16.32110613756094
 20
6.63750017947253
 42
-0.4142135623731526
 10
16.58360613756099
 20
6.900000179472524
 42
0.0
 10
16.65372321930527
 20
6.900000179472524
 42
-0.3272098845218915
 10
16.90403866890295
 20
6.716547163555986
 42
0.0
 10
17.83817360621884
 20
3.75845319538906
 42
0.3272098845218902
 10
18.08848905581652
 20
3.575000179472525
 42
0.0
 10
18.93793374562113
 20
3.575000179472525
 42
0.5069206636600335
 10
19.18824919521881
 20
3.916547163556028
 42
0.0
 10
18.02505350598198
 20
7.600000179472592
 42
0.0
 97
        0
 92
        7
 72
     1
 73
     1
 93
        8
 10
21.7461061375609
 20
11.36250017947252
 42
0.4142135623731546
 10
21.48360613756085
 20
11.62500017947252
 42
0.0
 10
20.60860613756096
 20
11.62500017947252
 42
0.4142135623731507
 10
20.34610613756092
 20
11.36250017947253
 42
0.0
 10
20.34610613756092
 20
3.837500179472518
 42
0.4142135623731526
 10
20.60860613756096
 20
3.575000179472525
 42
0.0
 10
21.48360613756085
 20
3.575000179472525
 42
0.4142135623731526
 10
21.7461061375609
 20
3.837500179472518
 42
0.0
 97
        0
 92
        7
 72
     1
 73
     1
 93
       24
 10
24.19610613756094
 20
9.962500179472527
 42
-0.4142135623731546
 10
24.45860613756099
 20
10.22500017947252
 42
0.0
 10
25.94610613756094
 20
10.22500017947252
 42
0.4142135623730911
 10
26.20860613756093
 20
10.48750017947251
 42
0.0
 10
26.20860613756093
 20
11.36250017947252
 42
0.4142135623730952
 10
25.94610613756094
 20
11.62500017947252
 42
0.0
 10
24.19610613756094
 20
11.62500017947252
 42
0.4142135623731048
 10
22.79610613756091
 20
10.22500017947253
 42
0.0
 10
22.79610613756091
 20
9.317399166794903
 42
0.1989123673796613
 10
23.41118189706918
 20
7.832474926303127
 42
0.0
 10
24.86608088439152
 20
6.377575938980793
 42
-0.1989123673796402
 10
25.07110613756094
 20
5.882601192150257
 42
0.0
 10
25.07110613756094
 20
5.237500179472519
 42
-0.4142135623730911
 10
24.80860613756096
 20
4.975000179472523
 42
0.0
 10
23.32110613756094
 20
4.975000179472523
 42
0.4142135623731526
 10
23.05860613756089
 20
4.712500179472529
 42
0.0
 10
23.05860613756089
 20
3.837500179472518
 42
0.4142135623730891
 10
23.32110613756089
 20
3.575000179472525
 42
0.0
 10
25.07110613756094
 20
3.575000179472525
 42
0.4142135623730925
 10
26.47110613756092
 20
4.975000179472512
 42
0.0
 10
26.47110613756092
 20
5.882601192150149
 42
0.1989123673796675
 10
25.85603037805265
 20
7.367525432641976
 42
0.0
 10
24.40113139073037
 20
8.822424419964233
 42
-0.1989123673796652
 10
24.19610613756094
 20
9.317399166794817
 42
0.0
 97
        0
 92
        7
 72
     1
 73
     1
 93
       16
 10
28.92110613756091
 20
11.36250017947251
 42
0.414213562373103
 10
28.65860613756092
 20
11.62500017947252
 42
0.0
 10
27.78360613756092
 20
11.62500017947252
 42
0.4142135623730871
 10
27.52110613756093
 20
11.36250017947253
 42
0.0
 10
27.52110613756093
 20
4.975000179472512
 42
0.4142135623730926
 10
28.92110613756091
 20
3.575000179472525
 42
0.0
 10
30.67110613756091
 20
3.575000179472525
 42
0.4142135623731044
 10
32.07110613756094
 20
4.975000179472512
 42
0.0
 10
32.07110613756094
 20
11.36250017947252
 42
0.4142135623730951
 10
31.80860613756095
 20
11.62500017947252
 42
0.0
 10
30.9336061375609
 20
11.62500017947252
 42
0.4142135623730871
 10
30.67110613756091
 20
11.36250017947253
 42
0.0
 10
30.67110613756091
 20
5.500000179472511
 42
-0.414213562373088
 10
30.14610613756093
 20
4.975000179472523
 42
0.0
 10
29.44610613756094
 20
4.975000179472523
 42
-0.4142135623731197
 10
28.92110613756091
 20
5.500000179472511
 42
0.0
 97
        0
 92
        7
 72
     1
 73
     1
 93
        8
 10
34.52110613756093
 20
11.36250017947253
 42
0.4142135623730871
 10
34.25860613756094
 20
11.62500017947252
 42
0.0
 10
33.38360613756094
 20
11.62500017947252
 42
0.4142135623731507
 10
33.1211061375609
 20
11.36250017947253
 42
0.0
 10
33.1211061375609
 20
3.837500179472518
 42
0.4142135623730891
 10
33.38360613756089
 20
3.575000179472525
 42
0.0
 10
34.25860613756094
 20
3.575000179472525
 42
0.4142135623730891
 10
34.52110613756093
 20
3.837500179472518
 42
0.0
 97
        0
 75
     0
 76
     1
 52
0.0
 41
0.1
 77
     0
 78
     2
 53
45.0
 43
-450.4711521071691
 44
-6.599999820527443
 45
-0.2245064030267288
 46
0.2245064030267288
 79
     0
 53
135.0
 43
-450.4711521071691
 44
-6.599999820527443
 45
-0.2245064030267288
 46
-0.2245064030267288
 79
     0
 47
0.057451373970553
 98
        8
 10
8.039927541682004
 20
7.583587002415299
 10
11.20225756338993
 20
9.422031270698028
 10
12.58218400300018
 20
7.755941002507881
 10
15.45703005098892
 20
8.100649002693273
 10
20.91923606964872
 20
8.330455136464081
 10
23.44910050773512
 20
9.709288337676127
 10
28.27884304637052
 20
9.364579137020029
 10
33.91353986998172
 20
9.594385270790837
  0
ARC
  5
AAE
330
1A
100
AcDbEntity
  8
ZUWAKU
100
AcDbCircle
 10
7.7461061375609
 20
9.317399166794874
 30
0.0
 40
2.099999999999999
100
AcDbArc
 50
180.0
 51
225.0
  0
LINE
  5
AAF
330
1A
100
AcDbEntity
  8
ZUWAKU
100
AcDbLine
 10
10.3711061375609
 20
5.675000179472526
 30
0.0
 11
10.3711061375609
 21
9.525000179472502
 31
0.0
  0
LINE
  5
AB0
330
1A
100
AcDbEntity
  8
ZUWAKU
100
AcDbLine
 10
11.77110613756093
 20
9.525000179472524
 30
0.0
 11
11.77110613756093
 21
5.675000179472526
 31
0.0
  0
ARC
  5
AB1
330
1A
100
AcDbEntity
  8
ZUWAKU
100
AcDbCircle
 10
7.7461061375609
 20
9.317399166794874
 30
0.0
 40
0.7
100
AcDbArc
 50
180.0000000000016
 51
224.9999999999988
  0
ARC
  5
AB2
330
1A
100
AcDbEntity
  8
ZUWAKU
100
AcDbCircle
 10
12.47110613756092
 20
5.675000179472526
 30
0.0
 40
2.099999999999999
100
AcDbArc
 50
180.0
 51
270.0
  0
ARC
  5
AB3
330
1A
100
AcDbEntity
  8
ZUWAKU
100
AcDbCircle
 10
7.921106137560911
 20
4.975000179472523
 30
0.0
 40
1.399999999999999
100
AcDbArc
 50
270.0
 51
0.0
  0
ARC
  5
AB4
330
1A
100
AcDbEntity
  8
ZUWAKU
100
AcDbCircle
 10
7.221106137560923
 20
5.882601192150175
 30
0.0
 40
2.099999999999999
100
AcDbArc
 50
0.0
 51
45.0
  0
LINE
  5
AB5
330
1A
100
AcDbEntity
  8
ZUWAKU
100
AcDbLine
 10
6.26118189706915
 20
7.832474926303113
 30
0.0
 11
7.716080884391487
 21
6.377575938980783
 31
0.0
  0
LINE
  5
AB6
330
1A
100
AcDbEntity
  8
ZUWAKU
100
AcDbLine
 10
6.171106137560911
 20
4.975000179472523
 30
0.0
 11
7.658606137560923
 21
4.975000179472523
 31
0.0
  0
LINE
  5
AB7
330
1A
100
AcDbEntity
  8
ZUWAKU
100
AcDbLine
 10
6.171106137560911
 20
3.575000179472525
 30
0.0
 11
7.921106137560911
 21
3.575000179472525
 31
0.0
  0
ARC
  5
AB8
330
1A
100
AcDbEntity
  8
ZUWAKU
100
AcDbCircle
 10
6.171106137560911
 20
4.712500179472524
 30
0.0
 40
0.2625
100
AcDbArc
 50
90.0
 51
180.0
  0
ARC
  5
AB9
330
1A
100
AcDbEntity
  8
ZUWAKU
100
AcDbCircle
 10
6.171106137560911
 20
3.837500179472524
 30
0.0
 40
0.2625
100
AcDbArc
 50
180.0
 51
270.0
  0
LINE
  5
ABA
330
1A
100
AcDbEntity
  8
ZUWAKU
100
AcDbLine
 10
5.908606137560923
 20
3.837500179472524
 30
0.0
 11
5.908606137560923
 21
4.712500179472524
 31
0.0
  0
ARC
  5
ABB
330
1A
100
AcDbEntity
  8
ZUWAKU
100
AcDbCircle
 10
7.221106137560923
 20
5.882601192150197
 30
0.0
 40
0.7
100
AcDbArc
 50
0.0
 51
45.0
  0
ARC
  5
ABC
330
1A
100
AcDbEntity
  8
ZUWAKU
100
AcDbCircle
 10
7.658606137560923
 20
5.237500179472526
 30
0.0
 40
0.2625
100
AcDbArc
 50
270.0
 51
0.0
  0
LINE
  5
ABD
330
1A
100
AcDbEntity
  8
ZUWAKU
100
AcDbLine
 10
7.921106137560911
 20
5.237500179472526
 30
0.0
 11
7.921106137560911
 21
5.882601192150197
 31
0.0
  0
LINE
  5
ABE
330
1A
100
AcDbEntity
  8
ZUWAKU
100
AcDbLine
 10
8.706030378052673
 20
7.367525432641937
 30
0.0
 11
7.251131390730336
 21
8.822424419964274
 31
0.0
  0
ARC
  5
ABF
330
1A
100
AcDbEntity
  8
ZUWAKU
100
AcDbCircle
 10
12.47110613756092
 20
5.675000179472526
 30
0.0
 40
0.7
100
AcDbArc
 50
180.0
 51
270.0
  0
LINE
  5
AC0
330
1A
100
AcDbEntity
  8
ZUWAKU
100
AcDbLine
 10
9.321106137560946
 20
4.975000179472523
 30
0.0
 11
9.321106137560946
 21
5.882601192150197
 31
0.0
  0
ARC
  5
AC1
330
1A
100
AcDbEntity
  8
ZUWAKU
100
AcDbCircle
 10
8.796106137560911
 20
10.48750017947252
 30
0.0
 40
0.2625
100
AcDbArc
 50
270.0
 51
0.0
  0
ARC
  5
AC2
330
1A
100
AcDbEntity
  8
ZUWAKU
100
AcDbCircle
 10
8.796106137560911
 20
11.36250017947252
 30
0.0
 40
0.2625
100
AcDbArc
 50
0.0
 51
90.0
  0
ARC
  5
AC3
330
1A
100
AcDbEntity
  8
ZUWAKU
100
AcDbCircle
 10
7.046106137560911
 20
10.22500017947252
 30
0.0
 40
1.399999999999999
100
AcDbArc
 50
90.0
 51
180.0
  0
LINE
  5
AC4
330
1A
100
AcDbEntity
  8
ZUWAKU
100
AcDbLine
 10
5.646106137560934
 20
10.22500017947252
 30
0.0
 11
5.646106137560934
 21
9.317399166794853
 31
0.0
  0
LINE
  5
AC5
330
1A
100
AcDbEntity
  8
ZUWAKU
100
AcDbLine
 10
8.796106137560911
 20
10.22500017947252
 30
0.0
 11
7.3086061375609
 21
10.22500017947252
 31
0.0
  0
LINE
  5
AC6
330
1A
100
AcDbEntity
  8
ZUWAKU
100
AcDbLine
 10
7.046106137560911
 20
9.962500179472524
 30
0.0
 11
7.046106137560911
 21
9.317399166794853
 31
0.0
  0
ARC
  5
AC7
330
1A
100
AcDbEntity
  8
ZUWAKU
100
AcDbCircle
 10
7.3086061375609
 20
9.962500179472524
 30
0.0
 40
0.2625
100
AcDbArc
 50
90.0
 51
180.0
  0
LINE
  5
AC8
330
1A
100
AcDbEntity
  8
ZUWAKU
100
AcDbLine
 10
7.046106137560911
 20
11.62500017947252
 30
0.0
 11
8.796106137560911
 21
11.62500017947252
 31
0.0
  0
ARC
  5
AC9
330
1A
100
AcDbEntity
  8
ZUWAKU
100
AcDbCircle
 10
12.47110613756092
 20
9.525000179472502
 30
0.0
 40
2.099999999999999
100
AcDbArc
 50
90.0
 51
180.0
  0
ARC
  5
ACA
330
1A
100
AcDbEntity
  8
ZUWAKU
100
AcDbCircle
 10
12.47110613756092
 20
9.525000179472524
 30
0.0
 40
0.7
100
AcDbArc
 50
90.0
 51
180.0
  0
LINE
  5
ACB
330
1A
100
AcDbEntity
  8
ZUWAKU
100
AcDbLine
 10
9.0586061375609
 20
11.36250017947252
 30
0.0
 11
9.0586061375609
 21
10.48750017947252
 31
0.0
  0
TEXT
  5
ACC
330
1A
100
AcDbEntity
  8
MOJI
100
AcDbText
 10
46.47889485425491
 20
6.370589244609902
 30
0.0
 40
3.0
  1
ライナートップ
 41
0.9
  7
ｽﾀｲﾙ1
100
AcDbText
  0
LINE
  5
ACD
330
1A
100
AcDbEntity
  8
ZUWAKU
100
AcDbLine
 10
17.83817360621884
 20
11.441547163556
 30
0.0
 11
16.90403866890295
 21
8.483453195389039
 31
0.0
  0
LINE
  5
ACE
330
1A
100
AcDbEntity
  8
ZUWAKU
100
AcDbLine
 10
14.92110613756091
 20
11.36250017947252
 30
0.0
 11
14.92110613756091
 21
3.837500179472524
 31
0.0
  0
LINE
  5
ACF
330
1A
100
AcDbEntity
  8
ZUWAKU
100
AcDbLine
 10
16.32110613756094
 20
8.562500179472525
 30
0.0
 11
16.32110613756094
 21
11.36250017947252
 31
0.0
  0
LINE
  5
AD0
330
1A
100
AcDbEntity
  8
ZUWAKU
100
AcDbLine
 10
28.92110613756091
 20
5.500000179472522
 30
0.0
 11
28.92110613756091
 21
11.36250017947252
 31
0.0
  0
LINE
  5
AD1
330
1A
100
AcDbEntity
  8
ZUWAKU
100
AcDbLine
 10
27.52110613756093
 20
11.36250017947252
 30
0.0
 11
27.52110613756093
 21
4.975000179472523
 31
0.0
  0
LINE
  5
AD2
330
1A
100
AcDbEntity
  8
ZUWAKU
100
AcDbLine
 10
21.7461061375609
 20
3.837500179472524
 30
0.0
 11
21.7461061375609
 21
11.36250017947252
 31
0.0
  0
LINE
  5
AD3
330
1A
100
AcDbEntity
  8
ZUWAKU
100
AcDbLine
 10
20.34610613756092
 20
11.36250017947252
 30
0.0
 11
20.34610613756092
 21
3.837500179472524
 31
0.0
  0
LINE
  5
AD4
330
1A
100
AcDbEntity
  8
ZUWAKU
100
AcDbLine
 10
18.65742937864991
 20
9.602523776254237
 30
0.0
 11
18.02505350598198
 21
7.600000179472534
 31
0.0
  0
ARC
  5
AD5
330
1A
100
AcDbEntity
  8
ZUWAKU
100
AcDbCircle
 10
24.89610613756093
 20
9.317399166794874
 30
0.0
 40
2.099999999999999
100
AcDbArc
 50
180.0
 51
225.0
  0
ARC
  5
AD6
330
1A
100
AcDbEntity
  8
ZUWAKU
100
AcDbCircle
 10
24.89610613756093
 20
9.317399166794874
 30
0.0
 40
0.7
100
AcDbArc
 50
180.0000000000016
 51
224.9999999999988
  0
LINE
  5
AD7
330
1A
100
AcDbEntity
  8
ZUWAKU
100
AcDbLine
 10
33.1211061375609
 20
11.36250017947252
 30
0.0
 11
33.1211061375609
 21
3.837500179472524
 31
0.0
  0
LINE
  5
AD8
330
1A
100
AcDbEntity
  8
ZUWAKU
100
AcDbLine
 10
34.52110613756093
 20
3.837500179472524
 30
0.0
 11
34.52110613756093
 21
11.36250017947252
 31
0.0
  0
LINE
  5
AD9
330
1A
100
AcDbEntity
  8
ZUWAKU
100
AcDbLine
 10
30.67110613756091
 20
11.36250017947252
 30
0.0
 11
30.67110613756091
 21
5.500000179472522
 31
0.0
  0
LINE
  5
ADA
330
1A
100
AcDbEntity
  8
ZUWAKU
100
AcDbLine
 10
32.07110613756094
 20
4.975000179472523
 30
0.0
 11
32.07110613756094
 21
11.36250017947252
 31
0.0
  0
LINE
  5
ADB
330
1A
100
AcDbEntity
  8
ZUWAKU
100
AcDbLine
 10
39.56331483416454
 20
15.00000017947252
 30
0.0
 11
39.56331483416454
 21
0.4000001794725563
 31
0.0
  0
LINE
  5
ADC
330
1A
100
AcDbEntity
  8
ZUWAKU
100
AcDbLine
 10
39.76331483416447
 20
15.00000017947252
 30
0.0
 11
39.76331483416458
 21
0.4000001794725563
 31
0.0
  0
LINE
  5
ADD
330
1A
100
AcDbEntity
  8
ZUWAKU
100
AcDbLine
 10
39.66331483416445
 20
15.00000017947252
 30
0.0
 11
39.66331483416457
 21
0.4000001794725563
 31
0.0
  0
LINE
  5
ADE
330
1A
100
AcDbEntity
  8
ZUWAKU
100
AcDbLine
 10
28.92110613756091
 20
3.575000179472525
 30
0.0
 11
30.67110613756091
 21
3.575000179472525
 31
0.0
  0
LINE
  5
ADF
330
1A
100
AcDbEntity
  8
ZUWAKU
100
AcDbLine
 10
30.14610613756093
 20
4.975000179472523
 30
0.0
 11
29.44610613756094
 21
4.975000179472523
 31
0.0
  0
LINE
  5
AE0
330
1A
100
AcDbEntity
  8
ZUWAKU
100
AcDbLine
 10
20.60860613756091
 20
3.575000179472525
 30
0.0
 11
21.48360613756091
 21
3.575000179472525
 31
0.0
  0
LINE
  5
AE1
330
1A
100
AcDbEntity
  8
ZUWAKU
100
AcDbLine
 10
17.83817360621884
 20
3.758453195389037
 30
0.0
 11
16.90403866890295
 21
6.716547163556008
 31
0.0
  0
ARC
  5
AE2
330
1A
100
AcDbEntity
  8
ZUWAKU
100
AcDbCircle
 10
16.58360613756093
 20
6.637500179472525
 30
0.0
 40
0.2625
100
AcDbArc
 50
90.0
 51
180.0
  0
ARC
  5
AE3
330
1A
100
AcDbEntity
  8
ZUWAKU
100
AcDbCircle
 10
16.65372321930527
 20
6.637500179472525
 30
0.0
 40
0.2625
100
AcDbArc
 50
17.52556837372303
 51
90.0
  0
ARC
  5
AE4
330
1A
100
AcDbEntity
  8
ZUWAKU
100
AcDbCircle
 10
15.1836061375609
 20
3.837500179472524
 30
0.0
 40
0.2625
100
AcDbArc
 50
180.0
 51
270.0
  0
ARC
  5
AE5
330
1A
100
AcDbEntity
  8
ZUWAKU
100
AcDbCircle
 10
13.4336061375609
 20
4.712500179472524
 30
0.0
 40
0.2625
100
AcDbArc
 50
0.0
 51
90.0
  0
ARC
  5
AE6
330
1A
100
AcDbEntity
  8
ZUWAKU
100
AcDbCircle
 10
13.4336061375609
 20
3.837500179472524
 30
0.0
 40
0.2625
100
AcDbArc
 50
270.0
 51
0.0
  0
LINE
  5
AE7
330
1A
100
AcDbEntity
  8
ZUWAKU
100
AcDbLine
 10
13.69610613756094
 20
4.712500179472524
 30
0.0
 11
13.69610613756094
 21
3.837500179472524
 31
0.0
  0
LINE
  5
AE8
330
1A
100
AcDbEntity
  8
ZUWAKU
100
AcDbLine
 10
16.32110613756094
 20
3.837500179472524
 30
0.0
 11
16.32110613756094
 21
6.637500179472525
 31
0.0
  0
ARC
  5
AE9
330
1A
100
AcDbEntity
  8
ZUWAKU
100
AcDbCircle
 10
16.0586061375609
 20
3.837500179472524
 30
0.0
 40
0.2625
100
AcDbArc
 50
270.0
 51
0.0
  0
LINE
  5
AEA
330
1A
100
AcDbEntity
  8
ZUWAKU
100
AcDbLine
 10
15.1836061375609
 20
3.575000179472525
 30
0.0
 11
16.0586061375609
 21
3.575000179472525
 31
0.0
  0
ARC
  5
AEB
330
1A
100
AcDbEntity
  8
ZUWAKU
100
AcDbCircle
 10
16.58360613756093
 20
8.562500179472525
 30
0.0
 40
0.2625
100
AcDbArc
 50
180.0
 51
270.0
  0
LINE
  5
AEC
330
1A
100
AcDbEntity
  8
ZUWAKU
100
AcDbLine
 10
16.58360613756093
 20
6.900000179472524
 30
0.0
 11
16.65372321930527
 21
6.900000179472524
 31
0.0
  0
LINE
  5
AED
330
1A
100
AcDbEntity
  8
ZUWAKU
100
AcDbLine
 10
16.65372321930527
 20
8.300000179472522
 30
0.0
 11
16.58360613756093
 21
8.300000179472522
 31
0.0
  0
ARC
  5
AEE
330
1A
100
AcDbEntity
  8
ZUWAKU
100
AcDbCircle
 10
16.65372321930527
 20
8.562500179472525
 30
0.0
 40
0.2625
100
AcDbArc
 50
270.0
 51
342.4744316262769
  0
ARC
  5
AEF
330
1A
100
AcDbEntity
  8
ZUWAKU
100
AcDbCircle
 10
18.08848905581658
 20
3.837500179472524
 30
0.0
 40
0.2625
100
AcDbArc
 50
197.525568373723
 51
270.0
  0
LINE
  5
AF0
330
1A
100
AcDbEntity
  8
ZUWAKU
100
AcDbLine
 10
19.18824919521881
 20
3.91654716355601
 30
0.0
 11
18.02505350598198
 21
7.600000179472534
 31
0.0
  0
ARC
  5
AF1
330
1A
100
AcDbEntity
  8
ZUWAKU
100
AcDbCircle
 10
18.93793374562108
 20
3.837500179472524
 30
0.0
 40
0.2625
100
AcDbArc
 50
270.0
 51
17.52556837372303
  0
LINE
  5
AF2
330
1A
100
AcDbEntity
  8
ZUWAKU
100
AcDbLine
 10
18.08848905581658
 20
3.575000179472525
 30
0.0
 11
18.93793374562108
 21
3.575000179472525
 31
0.0
  0
ARC
  5
AF3
330
1A
100
AcDbEntity
  8
ZUWAKU
100
AcDbCircle
 10
20.60860613756091
 20
3.837500179472524
 30
0.0
 40
0.2625
100
AcDbArc
 50
180.0
 51
270.0
  0
ARC
  5
AF4
330
1A
100
AcDbEntity
  8
ZUWAKU
100
AcDbCircle
 10
25.07110613756094
 20
4.975000179472523
 30
0.0
 40
1.399999999999999
100
AcDbArc
 50
270.0
 51
0.0
  0
ARC
  5
AF5
330
1A
100
AcDbEntity
  8
ZUWAKU
100
AcDbCircle
 10
28.92110613756091
 20
4.975000179472523
 30
0.0
 40
1.399999999999999
100
AcDbArc
 50
180.0
 51
270.0
  0
LINE
  5
AF6
330
1A
100
AcDbEntity
  8
ZUWAKU
100
AcDbLine
 10
25.8560303780527
 20
7.367525432641937
 30
0.0
 11
24.40113139073031
 21
8.822424419964274
 31
0.0
  0
LINE
  5
AF7
330
1A
100
AcDbEntity
  8
ZUWAKU
100
AcDbLine
 10
23.41118189706918
 20
7.832474926303113
 30
0.0
 11
24.86608088439152
 21
6.377575938980783
 31
0.0
  0
LINE
  5
AF8
330
1A
100
AcDbEntity
  8
ZUWAKU
100
AcDbLine
 10
23.32110613756094
 20
3.575000179472525
 30
0.0
 11
25.07110613756094
 21
3.575000179472525
 31
0.0
  0
LINE
  5
AF9
330
1A
100
AcDbEntity
  8
ZUWAKU
100
AcDbLine
 10
23.32110613756094
 20
4.975000179472523
 30
0.0
 11
24.8086061375609
 21
4.975000179472523
 31
0.0
  0
ARC
  5
AFA
330
1A
100
AcDbEntity
  8
ZUWAKU
100
AcDbCircle
 10
23.32110613756094
 20
4.712500179472524
 30
0.0
 40
0.2625
100
AcDbArc
 50
90.0
 51
180.0
  0
ARC
  5
AFB
330
1A
100
AcDbEntity
  8
ZUWAKU
100
AcDbCircle
 10
21.48360613756091
 20
3.837500179472524
 30
0.0
 40
0.2625
100
AcDbArc
 50
270.0
 51
0.0
  0
ARC
  5
AFC
330
1A
100
AcDbEntity
  8
ZUWAKU
100
AcDbCircle
 10
23.32110613756094
 20
3.837500179472524
 30
0.0
 40
0.2625
100
AcDbArc
 50
180.0
 51
270.0
  0
LINE
  5
AFD
330
1A
100
AcDbEntity
  8
ZUWAKU
100
AcDbLine
 10
23.05860613756089
 20
3.837500179472524
 30
0.0
 11
23.05860613756089
 21
4.712500179472524
 31
0.0
  0
ARC
  5
AFE
330
1A
100
AcDbEntity
  8
ZUWAKU
100
AcDbCircle
 10
24.8086061375609
 20
5.237500179472526
 30
0.0
 40
0.2625
100
AcDbArc
 50
270.0
 51
0.0
  0
ARC
  5
AFF
330
1A
100
AcDbEntity
  8
ZUWAKU
100
AcDbCircle
 10
24.3711061375609
 20
5.882601192150197
 30
0.0
 40
0.7
100
AcDbArc
 50
0.0
 51
45.0
  0
LINE
  5
B00
330
1A
100
AcDbEntity
  8
ZUWAKU
100
AcDbLine
 10
25.07110613756094
 20
5.237500179472526
 30
0.0
 11
25.07110613756094
 21
5.882601192150197
 31
0.0
  0
ARC
  5
B01
330
1A
100
AcDbEntity
  8
ZUWAKU
100
AcDbCircle
 10
29.44610613756094
 20
5.500000179472522
 30
0.0
 40
0.525
100
AcDbArc
 50
180.0
 51
270.0
  0
ARC
  5
B02
330
1A
100
AcDbEntity
  8
ZUWAKU
100
AcDbCircle
 10
24.3711061375609
 20
5.882601192150175
 30
0.0
 40
2.099999999999999
100
AcDbArc
 50
0.0
 51
45.0
  0
LINE
  5
B03
330
1A
100
AcDbEntity
  8
ZUWAKU
100
AcDbLine
 10
26.47110613756092
 20
4.975000179472523
 30
0.0
 11
26.47110613756092
 21
5.882601192150197
 31
0.0
  0
ARC
  5
B04
330
1A
100
AcDbEntity
  8
ZUWAKU
100
AcDbCircle
 10
30.67110613756091
 20
4.975000179472523
 30
0.0
 40
1.399999999999999
100
AcDbArc
 50
270.0
 51
0.0
  0
LINE
  5
B05
330
1A
100
AcDbEntity
  8
ZUWAKU
100
AcDbLine
 10
33.38360613756094
 20
3.575000179472525
 30
0.0
 11
34.25860613756094
 21
3.575000179472525
 31
0.0
  0
ARC
  5
B06
330
1A
100
AcDbEntity
  8
ZUWAKU
100
AcDbCircle
 10
30.14610613756093
 20
5.500000179472522
 30
0.0
 40
0.525
100
AcDbArc
 50
270.0
 51
0.0
  0
ARC
  5
B07
330
1A
100
AcDbEntity
  8
ZUWAKU
100
AcDbCircle
 10
33.38360613756094
 20
3.837500179472524
 30
0.0
 40
0.2625
100
AcDbArc
 50
180.0
 51
270.0
  0
ARC
  5
B08
330
1A
100
AcDbEntity
  8
ZUWAKU
100
AcDbCircle
 10
34.25860613756094
 20
3.837500179472524
 30
0.0
 40
0.2625
100
AcDbArc
 50
270.0
 51
0.0
  0
LINE
  5
B09
330
1A
100
AcDbEntity
  8
ZUWAKU
100
AcDbLine
 10
21.48360613756091
 20
11.62500017947252
 30
0.0
 11
20.60860613756091
 21
11.62500017947252
 31
0.0
  0
LINE
  5
B0A
330
1A
100
AcDbEntity
  8
ZUWAKU
100
AcDbLine
 10
13.69610613756094
 20
11.36250017947252
 30
0.0
 11
13.69610613756094
 21
10.48750017947252
 31
0.0
  0
ARC
  5
B0B
330
1A
100
AcDbEntity
  8
ZUWAKU
100
AcDbCircle
 10
13.4336061375609
 20
10.48750017947252
 30
0.0
 40
0.2625
100
AcDbArc
 50
270.0
 51
0.0
  0
ARC
  5
B0C
330
1A
100
AcDbEntity
  8
ZUWAKU
100
AcDbCircle
 10
15.1836061375609
 20
11.36250017947252
 30
0.0
 40
0.2625
100
AcDbArc
 50
90.0
 51
180.0
  0
ARC
  5
B0D
330
1A
100
AcDbEntity
  8
ZUWAKU
100
AcDbCircle
 10
13.4336061375609
 20
11.36250017947252
 30
0.0
 40
0.2625
100
AcDbArc
 50
0.0
 51
90.0
  0
LINE
  5
B0E
330
1A
100
AcDbEntity
  8
ZUWAKU
100
AcDbLine
 10
16.0586061375609
 20
11.62500017947252
 30
0.0
 11
15.1836061375609
 21
11.62500017947252
 31
0.0
  0
ARC
  5
B0F
330
1A
100
AcDbEntity
  8
ZUWAKU
100
AcDbCircle
 10
16.0586061375609
 20
11.36250017947252
 30
0.0
 40
0.2625
100
AcDbArc
 50
0.0
 51
90.0
  0
ARC
  5
B10
330
1A
100
AcDbEntity
  8
ZUWAKU
100
AcDbCircle
 10
18.08848905581658
 20
11.36250017947252
 30
0.0
 40
0.2625
100
AcDbArc
 50
90.0
 51
162.4744316262769
  0
LINE
  5
B11
330
1A
100
AcDbEntity
  8
ZUWAKU
100
AcDbLine
 10
19.18824919521881
 20
11.28345319538903
 30
0.0
 11
18.65742937864991
 21
9.602523776254237
 31
0.0
  0
ARC
  5
B12
330
1A
100
AcDbEntity
  8
ZUWAKU
100
AcDbCircle
 10
18.93793374562108
 20
11.36250017947252
 30
0.0
 40
0.2625
100
AcDbArc
 50
342.4744316262769
 51
90.0
  0
LINE
  5
B13
330
1A
100
AcDbEntity
  8
ZUWAKU
100
AcDbLine
 10
18.08848905581658
 20
11.62500017947252
 30
0.0
 11
18.93793374562108
 21
11.62500017947252
 31
0.0
  0
ARC
  5
B14
330
1A
100
AcDbEntity
  8
ZUWAKU
100
AcDbCircle
 10
20.60860613756091
 20
11.36250017947252
 30
0.0
 40
0.2625
100
AcDbArc
 50
90.0
 51
180.0
  0
LINE
  5
B15
330
1A
100
AcDbEntity
  8
ZUWAKU
100
AcDbLine
 10
25.94610613756094
 20
10.22500017947252
 30
0.0
 11
24.45860613756093
 21
10.22500017947252
 31
0.0
  0
LINE
  5
B16
330
1A
100
AcDbEntity
  8
ZUWAKU
100
AcDbLine
 10
24.19610613756094
 20
11.62500017947252
 30
0.0
 11
25.94610613756094
 21
11.62500017947252
 31
0.0
  0
ARC
  5
B17
330
1A
100
AcDbEntity
  8
ZUWAKU
100
AcDbCircle
 10
24.19610613756094
 20
10.22500017947252
 30
0.0
 40
1.399999999999999
100
AcDbArc
 50
90.0
 51
180.0
  0
LINE
  5
B18
330
1A
100
AcDbEntity
  8
ZUWAKU
100
AcDbLine
 10
22.79610613756091
 20
10.22500017947252
 30
0.0
 11
22.79610613756091
 21
9.317399166794853
 31
0.0
  0
ARC
  5
B19
330
1A
100
AcDbEntity
  8
ZUWAKU
100
AcDbCircle
 10
21.48360613756091
 20
11.36250017947252
 30
0.0
 40
0.2625
100
AcDbArc
 50
0.0
 51
90.0
  0
LINE
  5
B1A
330
1A
100
AcDbEntity
  8
ZUWAKU
100
AcDbLine
 10
24.19610613756094
 20
9.962500179472524
 30
0.0
 11
24.19610613756094
 21
9.317399166794853
 31
0.0
  0
ARC
  5
B1B
330
1A
100
AcDbEntity
  8
ZUWAKU
100
AcDbCircle
 10
24.45860613756093
 20
9.962500179472524
 30
0.0
 40
0.2625
100
AcDbArc
 50
90.0
 51
180.0
  0
LINE
  5
B1C
330
1A
100
AcDbEntity
  8
ZUWAKU
100
AcDbLine
 10
26.20860613756093
 20
11.36250017947252
 30
0.0
 11
26.20860613756093
 21
10.48750017947252
 31
0.0
  0
ARC
  5
B1D
330
1A
100
AcDbEntity
  8
ZUWAKU
100
AcDbCircle
 10
25.94610613756094
 20
10.48750017947252
 30
0.0
 40
0.2625
100
AcDbArc
 50
270.0
 51
0.0
  0
ARC
  5
B1E
330
1A
100
AcDbEntity
  8
ZUWAKU
100
AcDbCircle
 10
25.94610613756094
 20
11.36250017947252
 30
0.0
 40
0.2625
100
AcDbArc
 50
0.0
 51
90.0
  0
LINE
  5
B1F
330
1A
100
AcDbEntity
  8
ZUWAKU
100
AcDbLine
 10
28.65860613756092
 20
11.62500017947252
 30
0.0
 11
27.78360613756092
 21
11.62500017947252
 31
0.0
  0
ARC
  5
B20
330
1A
100
AcDbEntity
  8
ZUWAKU
100
AcDbCircle
 10
27.78360613756092
 20
11.36250017947252
 30
0.0
 40
0.2625
100
AcDbArc
 50
90.0
 51
180.0
  0
ARC
  5
B21
330
1A
100
AcDbEntity
  8
ZUWAKU
100
AcDbCircle
 10
28.65860613756092
 20
11.36250017947252
 30
0.0
 40
0.2625
100
AcDbArc
 50
0.0
 51
90.0
  0
LINE
  5
B22
330
1A
100
AcDbEntity
  8
ZUWAKU
100
AcDbLine
 10
34.25860613756094
 20
11.62500017947252
 30
0.0
 11
33.38360613756094
 21
11.62500017947252
 31
0.0
  0
ARC
  5
B23
330
1A
100
AcDbEntity
  8
ZUWAKU
100
AcDbCircle
 10
30.9336061375609
 20
11.36250017947252
 30
0.0
 40
0.2625
100
AcDbArc
 50
90.0
 51
180.0
  0
LINE
  5
B24
330
1A
100
AcDbEntity
  8
ZUWAKU
100
AcDbLine
 10
31.8086061375609
 20
11.62500017947252
 30
0.0
 11
30.9336061375609
 21
11.62500017947252
 31
0.0
  0
ARC
  5
B25
330
1A
100
AcDbEntity
  8
ZUWAKU
100
AcDbCircle
 10
31.8086061375609
 20
11.36250017947252
 30
0.0
 40
0.2625
100
AcDbArc
 50
0.0
 51
90.0
  0
ARC
  5
B26
330
1A
100
AcDbEntity
  8
ZUWAKU
100
AcDbCircle
 10
33.38360613756094
 20
11.36250017947252
 30
0.0
 40
0.2625
100
AcDbArc
 50
90.0
 51
180.0
  0
ARC
  5
B27
330
1A
100
AcDbEntity
  8
ZUWAKU
100
AcDbCircle
 10
34.25860613756094
 20
11.36250017947252
 30
0.0
 40
0.2625
100
AcDbArc
 50
0.0
 51
90.0
  0
TEXT
  5
B28
330
1A
100
AcDbEntity
  8
MOJI
100
AcDbText
 10
119.9136014005959
 20
1.602460708176232
 30
0.0
 40
2.799999999999999
  1
Ｘ７０Ｕ－５－４５
 41
0.9
  7
ｽﾀｲﾙ1
100
AcDbText
  0
TEXT
  5
B29
330
1A
100
AcDbEntity
  8
MOJI
100
AcDbText
 10
119.9136014005959
 20
9.002460708176215
 30
0.0
 40
2.799999999999999
  1
ステンレス金具正面打（吊）固定式（内吊り）
 41
0.9
  7
ｽﾀｲﾙ1
100
AcDbText
  0
LINE
  5
B2A
330
1A
100
AcDbEntity
  8
ZUWAKU
100
AcDbLine
 10
104.2233007052042
 20
15.00000017947252
 30
0.0
 11
104.2233007052043
 21
0.4000001794725563
 31
0.0
  0
LINE
  5
B2B
330
1A
100
AcDbEntity
  8
ZUWAKU
100
AcDbLine
 10
104.3233007052042
 20
15.00000017947252
 30
0.0
 11
104.3233007052043
 21
0.4000001794725563
 31
0.0
  0
LINE
  5
B2C
330
1A
100
AcDbEntity
  8
ZUWAKU
100
AcDbLine
 10
104.1233007052043
 20
15.00000017947252
 30
0.0
 11
104.1233007052043
 21
0.4000001794725563
 31
0.0
  0
TEXT
  5
B2D
330
1A
100
AcDbEntity
  8
ZUWAKU
100
AcDbText
 10
104.8620232163091
 20
4.827678448665331
 30
0.0
 40
2.0
  1
サイズ
 41
0.9
  7
ｽﾀｲﾙ1
100
AcDbText
  0
TEXT
  5
B2E
330
1A
100
AcDbEntity
  8
ZUWAKU
100
AcDbText
 10
104.862023216309
 20
12.02767844866531
 30
0.0
 40
2.0
  1
品名
 41
0.9
  7
ｽﾀｲﾙ1
100
AcDbText
  0
TEXT
  5
B2F
330
1A
100
AcDbEntity
  8
ZUWAKU
100
AcDbText
 10
329.1019689038215
 20
9.002460708176215
 30
0.0
 40
2.799999999999999
  1
　　．　　．　　
 41
0.9
  7
ｽﾀｲﾙ1
100
AcDbText
  0
LINE
  5
B30
330
1A
100
AcDbEntity
  8
ZUWAKU
100
AcDbLine
 10
324.4086013152724
 20
7.800000179472538
 30
0.0
 11
348.624505334441
 21
7.800000179472538
 31
0.0
  0
LINE
  5
B31
330
1A
100
AcDbEntity
  8
ZUWAKU
100
AcDbLine
 10
324.4086013152725
 20
7.700000179472541
 30
0.0
 11
348.624505334441
 21
7.700000179472539
 31
0.0
  0
LINE
  5
B32
330
1A
100
AcDbEntity
  8
ZUWAKU
100
AcDbLine
 10
324.4086013152724
 20
7.600000179472537
 30
0.0
 11
348.624505334441
 21
7.600000179472539
 31
0.0
  0
LINE
  5
B33
330
1A
100
AcDbEntity
  8
ZUWAKU
100
AcDbLine
 10
252.5995898092407
 20
7.800000179472538
 30
0.0
 11
276.2634779432265
 21
7.800000179472538
 31
0.0
  0
LINE
  5
B34
330
1A
100
AcDbEntity
  8
ZUWAKU
100
AcDbLine
 10
252.5995898092407
 20
7.700000179472539
 30
0.0
 11
276.2634779432265
 21
7.700000179472539
 31
0.0
  0
LINE
  5
B35
330
1A
100
AcDbEntity
  8
ZUWAKU
100
AcDbLine
 10
252.5995898092407
 20
7.600000179472541
 30
0.0
 11
276.2634779432265
 21
7.600000179472541
 31
0.0
  0
LINE
  5
B36
330
1A
100
AcDbEntity
  8
ZUWAKU
100
AcDbLine
 10
252.3995898092408
 20
15.00000017947252
 30
0.0
 11
252.3995898092408
 21
0.4000001794725563
 31
0.0
  0
LINE
  5
B37
330
1A
100
AcDbEntity
  8
ZUWAKU
100
AcDbLine
 10
252.5995898092407
 20
15.00000017947252
 30
0.0
 11
252.5995898092409
 21
0.4000001794725563
 31
0.0
  0
LINE
  5
B38
330
1A
100
AcDbEntity
  8
ZUWAKU
100
AcDbLine
 10
252.4995898092407
 20
15.00000017947252
 30
0.0
 11
252.4995898092408
 21
0.4000001794725563
 31
0.0
  0
TEXT
  5
B39
330
1A
100
AcDbEntity
  8
MOJI
100
AcDbText
 10
264.0204540463268
 20
9.002460708176215
 30
0.0
 40
2.799999999999999
  1
Ａ３
 41
0.9
  7
ｽﾀｲﾙ1
100
AcDbText
  0
LINE
  5
B3A
330
1A
100
AcDbEntity
  8
ZUWAKU
100
AcDbLine
 10
223.712182045666
 20
15.00000017947252
 30
0.0
 11
223.712182045666
 21
0.4000001794725563
 31
0.0
  0
LINE
  5
B3B
330
1A
100
AcDbEntity
  8
ZUWAKU
100
AcDbLine
 10
223.9121820456659
 20
15.00000017947252
 30
0.0
 11
223.9121820456661
 21
0.4000001794725563
 31
0.0
  0
LINE
  5
B3C
330
1A
100
AcDbEntity
  8
ZUWAKU
100
AcDbLine
 10
223.8121820456659
 20
15.00000017947252
 30
0.0
 11
223.812182045666
 21
0.4000001794725563
 31
0.0
  0
TEXT
  5
B3D
330
1A
100
AcDbEntity
  8
MOJI
100
AcDbText
 10
231.2836392211646
 20
5.971309040302514
 30
0.0
 40
2.799999999999999
  1
ＬＦ７０Ｇ
 41
0.9
  7
ｽﾀｲﾙ1
100
AcDbText
  0
TEXT
  5
B3E
330
1A
100
AcDbEntity
  8
ZUWAKU
100
AcDbText
 10
253.3383123203457
 20
4.827678448665331
 30
0.0
 40
2.0
  1
縮尺
 41
0.9
  7
ｽﾀｲﾙ1
100
AcDbText
  0
TEXT
  5
B3F
330
1A
100
AcDbEntity
  8
MOJI
100
AcDbText
 10
264.0204540463268
 20
1.602460708176232
 30
0.0
 40
2.799999999999999
  1
１/１
 41
0.9
  7
ｽﾀｲﾙ1
100
AcDbText
  0
TEXT
  5
B40
330
1A
100
AcDbEntity
  8
ZUWAKU
100
AcDbText
 10
224.6509045567707
 20
12.02767844866531
 30
0.0
 40
2.0
  1
品番
 41
0.9
  7
ｽﾀｲﾙ1
100
AcDbText
  0
TEXT
  5
B41
330
1A
100
AcDbEntity
  8
ZUWAKU
100
AcDbText
 10
253.3383123203456
 20
12.02767844866531
 30
0.0
 40
2.0
  1
用紙
 41
0.9
  7
ｽﾀｲﾙ1
100
AcDbText
  0
LINE
  5
B42
330
1A
100
AcDbEntity
  8
ZUWAKU
100
AcDbLine
 10
276.2634779432265
 20
15.00000017947252
 30
0.0
 11
276.2634779432265
 21
0.4000001794725563
 31
0.0
  0
LINE
  5
B43
330
1A
100
AcDbEntity
  8
ZUWAKU
100
AcDbLine
 10
276.4634779432264
 20
15.00000017947252
 30
0.0
 11
276.4634779432266
 21
0.4000001794725563
 31
0.0
  0
LINE
  5
B44
330
1A
100
AcDbEntity
  8
ZUWAKU
100
AcDbLine
 10
276.3634779432265
 20
15.00000017947252
 30
0.0
 11
276.3634779432265
 21
0.4000001794725563
 31
0.0
  0
LINE
  5
B45
330
1A
100
AcDbEntity
  8
ZUWAKU
100
AcDbLine
 10
324.2086013152726
 20
15.00000017947252
 30
0.0
 11
324.2086013152726
 21
0.4000001794725563
 31
0.0
  0
LINE
  5
B46
330
1A
100
AcDbEntity
  8
ZUWAKU
100
AcDbLine
 10
324.4086013152725
 20
15.00000017947252
 30
0.0
 11
324.4086013152726
 21
0.4000001794725563
 31
0.0
  0
LINE
  5
B47
330
1A
100
AcDbEntity
  8
ZUWAKU
100
AcDbLine
 10
324.3086013152725
 20
15.00000017947252
 30
0.0
 11
324.3086013152726
 21
0.4000001794725563
 31
0.0
  0
TEXT
  5
B48
330
1A
100
AcDbEntity
  8
ZUWAKU
100
AcDbText
 10
325.1473238263773
 20
12.02767844866531
 30
0.0
 40
2.0
  1
DATE
 41
0.9
  7
ｽﾀｲﾙ1
100
AcDbText
  0
TEXT
  5
B49
330
1A
100
AcDbEntity
  8
ZUWAKU
100
AcDbText
 10
354.2640421562922
 20
8.776919847315923
 30
0.0
 40
3.0
  1
積水化学工業株式会社
 41
0.9
  7
ｽﾀｲﾙ1
100
AcDbText
  0
LINE
  5
B4A
330
1A
100
AcDbEntity
  8
ZUWAKU
100
AcDbLine
 10
348.9245053344409
 20
15.00000017947252
 30
0.0
 11
348.924505334441
 21
0.4000001794725563
 31
0.0
  0
LINE
  5
B4B
330
1A
100
AcDbEntity
  8
ZUWAKU
100
AcDbLine
 10
348.8245053344409
 20
15.00000017947252
 30
0.0
 11
348.824505334441
 21
0.4000001794725563
 31
0.0
  0
LINE
  5
B4C
330
1A
100
AcDbEntity
  8
ZUWAKU
100
AcDbLine
 10
348.7245053344409
 20
15.00000017947252
 30
0.0
 11
348.7245053344409
 21
0.4000001794725563
 31
0.0
  0
LINE
  5
B4D
330
1A
100
AcDbEntity
  8
ZUWAKU
100
AcDbLine
 10
348.624505334441
 20
15.00000017947252
 30
0.0
 11
348.624505334441
 21
0.4000001794725563
 31
0.0
  0
TEXT
  5
B4E
330
1A
100
AcDbEntity
  8
ZUWAKU
100
AcDbText
 10
354.2640421562922
 20
3.324420336399555
 30
0.0
 40
3.0
  1
建材事業部
 41
0.9
  7
ｽﾀｲﾙ1
100
AcDbText
  0
VIEWPORT
  5
22
330
17
100
AcDbEntity
 67
     1
  8
0
100
AcDbViewport
 10
313.6808219178082
 20
148.5
 30
0.0
 40
627.3616438356165
 41
297.0
 68
     2
 69
     1
1001
ACAD
1000
MVIEW
1002
{
1070
    16
1010
0.0
1020
0.0
1030
0.0
1010
0.0
1020
0.0
1030
1.0
1040
0.0
1040
297.0
1040
313.6808219178082
1040
148.5
1040
50.0
1040
0.0
1040
0.0
1070
     0
1070
   100
1070
     1
1070
     0
1070
     0
1070
     0
1070
     0
1070
     0
1040
0.0
1040
0.0
1040
0.0
1040
1.0
1040
1.0
1040
10.0
1040
10.0
1070
     0
1002
{
1002
}
1002
}
  0
VIEWPORT
  5
64
330
17
100
AcDbEntity
 67
     1
  8
VIEWPORT
100
AcDbViewport
 10
210.0
 20
148.5
 30
0.0
 40
420.0
 41
297.0
 68
     1
 69
     2
1001
ACAD
1000
MVIEW
1002
{
1070
    16
1010
0.0
1020
0.0
1030
0.0
1010
0.0
1020
0.0
1030
1.0
1040
0.0
1040
302.9399999999998
1040
210.0
1040
148.5
1040
50.0
1040
0.0
1040
0.0
1070
     0
1070
   100
1070
     1
1070
     0
1070
     0
1070
     0
1070
     0
1070
     0
1040
0.0
1040
0.0
1040
0.0
1040
5.0
1040
5.0
1040
0.0
1040
0.0
1070
     0
1002
{
1002
}
1002
}
  0
ENDSEC
  0
SECTION
  2
OBJECTS
  0
DICTIONARY
  5
C
330
0
100
AcDbDictionary
  3
ACAD_GROUP
350
D
  3
ACAD_LAYOUT
350
3C0
  3
ACAD_MLINESTYLE
350
E
  3
ACAD_PLOTSETTINGS
350
3C1
  3
ACAD_PLOTSTYLENAME
350
3BE
  3
ACDBHEADERROUNDTRIPXREC
350
BF5
  0
DICTIONARY
  5
901
330
1A
100
AcDbDictionary
280
     1
  3
ACAD_LAYOUTSELFREF
360
C17
  0
DICTIONARY
  5
8FF
330
17
100
AcDbDictionary
280
     1
  3
ACAD_LAYOUTSELFREF
360
C16
  0
DICTIONARY
  5
D
102
{ACAD_REACTORS
330
C
102
}
330
C
100
AcDbDictionary
  0
DICTIONARY
  5
3C0
102
{ACAD_REACTORS
330
C
102
}
330
C
100
AcDbDictionary
  0
DICTIONARY
  5
E
102
{ACAD_REACTORS
330
C
102
}
330
C
100
AcDbDictionary
  3
STANDARD
350
13
  0
DICTIONARY
  5
3C1
102
{ACAD_REACTORS
330
C
102
}
330
C
100
AcDbDictionary
  0
ACDBDICTIONARYWDFLT
  5
3BE
102
{ACAD_REACTORS
330
C
102
}
330
C
100
AcDbDictionary
281
     1
  3
Normal
350
3BF
100
AcDbDictionaryWithDefault
340
3BF
1001
ACAD
1000
TREAT_AS_HARD
1070
     0
1000
TREAT_AS_HARD
1070
     0
  0
DICTIONARY
  5
BF5
102
{ACAD_REACTORS
330
C
102
}
330
C
100
AcDbDictionary
  3
TSTACKALIGN
350
BF6
  3
TSTACKSIZE
350
BF7
  3
HYPERLINKBASE
350
BF8
  3
STYLESHEET
350
BF9
  3
LAYOUTDICT
350
BFA
  3
PLOTSETDICT
350
BFB
  3
PLOTSTYLNAMDICT
350
BFC
  3
LWETCUNION
350
BFD
  3
INSUNITS
350
BFE
  3
CEPSNTYPE
350
BFF
  3
FINGERPRINTGUID
350
C00
  3
VERSIONGUID
350
C01
  3
PSVPSCALE
350
C02
  3
DIMSTYLEDATA
350
C03
  3
PUCSORTHOREF
350
C04
  3
PUCSORTHOVIEW
350
C05
  3
PUCSBASE
350
C06
  3
PUCSORGTOP
350
C07
  3
PUCSORGBOTTOM
350
C08
  3
PUCSORGLEFT
350
C09
  3
PUCSORGRIGHT
350
C0A
  3
PUCSORGFRONT
350
C0B
  3
PUCSORGBACK
350
C0C
  3
UCSORTHOREF
350
C0D
  3
UCSORTHOVIEW
350
C0E
  3
UCSBASE
350
C0F
  3
UCSORGTOP
350
C10
  3
UCSORGBOTTOM
350
C11
  3
UCSORGLEFT
350
C12
  3
UCSORGRIGHT
350
C13
  3
UCSORGFRONT
350
C14
  3
UCSORGBACK
350
C15
  0
XRECORD
  5
C17
102
{ACAD_REACTORS
330
901
102
}
330
901
100
AcDbXrecord
340
1A
  0
XRECORD
  5
C16
102
{ACAD_REACTORS
330
8FF
102
}
330
8FF
100
AcDbXrecord
340
17
  0
MLINESTYLE
  5
13
102
{ACAD_REACTORS
330
E
102
}
330
E
100
AcDbMlineStyle
  2
STANDARD
 70
     0
  3

 62
     0
 51
90.0
 52
90.0
 71
     2
 49
0.5
 62
   256
  6
BYLAYER
 49
-0.5
 62
   256
  6
BYLAYER
  0
ACDBPLACEHOLDER
  5
3BF
102
{ACAD_REACTORS
330
3BE
102
}
330
3BE
100
AcDbPlaceHolder
280
     0
  0
XRECORD
  5
BF6
102
{ACAD_REACTORS
330
BF5
102
}
330
BF5
100
AcDbXrecord
 90
        1
  0
XRECORD
  5
BF7
102
{ACAD_REACTORS
330
BF5
102
}
330
BF5
100
AcDbXrecord
 90
       70
  0
XRECORD
  5
BF8
102
{ACAD_REACTORS
330
BF5
102
}
330
BF5
100
AcDbXrecord
  1

  0
XRECORD
  5
BF9
102
{ACAD_REACTORS
330
BF5
102
}
330
BF5
100
AcDbXrecord
  1
print.ctb
  0
XRECORD
  5
BFA
102
{ACAD_REACTORS
330
BF5
102
}
330
BF5
100
AcDbXrecord
340
3C0
  0
XRECORD
  5
BFB
102
{ACAD_REACTORS
330
BF5
102
}
330
BF5
100
AcDbXrecord
340
3C1
  0
XRECORD
  5
BFC
102
{ACAD_REACTORS
330
BF5
102
}
330
BF5
100
AcDbXrecord
340
3BE
  0
XRECORD
  5
BFD
102
{ACAD_REACTORS
330
BF5
102
}
330
BF5
100
AcDbXrecord
 90
    14877
  0
XRECORD
  5
BFE
102
{ACAD_REACTORS
330
BF5
102
}
330
BF5
100
AcDbXrecord
 90
        0
  0
XRECORD
  5
BFF
102
{ACAD_REACTORS
330
BF5
102
}
330
BF5
100
AcDbXrecord
 90
        0
  0
XRECORD
  5
C00
102
{ACAD_REACTORS
330
BF5
102
}
330
BF5
100
AcDbXrecord
  1
{F027F9AC-E54A-4627-A8D6-02B4F651AEE7}
  0
XRECORD
  5
C01
102
{ACAD_REACTORS
330
BF5
102
}
330
BF5
100
AcDbXrecord
  1
{D250F167-F858-40A3-A003-6A3073D0FAD8}
  0
XRECORD
  5
C02
102
{ACAD_REACTORS
330
BF5
102
}
330
BF5
100
AcDbXrecord
 40
0.0
  0
XRECORD
  5
C03
102
{ACAD_REACTORS
330
BF5
102
}
330
BF5
100
AcDbXrecord
1000
DSTYLE
1002
{
1070
   341
340
B2
1070
   343
340
B2
1070
   344
340
B2
1070
   371
 70
    -1
1070
   372
 70
    -1
1002
}
  0
XRECORD
  5
C04
102
{ACAD_REACTORS
330
BF5
102
}
330
BF5
100
AcDbXrecord
340
0
  0
XRECORD
  5
C05
102
{ACAD_REACTORS
330
BF5
102
}
330
BF5
100
AcDbXrecord
 70
     0
  0
XRECORD
  5
C06
102
{ACAD_REACTORS
330
BF5
102
}
330
BF5
100
AcDbXrecord
340
0
  0
XRECORD
  5
C07
102
{ACAD_REACTORS
330
BF5
102
}
330
BF5
100
AcDbXrecord
 10
0.0
 20
0.0
 30
0.0
  0
XRECORD
  5
C08
102
{ACAD_REACTORS
330
BF5
102
}
330
BF5
100
AcDbXrecord
 10
0.0
 20
0.0
 30
0.0
  0
XRECORD
  5
C09
102
{ACAD_REACTORS
330
BF5
102
}
330
BF5
100
AcDbXrecord
 10
0.0
 20
0.0
 30
0.0
  0
XRECORD
  5
C0A
102
{ACAD_REACTORS
330
BF5
102
}
330
BF5
100
AcDbXrecord
 10
0.0
 20
0.0
 30
0.0
  0
XRECORD
  5
C0B
102
{ACAD_REACTORS
330
BF5
102
}
330
BF5
100
AcDbXrecord
 10
0.0
 20
0.0
 30
0.0
  0
XRECORD
  5
C0C
102
{ACAD_REACTORS
330
BF5
102
}
330
BF5
100
AcDbXrecord
 10
0.0
 20
0.0
 30
0.0
  0
XRECORD
  5
C0D
102
{ACAD_REACTORS
330
BF5
102
}
330
BF5
100
AcDbXrecord
340
0
  0
XRECORD
  5
C0E
102
{ACAD_REACTORS
330
BF5
102
}
330
BF5
100
AcDbXrecord
 70
     0
  0
XRECORD
  5
C0F
102
{ACAD_REACTORS
330
BF5
102
}
330
BF5
100
AcDbXrecord
340
0
  0
XRECORD
  5
C10
102
{ACAD_REACTORS
330
BF5
102
}
330
BF5
100
AcDbXrecord
 10
0.0
 20
0.0
 30
0.0
  0
XRECORD
  5
C11
102
{ACAD_REACTORS
330
BF5
102
}
330
BF5
100
AcDbXrecord
 10
0.0
 20
0.0
 30
0.0
  0
XRECORD
  5
C12
102
{ACAD_REACTORS
330
BF5
102
}
330
BF5
100
AcDbXrecord
 10
0.0
 20
0.0
 30
0.0
  0
XRECORD
  5
C13
102
{ACAD_REACTORS
330
BF5
102
}
330
BF5
100
AcDbXrecord
 10
0.0
 20
0.0
 30
0.0
  0
XRECORD
  5
C14
102
{ACAD_REACTORS
330
BF5
102
}
330
BF5
100
AcDbXrecord
 10
0.0
 20
0.0
 30
0.0
  0
XRECORD
  5
C15
102
{ACAD_REACTORS
330
BF5
102
}
330
BF5
100
AcDbXrecord
 10
0.0
 20
0.0
 30
0.0
  0
ENDSEC
  0
EOF
