  0
SECTION
  2
HEADER
  9
$ACADVER
  1
AC1015
  9
$ACADMAINTVER
 70
     6
  9
$DWGCODEPAGE
  3
ANSI_932
  9
$INSBASE
 10
0.0
 20
0.0
 30
0.0
  9
$EXTMIN
 10
0.0000000135560185
 20
-0.0000001317113174
 30
0.0
  9
$EXTMAX
 10
797.600000013556
 20
551.5999998682888
 30
0.0
  9
$LIMMIN
 10
0.0
 20
0.0
  9
$LIMMAX
 10
840.0
 20
594.0
  9
$ORTHOMODE
 70
     0
  9
$REGENMODE
 70
     1
  9
$FILLMODE
 70
     1
  9
$QTEXTMODE
 70
     0
  9
$MIRRTEXT
 70
     1
  9
$LTSCALE
 40
2.0
  9
$ATTMODE
 70
     1
  9
$TEXTSIZE
 40
6.0
  9
$TRACEWID
 40
1.0
  9
$TEXTSTYLE
  7
STANDARD
  9
$CLAYER
  8
SEIHIN
  9
$CELTYPE
  6
BYLAYER
  9
$CECOLOR
 62
   256
  9
$CELTSCALE
 40
1.0
  9
$DISPSILH
 70
     0
  9
$DIMSCALE
 40
1.0
  9
$DIMASZ
 40
7.0
  9
$DIMEXO
 40
6.0
  9
$DIMDLI
 40
14.0
  9
$DIMRND
 40
0.0
  9
$DIMDLE
 40
0.0
  9
$DIMEXE
 40
3.0
  9
$DIMTP
 40
0.0
  9
$DIMTM
 40
0.0
  9
$DIMTXT
 40
6.0
  9
$DIMCEN
 40
150.0
  9
$DIMTSZ
 40
0.0
  9
$DIMTOL
 70
     0
  9
$DIMLIM
 70
     0
  9
$DIMTIH
 70
     0
  9
$DIMTOH
 70
     0
  9
$DIMSE1
 70
     0
  9
$DIMSE2
 70
     0
  9
$DIMTAD
 70
     3
  9
$DIMZIN
 70
     0
  9
$DIMBLK
  1

  9
$DIMASO
 70
     1
  9
$DIMSHO
 70
     1
  9
$DIMPOST
  1

  9
$DIMAPOST
  1

  9
$DIMALT
 70
     0
  9
$DIMALTD
 70
     2
  9
$DIMALTF
 40
25.4
  9
$DIMLFAC
 40
1.0
  9
$DIMTOFL
 70
     1
  9
$DIMTVP
 40
0.0
  9
$DIMTIX
 70
     0
  9
$DIMSOXD
 70
     0
  9
$DIMSAH
 70
     1
  9
$DIMBLK1
  1
OPEN
  9
$DIMBLK2
  1
OPEN
  9
$DIMSTYLE
  2
STANDARD
  9
$DIMCLRD
 70
   256
  9
$DIMCLRE
 70
   256
  9
$DIMCLRT
 70
   256
  9
$DIMTFAC
 40
1.0
  9
$DIMGAP
 40
2.0
  9
$DIMJUST
 70
     0
  9
$DIMSD1
 70
     0
  9
$DIMSD2
 70
     0
  9
$DIMTOLJ
 70
     1
  9
$DIMTZIN
 70
     0
  9
$DIMALTZ
 70
     0
  9
$DIMALTTZ
 70
     0
  9
$DIMUPT
 70
     0
  9
$DIMDEC
 70
     0
  9
$DIMTDEC
 70
     0
  9
$DIMALTU
 70
     2
  9
$DIMALTTD
 70
     2
  9
$DIMTXSTY
  7
STANDARD
  9
$DIMAUNIT
 70
     0
  9
$DIMADEC
 70
     0
  9
$DIMALTRND
 40
0.0
  9
$DIMAZIN
 70
     0
  9
$DIMDSEP
 70
    46
  9
$DIMATFIT
 70
     3
  9
$DIMFRAC
 70
     0
  9
$DIMLDRBLK
  1
OPEN
  9
$DIMLUNIT
 70
     2
  9
$DIMLWD
 70
    -1
  9
$DIMLWE
 70
    -1
  9
$DIMTMOVE
 70
     0
  9
$LUNITS
 70
     2
  9
$LUPREC
 70
     4
  9
$SKETCHINC
 40
1.0
  9
$FILLETRAD
 40
10.0
  9
$AUNITS
 70
     0
  9
$AUPREC
 70
     0
  9
$MENU
  1
.
  9
$ELEVATION
 40
0.0
  9
$PELEVATION
 40
0.0
  9
$THICKNESS
 40
0.0
  9
$LIMCHECK
 70
     0
  9
$CHAMFERA
 40
0.0
  9
$CHAMFERB
 40
0.0
  9
$CHAMFERC
 40
40.0
  9
$CHAMFERD
 40
0.0
  9
$SKPOLY
 70
     0
  9
$TDCREATE
 40
2451030.614786227
  9
$TDUCREATE
 40
2451030.239786227
  9
$TDUPDATE
 40
2455609.409000775
  9
$TDUUPDATE
 40
2455609.034000775
  9
$TDINDWG
 40
0.2844631366
  9
$TDUSRTIMER
 40
0.2844629514
  9
$USRTIMER
 70
     1
  9
$ANGBASE
 50
0.0
  9
$ANGDIR
 70
     0
  9
$PDMODE
 70
     0
  9
$PDSIZE
 40
0.0
  9
$PLINEWID
 40
0.0
  9
$SPLFRAME
 70
     0
  9
$SPLINETYPE
 70
     6
  9
$SPLINESEGS
 70
     8
  9
$HANDSEED
  5
613A
  9
$SURFTAB1
 70
     6
  9
$SURFTAB2
 70
     6
  9
$SURFTYPE
 70
     6
  9
$SURFU
 70
     6
  9
$SURFV
 70
     6
  9
$UCSBASE
  2

  9
$UCSNAME
  2

  9
$UCSORG
 10
0.0
 20
0.0
 30
0.0
  9
$UCSXDIR
 10
1.0
 20
0.0
 30
0.0
  9
$UCSYDIR
 10
0.0
 20
1.0
 30
0.0
  9
$UCSORTHOREF
  2

  9
$UCSORTHOVIEW
 70
     0
  9
$UCSORGTOP
 10
0.0
 20
0.0
 30
0.0
  9
$UCSORGBOTTOM
 10
0.0
 20
0.0
 30
0.0
  9
$UCSORGLEFT
 10
0.0
 20
0.0
 30
0.0
  9
$UCSORGRIGHT
 10
0.0
 20
0.0
 30
0.0
  9
$UCSORGFRONT
 10
0.0
 20
0.0
 30
0.0
  9
$UCSORGBACK
 10
0.0
 20
0.0
 30
0.0
  9
$PUCSBASE
  2

  9
$PUCSNAME
  2

  9
$PUCSORG
 10
0.0
 20
0.0
 30
0.0
  9
$PUCSXDIR
 10
1.0
 20
0.0
 30
0.0
  9
$PUCSYDIR
 10
0.0
 20
1.0
 30
0.0
  9
$PUCSORTHOREF
  2

  9
$PUCSORTHOVIEW
 70
     0
  9
$PUCSORGTOP
 10
0.0
 20
0.0
 30
0.0
  9
$PUCSORGBOTTOM
 10
0.0
 20
0.0
 30
0.0
  9
$PUCSORGLEFT
 10
0.0
 20
0.0
 30
0.0
  9
$PUCSORGRIGHT
 10
0.0
 20
0.0
 30
0.0
  9
$PUCSORGFRONT
 10
0.0
 20
0.0
 30
0.0
  9
$PUCSORGBACK
 10
0.0
 20
0.0
 30
0.0
  9
$USERI1
 70
     0
  9
$USERI2
 70
     0
  9
$USERI3
 70
     0
  9
$USERI4
 70
     0
  9
$USERI5
 70
     0
  9
$USERR1
 40
0.0
  9
$USERR2
 40
0.0
  9
$USERR3
 40
0.0
  9
$USERR4
 40
0.0
  9
$USERR5
 40
0.0
  9
$WORLDVIEW
 70
     1
  9
$SHADEDGE
 70
     3
  9
$SHADEDIF
 70
    70
  9
$TILEMODE
 70
     1
  9
$MAXACTVP
 70
    16
  9
$PINSBASE
 10
0.0
 20
0.0
 30
0.0
  9
$PLIMCHECK
 70
     0
  9
$PEXTMIN
 10
-0.0128164049386896
 20
-0.0090630292066862
 30
-0.0015258207003583
  9
$PEXTMAX
 10
420.0128183607161
 20
297.0090644122207
 30
0.0000000349246037
  9
$PLIMMIN
 10
-30.66685116754001
 20
-9.990190459854739
  9
$PLIMMAX
 10
450.6668334081172
 20
361.9494725043409
  9
$UNITMODE
 70
     0
  9
$VISRETAIN
 70
     0
  9
$PLINEGEN
 70
     0
  9
$PSLTSCALE
 70
     1
  9
$TREEDEPTH
 70
  3020
  9
$CMLSTYLE
  2
STANDARD
  9
$CMLJUST
 70
     0
  9
$CMLSCALE
 40
1.0
  9
$PROXYGRAPHICS
 70
     1
  9
$MEASUREMENT
 70
     0
  9
$CELWEIGHT
370
    -1
  9
$ENDCAPS
280
     0
  9
$JOINSTYLE
280
     0
  9
$LWDISPLAY
290
     0
  9
$INSUNITS
 70
     0
  9
$HYPERLINKBASE
  1

  9
$STYLESHEET
  1
systemprinter.ctb
  9
$XEDIT
290
     1
  9
$CEPSNTYPE
380
     0
  9
$PSTYLEMODE
290
     1
  9
$FINGERPRINTGUID
  2
{91E25F26-0CBF-4C93-982E-B5F00895E654}
  9
$VERSIONGUID
  2
{EA88E67E-5621-40C4-B391-A8C510F12711}
  9
$EXTNAMES
290
     1
  9
$PSVPSCALE
 40
0.0
  9
$OLESTARTUP
290
     0
  0
ENDSEC
  0
SECTION
  2
CLASSES
  0
CLASS
  1
ACDBDICTIONARYWDFLT
  2
AcDbDictionaryWithDefault
  3
ObjectDBX Classes
 90
        0
280
     0
281
     0
  0
CLASS
  1
ACDBPLACEHOLDER
  2
AcDbPlaceHolder
  3
ObjectDBX Classes
 90
        0
280
     0
281
     0
  0
CLASS
  1
LAYOUT
  2
AcDbLayout
  3
ObjectDBX Classes
 90
        0
280
     0
281
     0
  0
CLASS
  1
DUMMY
  2
AcDbLongTransaction
  3
DUMMY
 90
        0
280
     0
281
     0
  0
CLASS
  1
LWPOLYLINE
  2
AcDbPolyline
  3
AutoCAD 2000
 90
        0
280
     0
281
     1
  0
CLASS
  1
HATCH
  2
AcDbHatch
  3
AutoCAD 2000
 90
        0
280
     0
281
     1
  0
CLASS
  1
XRECORD
  2
AcDbXrecord
  3
AutoCAD 2000
 90
        0
280
     0
281
     0
  0
CLASS
  1
DUMMY
  2
AcDbLongTransaction
  3
DUMMY
 90
        0
280
     0
281
     0
  0
CLASS
  1
LWPOLYLINE
  2
AcDbPolyline
  3
AutoCAD 2000
 90
        0
280
     0
281
     1
  0
CLASS
  1
HATCH
  2
AcDbHatch
  3
AutoCAD 2000
 90
        0
280
     0
281
     1
  0
CLASS
  1
XRECORD
  2
AcDbXrecord
  3
AutoCAD 2000
 90
        0
280
     0
281
     0
  0
CLASS
  1
DUMMY
  2
AcDbLongTransaction
  3
DUMMY
 90
        0
280
     0
281
     0
  0
CLASS
  1
LWPOLYLINE
  2
AcDbPolyline
  3
AutoCAD 2000
 90
        0
280
     0
281
     1
  0
CLASS
  1
HATCH
  2
AcDbHatch
  3
AutoCAD 2000
 90
        0
280
     0
281
     1
  0
CLASS
  1
XRECORD
  2
AcDbXrecord
  3
AutoCAD 2000
 90
        0
280
     0
281
     0
  0
CLASS
  1
DUMMY
  2
AcDbLongTransaction
  3
DUMMY
 90
        0
280
     0
281
     0
  0
CLASS
  1
LWPOLYLINE
  2
AcDbPolyline
  3
AutoCAD 2000
 90
        0
280
     0
281
     1
  0
CLASS
  1
HATCH
  2
AcDbHatch
  3
AutoCAD 2000
 90
        0
280
     0
281
     1
  0
CLASS
  1
XRECORD
  2
AcDbXrecord
  3
AutoCAD 2000
 90
        0
280
     0
281
     0
  0
CLASS
  1
DUMMY
  2
AcDbLongTransaction
  3
DUMMY
 90
        0
280
     0
281
     0
  0
CLASS
  1
LWPOLYLINE
  2
AcDbPolyline
  3
AutoCAD 2000
 90
        0
280
     0
281
     1
  0
CLASS
  1
HATCH
  2
AcDbHatch
  3
AutoCAD 2000
 90
        0
280
     0
281
     1
  0
CLASS
  1
XRECORD
  2
AcDbXrecord
  3
AutoCAD 2000
 90
        0
280
     0
281
     0
  0
ENDSEC
  0
SECTION
  2
TABLES
  0
TABLE
  2
VPORT
  5
8
330
0
100
AcDbSymbolTable
 70
     2
  0
VPORT
  5
6139
330
8
100
AcDbSymbolTableRecord
100
AcDbViewportTableRecord
  2
*Active
 70
     0
 10
0.0
 20
0.0
 11
1.0
 21
1.0
 12
414.4234211651623
 22
295.3224944317743
 13
0.0
 23
0.0
 14
5.0
 24
5.0
 15
0.0
 25
0.0
 16
0.0
 26
0.0
 36
1.0
 17
0.0
 27
0.0
 37
0.0
 40
637.2603513967686
 41
1.651537335285505
 42
50.0
 43
0.0
 44
0.0
 50
0.0
 51
0.0
 71
     0
 72
   100
 73
     1
 74
     0
 75
     0
 76
     0
 77
     0
 78
     0
281
     0
 65
     1
110
0.0
120
0.0
130
0.0
111
1.0
121
0.0
131
0.0
112
0.0
122
1.0
132
0.0
 79
     0
146
0.0
  0
ENDTAB
  0
TABLE
  2
LTYPE
  5
5
330
0
100
AcDbSymbolTable
 70
     3
  0
LTYPE
  5
14
330
5
100
AcDbSymbolTableRecord
100
AcDbLinetypeTableRecord
  2
BYBLOCK
 70
     0
  3

 72
    65
 73
     0
 40
0.0
  0
LTYPE
  5
15
330
5
100
AcDbSymbolTableRecord
100
AcDbLinetypeTableRecord
  2
BYLAYER
 70
     0
  3

 72
    65
 73
     0
 40
0.0
  0
LTYPE
  5
16
330
5
100
AcDbSymbolTableRecord
100
AcDbLinetypeTableRecord
  2
CONTINUOUS
 70
     0
  3
Solid line
 72
    65
 73
     0
 40
0.0
  0
LTYPE
  5
115
330
5
100
AcDbSymbolTableRecord
100
AcDbLinetypeTableRecord
  2
PHANTOM
 70
     0
  3
______  __  __  ______  __  __  ______  __  __ 
 72
    65
 73
     6
 40
2.5
 49
1.25
 74
     0
 49
-0.25
 74
     0
 49
0.25
 74
     0
 49
-0.25
 74
     0
 49
0.25
 74
     0
 49
-0.25
 74
     0
  0
LTYPE
  5
135
330
5
100
AcDbSymbolTableRecord
100
AcDbLinetypeTableRecord
  2
CENTER
 70
     0
  3
____ _ ____ _ ____ _ ____ _ ____ _ ____ _ ____ 
 72
    65
 73
     4
 40
2.0
 49
1.25
 74
     0
 49
-0.25
 74
     0
 49
0.25
 74
     0
 49
-0.25
 74
     0
  0
ENDTAB
  0
TABLE
  2
LAYER
  5
2
330
0
100
AcDbSymbolTable
 70
     8
  0
LAYER
  5
F
330
2
100
AcDbSymbolTableRecord
100
AcDbLayerTableRecord
  2
0
 70
     0
 62
     7
  6
CONTINUOUS
370
    -3
390
A97
  0
LAYER
  5
62
330
2
100
AcDbSymbolTableRecord
100
AcDbLayerTableRecord
  2
VIEWPORT
 70
     0
 62
     7
  6
CONTINUOUS
370
    -3
390
A97
  0
LAYER
  5
143
330
2
100
AcDbSymbolTableRecord
100
AcDbLayerTableRecord
  2
SEIHIN
 70
     0
 62
     3
  6
CONTINUOUS
370
    -3
390
A97
  0
LAYER
  5
444
330
2
100
AcDbSymbolTableRecord
100
AcDbLayerTableRecord
  2
DEFPOINTS
 70
     0
 62
     7
  6
CONTINUOUS
290
     0
370
    -3
390
A97
  0
LAYER
  5
482
330
2
100
AcDbSymbolTableRecord
100
AcDbLayerTableRecord
  2
SUNPOU
 70
     0
 62
     4
  6
CONTINUOUS
370
    -3
390
A97
  0
LAYER
  5
5D4
330
2
100
AcDbSymbolTableRecord
100
AcDbLayerTableRecord
  2
CENTER_L
 70
     0
 62
     1
  6
CENTER
370
    -3
390
A97
  0
LAYER
  5
3D95
330
2
100
AcDbSymbolTableRecord
100
AcDbLayerTableRecord
  2
ZUWAKU
 70
     0
 62
     7
  6
CONTINUOUS
370
    -3
390
A97
  0
LAYER
  5
3D96
330
2
100
AcDbSymbolTableRecord
100
AcDbLayerTableRecord
  2
MOJI
 70
     0
 62
     2
  6
CONTINUOUS
370
    -3
390
A97
  0
ENDTAB
  0
TABLE
  2
STYLE
  5
3
330
0
100
AcDbSymbolTable
 70
     2
  0
STYLE
  5
10
330
3
100
AcDbSymbolTableRecord
100
AcDbTextStyleTableRecord
  2
STANDARD
 70
     0
 40
0.0
 41
1.0
 50
0.0
 71
     0
 42
6.0
  3
TXT
  4
bigfont.shx
  0
STYLE
  5
3D97
330
3
100
AcDbSymbolTableRecord
100
AcDbTextStyleTableRecord
  2
ｽﾀｲﾙ1
 70
     0
 40
0.0
 41
1.0
 50
0.0
 71
     0
 42
2.5
  3
MS PGothic.ttf
  4

1001
ACAD
1000
MS PGothic
1071
    32818
  0
ENDTAB
  0
TABLE
  2
VIEW
  5
6
330
0
100
AcDbSymbolTable
 70
     0
  0
ENDTAB
  0
TABLE
  2
UCS
  5
7
330
0
100
AcDbSymbolTable
 70
     0
  0
ENDTAB
  0
TABLE
  2
APPID
  5
9
330
0
100
AcDbSymbolTable
 70
     1
  0
APPID
  5
11
330
9
100
AcDbSymbolTableRecord
100
AcDbRegAppTableRecord
  2
ACAD
 70
     0
  0
ENDTAB
  0
TABLE
  2
DIMSTYLE
  5
A
330
0
100
AcDbSymbolTable
 70
     1
100
AcDbDimStyleTable
  0
DIMSTYLE
105
1D
102
{ACAD_REACTORS
330
5E2E
330
5E2F
330
5E30
330
5E31
330
5E34
330
5E3A
330
5E3B
330
5E95
330
5EBC
330
5F15
330
5F1C
330
5F2F
330
5F30
102
}
330
A
100
AcDbSymbolTableRecord
100
AcDbDimStyleTableRecord
  2
STANDARD
 70
     0
340
10
  0
ENDTAB
  0
TABLE
  2
BLOCK_RECORD
  5
1
330
0
100
AcDbSymbolTable
 70
    14
  0
BLOCK_RECORD
  5
1A
330
1
100
AcDbSymbolTableRecord
100
AcDbBlockTableRecord
  2
*MODEL_SPACE
340
6136
  0
BLOCK_RECORD
  5
17
330
1
100
AcDbSymbolTableRecord
100
AcDbBlockTableRecord
  2
*PAPER_SPACE
340
6137
  0
BLOCK_RECORD
  5
6D
330
1
100
AcDbSymbolTableRecord
100
AcDbBlockTableRecord
  2
_OPEN
340
0
102
{BLKREFS
331
60A4
331
60A5
331
60BF
331
60C0
331
60C8
331
60C9
331
609B
331
609C
331
6090
331
6091
331
60B6
331
60B7
331
60AD
331
60AE
331
60D3
331
60D4
331
60DE
331
60DF
331
60E7
331
60E8
331
60F2
331
60F3
331
60FB
331
60FC
331
6104
331
6105
102
}
  0
BLOCK_RECORD
  5
5F66
330
1
100
AcDbSymbolTableRecord
100
AcDbBlockTableRecord
  2
*D1
340
0
  0
BLOCK_RECORD
  5
5F72
330
1
100
AcDbSymbolTableRecord
100
AcDbBlockTableRecord
  2
*D2
340
0
  0
BLOCK_RECORD
  5
5F7E
330
1
100
AcDbSymbolTableRecord
100
AcDbBlockTableRecord
  2
*D3
340
0
  0
BLOCK_RECORD
  5
5F8A
330
1
100
AcDbSymbolTableRecord
100
AcDbBlockTableRecord
  2
*D4
340
0
  0
BLOCK_RECORD
  5
5F98
330
1
100
AcDbSymbolTableRecord
100
AcDbBlockTableRecord
  2
*D5
340
0
  0
BLOCK_RECORD
  5
5FA4
330
1
100
AcDbSymbolTableRecord
100
AcDbBlockTableRecord
  2
*D6
340
0
  0
BLOCK_RECORD
  5
5FB0
330
1
100
AcDbSymbolTableRecord
100
AcDbBlockTableRecord
  2
*D7
340
0
  0
BLOCK_RECORD
  5
5FBC
330
1
100
AcDbSymbolTableRecord
100
AcDbBlockTableRecord
  2
*D8
340
0
  0
BLOCK_RECORD
  5
5FCA
330
1
100
AcDbSymbolTableRecord
100
AcDbBlockTableRecord
  2
*D9
340
0
  0
BLOCK_RECORD
  5
5FD8
330
1
100
AcDbSymbolTableRecord
100
AcDbBlockTableRecord
  2
*D10
340
0
  0
BLOCK_RECORD
  5
5FE4
330
1
100
AcDbSymbolTableRecord
100
AcDbBlockTableRecord
  2
*D11
340
0
  0
BLOCK_RECORD
  5
5FF2
330
1
100
AcDbSymbolTableRecord
100
AcDbBlockTableRecord
  2
*D12
340
0
  0
BLOCK_RECORD
  5
5FFE
330
1
100
AcDbSymbolTableRecord
100
AcDbBlockTableRecord
  2
*D13
340
0
  0
ENDTAB
  0
ENDSEC
  0
SECTION
  2
BLOCKS
  0
BLOCK
  5
1B
330
1A
100
AcDbEntity
  8
0
100
AcDbBlockBegin
  2
*MODEL_SPACE
 70
     0
 71
     0
 10
0.0
 20
0.0
 30
0.0
  3
*MODEL_SPACE
  1

  0
ENDBLK
  5
1C
330
1A
100
AcDbEntity
  8
0
100
AcDbBlockEnd
  0
BLOCK
  5
18
330
17
100
AcDbEntity
 67
     1
  8
0
100
AcDbBlockBegin
  2
*PAPER_SPACE
 70
     0
 71
     0
 10
0.0
 20
0.0
 30
0.0
  3
*PAPER_SPACE
  1

  0
ENDBLK
  5
19
330
17
100
AcDbEntity
 67
     1
  8
0
100
AcDbBlockEnd
  0
BLOCK
  5
6E
330
6D
100
AcDbEntity
  8
0
100
AcDbBlockBegin
  2
_OPEN
 70
     0
 71
     0
 10
0.0
 20
0.0
 30
0.0
  3
_OPEN
  1

  0
LINE
  5
6F
330
6D
100
AcDbEntity
  8
0
  6
ByBlock
 62
     0
100
AcDbLine
 10
-1.0
 20
0.1666666666666666
 30
0.0
 11
0.0
 21
0.0
 31
0.0
  0
LINE
  5
70
330
6D
100
AcDbEntity
  8
0
  6
ByBlock
 62
     0
100
AcDbLine
 10
0.0
 20
0.0
 30
0.0
 11
-1.0
 21
-0.1666666666666666
 31
0.0
  0
LINE
  5
71
330
6D
100
AcDbEntity
  8
0
  6
ByBlock
 62
     0
100
AcDbLine
 10
0.0
 20
0.0
 30
0.0
 11
-1.0
 21
0.0
 31
0.0
  0
ENDBLK
  5
72
330
6D
100
AcDbEntity
  8
0
100
AcDbBlockEnd
  0
BLOCK
  5
5F70
330
5F66
100
AcDbEntity
  8
0
100
AcDbBlockBegin
  2
*D1
 70
     1
 71
     0
 10
0.0
 20
0.0
 30
0.0
  3
*D1
  1

  0
LINE
  5
60A1
330
5F66
100
AcDbEntity
  8
SUNPOU
  6
Continuous
 62
     4
100
AcDbLine
 10
392.8247265015448
 20
255.7771175002448
 30
0.0
 11
431.9369012760102
 21
279.2421756822984
 31
0.0
  0
LINE
  5
60A2
330
5F66
100
AcDbEntity
  8
SUNPOU
  6
Continuous
 62
     4
100
AcDbLine
 10
427.0457582311833
 20
198.7366037462315
 30
0.0
 11
466.1579330056489
 21
222.2016619282852
 31
0.0
  0
LINE
  5
60A3
330
5F66
100
AcDbEntity
  8
SUNPOU
  6
Continuous
 62
     4
100
AcDbLine
 10
432.9655740617199
 20
271.6961944803645
 30
0.0
 11
459.9841722830693
 21
226.6608859123808
 31
0.0
  0
INSERT
  5
60A4
330
5F66
100
AcDbEntity
  8
SUNPOU
  6
Continuous
 62
     4
100
AcDbBlockReference
  2
_OPEN
 10
429.3643573075753
 20
277.6987970733792
 30
0.0
 41
7.0
 42
7.0
 43
7.0
 50
120.9613364812222
  0
INSERT
  5
60A5
330
5F66
100
AcDbEntity
  8
SUNPOU
  6
Continuous
 62
     4
100
AcDbBlockReference
  2
_OPEN
 10
463.5853890372139
 20
220.658283319366
 30
0.0
 41
7.0
 42
7.0
 43
7.0
 50
300.9613364812222
  0
MTEXT
  5
60A6
330
5F66
100
AcDbEntity
  8
SUNPOU
  6
Continuous
 62
     4
100
AcDbMText
 10
450.7624464531195
 20
251.7508378779045
 30
0.0
 40
6.0
 41
0.0
 71
     5
 72
     1
  1
\A1;67
 11
0.5144595363063775
 21
-0.8575146561449706
 31
0.0
 73
     1
 44
1.0
  0
POINT
  5
60A7
330
5F66
100
AcDbEntity
  8
DEFPOINTS
  6
Continuous
 62
     0
100
AcDbPoint
 10
387.6796385646749
 20
252.6903602824065
 30
0.0
  0
POINT
  5
60A8
330
5F66
100
AcDbEntity
  8
DEFPOINTS
  6
Continuous
 62
     0
100
AcDbPoint
 10
421.9006702943135
 20
195.6498465283932
 30
0.0
  0
POINT
  5
60A9
330
5F66
100
AcDbEntity
  8
DEFPOINTS
  6
Continuous
 62
     0
100
AcDbPoint
 10
463.5853890372139
 20
220.658283319366
 30
0.0
  0
ENDBLK
  5
5F71
330
5F66
100
AcDbEntity
  8
0
100
AcDbBlockEnd
  0
BLOCK
  5
5F7C
330
5F72
100
AcDbEntity
  8
0
100
AcDbBlockBegin
  2
*D2
 70
     1
 71
     0
 10
0.0
 20
0.0
 30
0.0
  3
*D2
  1

  0
LINE
  5
60BC
330
5F72
100
AcDbEntity
  8
SUNPOU
  6
Continuous
 62
     4
100
AcDbLine
 10
422.6796583438447
 20
258.6903620884983
 30
0.0
 11
422.6796583438447
 21
309.3580178206298
 31
0.0
  0
LINE
  5
60BD
330
5F72
100
AcDbEntity
  8
SUNPOU
  6
Continuous
 62
     4
100
AcDbLine
 10
387.6796385646749
 20
258.6903602824065
 30
0.0
 11
387.6796385646749
 21
309.3580178206298
 31
0.0
  0
LINE
  5
60BE
330
5F72
100
AcDbEntity
  8
SUNPOU
  6
Continuous
 62
     4
100
AcDbLine
 10
415.6796583438446
 20
306.3580178206298
 30
0.0
 11
394.6796385646749
 21
306.3580178206298
 31
0.0
  0
INSERT
  5
60BF
330
5F72
100
AcDbEntity
  8
SUNPOU
  6
Continuous
 62
     4
100
AcDbBlockReference
  2
_OPEN
 10
422.6796583438447
 20
306.3580178206298
 30
0.0
 41
7.0
 42
7.0
 43
7.0
  0
INSERT
  5
60C0
330
5F72
100
AcDbEntity
  8
SUNPOU
  6
Continuous
 62
     4
100
AcDbBlockReference
  2
_OPEN
 10
387.6796385646749
 20
306.3580178206298
 30
0.0
 41
7.0
 42
7.0
 43
7.0
 50
180.0
  0
MTEXT
  5
60C1
330
5F72
100
AcDbEntity
  8
SUNPOU
  6
Continuous
 62
     4
100
AcDbMText
 10
405.1796484542597
 20
311.3580178206298
 30
0.0
 40
6.0
 41
0.0
 71
     5
 72
     1
  1
\A1;35
 73
     1
 44
1.0
  0
POINT
  5
60C2
330
5F72
100
AcDbEntity
  8
DEFPOINTS
  6
Continuous
 62
     0
100
AcDbPoint
 10
422.6796583438447
 20
252.6903620884983
 30
0.0
  0
POINT
  5
60C3
330
5F72
100
AcDbEntity
  8
DEFPOINTS
  6
Continuous
 62
     0
100
AcDbPoint
 10
387.6796385646749
 20
252.6903602824065
 30
0.0
  0
POINT
  5
60C4
330
5F72
100
AcDbEntity
  8
DEFPOINTS
  6
Continuous
 62
     0
100
AcDbPoint
 10
387.6796385646749
 20
306.3580178206298
 30
0.0
  0
ENDBLK
  5
5F7D
330
5F72
100
AcDbEntity
  8
0
100
AcDbBlockEnd
  0
BLOCK
  5
5F88
330
5F7E
100
AcDbEntity
  8
0
100
AcDbBlockBegin
  2
*D3
 70
     1
 71
     0
 10
0.0
 20
0.0
 30
0.0
  3
*D3
  1

  0
LINE
  5
60C5
330
5F7E
100
AcDbEntity
  8
SUNPOU
 62
     4
100
AcDbLine
 10
414.6144127840186
 20
194.8781170639736
 30
0.0
 11
221.5126991436954
 21
194.8781170639736
 31
0.0
  0
LINE
  5
60C6
330
5F7E
100
AcDbEntity
  8
SUNPOU
 62
     4
100
AcDbLine
 10
245.9128119111426
 20
246.7945644937536
 30
0.0
 11
221.5126991436954
 21
246.7945644937536
 31
0.0
  0
LINE
  5
60C7
330
5F7E
100
AcDbEntity
  8
SUNPOU
 62
     4
100
AcDbLine
 10
224.5126991436955
 20
201.8781170639736
 30
0.0
 11
224.5126991436955
 21
239.7945644937536
 31
0.0
  0
INSERT
  5
60C8
330
5F7E
100
AcDbEntity
  8
SUNPOU
 62
     4
100
AcDbBlockReference
  2
_OPEN
 10
224.5126991436955
 20
194.8781170639736
 30
0.0
 41
7.0
 42
7.0
 43
7.0
 50
270.0
  0
INSERT
  5
60C9
330
5F7E
100
AcDbEntity
  8
SUNPOU
 62
     4
100
AcDbBlockReference
  2
_OPEN
 10
224.5126991436955
 20
246.7945644937536
 30
0.0
 41
7.0
 42
7.0
 43
7.0
 50
90.0
  0
MTEXT
  5
60CA
330
5F7E
100
AcDbEntity
  8
SUNPOU
 62
     4
100
AcDbMText
 10
219.5126991436954
 20
220.8363407788637
 30
0.0
 40
6.0
 41
0.0
 71
     5
 72
     1
  1
\A1;52
 11
1.000000000000000E-16
 21
1.0
 31
0.0
 73
     1
 44
1.0
  0
POINT
  5
60CB
330
5F7E
100
AcDbEntity
  8
DEFPOINTS
 62
     0
100
AcDbPoint
 10
420.6144127840186
 20
194.8781170639736
 30
0.0
  0
POINT
  5
60CC
330
5F7E
100
AcDbEntity
  8
DEFPOINTS
 62
     0
100
AcDbPoint
 10
251.9128119111426
 20
246.7945644937536
 30
0.0
  0
POINT
  5
60CD
330
5F7E
100
AcDbEntity
  8
DEFPOINTS
 62
     0
100
AcDbPoint
 10
224.5126991436955
 20
246.7945644937536
 30
0.0
  0
ENDBLK
  5
5F89
330
5F7E
100
AcDbEntity
  8
0
100
AcDbBlockEnd
  0
BLOCK
  5
5F96
330
5F8A
100
AcDbEntity
  8
0
100
AcDbBlockBegin
  2
*D4
 70
     1
 71
     0
 10
0.0
 20
0.0
 30
0.0
  3
*D4
  1

  0
LINE
  5
6096
330
5F8A
100
AcDbEntity
  8
SUNPOU
 62
     4
100
AcDbLine
 10
424.9876448268786
 20
190.504888974118
 30
0.0
 11
438.4795652714879
 21
168.0183548997702
 31
0.0
  0
LINE
  5
6097
330
5F8A
100
AcDbEntity
  8
SUNPOU
 62
     4
100
AcDbLine
 10
423.7013983636272
 20
189.7331410961671
 30
0.0
 11
437.1933188082364
 21
167.2466070218193
 31
0.0
  0
LINE
  5
6098
330
5F8A
100
AcDbEntity
  8
SUNPOU
 62
     4
100
AcDbLine
 10
442.9385284851931
 20
174.1923039649007
 30
0.0
 11
448.9409789651809
 21
177.7937742528935
 31
0.0
  0
LINE
  5
6099
330
5F8A
100
AcDbEntity
  8
SUNPOU
 62
     4
100
AcDbLine
 10
429.6473810619661
 20
166.2176155109641
 30
0.0
 11
406.4950720677277
 21
152.3262301144204
 31
0.0
  0
LINE
  5
609A
330
5F8A
100
AcDbEntity
  8
SUNPOU
 62
     4
100
AcDbLine
 10
436.9360780052053
 20
170.5908336769079
 30
0.0
 11
435.6498315419538
 21
169.8190857989569
 31
0.0
  0
INSERT
  5
609B
330
5F8A
100
AcDbEntity
  8
SUNPOU
 62
     4
100
AcDbBlockReference
  2
_OPEN
 10
436.9360780052053
 20
170.5908336769079
 30
0.0
 41
7.0
 42
7.0
 43
7.0
 50
210.9637565320746
  0
INSERT
  5
609C
330
5F8A
100
AcDbEntity
  8
SUNPOU
 62
     4
100
AcDbBlockReference
  2
_OPEN
 10
435.6498315419538
 20
169.8190857989569
 30
0.0
 41
7.0
 42
7.0
 43
7.0
 50
30.96375653207463
  0
MTEXT
  5
609D
330
5F8A
100
AcDbEntity
  8
SUNPOU
 62
     4
100
AcDbMText
 10
412.4975225477153
 20
161.7586522972585
 30
0.0
 40
6.0
 41
0.0
 71
     5
 72
     1
  1
\A1;t1.5
 11
0.8574929257125342
 21
0.5144957554275433
 31
0.0
 73
     1
 44
1.0
  0
POINT
  5
609E
330
5F8A
100
AcDbEntity
  8
DEFPOINTS
 62
     0
100
AcDbPoint
 10
421.9006702943133
 20
195.6498465283932
 30
0.0
  0
POINT
  5
609F
330
5F8A
100
AcDbEntity
  8
DEFPOINTS
 62
     0
100
AcDbPoint
 10
420.6144238310619
 20
194.8780986504423
 30
0.0
  0
POINT
  5
60A0
330
5F8A
100
AcDbEntity
  8
DEFPOINTS
 62
     0
100
AcDbPoint
 10
435.6498315419538
 20
169.8190857989569
 30
0.0
  0
ENDBLK
  5
5F97
330
5F8A
100
AcDbEntity
  8
0
100
AcDbBlockEnd
  0
BLOCK
  5
5FA2
330
5F98
100
AcDbEntity
  8
0
100
AcDbBlockBegin
  2
*D5
 70
     1
 71
     0
 10
0.0
 20
0.0
 30
0.0
  3
*D5
  1

  0
LINE
  5
608D
330
5F98
100
AcDbEntity
  8
SUNPOU
 62
     4
100
AcDbLine
 10
409.6357480352972
 20
430.4474441180455
 30
0.0
 11
452.0479333259313
 21
430.4474441180455
 31
0.0
  0
LINE
  5
608E
330
5F98
100
AcDbEntity
  8
SUNPOU
 62
     4
100
AcDbLine
 10
409.6356480352972
 20
375.4474441180457
 30
0.0
 11
452.0479333259313
 21
375.4474441180457
 31
0.0
  0
LINE
  5
608F
330
5F98
100
AcDbEntity
  8
SUNPOU
 62
     4
100
AcDbLine
 10
449.0479333259314
 20
423.4474441180455
 30
0.0
 11
449.0479333259313
 21
382.4474441180457
 31
0.0
  0
INSERT
  5
6090
330
5F98
100
AcDbEntity
  8
SUNPOU
 62
     4
100
AcDbBlockReference
  2
_OPEN
 10
449.0479333259314
 20
430.4474441180455
 30
0.0
 41
7.0
 42
7.0
 43
7.0
 50
90.0
  0
INSERT
  5
6091
330
5F98
100
AcDbEntity
  8
SUNPOU
 62
     4
100
AcDbBlockReference
  2
_OPEN
 10
449.0479333259313
 20
375.4474441180457
 30
0.0
 41
7.0
 42
7.0
 43
7.0
 50
270.0
  0
MTEXT
  5
6092
330
5F98
100
AcDbEntity
  8
SUNPOU
 62
     4
100
AcDbMText
 10
444.0479333259312
 20
402.9474441180457
 30
0.0
 40
6.0
 41
0.0
 71
     5
 72
     1
  1
\A1;55
 11
1.000000000000000E-16
 21
1.0
 31
0.0
 73
     1
 44
1.0
  0
POINT
  5
6093
330
5F98
100
AcDbEntity
  8
DEFPOINTS
 62
     0
100
AcDbPoint
 10
403.6357480352972
 20
430.4474441180455
 30
0.0
  0
POINT
  5
6094
330
5F98
100
AcDbEntity
  8
DEFPOINTS
 62
     0
100
AcDbPoint
 10
403.6356480352973
 20
375.4474441180457
 30
0.0
  0
POINT
  5
6095
330
5F98
100
AcDbEntity
  8
DEFPOINTS
 62
     0
100
AcDbPoint
 10
449.0479333259313
 20
375.4474441180457
 30
0.0
  0
ENDBLK
  5
5FA3
330
5F98
100
AcDbEntity
  8
0
100
AcDbBlockEnd
  0
BLOCK
  5
5FAE
330
5FA4
100
AcDbEntity
  8
0
100
AcDbBlockBegin
  2
*D6
 70
     1
 71
     0
 10
0.0
 20
0.0
 30
0.0
  3
*D6
  1

  0
LINE
  5
60B3
330
5FA4
100
AcDbEntity
  8
SUNPOU
  6
Continuous
 62
     4
100
AcDbLine
 10
254.6934202882151
 20
248.2932631972462
 30
0.0
 11
254.6934202882151
 21
309.3580178206298
 31
0.0
  0
LINE
  5
60B4
330
5FA4
100
AcDbEntity
  8
SUNPOU
  6
Continuous
 62
     4
100
AcDbLine
 10
387.6796385646749
 20
258.6903602824065
 30
0.0
 11
387.6796385646749
 21
309.3580178206298
 31
0.0
  0
LINE
  5
60B5
330
5FA4
100
AcDbEntity
  8
SUNPOU
  6
Continuous
 62
     4
100
AcDbLine
 10
261.6934202882152
 20
306.3580178206298
 30
0.0
 11
380.6796385646749
 21
306.3580178206298
 31
0.0
  0
INSERT
  5
60B6
330
5FA4
100
AcDbEntity
  8
SUNPOU
  6
Continuous
 62
     4
100
AcDbBlockReference
  2
_OPEN
 10
254.6934202882151
 20
306.3580178206298
 30
0.0
 41
7.0
 42
7.0
 43
7.0
 50
180.0
  0
INSERT
  5
60B7
330
5FA4
100
AcDbEntity
  8
SUNPOU
  6
Continuous
 62
     4
100
AcDbBlockReference
  2
_OPEN
 10
387.6796385646749
 20
306.3580178206298
 30
0.0
 41
7.0
 42
7.0
 43
7.0
  0
MTEXT
  5
60B8
330
5FA4
100
AcDbEntity
  8
SUNPOU
  6
Continuous
 62
     4
100
AcDbMText
 10
321.186529426445
 20
311.3580178206298
 30
0.0
 40
6.0
 41
0.0
 71
     5
 72
     1
  1
\A1;133
 73
     1
 44
1.0
  0
POINT
  5
60B9
330
5FA4
100
AcDbEntity
  8
DEFPOINTS
  6
Continuous
 62
     0
100
AcDbPoint
 10
254.6934202882151
 20
242.2932631972462
 30
0.0
  0
POINT
  5
60BA
330
5FA4
100
AcDbEntity
  8
DEFPOINTS
  6
Continuous
 62
     0
100
AcDbPoint
 10
387.6796385646749
 20
252.6903602824065
 30
0.0
  0
POINT
  5
60BB
330
5FA4
100
AcDbEntity
  8
DEFPOINTS
  6
Continuous
 62
     0
100
AcDbPoint
 10
387.6796385646749
 20
306.3580178206298
 30
0.0
  0
ENDBLK
  5
5FAF
330
5FA4
100
AcDbEntity
  8
0
100
AcDbBlockEnd
  0
BLOCK
  5
5FBA
330
5FB0
100
AcDbEntity
  8
0
100
AcDbBlockBegin
  2
*D7
 70
     1
 71
     0
 10
0.0
 20
0.0
 30
0.0
  3
*D7
  1

  0
LINE
  5
60AA
330
5FB0
100
AcDbEntity
  8
SUNPOU
  6
Continuous
 62
     4
100
AcDbLine
 10
287.9435202882152
 20
222.7931631972462
 30
0.0
 11
287.9435202882152
 21
294.6014575864603
 31
0.0
  0
LINE
  5
60AB
330
5FB0
100
AcDbEntity
  8
SUNPOU
  6
Continuous
 62
     4
100
AcDbLine
 10
387.6796385646749
 20
258.6903602824065
 30
0.0
 11
387.6796385646749
 21
294.6014575864603
 31
0.0
  0
LINE
  5
60AC
330
5FB0
100
AcDbEntity
  8
SUNPOU
  6
Continuous
 62
     4
100
AcDbLine
 10
294.9435202882152
 20
291.6014575864603
 30
0.0
 11
380.6796385646749
 21
291.6014575864603
 31
0.0
  0
INSERT
  5
60AD
330
5FB0
100
AcDbEntity
  8
SUNPOU
  6
Continuous
 62
     4
100
AcDbBlockReference
  2
_OPEN
 10
287.9435202882152
 20
291.6014575864603
 30
0.0
 41
7.0
 42
7.0
 43
7.0
 50
180.0
  0
INSERT
  5
60AE
330
5FB0
100
AcDbEntity
  8
SUNPOU
  6
Continuous
 62
     4
100
AcDbBlockReference
  2
_OPEN
 10
387.6796385646749
 20
291.6014575864603
 30
0.0
 41
7.0
 42
7.0
 43
7.0
  0
MTEXT
  5
60AF
330
5FB0
100
AcDbEntity
  8
SUNPOU
  6
Continuous
 62
     4
100
AcDbMText
 10
337.811579426445
 20
296.6014575864603
 30
0.0
 40
6.0
 41
0.0
 71
     5
 72
     1
  1
\A1;100
 73
     1
 44
1.0
  0
POINT
  5
60B0
330
5FB0
100
AcDbEntity
  8
DEFPOINTS
  6
Continuous
 62
     0
100
AcDbPoint
 10
287.9435202882152
 20
216.7931631972462
 30
0.0
  0
POINT
  5
60B1
330
5FB0
100
AcDbEntity
  8
DEFPOINTS
  6
Continuous
 62
     0
100
AcDbPoint
 10
387.6796385646749
 20
252.6903602824065
 30
0.0
  0
POINT
  5
60B2
330
5FB0
100
AcDbEntity
  8
DEFPOINTS
  6
Continuous
 62
     0
100
AcDbPoint
 10
387.6796385646749
 20
291.6014575864603
 30
0.0
  0
ENDBLK
  5
5FBB
330
5FB0
100
AcDbEntity
  8
0
100
AcDbBlockEnd
  0
BLOCK
  5
5FC8
330
5FBC
100
AcDbEntity
  8
0
100
AcDbBlockBegin
  2
*D8
 70
     1
 71
     0
 10
0.0
 20
0.0
 30
0.0
  3
*D8
  1

  0
LINE
  5
60CE
330
5FBC
100
AcDbEntity
  8
SUNPOU
  6
Continuous
 62
     4
100
AcDbLine
 10
377.3934202882151
 20
232.0932631972462
 30
0.0
 11
377.3934202882151
 21
280.4103744892909
 31
0.0
  0
LINE
  5
60CF
330
5FBC
100
AcDbEntity
  8
SUNPOU
  6
Continuous
 62
     4
100
AcDbLine
 10
387.6796385646749
 20
258.6903602824065
 30
0.0
 11
387.6796385646749
 21
280.4103744892909
 31
0.0
  0
LINE
  5
60D0
330
5FBC
100
AcDbEntity
  8
SUNPOU
  6
Continuous
 62
     4
100
AcDbLine
 10
370.3934202882151
 20
277.4103744892909
 30
0.0
 11
363.3934202882151
 21
277.4103744892909
 31
0.0
  0
LINE
  5
60D1
330
5FBC
100
AcDbEntity
  8
SUNPOU
  6
Continuous
 62
     4
100
AcDbLine
 10
394.6796385646749
 20
277.4103744892909
 30
0.0
 11
412.6796385646749
 21
277.4103744892909
 31
0.0
  0
LINE
  5
60D2
330
5FBC
100
AcDbEntity
  8
SUNPOU
  6
Continuous
 62
     4
100
AcDbLine
 10
377.3934202882151
 20
277.4103744892909
 30
0.0
 11
387.6796385646749
 21
277.4103744892909
 31
0.0
  0
INSERT
  5
60D3
330
5FBC
100
AcDbEntity
  8
SUNPOU
  6
Continuous
 62
     4
100
AcDbBlockReference
  2
_OPEN
 10
377.3934202882151
 20
277.4103744892909
 30
0.0
 41
7.0
 42
7.0
 43
7.0
  0
INSERT
  5
60D4
330
5FBC
100
AcDbEntity
  8
SUNPOU
  6
Continuous
 62
     4
100
AcDbBlockReference
  2
_OPEN
 10
387.6796385646749
 20
277.4103744892909
 30
0.0
 41
7.0
 42
7.0
 43
7.0
 50
180.0
  0
MTEXT
  5
60D5
330
5FBC
100
AcDbEntity
  8
SUNPOU
  6
Continuous
 62
     4
100
AcDbMText
 10
407.1796385646749
 20
282.4103744892909
 30
0.0
 40
6.0
 41
0.0
 71
     5
 72
     1
  1
\A1;10
 73
     1
 44
1.0
  0
POINT
  5
60D6
330
5FBC
100
AcDbEntity
  8
DEFPOINTS
  6
Continuous
 62
     0
100
AcDbPoint
 10
377.3934202882151
 20
226.0932631972462
 30
0.0
  0
POINT
  5
60D7
330
5FBC
100
AcDbEntity
  8
DEFPOINTS
  6
Continuous
 62
     0
100
AcDbPoint
 10
387.6796385646749
 20
252.6903602824065
 30
0.0
  0
POINT
  5
60D8
330
5FBC
100
AcDbEntity
  8
DEFPOINTS
  6
Continuous
 62
     0
100
AcDbPoint
 10
387.6796385646749
 20
277.4103744892909
 30
0.0
  0
ENDBLK
  5
5FC9
330
5FBC
100
AcDbEntity
  8
0
100
AcDbBlockEnd
  0
BLOCK
  5
5FD6
330
5FCA
100
AcDbEntity
  8
0
100
AcDbBlockBegin
  2
*D9
 70
     1
 71
     0
 10
0.0
 20
0.0
 30
0.0
  3
*D9
  1

  0
LINE
  5
60D9
330
5FCA
100
AcDbEntity
  8
SUNPOU
 62
     4
100
AcDbLine
 10
251.6934480352972
 20
410.4475441180456
 30
0.0
 11
225.7933352678498
 21
410.4475441180456
 31
0.0
  0
LINE
  5
60DA
330
5FCA
100
AcDbEntity
  8
SUNPOU
 62
     4
100
AcDbLine
 10
251.6933984491788
 20
395.4476441182096
 30
0.0
 11
225.7933352678498
 21
395.4476441182096
 31
0.0
  0
LINE
  5
60DB
330
5FCA
100
AcDbEntity
  8
SUNPOU
 62
     4
100
AcDbLine
 10
228.7933352678499
 20
417.4475441180456
 30
0.0
 11
228.7933352678499
 21
424.4475441180456
 31
0.0
  0
LINE
  5
60DC
330
5FCA
100
AcDbEntity
  8
SUNPOU
 62
     4
100
AcDbLine
 10
228.7933352678499
 20
388.4476441182096
 30
0.0
 11
228.7933352678499
 21
381.4476441182096
 31
0.0
  0
LINE
  5
60DD
330
5FCA
100
AcDbEntity
  8
SUNPOU
 62
     4
100
AcDbLine
 10
228.7933352678499
 20
410.4475441180456
 30
0.0
 11
228.7933352678499
 21
395.4476441182096
 31
0.0
  0
INSERT
  5
60DE
330
5FCA
100
AcDbEntity
  8
SUNPOU
 62
     4
100
AcDbBlockReference
  2
_OPEN
 10
228.7933352678499
 20
410.4475441180456
 30
0.0
 41
7.0
 42
7.0
 43
7.0
 50
270.0
  0
INSERT
  5
60DF
330
5FCA
100
AcDbEntity
  8
SUNPOU
 62
     4
100
AcDbBlockReference
  2
_OPEN
 10
228.7933352678499
 20
395.4476441182096
 30
0.0
 41
7.0
 42
7.0
 43
7.0
 50
90.0
  0
MTEXT
  5
60E0
330
5FCA
100
AcDbEntity
  8
SUNPOU
 62
     4
100
AcDbMText
 10
223.7933352678498
 20
402.9475941181276
 30
0.0
 40
6.0
 41
0.0
 71
     5
 72
     1
  1
\A1;15
 11
1.000000000000000E-16
 21
1.0
 31
0.0
 73
     1
 44
1.0
  0
POINT
  5
60E1
330
5FCA
100
AcDbEntity
  8
DEFPOINTS
 62
     0
100
AcDbPoint
 10
257.6934480352973
 20
410.4475441180456
 30
0.0
  0
POINT
  5
60E2
330
5FCA
100
AcDbEntity
  8
DEFPOINTS
 62
     0
100
AcDbPoint
 10
257.6933984491789
 20
395.4476441182096
 30
0.0
  0
POINT
  5
60E3
330
5FCA
100
AcDbEntity
  8
DEFPOINTS
 62
     0
100
AcDbPoint
 10
228.7933352678499
 20
395.4476441182096
 30
0.0
  0
ENDBLK
  5
5FD7
330
5FCA
100
AcDbEntity
  8
0
100
AcDbBlockEnd
  0
BLOCK
  5
5FE2
330
5FD8
100
AcDbEntity
  8
0
100
AcDbBlockBegin
  2
*D10
 70
     1
 71
     0
 10
0.0
 20
0.0
 30
0.0
  3
*D10
  1

  0
LINE
  5
60E4
330
5FD8
100
AcDbEntity
  8
SUNPOU
  6
Continuous
 62
     4
100
AcDbLine
 10
500.4399305835648
 20
318.2556934386307
 30
0.0
 11
480.4409554597157
 21
306.2581538120539
 31
0.0
  0
LINE
  5
60E5
330
5FD8
100
AcDbEntity
  8
SUNPOU
  6
Continuous
 62
     4
100
AcDbLine
 10
513.300884236744
 20
296.8174735881913
 30
0.0
 11
493.3019091128947
 21
284.8199339616146
 31
0.0
  0
LINE
  5
60E6
330
5FD8
100
AcDbEntity
  8
SUNPOU
  6
Continuous
 62
     4
100
AcDbLine
 10
486.6146019540059
 20
301.7987716840527
 30
0.0
 11
492.2734296233159
 21
292.3659415112739
 31
0.0
  0
INSERT
  5
60E7
330
5FD8
100
AcDbEntity
  8
SUNPOU
  6
Continuous
 62
     4
100
AcDbBlockReference
  2
_OPEN
 10
483.0135389620714
 20
307.8014665228829
 30
0.0
 41
7.0
 42
7.0
 43
7.0
 50
120.9598688081828
  0
INSERT
  5
60E8
330
5FD8
100
AcDbEntity
  8
SUNPOU
  6
Continuous
 62
     4
100
AcDbBlockReference
  2
_OPEN
 10
495.8744926152506
 20
286.3632466724437
 30
0.0
 41
7.0
 42
7.0
 43
7.0
 50
300.9598688081828
  0
MTEXT
  5
60E9
330
5FD8
100
AcDbEntity
  8
SUNPOU
  6
Continuous
 62
     4
100
AcDbMText
 10
493.731654959254
 20
299.6545444490452
 30
0.0
 40
6.0
 41
0.0
 71
     5
 72
     1
  1
\A1;25
 11
0.5144375702763664
 21
-0.8575278341186068
 31
0.0
 73
     1
 44
1.0
  0
POINT
  5
60EA
330
5FD8
100
AcDbEntity
  8
DEFPOINTS
  6
Continuous
 62
     0
100
AcDbPoint
 10
505.5850975882765
 20
321.3423188602888
 30
0.0
  0
POINT
  5
60EB
330
5FD8
100
AcDbEntity
  8
DEFPOINTS
  6
Continuous
 62
     0
100
AcDbPoint
 10
518.4460512414556
 20
299.9040990098496
 30
0.0
  0
POINT
  5
60EC
330
5FD8
100
AcDbEntity
  8
DEFPOINTS
  6
Continuous
 62
     0
100
AcDbPoint
 10
495.8744926152506
 20
286.3632466724437
 30
0.0
  0
ENDBLK
  5
5FE3
330
5FD8
100
AcDbEntity
  8
0
100
AcDbBlockEnd
  0
BLOCK
  5
5FF0
330
5FE4
100
AcDbEntity
  8
0
100
AcDbBlockBegin
  2
*D11
 70
     1
 71
     0
 10
0.0
 20
0.0
 30
0.0
  3
*D11
  1

  0
LINE
  5
60ED
330
5FE4
100
AcDbEntity
  8
SUNPOU
 62
     4
100
AcDbLine
 10
550.3513543898558
 20
279.3955518771384
 30
0.0
 11
522.9881108222813
 21
262.980045534588
 31
0.0
  0
LINE
  5
60EE
330
5FE4
100
AcDbEntity
  8
SUNPOU
 62
     4
100
AcDbLine
 10
558.2319520456369
 20
275.3771559893997
 30
0.0
 11
526.8463932160244
 21
256.548619132661
 31
0.0
  0
LINE
  5
60EF
330
5FE4
100
AcDbEntity
  8
SUNPOU
 62
     4
100
AcDbLine
 10
521.9596140543916
 20
270.5260507292881
 30
0.0
 11
518.358537317921
 21
276.5287373226436
 31
0.0
  0
LINE
  5
60F0
330
5FE4
100
AcDbEntity
  8
SUNPOU
 62
     4
100
AcDbLine
 10
533.020049921076
 20
252.08925114065
 30
0.0
 11
544.8521591980506
 21
232.3661380481961
 31
0.0
  0
LINE
  5
60F1
330
5FE4
100
AcDbEntity
  8
SUNPOU
 62
     4
100
AcDbLine
 10
525.5606907908624
 20
264.5233641359325
 30
0.0
 11
529.4189731846054
 21
258.0919377340056
 31
0.0
  0
INSERT
  5
60F2
330
5FE4
100
AcDbEntity
  8
SUNPOU
 62
     4
100
AcDbBlockReference
  2
_OPEN
 10
525.5606907908624
 20
264.5233641359325
 30
0.0
 41
7.0
 42
7.0
 43
7.0
 50
300.9600000000002
  0
INSERT
  5
60F3
330
5FE4
100
AcDbEntity
  8
SUNPOU
 62
     4
100
AcDbBlockReference
  2
_OPEN
 10
529.4189731846054
 20
258.0919377340056
 30
0.0
 41
7.0
 42
7.0
 43
7.0
 50
120.9600000000002
  0
MTEXT
  5
60F4
330
5FE4
100
AcDbEntity
  8
SUNPOU
 62
     4
100
AcDbMText
 10
545.0242762087668
 20
241.7985489666528
 30
0.0
 40
6.0
 41
0.0
 71
     5
 72
     1
  1
\A1;7.5
 11
0.5144395337815098
 21
-0.8575266561936503
 31
0.0
 73
     1
 44
1.0
  0
POINT
  5
60F5
330
5FE4
100
AcDbEntity
  8
DEFPOINTS
 62
     0
100
AcDbPoint
 10
555.4965143270176
 20
282.4821890798275
 30
0.0
  0
POINT
  5
60F6
330
5FE4
100
AcDbEntity
  8
DEFPOINTS
 62
     0
100
AcDbPoint
 10
563.3771119827987
 20
278.4637931920888
 30
0.0
  0
POINT
  5
60F7
330
5FE4
100
AcDbEntity
  8
DEFPOINTS
 62
     0
100
AcDbPoint
 10
529.4189731846054
 20
258.0919377340056
 30
0.0
  0
ENDBLK
  5
5FF1
330
5FE4
100
AcDbEntity
  8
0
100
AcDbBlockEnd
  0
BLOCK
  5
5FFC
330
5FF2
100
AcDbEntity
  8
0
100
AcDbBlockBegin
  2
*D12
 70
     1
 71
     0
 10
0.0
 20
0.0
 30
0.0
  3
*D12
  1

  0
LINE
  5
60F8
330
5FF2
100
AcDbEntity
  8
SUNPOU
 62
     4
100
AcDbLine
 10
507.6427195790473
 20
317.9122200364285
 30
0.0
 11
480.642718268827
 21
362.9189104643272
 31
0.0
  0
LINE
  5
60F9
330
5FF2
100
AcDbEntity
  8
SUNPOU
 62
     4
100
AcDbLine
 10
554.8068583298571
 20
346.2062554415924
 30
0.0
 11
527.8067500270387
 21
391.213124216992
 31
0.0
  0
LINE
  5
60FA
330
5FF2
100
AcDbEntity
  8
SUNPOU
 62
     4
100
AcDbLine
 10
488.1887234635271
 20
363.9474072322169
 30
0.0
 11
523.3473820350275
 21
385.0394675119405
 31
0.0
  0
INSERT
  5
60FB
330
5FF2
100
AcDbEntity
  8
SUNPOU
 62
     4
100
AcDbBlockReference
  2
_OPEN
 10
482.1860368701717
 20
360.3463304957463
 30
0.0
 41
7.0
 42
7.0
 43
7.0
 50
210.9600000000006
  0
INSERT
  5
60FC
330
5FF2
100
AcDbEntity
  8
SUNPOU
 62
     4
100
AcDbBlockReference
  2
_OPEN
 10
529.350068628383
 20
388.6405442484111
 30
0.0
 41
7.0
 42
7.0
 43
7.0
 50
30.96000000000064
  0
MTEXT
  5
60FD
330
5FF2
100
AcDbEntity
  8
SUNPOU
 62
     4
100
AcDbMText
 10
503.1958550803697
 20
378.781070653047
 30
0.0
 40
6.0
 41
0.0
 71
     5
 72
     1
  1
\A1;55
 11
0.8575266561936464
 21
0.5144395337815161
 31
0.0
 73
     1
 44
1.0
  0
POINT
  5
60FE
330
5FF2
100
AcDbEntity
  8
DEFPOINTS
 62
     0
100
AcDbPoint
 10
510.7293567817364
 20
312.7670600992666
 30
0.0
  0
POINT
  5
60FF
330
5FF2
100
AcDbEntity
  8
DEFPOINTS
 62
     0
100
AcDbPoint
 10
557.8934955325461
 20
341.0610955044306
 30
0.0
  0
POINT
  5
6100
330
5FF2
100
AcDbEntity
  8
DEFPOINTS
 62
     0
100
AcDbPoint
 10
529.350068628383
 20
388.6405442484111
 30
0.0
  0
ENDBLK
  5
5FFD
330
5FF2
100
AcDbEntity
  8
0
100
AcDbBlockEnd
  0
BLOCK
  5
6008
330
5FFE
100
AcDbEntity
  8
0
100
AcDbBlockBegin
  2
*D13
 70
     1
 71
     0
 10
0.0
 20
0.0
 30
0.0
  3
*D13
  1

  0
LINE
  5
6101
330
5FFE
100
AcDbEntity
  8
SUNPOU
 62
     4
100
AcDbLine
 10
521.6380106868206
 20
310.1342802655482
 30
0.0
 11
498.6794064138378
 21
348.4043078592001
 31
0.0
  0
LINE
  5
6102
330
5FFE
100
AcDbEntity
  8
SUNPOU
 62
     4
100
AcDbLine
 10
555.0815863142154
 20
330.1974208926402
 30
0.0
 11
532.1229719792839
 21
368.4674652586995
 31
0.0
  0
LINE
  5
6103
330
5FFE
100
AcDbEntity
  8
SUNPOU
 62
     4
100
AcDbLine
 10
506.2254116085379
 20
349.4328046270899
 30
0.0
 11
527.6636039872728
 21
362.293808553648
 31
0.0
  0
INSERT
  5
6104
330
5FFE
100
AcDbEntity
  8
SUNPOU
 62
     4
100
AcDbBlockReference
  2
_OPEN
 10
500.2227250151825
 20
345.8317278906192
 30
0.0
 41
7.0
 42
7.0
 43
7.0
 50
210.9600000000006
  0
INSERT
  5
6105
330
5FFE
100
AcDbEntity
  8
SUNPOU
 62
     4
100
AcDbBlockReference
  2
_OPEN
 10
533.6662905806282
 20
365.8948852901186
 30
0.0
 41
7.0
 42
7.0
 43
7.0
 50
30.96000000000064
  0
MTEXT
  5
6106
330
5FFE
100
AcDbEntity
  8
SUNPOU
 62
     4
100
AcDbMText
 10
514.3723101289977
 20
360.1509398713373
 30
0.0
 40
6.0
 41
0.0
 71
     5
 72
     1
  1
\A1;39
 11
0.8575266561936464
 21
0.5144395337815161
 31
0.0
 73
     1
 44
1.0
  0
POINT
  5
6107
330
5FFE
100
AcDbEntity
  8
DEFPOINTS
 62
     0
100
AcDbPoint
 10
524.7246478895097
 20
304.9891203283863
 30
0.0
  0
POINT
  5
6108
330
5FFE
100
AcDbEntity
  8
DEFPOINTS
 62
     0
100
AcDbPoint
 10
558.1682235169046
 20
325.0522609554784
 30
0.0
  0
POINT
  5
6109
330
5FFE
100
AcDbEntity
  8
DEFPOINTS
 62
     0
100
AcDbPoint
 10
533.6662905806282
 20
365.8948852901186
 30
0.0
  0
ENDBLK
  5
6009
330
5FFE
100
AcDbEntity
  8
0
100
AcDbBlockEnd
  0
ENDSEC
  0
SECTION
  2
ENTITIES
  0
LINE
  5
3EF3
330
1A
100
AcDbEntity
  8
ZUWAKU
100
AcDbLine
 10
208.646601303624
 20
15.19999986828872
 30
0.0
 11
447.4243639845474
 21
15.19999986828871
 31
0.0
  0
LINE
  5
3EF4
330
1A
100
AcDbEntity
  8
ZUWAKU
100
AcDbLine
 10
208.646601303624
 20
15.59999986828871
 30
0.0
 11
447.4243639845474
 21
15.59999986828872
 31
0.0
  0
LINE
  5
3EF5
330
1A
100
AcDbEntity
  8
ZUWAKU
100
AcDbLine
 10
208.646601303624
 20
15.39999986828871
 30
0.0
 11
447.4243639845474
 21
15.39999986828871
 31
0.0
  0
LINE
  5
3EF6
330
1A
100
AcDbEntity
  8
ZUWAKU
100
AcDbLine
 10
0.0000000135560185
 20
30.79999986828869
 30
0.0
 11
797.4000000135559
 21
30.79999986828869
 31
0.0
  0
LINE
  5
3EF7
330
1A
100
AcDbEntity
  8
ZUWAKU
100
AcDbLine
 10
0.0000000135560185
 20
30.5999998682887
 30
0.0
 11
797.4000000135559
 21
30.5999998682887
 31
0.0
  0
LINE
  5
3EF8
330
1A
100
AcDbEntity
  8
ZUWAKU
100
AcDbLine
 10
0.0000000135560185
 20
30.39999986828869
 30
0.0
 11
797.4000000135559
 21
30.39999986828869
 31
0.0
  0
LINE
  5
3EF9
330
1A
100
AcDbEntity
  8
ZUWAKU
100
AcDbLine
 10
0.0000000135560185
 20
30.19999986828868
 30
0.0
 11
797.4000000135559
 21
30.19999986828868
 31
0.0
  0
LINE
  5
3EFA
330
1A
100
AcDbEntity
  8
ZUWAKU
100
AcDbLine
 10
0.0000000135560185
 20
29.99999986828868
 30
0.0
 11
797.4000000135559
 21
29.99999986828868
 31
0.0
  0
LWPOLYLINE
  5
3EFB
330
1A
100
AcDbEntity
  8
ZUWAKU
100
AcDbPolyline
 90
        4
 70
     1
 43
0.0
 10
0.2000000135559503
 20
551.3999998682887
 10
0.2000000135559503
 20
0.1999998682887281
 10
797.4000000135559
 20
0.1999998682887511
 10
797.4000000135561
 20
551.3999998682887
  0
LWPOLYLINE
  5
3EFC
330
1A
100
AcDbEntity
  8
ZUWAKU
100
AcDbPolyline
 90
        4
 70
     1
 43
0.0
 10
0.6000000135559276
 20
550.9999998682888
 10
0.6000000135559276
 20
0.5999998682887054
 10
797.0000000135563
 20
0.5999998682887516
 10
797.000000013556
 20
550.9999998682888
  0
LWPOLYLINE
  5
3EFD
330
1A
100
AcDbEntity
  8
ZUWAKU
100
AcDbPolyline
 90
        4
 70
     1
 43
0.0
 10
0.0000000135560185
 20
551.5999998682887
 10
0.0000000135560185
 20
-0.0000001317113174
 10
797.600000013556
 20
-0.0000001317112499
 10
797.600000013556
 20
551.5999998682888
  0
LWPOLYLINE
  5
3EFE
330
1A
100
AcDbEntity
  8
ZUWAKU
100
AcDbPolyline
 90
        4
 70
     1
 43
0.0
 10
0.4000000135559958
 20
551.1999998682886
 10
0.4000000135559958
 20
0.3999998682887735
 10
797.2000000135561
 20
0.3999998682887504
 10
797.2000000135561
 20
551.1999998682886
  0
LWPOLYLINE
  5
3EFF
330
1A
100
AcDbEntity
  8
ZUWAKU
100
AcDbPolyline
 90
        4
 70
     1
 43
0.0
 10
0.8000000135559731
 20
550.7999998682886
 10
0.8000000135559731
 20
0.7999998682887508
 10
796.8000000135559
 20
0.7999998682887508
 10
796.8000000135559
 20
550.7999998682886
  0
TEXT
  5
3F00
330
1A
100
AcDbEntity
  8
MOJI
100
AcDbText
 10
92.95778960172515
 20
12.74117799856344
 30
0.0
 40
6.0
  1
アーバントップΣ９０
 41
0.9
  7
ｽﾀｲﾙ1
100
AcDbText
  0
HATCH
  5
3F01
330
1A
100
AcDbEntity
  8
ZUWAKU
100
AcDbHatch
 10
0.0
 20
0.0
 30
0.0
210
0.0
220
0.0
230
1.0
  2
ANSI37
 70
     0
 71
     0
 91
        8
 92
        7
 72
     1
 73
     1
 93
       24
 10
14.50226267467587
 20
17.64484834927226
 42
-0.1989123673796348
 10
14.09221216833714
 20
18.63479784293331
 42
0.0
 10
14.09221216833714
 20
19.92499986828869
 42
-0.4142135623730912
 10
14.61721216833711
 20
20.44999986828868
 42
0.0
 10
17.59221216833702
 20
20.44999986828868
 42
0.4142135623731546
 10
18.11721216833712
 20
20.97499986828867
 42
0.0
 10
18.11721216833712
 20
22.7249998682887
 42
0.4142135623731586
 10
17.59221216833702
 20
23.24999986828868
 42
0.0
 10
14.09221216833714
 20
23.24999986828868
 42
0.4142135623730928
 10
11.29221216833718
 20
20.44999986828871
 42
0.0
 10
11.29221216833718
 20
18.63479784293344
 42
0.1989123673796619
 10
12.52236368735361
 20
15.66494936194983
 42
0.0
 10
15.43216166199829
 20
12.75515138730518
 42
-0.1989123673796613
 10
15.84221216833714
 20
11.76520189364399
 42
0.0
 10
15.84221216833714
 20
10.47499986828867
 42
-0.4142135623730911
 10
15.31721216833716
 20
9.949999868288684
 42
0.0
 10
12.34221216833725
 20
9.949999868288684
 42
0.4142135623731526
 10
11.81721216833716
 20
9.424999868288696
 42
0.0
 10
11.81721216833716
 20
7.674999868288675
 42
0.4142135623731526
 10
12.34221216833725
 20
7.149999868288687
 42
0.0
 10
15.84221216833714
 20
7.149999868288687
 42
0.4142135623731044
 10
18.64221216833721
 20
9.949999868288664
 42
0.0
 10
18.64221216833721
 20
11.76520189364393
 42
0.1989123673796604
 10
17.41206064932066
 20
14.73505037462747
 42
0.0
 97
        0
 92
        7
 72
     1
 73
     1
 93
       16
 10
23.54221216833718
 20
19.04999986828869
 42
-0.4142135623730935
 10
24.94221216833716
 20
20.44999986828868
 42
0.0
 10
26.86721216833712
 20
20.44999986828868
 42
0.4142135623731546
 10
27.39221216833721
 20
20.97499986828867
 42
0.0
 10
27.39221216833721
 20
22.7249998682887
 42
0.4142135623730951
 10
26.86721216833723
 20
23.24999986828868
 42
0.0
 10
24.94221216833705
 20
23.24999986828864
 42
0.4142135623730892
 10
20.74221216833711
 20
19.04999986828862
 42
0.0
 10
20.74221216833711
 20
11.34999986828871
 42
0.4142135623730969
 10
24.94221216833716
 20
7.149999868288687
 42
0.0
 10
26.86721216833712
 20
7.149999868288687
 42
0.4142135623731526
 10
27.39221216833721
 20
7.674999868288675
 42
0.0
 10
27.39221216833721
 20
9.424999868288696
 42
0.4142135623730891
 10
26.86721216833723
 20
9.949999868288684
 42
0.0
 10
24.94221216833716
 20
9.949999868288684
 42
-0.4142135623730928
 10
23.54221216833718
 20
11.34999986828867
 42
0.0
 97
        0
 92
        7
 72
     1
 73
     1
 93
        2
 10
24.24221216833712
 20
15.19999986828868
 42
1.0
 10
27.74221216833712
 20
15.19999986828868
 42
1.0
 97
        0
 92
        7
 72
     1
 73
     1
 93
       26
 10
37.31485865051513
 20
19.20504706185211
 42
0.0
 10
38.37649828365296
 20
22.5669059001217
 42
0.5069206636600134
 10
37.87586738445759
 20
23.24999986828868
 42
0.0
 10
36.17697800484836
 20
23.24999986828868
 42
0.3272098845218764
 10
35.676347105653
 20
22.88309383645565
 42
0.0
 10
33.80807723102122
 20
16.96690590012176
 42
-0.3272098845219541
 10
33.30744633182575
 20
16.59999986828868
 42
0.0
 10
33.1672121683373
 20
16.59999986828868
 42
-0.4142135623731526
 10
32.64221216833721
 20
17.12499986828867
 42
0.0
 10
32.64221216833721
 20
22.7249998682887
 42
0.4142135623730951
 10
32.11721216833723
 20
23.24999986828868
 42
0.0
 10
30.36721216833711
 20
23.24999986828868
 42
0.4142135623730871
 10
29.84221216833714
 20
22.7249998682887
 42
0.0
 10
29.84221216833714
 20
7.674999868288675
 42
0.4142135623730891
 10
30.36721216833711
 20
7.149999868288687
 42
0.0
 10
32.11721216833712
 20
7.149999868288687
 42
0.4142135623731526
 10
32.64221216833721
 20
7.674999868288675
 42
0.0
 10
32.64221216833721
 20
13.27499986828869
 42
-0.4142135623731526
 10
33.1672121683373
 20
13.79999986828868
 42
0.0
 10
33.30744633182587
 20
13.79999986828868
 42
-0.3272098845218915
 10
33.80807723102122
 20
13.43309383645561
 42
0.0
 10
35.676347105653
 20
7.516905900121759
 42
0.3272098845218902
 10
36.17697800484836
 20
7.149999868288687
 42
0.0
 10
37.87586738445759
 20
7.149999868288687
 42
0.5069206636600335
 10
38.37649828365296
 20
7.833093836455696
 42
0.0
 10
36.05010690517929
 20
15.19999986828882
 42
0.0
 97
        0
 92
        7
 72
     1
 73
     1
 93
        8
 10
43.49221216833711
 20
22.7249998682887
 42
0.4142135623731546
 10
42.96721216833702
 20
23.24999986828868
 42
0.0
 10
41.21721216833726
 20
23.24999986828868
 42
0.4142135623731507
 10
40.69221216833716
 20
22.7249998682887
 42
0.0
 10
40.69221216833716
 20
7.674999868288675
 42
0.4142135623731526
 10
41.21721216833726
 20
7.149999868288687
 42
0.0
 10
42.96721216833702
 20
7.149999868288687
 42
0.4142135623731526
 10
43.49221216833711
 20
7.674999868288675
 42
0.0
 97
        0
 92
        7
 72
     1
 73
     1
 93
       24
 10
48.3922121683372
 20
19.92499986828869
 42
-0.4142135623731546
 10
48.9172121683373
 20
20.44999986828868
 42
0.0
 10
51.89221216833721
 20
20.44999986828868
 42
0.4142135623730911
 10
52.41721216833718
 20
20.97499986828867
 42
0.0
 10
52.41721216833718
 20
22.7249998682887
 42
0.4142135623730952
 10
51.89221216833721
 20
23.24999986828868
 42
0.0
 10
48.3922121683372
 20
23.24999986828868
 42
0.4142135623731048
 10
45.59221216833714
 20
20.44999986828871
 42
0.0
 10
45.59221216833714
 20
18.63479784293344
 42
0.1989123673796613
 10
46.82236368735368
 20
15.66494936194989
 42
0.0
 10
49.73216166199835
 20
12.75515138730522
 42
-0.1989123673796402
 10
50.14221216833721
 20
11.76520189364415
 42
0.0
 10
50.14221216833721
 20
10.47499986828867
 42
-0.4142135623730911
 10
49.61721216833723
 20
9.949999868288684
 42
0.0
 10
46.64221216833721
 20
9.949999868288684
 42
0.4142135623731526
 10
46.11721216833712
 20
9.424999868288696
 42
0.0
 10
46.11721216833712
 20
7.674999868288675
 42
0.4142135623730891
 10
46.6422121683371
 20
7.149999868288687
 42
0.0
 10
50.14221216833721
 20
7.149999868288687
 42
0.4142135623730925
 10
52.94221216833716
 20
9.949999868288664
 42
0.0
 10
52.94221216833716
 20
11.76520189364393
 42
0.1989123673796675
 10
51.71206064932062
 20
14.73505037462759
 42
0.0
 10
48.80226267467604
 20
17.6448483492721
 42
-0.1989123673796652
 10
48.3922121683372
 20
18.63479784293327
 42
0.0
 97
        0
 92
        7
 72
     1
 73
     1
 93
       16
 10
57.84221216833714
 20
22.72499986828867
 42
0.414213562373103
 10
57.31721216833716
 20
23.24999986828868
 42
0.0
 10
55.56721216833716
 20
23.24999986828868
 42
0.4142135623730871
 10
55.04221216833718
 20
22.7249998682887
 42
0.0
 10
55.04221216833718
 20
9.949999868288664
 42
0.4142135623730926
 10
57.84221216833714
 20
7.149999868288687
 42
0.0
 10
61.34221216833714
 20
7.149999868288687
 42
0.4142135623731044
 10
64.14221216833721
 20
9.949999868288664
 42
0.0
 10
64.14221216833721
 20
22.7249998682887
 42
0.4142135623730951
 10
63.61721216833723
 20
23.24999986828868
 42
0.0
 10
61.86721216833712
 20
23.24999986828868
 42
0.4142135623730871
 10
61.34221216833714
 20
22.7249998682887
 42
0.0
 10
61.34221216833714
 20
10.99999986828866
 42
-0.4142135623730879
 10
60.29221216833718
 20
9.949999868288684
 42
0.0
 10
58.89221216833721
 20
9.949999868288684
 42
-0.4142135623731197
 10
57.84221216833714
 20
10.99999986828866
 42
0.0
 97
        0
 92
        7
 72
     1
 73
     1
 93
        8
 10
69.04221216833719
 20
22.7249998682887
 42
0.4142135623730871
 10
68.51721216833721
 20
23.24999986828868
 42
0.0
 10
66.76721216833721
 20
23.24999986828868
 42
0.4142135623731507
 10
66.24221216833712
 20
22.7249998682887
 42
0.0
 10
66.24221216833712
 20
7.674999868288675
 42
0.4142135623730891
 10
66.7672121683371
 20
7.149999868288687
 42
0.0
 10
68.51721216833721
 20
7.149999868288687
 42
0.4142135623730891
 10
69.04221216833719
 20
7.674999868288675
 42
0.0
 97
        0
 75
     0
 76
     1
 52
0.0
 41
0.2
 77
     0
 78
     2
 53
45.0
 43
-900.9423043211231
 44
-13.20000013171124
 45
-0.4490128060534576
 46
0.4490128060534577
 79
     0
 53
135.0
 43
-900.9423043211231
 44
-13.20000013171124
 45
-0.4490128060534577
 46
-0.4490128060534576
 79
     0
 47
0.057451373970553
 98
        8
 10
16.07985497657932
 20
15.16717351417423
 10
22.4045150199952
 20
18.84406205073969
 10
25.16436789921567
 20
15.5118815143594
 10
30.91405999519315
 20
16.20129751473018
 10
41.83847203251275
 20
16.6609097822718
 10
46.89820090868557
 20
19.41857618469589
 10
56.55768598595636
 20
18.72915778338369
 10
67.82707963317876
 20
19.18877005092531
  0
LINE
  5
3F02
330
1A
100
AcDbEntity
  8
ZUWAKU
100
AcDbLine
 10
24.94221216833716
 20
23.24999986828864
 30
0.0
 11
26.86721216833712
 21
23.24999986828868
 31
0.0
  0
LINE
  5
3F03
330
1A
100
AcDbEntity
  8
ZUWAKU
100
AcDbLine
 10
26.86721216833712
 20
20.44999986828868
 30
0.0
 11
24.94221216833716
 21
20.44999986828868
 31
0.0
  0
LINE
  5
3F04
330
1A
100
AcDbEntity
  8
ZUWAKU
100
AcDbLine
 10
24.94221216833716
 20
9.949999868288684
 30
0.0
 11
26.86721216833712
 21
9.949999868288684
 31
0.0
  0
LINE
  5
3F05
330
1A
100
AcDbEntity
  8
ZUWAKU
100
AcDbLine
 10
26.86721216833712
 20
7.149999868288687
 30
0.0
 11
24.94221216833716
 21
7.149999868288687
 31
0.0
  0
CIRCLE
  5
3F06
330
1A
100
AcDbEntity
  8
ZUWAKU
100
AcDbCircle
 10
25.99221216833711
 20
15.19999986828868
 30
0.0
 40
1.75
  0
ARC
  5
3F07
330
1A
100
AcDbEntity
  8
ZUWAKU
100
AcDbCircle
 10
15.49221216833712
 20
18.63479784293338
 30
0.0
 40
1.399999999999999
100
AcDbArc
 50
180.0000000000016
 51
224.9999999999988
  0
LINE
  5
3F08
330
1A
100
AcDbEntity
  8
ZUWAKU
100
AcDbLine
 10
23.54221216833718
 20
19.04999986828868
 30
0.0
 11
23.54221216833718
 21
11.34999986828869
 31
0.0
  0
LINE
  5
3F09
330
1A
100
AcDbEntity
  8
ZUWAKU
100
AcDbLine
 10
20.74221216833711
 20
11.34999986828869
 30
0.0
 11
20.74221216833711
 21
19.04999986828864
 31
0.0
  0
ARC
  5
3F0A
330
1A
100
AcDbEntity
  8
ZUWAKU
100
AcDbCircle
 10
15.49221216833712
 20
18.63479784293338
 30
0.0
 40
4.199999999999998
100
AcDbArc
 50
180.0
 51
225.0
  0
ARC
  5
3F0B
330
1A
100
AcDbEntity
  8
ZUWAKU
100
AcDbCircle
 10
15.84221216833714
 20
9.949999868288684
 30
0.0
 40
2.799999999999999
100
AcDbArc
 50
270.0
 51
0.0
  0
ARC
  5
3F0C
330
1A
100
AcDbEntity
  8
ZUWAKU
100
AcDbCircle
 10
24.94221216833716
 20
11.34999986828869
 30
0.0
 40
4.199999999999998
100
AcDbArc
 50
180.0
 51
270.0
  0
ARC
  5
3F0D
330
1A
100
AcDbEntity
  8
ZUWAKU
100
AcDbCircle
 10
14.44221216833716
 20
11.76520189364399
 30
0.0
 40
4.199999999999998
100
AcDbArc
 50
0.0
 51
45.0
  0
LINE
  5
3F0E
330
1A
100
AcDbEntity
  8
ZUWAKU
100
AcDbLine
 10
17.41206064932066
 20
14.73505037462751
 30
0.0
 11
14.50226267467598
 21
17.64484834927218
 31
0.0
  0
LINE
  5
3F0F
330
1A
100
AcDbEntity
  8
ZUWAKU
100
AcDbLine
 10
15.84221216833714
 20
10.47499986828869
 30
0.0
 11
15.84221216833714
 21
11.76520189364403
 31
0.0
  0
ARC
  5
3F10
330
1A
100
AcDbEntity
  8
ZUWAKU
100
AcDbCircle
 10
15.31721216833716
 20
10.47499986828869
 30
0.0
 40
0.525
100
AcDbArc
 50
270.0
 51
0.0
  0
ARC
  5
3F11
330
1A
100
AcDbEntity
  8
ZUWAKU
100
AcDbCircle
 10
14.44221216833716
 20
11.76520189364403
 30
0.0
 40
1.399999999999999
100
AcDbArc
 50
0.0
 51
45.0
  0
LINE
  5
3F12
330
1A
100
AcDbEntity
  8
ZUWAKU
100
AcDbLine
 10
11.81721216833716
 20
7.674999868288686
 30
0.0
 11
11.81721216833716
 21
9.424999868288685
 31
0.0
  0
ARC
  5
3F13
330
1A
100
AcDbEntity
  8
ZUWAKU
100
AcDbCircle
 10
12.34221216833714
 20
7.674999868288686
 30
0.0
 40
0.525
100
AcDbArc
 50
180.0
 51
270.0
  0
ARC
  5
3F14
330
1A
100
AcDbEntity
  8
ZUWAKU
100
AcDbCircle
 10
12.34221216833714
 20
9.424999868288685
 30
0.0
 40
0.525
100
AcDbArc
 50
90.0
 51
180.0
  0
LINE
  5
3F15
330
1A
100
AcDbEntity
  8
ZUWAKU
100
AcDbLine
 10
12.34221216833714
 20
7.149999868288687
 30
0.0
 11
15.84221216833714
 21
7.149999868288687
 31
0.0
  0
LINE
  5
3F16
330
1A
100
AcDbEntity
  8
ZUWAKU
100
AcDbLine
 10
12.34221216833714
 20
9.949999868288684
 30
0.0
 11
15.31721216833716
 21
9.949999868288684
 31
0.0
  0
LINE
  5
3F17
330
1A
100
AcDbEntity
  8
ZUWAKU
100
AcDbLine
 10
12.52236368735361
 20
15.66494936194986
 30
0.0
 11
15.43216166199829
 21
12.7551513873052
 31
0.0
  0
LINE
  5
3F18
330
1A
100
AcDbEntity
  8
ZUWAKU
100
AcDbLine
 10
18.64221216833721
 20
9.949999868288684
 30
0.0
 11
18.64221216833721
 21
11.76520189364403
 31
0.0
  0
ARC
  5
3F19
330
1A
100
AcDbEntity
  8
ZUWAKU
100
AcDbCircle
 10
24.94221216833716
 20
11.34999986828869
 30
0.0
 40
1.399999999999999
100
AcDbArc
 50
180.0
 51
270.0
  0
ARC
  5
3F1A
330
1A
100
AcDbEntity
  8
ZUWAKU
100
AcDbCircle
 10
17.59221216833714
 20
22.72499986828868
 30
0.0
 40
0.525
100
AcDbArc
 50
0.0
 51
90.0
  0
ARC
  5
3F1B
330
1A
100
AcDbEntity
  8
ZUWAKU
100
AcDbCircle
 10
17.59221216833714
 20
20.97499986828868
 30
0.0
 40
0.525
100
AcDbArc
 50
270.0
 51
0.0
  0
LINE
  5
3F1C
330
1A
100
AcDbEntity
  8
ZUWAKU
100
AcDbLine
 10
14.09221216833714
 20
23.24999986828868
 30
0.0
 11
17.59221216833714
 21
23.24999986828868
 31
0.0
  0
ARC
  5
3F1D
330
1A
100
AcDbEntity
  8
ZUWAKU
100
AcDbCircle
 10
14.61721216833711
 20
19.92499986828868
 30
0.0
 40
0.525
100
AcDbArc
 50
90.0
 51
180.0
  0
LINE
  5
3F1E
330
1A
100
AcDbEntity
  8
ZUWAKU
100
AcDbLine
 10
14.09221216833714
 20
19.92499986828868
 30
0.0
 11
14.09221216833714
 21
18.63479784293334
 31
0.0
  0
LINE
  5
3F1F
330
1A
100
AcDbEntity
  8
ZUWAKU
100
AcDbLine
 10
17.59221216833714
 20
20.44999986828868
 30
0.0
 11
14.61721216833711
 21
20.44999986828868
 31
0.0
  0
LINE
  5
3F20
330
1A
100
AcDbEntity
  8
ZUWAKU
100
AcDbLine
 10
11.29221216833718
 20
20.44999986828868
 30
0.0
 11
11.29221216833718
 21
18.63479784293334
 31
0.0
  0
ARC
  5
3F21
330
1A
100
AcDbEntity
  8
ZUWAKU
100
AcDbCircle
 10
14.09221216833714
 20
20.44999986828868
 30
0.0
 40
2.799999999999999
100
AcDbArc
 50
90.0
 51
180.0
  0
LINE
  5
3F22
330
1A
100
AcDbEntity
  8
ZUWAKU
100
AcDbLine
 10
18.11721216833712
 20
22.72499986828868
 30
0.0
 11
18.11721216833712
 21
20.97499986828868
 31
0.0
  0
ARC
  5
3F23
330
1A
100
AcDbEntity
  8
ZUWAKU
100
AcDbCircle
 10
24.94221216833716
 20
19.04999986828868
 30
0.0
 40
1.399999999999999
100
AcDbArc
 50
90.0
 51
180.0
  0
ARC
  5
3F24
330
1A
100
AcDbEntity
  8
ZUWAKU
100
AcDbCircle
 10
24.94221216833716
 20
19.04999986828864
 30
0.0
 40
4.199999999999998
100
AcDbArc
 50
90.0
 51
180.0
  0
LINE
  5
3F25
330
1A
100
AcDbEntity
  8
ZUWAKU
100
AcDbLine
 10
79.32662956154422
 20
29.99999986828868
 30
0.0
 11
79.32662956154445
 21
0.7999998682887508
 31
0.0
  0
LINE
  5
3F26
330
1A
100
AcDbEntity
  8
ZUWAKU
100
AcDbLine
 10
79.52662956154427
 20
29.99999986828868
 30
0.0
 11
79.52662956154448
 21
0.7999998682887508
 31
0.0
  0
LINE
  5
3F27
330
1A
100
AcDbEntity
  8
ZUWAKU
100
AcDbLine
 10
79.12662956154441
 20
29.99999986828868
 30
0.0
 11
79.12662956154441
 21
0.7999998682887508
 31
0.0
  0
LINE
  5
3F28
330
1A
100
AcDbEntity
  8
ZUWAKU
100
AcDbLine
 10
64.14221216833721
 20
9.949999868288684
 30
0.0
 11
64.14221216833721
 21
22.72499986828868
 31
0.0
  0
LINE
  5
3F29
330
1A
100
AcDbEntity
  8
ZUWAKU
100
AcDbLine
 10
61.34221216833714
 20
22.72499986828868
 30
0.0
 11
61.34221216833714
 21
10.99999986828868
 31
0.0
  0
LINE
  5
3F2A
330
1A
100
AcDbEntity
  8
ZUWAKU
100
AcDbLine
 10
69.04221216833719
 20
7.674999868288686
 30
0.0
 11
69.04221216833719
 21
22.72499986828868
 31
0.0
  0
LINE
  5
3F2B
330
1A
100
AcDbEntity
  8
ZUWAKU
100
AcDbLine
 10
66.24221216833712
 20
22.72499986828868
 30
0.0
 11
66.24221216833712
 21
7.674999868288686
 31
0.0
  0
ARC
  5
3F2C
330
1A
100
AcDbEntity
  8
ZUWAKU
100
AcDbCircle
 10
49.79221216833718
 20
18.63479784293338
 30
0.0
 40
1.399999999999999
100
AcDbArc
 50
180.0000000000016
 51
224.9999999999988
  0
ARC
  5
3F2D
330
1A
100
AcDbEntity
  8
ZUWAKU
100
AcDbCircle
 10
49.79221216833718
 20
18.63479784293338
 30
0.0
 40
4.199999999999998
100
AcDbArc
 50
180.0
 51
225.0
  0
LINE
  5
3F2E
330
1A
100
AcDbEntity
  8
ZUWAKU
100
AcDbLine
 10
37.31485865051513
 20
19.20504706185211
 30
0.0
 11
36.05010690517929
 21
15.1999998682887
 31
0.0
  0
LINE
  5
3F2F
330
1A
100
AcDbEntity
  8
ZUWAKU
100
AcDbLine
 10
40.69221216833716
 20
22.72499986828868
 30
0.0
 11
40.69221216833716
 21
7.674999868288686
 31
0.0
  0
LINE
  5
3F30
330
1A
100
AcDbEntity
  8
ZUWAKU
100
AcDbLine
 10
43.49221216833711
 20
7.674999868288686
 30
0.0
 11
43.49221216833711
 21
22.72499986828868
 31
0.0
  0
LINE
  5
3F31
330
1A
100
AcDbEntity
  8
ZUWAKU
100
AcDbLine
 10
55.04221216833718
 20
22.72499986828868
 30
0.0
 11
55.04221216833718
 21
9.949999868288684
 31
0.0
  0
LINE
  5
3F32
330
1A
100
AcDbEntity
  8
ZUWAKU
100
AcDbLine
 10
57.84221216833714
 20
10.99999986828868
 30
0.0
 11
57.84221216833714
 21
22.72499986828868
 31
0.0
  0
LINE
  5
3F33
330
1A
100
AcDbEntity
  8
ZUWAKU
100
AcDbLine
 10
32.64221216833721
 20
17.12499986828869
 30
0.0
 11
32.64221216833721
 21
22.72499986828868
 31
0.0
  0
LINE
  5
3F34
330
1A
100
AcDbEntity
  8
ZUWAKU
100
AcDbLine
 10
29.84221216833714
 20
22.72499986828868
 30
0.0
 11
29.84221216833714
 21
7.674999868288686
 31
0.0
  0
LINE
  5
3F35
330
1A
100
AcDbEntity
  8
ZUWAKU
100
AcDbLine
 10
35.676347105653
 20
22.88309383645565
 30
0.0
 11
33.80807723102122
 21
16.96690590012171
 31
0.0
  0
LINE
  5
3F36
330
1A
100
AcDbEntity
  8
ZUWAKU
100
AcDbLine
 10
60.29221216833718
 20
9.949999868288684
 30
0.0
 11
58.89221216833721
 21
9.949999868288684
 31
0.0
  0
LINE
  5
3F37
330
1A
100
AcDbEntity
  8
ZUWAKU
100
AcDbLine
 10
57.84221216833714
 20
7.149999868288687
 30
0.0
 11
61.34221216833714
 21
7.149999868288687
 31
0.0
  0
LINE
  5
3F38
330
1A
100
AcDbEntity
  8
ZUWAKU
100
AcDbLine
 10
41.21721216833714
 20
7.149999868288687
 30
0.0
 11
42.96721216833714
 21
7.149999868288687
 31
0.0
  0
LINE
  5
3F39
330
1A
100
AcDbEntity
  8
ZUWAKU
100
AcDbLine
 10
35.676347105653
 20
7.516905900121713
 30
0.0
 11
33.80807723102122
 21
13.43309383645565
 31
0.0
  0
ARC
  5
3F3A
330
1A
100
AcDbEntity
  8
ZUWAKU
100
AcDbCircle
 10
33.30744633182587
 20
17.12499986828869
 30
0.0
 40
0.525
100
AcDbArc
 50
270.0
 51
342.474431626277
  0
LINE
  5
3F3B
330
1A
100
AcDbEntity
  8
ZUWAKU
100
AcDbLine
 10
33.30744633182587
 20
16.59999986828868
 30
0.0
 11
33.16721216833718
 21
16.59999986828868
 31
0.0
  0
LINE
  5
3F3C
330
1A
100
AcDbEntity
  8
ZUWAKU
100
AcDbLine
 10
33.16721216833718
 20
13.79999986828868
 30
0.0
 11
33.30744633182587
 21
13.79999986828868
 31
0.0
  0
ARC
  5
3F3D
330
1A
100
AcDbEntity
  8
ZUWAKU
100
AcDbCircle
 10
33.16721216833718
 20
17.12499986828869
 30
0.0
 40
0.525
100
AcDbArc
 50
180.0
 51
270.0
  0
LINE
  5
3F3E
330
1A
100
AcDbEntity
  8
ZUWAKU
100
AcDbLine
 10
30.36721216833711
 20
7.149999868288687
 30
0.0
 11
32.11721216833712
 21
7.149999868288687
 31
0.0
  0
ARC
  5
3F3F
330
1A
100
AcDbEntity
  8
ZUWAKU
100
AcDbCircle
 10
32.11721216833712
 20
7.674999868288686
 30
0.0
 40
0.525
100
AcDbArc
 50
270.0
 51
0.0
  0
LINE
  5
3F40
330
1A
100
AcDbEntity
  8
ZUWAKU
100
AcDbLine
 10
32.64221216833721
 20
7.674999868288686
 30
0.0
 11
32.64221216833721
 21
13.27499986828868
 31
0.0
  0
LINE
  5
3F41
330
1A
100
AcDbEntity
  8
ZUWAKU
100
AcDbLine
 10
27.39221216833721
 20
9.424999868288685
 30
0.0
 11
27.39221216833721
 21
7.674999868288686
 31
0.0
  0
ARC
  5
3F42
330
1A
100
AcDbEntity
  8
ZUWAKU
100
AcDbCircle
 10
26.86721216833712
 20
7.674999868288686
 30
0.0
 40
0.525
100
AcDbArc
 50
270.0
 51
0.0
  0
ARC
  5
3F43
330
1A
100
AcDbEntity
  8
ZUWAKU
100
AcDbCircle
 10
26.86721216833712
 20
9.424999868288685
 30
0.0
 40
0.525
100
AcDbArc
 50
0.0
 51
90.0
  0
ARC
  5
3F44
330
1A
100
AcDbEntity
  8
ZUWAKU
100
AcDbCircle
 10
30.36721216833711
 20
7.674999868288686
 30
0.0
 40
0.525
100
AcDbArc
 50
180.0
 51
270.0
  0
ARC
  5
3F45
330
1A
100
AcDbEntity
  8
ZUWAKU
100
AcDbCircle
 10
33.30744633182587
 20
13.27499986828868
 30
0.0
 40
0.525
100
AcDbArc
 50
17.52556837372303
 51
90.0
  0
ARC
  5
3F46
330
1A
100
AcDbEntity
  8
ZUWAKU
100
AcDbCircle
 10
33.16721216833718
 20
13.27499986828868
 30
0.0
 40
0.525
100
AcDbArc
 50
90.0
 51
180.0
  0
ARC
  5
3F47
330
1A
100
AcDbEntity
  8
ZUWAKU
100
AcDbCircle
 10
41.21721216833714
 20
7.674999868288686
 30
0.0
 40
0.525
100
AcDbArc
 50
180.0
 51
270.0
  0
LINE
  5
3F48
330
1A
100
AcDbEntity
  8
ZUWAKU
100
AcDbLine
 10
36.17697800484847
 20
7.149999868288687
 30
0.0
 11
37.87586738445748
 21
7.149999868288687
 31
0.0
  0
ARC
  5
3F49
330
1A
100
AcDbEntity
  8
ZUWAKU
100
AcDbCircle
 10
37.87586738445748
 20
7.674999868288686
 30
0.0
 40
0.525
100
AcDbArc
 50
270.0
 51
17.52556837372303
  0
LINE
  5
3F4A
330
1A
100
AcDbEntity
  8
ZUWAKU
100
AcDbLine
 10
38.37649828365296
 20
7.83309383645566
 30
0.0
 11
36.05010690517929
 21
15.1999998682887
 31
0.0
  0
ARC
  5
3F4B
330
1A
100
AcDbEntity
  8
ZUWAKU
100
AcDbCircle
 10
36.17697800484847
 20
7.674999868288686
 30
0.0
 40
0.525
100
AcDbArc
 50
197.525568373723
 51
270.0
  0
ARC
  5
3F4C
330
1A
100
AcDbEntity
  8
ZUWAKU
100
AcDbCircle
 10
57.84221216833714
 20
9.949999868288684
 30
0.0
 40
2.799999999999999
100
AcDbArc
 50
180.0
 51
270.0
  0
ARC
  5
3F4D
330
1A
100
AcDbEntity
  8
ZUWAKU
100
AcDbCircle
 10
50.14221216833721
 20
9.949999868288684
 30
0.0
 40
2.799999999999999
100
AcDbArc
 50
270.0
 51
0.0
  0
LINE
  5
3F4E
330
1A
100
AcDbEntity
  8
ZUWAKU
100
AcDbLine
 10
51.71206064932073
 20
14.73505037462751
 30
0.0
 11
48.80226267467595
 21
17.64484834927218
 31
0.0
  0
LINE
  5
3F4F
330
1A
100
AcDbEntity
  8
ZUWAKU
100
AcDbLine
 10
50.14221216833721
 20
10.47499986828869
 30
0.0
 11
50.14221216833721
 21
11.76520189364403
 31
0.0
  0
ARC
  5
3F50
330
1A
100
AcDbEntity
  8
ZUWAKU
100
AcDbCircle
 10
48.74221216833712
 20
11.76520189364403
 30
0.0
 40
1.399999999999999
100
AcDbArc
 50
0.0
 51
45.0
  0
ARC
  5
3F51
330
1A
100
AcDbEntity
  8
ZUWAKU
100
AcDbCircle
 10
49.61721216833712
 20
10.47499986828869
 30
0.0
 40
0.525
100
AcDbArc
 50
270.0
 51
0.0
  0
LINE
  5
3F52
330
1A
100
AcDbEntity
  8
ZUWAKU
100
AcDbLine
 10
46.11721216833712
 20
7.674999868288686
 30
0.0
 11
46.11721216833712
 21
9.424999868288685
 31
0.0
  0
ARC
  5
3F53
330
1A
100
AcDbEntity
  8
ZUWAKU
100
AcDbCircle
 10
46.64221216833721
 20
7.674999868288686
 30
0.0
 40
0.525
100
AcDbArc
 50
180.0
 51
270.0
  0
ARC
  5
3F54
330
1A
100
AcDbEntity
  8
ZUWAKU
100
AcDbCircle
 10
42.96721216833714
 20
7.674999868288686
 30
0.0
 40
0.525
100
AcDbArc
 50
270.0
 51
0.0
  0
ARC
  5
3F55
330
1A
100
AcDbEntity
  8
ZUWAKU
100
AcDbCircle
 10
46.64221216833721
 20
9.424999868288685
 30
0.0
 40
0.525
100
AcDbArc
 50
90.0
 51
180.0
  0
LINE
  5
3F56
330
1A
100
AcDbEntity
  8
ZUWAKU
100
AcDbLine
 10
46.64221216833721
 20
9.949999868288684
 30
0.0
 11
49.61721216833712
 21
9.949999868288684
 31
0.0
  0
LINE
  5
3F57
330
1A
100
AcDbEntity
  8
ZUWAKU
100
AcDbLine
 10
46.64221216833721
 20
7.149999868288687
 30
0.0
 11
50.14221216833721
 21
7.149999868288687
 31
0.0
  0
LINE
  5
3F58
330
1A
100
AcDbEntity
  8
ZUWAKU
100
AcDbLine
 10
46.82236368735368
 20
15.66494936194986
 30
0.0
 11
49.73216166199835
 21
12.7551513873052
 31
0.0
  0
LINE
  5
3F59
330
1A
100
AcDbEntity
  8
ZUWAKU
100
AcDbLine
 10
52.94221216833716
 20
9.949999868288684
 30
0.0
 11
52.94221216833716
 21
11.76520189364403
 31
0.0
  0
ARC
  5
3F5A
330
1A
100
AcDbEntity
  8
ZUWAKU
100
AcDbCircle
 10
48.74221216833712
 20
11.76520189364399
 30
0.0
 40
4.199999999999998
100
AcDbArc
 50
0.0
 51
45.0
  0
ARC
  5
3F5B
330
1A
100
AcDbEntity
  8
ZUWAKU
100
AcDbCircle
 10
58.89221216833721
 20
10.99999986828868
 30
0.0
 40
1.049999999999999
100
AcDbArc
 50
180.0
 51
270.0
  0
ARC
  5
3F5C
330
1A
100
AcDbEntity
  8
ZUWAKU
100
AcDbCircle
 10
61.34221216833714
 20
9.949999868288684
 30
0.0
 40
2.799999999999999
100
AcDbArc
 50
270.0
 51
0.0
  0
LINE
  5
3F5D
330
1A
100
AcDbEntity
  8
ZUWAKU
100
AcDbLine
 10
66.76721216833721
 20
7.149999868288687
 30
0.0
 11
68.51721216833721
 21
7.149999868288687
 31
0.0
  0
ARC
  5
3F5E
330
1A
100
AcDbEntity
  8
ZUWAKU
100
AcDbCircle
 10
66.76721216833721
 20
7.674999868288686
 30
0.0
 40
0.525
100
AcDbArc
 50
180.0
 51
270.0
  0
ARC
  5
3F5F
330
1A
100
AcDbEntity
  8
ZUWAKU
100
AcDbCircle
 10
60.29221216833718
 20
10.99999986828868
 30
0.0
 40
1.049999999999999
100
AcDbArc
 50
270.0
 51
0.0
  0
ARC
  5
3F60
330
1A
100
AcDbEntity
  8
ZUWAKU
100
AcDbCircle
 10
68.51721216833721
 20
7.674999868288686
 30
0.0
 40
0.525
100
AcDbArc
 50
270.0
 51
0.0
  0
LINE
  5
3F61
330
1A
100
AcDbEntity
  8
ZUWAKU
100
AcDbLine
 10
42.96721216833714
 20
23.24999986828868
 30
0.0
 11
41.21721216833714
 21
23.24999986828868
 31
0.0
  0
ARC
  5
3F62
330
1A
100
AcDbEntity
  8
ZUWAKU
100
AcDbCircle
 10
32.11721216833712
 20
22.72499986828868
 30
0.0
 40
0.525
100
AcDbArc
 50
0.0
 51
90.0
  0
LINE
  5
3F63
330
1A
100
AcDbEntity
  8
ZUWAKU
100
AcDbLine
 10
32.11721216833712
 20
23.24999986828868
 30
0.0
 11
30.36721216833711
 21
23.24999986828868
 31
0.0
  0
ARC
  5
3F64
330
1A
100
AcDbEntity
  8
ZUWAKU
100
AcDbCircle
 10
26.86721216833712
 20
22.72499986828868
 30
0.0
 40
0.525
100
AcDbArc
 50
0.0
 51
90.0
  0
ARC
  5
3F65
330
1A
100
AcDbEntity
  8
ZUWAKU
100
AcDbCircle
 10
30.36721216833711
 20
22.72499986828868
 30
0.0
 40
0.525
100
AcDbArc
 50
90.0
 51
180.0
  0
ARC
  5
3F66
330
1A
100
AcDbEntity
  8
ZUWAKU
100
AcDbCircle
 10
26.86721216833712
 20
20.97499986828868
 30
0.0
 40
0.525
100
AcDbArc
 50
270.0
 51
0.0
  0
LINE
  5
3F67
330
1A
100
AcDbEntity
  8
ZUWAKU
100
AcDbLine
 10
27.39221216833721
 20
22.72499986828868
 30
0.0
 11
27.39221216833721
 21
20.97499986828868
 31
0.0
  0
ARC
  5
3F68
330
1A
100
AcDbEntity
  8
ZUWAKU
100
AcDbCircle
 10
41.21721216833714
 20
22.72499986828868
 30
0.0
 40
0.525
100
AcDbArc
 50
90.0
 51
180.0
  0
LINE
  5
3F69
330
1A
100
AcDbEntity
  8
ZUWAKU
100
AcDbLine
 10
36.17697800484847
 20
23.24999986828868
 30
0.0
 11
37.87586738445748
 21
23.24999986828868
 31
0.0
  0
ARC
  5
3F6A
330
1A
100
AcDbEntity
  8
ZUWAKU
100
AcDbCircle
 10
37.87586738445748
 20
22.72499986828868
 30
0.0
 40
0.525
100
AcDbArc
 50
342.474431626277
 51
90.0
  0
LINE
  5
3F6B
330
1A
100
AcDbEntity
  8
ZUWAKU
100
AcDbLine
 10
38.37649828365296
 20
22.56690590012171
 30
0.0
 11
37.31485865051513
 21
19.20504706185211
 31
0.0
  0
ARC
  5
3F6C
330
1A
100
AcDbEntity
  8
ZUWAKU
100
AcDbCircle
 10
36.17697800484847
 20
22.72499986828868
 30
0.0
 40
0.525
100
AcDbArc
 50
90.0
 51
162.4744316262769
  0
LINE
  5
3F6D
330
1A
100
AcDbEntity
  8
ZUWAKU
100
AcDbLine
 10
48.3922121683372
 20
23.24999986828868
 30
0.0
 11
51.89221216833721
 21
23.24999986828868
 31
0.0
  0
LINE
  5
3F6E
330
1A
100
AcDbEntity
  8
ZUWAKU
100
AcDbLine
 10
51.89221216833721
 20
20.44999986828868
 30
0.0
 11
48.91721216833718
 21
20.44999986828868
 31
0.0
  0
ARC
  5
3F6F
330
1A
100
AcDbEntity
  8
ZUWAKU
100
AcDbCircle
 10
48.91721216833718
 20
19.92499986828868
 30
0.0
 40
0.525
100
AcDbArc
 50
90.0
 51
180.0
  0
LINE
  5
3F70
330
1A
100
AcDbEntity
  8
ZUWAKU
100
AcDbLine
 10
48.3922121683372
 20
19.92499986828868
 30
0.0
 11
48.3922121683372
 21
18.63479784293334
 31
0.0
  0
ARC
  5
3F71
330
1A
100
AcDbEntity
  8
ZUWAKU
100
AcDbCircle
 10
42.96721216833714
 20
22.72499986828868
 30
0.0
 40
0.525
100
AcDbArc
 50
0.0
 51
90.0
  0
LINE
  5
3F72
330
1A
100
AcDbEntity
  8
ZUWAKU
100
AcDbLine
 10
45.59221216833714
 20
20.44999986828868
 30
0.0
 11
45.59221216833714
 21
18.63479784293334
 31
0.0
  0
ARC
  5
3F73
330
1A
100
AcDbEntity
  8
ZUWAKU
100
AcDbCircle
 10
48.3922121683372
 20
20.44999986828868
 30
0.0
 40
2.799999999999999
100
AcDbArc
 50
90.0
 51
180.0
  0
ARC
  5
3F74
330
1A
100
AcDbEntity
  8
ZUWAKU
100
AcDbCircle
 10
57.31721216833716
 20
22.72499986828868
 30
0.0
 40
0.525
100
AcDbArc
 50
0.0
 51
90.0
  0
ARC
  5
3F75
330
1A
100
AcDbEntity
  8
ZUWAKU
100
AcDbCircle
 10
55.56721216833716
 20
22.72499986828868
 30
0.0
 40
0.525
100
AcDbArc
 50
90.0
 51
180.0
  0
LINE
  5
3F76
330
1A
100
AcDbEntity
  8
ZUWAKU
100
AcDbLine
 10
57.31721216833716
 20
23.24999986828868
 30
0.0
 11
55.56721216833716
 21
23.24999986828868
 31
0.0
  0
ARC
  5
3F77
330
1A
100
AcDbEntity
  8
ZUWAKU
100
AcDbCircle
 10
51.89221216833721
 20
22.72499986828868
 30
0.0
 40
0.525
100
AcDbArc
 50
0.0
 51
90.0
  0
ARC
  5
3F78
330
1A
100
AcDbEntity
  8
ZUWAKU
100
AcDbCircle
 10
51.89221216833721
 20
20.97499986828868
 30
0.0
 40
0.525
100
AcDbArc
 50
270.0
 51
0.0
  0
LINE
  5
3F79
330
1A
100
AcDbEntity
  8
ZUWAKU
100
AcDbLine
 10
52.41721216833718
 20
22.72499986828868
 30
0.0
 11
52.41721216833718
 21
20.97499986828868
 31
0.0
  0
LINE
  5
3F7A
330
1A
100
AcDbEntity
  8
ZUWAKU
100
AcDbLine
 10
68.51721216833721
 20
23.24999986828868
 30
0.0
 11
66.76721216833721
 21
23.24999986828868
 31
0.0
  0
ARC
  5
3F7B
330
1A
100
AcDbEntity
  8
ZUWAKU
100
AcDbCircle
 10
66.76721216833721
 20
22.72499986828868
 30
0.0
 40
0.525
100
AcDbArc
 50
90.0
 51
180.0
  0
ARC
  5
3F7C
330
1A
100
AcDbEntity
  8
ZUWAKU
100
AcDbCircle
 10
63.61721216833712
 20
22.72499986828868
 30
0.0
 40
0.525
100
AcDbArc
 50
0.0
 51
90.0
  0
LINE
  5
3F7D
330
1A
100
AcDbEntity
  8
ZUWAKU
100
AcDbLine
 10
63.61721216833712
 20
23.24999986828868
 30
0.0
 11
61.86721216833712
 21
23.24999986828868
 31
0.0
  0
ARC
  5
3F7E
330
1A
100
AcDbEntity
  8
ZUWAKU
100
AcDbCircle
 10
61.86721216833712
 20
22.72499986828868
 30
0.0
 40
0.525
100
AcDbArc
 50
90.0
 51
180.0
  0
ARC
  5
3F7F
330
1A
100
AcDbEntity
  8
ZUWAKU
100
AcDbCircle
 10
68.51721216833721
 20
22.72499986828868
 30
0.0
 40
0.525
100
AcDbArc
 50
0.0
 51
90.0
  0
TEXT
  5
3F80
330
1A
100
AcDbEntity
  8
MOJI
100
AcDbText
 10
239.827202694407
 20
18.00492092569607
 30
0.0
 40
5.599999999999999
  1
ブラケット正面打（吊）自在式
 41
0.9
  7
ｽﾀｲﾙ1
100
AcDbText
  0
TEXT
  5
3F81
330
1A
100
AcDbEntity
  8
MOJI
100
AcDbText
 10
239.827202694407
 20
3.204920925696104
 30
0.0
 40
5.599999999999999
  1
Σ９０－６－１０～４５
 41
0.9
  7
ｽﾀｲﾙ1
100
AcDbText
  0
LINE
  5
3F82
330
1A
100
AcDbEntity
  8
ZUWAKU
100
AcDbLine
 10
208.2466013036239
 20
29.99999986828868
 30
0.0
 11
208.2466013036239
 21
0.7999998682887508
 31
0.0
  0
LINE
  5
3F83
330
1A
100
AcDbEntity
  8
ZUWAKU
100
AcDbLine
 10
208.6466013036238
 20
29.99999986828868
 30
0.0
 11
208.646601303624
 21
0.7999998682887508
 31
0.0
  0
LINE
  5
3F84
330
1A
100
AcDbEntity
  8
ZUWAKU
100
AcDbLine
 10
208.4466013036237
 20
29.99999986828868
 30
0.0
 11
208.446601303624
 21
0.7999998682887508
 31
0.0
  0
TEXT
  5
3F85
330
1A
100
AcDbEntity
  8
ZUWAKU
100
AcDbText
 10
209.7240463258335
 20
9.655356406674301
 30
0.0
 40
4.0
  1
サイズ
 41
0.9
  7
ｽﾀｲﾙ1
100
AcDbText
  0
TEXT
  5
3F86
330
1A
100
AcDbEntity
  8
ZUWAKU
100
AcDbText
 10
209.7240463258333
 20
24.05535640667426
 30
0.0
 40
4.0
  1
品名
 41
0.9
  7
ｽﾀｲﾙ1
100
AcDbText
  0
LINE
  5
3F87
330
1A
100
AcDbEntity
  8
ZUWAKU
100
AcDbLine
 10
648.8172025237602
 20
15.19999986828871
 30
0.0
 11
697.2490105620973
 21
15.19999986828871
 31
0.0
  0
LINE
  5
3F88
330
1A
100
AcDbEntity
  8
ZUWAKU
100
AcDbLine
 10
648.8172025237603
 20
15.39999986828872
 30
0.0
 11
697.2490105620973
 21
15.39999986828871
 31
0.0
  0
LINE
  5
3F89
330
1A
100
AcDbEntity
  8
ZUWAKU
100
AcDbLine
 10
648.8172025237602
 20
15.59999986828871
 30
0.0
 11
697.2490105620973
 21
15.59999986828871
 31
0.0
  0
TEXT
  5
3F8A
330
1A
100
AcDbEntity
  8
ZUWAKU
100
AcDbText
 10
658.2039377008584
 20
18.00492092569607
 30
0.0
 40
5.599999999999999
  1
　　．　　．　　
 41
0.9
  7
ｽﾀｲﾙ1
100
AcDbText
  0
LINE
  5
3F8B
330
1A
100
AcDbEntity
  8
ZUWAKU
100
AcDbLine
 10
505.1991795116968
 20
15.19999986828872
 30
0.0
 11
552.5269557796685
 21
15.19999986828872
 31
0.0
  0
LINE
  5
3F8C
330
1A
100
AcDbEntity
  8
ZUWAKU
100
AcDbLine
 10
505.1991795116968
 20
15.39999986828871
 30
0.0
 11
552.5269557796685
 21
15.39999986828871
 31
0.0
  0
LINE
  5
3F8D
330
1A
100
AcDbEntity
  8
ZUWAKU
100
AcDbLine
 10
505.1991795116968
 20
15.59999986828871
 30
0.0
 11
552.5269557796685
 21
15.59999986828871
 31
0.0
  0
TEXT
  5
3F8E
330
1A
100
AcDbEntity
  8
MOJI
100
AcDbText
 10
463.246432004558
 20
11.94261758994866
 30
0.0
 40
5.599999999999999
  1
ＬＦ７５Ｔ
 41
0.9
  7
ｽﾀｲﾙ1
100
AcDbText
  0
LINE
  5
3F8F
330
1A
100
AcDbEntity
  8
ZUWAKU
100
AcDbLine
 10
447.6243639845472
 20
29.99999986828868
 30
0.0
 11
447.6243639845474
 21
0.7999998682887508
 31
0.0
  0
LINE
  5
3F90
330
1A
100
AcDbEntity
  8
ZUWAKU
100
AcDbLine
 10
447.8243639845472
 20
29.99999986828868
 30
0.0
 11
447.8243639845475
 21
0.7999998682887508
 31
0.0
  0
LINE
  5
3F91
330
1A
100
AcDbEntity
  8
ZUWAKU
100
AcDbLine
 10
447.4243639845474
 20
29.99999986828868
 30
0.0
 11
447.4243639845474
 21
0.7999998682887508
 31
0.0
  0
TEXT
  5
3F92
330
1A
100
AcDbEntity
  8
MOJI
100
AcDbText
 10
528.0409079858689
 20
18.00492092569607
 30
0.0
 40
5.599999999999999
  1
Ａ３
 41
0.9
  7
ｽﾀｲﾙ1
100
AcDbText
  0
LINE
  5
3F93
330
1A
100
AcDbEntity
  8
ZUWAKU
100
AcDbLine
 10
504.9991795116969
 20
29.99999986828868
 30
0.0
 11
504.999179511697
 21
0.7999998682887508
 31
0.0
  0
LINE
  5
3F94
330
1A
100
AcDbEntity
  8
ZUWAKU
100
AcDbLine
 10
505.1991795116968
 20
29.99999986828868
 30
0.0
 11
505.1991795116971
 21
0.7999998682887508
 31
0.0
  0
LINE
  5
3F95
330
1A
100
AcDbEntity
  8
ZUWAKU
100
AcDbLine
 10
504.799179511697
 20
29.99999986828868
 30
0.0
 11
504.799179511697
 21
0.7999998682887508
 31
0.0
  0
TEXT
  5
3F97
330
1A
100
AcDbEntity
  8
ZUWAKU
100
AcDbText
 10
506.6766245339067
 20
9.655356406674301
 30
0.0
 40
4.0
  1
縮尺
 41
0.9
  7
ｽﾀｲﾙ1
100
AcDbText
  0
TEXT
  5
3F98
330
1A
100
AcDbEntity
  8
MOJI
100
AcDbText
 10
528.0409079858689
 20
3.204920925696104
 30
0.0
 40
5.599999999999999
  1
１/２
 41
0.9
  7
ｽﾀｲﾙ1
100
AcDbText
  0
TEXT
  5
3F99
330
1A
100
AcDbEntity
  8
ZUWAKU
100
AcDbText
 10
449.3018090067569
 20
24.05535640667426
 30
0.0
 40
4.0
  1
品番
 41
0.9
  7
ｽﾀｲﾙ1
100
AcDbText
  0
TEXT
  5
3F9A
330
1A
100
AcDbEntity
  8
ZUWAKU
100
AcDbText
 10
506.6766245339065
 20
24.05535640667426
 30
0.0
 40
4.0
  1
用紙
 41
0.9
  7
ｽﾀｲﾙ1
100
AcDbText
  0
LINE
  5
3F9B
330
1A
100
AcDbEntity
  8
ZUWAKU
100
AcDbLine
 10
648.6172025237602
 20
29.99999986828868
 30
0.0
 11
648.6172025237606
 21
0.7999998682887508
 31
0.0
  0
LINE
  5
3F9C
330
1A
100
AcDbEntity
  8
ZUWAKU
100
AcDbLine
 10
648.8172025237603
 20
29.99999986828868
 30
0.0
 11
648.8172025237608
 21
0.7999998682887508
 31
0.0
  0
LINE
  5
3F9D
330
1A
100
AcDbEntity
  8
ZUWAKU
100
AcDbLine
 10
648.4172025237606
 20
29.99999986828868
 30
0.0
 11
648.4172025237606
 21
0.7999998682887508
 31
0.0
  0
LINE
  5
3F9E
330
1A
100
AcDbEntity
  8
ZUWAKU
100
AcDbLine
 10
552.7269557796684
 20
29.99999986828868
 30
0.0
 11
552.7269557796684
 21
0.7999998682887508
 31
0.0
  0
LINE
  5
3F9F
330
1A
100
AcDbEntity
  8
ZUWAKU
100
AcDbLine
 10
552.9269557796683
 20
29.99999986828868
 30
0.0
 11
552.9269557796685
 21
0.7999998682887508
 31
0.0
  0
LINE
  5
3FA0
330
1A
100
AcDbEntity
  8
ZUWAKU
100
AcDbLine
 10
552.5269557796685
 20
29.99999986828868
 30
0.0
 11
552.5269557796685
 21
0.7999998682887508
 31
0.0
  0
TEXT
  5
3FA1
330
1A
100
AcDbEntity
  8
ZUWAKU
100
AcDbText
 10
650.29464754597
 20
24.05535640667426
 30
0.0
 40
4.0
  1
DATE
 41
0.9
  7
ｽﾀｲﾙ1
100
AcDbText
  0
LINE
  5
3FA2
330
1A
100
AcDbEntity
  8
ZUWAKU
100
AcDbLine
 10
697.2490105620973
 20
29.99999986828868
 30
0.0
 11
697.2490105620973
 21
0.7999998682887508
 31
0.0
  0
LINE
  5
3FA3
330
1A
100
AcDbEntity
  8
ZUWAKU
100
AcDbLine
 10
697.4490105620973
 20
29.99999986828868
 30
0.0
 11
697.4490105620973
 21
0.7999998682887508
 31
0.0
  0
LINE
  5
3FA4
330
1A
100
AcDbEntity
  8
ZUWAKU
100
AcDbLine
 10
697.6490105620972
 20
29.99999986828868
 30
0.0
 11
697.6490105620974
 21
0.7999998682887508
 31
0.0
  0
LINE
  5
3FA5
330
1A
100
AcDbEntity
  8
ZUWAKU
100
AcDbLine
 10
697.8490105620973
 20
29.99999986828868
 30
0.0
 11
697.8490105620973
 21
0.7999998682887508
 31
0.0
  0
TEXT
  5
3FA6
330
1A
100
AcDbEntity
  8
ZUWAKU
100
AcDbText
 10
708.5280842057997
 20
17.55383920397548
 30
0.0
 40
6.0
  1
積水化学工業株式会社
 41
0.9
  7
ｽﾀｲﾙ1
100
AcDbText
  0
TEXT
  5
3FA7
330
1A
100
AcDbEntity
  8
ZUWAKU
100
AcDbText
 10
708.5280842057997
 20
6.648840182142748
 30
0.0
 40
6.0
  1
建材事業部
 41
0.9
  7
ｽﾀｲﾙ1
100
AcDbText
  0
DIMENSION
  5
5E2E
330
1A
100
AcDbEntity
  8
SUNPOU
  6
Continuous
100
AcDbDimension
  2
*D1
 10
463.5853890372139
 20
220.658283319366
 30
0.0
 11
450.7624464531195
 21
251.7508378779045
 31
0.0
 70
    33
 71
     5
 42
-1.0
  3
STANDARD
100
AcDbAlignedDimension
 13
387.6796385646749
 23
252.6903602824065
 33
0.0
 14
421.9006702943135
 24
195.6498465283932
 34
0.0
1001
ACAD
1000
DSTYLE
1002
{
1070
   140
1040
6.0
1070
    74
1070
     0
1070
   172
1070
     1
1070
    73
1070
     0
1070
   272
1070
     2
1070
    77
1070
     3
1070
   173
1070
     1
1070
   147
1040
2.0
1070
    42
1040
6.0
1070
    44
1040
3.0
1070
    43
1040
14.0
1070
   271
1070
     0
1070
   178
1070
     4
1070
   177
1070
     4
1070
   176
1070
     4
1070
   141
1040
150.0
1070
     7
1000
_OPEN
1070
     6
1000
_OPEN
1070
    41
1040
7.0
1002
}
  0
DIMENSION
  5
5E2F
330
1A
100
AcDbEntity
  8
SUNPOU
  6
Continuous
 62
     4
 48
5.0
100
AcDbDimension
  2
*D2
 10
387.6796385646749
 20
306.3580178206298
 30
0.0
 11
405.1796484542597
 21
311.3580178206298
 31
0.0
 70
    32
 71
     5
 42
-1.0
  3
STANDARD
100
AcDbAlignedDimension
 13
422.6796583438447
 23
252.6903620884983
 33
0.0
 14
387.6796385646749
 24
252.6903602824065
 34
0.0
100
AcDbRotatedDimension
1001
ACAD
1000
DSTYLE
1002
{
1070
   140
1040
6.0
1070
    74
1070
     0
1070
   172
1070
     1
1070
    73
1070
     0
1070
   272
1070
     2
1070
    77
1070
     3
1070
   173
1070
     1
1070
   147
1040
2.0
1070
    42
1040
6.0
1070
    44
1040
3.0
1070
    43
1040
14.0
1070
   271
1070
     0
1070
   178
1070
     4
1070
   177
1070
     4
1070
   176
1070
     4
1070
   141
1040
150.0
1070
     7
1000
_OPEN
1070
     6
1000
_OPEN
1070
    41
1040
7.0
1002
}
  0
DIMENSION
  5
5E30
330
1A
100
AcDbEntity
  8
SUNPOU
 48
5.0
100
AcDbDimension
  2
*D3
 10
224.5126991436955
 20
246.7945644937536
 30
0.0
 11
219.5126991436954
 21
220.8363407788637
 31
0.0
 70
    32
 71
     5
 42
-1.0
  3
STANDARD
100
AcDbAlignedDimension
 13
420.6144127840186
 23
194.8781170639736
 33
0.0
 14
251.9128119111426
 24
246.7945644937536
 34
0.0
 50
90.0
100
AcDbRotatedDimension
1001
ACAD
1000
DSTYLE
1002
{
1070
   140
1040
6.0
1070
    74
1070
     0
1070
   172
1070
     1
1070
    73
1070
     0
1070
   272
1070
     2
1070
    77
1070
     3
1070
   173
1070
     1
1070
   147
1040
2.0
1070
    42
1040
6.0
1070
    44
1040
3.0
1070
    43
1040
14.0
1070
   271
1070
     0
1070
   178
1070
     4
1070
   177
1070
     4
1070
   176
1070
     4
1070
   141
1040
150.0
1070
     7
1000
_OPEN
1070
     6
1000
_OPEN
1070
    41
1040
7.0
1002
}
  0
DIMENSION
  5
5E31
330
1A
100
AcDbEntity
  8
SUNPOU
 48
5.0
100
AcDbDimension
  2
*D4
 10
435.6498315419538
 20
169.8190857989569
 30
0.0
 11
412.4975225477153
 21
161.7586522972585
 31
0.0
 70
    33
  1
t<>
 71
     5
 42
-1.0
  3
STANDARD
100
AcDbAlignedDimension
 13
421.9006702943135
 23
195.6498465283933
 33
0.0
 14
420.6144238310619
 24
194.8780986504423
 34
0.0
1001
ACAD
1000
DSTYLE
1002
{
1070
   140
1040
6.0
1070
    74
1070
     0
1070
   172
1070
     1
1070
    73
1070
     0
1070
   272
1070
     2
1070
    77
1070
     3
1070
   173
1070
     1
1070
   147
1040
2.0
1070
    42
1040
6.0
1070
    44
1040
3.0
1070
    43
1040
14.0
1070
   271
1070
     1
1070
   178
1070
     4
1070
   177
1070
     4
1070
   176
1070
     4
1070
   141
1040
150.0
1070
     7
1000
_OPEN
1070
     6
1000
_OPEN
1070
    41
1040
7.0
1002
}
  0
LINE
  5
5E32
330
1A
100
AcDbEntity
  8
SEIHIN
  6
Continuous
 62
     3
 48
5.0
100
AcDbLine
 10
420.6144127840186
 20
194.8781170639736
 30
0.0
 11
391.381423850372
 21
243.6045084280049
 31
0.0
  0
TEXT
  5
5E33
330
1A
100
AcDbEntity
  8
SUNPOU
 48
5.0
100
AcDbText
 10
393.5153436493483
 20
318.2980758756416
 30
0.0
 40
6.0
  1
スライド巾
100
AcDbText
  0
DIMENSION
  5
5E34
330
1A
100
AcDbEntity
  8
SUNPOU
 48
5.0
100
AcDbDimension
  2
*D5
 10
449.0479333259313
 20
375.4474441180457
 30
0.0
 11
444.0479333259312
 21
402.9474441180457
 31
0.0
 70
    32
 71
     5
 42
-1.0
  3
STANDARD
100
AcDbAlignedDimension
 13
403.6357480352972
 23
430.4474441180455
 33
0.0
 14
403.6356480352973
 24
375.4474441180457
 34
0.0
 50
90.0
100
AcDbRotatedDimension
1001
ACAD
1000
DSTYLE
1002
{
1070
   140
1040
6.0
1070
    74
1070
     0
1070
   172
1070
     1
1070
    73
1070
     0
1070
   272
1070
     2
1070
    77
1070
     3
1070
   173
1070
     1
1070
   147
1040
2.0
1070
    42
1040
6.0
1070
    44
1040
3.0
1070
    43
1040
14.0
1070
   271
1070
     0
1070
   178
1070
     4
1070
   177
1070
     4
1070
   176
1070
     4
1070
   141
1040
150.0
1070
     7
1000
_OPEN
1070
     6
1000
_OPEN
1070
    41
1040
7.0
1002
}
  0
LINE
  5
5E35
330
1A
100
AcDbEntity
  8
CENTER_L
  6
CENTER
 62
     1
 48
5.0
100
AcDbLine
 10
412.0965702943137
 20
198.5144465283933
 30
0.0
 11
423.2201702943137
 21
205.1875465283933
 31
0.0
  0
LINE
  5
5E36
330
1A
100
AcDbEntity
  8
CENTER_L
  6
CENTER
 62
     1
 48
5.0
100
AcDbLine
 10
244.7396480352973
 20
402.9475441180456
 30
0.0
 11
426.0515480352973
 21
402.9473441180456
 31
0.0
  0
LINE
  5
5E37
330
1A
100
AcDbEntity
  8
SEIHIN
  6
Continuous
 62
     3
 48
5.0
100
AcDbLine
 10
403.6395063765962
 20
430.4472482502426
 30
0.0
 11
417.3315063765962
 21
414.5480482502426
 31
0.0
  0
LINE
  5
5E38
330
1A
100
AcDbEntity
  8
SEIHIN
  6
Continuous
 62
     3
 48
5.0
100
AcDbLine
 10
403.641306376596
 20
375.4473482502426
 30
0.0
 11
417.3324063765962
 21
391.3475482502426
 31
0.0
  0
LINE
  5
5E39
330
1A
100
AcDbEntity
  8
SEIHIN
  6
Continuous
 62
     3
 48
5.0
100
AcDbLine
 10
389.9317143028572
 20
248.9365413404835
 30
0.0
 11
421.9006702943135
 21
195.6498465283933
 31
0.0
  0
DIMENSION
  5
5E3A
330
1A
100
AcDbEntity
  8
SUNPOU
  6
Continuous
 62
     4
 48
5.0
100
AcDbDimension
  2
*D6
 10
387.6796385646749
 20
306.3580178206298
 30
0.0
 11
321.186529426445
 21
311.3580178206298
 31
0.0
 70
    32
 71
     5
 42
-1.0
  3
STANDARD
100
AcDbAlignedDimension
 13
254.6934202882151
 23
242.2932631972462
 33
0.0
 14
387.6796385646749
 24
252.6903602824065
 34
0.0
100
AcDbRotatedDimension
1001
ACAD
1000
DSTYLE
1002
{
1070
   140
1040
6.0
1070
    74
1070
     0
1070
   172
1070
     1
1070
    73
1070
     0
1070
   272
1070
     2
1070
    77
1070
     3
1070
   173
1070
     1
1070
   147
1040
2.0
1070
    42
1040
6.0
1070
    44
1040
3.0
1070
    43
1040
14.0
1070
   271
1070
     0
1070
   178
1070
     4
1070
   177
1070
     4
1070
   176
1070
     4
1070
   141
1040
150.0
1070
     7
1000
_OPEN
1070
     6
1000
_OPEN
1070
    41
1040
7.0
1002
}
  0
DIMENSION
  5
5E3B
330
1A
100
AcDbEntity
  8
SUNPOU
  6
Continuous
 62
     4
 48
5.0
100
AcDbDimension
  2
*D7
 10
387.6796385646749
 20
291.6014575864603
 30
0.0
 11
337.811579426445
 21
296.6014575864603
 31
0.0
 70
    32
 71
     5
 42
-1.0
  3
STANDARD
100
AcDbAlignedDimension
 13
287.9435202882152
 23
216.7931631972462
 33
0.0
 14
387.6796385646749
 24
252.6903602824065
 34
0.0
100
AcDbRotatedDimension
1001
ACAD
1000
DSTYLE
1002
{
1070
   140
1040
6.0
1070
    74
1070
     0
1070
   172
1070
     1
1070
    73
1070
     0
1070
   272
1070
     2
1070
    77
1070
     3
1070
   173
1070
     1
1070
   147
1040
2.0
1070
    42
1040
6.0
1070
    44
1040
3.0
1070
    43
1040
14.0
1070
   271
1070
     0
1070
   178
1070
     4
1070
   177
1070
     4
1070
   176
1070
     4
1070
   141
1040
150.0
1070
     7
1000
_OPEN
1070
     6
1000
_OPEN
1070
    41
1040
7.0
1002
}
  0
LINE
  5
5E3C
330
1A
100
AcDbEntity
  8
SEIHIN
  6
Continuous
 62
     3
 48
5.0
100
AcDbLine
 10
283.7707202882152
 20
216.5910631972462
 30
0.0
 11
272.5385202882151
 21
236.7973631972462
 31
0.0
  0
ARC
  5
5E3D
330
1A
100
AcDbEntity
  8
SEIHIN
  6
Continuous
 62
     3
 48
5.0
100
AcDbCircle
 10
282.9217202882152
 20
210.2931631972462
 30
0.0
 40
2.999983
100
AcDbArc
 50
201.734379
 51
270.0
  0
ARC
  5
5E3E
330
1A
100
AcDbEntity
  8
SEIHIN
  6
Continuous
 62
     3
 48
5.0
100
AcDbCircle
 10
282.5827202882151
 20
209.7931631972461
 30
0.0
 40
4.99999
100
AcDbArc
 50
201.7354439999997
 51
270.0
  0
LINE
  5
5E3F
330
1A
100
AcDbEntity
  8
SEIHIN
  6
Continuous
 62
     3
 48
5.0
100
AcDbLine
 10
281.8432202882152
 20
214.8890631972462
 30
0.0
 11
274.4172202882151
 21
227.9092631972461
 31
0.0
  0
LINE
  5
5E40
330
1A
100
AcDbEntity
  8
SEIHIN
  6
Continuous
 62
     3
 48
5.0
100
AcDbLine
 10
268.4486202882151
 20
230.7448631972461
 30
0.0
 11
277.9382202882151
 21
207.9415631972461
 31
0.0
  0
LINE
  5
5E41
330
1A
100
AcDbEntity
  8
SEIHIN
  6
Continuous
 62
     3
 48
5.0
100
AcDbLine
 10
280.1350202882151
 20
209.1821631972461
 30
0.0
 11
272.6046202882151
 21
227.0708631972461
 31
0.0
  0
ARC
  5
5E42
330
1A
100
AcDbEntity
  8
SEIHIN
  6
Continuous
 62
     3
 48
5.0
100
AcDbCircle
 10
273.5335202882152
 20
227.4411631972462
 30
0.0
 40
1.000005
100
AcDbArc
 50
27.91037699999971
 51
201.734379
  0
LINE
  5
5E43
330
1A
100
AcDbEntity
  8
SEIHIN
  6
Continuous
 62
     3
 48
5.0
100
AcDbLine
 10
269.8875202882151
 20
238.3931631972461
 30
0.0
 11
258.6934202882151
 21
238.3932631972462
 31
0.0
  0
ARC
  5
5E44
330
1A
100
AcDbEntity
  8
SEIHIN
  6
Continuous
 62
     3
 48
5.0
100
AcDbCircle
 10
263.8041202882151
 20
228.8931631972462
 30
0.0
 40
5.000008999999999
100
AcDbArc
 50
21.73650799999998
 51
90.0
  0
LINE
  5
5E45
330
1A
100
AcDbEntity
  8
SEIHIN
  6
Continuous
 62
     3
 48
5.0
100
AcDbLine
 10
257.6934202882152
 20
242.2932631972462
 30
0.0
 11
257.6934202882152
 21
239.3932631972461
 31
0.0
  0
LINE
  5
5E46
330
1A
100
AcDbEntity
  8
SEIHIN
  6
Continuous
 62
     3
 48
5.0
100
AcDbLine
 10
254.6934202882151
 20
242.2932631972462
 30
0.0
 11
254.6934202882151
 21
236.8932631972461
 31
0.0
  0
LINE
  5
5E47
330
1A
100
AcDbEntity
  8
SEIHIN
  6
Continuous
 62
     3
 48
5.0
100
AcDbLine
 10
254.6934202882151
 20
239.7931631972462
 30
0.0
 11
257.6933202882151
 21
239.7931631972462
 31
0.0
  0
ARC
  5
5E48
330
1A
100
AcDbEntity
  8
SEIHIN
  6
Continuous
 62
     3
 48
5.0
100
AcDbCircle
 10
257.6934202882152
 20
236.8932631972461
 30
0.0
 40
3.0
100
AcDbArc
 50
180.0
 51
269.9980899999995
  0
LINE
  5
5E49
330
1A
100
AcDbEntity
  8
SEIHIN
  6
Continuous
 62
     3
 48
5.0
100
AcDbLine
 10
263.8041202882151
 20
233.8931631972462
 30
0.0
 11
257.6933202882151
 21
233.8932631972462
 31
0.0
  0
ARC
  5
5E4A
330
1A
100
AcDbEntity
  8
SEIHIN
  6
Continuous
 62
     3
 48
5.0
100
AcDbCircle
 10
258.6934202882151
 20
239.3932631972461
 30
0.0
 40
1.0
100
AcDbArc
 50
180.0
 51
270.0
  0
ARC
  5
5E4B
330
1A
100
AcDbEntity
  8
SEIHIN
  6
Continuous
 62
     3
 48
5.0
100
AcDbCircle
 10
256.1934202882151
 20
242.2932631972462
 30
0.0
 40
1.5
100
AcDbArc
 50
0.0
 51
180.0
  0
ARC
  5
5E4C
330
1A
100
AcDbEntity
  8
SEIHIN
  6
Continuous
 62
     3
 48
5.0
100
AcDbCircle
 10
269.8874202882151
 20
235.3931631972462
 30
0.0
 40
3.000008999999999
100
AcDbArc
 50
27.90868899999983
 51
90.0
  0
LINE
  5
5E4D
330
1A
100
AcDbEntity
  8
CENTER_L
  6
CENTER
 62
     1
 48
5.0
100
AcDbLine
 10
295.4638374779715
 20
183.3085501794174
 30
0.0
 11
295.4638842889573
 21
225.7454940858001
 31
0.0
  0
LINE
  5
5E4E
330
1A
100
AcDbEntity
  8
SEIHIN
  6
Continuous
 62
     3
 48
5.0
100
AcDbLine
 10
348.4612202882151
 20
204.7930631972461
 30
0.0
 11
365.6847202882151
 21
208.0310631972461
 31
0.0
  0
ARC
  5
5E4F
330
1A
100
AcDbEntity
  8
SEIHIN
  6
Continuous
 62
     3
 48
5.0
100
AcDbCircle
 10
378.6933202882151
 20
207.7930631972462
 30
0.0
 40
4.999982
100
AcDbArc
 50
205.2243000000005
 51
0.0
  0
LINE
  5
5E50
330
1A
100
AcDbEntity
  8
SEIHIN
  6
Continuous
 62
     3
 48
5.0
100
AcDbLine
 10
374.2491202882151
 20
205.5018631972461
 30
0.0
 11
371.3601202882151
 21
210.1056631972462
 31
0.0
  0
LINE
  5
5E51
330
1A
100
AcDbEntity
  8
SEIHIN
  6
Continuous
 62
     3
 48
5.0
100
AcDbLine
 10
282.5827202882151
 20
204.7931631972462
 30
0.0
 11
348.4612202882151
 21
204.7930631972461
 31
0.0
  0
LINE
  5
5E52
330
1A
100
AcDbEntity
  8
SEIHIN
  6
Continuous
 62
     3
 48
5.0
100
AcDbLine
 10
290.9636202882152
 20
196.7932631972462
 30
0.0
 11
299.9636202882152
 21
196.7932631972462
 31
0.0
  0
LINE
  5
5E53
330
1A
100
AcDbEntity
  8
SEIHIN
  6
Continuous
 62
     3
 48
5.0
100
AcDbLine
 10
292.4636202882152
 20
194.7932631972462
 30
0.0
 11
298.4636202882152
 21
194.7932631972462
 31
0.0
  0
LINE
  5
5E54
330
1A
100
AcDbEntity
  8
SEIHIN
  6
Continuous
 62
     3
 48
5.0
100
AcDbLine
 10
288.9636202882152
 20
202.7932631972462
 30
0.0
 11
301.9636202882152
 21
202.7932631972462
 31
0.0
  0
LINE
  5
5E55
330
1A
100
AcDbEntity
  8
SEIHIN
  6
Continuous
 62
     3
 48
5.0
100
AcDbLine
 10
283.7837202882151
 20
195.5392631972461
 30
0.0
 11
288.2579202882151
 21
192.9560631972462
 31
0.0
  0
LINE
  5
5E56
330
1A
100
AcDbEntity
  8
SEIHIN
  6
Continuous
 62
     3
 48
5.0
100
AcDbLine
 10
293.0636202882151
 20
196.7932631972462
 30
0.0
 11
293.0636202882151
 21
194.7932631972462
 31
0.0
  0
LINE
  5
5E57
330
1A
100
AcDbEntity
  8
SEIHIN
  6
Continuous
 62
     3
 48
5.0
100
AcDbLine
 10
292.4636202882152
 20
194.7932631972462
 30
0.0
 11
292.4636202882152
 21
196.7932631972462
 31
0.0
  0
ARC
  5
5E58
330
1A
100
AcDbEntity
  8
SEIHIN
  6
Continuous
 62
     3
 48
5.0
100
AcDbCircle
 10
284.0337202882151
 20
195.9722631972462
 30
0.0
 40
1.500004999999999
100
AcDbArc
 50
129.4460959999993
 51
240.0011820000001
  0
LINE
  5
5E59
330
1A
100
AcDbEntity
  8
SEIHIN
  6
Continuous
 62
     3
 48
5.0
100
AcDbLine
 10
290.9633202882151
 20
196.7932631972462
 30
0.0
 11
289.9577202882151
 21
193.0042631972461
 31
0.0
  0
LINE
  5
5E5A
330
1A
100
AcDbEntity
  8
SEIHIN
  6
Continuous
 62
     3
 48
5.0
100
AcDbLine
 10
288.9912202882151
 20
193.2607631972461
 30
0.0
 11
289.9138202882152
 21
196.7372631972462
 31
0.0
  0
ARC
  5
5E5B
330
1A
100
AcDbEntity
  8
SEIHIN
  6
Continuous
 62
     3
 48
5.0
100
AcDbCircle
 10
288.5079202882151
 20
193.3890631972461
 30
0.0
 40
1.500024999999999
100
AcDbArc
 50
240.0011820000001
 51
345.1355079999999
  0
ARC
  5
5E5C
330
1A
100
AcDbEntity
  8
SEIHIN
  6
Continuous
 62
     3
 48
5.0
100
AcDbCircle
 10
288.5079202882151
 20
193.3890631972461
 30
0.0
 40
0.5000580000000001
100
AcDbArc
 50
240.0050010000005
 51
345.1327970000004
  0
LINE
  5
5E5D
330
1A
100
AcDbEntity
  8
SEIHIN
  6
Continuous
 62
     3
 48
5.0
100
AcDbLine
 10
287.7579202882151
 20
192.0899631972462
 30
0.0
 11
283.2837202882151
 21
194.6731631972461
 31
0.0
  0
ARC
  5
5E5E
330
1A
100
AcDbEntity
  8
SEIHIN
  6
Continuous
 62
     3
 48
5.0
100
AcDbCircle
 10
288.9107202882152
 20
199.9847631972462
 30
0.0
 40
0.500005
100
AcDbArc
 50
9.462322000000171
 51
129.4490450000005
  0
LINE
  5
5E5F
330
1A
100
AcDbEntity
  8
SEIHIN
  6
Continuous
 62
     3
 48
5.0
100
AcDbLine
 10
289.9633202882151
 20
202.7932631972462
 30
0.0
 11
283.0807202882152
 21
197.1305631972462
 31
0.0
  0
LINE
  5
5E60
330
1A
100
AcDbEntity
  8
SEIHIN
  6
Continuous
 62
     3
 48
5.0
100
AcDbLine
 10
288.9636202882152
 20
202.7932631972462
 30
0.0
 11
288.9636202882152
 21
204.7932631972462
 31
0.0
  0
ARC
  5
5E61
330
1A
100
AcDbEntity
  8
SEIHIN
  6
Continuous
 62
     3
 48
5.0
100
AcDbCircle
 10
284.0337202882151
 20
195.9722631972462
 30
0.0
 40
0.4999979999999999
100
AcDbArc
 50
129.4490450000005
 51
239.999272
  0
LINE
  5
5E62
330
1A
100
AcDbEntity
  8
SEIHIN
  6
Continuous
 62
     3
 48
5.0
100
AcDbLine
 10
283.7160202882151
 20
196.3583631972461
 30
0.0
 11
288.5930202882151
 21
200.3709631972462
 31
0.0
  0
ARC
  5
5E63
330
1A
100
AcDbEntity
  8
SEIHIN
  6
Continuous
 62
     3
 48
5.0
100
AcDbCircle
 10
289.4305202882151
 20
196.8655631972461
 30
0.0
 40
0.5000210000000001
100
AcDbArc
 50
345.1327970000004
 51
9.462322000000171
  0
LINE
  5
5E64
330
1A
100
AcDbEntity
  8
SEIHIN
  6
Continuous
 62
     3
 48
5.0
100
AcDbLine
 10
289.4039202882152
 20
200.0669631972462
 30
0.0
 11
289.9237202882151
 21
196.9477631972461
 31
0.0
  0
LINE
  5
5E65
330
1A
100
AcDbEntity
  8
SEIHIN
  6
Continuous
 62
     3
 48
5.0
100
AcDbLine
 10
289.9636202882152
 20
202.7932631972462
 30
0.0
 11
290.9636202882152
 21
196.7932631972462
 31
0.0
  0
LINE
  5
5E66
330
1A
100
AcDbEntity
  8
SEIHIN
  6
Continuous
 62
     3
 48
5.0
100
AcDbLine
 10
307.1432202882152
 20
195.5391631972461
 30
0.0
 11
302.6690202882152
 21
192.9559631972462
 31
0.0
  0
ARC
  5
5E67
330
1A
100
AcDbEntity
  8
SEIHIN
  6
Continuous
 62
     3
 48
5.0
100
AcDbCircle
 10
306.8932202882152
 20
195.9721631972462
 30
0.0
 40
1.5
100
AcDbArc
 50
300.0007279999997
 51
50.55633099999936
  0
LINE
  5
5E68
330
1A
100
AcDbEntity
  8
SEIHIN
  6
Continuous
 62
     3
 48
5.0
100
AcDbLine
 10
298.4636202882152
 20
194.7932631972462
 30
0.0
 11
298.4636202882152
 21
196.7932631972462
 31
0.0
  0
LINE
  5
5E69
330
1A
100
AcDbEntity
  8
SEIHIN
  6
Continuous
 62
     3
 48
5.0
100
AcDbLine
 10
297.8637202882151
 20
196.7932631972462
 30
0.0
 11
297.8637202882151
 21
194.7932631972462
 31
0.0
  0
LINE
  5
5E6A
330
1A
100
AcDbEntity
  8
SEIHIN
  6
Continuous
 62
     3
 48
5.0
100
AcDbLine
 10
299.9636202882152
 20
196.7932631972462
 30
0.0
 11
300.9692202882151
 21
193.0042631972461
 31
0.0
  0
LINE
  5
5E6B
330
1A
100
AcDbEntity
  8
SEIHIN
  6
Continuous
 62
     3
 48
5.0
100
AcDbLine
 10
301.9357202882151
 20
193.2607631972461
 30
0.0
 11
301.0131202882151
 21
196.7372631972462
 31
0.0
  0
LINE
  5
5E6C
330
1A
100
AcDbEntity
  8
SEIHIN
  6
Continuous
 62
     3
 48
5.0
100
AcDbLine
 10
303.1690202882152
 20
192.0899631972462
 30
0.0
 11
307.6432202882152
 21
194.6731631972461
 31
0.0
  0
ARC
  5
5E6D
330
1A
100
AcDbEntity
  8
SEIHIN
  6
Continuous
 62
     3
 48
5.0
100
AcDbCircle
 10
302.4190202882152
 20
193.3890631972461
 30
0.0
 40
0.5000580000000001
100
AcDbArc
 50
194.8672029999995
 51
299.9949989999995
  0
ARC
  5
5E6E
330
1A
100
AcDbEntity
  8
SEIHIN
  6
Continuous
 62
     3
 48
5.0
100
AcDbCircle
 10
302.4190202882152
 20
193.3890631972461
 30
0.0
 40
1.500024999999999
100
AcDbArc
 50
194.8644920000002
 51
299.9988179999998
  0
LINE
  5
5E6F
330
1A
100
AcDbEntity
  8
SEIHIN
  6
Continuous
 62
     3
 48
5.0
100
AcDbLine
 10
300.9636202882152
 20
202.7932631972462
 30
0.0
 11
307.8462202882151
 21
197.1305631972462
 31
0.0
  0
LINE
  5
5E70
330
1A
100
AcDbEntity
  8
SEIHIN
  6
Continuous
 62
     3
 48
5.0
100
AcDbLine
 10
307.2109202882152
 20
196.3583631972461
 30
0.0
 11
302.3339202882152
 21
200.3708631972461
 31
0.0
  0
ARC
  5
5E71
330
1A
100
AcDbEntity
  8
SEIHIN
  6
Continuous
 62
     3
 48
5.0
100
AcDbCircle
 10
301.4964202882151
 20
196.8655631972461
 30
0.0
 40
0.5000210000000001
100
AcDbArc
 50
170.5376779999998
 51
194.8672029999995
  0
ARC
  5
5E72
330
1A
100
AcDbEntity
  8
SEIHIN
  6
Continuous
 62
     3
 48
5.0
100
AcDbCircle
 10
302.0162202882152
 20
199.9847631972462
 30
0.0
 40
0.4999550000000001
100
AcDbArc
 50
50.55095499999939
 51
170.5357940000003
  0
LINE
  5
5E73
330
1A
100
AcDbEntity
  8
SEIHIN
  6
Continuous
 62
     3
 48
5.0
100
AcDbLine
 10
301.9636202882152
 20
202.7932631972462
 30
0.0
 11
301.9636202882152
 21
204.7932631972462
 31
0.0
  0
LINE
  5
5E74
330
1A
100
AcDbEntity
  8
SEIHIN
  6
Continuous
 62
     3
 48
5.0
100
AcDbLine
 10
301.5231202882151
 20
200.0669631972462
 30
0.0
 11
301.0032202882151
 21
196.9477631972461
 31
0.0
  0
LINE
  5
5E75
330
1A
100
AcDbEntity
  8
SEIHIN
  6
Continuous
 62
     3
 48
5.0
100
AcDbLine
 10
299.9636202882152
 20
196.7932631972462
 30
0.0
 11
300.9636202882152
 21
202.7932631972462
 31
0.0
  0
ARC
  5
5E76
330
1A
100
AcDbEntity
  8
SEIHIN
  6
Continuous
 62
     3
 48
5.0
100
AcDbCircle
 10
306.8932202882152
 20
195.9721631972462
 30
0.0
 40
0.5000359999999999
100
AcDbArc
 50
300.0007279999997
 51
50.55823499999901
  0
LINE
  5
5E77
330
1A
100
AcDbEntity
  8
SEIHIN
 48
5.0
100
AcDbLine
 10
385.6506202882151
 20
245.1392631972462
 30
0.0
 11
329.6411185238755
 21
240.0221831901944
 31
0.0
  0
LINE
  5
5E78
330
1A
100
AcDbEntity
  8
SEIHIN
 48
5.0
100
AcDbLine
 10
383.3284225054136
 20
252.293038470067
 30
0.0
 11
326.609420065027
 21
247.1138663635163
 31
0.0
  0
ARC
  5
5E79
330
1A
100
AcDbEntity
  8
SEIHIN
  6
Continuous
 62
     3
 48
5.0
100
AcDbCircle
 10
346.8017202882151
 20
216.7930631972462
 30
0.0
 40
1.000002999999999
100
AcDbArc
 50
150.2380629999994
 51
270.0
  0
LINE
  5
5E7A
330
1A
100
AcDbEntity
  8
SEIHIN
  6
Continuous
 62
     3
 48
5.0
100
AcDbLine
 10
345.9336202882151
 20
217.2894631972461
 30
0.0
 11
358.2018202882151
 21
238.7445631972461
 31
0.0
  0
LINE
  5
5E7B
330
1A
100
AcDbEntity
  8
SEIHIN
  6
Continuous
 62
     3
 48
5.0
100
AcDbLine
 10
356.2022202882151
 20
240.2743631972461
 30
0.0
 11
342.6291202882151
 21
216.5284631972462
 31
0.0
  0
LINE
  5
5E7C
330
1A
100
AcDbEntity
  8
SEIHIN
  6
Continuous
 62
     3
 48
5.0
100
AcDbLine
 10
312.0060202882152
 20
213.2931631972462
 30
0.0
 11
348.8373202882151
 21
213.2930631972461
 31
0.0
  0
ARC
  5
5E7D
330
1A
100
AcDbEntity
  8
SEIHIN
  6
Continuous
 62
     3
 48
5.0
100
AcDbCircle
 10
346.4669202882151
 20
208.2930631972462
 30
0.0
 40
0.999978
100
AcDbArc
 50
270.0
 51
329.3546270000002
  0
LINE
  5
5E7E
330
1A
100
AcDbEntity
  8
SEIHIN
  6
Continuous
 62
     3
 48
5.0
100
AcDbLine
 10
325.7267202882151
 20
237.5062631972462
 30
0.0
 11
312.3210202882152
 21
213.8491631972462
 31
0.0
  0
LINE
  5
5E7F
330
1A
100
AcDbEntity
  8
SEIHIN
  6
Continuous
 62
     3
 48
5.0
100
AcDbLine
 10
321.1293202882151
 20
243.5915631972461
 30
0.0
 11
306.2308202882151
 21
217.3001631972462
 31
0.0
  0
LINE
  5
5E80
330
1A
100
AcDbEntity
  8
SEIHIN
  6
Continuous
 62
     3
 48
5.0
100
AcDbLine
 10
341.3387202882151
 20
215.7930631972461
 30
0.0
 11
313.4226202882151
 21
215.7931631972461
 31
0.0
  0
LINE
  5
5E81
330
1A
100
AcDbEntity
  8
SEIHIN
  6
Continuous
 62
     3
 48
5.0
100
AcDbLine
 10
282.9216202882151
 20
207.2931631972461
 30
0.0
 11
346.4669202882151
 21
207.2930631972461
 31
0.0
  0
LINE
  5
5E82
330
1A
100
AcDbEntity
  8
SEIHIN
 48
5.0
100
AcDbLine
 10
291.9435202882152
 20
209.7933631972462
 30
0.0
 11
305.3608202882152
 21
209.7932531972462
 31
0.0
  0
ARC
  5
5E83
330
1A
100
AcDbEntity
  8
SEIHIN
  6
Continuous
 62
     3
 48
5.0
100
AcDbCircle
 10
295.4637202882151
 20
210.2098631972462
 30
0.0
 40
9.083389
100
AcDbArc
 50
56.60174300000083
 51
123.3982569999991
  0
LINE
  5
5E84
330
1A
100
AcDbEntity
  8
SEIHIN
  6
Continuous
 62
     3
 48
5.0
100
AcDbLine
 10
300.4637202882151
 20
217.7932631972462
 30
0.0
 11
290.4637202882151
 21
217.7932631972462
 31
0.0
  0
LINE
  5
5E85
330
1A
100
AcDbEntity
  8
SEIHIN
  6
Continuous
 62
     3
 48
5.0
100
AcDbLine
 10
305.3608202882152
 20
216.7931631972462
 30
0.0
 11
287.9435202882152
 21
216.7931631972462
 31
0.0
  0
LINE
  5
5E86
330
1A
100
AcDbEntity
  8
SEIHIN
  6
Continuous
 62
     3
 48
5.0
100
AcDbLine
 10
287.9435202882152
 20
213.7933631972462
 30
0.0
 11
291.9435202882152
 21
209.7933631972462
 31
0.0
  0
LINE
  5
5E87
330
1A
100
AcDbEntity
  8
SEIHIN
  6
Continuous
 62
     3
 48
5.0
100
AcDbLine
 10
284.4943202882151
 20
213.2931631972462
 30
0.0
 11
288.4436202882151
 21
213.2931631972462
 31
0.0
  0
LINE
  5
5E88
330
1A
100
AcDbEntity
  8
SEIHIN
  6
Continuous
 62
     3
 48
5.0
100
AcDbLine
 10
287.9435202882152
 20
215.7931631972461
 30
0.0
 11
285.0963202882152
 21
215.7931631972461
 31
0.0
  0
ARC
  5
5E89
330
1A
100
AcDbEntity
  8
SEIHIN
  6
Continuous
 62
     3
 48
5.0
100
AcDbCircle
 10
285.0963202882152
 20
217.2931631972462
 30
0.0
 40
1.500027
100
AcDbArc
 50
207.907795
 51
270.0
  0
LINE
  5
5E8A
330
1A
100
AcDbEntity
  8
SEIHIN
  6
Continuous
 62
     3
 48
5.0
100
AcDbLine
 10
287.9435202882152
 20
213.7933631972462
 30
0.0
 11
287.9435202882152
 21
216.7933631972462
 31
0.0
  0
LINE
  5
5E8B
330
1A
100
AcDbEntity
  8
SEIHIN
  6
Continuous
 62
     3
 48
5.0
100
AcDbLine
 10
283.1932202882151
 20
213.2931631972462
 30
0.0
 11
283.1932202882151
 21
207.2931631972461
 31
0.0
  0
ARC
  5
5E8C
330
1A
100
AcDbEntity
  8
SEIHIN
  6
Continuous
 62
     3
 48
5.0
100
AcDbCircle
 10
284.4943202882151
 20
216.2931631972461
 30
0.0
 40
2.999986
100
AcDbArc
 50
207.9070010000001
 51
270.0
  0
LINE
  5
5E8D
330
1A
100
AcDbEntity
  8
SEIHIN
  6
Continuous
 62
     3
 48
5.0
100
AcDbLine
 10
290.4636202882152
 20
216.7932631972461
 30
0.0
 11
290.4637202882151
 21
217.7932631972462
 31
0.0
  0
ARC
  5
5E8E
330
1A
100
AcDbEntity
  8
SEIHIN
  6
Continuous
 62
     3
 48
5.0
100
AcDbCircle
 10
305.3608202882152
 20
217.7931631972461
 30
0.0
 40
0.999987
100
AcDbArc
 50
270.0
 51
330.4612179999999
  0
ARC
  5
5E8F
330
1A
100
AcDbEntity
  8
SEIHIN
  6
Continuous
 62
     3
 48
5.0
100
AcDbCircle
 10
305.3608202882152
 20
217.7932631972462
 30
0.0
 40
8.000010000000001
100
AcDbArc
 50
270.0
 51
330.4613009999994
  0
LINE
  5
5E90
330
1A
100
AcDbEntity
  8
SEIHIN
  6
Continuous
 62
     3
 48
5.0
100
AcDbLine
 10
300.4637202882151
 20
216.7932631972461
 30
0.0
 11
300.4637202882151
 21
217.7932631972462
 31
0.0
  0
ARC
  5
5E91
330
1A
100
AcDbEntity
  8
SEIHIN
  6
Continuous
 62
     3
 48
5.0
100
AcDbCircle
 10
341.3387202882151
 20
217.2930631972461
 30
0.0
 40
1.499983
100
AcDbArc
 50
270.0
 51
329.3487229999997
  0
LINE
  5
5E92
330
1A
100
AcDbEntity
  8
SEIHIN
  6
Continuous
 62
     3
 48
5.0
100
AcDbLine
 10
342.1934202882151
 20
207.2931631972461
 30
0.0
 11
342.1934202882151
 21
213.2931631972462
 31
0.0
  0
ARC
  5
5E93
330
1A
100
AcDbEntity
  8
SEIHIN
  6
Continuous
 62
     3
 48
5.0
100
AcDbCircle
 10
330.0768202882151
 20
235.0412631972461
 30
0.0
 40
4.999940000000001
100
AcDbArc
 50
94.99917500000014
 51
150.4617830000001
  0
ARC
  5
5E94
330
1A
100
AcDbEntity
  8
SEIHIN
  6
Continuous
 62
     3
 48
5.0
100
AcDbCircle
 10
327.2195202882152
 20
240.1404631972461
 30
0.0
 40
7.000041
100
AcDbArc
 50
95.0000529999996
 51
150.4613130000004
  0
DIMENSION
  5
5E95
330
1A
100
AcDbEntity
  8
SUNPOU
  6
Continuous
 62
     4
 48
5.0
100
AcDbDimension
  2
*D8
 10
387.6796385646749
 20
277.4103744892909
 30
0.0
 11
407.1796385646749
 21
277.4103744892909
 31
0.0
 70
   160
 71
     5
 42
-1.0
  3
STANDARD
100
AcDbAlignedDimension
 13
377.3934202882151
 23
226.0932631972462
 33
0.0
 14
387.6796385646749
 24
252.6903602824065
 34
0.0
100
AcDbRotatedDimension
1001
ACAD
1000
DSTYLE
1002
{
1070
   288
1070
     1
1070
   140
1040
6.0
1070
    74
1070
     0
1070
   172
1070
     1
1070
    73
1070
     0
1070
   272
1070
     2
1070
    77
1070
     3
1070
   173
1070
     1
1070
   147
1040
2.0
1070
    42
1040
6.0
1070
    44
1040
3.0
1070
    43
1040
14.0
1070
   271
1070
     0
1070
   178
1070
     4
1070
   177
1070
     4
1070
   176
1070
     4
1070
   141
1040
150.0
1070
     7
1000
_OPEN
1070
     6
1000
_OPEN
1070
    41
1040
7.0
1002
}
  0
ARC
  5
5E96
330
1A
100
AcDbEntity
  8
SEIHIN
  6
Continuous
 62
     3
 48
5.0
100
AcDbCircle
 10
383.9385202882151
 20
245.3196631972462
 30
0.0
 40
7.000013
100
AcDbArc
 50
30.96122999999996
 51
95.0000529999996
  0
ARC
  5
5E97
330
1A
100
AcDbEntity
  8
SEIHIN
  6
Continuous
 62
     3
 48
5.0
100
AcDbCircle
 10
378.6933202882151
 20
237.7929631972461
 30
0.0
 40
5.0
100
AcDbArc
 50
0.0
 51
89.99885400000053
  0
ARC
  5
5E98
330
1A
100
AcDbEntity
  8
SEIHIN
  6
Continuous
 62
     3
 48
5.0
100
AcDbCircle
 10
372.6934202882151
 20
226.7930631972462
 30
0.0
 40
5.0
100
AcDbArc
 50
0.0
 51
90.0
  0
LINE
  5
5E99
330
1A
100
AcDbEntity
  8
SEIHIN
  6
Continuous
 62
     3
 48
5.0
100
AcDbLine
 10
352.3642202882151
 20
216.2832631972461
 30
0.0
 11
361.5356202882151
 21
232.7526631972462
 31
0.0
  0
ARC
  5
5E9A
330
1A
100
AcDbEntity
  8
SEIHIN
  6
Continuous
 62
     3
 48
5.0
100
AcDbCircle
 10
366.8102202882151
 20
226.7930631972462
 30
0.0
 40
4.999972000000001
100
AcDbArc
 50
90.0
 51
149.3491129999999
  0
LINE
  5
5E9B
330
1A
100
AcDbEntity
  8
SEIHIN
  6
Continuous
 62
     3
 48
5.0
100
AcDbLine
 10
351.9898202882151
 20
207.4915631972461
 30
0.0
 11
365.4688202882151
 21
209.3127631972461
 31
0.0
  0
LINE
  5
5E9C
330
1A
100
AcDbEntity
  8
SEIHIN
  6
Continuous
 62
     3
 48
5.0
100
AcDbLine
 10
350.9448202882151
 20
208.9840631972462
 30
0.0
 11
362.5088202882151
 21
229.3420631972462
 31
0.0
  0
ARC
  5
5E9D
330
1A
100
AcDbEntity
  8
SEIHIN
  6
Continuous
 62
     3
 48
5.0
100
AcDbCircle
 10
351.5039202882151
 20
216.7930631972462
 30
0.0
 40
1.000002999999999
100
AcDbArc
 50
270.0
 51
329.3496969999992
  0
ARC
  5
5E9E
330
1A
100
AcDbEntity
  8
SEIHIN
  6
Continuous
 62
     3
 48
5.0
100
AcDbCircle
 10
348.8373202882151
 20
212.2930631972462
 30
0.0
 40
1.000002999999999
100
AcDbArc
 50
329.3496969999992
 51
90.0
  0
LINE
  5
5E9F
330
1A
100
AcDbEntity
  8
SEIHIN
  6
Continuous
 62
     3
 48
5.0
100
AcDbLine
 10
351.5039202882151
 20
215.7930631972461
 30
0.0
 11
346.8017202882151
 21
215.7930631972461
 31
0.0
  0
ARC
  5
5EA0
330
1A
100
AcDbEntity
  8
SEIHIN
  6
Continuous
 62
     3
 48
5.0
100
AcDbCircle
 10
351.8051202882151
 20
208.4742631972461
 30
0.0
 40
1.000005999999999
100
AcDbArc
 50
149.3497109999998
 51
280.6436029999996
  0
LINE
  5
5EA1
330
1A
100
AcDbEntity
  8
SEIHIN
  6
Continuous
 62
     3
 48
5.0
100
AcDbLine
 10
347.3272202882151
 20
207.7833631972461
 30
0.0
 11
349.6976202882151
 21
211.7832631972461
 31
0.0
  0
LINE
  5
5EA2
330
1A
100
AcDbEntity
  8
SEIHIN
  6
Continuous
 62
     3
 48
5.0
100
AcDbLine
 10
377.6934202882151
 20
226.7930631972462
 30
0.0
 11
377.6934202882151
 21
210.2930631972462
 31
0.0
  0
ARC
  5
5EA3
330
1A
100
AcDbEntity
  8
SEIHIN
  6
Continuous
 62
     3
 48
5.0
100
AcDbCircle
 10
372.6934202882151
 20
210.7930631972461
 30
0.0
 40
1.500016
100
AcDbArc
 50
44.54622400000023
 51
207.2739519999997
  0
ARC
  5
5EA4
330
1A
100
AcDbEntity
  8
SEIHIN
  6
Continuous
 62
     3
 48
5.0
100
AcDbCircle
 10
365.5646202882151
 20
208.6699631972462
 30
0.0
 40
0.6499560000000001
100
AcDbArc
 50
278.4841289999998
 51
98.47671100000039
  0
ARC
  5
5EA5
330
1A
100
AcDbEntity
  8
SEIHIN
  6
Continuous
 62
     3
 48
5.0
100
AcDbCircle
 10
376.6934202882151
 20
210.2930631972462
 30
0.0
 40
1.000010999999999
100
AcDbArc
 50
224.5462460000005
 51
0.0
  0
LINE
  5
5EA6
330
1A
100
AcDbEntity
  8
SEIHIN
  6
Continuous
 62
     3
 48
5.0
100
AcDbLine
 10
373.7624202882151
 20
211.8452631972461
 30
0.0
 11
375.9807202882151
 21
209.5915631972462
 31
0.0
  0
LINE
  5
5EA7
330
1A
100
AcDbEntity
  8
SEIHIN
  6
Continuous
 62
     3
 48
5.0
100
AcDbLine
 10
374.6934202882151
 20
240.2930631972461
 30
0.0
 11
360.8273202882151
 21
240.2930631972461
 31
0.0
  0
LINE
  5
5EA8
330
1A
100
AcDbEntity
  8
SEIHIN
  6
Continuous
 62
     3
 48
5.0
100
AcDbLine
 10
378.6933202882151
 20
242.7930631972461
 30
0.0
 11
360.5431202882151
 21
242.7930631972461
 31
0.0
  0
ARC
  5
5EA9
330
1A
100
AcDbEntity
  8
SEIHIN
  6
Continuous
 62
     3
 48
5.0
100
AcDbCircle
 10
364.1566202882151
 20
231.2930631972462
 30
0.0
 40
3.000005999999999
100
AcDbArc
 50
90.0
 51
150.8871489999994
  0
ARC
  5
5EAA
330
1A
100
AcDbEntity
  8
SEIHIN
  6
Continuous
 62
     3
 48
5.0
100
AcDbCircle
 10
360.5431202882151
 20
237.7930631972461
 30
0.0
 40
4.999988
100
AcDbArc
 50
90.0
 51
150.2482960000001
  0
ARC
  5
5EAB
330
1A
100
AcDbEntity
  8
SEIHIN
  6
Continuous
 62
     3
 48
5.0
100
AcDbCircle
 10
360.8273202882151
 20
237.2930631972461
 30
0.0
 40
3.000008999999999
100
AcDbArc
 50
90.0
 51
149.3496969999993
  0
LINE
  5
5EAC
330
1A
100
AcDbEntity
  8
SEIHIN
  6
Continuous
 62
     3
 48
5.0
100
AcDbLine
 10
366.8102202882151
 20
231.7930631972461
 30
0.0
 11
372.6934202882151
 21
231.7930631972461
 31
0.0
  0
LINE
  5
5EAD
330
1A
100
AcDbEntity
  8
SEIHIN
  6
Continuous
 62
     3
 48
5.0
100
AcDbLine
 10
364.1566202882151
 20
234.2930631972461
 30
0.0
 11
374.6934202882151
 21
234.2930631972461
 31
0.0
  0
ARC
  5
5EAE
330
1A
100
AcDbEntity
  8
SEIHIN
  6
Continuous
 62
     3
 48
5.0
100
AcDbCircle
 10
374.6934202882151
 20
237.2930631972461
 30
0.0
 40
3.0
100
AcDbArc
 50
270.0
 51
0.0
  0
ARC
  5
5EAF
330
1A
100
AcDbEntity
  8
SEIHIN
  6
Continuous
 62
     3
 48
5.0
100
AcDbCircle
 10
374.6933202882151
 20
237.2930631972461
 30
0.0
 40
3.0
100
AcDbArc
 50
0.0
 51
90.0
  0
LINE
  5
5EB0
330
1A
100
AcDbEntity
  8
CENTER_L
  6
CENTER
 62
     1
 48
5.0
100
AcDbLine
 10
393.2608702943136
 20
226.8636465283933
 30
0.0
 11
405.5415702943137
 21
234.2309465283933
 31
0.0
  0
LINE
  5
5EB1
330
1A
100
AcDbEntity
  8
SEIHIN
  6
Continuous
 62
     3
 48
5.0
100
AcDbLine
 10
388.4118202882151
 20
244.2779631972462
 30
0.0
 11
403.0369202882151
 21
219.9004631972461
 31
0.0
  0
LINE
  5
5EB2
330
1A
100
AcDbEntity
  8
SEIHIN
  6
Continuous
 62
     3
 48
5.0
100
AcDbLine
 10
383.6934202882151
 20
237.7930631972461
 30
0.0
 11
383.6933202882151
 21
207.7930631972462
 31
0.0
  0
ARC
  5
5EB3
330
1A
100
AcDbEntity
  8
SEIHIN
  6
Continuous
 62
     3
 48
5.0
100
AcDbCircle
 10
406.4670202882151
 20
221.9582631972461
 30
0.0
 40
3.999988999999999
100
AcDbArc
 50
210.9605629999995
 51
278.9371799999997
  0
LINE
  5
5EB4
330
1A
100
AcDbEntity
  8
CENTER_L
  6
CENTER
 62
     1
 48
5.0
100
AcDbLine
 10
408.6612702943137
 20
229.1056465283933
 30
0.0
 11
396.5457702943137
 21
221.8373465283933
 31
0.0
  0
LINE
  5
5EB5
330
1A
100
AcDbEntity
  8
SEIHIN
  6
Continuous
 62
     3
 48
5.0
100
AcDbLine
 10
389.7689202882151
 20
243.9596631972461
 30
0.0
 11
397.2064202882151
 21
231.5626631972461
 31
0.0
  0
ARC
  5
5EB6
330
1A
100
AcDbEntity
  8
SEIHIN
  6
Continuous
 62
     3
 48
5.0
100
AcDbCircle
 10
378.6934202882151
 20
237.7930631972461
 30
0.0
 40
4.999965
100
AcDbArc
 50
0.0
 51
23.57852499999982
  0
LINE
  5
5EB7
330
1A
100
AcDbEntity
  8
SEIHIN
  6
Continuous
 62
     3
 48
5.0
100
AcDbLine
 10
385.6506202882151
 20
245.1392631972462
 30
0.0
 11
392.0761202882151
 21
243.4184631972462
 31
0.0
  0
LINE
  5
5EB8
330
1A
100
AcDbEntity
  8
SEIHIN
  6
Continuous
 62
     3
 48
5.0
100
AcDbLine
 10
392.9336202882151
 20
243.9328631972462
 30
0.0
 11
392.0761202882151
 21
243.4184631972462
 31
0.0
  0
ARC
  5
5EB9
330
1A
100
AcDbEntity
  8
SEIHIN
  6
Continuous
 62
     3
 48
5.0
100
AcDbCircle
 10
398.9215202882151
 20
232.5915631972462
 30
0.0
 40
2.000058
100
AcDbArc
 50
210.9637570000005
 51
286.4833040000005
  0
LINE
  5
5EBA
330
1A
100
AcDbEntity
  8
SEIHIN
  6
Continuous
 62
     3
 48
5.0
100
AcDbLine
 10
257.6933798534459
 20
395.447635919978
 30
0.0
 11
285.4636480352973
 21
395.4475441180456
 31
0.0
  0
LINE
  5
5EBB
330
1A
100
AcDbEntity
  8
SEIHIN
  6
Continuous
 62
     3
 48
5.0
100
AcDbLine
 10
257.6934480352973
 20
410.4475441180455
 30
0.0
 11
285.4636480352973
 21
410.4475441180456
 31
0.0
  0
DIMENSION
  5
5EBC
330
1A
100
AcDbEntity
  8
SUNPOU
 48
5.0
100
AcDbDimension
  2
*D9
 10
228.7933352678499
 20
395.4476441182096
 30
0.0
 11
223.7933352678498
 21
402.9475941181276
 31
0.0
 70
    32
 71
     5
 42
-1.0
  3
STANDARD
100
AcDbAlignedDimension
 13
257.6934480352973
 23
410.4475441180456
 33
0.0
 14
257.6933984491789
 24
395.4476441182096
 34
0.0
 50
90.0
100
AcDbRotatedDimension
1001
ACAD
1000
DSTYLE
1002
{
1070
   140
1040
6.0
1070
    74
1070
     0
1070
   172
1070
     1
1070
    73
1070
     0
1070
   272
1070
     2
1070
    77
1070
     3
1070
   173
1070
     1
1070
   147
1040
2.0
1070
    42
1040
6.0
1070
    44
1040
3.0
1070
    43
1040
14.0
1070
   271
1070
     0
1070
   178
1070
     4
1070
   177
1070
     4
1070
   176
1070
     4
1070
   141
1040
150.0
1070
     7
1000
_OPEN
1070
     6
1000
_OPEN
1070
    41
1040
7.0
1002
}
  0
LINE
  5
5EBD
330
1A
100
AcDbEntity
  8
SEIHIN
  6
Continuous
 62
     3
 48
5.0
100
AcDbLine
 10
257.6934480352973
 20
402.9478441180455
 30
0.0
 11
257.6933480352972
 21
391.9475441180456
 31
0.0
  0
LINE
  5
5EBE
330
1A
100
AcDbEntity
  8
SEIHIN
  6
Continuous
 62
     3
 48
5.0
100
AcDbLine
 10
254.6934480352973
 20
402.9478441180455
 30
0.0
 11
254.6933480352972
 21
391.9475441180456
 31
0.0
  0
LINE
  5
5EBF
330
1A
100
AcDbEntity
  8
SEIHIN
  6
Continuous
 62
     3
 48
5.0
100
AcDbLine
 10
254.6934480352973
 20
391.9475441180456
 30
0.0
 11
257.6934480352973
 21
391.9475441180456
 31
0.0
  0
LINE
  5
5EC0
330
1A
100
AcDbEntity
  8
SEIHIN
  6
Continuous
 62
     3
 48
5.0
100
AcDbLine
 10
257.6934480352973
 20
402.9473441180456
 30
0.0
 11
257.6934480352973
 21
413.9475441180456
 31
0.0
  0
LINE
  5
5EC1
330
1A
100
AcDbEntity
  8
SEIHIN
  6
Continuous
 62
     3
 48
5.0
100
AcDbLine
 10
254.6934480352973
 20
402.9473441180456
 30
0.0
 11
254.6934480352973
 21
413.9475441180456
 31
0.0
  0
LINE
  5
5EC2
330
1A
100
AcDbEntity
  8
SEIHIN
  6
Continuous
 62
     3
 48
5.0
100
AcDbLine
 10
254.6934480352973
 20
413.9475441180456
 30
0.0
 11
257.6934480352973
 21
413.9475441180456
 31
0.0
  0
LINE
  5
5EC3
330
1A
100
AcDbEntity
  8
SEIHIN
  6
Continuous
 62
     3
 48
5.0
100
AcDbLine
 10
271.6934480352973
 20
402.9474441180455
 30
0.0
 11
271.6934480352973
 21
410.4476441180457
 31
0.0
  0
LINE
  5
5EC4
330
1A
100
AcDbEntity
  8
SEIHIN
  6
Continuous
 62
     3
 48
5.0
100
AcDbLine
 10
271.6934480352973
 20
402.9476441180457
 30
0.0
 11
271.6934480352973
 21
395.4474441180455
 31
0.0
  0
LINE
  5
5EC5
330
1A
100
AcDbEntity
  8
CENTER_L
  6
CENTER
 62
     1
 48
5.0
100
AcDbLine
 10
295.4637890198866
 20
389.3784130057862
 30
0.0
 11
295.4638189553318
 21
416.5166752301815
 31
0.0
  0
ARC
  5
5EC6
330
1A
100
AcDbEntity
  8
SEIHIN
  6
Continuous
 62
     3
 48
5.0
100
AcDbCircle
 10
398.9725480352973
 20
392.9149441180456
 30
0.0
 40
1.578535
100
AcDbArc
 50
291.6113409999993
 51
76.13366299999937
  0
ARC
  5
5EC7
330
1A
100
AcDbEntity
  8
SEIHIN
  6
Continuous
 62
     3
 48
5.0
100
AcDbCircle
 10
387.5393480352972
 20
392.9473441180455
 30
0.0
 40
1.5
100
AcDbArc
 50
90.0
 51
270.0
  0
ARC
  5
5EC8
330
1A
100
AcDbEntity
  8
SEIHIN
  6
Continuous
 62
     3
 48
5.0
100
AcDbCircle
 10
384.1582480352972
 20
392.9471441180456
 30
0.0
 40
1.618827
100
AcDbArc
 50
112.0748139999999
 51
247.9238559999997
  0
LINE
  5
5EC9
330
1A
100
AcDbEntity
  8
SEIHIN
  6
Continuous
 62
     3
 48
5.0
100
AcDbLine
 10
303.4637480352972
 20
393.9975441180457
 30
0.0
 11
383.1607480352971
 21
383.7371441180455
 31
0.0
  0
ELLIPSE
  5
5ECA
330
1A
100
AcDbEntity
  8
SEIHIN
 48
5.0
100
AcDbEllipse
 10
399.6935082558735
 20
383.4476602780327
 30
0.0
 11
0.0
 21
2.100000000000022
 31
0.0
210
0.0
220
0.0
230
1.0
 40
0.5144382494820167
 41
-2.733727675686692
 42
-2.366263206964442
  0
ELLIPSE
  5
5ECB
330
1A
100
AcDbEntity
  8
SEIHIN
 48
5.0
100
AcDbEllipse
 10
399.6935082558735
 20
383.4476602780327
 30
0.0
 11
0.0
 21
2.100000000000022
 31
0.0
210
0.0
220
0.0
230
1.0
 40
0.5144382494820167
 41
-0.7750572810949873
 42
-0.4083619200467343
  0
ELLIPSE
  5
5ECC
330
1A
100
AcDbEntity
  8
SEIHIN
 48
5.0
100
AcDbEllipse
 10
402.7802735210191
 20
383.4472461042456
 30
0.0
 11
0.0
 21
3.25
 31
0.0
210
0.0
220
0.0
230
1.0
 40
0.5144595363939901
 41
-2.882261734274684
 42
-0.2593309193151083
  0
ELLIPSE
  5
5ECD
330
1A
100
AcDbEntity
  8
SEIHIN
 48
5.0
100
AcDbEllipse
 10
400.5510198854977
 20
383.4472461042456
 30
0.0
 11
0.0
 21
2.100000000000022
 31
0.0
210
0.0
220
0.0
230
1.0
 40
0.5144382494820167
 41
-0.7750572810949873
 42
3.916922100215157
  0
ELLIPSE
  5
5ECE
330
1A
100
AcDbEntity
  8
SEIHIN
 48
5.0
100
AcDbEllipse
 10
403.6377851506433
 20
383.4472461042456
 30
0.0
 11
0.0
 21
3.25
 31
0.0
210
0.0
220
0.0
230
1.0
 40
0.5144595363939901
 41
2.050455596924767
 42
7.374183626249385
  0
LINE
  5
5ECF
330
1A
100
AcDbEntity
  8
SEIHIN
  6
Continuous
 62
     3
 48
5.0
100
AcDbLine
 10
393.1633480352972
 20
388.7199441180457
 30
0.0
 11
395.8811480352971
 21
390.9839441180455
 31
0.0
  0
LINE
  5
5ED0
330
1A
100
AcDbEntity
  8
SEIHIN
  6
Continuous
 62
     3
 48
5.0
100
AcDbLine
 10
403.6413889249714
 20
375.4474441180457
 30
0.0
 11
390.1392480352972
 21
375.4474441180457
 31
0.0
  0
ARC
  5
5ED1
330
1A
100
AcDbEntity
  8
SEIHIN
  6
Continuous
 62
     3
 48
5.0
100
AcDbCircle
 10
383.2533480352972
 20
375.6591441180457
 30
0.0
 40
7.999991999999999
100
AcDbArc
 50
0.0
 51
82.66400399999961
  0
ARC
  5
5ED2
330
1A
100
AcDbEntity
  8
SEIHIN
  6
Continuous
 62
     3
 48
5.0
100
AcDbCircle
 10
382.1392480352972
 20
375.8026441180456
 30
0.0
 40
7.999999000000001
100
AcDbArc
 50
359.9992839999999
 51
82.66329300000001
  0
LINE
  5
5ED3
330
1A
100
AcDbEntity
  8
SEIHIN
  6
Continuous
 62
     3
 48
5.0
100
AcDbLine
 10
390.1392480352972
 20
375.4474441180457
 30
0.0
 11
390.1392480352972
 21
375.8026441180456
 31
0.0
  0
LINE
  5
5ED4
330
1A
100
AcDbEntity
  8
SEIHIN
  6
Continuous
 62
     3
 48
5.0
100
AcDbLine
 10
391.2533480352972
 20
375.4474441180457
 30
0.0
 11
391.2533480352972
 21
375.6591441180457
 31
0.0
  0
LINE
  5
5ED5
330
1A
100
AcDbEntity
  8
SEIHIN
  6
Continuous
 62
     3
 48
5.0
100
AcDbLine
 10
392.8353480352972
 20
391.4473441180455
 30
0.0
 11
383.5493480352972
 21
391.4472441180457
 31
0.0
  0
ARC
  5
5ED6
330
1A
100
AcDbEntity
  8
SEIHIN
  6
Continuous
 62
     3
 48
5.0
100
AcDbCircle
 10
393.0353480352972
 20
388.8735441180455
 30
0.0
 40
0.199971
100
AcDbArc
 50
180.0
 51
309.8055709999997
  0
LINE
  5
5ED7
330
1A
100
AcDbEntity
  8
SEIHIN
  6
Continuous
 62
     3
 48
5.0
100
AcDbLine
 10
392.8353480352972
 20
391.4474441180455
 30
0.0
 11
392.8353480352972
 21
388.8735441180455
 31
0.0
  0
LINE
  5
5ED8
330
1A
100
AcDbEntity
  8
SEIHIN
  6
Continuous
 62
     3
 48
5.0
100
AcDbLine
 10
387.5394480352971
 20
383.4474441180455
 30
0.0
 11
387.5394480352971
 21
391.4473441180455
 31
0.0
  0
LINE
  5
5ED9
330
1A
100
AcDbEntity
  8
CENTER_L
  6
CENTER
 62
     1
 48
5.0
100
AcDbLine
 10
403.6377851506433
 20
377.1621915480265
 30
0.0
 11
403.6377851506433
 21
389.7323006604644
 31
0.0
  0
LINE
  5
5EDA
330
1A
100
AcDbEntity
  8
CENTER_L
  6
CENTER
 62
     1
 48
5.0
100
AcDbLine
 10
400.5510198854977
 20
377.9617470131075
 30
0.0
 11
400.5510198854977
 21
388.9327451953834
 31
0.0
  0
LINE
  5
5EDB
330
1A
100
AcDbEntity
  8
CENTER_L
  6
CENTER
 62
     1
 48
5.0
100
AcDbLine
 10
407.5993421698014
 20
383.4472461042456
 30
0.0
 11
397.4625421698014
 21
383.4472461042456
 31
0.0
  0
ARC
  5
5EDC
330
1A
100
AcDbEntity
  8
SEIHIN
  6
Continuous
 62
     3
 48
5.0
100
AcDbCircle
 10
397.1612480352972
 20
389.4473441180455
 30
0.0
 40
1.999974
100
AcDbArc
 50
90.0
 51
129.7967679999996
  0
LINE
  5
5EDD
330
1A
100
AcDbEntity
  8
SEIHIN
  6
Continuous
 62
     3
 48
5.0
100
AcDbLine
 10
399.5539480352971
 20
391.4473441180455
 30
0.0
 11
397.1612480352972
 21
391.4473441180455
 31
0.0
  0
LINE
  5
5EDE
330
1A
100
AcDbEntity
  8
SEIHIN
  6
Continuous
 62
     3
 48
5.0
100
AcDbLine
 10
402.1564411521092
 20
384.9474461042454
 30
0.0
 11
400.4569411521092
 21
384.9474461042454
 31
0.0
  0
LINE
  5
5EDF
330
1A
100
AcDbEntity
  8
SEIHIN
  6
Continuous
 62
     3
 48
5.0
100
AcDbLine
 10
402.1564411521092
 20
381.9474461042454
 30
0.0
 11
400.4569411521092
 21
381.9474461042454
 31
0.0
  0
ELLIPSE
  5
5EE0
330
1A
100
AcDbEntity
  8
SEIHIN
 48
5.0
100
AcDbEllipse
 10
399.6935082558735
 20
422.4470298539112
 30
0.0
 11
0.0
 21
-2.100000000000022
 31
0.0
210
0.0
220
0.0
230
-1.0
 40
0.5144382494820167
 41
-0.7750572810949873
 42
-0.4083619200467343
  0
ELLIPSE
  5
5EE1
330
1A
100
AcDbEntity
  8
SEIHIN
 48
5.0
100
AcDbEllipse
 10
399.6935082558735
 20
422.4470298539112
 30
0.0
 11
0.0
 21
-2.100000000000022
 31
0.0
210
0.0
220
0.0
230
-1.0
 40
0.5144382494820167
 41
-2.733727675686692
 42
-2.366263206964442
  0
ELLIPSE
  5
5EE2
330
1A
100
AcDbEntity
  8
SEIHIN
 48
5.0
100
AcDbEllipse
 10
403.6377851506433
 20
422.4474440276983
 30
0.0
 11
0.0
 21
-3.25
 31
0.0
210
0.0
220
0.0
230
-1.0
 40
0.5144595363939901
 41
2.050455596924767
 42
7.374183626249385
  0
ELLIPSE
  5
5EE3
330
1A
100
AcDbEntity
  8
SEIHIN
 48
5.0
100
AcDbEllipse
 10
400.5510198854977
 20
422.4474440276983
 30
0.0
 11
0.0
 21
-2.100000000000022
 31
0.0
210
0.0
220
0.0
230
-1.0
 40
0.5144382494820167
 41
-0.7750572810949873
 42
3.916922100215157
  0
ELLIPSE
  5
5EE4
330
1A
100
AcDbEntity
  8
SEIHIN
 48
5.0
100
AcDbEllipse
 10
402.7802735210191
 20
422.4474440276983
 30
0.0
 11
0.0
 21
-3.25
 31
0.0
210
0.0
220
0.0
230
-1.0
 40
0.5144595363939901
 41
-2.882261734274684
 42
-0.2593309193151083
  0
LINE
  5
5EE5
330
1A
100
AcDbEntity
  8
SEIHIN
  6
Continuous
 62
     3
 48
5.0
100
AcDbLine
 10
369.8137480352972
 20
406.9474441180455
 30
0.0
 11
315.5432480352972
 21
406.9475441180456
 31
0.0
  0
LINE
  5
5EE6
330
1A
100
AcDbEntity
  8
SEIHIN
  6
Continuous
 62
     3
 48
5.0
100
AcDbLine
 10
369.8137480352972
 20
398.9474441180455
 30
0.0
 11
315.5431480352973
 21
398.9475441180456
 31
0.0
  0
LINE
  5
5EE7
330
1A
100
AcDbEntity
  8
SEIHIN
  6
Continuous
 62
     3
 48
5.0
100
AcDbLine
 10
303.4637480352972
 20
411.8975441180455
 30
0.0
 11
383.1608480352972
 21
422.1577441180456
 31
0.0
  0
ARC
  5
5EE8
330
1A
100
AcDbEntity
  8
SEIHIN
  6
Continuous
 62
     3
 48
5.0
100
AcDbCircle
 10
322.8717480352973
 20
405.5099441180455
 30
0.0
 40
9.837367
100
AcDbArc
 50
195.0982960000002
 51
221.8428780000007
  0
ARC
  5
5EE9
330
1A
100
AcDbEntity
  8
SEIHIN
  6
Continuous
 62
     3
 48
5.0
100
AcDbCircle
 10
322.8717480352973
 20
400.3850441180456
 30
0.0
 40
9.83738
100
AcDbArc
 50
138.1571219999992
 51
164.9011419999997
  0
CIRCLE
  5
5EEA
330
1A
100
AcDbEntity
  8
SEIHIN
  6
Continuous
 62
     3
 48
5.0
100
AcDbCircle
 10
295.4637480352973
 20
402.9475441180456
 30
0.0
 40
5.0
  0
LINE
  5
5EEB
330
1A
100
AcDbEntity
  8
SEIHIN
  6
Continuous
 62
     3
 48
5.0
100
AcDbLine
 10
285.4637480352972
 20
411.8975441180455
 30
0.0
 11
303.4637480352972
 21
411.8975441180455
 31
0.0
  0
LINE
  5
5EEC
330
1A
100
AcDbEntity
  8
SEIHIN
  6
Continuous
 62
     3
 48
5.0
100
AcDbLine
 10
285.4636480352973
 20
393.9975441180457
 30
0.0
 11
303.4637480352972
 21
393.9975441180457
 31
0.0
  0
LINE
  5
5EED
330
1A
100
AcDbEntity
  8
SEIHIN
  6
Continuous
 62
     3
 48
5.0
100
AcDbLine
 10
285.4636480352973
 20
411.8975441180455
 30
0.0
 11
285.4636480352973
 21
402.9475441180456
 31
0.0
  0
LINE
  5
5EEE
330
1A
100
AcDbEntity
  8
SEIHIN
  6
Continuous
 62
     3
 48
5.0
100
AcDbLine
 10
284.1934480352973
 20
395.4476441180457
 30
0.0
 11
284.1934480352973
 21
410.4476441180457
 31
0.0
  0
LINE
  5
5EEF
330
1A
100
AcDbEntity
  8
SEIHIN
  6
Continuous
 62
     3
 48
5.0
100
AcDbLine
 10
285.4636480352973
 20
393.9975441180457
 30
0.0
 11
285.4636480352973
 21
402.9475441180456
 31
0.0
  0
LINE
  5
5EF0
330
1A
100
AcDbEntity
  8
SEIHIN
  6
Continuous
 62
     3
 48
5.0
100
AcDbLine
 10
303.4637480352972
 20
402.9475441180456
 30
0.0
 11
303.4637480352972
 21
411.8975441180455
 31
0.0
  0
LINE
  5
5EF1
330
1A
100
AcDbEntity
  8
SEIHIN
  6
Continuous
 62
     3
 48
5.0
100
AcDbLine
 10
303.4637480352972
 20
402.9475441180456
 30
0.0
 11
303.4637480352972
 21
393.9975441180457
 31
0.0
  0
LINE
  5
5EF2
330
1A
100
AcDbEntity
  8
SEIHIN
  6
Continuous
 62
     3
 48
5.0
100
AcDbLine
 10
320.4637480352972
 20
398.9474441180455
 30
0.0
 11
320.4637480352972
 21
392.7006441180457
 31
0.0
  0
LINE
  5
5EF3
330
1A
100
AcDbEntity
  8
SEIHIN
  6
Continuous
 62
     3
 48
5.0
100
AcDbLine
 10
320.4637480352972
 20
406.9476441180457
 30
0.0
 11
320.4637480352972
 21
413.1944441180457
 31
0.0
  0
LINE
  5
5EF4
330
1A
100
AcDbEntity
  8
SEIHIN
  6
Continuous
 62
     3
 48
5.0
100
AcDbLine
 10
405.7595480352971
 20
406.9474441180455
 30
0.0
 11
374.8137480352973
 21
406.9474441180455
 31
0.0
  0
LINE
  5
5EF5
330
1A
100
AcDbEntity
  8
SEIHIN
  6
Continuous
 62
     3
 48
5.0
100
AcDbLine
 10
405.7591480352972
 20
398.9474441180455
 30
0.0
 11
374.8137480352973
 21
398.9474441180455
 31
0.0
  0
LINE
  5
5EF6
330
1A
100
AcDbEntity
  8
SEIHIN
  6
Continuous
 62
     3
 48
5.0
100
AcDbLine
 10
374.8137480352973
 20
398.9474441180455
 30
0.0
 11
374.8137480352973
 21
406.9474441180455
 31
0.0
  0
LINE
  5
5EF7
330
1A
100
AcDbEntity
  8
SEIHIN
  6
Continuous
 62
     3
 48
5.0
100
AcDbLine
 10
369.8137480352972
 20
406.9474441180455
 30
0.0
 11
369.8137480352972
 21
398.9474441180455
 31
0.0
  0
LINE
  5
5EF8
330
1A
100
AcDbEntity
  8
SEIHIN
  6
Continuous
 62
     3
 48
5.0
100
AcDbLine
 10
392.8354480352972
 20
414.4474441180455
 30
0.0
 11
392.8354480352972
 21
417.0211441180455
 31
0.0
  0
LINE
  5
5EF9
330
1A
100
AcDbEntity
  8
SEIHIN
  6
Continuous
 62
     3
 48
5.0
100
AcDbLine
 10
393.1634480352972
 20
417.1748441180457
 30
0.0
 11
395.8812480352973
 21
414.9107441180455
 31
0.0
  0
LINE
  5
5EFA
330
1A
100
AcDbEntity
  8
SEIHIN
  6
Continuous
 62
     3
 48
5.0
100
AcDbLine
 10
387.5394480352971
 20
422.4474441180455
 30
0.0
 11
387.5394480352971
 21
414.4474441180455
 31
0.0
  0
LINE
  5
5EFB
330
1A
100
AcDbEntity
  8
SEIHIN
  6
Continuous
 62
     3
 48
5.0
100
AcDbLine
 10
399.3513480352973
 20
411.4474441180455
 30
0.0
 11
383.5499480352972
 21
411.4474441180455
 31
0.0
  0
LINE
  5
5EFC
330
1A
100
AcDbEntity
  8
SEIHIN
  6
Continuous
 62
     3
 48
5.0
100
AcDbLine
 10
399.3512480352972
 20
394.4473441180456
 30
0.0
 11
383.5497480352972
 21
394.4472441180455
 31
0.0
  0
ARC
  5
5EFD
330
1A
100
AcDbEntity
  8
SEIHIN
  6
Continuous
 62
     3
 48
5.0
100
AcDbCircle
 10
393.1445480352972
 20
402.7916441180455
 30
0.0
 40
7.038572
100
AcDbArc
 50
143.8125930000001
 51
178.7316359999996
  0
ARC
  5
5EFE
330
1A
100
AcDbEntity
  8
SEIHIN
  6
Continuous
 62
     3
 48
5.0
100
AcDbCircle
 10
393.1444480352972
 20
403.1031441180456
 30
0.0
 40
7.038500999999999
100
AcDbArc
 50
181.2675500000002
 51
216.187230999999
  0
LINE
  5
5EFF
330
1A
100
AcDbEntity
  8
SEIHIN
  6
Continuous
 62
     3
 48
5.0
100
AcDbLine
 10
387.5394480352971
 20
394.4473441180456
 30
0.0
 11
387.5394480352971
 21
398.9474441180455
 31
0.0
  0
ARC
  5
5F00
330
1A
100
AcDbEntity
  8
SEIHIN
  6
Continuous
 62
     3
 48
5.0
100
AcDbCircle
 10
387.5394480352971
 20
412.9474441180455
 30
0.0
 40
1.5
100
AcDbArc
 50
90.0
 51
270.0
  0
LINE
  5
5F01
330
1A
100
AcDbEntity
  8
SEIHIN
  6
Continuous
 62
     3
 48
5.0
100
AcDbLine
 10
392.8354480352972
 20
414.4474441180455
 30
0.0
 11
383.5491480352972
 21
414.4474441180455
 31
0.0
  0
ARC
  5
5F02
330
1A
100
AcDbEntity
  8
SEIHIN
  6
Continuous
 62
     3
 48
5.0
100
AcDbCircle
 10
384.1583480352971
 20
412.9476441180457
 30
0.0
 40
1.618846
100
AcDbArc
 50
112.0794239999997
 51
247.9251860000001
  0
LINE
  5
5F03
330
1A
100
AcDbEntity
  8
SEIHIN
  6
Continuous
 62
     3
 48
5.0
100
AcDbLine
 10
387.5394480352971
 20
411.4474441180455
 30
0.0
 11
387.5394480352971
 21
406.9474441180455
 31
0.0
  0
ARC
  5
5F04
330
1A
100
AcDbEntity
  8
SEIHIN
  6
Continuous
 62
     3
 48
5.0
100
AcDbCircle
 10
403.4972480352973
 20
402.7494441180455
 30
0.0
 40
4.768805999999999
100
AcDbArc
 50
2.77648700000031
 51
61.68142299999943
  0
ARC
  5
5F05
330
1A
100
AcDbEntity
  8
SEIHIN
  6
Continuous
 62
     3
 48
5.0
100
AcDbCircle
 10
403.4972480352973
 20
403.1456441180457
 30
0.0
 40
4.768826999999999
100
AcDbArc
 50
298.3169490000004
 51
357.2235129999997
  0
ARC
  5
5F06
330
1A
100
AcDbEntity
  8
SEIHIN
  6
Continuous
 62
     3
 48
5.0
100
AcDbCircle
 10
397.1613480352973
 20
416.4474441180455
 30
0.0
 40
2.000013
100
AcDbArc
 50
230.2050660000002
 51
270.0
  0
ARC
  5
5F07
330
1A
100
AcDbEntity
  8
SEIHIN
  6
Continuous
 62
     3
 48
5.0
100
AcDbCircle
 10
398.9726480352971
 20
412.9798441180455
 30
0.0
 40
1.578535
100
AcDbArc
 50
283.8663370000006
 51
68.38865900000072
  0
LINE
  5
5F08
330
1A
100
AcDbEntity
  8
SEIHIN
  6
Continuous
 62
     3
 48
5.0
100
AcDbLine
 10
399.5540480352973
 20
414.4474441180455
 30
0.0
 11
397.1613480352973
 21
414.4474441180455
 31
0.0
  0
LINE
  5
5F09
330
1A
100
AcDbEntity
  8
SEIHIN
  6
Continuous
 62
     3
 48
5.0
100
AcDbLine
 10
403.6393377000617
 20
430.4474441180453
 30
0.0
 11
390.1393480352972
 21
430.4474441180455
 31
0.0
  0
ARC
  5
5F0A
330
1A
100
AcDbEntity
  8
SEIHIN
  6
Continuous
 62
     3
 48
5.0
100
AcDbCircle
 10
383.2534480352971
 20
430.2357441180457
 30
0.0
 40
7.999991999999999
100
AcDbArc
 50
277.3359960000004
 51
0.0
  0
ARC
  5
5F0B
330
1A
100
AcDbEntity
  8
SEIHIN
  6
Continuous
 62
     3
 48
5.0
100
AcDbCircle
 10
382.1393480352972
 20
430.0923441180455
 30
0.0
 40
8.000042000000001
100
AcDbArc
 50
277.3359050000006
 51
359.9992839999999
  0
ARC
  5
5F0C
330
1A
100
AcDbEntity
  8
SEIHIN
  6
Continuous
 62
     3
 48
5.0
100
AcDbCircle
 10
393.0354480352972
 20
417.0211441180455
 30
0.0
 40
0.20001
100
AcDbArc
 50
50.21276700000058
 51
180.0
  0
LINE
  5
5F0D
330
1A
100
AcDbEntity
  8
SEIHIN
  6
Continuous
 62
     3
 48
5.0
100
AcDbLine
 10
390.1393480352972
 20
430.4474441180455
 30
0.0
 11
390.1393480352972
 21
430.0923441180455
 31
0.0
  0
LINE
  5
5F0E
330
1A
100
AcDbEntity
  8
SEIHIN
  6
Continuous
 62
     3
 48
5.0
100
AcDbLine
 10
391.2534480352971
 20
430.4474441180455
 30
0.0
 11
391.2534480352971
 21
430.2357441180457
 31
0.0
  0
LINE
  5
5F0F
330
1A
100
AcDbEntity
  8
CENTER_L
  6
CENTER
 62
     1
 48
5.0
100
AcDbLine
 10
403.6377851506433
 20
428.7324985839174
 30
0.0
 11
403.6377851506433
 21
416.1623894714793
 31
0.0
  0
LINE
  5
5F10
330
1A
100
AcDbEntity
  8
CENTER_L
  6
CENTER
 62
     1
 48
5.0
100
AcDbLine
 10
400.5510198854977
 20
427.9329431188363
 30
0.0
 11
400.5510198854977
 21
416.9619449365605
 31
0.0
  0
LINE
  5
5F11
330
1A
100
AcDbEntity
  8
CENTER_L
  6
CENTER
 62
     1
 48
5.0
100
AcDbLine
 10
407.5993421698014
 20
422.4474440276983
 30
0.0
 11
397.4625421698014
 21
422.4474440276983
 31
0.0
  0
LINE
  5
5F12
330
1A
100
AcDbEntity
  8
SEIHIN
  6
Continuous
 62
     3
 48
5.0
100
AcDbLine
 10
402.1564411521092
 20
420.9472440276985
 30
0.0
 11
400.4569411521092
 21
420.9472440276985
 31
0.0
  0
LINE
  5
5F13
330
1A
100
AcDbEntity
  8
SEIHIN
  6
Continuous
 62
     3
 48
5.0
100
AcDbLine
 10
402.1564411521092
 20
423.9472440276984
 30
0.0
 11
400.4569411521092
 21
423.9472440276984
 31
0.0
  0
LEADER
  5
5F14
330
1A
100
AcDbEntity
  8
SUNPOU
  6
Continuous
 62
     4
100
AcDbLeader
  3
STANDARD
 74
     0
 40
6.0
 41
31.19999999999999
 76
     3
 10
564.2812233866357
 20
316.7960293323803
 30
0.0
 10
585.3032760615897
 20
297.7425929195312
 30
0.0
 10
586.692036968453
 20
297.7425929195312
 30
0.0
1001
ACAD
1000
DSTYLE
1002
{
1070
     6
1000
OPEN
1070
    41
1040
7.0
1070
    42
1040
6.0
1070
    43
1040
14.0
1070
    44
1040
3.0
1070
    73
1070
     0
1070
    74
1070
     0
1070
    77
1070
     3
1070
   140
1040
6.0
1070
   141
1040
150.0
1070
   147
1040
2.0
1070
   172
1070
     1
1070
   173
1070
     1
1070
   176
1070
     4
1070
   177
1070
     4
1070
   178
1070
     4
1070
   271
1070
     0
1070
   272
1070
     2
1070
   341
1005
6D
1070
   343
1005
6D
1070
   344
1005
6D
1002
}
  0
DIMENSION
  5
5F15
330
1A
100
AcDbEntity
  8
SUNPOU
  6
Continuous
 62
     4
100
AcDbDimension
  2
*D10
 10
495.8744926152506
 20
286.3632466724437
 30
0.0
 11
493.731654959254
 21
299.6545444490452
 31
0.0
 70
    33
 71
     5
 42
-1.0
  3
STANDARD
100
AcDbAlignedDimension
 13
505.5850975882765
 23
321.3423188602888
 33
0.0
 14
518.4460512414557
 24
299.9040990098496
 34
0.0
1001
ACAD
1000
DSTYLE
1002
{
1070
   140
1040
6.0
1070
    74
1070
     0
1070
   172
1070
     1
1070
    73
1070
     0
1070
   272
1070
     2
1070
    77
1070
     3
1070
   173
1070
     1
1070
   147
1040
2.0
1070
    42
1040
6.0
1070
    44
1040
3.0
1070
    43
1040
14.0
1070
   271
1070
     0
1070
   178
1070
     4
1070
   177
1070
     4
1070
   176
1070
     4
1070
   141
1040
150.0
1070
     7
1000
_OPEN
1070
     6
1000
_OPEN
1070
    41
1040
7.0
1002
}
  0
LINE
  5
5F16
330
1A
100
AcDbEntity
  8
CENTER_L
  6
CENTER
 62
     1
 48
5.0
100
AcDbLine
 10
532.6809295174401
 20
301.4470010423502
 30
0.0
 11
523.8516295174401
 21
296.1501010423503
 31
0.0
  0
LINE
  5
5F17
330
1A
100
AcDbEntity
  8
CENTER_L
  6
CENTER
 62
     1
 48
5.0
100
AcDbLine
 10
522.9204295174401
 20
307.9966010423503
 30
0.0
 11
531.3336295174402
 21
293.9725010423501
 31
0.0
  0
LINE
  5
5F18
330
1A
100
AcDbEntity
  8
CENTER_L
  6
CENTER
 62
     1
 48
5.0
100
AcDbLine
 10
526.0964567817362
 20
340.6077600992663
 30
0.0
 11
566.3154567817364
 21
273.5660600992667
 31
0.0
  0
LINE
  5
5F19
330
1A
100
AcDbEntity
  8
SEIHIN
  6
Continuous
 62
     3
 48
5.0
100
AcDbLine
 10
569.7255295174399
 20
321.3381010423501
 30
0.0
 11
570.6533295174401
 21
291.79760104235
 31
0.0
  0
ARC
  5
5F1A
330
1A
100
AcDbEntity
  8
SEIHIN
  6
Continuous
 62
     3
 48
5.0
100
AcDbCircle
 10
528.3929295174402
 20
298.8745010423501
 30
0.0
 40
3.250004999999999
100
AcDbArc
 50
143.5810630000001
 51
98.34003099999993
  0
LINE
  5
5F1B
330
1A
100
AcDbEntity
  8
SEIHIN
  6
Continuous
 62
     3
 48
5.0
100
AcDbLine
 10
510.7294049353847
 20
312.7671544627192
 30
0.0
 11
522.5615409089828
 21
293.0438944975006
 31
0.0
  0
DIMENSION
  5
5F1C
330
1A
100
AcDbEntity
  8
SUNPOU
 48
5.0
100
AcDbDimension
  2
*D11
 10
529.4189731846054
 20
258.0919377340056
 30
0.0
 11
545.0242762087668
 21
241.7985489666528
 31
0.0
 70
    32
 71
     5
 42
-1.0
  3
STANDARD
100
AcDbAlignedDimension
 13
555.4965143270179
 23
282.4821890798275
 33
0.0
 14
563.3771119827987
 24
278.4637931920888
 34
0.0
 50
120.9600000000002
100
AcDbRotatedDimension
1001
ACAD
1000
DSTYLE
1002
{
1070
   140
1040
6.0
1070
    74
1070
     0
1070
   172
1070
     1
1070
    73
1070
     0
1070
   272
1070
     2
1070
    77
1070
     3
1070
   173
1070
     1
1070
   147
1040
2.0
1070
    42
1040
6.0
1070
    44
1040
3.0
1070
    43
1040
14.0
1070
   271
1070
     1
1070
   178
1070
     4
1070
   177
1070
     4
1070
   176
1070
     4
1070
   141
1040
150.0
1070
     7
1000
_OPEN
1070
     6
1000
_OPEN
1070
    41
1040
7.0
1002
}
  0
LINE
  5
5F1D
330
1A
100
AcDbEntity
  8
SEIHIN
  6
Continuous
 62
     3
 48
5.0
100
AcDbLine
 10
522.5615295174399
 20
293.0439010423501
 30
0.0
 11
548.1881295174401
 21
278.3205010423499
 31
0.0
  0
LINE
  5
5F1E
330
1A
100
AcDbEntity
  8
SEIHIN
  6
PHANTOM
 62
     6
 48
5.0
100
AcDbLine
 10
455.6144251499959
 20
194.8780994417844
 30
0.0
 11
428.4479200633889
 21
240.1600157674662
 31
0.0
  0
LINE
  5
5F1F
330
1A
100
AcDbEntity
  8
SEIHIN
  6
PHANTOM
 62
     6
 48
5.0
100
AcDbLine
 10
426.5287775736838
 20
246.2745452318859
 30
0.0
 11
456.9006702943441
 21
195.6498465283933
 31
0.0
  0
LINE
  5
5F20
330
1A
100
AcDbEntity
  8
SUNPOU
  6
Continuous
 62
     4
 48
5.0
100
AcDbLine
 10
463.6320541190288
 20
126.0906711825567
 30
0.0
 11
424.4729679781399
 21
191.3622732438438
 31
0.0
  0
TEXT
  5
5F21
330
1A
100
AcDbEntity
  8
SUNPOU
 48
5.0
100
AcDbText
 10
439.4192518840061
 20
131.1941626473195
 30
0.0
 40
6.0
  1
10
100
AcDbText
  0
LINE
  5
5F22
330
1A
100
AcDbEntity
  8
SUNPOU
 48
5.0
100
AcDbLine
 10
451.6332414947822
 20
146.0906711825566
 30
0.0
 11
451.6332414947822
 21
126.0906711825567
 31
0.0
  0
LINE
  5
5F23
330
1A
100
AcDbEntity
  8
SUNPOU
 48
5.0
100
AcDbLine
 10
451.6332414947822
 20
126.0906711825567
 30
0.0
 11
463.6320541190288
 21
126.0906711825567
 31
0.0
  0
TEXT
  5
5F24
330
1A
100
AcDbEntity
  8
SUNPOU
 48
5.0
100
AcDbText
 10
455.6420372889444
 20
117.1311798185005
 30
0.0
 40
6.0
  1
6
100
AcDbText
  0
LINE
  5
5F25
330
1A
100
AcDbEntity
  8
SEIHIN
  6
Continuous
 62
     3
 48
5.0
100
AcDbLine
 10
420.6144238310619
 20
194.8780986504423
 30
0.0
 11
421.9006702943135
 21
195.6498465283933
 31
0.0
  0
LINE
  5
5F26
330
1A
100
AcDbEntity
  8
SEIHIN
  6
PHANTOM
 62
     6
 48
5.0
100
AcDbLine
 10
455.6144238310924
 20
194.8780986504423
 30
0.0
 11
456.900670294344
 21
195.6498465283933
 31
0.0
  0
LINE
  5
5F27
330
1A
100
AcDbEntity
  8
CENTER_L
  6
CENTER
 62
     1
 48
5.0
100
AcDbLine
 10
447.0965702943441
 20
198.5144465283933
 30
0.0
 11
458.2201702943441
 21
205.1875465283933
 31
0.0
  0
ARC
  5
5F28
330
1A
100
AcDbEntity
  8
SEIHIN
  6
PHANTOM
 62
     6
 48
5.0
100
AcDbCircle
 10
418.7256202882151
 20
245.6745631972462
 30
0.0
 40
6.999994999999998
100
AcDbArc
 50
30.96122999999996
 51
90.0
  0
LINE
  5
5F29
330
1A
100
AcDbEntity
  8
CENTER_L
  6
CENTER
 62
     1
 48
5.0
100
AcDbLine
 10
428.260870294344
 20
226.8636465283933
 30
0.0
 11
440.5415702943441
 21
234.2309465283933
 31
0.0
  0
LINE
  5
5F2A
330
1A
100
AcDbEntity
  8
CENTER_L
  6
CENTER
 62
     1
 48
5.0
100
AcDbLine
 10
443.6612702943441
 20
229.1056465283933
 30
0.0
 11
431.5457702943441
 21
221.8373465283933
 31
0.0
  0
LINE
  5
5F2B
330
1A
100
AcDbEntity
  8
CENTER_L
  6
CENTER
 62
     1
 48
5.0
100
AcDbLine
 10
555.4966295174398
 20
282.4822010423504
 30
0.0
 11
563.5883995783856
 21
287.3364986226059
 31
0.0
  0
CIRCLE
  5
5F2C
330
1A
100
AcDbEntity
  8
SEIHIN
  6
Continuous
 62
     3
 48
5.0
100
AcDbCircle
 10
559.5190295174401
 20
284.8953010423499
 30
0.0
 40
2.099899999999999
  0
ARC
  5
5F2D
330
1A
100
AcDbEntity
  8
SEIHIN
  6
Continuous
 62
     3
 48
5.0
100
AcDbCircle
 10
555.6606295174402
 20
291.32670104235
 30
0.0
 40
14.99995
100
AcDbArc
 50
240.1209910000002
 51
300.9600230000008
  0
ARC
  5
5F2E
330
1A
100
AcDbEntity
  8
SEIHIN
  6
Continuous
 62
     3
 48
5.0
100
AcDbCircle
 10
555.6606295174402
 20
291.32670104235
 30
0.0
 40
14.99999899999999
100
AcDbArc
 50
300.9600230000008
 51
1.799002000000118
  0
DIMENSION
  5
5F2F
330
1A
100
AcDbEntity
  8
SUNPOU
 48
5.0
100
AcDbDimension
  2
*D12
 10
529.350068628383
 20
388.6405442484111
 30
0.0
 11
503.1958550803697
 21
378.781070653047
 31
0.0
 70
    32
 71
     5
 42
-1.0
  3
STANDARD
100
AcDbAlignedDimension
 13
510.7293567817364
 23
312.7670600992666
 33
0.0
 14
557.8934955325461
 24
341.0610955044305
 34
0.0
 50
30.96000000000064
100
AcDbRotatedDimension
1001
ACAD
1000
DSTYLE
1002
{
1070
   140
1040
6.0
1070
    74
1070
     0
1070
   172
1070
     1
1070
    73
1070
     0
1070
   272
1070
     2
1070
    77
1070
     3
1070
   173
1070
     1
1070
   147
1040
2.0
1070
    42
1040
6.0
1070
    44
1040
3.0
1070
    43
1040
14.0
1070
   271
1070
     0
1070
   178
1070
     4
1070
   177
1070
     4
1070
   176
1070
     4
1070
   141
1040
150.0
1070
     7
1000
_OPEN
1070
     6
1000
_OPEN
1070
    41
1040
7.0
1002
}
  0
DIMENSION
  5
5F30
330
1A
100
AcDbEntity
  8
SUNPOU
 48
5.0
100
AcDbDimension
  2
*D13
 10
533.6662905806282
 20
365.8948852901186
 30
0.0
 11
514.3723101289977
 21
360.1509398713373
 31
0.0
 70
    32
 71
     5
 42
-1.0
  3
STANDARD
100
AcDbAlignedDimension
 13
524.7246478895097
 23
304.9891203283863
 33
0.0
 14
558.1682235169046
 24
325.0522609554784
 34
0.0
 50
30.96000000000064
100
AcDbRotatedDimension
1001
ACAD
1000
DSTYLE
1002
{
1070
   140
1040
6.0
1070
    74
1070
     0
1070
   172
1070
     1
1070
    73
1070
     0
1070
   272
1070
     2
1070
    77
1070
     3
1070
   173
1070
     1
1070
   147
1040
2.0
1070
    42
1040
6.0
1070
    44
1040
3.0
1070
    43
1040
14.0
1070
   271
1070
     0
1070
   178
1070
     4
1070
   177
1070
     4
1070
   176
1070
     4
1070
   141
1040
150.0
1070
     7
1000
_OPEN
1070
     6
1000
_OPEN
1070
    41
1040
7.0
1002
}
  0
LINE
  5
5F31
330
1A
100
AcDbEntity
  8
SEIHIN
  6
Continuous
 62
     3
 48
5.0
100
AcDbLine
 10
539.0285567817364
 20
341.4053600992666
 30
0.0
 11
544.1730567817363
 21
332.8300600992665
 31
0.0
  0
LINE
  5
5F32
330
1A
100
AcDbEntity
  8
SEIHIN
  6
Continuous
 62
     3
 48
5.0
100
AcDbLine
 10
544.1737567817362
 20
344.4920600992667
 30
0.0
 11
529.1670567817363
 21
335.4893600992665
 31
0.0
  0
LINE
  5
5F33
330
1A
100
AcDbEntity
  8
SEIHIN
  6
Continuous
 62
     3
 48
5.0
100
AcDbLine
 10
525.7368567817362
 20
333.4315600992666
 30
0.0
 11
544.2567567817365
 21
302.5606600992665
 31
0.0
  0
LINE
  5
5F34
330
1A
100
AcDbEntity
  8
SEIHIN
  6
Continuous
 62
     3
 48
5.0
100
AcDbLine
 10
532.5970567817363
 20
337.5470600992665
 30
0.0
 11
551.1168567817365
 21
306.6761600992666
 31
0.0
  0
LINE
  5
5F35
330
1A
100
AcDbEntity
  8
SEIHIN
  6
Continuous
 62
     3
 48
5.0
100
AcDbLine
 10
536.4559567817364
 20
339.8620600992666
 30
0.0
 11
548.5453567817363
 21
319.7101600992666
 31
0.0
  0
ARC
  5
5F36
330
1A
100
AcDbEntity
  8
SEIHIN
  6
Continuous
 62
     3
 48
5.0
100
AcDbCircle
 10
402.9939063765962
 20
403.6938482502426
 30
0.0
 40
18.921523
100
AcDbArc
 50
319.269595
 51
357.7389570000003
  0
MTEXT
  5
5F37
330
1A
100
AcDbEntity
  8
SUNPOU
  6
Continuous
 62
     4
100
AcDbMText
 10
486.6746426526623
 20
332.4976848620207
 30
0.0
 40
6.0
 41
0.0
 71
     9
 72
     5
  1
3-φ4.2
 73
     1
 44
1.0
  0
LEADER
  5
5F38
330
1A
100
AcDbEntity
  8
SUNPOU
  6
Continuous
 62
     4
100
AcDbLeader
  3
STANDARD
 40
6.0
 41
31.19999999999999
 76
     3
 10
523.0967637316533
 20
304.4192636511642
 30
0.0
 10
490.2418792545449
 20
330.7076982549613
 30
0.0
 10
488.6746426526623
 20
330.4976848620207
 30
0.0
1001
ACAD
1000
DSTYLE
1002
{
1070
     6
1000
OPEN
1070
    41
1040
7.0
1070
    42
1040
6.0
1070
    43
1040
14.0
1070
    44
1040
3.0
1070
    73
1070
     0
1070
    74
1070
     0
1070
    77
1070
     3
1070
   140
1040
6.0
1070
   141
1040
150.0
1070
   147
1040
2.0
1070
   172
1070
     1
1070
   173
1070
     1
1070
   176
1070
     4
1070
   177
1070
     4
1070
   178
1070
     4
1070
   271
1070
     0
1070
   272
1070
     2
1070
   341
1005
6D
1070
   343
1005
6D
1070
   344
1005
6D
1002
}
  0
LINE
  5
5F39
330
1A
100
AcDbEntity
  8
SEIHIN
  6
Continuous
 62
     3
 48
5.0
100
AcDbLine
 10
513.4740567817364
 20
323.7427600992665
 30
0.0
 11
515.0174567817364
 21
321.1701600992665
 31
0.0
  0
LINE
  5
5F3A
330
1A
100
AcDbEntity
  8
SEIHIN
  6
Continuous
 62
     3
 48
5.0
100
AcDbLine
 10
519.3054567817362
 20
329.5733600992667
 30
0.0
 11
524.4498567817363
 21
320.9979600992665
 31
0.0
  0
LINE
  5
5F3B
330
1A
100
AcDbEntity
  8
SEIHIN
  6
Continuous
 62
     3
 48
5.0
100
AcDbLine
 10
521.8779567817363
 20
331.1166600992663
 30
0.0
 11
533.9672567817363
 21
310.9646600992665
 31
0.0
  0
LINE
  5
5F3C
330
1A
100
AcDbEntity
  8
SEIHIN
  6
Continuous
 62
     3
 48
5.0
100
AcDbLine
 10
522.4919567817364
 20
319.0106600992665
 30
0.0
 11
527.2190567817365
 21
315.5962600992665
 31
0.0
  0
ARC
  5
5F3D
330
1A
100
AcDbEntity
  8
SEIHIN
  6
Continuous
 62
     3
 48
5.0
100
AcDbCircle
 10
525.3062295174403
 20
304.0197010423499
 30
0.0
 40
2.100008
100
AcDbArc
 50
337.4892700000002
 51
264.4308489999995
  0
LINE
  5
5F3E
330
1A
100
AcDbEntity
  8
CENTER_L
  6
CENTER
 62
     1
 48
5.0
100
AcDbLine
 10
520.81372951744
 20
301.3245010423501
 30
0.0
 11
529.5943295174399
 21
306.5921010423498
 31
0.0
  0
LINE
  5
5F3F
330
1A
100
AcDbEntity
  8
SEIHIN
  6
Continuous
 62
     3
 48
5.0
100
AcDbLine
 10
525.7776295174401
 20
300.80400104235
 30
0.0
 11
525.1024295174399
 21
301.92960104235
 31
0.0
  0
LINE
  5
5F40
330
1A
100
AcDbEntity
  8
SEIHIN
  6
Continuous
 62
     3
 48
5.0
100
AcDbLine
 10
515.0174567817364
 20
321.1701600992665
 30
0.0
 11
510.7293567817364
 21
312.7670600992666
 31
0.0
  0
ARC
  5
5F41
330
1A
100
AcDbEntity
  8
SEIHIN
  6
Continuous
 62
     3
 48
5.0
100
AcDbCircle
 10
522.7847567817362
 20
319.4160600992664
 30
0.0
 40
0.5000359999999999
100
AcDbArc
 50
120.9657210000001
 51
234.1546060000008
  0
LINE
  5
5F42
330
1A
100
AcDbEntity
  8
SEIHIN
  6
Continuous
 62
     3
 48
5.0
100
AcDbLine
 10
522.5275567817362
 20
319.8447600992664
 30
0.0
 11
524.4499567817363
 21
320.9980600992667
 31
0.0
  0
ARC
  5
5F43
330
1A
100
AcDbEntity
  8
SEIHIN
  6
Continuous
 62
     3
 48
5.0
100
AcDbCircle
 10
532.6810567817365
 20
310.1930600992665
 30
0.0
 40
1.500004
100
AcDbArc
 50
210.9578610000003
 51
30.96113600000025
  0
LINE
  5
5F44
330
1A
100
AcDbEntity
  8
SEIHIN
  6
Continuous
 62
     3
 48
5.0
100
AcDbLine
 10
528.5788567817364
 20
314.1153600992664
 30
0.0
 11
531.3947567817365
 21
309.4213600992667
 31
0.0
  0
LINE
  5
5F45
330
1A
100
AcDbEntity
  8
SEIHIN
  6
Continuous
 62
     3
 48
5.0
100
AcDbLine
 10
527.9215295174402
 20
302.09010104235
 30
0.0
 11
527.24622951744
 21
303.2157010423502
 31
0.0
  0
ARC
  5
5F46
330
1A
100
AcDbEntity
  8
SEIHIN
  6
Continuous
 62
     3
 48
5.0
100
AcDbCircle
 10
524.2912567817366
 20
311.5431600992663
 30
0.0
 40
5.000008
100
AcDbArc
 50
30.9602189999999
 51
54.1578049999999
  0
LINE
  5
5F47
330
1A
100
AcDbEntity
  8
SEIHIN
  6
Continuous
 62
     3
 48
5.0
100
AcDbLine
 10
514.1602567817364
 20
326.4866600992665
 30
0.0
 11
529.1669567817362
 21
335.4893600992668
 31
0.0
  0
ARC
  5
5F48
330
1A
100
AcDbEntity
  8
SEIHIN
  6
Continuous
 62
     3
 48
5.0
100
AcDbCircle
 10
528.3953567817364
 20
336.7756600992665
 30
0.0
 40
3.999976
100
AcDbArc
 50
240.9595870000005
 51
300.9593350000004
  0
ARC
  5
5F49
330
1A
100
AcDbEntity
  8
SEIHIN
  6
Continuous
 62
     3
 48
5.0
100
AcDbCircle
 10
515.1891567817362
 20
324.7715600992664
 30
0.0
 40
2.000024999999999
100
AcDbArc
 50
120.9598260000009
 51
210.9573700000001
  0
ARC
  5
5F4A
330
1A
100
AcDbEntity
  8
SEIHIN
  6
Continuous
 62
     3
 48
5.0
100
AcDbCircle
 10
525.9682567817367
 20
332.4042600992665
 30
0.0
 40
0.999964
100
AcDbArc
 50
60.95875300000068
 51
120.9637570000004
  0
ARC
  5
5F4B
330
1A
100
AcDbEntity
  8
SEIHIN
  6
Continuous
 62
     3
 48
5.0
100
AcDbCircle
 10
520.5918567817362
 20
330.3450600992666
 30
0.0
 40
1.500004
100
AcDbArc
 50
210.9611360000002
 51
30.95786100000035
  0
ARC
  5
5F4C
330
1A
100
AcDbEntity
  8
SEIHIN
  6
Continuous
 62
     3
 48
5.0
100
AcDbCircle
 10
528.3953567817364
 20
336.7756600992665
 30
0.0
 40
3.999962000000001
100
AcDbArc
 50
300.9593350000004
 51
0.9583259999998255
  0
ARC
  5
5F4D
330
1A
100
AcDbEntity
  8
SEIHIN
  6
Continuous
 62
     3
 48
5.0
100
AcDbCircle
 10
533.3946567817362
 20
336.8593600992663
 30
0.0
 40
1.000024
100
AcDbArc
 50
120.9637570000004
 51
180.9568459999998
  0
ARC
  5
5F4E
330
1A
100
AcDbEntity
  8
SEIHIN
  6
Continuous
 62
     3
 48
5.0
100
AcDbCircle
 10
537.7422567817363
 20
340.6337600992663
 30
0.0
 40
1.500004
100
AcDbArc
 50
210.9611360000002
 51
30.95786100000035
  0
ELLIPSE
  5
5F4F
330
1A
100
AcDbEntity
  8
SEIHIN
  6
Continuous
 62
     3
 48
5.0
100
AcDbEllipse
 10
418.0424980413958
 20
402.9473401042454
 30
0.0
 11
-1.188254979200000E-6
 21
-2.11523388665361
 31
0.0
210
0.0
220
0.0
230
1.0
 40
0.5142860000000002
 41
-3.141591837321195
 42
3.14159346985839
  0
LINE
  5
5F50
330
1A
100
AcDbEntity
  8
CENTER_L
  6
CENTER
 62
     1
 48
5.0
100
AcDbLine
 10
418.0422225844657
 20
397.8322087615724
 30
0.0
 11
418.0422225844657
 21
408.0625011165265
 31
0.0
  0
ARC
  5
5F51
330
1A
100
AcDbEntity
  8
SEIHIN
  6
Continuous
 62
     3
 48
5.0
100
AcDbCircle
 10
402.9939063765962
 20
402.2007482502426
 30
0.0
 40
18.92150799999999
100
AcDbArc
 50
2.261042999999649
 51
40.73447800000012
  0
MTEXT
  5
5F52
330
1A
100
AcDbEntity
  8
SUNPOU
  6
Continuous
 62
     4
100
AcDbMText
 10
588.692036968453
 20
299.7425929195312
 30
0.0
 40
6.0
 41
0.0
 71
     7
 72
     5
  1
2-φ6.5
 73
     1
 44
1.0
  0
LINE
  5
5F53
330
1A
100
AcDbEntity
  8
SEIHIN
  6
Continuous
 62
     3
 48
5.0
100
AcDbLine
 10
561.3651295174396
 20
322.1532010423499
 30
0.0
 11
560.6898295174398
 21
323.27880104235
 31
0.0
  0
LINE
  5
5F54
330
1A
100
AcDbEntity
  8
CENTER_L
  6
CENTER
 62
     1
 48
5.0
100
AcDbLine
 10
563.2424295174401
 20
326.7779010423501
 30
0.0
 11
554.4618295174399
 21
321.51030104235
 31
0.0
  0
LINE
  5
5F55
330
1A
100
AcDbEntity
  8
CENTER_L
  6
CENTER
 62
     1
 48
5.0
100
AcDbLine
 10
556.36402951744
 20
328.0597010423501
 30
0.0
 11
564.7772295174402
 21
314.0356010423502
 31
0.0
  0
ARC
  5
5F56
330
1A
100
AcDbEntity
  8
SEIHIN
  6
Continuous
 62
     3
 48
5.0
100
AcDbCircle
 10
558.7498295174402
 20
324.0828010423499
 30
0.0
 40
2.100013
100
AcDbArc
 50
337.4892700000002
 51
264.4281329999997
  0
LINE
  5
5F57
330
1A
100
AcDbEntity
  8
SEIHIN
  6
Continuous
 62
     3
 48
5.0
100
AcDbLine
 10
548.3020567817363
 20
325.9473600992665
 30
0.0
 11
551.1179567817363
 21
321.2535600992666
 31
0.0
  0
LINE
  5
5F58
330
1A
100
AcDbEntity
  8
SEIHIN
  6
Continuous
 62
     3
 48
5.0
100
AcDbLine
 10
557.8935688722895
 20
341.0611580541266
 30
0.0
 11
569.7255287679626
 21
321.3381249051786
 31
0.0
  0
LINE
  5
5F59
330
1A
100
AcDbEntity
  8
CENTER_L
  6
CENTER
 62
     1
 48
5.0
100
AcDbLine
 10
557.5484295174399
 20
316.3652010423501
 30
0.0
 11
566.3777295174399
 21
321.6620010423501
 31
0.0
  0
ARC
  5
5F5A
330
1A
100
AcDbEntity
  8
SEIHIN
  6
Continuous
 62
     3
 48
5.0
100
AcDbCircle
 10
561.8365295174402
 20
318.93760104235
 30
0.0
 40
3.250055
100
AcDbArc
 50
143.5810630000001
 51
98.33977499999946
  0
ARC
  5
5F5B
330
1A
100
AcDbEntity
  8
SEIHIN
  6
Continuous
 62
     3
 48
5.0
100
AcDbCircle
 10
547.6868567817365
 20
304.6183600992666
 30
0.0
 40
3.999963999999999
100
AcDbArc
 50
300.9593350000004
 51
30.95933500000044
  0
ARC
  5
5F5C
330
1A
100
AcDbEntity
  8
SEIHIN
  6
Continuous
 62
     3
 48
5.0
100
AcDbCircle
 10
547.6868567817365
 20
304.6183600992666
 30
0.0
 40
4.000007
100
AcDbArc
 50
210.9585980000004
 51
300.9593350000004
  0
ARC
  5
5F5D
330
1A
100
AcDbEntity
  8
SEIHIN
  6
Continuous
 62
     3
 48
5.0
100
AcDbCircle
 10
549.8315567817364
 20
320.4818600992665
 30
0.0
 40
1.500071999999999
100
AcDbArc
 50
210.9611360000002
 51
30.95917100000051
  0
LINE
  5
5F5E
330
1A
100
AcDbEntity
  8
SEIHIN
  6
Continuous
 62
     3
 48
5.0
100
AcDbLine
 10
559.2212295174396
 20
320.8671010423501
 30
0.0
 11
558.5459295174401
 21
321.9927010423499
 31
0.0
  0
ARC
  5
5F5F
330
1A
100
AcDbEntity
  8
SEIHIN
  6
Continuous
 62
     3
 48
5.0
100
AcDbCircle
 10
546.3525567817363
 20
333.5545600992665
 30
0.0
 40
0.500049
100
AcDbArc
 50
7.757426000000403
 51
120.9558960000003
  0
LINE
  5
5F60
330
1A
100
AcDbEntity
  8
SEIHIN
  6
Continuous
 62
     3
 48
5.0
100
AcDbLine
 10
546.8480567817362
 20
333.6220600992664
 30
0.0
 11
547.6354567817363
 21
327.8442600992667
 31
0.0
  0
ARC
  5
5F61
330
1A
100
AcDbEntity
  8
SEIHIN
  6
Continuous
 62
     3
 48
5.0
100
AcDbCircle
 10
552.5896567817367
 20
328.5195600992664
 30
0.0
 40
5.000035999999999
100
AcDbArc
 50
187.762069
 51
210.95963
  0
LINE
  5
5F62
330
1A
100
AcDbEntity
  8
SEIHIN
  6
Continuous
 62
     3
 48
5.0
100
AcDbLine
 10
546.0953567817362
 20
333.9833600992666
 30
0.0
 11
544.1729567817362
 21
332.8300600992666
 31
0.0
  0
LINE
  5
5F63
330
1A
100
AcDbEntity
  8
SEIHIN
  6
Continuous
 62
     3
 48
5.0
100
AcDbLine
 10
548.4609567817362
 20
341.2332600992664
 30
0.0
 11
557.8934567817362
 21
341.0611600992666
 31
0.0
  0
LINE
  5
5F64
330
1A
100
AcDbEntity
  8
SEIHIN
  6
Continuous
 62
     3
 48
5.0
100
AcDbLine
 10
546.9177567817362
 20
343.8058600992667
 30
0.0
 11
548.4609567817362
 21
341.2332600992664
 31
0.0
  0
ARC
  5
5F65
330
1A
100
AcDbEntity
  8
SEIHIN
  6
Continuous
 62
     3
 48
5.0
100
AcDbCircle
 10
545.2026567817363
 20
342.7769600992665
 30
0.0
 40
2.000008
100
AcDbArc
 50
30.96130000000011
 51
120.9598260000009
  0
VIEWPORT
  5
22
330
17
100
AcDbEntity
 67
     1
  8
0
100
AcDbViewport
 10
313.6808219178082
 20
286.420032064001
 30
0.0
 40
627.3616438356164
 41
572.840064128002
 68
     2
 69
     1
 12
313.6808219178082
 22
286.420032064001
 13
0.0
 23
0.0
 14
1.0
 24
1.0
 15
10.0
 25
10.0
 16
0.0
 26
0.0
 36
1.0
 17
0.0
 27
0.0
 37
0.0
 42
50.0
 43
0.0
 44
0.0
 45
572.840064128002
 50
0.0
 51
0.0
 72
   100
 90
    32768
  1

281
     0
 71
     1
 74
     0
110
0.0
120
0.0
130
0.0
111
1.0
121
0.0
131
0.0
112
0.0
122
1.0
132
0.0
 79
     0
146
0.0
  0
VIEWPORT
  5
64
330
17
100
AcDbEntity
 67
     1
  8
VIEWPORT
100
AcDbViewport
 10
210.0
 20
148.5
 30
0.0
 40
420.0
 41
297.0
 68
     1
 69
     2
 12
420.0
 22
297.0
 13
0.0
 23
0.0
 14
10.0
 24
10.0
 15
0.0
 25
0.0
 16
0.0
 26
0.0
 36
1.0
 17
0.0
 27
0.0
 37
0.0
 42
50.0
 43
0.0
 44
0.0
 45
605.8799999999998
 50
0.0
 51
0.0
 72
   100
 90
    32768
  1

281
     0
 71
     1
 74
     0
110
0.0
120
0.0
130
0.0
111
1.0
121
0.0
131
0.0
112
0.0
122
1.0
132
0.0
 79
     0
146
0.0
  0
ENDSEC
  0
SECTION
  2
OBJECTS
  0
DICTIONARY
  5
C
330
0
100
AcDbDictionary
281
     1
  3
ACAD_GROUP
350
D
  3
ACAD_LAYOUT
350
A98
  3
ACAD_MLINESTYLE
350
E
  3
ACAD_PLOTSETTINGS
350
A99
  3
ACAD_PLOTSTYLENAME
350
A96
  0
DICTIONARY
  5
D
102
{ACAD_REACTORS
330
C
102
}
330
C
100
AcDbDictionary
281
     1
  3
*A1
350
FA3
  3
*A2
350
1597
  3
*A3
350
179D
  3
*A4
350
3390
  3
*A5
350
3A0A
  0
DICTIONARY
  5
A98
102
{ACAD_REACTORS
330
C
102
}
330
C
100
AcDbDictionary
281
     1
  3
Model
350
6136
  3
ﾚｲｱｳﾄ1
350
6137
  0
DICTIONARY
  5
E
102
{ACAD_REACTORS
330
C
102
}
330
C
100
AcDbDictionary
281
     1
  3
STANDARD
350
13
  0
DICTIONARY
  5
A99
102
{ACAD_REACTORS
330
C
102
}
330
C
100
AcDbDictionary
281
     1
  0
ACDBDICTIONARYWDFLT
  5
A96
102
{ACAD_REACTORS
330
C
102
}
330
C
100
AcDbDictionary
281
     1
  3
Normal
350
A97
100
AcDbDictionaryWithDefault
340
A97
1001
ACAD
1000
TREAT_AS_HARD
1070
     0
1000
TREAT_AS_HARD
1070
     0
1000
TREAT_AS_HARD
1070
     0
1000
TREAT_AS_HARD
1070
     0
  0
GROUP
  5
FA3
102
{ACAD_REACTORS
330
D
102
}
330
D
100
AcDbGroup
300

 70
     1
 71
     1
  0
GROUP
  5
1597
102
{ACAD_REACTORS
330
D
102
}
330
D
100
AcDbGroup
300

 70
     1
 71
     1
  0
GROUP
  5
179D
102
{ACAD_REACTORS
330
D
102
}
330
D
100
AcDbGroup
300

 70
     1
 71
     1
  0
GROUP
  5
3390
102
{ACAD_REACTORS
330
D
102
}
330
D
100
AcDbGroup
300

 70
     1
 71
     1
  0
GROUP
  5
3A0A
102
{ACAD_REACTORS
330
D
102
}
330
D
100
AcDbGroup
300

 70
     1
 71
     1
  0
LAYOUT
  5
6136
102
{ACAD_REACTORS
330
A98
102
}
330
A98
100
AcDbPlotSettings
  1

  2
EPSON LP-9200C
  4

  6

 40
0.0
 41
0.0
 42
0.0
 43
0.0
 44
0.0
 45
0.0
 46
0.0
 47
0.0
 48
0.0
 49
0.0
140
0.0
141
0.0
142
1.0
143
1.0
 70
  1712
 72
     0
 73
     0
 74
     0
  7

 75
     0
147
1.0
148
0.0
149
0.0
100
AcDbLayout
  1
Model
 70
     1
 71
     0
 10
0.0
 20
0.0
 11
12.0
 21
9.0
 12
0.0
 22
0.0
 32
0.0
 14
0.0
 24
0.0
 34
0.0
 15
0.0
 25
0.0
 35
0.0
146
0.0
 13
0.0
 23
0.0
 33
0.0
 16
1.0
 26
0.0
 36
0.0
 17
0.0
 27
1.0
 37
0.0
 76
     0
330
1A
  0
LAYOUT
  5
6137
102
{ACAD_REACTORS
330
A98
102
}
330
A98
100
AcDbPlotSettings
  1

  2
EPSON LP-9200C
  4

  6

 40
0.0
 41
0.0
 42
0.0
 43
0.0
 44
0.0
 45
0.0
 46
0.0
 47
0.0
 48
0.0
 49
0.0
140
0.0
141
0.0
142
1.0
143
1.0
 70
   688
 72
     0
 73
     0
 74
     5
  7

 75
    16
147
1.0
148
0.0
149
0.0
100
AcDbLayout
  1
ﾚｲｱｳﾄ1
 70
     1
 71
     1
 10
-30.66685116754001
 20
-9.990190459854739
 11
450.6668334081172
 21
361.9494725043409
 12
0.0
 22
0.0
 32
0.0
 14
-0.0128164049386896
 24
-0.0090630292066862
 34
-0.0015258207003583
 15
420.0128183607161
 25
297.0090644122207
 35
0.0000000349246037
146
0.0
 13
0.0
 23
0.0
 33
0.0
 16
1.0
 26
0.0
 36
0.0
 17
0.0
 27
1.0
 37
0.0
 76
     0
330
17
331
64
  0
MLINESTYLE
  5
13
102
{ACAD_REACTORS
330
E
102
}
330
E
100
AcDbMlineStyle
  2
STANDARD
 70
     0
  3

 62
     0
 51
90.0
 52
90.0
 71
     2
 49
0.5
 62
   256
  6
BYLAYER
 49
-0.5
 62
   256
  6
BYLAYER
  0
ACDBPLACEHOLDER
  5
A97
102
{ACAD_REACTORS
330
A96
102
}
330
A96
  0
ENDSEC
  0
EOF
