  0
SECTION
  2
HEADER
  9
$ACADVER
  1
AC1015
  9
$ACADMAINTVER
 70
     6
  9
$DWGCODEPAGE
  3
ANSI_932
  9
$INSBASE
 10
0.0
 20
0.0
 30
0.0
  9
$EXTMIN
 10
0.0000000135560185
 20
-0.0000001317113174
 30
0.0
  9
$EXTMAX
 10
797.6000000135562
 20
551.5999998682888
 30
0.0
  9
$LIMMIN
 10
0.0
 20
0.0
  9
$LIMMAX
 10
840.0
 20
594.0
  9
$ORTHOMODE
 70
     0
  9
$REGENMODE
 70
     1
  9
$FILLMODE
 70
     1
  9
$QTEXTMODE
 70
     0
  9
$MIRRTEXT
 70
     1
  9
$LTSCALE
 40
2.0
  9
$ATTMODE
 70
     1
  9
$TEXTSIZE
 40
6.0
  9
$TRACEWID
 40
1.0
  9
$TEXTSTYLE
  7
STANDARD
  9
$CLAYER
  8
SEIHIN
  9
$CELTYPE
  6
BYLAYER
  9
$CECOLOR
 62
   256
  9
$CELTSCALE
 40
1.0
  9
$DISPSILH
 70
     0
  9
$DIMSCALE
 40
1.0
  9
$DIMASZ
 40
7.0
  9
$DIMEXO
 40
6.0
  9
$DIMDLI
 40
14.0
  9
$DIMRND
 40
0.0
  9
$DIMDLE
 40
0.0
  9
$DIMEXE
 40
3.0
  9
$DIMTP
 40
0.0
  9
$DIMTM
 40
0.0
  9
$DIMTXT
 40
6.0
  9
$DIMCEN
 40
150.0
  9
$DIMTSZ
 40
0.0
  9
$DIMTOL
 70
     0
  9
$DIMLIM
 70
     0
  9
$DIMTIH
 70
     0
  9
$DIMTOH
 70
     0
  9
$DIMSE1
 70
     0
  9
$DIMSE2
 70
     0
  9
$DIMTAD
 70
     3
  9
$DIMZIN
 70
     0
  9
$DIMBLK
  1

  9
$DIMASO
 70
     1
  9
$DIMSHO
 70
     1
  9
$DIMPOST
  1

  9
$DIMAPOST
  1

  9
$DIMALT
 70
     0
  9
$DIMALTD
 70
     2
  9
$DIMALTF
 40
25.4
  9
$DIMLFAC
 40
1.0
  9
$DIMTOFL
 70
     1
  9
$DIMTVP
 40
0.0
  9
$DIMTIX
 70
     0
  9
$DIMSOXD
 70
     0
  9
$DIMSAH
 70
     1
  9
$DIMBLK1
  1
OPEN
  9
$DIMBLK2
  1
OPEN
  9
$DIMSTYLE
  2
STANDARD
  9
$DIMCLRD
 70
   256
  9
$DIMCLRE
 70
   256
  9
$DIMCLRT
 70
   256
  9
$DIMTFAC
 40
1.0
  9
$DIMGAP
 40
2.0
  9
$DIMJUST
 70
     0
  9
$DIMSD1
 70
     0
  9
$DIMSD2
 70
     0
  9
$DIMTOLJ
 70
     1
  9
$DIMTZIN
 70
     0
  9
$DIMALTZ
 70
     0
  9
$DIMALTTZ
 70
     0
  9
$DIMUPT
 70
     0
  9
$DIMDEC
 70
     0
  9
$DIMTDEC
 70
     0
  9
$DIMALTU
 70
     2
  9
$DIMALTTD
 70
     2
  9
$DIMTXSTY
  7
STANDARD
  9
$DIMAUNIT
 70
     0
  9
$DIMADEC
 70
     0
  9
$DIMALTRND
 40
0.0
  9
$DIMAZIN
 70
     0
  9
$DIMDSEP
 70
    46
  9
$DIMATFIT
 70
     3
  9
$DIMFRAC
 70
     0
  9
$DIMLDRBLK
  1
OPEN
  9
$DIMLUNIT
 70
     2
  9
$DIMLWD
 70
    -1
  9
$DIMLWE
 70
    -1
  9
$DIMTMOVE
 70
     0
  9
$LUNITS
 70
     2
  9
$LUPREC
 70
     4
  9
$SKETCHINC
 40
1.0
  9
$FILLETRAD
 40
10.0
  9
$AUNITS
 70
     0
  9
$AUPREC
 70
     0
  9
$MENU
  1
.
  9
$ELEVATION
 40
0.0
  9
$PELEVATION
 40
0.0
  9
$THICKNESS
 40
0.0
  9
$LIMCHECK
 70
     0
  9
$CHAMFERA
 40
0.0
  9
$CHAMFERB
 40
0.0
  9
$CHAMFERC
 40
40.0
  9
$CHAMFERD
 40
0.0
  9
$SKPOLY
 70
     0
  9
$TDCREATE
 40
2451030.614786227
  9
$TDUCREATE
 40
2451030.239786227
  9
$TDUPDATE
 40
2455609.404875197
  9
$TDUUPDATE
 40
2455609.029875197
  9
$TDINDWG
 40
0.2757368171
  9
$TDUSRTIMER
 40
0.2757368171
  9
$USRTIMER
 70
     1
  9
$ANGBASE
 50
0.0
  9
$ANGDIR
 70
     0
  9
$PDMODE
 70
     0
  9
$PDSIZE
 40
0.0
  9
$PLINEWID
 40
0.0
  9
$SPLFRAME
 70
     0
  9
$SPLINETYPE
 70
     6
  9
$SPLINESEGS
 70
     8
  9
$HANDSEED
  5
4815
  9
$SURFTAB1
 70
     6
  9
$SURFTAB2
 70
     6
  9
$SURFTYPE
 70
     6
  9
$SURFU
 70
     6
  9
$SURFV
 70
     6
  9
$UCSBASE
  2

  9
$UCSNAME
  2

  9
$UCSORG
 10
0.0
 20
0.0
 30
0.0
  9
$UCSXDIR
 10
1.0
 20
0.0
 30
0.0
  9
$UCSYDIR
 10
0.0
 20
1.0
 30
0.0
  9
$UCSORTHOREF
  2

  9
$UCSORTHOVIEW
 70
     0
  9
$UCSORGTOP
 10
0.0
 20
0.0
 30
0.0
  9
$UCSORGBOTTOM
 10
0.0
 20
0.0
 30
0.0
  9
$UCSORGLEFT
 10
0.0
 20
0.0
 30
0.0
  9
$UCSORGRIGHT
 10
0.0
 20
0.0
 30
0.0
  9
$UCSORGFRONT
 10
0.0
 20
0.0
 30
0.0
  9
$UCSORGBACK
 10
0.0
 20
0.0
 30
0.0
  9
$PUCSBASE
  2

  9
$PUCSNAME
  2

  9
$PUCSORG
 10
0.0
 20
0.0
 30
0.0
  9
$PUCSXDIR
 10
1.0
 20
0.0
 30
0.0
  9
$PUCSYDIR
 10
0.0
 20
1.0
 30
0.0
  9
$PUCSORTHOREF
  2

  9
$PUCSORTHOVIEW
 70
     0
  9
$PUCSORGTOP
 10
0.0
 20
0.0
 30
0.0
  9
$PUCSORGBOTTOM
 10
0.0
 20
0.0
 30
0.0
  9
$PUCSORGLEFT
 10
0.0
 20
0.0
 30
0.0
  9
$PUCSORGRIGHT
 10
0.0
 20
0.0
 30
0.0
  9
$PUCSORGFRONT
 10
0.0
 20
0.0
 30
0.0
  9
$PUCSORGBACK
 10
0.0
 20
0.0
 30
0.0
  9
$USERI1
 70
     0
  9
$USERI2
 70
     0
  9
$USERI3
 70
     0
  9
$USERI4
 70
     0
  9
$USERI5
 70
     0
  9
$USERR1
 40
0.0
  9
$USERR2
 40
0.0
  9
$USERR3
 40
0.0
  9
$USERR4
 40
0.0
  9
$USERR5
 40
0.0
  9
$WORLDVIEW
 70
     1
  9
$SHADEDGE
 70
     3
  9
$SHADEDIF
 70
    70
  9
$TILEMODE
 70
     1
  9
$MAXACTVP
 70
    16
  9
$PINSBASE
 10
0.0
 20
0.0
 30
0.0
  9
$PLIMCHECK
 70
     0
  9
$PEXTMIN
 10
-0.0128164049386896
 20
-0.0090630292066862
 30
-0.0015258207003583
  9
$PEXTMAX
 10
420.0128183607162
 20
297.0090644122207
 30
0.0000000349246037
  9
$PLIMMIN
 10
-30.66685116754002
 20
-9.990190459854741
  9
$PLIMMAX
 10
450.6668334081172
 20
361.9494725043409
  9
$UNITMODE
 70
     0
  9
$VISRETAIN
 70
     0
  9
$PLINEGEN
 70
     0
  9
$PSLTSCALE
 70
     1
  9
$TREEDEPTH
 70
  3020
  9
$CMLSTYLE
  2
STANDARD
  9
$CMLJUST
 70
     0
  9
$CMLSCALE
 40
1.0
  9
$PROXYGRAPHICS
 70
     1
  9
$MEASUREMENT
 70
     0
  9
$CELWEIGHT
370
    -1
  9
$ENDCAPS
280
     0
  9
$JOINSTYLE
280
     0
  9
$LWDISPLAY
290
     0
  9
$INSUNITS
 70
     0
  9
$HYPERLINKBASE
  1

  9
$STYLESHEET
  1
systemprinter.ctb
  9
$XEDIT
290
     1
  9
$CEPSNTYPE
380
     0
  9
$PSTYLEMODE
290
     1
  9
$FINGERPRINTGUID
  2
{91E25F26-0CBF-4C93-982E-B5F00895E654}
  9
$VERSIONGUID
  2
{D93BCA8B-6052-488B-93C8-668BA61EB508}
  9
$EXTNAMES
290
     1
  9
$PSVPSCALE
 40
0.0
  9
$OLESTARTUP
290
     0
  0
ENDSEC
  0
SECTION
  2
CLASSES
  0
CLASS
  1
ACDBDICTIONARYWDFLT
  2
AcDbDictionaryWithDefault
  3
ObjectDBX Classes
 90
        0
280
     0
281
     0
  0
CLASS
  1
ACDBPLACEHOLDER
  2
AcDbPlaceHolder
  3
ObjectDBX Classes
 90
        0
280
     0
281
     0
  0
CLASS
  1
LAYOUT
  2
AcDbLayout
  3
ObjectDBX Classes
 90
        0
280
     0
281
     0
  0
CLASS
  1
DUMMY
  2
AcDbLongTransaction
  3
DUMMY
 90
        0
280
     0
281
     0
  0
CLASS
  1
LWPOLYLINE
  2
AcDbPolyline
  3
AutoCAD 2000
 90
        0
280
     0
281
     1
  0
CLASS
  1
HATCH
  2
AcDbHatch
  3
AutoCAD 2000
 90
        0
280
     0
281
     1
  0
CLASS
  1
XRECORD
  2
AcDbXrecord
  3
AutoCAD 2000
 90
        0
280
     0
281
     0
  0
CLASS
  1
DUMMY
  2
AcDbLongTransaction
  3
DUMMY
 90
        0
280
     0
281
     0
  0
CLASS
  1
LWPOLYLINE
  2
AcDbPolyline
  3
AutoCAD 2000
 90
        0
280
     0
281
     1
  0
CLASS
  1
HATCH
  2
AcDbHatch
  3
AutoCAD 2000
 90
        0
280
     0
281
     1
  0
CLASS
  1
XRECORD
  2
AcDbXrecord
  3
AutoCAD 2000
 90
        0
280
     0
281
     0
  0
CLASS
  1
DUMMY
  2
AcDbLongTransaction
  3
DUMMY
 90
        0
280
     0
281
     0
  0
CLASS
  1
LWPOLYLINE
  2
AcDbPolyline
  3
AutoCAD 2000
 90
        0
280
     0
281
     1
  0
CLASS
  1
HATCH
  2
AcDbHatch
  3
AutoCAD 2000
 90
        0
280
     0
281
     1
  0
CLASS
  1
XRECORD
  2
AcDbXrecord
  3
AutoCAD 2000
 90
        0
280
     0
281
     0
  0
CLASS
  1
DUMMY
  2
AcDbLongTransaction
  3
DUMMY
 90
        0
280
     0
281
     0
  0
CLASS
  1
LWPOLYLINE
  2
AcDbPolyline
  3
AutoCAD 2000
 90
        0
280
     0
281
     1
  0
CLASS
  1
HATCH
  2
AcDbHatch
  3
AutoCAD 2000
 90
        0
280
     0
281
     1
  0
CLASS
  1
XRECORD
  2
AcDbXrecord
  3
AutoCAD 2000
 90
        0
280
     0
281
     0
  0
ENDSEC
  0
SECTION
  2
TABLES
  0
TABLE
  2
VPORT
  5
8
330
0
100
AcDbSymbolTable
 70
     2
  0
VPORT
  5
4814
330
8
100
AcDbSymbolTableRecord
100
AcDbViewportTableRecord
  2
*Active
 70
     0
 10
0.0
 20
0.0
 11
1.0
 21
1.0
 12
411.1124883490151
 22
294.2260305473052
 13
0.0
 23
0.0
 14
5.0
 24
5.0
 15
0.0
 25
0.0
 16
0.0
 26
0.0
 36
1.0
 17
0.0
 27
0.0
 37
0.0
 40
637.2311767148901
 41
1.651537335285505
 42
50.0
 43
0.0
 44
0.0
 50
0.0
 51
0.0
 71
     0
 72
   100
 73
     1
 74
     0
 75
     0
 76
     0
 77
     0
 78
     0
281
     0
 65
     1
110
0.0
120
0.0
130
0.0
111
1.0
121
0.0
131
0.0
112
0.0
122
1.0
132
0.0
 79
     0
146
0.0
  0
ENDTAB
  0
TABLE
  2
LTYPE
  5
5
330
0
100
AcDbSymbolTable
 70
     3
  0
LTYPE
  5
14
330
5
100
AcDbSymbolTableRecord
100
AcDbLinetypeTableRecord
  2
BYBLOCK
 70
     0
  3

 72
    65
 73
     0
 40
0.0
  0
LTYPE
  5
15
330
5
100
AcDbSymbolTableRecord
100
AcDbLinetypeTableRecord
  2
BYLAYER
 70
     0
  3

 72
    65
 73
     0
 40
0.0
  0
LTYPE
  5
16
330
5
100
AcDbSymbolTableRecord
100
AcDbLinetypeTableRecord
  2
CONTINUOUS
 70
     0
  3
Solid line
 72
    65
 73
     0
 40
0.0
  0
LTYPE
  5
115
330
5
100
AcDbSymbolTableRecord
100
AcDbLinetypeTableRecord
  2
PHANTOM
 70
     0
  3
______  __  __  ______  __  __  ______  __  __ 
 72
    65
 73
     6
 40
2.5
 49
1.25
 74
     0
 49
-0.25
 74
     0
 49
0.25
 74
     0
 49
-0.25
 74
     0
 49
0.25
 74
     0
 49
-0.25
 74
     0
  0
LTYPE
  5
135
330
5
100
AcDbSymbolTableRecord
100
AcDbLinetypeTableRecord
  2
CENTER
 70
     0
  3
____ _ ____ _ ____ _ ____ _ ____ _ ____ _ ____ 
 72
    65
 73
     4
 40
2.0
 49
1.25
 74
     0
 49
-0.25
 74
     0
 49
0.25
 74
     0
 49
-0.25
 74
     0
  0
ENDTAB
  0
TABLE
  2
LAYER
  5
2
330
0
100
AcDbSymbolTable
 70
     8
  0
LAYER
  5
F
330
2
100
AcDbSymbolTableRecord
100
AcDbLayerTableRecord
  2
0
 70
     0
 62
     7
  6
CONTINUOUS
370
    -3
390
A97
  0
LAYER
  5
62
330
2
100
AcDbSymbolTableRecord
100
AcDbLayerTableRecord
  2
VIEWPORT
 70
     0
 62
     7
  6
CONTINUOUS
370
    -3
390
A97
  0
LAYER
  5
143
330
2
100
AcDbSymbolTableRecord
100
AcDbLayerTableRecord
  2
SEIHIN
 70
     0
 62
     3
  6
CONTINUOUS
370
    -3
390
A97
  0
LAYER
  5
444
330
2
100
AcDbSymbolTableRecord
100
AcDbLayerTableRecord
  2
DEFPOINTS
 70
     0
 62
     7
  6
CONTINUOUS
290
     0
370
    -3
390
A97
  0
LAYER
  5
482
330
2
100
AcDbSymbolTableRecord
100
AcDbLayerTableRecord
  2
SUNPOU
 70
     0
 62
     4
  6
CONTINUOUS
370
    -3
390
A97
  0
LAYER
  5
5D4
330
2
100
AcDbSymbolTableRecord
100
AcDbLayerTableRecord
  2
CENTER L
 70
     0
 62
     1
  6
CENTER
370
    -3
390
A97
  0
LAYER
  5
3D95
330
2
100
AcDbSymbolTableRecord
100
AcDbLayerTableRecord
  2
ZUWAKU
 70
     0
 62
     7
  6
CONTINUOUS
370
    -3
390
A97
  0
LAYER
  5
3D96
330
2
100
AcDbSymbolTableRecord
100
AcDbLayerTableRecord
  2
moji
 70
     0
 62
     2
  6
CONTINUOUS
370
    -3
390
A97
  0
ENDTAB
  0
TABLE
  2
STYLE
  5
3
330
0
100
AcDbSymbolTable
 70
     2
  0
STYLE
  5
10
330
3
100
AcDbSymbolTableRecord
100
AcDbTextStyleTableRecord
  2
STANDARD
 70
     0
 40
0.0
 41
1.0
 50
0.0
 71
     0
 42
6.0
  3
TXT
  4
bigfont.shx
  0
STYLE
  5
3D97
330
3
100
AcDbSymbolTableRecord
100
AcDbTextStyleTableRecord
  2
ｽﾀｲﾙ1
 70
     0
 40
0.0
 41
1.0
 50
0.0
 71
     0
 42
2.5
  3
MS PGothic.ttf
  4

1001
ACAD
1000
MS PGothic
1071
    32818
  0
ENDTAB
  0
TABLE
  2
VIEW
  5
6
330
0
100
AcDbSymbolTable
 70
     0
  0
ENDTAB
  0
TABLE
  2
UCS
  5
7
330
0
100
AcDbSymbolTable
 70
     0
  0
ENDTAB
  0
TABLE
  2
APPID
  5
9
330
0
100
AcDbSymbolTable
 70
     1
  0
APPID
  5
11
330
9
100
AcDbSymbolTableRecord
100
AcDbRegAppTableRecord
  2
ACAD
 70
     0
  0
ENDTAB
  0
TABLE
  2
DIMSTYLE
  5
A
330
0
100
AcDbSymbolTable
 70
     1
100
AcDbDimStyleTable
  0
DIMSTYLE
105
1D
102
{ACAD_REACTORS
330
4567
330
4568
330
4569
330
456B
330
456C
330
456D
330
4588
330
45C9
330
45DB
330
4613
330
4614
330
4619
330
4623
330
4650
102
}
330
A
100
AcDbSymbolTableRecord
100
AcDbDimStyleTableRecord
  2
STANDARD
 70
     0
340
10
  0
ENDTAB
  0
TABLE
  2
BLOCK_RECORD
  5
1
330
0
100
AcDbSymbolTable
 70
    15
  0
BLOCK_RECORD
  5
1A
330
1
100
AcDbSymbolTableRecord
100
AcDbBlockTableRecord
  2
*MODEL_SPACE
340
A9A
  0
BLOCK_RECORD
  5
17
330
1
100
AcDbSymbolTableRecord
100
AcDbBlockTableRecord
  2
*PAPER_SPACE
340
A9B
  0
BLOCK_RECORD
  5
6D
330
1
100
AcDbSymbolTableRecord
100
AcDbBlockTableRecord
  2
_OPEN
340
0
102
{BLKREFS
331
47BC
331
47BD
331
47A8
331
47A9
331
478D
331
478E
331
479F
331
47A0
331
4796
331
4797
331
47B1
331
47B2
331
47D0
331
47D1
331
47C7
331
47C8
331
47D9
331
47DA
331
47EB
331
47EC
331
47E2
331
47E3
331
4808
331
4809
331
47FF
331
4800
331
47F4
331
47F5
102
}
  0
BLOCK_RECORD
  5
4658
330
1
100
AcDbSymbolTableRecord
100
AcDbBlockTableRecord
  2
*D1
340
0
  0
BLOCK_RECORD
  5
4666
330
1
100
AcDbSymbolTableRecord
100
AcDbBlockTableRecord
  2
*D2
340
0
  0
BLOCK_RECORD
  5
4672
330
1
100
AcDbSymbolTableRecord
100
AcDbBlockTableRecord
  2
*D3
340
0
  0
BLOCK_RECORD
  5
467E
330
1
100
AcDbSymbolTableRecord
100
AcDbBlockTableRecord
  2
*D4
340
0
  0
BLOCK_RECORD
  5
468A
330
1
100
AcDbSymbolTableRecord
100
AcDbBlockTableRecord
  2
*D5
340
0
  0
BLOCK_RECORD
  5
4696
330
1
100
AcDbSymbolTableRecord
100
AcDbBlockTableRecord
  2
*D6
340
0
  0
BLOCK_RECORD
  5
46A2
330
1
100
AcDbSymbolTableRecord
100
AcDbBlockTableRecord
  2
*D7
340
0
  0
BLOCK_RECORD
  5
46AE
330
1
100
AcDbSymbolTableRecord
100
AcDbBlockTableRecord
  2
*D8
340
0
  0
BLOCK_RECORD
  5
46BC
330
1
100
AcDbSymbolTableRecord
100
AcDbBlockTableRecord
  2
*D9
340
0
  0
BLOCK_RECORD
  5
46C8
330
1
100
AcDbSymbolTableRecord
100
AcDbBlockTableRecord
  2
*D10
340
0
  0
BLOCK_RECORD
  5
46D4
330
1
100
AcDbSymbolTableRecord
100
AcDbBlockTableRecord
  2
*D11
340
0
  0
BLOCK_RECORD
  5
46E0
330
1
100
AcDbSymbolTableRecord
100
AcDbBlockTableRecord
  2
*D12
340
0
  0
BLOCK_RECORD
  5
46EC
330
1
100
AcDbSymbolTableRecord
100
AcDbBlockTableRecord
  2
*D13
340
0
  0
BLOCK_RECORD
  5
46FA
330
1
100
AcDbSymbolTableRecord
100
AcDbBlockTableRecord
  2
*D14
340
0
  0
ENDTAB
  0
ENDSEC
  0
SECTION
  2
BLOCKS
  0
BLOCK
  5
1B
330
1A
100
AcDbEntity
  8
0
100
AcDbBlockBegin
  2
*MODEL_SPACE
 70
     0
 71
     0
 10
0.0
 20
0.0
 30
0.0
  3
*MODEL_SPACE
  1

  0
ENDBLK
  5
1C
330
1A
100
AcDbEntity
  8
0
100
AcDbBlockEnd
  0
BLOCK
  5
18
330
17
100
AcDbEntity
 67
     1
  8
0
100
AcDbBlockBegin
  2
*PAPER_SPACE
 70
     0
 71
     0
 10
0.0
 20
0.0
 30
0.0
  3
*PAPER_SPACE
  1

  0
ENDBLK
  5
19
330
17
100
AcDbEntity
 67
     1
  8
0
100
AcDbBlockEnd
  0
BLOCK
  5
6E
330
6D
100
AcDbEntity
  8
0
100
AcDbBlockBegin
  2
_OPEN
 70
     0
 71
     0
 10
0.0
 20
0.0
 30
0.0
  3
_OPEN
  1

  0
LINE
  5
6F
330
6D
100
AcDbEntity
  8
0
  6
ByBlock
 62
     0
100
AcDbLine
 10
-1.0
 20
0.1666666666666667
 30
0.0
 11
0.0
 21
0.0
 31
0.0
  0
LINE
  5
70
330
6D
100
AcDbEntity
  8
0
  6
ByBlock
 62
     0
100
AcDbLine
 10
0.0
 20
0.0
 30
0.0
 11
-1.0
 21
-0.1666666666666667
 31
0.0
  0
LINE
  5
71
330
6D
100
AcDbEntity
  8
0
  6
ByBlock
 62
     0
100
AcDbLine
 10
0.0
 20
0.0
 30
0.0
 11
-1.0
 21
0.0
 31
0.0
  0
ENDBLK
  5
72
330
6D
100
AcDbEntity
  8
0
100
AcDbBlockEnd
  0
BLOCK
  5
4664
330
4658
100
AcDbEntity
  8
0
100
AcDbBlockBegin
  2
*D1
 70
     1
 71
     0
 10
0.0
 20
0.0
 30
0.0
  3
*D1
  1

  0
LINE
  5
47B7
330
4658
100
AcDbEntity
  8
SUNPOU
 62
     4
370
    -2
100
AcDbLine
 10
379.6953109429257
 20
191.1826498672202
 30
0.0
 11
379.6953109429257
 21
162.323614243277
 31
0.0
  0
LINE
  5
47B8
330
4658
100
AcDbEntity
  8
SUNPOU
 62
     4
370
    -2
100
AcDbLine
 10
380.8953109429256
 20
191.1826498672202
 30
0.0
 11
380.8953109429256
 21
162.323614243277
 31
0.0
  0
LINE
  5
47B9
330
4658
100
AcDbEntity
  8
SUNPOU
 62
     4
370
    -2
100
AcDbLine
 10
372.6953109429257
 20
165.323614243277
 30
0.0
 11
365.6953109429257
 21
165.323614243277
 31
0.0
  0
LINE
  5
47BA
330
4658
100
AcDbEntity
  8
SUNPOU
 62
     4
370
    -2
100
AcDbLine
 10
387.8953109429256
 20
165.323614243277
 30
0.0
 11
414.8953109429256
 21
165.323614243277
 31
0.0
  0
LINE
  5
47BB
330
4658
100
AcDbEntity
  8
SUNPOU
 62
     4
370
    -2
100
AcDbLine
 10
379.6953109429257
 20
165.323614243277
 30
0.0
 11
380.8953109429256
 21
165.323614243277
 31
0.0
  0
INSERT
  5
47BC
330
4658
100
AcDbEntity
  8
SUNPOU
 62
     4
370
    -2
100
AcDbBlockReference
  2
_OPEN
 10
379.6953109429257
 20
165.323614243277
 30
0.0
 41
7.0
 42
7.0
 43
7.0
  0
INSERT
  5
47BD
330
4658
100
AcDbEntity
  8
SUNPOU
 62
     4
370
    -2
100
AcDbBlockReference
  2
_OPEN
 10
380.8953109429256
 20
165.323614243277
 30
0.0
 41
7.0
 42
7.0
 43
7.0
 50
180.0
  0
MTEXT
  5
47BE
330
4658
100
AcDbEntity
  8
SUNPOU
 62
     4
100
AcDbMText
 10
404.8953109429256
 20
170.323614243277
 30
0.0
 40
6.0
 41
0.0
 71
     5
 72
     1
  1
\A1;t1.2
 73
     1
 44
1.0
  0
POINT
  5
47BF
330
4658
100
AcDbEntity
  8
DEFPOINTS
 62
     0
100
AcDbPoint
 10
379.6953109429257
 20
197.1826498672202
 30
0.0
  0
POINT
  5
47C0
330
4658
100
AcDbEntity
  8
DEFPOINTS
 62
     0
100
AcDbPoint
 10
380.8953109429256
 20
197.1826498672202
 30
0.0
  0
POINT
  5
47C1
330
4658
100
AcDbEntity
  8
DEFPOINTS
 62
     0
100
AcDbPoint
 10
380.8953109429256
 20
165.323614243277
 30
0.0
  0
ENDBLK
  5
4665
330
4658
100
AcDbEntity
  8
0
100
AcDbBlockEnd
  0
BLOCK
  5
4670
330
4666
100
AcDbEntity
  8
0
100
AcDbBlockBegin
  2
*D2
 70
     1
 71
     0
 10
0.0
 20
0.0
 30
0.0
  3
*D2
  1

  0
LINE
  5
47A5
330
4666
100
AcDbEntity
  8
SUNPOU
 62
     4
370
    -2
100
AcDbLine
 10
380.8953131810513
 20
263.3609285746078
 30
0.0
 11
380.8953131810513
 21
311.4119905675311
 31
0.0
  0
LINE
  5
47A6
330
4666
100
AcDbEntity
  8
SUNPOU
 62
     4
370
    -2
100
AcDbLine
 10
415.8953131809504
 20
263.3608691122831
 30
0.0
 11
415.8953131809504
 21
311.4119905675311
 31
0.0
  0
LINE
  5
47A7
330
4666
100
AcDbEntity
  8
SUNPOU
 62
     4
370
    -2
100
AcDbLine
 10
387.8953131810513
 20
308.4119905675311
 30
0.0
 11
408.8953131809504
 21
308.4119905675311
 31
0.0
  0
INSERT
  5
47A8
330
4666
100
AcDbEntity
  8
SUNPOU
 62
     4
370
    -2
100
AcDbBlockReference
  2
_OPEN
 10
380.8953131810513
 20
308.4119905675311
 30
0.0
 41
7.0
 42
7.0
 43
7.0
 50
180.0
  0
INSERT
  5
47A9
330
4666
100
AcDbEntity
  8
SUNPOU
 62
     4
370
    -2
100
AcDbBlockReference
  2
_OPEN
 10
415.8953131809504
 20
308.4119905675311
 30
0.0
 41
7.0
 42
7.0
 43
7.0
  0
MTEXT
  5
47AA
330
4666
100
AcDbEntity
  8
SUNPOU
 62
     4
100
AcDbMText
 10
398.3953131810009
 20
313.4119905675311
 30
0.0
 40
6.0
 41
0.0
 71
     5
 72
     1
  1
\A1;35
 73
     1
 44
1.0
  0
POINT
  5
47AB
330
4666
100
AcDbEntity
  8
DEFPOINTS
 62
     0
100
AcDbPoint
 10
380.8953131810513
 20
257.3609285746078
 30
0.0
  0
POINT
  5
47AC
330
4666
100
AcDbEntity
  8
DEFPOINTS
 62
     0
100
AcDbPoint
 10
415.8953131809504
 20
257.3608691122831
 30
0.0
  0
POINT
  5
47AD
330
4666
100
AcDbEntity
  8
DEFPOINTS
 62
     0
100
AcDbPoint
 10
415.8953131809504
 20
308.4119905675311
 30
0.0
  0
ENDBLK
  5
4671
330
4666
100
AcDbEntity
  8
0
100
AcDbBlockEnd
  0
BLOCK
  5
467C
330
4672
100
AcDbEntity
  8
0
100
AcDbBlockBegin
  2
*D3
 70
     1
 71
     0
 10
0.0
 20
0.0
 30
0.0
  3
*D3
  1

  0
LINE
  5
478A
330
4672
100
AcDbEntity
  8
SUNPOU
 62
     4
370
    -2
100
AcDbLine
 10
386.8953109429256
 20
410.8940498672201
 30
0.0
 11
418.6032603654426
 21
410.8940498672201
 31
0.0
  0
LINE
  5
478B
330
4672
100
AcDbEntity
  8
SUNPOU
 62
     4
370
    -2
100
AcDbLine
 10
386.8953109429256
 20
355.8940498672201
 30
0.0
 11
418.6032603654426
 21
355.8940498672201
 31
0.0
  0
LINE
  5
478C
330
4672
100
AcDbEntity
  8
SUNPOU
 62
     4
370
    -2
100
AcDbLine
 10
415.6032603654426
 20
403.8940498672201
 30
0.0
 11
415.6032603654426
 21
362.8940498672201
 31
0.0
  0
INSERT
  5
478D
330
4672
100
AcDbEntity
  8
SUNPOU
 62
     4
370
    -2
100
AcDbBlockReference
  2
_OPEN
 10
415.6032603654426
 20
410.8940498672201
 30
0.0
 41
7.0
 42
7.0
 43
7.0
 50
90.0
  0
INSERT
  5
478E
330
4672
100
AcDbEntity
  8
SUNPOU
 62
     4
370
    -2
100
AcDbBlockReference
  2
_OPEN
 10
415.6032603654426
 20
355.8940498672201
 30
0.0
 41
7.0
 42
7.0
 43
7.0
 50
270.0
  0
MTEXT
  5
478F
330
4672
100
AcDbEntity
  8
SUNPOU
 62
     4
100
AcDbMText
 10
410.6032603654425
 20
383.3940498672203
 30
0.0
 40
6.0
 41
0.0
 71
     5
 72
     1
  1
\A1;55
 11
6.123031769111886E-17
 21
1.0
 31
0.0
 73
     1
 44
1.0
  0
POINT
  5
4790
330
4672
100
AcDbEntity
  8
DEFPOINTS
 62
     0
100
AcDbPoint
 10
380.8953109429256
 20
410.8940498672202
 30
0.0
  0
POINT
  5
4791
330
4672
100
AcDbEntity
  8
DEFPOINTS
 62
     0
100
AcDbPoint
 10
380.8953109429256
 20
355.8940498672201
 30
0.0
  0
POINT
  5
4792
330
4672
100
AcDbEntity
  8
DEFPOINTS
 62
     0
100
AcDbPoint
 10
415.6032603654426
 20
355.8940498672201
 30
0.0
  0
ENDBLK
  5
467D
330
4672
100
AcDbEntity
  8
0
100
AcDbBlockEnd
  0
BLOCK
  5
4688
330
467E
100
AcDbEntity
  8
0
100
AcDbBlockBegin
  2
*D4
 70
     1
 71
     0
 10
0.0
 20
0.0
 30
0.0
  3
*D4
  1

  0
LINE
  5
479C
330
467E
100
AcDbEntity
  8
SUNPOU
 62
     4
370
    -2
100
AcDbLine
 10
281.6407109429258
 20
234.0611498672202
 30
0.0
 11
281.6407109429258
 21
296.7458769825223
 31
0.0
  0
LINE
  5
479D
330
467E
100
AcDbEntity
  8
SUNPOU
 62
     4
370
    -2
100
AcDbLine
 10
380.8953109427999
 20
262.043475945553
 30
0.0
 11
380.8953109427999
 21
296.7458769825223
 31
0.0
  0
LINE
  5
479E
330
467E
100
AcDbEntity
  8
SUNPOU
 62
     4
370
    -2
100
AcDbLine
 10
288.6407109429258
 20
293.7458769825223
 30
0.0
 11
373.8953109427999
 21
293.7458769825223
 31
0.0
  0
INSERT
  5
479F
330
467E
100
AcDbEntity
  8
SUNPOU
 62
     4
370
    -2
100
AcDbBlockReference
  2
_OPEN
 10
281.6407109429258
 20
293.7458769825223
 30
0.0
 41
7.0
 42
7.0
 43
7.0
 50
180.0
  0
INSERT
  5
47A0
330
467E
100
AcDbEntity
  8
SUNPOU
 62
     4
370
    -2
100
AcDbBlockReference
  2
_OPEN
 10
380.8953109427999
 20
293.7458769825223
 30
0.0
 41
7.0
 42
7.0
 43
7.0
  0
MTEXT
  5
47A1
330
467E
100
AcDbEntity
  8
SUNPOU
 62
     4
100
AcDbMText
 10
331.2680109428628
 20
298.7458769825223
 30
0.0
 40
6.0
 41
0.0
 71
     5
 72
     1
  1
\A1;99
 73
     1
 44
1.0
  0
POINT
  5
47A2
330
467E
100
AcDbEntity
  8
DEFPOINTS
 62
     0
100
AcDbPoint
 10
281.6407109429258
 20
228.0611498672202
 30
0.0
  0
POINT
  5
47A3
330
467E
100
AcDbEntity
  8
DEFPOINTS
 62
     0
100
AcDbPoint
 10
380.8953109427999
 20
256.043475945553
 30
0.0
  0
POINT
  5
47A4
330
467E
100
AcDbEntity
  8
DEFPOINTS
 62
     0
100
AcDbPoint
 10
380.8953109427999
 20
293.7458769825223
 30
0.0
  0
ENDBLK
  5
4689
330
467E
100
AcDbEntity
  8
0
100
AcDbBlockEnd
  0
BLOCK
  5
4694
330
468A
100
AcDbEntity
  8
0
100
AcDbBlockBegin
  2
*D5
 70
     1
 71
     0
 10
0.0
 20
0.0
 30
0.0
  3
*D5
  1

  0
LINE
  5
4793
330
468A
100
AcDbEntity
  8
SUNPOU
 62
     4
370
    -2
100
AcDbLine
 10
250.6407109429256
 20
263.3611498672202
 30
0.0
 11
250.6407109429256
 21
311.4119905675311
 31
0.0
  0
LINE
  5
4794
330
468A
100
AcDbEntity
  8
SUNPOU
 62
     4
370
    -2
100
AcDbLine
 10
380.8953131810513
 20
263.3609285746078
 30
0.0
 11
380.8953131810513
 21
311.4119905675311
 31
0.0
  0
LINE
  5
4795
330
468A
100
AcDbEntity
  8
SUNPOU
 62
     4
370
    -2
100
AcDbLine
 10
257.6407109429256
 20
308.4119905675311
 30
0.0
 11
373.8953131810513
 21
308.4119905675311
 31
0.0
  0
INSERT
  5
4796
330
468A
100
AcDbEntity
  8
SUNPOU
 62
     4
370
    -2
100
AcDbBlockReference
  2
_OPEN
 10
250.6407109429256
 20
308.4119905675311
 30
0.0
 41
7.0
 42
7.0
 43
7.0
 50
180.0
  0
INSERT
  5
4797
330
468A
100
AcDbEntity
  8
SUNPOU
 62
     4
370
    -2
100
AcDbBlockReference
  2
_OPEN
 10
380.8953131810513
 20
308.4119905675311
 30
0.0
 41
7.0
 42
7.0
 43
7.0
  0
MTEXT
  5
4798
330
468A
100
AcDbEntity
  8
SUNPOU
 62
     4
100
AcDbMText
 10
315.7680120619885
 20
313.4119905675311
 30
0.0
 40
6.0
 41
0.0
 71
     5
 72
     1
  1
\A1;130
 73
     1
 44
1.0
  0
POINT
  5
4799
330
468A
100
AcDbEntity
  8
DEFPOINTS
 62
     0
100
AcDbPoint
 10
250.6407109429256
 20
257.3611498672202
 30
0.0
  0
POINT
  5
479A
330
468A
100
AcDbEntity
  8
DEFPOINTS
 62
     0
100
AcDbPoint
 10
380.8953131810513
 20
257.3609285746078
 30
0.0
  0
POINT
  5
479B
330
468A
100
AcDbEntity
  8
DEFPOINTS
 62
     0
100
AcDbPoint
 10
380.8953131810513
 20
308.4119905675311
 30
0.0
  0
ENDBLK
  5
4695
330
468A
100
AcDbEntity
  8
0
100
AcDbBlockEnd
  0
BLOCK
  5
46A0
330
4696
100
AcDbEntity
  8
0
100
AcDbBlockBegin
  2
*D6
 70
     1
 71
     0
 10
0.0
 20
0.0
 30
0.0
  3
*D6
  1

  0
LINE
  5
47AE
330
4696
100
AcDbEntity
  8
SUNPOU
 62
     4
370
    -2
100
AcDbLine
 10
244.6407109429256
 20
257.3611498672202
 30
0.0
 11
219.8250674781912
 21
257.3611498672202
 31
0.0
  0
LINE
  5
47AF
330
4696
100
AcDbEntity
  8
SUNPOU
 62
     4
370
    -2
100
AcDbLine
 10
373.6953109429257
 20
197.1826498672202
 30
0.0
 11
219.8250674781912
 21
197.1826498672202
 31
0.0
  0
LINE
  5
47B0
330
4696
100
AcDbEntity
  8
SUNPOU
 62
     4
370
    -2
100
AcDbLine
 10
222.8250674781912
 20
250.3611498672202
 30
0.0
 11
222.8250674781912
 21
204.1826498672202
 31
0.0
  0
INSERT
  5
47B1
330
4696
100
AcDbEntity
  8
SUNPOU
 62
     4
370
    -2
100
AcDbBlockReference
  2
_OPEN
 10
222.8250674781912
 20
257.3611498672202
 30
0.0
 41
7.0
 42
7.0
 43
7.0
 50
90.0
  0
INSERT
  5
47B2
330
4696
100
AcDbEntity
  8
SUNPOU
 62
     4
370
    -2
100
AcDbBlockReference
  2
_OPEN
 10
222.8250674781912
 20
197.1826498672202
 30
0.0
 41
7.0
 42
7.0
 43
7.0
 50
270.0
  0
MTEXT
  5
47B3
330
4696
100
AcDbEntity
  8
SUNPOU
 62
     4
100
AcDbMText
 10
217.8250674781911
 20
227.2718998672202
 30
0.0
 40
6.0
 41
0.0
 71
     5
 72
     1
  1
\A1;60
 11
6.123031769111886E-17
 21
1.0
 31
0.0
 73
     1
 44
1.0
  0
POINT
  5
47B4
330
4696
100
AcDbEntity
  8
DEFPOINTS
 62
     0
100
AcDbPoint
 10
250.6407109429256
 20
257.3611498672202
 30
0.0
  0
POINT
  5
47B5
330
4696
100
AcDbEntity
  8
DEFPOINTS
 62
     0
100
AcDbPoint
 10
379.6953109429257
 20
197.1826498672202
 30
0.0
  0
POINT
  5
47B6
330
4696
100
AcDbEntity
  8
DEFPOINTS
 62
     0
100
AcDbPoint
 10
222.8250674781912
 20
197.1826498672202
 30
0.0
  0
ENDBLK
  5
46A1
330
4696
100
AcDbEntity
  8
0
100
AcDbBlockEnd
  0
BLOCK
  5
46AC
330
46A2
100
AcDbEntity
  8
0
100
AcDbBlockBegin
  2
*D7
 70
     1
 71
     0
 10
0.0
 20
0.0
 30
0.0
  3
*D7
  1

  0
LINE
  5
47CD
330
46A2
100
AcDbEntity
  8
SUNPOU
 62
     4
370
    -2
100
AcDbLine
 10
386.8953109429256
 20
197.1726498672202
 30
0.0
 11
407.0212022938463
 21
197.1726498672202
 31
0.0
  0
LINE
  5
47CE
330
46A2
100
AcDbEntity
  8
SUNPOU
 62
     4
370
    -2
100
AcDbLine
 10
386.8953239211635
 20
263.682644615555
 30
0.0
 11
407.0212022938463
 21
263.682644615555
 31
0.0
  0
LINE
  5
47CF
330
46A2
100
AcDbEntity
  8
SUNPOU
 62
     4
370
    -2
100
AcDbLine
 10
404.0212022938463
 20
204.1726498672202
 30
0.0
 11
404.0212022938463
 21
256.682644615555
 31
0.0
  0
INSERT
  5
47D0
330
46A2
100
AcDbEntity
  8
SUNPOU
 62
     4
370
    -2
100
AcDbBlockReference
  2
_OPEN
 10
404.0212022938463
 20
197.1726498672202
 30
0.0
 41
7.0
 42
7.0
 43
7.0
 50
270.0
  0
INSERT
  5
47D1
330
46A2
100
AcDbEntity
  8
SUNPOU
 62
     4
370
    -2
100
AcDbBlockReference
  2
_OPEN
 10
404.0212022938463
 20
263.682644615555
 30
0.0
 41
7.0
 42
7.0
 43
7.0
 50
90.0
  0
MTEXT
  5
47D2
330
46A2
100
AcDbEntity
  8
SUNPOU
 62
     4
100
AcDbMText
 10
399.0212022938462
 20
230.4276472413876
 30
0.0
 40
6.0
 41
0.0
 71
     5
 72
     1
  1
\A1;67
 11
6.123031769111886E-17
 21
1.0
 31
0.0
 73
     1
 44
1.0
  0
POINT
  5
47D3
330
46A2
100
AcDbEntity
  8
DEFPOINTS
 62
     0
100
AcDbPoint
 10
380.8953109429256
 20
197.1726498672202
 30
0.0
  0
POINT
  5
47D4
330
46A2
100
AcDbEntity
  8
DEFPOINTS
 62
     0
100
AcDbPoint
 10
380.8953239211635
 20
263.682644615555
 30
0.0
  0
POINT
  5
47D5
330
46A2
100
AcDbEntity
  8
DEFPOINTS
 62
     0
100
AcDbPoint
 10
404.0212022938463
 20
263.682644615555
 30
0.0
  0
ENDBLK
  5
46AD
330
46A2
100
AcDbEntity
  8
0
100
AcDbBlockEnd
  0
BLOCK
  5
46BA
330
46AE
100
AcDbEntity
  8
0
100
AcDbBlockBegin
  2
*D8
 70
     1
 71
     0
 10
0.0
 20
0.0
 30
0.0
  3
*D8
  1

  0
LINE
  5
47C2
330
46AE
100
AcDbEntity
  8
SUNPOU
 62
     4
370
    -2
100
AcDbLine
 10
370.6630099112853
 20
245.8410427352812
 30
0.0
 11
370.6630099112853
 21
282.8945536284962
 31
0.0
  0
LINE
  5
47C3
330
46AE
100
AcDbEntity
  8
SUNPOU
 62
     4
370
    -2
100
AcDbLine
 10
380.8953109427999
 20
262.043475945553
 30
0.0
 11
380.8953109427999
 21
282.8945536284962
 31
0.0
  0
LINE
  5
47C4
330
46AE
100
AcDbEntity
  8
SUNPOU
 62
     4
370
    -2
100
AcDbLine
 10
387.8953109427999
 20
279.8945536284962
 30
0.0
 11
394.8953109427999
 21
279.8945536284962
 31
0.0
  0
LINE
  5
47C5
330
46AE
100
AcDbEntity
  8
SUNPOU
 62
     4
370
    -2
100
AcDbLine
 10
363.6630099112853
 20
279.8945536284962
 30
0.0
 11
345.6630099112853
 21
279.8945536284962
 31
0.0
  0
LINE
  5
47C6
330
46AE
100
AcDbEntity
  8
SUNPOU
 62
     4
370
    -2
100
AcDbLine
 10
380.8953109427999
 20
279.8945536284962
 30
0.0
 11
370.6630099112853
 21
279.8945536284962
 31
0.0
  0
INSERT
  5
47C7
330
46AE
100
AcDbEntity
  8
SUNPOU
 62
     4
370
    -2
100
AcDbBlockReference
  2
_OPEN
 10
380.8953109427999
 20
279.8945536284962
 30
0.0
 41
7.0
 42
7.0
 43
7.0
 50
180.0
  0
INSERT
  5
47C8
330
46AE
100
AcDbEntity
  8
SUNPOU
 62
     4
370
    -2
100
AcDbBlockReference
  2
_OPEN
 10
370.6630099112853
 20
279.8945536284962
 30
0.0
 41
7.0
 42
7.0
 43
7.0
  0
MTEXT
  5
47C9
330
46AE
100
AcDbEntity
  8
SUNPOU
 62
     4
100
AcDbMText
 10
351.1630099112853
 20
284.8945536284962
 30
0.0
 40
6.0
 41
0.0
 71
     5
 72
     1
  1
\A1;10
 73
     1
 44
1.0
  0
POINT
  5
47CA
330
46AE
100
AcDbEntity
  8
DEFPOINTS
 62
     0
100
AcDbPoint
 10
370.6630099112853
 20
239.8410427352812
 30
0.0
  0
POINT
  5
47CB
330
46AE
100
AcDbEntity
  8
DEFPOINTS
 62
     0
100
AcDbPoint
 10
380.8953109427999
 20
256.043475945553
 30
0.0
  0
POINT
  5
47CC
330
46AE
100
AcDbEntity
  8
DEFPOINTS
 62
     0
100
AcDbPoint
 10
380.8953109427999
 20
279.8945536284962
 30
0.0
  0
ENDBLK
  5
46BB
330
46AE
100
AcDbEntity
  8
0
100
AcDbBlockEnd
  0
BLOCK
  5
46C6
330
46BC
100
AcDbEntity
  8
0
100
AcDbBlockBegin
  2
*D9
 70
     1
 71
     0
 10
0.0
 20
0.0
 30
0.0
  3
*D9
  1

  0
LINE
  5
47D6
330
46BC
100
AcDbEntity
  8
SUNPOU
 62
     4
370
    -2
100
AcDbLine
 10
244.6408109429257
 20
394.3940498672202
 30
0.0
 11
219.8250674781912
 21
394.3940498672202
 31
0.0
  0
LINE
  5
47D7
330
46BC
100
AcDbEntity
  8
SUNPOU
 62
     4
370
    -2
100
AcDbLine
 10
244.6408109429257
 20
372.3940498672201
 30
0.0
 11
219.8250674781912
 21
372.3940498672201
 31
0.0
  0
LINE
  5
47D8
330
46BC
100
AcDbEntity
  8
SUNPOU
 62
     4
370
    -2
100
AcDbLine
 10
222.8250674781912
 20
387.3940498672202
 30
0.0
 11
222.8250674781912
 21
379.3940498672201
 31
0.0
  0
INSERT
  5
47D9
330
46BC
100
AcDbEntity
  8
SUNPOU
 62
     4
370
    -2
100
AcDbBlockReference
  2
_OPEN
 10
222.8250674781912
 20
394.3940498672202
 30
0.0
 41
7.0
 42
7.0
 43
7.0
 50
90.0
  0
INSERT
  5
47DA
330
46BC
100
AcDbEntity
  8
SUNPOU
 62
     4
370
    -2
100
AcDbBlockReference
  2
_OPEN
 10
222.8250674781912
 20
372.3940498672201
 30
0.0
 41
7.0
 42
7.0
 43
7.0
 50
270.0
  0
MTEXT
  5
47DB
330
46BC
100
AcDbEntity
  8
SUNPOU
 62
     4
100
AcDbMText
 10
217.8250674781911
 20
383.3940498672203
 30
0.0
 40
6.0
 41
0.0
 71
     5
 72
     1
  1
\A1;22
 11
6.123031769111886E-17
 21
1.0
 31
0.0
 73
     1
 44
1.0
  0
POINT
  5
47DC
330
46BC
100
AcDbEntity
  8
DEFPOINTS
 62
     0
100
AcDbPoint
 10
250.6408109429257
 20
394.3940498672202
 30
0.0
  0
POINT
  5
47DD
330
46BC
100
AcDbEntity
  8
DEFPOINTS
 62
     0
100
AcDbPoint
 10
250.6408109429257
 20
372.3940498672201
 30
0.0
  0
POINT
  5
47DE
330
46BC
100
AcDbEntity
  8
DEFPOINTS
 62
     0
100
AcDbPoint
 10
222.8250674781912
 20
372.3940498672201
 30
0.0
  0
ENDBLK
  5
46C7
330
46BC
100
AcDbEntity
  8
0
100
AcDbBlockEnd
  0
BLOCK
  5
46D2
330
46C8
100
AcDbEntity
  8
0
100
AcDbBlockBegin
  2
*D10
 70
     1
 71
     0
 10
0.0
 20
0.0
 30
0.0
  3
*D10
  1

  0
LINE
  5
47E8
330
46C8
100
AcDbEntity
  8
SUNPOU
 62
     4
370
    -2
100
AcDbLine
 10
501.2461109429257
 20
259.6826498672202
 30
0.0
 11
501.2461109429257
 21
310.4907497044799
 31
0.0
  0
LINE
  5
47E9
330
46C8
100
AcDbEntity
  8
SUNPOU
 62
     4
370
    -2
100
AcDbLine
 10
556.2461109429255
 20
259.6826498672202
 30
0.0
 11
556.2461109429255
 21
310.4907497044799
 31
0.0
  0
LINE
  5
47EA
330
46C8
100
AcDbEntity
  8
SUNPOU
 62
     4
370
    -2
100
AcDbLine
 10
508.2461109429257
 20
307.4907497044799
 30
0.0
 11
549.2461109429255
 21
307.4907497044799
 31
0.0
  0
INSERT
  5
47EB
330
46C8
100
AcDbEntity
  8
SUNPOU
 62
     4
370
    -2
100
AcDbBlockReference
  2
_OPEN
 10
501.2461109429257
 20
307.4907497044799
 30
0.0
 41
7.0
 42
7.0
 43
7.0
 50
180.0
  0
INSERT
  5
47EC
330
46C8
100
AcDbEntity
  8
SUNPOU
 62
     4
370
    -2
100
AcDbBlockReference
  2
_OPEN
 10
556.2461109429255
 20
307.4907497044799
 30
0.0
 41
7.0
 42
7.0
 43
7.0
  0
MTEXT
  5
47ED
330
46C8
100
AcDbEntity
  8
SUNPOU
 62
     4
100
AcDbMText
 10
528.7461109429256
 20
312.4907497044799
 30
0.0
 40
6.0
 41
0.0
 71
     5
 72
     1
  1
\A1;55
 73
     1
 44
1.0
  0
POINT
  5
47EE
330
46C8
100
AcDbEntity
  8
DEFPOINTS
 62
     0
100
AcDbPoint
 10
501.2461109429257
 20
253.6826498672202
 30
0.0
  0
POINT
  5
47EF
330
46C8
100
AcDbEntity
  8
DEFPOINTS
 62
     0
100
AcDbPoint
 10
556.2461109429255
 20
253.6826498672202
 30
0.0
  0
POINT
  5
47F0
330
46C8
100
AcDbEntity
  8
DEFPOINTS
 62
     0
100
AcDbPoint
 10
556.2461109429255
 20
307.4907497044799
 30
0.0
  0
ENDBLK
  5
46D3
330
46C8
100
AcDbEntity
  8
0
100
AcDbBlockEnd
  0
BLOCK
  5
46DE
330
46D4
100
AcDbEntity
  8
0
100
AcDbBlockBegin
  2
*D11
 70
     1
 71
     0
 10
0.0
 20
0.0
 30
0.0
  3
*D11
  1

  0
LINE
  5
47DF
330
46D4
100
AcDbEntity
  8
SUNPOU
 62
     4
370
    -2
100
AcDbLine
 10
509.2460109445681
 20
248.6705029502836
 30
0.0
 11
509.2460109445681
 21
293.6016292416296
 31
0.0
  0
LINE
  5
47E0
330
46D4
100
AcDbEntity
  8
SUNPOU
 62
     4
370
    -2
100
AcDbLine
 10
548.2461109429255
 20
248.6705029502836
 30
0.0
 11
548.2461109429255
 21
293.6016292416296
 31
0.0
  0
LINE
  5
47E1
330
46D4
100
AcDbEntity
  8
SUNPOU
 62
     4
370
    -2
100
AcDbLine
 10
516.2460109445681
 20
290.6016292416296
 30
0.0
 11
541.2461109429255
 21
290.6016292416296
 31
0.0
  0
INSERT
  5
47E2
330
46D4
100
AcDbEntity
  8
SUNPOU
 62
     4
370
    -2
100
AcDbBlockReference
  2
_OPEN
 10
509.2460109445681
 20
290.6016292416296
 30
0.0
 41
7.0
 42
7.0
 43
7.0
 50
180.0
  0
INSERT
  5
47E3
330
46D4
100
AcDbEntity
  8
SUNPOU
 62
     4
370
    -2
100
AcDbBlockReference
  2
_OPEN
 10
548.2461109429255
 20
290.6016292416296
 30
0.0
 41
7.0
 42
7.0
 43
7.0
  0
MTEXT
  5
47E4
330
46D4
100
AcDbEntity
  8
SUNPOU
 62
     4
100
AcDbMText
 10
528.7460609437468
 20
295.6016292416296
 30
0.0
 40
6.0
 41
0.0
 71
     5
 72
     1
  1
\A1;39
 73
     1
 44
1.0
  0
POINT
  5
47E5
330
46D4
100
AcDbEntity
  8
DEFPOINTS
 62
     0
100
AcDbPoint
 10
509.2460109445681
 20
242.6705029502836
 30
0.0
  0
POINT
  5
47E6
330
46D4
100
AcDbEntity
  8
DEFPOINTS
 62
     0
100
AcDbPoint
 10
548.2461109429255
 20
242.6705029502836
 30
0.0
  0
POINT
  5
47E7
330
46D4
100
AcDbEntity
  8
DEFPOINTS
 62
     0
100
AcDbPoint
 10
548.2461109429255
 20
290.6016292416296
 30
0.0
  0
ENDBLK
  5
46DF
330
46D4
100
AcDbEntity
  8
0
100
AcDbBlockEnd
  0
BLOCK
  5
46EA
330
46E0
100
AcDbEntity
  8
0
100
AcDbBlockBegin
  2
*D12
 70
     1
 71
     0
 10
0.0
 20
0.0
 30
0.0
  3
*D12
  1

  0
LINE
  5
4805
330
46E0
100
AcDbEntity
  8
SUNPOU
 62
     4
370
    -2
100
AcDbLine
 10
504.2461109429257
 20
263.6826498672202
 30
0.0
 11
474.5109976616986
 21
263.6826498672202
 31
0.0
  0
LINE
  5
4806
330
46E0
100
AcDbEntity
  8
SUNPOU
 62
     4
370
    -2
100
AcDbLine
 10
499.1522109429257
 20
238.6827498672201
 30
0.0
 11
474.5109976616986
 21
238.6827498672201
 31
0.0
  0
LINE
  5
4807
330
46E0
100
AcDbEntity
  8
SUNPOU
 62
     4
370
    -2
100
AcDbLine
 10
477.5109976616986
 20
256.6826498672202
 30
0.0
 11
477.5109976616986
 21
245.6827498672201
 31
0.0
  0
INSERT
  5
4808
330
46E0
100
AcDbEntity
  8
SUNPOU
 62
     4
370
    -2
100
AcDbBlockReference
  2
_OPEN
 10
477.5109976616986
 20
263.6826498672202
 30
0.0
 41
7.0
 42
7.0
 43
7.0
 50
90.0
  0
INSERT
  5
4809
330
46E0
100
AcDbEntity
  8
SUNPOU
 62
     4
370
    -2
100
AcDbBlockReference
  2
_OPEN
 10
477.5109976616986
 20
238.6827498672201
 30
0.0
 41
7.0
 42
7.0
 43
7.0
 50
270.0
  0
MTEXT
  5
480A
330
46E0
100
AcDbEntity
  8
SUNPOU
 62
     4
100
AcDbMText
 10
472.5109976616986
 20
251.1826998672202
 30
0.0
 40
6.0
 41
0.0
 71
     5
 72
     1
  1
\A1;25
 11
6.123031769111886E-17
 21
1.0
 31
0.0
 73
     1
 44
1.0
  0
POINT
  5
480B
330
46E0
100
AcDbEntity
  8
DEFPOINTS
 62
     0
100
AcDbPoint
 10
510.2461109429257
 20
263.6826498672202
 30
0.0
  0
POINT
  5
480C
330
46E0
100
AcDbEntity
  8
DEFPOINTS
 62
     0
100
AcDbPoint
 10
505.1522109429257
 20
238.6827498672201
 30
0.0
  0
POINT
  5
480D
330
46E0
100
AcDbEntity
  8
DEFPOINTS
 62
     0
100
AcDbPoint
 10
477.5109976616986
 20
238.6827498672201
 30
0.0
  0
ENDBLK
  5
46EB
330
46E0
100
AcDbEntity
  8
0
100
AcDbBlockEnd
  0
BLOCK
  5
46F8
330
46EC
100
AcDbEntity
  8
0
100
AcDbBlockBegin
  2
*D13
 70
     1
 71
     0
 10
0.0
 20
0.0
 30
0.0
  3
*D13
  1

  0
LINE
  5
47FA
330
46EC
100
AcDbEntity
  8
SUNPOU
 62
     4
370
    -2
100
AcDbLine
 10
518.0176109429256
 20
204.6826498672202
 30
0.0
 11
485.4373403534892
 21
204.6826498672202
 31
0.0
  0
LINE
  5
47FB
330
46EC
100
AcDbEntity
  8
SUNPOU
 62
     4
370
    -2
100
AcDbLine
 10
522.7459109429257
 20
197.1826498672201
 30
0.0
 11
485.4373403534892
 21
197.1826498672201
 31
0.0
  0
LINE
  5
47FC
330
46EC
100
AcDbEntity
  8
SUNPOU
 62
     4
370
    -2
100
AcDbLine
 10
488.4373403534892
 20
211.6826498672202
 30
0.0
 11
488.4373403534892
 21
218.6826498672202
 31
0.0
  0
LINE
  5
47FD
330
46EC
100
AcDbEntity
  8
SUNPOU
 62
     4
370
    -2
100
AcDbLine
 10
488.4373403534892
 20
190.1826498672201
 30
0.0
 11
488.4373403534892
 21
175.1826498672201
 31
0.0
  0
LINE
  5
47FE
330
46EC
100
AcDbEntity
  8
SUNPOU
 62
     4
370
    -2
100
AcDbLine
 10
488.4373403534892
 20
204.6826498672202
 30
0.0
 11
488.4373403534892
 21
197.1826498672201
 31
0.0
  0
INSERT
  5
47FF
330
46EC
100
AcDbEntity
  8
SUNPOU
 62
     4
370
    -2
100
AcDbBlockReference
  2
_OPEN
 10
488.4373403534892
 20
204.6826498672202
 30
0.0
 41
7.0
 42
7.0
 43
7.0
 50
270.0
  0
INSERT
  5
4800
330
46EC
100
AcDbEntity
  8
SUNPOU
 62
     4
370
    -2
100
AcDbBlockReference
  2
_OPEN
 10
488.4373403534892
 20
197.1826498672201
 30
0.0
 41
7.0
 42
7.0
 43
7.0
 50
90.0
  0
MTEXT
  5
4801
330
46EC
100
AcDbEntity
  8
SUNPOU
 62
     4
100
AcDbMText
 10
483.4373403534891
 20
179.1826498672202
 30
0.0
 40
6.0
 41
0.0
 71
     5
 72
     1
  1
\A1;8
 11
6.123031769111886E-17
 21
1.0
 31
0.0
 73
     1
 44
1.0
  0
POINT
  5
4802
330
46EC
100
AcDbEntity
  8
DEFPOINTS
 62
     0
100
AcDbPoint
 10
524.0176109429256
 20
204.6826498672202
 30
0.0
  0
POINT
  5
4803
330
46EC
100
AcDbEntity
  8
DEFPOINTS
 62
     0
100
AcDbPoint
 10
528.7459109429257
 20
197.1826498672201
 30
0.0
  0
POINT
  5
4804
330
46EC
100
AcDbEntity
  8
DEFPOINTS
 62
     0
100
AcDbPoint
 10
488.4373403534892
 20
197.1826498672201
 30
0.0
  0
ENDBLK
  5
46F9
330
46EC
100
AcDbEntity
  8
0
100
AcDbBlockEnd
  0
BLOCK
  5
4704
330
46FA
100
AcDbEntity
  8
0
100
AcDbBlockBegin
  2
*D14
 70
     1
 71
     0
 10
0.0
 20
0.0
 30
0.0
  3
*D14
  1

  0
LINE
  5
47F1
330
46FA
100
AcDbEntity
  8
SUNPOU
 62
     4
370
    -2
100
AcDbLine
 10
553.2461109429257
 20
263.6826498672201
 30
0.0
 11
588.9813910132599
 21
263.6826498672201
 31
0.0
  0
LINE
  5
47F2
330
46FA
100
AcDbEntity
  8
SUNPOU
 62
     4
370
    -2
100
AcDbLine
 10
559.2369109429258
 20
232.6826498672202
 30
0.0
 11
588.9813910132598
 21
232.6826498672201
 31
0.0
  0
LINE
  5
47F3
330
46FA
100
AcDbEntity
  8
SUNPOU
 62
     4
370
    -2
100
AcDbLine
 10
585.9813910132599
 20
256.6826498672201
 30
0.0
 11
585.9813910132598
 21
239.6826498672201
 31
0.0
  0
INSERT
  5
47F4
330
46FA
100
AcDbEntity
  8
SUNPOU
 62
     4
370
    -2
100
AcDbBlockReference
  2
_OPEN
 10
585.9813910132599
 20
263.6826498672201
 30
0.0
 41
7.0
 42
7.0
 43
7.0
 50
90.0
  0
INSERT
  5
47F5
330
46FA
100
AcDbEntity
  8
SUNPOU
 62
     4
370
    -2
100
AcDbBlockReference
  2
_OPEN
 10
585.9813910132598
 20
232.6826498672201
 30
0.0
 41
7.0
 42
7.0
 43
7.0
 50
270.0
  0
MTEXT
  5
47F6
330
46FA
100
AcDbEntity
  8
SUNPOU
 62
     4
100
AcDbMText
 10
580.9813910132598
 20
248.1826498672202
 30
0.0
 40
6.0
 41
0.0
 71
     5
 72
     1
  1
\A1;31
 11
6.123031769111886E-17
 21
1.0
 31
0.0
 73
     1
 44
1.0
  0
POINT
  5
47F7
330
46FA
100
AcDbEntity
  8
DEFPOINTS
 62
     0
100
AcDbPoint
 10
547.2461109429257
 20
263.6826498672201
 30
0.0
  0
POINT
  5
47F8
330
46FA
100
AcDbEntity
  8
DEFPOINTS
 62
     0
100
AcDbPoint
 10
553.2369109429258
 20
232.6826498672202
 30
0.0
  0
POINT
  5
47F9
330
46FA
100
AcDbEntity
  8
DEFPOINTS
 62
     0
100
AcDbPoint
 10
585.9813910132598
 20
232.6826498672201
 30
0.0
  0
ENDBLK
  5
4705
330
46FA
100
AcDbEntity
  8
0
100
AcDbBlockEnd
  0
ENDSEC
  0
SECTION
  2
ENTITIES
  0
LINE
  5
3EF3
330
1A
100
AcDbEntity
  8
ZUWAKU
100
AcDbLine
 10
208.646601303624
 20
15.19999986828872
 30
0.0
 11
447.4243639845474
 21
15.19999986828871
 31
0.0
  0
LINE
  5
3EF4
330
1A
100
AcDbEntity
  8
ZUWAKU
100
AcDbLine
 10
208.646601303624
 20
15.59999986828872
 30
0.0
 11
447.4243639845474
 21
15.59999986828872
 31
0.0
  0
LINE
  5
3EF5
330
1A
100
AcDbEntity
  8
ZUWAKU
100
AcDbLine
 10
208.646601303624
 20
15.39999986828872
 30
0.0
 11
447.4243639845474
 21
15.39999986828872
 31
0.0
  0
LINE
  5
3EF6
330
1A
100
AcDbEntity
  8
ZUWAKU
100
AcDbLine
 10
0.0000000135560185
 20
30.79999986828869
 30
0.0
 11
797.4000000135559
 21
30.79999986828869
 31
0.0
  0
LINE
  5
3EF7
330
1A
100
AcDbEntity
  8
ZUWAKU
100
AcDbLine
 10
0.0000000135560185
 20
30.59999986828869
 30
0.0
 11
797.4000000135559
 21
30.59999986828869
 31
0.0
  0
LINE
  5
3EF8
330
1A
100
AcDbEntity
  8
ZUWAKU
100
AcDbLine
 10
0.0000000135560185
 20
30.39999986828869
 30
0.0
 11
797.4000000135559
 21
30.39999986828869
 31
0.0
  0
LINE
  5
3EF9
330
1A
100
AcDbEntity
  8
ZUWAKU
100
AcDbLine
 10
0.0000000135560185
 20
30.19999986828869
 30
0.0
 11
797.4000000135559
 21
30.19999986828869
 31
0.0
  0
LINE
  5
3EFA
330
1A
100
AcDbEntity
  8
ZUWAKU
100
AcDbLine
 10
0.0000000135560185
 20
29.99999986828868
 30
0.0
 11
797.4000000135559
 21
29.99999986828868
 31
0.0
  0
LWPOLYLINE
  5
3EFB
330
1A
100
AcDbEntity
  8
ZUWAKU
100
AcDbPolyline
 90
        4
 70
     1
 43
0.0
 10
0.2000000135559503
 20
551.3999998682888
 10
0.2000000135559503
 20
0.1999998682887281
 10
797.4000000135559
 20
0.1999998682887512
 10
797.4000000135561
 20
551.3999998682888
  0
LWPOLYLINE
  5
3EFC
330
1A
100
AcDbEntity
  8
ZUWAKU
100
AcDbPolyline
 90
        4
 70
     1
 43
0.0
 10
0.6000000135559276
 20
550.9999998682888
 10
0.6000000135559276
 20
0.5999998682887053
 10
797.0000000135563
 20
0.5999998682887515
 10
797.000000013556
 20
550.9999998682888
  0
LWPOLYLINE
  5
3EFD
330
1A
100
AcDbEntity
  8
ZUWAKU
100
AcDbPolyline
 90
        4
 70
     1
 43
0.0
 10
0.0000000135560185
 20
551.5999998682887
 10
0.0000000135560185
 20
-0.0000001317113174
 10
797.6000000135562
 20
-0.0000001317112499
 10
797.6000000135562
 20
551.5999998682888
  0
LWPOLYLINE
  5
3EFE
330
1A
100
AcDbEntity
  8
ZUWAKU
100
AcDbPolyline
 90
        4
 70
     1
 43
0.0
 10
0.4000000135559958
 20
551.1999998682887
 10
0.4000000135559958
 20
0.3999998682887735
 10
797.2000000135561
 20
0.3999998682887505
 10
797.2000000135561
 20
551.1999998682887
  0
LWPOLYLINE
  5
3EFF
330
1A
100
AcDbEntity
  8
ZUWAKU
100
AcDbPolyline
 90
        4
 70
     1
 43
0.0
 10
0.8000000135559731
 20
550.7999998682888
 10
0.8000000135559731
 20
0.7999998682887508
 10
796.800000013556
 20
0.7999998682887508
 10
796.800000013556
 20
550.7999998682888
  0
TEXT
  5
3F00
330
1A
100
AcDbEntity
  8
moji
100
AcDbText
 10
92.95778960172515
 20
12.74117799856344
 30
0.0
 40
6.0
  1
アーバントップΣ９０
 41
0.9
  7
ｽﾀｲﾙ1
100
AcDbText
  0
HATCH
  5
3F01
330
1A
100
AcDbEntity
  8
ZUWAKU
100
AcDbHatch
 10
0.0
 20
0.0
 30
0.0
210
0.0
220
0.0
230
1.0
  2
ANSI37
 70
     0
 71
     0
 91
        8
 92
        7
 72
     1
 73
     1
 93
       24
 10
14.50226267467588
 20
17.64484834927227
 42
-0.1989123673796348
 10
14.09221216833714
 20
18.63479784293332
 42
0.0
 10
14.09221216833714
 20
19.92499986828869
 42
-0.4142135623730912
 10
14.61721216833712
 20
20.44999986828869
 42
0.0
 10
17.59221216833703
 20
20.44999986828869
 42
0.4142135623731546
 10
18.11721216833712
 20
20.97499986828868
 42
0.0
 10
18.11721216833712
 20
22.72499986828869
 42
0.4142135623731586
 10
17.59221216833703
 20
23.24999986828869
 42
0.0
 10
14.09221216833714
 20
23.24999986828869
 42
0.4142135623730928
 10
11.29221216833719
 20
20.44999986828871
 42
0.0
 10
11.29221216833719
 20
18.63479784293345
 42
0.1989123673796619
 10
12.52236368735362
 20
15.66494936194984
 42
0.0
 10
15.43216166199829
 20
12.75515138730518
 42
-0.1989123673796613
 10
15.84221216833714
 20
11.76520189364399
 42
0.0
 10
15.84221216833714
 20
10.47499986828868
 42
-0.4142135623730911
 10
15.31721216833716
 20
9.949999868288685
 42
0.0
 10
12.34221216833726
 20
9.949999868288685
 42
0.4142135623731526
 10
11.81721216833716
 20
9.424999868288698
 42
0.0
 10
11.81721216833716
 20
7.674999868288676
 42
0.4142135623731526
 10
12.34221216833726
 20
7.149999868288688
 42
0.0
 10
15.84221216833714
 20
7.149999868288688
 42
0.4142135623731044
 10
18.64221216833721
 20
9.949999868288664
 42
0.0
 10
18.64221216833721
 20
11.76520189364394
 42
0.1989123673796604
 10
17.41206064932067
 20
14.73505037462748
 42
0.0
 97
        0
 92
        7
 72
     1
 73
     1
 93
       16
 10
23.54221216833719
 20
19.04999986828869
 42
-0.4142135623730935
 10
24.94221216833716
 20
20.44999986828869
 42
0.0
 10
26.86721216833712
 20
20.44999986828869
 42
0.4142135623731546
 10
27.39221216833721
 20
20.97499986828868
 42
0.0
 10
27.39221216833721
 20
22.72499986828869
 42
0.4142135623730952
 10
26.86721216833723
 20
23.24999986828869
 42
0.0
 10
24.94221216833705
 20
23.24999986828865
 42
0.4142135623730892
 10
20.74221216833712
 20
19.04999986828862
 42
0.0
 10
20.74221216833712
 20
11.34999986828871
 42
0.4142135623730969
 10
24.94221216833716
 20
7.149999868288688
 42
0.0
 10
26.86721216833712
 20
7.149999868288688
 42
0.4142135623731526
 10
27.39221216833721
 20
7.674999868288676
 42
0.0
 10
27.39221216833721
 20
9.424999868288698
 42
0.414213562373089
 10
26.86721216833723
 20
9.949999868288685
 42
0.0
 10
24.94221216833716
 20
9.949999868288685
 42
-0.4142135623730928
 10
23.54221216833719
 20
11.34999986828867
 42
0.0
 97
        0
 92
        7
 72
     1
 73
     1
 93
        2
 10
24.24221216833712
 20
15.19999986828869
 42
1.0
 10
27.74221216833712
 20
15.19999986828869
 42
1.0
 97
        0
 92
        7
 72
     1
 73
     1
 93
       26
 10
37.31485865051513
 20
19.20504706185211
 42
0.0
 10
38.37649828365295
 20
22.5669059001217
 42
0.5069206636600134
 10
37.87586738445759
 20
23.24999986828869
 42
0.0
 10
36.17697800484837
 20
23.24999986828869
 42
0.3272098845218764
 10
35.67634710565301
 20
22.88309383645566
 42
0.0
 10
33.80807723102123
 20
16.96690590012177
 42
-0.3272098845219541
 10
33.30744633182576
 20
16.59999986828868
 42
0.0
 10
33.1672121683373
 20
16.59999986828868
 42
-0.4142135623731526
 10
32.64221216833721
 20
17.12499986828867
 42
0.0
 10
32.64221216833721
 20
22.72499986828869
 42
0.4142135623730952
 10
32.11721216833723
 20
23.24999986828869
 42
0.0
 10
30.36721216833712
 20
23.24999986828869
 42
0.4142135623730872
 10
29.84221216833714
 20
22.72499986828871
 42
0.0
 10
29.84221216833714
 20
7.674999868288676
 42
0.414213562373089
 10
30.36721216833712
 20
7.149999868288688
 42
0.0
 10
32.11721216833712
 20
7.149999868288688
 42
0.4142135623731526
 10
32.64221216833721
 20
7.674999868288676
 42
0.0
 10
32.64221216833721
 20
13.2749998682887
 42
-0.4142135623731526
 10
33.1672121683373
 20
13.79999986828869
 42
0.0
 10
33.30744633182587
 20
13.79999986828869
 42
-0.3272098845218915
 10
33.80807723102123
 20
13.43309383645561
 42
0.0
 10
35.67634710565301
 20
7.51690590012176
 42
0.3272098845218902
 10
36.17697800484837
 20
7.149999868288688
 42
0.0
 10
37.87586738445759
 20
7.149999868288688
 42
0.5069206636600334
 10
38.37649828365295
 20
7.833093836455696
 42
0.0
 10
36.05010690517929
 20
15.19999986828882
 42
0.0
 97
        0
 92
        7
 72
     1
 73
     1
 93
        8
 10
43.49221216833712
 20
22.7249998682887
 42
0.4142135623731546
 10
42.96721216833703
 20
23.24999986828869
 42
0.0
 10
41.21721216833726
 20
23.24999986828869
 42
0.4142135623731506
 10
40.69221216833716
 20
22.72499986828871
 42
0.0
 10
40.69221216833716
 20
7.674999868288676
 42
0.4142135623731526
 10
41.21721216833726
 20
7.149999868288688
 42
0.0
 10
42.96721216833703
 20
7.149999868288688
 42
0.4142135623731526
 10
43.49221216833712
 20
7.674999868288676
 42
0.0
 97
        0
 92
        7
 72
     1
 73
     1
 93
       24
 10
48.39221216833721
 20
19.92499986828869
 42
-0.4142135623731547
 10
48.9172121683373
 20
20.44999986828869
 42
0.0
 10
51.89221216833721
 20
20.44999986828869
 42
0.4142135623730911
 10
52.41721216833719
 20
20.97499986828868
 42
0.0
 10
52.41721216833719
 20
22.72499986828869
 42
0.4142135623730952
 10
51.89221216833721
 20
23.24999986828869
 42
0.0
 10
48.39221216833721
 20
23.24999986828869
 42
0.4142135623731048
 10
45.59221216833714
 20
20.44999986828871
 42
0.0
 10
45.59221216833714
 20
18.63479784293345
 42
0.1989123673796613
 10
46.82236368735369
 20
15.66494936194989
 42
0.0
 10
49.73216166199836
 20
12.75515138730523
 42
-0.1989123673796402
 10
50.14221216833721
 20
11.76520189364415
 42
0.0
 10
50.14221216833721
 20
10.47499986828868
 42
-0.4142135623730911
 10
49.61721216833723
 20
9.949999868288685
 42
0.0
 10
46.64221216833721
 20
9.949999868288685
 42
0.4142135623731526
 10
46.11721216833712
 20
9.424999868288698
 42
0.0
 10
46.11721216833712
 20
7.674999868288676
 42
0.414213562373089
 10
46.6422121683371
 20
7.149999868288688
 42
0.0
 10
50.14221216833721
 20
7.149999868288688
 42
0.4142135623730925
 10
52.94221216833716
 20
9.949999868288664
 42
0.0
 10
52.94221216833716
 20
11.76520189364394
 42
0.1989123673796675
 10
51.71206064932062
 20
14.73505037462759
 42
0.0
 10
48.80226267467606
 20
17.64484834927211
 42
-0.1989123673796653
 10
48.39221216833721
 20
18.63479784293327
 42
0.0
 97
        0
 92
        7
 72
     1
 73
     1
 93
       16
 10
57.84221216833714
 20
22.72499986828868
 42
0.414213562373103
 10
57.31721216833716
 20
23.24999986828869
 42
0.0
 10
55.56721216833716
 20
23.24999986828869
 42
0.4142135623730872
 10
55.04221216833719
 20
22.72499986828871
 42
0.0
 10
55.04221216833719
 20
9.949999868288664
 42
0.4142135623730925
 10
57.84221216833714
 20
7.149999868288688
 42
0.0
 10
61.34221216833714
 20
7.149999868288688
 42
0.4142135623731044
 10
64.14221216833721
 20
9.949999868288664
 42
0.0
 10
64.14221216833721
 20
22.72499986828869
 42
0.4142135623730952
 10
63.61721216833723
 20
23.24999986828869
 42
0.0
 10
61.86721216833712
 20
23.24999986828869
 42
0.4142135623730872
 10
61.34221216833714
 20
22.72499986828871
 42
0.0
 10
61.34221216833714
 20
10.99999986828866
 42
-0.414213562373088
 10
60.29221216833719
 20
9.949999868288685
 42
0.0
 10
58.89221216833721
 20
9.949999868288685
 42
-0.4142135623731197
 10
57.84221216833714
 20
10.99999986828866
 42
0.0
 97
        0
 92
        7
 72
     1
 73
     1
 93
        8
 10
69.04221216833719
 20
22.72499986828871
 42
0.4142135623730872
 10
68.51721216833721
 20
23.24999986828869
 42
0.0
 10
66.76721216833721
 20
23.24999986828869
 42
0.4142135623731506
 10
66.24221216833712
 20
22.72499986828871
 42
0.0
 10
66.24221216833712
 20
7.674999868288676
 42
0.414213562373089
 10
66.7672121683371
 20
7.149999868288688
 42
0.0
 10
68.51721216833721
 20
7.149999868288688
 42
0.414213562373089
 10
69.04221216833719
 20
7.674999868288676
 42
0.0
 97
        0
 75
     0
 76
     1
 52
0.0
 41
0.2
 77
     0
 78
     2
 53
45.0
 43
-900.942304321123
 44
-13.20000013171125
 45
-0.4490128060534576
 46
0.4490128060534577
 79
     0
 53
135.0
 43
-900.942304321123
 44
-13.20000013171125
 45
-0.4490128060534577
 46
-0.4490128060534576
 79
     0
 47
0.057451373970553
 98
        8
 10
16.07985497657933
 20
15.16717351417424
 10
22.40451501999519
 20
18.84406205073969
 10
25.16436789921568
 20
15.5118815143594
 10
30.91405999519316
 20
16.20129751473019
 10
41.83847203251276
 20
16.6609097822718
 10
46.89820090868557
 20
19.41857618469589
 10
56.55768598595637
 20
18.7291577833837
 10
67.82707963317876
 20
19.18877005092531
  0
LINE
  5
3F02
330
1A
100
AcDbEntity
  8
ZUWAKU
100
AcDbLine
 10
24.94221216833716
 20
23.24999986828865
 30
0.0
 11
26.86721216833712
 21
23.24999986828869
 31
0.0
  0
LINE
  5
3F03
330
1A
100
AcDbEntity
  8
ZUWAKU
100
AcDbLine
 10
26.86721216833712
 20
20.44999986828869
 30
0.0
 11
24.94221216833716
 21
20.44999986828869
 31
0.0
  0
LINE
  5
3F04
330
1A
100
AcDbEntity
  8
ZUWAKU
100
AcDbLine
 10
24.94221216833716
 20
9.949999868288685
 30
0.0
 11
26.86721216833712
 21
9.949999868288685
 31
0.0
  0
LINE
  5
3F05
330
1A
100
AcDbEntity
  8
ZUWAKU
100
AcDbLine
 10
26.86721216833712
 20
7.149999868288688
 30
0.0
 11
24.94221216833716
 21
7.149999868288688
 31
0.0
  0
CIRCLE
  5
3F06
330
1A
100
AcDbEntity
  8
ZUWAKU
100
AcDbCircle
 10
25.99221216833712
 20
15.19999986828869
 30
0.0
 40
1.75
  0
ARC
  5
3F07
330
1A
100
AcDbEntity
  8
ZUWAKU
100
AcDbCircle
 10
15.49221216833712
 20
18.63479784293339
 30
0.0
 40
1.4
100
AcDbArc
 50
180.0000000000016
 51
224.9999999999988
  0
LINE
  5
3F08
330
1A
100
AcDbEntity
  8
ZUWAKU
100
AcDbLine
 10
23.54221216833719
 20
19.04999986828869
 30
0.0
 11
23.54221216833719
 21
11.34999986828869
 31
0.0
  0
LINE
  5
3F09
330
1A
100
AcDbEntity
  8
ZUWAKU
100
AcDbLine
 10
20.74221216833712
 20
11.34999986828869
 30
0.0
 11
20.74221216833712
 21
19.04999986828864
 31
0.0
  0
ARC
  5
3F0A
330
1A
100
AcDbEntity
  8
ZUWAKU
100
AcDbCircle
 10
15.49221216833712
 20
18.63479784293339
 30
0.0
 40
4.199999999999999
100
AcDbArc
 50
180.0
 51
225.0
  0
ARC
  5
3F0B
330
1A
100
AcDbEntity
  8
ZUWAKU
100
AcDbCircle
 10
15.84221216833714
 20
9.949999868288685
 30
0.0
 40
2.8
100
AcDbArc
 50
270.0
 51
0.0
  0
ARC
  5
3F0C
330
1A
100
AcDbEntity
  8
ZUWAKU
100
AcDbCircle
 10
24.94221216833716
 20
11.34999986828869
 30
0.0
 40
4.199999999999999
100
AcDbArc
 50
180.0
 51
270.0
  0
ARC
  5
3F0D
330
1A
100
AcDbEntity
  8
ZUWAKU
100
AcDbCircle
 10
14.44221216833716
 20
11.76520189364399
 30
0.0
 40
4.199999999999999
100
AcDbArc
 50
0.0
 51
45.0
  0
LINE
  5
3F0E
330
1A
100
AcDbEntity
  8
ZUWAKU
100
AcDbLine
 10
17.41206064932067
 20
14.73505037462751
 30
0.0
 11
14.50226267467599
 21
17.64484834927219
 31
0.0
  0
LINE
  5
3F0F
330
1A
100
AcDbEntity
  8
ZUWAKU
100
AcDbLine
 10
15.84221216833714
 20
10.47499986828869
 30
0.0
 11
15.84221216833714
 21
11.76520189364403
 31
0.0
  0
ARC
  5
3F10
330
1A
100
AcDbEntity
  8
ZUWAKU
100
AcDbCircle
 10
15.31721216833716
 20
10.47499986828869
 30
0.0
 40
0.5249999999999999
100
AcDbArc
 50
270.0
 51
0.0
  0
ARC
  5
3F11
330
1A
100
AcDbEntity
  8
ZUWAKU
100
AcDbCircle
 10
14.44221216833716
 20
11.76520189364403
 30
0.0
 40
1.4
100
AcDbArc
 50
0.0
 51
45.0
  0
LINE
  5
3F12
330
1A
100
AcDbEntity
  8
ZUWAKU
100
AcDbLine
 10
11.81721216833716
 20
7.674999868288687
 30
0.0
 11
11.81721216833716
 21
9.424999868288687
 31
0.0
  0
ARC
  5
3F13
330
1A
100
AcDbEntity
  8
ZUWAKU
100
AcDbCircle
 10
12.34221216833714
 20
7.674999868288687
 30
0.0
 40
0.5249999999999999
100
AcDbArc
 50
180.0
 51
270.0
  0
ARC
  5
3F14
330
1A
100
AcDbEntity
  8
ZUWAKU
100
AcDbCircle
 10
12.34221216833714
 20
9.424999868288687
 30
0.0
 40
0.5249999999999999
100
AcDbArc
 50
90.0
 51
180.0
  0
LINE
  5
3F15
330
1A
100
AcDbEntity
  8
ZUWAKU
100
AcDbLine
 10
12.34221216833714
 20
7.149999868288688
 30
0.0
 11
15.84221216833714
 21
7.149999868288688
 31
0.0
  0
LINE
  5
3F16
330
1A
100
AcDbEntity
  8
ZUWAKU
100
AcDbLine
 10
12.34221216833714
 20
9.949999868288685
 30
0.0
 11
15.31721216833716
 21
9.949999868288685
 31
0.0
  0
LINE
  5
3F17
330
1A
100
AcDbEntity
  8
ZUWAKU
100
AcDbLine
 10
12.52236368735362
 20
15.66494936194987
 30
0.0
 11
15.43216166199829
 21
12.7551513873052
 31
0.0
  0
LINE
  5
3F18
330
1A
100
AcDbEntity
  8
ZUWAKU
100
AcDbLine
 10
18.64221216833721
 20
9.949999868288685
 30
0.0
 11
18.64221216833721
 21
11.76520189364403
 31
0.0
  0
ARC
  5
3F19
330
1A
100
AcDbEntity
  8
ZUWAKU
100
AcDbCircle
 10
24.94221216833716
 20
11.34999986828869
 30
0.0
 40
1.4
100
AcDbArc
 50
180.0
 51
270.0
  0
ARC
  5
3F1A
330
1A
100
AcDbEntity
  8
ZUWAKU
100
AcDbCircle
 10
17.59221216833714
 20
22.72499986828868
 30
0.0
 40
0.5249999999999999
100
AcDbArc
 50
0.0
 51
90.0
  0
ARC
  5
3F1B
330
1A
100
AcDbEntity
  8
ZUWAKU
100
AcDbCircle
 10
17.59221216833714
 20
20.97499986828868
 30
0.0
 40
0.5249999999999999
100
AcDbArc
 50
270.0
 51
0.0
  0
LINE
  5
3F1C
330
1A
100
AcDbEntity
  8
ZUWAKU
100
AcDbLine
 10
14.09221216833714
 20
23.24999986828869
 30
0.0
 11
17.59221216833714
 21
23.24999986828869
 31
0.0
  0
ARC
  5
3F1D
330
1A
100
AcDbEntity
  8
ZUWAKU
100
AcDbCircle
 10
14.61721216833712
 20
19.92499986828869
 30
0.0
 40
0.5249999999999999
100
AcDbArc
 50
90.0
 51
180.0
  0
LINE
  5
3F1E
330
1A
100
AcDbEntity
  8
ZUWAKU
100
AcDbLine
 10
14.09221216833714
 20
19.92499986828869
 30
0.0
 11
14.09221216833714
 21
18.63479784293335
 31
0.0
  0
LINE
  5
3F1F
330
1A
100
AcDbEntity
  8
ZUWAKU
100
AcDbLine
 10
17.59221216833714
 20
20.44999986828869
 30
0.0
 11
14.61721216833712
 21
20.44999986828869
 31
0.0
  0
LINE
  5
3F20
330
1A
100
AcDbEntity
  8
ZUWAKU
100
AcDbLine
 10
11.29221216833719
 20
20.44999986828869
 30
0.0
 11
11.29221216833719
 21
18.63479784293335
 31
0.0
  0
ARC
  5
3F21
330
1A
100
AcDbEntity
  8
ZUWAKU
100
AcDbCircle
 10
14.09221216833714
 20
20.44999986828869
 30
0.0
 40
2.8
100
AcDbArc
 50
90.0
 51
180.0
  0
LINE
  5
3F22
330
1A
100
AcDbEntity
  8
ZUWAKU
100
AcDbLine
 10
18.11721216833712
 20
22.72499986828868
 30
0.0
 11
18.11721216833712
 21
20.97499986828868
 31
0.0
  0
ARC
  5
3F23
330
1A
100
AcDbEntity
  8
ZUWAKU
100
AcDbCircle
 10
24.94221216833716
 20
19.04999986828869
 30
0.0
 40
1.4
100
AcDbArc
 50
90.0
 51
180.0
  0
ARC
  5
3F24
330
1A
100
AcDbEntity
  8
ZUWAKU
100
AcDbCircle
 10
24.94221216833716
 20
19.04999986828864
 30
0.0
 40
4.199999999999999
100
AcDbArc
 50
90.0
 51
180.0
  0
LINE
  5
3F25
330
1A
100
AcDbEntity
  8
ZUWAKU
100
AcDbLine
 10
79.32662956154422
 20
29.99999986828868
 30
0.0
 11
79.32662956154445
 21
0.7999998682887508
 31
0.0
  0
LINE
  5
3F26
330
1A
100
AcDbEntity
  8
ZUWAKU
100
AcDbLine
 10
79.52662956154427
 20
29.99999986828868
 30
0.0
 11
79.5266295615445
 21
0.7999998682887508
 31
0.0
  0
LINE
  5
3F27
330
1A
100
AcDbEntity
  8
ZUWAKU
100
AcDbLine
 10
79.12662956154441
 20
29.99999986828868
 30
0.0
 11
79.12662956154441
 21
0.7999998682887508
 31
0.0
  0
LINE
  5
3F28
330
1A
100
AcDbEntity
  8
ZUWAKU
100
AcDbLine
 10
64.14221216833721
 20
9.949999868288685
 30
0.0
 11
64.14221216833721
 21
22.72499986828868
 31
0.0
  0
LINE
  5
3F29
330
1A
100
AcDbEntity
  8
ZUWAKU
100
AcDbLine
 10
61.34221216833714
 20
22.72499986828868
 30
0.0
 11
61.34221216833714
 21
10.99999986828868
 31
0.0
  0
LINE
  5
3F2A
330
1A
100
AcDbEntity
  8
ZUWAKU
100
AcDbLine
 10
69.04221216833719
 20
7.674999868288687
 30
0.0
 11
69.04221216833719
 21
22.72499986828868
 31
0.0
  0
LINE
  5
3F2B
330
1A
100
AcDbEntity
  8
ZUWAKU
100
AcDbLine
 10
66.24221216833712
 20
22.72499986828868
 30
0.0
 11
66.24221216833712
 21
7.674999868288687
 31
0.0
  0
ARC
  5
3F2C
330
1A
100
AcDbEntity
  8
ZUWAKU
100
AcDbCircle
 10
49.79221216833719
 20
18.63479784293339
 30
0.0
 40
1.4
100
AcDbArc
 50
180.0000000000016
 51
224.9999999999988
  0
ARC
  5
3F2D
330
1A
100
AcDbEntity
  8
ZUWAKU
100
AcDbCircle
 10
49.79221216833719
 20
18.63479784293339
 30
0.0
 40
4.199999999999999
100
AcDbArc
 50
180.0
 51
225.0
  0
LINE
  5
3F2E
330
1A
100
AcDbEntity
  8
ZUWAKU
100
AcDbLine
 10
37.31485865051513
 20
19.20504706185211
 30
0.0
 11
36.05010690517929
 21
15.19999986828871
 31
0.0
  0
LINE
  5
3F2F
330
1A
100
AcDbEntity
  8
ZUWAKU
100
AcDbLine
 10
40.69221216833716
 20
22.72499986828868
 30
0.0
 11
40.69221216833716
 21
7.674999868288687
 31
0.0
  0
LINE
  5
3F30
330
1A
100
AcDbEntity
  8
ZUWAKU
100
AcDbLine
 10
43.49221216833712
 20
7.674999868288687
 30
0.0
 11
43.49221216833712
 21
22.72499986828868
 31
0.0
  0
LINE
  5
3F31
330
1A
100
AcDbEntity
  8
ZUWAKU
100
AcDbLine
 10
55.04221216833719
 20
22.72499986828868
 30
0.0
 11
55.04221216833719
 21
9.949999868288685
 31
0.0
  0
LINE
  5
3F32
330
1A
100
AcDbEntity
  8
ZUWAKU
100
AcDbLine
 10
57.84221216833714
 20
10.99999986828868
 30
0.0
 11
57.84221216833714
 21
22.72499986828868
 31
0.0
  0
LINE
  5
3F33
330
1A
100
AcDbEntity
  8
ZUWAKU
100
AcDbLine
 10
32.64221216833721
 20
17.12499986828869
 30
0.0
 11
32.64221216833721
 21
22.72499986828868
 31
0.0
  0
LINE
  5
3F34
330
1A
100
AcDbEntity
  8
ZUWAKU
100
AcDbLine
 10
29.84221216833714
 20
22.72499986828868
 30
0.0
 11
29.84221216833714
 21
7.674999868288687
 31
0.0
  0
LINE
  5
3F35
330
1A
100
AcDbEntity
  8
ZUWAKU
100
AcDbLine
 10
35.67634710565301
 20
22.88309383645566
 30
0.0
 11
33.80807723102123
 21
16.96690590012172
 31
0.0
  0
LINE
  5
3F36
330
1A
100
AcDbEntity
  8
ZUWAKU
100
AcDbLine
 10
60.29221216833719
 20
9.949999868288685
 30
0.0
 11
58.89221216833721
 21
9.949999868288685
 31
0.0
  0
LINE
  5
3F37
330
1A
100
AcDbEntity
  8
ZUWAKU
100
AcDbLine
 10
57.84221216833714
 20
7.149999868288688
 30
0.0
 11
61.34221216833714
 21
7.149999868288688
 31
0.0
  0
LINE
  5
3F38
330
1A
100
AcDbEntity
  8
ZUWAKU
100
AcDbLine
 10
41.21721216833714
 20
7.149999868288688
 30
0.0
 11
42.96721216833714
 21
7.149999868288688
 31
0.0
  0
LINE
  5
3F39
330
1A
100
AcDbEntity
  8
ZUWAKU
100
AcDbLine
 10
35.67634710565301
 20
7.516905900121714
 30
0.0
 11
33.80807723102123
 21
13.43309383645565
 31
0.0
  0
ARC
  5
3F3A
330
1A
100
AcDbEntity
  8
ZUWAKU
100
AcDbCircle
 10
33.30744633182587
 20
17.12499986828869
 30
0.0
 40
0.5249999999999999
100
AcDbArc
 50
270.0
 51
342.474431626277
  0
LINE
  5
3F3B
330
1A
100
AcDbEntity
  8
ZUWAKU
100
AcDbLine
 10
33.30744633182587
 20
16.59999986828868
 30
0.0
 11
33.16721216833719
 21
16.59999986828868
 31
0.0
  0
LINE
  5
3F3C
330
1A
100
AcDbEntity
  8
ZUWAKU
100
AcDbLine
 10
33.16721216833719
 20
13.79999986828869
 30
0.0
 11
33.30744633182587
 21
13.79999986828869
 31
0.0
  0
ARC
  5
3F3D
330
1A
100
AcDbEntity
  8
ZUWAKU
100
AcDbCircle
 10
33.16721216833719
 20
17.12499986828869
 30
0.0
 40
0.5249999999999999
100
AcDbArc
 50
180.0
 51
270.0
  0
LINE
  5
3F3E
330
1A
100
AcDbEntity
  8
ZUWAKU
100
AcDbLine
 10
30.36721216833712
 20
7.149999868288688
 30
0.0
 11
32.11721216833712
 21
7.149999868288688
 31
0.0
  0
ARC
  5
3F3F
330
1A
100
AcDbEntity
  8
ZUWAKU
100
AcDbCircle
 10
32.11721216833712
 20
7.674999868288687
 30
0.0
 40
0.5249999999999999
100
AcDbArc
 50
270.0
 51
0.0
  0
LINE
  5
3F40
330
1A
100
AcDbEntity
  8
ZUWAKU
100
AcDbLine
 10
32.64221216833721
 20
7.674999868288687
 30
0.0
 11
32.64221216833721
 21
13.27499986828869
 31
0.0
  0
LINE
  5
3F41
330
1A
100
AcDbEntity
  8
ZUWAKU
100
AcDbLine
 10
27.39221216833721
 20
9.424999868288687
 30
0.0
 11
27.39221216833721
 21
7.674999868288687
 31
0.0
  0
ARC
  5
3F42
330
1A
100
AcDbEntity
  8
ZUWAKU
100
AcDbCircle
 10
26.86721216833712
 20
7.674999868288687
 30
0.0
 40
0.5249999999999999
100
AcDbArc
 50
270.0
 51
0.0
  0
ARC
  5
3F43
330
1A
100
AcDbEntity
  8
ZUWAKU
100
AcDbCircle
 10
26.86721216833712
 20
9.424999868288687
 30
0.0
 40
0.5249999999999999
100
AcDbArc
 50
0.0
 51
90.0
  0
ARC
  5
3F44
330
1A
100
AcDbEntity
  8
ZUWAKU
100
AcDbCircle
 10
30.36721216833712
 20
7.674999868288687
 30
0.0
 40
0.5249999999999999
100
AcDbArc
 50
180.0
 51
270.0
  0
ARC
  5
3F45
330
1A
100
AcDbEntity
  8
ZUWAKU
100
AcDbCircle
 10
33.30744633182587
 20
13.27499986828869
 30
0.0
 40
0.5249999999999999
100
AcDbArc
 50
17.52556837372303
 51
90.0
  0
ARC
  5
3F46
330
1A
100
AcDbEntity
  8
ZUWAKU
100
AcDbCircle
 10
33.16721216833719
 20
13.27499986828869
 30
0.0
 40
0.5249999999999999
100
AcDbArc
 50
90.0
 51
180.0
  0
ARC
  5
3F47
330
1A
100
AcDbEntity
  8
ZUWAKU
100
AcDbCircle
 10
41.21721216833714
 20
7.674999868288687
 30
0.0
 40
0.5249999999999999
100
AcDbArc
 50
180.0
 51
270.0
  0
LINE
  5
3F48
330
1A
100
AcDbEntity
  8
ZUWAKU
100
AcDbLine
 10
36.17697800484848
 20
7.149999868288688
 30
0.0
 11
37.87586738445748
 21
7.149999868288688
 31
0.0
  0
ARC
  5
3F49
330
1A
100
AcDbEntity
  8
ZUWAKU
100
AcDbCircle
 10
37.87586738445748
 20
7.674999868288687
 30
0.0
 40
0.5249999999999999
100
AcDbArc
 50
270.0
 51
17.52556837372303
  0
LINE
  5
3F4A
330
1A
100
AcDbEntity
  8
ZUWAKU
100
AcDbLine
 10
38.37649828365295
 20
7.83309383645566
 30
0.0
 11
36.05010690517929
 21
15.19999986828871
 31
0.0
  0
ARC
  5
3F4B
330
1A
100
AcDbEntity
  8
ZUWAKU
100
AcDbCircle
 10
36.17697800484848
 20
7.674999868288687
 30
0.0
 40
0.5249999999999999
100
AcDbArc
 50
197.525568373723
 51
270.0
  0
ARC
  5
3F4C
330
1A
100
AcDbEntity
  8
ZUWAKU
100
AcDbCircle
 10
57.84221216833714
 20
9.949999868288685
 30
0.0
 40
2.8
100
AcDbArc
 50
180.0
 51
270.0
  0
ARC
  5
3F4D
330
1A
100
AcDbEntity
  8
ZUWAKU
100
AcDbCircle
 10
50.14221216833721
 20
9.949999868288685
 30
0.0
 40
2.8
100
AcDbArc
 50
270.0
 51
0.0
  0
LINE
  5
3F4E
330
1A
100
AcDbEntity
  8
ZUWAKU
100
AcDbLine
 10
51.71206064932073
 20
14.73505037462751
 30
0.0
 11
48.80226267467594
 21
17.64484834927219
 31
0.0
  0
LINE
  5
3F4F
330
1A
100
AcDbEntity
  8
ZUWAKU
100
AcDbLine
 10
50.14221216833721
 20
10.47499986828869
 30
0.0
 11
50.14221216833721
 21
11.76520189364403
 31
0.0
  0
ARC
  5
3F50
330
1A
100
AcDbEntity
  8
ZUWAKU
100
AcDbCircle
 10
48.74221216833712
 20
11.76520189364403
 30
0.0
 40
1.4
100
AcDbArc
 50
0.0
 51
45.0
  0
ARC
  5
3F51
330
1A
100
AcDbEntity
  8
ZUWAKU
100
AcDbCircle
 10
49.61721216833712
 20
10.47499986828869
 30
0.0
 40
0.5249999999999999
100
AcDbArc
 50
270.0
 51
0.0
  0
LINE
  5
3F52
330
1A
100
AcDbEntity
  8
ZUWAKU
100
AcDbLine
 10
46.11721216833712
 20
7.674999868288687
 30
0.0
 11
46.11721216833712
 21
9.424999868288687
 31
0.0
  0
ARC
  5
3F53
330
1A
100
AcDbEntity
  8
ZUWAKU
100
AcDbCircle
 10
46.64221216833721
 20
7.674999868288687
 30
0.0
 40
0.5249999999999999
100
AcDbArc
 50
180.0
 51
270.0
  0
ARC
  5
3F54
330
1A
100
AcDbEntity
  8
ZUWAKU
100
AcDbCircle
 10
42.96721216833714
 20
7.674999868288687
 30
0.0
 40
0.5249999999999999
100
AcDbArc
 50
270.0
 51
0.0
  0
ARC
  5
3F55
330
1A
100
AcDbEntity
  8
ZUWAKU
100
AcDbCircle
 10
46.64221216833721
 20
9.424999868288687
 30
0.0
 40
0.5249999999999999
100
AcDbArc
 50
90.0
 51
180.0
  0
LINE
  5
3F56
330
1A
100
AcDbEntity
  8
ZUWAKU
100
AcDbLine
 10
46.64221216833721
 20
9.949999868288685
 30
0.0
 11
49.61721216833712
 21
9.949999868288685
 31
0.0
  0
LINE
  5
3F57
330
1A
100
AcDbEntity
  8
ZUWAKU
100
AcDbLine
 10
46.64221216833721
 20
7.149999868288688
 30
0.0
 11
50.14221216833721
 21
7.149999868288688
 31
0.0
  0
LINE
  5
3F58
330
1A
100
AcDbEntity
  8
ZUWAKU
100
AcDbLine
 10
46.82236368735369
 20
15.66494936194987
 30
0.0
 11
49.73216166199836
 21
12.7551513873052
 31
0.0
  0
LINE
  5
3F59
330
1A
100
AcDbEntity
  8
ZUWAKU
100
AcDbLine
 10
52.94221216833716
 20
9.949999868288685
 30
0.0
 11
52.94221216833716
 21
11.76520189364403
 31
0.0
  0
ARC
  5
3F5A
330
1A
100
AcDbEntity
  8
ZUWAKU
100
AcDbCircle
 10
48.74221216833712
 20
11.76520189364399
 30
0.0
 40
4.199999999999999
100
AcDbArc
 50
0.0
 51
45.0
  0
ARC
  5
3F5B
330
1A
100
AcDbEntity
  8
ZUWAKU
100
AcDbCircle
 10
58.89221216833721
 20
10.99999986828868
 30
0.0
 40
1.05
100
AcDbArc
 50
180.0
 51
270.0
  0
ARC
  5
3F5C
330
1A
100
AcDbEntity
  8
ZUWAKU
100
AcDbCircle
 10
61.34221216833714
 20
9.949999868288685
 30
0.0
 40
2.8
100
AcDbArc
 50
270.0
 51
0.0
  0
LINE
  5
3F5D
330
1A
100
AcDbEntity
  8
ZUWAKU
100
AcDbLine
 10
66.76721216833721
 20
7.149999868288688
 30
0.0
 11
68.51721216833721
 21
7.149999868288688
 31
0.0
  0
ARC
  5
3F5E
330
1A
100
AcDbEntity
  8
ZUWAKU
100
AcDbCircle
 10
66.76721216833721
 20
7.674999868288687
 30
0.0
 40
0.5249999999999999
100
AcDbArc
 50
180.0
 51
270.0
  0
ARC
  5
3F5F
330
1A
100
AcDbEntity
  8
ZUWAKU
100
AcDbCircle
 10
60.29221216833719
 20
10.99999986828868
 30
0.0
 40
1.05
100
AcDbArc
 50
270.0
 51
0.0
  0
ARC
  5
3F60
330
1A
100
AcDbEntity
  8
ZUWAKU
100
AcDbCircle
 10
68.51721216833721
 20
7.674999868288687
 30
0.0
 40
0.5249999999999999
100
AcDbArc
 50
270.0
 51
0.0
  0
LINE
  5
3F61
330
1A
100
AcDbEntity
  8
ZUWAKU
100
AcDbLine
 10
42.96721216833714
 20
23.24999986828869
 30
0.0
 11
41.21721216833714
 21
23.24999986828869
 31
0.0
  0
ARC
  5
3F62
330
1A
100
AcDbEntity
  8
ZUWAKU
100
AcDbCircle
 10
32.11721216833712
 20
22.72499986828868
 30
0.0
 40
0.5249999999999999
100
AcDbArc
 50
0.0
 51
90.0
  0
LINE
  5
3F63
330
1A
100
AcDbEntity
  8
ZUWAKU
100
AcDbLine
 10
32.11721216833712
 20
23.24999986828869
 30
0.0
 11
30.36721216833712
 21
23.24999986828869
 31
0.0
  0
ARC
  5
3F64
330
1A
100
AcDbEntity
  8
ZUWAKU
100
AcDbCircle
 10
26.86721216833712
 20
22.72499986828868
 30
0.0
 40
0.5249999999999999
100
AcDbArc
 50
0.0
 51
90.0
  0
ARC
  5
3F65
330
1A
100
AcDbEntity
  8
ZUWAKU
100
AcDbCircle
 10
30.36721216833712
 20
22.72499986828868
 30
0.0
 40
0.5249999999999999
100
AcDbArc
 50
90.0
 51
180.0
  0
ARC
  5
3F66
330
1A
100
AcDbEntity
  8
ZUWAKU
100
AcDbCircle
 10
26.86721216833712
 20
20.97499986828868
 30
0.0
 40
0.5249999999999999
100
AcDbArc
 50
270.0
 51
0.0
  0
LINE
  5
3F67
330
1A
100
AcDbEntity
  8
ZUWAKU
100
AcDbLine
 10
27.39221216833721
 20
22.72499986828868
 30
0.0
 11
27.39221216833721
 21
20.97499986828868
 31
0.0
  0
ARC
  5
3F68
330
1A
100
AcDbEntity
  8
ZUWAKU
100
AcDbCircle
 10
41.21721216833714
 20
22.72499986828868
 30
0.0
 40
0.5249999999999999
100
AcDbArc
 50
90.0
 51
180.0
  0
LINE
  5
3F69
330
1A
100
AcDbEntity
  8
ZUWAKU
100
AcDbLine
 10
36.17697800484848
 20
23.24999986828869
 30
0.0
 11
37.87586738445748
 21
23.24999986828869
 31
0.0
  0
ARC
  5
3F6A
330
1A
100
AcDbEntity
  8
ZUWAKU
100
AcDbCircle
 10
37.87586738445748
 20
22.72499986828868
 30
0.0
 40
0.5249999999999999
100
AcDbArc
 50
342.474431626277
 51
90.0
  0
LINE
  5
3F6B
330
1A
100
AcDbEntity
  8
ZUWAKU
100
AcDbLine
 10
38.37649828365295
 20
22.56690590012172
 30
0.0
 11
37.31485865051513
 21
19.20504706185211
 31
0.0
  0
ARC
  5
3F6C
330
1A
100
AcDbEntity
  8
ZUWAKU
100
AcDbCircle
 10
36.17697800484848
 20
22.72499986828868
 30
0.0
 40
0.5249999999999999
100
AcDbArc
 50
90.0
 51
162.474431626277
  0
LINE
  5
3F6D
330
1A
100
AcDbEntity
  8
ZUWAKU
100
AcDbLine
 10
48.39221216833721
 20
23.24999986828869
 30
0.0
 11
51.89221216833721
 21
23.24999986828869
 31
0.0
  0
LINE
  5
3F6E
330
1A
100
AcDbEntity
  8
ZUWAKU
100
AcDbLine
 10
51.89221216833721
 20
20.44999986828869
 30
0.0
 11
48.91721216833719
 21
20.44999986828869
 31
0.0
  0
ARC
  5
3F6F
330
1A
100
AcDbEntity
  8
ZUWAKU
100
AcDbCircle
 10
48.91721216833719
 20
19.92499986828869
 30
0.0
 40
0.5249999999999999
100
AcDbArc
 50
90.0
 51
180.0
  0
LINE
  5
3F70
330
1A
100
AcDbEntity
  8
ZUWAKU
100
AcDbLine
 10
48.39221216833721
 20
19.92499986828869
 30
0.0
 11
48.39221216833721
 21
18.63479784293335
 31
0.0
  0
ARC
  5
3F71
330
1A
100
AcDbEntity
  8
ZUWAKU
100
AcDbCircle
 10
42.96721216833714
 20
22.72499986828868
 30
0.0
 40
0.5249999999999999
100
AcDbArc
 50
0.0
 51
90.0
  0
LINE
  5
3F72
330
1A
100
AcDbEntity
  8
ZUWAKU
100
AcDbLine
 10
45.59221216833714
 20
20.44999986828869
 30
0.0
 11
45.59221216833714
 21
18.63479784293335
 31
0.0
  0
ARC
  5
3F73
330
1A
100
AcDbEntity
  8
ZUWAKU
100
AcDbCircle
 10
48.39221216833721
 20
20.44999986828869
 30
0.0
 40
2.8
100
AcDbArc
 50
90.0
 51
180.0
  0
ARC
  5
3F74
330
1A
100
AcDbEntity
  8
ZUWAKU
100
AcDbCircle
 10
57.31721216833716
 20
22.72499986828868
 30
0.0
 40
0.5249999999999999
100
AcDbArc
 50
0.0
 51
90.0
  0
ARC
  5
3F75
330
1A
100
AcDbEntity
  8
ZUWAKU
100
AcDbCircle
 10
55.56721216833716
 20
22.72499986828868
 30
0.0
 40
0.5249999999999999
100
AcDbArc
 50
90.0
 51
180.0
  0
LINE
  5
3F76
330
1A
100
AcDbEntity
  8
ZUWAKU
100
AcDbLine
 10
57.31721216833716
 20
23.24999986828869
 30
0.0
 11
55.56721216833716
 21
23.24999986828869
 31
0.0
  0
ARC
  5
3F77
330
1A
100
AcDbEntity
  8
ZUWAKU
100
AcDbCircle
 10
51.89221216833721
 20
22.72499986828868
 30
0.0
 40
0.5249999999999999
100
AcDbArc
 50
0.0
 51
90.0
  0
ARC
  5
3F78
330
1A
100
AcDbEntity
  8
ZUWAKU
100
AcDbCircle
 10
51.89221216833721
 20
20.97499986828868
 30
0.0
 40
0.5249999999999999
100
AcDbArc
 50
270.0
 51
0.0
  0
LINE
  5
3F79
330
1A
100
AcDbEntity
  8
ZUWAKU
100
AcDbLine
 10
52.41721216833719
 20
22.72499986828868
 30
0.0
 11
52.41721216833719
 21
20.97499986828868
 31
0.0
  0
LINE
  5
3F7A
330
1A
100
AcDbEntity
  8
ZUWAKU
100
AcDbLine
 10
68.51721216833721
 20
23.24999986828869
 30
0.0
 11
66.76721216833721
 21
23.24999986828869
 31
0.0
  0
ARC
  5
3F7B
330
1A
100
AcDbEntity
  8
ZUWAKU
100
AcDbCircle
 10
66.76721216833721
 20
22.72499986828868
 30
0.0
 40
0.5249999999999999
100
AcDbArc
 50
90.0
 51
180.0
  0
ARC
  5
3F7C
330
1A
100
AcDbEntity
  8
ZUWAKU
100
AcDbCircle
 10
63.61721216833712
 20
22.72499986828868
 30
0.0
 40
0.5249999999999999
100
AcDbArc
 50
0.0
 51
90.0
  0
LINE
  5
3F7D
330
1A
100
AcDbEntity
  8
ZUWAKU
100
AcDbLine
 10
63.61721216833712
 20
23.24999986828869
 30
0.0
 11
61.86721216833712
 21
23.24999986828869
 31
0.0
  0
ARC
  5
3F7E
330
1A
100
AcDbEntity
  8
ZUWAKU
100
AcDbCircle
 10
61.86721216833712
 20
22.72499986828868
 30
0.0
 40
0.5249999999999999
100
AcDbArc
 50
90.0
 51
180.0
  0
ARC
  5
3F7F
330
1A
100
AcDbEntity
  8
ZUWAKU
100
AcDbCircle
 10
68.51721216833721
 20
22.72499986828868
 30
0.0
 40
0.5249999999999999
100
AcDbArc
 50
0.0
 51
90.0
  0
TEXT
  5
3F80
330
1A
100
AcDbEntity
  8
moji
100
AcDbText
 10
239.8272026944071
 20
18.00492092569607
 30
0.0
 40
5.6
  1
ステンレス金具正面打（吊）自在式
 41
0.9
  7
ｽﾀｲﾙ1
100
AcDbText
  0
TEXT
  5
3F81
330
1A
100
AcDbEntity
  8
moji
100
AcDbText
 10
239.8272026944071
 20
3.204920925696104
 30
0.0
 40
5.6
  1
Σ９０－０－１０～４５
 41
0.9
  7
ｽﾀｲﾙ1
100
AcDbText
  0
LINE
  5
3F82
330
1A
100
AcDbEntity
  8
ZUWAKU
100
AcDbLine
 10
208.246601303624
 20
29.99999986828868
 30
0.0
 11
208.246601303624
 21
0.7999998682887508
 31
0.0
  0
LINE
  5
3F83
330
1A
100
AcDbEntity
  8
ZUWAKU
100
AcDbLine
 10
208.6466013036238
 20
29.99999986828868
 30
0.0
 11
208.646601303624
 21
0.7999998682887508
 31
0.0
  0
LINE
  5
3F84
330
1A
100
AcDbEntity
  8
ZUWAKU
100
AcDbLine
 10
208.4466013036238
 20
29.99999986828868
 30
0.0
 11
208.446601303624
 21
0.7999998682887508
 31
0.0
  0
TEXT
  5
3F85
330
1A
100
AcDbEntity
  8
ZUWAKU
100
AcDbText
 10
209.7240463258336
 20
9.655356406674301
 30
0.0
 40
4.0
  1
サイズ
 41
0.9
  7
ｽﾀｲﾙ1
100
AcDbText
  0
TEXT
  5
3F86
330
1A
100
AcDbEntity
  8
ZUWAKU
100
AcDbText
 10
209.7240463258333
 20
24.05535640667426
 30
0.0
 40
4.0
  1
品名
 41
0.9
  7
ｽﾀｲﾙ1
100
AcDbText
  0
LINE
  5
3F87
330
1A
100
AcDbEntity
  8
ZUWAKU
100
AcDbLine
 10
648.8172025237602
 20
15.19999986828871
 30
0.0
 11
697.2490105620973
 21
15.19999986828872
 31
0.0
  0
LINE
  5
3F88
330
1A
100
AcDbEntity
  8
ZUWAKU
100
AcDbLine
 10
648.8172025237604
 20
15.39999986828872
 30
0.0
 11
697.2490105620973
 21
15.39999986828872
 31
0.0
  0
LINE
  5
3F89
330
1A
100
AcDbEntity
  8
ZUWAKU
100
AcDbLine
 10
648.8172025237602
 20
15.59999986828872
 30
0.0
 11
697.2490105620973
 21
15.59999986828872
 31
0.0
  0
TEXT
  5
3F8A
330
1A
100
AcDbEntity
  8
ZUWAKU
100
AcDbText
 10
658.2039377008584
 20
18.00492092569607
 30
0.0
 40
5.6
  1
　　．　　．　　
 41
0.9
  7
ｽﾀｲﾙ1
100
AcDbText
  0
LINE
  5
3F8B
330
1A
100
AcDbEntity
  8
ZUWAKU
100
AcDbLine
 10
505.1991795116969
 20
15.19999986828872
 30
0.0
 11
552.5269557796685
 21
15.19999986828872
 31
0.0
  0
LINE
  5
3F8C
330
1A
100
AcDbEntity
  8
ZUWAKU
100
AcDbLine
 10
505.1991795116969
 20
15.39999986828872
 30
0.0
 11
552.5269557796685
 21
15.39999986828872
 31
0.0
  0
LINE
  5
3F8D
330
1A
100
AcDbEntity
  8
ZUWAKU
100
AcDbLine
 10
505.1991795116969
 20
15.59999986828872
 30
0.0
 11
552.5269557796685
 21
15.59999986828872
 31
0.0
  0
TEXT
  5
3F8E
330
1A
100
AcDbEntity
  8
moji
100
AcDbText
 10
463.2464320045581
 20
11.94261758994867
 30
0.0
 40
5.6
  1
ＬＧ１６Ｇ
 41
0.9
  7
ｽﾀｲﾙ1
100
AcDbText
  0
LINE
  5
3F8F
330
1A
100
AcDbEntity
  8
ZUWAKU
100
AcDbLine
 10
447.6243639845472
 20
29.99999986828868
 30
0.0
 11
447.6243639845475
 21
0.7999998682887508
 31
0.0
  0
LINE
  5
3F90
330
1A
100
AcDbEntity
  8
ZUWAKU
100
AcDbLine
 10
447.8243639845473
 20
29.99999986828868
 30
0.0
 11
447.8243639845475
 21
0.7999998682887508
 31
0.0
  0
LINE
  5
3F91
330
1A
100
AcDbEntity
  8
ZUWAKU
100
AcDbLine
 10
447.4243639845474
 20
29.99999986828868
 30
0.0
 11
447.4243639845474
 21
0.7999998682887508
 31
0.0
  0
TEXT
  5
3F92
330
1A
100
AcDbEntity
  8
moji
100
AcDbText
 10
528.0409079858689
 20
18.00492092569607
 30
0.0
 40
5.6
  1
Ａ３
 41
0.9
  7
ｽﾀｲﾙ1
100
AcDbText
  0
LINE
  5
3F93
330
1A
100
AcDbEntity
  8
ZUWAKU
100
AcDbLine
 10
504.9991795116969
 20
29.99999986828868
 30
0.0
 11
504.9991795116971
 21
0.7999998682887508
 31
0.0
  0
LINE
  5
3F94
330
1A
100
AcDbEntity
  8
ZUWAKU
100
AcDbLine
 10
505.1991795116969
 20
29.99999986828868
 30
0.0
 11
505.1991795116971
 21
0.7999998682887508
 31
0.0
  0
LINE
  5
3F95
330
1A
100
AcDbEntity
  8
ZUWAKU
100
AcDbLine
 10
504.7991795116971
 20
29.99999986828868
 30
0.0
 11
504.7991795116971
 21
0.7999998682887508
 31
0.0
  0
TEXT
  5
3F97
330
1A
100
AcDbEntity
  8
ZUWAKU
100
AcDbText
 10
506.6766245339068
 20
9.655356406674301
 30
0.0
 40
4.0
  1
縮尺
 41
0.9
  7
ｽﾀｲﾙ1
100
AcDbText
  0
TEXT
  5
3F98
330
1A
100
AcDbEntity
  8
moji
100
AcDbText
 10
528.0409079858689
 20
3.204920925696104
 30
0.0
 40
5.6
  1
１/２
 41
0.9
  7
ｽﾀｲﾙ1
100
AcDbText
  0
TEXT
  5
3F99
330
1A
100
AcDbEntity
  8
ZUWAKU
100
AcDbText
 10
449.3018090067569
 20
24.05535640667426
 30
0.0
 40
4.0
  1
品番
 41
0.9
  7
ｽﾀｲﾙ1
100
AcDbText
  0
TEXT
  5
3F9A
330
1A
100
AcDbEntity
  8
ZUWAKU
100
AcDbText
 10
506.6766245339065
 20
24.05535640667426
 30
0.0
 40
4.0
  1
用紙
 41
0.9
  7
ｽﾀｲﾙ1
100
AcDbText
  0
LINE
  5
3F9B
330
1A
100
AcDbEntity
  8
ZUWAKU
100
AcDbLine
 10
648.6172025237604
 20
29.99999986828868
 30
0.0
 11
648.6172025237606
 21
0.7999998682887508
 31
0.0
  0
LINE
  5
3F9C
330
1A
100
AcDbEntity
  8
ZUWAKU
100
AcDbLine
 10
648.8172025237604
 20
29.99999986828868
 30
0.0
 11
648.8172025237607
 21
0.7999998682887508
 31
0.0
  0
LINE
  5
3F9D
330
1A
100
AcDbEntity
  8
ZUWAKU
100
AcDbLine
 10
648.4172025237606
 20
29.99999986828868
 30
0.0
 11
648.4172025237606
 21
0.7999998682887508
 31
0.0
  0
LINE
  5
3F9E
330
1A
100
AcDbEntity
  8
ZUWAKU
100
AcDbLine
 10
552.7269557796683
 20
29.99999986828868
 30
0.0
 11
552.7269557796685
 21
0.7999998682887508
 31
0.0
  0
LINE
  5
3F9F
330
1A
100
AcDbEntity
  8
ZUWAKU
100
AcDbLine
 10
552.9269557796683
 20
29.99999986828868
 30
0.0
 11
552.9269557796686
 21
0.7999998682887508
 31
0.0
  0
LINE
  5
3FA0
330
1A
100
AcDbEntity
  8
ZUWAKU
100
AcDbLine
 10
552.5269557796685
 20
29.99999986828868
 30
0.0
 11
552.5269557796685
 21
0.7999998682887508
 31
0.0
  0
TEXT
  5
3FA1
330
1A
100
AcDbEntity
  8
ZUWAKU
100
AcDbText
 10
650.2946475459701
 20
24.05535640667426
 30
0.0
 40
4.0
  1
DATE
 41
0.9
  7
ｽﾀｲﾙ1
100
AcDbText
  0
LINE
  5
3FA2
330
1A
100
AcDbEntity
  8
ZUWAKU
100
AcDbLine
 10
697.2490105620973
 20
29.99999986828868
 30
0.0
 11
697.2490105620973
 21
0.7999998682887508
 31
0.0
  0
LINE
  5
3FA3
330
1A
100
AcDbEntity
  8
ZUWAKU
100
AcDbLine
 10
697.4490105620973
 20
29.99999986828868
 30
0.0
 11
697.4490105620973
 21
0.7999998682887508
 31
0.0
  0
LINE
  5
3FA4
330
1A
100
AcDbEntity
  8
ZUWAKU
100
AcDbLine
 10
697.6490105620972
 20
29.99999986828868
 30
0.0
 11
697.6490105620974
 21
0.7999998682887508
 31
0.0
  0
LINE
  5
3FA5
330
1A
100
AcDbEntity
  8
ZUWAKU
100
AcDbLine
 10
697.8490105620972
 20
29.99999986828868
 30
0.0
 11
697.8490105620974
 21
0.7999998682887508
 31
0.0
  0
TEXT
  5
3FA6
330
1A
100
AcDbEntity
  8
ZUWAKU
100
AcDbText
 10
708.5280842057998
 20
17.55383920397549
 30
0.0
 40
6.0
  1
積水化学工業株式会社
 41
0.9
  7
ｽﾀｲﾙ1
100
AcDbText
  0
TEXT
  5
3FA7
330
1A
100
AcDbEntity
  8
ZUWAKU
100
AcDbText
 10
708.5280842057998
 20
6.648840182142749
 30
0.0
 40
6.0
  1
建材事業部
 41
0.9
  7
ｽﾀｲﾙ1
100
AcDbText
  0
LINE
  5
4563
330
1A
100
AcDbEntity
  8
CENTER L
  6
CENTER
 62
     1
 48
5.0
100
AcDbLine
 10
408.5875109429258
 20
232.6831498672201
 30
0.0
 11
423.4143109429257
 21
232.6830498672202
 31
0.0
  0
LINE
  5
4564
330
1A
100
AcDbEntity
  8
CENTER L
  6
CENTER
 62
     1
 48
5.0
100
AcDbLine
 10
408.5875109429258
 20
238.6832498672202
 30
0.0
 11
423.4143109429257
 21
238.6831498672201
 31
0.0
  0
LINE
  5
4565
330
1A
100
AcDbEntity
  8
CENTER L
  6
CENTER
 62
     1
 48
5.0
100
AcDbLine
 10
408.5874109429257
 20
204.6826498672202
 30
0.0
 11
423.4143109429257
 21
204.6826498672202
 31
0.0
  0
TEXT
  5
4566
330
1A
100
AcDbEntity
  8
SUNPOU
 48
5.0
100
AcDbText
 10
408.1882043958267
 20
318.8729729536169
 30
0.0
 40
6.0
  1
スライド巾
100
AcDbText
  0
DIMENSION
  5
4567
330
1A
100
AcDbEntity
  8
SUNPOU
 48
5.0
100
AcDbDimension
  2
*D1
 10
380.8953109429256
 20
165.323614243277
 30
0.0
 11
404.8953109429256
 21
170.323614243277
 31
0.0
 70
    32
  1
t<>
 71
     5
 42
1.199999999999818
  3
STANDARD
100
AcDbAlignedDimension
 13
379.6953109429257
 23
197.1826498672202
 33
0.0
 14
380.8953109429256
 24
197.1826498672202
 34
0.0
100
AcDbRotatedDimension
1001
ACAD
1000
DSTYLE
1002
{
1070
   140
1040
6.0
1070
    74
1070
     0
1070
   172
1070
     1
1070
    73
1070
     0
1070
   272
1070
     2
1070
    77
1070
     3
1070
   173
1070
     1
1070
   147
1040
2.0
1070
    42
1040
6.0
1070
    44
1040
3.0
1070
    43
1040
14.0
1070
   271
1070
     1
1070
   178
1070
     4
1070
   177
1070
     4
1070
   176
1070
     4
1070
   141
1040
150.0
1070
     7
1000
_OPEN
1070
     6
1000
_OPEN
1070
    41
1040
7.0
1002
}
  0
DIMENSION
  5
4568
330
1A
100
AcDbEntity
  8
SUNPOU
 48
5.0
100
AcDbDimension
  2
*D2
 10
415.8953131809504
 20
308.4119905675311
 30
0.0
 11
398.3953131810009
 21
313.4119905675311
 31
0.0
 70
    32
 71
     5
 42
34.9999999998991
  3
STANDARD
100
AcDbAlignedDimension
 13
380.8953131810513
 23
257.3609285746078
 33
0.0
 14
415.8953131809504
 24
257.3608691122831
 34
0.0
100
AcDbRotatedDimension
1001
ACAD
1000
DSTYLE
1002
{
1070
   140
1040
6.0
1070
    74
1070
     0
1070
   172
1070
     1
1070
    73
1070
     0
1070
   272
1070
     2
1070
    77
1070
     3
1070
   173
1070
     1
1070
   147
1040
2.0
1070
    42
1040
6.0
1070
    44
1040
3.0
1070
    43
1040
14.0
1070
   271
1070
     0
1070
   178
1070
     4
1070
   177
1070
     4
1070
   176
1070
     4
1070
   141
1040
150.0
1070
     7
1000
_OPEN
1070
     6
1000
_OPEN
1070
    41
1040
7.0
1002
}
  0
DIMENSION
  5
4569
330
1A
100
AcDbEntity
  8
SUNPOU
 48
5.0
100
AcDbDimension
  2
*D3
 10
415.6032603654426
 20
355.8940498672201
 30
0.0
 11
410.6032603654425
 21
383.3940498672203
 31
0.0
 70
    32
 71
     5
 42
55.00000000000006
  3
STANDARD
100
AcDbAlignedDimension
 13
380.8953109429256
 23
410.8940498672202
 33
0.0
 14
380.8953109429256
 24
355.8940498672201
 34
0.0
 50
90.0
100
AcDbRotatedDimension
1001
ACAD
1000
DSTYLE
1002
{
1070
   140
1040
6.0
1070
    74
1070
     0
1070
   172
1070
     1
1070
    73
1070
     0
1070
   272
1070
     2
1070
    77
1070
     3
1070
   173
1070
     1
1070
   147
1040
2.0
1070
    42
1040
6.0
1070
    44
1040
3.0
1070
    43
1040
14.0
1070
   271
1070
     0
1070
   178
1070
     4
1070
   177
1070
     4
1070
   176
1070
     4
1070
   141
1040
150.0
1070
     7
1000
_OPEN
1070
     6
1000
_OPEN
1070
    41
1040
7.0
1002
}
  0
ARC
  5
456A
330
1A
100
AcDbEntity
  8
SEIHIN
  6
PHANTOM
 62
     6
 48
5.0
100
AcDbCircle
 10
408.8953418394434
 20
256.0435215554337
 30
0.0
 40
6.999969103849444
100
AcDbArc
 50
359.9994132213986
 51
95.00035651077674
  0
DIMENSION
  5
456B
330
1A
100
AcDbEntity
  8
SUNPOU
100
AcDbDimension
  2
*D4
 10
380.8953109427999
 20
293.7458769825223
 30
0.0
 11
331.2680109428628
 21
298.7458769825223
 31
0.0
 70
    32
 71
     5
 42
99.25459999987413
  3
STANDARD
100
AcDbAlignedDimension
 13
281.6407109429258
 23
228.0611498672202
 33
0.0
 14
380.8953109427999
 24
256.043475945553
 34
0.0
100
AcDbRotatedDimension
1001
ACAD
1000
DSTYLE
1002
{
1070
   140
1040
6.0
1070
    74
1070
     0
1070
   172
1070
     1
1070
    73
1070
     0
1070
   272
1070
     2
1070
    77
1070
     3
1070
   173
1070
     1
1070
   147
1040
2.0
1070
    42
1040
6.0
1070
    44
1040
3.0
1070
    43
1040
14.0
1070
   271
1070
     0
1070
   178
1070
     4
1070
   177
1070
     4
1070
   176
1070
     4
1070
   141
1040
150.0
1070
     7
1000
_OPEN
1070
     6
1000
_OPEN
1070
    41
1040
7.0
1002
}
  0
DIMENSION
  5
456C
330
1A
100
AcDbEntity
  8
SUNPOU
 48
5.0
100
AcDbDimension
  2
*D5
 10
380.8953131810513
 20
308.4119905675311
 30
0.0
 11
315.7680120619885
 21
313.4119905675311
 31
0.0
 70
    32
 71
     5
 42
130.2546022381257
  3
STANDARD
100
AcDbAlignedDimension
 13
250.6407109429256
 23
257.3611498672202
 33
0.0
 14
380.8953131810513
 24
257.3609285746078
 34
0.0
100
AcDbRotatedDimension
1001
ACAD
1000
DSTYLE
1002
{
1070
   140
1040
6.0
1070
    74
1070
     0
1070
   172
1070
     1
1070
    73
1070
     0
1070
   272
1070
     2
1070
    77
1070
     3
1070
   173
1070
     1
1070
   147
1040
2.0
1070
    42
1040
6.0
1070
    44
1040
3.0
1070
    43
1040
14.0
1070
   271
1070
     0
1070
   178
1070
     4
1070
   177
1070
     4
1070
   176
1070
     4
1070
   141
1040
150.0
1070
     7
1000
_OPEN
1070
     6
1000
_OPEN
1070
    41
1040
7.0
1002
}
  0
DIMENSION
  5
456D
330
1A
100
AcDbEntity
  8
SUNPOU
 48
5.0
100
AcDbDimension
  2
*D6
 10
222.8250674781912
 20
197.1826498672202
 30
0.0
 11
217.8250674781911
 21
227.2718998672202
 31
0.0
 70
    32
 71
     5
 42
60.17849999999996
  3
STANDARD
100
AcDbAlignedDimension
 13
250.6407109429256
 23
257.3611498672202
 33
0.0
 14
379.6953109429257
 24
197.1826498672202
 34
0.0
 50
90.0
100
AcDbRotatedDimension
1001
ACAD
1000
DSTYLE
1002
{
1070
   140
1040
6.0
1070
    74
1070
     0
1070
   172
1070
     1
1070
    73
1070
     0
1070
   272
1070
     2
1070
    77
1070
     3
1070
   173
1070
     1
1070
   147
1040
2.0
1070
    42
1040
6.0
1070
    44
1040
3.0
1070
    43
1040
14.0
1070
   271
1070
     0
1070
   178
1070
     4
1070
   177
1070
     4
1070
   176
1070
     4
1070
   141
1040
150.0
1070
     7
1000
_OPEN
1070
     6
1000
_OPEN
1070
    41
1040
7.0
1002
}
  0
LINE
  5
456E
330
1A
100
AcDbEntity
  8
SEIHIN
  6
Continuous
 62
     3
 48
5.0
100
AcDbLine
 10
281.6407109429258
 20
228.0611498672202
 30
0.0
 11
299.6407109429258
 21
228.0611498672202
 31
0.0
  0
LINE
  5
456F
330
1A
100
AcDbEntity
  8
SEIHIN
  6
Continuous
 62
     3
 48
5.0
100
AcDbLine
 10
299.6407109429258
 20
221.0611498672202
 30
0.0
 11
281.6407109429258
 21
221.0611498672202
 31
0.0
  0
LINE
  5
4570
330
1A
100
AcDbEntity
  8
SEIHIN
  6
Continuous
 62
     3
 48
5.0
100
AcDbLine
 10
273.4755109429257
 20
220.8611498672201
 30
0.0
 11
360.1408109429256
 21
220.8611498672201
 31
0.0
  0
LINE
  5
4571
330
1A
100
AcDbEntity
  8
SEIHIN
  6
Continuous
 62
     3
 48
5.0
100
AcDbLine
 10
360.1408109429256
 20
220.4611498672201
 30
0.0
 11
277.1407109429258
 21
220.4611498672201
 31
0.0
  0
LINE
  5
4572
330
1A
100
AcDbEntity
  8
SEIHIN
  6
Continuous
 62
     3
 48
5.0
100
AcDbLine
 10
279.9610109429257
 20
211.2070498672202
 30
0.0
 11
284.4352109429257
 21
208.6238498672201
 31
0.0
  0
LINE
  5
4573
330
1A
100
AcDbEntity
  8
SEIHIN
  6
Continuous
 62
     3
 48
5.0
100
AcDbLine
 10
283.9352109429257
 20
207.7578498672201
 30
0.0
 11
279.4610109429257
 21
210.3410498672202
 31
0.0
  0
LINE
  5
4574
330
1A
100
AcDbEntity
  8
SEIHIN
  6
Continuous
 62
     3
 48
5.0
100
AcDbLine
 10
279.8933109429257
 20
212.0261498672201
 30
0.0
 11
284.7703109429257
 21
216.0387498672202
 31
0.0
  0
LINE
  5
4575
330
1A
100
AcDbEntity
  8
SEIHIN
  6
Continuous
 62
     3
 48
5.0
100
AcDbLine
 10
286.1405109429257
 20
218.4610498672201
 30
0.0
 11
279.2580109429258
 21
212.7983498672201
 31
0.0
  0
LINE
  5
4576
330
1A
100
AcDbEntity
  8
SEIHIN
  6
Continuous
 62
     3
 48
5.0
100
AcDbLine
 10
269.1219109429257
 20
245.9353498672201
 30
0.0
 11
273.4470109429257
 21
229.8240498672201
 31
0.0
  0
LINE
  5
4577
330
1A
100
AcDbEntity
  8
SEIHIN
  6
Continuous
 62
     3
 48
5.0
100
AcDbLine
 10
262.6350109429257
 20
246.9575498672202
 30
0.0
 11
268.6465109429258
 21
224.5647498672201
 31
0.0
  0
ARC
  5
4578
330
1A
100
AcDbEntity
  8
SEIHIN
  6
Continuous
 62
     3
 48
5.0
100
AcDbCircle
 10
280.2110100661219
 20
211.6400604772072
 30
0.0
 40
0.4999977499551115
100
AcDbArc
 50
129.4497400827785
 51
239.9999671558235
  0
ARC
  5
4579
330
1A
100
AcDbEntity
  8
SEIHIN
  6
Continuous
 62
     3
 48
5.0
100
AcDbCircle
 10
280.2110114957263
 20
211.6400431758184
 30
0.0
 40
1.499961481166777
100
AcDbArc
 50
129.4459494218617
 51
239.9991261298904
  0
ARC
  5
457A
330
1A
100
AcDbEntity
  8
SEIHIN
  6
Continuous
 62
     3
 48
5.0
100
AcDbCircle
 10
277.3102198540346
 20
230.8611430328334
 30
0.0
 40
3.999993165623216
100
AcDbArc
 50
195.0269724869069
 51
269.9998723575488
  0
ARC
  5
457B
330
1A
100
AcDbEntity
  8
SEIHIN
  6
Continuous
 62
     3
 48
5.0
100
AcDbCircle
 10
273.4755178560531
 20
225.8611445652144
 30
0.0
 40
4.999994697999124
100
AcDbArc
 50
195.0272975935205
 51
269.9999207813112
  0
LINE
  5
457C
330
1A
100
AcDbEntity
  8
SEIHIN
  6
Continuous
 62
     3
 48
5.0
100
AcDbLine
 10
281.6407109429258
 20
221.0611498672202
 30
0.0
 11
281.6407109429258
 21
228.0611498672202
 31
0.0
  0
LINE
  5
457D
330
1A
100
AcDbEntity
  8
SEIHIN
  6
Continuous
 62
     3
 48
5.0
100
AcDbLine
 10
277.1407109429258
 20
220.8611498672201
 30
0.0
 11
277.1407109429258
 21
220.4611498672201
 31
0.0
  0
LINE
  5
457E
330
1A
100
AcDbEntity
  8
SEIHIN
  6
Continuous
 62
     3
 48
5.0
100
AcDbLine
 10
277.3102109429257
 20
226.8611498672201
 30
0.0
 11
281.6407109429258
 21
226.8611498672201
 31
0.0
  0
LINE
  5
457F
330
1A
100
AcDbEntity
  8
SEIHIN
  6
Continuous
 62
     3
 48
5.0
100
AcDbLine
 10
251.8407109429257
 20
257.3611498672202
 30
0.0
 11
251.8407109429257
 21
252.3611498672201
 31
0.0
  0
LINE
  5
4580
330
1A
100
AcDbEntity
  8
SEIHIN
  6
Continuous
 62
     3
 48
5.0
100
AcDbLine
 10
250.6407109429256
 20
257.3611498672202
 30
0.0
 11
250.6407109429256
 21
252.3611498672201
 31
0.0
  0
ARC
  5
4581
330
1A
100
AcDbEntity
  8
SEIHIN
  6
Continuous
 62
     3
 48
5.0
100
AcDbCircle
 10
261.395393120708
 20
243.8611635359935
 30
0.0
 40
7.999986331246408
100
AcDbArc
 50
15.02697248690687
 51
89.99987235755043
  0
LINE
  5
4582
330
1A
100
AcDbEntity
  8
SEIHIN
  6
Continuous
 62
     3
 48
5.0
100
AcDbLine
 10
252.3407109429257
 20
250.6611498672201
 30
0.0
 11
257.8060109429256
 21
250.6611498672201
 31
0.0
  0
LINE
  5
4583
330
1A
100
AcDbEntity
  8
SEIHIN
  6
Continuous
 62
     3
 48
5.0
100
AcDbLine
 10
252.3407109429257
 20
251.8611498672201
 30
0.0
 11
261.3954109429257
 21
251.8611498672201
 31
0.0
  0
ARC
  5
4584
330
1A
100
AcDbEntity
  8
SEIHIN
  6
Continuous
 62
     3
 48
5.0
100
AcDbCircle
 10
252.3407109429257
 20
252.3611498672201
 30
0.0
 40
0.5000000000000426
100
AcDbArc
 50
180.0000000000049
 51
270.0000000000049
  0
ARC
  5
4585
330
1A
100
AcDbEntity
  8
SEIHIN
  6
Continuous
 62
     3
 48
5.0
100
AcDbCircle
 10
252.3407109429257
 20
252.3611498672201
 30
0.0
 40
1.700000000000031
100
AcDbArc
 50
180.0000000000016
 51
270.0000000000017
  0
ARC
  5
4586
330
1A
100
AcDbEntity
  8
SEIHIN
  6
Continuous
 62
     3
 48
5.0
100
AcDbCircle
 10
257.8060040297984
 20
245.6611551692257
 30
0.0
 40
4.999994697999157
100
AcDbArc
 50
15.02729759352253
 51
89.99992078131287
  0
LINE
  5
4587
330
1A
100
AcDbEntity
  8
SEIHIN
  6
Continuous
 62
     3
 48
5.0
100
AcDbLine
 10
250.6407109429256
 20
257.3611498672202
 30
0.0
 11
251.8407109429257
 21
257.3611498672202
 31
0.0
  0
DIMENSION
  5
4588
330
1A
100
AcDbEntity
  8
SUNPOU
100
AcDbDimension
  2
*D7
 10
404.0212022938463
 20
263.682644615555
 30
0.0
 11
399.0212022938462
 21
230.4276472413876
 31
0.0
 70
    32
 71
     5
 42
66.50999474833483
  3
STANDARD
100
AcDbAlignedDimension
 13
380.8953109429256
 23
197.1726498672202
 33
0.0
 14
380.8953239211635
 24
263.682644615555
 34
0.0
 50
90.0
100
AcDbRotatedDimension
1001
ACAD
1000
DSTYLE
1002
{
1070
   140
1040
6.0
1070
    74
1070
     0
1070
   172
1070
     1
1070
    73
1070
     0
1070
   272
1070
     2
1070
    77
1070
     3
1070
   173
1070
     1
1070
   147
1040
2.0
1070
    42
1040
6.0
1070
    44
1040
3.0
1070
    43
1040
14.0
1070
   271
1070
     0
1070
   178
1070
     4
1070
   177
1070
     4
1070
   176
1070
     4
1070
   141
1040
150.0
1070
     7
1000
_OPEN
1070
     6
1000
_OPEN
1070
    41
1040
7.0
1002
}
  0
LINE
  5
4589
330
1A
100
AcDbEntity
  8
SEIHIN
  6
Continuous
 62
     3
 48
5.0
100
AcDbLine
 10
372.4407109429256
 20
220.3611498672201
 30
0.0
 11
372.4407109429256
 21
241.8611498672201
 31
0.0
  0
LINE
  5
458A
330
1A
100
AcDbEntity
  8
SEIHIN
  6
Continuous
 62
     3
 48
5.0
100
AcDbLine
 10
375.6408109429257
 20
224.0611498672202
 30
0.0
 11
375.6408109429257
 21
243.0611498672201
 31
0.0
  0
LINE
  5
458B
330
1A
100
AcDbEntity
  8
SEIHIN
  6
Continuous
 62
     3
 48
5.0
100
AcDbLine
 10
376.6953109429257
 20
254.6856498672202
 30
0.0
 11
376.6953109429257
 21
225.4826498672201
 31
0.0
  0
LINE
  5
458C
330
1A
100
AcDbEntity
  8
SEIHIN
  6
Continuous
 62
     3
 48
5.0
100
AcDbLine
 10
346.4220109429257
 20
223.5329498672201
 30
0.0
 11
357.6721109429256
 21
240.4081498672201
 31
0.0
  0
LINE
  5
458D
330
1A
100
AcDbEntity
  8
SEIHIN
  6
Continuous
 62
     3
 48
5.0
100
AcDbLine
 10
352.6798109429256
 20
243.73634986722
 30
0.0
 11
343.2109109429258
 21
229.5329498672201
 31
0.0
  0
LINE
  5
458E
330
1A
100
AcDbEntity
  8
SEIHIN
  6
Continuous
 62
     3
 48
5.0
100
AcDbLine
 10
299.6407109429258
 20
228.0611498672202
 30
0.0
 11
314.8265109429256
 21
254.8595498672202
 31
0.0
  0
LINE
  5
458F
330
1A
100
AcDbEntity
  8
SEIHIN
  6
Continuous
 62
     3
 48
5.0
100
AcDbLine
 10
305.7309109429257
 20
224.6100498672201
 30
0.0
 11
319.6208109429257
 21
249.1216498672202
 31
0.0
  0
ARC
  5
4590
330
1A
100
AcDbEntity
  8
SEIHIN
  6
Continuous
 62
     3
 48
5.0
100
AcDbCircle
 10
291.6409609429257
 20
221.4777498669904
 30
0.0
 40
9.083361468420453
100
AcDbArc
 50
56.60200631681711
 51
123.3979936831829
  0
LINE
  5
4591
330
1A
100
AcDbEntity
  8
SEIHIN
  6
Continuous
 62
     3
 48
5.0
100
AcDbLine
 10
379.6953109429257
 20
253.6826498672202
 30
0.0
 11
379.6953109429257
 21
197.1826498672202
 31
0.0
  0
LINE
  5
4592
330
1A
100
AcDbEntity
  8
SEIHIN
  6
Continuous
 62
     3
 48
5.0
100
AcDbLine
 10
380.8953109427999
 20
256.043475945553
 30
0.0
 11
380.8952109429258
 21
197.1827498672201
 31
0.0
  0
LINE
  5
4593
330
1A
100
AcDbEntity
  8
CENTER L
  6
CENTER
 62
     1
 48
5.0
100
AcDbLine
 10
291.6408109429257
 20
202.3256498672202
 30
0.0
 11
291.6408109429257
 21
233.4889498672201
 31
0.0
  0
LINE
  5
4594
330
1A
100
AcDbEntity
  8
SEIHIN
  6
Continuous
 62
     3
 48
5.0
100
AcDbLine
 10
307.0065109429257
 20
226.8611498672201
 30
0.0
 11
338.2186109429258
 21
226.8611498672201
 31
0.0
  0
LINE
  5
4595
330
1A
100
AcDbEntity
  8
SEIHIN
  6
Continuous
 62
     3
 48
5.0
100
AcDbLine
 10
294.6409109429258
 20
206.0611498672202
 30
0.0
 11
294.6409109429258
 21
212.4610498672201
 31
0.0
  0
LINE
  5
4596
330
1A
100
AcDbEntity
  8
SEIHIN
  6
Continuous
 62
     3
 48
5.0
100
AcDbLine
 10
294.0410109429257
 20
212.4610498672201
 30
0.0
 11
294.0410109429257
 21
206.0611498672202
 31
0.0
  0
LINE
  5
4597
330
1A
100
AcDbEntity
  8
SEIHIN
  6
Continuous
 62
     3
 48
5.0
100
AcDbLine
 10
288.6409109429258
 20
206.0611498672202
 30
0.0
 11
288.6409109429258
 21
212.4610498672201
 31
0.0
  0
LINE
  5
4598
330
1A
100
AcDbEntity
  8
SEIHIN
  6
Continuous
 62
     3
 48
5.0
100
AcDbLine
 10
289.2409109429257
 20
212.4610498672201
 30
0.0
 11
289.2409109429257
 21
206.0611498672202
 31
0.0
  0
LINE
  5
4599
330
1A
100
AcDbEntity
  8
SEIHIN
  6
Continuous
 62
     3
 48
5.0
100
AcDbLine
 10
288.6409109429258
 20
206.0611498672202
 30
0.0
 11
294.6409109429258
 21
206.0611498672202
 31
0.0
  0
ARC
  5
459A
330
1A
100
AcDbEntity
  8
SEIHIN
  6
Continuous
 62
     3
 48
5.0
100
AcDbCircle
 10
298.5963083981652
 20
209.056850924899
 30
0.0
 40
1.499969188016285
100
AcDbArc
 50
194.860863526894
 51
300.0007917609031
  0
ARC
  5
459B
330
1A
100
AcDbEntity
  8
SEIHIN
  6
Continuous
 62
     3
 48
5.0
100
AcDbCircle
 10
298.5962963324368
 20
209.0568559404762
 30
0.0
 40
0.5000015649322144
100
AcDbArc
 50
194.8572300133681
 51
300.0018297204003
  0
LINE
  5
459C
330
1A
100
AcDbEntity
  8
SEIHIN
  6
Continuous
 62
     3
 48
5.0
100
AcDbLine
 10
303.3882109429258
 20
212.0261498672201
 30
0.0
 11
298.5112109429257
 21
216.0387498672202
 31
0.0
  0
LINE
  5
459D
330
1A
100
AcDbEntity
  8
SEIHIN
  6
Continuous
 62
     3
 48
5.0
100
AcDbLine
 10
297.1409109429258
 20
218.4610498672201
 30
0.0
 11
304.0235109429257
 21
212.7983498672201
 31
0.0
  0
LINE
  5
459E
330
1A
100
AcDbEntity
  8
SEIHIN
  6
Continuous
 62
     3
 48
5.0
100
AcDbLine
 10
296.1409109429258
 20
212.4610498672201
 30
0.0
 11
297.1409109429258
 21
218.4610498672201
 31
0.0
  0
LINE
  5
459F
330
1A
100
AcDbEntity
  8
SEIHIN
  6
Continuous
 62
     3
 48
5.0
100
AcDbLine
 10
286.1409109429258
 20
218.4610498672201
 30
0.0
 11
287.1409109429258
 21
212.4610498672201
 31
0.0
  0
LINE
  5
45A0
330
1A
100
AcDbEntity
  8
SEIHIN
  6
Continuous
 62
     3
 48
5.0
100
AcDbLine
 10
287.1409109429258
 20
212.4610498672201
 30
0.0
 11
296.1409109429258
 21
212.4610498672201
 31
0.0
  0
LINE
  5
45A1
330
1A
100
AcDbEntity
  8
SEIHIN
  6
Continuous
 62
     3
 48
5.0
100
AcDbLine
 10
287.1405109429257
 20
212.4610498672201
 30
0.0
 11
286.1350109429257
 21
208.6721498672202
 31
0.0
  0
ARC
  5
45A2
330
1A
100
AcDbEntity
  8
SEIHIN
  6
Continuous
 62
     3
 48
5.0
100
AcDbCircle
 10
285.607809708717
 20
212.5333236657878
 30
0.0
 40
0.5000086055529474
100
AcDbArc
 50
345.1468102359567
 51
9.465260517773297
  0
ARC
  5
45A3
330
1A
100
AcDbEntity
  8
SEIHIN
  6
Continuous
 62
     3
 48
5.0
100
AcDbCircle
 10
285.0879090938603
 20
215.652650560188
 30
0.0
 40
0.500004789975052
100
AcDbArc
 50
9.462209047227988
 51
129.4489319853297
  0
ARC
  5
45A4
330
1A
100
AcDbEntity
  8
SEIHIN
  6
Continuous
 62
     3
 48
5.0
100
AcDbCircle
 10
284.6852404688424
 20
209.056862137142
 30
0.0
 40
0.5000143895260498
100
AcDbArc
 50
239.9970452065636
 51
345.1305696875459
  0
LINE
  5
45A5
330
1A
100
AcDbEntity
  8
SEIHIN
  6
Continuous
 62
     3
 48
5.0
100
AcDbLine
 10
285.1685109429257
 20
208.9286498672201
 30
0.0
 11
286.0911109429258
 21
212.4051498672202
 31
0.0
  0
ARC
  5
45A6
330
1A
100
AcDbEntity
  8
SEIHIN
  6
Continuous
 62
     3
 48
5.0
100
AcDbCircle
 10
284.6852284020873
 20
209.0568571231119
 30
0.0
 40
1.499982013194395
100
AcDbArc
 50
239.9988332541016
 51
345.1350695249537
  0
LINE
  5
45A7
330
1A
100
AcDbEntity
  8
SEIHIN
  6
Continuous
 62
     3
 48
5.0
100
AcDbLine
 10
285.5812109429257
 20
215.7348498672202
 30
0.0
 11
286.1010109429257
 21
212.6155498672202
 31
0.0
  0
ARC
  5
45A8
330
1A
100
AcDbEntity
  8
SEIHIN
  6
Continuous
 62
     3
 48
5.0
100
AcDbCircle
 10
298.1935661238287
 20
215.6526705461405
 30
0.0
 40
0.4999554712817299
100
AcDbArc
 50
50.55433227380075
 51
170.5391709781644
  0
LINE
  5
45A9
330
1A
100
AcDbEntity
  8
SEIHIN
  6
Continuous
 62
     3
 48
5.0
100
AcDbLine
 10
298.1130109429257
 20
208.9286498672201
 30
0.0
 11
297.1904109429257
 21
212.4051498672202
 31
0.0
  0
LINE
  5
45AA
330
1A
100
AcDbEntity
  8
SEIHIN
  6
Continuous
 62
     3
 48
5.0
100
AcDbLine
 10
296.1409109429258
 20
212.4610498672201
 30
0.0
 11
297.1465109429257
 21
208.6721498672202
 31
0.0
  0
ARC
  5
45AB
330
1A
100
AcDbEntity
  8
SEIHIN
  6
Continuous
 62
     3
 48
5.0
100
AcDbCircle
 10
297.6737121771344
 20
212.533323665788
 30
0.0
 40
0.5000086055529297
100
AcDbArc
 50
170.5347394822583
 51
194.8531897640753
  0
LINE
  5
45AC
330
1A
100
AcDbEntity
  8
SEIHIN
  6
Continuous
 62
     3
 48
5.0
100
AcDbLine
 10
297.7004109429257
 20
215.7348498672202
 30
0.0
 11
297.1805109429257
 21
212.6155498672202
 31
0.0
  0
LINE
  5
45AD
330
1A
100
AcDbEntity
  8
SEIHIN
  6
Continuous
 62
     3
 48
5.0
100
AcDbLine
 10
296.6409109429258
 20
229.0611498672202
 30
0.0
 11
286.6409109429258
 21
229.0611498672202
 31
0.0
  0
LINE
  5
45AE
330
1A
100
AcDbEntity
  8
SEIHIN
  6
Continuous
 62
     3
 48
5.0
100
AcDbLine
 10
285.1409109429258
 20
218.4610498672201
 30
0.0
 11
298.1409109429258
 21
218.4610498672201
 31
0.0
  0
LINE
  5
45AF
330
1A
100
AcDbEntity
  8
SEIHIN
  6
Continuous
 62
     3
 48
5.0
100
AcDbLine
 10
286.6409109429258
 20
228.0611498672202
 30
0.0
 11
286.6409109429258
 21
229.0610498672202
 31
0.0
  0
LINE
  5
45B0
330
1A
100
AcDbEntity
  8
SEIHIN
  6
Continuous
 62
     3
 48
5.0
100
AcDbLine
 10
285.1409109429258
 20
218.4610498672201
 30
0.0
 11
285.1409109429258
 21
220.4611498672201
 31
0.0
  0
LINE
  5
45B1
330
1A
100
AcDbEntity
  8
SEIHIN
  6
Continuous
 62
     3
 48
5.0
100
AcDbLine
 10
296.6409109429258
 20
228.0611498672202
 30
0.0
 11
296.6409109429258
 21
229.0611498672202
 31
0.0
  0
LINE
  5
45B2
330
1A
100
AcDbEntity
  8
SEIHIN
  6
Continuous
 62
     3
 48
5.0
100
AcDbLine
 10
298.1409109429258
 20
218.4610498672201
 30
0.0
 11
298.1409109429258
 21
220.4611498672201
 31
0.0
  0
ARC
  5
45B3
330
1A
100
AcDbEntity
  8
SEIHIN
  6
Continuous
 62
     3
 48
5.0
100
AcDbCircle
 10
303.0705128950154
 20
211.6400734880766
 30
0.0
 40
1.499936481922675
100
AcDbArc
 50
299.9969039606034
 51
50.55338880079535
  0
ARC
  5
45B4
330
1A
100
AcDbEntity
  8
SEIHIN
  6
Continuous
 62
     3
 48
5.0
100
AcDbCircle
 10
303.0705118197296
 20
211.6400604772072
 30
0.0
 40
0.4999977499551147
100
AcDbArc
 50
300.0000328441765
 51
50.55025991722153
  0
LINE
  5
45B5
330
1A
100
AcDbEntity
  8
SEIHIN
  6
Continuous
 62
     3
 48
5.0
100
AcDbLine
 10
299.3463109429258
 20
207.7578498672201
 30
0.0
 11
303.8205109429258
 21
210.3410498672202
 31
0.0
  0
LINE
  5
45B6
330
1A
100
AcDbEntity
  8
SEIHIN
  6
Continuous
 62
     3
 48
5.0
100
AcDbLine
 10
303.3205109429258
 20
211.2070498672202
 30
0.0
 11
298.8463109429258
 21
208.6238498672201
 31
0.0
  0
ARC
  5
45B7
330
1A
100
AcDbEntity
  8
SEIHIN
  6
Continuous
 62
     3
 48
5.0
100
AcDbCircle
 10
299.6407493855971
 20
228.0611722689342
 30
0.0
 40
7.000022401819551
100
AcDbArc
 50
269.9996853434609
 51
330.4609980330072
  0
ARC
  5
45B8
330
1A
100
AcDbEntity
  8
SEIHIN
  6
Continuous
 62
     3
 48
5.0
100
AcDbCircle
 10
338.2186089599616
 20
232.8611488059699
 30
0.0
 40
5.999998938750157
100
AcDbArc
 50
270.0000189359164
 51
326.3099514099363
  0
ARC
  5
45B9
330
1A
100
AcDbEntity
  8
SEIHIN
  6
Continuous
 62
     3
 48
5.0
100
AcDbCircle
 10
341.4297089599615
 20
226.8611488059699
 30
0.0
 40
5.999998938750186
100
AcDbArc
 50
270.0000189359164
 51
326.3099514099363
  0
LINE
  5
45BA
330
1A
100
AcDbEntity
  8
SEIHIN
  6
Continuous
 62
     3
 48
5.0
100
AcDbLine
 10
380.8953109429256
 20
197.1726498672202
 30
0.0
 11
379.6953109429257
 21
197.1726498672202
 31
0.0
  0
LINE
  5
45BB
330
1A
100
AcDbEntity
  8
CENTER L
  6
CENTER
 62
     1
 48
5.0
100
AcDbLine
 10
373.5874109429257
 20
204.6826498672202
 30
0.0
 11
388.4143109429257
 21
204.6826498672202
 31
0.0
  0
LINE
  5
45BC
330
1A
100
AcDbEntity
  8
SEIHIN
  6
Continuous
 62
     3
 48
5.0
100
AcDbLine
 10
360.1408109429256
 20
220.8610498672202
 30
0.0
 11
360.1408109429256
 21
220.4611498672201
 31
0.0
  0
ARC
  5
45BD
330
1A
100
AcDbEntity
  8
SEIHIN
  6
Continuous
 62
     3
 48
5.0
100
AcDbCircle
 10
371.1407730145011
 20
220.3611320722879
 30
0.0
 40
2.50003792848795
100
AcDbArc
 50
230.2696614052237
 51
0.0004078236160945
  0
ARC
  5
45BE
330
1A
100
AcDbEntity
  8
SEIHIN
  6
Continuous
 62
     3
 48
5.0
100
AcDbCircle
 10
371.1407299744326
 20
220.3611118803846
 30
0.0
 40
1.29998096904803
100
AcDbArc
 50
230.2694594052361
 51
0.0016742440106157
  0
LINE
  5
45BF
330
1A
100
AcDbEntity
  8
SEIHIN
  6
Continuous
 62
     3
 48
5.0
100
AcDbLine
 10
364.6408109429257
 20
222.5126498672201
 30
0.0
 11
365.4892109429258
 21
223.3611498672202
 31
0.0
  0
LINE
  5
45C0
330
1A
100
AcDbEntity
  8
SEIHIN
  6
Continuous
 62
     3
 48
5.0
100
AcDbLine
 10
364.6408109429257
 20
222.5126498672201
 30
0.0
 11
369.5428109429256
 21
218.4384498672202
 31
0.0
  0
LINE
  5
45C1
330
1A
100
AcDbEntity
  8
SEIHIN
  6
Continuous
 62
     3
 48
5.0
100
AcDbLine
 10
370.3098109429256
 20
219.3613498672202
 30
0.0
 11
365.4078109429256
 21
223.4355498672201
 31
0.0
  0
LINE
  5
45C2
330
1A
100
AcDbEntity
  8
SEIHIN
  6
Continuous
 62
     3
 48
5.0
100
AcDbLine
 10
373.6408109429257
 20
220.3611498672201
 30
0.0
 11
373.6408109429257
 21
222.0611498672202
 31
0.0
  0
ARC
  5
45C3
330
1A
100
AcDbEntity
  8
SEIHIN
  6
Continuous
 62
     3
 48
5.0
100
AcDbCircle
 10
373.6408109429257
 20
224.0611498672202
 30
0.0
 40
2.0
100
AcDbArc
 50
270.0
 51
0.0
  0
ARC
  5
45C4
330
1A
100
AcDbEntity
  8
SEIHIN
  6
Continuous
 62
     3
 48
5.0
100
AcDbCircle
 10
379.6953109429257
 20
225.4826498672201
 30
0.0
 40
2.999999999999972
100
AcDbArc
 50
180.0
 51
270.0
  0
LINE
  5
45C5
330
1A
100
AcDbEntity
  8
SEIHIN
  6
Continuous
 62
     3
 48
5.0
100
AcDbLine
 10
320.3066109429256
 20
258.3818498672201
 30
0.0
 11
373.2852242586586
 21
263.0168510321891
 31
0.0
  0
LINE
  5
45C6
330
1A
100
AcDbEntity
  8
SEIHIN
  6
Continuous
 62
     3
 48
5.0
100
AcDbLine
 10
372.8953109429257
 20
255.9560498672201
 30
0.0
 11
323.5352109429257
 21
251.6375498672202
 31
0.0
  0
ARC
  5
45C7
330
1A
100
AcDbEntity
  8
SEIHIN
  6
Continuous
 62
     3
 48
5.0
100
AcDbCircle
 10
320.9167046361408
 20
251.4084458135652
 30
0.0
 40
7.000041314880307
100
AcDbArc
 50
94.99999912210497
 51
150.4612583727467
  0
ARC
  5
45C8
330
1A
100
AcDbEntity
  8
SEIHIN
  6
Continuous
 62
     3
 48
5.0
100
AcDbCircle
 10
323.9708751739509
 20
246.6566268770676
 30
0.0
 40
4.999939715239089
100
AcDbArc
 50
94.99874353790717
 51
150.4613514103579
  0
DIMENSION
  5
45C9
330
1A
100
AcDbEntity
  8
SUNPOU
100
AcDbDimension
  2
*D8
 10
380.8953109427999
 20
279.8945536284962
 30
0.0
 11
351.1630099112853
 21
279.8945536284962
 31
0.0
 70
   160
 71
     5
 42
10.23230103151462
  3
STANDARD
100
AcDbAlignedDimension
 13
370.6630099112853
 23
239.8410427352812
 33
0.0
 14
380.8953109427999
 24
256.043475945553
 34
0.0
100
AcDbRotatedDimension
1001
ACAD
1000
DSTYLE
1002
{
1070
   288
1070
     1
1070
   140
1040
6.0
1070
    74
1070
     0
1070
   172
1070
     1
1070
    73
1070
     0
1070
   272
1070
     2
1070
    77
1070
     3
1070
   173
1070
     1
1070
   147
1040
2.0
1070
    42
1040
6.0
1070
    44
1040
3.0
1070
    43
1040
14.0
1070
   271
1070
     0
1070
   178
1070
     4
1070
   177
1070
     4
1070
   176
1070
     4
1070
   141
1040
150.0
1070
     7
1000
_OPEN
1070
     6
1000
_OPEN
1070
    41
1040
7.0
1002
}
  0
ARC
  5
45CA
330
1A
100
AcDbEntity
  8
SEIHIN
  6
Continuous
 62
     3
 48
5.0
100
AcDbCircle
 10
373.89531094281
 20
256.0434878380179
 30
0.0
 40
7.0
100
AcDbArc
 50
359.9999026588498
 51
94.99997111875986
  0
LINE
  5
45CB
330
1A
100
AcDbEntity
  8
SEIHIN
  6
Continuous
 62
     3
 48
5.0
100
AcDbLine
 10
379.6953109429257
 20
253.6826498672202
 30
0.0
 11
380.8953109429256
 21
253.6826498672202
 31
0.0
  0
LINE
  5
45CC
330
1A
100
AcDbEntity
  8
CENTER L
  6
CENTER
 62
     1
 48
5.0
100
AcDbLine
 10
373.5875109429258
 20
238.6832498672202
 30
0.0
 11
388.4143109429257
 21
238.6831498672201
 31
0.0
  0
LINE
  5
45CD
330
1A
100
AcDbEntity
  8
CENTER L
  6
CENTER
 62
     1
 48
5.0
100
AcDbLine
 10
373.5875109429258
 20
232.6831498672201
 30
0.0
 11
388.4143109429257
 21
232.6830498672202
 31
0.0
  0
LINE
  5
45CE
330
1A
100
AcDbEntity
  8
SEIHIN
  6
Continuous
 62
     3
 48
5.0
100
AcDbLine
 10
377.6953109429257
 20
254.3513498672202
 30
0.0
 11
377.6953109429257
 21
239.48274986722
 31
0.0
  0
ARC
  5
45CF
330
1A
100
AcDbEntity
  8
SEIHIN
  6
Continuous
 62
     3
 48
5.0
100
AcDbCircle
 10
365.9926142478658
 20
234.8611516359704
 30
0.0
 40
9.999998231250356
100
AcDbArc
 50
90.00001893591481
 51
146.3099514099363
  0
ARC
  5
45D0
330
1A
100
AcDbEntity
  8
SEIHIN
  6
Continuous
 62
     3
 48
5.0
100
AcDbCircle
 10
365.99261623083
 20
234.8611526972205
 30
0.0
 40
15.99999717000054
100
AcDbArc
 50
90.00001893591646
 51
146.3099514099363
  0
ARC
  5
45D1
330
1A
100
AcDbEntity
  8
SEIHIN
  6
Continuous
 62
     3
 48
5.0
100
AcDbCircle
 10
379.6953109429257
 20
239.4827498672201
 30
0.0
 40
1.999999999999957
100
AcDbArc
 50
180.0000000000016
 51
270.0000000000017
  0
ARC
  5
45D2
330
1A
100
AcDbEntity
  8
SEIHIN
  6
Continuous
 62
     3
 48
5.0
100
AcDbCircle
 10
369.4407109429255
 20
241.8611498672201
 30
0.0
 40
3.000000000000043
100
AcDbArc
 50
359.9999999999984
 51
89.99999999999837
  0
ARC
  5
45D3
330
1A
100
AcDbEntity
  8
SEIHIN
  6
Continuous
 62
     3
 48
5.0
100
AcDbCircle
 10
370.6408109429256
 20
243.0611498672201
 30
0.0
 40
5.000000000000085
100
AcDbArc
 50
0.0000000000016284
 51
90.00000000000162
  0
LINE
  5
45D4
330
1A
100
AcDbEntity
  8
SEIHIN
  6
Continuous
 62
     3
 48
5.0
100
AcDbLine
 10
369.4407109429256
 20
244.8611498672202
 30
0.0
 11
365.9926109429258
 21
244.8611498672202
 31
0.0
  0
ARC
  5
45D5
330
1A
100
AcDbEntity
  8
SEIHIN
  6
Continuous
 62
     3
 48
5.0
100
AcDbCircle
 10
366.1495314509872
 20
245.8636375131204
 30
0.0
 40
4.999975377462405
100
AcDbArc
 50
26.07227918679287
 51
91.79848074586522
  0
LINE
  5
45D6
330
1A
100
AcDbEntity
  8
SEIHIN
  6
Continuous
 62
     3
 48
5.0
100
AcDbLine
 10
372.8953109429257
 20
255.9560498672201
 30
0.0
 11
380.3787109429258
 21
258.6826498672202
 31
0.0
  0
LINE
  5
45D7
330
1A
100
AcDbEntity
  8
SEIHIN
  6
Continuous
 62
     3
 48
5.0
100
AcDbLine
 10
379.6953109429257
 20
253.6826498672202
 30
0.0
 11
372.8953109429257
 21
255.9560498672201
 31
0.0
  0
LINE
  5
45D8
330
1A
100
AcDbEntity
  8
SEIHIN
  6
Continuous
 62
     3
 48
5.0
100
AcDbLine
 10
299.6407109429258
 20
392.3440498672201
 30
0.0
 11
281.6407109429258
 21
392.3440498672201
 31
0.0
  0
LINE
  5
45D9
330
1A
100
AcDbEntity
  8
SEIHIN
  6
Continuous
 62
     3
 48
5.0
100
AcDbLine
 10
281.6407109429258
 20
374.4440498672202
 30
0.0
 11
299.6407109429258
 21
374.4440498672202
 31
0.0
  0
LINE
  5
45DA
330
1A
100
AcDbEntity
  8
CENTER L
  6
CENTER
 62
     1
 48
5.0
100
AcDbLine
 10
245.8919109429257
 20
383.3940498672202
 30
0.0
 11
387.4857109429257
 21
383.3940498672202
 31
0.0
  0
DIMENSION
  5
45DB
330
1A
100
AcDbEntity
  8
SUNPOU
 48
5.0
100
AcDbDimension
  2
*D9
 10
222.8250674781912
 20
372.3940498672201
 30
0.0
 11
217.8250674781911
 21
383.3940498672203
 31
0.0
 70
    32
 71
     5
 42
22.00000000000006
  3
STANDARD
100
AcDbAlignedDimension
 13
250.6408109429257
 23
394.3940498672202
 33
0.0
 14
250.6408109429257
 24
372.3940498672201
 34
0.0
 50
90.0
100
AcDbRotatedDimension
1001
ACAD
1000
DSTYLE
1002
{
1070
   140
1040
6.0
1070
    74
1070
     0
1070
   172
1070
     1
1070
    73
1070
     0
1070
   272
1070
     2
1070
    77
1070
     3
1070
   173
1070
     1
1070
   147
1040
2.0
1070
    42
1040
6.0
1070
    44
1040
3.0
1070
    43
1040
14.0
1070
   271
1070
     0
1070
   178
1070
     4
1070
   177
1070
     4
1070
   176
1070
     4
1070
   141
1040
150.0
1070
     7
1000
_OPEN
1070
     6
1000
_OPEN
1070
    41
1040
7.0
1002
}
  0
LINE
  5
45DC
330
1A
100
AcDbEntity
  8
SEIHIN
  6
Continuous
 62
     3
 48
5.0
100
AcDbLine
 10
250.6408109429257
 20
372.3940498672201
 30
0.0
 11
250.6408109429257
 21
394.3940498672202
 31
0.0
  0
LINE
  5
45DD
330
1A
100
AcDbEntity
  8
SEIHIN
  6
Continuous
 62
     3
 48
5.0
100
AcDbLine
 10
251.8407109429257
 20
383.3940498672202
 30
0.0
 11
251.8407109429257
 21
394.3940498672202
 31
0.0
  0
ARC
  5
45DE
330
1A
100
AcDbEntity
  8
SEIHIN
  6
Continuous
 62
     3
 48
5.0
100
AcDbCircle
 10
255.8407109429257
 20
393.6940498672201
 30
0.0
 40
4.0
100
AcDbArc
 50
180.0
 51
270.0
  0
LINE
  5
45DF
330
1A
100
AcDbEntity
  8
SEIHIN
  6
Continuous
 62
     3
 48
5.0
100
AcDbLine
 10
258.6407109429258
 20
375.8940498672201
 30
0.0
 11
281.6408109429257
 21
375.8940498672201
 31
0.0
  0
LINE
  5
45E0
330
1A
100
AcDbEntity
  8
SEIHIN
  6
Continuous
 62
     3
 48
5.0
100
AcDbLine
 10
258.6407109429258
 20
390.8940498672202
 30
0.0
 11
281.6408109429257
 21
390.8940498672202
 31
0.0
  0
LINE
  5
45E1
330
1A
100
AcDbEntity
  8
SEIHIN
  6
Continuous
 62
     3
 48
5.0
100
AcDbLine
 10
255.8407109429257
 20
389.6940498672201
 30
0.0
 11
281.6408109429257
 21
389.6940498672201
 31
0.0
  0
LINE
  5
45E2
330
1A
100
AcDbEntity
  8
SEIHIN
  6
Continuous
 62
     3
 48
5.0
100
AcDbLine
 10
255.8407109429257
 20
377.09404986722
 30
0.0
 11
281.6408109429257
 21
377.09404986722
 31
0.0
  0
LINE
  5
45E3
330
1A
100
AcDbEntity
  8
SEIHIN
  6
Continuous
 62
     3
 48
5.0
100
AcDbLine
 10
261.6408109429257
 20
381.3940498672202
 30
0.0
 11
261.6408109429257
 21
378.2094498672201
 31
0.0
  0
LINE
  5
45E4
330
1A
100
AcDbEntity
  8
SEIHIN
  6
Continuous
 62
     3
 48
5.0
100
AcDbLine
 10
251.8407109429257
 20
372.3940498672201
 30
0.0
 11
251.8407109429257
 21
383.3940498672202
 31
0.0
  0
LINE
  5
45E5
330
1A
100
AcDbEntity
  8
SEIHIN
  6
Continuous
 62
     3
 48
5.0
100
AcDbLine
 10
250.6408109429257
 20
372.3940498672201
 30
0.0
 11
251.8407109429257
 21
372.3940498672201
 31
0.0
  0
ARC
  5
45E6
330
1A
100
AcDbEntity
  8
SEIHIN
  6
Continuous
 62
     3
 48
5.0
100
AcDbCircle
 10
255.8407109429257
 20
373.09404986722
 30
0.0
 40
4.0
100
AcDbArc
 50
90.0
 51
180.0
  0
LINE
  5
45E7
330
1A
100
AcDbEntity
  8
SEIHIN
  6
Continuous
 62
     3
 48
5.0
100
AcDbLine
 10
258.6407109429258
 20
375.8940498672201
 30
0.0
 11
258.6407109429258
 21
377.09404986722
 31
0.0
  0
ARC
  5
45E8
330
1A
100
AcDbEntity
  8
SEIHIN
  6
Continuous
 62
     3
 48
5.0
100
AcDbCircle
 10
258.8407109429257
 20
383.3940498672202
 30
0.0
 40
2.0
100
AcDbArc
 50
90.0
 51
270.0
  0
ARC
  5
45E9
330
1A
100
AcDbEntity
  8
SEIHIN
  6
Continuous
 62
     3
 48
5.0
100
AcDbCircle
 10
263.3407109429257
 20
383.3940498672202
 30
0.0
 40
2.0
100
AcDbArc
 50
270.0
 51
90.0
  0
LINE
  5
45EA
330
1A
100
AcDbEntity
  8
SEIHIN
  6
Continuous
 62
     3
 48
5.0
100
AcDbLine
 10
261.6408109429257
 20
385.3940498672202
 30
0.0
 11
261.6408109429257
 21
388.5785498672202
 31
0.0
  0
LINE
  5
45EB
330
1A
100
AcDbEntity
  8
SEIHIN
  6
Continuous
 62
     3
 48
5.0
100
AcDbLine
 10
258.6407109429258
 20
389.6940498672201
 30
0.0
 11
258.6407109429258
 21
390.8940498672202
 31
0.0
  0
LINE
  5
45EC
330
1A
100
AcDbEntity
  8
SEIHIN
  6
Continuous
 62
     3
 48
5.0
100
AcDbLine
 10
258.8407109429257
 20
385.3940498672202
 30
0.0
 11
263.3407109429257
 21
385.3940498672202
 31
0.0
  0
LINE
  5
45ED
330
1A
100
AcDbEntity
  8
SEIHIN
  6
Continuous
 62
     3
 48
5.0
100
AcDbLine
 10
258.8407109429257
 20
381.3940498672202
 30
0.0
 11
263.3407109429257
 21
381.3940498672202
 31
0.0
  0
LINE
  5
45EE
330
1A
100
AcDbEntity
  8
SEIHIN
  6
Continuous
 62
     3
 48
5.0
100
AcDbLine
 10
281.6408109429257
 20
374.4440498672202
 30
0.0
 11
281.6408109429257
 21
392.3440498672201
 31
0.0
  0
LINE
  5
45EF
330
1A
100
AcDbEntity
  8
SEIHIN
  6
Continuous
 62
     3
 48
5.0
100
AcDbLine
 10
267.5311109429256
 20
375.8940498672201
 30
0.0
 11
267.5311109429256
 21
377.09404986722
 31
0.0
  0
LINE
  5
45F0
330
1A
100
AcDbEntity
  8
SEIHIN
  6
Continuous
 62
     3
 48
5.0
100
AcDbLine
 10
274.2425109429257
 20
375.8940498672201
 30
0.0
 11
274.2425109429257
 21
377.09404986722
 31
0.0
  0
LINE
  5
45F1
330
1A
100
AcDbEntity
  8
SEIHIN
  6
Continuous
 62
     3
 48
5.0
100
AcDbLine
 10
267.5311109429256
 20
389.6940498672201
 30
0.0
 11
267.5311109429256
 21
390.8940498672202
 31
0.0
  0
LINE
  5
45F2
330
1A
100
AcDbEntity
  8
SEIHIN
  6
Continuous
 62
     3
 48
5.0
100
AcDbLine
 10
274.2425109429257
 20
389.6940498672201
 30
0.0
 11
274.2425109429257
 21
390.8940498672202
 31
0.0
  0
LINE
  5
45F3
330
1A
100
AcDbEntity
  8
SEIHIN
  6
Continuous
 62
     3
 48
5.0
100
AcDbLine
 10
250.6408109429257
 20
394.3940498672202
 30
0.0
 11
251.8407109429257
 21
394.3940498672202
 31
0.0
  0
LINE
  5
45F4
330
1A
100
AcDbEntity
  8
SEIHIN
  6
Continuous
 62
     3
 48
5.0
100
AcDbLine
 10
299.6407109429258
 20
392.3440498672201
 30
0.0
 11
380.8953109429256
 21
402.8940498672202
 31
0.0
  0
LINE
  5
45F5
330
1A
100
AcDbEntity
  8
SEIHIN
  6
Continuous
 62
     3
 48
5.0
100
AcDbLine
 10
380.8953109429256
 20
363.8940498672201
 30
0.0
 11
299.6407109429258
 21
374.4440498672202
 31
0.0
  0
LINE
  5
45F6
330
1A
100
AcDbEntity
  8
SEIHIN
  6
Continuous
 62
     3
 48
5.0
100
AcDbLine
 10
363.8953109429256
 20
379.39404986722
 30
0.0
 11
318.6408109429256
 21
379.39404986722
 31
0.0
  0
LINE
  5
45F7
330
1A
100
AcDbEntity
  8
SEIHIN
  6
Continuous
 62
     3
 48
5.0
100
AcDbLine
 10
363.8953109429256
 20
387.3940498672202
 30
0.0
 11
318.6408109429256
 21
387.3940498672202
 31
0.0
  0
ARC
  5
45F8
330
1A
100
AcDbEntity
  8
SEIHIN
  6
Continuous
 62
     3
 48
5.0
100
AcDbCircle
 10
318.6408109429256
 20
383.3940498672201
 30
0.0
 40
4.000000000000085
100
AcDbArc
 50
90.0
 51
270.0
  0
LINE
  5
45F9
330
1A
100
AcDbEntity
  8
CENTER L
  6
CENTER
 62
     1
 48
5.0
100
AcDbLine
 10
291.6407109429258
 20
375.7534498672202
 30
0.0
 11
291.6408109429257
 21
390.6879498672202
 31
0.0
  0
ARC
  5
45FA
330
1A
100
AcDbEntity
  8
SEIHIN
  6
Continuous
 62
     3
 48
5.0
100
AcDbCircle
 10
291.6407109429258
 20
383.3940498672202
 30
0.0
 40
5.0
100
AcDbArc
 50
180.0
 51
0.0
  0
ARC
  5
45FB
330
1A
100
AcDbEntity
  8
SEIHIN
  6
Continuous
 62
     3
 48
5.0
100
AcDbCircle
 10
291.6407109429258
 20
383.3940498672202
 30
0.0
 40
5.0
100
AcDbArc
 50
0.0
 51
180.0
  0
LINE
  5
45FC
330
1A
100
AcDbEntity
  8
SEIHIN
  6
Continuous
 62
     3
 48
5.0
100
AcDbLine
 10
299.6407109429258
 20
374.4440498672202
 30
0.0
 11
299.6407109429258
 21
392.3440498672201
 31
0.0
  0
LINE
  5
45FD
330
1A
100
AcDbEntity
  8
SEIHIN
  6
Continuous
 62
     3
 48
5.0
100
AcDbLine
 10
316.6408109429256
 20
386.85814986722
 30
0.0
 11
316.6408109429256
 21
392.68664986722
 31
0.0
  0
LINE
  5
45FE
330
1A
100
AcDbEntity
  8
SEIHIN
  6
Continuous
 62
     3
 48
5.0
100
AcDbLine
 10
316.6408109429256
 20
379.9299498672201
 30
0.0
 11
316.6408109429256
 21
374.1014498672201
 31
0.0
  0
LINE
  5
45FF
330
1A
100
AcDbEntity
  8
SEIHIN
  6
Continuous
 62
     3
 48
5.0
100
AcDbLine
 10
380.8953109429256
 20
355.8940498672201
 30
0.0
 11
380.8953109429256
 21
410.8940498672202
 31
0.0
  0
LINE
  5
4600
330
1A
100
AcDbEntity
  8
SEIHIN
  6
Continuous
 62
     3
 48
5.0
100
AcDbLine
 10
380.8953109429256
 20
355.8940498672201
 30
0.0
 11
379.6953109429257
 21
355.8940498672201
 31
0.0
  0
LINE
  5
4601
330
1A
100
AcDbEntity
  8
SEIHIN
  6
Continuous
 62
     3
 48
5.0
100
AcDbLine
 10
374.1603109429257
 20
363.2512498672202
 30
0.0
 11
379.6953109429257
 21
355.8940498672201
 31
0.0
  0
ARC
  5
4602
330
1A
100
AcDbEntity
  8
SEIHIN
  6
Continuous
 62
     3
 48
5.0
100
AcDbCircle
 10
370.1648374220496
 20
360.2453344426554
 30
0.0
 40
4.999933619125202
100
AcDbArc
 50
36.95524920639046
 51
82.60226387073683
  0
LINE
  5
4603
330
1A
100
AcDbEntity
  8
SEIHIN
  6
Continuous
 62
     3
 48
5.0
100
AcDbLine
 10
380.8953109429256
 20
410.8940498672202
 30
0.0
 11
379.6953109429257
 21
410.8940498672202
 31
0.0
  0
LINE
  5
4604
330
1A
100
AcDbEntity
  8
SEIHIN
  6
Continuous
 62
     3
 48
5.0
100
AcDbLine
 10
380.8953109429256
 20
391.89404986722
 30
0.0
 11
374.3953109429256
 21
391.89404986722
 31
0.0
  0
LINE
  5
4605
330
1A
100
AcDbEntity
  8
SEIHIN
  6
Continuous
 62
     3
 48
5.0
100
AcDbLine
 10
380.8953109429256
 20
394.8940498672202
 30
0.0
 11
374.3953109429256
 21
394.8940498672202
 31
0.0
  0
ARC
  5
4606
330
1A
100
AcDbEntity
  8
SEIHIN
  6
Continuous
 62
     3
 48
5.0
100
AcDbCircle
 10
382.0617109427577
 20
383.3939352869597
 30
0.0
 40
4.166702006961942
100
AcDbArc
 50
106.2562433213268
 51
253.7423243199958
  0
LINE
  5
4607
330
1A
100
AcDbEntity
  8
SEIHIN
  6
Continuous
 62
     3
 48
5.0
100
AcDbLine
 10
380.8953109429256
 20
371.8940498672201
 30
0.0
 11
374.3953109429256
 21
371.8940498672201
 31
0.0
  0
LINE
  5
4608
330
1A
100
AcDbEntity
  8
SEIHIN
  6
Continuous
 62
     3
 48
5.0
100
AcDbLine
 10
380.8953109429256
 20
374.8940498672201
 30
0.0
 11
374.3953109429256
 21
374.8940498672201
 31
0.0
  0
LINE
  5
4609
330
1A
100
AcDbEntity
  8
SEIHIN
  6
Continuous
 62
     3
 48
5.0
100
AcDbLine
 10
380.8953109429256
 20
379.39404986722
 30
0.0
 11
367.8953109429257
 21
379.39404986722
 31
0.0
  0
LINE
  5
460A
330
1A
100
AcDbEntity
  8
SEIHIN
  6
Continuous
 62
     3
 48
5.0
100
AcDbLine
 10
380.8953109429256
 20
387.3940498672202
 30
0.0
 11
367.8953109429257
 21
387.3940498672202
 31
0.0
  0
ARC
  5
460B
330
1A
100
AcDbEntity
  8
SEIHIN
  6
Continuous
 62
     3
 48
5.0
100
AcDbCircle
 10
380.3953109429257
 20
393.3940498672201
 30
0.0
 40
1.500000000000085
100
AcDbArc
 50
90.0
 51
270.0
  0
ARC
  5
460C
330
1A
100
AcDbEntity
  8
SEIHIN
  6
Continuous
 62
     3
 48
5.0
100
AcDbCircle
 10
374.3953109429256
 20
393.3940498672201
 30
0.0
 40
1.500000000000085
100
AcDbArc
 50
90.0
 51
270.0
  0
LINE
  5
460D
330
1A
100
AcDbEntity
  8
SEIHIN
  6
Continuous
 62
     3
 48
5.0
100
AcDbLine
 10
363.8953109429256
 20
387.3940498672202
 30
0.0
 11
363.8953109429256
 21
379.39404986722
 31
0.0
  0
LINE
  5
460E
330
1A
100
AcDbEntity
  8
SEIHIN
  6
Continuous
 62
     3
 48
5.0
100
AcDbLine
 10
367.8953109429257
 20
387.3940498672202
 30
0.0
 11
367.8953109429257
 21
379.39404986722
 31
0.0
  0
ARC
  5
460F
330
1A
100
AcDbEntity
  8
SEIHIN
  6
Continuous
 62
     3
 48
5.0
100
AcDbCircle
 10
380.3953109429257
 20
373.3940498672201
 30
0.0
 40
1.5
100
AcDbArc
 50
90.0
 51
270.0
  0
ARC
  5
4610
330
1A
100
AcDbEntity
  8
SEIHIN
  6
Continuous
 62
     3
 48
5.0
100
AcDbCircle
 10
374.3953109429256
 20
373.3940498672201
 30
0.0
 40
1.5
100
AcDbArc
 50
90.0
 51
270.0
  0
LINE
  5
4611
330
1A
100
AcDbEntity
  8
SEIHIN
  6
Continuous
 62
     3
 48
5.0
100
AcDbLine
 10
379.6953109429257
 20
410.8940498672202
 30
0.0
 11
374.1603109429257
 21
403.53684986722
 31
0.0
  0
ARC
  5
4612
330
1A
100
AcDbEntity
  8
SEIHIN
  6
Continuous
 62
     3
 48
5.0
100
AcDbCircle
 10
370.1647413092741
 20
406.5427093054141
 30
0.0
 40
4.999976765899945
100
AcDbArc
 50
277.3976270157614
 51
323.0459256048914
  0
DIMENSION
  5
4613
330
1A
100
AcDbEntity
  8
SUNPOU
 48
5.0
100
AcDbDimension
  2
*D10
 10
556.2461109429255
 20
307.4907497044799
 30
0.0
 11
528.7461109429256
 21
312.4907497044799
 31
0.0
 70
    32
 71
     5
 42
54.99999999999977
  3
STANDARD
100
AcDbAlignedDimension
 13
501.2461109429257
 23
253.6826498672202
 33
0.0
 14
556.2461109429255
 24
253.6826498672202
 34
0.0
100
AcDbRotatedDimension
1001
ACAD
1000
DSTYLE
1002
{
1070
   140
1040
6.0
1070
    74
1070
     0
1070
   172
1070
     1
1070
    73
1070
     0
1070
   272
1070
     2
1070
    77
1070
     3
1070
   173
1070
     1
1070
   147
1040
2.0
1070
    42
1040
6.0
1070
    44
1040
3.0
1070
    43
1040
14.0
1070
   271
1070
     0
1070
   178
1070
     4
1070
   177
1070
     4
1070
   176
1070
     4
1070
   141
1040
150.0
1070
     7
1000
_OPEN
1070
     6
1000
_OPEN
1070
    41
1040
7.0
1002
}
  0
DIMENSION
  5
4614
330
1A
100
AcDbEntity
  8
SUNPOU
 48
5.0
100
AcDbDimension
  2
*D11
 10
548.2461109429255
 20
290.6016292416296
 30
0.0
 11
528.7460609437468
 21
295.6016292416296
 31
0.0
 70
    32
 71
     5
 42
39.00009999835743
  3
STANDARD
100
AcDbAlignedDimension
 13
509.2460109445681
 23
242.6705029502836
 33
0.0
 14
548.2461109429255
 24
242.6705029502836
 34
0.0
100
AcDbRotatedDimension
1001
ACAD
1000
DSTYLE
1002
{
1070
   140
1040
6.0
1070
    74
1070
     0
1070
   172
1070
     1
1070
    73
1070
     0
1070
   272
1070
     2
1070
    77
1070
     3
1070
   173
1070
     1
1070
   147
1040
2.0
1070
    42
1040
6.0
1070
    44
1040
3.0
1070
    43
1040
14.0
1070
   271
1070
     0
1070
   178
1070
     4
1070
   177
1070
     4
1070
   176
1070
     4
1070
   141
1040
150.0
1070
     7
1000
_OPEN
1070
     6
1000
_OPEN
1070
    41
1040
7.0
1002
}
  0
LINE
  5
4615
330
1A
100
AcDbEntity
  8
CENTER L
  6
CENTER
 62
     1
 48
5.0
100
AcDbLine
 10
552.3132109429255
 20
238.6826498672202
 30
0.0
 11
543.7461109429255
 21
238.6826498672202
 31
0.0
  0
LINE
  5
4616
330
1A
100
AcDbEntity
  8
CENTER L
  6
CENTER
 62
     1
 48
5.0
100
AcDbLine
 10
553.2369109429258
 20
232.6826498672202
 30
0.0
 11
542.6302109429255
 21
232.6826498672202
 31
0.0
  0
LINE
  5
4617
330
1A
100
AcDbEntity
  8
SEIHIN
  6
Continuous
 62
     3
 48
5.0
100
AcDbLine
 10
556.2459109429258
 20
230.6826498672202
 30
0.0
 11
541.8448109429255
 21
204.8736498672202
 31
0.0
  0
LINE
  5
4618
330
1A
100
AcDbEntity
  8
SEIHIN
  6
Continuous
 62
     3
 48
5.0
100
AcDbLine
 10
532.7461109429257
 20
263.6826498672201
 30
0.0
 11
547.2461109429257
 21
263.6826498672201
 31
0.0
  0
DIMENSION
  5
4619
330
1A
100
AcDbEntity
  8
SUNPOU
 48
5.0
100
AcDbDimension
  2
*D12
 10
477.5109976616986
 20
238.6827498672201
 30
0.0
 11
472.5109976616986
 21
251.1826998672202
 31
0.0
 70
    32
 71
     5
 42
24.99990000000008
  3
STANDARD
100
AcDbAlignedDimension
 13
510.2461109429257
 23
263.6826498672202
 33
0.0
 14
505.1522109429257
 24
238.6827498672201
 34
0.0
 50
90.0
100
AcDbRotatedDimension
1001
ACAD
1000
DSTYLE
1002
{
1070
   140
1040
6.0
1070
    74
1070
     0
1070
   172
1070
     1
1070
    73
1070
     0
1070
   272
1070
     2
1070
    77
1070
     3
1070
   173
1070
     1
1070
   147
1040
2.0
1070
    42
1040
6.0
1070
    44
1040
3.0
1070
    43
1040
14.0
1070
   271
1070
     0
1070
   178
1070
     4
1070
   177
1070
     4
1070
   176
1070
     4
1070
   141
1040
150.0
1070
     7
1000
_OPEN
1070
     6
1000
_OPEN
1070
    41
1040
7.0
1002
}
  0
ARC
  5
461A
330
1A
100
AcDbEntity
  8
SEIHIN
  6
Continuous
 62
     3
 48
5.0
100
AcDbCircle
 10
509.2459609429257
 20
232.6827498665099
 30
0.0
 40
3.250019231752534
100
AcDbArc
 50
112.6206786062861
 51
67.37932139371388
  0
LINE
  5
461B
330
1A
100
AcDbEntity
  8
SEIHIN
  6
Continuous
 62
     3
 48
5.0
100
AcDbLine
 10
524.7461109429257
 20
263.6826498672201
 30
0.0
 11
524.7461109429257
 21
227.6826498672202
 31
0.0
  0
LINE
  5
461C
330
1A
100
AcDbEntity
  8
SEIHIN
  6
Continuous
 62
     3
 48
5.0
100
AcDbLine
 10
532.7461109429257
 20
263.6826498672201
 30
0.0
 11
532.7461109429257
 21
227.6826498672202
 31
0.0
  0
LINE
  5
461D
330
1A
100
AcDbEntity
  8
CENTER L
  6
CENTER
 62
     1
 48
5.0
100
AcDbLine
 10
509.2460109429258
 20
242.6702498672202
 30
0.0
 11
509.2459109429256
 21
227.2602498672202
 31
0.0
  0
LINE
  5
461E
330
1A
100
AcDbEntity
  8
SEIHIN
  6
Continuous
 62
     3
 48
5.0
100
AcDbLine
 10
501.2461109429257
 20
230.6826498672202
 30
0.0
 11
515.6472109429255
 21
204.8736498672202
 31
0.0
  0
LINE
  5
461F
330
1A
100
AcDbEntity
  8
SEIHIN
  6
PHANTOM
 62
     6
 48
5.0
100
AcDbLine
 10
414.6953109429256
 20
253.6826498672202
 30
0.0
 11
414.6953109429256
 21
197.1826498672202
 31
0.0
  0
LINE
  5
4620
330
1A
100
AcDbEntity
  8
SEIHIN
  6
PHANTOM
 62
     6
 48
5.0
100
AcDbLine
 10
415.8953109429257
 20
256.0435498672201
 30
0.0
 11
415.8952109429258
 21
197.1827498672201
 31
0.0
  0
LINE
  5
4621
330
1A
100
AcDbEntity
  8
CENTER L
  6
CENTER
 62
     1
 48
5.0
100
AcDbLine
 10
528.7461109429257
 20
268.5468498672202
 30
0.0
 11
528.7459109429258
 21
193.4921498672202
 31
0.0
  0
LINE
  5
4622
330
1A
100
AcDbEntity
  8
SEIHIN
  6
PHANTOM
 62
     6
 48
5.0
100
AcDbLine
 10
415.8953109429257
 20
197.1826498672202
 30
0.0
 11
414.6953109429256
 21
197.1826498672202
 31
0.0
  0
DIMENSION
  5
4623
330
1A
100
AcDbEntity
  8
SUNPOU
 48
5.0
100
AcDbDimension
  2
*D13
 10
488.4373403534892
 20
197.1826498672201
 30
0.0
 11
483.4373403534891
 21
179.1826498672202
 31
0.0
 70
    32
 71
     5
 42
7.500000000000028
  3
STANDARD
100
AcDbAlignedDimension
 13
524.0176109429256
 23
204.6826498672202
 33
0.0
 14
528.7459109429257
 24
197.1826498672201
 34
0.0
 50
90.0
100
AcDbRotatedDimension
1001
ACAD
1000
DSTYLE
1002
{
1070
   140
1040
6.0
1070
    74
1070
     0
1070
   172
1070
     1
1070
    73
1070
     0
1070
   272
1070
     2
1070
    77
1070
     3
1070
   173
1070
     1
1070
   147
1040
2.0
1070
    42
1040
6.0
1070
    44
1040
3.0
1070
    43
1040
14.0
1070
   271
1070
     0
1070
   178
1070
     4
1070
   177
1070
     4
1070
   176
1070
     4
1070
   141
1040
150.0
1070
     7
1000
_OPEN
1070
     6
1000
_OPEN
1070
    41
1040
7.0
1002
}
  0
ARC
  5
4624
330
1A
100
AcDbEntity
  8
SEIHIN
  6
Continuous
 62
     3
 48
5.0
100
AcDbCircle
 10
528.7460109429258
 20
204.6826498672202
 30
0.0
 40
2.099999999999966
100
AcDbArc
 50
180.0
 51
0.0
  0
LINE
  5
4625
330
1A
100
AcDbEntity
  8
CENTER L
  6
CENTER
 62
     1
 48
5.0
100
AcDbLine
 10
524.0176109429256
 20
204.6826498672202
 30
0.0
 11
533.6131109429255
 21
204.6826498672202
 31
0.0
  0
ARC
  5
4626
330
1A
100
AcDbEntity
  8
SEIHIN
  6
Continuous
 62
     3
 48
5.0
100
AcDbCircle
 10
528.7460109429258
 20
204.6826498672202
 30
0.0
 40
2.100000000000023
100
AcDbArc
 50
0.0
 51
180.0
  0
ARC
  5
4627
330
1A
100
AcDbEntity
  8
SEIHIN
  6
Continuous
 62
     3
 48
5.0
100
AcDbCircle
 10
528.7460097385222
 20
212.1826505743949
 30
0.0
 40
15.00000070750015
100
AcDbArc
 50
209.1610868617323
 51
269.9996226286368
  0
ARC
  5
4628
330
1A
100
AcDbEntity
  8
SEIHIN
  6
Continuous
 62
     3
 48
5.0
100
AcDbCircle
 10
528.7460121476086
 20
212.1826505745533
 30
0.0
 40
15.0000007073332
100
AcDbArc
 50
269.9999953984504
 51
330.8389131372193
  0
ARC
  5
4629
330
1A
100
AcDbEntity
  8
SEIHIN
  6
Continuous
 62
     3
 48
5.0
100
AcDbCircle
 10
528.7461109429257
 20
227.6826498672202
 30
0.0
 40
4.0
100
AcDbArc
 50
180.0
 51
0.0
  0
MTEXT
  5
462A
330
1A
100
AcDbEntity
  8
SUNPOU
  6
Continuous
 62
     4
100
AcDbMText
 10
489.6215926988002
 20
292.5771915320713
 30
0.0
 40
6.0
 41
0.0
 71
     9
 72
     5
  1
3-φ4.2
 73
     1
 44
1.0
  0
LEADER
  5
462B
330
1A
100
AcDbEntity
  8
SUNPOU
  6
Continuous
 62
     4
100
AcDbLeader
  3
STANDARD
 40
6.0
 41
31.2
 76
     3
 10
507.3456217549717
 20
240.3108923209388
 30
0.0
 10
493.5088829769279
 20
290.5771915320713
 30
0.0
 10
491.6215926988002
 20
290.5771915320713
 30
0.0
1001
ACAD
1000
DSTYLE
1002
{
1070
     6
1000
OPEN
1070
    41
1040
7.0
1070
    42
1040
6.0
1070
    43
1040
14.0
1070
    44
1040
3.0
1070
    73
1070
     0
1070
    74
1070
     0
1070
    77
1070
     3
1070
   140
1040
6.0
1070
   141
1040
150.0
1070
   147
1040
2.0
1070
   172
1070
     1
1070
   173
1070
     1
1070
   176
1070
     4
1070
   177
1070
     4
1070
   178
1070
     4
1070
   271
1070
     0
1070
   272
1070
     2
1070
   288
1070
     1
1070
   341
1005
6D
1070
   343
1005
6D
1070
   344
1005
6D
1002
}
  0
LINE
  5
462C
330
1A
100
AcDbEntity
  8
SEIHIN
  6
PHANTOM
 62
     6
 48
5.0
100
AcDbLine
 10
414.6953109429256
 20
253.6826498672202
 30
0.0
 11
415.8953109429257
 21
253.6826498672202
 31
0.0
  0
LINE
  5
462D
330
1A
100
AcDbEntity
  8
SEIHIN
  6
Continuous
 62
     3
 48
5.0
100
AcDbLine
 10
510.2461109429255
 20
263.6826498672201
 30
0.0
 11
524.7461109429257
 21
263.6826498672201
 31
0.0
  0
LINE
  5
462E
330
1A
100
AcDbEntity
  8
CENTER L
  6
CENTER
 62
     1
 48
5.0
100
AcDbLine
 10
505.1522109429257
 20
238.6827498672201
 30
0.0
 11
513.7460109429255
 21
238.6827498672201
 31
0.0
  0
LINE
  5
462F
330
1A
100
AcDbEntity
  8
CENTER L
  6
CENTER
 62
     1
 48
5.0
100
AcDbLine
 10
503.4739109429256
 20
232.6827498672201
 30
0.0
 11
514.8618109429256
 21
232.6827498672201
 31
0.0
  0
LINE
  5
4630
330
1A
100
AcDbEntity
  8
SEIHIN
  6
Continuous
 62
     3
 48
5.0
100
AcDbLine
 10
501.2461109429257
 20
253.6826498672202
 30
0.0
 11
501.2460109429255
 21
230.6826498672202
 31
0.0
  0
LINE
  5
4631
330
1A
100
AcDbEntity
  8
SEIHIN
  6
Continuous
 62
     3
 48
5.0
100
AcDbLine
 10
510.4960109429258
 20
236.9952498672201
 30
0.0
 11
510.4960109429258
 21
235.6827498672201
 31
0.0
  0
LINE
  5
4632
330
1A
100
AcDbEntity
  8
SEIHIN
  6
Continuous
 62
     3
 48
5.0
100
AcDbLine
 10
507.9960109429258
 20
236.9953498672201
 30
0.0
 11
507.9960109429258
 21
235.6827498672201
 31
0.0
  0
ARC
  5
4633
330
1A
100
AcDbEntity
  8
SEIHIN
  6
Continuous
 62
     3
 48
5.0
100
AcDbCircle
 10
509.2460109429258
 20
238.6827498672201
 30
0.0
 40
2.10003720205143
100
AcDbArc
 50
306.5288553669852
 51
233.4711446330148
  0
LINE
  5
4634
330
1A
100
AcDbEntity
  8
SEIHIN
  6
Continuous
 62
     3
 48
5.0
100
AcDbLine
 10
501.2461109429257
 20
253.6826498672202
 30
0.0
 11
509.2461109429257
 21
258.6826498672202
 31
0.0
  0
LINE
  5
4635
330
1A
100
AcDbEntity
  8
SEIHIN
  6
Continuous
 62
     3
 48
5.0
100
AcDbLine
 10
509.2461109429257
 20
262.6826498672201
 30
0.0
 11
509.2461109429257
 21
258.6826498672202
 31
0.0
  0
ARC
  5
4636
330
1A
100
AcDbEntity
  8
SEIHIN
  6
Continuous
 62
     3
 48
5.0
100
AcDbCircle
 10
510.2461109429257
 20
262.6826498672202
 30
0.0
 40
0.9999999999999147
100
AcDbArc
 50
90.00000000000487
 51
180.0000000000049
  0
ARC
  5
4637
330
1A
100
AcDbEntity
  8
SEIHIN
  6
Continuous
 62
     3
 48
5.0
100
AcDbCircle
 10
543.2460853865928
 20
253.1826902504818
 30
0.0
 40
0.4999596173915477
100
AcDbArc
 50
334.6519855705253
 51
89.99707122342576
  0
LINE
  5
4638
330
1A
100
AcDbEntity
  8
SEIHIN
  6
Continuous
 62
     3
 48
5.0
100
AcDbLine
 10
537.2461109429257
 20
263.6826498672201
 30
0.0
 11
537.2461109429257
 21
240.1826498672202
 31
0.0
  0
ARC
  5
4639
330
1A
100
AcDbEntity
  8
SEIHIN
  6
Continuous
 62
     3
 48
5.0
100
AcDbCircle
 10
514.2460943586814
 20
253.1827236585939
 30
0.0
 40
0.5000262089011472
100
AcDbArc
 50
89.99809968520771
 51
205.3486356217714
  0
LINE
  5
463A
330
1A
100
AcDbEntity
  8
SEIHIN
  6
Continuous
 62
     3
 48
5.0
100
AcDbLine
 10
520.2461109429257
 20
263.6827498672202
 30
0.0
 11
520.2460109429258
 21
240.1827498672201
 31
0.0
  0
LINE
  5
463B
330
1A
100
AcDbEntity
  8
SEIHIN
  6
Continuous
 62
     3
 48
5.0
100
AcDbLine
 10
517.2460109429258
 20
245.0080498672202
 30
0.0
 11
517.2460109429258
 21
240.1827498672201
 31
0.0
  0
ARC
  5
463C
330
1A
100
AcDbEntity
  8
SEIHIN
  6
Continuous
 62
     3
 48
5.0
100
AcDbCircle
 10
518.7460109429258
 20
240.1827498672201
 30
0.0
 40
1.5
100
AcDbArc
 50
180.0
 51
0.0
  0
ARC
  5
463D
330
1A
100
AcDbEntity
  8
SEIHIN
  6
Continuous
 62
     3
 48
5.0
100
AcDbCircle
 10
514.2460320622406
 20
245.0079559606256
 30
0.0
 40
2.9999788821549
100
AcDbArc
 50
0.0017934964708748
 51
25.351330667255
  0
LINE
  5
463E
330
1A
100
AcDbEntity
  8
SEIHIN
  6
Continuous
 62
     3
 48
5.0
100
AcDbLine
 10
516.9571109429257
 20
246.2924498672202
 30
0.0
 11
513.7942109429257
 21
252.9686498672202
 31
0.0
  0
LINE
  5
463F
330
1A
100
AcDbEntity
  8
SEIHIN
  6
Continuous
 62
     3
 48
5.0
100
AcDbLine
 10
540.2461109429255
 20
245.0079498672202
 30
0.0
 11
540.2461109429255
 21
240.1826498672202
 31
0.0
  0
ARC
  5
4640
330
1A
100
AcDbEntity
  8
SEIHIN
  6
Continuous
 62
     3
 48
5.0
100
AcDbCircle
 10
538.7461109429257
 20
240.1826498672202
 30
0.0
 40
1.499999999999943
100
AcDbArc
 50
180.0
 51
0.0
  0
ARC
  5
4641
330
1A
100
AcDbEntity
  8
SEIHIN
  6
Continuous
 62
     3
 48
5.0
100
AcDbCircle
 10
543.2461564164034
 20
245.0081520566006
 30
0.0
 40
3.000045480291316
100
AcDbArc
 50
154.6534160527146
 51
180.0038614741821
  0
LINE
  5
4642
330
1A
100
AcDbEntity
  8
SEIHIN
  6
Continuous
 62
     3
 48
5.0
100
AcDbLine
 10
540.5349109429258
 20
246.2924498672202
 30
0.0
 11
543.6979109429258
 21
252.9686498672202
 31
0.0
  0
ARC
  5
4643
330
1A
100
AcDbEntity
  8
SEIHIN
  6
Continuous
 62
     3
 48
5.0
100
AcDbCircle
 10
528.7461609429258
 20
264.8491498673881
 30
0.0
 40
4.166668003680199
100
AcDbArc
 50
196.2578120395448
 51
343.7421879604553
  0
ARC
  5
4644
330
1A
100
AcDbEntity
  8
SEIHIN
  6
Continuous
 62
     3
 48
5.0
100
AcDbCircle
 10
518.7461109429257
 20
263.1827498672202
 30
0.0
 40
1.5
100
AcDbArc
 50
180.0
 51
0.0
  0
LINE
  5
4645
330
1A
100
AcDbEntity
  8
SEIHIN
  6
Continuous
 62
     3
 48
5.0
100
AcDbLine
 10
514.2461109429255
 20
253.6827498672201
 30
0.0
 11
516.7461109429257
 21
253.6827498672201
 31
0.0
  0
LINE
  5
4646
330
1A
100
AcDbEntity
  8
SEIHIN
  6
Continuous
 62
     3
 48
5.0
100
AcDbLine
 10
517.2461109429257
 20
263.6827498672202
 30
0.0
 11
517.2461109429257
 21
254.1827498672201
 31
0.0
  0
ARC
  5
4647
330
1A
100
AcDbEntity
  8
SEIHIN
  6
Continuous
 62
     3
 48
5.0
100
AcDbCircle
 10
516.7461109429257
 20
254.1827498672201
 30
0.0
 40
0.5000000000000284
100
AcDbArc
 50
270.0000000000032
 51
0.0000000000032569
  0
ARC
  5
4648
330
1A
100
AcDbEntity
  8
SEIHIN
  6
Continuous
 62
     3
 48
5.0
100
AcDbCircle
 10
540.7461109429255
 20
254.1826498672202
 30
0.0
 40
0.5
100
AcDbArc
 50
180.0
 51
270.0
  0
LINE
  5
4649
330
1A
100
AcDbEntity
  8
SEIHIN
  6
Continuous
 62
     3
 48
5.0
100
AcDbLine
 10
540.2461109429255
 20
263.6826498672201
 30
0.0
 11
540.2461109429255
 21
254.1826498672202
 31
0.0
  0
ARC
  5
464A
330
1A
100
AcDbEntity
  8
SEIHIN
  6
Continuous
 62
     3
 48
5.0
100
AcDbCircle
 10
538.7461109429257
 20
263.1826498672201
 30
0.0
 40
1.499999999999943
100
AcDbArc
 50
180.0
 51
0.0
  0
LINE
  5
464B
330
1A
100
AcDbEntity
  8
SEIHIN
  6
Continuous
 62
     3
 48
5.0
100
AcDbLine
 10
543.2461109429257
 20
253.6826498672202
 30
0.0
 11
540.7461109429255
 21
253.6826498672202
 31
0.0
  0
ARC
  5
464C
330
1A
100
AcDbEntity
  8
SEIHIN
  6
Continuous
 62
     3
 48
5.0
100
AcDbCircle
 10
548.2461109429257
 20
232.68264986722
 30
0.0
 40
3.250000000000153
100
AcDbArc
 50
112.6198649480403
 51
67.3801350519597
  0
LINE
  5
464D
330
1A
100
AcDbEntity
  8
CENTER L
  6
CENTER
 62
     1
 48
5.0
100
AcDbLine
 10
548.2461109429255
 20
242.6701498672201
 30
0.0
 11
548.2461109429255
 21
227.2601498672201
 31
0.0
  0
MTEXT
  5
464E
330
1A
100
AcDbEntity
  8
SUNPOU
  6
Continuous
 62
     4
100
AcDbMText
 10
565.8463300791696
 20
208.0830629078364
 30
0.0
 40
6.0
 41
0.0
 71
     7
 72
     5
  1
2-φ6.5
 73
     1
 44
1.0
  0
LEADER
  5
464F
330
1A
100
AcDbEntity
  8
SUNPOU
  6
Continuous
 62
     4
100
AcDbLeader
  3
STANDARD
 74
     0
 40
6.0
 41
31.2
 76
     3
 10
550.7192906442048
 20
230.0091043138751
 30
0.0
 10
562.3945675420782
 20
206.0830629078364
 30
0.0
 10
563.8463300791696
 20
206.0830629078364
 30
0.0
1001
ACAD
1000
DSTYLE
1002
{
1070
     6
1000
OPEN
1070
    41
1040
7.0
1070
    42
1040
6.0
1070
    43
1040
14.0
1070
    44
1040
3.0
1070
    73
1070
     0
1070
    74
1070
     0
1070
    77
1070
     3
1070
   140
1040
6.0
1070
   141
1040
150.0
1070
   147
1040
2.0
1070
   172
1070
     1
1070
   173
1070
     1
1070
   176
1070
     4
1070
   177
1070
     4
1070
   178
1070
     4
1070
   271
1070
     0
1070
   272
1070
     2
1070
   288
1070
     1
1070
   341
1005
6D
1070
   343
1005
6D
1070
   344
1005
6D
1002
}
  0
DIMENSION
  5
4650
330
1A
100
AcDbEntity
  8
SUNPOU
 48
5.0
100
AcDbDimension
  2
*D14
 10
585.9813910132598
 20
232.6826498672201
 30
0.0
 11
580.9813910132598
 21
248.1826498672202
 31
0.0
 70
    32
 71
     5
 42
30.99999999999989
  3
STANDARD
100
AcDbAlignedDimension
 13
547.2461109429257
 23
263.6826498672201
 33
0.0
 14
553.2369109429258
 24
232.6826498672202
 34
0.0
 50
90.0
100
AcDbRotatedDimension
1001
ACAD
1000
DSTYLE
1002
{
1070
   140
1040
6.0
1070
    74
1070
     0
1070
   172
1070
     1
1070
    73
1070
     0
1070
   272
1070
     2
1070
    77
1070
     3
1070
   173
1070
     1
1070
   147
1040
2.0
1070
    42
1040
6.0
1070
    44
1040
3.0
1070
    43
1040
14.0
1070
   271
1070
     0
1070
   178
1070
     4
1070
   177
1070
     4
1070
   176
1070
     4
1070
   141
1040
150.0
1070
     7
1000
_OPEN
1070
     6
1000
_OPEN
1070
    41
1040
7.0
1002
}
  0
LINE
  5
4651
330
1A
100
AcDbEntity
  8
SEIHIN
  6
Continuous
 62
     3
 48
5.0
100
AcDbLine
 10
556.2461109429255
 20
253.6826498672202
 30
0.0
 11
556.2461109429255
 21
230.6826498672202
 31
0.0
  0
LINE
  5
4652
330
1A
100
AcDbEntity
  8
SEIHIN
  6
Continuous
 62
     3
 48
5.0
100
AcDbLine
 10
549.4961109429257
 20
236.9952498672201
 30
0.0
 11
549.4961109429257
 21
235.6826498672202
 31
0.0
  0
LINE
  5
4653
330
1A
100
AcDbEntity
  8
SEIHIN
  6
Continuous
 62
     3
 48
5.0
100
AcDbLine
 10
546.9961109429255
 20
236.9952498672201
 30
0.0
 11
546.9961109429255
 21
235.6826498672202
 31
0.0
  0
ARC
  5
4654
330
1A
100
AcDbEntity
  8
SEIHIN
  6
Continuous
 62
     3
 48
5.0
100
AcDbCircle
 10
548.2461109429257
 20
238.6826498672202
 30
0.0
 40
2.099956847175788
100
AcDbArc
 50
306.5304794016188
 51
233.4695205983811
  0
LINE
  5
4655
330
1A
100
AcDbEntity
  8
SEIHIN
  6
Continuous
 62
     3
 48
5.0
100
AcDbLine
 10
556.2461109429255
 20
253.6826498672202
 30
0.0
 11
548.2461109429255
 21
258.6826498672202
 31
0.0
  0
ARC
  5
4656
330
1A
100
AcDbEntity
  8
SEIHIN
  6
Continuous
 62
     3
 48
5.0
100
AcDbCircle
 10
547.2461109429257
 20
262.6826498672201
 30
0.0
 40
0.9999999999999432
100
AcDbArc
 50
359.9999999999968
 51
89.99999999999675
  0
LINE
  5
4657
330
1A
100
AcDbEntity
  8
SEIHIN
  6
Continuous
 62
     3
 48
5.0
100
AcDbLine
 10
548.2461109429255
 20
262.6826498672201
 30
0.0
 11
548.2461109429255
 21
258.6826498672202
 31
0.0
  0
VIEWPORT
  5
22
330
17
100
AcDbEntity
 67
     1
  8
0
100
AcDbViewport
 10
313.6808219178082
 20
286.420032064001
 30
0.0
 40
627.3616438356164
 41
572.840064128002
 68
     2
 69
     1
 12
313.6808219178082
 22
286.420032064001
 13
0.0
 23
0.0
 14
1.0
 24
1.0
 15
10.0
 25
10.0
 16
0.0
 26
0.0
 36
1.0
 17
0.0
 27
0.0
 37
0.0
 42
50.0
 43
0.0
 44
0.0
 45
572.840064128002
 50
0.0
 51
0.0
 72
   100
 90
    32768
  1

281
     0
 71
     1
 74
     0
110
0.0
120
0.0
130
0.0
111
1.0
121
0.0
131
0.0
112
0.0
122
1.0
132
0.0
 79
     0
146
0.0
  0
VIEWPORT
  5
64
330
17
100
AcDbEntity
 67
     1
  8
VIEWPORT
100
AcDbViewport
 10
210.0
 20
148.5
 30
0.0
 40
420.0
 41
297.0
 68
     1
 69
     2
 12
420.0
 22
297.0
 13
0.0
 23
0.0
 14
10.0
 24
10.0
 15
0.0
 25
0.0
 16
0.0
 26
0.0
 36
1.0
 17
0.0
 27
0.0
 37
0.0
 42
50.0
 43
0.0
 44
0.0
 45
605.8799999999999
 50
0.0
 51
0.0
 72
   100
 90
    32768
  1

281
     0
 71
     1
 74
     0
110
0.0
120
0.0
130
0.0
111
1.0
121
0.0
131
0.0
112
0.0
122
1.0
132
0.0
 79
     0
146
0.0
  0
ENDSEC
  0
SECTION
  2
OBJECTS
  0
DICTIONARY
  5
C
330
0
100
AcDbDictionary
281
     1
  3
ACAD_GROUP
350
D
  3
ACAD_LAYOUT
350
A98
  3
ACAD_MLINESTYLE
350
E
  3
ACAD_PLOTSETTINGS
350
A99
  3
ACAD_PLOTSTYLENAME
350
A96
  0
DICTIONARY
  5
D
102
{ACAD_REACTORS
330
C
102
}
330
C
100
AcDbDictionary
281
     1
  3
*A1
350
FA3
  3
*A2
350
1597
  3
*A3
350
179D
  3
*A4
350
3390
  3
*A5
350
3A0A
  0
DICTIONARY
  5
A98
102
{ACAD_REACTORS
330
C
102
}
330
C
100
AcDbDictionary
281
     1
  3
Model
350
A9A
  3
ﾚｲｱｳﾄ1
350
A9B
  0
DICTIONARY
  5
E
102
{ACAD_REACTORS
330
C
102
}
330
C
100
AcDbDictionary
281
     1
  3
STANDARD
350
13
  0
DICTIONARY
  5
A99
102
{ACAD_REACTORS
330
C
102
}
330
C
100
AcDbDictionary
281
     1
  0
ACDBDICTIONARYWDFLT
  5
A96
102
{ACAD_REACTORS
330
C
102
}
330
C
100
AcDbDictionary
281
     1
  3
Normal
350
A97
100
AcDbDictionaryWithDefault
340
A97
1001
ACAD
1000
TREAT_AS_HARD
1070
     0
1000
TREAT_AS_HARD
1070
     0
1000
TREAT_AS_HARD
1070
     0
1000
TREAT_AS_HARD
1070
     0
  0
GROUP
  5
FA3
102
{ACAD_REACTORS
330
D
102
}
330
D
100
AcDbGroup
300

 70
     1
 71
     1
  0
GROUP
  5
1597
102
{ACAD_REACTORS
330
D
102
}
330
D
100
AcDbGroup
300

 70
     1
 71
     1
  0
GROUP
  5
179D
102
{ACAD_REACTORS
330
D
102
}
330
D
100
AcDbGroup
300

 70
     1
 71
     1
  0
GROUP
  5
3390
102
{ACAD_REACTORS
330
D
102
}
330
D
100
AcDbGroup
300

 70
     1
 71
     1
  0
GROUP
  5
3A0A
102
{ACAD_REACTORS
330
D
102
}
330
D
100
AcDbGroup
300

 70
     1
 71
     1
  0
LAYOUT
  5
A9A
102
{ACAD_REACTORS
330
A98
102
}
330
A98
100
AcDbPlotSettings
  1

  2
Adobe PDF
  4
A3
  6

 40
3.174999952316284
 41
3.174999952316284
 42
3.17498779296875
 43
3.17498779296875
 44
297.0318298339844
 45
420.1583251953125
 46
2.67
 47
2.85
 48
-8.09872987394283
 49
-9.441603207410708
140
808.114529312747
141
561.2334822198422
142
1.0
143
2.0
 70
 28340
 72
     1
 73
     1
 74
     4
  7
systemprinter.ctb
 75
    17
147
0.5
148
8.09872987394283
149
9.441603207410708
100
AcDbLayout
  1
Model
 70
     1
 71
     0
 10
0.0
 20
0.0
 11
12.0
 21
9.0
 12
0.0
 22
0.0
 32
0.0
 14
0.0
 24
0.0
 34
0.0
 15
0.0
 25
0.0
 35
0.0
146
0.0
 13
0.0
 23
0.0
 33
0.0
 16
1.0
 26
0.0
 36
0.0
 17
0.0
 27
1.0
 37
0.0
 76
     0
330
1A
  0
LAYOUT
  5
A9B
102
{ACAD_REACTORS
330
A98
102
}
330
A98
100
AcDbPlotSettings
  1

  2
C:\PROGRAM FILES\ACAD LT 2000\plotters\DWF ePlot.pc3
  4
ANSI_A_(8.50_x_11.00_Inches)
  6

 40
5.793749809265137
 41
17.79375076293945
 42
5.793746948242188
 43
17.79376220703125
 44
215.8999938964844
 45
279.3999938964844
 46
0.0
 47
0.0
 48
0.0
 49
0.0
140
0.0
141
0.0
142
1.0
143
43.75760864458461
 70
   688
 72
     0
 73
     1
 74
     1
  7
systemprinter.ctb
 75
     0
147
0.0228531684197454
148
0.3255366854427166
149
0.2302009418498301
100
AcDbLayout
  1
ﾚｲｱｳﾄ1
 70
     1
 71
     1
 10
-30.66685116754002
 20
-9.990190459854741
 11
450.6668334081172
 21
361.9494725043409
 12
0.0
 22
0.0
 32
0.0
 14
-0.0128164049386896
 24
-0.0090630292066862
 34
-0.0015258207003583
 15
420.0128183607162
 25
297.0090644122207
 35
0.0000000349246037
146
0.0
 13
0.0
 23
0.0
 33
0.0
 16
1.0
 26
0.0
 36
0.0
 17
0.0
 27
1.0
 37
0.0
 76
     0
330
17
331
64
  0
MLINESTYLE
  5
13
102
{ACAD_REACTORS
330
E
102
}
330
E
100
AcDbMlineStyle
  2
STANDARD
 70
     0
  3

 62
     0
 51
90.0
 52
90.0
 71
     2
 49
0.5
 62
   256
  6
BYLAYER
 49
-0.5
 62
   256
  6
BYLAYER
  0
ACDBPLACEHOLDER
  5
A97
102
{ACAD_REACTORS
330
A96
102
}
330
A96
  0
ENDSEC
  0
EOF
