  0
SECTION
  2
HEADER
  9
$ACADVER
  1
AC1015
  9
$ACADMAINTVER
 70
     6
  9
$DWGCODEPAGE
  3
ANSI_932
  9
$INSBASE
 10
0.0
 20
0.0
 30
0.0
  9
$EXTMIN
 10
0.0000000135560185
 20
-0.0000001317113174
 30
0.0
  9
$EXTMAX
 10
797.6000000135562
 20
551.5999998682888
 30
0.0
  9
$LIMMIN
 10
0.0
 20
0.0
  9
$LIMMAX
 10
840.0
 20
594.0
  9
$ORTHOMODE
 70
     0
  9
$REGENMODE
 70
     1
  9
$FILLMODE
 70
     1
  9
$QTEXTMODE
 70
     0
  9
$MIRRTEXT
 70
     1
  9
$LTSCALE
 40
2.0
  9
$ATTMODE
 70
     1
  9
$TEXTSIZE
 40
6.0
  9
$TRACEWID
 40
1.0
  9
$TEXTSTYLE
  7
STANDARD
  9
$CLAYER
  8
SEIHIN
  9
$CELTYPE
  6
BYLAYER
  9
$CECOLOR
 62
   256
  9
$CELTSCALE
 40
1.0
  9
$DISPSILH
 70
     0
  9
$DIMSCALE
 40
1.0
  9
$DIMASZ
 40
7.0
  9
$DIMEXO
 40
6.0
  9
$DIMDLI
 40
14.0
  9
$DIMRND
 40
0.0
  9
$DIMDLE
 40
0.0
  9
$DIMEXE
 40
3.0
  9
$DIMTP
 40
0.0
  9
$DIMTM
 40
0.0
  9
$DIMTXT
 40
6.0
  9
$DIMCEN
 40
150.0
  9
$DIMTSZ
 40
0.0
  9
$DIMTOL
 70
     0
  9
$DIMLIM
 70
     0
  9
$DIMTIH
 70
     0
  9
$DIMTOH
 70
     0
  9
$DIMSE1
 70
     0
  9
$DIMSE2
 70
     0
  9
$DIMTAD
 70
     3
  9
$DIMZIN
 70
     0
  9
$DIMBLK
  1

  9
$DIMASO
 70
     1
  9
$DIMSHO
 70
     1
  9
$DIMPOST
  1

  9
$DIMAPOST
  1

  9
$DIMALT
 70
     0
  9
$DIMALTD
 70
     2
  9
$DIMALTF
 40
25.4
  9
$DIMLFAC
 40
1.0
  9
$DIMTOFL
 70
     1
  9
$DIMTVP
 40
0.0
  9
$DIMTIX
 70
     0
  9
$DIMSOXD
 70
     0
  9
$DIMSAH
 70
     1
  9
$DIMBLK1
  1
OPEN
  9
$DIMBLK2
  1
OPEN
  9
$DIMSTYLE
  2
STANDARD
  9
$DIMCLRD
 70
   256
  9
$DIMCLRE
 70
   256
  9
$DIMCLRT
 70
   256
  9
$DIMTFAC
 40
1.0
  9
$DIMGAP
 40
2.0
  9
$DIMJUST
 70
     0
  9
$DIMSD1
 70
     0
  9
$DIMSD2
 70
     0
  9
$DIMTOLJ
 70
     1
  9
$DIMTZIN
 70
     0
  9
$DIMALTZ
 70
     0
  9
$DIMALTTZ
 70
     0
  9
$DIMUPT
 70
     0
  9
$DIMDEC
 70
     0
  9
$DIMTDEC
 70
     0
  9
$DIMALTU
 70
     2
  9
$DIMALTTD
 70
     2
  9
$DIMTXSTY
  7
STANDARD
  9
$DIMAUNIT
 70
     0
  9
$DIMADEC
 70
     0
  9
$DIMALTRND
 40
0.0
  9
$DIMAZIN
 70
     0
  9
$DIMDSEP
 70
    46
  9
$DIMATFIT
 70
     3
  9
$DIMFRAC
 70
     0
  9
$DIMLDRBLK
  1
OPEN
  9
$DIMLUNIT
 70
     2
  9
$DIMLWD
 70
    -1
  9
$DIMLWE
 70
    -1
  9
$DIMTMOVE
 70
     0
  9
$LUNITS
 70
     2
  9
$LUPREC
 70
     4
  9
$SKETCHINC
 40
1.0
  9
$FILLETRAD
 40
10.0
  9
$AUNITS
 70
     0
  9
$AUPREC
 70
     0
  9
$MENU
  1
.
  9
$ELEVATION
 40
0.0
  9
$PELEVATION
 40
0.0
  9
$THICKNESS
 40
0.0
  9
$LIMCHECK
 70
     0
  9
$CHAMFERA
 40
0.0
  9
$CHAMFERB
 40
0.0
  9
$CHAMFERC
 40
40.0
  9
$CHAMFERD
 40
0.0
  9
$SKPOLY
 70
     0
  9
$TDCREATE
 40
2451030.614786227
  9
$TDUCREATE
 40
2451030.239786227
  9
$TDUPDATE
 40
2455609.405060741
  9
$TDUUPDATE
 40
2455609.030060741
  9
$TDINDWG
 40
0.2767504514
  9
$TDUSRTIMER
 40
0.2767504514
  9
$USRTIMER
 70
     1
  9
$ANGBASE
 50
0.0
  9
$ANGDIR
 70
     0
  9
$PDMODE
 70
     0
  9
$PDSIZE
 40
0.0
  9
$PLINEWID
 40
0.0
  9
$SPLFRAME
 70
     0
  9
$SPLINETYPE
 70
     6
  9
$SPLINESEGS
 70
     8
  9
$HANDSEED
  5
4C4C
  9
$SURFTAB1
 70
     6
  9
$SURFTAB2
 70
     6
  9
$SURFTYPE
 70
     6
  9
$SURFU
 70
     6
  9
$SURFV
 70
     6
  9
$UCSBASE
  2

  9
$UCSNAME
  2

  9
$UCSORG
 10
0.0
 20
0.0
 30
0.0
  9
$UCSXDIR
 10
1.0
 20
0.0
 30
0.0
  9
$UCSYDIR
 10
0.0
 20
1.0
 30
0.0
  9
$UCSORTHOREF
  2

  9
$UCSORTHOVIEW
 70
     0
  9
$UCSORGTOP
 10
0.0
 20
0.0
 30
0.0
  9
$UCSORGBOTTOM
 10
0.0
 20
0.0
 30
0.0
  9
$UCSORGLEFT
 10
0.0
 20
0.0
 30
0.0
  9
$UCSORGRIGHT
 10
0.0
 20
0.0
 30
0.0
  9
$UCSORGFRONT
 10
0.0
 20
0.0
 30
0.0
  9
$UCSORGBACK
 10
0.0
 20
0.0
 30
0.0
  9
$PUCSBASE
  2

  9
$PUCSNAME
  2

  9
$PUCSORG
 10
0.0
 20
0.0
 30
0.0
  9
$PUCSXDIR
 10
1.0
 20
0.0
 30
0.0
  9
$PUCSYDIR
 10
0.0
 20
1.0
 30
0.0
  9
$PUCSORTHOREF
  2

  9
$PUCSORTHOVIEW
 70
     0
  9
$PUCSORGTOP
 10
0.0
 20
0.0
 30
0.0
  9
$PUCSORGBOTTOM
 10
0.0
 20
0.0
 30
0.0
  9
$PUCSORGLEFT
 10
0.0
 20
0.0
 30
0.0
  9
$PUCSORGRIGHT
 10
0.0
 20
0.0
 30
0.0
  9
$PUCSORGFRONT
 10
0.0
 20
0.0
 30
0.0
  9
$PUCSORGBACK
 10
0.0
 20
0.0
 30
0.0
  9
$USERI1
 70
     0
  9
$USERI2
 70
     0
  9
$USERI3
 70
     0
  9
$USERI4
 70
     0
  9
$USERI5
 70
     0
  9
$USERR1
 40
0.0
  9
$USERR2
 40
0.0
  9
$USERR3
 40
0.0
  9
$USERR4
 40
0.0
  9
$USERR5
 40
0.0
  9
$WORLDVIEW
 70
     1
  9
$SHADEDGE
 70
     3
  9
$SHADEDIF
 70
    70
  9
$TILEMODE
 70
     1
  9
$MAXACTVP
 70
    16
  9
$PINSBASE
 10
0.0
 20
0.0
 30
0.0
  9
$PLIMCHECK
 70
     0
  9
$PEXTMIN
 10
-0.0128164049386896
 20
-0.0090630292066862
 30
-0.0015258207003583
  9
$PEXTMAX
 10
420.0128183607162
 20
297.0090644122207
 30
0.0000000349246037
  9
$PLIMMIN
 10
-30.66685116754002
 20
-9.990190459854741
  9
$PLIMMAX
 10
450.6668334081172
 20
361.9494725043409
  9
$UNITMODE
 70
     0
  9
$VISRETAIN
 70
     0
  9
$PLINEGEN
 70
     0
  9
$PSLTSCALE
 70
     1
  9
$TREEDEPTH
 70
  3020
  9
$CMLSTYLE
  2
STANDARD
  9
$CMLJUST
 70
     0
  9
$CMLSCALE
 40
1.0
  9
$PROXYGRAPHICS
 70
     1
  9
$MEASUREMENT
 70
     0
  9
$CELWEIGHT
370
    -1
  9
$ENDCAPS
280
     0
  9
$JOINSTYLE
280
     0
  9
$LWDISPLAY
290
     0
  9
$INSUNITS
 70
     0
  9
$HYPERLINKBASE
  1

  9
$STYLESHEET
  1
systemprinter.ctb
  9
$XEDIT
290
     1
  9
$CEPSNTYPE
380
     0
  9
$PSTYLEMODE
290
     1
  9
$FINGERPRINTGUID
  2
{91E25F26-0CBF-4C93-982E-B5F00895E654}
  9
$VERSIONGUID
  2
{5A66719F-9EC9-4D7E-9FAF-8C569CE411B9}
  9
$EXTNAMES
290
     1
  9
$PSVPSCALE
 40
0.0
  9
$OLESTARTUP
290
     0
  0
ENDSEC
  0
SECTION
  2
CLASSES
  0
CLASS
  1
ACDBDICTIONARYWDFLT
  2
AcDbDictionaryWithDefault
  3
ObjectDBX Classes
 90
        0
280
     0
281
     0
  0
CLASS
  1
ACDBPLACEHOLDER
  2
AcDbPlaceHolder
  3
ObjectDBX Classes
 90
        0
280
     0
281
     0
  0
CLASS
  1
LAYOUT
  2
AcDbLayout
  3
ObjectDBX Classes
 90
        0
280
     0
281
     0
  0
CLASS
  1
DUMMY
  2
AcDbLongTransaction
  3
DUMMY
 90
        0
280
     0
281
     0
  0
CLASS
  1
LWPOLYLINE
  2
AcDbPolyline
  3
AutoCAD 2000
 90
        0
280
     0
281
     1
  0
CLASS
  1
HATCH
  2
AcDbHatch
  3
AutoCAD 2000
 90
        0
280
     0
281
     1
  0
CLASS
  1
XRECORD
  2
AcDbXrecord
  3
AutoCAD 2000
 90
        0
280
     0
281
     0
  0
CLASS
  1
DUMMY
  2
AcDbLongTransaction
  3
DUMMY
 90
        0
280
     0
281
     0
  0
CLASS
  1
LWPOLYLINE
  2
AcDbPolyline
  3
AutoCAD 2000
 90
        0
280
     0
281
     1
  0
CLASS
  1
HATCH
  2
AcDbHatch
  3
AutoCAD 2000
 90
        0
280
     0
281
     1
  0
CLASS
  1
XRECORD
  2
AcDbXrecord
  3
AutoCAD 2000
 90
        0
280
     0
281
     0
  0
CLASS
  1
DUMMY
  2
AcDbLongTransaction
  3
DUMMY
 90
        0
280
     0
281
     0
  0
CLASS
  1
LWPOLYLINE
  2
AcDbPolyline
  3
AutoCAD 2000
 90
        0
280
     0
281
     1
  0
CLASS
  1
HATCH
  2
AcDbHatch
  3
AutoCAD 2000
 90
        0
280
     0
281
     1
  0
CLASS
  1
XRECORD
  2
AcDbXrecord
  3
AutoCAD 2000
 90
        0
280
     0
281
     0
  0
CLASS
  1
DUMMY
  2
AcDbLongTransaction
  3
DUMMY
 90
        0
280
     0
281
     0
  0
CLASS
  1
LWPOLYLINE
  2
AcDbPolyline
  3
AutoCAD 2000
 90
        0
280
     0
281
     1
  0
CLASS
  1
HATCH
  2
AcDbHatch
  3
AutoCAD 2000
 90
        0
280
     0
281
     1
  0
CLASS
  1
XRECORD
  2
AcDbXrecord
  3
AutoCAD 2000
 90
        0
280
     0
281
     0
  0
ENDSEC
  0
SECTION
  2
TABLES
  0
TABLE
  2
VPORT
  5
8
330
0
100
AcDbSymbolTable
 70
     2
  0
VPORT
  5
4C4B
330
8
100
AcDbSymbolTableRecord
100
AcDbViewportTableRecord
  2
*Active
 70
     0
 10
0.0
 20
0.0
 11
1.0
 21
1.0
 12
411.1124883490152
 22
294.2322505179857
 13
0.0
 23
0.0
 14
5.0
 24
5.0
 15
0.0
 25
0.0
 16
0.0
 26
0.0
 36
1.0
 17
0.0
 27
0.0
 37
0.0
 40
637.4474905776094
 41
1.651537335285505
 42
50.0
 43
0.0
 44
0.0
 50
0.0
 51
0.0
 71
     0
 72
   100
 73
     1
 74
     0
 75
     0
 76
     0
 77
     0
 78
     0
281
     0
 65
     1
110
0.0
120
0.0
130
0.0
111
1.0
121
0.0
131
0.0
112
0.0
122
1.0
132
0.0
 79
     0
146
0.0
  0
ENDTAB
  0
TABLE
  2
LTYPE
  5
5
330
0
100
AcDbSymbolTable
 70
     3
  0
LTYPE
  5
14
330
5
100
AcDbSymbolTableRecord
100
AcDbLinetypeTableRecord
  2
BYBLOCK
 70
     0
  3

 72
    65
 73
     0
 40
0.0
  0
LTYPE
  5
15
330
5
100
AcDbSymbolTableRecord
100
AcDbLinetypeTableRecord
  2
BYLAYER
 70
     0
  3

 72
    65
 73
     0
 40
0.0
  0
LTYPE
  5
16
330
5
100
AcDbSymbolTableRecord
100
AcDbLinetypeTableRecord
  2
CONTINUOUS
 70
     0
  3
Solid line
 72
    65
 73
     0
 40
0.0
  0
LTYPE
  5
115
330
5
100
AcDbSymbolTableRecord
100
AcDbLinetypeTableRecord
  2
PHANTOM
 70
     0
  3
______  __  __  ______  __  __  ______  __  __ 
 72
    65
 73
     6
 40
2.5
 49
1.25
 74
     0
 49
-0.25
 74
     0
 49
0.25
 74
     0
 49
-0.25
 74
     0
 49
0.25
 74
     0
 49
-0.25
 74
     0
  0
LTYPE
  5
135
330
5
100
AcDbSymbolTableRecord
100
AcDbLinetypeTableRecord
  2
CENTER
 70
     0
  3
____ _ ____ _ ____ _ ____ _ ____ _ ____ _ ____ 
 72
    65
 73
     4
 40
2.0
 49
1.25
 74
     0
 49
-0.25
 74
     0
 49
0.25
 74
     0
 49
-0.25
 74
     0
  0
ENDTAB
  0
TABLE
  2
LAYER
  5
2
330
0
100
AcDbSymbolTable
 70
     8
  0
LAYER
  5
F
330
2
100
AcDbSymbolTableRecord
100
AcDbLayerTableRecord
  2
0
 70
     0
 62
     7
  6
CONTINUOUS
370
    -3
390
A97
  0
LAYER
  5
62
330
2
100
AcDbSymbolTableRecord
100
AcDbLayerTableRecord
  2
VIEWPORT
 70
     0
 62
     7
  6
CONTINUOUS
370
    -3
390
A97
  0
LAYER
  5
143
330
2
100
AcDbSymbolTableRecord
100
AcDbLayerTableRecord
  2
SEIHIN
 70
     0
 62
     3
  6
CONTINUOUS
370
    -3
390
A97
  0
LAYER
  5
444
330
2
100
AcDbSymbolTableRecord
100
AcDbLayerTableRecord
  2
DEFPOINTS
 70
     0
 62
     7
  6
CONTINUOUS
290
     0
370
    -3
390
A97
  0
LAYER
  5
482
330
2
100
AcDbSymbolTableRecord
100
AcDbLayerTableRecord
  2
SUNPOU
 70
     0
 62
     4
  6
CONTINUOUS
370
    -3
390
A97
  0
LAYER
  5
5D4
330
2
100
AcDbSymbolTableRecord
100
AcDbLayerTableRecord
  2
CENTER L
 70
     0
 62
     1
  6
CENTER
370
    -3
390
A97
  0
LAYER
  5
3D95
330
2
100
AcDbSymbolTableRecord
100
AcDbLayerTableRecord
  2
ZUWAKU
 70
     0
 62
     7
  6
CONTINUOUS
370
    -3
390
A97
  0
LAYER
  5
3D96
330
2
100
AcDbSymbolTableRecord
100
AcDbLayerTableRecord
  2
moji
 70
     0
 62
     2
  6
CONTINUOUS
370
    -3
390
A97
  0
ENDTAB
  0
TABLE
  2
STYLE
  5
3
330
0
100
AcDbSymbolTable
 70
     2
  0
STYLE
  5
10
330
3
100
AcDbSymbolTableRecord
100
AcDbTextStyleTableRecord
  2
STANDARD
 70
     0
 40
0.0
 41
1.0
 50
0.0
 71
     0
 42
6.0
  3
TXT
  4
bigfont.shx
  0
STYLE
  5
3D97
330
3
100
AcDbSymbolTableRecord
100
AcDbTextStyleTableRecord
  2
ｽﾀｲﾙ1
 70
     0
 40
0.0
 41
1.0
 50
0.0
 71
     0
 42
2.5
  3
MS PGothic.ttf
  4

1001
ACAD
1000
MS PGothic
1071
    32818
  0
ENDTAB
  0
TABLE
  2
VIEW
  5
6
330
0
100
AcDbSymbolTable
 70
     0
  0
ENDTAB
  0
TABLE
  2
UCS
  5
7
330
0
100
AcDbSymbolTable
 70
     0
  0
ENDTAB
  0
TABLE
  2
APPID
  5
9
330
0
100
AcDbSymbolTable
 70
     1
  0
APPID
  5
11
330
9
100
AcDbSymbolTableRecord
100
AcDbRegAppTableRecord
  2
ACAD
 70
     0
  0
ENDTAB
  0
TABLE
  2
DIMSTYLE
  5
A
330
0
100
AcDbSymbolTable
 70
     1
100
AcDbDimStyleTable
  0
DIMSTYLE
105
1D
102
{ACAD_REACTORS
330
49EC
330
49ED
330
49EF
330
49F1
330
49F2
330
49F3
330
49F4
330
4A3E
330
4A63
330
4AC9
330
4ACA
330
4ACB
330
4AE3
330
4AE8
102
}
330
A
100
AcDbSymbolTableRecord
100
AcDbDimStyleTableRecord
  2
STANDARD
 70
     0
340
10
  0
ENDTAB
  0
TABLE
  2
BLOCK_RECORD
  5
1
330
0
100
AcDbSymbolTable
 70
    15
  0
BLOCK_RECORD
  5
1A
330
1
100
AcDbSymbolTableRecord
100
AcDbBlockTableRecord
  2
*MODEL_SPACE
340
A9A
  0
BLOCK_RECORD
  5
17
330
1
100
AcDbSymbolTableRecord
100
AcDbBlockTableRecord
  2
*PAPER_SPACE
340
A9B
  0
BLOCK_RECORD
  5
6D
330
1
100
AcDbSymbolTableRecord
100
AcDbBlockTableRecord
  2
_OPEN
340
0
102
{BLKREFS
331
4BC4
331
4BC5
331
4BCF
331
4BD0
331
4BD8
331
4BD9
331
4BE1
331
4BE2
331
4BEA
331
4BEB
331
4BF3
331
4BF4
331
4BFC
331
4BFD
331
4C07
331
4C08
331
4C10
331
4C11
331
4C19
331
4C1A
331
4C22
331
4C23
331
4C2B
331
4C2C
331
4C34
331
4C35
331
4C3F
331
4C40
102
}
  0
BLOCK_RECORD
  5
4B13
330
1
100
AcDbSymbolTableRecord
100
AcDbBlockTableRecord
  2
*D1
340
0
  0
BLOCK_RECORD
  5
4B1F
330
1
100
AcDbSymbolTableRecord
100
AcDbBlockTableRecord
  2
*D2
340
0
  0
BLOCK_RECORD
  5
4B2D
330
1
100
AcDbSymbolTableRecord
100
AcDbBlockTableRecord
  2
*D3
340
0
  0
BLOCK_RECORD
  5
4B39
330
1
100
AcDbSymbolTableRecord
100
AcDbBlockTableRecord
  2
*D4
340
0
  0
BLOCK_RECORD
  5
4B45
330
1
100
AcDbSymbolTableRecord
100
AcDbBlockTableRecord
  2
*D5
340
0
  0
BLOCK_RECORD
  5
4B51
330
1
100
AcDbSymbolTableRecord
100
AcDbBlockTableRecord
  2
*D6
340
0
  0
BLOCK_RECORD
  5
4B5D
330
1
100
AcDbSymbolTableRecord
100
AcDbBlockTableRecord
  2
*D7
340
0
  0
BLOCK_RECORD
  5
4B69
330
1
100
AcDbSymbolTableRecord
100
AcDbBlockTableRecord
  2
*D8
340
0
  0
BLOCK_RECORD
  5
4B77
330
1
100
AcDbSymbolTableRecord
100
AcDbBlockTableRecord
  2
*D9
340
0
  0
BLOCK_RECORD
  5
4B83
330
1
100
AcDbSymbolTableRecord
100
AcDbBlockTableRecord
  2
*D10
340
0
  0
BLOCK_RECORD
  5
4B8F
330
1
100
AcDbSymbolTableRecord
100
AcDbBlockTableRecord
  2
*D11
340
0
  0
BLOCK_RECORD
  5
4B9B
330
1
100
AcDbSymbolTableRecord
100
AcDbBlockTableRecord
  2
*D12
340
0
  0
BLOCK_RECORD
  5
4BA7
330
1
100
AcDbSymbolTableRecord
100
AcDbBlockTableRecord
  2
*D13
340
0
  0
BLOCK_RECORD
  5
4BB3
330
1
100
AcDbSymbolTableRecord
100
AcDbBlockTableRecord
  2
*D14
340
0
  0
ENDTAB
  0
ENDSEC
  0
SECTION
  2
BLOCKS
  0
BLOCK
  5
1B
330
1A
100
AcDbEntity
  8
0
100
AcDbBlockBegin
  2
*MODEL_SPACE
 70
     0
 71
     0
 10
0.0
 20
0.0
 30
0.0
  3
*MODEL_SPACE
  1

  0
ENDBLK
  5
1C
330
1A
100
AcDbEntity
  8
0
100
AcDbBlockEnd
  0
BLOCK
  5
18
330
17
100
AcDbEntity
 67
     1
  8
0
100
AcDbBlockBegin
  2
*PAPER_SPACE
 70
     0
 71
     0
 10
0.0
 20
0.0
 30
0.0
  3
*PAPER_SPACE
  1

  0
ENDBLK
  5
19
330
17
100
AcDbEntity
 67
     1
  8
0
100
AcDbBlockEnd
  0
BLOCK
  5
6E
330
6D
100
AcDbEntity
  8
0
100
AcDbBlockBegin
  2
_OPEN
 70
     0
 71
     0
 10
0.0
 20
0.0
 30
0.0
  3
_OPEN
  1

  0
LINE
  5
6F
330
6D
100
AcDbEntity
  8
0
  6
ByBlock
 62
     0
100
AcDbLine
 10
-1.0
 20
0.1666666666666667
 30
0.0
 11
0.0
 21
0.0
 31
0.0
  0
LINE
  5
70
330
6D
100
AcDbEntity
  8
0
  6
ByBlock
 62
     0
100
AcDbLine
 10
0.0
 20
0.0
 30
0.0
 11
-1.0
 21
-0.1666666666666667
 31
0.0
  0
LINE
  5
71
330
6D
100
AcDbEntity
  8
0
  6
ByBlock
 62
     0
100
AcDbLine
 10
0.0
 20
0.0
 30
0.0
 11
-1.0
 21
0.0
 31
0.0
  0
ENDBLK
  5
72
330
6D
100
AcDbEntity
  8
0
100
AcDbBlockEnd
  0
BLOCK
  5
4B1D
330
4B13
100
AcDbEntity
  8
0
100
AcDbBlockBegin
  2
*D1
 70
     1
 71
     0
 10
0.0
 20
0.0
 30
0.0
  3
*D1
  1

  0
LINE
  5
4BC1
330
4B13
100
AcDbEntity
  8
SUNPOU
 62
     4
370
    -2
100
AcDbLine
 10
387.0578488978509
 20
252.0553599904609
 30
0.0
 11
402.3321422842875
 21
258.1639806447379
 31
0.0
  0
LINE
  5
4BC2
330
4B13
100
AcDbEntity
  8
SUNPOU
 62
     4
370
    -2
100
AcDbLine
 10
411.8096230286271
 20
190.1648152496322
 30
0.0
 11
427.0839164150636
 21
196.2734359039093
 31
0.0
  0
LINE
  5
4BC3
330
4B13
100
AcDbEntity
  8
SUNPOU
 62
     4
370
    -2
100
AcDbLine
 10
402.1459756822617
 20
250.550483288313
 30
0.0
 11
421.6990849514633
 21
201.6589340339451
 31
0.0
  0
INSERT
  5
4BC4
330
4B13
100
AcDbEntity
  8
SUNPOU
 62
     4
370
    -2
100
AcDbBlockReference
  2
_OPEN
 10
399.5466432514745
 20
257.0499810315434
 30
0.0
 41
7.0
 42
7.0
 43
7.0
 50
111.7978629678616
  0
INSERT
  5
4BC5
330
4B13
100
AcDbEntity
  8
SUNPOU
 62
     4
370
    -2
100
AcDbBlockReference
  2
_OPEN
 10
424.2984173822506
 20
195.1594362907147
 30
0.0
 41
7.0
 42
7.0
 43
7.0
 50
291.7978629678617
  0
MTEXT
  5
4BC6
330
4B13
100
AcDbEntity
  8
SUNPOU
 62
     4
100
AcDbMText
 10
422.9995844999014
 20
211.8720971543752
 30
0.0
 40
6.0
 41
0.0
 71
     5
 72
     1
  1
\A1;67
 11
0.3713332043981871
 21
-0.9284996776043459
 31
0.0
 73
     1
 44
1.0
  0
POINT
  5
4BC7
330
4B13
100
AcDbEntity
  8
DEFPOINTS
 62
     0
100
AcDbPoint
 10
381.4868508322249
 20
249.8273607640717
 30
0.0
  0
POINT
  5
4BC8
330
4B13
100
AcDbEntity
  8
DEFPOINTS
 62
     0
100
AcDbPoint
 10
406.2386249630011
 20
187.9368160232431
 30
0.0
  0
POINT
  5
4BC9
330
4B13
100
AcDbEntity
  8
DEFPOINTS
 62
     0
100
AcDbPoint
 10
424.2984173822506
 20
195.1594362907147
 30
0.0
  0
ENDBLK
  5
4B1E
330
4B13
100
AcDbEntity
  8
0
100
AcDbBlockEnd
  0
BLOCK
  5
4B2B
330
4B1F
100
AcDbEntity
  8
0
100
AcDbBlockBegin
  2
*D2
 70
     1
 71
     0
 10
0.0
 20
0.0
 30
0.0
  3
*D2
  1

  0
LINE
  5
4BCA
330
4B1F
100
AcDbEntity
  8
SUNPOU
 62
     4
370
    -2
100
AcDbLine
 10
408.4107574610039
 20
182.3434752775155
 30
0.0
 11
415.7758486757953
 21
163.9274415442987
 31
0.0
  0
LINE
  5
4BCB
330
4B1F
100
AcDbEntity
  8
SUNPOU
 62
     4
370
    -2
100
AcDbLine
 10
407.296557461004
 20
181.8978752775157
 30
0.0
 11
414.6616486757955
 21
163.4818415442988
 31
0.0
  0
LINE
  5
4BCC
330
4B1F
100
AcDbEntity
  8
SUNPOU
 62
     4
370
    -2
100
AcDbLine
 10
421.1613468058312
 20
169.312273007899
 30
0.0
 11
427.6608445490617
 21
171.9116054386863
 31
0.0
  0
LINE
  5
4BCD
330
4B1F
100
AcDbEntity
  8
SUNPOU
 62
     4
370
    -2
100
AcDbLine
 10
407.0481513193705
 20
163.6680081463245
 30
0.0
 11
381.9786600240531
 21
153.6420116275735
 31
0.0
  0
LINE
  5
4BCE
330
4B1F
100
AcDbEntity
  8
SUNPOU
 62
     4
370
    -2
100
AcDbLine
 10
414.6618490626008
 20
166.7129405771117
 30
0.0
 11
413.5476490626009
 21
166.2673405771118
 31
0.0
  0
INSERT
  5
4BCF
330
4B1F
100
AcDbEntity
  8
SUNPOU
 62
     4
370
    -2
100
AcDbBlockReference
  2
_OPEN
 10
414.6618490626008
 20
166.7129405771117
 30
0.0
 41
7.0
 42
7.0
 43
7.0
 50
201.7978629678615
  0
INSERT
  5
4BD0
330
4B1F
100
AcDbEntity
  8
SUNPOU
 62
     4
370
    -2
100
AcDbBlockReference
  2
_OPEN
 10
413.5476490626009
 20
166.2673405771118
 30
0.0
 41
7.0
 42
7.0
 43
7.0
 50
21.79786296786153
  0
MTEXT
  5
4BD1
330
4B1F
100
AcDbEntity
  8
SUNPOU
 62
     4
100
AcDbMText
 10
389.4069907781057
 20
161.9978420595771
 30
0.0
 40
6.0
 41
0.0
 71
     5
 72
     1
  1
\A1;t1.2
 11
0.9284996776043466
 21
0.3713332043981854
 31
0.0
 73
     1
 44
1.0
  0
POINT
  5
4BD2
330
4B1F
100
AcDbEntity
  8
DEFPOINTS
 62
     0
100
AcDbPoint
 10
406.1827582346148
 20
187.9144733431416
 30
0.0
  0
POINT
  5
4BD3
330
4B1F
100
AcDbEntity
  8
DEFPOINTS
 62
     0
100
AcDbPoint
 10
405.0685582346148
 20
187.4688733431418
 30
0.0
  0
POINT
  5
4BD4
330
4B1F
100
AcDbEntity
  8
DEFPOINTS
 62
     0
100
AcDbPoint
 10
413.5476490626009
 20
166.2673405771118
 30
0.0
  0
ENDBLK
  5
4B2C
330
4B1F
100
AcDbEntity
  8
0
100
AcDbBlockEnd
  0
BLOCK
  5
4B37
330
4B2D
100
AcDbEntity
  8
0
100
AcDbBlockBegin
  2
*D3
 70
     1
 71
     0
 10
0.0
 20
0.0
 30
0.0
  3
*D3
  1

  0
LINE
  5
4BD5
330
4B2D
100
AcDbEntity
  8
SUNPOU
 62
     4
370
    -2
100
AcDbLine
 10
399.741958234615
 20
420.5152617897088
 30
0.0
 11
439.2038576499072
 21
420.5152617897088
 31
0.0
  0
LINE
  5
4BD6
330
4B2D
100
AcDbEntity
  8
SUNPOU
 62
     4
370
    -2
100
AcDbLine
 10
399.741958234615
 20
365.5152617897087
 30
0.0
 11
439.2038576499072
 21
365.5152617897087
 31
0.0
  0
LINE
  5
4BD7
330
4B2D
100
AcDbEntity
  8
SUNPOU
 62
     4
370
    -2
100
AcDbLine
 10
436.2038576499072
 20
413.5152617897088
 30
0.0
 11
436.2038576499072
 21
372.5152617897087
 31
0.0
  0
INSERT
  5
4BD8
330
4B2D
100
AcDbEntity
  8
SUNPOU
 62
     4
370
    -2
100
AcDbBlockReference
  2
_OPEN
 10
436.2038576499072
 20
420.5152617897088
 30
0.0
 41
7.0
 42
7.0
 43
7.0
 50
90.0
  0
INSERT
  5
4BD9
330
4B2D
100
AcDbEntity
  8
SUNPOU
 62
     4
370
    -2
100
AcDbBlockReference
  2
_OPEN
 10
436.2038576499072
 20
365.5152617897087
 30
0.0
 41
7.0
 42
7.0
 43
7.0
 50
270.0
  0
MTEXT
  5
4BDA
330
4B2D
100
AcDbEntity
  8
SUNPOU
 62
     4
100
AcDbMText
 10
431.2038576499071
 20
393.0152617897089
 30
0.0
 40
6.0
 41
0.0
 71
     5
 72
     1
  1
\A1;55
 11
6.123031769111886E-17
 21
1.0
 31
0.0
 73
     1
 44
1.0
  0
POINT
  5
4BDB
330
4B2D
100
AcDbEntity
  8
DEFPOINTS
 62
     0
100
AcDbPoint
 10
393.741958234615
 20
420.5152617897088
 30
0.0
  0
POINT
  5
4BDC
330
4B2D
100
AcDbEntity
  8
DEFPOINTS
 62
     0
100
AcDbPoint
 10
393.741958234615
 20
365.5152617897087
 30
0.0
  0
POINT
  5
4BDD
330
4B2D
100
AcDbEntity
  8
DEFPOINTS
 62
     0
100
AcDbPoint
 10
436.2038576499072
 20
365.5152617897087
 30
0.0
  0
ENDBLK
  5
4B38
330
4B2D
100
AcDbEntity
  8
0
100
AcDbBlockEnd
  0
BLOCK
  5
4B43
330
4B39
100
AcDbEntity
  8
0
100
AcDbBlockBegin
  2
*D4
 70
     1
 71
     0
 10
0.0
 20
0.0
 30
0.0
  3
*D4
  1

  0
LINE
  5
4BDE
330
4B39
100
AcDbEntity
  8
SUNPOU
 62
     4
370
    -2
100
AcDbLine
 10
381.4868508322248
 20
255.8273607640717
 30
0.0
 11
381.4868508322248
 21
302.3544623777343
 31
0.0
  0
LINE
  5
4BDF
330
4B39
100
AcDbEntity
  8
SUNPOU
 62
     4
370
    -2
100
AcDbLine
 10
251.232258234615
 20
249.3372733431417
 30
0.0
 11
251.232258234615
 21
302.3544623777343
 31
0.0
  0
LINE
  5
4BE0
330
4B39
100
AcDbEntity
  8
SUNPOU
 62
     4
370
    -2
100
AcDbLine
 10
374.4868508322248
 20
299.3544623777343
 30
0.0
 11
258.232258234615
 21
299.3544623777343
 31
0.0
  0
INSERT
  5
4BE1
330
4B39
100
AcDbEntity
  8
SUNPOU
 62
     4
370
    -2
100
AcDbBlockReference
  2
_OPEN
 10
381.4868508322248
 20
299.3544623777343
 30
0.0
 41
7.0
 42
7.0
 43
7.0
  0
INSERT
  5
4BE2
330
4B39
100
AcDbEntity
  8
SUNPOU
 62
     4
370
    -2
100
AcDbBlockReference
  2
_OPEN
 10
251.232258234615
 20
299.3544623777343
 30
0.0
 41
7.0
 42
7.0
 43
7.0
 50
180.0
  0
MTEXT
  5
4BE3
330
4B39
100
AcDbEntity
  8
SUNPOU
 62
     4
100
AcDbMText
 10
316.3595545334199
 20
304.3544623777343
 30
0.0
 40
6.0
 41
0.0
 71
     5
 72
     1
  1
\A1;130
 73
     1
 44
1.0
  0
POINT
  5
4BE4
330
4B39
100
AcDbEntity
  8
DEFPOINTS
 62
     0
100
AcDbPoint
 10
381.4868508322248
 20
249.8273607640717
 30
0.0
  0
POINT
  5
4BE5
330
4B39
100
AcDbEntity
  8
DEFPOINTS
 62
     0
100
AcDbPoint
 10
251.232258234615
 20
243.3372733431417
 30
0.0
  0
POINT
  5
4BE6
330
4B39
100
AcDbEntity
  8
DEFPOINTS
 62
     0
100
AcDbPoint
 10
251.232258234615
 20
299.3544623777343
 30
0.0
  0
ENDBLK
  5
4B44
330
4B39
100
AcDbEntity
  8
0
100
AcDbBlockEnd
  0
BLOCK
  5
4B4F
330
4B45
100
AcDbEntity
  8
0
100
AcDbBlockBegin
  2
*D5
 70
     1
 71
     0
 10
0.0
 20
0.0
 30
0.0
  3
*D5
  1

  0
LINE
  5
4BE7
330
4B45
100
AcDbEntity
  8
SUNPOU
 62
     4
370
    -2
100
AcDbLine
 10
381.486850832225
 20
255.8273607640717
 30
0.0
 11
381.486850832225
 21
302.3544623777343
 31
0.0
  0
LINE
  5
4BE8
330
4B45
100
AcDbEntity
  8
SUNPOU
 62
     4
370
    -2
100
AcDbLine
 10
416.4868508322248
 20
255.6587649920094
 30
0.0
 11
416.4868508322248
 21
302.3544623777343
 31
0.0
  0
LINE
  5
4BE9
330
4B45
100
AcDbEntity
  8
SUNPOU
 62
     4
370
    -2
100
AcDbLine
 10
388.486850832225
 20
299.3544623777343
 30
0.0
 11
409.4868508322248
 21
299.3544623777343
 31
0.0
  0
INSERT
  5
4BEA
330
4B45
100
AcDbEntity
  8
SUNPOU
 62
     4
370
    -2
100
AcDbBlockReference
  2
_OPEN
 10
381.486850832225
 20
299.3544623777343
 30
0.0
 41
7.0
 42
7.0
 43
7.0
 50
180.0
  0
INSERT
  5
4BEB
330
4B45
100
AcDbEntity
  8
SUNPOU
 62
     4
370
    -2
100
AcDbBlockReference
  2
_OPEN
 10
416.4868508322248
 20
299.3544623777343
 30
0.0
 41
7.0
 42
7.0
 43
7.0
  0
MTEXT
  5
4BEC
330
4B45
100
AcDbEntity
  8
SUNPOU
 62
     4
100
AcDbMText
 10
398.9868508322248
 20
304.3544623777343
 30
0.0
 40
6.0
 41
0.0
 71
     5
 72
     1
  1
\A1;35
 73
     1
 44
1.0
  0
POINT
  5
4BED
330
4B45
100
AcDbEntity
  8
DEFPOINTS
 62
     0
100
AcDbPoint
 10
381.486850832225
 20
249.8273607640717
 30
0.0
  0
POINT
  5
4BEE
330
4B45
100
AcDbEntity
  8
DEFPOINTS
 62
     0
100
AcDbPoint
 10
416.4868508322248
 20
249.6587649920094
 30
0.0
  0
POINT
  5
4BEF
330
4B45
100
AcDbEntity
  8
DEFPOINTS
 62
     0
100
AcDbPoint
 10
416.4868508322248
 20
299.3544623777343
 30
0.0
  0
ENDBLK
  5
4B50
330
4B45
100
AcDbEntity
  8
0
100
AcDbBlockEnd
  0
BLOCK
  5
4B5B
330
4B51
100
AcDbEntity
  8
0
100
AcDbBlockBegin
  2
*D6
 70
     1
 71
     0
 10
0.0
 20
0.0
 30
0.0
  3
*D6
  1

  0
LINE
  5
4BF0
330
4B51
100
AcDbEntity
  8
SUNPOU
 62
     4
370
    -2
100
AcDbLine
 10
282.232258234615
 20
220.0371733431417
 30
0.0
 11
282.232258234615
 21
287.8526502368691
 31
0.0
  0
LINE
  5
4BF1
330
4B51
100
AcDbEntity
  8
SUNPOU
 62
     4
370
    -2
100
AcDbLine
 10
381.486850832225
 20
255.8273607640717
 30
0.0
 11
381.486850832225
 21
287.8526502368691
 31
0.0
  0
LINE
  5
4BF2
330
4B51
100
AcDbEntity
  8
SUNPOU
 62
     4
370
    -2
100
AcDbLine
 10
289.232258234615
 20
284.8526502368691
 30
0.0
 11
374.486850832225
 21
284.8526502368691
 31
0.0
  0
INSERT
  5
4BF3
330
4B51
100
AcDbEntity
  8
SUNPOU
 62
     4
370
    -2
100
AcDbBlockReference
  2
_OPEN
 10
282.232258234615
 20
284.8526502368691
 30
0.0
 41
7.0
 42
7.0
 43
7.0
 50
180.0
  0
INSERT
  5
4BF4
330
4B51
100
AcDbEntity
  8
SUNPOU
 62
     4
370
    -2
100
AcDbBlockReference
  2
_OPEN
 10
381.486850832225
 20
284.8526502368691
 30
0.0
 41
7.0
 42
7.0
 43
7.0
  0
MTEXT
  5
4BF5
330
4B51
100
AcDbEntity
  8
SUNPOU
 62
     4
100
AcDbMText
 10
331.85955453342
 20
289.8526502368691
 30
0.0
 40
6.0
 41
0.0
 71
     5
 72
     1
  1
\A1;99
 73
     1
 44
1.0
  0
POINT
  5
4BF6
330
4B51
100
AcDbEntity
  8
DEFPOINTS
 62
     0
100
AcDbPoint
 10
282.232258234615
 20
214.0371733431417
 30
0.0
  0
POINT
  5
4BF7
330
4B51
100
AcDbEntity
  8
DEFPOINTS
 62
     0
100
AcDbPoint
 10
381.486850832225
 20
249.8273607640717
 30
0.0
  0
POINT
  5
4BF8
330
4B51
100
AcDbEntity
  8
DEFPOINTS
 62
     0
100
AcDbPoint
 10
381.486850832225
 20
284.8526502368691
 30
0.0
  0
ENDBLK
  5
4B5C
330
4B51
100
AcDbEntity
  8
0
100
AcDbBlockEnd
  0
BLOCK
  5
4B67
330
4B5D
100
AcDbEntity
  8
0
100
AcDbBlockBegin
  2
*D7
 70
     1
 71
     0
 10
0.0
 20
0.0
 30
0.0
  3
*D7
  1

  0
LINE
  5
4BF9
330
4B5D
100
AcDbEntity
  8
SUNPOU
 62
     4
370
    -2
100
AcDbLine
 10
245.232258234615
 20
243.3372733431417
 30
0.0
 11
213.1023677121553
 21
243.3372733431417
 31
0.0
  0
LINE
  5
4BFA
330
4B5D
100
AcDbEntity
  8
SUNPOU
 62
     4
370
    -2
100
AcDbLine
 10
399.0685582346148
 20
187.4688733431417
 30
0.0
 11
213.1023677121552
 21
187.4688733431417
 31
0.0
  0
LINE
  5
4BFB
330
4B5D
100
AcDbEntity
  8
SUNPOU
 62
     4
370
    -2
100
AcDbLine
 10
216.1023677121553
 20
236.3372733431417
 30
0.0
 11
216.1023677121553
 21
194.4688733431417
 31
0.0
  0
INSERT
  5
4BFC
330
4B5D
100
AcDbEntity
  8
SUNPOU
 62
     4
370
    -2
100
AcDbBlockReference
  2
_OPEN
 10
216.1023677121553
 20
243.3372733431417
 30
0.0
 41
7.0
 42
7.0
 43
7.0
 50
90.0
  0
INSERT
  5
4BFD
330
4B5D
100
AcDbEntity
  8
SUNPOU
 62
     4
370
    -2
100
AcDbBlockReference
  2
_OPEN
 10
216.1023677121552
 20
187.4688733431417
 30
0.0
 41
7.0
 42
7.0
 43
7.0
 50
270.0
  0
MTEXT
  5
4BFE
330
4B5D
100
AcDbEntity
  8
SUNPOU
 62
     4
100
AcDbMText
 10
211.1023677121552
 20
215.4030733431417
 30
0.0
 40
6.0
 41
0.0
 71
     5
 72
     1
  1
\A1;56
 11
6.123031769111886E-17
 21
1.0
 31
0.0
 73
     1
 44
1.0
  0
POINT
  5
4BFF
330
4B5D
100
AcDbEntity
  8
DEFPOINTS
 62
     0
100
AcDbPoint
 10
251.232258234615
 20
243.3372733431417
 30
0.0
  0
POINT
  5
4C00
330
4B5D
100
AcDbEntity
  8
DEFPOINTS
 62
     0
100
AcDbPoint
 10
405.0685582346148
 20
187.4688733431417
 30
0.0
  0
POINT
  5
4C01
330
4B5D
100
AcDbEntity
  8
DEFPOINTS
 62
     0
100
AcDbPoint
 10
216.1023677121552
 20
187.4688733431417
 30
0.0
  0
ENDBLK
  5
4B68
330
4B5D
100
AcDbEntity
  8
0
100
AcDbBlockEnd
  0
BLOCK
  5
4B75
330
4B69
100
AcDbEntity
  8
0
100
AcDbBlockBegin
  2
*D8
 70
     1
 71
     0
 10
0.0
 20
0.0
 30
0.0
  3
*D8
  1

  0
LINE
  5
4C02
330
4B69
100
AcDbEntity
  8
SUNPOU
 62
     4
370
    -2
100
AcDbLine
 10
371.732258234615
 20
231.6372733431417
 30
0.0
 11
371.732258234615
 21
273.8687589019437
 31
0.0
  0
LINE
  5
4C03
330
4B69
100
AcDbEntity
  8
SUNPOU
 62
     4
370
    -2
100
AcDbLine
 10
381.486850832225
 20
255.8273607640717
 30
0.0
 11
381.486850832225
 21
273.8687589019437
 31
0.0
  0
LINE
  5
4C04
330
4B69
100
AcDbEntity
  8
SUNPOU
 62
     4
370
    -2
100
AcDbLine
 10
388.486850832225
 20
270.8687589019437
 30
0.0
 11
395.486850832225
 21
270.8687589019437
 31
0.0
  0
LINE
  5
4C05
330
4B69
100
AcDbEntity
  8
SUNPOU
 62
     4
370
    -2
100
AcDbLine
 10
364.732258234615
 20
270.8687589019437
 30
0.0
 11
346.732258234615
 21
270.8687589019437
 31
0.0
  0
LINE
  5
4C06
330
4B69
100
AcDbEntity
  8
SUNPOU
 62
     4
370
    -2
100
AcDbLine
 10
381.486850832225
 20
270.8687589019437
 30
0.0
 11
371.732258234615
 21
270.8687589019437
 31
0.0
  0
INSERT
  5
4C07
330
4B69
100
AcDbEntity
  8
SUNPOU
 62
     4
370
    -2
100
AcDbBlockReference
  2
_OPEN
 10
381.486850832225
 20
270.8687589019437
 30
0.0
 41
7.0
 42
7.0
 43
7.0
 50
180.0
  0
INSERT
  5
4C08
330
4B69
100
AcDbEntity
  8
SUNPOU
 62
     4
370
    -2
100
AcDbBlockReference
  2
_OPEN
 10
371.732258234615
 20
270.8687589019437
 30
0.0
 41
7.0
 42
7.0
 43
7.0
  0
MTEXT
  5
4C09
330
4B69
100
AcDbEntity
  8
SUNPOU
 62
     4
100
AcDbMText
 10
352.232258234615
 20
275.8687589019437
 30
0.0
 40
6.0
 41
0.0
 71
     5
 72
     1
  1
\A1;10
 73
     1
 44
1.0
  0
POINT
  5
4C0A
330
4B69
100
AcDbEntity
  8
DEFPOINTS
 62
     0
100
AcDbPoint
 10
371.732258234615
 20
225.6372733431417
 30
0.0
  0
POINT
  5
4C0B
330
4B69
100
AcDbEntity
  8
DEFPOINTS
 62
     0
100
AcDbPoint
 10
381.486850832225
 20
249.8273607640717
 30
0.0
  0
POINT
  5
4C0C
330
4B69
100
AcDbEntity
  8
DEFPOINTS
 62
     0
100
AcDbPoint
 10
381.486850832225
 20
270.8687589019437
 30
0.0
  0
ENDBLK
  5
4B76
330
4B69
100
AcDbEntity
  8
0
100
AcDbBlockEnd
  0
BLOCK
  5
4B81
330
4B77
100
AcDbEntity
  8
0
100
AcDbBlockBegin
  2
*D9
 70
     1
 71
     0
 10
0.0
 20
0.0
 30
0.0
  3
*D9
  1

  0
LINE
  5
4C0D
330
4B77
100
AcDbEntity
  8
SUNPOU
 62
     4
370
    -2
100
AcDbLine
 10
245.2323582346149
 20
404.0152617897087
 30
0.0
 11
213.1023677121552
 21
404.0152617897087
 31
0.0
  0
LINE
  5
4C0E
330
4B77
100
AcDbEntity
  8
SUNPOU
 62
     4
370
    -2
100
AcDbLine
 10
245.232258234615
 20
382.0152617897087
 30
0.0
 11
213.1023677121552
 21
382.0152617897087
 31
0.0
  0
LINE
  5
4C0F
330
4B77
100
AcDbEntity
  8
SUNPOU
 62
     4
370
    -2
100
AcDbLine
 10
216.1023677121552
 20
397.0152617897087
 30
0.0
 11
216.1023677121552
 21
389.0152617897087
 31
0.0
  0
INSERT
  5
4C10
330
4B77
100
AcDbEntity
  8
SUNPOU
 62
     4
370
    -2
100
AcDbBlockReference
  2
_OPEN
 10
216.1023677121552
 20
404.0152617897087
 30
0.0
 41
7.0
 42
7.0
 43
7.0
 50
90.0
  0
INSERT
  5
4C11
330
4B77
100
AcDbEntity
  8
SUNPOU
 62
     4
370
    -2
100
AcDbBlockReference
  2
_OPEN
 10
216.1023677121552
 20
382.0152617897087
 30
0.0
 41
7.0
 42
7.0
 43
7.0
 50
270.0
  0
MTEXT
  5
4C12
330
4B77
100
AcDbEntity
  8
SUNPOU
 62
     4
100
AcDbMText
 10
211.1023677121552
 20
393.0152617897088
 30
0.0
 40
6.0
 41
0.0
 71
     5
 72
     1
  1
\A1;22
 11
6.123031769111886E-17
 21
1.0
 31
0.0
 73
     1
 44
1.0
  0
POINT
  5
4C13
330
4B77
100
AcDbEntity
  8
DEFPOINTS
 62
     0
100
AcDbPoint
 10
251.2323582346149
 20
404.0152617897087
 30
0.0
  0
POINT
  5
4C14
330
4B77
100
AcDbEntity
  8
DEFPOINTS
 62
     0
100
AcDbPoint
 10
251.232258234615
 20
382.0152617897087
 30
0.0
  0
POINT
  5
4C15
330
4B77
100
AcDbEntity
  8
DEFPOINTS
 62
     0
100
AcDbPoint
 10
216.1023677121552
 20
382.0152617897087
 30
0.0
  0
ENDBLK
  5
4B82
330
4B77
100
AcDbEntity
  8
0
100
AcDbBlockEnd
  0
BLOCK
  5
4B8D
330
4B83
100
AcDbEntity
  8
0
100
AcDbBlockBegin
  2
*D10
 70
     1
 71
     0
 10
0.0
 20
0.0
 30
0.0
  3
*D10
  1

  0
LINE
  5
4C16
330
4B83
100
AcDbEntity
  8
SUNPOU
 62
     4
370
    -2
100
AcDbLine
 10
545.7890746389171
 20
315.3748364669797
 30
0.0
 11
579.2288310664536
 21
328.7497848036057
 31
0.0
  0
LINE
  5
4C17
330
4B83
100
AcDbEntity
  8
SUNPOU
 62
     4
370
    -2
100
AcDbLine
 10
562.8638746385295
 20
288.816536466825
 30
0.0
 11
590.7412475808151
 21
299.9666901371098
 31
0.0
  0
LINE
  5
4C18
330
4B83
100
AcDbEntity
  8
SUNPOU
 62
     4
370
    -2
100
AcDbLine
 10
579.0429484346627
 20
321.1362805087886
 30
0.0
 11
585.3562152513207
 21
305.3519874186254
 31
0.0
  0
INSERT
  5
4C19
330
4B83
100
AcDbEntity
  8
SUNPOU
 62
     4
370
    -2
100
AcDbBlockReference
  2
_OPEN
 10
576.443373585811
 20
327.6356812969549
 30
0.0
 41
7.0
 42
7.0
 43
7.0
 50
111.8000000000005
  0
INSERT
  5
4C1A
330
4B83
100
AcDbEntity
  8
SUNPOU
 62
     4
370
    -2
100
AcDbBlockReference
  2
_OPEN
 10
587.9557901001724
 20
298.852586630459
 30
0.0
 41
7.0
 42
7.0
 43
7.0
 50
291.8000000000005
  0
MTEXT
  5
4C1B
330
4B83
100
AcDbEntity
  8
SUNPOU
 62
     4
100
AcDbMText
 10
586.8420109773961
 20
315.1009731414582
 30
0.0
 40
6.0
 41
0.0
 71
     5
 72
     1
  1
\A1;31
 11
0.3713678355502434
 21
-0.9284858268809101
 31
0.0
 73
     1
 44
1.0
  0
POINT
  5
4C1C
330
4B83
100
AcDbEntity
  8
DEFPOINTS
 62
     0
100
AcDbPoint
 10
540.2181596776317
 20
313.1466294536783
 30
0.0
  0
POINT
  5
4C1D
330
4B83
100
AcDbEntity
  8
DEFPOINTS
 62
     0
100
AcDbPoint
 10
557.2929596772441
 20
286.5883294535236
 30
0.0
  0
POINT
  5
4C1E
330
4B83
100
AcDbEntity
  8
DEFPOINTS
 62
     0
100
AcDbPoint
 10
587.9557901001724
 20
298.852586630459
 30
0.0
  0
ENDBLK
  5
4B8E
330
4B83
100
AcDbEntity
  8
0
100
AcDbBlockEnd
  0
BLOCK
  5
4B99
330
4B8F
100
AcDbEntity
  8
0
100
AcDbBlockBegin
  2
*D11
 70
     1
 71
     0
 10
0.0
 20
0.0
 30
0.0
  3
*D11
  1

  0
LINE
  5
4C1F
330
4B8F
100
AcDbEntity
  8
SUNPOU
 62
     4
370
    -2
100
AcDbLine
 10
498.9932526639427
 20
292.349744414809
 30
0.0
 11
480.2531549524003
 21
339.2033312197898
 31
0.0
  0
LINE
  5
4C20
330
4B8F
100
AcDbEntity
  8
SUNPOU
 62
     4
370
    -2
100
AcDbLine
 10
550.0600067892995
 20
312.7750591092045
 30
0.0
 11
531.3199333114466
 21
359.6285853256392
 31
0.0
  0
LINE
  5
4C21
330
4B8F
100
AcDbEntity
  8
SUNPOU
 62
     4
370
    -2
100
AcDbLine
 10
487.8666592472175
 20
339.0174485879986
 30
0.0
 11
525.934636029931
 21
354.2435529961448
 31
0.0
  0
INSERT
  5
4C22
330
4B8F
100
AcDbEntity
  8
SUNPOU
 62
     4
370
    -2
100
AcDbBlockReference
  2
_OPEN
 10
481.367258459051
 20
336.417873739147
 30
0.0
 41
7.0
 42
7.0
 43
7.0
 50
201.7999999999997
  0
INSERT
  5
4C23
330
4B8F
100
AcDbEntity
  8
SUNPOU
 62
     4
370
    -2
100
AcDbBlockReference
  2
_OPEN
 10
532.4340368180973
 20
356.8431278449964
 30
0.0
 41
7.0
 42
7.0
 43
7.0
 50
21.79999999999974
  0
MTEXT
  5
4C24
330
4B8F
100
AcDbEntity
  8
SUNPOU
 62
     4
100
AcDbMText
 10
505.043808460823
 20
351.2729299264763
 30
0.0
 40
6.0
 41
0.0
 71
     5
 72
     1
  1
\A1;55
 11
0.9284858268809153
 21
0.3713678355502306
 31
0.0
 73
     1
 44
1.0
  0
POINT
  5
4C25
330
4B8F
100
AcDbEntity
  8
DEFPOINTS
 62
     0
100
AcDbPoint
 10
501.2214596772441
 20
286.7788294535235
 30
0.0
  0
POINT
  5
4C26
330
4B8F
100
AcDbEntity
  8
DEFPOINTS
 62
     0
100
AcDbPoint
 10
552.2882138026008
 20
307.204144147919
 30
0.0
  0
POINT
  5
4C27
330
4B8F
100
AcDbEntity
  8
DEFPOINTS
 62
     0
100
AcDbPoint
 10
532.4340368180973
 20
356.8431278449964
 30
0.0
  0
ENDBLK
  5
4B9A
330
4B8F
100
AcDbEntity
  8
0
100
AcDbBlockEnd
  0
BLOCK
  5
4BA5
330
4B9B
100
AcDbEntity
  8
0
100
AcDbBlockBegin
  2
*D12
 70
     1
 71
     0
 10
0.0
 20
0.0
 30
0.0
  3
*D12
  1

  0
LINE
  5
4C28
330
4B9B
100
AcDbEntity
  8
SUNPOU
 62
     4
370
    -2
100
AcDbLine
 10
510.5107526639428
 20
285.095744414809
 30
0.0
 11
493.9894750180035
 21
326.401885302027
 31
0.0
  0
LINE
  5
4C29
330
4B9B
100
AcDbEntity
  8
SUNPOU
 62
     4
370
    -2
100
AcDbLine
 10
546.7216351672217
 20
299.5793381720094
 30
0.0
 11
530.2004520222363
 21
340.8852427899877
 31
0.0
  0
LINE
  5
4C2A
330
4B9B
100
AcDbEntity
  8
SUNPOU
 62
     4
370
    -2
100
AcDbLine
 10
501.6029793128207
 20
326.2160026702359
 30
0.0
 11
524.8151547407206
 21
335.5002104604934
 31
0.0
  0
INSERT
  5
4C2B
330
4B9B
100
AcDbEntity
  8
SUNPOU
 62
     4
370
    -2
100
AcDbBlockReference
  2
_OPEN
 10
495.1035785246542
 20
323.6164278213843
 30
0.0
 41
7.0
 42
7.0
 43
7.0
 50
201.7999999999997
  0
INSERT
  5
4C2C
330
4B9B
100
AcDbEntity
  8
SUNPOU
 62
     4
370
    -2
100
AcDbBlockReference
  2
_OPEN
 10
531.314555528887
 20
338.099785309345
 30
0.0
 41
7.0
 42
7.0
 43
7.0
 50
21.79999999999974
  0
MTEXT
  5
4C2D
330
4B9B
100
AcDbEntity
  8
SUNPOU
 62
     4
100
AcDbMText
 10
511.3522278490194
 20
335.5005356997692
 30
0.0
 40
6.0
 41
0.0
 71
     5
 72
     1
  1
\A1;39
 11
0.9284858268809153
 21
0.3713678355502306
 31
0.0
 73
     1
 44
1.0
  0
POINT
  5
4C2E
330
4B9B
100
AcDbEntity
  8
DEFPOINTS
 62
     0
100
AcDbPoint
 10
512.7389596772441
 20
279.5248294535235
 30
0.0
  0
POINT
  5
4C2F
330
4B9B
100
AcDbEntity
  8
DEFPOINTS
 62
     0
100
AcDbPoint
 10
548.9498421805231
 20
294.0084232107239
 30
0.0
  0
POINT
  5
4C30
330
4B9B
100
AcDbEntity
  8
DEFPOINTS
 62
     0
100
AcDbPoint
 10
531.314555528887
 20
338.099785309345
 30
0.0
  0
ENDBLK
  5
4BA6
330
4B9B
100
AcDbEntity
  8
0
100
AcDbBlockEnd
  0
BLOCK
  5
4BB1
330
4BA7
100
AcDbEntity
  8
0
100
AcDbBlockBegin
  2
*D13
 70
     1
 71
     0
 10
0.0
 20
0.0
 30
0.0
  3
*D13
  1

  0
LINE
  5
4C31
330
4BA7
100
AcDbEntity
  8
SUNPOU
 62
     4
370
    -2
100
AcDbLine
 10
500.2932447159589
 20
297.1778224402221
 30
0.0
 11
471.5933885192545
 21
285.6986989384905
 31
0.0
  0
LINE
  5
4C32
330
4BA7
100
AcDbEntity
  8
SUNPOU
 62
     4
370
    -2
100
AcDbLine
 10
505.3089447159586
 20
272.258522440222
 30
0.0
 11
480.8775422646548
 21
262.4866586323739
 31
0.0
  0
LINE
  5
4C33
330
4BA7
100
AcDbEntity
  8
SUNPOU
 62
     4
370
    -2
100
AcDbLine
 10
476.9784208487489
 20
280.3134016569749
 30
0.0
 11
481.0634248964458
 21
270.100162927191
 31
0.0
  0
INSERT
  5
4C34
330
4BA7
100
AcDbEntity
  8
SUNPOU
 62
     4
370
    -2
100
AcDbBlockReference
  2
_OPEN
 10
474.3788459998972
 20
286.8128024451412
 30
0.0
 41
7.0
 42
7.0
 43
7.0
 50
111.8000000000005
  0
INSERT
  5
4C35
330
4BA7
100
AcDbEntity
  8
SUNPOU
 62
     4
370
    -2
100
AcDbBlockReference
  2
_OPEN
 10
483.6629997452976
 20
263.6007621390246
 30
0.0
 41
7.0
 42
7.0
 43
7.0
 50
291.8000000000005
  0
MTEXT
  5
4C36
330
4BA7
100
AcDbEntity
  8
SUNPOU
 62
     4
100
AcDbMText
 10
483.663352007002
 20
277.0636214698342
 30
0.0
 40
6.0
 41
0.0
 71
     5
 72
     1
  1
\A1;25
 11
0.3713678355502434
 21
-0.9284858268809101
 31
0.0
 73
     1
 44
1.0
  0
POINT
  5
4C37
330
4BA7
100
AcDbEntity
  8
DEFPOINTS
 62
     0
100
AcDbPoint
 10
505.8641596772443
 20
299.4060294535236
 30
0.0
  0
POINT
  5
4C38
330
4BA7
100
AcDbEntity
  8
DEFPOINTS
 62
     0
100
AcDbPoint
 10
510.879859677244
 20
274.4867294535235
 30
0.0
  0
POINT
  5
4C39
330
4BA7
100
AcDbEntity
  8
DEFPOINTS
 62
     0
100
AcDbPoint
 10
483.6629997452976
 20
263.6007621390246
 30
0.0
  0
ENDBLK
  5
4BB2
330
4BA7
100
AcDbEntity
  8
0
100
AcDbBlockEnd
  0
BLOCK
  5
4BBF
330
4BB3
100
AcDbEntity
  8
0
100
AcDbBlockBegin
  2
*D14
 70
     1
 71
     0
 10
0.0
 20
0.0
 30
0.0
  3
*D14
  1

  0
LINE
  5
4C3A
330
4BB3
100
AcDbEntity
  8
SUNPOU
 62
     4
370
    -2
100
AcDbLine
 10
534.6114447159588
 20
247.359822440222
 30
0.0
 11
505.4796528059374
 21
235.7079369788488
 31
0.0
  0
LINE
  5
4C3B
330
4BB3
100
AcDbEntity
  8
SUNPOU
 62
     4
370
    -2
100
AcDbLine
 10
542.1661447159587
 20
242.3036224402221
 30
0.0
 11
508.2649793936547
 21
228.7441237124189
 31
0.0
  0
LINE
  5
4C3C
330
4BB3
100
AcDbEntity
  8
SUNPOU
 62
     4
370
    -2
100
AcDbLine
 10
505.6655354377283
 20
243.3214412736658
 30
0.0
 11
503.0659605888766
 21
249.8208420618322
 31
0.0
  0
LINE
  5
4C3D
330
4BB3
100
AcDbEntity
  8
SUNPOU
 62
     4
370
    -2
100
AcDbLine
 10
513.6500117231491
 20
223.3588264309032
 30
0.0
 11
519.2205292564028
 21
209.4315390276896
 31
0.0
  0
LINE
  5
4C3E
330
4BB3
100
AcDbEntity
  8
SUNPOU
 62
     4
370
    -2
100
AcDbLine
 10
508.26511028658
 20
236.8220404854995
 30
0.0
 11
511.0504368742974
 21
229.8582272190696
 31
0.0
  0
INSERT
  5
4C3F
330
4BB3
100
AcDbEntity
  8
SUNPOU
 62
     4
370
    -2
100
AcDbBlockReference
  2
_OPEN
 10
508.26511028658
 20
236.8220404854995
 30
0.0
 41
7.0
 42
7.0
 43
7.0
 50
291.8000000000005
  0
INSERT
  5
4C40
330
4BB3
100
AcDbEntity
  8
SUNPOU
 62
     4
370
    -2
100
AcDbBlockReference
  2
_OPEN
 10
511.0504368742974
 20
229.8582272190696
 30
0.0
 41
7.0
 42
7.0
 43
7.0
 50
111.8000000000005
  0
MTEXT
  5
4C41
330
4BB3
100
AcDbEntity
  8
SUNPOU
 62
     4
100
AcDbMText
 10
522.3774870486063
 20
215.0023215129645
 30
0.0
 40
6.0
 41
0.0
 71
     5
 72
     1
  1
\A1;8
 11
0.3713678355502434
 21
-0.9284858268809101
 31
0.0
 73
     1
 44
1.0
  0
POINT
  5
4C42
330
4BB3
100
AcDbEntity
  8
DEFPOINTS
 62
     0
100
AcDbPoint
 10
540.1823596772442
 20
249.5880294535234
 30
0.0
  0
POINT
  5
4C43
330
4BB3
100
AcDbEntity
  8
DEFPOINTS
 62
     0
100
AcDbPoint
 10
547.7370596772441
 20
244.5318294535235
 30
0.0
  0
POINT
  5
4C44
330
4BB3
100
AcDbEntity
  8
DEFPOINTS
 62
     0
100
AcDbPoint
 10
511.0504368742974
 20
229.8582272190696
 30
0.0
  0
ENDBLK
  5
4BC0
330
4BB3
100
AcDbEntity
  8
0
100
AcDbBlockEnd
  0
ENDSEC
  0
SECTION
  2
ENTITIES
  0
LINE
  5
3EF3
330
1A
100
AcDbEntity
  8
ZUWAKU
100
AcDbLine
 10
208.646601303624
 20
15.19999986828872
 30
0.0
 11
447.4243639845474
 21
15.19999986828871
 31
0.0
  0
LINE
  5
3EF4
330
1A
100
AcDbEntity
  8
ZUWAKU
100
AcDbLine
 10
208.646601303624
 20
15.59999986828872
 30
0.0
 11
447.4243639845474
 21
15.59999986828872
 31
0.0
  0
LINE
  5
3EF5
330
1A
100
AcDbEntity
  8
ZUWAKU
100
AcDbLine
 10
208.646601303624
 20
15.39999986828872
 30
0.0
 11
447.4243639845474
 21
15.39999986828872
 31
0.0
  0
LINE
  5
3EF6
330
1A
100
AcDbEntity
  8
ZUWAKU
100
AcDbLine
 10
0.0000000135560185
 20
30.79999986828869
 30
0.0
 11
797.4000000135559
 21
30.79999986828869
 31
0.0
  0
LINE
  5
3EF7
330
1A
100
AcDbEntity
  8
ZUWAKU
100
AcDbLine
 10
0.0000000135560185
 20
30.59999986828869
 30
0.0
 11
797.4000000135559
 21
30.59999986828869
 31
0.0
  0
LINE
  5
3EF8
330
1A
100
AcDbEntity
  8
ZUWAKU
100
AcDbLine
 10
0.0000000135560185
 20
30.39999986828869
 30
0.0
 11
797.4000000135559
 21
30.39999986828869
 31
0.0
  0
LINE
  5
3EF9
330
1A
100
AcDbEntity
  8
ZUWAKU
100
AcDbLine
 10
0.0000000135560185
 20
30.19999986828869
 30
0.0
 11
797.4000000135559
 21
30.19999986828869
 31
0.0
  0
LINE
  5
3EFA
330
1A
100
AcDbEntity
  8
ZUWAKU
100
AcDbLine
 10
0.0000000135560185
 20
29.99999986828868
 30
0.0
 11
797.4000000135559
 21
29.99999986828868
 31
0.0
  0
LWPOLYLINE
  5
3EFB
330
1A
100
AcDbEntity
  8
ZUWAKU
100
AcDbPolyline
 90
        4
 70
     1
 43
0.0
 10
0.2000000135559503
 20
551.3999998682888
 10
0.2000000135559503
 20
0.1999998682887281
 10
797.4000000135559
 20
0.1999998682887512
 10
797.4000000135561
 20
551.3999998682888
  0
LWPOLYLINE
  5
3EFC
330
1A
100
AcDbEntity
  8
ZUWAKU
100
AcDbPolyline
 90
        4
 70
     1
 43
0.0
 10
0.6000000135559276
 20
550.9999998682888
 10
0.6000000135559276
 20
0.5999998682887053
 10
797.0000000135563
 20
0.5999998682887515
 10
797.000000013556
 20
550.9999998682888
  0
LWPOLYLINE
  5
3EFD
330
1A
100
AcDbEntity
  8
ZUWAKU
100
AcDbPolyline
 90
        4
 70
     1
 43
0.0
 10
0.0000000135560185
 20
551.5999998682887
 10
0.0000000135560185
 20
-0.0000001317113174
 10
797.6000000135562
 20
-0.0000001317112499
 10
797.6000000135562
 20
551.5999998682888
  0
LWPOLYLINE
  5
3EFE
330
1A
100
AcDbEntity
  8
ZUWAKU
100
AcDbPolyline
 90
        4
 70
     1
 43
0.0
 10
0.4000000135559958
 20
551.1999998682887
 10
0.4000000135559958
 20
0.3999998682887735
 10
797.2000000135561
 20
0.3999998682887505
 10
797.2000000135561
 20
551.1999998682887
  0
LWPOLYLINE
  5
3EFF
330
1A
100
AcDbEntity
  8
ZUWAKU
100
AcDbPolyline
 90
        4
 70
     1
 43
0.0
 10
0.8000000135559731
 20
550.7999998682888
 10
0.8000000135559731
 20
0.7999998682887508
 10
796.800000013556
 20
0.7999998682887508
 10
796.800000013556
 20
550.7999998682888
  0
TEXT
  5
3F00
330
1A
100
AcDbEntity
  8
moji
100
AcDbText
 10
92.95778960172515
 20
12.74117799856344
 30
0.0
 40
6.0
  1
アーバントップΣ９０
 41
0.9
  7
ｽﾀｲﾙ1
100
AcDbText
  0
HATCH
  5
3F01
330
1A
100
AcDbEntity
  8
ZUWAKU
100
AcDbHatch
 10
0.0
 20
0.0
 30
0.0
210
0.0
220
0.0
230
1.0
  2
ANSI37
 70
     0
 71
     0
 91
        8
 92
        7
 72
     1
 73
     1
 93
       24
 10
14.50226267467588
 20
17.64484834927227
 42
-0.1989123673796348
 10
14.09221216833714
 20
18.63479784293332
 42
0.0
 10
14.09221216833714
 20
19.92499986828869
 42
-0.4142135623730912
 10
14.61721216833712
 20
20.44999986828869
 42
0.0
 10
17.59221216833703
 20
20.44999986828869
 42
0.4142135623731546
 10
18.11721216833712
 20
20.97499986828868
 42
0.0
 10
18.11721216833712
 20
22.72499986828869
 42
0.4142135623731586
 10
17.59221216833703
 20
23.24999986828869
 42
0.0
 10
14.09221216833714
 20
23.24999986828869
 42
0.4142135623730928
 10
11.29221216833719
 20
20.44999986828871
 42
0.0
 10
11.29221216833719
 20
18.63479784293345
 42
0.1989123673796619
 10
12.52236368735362
 20
15.66494936194984
 42
0.0
 10
15.43216166199829
 20
12.75515138730518
 42
-0.1989123673796613
 10
15.84221216833714
 20
11.76520189364399
 42
0.0
 10
15.84221216833714
 20
10.47499986828868
 42
-0.4142135623730911
 10
15.31721216833716
 20
9.949999868288685
 42
0.0
 10
12.34221216833726
 20
9.949999868288685
 42
0.4142135623731526
 10
11.81721216833716
 20
9.424999868288698
 42
0.0
 10
11.81721216833716
 20
7.674999868288676
 42
0.4142135623731526
 10
12.34221216833726
 20
7.149999868288688
 42
0.0
 10
15.84221216833714
 20
7.149999868288688
 42
0.4142135623731044
 10
18.64221216833721
 20
9.949999868288664
 42
0.0
 10
18.64221216833721
 20
11.76520189364394
 42
0.1989123673796604
 10
17.41206064932067
 20
14.73505037462748
 42
0.0
 97
        0
 92
        7
 72
     1
 73
     1
 93
       16
 10
23.54221216833719
 20
19.04999986828869
 42
-0.4142135623730935
 10
24.94221216833716
 20
20.44999986828869
 42
0.0
 10
26.86721216833712
 20
20.44999986828869
 42
0.4142135623731546
 10
27.39221216833721
 20
20.97499986828868
 42
0.0
 10
27.39221216833721
 20
22.72499986828869
 42
0.4142135623730952
 10
26.86721216833723
 20
23.24999986828869
 42
0.0
 10
24.94221216833705
 20
23.24999986828865
 42
0.4142135623730892
 10
20.74221216833712
 20
19.04999986828862
 42
0.0
 10
20.74221216833712
 20
11.34999986828871
 42
0.4142135623730969
 10
24.94221216833716
 20
7.149999868288688
 42
0.0
 10
26.86721216833712
 20
7.149999868288688
 42
0.4142135623731526
 10
27.39221216833721
 20
7.674999868288676
 42
0.0
 10
27.39221216833721
 20
9.424999868288698
 42
0.414213562373089
 10
26.86721216833723
 20
9.949999868288685
 42
0.0
 10
24.94221216833716
 20
9.949999868288685
 42
-0.4142135623730928
 10
23.54221216833719
 20
11.34999986828867
 42
0.0
 97
        0
 92
        7
 72
     1
 73
     1
 93
        2
 10
24.24221216833712
 20
15.19999986828869
 42
1.0
 10
27.74221216833712
 20
15.19999986828869
 42
1.0
 97
        0
 92
        7
 72
     1
 73
     1
 93
       26
 10
37.31485865051513
 20
19.20504706185211
 42
0.0
 10
38.37649828365295
 20
22.5669059001217
 42
0.5069206636600134
 10
37.87586738445759
 20
23.24999986828869
 42
0.0
 10
36.17697800484837
 20
23.24999986828869
 42
0.3272098845218764
 10
35.67634710565301
 20
22.88309383645566
 42
0.0
 10
33.80807723102123
 20
16.96690590012177
 42
-0.3272098845219541
 10
33.30744633182576
 20
16.59999986828868
 42
0.0
 10
33.1672121683373
 20
16.59999986828868
 42
-0.4142135623731526
 10
32.64221216833721
 20
17.12499986828867
 42
0.0
 10
32.64221216833721
 20
22.72499986828869
 42
0.4142135623730952
 10
32.11721216833723
 20
23.24999986828869
 42
0.0
 10
30.36721216833712
 20
23.24999986828869
 42
0.4142135623730872
 10
29.84221216833714
 20
22.72499986828871
 42
0.0
 10
29.84221216833714
 20
7.674999868288676
 42
0.414213562373089
 10
30.36721216833712
 20
7.149999868288688
 42
0.0
 10
32.11721216833712
 20
7.149999868288688
 42
0.4142135623731526
 10
32.64221216833721
 20
7.674999868288676
 42
0.0
 10
32.64221216833721
 20
13.2749998682887
 42
-0.4142135623731526
 10
33.1672121683373
 20
13.79999986828869
 42
0.0
 10
33.30744633182587
 20
13.79999986828869
 42
-0.3272098845218915
 10
33.80807723102123
 20
13.43309383645561
 42
0.0
 10
35.67634710565301
 20
7.51690590012176
 42
0.3272098845218902
 10
36.17697800484837
 20
7.149999868288688
 42
0.0
 10
37.87586738445759
 20
7.149999868288688
 42
0.5069206636600334
 10
38.37649828365295
 20
7.833093836455696
 42
0.0
 10
36.05010690517929
 20
15.19999986828882
 42
0.0
 97
        0
 92
        7
 72
     1
 73
     1
 93
        8
 10
43.49221216833712
 20
22.7249998682887
 42
0.4142135623731546
 10
42.96721216833703
 20
23.24999986828869
 42
0.0
 10
41.21721216833726
 20
23.24999986828869
 42
0.4142135623731506
 10
40.69221216833716
 20
22.72499986828871
 42
0.0
 10
40.69221216833716
 20
7.674999868288676
 42
0.4142135623731526
 10
41.21721216833726
 20
7.149999868288688
 42
0.0
 10
42.96721216833703
 20
7.149999868288688
 42
0.4142135623731526
 10
43.49221216833712
 20
7.674999868288676
 42
0.0
 97
        0
 92
        7
 72
     1
 73
     1
 93
       24
 10
48.39221216833721
 20
19.92499986828869
 42
-0.4142135623731547
 10
48.9172121683373
 20
20.44999986828869
 42
0.0
 10
51.89221216833721
 20
20.44999986828869
 42
0.4142135623730911
 10
52.41721216833719
 20
20.97499986828868
 42
0.0
 10
52.41721216833719
 20
22.72499986828869
 42
0.4142135623730952
 10
51.89221216833721
 20
23.24999986828869
 42
0.0
 10
48.39221216833721
 20
23.24999986828869
 42
0.4142135623731048
 10
45.59221216833714
 20
20.44999986828871
 42
0.0
 10
45.59221216833714
 20
18.63479784293345
 42
0.1989123673796613
 10
46.82236368735369
 20
15.66494936194989
 42
0.0
 10
49.73216166199836
 20
12.75515138730523
 42
-0.1989123673796402
 10
50.14221216833721
 20
11.76520189364415
 42
0.0
 10
50.14221216833721
 20
10.47499986828868
 42
-0.4142135623730911
 10
49.61721216833723
 20
9.949999868288685
 42
0.0
 10
46.64221216833721
 20
9.949999868288685
 42
0.4142135623731526
 10
46.11721216833712
 20
9.424999868288698
 42
0.0
 10
46.11721216833712
 20
7.674999868288676
 42
0.414213562373089
 10
46.6422121683371
 20
7.149999868288688
 42
0.0
 10
50.14221216833721
 20
7.149999868288688
 42
0.4142135623730925
 10
52.94221216833716
 20
9.949999868288664
 42
0.0
 10
52.94221216833716
 20
11.76520189364394
 42
0.1989123673796675
 10
51.71206064932062
 20
14.73505037462759
 42
0.0
 10
48.80226267467606
 20
17.64484834927211
 42
-0.1989123673796653
 10
48.39221216833721
 20
18.63479784293327
 42
0.0
 97
        0
 92
        7
 72
     1
 73
     1
 93
       16
 10
57.84221216833714
 20
22.72499986828868
 42
0.414213562373103
 10
57.31721216833716
 20
23.24999986828869
 42
0.0
 10
55.56721216833716
 20
23.24999986828869
 42
0.4142135623730872
 10
55.04221216833719
 20
22.72499986828871
 42
0.0
 10
55.04221216833719
 20
9.949999868288664
 42
0.4142135623730925
 10
57.84221216833714
 20
7.149999868288688
 42
0.0
 10
61.34221216833714
 20
7.149999868288688
 42
0.4142135623731044
 10
64.14221216833721
 20
9.949999868288664
 42
0.0
 10
64.14221216833721
 20
22.72499986828869
 42
0.4142135623730952
 10
63.61721216833723
 20
23.24999986828869
 42
0.0
 10
61.86721216833712
 20
23.24999986828869
 42
0.4142135623730872
 10
61.34221216833714
 20
22.72499986828871
 42
0.0
 10
61.34221216833714
 20
10.99999986828866
 42
-0.414213562373088
 10
60.29221216833719
 20
9.949999868288685
 42
0.0
 10
58.89221216833721
 20
9.949999868288685
 42
-0.4142135623731197
 10
57.84221216833714
 20
10.99999986828866
 42
0.0
 97
        0
 92
        7
 72
     1
 73
     1
 93
        8
 10
69.04221216833719
 20
22.72499986828871
 42
0.4142135623730872
 10
68.51721216833721
 20
23.24999986828869
 42
0.0
 10
66.76721216833721
 20
23.24999986828869
 42
0.4142135623731506
 10
66.24221216833712
 20
22.72499986828871
 42
0.0
 10
66.24221216833712
 20
7.674999868288676
 42
0.414213562373089
 10
66.7672121683371
 20
7.149999868288688
 42
0.0
 10
68.51721216833721
 20
7.149999868288688
 42
0.414213562373089
 10
69.04221216833719
 20
7.674999868288676
 42
0.0
 97
        0
 75
     0
 76
     1
 52
0.0
 41
0.2
 77
     0
 78
     2
 53
45.0
 43
-900.942304321123
 44
-13.20000013171125
 45
-0.4490128060534576
 46
0.4490128060534577
 79
     0
 53
135.0
 43
-900.942304321123
 44
-13.20000013171125
 45
-0.4490128060534577
 46
-0.4490128060534576
 79
     0
 47
0.057451373970553
 98
        8
 10
16.07985497657933
 20
15.16717351417424
 10
22.40451501999519
 20
18.84406205073969
 10
25.16436789921568
 20
15.5118815143594
 10
30.91405999519316
 20
16.20129751473019
 10
41.83847203251276
 20
16.6609097822718
 10
46.89820090868557
 20
19.41857618469589
 10
56.55768598595637
 20
18.7291577833837
 10
67.82707963317876
 20
19.18877005092531
  0
LINE
  5
3F02
330
1A
100
AcDbEntity
  8
ZUWAKU
100
AcDbLine
 10
24.94221216833716
 20
23.24999986828865
 30
0.0
 11
26.86721216833712
 21
23.24999986828869
 31
0.0
  0
LINE
  5
3F03
330
1A
100
AcDbEntity
  8
ZUWAKU
100
AcDbLine
 10
26.86721216833712
 20
20.44999986828869
 30
0.0
 11
24.94221216833716
 21
20.44999986828869
 31
0.0
  0
LINE
  5
3F04
330
1A
100
AcDbEntity
  8
ZUWAKU
100
AcDbLine
 10
24.94221216833716
 20
9.949999868288685
 30
0.0
 11
26.86721216833712
 21
9.949999868288685
 31
0.0
  0
LINE
  5
3F05
330
1A
100
AcDbEntity
  8
ZUWAKU
100
AcDbLine
 10
26.86721216833712
 20
7.149999868288688
 30
0.0
 11
24.94221216833716
 21
7.149999868288688
 31
0.0
  0
CIRCLE
  5
3F06
330
1A
100
AcDbEntity
  8
ZUWAKU
100
AcDbCircle
 10
25.99221216833712
 20
15.19999986828869
 30
0.0
 40
1.75
  0
ARC
  5
3F07
330
1A
100
AcDbEntity
  8
ZUWAKU
100
AcDbCircle
 10
15.49221216833712
 20
18.63479784293339
 30
0.0
 40
1.4
100
AcDbArc
 50
180.0000000000016
 51
224.9999999999988
  0
LINE
  5
3F08
330
1A
100
AcDbEntity
  8
ZUWAKU
100
AcDbLine
 10
23.54221216833719
 20
19.04999986828869
 30
0.0
 11
23.54221216833719
 21
11.34999986828869
 31
0.0
  0
LINE
  5
3F09
330
1A
100
AcDbEntity
  8
ZUWAKU
100
AcDbLine
 10
20.74221216833712
 20
11.34999986828869
 30
0.0
 11
20.74221216833712
 21
19.04999986828864
 31
0.0
  0
ARC
  5
3F0A
330
1A
100
AcDbEntity
  8
ZUWAKU
100
AcDbCircle
 10
15.49221216833712
 20
18.63479784293339
 30
0.0
 40
4.199999999999999
100
AcDbArc
 50
180.0
 51
225.0
  0
ARC
  5
3F0B
330
1A
100
AcDbEntity
  8
ZUWAKU
100
AcDbCircle
 10
15.84221216833714
 20
9.949999868288685
 30
0.0
 40
2.8
100
AcDbArc
 50
270.0
 51
0.0
  0
ARC
  5
3F0C
330
1A
100
AcDbEntity
  8
ZUWAKU
100
AcDbCircle
 10
24.94221216833716
 20
11.34999986828869
 30
0.0
 40
4.199999999999999
100
AcDbArc
 50
180.0
 51
270.0
  0
ARC
  5
3F0D
330
1A
100
AcDbEntity
  8
ZUWAKU
100
AcDbCircle
 10
14.44221216833716
 20
11.76520189364399
 30
0.0
 40
4.199999999999999
100
AcDbArc
 50
0.0
 51
45.0
  0
LINE
  5
3F0E
330
1A
100
AcDbEntity
  8
ZUWAKU
100
AcDbLine
 10
17.41206064932067
 20
14.73505037462751
 30
0.0
 11
14.50226267467599
 21
17.64484834927219
 31
0.0
  0
LINE
  5
3F0F
330
1A
100
AcDbEntity
  8
ZUWAKU
100
AcDbLine
 10
15.84221216833714
 20
10.47499986828869
 30
0.0
 11
15.84221216833714
 21
11.76520189364403
 31
0.0
  0
ARC
  5
3F10
330
1A
100
AcDbEntity
  8
ZUWAKU
100
AcDbCircle
 10
15.31721216833716
 20
10.47499986828869
 30
0.0
 40
0.5249999999999999
100
AcDbArc
 50
270.0
 51
0.0
  0
ARC
  5
3F11
330
1A
100
AcDbEntity
  8
ZUWAKU
100
AcDbCircle
 10
14.44221216833716
 20
11.76520189364403
 30
0.0
 40
1.4
100
AcDbArc
 50
0.0
 51
45.0
  0
LINE
  5
3F12
330
1A
100
AcDbEntity
  8
ZUWAKU
100
AcDbLine
 10
11.81721216833716
 20
7.674999868288687
 30
0.0
 11
11.81721216833716
 21
9.424999868288687
 31
0.0
  0
ARC
  5
3F13
330
1A
100
AcDbEntity
  8
ZUWAKU
100
AcDbCircle
 10
12.34221216833714
 20
7.674999868288687
 30
0.0
 40
0.5249999999999999
100
AcDbArc
 50
180.0
 51
270.0
  0
ARC
  5
3F14
330
1A
100
AcDbEntity
  8
ZUWAKU
100
AcDbCircle
 10
12.34221216833714
 20
9.424999868288687
 30
0.0
 40
0.5249999999999999
100
AcDbArc
 50
90.0
 51
180.0
  0
LINE
  5
3F15
330
1A
100
AcDbEntity
  8
ZUWAKU
100
AcDbLine
 10
12.34221216833714
 20
7.149999868288688
 30
0.0
 11
15.84221216833714
 21
7.149999868288688
 31
0.0
  0
LINE
  5
3F16
330
1A
100
AcDbEntity
  8
ZUWAKU
100
AcDbLine
 10
12.34221216833714
 20
9.949999868288685
 30
0.0
 11
15.31721216833716
 21
9.949999868288685
 31
0.0
  0
LINE
  5
3F17
330
1A
100
AcDbEntity
  8
ZUWAKU
100
AcDbLine
 10
12.52236368735362
 20
15.66494936194987
 30
0.0
 11
15.43216166199829
 21
12.7551513873052
 31
0.0
  0
LINE
  5
3F18
330
1A
100
AcDbEntity
  8
ZUWAKU
100
AcDbLine
 10
18.64221216833721
 20
9.949999868288685
 30
0.0
 11
18.64221216833721
 21
11.76520189364403
 31
0.0
  0
ARC
  5
3F19
330
1A
100
AcDbEntity
  8
ZUWAKU
100
AcDbCircle
 10
24.94221216833716
 20
11.34999986828869
 30
0.0
 40
1.4
100
AcDbArc
 50
180.0
 51
270.0
  0
ARC
  5
3F1A
330
1A
100
AcDbEntity
  8
ZUWAKU
100
AcDbCircle
 10
17.59221216833714
 20
22.72499986828868
 30
0.0
 40
0.5249999999999999
100
AcDbArc
 50
0.0
 51
90.0
  0
ARC
  5
3F1B
330
1A
100
AcDbEntity
  8
ZUWAKU
100
AcDbCircle
 10
17.59221216833714
 20
20.97499986828868
 30
0.0
 40
0.5249999999999999
100
AcDbArc
 50
270.0
 51
0.0
  0
LINE
  5
3F1C
330
1A
100
AcDbEntity
  8
ZUWAKU
100
AcDbLine
 10
14.09221216833714
 20
23.24999986828869
 30
0.0
 11
17.59221216833714
 21
23.24999986828869
 31
0.0
  0
ARC
  5
3F1D
330
1A
100
AcDbEntity
  8
ZUWAKU
100
AcDbCircle
 10
14.61721216833712
 20
19.92499986828869
 30
0.0
 40
0.5249999999999999
100
AcDbArc
 50
90.0
 51
180.0
  0
LINE
  5
3F1E
330
1A
100
AcDbEntity
  8
ZUWAKU
100
AcDbLine
 10
14.09221216833714
 20
19.92499986828869
 30
0.0
 11
14.09221216833714
 21
18.63479784293335
 31
0.0
  0
LINE
  5
3F1F
330
1A
100
AcDbEntity
  8
ZUWAKU
100
AcDbLine
 10
17.59221216833714
 20
20.44999986828869
 30
0.0
 11
14.61721216833712
 21
20.44999986828869
 31
0.0
  0
LINE
  5
3F20
330
1A
100
AcDbEntity
  8
ZUWAKU
100
AcDbLine
 10
11.29221216833719
 20
20.44999986828869
 30
0.0
 11
11.29221216833719
 21
18.63479784293335
 31
0.0
  0
ARC
  5
3F21
330
1A
100
AcDbEntity
  8
ZUWAKU
100
AcDbCircle
 10
14.09221216833714
 20
20.44999986828869
 30
0.0
 40
2.8
100
AcDbArc
 50
90.0
 51
180.0
  0
LINE
  5
3F22
330
1A
100
AcDbEntity
  8
ZUWAKU
100
AcDbLine
 10
18.11721216833712
 20
22.72499986828868
 30
0.0
 11
18.11721216833712
 21
20.97499986828868
 31
0.0
  0
ARC
  5
3F23
330
1A
100
AcDbEntity
  8
ZUWAKU
100
AcDbCircle
 10
24.94221216833716
 20
19.04999986828869
 30
0.0
 40
1.4
100
AcDbArc
 50
90.0
 51
180.0
  0
ARC
  5
3F24
330
1A
100
AcDbEntity
  8
ZUWAKU
100
AcDbCircle
 10
24.94221216833716
 20
19.04999986828864
 30
0.0
 40
4.199999999999999
100
AcDbArc
 50
90.0
 51
180.0
  0
LINE
  5
3F25
330
1A
100
AcDbEntity
  8
ZUWAKU
100
AcDbLine
 10
79.32662956154422
 20
29.99999986828868
 30
0.0
 11
79.32662956154445
 21
0.7999998682887508
 31
0.0
  0
LINE
  5
3F26
330
1A
100
AcDbEntity
  8
ZUWAKU
100
AcDbLine
 10
79.52662956154427
 20
29.99999986828868
 30
0.0
 11
79.5266295615445
 21
0.7999998682887508
 31
0.0
  0
LINE
  5
3F27
330
1A
100
AcDbEntity
  8
ZUWAKU
100
AcDbLine
 10
79.12662956154441
 20
29.99999986828868
 30
0.0
 11
79.12662956154441
 21
0.7999998682887508
 31
0.0
  0
LINE
  5
3F28
330
1A
100
AcDbEntity
  8
ZUWAKU
100
AcDbLine
 10
64.14221216833721
 20
9.949999868288685
 30
0.0
 11
64.14221216833721
 21
22.72499986828868
 31
0.0
  0
LINE
  5
3F29
330
1A
100
AcDbEntity
  8
ZUWAKU
100
AcDbLine
 10
61.34221216833714
 20
22.72499986828868
 30
0.0
 11
61.34221216833714
 21
10.99999986828868
 31
0.0
  0
LINE
  5
3F2A
330
1A
100
AcDbEntity
  8
ZUWAKU
100
AcDbLine
 10
69.04221216833719
 20
7.674999868288687
 30
0.0
 11
69.04221216833719
 21
22.72499986828868
 31
0.0
  0
LINE
  5
3F2B
330
1A
100
AcDbEntity
  8
ZUWAKU
100
AcDbLine
 10
66.24221216833712
 20
22.72499986828868
 30
0.0
 11
66.24221216833712
 21
7.674999868288687
 31
0.0
  0
ARC
  5
3F2C
330
1A
100
AcDbEntity
  8
ZUWAKU
100
AcDbCircle
 10
49.79221216833719
 20
18.63479784293339
 30
0.0
 40
1.4
100
AcDbArc
 50
180.0000000000016
 51
224.9999999999988
  0
ARC
  5
3F2D
330
1A
100
AcDbEntity
  8
ZUWAKU
100
AcDbCircle
 10
49.79221216833719
 20
18.63479784293339
 30
0.0
 40
4.199999999999999
100
AcDbArc
 50
180.0
 51
225.0
  0
LINE
  5
3F2E
330
1A
100
AcDbEntity
  8
ZUWAKU
100
AcDbLine
 10
37.31485865051513
 20
19.20504706185211
 30
0.0
 11
36.05010690517929
 21
15.19999986828871
 31
0.0
  0
LINE
  5
3F2F
330
1A
100
AcDbEntity
  8
ZUWAKU
100
AcDbLine
 10
40.69221216833716
 20
22.72499986828868
 30
0.0
 11
40.69221216833716
 21
7.674999868288687
 31
0.0
  0
LINE
  5
3F30
330
1A
100
AcDbEntity
  8
ZUWAKU
100
AcDbLine
 10
43.49221216833712
 20
7.674999868288687
 30
0.0
 11
43.49221216833712
 21
22.72499986828868
 31
0.0
  0
LINE
  5
3F31
330
1A
100
AcDbEntity
  8
ZUWAKU
100
AcDbLine
 10
55.04221216833719
 20
22.72499986828868
 30
0.0
 11
55.04221216833719
 21
9.949999868288685
 31
0.0
  0
LINE
  5
3F32
330
1A
100
AcDbEntity
  8
ZUWAKU
100
AcDbLine
 10
57.84221216833714
 20
10.99999986828868
 30
0.0
 11
57.84221216833714
 21
22.72499986828868
 31
0.0
  0
LINE
  5
3F33
330
1A
100
AcDbEntity
  8
ZUWAKU
100
AcDbLine
 10
32.64221216833721
 20
17.12499986828869
 30
0.0
 11
32.64221216833721
 21
22.72499986828868
 31
0.0
  0
LINE
  5
3F34
330
1A
100
AcDbEntity
  8
ZUWAKU
100
AcDbLine
 10
29.84221216833714
 20
22.72499986828868
 30
0.0
 11
29.84221216833714
 21
7.674999868288687
 31
0.0
  0
LINE
  5
3F35
330
1A
100
AcDbEntity
  8
ZUWAKU
100
AcDbLine
 10
35.67634710565301
 20
22.88309383645566
 30
0.0
 11
33.80807723102123
 21
16.96690590012172
 31
0.0
  0
LINE
  5
3F36
330
1A
100
AcDbEntity
  8
ZUWAKU
100
AcDbLine
 10
60.29221216833719
 20
9.949999868288685
 30
0.0
 11
58.89221216833721
 21
9.949999868288685
 31
0.0
  0
LINE
  5
3F37
330
1A
100
AcDbEntity
  8
ZUWAKU
100
AcDbLine
 10
57.84221216833714
 20
7.149999868288688
 30
0.0
 11
61.34221216833714
 21
7.149999868288688
 31
0.0
  0
LINE
  5
3F38
330
1A
100
AcDbEntity
  8
ZUWAKU
100
AcDbLine
 10
41.21721216833714
 20
7.149999868288688
 30
0.0
 11
42.96721216833714
 21
7.149999868288688
 31
0.0
  0
LINE
  5
3F39
330
1A
100
AcDbEntity
  8
ZUWAKU
100
AcDbLine
 10
35.67634710565301
 20
7.516905900121714
 30
0.0
 11
33.80807723102123
 21
13.43309383645565
 31
0.0
  0
ARC
  5
3F3A
330
1A
100
AcDbEntity
  8
ZUWAKU
100
AcDbCircle
 10
33.30744633182587
 20
17.12499986828869
 30
0.0
 40
0.5249999999999999
100
AcDbArc
 50
270.0
 51
342.474431626277
  0
LINE
  5
3F3B
330
1A
100
AcDbEntity
  8
ZUWAKU
100
AcDbLine
 10
33.30744633182587
 20
16.59999986828868
 30
0.0
 11
33.16721216833719
 21
16.59999986828868
 31
0.0
  0
LINE
  5
3F3C
330
1A
100
AcDbEntity
  8
ZUWAKU
100
AcDbLine
 10
33.16721216833719
 20
13.79999986828869
 30
0.0
 11
33.30744633182587
 21
13.79999986828869
 31
0.0
  0
ARC
  5
3F3D
330
1A
100
AcDbEntity
  8
ZUWAKU
100
AcDbCircle
 10
33.16721216833719
 20
17.12499986828869
 30
0.0
 40
0.5249999999999999
100
AcDbArc
 50
180.0
 51
270.0
  0
LINE
  5
3F3E
330
1A
100
AcDbEntity
  8
ZUWAKU
100
AcDbLine
 10
30.36721216833712
 20
7.149999868288688
 30
0.0
 11
32.11721216833712
 21
7.149999868288688
 31
0.0
  0
ARC
  5
3F3F
330
1A
100
AcDbEntity
  8
ZUWAKU
100
AcDbCircle
 10
32.11721216833712
 20
7.674999868288687
 30
0.0
 40
0.5249999999999999
100
AcDbArc
 50
270.0
 51
0.0
  0
LINE
  5
3F40
330
1A
100
AcDbEntity
  8
ZUWAKU
100
AcDbLine
 10
32.64221216833721
 20
7.674999868288687
 30
0.0
 11
32.64221216833721
 21
13.27499986828869
 31
0.0
  0
LINE
  5
3F41
330
1A
100
AcDbEntity
  8
ZUWAKU
100
AcDbLine
 10
27.39221216833721
 20
9.424999868288687
 30
0.0
 11
27.39221216833721
 21
7.674999868288687
 31
0.0
  0
ARC
  5
3F42
330
1A
100
AcDbEntity
  8
ZUWAKU
100
AcDbCircle
 10
26.86721216833712
 20
7.674999868288687
 30
0.0
 40
0.5249999999999999
100
AcDbArc
 50
270.0
 51
0.0
  0
ARC
  5
3F43
330
1A
100
AcDbEntity
  8
ZUWAKU
100
AcDbCircle
 10
26.86721216833712
 20
9.424999868288687
 30
0.0
 40
0.5249999999999999
100
AcDbArc
 50
0.0
 51
90.0
  0
ARC
  5
3F44
330
1A
100
AcDbEntity
  8
ZUWAKU
100
AcDbCircle
 10
30.36721216833712
 20
7.674999868288687
 30
0.0
 40
0.5249999999999999
100
AcDbArc
 50
180.0
 51
270.0
  0
ARC
  5
3F45
330
1A
100
AcDbEntity
  8
ZUWAKU
100
AcDbCircle
 10
33.30744633182587
 20
13.27499986828869
 30
0.0
 40
0.5249999999999999
100
AcDbArc
 50
17.52556837372303
 51
90.0
  0
ARC
  5
3F46
330
1A
100
AcDbEntity
  8
ZUWAKU
100
AcDbCircle
 10
33.16721216833719
 20
13.27499986828869
 30
0.0
 40
0.5249999999999999
100
AcDbArc
 50
90.0
 51
180.0
  0
ARC
  5
3F47
330
1A
100
AcDbEntity
  8
ZUWAKU
100
AcDbCircle
 10
41.21721216833714
 20
7.674999868288687
 30
0.0
 40
0.5249999999999999
100
AcDbArc
 50
180.0
 51
270.0
  0
LINE
  5
3F48
330
1A
100
AcDbEntity
  8
ZUWAKU
100
AcDbLine
 10
36.17697800484848
 20
7.149999868288688
 30
0.0
 11
37.87586738445748
 21
7.149999868288688
 31
0.0
  0
ARC
  5
3F49
330
1A
100
AcDbEntity
  8
ZUWAKU
100
AcDbCircle
 10
37.87586738445748
 20
7.674999868288687
 30
0.0
 40
0.5249999999999999
100
AcDbArc
 50
270.0
 51
17.52556837372303
  0
LINE
  5
3F4A
330
1A
100
AcDbEntity
  8
ZUWAKU
100
AcDbLine
 10
38.37649828365295
 20
7.83309383645566
 30
0.0
 11
36.05010690517929
 21
15.19999986828871
 31
0.0
  0
ARC
  5
3F4B
330
1A
100
AcDbEntity
  8
ZUWAKU
100
AcDbCircle
 10
36.17697800484848
 20
7.674999868288687
 30
0.0
 40
0.5249999999999999
100
AcDbArc
 50
197.525568373723
 51
270.0
  0
ARC
  5
3F4C
330
1A
100
AcDbEntity
  8
ZUWAKU
100
AcDbCircle
 10
57.84221216833714
 20
9.949999868288685
 30
0.0
 40
2.8
100
AcDbArc
 50
180.0
 51
270.0
  0
ARC
  5
3F4D
330
1A
100
AcDbEntity
  8
ZUWAKU
100
AcDbCircle
 10
50.14221216833721
 20
9.949999868288685
 30
0.0
 40
2.8
100
AcDbArc
 50
270.0
 51
0.0
  0
LINE
  5
3F4E
330
1A
100
AcDbEntity
  8
ZUWAKU
100
AcDbLine
 10
51.71206064932073
 20
14.73505037462751
 30
0.0
 11
48.80226267467594
 21
17.64484834927219
 31
0.0
  0
LINE
  5
3F4F
330
1A
100
AcDbEntity
  8
ZUWAKU
100
AcDbLine
 10
50.14221216833721
 20
10.47499986828869
 30
0.0
 11
50.14221216833721
 21
11.76520189364403
 31
0.0
  0
ARC
  5
3F50
330
1A
100
AcDbEntity
  8
ZUWAKU
100
AcDbCircle
 10
48.74221216833712
 20
11.76520189364403
 30
0.0
 40
1.4
100
AcDbArc
 50
0.0
 51
45.0
  0
ARC
  5
3F51
330
1A
100
AcDbEntity
  8
ZUWAKU
100
AcDbCircle
 10
49.61721216833712
 20
10.47499986828869
 30
0.0
 40
0.5249999999999999
100
AcDbArc
 50
270.0
 51
0.0
  0
LINE
  5
3F52
330
1A
100
AcDbEntity
  8
ZUWAKU
100
AcDbLine
 10
46.11721216833712
 20
7.674999868288687
 30
0.0
 11
46.11721216833712
 21
9.424999868288687
 31
0.0
  0
ARC
  5
3F53
330
1A
100
AcDbEntity
  8
ZUWAKU
100
AcDbCircle
 10
46.64221216833721
 20
7.674999868288687
 30
0.0
 40
0.5249999999999999
100
AcDbArc
 50
180.0
 51
270.0
  0
ARC
  5
3F54
330
1A
100
AcDbEntity
  8
ZUWAKU
100
AcDbCircle
 10
42.96721216833714
 20
7.674999868288687
 30
0.0
 40
0.5249999999999999
100
AcDbArc
 50
270.0
 51
0.0
  0
ARC
  5
3F55
330
1A
100
AcDbEntity
  8
ZUWAKU
100
AcDbCircle
 10
46.64221216833721
 20
9.424999868288687
 30
0.0
 40
0.5249999999999999
100
AcDbArc
 50
90.0
 51
180.0
  0
LINE
  5
3F56
330
1A
100
AcDbEntity
  8
ZUWAKU
100
AcDbLine
 10
46.64221216833721
 20
9.949999868288685
 30
0.0
 11
49.61721216833712
 21
9.949999868288685
 31
0.0
  0
LINE
  5
3F57
330
1A
100
AcDbEntity
  8
ZUWAKU
100
AcDbLine
 10
46.64221216833721
 20
7.149999868288688
 30
0.0
 11
50.14221216833721
 21
7.149999868288688
 31
0.0
  0
LINE
  5
3F58
330
1A
100
AcDbEntity
  8
ZUWAKU
100
AcDbLine
 10
46.82236368735369
 20
15.66494936194987
 30
0.0
 11
49.73216166199836
 21
12.7551513873052
 31
0.0
  0
LINE
  5
3F59
330
1A
100
AcDbEntity
  8
ZUWAKU
100
AcDbLine
 10
52.94221216833716
 20
9.949999868288685
 30
0.0
 11
52.94221216833716
 21
11.76520189364403
 31
0.0
  0
ARC
  5
3F5A
330
1A
100
AcDbEntity
  8
ZUWAKU
100
AcDbCircle
 10
48.74221216833712
 20
11.76520189364399
 30
0.0
 40
4.199999999999999
100
AcDbArc
 50
0.0
 51
45.0
  0
ARC
  5
3F5B
330
1A
100
AcDbEntity
  8
ZUWAKU
100
AcDbCircle
 10
58.89221216833721
 20
10.99999986828868
 30
0.0
 40
1.05
100
AcDbArc
 50
180.0
 51
270.0
  0
ARC
  5
3F5C
330
1A
100
AcDbEntity
  8
ZUWAKU
100
AcDbCircle
 10
61.34221216833714
 20
9.949999868288685
 30
0.0
 40
2.8
100
AcDbArc
 50
270.0
 51
0.0
  0
LINE
  5
3F5D
330
1A
100
AcDbEntity
  8
ZUWAKU
100
AcDbLine
 10
66.76721216833721
 20
7.149999868288688
 30
0.0
 11
68.51721216833721
 21
7.149999868288688
 31
0.0
  0
ARC
  5
3F5E
330
1A
100
AcDbEntity
  8
ZUWAKU
100
AcDbCircle
 10
66.76721216833721
 20
7.674999868288687
 30
0.0
 40
0.5249999999999999
100
AcDbArc
 50
180.0
 51
270.0
  0
ARC
  5
3F5F
330
1A
100
AcDbEntity
  8
ZUWAKU
100
AcDbCircle
 10
60.29221216833719
 20
10.99999986828868
 30
0.0
 40
1.05
100
AcDbArc
 50
270.0
 51
0.0
  0
ARC
  5
3F60
330
1A
100
AcDbEntity
  8
ZUWAKU
100
AcDbCircle
 10
68.51721216833721
 20
7.674999868288687
 30
0.0
 40
0.5249999999999999
100
AcDbArc
 50
270.0
 51
0.0
  0
LINE
  5
3F61
330
1A
100
AcDbEntity
  8
ZUWAKU
100
AcDbLine
 10
42.96721216833714
 20
23.24999986828869
 30
0.0
 11
41.21721216833714
 21
23.24999986828869
 31
0.0
  0
ARC
  5
3F62
330
1A
100
AcDbEntity
  8
ZUWAKU
100
AcDbCircle
 10
32.11721216833712
 20
22.72499986828868
 30
0.0
 40
0.5249999999999999
100
AcDbArc
 50
0.0
 51
90.0
  0
LINE
  5
3F63
330
1A
100
AcDbEntity
  8
ZUWAKU
100
AcDbLine
 10
32.11721216833712
 20
23.24999986828869
 30
0.0
 11
30.36721216833712
 21
23.24999986828869
 31
0.0
  0
ARC
  5
3F64
330
1A
100
AcDbEntity
  8
ZUWAKU
100
AcDbCircle
 10
26.86721216833712
 20
22.72499986828868
 30
0.0
 40
0.5249999999999999
100
AcDbArc
 50
0.0
 51
90.0
  0
ARC
  5
3F65
330
1A
100
AcDbEntity
  8
ZUWAKU
100
AcDbCircle
 10
30.36721216833712
 20
22.72499986828868
 30
0.0
 40
0.5249999999999999
100
AcDbArc
 50
90.0
 51
180.0
  0
ARC
  5
3F66
330
1A
100
AcDbEntity
  8
ZUWAKU
100
AcDbCircle
 10
26.86721216833712
 20
20.97499986828868
 30
0.0
 40
0.5249999999999999
100
AcDbArc
 50
270.0
 51
0.0
  0
LINE
  5
3F67
330
1A
100
AcDbEntity
  8
ZUWAKU
100
AcDbLine
 10
27.39221216833721
 20
22.72499986828868
 30
0.0
 11
27.39221216833721
 21
20.97499986828868
 31
0.0
  0
ARC
  5
3F68
330
1A
100
AcDbEntity
  8
ZUWAKU
100
AcDbCircle
 10
41.21721216833714
 20
22.72499986828868
 30
0.0
 40
0.5249999999999999
100
AcDbArc
 50
90.0
 51
180.0
  0
LINE
  5
3F69
330
1A
100
AcDbEntity
  8
ZUWAKU
100
AcDbLine
 10
36.17697800484848
 20
23.24999986828869
 30
0.0
 11
37.87586738445748
 21
23.24999986828869
 31
0.0
  0
ARC
  5
3F6A
330
1A
100
AcDbEntity
  8
ZUWAKU
100
AcDbCircle
 10
37.87586738445748
 20
22.72499986828868
 30
0.0
 40
0.5249999999999999
100
AcDbArc
 50
342.474431626277
 51
90.0
  0
LINE
  5
3F6B
330
1A
100
AcDbEntity
  8
ZUWAKU
100
AcDbLine
 10
38.37649828365295
 20
22.56690590012172
 30
0.0
 11
37.31485865051513
 21
19.20504706185211
 31
0.0
  0
ARC
  5
3F6C
330
1A
100
AcDbEntity
  8
ZUWAKU
100
AcDbCircle
 10
36.17697800484848
 20
22.72499986828868
 30
0.0
 40
0.5249999999999999
100
AcDbArc
 50
90.0
 51
162.474431626277
  0
LINE
  5
3F6D
330
1A
100
AcDbEntity
  8
ZUWAKU
100
AcDbLine
 10
48.39221216833721
 20
23.24999986828869
 30
0.0
 11
51.89221216833721
 21
23.24999986828869
 31
0.0
  0
LINE
  5
3F6E
330
1A
100
AcDbEntity
  8
ZUWAKU
100
AcDbLine
 10
51.89221216833721
 20
20.44999986828869
 30
0.0
 11
48.91721216833719
 21
20.44999986828869
 31
0.0
  0
ARC
  5
3F6F
330
1A
100
AcDbEntity
  8
ZUWAKU
100
AcDbCircle
 10
48.91721216833719
 20
19.92499986828869
 30
0.0
 40
0.5249999999999999
100
AcDbArc
 50
90.0
 51
180.0
  0
LINE
  5
3F70
330
1A
100
AcDbEntity
  8
ZUWAKU
100
AcDbLine
 10
48.39221216833721
 20
19.92499986828869
 30
0.0
 11
48.39221216833721
 21
18.63479784293335
 31
0.0
  0
ARC
  5
3F71
330
1A
100
AcDbEntity
  8
ZUWAKU
100
AcDbCircle
 10
42.96721216833714
 20
22.72499986828868
 30
0.0
 40
0.5249999999999999
100
AcDbArc
 50
0.0
 51
90.0
  0
LINE
  5
3F72
330
1A
100
AcDbEntity
  8
ZUWAKU
100
AcDbLine
 10
45.59221216833714
 20
20.44999986828869
 30
0.0
 11
45.59221216833714
 21
18.63479784293335
 31
0.0
  0
ARC
  5
3F73
330
1A
100
AcDbEntity
  8
ZUWAKU
100
AcDbCircle
 10
48.39221216833721
 20
20.44999986828869
 30
0.0
 40
2.8
100
AcDbArc
 50
90.0
 51
180.0
  0
ARC
  5
3F74
330
1A
100
AcDbEntity
  8
ZUWAKU
100
AcDbCircle
 10
57.31721216833716
 20
22.72499986828868
 30
0.0
 40
0.5249999999999999
100
AcDbArc
 50
0.0
 51
90.0
  0
ARC
  5
3F75
330
1A
100
AcDbEntity
  8
ZUWAKU
100
AcDbCircle
 10
55.56721216833716
 20
22.72499986828868
 30
0.0
 40
0.5249999999999999
100
AcDbArc
 50
90.0
 51
180.0
  0
LINE
  5
3F76
330
1A
100
AcDbEntity
  8
ZUWAKU
100
AcDbLine
 10
57.31721216833716
 20
23.24999986828869
 30
0.0
 11
55.56721216833716
 21
23.24999986828869
 31
0.0
  0
ARC
  5
3F77
330
1A
100
AcDbEntity
  8
ZUWAKU
100
AcDbCircle
 10
51.89221216833721
 20
22.72499986828868
 30
0.0
 40
0.5249999999999999
100
AcDbArc
 50
0.0
 51
90.0
  0
ARC
  5
3F78
330
1A
100
AcDbEntity
  8
ZUWAKU
100
AcDbCircle
 10
51.89221216833721
 20
20.97499986828868
 30
0.0
 40
0.5249999999999999
100
AcDbArc
 50
270.0
 51
0.0
  0
LINE
  5
3F79
330
1A
100
AcDbEntity
  8
ZUWAKU
100
AcDbLine
 10
52.41721216833719
 20
22.72499986828868
 30
0.0
 11
52.41721216833719
 21
20.97499986828868
 31
0.0
  0
LINE
  5
3F7A
330
1A
100
AcDbEntity
  8
ZUWAKU
100
AcDbLine
 10
68.51721216833721
 20
23.24999986828869
 30
0.0
 11
66.76721216833721
 21
23.24999986828869
 31
0.0
  0
ARC
  5
3F7B
330
1A
100
AcDbEntity
  8
ZUWAKU
100
AcDbCircle
 10
66.76721216833721
 20
22.72499986828868
 30
0.0
 40
0.5249999999999999
100
AcDbArc
 50
90.0
 51
180.0
  0
ARC
  5
3F7C
330
1A
100
AcDbEntity
  8
ZUWAKU
100
AcDbCircle
 10
63.61721216833712
 20
22.72499986828868
 30
0.0
 40
0.5249999999999999
100
AcDbArc
 50
0.0
 51
90.0
  0
LINE
  5
3F7D
330
1A
100
AcDbEntity
  8
ZUWAKU
100
AcDbLine
 10
63.61721216833712
 20
23.24999986828869
 30
0.0
 11
61.86721216833712
 21
23.24999986828869
 31
0.0
  0
ARC
  5
3F7E
330
1A
100
AcDbEntity
  8
ZUWAKU
100
AcDbCircle
 10
61.86721216833712
 20
22.72499986828868
 30
0.0
 40
0.5249999999999999
100
AcDbArc
 50
90.0
 51
180.0
  0
ARC
  5
3F7F
330
1A
100
AcDbEntity
  8
ZUWAKU
100
AcDbCircle
 10
68.51721216833721
 20
22.72499986828868
 30
0.0
 40
0.5249999999999999
100
AcDbArc
 50
0.0
 51
90.0
  0
TEXT
  5
3F80
330
1A
100
AcDbEntity
  8
moji
100
AcDbText
 10
239.8272026944071
 20
18.00492092569607
 30
0.0
 40
5.6
  1
ステンレス金具正面打（吊）自在式
 41
0.9
  7
ｽﾀｲﾙ1
100
AcDbText
  0
TEXT
  5
3F81
330
1A
100
AcDbEntity
  8
moji
100
AcDbText
 10
239.8272026944071
 20
3.204920925696104
 30
0.0
 40
5.6
  1
Σ９０－４－１０～４５
 41
0.9
  7
ｽﾀｲﾙ1
100
AcDbText
  0
LINE
  5
3F82
330
1A
100
AcDbEntity
  8
ZUWAKU
100
AcDbLine
 10
208.246601303624
 20
29.99999986828868
 30
0.0
 11
208.246601303624
 21
0.7999998682887508
 31
0.0
  0
LINE
  5
3F83
330
1A
100
AcDbEntity
  8
ZUWAKU
100
AcDbLine
 10
208.6466013036238
 20
29.99999986828868
 30
0.0
 11
208.646601303624
 21
0.7999998682887508
 31
0.0
  0
LINE
  5
3F84
330
1A
100
AcDbEntity
  8
ZUWAKU
100
AcDbLine
 10
208.4466013036238
 20
29.99999986828868
 30
0.0
 11
208.446601303624
 21
0.7999998682887508
 31
0.0
  0
TEXT
  5
3F85
330
1A
100
AcDbEntity
  8
ZUWAKU
100
AcDbText
 10
209.7240463258336
 20
9.655356406674301
 30
0.0
 40
4.0
  1
サイズ
 41
0.9
  7
ｽﾀｲﾙ1
100
AcDbText
  0
TEXT
  5
3F86
330
1A
100
AcDbEntity
  8
ZUWAKU
100
AcDbText
 10
209.7240463258333
 20
24.05535640667426
 30
0.0
 40
4.0
  1
品名
 41
0.9
  7
ｽﾀｲﾙ1
100
AcDbText
  0
LINE
  5
3F87
330
1A
100
AcDbEntity
  8
ZUWAKU
100
AcDbLine
 10
648.8172025237602
 20
15.19999986828871
 30
0.0
 11
697.2490105620973
 21
15.19999986828872
 31
0.0
  0
LINE
  5
3F88
330
1A
100
AcDbEntity
  8
ZUWAKU
100
AcDbLine
 10
648.8172025237604
 20
15.39999986828872
 30
0.0
 11
697.2490105620973
 21
15.39999986828872
 31
0.0
  0
LINE
  5
3F89
330
1A
100
AcDbEntity
  8
ZUWAKU
100
AcDbLine
 10
648.8172025237602
 20
15.59999986828872
 30
0.0
 11
697.2490105620973
 21
15.59999986828872
 31
0.0
  0
TEXT
  5
3F8A
330
1A
100
AcDbEntity
  8
ZUWAKU
100
AcDbText
 10
658.2039377008584
 20
18.00492092569607
 30
0.0
 40
5.6
  1
　　．　　．　　
 41
0.9
  7
ｽﾀｲﾙ1
100
AcDbText
  0
LINE
  5
3F8B
330
1A
100
AcDbEntity
  8
ZUWAKU
100
AcDbLine
 10
505.1991795116969
 20
15.19999986828872
 30
0.0
 11
552.5269557796685
 21
15.19999986828872
 31
0.0
  0
LINE
  5
3F8C
330
1A
100
AcDbEntity
  8
ZUWAKU
100
AcDbLine
 10
505.1991795116969
 20
15.39999986828872
 30
0.0
 11
552.5269557796685
 21
15.39999986828872
 31
0.0
  0
LINE
  5
3F8D
330
1A
100
AcDbEntity
  8
ZUWAKU
100
AcDbLine
 10
505.1991795116969
 20
15.59999986828872
 30
0.0
 11
552.5269557796685
 21
15.59999986828872
 31
0.0
  0
TEXT
  5
3F8E
330
1A
100
AcDbEntity
  8
moji
100
AcDbText
 10
463.2464320045581
 20
11.94261758994867
 30
0.0
 40
5.6
  1
ＬＧ１７Ｇ
 41
0.9
  7
ｽﾀｲﾙ1
100
AcDbText
  0
LINE
  5
3F8F
330
1A
100
AcDbEntity
  8
ZUWAKU
100
AcDbLine
 10
447.6243639845472
 20
29.99999986828868
 30
0.0
 11
447.6243639845475
 21
0.7999998682887508
 31
0.0
  0
LINE
  5
3F90
330
1A
100
AcDbEntity
  8
ZUWAKU
100
AcDbLine
 10
447.8243639845473
 20
29.99999986828868
 30
0.0
 11
447.8243639845475
 21
0.7999998682887508
 31
0.0
  0
LINE
  5
3F91
330
1A
100
AcDbEntity
  8
ZUWAKU
100
AcDbLine
 10
447.4243639845474
 20
29.99999986828868
 30
0.0
 11
447.4243639845474
 21
0.7999998682887508
 31
0.0
  0
TEXT
  5
3F92
330
1A
100
AcDbEntity
  8
moji
100
AcDbText
 10
528.0409079858689
 20
18.00492092569607
 30
0.0
 40
5.6
  1
Ａ３
 41
0.9
  7
ｽﾀｲﾙ1
100
AcDbText
  0
LINE
  5
3F93
330
1A
100
AcDbEntity
  8
ZUWAKU
100
AcDbLine
 10
504.9991795116969
 20
29.99999986828868
 30
0.0
 11
504.9991795116971
 21
0.7999998682887508
 31
0.0
  0
LINE
  5
3F94
330
1A
100
AcDbEntity
  8
ZUWAKU
100
AcDbLine
 10
505.1991795116969
 20
29.99999986828868
 30
0.0
 11
505.1991795116971
 21
0.7999998682887508
 31
0.0
  0
LINE
  5
3F95
330
1A
100
AcDbEntity
  8
ZUWAKU
100
AcDbLine
 10
504.7991795116971
 20
29.99999986828868
 30
0.0
 11
504.7991795116971
 21
0.7999998682887508
 31
0.0
  0
TEXT
  5
3F97
330
1A
100
AcDbEntity
  8
ZUWAKU
100
AcDbText
 10
506.6766245339068
 20
9.655356406674301
 30
0.0
 40
4.0
  1
縮尺
 41
0.9
  7
ｽﾀｲﾙ1
100
AcDbText
  0
TEXT
  5
3F98
330
1A
100
AcDbEntity
  8
moji
100
AcDbText
 10
528.0409079858689
 20
3.204920925696104
 30
0.0
 40
5.6
  1
１/２
 41
0.9
  7
ｽﾀｲﾙ1
100
AcDbText
  0
TEXT
  5
3F99
330
1A
100
AcDbEntity
  8
ZUWAKU
100
AcDbText
 10
449.3018090067569
 20
24.05535640667426
 30
0.0
 40
4.0
  1
品番
 41
0.9
  7
ｽﾀｲﾙ1
100
AcDbText
  0
TEXT
  5
3F9A
330
1A
100
AcDbEntity
  8
ZUWAKU
100
AcDbText
 10
506.6766245339065
 20
24.05535640667426
 30
0.0
 40
4.0
  1
用紙
 41
0.9
  7
ｽﾀｲﾙ1
100
AcDbText
  0
LINE
  5
3F9B
330
1A
100
AcDbEntity
  8
ZUWAKU
100
AcDbLine
 10
648.6172025237604
 20
29.99999986828868
 30
0.0
 11
648.6172025237606
 21
0.7999998682887508
 31
0.0
  0
LINE
  5
3F9C
330
1A
100
AcDbEntity
  8
ZUWAKU
100
AcDbLine
 10
648.8172025237604
 20
29.99999986828868
 30
0.0
 11
648.8172025237607
 21
0.7999998682887508
 31
0.0
  0
LINE
  5
3F9D
330
1A
100
AcDbEntity
  8
ZUWAKU
100
AcDbLine
 10
648.4172025237606
 20
29.99999986828868
 30
0.0
 11
648.4172025237606
 21
0.7999998682887508
 31
0.0
  0
LINE
  5
3F9E
330
1A
100
AcDbEntity
  8
ZUWAKU
100
AcDbLine
 10
552.7269557796683
 20
29.99999986828868
 30
0.0
 11
552.7269557796685
 21
0.7999998682887508
 31
0.0
  0
LINE
  5
3F9F
330
1A
100
AcDbEntity
  8
ZUWAKU
100
AcDbLine
 10
552.9269557796683
 20
29.99999986828868
 30
0.0
 11
552.9269557796686
 21
0.7999998682887508
 31
0.0
  0
LINE
  5
3FA0
330
1A
100
AcDbEntity
  8
ZUWAKU
100
AcDbLine
 10
552.5269557796685
 20
29.99999986828868
 30
0.0
 11
552.5269557796685
 21
0.7999998682887508
 31
0.0
  0
TEXT
  5
3FA1
330
1A
100
AcDbEntity
  8
ZUWAKU
100
AcDbText
 10
650.2946475459701
 20
24.05535640667426
 30
0.0
 40
4.0
  1
DATE
 41
0.9
  7
ｽﾀｲﾙ1
100
AcDbText
  0
LINE
  5
3FA2
330
1A
100
AcDbEntity
  8
ZUWAKU
100
AcDbLine
 10
697.2490105620973
 20
29.99999986828868
 30
0.0
 11
697.2490105620973
 21
0.7999998682887508
 31
0.0
  0
LINE
  5
3FA3
330
1A
100
AcDbEntity
  8
ZUWAKU
100
AcDbLine
 10
697.4490105620973
 20
29.99999986828868
 30
0.0
 11
697.4490105620973
 21
0.7999998682887508
 31
0.0
  0
LINE
  5
3FA4
330
1A
100
AcDbEntity
  8
ZUWAKU
100
AcDbLine
 10
697.6490105620972
 20
29.99999986828868
 30
0.0
 11
697.6490105620974
 21
0.7999998682887508
 31
0.0
  0
LINE
  5
3FA5
330
1A
100
AcDbEntity
  8
ZUWAKU
100
AcDbLine
 10
697.8490105620972
 20
29.99999986828868
 30
0.0
 11
697.8490105620974
 21
0.7999998682887508
 31
0.0
  0
TEXT
  5
3FA6
330
1A
100
AcDbEntity
  8
ZUWAKU
100
AcDbText
 10
708.5280842057998
 20
17.55383920397549
 30
0.0
 40
6.0
  1
積水化学工業株式会社
 41
0.9
  7
ｽﾀｲﾙ1
100
AcDbText
  0
TEXT
  5
3FA7
330
1A
100
AcDbEntity
  8
ZUWAKU
100
AcDbText
 10
708.5280842057998
 20
6.648840182142749
 30
0.0
 40
6.0
  1
建材事業部
 41
0.9
  7
ｽﾀｲﾙ1
100
AcDbText
  0
DIMENSION
  5
49EC
330
1A
100
AcDbEntity
  8
SUNPOU
 62
     4
 48
5.0
100
AcDbDimension
  2
*D1
 10
424.2984173822506
 20
195.1594362907147
 30
0.0
 11
422.9995844999014
 21
211.8720971543752
 31
0.0
 70
    33
 71
     5
 42
66.65650644113805
  3
STANDARD
100
AcDbAlignedDimension
 13
381.4868508322249
 23
249.8273607640717
 33
0.0
 14
406.2386249630011
 24
187.9368160232431
 34
0.0
1001
ACAD
1000
DSTYLE
1002
{
1070
   140
1040
6.0
1070
    74
1070
     0
1070
   172
1070
     1
1070
    73
1070
     0
1070
   272
1070
     2
1070
    77
1070
     3
1070
   173
1070
     1
1070
   280
1070
     2
1070
   147
1040
2.0
1070
    42
1040
6.0
1070
    44
1040
3.0
1070
    43
1040
14.0
1070
   271
1070
     0
1070
   178
1070
     4
1070
   177
1070
     4
1070
   176
1070
     4
1070
   141
1040
150.0
1070
     7
1000
_OPEN
1070
     6
1000
_OPEN
1070
    41
1040
7.0
1002
}
  0
DIMENSION
  5
49ED
330
1A
100
AcDbEntity
  8
SUNPOU
 48
5.0
100
AcDbDimension
  2
*D2
 10
413.5476490626009
 20
166.2673405771118
 30
0.0
 11
389.4069907781057
 21
161.9978420595771
 31
0.0
 70
    33
  1
t<>
 71
     5
 42
1.200000416666455
  3
STANDARD
100
AcDbAlignedDimension
 13
406.1827582346148
 23
187.9144733431417
 33
0.0
 14
405.0685582346148
 24
187.4688733431417
 34
0.0
1001
ACAD
1000
DSTYLE
1002
{
1070
   140
1040
6.0
1070
    74
1070
     0
1070
   172
1070
     1
1070
    73
1070
     0
1070
   272
1070
     2
1070
    77
1070
     3
1070
   173
1070
     1
1070
   147
1040
2.0
1070
    42
1040
6.0
1070
    44
1040
3.0
1070
    43
1040
14.0
1070
   271
1070
     1
1070
   178
1070
     4
1070
   177
1070
     4
1070
   176
1070
     4
1070
   141
1040
150.0
1070
     7
1000
_OPEN
1070
     6
1000
_OPEN
1070
    41
1040
7.0
1002
}
  0
ARC
  5
49EE
330
1A
100
AcDbEntity
  8
SEIHIN
  6
PHANTOM
 62
     6
 48
5.0
100
AcDbCircle
 10
411.918037365285
 20
242.2322861819771
 30
0.0
 40
7.000023217473864
100
AcDbArc
 50
21.80003253006037
 51
94.99989243073711
  0
DIMENSION
  5
49EF
330
1A
100
AcDbEntity
  8
SUNPOU
 48
5.0
100
AcDbDimension
  2
*D3
 10
436.2038576499072
 20
365.5152617897087
 30
0.0
 11
431.2038576499071
 21
393.0152617897089
 31
0.0
 70
    32
 71
     5
 42
55.00000000000011
  3
STANDARD
100
AcDbAlignedDimension
 13
393.741958234615
 23
420.5152617897088
 33
0.0
 14
393.741958234615
 24
365.5152617897087
 34
0.0
 50
90.0
100
AcDbRotatedDimension
1001
ACAD
1000
DSTYLE
1002
{
1070
   140
1040
6.0
1070
    74
1070
     0
1070
   172
1070
     1
1070
    73
1070
     0
1070
   272
1070
     2
1070
    77
1070
     3
1070
   173
1070
     1
1070
   147
1040
2.0
1070
    42
1040
6.0
1070
    44
1040
3.0
1070
    43
1040
14.0
1070
   271
1070
     0
1070
   178
1070
     4
1070
   177
1070
     4
1070
   176
1070
     4
1070
   141
1040
150.0
1070
     7
1000
_OPEN
1070
     6
1000
_OPEN
1070
    41
1040
7.0
1002
}
  0
LINE
  5
49F0
330
1A
100
AcDbEntity
  8
SUNPOU
  6
Continuous
 62
     4
 48
5.0
100
AcDbLine
 10
408.4106574610041
 20
182.3434752775156
 30
0.0
 11
428.5372012262426
 21
132.0232752775156
 31
0.0
  0
DIMENSION
  5
49F1
330
1A
100
AcDbEntity
  8
SUNPOU
100
AcDbDimension
  2
*D4
 10
251.232258234615
 20
299.3544623777343
 30
0.0
 11
316.3595545334199
 21
304.3544623777343
 31
0.0
 70
    32
 71
     5
 42
130.2545925976099
  3
STANDARD
100
AcDbAlignedDimension
 13
381.4868508322248
 23
249.8273607640717
 33
0.0
 14
251.232258234615
 24
243.3372733431417
 34
0.0
100
AcDbRotatedDimension
1001
ACAD
1000
DSTYLE
1002
{
1070
   140
1040
6.0
1070
    74
1070
     0
1070
   172
1070
     1
1070
    73
1070
     0
1070
   272
1070
     2
1070
    77
1070
     3
1070
   173
1070
     1
1070
   147
1040
2.0
1070
    42
1040
6.0
1070
    44
1040
3.0
1070
    43
1040
14.0
1070
   271
1070
     0
1070
   178
1070
     4
1070
   177
1070
     4
1070
   176
1070
     4
1070
   141
1040
150.0
1070
     7
1000
_OPEN
1070
     6
1000
_OPEN
1070
    41
1040
7.0
1002
}
  0
DIMENSION
  5
49F2
330
1A
100
AcDbEntity
  8
SUNPOU
100
AcDbDimension
  2
*D5
 10
416.4868508322248
 20
299.3544623777343
 30
0.0
 11
398.9868508322248
 21
304.3544623777343
 31
0.0
 70
    32
 71
     5
 42
34.99999999999983
  3
STANDARD
100
AcDbAlignedDimension
 13
381.486850832225
 23
249.8273607640717
 33
0.0
 14
416.4868508322248
 24
249.6587649920094
 34
0.0
100
AcDbRotatedDimension
1001
ACAD
1000
DSTYLE
1002
{
1070
   140
1040
6.0
1070
    74
1070
     0
1070
   172
1070
     1
1070
    73
1070
     0
1070
   272
1070
     2
1070
    77
1070
     3
1070
   173
1070
     1
1070
   147
1040
2.0
1070
    42
1040
6.0
1070
    44
1040
3.0
1070
    43
1040
14.0
1070
   271
1070
     0
1070
   178
1070
     4
1070
   177
1070
     4
1070
   176
1070
     4
1070
   141
1040
150.0
1070
     7
1000
_OPEN
1070
     6
1000
_OPEN
1070
    41
1040
7.0
1002
}
  0
DIMENSION
  5
49F3
330
1A
100
AcDbEntity
  8
SUNPOU
100
AcDbDimension
  2
*D6
 10
381.486850832225
 20
284.8526502368691
 30
0.0
 11
331.85955453342
 21
289.8526502368691
 31
0.0
 70
    32
 71
     5
 42
99.25459259760999
  3
STANDARD
100
AcDbAlignedDimension
 13
282.232258234615
 23
214.0371733431417
 33
0.0
 14
381.486850832225
 24
249.8273607640717
 34
0.0
100
AcDbRotatedDimension
1001
ACAD
1000
DSTYLE
1002
{
1070
   140
1040
6.0
1070
    74
1070
     0
1070
   172
1070
     1
1070
    73
1070
     0
1070
   272
1070
     2
1070
    77
1070
     3
1070
   173
1070
     1
1070
   147
1040
2.0
1070
    42
1040
6.0
1070
    44
1040
3.0
1070
    43
1040
14.0
1070
   271
1070
     0
1070
   178
1070
     4
1070
   177
1070
     4
1070
   176
1070
     4
1070
   141
1040
150.0
1070
     7
1000
_OPEN
1070
     6
1000
_OPEN
1070
    41
1040
7.0
1002
}
  0
DIMENSION
  5
49F4
330
1A
100
AcDbEntity
  8
SUNPOU
 48
5.0
100
AcDbDimension
  2
*D7
 10
216.1023677121552
 20
187.4688733431417
 30
0.0
 11
211.1023677121552
 21
215.4030733431417
 31
0.0
 70
    32
 71
     5
 42
55.86839999999992
  3
STANDARD
100
AcDbAlignedDimension
 13
251.232258234615
 23
243.3372733431417
 33
0.0
 14
405.0685582346148
 24
187.4688733431417
 34
0.0
 50
90.0
100
AcDbRotatedDimension
1001
ACAD
1000
DSTYLE
1002
{
1070
   140
1040
6.0
1070
    74
1070
     0
1070
   172
1070
     1
1070
    73
1070
     0
1070
   272
1070
     2
1070
    77
1070
     3
1070
   173
1070
     1
1070
   147
1040
2.0
1070
    42
1040
6.0
1070
    44
1040
3.0
1070
    43
1040
14.0
1070
   271
1070
     0
1070
   178
1070
     4
1070
   177
1070
     4
1070
   176
1070
     4
1070
   141
1040
150.0
1070
     7
1000
_OPEN
1070
     6
1000
_OPEN
1070
    41
1040
7.0
1002
}
  0
ARC
  5
49F5
330
1A
100
AcDbEntity
  8
SEIHIN
  6
Continuous
 62
     3
 48
5.0
100
AcDbCircle
 10
285.2767253385754
 20
195.0329596711607
 30
0.0
 40
1.500025314675953
100
AcDbArc
 50
240.0020091372169
 51
345.1363355749837
  0
LINE
  5
49F6
330
1A
100
AcDbEntity
  8
SEIHIN
  6
Continuous
 62
     3
 48
5.0
100
AcDbLine
 10
287.7321582346149
 20
198.4371733431417
 30
0.0
 11
286.726558234615
 21
194.6481733431417
 31
0.0
  0
LINE
  5
49F7
330
1A
100
AcDbEntity
  8
SEIHIN
  6
Continuous
 62
     3
 48
5.0
100
AcDbLine
 10
286.732458234615
 20
204.4371733431417
 30
0.0
 11
287.732458234615
 21
198.4371733431417
 31
0.0
  0
LINE
  5
49F8
330
1A
100
AcDbEntity
  8
SEIHIN
  6
Continuous
 62
     3
 48
5.0
100
AcDbLine
 10
285.732458234615
 20
204.4371733431417
 30
0.0
 11
298.732458234615
 21
204.4371733431417
 31
0.0
  0
LINE
  5
49F9
330
1A
100
AcDbEntity
  8
SEIHIN
  6
Continuous
 62
     3
 48
5.0
100
AcDbLine
 10
282.232258234615
 20
214.0371733431417
 30
0.0
 11
300.232258234615
 21
214.0371733431417
 31
0.0
  0
LINE
  5
49FA
330
1A
100
AcDbEntity
  8
SEIHIN
  6
Continuous
 62
     3
 48
5.0
100
AcDbLine
 10
300.232258234615
 20
207.0371733431417
 30
0.0
 11
282.232258234615
 21
207.0371733431417
 31
0.0
  0
LINE
  5
49FB
330
1A
100
AcDbEntity
  8
SEIHIN
  6
Continuous
 62
     3
 48
5.0
100
AcDbLine
 10
274.0670582346149
 20
206.8371733431417
 30
0.0
 11
360.732258234615
 21
206.8371733431417
 31
0.0
  0
LINE
  5
49FC
330
1A
100
AcDbEntity
  8
SEIHIN
  6
Continuous
 62
     3
 48
5.0
100
AcDbLine
 10
360.732258234615
 20
206.4371733431417
 30
0.0
 11
277.732258234615
 21
206.4371733431417
 31
0.0
  0
LINE
  5
49FD
330
1A
100
AcDbEntity
  8
SEIHIN
  6
Continuous
 62
     3
 48
5.0
100
AcDbLine
 10
282.232258234615
 20
207.0371733431417
 30
0.0
 11
282.232258234615
 21
214.0371733431417
 31
0.0
  0
ARC
  5
49FE
330
1A
100
AcDbEntity
  8
SEIHIN
  6
Continuous
 62
     3
 48
5.0
100
AcDbCircle
 10
274.0670651477422
 20
211.8372680411361
 30
0.0
 40
4.999994697999171
100
AcDbArc
 50
195.0272975935217
 51
269.9999207813129
  0
LINE
  5
49FF
330
1A
100
AcDbEntity
  8
SEIHIN
  6
Continuous
 62
     3
 48
5.0
100
AcDbLine
 10
280.5525582346149
 20
197.1831733431417
 30
0.0
 11
285.0267582346149
 21
194.5999733431417
 31
0.0
  0
LINE
  5
4A00
330
1A
100
AcDbEntity
  8
SEIHIN
  6
Continuous
 62
     3
 48
5.0
100
AcDbLine
 10
285.760058234615
 20
194.9046733431417
 30
0.0
 11
286.682658234615
 21
198.3811733431417
 31
0.0
  0
LINE
  5
4A01
330
1A
100
AcDbEntity
  8
SEIHIN
  6
Continuous
 62
     3
 48
5.0
100
AcDbLine
 10
284.5267582346149
 20
193.7338733431417
 30
0.0
 11
280.0525582346149
 21
196.3170733431417
 31
0.0
  0
ARC
  5
4A02
330
1A
100
AcDbEntity
  8
SEIHIN
  6
Continuous
 62
     3
 48
5.0
100
AcDbCircle
 10
285.2767374027816
 20
195.0329646849507
 30
0.0
 40
0.5000576915389073
100
AcDbArc
 50
240.0065723114998
 51
345.1343679547227
  0
LINE
  5
4A03
330
1A
100
AcDbEntity
  8
SEIHIN
  6
Continuous
 62
     3
 48
5.0
100
AcDbLine
 10
277.732258234615
 20
206.8371733431417
 30
0.0
 11
277.732258234615
 21
206.4372733431417
 31
0.0
  0
LINE
  5
4A04
330
1A
100
AcDbEntity
  8
SEIHIN
  6
Continuous
 62
     3
 48
5.0
100
AcDbLine
 10
285.732458234615
 20
204.4371733431417
 30
0.0
 11
285.732458234615
 21
206.4371733431417
 31
0.0
  0
LINE
  5
4A05
330
1A
100
AcDbEntity
  8
SEIHIN
  6
Continuous
 62
     3
 48
5.0
100
AcDbLine
 10
286.172658234615
 20
201.7108733431417
 30
0.0
 11
286.6925582346149
 21
198.5916733431417
 31
0.0
  0
ARC
  5
4A06
330
1A
100
AcDbEntity
  8
SEIHIN
  6
Continuous
 62
     3
 48
5.0
100
AcDbCircle
 10
286.1993541290144
 20
198.5093863628348
 30
0.0
 40
0.5000214364497365
100
AcDbArc
 50
345.1425505320807
 51
9.47207603994482
  0
LINE
  5
4A07
330
1A
100
AcDbEntity
  8
SEIHIN
  6
Continuous
 62
     3
 48
5.0
100
AcDbLine
 10
280.4848582346149
 20
198.0022733431417
 30
0.0
 11
285.3618582346149
 21
202.0147733431417
 31
0.0
  0
ARC
  5
4A08
330
1A
100
AcDbEntity
  8
SEIHIN
  6
Continuous
 62
     3
 48
5.0
100
AcDbCircle
 10
285.6794907364045
 20
201.6286611596964
 30
0.0
 40
0.4999730236703156
100
AcDbArc
 50
9.46431173228871
 51
129.4421850157523
  0
ARC
  5
4A09
330
1A
100
AcDbEntity
  8
SEIHIN
  6
Continuous
 62
     3
 48
5.0
100
AcDbCircle
 10
280.8025631259606
 20
197.6161141476273
 30
0.0
 40
1.500004782912747
100
AcDbArc
 50
129.4448031982777
 51
239.9998897393949
  0
LINE
  5
4A0A
330
1A
100
AcDbEntity
  8
SEIHIN
  6
Continuous
 62
     3
 48
5.0
100
AcDbLine
 10
286.7321582346149
 20
204.4371733431417
 30
0.0
 11
279.849558234615
 21
198.7744733431417
 31
0.0
  0
ARC
  5
4A0B
330
1A
100
AcDbEntity
  8
SEIHIN
  6
Continuous
 62
     3
 48
5.0
100
AcDbCircle
 10
280.8025573578111
 20
197.6161839531288
 30
0.0
 40
0.499997749955147
100
AcDbArc
 50
129.4497400827785
 51
239.9999671558235
  0
LINE
  5
4A0C
330
1A
100
AcDbEntity
  8
SEIHIN
  6
Continuous
 62
     3
 48
5.0
100
AcDbLine
 10
252.9322582346149
 20
237.8372733431417
 30
0.0
 11
261.9869582346149
 21
237.8372733431417
 31
0.0
  0
LINE
  5
4A0D
330
1A
100
AcDbEntity
  8
SEIHIN
  6
Continuous
 62
     3
 48
5.0
100
AcDbLine
 10
252.9322582346149
 20
236.6372733431417
 30
0.0
 11
258.397558234615
 21
236.6372733431417
 31
0.0
  0
LINE
  5
4A0E
330
1A
100
AcDbEntity
  8
SEIHIN
  6
Continuous
 62
     3
 48
5.0
100
AcDbLine
 10
252.432258234615
 20
243.3372733431417
 30
0.0
 11
252.432258234615
 21
238.3372733431417
 31
0.0
  0
LINE
  5
4A0F
330
1A
100
AcDbEntity
  8
SEIHIN
  6
Continuous
 62
     3
 48
5.0
100
AcDbLine
 10
251.232258234615
 20
243.3372733431417
 30
0.0
 11
251.232258234615
 21
238.3372733431417
 31
0.0
  0
ARC
  5
4A10
330
1A
100
AcDbEntity
  8
SEIHIN
  6
Continuous
 62
     3
 48
5.0
100
AcDbCircle
 10
252.932258234615
 20
238.3372733431417
 30
0.0
 40
0.5
100
AcDbArc
 50
179.9999999999902
 51
269.9999999999902
  0
ARC
  5
4A11
330
1A
100
AcDbEntity
  8
SEIHIN
  6
Continuous
 62
     3
 48
5.0
100
AcDbCircle
 10
252.9322582346149
 20
238.3372733431417
 30
0.0
 40
1.69999999999996
100
AcDbArc
 50
179.9999999999992
 51
269.9999999999984
  0
LINE
  5
4A12
330
1A
100
AcDbEntity
  8
SEIHIN
  6
Continuous
 62
     3
 48
5.0
100
AcDbLine
 10
251.232258234615
 20
243.3372733431417
 30
0.0
 11
252.432258234615
 21
243.3372733431417
 31
0.0
  0
LINE
  5
4A13
330
1A
100
AcDbEntity
  8
SEIHIN
  6
Continuous
 62
     3
 48
5.0
100
AcDbLine
 10
269.713458234615
 20
231.9114733431417
 30
0.0
 11
274.0385582346149
 21
215.8000733431417
 31
0.0
  0
LINE
  5
4A14
330
1A
100
AcDbEntity
  8
SEIHIN
  6
Continuous
 62
     3
 48
5.0
100
AcDbLine
 10
263.2265582346149
 20
232.9335733431418
 30
0.0
 11
269.237958234615
 21
210.5408733431416
 31
0.0
  0
LINE
  5
4A15
330
1A
100
AcDbEntity
  8
SEIHIN
  6
Continuous
 62
     3
 48
5.0
100
AcDbLine
 10
277.9017582346149
 20
212.8372733431417
 30
0.0
 11
282.232258234615
 21
212.8372733431417
 31
0.0
  0
ARC
  5
4A16
330
1A
100
AcDbEntity
  8
SEIHIN
  6
Continuous
 62
     3
 48
5.0
100
AcDbCircle
 10
277.9017671457237
 20
216.837266508755
 30
0.0
 40
3.999993165623268
100
AcDbArc
 50
195.0269724869077
 51
269.9998723575504
  0
ARC
  5
4A17
330
1A
100
AcDbEntity
  8
SEIHIN
  6
Continuous
 62
     3
 48
5.0
100
AcDbCircle
 10
261.9870033760675
 20
229.837238721729
 30
0.0
 40
8.000034621540049
100
AcDbArc
 50
15.02723773873055
 51
90.00032330044037
  0
ARC
  5
4A18
330
1A
100
AcDbEntity
  8
SEIHIN
  6
Continuous
 62
     3
 48
5.0
100
AcDbCircle
 10
258.3975344191624
 20
231.6372916087084
 30
0.0
 40
4.999981734489997
100
AcDbArc
 50
15.02599717051801
 51
89.99972709401941
  0
LINE
  5
4A19
330
1A
100
AcDbEntity
  8
SEIHIN
  6
Continuous
 62
     3
 48
5.0
100
AcDbLine
 10
374.232258234615
 20
206.3372733431417
 30
0.0
 11
374.232258234615
 21
208.0371733431417
 31
0.0
  0
ARC
  5
4A1A
330
1A
100
AcDbEntity
  8
SEIHIN
  6
Continuous
 62
     3
 48
5.0
100
AcDbCircle
 10
374.232258234615
 20
210.0371733431417
 30
0.0
 40
2.0
100
AcDbArc
 50
270.0
 51
0.0
  0
LINE
  5
4A1B
330
1A
100
AcDbEntity
  8
SEIHIN
  6
Continuous
 62
     3
 48
5.0
100
AcDbLine
 10
365.232258234615
 20
208.4887733431417
 30
0.0
 11
370.1343582346148
 21
204.4145733431417
 31
0.0
  0
LINE
  5
4A1C
330
1A
100
AcDbEntity
  8
SEIHIN
  6
Continuous
 62
     3
 48
5.0
100
AcDbLine
 10
370.9013582346148
 20
205.3374733431417
 30
0.0
 11
365.999258234615
 21
209.4115733431417
 31
0.0
  0
LINE
  5
4A1D
330
1A
100
AcDbEntity
  8
SEIHIN
  6
Continuous
 62
     3
 48
5.0
100
AcDbLine
 10
373.032258234615
 20
206.3372733431417
 30
0.0
 11
373.032258234615
 21
227.8372733431417
 31
0.0
  0
ARC
  5
4A1E
330
1A
100
AcDbEntity
  8
SEIHIN
  6
Continuous
 62
     3
 48
5.0
100
AcDbCircle
 10
342.0213080763605
 20
212.8373000171898
 30
0.0
 40
6.000026674255071
100
AcDbArc
 50
269.9995240485061
 51
326.3086619800872
  0
ARC
  5
4A1F
330
1A
100
AcDbEntity
  8
SEIHIN
  6
Continuous
 62
     3
 48
5.0
100
AcDbCircle
 10
300.2322543759867
 20
214.0371710945695
 30
0.0
 40
6.999997751428812
100
AcDbArc
 50
270.0000315833115
 51
330.4620563968332
  0
LINE
  5
4A20
330
1A
100
AcDbEntity
  8
CENTER L
  6
CENTER
 62
     1
 48
5.0
100
AcDbLine
 10
292.232258234615
 20
188.3016733431417
 30
0.0
 11
292.232258234615
 21
219.4649733431417
 31
0.0
  0
LINE
  5
4A21
330
1A
100
AcDbEntity
  8
SEIHIN
  6
Continuous
 62
     3
 48
5.0
100
AcDbLine
 10
384.0863582346149
 20
239.9282733431417
 30
0.0
 11
405.0685582346148
 21
187.4688733431417
 31
0.0
  0
LINE
  5
4A22
330
1A
100
AcDbEntity
  8
SEIHIN
  6
Continuous
 62
     3
 48
5.0
100
AcDbLine
 10
383.417458234615
 20
244.8318733431418
 30
0.0
 11
406.182658234615
 21
187.9144733431417
 31
0.0
  0
LINE
  5
4A23
330
1A
100
AcDbEntity
  8
SEIHIN
  6
Continuous
 62
     3
 48
5.0
100
AcDbLine
 10
299.937858234615
 20
193.7338733431417
 30
0.0
 11
304.412058234615
 21
196.3170733431417
 31
0.0
  0
LINE
  5
4A24
330
1A
100
AcDbEntity
  8
SEIHIN
  6
Continuous
 62
     3
 48
5.0
100
AcDbLine
 10
303.9796582346148
 20
198.0022733431417
 30
0.0
 11
299.102758234615
 21
202.0147733431417
 31
0.0
  0
LINE
  5
4A25
330
1A
100
AcDbEntity
  8
SEIHIN
  6
Continuous
 62
     3
 48
5.0
100
AcDbLine
 10
303.912058234615
 20
197.1831733431417
 30
0.0
 11
299.437858234615
 21
194.5999733431417
 31
0.0
  0
LINE
  5
4A26
330
1A
100
AcDbEntity
  8
SEIHIN
  6
Continuous
 62
     3
 48
5.0
100
AcDbLine
 10
297.732458234615
 20
204.4371733431417
 30
0.0
 11
304.6150582346148
 21
198.7744733431417
 31
0.0
  0
LINE
  5
4A27
330
1A
100
AcDbEntity
  8
SEIHIN
  6
Continuous
 62
     3
 48
5.0
100
AcDbLine
 10
298.7045582346148
 20
194.9046733431417
 30
0.0
 11
297.7819582346149
 21
198.3811733431417
 31
0.0
  0
LINE
  5
4A28
330
1A
100
AcDbEntity
  8
SEIHIN
  6
Continuous
 62
     3
 48
5.0
100
AcDbLine
 10
296.732458234615
 20
198.4371733431417
 30
0.0
 11
297.737958234615
 21
194.6481733431417
 31
0.0
  0
LINE
  5
4A29
330
1A
100
AcDbEntity
  8
SEIHIN
  6
Continuous
 62
     3
 48
5.0
100
AcDbLine
 10
294.6325582346148
 20
198.4371733431417
 30
0.0
 11
294.6325582346148
 21
192.0372733431417
 31
0.0
  0
LINE
  5
4A2A
330
1A
100
AcDbEntity
  8
SEIHIN
  6
Continuous
 62
     3
 48
5.0
100
AcDbLine
 10
295.232458234615
 20
192.0372733431417
 30
0.0
 11
295.232458234615
 21
198.4371733431417
 31
0.0
  0
LINE
  5
4A2B
330
1A
100
AcDbEntity
  8
SEIHIN
  6
Continuous
 62
     3
 48
5.0
100
AcDbLine
 10
289.232458234615
 20
192.0372733431417
 30
0.0
 11
289.232458234615
 21
198.4371733431417
 31
0.0
  0
LINE
  5
4A2C
330
1A
100
AcDbEntity
  8
SEIHIN
  6
Continuous
 62
     3
 48
5.0
100
AcDbLine
 10
289.8324582346149
 20
198.4371733431417
 30
0.0
 11
289.8324582346149
 21
192.0372733431417
 31
0.0
  0
LINE
  5
4A2D
330
1A
100
AcDbEntity
  8
SEIHIN
  6
Continuous
 62
     3
 48
5.0
100
AcDbLine
 10
289.232458234615
 20
192.0371733431417
 30
0.0
 11
295.232458234615
 21
192.0371733431417
 31
0.0
  0
ARC
  5
4A2E
330
1A
100
AcDbEntity
  8
SEIHIN
  6
Continuous
 62
     3
 48
5.0
100
AcDbCircle
 10
299.1878349314133
 20
195.0329830284601
 30
0.0
 40
1.500073641470214
100
AcDbArc
 50
194.8640975588495
 51
299.9994038225171
  0
ARC
  5
4A2F
330
1A
100
AcDbEntity
  8
SEIHIN
  6
Continuous
 62
     3
 48
5.0
100
AcDbCircle
 10
299.187828708698
 20
195.0329856130637
 30
0.0
 40
0.5000143895261127
100
AcDbArc
 50
194.8694303124593
 51
300.0029547934495
  0
LINE
  5
4A30
330
1A
100
AcDbEntity
  8
SEIHIN
  6
Continuous
 62
     3
 48
5.0
100
AcDbLine
 10
287.732458234615
 20
198.4371733431417
 30
0.0
 11
296.732458234615
 21
198.4371733431417
 31
0.0
  0
LINE
  5
4A31
330
1A
100
AcDbEntity
  8
SEIHIN
  6
Continuous
 62
     3
 48
5.0
100
AcDbLine
 10
298.732458234615
 20
204.4371733431417
 30
0.0
 11
298.732458234615
 21
206.4371733431417
 31
0.0
  0
LINE
  5
4A32
330
1A
100
AcDbEntity
  8
SEIHIN
  6
Continuous
 62
     3
 48
5.0
100
AcDbLine
 10
298.2918582346148
 20
201.7108733431417
 30
0.0
 11
297.7719582346148
 21
198.5916733431417
 31
0.0
  0
ARC
  5
4A33
330
1A
100
AcDbEntity
  8
SEIHIN
  6
Continuous
 62
     3
 48
5.0
100
AcDbCircle
 10
298.7850600836802
 20
201.6286740361095
 30
0.0
 40
0.5000047899751635
100
AcDbArc
 50
50.55106801466219
 51
170.5377909527653
  0
ARC
  5
4A34
330
1A
100
AcDbEntity
  8
SEIHIN
  6
Continuous
 62
     3
 48
5.0
100
AcDbCircle
 10
298.2651515245595
 20
198.5096154234244
 30
0.0
 40
0.4999731227124697
100
AcDbArc
 50
170.5536119175779
 51
194.8860779454112
  0
LINE
  5
4A35
330
1A
100
AcDbEntity
  8
SEIHIN
  6
Continuous
 62
     3
 48
5.0
100
AcDbLine
 10
296.732458234615
 20
198.4371733431417
 30
0.0
 11
297.732458234615
 21
204.4371733431417
 31
0.0
  0
ARC
  5
4A36
330
1A
100
AcDbEntity
  8
SEIHIN
  6
Continuous
 62
     3
 48
5.0
100
AcDbCircle
 10
303.6620559305026
 20
197.6161454353868
 30
0.0
 40
0.4999659835674902
100
AcDbArc
 50
300.0025555935295
 51
50.56163232121698
  0
ARC
  5
4A37
330
1A
100
AcDbEntity
  8
SEIHIN
  6
Continuous
 62
     3
 48
5.0
100
AcDbCircle
 10
303.6620533432692
 20
197.6161141476273
 30
0.0
 40
1.500004782912742
100
AcDbArc
 50
300.000110260607
 51
50.55519680172455
  0
TEXT
  5
4A38
330
1A
100
AcDbEntity
  8
SUNPOU
 48
5.0
100
AcDbText
 10
407.0354047290271
 20
136.6694747904005
 30
0.0
 40
6.0
  1
10
100
AcDbText
  0
LINE
  5
4A39
330
1A
100
AcDbEntity
  8
SEIHIN
  6
Continuous
 62
     3
 48
5.0
100
AcDbLine
 10
360.732258234615
 20
206.8371733431417
 30
0.0
 11
360.732258234615
 21
206.4371733431417
 31
0.0
  0
ARC
  5
4A3A
330
1A
100
AcDbEntity
  8
SEIHIN
  6
Continuous
 62
     3
 48
5.0
100
AcDbCircle
 10
371.7322592250002
 20
206.3372738078224
 30
0.0
 40
1.299999009614782
100
AcDbArc
 50
230.2711541294526
 51
359.9999795197943
  0
ARC
  5
4A3B
330
1A
100
AcDbEntity
  8
SEIHIN
  6
Continuous
 62
     3
 48
5.0
100
AcDbCircle
 10
371.7322522646292
 20
206.3372705420831
 30
0.0
 40
2.500005969987358
100
AcDbArc
 50
230.2710803166133
 51
0.0000641953801496
  0
LINE
  5
4A3C
330
1A
100
AcDbEntity
  8
CENTER L
  6
CENTER
 62
     1
 48
5.0
100
AcDbLine
 10
395.4142582346148
 20
191.6853733431416
 30
0.0
 11
406.409758234615
 21
196.0831733431417
 31
0.0
  0
LINE
  5
4A3D
330
1A
100
AcDbEntity
  8
SEIHIN
  6
Continuous
 62
     3
 48
5.0
100
AcDbLine
 10
406.1827582346148
 20
187.9144733431417
 30
0.0
 11
405.0685582346148
 21
187.4688733431417
 31
0.0
  0
DIMENSION
  5
4A3E
330
1A
100
AcDbEntity
  8
SUNPOU
100
AcDbDimension
  2
*D8
 10
381.486850832225
 20
270.8687589019437
 30
0.0
 11
352.232258234615
 21
270.8687589019437
 31
0.0
 70
   160
 71
     5
 42
9.754592597609985
  3
STANDARD
100
AcDbAlignedDimension
 13
371.732258234615
 23
225.6372733431417
 33
0.0
 14
381.486850832225
 24
249.8273607640717
 34
0.0
100
AcDbRotatedDimension
1001
ACAD
1000
DSTYLE
1002
{
1070
   288
1070
     1
1070
   140
1040
6.0
1070
    74
1070
     0
1070
   172
1070
     1
1070
    73
1070
     0
1070
   272
1070
     2
1070
    77
1070
     3
1070
   173
1070
     1
1070
   147
1040
2.0
1070
    42
1040
6.0
1070
    44
1040
3.0
1070
    43
1040
14.0
1070
   271
1070
     0
1070
   178
1070
     4
1070
   177
1070
     4
1070
   176
1070
     4
1070
   141
1040
150.0
1070
     7
1000
_OPEN
1070
     6
1000
_OPEN
1070
    41
1040
7.0
1002
}
  0
LINE
  5
4A3F
330
1A
100
AcDbEntity
  8
SEIHIN
  6
Continuous
 62
     3
 48
5.0
100
AcDbLine
 10
353.2712582346148
 20
229.7123733431417
 30
0.0
 11
343.802458234615
 21
215.5090733431417
 31
0.0
  0
LINE
  5
4A40
330
1A
100
AcDbEntity
  8
SEIHIN
  6
Continuous
 62
     3
 48
5.0
100
AcDbLine
 10
347.013558234615
 20
209.5089733431416
 30
0.0
 11
358.2636582346148
 21
226.3841733431416
 31
0.0
  0
ARC
  5
4A41
330
1A
100
AcDbEntity
  8
SEIHIN
  6
Continuous
 62
     3
 48
5.0
100
AcDbCircle
 10
366.5842153453
 20
220.8373039080437
 30
0.0
 40
15.99996943519991
100
AcDbArc
 50
90.00020451296606
 51
146.310434944189
  0
LINE
  5
4A42
330
1A
100
AcDbEntity
  8
SEIHIN
  6
Continuous
 62
     3
 48
5.0
100
AcDbLine
 10
320.8981582346148
 20
244.3579733431417
 30
0.0
 11
376.3079582346149
 21
249.2056733431417
 31
0.0
  0
LINE
  5
4A43
330
1A
100
AcDbEntity
  8
SEIHIN
  6
Continuous
 62
     3
 48
5.0
100
AcDbLine
 10
373.4868582346148
 20
241.9321733431418
 30
0.0
 11
324.1267582346148
 21
237.6136733431416
 31
0.0
  0
ARC
  5
4A44
330
1A
100
AcDbEntity
  8
SEIHIN
  6
Continuous
 62
     3
 48
5.0
100
AcDbCircle
 10
321.5082519278301
 20
237.3845692894869
 30
0.0
 40
7.000041314880238
100
AcDbArc
 50
94.99999912210652
 51
150.4612583727474
  0
LINE
  5
4A45
330
1A
100
AcDbEntity
  8
SEIHIN
  6
Continuous
 62
     3
 48
5.0
100
AcDbLine
 10
306.3224582346148
 20
210.5861733431417
 30
0.0
 11
320.212358234615
 21
235.0977733431417
 31
0.0
  0
LINE
  5
4A46
330
1A
100
AcDbEntity
  8
SEIHIN
  6
Continuous
 62
     3
 48
5.0
100
AcDbLine
 10
307.5980582346148
 20
212.8372733431417
 30
0.0
 11
338.810158234615
 21
212.8372733431417
 31
0.0
  0
LINE
  5
4A47
330
1A
100
AcDbEntity
  8
SEIHIN
  6
Continuous
 62
     3
 48
5.0
100
AcDbLine
 10
300.232258234615
 20
214.0371733431417
 30
0.0
 11
315.4180582346149
 21
240.8356733431417
 31
0.0
  0
LINE
  5
4A48
330
1A
100
AcDbEntity
  8
SEIHIN
  6
Continuous
 62
     3
 48
5.0
100
AcDbLine
 10
297.232458234615
 20
215.0371733431417
 30
0.0
 11
287.232458234615
 21
215.0371733431417
 31
0.0
  0
ARC
  5
4A49
330
1A
100
AcDbEntity
  8
SEIHIN
  6
Continuous
 62
     3
 48
5.0
100
AcDbCircle
 10
292.2325840698733
 20
207.4537733433386
 30
0.0
 40
9.083403211917002
100
AcDbArc
 50
56.60275288421008
 51
123.3983930428403
  0
LINE
  5
4A4A
330
1A
100
AcDbEntity
  8
SEIHIN
  6
Continuous
 62
     3
 48
5.0
100
AcDbLine
 10
287.232458234615
 20
214.0371733431417
 30
0.0
 11
287.232458234615
 21
215.0371733431417
 31
0.0
  0
LINE
  5
4A4B
330
1A
100
AcDbEntity
  8
SEIHIN
  6
Continuous
 62
     3
 48
5.0
100
AcDbLine
 10
297.232458234615
 20
214.0371733431417
 30
0.0
 11
297.232458234615
 21
215.0371733431417
 31
0.0
  0
ARC
  5
4A4C
330
1A
100
AcDbEntity
  8
SEIHIN
  6
Continuous
 62
     3
 48
5.0
100
AcDbCircle
 10
338.8102080763604
 20
218.8373000171897
 30
0.0
 40
6.000026674255113
100
AcDbArc
 50
269.9995240485061
 51
326.3086619800878
  0
ARC
  5
4A4D
330
1A
100
AcDbEntity
  8
SEIHIN
  6
Continuous
 62
     3
 48
5.0
100
AcDbCircle
 10
324.562467949091
 20
232.6326795868933
 30
0.0
 40
5.00001417548731
100
AcDbArc
 50
94.99919209766105
 51
150.4609028506034
  0
LINE
  5
4A4E
330
1A
100
AcDbEntity
  8
CENTER L
  6
CENTER
 62
     1
 48
5.0
100
AcDbLine
 10
383.2079582346148
 20
223.4219733431417
 30
0.0
 11
393.8655582346148
 21
227.6846733431417
 31
0.0
  0
LINE
  5
4A4F
330
1A
100
AcDbEntity
  8
SEIHIN
  6
Continuous
 62
     3
 48
5.0
100
AcDbLine
 10
381.756058234615
 20
240.3687733431416
 30
0.0
 11
387.5027582346149
 21
226.0010733431417
 31
0.0
  0
LINE
  5
4A50
330
1A
100
AcDbEntity
  8
SEIHIN
  6
Continuous
 62
     3
 48
5.0
100
AcDbLine
 10
380.590958234615
 20
240.5890733431417
 30
0.0
 11
391.773458234615
 21
212.6308733431417
 31
0.0
  0
ARC
  5
4A51
330
1A
100
AcDbEntity
  8
SEIHIN
  6
Continuous
 62
     3
 48
5.0
100
AcDbCircle
 10
371.232258234615
 20
229.0371733431417
 30
0.0
 40
5.0
100
AcDbArc
 50
0.0
 51
90.0
  0
ARC
  5
4A52
330
1A
100
AcDbEntity
  8
SEIHIN
  6
Continuous
 62
     3
 48
5.0
100
AcDbCircle
 10
370.032258234615
 20
227.8372733431417
 30
0.0
 40
3.0
100
AcDbArc
 50
0.0
 51
90.0
  0
ARC
  5
4A53
330
1A
100
AcDbEntity
  8
SEIHIN
  6
Continuous
 62
     3
 48
5.0
100
AcDbCircle
 10
366.5842133620203
 20
220.8373028467286
 30
0.0
 40
9.999970496565057
100
AcDbArc
 50
90.00031585769897
 51
146.3107250642338
  0
LINE
  5
4A54
330
1A
100
AcDbEntity
  8
SEIHIN
  6
Continuous
 62
     3
 48
5.0
100
AcDbLine
 10
370.032258234615
 20
230.8372733431417
 30
0.0
 11
366.584158234615
 21
230.8372733431417
 31
0.0
  0
LINE
  5
4A55
330
1A
100
AcDbEntity
  8
SEIHIN
  6
Continuous
 62
     3
 48
5.0
100
AcDbLine
 10
365.232258234615
 20
208.4887733431417
 30
0.0
 11
366.080758234615
 21
209.3372733431417
 31
0.0
  0
LINE
  5
4A56
330
1A
100
AcDbEntity
  8
SEIHIN
  6
Continuous
 62
     3
 48
5.0
100
AcDbLine
 10
376.232258234615
 20
210.0371733431417
 30
0.0
 11
376.232258234615
 21
229.0371733431417
 31
0.0
  0
ARC
  5
4A57
330
1A
100
AcDbEntity
  8
SEIHIN
  6
Continuous
 62
     3
 48
5.0
100
AcDbCircle
 10
366.7409998531522
 20
231.8397085122867
 30
0.0
 40
5.000025353126153
100
AcDbArc
 50
26.07139271549883
 51
91.79755831591832
  0
LINE
  5
4A58
330
1A
100
AcDbEntity
  8
SEIHIN
  6
Continuous
 62
     3
 48
5.0
100
AcDbLine
 10
373.4868582346148
 20
241.9321733431418
 30
0.0
 11
383.357658234615
 21
244.9767733431417
 31
0.0
  0
LINE
  5
4A59
330
1A
100
AcDbEntity
  8
SEIHIN
  6
Continuous
 62
     3
 48
5.0
100
AcDbLine
 10
384.0863582346149
 20
239.9282733431417
 30
0.0
 11
373.4868582346148
 21
241.9321733431418
 31
0.0
  0
LINE
  5
4A5A
330
1A
100
AcDbEntity
  8
SEIHIN
  6
Continuous
 62
     3
 48
5.0
100
AcDbLine
 10
384.0863582346149
 20
239.9282733431417
 30
0.0
 11
385.2005582346148
 21
240.3738733431417
 31
0.0
  0
ARC
  5
4A5B
330
1A
100
AcDbEntity
  8
SEIHIN
  6
Continuous
 62
     3
 48
5.0
100
AcDbCircle
 10
376.918037365285
 20
242.2322861819771
 30
0.0
 40
7.000023217473864
100
AcDbArc
 50
21.80003253006037
 51
94.99989243073711
  0
LINE
  5
4A5C
330
1A
100
AcDbEntity
  8
CENTER L
  6
CENTER
 62
     1
 48
5.0
100
AcDbLine
 10
385.3619582346149
 20
217.8214733431416
 30
0.0
 11
396.0792582346148
 21
222.1080733431417
 31
0.0
  0
ARC
  5
4A5D
330
1A
100
AcDbEntity
  8
SEIHIN
  6
Continuous
 62
     3
 48
5.0
100
AcDbCircle
 10
394.5589185797733
 20
213.7449474791624
 30
0.0
 40
2.999991752488665
100
AcDbArc
 50
201.7994588589231
 51
291.7987495969338
  0
ARC
  5
4A5E
330
1A
100
AcDbEntity
  8
SEIHIN
  6
Continuous
 62
     3
 48
5.0
100
AcDbCircle
 10
389.359758234615
 20
226.7437733431417
 30
0.0
 40
2.000013072457309
100
AcDbArc
 50
201.7987496139462
 51
291.798749613948
  0
LINE
  5
4A5F
330
1A
100
AcDbEntity
  8
SEIHIN
  6
PHANTOM
 62
     6
 48
5.0
100
AcDbLine
 10
405.9000484930684
 20
248.7325454117271
 30
0.0
 11
411.3079582346149
 21
249.2056733431417
 31
0.0
  0
LINE
  5
4A60
330
1A
100
AcDbEntity
  8
SEIHIN
  6
Continuous
 62
     3
 48
5.0
100
AcDbLine
 10
282.232258234615
 20
384.0652617897086
 30
0.0
 11
300.232258234615
 21
384.0652617897086
 31
0.0
  0
LINE
  5
4A61
330
1A
100
AcDbEntity
  8
SEIHIN
  6
Continuous
 62
     3
 48
5.0
100
AcDbLine
 10
300.232258234615
 20
401.9653617897087
 30
0.0
 11
282.232258234615
 21
401.9653617897087
 31
0.0
  0
LINE
  5
4A62
330
1A
100
AcDbEntity
  8
CENTER L
  6
CENTER
 62
     1
 48
5.0
100
AcDbLine
 10
243.749958234615
 20
393.0152617897087
 30
0.0
 11
411.6997582346149
 21
393.0152617897087
 31
0.0
  0
DIMENSION
  5
4A63
330
1A
100
AcDbEntity
  8
SUNPOU
 48
5.0
100
AcDbDimension
  2
*D9
 10
216.1023677121552
 20
382.0152617897087
 30
0.0
 11
211.1023677121552
 21
393.0152617897088
 31
0.0
 70
    32
 71
     5
 42
22.0
  3
STANDARD
100
AcDbAlignedDimension
 13
251.2323582346149
 23
404.0152617897087
 33
0.0
 14
251.232258234615
 24
382.0152617897087
 34
0.0
 50
90.0
100
AcDbRotatedDimension
1001
ACAD
1000
DSTYLE
1002
{
1070
   140
1040
6.0
1070
    74
1070
     0
1070
   172
1070
     1
1070
    73
1070
     0
1070
   272
1070
     2
1070
    77
1070
     3
1070
   173
1070
     1
1070
   147
1040
2.0
1070
    42
1040
6.0
1070
    44
1040
3.0
1070
    43
1040
14.0
1070
   271
1070
     0
1070
   178
1070
     4
1070
   177
1070
     4
1070
   176
1070
     4
1070
   141
1040
150.0
1070
     7
1000
_OPEN
1070
     6
1000
_OPEN
1070
    41
1040
7.0
1002
}
  0
LINE
  5
4A64
330
1A
100
AcDbEntity
  8
SEIHIN
  6
Continuous
 62
     3
 48
5.0
100
AcDbLine
 10
282.2323582346149
 20
384.0652617897086
 30
0.0
 11
282.2323582346149
 21
401.9653617897087
 31
0.0
  0
ARC
  5
4A65
330
1A
100
AcDbEntity
  8
SEIHIN
  6
Continuous
 62
     3
 48
5.0
100
AcDbCircle
 10
259.4322582346149
 20
393.0152617897088
 30
0.0
 40
1.999999999999943
100
AcDbArc
 50
90.0
 51
270.0
  0
LINE
  5
4A66
330
1A
100
AcDbEntity
  8
SEIHIN
  6
Continuous
 62
     3
 48
5.0
100
AcDbLine
 10
252.432258234615
 20
393.0152617897087
 30
0.0
 11
252.432258234615
 21
404.0152617897087
 31
0.0
  0
LINE
  5
4A67
330
1A
100
AcDbEntity
  8
SEIHIN
  6
Continuous
 62
     3
 48
5.0
100
AcDbLine
 10
251.232258234615
 20
382.0152617897087
 30
0.0
 11
251.2323582346149
 21
404.0152617897087
 31
0.0
  0
ARC
  5
4A68
330
1A
100
AcDbEntity
  8
SEIHIN
  6
Continuous
 62
     3
 48
5.0
100
AcDbCircle
 10
263.932258234615
 20
393.0152617897088
 30
0.0
 40
1.999999999999943
100
AcDbArc
 50
270.0
 51
90.0
  0
ARC
  5
4A69
330
1A
100
AcDbEntity
  8
SEIHIN
  6
Continuous
 62
     3
 48
5.0
100
AcDbCircle
 10
256.432258234615
 20
382.7152617897089
 30
0.0
 40
4.0
100
AcDbArc
 50
90.0
 51
180.0
  0
LINE
  5
4A6A
330
1A
100
AcDbEntity
  8
SEIHIN
  6
Continuous
 62
     3
 48
5.0
100
AcDbLine
 10
251.232258234615
 20
382.0152617897087
 30
0.0
 11
252.432258234615
 21
382.0152617897087
 31
0.0
  0
LINE
  5
4A6B
330
1A
100
AcDbEntity
  8
SEIHIN
  6
Continuous
 62
     3
 48
5.0
100
AcDbLine
 10
252.432258234615
 20
382.0152617897087
 30
0.0
 11
252.432258234615
 21
393.0152617897087
 31
0.0
  0
LINE
  5
4A6C
330
1A
100
AcDbEntity
  8
SEIHIN
  6
Continuous
 62
     3
 48
5.0
100
AcDbLine
 10
259.232258234615
 20
385.5152617897087
 30
0.0
 11
282.2323582346149
 21
385.5152617897087
 31
0.0
  0
LINE
  5
4A6D
330
1A
100
AcDbEntity
  8
SEIHIN
  6
Continuous
 62
     3
 48
5.0
100
AcDbLine
 10
256.432258234615
 20
386.7152617897089
 30
0.0
 11
282.2323582346149
 21
386.7152617897089
 31
0.0
  0
LINE
  5
4A6E
330
1A
100
AcDbEntity
  8
SEIHIN
  6
Continuous
 62
     3
 48
5.0
100
AcDbLine
 10
259.4322582346149
 20
391.0152617897088
 30
0.0
 11
263.932258234615
 21
391.0152617897088
 31
0.0
  0
LINE
  5
4A6F
330
1A
100
AcDbEntity
  8
SEIHIN
  6
Continuous
 62
     3
 48
5.0
100
AcDbLine
 10
259.232258234615
 20
385.5152617897087
 30
0.0
 11
259.232258234615
 21
386.7152617897089
 31
0.0
  0
LINE
  5
4A70
330
1A
100
AcDbEntity
  8
SEIHIN
  6
Continuous
 62
     3
 48
5.0
100
AcDbLine
 10
268.1226582346149
 20
385.5152617897087
 30
0.0
 11
268.1226582346149
 21
386.7152617897089
 31
0.0
  0
LINE
  5
4A71
330
1A
100
AcDbEntity
  8
SEIHIN
  6
Continuous
 62
     3
 48
5.0
100
AcDbLine
 10
262.2323582346149
 20
391.0152617897088
 30
0.0
 11
262.2323582346149
 21
388.2432617897088
 31
0.0
  0
LINE
  5
4A72
330
1A
100
AcDbEntity
  8
SEIHIN
  6
Continuous
 62
     3
 48
5.0
100
AcDbLine
 10
274.8340582346149
 20
385.5152617897087
 30
0.0
 11
274.8340582346149
 21
386.7152617897089
 31
0.0
  0
ARC
  5
4A73
330
1A
100
AcDbEntity
  8
SEIHIN
  6
Continuous
 62
     3
 48
5.0
100
AcDbCircle
 10
256.432258234615
 20
403.3152617897086
 30
0.0
 40
4.0
100
AcDbArc
 50
180.0
 51
270.0
  0
LINE
  5
4A74
330
1A
100
AcDbEntity
  8
SEIHIN
  6
Continuous
 62
     3
 48
5.0
100
AcDbLine
 10
251.232258234615
 20
404.0152617897087
 30
0.0
 11
252.432258234615
 21
404.0152617897087
 31
0.0
  0
LINE
  5
4A75
330
1A
100
AcDbEntity
  8
SEIHIN
  6
Continuous
 62
     3
 48
5.0
100
AcDbLine
 10
259.232258234615
 20
400.5152617897087
 30
0.0
 11
282.2323582346149
 21
400.5152617897087
 31
0.0
  0
LINE
  5
4A76
330
1A
100
AcDbEntity
  8
SEIHIN
  6
Continuous
 62
     3
 48
5.0
100
AcDbLine
 10
256.432258234615
 20
399.3152617897086
 30
0.0
 11
282.2323582346149
 21
399.3152617897086
 31
0.0
  0
LINE
  5
4A77
330
1A
100
AcDbEntity
  8
SEIHIN
  6
Continuous
 62
     3
 48
5.0
100
AcDbLine
 10
259.4322582346149
 20
395.0152617897087
 30
0.0
 11
263.932258234615
 21
395.0152617897087
 31
0.0
  0
LINE
  5
4A78
330
1A
100
AcDbEntity
  8
SEIHIN
  6
Continuous
 62
     3
 48
5.0
100
AcDbLine
 10
259.232258234615
 20
399.3152617897086
 30
0.0
 11
259.232258234615
 21
400.5152617897087
 31
0.0
  0
LINE
  5
4A79
330
1A
100
AcDbEntity
  8
SEIHIN
  6
Continuous
 62
     3
 48
5.0
100
AcDbLine
 10
268.1226582346149
 20
399.3152617897086
 30
0.0
 11
268.1226582346149
 21
400.5152617897087
 31
0.0
  0
LINE
  5
4A7A
330
1A
100
AcDbEntity
  8
SEIHIN
  6
Continuous
 62
     3
 48
5.0
100
AcDbLine
 10
262.2323582346149
 20
395.0152617897087
 30
0.0
 11
262.2323582346149
 21
397.7873617897088
 31
0.0
  0
LINE
  5
4A7B
330
1A
100
AcDbEntity
  8
SEIHIN
  6
Continuous
 62
     3
 48
5.0
100
AcDbLine
 10
274.8340582346149
 20
399.3152617897086
 30
0.0
 11
274.8340582346149
 21
400.5152617897087
 31
0.0
  0
ELLIPSE
  5
4A7C
330
1A
100
AcDbEntity
  8
SEIHIN
 48
5.0
100
AcDbEllipse
 10
402.2832409832278
 20
393.0152617897087
 30
0.0
 11
0.0
 21
2.100000003492885
 31
0.0
210
0.0
220
0.0
230
1.0
 40
0.3713615574243218
 41
-2.3459792038554
 42
-0.7956134497343734
  0
ELLIPSE
  5
4A7D
330
1A
100
AcDbEntity
  8
SEIHIN
 48
5.0
100
AcDbEllipse
 10
403.3973371147425
 20
393.0152617897087
 30
0.0
 11
0.0
 21
2.100000003492885
 31
0.0
210
0.0
220
0.0
230
1.0
 40
0.3713615574243218
 41
0.0
 42
6.283185307179586
  0
LINE
  5
4A7E
330
1A
100
AcDbEntity
  8
CENTER L
  6
CENTER
 62
     1
 48
5.0
100
AcDbLine
 10
403.3973371147425
 20
389.0246831062225
 30
0.0
 11
403.3973371147425
 21
397.0058404731949
 31
0.0
  0
ARC
  5
4A7F
330
1A
100
AcDbEntity
  8
SEIHIN
  6
Continuous
 62
     3
 48
5.0
100
AcDbCircle
 10
391.1801582344673
 20
393.0156117897088
 30
0.0
 40
15.00254368653624
100
AcDbArc
 50
332.4205499826105
 51
27.57945001738955
  0
ARC
  5
4A80
330
1A
100
AcDbEntity
  8
SEIHIN
  6
Continuous
 62
     3
 48
5.0
100
AcDbCircle
 10
384.4869582353149
 20
393.0151867865838
 30
0.0
 40
5.000200002982483
100
AcDbArc
 50
126.8696111633354
 51
233.1275241193072
  0
LINE
  5
4A81
330
1A
100
AcDbEntity
  8
SEIHIN
  6
Continuous
 62
     3
 48
5.0
100
AcDbLine
 10
368.4868582346149
 20
397.0153617897088
 30
0.0
 11
368.4868582346149
 21
389.0153617897088
 31
0.0
  0
LINE
  5
4A82
330
1A
100
AcDbEntity
  8
SEIHIN
  6
Continuous
 62
     3
 48
5.0
100
AcDbLine
 10
364.4868582346149
 20
397.0153617897088
 30
0.0
 11
364.4868582346149
 21
389.0153617897088
 31
0.0
  0
ARC
  5
4A83
330
1A
100
AcDbEntity
  8
SEIHIN
  6
Continuous
 62
     3
 48
5.0
100
AcDbCircle
 10
319.232258234615
 20
393.0152617897088
 30
0.0
 40
3.999999999999943
100
AcDbArc
 50
90.0
 51
270.0
  0
LINE
  5
4A84
330
1A
100
AcDbEntity
  8
SEIHIN
  6
Continuous
 62
     3
 48
5.0
100
AcDbLine
 10
300.232258234615
 20
384.0652617897086
 30
0.0
 11
300.232258234615
 21
401.9653617897087
 31
0.0
  0
LINE
  5
4A85
330
1A
100
AcDbEntity
  8
CENTER L
  6
CENTER
 62
     1
 48
5.0
100
AcDbLine
 10
292.232258234615
 20
385.4553617897088
 30
0.0
 11
292.232258234615
 21
400.4143617897088
 31
0.0
  0
ARC
  5
4A86
330
1A
100
AcDbEntity
  8
SEIHIN
  6
Continuous
 62
     3
 48
5.0
100
AcDbCircle
 10
292.232258234615
 20
393.0152617897087
 30
0.0
 40
5.0
100
AcDbArc
 50
0.0
 51
180.0
  0
ARC
  5
4A87
330
1A
100
AcDbEntity
  8
SEIHIN
  6
Continuous
 62
     3
 48
5.0
100
AcDbCircle
 10
392.3415582346148
 20
393.0152617897088
 30
0.0
 40
3.999999999999943
100
AcDbArc
 50
270.0
 51
90.0
  0
ELLIPSE
  5
4A88
330
1A
100
AcDbEntity
  8
SEIHIN
 48
5.0
100
AcDbEllipse
 10
389.6567507180633
 20
373.5262581888755
 30
0.0
 11
0.0
 21
2.089003600833166
 31
0.0
210
0.0
220
0.0
230
1.0
 40
0.3733578851202378
 41
-2.346063261176734
 42
-2.218849396614839
  0
ELLIPSE
  5
4A89
330
1A
100
AcDbEntity
  8
SEIHIN
 48
5.0
100
AcDbEllipse
 10
389.6567507180633
 20
373.5262581888755
 30
0.0
 11
0.0
 21
2.089003600833166
 31
0.0
210
0.0
220
0.0
230
1.0
 40
0.3733578851202378
 41
-0.9358833514707193
 42
-0.7955293924129697
  0
ELLIPSE
  5
4A8A
330
1A
100
AcDbEntity
  8
SEIHIN
 48
5.0
100
AcDbEllipse
 10
391.8849079953579
 20
373.5152617897087
 30
0.0
 11
0.0
 21
3.25
 31
0.0
210
0.0
220
0.0
230
1.0
 40
0.371365925649098
 41
-2.661849802222388
 42
-0.4797428513674054
  0
ELLIPSE
  5
4A8B
330
1A
100
AcDbEntity
  8
SEIHIN
 48
5.0
100
AcDbEllipse
 10
392.9990362093976
 20
373.5152617897087
 30
0.0
 11
0.0
 21
3.25
 31
0.0
210
0.0
220
0.0
230
1.0
 40
0.371365925649098
 41
1.965587446494627
 42
7.459190514274766
  0
ELLIPSE
  5
4A8C
330
1A
100
AcDbEntity
  8
SEIHIN
 48
5.0
100
AcDbEllipse
 10
390.770878932103
 20
373.5262581888755
 30
0.0
 11
0.0
 21
2.089003600833166
 31
0.0
210
0.0
220
0.0
230
1.0
 40
0.3733578851202378
 41
-0.9358833514707193
 42
4.064335910564761
  0
LINE
  5
4A8D
330
1A
100
AcDbEntity
  8
SEIHIN
  6
Continuous
 62
     3
 48
5.0
100
AcDbLine
 10
364.4868582346149
 20
389.0152617897088
 30
0.0
 11
319.232258234615
 21
389.0152617897088
 31
0.0
  0
LINE
  5
4A8E
330
1A
100
AcDbEntity
  8
SEIHIN
  6
Continuous
 62
     3
 48
5.0
100
AcDbLine
 10
378.230658234615
 20
373.9380617897087
 30
0.0
 11
300.232258234615
 21
384.0652617897086
 31
0.0
  0
ARC
  5
4A8F
330
1A
100
AcDbEntity
  8
SEIHIN
  6
Continuous
 62
     3
 48
5.0
100
AcDbCircle
 10
292.232258234615
 20
393.0152617897087
 30
0.0
 40
5.0
100
AcDbArc
 50
180.0
 51
0.0
  0
LINE
  5
4A90
330
1A
100
AcDbEntity
  8
SEIHIN
  6
Continuous
 62
     3
 48
5.0
100
AcDbLine
 10
317.232258234615
 20
389.5511617897087
 30
0.0
 11
317.232258234615
 21
383.7226617897087
 31
0.0
  0
TEXT
  5
4A91
330
1A
100
AcDbEntity
  8
SUNPOU
 48
5.0
100
AcDbText
 10
381.7888117357547
 20
310.2913113468792
 30
0.0
 40
6.0
  1
スライド巾
100
AcDbText
  0
LINE
  5
4A92
330
1A
100
AcDbEntity
  8
SEIHIN
  6
Continuous
 62
     3
 48
5.0
100
AcDbLine
 10
392.3415582346148
 20
389.0152617897088
 30
0.0
 11
368.4868582346149
 21
389.0152617897088
 31
0.0
  0
LINE
  5
4A93
330
1A
100
AcDbEntity
  8
SEIHIN
  6
Continuous
 62
     3
 48
5.0
100
AcDbLine
 10
389.2710582346148
 20
384.5152617897087
 30
0.0
 11
374.9868582346149
 21
384.5152617897087
 31
0.0
  0
ARC
  5
4A94
330
1A
100
AcDbEntity
  8
SEIHIN
  6
Continuous
 62
     3
 48
5.0
100
AcDbCircle
 10
384.700558234615
 20
381.0152617897088
 30
0.0
 40
0.4999999999998579
100
AcDbArc
 50
359.9999999999968
 51
89.99999999999675
  0
ARC
  5
4A95
330
1A
100
AcDbEntity
  8
SEIHIN
  6
Continuous
 62
     3
 48
5.0
100
AcDbCircle
 10
385.7005642045436
 20
378.5152600737885
 30
0.0
 40
0.5000059699317374
100
AcDbArc
 50
179.9998033723677
 51
327.9276149991392
  0
LINE
  5
4A96
330
1A
100
AcDbEntity
  8
SEIHIN
  6
Continuous
 62
     3
 48
5.0
100
AcDbLine
 10
393.741958234615
 20
365.5152617897087
 30
0.0
 11
384.0863582346149
 21
365.5152617897087
 31
0.0
  0
ARC
  5
4A97
330
1A
100
AcDbEntity
  8
SEIHIN
  6
Continuous
 62
     3
 48
5.0
100
AcDbCircle
 10
377.2005600605529
 20
366.0046597113572
 30
0.0
 40
7.999998174062185
100
AcDbArc
 50
0.0000148851009439
 51
82.60192370573552
  0
LINE
  5
4A98
330
1A
100
AcDbEntity
  8
SEIHIN
  6
Continuous
 62
     3
 48
5.0
100
AcDbLine
 10
373.4868582346148
 20
374.5539617897087
 30
0.0
 11
384.0863582346149
 21
365.5152617897087
 31
0.0
  0
LINE
  5
4A99
330
1A
100
AcDbEntity
  8
SEIHIN
  6
Continuous
 62
     3
 48
5.0
100
AcDbLine
 10
385.2005582346148
 20
365.5152617897087
 30
0.0
 11
385.2005582346148
 21
366.0046617897089
 31
0.0
  0
ARC
  5
4A9A
330
1A
100
AcDbEntity
  8
SEIHIN
  6
Continuous
 62
     3
 48
5.0
100
AcDbCircle
 10
380.9868582346149
 20
383.0152617897087
 30
0.0
 40
1.5
100
AcDbArc
 50
90.0
 51
270.0
  0
ARC
  5
4A9B
330
1A
100
AcDbEntity
  8
SEIHIN
  6
Continuous
 62
     3
 48
5.0
100
AcDbCircle
 10
374.9868582346149
 20
383.0152617897087
 30
0.0
 40
1.5
100
AcDbArc
 50
90.0
 51
270.0
  0
LINE
  5
4A9C
330
1A
100
AcDbEntity
  8
SEIHIN
  6
Continuous
 62
     3
 48
5.0
100
AcDbLine
 10
381.4868582346149
 20
373.5406617897089
 30
0.0
 11
381.4868582346149
 21
389.0152617897088
 31
0.0
  0
LINE
  5
4A9D
330
1A
100
AcDbEntity
  8
SEIHIN
  6
Continuous
 62
     3
 48
5.0
100
AcDbLine
 10
384.700558234615
 20
381.5152617897087
 30
0.0
 11
374.9868582346149
 21
381.5152617897087
 31
0.0
  0
LINE
  5
4A9E
330
1A
100
AcDbEntity
  8
SEIHIN
  6
Continuous
 62
     3
 48
5.0
100
AcDbLine
 10
385.2005582346148
 20
381.0152617897088
 30
0.0
 11
385.2005582346148
 21
378.5152617897088
 31
0.0
  0
LINE
  5
4A9F
330
1A
100
AcDbEntity
  8
CENTER L
  6
CENTER
 62
     1
 48
5.0
100
AcDbLine
 10
390.770878932103
 20
370.1703880757316
 30
0.0
 11
390.770878932103
 21
376.8601355036869
 31
0.0
  0
LINE
  5
4AA0
330
1A
100
AcDbEntity
  8
CENTER L
  6
CENTER
 62
     1
 48
5.0
100
AcDbLine
 10
392.999258234615
 20
368.7251617897087
 30
0.0
 11
392.999258234615
 21
377.9808617897087
 31
0.0
  0
LINE
  5
4AA1
330
1A
100
AcDbEntity
  8
SEIHIN
  6
Continuous
 62
     3
 48
5.0
100
AcDbLine
 10
393.741958234615
 20
365.5152617897087
 30
0.0
 11
404.477958234615
 21
386.0697617897088
 31
0.0
  0
ARC
  5
4AA2
330
1A
100
AcDbEntity
  8
SEIHIN
  6
Continuous
 62
     3
 48
5.0
100
AcDbCircle
 10
389.2710582346148
 20
383.0152617897087
 30
0.0
 40
1.5
100
AcDbArc
 50
270.0
 51
90.0
  0
LINE
  5
4AA3
330
1A
100
AcDbEntity
  8
CENTER L
  6
CENTER
 62
     1
 48
5.0
100
AcDbLine
 10
396.2446582346148
 20
373.5152617897087
 30
0.0
 11
388.106558234615
 21
373.5152617897087
 31
0.0
  0
LINE
  5
4AA4
330
1A
100
AcDbEntity
  8
SEIHIN
  6
Continuous
 62
     3
 48
5.0
100
AcDbLine
 10
388.7248582346148
 20
381.5152617897087
 30
0.0
 11
389.2710582346148
 21
381.5152617897087
 31
0.0
  0
ARC
  5
4AA5
330
1A
100
AcDbEntity
  8
SEIHIN
  6
Continuous
 62
     3
 48
5.0
100
AcDbCircle
 10
388.7248172436018
 20
380.5152391077232
 30
0.0
 40
1.00002268282554
100
AcDbArc
 50
89.99765144123215
 51
147.9127110563017
  0
LINE
  5
4AA6
330
1A
100
AcDbEntity
  8
SEIHIN
  6
Continuous
 62
     3
 48
5.0
100
AcDbLine
 10
391.886958234615
 20
374.7652617897088
 30
0.0
 11
390.2847033996792
 21
374.7652617897088
 31
0.0
  0
LINE
  5
4AA7
330
1A
100
AcDbEntity
  8
SEIHIN
  6
Continuous
 62
     3
 48
5.0
100
AcDbLine
 10
391.886958234615
 20
372.2652617897088
 30
0.0
 11
390.2785708640769
 21
372.2652617897088
 31
0.0
  0
LINE
  5
4AA8
330
1A
100
AcDbEntity
  8
SEIHIN
  6
Continuous
 62
     3
 48
5.0
100
AcDbLine
 10
387.8775582346148
 20
381.0464617897088
 30
0.0
 11
386.124258234615
 21
378.2497617897088
 31
0.0
  0
ELLIPSE
  5
4AA9
330
1A
100
AcDbEntity
  8
SEIHIN
 48
5.0
100
AcDbEllipse
 10
392.9991396692652
 20
412.515331737017
 30
0.0
 11
-1.724328034807535E-5
 21
-3.249999999954257
 31
0.0
210
0.0
220
0.0
230
-1.0
 40
0.371365925649098
 41
1.96558744649465
 42
7.459190514274736
  0
ELLIPSE
  5
4AAA
330
1A
100
AcDbEntity
  8
SEIHIN
 48
5.0
100
AcDbEllipse
 10
390.7709823336592
 20
412.5043471596167
 30
0.0
 11
-1.108346914994006E-5
 21
-2.089003600803764
 31
0.0
210
0.0
220
0.0
230
-1.0
 40
0.3733578851202378
 41
-0.9358833514706395
 42
4.064335910564742
  0
ELLIPSE
  5
4AAB
330
1A
100
AcDbEntity
  8
SEIHIN
 48
5.0
100
AcDbEllipse
 10
391.8850114552412
 20
412.5153376481632
 30
0.0
 11
-1.724328034807535E-5
 21
-3.249999999954257
 31
0.0
210
0.0
220
0.0
230
-1.0
 40
0.371365925649098
 41
-2.661849802222368
 42
-0.4797428513673236
  0
ELLIPSE
  5
4AAC
330
1A
100
AcDbEntity
  8
SEIHIN
 48
5.0
100
AcDbEllipse
 10
389.6568541196352
 20
412.5043530707629
 30
0.0
 11
-1.108346914994006E-5
 21
-2.089003600803764
 31
0.0
210
0.0
220
0.0
230
-1.0
 40
0.3733578851202378
 41
-0.9358833514706395
 42
-0.7955293924129013
  0
ELLIPSE
  5
4AAD
330
1A
100
AcDbEntity
  8
SEIHIN
 48
5.0
100
AcDbEllipse
 10
389.6568541196352
 20
412.5043530707629
 30
0.0
 11
-1.108346914994006E-5
 21
-2.089003600803764
 31
0.0
210
0.0
220
0.0
230
-1.0
 40
0.3733578851202378
 41
-2.346063261176693
 42
-2.218849396614859
  0
LINE
  5
4AAE
330
1A
100
AcDbEntity
  8
SEIHIN
  6
Continuous
 62
     3
 48
5.0
100
AcDbLine
 10
364.4868582346149
 20
397.0152617897087
 30
0.0
 11
319.232258234615
 21
397.0152617897087
 31
0.0
  0
LINE
  5
4AAF
330
1A
100
AcDbEntity
  8
SEIHIN
  6
Continuous
 62
     3
 48
5.0
100
AcDbLine
 10
300.232258234615
 20
401.9652617897089
 30
0.0
 11
378.230658234615
 21
412.0925617897088
 31
0.0
  0
LINE
  5
4AB0
330
1A
100
AcDbEntity
  8
SEIHIN
  6
Continuous
 62
     3
 48
5.0
100
AcDbLine
 10
317.232258234615
 20
396.4794617897087
 30
0.0
 11
317.232258234615
 21
402.3079617897088
 31
0.0
  0
LINE
  5
4AB1
330
1A
100
AcDbEntity
  8
SEIHIN
  6
Continuous
 62
     3
 48
5.0
100
AcDbLine
 10
393.741958234615
 20
420.5152617897088
 30
0.0
 11
384.0863582346149
 21
420.5152617897088
 31
0.0
  0
ARC
  5
4AB2
330
1A
100
AcDbEntity
  8
SEIHIN
  6
Continuous
 62
     3
 48
5.0
100
AcDbCircle
 10
385.7005907574994
 20
407.5152711406559
 30
0.0
 40
0.5000325229720521
100
AcDbArc
 50
32.08296883697469
 51
180.0010714699242
  0
ARC
  5
4AB3
330
1A
100
AcDbEntity
  8
SEIHIN
  6
Continuous
 62
     3
 48
5.0
100
AcDbCircle
 10
377.2005600608914
 20
420.0259638684194
 30
0.0
 40
7.999998174374659
100
AcDbArc
 50
277.3980762915287
 51
359.9992689149203
  0
ARC
  5
4AB4
330
1A
100
AcDbEntity
  8
SEIHIN
  6
Continuous
 62
     3
 48
5.0
100
AcDbCircle
 10
384.7005582346149
 20
405.0152617897086
 30
0.0
 40
0.4999999999999147
100
AcDbArc
 50
270.0000000000098
 51
0.0000000000097707
  0
LINE
  5
4AB5
330
1A
100
AcDbEntity
  8
SEIHIN
  6
Continuous
 62
     3
 48
5.0
100
AcDbLine
 10
389.2710582346148
 20
401.5152617897088
 30
0.0
 11
374.9868582346149
 21
401.5152617897088
 31
0.0
  0
LINE
  5
4AB6
330
1A
100
AcDbEntity
  8
SEIHIN
  6
Continuous
 62
     3
 48
5.0
100
AcDbLine
 10
392.3415582346148
 20
397.0152617897087
 30
0.0
 11
368.4868582346149
 21
397.0152617897087
 31
0.0
  0
LINE
  5
4AB7
330
1A
100
AcDbEntity
  8
SEIHIN
  6
Continuous
 62
     3
 48
5.0
100
AcDbLine
 10
373.4868582346148
 20
411.4765617897087
 30
0.0
 11
384.0863582346149
 21
420.5152617897088
 31
0.0
  0
LINE
  5
4AB8
330
1A
100
AcDbEntity
  8
SEIHIN
  6
Continuous
 62
     3
 48
5.0
100
AcDbLine
 10
381.4868582346149
 20
397.0152617897087
 30
0.0
 11
381.4868582346149
 21
412.5152617897087
 31
0.0
  0
LINE
  5
4AB9
330
1A
100
AcDbEntity
  8
SEIHIN
  6
Continuous
 62
     3
 48
5.0
100
AcDbLine
 10
384.700558234615
 20
404.5152617897087
 30
0.0
 11
374.9868582346149
 21
404.5152617897087
 31
0.0
  0
ARC
  5
4ABA
330
1A
100
AcDbEntity
  8
SEIHIN
  6
Continuous
 62
     3
 48
5.0
100
AcDbCircle
 10
374.9868582346149
 20
403.0152617897088
 30
0.0
 40
1.499999999999943
100
AcDbArc
 50
90.0
 51
270.0
  0
ARC
  5
4ABB
330
1A
100
AcDbEntity
  8
SEIHIN
  6
Continuous
 62
     3
 48
5.0
100
AcDbCircle
 10
380.9868582346149
 20
403.0152617897088
 30
0.0
 40
1.499999999999943
100
AcDbArc
 50
90.0
 51
270.0
  0
LINE
  5
4ABC
330
1A
100
AcDbEntity
  8
SEIHIN
  6
Continuous
 62
     3
 48
5.0
100
AcDbLine
 10
385.2005582346148
 20
405.0152617897087
 30
0.0
 11
385.2005582346148
 21
407.5152617897087
 31
0.0
  0
LINE
  5
4ABD
330
1A
100
AcDbEntity
  8
SEIHIN
  6
Continuous
 62
     3
 48
5.0
100
AcDbLine
 10
385.2005582346148
 20
420.5152617897088
 30
0.0
 11
385.2005582346148
 21
420.0259617897087
 31
0.0
  0
LINE
  5
4ABE
330
1A
100
AcDbEntity
  8
CENTER L
  6
CENTER
 62
     1
 48
5.0
100
AcDbLine
 10
392.9993871089556
 20
417.3054317357716
 30
0.0
 11
392.9993380016848
 21
408.0497317359019
 31
0.0
  0
LINE
  5
4ABF
330
1A
100
AcDbEntity
  8
SEIHIN
  6
Continuous
 62
     3
 48
5.0
100
AcDbLine
 10
393.741958234615
 20
420.5152617897088
 30
0.0
 11
404.477958234615
 21
399.9614617897088
 31
0.0
  0
LINE
  5
4AC0
330
1A
100
AcDbEntity
  8
SEIHIN
  6
Continuous
 62
     3
 48
5.0
100
AcDbLine
 10
387.8775582346148
 20
404.9841617897088
 30
0.0
 11
386.124258234615
 21
407.7808617897088
 31
0.0
  0
LINE
  5
4AC1
330
1A
100
AcDbEntity
  8
SEIHIN
  6
Continuous
 62
     3
 48
5.0
100
AcDbLine
 10
388.7248582346148
 20
404.5152617897087
 30
0.0
 11
389.2710582346148
 21
404.5152617897087
 31
0.0
  0
ARC
  5
4AC2
330
1A
100
AcDbEntity
  8
SEIHIN
  6
Continuous
 62
     3
 48
5.0
100
AcDbCircle
 10
388.7248652368638
 20
405.5152579146937
 30
0.0
 40
0.9999961250095113
100
AcDbArc
 50
212.0796846952505
 51
269.9995987991305
  0
ARC
  5
4AC3
330
1A
100
AcDbEntity
  8
SEIHIN
  6
Continuous
 62
     3
 48
5.0
100
AcDbCircle
 10
389.2710582346148
 20
403.0152617897088
 30
0.0
 40
1.499999999999943
100
AcDbArc
 50
270.0
 51
90.0
  0
LINE
  5
4AC4
330
1A
100
AcDbEntity
  8
CENTER L
  6
CENTER
 62
     1
 48
5.0
100
AcDbLine
 10
396.2447616944368
 20
412.5153145169646
 30
0.0
 11
388.1066616945515
 21
412.5153576946691
 31
0.0
  0
LINE
  5
4AC5
330
1A
100
AcDbEntity
  8
SEIHIN
  6
Continuous
 62
     3
 48
5.0
100
AcDbLine
 10
391.8870550624674
 20
411.2653376373029
 30
0.0
 11
390.2848002275542
 21
411.2653461382658
 31
0.0
  0
LINE
  5
4AC6
330
1A
100
AcDbEntity
  8
SEIHIN
  6
Continuous
 62
     3
 48
5.0
100
AcDbLine
 10
391.8870683265292
 20
413.7653376372678
 30
0.0
 11
390.2786809560138
 21
413.7653461707675
 31
0.0
  0
LINE
  5
4AC7
330
1A
100
AcDbEntity
  8
CENTER L
  6
CENTER
 62
     1
 48
5.0
100
AcDbLine
 10
390.7710001386466
 20
415.8602172727134
 30
0.0
 11
390.7709646453573
 21
409.1704698448522
 31
0.0
  0
LEADER
  5
4AC8
330
1A
100
AcDbEntity
  8
SUNPOU
  6
Continuous
 62
     4
100
AcDbLeader
  3
STANDARD
 40
6.0
 41
31.2
 76
     3
 10
512.3206104485101
 20
276.7187610196222
 30
0.0
 10
485.13932605433
 20
313.8250344752032
 30
0.0
 10
483.1897706144387
 20
313.8250344752032
 30
0.0
1001
ACAD
1000
DSTYLE
1002
{
1070
     6
1000
OPEN
1070
    41
1040
7.0
1070
    42
1040
6.0
1070
    43
1040
14.0
1070
    44
1040
3.0
1070
    73
1070
     0
1070
    74
1070
     0
1070
    77
1070
     3
1070
   140
1040
6.0
1070
   141
1040
150.0
1070
   147
1040
2.0
1070
   172
1070
     1
1070
   173
1070
     1
1070
   176
1070
     4
1070
   177
1070
     4
1070
   178
1070
     4
1070
   271
1070
     0
1070
   272
1070
     2
1070
   288
1070
     1
1070
   341
1005
6D
1070
   343
1005
6D
1070
   344
1005
6D
1002
}
  0
DIMENSION
  5
4AC9
330
1A
100
AcDbEntity
  8
SUNPOU
 48
5.0
100
AcDbDimension
  2
*D10
 10
587.9557901001724
 20
298.852586630459
 30
0.0
 11
586.8420109773961
 21
315.1009731414582
 31
0.0
 70
    32
 71
     5
 42
31.00003665450424
  3
STANDARD
100
AcDbAlignedDimension
 13
540.2181596776316
 23
313.1466294536782
 33
0.0
 14
557.292959677244
 24
286.5883294535236
 34
0.0
 50
111.8000000000005
100
AcDbRotatedDimension
1001
ACAD
1000
DSTYLE
1002
{
1070
   140
1040
6.0
1070
    74
1070
     0
1070
   172
1070
     1
1070
    73
1070
     0
1070
   272
1070
     2
1070
    77
1070
     3
1070
   173
1070
     1
1070
   147
1040
2.0
1070
    42
1040
6.0
1070
    44
1040
3.0
1070
    43
1040
14.0
1070
   271
1070
     0
1070
   178
1070
     4
1070
   177
1070
     4
1070
   176
1070
     4
1070
   141
1040
150.0
1070
     7
1000
_OPEN
1070
     6
1000
_OPEN
1070
    41
1040
7.0
1002
}
  0
DIMENSION
  5
4ACA
330
1A
100
AcDbEntity
  8
SUNPOU
 48
5.0
100
AcDbDimension
  2
*D11
 10
532.4340368180973
 20
356.8431278449964
 30
0.0
 11
505.043808460823
 21
351.2729299264763
 31
0.0
 70
    32
 71
     5
 42
55.00006233869624
  3
STANDARD
100
AcDbAlignedDimension
 13
501.221459677244
 23
286.7788294535235
 33
0.0
 14
552.2882138026008
 24
307.2041441479189
 34
0.0
 50
21.79999999999975
100
AcDbRotatedDimension
1001
ACAD
1000
DSTYLE
1002
{
1070
   140
1040
6.0
1070
    74
1070
     0
1070
   172
1070
     1
1070
    73
1070
     0
1070
   272
1070
     2
1070
    77
1070
     3
1070
   173
1070
     1
1070
   147
1040
2.0
1070
    42
1040
6.0
1070
    44
1040
3.0
1070
    43
1040
14.0
1070
   271
1070
     0
1070
   178
1070
     4
1070
   177
1070
     4
1070
   176
1070
     4
1070
   141
1040
150.0
1070
     7
1000
_OPEN
1070
     6
1000
_OPEN
1070
    41
1040
7.0
1002
}
  0
DIMENSION
  5
4ACB
330
1A
100
AcDbEntity
  8
SUNPOU
 48
5.0
100
AcDbDimension
  2
*D12
 10
531.314555528887
 20
338.099785309345
 30
0.0
 11
511.3522278490194
 21
335.5005356997692
 31
0.0
 70
    32
 71
     5
 42
39.00003204774498
  3
STANDARD
100
AcDbAlignedDimension
 13
512.7389596772441
 23
279.5248294535235
 33
0.0
 14
548.9498421805231
 24
294.0084232107239
 34
0.0
 50
21.79999999999975
100
AcDbRotatedDimension
1001
ACAD
1000
DSTYLE
1002
{
1070
   140
1040
6.0
1070
    74
1070
     0
1070
   172
1070
     1
1070
    73
1070
     0
1070
   272
1070
     2
1070
    77
1070
     3
1070
   173
1070
     1
1070
   147
1040
2.0
1070
    42
1040
6.0
1070
    44
1040
3.0
1070
    43
1040
14.0
1070
   271
1070
     0
1070
   178
1070
     4
1070
   177
1070
     4
1070
   176
1070
     4
1070
   141
1040
150.0
1070
     7
1000
_OPEN
1070
     6
1000
_OPEN
1070
    41
1040
7.0
1002
}
  0
LINE
  5
4ACC
330
1A
100
AcDbEntity
  8
SEIHIN
  6
Continuous
 62
     3
 48
5.0
100
AcDbLine
 10
540.4451596772442
 20
294.5076294535235
 30
0.0
 11
540.902559677244
 21
301.8810294535234
 31
0.0
  0
LINE
  5
4ACD
330
1A
100
AcDbEntity
  8
SEIHIN
  6
Continuous
 62
     3
 48
5.0
100
AcDbLine
 10
505.8641596772443
 20
299.4060294535235
 30
0.0
 11
519.3271596772439
 21
304.7908294535235
 31
0.0
  0
LINE
  5
4ACE
330
1A
100
AcDbEntity
  8
SEIHIN
  6
Continuous
 62
     3
 48
5.0
100
AcDbLine
 10
512.363559677244
 20
302.0056294535234
 30
0.0
 11
515.891459677244
 21
293.1850294535235
 31
0.0
  0
ARC
  5
4ACF
330
1A
100
AcDbEntity
  8
SEIHIN
  6
Continuous
 62
     3
 48
5.0
100
AcDbCircle
 10
513.9419424365374
 20
302.0984225576122
 30
0.0
 40
1.499972664636032
100
AcDbArc
 50
201.8021188163941
 51
21.79857220570168
  0
LINE
  5
4AD0
330
1A
100
AcDbEntity
  8
SEIHIN
  6
Continuous
 62
     3
 48
5.0
100
AcDbLine
 10
530.9332596772442
 20
309.4329294535233
 30
0.0
 11
539.6603596772443
 21
287.6135294535235
 31
0.0
  0
LINE
  5
4AD1
330
1A
100
AcDbEntity
  8
SEIHIN
  6
Continuous
 62
     3
 48
5.0
100
AcDbLine
 10
552.2882596772439
 20
307.2040294535235
 30
0.0
 11
560.8297596772442
 21
285.8488294535235
 31
0.0
  0
LINE
  5
4AD2
330
1A
100
AcDbEntity
  8
SEIHIN
  6
Continuous
 62
     3
 48
5.0
100
AcDbLine
 10
515.1489596772442
 20
303.1197294535233
 30
0.0
 11
523.8760596772443
 21
281.3002294535233
 31
0.0
  0
LINE
  5
4AD3
330
1A
100
AcDbEntity
  8
SEIHIN
  6
Continuous
 62
     3
 48
5.0
100
AcDbLine
 10
519.3271596772439
 20
304.7908294535235
 30
0.0
 11
532.6963596772442
 21
271.3653294535235
 31
0.0
  0
LINE
  5
4AD4
330
1A
100
AcDbEntity
  8
SEIHIN
  6
Continuous
 62
     3
 48
5.0
100
AcDbLine
 10
526.7550596772442
 20
307.7617294535233
 30
0.0
 11
540.1243596772442
 21
274.3363294535235
 31
0.0
  0
LINE
  5
4AD5
330
1A
100
AcDbEntity
  8
CENTER L
  6
CENTER
 62
     1
 48
5.0
100
AcDbLine
 10
521.2347596772439
 20
310.7926294535234
 30
0.0
 11
549.1075596772439
 21
241.1053294535234
 31
0.0
  0
LINE
  5
4AD6
330
1A
100
AcDbEntity
  8
CENTER L
  6
CENTER
 62
     1
 48
5.0
100
AcDbLine
 10
557.292959677244
 20
286.5883294535236
 30
0.0
 11
547.444859677244
 21
282.6493294535234
 31
0.0
  0
LINE
  5
4AD7
330
1A
100
AcDbEntity
  8
CENTER L
  6
CENTER
 62
     1
 48
5.0
100
AcDbLine
 10
540.1823596772442
 20
249.5880294535234
 30
0.0
 11
549.4708596772443
 21
253.3031294535235
 31
0.0
  0
ARC
  5
4AD8
330
1A
100
AcDbEntity
  8
SEIHIN
  6
Continuous
 62
     3
 48
5.0
100
AcDbCircle
 10
542.1666246546529
 20
258.4592132809456
 30
0.0
 40
14.99996603831095
100
AcDbArc
 50
291.7997124431121
 51
352.6386925989673
  0
ARC
  5
4AD9
330
1A
100
AcDbEntity
  8
SEIHIN
  6
Continuous
 62
     3
 48
5.0
100
AcDbCircle
 10
550.4308691568722
 20
290.3058332449276
 30
0.0
 40
2.100033934256889
100
AcDbArc
 50
328.3290006280953
 51
255.2687115033891
  0
LINE
  5
4ADA
330
1A
100
AcDbEntity
  8
CENTER L
  6
CENTER
 62
     1
 48
5.0
100
AcDbLine
 10
554.2071596772441
 20
291.8162294535234
 30
0.0
 11
546.2526596772443
 21
288.6346294535234
 31
0.0
  0
LINE
  5
4ADB
330
1A
100
AcDbEntity
  8
CENTER L
  6
CENTER
 62
     1
 48
5.0
100
AcDbLine
 10
548.9499596772439
 20
294.0081294535233
 30
0.0
 11
554.6728596772443
 21
279.7001294535236
 31
0.0
  0
LINE
  5
4ADC
330
1A
100
AcDbEntity
  8
SEIHIN
  6
PHANTOM
 62
     6
 48
5.0
100
AcDbLine
 10
418.417458234615
 20
244.8318733431418
 30
0.0
 11
441.182658234615
 21
187.9144733431417
 31
0.0
  0
LINE
  5
4ADD
330
1A
100
AcDbEntity
  8
SEIHIN
  6
PHANTOM
 62
     6
 48
5.0
100
AcDbLine
 10
419.0863582346149
 20
239.9282733431417
 30
0.0
 11
440.068558234615
 21
187.4688733431417
 31
0.0
  0
LINE
  5
4ADE
330
1A
100
AcDbEntity
  8
SUNPOU
  6
Continuous
 62
     4
 48
5.0
100
AcDbLine
 10
420.537857461004
 20
152.0232752775156
 30
0.0
 11
420.537857461004
 21
132.0232752775156
 31
0.0
  0
TEXT
  5
4ADF
330
1A
100
AcDbEntity
  8
SUNPOU
 48
5.0
100
AcDbText
 10
422.4062124757943
 20
122.3802765044945
 30
0.0
 40
6.0
  1
4
100
AcDbText
  0
LINE
  5
4AE0
330
1A
100
AcDbEntity
  8
SUNPOU
 48
5.0
100
AcDbLine
 10
420.537857461004
 20
132.0232752775156
 30
0.0
 11
428.5372012262426
 21
132.0232752775156
 31
0.0
  0
LINE
  5
4AE1
330
1A
100
AcDbEntity
  8
CENTER L
  6
CENTER
 62
     1
 48
5.0
100
AcDbLine
 10
430.4142582346148
 20
191.6853733431416
 30
0.0
 11
441.409758234615
 21
196.0831733431417
 31
0.0
  0
LINE
  5
4AE2
330
1A
100
AcDbEntity
  8
SEIHIN
  6
PHANTOM
 62
     6
 48
5.0
100
AcDbLine
 10
441.182858234615
 20
187.9144733431417
 30
0.0
 11
440.0686582346149
 21
187.4688733431417
 31
0.0
  0
DIMENSION
  5
4AE3
330
1A
100
AcDbEntity
  8
SUNPOU
 48
5.0
100
AcDbDimension
  2
*D13
 10
483.6629997452976
 20
263.6007621390246
 30
0.0
 11
483.663352007002
 21
277.0636214698342
 31
0.0
 70
    32
 71
     5
 42
24.99988651856276
  3
STANDARD
100
AcDbAlignedDimension
 13
505.8641596772443
 23
299.4060294535235
 33
0.0
 14
510.879859677244
 24
274.4867294535235
 34
0.0
 50
111.8000000000005
100
AcDbRotatedDimension
1001
ACAD
1000
DSTYLE
1002
{
1070
   140
1040
6.0
1070
    74
1070
     0
1070
   172
1070
     1
1070
    73
1070
     0
1070
   272
1070
     2
1070
    77
1070
     3
1070
   173
1070
     1
1070
   147
1040
2.0
1070
    42
1040
6.0
1070
    44
1040
3.0
1070
    43
1040
14.0
1070
   271
1070
     0
1070
   178
1070
     4
1070
   177
1070
     4
1070
   176
1070
     4
1070
   141
1040
150.0
1070
     7
1000
_OPEN
1070
     6
1000
_OPEN
1070
    41
1040
7.0
1002
}
  0
LINE
  5
4AE4
330
1A
100
AcDbEntity
  8
CENTER L
  6
CENTER
 62
     1
 48
5.0
100
AcDbLine
 10
420.3619582346149
 20
217.8214733431416
 30
0.0
 11
431.0792582346148
 21
222.1080733431417
 31
0.0
  0
LINE
  5
4AE5
330
1A
100
AcDbEntity
  8
CENTER L
  6
CENTER
 62
     1
 48
5.0
100
AcDbLine
 10
418.2079582346148
 20
223.4219733431417
 30
0.0
 11
428.8655582346148
 21
227.6846733431417
 31
0.0
  0
LINE
  5
4AE6
330
1A
100
AcDbEntity
  8
SEIHIN
  6
PHANTOM
 62
     6
 48
5.0
100
AcDbLine
 10
419.0863582346149
 20
239.9282733431417
 30
0.0
 11
420.200558234615
 21
240.3738733431417
 31
0.0
  0
LINE
  5
4AE7
330
1A
100
AcDbEntity
  8
SEIHIN
  6
Continuous
 62
     3
 48
5.0
100
AcDbLine
 10
509.762859677244
 20
265.4236294535235
 30
0.0
 11
532.7187596772442
 21
246.8084294535235
 31
0.0
  0
DIMENSION
  5
4AE8
330
1A
100
AcDbEntity
  8
SUNPOU
 48
5.0
100
AcDbDimension
  2
*D14
 10
511.0504368742974
 20
229.8582272190696
 30
0.0
 11
522.3774870486063
 21
215.0023215129645
 31
0.0
 70
    32
 71
     5
 42
7.500182625106532
  3
STANDARD
100
AcDbAlignedDimension
 13
540.1823596772442
 23
249.5880294535234
 33
0.0
 14
547.7370596772441
 24
244.5318294535235
 34
0.0
 50
111.8000000000005
100
AcDbRotatedDimension
1001
ACAD
1000
DSTYLE
1002
{
1070
   140
1040
6.0
1070
    74
1070
     0
1070
   172
1070
     1
1070
    73
1070
     0
1070
   272
1070
     2
1070
    77
1070
     3
1070
   173
1070
     1
1070
   147
1040
2.0
1070
    42
1040
6.0
1070
    44
1040
3.0
1070
    43
1040
14.0
1070
   271
1070
     0
1070
   178
1070
     4
1070
   177
1070
     4
1070
   176
1070
     4
1070
   141
1040
150.0
1070
     7
1000
_OPEN
1070
     6
1000
_OPEN
1070
    41
1040
7.0
1002
}
  0
ARC
  5
4AE9
330
1A
100
AcDbEntity
  8
SEIHIN
  6
Continuous
 62
     3
 48
5.0
100
AcDbCircle
 10
542.1665733529242
 20
258.4591273804602
 30
0.0
 40
14.99999818116956
100
AcDbArc
 50
230.960624547607
 51
291.7998743876801
  0
ARC
  5
4AEA
330
1A
100
AcDbEntity
  8
SEIHIN
  6
Continuous
 62
     3
 48
5.0
100
AcDbCircle
 10
544.9517596772441
 20
251.4956294535235
 30
0.0
 40
2.100000000000023
100
AcDbArc
 50
0.0
 51
180.0
  0
ARC
  5
4AEB
330
1A
100
AcDbEntity
  8
SEIHIN
  6
Continuous
 62
     3
 48
5.0
100
AcDbCircle
 10
544.9517596772441
 20
251.4956294535235
 30
0.0
 40
2.100000000000023
100
AcDbArc
 50
180.0
 51
0.0
  0
LINE
  5
4AEC
330
1A
100
AcDbEntity
  8
SEIHIN
  6
Continuous
 62
     3
 48
5.0
100
AcDbLine
 10
516.0070596772441
 20
274.7199294535235
 30
0.0
 11
516.4944596772441
 21
273.5012294535236
 31
0.0
  0
LINE
  5
4AED
330
1A
100
AcDbEntity
  8
CENTER L
  6
CENTER
 62
     1
 48
5.0
100
AcDbLine
 10
510.879859677244
 20
274.4867294535235
 30
0.0
 11
518.397959677244
 21
277.4936294535233
 31
0.0
  0
ARC
  5
4AEE
330
1A
100
AcDbEntity
  8
SEIHIN
  6
Continuous
 62
     3
 48
5.0
100
AcDbCircle
 10
516.4478648525198
 20
270.2515315233567
 30
0.0
 40
3.25003195600002
100
AcDbArc
 50
134.4191742905794
 51
89.17853784091285
  0
LINE
  5
4AEF
330
1A
100
AcDbEntity
  8
CENTER L
  6
CENTER
 62
     1
 48
5.0
100
AcDbLine
 10
511.429159677244
 20
268.2442294535235
 30
0.0
 11
521.6621596772441
 21
272.3371294535234
 31
0.0
  0
LINE
  5
4AF0
330
1A
100
AcDbEntity
  8
CENTER L
  6
CENTER
 62
     1
 48
5.0
100
AcDbLine
 10
512.7389596772441
 20
279.5248294535235
 30
0.0
 11
518.4616596772441
 21
265.2168294535235
 31
0.0
  0
LINE
  5
4AF1
330
1A
100
AcDbEntity
  8
SEIHIN
  6
Continuous
 62
     3
 48
5.0
100
AcDbLine
 10
518.5533596772443
 20
285.7517294535234
 30
0.0
 11
513.1373596772442
 21
290.7758294535236
 31
0.0
  0
ARC
  5
4AF2
330
1A
100
AcDbEntity
  8
SEIHIN
  6
Continuous
 62
     3
 48
5.0
100
AcDbCircle
 10
514.2197889878468
 20
275.8225411771652
 30
0.0
 40
2.100021221390514
100
AcDbArc
 50
328.3285323621091
 51
255.2708819233442
  0
LINE
  5
4AF3
330
1A
100
AcDbEntity
  8
SEIHIN
  6
Continuous
 62
     3
 48
5.0
100
AcDbLine
 10
501.221459677244
 20
286.7788294535235
 30
0.0
 11
509.762859677244
 21
265.4236294535235
 31
0.0
  0
LINE
  5
4AF4
330
1A
100
AcDbEntity
  8
SEIHIN
  6
Continuous
 62
     3
 48
5.0
100
AcDbLine
 10
513.685859677244
 20
273.7915294535234
 30
0.0
 11
514.173259677244
 21
272.5729294535236
 31
0.0
  0
LINE
  5
4AF5
330
1A
100
AcDbEntity
  8
SEIHIN
  6
Continuous
 62
     3
 48
5.0
100
AcDbLine
 10
501.221459677244
 20
286.7788294535235
 30
0.0
 11
506.7924596772441
 21
294.3922294535236
 31
0.0
  0
LINE
  5
4AF6
330
1A
100
AcDbEntity
  8
SEIHIN
  6
Continuous
 62
     3
 48
5.0
100
AcDbLine
 10
505.3070596772443
 20
298.1061294535234
 30
0.0
 11
506.7924596772441
 21
294.3922294535236
 31
0.0
  0
ARC
  5
4AF7
330
1A
100
AcDbEntity
  8
SEIHIN
  6
Continuous
 62
     3
 48
5.0
100
AcDbCircle
 10
506.2354493329769
 20
298.4775053199945
 30
0.0
 40
1.000006537478735
100
AcDbArc
 50
111.7950259160602
 51
201.8003457596425
  0
ARC
  5
4AF8
330
1A
100
AcDbEntity
  8
SEIHIN
  6
Continuous
 62
     3
 48
5.0
100
AcDbCircle
 10
515.4272596772441
 20
292.9993294535235
 30
0.0
 40
0.4999661288527017
100
AcDbArc
 50
291.8035375423546
 51
21.80353754235418
  0
ARC
  5
4AF9
330
1A
100
AcDbEntity
  8
SEIHIN
  6
Continuous
 62
     3
 48
5.0
100
AcDbCircle
 10
513.4773524828768
 20
291.1423907327851
 30
0.0
 40
0.4999622779126059
100
AcDbArc
 50
111.7904836793473
 51
227.1534721357077
  0
LINE
  5
4AFA
330
1A
100
AcDbEntity
  8
SEIHIN
  6
Continuous
 62
     3
 48
5.0
100
AcDbLine
 10
513.291759677244
 20
291.6066294535235
 30
0.0
 11
515.6129596772441
 21
292.5350294535235
 31
0.0
  0
ARC
  5
4AFB
330
1A
100
AcDbEntity
  8
SEIHIN
  6
Continuous
 62
     3
 48
5.0
100
AcDbCircle
 10
536.4103165731557
 20
272.8508122128167
 30
0.0
 40
4.000016856570015
100
AcDbArc
 50
201.8000795594107
 51
21.80061151043048
  0
ARC
  5
4AFC
330
1A
100
AcDbEntity
  8
SEIHIN
  6
Continuous
 62
     3
 48
5.0
100
AcDbCircle
 10
522.4832993324702
 20
280.7432053177803
 30
0.0
 40
1.500019088470516
100
AcDbArc
 50
201.800700268265
 51
21.7985722298447
  0
ARC
  5
4AFD
330
1A
100
AcDbEntity
  8
SEIHIN
  6
Continuous
 62
     3
 48
5.0
100
AcDbCircle
 10
516.5132569860359
 20
283.5521877362492
 30
0.0
 40
3.000000459450892
100
AcDbArc
 50
21.80283945691041
 51
47.15369015292747
  0
LINE
  5
4AFE
330
1A
100
AcDbEntity
  8
SEIHIN
  6
Continuous
 62
     3
 48
5.0
100
AcDbLine
 10
519.2986596772441
 20
284.6664294535236
 30
0.0
 11
521.0905596772443
 21
280.1862294535234
 31
0.0
  0
LINE
  5
4AFF
330
1A
100
AcDbEntity
  8
SEIHIN
  6
Continuous
 62
     3
 48
5.0
100
AcDbLine
 10
540.6539596772443
 20
293.2078294535234
 30
0.0
 11
542.445859677244
 21
288.7276294535235
 31
0.0
  0
ARC
  5
4B00
330
1A
100
AcDbEntity
  8
SEIHIN
  6
Continuous
 62
     3
 48
5.0
100
AcDbCircle
 10
541.0531596772441
 20
288.1705294535236
 30
0.0
 40
1.499954095964271
100
AcDbArc
 50
201.798572183748
 51
21.79857218374648
  0
ARC
  5
4B01
330
1A
100
AcDbEntity
  8
SEIHIN
  6
Continuous
 62
     3
 48
5.0
100
AcDbCircle
 10
543.4393568966802
 20
294.3219467634312
 30
0.0
 40
2.999949174615752
100
AcDbArc
 50
176.4513934970644
 51
201.8006721902432
  0
MTEXT
  5
4B02
330
1A
100
AcDbEntity
  8
SUNPOU
  6
Continuous
 62
     4
100
AcDbMText
 10
575.3658665629769
 20
263.6988133093403
 30
0.0
 40
6.0
 41
0.0
 71
     7
 72
     5
  1
2-φ6.5
 73
     1
 44
1.0
  0
LEADER
  5
4B03
330
1A
100
AcDbEntity
  8
SUNPOU
  6
Continuous
 62
     4
100
AcDbLeader
  3
STANDARD
 74
     0
 40
6.0
 41
31.2
 76
     3
 10
555.722703508283
 20
283.6504622040772
 30
0.0
 10
571.1563709108991
 20
261.6988133093403
 30
0.0
 10
573.3658665629769
 20
261.6988133093403
 30
0.0
1001
ACAD
1000
DSTYLE
1002
{
1070
     6
1000
OPEN
1070
    41
1040
7.0
1070
    42
1040
6.0
1070
    43
1040
14.0
1070
    44
1040
3.0
1070
    73
1070
     0
1070
    74
1070
     0
1070
    77
1070
     3
1070
   140
1040
6.0
1070
   141
1040
150.0
1070
   147
1040
2.0
1070
   172
1070
     1
1070
   173
1070
     1
1070
   176
1070
     4
1070
   177
1070
     4
1070
   178
1070
     4
1070
   271
1070
     0
1070
   272
1070
     2
1070
   288
1070
     1
1070
   341
1005
6D
1070
   343
1005
6D
1070
   344
1005
6D
1002
}
  0
LINE
  5
4B04
330
1A
100
AcDbEntity
  8
SEIHIN
  6
Continuous
 62
     3
 48
5.0
100
AcDbLine
 10
560.8296596772441
 20
285.8487294535236
 30
0.0
 11
557.0429596772442
 21
256.5373294535235
 31
0.0
  0
LINE
  5
4B05
330
1A
100
AcDbEntity
  8
SEIHIN
  6
Continuous
 62
     3
 48
5.0
100
AcDbLine
 10
552.2181596772443
 20
289.2032294535235
 30
0.0
 11
552.7055596772443
 21
287.9845294535234
 31
0.0
  0
LINE
  5
4B06
330
1A
100
AcDbEntity
  8
SEIHIN
  6
Continuous
 62
     3
 48
5.0
100
AcDbLine
 10
549.8968596772443
 20
288.2748294535235
 30
0.0
 11
550.3843596772442
 21
287.0561294535233
 31
0.0
  0
ARC
  5
4B07
330
1A
100
AcDbEntity
  8
SEIHIN
  6
Continuous
 62
     3
 48
5.0
100
AcDbCircle
 10
552.6590286433302
 20
284.7349170406856
 30
0.0
 40
3.249945533510721
100
AcDbArc
 50
134.4197735578313
 51
89.17964072761674
  0
LINE
  5
4B08
330
1A
100
AcDbEntity
  8
SEIHIN
  6
Continuous
 62
     3
 48
5.0
100
AcDbLine
 10
552.2882596772439
 20
307.2040294535235
 30
0.0
 11
543.0034596772443
 21
308.8754294535233
 31
0.0
  0
MTEXT
  5
4B09
330
1A
100
AcDbEntity
  8
SUNPOU
  6
Continuous
 62
     4
100
AcDbMText
 10
481.1897706144387
 20
315.8250344752032
 30
0.0
 40
6.0
 41
0.0
 71
     9
 72
     5
  1
3-φ4.2
 73
     1
 44
1.0
  0
ARC
  5
4B0A
330
1A
100
AcDbEntity
  8
SEIHIN
  6
Continuous
 62
     3
 48
5.0
100
AcDbCircle
 10
532.5116596772442
 20
309.5257294535235
 30
0.0
 40
1.499954095964123
100
AcDbArc
 50
201.7985721837457
 51
21.79857218374799
  0
LINE
  5
4B0B
330
1A
100
AcDbEntity
  8
SEIHIN
  6
Continuous
 62
     3
 48
5.0
100
AcDbLine
 10
526.7550596772442
 20
307.7617294535233
 30
0.0
 11
540.2181596772443
 21
313.1466294535234
 31
0.0
  0
ARC
  5
4B0C
330
1A
100
AcDbEntity
  8
SEIHIN
  6
Continuous
 62
     3
 48
5.0
100
AcDbCircle
 10
522.6079456647458
 20
307.3594238491066
 30
0.0
 40
4.166681397084319
100
AcDbArc
 50
218.0581178574779
 51
5.540711325138196
  0
LINE
  5
4B0D
330
1A
100
AcDbEntity
  8
SEIHIN
  6
Continuous
 62
     3
 48
5.0
100
AcDbLine
 10
541.5179596772442
 20
312.5895294535235
 30
0.0
 11
543.0034596772442
 21
308.8755294535234
 31
0.0
  0
LINE
  5
4B0E
330
1A
100
AcDbEntity
  8
SEIHIN
  6
Continuous
 62
     3
 48
5.0
100
AcDbLine
 10
540.2178596772441
 20
302.3762294535235
 30
0.0
 11
537.8966596772443
 21
301.4478294535234
 31
0.0
  0
ARC
  5
4B0F
330
1A
100
AcDbEntity
  8
SEIHIN
  6
Continuous
 62
     3
 48
5.0
100
AcDbCircle
 10
540.4035576970836
 20
301.9120308856399
 30
0.0
 40
0.4999640637060959
100
AcDbArc
 50
356.4449615966383
 51
111.8033878083672
  0
ARC
  5
4B10
330
1A
100
AcDbEntity
  8
SEIHIN
  6
Continuous
 62
     3
 48
5.0
100
AcDbCircle
 10
537.7109355462608
 20
301.9121397990864
 30
0.0
 40
0.500040413366893
100
AcDbArc
 50
201.8014092689186
 51
291.7907700166034
  0
LINE
  5
4B11
330
1A
100
AcDbEntity
  8
SEIHIN
  6
Continuous
 62
     3
 48
5.0
100
AcDbLine
 10
533.7186596772442
 20
310.5470294535235
 30
0.0
 11
537.2466596772442
 21
301.7264294535235
 31
0.0
  0
ARC
  5
4B12
330
1A
100
AcDbEntity
  8
SEIHIN
  6
Continuous
 62
     3
 48
5.0
100
AcDbCircle
 10
540.5894993312641
 20
312.21815531476
 30
0.0
 40
0.9999786822727778
100
AcDbArc
 50
21.80087751681734
 51
111.7987494608293
  0
VIEWPORT
  5
22
330
17
100
AcDbEntity
 67
     1
  8
0
100
AcDbViewport
 10
313.6808219178082
 20
286.420032064001
 30
0.0
 40
627.3616438356164
 41
572.840064128002
 68
     2
 69
     1
 12
313.6808219178082
 22
286.420032064001
 13
0.0
 23
0.0
 14
1.0
 24
1.0
 15
10.0
 25
10.0
 16
0.0
 26
0.0
 36
1.0
 17
0.0
 27
0.0
 37
0.0
 42
50.0
 43
0.0
 44
0.0
 45
572.840064128002
 50
0.0
 51
0.0
 72
   100
 90
    32768
  1

281
     0
 71
     1
 74
     0
110
0.0
120
0.0
130
0.0
111
1.0
121
0.0
131
0.0
112
0.0
122
1.0
132
0.0
 79
     0
146
0.0
  0
VIEWPORT
  5
64
330
17
100
AcDbEntity
 67
     1
  8
VIEWPORT
100
AcDbViewport
 10
210.0
 20
148.5
 30
0.0
 40
420.0
 41
297.0
 68
     1
 69
     2
 12
420.0
 22
297.0
 13
0.0
 23
0.0
 14
10.0
 24
10.0
 15
0.0
 25
0.0
 16
0.0
 26
0.0
 36
1.0
 17
0.0
 27
0.0
 37
0.0
 42
50.0
 43
0.0
 44
0.0
 45
605.8799999999999
 50
0.0
 51
0.0
 72
   100
 90
    32768
  1

281
     0
 71
     1
 74
     0
110
0.0
120
0.0
130
0.0
111
1.0
121
0.0
131
0.0
112
0.0
122
1.0
132
0.0
 79
     0
146
0.0
  0
ENDSEC
  0
SECTION
  2
OBJECTS
  0
DICTIONARY
  5
C
330
0
100
AcDbDictionary
281
     1
  3
ACAD_GROUP
350
D
  3
ACAD_LAYOUT
350
A98
  3
ACAD_MLINESTYLE
350
E
  3
ACAD_PLOTSETTINGS
350
A99
  3
ACAD_PLOTSTYLENAME
350
A96
  0
DICTIONARY
  5
D
102
{ACAD_REACTORS
330
C
102
}
330
C
100
AcDbDictionary
281
     1
  3
*A1
350
FA3
  3
*A2
350
1597
  3
*A3
350
179D
  3
*A4
350
3390
  3
*A5
350
3A0A
  0
DICTIONARY
  5
A98
102
{ACAD_REACTORS
330
C
102
}
330
C
100
AcDbDictionary
281
     1
  3
Model
350
A9A
  3
ﾚｲｱｳﾄ1
350
A9B
  0
DICTIONARY
  5
E
102
{ACAD_REACTORS
330
C
102
}
330
C
100
AcDbDictionary
281
     1
  3
STANDARD
350
13
  0
DICTIONARY
  5
A99
102
{ACAD_REACTORS
330
C
102
}
330
C
100
AcDbDictionary
281
     1
  0
ACDBDICTIONARYWDFLT
  5
A96
102
{ACAD_REACTORS
330
C
102
}
330
C
100
AcDbDictionary
281
     1
  3
Normal
350
A97
100
AcDbDictionaryWithDefault
340
A97
1001
ACAD
1000
TREAT_AS_HARD
1070
     0
1000
TREAT_AS_HARD
1070
     0
1000
TREAT_AS_HARD
1070
     0
1000
TREAT_AS_HARD
1070
     0
  0
GROUP
  5
FA3
102
{ACAD_REACTORS
330
D
102
}
330
D
100
AcDbGroup
300

 70
     1
 71
     1
  0
GROUP
  5
1597
102
{ACAD_REACTORS
330
D
102
}
330
D
100
AcDbGroup
300

 70
     1
 71
     1
  0
GROUP
  5
179D
102
{ACAD_REACTORS
330
D
102
}
330
D
100
AcDbGroup
300

 70
     1
 71
     1
  0
GROUP
  5
3390
102
{ACAD_REACTORS
330
D
102
}
330
D
100
AcDbGroup
300

 70
     1
 71
     1
  0
GROUP
  5
3A0A
102
{ACAD_REACTORS
330
D
102
}
330
D
100
AcDbGroup
300

 70
     1
 71
     1
  0
LAYOUT
  5
A9A
102
{ACAD_REACTORS
330
A98
102
}
330
A98
100
AcDbPlotSettings
  1

  2
Adobe PDF
  4
A3
  6

 40
3.174999952316284
 41
3.174999952316284
 42
3.17498779296875
 43
3.17498779296875
 44
297.0318298339844
 45
420.1583251953125
 46
2.67
 47
2.85
 48
-8.09872987394283
 49
-9.441603207410708
140
808.114529312747
141
561.2334822198422
142
1.0
143
2.0
 70
 28340
 72
     1
 73
     1
 74
     4
  7
systemprinter.ctb
 75
    17
147
0.5
148
8.09872987394283
149
9.441603207410708
100
AcDbLayout
  1
Model
 70
     1
 71
     0
 10
0.0
 20
0.0
 11
12.0
 21
9.0
 12
0.0
 22
0.0
 32
0.0
 14
0.0
 24
0.0
 34
0.0
 15
0.0
 25
0.0
 35
0.0
146
0.0
 13
0.0
 23
0.0
 33
0.0
 16
1.0
 26
0.0
 36
0.0
 17
0.0
 27
1.0
 37
0.0
 76
     0
330
1A
  0
LAYOUT
  5
A9B
102
{ACAD_REACTORS
330
A98
102
}
330
A98
100
AcDbPlotSettings
  1

  2
C:\PROGRAM FILES\ACAD LT 2000\plotters\DWF ePlot.pc3
  4
ANSI_A_(8.50_x_11.00_Inches)
  6

 40
5.793749809265137
 41
17.79375076293945
 42
5.793746948242188
 43
17.79376220703125
 44
215.8999938964844
 45
279.3999938964844
 46
0.0
 47
0.0
 48
0.0
 49
0.0
140
0.0
141
0.0
142
1.0
143
43.75760864458461
 70
   688
 72
     0
 73
     1
 74
     1
  7
systemprinter.ctb
 75
     0
147
0.0228531684197454
148
0.3255366854427166
149
0.2302009418498301
100
AcDbLayout
  1
ﾚｲｱｳﾄ1
 70
     1
 71
     1
 10
-30.66685116754002
 20
-9.990190459854741
 11
450.6668334081172
 21
361.9494725043409
 12
0.0
 22
0.0
 32
0.0
 14
-0.0128164049386896
 24
-0.0090630292066862
 34
-0.0015258207003583
 15
420.0128183607162
 25
297.0090644122207
 35
0.0000000349246037
146
0.0
 13
0.0
 23
0.0
 33
0.0
 16
1.0
 26
0.0
 36
0.0
 17
0.0
 27
1.0
 37
0.0
 76
     0
330
17
331
64
  0
MLINESTYLE
  5
13
102
{ACAD_REACTORS
330
E
102
}
330
E
100
AcDbMlineStyle
  2
STANDARD
 70
     0
  3

 62
     0
 51
90.0
 52
90.0
 71
     2
 49
0.5
 62
   256
  6
BYLAYER
 49
-0.5
 62
   256
  6
BYLAYER
  0
ACDBPLACEHOLDER
  5
A97
102
{ACAD_REACTORS
330
A96
102
}
330
A96
  0
ENDSEC
  0
EOF
