  0
SECTION
  2
HEADER
  9
$ACADVER
  1
AC1015
  9
$ACADMAINTVER
 70
     6
  9
$DWGCODEPAGE
  3
ANSI_932
  9
$INSBASE
 10
0.0
 20
0.0
 30
0.0
  9
$EXTMIN
 10
0.0000000135560185
 20
-0.0000001317113174
 30
0.0
  9
$EXTMAX
 10
797.6000000135562
 20
551.5999998682888
 30
0.0
  9
$LIMMIN
 10
0.0
 20
0.0
  9
$LIMMAX
 10
840.0
 20
594.0
  9
$ORTHOMODE
 70
     0
  9
$REGENMODE
 70
     1
  9
$FILLMODE
 70
     1
  9
$QTEXTMODE
 70
     0
  9
$MIRRTEXT
 70
     1
  9
$LTSCALE
 40
2.0
  9
$ATTMODE
 70
     1
  9
$TEXTSIZE
 40
6.0
  9
$TRACEWID
 40
1.0
  9
$TEXTSTYLE
  7
STANDARD
  9
$CLAYER
  8
SEIHIN
  9
$CELTYPE
  6
BYLAYER
  9
$CECOLOR
 62
   256
  9
$CELTSCALE
 40
1.0
  9
$DISPSILH
 70
     0
  9
$DIMSCALE
 40
1.0
  9
$DIMASZ
 40
7.0
  9
$DIMEXO
 40
6.0
  9
$DIMDLI
 40
14.0
  9
$DIMRND
 40
0.0
  9
$DIMDLE
 40
0.0
  9
$DIMEXE
 40
3.0
  9
$DIMTP
 40
0.0
  9
$DIMTM
 40
0.0
  9
$DIMTXT
 40
6.0
  9
$DIMCEN
 40
150.0
  9
$DIMTSZ
 40
0.0
  9
$DIMTOL
 70
     0
  9
$DIMLIM
 70
     0
  9
$DIMTIH
 70
     0
  9
$DIMTOH
 70
     0
  9
$DIMSE1
 70
     0
  9
$DIMSE2
 70
     0
  9
$DIMTAD
 70
     3
  9
$DIMZIN
 70
     0
  9
$DIMBLK
  1

  9
$DIMASO
 70
     1
  9
$DIMSHO
 70
     1
  9
$DIMPOST
  1

  9
$DIMAPOST
  1

  9
$DIMALT
 70
     0
  9
$DIMALTD
 70
     2
  9
$DIMALTF
 40
25.4
  9
$DIMLFAC
 40
1.0
  9
$DIMTOFL
 70
     1
  9
$DIMTVP
 40
0.0
  9
$DIMTIX
 70
     0
  9
$DIMSOXD
 70
     0
  9
$DIMSAH
 70
     1
  9
$DIMBLK1
  1
OPEN
  9
$DIMBLK2
  1
OPEN
  9
$DIMSTYLE
  2
STANDARD
  9
$DIMCLRD
 70
   256
  9
$DIMCLRE
 70
   256
  9
$DIMCLRT
 70
   256
  9
$DIMTFAC
 40
1.0
  9
$DIMGAP
 40
2.0
  9
$DIMJUST
 70
     0
  9
$DIMSD1
 70
     0
  9
$DIMSD2
 70
     0
  9
$DIMTOLJ
 70
     1
  9
$DIMTZIN
 70
     0
  9
$DIMALTZ
 70
     0
  9
$DIMALTTZ
 70
     0
  9
$DIMUPT
 70
     0
  9
$DIMDEC
 70
     0
  9
$DIMTDEC
 70
     0
  9
$DIMALTU
 70
     2
  9
$DIMALTTD
 70
     2
  9
$DIMTXSTY
  7
STANDARD
  9
$DIMAUNIT
 70
     0
  9
$DIMADEC
 70
     0
  9
$DIMALTRND
 40
0.0
  9
$DIMAZIN
 70
     0
  9
$DIMDSEP
 70
    46
  9
$DIMATFIT
 70
     3
  9
$DIMFRAC
 70
     0
  9
$DIMLDRBLK
  1
OPEN
  9
$DIMLUNIT
 70
     2
  9
$DIMLWD
 70
    -1
  9
$DIMLWE
 70
    -1
  9
$DIMTMOVE
 70
     0
  9
$LUNITS
 70
     2
  9
$LUPREC
 70
     4
  9
$SKETCHINC
 40
1.0
  9
$FILLETRAD
 40
10.0
  9
$AUNITS
 70
     0
  9
$AUPREC
 70
     0
  9
$MENU
  1
.
  9
$ELEVATION
 40
0.0
  9
$PELEVATION
 40
0.0
  9
$THICKNESS
 40
0.0
  9
$LIMCHECK
 70
     0
  9
$CHAMFERA
 40
0.0
  9
$CHAMFERB
 40
0.0
  9
$CHAMFERC
 40
40.0
  9
$CHAMFERD
 40
0.0
  9
$SKPOLY
 70
     0
  9
$TDCREATE
 40
2451030.614786227
  9
$TDUCREATE
 40
2451030.239786227
  9
$TDUPDATE
 40
2455609.405232523
  9
$TDUUPDATE
 40
2455609.030232523
  9
$TDINDWG
 40
0.2776919213
  9
$TDUSRTIMER
 40
0.2776919213
  9
$USRTIMER
 70
     1
  9
$ANGBASE
 50
0.0
  9
$ANGDIR
 70
     0
  9
$PDMODE
 70
     0
  9
$PDSIZE
 40
0.0
  9
$PLINEWID
 40
0.0
  9
$SPLFRAME
 70
     0
  9
$SPLINETYPE
 70
     6
  9
$SPLINESEGS
 70
     8
  9
$HANDSEED
  5
5265
  9
$SURFTAB1
 70
     6
  9
$SURFTAB2
 70
     6
  9
$SURFTYPE
 70
     6
  9
$SURFU
 70
     6
  9
$SURFV
 70
     6
  9
$UCSBASE
  2

  9
$UCSNAME
  2

  9
$UCSORG
 10
0.0
 20
0.0
 30
0.0
  9
$UCSXDIR
 10
1.0
 20
0.0
 30
0.0
  9
$UCSYDIR
 10
0.0
 20
1.0
 30
0.0
  9
$UCSORTHOREF
  2

  9
$UCSORTHOVIEW
 70
     0
  9
$UCSORGTOP
 10
0.0
 20
0.0
 30
0.0
  9
$UCSORGBOTTOM
 10
0.0
 20
0.0
 30
0.0
  9
$UCSORGLEFT
 10
0.0
 20
0.0
 30
0.0
  9
$UCSORGRIGHT
 10
0.0
 20
0.0
 30
0.0
  9
$UCSORGFRONT
 10
0.0
 20
0.0
 30
0.0
  9
$UCSORGBACK
 10
0.0
 20
0.0
 30
0.0
  9
$PUCSBASE
  2

  9
$PUCSNAME
  2

  9
$PUCSORG
 10
0.0
 20
0.0
 30
0.0
  9
$PUCSXDIR
 10
1.0
 20
0.0
 30
0.0
  9
$PUCSYDIR
 10
0.0
 20
1.0
 30
0.0
  9
$PUCSORTHOREF
  2

  9
$PUCSORTHOVIEW
 70
     0
  9
$PUCSORGTOP
 10
0.0
 20
0.0
 30
0.0
  9
$PUCSORGBOTTOM
 10
0.0
 20
0.0
 30
0.0
  9
$PUCSORGLEFT
 10
0.0
 20
0.0
 30
0.0
  9
$PUCSORGRIGHT
 10
0.0
 20
0.0
 30
0.0
  9
$PUCSORGFRONT
 10
0.0
 20
0.0
 30
0.0
  9
$PUCSORGBACK
 10
0.0
 20
0.0
 30
0.0
  9
$USERI1
 70
     0
  9
$USERI2
 70
     0
  9
$USERI3
 70
     0
  9
$USERI4
 70
     0
  9
$USERI5
 70
     0
  9
$USERR1
 40
0.0
  9
$USERR2
 40
0.0
  9
$USERR3
 40
0.0
  9
$USERR4
 40
0.0
  9
$USERR5
 40
0.0
  9
$WORLDVIEW
 70
     1
  9
$SHADEDGE
 70
     3
  9
$SHADEDIF
 70
    70
  9
$TILEMODE
 70
     1
  9
$MAXACTVP
 70
    16
  9
$PINSBASE
 10
0.0
 20
0.0
 30
0.0
  9
$PLIMCHECK
 70
     0
  9
$PEXTMIN
 10
-0.0128164049386896
 20
-0.0090630292066862
 30
-0.0015258207003583
  9
$PEXTMAX
 10
420.0128183607162
 20
297.0090644122207
 30
0.0000000349246037
  9
$PLIMMIN
 10
-30.66685116754002
 20
-9.990190459854741
  9
$PLIMMAX
 10
450.6668334081172
 20
361.9494725043409
  9
$UNITMODE
 70
     0
  9
$VISRETAIN
 70
     0
  9
$PLINEGEN
 70
     0
  9
$PSLTSCALE
 70
     1
  9
$TREEDEPTH
 70
  3020
  9
$CMLSTYLE
  2
STANDARD
  9
$CMLJUST
 70
     0
  9
$CMLSCALE
 40
1.0
  9
$PROXYGRAPHICS
 70
     1
  9
$MEASUREMENT
 70
     0
  9
$CELWEIGHT
370
    -1
  9
$ENDCAPS
280
     0
  9
$JOINSTYLE
280
     0
  9
$LWDISPLAY
290
     0
  9
$INSUNITS
 70
     0
  9
$HYPERLINKBASE
  1

  9
$STYLESHEET
  1
systemprinter.ctb
  9
$XEDIT
290
     1
  9
$CEPSNTYPE
380
     0
  9
$PSTYLEMODE
290
     1
  9
$FINGERPRINTGUID
  2
{91E25F26-0CBF-4C93-982E-B5F00895E654}
  9
$VERSIONGUID
  2
{9841B032-F684-4124-948D-77B305C51755}
  9
$EXTNAMES
290
     1
  9
$PSVPSCALE
 40
0.0
  9
$OLESTARTUP
290
     0
  0
ENDSEC
  0
SECTION
  2
CLASSES
  0
CLASS
  1
ACDBDICTIONARYWDFLT
  2
AcDbDictionaryWithDefault
  3
ObjectDBX Classes
 90
        0
280
     0
281
     0
  0
CLASS
  1
ACDBPLACEHOLDER
  2
AcDbPlaceHolder
  3
ObjectDBX Classes
 90
        0
280
     0
281
     0
  0
CLASS
  1
LAYOUT
  2
AcDbLayout
  3
ObjectDBX Classes
 90
        0
280
     0
281
     0
  0
CLASS
  1
DUMMY
  2
AcDbLongTransaction
  3
DUMMY
 90
        0
280
     0
281
     0
  0
CLASS
  1
LWPOLYLINE
  2
AcDbPolyline
  3
AutoCAD 2000
 90
        0
280
     0
281
     1
  0
CLASS
  1
HATCH
  2
AcDbHatch
  3
AutoCAD 2000
 90
        0
280
     0
281
     1
  0
CLASS
  1
XRECORD
  2
AcDbXrecord
  3
AutoCAD 2000
 90
        0
280
     0
281
     0
  0
CLASS
  1
DUMMY
  2
AcDbLongTransaction
  3
DUMMY
 90
        0
280
     0
281
     0
  0
CLASS
  1
LWPOLYLINE
  2
AcDbPolyline
  3
AutoCAD 2000
 90
        0
280
     0
281
     1
  0
CLASS
  1
HATCH
  2
AcDbHatch
  3
AutoCAD 2000
 90
        0
280
     0
281
     1
  0
CLASS
  1
XRECORD
  2
AcDbXrecord
  3
AutoCAD 2000
 90
        0
280
     0
281
     0
  0
CLASS
  1
DUMMY
  2
AcDbLongTransaction
  3
DUMMY
 90
        0
280
     0
281
     0
  0
CLASS
  1
LWPOLYLINE
  2
AcDbPolyline
  3
AutoCAD 2000
 90
        0
280
     0
281
     1
  0
CLASS
  1
HATCH
  2
AcDbHatch
  3
AutoCAD 2000
 90
        0
280
     0
281
     1
  0
CLASS
  1
XRECORD
  2
AcDbXrecord
  3
AutoCAD 2000
 90
        0
280
     0
281
     0
  0
CLASS
  1
DUMMY
  2
AcDbLongTransaction
  3
DUMMY
 90
        0
280
     0
281
     0
  0
CLASS
  1
LWPOLYLINE
  2
AcDbPolyline
  3
AutoCAD 2000
 90
        0
280
     0
281
     1
  0
CLASS
  1
HATCH
  2
AcDbHatch
  3
AutoCAD 2000
 90
        0
280
     0
281
     1
  0
CLASS
  1
XRECORD
  2
AcDbXrecord
  3
AutoCAD 2000
 90
        0
280
     0
281
     0
  0
ENDSEC
  0
SECTION
  2
TABLES
  0
TABLE
  2
VPORT
  5
8
330
0
100
AcDbSymbolTable
 70
     2
  0
VPORT
  5
5264
330
8
100
AcDbSymbolTableRecord
100
AcDbViewportTableRecord
  2
*Active
 70
     0
 10
0.0
 20
0.0
 11
1.0
 21
1.0
 12
411.1124883490151
 22
294.2384726000913
 13
0.0
 23
0.0
 14
5.0
 24
5.0
 15
0.0
 25
0.0
 16
0.0
 26
0.0
 36
1.0
 17
0.0
 27
0.0
 37
0.0
 40
637.6638778700177
 41
1.651537335285505
 42
50.0
 43
0.0
 44
0.0
 50
0.0
 51
0.0
 71
     0
 72
   100
 73
     1
 74
     0
 75
     0
 76
     0
 77
     0
 78
     0
281
     0
 65
     1
110
0.0
120
0.0
130
0.0
111
1.0
121
0.0
131
0.0
112
0.0
122
1.0
132
0.0
 79
     0
146
0.0
  0
ENDTAB
  0
TABLE
  2
LTYPE
  5
5
330
0
100
AcDbSymbolTable
 70
     3
  0
LTYPE
  5
14
330
5
100
AcDbSymbolTableRecord
100
AcDbLinetypeTableRecord
  2
BYBLOCK
 70
     0
  3

 72
    65
 73
     0
 40
0.0
  0
LTYPE
  5
15
330
5
100
AcDbSymbolTableRecord
100
AcDbLinetypeTableRecord
  2
BYLAYER
 70
     0
  3

 72
    65
 73
     0
 40
0.0
  0
LTYPE
  5
16
330
5
100
AcDbSymbolTableRecord
100
AcDbLinetypeTableRecord
  2
CONTINUOUS
 70
     0
  3
Solid line
 72
    65
 73
     0
 40
0.0
  0
LTYPE
  5
115
330
5
100
AcDbSymbolTableRecord
100
AcDbLinetypeTableRecord
  2
PHANTOM
 70
     0
  3
______  __  __  ______  __  __  ______  __  __ 
 72
    65
 73
     6
 40
2.5
 49
1.25
 74
     0
 49
-0.25
 74
     0
 49
0.25
 74
     0
 49
-0.25
 74
     0
 49
0.25
 74
     0
 49
-0.25
 74
     0
  0
LTYPE
  5
135
330
5
100
AcDbSymbolTableRecord
100
AcDbLinetypeTableRecord
  2
CENTER
 70
     0
  3
____ _ ____ _ ____ _ ____ _ ____ _ ____ _ ____ 
 72
    65
 73
     4
 40
2.0
 49
1.25
 74
     0
 49
-0.25
 74
     0
 49
0.25
 74
     0
 49
-0.25
 74
     0
  0
ENDTAB
  0
TABLE
  2
LAYER
  5
2
330
0
100
AcDbSymbolTable
 70
     8
  0
LAYER
  5
F
330
2
100
AcDbSymbolTableRecord
100
AcDbLayerTableRecord
  2
0
 70
     0
 62
     7
  6
CONTINUOUS
370
    -3
390
A97
  0
LAYER
  5
62
330
2
100
AcDbSymbolTableRecord
100
AcDbLayerTableRecord
  2
VIEWPORT
 70
     0
 62
     7
  6
CONTINUOUS
370
    -3
390
A97
  0
LAYER
  5
143
330
2
100
AcDbSymbolTableRecord
100
AcDbLayerTableRecord
  2
SEIHIN
 70
     0
 62
     3
  6
CONTINUOUS
370
    -3
390
A97
  0
LAYER
  5
444
330
2
100
AcDbSymbolTableRecord
100
AcDbLayerTableRecord
  2
DEFPOINTS
 70
     0
 62
     7
  6
CONTINUOUS
290
     0
370
    -3
390
A97
  0
LAYER
  5
482
330
2
100
AcDbSymbolTableRecord
100
AcDbLayerTableRecord
  2
SUNPOU
 70
     0
 62
     4
  6
CONTINUOUS
370
    -3
390
A97
  0
LAYER
  5
5D4
330
2
100
AcDbSymbolTableRecord
100
AcDbLayerTableRecord
  2
CENTER L
 70
     0
 62
     1
  6
CENTER
370
    -3
390
A97
  0
LAYER
  5
3D95
330
2
100
AcDbSymbolTableRecord
100
AcDbLayerTableRecord
  2
ZUWAKU
 70
     0
 62
     7
  6
CONTINUOUS
370
    -3
390
A97
  0
LAYER
  5
3D96
330
2
100
AcDbSymbolTableRecord
100
AcDbLayerTableRecord
  2
moji
 70
     0
 62
     2
  6
CONTINUOUS
370
    -3
390
A97
  0
ENDTAB
  0
TABLE
  2
STYLE
  5
3
330
0
100
AcDbSymbolTable
 70
     2
  0
STYLE
  5
10
330
3
100
AcDbSymbolTableRecord
100
AcDbTextStyleTableRecord
  2
STANDARD
 70
     0
 40
0.0
 41
1.0
 50
0.0
 71
     0
 42
6.0
  3
TXT
  4
bigfont.shx
  0
STYLE
  5
3D97
330
3
100
AcDbSymbolTableRecord
100
AcDbTextStyleTableRecord
  2
ｽﾀｲﾙ1
 70
     0
 40
0.0
 41
1.0
 50
0.0
 71
     0
 42
2.5
  3
MS PGothic.ttf
  4

1001
ACAD
1000
MS PGothic
1071
    32818
  0
ENDTAB
  0
TABLE
  2
VIEW
  5
6
330
0
100
AcDbSymbolTable
 70
     0
  0
ENDTAB
  0
TABLE
  2
UCS
  5
7
330
0
100
AcDbSymbolTable
 70
     0
  0
ENDTAB
  0
TABLE
  2
APPID
  5
9
330
0
100
AcDbSymbolTable
 70
     1
  0
APPID
  5
11
330
9
100
AcDbSymbolTableRecord
100
AcDbRegAppTableRecord
  2
ACAD
 70
     0
  0
ENDTAB
  0
TABLE
  2
DIMSTYLE
  5
A
330
0
100
AcDbSymbolTable
 70
     1
100
AcDbDimStyleTable
  0
DIMSTYLE
105
1D
102
{ACAD_REACTORS
330
5003
330
5004
330
5006
330
5007
330
5009
330
500F
330
5010
330
5058
330
507A
330
50DC
330
50E6
330
5101
330
5102
330
5103
102
}
330
A
100
AcDbSymbolTableRecord
100
AcDbDimStyleTableRecord
  2
STANDARD
 70
     0
340
10
  0
ENDTAB
  0
TABLE
  2
BLOCK_RECORD
  5
1
330
0
100
AcDbSymbolTable
 70
    15
  0
BLOCK_RECORD
  5
1A
330
1
100
AcDbSymbolTableRecord
100
AcDbBlockTableRecord
  2
*MODEL_SPACE
340
A9A
  0
BLOCK_RECORD
  5
17
330
1
100
AcDbSymbolTableRecord
100
AcDbBlockTableRecord
  2
*PAPER_SPACE
340
A9B
  0
BLOCK_RECORD
  5
6D
330
1
100
AcDbSymbolTableRecord
100
AcDbBlockTableRecord
  2
_OPEN
340
0
102
{BLKREFS
331
51DD
331
51DE
331
51E6
331
51E7
331
51F1
331
51F2
331
51FA
331
51FB
331
5203
331
5204
331
520C
331
520D
331
5215
331
5216
331
5220
331
5221
331
5229
331
522A
331
5232
331
5233
331
523D
331
523E
331
5246
331
5247
331
524F
331
5250
331
5258
331
5259
102
}
  0
BLOCK_RECORD
  5
512C
330
1
100
AcDbSymbolTableRecord
100
AcDbBlockTableRecord
  2
*D1
340
0
  0
BLOCK_RECORD
  5
5138
330
1
100
AcDbSymbolTableRecord
100
AcDbBlockTableRecord
  2
*D2
340
0
  0
BLOCK_RECORD
  5
5144
330
1
100
AcDbSymbolTableRecord
100
AcDbBlockTableRecord
  2
*D3
340
0
  0
BLOCK_RECORD
  5
5152
330
1
100
AcDbSymbolTableRecord
100
AcDbBlockTableRecord
  2
*D4
340
0
  0
BLOCK_RECORD
  5
515E
330
1
100
AcDbSymbolTableRecord
100
AcDbBlockTableRecord
  2
*D5
340
0
  0
BLOCK_RECORD
  5
516A
330
1
100
AcDbSymbolTableRecord
100
AcDbBlockTableRecord
  2
*D6
340
0
  0
BLOCK_RECORD
  5
5176
330
1
100
AcDbSymbolTableRecord
100
AcDbBlockTableRecord
  2
*D7
340
0
  0
BLOCK_RECORD
  5
5182
330
1
100
AcDbSymbolTableRecord
100
AcDbBlockTableRecord
  2
*D8
340
0
  0
BLOCK_RECORD
  5
5190
330
1
100
AcDbSymbolTableRecord
100
AcDbBlockTableRecord
  2
*D9
340
0
  0
BLOCK_RECORD
  5
519C
330
1
100
AcDbSymbolTableRecord
100
AcDbBlockTableRecord
  2
*D10
340
0
  0
BLOCK_RECORD
  5
51A8
330
1
100
AcDbSymbolTableRecord
100
AcDbBlockTableRecord
  2
*D11
340
0
  0
BLOCK_RECORD
  5
51B6
330
1
100
AcDbSymbolTableRecord
100
AcDbBlockTableRecord
  2
*D12
340
0
  0
BLOCK_RECORD
  5
51C2
330
1
100
AcDbSymbolTableRecord
100
AcDbBlockTableRecord
  2
*D13
340
0
  0
BLOCK_RECORD
  5
51CE
330
1
100
AcDbSymbolTableRecord
100
AcDbBlockTableRecord
  2
*D14
340
0
  0
ENDTAB
  0
ENDSEC
  0
SECTION
  2
BLOCKS
  0
BLOCK
  5
1B
330
1A
100
AcDbEntity
  8
0
100
AcDbBlockBegin
  2
*MODEL_SPACE
 70
     0
 71
     0
 10
0.0
 20
0.0
 30
0.0
  3
*MODEL_SPACE
  1

  0
ENDBLK
  5
1C
330
1A
100
AcDbEntity
  8
0
100
AcDbBlockEnd
  0
BLOCK
  5
18
330
17
100
AcDbEntity
 67
     1
  8
0
100
AcDbBlockBegin
  2
*PAPER_SPACE
 70
     0
 71
     0
 10
0.0
 20
0.0
 30
0.0
  3
*PAPER_SPACE
  1

  0
ENDBLK
  5
19
330
17
100
AcDbEntity
 67
     1
  8
0
100
AcDbBlockEnd
  0
BLOCK
  5
6E
330
6D
100
AcDbEntity
  8
0
100
AcDbBlockBegin
  2
_OPEN
 70
     0
 71
     0
 10
0.0
 20
0.0
 30
0.0
  3
_OPEN
  1

  0
LINE
  5
6F
330
6D
100
AcDbEntity
  8
0
  6
ByBlock
 62
     0
100
AcDbLine
 10
-1.0
 20
0.1666666666666667
 30
0.0
 11
0.0
 21
0.0
 31
0.0
  0
LINE
  5
70
330
6D
100
AcDbEntity
  8
0
  6
ByBlock
 62
     0
100
AcDbLine
 10
0.0
 20
0.0
 30
0.0
 11
-1.0
 21
-0.1666666666666667
 31
0.0
  0
LINE
  5
71
330
6D
100
AcDbEntity
  8
0
  6
ByBlock
 62
     0
100
AcDbLine
 10
0.0
 20
0.0
 30
0.0
 11
-1.0
 21
0.0
 31
0.0
  0
ENDBLK
  5
72
330
6D
100
AcDbEntity
  8
0
100
AcDbBlockEnd
  0
BLOCK
  5
5136
330
512C
100
AcDbEntity
  8
0
100
AcDbBlockBegin
  2
*D1
 70
     1
 71
     0
 10
0.0
 20
0.0
 30
0.0
  3
*D1
  1

  0
LINE
  5
51DA
330
512C
100
AcDbEntity
  8
SUNPOU
 62
     4
370
    -2
100
AcDbLine
 10
378.739967739834
 20
258.9871243702935
 30
0.0
 11
378.739967739834
 21
304.2998246415698
 31
0.0
  0
LINE
  5
51DB
330
512C
100
AcDbEntity
  8
SUNPOU
 62
     4
370
    -2
100
AcDbLine
 10
413.739967739834
 20
258.9871243702935
 30
0.0
 11
413.739967739834
 21
304.2998246415698
 31
0.0
  0
LINE
  5
51DC
330
512C
100
AcDbEntity
  8
SUNPOU
 62
     4
370
    -2
100
AcDbLine
 10
385.739967739834
 20
301.2998246415698
 30
0.0
 11
406.739967739834
 21
301.2998246415698
 31
0.0
  0
INSERT
  5
51DD
330
512C
100
AcDbEntity
  8
SUNPOU
 62
     4
370
    -2
100
AcDbBlockReference
  2
_OPEN
 10
378.739967739834
 20
301.2998246415698
 30
0.0
 41
7.0
 42
7.0
 43
7.0
 50
180.0
  0
INSERT
  5
51DE
330
512C
100
AcDbEntity
  8
SUNPOU
 62
     4
370
    -2
100
AcDbBlockReference
  2
_OPEN
 10
413.739967739834
 20
301.2998246415698
 30
0.0
 41
7.0
 42
7.0
 43
7.0
  0
MTEXT
  5
51DF
330
512C
100
AcDbEntity
  8
SUNPOU
 62
     4
100
AcDbMText
 10
396.239967739834
 20
306.2998246415698
 30
0.0
 40
6.0
 41
0.0
 71
     5
 72
     1
  1
\A1;35
 73
     1
 44
1.0
  0
POINT
  5
51E0
330
512C
100
AcDbEntity
  8
DEFPOINTS
 62
     0
100
AcDbPoint
 10
378.739967739834
 20
252.9871243702935
 30
0.0
  0
POINT
  5
51E1
330
512C
100
AcDbEntity
  8
DEFPOINTS
 62
     0
100
AcDbPoint
 10
413.739967739834
 20
252.9871243702935
 30
0.0
  0
POINT
  5
51E2
330
512C
100
AcDbEntity
  8
DEFPOINTS
 62
     0
100
AcDbPoint
 10
413.739967739834
 20
301.2998246415698
 30
0.0
  0
ENDBLK
  5
5137
330
512C
100
AcDbEntity
  8
0
100
AcDbBlockEnd
  0
BLOCK
  5
5142
330
5138
100
AcDbEntity
  8
0
100
AcDbBlockBegin
  2
*D2
 70
     1
 71
     0
 10
0.0
 20
0.0
 30
0.0
  3
*D2
  1

  0
LINE
  5
51E3
330
5138
100
AcDbEntity
  8
SUNPOU
 62
     4
370
    -2
100
AcDbLine
 10
413.8851128043721
 20
196.2033941685454
 30
0.0
 11
427.2924770319889
 21
202.9172387946329
 31
0.0
  0
LINE
  5
51E4
330
5138
100
AcDbEntity
  8
SUNPOU
 62
     4
370
    -2
100
AcDbLine
 10
384.1049032945101
 20
255.6736586608198
 30
0.0
 11
397.5122675221269
 21
262.3875032869073
 31
0.0
  0
LINE
  5
51E5
330
5138
100
AcDbEntity
  8
SUNPOU
 62
     4
370
    -2
100
AcDbLine
 10
421.4757192490369
 20
207.8330631298251
 30
0.0
 11
397.9640897504028
 21
254.7851446611888
 31
0.0
  0
INSERT
  5
51E6
330
5138
100
AcDbEntity
  8
SUNPOU
 62
     4
370
    -2
100
AcDbBlockReference
  2
_OPEN
 10
424.6100092546508
 20
201.5739716493698
 30
0.0
 41
7.0
 42
7.0
 43
7.0
 50
296.5997838804415
  0
INSERT
  5
51E7
330
5138
100
AcDbEntity
  8
SUNPOU
 62
     4
370
    -2
100
AcDbBlockReference
  2
_OPEN
 10
394.8297997447889
 20
261.0442361416441
 30
0.0
 41
7.0
 42
7.0
 43
7.0
 50
116.5997838804415
  0
MTEXT
  5
51E8
330
5138
100
AcDbEntity
  8
SUNPOU
 62
     4
100
AcDbMText
 10
414.1906841286165
 20
233.5478824709455
 30
0.0
 40
6.0
 41
0.0
 71
     5
 72
     1
  1
\A1;67
 11
0.4477557150877036
 21
-0.8941559257793348
 31
0.0
 73
     1
 44
1.0
  0
POINT
  5
51E9
330
5138
100
AcDbEntity
  8
DEFPOINTS
 62
     0
100
AcDbPoint
 10
408.520177249696
 20
193.5168598780192
 30
0.0
  0
POINT
  5
51EA
330
5138
100
AcDbEntity
  8
DEFPOINTS
 62
     0
100
AcDbPoint
 10
378.7399677398341
 20
252.9871243702935
 30
0.0
  0
POINT
  5
51EB
330
5138
100
AcDbEntity
  8
DEFPOINTS
 62
     0
100
AcDbPoint
 10
394.8297997447889
 20
261.0442361416441
 30
0.0
  0
ENDBLK
  5
5143
330
5138
100
AcDbEntity
  8
0
100
AcDbBlockEnd
  0
BLOCK
  5
5150
330
5144
100
AcDbEntity
  8
0
100
AcDbBlockBegin
  2
*D3
 70
     1
 71
     0
 10
0.0
 20
0.0
 30
0.0
  3
*D3
  1

  0
LINE
  5
51EC
330
5144
100
AcDbEntity
  8
SUNPOU
 62
     4
370
    -2
100
AcDbLine
 10
411.2021808546743
 20
188.1608392784618
 30
0.0
 11
421.2226273148773
 21
168.1497857668293
 31
0.0
  0
LINE
  5
51ED
330
5144
100
AcDbEntity
  8
SUNPOU
 62
     4
370
    -2
100
AcDbLine
 10
410.1291808546743
 20
187.6235392784619
 30
0.0
 11
420.1496273148773
 21
167.6124857668294
 31
0.0
  0
LINE
  5
51EE
330
5144
100
AcDbEntity
  8
SUNPOU
 62
     4
370
    -2
100
AcDbLine
 10
426.1385093485948
 20
173.9664947874503
 30
0.0
 11
432.3976319190292
 21
177.1007227064566
 31
0.0
  0
LINE
  5
51EF
330
5144
100
AcDbEntity
  8
SUNPOU
 62
     4
370
    -2
100
AcDbLine
 10
412.5472642077259
 20
167.1607389494379
 30
0.0
 11
388.404934293193
 21
155.0715741189853
 31
0.0
  0
LINE
  5
51F0
330
5144
100
AcDbEntity
  8
SUNPOU
 62
     4
370
    -2
100
AcDbLine
 10
419.8793867781603
 20
170.8322668684441
 30
0.0
 11
418.8063867781603
 21
170.2949668684442
 31
0.0
  0
INSERT
  5
51F1
330
5144
100
AcDbEntity
  8
SUNPOU
 62
     4
370
    -2
100
AcDbBlockReference
  2
_OPEN
 10
419.8793867781603
 20
170.8322668684441
 30
0.0
 41
7.0
 42
7.0
 43
7.0
 50
206.5992155404898
  0
INSERT
  5
51F2
330
5144
100
AcDbEntity
  8
SUNPOU
 62
     4
370
    -2
100
AcDbBlockReference
  2
_OPEN
 10
418.8063867781603
 20
170.2949668684442
 30
0.0
 41
7.0
 42
7.0
 43
7.0
 50
26.59921554048977
  0
MTEXT
  5
51F3
330
5144
100
AcDbEntity
  8
SUNPOU
 62
     4
100
AcDbMText
 10
395.1078037373806
 20
164.0198444107331
 30
0.0
 40
6.0
 41
0.0
 71
     5
 72
     1
  1
\A1;t1.2
 11
0.8941603672049197
 21
0.4477468455723204
 31
0.0
 73
     1
 44
1.0
  0
POINT
  5
51F4
330
5144
100
AcDbEntity
  8
DEFPOINTS
 62
     0
100
AcDbPoint
 10
408.5156997812404
 20
193.5258014816913
 30
0.0
  0
POINT
  5
51F5
330
5144
100
AcDbEntity
  8
DEFPOINTS
 62
     0
100
AcDbPoint
 10
407.4426997812403
 20
192.9885014816914
 30
0.0
  0
POINT
  5
51F6
330
5144
100
AcDbEntity
  8
DEFPOINTS
 62
     0
100
AcDbPoint
 10
418.8063867781603
 20
170.2949668684442
 30
0.0
  0
ENDBLK
  5
5151
330
5144
100
AcDbEntity
  8
0
100
AcDbBlockEnd
  0
BLOCK
  5
515C
330
5152
100
AcDbEntity
  8
0
100
AcDbBlockBegin
  2
*D4
 70
     1
 71
     0
 10
0.0
 20
0.0
 30
0.0
  3
*D4
  1

  0
LINE
  5
51F7
330
5152
100
AcDbEntity
  8
SUNPOU
 62
     4
370
    -2
100
AcDbLine
 10
242.4852997812403
 20
246.6656014816913
 30
0.0
 11
221.911226199632
 21
246.6656014816913
 31
0.0
  0
LINE
  5
51F8
330
5152
100
AcDbEntity
  8
SUNPOU
 62
     4
370
    -2
100
AcDbLine
 10
401.4426997812403
 20
192.9885014816913
 30
0.0
 11
221.911226199632
 21
192.9885014816914
 31
0.0
  0
LINE
  5
51F9
330
5152
100
AcDbEntity
  8
SUNPOU
 62
     4
370
    -2
100
AcDbLine
 10
224.911226199632
 20
239.6656014816913
 30
0.0
 11
224.911226199632
 21
199.9885014816914
 31
0.0
  0
INSERT
  5
51FA
330
5152
100
AcDbEntity
  8
SUNPOU
 62
     4
370
    -2
100
AcDbBlockReference
  2
_OPEN
 10
224.911226199632
 20
246.6656014816913
 30
0.0
 41
7.0
 42
7.0
 43
7.0
 50
90.0
  0
INSERT
  5
51FB
330
5152
100
AcDbEntity
  8
SUNPOU
 62
     4
370
    -2
100
AcDbBlockReference
  2
_OPEN
 10
224.911226199632
 20
192.9885014816914
 30
0.0
 41
7.0
 42
7.0
 43
7.0
 50
270.0
  0
MTEXT
  5
51FC
330
5152
100
AcDbEntity
  8
SUNPOU
 62
     4
100
AcDbMText
 10
219.9112261996319
 20
219.8270514816914
 30
0.0
 40
6.0
 41
0.0
 71
     5
 72
     1
  1
\A1;54
 11
6.123031769111886E-17
 21
1.0
 31
0.0
 73
     1
 44
1.0
  0
POINT
  5
51FD
330
5152
100
AcDbEntity
  8
DEFPOINTS
 62
     0
100
AcDbPoint
 10
248.4852997812403
 20
246.6656014816913
 30
0.0
  0
POINT
  5
51FE
330
5152
100
AcDbEntity
  8
DEFPOINTS
 62
     0
100
AcDbPoint
 10
407.4426997812403
 20
192.9885014816913
 30
0.0
  0
POINT
  5
51FF
330
5152
100
AcDbEntity
  8
DEFPOINTS
 62
     0
100
AcDbPoint
 10
224.911226199632
 20
192.9885014816914
 30
0.0
  0
ENDBLK
  5
515D
330
5152
100
AcDbEntity
  8
0
100
AcDbBlockEnd
  0
BLOCK
  5
5168
330
515E
100
AcDbEntity
  8
0
100
AcDbBlockBegin
  2
*D5
 70
     1
 71
     0
 10
0.0
 20
0.0
 30
0.0
  3
*D5
  1

  0
LINE
  5
5200
330
515E
100
AcDbEntity
  8
SUNPOU
 62
     4
370
    -2
100
AcDbLine
 10
399.5158997812401
 20
412.1269510144302
 30
0.0
 11
443.4388347207378
 21
412.1269510144302
 31
0.0
  0
LINE
  5
5201
330
515E
100
AcDbEntity
  8
SUNPOU
 62
     4
370
    -2
100
AcDbLine
 10
399.5158997812401
 20
357.1269510144302
 30
0.0
 11
443.4388347207378
 21
357.1269510144302
 31
0.0
  0
LINE
  5
5202
330
515E
100
AcDbEntity
  8
SUNPOU
 62
     4
370
    -2
100
AcDbLine
 10
440.4388347207378
 20
405.1269510144302
 30
0.0
 11
440.4388347207378
 21
364.1269510144302
 31
0.0
  0
INSERT
  5
5203
330
515E
100
AcDbEntity
  8
SUNPOU
 62
     4
370
    -2
100
AcDbBlockReference
  2
_OPEN
 10
440.4388347207378
 20
412.1269510144302
 30
0.0
 41
7.0
 42
7.0
 43
7.0
 50
90.0
  0
INSERT
  5
5204
330
515E
100
AcDbEntity
  8
SUNPOU
 62
     4
370
    -2
100
AcDbBlockReference
  2
_OPEN
 10
440.4388347207378
 20
357.1269510144302
 30
0.0
 41
7.0
 42
7.0
 43
7.0
 50
270.0
  0
MTEXT
  5
5205
330
515E
100
AcDbEntity
  8
SUNPOU
 62
     4
100
AcDbMText
 10
435.4388347207377
 20
384.6269510144303
 30
0.0
 40
6.0
 41
0.0
 71
     5
 72
     1
  1
\A1;55
 11
6.123031769111886E-17
 21
1.0
 31
0.0
 73
     1
 44
1.0
  0
POINT
  5
5206
330
515E
100
AcDbEntity
  8
DEFPOINTS
 62
     0
100
AcDbPoint
 10
393.5158997812401
 20
412.1269510144302
 30
0.0
  0
POINT
  5
5207
330
515E
100
AcDbEntity
  8
DEFPOINTS
 62
     0
100
AcDbPoint
 10
393.5158997812401
 20
357.1269510144302
 30
0.0
  0
POINT
  5
5208
330
515E
100
AcDbEntity
  8
DEFPOINTS
 62
     0
100
AcDbPoint
 10
440.4388347207378
 20
357.1269510144302
 30
0.0
  0
ENDBLK
  5
5169
330
515E
100
AcDbEntity
  8
0
100
AcDbBlockEnd
  0
BLOCK
  5
5174
330
516A
100
AcDbEntity
  8
0
100
AcDbBlockBegin
  2
*D6
 70
     1
 71
     0
 10
0.0
 20
0.0
 30
0.0
  3
*D6
  1

  0
LINE
  5
5209
330
516A
100
AcDbEntity
  8
SUNPOU
 62
     4
370
    -2
100
AcDbLine
 10
279.4852997812403
 20
223.3656014816913
 30
0.0
 11
279.4852997812403
 21
289.8165698847142
 31
0.0
  0
LINE
  5
520A
330
516A
100
AcDbEntity
  8
SUNPOU
 62
     4
370
    -2
100
AcDbLine
 10
378.739967739834
 20
258.9871243702935
 30
0.0
 11
378.739967739834
 21
289.8165698847142
 31
0.0
  0
LINE
  5
520B
330
516A
100
AcDbEntity
  8
SUNPOU
 62
     4
370
    -2
100
AcDbLine
 10
286.4852997812403
 20
286.8165698847142
 30
0.0
 11
371.739967739834
 21
286.8165698847142
 31
0.0
  0
INSERT
  5
520C
330
516A
100
AcDbEntity
  8
SUNPOU
 62
     4
370
    -2
100
AcDbBlockReference
  2
_OPEN
 10
279.4852997812403
 20
286.8165698847142
 30
0.0
 41
7.0
 42
7.0
 43
7.0
 50
180.0
  0
INSERT
  5
520D
330
516A
100
AcDbEntity
  8
SUNPOU
 62
     4
370
    -2
100
AcDbBlockReference
  2
_OPEN
 10
378.739967739834
 20
286.8165698847142
 30
0.0
 41
7.0
 42
7.0
 43
7.0
  0
MTEXT
  5
520E
330
516A
100
AcDbEntity
  8
SUNPOU
 62
     4
100
AcDbMText
 10
329.1126337605371
 20
291.8165698847142
 30
0.0
 40
6.0
 41
0.0
 71
     5
 72
     1
  1
\A1;99
 73
     1
 44
1.0
  0
POINT
  5
520F
330
516A
100
AcDbEntity
  8
DEFPOINTS
 62
     0
100
AcDbPoint
 10
279.4852997812403
 20
217.3656014816913
 30
0.0
  0
POINT
  5
5210
330
516A
100
AcDbEntity
  8
DEFPOINTS
 62
     0
100
AcDbPoint
 10
378.739967739834
 20
252.9871243702935
 30
0.0
  0
POINT
  5
5211
330
516A
100
AcDbEntity
  8
DEFPOINTS
 62
     0
100
AcDbPoint
 10
378.739967739834
 20
286.8165698847142
 30
0.0
  0
ENDBLK
  5
5175
330
516A
100
AcDbEntity
  8
0
100
AcDbBlockEnd
  0
BLOCK
  5
5180
330
5176
100
AcDbEntity
  8
0
100
AcDbBlockBegin
  2
*D7
 70
     1
 71
     0
 10
0.0
 20
0.0
 30
0.0
  3
*D7
  1

  0
LINE
  5
5212
330
5176
100
AcDbEntity
  8
SUNPOU
 62
     4
370
    -2
100
AcDbLine
 10
248.4852997812403
 20
252.6656014816913
 30
0.0
 11
248.4852997812403
 21
304.2998246415698
 31
0.0
  0
LINE
  5
5213
330
5176
100
AcDbEntity
  8
SUNPOU
 62
     4
370
    -2
100
AcDbLine
 10
378.739967739834
 20
258.9871243702935
 30
0.0
 11
378.739967739834
 21
304.2998246415698
 31
0.0
  0
LINE
  5
5214
330
5176
100
AcDbEntity
  8
SUNPOU
 62
     4
370
    -2
100
AcDbLine
 10
255.4852997812403
 20
301.2998246415698
 30
0.0
 11
371.739967739834
 21
301.2998246415698
 31
0.0
  0
INSERT
  5
5215
330
5176
100
AcDbEntity
  8
SUNPOU
 62
     4
370
    -2
100
AcDbBlockReference
  2
_OPEN
 10
248.4852997812403
 20
301.2998246415698
 30
0.0
 41
7.0
 42
7.0
 43
7.0
 50
180.0
  0
INSERT
  5
5216
330
5176
100
AcDbEntity
  8
SUNPOU
 62
     4
370
    -2
100
AcDbBlockReference
  2
_OPEN
 10
378.739967739834
 20
301.2998246415698
 30
0.0
 41
7.0
 42
7.0
 43
7.0
  0
MTEXT
  5
5217
330
5176
100
AcDbEntity
  8
SUNPOU
 62
     4
100
AcDbMText
 10
313.6126337605372
 20
306.2998246415698
 30
0.0
 40
6.0
 41
0.0
 71
     5
 72
     1
  1
\A1;130
 73
     1
 44
1.0
  0
POINT
  5
5218
330
5176
100
AcDbEntity
  8
DEFPOINTS
 62
     0
100
AcDbPoint
 10
248.4852997812403
 20
246.6656014816913
 30
0.0
  0
POINT
  5
5219
330
5176
100
AcDbEntity
  8
DEFPOINTS
 62
     0
100
AcDbPoint
 10
378.739967739834
 20
252.9871243702935
 30
0.0
  0
POINT
  5
521A
330
5176
100
AcDbEntity
  8
DEFPOINTS
 62
     0
100
AcDbPoint
 10
378.739967739834
 20
301.2998246415698
 30
0.0
  0
ENDBLK
  5
5181
330
5176
100
AcDbEntity
  8
0
100
AcDbBlockEnd
  0
BLOCK
  5
518E
330
5182
100
AcDbEntity
  8
0
100
AcDbBlockBegin
  2
*D8
 70
     1
 71
     0
 10
0.0
 20
0.0
 30
0.0
  3
*D8
  1

  0
LINE
  5
521B
330
5182
100
AcDbEntity
  8
SUNPOU
 62
     4
370
    -2
100
AcDbLine
 10
368.9852997812403
 20
234.9656014816912
 30
0.0
 11
368.9852997812403
 21
275.5747019786338
 31
0.0
  0
LINE
  5
521C
330
5182
100
AcDbEntity
  8
SUNPOU
 62
     4
370
    -2
100
AcDbLine
 10
378.739967739834
 20
258.9871243702935
 30
0.0
 11
378.739967739834
 21
275.5747019786338
 31
0.0
  0
LINE
  5
521D
330
5182
100
AcDbEntity
  8
SUNPOU
 62
     4
370
    -2
100
AcDbLine
 10
385.739967739834
 20
272.5747019786338
 30
0.0
 11
392.739967739834
 21
272.5747019786338
 31
0.0
  0
LINE
  5
521E
330
5182
100
AcDbEntity
  8
SUNPOU
 62
     4
370
    -2
100
AcDbLine
 10
361.9852997812403
 20
272.5747019786338
 30
0.0
 11
343.9852997812403
 21
272.5747019786338
 31
0.0
  0
LINE
  5
521F
330
5182
100
AcDbEntity
  8
SUNPOU
 62
     4
370
    -2
100
AcDbLine
 10
378.739967739834
 20
272.5747019786338
 30
0.0
 11
368.9852997812403
 21
272.5747019786338
 31
0.0
  0
INSERT
  5
5220
330
5182
100
AcDbEntity
  8
SUNPOU
 62
     4
370
    -2
100
AcDbBlockReference
  2
_OPEN
 10
378.739967739834
 20
272.5747019786338
 30
0.0
 41
7.0
 42
7.0
 43
7.0
 50
180.0
  0
INSERT
  5
5221
330
5182
100
AcDbEntity
  8
SUNPOU
 62
     4
370
    -2
100
AcDbBlockReference
  2
_OPEN
 10
368.9852997812403
 20
272.5747019786338
 30
0.0
 41
7.0
 42
7.0
 43
7.0
  0
MTEXT
  5
5222
330
5182
100
AcDbEntity
  8
SUNPOU
 62
     4
100
AcDbMText
 10
349.4852997812403
 20
277.5747019786338
 30
0.0
 40
6.0
 41
0.0
 71
     5
 72
     1
  1
\A1;10
 73
     1
 44
1.0
  0
POINT
  5
5223
330
5182
100
AcDbEntity
  8
DEFPOINTS
 62
     0
100
AcDbPoint
 10
368.9852997812403
 20
228.9656014816912
 30
0.0
  0
POINT
  5
5224
330
5182
100
AcDbEntity
  8
DEFPOINTS
 62
     0
100
AcDbPoint
 10
378.739967739834
 20
252.9871243702935
 30
0.0
  0
POINT
  5
5225
330
5182
100
AcDbEntity
  8
DEFPOINTS
 62
     0
100
AcDbPoint
 10
378.739967739834
 20
272.5747019786338
 30
0.0
  0
ENDBLK
  5
518F
330
5182
100
AcDbEntity
  8
0
100
AcDbBlockEnd
  0
BLOCK
  5
519A
330
5190
100
AcDbEntity
  8
0
100
AcDbBlockBegin
  2
*D9
 70
     1
 71
     0
 10
0.0
 20
0.0
 30
0.0
  3
*D9
  1

  0
LINE
  5
5226
330
5190
100
AcDbEntity
  8
SUNPOU
 62
     4
370
    -2
100
AcDbLine
 10
242.4852997812403
 20
395.6269510144302
 30
0.0
 11
221.911226199632
 21
395.6269510144302
 31
0.0
  0
LINE
  5
5227
330
5190
100
AcDbEntity
  8
SUNPOU
 62
     4
370
    -2
100
AcDbLine
 10
242.4852997812403
 20
373.6269510144302
 30
0.0
 11
221.911226199632
 21
373.6269510144302
 31
0.0
  0
LINE
  5
5228
330
5190
100
AcDbEntity
  8
SUNPOU
 62
     4
370
    -2
100
AcDbLine
 10
224.911226199632
 20
388.6269510144302
 30
0.0
 11
224.911226199632
 21
380.6269510144302
 31
0.0
  0
INSERT
  5
5229
330
5190
100
AcDbEntity
  8
SUNPOU
 62
     4
370
    -2
100
AcDbBlockReference
  2
_OPEN
 10
224.911226199632
 20
395.6269510144302
 30
0.0
 41
7.0
 42
7.0
 43
7.0
 50
90.0
  0
INSERT
  5
522A
330
5190
100
AcDbEntity
  8
SUNPOU
 62
     4
370
    -2
100
AcDbBlockReference
  2
_OPEN
 10
224.911226199632
 20
373.6269510144302
 30
0.0
 41
7.0
 42
7.0
 43
7.0
 50
270.0
  0
MTEXT
  5
522B
330
5190
100
AcDbEntity
  8
SUNPOU
 62
     4
100
AcDbMText
 10
219.9112261996319
 20
384.6269510144302
 30
0.0
 40
6.0
 41
0.0
 71
     5
 72
     1
  1
\A1;22
 11
6.123031769111886E-17
 21
1.0
 31
0.0
 73
     1
 44
1.0
  0
POINT
  5
522C
330
5190
100
AcDbEntity
  8
DEFPOINTS
 62
     0
100
AcDbPoint
 10
248.4852997812403
 20
395.6269510144302
 30
0.0
  0
POINT
  5
522D
330
5190
100
AcDbEntity
  8
DEFPOINTS
 62
     0
100
AcDbPoint
 10
248.4852997812403
 20
373.6269510144302
 30
0.0
  0
POINT
  5
522E
330
5190
100
AcDbEntity
  8
DEFPOINTS
 62
     0
100
AcDbPoint
 10
224.911226199632
 20
373.6269510144302
 30
0.0
  0
ENDBLK
  5
519B
330
5190
100
AcDbEntity
  8
0
100
AcDbBlockEnd
  0
BLOCK
  5
51A6
330
519C
100
AcDbEntity
  8
0
100
AcDbBlockBegin
  2
*D10
 70
     1
 71
     0
 10
0.0
 20
0.0
 30
0.0
  3
*D10
  1

  0
LINE
  5
522F
330
519C
100
AcDbEntity
  8
SUNPOU
 62
     4
370
    -2
100
AcDbLine
 10
493.7847710575343
 20
311.1559609262896
 30
0.0
 11
467.7210898414126
 21
298.1042416073692
 31
0.0
  0
LINE
  5
5230
330
519C
100
AcDbEntity
  8
SUNPOU
 62
     4
370
    -2
100
AcDbLine
 10
500.5511710575346
 20
286.5850609262893
 30
0.0
 11
478.9150184241368
 21
275.7504827647916
 31
0.0
  0
LINE
  5
5231
330
519C
100
AcDbEntity
  8
SUNPOU
 62
     4
370
    -2
100
AcDbLine
 10
473.537866166802
 20
293.1884392130099
 30
0.0
 11
478.4631675197835
 21
283.3528396861835
 31
0.0
  0
INSERT
  5
5232
330
519C
100
AcDbEntity
  8
SUNPOU
 62
     4
370
    -2
100
AcDbBlockReference
  2
_OPEN
 10
470.4035525519307
 20
299.4475188708855
 30
0.0
 41
7.0
 42
7.0
 43
7.0
 50
116.5999999999996
  0
INSERT
  5
5233
330
519C
100
AcDbEntity
  8
SUNPOU
 62
     4
370
    -2
100
AcDbBlockReference
  2
_OPEN
 10
481.5974811346549
 20
277.0937600283079
 30
0.0
 41
7.0
 42
7.0
 43
7.0
 50
296.5999999999996
  0
MTEXT
  5
5234
330
519C
100
AcDbEntity
  8
SUNPOU
 62
     4
100
AcDbMText
 10
480.4712880274896
 20
290.5094348887906
 30
0.0
 40
6.0
 41
0.0
 71
     5
 72
     1
  1
\A1;25
 11
0.447759087838763
 21
-0.8941542368393716
 31
0.0
 73
     1
 44
1.0
  0
POINT
  5
5235
330
519C
100
AcDbEntity
  8
DEFPOINTS
 62
     0
100
AcDbPoint
 10
499.1496964785705
 20
313.8425154533222
 30
0.0
  0
POINT
  5
5236
330
519C
100
AcDbEntity
  8
DEFPOINTS
 62
     0
100
AcDbPoint
 10
505.9160964785708
 20
289.2716154533219
 30
0.0
  0
POINT
  5
5237
330
519C
100
AcDbEntity
  8
DEFPOINTS
 62
     0
100
AcDbPoint
 10
481.5974811346549
 20
277.0937600283079
 30
0.0
  0
ENDBLK
  5
51A7
330
519C
100
AcDbEntity
  8
0
100
AcDbBlockEnd
  0
BLOCK
  5
51B4
330
51A8
100
AcDbEntity
  8
0
100
AcDbBlockBegin
  2
*D11
 70
     1
 71
     0
 10
0.0
 20
0.0
 30
0.0
  3
*D11
  1

  0
LINE
  5
5238
330
51A8
100
AcDbEntity
  8
SUNPOU
 62
     4
370
    -2
100
AcDbLine
 10
531.6847710575345
 20
264.1507609262895
 30
0.0
 11
505.6757427703825
 21
251.1264097555196
 31
0.0
  0
LINE
  5
5239
330
51A8
100
AcDbEntity
  8
SUNPOU
 62
     4
370
    -2
100
AcDbLine
 10
540.1025710566636
 20
259.9781609258532
 30
0.0
 11
509.0339782058006
 21
244.4201685547503
 31
0.0
  0
LINE
  5
523A
330
51A8
100
AcDbEntity
  8
SUNPOU
 62
     4
370
    -2
100
AcDbLine
 10
505.2238918660293
 20
258.7287666769115
 30
0.0
 11
502.089578251158
 21
264.9878463347871
 31
0.0
  0
LINE
  5
523B
330
51A8
100
AcDbEntity
  8
SUNPOU
 62
     4
370
    -2
100
AcDbLine
 10
514.8507545311901
 20
239.5043661603909
 30
0.0
 11
521.5671408487715
 21
226.0920526078004
 31
0.0
  0
LINE
  5
523C
330
51A8
100
AcDbEntity
  8
SUNPOU
 62
     4
370
    -2
100
AcDbLine
 10
508.3582054809006
 20
252.4696870190359
 30
0.0
 11
511.7164409163187
 21
245.7634458182666
 31
0.0
  0
INSERT
  5
523D
330
51A8
100
AcDbEntity
  8
SUNPOU
 62
     4
370
    -2
100
AcDbBlockReference
  2
_OPEN
 10
508.3582054809006
 20
252.4696870190359
 30
0.0
 41
7.0
 42
7.0
 43
7.0
 50
296.5999999999996
  0
INSERT
  5
523E
330
51A8
100
AcDbEntity
  8
SUNPOU
 62
     4
370
    -2
100
AcDbBlockReference
  2
_OPEN
 10
511.7164409163187
 20
245.7634458182666
 30
0.0
 41
7.0
 42
7.0
 43
7.0
 50
116.5999999999996
  0
MTEXT
  5
523F
330
51A8
100
AcDbEntity
  8
SUNPOU
 62
     4
100
AcDbMText
 10
524.2468756816134
 20
231.9074649943517
 30
0.0
 40
6.0
 41
0.0
 71
     5
 72
     1
  1
\A1;8
 11
0.447759087838763
 21
-0.8941542368393716
 31
0.0
 73
     1
 44
1.0
  0
POINT
  5
5240
330
51A8
100
AcDbEntity
  8
DEFPOINTS
 62
     0
100
AcDbPoint
 10
537.0496964785707
 20
266.8373154533221
 30
0.0
  0
POINT
  5
5241
330
51A8
100
AcDbEntity
  8
DEFPOINTS
 62
     0
100
AcDbPoint
 10
545.4674964776998
 20
262.6647154528857
 30
0.0
  0
POINT
  5
5242
330
51A8
100
AcDbEntity
  8
DEFPOINTS
 62
     0
100
AcDbPoint
 10
511.7164409163187
 20
245.7634458182666
 30
0.0
  0
ENDBLK
  5
51B5
330
51A8
100
AcDbEntity
  8
0
100
AcDbBlockEnd
  0
BLOCK
  5
51C0
330
51B6
100
AcDbEntity
  8
0
100
AcDbBlockBegin
  2
*D12
 70
     1
 71
     0
 10
0.0
 20
0.0
 30
0.0
  3
*D12
  1

  0
LINE
  5
5243
330
51B6
100
AcDbEntity
  8
SUNPOU
 62
     4
370
    -2
100
AcDbLine
 10
537.5984218996071
 20
333.0961699803547
 30
0.0
 11
566.2463434976093
 21
347.4419804845242
 31
0.0
  0
LINE
  5
5244
330
51B6
100
AcDbEntity
  8
SUNPOU
 62
     4
370
    -2
100
AcDbLine
 10
556.8356218996067
 20
308.0597699803544
 30
0.0
 11
580.1268905607375
 21
319.7231685089786
 31
0.0
  0
LINE
  5
5245
330
51B6
100
AcDbEntity
  8
SUNPOU
 62
     4
370
    -2
100
AcDbLine
 10
566.6981944019624
 20
339.8396235631323
 30
0.0
 11
574.310114235348
 21
324.638970903338
 31
0.0
  0
INSERT
  5
5246
330
51B6
100
AcDbEntity
  8
SUNPOU
 62
     4
370
    -2
100
AcDbBlockReference
  2
_OPEN
 10
563.5638807870911
 20
346.0987032210079
 30
0.0
 41
7.0
 42
7.0
 43
7.0
 50
116.5999999999996
  0
INSERT
  5
5247
330
51B6
100
AcDbEntity
  8
SUNPOU
 62
     4
370
    -2
100
AcDbBlockReference
  2
_OPEN
 10
577.4444278502193
 20
318.3798912454624
 30
0.0
 41
7.0
 42
7.0
 43
7.0
 50
296.5999999999996
  0
MTEXT
  5
5248
330
51B6
100
AcDbEntity
  8
SUNPOU
 62
     4
100
AcDbMText
 10
574.9749255028521
 20
334.478092672429
 30
0.0
 40
6.0
 41
0.0
 71
     5
 72
     1
  1
\A1;31
 11
0.447759087838763
 21
-0.8941542368393716
 31
0.0
 73
     1
 44
1.0
  0
POINT
  5
5249
330
51B6
100
AcDbEntity
  8
DEFPOINTS
 62
     0
100
AcDbPoint
 10
532.2334964785708
 20
330.4096154533222
 30
0.0
  0
POINT
  5
524A
330
51B6
100
AcDbEntity
  8
DEFPOINTS
 62
     0
100
AcDbPoint
 10
551.4706964785705
 20
305.3732154533219
 30
0.0
  0
POINT
  5
524B
330
51B6
100
AcDbEntity
  8
DEFPOINTS
 62
     0
100
AcDbPoint
 10
577.4444278502193
 20
318.3798912454624
 30
0.0
  0
ENDBLK
  5
51C1
330
51B6
100
AcDbEntity
  8
0
100
AcDbBlockEnd
  0
BLOCK
  5
51CC
330
51C2
100
AcDbEntity
  8
0
100
AcDbBlockBegin
  2
*D13
 70
     1
 71
     0
 10
0.0
 20
0.0
 30
0.0
  3
*D13
  1

  0
LINE
  5
524C
330
51C2
100
AcDbEntity
  8
SUNPOU
 62
     4
370
    -2
100
AcDbLine
 10
542.0718419515383
 20
330.862740874358
 30
0.0
 11
520.0191801277099
 21
374.9008889296861
 31
0.0
  0
LINE
  5
524D
330
51C2
100
AcDbEntity
  8
SUNPOU
 62
     4
370
    -2
100
AcDbLine
 10
492.8933419515383
 20
306.2360408743583
 30
0.0
 11
470.8407034814388
 21
350.2741422933673
 31
0.0
  0
LINE
  5
524E
330
51C2
100
AcDbEntity
  8
SUNPOU
 62
     4
370
    -2
100
AcDbLine
 10
515.1033777333505
 20
369.0841126042967
 30
0.0
 11
478.4430604028307
 21
350.7259931977205
 31
0.0
  0
INSERT
  5
524F
330
51C2
100
AcDbEntity
  8
SUNPOU
 62
     4
370
    -2
100
AcDbBlockReference
  2
_OPEN
 10
521.3624573912261
 20
372.218426219168
 30
0.0
 41
7.0
 42
7.0
 43
7.0
 50
26.5999999999996
  0
INSERT
  5
5250
330
51C2
100
AcDbEntity
  8
SUNPOU
 62
     4
370
    -2
100
AcDbBlockReference
  2
_OPEN
 10
472.1839807449551
 20
347.5916795828492
 30
0.0
 41
7.0
 42
7.0
 43
7.0
 50
206.5999999999995
  0
MTEXT
  5
5251
330
51C2
100
AcDbEntity
  8
SUNPOU
 62
     4
100
AcDbMText
 10
494.5344236288968
 20
364.3758240852054
 30
0.0
 40
6.0
 41
0.0
 71
     5
 72
     1
  1
\A1;55
 11
0.8941542368393718
 21
0.4477590878387625
 31
0.0
 73
     1
 44
1.0
  0
POINT
  5
5252
330
51C2
100
AcDbEntity
  8
DEFPOINTS
 62
     0
100
AcDbPoint
 10
544.7583964785708
 20
325.4978154533218
 30
0.0
  0
POINT
  5
5253
330
51C2
100
AcDbEntity
  8
DEFPOINTS
 62
     0
100
AcDbPoint
 10
495.5798964785708
 20
300.871115453322
 30
0.0
  0
POINT
  5
5254
330
51C2
100
AcDbEntity
  8
DEFPOINTS
 62
     0
100
AcDbPoint
 10
472.1839807449551
 20
347.5916795828492
 30
0.0
  0
ENDBLK
  5
51CD
330
51C2
100
AcDbEntity
  8
0
100
AcDbBlockEnd
  0
BLOCK
  5
51D8
330
51CE
100
AcDbEntity
  8
0
100
AcDbBlockBegin
  2
*D14
 70
     1
 71
     0
 10
0.0
 20
0.0
 30
0.0
  3
*D14
  1

  0
LINE
  5
5255
330
51CE
100
AcDbEntity
  8
SUNPOU
 62
     4
370
    -2
100
AcDbLine
 10
504.9775007976704
 20
299.9713230574373
 30
0.0
 11
485.7864994248102
 21
338.2948672417875
 31
0.0
  0
LINE
  5
5256
330
51CE
100
AcDbEntity
  8
SUNPOU
 62
     4
370
    -2
100
AcDbLine
 10
539.8496419515382
 20
317.4338408743582
 30
0.0
 11
520.6585806585908
 21
355.7575047163576
 31
0.0
  0
LINE
  5
5257
330
51CE
100
AcDbEntity
  8
SUNPOU
 62
     4
370
    -2
100
AcDbLine
 10
493.3888563462022
 20
338.7467181461408
 30
0.0
 11
515.7427782642315
 21
349.9407283909682
 31
0.0
  0
INSERT
  5
5258
330
51CE
100
AcDbEntity
  8
SUNPOU
 62
     4
370
    -2
100
AcDbBlockReference
  2
_OPEN
 10
487.1297766883265
 20
335.6124045312694
 30
0.0
 41
7.0
 42
7.0
 43
7.0
 50
206.5999999999995
  0
INSERT
  5
5259
330
51CE
100
AcDbEntity
  8
SUNPOU
 62
     4
370
    -2
100
AcDbBlockReference
  2
_OPEN
 10
522.0018579221071
 20
353.0750420058395
 30
0.0
 41
7.0
 42
7.0
 43
7.0
 50
26.59999999999954
  0
MTEXT
  5
525A
330
51CE
100
AcDbEntity
  8
SUNPOU
 62
     4
100
AcDbMText
 10
502.327021866023
 20
348.8144944527513
 30
0.0
 40
6.0
 41
0.0
 71
     5
 72
     1
  1
\A1;39
 11
0.8941542368393718
 21
0.4477590878387625
 31
0.0
 73
     1
 44
1.0
  0
POINT
  5
525B
330
51CE
100
AcDbEntity
  8
DEFPOINTS
 62
     0
100
AcDbPoint
 10
507.664055324703
 20
294.606397636401
 30
0.0
  0
POINT
  5
525C
330
51CE
100
AcDbEntity
  8
DEFPOINTS
 62
     0
100
AcDbPoint
 10
542.5361964785708
 20
312.068915453322
 30
0.0
  0
POINT
  5
525D
330
51CE
100
AcDbEntity
  8
DEFPOINTS
 62
     0
100
AcDbPoint
 10
522.0018579221071
 20
353.0750420058395
 30
0.0
  0
ENDBLK
  5
51D9
330
51CE
100
AcDbEntity
  8
0
100
AcDbBlockEnd
  0
ENDSEC
  0
SECTION
  2
ENTITIES
  0
LINE
  5
3EF3
330
1A
100
AcDbEntity
  8
ZUWAKU
100
AcDbLine
 10
208.646601303624
 20
15.19999986828872
 30
0.0
 11
447.4243639845474
 21
15.19999986828871
 31
0.0
  0
LINE
  5
3EF4
330
1A
100
AcDbEntity
  8
ZUWAKU
100
AcDbLine
 10
208.646601303624
 20
15.59999986828872
 30
0.0
 11
447.4243639845474
 21
15.59999986828872
 31
0.0
  0
LINE
  5
3EF5
330
1A
100
AcDbEntity
  8
ZUWAKU
100
AcDbLine
 10
208.646601303624
 20
15.39999986828872
 30
0.0
 11
447.4243639845474
 21
15.39999986828872
 31
0.0
  0
LINE
  5
3EF6
330
1A
100
AcDbEntity
  8
ZUWAKU
100
AcDbLine
 10
0.0000000135560185
 20
30.79999986828869
 30
0.0
 11
797.4000000135559
 21
30.79999986828869
 31
0.0
  0
LINE
  5
3EF7
330
1A
100
AcDbEntity
  8
ZUWAKU
100
AcDbLine
 10
0.0000000135560185
 20
30.59999986828869
 30
0.0
 11
797.4000000135559
 21
30.59999986828869
 31
0.0
  0
LINE
  5
3EF8
330
1A
100
AcDbEntity
  8
ZUWAKU
100
AcDbLine
 10
0.0000000135560185
 20
30.39999986828869
 30
0.0
 11
797.4000000135559
 21
30.39999986828869
 31
0.0
  0
LINE
  5
3EF9
330
1A
100
AcDbEntity
  8
ZUWAKU
100
AcDbLine
 10
0.0000000135560185
 20
30.19999986828869
 30
0.0
 11
797.4000000135559
 21
30.19999986828869
 31
0.0
  0
LINE
  5
3EFA
330
1A
100
AcDbEntity
  8
ZUWAKU
100
AcDbLine
 10
0.0000000135560185
 20
29.99999986828868
 30
0.0
 11
797.4000000135559
 21
29.99999986828868
 31
0.0
  0
LWPOLYLINE
  5
3EFB
330
1A
100
AcDbEntity
  8
ZUWAKU
100
AcDbPolyline
 90
        4
 70
     1
 43
0.0
 10
0.2000000135559503
 20
551.3999998682888
 10
0.2000000135559503
 20
0.1999998682887281
 10
797.4000000135559
 20
0.1999998682887512
 10
797.4000000135561
 20
551.3999998682888
  0
LWPOLYLINE
  5
3EFC
330
1A
100
AcDbEntity
  8
ZUWAKU
100
AcDbPolyline
 90
        4
 70
     1
 43
0.0
 10
0.6000000135559276
 20
550.9999998682888
 10
0.6000000135559276
 20
0.5999998682887053
 10
797.0000000135563
 20
0.5999998682887515
 10
797.000000013556
 20
550.9999998682888
  0
LWPOLYLINE
  5
3EFD
330
1A
100
AcDbEntity
  8
ZUWAKU
100
AcDbPolyline
 90
        4
 70
     1
 43
0.0
 10
0.0000000135560185
 20
551.5999998682887
 10
0.0000000135560185
 20
-0.0000001317113174
 10
797.6000000135562
 20
-0.0000001317112499
 10
797.6000000135562
 20
551.5999998682888
  0
LWPOLYLINE
  5
3EFE
330
1A
100
AcDbEntity
  8
ZUWAKU
100
AcDbPolyline
 90
        4
 70
     1
 43
0.0
 10
0.4000000135559958
 20
551.1999998682887
 10
0.4000000135559958
 20
0.3999998682887735
 10
797.2000000135561
 20
0.3999998682887505
 10
797.2000000135561
 20
551.1999998682887
  0
LWPOLYLINE
  5
3EFF
330
1A
100
AcDbEntity
  8
ZUWAKU
100
AcDbPolyline
 90
        4
 70
     1
 43
0.0
 10
0.8000000135559731
 20
550.7999998682888
 10
0.8000000135559731
 20
0.7999998682887508
 10
796.800000013556
 20
0.7999998682887508
 10
796.800000013556
 20
550.7999998682888
  0
TEXT
  5
3F00
330
1A
100
AcDbEntity
  8
moji
100
AcDbText
 10
92.95778960172515
 20
12.74117799856344
 30
0.0
 40
6.0
  1
アーバントップΣ９０
 41
0.9
  7
ｽﾀｲﾙ1
100
AcDbText
  0
HATCH
  5
3F01
330
1A
100
AcDbEntity
  8
ZUWAKU
100
AcDbHatch
 10
0.0
 20
0.0
 30
0.0
210
0.0
220
0.0
230
1.0
  2
ANSI37
 70
     0
 71
     0
 91
        8
 92
        7
 72
     1
 73
     1
 93
       24
 10
14.50226267467588
 20
17.64484834927227
 42
-0.1989123673796348
 10
14.09221216833714
 20
18.63479784293332
 42
0.0
 10
14.09221216833714
 20
19.92499986828869
 42
-0.4142135623730912
 10
14.61721216833712
 20
20.44999986828869
 42
0.0
 10
17.59221216833703
 20
20.44999986828869
 42
0.4142135623731546
 10
18.11721216833712
 20
20.97499986828868
 42
0.0
 10
18.11721216833712
 20
22.72499986828869
 42
0.4142135623731586
 10
17.59221216833703
 20
23.24999986828869
 42
0.0
 10
14.09221216833714
 20
23.24999986828869
 42
0.4142135623730928
 10
11.29221216833719
 20
20.44999986828871
 42
0.0
 10
11.29221216833719
 20
18.63479784293345
 42
0.1989123673796619
 10
12.52236368735362
 20
15.66494936194984
 42
0.0
 10
15.43216166199829
 20
12.75515138730518
 42
-0.1989123673796613
 10
15.84221216833714
 20
11.76520189364399
 42
0.0
 10
15.84221216833714
 20
10.47499986828868
 42
-0.4142135623730911
 10
15.31721216833716
 20
9.949999868288685
 42
0.0
 10
12.34221216833726
 20
9.949999868288685
 42
0.4142135623731526
 10
11.81721216833716
 20
9.424999868288698
 42
0.0
 10
11.81721216833716
 20
7.674999868288676
 42
0.4142135623731526
 10
12.34221216833726
 20
7.149999868288688
 42
0.0
 10
15.84221216833714
 20
7.149999868288688
 42
0.4142135623731044
 10
18.64221216833721
 20
9.949999868288664
 42
0.0
 10
18.64221216833721
 20
11.76520189364394
 42
0.1989123673796604
 10
17.41206064932067
 20
14.73505037462748
 42
0.0
 97
        0
 92
        7
 72
     1
 73
     1
 93
       16
 10
23.54221216833719
 20
19.04999986828869
 42
-0.4142135623730935
 10
24.94221216833716
 20
20.44999986828869
 42
0.0
 10
26.86721216833712
 20
20.44999986828869
 42
0.4142135623731546
 10
27.39221216833721
 20
20.97499986828868
 42
0.0
 10
27.39221216833721
 20
22.72499986828869
 42
0.4142135623730952
 10
26.86721216833723
 20
23.24999986828869
 42
0.0
 10
24.94221216833705
 20
23.24999986828865
 42
0.4142135623730892
 10
20.74221216833712
 20
19.04999986828862
 42
0.0
 10
20.74221216833712
 20
11.34999986828871
 42
0.4142135623730969
 10
24.94221216833716
 20
7.149999868288688
 42
0.0
 10
26.86721216833712
 20
7.149999868288688
 42
0.4142135623731526
 10
27.39221216833721
 20
7.674999868288676
 42
0.0
 10
27.39221216833721
 20
9.424999868288698
 42
0.414213562373089
 10
26.86721216833723
 20
9.949999868288685
 42
0.0
 10
24.94221216833716
 20
9.949999868288685
 42
-0.4142135623730928
 10
23.54221216833719
 20
11.34999986828867
 42
0.0
 97
        0
 92
        7
 72
     1
 73
     1
 93
        2
 10
24.24221216833712
 20
15.19999986828869
 42
1.0
 10
27.74221216833712
 20
15.19999986828869
 42
1.0
 97
        0
 92
        7
 72
     1
 73
     1
 93
       26
 10
37.31485865051513
 20
19.20504706185211
 42
0.0
 10
38.37649828365295
 20
22.5669059001217
 42
0.5069206636600134
 10
37.87586738445759
 20
23.24999986828869
 42
0.0
 10
36.17697800484837
 20
23.24999986828869
 42
0.3272098845218764
 10
35.67634710565301
 20
22.88309383645566
 42
0.0
 10
33.80807723102123
 20
16.96690590012177
 42
-0.3272098845219541
 10
33.30744633182576
 20
16.59999986828868
 42
0.0
 10
33.1672121683373
 20
16.59999986828868
 42
-0.4142135623731526
 10
32.64221216833721
 20
17.12499986828867
 42
0.0
 10
32.64221216833721
 20
22.72499986828869
 42
0.4142135623730952
 10
32.11721216833723
 20
23.24999986828869
 42
0.0
 10
30.36721216833712
 20
23.24999986828869
 42
0.4142135623730872
 10
29.84221216833714
 20
22.72499986828871
 42
0.0
 10
29.84221216833714
 20
7.674999868288676
 42
0.414213562373089
 10
30.36721216833712
 20
7.149999868288688
 42
0.0
 10
32.11721216833712
 20
7.149999868288688
 42
0.4142135623731526
 10
32.64221216833721
 20
7.674999868288676
 42
0.0
 10
32.64221216833721
 20
13.2749998682887
 42
-0.4142135623731526
 10
33.1672121683373
 20
13.79999986828869
 42
0.0
 10
33.30744633182587
 20
13.79999986828869
 42
-0.3272098845218915
 10
33.80807723102123
 20
13.43309383645561
 42
0.0
 10
35.67634710565301
 20
7.51690590012176
 42
0.3272098845218902
 10
36.17697800484837
 20
7.149999868288688
 42
0.0
 10
37.87586738445759
 20
7.149999868288688
 42
0.5069206636600334
 10
38.37649828365295
 20
7.833093836455696
 42
0.0
 10
36.05010690517929
 20
15.19999986828882
 42
0.0
 97
        0
 92
        7
 72
     1
 73
     1
 93
        8
 10
43.49221216833712
 20
22.7249998682887
 42
0.4142135623731546
 10
42.96721216833703
 20
23.24999986828869
 42
0.0
 10
41.21721216833726
 20
23.24999986828869
 42
0.4142135623731506
 10
40.69221216833716
 20
22.72499986828871
 42
0.0
 10
40.69221216833716
 20
7.674999868288676
 42
0.4142135623731526
 10
41.21721216833726
 20
7.149999868288688
 42
0.0
 10
42.96721216833703
 20
7.149999868288688
 42
0.4142135623731526
 10
43.49221216833712
 20
7.674999868288676
 42
0.0
 97
        0
 92
        7
 72
     1
 73
     1
 93
       24
 10
48.39221216833721
 20
19.92499986828869
 42
-0.4142135623731547
 10
48.9172121683373
 20
20.44999986828869
 42
0.0
 10
51.89221216833721
 20
20.44999986828869
 42
0.4142135623730911
 10
52.41721216833719
 20
20.97499986828868
 42
0.0
 10
52.41721216833719
 20
22.72499986828869
 42
0.4142135623730952
 10
51.89221216833721
 20
23.24999986828869
 42
0.0
 10
48.39221216833721
 20
23.24999986828869
 42
0.4142135623731048
 10
45.59221216833714
 20
20.44999986828871
 42
0.0
 10
45.59221216833714
 20
18.63479784293345
 42
0.1989123673796613
 10
46.82236368735369
 20
15.66494936194989
 42
0.0
 10
49.73216166199836
 20
12.75515138730523
 42
-0.1989123673796402
 10
50.14221216833721
 20
11.76520189364415
 42
0.0
 10
50.14221216833721
 20
10.47499986828868
 42
-0.4142135623730911
 10
49.61721216833723
 20
9.949999868288685
 42
0.0
 10
46.64221216833721
 20
9.949999868288685
 42
0.4142135623731526
 10
46.11721216833712
 20
9.424999868288698
 42
0.0
 10
46.11721216833712
 20
7.674999868288676
 42
0.414213562373089
 10
46.6422121683371
 20
7.149999868288688
 42
0.0
 10
50.14221216833721
 20
7.149999868288688
 42
0.4142135623730925
 10
52.94221216833716
 20
9.949999868288664
 42
0.0
 10
52.94221216833716
 20
11.76520189364394
 42
0.1989123673796675
 10
51.71206064932062
 20
14.73505037462759
 42
0.0
 10
48.80226267467606
 20
17.64484834927211
 42
-0.1989123673796653
 10
48.39221216833721
 20
18.63479784293327
 42
0.0
 97
        0
 92
        7
 72
     1
 73
     1
 93
       16
 10
57.84221216833714
 20
22.72499986828868
 42
0.414213562373103
 10
57.31721216833716
 20
23.24999986828869
 42
0.0
 10
55.56721216833716
 20
23.24999986828869
 42
0.4142135623730872
 10
55.04221216833719
 20
22.72499986828871
 42
0.0
 10
55.04221216833719
 20
9.949999868288664
 42
0.4142135623730925
 10
57.84221216833714
 20
7.149999868288688
 42
0.0
 10
61.34221216833714
 20
7.149999868288688
 42
0.4142135623731044
 10
64.14221216833721
 20
9.949999868288664
 42
0.0
 10
64.14221216833721
 20
22.72499986828869
 42
0.4142135623730952
 10
63.61721216833723
 20
23.24999986828869
 42
0.0
 10
61.86721216833712
 20
23.24999986828869
 42
0.4142135623730872
 10
61.34221216833714
 20
22.72499986828871
 42
0.0
 10
61.34221216833714
 20
10.99999986828866
 42
-0.414213562373088
 10
60.29221216833719
 20
9.949999868288685
 42
0.0
 10
58.89221216833721
 20
9.949999868288685
 42
-0.4142135623731197
 10
57.84221216833714
 20
10.99999986828866
 42
0.0
 97
        0
 92
        7
 72
     1
 73
     1
 93
        8
 10
69.04221216833719
 20
22.72499986828871
 42
0.4142135623730872
 10
68.51721216833721
 20
23.24999986828869
 42
0.0
 10
66.76721216833721
 20
23.24999986828869
 42
0.4142135623731506
 10
66.24221216833712
 20
22.72499986828871
 42
0.0
 10
66.24221216833712
 20
7.674999868288676
 42
0.414213562373089
 10
66.7672121683371
 20
7.149999868288688
 42
0.0
 10
68.51721216833721
 20
7.149999868288688
 42
0.414213562373089
 10
69.04221216833719
 20
7.674999868288676
 42
0.0
 97
        0
 75
     0
 76
     1
 52
0.0
 41
0.2
 77
     0
 78
     2
 53
45.0
 43
-900.942304321123
 44
-13.20000013171125
 45
-0.4490128060534576
 46
0.4490128060534577
 79
     0
 53
135.0
 43
-900.942304321123
 44
-13.20000013171125
 45
-0.4490128060534577
 46
-0.4490128060534576
 79
     0
 47
0.057451373970553
 98
        8
 10
16.07985497657933
 20
15.16717351417424
 10
22.40451501999519
 20
18.84406205073969
 10
25.16436789921568
 20
15.5118815143594
 10
30.91405999519316
 20
16.20129751473019
 10
41.83847203251276
 20
16.6609097822718
 10
46.89820090868557
 20
19.41857618469589
 10
56.55768598595637
 20
18.7291577833837
 10
67.82707963317876
 20
19.18877005092531
  0
LINE
  5
3F02
330
1A
100
AcDbEntity
  8
ZUWAKU
100
AcDbLine
 10
24.94221216833716
 20
23.24999986828865
 30
0.0
 11
26.86721216833712
 21
23.24999986828869
 31
0.0
  0
LINE
  5
3F03
330
1A
100
AcDbEntity
  8
ZUWAKU
100
AcDbLine
 10
26.86721216833712
 20
20.44999986828869
 30
0.0
 11
24.94221216833716
 21
20.44999986828869
 31
0.0
  0
LINE
  5
3F04
330
1A
100
AcDbEntity
  8
ZUWAKU
100
AcDbLine
 10
24.94221216833716
 20
9.949999868288685
 30
0.0
 11
26.86721216833712
 21
9.949999868288685
 31
0.0
  0
LINE
  5
3F05
330
1A
100
AcDbEntity
  8
ZUWAKU
100
AcDbLine
 10
26.86721216833712
 20
7.149999868288688
 30
0.0
 11
24.94221216833716
 21
7.149999868288688
 31
0.0
  0
CIRCLE
  5
3F06
330
1A
100
AcDbEntity
  8
ZUWAKU
100
AcDbCircle
 10
25.99221216833712
 20
15.19999986828869
 30
0.0
 40
1.75
  0
ARC
  5
3F07
330
1A
100
AcDbEntity
  8
ZUWAKU
100
AcDbCircle
 10
15.49221216833712
 20
18.63479784293339
 30
0.0
 40
1.4
100
AcDbArc
 50
180.0000000000016
 51
224.9999999999988
  0
LINE
  5
3F08
330
1A
100
AcDbEntity
  8
ZUWAKU
100
AcDbLine
 10
23.54221216833719
 20
19.04999986828869
 30
0.0
 11
23.54221216833719
 21
11.34999986828869
 31
0.0
  0
LINE
  5
3F09
330
1A
100
AcDbEntity
  8
ZUWAKU
100
AcDbLine
 10
20.74221216833712
 20
11.34999986828869
 30
0.0
 11
20.74221216833712
 21
19.04999986828864
 31
0.0
  0
ARC
  5
3F0A
330
1A
100
AcDbEntity
  8
ZUWAKU
100
AcDbCircle
 10
15.49221216833712
 20
18.63479784293339
 30
0.0
 40
4.199999999999999
100
AcDbArc
 50
180.0
 51
225.0
  0
ARC
  5
3F0B
330
1A
100
AcDbEntity
  8
ZUWAKU
100
AcDbCircle
 10
15.84221216833714
 20
9.949999868288685
 30
0.0
 40
2.8
100
AcDbArc
 50
270.0
 51
0.0
  0
ARC
  5
3F0C
330
1A
100
AcDbEntity
  8
ZUWAKU
100
AcDbCircle
 10
24.94221216833716
 20
11.34999986828869
 30
0.0
 40
4.199999999999999
100
AcDbArc
 50
180.0
 51
270.0
  0
ARC
  5
3F0D
330
1A
100
AcDbEntity
  8
ZUWAKU
100
AcDbCircle
 10
14.44221216833716
 20
11.76520189364399
 30
0.0
 40
4.199999999999999
100
AcDbArc
 50
0.0
 51
45.0
  0
LINE
  5
3F0E
330
1A
100
AcDbEntity
  8
ZUWAKU
100
AcDbLine
 10
17.41206064932067
 20
14.73505037462751
 30
0.0
 11
14.50226267467599
 21
17.64484834927219
 31
0.0
  0
LINE
  5
3F0F
330
1A
100
AcDbEntity
  8
ZUWAKU
100
AcDbLine
 10
15.84221216833714
 20
10.47499986828869
 30
0.0
 11
15.84221216833714
 21
11.76520189364403
 31
0.0
  0
ARC
  5
3F10
330
1A
100
AcDbEntity
  8
ZUWAKU
100
AcDbCircle
 10
15.31721216833716
 20
10.47499986828869
 30
0.0
 40
0.5249999999999999
100
AcDbArc
 50
270.0
 51
0.0
  0
ARC
  5
3F11
330
1A
100
AcDbEntity
  8
ZUWAKU
100
AcDbCircle
 10
14.44221216833716
 20
11.76520189364403
 30
0.0
 40
1.4
100
AcDbArc
 50
0.0
 51
45.0
  0
LINE
  5
3F12
330
1A
100
AcDbEntity
  8
ZUWAKU
100
AcDbLine
 10
11.81721216833716
 20
7.674999868288687
 30
0.0
 11
11.81721216833716
 21
9.424999868288687
 31
0.0
  0
ARC
  5
3F13
330
1A
100
AcDbEntity
  8
ZUWAKU
100
AcDbCircle
 10
12.34221216833714
 20
7.674999868288687
 30
0.0
 40
0.5249999999999999
100
AcDbArc
 50
180.0
 51
270.0
  0
ARC
  5
3F14
330
1A
100
AcDbEntity
  8
ZUWAKU
100
AcDbCircle
 10
12.34221216833714
 20
9.424999868288687
 30
0.0
 40
0.5249999999999999
100
AcDbArc
 50
90.0
 51
180.0
  0
LINE
  5
3F15
330
1A
100
AcDbEntity
  8
ZUWAKU
100
AcDbLine
 10
12.34221216833714
 20
7.149999868288688
 30
0.0
 11
15.84221216833714
 21
7.149999868288688
 31
0.0
  0
LINE
  5
3F16
330
1A
100
AcDbEntity
  8
ZUWAKU
100
AcDbLine
 10
12.34221216833714
 20
9.949999868288685
 30
0.0
 11
15.31721216833716
 21
9.949999868288685
 31
0.0
  0
LINE
  5
3F17
330
1A
100
AcDbEntity
  8
ZUWAKU
100
AcDbLine
 10
12.52236368735362
 20
15.66494936194987
 30
0.0
 11
15.43216166199829
 21
12.7551513873052
 31
0.0
  0
LINE
  5
3F18
330
1A
100
AcDbEntity
  8
ZUWAKU
100
AcDbLine
 10
18.64221216833721
 20
9.949999868288685
 30
0.0
 11
18.64221216833721
 21
11.76520189364403
 31
0.0
  0
ARC
  5
3F19
330
1A
100
AcDbEntity
  8
ZUWAKU
100
AcDbCircle
 10
24.94221216833716
 20
11.34999986828869
 30
0.0
 40
1.4
100
AcDbArc
 50
180.0
 51
270.0
  0
ARC
  5
3F1A
330
1A
100
AcDbEntity
  8
ZUWAKU
100
AcDbCircle
 10
17.59221216833714
 20
22.72499986828868
 30
0.0
 40
0.5249999999999999
100
AcDbArc
 50
0.0
 51
90.0
  0
ARC
  5
3F1B
330
1A
100
AcDbEntity
  8
ZUWAKU
100
AcDbCircle
 10
17.59221216833714
 20
20.97499986828868
 30
0.0
 40
0.5249999999999999
100
AcDbArc
 50
270.0
 51
0.0
  0
LINE
  5
3F1C
330
1A
100
AcDbEntity
  8
ZUWAKU
100
AcDbLine
 10
14.09221216833714
 20
23.24999986828869
 30
0.0
 11
17.59221216833714
 21
23.24999986828869
 31
0.0
  0
ARC
  5
3F1D
330
1A
100
AcDbEntity
  8
ZUWAKU
100
AcDbCircle
 10
14.61721216833712
 20
19.92499986828869
 30
0.0
 40
0.5249999999999999
100
AcDbArc
 50
90.0
 51
180.0
  0
LINE
  5
3F1E
330
1A
100
AcDbEntity
  8
ZUWAKU
100
AcDbLine
 10
14.09221216833714
 20
19.92499986828869
 30
0.0
 11
14.09221216833714
 21
18.63479784293335
 31
0.0
  0
LINE
  5
3F1F
330
1A
100
AcDbEntity
  8
ZUWAKU
100
AcDbLine
 10
17.59221216833714
 20
20.44999986828869
 30
0.0
 11
14.61721216833712
 21
20.44999986828869
 31
0.0
  0
LINE
  5
3F20
330
1A
100
AcDbEntity
  8
ZUWAKU
100
AcDbLine
 10
11.29221216833719
 20
20.44999986828869
 30
0.0
 11
11.29221216833719
 21
18.63479784293335
 31
0.0
  0
ARC
  5
3F21
330
1A
100
AcDbEntity
  8
ZUWAKU
100
AcDbCircle
 10
14.09221216833714
 20
20.44999986828869
 30
0.0
 40
2.8
100
AcDbArc
 50
90.0
 51
180.0
  0
LINE
  5
3F22
330
1A
100
AcDbEntity
  8
ZUWAKU
100
AcDbLine
 10
18.11721216833712
 20
22.72499986828868
 30
0.0
 11
18.11721216833712
 21
20.97499986828868
 31
0.0
  0
ARC
  5
3F23
330
1A
100
AcDbEntity
  8
ZUWAKU
100
AcDbCircle
 10
24.94221216833716
 20
19.04999986828869
 30
0.0
 40
1.4
100
AcDbArc
 50
90.0
 51
180.0
  0
ARC
  5
3F24
330
1A
100
AcDbEntity
  8
ZUWAKU
100
AcDbCircle
 10
24.94221216833716
 20
19.04999986828864
 30
0.0
 40
4.199999999999999
100
AcDbArc
 50
90.0
 51
180.0
  0
LINE
  5
3F25
330
1A
100
AcDbEntity
  8
ZUWAKU
100
AcDbLine
 10
79.32662956154422
 20
29.99999986828868
 30
0.0
 11
79.32662956154445
 21
0.7999998682887508
 31
0.0
  0
LINE
  5
3F26
330
1A
100
AcDbEntity
  8
ZUWAKU
100
AcDbLine
 10
79.52662956154427
 20
29.99999986828868
 30
0.0
 11
79.5266295615445
 21
0.7999998682887508
 31
0.0
  0
LINE
  5
3F27
330
1A
100
AcDbEntity
  8
ZUWAKU
100
AcDbLine
 10
79.12662956154441
 20
29.99999986828868
 30
0.0
 11
79.12662956154441
 21
0.7999998682887508
 31
0.0
  0
LINE
  5
3F28
330
1A
100
AcDbEntity
  8
ZUWAKU
100
AcDbLine
 10
64.14221216833721
 20
9.949999868288685
 30
0.0
 11
64.14221216833721
 21
22.72499986828868
 31
0.0
  0
LINE
  5
3F29
330
1A
100
AcDbEntity
  8
ZUWAKU
100
AcDbLine
 10
61.34221216833714
 20
22.72499986828868
 30
0.0
 11
61.34221216833714
 21
10.99999986828868
 31
0.0
  0
LINE
  5
3F2A
330
1A
100
AcDbEntity
  8
ZUWAKU
100
AcDbLine
 10
69.04221216833719
 20
7.674999868288687
 30
0.0
 11
69.04221216833719
 21
22.72499986828868
 31
0.0
  0
LINE
  5
3F2B
330
1A
100
AcDbEntity
  8
ZUWAKU
100
AcDbLine
 10
66.24221216833712
 20
22.72499986828868
 30
0.0
 11
66.24221216833712
 21
7.674999868288687
 31
0.0
  0
ARC
  5
3F2C
330
1A
100
AcDbEntity
  8
ZUWAKU
100
AcDbCircle
 10
49.79221216833719
 20
18.63479784293339
 30
0.0
 40
1.4
100
AcDbArc
 50
180.0000000000016
 51
224.9999999999988
  0
ARC
  5
3F2D
330
1A
100
AcDbEntity
  8
ZUWAKU
100
AcDbCircle
 10
49.79221216833719
 20
18.63479784293339
 30
0.0
 40
4.199999999999999
100
AcDbArc
 50
180.0
 51
225.0
  0
LINE
  5
3F2E
330
1A
100
AcDbEntity
  8
ZUWAKU
100
AcDbLine
 10
37.31485865051513
 20
19.20504706185211
 30
0.0
 11
36.05010690517929
 21
15.19999986828871
 31
0.0
  0
LINE
  5
3F2F
330
1A
100
AcDbEntity
  8
ZUWAKU
100
AcDbLine
 10
40.69221216833716
 20
22.72499986828868
 30
0.0
 11
40.69221216833716
 21
7.674999868288687
 31
0.0
  0
LINE
  5
3F30
330
1A
100
AcDbEntity
  8
ZUWAKU
100
AcDbLine
 10
43.49221216833712
 20
7.674999868288687
 30
0.0
 11
43.49221216833712
 21
22.72499986828868
 31
0.0
  0
LINE
  5
3F31
330
1A
100
AcDbEntity
  8
ZUWAKU
100
AcDbLine
 10
55.04221216833719
 20
22.72499986828868
 30
0.0
 11
55.04221216833719
 21
9.949999868288685
 31
0.0
  0
LINE
  5
3F32
330
1A
100
AcDbEntity
  8
ZUWAKU
100
AcDbLine
 10
57.84221216833714
 20
10.99999986828868
 30
0.0
 11
57.84221216833714
 21
22.72499986828868
 31
0.0
  0
LINE
  5
3F33
330
1A
100
AcDbEntity
  8
ZUWAKU
100
AcDbLine
 10
32.64221216833721
 20
17.12499986828869
 30
0.0
 11
32.64221216833721
 21
22.72499986828868
 31
0.0
  0
LINE
  5
3F34
330
1A
100
AcDbEntity
  8
ZUWAKU
100
AcDbLine
 10
29.84221216833714
 20
22.72499986828868
 30
0.0
 11
29.84221216833714
 21
7.674999868288687
 31
0.0
  0
LINE
  5
3F35
330
1A
100
AcDbEntity
  8
ZUWAKU
100
AcDbLine
 10
35.67634710565301
 20
22.88309383645566
 30
0.0
 11
33.80807723102123
 21
16.96690590012172
 31
0.0
  0
LINE
  5
3F36
330
1A
100
AcDbEntity
  8
ZUWAKU
100
AcDbLine
 10
60.29221216833719
 20
9.949999868288685
 30
0.0
 11
58.89221216833721
 21
9.949999868288685
 31
0.0
  0
LINE
  5
3F37
330
1A
100
AcDbEntity
  8
ZUWAKU
100
AcDbLine
 10
57.84221216833714
 20
7.149999868288688
 30
0.0
 11
61.34221216833714
 21
7.149999868288688
 31
0.0
  0
LINE
  5
3F38
330
1A
100
AcDbEntity
  8
ZUWAKU
100
AcDbLine
 10
41.21721216833714
 20
7.149999868288688
 30
0.0
 11
42.96721216833714
 21
7.149999868288688
 31
0.0
  0
LINE
  5
3F39
330
1A
100
AcDbEntity
  8
ZUWAKU
100
AcDbLine
 10
35.67634710565301
 20
7.516905900121714
 30
0.0
 11
33.80807723102123
 21
13.43309383645565
 31
0.0
  0
ARC
  5
3F3A
330
1A
100
AcDbEntity
  8
ZUWAKU
100
AcDbCircle
 10
33.30744633182587
 20
17.12499986828869
 30
0.0
 40
0.5249999999999999
100
AcDbArc
 50
270.0
 51
342.474431626277
  0
LINE
  5
3F3B
330
1A
100
AcDbEntity
  8
ZUWAKU
100
AcDbLine
 10
33.30744633182587
 20
16.59999986828868
 30
0.0
 11
33.16721216833719
 21
16.59999986828868
 31
0.0
  0
LINE
  5
3F3C
330
1A
100
AcDbEntity
  8
ZUWAKU
100
AcDbLine
 10
33.16721216833719
 20
13.79999986828869
 30
0.0
 11
33.30744633182587
 21
13.79999986828869
 31
0.0
  0
ARC
  5
3F3D
330
1A
100
AcDbEntity
  8
ZUWAKU
100
AcDbCircle
 10
33.16721216833719
 20
17.12499986828869
 30
0.0
 40
0.5249999999999999
100
AcDbArc
 50
180.0
 51
270.0
  0
LINE
  5
3F3E
330
1A
100
AcDbEntity
  8
ZUWAKU
100
AcDbLine
 10
30.36721216833712
 20
7.149999868288688
 30
0.0
 11
32.11721216833712
 21
7.149999868288688
 31
0.0
  0
ARC
  5
3F3F
330
1A
100
AcDbEntity
  8
ZUWAKU
100
AcDbCircle
 10
32.11721216833712
 20
7.674999868288687
 30
0.0
 40
0.5249999999999999
100
AcDbArc
 50
270.0
 51
0.0
  0
LINE
  5
3F40
330
1A
100
AcDbEntity
  8
ZUWAKU
100
AcDbLine
 10
32.64221216833721
 20
7.674999868288687
 30
0.0
 11
32.64221216833721
 21
13.27499986828869
 31
0.0
  0
LINE
  5
3F41
330
1A
100
AcDbEntity
  8
ZUWAKU
100
AcDbLine
 10
27.39221216833721
 20
9.424999868288687
 30
0.0
 11
27.39221216833721
 21
7.674999868288687
 31
0.0
  0
ARC
  5
3F42
330
1A
100
AcDbEntity
  8
ZUWAKU
100
AcDbCircle
 10
26.86721216833712
 20
7.674999868288687
 30
0.0
 40
0.5249999999999999
100
AcDbArc
 50
270.0
 51
0.0
  0
ARC
  5
3F43
330
1A
100
AcDbEntity
  8
ZUWAKU
100
AcDbCircle
 10
26.86721216833712
 20
9.424999868288687
 30
0.0
 40
0.5249999999999999
100
AcDbArc
 50
0.0
 51
90.0
  0
ARC
  5
3F44
330
1A
100
AcDbEntity
  8
ZUWAKU
100
AcDbCircle
 10
30.36721216833712
 20
7.674999868288687
 30
0.0
 40
0.5249999999999999
100
AcDbArc
 50
180.0
 51
270.0
  0
ARC
  5
3F45
330
1A
100
AcDbEntity
  8
ZUWAKU
100
AcDbCircle
 10
33.30744633182587
 20
13.27499986828869
 30
0.0
 40
0.5249999999999999
100
AcDbArc
 50
17.52556837372303
 51
90.0
  0
ARC
  5
3F46
330
1A
100
AcDbEntity
  8
ZUWAKU
100
AcDbCircle
 10
33.16721216833719
 20
13.27499986828869
 30
0.0
 40
0.5249999999999999
100
AcDbArc
 50
90.0
 51
180.0
  0
ARC
  5
3F47
330
1A
100
AcDbEntity
  8
ZUWAKU
100
AcDbCircle
 10
41.21721216833714
 20
7.674999868288687
 30
0.0
 40
0.5249999999999999
100
AcDbArc
 50
180.0
 51
270.0
  0
LINE
  5
3F48
330
1A
100
AcDbEntity
  8
ZUWAKU
100
AcDbLine
 10
36.17697800484848
 20
7.149999868288688
 30
0.0
 11
37.87586738445748
 21
7.149999868288688
 31
0.0
  0
ARC
  5
3F49
330
1A
100
AcDbEntity
  8
ZUWAKU
100
AcDbCircle
 10
37.87586738445748
 20
7.674999868288687
 30
0.0
 40
0.5249999999999999
100
AcDbArc
 50
270.0
 51
17.52556837372303
  0
LINE
  5
3F4A
330
1A
100
AcDbEntity
  8
ZUWAKU
100
AcDbLine
 10
38.37649828365295
 20
7.83309383645566
 30
0.0
 11
36.05010690517929
 21
15.19999986828871
 31
0.0
  0
ARC
  5
3F4B
330
1A
100
AcDbEntity
  8
ZUWAKU
100
AcDbCircle
 10
36.17697800484848
 20
7.674999868288687
 30
0.0
 40
0.5249999999999999
100
AcDbArc
 50
197.525568373723
 51
270.0
  0
ARC
  5
3F4C
330
1A
100
AcDbEntity
  8
ZUWAKU
100
AcDbCircle
 10
57.84221216833714
 20
9.949999868288685
 30
0.0
 40
2.8
100
AcDbArc
 50
180.0
 51
270.0
  0
ARC
  5
3F4D
330
1A
100
AcDbEntity
  8
ZUWAKU
100
AcDbCircle
 10
50.14221216833721
 20
9.949999868288685
 30
0.0
 40
2.8
100
AcDbArc
 50
270.0
 51
0.0
  0
LINE
  5
3F4E
330
1A
100
AcDbEntity
  8
ZUWAKU
100
AcDbLine
 10
51.71206064932073
 20
14.73505037462751
 30
0.0
 11
48.80226267467594
 21
17.64484834927219
 31
0.0
  0
LINE
  5
3F4F
330
1A
100
AcDbEntity
  8
ZUWAKU
100
AcDbLine
 10
50.14221216833721
 20
10.47499986828869
 30
0.0
 11
50.14221216833721
 21
11.76520189364403
 31
0.0
  0
ARC
  5
3F50
330
1A
100
AcDbEntity
  8
ZUWAKU
100
AcDbCircle
 10
48.74221216833712
 20
11.76520189364403
 30
0.0
 40
1.4
100
AcDbArc
 50
0.0
 51
45.0
  0
ARC
  5
3F51
330
1A
100
AcDbEntity
  8
ZUWAKU
100
AcDbCircle
 10
49.61721216833712
 20
10.47499986828869
 30
0.0
 40
0.5249999999999999
100
AcDbArc
 50
270.0
 51
0.0
  0
LINE
  5
3F52
330
1A
100
AcDbEntity
  8
ZUWAKU
100
AcDbLine
 10
46.11721216833712
 20
7.674999868288687
 30
0.0
 11
46.11721216833712
 21
9.424999868288687
 31
0.0
  0
ARC
  5
3F53
330
1A
100
AcDbEntity
  8
ZUWAKU
100
AcDbCircle
 10
46.64221216833721
 20
7.674999868288687
 30
0.0
 40
0.5249999999999999
100
AcDbArc
 50
180.0
 51
270.0
  0
ARC
  5
3F54
330
1A
100
AcDbEntity
  8
ZUWAKU
100
AcDbCircle
 10
42.96721216833714
 20
7.674999868288687
 30
0.0
 40
0.5249999999999999
100
AcDbArc
 50
270.0
 51
0.0
  0
ARC
  5
3F55
330
1A
100
AcDbEntity
  8
ZUWAKU
100
AcDbCircle
 10
46.64221216833721
 20
9.424999868288687
 30
0.0
 40
0.5249999999999999
100
AcDbArc
 50
90.0
 51
180.0
  0
LINE
  5
3F56
330
1A
100
AcDbEntity
  8
ZUWAKU
100
AcDbLine
 10
46.64221216833721
 20
9.949999868288685
 30
0.0
 11
49.61721216833712
 21
9.949999868288685
 31
0.0
  0
LINE
  5
3F57
330
1A
100
AcDbEntity
  8
ZUWAKU
100
AcDbLine
 10
46.64221216833721
 20
7.149999868288688
 30
0.0
 11
50.14221216833721
 21
7.149999868288688
 31
0.0
  0
LINE
  5
3F58
330
1A
100
AcDbEntity
  8
ZUWAKU
100
AcDbLine
 10
46.82236368735369
 20
15.66494936194987
 30
0.0
 11
49.73216166199836
 21
12.7551513873052
 31
0.0
  0
LINE
  5
3F59
330
1A
100
AcDbEntity
  8
ZUWAKU
100
AcDbLine
 10
52.94221216833716
 20
9.949999868288685
 30
0.0
 11
52.94221216833716
 21
11.76520189364403
 31
0.0
  0
ARC
  5
3F5A
330
1A
100
AcDbEntity
  8
ZUWAKU
100
AcDbCircle
 10
48.74221216833712
 20
11.76520189364399
 30
0.0
 40
4.199999999999999
100
AcDbArc
 50
0.0
 51
45.0
  0
ARC
  5
3F5B
330
1A
100
AcDbEntity
  8
ZUWAKU
100
AcDbCircle
 10
58.89221216833721
 20
10.99999986828868
 30
0.0
 40
1.05
100
AcDbArc
 50
180.0
 51
270.0
  0
ARC
  5
3F5C
330
1A
100
AcDbEntity
  8
ZUWAKU
100
AcDbCircle
 10
61.34221216833714
 20
9.949999868288685
 30
0.0
 40
2.8
100
AcDbArc
 50
270.0
 51
0.0
  0
LINE
  5
3F5D
330
1A
100
AcDbEntity
  8
ZUWAKU
100
AcDbLine
 10
66.76721216833721
 20
7.149999868288688
 30
0.0
 11
68.51721216833721
 21
7.149999868288688
 31
0.0
  0
ARC
  5
3F5E
330
1A
100
AcDbEntity
  8
ZUWAKU
100
AcDbCircle
 10
66.76721216833721
 20
7.674999868288687
 30
0.0
 40
0.5249999999999999
100
AcDbArc
 50
180.0
 51
270.0
  0
ARC
  5
3F5F
330
1A
100
AcDbEntity
  8
ZUWAKU
100
AcDbCircle
 10
60.29221216833719
 20
10.99999986828868
 30
0.0
 40
1.05
100
AcDbArc
 50
270.0
 51
0.0
  0
ARC
  5
3F60
330
1A
100
AcDbEntity
  8
ZUWAKU
100
AcDbCircle
 10
68.51721216833721
 20
7.674999868288687
 30
0.0
 40
0.5249999999999999
100
AcDbArc
 50
270.0
 51
0.0
  0
LINE
  5
3F61
330
1A
100
AcDbEntity
  8
ZUWAKU
100
AcDbLine
 10
42.96721216833714
 20
23.24999986828869
 30
0.0
 11
41.21721216833714
 21
23.24999986828869
 31
0.0
  0
ARC
  5
3F62
330
1A
100
AcDbEntity
  8
ZUWAKU
100
AcDbCircle
 10
32.11721216833712
 20
22.72499986828868
 30
0.0
 40
0.5249999999999999
100
AcDbArc
 50
0.0
 51
90.0
  0
LINE
  5
3F63
330
1A
100
AcDbEntity
  8
ZUWAKU
100
AcDbLine
 10
32.11721216833712
 20
23.24999986828869
 30
0.0
 11
30.36721216833712
 21
23.24999986828869
 31
0.0
  0
ARC
  5
3F64
330
1A
100
AcDbEntity
  8
ZUWAKU
100
AcDbCircle
 10
26.86721216833712
 20
22.72499986828868
 30
0.0
 40
0.5249999999999999
100
AcDbArc
 50
0.0
 51
90.0
  0
ARC
  5
3F65
330
1A
100
AcDbEntity
  8
ZUWAKU
100
AcDbCircle
 10
30.36721216833712
 20
22.72499986828868
 30
0.0
 40
0.5249999999999999
100
AcDbArc
 50
90.0
 51
180.0
  0
ARC
  5
3F66
330
1A
100
AcDbEntity
  8
ZUWAKU
100
AcDbCircle
 10
26.86721216833712
 20
20.97499986828868
 30
0.0
 40
0.5249999999999999
100
AcDbArc
 50
270.0
 51
0.0
  0
LINE
  5
3F67
330
1A
100
AcDbEntity
  8
ZUWAKU
100
AcDbLine
 10
27.39221216833721
 20
22.72499986828868
 30
0.0
 11
27.39221216833721
 21
20.97499986828868
 31
0.0
  0
ARC
  5
3F68
330
1A
100
AcDbEntity
  8
ZUWAKU
100
AcDbCircle
 10
41.21721216833714
 20
22.72499986828868
 30
0.0
 40
0.5249999999999999
100
AcDbArc
 50
90.0
 51
180.0
  0
LINE
  5
3F69
330
1A
100
AcDbEntity
  8
ZUWAKU
100
AcDbLine
 10
36.17697800484848
 20
23.24999986828869
 30
0.0
 11
37.87586738445748
 21
23.24999986828869
 31
0.0
  0
ARC
  5
3F6A
330
1A
100
AcDbEntity
  8
ZUWAKU
100
AcDbCircle
 10
37.87586738445748
 20
22.72499986828868
 30
0.0
 40
0.5249999999999999
100
AcDbArc
 50
342.474431626277
 51
90.0
  0
LINE
  5
3F6B
330
1A
100
AcDbEntity
  8
ZUWAKU
100
AcDbLine
 10
38.37649828365295
 20
22.56690590012172
 30
0.0
 11
37.31485865051513
 21
19.20504706185211
 31
0.0
  0
ARC
  5
3F6C
330
1A
100
AcDbEntity
  8
ZUWAKU
100
AcDbCircle
 10
36.17697800484848
 20
22.72499986828868
 30
0.0
 40
0.5249999999999999
100
AcDbArc
 50
90.0
 51
162.474431626277
  0
LINE
  5
3F6D
330
1A
100
AcDbEntity
  8
ZUWAKU
100
AcDbLine
 10
48.39221216833721
 20
23.24999986828869
 30
0.0
 11
51.89221216833721
 21
23.24999986828869
 31
0.0
  0
LINE
  5
3F6E
330
1A
100
AcDbEntity
  8
ZUWAKU
100
AcDbLine
 10
51.89221216833721
 20
20.44999986828869
 30
0.0
 11
48.91721216833719
 21
20.44999986828869
 31
0.0
  0
ARC
  5
3F6F
330
1A
100
AcDbEntity
  8
ZUWAKU
100
AcDbCircle
 10
48.91721216833719
 20
19.92499986828869
 30
0.0
 40
0.5249999999999999
100
AcDbArc
 50
90.0
 51
180.0
  0
LINE
  5
3F70
330
1A
100
AcDbEntity
  8
ZUWAKU
100
AcDbLine
 10
48.39221216833721
 20
19.92499986828869
 30
0.0
 11
48.39221216833721
 21
18.63479784293335
 31
0.0
  0
ARC
  5
3F71
330
1A
100
AcDbEntity
  8
ZUWAKU
100
AcDbCircle
 10
42.96721216833714
 20
22.72499986828868
 30
0.0
 40
0.5249999999999999
100
AcDbArc
 50
0.0
 51
90.0
  0
LINE
  5
3F72
330
1A
100
AcDbEntity
  8
ZUWAKU
100
AcDbLine
 10
45.59221216833714
 20
20.44999986828869
 30
0.0
 11
45.59221216833714
 21
18.63479784293335
 31
0.0
  0
ARC
  5
3F73
330
1A
100
AcDbEntity
  8
ZUWAKU
100
AcDbCircle
 10
48.39221216833721
 20
20.44999986828869
 30
0.0
 40
2.8
100
AcDbArc
 50
90.0
 51
180.0
  0
ARC
  5
3F74
330
1A
100
AcDbEntity
  8
ZUWAKU
100
AcDbCircle
 10
57.31721216833716
 20
22.72499986828868
 30
0.0
 40
0.5249999999999999
100
AcDbArc
 50
0.0
 51
90.0
  0
ARC
  5
3F75
330
1A
100
AcDbEntity
  8
ZUWAKU
100
AcDbCircle
 10
55.56721216833716
 20
22.72499986828868
 30
0.0
 40
0.5249999999999999
100
AcDbArc
 50
90.0
 51
180.0
  0
LINE
  5
3F76
330
1A
100
AcDbEntity
  8
ZUWAKU
100
AcDbLine
 10
57.31721216833716
 20
23.24999986828869
 30
0.0
 11
55.56721216833716
 21
23.24999986828869
 31
0.0
  0
ARC
  5
3F77
330
1A
100
AcDbEntity
  8
ZUWAKU
100
AcDbCircle
 10
51.89221216833721
 20
22.72499986828868
 30
0.0
 40
0.5249999999999999
100
AcDbArc
 50
0.0
 51
90.0
  0
ARC
  5
3F78
330
1A
100
AcDbEntity
  8
ZUWAKU
100
AcDbCircle
 10
51.89221216833721
 20
20.97499986828868
 30
0.0
 40
0.5249999999999999
100
AcDbArc
 50
270.0
 51
0.0
  0
LINE
  5
3F79
330
1A
100
AcDbEntity
  8
ZUWAKU
100
AcDbLine
 10
52.41721216833719
 20
22.72499986828868
 30
0.0
 11
52.41721216833719
 21
20.97499986828868
 31
0.0
  0
LINE
  5
3F7A
330
1A
100
AcDbEntity
  8
ZUWAKU
100
AcDbLine
 10
68.51721216833721
 20
23.24999986828869
 30
0.0
 11
66.76721216833721
 21
23.24999986828869
 31
0.0
  0
ARC
  5
3F7B
330
1A
100
AcDbEntity
  8
ZUWAKU
100
AcDbCircle
 10
66.76721216833721
 20
22.72499986828868
 30
0.0
 40
0.5249999999999999
100
AcDbArc
 50
90.0
 51
180.0
  0
ARC
  5
3F7C
330
1A
100
AcDbEntity
  8
ZUWAKU
100
AcDbCircle
 10
63.61721216833712
 20
22.72499986828868
 30
0.0
 40
0.5249999999999999
100
AcDbArc
 50
0.0
 51
90.0
  0
LINE
  5
3F7D
330
1A
100
AcDbEntity
  8
ZUWAKU
100
AcDbLine
 10
63.61721216833712
 20
23.24999986828869
 30
0.0
 11
61.86721216833712
 21
23.24999986828869
 31
0.0
  0
ARC
  5
3F7E
330
1A
100
AcDbEntity
  8
ZUWAKU
100
AcDbCircle
 10
61.86721216833712
 20
22.72499986828868
 30
0.0
 40
0.5249999999999999
100
AcDbArc
 50
90.0
 51
180.0
  0
ARC
  5
3F7F
330
1A
100
AcDbEntity
  8
ZUWAKU
100
AcDbCircle
 10
68.51721216833721
 20
22.72499986828868
 30
0.0
 40
0.5249999999999999
100
AcDbArc
 50
0.0
 51
90.0
  0
TEXT
  5
3F80
330
1A
100
AcDbEntity
  8
moji
100
AcDbText
 10
239.8272026944071
 20
18.00492092569607
 30
0.0
 40
5.6
  1
ステンレス金具正面打（吊）自在式
 41
0.9
  7
ｽﾀｲﾙ1
100
AcDbText
  0
TEXT
  5
3F81
330
1A
100
AcDbEntity
  8
moji
100
AcDbText
 10
239.8272026944071
 20
3.204920925696104
 30
0.0
 40
5.6
  1
Σ９０－５－１０～４５
 41
0.9
  7
ｽﾀｲﾙ1
100
AcDbText
  0
LINE
  5
3F82
330
1A
100
AcDbEntity
  8
ZUWAKU
100
AcDbLine
 10
208.246601303624
 20
29.99999986828868
 30
0.0
 11
208.246601303624
 21
0.7999998682887508
 31
0.0
  0
LINE
  5
3F83
330
1A
100
AcDbEntity
  8
ZUWAKU
100
AcDbLine
 10
208.6466013036238
 20
29.99999986828868
 30
0.0
 11
208.646601303624
 21
0.7999998682887508
 31
0.0
  0
LINE
  5
3F84
330
1A
100
AcDbEntity
  8
ZUWAKU
100
AcDbLine
 10
208.4466013036238
 20
29.99999986828868
 30
0.0
 11
208.446601303624
 21
0.7999998682887508
 31
0.0
  0
TEXT
  5
3F85
330
1A
100
AcDbEntity
  8
ZUWAKU
100
AcDbText
 10
209.7240463258336
 20
9.655356406674301
 30
0.0
 40
4.0
  1
サイズ
 41
0.9
  7
ｽﾀｲﾙ1
100
AcDbText
  0
TEXT
  5
3F86
330
1A
100
AcDbEntity
  8
ZUWAKU
100
AcDbText
 10
209.7240463258333
 20
24.05535640667426
 30
0.0
 40
4.0
  1
品名
 41
0.9
  7
ｽﾀｲﾙ1
100
AcDbText
  0
LINE
  5
3F87
330
1A
100
AcDbEntity
  8
ZUWAKU
100
AcDbLine
 10
648.8172025237602
 20
15.19999986828871
 30
0.0
 11
697.2490105620973
 21
15.19999986828872
 31
0.0
  0
LINE
  5
3F88
330
1A
100
AcDbEntity
  8
ZUWAKU
100
AcDbLine
 10
648.8172025237604
 20
15.39999986828872
 30
0.0
 11
697.2490105620973
 21
15.39999986828872
 31
0.0
  0
LINE
  5
3F89
330
1A
100
AcDbEntity
  8
ZUWAKU
100
AcDbLine
 10
648.8172025237602
 20
15.59999986828872
 30
0.0
 11
697.2490105620973
 21
15.59999986828872
 31
0.0
  0
TEXT
  5
3F8A
330
1A
100
AcDbEntity
  8
ZUWAKU
100
AcDbText
 10
658.2039377008584
 20
18.00492092569607
 30
0.0
 40
5.6
  1
　　．　　．　　
 41
0.9
  7
ｽﾀｲﾙ1
100
AcDbText
  0
LINE
  5
3F8B
330
1A
100
AcDbEntity
  8
ZUWAKU
100
AcDbLine
 10
505.1991795116969
 20
15.19999986828872
 30
0.0
 11
552.5269557796685
 21
15.19999986828872
 31
0.0
  0
LINE
  5
3F8C
330
1A
100
AcDbEntity
  8
ZUWAKU
100
AcDbLine
 10
505.1991795116969
 20
15.39999986828872
 30
0.0
 11
552.5269557796685
 21
15.39999986828872
 31
0.0
  0
LINE
  5
3F8D
330
1A
100
AcDbEntity
  8
ZUWAKU
100
AcDbLine
 10
505.1991795116969
 20
15.59999986828872
 30
0.0
 11
552.5269557796685
 21
15.59999986828872
 31
0.0
  0
TEXT
  5
3F8E
330
1A
100
AcDbEntity
  8
moji
100
AcDbText
 10
463.2464320045581
 20
11.94261758994867
 30
0.0
 40
5.6
  1
ＬＧ１８Ｇ
 41
0.9
  7
ｽﾀｲﾙ1
100
AcDbText
  0
LINE
  5
3F8F
330
1A
100
AcDbEntity
  8
ZUWAKU
100
AcDbLine
 10
447.6243639845472
 20
29.99999986828868
 30
0.0
 11
447.6243639845475
 21
0.7999998682887508
 31
0.0
  0
LINE
  5
3F90
330
1A
100
AcDbEntity
  8
ZUWAKU
100
AcDbLine
 10
447.8243639845473
 20
29.99999986828868
 30
0.0
 11
447.8243639845475
 21
0.7999998682887508
 31
0.0
  0
LINE
  5
3F91
330
1A
100
AcDbEntity
  8
ZUWAKU
100
AcDbLine
 10
447.4243639845474
 20
29.99999986828868
 30
0.0
 11
447.4243639845474
 21
0.7999998682887508
 31
0.0
  0
TEXT
  5
3F92
330
1A
100
AcDbEntity
  8
moji
100
AcDbText
 10
528.0409079858689
 20
18.00492092569607
 30
0.0
 40
5.6
  1
Ａ３
 41
0.9
  7
ｽﾀｲﾙ1
100
AcDbText
  0
LINE
  5
3F93
330
1A
100
AcDbEntity
  8
ZUWAKU
100
AcDbLine
 10
504.9991795116969
 20
29.99999986828868
 30
0.0
 11
504.9991795116971
 21
0.7999998682887508
 31
0.0
  0
LINE
  5
3F94
330
1A
100
AcDbEntity
  8
ZUWAKU
100
AcDbLine
 10
505.1991795116969
 20
29.99999986828868
 30
0.0
 11
505.1991795116971
 21
0.7999998682887508
 31
0.0
  0
LINE
  5
3F95
330
1A
100
AcDbEntity
  8
ZUWAKU
100
AcDbLine
 10
504.7991795116971
 20
29.99999986828868
 30
0.0
 11
504.7991795116971
 21
0.7999998682887508
 31
0.0
  0
TEXT
  5
3F97
330
1A
100
AcDbEntity
  8
ZUWAKU
100
AcDbText
 10
506.6766245339068
 20
9.655356406674301
 30
0.0
 40
4.0
  1
縮尺
 41
0.9
  7
ｽﾀｲﾙ1
100
AcDbText
  0
TEXT
  5
3F98
330
1A
100
AcDbEntity
  8
moji
100
AcDbText
 10
528.0409079858689
 20
3.204920925696104
 30
0.0
 40
5.6
  1
１/２
 41
0.9
  7
ｽﾀｲﾙ1
100
AcDbText
  0
TEXT
  5
3F99
330
1A
100
AcDbEntity
  8
ZUWAKU
100
AcDbText
 10
449.3018090067569
 20
24.05535640667426
 30
0.0
 40
4.0
  1
品番
 41
0.9
  7
ｽﾀｲﾙ1
100
AcDbText
  0
TEXT
  5
3F9A
330
1A
100
AcDbEntity
  8
ZUWAKU
100
AcDbText
 10
506.6766245339065
 20
24.05535640667426
 30
0.0
 40
4.0
  1
用紙
 41
0.9
  7
ｽﾀｲﾙ1
100
AcDbText
  0
LINE
  5
3F9B
330
1A
100
AcDbEntity
  8
ZUWAKU
100
AcDbLine
 10
648.6172025237604
 20
29.99999986828868
 30
0.0
 11
648.6172025237606
 21
0.7999998682887508
 31
0.0
  0
LINE
  5
3F9C
330
1A
100
AcDbEntity
  8
ZUWAKU
100
AcDbLine
 10
648.8172025237604
 20
29.99999986828868
 30
0.0
 11
648.8172025237607
 21
0.7999998682887508
 31
0.0
  0
LINE
  5
3F9D
330
1A
100
AcDbEntity
  8
ZUWAKU
100
AcDbLine
 10
648.4172025237606
 20
29.99999986828868
 30
0.0
 11
648.4172025237606
 21
0.7999998682887508
 31
0.0
  0
LINE
  5
3F9E
330
1A
100
AcDbEntity
  8
ZUWAKU
100
AcDbLine
 10
552.7269557796683
 20
29.99999986828868
 30
0.0
 11
552.7269557796685
 21
0.7999998682887508
 31
0.0
  0
LINE
  5
3F9F
330
1A
100
AcDbEntity
  8
ZUWAKU
100
AcDbLine
 10
552.9269557796683
 20
29.99999986828868
 30
0.0
 11
552.9269557796686
 21
0.7999998682887508
 31
0.0
  0
LINE
  5
3FA0
330
1A
100
AcDbEntity
  8
ZUWAKU
100
AcDbLine
 10
552.5269557796685
 20
29.99999986828868
 30
0.0
 11
552.5269557796685
 21
0.7999998682887508
 31
0.0
  0
TEXT
  5
3FA1
330
1A
100
AcDbEntity
  8
ZUWAKU
100
AcDbText
 10
650.2946475459701
 20
24.05535640667426
 30
0.0
 40
4.0
  1
DATE
 41
0.9
  7
ｽﾀｲﾙ1
100
AcDbText
  0
LINE
  5
3FA2
330
1A
100
AcDbEntity
  8
ZUWAKU
100
AcDbLine
 10
697.2490105620973
 20
29.99999986828868
 30
0.0
 11
697.2490105620973
 21
0.7999998682887508
 31
0.0
  0
LINE
  5
3FA3
330
1A
100
AcDbEntity
  8
ZUWAKU
100
AcDbLine
 10
697.4490105620973
 20
29.99999986828868
 30
0.0
 11
697.4490105620973
 21
0.7999998682887508
 31
0.0
  0
LINE
  5
3FA4
330
1A
100
AcDbEntity
  8
ZUWAKU
100
AcDbLine
 10
697.6490105620972
 20
29.99999986828868
 30
0.0
 11
697.6490105620974
 21
0.7999998682887508
 31
0.0
  0
LINE
  5
3FA5
330
1A
100
AcDbEntity
  8
ZUWAKU
100
AcDbLine
 10
697.8490105620972
 20
29.99999986828868
 30
0.0
 11
697.8490105620974
 21
0.7999998682887508
 31
0.0
  0
TEXT
  5
3FA6
330
1A
100
AcDbEntity
  8
ZUWAKU
100
AcDbText
 10
708.5280842057998
 20
17.55383920397549
 30
0.0
 40
6.0
  1
積水化学工業株式会社
 41
0.9
  7
ｽﾀｲﾙ1
100
AcDbText
  0
TEXT
  5
3FA7
330
1A
100
AcDbEntity
  8
ZUWAKU
100
AcDbText
 10
708.5280842057998
 20
6.648840182142749
 30
0.0
 40
6.0
  1
建材事業部
 41
0.9
  7
ｽﾀｲﾙ1
100
AcDbText
  0
DIMENSION
  5
5003
330
1A
100
AcDbEntity
  8
SUNPOU
 62
     4
 48
5.0
100
AcDbDimension
  2
*D1
 10
413.739967739834
 20
301.2998246415698
 30
0.0
 11
396.239967739834
 21
306.2998246415698
 31
0.0
 70
    32
 71
     5
 42
35.0
  3
STANDARD
100
AcDbAlignedDimension
 13
378.739967739834
 23
252.9871243702935
 33
0.0
 14
413.739967739834
 24
252.9871243702935
 34
0.0
100
AcDbRotatedDimension
1001
ACAD
1000
DSTYLE
1002
{
1070
   140
1040
6.0
1070
    74
1070
     0
1070
   172
1070
     1
1070
    73
1070
     0
1070
   272
1070
     2
1070
    77
1070
     3
1070
   173
1070
     1
1070
   147
1040
2.0
1070
    42
1040
6.0
1070
    44
1040
3.0
1070
    43
1040
14.0
1070
   271
1070
     0
1070
   178
1070
     4
1070
   177
1070
     4
1070
   176
1070
     4
1070
   141
1040
150.0
1070
     7
1000
_OPEN
1070
     6
1000
_OPEN
1070
    41
1040
7.0
1002
}
  0
DIMENSION
  5
5004
330
1A
100
AcDbEntity
  8
SUNPOU
 62
     4
 48
5.0
100
AcDbDimension
  2
*D2
 10
394.8297997447889
 20
261.0442361416441
 30
0.0
 11
414.1906841286165
 21
233.5478824709455
 31
0.0
 70
    33
 71
     5
 42
66.50994840798134
  3
STANDARD
100
AcDbAlignedDimension
 13
408.520177249696
 23
193.5168598780192
 33
0.0
 14
378.739967739834
 24
252.9871243702935
 34
0.0
1001
ACAD
1000
DSTYLE
1002
{
1070
   140
1040
6.0
1070
    74
1070
     0
1070
   172
1070
     1
1070
    73
1070
     0
1070
   272
1070
     2
1070
    77
1070
     3
1070
   173
1070
     1
1070
   147
1040
2.0
1070
    42
1040
6.0
1070
    44
1040
3.0
1070
    43
1040
14.0
1070
   271
1070
     0
1070
   178
1070
     4
1070
   177
1070
     4
1070
   176
1070
     4
1070
   141
1040
150.0
1070
     7
1000
_OPEN
1070
     6
1000
_OPEN
1070
    41
1040
7.0
1002
}
  0
TEXT
  5
5005
330
1A
100
AcDbEntity
  8
SUNPOU
 48
5.0
100
AcDbText
 10
378.6151165176634
 20
312.6204093376327
 30
0.0
 40
6.0
  1
スライド巾
100
AcDbText
  0
DIMENSION
  5
5006
330
1A
100
AcDbEntity
  8
SUNPOU
 62
     4
 48
5.0
100
AcDbDimension
  2
*D3
 10
418.8063867781603
 20
170.2949668684442
 30
0.0
 11
395.1078037373806
 21
164.0198444107331
 31
0.0
 70
    33
  1
t<>
 71
     5
 42
1.200008454136878
  3
STANDARD
100
AcDbAlignedDimension
 13
408.5156997812403
 23
193.5258014816913
 33
0.0
 14
407.4426997812403
 24
192.9885014816914
 34
0.0
1001
ACAD
1000
DSTYLE
1002
{
1070
   140
1040
6.0
1070
    74
1070
     0
1070
   172
1070
     1
1070
    73
1070
     0
1070
   272
1070
     2
1070
    77
1070
     3
1070
   173
1070
     1
1070
   147
1040
2.0
1070
    42
1040
6.0
1070
    44
1040
3.0
1070
    43
1040
14.0
1070
   271
1070
     1
1070
   178
1070
     4
1070
   177
1070
     4
1070
   176
1070
     4
1070
   141
1040
150.0
1070
     7
1000
_OPEN
1070
     6
1000
_OPEN
1070
    41
1040
7.0
1002
}
  0
DIMENSION
  5
5007
330
1A
100
AcDbEntity
  8
SUNPOU
 62
     4
 48
5.0
100
AcDbDimension
  2
*D4
 10
224.911226199632
 20
192.9885014816914
 30
0.0
 11
219.9112261996319
 21
219.8270514816914
 31
0.0
 70
    32
 71
     5
 42
53.67709999999991
  3
STANDARD
100
AcDbAlignedDimension
 13
248.4852997812403
 23
246.6656014816913
 33
0.0
 14
407.4426997812403
 24
192.9885014816913
 34
0.0
 50
90.0
100
AcDbRotatedDimension
1001
ACAD
1000
DSTYLE
1002
{
1070
   140
1040
6.0
1070
    74
1070
     0
1070
   172
1070
     1
1070
    73
1070
     0
1070
   272
1070
     2
1070
    77
1070
     3
1070
   173
1070
     1
1070
   147
1040
2.0
1070
    42
1040
6.0
1070
    44
1040
3.0
1070
    43
1040
14.0
1070
   271
1070
     0
1070
   178
1070
     4
1070
   177
1070
     4
1070
   176
1070
     4
1070
   141
1040
150.0
1070
     7
1000
_OPEN
1070
     6
1000
_OPEN
1070
    41
1040
7.0
1002
}
  0
ELLIPSE
  5
5008
330
1A
100
AcDbEntity
  8
SEIHIN
  6
Continuous
 48
5.0
100
AcDbEllipse
 10
404.9339530846012
 20
384.6269510144302
 30
0.0
 11
0.0
 21
2.100000000000023
 31
0.0
210
0.0
220
0.0
230
1.0
 40
0.4477642403742758
 41
0.0
 42
6.283185307179586
  0
DIMENSION
  5
5009
330
1A
100
AcDbEntity
  8
SUNPOU
 48
5.0
100
AcDbDimension
  2
*D5
 10
440.4388347207378
 20
357.1269510144302
 30
0.0
 11
435.4388347207377
 21
384.6269510144303
 31
0.0
 70
    32
 71
     5
 42
55.0
  3
STANDARD
100
AcDbAlignedDimension
 13
393.5158997812401
 23
412.1269510144302
 33
0.0
 14
393.5158997812401
 24
357.1269510144302
 34
0.0
 50
90.0
100
AcDbRotatedDimension
1001
ACAD
1000
DSTYLE
1002
{
1070
   140
1040
6.0
1070
    74
1070
     0
1070
   172
1070
     1
1070
    73
1070
     0
1070
   272
1070
     2
1070
    77
1070
     3
1070
   173
1070
     1
1070
   147
1040
2.0
1070
    42
1040
6.0
1070
    44
1040
3.0
1070
    43
1040
14.0
1070
   271
1070
     0
1070
   178
1070
     4
1070
   177
1070
     4
1070
   176
1070
     4
1070
   141
1040
150.0
1070
     7
1000
_OPEN
1070
     6
1000
_OPEN
1070
    41
1040
7.0
1002
}
  0
LINE
  5
500A
330
1A
100
AcDbEntity
  8
SEIHIN
  6
Continuous
 62
     3
 48
5.0
100
AcDbLine
 10
382.1444997812403
 20
243.5083014816913
 30
0.0
 11
407.4426997812403
 21
192.9885014816913
 31
0.0
  0
LINE
  5
500B
330
1A
100
AcDbEntity
  8
SEIHIN
  6
Continuous
 62
     3
 48
5.0
100
AcDbLine
 10
380.8699997812403
 20
248.7335014816913
 30
0.0
 11
408.5155997812403
 21
193.5259014816913
 31
0.0
  0
ARC
  5
500C
330
1A
100
AcDbEntity
  8
SEIHIN
  6
Continuous
 62
     3
 48
5.0
100
AcDbCircle
 10
381.8754997812644
 20
384.6267601886941
 30
0.0
 40
26.63997984552582
100
AcDbArc
 50
319.8032962180027
 51
40.19637054591073
  0
LINE
  5
500D
330
1A
100
AcDbEntity
  8
CENTER L
  6
CENTER
 62
     1
 48
5.0
100
AcDbLine
 10
240.3661997812402
 20
384.6269510144302
 30
0.0
 11
418.0255997812401
 21
384.6269510144302
 31
0.0
  0
LINE
  5
500E
330
1A
100
AcDbEntity
  8
CENTER L
  6
CENTER
 62
     1
 48
5.0
100
AcDbLine
 10
397.8734997812401
 20
197.1427014816913
 30
0.0
 11
407.2252997812403
 21
201.8258014816913
 31
0.0
  0
DIMENSION
  5
500F
330
1A
100
AcDbEntity
  8
SUNPOU
 62
     4
 48
5.0
100
AcDbDimension
  2
*D6
 10
378.739967739834
 20
286.8165698847142
 30
0.0
 11
329.1126337605371
 21
291.8165698847142
 31
0.0
 70
    32
 71
     5
 42
99.2546679585937
  3
STANDARD
100
AcDbAlignedDimension
 13
279.4852997812403
 23
217.3656014816913
 33
0.0
 14
378.739967739834
 24
252.9871243702935
 34
0.0
100
AcDbRotatedDimension
1001
ACAD
1000
DSTYLE
1002
{
1070
   140
1040
6.0
1070
    74
1070
     0
1070
   172
1070
     1
1070
    73
1070
     0
1070
   272
1070
     2
1070
    77
1070
     3
1070
   173
1070
     1
1070
   147
1040
2.0
1070
    42
1040
6.0
1070
    44
1040
3.0
1070
    43
1040
14.0
1070
   271
1070
     0
1070
   178
1070
     4
1070
   177
1070
     4
1070
   176
1070
     4
1070
   141
1040
150.0
1070
     7
1000
_OPEN
1070
     6
1000
_OPEN
1070
    41
1040
7.0
1002
}
  0
DIMENSION
  5
5010
330
1A
100
AcDbEntity
  8
SUNPOU
 62
     4
 48
5.0
100
AcDbDimension
  2
*D7
 10
378.739967739834
 20
301.2998246415698
 30
0.0
 11
313.6126337605372
 21
306.2998246415698
 31
0.0
 70
    32
 71
     5
 42
130.2546679585938
  3
STANDARD
100
AcDbAlignedDimension
 13
248.4852997812403
 23
246.6656014816913
 33
0.0
 14
378.739967739834
 24
252.9871243702935
 34
0.0
100
AcDbRotatedDimension
1001
ACAD
1000
DSTYLE
1002
{
1070
   140
1040
6.0
1070
    74
1070
     0
1070
   172
1070
     1
1070
    73
1070
     0
1070
   272
1070
     2
1070
    77
1070
     3
1070
   173
1070
     1
1070
   147
1040
2.0
1070
    42
1040
6.0
1070
    44
1040
3.0
1070
    43
1040
14.0
1070
   271
1070
     0
1070
   178
1070
     4
1070
   177
1070
     4
1070
   176
1070
     4
1070
   141
1040
150.0
1070
     7
1000
_OPEN
1070
     6
1000
_OPEN
1070
    41
1040
7.0
1002
}
  0
ARC
  5
5011
330
1A
100
AcDbEntity
  8
SEIHIN
  6
Continuous
 62
     3
 48
5.0
100
AcDbCircle
 10
275.1548086923492
 20
220.1655946473046
 30
0.0
 40
3.999993165623253
100
AcDbArc
 50
195.0269724869085
 51
269.9998723575504
  0
LINE
  5
5012
330
1A
100
AcDbEntity
  8
SEIHIN
  6
Continuous
 62
     3
 48
5.0
100
AcDbLine
 10
271.3200997812403
 20
210.1656014816913
 30
0.0
 11
357.9852997812401
 21
210.1656014816913
 31
0.0
  0
LINE
  5
5013
330
1A
100
AcDbEntity
  8
SEIHIN
  6
Continuous
 62
     3
 48
5.0
100
AcDbLine
 10
249.6852997812403
 20
246.6656014816913
 30
0.0
 11
249.6852997812403
 21
241.6656014816913
 31
0.0
  0
LINE
  5
5014
330
1A
100
AcDbEntity
  8
SEIHIN
  6
Continuous
 62
     3
 48
5.0
100
AcDbLine
 10
248.4852997812403
 20
246.6656014816913
 30
0.0
 11
248.4852997812403
 21
241.6656014816913
 31
0.0
  0
LINE
  5
5015
330
1A
100
AcDbEntity
  8
SEIHIN
  6
Continuous
 62
     3
 48
5.0
100
AcDbLine
 10
266.9663997812403
 20
235.2398014816913
 30
0.0
 11
271.2915997812403
 21
219.1285014816913
 31
0.0
  0
LINE
  5
5016
330
1A
100
AcDbEntity
  8
SEIHIN
  6
Continuous
 62
     3
 48
5.0
100
AcDbLine
 10
260.4795997812403
 20
236.2620014816913
 30
0.0
 11
266.4909997812402
 21
213.8692014816913
 31
0.0
  0
ARC
  5
5017
330
1A
100
AcDbEntity
  8
SEIHIN
  6
Continuous
 62
     3
 48
5.0
100
AcDbCircle
 10
271.3201066943676
 20
215.1655961796857
 30
0.0
 40
4.999994697999163
100
AcDbArc
 50
195.027297593521
 51
269.9999207813112
  0
LINE
  5
5018
330
1A
100
AcDbEntity
  8
SEIHIN
  6
Continuous
 62
     3
 48
5.0
100
AcDbLine
 10
250.1852997812402
 20
241.1656014816913
 30
0.0
 11
259.2399997812403
 21
241.1656014816913
 31
0.0
  0
ARC
  5
5019
330
1A
100
AcDbEntity
  8
SEIHIN
  6
Continuous
 62
     3
 48
5.0
100
AcDbCircle
 10
255.6505558318833
 20
234.9655584935608
 30
0.0
 40
5.000042988444615
100
AcDbArc
 50
15.02772199122878
 51
90.00064228753482
  0
ARC
  5
501A
330
1A
100
AcDbEntity
  8
SEIHIN
  6
Continuous
 62
     3
 48
5.0
100
AcDbCircle
 10
250.1852997812402
 20
241.6656014816912
 30
0.0
 40
1.69999999999996
100
AcDbArc
 50
179.9999999999984
 51
269.9999999999984
  0
ARC
  5
501B
330
1A
100
AcDbEntity
  8
SEIHIN
  6
Continuous
 62
     3
 48
5.0
100
AcDbCircle
 10
250.1852997812403
 20
241.6656014816912
 30
0.0
 40
0.4999999999999574
100
AcDbArc
 50
179.9999999999951
 51
269.9999999999951
  0
LINE
  5
501C
330
1A
100
AcDbEntity
  8
SEIHIN
  6
Continuous
 62
     3
 48
5.0
100
AcDbLine
 10
250.1852997812402
 20
239.9656014816912
 30
0.0
 11
255.6504997812402
 21
239.9656014816912
 31
0.0
  0
ARC
  5
501D
330
1A
100
AcDbEntity
  8
SEIHIN
  6
Continuous
 62
     3
 48
5.0
100
AcDbCircle
 10
259.2399819590227
 20
233.1656151504647
 30
0.0
 40
7.999986331246459
100
AcDbArc
 50
15.02697248690845
 51
89.99987235755043
  0
LINE
  5
501E
330
1A
100
AcDbEntity
  8
SEIHIN
  6
Continuous
 62
     3
 48
5.0
100
AcDbLine
 10
248.4852997812403
 20
246.6656014816913
 30
0.0
 11
249.6852997812403
 21
246.6656014816913
 31
0.0
  0
LINE
  5
501F
330
1A
100
AcDbEntity
  8
SEIHIN
  6
Continuous
 62
     3
 48
5.0
100
AcDbLine
 10
295.9575997812403
 20
198.2331014816913
 30
0.0
 11
295.0349997812403
 21
201.7096014816913
 31
0.0
  0
LINE
  5
5020
330
1A
100
AcDbEntity
  8
SEIHIN
  6
Continuous
 62
     3
 48
5.0
100
AcDbLine
 10
293.9854997812402
 20
201.7656014816913
 30
0.0
 11
294.9909997812401
 21
197.9766014816913
 31
0.0
  0
LINE
  5
5021
330
1A
100
AcDbEntity
  8
SEIHIN
  6
Continuous
 62
     3
 48
5.0
100
AcDbLine
 10
297.1907997812403
 20
197.0623014816913
 30
0.0
 11
301.6650997812401
 21
199.6455014816913
 31
0.0
  0
LINE
  5
5022
330
1A
100
AcDbEntity
  8
SEIHIN
  6
Continuous
 62
     3
 48
5.0
100
AcDbLine
 10
301.1650997812401
 20
200.5115014816913
 30
0.0
 11
296.6907997812403
 21
197.9283014816913
 31
0.0
  0
LINE
  5
5023
330
1A
100
AcDbEntity
  8
SEIHIN
  6
Continuous
 62
     3
 48
5.0
100
AcDbLine
 10
283.0129997812403
 20
198.2331014816913
 30
0.0
 11
283.9356997812402
 21
201.7096014816913
 31
0.0
  0
LINE
  5
5024
330
1A
100
AcDbEntity
  8
SEIHIN
  6
Continuous
 62
     3
 48
5.0
100
AcDbLine
 10
277.8055997812403
 20
200.5115014816913
 30
0.0
 11
282.2797997812403
 21
197.9283014816913
 31
0.0
  0
LINE
  5
5025
330
1A
100
AcDbEntity
  8
SEIHIN
  6
Continuous
 62
     3
 48
5.0
100
AcDbLine
 10
281.7797997812403
 20
197.0623014816913
 30
0.0
 11
277.3055997812403
 21
199.6455014816913
 31
0.0
  0
LINE
  5
5026
330
1A
100
AcDbEntity
  8
SEIHIN
  6
Continuous
 62
     3
 48
5.0
100
AcDbLine
 10
284.9850997812402
 20
201.7656014816913
 30
0.0
 11
283.9795997812403
 21
197.9766014816913
 31
0.0
  0
LINE
  5
5027
330
1A
100
AcDbEntity
  8
SEIHIN
  6
Continuous
 62
     3
 48
5.0
100
AcDbLine
 10
291.8854997812403
 20
201.7656014816913
 30
0.0
 11
291.8854997812403
 21
195.3656014816913
 31
0.0
  0
LINE
  5
5028
330
1A
100
AcDbEntity
  8
SEIHIN
  6
Continuous
 62
     3
 48
5.0
100
AcDbLine
 10
292.4854997812403
 20
195.3656014816913
 30
0.0
 11
292.4854997812403
 21
201.7656014816913
 31
0.0
  0
LINE
  5
5029
330
1A
100
AcDbEntity
  8
SEIHIN
  6
Continuous
 62
     3
 48
5.0
100
AcDbLine
 10
286.4854997812403
 20
195.3656014816913
 30
0.0
 11
286.4854997812403
 21
201.7656014816913
 31
0.0
  0
LINE
  5
502A
330
1A
100
AcDbEntity
  8
SEIHIN
  6
Continuous
 62
     3
 48
5.0
100
AcDbLine
 10
287.0854997812403
 20
201.7656014816913
 30
0.0
 11
287.0854997812403
 21
195.3656014816913
 31
0.0
  0
LINE
  5
502B
330
1A
100
AcDbEntity
  8
CENTER L
  6
CENTER
 62
     1
 48
5.0
100
AcDbLine
 10
289.4852997812403
 20
191.6301014816913
 30
0.0
 11
289.4852997812403
 21
222.7934014816914
 31
0.0
  0
LINE
  5
502C
330
1A
100
AcDbEntity
  8
SEIHIN
  6
Continuous
 62
     3
 48
5.0
100
AcDbLine
 10
286.4854997812403
 20
195.3656014816913
 30
0.0
 11
292.4854997812403
 21
195.3656014816913
 31
0.0
  0
ARC
  5
502D
330
1A
100
AcDbEntity
  8
SEIHIN
  6
Continuous
 62
     3
 48
5.0
100
AcDbCircle
 10
282.5297581944981
 20
198.361284196256
 30
0.0
 40
0.4999532372834785
100
AcDbArc
 50
240.0024091130785
 51
345.1440702905549
  0
ARC
  5
502E
330
1A
100
AcDbEntity
  8
SEIHIN
  6
Continuous
 62
     3
 48
5.0
100
AcDbCircle
 10
282.5298023260008
 20
198.3613025393701
 30
0.0
 40
1.499969188016212
100
AcDbArc
 50
239.9992082390973
 51
345.139136473108
  0
ARC
  5
502F
330
1A
100
AcDbEntity
  8
SEIHIN
  6
Continuous
 62
     3
 48
5.0
100
AcDbCircle
 10
296.4407972364797
 20
198.3613025393702
 30
0.0
 40
1.499969188016305
100
AcDbArc
 50
194.860863526894
 51
300.0007917609045
  0
ARC
  5
5030
330
1A
100
AcDbEntity
  8
SEIHIN
  6
Continuous
 62
     3
 48
5.0
100
AcDbCircle
 10
296.4408413679824
 20
198.361284196256
 30
0.0
 40
0.49995323728348
100
AcDbArc
 50
194.8559297094451
 51
299.9975908869216
  0
ARC
  5
5031
330
1A
100
AcDbEntity
  8
SEIHIN
  6
Continuous
 62
     3
 48
5.0
100
AcDbCircle
 10
336.063197798276
 20
222.165600420441
 30
0.0
 40
5.99999893875008
100
AcDbArc
 50
270.0000189359164
 51
326.3099514099363
  0
LINE
  5
5032
330
1A
100
AcDbEntity
  8
SEIHIN
  6
Continuous
 62
     3
 48
5.0
100
AcDbLine
 10
318.1511997812403
 20
247.6863014816912
 30
0.0
 11
374.0007997812403
 21
252.5725014816912
 31
0.0
  0
LINE
  5
5033
330
1A
100
AcDbEntity
  8
SEIHIN
  6
Continuous
 62
     3
 48
5.0
100
AcDbLine
 10
370.7398997812401
 20
245.2605014816912
 30
0.0
 11
321.3796997812403
 21
240.9421014816912
 31
0.0
  0
LINE
  5
5034
330
1A
100
AcDbEntity
  8
SEIHIN
  6
Continuous
 62
     3
 48
5.0
100
AcDbLine
 10
357.9852997812401
 20
209.7656014816913
 30
0.0
 11
274.9852997812403
 21
209.7656014816913
 31
0.0
  0
ARC
  5
5035
330
1A
100
AcDbEntity
  8
SEIHIN
  6
Continuous
 62
     3
 48
5.0
100
AcDbCircle
 10
318.7612187558762
 20
240.7130136774434
 30
0.0
 40
6.999918995980446
100
AcDbArc
 50
94.99947279329311
 51
150.4617847015595
  0
LINE
  5
5036
330
1A
100
AcDbEntity
  8
SEIHIN
  6
Continuous
 62
     3
 48
5.0
100
AcDbLine
 10
304.8510997812403
 20
216.1656014816913
 30
0.0
 11
336.0631997812403
 21
216.1656014816913
 31
0.0
  0
LINE
  5
5037
330
1A
100
AcDbEntity
  8
SEIHIN
  6
Continuous
 62
     3
 48
5.0
100
AcDbLine
 10
303.5754997812403
 20
213.9145014816913
 30
0.0
 11
317.4653997812403
 21
238.4262014816912
 31
0.0
  0
LINE
  5
5038
330
1A
100
AcDbEntity
  8
SEIHIN
  6
Continuous
 62
     3
 48
5.0
100
AcDbLine
 10
297.4852997812401
 20
217.3656014816913
 30
0.0
 11
312.6710997812403
 21
244.1641014816913
 31
0.0
  0
LINE
  5
5039
330
1A
100
AcDbEntity
  8
SEIHIN
  6
Continuous
 62
     3
 48
5.0
100
AcDbLine
 10
294.4854997812402
 20
218.3656014816913
 30
0.0
 11
284.4854997812403
 21
218.3656014816913
 31
0.0
  0
LINE
  5
503A
330
1A
100
AcDbEntity
  8
SEIHIN
  6
Continuous
 62
     3
 48
5.0
100
AcDbLine
 10
279.4852997812403
 20
217.3656014816913
 30
0.0
 11
297.4852997812401
 21
217.3656014816913
 31
0.0
  0
LINE
  5
503B
330
1A
100
AcDbEntity
  8
SEIHIN
  6
Continuous
 62
     3
 48
5.0
100
AcDbLine
 10
284.9854997812403
 20
201.7656014816913
 30
0.0
 11
293.9854997812402
 21
201.7656014816913
 31
0.0
  0
LINE
  5
503C
330
1A
100
AcDbEntity
  8
SEIHIN
  6
Continuous
 62
     3
 48
5.0
100
AcDbLine
 10
297.4852997812401
 20
210.3656014816913
 30
0.0
 11
279.4852997812403
 21
210.3656014816913
 31
0.0
  0
LINE
  5
503D
330
1A
100
AcDbEntity
  8
SEIHIN
  6
Continuous
 62
     3
 48
5.0
100
AcDbLine
 10
282.9854997812403
 20
207.7656014816913
 30
0.0
 11
295.9854997812402
 21
207.7656014816913
 31
0.0
  0
ARC
  5
503E
330
1A
100
AcDbEntity
  8
SEIHIN
  6
Continuous
 62
     3
 48
5.0
100
AcDbCircle
 10
289.4854997812402
 20
210.7822014807723
 30
0.0
 40
9.083388991667036
100
AcDbArc
 50
56.60174301240055
 51
123.3982569875994
  0
LINE
  5
503F
330
1A
100
AcDbEntity
  8
SEIHIN
  6
Continuous
 62
     3
 48
5.0
100
AcDbLine
 10
279.4852997812403
 20
210.3656014816913
 30
0.0
 11
279.4852997812403
 21
217.3656014816913
 31
0.0
  0
LINE
  5
5040
330
1A
100
AcDbEntity
  8
SEIHIN
  6
Continuous
 62
     3
 48
5.0
100
AcDbLine
 10
277.7377997812402
 20
201.3306014816913
 30
0.0
 11
282.6148997812402
 21
205.3432014816913
 31
0.0
  0
LINE
  5
5041
330
1A
100
AcDbEntity
  8
SEIHIN
  6
Continuous
 62
     3
 48
5.0
100
AcDbLine
 10
283.9850997812402
 20
207.7656014816913
 30
0.0
 11
277.1025997812402
 21
202.1029014816913
 31
0.0
  0
ARC
  5
5042
330
1A
100
AcDbEntity
  8
SEIHIN
  6
Continuous
 62
     3
 48
5.0
100
AcDbCircle
 10
278.0555957166329
 20
200.9445506202821
 30
0.0
 40
0.5000295232753433
100
AcDbArc
 50
129.461111223072
 51
240.0024908903575
  0
ARC
  5
5043
330
1A
100
AcDbEntity
  8
SEIHIN
  6
Continuous
 62
     3
 48
5.0
100
AcDbCircle
 10
278.0555964670904
 20
200.9445416083405
 30
0.0
 40
1.500000093143646
100
AcDbArc
 50
129.444544708761
 51
240.0001482289188
  0
LINE
  5
5044
330
1A
100
AcDbEntity
  8
SEIHIN
  6
Continuous
 62
     3
 48
5.0
100
AcDbLine
 10
274.9852997812403
 20
210.1656014816913
 30
0.0
 11
274.9852997812403
 21
209.7656014816913
 31
0.0
  0
LINE
  5
5045
330
1A
100
AcDbEntity
  8
SEIHIN
  6
Continuous
 62
     3
 48
5.0
100
AcDbLine
 10
282.9854997812403
 20
207.7656014816913
 30
0.0
 11
282.9854997812403
 21
209.7656014816913
 31
0.0
  0
LINE
  5
5046
330
1A
100
AcDbEntity
  8
SEIHIN
  6
Continuous
 62
     3
 48
5.0
100
AcDbLine
 10
283.4256997812403
 20
205.0393014816913
 30
0.0
 11
283.9455997812403
 21
201.9200014816913
 31
0.0
  0
ARC
  5
5047
330
1A
100
AcDbEntity
  8
SEIHIN
  6
Continuous
 62
     3
 48
5.0
100
AcDbCircle
 10
282.9324979321749
 20
204.9571021746591
 30
0.0
 40
0.5000047899751204
100
AcDbArc
 50
9.462209047227988
 51
129.4489319853292
  0
ARC
  5
5048
330
1A
100
AcDbEntity
  8
SEIHIN
  6
Continuous
 62
     3
 48
5.0
100
AcDbCircle
 10
283.4523938223829
 20
201.8377755025693
 30
0.0
 40
0.5000132293200461
100
AcDbArc
 50
345.1469243947031
 51
9.465146358934902
  0
LINE
  5
5049
330
1A
100
AcDbEntity
  8
SEIHIN
  6
Continuous
 62
     3
 48
5.0
100
AcDbLine
 10
283.9854997812402
 20
207.7656014816913
 30
0.0
 11
284.9854997812403
 21
201.7656014816913
 31
0.0
  0
LINE
  5
504A
330
1A
100
AcDbEntity
  8
SEIHIN
  6
Continuous
 62
     3
 48
5.0
100
AcDbLine
 10
275.1547997812403
 20
216.1656014816913
 30
0.0
 11
279.4852997812403
 21
216.1656014816913
 31
0.0
  0
LINE
  5
504B
330
1A
100
AcDbEntity
  8
SEIHIN
  6
Continuous
 62
     3
 48
5.0
100
AcDbLine
 10
284.4854997812403
 20
217.3656014816913
 30
0.0
 11
284.4854997812403
 21
218.3655014816913
 31
0.0
  0
ARC
  5
504C
330
1A
100
AcDbEntity
  8
SEIHIN
  6
Continuous
 62
     3
 48
5.0
100
AcDbCircle
 10
297.4853382239116
 20
217.3656238834055
 30
0.0
 40
7.000022401819696
100
AcDbArc
 50
269.9996853434609
 51
330.4609980330072
  0
LINE
  5
504D
330
1A
100
AcDbEntity
  8
SEIHIN
  6
Continuous
 62
     3
 48
5.0
100
AcDbLine
 10
301.2326997812403
 20
201.3306014816913
 30
0.0
 11
296.3557997812401
 21
205.3432014816913
 31
0.0
  0
LINE
  5
504E
330
1A
100
AcDbEntity
  8
SEIHIN
  6
Continuous
 62
     3
 48
5.0
100
AcDbLine
 10
294.9854997812403
 20
207.7656014816913
 30
0.0
 11
301.8680997812403
 21
202.1028014816912
 31
0.0
  0
LINE
  5
504F
330
1A
100
AcDbEntity
  8
SEIHIN
  6
Continuous
 62
     3
 48
5.0
100
AcDbLine
 10
295.9854997812402
 20
207.7656014816913
 30
0.0
 11
295.9854997812402
 21
209.7656014816913
 31
0.0
  0
LINE
  5
5050
330
1A
100
AcDbEntity
  8
SEIHIN
  6
Continuous
 62
     3
 48
5.0
100
AcDbLine
 10
295.5448997812401
 20
205.0393014816913
 30
0.0
 11
295.0249997812401
 21
201.9200014816913
 31
0.0
  0
ARC
  5
5051
330
1A
100
AcDbEntity
  8
SEIHIN
  6
Continuous
 62
     3
 48
5.0
100
AcDbCircle
 10
296.0381016303055
 20
204.9571021746591
 30
0.0
 40
0.5000047899751203
100
AcDbArc
 50
50.55106801467084
 51
170.537790952772
  0
ARC
  5
5052
330
1A
100
AcDbEntity
  8
SEIHIN
  6
Continuous
 62
     3
 48
5.0
100
AcDbCircle
 10
295.5181948976654
 20
201.8380046716358
 30
0.0
 40
0.4999648984928988
100
AcDbArc
 50
170.5605544488628
 51
194.8817169330638
  0
LINE
  5
5053
330
1A
100
AcDbEntity
  8
SEIHIN
  6
Continuous
 62
     3
 48
5.0
100
AcDbLine
 10
293.9854997812402
 20
201.7656014816913
 30
0.0
 11
294.9854997812403
 21
207.7656014816913
 31
0.0
  0
ARC
  5
5054
330
1A
100
AcDbEntity
  8
SEIHIN
  6
Continuous
 62
     3
 48
5.0
100
AcDbCircle
 10
300.9150992284397
 20
200.9444947902896
 30
0.0
 40
1.499961481166822
100
AcDbArc
 50
300.0008738701078
 51
50.55405057813375
  0
ARC
  5
5055
330
1A
100
AcDbEntity
  8
SEIHIN
  6
Continuous
 62
     3
 48
5.0
100
AcDbCircle
 10
300.9150974771279
 20
200.9444735739365
 30
0.0
 40
0.4999659835675195
100
AcDbArc
 50
300.0025555935127
 51
50.56163232119561
  0
LINE
  5
5056
330
1A
100
AcDbEntity
  8
SEIHIN
  6
Continuous
 62
     3
 48
5.0
100
AcDbLine
 10
294.4854997812402
 20
217.3656014816913
 30
0.0
 11
294.4854997812402
 21
218.3656014816913
 31
0.0
  0
ARC
  5
5057
330
1A
100
AcDbEntity
  8
SEIHIN
  6
Continuous
 62
     3
 48
5.0
100
AcDbCircle
 10
321.8155173736236
 20
235.9611127890303
 30
0.0
 40
5.000018532990425
100
AcDbArc
 50
95.0004286366263
 51
150.4609978393731
  0
DIMENSION
  5
5058
330
1A
100
AcDbEntity
  8
SUNPOU
 62
     4
 48
5.0
100
AcDbDimension
  2
*D8
 10
378.739967739834
 20
272.5747019786338
 30
0.0
 11
349.4852997812403
 21
272.5747019786338
 31
0.0
 70
   160
 71
     5
 42
9.7546679585937
  3
STANDARD
100
AcDbAlignedDimension
 13
368.9852997812403
 23
228.9656014816912
 33
0.0
 14
378.739967739834
 24
252.9871243702935
 34
0.0
100
AcDbRotatedDimension
1001
ACAD
1000
DSTYLE
1002
{
1070
   288
1070
     1
1070
   140
1040
6.0
1070
    74
1070
     0
1070
   172
1070
     1
1070
    73
1070
     0
1070
   272
1070
     2
1070
    77
1070
     3
1070
   173
1070
     1
1070
   147
1040
2.0
1070
    42
1040
6.0
1070
    44
1040
3.0
1070
    43
1040
14.0
1070
   271
1070
     0
1070
   178
1070
     4
1070
   177
1070
     4
1070
   176
1070
     4
1070
   141
1040
150.0
1070
     7
1000
_OPEN
1070
     6
1000
_OPEN
1070
    41
1040
7.0
1002
}
  0
LINE
  5
5059
330
1A
100
AcDbEntity
  8
SEIHIN
  6
Continuous
 62
     3
 48
5.0
100
AcDbLine
 10
380.8699997812403
 20
248.7335014816913
 30
0.0
 11
370.7398997812401
 21
245.2605014816912
 31
0.0
  0
LINE
  5
505A
330
1A
100
AcDbEntity
  8
SEIHIN
  6
Continuous
 62
     3
 48
5.0
100
AcDbLine
 10
370.7398997812401
 20
245.2605014816912
 30
0.0
 11
382.1444997812403
 21
243.5083014816913
 31
0.0
  0
ARC
  5
505B
330
1A
100
AcDbEntity
  8
SEIHIN
  6
Continuous
 62
     3
 48
5.0
100
AcDbCircle
 10
368.9853322646622
 20
209.6656167220869
 30
0.0
 40
2.499967516624308
100
AcDbArc
 50
230.2692019546699
 51
359.9996507113228
  0
ARC
  5
505C
330
1A
100
AcDbEntity
  8
SEIHIN
  6
Continuous
 62
     3
 48
5.0
100
AcDbCircle
 10
368.4852997812403
 20
232.3656014816913
 30
0.0
 40
5.000000000000028
100
AcDbArc
 50
0.0
 51
90.0
  0
LINE
  5
505D
330
1A
100
AcDbEntity
  8
SEIHIN
  6
Continuous
 62
     3
 48
5.0
100
AcDbLine
 10
344.2665997812401
 20
212.8374014816913
 30
0.0
 11
355.5166997812403
 21
229.7126014816913
 31
0.0
  0
LINE
  5
505E
330
1A
100
AcDbEntity
  8
SEIHIN
  6
Continuous
 62
     3
 48
5.0
100
AcDbLine
 10
370.2852997812401
 20
209.6656014816913
 30
0.0
 11
370.2852997812401
 21
231.1656014816913
 31
0.0
  0
LINE
  5
505F
330
1A
100
AcDbEntity
  8
SEIHIN
  6
Continuous
 62
     3
 48
5.0
100
AcDbLine
 10
350.5242997812401
 20
233.0408014816912
 30
0.0
 11
341.0554997812401
 21
218.8374014816913
 31
0.0
  0
ARC
  5
5060
330
1A
100
AcDbEntity
  8
SEIHIN
  6
Continuous
 62
     3
 48
5.0
100
AcDbCircle
 10
339.2742755326837
 20
216.165642023084
 30
0.0
 40
6.000040541870953
100
AcDbArc
 50
269.9992766318869
 51
326.309738798419
  0
LINE
  5
5061
330
1A
100
AcDbEntity
  8
SEIHIN
  6
Continuous
 62
     3
 48
5.0
100
AcDbLine
 10
362.4852997812403
 20
211.8171014816913
 30
0.0
 11
367.3873997812403
 21
207.7430014816913
 31
0.0
  0
LINE
  5
5062
330
1A
100
AcDbEntity
  8
SEIHIN
  6
Continuous
 62
     3
 48
5.0
100
AcDbLine
 10
368.1543997812401
 20
208.6658014816914
 30
0.0
 11
363.2522997812401
 21
212.7400014816913
 31
0.0
  0
LINE
  5
5063
330
1A
100
AcDbEntity
  8
SEIHIN
  6
Continuous
 62
     3
 48
5.0
100
AcDbLine
 10
357.9852997812401
 20
210.1655014816913
 30
0.0
 11
357.9852997812401
 21
209.7656014816913
 31
0.0
  0
ARC
  5
5064
330
1A
100
AcDbEntity
  8
SEIHIN
  6
Continuous
 62
     3
 48
5.0
100
AcDbCircle
 10
368.9853007716255
 20
209.6656019463721
 30
0.0
 40
1.299999009614714
100
AcDbArc
 50
230.2711541294548
 51
359.9999795197943
  0
LINE
  5
5065
330
1A
100
AcDbEntity
  8
SEIHIN
  6
Continuous
 62
     3
 48
5.0
100
AcDbLine
 10
362.4852997812403
 20
211.8171014816913
 30
0.0
 11
363.3337997812401
 21
212.6656014816913
 31
0.0
  0
ARC
  5
5066
330
1A
100
AcDbEntity
  8
SEIHIN
  6
Continuous
 62
     3
 48
5.0
100
AcDbCircle
 10
363.8372050691446
 20
224.1656043116918
 30
0.0
 40
15.99999717000037
100
AcDbArc
 50
90.00001893591646
 51
146.3099514099363
  0
ARC
  5
5067
330
1A
100
AcDbEntity
  8
SEIHIN
  6
Continuous
 62
     3
 48
5.0
100
AcDbCircle
 10
367.2852997812402
 20
231.1656014816914
 30
0.0
 40
2.999999999999915
100
AcDbArc
 50
359.9999999999984
 51
89.99999999999837
  0
ARC
  5
5068
330
1A
100
AcDbEntity
  8
SEIHIN
  6
Continuous
 62
     3
 48
5.0
100
AcDbCircle
 10
363.8372030861805
 20
224.1656032504417
 30
0.0
 40
9.999998231250224
100
AcDbArc
 50
90.00001893591646
 51
146.3099514099363
  0
LINE
  5
5069
330
1A
100
AcDbEntity
  8
SEIHIN
  6
Continuous
 62
     3
 48
5.0
100
AcDbLine
 10
367.2852997812403
 20
234.1656014816913
 30
0.0
 11
363.8371997812403
 21
234.1656014816913
 31
0.0
  0
ARC
  5
506A
330
1A
100
AcDbEntity
  8
SEIHIN
  6
Continuous
 62
     3
 48
5.0
100
AcDbCircle
 10
363.9941202893018
 20
235.1680891275915
 30
0.0
 40
4.999975377462357
100
AcDbArc
 50
26.07227918679287
 51
91.79848074586521
  0
LINE
  5
506B
330
1A
100
AcDbEntity
  8
CENTER L
  6
CENTER
 62
     1
 48
5.0
100
AcDbLine
 10
385.0582997812403
 20
222.0407014816913
 30
0.0
 11
395.9095997812403
 21
227.4746014816914
 31
0.0
  0
LINE
  5
506C
330
1A
100
AcDbEntity
  8
SEIHIN
  6
Continuous
 62
     3
 48
5.0
100
AcDbLine
 10
373.4852997812403
 20
213.3656014816913
 30
0.0
 11
373.4852997812403
 21
232.3656014816913
 31
0.0
  0
LINE
  5
506D
330
1A
100
AcDbEntity
  8
SEIHIN
  6
Continuous
 62
     3
 48
5.0
100
AcDbLine
 10
378.5096997812403
 20
244.0667014816913
 30
0.0
 11
392.0886997812403
 21
216.9498014816913
 31
0.0
  0
LINE
  5
506E
330
1A
100
AcDbEntity
  8
SEIHIN
  6
Continuous
 62
     3
 48
5.0
100
AcDbLine
 10
371.4852997812401
 20
209.6656014816913
 30
0.0
 11
371.4852997812401
 21
211.3656014816913
 31
0.0
  0
ARC
  5
506F
330
1A
100
AcDbEntity
  8
SEIHIN
  6
Continuous
 62
     3
 48
5.0
100
AcDbCircle
 10
371.4852997812401
 20
213.3656014816914
 30
0.0
 40
2.000000000000085
100
AcDbArc
 50
269.9999999999968
 51
359.9999999999968
  0
ARC
  5
5070
330
1A
100
AcDbEntity
  8
SEIHIN
  6
Continuous
 62
     3
 48
5.0
100
AcDbCircle
 10
394.7711697390565
 20
218.2931114758525
 30
0.0
 40
3.000021135758804
100
AcDbArc
 50
206.6004969648349
 51
296.5987892563579
  0
ARC
  5
5071
330
1A
100
AcDbEntity
  8
SEIHIN
  6
Continuous
 62
     3
 48
5.0
100
AcDbCircle
 10
388.5025997812401
 20
230.8113014816913
 30
0.0
 40
1.999984284938236
100
AcDbArc
 50
206.5996431105961
 51
296.5996431105961
  0
LINE
  5
5072
330
1A
100
AcDbEntity
  8
CENTER L
  6
CENTER
 62
     1
 48
5.0
100
AcDbLine
 10
382.3121997812403
 20
227.3761014816913
 30
0.0
 11
393.4847997812403
 21
232.9708014816913
 31
0.0
  0
LINE
  5
5073
330
1A
100
AcDbEntity
  8
SEIHIN
  6
Continuous
 62
     3
 48
5.0
100
AcDbLine
 10
379.7212997812401
 20
243.8806014816913
 30
0.0
 11
386.7142997812401
 21
229.9158014816912
 31
0.0
  0
LINE
  5
5074
330
1A
100
AcDbEntity
  8
SEIHIN
  6
Continuous
 62
     3
 48
5.0
100
AcDbLine
 10
382.1444997812403
 20
243.5083014816913
 30
0.0
 11
383.2174997812402
 21
244.0456014816913
 31
0.0
  0
ARC
  5
5075
330
1A
100
AcDbEntity
  8
SEIHIN
  6
Continuous
 62
     3
 48
5.0
100
AcDbCircle
 10
374.6109571539003
 20
245.599169417163
 30
0.0
 40
6.99997515006944
100
AcDbArc
 50
26.60027074478223
 51
95.00056971962168
  0
LINE
  5
5076
330
1A
100
AcDbEntity
  8
SEIHIN
  6
Continuous
 62
     3
 48
5.0
100
AcDbLine
 10
256.4852997812403
 20
377.1269510144302
 30
0.0
 11
279.4853997812403
 21
377.1269510144302
 31
0.0
  0
LINE
  5
5077
330
1A
100
AcDbEntity
  8
SEIHIN
  6
Continuous
 62
     3
 48
5.0
100
AcDbLine
 10
256.4852997812403
 20
392.1269510144302
 30
0.0
 11
279.4853997812403
 21
392.1269510144302
 31
0.0
  0
LINE
  5
5078
330
1A
100
AcDbEntity
  8
SEIHIN
  6
Continuous
 62
     3
 48
5.0
100
AcDbLine
 10
253.6852997812403
 20
390.92695101443
 30
0.0
 11
279.4853997812403
 21
390.92695101443
 31
0.0
  0
LINE
  5
5079
330
1A
100
AcDbEntity
  8
SEIHIN
  6
Continuous
 62
     3
 48
5.0
100
AcDbLine
 10
253.6852997812403
 20
378.3269510144302
 30
0.0
 11
279.4853997812403
 21
378.3269510144302
 31
0.0
  0
DIMENSION
  5
507A
330
1A
100
AcDbEntity
  8
SUNPOU
 48
5.0
100
AcDbDimension
  2
*D9
 10
224.911226199632
 20
373.6269510144302
 30
0.0
 11
219.9112261996319
 21
384.6269510144302
 31
0.0
 70
    32
 71
     5
 42
22.0
  3
STANDARD
100
AcDbAlignedDimension
 13
248.4852997812403
 23
395.6269510144302
 33
0.0
 14
248.4852997812403
 24
373.6269510144302
 34
0.0
 50
90.0
100
AcDbRotatedDimension
1001
ACAD
1000
DSTYLE
1002
{
1070
   140
1040
6.0
1070
    74
1070
     0
1070
   172
1070
     1
1070
    73
1070
     0
1070
   272
1070
     2
1070
    77
1070
     3
1070
   173
1070
     1
1070
   147
1040
2.0
1070
    42
1040
6.0
1070
    44
1040
3.0
1070
    43
1040
14.0
1070
   271
1070
     0
1070
   178
1070
     4
1070
   177
1070
     4
1070
   176
1070
     4
1070
   141
1040
150.0
1070
     7
1000
_OPEN
1070
     6
1000
_OPEN
1070
    41
1040
7.0
1002
}
  0
ARC
  5
507B
330
1A
100
AcDbEntity
  8
SEIHIN
  6
Continuous
 62
     3
 48
5.0
100
AcDbCircle
 10
261.1852997812403
 20
384.6269510144302
 30
0.0
 40
2.0
100
AcDbArc
 50
270.0
 51
90.0
  0
ARC
  5
507C
330
1A
100
AcDbEntity
  8
SEIHIN
  6
Continuous
 62
     3
 48
5.0
100
AcDbCircle
 10
256.6852997812403
 20
384.6269510144302
 30
0.0
 40
2.0
100
AcDbArc
 50
90.0
 51
270.0
  0
LINE
  5
507D
330
1A
100
AcDbEntity
  8
SEIHIN
  6
Continuous
 62
     3
 48
5.0
100
AcDbLine
 10
249.6852997812403
 20
384.6269510144302
 30
0.0
 11
249.6852997812403
 21
395.6269510144302
 31
0.0
  0
LINE
  5
507E
330
1A
100
AcDbEntity
  8
SEIHIN
  6
Continuous
 62
     3
 48
5.0
100
AcDbLine
 10
248.4852997812403
 20
373.6269510144302
 30
0.0
 11
248.4853997812402
 21
395.6269510144302
 31
0.0
  0
LINE
  5
507F
330
1A
100
AcDbEntity
  8
SEIHIN
  6
Continuous
 62
     3
 48
5.0
100
AcDbLine
 10
248.4852997812403
 20
373.6269510144302
 30
0.0
 11
249.6852997812403
 21
373.6269510144302
 31
0.0
  0
ARC
  5
5080
330
1A
100
AcDbEntity
  8
SEIHIN
  6
Continuous
 62
     3
 48
5.0
100
AcDbCircle
 10
253.6852997812403
 20
374.3269510144302
 30
0.0
 40
4.0
100
AcDbArc
 50
90.0
 51
180.0
  0
LINE
  5
5081
330
1A
100
AcDbEntity
  8
SEIHIN
  6
Continuous
 62
     3
 48
5.0
100
AcDbLine
 10
249.6852997812403
 20
373.6269510144302
 30
0.0
 11
249.6852997812403
 21
384.6269510144302
 31
0.0
  0
LINE
  5
5082
330
1A
100
AcDbEntity
  8
SEIHIN
  6
Continuous
 62
     3
 48
5.0
100
AcDbLine
 10
256.6852997812403
 20
382.6269510144302
 30
0.0
 11
261.1852997812403
 21
382.6269510144302
 31
0.0
  0
LINE
  5
5083
330
1A
100
AcDbEntity
  8
SEIHIN
  6
Continuous
 62
     3
 48
5.0
100
AcDbLine
 10
256.4852997812403
 20
377.1269510144302
 30
0.0
 11
256.4852997812403
 21
378.3269510144302
 31
0.0
  0
LINE
  5
5084
330
1A
100
AcDbEntity
  8
SEIHIN
  6
Continuous
 62
     3
 48
5.0
100
AcDbLine
 10
259.4853997812402
 20
382.6269510144302
 30
0.0
 11
259.4853997812402
 21
379.7389510144301
 31
0.0
  0
LINE
  5
5085
330
1A
100
AcDbEntity
  8
SEIHIN
  6
Continuous
 62
     3
 48
5.0
100
AcDbLine
 10
272.0870997812403
 20
377.1269510144302
 30
0.0
 11
272.0870997812403
 21
378.3269510144302
 31
0.0
  0
LINE
  5
5086
330
1A
100
AcDbEntity
  8
SEIHIN
  6
Continuous
 62
     3
 48
5.0
100
AcDbLine
 10
265.3756997812402
 20
377.1269510144302
 30
0.0
 11
265.3756997812402
 21
378.3269510144302
 31
0.0
  0
LINE
  5
5087
330
1A
100
AcDbEntity
  8
SEIHIN
  6
Continuous
 62
     3
 48
5.0
100
AcDbLine
 10
248.4852997812403
 20
395.6269510144302
 30
0.0
 11
249.6852997812403
 21
395.6269510144302
 31
0.0
  0
ARC
  5
5088
330
1A
100
AcDbEntity
  8
SEIHIN
  6
Continuous
 62
     3
 48
5.0
100
AcDbCircle
 10
253.6852997812403
 20
394.92695101443
 30
0.0
 40
4.0
100
AcDbArc
 50
180.0
 51
270.0
  0
LINE
  5
5089
330
1A
100
AcDbEntity
  8
SEIHIN
  6
Continuous
 62
     3
 48
5.0
100
AcDbLine
 10
259.4853997812402
 20
386.6269510144302
 30
0.0
 11
259.4853997812402
 21
389.5149510144302
 31
0.0
  0
LINE
  5
508A
330
1A
100
AcDbEntity
  8
SEIHIN
  6
Continuous
 62
     3
 48
5.0
100
AcDbLine
 10
256.4852997812403
 20
390.92695101443
 30
0.0
 11
256.4852997812403
 21
392.1269510144302
 31
0.0
  0
LINE
  5
508B
330
1A
100
AcDbEntity
  8
SEIHIN
  6
Continuous
 62
     3
 48
5.0
100
AcDbLine
 10
256.6852997812403
 20
386.6269510144302
 30
0.0
 11
261.1852997812403
 21
386.6269510144302
 31
0.0
  0
LINE
  5
508C
330
1A
100
AcDbEntity
  8
SEIHIN
  6
Continuous
 62
     3
 48
5.0
100
AcDbLine
 10
272.0870997812403
 20
390.92695101443
 30
0.0
 11
272.0870997812403
 21
392.1269510144302
 31
0.0
  0
LINE
  5
508D
330
1A
100
AcDbEntity
  8
SEIHIN
  6
Continuous
 62
     3
 48
5.0
100
AcDbLine
 10
265.3756997812402
 20
390.92695101443
 30
0.0
 11
265.3756997812402
 21
392.1269510144302
 31
0.0
  0
ARC
  5
508E
330
1A
100
AcDbEntity
  8
SEIHIN
  6
Continuous
 62
     3
 48
5.0
100
AcDbCircle
 10
392.6500997812403
 20
384.6269510144302
 30
0.0
 40
4.0
100
AcDbArc
 50
270.0
 51
90.0
  0
ARC
  5
508F
330
1A
100
AcDbEntity
  8
SEIHIN
  6
Continuous
 62
     3
 48
5.0
100
AcDbCircle
 10
379.9062997810722
 20
384.6268364341697
 30
0.0
 40
4.166702006961965
100
AcDbArc
 50
106.2562433213252
 51
253.7423243199943
  0
LINE
  5
5090
330
1A
100
AcDbEntity
  8
SEIHIN
  6
Continuous
 62
     3
 48
5.0
100
AcDbLine
 10
365.7398997812401
 20
388.6269510144302
 30
0.0
 11
365.7398997812401
 21
380.6269510144302
 31
0.0
  0
LINE
  5
5091
330
1A
100
AcDbEntity
  8
SEIHIN
  6
Continuous
 62
     3
 48
5.0
100
AcDbLine
 10
361.7398997812401
 20
388.6269510144302
 30
0.0
 11
361.7398997812401
 21
380.6269510144302
 31
0.0
  0
ARC
  5
5092
330
1A
100
AcDbEntity
  8
SEIHIN
  6
Continuous
 62
     3
 48
5.0
100
AcDbCircle
 10
316.4852997812403
 20
384.6269510144302
 30
0.0
 40
4.0
100
AcDbArc
 50
90.0
 51
270.0
  0
ARC
  5
5093
330
1A
100
AcDbEntity
  8
SEIHIN
  6
Continuous
 62
     3
 48
5.0
100
AcDbCircle
 10
289.4852997812401
 20
384.6269510144302
 30
0.0
 40
4.999999999999972
100
AcDbArc
 50
0.0
 51
180.0
  0
LINE
  5
5094
330
1A
100
AcDbEntity
  8
SEIHIN
  6
Continuous
 62
     3
 48
5.0
100
AcDbLine
 10
297.4852997812401
 20
375.67695101443
 30
0.0
 11
297.4852997812401
 21
393.5769510144302
 31
0.0
  0
LINE
  5
5095
330
1A
100
AcDbEntity
  8
SEIHIN
  6
Continuous
 62
     3
 48
5.0
100
AcDbLine
 10
279.4853997812403
 20
375.67695101443
 30
0.0
 11
279.4853997812403
 21
393.5769510144302
 31
0.0
  0
LINE
  5
5096
330
1A
100
AcDbEntity
  8
CENTER L
  6
CENTER
 62
     1
 48
5.0
100
AcDbLine
 10
289.4852997812403
 20
376.67865101443
 30
0.0
 11
289.4852997812403
 21
391.72855101443
 31
0.0
  0
ELLIPSE
  5
5097
330
1A
100
AcDbEntity
  8
SEIHIN
  6
Continuous
 48
5.0
100
AcDbEllipse
 10
388.6368755779969
 20
365.1269510144302
 30
0.0
 11
0.0
 21
-2.100000000000023
 31
0.0
210
0.0
220
0.0
230
1.0
 40
0.4477551161960714
 41
0.6071961610681904
 42
0.9332344061756985
  0
ELLIPSE
  5
5098
330
1A
100
AcDbEntity
  8
SEIHIN
  6
Continuous
 48
5.0
100
AcDbEllipse
 10
388.6368755779969
 20
365.1269510144302
 30
0.0
 11
0.0
 21
-2.100000000000023
 31
0.0
210
0.0
220
0.0
230
1.0
 40
0.4477551161960714
 41
2.208358247414095
 42
2.534396492521603
  0
ELLIPSE
  5
5099
330
1A
100
AcDbEntity
  8
SEIHIN
  6
Continuous
 48
5.0
100
AcDbEllipse
 10
391.3235057087105
 20
365.1269510144302
 30
0.0
 11
0.0
 21
-3.249999999999999
 31
0.0
210
0.0
220
0.0
230
1.0
 40
0.4477573576860743
 41
0.3775802489095738
 42
2.764012404680219
  0
ELLIPSE
  5
509A
330
1A
100
AcDbEntity
  8
SEIHIN
  6
Continuous
 48
5.0
100
AcDbEllipse
 10
392.3964978354876
 20
365.1269510144302
 30
0.0
 11
0.0
 21
-3.249999999999999
 31
0.0
210
0.0
220
0.0
230
1.0
 40
0.4477573576860743
 41
-1.176005207095141
 42
4.317597860685012
  0
ELLIPSE
  5
509B
330
1A
100
AcDbEntity
  8
SEIHIN
  6
Continuous
 48
5.0
100
AcDbEllipse
 10
389.709867704774
 20
365.1269510144302
 30
0.0
 11
0.0
 21
-2.100000000000023
 31
0.0
210
0.0
220
0.0
230
1.0
 40
0.4477551161960714
 41
2.208358247414095
 42
7.216419713355299
  0
LINE
  5
509C
330
1A
100
AcDbEntity
  8
SEIHIN
  6
Continuous
 62
     3
 48
5.0
100
AcDbLine
 10
361.7398997812401
 20
380.6269510144302
 30
0.0
 11
316.4852997812403
 21
380.6269510144302
 31
0.0
  0
LINE
  5
509D
330
1A
100
AcDbEntity
  8
SEIHIN
  6
Continuous
 62
     3
 48
5.0
100
AcDbLine
 10
373.7558997812401
 20
365.7740510144301
 30
0.0
 11
297.4852997812401
 21
375.67695101443
 31
0.0
  0
LINE
  5
509E
330
1A
100
AcDbEntity
  8
SEIHIN
  6
Continuous
 62
     3
 48
5.0
100
AcDbLine
 10
279.4852997812403
 20
375.67695101443
 30
0.0
 11
297.4852997812401
 21
375.67695101443
 31
0.0
  0
ARC
  5
509F
330
1A
100
AcDbEntity
  8
SEIHIN
  6
Continuous
 62
     3
 48
5.0
100
AcDbCircle
 10
289.4852997812401
 20
384.6269510144302
 30
0.0
 40
4.999999999999972
100
AcDbArc
 50
180.0
 51
0.0
  0
LINE
  5
50A0
330
1A
100
AcDbEntity
  8
SEIHIN
  6
Continuous
 62
     3
 48
5.0
100
AcDbLine
 10
314.4852997812403
 20
381.16285101443
 30
0.0
 11
314.4852997812403
 21
375.3343510144302
 31
0.0
  0
ARC
  5
50A1
330
1A
100
AcDbEntity
  8
SEIHIN
  6
Continuous
 62
     3
 48
5.0
100
AcDbCircle
 10
372.2398997812401
 20
374.6269510144302
 30
0.0
 40
1.5
100
AcDbArc
 50
90.0
 51
270.0
  0
LINE
  5
50A2
330
1A
100
AcDbEntity
  8
SEIHIN
  6
Continuous
 62
     3
 48
5.0
100
AcDbLine
 10
392.6500997812403
 20
380.6269510144302
 30
0.0
 11
365.7398997812401
 21
380.6269510144302
 31
0.0
  0
LINE
  5
50A3
330
1A
100
AcDbEntity
  8
SEIHIN
  6
Continuous
 62
     3
 48
5.0
100
AcDbLine
 10
382.1444997812403
 20
357.1269510144302
 30
0.0
 11
370.7398997812401
 21
366.1656510144302
 31
0.0
  0
LINE
  5
50A4
330
1A
100
AcDbEntity
  8
SEIHIN
  6
Continuous
 62
     3
 48
5.0
100
AcDbLine
 10
393.5158997812401
 20
357.1269510144302
 30
0.0
 11
402.2240997812403
 21
367.43295101443
 31
0.0
  0
LINE
  5
50A5
330
1A
100
AcDbEntity
  8
CENTER L
  6
CENTER
 62
     1
 48
5.0
100
AcDbLine
 10
392.3964978354876
 20
369.0857510144302
 30
0.0
 11
392.3964978354876
 21
361.0783510144302
 31
0.0
  0
ARC
  5
50A6
330
1A
100
AcDbEntity
  8
SEIHIN
  6
Continuous
 62
     3
 48
5.0
100
AcDbCircle
 10
372.4683268348263
 20
355.8573003672827
 30
0.0
 40
10.000002250731
100
AcDbArc
 50
29.23579769358152
 51
82.60163687227551
  0
LINE
  5
50A7
330
1A
100
AcDbEntity
  8
SEIHIN
  6
Continuous
 62
     3
 48
5.0
100
AcDbLine
 10
393.5158997812401
 20
357.1269510144302
 30
0.0
 11
382.1444997812403
 21
357.1269510144302
 31
0.0
  0
LINE
  5
50A8
330
1A
100
AcDbEntity
  8
SEIHIN
  6
Continuous
 62
     3
 48
5.0
100
AcDbLine
 10
381.1944997812401
 20
360.7413510144302
 30
0.0
 11
383.2174997812402
 21
357.1269510144302
 31
0.0
  0
LINE
  5
50A9
330
1A
100
AcDbEntity
  8
SEIHIN
  6
Continuous
 62
     3
 48
5.0
100
AcDbLine
 10
387.0374997812402
 20
373.1269510144302
 30
0.0
 11
388.4337997812403
 21
373.1269510144302
 31
0.0
  0
LINE
  5
50AA
330
1A
100
AcDbEntity
  8
SEIHIN
  6
Continuous
 62
     3
 48
5.0
100
AcDbLine
 10
388.4337997812403
 20
376.1269510144302
 30
0.0
 11
372.2398997812401
 21
376.1269510144302
 31
0.0
  0
ARC
  5
50AB
330
1A
100
AcDbEntity
  8
SEIHIN
  6
Continuous
 62
     3
 48
5.0
100
AcDbCircle
 10
378.2398997812401
 20
374.6269510144302
 30
0.0
 40
1.5
100
AcDbArc
 50
90.0
 51
270.0
  0
LINE
  5
50AC
330
1A
100
AcDbEntity
  8
SEIHIN
  6
Continuous
 62
     3
 48
5.0
100
AcDbLine
 10
382.7176997812401
 20
373.1269510144302
 30
0.0
 11
372.2398997812401
 21
373.1269510144302
 31
0.0
  0
LINE
  5
50AD
330
1A
100
AcDbEntity
  8
SEIHIN
  6
Continuous
 62
     3
 48
5.0
100
AcDbLine
 10
378.7398997812401
 20
365.51455101443
 30
0.0
 11
378.7398997812401
 21
373.1269510144302
 31
0.0
  0
LINE
  5
50AE
330
1A
100
AcDbEntity
  8
SEIHIN
  6
Continuous
 62
     3
 48
5.0
100
AcDbLine
 10
383.2176997812401
 20
370.1269510144302
 30
0.0
 11
383.2176997812401
 21
372.6269510144302
 31
0.0
  0
LINE
  5
50AF
330
1A
100
AcDbEntity
  8
SEIHIN
  6
Continuous
 62
     3
 48
5.0
100
AcDbLine
 10
386.6493997812403
 20
372.9422510144302
 30
0.0
 11
384.1057997812403
 21
369.81165101443
 31
0.0
  0
ARC
  5
50B0
330
1A
100
AcDbEntity
  8
SEIHIN
  6
Continuous
 62
     3
 48
5.0
100
AcDbCircle
 10
382.7176997812401
 20
372.6269510144302
 30
0.0
 40
0.5
100
AcDbArc
 50
0.0
 51
90.0
  0
ARC
  5
50B1
330
1A
100
AcDbEntity
  8
SEIHIN
  6
Continuous
 62
     3
 48
5.0
100
AcDbCircle
 10
383.717717630603
 20
370.1269446776686
 30
0.0
 40
0.500017849403044
100
AcDbArc
 50
179.9992738865387
 51
320.9081940554298
  0
ARC
  5
50B2
330
1A
100
AcDbEntity
  8
SEIHIN
  6
Continuous
 62
     3
 48
5.0
100
AcDbCircle
 10
387.0374622825989
 20
372.6269331650674
 30
0.0
 40
0.5000178507688324
100
AcDbArc
 50
89.99570312563668
 51
140.9046232945332
  0
LINE
  5
50B3
330
1A
100
AcDbEntity
  8
SEIHIN
  6
Continuous
 62
     3
 48
5.0
100
AcDbLine
 10
378.7398997812401
 20
376.1269510144302
 30
0.0
 11
378.7398997812401
 21
380.6269510144302
 31
0.0
  0
ARC
  5
50B4
330
1A
100
AcDbEntity
  8
SEIHIN
  6
Continuous
 62
     3
 48
5.0
100
AcDbCircle
 10
388.4337997812403
 20
374.6269510144302
 30
0.0
 40
1.5
100
AcDbArc
 50
270.0
 51
90.0
  0
LINE
  5
50B5
330
1A
100
AcDbEntity
  8
CENTER L
  6
CENTER
 62
     1
 48
5.0
100
AcDbLine
 10
389.709867704774
 20
367.9453510144302
 30
0.0
 11
389.709867704774
 21
362.3919510144302
 31
0.0
  0
LINE
  5
50B6
330
1A
100
AcDbEntity
  8
SEIHIN
  6
Continuous
 62
     3
 48
5.0
100
AcDbLine
 10
391.0532257624294
 20
366.3769510144302
 30
0.0
 11
389.3924416068899
 21
366.3769510144302
 31
0.0
  0
LINE
  5
50B7
330
1A
100
AcDbEntity
  8
SEIHIN
  6
Continuous
 62
     3
 48
5.0
100
AcDbLine
 10
391.0532257624294
 20
363.8769510144302
 30
0.0
 11
389.3924416068899
 21
363.8769510144302
 31
0.0
  0
LINE
  5
50B8
330
1A
100
AcDbEntity
  8
CENTER L
  6
CENTER
 62
     1
 48
5.0
100
AcDbLine
 10
395.6483997812401
 20
365.1269510144302
 30
0.0
 11
387.7496997812403
 21
365.1269510144302
 31
0.0
  0
ELLIPSE
  5
50B9
330
1A
100
AcDbEntity
  8
SEIHIN
  6
Continuous
 48
5.0
100
AcDbEllipse
 10
389.709867704774
 20
404.1269510144302
 30
0.0
 11
0.0
 21
2.100000000000023
 31
0.0
210
0.0
220
0.0
230
-1.0
 40
0.4477551161960714
 41
2.208358247414095
 42
7.216419713355299
  0
ELLIPSE
  5
50BA
330
1A
100
AcDbEntity
  8
SEIHIN
  6
Continuous
 48
5.0
100
AcDbEllipse
 10
388.6368755779969
 20
404.1269510144302
 30
0.0
 11
0.0
 21
2.100000000000023
 31
0.0
210
0.0
220
0.0
230
-1.0
 40
0.4477551161960714
 41
2.208358247414095
 42
2.534396492521603
  0
ELLIPSE
  5
50BB
330
1A
100
AcDbEntity
  8
SEIHIN
  6
Continuous
 48
5.0
100
AcDbEllipse
 10
388.6368755779969
 20
404.1269510144302
 30
0.0
 11
0.0
 21
2.100000000000023
 31
0.0
210
0.0
220
0.0
230
-1.0
 40
0.4477551161960714
 41
0.6071961610681904
 42
0.9332344061756985
  0
ELLIPSE
  5
50BC
330
1A
100
AcDbEntity
  8
SEIHIN
  6
Continuous
 48
5.0
100
AcDbEllipse
 10
392.3964978354876
 20
404.1269510144302
 30
0.0
 11
0.0
 21
3.249999999999999
 31
0.0
210
0.0
220
0.0
230
-1.0
 40
0.4477573576860743
 41
-1.176005207095141
 42
4.317597860685012
  0
ELLIPSE
  5
50BD
330
1A
100
AcDbEntity
  8
SEIHIN
  6
Continuous
 48
5.0
100
AcDbEllipse
 10
391.3235057087105
 20
404.1269510144302
 30
0.0
 11
0.0
 21
3.249999999999999
 31
0.0
210
0.0
220
0.0
230
-1.0
 40
0.4477573576860743
 41
0.3775802489095738
 42
2.764012404680219
  0
LINE
  5
50BE
330
1A
100
AcDbEntity
  8
SEIHIN
  6
Continuous
 62
     3
 48
5.0
100
AcDbLine
 10
361.7398997812401
 20
388.6269510144302
 30
0.0
 11
316.4852997812403
 21
388.6269510144302
 31
0.0
  0
LINE
  5
50BF
330
1A
100
AcDbEntity
  8
SEIHIN
  6
Continuous
 62
     3
 48
5.0
100
AcDbLine
 10
297.4852997812401
 20
393.5769510144302
 30
0.0
 11
373.7558997812401
 21
403.4798510144302
 31
0.0
  0
LINE
  5
50C0
330
1A
100
AcDbEntity
  8
SEIHIN
  6
Continuous
 62
     3
 48
5.0
100
AcDbLine
 10
297.4852997812401
 20
393.5769510144302
 30
0.0
 11
279.4852997812403
 21
393.5769510144302
 31
0.0
  0
LINE
  5
50C1
330
1A
100
AcDbEntity
  8
SEIHIN
  6
Continuous
 62
     3
 48
5.0
100
AcDbLine
 10
314.4852997812403
 20
388.09105101443
 30
0.0
 11
314.4852997812403
 21
393.9195510144302
 31
0.0
  0
ARC
  5
50C2
330
1A
100
AcDbEntity
  8
SEIHIN
  6
Continuous
 62
     3
 48
5.0
100
AcDbCircle
 10
372.2398997812401
 20
394.6269510144302
 30
0.0
 40
1.5
100
AcDbArc
 50
90.0
 51
270.0
  0
LINE
  5
50C3
330
1A
100
AcDbEntity
  8
SEIHIN
  6
Continuous
 62
     3
 48
5.0
100
AcDbLine
 10
392.6500997812403
 20
388.6269510144302
 30
0.0
 11
365.7398997812401
 21
388.6269510144302
 31
0.0
  0
LINE
  5
50C4
330
1A
100
AcDbEntity
  8
SEIHIN
  6
Continuous
 62
     3
 48
5.0
100
AcDbLine
 10
382.1444997812403
 20
412.1269510144302
 30
0.0
 11
370.7398997812401
 21
403.0882510144302
 31
0.0
  0
ARC
  5
50C5
330
1A
100
AcDbEntity
  8
SEIHIN
  6
Continuous
 62
     3
 48
5.0
100
AcDbCircle
 10
372.4683851213591
 20
413.3965410960943
 30
0.0
 40
9.999921808453552
100
AcDbArc
 50
277.3975084403519
 51
330.7643420120676
  0
LINE
  5
50C6
330
1A
100
AcDbEntity
  8
SEIHIN
  6
Continuous
 62
     3
 48
5.0
100
AcDbLine
 10
393.5158997812401
 20
412.1269510144302
 30
0.0
 11
402.2240997812403
 21
401.82095101443
 31
0.0
  0
LINE
  5
50C7
330
1A
100
AcDbEntity
  8
SEIHIN
  6
Continuous
 62
     3
 48
5.0
100
AcDbLine
 10
387.0374997812402
 20
396.1269510144302
 30
0.0
 11
388.4337997812403
 21
396.1269510144302
 31
0.0
  0
LINE
  5
50C8
330
1A
100
AcDbEntity
  8
SEIHIN
  6
Continuous
 62
     3
 48
5.0
100
AcDbLine
 10
388.4337997812403
 20
393.1269510144302
 30
0.0
 11
372.2398997812401
 21
393.1269510144302
 31
0.0
  0
LINE
  5
50C9
330
1A
100
AcDbEntity
  8
SEIHIN
  6
Continuous
 62
     3
 48
5.0
100
AcDbLine
 10
383.2176997812401
 20
399.1269510144302
 30
0.0
 11
383.2176997812401
 21
396.6269510144302
 31
0.0
  0
LINE
  5
50CA
330
1A
100
AcDbEntity
  8
SEIHIN
  6
Continuous
 62
     3
 48
5.0
100
AcDbLine
 10
386.6493997812403
 20
396.31165101443
 30
0.0
 11
384.1057997812403
 21
399.4422510144302
 31
0.0
  0
LINE
  5
50CB
330
1A
100
AcDbEntity
  8
SEIHIN
  6
Continuous
 62
     3
 48
5.0
100
AcDbLine
 10
378.7398997812401
 20
403.73935101443
 30
0.0
 11
378.7398997812401
 21
396.1269510144302
 31
0.0
  0
LINE
  5
50CC
330
1A
100
AcDbEntity
  8
SEIHIN
  6
Continuous
 62
     3
 48
5.0
100
AcDbLine
 10
382.7176997812401
 20
396.1269510144302
 30
0.0
 11
372.2398997812401
 21
396.1269510144302
 31
0.0
  0
ARC
  5
50CD
330
1A
100
AcDbEntity
  8
SEIHIN
  6
Continuous
 62
     3
 48
5.0
100
AcDbCircle
 10
378.2398997812401
 20
394.6269510144302
 30
0.0
 40
1.5
100
AcDbArc
 50
90.0
 51
270.0
  0
LINE
  5
50CE
330
1A
100
AcDbEntity
  8
SEIHIN
  6
Continuous
 62
     3
 48
5.0
100
AcDbLine
 10
378.7398997812401
 20
393.1269510144302
 30
0.0
 11
378.7398997812401
 21
388.6269510144302
 31
0.0
  0
ARC
  5
50CF
330
1A
100
AcDbEntity
  8
SEIHIN
  6
Continuous
 62
     3
 48
5.0
100
AcDbCircle
 10
382.7176997812401
 20
396.6269510144302
 30
0.0
 40
0.5
100
AcDbArc
 50
270.0
 51
0.0
  0
ARC
  5
50D0
330
1A
100
AcDbEntity
  8
SEIHIN
  6
Continuous
 62
     3
 48
5.0
100
AcDbCircle
 10
387.0374622825988
 20
396.6269688637929
 30
0.0
 40
0.5000178507687793
100
AcDbArc
 50
219.0953767054899
 51
270.0042968743829
  0
ARC
  5
50D1
330
1A
100
AcDbEntity
  8
SEIHIN
  6
Continuous
 62
     3
 48
5.0
100
AcDbCircle
 10
383.717717630603
 20
399.1269573511917
 30
0.0
 40
0.5000178494029984
100
AcDbArc
 50
39.09180594455683
 51
180.0007261134564
  0
ARC
  5
50D2
330
1A
100
AcDbEntity
  8
SEIHIN
  6
Continuous
 62
     3
 48
5.0
100
AcDbCircle
 10
388.4337997812403
 20
394.6269510144302
 30
0.0
 40
1.5
100
AcDbArc
 50
270.0
 51
90.0
  0
LINE
  5
50D3
330
1A
100
AcDbEntity
  8
SEIHIN
  6
Continuous
 62
     3
 48
5.0
100
AcDbLine
 10
391.0532257624294
 20
405.3769510144302
 30
0.0
 11
389.3924416068899
 21
405.3769510144302
 31
0.0
  0
LINE
  5
50D4
330
1A
100
AcDbEntity
  8
SEIHIN
  6
Continuous
 62
     3
 48
5.0
100
AcDbLine
 10
391.0532257624294
 20
402.8769510144302
 30
0.0
 11
389.3924416068899
 21
402.8769510144302
 31
0.0
  0
LINE
  5
50D5
330
1A
100
AcDbEntity
  8
CENTER L
  6
CENTER
 62
     1
 48
5.0
100
AcDbLine
 10
389.709867704774
 20
401.3085510144302
 30
0.0
 11
389.709867704774
 21
406.8619510144302
 31
0.0
  0
LINE
  5
50D6
330
1A
100
AcDbEntity
  8
CENTER L
  6
CENTER
 62
     1
 48
5.0
100
AcDbLine
 10
392.3964978354876
 20
400.1681510144302
 30
0.0
 11
392.3964978354876
 21
408.1755510144302
 31
0.0
  0
LINE
  5
50D7
330
1A
100
AcDbEntity
  8
CENTER L
  6
CENTER
 62
     1
 48
5.0
100
AcDbLine
 10
395.6483997812401
 20
404.1269510144302
 30
0.0
 11
387.7496997812403
 21
404.1269510144302
 31
0.0
  0
LINE
  5
50D8
330
1A
100
AcDbEntity
  8
SEIHIN
  6
Continuous
 62
     3
 48
5.0
100
AcDbLine
 10
393.5158997812401
 20
412.1269510144302
 30
0.0
 11
382.1444997812403
 21
412.1269510144302
 31
0.0
  0
LINE
  5
50D9
330
1A
100
AcDbEntity
  8
SEIHIN
  6
Continuous
 62
     3
 48
5.0
100
AcDbLine
 10
381.1944997812401
 20
408.51255101443
 30
0.0
 11
383.2174997812402
 21
412.1269510144302
 31
0.0
  0
LEADER
  5
50DA
330
1A
100
AcDbEntity
  8
SUNPOU
  6
Continuous
 62
     4
100
AcDbLeader
  3
STANDARD
 74
     0
 40
6.0
 41
31.2
 76
     3
 10
550.1273052667835
 20
302.2261885335706
 30
0.0
 10
569.5542539113844
 20
282.2244052616231
 30
0.0
 10
571.6443204356124
 20
282.2244052616231
 30
0.0
1001
ACAD
1000
DSTYLE
1002
{
1070
     6
1000
OPEN
1070
    41
1040
7.0
1070
    42
1040
6.0
1070
    43
1040
14.0
1070
    44
1040
3.0
1070
    73
1070
     0
1070
    74
1070
     0
1070
    77
1070
     3
1070
   140
1040
6.0
1070
   141
1040
150.0
1070
   147
1040
2.0
1070
   172
1070
     1
1070
   173
1070
     1
1070
   176
1070
     4
1070
   177
1070
     4
1070
   178
1070
     4
1070
   271
1070
     0
1070
   272
1070
     2
1070
   288
1070
     1
1070
   341
1005
6D
1070
   343
1005
6D
1070
   344
1005
6D
1002
}
  0
LEADER
  5
50DB
330
1A
100
AcDbEntity
  8
SUNPOU
  6
Continuous
 62
     4
100
AcDbLeader
  3
STANDARD
 40
6.0
 41
31.2
 76
     3
 10
507.6133510161051
 20
292.0599568959917
 30
0.0
 10
475.3972997273872
 20
323.5614164517781
 30
0.0
 10
473.7716927132178
 20
323.5614164517781
 30
0.0
1001
ACAD
1000
DSTYLE
1002
{
1070
     6
1000
OPEN
1070
    41
1040
7.0
1070
    42
1040
6.0
1070
    43
1040
14.0
1070
    44
1040
3.0
1070
    73
1070
     0
1070
    74
1070
     0
1070
    77
1070
     3
1070
   140
1040
6.0
1070
   141
1040
150.0
1070
   147
1040
2.0
1070
   172
1070
     1
1070
   173
1070
     1
1070
   176
1070
     4
1070
   177
1070
     4
1070
   178
1070
     4
1070
   271
1070
     0
1070
   272
1070
     2
1070
   288
1070
     1
1070
   341
1005
6D
1070
   343
1005
6D
1070
   344
1005
6D
1002
}
  0
DIMENSION
  5
50DC
330
1A
100
AcDbEntity
  8
SUNPOU
 48
5.0
100
AcDbDimension
  2
*D10
 10
481.5974811346549
 20
277.0937600283079
 30
0.0
 11
480.4712880274896
 21
290.5094348887906
 31
0.0
 70
    32
 71
     5
 42
24.99989142990916
  3
STANDARD
100
AcDbAlignedDimension
 13
499.1496964785705
 23
313.8425154533222
 33
0.0
 14
505.9160964785708
 24
289.2716154533219
 34
0.0
 50
116.5999999999995
100
AcDbRotatedDimension
1001
ACAD
1000
DSTYLE
1002
{
1070
   140
1040
6.0
1070
    74
1070
     0
1070
   172
1070
     1
1070
    73
1070
     0
1070
   272
1070
     2
1070
    77
1070
     3
1070
   173
1070
     1
1070
   147
1040
2.0
1070
    42
1040
6.0
1070
    44
1040
3.0
1070
    43
1040
14.0
1070
   271
1070
     0
1070
   178
1070
     4
1070
   177
1070
     4
1070
   176
1070
     4
1070
   141
1040
150.0
1070
     7
1000
_OPEN
1070
     6
1000
_OPEN
1070
    41
1040
7.0
1002
}
  0
ARC
  5
50DD
330
1A
100
AcDbEntity
  8
SEIHIN
  6
Continuous
 62
     3
 48
5.0
100
AcDbCircle
 10
509.4494585591471
 20
291.0408964655422
 30
0.0
 40
2.099946444679854
100
AcDbArc
 50
333.1308245924241
 51
260.0689731666672
  0
LINE
  5
50DE
330
1A
100
AcDbEntity
  8
CENTER L
  6
CENTER
 62
     1
 48
5.0
100
AcDbLine
 10
505.9160964785708
 20
289.2716154533219
 30
0.0
 11
513.4731964785708
 21
293.0558154533221
 31
0.0
  0
LINE
  5
50DF
330
1A
100
AcDbEntity
  8
SEIHIN
  6
Continuous
 62
     3
 48
5.0
100
AcDbLine
 10
519.2681964785706
 20
323.9171154533219
 30
0.0
 11
535.3874964785706
 21
291.7275154533219
 31
0.0
  0
LINE
  5
50E0
330
1A
100
AcDbEntity
  8
SEIHIN
  6
Continuous
 62
     3
 48
5.0
100
AcDbLine
 10
555.0567964785705
 20
304.932215453322
 30
0.0
 11
553.7361964785707
 21
275.406715453322
 31
0.0
  0
LINE
  5
50E1
330
1A
100
AcDbEntity
  8
SEIHIN
  6
Continuous
 62
     3
 48
5.0
100
AcDbLine
 10
495.5798964785708
 20
300.871115453322
 30
0.0
 11
505.8783964785705
 21
280.3056154533221
 31
0.0
  0
LINE
  5
50E2
330
1A
100
AcDbEntity
  8
SEIHIN
  6
Continuous
 62
     3
 48
5.0
100
AcDbLine
 10
512.1149964785703
 20
320.3350154533218
 30
0.0
 11
528.2342964785705
 21
288.1455154533221
 31
0.0
  0
ARC
  5
50E3
330
1A
100
AcDbEntity
  8
SEIHIN
  6
Continuous
 62
     3
 48
5.0
100
AcDbCircle
 10
531.8108964785706
 20
289.936515453322
 30
0.0
 40
3.999968569876593
100
AcDbArc
 50
206.5996431105961
 51
26.59964311059604
  0
LINE
  5
50E4
330
1A
100
AcDbEntity
  8
CENTER L
  6
CENTER
 62
     1
 48
5.0
100
AcDbLine
 10
507.6640964785705
 20
294.6063154533221
 30
0.0
 11
514.5639964785706
 21
280.8274154533221
 31
0.0
  0
LINE
  5
50E5
330
1A
100
AcDbEntity
  8
CENTER L
  6
CENTER
 62
     1
 48
5.0
100
AcDbLine
 10
513.5135964785704
 20
326.4753154533219
 30
0.0
 11
547.1199964785708
 21
259.364815453322
 31
0.0
  0
DIMENSION
  5
50E6
330
1A
100
AcDbEntity
  8
SUNPOU
 48
5.0
100
AcDbDimension
  2
*D11
 10
511.7164409163187
 20
245.7634458182666
 30
0.0
 11
524.2468756816134
 21
231.9074649943517
 31
0.0
 70
    32
 71
     5
 42
7.500094418245283
  3
STANDARD
100
AcDbAlignedDimension
 13
537.0496964785707
 23
266.8373154533221
 33
0.0
 14
545.4674964776998
 24
262.6647154528858
 34
0.0
 50
116.5999999999995
100
AcDbRotatedDimension
1001
ACAD
1000
DSTYLE
1002
{
1070
   140
1040
6.0
1070
    74
1070
     0
1070
   172
1070
     1
1070
    73
1070
     0
1070
   272
1070
     2
1070
    77
1070
     3
1070
   173
1070
     1
1070
   147
1040
2.0
1070
    42
1040
6.0
1070
    44
1040
3.0
1070
    43
1040
14.0
1070
   271
1070
     0
1070
   178
1070
     4
1070
   177
1070
     4
1070
   176
1070
     4
1070
   141
1040
150.0
1070
     7
1000
_OPEN
1070
     6
1000
_OPEN
1070
    41
1040
7.0
1002
}
  0
ARC
  5
50E7
330
1A
100
AcDbEntity
  8
SEIHIN
  6
Continuous
 62
     3
 48
5.0
100
AcDbCircle
 10
538.7510602658747
 20
276.0770245477643
 30
0.0
 40
15.00001835479132
100
AcDbArc
 50
235.7611843196983
 51
296.6001780372652
  0
LINE
  5
50E8
330
1A
100
AcDbEntity
  8
CENTER L
  6
CENTER
 62
     1
 48
5.0
100
AcDbLine
 10
432.8734997812401
 20
197.1427014816913
 30
0.0
 11
442.2252997812403
 21
201.8258014816913
 31
0.0
  0
LINE
  5
50E9
330
1A
100
AcDbEntity
  8
SEIHIN
  6
PHANTOM
 62
     6
 48
5.0
100
AcDbLine
 10
415.8699997812403
 20
248.7335014816913
 30
0.0
 11
443.5155997812403
 21
193.5259014816913
 31
0.0
  0
LINE
  5
50EA
330
1A
100
AcDbEntity
  8
SEIHIN
  6
PHANTOM
 62
     6
 48
5.0
100
AcDbLine
 10
417.1444997812403
 20
243.5083014816913
 30
0.0
 11
442.4426997812403
 21
192.9885014816913
 31
0.0
  0
LINE
  5
50EB
330
1A
100
AcDbEntity
  8
SUNPOU
  6
Continuous
 62
     4
 48
5.0
100
AcDbLine
 10
428.1987808546742
 20
154.2191392784617
 30
0.0
 11
428.1986755480674
 21
134.2189926194739
 31
0.0
  0
LINE
  5
50EC
330
1A
100
AcDbEntity
  8
SUNPOU
  6
Continuous
 62
     4
 48
5.0
100
AcDbLine
 10
411.2020808546742
 20
188.1608392784617
 30
0.0
 11
438.2139695794847
 21
134.2189926194739
 31
0.0
  0
LINE
  5
50ED
330
1A
100
AcDbEntity
  8
SUNPOU
 48
5.0
100
AcDbLine
 10
428.198780853902
 20
134.2189926194739
 30
0.0
 11
438.2139695794847
 21
134.2189926194739
 31
0.0
  0
TEXT
  5
50EE
330
1A
100
AcDbEntity
  8
SUNPOU
 48
5.0
100
AcDbText
 10
431.0464202316971
 20
125.654689938933
 30
0.0
 40
5.0
  1
5
100
AcDbText
  0
TEXT
  5
50EF
330
1A
100
AcDbEntity
  8
SUNPOU
 48
5.0
100
AcDbText
 10
416.1427074145122
 20
138.740596032987
 30
0.0
 40
5.0
  1
10
100
AcDbText
  0
LINE
  5
50F0
330
1A
100
AcDbEntity
  8
SEIHIN
  6
Continuous
 62
     3
 48
5.0
100
AcDbLine
 10
408.520177249696
 20
193.5168598780192
 30
0.0
 11
407.447177249696
 21
192.9795598780193
 31
0.0
  0
LINE
  5
50F1
330
1A
100
AcDbEntity
  8
SEIHIN
  6
PHANTOM
 62
     6
 48
5.0
100
AcDbLine
 10
443.5156997812402
 20
193.5258014816913
 30
0.0
 11
442.4426997812403
 21
192.9885014816913
 31
0.0
  0
LINE
  5
50F2
330
1A
100
AcDbEntity
  8
CENTER L
  6
CENTER
 62
     1
 48
5.0
100
AcDbLine
 10
420.0582997812403
 20
222.0407014816913
 30
0.0
 11
430.9095997812403
 21
227.4746014816914
 31
0.0
  0
LINE
  5
50F3
330
1A
100
AcDbEntity
  8
CENTER L
  6
CENTER
 62
     1
 48
5.0
100
AcDbLine
 10
417.3121997812403
 20
227.3761014816913
 30
0.0
 11
428.4847997812403
 21
232.9708014816913
 31
0.0
  0
LINE
  5
50F4
330
1A
100
AcDbEntity
  8
SEIHIN
  6
PHANTOM
 62
     6
 48
5.0
100
AcDbLine
 10
417.1444997812403
 20
243.5083014816913
 30
0.0
 11
418.2174997812402
 21
244.0456014816913
 31
0.0
  0
ARC
  5
50F5
330
1A
100
AcDbEntity
  8
SEIHIN
  6
PHANTOM
 62
     6
 48
5.0
100
AcDbCircle
 10
409.6109571539003
 20
245.599169417163
 30
0.0
 40
6.99997515006944
100
AcDbArc
 50
26.60027074478223
 51
95.00056971962168
  0
LINE
  5
50F6
330
1A
100
AcDbEntity
  8
SEIHIN
  6
Continuous
 62
     6
 48
5.0
100
AcDbLine
 10
404.444347364743
 20
252.1738641092214
 30
0.0
 11
409.0007997812403
 21
252.5725014816912
 31
0.0
  0
LINE
  5
50F7
330
1A
100
AcDbEntity
  8
SEIHIN
  6
Continuous
 62
     3
 48
5.0
100
AcDbLine
 10
505.8783964785705
 20
280.3056154533221
 30
0.0
 11
530.3113964785706
 21
263.676515453322
 31
0.0
  0
LINE
  5
50F8
330
1A
100
AcDbEntity
  8
CENTER L
  6
CENTER
 62
     1
 48
5.0
100
AcDbLine
 10
506.5696964785705
 20
282.8886154533219
 30
0.0
 11
517.1573964785707
 21
288.1905154533219
 31
0.0
  0
ARC
  5
50F9
330
1A
100
AcDbEntity
  8
SEIHIN
  6
Continuous
 62
     3
 48
5.0
100
AcDbCircle
 10
512.1359484595027
 20
285.6759914063537
 30
0.0
 40
3.249960312377872
100
AcDbArc
 50
139.2201881363734
 51
93.97960962271213
  0
LINE
  5
50FA
330
1A
100
AcDbEntity
  8
SEIHIN
  6
Continuous
 62
     3
 48
5.0
100
AcDbLine
 10
509.0872964785708
 20
288.9724154533218
 30
0.0
 11
509.6749964785705
 21
287.798815453322
 31
0.0
  0
LINE
  5
50FB
330
1A
100
AcDbEntity
  8
SEIHIN
  6
Continuous
 62
     3
 48
5.0
100
AcDbLine
 10
511.3226964785706
 20
290.0918154533219
 30
0.0
 11
511.9103964785707
 21
288.918215453322
 31
0.0
  0
MTEXT
  5
50FC
330
1A
100
AcDbEntity
  8
SUNPOU
  6
Continuous
 62
     4
100
AcDbMText
 10
573.6443204356124
 20
284.2244052616231
 30
0.0
 40
6.0
 41
0.0
 71
     7
 72
     5
  1
2-φ6.5
 73
     1
 44
1.0
  0
ARC
  5
50FD
330
1A
100
AcDbEntity
  8
SEIHIN
  6
Continuous
 62
     3
 48
5.0
100
AcDbCircle
 10
542.1092964785706
 20
269.370915453322
 30
0.0
 40
2.099900000000105
100
AcDbArc
 50
180.0
 51
0.0
  0
ARC
  5
50FE
330
1A
100
AcDbEntity
  8
SEIHIN
  6
Continuous
 62
     3
 48
5.0
100
AcDbCircle
 10
538.751215294978
 20
276.0770444493801
 30
0.0
 40
14.99996673448263
100
AcDbArc
 50
296.599614509494
 51
357.4386731524318
  0
LINE
  5
50FF
330
1A
100
AcDbEntity
  8
CENTER L
  6
CENTER
 62
     1
 48
5.0
100
AcDbLine
 10
537.0496964785707
 20
266.8373154533221
 30
0.0
 11
546.4612964785708
 21
271.5502154533221
 31
0.0
  0
ARC
  5
5100
330
1A
100
AcDbEntity
  8
SEIHIN
  6
Continuous
 62
     3
 48
5.0
100
AcDbCircle
 10
542.1092964785706
 20
269.370915453322
 30
0.0
 40
2.099900000000105
100
AcDbArc
 50
0.0
 51
180.0
  0
DIMENSION
  5
5101
330
1A
100
AcDbEntity
  8
SUNPOU
 48
5.0
100
AcDbDimension
  2
*D12
 10
577.4444278502193
 20
318.3798912454624
 30
0.0
 11
574.9749255028521
 21
334.478092672429
 31
0.0
 70
    32
 71
     5
 42
31.00003425977727
  3
STANDARD
100
AcDbAlignedDimension
 13
532.2334964785707
 23
330.4096154533222
 33
0.0
 14
551.4706964785705
 24
305.3732154533219
 34
0.0
 50
116.5999999999995
100
AcDbRotatedDimension
1001
ACAD
1000
DSTYLE
1002
{
1070
   140
1040
6.0
1070
    74
1070
     0
1070
   172
1070
     1
1070
    73
1070
     0
1070
   272
1070
     2
1070
    77
1070
     3
1070
   173
1070
     1
1070
   147
1040
2.0
1070
    42
1040
6.0
1070
    44
1040
3.0
1070
    43
1040
14.0
1070
   271
1070
     0
1070
   178
1070
     4
1070
   177
1070
     4
1070
   176
1070
     4
1070
   141
1040
150.0
1070
     7
1000
_OPEN
1070
     6
1000
_OPEN
1070
    41
1040
7.0
1002
}
  0
DIMENSION
  5
5102
330
1A
100
AcDbEntity
  8
SUNPOU
 48
5.0
100
AcDbDimension
  2
*D13
 10
472.1839807449551
 20
347.5916795828492
 30
0.0
 11
494.5344236288968
 21
364.3758240852054
 31
0.0
 70
    32
 71
     5
 42
54.99999286488378
  3
STANDARD
100
AcDbAlignedDimension
 13
544.7583964785708
 23
325.4978154533218
 33
0.0
 14
495.5798964785708
 24
300.871115453322
 34
0.0
 50
26.59999999999955
100
AcDbRotatedDimension
1001
ACAD
1000
DSTYLE
1002
{
1070
   140
1040
6.0
1070
    74
1070
     0
1070
   172
1070
     1
1070
    73
1070
     0
1070
   272
1070
     2
1070
    77
1070
     3
1070
   173
1070
     1
1070
   147
1040
2.0
1070
    42
1040
6.0
1070
    44
1040
3.0
1070
    43
1040
14.0
1070
   271
1070
     0
1070
   178
1070
     4
1070
   177
1070
     4
1070
   176
1070
     4
1070
   141
1040
150.0
1070
     7
1000
_OPEN
1070
     6
1000
_OPEN
1070
    41
1040
7.0
1002
}
  0
DIMENSION
  5
5103
330
1A
100
AcDbEntity
  8
SUNPOU
 48
5.0
100
AcDbDimension
  2
*D14
 10
522.0018579221071
 20
353.0750420058395
 30
0.0
 11
502.327021866023
 21
348.8144944527513
 31
0.0
 70
    32
 71
     5
 42
39.00007380946408
  3
STANDARD
100
AcDbAlignedDimension
 13
507.664055324703
 23
294.606397636401
 33
0.0
 14
542.5361964785708
 24
312.068915453322
 34
0.0
 50
26.59999999999955
100
AcDbRotatedDimension
1001
ACAD
1000
DSTYLE
1002
{
1070
   140
1040
6.0
1070
    74
1070
     0
1070
   172
1070
     1
1070
    73
1070
     0
1070
   272
1070
     2
1070
    77
1070
     3
1070
   173
1070
     1
1070
   147
1040
2.0
1070
    42
1040
6.0
1070
    44
1040
3.0
1070
    43
1040
14.0
1070
   271
1070
     0
1070
   178
1070
     4
1070
   177
1070
     4
1070
   176
1070
     4
1070
   141
1040
150.0
1070
     7
1000
_OPEN
1070
     6
1000
_OPEN
1070
    41
1040
7.0
1002
}
  0
LINE
  5
5104
330
1A
100
AcDbEntity
  8
SEIHIN
  6
Continuous
 62
     3
 48
5.0
100
AcDbLine
 10
533.5753964785708
 20
329.9632154533221
 30
0.0
 11
535.3663964785708
 21
326.3866154533218
 31
0.0
  0
LINE
  5
5105
330
1A
100
AcDbEntity
  8
SEIHIN
  6
Continuous
 62
     3
 48
5.0
100
AcDbLine
 10
534.3360964785707
 20
310.577215453322
 30
0.0
 11
536.4966964785708
 21
306.262615453322
 31
0.0
  0
ARC
  5
5106
330
1A
100
AcDbEntity
  8
SEIHIN
  6
Continuous
 62
     3
 48
5.0
100
AcDbCircle
 10
535.1554565018359
 20
305.5909954358943
 30
0.0
 40
1.499999374333599
100
AcDbArc
 50
206.5975065714937
 51
26.59921678827633
  0
ELLIPSE
  5
5107
330
1A
100
AcDbEntity
  8
SEIHIN
  6
Continuous
 48
5.0
100
AcDbEllipse
 10
403.8609801736188
 20
384.6269510144302
 30
0.0
 11
0.0
 21
2.100000000000023
 31
0.0
210
0.0
220
0.0
230
1.0
 40
0.4477642403742758
 41
-2.534423091217237
 42
-0.6071695623726217
  0
LINE
  5
5108
330
1A
100
AcDbEntity
  8
CENTER L
  6
CENTER
 62
     1
 48
5.0
100
AcDbLine
 10
404.9339530846012
 20
381.15875101443
 30
0.0
 11
404.9339530846012
 21
387.8958510144302
 31
0.0
  0
MTEXT
  5
5109
330
1A
100
AcDbEntity
  8
SUNPOU
  6
Continuous
 62
     4
100
AcDbMText
 10
471.7716927132178
 20
325.5614164517781
 30
0.0
 40
6.0
 41
0.0
 71
     9
 72
     5
  1
3-φ4.2
 73
     1
 44
1.0
  0
LINE
  5
510A
330
1A
100
AcDbEntity
  8
SEIHIN
  6
Continuous
 62
     3
 48
5.0
100
AcDbLine
 10
499.1496964785705
 20
313.8425154533222
 30
0.0
 11
512.1149964785703
 21
320.3350154533218
 31
0.0
  0
LINE
  5
510B
330
1A
100
AcDbEntity
  8
SEIHIN
  6
Continuous
 62
     3
 48
5.0
100
AcDbLine
 10
495.5798964785708
 20
300.871115453322
 30
0.0
 11
500.4943964785705
 21
308.9240154533219
 31
0.0
  0
ARC
  5
510C
330
1A
100
AcDbEntity
  8
SEIHIN
  6
Continuous
 62
     3
 48
5.0
100
AcDbCircle
 10
499.5974765235112
 20
312.9483554584928
 30
0.0
 40
1.000014532394483
100
AcDbArc
 50
116.6009259258293
 51
206.5983602953787
  0
LINE
  5
510D
330
1A
100
AcDbEntity
  8
SEIHIN
  6
Continuous
 62
     3
 48
5.0
100
AcDbLine
 10
498.7032964785706
 20
312.500615453322
 30
0.0
 11
500.4943964785705
 21
308.9240154533219
 31
0.0
  0
LINE
  5
510E
330
1A
100
AcDbEntity
  8
SEIHIN
  6
Continuous
 62
     3
 48
5.0
100
AcDbLine
 10
534.0192964785708
 20
311.855015453322
 30
0.0
 11
533.8581964785708
 21
319.2408154533218
 31
0.0
  0
LINE
  5
510F
330
1A
100
AcDbEntity
  8
SEIHIN
  6
Continuous
 62
     3
 48
5.0
100
AcDbLine
 10
508.0912964785705
 20
318.320115453322
 30
0.0
 11
518.6134964785706
 21
297.3075154533219
 31
0.0
  0
LINE
  5
5110
330
1A
100
AcDbEntity
  8
SEIHIN
  6
Continuous
 62
     3
 48
5.0
100
AcDbLine
 10
523.2918964785708
 20
325.9320154533221
 30
0.0
 11
533.8141964785707
 21
304.919415453322
 31
0.0
  0
LINE
  5
5111
330
1A
100
AcDbEntity
  8
SEIHIN
  6
Continuous
 62
     3
 48
5.0
100
AcDbLine
 10
505.4087964785706
 20
316.9768154533221
 30
0.0
 11
509.6624964785706
 21
308.4824154533218
 31
0.0
  0
LINE
  5
5112
330
1A
100
AcDbEntity
  8
SEIHIN
  6
Continuous
 62
     3
 48
5.0
100
AcDbLine
 10
512.9370964785705
 20
301.2979154533221
 30
0.0
 11
507.1195964785707
 21
305.851215453322
 31
0.0
  0
ARC
  5
5113
330
1A
100
AcDbEntity
  8
SEIHIN
  6
Continuous
 62
     3
 48
5.0
100
AcDbCircle
 10
511.0880341223356
 20
298.9354694198744
 30
0.0
 40
3.000030476211526
100
AcDbArc
 50
26.60117740788086
 51
51.95007657827303
  0
ARC
  5
5114
330
1A
100
AcDbEntity
  8
SEIHIN
  6
Continuous
 62
     3
 48
5.0
100
AcDbCircle
 10
517.2723564724327
 20
296.635845496101
 30
0.0
 40
1.50002176167483
100
AcDbArc
 50
206.5992168518966
 51
26.60092192482315
  0
LINE
  5
5115
330
1A
100
AcDbEntity
  8
SEIHIN
  6
Continuous
 62
     3
 48
5.0
100
AcDbLine
 10
513.7704964785708
 20
300.2788154533219
 30
0.0
 11
515.9310964785707
 21
295.964215453322
 31
0.0
  0
LINE
  5
5116
330
1A
100
AcDbEntity
  8
SEIHIN
  6
Continuous
 62
     3
 48
5.0
100
AcDbLine
 10
507.2038964785706
 20
306.692115453322
 30
0.0
 11
509.4392964785706
 21
307.8115154533221
 31
0.0
  0
ARC
  5
5117
330
1A
100
AcDbEntity
  8
SEIHIN
  6
Continuous
 62
     3
 48
5.0
100
AcDbCircle
 10
509.2153964785705
 20
308.258515453322
 30
0.0
 40
0.5000296191227576
100
AcDbArc
 50
296.600921886683
 51
26.60092188667749
  0
ARC
  5
5118
330
1A
100
AcDbEntity
  8
SEIHIN
  6
Continuous
 62
     3
 48
5.0
100
AcDbCircle
 10
507.4277943509565
 20
306.2449942253018
 30
0.0
 40
0.5000476475347366
100
AcDbArc
 50
116.5996147800599
 51
231.9508657565552
  0
ARC
  5
5119
330
1A
100
AcDbEntity
  8
SEIHIN
  6
Continuous
 62
     3
 48
5.0
100
AcDbCircle
 10
537.01861784557
 20
311.9204292810454
 30
0.0
 40
2.999934628808233
100
AcDbArc
 50
181.2494383304028
 51
206.5992702374176
  0
ARC
  5
511A
330
1A
100
AcDbEntity
  8
SEIHIN
  6
Continuous
 62
     3
 48
5.0
100
AcDbCircle
 10
515.1693207155086
 20
323.169127590312
 30
0.0
 40
4.166663911258184
100
AcDbArc
 50
222.8582859598253
 51
10.34163968158999
  0
ARC
  5
511B
330
1A
100
AcDbEntity
  8
SEIHIN
  6
Continuous
 62
     3
 48
5.0
100
AcDbCircle
 10
506.9739164973382
 20
317.2014254783782
 30
0.0
 40
1.499977054657435
100
AcDbArc
 50
206.5992168392518
 51
26.60263228150323
  0
LINE
  5
511C
330
1A
100
AcDbEntity
  8
SEIHIN
  6
Continuous
 62
     3
 48
5.0
100
AcDbLine
 10
525.9742964785708
 20
327.275315453322
 30
0.0
 11
530.2279964785705
 21
318.780815453322
 31
0.0
  0
LINE
  5
511D
330
1A
100
AcDbEntity
  8
SEIHIN
  6
Continuous
 62
     3
 48
5.0
100
AcDbLine
 10
519.2681964785706
 20
323.9171154533219
 30
0.0
 11
532.2334964785707
 21
330.4096154533222
 31
0.0
  0
ARC
  5
511E
330
1A
100
AcDbEntity
  8
SEIHIN
  6
Continuous
 62
     3
 48
5.0
100
AcDbCircle
 10
524.8570164357916
 20
326.1566254471838
 30
0.0
 40
1.50002176300942
100
AcDbArc
 50
206.60263221788
 51
26.59750655884231
  0
LINE
  5
511F
330
1A
100
AcDbEntity
  8
SEIHIN
  6
Continuous
 62
     3
 48
5.0
100
AcDbLine
 10
533.1343964785708
 20
319.6770154533221
 30
0.0
 11
530.8989964785708
 21
318.5576154533218
 31
0.0
  0
ARC
  5
5120
330
1A
100
AcDbEntity
  8
SEIHIN
  6
Continuous
 62
     3
 48
5.0
100
AcDbCircle
 10
533.358291005633
 20
319.2299187515515
 30
0.0
 40
0.5000242193959723
100
AcDbArc
 50
1.248708412888904
 51
116.600530374788
  0
ARC
  5
5121
330
1A
100
AcDbEntity
  8
SEIHIN
  6
Continuous
 62
     3
 48
5.0
100
AcDbCircle
 10
530.6750964785706
 20
319.0047154533219
 30
0.0
 40
0.5000296191228529
100
AcDbArc
 50
206.600921886687
 51
296.6009218866848
  0
ARC
  5
5122
330
1A
100
AcDbEntity
  8
SEIHIN
  6
Continuous
 62
     3
 48
5.0
100
AcDbCircle
 10
532.6812265206054
 20
329.5154054587122
 30
0.0
 40
1.000036851821136
100
AcDbArc
 50
26.60220461611164
 51
116.597081605084
  0
LINE
  5
5123
330
1A
100
AcDbEntity
  8
SEIHIN
  6
Continuous
 62
     3
 48
5.0
100
AcDbLine
 10
544.7583964785708
 20
325.4978154533218
 30
0.0
 11
555.0568964785707
 21
304.9323154533219
 31
0.0
  0
LINE
  5
5124
330
1A
100
AcDbEntity
  8
CENTER L
  6
CENTER
 62
     1
 48
5.0
100
AcDbLine
 10
551.4706964785705
 20
305.3732154533219
 30
0.0
 11
541.9866964785708
 21
300.624015453322
 31
0.0
  0
ARC
  5
5125
330
1A
100
AcDbEntity
  8
SEIHIN
  6
Continuous
 62
     3
 48
5.0
100
AcDbCircle
 10
547.0080484595028
 20
303.138591406354
 30
0.0
 40
3.249960312377734
100
AcDbArc
 50
139.2201881363717
 51
93.97960962270888
  0
LINE
  5
5126
330
1A
100
AcDbEntity
  8
CENTER L
  6
CENTER
 62
     1
 48
5.0
100
AcDbLine
 10
542.5361964785707
 20
312.068915453322
 30
0.0
 11
549.4360964785707
 21
298.2900154533219
 31
0.0
  0
ARC
  5
5127
330
1A
100
AcDbEntity
  8
SEIHIN
  6
Continuous
 62
     3
 48
5.0
100
AcDbCircle
 10
544.3215314730026
 20
308.5034829019073
 30
0.0
 40
2.100009672963529
100
AcDbArc
 50
333.1290548962867
 51
260.0727952940384
  0
LINE
  5
5128
330
1A
100
AcDbEntity
  8
CENTER L
  6
CENTER
 62
     1
 48
5.0
100
AcDbLine
 10
547.9581964785707
 20
310.3246154533221
 30
0.0
 11
540.2978964785707
 21
306.4886154533221
 31
0.0
  0
LINE
  5
5129
330
1A
100
AcDbEntity
  8
SEIHIN
  6
Continuous
 62
     3
 48
5.0
100
AcDbLine
 10
543.9594964785707
 20
306.4349154533219
 30
0.0
 11
544.5471964785706
 21
305.261315453322
 31
0.0
  0
LINE
  5
512A
330
1A
100
AcDbEntity
  8
SEIHIN
  6
Continuous
 62
     3
 48
5.0
100
AcDbLine
 10
546.1947964785707
 20
307.554415453322
 30
0.0
 11
546.7824964785708
 21
306.3807154533219
 31
0.0
  0
LINE
  5
512B
330
1A
100
AcDbEntity
  8
SEIHIN
  6
Continuous
 62
     3
 48
5.0
100
AcDbLine
 10
544.7583964785708
 20
325.4978154533218
 30
0.0
 11
535.3663964785708
 21
326.386515453322
 31
0.0
  0
VIEWPORT
  5
22
330
17
100
AcDbEntity
 67
     1
  8
0
100
AcDbViewport
 10
313.6808219178082
 20
286.420032064001
 30
0.0
 40
627.3616438356164
 41
572.840064128002
 68
     2
 69
     1
 12
313.6808219178082
 22
286.420032064001
 13
0.0
 23
0.0
 14
1.0
 24
1.0
 15
10.0
 25
10.0
 16
0.0
 26
0.0
 36
1.0
 17
0.0
 27
0.0
 37
0.0
 42
50.0
 43
0.0
 44
0.0
 45
572.840064128002
 50
0.0
 51
0.0
 72
   100
 90
    32768
  1

281
     0
 71
     1
 74
     0
110
0.0
120
0.0
130
0.0
111
1.0
121
0.0
131
0.0
112
0.0
122
1.0
132
0.0
 79
     0
146
0.0
  0
VIEWPORT
  5
64
330
17
100
AcDbEntity
 67
     1
  8
VIEWPORT
100
AcDbViewport
 10
210.0
 20
148.5
 30
0.0
 40
420.0
 41
297.0
 68
     1
 69
     2
 12
420.0
 22
297.0
 13
0.0
 23
0.0
 14
10.0
 24
10.0
 15
0.0
 25
0.0
 16
0.0
 26
0.0
 36
1.0
 17
0.0
 27
0.0
 37
0.0
 42
50.0
 43
0.0
 44
0.0
 45
605.8799999999999
 50
0.0
 51
0.0
 72
   100
 90
    32768
  1

281
     0
 71
     1
 74
     0
110
0.0
120
0.0
130
0.0
111
1.0
121
0.0
131
0.0
112
0.0
122
1.0
132
0.0
 79
     0
146
0.0
  0
ENDSEC
  0
SECTION
  2
OBJECTS
  0
DICTIONARY
  5
C
330
0
100
AcDbDictionary
281
     1
  3
ACAD_GROUP
350
D
  3
ACAD_LAYOUT
350
A98
  3
ACAD_MLINESTYLE
350
E
  3
ACAD_PLOTSETTINGS
350
A99
  3
ACAD_PLOTSTYLENAME
350
A96
  0
DICTIONARY
  5
D
102
{ACAD_REACTORS
330
C
102
}
330
C
100
AcDbDictionary
281
     1
  3
*A1
350
FA3
  3
*A2
350
1597
  3
*A3
350
179D
  3
*A4
350
3390
  3
*A5
350
3A0A
  0
DICTIONARY
  5
A98
102
{ACAD_REACTORS
330
C
102
}
330
C
100
AcDbDictionary
281
     1
  3
Model
350
A9A
  3
ﾚｲｱｳﾄ1
350
A9B
  0
DICTIONARY
  5
E
102
{ACAD_REACTORS
330
C
102
}
330
C
100
AcDbDictionary
281
     1
  3
STANDARD
350
13
  0
DICTIONARY
  5
A99
102
{ACAD_REACTORS
330
C
102
}
330
C
100
AcDbDictionary
281
     1
  0
ACDBDICTIONARYWDFLT
  5
A96
102
{ACAD_REACTORS
330
C
102
}
330
C
100
AcDbDictionary
281
     1
  3
Normal
350
A97
100
AcDbDictionaryWithDefault
340
A97
1001
ACAD
1000
TREAT_AS_HARD
1070
     0
1000
TREAT_AS_HARD
1070
     0
1000
TREAT_AS_HARD
1070
     0
1000
TREAT_AS_HARD
1070
     0
  0
GROUP
  5
FA3
102
{ACAD_REACTORS
330
D
102
}
330
D
100
AcDbGroup
300

 70
     1
 71
     1
  0
GROUP
  5
1597
102
{ACAD_REACTORS
330
D
102
}
330
D
100
AcDbGroup
300

 70
     1
 71
     1
  0
GROUP
  5
179D
102
{ACAD_REACTORS
330
D
102
}
330
D
100
AcDbGroup
300

 70
     1
 71
     1
  0
GROUP
  5
3390
102
{ACAD_REACTORS
330
D
102
}
330
D
100
AcDbGroup
300

 70
     1
 71
     1
  0
GROUP
  5
3A0A
102
{ACAD_REACTORS
330
D
102
}
330
D
100
AcDbGroup
300

 70
     1
 71
     1
  0
LAYOUT
  5
A9A
102
{ACAD_REACTORS
330
A98
102
}
330
A98
100
AcDbPlotSettings
  1

  2
Adobe PDF
  4
A3
  6

 40
3.174999952316284
 41
3.174999952316284
 42
3.17498779296875
 43
3.17498779296875
 44
297.0318298339844
 45
420.1583251953125
 46
2.67
 47
2.85
 48
-8.09872987394283
 49
-9.441603207410708
140
808.114529312747
141
561.2334822198422
142
1.0
143
2.0
 70
 28340
 72
     1
 73
     1
 74
     4
  7
systemprinter.ctb
 75
    17
147
0.5
148
8.09872987394283
149
9.441603207410708
100
AcDbLayout
  1
Model
 70
     1
 71
     0
 10
0.0
 20
0.0
 11
12.0
 21
9.0
 12
0.0
 22
0.0
 32
0.0
 14
0.0
 24
0.0
 34
0.0
 15
0.0
 25
0.0
 35
0.0
146
0.0
 13
0.0
 23
0.0
 33
0.0
 16
1.0
 26
0.0
 36
0.0
 17
0.0
 27
1.0
 37
0.0
 76
     0
330
1A
  0
LAYOUT
  5
A9B
102
{ACAD_REACTORS
330
A98
102
}
330
A98
100
AcDbPlotSettings
  1

  2
C:\PROGRAM FILES\ACAD LT 2000\plotters\DWF ePlot.pc3
  4
ANSI_A_(8.50_x_11.00_Inches)
  6

 40
5.793749809265137
 41
17.79375076293945
 42
5.793746948242188
 43
17.79376220703125
 44
215.8999938964844
 45
279.3999938964844
 46
0.0
 47
0.0
 48
0.0
 49
0.0
140
0.0
141
0.0
142
1.0
143
43.75760864458461
 70
   688
 72
     0
 73
     1
 74
     1
  7
systemprinter.ctb
 75
     0
147
0.0228531684197454
148
0.3255366854427166
149
0.2302009418498301
100
AcDbLayout
  1
ﾚｲｱｳﾄ1
 70
     1
 71
     1
 10
-30.66685116754002
 20
-9.990190459854741
 11
450.6668334081172
 21
361.9494725043409
 12
0.0
 22
0.0
 32
0.0
 14
-0.0128164049386896
 24
-0.0090630292066862
 34
-0.0015258207003583
 15
420.0128183607162
 25
297.0090644122207
 35
0.0000000349246037
146
0.0
 13
0.0
 23
0.0
 33
0.0
 16
1.0
 26
0.0
 36
0.0
 17
0.0
 27
1.0
 37
0.0
 76
     0
330
17
331
64
  0
MLINESTYLE
  5
13
102
{ACAD_REACTORS
330
E
102
}
330
E
100
AcDbMlineStyle
  2
STANDARD
 70
     0
  3

 62
     0
 51
90.0
 52
90.0
 71
     2
 49
0.5
 62
   256
  6
BYLAYER
 49
-0.5
 62
   256
  6
BYLAYER
  0
ACDBPLACEHOLDER
  5
A97
102
{ACAD_REACTORS
330
A96
102
}
330
A96
  0
ENDSEC
  0
EOF
