  0
SECTION
  2
HEADER
  9
$ACADVER
  1
AC1015
  9
$ACADMAINTVER
 70
     6
  9
$DWGCODEPAGE
  3
ANSI_932
  9
$INSBASE
 10
0.0
 20
0.0
 30
0.0
  9
$EXTMIN
 10
0.0000000135560185
 20
-0.0000001317113174
 30
0.0
  9
$EXTMAX
 10
797.6000000135562
 20
551.5999998682888
 30
0.0
  9
$LIMMIN
 10
0.0
 20
0.0
  9
$LIMMAX
 10
840.0
 20
594.0
  9
$ORTHOMODE
 70
     0
  9
$REGENMODE
 70
     1
  9
$FILLMODE
 70
     1
  9
$QTEXTMODE
 70
     0
  9
$MIRRTEXT
 70
     1
  9
$LTSCALE
 40
2.0
  9
$ATTMODE
 70
     1
  9
$TEXTSIZE
 40
6.0
  9
$TRACEWID
 40
1.0
  9
$TEXTSTYLE
  7
STANDARD
  9
$CLAYER
  8
SEIHIN
  9
$CELTYPE
  6
BYLAYER
  9
$CECOLOR
 62
   256
  9
$CELTSCALE
 40
1.0
  9
$DISPSILH
 70
     0
  9
$DIMSCALE
 40
1.0
  9
$DIMASZ
 40
7.0
  9
$DIMEXO
 40
6.0
  9
$DIMDLI
 40
14.0
  9
$DIMRND
 40
0.0
  9
$DIMDLE
 40
0.0
  9
$DIMEXE
 40
3.0
  9
$DIMTP
 40
0.0
  9
$DIMTM
 40
0.0
  9
$DIMTXT
 40
6.0
  9
$DIMCEN
 40
150.0
  9
$DIMTSZ
 40
0.0
  9
$DIMTOL
 70
     0
  9
$DIMLIM
 70
     0
  9
$DIMTIH
 70
     0
  9
$DIMTOH
 70
     0
  9
$DIMSE1
 70
     0
  9
$DIMSE2
 70
     0
  9
$DIMTAD
 70
     3
  9
$DIMZIN
 70
     0
  9
$DIMBLK
  1

  9
$DIMASO
 70
     1
  9
$DIMSHO
 70
     1
  9
$DIMPOST
  1

  9
$DIMAPOST
  1

  9
$DIMALT
 70
     0
  9
$DIMALTD
 70
     2
  9
$DIMALTF
 40
25.4
  9
$DIMLFAC
 40
1.0
  9
$DIMTOFL
 70
     1
  9
$DIMTVP
 40
0.0
  9
$DIMTIX
 70
     0
  9
$DIMSOXD
 70
     0
  9
$DIMSAH
 70
     1
  9
$DIMBLK1
  1
OPEN
  9
$DIMBLK2
  1
OPEN
  9
$DIMSTYLE
  2
STANDARD
  9
$DIMCLRD
 70
   256
  9
$DIMCLRE
 70
   256
  9
$DIMCLRT
 70
   256
  9
$DIMTFAC
 40
1.0
  9
$DIMGAP
 40
2.0
  9
$DIMJUST
 70
     0
  9
$DIMSD1
 70
     0
  9
$DIMSD2
 70
     0
  9
$DIMTOLJ
 70
     1
  9
$DIMTZIN
 70
     0
  9
$DIMALTZ
 70
     0
  9
$DIMALTTZ
 70
     0
  9
$DIMUPT
 70
     0
  9
$DIMDEC
 70
     0
  9
$DIMTDEC
 70
     0
  9
$DIMALTU
 70
     2
  9
$DIMALTTD
 70
     2
  9
$DIMTXSTY
  7
STANDARD
  9
$DIMAUNIT
 70
     0
  9
$DIMADEC
 70
     0
  9
$DIMALTRND
 40
0.0
  9
$DIMAZIN
 70
     0
  9
$DIMDSEP
 70
    46
  9
$DIMATFIT
 70
     3
  9
$DIMFRAC
 70
     0
  9
$DIMLDRBLK
  1
OPEN
  9
$DIMLUNIT
 70
     2
  9
$DIMLWD
 70
    -1
  9
$DIMLWE
 70
    -1
  9
$DIMTMOVE
 70
     0
  9
$LUNITS
 70
     2
  9
$LUPREC
 70
     4
  9
$SKETCHINC
 40
1.0
  9
$FILLETRAD
 40
10.0
  9
$AUNITS
 70
     0
  9
$AUPREC
 70
     0
  9
$MENU
  1
.
  9
$ELEVATION
 40
0.0
  9
$PELEVATION
 40
0.0
  9
$THICKNESS
 40
0.0
  9
$LIMCHECK
 70
     0
  9
$CHAMFERA
 40
0.0
  9
$CHAMFERB
 40
0.0
  9
$CHAMFERC
 40
40.0
  9
$CHAMFERD
 40
0.0
  9
$SKPOLY
 70
     0
  9
$TDCREATE
 40
2451030.614786227
  9
$TDUCREATE
 40
2451030.239786227
  9
$TDUPDATE
 40
2455609.405331447
  9
$TDUUPDATE
 40
2455609.030331447
  9
$TDINDWG
 40
0.2785952662
  9
$TDUSRTIMER
 40
0.2785952662
  9
$USRTIMER
 70
     1
  9
$ANGBASE
 50
0.0
  9
$ANGDIR
 70
     0
  9
$PDMODE
 70
     0
  9
$PDSIZE
 40
0.0
  9
$PLINEWID
 40
0.0
  9
$SPLFRAME
 70
     0
  9
$SPLINETYPE
 70
     6
  9
$SPLINESEGS
 70
     8
  9
$HANDSEED
  5
56AF
  9
$SURFTAB1
 70
     6
  9
$SURFTAB2
 70
     6
  9
$SURFTYPE
 70
     6
  9
$SURFU
 70
     6
  9
$SURFV
 70
     6
  9
$UCSBASE
  2

  9
$UCSNAME
  2

  9
$UCSORG
 10
0.0
 20
0.0
 30
0.0
  9
$UCSXDIR
 10
1.0
 20
0.0
 30
0.0
  9
$UCSYDIR
 10
0.0
 20
1.0
 30
0.0
  9
$UCSORTHOREF
  2

  9
$UCSORTHOVIEW
 70
     0
  9
$UCSORGTOP
 10
0.0
 20
0.0
 30
0.0
  9
$UCSORGBOTTOM
 10
0.0
 20
0.0
 30
0.0
  9
$UCSORGLEFT
 10
0.0
 20
0.0
 30
0.0
  9
$UCSORGRIGHT
 10
0.0
 20
0.0
 30
0.0
  9
$UCSORGFRONT
 10
0.0
 20
0.0
 30
0.0
  9
$UCSORGBACK
 10
0.0
 20
0.0
 30
0.0
  9
$PUCSBASE
  2

  9
$PUCSNAME
  2

  9
$PUCSORG
 10
0.0
 20
0.0
 30
0.0
  9
$PUCSXDIR
 10
1.0
 20
0.0
 30
0.0
  9
$PUCSYDIR
 10
0.0
 20
1.0
 30
0.0
  9
$PUCSORTHOREF
  2

  9
$PUCSORTHOVIEW
 70
     0
  9
$PUCSORGTOP
 10
0.0
 20
0.0
 30
0.0
  9
$PUCSORGBOTTOM
 10
0.0
 20
0.0
 30
0.0
  9
$PUCSORGLEFT
 10
0.0
 20
0.0
 30
0.0
  9
$PUCSORGRIGHT
 10
0.0
 20
0.0
 30
0.0
  9
$PUCSORGFRONT
 10
0.0
 20
0.0
 30
0.0
  9
$PUCSORGBACK
 10
0.0
 20
0.0
 30
0.0
  9
$USERI1
 70
     0
  9
$USERI2
 70
     0
  9
$USERI3
 70
     0
  9
$USERI4
 70
     0
  9
$USERI5
 70
     0
  9
$USERR1
 40
0.0
  9
$USERR2
 40
0.0
  9
$USERR3
 40
0.0
  9
$USERR4
 40
0.0
  9
$USERR5
 40
0.0
  9
$WORLDVIEW
 70
     1
  9
$SHADEDGE
 70
     3
  9
$SHADEDIF
 70
    70
  9
$TILEMODE
 70
     1
  9
$MAXACTVP
 70
    16
  9
$PINSBASE
 10
0.0
 20
0.0
 30
0.0
  9
$PLIMCHECK
 70
     0
  9
$PEXTMIN
 10
-0.0128164049386896
 20
-0.0090630292066862
 30
-0.0015258207003583
  9
$PEXTMAX
 10
420.0128183607162
 20
297.0090644122207
 30
0.0000000349246037
  9
$PLIMMIN
 10
-30.66685116754002
 20
-9.990190459854741
  9
$PLIMMAX
 10
450.6668334081172
 20
361.9494725043409
  9
$UNITMODE
 70
     0
  9
$VISRETAIN
 70
     0
  9
$PLINEGEN
 70
     0
  9
$PSLTSCALE
 70
     1
  9
$TREEDEPTH
 70
  3020
  9
$CMLSTYLE
  2
STANDARD
  9
$CMLJUST
 70
     0
  9
$CMLSCALE
 40
1.0
  9
$PROXYGRAPHICS
 70
     1
  9
$MEASUREMENT
 70
     0
  9
$CELWEIGHT
370
    -1
  9
$ENDCAPS
280
     0
  9
$JOINSTYLE
280
     0
  9
$LWDISPLAY
290
     0
  9
$INSUNITS
 70
     0
  9
$HYPERLINKBASE
  1

  9
$STYLESHEET
  1
systemprinter.ctb
  9
$XEDIT
290
     1
  9
$CEPSNTYPE
380
     0
  9
$PSTYLEMODE
290
     1
  9
$FINGERPRINTGUID
  2
{91E25F26-0CBF-4C93-982E-B5F00895E654}
  9
$VERSIONGUID
  2
{B5FF928A-2B1B-450D-A382-21035AE5F001}
  9
$EXTNAMES
290
     1
  9
$PSVPSCALE
 40
0.0
  9
$OLESTARTUP
290
     0
  0
ENDSEC
  0
SECTION
  2
CLASSES
  0
CLASS
  1
ACDBDICTIONARYWDFLT
  2
AcDbDictionaryWithDefault
  3
ObjectDBX Classes
 90
        0
280
     0
281
     0
  0
CLASS
  1
ACDBPLACEHOLDER
  2
AcDbPlaceHolder
  3
ObjectDBX Classes
 90
        0
280
     0
281
     0
  0
CLASS
  1
LAYOUT
  2
AcDbLayout
  3
ObjectDBX Classes
 90
        0
280
     0
281
     0
  0
CLASS
  1
DUMMY
  2
AcDbLongTransaction
  3
DUMMY
 90
        0
280
     0
281
     0
  0
CLASS
  1
LWPOLYLINE
  2
AcDbPolyline
  3
AutoCAD 2000
 90
        0
280
     0
281
     1
  0
CLASS
  1
HATCH
  2
AcDbHatch
  3
AutoCAD 2000
 90
        0
280
     0
281
     1
  0
CLASS
  1
XRECORD
  2
AcDbXrecord
  3
AutoCAD 2000
 90
        0
280
     0
281
     0
  0
CLASS
  1
DUMMY
  2
AcDbLongTransaction
  3
DUMMY
 90
        0
280
     0
281
     0
  0
CLASS
  1
LWPOLYLINE
  2
AcDbPolyline
  3
AutoCAD 2000
 90
        0
280
     0
281
     1
  0
CLASS
  1
HATCH
  2
AcDbHatch
  3
AutoCAD 2000
 90
        0
280
     0
281
     1
  0
CLASS
  1
XRECORD
  2
AcDbXrecord
  3
AutoCAD 2000
 90
        0
280
     0
281
     0
  0
CLASS
  1
DUMMY
  2
AcDbLongTransaction
  3
DUMMY
 90
        0
280
     0
281
     0
  0
CLASS
  1
LWPOLYLINE
  2
AcDbPolyline
  3
AutoCAD 2000
 90
        0
280
     0
281
     1
  0
CLASS
  1
HATCH
  2
AcDbHatch
  3
AutoCAD 2000
 90
        0
280
     0
281
     1
  0
CLASS
  1
XRECORD
  2
AcDbXrecord
  3
AutoCAD 2000
 90
        0
280
     0
281
     0
  0
CLASS
  1
DUMMY
  2
AcDbLongTransaction
  3
DUMMY
 90
        0
280
     0
281
     0
  0
CLASS
  1
LWPOLYLINE
  2
AcDbPolyline
  3
AutoCAD 2000
 90
        0
280
     0
281
     1
  0
CLASS
  1
HATCH
  2
AcDbHatch
  3
AutoCAD 2000
 90
        0
280
     0
281
     1
  0
CLASS
  1
XRECORD
  2
AcDbXrecord
  3
AutoCAD 2000
 90
        0
280
     0
281
     0
  0
ENDSEC
  0
SECTION
  2
TABLES
  0
TABLE
  2
VPORT
  5
8
330
0
100
AcDbSymbolTable
 70
     2
  0
VPORT
  5
56AE
330
8
100
AcDbSymbolTableRecord
100
AcDbViewportTableRecord
  2
*Active
 70
     0
 10
0.0
 20
0.0
 11
1.0
 21
1.0
 12
411.1124883490151
 22
294.2409882424837
 13
0.0
 23
0.0
 14
5.0
 24
5.0
 15
0.0
 25
0.0
 16
0.0
 26
0.0
 36
1.0
 17
0.0
 27
0.0
 37
0.0
 40
637.7513651510787
 41
1.651537335285505
 42
50.0
 43
0.0
 44
0.0
 50
0.0
 51
0.0
 71
     0
 72
   100
 73
     1
 74
     0
 75
     0
 76
     0
 77
     0
 78
     0
281
     0
 65
     1
110
0.0
120
0.0
130
0.0
111
1.0
121
0.0
131
0.0
112
0.0
122
1.0
132
0.0
 79
     0
146
0.0
  0
ENDTAB
  0
TABLE
  2
LTYPE
  5
5
330
0
100
AcDbSymbolTable
 70
     3
  0
LTYPE
  5
14
330
5
100
AcDbSymbolTableRecord
100
AcDbLinetypeTableRecord
  2
BYBLOCK
 70
     0
  3

 72
    65
 73
     0
 40
0.0
  0
LTYPE
  5
15
330
5
100
AcDbSymbolTableRecord
100
AcDbLinetypeTableRecord
  2
BYLAYER
 70
     0
  3

 72
    65
 73
     0
 40
0.0
  0
LTYPE
  5
16
330
5
100
AcDbSymbolTableRecord
100
AcDbLinetypeTableRecord
  2
CONTINUOUS
 70
     0
  3
Solid line
 72
    65
 73
     0
 40
0.0
  0
LTYPE
  5
115
330
5
100
AcDbSymbolTableRecord
100
AcDbLinetypeTableRecord
  2
PHANTOM
 70
     0
  3
______  __  __  ______  __  __  ______  __  __ 
 72
    65
 73
     6
 40
2.5
 49
1.25
 74
     0
 49
-0.25
 74
     0
 49
0.25
 74
     0
 49
-0.25
 74
     0
 49
0.25
 74
     0
 49
-0.25
 74
     0
  0
LTYPE
  5
135
330
5
100
AcDbSymbolTableRecord
100
AcDbLinetypeTableRecord
  2
CENTER
 70
     0
  3
____ _ ____ _ ____ _ ____ _ ____ _ ____ _ ____ 
 72
    65
 73
     4
 40
2.0
 49
1.25
 74
     0
 49
-0.25
 74
     0
 49
0.25
 74
     0
 49
-0.25
 74
     0
  0
ENDTAB
  0
TABLE
  2
LAYER
  5
2
330
0
100
AcDbSymbolTable
 70
     8
  0
LAYER
  5
F
330
2
100
AcDbSymbolTableRecord
100
AcDbLayerTableRecord
  2
0
 70
     0
 62
     7
  6
CONTINUOUS
370
    -3
390
A97
  0
LAYER
  5
62
330
2
100
AcDbSymbolTableRecord
100
AcDbLayerTableRecord
  2
VIEWPORT
 70
     0
 62
     7
  6
CONTINUOUS
370
    -3
390
A97
  0
LAYER
  5
143
330
2
100
AcDbSymbolTableRecord
100
AcDbLayerTableRecord
  2
SEIHIN
 70
     0
 62
     3
  6
CONTINUOUS
370
    -3
390
A97
  0
LAYER
  5
444
330
2
100
AcDbSymbolTableRecord
100
AcDbLayerTableRecord
  2
DEFPOINTS
 70
     0
 62
     7
  6
CONTINUOUS
290
     0
370
    -3
390
A97
  0
LAYER
  5
482
330
2
100
AcDbSymbolTableRecord
100
AcDbLayerTableRecord
  2
SUNPOU
 70
     0
 62
     4
  6
CONTINUOUS
370
    -3
390
A97
  0
LAYER
  5
5D4
330
2
100
AcDbSymbolTableRecord
100
AcDbLayerTableRecord
  2
CENTER L
 70
     0
 62
     1
  6
CENTER
370
    -3
390
A97
  0
LAYER
  5
3D95
330
2
100
AcDbSymbolTableRecord
100
AcDbLayerTableRecord
  2
ZUWAKU
 70
     0
 62
     7
  6
CONTINUOUS
370
    -3
390
A97
  0
LAYER
  5
3D96
330
2
100
AcDbSymbolTableRecord
100
AcDbLayerTableRecord
  2
moji
 70
     0
 62
     2
  6
CONTINUOUS
370
    -3
390
A97
  0
ENDTAB
  0
TABLE
  2
STYLE
  5
3
330
0
100
AcDbSymbolTable
 70
     2
  0
STYLE
  5
10
330
3
100
AcDbSymbolTableRecord
100
AcDbTextStyleTableRecord
  2
STANDARD
 70
     0
 40
0.0
 41
1.0
 50
0.0
 71
     0
 42
6.0
  3
TXT
  4
bigfont.shx
  0
STYLE
  5
3D97
330
3
100
AcDbSymbolTableRecord
100
AcDbTextStyleTableRecord
  2
ｽﾀｲﾙ1
 70
     0
 40
0.0
 41
1.0
 50
0.0
 71
     0
 42
2.5
  3
MS PGothic.ttf
  4

1001
ACAD
1000
MS PGothic
1071
    32818
  0
ENDTAB
  0
TABLE
  2
VIEW
  5
6
330
0
100
AcDbSymbolTable
 70
     0
  0
ENDTAB
  0
TABLE
  2
UCS
  5
7
330
0
100
AcDbSymbolTable
 70
     0
  0
ENDTAB
  0
TABLE
  2
APPID
  5
9
330
0
100
AcDbSymbolTable
 70
     1
  0
APPID
  5
11
330
9
100
AcDbSymbolTableRecord
100
AcDbRegAppTableRecord
  2
ACAD
 70
     0
  0
ENDTAB
  0
TABLE
  2
DIMSTYLE
  5
A
330
0
100
AcDbSymbolTable
 70
     1
100
AcDbDimStyleTable
  0
DIMSTYLE
105
1D
102
{ACAD_REACTORS
330
5449
330
544A
330
544B
330
544C
330
544D
330
5452
330
5490
330
54A2
330
54BD
330
5522
330
5529
330
5547
330
5548
330
5549
102
}
330
A
100
AcDbSymbolTableRecord
100
AcDbDimStyleTableRecord
  2
STANDARD
 70
     0
340
10
  0
ENDTAB
  0
TABLE
  2
BLOCK_RECORD
  5
1
330
0
100
AcDbSymbolTable
 70
    15
  0
BLOCK_RECORD
  5
1A
330
1
100
AcDbSymbolTableRecord
100
AcDbBlockTableRecord
  2
*MODEL_SPACE
340
A9A
  0
BLOCK_RECORD
  5
17
330
1
100
AcDbSymbolTableRecord
100
AcDbBlockTableRecord
  2
*PAPER_SPACE
340
A9B
  0
BLOCK_RECORD
  5
6D
330
1
100
AcDbSymbolTableRecord
100
AcDbBlockTableRecord
  2
_OPEN
340
0
102
{BLKREFS
331
5627
331
5628
331
5630
331
5631
331
563B
331
563C
331
5644
331
5645
331
564D
331
564E
331
5656
331
5657
331
565F
331
5660
331
566A
331
566B
331
5673
331
5674
331
567C
331
567D
331
5687
331
5688
331
5690
331
5691
331
5699
331
569A
331
56A2
331
56A3
102
}
  0
BLOCK_RECORD
  5
5576
330
1
100
AcDbSymbolTableRecord
100
AcDbBlockTableRecord
  2
*D1
340
0
  0
BLOCK_RECORD
  5
5582
330
1
100
AcDbSymbolTableRecord
100
AcDbBlockTableRecord
  2
*D2
340
0
  0
BLOCK_RECORD
  5
558E
330
1
100
AcDbSymbolTableRecord
100
AcDbBlockTableRecord
  2
*D3
340
0
  0
BLOCK_RECORD
  5
559C
330
1
100
AcDbSymbolTableRecord
100
AcDbBlockTableRecord
  2
*D4
340
0
  0
BLOCK_RECORD
  5
55A8
330
1
100
AcDbSymbolTableRecord
100
AcDbBlockTableRecord
  2
*D5
340
0
  0
BLOCK_RECORD
  5
55B4
330
1
100
AcDbSymbolTableRecord
100
AcDbBlockTableRecord
  2
*D6
340
0
  0
BLOCK_RECORD
  5
55C0
330
1
100
AcDbSymbolTableRecord
100
AcDbBlockTableRecord
  2
*D7
340
0
  0
BLOCK_RECORD
  5
55CC
330
1
100
AcDbSymbolTableRecord
100
AcDbBlockTableRecord
  2
*D8
340
0
  0
BLOCK_RECORD
  5
55DA
330
1
100
AcDbSymbolTableRecord
100
AcDbBlockTableRecord
  2
*D9
340
0
  0
BLOCK_RECORD
  5
55E6
330
1
100
AcDbSymbolTableRecord
100
AcDbBlockTableRecord
  2
*D10
340
0
  0
BLOCK_RECORD
  5
55F2
330
1
100
AcDbSymbolTableRecord
100
AcDbBlockTableRecord
  2
*D11
340
0
  0
BLOCK_RECORD
  5
5600
330
1
100
AcDbSymbolTableRecord
100
AcDbBlockTableRecord
  2
*D12
340
0
  0
BLOCK_RECORD
  5
560C
330
1
100
AcDbSymbolTableRecord
100
AcDbBlockTableRecord
  2
*D13
340
0
  0
BLOCK_RECORD
  5
5618
330
1
100
AcDbSymbolTableRecord
100
AcDbBlockTableRecord
  2
*D14
340
0
  0
ENDTAB
  0
ENDSEC
  0
SECTION
  2
BLOCKS
  0
BLOCK
  5
1B
330
1A
100
AcDbEntity
  8
0
100
AcDbBlockBegin
  2
*MODEL_SPACE
 70
     0
 71
     0
 10
0.0
 20
0.0
 30
0.0
  3
*MODEL_SPACE
  1

  0
ENDBLK
  5
1C
330
1A
100
AcDbEntity
  8
0
100
AcDbBlockEnd
  0
BLOCK
  5
18
330
17
100
AcDbEntity
 67
     1
  8
0
100
AcDbBlockBegin
  2
*PAPER_SPACE
 70
     0
 71
     0
 10
0.0
 20
0.0
 30
0.0
  3
*PAPER_SPACE
  1

  0
ENDBLK
  5
19
330
17
100
AcDbEntity
 67
     1
  8
0
100
AcDbBlockEnd
  0
BLOCK
  5
6E
330
6D
100
AcDbEntity
  8
0
100
AcDbBlockBegin
  2
_OPEN
 70
     0
 71
     0
 10
0.0
 20
0.0
 30
0.0
  3
_OPEN
  1

  0
LINE
  5
6F
330
6D
100
AcDbEntity
  8
0
  6
ByBlock
 62
     0
100
AcDbLine
 10
-1.0
 20
0.1666666666666667
 30
0.0
 11
0.0
 21
0.0
 31
0.0
  0
LINE
  5
70
330
6D
100
AcDbEntity
  8
0
  6
ByBlock
 62
     0
100
AcDbLine
 10
0.0
 20
0.0
 30
0.0
 11
-1.0
 21
-0.1666666666666667
 31
0.0
  0
LINE
  5
71
330
6D
100
AcDbEntity
  8
0
  6
ByBlock
 62
     0
100
AcDbLine
 10
0.0
 20
0.0
 30
0.0
 11
-1.0
 21
0.0
 31
0.0
  0
ENDBLK
  5
72
330
6D
100
AcDbEntity
  8
0
100
AcDbBlockEnd
  0
BLOCK
  5
5580
330
5576
100
AcDbEntity
  8
0
100
AcDbBlockBegin
  2
*D1
 70
     1
 71
     0
 10
0.0
 20
0.0
 30
0.0
  3
*D1
  1

  0
LINE
  5
5624
330
5576
100
AcDbEntity
  8
SUNPOU
 62
     4
370
    -2
100
AcDbLine
 10
381.4084369953824
 20
258.1370190318338
 30
0.0
 11
381.4084369953824
 21
301.499835436302
 31
0.0
  0
LINE
  5
5625
330
5576
100
AcDbEntity
  8
SUNPOU
 62
     4
370
    -2
100
AcDbLine
 10
416.4084369953824
 20
258.1370190318338
 30
0.0
 11
416.4084369953824
 21
301.499835436302
 31
0.0
  0
LINE
  5
5626
330
5576
100
AcDbEntity
  8
SUNPOU
 62
     4
370
    -2
100
AcDbLine
 10
388.4084369953824
 20
298.499835436302
 30
0.0
 11
409.4084369953824
 21
298.499835436302
 31
0.0
  0
INSERT
  5
5627
330
5576
100
AcDbEntity
  8
SUNPOU
 62
     4
370
    -2
100
AcDbBlockReference
  2
_OPEN
 10
381.4084369953824
 20
298.499835436302
 30
0.0
 41
7.0
 42
7.0
 43
7.0
 50
180.0
  0
INSERT
  5
5628
330
5576
100
AcDbEntity
  8
SUNPOU
 62
     4
370
    -2
100
AcDbBlockReference
  2
_OPEN
 10
416.4084369953824
 20
298.499835436302
 30
0.0
 41
7.0
 42
7.0
 43
7.0
  0
MTEXT
  5
5629
330
5576
100
AcDbEntity
  8
SUNPOU
 62
     4
100
AcDbMText
 10
398.9084369953824
 20
303.499835436302
 30
0.0
 40
6.0
 41
0.0
 71
     5
 72
     1
  1
\A1;35
 73
     1
 44
1.0
  0
POINT
  5
562A
330
5576
100
AcDbEntity
  8
DEFPOINTS
 62
     0
100
AcDbPoint
 10
381.4084369953824
 20
252.1370190318338
 30
0.0
  0
POINT
  5
562B
330
5576
100
AcDbEntity
  8
DEFPOINTS
 62
     0
100
AcDbPoint
 10
416.4084369953824
 20
252.1370190318338
 30
0.0
  0
POINT
  5
562C
330
5576
100
AcDbEntity
  8
DEFPOINTS
 62
     0
100
AcDbPoint
 10
416.4084369953824
 20
298.499835436302
 30
0.0
  0
ENDBLK
  5
5581
330
5576
100
AcDbEntity
  8
0
100
AcDbBlockEnd
  0
BLOCK
  5
558C
330
5582
100
AcDbEntity
  8
0
100
AcDbBlockBegin
  2
*D2
 70
     1
 71
     0
 10
0.0
 20
0.0
 30
0.0
  3
*D2
  1

  0
LINE
  5
562D
330
5582
100
AcDbEntity
  8
SUNPOU
 62
     4
370
    -2
100
AcDbLine
 10
420.801517201129
 20
198.2256256677553
 30
0.0
 11
433.3025735778764
 21
205.7370283679109
 31
0.0
  0
LINE
  5
562E
330
5582
100
AcDbEntity
  8
SUNPOU
 62
     4
370
    -2
100
AcDbLine
 10
386.5514389420959
 20
255.2272505726902
 30
0.0
 11
399.0524953188433
 21
262.7386532728457
 31
0.0
  0
LINE
  5
562F
330
5582
100
AcDbEntity
  8
SUNPOU
 62
     4
370
    -2
100
AcDbLine
 10
427.1258024735207
 20
210.1920815353149
 30
0.0
 11
400.0862644764857
 21
255.1933685645854
 31
0.0
  0
INSERT
  5
5630
330
5582
100
AcDbEntity
  8
SUNPOU
 62
     4
370
    -2
100
AcDbBlockReference
  2
_OPEN
 10
430.7310726045197
 20
204.1919125974827
 30
0.0
 41
7.0
 42
7.0
 43
7.0
 50
301.0000344397907
  0
INSERT
  5
5631
330
5582
100
AcDbEntity
  8
SUNPOU
 62
     4
370
    -2
100
AcDbBlockReference
  2
_OPEN
 10
396.4809943454866
 20
261.1935375024176
 30
0.0
 41
7.0
 42
7.0
 43
7.0
 50
121.0000344397907
  0
MTEXT
  5
5632
330
5582
100
AcDbEntity
  8
SUNPOU
 62
     4
100
AcDbMText
 10
417.8918684305976
 20
235.2679180006637
 30
0.0
 40
6.0
 41
0.0
 71
     5
 72
     1
  1
\A1;67
 11
0.515038590142718
 21
-0.8571669911188842
 31
0.0
 73
     1
 44
1.0
  0
POINT
  5
5633
330
5582
100
AcDbEntity
  8
DEFPOINTS
 62
     0
100
AcDbPoint
 10
415.6585152544157
 20
195.135394126899
 30
0.0
  0
POINT
  5
5634
330
5582
100
AcDbEntity
  8
DEFPOINTS
 62
     0
100
AcDbPoint
 10
381.4084369953826
 20
252.1370190318339
 30
0.0
  0
POINT
  5
5635
330
5582
100
AcDbEntity
  8
DEFPOINTS
 62
     0
100
AcDbPoint
 10
396.4809943454866
 20
261.1935375024176
 30
0.0
  0
ENDBLK
  5
558D
330
5582
100
AcDbEntity
  8
0
100
AcDbBlockEnd
  0
BLOCK
  5
559A
330
558E
100
AcDbEntity
  8
0
100
AcDbBlockBegin
  2
*D3
 70
     1
 71
     0
 10
0.0
 20
0.0
 30
0.0
  3
*D3
  1

  0
LINE
  5
5636
330
558E
100
AcDbEntity
  8
SUNPOU
 62
     4
370
    -2
100
AcDbLine
 10
418.7477219484254
 20
189.9914164704916
 30
0.0
 11
428.9352703495094
 21
173.0281095099911
 31
0.0
  0
LINE
  5
5637
330
558E
100
AcDbEntity
  8
SUNPOU
 62
     4
370
    -2
100
AcDbLine
 10
417.7190219484253
 20
189.3736164704916
 30
0.0
 11
427.9065703495093
 21
172.4103095099911
 31
0.0
  0
LINE
  5
5638
330
558E
100
AcDbEntity
  8
SUNPOU
 62
     4
370
    -2
100
AcDbLine
 10
433.3916742683131
 20
179.2039061478728
 30
0.0
 11
439.3926315341217
 21
182.8078639575508
 31
0.0
  0
LINE
  5
5639
330
558E
100
AcDbEntity
  8
SUNPOU
 62
     4
370
    -2
100
AcDbLine
 10
420.3610597366959
 20
171.3781905285168
 30
0.0
 11
397.2145102828628
 21
157.4772104054729
 31
0.0
  0
LINE
  5
563A
330
558E
100
AcDbEntity
  8
SUNPOU
 62
     4
370
    -2
100
AcDbLine
 10
427.3907170025046
 20
175.5999483381948
 30
0.0
 11
426.3620170025044
 21
174.9821483381948
 31
0.0
  0
INSERT
  5
563B
330
558E
100
AcDbEntity
  8
SUNPOU
 62
     4
370
    -2
100
AcDbBlockReference
  2
_OPEN
 10
427.3907170025046
 20
175.5999483381948
 30
0.0
 41
7.0
 42
7.0
 43
7.0
 50
210.9875038703288
  0
INSERT
  5
563C
330
558E
100
AcDbEntity
  8
SUNPOU
 62
     4
370
    -2
100
AcDbBlockReference
  2
_OPEN
 10
426.3620170025044
 20
174.9821483381948
 30
0.0
 41
7.0
 42
7.0
 43
7.0
 50
30.98750387032879
  0
MTEXT
  5
563D
330
558E
100
AcDbEntity
  8
SUNPOU
 62
     4
100
AcDbMText
 10
403.2130507985336
 20
166.912119609162
 30
0.0
 40
6.0
 41
0.0
 71
     5
 72
     1
  1
\A1;t1.2
 11
0.8572796094012244
 21
0.5148511156682912
 31
0.0
 73
     1
 44
1.0
  0
POINT
  5
563E
330
558E
100
AcDbEntity
  8
DEFPOINTS
 62
     0
100
AcDbPoint
 10
415.6586152544157
 20
195.1350941268989
 30
0.0
  0
POINT
  5
563F
330
558E
100
AcDbEntity
  8
DEFPOINTS
 62
     0
100
AcDbPoint
 10
414.6299152544156
 20
194.517294126899
 30
0.0
  0
POINT
  5
5640
330
558E
100
AcDbEntity
  8
DEFPOINTS
 62
     0
100
AcDbPoint
 10
426.3620170025044
 20
174.9821483381948
 30
0.0
  0
ENDBLK
  5
559B
330
558E
100
AcDbEntity
  8
0
100
AcDbBlockEnd
  0
BLOCK
  5
55A6
330
559C
100
AcDbEntity
  8
0
100
AcDbBlockBegin
  2
*D4
 70
     1
 71
     0
 10
0.0
 20
0.0
 30
0.0
  3
*D4
  1

  0
LINE
  5
5641
330
559C
100
AcDbEntity
  8
SUNPOU
 62
     4
370
    -2
100
AcDbLine
 10
245.1539152544157
 20
245.8153941268989
 30
0.0
 11
223.5629677149723
 21
245.8153941268989
 31
0.0
  0
LINE
  5
5642
330
559C
100
AcDbEntity
  8
SUNPOU
 62
     4
370
    -2
100
AcDbLine
 10
408.6299152544155
 20
194.517294126899
 30
0.0
 11
223.5629677149723
 21
194.517294126899
 31
0.0
  0
LINE
  5
5643
330
559C
100
AcDbEntity
  8
SUNPOU
 62
     4
370
    -2
100
AcDbLine
 10
226.5629677149723
 20
238.8153941268989
 30
0.0
 11
226.5629677149723
 21
201.517294126899
 31
0.0
  0
INSERT
  5
5644
330
559C
100
AcDbEntity
  8
SUNPOU
 62
     4
370
    -2
100
AcDbBlockReference
  2
_OPEN
 10
226.5629677149723
 20
245.8153941268989
 30
0.0
 41
7.0
 42
7.0
 43
7.0
 50
90.0
  0
INSERT
  5
5645
330
559C
100
AcDbEntity
  8
SUNPOU
 62
     4
370
    -2
100
AcDbBlockReference
  2
_OPEN
 10
226.5629677149723
 20
194.517294126899
 30
0.0
 41
7.0
 42
7.0
 43
7.0
 50
270.0
  0
MTEXT
  5
5646
330
559C
100
AcDbEntity
  8
SUNPOU
 62
     4
100
AcDbMText
 10
221.5629677149722
 20
220.166344126899
 30
0.0
 40
6.0
 41
0.0
 71
     5
 72
     1
  1
\A1;51
 11
6.123031769111886E-17
 21
1.0
 31
0.0
 73
     1
 44
1.0
  0
POINT
  5
5647
330
559C
100
AcDbEntity
  8
DEFPOINTS
 62
     0
100
AcDbPoint
 10
251.1539152544157
 20
245.8153941268989
 30
0.0
  0
POINT
  5
5648
330
559C
100
AcDbEntity
  8
DEFPOINTS
 62
     0
100
AcDbPoint
 10
414.6299152544155
 20
194.517294126899
 30
0.0
  0
POINT
  5
5649
330
559C
100
AcDbEntity
  8
DEFPOINTS
 62
     0
100
AcDbPoint
 10
226.5629677149723
 20
194.517294126899
 30
0.0
  0
ENDBLK
  5
55A7
330
559C
100
AcDbEntity
  8
0
100
AcDbBlockEnd
  0
BLOCK
  5
55B2
330
55A8
100
AcDbEntity
  8
0
100
AcDbBlockBegin
  2
*D5
 70
     1
 71
     0
 10
0.0
 20
0.0
 30
0.0
  3
*D5
  1

  0
LINE
  5
564A
330
55A8
100
AcDbEntity
  8
SUNPOU
 62
     4
370
    -2
100
AcDbLine
 10
398.2869317484484
 20
415.6391616470187
 30
0.0
 11
440.6045319940149
 21
415.6391616470187
 31
0.0
  0
LINE
  5
564B
330
55A8
100
AcDbEntity
  8
SUNPOU
 62
     4
370
    -2
100
AcDbLine
 10
398.2869317484484
 20
360.6391616470187
 30
0.0
 11
440.6045319940148
 21
360.6391616470187
 31
0.0
  0
LINE
  5
564C
330
55A8
100
AcDbEntity
  8
SUNPOU
 62
     4
370
    -2
100
AcDbLine
 10
437.6045319940149
 20
408.6391616470187
 30
0.0
 11
437.6045319940148
 21
367.6391616470187
 31
0.0
  0
INSERT
  5
564D
330
55A8
100
AcDbEntity
  8
SUNPOU
 62
     4
370
    -2
100
AcDbBlockReference
  2
_OPEN
 10
437.6045319940149
 20
415.6391616470187
 30
0.0
 41
7.0
 42
7.0
 43
7.0
 50
90.0
  0
INSERT
  5
564E
330
55A8
100
AcDbEntity
  8
SUNPOU
 62
     4
370
    -2
100
AcDbBlockReference
  2
_OPEN
 10
437.6045319940148
 20
360.6391616470187
 30
0.0
 41
7.0
 42
7.0
 43
7.0
 50
270.0
  0
MTEXT
  5
564F
330
55A8
100
AcDbEntity
  8
SUNPOU
 62
     4
100
AcDbMText
 10
432.6045319940147
 20
388.1391616470188
 30
0.0
 40
6.0
 41
0.0
 71
     5
 72
     1
  1
\A1;55
 11
6.123031769111886E-17
 21
1.0
 31
0.0
 73
     1
 44
1.0
  0
POINT
  5
5650
330
55A8
100
AcDbEntity
  8
DEFPOINTS
 62
     0
100
AcDbPoint
 10
392.2869317484484
 20
415.6391616470187
 30
0.0
  0
POINT
  5
5651
330
55A8
100
AcDbEntity
  8
DEFPOINTS
 62
     0
100
AcDbPoint
 10
392.2869317484484
 20
360.6391616470187
 30
0.0
  0
POINT
  5
5652
330
55A8
100
AcDbEntity
  8
DEFPOINTS
 62
     0
100
AcDbPoint
 10
437.6045319940148
 20
360.6391616470187
 30
0.0
  0
ENDBLK
  5
55B3
330
55A8
100
AcDbEntity
  8
0
100
AcDbBlockEnd
  0
BLOCK
  5
55BE
330
55B4
100
AcDbEntity
  8
0
100
AcDbBlockBegin
  2
*D6
 70
     1
 71
     0
 10
0.0
 20
0.0
 30
0.0
  3
*D6
  1

  0
LINE
  5
5653
330
55B4
100
AcDbEntity
  8
SUNPOU
 62
     4
370
    -2
100
AcDbLine
 10
251.1539152544157
 20
251.8153941268989
 30
0.0
 11
251.1539152544157
 21
301.499835436302
 31
0.0
  0
LINE
  5
5654
330
55B4
100
AcDbEntity
  8
SUNPOU
 62
     4
370
    -2
100
AcDbLine
 10
381.4084369953825
 20
258.1370190318339
 30
0.0
 11
381.4084369953825
 21
301.499835436302
 31
0.0
  0
LINE
  5
5655
330
55B4
100
AcDbEntity
  8
SUNPOU
 62
     4
370
    -2
100
AcDbLine
 10
258.1539152544157
 20
298.499835436302
 30
0.0
 11
374.4084369953825
 21
298.499835436302
 31
0.0
  0
INSERT
  5
5656
330
55B4
100
AcDbEntity
  8
SUNPOU
 62
     4
370
    -2
100
AcDbBlockReference
  2
_OPEN
 10
251.1539152544157
 20
298.499835436302
 30
0.0
 41
7.0
 42
7.0
 43
7.0
 50
180.0
  0
INSERT
  5
5657
330
55B4
100
AcDbEntity
  8
SUNPOU
 62
     4
370
    -2
100
AcDbBlockReference
  2
_OPEN
 10
381.4084369953825
 20
298.499835436302
 30
0.0
 41
7.0
 42
7.0
 43
7.0
  0
MTEXT
  5
5658
330
55B4
100
AcDbEntity
  8
SUNPOU
 62
     4
100
AcDbMText
 10
316.2811761248992
 20
303.499835436302
 30
0.0
 40
6.0
 41
0.0
 71
     5
 72
     1
  1
\A1;130
 73
     1
 44
1.0
  0
POINT
  5
5659
330
55B4
100
AcDbEntity
  8
DEFPOINTS
 62
     0
100
AcDbPoint
 10
251.1539152544157
 20
245.8153941268989
 30
0.0
  0
POINT
  5
565A
330
55B4
100
AcDbEntity
  8
DEFPOINTS
 62
     0
100
AcDbPoint
 10
381.4084369953825
 20
252.1370190318339
 30
0.0
  0
POINT
  5
565B
330
55B4
100
AcDbEntity
  8
DEFPOINTS
 62
     0
100
AcDbPoint
 10
381.4084369953825
 20
298.499835436302
 30
0.0
  0
ENDBLK
  5
55BF
330
55B4
100
AcDbEntity
  8
0
100
AcDbBlockEnd
  0
BLOCK
  5
55CA
330
55C0
100
AcDbEntity
  8
0
100
AcDbBlockBegin
  2
*D7
 70
     1
 71
     0
 10
0.0
 20
0.0
 30
0.0
  3
*D7
  1

  0
LINE
  5
565C
330
55C0
100
AcDbEntity
  8
SUNPOU
 62
     4
370
    -2
100
AcDbLine
 10
282.1539152544157
 20
222.5153941268989
 30
0.0
 11
282.1539152544157
 21
288.1788497606383
 31
0.0
  0
LINE
  5
565D
330
55C0
100
AcDbEntity
  8
SUNPOU
 62
     4
370
    -2
100
AcDbLine
 10
381.4084369953825
 20
258.1370190318339
 30
0.0
 11
381.4084369953825
 21
288.1788497606383
 31
0.0
  0
LINE
  5
565E
330
55C0
100
AcDbEntity
  8
SUNPOU
 62
     4
370
    -2
100
AcDbLine
 10
289.1539152544157
 20
285.1788497606383
 30
0.0
 11
374.4084369953825
 21
285.1788497606383
 31
0.0
  0
INSERT
  5
565F
330
55C0
100
AcDbEntity
  8
SUNPOU
 62
     4
370
    -2
100
AcDbBlockReference
  2
_OPEN
 10
282.1539152544157
 20
285.1788497606383
 30
0.0
 41
7.0
 42
7.0
 43
7.0
 50
180.0
  0
INSERT
  5
5660
330
55C0
100
AcDbEntity
  8
SUNPOU
 62
     4
370
    -2
100
AcDbBlockReference
  2
_OPEN
 10
381.4084369953825
 20
285.1788497606383
 30
0.0
 41
7.0
 42
7.0
 43
7.0
  0
MTEXT
  5
5661
330
55C0
100
AcDbEntity
  8
SUNPOU
 62
     4
100
AcDbMText
 10
331.7811761248992
 20
290.1788497606383
 30
0.0
 40
6.0
 41
0.0
 71
     5
 72
     1
  1
\A1;99
 73
     1
 44
1.0
  0
POINT
  5
5662
330
55C0
100
AcDbEntity
  8
DEFPOINTS
 62
     0
100
AcDbPoint
 10
282.1539152544157
 20
216.5153941268989
 30
0.0
  0
POINT
  5
5663
330
55C0
100
AcDbEntity
  8
DEFPOINTS
 62
     0
100
AcDbPoint
 10
381.4084369953825
 20
252.1370190318339
 30
0.0
  0
POINT
  5
5664
330
55C0
100
AcDbEntity
  8
DEFPOINTS
 62
     0
100
AcDbPoint
 10
381.4084369953825
 20
285.1788497606383
 30
0.0
  0
ENDBLK
  5
55CB
330
55C0
100
AcDbEntity
  8
0
100
AcDbBlockEnd
  0
BLOCK
  5
55D8
330
55CC
100
AcDbEntity
  8
0
100
AcDbBlockBegin
  2
*D8
 70
     1
 71
     0
 10
0.0
 20
0.0
 30
0.0
  3
*D8
  1

  0
LINE
  5
5665
330
55CC
100
AcDbEntity
  8
SUNPOU
 62
     4
370
    -2
100
AcDbLine
 10
371.6539152544157
 20
234.115394126899
 30
0.0
 11
371.6539152544157
 21
274.2027347035671
 31
0.0
  0
LINE
  5
5666
330
55CC
100
AcDbEntity
  8
SUNPOU
 62
     4
370
    -2
100
AcDbLine
 10
381.4084369953825
 20
258.1370190318339
 30
0.0
 11
381.4084369953825
 21
274.2027347035671
 31
0.0
  0
LINE
  5
5667
330
55CC
100
AcDbEntity
  8
SUNPOU
 62
     4
370
    -2
100
AcDbLine
 10
388.4084369953825
 20
271.2027347035671
 30
0.0
 11
395.4084369953825
 21
271.2027347035671
 31
0.0
  0
LINE
  5
5668
330
55CC
100
AcDbEntity
  8
SUNPOU
 62
     4
370
    -2
100
AcDbLine
 10
364.6539152544157
 20
271.2027347035671
 30
0.0
 11
346.6539152544157
 21
271.2027347035671
 31
0.0
  0
LINE
  5
5669
330
55CC
100
AcDbEntity
  8
SUNPOU
 62
     4
370
    -2
100
AcDbLine
 10
381.4084369953825
 20
271.2027347035671
 30
0.0
 11
371.6539152544157
 21
271.2027347035671
 31
0.0
  0
INSERT
  5
566A
330
55CC
100
AcDbEntity
  8
SUNPOU
 62
     4
370
    -2
100
AcDbBlockReference
  2
_OPEN
 10
381.4084369953825
 20
271.2027347035671
 30
0.0
 41
7.0
 42
7.0
 43
7.0
 50
180.0
  0
INSERT
  5
566B
330
55CC
100
AcDbEntity
  8
SUNPOU
 62
     4
370
    -2
100
AcDbBlockReference
  2
_OPEN
 10
371.6539152544157
 20
271.2027347035671
 30
0.0
 41
7.0
 42
7.0
 43
7.0
  0
MTEXT
  5
566C
330
55CC
100
AcDbEntity
  8
SUNPOU
 62
     4
100
AcDbMText
 10
352.1539152544157
 20
276.2027347035671
 30
0.0
 40
6.0
 41
0.0
 71
     5
 72
     1
  1
\A1;10
 73
     1
 44
1.0
  0
POINT
  5
566D
330
55CC
100
AcDbEntity
  8
DEFPOINTS
 62
     0
100
AcDbPoint
 10
371.6539152544157
 20
228.115394126899
 30
0.0
  0
POINT
  5
566E
330
55CC
100
AcDbEntity
  8
DEFPOINTS
 62
     0
100
AcDbPoint
 10
381.4084369953825
 20
252.1370190318339
 30
0.0
  0
POINT
  5
566F
330
55CC
100
AcDbEntity
  8
DEFPOINTS
 62
     0
100
AcDbPoint
 10
381.4084369953825
 20
271.2027347035671
 30
0.0
  0
ENDBLK
  5
55D9
330
55CC
100
AcDbEntity
  8
0
100
AcDbBlockEnd
  0
BLOCK
  5
55E4
330
55DA
100
AcDbEntity
  8
0
100
AcDbBlockBegin
  2
*D9
 70
     1
 71
     0
 10
0.0
 20
0.0
 30
0.0
  3
*D9
  1

  0
LINE
  5
5670
330
55DA
100
AcDbEntity
  8
SUNPOU
 62
     4
370
    -2
100
AcDbLine
 10
239.0360317484484
 20
399.1391616470188
 30
0.0
 11
217.4450842090049
 21
399.1391616470188
 31
0.0
  0
LINE
  5
5671
330
55DA
100
AcDbEntity
  8
SUNPOU
 62
     4
370
    -2
100
AcDbLine
 10
239.0360317484484
 20
377.1391616470187
 30
0.0
 11
217.4450842090049
 21
377.1391616470187
 31
0.0
  0
LINE
  5
5672
330
55DA
100
AcDbEntity
  8
SUNPOU
 62
     4
370
    -2
100
AcDbLine
 10
220.4450842090049
 20
392.1391616470188
 30
0.0
 11
220.4450842090049
 21
384.1391616470187
 31
0.0
  0
INSERT
  5
5673
330
55DA
100
AcDbEntity
  8
SUNPOU
 62
     4
370
    -2
100
AcDbBlockReference
  2
_OPEN
 10
220.4450842090049
 20
399.1391616470188
 30
0.0
 41
7.0
 42
7.0
 43
7.0
 50
90.0
  0
INSERT
  5
5674
330
55DA
100
AcDbEntity
  8
SUNPOU
 62
     4
370
    -2
100
AcDbBlockReference
  2
_OPEN
 10
220.4450842090049
 20
377.1391616470187
 30
0.0
 41
7.0
 42
7.0
 43
7.0
 50
270.0
  0
MTEXT
  5
5675
330
55DA
100
AcDbEntity
  8
SUNPOU
 62
     4
100
AcDbMText
 10
215.4450842090049
 20
388.1391616470188
 30
0.0
 40
6.0
 41
0.0
 71
     5
 72
     1
  1
\A1;22
 11
6.123031769111886E-17
 21
1.0
 31
0.0
 73
     1
 44
1.0
  0
POINT
  5
5676
330
55DA
100
AcDbEntity
  8
DEFPOINTS
 62
     0
100
AcDbPoint
 10
245.0360317484484
 20
399.1391616470188
 30
0.0
  0
POINT
  5
5677
330
55DA
100
AcDbEntity
  8
DEFPOINTS
 62
     0
100
AcDbPoint
 10
245.0360317484484
 20
377.1391616470187
 30
0.0
  0
POINT
  5
5678
330
55DA
100
AcDbEntity
  8
DEFPOINTS
 62
     0
100
AcDbPoint
 10
220.4450842090049
 20
377.1391616470187
 30
0.0
  0
ENDBLK
  5
55E5
330
55DA
100
AcDbEntity
  8
0
100
AcDbBlockEnd
  0
BLOCK
  5
55F0
330
55E6
100
AcDbEntity
  8
0
100
AcDbBlockBegin
  2
*D10
 70
     1
 71
     0
 10
0.0
 20
0.0
 30
0.0
  3
*D10
  1

  0
LINE
  5
5679
330
55E6
100
AcDbEntity
  8
SUNPOU
 62
     4
370
    -2
100
AcDbLine
 10
491.8747742296653
 20
318.5111314645161
 30
0.0
 11
467.1153301893846
 21
303.6341565916949
 31
0.0
  0
LINE
  5
567A
330
55E6
100
AcDbEntity
  8
SUNPOU
 62
     4
370
    -2
100
AcDbLine
 10
499.9358742296654
 20
294.1890314645162
 30
0.0
 11
479.9912214061349
 21
282.20507502268
 31
0.0
  0
LINE
  5
567B
330
55E6
100
AcDbEntity
  8
SUNPOU
 62
     4
370
    -2
100
AcDbLine
 10
473.2920986158614
 20
299.1790997115102
 30
0.0
 11
478.9574567838709
 21
289.750360352325
 31
0.0
  0
INSERT
  5
567C
330
55E6
100
AcDbEntity
  8
SUNPOU
 62
     4
370
    -2
100
AcDbBlockReference
  2
_OPEN
 10
469.686832091491
 20
305.1792708164251
 30
0.0
 41
7.0
 42
7.0
 43
7.0
 50
120.9999999999998
  0
INSERT
  5
567D
330
55E6
100
AcDbEntity
  8
SUNPOU
 62
     4
370
    -2
100
AcDbBlockReference
  2
_OPEN
 10
482.5627233082413
 20
283.7501892474102
 30
0.0
 41
7.0
 42
7.0
 43
7.0
 50
300.9999999999998
  0
MTEXT
  5
567E
330
55E6
100
AcDbEntity
  8
SUNPOU
 62
     4
100
AcDbMText
 10
480.4106142033767
 20
297.0399204064679
 30
0.0
 40
6.0
 41
0.0
 71
     5
 72
     1
  1
\A1;25
 11
0.5150380749100513
 21
-0.857167300702114
 31
0.0
 73
     1
 44
1.0
  0
POINT
  5
567F
330
55E6
100
AcDbEntity
  8
DEFPOINTS
 62
     0
100
AcDbPoint
 10
497.017778033878
 20
321.6013599139764
 30
0.0
  0
POINT
  5
5680
330
55E6
100
AcDbEntity
  8
DEFPOINTS
 62
     0
100
AcDbPoint
 10
505.0788780338781
 20
297.2792599139766
 30
0.0
  0
POINT
  5
5681
330
55E6
100
AcDbEntity
  8
DEFPOINTS
 62
     0
100
AcDbPoint
 10
482.5627233082413
 20
283.7501892474102
 30
0.0
  0
ENDBLK
  5
55F1
330
55E6
100
AcDbEntity
  8
0
100
AcDbBlockEnd
  0
BLOCK
  5
55FE
330
55F2
100
AcDbEntity
  8
0
100
AcDbBlockBegin
  2
*D11
 70
     1
 71
     0
 10
0.0
 20
0.0
 30
0.0
  3
*D11
  1

  0
LINE
  5
5682
330
55F2
100
AcDbEntity
  8
SUNPOU
 62
     4
370
    -2
100
AcDbLine
 10
532.4757629472
 20
274.0753337191753
 30
0.0
 11
505.4803206093553
 21
257.8548355251352
 31
0.0
  0
LINE
  5
5683
330
55F2
100
AcDbEntity
  8
SUNPOU
 62
     4
370
    -2
100
AcDbLine
 10
541.9822742296651
 20
271.0375314645161
 30
0.0
 11
509.3431679905439
 21
251.4259778851715
 31
0.0
  0
LINE
  5
5684
330
55F2
100
AcDbEntity
  8
SUNPOU
 62
     4
370
    -2
100
AcDbLine
 10
504.4465559870912
 20
265.4001208547802
 30
0.0
 11
500.8412894627209
 21
271.400291959695
 31
0.0
  0
LINE
  5
5685
330
55F2
100
AcDbEntity
  8
SUNPOU
 62
     4
370
    -2
100
AcDbLine
 10
515.5199364170205
 20
246.9709210049869
 30
0.0
 11
523.2455075406713
 21
234.1134114944552
 31
0.0
  0
LINE
  5
5686
330
55F2
100
AcDbEntity
  8
SUNPOU
 62
     4
370
    -2
100
AcDbLine
 10
508.0518225114616
 20
259.3999497498654
 30
0.0
 11
511.9146698926502
 21
252.9710921099017
 31
0.0
  0
INSERT
  5
5687
330
55F2
100
AcDbEntity
  8
SUNPOU
 62
     4
370
    -2
100
AcDbBlockReference
  2
_OPEN
 10
508.0518225114616
 20
259.3999497498654
 30
0.0
 41
7.0
 42
7.0
 43
7.0
 50
300.9999999999998
  0
INSERT
  5
5688
330
55F2
100
AcDbEntity
  8
SUNPOU
 62
     4
370
    -2
100
AcDbBlockReference
  2
_OPEN
 10
511.9146698926502
 20
252.9710921099017
 30
0.0
 41
7.0
 42
7.0
 43
7.0
 50
120.9999999999998
  0
MTEXT
  5
5689
330
55F2
100
AcDbEntity
  8
SUNPOU
 62
     4
100
AcDbMText
 10
525.4711917445417
 20
240.1172710718139
 30
0.0
 40
6.0
 41
0.0
 71
     5
 72
     1
  1
\A1;8
 11
0.5150380749100513
 21
-0.857167300702114
 31
0.0
 73
     1
 44
1.0
  0
POINT
  5
568A
330
55F2
100
AcDbEntity
  8
DEFPOINTS
 62
     0
100
AcDbPoint
 10
537.6187667514126
 20
277.1655621686356
 30
0.0
  0
POINT
  5
568B
330
55F2
100
AcDbEntity
  8
DEFPOINTS
 62
     0
100
AcDbPoint
 10
547.1252780338778
 20
274.1277599139764
 30
0.0
  0
POINT
  5
568C
330
55F2
100
AcDbEntity
  8
DEFPOINTS
 62
     0
100
AcDbPoint
 10
511.9146698926502
 20
252.9710921099017
 30
0.0
  0
ENDBLK
  5
55FF
330
55F2
100
AcDbEntity
  8
0
100
AcDbBlockEnd
  0
BLOCK
  5
560A
330
5600
100
AcDbEntity
  8
0
100
AcDbBlockBegin
  2
*D12
 70
     1
 71
     0
 10
0.0
 20
0.0
 30
0.0
  3
*D12
  1

  0
LINE
  5
568D
330
5600
100
AcDbEntity
  8
SUNPOU
 62
     4
370
    -2
100
AcDbLine
 10
533.8759818373197
 20
343.7479883629733
 30
0.0
 11
566.4401329937524
 21
363.3145043849343
 31
0.0
  0
LINE
  5
568E
330
5600
100
AcDbEntity
  8
SUNPOU
 62
     4
370
    -2
100
AcDbLine
 10
554.9772818380905
 20
320.2612883634368
 30
0.0
 11
582.406315464445
 21
336.7423144874958
 31
0.0
  0
LINE
  5
568F
330
5600
100
AcDbEntity
  8
SUNPOU
 62
     4
370
    -2
100
AcDbLine
 10
567.4738976160164
 20
355.7692190552894
 30
0.0
 11
576.2295470379684
 21
341.1973713676805
 31
0.0
  0
INSERT
  5
5690
330
5600
100
AcDbEntity
  8
SUNPOU
 62
     4
370
    -2
100
AcDbBlockReference
  2
_OPEN
 10
563.8686310916461
 20
361.7693901602042
 30
0.0
 41
7.0
 42
7.0
 43
7.0
 50
120.9999999999998
  0
INSERT
  5
5691
330
5600
100
AcDbEntity
  8
SUNPOU
 62
     4
370
    -2
100
AcDbBlockReference
  2
_OPEN
 10
579.8348135623387
 20
335.1972002627657
 30
0.0
 41
7.0
 42
7.0
 43
7.0
 50
300.9999999999998
  0
MTEXT
  5
5692
330
5600
100
AcDbEntity
  8
SUNPOU
 62
     4
100
AcDbMText
 10
576.1375588305029
 20
351.0584855860352
 30
0.0
 40
6.0
 41
0.0
 71
     5
 72
     1
  1
\A1;31
 11
0.5150380749100513
 21
-0.857167300702114
 31
0.0
 73
     1
 44
1.0
  0
POINT
  5
5693
330
5600
100
AcDbEntity
  8
DEFPOINTS
 62
     0
100
AcDbPoint
 10
528.7329780331071
 20
340.657759913513
 30
0.0
  0
POINT
  5
5694
330
5600
100
AcDbEntity
  8
DEFPOINTS
 62
     0
100
AcDbPoint
 10
549.8342780338777
 20
317.1710599139765
 30
0.0
  0
POINT
  5
5695
330
5600
100
AcDbEntity
  8
DEFPOINTS
 62
     0
100
AcDbPoint
 10
579.8348135623387
 20
335.1972002627657
 30
0.0
  0
ENDBLK
  5
560B
330
5600
100
AcDbEntity
  8
0
100
AcDbBlockEnd
  0
BLOCK
  5
5616
330
560C
100
AcDbEntity
  8
0
100
AcDbBlockBegin
  2
*D13
 70
     1
 71
     0
 10
0.0
 20
0.0
 30
0.0
  3
*D13
  1

  0
LINE
  5
5696
330
560C
100
AcDbEntity
  8
SUNPOU
 62
     4
370
    -2
100
AcDbLine
 10
491.3634495844179
 20
313.5373637181892
 30
0.0
 11
465.5221185041842
 21
356.5445608316494
 31
0.0
  0
LINE
  5
5697
330
560C
100
AcDbEntity
  8
SUNPOU
 62
     4
370
    -2
100
AcDbLine
 10
538.5076495844178
 20
341.8643637181892
 30
0.0
 11
512.6662773607869
 21
384.8716293057611
 31
0.0
  0
LINE
  5
5698
330
560C
100
AcDbEntity
  8
SUNPOU
 62
     4
370
    -2
100
AcDbLine
 10
473.0674038338292
 20
357.5783254539134
 30
0.0
 11
508.2112204806023
 21
378.6948608792844
 31
0.0
  0
INSERT
  5
5699
330
560C
100
AcDbEntity
  8
SUNPOU
 62
     4
370
    -2
100
AcDbBlockReference
  2
_OPEN
 10
467.0672327289143
 20
353.973058929543
 30
0.0
 41
7.0
 42
7.0
 43
7.0
 50
210.9999999999998
  0
INSERT
  5
569A
330
560C
100
AcDbEntity
  8
SUNPOU
 62
     4
370
    -2
100
AcDbBlockReference
  2
_OPEN
 10
514.2113915855171
 20
382.3001274036547
 30
0.0
 41
7.0
 42
7.0
 43
7.0
 50
30.99999999999978
  0
MTEXT
  5
569B
330
560C
100
AcDbEntity
  8
SUNPOU
 62
     4
100
AcDbMText
 10
488.0641217826654
 20
372.4224296701094
 30
0.0
 40
6.0
 41
0.0
 71
     5
 72
     1
  1
\A1;55
 11
0.8571673007021143
 21
0.5150380749100508
 31
0.0
 73
     1
 44
1.0
  0
POINT
  5
569C
330
560C
100
AcDbEntity
  8
DEFPOINTS
 62
     0
100
AcDbPoint
 10
494.4536780338782
 20
308.3943599139766
 30
0.0
  0
POINT
  5
569D
330
560C
100
AcDbEntity
  8
DEFPOINTS
 62
     0
100
AcDbPoint
 10
541.5978780338782
 20
336.7213599139765
 30
0.0
  0
POINT
  5
569E
330
560C
100
AcDbEntity
  8
DEFPOINTS
 62
     0
100
AcDbPoint
 10
514.2113915855171
 20
382.3001274036547
 30
0.0
  0
ENDBLK
  5
5617
330
560C
100
AcDbEntity
  8
0
100
AcDbBlockEnd
  0
BLOCK
  5
5622
330
5618
100
AcDbEntity
  8
0
100
AcDbBlockBegin
  2
*D14
 70
     1
 71
     0
 10
0.0
 20
0.0
 30
0.0
  3
*D14
  1

  0
LINE
  5
569F
330
5618
100
AcDbEntity
  8
SUNPOU
 62
     4
370
    -2
100
AcDbLine
 10
503.8925495844177
 20
308.2180637181891
 30
0.0
 11
481.7190268213548
 21
345.1210027041873
 31
0.0
  0
LINE
  5
56A0
330
5618
100
AcDbEntity
  8
SUNPOU
 62
     4
370
    -2
100
AcDbLine
 10
537.3221495844178
 20
328.3045637181893
 30
0.0
 11
515.148613510989
 21
365.2075248563563
 31
0.0
  0
LINE
  5
56A1
330
5618
100
AcDbEntity
  8
SUNPOU
 62
     4
370
    -2
100
AcDbLine
 10
489.2643121509997
 20
346.1547673264514
 30
0.0
 11
510.6935566308044
 21
359.0307564298796
 31
0.0
  0
INSERT
  5
56A2
330
5618
100
AcDbEntity
  8
SUNPOU
 62
     4
370
    -2
100
AcDbBlockReference
  2
_OPEN
 10
483.2641410460849
 20
342.549500802081
 30
0.0
 41
7.0
 42
7.0
 43
7.0
 50
210.9999999999998
  0
INSERT
  5
56A3
330
5618
100
AcDbEntity
  8
SUNPOU
 62
     4
370
    -2
100
AcDbBlockReference
  2
_OPEN
 10
516.6937277357192
 20
362.63602295425
 30
0.0
 41
7.0
 42
7.0
 43
7.0
 50
30.99999999999978
  0
MTEXT
  5
56A4
330
5618
100
AcDbEntity
  8
SUNPOU
 62
     4
100
AcDbMText
 10
497.4037440163518
 20
356.878598381676
 30
0.0
 40
6.0
 41
0.0
 71
     5
 72
     1
  1
\A1;39
 11
0.8571673007021143
 21
0.5150380749100508
 31
0.0
 73
     1
 44
1.0
  0
POINT
  5
56A5
330
5618
100
AcDbEntity
  8
DEFPOINTS
 62
     0
100
AcDbPoint
 10
506.9827780338781
 20
303.0750599139765
 30
0.0
  0
POINT
  5
56A6
330
5618
100
AcDbEntity
  8
DEFPOINTS
 62
     0
100
AcDbPoint
 10
540.4123780338782
 20
323.1615599139766
 30
0.0
  0
POINT
  5
56A7
330
5618
100
AcDbEntity
  8
DEFPOINTS
 62
     0
100
AcDbPoint
 10
516.6937277357192
 20
362.63602295425
 30
0.0
  0
ENDBLK
  5
5623
330
5618
100
AcDbEntity
  8
0
100
AcDbBlockEnd
  0
ENDSEC
  0
SECTION
  2
ENTITIES
  0
LINE
  5
3EF3
330
1A
100
AcDbEntity
  8
ZUWAKU
100
AcDbLine
 10
208.646601303624
 20
15.19999986828872
 30
0.0
 11
447.4243639845474
 21
15.19999986828871
 31
0.0
  0
LINE
  5
3EF4
330
1A
100
AcDbEntity
  8
ZUWAKU
100
AcDbLine
 10
208.646601303624
 20
15.59999986828872
 30
0.0
 11
447.4243639845474
 21
15.59999986828872
 31
0.0
  0
LINE
  5
3EF5
330
1A
100
AcDbEntity
  8
ZUWAKU
100
AcDbLine
 10
208.646601303624
 20
15.39999986828872
 30
0.0
 11
447.4243639845474
 21
15.39999986828872
 31
0.0
  0
LINE
  5
3EF6
330
1A
100
AcDbEntity
  8
ZUWAKU
100
AcDbLine
 10
0.0000000135560185
 20
30.79999986828869
 30
0.0
 11
797.4000000135559
 21
30.79999986828869
 31
0.0
  0
LINE
  5
3EF7
330
1A
100
AcDbEntity
  8
ZUWAKU
100
AcDbLine
 10
0.0000000135560185
 20
30.59999986828869
 30
0.0
 11
797.4000000135559
 21
30.59999986828869
 31
0.0
  0
LINE
  5
3EF8
330
1A
100
AcDbEntity
  8
ZUWAKU
100
AcDbLine
 10
0.0000000135560185
 20
30.39999986828869
 30
0.0
 11
797.4000000135559
 21
30.39999986828869
 31
0.0
  0
LINE
  5
3EF9
330
1A
100
AcDbEntity
  8
ZUWAKU
100
AcDbLine
 10
0.0000000135560185
 20
30.19999986828869
 30
0.0
 11
797.4000000135559
 21
30.19999986828869
 31
0.0
  0
LINE
  5
3EFA
330
1A
100
AcDbEntity
  8
ZUWAKU
100
AcDbLine
 10
0.0000000135560185
 20
29.99999986828868
 30
0.0
 11
797.4000000135559
 21
29.99999986828868
 31
0.0
  0
LWPOLYLINE
  5
3EFB
330
1A
100
AcDbEntity
  8
ZUWAKU
100
AcDbPolyline
 90
        4
 70
     1
 43
0.0
 10
0.2000000135559503
 20
551.3999998682888
 10
0.2000000135559503
 20
0.1999998682887281
 10
797.4000000135559
 20
0.1999998682887512
 10
797.4000000135561
 20
551.3999998682888
  0
LWPOLYLINE
  5
3EFC
330
1A
100
AcDbEntity
  8
ZUWAKU
100
AcDbPolyline
 90
        4
 70
     1
 43
0.0
 10
0.6000000135559276
 20
550.9999998682888
 10
0.6000000135559276
 20
0.5999998682887053
 10
797.0000000135563
 20
0.5999998682887515
 10
797.000000013556
 20
550.9999998682888
  0
LWPOLYLINE
  5
3EFD
330
1A
100
AcDbEntity
  8
ZUWAKU
100
AcDbPolyline
 90
        4
 70
     1
 43
0.0
 10
0.0000000135560185
 20
551.5999998682887
 10
0.0000000135560185
 20
-0.0000001317113174
 10
797.6000000135562
 20
-0.0000001317112499
 10
797.6000000135562
 20
551.5999998682888
  0
LWPOLYLINE
  5
3EFE
330
1A
100
AcDbEntity
  8
ZUWAKU
100
AcDbPolyline
 90
        4
 70
     1
 43
0.0
 10
0.4000000135559958
 20
551.1999998682887
 10
0.4000000135559958
 20
0.3999998682887735
 10
797.2000000135561
 20
0.3999998682887505
 10
797.2000000135561
 20
551.1999998682887
  0
LWPOLYLINE
  5
3EFF
330
1A
100
AcDbEntity
  8
ZUWAKU
100
AcDbPolyline
 90
        4
 70
     1
 43
0.0
 10
0.8000000135559731
 20
550.7999998682888
 10
0.8000000135559731
 20
0.7999998682887508
 10
796.800000013556
 20
0.7999998682887508
 10
796.800000013556
 20
550.7999998682888
  0
TEXT
  5
3F00
330
1A
100
AcDbEntity
  8
moji
100
AcDbText
 10
92.95778960172515
 20
12.74117799856344
 30
0.0
 40
6.0
  1
アーバントップΣ９０
 41
0.9
  7
ｽﾀｲﾙ1
100
AcDbText
  0
HATCH
  5
3F01
330
1A
100
AcDbEntity
  8
ZUWAKU
100
AcDbHatch
 10
0.0
 20
0.0
 30
0.0
210
0.0
220
0.0
230
1.0
  2
ANSI37
 70
     0
 71
     0
 91
        8
 92
        7
 72
     1
 73
     1
 93
       24
 10
14.50226267467588
 20
17.64484834927227
 42
-0.1989123673796348
 10
14.09221216833714
 20
18.63479784293332
 42
0.0
 10
14.09221216833714
 20
19.92499986828869
 42
-0.4142135623730912
 10
14.61721216833712
 20
20.44999986828869
 42
0.0
 10
17.59221216833703
 20
20.44999986828869
 42
0.4142135623731546
 10
18.11721216833712
 20
20.97499986828868
 42
0.0
 10
18.11721216833712
 20
22.72499986828869
 42
0.4142135623731586
 10
17.59221216833703
 20
23.24999986828869
 42
0.0
 10
14.09221216833714
 20
23.24999986828869
 42
0.4142135623730928
 10
11.29221216833719
 20
20.44999986828871
 42
0.0
 10
11.29221216833719
 20
18.63479784293345
 42
0.1989123673796619
 10
12.52236368735362
 20
15.66494936194984
 42
0.0
 10
15.43216166199829
 20
12.75515138730518
 42
-0.1989123673796613
 10
15.84221216833714
 20
11.76520189364399
 42
0.0
 10
15.84221216833714
 20
10.47499986828868
 42
-0.4142135623730911
 10
15.31721216833716
 20
9.949999868288685
 42
0.0
 10
12.34221216833726
 20
9.949999868288685
 42
0.4142135623731526
 10
11.81721216833716
 20
9.424999868288698
 42
0.0
 10
11.81721216833716
 20
7.674999868288676
 42
0.4142135623731526
 10
12.34221216833726
 20
7.149999868288688
 42
0.0
 10
15.84221216833714
 20
7.149999868288688
 42
0.4142135623731044
 10
18.64221216833721
 20
9.949999868288664
 42
0.0
 10
18.64221216833721
 20
11.76520189364394
 42
0.1989123673796604
 10
17.41206064932067
 20
14.73505037462748
 42
0.0
 97
        0
 92
        7
 72
     1
 73
     1
 93
       16
 10
23.54221216833719
 20
19.04999986828869
 42
-0.4142135623730935
 10
24.94221216833716
 20
20.44999986828869
 42
0.0
 10
26.86721216833712
 20
20.44999986828869
 42
0.4142135623731546
 10
27.39221216833721
 20
20.97499986828868
 42
0.0
 10
27.39221216833721
 20
22.72499986828869
 42
0.4142135623730952
 10
26.86721216833723
 20
23.24999986828869
 42
0.0
 10
24.94221216833705
 20
23.24999986828865
 42
0.4142135623730892
 10
20.74221216833712
 20
19.04999986828862
 42
0.0
 10
20.74221216833712
 20
11.34999986828871
 42
0.4142135623730969
 10
24.94221216833716
 20
7.149999868288688
 42
0.0
 10
26.86721216833712
 20
7.149999868288688
 42
0.4142135623731526
 10
27.39221216833721
 20
7.674999868288676
 42
0.0
 10
27.39221216833721
 20
9.424999868288698
 42
0.414213562373089
 10
26.86721216833723
 20
9.949999868288685
 42
0.0
 10
24.94221216833716
 20
9.949999868288685
 42
-0.4142135623730928
 10
23.54221216833719
 20
11.34999986828867
 42
0.0
 97
        0
 92
        7
 72
     1
 73
     1
 93
        2
 10
24.24221216833712
 20
15.19999986828869
 42
1.0
 10
27.74221216833712
 20
15.19999986828869
 42
1.0
 97
        0
 92
        7
 72
     1
 73
     1
 93
       26
 10
37.31485865051513
 20
19.20504706185211
 42
0.0
 10
38.37649828365295
 20
22.5669059001217
 42
0.5069206636600134
 10
37.87586738445759
 20
23.24999986828869
 42
0.0
 10
36.17697800484837
 20
23.24999986828869
 42
0.3272098845218764
 10
35.67634710565301
 20
22.88309383645566
 42
0.0
 10
33.80807723102123
 20
16.96690590012177
 42
-0.3272098845219541
 10
33.30744633182576
 20
16.59999986828868
 42
0.0
 10
33.1672121683373
 20
16.59999986828868
 42
-0.4142135623731526
 10
32.64221216833721
 20
17.12499986828867
 42
0.0
 10
32.64221216833721
 20
22.72499986828869
 42
0.4142135623730952
 10
32.11721216833723
 20
23.24999986828869
 42
0.0
 10
30.36721216833712
 20
23.24999986828869
 42
0.4142135623730872
 10
29.84221216833714
 20
22.72499986828871
 42
0.0
 10
29.84221216833714
 20
7.674999868288676
 42
0.414213562373089
 10
30.36721216833712
 20
7.149999868288688
 42
0.0
 10
32.11721216833712
 20
7.149999868288688
 42
0.4142135623731526
 10
32.64221216833721
 20
7.674999868288676
 42
0.0
 10
32.64221216833721
 20
13.2749998682887
 42
-0.4142135623731526
 10
33.1672121683373
 20
13.79999986828869
 42
0.0
 10
33.30744633182587
 20
13.79999986828869
 42
-0.3272098845218915
 10
33.80807723102123
 20
13.43309383645561
 42
0.0
 10
35.67634710565301
 20
7.51690590012176
 42
0.3272098845218902
 10
36.17697800484837
 20
7.149999868288688
 42
0.0
 10
37.87586738445759
 20
7.149999868288688
 42
0.5069206636600334
 10
38.37649828365295
 20
7.833093836455696
 42
0.0
 10
36.05010690517929
 20
15.19999986828882
 42
0.0
 97
        0
 92
        7
 72
     1
 73
     1
 93
        8
 10
43.49221216833712
 20
22.7249998682887
 42
0.4142135623731546
 10
42.96721216833703
 20
23.24999986828869
 42
0.0
 10
41.21721216833726
 20
23.24999986828869
 42
0.4142135623731506
 10
40.69221216833716
 20
22.72499986828871
 42
0.0
 10
40.69221216833716
 20
7.674999868288676
 42
0.4142135623731526
 10
41.21721216833726
 20
7.149999868288688
 42
0.0
 10
42.96721216833703
 20
7.149999868288688
 42
0.4142135623731526
 10
43.49221216833712
 20
7.674999868288676
 42
0.0
 97
        0
 92
        7
 72
     1
 73
     1
 93
       24
 10
48.39221216833721
 20
19.92499986828869
 42
-0.4142135623731547
 10
48.9172121683373
 20
20.44999986828869
 42
0.0
 10
51.89221216833721
 20
20.44999986828869
 42
0.4142135623730911
 10
52.41721216833719
 20
20.97499986828868
 42
0.0
 10
52.41721216833719
 20
22.72499986828869
 42
0.4142135623730952
 10
51.89221216833721
 20
23.24999986828869
 42
0.0
 10
48.39221216833721
 20
23.24999986828869
 42
0.4142135623731048
 10
45.59221216833714
 20
20.44999986828871
 42
0.0
 10
45.59221216833714
 20
18.63479784293345
 42
0.1989123673796613
 10
46.82236368735369
 20
15.66494936194989
 42
0.0
 10
49.73216166199836
 20
12.75515138730523
 42
-0.1989123673796402
 10
50.14221216833721
 20
11.76520189364415
 42
0.0
 10
50.14221216833721
 20
10.47499986828868
 42
-0.4142135623730911
 10
49.61721216833723
 20
9.949999868288685
 42
0.0
 10
46.64221216833721
 20
9.949999868288685
 42
0.4142135623731526
 10
46.11721216833712
 20
9.424999868288698
 42
0.0
 10
46.11721216833712
 20
7.674999868288676
 42
0.414213562373089
 10
46.6422121683371
 20
7.149999868288688
 42
0.0
 10
50.14221216833721
 20
7.149999868288688
 42
0.4142135623730925
 10
52.94221216833716
 20
9.949999868288664
 42
0.0
 10
52.94221216833716
 20
11.76520189364394
 42
0.1989123673796675
 10
51.71206064932062
 20
14.73505037462759
 42
0.0
 10
48.80226267467606
 20
17.64484834927211
 42
-0.1989123673796653
 10
48.39221216833721
 20
18.63479784293327
 42
0.0
 97
        0
 92
        7
 72
     1
 73
     1
 93
       16
 10
57.84221216833714
 20
22.72499986828868
 42
0.414213562373103
 10
57.31721216833716
 20
23.24999986828869
 42
0.0
 10
55.56721216833716
 20
23.24999986828869
 42
0.4142135623730872
 10
55.04221216833719
 20
22.72499986828871
 42
0.0
 10
55.04221216833719
 20
9.949999868288664
 42
0.4142135623730925
 10
57.84221216833714
 20
7.149999868288688
 42
0.0
 10
61.34221216833714
 20
7.149999868288688
 42
0.4142135623731044
 10
64.14221216833721
 20
9.949999868288664
 42
0.0
 10
64.14221216833721
 20
22.72499986828869
 42
0.4142135623730952
 10
63.61721216833723
 20
23.24999986828869
 42
0.0
 10
61.86721216833712
 20
23.24999986828869
 42
0.4142135623730872
 10
61.34221216833714
 20
22.72499986828871
 42
0.0
 10
61.34221216833714
 20
10.99999986828866
 42
-0.414213562373088
 10
60.29221216833719
 20
9.949999868288685
 42
0.0
 10
58.89221216833721
 20
9.949999868288685
 42
-0.4142135623731197
 10
57.84221216833714
 20
10.99999986828866
 42
0.0
 97
        0
 92
        7
 72
     1
 73
     1
 93
        8
 10
69.04221216833719
 20
22.72499986828871
 42
0.4142135623730872
 10
68.51721216833721
 20
23.24999986828869
 42
0.0
 10
66.76721216833721
 20
23.24999986828869
 42
0.4142135623731506
 10
66.24221216833712
 20
22.72499986828871
 42
0.0
 10
66.24221216833712
 20
7.674999868288676
 42
0.414213562373089
 10
66.7672121683371
 20
7.149999868288688
 42
0.0
 10
68.51721216833721
 20
7.149999868288688
 42
0.414213562373089
 10
69.04221216833719
 20
7.674999868288676
 42
0.0
 97
        0
 75
     0
 76
     1
 52
0.0
 41
0.2
 77
     0
 78
     2
 53
45.0
 43
-900.942304321123
 44
-13.20000013171125
 45
-0.4490128060534576
 46
0.4490128060534577
 79
     0
 53
135.0
 43
-900.942304321123
 44
-13.20000013171125
 45
-0.4490128060534577
 46
-0.4490128060534576
 79
     0
 47
0.057451373970553
 98
        8
 10
16.07985497657933
 20
15.16717351417424
 10
22.40451501999519
 20
18.84406205073969
 10
25.16436789921568
 20
15.5118815143594
 10
30.91405999519316
 20
16.20129751473019
 10
41.83847203251276
 20
16.6609097822718
 10
46.89820090868557
 20
19.41857618469589
 10
56.55768598595637
 20
18.7291577833837
 10
67.82707963317876
 20
19.18877005092531
  0
LINE
  5
3F02
330
1A
100
AcDbEntity
  8
ZUWAKU
100
AcDbLine
 10
24.94221216833716
 20
23.24999986828865
 30
0.0
 11
26.86721216833712
 21
23.24999986828869
 31
0.0
  0
LINE
  5
3F03
330
1A
100
AcDbEntity
  8
ZUWAKU
100
AcDbLine
 10
26.86721216833712
 20
20.44999986828869
 30
0.0
 11
24.94221216833716
 21
20.44999986828869
 31
0.0
  0
LINE
  5
3F04
330
1A
100
AcDbEntity
  8
ZUWAKU
100
AcDbLine
 10
24.94221216833716
 20
9.949999868288685
 30
0.0
 11
26.86721216833712
 21
9.949999868288685
 31
0.0
  0
LINE
  5
3F05
330
1A
100
AcDbEntity
  8
ZUWAKU
100
AcDbLine
 10
26.86721216833712
 20
7.149999868288688
 30
0.0
 11
24.94221216833716
 21
7.149999868288688
 31
0.0
  0
CIRCLE
  5
3F06
330
1A
100
AcDbEntity
  8
ZUWAKU
100
AcDbCircle
 10
25.99221216833712
 20
15.19999986828869
 30
0.0
 40
1.75
  0
ARC
  5
3F07
330
1A
100
AcDbEntity
  8
ZUWAKU
100
AcDbCircle
 10
15.49221216833712
 20
18.63479784293339
 30
0.0
 40
1.4
100
AcDbArc
 50
180.0000000000016
 51
224.9999999999988
  0
LINE
  5
3F08
330
1A
100
AcDbEntity
  8
ZUWAKU
100
AcDbLine
 10
23.54221216833719
 20
19.04999986828869
 30
0.0
 11
23.54221216833719
 21
11.34999986828869
 31
0.0
  0
LINE
  5
3F09
330
1A
100
AcDbEntity
  8
ZUWAKU
100
AcDbLine
 10
20.74221216833712
 20
11.34999986828869
 30
0.0
 11
20.74221216833712
 21
19.04999986828864
 31
0.0
  0
ARC
  5
3F0A
330
1A
100
AcDbEntity
  8
ZUWAKU
100
AcDbCircle
 10
15.49221216833712
 20
18.63479784293339
 30
0.0
 40
4.199999999999999
100
AcDbArc
 50
180.0
 51
225.0
  0
ARC
  5
3F0B
330
1A
100
AcDbEntity
  8
ZUWAKU
100
AcDbCircle
 10
15.84221216833714
 20
9.949999868288685
 30
0.0
 40
2.8
100
AcDbArc
 50
270.0
 51
0.0
  0
ARC
  5
3F0C
330
1A
100
AcDbEntity
  8
ZUWAKU
100
AcDbCircle
 10
24.94221216833716
 20
11.34999986828869
 30
0.0
 40
4.199999999999999
100
AcDbArc
 50
180.0
 51
270.0
  0
ARC
  5
3F0D
330
1A
100
AcDbEntity
  8
ZUWAKU
100
AcDbCircle
 10
14.44221216833716
 20
11.76520189364399
 30
0.0
 40
4.199999999999999
100
AcDbArc
 50
0.0
 51
45.0
  0
LINE
  5
3F0E
330
1A
100
AcDbEntity
  8
ZUWAKU
100
AcDbLine
 10
17.41206064932067
 20
14.73505037462751
 30
0.0
 11
14.50226267467599
 21
17.64484834927219
 31
0.0
  0
LINE
  5
3F0F
330
1A
100
AcDbEntity
  8
ZUWAKU
100
AcDbLine
 10
15.84221216833714
 20
10.47499986828869
 30
0.0
 11
15.84221216833714
 21
11.76520189364403
 31
0.0
  0
ARC
  5
3F10
330
1A
100
AcDbEntity
  8
ZUWAKU
100
AcDbCircle
 10
15.31721216833716
 20
10.47499986828869
 30
0.0
 40
0.5249999999999999
100
AcDbArc
 50
270.0
 51
0.0
  0
ARC
  5
3F11
330
1A
100
AcDbEntity
  8
ZUWAKU
100
AcDbCircle
 10
14.44221216833716
 20
11.76520189364403
 30
0.0
 40
1.4
100
AcDbArc
 50
0.0
 51
45.0
  0
LINE
  5
3F12
330
1A
100
AcDbEntity
  8
ZUWAKU
100
AcDbLine
 10
11.81721216833716
 20
7.674999868288687
 30
0.0
 11
11.81721216833716
 21
9.424999868288687
 31
0.0
  0
ARC
  5
3F13
330
1A
100
AcDbEntity
  8
ZUWAKU
100
AcDbCircle
 10
12.34221216833714
 20
7.674999868288687
 30
0.0
 40
0.5249999999999999
100
AcDbArc
 50
180.0
 51
270.0
  0
ARC
  5
3F14
330
1A
100
AcDbEntity
  8
ZUWAKU
100
AcDbCircle
 10
12.34221216833714
 20
9.424999868288687
 30
0.0
 40
0.5249999999999999
100
AcDbArc
 50
90.0
 51
180.0
  0
LINE
  5
3F15
330
1A
100
AcDbEntity
  8
ZUWAKU
100
AcDbLine
 10
12.34221216833714
 20
7.149999868288688
 30
0.0
 11
15.84221216833714
 21
7.149999868288688
 31
0.0
  0
LINE
  5
3F16
330
1A
100
AcDbEntity
  8
ZUWAKU
100
AcDbLine
 10
12.34221216833714
 20
9.949999868288685
 30
0.0
 11
15.31721216833716
 21
9.949999868288685
 31
0.0
  0
LINE
  5
3F17
330
1A
100
AcDbEntity
  8
ZUWAKU
100
AcDbLine
 10
12.52236368735362
 20
15.66494936194987
 30
0.0
 11
15.43216166199829
 21
12.7551513873052
 31
0.0
  0
LINE
  5
3F18
330
1A
100
AcDbEntity
  8
ZUWAKU
100
AcDbLine
 10
18.64221216833721
 20
9.949999868288685
 30
0.0
 11
18.64221216833721
 21
11.76520189364403
 31
0.0
  0
ARC
  5
3F19
330
1A
100
AcDbEntity
  8
ZUWAKU
100
AcDbCircle
 10
24.94221216833716
 20
11.34999986828869
 30
0.0
 40
1.4
100
AcDbArc
 50
180.0
 51
270.0
  0
ARC
  5
3F1A
330
1A
100
AcDbEntity
  8
ZUWAKU
100
AcDbCircle
 10
17.59221216833714
 20
22.72499986828868
 30
0.0
 40
0.5249999999999999
100
AcDbArc
 50
0.0
 51
90.0
  0
ARC
  5
3F1B
330
1A
100
AcDbEntity
  8
ZUWAKU
100
AcDbCircle
 10
17.59221216833714
 20
20.97499986828868
 30
0.0
 40
0.5249999999999999
100
AcDbArc
 50
270.0
 51
0.0
  0
LINE
  5
3F1C
330
1A
100
AcDbEntity
  8
ZUWAKU
100
AcDbLine
 10
14.09221216833714
 20
23.24999986828869
 30
0.0
 11
17.59221216833714
 21
23.24999986828869
 31
0.0
  0
ARC
  5
3F1D
330
1A
100
AcDbEntity
  8
ZUWAKU
100
AcDbCircle
 10
14.61721216833712
 20
19.92499986828869
 30
0.0
 40
0.5249999999999999
100
AcDbArc
 50
90.0
 51
180.0
  0
LINE
  5
3F1E
330
1A
100
AcDbEntity
  8
ZUWAKU
100
AcDbLine
 10
14.09221216833714
 20
19.92499986828869
 30
0.0
 11
14.09221216833714
 21
18.63479784293335
 31
0.0
  0
LINE
  5
3F1F
330
1A
100
AcDbEntity
  8
ZUWAKU
100
AcDbLine
 10
17.59221216833714
 20
20.44999986828869
 30
0.0
 11
14.61721216833712
 21
20.44999986828869
 31
0.0
  0
LINE
  5
3F20
330
1A
100
AcDbEntity
  8
ZUWAKU
100
AcDbLine
 10
11.29221216833719
 20
20.44999986828869
 30
0.0
 11
11.29221216833719
 21
18.63479784293335
 31
0.0
  0
ARC
  5
3F21
330
1A
100
AcDbEntity
  8
ZUWAKU
100
AcDbCircle
 10
14.09221216833714
 20
20.44999986828869
 30
0.0
 40
2.8
100
AcDbArc
 50
90.0
 51
180.0
  0
LINE
  5
3F22
330
1A
100
AcDbEntity
  8
ZUWAKU
100
AcDbLine
 10
18.11721216833712
 20
22.72499986828868
 30
0.0
 11
18.11721216833712
 21
20.97499986828868
 31
0.0
  0
ARC
  5
3F23
330
1A
100
AcDbEntity
  8
ZUWAKU
100
AcDbCircle
 10
24.94221216833716
 20
19.04999986828869
 30
0.0
 40
1.4
100
AcDbArc
 50
90.0
 51
180.0
  0
ARC
  5
3F24
330
1A
100
AcDbEntity
  8
ZUWAKU
100
AcDbCircle
 10
24.94221216833716
 20
19.04999986828864
 30
0.0
 40
4.199999999999999
100
AcDbArc
 50
90.0
 51
180.0
  0
LINE
  5
3F25
330
1A
100
AcDbEntity
  8
ZUWAKU
100
AcDbLine
 10
79.32662956154422
 20
29.99999986828868
 30
0.0
 11
79.32662956154445
 21
0.7999998682887508
 31
0.0
  0
LINE
  5
3F26
330
1A
100
AcDbEntity
  8
ZUWAKU
100
AcDbLine
 10
79.52662956154427
 20
29.99999986828868
 30
0.0
 11
79.5266295615445
 21
0.7999998682887508
 31
0.0
  0
LINE
  5
3F27
330
1A
100
AcDbEntity
  8
ZUWAKU
100
AcDbLine
 10
79.12662956154441
 20
29.99999986828868
 30
0.0
 11
79.12662956154441
 21
0.7999998682887508
 31
0.0
  0
LINE
  5
3F28
330
1A
100
AcDbEntity
  8
ZUWAKU
100
AcDbLine
 10
64.14221216833721
 20
9.949999868288685
 30
0.0
 11
64.14221216833721
 21
22.72499986828868
 31
0.0
  0
LINE
  5
3F29
330
1A
100
AcDbEntity
  8
ZUWAKU
100
AcDbLine
 10
61.34221216833714
 20
22.72499986828868
 30
0.0
 11
61.34221216833714
 21
10.99999986828868
 31
0.0
  0
LINE
  5
3F2A
330
1A
100
AcDbEntity
  8
ZUWAKU
100
AcDbLine
 10
69.04221216833719
 20
7.674999868288687
 30
0.0
 11
69.04221216833719
 21
22.72499986828868
 31
0.0
  0
LINE
  5
3F2B
330
1A
100
AcDbEntity
  8
ZUWAKU
100
AcDbLine
 10
66.24221216833712
 20
22.72499986828868
 30
0.0
 11
66.24221216833712
 21
7.674999868288687
 31
0.0
  0
ARC
  5
3F2C
330
1A
100
AcDbEntity
  8
ZUWAKU
100
AcDbCircle
 10
49.79221216833719
 20
18.63479784293339
 30
0.0
 40
1.4
100
AcDbArc
 50
180.0000000000016
 51
224.9999999999988
  0
ARC
  5
3F2D
330
1A
100
AcDbEntity
  8
ZUWAKU
100
AcDbCircle
 10
49.79221216833719
 20
18.63479784293339
 30
0.0
 40
4.199999999999999
100
AcDbArc
 50
180.0
 51
225.0
  0
LINE
  5
3F2E
330
1A
100
AcDbEntity
  8
ZUWAKU
100
AcDbLine
 10
37.31485865051513
 20
19.20504706185211
 30
0.0
 11
36.05010690517929
 21
15.19999986828871
 31
0.0
  0
LINE
  5
3F2F
330
1A
100
AcDbEntity
  8
ZUWAKU
100
AcDbLine
 10
40.69221216833716
 20
22.72499986828868
 30
0.0
 11
40.69221216833716
 21
7.674999868288687
 31
0.0
  0
LINE
  5
3F30
330
1A
100
AcDbEntity
  8
ZUWAKU
100
AcDbLine
 10
43.49221216833712
 20
7.674999868288687
 30
0.0
 11
43.49221216833712
 21
22.72499986828868
 31
0.0
  0
LINE
  5
3F31
330
1A
100
AcDbEntity
  8
ZUWAKU
100
AcDbLine
 10
55.04221216833719
 20
22.72499986828868
 30
0.0
 11
55.04221216833719
 21
9.949999868288685
 31
0.0
  0
LINE
  5
3F32
330
1A
100
AcDbEntity
  8
ZUWAKU
100
AcDbLine
 10
57.84221216833714
 20
10.99999986828868
 30
0.0
 11
57.84221216833714
 21
22.72499986828868
 31
0.0
  0
LINE
  5
3F33
330
1A
100
AcDbEntity
  8
ZUWAKU
100
AcDbLine
 10
32.64221216833721
 20
17.12499986828869
 30
0.0
 11
32.64221216833721
 21
22.72499986828868
 31
0.0
  0
LINE
  5
3F34
330
1A
100
AcDbEntity
  8
ZUWAKU
100
AcDbLine
 10
29.84221216833714
 20
22.72499986828868
 30
0.0
 11
29.84221216833714
 21
7.674999868288687
 31
0.0
  0
LINE
  5
3F35
330
1A
100
AcDbEntity
  8
ZUWAKU
100
AcDbLine
 10
35.67634710565301
 20
22.88309383645566
 30
0.0
 11
33.80807723102123
 21
16.96690590012172
 31
0.0
  0
LINE
  5
3F36
330
1A
100
AcDbEntity
  8
ZUWAKU
100
AcDbLine
 10
60.29221216833719
 20
9.949999868288685
 30
0.0
 11
58.89221216833721
 21
9.949999868288685
 31
0.0
  0
LINE
  5
3F37
330
1A
100
AcDbEntity
  8
ZUWAKU
100
AcDbLine
 10
57.84221216833714
 20
7.149999868288688
 30
0.0
 11
61.34221216833714
 21
7.149999868288688
 31
0.0
  0
LINE
  5
3F38
330
1A
100
AcDbEntity
  8
ZUWAKU
100
AcDbLine
 10
41.21721216833714
 20
7.149999868288688
 30
0.0
 11
42.96721216833714
 21
7.149999868288688
 31
0.0
  0
LINE
  5
3F39
330
1A
100
AcDbEntity
  8
ZUWAKU
100
AcDbLine
 10
35.67634710565301
 20
7.516905900121714
 30
0.0
 11
33.80807723102123
 21
13.43309383645565
 31
0.0
  0
ARC
  5
3F3A
330
1A
100
AcDbEntity
  8
ZUWAKU
100
AcDbCircle
 10
33.30744633182587
 20
17.12499986828869
 30
0.0
 40
0.5249999999999999
100
AcDbArc
 50
270.0
 51
342.474431626277
  0
LINE
  5
3F3B
330
1A
100
AcDbEntity
  8
ZUWAKU
100
AcDbLine
 10
33.30744633182587
 20
16.59999986828868
 30
0.0
 11
33.16721216833719
 21
16.59999986828868
 31
0.0
  0
LINE
  5
3F3C
330
1A
100
AcDbEntity
  8
ZUWAKU
100
AcDbLine
 10
33.16721216833719
 20
13.79999986828869
 30
0.0
 11
33.30744633182587
 21
13.79999986828869
 31
0.0
  0
ARC
  5
3F3D
330
1A
100
AcDbEntity
  8
ZUWAKU
100
AcDbCircle
 10
33.16721216833719
 20
17.12499986828869
 30
0.0
 40
0.5249999999999999
100
AcDbArc
 50
180.0
 51
270.0
  0
LINE
  5
3F3E
330
1A
100
AcDbEntity
  8
ZUWAKU
100
AcDbLine
 10
30.36721216833712
 20
7.149999868288688
 30
0.0
 11
32.11721216833712
 21
7.149999868288688
 31
0.0
  0
ARC
  5
3F3F
330
1A
100
AcDbEntity
  8
ZUWAKU
100
AcDbCircle
 10
32.11721216833712
 20
7.674999868288687
 30
0.0
 40
0.5249999999999999
100
AcDbArc
 50
270.0
 51
0.0
  0
LINE
  5
3F40
330
1A
100
AcDbEntity
  8
ZUWAKU
100
AcDbLine
 10
32.64221216833721
 20
7.674999868288687
 30
0.0
 11
32.64221216833721
 21
13.27499986828869
 31
0.0
  0
LINE
  5
3F41
330
1A
100
AcDbEntity
  8
ZUWAKU
100
AcDbLine
 10
27.39221216833721
 20
9.424999868288687
 30
0.0
 11
27.39221216833721
 21
7.674999868288687
 31
0.0
  0
ARC
  5
3F42
330
1A
100
AcDbEntity
  8
ZUWAKU
100
AcDbCircle
 10
26.86721216833712
 20
7.674999868288687
 30
0.0
 40
0.5249999999999999
100
AcDbArc
 50
270.0
 51
0.0
  0
ARC
  5
3F43
330
1A
100
AcDbEntity
  8
ZUWAKU
100
AcDbCircle
 10
26.86721216833712
 20
9.424999868288687
 30
0.0
 40
0.5249999999999999
100
AcDbArc
 50
0.0
 51
90.0
  0
ARC
  5
3F44
330
1A
100
AcDbEntity
  8
ZUWAKU
100
AcDbCircle
 10
30.36721216833712
 20
7.674999868288687
 30
0.0
 40
0.5249999999999999
100
AcDbArc
 50
180.0
 51
270.0
  0
ARC
  5
3F45
330
1A
100
AcDbEntity
  8
ZUWAKU
100
AcDbCircle
 10
33.30744633182587
 20
13.27499986828869
 30
0.0
 40
0.5249999999999999
100
AcDbArc
 50
17.52556837372303
 51
90.0
  0
ARC
  5
3F46
330
1A
100
AcDbEntity
  8
ZUWAKU
100
AcDbCircle
 10
33.16721216833719
 20
13.27499986828869
 30
0.0
 40
0.5249999999999999
100
AcDbArc
 50
90.0
 51
180.0
  0
ARC
  5
3F47
330
1A
100
AcDbEntity
  8
ZUWAKU
100
AcDbCircle
 10
41.21721216833714
 20
7.674999868288687
 30
0.0
 40
0.5249999999999999
100
AcDbArc
 50
180.0
 51
270.0
  0
LINE
  5
3F48
330
1A
100
AcDbEntity
  8
ZUWAKU
100
AcDbLine
 10
36.17697800484848
 20
7.149999868288688
 30
0.0
 11
37.87586738445748
 21
7.149999868288688
 31
0.0
  0
ARC
  5
3F49
330
1A
100
AcDbEntity
  8
ZUWAKU
100
AcDbCircle
 10
37.87586738445748
 20
7.674999868288687
 30
0.0
 40
0.5249999999999999
100
AcDbArc
 50
270.0
 51
17.52556837372303
  0
LINE
  5
3F4A
330
1A
100
AcDbEntity
  8
ZUWAKU
100
AcDbLine
 10
38.37649828365295
 20
7.83309383645566
 30
0.0
 11
36.05010690517929
 21
15.19999986828871
 31
0.0
  0
ARC
  5
3F4B
330
1A
100
AcDbEntity
  8
ZUWAKU
100
AcDbCircle
 10
36.17697800484848
 20
7.674999868288687
 30
0.0
 40
0.5249999999999999
100
AcDbArc
 50
197.525568373723
 51
270.0
  0
ARC
  5
3F4C
330
1A
100
AcDbEntity
  8
ZUWAKU
100
AcDbCircle
 10
57.84221216833714
 20
9.949999868288685
 30
0.0
 40
2.8
100
AcDbArc
 50
180.0
 51
270.0
  0
ARC
  5
3F4D
330
1A
100
AcDbEntity
  8
ZUWAKU
100
AcDbCircle
 10
50.14221216833721
 20
9.949999868288685
 30
0.0
 40
2.8
100
AcDbArc
 50
270.0
 51
0.0
  0
LINE
  5
3F4E
330
1A
100
AcDbEntity
  8
ZUWAKU
100
AcDbLine
 10
51.71206064932073
 20
14.73505037462751
 30
0.0
 11
48.80226267467594
 21
17.64484834927219
 31
0.0
  0
LINE
  5
3F4F
330
1A
100
AcDbEntity
  8
ZUWAKU
100
AcDbLine
 10
50.14221216833721
 20
10.47499986828869
 30
0.0
 11
50.14221216833721
 21
11.76520189364403
 31
0.0
  0
ARC
  5
3F50
330
1A
100
AcDbEntity
  8
ZUWAKU
100
AcDbCircle
 10
48.74221216833712
 20
11.76520189364403
 30
0.0
 40
1.4
100
AcDbArc
 50
0.0
 51
45.0
  0
ARC
  5
3F51
330
1A
100
AcDbEntity
  8
ZUWAKU
100
AcDbCircle
 10
49.61721216833712
 20
10.47499986828869
 30
0.0
 40
0.5249999999999999
100
AcDbArc
 50
270.0
 51
0.0
  0
LINE
  5
3F52
330
1A
100
AcDbEntity
  8
ZUWAKU
100
AcDbLine
 10
46.11721216833712
 20
7.674999868288687
 30
0.0
 11
46.11721216833712
 21
9.424999868288687
 31
0.0
  0
ARC
  5
3F53
330
1A
100
AcDbEntity
  8
ZUWAKU
100
AcDbCircle
 10
46.64221216833721
 20
7.674999868288687
 30
0.0
 40
0.5249999999999999
100
AcDbArc
 50
180.0
 51
270.0
  0
ARC
  5
3F54
330
1A
100
AcDbEntity
  8
ZUWAKU
100
AcDbCircle
 10
42.96721216833714
 20
7.674999868288687
 30
0.0
 40
0.5249999999999999
100
AcDbArc
 50
270.0
 51
0.0
  0
ARC
  5
3F55
330
1A
100
AcDbEntity
  8
ZUWAKU
100
AcDbCircle
 10
46.64221216833721
 20
9.424999868288687
 30
0.0
 40
0.5249999999999999
100
AcDbArc
 50
90.0
 51
180.0
  0
LINE
  5
3F56
330
1A
100
AcDbEntity
  8
ZUWAKU
100
AcDbLine
 10
46.64221216833721
 20
9.949999868288685
 30
0.0
 11
49.61721216833712
 21
9.949999868288685
 31
0.0
  0
LINE
  5
3F57
330
1A
100
AcDbEntity
  8
ZUWAKU
100
AcDbLine
 10
46.64221216833721
 20
7.149999868288688
 30
0.0
 11
50.14221216833721
 21
7.149999868288688
 31
0.0
  0
LINE
  5
3F58
330
1A
100
AcDbEntity
  8
ZUWAKU
100
AcDbLine
 10
46.82236368735369
 20
15.66494936194987
 30
0.0
 11
49.73216166199836
 21
12.7551513873052
 31
0.0
  0
LINE
  5
3F59
330
1A
100
AcDbEntity
  8
ZUWAKU
100
AcDbLine
 10
52.94221216833716
 20
9.949999868288685
 30
0.0
 11
52.94221216833716
 21
11.76520189364403
 31
0.0
  0
ARC
  5
3F5A
330
1A
100
AcDbEntity
  8
ZUWAKU
100
AcDbCircle
 10
48.74221216833712
 20
11.76520189364399
 30
0.0
 40
4.199999999999999
100
AcDbArc
 50
0.0
 51
45.0
  0
ARC
  5
3F5B
330
1A
100
AcDbEntity
  8
ZUWAKU
100
AcDbCircle
 10
58.89221216833721
 20
10.99999986828868
 30
0.0
 40
1.05
100
AcDbArc
 50
180.0
 51
270.0
  0
ARC
  5
3F5C
330
1A
100
AcDbEntity
  8
ZUWAKU
100
AcDbCircle
 10
61.34221216833714
 20
9.949999868288685
 30
0.0
 40
2.8
100
AcDbArc
 50
270.0
 51
0.0
  0
LINE
  5
3F5D
330
1A
100
AcDbEntity
  8
ZUWAKU
100
AcDbLine
 10
66.76721216833721
 20
7.149999868288688
 30
0.0
 11
68.51721216833721
 21
7.149999868288688
 31
0.0
  0
ARC
  5
3F5E
330
1A
100
AcDbEntity
  8
ZUWAKU
100
AcDbCircle
 10
66.76721216833721
 20
7.674999868288687
 30
0.0
 40
0.5249999999999999
100
AcDbArc
 50
180.0
 51
270.0
  0
ARC
  5
3F5F
330
1A
100
AcDbEntity
  8
ZUWAKU
100
AcDbCircle
 10
60.29221216833719
 20
10.99999986828868
 30
0.0
 40
1.05
100
AcDbArc
 50
270.0
 51
0.0
  0
ARC
  5
3F60
330
1A
100
AcDbEntity
  8
ZUWAKU
100
AcDbCircle
 10
68.51721216833721
 20
7.674999868288687
 30
0.0
 40
0.5249999999999999
100
AcDbArc
 50
270.0
 51
0.0
  0
LINE
  5
3F61
330
1A
100
AcDbEntity
  8
ZUWAKU
100
AcDbLine
 10
42.96721216833714
 20
23.24999986828869
 30
0.0
 11
41.21721216833714
 21
23.24999986828869
 31
0.0
  0
ARC
  5
3F62
330
1A
100
AcDbEntity
  8
ZUWAKU
100
AcDbCircle
 10
32.11721216833712
 20
22.72499986828868
 30
0.0
 40
0.5249999999999999
100
AcDbArc
 50
0.0
 51
90.0
  0
LINE
  5
3F63
330
1A
100
AcDbEntity
  8
ZUWAKU
100
AcDbLine
 10
32.11721216833712
 20
23.24999986828869
 30
0.0
 11
30.36721216833712
 21
23.24999986828869
 31
0.0
  0
ARC
  5
3F64
330
1A
100
AcDbEntity
  8
ZUWAKU
100
AcDbCircle
 10
26.86721216833712
 20
22.72499986828868
 30
0.0
 40
0.5249999999999999
100
AcDbArc
 50
0.0
 51
90.0
  0
ARC
  5
3F65
330
1A
100
AcDbEntity
  8
ZUWAKU
100
AcDbCircle
 10
30.36721216833712
 20
22.72499986828868
 30
0.0
 40
0.5249999999999999
100
AcDbArc
 50
90.0
 51
180.0
  0
ARC
  5
3F66
330
1A
100
AcDbEntity
  8
ZUWAKU
100
AcDbCircle
 10
26.86721216833712
 20
20.97499986828868
 30
0.0
 40
0.5249999999999999
100
AcDbArc
 50
270.0
 51
0.0
  0
LINE
  5
3F67
330
1A
100
AcDbEntity
  8
ZUWAKU
100
AcDbLine
 10
27.39221216833721
 20
22.72499986828868
 30
0.0
 11
27.39221216833721
 21
20.97499986828868
 31
0.0
  0
ARC
  5
3F68
330
1A
100
AcDbEntity
  8
ZUWAKU
100
AcDbCircle
 10
41.21721216833714
 20
22.72499986828868
 30
0.0
 40
0.5249999999999999
100
AcDbArc
 50
90.0
 51
180.0
  0
LINE
  5
3F69
330
1A
100
AcDbEntity
  8
ZUWAKU
100
AcDbLine
 10
36.17697800484848
 20
23.24999986828869
 30
0.0
 11
37.87586738445748
 21
23.24999986828869
 31
0.0
  0
ARC
  5
3F6A
330
1A
100
AcDbEntity
  8
ZUWAKU
100
AcDbCircle
 10
37.87586738445748
 20
22.72499986828868
 30
0.0
 40
0.5249999999999999
100
AcDbArc
 50
342.474431626277
 51
90.0
  0
LINE
  5
3F6B
330
1A
100
AcDbEntity
  8
ZUWAKU
100
AcDbLine
 10
38.37649828365295
 20
22.56690590012172
 30
0.0
 11
37.31485865051513
 21
19.20504706185211
 31
0.0
  0
ARC
  5
3F6C
330
1A
100
AcDbEntity
  8
ZUWAKU
100
AcDbCircle
 10
36.17697800484848
 20
22.72499986828868
 30
0.0
 40
0.5249999999999999
100
AcDbArc
 50
90.0
 51
162.474431626277
  0
LINE
  5
3F6D
330
1A
100
AcDbEntity
  8
ZUWAKU
100
AcDbLine
 10
48.39221216833721
 20
23.24999986828869
 30
0.0
 11
51.89221216833721
 21
23.24999986828869
 31
0.0
  0
LINE
  5
3F6E
330
1A
100
AcDbEntity
  8
ZUWAKU
100
AcDbLine
 10
51.89221216833721
 20
20.44999986828869
 30
0.0
 11
48.91721216833719
 21
20.44999986828869
 31
0.0
  0
ARC
  5
3F6F
330
1A
100
AcDbEntity
  8
ZUWAKU
100
AcDbCircle
 10
48.91721216833719
 20
19.92499986828869
 30
0.0
 40
0.5249999999999999
100
AcDbArc
 50
90.0
 51
180.0
  0
LINE
  5
3F70
330
1A
100
AcDbEntity
  8
ZUWAKU
100
AcDbLine
 10
48.39221216833721
 20
19.92499986828869
 30
0.0
 11
48.39221216833721
 21
18.63479784293335
 31
0.0
  0
ARC
  5
3F71
330
1A
100
AcDbEntity
  8
ZUWAKU
100
AcDbCircle
 10
42.96721216833714
 20
22.72499986828868
 30
0.0
 40
0.5249999999999999
100
AcDbArc
 50
0.0
 51
90.0
  0
LINE
  5
3F72
330
1A
100
AcDbEntity
  8
ZUWAKU
100
AcDbLine
 10
45.59221216833714
 20
20.44999986828869
 30
0.0
 11
45.59221216833714
 21
18.63479784293335
 31
0.0
  0
ARC
  5
3F73
330
1A
100
AcDbEntity
  8
ZUWAKU
100
AcDbCircle
 10
48.39221216833721
 20
20.44999986828869
 30
0.0
 40
2.8
100
AcDbArc
 50
90.0
 51
180.0
  0
ARC
  5
3F74
330
1A
100
AcDbEntity
  8
ZUWAKU
100
AcDbCircle
 10
57.31721216833716
 20
22.72499986828868
 30
0.0
 40
0.5249999999999999
100
AcDbArc
 50
0.0
 51
90.0
  0
ARC
  5
3F75
330
1A
100
AcDbEntity
  8
ZUWAKU
100
AcDbCircle
 10
55.56721216833716
 20
22.72499986828868
 30
0.0
 40
0.5249999999999999
100
AcDbArc
 50
90.0
 51
180.0
  0
LINE
  5
3F76
330
1A
100
AcDbEntity
  8
ZUWAKU
100
AcDbLine
 10
57.31721216833716
 20
23.24999986828869
 30
0.0
 11
55.56721216833716
 21
23.24999986828869
 31
0.0
  0
ARC
  5
3F77
330
1A
100
AcDbEntity
  8
ZUWAKU
100
AcDbCircle
 10
51.89221216833721
 20
22.72499986828868
 30
0.0
 40
0.5249999999999999
100
AcDbArc
 50
0.0
 51
90.0
  0
ARC
  5
3F78
330
1A
100
AcDbEntity
  8
ZUWAKU
100
AcDbCircle
 10
51.89221216833721
 20
20.97499986828868
 30
0.0
 40
0.5249999999999999
100
AcDbArc
 50
270.0
 51
0.0
  0
LINE
  5
3F79
330
1A
100
AcDbEntity
  8
ZUWAKU
100
AcDbLine
 10
52.41721216833719
 20
22.72499986828868
 30
0.0
 11
52.41721216833719
 21
20.97499986828868
 31
0.0
  0
LINE
  5
3F7A
330
1A
100
AcDbEntity
  8
ZUWAKU
100
AcDbLine
 10
68.51721216833721
 20
23.24999986828869
 30
0.0
 11
66.76721216833721
 21
23.24999986828869
 31
0.0
  0
ARC
  5
3F7B
330
1A
100
AcDbEntity
  8
ZUWAKU
100
AcDbCircle
 10
66.76721216833721
 20
22.72499986828868
 30
0.0
 40
0.5249999999999999
100
AcDbArc
 50
90.0
 51
180.0
  0
ARC
  5
3F7C
330
1A
100
AcDbEntity
  8
ZUWAKU
100
AcDbCircle
 10
63.61721216833712
 20
22.72499986828868
 30
0.0
 40
0.5249999999999999
100
AcDbArc
 50
0.0
 51
90.0
  0
LINE
  5
3F7D
330
1A
100
AcDbEntity
  8
ZUWAKU
100
AcDbLine
 10
63.61721216833712
 20
23.24999986828869
 30
0.0
 11
61.86721216833712
 21
23.24999986828869
 31
0.0
  0
ARC
  5
3F7E
330
1A
100
AcDbEntity
  8
ZUWAKU
100
AcDbCircle
 10
61.86721216833712
 20
22.72499986828868
 30
0.0
 40
0.5249999999999999
100
AcDbArc
 50
90.0
 51
180.0
  0
ARC
  5
3F7F
330
1A
100
AcDbEntity
  8
ZUWAKU
100
AcDbCircle
 10
68.51721216833721
 20
22.72499986828868
 30
0.0
 40
0.5249999999999999
100
AcDbArc
 50
0.0
 51
90.0
  0
TEXT
  5
3F80
330
1A
100
AcDbEntity
  8
moji
100
AcDbText
 10
239.8272026944071
 20
18.00492092569607
 30
0.0
 40
5.6
  1
ステンレス金具正面打（吊）自在式
 41
0.9
  7
ｽﾀｲﾙ1
100
AcDbText
  0
TEXT
  5
3F81
330
1A
100
AcDbEntity
  8
moji
100
AcDbText
 10
239.8272026944071
 20
3.204920925696104
 30
0.0
 40
5.6
  1
Σ９０－６－１０～４５
 41
0.9
  7
ｽﾀｲﾙ1
100
AcDbText
  0
LINE
  5
3F82
330
1A
100
AcDbEntity
  8
ZUWAKU
100
AcDbLine
 10
208.246601303624
 20
29.99999986828868
 30
0.0
 11
208.246601303624
 21
0.7999998682887508
 31
0.0
  0
LINE
  5
3F83
330
1A
100
AcDbEntity
  8
ZUWAKU
100
AcDbLine
 10
208.6466013036238
 20
29.99999986828868
 30
0.0
 11
208.646601303624
 21
0.7999998682887508
 31
0.0
  0
LINE
  5
3F84
330
1A
100
AcDbEntity
  8
ZUWAKU
100
AcDbLine
 10
208.4466013036238
 20
29.99999986828868
 30
0.0
 11
208.446601303624
 21
0.7999998682887508
 31
0.0
  0
TEXT
  5
3F85
330
1A
100
AcDbEntity
  8
ZUWAKU
100
AcDbText
 10
209.7240463258336
 20
9.655356406674301
 30
0.0
 40
4.0
  1
サイズ
 41
0.9
  7
ｽﾀｲﾙ1
100
AcDbText
  0
TEXT
  5
3F86
330
1A
100
AcDbEntity
  8
ZUWAKU
100
AcDbText
 10
209.7240463258333
 20
24.05535640667426
 30
0.0
 40
4.0
  1
品名
 41
0.9
  7
ｽﾀｲﾙ1
100
AcDbText
  0
LINE
  5
3F87
330
1A
100
AcDbEntity
  8
ZUWAKU
100
AcDbLine
 10
648.8172025237602
 20
15.19999986828871
 30
0.0
 11
697.2490105620973
 21
15.19999986828872
 31
0.0
  0
LINE
  5
3F88
330
1A
100
AcDbEntity
  8
ZUWAKU
100
AcDbLine
 10
648.8172025237604
 20
15.39999986828872
 30
0.0
 11
697.2490105620973
 21
15.39999986828872
 31
0.0
  0
LINE
  5
3F89
330
1A
100
AcDbEntity
  8
ZUWAKU
100
AcDbLine
 10
648.8172025237602
 20
15.59999986828872
 30
0.0
 11
697.2490105620973
 21
15.59999986828872
 31
0.0
  0
TEXT
  5
3F8A
330
1A
100
AcDbEntity
  8
ZUWAKU
100
AcDbText
 10
658.2039377008584
 20
18.00492092569607
 30
0.0
 40
5.6
  1
　　．　　．　　
 41
0.9
  7
ｽﾀｲﾙ1
100
AcDbText
  0
LINE
  5
3F8B
330
1A
100
AcDbEntity
  8
ZUWAKU
100
AcDbLine
 10
505.1991795116969
 20
15.19999986828872
 30
0.0
 11
552.5269557796685
 21
15.19999986828872
 31
0.0
  0
LINE
  5
3F8C
330
1A
100
AcDbEntity
  8
ZUWAKU
100
AcDbLine
 10
505.1991795116969
 20
15.39999986828872
 30
0.0
 11
552.5269557796685
 21
15.39999986828872
 31
0.0
  0
LINE
  5
3F8D
330
1A
100
AcDbEntity
  8
ZUWAKU
100
AcDbLine
 10
505.1991795116969
 20
15.59999986828872
 30
0.0
 11
552.5269557796685
 21
15.59999986828872
 31
0.0
  0
TEXT
  5
3F8E
330
1A
100
AcDbEntity
  8
moji
100
AcDbText
 10
463.2464320045581
 20
11.94261758994867
 30
0.0
 40
5.6
  1
ＬＧ１９Ｇ
 41
0.9
  7
ｽﾀｲﾙ1
100
AcDbText
  0
LINE
  5
3F8F
330
1A
100
AcDbEntity
  8
ZUWAKU
100
AcDbLine
 10
447.6243639845472
 20
29.99999986828868
 30
0.0
 11
447.6243639845475
 21
0.7999998682887508
 31
0.0
  0
LINE
  5
3F90
330
1A
100
AcDbEntity
  8
ZUWAKU
100
AcDbLine
 10
447.8243639845473
 20
29.99999986828868
 30
0.0
 11
447.8243639845475
 21
0.7999998682887508
 31
0.0
  0
LINE
  5
3F91
330
1A
100
AcDbEntity
  8
ZUWAKU
100
AcDbLine
 10
447.4243639845474
 20
29.99999986828868
 30
0.0
 11
447.4243639845474
 21
0.7999998682887508
 31
0.0
  0
TEXT
  5
3F92
330
1A
100
AcDbEntity
  8
moji
100
AcDbText
 10
528.0409079858689
 20
18.00492092569607
 30
0.0
 40
5.6
  1
Ａ３
 41
0.9
  7
ｽﾀｲﾙ1
100
AcDbText
  0
LINE
  5
3F93
330
1A
100
AcDbEntity
  8
ZUWAKU
100
AcDbLine
 10
504.9991795116969
 20
29.99999986828868
 30
0.0
 11
504.9991795116971
 21
0.7999998682887508
 31
0.0
  0
LINE
  5
3F94
330
1A
100
AcDbEntity
  8
ZUWAKU
100
AcDbLine
 10
505.1991795116969
 20
29.99999986828868
 30
0.0
 11
505.1991795116971
 21
0.7999998682887508
 31
0.0
  0
LINE
  5
3F95
330
1A
100
AcDbEntity
  8
ZUWAKU
100
AcDbLine
 10
504.7991795116971
 20
29.99999986828868
 30
0.0
 11
504.7991795116971
 21
0.7999998682887508
 31
0.0
  0
TEXT
  5
3F97
330
1A
100
AcDbEntity
  8
ZUWAKU
100
AcDbText
 10
506.6766245339068
 20
9.655356406674301
 30
0.0
 40
4.0
  1
縮尺
 41
0.9
  7
ｽﾀｲﾙ1
100
AcDbText
  0
TEXT
  5
3F98
330
1A
100
AcDbEntity
  8
moji
100
AcDbText
 10
528.0409079858689
 20
3.204920925696104
 30
0.0
 40
5.6
  1
１/２
 41
0.9
  7
ｽﾀｲﾙ1
100
AcDbText
  0
TEXT
  5
3F99
330
1A
100
AcDbEntity
  8
ZUWAKU
100
AcDbText
 10
449.3018090067569
 20
24.05535640667426
 30
0.0
 40
4.0
  1
品番
 41
0.9
  7
ｽﾀｲﾙ1
100
AcDbText
  0
TEXT
  5
3F9A
330
1A
100
AcDbEntity
  8
ZUWAKU
100
AcDbText
 10
506.6766245339065
 20
24.05535640667426
 30
0.0
 40
4.0
  1
用紙
 41
0.9
  7
ｽﾀｲﾙ1
100
AcDbText
  0
LINE
  5
3F9B
330
1A
100
AcDbEntity
  8
ZUWAKU
100
AcDbLine
 10
648.6172025237604
 20
29.99999986828868
 30
0.0
 11
648.6172025237606
 21
0.7999998682887508
 31
0.0
  0
LINE
  5
3F9C
330
1A
100
AcDbEntity
  8
ZUWAKU
100
AcDbLine
 10
648.8172025237604
 20
29.99999986828868
 30
0.0
 11
648.8172025237607
 21
0.7999998682887508
 31
0.0
  0
LINE
  5
3F9D
330
1A
100
AcDbEntity
  8
ZUWAKU
100
AcDbLine
 10
648.4172025237606
 20
29.99999986828868
 30
0.0
 11
648.4172025237606
 21
0.7999998682887508
 31
0.0
  0
LINE
  5
3F9E
330
1A
100
AcDbEntity
  8
ZUWAKU
100
AcDbLine
 10
552.7269557796683
 20
29.99999986828868
 30
0.0
 11
552.7269557796685
 21
0.7999998682887508
 31
0.0
  0
LINE
  5
3F9F
330
1A
100
AcDbEntity
  8
ZUWAKU
100
AcDbLine
 10
552.9269557796683
 20
29.99999986828868
 30
0.0
 11
552.9269557796686
 21
0.7999998682887508
 31
0.0
  0
LINE
  5
3FA0
330
1A
100
AcDbEntity
  8
ZUWAKU
100
AcDbLine
 10
552.5269557796685
 20
29.99999986828868
 30
0.0
 11
552.5269557796685
 21
0.7999998682887508
 31
0.0
  0
TEXT
  5
3FA1
330
1A
100
AcDbEntity
  8
ZUWAKU
100
AcDbText
 10
650.2946475459701
 20
24.05535640667426
 30
0.0
 40
4.0
  1
DATE
 41
0.9
  7
ｽﾀｲﾙ1
100
AcDbText
  0
LINE
  5
3FA2
330
1A
100
AcDbEntity
  8
ZUWAKU
100
AcDbLine
 10
697.2490105620973
 20
29.99999986828868
 30
0.0
 11
697.2490105620973
 21
0.7999998682887508
 31
0.0
  0
LINE
  5
3FA3
330
1A
100
AcDbEntity
  8
ZUWAKU
100
AcDbLine
 10
697.4490105620973
 20
29.99999986828868
 30
0.0
 11
697.4490105620973
 21
0.7999998682887508
 31
0.0
  0
LINE
  5
3FA4
330
1A
100
AcDbEntity
  8
ZUWAKU
100
AcDbLine
 10
697.6490105620972
 20
29.99999986828868
 30
0.0
 11
697.6490105620974
 21
0.7999998682887508
 31
0.0
  0
LINE
  5
3FA5
330
1A
100
AcDbEntity
  8
ZUWAKU
100
AcDbLine
 10
697.8490105620972
 20
29.99999986828868
 30
0.0
 11
697.8490105620974
 21
0.7999998682887508
 31
0.0
  0
TEXT
  5
3FA6
330
1A
100
AcDbEntity
  8
ZUWAKU
100
AcDbText
 10
708.5280842057998
 20
17.55383920397549
 30
0.0
 40
6.0
  1
積水化学工業株式会社
 41
0.9
  7
ｽﾀｲﾙ1
100
AcDbText
  0
TEXT
  5
3FA7
330
1A
100
AcDbEntity
  8
ZUWAKU
100
AcDbText
 10
708.5280842057998
 20
6.648840182142749
 30
0.0
 40
6.0
  1
建材事業部
 41
0.9
  7
ｽﾀｲﾙ1
100
AcDbText
  0
TEXT
  5
5448
330
1A
100
AcDbEntity
  8
SUNPOU
 48
5.0
100
AcDbText
 10
379.5460164876735
 20
308.5116812760805
 30
0.0
 40
6.0
  1
スライド巾
100
AcDbText
  0
DIMENSION
  5
5449
330
1A
100
AcDbEntity
  8
SUNPOU
100
AcDbDimension
  2
*D1
 10
416.4084369953824
 20
298.499835436302
 30
0.0
 11
398.9084369953824
 21
303.499835436302
 31
0.0
 70
    32
 71
     5
 42
35.0
  3
STANDARD
100
AcDbAlignedDimension
 13
381.4084369953824
 23
252.1370190318338
 33
0.0
 14
416.4084369953824
 24
252.1370190318338
 34
0.0
100
AcDbRotatedDimension
1001
ACAD
1000
DSTYLE
1002
{
1070
   140
1040
6.0
1070
    74
1070
     0
1070
   172
1070
     1
1070
    73
1070
     0
1070
   272
1070
     2
1070
    77
1070
     3
1070
   173
1070
     1
1070
   147
1040
2.0
1070
    42
1040
6.0
1070
    44
1040
3.0
1070
    43
1040
14.0
1070
   271
1070
     0
1070
   178
1070
     4
1070
   177
1070
     4
1070
   176
1070
     4
1070
   141
1040
150.0
1070
     7
1000
_OPEN
1070
     6
1000
_OPEN
1070
    41
1040
7.0
1002
}
  0
DIMENSION
  5
544A
330
1A
100
AcDbEntity
  8
SUNPOU
100
AcDbDimension
  2
*D2
 10
396.4809943454866
 20
261.1935375024176
 30
0.0
 11
417.8918684305976
 21
235.2679180006637
 31
0.0
 70
    33
 71
     5
 42
66.50002332746044
  3
STANDARD
100
AcDbAlignedDimension
 13
415.6585152544157
 23
195.135394126899
 33
0.0
 14
381.4084369953825
 24
252.1370190318339
 34
0.0
1001
ACAD
1000
DSTYLE
1002
{
1070
   140
1040
6.0
1070
    74
1070
     0
1070
   172
1070
     1
1070
    73
1070
     0
1070
   272
1070
     2
1070
    77
1070
     3
1070
   173
1070
     1
1070
   147
1040
2.0
1070
    42
1040
6.0
1070
    44
1040
3.0
1070
    43
1040
14.0
1070
   271
1070
     0
1070
   178
1070
     4
1070
   177
1070
     4
1070
   176
1070
     4
1070
   141
1040
150.0
1070
     7
1000
_OPEN
1070
     6
1000
_OPEN
1070
    41
1040
7.0
1002
}
  0
DIMENSION
  5
544B
330
1A
100
AcDbEntity
  8
SUNPOU
 48
5.0
100
AcDbDimension
  2
*D3
 10
426.3620170025044
 20
174.9821483381948
 30
0.0
 11
403.2130507985336
 21
166.912119609162
 31
0.0
 70
    33
  1
t<>
 71
     5
 42
1.199958553450983
  3
STANDARD
100
AcDbAlignedDimension
 13
415.6586152544157
 23
195.1350941268989
 33
0.0
 14
414.6299152544156
 24
194.517294126899
 34
0.0
1001
ACAD
1000
DSTYLE
1002
{
1070
   140
1040
6.0
1070
    74
1070
     0
1070
   172
1070
     1
1070
    73
1070
     0
1070
   272
1070
     2
1070
    77
1070
     3
1070
   173
1070
     1
1070
   147
1040
2.0
1070
    42
1040
6.0
1070
    44
1040
3.0
1070
    43
1040
14.0
1070
   271
1070
     1
1070
   178
1070
     4
1070
   177
1070
     4
1070
   176
1070
     4
1070
   141
1040
150.0
1070
     7
1000
_OPEN
1070
     6
1000
_OPEN
1070
    41
1040
7.0
1002
}
  0
DIMENSION
  5
544C
330
1A
100
AcDbEntity
  8
SUNPOU
 48
5.0
100
AcDbDimension
  2
*D4
 10
226.5629677149723
 20
194.517294126899
 30
0.0
 11
221.5629677149722
 21
220.166344126899
 31
0.0
 70
    32
 71
     5
 42
51.29809999999995
  3
STANDARD
100
AcDbAlignedDimension
 13
251.1539152544157
 23
245.8153941268989
 33
0.0
 14
414.6299152544155
 24
194.517294126899
 34
0.0
 50
90.0
100
AcDbRotatedDimension
1001
ACAD
1000
DSTYLE
1002
{
1070
   140
1040
6.0
1070
    74
1070
     0
1070
   172
1070
     1
1070
    73
1070
     0
1070
   272
1070
     2
1070
    77
1070
     3
1070
   173
1070
     1
1070
   147
1040
2.0
1070
    42
1040
6.0
1070
    44
1040
3.0
1070
    43
1040
14.0
1070
   271
1070
     0
1070
   178
1070
     4
1070
   177
1070
     4
1070
   176
1070
     4
1070
   141
1040
150.0
1070
     7
1000
_OPEN
1070
     6
1000
_OPEN
1070
    41
1040
7.0
1002
}
  0
DIMENSION
  5
544D
330
1A
100
AcDbEntity
  8
SUNPOU
 48
5.0
100
AcDbDimension
  2
*D5
 10
437.6045319940148
 20
360.6391616470187
 30
0.0
 11
432.6045319940147
 21
388.1391616470188
 31
0.0
 70
    32
 71
     5
 42
55.0
  3
STANDARD
100
AcDbAlignedDimension
 13
392.2869317484484
 23
415.6391616470187
 33
0.0
 14
392.2869317484484
 24
360.6391616470187
 34
0.0
 50
90.0
100
AcDbRotatedDimension
1001
ACAD
1000
DSTYLE
1002
{
1070
   140
1040
6.0
1070
    74
1070
     0
1070
   172
1070
     1
1070
    73
1070
     0
1070
   272
1070
     2
1070
    77
1070
     3
1070
   173
1070
     1
1070
   147
1040
2.0
1070
    42
1040
6.0
1070
    44
1040
3.0
1070
    43
1040
14.0
1070
   271
1070
     0
1070
   178
1070
     4
1070
   177
1070
     4
1070
   176
1070
     4
1070
   141
1040
150.0
1070
     7
1000
_OPEN
1070
     6
1000
_OPEN
1070
    41
1040
7.0
1002
}
  0
ARC
  5
544E
330
1A
100
AcDbEntity
  8
SEIHIN
  6
Continuous
 62
     3
 48
5.0
100
AcDbCircle
 10
385.8978317483719
 20
388.1390116470188
 30
0.0
 40
23.64281724763578
100
AcDbArc
 50
316.2089459182176
 51
43.79105408178243
  0
LINE
  5
544F
330
1A
100
AcDbEntity
  8
CENTER L
  6
CENTER
 62
     1
 48
5.0
100
AcDbLine
 10
235.1376317484482
 20
388.1391616470188
 30
0.0
 11
415.4660317484483
 21
388.1391616470188
 31
0.0
  0
LINE
  5
5450
330
1A
100
AcDbEntity
  8
SEIHIN
  6
Continuous
 62
     3
 48
5.0
100
AcDbLine
 10
383.6613152544157
 20
248.387594126899
 30
0.0
 11
415.6584152544157
 21
195.135394126899
 31
0.0
  0
LINE
  5
5451
330
1A
100
AcDbEntity
  8
SEIHIN
  6
Continuous
 62
     3
 48
5.0
100
AcDbLine
 10
385.5303152544155
 20
242.947194126899
 30
0.0
 11
414.6299152544155
 21
194.517294126899
 31
0.0
  0
DIMENSION
  5
5452
330
1A
100
AcDbEntity
  8
SUNPOU
100
AcDbDimension
  2
*D6
 10
381.4084369953825
 20
298.499835436302
 30
0.0
 11
316.2811761248992
 21
303.499835436302
 31
0.0
 70
    32
 71
     5
 42
130.2545217409668
  3
STANDARD
100
AcDbAlignedDimension
 13
251.1539152544157
 23
245.8153941268989
 33
0.0
 14
381.4084369953825
 24
252.1370190318339
 34
0.0
100
AcDbRotatedDimension
1001
ACAD
1000
DSTYLE
1002
{
1070
   140
1040
6.0
1070
    74
1070
     0
1070
   172
1070
     1
1070
    73
1070
     0
1070
   272
1070
     2
1070
    77
1070
     3
1070
   173
1070
     1
1070
   147
1040
2.0
1070
    42
1040
6.0
1070
    44
1040
3.0
1070
    43
1040
14.0
1070
   271
1070
     0
1070
   178
1070
     4
1070
   177
1070
     4
1070
   176
1070
     4
1070
   141
1040
150.0
1070
     7
1000
_OPEN
1070
     6
1000
_OPEN
1070
    41
1040
7.0
1002
}
  0
ARC
  5
5453
330
1A
100
AcDbEntity
  8
SEIHIN
  6
Continuous
 62
     3
 48
5.0
100
AcDbCircle
 10
273.9886390698682
 20
214.3153758613322
 30
0.0
 40
4.999981734489918
100
AcDbArc
 50
195.025997170518
 51
269.9997270940194
  0
LINE
  5
5454
330
1A
100
AcDbEntity
  8
SEIHIN
  6
Continuous
 62
     3
 48
5.0
100
AcDbLine
 10
269.6350152544156
 20
234.389694126899
 30
0.0
 11
273.9602152544157
 21
218.278294126899
 31
0.0
  0
LINE
  5
5455
330
1A
100
AcDbEntity
  8
SEIHIN
  6
Continuous
 62
     3
 48
5.0
100
AcDbLine
 10
263.1482152544156
 20
235.4117941268989
 30
0.0
 11
269.1596152544157
 21
213.0190941268989
 31
0.0
  0
LINE
  5
5456
330
1A
100
AcDbEntity
  8
SEIHIN
  6
Continuous
 62
     3
 48
5.0
100
AcDbLine
 10
252.8539152544157
 20
239.115494126899
 30
0.0
 11
258.3191152544156
 21
239.115494126899
 31
0.0
  0
LINE
  5
5457
330
1A
100
AcDbEntity
  8
SEIHIN
  6
Continuous
 62
     3
 48
5.0
100
AcDbLine
 10
252.8539152544157
 20
240.315394126899
 30
0.0
 11
261.9086152544156
 21
240.315394126899
 31
0.0
  0
LINE
  5
5458
330
1A
100
AcDbEntity
  8
SEIHIN
  6
Continuous
 62
     3
 48
5.0
100
AcDbLine
 10
251.1539152544157
 20
245.8153941268989
 30
0.0
 11
251.1539152544157
 21
240.815394126899
 31
0.0
  0
LINE
  5
5459
330
1A
100
AcDbEntity
  8
SEIHIN
  6
Continuous
 62
     3
 48
5.0
100
AcDbLine
 10
252.3539152544157
 20
245.8153941268989
 30
0.0
 11
252.3539152544157
 21
240.815394126899
 31
0.0
  0
ARC
  5
545A
330
1A
100
AcDbEntity
  8
SEIHIN
  6
Continuous
 62
     3
 48
5.0
100
AcDbCircle
 10
252.8539152544157
 20
240.8153941268989
 30
0.0
 40
1.69999999999996
100
AcDbArc
 50
179.9999999999984
 51
269.9999999999984
  0
ARC
  5
545B
330
1A
100
AcDbEntity
  8
SEIHIN
  6
Continuous
 62
     3
 48
5.0
100
AcDbCircle
 10
252.8539152544157
 20
240.8153941268989
 30
0.0
 40
0.4999999999999716
100
AcDbArc
 50
179.9999999999967
 51
269.9999999999968
  0
LINE
  5
545C
330
1A
100
AcDbEntity
  8
SEIHIN
  6
Continuous
 62
     3
 48
5.0
100
AcDbLine
 10
251.1539152544157
 20
245.8153941268989
 30
0.0
 11
252.3539152544157
 21
245.8153941268989
 31
0.0
  0
ARC
  5
545D
330
1A
100
AcDbEntity
  8
SEIHIN
  6
Continuous
 62
     3
 48
5.0
100
AcDbCircle
 10
261.908662625384
 20
232.3154577956724
 30
0.0
 40
7.999936331366881
100
AcDbArc
 50
15.02743940162831
 51
90.00033927226959
  0
ARC
  5
545E
330
1A
100
AcDbEntity
  8
SEIHIN
  6
Continuous
 62
     3
 48
5.0
100
AcDbCircle
 10
258.3190914389631
 20
234.1155123924656
 30
0.0
 40
4.999981734490024
100
AcDbArc
 50
15.02599717051801
 51
89.99972709401941
  0
LINE
  5
545F
330
1A
100
AcDbEntity
  8
SEIHIN
  6
Continuous
 62
     3
 48
5.0
100
AcDbLine
 10
374.1539152544157
 20
208.815394126899
 30
0.0
 11
374.1539152544157
 21
210.515394126899
 31
0.0
  0
LINE
  5
5460
330
1A
100
AcDbEntity
  8
SEIHIN
  6
Continuous
 62
     3
 48
5.0
100
AcDbLine
 10
370.8230152544157
 20
207.815694126899
 30
0.0
 11
365.9209152544157
 21
211.889794126899
 31
0.0
  0
LINE
  5
5461
330
1A
100
AcDbEntity
  8
SEIHIN
  6
Continuous
 62
     3
 48
5.0
100
AcDbLine
 10
365.1539152544157
 20
210.966894126899
 30
0.0
 11
370.0560152544157
 21
206.8927941268989
 31
0.0
  0
LINE
  5
5462
330
1A
100
AcDbEntity
  8
SEIHIN
  6
Continuous
 62
     3
 48
5.0
100
AcDbLine
 10
360.6539152544157
 20
209.315394126899
 30
0.0
 11
360.6539152544157
 21
208.915394126899
 31
0.0
  0
ARC
  5
5463
330
1A
100
AcDbEntity
  8
SEIHIN
  6
Continuous
 62
     3
 48
5.0
100
AcDbCircle
 10
341.9428132714516
 20
215.3153930656489
 30
0.0
 40
5.999998938750196
100
AcDbArc
 50
270.0000189359148
 51
326.3099514099363
  0
LINE
  5
5464
330
1A
100
AcDbEntity
  8
SEIHIN
  6
Continuous
 62
     3
 48
5.0
100
AcDbLine
 10
372.9539152544157
 20
208.815394126899
 30
0.0
 11
372.9539152544157
 21
230.315394126899
 31
0.0
  0
ARC
  5
5465
330
1A
100
AcDbEntity
  8
SEIHIN
  6
Continuous
 62
     3
 48
5.0
100
AcDbCircle
 10
300.1538790463863
 20
216.5153730275496
 30
0.0
 40
6.999978900744384
100
AcDbArc
 50
270.0002963676458
 51
330.4612055196592
  0
LINE
  5
5466
330
1A
100
AcDbEntity
  8
CENTER L
  6
CENTER
 62
     1
 48
5.0
100
AcDbLine
 10
292.1539152544157
 20
190.7798941268989
 30
0.0
 11
292.1539152544157
 21
221.9431941268989
 31
0.0
  0
LINE
  5
5467
330
1A
100
AcDbEntity
  8
SEIHIN
  6
Continuous
 62
     3
 48
5.0
100
AcDbLine
 10
277.6539152544157
 20
209.315394126899
 30
0.0
 11
277.6539152544157
 21
208.915494126899
 31
0.0
  0
LINE
  5
5468
330
1A
100
AcDbEntity
  8
SEIHIN
  6
Continuous
 62
     3
 48
5.0
100
AcDbLine
 10
360.6539152544157
 20
208.915394126899
 30
0.0
 11
277.6539152544157
 21
208.915394126899
 31
0.0
  0
LINE
  5
5469
330
1A
100
AcDbEntity
  8
SEIHIN
  6
Continuous
 62
     3
 48
5.0
100
AcDbLine
 10
287.6541152544157
 20
200.915394126899
 30
0.0
 11
296.6541152544156
 21
200.915394126899
 31
0.0
  0
LINE
  5
546A
330
1A
100
AcDbEntity
  8
SEIHIN
  6
Continuous
 62
     3
 48
5.0
100
AcDbLine
 10
285.6541152544157
 20
206.915394126899
 30
0.0
 11
298.6541152544156
 21
206.915394126899
 31
0.0
  0
LINE
  5
546B
330
1A
100
AcDbEntity
  8
SEIHIN
  6
Continuous
 62
     3
 48
5.0
100
AcDbLine
 10
289.1541152544157
 20
194.515394126899
 30
0.0
 11
295.1541152544157
 21
194.515394126899
 31
0.0
  0
LINE
  5
546C
330
1A
100
AcDbEntity
  8
SEIHIN
  6
Continuous
 62
     3
 48
5.0
100
AcDbLine
 10
285.6816152544156
 20
197.382894126899
 30
0.0
 11
286.6042152544156
 21
200.859394126899
 31
0.0
  0
LINE
  5
546D
330
1A
100
AcDbEntity
  8
SEIHIN
  6
Continuous
 62
     3
 48
5.0
100
AcDbLine
 10
287.6537152544157
 20
200.915394126899
 30
0.0
 11
286.6482152544157
 21
197.126394126899
 31
0.0
  0
LINE
  5
546E
330
1A
100
AcDbEntity
  8
SEIHIN
  6
Continuous
 62
     3
 48
5.0
100
AcDbLine
 10
280.4742152544156
 20
199.6612941268989
 30
0.0
 11
284.9483152544156
 21
197.078094126899
 31
0.0
  0
LINE
  5
546F
330
1A
100
AcDbEntity
  8
SEIHIN
  6
Continuous
 62
     3
 48
5.0
100
AcDbLine
 10
284.4483152544156
 20
196.2120941268989
 30
0.0
 11
279.9742152544156
 21
198.795294126899
 31
0.0
  0
LINE
  5
5470
330
1A
100
AcDbEntity
  8
SEIHIN
  6
Continuous
 62
     3
 48
5.0
100
AcDbLine
 10
289.1541152544157
 20
194.515494126899
 30
0.0
 11
289.1541152544157
 21
200.915394126899
 31
0.0
  0
ARC
  5
5471
330
1A
100
AcDbEntity
  8
SEIHIN
  6
Continuous
 62
     3
 48
5.0
100
AcDbCircle
 10
285.1983298649046
 20
197.5111002001551
 30
0.0
 40
0.5000015649321316
100
AcDbArc
 50
239.9981702795996
 51
345.142769986637
  0
ARC
  5
5472
330
1A
100
AcDbEntity
  8
SEIHIN
  6
Continuous
 62
     3
 48
5.0
100
AcDbCircle
 10
285.1983177991761
 20
197.5110951845778
 30
0.0
 40
1.499969188016224
100
AcDbArc
 50
239.9992082390991
 51
345.1391364731064
  0
LINE
  5
5473
330
1A
100
AcDbEntity
  8
SEIHIN
  6
Continuous
 62
     3
 48
5.0
100
AcDbLine
 10
280.4065152544156
 20
200.480494126899
 30
0.0
 11
285.2834152544157
 21
204.4929941268989
 31
0.0
  0
LINE
  5
5474
330
1A
100
AcDbEntity
  8
SEIHIN
  6
Continuous
 62
     3
 48
5.0
100
AcDbLine
 10
286.6537152544157
 20
206.915394126899
 30
0.0
 11
279.7711152544156
 21
201.2526941268989
 31
0.0
  0
ARC
  5
5475
330
1A
100
AcDbEntity
  8
SEIHIN
  6
Continuous
 62
     3
 48
5.0
100
AcDbCircle
 10
280.724216963373
 20
200.0943734514246
 30
0.0
 40
1.500036551170922
100
AcDbArc
 50
129.4485937662352
 51
240.0007306723679
  0
ARC
  5
5476
330
1A
100
AcDbEntity
  8
SEIHIN
  6
Continuous
 62
     3
 48
5.0
100
AcDbCircle
 10
280.7242187187138
 20
200.0943522317976
 30
0.0
 40
0.5000410526942224
100
AcDbArc
 50
129.4463015103076
 51
240.0022574211189
  0
LINE
  5
5477
330
1A
100
AcDbEntity
  8
SEIHIN
  6
Continuous
 62
     3
 48
5.0
100
AcDbLine
 10
285.6541152544157
 20
206.915394126899
 30
0.0
 11
285.6541152544157
 21
208.915394126899
 31
0.0
  0
ARC
  5
5478
330
1A
100
AcDbEntity
  8
SEIHIN
  6
Continuous
 62
     3
 48
5.0
100
AcDbCircle
 10
286.1210111488154
 20
200.9876071465924
 30
0.0
 40
0.5000214364493859
100
AcDbArc
 50
345.1425505320322
 51
9.472076039897704
  0
ARC
  5
5479
330
1A
100
AcDbEntity
  8
SEIHIN
  6
Continuous
 62
     3
 48
5.0
100
AcDbCircle
 10
285.6011134053504
 20
204.1068948198667
 30
0.0
 40
0.5000047899750965
100
AcDbArc
 50
9.462209047234682
 51
129.4489319853355
  0
LINE
  5
547A
330
1A
100
AcDbEntity
  8
SEIHIN
  6
Continuous
 62
     3
 48
5.0
100
AcDbLine
 10
286.0943152544157
 20
204.189094126899
 30
0.0
 11
286.6142152544157
 21
201.0698941268989
 31
0.0
  0
LINE
  5
547B
330
1A
100
AcDbEntity
  8
SEIHIN
  6
Continuous
 62
     3
 48
5.0
100
AcDbLine
 10
286.6541152544157
 20
206.915394126899
 30
0.0
 11
287.6541152544157
 21
200.915394126899
 31
0.0
  0
LINE
  5
547C
330
1A
100
AcDbEntity
  8
SEIHIN
  6
Continuous
 62
     3
 48
5.0
100
AcDbLine
 10
303.8336152544155
 20
199.6612941268989
 30
0.0
 11
299.3594152544156
 21
197.078194126899
 31
0.0
  0
LINE
  5
547D
330
1A
100
AcDbEntity
  8
SEIHIN
  6
Continuous
 62
     3
 48
5.0
100
AcDbLine
 10
299.8594152544155
 20
196.2120941268989
 30
0.0
 11
304.3336152544155
 21
198.795294126899
 31
0.0
  0
LINE
  5
547E
330
1A
100
AcDbEntity
  8
SEIHIN
  6
Continuous
 62
     3
 48
5.0
100
AcDbLine
 10
296.6541152544156
 20
200.915394126899
 30
0.0
 11
297.6596152544155
 21
197.126394126899
 31
0.0
  0
LINE
  5
547F
330
1A
100
AcDbEntity
  8
SEIHIN
  6
Continuous
 62
     3
 48
5.0
100
AcDbLine
 10
298.6261152544155
 20
197.382894126899
 30
0.0
 11
297.7035152544156
 21
200.859394126899
 31
0.0
  0
LINE
  5
5480
330
1A
100
AcDbEntity
  8
SEIHIN
  6
Continuous
 62
     3
 48
5.0
100
AcDbLine
 10
295.1541152544157
 20
194.515494126899
 30
0.0
 11
295.1541152544157
 21
200.915394126899
 31
0.0
  0
LINE
  5
5481
330
1A
100
AcDbEntity
  8
SEIHIN
  6
Continuous
 62
     3
 48
5.0
100
AcDbLine
 10
294.5541152544157
 20
200.915394126899
 30
0.0
 11
294.5541152544157
 21
194.515494126899
 31
0.0
  0
LINE
  5
5482
330
1A
100
AcDbEntity
  8
SEIHIN
  6
Continuous
 62
     3
 48
5.0
100
AcDbLine
 10
289.7541152544157
 20
200.915394126899
 30
0.0
 11
289.7541152544157
 21
194.515494126899
 31
0.0
  0
ARC
  5
5483
330
1A
100
AcDbEntity
  8
SEIHIN
  6
Continuous
 62
     3
 48
5.0
100
AcDbCircle
 10
299.1094481504551
 20
197.5111804549179
 30
0.0
 40
1.500025314675956
100
AcDbArc
 50
194.8636644250155
 51
299.997990862779
  0
ARC
  5
5484
330
1A
100
AcDbEntity
  8
SEIHIN
  6
Continuous
 62
     3
 48
5.0
100
AcDbCircle
 10
299.1094360862489
 20
197.511185468708
 30
0.0
 40
0.5000576915389268
100
AcDbArc
 50
194.8656320452742
 51
299.9934276884947
  0
LINE
  5
5485
330
1A
100
AcDbEntity
  8
SEIHIN
  6
Continuous
 62
     3
 48
5.0
100
AcDbLine
 10
296.6541152544156
 20
200.915394126899
 30
0.0
 11
297.6541152544157
 21
206.915394126899
 31
0.0
  0
LINE
  5
5486
330
1A
100
AcDbEntity
  8
SEIHIN
  6
Continuous
 62
     3
 48
5.0
100
AcDbLine
 10
298.6541152544156
 20
206.915394126899
 30
0.0
 11
298.6541152544156
 21
208.915394126899
 31
0.0
  0
ARC
  5
5487
330
1A
100
AcDbEntity
  8
SEIHIN
  6
Continuous
 62
     3
 48
5.0
100
AcDbCircle
 10
303.5836135454582
 20
200.0943734514246
 30
0.0
 40
1.500036551170926
100
AcDbArc
 50
299.9992693276321
 51
50.55140623376476
  0
ARC
  5
5488
330
1A
100
AcDbEntity
  8
SEIHIN
  6
Continuous
 62
     3
 48
5.0
100
AcDbCircle
 10
303.5836117901174
 20
200.0943522317976
 30
0.0
 40
0.5000410526942233
100
AcDbArc
 50
299.9977425788811
 51
50.55369848969246
  0
LINE
  5
5489
330
1A
100
AcDbEntity
  8
SEIHIN
  6
Continuous
 62
     3
 48
5.0
100
AcDbLine
 10
303.9013152544156
 20
200.480494126899
 30
0.0
 11
299.0244152544157
 21
204.4929941268989
 31
0.0
  0
LINE
  5
548A
330
1A
100
AcDbEntity
  8
SEIHIN
  6
Continuous
 62
     3
 48
5.0
100
AcDbLine
 10
298.2135152544157
 20
204.189094126899
 30
0.0
 11
297.6936152544155
 21
201.0698941268989
 31
0.0
  0
ARC
  5
548B
330
1A
100
AcDbEntity
  8
SEIHIN
  6
Continuous
 62
     3
 48
5.0
100
AcDbCircle
 10
298.1868193600158
 20
200.9876071465923
 30
0.0
 40
0.50002143644938
100
AcDbArc
 50
170.5279239600857
 51
194.8574494679529
  0
ARC
  5
548C
330
1A
100
AcDbEntity
  8
SEIHIN
  6
Continuous
 62
     3
 48
5.0
100
AcDbCircle
 10
298.706717103481
 20
204.1068948198667
 30
0.0
 40
0.500004789975099
100
AcDbArc
 50
50.55106801466449
 51
170.5377909527653
  0
LINE
  5
548D
330
1A
100
AcDbEntity
  8
SEIHIN
  6
Continuous
 62
     3
 48
5.0
100
AcDbLine
 10
297.6541152544157
 20
206.915394126899
 30
0.0
 11
304.5367152544156
 21
201.2526941268989
 31
0.0
  0
ARC
  5
548E
330
1A
100
AcDbEntity
  8
SEIHIN
  6
Continuous
 62
     3
 48
5.0
100
AcDbCircle
 10
371.6539546979201
 20
208.815412632287
 30
0.0
 40
1.299960556627265
100
AcDbArc
 50
230.2675418231977
 51
359.9991843747681
  0
ARC
  5
548F
330
1A
100
AcDbEntity
  8
SEIHIN
  6
Continuous
 62
     3
 48
5.0
100
AcDbCircle
 10
371.6539477378378
 20
208.8154093672947
 30
0.0
 40
2.499967516624389
100
AcDbArc
 50
230.2692019546682
 51
359.9996507113212
  0
DIMENSION
  5
5490
330
1A
100
AcDbEntity
  8
SUNPOU
100
AcDbDimension
  2
*D7
 10
381.4084369953825
 20
285.1788497606383
 30
0.0
 11
331.7811761248992
 21
290.1788497606383
 31
0.0
 70
    32
 71
     5
 42
99.25452174096682
  3
STANDARD
100
AcDbAlignedDimension
 13
282.1539152544157
 23
216.5153941268989
 33
0.0
 14
381.4084369953825
 24
252.1370190318339
 34
0.0
100
AcDbRotatedDimension
1001
ACAD
1000
DSTYLE
1002
{
1070
   140
1040
6.0
1070
    74
1070
     0
1070
   172
1070
     1
1070
    73
1070
     0
1070
   272
1070
     2
1070
    77
1070
     3
1070
   173
1070
     1
1070
   147
1040
2.0
1070
    42
1040
6.0
1070
    44
1040
3.0
1070
    43
1040
14.0
1070
   271
1070
     0
1070
   178
1070
     4
1070
   177
1070
     4
1070
   176
1070
     4
1070
   141
1040
150.0
1070
     7
1000
_OPEN
1070
     6
1000
_OPEN
1070
    41
1040
7.0
1002
}
  0
LINE
  5
5491
330
1A
100
AcDbEntity
  8
SEIHIN
  6
Continuous
 62
     3
 48
5.0
100
AcDbLine
 10
373.4084152544157
 20
244.410294126899
 30
0.0
 11
324.0483152544157
 21
240.091894126899
 31
0.0
  0
LINE
  5
5492
330
1A
100
AcDbEntity
  8
SEIHIN
  6
Continuous
 62
     3
 48
5.0
100
AcDbLine
 10
273.9886152544156
 20
209.315394126899
 30
0.0
 11
360.6539152544157
 21
209.315394126899
 31
0.0
  0
LINE
  5
5493
330
1A
100
AcDbEntity
  8
SEIHIN
  6
Continuous
 62
     3
 48
5.0
100
AcDbLine
 10
320.8197152544156
 20
246.836194126899
 30
0.0
 11
377.0510152544157
 21
251.755794126899
 31
0.0
  0
LINE
  5
5494
330
1A
100
AcDbEntity
  8
SEIHIN
  6
Continuous
 62
     3
 48
5.0
100
AcDbLine
 10
307.5197152544155
 20
215.315394126899
 30
0.0
 11
338.7317152544156
 21
215.315394126899
 31
0.0
  0
LINE
  5
5495
330
1A
100
AcDbEntity
  8
SEIHIN
  6
Continuous
 62
     3
 48
5.0
100
AcDbLine
 10
300.1539152544157
 20
216.5153941268989
 30
0.0
 11
315.3397152544156
 21
243.313894126899
 31
0.0
  0
LINE
  5
5496
330
1A
100
AcDbEntity
  8
SEIHIN
  6
Continuous
 62
     3
 48
5.0
100
AcDbLine
 10
300.1539152544157
 20
209.5153941268989
 30
0.0
 11
282.1539152544157
 21
209.5153941268989
 31
0.0
  0
LINE
  5
5497
330
1A
100
AcDbEntity
  8
SEIHIN
  6
Continuous
 62
     3
 48
5.0
100
AcDbLine
 10
282.1539152544157
 20
216.5153941268989
 30
0.0
 11
300.1539152544157
 21
216.5153941268989
 31
0.0
  0
ARC
  5
5498
330
1A
100
AcDbEntity
  8
SEIHIN
  6
Continuous
 62
     3
 48
5.0
100
AcDbCircle
 10
292.1541910889156
 20
209.9319941271288
 30
0.0
 40
9.08343073443433
100
AcDbArc
 50
56.60248957224243
 51
123.3986563433484
  0
LINE
  5
5499
330
1A
100
AcDbEntity
  8
SEIHIN
  6
Continuous
 62
     3
 48
5.0
100
AcDbLine
 10
297.1541152544157
 20
217.515394126899
 30
0.0
 11
287.1541152544157
 21
217.515394126899
 31
0.0
  0
LINE
  5
549A
330
1A
100
AcDbEntity
  8
SEIHIN
  6
Continuous
 62
     3
 48
5.0
100
AcDbLine
 10
277.8234152544156
 20
215.315394126899
 30
0.0
 11
282.1539152544157
 21
215.315394126899
 31
0.0
  0
ARC
  5
549B
330
1A
100
AcDbEntity
  8
SEIHIN
  6
Continuous
 62
     3
 48
5.0
100
AcDbCircle
 10
277.8234241655245
 20
219.3153872925122
 30
0.0
 40
3.999993165623189
100
AcDbArc
 50
195.0269724869069
 51
269.9998723575488
  0
LINE
  5
549C
330
1A
100
AcDbEntity
  8
SEIHIN
  6
Continuous
 62
     3
 48
5.0
100
AcDbLine
 10
287.1541152544157
 20
216.5153941268989
 30
0.0
 11
287.1541152544157
 21
217.515394126899
 31
0.0
  0
LINE
  5
549D
330
1A
100
AcDbEntity
  8
SEIHIN
  6
Continuous
 62
     3
 48
5.0
100
AcDbLine
 10
282.1539152544157
 20
209.5153941268989
 30
0.0
 11
282.1539152544157
 21
216.5153941268989
 31
0.0
  0
LINE
  5
549E
330
1A
100
AcDbEntity
  8
SEIHIN
  6
Continuous
 62
     3
 48
5.0
100
AcDbLine
 10
297.1541152544157
 20
216.5153941268989
 30
0.0
 11
297.1541152544157
 21
217.515394126899
 31
0.0
  0
LINE
  5
549F
330
1A
100
AcDbEntity
  8
SEIHIN
  6
Continuous
 62
     3
 48
5.0
100
AcDbLine
 10
306.2440152544157
 20
213.064294126899
 30
0.0
 11
320.1340152544157
 21
237.575994126899
 31
0.0
  0
ARC
  5
54A0
330
1A
100
AcDbEntity
  8
SEIHIN
  6
Continuous
 62
     3
 48
5.0
100
AcDbCircle
 10
324.484132846799
 20
235.1109054342379
 30
0.0
 40
5.000018532990447
100
AcDbArc
 50
95.0004286366263
 51
150.4609978393731
  0
ARC
  5
54A1
330
1A
100
AcDbEntity
  8
SEIHIN
  6
Continuous
 62
     3
 48
5.0
100
AcDbCircle
 10
321.4297975423238
 20
239.8627827426116
 30
0.0
 40
6.999948004110554
100
AcDbArc
 50
94.99997223184857
 51
150.460756605622
  0
DIMENSION
  5
54A2
330
1A
100
AcDbEntity
  8
SUNPOU
100
AcDbDimension
  2
*D8
 10
381.4084369953825
 20
271.2027347035671
 30
0.0
 11
352.1539152544157
 21
271.2027347035671
 31
0.0
 70
   160
 71
     5
 42
9.754521740966879
  3
STANDARD
100
AcDbAlignedDimension
 13
371.6539152544157
 23
228.115394126899
 33
0.0
 14
381.4084369953825
 24
252.1370190318339
 34
0.0
100
AcDbRotatedDimension
1001
ACAD
1000
DSTYLE
1002
{
1070
   288
1070
     1
1070
   140
1040
6.0
1070
    74
1070
     0
1070
   172
1070
     1
1070
    73
1070
     0
1070
   272
1070
     2
1070
    77
1070
     3
1070
   173
1070
     1
1070
   147
1040
2.0
1070
    42
1040
6.0
1070
    44
1040
3.0
1070
    43
1040
14.0
1070
   271
1070
     0
1070
   178
1070
     4
1070
   177
1070
     4
1070
   176
1070
     4
1070
   141
1040
150.0
1070
     7
1000
_OPEN
1070
     6
1000
_OPEN
1070
    41
1040
7.0
1002
}
  0
ARC
  5
54A3
330
1A
100
AcDbEntity
  8
SEIHIN
  6
Continuous
 62
     3
 48
5.0
100
AcDbCircle
 10
366.6627357624772
 20
234.3178817727992
 30
0.0
 40
4.999975377462389
100
AcDbArc
 50
26.0722791867914
 51
91.79848074586522
  0
ARC
  5
54A4
330
1A
100
AcDbEntity
  8
SEIHIN
  6
Continuous
 62
     3
 48
5.0
100
AcDbCircle
 10
371.1539152544157
 20
231.515394126899
 30
0.0
 40
5.0
100
AcDbArc
 50
0.0
 51
90.0
  0
ARC
  5
54A5
330
1A
100
AcDbEntity
  8
SEIHIN
  6
Continuous
 62
     3
 48
5.0
100
AcDbCircle
 10
369.9539152544158
 20
230.3153941268989
 30
0.0
 40
2.999999999999957
100
AcDbArc
 50
0.0
 51
90.0
  0
ARC
  5
54A6
330
1A
100
AcDbEntity
  8
SEIHIN
  6
Continuous
 62
     3
 48
5.0
100
AcDbCircle
 10
366.5057428075222
 20
223.3153553543366
 30
0.0
 40
16.00003877272645
100
AcDbArc
 50
89.99974056930066
 51
146.3098716797341
  0
ARC
  5
54A7
330
1A
100
AcDbEntity
  8
SEIHIN
  6
Continuous
 62
     3
 48
5.0
100
AcDbCircle
 10
366.5058185593558
 20
223.3153958956493
 30
0.0
 40
9.999998231250181
100
AcDbArc
 50
90.00001893591481
 51
146.3099514099363
  0
LINE
  5
54A8
330
1A
100
AcDbEntity
  8
SEIHIN
  6
Continuous
 62
     3
 48
5.0
100
AcDbLine
 10
346.9351152544157
 20
211.987194126899
 30
0.0
 11
358.1852152544157
 21
228.862394126899
 31
0.0
  0
LINE
  5
54A9
330
1A
100
AcDbEntity
  8
SEIHIN
  6
Continuous
 62
     3
 48
5.0
100
AcDbLine
 10
353.1929152544156
 20
232.1905941268989
 30
0.0
 11
343.7240152544155
 21
217.987294126899
 31
0.0
  0
ARC
  5
54AA
330
1A
100
AcDbEntity
  8
SEIHIN
  6
Continuous
 62
     3
 48
5.0
100
AcDbCircle
 10
338.7317132714515
 20
221.3153930656487
 30
0.0
 40
5.999998938750037
100
AcDbArc
 50
270.0000189359164
 51
326.3099514099363
  0
LINE
  5
54AB
330
1A
100
AcDbEntity
  8
SEIHIN
  6
Continuous
 62
     3
 48
5.0
100
AcDbLine
 10
365.1539152544157
 20
210.966894126899
 30
0.0
 11
366.0024152544157
 21
211.815394126899
 31
0.0
  0
LINE
  5
54AC
330
1A
100
AcDbEntity
  8
SEIHIN
  6
Continuous
 62
     3
 48
5.0
100
AcDbLine
 10
369.9539152544157
 20
233.3153941268989
 30
0.0
 11
366.5058152544157
 21
233.3153941268989
 31
0.0
  0
LINE
  5
54AD
330
1A
100
AcDbEntity
  8
SEIHIN
  6
Continuous
 62
     3
 48
5.0
100
AcDbLine
 10
381.7567152544157
 20
243.402694126899
 30
0.0
 11
397.4828152544156
 21
217.2299941268989
 31
0.0
  0
LINE
  5
54AE
330
1A
100
AcDbEntity
  8
SEIHIN
  6
Continuous
 62
     3
 48
5.0
100
AcDbLine
 10
383.0145152544157
 20
243.250894126899
 30
0.0
 11
391.1294152544157
 21
229.745394126899
 31
0.0
  0
LINE
  5
54AF
330
1A
100
AcDbEntity
  8
CENTER L
  6
CENTER
 62
     1
 48
5.0
100
AcDbLine
 10
388.1884152544156
 20
227.045094126899
 30
0.0
 11
397.1112152544155
 21
232.4063941268989
 31
0.0
  0
LINE
  5
54B0
330
1A
100
AcDbEntity
  8
SEIHIN
  6
Continuous
 62
     3
 48
5.0
100
AcDbLine
 10
376.1539152544157
 20
212.515394126899
 30
0.0
 11
376.1539152544157
 21
231.515394126899
 31
0.0
  0
ARC
  5
54B1
330
1A
100
AcDbEntity
  8
SEIHIN
  6
Continuous
 62
     3
 48
5.0
100
AcDbCircle
 10
374.1539152544157
 20
212.515394126899
 30
0.0
 40
2.0
100
AcDbArc
 50
270.0
 51
0.0
  0
ARC
  5
54B2
330
1A
100
AcDbEntity
  8
SEIHIN
  6
Continuous
 62
     3
 48
5.0
100
AcDbCircle
 10
400.0543152544156
 20
218.775094126899
 30
0.0
 40
2.99999104332003
100
AcDbArc
 50
210.9997858407959
 51
300.9997858407945
  0
LINE
  5
54B3
330
1A
100
AcDbEntity
  8
CENTER L
  6
CENTER
 62
     1
 48
5.0
100
AcDbLine
 10
391.4110152544156
 20
221.9809941268989
 30
0.0
 11
400.1984152544156
 21
227.2609941268989
 31
0.0
  0
ARC
  5
54B4
330
1A
100
AcDbEntity
  8
SEIHIN
  6
Continuous
 62
     3
 48
5.0
100
AcDbCircle
 10
392.8438152544156
 20
230.7754941268989
 30
0.0
 40
1.999982624924441
100
AcDbArc
 50
211.0010962105679
 51
301.0010962105657
  0
LINE
  5
54B5
330
1A
100
AcDbEntity
  8
SEIHIN
  6
Continuous
 62
     3
 48
5.0
100
AcDbLine
 10
373.4084152544157
 20
244.410294126899
 30
0.0
 11
385.5303152544155
 21
242.947194126899
 31
0.0
  0
LINE
  5
54B6
330
1A
100
AcDbEntity
  8
SEIHIN
  6
Continuous
 62
     3
 48
5.0
100
AcDbLine
 10
385.5303152544155
 20
242.947194126899
 30
0.0
 11
386.5589152544157
 21
243.565294126899
 31
0.0
  0
LINE
  5
54B7
330
1A
100
AcDbEntity
  8
SEIHIN
  6
Continuous
 62
     3
 48
5.0
100
AcDbLine
 10
383.6613152544157
 20
248.387594126899
 30
0.0
 11
373.4084152544157
 21
244.410294126899
 31
0.0
  0
ARC
  5
54B8
330
1A
100
AcDbEntity
  8
SEIHIN
  6
Continuous
 62
     3
 48
5.0
100
AcDbCircle
 10
377.6611592215334
 20
244.7823717243094
 30
0.0
 40
6.999964356414075
100
AcDbArc
 50
30.9997539782234
 51
95.00046730429067
  0
LINE
  5
54B9
330
1A
100
AcDbEntity
  8
SEIHIN
  6
Continuous
 62
     3
 48
5.0
100
AcDbLine
 10
253.0360317484484
 20
395.6391616470188
 30
0.0
 11
276.0360317484484
 21
395.6391616470188
 31
0.0
  0
LINE
  5
54BA
330
1A
100
AcDbEntity
  8
SEIHIN
  6
Continuous
 62
     3
 48
5.0
100
AcDbLine
 10
253.0360317484484
 20
380.6391616470188
 30
0.0
 11
276.0360317484484
 21
380.6391616470188
 31
0.0
  0
LINE
  5
54BB
330
1A
100
AcDbEntity
  8
SEIHIN
  6
Continuous
 62
     3
 48
5.0
100
AcDbLine
 10
250.2360317484483
 20
381.8391616470188
 30
0.0
 11
276.0360317484484
 21
381.8391616470188
 31
0.0
  0
LINE
  5
54BC
330
1A
100
AcDbEntity
  8
SEIHIN
  6
Continuous
 62
     3
 48
5.0
100
AcDbLine
 10
250.2360317484483
 20
394.4391616470189
 30
0.0
 11
276.0360317484484
 21
394.4391616470189
 31
0.0
  0
DIMENSION
  5
54BD
330
1A
100
AcDbEntity
  8
SUNPOU
 48
5.0
100
AcDbDimension
  2
*D9
 10
220.4450842090049
 20
377.1391616470187
 30
0.0
 11
215.4450842090049
 21
388.1391616470188
 31
0.0
 70
    32
 71
     5
 42
22.00000000000011
  3
STANDARD
100
AcDbAlignedDimension
 13
245.0360317484484
 23
399.1391616470188
 33
0.0
 14
245.0360317484484
 24
377.1391616470187
 34
0.0
 50
90.0
100
AcDbRotatedDimension
1001
ACAD
1000
DSTYLE
1002
{
1070
   140
1040
6.0
1070
    74
1070
     0
1070
   172
1070
     1
1070
    73
1070
     0
1070
   272
1070
     2
1070
    77
1070
     3
1070
   173
1070
     1
1070
   147
1040
2.0
1070
    42
1040
6.0
1070
    44
1040
3.0
1070
    43
1040
14.0
1070
   271
1070
     0
1070
   178
1070
     4
1070
   177
1070
     4
1070
   176
1070
     4
1070
   141
1040
150.0
1070
     7
1000
_OPEN
1070
     6
1000
_OPEN
1070
    41
1040
7.0
1002
}
  0
LINE
  5
54BE
330
1A
100
AcDbEntity
  8
SEIHIN
  6
Continuous
 62
     3
 48
5.0
100
AcDbLine
 10
268.6377317484483
 20
394.4391616470189
 30
0.0
 11
268.6377317484483
 21
395.6391616470188
 31
0.0
  0
LINE
  5
54BF
330
1A
100
AcDbEntity
  8
SEIHIN
  6
Continuous
 62
     3
 48
5.0
100
AcDbLine
 10
261.9263317484483
 20
394.4391616470189
 30
0.0
 11
261.9263317484483
 21
395.6391616470188
 31
0.0
  0
LINE
  5
54C0
330
1A
100
AcDbEntity
  8
SEIHIN
  6
Continuous
 62
     3
 48
5.0
100
AcDbLine
 10
253.0360317484484
 20
394.4391616470189
 30
0.0
 11
253.0360317484484
 21
395.6391616470188
 31
0.0
  0
ARC
  5
54C1
330
1A
100
AcDbEntity
  8
SEIHIN
  6
Continuous
 62
     3
 48
5.0
100
AcDbCircle
 10
250.2360317484482
 20
398.4391616470188
 30
0.0
 40
3.999999999999915
100
AcDbArc
 50
180.0000000000016
 51
270.0000000000017
  0
LINE
  5
54C2
330
1A
100
AcDbEntity
  8
SEIHIN
  6
Continuous
 62
     3
 48
5.0
100
AcDbLine
 10
246.2360317484483
 20
388.1391616470188
 30
0.0
 11
246.2360317484483
 21
399.1391616470188
 31
0.0
  0
LINE
  5
54C3
330
1A
100
AcDbEntity
  8
SEIHIN
  6
Continuous
 62
     3
 48
5.0
100
AcDbLine
 10
245.0360317484484
 20
377.1391616470187
 30
0.0
 11
245.0360317484484
 21
399.1391616470188
 31
0.0
  0
LINE
  5
54C4
330
1A
100
AcDbEntity
  8
SEIHIN
  6
Continuous
 62
     3
 48
5.0
100
AcDbLine
 10
253.2360317484483
 20
390.1391616470188
 30
0.0
 11
257.7360317484483
 21
390.1391616470188
 31
0.0
  0
LINE
  5
54C5
330
1A
100
AcDbEntity
  8
SEIHIN
  6
Continuous
 62
     3
 48
5.0
100
AcDbLine
 10
253.2360317484483
 20
386.1391616470188
 30
0.0
 11
257.7360317484483
 21
386.1391616470188
 31
0.0
  0
LINE
  5
54C6
330
1A
100
AcDbEntity
  8
SEIHIN
  6
Continuous
 62
     3
 48
5.0
100
AcDbLine
 10
246.2360317484483
 20
377.1391616470187
 30
0.0
 11
246.2360317484483
 21
388.1391616470188
 31
0.0
  0
ARC
  5
54C7
330
1A
100
AcDbEntity
  8
SEIHIN
  6
Continuous
 62
     3
 48
5.0
100
AcDbCircle
 10
250.2360317484484
 20
377.8391616470187
 30
0.0
 40
4.000000000000057
100
AcDbArc
 50
90.0
 51
180.0
  0
LINE
  5
54C8
330
1A
100
AcDbEntity
  8
SEIHIN
  6
Continuous
 62
     3
 48
5.0
100
AcDbLine
 10
245.0360317484484
 20
377.1391616470187
 30
0.0
 11
246.2360317484483
 21
377.1391616470187
 31
0.0
  0
LINE
  5
54C9
330
1A
100
AcDbEntity
  8
SEIHIN
  6
Continuous
 62
     3
 48
5.0
100
AcDbLine
 10
253.0360317484484
 20
380.6391616470188
 30
0.0
 11
253.0360317484484
 21
381.8391616470188
 31
0.0
  0
LINE
  5
54CA
330
1A
100
AcDbEntity
  8
SEIHIN
  6
Continuous
 62
     3
 48
5.0
100
AcDbLine
 10
256.0361317484483
 20
390.1391616470188
 30
0.0
 11
256.0361317484483
 21
392.8926616470188
 31
0.0
  0
LINE
  5
54CB
330
1A
100
AcDbEntity
  8
SEIHIN
  6
Continuous
 62
     3
 48
5.0
100
AcDbLine
 10
256.0361317484483
 20
386.1391616470188
 30
0.0
 11
256.0361317484483
 21
383.3857616470189
 31
0.0
  0
ARC
  5
54CC
330
1A
100
AcDbEntity
  8
SEIHIN
  6
Continuous
 62
     3
 48
5.0
100
AcDbCircle
 10
253.2360317484483
 20
388.1391616470188
 30
0.0
 40
2.0
100
AcDbArc
 50
90.0
 51
270.0
  0
LINE
  5
54CD
330
1A
100
AcDbEntity
  8
SEIHIN
  6
Continuous
 62
     3
 48
5.0
100
AcDbLine
 10
261.9263317484483
 20
380.6391616470188
 30
0.0
 11
261.9263317484483
 21
381.8391616470188
 31
0.0
  0
LINE
  5
54CE
330
1A
100
AcDbEntity
  8
SEIHIN
  6
Continuous
 62
     3
 48
5.0
100
AcDbLine
 10
268.6377317484483
 20
380.6391616470188
 30
0.0
 11
268.6377317484483
 21
381.8391616470188
 31
0.0
  0
ARC
  5
54CF
330
1A
100
AcDbEntity
  8
SEIHIN
  6
Continuous
 62
     3
 48
5.0
100
AcDbCircle
 10
257.7360317484483
 20
388.1391616470188
 30
0.0
 40
2.0
100
AcDbArc
 50
270.0
 51
90.0
  0
LINE
  5
54D0
330
1A
100
AcDbEntity
  8
SEIHIN
  6
Continuous
 62
     3
 48
5.0
100
AcDbLine
 10
245.0360317484484
 20
399.1391616470188
 30
0.0
 11
246.2360317484483
 21
399.1391616470188
 31
0.0
  0
LINE
  5
54D1
330
1A
100
AcDbEntity
  8
SEIHIN
  6
Continuous
 62
     3
 48
5.0
100
AcDbLine
 10
375.2906317484483
 20
396.6391616470188
 30
0.0
 11
375.2906317484483
 21
392.1391616470188
 31
0.0
  0
LINE
  5
54D2
330
1A
100
AcDbEntity
  8
SEIHIN
  6
Continuous
 62
     3
 48
5.0
100
AcDbLine
 10
311.0360317484484
 20
391.6032616470188
 30
0.0
 11
311.0360317484484
 21
397.4317616470187
 31
0.0
  0
LINE
  5
54D3
330
1A
100
AcDbEntity
  8
CENTER L
  6
CENTER
 62
     1
 48
5.0
100
AcDbLine
 10
286.0360317484484
 20
380.4810616470188
 30
0.0
 11
286.0360317484484
 21
395.3183616470187
 31
0.0
  0
LINE
  5
54D4
330
1A
100
AcDbEntity
  8
SEIHIN
  6
Continuous
 62
     3
 48
5.0
100
AcDbLine
 10
276.0360317484484
 20
379.1892616470187
 30
0.0
 11
276.0360317484484
 21
397.0891616470187
 31
0.0
  0
LINE
  5
54D5
330
1A
100
AcDbEntity
  8
SEIHIN
  6
Continuous
 62
     3
 48
5.0
100
AcDbLine
 10
294.0360317484484
 20
379.1892616470187
 30
0.0
 11
294.0360317484484
 21
397.0891616470187
 31
0.0
  0
ELLIPSE
  5
54D6
330
1A
100
AcDbEntity
  8
SEIHIN
 48
5.0
100
AcDbEllipse
 10
387.1380675331312
 20
368.6391616470187
 30
0.0
 11
0.0
 21
-2.100000000000023
 31
0.0
210
0.0
220
0.0
230
1.0
 40
0.5151147151372501
 41
0.4954422648636925
 42
0.9332344061757648
  0
ELLIPSE
  5
54D7
330
1A
100
AcDbEntity
  8
SEIHIN
 48
5.0
100
AcDbEllipse
 10
387.1380675331312
 20
368.6391616470187
 30
0.0
 11
0.0
 21
-2.100000000000023
 31
0.0
210
0.0
220
0.0
230
1.0
 40
0.5151147151372501
 41
2.208358247414147
 42
2.64615038872616
  0
ELLIPSE
  5
54D8
330
1A
100
AcDbEntity
  8
SEIHIN
 48
5.0
100
AcDbEllipse
 10
390.2282675331312
 20
368.6555225440133
 30
0.0
 11
0.0001264579545932066
 21
-3.26636089699457
 31
0.0
210
0.0
220
0.0
230
1.0
 40
0.5125213032173598
 41
0.3122325710856062
 42
2.829320397731026
  0
ELLIPSE
  5
54D9
330
1A
100
AcDbEntity
  8
SEIHIN
 48
5.0
100
AcDbEllipse
 10
391.2568317484483
 20
368.6555225440133
 30
0.0
 11
0.0001264579545932066
 21
-3.26636089699457
 31
0.0
210
0.0
220
0.0
230
1.0
 40
0.5125213032173598
 41
-1.172683445896207
 42
4.325079724766831
  0
ELLIPSE
  5
54DA
330
1A
100
AcDbEntity
  8
SEIHIN
 48
5.0
100
AcDbEllipse
 10
388.1666317484483
 20
368.6391616470187
 30
0.0
 11
0.0
 21
-2.100000000000023
 31
0.0
210
0.0
220
0.0
230
1.0
 40
0.5151147151372501
 41
2.208358247414147
 42
7.216419713355364
  0
LINE
  5
54DB
330
1A
100
AcDbEntity
  8
SEIHIN
  6
Continuous
 62
     3
 48
5.0
100
AcDbLine
 10
358.2906317484483
 20
392.1391616470188
 30
0.0
 11
313.0360317484484
 21
392.1391616470188
 31
0.0
  0
LINE
  5
54DC
330
1A
100
AcDbEntity
  8
SEIHIN
  6
Continuous
 62
     3
 48
5.0
100
AcDbLine
 10
368.3812317484482
 20
369.5363616470187
 30
0.0
 11
294.0360317484484
 21
379.1892616470187
 31
0.0
  0
LINE
  5
54DD
330
1A
100
AcDbEntity
  8
SEIHIN
  6
Continuous
 62
     3
 48
5.0
100
AcDbLine
 10
358.2906317484483
 20
384.1391616470188
 30
0.0
 11
313.0360317484484
 21
384.1391616470188
 31
0.0
  0
ARC
  5
54DE
330
1A
100
AcDbEntity
  8
SEIHIN
  6
Continuous
 62
     3
 48
5.0
100
AcDbCircle
 10
286.0360317484482
 20
388.1391616470188
 30
0.0
 40
5.000000000000028
100
AcDbArc
 50
180.0
 51
0.0
  0
LINE
  5
54DF
330
1A
100
AcDbEntity
  8
SEIHIN
  6
Continuous
 62
     3
 48
5.0
100
AcDbLine
 10
276.0360317484484
 20
379.1892616470187
 30
0.0
 11
294.0360317484484
 21
379.1892616470187
 31
0.0
  0
ARC
  5
54E0
330
1A
100
AcDbEntity
  8
SEIHIN
  6
Continuous
 62
     3
 48
5.0
100
AcDbCircle
 10
286.0360317484482
 20
388.1391616470188
 30
0.0
 40
5.000000000000028
100
AcDbArc
 50
0.0
 51
180.0
  0
LINE
  5
54E1
330
1A
100
AcDbEntity
  8
SEIHIN
  6
Continuous
 62
     3
 48
5.0
100
AcDbLine
 10
311.0360317484484
 20
384.6751616470189
 30
0.0
 11
311.0360317484484
 21
378.8465616470187
 31
0.0
  0
ARC
  5
54E2
330
1A
100
AcDbEntity
  8
SEIHIN
  6
Continuous
 62
     3
 48
5.0
100
AcDbCircle
 10
313.0360317484484
 20
388.1391616470188
 30
0.0
 40
4.0
100
AcDbArc
 50
90.0
 51
270.0
  0
LINE
  5
54E3
330
1A
100
AcDbEntity
  8
SEIHIN
  6
Continuous
 62
     3
 48
5.0
100
AcDbLine
 10
379.9410317484482
 20
376.6391616470187
 30
0.0
 11
368.7906317484483
 21
376.6391616470187
 31
0.0
  0
ARC
  5
54E4
330
1A
100
AcDbEntity
  8
SEIHIN
  6
Continuous
 62
     3
 48
5.0
100
AcDbCircle
 10
366.4498562714092
 20
354.661146136804
 30
0.0
 40
14.99997575583182
100
AcDbArc
 50
32.7732180425087
 51
82.60213909167197
  0
LINE
  5
54E5
330
1A
100
AcDbEntity
  8
SEIHIN
  6
Continuous
 62
     3
 48
5.0
100
AcDbLine
 10
379.4124317484481
 20
360.6391616470187
 30
0.0
 11
367.2906317484482
 21
369.6779616470187
 31
0.0
  0
LINE
  5
54E6
330
1A
100
AcDbEntity
  8
CENTER L
  6
CENTER
 62
     1
 48
5.0
100
AcDbLine
 10
389.9413317484484
 20
378.1391616470188
 30
0.0
 11
364.5806317484483
 21
378.1391616470188
 31
0.0
  0
LINE
  5
54E7
330
1A
100
AcDbEntity
  8
SEIHIN
  6
Continuous
 62
     3
 48
5.0
100
AcDbLine
 10
391.8922317484482
 20
392.1391616470188
 30
0.0
 11
362.2906317484483
 21
392.1391616470188
 31
0.0
  0
LINE
  5
54E8
330
1A
100
AcDbEntity
  8
SEIHIN
  6
Continuous
 62
     3
 48
5.0
100
AcDbLine
 10
391.8922317484482
 20
384.1391616470188
 30
0.0
 11
362.2906317484483
 21
384.1391616470188
 31
0.0
  0
LINE
  5
54E9
330
1A
100
AcDbEntity
  8
SEIHIN
  6
Continuous
 62
     3
 48
5.0
100
AcDbLine
 10
386.6666317484483
 20
379.6391616470188
 30
0.0
 11
368.7906317484483
 21
379.6391616470188
 31
0.0
  0
ARC
  5
54EA
330
1A
100
AcDbEntity
  8
SEIHIN
  6
Continuous
 62
     3
 48
5.0
100
AcDbCircle
 10
368.7906317484483
 20
378.1391616470187
 30
0.0
 40
1.500000000000085
100
AcDbArc
 50
90.0
 51
270.0
  0
LINE
  5
54EB
330
1A
100
AcDbEntity
  8
SEIHIN
  6
Continuous
 62
     3
 48
5.0
100
AcDbLine
 10
358.2906317484483
 20
392.1392616470189
 30
0.0
 11
358.2906317484483
 21
384.1392616470189
 31
0.0
  0
LINE
  5
54EC
330
1A
100
AcDbEntity
  8
SEIHIN
  6
Continuous
 62
     3
 48
5.0
100
AcDbLine
 10
362.2906317484483
 20
392.1392616470189
 30
0.0
 11
362.2906317484483
 21
384.1392616470189
 31
0.0
  0
LINE
  5
54ED
330
1A
100
AcDbEntity
  8
SEIHIN
  6
Continuous
 62
     3
 48
5.0
100
AcDbLine
 10
392.2869317484484
 20
360.6391616470187
 30
0.0
 11
402.9648317484482
 21
371.7774616470189
 31
0.0
  0
LINE
  5
54EE
330
1A
100
AcDbEntity
  8
CENTER L
  6
CENTER
 62
     1
 48
5.0
100
AcDbLine
 10
391.2568317484483
 20
364.5889616470187
 30
0.0
 11
391.2568317484483
 21
372.6146616470188
 31
0.0
  0
LINE
  5
54EF
330
1A
100
AcDbEntity
  8
SEIHIN
  6
Continuous
 62
     3
 48
5.0
100
AcDbLine
 10
375.2906317484483
 20
368.6391616470187
 30
0.0
 11
375.2906317484483
 21
376.6391616470187
 31
0.0
  0
LINE
  5
54F0
330
1A
100
AcDbEntity
  8
CENTER L
  6
CENTER
 62
     1
 48
5.0
100
AcDbLine
 10
394.2401317484483
 20
368.6391616470187
 30
0.0
 11
386.1392317484484
 21
368.6391616470187
 31
0.0
  0
LINE
  5
54F1
330
1A
100
AcDbEntity
  8
SEIHIN
  6
Continuous
 62
     3
 48
5.0
100
AcDbLine
 10
392.2869317484484
 20
360.6391616470187
 30
0.0
 11
379.4124317484481
 21
360.6391616470187
 31
0.0
  0
LINE
  5
54F2
330
1A
100
AcDbEntity
  8
SEIHIN
  6
Continuous
 62
     3
 48
5.0
100
AcDbLine
 10
379.0621317484482
 20
362.7808616470188
 30
0.0
 11
380.4410317484483
 21
360.6391616470187
 31
0.0
  0
LINE
  5
54F3
330
1A
100
AcDbEntity
  8
SEIHIN
  6
Continuous
 62
     3
 48
5.0
100
AcDbLine
 10
389.7153317484484
 20
367.3891616470188
 30
0.0
 11
388.0072997666948
 21
367.3891616470188
 31
0.0
  0
LINE
  5
54F4
330
1A
100
AcDbEntity
  8
SEIHIN
  6
Continuous
 62
     3
 48
5.0
100
AcDbLine
 10
389.7153317484484
 20
369.8891616470188
 30
0.0
 11
388.0072997666947
 21
369.8891616470188
 31
0.0
  0
LINE
  5
54F5
330
1A
100
AcDbEntity
  8
CENTER L
  6
CENTER
 62
     1
 48
5.0
100
AcDbLine
 10
388.1666317484483
 20
365.7564616470188
 30
0.0
 11
388.1666317484483
 21
371.4121616470188
 31
0.0
  0
ARC
  5
54F6
330
1A
100
AcDbEntity
  8
SEIHIN
  6
Continuous
 62
     3
 48
5.0
100
AcDbCircle
 10
386.6666317484483
 20
378.1391616470187
 30
0.0
 40
1.500000000000085
100
AcDbArc
 50
270.0
 51
90.0
  0
LINE
  5
54F7
330
1A
100
AcDbEntity
  8
SEIHIN
  6
Continuous
 62
     3
 48
5.0
100
AcDbLine
 10
375.2906317484483
 20
379.6391616470188
 30
0.0
 11
375.2906317484483
 21
384.1391616470188
 31
0.0
  0
ARC
  5
54F8
330
1A
100
AcDbEntity
  8
SEIHIN
  6
Continuous
 62
     3
 48
5.0
100
AcDbCircle
 10
374.7906317484483
 20
378.1391616470187
 30
0.0
 40
1.500000000000085
100
AcDbArc
 50
90.0
 51
270.0
  0
ARC
  5
54F9
330
1A
100
AcDbEntity
  8
SEIHIN
  6
Continuous
 62
     3
 48
5.0
100
AcDbCircle
 10
384.772286186711
 20
376.139142422758
 30
0.0
 40
0.5000192263364182
100
AcDbArc
 50
89.99477921025995
 51
135.7483077463847
  0
LINE
  5
54FA
330
1A
100
AcDbEntity
  8
SEIHIN
  6
Continuous
 62
     3
 48
5.0
100
AcDbLine
 10
384.7723317484482
 20
376.6391616470187
 30
0.0
 11
386.6666317484483
 21
376.6391616470187
 31
0.0
  0
ARC
  5
54FB
330
1A
100
AcDbEntity
  8
SEIHIN
  6
Continuous
 62
     3
 48
5.0
100
AcDbCircle
 10
379.9410317484483
 20
376.1391616470187
 30
0.0
 40
0.4999999999999716
100
AcDbArc
 50
0.0000000000162844
 51
90.00000000001629
  0
ARC
  5
54FC
330
1A
100
AcDbEntity
  8
SEIHIN
  6
Continuous
 62
     3
 48
5.0
100
AcDbCircle
 10
380.9410160879577
 20
373.6391680121766
 30
0.0
 40
0.4999843395500121
100
AcDbArc
 50
180.0007294162047
 51
315.7624671746695
  0
LINE
  5
54FD
330
1A
100
AcDbEntity
  8
SEIHIN
  6
Continuous
 62
     3
 48
5.0
100
AcDbLine
 10
380.4410317484483
 20
373.6391616470188
 30
0.0
 11
380.4410317484483
 21
376.1391616470188
 31
0.0
  0
LINE
  5
54FE
330
1A
100
AcDbEntity
  8
SEIHIN
  6
Continuous
 62
     3
 48
5.0
100
AcDbLine
 10
384.4141317484484
 20
376.4880616470189
 30
0.0
 11
381.2992317484483
 21
373.2903616470188
 31
0.0
  0
ARC
  5
54FF
330
1A
100
AcDbEntity
  8
SEIHIN
  6
Continuous
 62
     3
 48
5.0
100
AcDbCircle
 10
376.4570317500063
 20
388.1391470667584
 30
0.0
 40
4.166702007445117
100
AcDbArc
 50
106.2562433441111
 51
253.7423242972115
  0
ARC
  5
5500
330
1A
100
AcDbEntity
  8
SEIHIN
  6
Continuous
 62
     3
 48
5.0
100
AcDbCircle
 10
391.8922317484482
 20
388.1391616470188
 30
0.0
 40
4.0
100
AcDbArc
 50
270.0
 51
90.0
  0
ELLIPSE
  5
5501
330
1A
100
AcDbEntity
  8
SEIHIN
 48
5.0
100
AcDbEllipse
 10
387.1382738819293
 20
407.6390987101948
 30
0.0
 11
2.222221411440369E-5
 21
2.099999999882445
 31
0.0
210
0.0
220
0.0
230
-1.0
 40
0.5151147151372501
 41
2.208358247414207
 42
2.646150388726198
  0
ELLIPSE
  5
5502
330
1A
100
AcDbEntity
  8
SEIHIN
 48
5.0
100
AcDbEllipse
 10
391.2570379238846
 20
407.6226942284106
 30
0.0
 11
0.0001610226075518064
 21
3.26636089547351
 31
0.0
210
0.0
220
0.0
230
-1.0
 40
0.5125213032173599
 41
-1.172683445896219
 42
4.32507972476686
  0
ELLIPSE
  5
5503
330
1A
100
AcDbEntity
  8
SEIHIN
 48
5.0
100
AcDbEllipse
 10
388.1668380971888
 20
407.6390878259214
 30
0.0
 11
2.222221411440369E-5
 21
2.099999999882445
 31
0.0
210
0.0
220
0.0
230
-1.0
 40
0.5151147151372501
 41
2.208358247414133
 42
7.216419713355394
  0
ELLIPSE
  5
5504
330
1A
100
AcDbEntity
  8
SEIHIN
 48
5.0
100
AcDbEllipse
 10
387.1382738819293
 20
407.6390987101948
 30
0.0
 11
2.222221411440369E-5
 21
2.099999999882445
 31
0.0
210
0.0
220
0.0
230
-1.0
 40
0.5151147151372501
 41
0.4954422648636699
 42
0.9332344061757735
  0
ELLIPSE
  5
5505
330
1A
100
AcDbEntity
  8
SEIHIN
 48
5.0
100
AcDbEllipse
 10
390.2284737086251
 20
407.6227051126841
 30
0.0
 11
0.0001610226075518064
 21
3.26636089547351
 31
0.0
210
0.0
220
0.0
230
-1.0
 40
0.5125213032173599
 41
0.3122325710855895
 42
2.829320397731077
  0
LINE
  5
5506
330
1A
100
AcDbEntity
  8
SEIHIN
  6
Continuous
 62
     3
 48
5.0
100
AcDbLine
 10
294.0360317484484
 20
397.0891616470187
 30
0.0
 11
368.3812317484482
 21
406.7420616470189
 31
0.0
  0
LINE
  5
5507
330
1A
100
AcDbEntity
  8
SEIHIN
  6
Continuous
 62
     3
 48
5.0
100
AcDbLine
 10
294.0360317484484
 20
397.0891616470187
 30
0.0
 11
276.0360317484484
 21
397.0891616470187
 31
0.0
  0
LINE
  5
5508
330
1A
100
AcDbEntity
  8
SEIHIN
  6
Continuous
 62
     3
 48
5.0
100
AcDbLine
 10
379.9410317484482
 20
399.6391616470187
 30
0.0
 11
368.7906317484483
 21
399.6391616470187
 31
0.0
  0
ARC
  5
5509
330
1A
100
AcDbEntity
  8
SEIHIN
  6
Continuous
 62
     3
 48
5.0
100
AcDbCircle
 10
366.4498110954324
 20
421.6172485845497
 30
0.0
 40
15.00005240542121
100
AcDbArc
 50
277.3979969014918
 51
327.2266459643268
  0
LINE
  5
550A
330
1A
100
AcDbEntity
  8
SEIHIN
  6
Continuous
 62
     3
 48
5.0
100
AcDbLine
 10
379.4124317484481
 20
415.6391616470187
 30
0.0
 11
367.2906317484482
 21
406.6004616470187
 31
0.0
  0
LINE
  5
550B
330
1A
100
AcDbEntity
  8
CENTER L
  6
CENTER
 62
     1
 48
5.0
100
AcDbLine
 10
389.7115317484483
 20
398.1391616470187
 30
0.0
 11
364.5806317484483
 21
398.1391616470187
 31
0.0
  0
LINE
  5
550C
330
1A
100
AcDbEntity
  8
SEIHIN
  6
Continuous
 62
     3
 48
5.0
100
AcDbLine
 10
386.6666317484483
 20
396.6391616470188
 30
0.0
 11
368.7906317484483
 21
396.6391616470188
 31
0.0
  0
ARC
  5
550D
330
1A
100
AcDbEntity
  8
SEIHIN
  6
Continuous
 62
     3
 48
5.0
100
AcDbCircle
 10
368.7906317484483
 20
398.1391616470187
 30
0.0
 40
1.499999999999915
100
AcDbArc
 50
90.0
 51
270.0
  0
LINE
  5
550E
330
1A
100
AcDbEntity
  8
CENTER L
  6
CENTER
 62
     1
 48
5.0
100
AcDbLine
 10
394.2403380968487
 20
407.6390235561036
 30
0.0
 11
386.1394380973023
 21
407.6391092798818
 31
0.0
  0
ARC
  5
550F
330
1A
100
AcDbEntity
  8
SEIHIN
  6
Continuous
 62
     3
 48
5.0
100
AcDbCircle
 10
386.6666317484483
 20
398.1391616470187
 30
0.0
 40
1.499999999999915
100
AcDbArc
 50
270.0
 51
90.0
  0
LINE
  5
5510
330
1A
100
AcDbEntity
  8
SEIHIN
  6
Continuous
 62
     3
 48
5.0
100
AcDbLine
 10
392.2869317484484
 20
415.6391616470187
 30
0.0
 11
379.4124317484481
 21
415.6391616470187
 31
0.0
  0
LINE
  5
5511
330
1A
100
AcDbEntity
  8
SEIHIN
  6
Continuous
 62
     3
 48
5.0
100
AcDbLine
 10
392.2869317484484
 20
415.6391616470187
 30
0.0
 11
379.4124317484481
 21
415.6391616470187
 31
0.0
  0
LINE
  5
5512
330
1A
100
AcDbEntity
  8
SEIHIN
  6
Continuous
 62
     3
 48
5.0
100
AcDbLine
 10
375.2906317484483
 20
407.6391616470187
 30
0.0
 11
375.2906317484483
 21
399.6391616470187
 31
0.0
  0
ARC
  5
5513
330
1A
100
AcDbEntity
  8
SEIHIN
  6
Continuous
 62
     3
 48
5.0
100
AcDbCircle
 10
374.7906317484483
 20
398.1391616470187
 30
0.0
 40
1.499999999999915
100
AcDbArc
 50
90.0
 51
270.0
  0
ARC
  5
5514
330
1A
100
AcDbEntity
  8
SEIHIN
  6
Continuous
 62
     3
 48
5.0
100
AcDbCircle
 10
384.7723688565831
 20
400.1391459865281
 30
0.0
 40
0.4999843408864821
100
AcDbArc
 50
224.2340098293209
 51
269.9957475877809
  0
LINE
  5
5515
330
1A
100
AcDbEntity
  8
SEIHIN
  6
Continuous
 62
     3
 48
5.0
100
AcDbLine
 10
384.7723317484482
 20
399.6391616470187
 30
0.0
 11
386.6666317484483
 21
399.6391616470187
 31
0.0
  0
ARC
  5
5516
330
1A
100
AcDbEntity
  8
SEIHIN
  6
Continuous
 62
     3
 48
5.0
100
AcDbCircle
 10
380.9410509727091
 20
402.6391694622647
 30
0.0
 40
0.5000192243219049
100
AcDbArc
 50
44.24736699065361
 51
180.0008955267843
  0
ARC
  5
5517
330
1A
100
AcDbEntity
  8
SEIHIN
  6
Continuous
 62
     3
 48
5.0
100
AcDbCircle
 10
379.9410317484482
 20
400.1391616470187
 30
0.0
 40
0.5000000000000568
100
AcDbArc
 50
269.9999999999935
 51
359.9999999999935
  0
LINE
  5
5518
330
1A
100
AcDbEntity
  8
SEIHIN
  6
Continuous
 62
     3
 48
5.0
100
AcDbLine
 10
380.4410317484483
 20
402.6391616470188
 30
0.0
 11
380.4410317484483
 21
400.1391616470187
 31
0.0
  0
LINE
  5
5519
330
1A
100
AcDbEntity
  8
SEIHIN
  6
Continuous
 62
     3
 48
5.0
100
AcDbLine
 10
384.4141317484484
 20
399.7903616470188
 30
0.0
 11
381.2992317484483
 21
402.9880616470186
 31
0.0
  0
LINE
  5
551A
330
1A
100
AcDbEntity
  8
SEIHIN
  6
Continuous
 62
     3
 48
5.0
100
AcDbLine
 10
379.0621317484482
 20
413.4974616470188
 30
0.0
 11
380.4410317484483
 21
415.6391616470187
 31
0.0
  0
LINE
  5
551B
330
1A
100
AcDbEntity
  8
CENTER L
  6
CENTER
 62
     1
 48
5.0
100
AcDbLine
 10
388.1668686019395
 20
410.5217878257599
 30
0.0
 11
388.1668087532841
 21
404.8660878260765
 31
0.0
  0
LINE
  5
551C
330
1A
100
AcDbEntity
  8
CENTER L
  6
CENTER
 62
     1
 48
5.0
100
AcDbLine
 10
391.2570809562594
 20
411.6892551251775
 30
0.0
 11
391.2569960282481
 21
403.6635551256267
 31
0.0
  0
LINE
  5
551D
330
1A
100
AcDbEntity
  8
SEIHIN
  6
Continuous
 62
     3
 48
5.0
100
AcDbLine
 10
392.2869317484484
 20
415.6391616470187
 30
0.0
 11
402.9648317484482
 21
404.5009616470187
 31
0.0
  0
LINE
  5
551E
330
1A
100
AcDbEntity
  8
SEIHIN
  6
Continuous
 62
     3
 48
5.0
100
AcDbLine
 10
389.7155248695937
 20
406.3890714376375
 30
0.0
 11
388.0074928879357
 21
406.3890895120434
 31
0.0
  0
LINE
  5
551F
330
1A
100
AcDbEntity
  8
SEIHIN
  6
Continuous
 62
     3
 48
5.0
100
AcDbLine
 10
389.7155513246105
 20
408.8890714374975
 30
0.0
 11
388.0075193429526
 21
408.8890895119034
 31
0.0
  0
LEADER
  5
5520
330
1A
100
AcDbEntity
  8
SUNPOU
  6
Continuous
 62
     4
100
AcDbLeader
  3
STANDARD
 74
     0
 40
6.0
 41
31.2
 76
     3
 10
548.8354684868082
 20
313.859139340007
 30
0.0
 10
570.2358458792264
 20
292.6657035799176
 30
0.0
 10
572.0349905109101
 20
292.6657035799176
 30
0.0
1001
ACAD
1000
DSTYLE
1002
{
1070
     6
1000
OPEN
1070
    41
1040
7.0
1070
    42
1040
6.0
1070
    43
1040
14.0
1070
    44
1040
3.0
1070
    73
1070
     0
1070
    74
1070
     0
1070
    77
1070
     3
1070
   140
1040
6.0
1070
   141
1040
150.0
1070
   147
1040
2.0
1070
   172
1070
     1
1070
   173
1070
     1
1070
   176
1070
     4
1070
   177
1070
     4
1070
   178
1070
     4
1070
   271
1070
     0
1070
   272
1070
     2
1070
   288
1070
     1
1070
   341
1005
6D
1070
   343
1005
6D
1070
   344
1005
6D
1002
}
  0
LEADER
  5
5521
330
1A
100
AcDbEntity
  8
SUNPOU
  6
Continuous
 62
     4
100
AcDbLeader
  3
STANDARD
 40
6.0
 41
31.2
 76
     3
 10
507.954931087034
 20
301.4572250331064
 30
0.0
 10
471.8438474869777
 20
329.4211620988967
 30
0.0
 10
470.0115028237465
 20
329.4211620988967
 30
0.0
1001
ACAD
1000
DSTYLE
1002
{
1070
     6
1000
OPEN
1070
    41
1040
7.0
1070
    42
1040
6.0
1070
    43
1040
14.0
1070
    44
1040
3.0
1070
    73
1070
     0
1070
    74
1070
     0
1070
    77
1070
     3
1070
   140
1040
6.0
1070
   141
1040
150.0
1070
   147
1040
2.0
1070
   172
1070
     1
1070
   173
1070
     1
1070
   176
1070
     4
1070
   177
1070
     4
1070
   178
1070
     4
1070
   271
1070
     0
1070
   272
1070
     2
1070
   288
1070
     1
1070
   341
1005
6D
1070
   343
1005
6D
1070
   344
1005
6D
1002
}
  0
DIMENSION
  5
5522
330
1A
100
AcDbEntity
  8
SUNPOU
 48
5.0
100
AcDbDimension
  2
*D10
 10
482.5627233082413
 20
283.7501892474102
 30
0.0
 11
480.4106142033767
 21
297.0399204064679
 31
0.0
 70
    32
 71
     5
 42
24.9998822300642
  3
STANDARD
100
AcDbAlignedDimension
 13
497.0177780338781
 23
321.6013599139764
 33
0.0
 14
505.0788780338781
 24
297.2792599139766
 34
0.0
 50
120.9999999999998
100
AcDbRotatedDimension
1001
ACAD
1000
DSTYLE
1002
{
1070
   140
1040
6.0
1070
    74
1070
     0
1070
   172
1070
     1
1070
    73
1070
     0
1070
   272
1070
     2
1070
    77
1070
     3
1070
   173
1070
     1
1070
   147
1040
2.0
1070
    42
1040
6.0
1070
    44
1040
3.0
1070
    43
1040
14.0
1070
   271
1070
     0
1070
   178
1070
     4
1070
   177
1070
     4
1070
   176
1070
     4
1070
   141
1040
150.0
1070
     7
1000
_OPEN
1070
     6
1000
_OPEN
1070
    41
1040
7.0
1002
}
  0
LINE
  5
5523
330
1A
100
AcDbEntity
  8
SEIHIN
  6
Continuous
 62
     3
 48
5.0
100
AcDbLine
 10
553.4436780338781
 20
317.0064599139766
 30
0.0
 11
554.3920780338783
 21
287.4666599139766
 31
0.0
  0
ARC
  5
5524
330
1A
100
AcDbEntity
  8
SEIHIN
  6
Continuous
 62
     3
 48
5.0
100
AcDbCircle
 10
531.4167192234401
 20
300.2715245769419
 30
0.0
 40
3.999982355622544
100
AcDbArc
 50
211.0003584629802
 51
30.99986840069178
  0
LINE
  5
5525
330
1A
100
AcDbEntity
  8
SEIHIN
  6
Continuous
 62
     3
 48
5.0
100
AcDbLine
 10
494.4536780338782
 20
308.3943599139765
 30
0.0
 11
506.2994780338781
 21
288.6795599139766
 31
0.0
  0
LINE
  5
5526
330
1A
100
AcDbEntity
  8
CENTER L
  6
CENTER
 62
     1
 48
5.0
100
AcDbLine
 10
506.9827780338779
 20
303.0750599139764
 30
0.0
 11
514.9194780338781
 21
289.8661599139766
 31
0.0
  0
LINE
  5
5527
330
1A
100
AcDbEntity
  8
SEIHIN
  6
Continuous
 62
     3
 48
5.0
100
AcDbLine
 10
509.4466780338781
 20
329.0693599139765
 30
0.0
 11
527.9880780338783
 21
298.2113599139765
 31
0.0
  0
LINE
  5
5528
330
1A
100
AcDbEntity
  8
CENTER L
  6
CENTER
 62
     1
 48
5.0
100
AcDbLine
 10
510.3701780338779
 20
335.2989599139765
 30
0.0
 11
549.026078033878
 21
270.9644599139764
 31
0.0
  0
DIMENSION
  5
5529
330
1A
100
AcDbEntity
  8
SUNPOU
 48
5.0
100
AcDbDimension
  2
*D11
 10
511.9146698926502
 20
252.9710921099017
 30
0.0
 11
525.4711917445417
 21
240.1172710718139
 31
0.0
 70
    32
 71
     5
 42
7.500120028724581
  3
STANDARD
100
AcDbAlignedDimension
 13
537.6187667514126
 23
277.1655621686356
 33
0.0
 14
547.1252780338779
 24
274.1277599139764
 34
0.0
 50
120.9999999999998
100
AcDbRotatedDimension
1001
ACAD
1000
DSTYLE
1002
{
1070
   140
1040
6.0
1070
    74
1070
     0
1070
   172
1070
     1
1070
    73
1070
     0
1070
   272
1070
     2
1070
    77
1070
     3
1070
   173
1070
     1
1070
   147
1040
2.0
1070
    42
1040
6.0
1070
    44
1040
3.0
1070
    43
1040
14.0
1070
   271
1070
     0
1070
   178
1070
     4
1070
   177
1070
     4
1070
   176
1070
     4
1070
   141
1040
150.0
1070
     7
1000
_OPEN
1070
     6
1000
_OPEN
1070
    41
1040
7.0
1002
}
  0
ARC
  5
552A
330
1A
100
AcDbEntity
  8
SEIHIN
  6
Continuous
 62
     3
 48
5.0
100
AcDbCircle
 10
539.3998065318442
 20
286.9853602025864
 30
0.0
 40
15.00002650365655
100
AcDbArc
 50
240.1607904603047
 51
300.9994952382173
  0
LINE
  5
552B
330
1A
100
AcDbEntity
  8
SEIHIN
  6
PHANTOM
 62
     6
 48
5.0
100
AcDbLine
 10
418.6613152544157
 20
248.387594126899
 30
0.0
 11
450.6584152544157
 21
195.135394126899
 31
0.0
  0
LINE
  5
552C
330
1A
100
AcDbEntity
  8
SEIHIN
  6
PHANTOM
 62
     6
 48
5.0
100
AcDbLine
 10
420.5303152544157
 20
242.947194126899
 30
0.0
 11
449.6298152544158
 21
194.517294126899
 31
0.0
  0
LINE
  5
552D
330
1A
100
AcDbEntity
  8
SUNPOU
  6
Continuous
 62
     4
 48
5.0
100
AcDbLine
 10
418.7477219484255
 20
189.9914164704916
 30
0.0
 11
449.2816444295607
 21
139.1740556121969
 31
0.0
  0
TEXT
  5
552E
330
1A
100
AcDbEntity
  8
SUNPOU
 48
5.0
100
AcDbText
 10
424.8785501846642
 20
144.1829766007134
 30
0.0
 40
6.0
  1
10
100
AcDbText
  0
LINE
  5
552F
330
1A
100
AcDbEntity
  8
SUNPOU
  6
Continuous
 62
     4
 48
5.0
100
AcDbLine
 10
437.2645219484255
 20
159.1741164704916
 30
0.0
 11
437.2643891802786
 21
139.1740556121969
 31
0.0
  0
LINE
  5
5530
330
1A
100
AcDbEntity
  8
SUNPOU
 48
5.0
100
AcDbLine
 10
437.2645219480215
 20
139.1740556121969
 30
0.0
 11
449.2816444295607
 21
139.1740556121969
 31
0.0
  0
TEXT
  5
5531
330
1A
100
AcDbEntity
  8
SUNPOU
 48
5.0
100
AcDbText
 10
440.8977673258401
 20
128.9610578712513
 30
0.0
 40
6.0
  1
6
100
AcDbText
  0
LINE
  5
5532
330
1A
100
AcDbEntity
  8
SEIHIN
  6
Continuous
 62
     3
 48
5.0
100
AcDbLine
 10
415.6585152544156
 20
195.135394126899
 30
0.0
 11
414.6299152544155
 21
194.517294126899
 31
0.0
  0
LINE
  5
5533
330
1A
100
AcDbEntity
  8
CENTER L
  6
CENTER
 62
     1
 48
5.0
100
AcDbLine
 10
406.4487152544157
 20
198.3503941268989
 30
0.0
 11
414.6044152544156
 21
203.250894126899
 31
0.0
  0
LINE
  5
5534
330
1A
100
AcDbEntity
  8
SEIHIN
  6
PHANTOM
 62
     6
 48
5.0
100
AcDbLine
 10
450.6585152544156
 20
195.135394126899
 30
0.0
 11
449.6299152544157
 21
194.517294126899
 31
0.0
  0
LINE
  5
5535
330
1A
100
AcDbEntity
  8
CENTER L
  6
CENTER
 62
     1
 48
5.0
100
AcDbLine
 10
441.4487152544157
 20
198.3503941268989
 30
0.0
 11
449.6044152544156
 21
203.250894126899
 31
0.0
  0
LINE
  5
5536
330
1A
100
AcDbEntity
  8
CENTER L
  6
CENTER
 62
     1
 48
5.0
100
AcDbLine
 10
423.1884152544156
 20
227.045094126899
 30
0.0
 11
432.1112152544155
 21
232.4063941268989
 31
0.0
  0
LINE
  5
5537
330
1A
100
AcDbEntity
  8
CENTER L
  6
CENTER
 62
     1
 48
5.0
100
AcDbLine
 10
426.4110152544156
 20
221.9809941268989
 30
0.0
 11
435.1984152544156
 21
227.2609941268989
 31
0.0
  0
LINE
  5
5538
330
1A
100
AcDbEntity
  8
SEIHIN
  6
PHANTOM
 62
     6
 48
5.0
100
AcDbLine
 10
420.5303152544157
 20
242.947194126899
 30
0.0
 11
421.5589152544157
 21
243.565294126899
 31
0.0
  0
ARC
  5
5539
330
1A
100
AcDbEntity
  8
SEIHIN
  6
PHANTOM
 62
     6
 48
5.0
100
AcDbCircle
 10
412.6611592215334
 20
244.7823717243094
 30
0.0
 40
6.999964356414075
100
AcDbArc
 50
30.9997539782234
 51
95.00046730429067
  0
LINE
  5
553A
330
1A
100
AcDbEntity
  8
SEIHIN
  6
PHANTOM
 62
     6
 48
5.0
100
AcDbLine
 10
405.1766309997707
 20
251.1543635930299
 30
0.0
 11
412.0510152544157
 21
251.755794126899
 31
0.0
  0
LINE
  5
553B
330
1A
100
AcDbEntity
  8
SEIHIN
  6
Continuous
 62
     3
 48
5.0
100
AcDbLine
 10
506.2994780338781
 20
288.6795599139766
 30
0.0
 11
531.9363780338782
 21
273.9739599139766
 31
0.0
  0
LINE
  5
553C
330
1A
100
AcDbEntity
  8
CENTER L
  6
CENTER
 62
     1
 48
5.0
100
AcDbLine
 10
506.828478033878
 20
291.3306599139764
 30
0.0
 11
516.940378033878
 21
297.4065599139764
 31
0.0
  0
ARC
  5
553D
330
1A
100
AcDbEntity
  8
SEIHIN
  6
Continuous
 62
     3
 48
5.0
100
AcDbCircle
 10
512.1266485823682
 20
294.5141422179419
 30
0.0
 40
3.250005684738191
100
AcDbArc
 50
143.6196456312877
 51
98.37861362914757
  0
LINE
  5
553E
330
1A
100
AcDbEntity
  8
CENTER L
  6
CENTER
 62
     1
 48
5.0
100
AcDbLine
 10
505.0788780338781
 20
297.2792599139766
 30
0.0
 11
512.893778033878
 21
301.9748599139766
 31
0.0
  0
ARC
  5
553F
330
1A
100
AcDbEntity
  8
SEIHIN
  6
Continuous
 62
     3
 48
5.0
100
AcDbCircle
 10
509.0365181129566
 20
299.6571839971874
 30
0.0
 40
2.099994815621373
100
AcDbArc
 50
337.5297984767165
 51
264.4708214971071
  0
LINE
  5
5540
330
1A
100
AcDbEntity
  8
SEIHIN
  6
Continuous
 62
     3
 48
5.0
100
AcDbLine
 10
508.8340780338782
 20
297.5669599139764
 30
0.0
 11
509.5100780338782
 21
296.4418599139765
 31
0.0
  0
LINE
  5
5541
330
1A
100
AcDbEntity
  8
SEIHIN
  6
Continuous
 62
     3
 48
5.0
100
AcDbLine
 10
510.9770780338779
 20
298.8545599139764
 30
0.0
 11
511.6530780338779
 21
297.7294599139765
 31
0.0
  0
MTEXT
  5
5542
330
1A
100
AcDbEntity
  8
SUNPOU
  6
Continuous
 62
     4
100
AcDbMText
 10
574.0349905109101
 20
294.6657035799176
 30
0.0
 40
6.0
 41
0.0
 71
     7
 72
     5
  1
2-φ6.5
 73
     1
 44
1.0
  0
LINE
  5
5543
330
1A
100
AcDbEntity
  8
CENTER L
  6
CENTER
 62
     1
 48
5.0
100
AcDbLine
 10
537.6187667514126
 20
277.1655621686356
 30
0.0
 11
548.9062933078915
 21
283.9477501622915
 31
0.0
  0
ARC
  5
5544
330
1A
100
AcDbEntity
  8
SEIHIN
  6
Continuous
 62
     3
 48
5.0
100
AcDbCircle
 10
543.262578033878
 20
280.5566599139765
 30
0.0
 40
2.099900000000105
100
AcDbArc
 50
180.0
 51
0.0
  0
ARC
  5
5545
330
1A
100
AcDbEntity
  8
SEIHIN
  6
Continuous
 62
     3
 48
5.0
100
AcDbCircle
 10
539.3997860235688
 20
286.9853745799369
 30
0.0
 40
15.00001517649699
100
AcDbArc
 50
301.0000582434632
 51
1.838688275869533
  0
ARC
  5
5546
330
1A
100
AcDbEntity
  8
SEIHIN
  6
Continuous
 62
     3
 48
5.0
100
AcDbCircle
 10
543.262578033878
 20
280.5566599139765
 30
0.0
 40
2.099900000000105
100
AcDbArc
 50
0.0
 51
180.0
  0
DIMENSION
  5
5547
330
1A
100
AcDbEntity
  8
SUNPOU
 48
5.0
100
AcDbDimension
  2
*D12
 10
579.8348135623387
 20
335.1972002627657
 30
0.0
 11
576.1375588305029
 21
351.0584855860352
 31
0.0
 70
    32
 71
     5
 42
31.00000417149948
  3
STANDARD
100
AcDbAlignedDimension
 13
528.7329780331071
 23
340.6577599135131
 33
0.0
 14
549.8342780338778
 24
317.1710599139765
 34
0.0
 50
120.9999999999998
100
AcDbRotatedDimension
1001
ACAD
1000
DSTYLE
1002
{
1070
   140
1040
6.0
1070
    74
1070
     0
1070
   172
1070
     1
1070
    73
1070
     0
1070
   272
1070
     2
1070
    77
1070
     3
1070
   173
1070
     1
1070
   147
1040
2.0
1070
    42
1040
6.0
1070
    44
1040
3.0
1070
    43
1040
14.0
1070
   271
1070
     0
1070
   178
1070
     4
1070
   177
1070
     4
1070
   176
1070
     4
1070
   141
1040
150.0
1070
     7
1000
_OPEN
1070
     6
1000
_OPEN
1070
    41
1040
7.0
1002
}
  0
DIMENSION
  5
5548
330
1A
100
AcDbEntity
  8
SUNPOU
 48
5.0
100
AcDbDimension
  2
*D13
 10
514.2113915855171
 20
382.3001274036547
 30
0.0
 11
488.0641217826654
 21
372.4224296701094
 31
0.0
 70
    32
 71
     5
 42
54.99995020573749
  3
STANDARD
100
AcDbAlignedDimension
 13
494.4536780338782
 23
308.3943599139765
 33
0.0
 14
541.597878033878
 24
336.7213599139765
 34
0.0
 50
30.99999999999978
100
AcDbRotatedDimension
1001
ACAD
1000
DSTYLE
1002
{
1070
   140
1040
6.0
1070
    74
1070
     0
1070
   172
1070
     1
1070
    73
1070
     0
1070
   272
1070
     2
1070
    77
1070
     3
1070
   173
1070
     1
1070
   147
1040
2.0
1070
    42
1040
6.0
1070
    44
1040
3.0
1070
    43
1040
14.0
1070
   271
1070
     0
1070
   178
1070
     4
1070
   177
1070
     4
1070
   176
1070
     4
1070
   141
1040
150.0
1070
     7
1000
_OPEN
1070
     6
1000
_OPEN
1070
    41
1040
7.0
1002
}
  0
DIMENSION
  5
5549
330
1A
100
AcDbEntity
  8
SUNPOU
 48
5.0
100
AcDbDimension
  2
*D14
 10
516.6937277357192
 20
362.63602295425
 30
0.0
 11
497.4037440163518
 21
356.878598381676
 31
0.0
 70
    32
 71
     5
 42
39.00007228723234
  3
STANDARD
100
AcDbAlignedDimension
 13
506.9827780338779
 23
303.0750599139764
 33
0.0
 14
540.4123780338781
 24
323.1615599139765
 34
0.0
 50
30.99999999999978
100
AcDbRotatedDimension
1001
ACAD
1000
DSTYLE
1002
{
1070
   140
1040
6.0
1070
    74
1070
     0
1070
   172
1070
     1
1070
    73
1070
     0
1070
   272
1070
     2
1070
    77
1070
     3
1070
   173
1070
     1
1070
   147
1040
2.0
1070
    42
1040
6.0
1070
    44
1040
3.0
1070
    43
1040
14.0
1070
   271
1070
     0
1070
   178
1070
     4
1070
   177
1070
     4
1070
   176
1070
     4
1070
   141
1040
150.0
1070
     7
1000
_OPEN
1070
     6
1000
_OPEN
1070
    41
1040
7.0
1002
}
  0
LINE
  5
554A
330
1A
100
AcDbEntity
  8
SEIHIN
  6
Continuous
 62
     3
 48
5.0
100
AcDbLine
 10
541.597878033878
 20
336.7213599139765
 30
0.0
 11
532.165378033878
 21
336.8868599139764
 31
0.0
  0
ARC
  5
554B
330
1A
100
AcDbEntity
  8
SEIHIN
  6
Continuous
 62
     3
 48
5.0
100
AcDbCircle
 10
533.5504192233219
 20
316.1365245773285
 30
0.0
 40
1.499995521757432
100
AcDbArc
 50
211.0004392712313
 51
30.99913241035626
  0
ELLIPSE
  5
554C
330
1A
100
AcDbEntity
  8
SEIHIN
 48
5.0
100
AcDbEllipse
 10
404.6492826419096
 20
388.1300116470188
 30
0.0
 11
-0.01769329399343901
 21
-2.090775166394571
 31
0.0
210
0.0
220
0.0
230
1.0
 40
0.5171450835229847
 41
0.5000304359160838
 42
2.650314896328357
  0
ELLIPSE
  5
554D
330
1A
100
AcDbEntity
  8
SEIHIN
 48
5.0
100
AcDbEllipse
 10
405.6778317484483
 20
388.1300116470188
 30
0.0
 11
-0.01769329399343901
 21
-2.090775166394571
 31
0.0
210
0.0
220
0.0
230
1.0
 40
0.5171450835229847
 41
0.0000000000000066
 42
6.283185307179592
  0
MTEXT
  5
554E
330
1A
100
AcDbEntity
  8
SUNPOU
  6
Continuous
 62
     4
100
AcDbMText
 10
468.0115028237465
 20
331.4211620988967
 30
0.0
 40
6.0
 41
0.0
 71
     9
 72
     5
  1
3-φ4.2
 73
     1
 44
1.0
  0
LINE
  5
554F
330
1A
100
AcDbEntity
  8
CENTER L
  6
CENTER
 62
     1
 48
5.0
100
AcDbLine
 10
405.6778317484483
 20
385.3859616470188
 30
0.0
 11
405.6778317484483
 21
390.8740616470187
 31
0.0
  0
LINE
  5
5550
330
1A
100
AcDbEntity
  8
SEIHIN
  6
Continuous
 62
     3
 48
5.0
100
AcDbLine
 10
497.0177780338781
 20
321.6013599139764
 30
0.0
 11
509.4466780338781
 21
329.0693599139765
 31
0.0
  0
LINE
  5
5551
330
1A
100
AcDbEntity
  8
SEIHIN
  6
Continuous
 62
     3
 48
5.0
100
AcDbLine
 10
494.4536780338782
 20
308.3943599139765
 30
0.0
 11
498.7357780338781
 21
316.8004599139765
 31
0.0
  0
ARC
  5
5552
330
1A
100
AcDbEntity
  8
SEIHIN
  6
Continuous
 62
     3
 48
5.0
100
AcDbCircle
 10
497.5328868448713
 20
320.744195251944
 30
0.0
 40
1.000034171916137
100
AcDbArc
 50
121.0035517398523
 51
210.9986406812645
  0
LINE
  5
5553
330
1A
100
AcDbEntity
  8
SEIHIN
  6
Continuous
 62
     3
 48
5.0
100
AcDbLine
 10
496.6756780338779
 20
320.2291599139766
 30
0.0
 11
498.7357780338781
 21
316.8004599139765
 31
0.0
  0
LINE
  5
5554
330
1A
100
AcDbEntity
  8
SEIHIN
  6
Continuous
 62
     3
 48
5.0
100
AcDbLine
 10
531.9370780338782
 20
322.2948599139765
 30
0.0
 11
531.209778033878
 21
329.6465599139764
 31
0.0
  0
LINE
  5
5555
330
1A
100
AcDbEntity
  8
CENTER L
  6
CENTER
 62
     1
 48
5.0
100
AcDbLine
 10
520.4030780338782
 20
338.0175599139763
 30
0.0
 11
535.3313780338782
 21
313.1725599139765
 31
0.0
  0
LINE
  5
5556
330
1A
100
AcDbEntity
  8
SEIHIN
  6
Continuous
 62
     3
 48
5.0
100
AcDbLine
 10
520.1613780338779
 20
335.5073599139764
 30
0.0
 11
532.264778033878
 21
315.3639599139764
 31
0.0
  0
ARC
  5
5557
330
1A
100
AcDbEntity
  8
SEIHIN
  6
Continuous
 62
     3
 48
5.0
100
AcDbCircle
 10
504.56119269723
 20
325.5506687245326
 30
0.0
 40
1.499995523229112
100
AcDbArc
 50
211.0024065653926
 51
30.99716511619313
  0
LINE
  5
5558
330
1A
100
AcDbEntity
  8
CENTER L
  6
CENTER
 62
     1
 48
5.0
100
AcDbLine
 10
503.259678033878
 20
327.7167599139763
 30
0.0
 11
518.187978033878
 21
302.8717599139763
 31
0.0
  0
LINE
  5
5559
330
1A
100
AcDbEntity
  8
SEIHIN
  6
Continuous
 62
     3
 48
5.0
100
AcDbLine
 10
505.5894780338782
 20
326.7517599139765
 30
0.0
 11
517.6927780338781
 21
306.6083599139765
 31
0.0
  0
LINE
  5
555A
330
1A
100
AcDbEntity
  8
SEIHIN
  6
Continuous
 62
     3
 48
5.0
100
AcDbLine
 10
516.3040780338781
 20
333.1896599139764
 30
0.0
 11
534.845378033878
 21
302.3316599139764
 31
0.0
  0
LINE
  5
555B
330
1A
100
AcDbEntity
  8
SEIHIN
  6
Continuous
 62
     3
 48
5.0
100
AcDbLine
 10
511.7268780338781
 20
310.1514599139766
 30
0.0
 11
505.5772780338779
 21
314.2450599139765
 31
0.0
  0
ARC
  5
555C
330
1A
100
AcDbEntity
  8
SEIHIN
  6
Continuous
 62
     3
 48
5.0
100
AcDbCircle
 10
516.4070412981851
 20
305.8357378397037
 30
0.0
 40
1.500021274236829
100
AcDbArc
 50
211.0004392132344
 51
31.00240656717628
  0
LINE
  5
555D
330
1A
100
AcDbEntity
  8
SEIHIN
  6
Continuous
 62
     3
 48
5.0
100
AcDbLine
 10
512.6360780338779
 20
309.1992599139765
 30
0.0
 11
515.121278033878
 21
305.0631599139767
 31
0.0
  0
ARC
  5
555E
330
1A
100
AcDbEntity
  8
SEIHIN
  6
Continuous
 62
     3
 48
5.0
100
AcDbCircle
 10
510.064629878049
 20
307.6541056152162
 30
0.0
 40
2.999974570741105
100
AcDbArc
 50
31.00118472495202
 51
56.35211880584974
  0
LINE
  5
555F
330
1A
100
AcDbEntity
  8
SEIHIN
  6
Continuous
 62
     3
 48
5.0
100
AcDbLine
 10
505.5967780338781
 20
315.0898599139766
 30
0.0
 11
507.7397780338782
 21
316.3774599139765
 31
0.0
  0
ARC
  5
5560
330
1A
100
AcDbEntity
  8
SEIHIN
  6
Continuous
 62
     3
 48
5.0
100
AcDbCircle
 10
505.8543775650009
 20
314.6613395791949
 30
0.0
 40
0.5000729045077464
100
AcDbArc
 50
121.0057405050706
 51
236.3499953562216
  0
ARC
  5
5561
330
1A
100
AcDbEntity
  8
SEIHIN
  6
Continuous
 62
     3
 48
5.0
100
AcDbCircle
 10
507.4821780338781
 20
316.8060599139764
 30
0.0
 40
0.5000042099821703
100
AcDbArc
 50
300.9971651460742
 51
30.99716514607426
  0
LINE
  5
5562
330
1A
100
AcDbEntity
  8
SEIHIN
  6
Continuous
 62
     3
 48
5.0
100
AcDbLine
 10
503.0179780338781
 20
325.2066599139764
 30
0.0
 11
507.9107780338779
 21
317.0635599139764
 31
0.0
  0
LINE
  5
5563
330
1A
100
AcDbEntity
  8
SEIHIN
  6
Continuous
 62
     3
 48
5.0
100
AcDbLine
 10
532.3509780338782
 20
321.0451599139764
 30
0.0
 11
534.8361780338779
 21
316.9090599139764
 31
0.0
  0
ARC
  5
5564
330
1A
100
AcDbEntity
  8
SEIHIN
  6
Continuous
 62
     3
 48
5.0
100
AcDbCircle
 10
534.9224866246681
 20
322.5902339763341
 30
0.0
 40
2.999985048408876
100
AcDbArc
 50
185.6504116217546
 51
210.9992767174079
  0
LINE
  5
5565
330
1A
100
AcDbEntity
  8
SEIHIN
  6
Continuous
 62
     3
 48
5.0
100
AcDbLine
 10
516.3040780338781
 20
333.1896599139764
 30
0.0
 11
528.7329780338781
 21
340.6577599139764
 31
0.0
  0
ARC
  5
5566
330
1A
100
AcDbEntity
  8
SEIHIN
  6
Continuous
 62
     3
 48
5.0
100
AcDbCircle
 10
512.2746297264679
 20
332.1294308889213
 30
0.0
 40
4.166694750917285
100
AcDbArc
 50
227.2575612828539
 51
14.74119012566412
  0
ARC
  5
5567
330
1A
100
AcDbEntity
  8
SEIHIN
  6
Continuous
 62
     3
 48
5.0
100
AcDbCircle
 10
521.7046368444343
 20
335.8512952506245
 30
0.0
 40
1.49999552175745
100
AcDbArc
 50
210.9991324103563
 51
31.00043927123134
  0
LINE
  5
5568
330
1A
100
AcDbEntity
  8
SEIHIN
  6
Continuous
 62
     3
 48
5.0
100
AcDbLine
 10
522.7327780338781
 20
337.0524599139764
 30
0.0
 11
527.625678033878
 21
328.9093599139764
 31
0.0
  0
ARC
  5
5569
330
1A
100
AcDbEntity
  8
SEIHIN
  6
Continuous
 62
     3
 48
5.0
100
AcDbCircle
 10
530.7122371511465
 20
329.5973804557204
 30
0.0
 40
0.4999655479166321
100
AcDbArc
 50
5.645067648582191
 51
120.9943614161434
  0
ARC
  5
556A
330
1A
100
AcDbEntity
  8
SEIHIN
  6
Continuous
 62
     3
 48
5.0
100
AcDbCircle
 10
528.0542192264701
 20
329.1668745761832
 30
0.0
 40
0.4999613535062213
100
AcDbArc
 50
211.0020762206558
 51
301.0079785984294
  0
LINE
  5
556B
330
1A
100
AcDbEntity
  8
SEIHIN
  6
Continuous
 62
     3
 48
5.0
100
AcDbLine
 10
530.4546780338782
 20
330.0259599139764
 30
0.0
 11
528.311778033878
 21
328.7383599139764
 31
0.0
  0
LINE
  5
556C
330
1A
100
AcDbEntity
  8
SEIHIN
  6
Continuous
 62
     3
 48
5.0
100
AcDbLine
 10
530.105178033878
 20
340.3156599139765
 30
0.0
 11
532.1653780338781
 21
336.8869599139766
 31
0.0
  0
ARC
  5
556D
330
1A
100
AcDbEntity
  8
SEIHIN
  6
Continuous
 62
     3
 48
5.0
100
AcDbCircle
 10
529.2480133718458
 20
339.8005511029832
 30
0.0
 40
1.00003417191603
100
AcDbArc
 50
31.00355173986679
 51
120.9986406812776
  0
LINE
  5
556E
330
1A
100
AcDbEntity
  8
SEIHIN
  6
Continuous
 62
     3
 48
5.0
100
AcDbLine
 10
541.597878033878
 20
336.7213599139765
 30
0.0
 11
553.4437780338781
 21
317.0065599139766
 31
0.0
  0
LINE
  5
556F
330
1A
100
AcDbEntity
  8
CENTER L
  6
CENTER
 62
     1
 48
5.0
100
AcDbLine
 10
549.8342780338778
 20
317.1710599139765
 30
0.0
 11
540.7425780338783
 21
311.7082599139764
 31
0.0
  0
ARC
  5
5570
330
1A
100
AcDbEntity
  8
SEIHIN
  6
Continuous
 62
     3
 48
5.0
100
AcDbCircle
 10
545.5563648215092
 20
314.6005519750086
 30
0.0
 40
3.250012971538232
100
AcDbArc
 50
143.6199539257441
 51
98.38066604807787
  0
LINE
  5
5571
330
1A
100
AcDbEntity
  8
CENTER L
  6
CENTER
 62
     1
 48
5.0
100
AcDbLine
 10
540.4123780338781
 20
323.1615599139765
 30
0.0
 11
548.3491780338781
 21
309.9525599139764
 31
0.0
  0
ARC
  5
5572
330
1A
100
AcDbEntity
  8
SEIHIN
  6
Continuous
 62
     3
 48
5.0
100
AcDbCircle
 10
542.4661111744407
 20
319.7435798268176
 30
0.0
 40
2.099999633437007
100
AcDbArc
 50
337.5299759755122
 51
264.4682832849113
  0
LINE
  5
5573
330
1A
100
AcDbEntity
  8
CENTER L
  6
CENTER
 62
     1
 48
5.0
100
AcDbLine
 10
545.952278033878
 20
321.8383599139765
 30
0.0
 11
538.6088780338781
 21
317.4259599139764
 31
0.0
  0
LINE
  5
5574
330
1A
100
AcDbEntity
  8
SEIHIN
  6
Continuous
 62
     3
 48
5.0
100
AcDbLine
 10
542.2637780338781
 20
317.6533599139765
 30
0.0
 11
542.939778033878
 21
316.5282599139766
 31
0.0
  0
LINE
  5
5575
330
1A
100
AcDbEntity
  8
SEIHIN
  6
Continuous
 62
     3
 48
5.0
100
AcDbLine
 10
544.4066780338783
 20
318.9409599139764
 30
0.0
 11
545.0826780338779
 21
317.8158599139766
 31
0.0
  0
VIEWPORT
  5
22
330
17
100
AcDbEntity
 67
     1
  8
0
100
AcDbViewport
 10
313.6808219178082
 20
286.420032064001
 30
0.0
 40
627.3616438356164
 41
572.840064128002
 68
     2
 69
     1
 12
313.6808219178082
 22
286.420032064001
 13
0.0
 23
0.0
 14
1.0
 24
1.0
 15
10.0
 25
10.0
 16
0.0
 26
0.0
 36
1.0
 17
0.0
 27
0.0
 37
0.0
 42
50.0
 43
0.0
 44
0.0
 45
572.840064128002
 50
0.0
 51
0.0
 72
   100
 90
    32768
  1

281
     0
 71
     1
 74
     0
110
0.0
120
0.0
130
0.0
111
1.0
121
0.0
131
0.0
112
0.0
122
1.0
132
0.0
 79
     0
146
0.0
  0
VIEWPORT
  5
64
330
17
100
AcDbEntity
 67
     1
  8
VIEWPORT
100
AcDbViewport
 10
210.0
 20
148.5
 30
0.0
 40
420.0
 41
297.0
 68
     1
 69
     2
 12
420.0
 22
297.0
 13
0.0
 23
0.0
 14
10.0
 24
10.0
 15
0.0
 25
0.0
 16
0.0
 26
0.0
 36
1.0
 17
0.0
 27
0.0
 37
0.0
 42
50.0
 43
0.0
 44
0.0
 45
605.8799999999999
 50
0.0
 51
0.0
 72
   100
 90
    32768
  1

281
     0
 71
     1
 74
     0
110
0.0
120
0.0
130
0.0
111
1.0
121
0.0
131
0.0
112
0.0
122
1.0
132
0.0
 79
     0
146
0.0
  0
ENDSEC
  0
SECTION
  2
OBJECTS
  0
DICTIONARY
  5
C
330
0
100
AcDbDictionary
281
     1
  3
ACAD_GROUP
350
D
  3
ACAD_LAYOUT
350
A98
  3
ACAD_MLINESTYLE
350
E
  3
ACAD_PLOTSETTINGS
350
A99
  3
ACAD_PLOTSTYLENAME
350
A96
  0
DICTIONARY
  5
D
102
{ACAD_REACTORS
330
C
102
}
330
C
100
AcDbDictionary
281
     1
  3
*A1
350
FA3
  3
*A2
350
1597
  3
*A3
350
179D
  3
*A4
350
3390
  3
*A5
350
3A0A
  0
DICTIONARY
  5
A98
102
{ACAD_REACTORS
330
C
102
}
330
C
100
AcDbDictionary
281
     1
  3
Model
350
A9A
  3
ﾚｲｱｳﾄ1
350
A9B
  0
DICTIONARY
  5
E
102
{ACAD_REACTORS
330
C
102
}
330
C
100
AcDbDictionary
281
     1
  3
STANDARD
350
13
  0
DICTIONARY
  5
A99
102
{ACAD_REACTORS
330
C
102
}
330
C
100
AcDbDictionary
281
     1
  0
ACDBDICTIONARYWDFLT
  5
A96
102
{ACAD_REACTORS
330
C
102
}
330
C
100
AcDbDictionary
281
     1
  3
Normal
350
A97
100
AcDbDictionaryWithDefault
340
A97
1001
ACAD
1000
TREAT_AS_HARD
1070
     0
1000
TREAT_AS_HARD
1070
     0
1000
TREAT_AS_HARD
1070
     0
1000
TREAT_AS_HARD
1070
     0
  0
GROUP
  5
FA3
102
{ACAD_REACTORS
330
D
102
}
330
D
100
AcDbGroup
300

 70
     1
 71
     1
  0
GROUP
  5
1597
102
{ACAD_REACTORS
330
D
102
}
330
D
100
AcDbGroup
300

 70
     1
 71
     1
  0
GROUP
  5
179D
102
{ACAD_REACTORS
330
D
102
}
330
D
100
AcDbGroup
300

 70
     1
 71
     1
  0
GROUP
  5
3390
102
{ACAD_REACTORS
330
D
102
}
330
D
100
AcDbGroup
300

 70
     1
 71
     1
  0
GROUP
  5
3A0A
102
{ACAD_REACTORS
330
D
102
}
330
D
100
AcDbGroup
300

 70
     1
 71
     1
  0
LAYOUT
  5
A9A
102
{ACAD_REACTORS
330
A98
102
}
330
A98
100
AcDbPlotSettings
  1

  2
Adobe PDF
  4
A3
  6

 40
3.174999952316284
 41
3.174999952316284
 42
3.17498779296875
 43
3.17498779296875
 44
297.0318298339844
 45
420.1583251953125
 46
2.67
 47
2.85
 48
-8.09872987394283
 49
-9.441603207410708
140
808.114529312747
141
561.2334822198422
142
1.0
143
2.0
 70
 28340
 72
     1
 73
     1
 74
     4
  7
systemprinter.ctb
 75
    17
147
0.5
148
8.09872987394283
149
9.441603207410708
100
AcDbLayout
  1
Model
 70
     1
 71
     0
 10
0.0
 20
0.0
 11
12.0
 21
9.0
 12
0.0
 22
0.0
 32
0.0
 14
0.0
 24
0.0
 34
0.0
 15
0.0
 25
0.0
 35
0.0
146
0.0
 13
0.0
 23
0.0
 33
0.0
 16
1.0
 26
0.0
 36
0.0
 17
0.0
 27
1.0
 37
0.0
 76
     0
330
1A
  0
LAYOUT
  5
A9B
102
{ACAD_REACTORS
330
A98
102
}
330
A98
100
AcDbPlotSettings
  1

  2
C:\PROGRAM FILES\ACAD LT 2000\plotters\DWF ePlot.pc3
  4
ANSI_A_(8.50_x_11.00_Inches)
  6

 40
5.793749809265137
 41
17.79375076293945
 42
5.793746948242188
 43
17.79376220703125
 44
215.8999938964844
 45
279.3999938964844
 46
0.0
 47
0.0
 48
0.0
 49
0.0
140
0.0
141
0.0
142
1.0
143
43.75760864458461
 70
   688
 72
     0
 73
     1
 74
     1
  7
systemprinter.ctb
 75
     0
147
0.0228531684197454
148
0.3255366854427166
149
0.2302009418498301
100
AcDbLayout
  1
ﾚｲｱｳﾄ1
 70
     1
 71
     1
 10
-30.66685116754002
 20
-9.990190459854741
 11
450.6668334081172
 21
361.9494725043409
 12
0.0
 22
0.0
 32
0.0
 14
-0.0128164049386896
 24
-0.0090630292066862
 34
-0.0015258207003583
 15
420.0128183607162
 25
297.0090644122207
 35
0.0000000349246037
146
0.0
 13
0.0
 23
0.0
 33
0.0
 16
1.0
 26
0.0
 36
0.0
 17
0.0
 27
1.0
 37
0.0
 76
     0
330
17
331
64
  0
MLINESTYLE
  5
13
102
{ACAD_REACTORS
330
E
102
}
330
E
100
AcDbMlineStyle
  2
STANDARD
 70
     0
  3

 62
     0
 51
90.0
 52
90.0
 71
     2
 49
0.5
 62
   256
  6
BYLAYER
 49
-0.5
 62
   256
  6
BYLAYER
  0
ACDBPLACEHOLDER
  5
A97
102
{ACAD_REACTORS
330
A96
102
}
330
A96
  0
ENDSEC
  0
EOF
