  0
SECTION
  2
HEADER
  9
$ACADVER
  1
AC1015
  9
$ACADMAINTVER
 70
     6
  9
$DWGCODEPAGE
  3
ANSI_932
  9
$INSBASE
 10
0.0
 20
0.0
 30
0.0
  9
$EXTMIN
 10
0.0000000135560185
 20
-0.0000001317113174
 30
0.0
  9
$EXTMAX
 10
797.6000000135562
 20
551.5999998682888
 30
0.0
  9
$LIMMIN
 10
0.0
 20
0.0
  9
$LIMMAX
 10
840.0
 20
594.0
  9
$ORTHOMODE
 70
     0
  9
$REGENMODE
 70
     1
  9
$FILLMODE
 70
     1
  9
$QTEXTMODE
 70
     0
  9
$MIRRTEXT
 70
     1
  9
$LTSCALE
 40
2.0
  9
$ATTMODE
 70
     1
  9
$TEXTSIZE
 40
6.0
  9
$TRACEWID
 40
1.0
  9
$TEXTSTYLE
  7
STANDARD
  9
$CLAYER
  8
SEIHIN
  9
$CELTYPE
  6
BYLAYER
  9
$CECOLOR
 62
   256
  9
$CELTSCALE
 40
1.0
  9
$DISPSILH
 70
     0
  9
$DIMSCALE
 40
1.0
  9
$DIMASZ
 40
7.0
  9
$DIMEXO
 40
6.0
  9
$DIMDLI
 40
14.0
  9
$DIMRND
 40
0.0
  9
$DIMDLE
 40
0.0
  9
$DIMEXE
 40
3.0
  9
$DIMTP
 40
0.0
  9
$DIMTM
 40
0.0
  9
$DIMTXT
 40
6.0
  9
$DIMCEN
 40
150.0
  9
$DIMTSZ
 40
0.0
  9
$DIMTOL
 70
     0
  9
$DIMLIM
 70
     0
  9
$DIMTIH
 70
     0
  9
$DIMTOH
 70
     0
  9
$DIMSE1
 70
     0
  9
$DIMSE2
 70
     0
  9
$DIMTAD
 70
     3
  9
$DIMZIN
 70
     0
  9
$DIMBLK
  1

  9
$DIMASO
 70
     1
  9
$DIMSHO
 70
     1
  9
$DIMPOST
  1

  9
$DIMAPOST
  1

  9
$DIMALT
 70
     0
  9
$DIMALTD
 70
     2
  9
$DIMALTF
 40
25.4
  9
$DIMLFAC
 40
1.0
  9
$DIMTOFL
 70
     1
  9
$DIMTVP
 40
0.0
  9
$DIMTIX
 70
     0
  9
$DIMSOXD
 70
     0
  9
$DIMSAH
 70
     1
  9
$DIMBLK1
  1
OPEN
  9
$DIMBLK2
  1
OPEN
  9
$DIMSTYLE
  2
STANDARD
  9
$DIMCLRD
 70
   256
  9
$DIMCLRE
 70
   256
  9
$DIMCLRT
 70
   256
  9
$DIMTFAC
 40
1.0
  9
$DIMGAP
 40
2.0
  9
$DIMJUST
 70
     0
  9
$DIMSD1
 70
     0
  9
$DIMSD2
 70
     0
  9
$DIMTOLJ
 70
     1
  9
$DIMTZIN
 70
     0
  9
$DIMALTZ
 70
     0
  9
$DIMALTTZ
 70
     0
  9
$DIMUPT
 70
     0
  9
$DIMDEC
 70
     0
  9
$DIMTDEC
 70
     0
  9
$DIMALTU
 70
     2
  9
$DIMALTTD
 70
     2
  9
$DIMTXSTY
  7
STANDARD
  9
$DIMAUNIT
 70
     0
  9
$DIMADEC
 70
     0
  9
$DIMALTRND
 40
0.0
  9
$DIMAZIN
 70
     0
  9
$DIMDSEP
 70
    46
  9
$DIMATFIT
 70
     3
  9
$DIMFRAC
 70
     0
  9
$DIMLDRBLK
  1
OPEN
  9
$DIMLUNIT
 70
     2
  9
$DIMLWD
 70
    -1
  9
$DIMLWE
 70
    -1
  9
$DIMTMOVE
 70
     0
  9
$LUNITS
 70
     2
  9
$LUPREC
 70
     4
  9
$SKETCHINC
 40
1.0
  9
$FILLETRAD
 40
10.0
  9
$AUNITS
 70
     0
  9
$AUPREC
 70
     0
  9
$MENU
  1
.
  9
$ELEVATION
 40
0.0
  9
$PELEVATION
 40
0.0
  9
$THICKNESS
 40
0.0
  9
$LIMCHECK
 70
     0
  9
$CHAMFERA
 40
0.0
  9
$CHAMFERB
 40
0.0
  9
$CHAMFERC
 40
40.0
  9
$CHAMFERD
 40
0.0
  9
$SKPOLY
 70
     0
  9
$TDCREATE
 40
2451030.614786227
  9
$TDUCREATE
 40
2451030.239786227
  9
$TDUPDATE
 40
2455609.406590764
  9
$TDUUPDATE
 40
2455609.031590764
  9
$TDINDWG
 40
0.3405800231
  9
$TDUSRTIMER
 40
0.3405800231
  9
$USRTIMER
 70
     1
  9
$ANGBASE
 50
0.0
  9
$ANGDIR
 70
     0
  9
$PDMODE
 70
     0
  9
$PDSIZE
 40
0.0
  9
$PLINEWID
 40
0.0
  9
$SPLFRAME
 70
     0
  9
$SPLINETYPE
 70
     6
  9
$SPLINESEGS
 70
     8
  9
$HANDSEED
  5
85E3
  9
$SURFTAB1
 70
     6
  9
$SURFTAB2
 70
     6
  9
$SURFTYPE
 70
     6
  9
$SURFU
 70
     6
  9
$SURFV
 70
     6
  9
$UCSBASE
  2

  9
$UCSNAME
  2

  9
$UCSORG
 10
0.0
 20
0.0
 30
0.0
  9
$UCSXDIR
 10
1.0
 20
0.0
 30
0.0
  9
$UCSYDIR
 10
0.0
 20
1.0
 30
0.0
  9
$UCSORTHOREF
  2

  9
$UCSORTHOVIEW
 70
     0
  9
$UCSORGTOP
 10
0.0
 20
0.0
 30
0.0
  9
$UCSORGBOTTOM
 10
0.0
 20
0.0
 30
0.0
  9
$UCSORGLEFT
 10
0.0
 20
0.0
 30
0.0
  9
$UCSORGRIGHT
 10
0.0
 20
0.0
 30
0.0
  9
$UCSORGFRONT
 10
0.0
 20
0.0
 30
0.0
  9
$UCSORGBACK
 10
0.0
 20
0.0
 30
0.0
  9
$PUCSBASE
  2

  9
$PUCSNAME
  2

  9
$PUCSORG
 10
0.0
 20
0.0
 30
0.0
  9
$PUCSXDIR
 10
1.0
 20
0.0
 30
0.0
  9
$PUCSYDIR
 10
0.0
 20
1.0
 30
0.0
  9
$PUCSORTHOREF
  2

  9
$PUCSORTHOVIEW
 70
     0
  9
$PUCSORGTOP
 10
0.0
 20
0.0
 30
0.0
  9
$PUCSORGBOTTOM
 10
0.0
 20
0.0
 30
0.0
  9
$PUCSORGLEFT
 10
0.0
 20
0.0
 30
0.0
  9
$PUCSORGRIGHT
 10
0.0
 20
0.0
 30
0.0
  9
$PUCSORGFRONT
 10
0.0
 20
0.0
 30
0.0
  9
$PUCSORGBACK
 10
0.0
 20
0.0
 30
0.0
  9
$USERI1
 70
     0
  9
$USERI2
 70
     0
  9
$USERI3
 70
     0
  9
$USERI4
 70
     0
  9
$USERI5
 70
     0
  9
$USERR1
 40
0.0
  9
$USERR2
 40
0.0
  9
$USERR3
 40
0.0
  9
$USERR4
 40
0.0
  9
$USERR5
 40
0.0
  9
$WORLDVIEW
 70
     1
  9
$SHADEDGE
 70
     3
  9
$SHADEDIF
 70
    70
  9
$TILEMODE
 70
     1
  9
$MAXACTVP
 70
    16
  9
$PINSBASE
 10
0.0
 20
0.0
 30
0.0
  9
$PLIMCHECK
 70
     0
  9
$PEXTMIN
 10
-0.0128164049386896
 20
-0.0090630292066862
 30
-0.0015258207003583
  9
$PEXTMAX
 10
420.0128183607162
 20
297.0090644122207
 30
0.0000000349246037
  9
$PLIMMIN
 10
-30.66685116754002
 20
-9.990190459854741
  9
$PLIMMAX
 10
450.6668334081172
 20
361.9494725043409
  9
$UNITMODE
 70
     0
  9
$VISRETAIN
 70
     0
  9
$PLINEGEN
 70
     0
  9
$PSLTSCALE
 70
     1
  9
$TREEDEPTH
 70
  3020
  9
$CMLSTYLE
  2
STANDARD
  9
$CMLJUST
 70
     0
  9
$CMLSCALE
 40
1.0
  9
$PROXYGRAPHICS
 70
     1
  9
$MEASUREMENT
 70
     0
  9
$CELWEIGHT
370
    -1
  9
$ENDCAPS
280
     0
  9
$JOINSTYLE
280
     0
  9
$LWDISPLAY
290
     0
  9
$INSUNITS
 70
     0
  9
$HYPERLINKBASE
  1

  9
$STYLESHEET
  1
systemprinter.ctb
  9
$XEDIT
290
     1
  9
$CEPSNTYPE
380
     0
  9
$PSTYLEMODE
290
     1
  9
$FINGERPRINTGUID
  2
{91E25F26-0CBF-4C93-982E-B5F00895E654}
  9
$VERSIONGUID
  2
{8F9C2C56-1D3F-4B3A-A8FD-325E65E245A6}
  9
$EXTNAMES
290
     1
  9
$PSVPSCALE
 40
0.0
  9
$OLESTARTUP
290
     0
  0
ENDSEC
  0
SECTION
  2
CLASSES
  0
CLASS
  1
ACDBDICTIONARYWDFLT
  2
AcDbDictionaryWithDefault
  3
ObjectDBX Classes
 90
        0
280
     0
281
     0
  0
CLASS
  1
ACDBPLACEHOLDER
  2
AcDbPlaceHolder
  3
ObjectDBX Classes
 90
        0
280
     0
281
     0
  0
CLASS
  1
LAYOUT
  2
AcDbLayout
  3
ObjectDBX Classes
 90
        0
280
     0
281
     0
  0
CLASS
  1
DUMMY
  2
AcDbLongTransaction
  3
DUMMY
 90
        0
280
     0
281
     0
  0
CLASS
  1
LWPOLYLINE
  2
AcDbPolyline
  3
AutoCAD 2000
 90
        0
280
     0
281
     1
  0
CLASS
  1
HATCH
  2
AcDbHatch
  3
AutoCAD 2000
 90
        0
280
     0
281
     1
  0
CLASS
  1
XRECORD
  2
AcDbXrecord
  3
AutoCAD 2000
 90
        0
280
     0
281
     0
  0
CLASS
  1
DUMMY
  2
AcDbLongTransaction
  3
DUMMY
 90
        0
280
     0
281
     0
  0
CLASS
  1
LWPOLYLINE
  2
AcDbPolyline
  3
AutoCAD 2000
 90
        0
280
     0
281
     1
  0
CLASS
  1
HATCH
  2
AcDbHatch
  3
AutoCAD 2000
 90
        0
280
     0
281
     1
  0
CLASS
  1
XRECORD
  2
AcDbXrecord
  3
AutoCAD 2000
 90
        0
280
     0
281
     0
  0
CLASS
  1
DUMMY
  2
AcDbLongTransaction
  3
DUMMY
 90
        0
280
     0
281
     0
  0
CLASS
  1
LWPOLYLINE
  2
AcDbPolyline
  3
AutoCAD 2000
 90
        0
280
     0
281
     1
  0
CLASS
  1
HATCH
  2
AcDbHatch
  3
AutoCAD 2000
 90
        0
280
     0
281
     1
  0
CLASS
  1
XRECORD
  2
AcDbXrecord
  3
AutoCAD 2000
 90
        0
280
     0
281
     0
  0
CLASS
  1
DUMMY
  2
AcDbLongTransaction
  3
DUMMY
 90
        0
280
     0
281
     0
  0
CLASS
  1
LWPOLYLINE
  2
AcDbPolyline
  3
AutoCAD 2000
 90
        0
280
     0
281
     1
  0
CLASS
  1
HATCH
  2
AcDbHatch
  3
AutoCAD 2000
 90
        0
280
     0
281
     1
  0
CLASS
  1
XRECORD
  2
AcDbXrecord
  3
AutoCAD 2000
 90
        0
280
     0
281
     0
  0
CLASS
  1
DUMMY
  2
AcDbLongTransaction
  3
DUMMY
 90
        0
280
     0
281
     0
  0
CLASS
  1
LWPOLYLINE
  2
AcDbPolyline
  3
AutoCAD 2000
 90
        0
280
     0
281
     1
  0
CLASS
  1
HATCH
  2
AcDbHatch
  3
AutoCAD 2000
 90
        0
280
     0
281
     1
  0
CLASS
  1
XRECORD
  2
AcDbXrecord
  3
AutoCAD 2000
 90
        0
280
     0
281
     0
  0
ENDSEC
  0
SECTION
  2
TABLES
  0
TABLE
  2
VPORT
  5
8
330
0
100
AcDbSymbolTable
 70
     2
  0
VPORT
  5
85E2
330
8
100
AcDbSymbolTableRecord
100
AcDbViewportTableRecord
  2
*Active
 70
     0
 10
0.0
 20
0.0
 11
1.0
 21
1.0
 12
397.8978143601196
 22
297.4860041034436
 13
0.0
 23
0.0
 14
5.0
 24
5.0
 15
0.0
 25
0.0
 16
0.0
 26
0.0
 36
1.0
 17
0.0
 27
0.0
 37
0.0
 40
700.8685923628697
 41
1.651537335285505
 42
50.0
 43
0.0
 44
0.0
 50
0.0
 51
0.0
 71
     0
 72
   100
 73
     1
 74
     0
 75
     0
 76
     0
 77
     0
 78
     0
281
     0
 65
     1
110
0.0
120
0.0
130
0.0
111
1.0
121
0.0
131
0.0
112
0.0
122
1.0
132
0.0
 79
     0
146
0.0
  0
ENDTAB
  0
TABLE
  2
LTYPE
  5
5
330
0
100
AcDbSymbolTable
 70
     3
  0
LTYPE
  5
14
330
5
100
AcDbSymbolTableRecord
100
AcDbLinetypeTableRecord
  2
BYBLOCK
 70
     0
  3

 72
    65
 73
     0
 40
0.0
  0
LTYPE
  5
15
330
5
100
AcDbSymbolTableRecord
100
AcDbLinetypeTableRecord
  2
BYLAYER
 70
     0
  3

 72
    65
 73
     0
 40
0.0
  0
LTYPE
  5
16
330
5
100
AcDbSymbolTableRecord
100
AcDbLinetypeTableRecord
  2
CONTINUOUS
 70
     0
  3
Solid line
 72
    65
 73
     0
 40
0.0
  0
LTYPE
  5
135
330
5
100
AcDbSymbolTableRecord
100
AcDbLinetypeTableRecord
  2
CENTER
 70
     0
  3
____ _ ____ _ ____ _ ____ _ ____ _ ____ _ ____ 
 72
    65
 73
     4
 40
2.0
 49
1.25
 74
     0
 49
-0.25
 74
     0
 49
0.25
 74
     0
 49
-0.25
 74
     0
  0
LTYPE
  5
8279
330
5
100
AcDbSymbolTableRecord
100
AcDbLinetypeTableRecord
  2
PHANTOM
 70
     0
  3
______  __  __  ______  __  __  ______  __  __ 
 72
    65
 73
     6
 40
2.5
 49
1.25
 74
     0
 49
-0.25
 74
     0
 49
0.25
 74
     0
 49
-0.25
 74
     0
 49
0.25
 74
     0
 49
-0.25
 74
     0
  0
ENDTAB
  0
TABLE
  2
LAYER
  5
2
330
0
100
AcDbSymbolTable
 70
     8
  0
LAYER
  5
F
330
2
100
AcDbSymbolTableRecord
100
AcDbLayerTableRecord
  2
0
 70
     0
 62
     7
  6
CONTINUOUS
370
    -3
390
A97
  0
LAYER
  5
62
330
2
100
AcDbSymbolTableRecord
100
AcDbLayerTableRecord
  2
VIEWPORT
 70
     0
 62
     7
  6
CONTINUOUS
370
    -3
390
A97
  0
LAYER
  5
143
330
2
100
AcDbSymbolTableRecord
100
AcDbLayerTableRecord
  2
SEIHIN
 70
     0
 62
     3
  6
CONTINUOUS
370
    -3
390
A97
  0
LAYER
  5
444
330
2
100
AcDbSymbolTableRecord
100
AcDbLayerTableRecord
  2
DEFPOINTS
 70
     0
 62
     7
  6
CONTINUOUS
290
     0
370
    -3
390
A97
  0
LAYER
  5
482
330
2
100
AcDbSymbolTableRecord
100
AcDbLayerTableRecord
  2
SUNPOU
 70
     0
 62
     4
  6
CONTINUOUS
370
    -3
390
A97
  0
LAYER
  5
5D4
330
2
100
AcDbSymbolTableRecord
100
AcDbLayerTableRecord
  2
CENTER L
 70
     0
 62
     1
  6
CENTER
370
    -3
390
A97
  0
LAYER
  5
3D95
330
2
100
AcDbSymbolTableRecord
100
AcDbLayerTableRecord
  2
ZUWAKU
 70
     0
 62
     7
  6
CONTINUOUS
370
    -3
390
A97
  0
LAYER
  5
3D96
330
2
100
AcDbSymbolTableRecord
100
AcDbLayerTableRecord
  2
moji
 70
     0
 62
     2
  6
CONTINUOUS
370
    -3
390
A97
  0
ENDTAB
  0
TABLE
  2
STYLE
  5
3
330
0
100
AcDbSymbolTable
 70
     2
  0
STYLE
  5
10
330
3
100
AcDbSymbolTableRecord
100
AcDbTextStyleTableRecord
  2
STANDARD
 70
     0
 40
0.0
 41
1.0
 50
0.0
 71
     0
 42
6.0
  3
TXT
  4
bigfont.shx
  0
STYLE
  5
3D97
330
3
100
AcDbSymbolTableRecord
100
AcDbTextStyleTableRecord
  2
ｽﾀｲﾙ1
 70
     0
 40
0.0
 41
1.0
 50
0.0
 71
     0
 42
2.5
  3
MS PGothic.ttf
  4

1001
ACAD
1000
MS PGothic
1071
    32818
  0
ENDTAB
  0
TABLE
  2
VIEW
  5
6
330
0
100
AcDbSymbolTable
 70
     0
  0
ENDTAB
  0
TABLE
  2
UCS
  5
7
330
0
100
AcDbSymbolTable
 70
     0
  0
ENDTAB
  0
TABLE
  2
APPID
  5
9
330
0
100
AcDbSymbolTable
 70
     1
  0
APPID
  5
11
330
9
100
AcDbSymbolTableRecord
100
AcDbRegAppTableRecord
  2
ACAD
 70
     0
  0
ENDTAB
  0
TABLE
  2
DIMSTYLE
  5
A
330
0
100
AcDbSymbolTable
 70
     1
100
AcDbDimStyleTable
  0
DIMSTYLE
105
1D
102
{ACAD_REACTORS
330
8382
330
8383
330
8387
330
8390
330
8391
330
8392
330
83DF
330
83E6
330
83E7
330
83F3
330
83FD
330
845A
330
845F
330
8463
330
846B
330
846D
102
}
330
A
100
AcDbSymbolTableRecord
100
AcDbDimStyleTableRecord
  2
STANDARD
 70
     0
340
10
  0
ENDTAB
  0
TABLE
  2
BLOCK_RECORD
  5
1
330
0
100
AcDbSymbolTable
 70
    17
  0
BLOCK_RECORD
  5
1A
330
1
100
AcDbSymbolTableRecord
100
AcDbBlockTableRecord
  2
*MODEL_SPACE
340
A9A
  0
BLOCK_RECORD
  5
17
330
1
100
AcDbSymbolTableRecord
100
AcDbBlockTableRecord
  2
*PAPER_SPACE
340
A9B
  0
BLOCK_RECORD
  5
6D
330
1
100
AcDbSymbolTableRecord
100
AcDbBlockTableRecord
  2
_OPEN
340
0
102
{BLKREFS
331
8547
331
8548
331
8550
331
8551
331
8559
331
855A
331
8562
331
8563
331
856B
331
856C
331
8576
331
8577
331
857F
331
8580
331
8588
331
8589
331
8593
331
8594
331
859C
331
859D
331
85A5
331
85A6
331
85AE
331
85AF
331
85B7
331
85B8
331
85C0
331
85C1
331
85CB
331
85CC
331
85D6
331
85D7
102
}
  0
BLOCK_RECORD
  5
847C
330
1
100
AcDbSymbolTableRecord
100
AcDbBlockTableRecord
  2
*D1
340
0
  0
BLOCK_RECORD
  5
8488
330
1
100
AcDbSymbolTableRecord
100
AcDbBlockTableRecord
  2
*D2
340
0
  0
BLOCK_RECORD
  5
8494
330
1
100
AcDbSymbolTableRecord
100
AcDbBlockTableRecord
  2
*D3
340
0
  0
BLOCK_RECORD
  5
84A0
330
1
100
AcDbSymbolTableRecord
100
AcDbBlockTableRecord
  2
*D4
340
0
  0
BLOCK_RECORD
  5
84AC
330
1
100
AcDbSymbolTableRecord
100
AcDbBlockTableRecord
  2
*D5
340
0
  0
BLOCK_RECORD
  5
84B8
330
1
100
AcDbSymbolTableRecord
100
AcDbBlockTableRecord
  2
*D6
340
0
  0
BLOCK_RECORD
  5
84C6
330
1
100
AcDbSymbolTableRecord
100
AcDbBlockTableRecord
  2
*D7
340
0
  0
BLOCK_RECORD
  5
84D2
330
1
100
AcDbSymbolTableRecord
100
AcDbBlockTableRecord
  2
*D8
340
0
  0
BLOCK_RECORD
  5
84DE
330
1
100
AcDbSymbolTableRecord
100
AcDbBlockTableRecord
  2
*D9
340
0
  0
BLOCK_RECORD
  5
84EC
330
1
100
AcDbSymbolTableRecord
100
AcDbBlockTableRecord
  2
*D10
340
0
  0
BLOCK_RECORD
  5
84F8
330
1
100
AcDbSymbolTableRecord
100
AcDbBlockTableRecord
  2
*D11
340
0
  0
BLOCK_RECORD
  5
8504
330
1
100
AcDbSymbolTableRecord
100
AcDbBlockTableRecord
  2
*D12
340
0
  0
BLOCK_RECORD
  5
8510
330
1
100
AcDbSymbolTableRecord
100
AcDbBlockTableRecord
  2
*D13
340
0
  0
BLOCK_RECORD
  5
851C
330
1
100
AcDbSymbolTableRecord
100
AcDbBlockTableRecord
  2
*D14
340
0
  0
BLOCK_RECORD
  5
8528
330
1
100
AcDbSymbolTableRecord
100
AcDbBlockTableRecord
  2
*D15
340
0
  0
BLOCK_RECORD
  5
8536
330
1
100
AcDbSymbolTableRecord
100
AcDbBlockTableRecord
  2
*D16
340
0
  0
ENDTAB
  0
ENDSEC
  0
SECTION
  2
BLOCKS
  0
BLOCK
  5
1B
330
1A
100
AcDbEntity
  8
0
100
AcDbBlockBegin
  2
*MODEL_SPACE
 70
     0
 71
     0
 10
0.0
 20
0.0
 30
0.0
  3
*MODEL_SPACE
  1

  0
ENDBLK
  5
1C
330
1A
100
AcDbEntity
  8
0
100
AcDbBlockEnd
  0
BLOCK
  5
18
330
17
100
AcDbEntity
 67
     1
  8
0
100
AcDbBlockBegin
  2
*PAPER_SPACE
 70
     0
 71
     0
 10
0.0
 20
0.0
 30
0.0
  3
*PAPER_SPACE
  1

  0
ENDBLK
  5
19
330
17
100
AcDbEntity
 67
     1
  8
0
100
AcDbBlockEnd
  0
BLOCK
  5
6E
330
6D
100
AcDbEntity
  8
0
100
AcDbBlockBegin
  2
_OPEN
 70
     0
 71
     0
 10
0.0
 20
0.0
 30
0.0
  3
_OPEN
  1

  0
LINE
  5
6F
330
6D
100
AcDbEntity
  8
0
  6
ByBlock
 62
     0
100
AcDbLine
 10
-1.0
 20
0.1666666666666667
 30
0.0
 11
0.0
 21
0.0
 31
0.0
  0
LINE
  5
70
330
6D
100
AcDbEntity
  8
0
  6
ByBlock
 62
     0
100
AcDbLine
 10
0.0
 20
0.0
 30
0.0
 11
-1.0
 21
-0.1666666666666667
 31
0.0
  0
LINE
  5
71
330
6D
100
AcDbEntity
  8
0
  6
ByBlock
 62
     0
100
AcDbLine
 10
0.0
 20
0.0
 30
0.0
 11
-1.0
 21
0.0
 31
0.0
  0
ENDBLK
  5
72
330
6D
100
AcDbEntity
  8
0
100
AcDbBlockEnd
  0
BLOCK
  5
8486
330
847C
100
AcDbEntity
  8
0
100
AcDbBlockBegin
  2
*D1
 70
     1
 71
     0
 10
0.0
 20
0.0
 30
0.0
  3
*D1
  1

  0
LINE
  5
8544
330
847C
100
AcDbEntity
  8
SUNPOU
 62
     4
370
    -2
100
AcDbLine
 10
287.0238572020807
 20
188.2228820228746
 30
0.0
 11
287.0238572020807
 21
211.2079640103762
 31
0.0
  0
LINE
  5
8545
330
847C
100
AcDbEntity
  8
SUNPOU
 62
     4
370
    -2
100
AcDbLine
 10
426.2420911868103
 20
207.1508368001271
 30
0.0
 11
426.2420911868103
 21
211.2079640103762
 31
0.0
  0
LINE
  5
8546
330
847C
100
AcDbEntity
  8
SUNPOU
 62
     4
370
    -2
100
AcDbLine
 10
294.0238572020807
 20
208.2079640103762
 30
0.0
 11
419.2420911868103
 21
208.2079640103762
 31
0.0
  0
INSERT
  5
8547
330
847C
100
AcDbEntity
  8
SUNPOU
 62
     4
370
    -2
100
AcDbBlockReference
  2
_OPEN
 10
287.0238572020807
 20
208.2079640103762
 30
0.0
 41
7.0
 42
7.0
 43
7.0
 50
180.0
  0
INSERT
  5
8548
330
847C
100
AcDbEntity
  8
SUNPOU
 62
     4
370
    -2
100
AcDbBlockReference
  2
_OPEN
 10
426.2420911868103
 20
208.2079640103762
 30
0.0
 41
7.0
 42
7.0
 43
7.0
  0
MTEXT
  5
8549
330
847C
100
AcDbEntity
  8
SUNPOU
 62
     4
100
AcDbMText
 10
356.6329741944455
 20
213.2079640103762
 30
0.0
 40
6.0
 41
0.0
 71
     5
 72
     1
  1
\A1;139
 73
     1
 44
1.0
  0
POINT
  5
854A
330
847C
100
AcDbEntity
  8
DEFPOINTS
 62
     0
100
AcDbPoint
 10
287.0238572020807
 20
182.2228820228746
 30
0.0
  0
POINT
  5
854B
330
847C
100
AcDbEntity
  8
DEFPOINTS
 62
     0
100
AcDbPoint
 10
426.2420911868103
 20
201.1508368001271
 30
0.0
  0
POINT
  5
854C
330
847C
100
AcDbEntity
  8
DEFPOINTS
 62
     0
100
AcDbPoint
 10
426.2420911868103
 20
208.2079640103762
 30
0.0
  0
ENDBLK
  5
8487
330
847C
100
AcDbEntity
  8
0
100
AcDbBlockEnd
  0
BLOCK
  5
8492
330
8488
100
AcDbEntity
  8
0
100
AcDbBlockBegin
  2
*D2
 70
     1
 71
     0
 10
0.0
 20
0.0
 30
0.0
  3
*D2
  1

  0
LINE
  5
854D
330
8488
100
AcDbEntity
  8
SUNPOU
 62
     4
370
    -2
100
AcDbLine
 10
320.6318690967466
 20
94.6060868001272
 30
0.0
 11
320.6318690967466
 21
61.96190191457504
 31
0.0
  0
LINE
  5
854E
330
8488
100
AcDbEntity
  8
SUNPOU
 62
     4
370
    -2
100
AcDbLine
 10
414.2567478078181
 20
94.6060868001272
 30
0.0
 11
414.2567478078181
 21
61.96190191457504
 31
0.0
  0
LINE
  5
854F
330
8488
100
AcDbEntity
  8
SUNPOU
 62
     4
370
    -2
100
AcDbLine
 10
327.6318690967466
 20
64.96190191457504
 30
0.0
 11
407.2567478078181
 21
64.96190191457504
 31
0.0
  0
INSERT
  5
8550
330
8488
100
AcDbEntity
  8
SUNPOU
 62
     4
370
    -2
100
AcDbBlockReference
  2
_OPEN
 10
320.6318690967466
 20
64.96190191457504
 30
0.0
 41
7.0
 42
7.0
 43
7.0
 50
180.0
  0
INSERT
  5
8551
330
8488
100
AcDbEntity
  8
SUNPOU
 62
     4
370
    -2
100
AcDbBlockReference
  2
_OPEN
 10
414.2567478078181
 20
64.96190191457504
 30
0.0
 41
7.0
 42
7.0
 43
7.0
  0
MTEXT
  5
8552
330
8488
100
AcDbEntity
  8
SUNPOU
 62
     4
100
AcDbMText
 10
367.4443084522824
 20
69.96190191457504
 30
0.0
 40
6.0
 41
0.0
 71
     5
 72
     1
  1
\A1;94
 73
     1
 44
1.0
  0
POINT
  5
8553
330
8488
100
AcDbEntity
  8
DEFPOINTS
 62
     0
100
AcDbPoint
 10
320.6318690967466
 20
100.6060868001272
 30
0.0
  0
POINT
  5
8554
330
8488
100
AcDbEntity
  8
DEFPOINTS
 62
     0
100
AcDbPoint
 10
414.2567478078181
 20
100.6060868001272
 30
0.0
  0
POINT
  5
8555
330
8488
100
AcDbEntity
  8
DEFPOINTS
 62
     0
100
AcDbPoint
 10
414.2567478078181
 20
64.96190191457504
 30
0.0
  0
ENDBLK
  5
8493
330
8488
100
AcDbEntity
  8
0
100
AcDbBlockEnd
  0
BLOCK
  5
849E
330
8494
100
AcDbEntity
  8
0
100
AcDbBlockBegin
  2
*D3
 70
     1
 71
     0
 10
0.0
 20
0.0
 30
0.0
  3
*D3
  1

  0
LINE
  5
8556
330
8494
100
AcDbEntity
  8
SUNPOU
 62
     4
370
    -2
100
AcDbLine
 10
585.5302911868106
 20
457.2539598262302
 30
0.0
 11
585.5302911868106
 21
428.8033614134395
 31
0.0
  0
LINE
  5
8557
330
8494
100
AcDbEntity
  8
SUNPOU
 62
     4
370
    -2
100
AcDbLine
 10
287.0238911868105
 20
457.2539598262302
 30
0.0
 11
287.0238911868105
 21
428.8033614134395
 31
0.0
  0
LINE
  5
8558
330
8494
100
AcDbEntity
  8
SUNPOU
 62
     4
370
    -2
100
AcDbLine
 10
578.5302911868106
 20
431.8033614134395
 30
0.0
 11
294.0238911868105
 21
431.8033614134395
 31
0.0
  0
INSERT
  5
8559
330
8494
100
AcDbEntity
  8
SUNPOU
 62
     4
370
    -2
100
AcDbBlockReference
  2
_OPEN
 10
585.5302911868106
 20
431.8033614134395
 30
0.0
 41
7.0
 42
7.0
 43
7.0
  0
INSERT
  5
855A
330
8494
100
AcDbEntity
  8
SUNPOU
 62
     4
370
    -2
100
AcDbBlockReference
  2
_OPEN
 10
287.0238911868105
 20
431.8033614134395
 30
0.0
 41
7.0
 42
7.0
 43
7.0
 50
180.0
  0
MTEXT
  5
855B
330
8494
100
AcDbEntity
  8
SUNPOU
 62
     4
100
AcDbMText
 10
436.2770911868106
 20
436.8033614134395
 30
0.0
 40
6.0
 41
0.0
 71
     5
 72
     1
  1
\A1;299
 73
     1
 44
1.0
  0
POINT
  5
855C
330
8494
100
AcDbEntity
  8
DEFPOINTS
 62
     0
100
AcDbPoint
 10
585.5302911868106
 20
463.2539598262302
 30
0.0
  0
POINT
  5
855D
330
8494
100
AcDbEntity
  8
DEFPOINTS
 62
     0
100
AcDbPoint
 10
287.0238911868105
 20
463.2539598262302
 30
0.0
  0
POINT
  5
855E
330
8494
100
AcDbEntity
  8
DEFPOINTS
 62
     0
100
AcDbPoint
 10
287.0238911868105
 20
431.8033614134395
 30
0.0
  0
ENDBLK
  5
849F
330
8494
100
AcDbEntity
  8
0
100
AcDbBlockEnd
  0
BLOCK
  5
84AA
330
84A0
100
AcDbEntity
  8
0
100
AcDbBlockBegin
  2
*D4
 70
     1
 71
     0
 10
0.0
 20
0.0
 30
0.0
  3
*D4
  1

  0
LINE
  5
855F
330
84A0
100
AcDbEntity
  8
SUNPOU
  6
Continuous
 62
     4
370
    -2
100
AcDbLine
 10
275.5582911868106
 20
216.7988868001271
 30
0.0
 11
249.687079444808
 21
216.7988868001271
 31
0.0
  0
LINE
  5
8560
330
84A0
100
AcDbEntity
  8
SUNPOU
  6
Continuous
 62
     4
370
    -2
100
AcDbLine
 10
281.0238911868105
 20
182.2228868001272
 30
0.0
 11
249.687079444808
 21
182.2228868001272
 31
0.0
  0
LINE
  5
8561
330
84A0
100
AcDbEntity
  8
SUNPOU
  6
Continuous
 62
     4
370
    -2
100
AcDbLine
 10
252.687079444808
 20
209.7988868001271
 30
0.0
 11
252.687079444808
 21
189.2228868001272
 31
0.0
  0
INSERT
  5
8562
330
84A0
100
AcDbEntity
  8
SUNPOU
  6
Continuous
 62
     4
370
    -2
100
AcDbBlockReference
  2
_OPEN
 10
252.687079444808
 20
216.7988868001271
 30
0.0
 41
7.0
 42
7.0
 43
7.0
 50
90.0
  0
INSERT
  5
8563
330
84A0
100
AcDbEntity
  8
SUNPOU
  6
Continuous
 62
     4
370
    -2
100
AcDbBlockReference
  2
_OPEN
 10
252.687079444808
 20
182.2228868001272
 30
0.0
 41
7.0
 42
7.0
 43
7.0
 50
270.0
  0
MTEXT
  5
8564
330
84A0
100
AcDbEntity
  8
SUNPOU
  6
Continuous
 62
     4
100
AcDbMText
 10
247.687079444808
 20
199.5108868001272
 30
0.0
 40
6.0
 41
0.0
 71
     5
 72
     1
  1
\A1;35
 11
6.123031769111886E-17
 21
1.0
 31
0.0
 73
     1
 44
1.0
  0
POINT
  5
8565
330
84A0
100
AcDbEntity
  8
DEFPOINTS
  6
Continuous
 62
     0
100
AcDbPoint
 10
281.5582911868106
 20
216.7988868001271
 30
0.0
  0
POINT
  5
8566
330
84A0
100
AcDbEntity
  8
DEFPOINTS
  6
Continuous
 62
     0
100
AcDbPoint
 10
287.0238911868105
 20
182.2228868001272
 30
0.0
  0
POINT
  5
8567
330
84A0
100
AcDbEntity
  8
DEFPOINTS
  6
Continuous
 62
     0
100
AcDbPoint
 10
252.687079444808
 20
182.2228868001272
 30
0.0
  0
ENDBLK
  5
84AB
330
84A0
100
AcDbEntity
  8
0
100
AcDbBlockEnd
  0
BLOCK
  5
84B6
330
84AC
100
AcDbEntity
  8
0
100
AcDbBlockBegin
  2
*D5
 70
     1
 71
     0
 10
0.0
 20
0.0
 30
0.0
  3
*D5
  1

  0
LINE
  5
8568
330
84AC
100
AcDbEntity
  8
SUNPOU
  6
Continuous
 62
     4
370
    -2
100
AcDbLine
 10
281.0238911868105
 20
182.2228868001272
 30
0.0
 11
249.687079444808
 21
182.2228868001272
 31
0.0
  0
LINE
  5
8569
330
84AC
100
AcDbEntity
  8
SUNPOU
  6
Continuous
 62
     4
370
    -2
100
AcDbLine
 10
316.7964911868106
 20
100.6060868001272
 30
0.0
 11
249.687079444808
 21
100.6060868001272
 31
0.0
  0
LINE
  5
856A
330
84AC
100
AcDbEntity
  8
SUNPOU
  6
Continuous
 62
     4
370
    -2
100
AcDbLine
 10
252.687079444808
 20
175.2228868001272
 30
0.0
 11
252.687079444808
 21
107.6060868001272
 31
0.0
  0
INSERT
  5
856B
330
84AC
100
AcDbEntity
  8
SUNPOU
  6
Continuous
 62
     4
370
    -2
100
AcDbBlockReference
  2
_OPEN
 10
252.687079444808
 20
182.2228868001272
 30
0.0
 41
7.0
 42
7.0
 43
7.0
 50
90.0
  0
INSERT
  5
856C
330
84AC
100
AcDbEntity
  8
SUNPOU
  6
Continuous
 62
     4
370
    -2
100
AcDbBlockReference
  2
_OPEN
 10
252.687079444808
 20
100.6060868001272
 30
0.0
 41
7.0
 42
7.0
 43
7.0
 50
270.0
  0
MTEXT
  5
856D
330
84AC
100
AcDbEntity
  8
SUNPOU
  6
Continuous
 62
     4
100
AcDbMText
 10
247.687079444808
 20
141.4144868001272
 30
0.0
 40
6.0
 41
0.0
 71
     5
 72
     1
  1
\A1;82
 11
6.123031769111886E-17
 21
1.0
 31
0.0
 73
     1
 44
1.0
  0
POINT
  5
856E
330
84AC
100
AcDbEntity
  8
DEFPOINTS
  6
Continuous
 62
     0
100
AcDbPoint
 10
287.0238911868105
 20
182.2228868001272
 30
0.0
  0
POINT
  5
856F
330
84AC
100
AcDbEntity
  8
DEFPOINTS
  6
Continuous
 62
     0
100
AcDbPoint
 10
322.7964911868106
 20
100.6060868001272
 30
0.0
  0
POINT
  5
8570
330
84AC
100
AcDbEntity
  8
DEFPOINTS
  6
Continuous
 62
     0
100
AcDbPoint
 10
252.687079444808
 20
100.6060868001272
 30
0.0
  0
ENDBLK
  5
84B7
330
84AC
100
AcDbEntity
  8
0
100
AcDbBlockEnd
  0
BLOCK
  5
84C4
330
84B8
100
AcDbEntity
  8
0
100
AcDbBlockBegin
  2
*D6
 70
     1
 71
     0
 10
0.0
 20
0.0
 30
0.0
  3
*D6
  1

  0
LINE
  5
8571
330
84B8
100
AcDbEntity
  8
SUNPOU
 62
     4
370
    -2
100
AcDbLine
 10
309.7461553041237
 20
135.509533994001
 30
0.0
 11
308.1705107298873
 21
146.7209374282049
 31
0.0
  0
LINE
  5
8572
330
84B8
100
AcDbEntity
  8
SUNPOU
 62
     4
370
    -2
100
AcDbLine
 10
307.7656605961158
 20
135.2311963390151
 30
0.0
 11
306.1900160218794
 21
146.4425997732191
 31
0.0
  0
LINE
  5
8573
330
84B8
100
AcDbEntity
  8
SUNPOU
 62
     4
370
    -2
100
AcDbLine
 10
315.5199038206039
 20
144.7243350145715
 30
0.0
 11
322.4517816159731
 21
145.698537370382
 31
0.0
  0
LINE
  5
8574
330
84B8
100
AcDbEntity
  8
SUNPOU
 62
     4
370
    -2
100
AcDbLine
 10
299.6756535218575
 20
142.4975926479646
 30
0.0
 11
271.9481423403805
 21
138.6007832247225
 31
0.0
  0
LINE
  5
8575
330
84B8
100
AcDbEntity
  8
SUNPOU
 62
     4
370
    -2
100
AcDbLine
 10
308.5880260252346
 20
143.750132658761
 30
0.0
 11
306.6075313172267
 21
143.4717950037751
 31
0.0
  0
INSERT
  5
8576
330
84B8
100
AcDbEntity
  8
SUNPOU
 62
     4
370
    -2
100
AcDbBlockReference
  2
_OPEN
 10
308.5880260252346
 20
143.750132658761
 30
0.0
 41
7.0
 42
7.0
 43
7.0
 50
187.9999227095831
  0
INSERT
  5
8577
330
84B8
100
AcDbEntity
  8
SUNPOU
 62
     4
370
    -2
100
AcDbBlockReference
  2
_OPEN
 10
306.6075313172267
 20
143.4717950037751
 30
0.0
 41
7.0
 42
7.0
 43
7.0
 50
7.999922709583081
  0
MTEXT
  5
8578
330
84B8
100
AcDbEntity
  8
SUNPOU
 62
     4
100
AcDbMText
 10
281.6501002078554
 20
145.0134280408449
 30
0.0
 40
6.0
 41
0.0
 71
     5
 72
     1
  1
\A1;t2.0
 11
0.9902682564813212
 21
0.1391717651157886
 31
0.0
 73
     1
 44
1.0
  0
POINT
  5
8579
330
84B8
100
AcDbEntity
  8
DEFPOINTS
 62
     0
100
AcDbPoint
 10
310.5811858948184
 20
129.5679244551131
 30
0.0
  0
POINT
  5
857A
330
84B8
100
AcDbEntity
  8
DEFPOINTS
 62
     0
100
AcDbPoint
 10
308.6006911868105
 20
129.2895868001272
 30
0.0
  0
POINT
  5
857B
330
84B8
100
AcDbEntity
  8
DEFPOINTS
 62
     0
100
AcDbPoint
 10
306.6075313172267
 20
143.4717950037751
 30
0.0
  0
ENDBLK
  5
84C5
330
84B8
100
AcDbEntity
  8
0
100
AcDbBlockEnd
  0
BLOCK
  5
84D0
330
84C6
100
AcDbEntity
  8
0
100
AcDbBlockBegin
  2
*D7
 70
     1
 71
     0
 10
0.0
 20
0.0
 30
0.0
  3
*D7
  1

  0
LINE
  5
857C
330
84C6
100
AcDbEntity
  8
SUNPOU
100
AcDbLine
 10
177.5239392133236
 20
304.2032868001272
 30
0.0
 11
177.5239392133236
 21
347.4751156455739
 31
0.0
  0
LINE
  5
857D
330
84C6
100
AcDbEntity
  8
SUNPOU
100
AcDbLine
 10
196.523815200145
 20
304.2032868001272
 30
0.0
 11
196.523815200145
 21
347.4751156455739
 31
0.0
  0
LINE
  5
857E
330
84C6
100
AcDbEntity
  8
SUNPOU
100
AcDbLine
 10
184.5239392133236
 20
344.4751156455739
 30
0.0
 11
189.523815200145
 21
344.4751156455739
 31
0.0
  0
INSERT
  5
857F
330
84C6
100
AcDbEntity
  8
SUNPOU
100
AcDbBlockReference
  2
_OPEN
 10
177.5239392133236
 20
344.4751156455739
 30
0.0
 41
7.0
 42
7.0
 43
7.0
 50
180.0
  0
INSERT
  5
8580
330
84C6
100
AcDbEntity
  8
SUNPOU
100
AcDbBlockReference
  2
_OPEN
 10
196.523815200145
 20
344.4751156455739
 30
0.0
 41
7.0
 42
7.0
 43
7.0
  0
MTEXT
  5
8581
330
84C6
100
AcDbEntity
  8
SUNPOU
100
AcDbMText
 10
187.0238772067343
 20
349.4751156455739
 30
0.0
 40
6.0
 41
0.0
 71
     5
 72
     1
  1
\A1;19
 73
     1
 44
1.0
  0
POINT
  5
8582
330
84C6
100
AcDbEntity
  8
DEFPOINTS
 62
     0
100
AcDbPoint
 10
177.5239392133236
 20
298.2032868001272
 30
0.0
  0
POINT
  5
8583
330
84C6
100
AcDbEntity
  8
DEFPOINTS
 62
     0
100
AcDbPoint
 10
196.523815200145
 20
298.2032868001272
 30
0.0
  0
POINT
  5
8584
330
84C6
100
AcDbEntity
  8
DEFPOINTS
 62
     0
100
AcDbPoint
 10
196.523815200145
 20
344.4751156455739
 30
0.0
  0
ENDBLK
  5
84D1
330
84C6
100
AcDbEntity
  8
0
100
AcDbBlockEnd
  0
BLOCK
  5
84DC
330
84D2
100
AcDbEntity
  8
0
100
AcDbBlockBegin
  2
*D8
 70
     1
 71
     0
 10
0.0
 20
0.0
 30
0.0
  3
*D8
  1

  0
LINE
  5
8585
330
84D2
100
AcDbEntity
  8
SUNPOU
  6
Continuous
 62
     4
370
    -2
100
AcDbLine
 10
591.0317911868104
 20
298.2032868001272
 30
0.0
 11
626.7110074740098
 21
298.2032868001272
 31
0.0
  0
LINE
  5
8586
330
84D2
100
AcDbEntity
  8
SUNPOU
  6
Continuous
 62
     4
370
    -2
100
AcDbLine
 10
591.0285911868104
 20
231.6144868001273
 30
0.0
 11
626.7110074740097
 21
231.6144868001273
 31
0.0
  0
LINE
  5
8587
330
84D2
100
AcDbEntity
  8
SUNPOU
  6
Continuous
 62
     4
370
    -2
100
AcDbLine
 10
623.7110074740098
 20
291.2032868001272
 30
0.0
 11
623.7110074740097
 21
238.6144868001273
 31
0.0
  0
INSERT
  5
8588
330
84D2
100
AcDbEntity
  8
SUNPOU
  6
Continuous
 62
     4
370
    -2
100
AcDbBlockReference
  2
_OPEN
 10
623.7110074740098
 20
298.2032868001272
 30
0.0
 41
7.0
 42
7.0
 43
7.0
 50
90.0
  0
INSERT
  5
8589
330
84D2
100
AcDbEntity
  8
SUNPOU
  6
Continuous
 62
     4
370
    -2
100
AcDbBlockReference
  2
_OPEN
 10
623.7110074740097
 20
231.6144868001273
 30
0.0
 41
7.0
 42
7.0
 43
7.0
 50
270.0
  0
MTEXT
  5
858A
330
84D2
100
AcDbEntity
  8
SUNPOU
  6
Continuous
 62
     4
100
AcDbMText
 10
618.7110074740097
 20
264.9088868001273
 30
0.0
 40
6.0
 41
0.0
 71
     5
 72
     1
  1
\A1;67
 11
6.123031769111886E-17
 21
1.0
 31
0.0
 73
     1
 44
1.0
  0
POINT
  5
858B
330
84D2
100
AcDbEntity
  8
DEFPOINTS
  6
Continuous
 62
     0
100
AcDbPoint
 10
585.0317911868104
 20
298.2032868001272
 30
0.0
  0
POINT
  5
858C
330
84D2
100
AcDbEntity
  8
DEFPOINTS
  6
Continuous
 62
     0
100
AcDbPoint
 10
585.0285911868104
 20
231.6144868001273
 30
0.0
  0
POINT
  5
858D
330
84D2
100
AcDbEntity
  8
DEFPOINTS
  6
Continuous
 62
     0
100
AcDbPoint
 10
623.7110074740097
 20
231.6144868001273
 30
0.0
  0
ENDBLK
  5
84DD
330
84D2
100
AcDbEntity
  8
0
100
AcDbBlockEnd
  0
BLOCK
  5
84EA
330
84DE
100
AcDbEntity
  8
0
100
AcDbBlockBegin
  2
*D9
 70
     1
 71
     0
 10
0.0
 20
0.0
 30
0.0
  3
*D9
  1

  0
LINE
  5
858E
330
84DE
100
AcDbEntity
  8
SUNPOU
 62
     4
370
    -2
100
AcDbLine
 10
569.352962499231
 20
295.013443146023
 30
0.0
 11
557.2783094085932
 21
292.5568609635063
 31
0.0
  0
LINE
  5
858F
330
84DE
100
AcDbEntity
  8
SUNPOU
 62
     4
370
    -2
100
AcDbLine
 10
569.8513738972175
 20
292.5636391989221
 30
0.0
 11
557.7767208065797
 21
290.1070570164055
 31
0.0
  0
LINE
  5
8590
330
84DE
100
AcDbEntity
  8
SUNPOU
 62
     4
370
    -2
100
AcDbLine
 10
558.8225279998554
 20
300.0144335539945
 30
0.0
 11
557.4269708717796
 21
306.8739102324501
 31
0.0
  0
LINE
  5
8591
330
84DE
100
AcDbEntity
  8
SUNPOU
 62
     4
370
    -2
100
AcDbLine
 10
562.1120536539936
 20
283.8456762499823
 30
0.0
 11
567.8936474703077
 21
255.4278442963804
 31
0.0
  0
LINE
  5
8592
330
84DE
100
AcDbEntity
  8
SUNPOU
 62
     4
370
    -2
100
AcDbLine
 10
560.2180851279313
 20
293.1549568755388
 30
0.0
 11
560.7164965259178
 21
290.7051529284379
 31
0.0
  0
INSERT
  5
8593
330
84DE
100
AcDbEntity
  8
SUNPOU
 62
     4
370
    -2
100
AcDbBlockReference
  2
_OPEN
 10
560.2180851279313
 20
293.1549568755388
 30
0.0
 41
7.0
 42
7.0
 43
7.0
 50
281.4998462013037
  0
INSERT
  5
8594
330
84DE
100
AcDbEntity
  8
SUNPOU
 62
     4
370
    -2
100
AcDbBlockReference
  2
_OPEN
 10
560.7164965259178
 20
290.7051529284379
 30
0.0
 41
7.0
 42
7.0
 43
7.0
 50
101.4998462013037
  0
MTEXT
  5
8595
330
84DE
100
AcDbEntity
  8
SUNPOU
 62
     4
100
AcDbMText
 10
570.6002553250854
 20
267.2038484540076
 30
0.0
 40
6.0
 41
0.0
 71
     5
 72
     1
  1
\A1;t2.5
 11
0.1993653040108308
 21
-0.9799252397793767
 31
0.0
 73
     1
 44
1.0
  0
POINT
  5
8596
330
84DE
100
AcDbEntity
  8
DEFPOINTS
 62
     0
100
AcDbPoint
 10
575.2325139379072
 20
296.2096349700879
 30
0.0
  0
POINT
  5
8597
330
84DE
100
AcDbEntity
  8
DEFPOINTS
 62
     0
100
AcDbPoint
 10
575.7309253358937
 20
293.759831022987
 30
0.0
  0
POINT
  5
8598
330
84DE
100
AcDbEntity
  8
DEFPOINTS
 62
     0
100
AcDbPoint
 10
560.7164965259178
 20
290.7051529284379
 30
0.0
  0
ENDBLK
  5
84EB
330
84DE
100
AcDbEntity
  8
0
100
AcDbBlockEnd
  0
BLOCK
  5
84F6
330
84EC
100
AcDbEntity
  8
0
100
AcDbBlockBegin
  2
*D10
 70
     1
 71
     0
 10
0.0
 20
0.0
 30
0.0
  3
*D10
  1

  0
LINE
  5
8599
330
84EC
100
AcDbEntity
  8
SUNPOU
 62
     4
370
    -2
100
AcDbLine
 10
434.7420911868104
 20
263.855025618717
 30
0.0
 11
520.2807138807808
 21
263.855025618717
 31
0.0
  0
LINE
  5
859A
330
84EC
100
AcDbEntity
  8
SUNPOU
 62
     4
370
    -2
100
AcDbLine
 10
434.7420911868104
 20
138.8550868001272
 30
0.0
 11
520.2807138807807
 21
138.8550868001271
 31
0.0
  0
LINE
  5
859B
330
84EC
100
AcDbEntity
  8
SUNPOU
 62
     4
370
    -2
100
AcDbLine
 10
517.2807138807808
 20
256.855025618717
 30
0.0
 11
517.2807138807807
 21
145.8550868001271
 31
0.0
  0
INSERT
  5
859C
330
84EC
100
AcDbEntity
  8
SUNPOU
 62
     4
370
    -2
100
AcDbBlockReference
  2
_OPEN
 10
517.2807138807808
 20
263.855025618717
 30
0.0
 41
7.0
 42
7.0
 43
7.0
 50
90.0
  0
INSERT
  5
859D
330
84EC
100
AcDbEntity
  8
SUNPOU
 62
     4
370
    -2
100
AcDbBlockReference
  2
_OPEN
 10
517.2807138807807
 20
138.8550868001271
 30
0.0
 41
7.0
 42
7.0
 43
7.0
 50
270.0
  0
MTEXT
  5
859E
330
84EC
100
AcDbEntity
  8
SUNPOU
 62
     4
100
AcDbMText
 10
512.2807138807807
 20
201.3550562094222
 30
0.0
 40
6.0
 41
0.0
 71
     5
 72
     1
  1
\A1;125
 11
6.123031769111886E-17
 21
1.0
 31
0.0
 73
     1
 44
1.0
  0
POINT
  5
859F
330
84EC
100
AcDbEntity
  8
DEFPOINTS
 62
     0
100
AcDbPoint
 10
428.7420911868104
 20
263.855025618717
 30
0.0
  0
POINT
  5
85A0
330
84EC
100
AcDbEntity
  8
DEFPOINTS
 62
     0
100
AcDbPoint
 10
428.7420911868104
 20
138.8550868001272
 30
0.0
  0
POINT
  5
85A1
330
84EC
100
AcDbEntity
  8
DEFPOINTS
 62
     0
100
AcDbPoint
 10
517.2807138807807
 20
138.8550868001271
 30
0.0
  0
ENDBLK
  5
84F7
330
84EC
100
AcDbEntity
  8
0
100
AcDbBlockEnd
  0
BLOCK
  5
8502
330
84F8
100
AcDbEntity
  8
0
100
AcDbBlockBegin
  2
*D11
 70
     1
 71
     0
 10
0.0
 20
0.0
 30
0.0
  3
*D11
  1

  0
LINE
  5
85A2
330
84F8
100
AcDbEntity
  8
SUNPOU
  6
Continuous
 62
     4
370
    -2
100
AcDbLine
 10
429.7388911868105
 20
166.3550868001271
 30
0.0
 11
469.5917655801543
 21
166.3550868001271
 31
0.0
  0
LINE
  5
85A3
330
84F8
100
AcDbEntity
  8
SUNPOU
  6
Continuous
 62
     4
370
    -2
100
AcDbLine
 10
417.8874911868105
 20
100.6060868001272
 30
0.0
 11
469.5917655801543
 21
100.6060868001272
 31
0.0
  0
LINE
  5
85A4
330
84F8
100
AcDbEntity
  8
SUNPOU
  6
Continuous
 62
     4
370
    -2
100
AcDbLine
 10
466.5917655801543
 20
159.3550868001271
 30
0.0
 11
466.5917655801543
 21
107.6060868001272
 31
0.0
  0
INSERT
  5
85A5
330
84F8
100
AcDbEntity
  8
SUNPOU
  6
Continuous
 62
     4
370
    -2
100
AcDbBlockReference
  2
_OPEN
 10
466.5917655801543
 20
166.3550868001271
 30
0.0
 41
7.0
 42
7.0
 43
7.0
 50
90.0
  0
INSERT
  5
85A6
330
84F8
100
AcDbEntity
  8
SUNPOU
  6
Continuous
 62
     4
370
    -2
100
AcDbBlockReference
  2
_OPEN
 10
466.5917655801543
 20
100.6060868001272
 30
0.0
 41
7.0
 42
7.0
 43
7.0
 50
270.0
  0
MTEXT
  5
85A7
330
84F8
100
AcDbEntity
  8
SUNPOU
  6
Continuous
 62
     4
100
AcDbMText
 10
461.5917655801543
 20
133.4805868001272
 30
0.0
 40
6.0
 41
0.0
 71
     5
 72
     1
  1
\A1;66
 11
6.123031769111886E-17
 21
1.0
 31
0.0
 73
     1
 44
1.0
  0
POINT
  5
85A8
330
84F8
100
AcDbEntity
  8
DEFPOINTS
  6
Continuous
 62
     0
100
AcDbPoint
 10
423.7388911868105
 20
166.3550868001271
 30
0.0
  0
POINT
  5
85A9
330
84F8
100
AcDbEntity
  8
DEFPOINTS
  6
Continuous
 62
     0
100
AcDbPoint
 10
411.8874911868105
 20
100.6060868001272
 30
0.0
  0
POINT
  5
85AA
330
84F8
100
AcDbEntity
  8
DEFPOINTS
  6
Continuous
 62
     0
100
AcDbPoint
 10
466.5917655801543
 20
100.6060868001272
 30
0.0
  0
ENDBLK
  5
8503
330
84F8
100
AcDbEntity
  8
0
100
AcDbBlockEnd
  0
BLOCK
  5
850E
330
8504
100
AcDbEntity
  8
0
100
AcDbBlockBegin
  2
*D12
 70
     1
 71
     0
 10
0.0
 20
0.0
 30
0.0
  3
*D12
  1

  0
LINE
  5
85AB
330
8504
100
AcDbEntity
  8
SUNPOU
  6
Continuous
 62
     4
370
    -2
100
AcDbLine
 10
591.5301911868106
 20
482.2540598262302
 30
0.0
 11
627.0476746625338
 21
482.2540598262302
 31
0.0
  0
LINE
  5
85AC
330
8504
100
AcDbEntity
  8
SUNPOU
  6
Continuous
 62
     4
370
    -2
100
AcDbLine
 10
591.0320911868106
 20
463.2539598262302
 30
0.0
 11
627.0476746625338
 21
463.2539598262302
 31
0.0
  0
LINE
  5
85AD
330
8504
100
AcDbEntity
  8
SUNPOU
  6
Continuous
 62
     4
370
    -2
100
AcDbLine
 10
624.0476746625338
 20
475.2540598262302
 30
0.0
 11
624.0476746625338
 21
470.2539598262302
 31
0.0
  0
INSERT
  5
85AE
330
8504
100
AcDbEntity
  8
SUNPOU
  6
Continuous
 62
     4
370
    -2
100
AcDbBlockReference
  2
_OPEN
 10
624.0476746625338
 20
482.2540598262302
 30
0.0
 41
7.0
 42
7.0
 43
7.0
 50
90.0
  0
INSERT
  5
85AF
330
8504
100
AcDbEntity
  8
SUNPOU
  6
Continuous
 62
     4
370
    -2
100
AcDbBlockReference
  2
_OPEN
 10
624.0476746625338
 20
463.2539598262302
 30
0.0
 41
7.0
 42
7.0
 43
7.0
 50
270.0
  0
MTEXT
  5
85B0
330
8504
100
AcDbEntity
  8
SUNPOU
  6
Continuous
 62
     4
100
AcDbMText
 10
619.0476746625337
 20
472.7540098262303
 30
0.0
 40
6.0
 41
0.0
 71
     5
 72
     1
  1
\A1;19
 11
6.123031769111886E-17
 21
1.0
 31
0.0
 73
     1
 44
1.0
  0
POINT
  5
85B1
330
8504
100
AcDbEntity
  8
DEFPOINTS
  6
Continuous
 62
     0
100
AcDbPoint
 10
585.5301911868106
 20
482.2540598262302
 30
0.0
  0
POINT
  5
85B2
330
8504
100
AcDbEntity
  8
DEFPOINTS
  6
Continuous
 62
     0
100
AcDbPoint
 10
585.0320911868106
 20
463.2539598262302
 30
0.0
  0
POINT
  5
85B3
330
8504
100
AcDbEntity
  8
DEFPOINTS
  6
Continuous
 62
     0
100
AcDbPoint
 10
624.0476746625338
 20
463.2539598262302
 30
0.0
  0
ENDBLK
  5
850F
330
8504
100
AcDbEntity
  8
0
100
AcDbBlockEnd
  0
BLOCK
  5
851A
330
8510
100
AcDbEntity
  8
0
100
AcDbBlockBegin
  2
*D13
 70
     1
 71
     0
 10
0.0
 20
0.0
 30
0.0
  3
*D13
  1

  0
LINE
  5
85B4
330
8510
100
AcDbEntity
  8
SUNPOU
 62
     4
370
    -2
100
AcDbLine
 10
560.9596235231821
 20
366.3690682706304
 30
0.0
 11
556.5893603701152
 21
387.8507405940816
 31
0.0
  0
LINE
  5
85B5
330
8510
100
AcDbEntity
  8
SUNPOU
 62
     4
370
    -2
100
AcDbLine
 10
511.9632235231821
 20
356.4011682706305
 30
0.0
 11
507.5929603701152
 21
377.8828405940816
 31
0.0
  0
LINE
  5
85B6
330
8510
100
AcDbEntity
  8
SUNPOU
 62
     4
370
    -2
100
AcDbLine
 10
550.3279461885753
 20
383.5154560074353
 30
0.0
 11
515.050521058059
 21
376.3385645223778
 31
0.0
  0
INSERT
  5
85B7
330
8510
100
AcDbEntity
  8
SUNPOU
 62
     4
370
    -2
100
AcDbBlockReference
  2
_OPEN
 10
557.1874336233171
 20
384.9109602649065
 30
0.0
 41
7.0
 42
7.0
 43
7.0
 50
11.49940458450521
  0
INSERT
  5
85B8
330
8510
100
AcDbEntity
  8
SUNPOU
 62
     4
370
    -2
100
AcDbBlockReference
  2
_OPEN
 10
508.1910336233172
 20
374.9430602649066
 30
0.0
 41
7.0
 42
7.0
 43
7.0
 50
191.4994045845052
  0
MTEXT
  5
85B9
330
8510
100
AcDbEntity
  8
SUNPOU
 62
     4
100
AcDbMText
 10
531.6924448679806
 20
384.8266441468649
 30
0.0
 40
6.0
 41
0.0
 71
     5
 72
     1
  1
\A1;50
 11
0.9799267763916767
 21
0.1993577510673136
 31
0.0
 73
     1
 44
1.0
  0
POINT
  5
85BA
330
8510
100
AcDbEntity
  8
DEFPOINTS
 62
     0
100
AcDbPoint
 10
562.1557700295861
 20
360.4895076122803
 30
0.0
  0
POINT
  5
85BB
330
8510
100
AcDbEntity
  8
DEFPOINTS
 62
     0
100
AcDbPoint
 10
513.1593700295861
 20
350.5216076122804
 30
0.0
  0
POINT
  5
85BC
330
8510
100
AcDbEntity
  8
DEFPOINTS
 62
     0
100
AcDbPoint
 10
508.1910336233172
 20
374.9430602649066
 30
0.0
  0
ENDBLK
  5
851B
330
8510
100
AcDbEntity
  8
0
100
AcDbBlockEnd
  0
BLOCK
  5
8526
330
851C
100
AcDbEntity
  8
0
100
AcDbBlockBegin
  2
*D14
 70
     1
 71
     0
 10
0.0
 20
0.0
 30
0.0
  3
*D14
  1

  0
LINE
  5
85BD
330
851C
100
AcDbEntity
  8
SUNPOU
 62
     4
370
    -2
100
AcDbLine
 10
511.9632112748316
 20
356.4011657787946
 30
0.0
 11
507.5929062781311
 21
377.882814708236
 31
0.0
  0
LINE
  5
85BE
330
851C
100
AcDbEntity
  8
SUNPOU
 62
     4
370
    -2
100
AcDbLine
 10
462.9667538970956
 20
346.4331478113716
 30
0.0
 11
458.5964489003951
 21
367.914796740813
 31
0.0
  0
LINE
  5
85BF
330
851C
100
AcDbEntity
  8
SUNPOU
 62
     4
370
    -2
100
AcDbLine
 10
501.3315011279082
 20
373.5475170777655
 30
0.0
 11
466.0540128053722
 21
366.3705362047692
 31
0.0
  0
INSERT
  5
85C0
330
851C
100
AcDbEntity
  8
SUNPOU
 62
     4
370
    -2
100
AcDbBlockReference
  2
_OPEN
 10
508.1909856555082
 20
374.9430356249789
 30
0.0
 41
7.0
 42
7.0
 43
7.0
 50
11.49952394358191
  0
INSERT
  5
85C1
330
851C
100
AcDbEntity
  8
SUNPOU
 62
     4
370
    -2
100
AcDbBlockReference
  2
_OPEN
 10
459.1945282777722
 20
364.9750176575558
 30
0.0
 41
7.0
 42
7.0
 43
7.0
 50
191.4995239435819
  0
MTEXT
  5
85C2
330
851C
100
AcDbEntity
  8
SUNPOU
 62
     4
100
AcDbMText
 10
482.695958004345
 20
374.8586584466959
 30
0.0
 40
6.0
 41
0.0
 71
     5
 72
     1
  1
\A1;50
 11
0.979926361085713
 21
0.1993597924590434
 31
0.0
 73
     1
 44
1.0
  0
POINT
  5
85C3
330
851C
100
AcDbEntity
  8
DEFPOINTS
 62
     0
100
AcDbPoint
 10
513.1593700295858
 20
350.5216076122803
 30
0.0
  0
POINT
  5
85C4
330
851C
100
AcDbEntity
  8
DEFPOINTS
 62
     0
100
AcDbPoint
 10
464.1629126518499
 20
340.5535896448574
 30
0.0
  0
POINT
  5
85C5
330
851C
100
AcDbEntity
  8
DEFPOINTS
 62
     0
100
AcDbPoint
 10
459.1945282777722
 20
364.9750176575558
 30
0.0
  0
ENDBLK
  5
8527
330
851C
100
AcDbEntity
  8
0
100
AcDbBlockEnd
  0
BLOCK
  5
8534
330
8528
100
AcDbEntity
  8
0
100
AcDbBlockBegin
  2
*D15
 70
     1
 71
     0
 10
0.0
 20
0.0
 30
0.0
  3
*D15
  1

  0
LINE
  5
85C6
330
8528
100
AcDbEntity
  8
SUNPOU
 62
     4
370
    -2
100
AcDbLine
 10
576.8573338159043
 20
368.4837302842176
 30
0.0
 11
599.0632350315632
 21
373.0014536709172
 31
0.0
  0
LINE
  5
85C7
330
8528
100
AcDbEntity
  8
SUNPOU
 62
     4
370
    -2
100
AcDbLine
 10
580.6452987667952
 20
349.8648002816626
 30
0.0
 11
602.8511999824542
 21
354.3825236683622
 31
0.0
  0
LINE
  5
85C8
330
8528
100
AcDbEntity
  8
SUNPOU
 62
     4
370
    -2
100
AcDbLine
 10
594.7279174015225
 20
379.2628449737075
 30
0.0
 11
593.332376944395
 21
386.1223250438382
 31
0.0
  0
LINE
  5
85C9
330
8528
100
AcDbEntity
  8
SUNPOU
 62
     4
370
    -2
100
AcDbLine
 10
601.3069632666686
 20
346.9249548308911
 30
0.0
 11
602.7025037237961
 21
340.0654747607604
 31
0.0
  0
LINE
  5
85CA
330
8528
100
AcDbEntity
  8
SUNPOU
 62
     4
370
    -2
100
AcDbLine
 10
596.12345785865
 20
372.4033649035767
 30
0.0
 11
599.911422809541
 21
353.7844349010218
 31
0.0
  0
INSERT
  5
85CB
330
8528
100
AcDbEntity
  8
SUNPOU
 62
     4
370
    -2
100
AcDbBlockReference
  2
_OPEN
 10
596.12345785865
 20
372.4033649035767
 30
0.0
 41
7.0
 42
7.0
 43
7.0
 50
281.4997069523803
  0
INSERT
  5
85CC
330
8528
100
AcDbEntity
  8
SUNPOU
 62
     4
370
    -2
100
AcDbBlockReference
  2
_OPEN
 10
599.911422809541
 20
353.7844349010218
 30
0.0
 41
7.0
 42
7.0
 43
7.0
 50
101.4997069523803
  0
MTEXT
  5
85CD
330
8528
100
AcDbEntity
  8
SUNPOU
 62
     4
100
AcDbMText
 10
602.9170689556175
 20
364.0907145145332
 30
0.0
 40
6.0
 41
0.0
 71
     5
 72
     1
  1
\A1;19
 11
0.1993629224467871
 21
-0.9799257243043864
 31
0.0
 73
     1
 44
1.0
  0
POINT
  5
85CE
330
8528
100
AcDbEntity
  8
DEFPOINTS
 62
     0
100
AcDbPoint
 10
570.9777794700781
 20
367.2875527495369
 30
0.0
  0
POINT
  5
85CF
330
8528
100
AcDbEntity
  8
DEFPOINTS
 62
     0
100
AcDbPoint
 10
574.765744420969
 20
348.6686227469819
 30
0.0
  0
POINT
  5
85D0
330
8528
100
AcDbEntity
  8
DEFPOINTS
 62
     0
100
AcDbPoint
 10
599.911422809541
 20
353.7844349010218
 30
0.0
  0
ENDBLK
  5
8535
330
8528
100
AcDbEntity
  8
0
100
AcDbBlockEnd
  0
BLOCK
  5
8542
330
8536
100
AcDbEntity
  8
0
100
AcDbBlockBegin
  2
*D16
 70
     1
 71
     0
 10
0.0
 20
0.0
 30
0.0
  3
*D16
  1

  0
LINE
  5
85D1
330
8536
100
AcDbEntity
  8
SUNPOU
 62
     4
370
    -2
100
AcDbLine
 10
561.078642558636
 20
365.7838276492867
 30
0.0
 11
556.5891391658752
 21
387.8507956061118
 31
0.0
  0
LINE
  5
85D2
330
8536
100
AcDbEntity
  8
SUNPOU
 62
     4
370
    -2
100
AcDbLine
 10
570.8780588090822
 20
367.7775094541241
 30
0.0
 11
566.3885554163213
 21
389.8444774109493
 31
0.0
  0
LINE
  5
85D3
330
8536
100
AcDbEntity
  8
SUNPOU
 62
     4
370
    -2
100
AcDbLine
 10
550.3277564575811
 20
383.5154655632804
 30
0.0
 11
543.4682791540317
 21
382.1199115076846
 31
0.0
  0
LINE
  5
85D4
330
8536
100
AcDbEntity
  8
SUNPOU
 62
     4
370
    -2
100
AcDbLine
 10
573.8461273151262
 20
388.3002554793097
 30
0.0
 11
591.484783238539
 21
391.8888230508419
 31
0.0
  0
LINE
  5
85D5
330
8536
100
AcDbEntity
  8
SUNPOU
 62
     4
370
    -2
100
AcDbLine
 10
557.1872337611305
 20
384.9110196188763
 30
0.0
 11
566.9866500115767
 21
386.9047014237138
 31
0.0
  0
INSERT
  5
85D6
330
8536
100
AcDbEntity
  8
SUNPOU
 62
     4
370
    -2
100
AcDbBlockReference
  2
_OPEN
 10
557.1872337611305
 20
384.9110196188763
 30
0.0
 41
7.0
 42
7.0
 43
7.0
 50
11.49982053752004
  0
INSERT
  5
85D7
330
8536
100
AcDbEntity
  8
SUNPOU
 62
     4
370
    -2
100
AcDbBlockReference
  2
_OPEN
 10
566.9866500115767
 20
386.9047014237138
 30
0.0
 41
7.0
 42
7.0
 43
7.0
 50
191.49982053752
  0
MTEXT
  5
85D8
330
8536
100
AcDbEntity
  8
SUNPOU
 62
     4
100
AcDbMText
 10
585.0983696031816
 20
395.6919429382662
 30
0.0
 40
6.0
 41
0.0
 71
     5
 72
     1
  1
\A1;10
 11
0.9799253290784917
 21
0.1993648650851241
 31
0.0
 73
     1
 44
1.0
  0
POINT
  5
85D9
330
8536
100
AcDbEntity
  8
DEFPOINTS
 62
     0
100
AcDbPoint
 10
562.2748317491468
 20
359.9042756748157
 30
0.0
  0
POINT
  5
85DA
330
8536
100
AcDbEntity
  8
DEFPOINTS
 62
     0
100
AcDbPoint
 10
572.0742479995929
 20
361.8979574796531
 30
0.0
  0
POINT
  5
85DB
330
8536
100
AcDbEntity
  8
DEFPOINTS
 62
     0
100
AcDbPoint
 10
566.9866500115767
 20
386.9047014237138
 30
0.0
  0
ENDBLK
  5
8543
330
8536
100
AcDbEntity
  8
0
100
AcDbBlockEnd
  0
ENDSEC
  0
SECTION
  2
ENTITIES
  0
LINE
  5
3EF3
330
1A
100
AcDbEntity
  8
ZUWAKU
100
AcDbLine
 10
208.646601303624
 20
15.19999986828872
 30
0.0
 11
447.4243639845474
 21
15.19999986828871
 31
0.0
  0
LINE
  5
3EF4
330
1A
100
AcDbEntity
  8
ZUWAKU
100
AcDbLine
 10
208.646601303624
 20
15.59999986828872
 30
0.0
 11
447.4243639845474
 21
15.59999986828872
 31
0.0
  0
LINE
  5
3EF5
330
1A
100
AcDbEntity
  8
ZUWAKU
100
AcDbLine
 10
208.646601303624
 20
15.39999986828872
 30
0.0
 11
447.4243639845474
 21
15.39999986828872
 31
0.0
  0
LINE
  5
3EF6
330
1A
100
AcDbEntity
  8
ZUWAKU
100
AcDbLine
 10
0.0000000135560185
 20
30.79999986828869
 30
0.0
 11
797.4000000135559
 21
30.79999986828869
 31
0.0
  0
LINE
  5
3EF7
330
1A
100
AcDbEntity
  8
ZUWAKU
100
AcDbLine
 10
0.0000000135560185
 20
30.59999986828869
 30
0.0
 11
797.4000000135559
 21
30.59999986828869
 31
0.0
  0
LINE
  5
3EF8
330
1A
100
AcDbEntity
  8
ZUWAKU
100
AcDbLine
 10
0.0000000135560185
 20
30.39999986828869
 30
0.0
 11
797.4000000135559
 21
30.39999986828869
 31
0.0
  0
LINE
  5
3EF9
330
1A
100
AcDbEntity
  8
ZUWAKU
100
AcDbLine
 10
0.0000000135560185
 20
30.19999986828869
 30
0.0
 11
797.4000000135559
 21
30.19999986828869
 31
0.0
  0
LINE
  5
3EFA
330
1A
100
AcDbEntity
  8
ZUWAKU
100
AcDbLine
 10
0.0000000135560185
 20
29.99999986828868
 30
0.0
 11
797.4000000135559
 21
29.99999986828868
 31
0.0
  0
LWPOLYLINE
  5
3EFB
330
1A
100
AcDbEntity
  8
ZUWAKU
100
AcDbPolyline
 90
        4
 70
     1
 43
0.0
 10
0.2000000135559503
 20
551.3999998682888
 10
0.2000000135559503
 20
0.1999998682887281
 10
797.4000000135559
 20
0.1999998682887512
 10
797.4000000135561
 20
551.3999998682888
  0
LWPOLYLINE
  5
3EFC
330
1A
100
AcDbEntity
  8
ZUWAKU
100
AcDbPolyline
 90
        4
 70
     1
 43
0.0
 10
0.6000000135559276
 20
550.9999998682888
 10
0.6000000135559276
 20
0.5999998682887053
 10
797.0000000135563
 20
0.5999998682887515
 10
797.000000013556
 20
550.9999998682888
  0
LWPOLYLINE
  5
3EFD
330
1A
100
AcDbEntity
  8
ZUWAKU
100
AcDbPolyline
 90
        4
 70
     1
 43
0.0
 10
0.0000000135560185
 20
551.5999998682887
 10
0.0000000135560185
 20
-0.0000001317113174
 10
797.6000000135562
 20
-0.0000001317112499
 10
797.6000000135562
 20
551.5999998682888
  0
LWPOLYLINE
  5
3EFE
330
1A
100
AcDbEntity
  8
ZUWAKU
100
AcDbPolyline
 90
        4
 70
     1
 43
0.0
 10
0.4000000135559958
 20
551.1999998682887
 10
0.4000000135559958
 20
0.3999998682887735
 10
797.2000000135561
 20
0.3999998682887505
 10
797.2000000135561
 20
551.1999998682887
  0
LWPOLYLINE
  5
3EFF
330
1A
100
AcDbEntity
  8
ZUWAKU
100
AcDbPolyline
 90
        4
 70
     1
 43
0.0
 10
0.8000000135559731
 20
550.7999998682888
 10
0.8000000135559731
 20
0.7999998682887508
 10
796.800000013556
 20
0.7999998682887508
 10
796.800000013556
 20
550.7999998682888
  0
TEXT
  5
3F00
330
1A
100
AcDbEntity
  8
moji
100
AcDbText
 10
92.95778960172515
 20
12.74117799856344
 30
0.0
 40
6.0
  1
アーバントップΣ９０
 41
0.9
  7
ｽﾀｲﾙ1
100
AcDbText
  0
HATCH
  5
3F01
330
1A
100
AcDbEntity
  8
ZUWAKU
100
AcDbHatch
 10
0.0
 20
0.0
 30
0.0
210
0.0
220
0.0
230
1.0
  2
ANSI37
 70
     0
 71
     0
 91
        8
 92
        7
 72
     1
 73
     1
 93
       24
 10
14.50226267467588
 20
17.64484834927227
 42
-0.1989123673796348
 10
14.09221216833714
 20
18.63479784293332
 42
0.0
 10
14.09221216833714
 20
19.92499986828869
 42
-0.4142135623730912
 10
14.61721216833712
 20
20.44999986828869
 42
0.0
 10
17.59221216833703
 20
20.44999986828869
 42
0.4142135623731546
 10
18.11721216833712
 20
20.97499986828868
 42
0.0
 10
18.11721216833712
 20
22.72499986828869
 42
0.4142135623731586
 10
17.59221216833703
 20
23.24999986828869
 42
0.0
 10
14.09221216833714
 20
23.24999986828869
 42
0.4142135623730928
 10
11.29221216833719
 20
20.44999986828871
 42
0.0
 10
11.29221216833719
 20
18.63479784293345
 42
0.1989123673796619
 10
12.52236368735362
 20
15.66494936194984
 42
0.0
 10
15.43216166199829
 20
12.75515138730518
 42
-0.1989123673796613
 10
15.84221216833714
 20
11.76520189364399
 42
0.0
 10
15.84221216833714
 20
10.47499986828868
 42
-0.4142135623730911
 10
15.31721216833716
 20
9.949999868288685
 42
0.0
 10
12.34221216833726
 20
9.949999868288685
 42
0.4142135623731526
 10
11.81721216833716
 20
9.424999868288698
 42
0.0
 10
11.81721216833716
 20
7.674999868288676
 42
0.4142135623731526
 10
12.34221216833726
 20
7.149999868288688
 42
0.0
 10
15.84221216833714
 20
7.149999868288688
 42
0.4142135623731044
 10
18.64221216833721
 20
9.949999868288664
 42
0.0
 10
18.64221216833721
 20
11.76520189364394
 42
0.1989123673796604
 10
17.41206064932067
 20
14.73505037462748
 42
0.0
 97
        0
 92
        7
 72
     1
 73
     1
 93
       16
 10
23.54221216833719
 20
19.04999986828869
 42
-0.4142135623730935
 10
24.94221216833716
 20
20.44999986828869
 42
0.0
 10
26.86721216833712
 20
20.44999986828869
 42
0.4142135623731546
 10
27.39221216833721
 20
20.97499986828868
 42
0.0
 10
27.39221216833721
 20
22.72499986828869
 42
0.4142135623730952
 10
26.86721216833723
 20
23.24999986828869
 42
0.0
 10
24.94221216833705
 20
23.24999986828865
 42
0.4142135623730892
 10
20.74221216833712
 20
19.04999986828862
 42
0.0
 10
20.74221216833712
 20
11.34999986828871
 42
0.4142135623730969
 10
24.94221216833716
 20
7.149999868288688
 42
0.0
 10
26.86721216833712
 20
7.149999868288688
 42
0.4142135623731526
 10
27.39221216833721
 20
7.674999868288676
 42
0.0
 10
27.39221216833721
 20
9.424999868288698
 42
0.414213562373089
 10
26.86721216833723
 20
9.949999868288685
 42
0.0
 10
24.94221216833716
 20
9.949999868288685
 42
-0.4142135623730928
 10
23.54221216833719
 20
11.34999986828867
 42
0.0
 97
        0
 92
        7
 72
     1
 73
     1
 93
        2
 10
24.24221216833712
 20
15.19999986828869
 42
1.0
 10
27.74221216833712
 20
15.19999986828869
 42
1.0
 97
        0
 92
        7
 72
     1
 73
     1
 93
       26
 10
37.31485865051513
 20
19.20504706185211
 42
0.0
 10
38.37649828365295
 20
22.5669059001217
 42
0.5069206636600134
 10
37.87586738445759
 20
23.24999986828869
 42
0.0
 10
36.17697800484837
 20
23.24999986828869
 42
0.3272098845218764
 10
35.67634710565301
 20
22.88309383645566
 42
0.0
 10
33.80807723102123
 20
16.96690590012177
 42
-0.3272098845219541
 10
33.30744633182576
 20
16.59999986828868
 42
0.0
 10
33.1672121683373
 20
16.59999986828868
 42
-0.4142135623731526
 10
32.64221216833721
 20
17.12499986828867
 42
0.0
 10
32.64221216833721
 20
22.72499986828869
 42
0.4142135623730952
 10
32.11721216833723
 20
23.24999986828869
 42
0.0
 10
30.36721216833712
 20
23.24999986828869
 42
0.4142135623730872
 10
29.84221216833714
 20
22.72499986828871
 42
0.0
 10
29.84221216833714
 20
7.674999868288676
 42
0.414213562373089
 10
30.36721216833712
 20
7.149999868288688
 42
0.0
 10
32.11721216833712
 20
7.149999868288688
 42
0.4142135623731526
 10
32.64221216833721
 20
7.674999868288676
 42
0.0
 10
32.64221216833721
 20
13.2749998682887
 42
-0.4142135623731526
 10
33.1672121683373
 20
13.79999986828869
 42
0.0
 10
33.30744633182587
 20
13.79999986828869
 42
-0.3272098845218915
 10
33.80807723102123
 20
13.43309383645561
 42
0.0
 10
35.67634710565301
 20
7.51690590012176
 42
0.3272098845218902
 10
36.17697800484837
 20
7.149999868288688
 42
0.0
 10
37.87586738445759
 20
7.149999868288688
 42
0.5069206636600334
 10
38.37649828365295
 20
7.833093836455696
 42
0.0
 10
36.05010690517929
 20
15.19999986828882
 42
0.0
 97
        0
 92
        7
 72
     1
 73
     1
 93
        8
 10
43.49221216833712
 20
22.7249998682887
 42
0.4142135623731546
 10
42.96721216833703
 20
23.24999986828869
 42
0.0
 10
41.21721216833726
 20
23.24999986828869
 42
0.4142135623731506
 10
40.69221216833716
 20
22.72499986828871
 42
0.0
 10
40.69221216833716
 20
7.674999868288676
 42
0.4142135623731526
 10
41.21721216833726
 20
7.149999868288688
 42
0.0
 10
42.96721216833703
 20
7.149999868288688
 42
0.4142135623731526
 10
43.49221216833712
 20
7.674999868288676
 42
0.0
 97
        0
 92
        7
 72
     1
 73
     1
 93
       24
 10
48.39221216833721
 20
19.92499986828869
 42
-0.4142135623731547
 10
48.9172121683373
 20
20.44999986828869
 42
0.0
 10
51.89221216833721
 20
20.44999986828869
 42
0.4142135623730911
 10
52.41721216833719
 20
20.97499986828868
 42
0.0
 10
52.41721216833719
 20
22.72499986828869
 42
0.4142135623730952
 10
51.89221216833721
 20
23.24999986828869
 42
0.0
 10
48.39221216833721
 20
23.24999986828869
 42
0.4142135623731048
 10
45.59221216833714
 20
20.44999986828871
 42
0.0
 10
45.59221216833714
 20
18.63479784293345
 42
0.1989123673796613
 10
46.82236368735369
 20
15.66494936194989
 42
0.0
 10
49.73216166199836
 20
12.75515138730523
 42
-0.1989123673796402
 10
50.14221216833721
 20
11.76520189364415
 42
0.0
 10
50.14221216833721
 20
10.47499986828868
 42
-0.4142135623730911
 10
49.61721216833723
 20
9.949999868288685
 42
0.0
 10
46.64221216833721
 20
9.949999868288685
 42
0.4142135623731526
 10
46.11721216833712
 20
9.424999868288698
 42
0.0
 10
46.11721216833712
 20
7.674999868288676
 42
0.414213562373089
 10
46.6422121683371
 20
7.149999868288688
 42
0.0
 10
50.14221216833721
 20
7.149999868288688
 42
0.4142135623730925
 10
52.94221216833716
 20
9.949999868288664
 42
0.0
 10
52.94221216833716
 20
11.76520189364394
 42
0.1989123673796675
 10
51.71206064932062
 20
14.73505037462759
 42
0.0
 10
48.80226267467606
 20
17.64484834927211
 42
-0.1989123673796653
 10
48.39221216833721
 20
18.63479784293327
 42
0.0
 97
        0
 92
        7
 72
     1
 73
     1
 93
       16
 10
57.84221216833714
 20
22.72499986828868
 42
0.414213562373103
 10
57.31721216833716
 20
23.24999986828869
 42
0.0
 10
55.56721216833716
 20
23.24999986828869
 42
0.4142135623730872
 10
55.04221216833719
 20
22.72499986828871
 42
0.0
 10
55.04221216833719
 20
9.949999868288664
 42
0.4142135623730925
 10
57.84221216833714
 20
7.149999868288688
 42
0.0
 10
61.34221216833714
 20
7.149999868288688
 42
0.4142135623731044
 10
64.14221216833721
 20
9.949999868288664
 42
0.0
 10
64.14221216833721
 20
22.72499986828869
 42
0.4142135623730952
 10
63.61721216833723
 20
23.24999986828869
 42
0.0
 10
61.86721216833712
 20
23.24999986828869
 42
0.4142135623730872
 10
61.34221216833714
 20
22.72499986828871
 42
0.0
 10
61.34221216833714
 20
10.99999986828866
 42
-0.414213562373088
 10
60.29221216833719
 20
9.949999868288685
 42
0.0
 10
58.89221216833721
 20
9.949999868288685
 42
-0.4142135623731197
 10
57.84221216833714
 20
10.99999986828866
 42
0.0
 97
        0
 92
        7
 72
     1
 73
     1
 93
        8
 10
69.04221216833719
 20
22.72499986828871
 42
0.4142135623730872
 10
68.51721216833721
 20
23.24999986828869
 42
0.0
 10
66.76721216833721
 20
23.24999986828869
 42
0.4142135623731506
 10
66.24221216833712
 20
22.72499986828871
 42
0.0
 10
66.24221216833712
 20
7.674999868288676
 42
0.414213562373089
 10
66.7672121683371
 20
7.149999868288688
 42
0.0
 10
68.51721216833721
 20
7.149999868288688
 42
0.414213562373089
 10
69.04221216833719
 20
7.674999868288676
 42
0.0
 97
        0
 75
     0
 76
     1
 52
0.0
 41
0.2
 77
     0
 78
     2
 53
45.0
 43
-900.942304321123
 44
-13.20000013171125
 45
-0.4490128060534576
 46
0.4490128060534577
 79
     0
 53
135.0
 43
-900.942304321123
 44
-13.20000013171125
 45
-0.4490128060534577
 46
-0.4490128060534576
 79
     0
 47
0.057451373970553
 98
        8
 10
16.07985497657933
 20
15.16717351417424
 10
22.40451501999519
 20
18.84406205073969
 10
25.16436789921568
 20
15.5118815143594
 10
30.91405999519316
 20
16.20129751473019
 10
41.83847203251276
 20
16.6609097822718
 10
46.89820090868557
 20
19.41857618469589
 10
56.55768598595637
 20
18.7291577833837
 10
67.82707963317876
 20
19.18877005092531
  0
LINE
  5
3F02
330
1A
100
AcDbEntity
  8
ZUWAKU
100
AcDbLine
 10
24.94221216833716
 20
23.24999986828865
 30
0.0
 11
26.86721216833712
 21
23.24999986828869
 31
0.0
  0
LINE
  5
3F03
330
1A
100
AcDbEntity
  8
ZUWAKU
100
AcDbLine
 10
26.86721216833712
 20
20.44999986828869
 30
0.0
 11
24.94221216833716
 21
20.44999986828869
 31
0.0
  0
LINE
  5
3F04
330
1A
100
AcDbEntity
  8
ZUWAKU
100
AcDbLine
 10
24.94221216833716
 20
9.949999868288685
 30
0.0
 11
26.86721216833712
 21
9.949999868288685
 31
0.0
  0
LINE
  5
3F05
330
1A
100
AcDbEntity
  8
ZUWAKU
100
AcDbLine
 10
26.86721216833712
 20
7.149999868288688
 30
0.0
 11
24.94221216833716
 21
7.149999868288688
 31
0.0
  0
CIRCLE
  5
3F06
330
1A
100
AcDbEntity
  8
ZUWAKU
100
AcDbCircle
 10
25.99221216833712
 20
15.19999986828869
 30
0.0
 40
1.75
  0
ARC
  5
3F07
330
1A
100
AcDbEntity
  8
ZUWAKU
100
AcDbCircle
 10
15.49221216833712
 20
18.63479784293339
 30
0.0
 40
1.4
100
AcDbArc
 50
180.0000000000016
 51
224.9999999999988
  0
LINE
  5
3F08
330
1A
100
AcDbEntity
  8
ZUWAKU
100
AcDbLine
 10
23.54221216833719
 20
19.04999986828869
 30
0.0
 11
23.54221216833719
 21
11.34999986828869
 31
0.0
  0
LINE
  5
3F09
330
1A
100
AcDbEntity
  8
ZUWAKU
100
AcDbLine
 10
20.74221216833712
 20
11.34999986828869
 30
0.0
 11
20.74221216833712
 21
19.04999986828864
 31
0.0
  0
ARC
  5
3F0A
330
1A
100
AcDbEntity
  8
ZUWAKU
100
AcDbCircle
 10
15.49221216833712
 20
18.63479784293339
 30
0.0
 40
4.199999999999999
100
AcDbArc
 50
180.0
 51
225.0
  0
ARC
  5
3F0B
330
1A
100
AcDbEntity
  8
ZUWAKU
100
AcDbCircle
 10
15.84221216833714
 20
9.949999868288685
 30
0.0
 40
2.8
100
AcDbArc
 50
270.0
 51
0.0
  0
ARC
  5
3F0C
330
1A
100
AcDbEntity
  8
ZUWAKU
100
AcDbCircle
 10
24.94221216833716
 20
11.34999986828869
 30
0.0
 40
4.199999999999999
100
AcDbArc
 50
180.0
 51
270.0
  0
ARC
  5
3F0D
330
1A
100
AcDbEntity
  8
ZUWAKU
100
AcDbCircle
 10
14.44221216833716
 20
11.76520189364399
 30
0.0
 40
4.199999999999999
100
AcDbArc
 50
0.0
 51
45.0
  0
LINE
  5
3F0E
330
1A
100
AcDbEntity
  8
ZUWAKU
100
AcDbLine
 10
17.41206064932067
 20
14.73505037462751
 30
0.0
 11
14.50226267467599
 21
17.64484834927219
 31
0.0
  0
LINE
  5
3F0F
330
1A
100
AcDbEntity
  8
ZUWAKU
100
AcDbLine
 10
15.84221216833714
 20
10.47499986828869
 30
0.0
 11
15.84221216833714
 21
11.76520189364403
 31
0.0
  0
ARC
  5
3F10
330
1A
100
AcDbEntity
  8
ZUWAKU
100
AcDbCircle
 10
15.31721216833716
 20
10.47499986828869
 30
0.0
 40
0.5249999999999999
100
AcDbArc
 50
270.0
 51
0.0
  0
ARC
  5
3F11
330
1A
100
AcDbEntity
  8
ZUWAKU
100
AcDbCircle
 10
14.44221216833716
 20
11.76520189364403
 30
0.0
 40
1.4
100
AcDbArc
 50
0.0
 51
45.0
  0
LINE
  5
3F12
330
1A
100
AcDbEntity
  8
ZUWAKU
100
AcDbLine
 10
11.81721216833716
 20
7.674999868288687
 30
0.0
 11
11.81721216833716
 21
9.424999868288687
 31
0.0
  0
ARC
  5
3F13
330
1A
100
AcDbEntity
  8
ZUWAKU
100
AcDbCircle
 10
12.34221216833714
 20
7.674999868288687
 30
0.0
 40
0.5249999999999999
100
AcDbArc
 50
180.0
 51
270.0
  0
ARC
  5
3F14
330
1A
100
AcDbEntity
  8
ZUWAKU
100
AcDbCircle
 10
12.34221216833714
 20
9.424999868288687
 30
0.0
 40
0.5249999999999999
100
AcDbArc
 50
90.0
 51
180.0
  0
LINE
  5
3F15
330
1A
100
AcDbEntity
  8
ZUWAKU
100
AcDbLine
 10
12.34221216833714
 20
7.149999868288688
 30
0.0
 11
15.84221216833714
 21
7.149999868288688
 31
0.0
  0
LINE
  5
3F16
330
1A
100
AcDbEntity
  8
ZUWAKU
100
AcDbLine
 10
12.34221216833714
 20
9.949999868288685
 30
0.0
 11
15.31721216833716
 21
9.949999868288685
 31
0.0
  0
LINE
  5
3F17
330
1A
100
AcDbEntity
  8
ZUWAKU
100
AcDbLine
 10
12.52236368735362
 20
15.66494936194987
 30
0.0
 11
15.43216166199829
 21
12.7551513873052
 31
0.0
  0
LINE
  5
3F18
330
1A
100
AcDbEntity
  8
ZUWAKU
100
AcDbLine
 10
18.64221216833721
 20
9.949999868288685
 30
0.0
 11
18.64221216833721
 21
11.76520189364403
 31
0.0
  0
ARC
  5
3F19
330
1A
100
AcDbEntity
  8
ZUWAKU
100
AcDbCircle
 10
24.94221216833716
 20
11.34999986828869
 30
0.0
 40
1.4
100
AcDbArc
 50
180.0
 51
270.0
  0
ARC
  5
3F1A
330
1A
100
AcDbEntity
  8
ZUWAKU
100
AcDbCircle
 10
17.59221216833714
 20
22.72499986828868
 30
0.0
 40
0.5249999999999999
100
AcDbArc
 50
0.0
 51
90.0
  0
ARC
  5
3F1B
330
1A
100
AcDbEntity
  8
ZUWAKU
100
AcDbCircle
 10
17.59221216833714
 20
20.97499986828868
 30
0.0
 40
0.5249999999999999
100
AcDbArc
 50
270.0
 51
0.0
  0
LINE
  5
3F1C
330
1A
100
AcDbEntity
  8
ZUWAKU
100
AcDbLine
 10
14.09221216833714
 20
23.24999986828869
 30
0.0
 11
17.59221216833714
 21
23.24999986828869
 31
0.0
  0
ARC
  5
3F1D
330
1A
100
AcDbEntity
  8
ZUWAKU
100
AcDbCircle
 10
14.61721216833712
 20
19.92499986828869
 30
0.0
 40
0.5249999999999999
100
AcDbArc
 50
90.0
 51
180.0
  0
LINE
  5
3F1E
330
1A
100
AcDbEntity
  8
ZUWAKU
100
AcDbLine
 10
14.09221216833714
 20
19.92499986828869
 30
0.0
 11
14.09221216833714
 21
18.63479784293335
 31
0.0
  0
LINE
  5
3F1F
330
1A
100
AcDbEntity
  8
ZUWAKU
100
AcDbLine
 10
17.59221216833714
 20
20.44999986828869
 30
0.0
 11
14.61721216833712
 21
20.44999986828869
 31
0.0
  0
LINE
  5
3F20
330
1A
100
AcDbEntity
  8
ZUWAKU
100
AcDbLine
 10
11.29221216833719
 20
20.44999986828869
 30
0.0
 11
11.29221216833719
 21
18.63479784293335
 31
0.0
  0
ARC
  5
3F21
330
1A
100
AcDbEntity
  8
ZUWAKU
100
AcDbCircle
 10
14.09221216833714
 20
20.44999986828869
 30
0.0
 40
2.8
100
AcDbArc
 50
90.0
 51
180.0
  0
LINE
  5
3F22
330
1A
100
AcDbEntity
  8
ZUWAKU
100
AcDbLine
 10
18.11721216833712
 20
22.72499986828868
 30
0.0
 11
18.11721216833712
 21
20.97499986828868
 31
0.0
  0
ARC
  5
3F23
330
1A
100
AcDbEntity
  8
ZUWAKU
100
AcDbCircle
 10
24.94221216833716
 20
19.04999986828869
 30
0.0
 40
1.4
100
AcDbArc
 50
90.0
 51
180.0
  0
ARC
  5
3F24
330
1A
100
AcDbEntity
  8
ZUWAKU
100
AcDbCircle
 10
24.94221216833716
 20
19.04999986828864
 30
0.0
 40
4.199999999999999
100
AcDbArc
 50
90.0
 51
180.0
  0
LINE
  5
3F25
330
1A
100
AcDbEntity
  8
ZUWAKU
100
AcDbLine
 10
79.32662956154422
 20
29.99999986828868
 30
0.0
 11
79.32662956154445
 21
0.7999998682887508
 31
0.0
  0
LINE
  5
3F26
330
1A
100
AcDbEntity
  8
ZUWAKU
100
AcDbLine
 10
79.52662956154427
 20
29.99999986828868
 30
0.0
 11
79.5266295615445
 21
0.7999998682887508
 31
0.0
  0
LINE
  5
3F27
330
1A
100
AcDbEntity
  8
ZUWAKU
100
AcDbLine
 10
79.12662956154441
 20
29.99999986828868
 30
0.0
 11
79.12662956154441
 21
0.7999998682887508
 31
0.0
  0
LINE
  5
3F28
330
1A
100
AcDbEntity
  8
ZUWAKU
100
AcDbLine
 10
64.14221216833721
 20
9.949999868288685
 30
0.0
 11
64.14221216833721
 21
22.72499986828868
 31
0.0
  0
LINE
  5
3F29
330
1A
100
AcDbEntity
  8
ZUWAKU
100
AcDbLine
 10
61.34221216833714
 20
22.72499986828868
 30
0.0
 11
61.34221216833714
 21
10.99999986828868
 31
0.0
  0
LINE
  5
3F2A
330
1A
100
AcDbEntity
  8
ZUWAKU
100
AcDbLine
 10
69.04221216833719
 20
7.674999868288687
 30
0.0
 11
69.04221216833719
 21
22.72499986828868
 31
0.0
  0
LINE
  5
3F2B
330
1A
100
AcDbEntity
  8
ZUWAKU
100
AcDbLine
 10
66.24221216833712
 20
22.72499986828868
 30
0.0
 11
66.24221216833712
 21
7.674999868288687
 31
0.0
  0
ARC
  5
3F2C
330
1A
100
AcDbEntity
  8
ZUWAKU
100
AcDbCircle
 10
49.79221216833719
 20
18.63479784293339
 30
0.0
 40
1.4
100
AcDbArc
 50
180.0000000000016
 51
224.9999999999988
  0
ARC
  5
3F2D
330
1A
100
AcDbEntity
  8
ZUWAKU
100
AcDbCircle
 10
49.79221216833719
 20
18.63479784293339
 30
0.0
 40
4.199999999999999
100
AcDbArc
 50
180.0
 51
225.0
  0
LINE
  5
3F2E
330
1A
100
AcDbEntity
  8
ZUWAKU
100
AcDbLine
 10
37.31485865051513
 20
19.20504706185211
 30
0.0
 11
36.05010690517929
 21
15.19999986828871
 31
0.0
  0
LINE
  5
3F2F
330
1A
100
AcDbEntity
  8
ZUWAKU
100
AcDbLine
 10
40.69221216833716
 20
22.72499986828868
 30
0.0
 11
40.69221216833716
 21
7.674999868288687
 31
0.0
  0
LINE
  5
3F30
330
1A
100
AcDbEntity
  8
ZUWAKU
100
AcDbLine
 10
43.49221216833712
 20
7.674999868288687
 30
0.0
 11
43.49221216833712
 21
22.72499986828868
 31
0.0
  0
LINE
  5
3F31
330
1A
100
AcDbEntity
  8
ZUWAKU
100
AcDbLine
 10
55.04221216833719
 20
22.72499986828868
 30
0.0
 11
55.04221216833719
 21
9.949999868288685
 31
0.0
  0
LINE
  5
3F32
330
1A
100
AcDbEntity
  8
ZUWAKU
100
AcDbLine
 10
57.84221216833714
 20
10.99999986828868
 30
0.0
 11
57.84221216833714
 21
22.72499986828868
 31
0.0
  0
LINE
  5
3F33
330
1A
100
AcDbEntity
  8
ZUWAKU
100
AcDbLine
 10
32.64221216833721
 20
17.12499986828869
 30
0.0
 11
32.64221216833721
 21
22.72499986828868
 31
0.0
  0
LINE
  5
3F34
330
1A
100
AcDbEntity
  8
ZUWAKU
100
AcDbLine
 10
29.84221216833714
 20
22.72499986828868
 30
0.0
 11
29.84221216833714
 21
7.674999868288687
 31
0.0
  0
LINE
  5
3F35
330
1A
100
AcDbEntity
  8
ZUWAKU
100
AcDbLine
 10
35.67634710565301
 20
22.88309383645566
 30
0.0
 11
33.80807723102123
 21
16.96690590012172
 31
0.0
  0
LINE
  5
3F36
330
1A
100
AcDbEntity
  8
ZUWAKU
100
AcDbLine
 10
60.29221216833719
 20
9.949999868288685
 30
0.0
 11
58.89221216833721
 21
9.949999868288685
 31
0.0
  0
LINE
  5
3F37
330
1A
100
AcDbEntity
  8
ZUWAKU
100
AcDbLine
 10
57.84221216833714
 20
7.149999868288688
 30
0.0
 11
61.34221216833714
 21
7.149999868288688
 31
0.0
  0
LINE
  5
3F38
330
1A
100
AcDbEntity
  8
ZUWAKU
100
AcDbLine
 10
41.21721216833714
 20
7.149999868288688
 30
0.0
 11
42.96721216833714
 21
7.149999868288688
 31
0.0
  0
LINE
  5
3F39
330
1A
100
AcDbEntity
  8
ZUWAKU
100
AcDbLine
 10
35.67634710565301
 20
7.516905900121714
 30
0.0
 11
33.80807723102123
 21
13.43309383645565
 31
0.0
  0
ARC
  5
3F3A
330
1A
100
AcDbEntity
  8
ZUWAKU
100
AcDbCircle
 10
33.30744633182587
 20
17.12499986828869
 30
0.0
 40
0.5249999999999999
100
AcDbArc
 50
270.0
 51
342.474431626277
  0
LINE
  5
3F3B
330
1A
100
AcDbEntity
  8
ZUWAKU
100
AcDbLine
 10
33.30744633182587
 20
16.59999986828868
 30
0.0
 11
33.16721216833719
 21
16.59999986828868
 31
0.0
  0
LINE
  5
3F3C
330
1A
100
AcDbEntity
  8
ZUWAKU
100
AcDbLine
 10
33.16721216833719
 20
13.79999986828869
 30
0.0
 11
33.30744633182587
 21
13.79999986828869
 31
0.0
  0
ARC
  5
3F3D
330
1A
100
AcDbEntity
  8
ZUWAKU
100
AcDbCircle
 10
33.16721216833719
 20
17.12499986828869
 30
0.0
 40
0.5249999999999999
100
AcDbArc
 50
180.0
 51
270.0
  0
LINE
  5
3F3E
330
1A
100
AcDbEntity
  8
ZUWAKU
100
AcDbLine
 10
30.36721216833712
 20
7.149999868288688
 30
0.0
 11
32.11721216833712
 21
7.149999868288688
 31
0.0
  0
ARC
  5
3F3F
330
1A
100
AcDbEntity
  8
ZUWAKU
100
AcDbCircle
 10
32.11721216833712
 20
7.674999868288687
 30
0.0
 40
0.5249999999999999
100
AcDbArc
 50
270.0
 51
0.0
  0
LINE
  5
3F40
330
1A
100
AcDbEntity
  8
ZUWAKU
100
AcDbLine
 10
32.64221216833721
 20
7.674999868288687
 30
0.0
 11
32.64221216833721
 21
13.27499986828869
 31
0.0
  0
LINE
  5
3F41
330
1A
100
AcDbEntity
  8
ZUWAKU
100
AcDbLine
 10
27.39221216833721
 20
9.424999868288687
 30
0.0
 11
27.39221216833721
 21
7.674999868288687
 31
0.0
  0
ARC
  5
3F42
330
1A
100
AcDbEntity
  8
ZUWAKU
100
AcDbCircle
 10
26.86721216833712
 20
7.674999868288687
 30
0.0
 40
0.5249999999999999
100
AcDbArc
 50
270.0
 51
0.0
  0
ARC
  5
3F43
330
1A
100
AcDbEntity
  8
ZUWAKU
100
AcDbCircle
 10
26.86721216833712
 20
9.424999868288687
 30
0.0
 40
0.5249999999999999
100
AcDbArc
 50
0.0
 51
90.0
  0
ARC
  5
3F44
330
1A
100
AcDbEntity
  8
ZUWAKU
100
AcDbCircle
 10
30.36721216833712
 20
7.674999868288687
 30
0.0
 40
0.5249999999999999
100
AcDbArc
 50
180.0
 51
270.0
  0
ARC
  5
3F45
330
1A
100
AcDbEntity
  8
ZUWAKU
100
AcDbCircle
 10
33.30744633182587
 20
13.27499986828869
 30
0.0
 40
0.5249999999999999
100
AcDbArc
 50
17.52556837372303
 51
90.0
  0
ARC
  5
3F46
330
1A
100
AcDbEntity
  8
ZUWAKU
100
AcDbCircle
 10
33.16721216833719
 20
13.27499986828869
 30
0.0
 40
0.5249999999999999
100
AcDbArc
 50
90.0
 51
180.0
  0
ARC
  5
3F47
330
1A
100
AcDbEntity
  8
ZUWAKU
100
AcDbCircle
 10
41.21721216833714
 20
7.674999868288687
 30
0.0
 40
0.5249999999999999
100
AcDbArc
 50
180.0
 51
270.0
  0
LINE
  5
3F48
330
1A
100
AcDbEntity
  8
ZUWAKU
100
AcDbLine
 10
36.17697800484848
 20
7.149999868288688
 30
0.0
 11
37.87586738445748
 21
7.149999868288688
 31
0.0
  0
ARC
  5
3F49
330
1A
100
AcDbEntity
  8
ZUWAKU
100
AcDbCircle
 10
37.87586738445748
 20
7.674999868288687
 30
0.0
 40
0.5249999999999999
100
AcDbArc
 50
270.0
 51
17.52556837372303
  0
LINE
  5
3F4A
330
1A
100
AcDbEntity
  8
ZUWAKU
100
AcDbLine
 10
38.37649828365295
 20
7.83309383645566
 30
0.0
 11
36.05010690517929
 21
15.19999986828871
 31
0.0
  0
ARC
  5
3F4B
330
1A
100
AcDbEntity
  8
ZUWAKU
100
AcDbCircle
 10
36.17697800484848
 20
7.674999868288687
 30
0.0
 40
0.5249999999999999
100
AcDbArc
 50
197.525568373723
 51
270.0
  0
ARC
  5
3F4C
330
1A
100
AcDbEntity
  8
ZUWAKU
100
AcDbCircle
 10
57.84221216833714
 20
9.949999868288685
 30
0.0
 40
2.8
100
AcDbArc
 50
180.0
 51
270.0
  0
ARC
  5
3F4D
330
1A
100
AcDbEntity
  8
ZUWAKU
100
AcDbCircle
 10
50.14221216833721
 20
9.949999868288685
 30
0.0
 40
2.8
100
AcDbArc
 50
270.0
 51
0.0
  0
LINE
  5
3F4E
330
1A
100
AcDbEntity
  8
ZUWAKU
100
AcDbLine
 10
51.71206064932073
 20
14.73505037462751
 30
0.0
 11
48.80226267467594
 21
17.64484834927219
 31
0.0
  0
LINE
  5
3F4F
330
1A
100
AcDbEntity
  8
ZUWAKU
100
AcDbLine
 10
50.14221216833721
 20
10.47499986828869
 30
0.0
 11
50.14221216833721
 21
11.76520189364403
 31
0.0
  0
ARC
  5
3F50
330
1A
100
AcDbEntity
  8
ZUWAKU
100
AcDbCircle
 10
48.74221216833712
 20
11.76520189364403
 30
0.0
 40
1.4
100
AcDbArc
 50
0.0
 51
45.0
  0
ARC
  5
3F51
330
1A
100
AcDbEntity
  8
ZUWAKU
100
AcDbCircle
 10
49.61721216833712
 20
10.47499986828869
 30
0.0
 40
0.5249999999999999
100
AcDbArc
 50
270.0
 51
0.0
  0
LINE
  5
3F52
330
1A
100
AcDbEntity
  8
ZUWAKU
100
AcDbLine
 10
46.11721216833712
 20
7.674999868288687
 30
0.0
 11
46.11721216833712
 21
9.424999868288687
 31
0.0
  0
ARC
  5
3F53
330
1A
100
AcDbEntity
  8
ZUWAKU
100
AcDbCircle
 10
46.64221216833721
 20
7.674999868288687
 30
0.0
 40
0.5249999999999999
100
AcDbArc
 50
180.0
 51
270.0
  0
ARC
  5
3F54
330
1A
100
AcDbEntity
  8
ZUWAKU
100
AcDbCircle
 10
42.96721216833714
 20
7.674999868288687
 30
0.0
 40
0.5249999999999999
100
AcDbArc
 50
270.0
 51
0.0
  0
ARC
  5
3F55
330
1A
100
AcDbEntity
  8
ZUWAKU
100
AcDbCircle
 10
46.64221216833721
 20
9.424999868288687
 30
0.0
 40
0.5249999999999999
100
AcDbArc
 50
90.0
 51
180.0
  0
LINE
  5
3F56
330
1A
100
AcDbEntity
  8
ZUWAKU
100
AcDbLine
 10
46.64221216833721
 20
9.949999868288685
 30
0.0
 11
49.61721216833712
 21
9.949999868288685
 31
0.0
  0
LINE
  5
3F57
330
1A
100
AcDbEntity
  8
ZUWAKU
100
AcDbLine
 10
46.64221216833721
 20
7.149999868288688
 30
0.0
 11
50.14221216833721
 21
7.149999868288688
 31
0.0
  0
LINE
  5
3F58
330
1A
100
AcDbEntity
  8
ZUWAKU
100
AcDbLine
 10
46.82236368735369
 20
15.66494936194987
 30
0.0
 11
49.73216166199836
 21
12.7551513873052
 31
0.0
  0
LINE
  5
3F59
330
1A
100
AcDbEntity
  8
ZUWAKU
100
AcDbLine
 10
52.94221216833716
 20
9.949999868288685
 30
0.0
 11
52.94221216833716
 21
11.76520189364403
 31
0.0
  0
ARC
  5
3F5A
330
1A
100
AcDbEntity
  8
ZUWAKU
100
AcDbCircle
 10
48.74221216833712
 20
11.76520189364399
 30
0.0
 40
4.199999999999999
100
AcDbArc
 50
0.0
 51
45.0
  0
ARC
  5
3F5B
330
1A
100
AcDbEntity
  8
ZUWAKU
100
AcDbCircle
 10
58.89221216833721
 20
10.99999986828868
 30
0.0
 40
1.05
100
AcDbArc
 50
180.0
 51
270.0
  0
ARC
  5
3F5C
330
1A
100
AcDbEntity
  8
ZUWAKU
100
AcDbCircle
 10
61.34221216833714
 20
9.949999868288685
 30
0.0
 40
2.8
100
AcDbArc
 50
270.0
 51
0.0
  0
LINE
  5
3F5D
330
1A
100
AcDbEntity
  8
ZUWAKU
100
AcDbLine
 10
66.76721216833721
 20
7.149999868288688
 30
0.0
 11
68.51721216833721
 21
7.149999868288688
 31
0.0
  0
ARC
  5
3F5E
330
1A
100
AcDbEntity
  8
ZUWAKU
100
AcDbCircle
 10
66.76721216833721
 20
7.674999868288687
 30
0.0
 40
0.5249999999999999
100
AcDbArc
 50
180.0
 51
270.0
  0
ARC
  5
3F5F
330
1A
100
AcDbEntity
  8
ZUWAKU
100
AcDbCircle
 10
60.29221216833719
 20
10.99999986828868
 30
0.0
 40
1.05
100
AcDbArc
 50
270.0
 51
0.0
  0
ARC
  5
3F60
330
1A
100
AcDbEntity
  8
ZUWAKU
100
AcDbCircle
 10
68.51721216833721
 20
7.674999868288687
 30
0.0
 40
0.5249999999999999
100
AcDbArc
 50
270.0
 51
0.0
  0
LINE
  5
3F61
330
1A
100
AcDbEntity
  8
ZUWAKU
100
AcDbLine
 10
42.96721216833714
 20
23.24999986828869
 30
0.0
 11
41.21721216833714
 21
23.24999986828869
 31
0.0
  0
ARC
  5
3F62
330
1A
100
AcDbEntity
  8
ZUWAKU
100
AcDbCircle
 10
32.11721216833712
 20
22.72499986828868
 30
0.0
 40
0.5249999999999999
100
AcDbArc
 50
0.0
 51
90.0
  0
LINE
  5
3F63
330
1A
100
AcDbEntity
  8
ZUWAKU
100
AcDbLine
 10
32.11721216833712
 20
23.24999986828869
 30
0.0
 11
30.36721216833712
 21
23.24999986828869
 31
0.0
  0
ARC
  5
3F64
330
1A
100
AcDbEntity
  8
ZUWAKU
100
AcDbCircle
 10
26.86721216833712
 20
22.72499986828868
 30
0.0
 40
0.5249999999999999
100
AcDbArc
 50
0.0
 51
90.0
  0
ARC
  5
3F65
330
1A
100
AcDbEntity
  8
ZUWAKU
100
AcDbCircle
 10
30.36721216833712
 20
22.72499986828868
 30
0.0
 40
0.5249999999999999
100
AcDbArc
 50
90.0
 51
180.0
  0
ARC
  5
3F66
330
1A
100
AcDbEntity
  8
ZUWAKU
100
AcDbCircle
 10
26.86721216833712
 20
20.97499986828868
 30
0.0
 40
0.5249999999999999
100
AcDbArc
 50
270.0
 51
0.0
  0
LINE
  5
3F67
330
1A
100
AcDbEntity
  8
ZUWAKU
100
AcDbLine
 10
27.39221216833721
 20
22.72499986828868
 30
0.0
 11
27.39221216833721
 21
20.97499986828868
 31
0.0
  0
ARC
  5
3F68
330
1A
100
AcDbEntity
  8
ZUWAKU
100
AcDbCircle
 10
41.21721216833714
 20
22.72499986828868
 30
0.0
 40
0.5249999999999999
100
AcDbArc
 50
90.0
 51
180.0
  0
LINE
  5
3F69
330
1A
100
AcDbEntity
  8
ZUWAKU
100
AcDbLine
 10
36.17697800484848
 20
23.24999986828869
 30
0.0
 11
37.87586738445748
 21
23.24999986828869
 31
0.0
  0
ARC
  5
3F6A
330
1A
100
AcDbEntity
  8
ZUWAKU
100
AcDbCircle
 10
37.87586738445748
 20
22.72499986828868
 30
0.0
 40
0.5249999999999999
100
AcDbArc
 50
342.474431626277
 51
90.0
  0
LINE
  5
3F6B
330
1A
100
AcDbEntity
  8
ZUWAKU
100
AcDbLine
 10
38.37649828365295
 20
22.56690590012172
 30
0.0
 11
37.31485865051513
 21
19.20504706185211
 31
0.0
  0
ARC
  5
3F6C
330
1A
100
AcDbEntity
  8
ZUWAKU
100
AcDbCircle
 10
36.17697800484848
 20
22.72499986828868
 30
0.0
 40
0.5249999999999999
100
AcDbArc
 50
90.0
 51
162.474431626277
  0
LINE
  5
3F6D
330
1A
100
AcDbEntity
  8
ZUWAKU
100
AcDbLine
 10
48.39221216833721
 20
23.24999986828869
 30
0.0
 11
51.89221216833721
 21
23.24999986828869
 31
0.0
  0
LINE
  5
3F6E
330
1A
100
AcDbEntity
  8
ZUWAKU
100
AcDbLine
 10
51.89221216833721
 20
20.44999986828869
 30
0.0
 11
48.91721216833719
 21
20.44999986828869
 31
0.0
  0
ARC
  5
3F6F
330
1A
100
AcDbEntity
  8
ZUWAKU
100
AcDbCircle
 10
48.91721216833719
 20
19.92499986828869
 30
0.0
 40
0.5249999999999999
100
AcDbArc
 50
90.0
 51
180.0
  0
LINE
  5
3F70
330
1A
100
AcDbEntity
  8
ZUWAKU
100
AcDbLine
 10
48.39221216833721
 20
19.92499986828869
 30
0.0
 11
48.39221216833721
 21
18.63479784293335
 31
0.0
  0
ARC
  5
3F71
330
1A
100
AcDbEntity
  8
ZUWAKU
100
AcDbCircle
 10
42.96721216833714
 20
22.72499986828868
 30
0.0
 40
0.5249999999999999
100
AcDbArc
 50
0.0
 51
90.0
  0
LINE
  5
3F72
330
1A
100
AcDbEntity
  8
ZUWAKU
100
AcDbLine
 10
45.59221216833714
 20
20.44999986828869
 30
0.0
 11
45.59221216833714
 21
18.63479784293335
 31
0.0
  0
ARC
  5
3F73
330
1A
100
AcDbEntity
  8
ZUWAKU
100
AcDbCircle
 10
48.39221216833721
 20
20.44999986828869
 30
0.0
 40
2.8
100
AcDbArc
 50
90.0
 51
180.0
  0
ARC
  5
3F74
330
1A
100
AcDbEntity
  8
ZUWAKU
100
AcDbCircle
 10
57.31721216833716
 20
22.72499986828868
 30
0.0
 40
0.5249999999999999
100
AcDbArc
 50
0.0
 51
90.0
  0
ARC
  5
3F75
330
1A
100
AcDbEntity
  8
ZUWAKU
100
AcDbCircle
 10
55.56721216833716
 20
22.72499986828868
 30
0.0
 40
0.5249999999999999
100
AcDbArc
 50
90.0
 51
180.0
  0
LINE
  5
3F76
330
1A
100
AcDbEntity
  8
ZUWAKU
100
AcDbLine
 10
57.31721216833716
 20
23.24999986828869
 30
0.0
 11
55.56721216833716
 21
23.24999986828869
 31
0.0
  0
ARC
  5
3F77
330
1A
100
AcDbEntity
  8
ZUWAKU
100
AcDbCircle
 10
51.89221216833721
 20
22.72499986828868
 30
0.0
 40
0.5249999999999999
100
AcDbArc
 50
0.0
 51
90.0
  0
ARC
  5
3F78
330
1A
100
AcDbEntity
  8
ZUWAKU
100
AcDbCircle
 10
51.89221216833721
 20
20.97499986828868
 30
0.0
 40
0.5249999999999999
100
AcDbArc
 50
270.0
 51
0.0
  0
LINE
  5
3F79
330
1A
100
AcDbEntity
  8
ZUWAKU
100
AcDbLine
 10
52.41721216833719
 20
22.72499986828868
 30
0.0
 11
52.41721216833719
 21
20.97499986828868
 31
0.0
  0
LINE
  5
3F7A
330
1A
100
AcDbEntity
  8
ZUWAKU
100
AcDbLine
 10
68.51721216833721
 20
23.24999986828869
 30
0.0
 11
66.76721216833721
 21
23.24999986828869
 31
0.0
  0
ARC
  5
3F7B
330
1A
100
AcDbEntity
  8
ZUWAKU
100
AcDbCircle
 10
66.76721216833721
 20
22.72499986828868
 30
0.0
 40
0.5249999999999999
100
AcDbArc
 50
90.0
 51
180.0
  0
ARC
  5
3F7C
330
1A
100
AcDbEntity
  8
ZUWAKU
100
AcDbCircle
 10
63.61721216833712
 20
22.72499986828868
 30
0.0
 40
0.5249999999999999
100
AcDbArc
 50
0.0
 51
90.0
  0
LINE
  5
3F7D
330
1A
100
AcDbEntity
  8
ZUWAKU
100
AcDbLine
 10
63.61721216833712
 20
23.24999986828869
 30
0.0
 11
61.86721216833712
 21
23.24999986828869
 31
0.0
  0
ARC
  5
3F7E
330
1A
100
AcDbEntity
  8
ZUWAKU
100
AcDbCircle
 10
61.86721216833712
 20
22.72499986828868
 30
0.0
 40
0.5249999999999999
100
AcDbArc
 50
90.0
 51
180.0
  0
ARC
  5
3F7F
330
1A
100
AcDbEntity
  8
ZUWAKU
100
AcDbCircle
 10
68.51721216833721
 20
22.72499986828868
 30
0.0
 40
0.5249999999999999
100
AcDbArc
 50
0.0
 51
90.0
  0
TEXT
  5
3F80
330
1A
100
AcDbEntity
  8
moji
100
AcDbText
 10
239.8272026944071
 20
18.00492092569607
 30
0.0
 40
5.6
  1
ステンレス金具上打Ⅰ型
 41
0.9
  7
ｽﾀｲﾙ1
100
AcDbText
  0
TEXT
  5
3F81
330
1A
100
AcDbEntity
  8
moji
100
AcDbText
 10
239.8272026944071
 20
3.204920925696104
 30
0.0
 40
5.6
  1
Σ９０－Ⅰ－２.０
 41
0.9
  7
ｽﾀｲﾙ1
100
AcDbText
  0
LINE
  5
3F82
330
1A
100
AcDbEntity
  8
ZUWAKU
100
AcDbLine
 10
208.246601303624
 20
29.99999986828868
 30
0.0
 11
208.246601303624
 21
0.7999998682887508
 31
0.0
  0
LINE
  5
3F83
330
1A
100
AcDbEntity
  8
ZUWAKU
100
AcDbLine
 10
208.6466013036238
 20
29.99999986828868
 30
0.0
 11
208.646601303624
 21
0.7999998682887508
 31
0.0
  0
LINE
  5
3F84
330
1A
100
AcDbEntity
  8
ZUWAKU
100
AcDbLine
 10
208.4466013036238
 20
29.99999986828868
 30
0.0
 11
208.446601303624
 21
0.7999998682887508
 31
0.0
  0
TEXT
  5
3F85
330
1A
100
AcDbEntity
  8
ZUWAKU
100
AcDbText
 10
209.7240463258336
 20
9.655356406674301
 30
0.0
 40
4.0
  1
サイズ
 41
0.9
  7
ｽﾀｲﾙ1
100
AcDbText
  0
TEXT
  5
3F86
330
1A
100
AcDbEntity
  8
ZUWAKU
100
AcDbText
 10
209.7240463258333
 20
24.05535640667426
 30
0.0
 40
4.0
  1
品名
 41
0.9
  7
ｽﾀｲﾙ1
100
AcDbText
  0
LINE
  5
3F87
330
1A
100
AcDbEntity
  8
ZUWAKU
100
AcDbLine
 10
648.8172025237602
 20
15.19999986828871
 30
0.0
 11
697.2490105620973
 21
15.19999986828872
 31
0.0
  0
LINE
  5
3F88
330
1A
100
AcDbEntity
  8
ZUWAKU
100
AcDbLine
 10
648.8172025237604
 20
15.39999986828872
 30
0.0
 11
697.2490105620973
 21
15.39999986828872
 31
0.0
  0
LINE
  5
3F89
330
1A
100
AcDbEntity
  8
ZUWAKU
100
AcDbLine
 10
648.8172025237602
 20
15.59999986828872
 30
0.0
 11
697.2490105620973
 21
15.59999986828872
 31
0.0
  0
TEXT
  5
3F8A
330
1A
100
AcDbEntity
  8
ZUWAKU
100
AcDbText
 10
658.2039377008584
 20
18.00492092569607
 30
0.0
 40
5.6
  1
　　．　　．　　
 41
0.9
  7
ｽﾀｲﾙ1
100
AcDbText
  0
LINE
  5
3F8B
330
1A
100
AcDbEntity
  8
ZUWAKU
100
AcDbLine
 10
505.1991795116969
 20
15.19999986828872
 30
0.0
 11
552.5269557796685
 21
15.19999986828872
 31
0.0
  0
LINE
  5
3F8C
330
1A
100
AcDbEntity
  8
ZUWAKU
100
AcDbLine
 10
505.1991795116969
 20
15.39999986828872
 30
0.0
 11
552.5269557796685
 21
15.39999986828872
 31
0.0
  0
LINE
  5
3F8D
330
1A
100
AcDbEntity
  8
ZUWAKU
100
AcDbLine
 10
505.1991795116969
 20
15.59999986828872
 30
0.0
 11
552.5269557796685
 21
15.59999986828872
 31
0.0
  0
TEXT
  5
3F8E
330
1A
100
AcDbEntity
  8
moji
100
AcDbText
 10
463.2464320045581
 20
11.94261758994867
 30
0.0
 40
5.6
  1
ＬＧ３５□
 41
0.9
  7
ｽﾀｲﾙ1
100
AcDbText
  0
LINE
  5
3F8F
330
1A
100
AcDbEntity
  8
ZUWAKU
100
AcDbLine
 10
447.6243639845472
 20
29.99999986828868
 30
0.0
 11
447.6243639845475
 21
0.7999998682887508
 31
0.0
  0
LINE
  5
3F90
330
1A
100
AcDbEntity
  8
ZUWAKU
100
AcDbLine
 10
447.8243639845473
 20
29.99999986828868
 30
0.0
 11
447.8243639845475
 21
0.7999998682887508
 31
0.0
  0
LINE
  5
3F91
330
1A
100
AcDbEntity
  8
ZUWAKU
100
AcDbLine
 10
447.4243639845474
 20
29.99999986828868
 30
0.0
 11
447.4243639845474
 21
0.7999998682887508
 31
0.0
  0
TEXT
  5
3F92
330
1A
100
AcDbEntity
  8
moji
100
AcDbText
 10
528.0409079858689
 20
18.00492092569607
 30
0.0
 40
5.6
  1
Ａ３
 41
0.9
  7
ｽﾀｲﾙ1
100
AcDbText
  0
LINE
  5
3F93
330
1A
100
AcDbEntity
  8
ZUWAKU
100
AcDbLine
 10
504.9991795116969
 20
29.99999986828868
 30
0.0
 11
504.9991795116971
 21
0.7999998682887508
 31
0.0
  0
LINE
  5
3F94
330
1A
100
AcDbEntity
  8
ZUWAKU
100
AcDbLine
 10
505.1991795116969
 20
29.99999986828868
 30
0.0
 11
505.1991795116971
 21
0.7999998682887508
 31
0.0
  0
LINE
  5
3F95
330
1A
100
AcDbEntity
  8
ZUWAKU
100
AcDbLine
 10
504.7991795116971
 20
29.99999986828868
 30
0.0
 11
504.7991795116971
 21
0.7999998682887508
 31
0.0
  0
TEXT
  5
3F97
330
1A
100
AcDbEntity
  8
ZUWAKU
100
AcDbText
 10
506.6766245339068
 20
9.655356406674301
 30
0.0
 40
4.0
  1
縮尺
 41
0.9
  7
ｽﾀｲﾙ1
100
AcDbText
  0
TEXT
  5
3F98
330
1A
100
AcDbEntity
  8
moji
100
AcDbText
 10
528.0409079858689
 20
3.204920925696104
 30
0.0
 40
5.6
  1
１/２
 41
0.9
  7
ｽﾀｲﾙ1
100
AcDbText
  0
TEXT
  5
3F99
330
1A
100
AcDbEntity
  8
ZUWAKU
100
AcDbText
 10
449.3018090067569
 20
24.05535640667426
 30
0.0
 40
4.0
  1
品番
 41
0.9
  7
ｽﾀｲﾙ1
100
AcDbText
  0
TEXT
  5
3F9A
330
1A
100
AcDbEntity
  8
ZUWAKU
100
AcDbText
 10
506.6766245339065
 20
24.05535640667426
 30
0.0
 40
4.0
  1
用紙
 41
0.9
  7
ｽﾀｲﾙ1
100
AcDbText
  0
LINE
  5
3F9B
330
1A
100
AcDbEntity
  8
ZUWAKU
100
AcDbLine
 10
648.6172025237604
 20
29.99999986828868
 30
0.0
 11
648.6172025237606
 21
0.7999998682887508
 31
0.0
  0
LINE
  5
3F9C
330
1A
100
AcDbEntity
  8
ZUWAKU
100
AcDbLine
 10
648.8172025237604
 20
29.99999986828868
 30
0.0
 11
648.8172025237607
 21
0.7999998682887508
 31
0.0
  0
LINE
  5
3F9D
330
1A
100
AcDbEntity
  8
ZUWAKU
100
AcDbLine
 10
648.4172025237606
 20
29.99999986828868
 30
0.0
 11
648.4172025237606
 21
0.7999998682887508
 31
0.0
  0
LINE
  5
3F9E
330
1A
100
AcDbEntity
  8
ZUWAKU
100
AcDbLine
 10
552.7269557796683
 20
29.99999986828868
 30
0.0
 11
552.7269557796685
 21
0.7999998682887508
 31
0.0
  0
LINE
  5
3F9F
330
1A
100
AcDbEntity
  8
ZUWAKU
100
AcDbLine
 10
552.9269557796683
 20
29.99999986828868
 30
0.0
 11
552.9269557796686
 21
0.7999998682887508
 31
0.0
  0
LINE
  5
3FA0
330
1A
100
AcDbEntity
  8
ZUWAKU
100
AcDbLine
 10
552.5269557796685
 20
29.99999986828868
 30
0.0
 11
552.5269557796685
 21
0.7999998682887508
 31
0.0
  0
TEXT
  5
3FA1
330
1A
100
AcDbEntity
  8
ZUWAKU
100
AcDbText
 10
650.2946475459701
 20
24.05535640667426
 30
0.0
 40
4.0
  1
DATE
 41
0.9
  7
ｽﾀｲﾙ1
100
AcDbText
  0
LINE
  5
3FA2
330
1A
100
AcDbEntity
  8
ZUWAKU
100
AcDbLine
 10
697.2490105620973
 20
29.99999986828868
 30
0.0
 11
697.2490105620973
 21
0.7999998682887508
 31
0.0
  0
LINE
  5
3FA3
330
1A
100
AcDbEntity
  8
ZUWAKU
100
AcDbLine
 10
697.4490105620973
 20
29.99999986828868
 30
0.0
 11
697.4490105620973
 21
0.7999998682887508
 31
0.0
  0
LINE
  5
3FA4
330
1A
100
AcDbEntity
  8
ZUWAKU
100
AcDbLine
 10
697.6490105620972
 20
29.99999986828868
 30
0.0
 11
697.6490105620974
 21
0.7999998682887508
 31
0.0
  0
LINE
  5
3FA5
330
1A
100
AcDbEntity
  8
ZUWAKU
100
AcDbLine
 10
697.8490105620972
 20
29.99999986828868
 30
0.0
 11
697.8490105620974
 21
0.7999998682887508
 31
0.0
  0
TEXT
  5
3FA6
330
1A
100
AcDbEntity
  8
ZUWAKU
100
AcDbText
 10
708.5280842057998
 20
17.55383920397549
 30
0.0
 40
6.0
  1
積水化学工業株式会社
 41
0.9
  7
ｽﾀｲﾙ1
100
AcDbText
  0
TEXT
  5
3FA7
330
1A
100
AcDbEntity
  8
ZUWAKU
100
AcDbText
 10
708.5280842057998
 20
6.648840182142749
 30
0.0
 40
6.0
  1
建材事業部
 41
0.9
  7
ｽﾀｲﾙ1
100
AcDbText
  0
TEXT
  5
6DB4
330
1A
100
AcDbEntity
  8
ZUWAKU
100
AcDbText
 10
462.1716760137121
 20
2.614070779428175
 30
0.0
 40
3.0
  1
□には色品番が入ります
 41
0.9
  7
ｽﾀｲﾙ1
100
AcDbText
  0
LINE
  5
837D
330
1A
100
AcDbEntity
  8
SEIHIN
  6
Continuous
 62
     3
 48
5.0
100
AcDbLine
 10
407.5067911868104
 20
158.4269868001272
 30
0.0
 11
409.2388911868104
 21
157.4268868001272
 31
0.0
  0
LINE
  5
837E
330
1A
100
AcDbEntity
  8
SEIHIN
  6
Continuous
 62
     3
 48
5.0
100
AcDbLine
 10
411.3623911868106
 20
165.1050868001271
 30
0.0
 11
407.5067911868104
 21
158.4269868001272
 31
0.0
  0
LINE
  5
837F
330
1A
100
AcDbEntity
  8
SEIHIN
  6
Continuous
 62
     3
 48
5.0
100
AcDbLine
 10
411.8874911868105
 20
102.6666868001271
 30
0.0
 11
322.7965911868104
 21
102.6666868001271
 31
0.0
  0
LINE
  5
8380
330
1A
100
AcDbEntity
  8
SEIHIN
  6
Continuous
 62
     3
 48
5.0
100
AcDbLine
 10
322.7964911868106
 20
100.6060868001272
 30
0.0
 11
411.8874911868105
 21
100.6060868001272
 31
0.0
  0
LINE
  5
8381
330
1A
100
AcDbEntity
  8
SEIHIN
  6
Continuous
 62
     3
 48
5.0
100
AcDbLine
 10
350.3619911868105
 20
98.1666868001272
 30
0.0
 11
411.9136911868105
 21
98.1666868001272
 31
0.0
  0
DIMENSION
  5
8382
330
1A
100
AcDbEntity
  8
SUNPOU
100
AcDbDimension
  2
*D1
 10
426.2420911868103
 20
208.2079640103762
 30
0.0
 11
356.6329741944455
 21
213.2079640103762
 31
0.0
 70
    32
 71
     5
 42
139.2182339847296
  3
STANDARD
100
AcDbAlignedDimension
 13
287.0238572020807
 23
182.2228820228746
 33
0.0
 14
426.2420911868103
 24
201.1508368001271
 34
0.0
100
AcDbRotatedDimension
1001
ACAD
1000
DSTYLE
1002
{
1070
   140
1040
6.0
1070
    74
1070
     0
1070
   172
1070
     1
1070
    73
1070
     0
1070
   272
1070
     2
1070
    77
1070
     3
1070
   173
1070
     1
1070
   147
1040
2.0
1070
    42
1040
6.0
1070
    44
1040
3.0
1070
    43
1040
14.0
1070
   271
1070
     0
1070
   178
1070
     4
1070
   177
1070
     4
1070
   176
1070
     4
1070
   141
1040
150.0
1070
     7
1000
_OPEN
1070
     6
1000
_OPEN
1070
    41
1040
7.0
1002
}
  0
DIMENSION
  5
8383
330
1A
100
AcDbEntity
  8
SUNPOU
100
AcDbDimension
  2
*D2
 10
414.2567478078181
 20
64.96190191457504
 30
0.0
 11
367.4443084522824
 21
69.96190191457504
 31
0.0
 70
    32
 71
     5
 42
93.62487871107152
  3
STANDARD
100
AcDbAlignedDimension
 13
320.6318690967466
 23
100.6060868001272
 33
0.0
 14
414.2567478078181
 24
100.6060868001272
 34
0.0
100
AcDbRotatedDimension
1001
ACAD
1000
DSTYLE
1002
{
1070
   140
1040
6.0
1070
    74
1070
     0
1070
   172
1070
     1
1070
    73
1070
     0
1070
   272
1070
     2
1070
    77
1070
     3
1070
   173
1070
     1
1070
   147
1040
2.0
1070
    42
1040
6.0
1070
    44
1040
3.0
1070
    43
1040
14.0
1070
   271
1070
     0
1070
   178
1070
     4
1070
   177
1070
     4
1070
   176
1070
     4
1070
   141
1040
150.0
1070
     7
1000
_OPEN
1070
     6
1000
_OPEN
1070
    41
1040
7.0
1002
}
  0
LINE
  5
8384
330
1A
100
AcDbEntity
  8
CENTER L
  6
CENTER
 62
     1
 48
5.0
100
AcDbLine
 10
594.2580911868105
 20
472.7539598262302
 30
0.0
 11
274.9289911868106
 21
472.7539598262302
 31
0.0
  0
LINE
  5
8385
330
1A
100
AcDbEntity
  8
SEIHIN
  6
Continuous
 62
     3
 48
5.0
100
AcDbLine
 10
585.5301911868106
 20
463.2539598262302
 30
0.0
 11
287.0238911868105
 21
463.2539598262302
 31
0.0
  0
LINE
  5
8386
330
1A
100
AcDbEntity
  8
SEIHIN
  6
Continuous
 62
     3
 48
5.0
100
AcDbLine
 10
287.0238911868105
 20
482.2540598262302
 30
0.0
 11
585.5301911868106
 21
482.2540598262302
 31
0.0
  0
DIMENSION
  5
8387
330
1A
100
AcDbEntity
  8
SUNPOU
 48
5.0
100
AcDbDimension
  2
*D3
 10
287.0238911868105
 20
431.8033614134395
 30
0.0
 11
436.2770911868106
 21
436.8033614134395
 31
0.0
 70
    32
 71
     5
 42
298.5064
  3
STANDARD
100
AcDbAlignedDimension
 13
585.5302911868106
 23
463.2539598262302
 33
0.0
 14
287.0238911868105
 24
463.2539598262302
 34
0.0
100
AcDbRotatedDimension
1001
ACAD
1000
DSTYLE
1002
{
1070
   140
1040
6.0
1070
    74
1070
     0
1070
   172
1070
     1
1070
    73
1070
     0
1070
   272
1070
     2
1070
    77
1070
     3
1070
   173
1070
     1
1070
   147
1040
2.0
1070
    42
1040
6.0
1070
    44
1040
3.0
1070
    43
1040
14.0
1070
   271
1070
     0
1070
   178
1070
     4
1070
   177
1070
     4
1070
   176
1070
     4
1070
   141
1040
150.0
1070
     7
1000
_OPEN
1070
     6
1000
_OPEN
1070
    41
1040
7.0
1002
}
  0
LINE
  5
8388
330
1A
100
AcDbEntity
  8
CENTER L
  6
CENTER
 62
     1
 48
5.0
100
AcDbLine
 10
187.0243399612833
 20
305.2032868001272
 30
0.0
 11
187.0234911868105
 21
91.47338680012717
 31
0.0
  0
LINE
  5
8389
330
1A
100
AcDbEntity
  8
SEIHIN
  6
Continuous
 62
     3
 48
5.0
100
AcDbLine
 10
177.5239392133236
 20
298.2032868001272
 30
0.0
 11
177.5236911868104
 21
100.6667868001272
 31
0.0
  0
LINE
  5
838A
330
1A
100
AcDbEntity
  8
SEIHIN
  6
Continuous
 62
     3
 48
5.0
100
AcDbLine
 10
196.523815200145
 20
298.2032868001272
 30
0.0
 11
196.5236911868105
 21
100.6667868001272
 31
0.0
  0
ELLIPSE
  5
838B
330
1A
100
AcDbEntity
  8
SEIHIN
  6
Continuous
 62
     3
 48
5.0
100
AcDbEllipse
 10
187.0243042454598
 20
276.2914304945503
 30
0.0
 11
-2.099999999983482
 21
8.339620913176893E-6
 31
0.0
210
0.0
220
0.0
230
0.9999999999999999
 40
0.1993407463487779
 41
-0.0000000000000483
 42
6.283185307179538
  0
LINE
  5
838C
330
1A
100
AcDbEntity
  8
CENTER L
  6
CENTER
 62
     1
 48
5.0
100
AcDbLine
 10
367.3619911868105
 20
93.21548680012722
 30
0.0
 11
367.3619911868105
 21
114.7657868001271
 31
0.0
  0
ARC
  5
838D
330
1A
100
AcDbEntity
  8
SEIHIN
  6
Continuous
 62
     3
 48
5.0
100
AcDbCircle
 10
336.3247052032761
 20
108.6944818739957
 30
0.0
 40
9.999972609471586
100
AcDbArc
 50
233.3965628292679
 51
267.8748991622293
  0
ARC
  5
838E
330
1A
100
AcDbEntity
  8
SEIHIN
  6
Continuous
 62
     3
 48
5.0
100
AcDbCircle
 10
187.0234411868105
 20
104.6172868003754
 30
0.0
 40
6.450075565801575
100
AcDbArc
 50
219.8143855317391
 51
320.185614468261
  0
LINE
  5
838F
330
1A
100
AcDbEntity
  8
SEIHIN
  6
Continuous
 62
     3
 48
5.0
100
AcDbLine
 10
335.9538911868106
 20
98.70138680012721
 30
0.0
 11
350.3619911868105
 21
98.1666868001272
 31
0.0
  0
DIMENSION
  5
8390
330
1A
100
AcDbEntity
  8
SUNPOU
  6
Continuous
 48
5.0
100
AcDbDimension
  2
*D4
 10
252.687079444808
 20
182.2228868001272
 30
0.0
 11
247.687079444808
 21
199.5108868001272
 31
0.0
 70
    32
 71
     5
 42
34.57599999999997
  3
STANDARD
100
AcDbAlignedDimension
 13
281.5582911868106
 23
216.7988868001271
 33
0.0
 14
287.0238911868105
 24
182.2228868001272
 34
0.0
 50
90.0
100
AcDbRotatedDimension
1001
ACAD
1000
DSTYLE
1002
{
1070
   140
1040
6.0
1070
    74
1070
     0
1070
   172
1070
     1
1070
    73
1070
     0
1070
   272
1070
     2
1070
    77
1070
     3
1070
   173
1070
     1
1070
   147
1040
2.0
1070
    42
1040
6.0
1070
    44
1040
3.0
1070
    43
1040
14.0
1070
   271
1070
     0
1070
   178
1070
     4
1070
   177
1070
     4
1070
   176
1070
     4
1070
   141
1040
150.0
1070
     7
1000
_OPEN
1070
     6
1000
_OPEN
1070
    41
1040
7.0
1002
}
  0
DIMENSION
  5
8391
330
1A
100
AcDbEntity
  8
SUNPOU
  6
Continuous
 48
5.0
100
AcDbDimension
  2
*D5
 10
252.687079444808
 20
100.6060868001272
 30
0.0
 11
247.687079444808
 21
141.4144868001272
 31
0.0
 70
    32
 71
     5
 42
81.61679999999994
  3
STANDARD
100
AcDbAlignedDimension
 13
287.0238911868105
 23
182.2228868001272
 33
0.0
 14
322.7964911868106
 24
100.6060868001272
 34
0.0
 50
90.0
100
AcDbRotatedDimension
1001
ACAD
1000
DSTYLE
1002
{
1070
   140
1040
6.0
1070
    74
1070
     0
1070
   172
1070
     1
1070
    73
1070
     0
1070
   272
1070
     2
1070
    77
1070
     3
1070
   173
1070
     1
1070
   147
1040
2.0
1070
    42
1040
6.0
1070
    44
1040
3.0
1070
    43
1040
14.0
1070
   271
1070
     0
1070
   178
1070
     4
1070
   177
1070
     4
1070
   176
1070
     4
1070
   141
1040
150.0
1070
     7
1000
_OPEN
1070
     6
1000
_OPEN
1070
    41
1040
7.0
1002
}
  0
DIMENSION
  5
8392
330
1A
100
AcDbEntity
  8
SUNPOU
100
AcDbDimension
  2
*D6
 10
306.6075313172267
 20
143.4717950037751
 30
0.0
 11
282.3459590334343
 21
140.0620867584383
 31
0.0
 70
   161
  1
t<>
 71
     5
 42
1.999957784212029
  3
STANDARD
100
AcDbAlignedDimension
 13
310.5811858948184
 23
129.5679244551131
 33
0.0
 14
308.6006911868105
 24
129.2895868001272
 34
0.0
1001
ACAD
1000
DSTYLE
1002
{
1070
   288
1070
     1
1070
   140
1040
6.0
1070
    74
1070
     0
1070
   172
1070
     1
1070
    73
1070
     0
1070
   272
1070
     2
1070
    77
1070
     3
1070
   173
1070
     1
1070
   147
1040
2.0
1070
    42
1040
6.0
1070
    44
1040
3.0
1070
    43
1040
14.0
1070
   271
1070
     1
1070
   178
1070
     4
1070
   177
1070
     4
1070
   176
1070
     4
1070
   141
1040
150.0
1070
     7
1000
_OPEN
1070
     6
1000
_OPEN
1070
    41
1040
7.0
1002
}
  0
LINE
  5
8393
330
1A
100
AcDbEntity
  8
SEIHIN
  6
Continuous
 62
     3
 48
5.0
100
AcDbLine
 10
194.0238911868105
 20
215.0007868001272
 30
0.0
 11
194.0237911868105
 21
182.2232868001272
 31
0.0
  0
LINE
  5
8394
330
1A
100
AcDbEntity
  8
SEIHIN
  6
Continuous
 62
     3
 48
5.0
100
AcDbLine
 10
180.0238911868105
 20
214.8841868001272
 30
0.0
 11
180.0238911868105
 21
182.2232868001272
 31
0.0
  0
LINE
  5
8395
330
1A
100
AcDbEntity
  8
SEIHIN
  6
Continuous
 62
     3
 48
5.0
100
AcDbLine
 10
196.5237911868105
 20
114.8540868001271
 30
0.0
 11
177.5237911868105
 21
114.8540868001271
 31
0.0
  0
LINE
  5
8396
330
1A
100
AcDbEntity
  8
SEIHIN
  6
Continuous
 62
     3
 48
5.0
100
AcDbLine
 10
196.5237911868105
 20
100.6667868001272
 30
0.0
 11
177.5237911868105
 21
100.6667868001272
 31
0.0
  0
ARC
  5
8397
330
1A
100
AcDbEntity
  8
SEIHIN
  6
Continuous
 62
     3
 48
5.0
100
AcDbCircle
 10
181.6849741420888
 20
100.1670947802546
 30
0.0
 40
0.4999920201631355
100
AcDbArc
 50
39.82122477698756
 51
89.99804678760314
  0
ARC
  5
8398
330
1A
100
AcDbEntity
  8
SEIHIN
  6
Continuous
 62
     3
 48
5.0
100
AcDbCircle
 10
192.3620262169645
 20
100.1670563769784
 30
0.0
 40
0.5000304273696242
100
AcDbArc
 50
89.99255545708147
 51
140.1767152524549
  0
ARC
  5
8399
330
1A
100
AcDbEntity
  8
SEIHIN
  6
Continuous
 62
     3
 48
5.0
100
AcDbCircle
 10
180.523771520015
 20
179.2652635300085
 30
0.0
 40
2.999980333294656
100
AcDbArc
 50
99.59375077782886
 51
179.9995555705571
  0
ARC
  5
839A
330
1A
100
AcDbEntity
  8
SEIHIN
  6
Continuous
 62
     3
 48
5.0
100
AcDbCircle
 10
179.5236911868105
 20
169.3279868001273
 30
0.0
 40
2.000000000000057
100
AcDbArc
 50
180.0000000000016
 51
270.0000000000017
  0
LINE
  5
839B
330
1A
100
AcDbEntity
  8
SEIHIN
  6
Continuous
 62
     3
 48
5.0
100
AcDbLine
 10
196.5236911868105
 20
163.7089868001272
 30
0.0
 11
177.5236911868104
 21
163.7089868001272
 31
0.0
  0
ARC
  5
839C
330
1A
100
AcDbEntity
  8
SEIHIN
  6
Continuous
 62
     3
 48
5.0
100
AcDbCircle
 10
194.5236911868105
 20
169.3279868001272
 30
0.0
 40
2.0
100
AcDbArc
 50
270.0
 51
0.0
  0
LINE
  5
839D
330
1A
100
AcDbEntity
  8
SEIHIN
  6
Continuous
 62
     3
 48
5.0
100
AcDbLine
 10
187.0237911868105
 20
167.3279868001272
 30
0.0
 11
179.5236911868105
 21
167.3279868001272
 31
0.0
  0
LINE
  5
839E
330
1A
100
AcDbEntity
  8
SEIHIN
  6
Continuous
 62
     3
 48
5.0
100
AcDbLine
 10
187.0235911868106
 20
167.3279868001272
 30
0.0
 11
194.5236911868105
 21
167.3279868001272
 31
0.0
  0
ARC
  5
839F
330
1A
100
AcDbEntity
  8
SEIHIN
  6
Continuous
 62
     3
 48
5.0
100
AcDbCircle
 10
193.5237698852951
 20
179.2652120034946
 30
0.0
 40
3.000021301621327
100
AcDbArc
 50
359.9995186545549
 51
80.40752487605866
  0
LINE
  5
83A0
330
1A
100
AcDbEntity
  8
CENTER L
  6
CENTER
 62
     1
 48
5.0
100
AcDbLine
 10
184.4460911868105
 20
174.6569868001271
 30
0.0
 11
189.8792911868105
 21
174.6569868001271
 31
0.0
  0
ARC
  5
83A1
330
1A
100
AcDbEntity
  8
SEIHIN
  6
Continuous
 62
     3
 48
5.0
100
AcDbCircle
 10
187.0238911868105
 20
174.6569868001271
 30
0.0
 40
1.60010000000004
100
AcDbArc
 50
180.0
 51
0.0
  0
ARC
  5
83A2
330
1A
100
AcDbEntity
  8
SEIHIN
  6
Continuous
 62
     3
 48
5.0
100
AcDbCircle
 10
187.0238911868105
 20
174.6569868001271
 30
0.0
 40
1.60010000000004
100
AcDbArc
 50
0.0
 51
180.0
  0
ARC
  5
83A3
330
1A
100
AcDbEntity
  8
SEIHIN
  6
Continuous
 62
     3
 48
5.0
100
AcDbCircle
 10
187.0238911868105
 20
174.6569868001271
 30
0.0
 40
1.5
100
AcDbArc
 50
180.0
 51
0.0
  0
ARC
  5
83A4
330
1A
100
AcDbEntity
  8
SEIHIN
  6
Continuous
 62
     3
 48
5.0
100
AcDbCircle
 10
187.0238911868105
 20
174.6569868001271
 30
0.0
 40
1.5
100
AcDbArc
 50
0.0
 51
180.0
  0
ARC
  5
83A5
330
1A
100
AcDbEntity
  8
SEIHIN
  6
Continuous
 62
     3
 48
5.0
100
AcDbCircle
 10
187.0240857295213
 20
241.9069061588139
 30
0.0
 40
5.051819358715942
100
AcDbArc
 50
188.2135645473684
 51
351.7864354526316
  0
ARC
  5
83A6
330
1A
100
AcDbEntity
  8
SEIHIN
  6
Continuous
 62
     3
 48
5.0
100
AcDbCircle
 10
192.0239911868105
 20
214.8826868001271
 30
0.0
 40
2.000000000000028
100
AcDbArc
 50
0.0000000000008142
 51
90.0
  0
ARC
  5
83A7
330
1A
100
AcDbEntity
  8
SEIHIN
  6
Continuous
 62
     3
 48
5.0
100
AcDbCircle
 10
192.0239911868105
 20
214.7991868001272
 30
0.0
 40
2.000000000000028
100
AcDbArc
 50
0.0000000000008142
 51
90.0
  0
ARC
  5
83A8
330
1A
100
AcDbEntity
  8
SEIHIN
  6
Continuous
 62
     3
 48
5.0
100
AcDbCircle
 10
182.0239911868105
 20
214.8826868001271
 30
0.0
 40
2.000000000000014
100
AcDbArc
 50
90.0
 51
179.9999999999992
  0
ARC
  5
83A9
330
1A
100
AcDbEntity
  8
SEIHIN
  6
Continuous
 62
     3
 48
5.0
100
AcDbCircle
 10
182.0239911868105
 20
214.7991868001272
 30
0.0
 40
2.000000000000014
100
AcDbArc
 50
90.0
 51
179.9999999999992
  0
LINE
  5
83AA
330
1A
100
AcDbEntity
  8
SEIHIN
  6
Continuous
 62
     3
 48
5.0
100
AcDbLine
 10
190.2740506630285
 20
232.3550868001272
 30
0.0
 11
190.2739888866892
 21
216.7991868001272
 31
0.0
  0
LINE
  5
83AB
330
1A
100
AcDbEntity
  8
SEIHIN
  6
Continuous
 62
     3
 48
5.0
100
AcDbLine
 10
183.7740506629773
 20
232.3550868001272
 30
0.0
 11
183.773988886638
 21
216.7991868001272
 31
0.0
  0
LINE
  5
83AC
330
1A
100
AcDbEntity
  8
SEIHIN
  6
Continuous
 62
     3
 48
5.0
100
AcDbLine
 10
182.0239911868105
 20
216.8826868001271
 30
0.0
 11
187.0239911868105
 21
216.8826868001271
 31
0.0
  0
LINE
  5
83AD
330
1A
100
AcDbEntity
  8
SEIHIN
  6
Continuous
 62
     3
 48
5.0
100
AcDbLine
 10
182.0239911868105
 20
216.7991868001272
 30
0.0
 11
187.0239911868105
 21
216.7991868001272
 31
0.0
  0
LINE
  5
83AE
330
1A
100
AcDbEntity
  8
SEIHIN
  6
Continuous
 62
     3
 48
5.0
100
AcDbLine
 10
192.0239911868105
 20
216.8826868001271
 30
0.0
 11
187.0239911868105
 21
216.8826868001271
 31
0.0
  0
LINE
  5
83AF
330
1A
100
AcDbEntity
  8
SEIHIN
  6
Continuous
 62
     3
 48
5.0
100
AcDbLine
 10
192.0239911868105
 20
216.7991868001272
 30
0.0
 11
187.0239911868105
 21
216.7991868001272
 31
0.0
  0
LINE
  5
83B0
330
1A
100
AcDbEntity
  8
SEIHIN
  6
Continuous
 62
     3
 48
5.0
100
AcDbLine
 10
190.2740506630285
 20
232.3550868001272
 30
0.0
 11
183.7740506629773
 21
232.3550868001272
 31
0.0
  0
LINE
  5
83B1
330
1A
100
AcDbEntity
  8
SEIHIN
  6
Continuous
 62
     3
 48
5.0
100
AcDbLine
 10
182.024183869015
 20
265.8977026273947
 30
0.0
 11
177.5238986504838
 21
265.8977026273948
 31
0.0
  0
LINE
  5
83B2
330
1A
100
AcDbEntity
  8
SEIHIN
  6
Continuous
 62
     3
 48
5.0
100
AcDbLine
 10
192.0242171553203
 20
274.2795073253467
 30
0.0
 11
192.0240857295607
 21
241.1851868001277
 31
0.0
  0
LINE
  5
83B3
330
1A
100
AcDbEntity
  8
SEIHIN
  6
Continuous
 62
     3
 48
5.0
100
AcDbLine
 10
182.0242171552414
 20
274.2795073253467
 30
0.0
 11
182.0240857294819
 21
241.185186800127
 31
0.0
  0
LINE
  5
83B4
330
1A
100
AcDbEntity
  8
SEIHIN
  6
Continuous
 62
     3
 48
5.0
100
AcDbLine
 10
196.5237949187124
 20
265.8977026273948
 30
0.0
 11
192.0241838690938
 21
265.8977026273948
 31
0.0
  0
ARC
  5
83B5
330
1A
100
AcDbEntity
  8
SEIHIN
 48
5.0
100
AcDbCircle
 10
187.0241838690544
 20
258.8490414494851
 30
0.0
 40
8.641968780397507
100
AcDbArc
 50
54.64984215695186
 51
125.3501578430481
  0
ARC
  5
83B6
330
1A
100
AcDbEntity
  8
SEIHIN
 48
5.0
100
AcDbCircle
 10
187.0242171552809
 20
267.230846147437
 30
0.0
 40
8.641968780397507
100
AcDbArc
 50
54.64984215695186
 51
125.3501578430481
  0
LINE
  5
83B7
330
1A
100
AcDbEntity
  8
SEIHIN
  6
Continuous
 62
     3
 48
5.0
100
AcDbLine
 10
282.1527911868105
 20
216.8824868001272
 30
0.0
 11
289.3292911868105
 21
165.8187868001271
 31
0.0
  0
LINE
  5
83B8
330
1A
100
AcDbEntity
  8
SEIHIN
  6
Continuous
 62
     3
 48
5.0
100
AcDbLine
 10
288.5171911868105
 20
167.2855868001272
 30
0.0
 11
281.5585911868105
 21
216.7989868001272
 31
0.0
  0
LINE
  5
83B9
330
1A
100
AcDbEntity
  8
SEIHIN
  6
Continuous
 62
     3
 48
5.0
100
AcDbLine
 10
308.6006911868105
 20
129.2895868001272
 30
0.0
 11
304.7371911868106
 21
156.7800868001272
 31
0.0
  0
LINE
  5
83BA
330
1A
100
AcDbEntity
  8
SEIHIN
  6
Continuous
 62
     3
 48
5.0
100
AcDbLine
 10
310.5811911868105
 20
129.5678868001271
 30
0.0
 11
306.7176911868106
 21
157.0584868001271
 31
0.0
  0
ARC
  5
83BB
330
1A
100
AcDbEntity
  8
SEIHIN
  6
Continuous
 62
     3
 48
5.0
100
AcDbCircle
 10
327.9108893602796
 20
132.0034894651787
 30
0.0
 40
17.5000032004285
100
AcDbArc
 50
187.9999105761421
 51
240.8507993532658
  0
ARC
  5
83BC
330
1A
100
AcDbEntity
  8
SEIHIN
  6
Continuous
 62
     3
 48
5.0
100
AcDbCircle
 10
327.9109115469927
 20
132.0034570930834
 30
0.0
 40
19.49999236732628
100
AcDbArc
 50
187.9999877947369
 51
240.8506095322657
  0
LINE
  5
83BD
330
1A
100
AcDbEntity
  8
SEIHIN
  6
Continuous
 62
     3
 48
5.0
100
AcDbLine
 10
320.3208911868104
 20
102.8187868001271
 30
0.0
 11
318.6642911868105
 21
114.6059868001272
 31
0.0
  0
LINE
  5
83BE
330
1A
100
AcDbEntity
  8
SEIHIN
  6
Continuous
 62
     3
 48
5.0
100
AcDbLine
 10
322.3014911868106
 20
103.0970868001271
 30
0.0
 11
320.6448911868105
 21
114.8842868001272
 31
0.0
  0
ARC
  5
83BF
330
1A
100
AcDbEntity
  8
SEIHIN
  6
Continuous
 62
     3
 48
5.0
100
AcDbCircle
 10
322.7965768189931
 20
103.1666992900648
 30
0.0
 40
2.500012489978858
100
AcDbArc
 50
187.9994908279806
 51
270.0003292844738
  0
ARC
  5
83C0
330
1A
100
AcDbEntity
  8
SEIHIN
  6
Continuous
 62
     3
 48
5.0
100
AcDbCircle
 10
322.7965525367061
 20
103.1667203978694
 30
0.0
 40
0.5000335992360535
100
AcDbArc
 50
188.0049027930061
 51
270.004428678113
  0
ARC
  5
83C1
330
1A
100
AcDbEntity
  8
SEIHIN
  6
Continuous
 62
     3
 48
5.0
100
AcDbCircle
 10
318.169234412349
 20
114.5363237379319
 30
0.0
 40
0.500033172429045
100
AcDbArc
 50
8.0083190588047
 51
60.86419972685702
  0
ARC
  5
83C2
330
1A
100
AcDbEntity
  8
SEIHIN
  6
Continuous
 62
     3
 48
5.0
100
AcDbCircle
 10
318.1692033878108
 20
114.5363689978162
 30
0.0
 40
2.500015375008914
100
AcDbArc
 50
7.999604482321803
 51
60.85167823227518
  0
LINE
  5
83C3
330
1A
100
AcDbEntity
  8
SEIHIN
  6
Continuous
 62
     3
 48
5.0
100
AcDbLine
 10
291.3097911868104
 20
166.0971868001272
 30
0.0
 11
289.0043911868106
 21
182.5012868001271
 31
0.0
  0
LINE
  5
83C4
330
1A
100
AcDbEntity
  8
SEIHIN
  6
Continuous
 62
     3
 48
5.0
100
AcDbLine
 10
291.8049911868105
 20
165.6666868001272
 30
0.0
 11
296.8149911868105
 21
165.6666868001272
 31
0.0
  0
LINE
  5
83C5
330
1A
100
AcDbEntity
  8
SEIHIN
  6
Continuous
 62
     3
 48
5.0
100
AcDbLine
 10
291.8049911868105
 20
163.6666868001272
 30
0.0
 11
296.8149911868105
 21
163.6666868001272
 31
0.0
  0
ARC
  5
83C6
330
1A
100
AcDbEntity
  8
SEIHIN
  6
Continuous
 62
     3
 48
5.0
100
AcDbCircle
 10
291.8049768189932
 20
166.1666992900648
 30
0.0
 40
2.500012489978901
100
AcDbArc
 50
187.9994908279806
 51
270.0003292844738
  0
LINE
  5
83C7
330
1A
100
AcDbEntity
  8
SEIHIN
  6
Continuous
 62
     3
 48
5.0
100
AcDbLine
 10
289.1114911868106
 20
167.3690868001272
 30
0.0
 11
288.5171911868105
 21
167.2854868001271
 31
0.0
  0
ARC
  5
83C8
330
1A
100
AcDbEntity
  8
SEIHIN
  6
Continuous
 62
     3
 48
5.0
100
AcDbCircle
 10
291.8049605427501
 20
166.1667134437075
 30
0.0
 40
0.5000266445193192
100
AcDbArc
 50
187.9926390646151
 51
270.0035113635471
  0
ARC
  5
83C9
330
1A
100
AcDbEntity
  8
SEIHIN
  6
Continuous
 62
     3
 48
5.0
100
AcDbCircle
 10
296.8150239866032
 20
155.6666582877288
 30
0.0
 40
8.000028512465637
100
AcDbArc
 50
8.000287387999338
 51
90.00023491037456
  0
ARC
  5
83CA
330
1A
100
AcDbEntity
  8
SEIHIN
  6
Continuous
 62
     3
 48
5.0
100
AcDbCircle
 10
296.8150077099253
 20
155.6666724368978
 30
0.0
 40
10.00001436324307
100
AcDbArc
 50
8.000470708319213
 51
90.00009467033759
  0
LINE
  5
83CB
330
1A
100
AcDbEntity
  8
SEIHIN
  6
Continuous
 62
     3
 48
5.0
100
AcDbLine
 10
286.8685911868105
 20
176.1422868001272
 30
0.0
 11
287.2646911868105
 21
176.1979868001272
 31
0.0
  0
LINE
  5
83CC
330
1A
100
AcDbEntity
  8
SEIHIN
  6
Continuous
 62
     3
 48
5.0
100
AcDbLine
 10
287.2860911868106
 20
173.1714868001272
 30
0.0
 11
287.6821911868105
 21
173.2271868001272
 31
0.0
  0
LINE
  5
83CD
330
1A
100
AcDbEntity
  8
SEIHIN
  6
Continuous
 62
     3
 48
5.0
100
AcDbLine
 10
287.2860911868106
 20
173.1714868001272
 30
0.0
 11
286.8685911868105
 21
176.1422868001272
 31
0.0
  0
LINE
  5
83CE
330
1A
100
AcDbEntity
  8
SEIHIN
  6
Continuous
 62
     3
 48
5.0
100
AcDbLine
 10
289.0043911868106
 20
182.5012868001271
 30
0.0
 11
287.0238911868105
 21
182.2228868001272
 31
0.0
  0
LINE
  5
83CF
330
1A
100
AcDbEntity
  8
SEIHIN
  6
Continuous
 62
     3
 48
5.0
100
AcDbLine
 10
407.8874911868104
 20
102.6666868001271
 30
0.0
 11
377.9305911868106
 21
102.6666868001271
 31
0.0
  0
LINE
  5
83D0
330
1A
100
AcDbEntity
  8
SEIHIN
  6
Continuous
 62
     3
 48
5.0
100
AcDbLine
 10
282.1525911868105
 20
216.8823868001271
 30
0.0
 11
281.5582911868106
 21
216.7988868001271
 31
0.0
  0
ELLIPSE
  5
83D1
330
1A
100
AcDbEntity
  8
SEIHIN
  6
Continuous
 62
     3
 48
5.0
100
AcDbEllipse
 10
187.0243042454598
 20
296.2096852776278
 30
0.0
 11
-2.099999999983482
 21
8.339620913176893E-6
 31
0.0
210
0.0
220
0.0
230
0.9999999999999999
 40
0.1993407463487779
 41
-0.0000000000000483
 42
6.283185307179538
  0
ELLIPSE
  5
83D2
330
1A
100
AcDbEntity
  8
SEIHIN
  6
Continuous
 62
     3
 48
5.0
100
AcDbEllipse
 10
187.0243042454598
 20
286.1872487597927
 30
0.0
 11
-2.099999999983482
 21
8.339620913176893E-6
 31
0.0
210
0.0
220
0.0
230
0.9999999999999999
 40
0.1993407463487779
 41
-0.0000000000000483
 42
6.283185307179538
  0
ARC
  5
83D3
330
1A
100
AcDbEntity
  8
SEIHIN
  6
Continuous
 62
     3
 48
5.0
100
AcDbCircle
 10
354.3619911868105
 20
472.7539598262302
 30
0.0
 40
4.0
100
AcDbArc
 50
90.0
 51
270.0
  0
ARC
  5
83D4
330
1A
100
AcDbEntity
  8
SEIHIN
  6
Continuous
 62
     3
 48
5.0
100
AcDbCircle
 10
334.4864911868106
 20
472.7539598262302
 30
0.0
 40
4.0
100
AcDbArc
 50
90.0
 51
270.0
  0
LINE
  5
83D5
330
1A
100
AcDbEntity
  8
SEIHIN
  6
Continuous
 62
     3
 48
5.0
100
AcDbLine
 10
282.1527911868105
 20
465.7539598262302
 30
0.0
 11
282.1527911868105
 21
479.7539598262302
 31
0.0
  0
LINE
  5
83D6
330
1A
100
AcDbEntity
  8
SEIHIN
  6
Continuous
 62
     3
 48
5.0
100
AcDbLine
 10
281.5585911868105
 20
465.7539598262302
 30
0.0
 11
281.5585911868105
 21
479.7539598262302
 31
0.0
  0
LINE
  5
83D7
330
1A
100
AcDbEntity
  8
SEIHIN
  6
Continuous
 62
     3
 48
5.0
100
AcDbLine
 10
291.3702911868105
 20
463.2539598262302
 30
0.0
 11
291.3702911868105
 21
482.2540598262302
 31
0.0
  0
LINE
  5
83D8
330
1A
100
AcDbEntity
  8
SEIHIN
  6
Continuous
 62
     3
 48
5.0
100
AcDbLine
 10
287.0238911868105
 20
463.2540598262302
 30
0.0
 11
287.0238911868105
 21
482.2539598262302
 31
0.0
  0
LINE
  5
83D9
330
1A
100
AcDbEntity
  8
SEIHIN
  6
Continuous
 62
     3
 48
5.0
100
AcDbLine
 10
289.0043911868106
 20
463.2540598262302
 30
0.0
 11
289.0043911868106
 21
482.2539598262302
 31
0.0
  0
LINE
  5
83DA
330
1A
100
AcDbEntity
  8
SEIHIN
  6
Continuous
 62
     3
 48
5.0
100
AcDbLine
 10
305.5078911868105
 20
463.2540598262302
 30
0.0
 11
305.5078911868105
 21
482.2539598262302
 31
0.0
  0
LINE
  5
83DB
330
1A
100
AcDbEntity
  8
SEIHIN
  6
Continuous
 62
     3
 48
5.0
100
AcDbLine
 10
320.4646911868105
 20
463.2540598262302
 30
0.0
 11
320.4646911868105
 21
482.2539598262302
 31
0.0
  0
LINE
  5
83DC
330
1A
100
AcDbEntity
  8
SEIHIN
  6
Continuous
 62
     3
 48
5.0
100
AcDbLine
 10
322.3619911868105
 20
463.2540598262302
 30
0.0
 11
322.3619911868105
 21
482.2539598262302
 31
0.0
  0
LINE
  5
83DD
330
1A
100
AcDbEntity
  8
CENTER L
  6
CENTER
 62
     1
 48
5.0
100
AcDbLine
 10
367.3619911868105
 20
460.5927598262302
 30
0.0
 11
367.3619911868105
 21
484.6868598262302
 31
0.0
  0
LINE
  5
83DE
330
1A
100
AcDbEntity
  8
SEIHIN
  6
Continuous
 62
     3
 48
5.0
100
AcDbLine
 10
407.5067911868104
 20
463.2540598262302
 30
0.0
 11
407.5067911868104
 21
482.2539598262302
 31
0.0
  0
DIMENSION
  5
83DF
330
1A
100
AcDbEntity
  8
SUNPOU
100
AcDbDimension
  2
*D7
 10
196.523815200145
 20
344.4751156455739
 30
0.0
 11
187.0238772067343
 21
349.4751156455739
 31
0.0
 70
    32
 71
     5
 42
18.99987598682139
  3
STANDARD
100
AcDbAlignedDimension
 13
177.5239392133236
 23
298.2032868001272
 33
0.0
 14
196.523815200145
 24
298.2032868001272
 34
0.0
100
AcDbRotatedDimension
1001
ACAD
1000
DSTYLE
1002
{
1070
    41
1040
7.0
1070
    42
1040
6.0
1070
    43
1040
14.0
1070
    44
1040
3.0
1070
    73
1070
     0
1070
    74
1070
     0
1070
    77
1070
     3
1070
   140
1040
6.0
1070
   141
1040
150.0
1070
   147
1040
2.0
1070
   172
1070
     1
1070
   173
1070
     1
1070
   176
1070
   256
1070
   177
1070
   256
1070
   178
1070
   256
1070
   271
1070
     0
1070
   272
1070
     0
1070
   341
1005
6D
1070
     6
1000
OPEN
1070
     7
1000
OPEN
1070
   371
1070
    -1
1070
   372
1070
    -1
1002
}
  0
LINE
  5
83E0
330
1A
100
AcDbEntity
  8
SEIHIN
  6
Continuous
 62
     3
 48
5.0
100
AcDbLine
 10
196.523815200145
 20
298.2032868001272
 30
0.0
 11
177.5239392133236
 21
298.2032868001272
 31
0.0
  0
LINE
  5
83E1
330
1A
100
AcDbEntity
  8
SEIHIN
  6
Continuous
 62
     3
 48
5.0
100
AcDbLine
 10
407.5067911868104
 20
468.7539598262302
 30
0.0
 11
334.3619911868105
 21
468.7539598262302
 31
0.0
  0
LINE
  5
83E2
330
1A
100
AcDbEntity
  8
SEIHIN
  6
Continuous
 62
     3
 48
5.0
100
AcDbLine
 10
281.5585911868105
 20
465.7539598262302
 30
0.0
 11
287.0238911868105
 21
465.7539598262302
 31
0.0
  0
LINE
  5
83E3
330
1A
100
AcDbEntity
  8
SEIHIN
  6
Continuous
 62
     3
 48
5.0
100
AcDbLine
 10
407.5067911868104
 20
476.7539598262302
 30
0.0
 11
334.4864911868106
 21
476.7539598262302
 31
0.0
  0
LINE
  5
83E4
330
1A
100
AcDbEntity
  8
SEIHIN
  6
Continuous
 62
     3
 48
5.0
100
AcDbLine
 10
287.0238911868105
 20
479.7539598262302
 30
0.0
 11
281.5585911868105
 21
479.7539598262302
 31
0.0
  0
LINE
  5
83E5
330
1A
100
AcDbEntity
  8
CENTER L
  6
CENTER
 62
     1
 48
5.0
100
AcDbLine
 10
525.2394911868105
 20
291.141186800127
 30
0.0
 11
527.7313911868102
 21
278.892086800127
 31
0.0
  0
DIMENSION
  5
83E6
330
1A
100
AcDbEntity
  8
SUNPOU
  6
Continuous
 48
5.0
100
AcDbDimension
  2
*D8
 10
623.7110074740097
 20
231.6144868001273
 30
0.0
 11
618.7110074740097
 21
264.9088868001273
 31
0.0
 70
    32
 71
     5
 42
66.58879999999979
  3
STANDARD
100
AcDbAlignedDimension
 13
585.0317911868104
 23
298.2032868001272
 33
0.0
 14
585.0285911868104
 24
231.6144868001273
 34
0.0
 50
90.0
100
AcDbRotatedDimension
1001
ACAD
1000
DSTYLE
1002
{
1070
   140
1040
6.0
1070
    74
1070
     0
1070
   172
1070
     1
1070
    73
1070
     0
1070
   272
1070
     2
1070
    77
1070
     3
1070
   173
1070
     1
1070
   147
1040
2.0
1070
    42
1040
6.0
1070
    44
1040
3.0
1070
    43
1040
14.0
1070
   271
1070
     0
1070
   178
1070
     4
1070
   177
1070
     4
1070
   176
1070
     4
1070
   141
1040
150.0
1070
     7
1000
_OPEN
1070
     6
1000
_OPEN
1070
    41
1040
7.0
1002
}
  0
DIMENSION
  5
83E7
330
1A
100
AcDbEntity
  8
SUNPOU
 48
5.0
100
AcDbDimension
  2
*D9
 10
560.7164965259178
 20
290.7051529284379
 30
0.0
 11
570.6002553250854
 21
267.2038484540076
 31
0.0
 70
    33
  1
t<>
 71
     5
 42
2.499990660157323
  3
STANDARD
100
AcDbAlignedDimension
 13
575.2325139379072
 23
296.2096349700879
 33
0.0
 14
575.7309253358937
 24
293.759831022987
 34
0.0
1001
ACAD
1000
DSTYLE
1002
{
1070
   140
1040
6.0
1070
    74
1070
     0
1070
   172
1070
     1
1070
    73
1070
     0
1070
   272
1070
     2
1070
    77
1070
     3
1070
   173
1070
     1
1070
   147
1040
2.0
1070
    42
1040
6.0
1070
    44
1040
3.0
1070
    43
1040
14.0
1070
   271
1070
     1
1070
   178
1070
     4
1070
   177
1070
     4
1070
   176
1070
     4
1070
   141
1040
150.0
1070
     7
1000
_OPEN
1070
     6
1000
_OPEN
1070
    41
1040
7.0
1002
}
  0
LINE
  5
83E8
330
1A
100
AcDbEntity
  8
SEIHIN
  6
Continuous
 62
     3
 48
5.0
100
AcDbLine
 10
428.6440911868104
 20
266.3863868001271
 30
0.0
 11
585.0317911868103
 21
298.2032868001272
 31
0.0
  0
LINE
  5
83E9
330
1A
100
AcDbEntity
  8
SEIHIN
  6
Continuous
 62
     3
 48
5.0
100
AcDbLine
 10
429.1424911868103
 20
263.9364868001271
 30
0.0
 11
585.5301911868105
 21
295.753486800127
 31
0.0
  0
ARC
  5
83EA
330
1A
100
AcDbEntity
  8
SEIHIN
  6
Continuous
 62
     3
 48
5.0
100
AcDbCircle
 10
411.9137123899409
 20
103.6667069209626
 30
0.0
 40
5.500020120876314
100
AcDbArc
 50
269.9997791190108
 51
356.9992561333014
  0
LINE
  5
83EB
330
1A
100
AcDbEntity
  8
SEIHIN
  6
PHANTOM
 62
     6
 48
5.0
100
AcDbLine
 10
426.2420911868103
 20
71.8550868001272
 30
0.0
 11
426.2420911868103
 21
138.8550868001272
 31
0.0
  0
LINE
  5
83EC
330
1A
100
AcDbEntity
  8
SEIHIN
  6
PHANTOM
 62
     6
 48
5.0
100
AcDbLine
 10
428.7420911868104
 20
71.8550868001272
 30
0.0
 11
428.7420911868105
 21
138.8550868001271
 31
0.0
  0
LINE
  5
83ED
330
1A
100
AcDbEntity
  8
SEIHIN
  6
PHANTOM
 62
     6
 48
5.0
100
AcDbLine
 10
428.7420911868104
 20
71.8550868001272
 30
0.0
 11
426.2420911868103
 21
71.8550868001272
 31
0.0
  0
LINE
  5
83EE
330
1A
100
AcDbEntity
  8
SEIHIN
  6
PHANTOM
 62
     6
 48
5.0
100
AcDbLine
 10
428.6408911868105
 20
199.7975868001272
 30
0.0
 11
585.0285911868104
 21
231.6144868001273
 31
0.0
  0
LINE
  5
83EF
330
1A
100
AcDbEntity
  8
SEIHIN
  6
PHANTOM
 62
     6
 48
5.0
100
AcDbLine
 10
429.1392911868103
 20
197.3476868001272
 30
0.0
 11
585.5269911868106
 21
229.1646868001271
 31
0.0
  0
LINE
  5
83F0
330
1A
100
AcDbEntity
  8
SEIHIN
  6
Continuous
 62
     3
 48
5.0
100
AcDbLine
 10
428.7420911868104
 20
138.8550868001272
 30
0.0
 11
428.7420911868104
 21
263.4465868001271
 31
0.0
  0
LINE
  5
83F1
330
1A
100
AcDbEntity
  8
SEIHIN
  6
Continuous
 62
     3
 48
5.0
100
AcDbLine
 10
426.2420911868103
 20
138.8550868001272
 30
0.0
 11
426.2420911868103
 21
263.4465868001271
 31
0.0
  0
LINE
  5
83F2
330
1A
100
AcDbEntity
  8
SEIHIN
  6
PHANTOM
 62
     6
 48
5.0
100
AcDbLine
 10
423.7388911868104
 20
196.8577868001272
 30
0.0
 11
423.7388911868104
 21
174.5963868001273
 31
0.0
  0
DIMENSION
  5
83F3
330
1A
100
AcDbEntity
  8
SUNPOU
100
AcDbDimension
  2
*D10
 10
517.2807138807807
 20
138.8550868001271
 30
0.0
 11
512.2807138807807
 21
201.3550562094222
 31
0.0
 70
    32
 71
     5
 42
124.9999388185899
  3
STANDARD
100
AcDbAlignedDimension
 13
428.7420911868104
 23
263.855025618717
 33
0.0
 14
428.7420911868104
 24
138.8550868001272
 34
0.0
 50
90.0
100
AcDbRotatedDimension
1001
ACAD
1000
DSTYLE
1002
{
1070
   140
1040
6.0
1070
    74
1070
     0
1070
   172
1070
     1
1070
    73
1070
     0
1070
   272
1070
     2
1070
    77
1070
     3
1070
   173
1070
     1
1070
   147
1040
2.0
1070
    42
1040
6.0
1070
    44
1040
3.0
1070
    43
1040
14.0
1070
   271
1070
     0
1070
   178
1070
     4
1070
   177
1070
     4
1070
   176
1070
     4
1070
   141
1040
150.0
1070
     7
1000
_OPEN
1070
     6
1000
_OPEN
1070
    41
1040
7.0
1002
}
  0
LINE
  5
83F4
330
1A
100
AcDbEntity
  8
SEIHIN
  6
Continuous
 62
     3
 48
5.0
100
AcDbLine
 10
442.2388911868104
 20
145.8550868001271
 30
0.0
 11
442.2388911868104
 21
150.8550868001271
 31
0.0
  0
LINE
  5
83F5
330
1A
100
AcDbEntity
  8
SEIHIN
  6
Continuous
 62
     3
 48
5.0
100
AcDbLine
 10
434.7388911868104
 20
148.3550868001272
 30
0.0
 11
434.7388911868104
 21
144.8550868001272
 31
0.0
  0
LINE
  5
83F6
330
1A
100
AcDbEntity
  8
SEIHIN
  6
Continuous
 62
     3
 48
5.0
100
AcDbLine
 10
431.7388911868104
 20
143.8550868001272
 30
0.0
 11
431.7388911868104
 21
148.3550868001272
 31
0.0
  0
ARC
  5
83F7
330
1A
100
AcDbEntity
  8
SEIHIN
  6
Continuous
 62
     3
 48
5.0
100
AcDbCircle
 10
429.3271911870278
 20
148.3551368001272
 30
0.0
 40
8.088181618569884
100
AcDbArc
 50
134.6911895971241
 51
225.3088104028757
  0
LINE
  5
83F8
330
1A
100
AcDbEntity
  8
SEIHIN
  6
Continuous
 62
     3
 48
5.0
100
AcDbLine
 10
430.2388911868104
 20
142.3550868001271
 30
0.0
 11
430.2388911868104
 21
154.3550868001272
 31
0.0
  0
LINE
  5
83F9
330
1A
100
AcDbEntity
  8
SEIHIN
  6
Continuous
 62
     3
 48
5.0
100
AcDbLine
 10
428.7388911868105
 20
142.3550868001271
 30
0.0
 11
428.7388911868105
 21
154.3550868001272
 31
0.0
  0
LINE
  5
83FA
330
1A
100
AcDbEntity
  8
SEIHIN
  6
Continuous
 62
     3
 48
5.0
100
AcDbLine
 10
423.6388911868106
 20
142.6050868001271
 30
0.0
 11
423.6388911868106
 21
154.1050868001271
 31
0.0
  0
LINE
  5
83FB
330
1A
100
AcDbEntity
  8
SEIHIN
  6
Continuous
 62
     3
 48
5.0
100
AcDbLine
 10
424.2388911868105
 20
141.1437868001272
 30
0.0
 11
424.2388911868105
 21
163.8550868001272
 31
0.0
  0
LINE
  5
83FC
330
1A
100
AcDbEntity
  8
SEIHIN
  6
Continuous
 62
     3
 48
5.0
100
AcDbLine
 10
426.2388911868104
 20
142.9157868001271
 30
0.0
 11
426.2388911868104
 21
165.9157868001272
 31
0.0
  0
DIMENSION
  5
83FD
330
1A
100
AcDbEntity
  8
SUNPOU
  6
Continuous
 48
5.0
100
AcDbDimension
  2
*D11
 10
466.5917655801543
 20
100.6060868001272
 30
0.0
 11
461.5917655801543
 21
133.4805868001272
 31
0.0
 70
    32
 71
     5
 42
65.74899999999991
  3
STANDARD
100
AcDbAlignedDimension
 13
423.7388911868105
 23
166.3550868001271
 33
0.0
 14
411.8874911868105
 24
100.6060868001272
 34
0.0
 50
90.0
100
AcDbRotatedDimension
1001
ACAD
1000
DSTYLE
1002
{
1070
   140
1040
6.0
1070
    74
1070
     0
1070
   172
1070
     1
1070
    73
1070
     0
1070
   272
1070
     2
1070
    77
1070
     3
1070
   173
1070
     1
1070
   147
1040
2.0
1070
    42
1040
6.0
1070
    44
1040
3.0
1070
    43
1040
14.0
1070
   271
1070
     0
1070
   178
1070
     4
1070
   177
1070
     4
1070
   176
1070
     4
1070
   141
1040
150.0
1070
     7
1000
_OPEN
1070
     6
1000
_OPEN
1070
    41
1040
7.0
1002
}
  0
ARC
  5
83FE
330
1A
100
AcDbEntity
  8
SEIHIN
  6
Continuous
 62
     3
 48
5.0
100
AcDbCircle
 10
440.4412125186374
 20
142.009653012618
 30
0.0
 40
1.000026709533328
100
AcDbArc
 50
343.3061002164951
 51
81.2296396660696
  0
LINE
  5
83FF
330
1A
100
AcDbEntity
  8
SEIHIN
  6
Continuous
 62
     3
 48
5.0
100
AcDbLine
 10
442.2388911868104
 20
145.8550868001271
 30
0.0
 11
434.7388911868104
 21
145.8550868001271
 31
0.0
  0
LINE
  5
8400
330
1A
100
AcDbEntity
  8
SEIHIN
  6
Continuous
 62
     3
 48
5.0
100
AcDbLine
 10
440.4564911868104
 20
138.5804868001272
 30
0.0
 11
441.3990911868106
 21
141.7223868001272
 31
0.0
  0
LINE
  5
8401
330
1A
100
AcDbEntity
  8
SEIHIN
  6
Continuous
 62
     3
 48
5.0
100
AcDbLine
 10
412.3867911868104
 20
103.1404868001272
 30
0.0
 11
413.9841911868104
 21
133.6199868001271
 31
0.0
  0
LINE
  5
8402
330
1A
100
AcDbEntity
  8
SEIHIN
  6
Continuous
 62
     3
 48
5.0
100
AcDbLine
 10
414.3840911868105
 20
103.0358868001271
 30
0.0
 11
415.9814911868105
 21
133.5153868001272
 31
0.0
  0
LINE
  5
8403
330
1A
100
AcDbEntity
  8
SEIHIN
  6
Continuous
 62
     3
 48
5.0
100
AcDbLine
 10
418.8778911868105
 20
131.4605868001272
 30
0.0
 11
417.4061911868105
 21
103.3788868001272
 31
0.0
  0
ARC
  5
8404
330
1A
100
AcDbEntity
  8
SEIHIN
  6
Continuous
 62
     3
 48
5.0
100
AcDbCircle
 10
411.8875038529777
 20
103.1666988200694
 30
0.0
 40
2.500012019974262
100
AcDbArc
 50
269.9997097142261
 51
357.0006540590017
  0
ARC
  5
8405
330
1A
100
AcDbEntity
  8
SEIHIN
  6
Continuous
 62
     3
 48
5.0
100
AcDbCircle
 10
411.8874842998155
 20
103.1666802650417
 30
0.0
 40
0.4999934649619985
100
AcDbArc
 50
270.0007892018032
 51
356.9970361317649
  0
LINE
  5
8406
330
1A
100
AcDbEntity
  8
SEIHIN
  6
Continuous
 62
     3
 48
5.0
100
AcDbLine
 10
424.9888911868104
 20
138.9786868001272
 30
0.0
 11
416.2306911868105
 21
133.9221868001272
 31
0.0
  0
ARC
  5
8407
330
1A
100
AcDbEntity
  8
SEIHIN
  6
Continuous
 62
     3
 48
5.0
100
AcDbCircle
 10
418.238917585335
 20
140.855132523152
 30
0.0
 40
7.999973601606018
100
AcDbArc
 50
299.9990638504238
 51
359.9996725318756
  0
ARC
  5
8408
330
1A
100
AcDbEntity
  8
SEIHIN
  6
Continuous
 62
     3
 48
5.0
100
AcDbCircle
 10
416.4807471397535
 20
133.4892781036648
 30
0.0
 40
2.499980508173219
100
AcDbArc
 50
120.0017386693275
 51
177.0006924918438
  0
ARC
  5
8409
330
1A
100
AcDbEntity
  8
SEIHIN
  6
Continuous
 62
     3
 48
5.0
100
AcDbCircle
 10
416.4806923203143
 20
133.4891886497276
 30
0.0
 40
0.4999879648578293
100
AcDbArc
 50
120.0009462498943
 51
176.9964653990253
  0
LINE
  5
840A
330
1A
100
AcDbEntity
  8
SEIHIN
  6
Continuous
 62
     3
 48
5.0
100
AcDbLine
 10
422.2388911868104
 20
133.9268868001271
 30
0.0
 11
419.3764911868105
 21
132.2742868001271
 31
0.0
  0
ARC
  5
840B
330
1A
100
AcDbEntity
  8
SEIHIN
  6
Continuous
 62
     3
 48
5.0
100
AcDbCircle
 10
419.876496319556
 20
131.408295176449
 30
0.0
 40
0.9999733121701204
100
AcDbArc
 50
120.001222446165
 51
177.002463480942
  0
LINE
  5
840C
330
1A
100
AcDbEntity
  8
SEIHIN
  6
Continuous
 62
     3
 48
5.0
100
AcDbLine
 10
415.2306911868105
 20
135.6542868001272
 30
0.0
 11
423.9888911868104
 21
140.7107868001272
 31
0.0
  0
ARC
  5
840D
330
1A
100
AcDbEntity
  8
SEIHIN
  6
Continuous
 62
     3
 48
5.0
100
AcDbCircle
 10
423.7388966868709
 20
141.1437963266513
 30
0.0
 40
0.4999945000303503
100
AcDbArc
 50
299.9996361095695
 51
359.9989083287435
  0
LINE
  5
840E
330
1A
100
AcDbEntity
  8
SEIHIN
  6
Continuous
 62
     3
 48
5.0
100
AcDbLine
 10
424.2388911868105
 20
142.6050868001271
 30
0.0
 11
423.6388911868106
 21
142.6050868001271
 31
0.0
  0
ARC
  5
840F
330
1A
100
AcDbEntity
  8
SEIHIN
  6
Continuous
 62
     3
 48
5.0
100
AcDbCircle
 10
440.0378132814011
 20
148.8532724335965
 30
0.0
 40
10.99998791887296
100
AcDbArc
 50
207.0245297532987
 51
266.9090982853716
  0
LINE
  5
8410
330
1A
100
AcDbEntity
  8
SEIHIN
  6
Continuous
 62
     3
 48
5.0
100
AcDbLine
 10
431.7388911868104
 20
143.8550868001272
 30
0.0
 11
434.7388911868104
 21
144.8550868001272
 31
0.0
  0
LINE
  5
8411
330
1A
100
AcDbEntity
  8
SEIHIN
  6
Continuous
 62
     3
 48
5.0
100
AcDbLine
 10
431.7388911868104
 20
143.8550868001272
 30
0.0
 11
430.2388911868104
 21
143.8550868001272
 31
0.0
  0
LINE
  5
8412
330
1A
100
AcDbEntity
  8
SEIHIN
  6
Continuous
 62
     3
 48
5.0
100
AcDbLine
 10
430.2388911868104
 20
142.3550868001271
 30
0.0
 11
428.7388911868105
 21
142.3550868001271
 31
0.0
  0
LINE
  5
8413
330
1A
100
AcDbEntity
  8
SEIHIN
  6
Continuous
 62
     3
 48
5.0
100
AcDbLine
 10
428.7420911868104
 20
138.8550868001272
 30
0.0
 11
426.2420911868103
 21
138.8550868001272
 31
0.0
  0
ARC
  5
8414
330
1A
100
AcDbEntity
  8
SEIHIN
  6
Continuous
 62
     3
 48
5.0
100
AcDbCircle
 10
423.7388753859102
 20
141.143759432396
 30
0.0
 40
2.500015801049932
100
AcDbArc
 50
300.0002090727441
 51
0.0006272182332487
  0
ARC
  5
8415
330
1A
100
AcDbEntity
  8
SEIHIN
  6
Continuous
 62
     3
 48
5.0
100
AcDbCircle
 10
443.6413132630407
 20
162.764444589958
 30
0.0
 40
21.49996124936372
100
AcDbArc
 50
245.7617414551225
 51
258.2515452047176
  0
ARC
  5
8416
330
1A
100
AcDbEntity
  8
SEIHIN
  6
Continuous
 62
     3
 48
5.0
100
AcDbCircle
 10
443.6413979330457
 20
162.7644163800397
 30
0.0
 40
19.999922775454
100
AcDbArc
 50
243.568212016552
 51
261.2344902844411
  0
ARC
  5
8417
330
1A
100
AcDbEntity
  8
SEIHIN
  6
Continuous
 62
     3
 48
5.0
100
AcDbCircle
 10
434.6096416900057
 20
142.7038842382333
 30
0.0
 40
0.4999745012297562
100
AcDbArc
 50
65.7624998808366
 51
108.4403465205712
  0
ARC
  5
8418
330
1A
100
AcDbEntity
  8
SEIHIN
  6
Continuous
 62
     3
 48
5.0
100
AcDbCircle
 10
433.7474909216473
 20
142.4164856470146
 30
0.0
 40
0.4999571081596488
100
AcDbArc
 50
108.4348782053196
 51
225.664433380474
  0
LINE
  5
8419
330
1A
100
AcDbEntity
  8
SEIHIN
  6
Continuous
 62
     3
 48
5.0
100
AcDbLine
 10
433.5893911868104
 20
142.8908868001271
 30
0.0
 11
434.4515911868104
 21
143.1781868001272
 31
0.0
  0
ARC
  5
841A
330
1A
100
AcDbEntity
  8
SEIHIN
  6
Continuous
 62
     3
 48
5.0
100
AcDbCircle
 10
439.1618986189145
 20
141.2252743200994
 30
0.0
 40
0.4999841947320298
100
AcDbArc
 50
343.2985880045593
 51
78.2529366054218
  0
LINE
  5
841B
330
1A
100
AcDbEntity
  8
SEIHIN
  6
Continuous
 62
     3
 48
5.0
100
AcDbLine
 10
439.2557911868105
 20
139.7983868001271
 30
0.0
 11
439.6407911868105
 21
141.0816868001271
 31
0.0
  0
ARC
  5
841C
330
1A
100
AcDbEntity
  8
SEIHIN
  6
Continuous
 62
     3
 48
5.0
100
AcDbCircle
 10
439.4986924701271
 20
138.8677877021801
 30
0.0
 40
0.9999600942039788
100
AcDbArc
 50
266.9043249675219
 51
343.3028803945155
  0
ARC
  5
841D
330
1A
100
AcDbEntity
  8
SEIHIN
  6
Continuous
 62
     3
 48
5.0
100
AcDbCircle
 10
440.0378331386633
 20
148.8532661599045
 30
0.0
 40
9.499987582716296
100
AcDbArc
 50
225.6594908099669
 51
261.9457964485813
  0
ARC
  5
841E
330
1A
100
AcDbEntity
  8
SEIHIN
  6
Continuous
 62
     3
 48
5.0
100
AcDbCircle
 10
438.7768633277972
 20
139.9420689702989
 30
0.0
 40
0.5000164598934604
100
AcDbArc
 50
261.9440716547302
 51
343.3003373278655
  0
LINE
  5
841F
330
1A
100
AcDbEntity
  8
SEIHIN
  6
Continuous
 62
     3
 48
5.0
100
AcDbLine
 10
440.4564911868104
 20
158.1297868001272
 30
0.0
 11
441.3990911868106
 21
154.9878868001271
 31
0.0
  0
ARC
  5
8420
330
1A
100
AcDbEntity
  8
SEIHIN
  6
Continuous
 62
     3
 48
5.0
100
AcDbCircle
 10
440.4411775436051
 20
154.700565191001
 30
0.0
 40
1.000076124557522
100
AcDbArc
 50
278.7719510417829
 51
16.69636417164215
  0
LINE
  5
8421
330
1A
100
AcDbEntity
  8
SEIHIN
  6
Continuous
 62
     3
 48
5.0
100
AcDbLine
 10
442.2388911868104
 20
146.6550868001272
 30
0.0
 11
434.7388911868104
 21
146.6550868001272
 31
0.0
  0
LINE
  5
8422
330
1A
100
AcDbEntity
  8
SEIHIN
  6
Continuous
 62
     3
 48
5.0
100
AcDbLine
 10
442.2388911868104
 20
150.0550868001272
 30
0.0
 11
434.7388911868104
 21
150.0550868001272
 31
0.0
  0
LINE
  5
8423
330
1A
100
AcDbEntity
  8
SEIHIN
  6
Continuous
 62
     3
 48
5.0
100
AcDbLine
 10
442.2388911868104
 20
150.8550868001271
 30
0.0
 11
434.7388911868104
 21
150.8550868001271
 31
0.0
  0
LINE
  5
8424
330
1A
100
AcDbEntity
  8
CENTER L
  6
CENTER
 62
     1
 48
5.0
100
AcDbLine
 10
449.2388911868103
 20
148.3550868001272
 30
0.0
 11
418.9554911868106
 21
148.3550868001272
 31
0.0
  0
ARC
  5
8425
330
1A
100
AcDbEntity
  8
SEIHIN
  6
Continuous
 62
     3
 48
5.0
100
AcDbCircle
 10
423.7388911868105
 20
163.8550868001272
 30
0.0
 40
2.499999999999886
100
AcDbArc
 50
359.9999999999992
 51
89.99999999999837
  0
LINE
  5
8426
330
1A
100
AcDbEntity
  8
SEIHIN
  6
Continuous
 62
     3
 48
5.0
100
AcDbLine
 10
413.0944911868104
 20
164.1050868001272
 30
0.0
 11
409.2388911868104
 21
157.4268868001272
 31
0.0
  0
LINE
  5
8427
330
1A
100
AcDbEntity
  8
SEIHIN
  6
Continuous
 62
     3
 48
5.0
100
AcDbLine
 10
424.2388911868105
 20
154.1050868001271
 30
0.0
 11
423.6388911868106
 21
154.1050868001271
 31
0.0
  0
LINE
  5
8428
330
1A
100
AcDbEntity
  8
SEIHIN
  6
Continuous
 62
     3
 48
5.0
100
AcDbLine
 10
413.5274911868105
 20
164.3550868001271
 30
0.0
 11
423.7388911868105
 21
164.3550868001271
 31
0.0
  0
LINE
  5
8429
330
1A
100
AcDbEntity
  8
SEIHIN
  6
Continuous
 62
     3
 48
5.0
100
AcDbLine
 10
413.5274911868105
 20
166.3550868001271
 30
0.0
 11
423.7388911868105
 21
166.3550868001271
 31
0.0
  0
ARC
  5
842A
330
1A
100
AcDbEntity
  8
SEIHIN
  6
Continuous
 62
     3
 48
5.0
100
AcDbCircle
 10
413.5275388194302
 20
163.8551143004295
 30
0.0
 40
2.499972500151379
100
AcDbArc
 50
90.00109167124016
 51
150.0003638904119
  0
ARC
  5
842B
330
1A
100
AcDbEntity
  8
SEIHIN
  6
Continuous
 62
     3
 48
5.0
100
AcDbCircle
 10
413.5275007133343
 20
163.8550923001876
 30
0.0
 40
0.4999945000302828
100
AcDbArc
 50
90.00109167122552
 51
150.000363890401
  0
ARC
  5
842C
330
1A
100
AcDbEntity
  8
SEIHIN
  6
Continuous
 62
     3
 48
5.0
100
AcDbCircle
 10
423.7388911868106
 20
163.8550868001272
 30
0.0
 40
0.4999999999999432
100
AcDbArc
 50
0.0000000000048853
 51
90.00000000000651
  0
ARC
  5
842D
330
1A
100
AcDbEntity
  8
SEIHIN
  6
Continuous
 62
     3
 48
5.0
100
AcDbCircle
 10
440.0378087535291
 20
147.8569982223935
 30
0.0
 40
10.99998522318196
100
AcDbArc
 50
93.09035722395269
 51
152.9754458692725
  0
LINE
  5
842E
330
1A
100
AcDbEntity
  8
SEIHIN
  6
Continuous
 62
     3
 48
5.0
100
AcDbLine
 10
431.7388911868104
 20
152.8550868001272
 30
0.0
 11
434.7388911868104
 21
151.8550868001272
 31
0.0
  0
LINE
  5
842F
330
1A
100
AcDbEntity
  8
SEIHIN
  6
Continuous
 62
     3
 48
5.0
100
AcDbLine
 10
431.7388911868104
 20
152.8550868001272
 30
0.0
 11
430.2388911868104
 21
152.8550868001272
 31
0.0
  0
LINE
  5
8430
330
1A
100
AcDbEntity
  8
SEIHIN
  6
Continuous
 62
     3
 48
5.0
100
AcDbLine
 10
430.2388911868104
 20
154.3550868001272
 30
0.0
 11
428.7388911868105
 21
154.3550868001272
 31
0.0
  0
LINE
  5
8431
330
1A
100
AcDbEntity
  8
SEIHIN
  6
Continuous
 62
     3
 48
5.0
100
AcDbLine
 10
430.2388911868104
 20
148.8550868001271
 30
0.0
 11
428.7388911868105
 21
148.8550868001271
 31
0.0
  0
LINE
  5
8432
330
1A
100
AcDbEntity
  8
SEIHIN
  6
Continuous
 62
     3
 48
5.0
100
AcDbLine
 10
430.2388911868104
 20
147.8550868001271
 30
0.0
 11
428.7388911868105
 21
147.8550868001271
 31
0.0
  0
LINE
  5
8433
330
1A
100
AcDbEntity
  8
SEIHIN
  6
Continuous
 62
     3
 48
5.0
100
AcDbLine
 10
431.7388911868104
 20
152.8550868001272
 30
0.0
 11
431.7388911868104
 21
148.3550868001272
 31
0.0
  0
ARC
  5
8434
330
1A
100
AcDbEntity
  8
SEIHIN
  6
Continuous
 62
     3
 48
5.0
100
AcDbCircle
 10
440.0378129533632
 20
147.856997509084
 30
0.0
 40
9.499980577636842
100
AcDbArc
 50
98.05347745405359
 51
134.3403802581441
  0
ARC
  5
8435
330
1A
100
AcDbEntity
  8
SEIHIN
  6
Continuous
 62
     3
 48
5.0
100
AcDbCircle
 10
443.64165225199
 20
133.9458391137807
 30
0.0
 40
21.50000002065114
100
AcDbArc
 50
101.7490838218896
 51
114.2392027441083
  0
ARC
  5
8436
330
1A
100
AcDbEntity
  8
SEIHIN
  6
Continuous
 62
     3
 48
5.0
100
AcDbCircle
 10
443.6415649108374
 20
133.9458101849414
 30
0.0
 40
19.99999470789232
100
AcDbArc
 50
98.76596195066854
 51
116.4318998229958
  0
ARC
  5
8437
330
1A
100
AcDbEntity
  8
SEIHIN
  6
Continuous
 62
     3
 48
5.0
100
AcDbCircle
 10
433.7475033754083
 20
154.2937338033469
 30
0.0
 40
0.5000045436260781
100
AcDbArc
 50
134.3322508858974
 51
251.5654293949822
  0
ARC
  5
8438
330
1A
100
AcDbEntity
  8
SEIHIN
  6
Continuous
 62
     3
 48
5.0
100
AcDbCircle
 10
434.6096416900057
 20
154.006389362021
 30
0.0
 40
0.4999745012297623
100
AcDbArc
 50
251.5596534794254
 51
294.2375001191599
  0
LINE
  5
8439
330
1A
100
AcDbEntity
  8
SEIHIN
  6
Continuous
 62
     3
 48
5.0
100
AcDbLine
 10
433.5893911868104
 20
153.8193868001272
 30
0.0
 11
434.4515911868104
 21
153.5320868001271
 31
0.0
  0
ARC
  5
843A
330
1A
100
AcDbEntity
  8
SEIHIN
  6
Continuous
 62
     3
 48
5.0
100
AcDbCircle
 10
438.7768633277971
 20
156.7682046299555
 30
0.0
 40
0.5000164598934942
100
AcDbArc
 50
16.6996626721309
 51
98.0559283452649
  0
ARC
  5
843B
330
1A
100
AcDbEntity
  8
SEIHIN
  6
Continuous
 62
     3
 48
5.0
100
AcDbCircle
 10
439.1618986189145
 20
155.4848992801549
 30
0.0
 40
0.4999841947320293
100
AcDbArc
 50
281.7470633945782
 51
16.70141199544229
  0
LINE
  5
843C
330
1A
100
AcDbEntity
  8
SEIHIN
  6
Continuous
 62
     3
 48
5.0
100
AcDbLine
 10
439.2557911868105
 20
156.9118868001272
 30
0.0
 11
439.6407911868105
 21
155.6285868001272
 31
0.0
  0
LINE
  5
843D
330
1A
100
AcDbEntity
  8
SEIHIN
  6
Continuous
 62
     3
 48
5.0
100
AcDbLine
 10
434.7388911868104
 20
148.3550868001272
 30
0.0
 11
434.7388911868104
 21
151.8550868001272
 31
0.0
  0
ARC
  5
843E
330
1A
100
AcDbEntity
  8
SEIHIN
  6
Continuous
 62
     3
 48
5.0
100
AcDbCircle
 10
439.4986924701271
 20
157.8424858980742
 30
0.0
 40
0.9999600942039725
100
AcDbArc
 50
16.69711960548452
 51
93.09567503247808
  0
ARC
  5
843F
330
1A
100
AcDbEntity
  8
SEIHIN
  6
PHANTOM
 62
     6
 48
5.0
100
AcDbCircle
 10
428.738879487283
 20
174.5964070643663
 30
0.0
 40
4.999988300513644
100
AcDbArc
 50
180.0002322116187
 51
240.0000774038722
  0
ARC
  5
8440
330
1A
100
AcDbEntity
  8
SEIHIN
  6
Continuous
 62
     3
 48
5.0
100
AcDbCircle
 10
428.7420794872829
 20
241.1852070643662
 30
0.0
 40
4.999988300513644
100
AcDbArc
 50
180.0002322116187
 51
240.0000774038722
  0
LINE
  5
8441
330
1A
100
AcDbEntity
  8
SEIHIN
  6
PHANTOM
 62
     6
 48
5.0
100
AcDbLine
 10
428.1424911868105
 20
202.2473868001272
 30
0.0
 11
462.6958911868103
 21
209.2771868001273
 31
0.0
  0
ARC
  5
8442
330
1A
100
AcDbEntity
  8
SEIHIN
  6
PHANTOM
 62
     6
 48
5.0
100
AcDbCircle
 10
429.2388857831688
 20
196.8577801865522
 30
0.0
 40
5.499994596362344
100
AcDbArc
 50
101.4986396209539
 51
179.9999311035797
  0
ARC
  5
8443
330
1A
100
AcDbEntity
  8
SEIHIN
  6
PHANTOM
 62
     6
 48
5.0
100
AcDbCircle
 10
463.6927355922128
 20
204.3775719420476
 30
0.0
 40
4.99999245260398
100
AcDbArc
 50
41.50030016091106
 51
101.5000729470546
  0
LINE
  5
8444
330
1A
100
AcDbEntity
  8
SEIHIN
  6
Continuous
 62
     3
 48
5.0
100
AcDbLine
 10
428.1456911868104
 20
268.8361868001271
 30
0.0
 11
462.6990911868103
 21
275.8659868001271
 31
0.0
  0
LINE
  5
8445
330
1A
100
AcDbEntity
  8
SEIHIN
  6
Continuous
 62
     3
 48
5.0
100
AcDbLine
 10
423.7420911868103
 20
263.4465868001271
 30
0.0
 11
423.7420911868103
 21
241.1851868001271
 31
0.0
  0
ARC
  5
8446
330
1A
100
AcDbEntity
  8
SEIHIN
  6
Continuous
 62
     3
 48
5.0
100
AcDbCircle
 10
429.2420857831687
 20
263.4465801865521
 30
0.0
 40
5.499994596362344
100
AcDbArc
 50
101.4986396209539
 51
179.9999311035797
  0
ARC
  5
8447
330
1A
100
AcDbEntity
  8
SEIHIN
  6
Continuous
 62
     3
 48
5.0
100
AcDbCircle
 10
429.2420935234752
 20
263.446589659958
 30
0.0
 40
3.000002336666259
100
AcDbArc
 50
101.4980133597284
 51
180.0000546187038
  0
ARC
  5
8448
330
1A
100
AcDbEntity
  8
SEIHIN
  6
Continuous
 62
     3
 48
5.0
100
AcDbCircle
 10
429.2420522687811
 20
263.4465391736297
 30
0.0
 40
0.4999610842391687
100
AcDbArc
 50
101.4865364577021
 51
179.9945419805991
  0
ARC
  5
8449
330
1A
100
AcDbEntity
  8
SEIHIN
  6
Continuous
 62
     3
 48
5.0
100
AcDbCircle
 10
463.6959355922128
 20
270.9663719420475
 30
0.0
 40
4.99999245260398
100
AcDbArc
 50
41.50030016091106
 51
101.5000729470546
  0
LINE
  5
844A
330
1A
100
AcDbEntity
  8
CENTER L
  6
CENTER
 62
     1
 48
5.0
100
AcDbLine
 10
476.2398911868105
 20
214.5841868001273
 30
0.0
 11
478.7318911868105
 21
202.3350868001273
 31
0.0
  0
LINE
  5
844B
330
1A
100
AcDbEntity
  8
CENTER L
  6
CENTER
 62
     1
 48
5.0
100
AcDbLine
 10
525.2362911868106
 20
224.5523868001271
 30
0.0
 11
527.7281911868104
 21
212.3032868001271
 31
0.0
  0
LINE
  5
844C
330
1A
100
AcDbEntity
  8
CENTER L
  6
CENTER
 62
     1
 48
5.0
100
AcDbLine
 10
476.2430911868105
 20
281.1729868001272
 30
0.0
 11
478.7350911868105
 21
268.9238868001272
 31
0.0
  0
LINE
  5
844D
330
1A
100
AcDbEntity
  8
CENTER L
  6
CENTER
 62
     1
 48
5.0
100
AcDbLine
 10
574.2324911868107
 20
234.5205868001273
 30
0.0
 11
576.7244911868106
 21
222.2714868001273
 31
0.0
  0
LINE
  5
844E
330
1A
100
AcDbEntity
  8
SEIHIN
  6
PHANTOM
 62
     6
 48
5.0
100
AcDbLine
 10
585.0285911868104
 20
231.6144868001273
 30
0.0
 11
585.5269911868106
 21
229.1645868001273
 31
0.0
  0
TEXT
  5
844F
330
1A
100
AcDbEntity
  8
SUNPOU
 62
     4
 48
5.0
100
AcDbText
 10
634.0419458614106
 20
244.1149448280351
 30
0.0
 40
6.0
  1
スライド巾
 50
90.0
100
AcDbText
  0
ELLIPSE
  5
8450
330
1A
100
AcDbEntity
  8
SEIHIN
 48
5.0
100
AcDbEllipse
 10
575.2325911868105
 20
472.7207098262302
 30
0.0
 11
-0.03282069316860373
 21
-2.062576594805492
 31
0.0
210
0.0
220
0.0
230
0.9999999999999999
 40
0.9978460793572416
 41
0.0000000000000211
 42
6.283185307179608
  0
ELLIPSE
  5
8451
330
1A
100
AcDbEntity
  8
SEIHIN
 48
5.0
100
AcDbEllipse
 10
575.730936449963
 20
472.7207098262302
 30
0.0
 11
-0.03282069316860373
 21
-2.062576594805492
 31
0.0
210
0.0
220
0.0
230
0.9999999999999999
 40
0.9978460793572416
 41
-2.881113684002316
 42
-0.2285880315022171
  0
ELLIPSE
  5
8452
330
1A
100
AcDbEntity
  8
SEIHIN
 48
5.0
100
AcDbEllipse
 10
526.734536449963
 20
472.7539598262302
 30
0.0
 11
-0.03282069316860373
 21
-2.062576594805492
 31
0.0
210
0.0
220
0.0
230
0.9999999999999999
 40
0.9978460793572416
 41
-2.881113684002323
 42
-0.2285880315022171
  0
ELLIPSE
  5
8453
330
1A
100
AcDbEntity
  8
SEIHIN
 48
5.0
100
AcDbEllipse
 10
526.2361911868105
 20
472.7539598262302
 30
0.0
 11
-0.03282069316860373
 21
-2.062576594805492
 31
0.0
210
0.0
220
0.0
230
0.9999999999999999
 40
0.9978460793572416
 41
0.0000000000000211
 42
6.283185307179608
  0
ELLIPSE
  5
8454
330
1A
100
AcDbEntity
  8
SEIHIN
 48
5.0
100
AcDbEllipse
 10
477.2396911868104
 20
472.7539598262302
 30
0.0
 11
-0.03282069316860373
 21
-2.062576594805492
 31
0.0
210
0.0
220
0.0
230
0.9999999999999999
 40
0.9978460793572416
 41
0.0000000000000211
 42
6.283185307179608
  0
ELLIPSE
  5
8455
330
1A
100
AcDbEntity
  8
SEIHIN
 48
5.0
100
AcDbEllipse
 10
477.7380364499629
 20
472.7539598262302
 30
0.0
 11
-0.03282069316860373
 21
-2.062576594805492
 31
0.0
210
0.0
220
0.0
230
0.9999999999999999
 40
0.9978460793572416
 41
-2.88111368400229
 42
-0.22858803150219
  0
LINE
  5
8456
330
1A
100
AcDbEntity
  8
CENTER L
  6
CENTER
 62
     1
 48
5.0
100
AcDbLine
 10
575.2325911868105
 20
467.9629598262302
 30
0.0
 11
575.2325911868105
 21
477.4784598262301
 31
0.0
  0
LINE
  5
8457
330
1A
100
AcDbEntity
  8
CENTER L
  6
CENTER
 62
     1
 48
5.0
100
AcDbLine
 10
526.2361911868105
 20
467.9629598262302
 30
0.0
 11
526.2361911868105
 21
477.4784598262301
 31
0.0
  0
LINE
  5
8458
330
1A
100
AcDbEntity
  8
CENTER L
  6
CENTER
 62
     1
 48
5.0
100
AcDbLine
 10
477.2396911868104
 20
467.9629598262302
 30
0.0
 11
477.2396911868104
 21
477.4784598262301
 31
0.0
  0
ARC
  5
8459
330
1A
100
AcDbEntity
  8
SEIHIN
  6
Continuous
 62
     3
 48
5.0
100
AcDbCircle
 10
462.4407911868104
 20
472.7539598262302
 30
0.0
 40
5.0
100
AcDbArc
 50
270.0
 51
90.0
  0
DIMENSION
  5
845A
330
1A
100
AcDbEntity
  8
SUNPOU
  6
Continuous
 48
5.0
100
AcDbDimension
  2
*D12
 10
624.0476746625338
 20
463.2539598262302
 30
0.0
 11
619.0476746625337
 21
472.7540098262303
 31
0.0
 70
    32
 71
     5
 42
19.00009999999998
  3
STANDARD
100
AcDbAlignedDimension
 13
585.5301911868106
 23
482.2540598262302
 33
0.0
 14
585.0320911868106
 24
463.2539598262302
 34
0.0
 50
90.0
100
AcDbRotatedDimension
1001
ACAD
1000
DSTYLE
1002
{
1070
   140
1040
6.0
1070
    74
1070
     0
1070
   172
1070
     1
1070
    73
1070
     0
1070
   272
1070
     2
1070
    77
1070
     3
1070
   173
1070
     1
1070
   147
1040
2.0
1070
    42
1040
6.0
1070
    44
1040
3.0
1070
    43
1040
14.0
1070
   271
1070
     0
1070
   178
1070
     4
1070
   177
1070
     4
1070
   176
1070
     4
1070
   141
1040
150.0
1070
     7
1000
_OPEN
1070
     6
1000
_OPEN
1070
    41
1040
7.0
1002
}
  0
LINE
  5
845B
330
1A
100
AcDbEntity
  8
SEIHIN
  6
Continuous
 62
     3
 48
5.0
100
AcDbLine
 10
585.0320911868106
 20
463.2539598262302
 30
0.0
 11
585.0320911868106
 21
482.2538598262302
 31
0.0
  0
LINE
  5
845C
330
1A
100
AcDbEntity
  8
SEIHIN
  6
Continuous
 62
     3
 48
5.0
100
AcDbLine
 10
585.5302911868106
 20
463.2539598262302
 30
0.0
 11
585.5302911868106
 21
482.2538598262302
 31
0.0
  0
ARC
  5
845D
330
1A
100
AcDbEntity
  8
SEIHIN
  6
Continuous
 62
     3
 48
5.0
100
AcDbCircle
 10
429.9920911865585
 20
472.7541193036269
 30
0.0
 40
6.249902861217819
100
AcDbArc
 50
129.0225190796936
 51
230.9763009021906
  0
LINE
  5
845E
330
1A
100
AcDbEntity
  8
SEIHIN
  6
Continuous
 62
     3
 48
5.0
100
AcDbLine
 10
412.0841911868104
 20
463.2540598262302
 30
0.0
 11
412.0841911868104
 21
482.2539598262302
 31
0.0
  0
DIMENSION
  5
845F
330
1A
100
AcDbEntity
  8
SUNPOU
100
AcDbDimension
  2
*D13
 10
508.1910336233172
 20
374.9430602649066
 30
0.0
 11
531.6924448679806
 21
384.8266441468649
 31
0.0
 70
    33
 71
     5
 42
50.0000624336609
  3
STANDARD
100
AcDbAlignedDimension
 13
562.1557700295859
 23
360.4895076122803
 33
0.0
 14
513.1593700295861
 24
350.5216076122804
 34
0.0
1001
ACAD
1000
DSTYLE
1002
{
1070
   140
1040
6.0
1070
    74
1070
     0
1070
   172
1070
     1
1070
    73
1070
     0
1070
   272
1070
     2
1070
    77
1070
     3
1070
   173
1070
     1
1070
   147
1040
2.0
1070
    42
1040
6.0
1070
    44
1040
3.0
1070
    43
1040
14.0
1070
   271
1070
     0
1070
   178
1070
     4
1070
   177
1070
     4
1070
   176
1070
     4
1070
   141
1040
150.0
1070
     7
1000
_OPEN
1070
     6
1000
_OPEN
1070
    41
1040
7.0
1002
}
  0
LINE
  5
8460
330
1A
100
AcDbEntity
  8
CENTER L
  6
CENTER
 62
     1
 48
5.0
100
AcDbLine
 10
577.0754700295862
 20
358.8335076122803
 30
0.0
 11
448.053970029586
 21
332.5842076122804
 31
0.0
  0
LINE
  5
8461
330
1A
100
AcDbEntity
  8
SEIHIN
  6
Continuous
 62
     3
 48
5.0
100
AcDbLine
 10
456.9811700295861
 20
324.7057076122803
 30
0.0
 11
574.7656700295862
 21
348.6686076122803
 31
0.0
  0
LINE
  5
8462
330
1A
100
AcDbEntity
  8
SEIHIN
  6
Continuous
 62
     3
 48
5.0
100
AcDbLine
 10
452.033079470078
 20
343.088352749537
 30
0.0
 11
570.9777794700781
 21
367.287552749537
 31
0.0
  0
DIMENSION
  5
8463
330
1A
100
AcDbEntity
  8
SUNPOU
100
AcDbDimension
  2
*D14
 10
459.1945282777722
 20
364.9750176575558
 30
0.0
 11
482.695958004345
 21
374.8586584466959
 31
0.0
 70
    33
 71
     5
 42
50.00014217746946
  3
STANDARD
100
AcDbAlignedDimension
 13
513.1593700295859
 23
350.5216076122804
 33
0.0
 14
464.16291265185
 24
340.5535896448574
 34
0.0
1001
ACAD
1000
DSTYLE
1002
{
1070
   140
1040
6.0
1070
    74
1070
     0
1070
   172
1070
     1
1070
    73
1070
     0
1070
   272
1070
     2
1070
    77
1070
     3
1070
   173
1070
     1
1070
   147
1040
2.0
1070
    42
1040
6.0
1070
    44
1040
3.0
1070
    43
1040
14.0
1070
   271
1070
     0
1070
   178
1070
     4
1070
   177
1070
     4
1070
   176
1070
     4
1070
   141
1040
150.0
1070
     7
1000
_OPEN
1070
     6
1000
_OPEN
1070
    41
1040
7.0
1002
}
  0
LINE
  5
8464
330
1A
100
AcDbEntity
  8
CENTER L
  6
CENTER
 62
     1
 48
5.0
100
AcDbLine
 10
464.162970029586
 20
340.5533076122804
 30
0.0
 11
465.9057700295862
 21
331.9868076122804
 31
0.0
  0
CIRCLE
  5
8465
330
1A
100
AcDbEntity
  8
SEIHIN
 48
5.0
100
AcDbCircle
 10
465.0795375063079
 20
336.048042929392
 30
0.0
 40
2.1
  0
LINE
  5
8466
330
1A
100
AcDbEntity
  8
CENTER L
  6
CENTER
 62
     1
 48
5.0
100
AcDbLine
 10
513.1593700295861
 20
350.5216076122804
 30
0.0
 11
514.9021700295861
 21
341.9551076122804
 31
0.0
  0
CIRCLE
  5
8467
330
1A
100
AcDbEntity
  8
SEIHIN
 48
5.0
100
AcDbCircle
 10
514.0759432841926
 20
346.0163145289736
 30
0.0
 40
2.1
  0
LINE
  5
8468
330
1A
100
AcDbEntity
  8
SEIHIN
  6
Continuous
 62
     3
 48
5.0
100
AcDbLine
 10
426.1785911868104
 20
467.7541598262303
 30
0.0
 11
462.4407911868104
 21
467.7541598262303
 31
0.0
  0
ARC
  5
8469
330
1A
100
AcDbEntity
  8
SEIHIN
  6
Continuous
 62
     3
 48
5.0
100
AcDbCircle
 10
425.7421143878868
 20
467.5102111569186
 30
0.0
 40
0.499976801292381
100
AcDbArc
 50
0.0055773510643289
 51
50.98065036641582
  0
LINE
  5
846A
330
1A
100
AcDbEntity
  8
SEIHIN
  6
Continuous
 62
     3
 48
5.0
100
AcDbLine
 10
426.2420911868104
 20
463.2539598262302
 30
0.0
 11
426.2420911868104
 21
467.5102598262301
 31
0.0
  0
DIMENSION
  5
846B
330
1A
100
AcDbEntity
  8
SUNPOU
100
AcDbDimension
  2
*D15
 10
599.911422809541
 20
353.7844349010218
 30
0.0
 11
598.0174403340956
 21
363.0938999022993
 31
0.0
 70
   161
 71
     5
 42
19.00034823126194
  3
STANDARD
100
AcDbAlignedDimension
 13
570.9777794700781
 23
367.2875527495369
 33
0.0
 14
574.7657444209691
 24
348.668622746982
 34
0.0
1001
ACAD
1000
DSTYLE
1002
{
1070
   288
1070
     1
1070
   140
1040
6.0
1070
    74
1070
     0
1070
   172
1070
     1
1070
    73
1070
     0
1070
   272
1070
     2
1070
    77
1070
     3
1070
   173
1070
     1
1070
   147
1040
2.0
1070
    42
1040
6.0
1070
    44
1040
3.0
1070
    43
1040
14.0
1070
   271
1070
     0
1070
   178
1070
     4
1070
   177
1070
     4
1070
   176
1070
     4
1070
   141
1040
150.0
1070
     7
1000
_OPEN
1070
     6
1000
_OPEN
1070
    41
1040
7.0
1002
}
  0
LEADER
  5
846C
330
1A
100
AcDbEntity
  8
SUNPOU
  6
Continuous
 62
     4
100
AcDbLeader
  3
STANDARD
 74
     0
 40
6.0
 41
31.2
 76
     3
 10
564.7808808112634
 20
357.2054929290527
 30
0.0
 10
598.7432362230916
 20
398.1702932985677
 30
0.0
 10
601.2293147372379
 20
398.1702932985677
 30
0.0
1001
ACAD
1000
DSTYLE
1002
{
1070
     6
1000
OPEN
1070
    41
1040
7.0
1070
    42
1040
6.0
1070
    43
1040
14.0
1070
    44
1040
3.0
1070
    73
1070
     0
1070
    74
1070
     0
1070
    77
1070
     3
1070
   140
1040
6.0
1070
   141
1040
150.0
1070
   147
1040
2.0
1070
   172
1070
     1
1070
   173
1070
     1
1070
   176
1070
     4
1070
   177
1070
     4
1070
   178
1070
     4
1070
   271
1070
     0
1070
   272
1070
     2
1070
   341
1005
6D
1070
   343
1005
6D
1070
   344
1005
6D
1002
}
  0
DIMENSION
  5
846D
330
1A
100
AcDbEntity
  8
SUNPOU
100
AcDbDimension
  2
*D16
 10
566.9866500115767
 20
386.9047014237138
 30
0.0
 11
586.0951939286073
 21
390.7923162928737
 31
0.0
 70
   161
 71
     5
 42
10.00016629803963
  3
STANDARD
100
AcDbAlignedDimension
 13
562.2748317491468
 23
359.9042756748157
 33
0.0
 14
572.0742479995929
 24
361.8979574796531
 34
0.0
1001
ACAD
1000
DSTYLE
1002
{
1070
   288
1070
     1
1070
   140
1040
6.0
1070
    74
1070
     0
1070
   172
1070
     1
1070
    73
1070
     0
1070
   272
1070
     2
1070
    77
1070
     3
1070
   173
1070
     1
1070
   147
1040
2.0
1070
    42
1040
6.0
1070
    44
1040
3.0
1070
    43
1040
14.0
1070
   271
1070
     0
1070
   178
1070
     4
1070
   177
1070
     4
1070
   176
1070
     4
1070
   141
1040
150.0
1070
     7
1000
_OPEN
1070
     6
1000
_OPEN
1070
    41
1040
7.0
1002
}
  0
LINE
  5
846E
330
1A
100
AcDbEntity
  8
SUNPOU
  6
Continuous
 62
     4
 48
5.0
100
AcDbLine
 10
604.6302676916566
 20
302.1907318800256
 30
0.0
 11
644.8767331877089
 21
310.2399941329248
 31
0.0
  0
LINE
  5
846F
330
1A
100
AcDbEntity
  8
SEIHIN
  6
Continuous
 62
     3
 48
5.0
100
AcDbLine
 10
585.0317911868103
 20
298.2032868001272
 30
0.0
 11
585.5301911868105
 21
295.7533868001272
 31
0.0
  0
LINE
  5
8470
330
1A
100
AcDbEntity
  8
CENTER L
  6
CENTER
 62
     1
 48
5.0
100
AcDbLine
 10
574.2356911868105
 20
301.1093868001271
 30
0.0
 11
576.7276911868105
 21
288.8602868001271
 31
0.0
  0
LINE
  5
8471
330
1A
100
AcDbEntity
  8
SEIHIN
  6
Continuous
 62
     3
 48
5.0
100
AcDbLine
 10
570.9777799637145
 20
367.2875503232037
 30
0.0
 11
574.7656700295862
 21
348.6685076122802
 31
0.0
  0
LINE
  5
8472
330
1A
100
AcDbEntity
  8
CENTER L
  6
CENTER
 62
     1
 48
5.0
100
AcDbLine
 10
562.1557700295861
 20
360.4895076122803
 30
0.0
 11
563.898570029586
 21
351.9230076122803
 31
0.0
  0
CIRCLE
  5
8473
330
1A
100
AcDbEntity
  8
SEIHIN
 48
5.0
100
AcDbCircle
 10
563.0722709189932
 20
355.98457023042
 30
0.0
 40
2.1
  0
TEXT
  5
8474
330
1A
100
AcDbEntity
  8
SUNPOU
  6
Continuous
 62
     4
 48
5.0
100
AcDbText
 10
635.4719565438861
 20
298.0516130759775
 30
0.0
 40
6.0
  1
10
100
AcDbText
  0
LINE
  5
8475
330
1A
100
AcDbEntity
  8
SUNPOU
  6
Continuous
 62
     4
 48
5.0
100
AcDbLine
 10
644.8767331877087
 20
306.1693364026668
 30
0.0
 11
624.8766565438864
 21
306.1697130759774
 31
0.0
  0
TEXT
  5
8476
330
1A
100
AcDbEntity
  8
SUNPOU
  6
Continuous
 62
     4
 48
5.0
100
AcDbText
 10
649.9040324071877
 20
305.9094054393502
 30
0.0
 40
6.0
  1
2
100
AcDbText
  0
LINE
  5
8477
330
1A
100
AcDbEntity
  8
SUNPOU
  6
Continuous
 62
     4
 48
5.0
100
AcDbLine
 10
644.8767331877087
 20
310.1697130759774
 30
0.0
 11
644.8767331877087
 21
306.1693364026668
 31
0.0
  0
MTEXT
  5
8478
330
1A
100
AcDbEntity
  8
SUNPOU
  6
Continuous
 62
     4
100
AcDbMText
 10
603.2293147372379
 20
400.1702932985677
 30
0.0
 40
6.0
 41
0.0
 71
     7
 72
     5
  1
3-φ4.2
 73
     1
 44
1.0
  0
LINE
  5
8479
330
1A
100
AcDbEntity
  8
SEIHIN
  6
Continuous
 62
     3
 48
5.0
100
AcDbLine
 10
426.1785911868104
 20
477.7541598262303
 30
0.0
 11
462.4407911868104
 21
477.7541598262303
 31
0.0
  0
LINE
  5
847A
330
1A
100
AcDbEntity
  8
SEIHIN
  6
Continuous
 62
     3
 48
5.0
100
AcDbLine
 10
426.2420911868104
 20
482.2539598262302
 30
0.0
 11
426.2420911868104
 21
477.9980598262303
 31
0.0
  0
ARC
  5
847B
330
1A
100
AcDbEntity
  8
SEIHIN
  6
Continuous
 62
     3
 48
5.0
100
AcDbCircle
 10
425.7421143878868
 20
477.9981084955417
 30
0.0
 40
0.4999768012923807
100
AcDbArc
 50
309.0193496335845
 51
359.9944226489357
  0
VIEWPORT
  5
22
330
17
100
AcDbEntity
 67
     1
  8
0
100
AcDbViewport
 10
313.6808219178082
 20
286.420032064001
 30
0.0
 40
627.3616438356164
 41
572.840064128002
 68
     2
 69
     1
 12
313.6808219178082
 22
286.420032064001
 13
0.0
 23
0.0
 14
1.0
 24
1.0
 15
10.0
 25
10.0
 16
0.0
 26
0.0
 36
1.0
 17
0.0
 27
0.0
 37
0.0
 42
50.0
 43
0.0
 44
0.0
 45
572.840064128002
 50
0.0
 51
0.0
 72
   100
 90
    32768
  1

281
     0
 71
     1
 74
     0
110
0.0
120
0.0
130
0.0
111
1.0
121
0.0
131
0.0
112
0.0
122
1.0
132
0.0
 79
     0
146
0.0
  0
VIEWPORT
  5
64
330
17
100
AcDbEntity
 67
     1
  8
VIEWPORT
100
AcDbViewport
 10
210.0
 20
148.5
 30
0.0
 40
420.0
 41
297.0
 68
     1
 69
     2
 12
420.0
 22
297.0
 13
0.0
 23
0.0
 14
10.0
 24
10.0
 15
0.0
 25
0.0
 16
0.0
 26
0.0
 36
1.0
 17
0.0
 27
0.0
 37
0.0
 42
50.0
 43
0.0
 44
0.0
 45
605.8799999999999
 50
0.0
 51
0.0
 72
   100
 90
    32768
  1

281
     0
 71
     1
 74
     0
110
0.0
120
0.0
130
0.0
111
1.0
121
0.0
131
0.0
112
0.0
122
1.0
132
0.0
 79
     0
146
0.0
  0
ENDSEC
  0
SECTION
  2
OBJECTS
  0
DICTIONARY
  5
C
330
0
100
AcDbDictionary
281
     1
  3
ACAD_GROUP
350
D
  3
ACAD_LAYOUT
350
A98
  3
ACAD_MLINESTYLE
350
E
  3
ACAD_PLOTSETTINGS
350
A99
  3
ACAD_PLOTSTYLENAME
350
A96
  0
DICTIONARY
  5
D
102
{ACAD_REACTORS
330
C
102
}
330
C
100
AcDbDictionary
281
     1
  3
*A1
350
FA3
  3
*A2
350
1597
  3
*A3
350
179D
  3
*A4
350
3390
  3
*A5
350
3A0A
  0
DICTIONARY
  5
A98
102
{ACAD_REACTORS
330
C
102
}
330
C
100
AcDbDictionary
281
     1
  3
Model
350
A9A
  3
ﾚｲｱｳﾄ1
350
A9B
  0
DICTIONARY
  5
E
102
{ACAD_REACTORS
330
C
102
}
330
C
100
AcDbDictionary
281
     1
  3
STANDARD
350
13
  0
DICTIONARY
  5
A99
102
{ACAD_REACTORS
330
C
102
}
330
C
100
AcDbDictionary
281
     1
  0
ACDBDICTIONARYWDFLT
  5
A96
102
{ACAD_REACTORS
330
C
102
}
330
C
100
AcDbDictionary
281
     1
  3
Normal
350
A97
100
AcDbDictionaryWithDefault
340
A97
1001
ACAD
1000
TREAT_AS_HARD
1070
     0
1000
TREAT_AS_HARD
1070
     0
1000
TREAT_AS_HARD
1070
     0
1000
TREAT_AS_HARD
1070
     0
  0
GROUP
  5
FA3
102
{ACAD_REACTORS
330
D
102
}
330
D
100
AcDbGroup
300

 70
     1
 71
     1
  0
GROUP
  5
1597
102
{ACAD_REACTORS
330
D
102
}
330
D
100
AcDbGroup
300

 70
     1
 71
     1
  0
GROUP
  5
179D
102
{ACAD_REACTORS
330
D
102
}
330
D
100
AcDbGroup
300

 70
     1
 71
     1
  0
GROUP
  5
3390
102
{ACAD_REACTORS
330
D
102
}
330
D
100
AcDbGroup
300

 70
     1
 71
     1
  0
GROUP
  5
3A0A
102
{ACAD_REACTORS
330
D
102
}
330
D
100
AcDbGroup
300

 70
     1
 71
     1
  0
LAYOUT
  5
A9A
102
{ACAD_REACTORS
330
A98
102
}
330
A98
100
AcDbPlotSettings
  1

  2
Adobe PDF
  4
A3
  6

 40
3.174999952316284
 41
3.174999952316284
 42
3.17498779296875
 43
3.17498779296875
 44
297.0318298339844
 45
420.1583251953125
 46
2.67
 47
2.85
 48
-8.09872987394283
 49
-9.441603207410708
140
808.114529312747
141
561.2334822198422
142
1.0
143
2.0
 70
 28340
 72
     1
 73
     1
 74
     4
  7
systemprinter.ctb
 75
    17
147
0.5
148
8.09872987394283
149
9.441603207410708
100
AcDbLayout
  1
Model
 70
     1
 71
     0
 10
0.0
 20
0.0
 11
12.0
 21
9.0
 12
0.0
 22
0.0
 32
0.0
 14
0.0
 24
0.0
 34
0.0
 15
0.0
 25
0.0
 35
0.0
146
0.0
 13
0.0
 23
0.0
 33
0.0
 16
1.0
 26
0.0
 36
0.0
 17
0.0
 27
1.0
 37
0.0
 76
     0
330
1A
  0
LAYOUT
  5
A9B
102
{ACAD_REACTORS
330
A98
102
}
330
A98
100
AcDbPlotSettings
  1

  2
C:\PROGRAM FILES\ACAD LT 2000\plotters\DWF ePlot.pc3
  4
ANSI_A_(8.50_x_11.00_Inches)
  6

 40
5.793749809265137
 41
17.79375076293945
 42
5.793746948242188
 43
17.79376220703125
 44
215.8999938964844
 45
279.3999938964844
 46
0.0
 47
0.0
 48
0.0
 49
0.0
140
0.0
141
0.0
142
1.0
143
43.75760864458461
 70
   688
 72
     0
 73
     1
 74
     1
  7
systemprinter.ctb
 75
     0
147
0.0228531684197454
148
0.3255366854427166
149
0.2302009418498301
100
AcDbLayout
  1
ﾚｲｱｳﾄ1
 70
     1
 71
     1
 10
-30.66685116754002
 20
-9.990190459854741
 11
450.6668334081172
 21
361.9494725043409
 12
0.0
 22
0.0
 32
0.0
 14
-0.0128164049386896
 24
-0.0090630292066862
 34
-0.0015258207003583
 15
420.0128183607162
 25
297.0090644122207
 35
0.0000000349246037
146
0.0
 13
0.0
 23
0.0
 33
0.0
 16
1.0
 26
0.0
 36
0.0
 17
0.0
 27
1.0
 37
0.0
 76
     0
330
17
331
64
  0
MLINESTYLE
  5
13
102
{ACAD_REACTORS
330
E
102
}
330
E
100
AcDbMlineStyle
  2
STANDARD
 70
     0
  3

 62
     0
 51
90.0
 52
90.0
 71
     2
 49
0.5
 62
   256
  6
BYLAYER
 49
-0.5
 62
   256
  6
BYLAYER
  0
ACDBPLACEHOLDER
  5
A97
102
{ACAD_REACTORS
330
A96
102
}
330
A96
  0
ENDSEC
  0
EOF
