  0
SECTION
  2
HEADER
  9
$ACADVER
  1
AC1015
  9
$ACADMAINTVER
 70
     6
  9
$DWGCODEPAGE
  3
ANSI_932
  9
$INSBASE
 10
0.0
 20
0.0
 30
0.0
  9
$EXTMIN
 10
0.0000000135560185
 20
-0.0000001317113174
 30
0.0
  9
$EXTMAX
 10
797.6000000135562
 20
551.5999998682888
 30
0.0
  9
$LIMMIN
 10
0.0
 20
0.0
  9
$LIMMAX
 10
840.0
 20
594.0
  9
$ORTHOMODE
 70
     0
  9
$REGENMODE
 70
     1
  9
$FILLMODE
 70
     1
  9
$QTEXTMODE
 70
     0
  9
$MIRRTEXT
 70
     1
  9
$LTSCALE
 40
2.0
  9
$ATTMODE
 70
     1
  9
$TEXTSIZE
 40
6.0
  9
$TRACEWID
 40
1.0
  9
$TEXTSTYLE
  7
STANDARD
  9
$CLAYER
  8
SEIHIN
  9
$CELTYPE
  6
BYLAYER
  9
$CECOLOR
 62
   256
  9
$CELTSCALE
 40
1.0
  9
$DISPSILH
 70
     0
  9
$DIMSCALE
 40
1.0
  9
$DIMASZ
 40
7.0
  9
$DIMEXO
 40
6.0
  9
$DIMDLI
 40
14.0
  9
$DIMRND
 40
0.0
  9
$DIMDLE
 40
0.0
  9
$DIMEXE
 40
3.0
  9
$DIMTP
 40
0.0
  9
$DIMTM
 40
0.0
  9
$DIMTXT
 40
6.0
  9
$DIMCEN
 40
150.0
  9
$DIMTSZ
 40
0.0
  9
$DIMTOL
 70
     0
  9
$DIMLIM
 70
     0
  9
$DIMTIH
 70
     0
  9
$DIMTOH
 70
     0
  9
$DIMSE1
 70
     0
  9
$DIMSE2
 70
     0
  9
$DIMTAD
 70
     3
  9
$DIMZIN
 70
     0
  9
$DIMBLK
  1

  9
$DIMASO
 70
     1
  9
$DIMSHO
 70
     1
  9
$DIMPOST
  1

  9
$DIMAPOST
  1

  9
$DIMALT
 70
     0
  9
$DIMALTD
 70
     2
  9
$DIMALTF
 40
25.4
  9
$DIMLFAC
 40
1.0
  9
$DIMTOFL
 70
     1
  9
$DIMTVP
 40
0.0
  9
$DIMTIX
 70
     0
  9
$DIMSOXD
 70
     0
  9
$DIMSAH
 70
     1
  9
$DIMBLK1
  1
OPEN
  9
$DIMBLK2
  1
OPEN
  9
$DIMSTYLE
  2
STANDARD
  9
$DIMCLRD
 70
   256
  9
$DIMCLRE
 70
   256
  9
$DIMCLRT
 70
   256
  9
$DIMTFAC
 40
1.0
  9
$DIMGAP
 40
2.0
  9
$DIMJUST
 70
     0
  9
$DIMSD1
 70
     0
  9
$DIMSD2
 70
     0
  9
$DIMTOLJ
 70
     1
  9
$DIMTZIN
 70
     0
  9
$DIMALTZ
 70
     0
  9
$DIMALTTZ
 70
     0
  9
$DIMUPT
 70
     0
  9
$DIMDEC
 70
     0
  9
$DIMTDEC
 70
     0
  9
$DIMALTU
 70
     2
  9
$DIMALTTD
 70
     2
  9
$DIMTXSTY
  7
STANDARD
  9
$DIMAUNIT
 70
     0
  9
$DIMADEC
 70
     0
  9
$DIMALTRND
 40
0.0
  9
$DIMAZIN
 70
     0
  9
$DIMDSEP
 70
    46
  9
$DIMATFIT
 70
     3
  9
$DIMFRAC
 70
     0
  9
$DIMLDRBLK
  1
OPEN
  9
$DIMLUNIT
 70
     2
  9
$DIMLWD
 70
    -1
  9
$DIMLWE
 70
    -1
  9
$DIMTMOVE
 70
     0
  9
$LUNITS
 70
     2
  9
$LUPREC
 70
     4
  9
$SKETCHINC
 40
1.0
  9
$FILLETRAD
 40
10.0
  9
$AUNITS
 70
     0
  9
$AUPREC
 70
     0
  9
$MENU
  1
.
  9
$ELEVATION
 40
0.0
  9
$PELEVATION
 40
0.0
  9
$THICKNESS
 40
0.0
  9
$LIMCHECK
 70
     0
  9
$CHAMFERA
 40
0.0
  9
$CHAMFERB
 40
0.0
  9
$CHAMFERC
 40
40.0
  9
$CHAMFERD
 40
0.0
  9
$SKPOLY
 70
     0
  9
$TDCREATE
 40
2451030.614786227
  9
$TDUCREATE
 40
2451030.239786227
  9
$TDUPDATE
 40
2455609.40667956
  9
$TDUUPDATE
 40
2455609.03167956
  9
$TDINDWG
 40
0.3415538773
  9
$TDUSRTIMER
 40
0.3415538773
  9
$USRTIMER
 70
     1
  9
$ANGBASE
 50
0.0
  9
$ANGDIR
 70
     0
  9
$PDMODE
 70
     0
  9
$PDSIZE
 40
0.0
  9
$PLINEWID
 40
0.0
  9
$SPLFRAME
 70
     0
  9
$SPLINETYPE
 70
     6
  9
$SPLINESEGS
 70
     8
  9
$HANDSEED
  5
8A36
  9
$SURFTAB1
 70
     6
  9
$SURFTAB2
 70
     6
  9
$SURFTYPE
 70
     6
  9
$SURFU
 70
     6
  9
$SURFV
 70
     6
  9
$UCSBASE
  2

  9
$UCSNAME
  2

  9
$UCSORG
 10
0.0
 20
0.0
 30
0.0
  9
$UCSXDIR
 10
1.0
 20
0.0
 30
0.0
  9
$UCSYDIR
 10
0.0
 20
1.0
 30
0.0
  9
$UCSORTHOREF
  2

  9
$UCSORTHOVIEW
 70
     0
  9
$UCSORGTOP
 10
0.0
 20
0.0
 30
0.0
  9
$UCSORGBOTTOM
 10
0.0
 20
0.0
 30
0.0
  9
$UCSORGLEFT
 10
0.0
 20
0.0
 30
0.0
  9
$UCSORGRIGHT
 10
0.0
 20
0.0
 30
0.0
  9
$UCSORGFRONT
 10
0.0
 20
0.0
 30
0.0
  9
$UCSORGBACK
 10
0.0
 20
0.0
 30
0.0
  9
$PUCSBASE
  2

  9
$PUCSNAME
  2

  9
$PUCSORG
 10
0.0
 20
0.0
 30
0.0
  9
$PUCSXDIR
 10
1.0
 20
0.0
 30
0.0
  9
$PUCSYDIR
 10
0.0
 20
1.0
 30
0.0
  9
$PUCSORTHOREF
  2

  9
$PUCSORTHOVIEW
 70
     0
  9
$PUCSORGTOP
 10
0.0
 20
0.0
 30
0.0
  9
$PUCSORGBOTTOM
 10
0.0
 20
0.0
 30
0.0
  9
$PUCSORGLEFT
 10
0.0
 20
0.0
 30
0.0
  9
$PUCSORGRIGHT
 10
0.0
 20
0.0
 30
0.0
  9
$PUCSORGFRONT
 10
0.0
 20
0.0
 30
0.0
  9
$PUCSORGBACK
 10
0.0
 20
0.0
 30
0.0
  9
$USERI1
 70
     0
  9
$USERI2
 70
     0
  9
$USERI3
 70
     0
  9
$USERI4
 70
     0
  9
$USERI5
 70
     0
  9
$USERR1
 40
0.0
  9
$USERR2
 40
0.0
  9
$USERR3
 40
0.0
  9
$USERR4
 40
0.0
  9
$USERR5
 40
0.0
  9
$WORLDVIEW
 70
     1
  9
$SHADEDGE
 70
     3
  9
$SHADEDIF
 70
    70
  9
$TILEMODE
 70
     1
  9
$MAXACTVP
 70
    16
  9
$PINSBASE
 10
0.0
 20
0.0
 30
0.0
  9
$PLIMCHECK
 70
     0
  9
$PEXTMIN
 10
-0.0128164049386896
 20
-0.0090630292066862
 30
-0.0015258207003583
  9
$PEXTMAX
 10
420.0128183607162
 20
297.0090644122207
 30
0.0000000349246037
  9
$PLIMMIN
 10
-30.66685116754002
 20
-9.990190459854741
  9
$PLIMMAX
 10
450.6668334081172
 20
361.9494725043409
  9
$UNITMODE
 70
     0
  9
$VISRETAIN
 70
     0
  9
$PLINEGEN
 70
     0
  9
$PSLTSCALE
 70
     1
  9
$TREEDEPTH
 70
  3020
  9
$CMLSTYLE
  2
STANDARD
  9
$CMLJUST
 70
     0
  9
$CMLSCALE
 40
1.0
  9
$PROXYGRAPHICS
 70
     1
  9
$MEASUREMENT
 70
     0
  9
$CELWEIGHT
370
    -1
  9
$ENDCAPS
280
     0
  9
$JOINSTYLE
280
     0
  9
$LWDISPLAY
290
     0
  9
$INSUNITS
 70
     0
  9
$HYPERLINKBASE
  1

  9
$STYLESHEET
  1
systemprinter.ctb
  9
$XEDIT
290
     1
  9
$CEPSNTYPE
380
     0
  9
$PSTYLEMODE
290
     1
  9
$FINGERPRINTGUID
  2
{91E25F26-0CBF-4C93-982E-B5F00895E654}
  9
$VERSIONGUID
  2
{9B07DD36-BF6E-40B8-86FC-A00989BE2C11}
  9
$EXTNAMES
290
     1
  9
$PSVPSCALE
 40
0.0
  9
$OLESTARTUP
290
     0
  0
ENDSEC
  0
SECTION
  2
CLASSES
  0
CLASS
  1
ACDBDICTIONARYWDFLT
  2
AcDbDictionaryWithDefault
  3
ObjectDBX Classes
 90
        0
280
     0
281
     0
  0
CLASS
  1
ACDBPLACEHOLDER
  2
AcDbPlaceHolder
  3
ObjectDBX Classes
 90
        0
280
     0
281
     0
  0
CLASS
  1
LAYOUT
  2
AcDbLayout
  3
ObjectDBX Classes
 90
        0
280
     0
281
     0
  0
CLASS
  1
DUMMY
  2
AcDbLongTransaction
  3
DUMMY
 90
        0
280
     0
281
     0
  0
CLASS
  1
LWPOLYLINE
  2
AcDbPolyline
  3
AutoCAD 2000
 90
        0
280
     0
281
     1
  0
CLASS
  1
HATCH
  2
AcDbHatch
  3
AutoCAD 2000
 90
        0
280
     0
281
     1
  0
CLASS
  1
XRECORD
  2
AcDbXrecord
  3
AutoCAD 2000
 90
        0
280
     0
281
     0
  0
CLASS
  1
DUMMY
  2
AcDbLongTransaction
  3
DUMMY
 90
        0
280
     0
281
     0
  0
CLASS
  1
LWPOLYLINE
  2
AcDbPolyline
  3
AutoCAD 2000
 90
        0
280
     0
281
     1
  0
CLASS
  1
HATCH
  2
AcDbHatch
  3
AutoCAD 2000
 90
        0
280
     0
281
     1
  0
CLASS
  1
XRECORD
  2
AcDbXrecord
  3
AutoCAD 2000
 90
        0
280
     0
281
     0
  0
CLASS
  1
DUMMY
  2
AcDbLongTransaction
  3
DUMMY
 90
        0
280
     0
281
     0
  0
CLASS
  1
LWPOLYLINE
  2
AcDbPolyline
  3
AutoCAD 2000
 90
        0
280
     0
281
     1
  0
CLASS
  1
HATCH
  2
AcDbHatch
  3
AutoCAD 2000
 90
        0
280
     0
281
     1
  0
CLASS
  1
XRECORD
  2
AcDbXrecord
  3
AutoCAD 2000
 90
        0
280
     0
281
     0
  0
CLASS
  1
DUMMY
  2
AcDbLongTransaction
  3
DUMMY
 90
        0
280
     0
281
     0
  0
CLASS
  1
LWPOLYLINE
  2
AcDbPolyline
  3
AutoCAD 2000
 90
        0
280
     0
281
     1
  0
CLASS
  1
HATCH
  2
AcDbHatch
  3
AutoCAD 2000
 90
        0
280
     0
281
     1
  0
CLASS
  1
XRECORD
  2
AcDbXrecord
  3
AutoCAD 2000
 90
        0
280
     0
281
     0
  0
CLASS
  1
DUMMY
  2
AcDbLongTransaction
  3
DUMMY
 90
        0
280
     0
281
     0
  0
CLASS
  1
LWPOLYLINE
  2
AcDbPolyline
  3
AutoCAD 2000
 90
        0
280
     0
281
     1
  0
CLASS
  1
HATCH
  2
AcDbHatch
  3
AutoCAD 2000
 90
        0
280
     0
281
     1
  0
CLASS
  1
XRECORD
  2
AcDbXrecord
  3
AutoCAD 2000
 90
        0
280
     0
281
     0
  0
ENDSEC
  0
SECTION
  2
TABLES
  0
TABLE
  2
VPORT
  5
8
330
0
100
AcDbSymbolTable
 70
     2
  0
VPORT
  5
8A35
330
8
100
AcDbSymbolTableRecord
100
AcDbViewportTableRecord
  2
*Active
 70
     0
 10
0.0
 20
0.0
 11
1.0
 21
1.0
 12
397.8978143601196
 22
297.4860041034436
 13
0.0
 23
0.0
 14
5.0
 24
5.0
 15
0.0
 25
0.0
 16
0.0
 26
0.0
 36
1.0
 17
0.0
 27
0.0
 37
0.0
 40
700.8685923628697
 41
1.651537335285505
 42
50.0
 43
0.0
 44
0.0
 50
0.0
 51
0.0
 71
     0
 72
   100
 73
     1
 74
     0
 75
     0
 76
     0
 77
     0
 78
     0
281
     0
 65
     1
110
0.0
120
0.0
130
0.0
111
1.0
121
0.0
131
0.0
112
0.0
122
1.0
132
0.0
 79
     0
146
0.0
  0
ENDTAB
  0
TABLE
  2
LTYPE
  5
5
330
0
100
AcDbSymbolTable
 70
     3
  0
LTYPE
  5
14
330
5
100
AcDbSymbolTableRecord
100
AcDbLinetypeTableRecord
  2
BYBLOCK
 70
     0
  3

 72
    65
 73
     0
 40
0.0
  0
LTYPE
  5
15
330
5
100
AcDbSymbolTableRecord
100
AcDbLinetypeTableRecord
  2
BYLAYER
 70
     0
  3

 72
    65
 73
     0
 40
0.0
  0
LTYPE
  5
16
330
5
100
AcDbSymbolTableRecord
100
AcDbLinetypeTableRecord
  2
CONTINUOUS
 70
     0
  3
Solid line
 72
    65
 73
     0
 40
0.0
  0
LTYPE
  5
135
330
5
100
AcDbSymbolTableRecord
100
AcDbLinetypeTableRecord
  2
CENTER
 70
     0
  3
____ _ ____ _ ____ _ ____ _ ____ _ ____ _ ____ 
 72
    65
 73
     4
 40
2.0
 49
1.25
 74
     0
 49
-0.25
 74
     0
 49
0.25
 74
     0
 49
-0.25
 74
     0
  0
LTYPE
  5
8279
330
5
100
AcDbSymbolTableRecord
100
AcDbLinetypeTableRecord
  2
PHANTOM
 70
     0
  3
______  __  __  ______  __  __  ______  __  __ 
 72
    65
 73
     6
 40
2.5
 49
1.25
 74
     0
 49
-0.25
 74
     0
 49
0.25
 74
     0
 49
-0.25
 74
     0
 49
0.25
 74
     0
 49
-0.25
 74
     0
  0
ENDTAB
  0
TABLE
  2
LAYER
  5
2
330
0
100
AcDbSymbolTable
 70
     8
  0
LAYER
  5
F
330
2
100
AcDbSymbolTableRecord
100
AcDbLayerTableRecord
  2
0
 70
     0
 62
     7
  6
CONTINUOUS
370
    -3
390
A97
  0
LAYER
  5
62
330
2
100
AcDbSymbolTableRecord
100
AcDbLayerTableRecord
  2
VIEWPORT
 70
     0
 62
     7
  6
CONTINUOUS
370
    -3
390
A97
  0
LAYER
  5
143
330
2
100
AcDbSymbolTableRecord
100
AcDbLayerTableRecord
  2
SEIHIN
 70
     0
 62
     3
  6
CONTINUOUS
370
    -3
390
A97
  0
LAYER
  5
444
330
2
100
AcDbSymbolTableRecord
100
AcDbLayerTableRecord
  2
DEFPOINTS
 70
     0
 62
     7
  6
CONTINUOUS
290
     0
370
    -3
390
A97
  0
LAYER
  5
482
330
2
100
AcDbSymbolTableRecord
100
AcDbLayerTableRecord
  2
SUNPOU
 70
     0
 62
     4
  6
CONTINUOUS
370
    -3
390
A97
  0
LAYER
  5
5D4
330
2
100
AcDbSymbolTableRecord
100
AcDbLayerTableRecord
  2
CENTER L
 70
     0
 62
     1
  6
CENTER
370
    -3
390
A97
  0
LAYER
  5
3D95
330
2
100
AcDbSymbolTableRecord
100
AcDbLayerTableRecord
  2
ZUWAKU
 70
     0
 62
     7
  6
CONTINUOUS
370
    -3
390
A97
  0
LAYER
  5
3D96
330
2
100
AcDbSymbolTableRecord
100
AcDbLayerTableRecord
  2
moji
 70
     0
 62
     2
  6
CONTINUOUS
370
    -3
390
A97
  0
ENDTAB
  0
TABLE
  2
STYLE
  5
3
330
0
100
AcDbSymbolTable
 70
     3
  0
STYLE
  5
10
330
3
100
AcDbSymbolTableRecord
100
AcDbTextStyleTableRecord
  2
STANDARD
 70
     0
 40
0.0
 41
1.0
 50
0.0
 71
     0
 42
6.0
  3
TXT
  4
bigfont.shx
  0
STYLE
  5
3D97
330
3
100
AcDbSymbolTableRecord
100
AcDbTextStyleTableRecord
  2
ｽﾀｲﾙ1
 70
     0
 40
0.0
 41
1.0
 50
0.0
 71
     0
 42
2.5
  3
MS PGothic.ttf
  4

1001
ACAD
1000
MS PGothic
1071
    32818
  0
STYLE
  5
86B3
330
3
100
AcDbSymbolTableRecord
100
AcDbTextStyleTableRecord
  2
STYLE1
 70
     0
 40
0.0
 41
1.0
 50
0.0
 71
     0
 42
6.0
  3
A:\WINDOWS\FONTS\msgothi1.TTF
  4
bigfont.shx
  0
ENDTAB
  0
TABLE
  2
VIEW
  5
6
330
0
100
AcDbSymbolTable
 70
     0
  0
ENDTAB
  0
TABLE
  2
UCS
  5
7
330
0
100
AcDbSymbolTable
 70
     0
  0
ENDTAB
  0
TABLE
  2
APPID
  5
9
330
0
100
AcDbSymbolTable
 70
     1
  0
APPID
  5
11
330
9
100
AcDbSymbolTableRecord
100
AcDbRegAppTableRecord
  2
ACAD
 70
     0
  0
ENDTAB
  0
TABLE
  2
DIMSTYLE
  5
A
330
0
100
AcDbSymbolTable
 70
     1
100
AcDbDimStyleTable
  0
DIMSTYLE
105
1D
102
{ACAD_REACTORS
330
87C0
330
87C4
330
87C5
330
87CF
330
87D8
330
87E2
330
87E3
330
8820
330
8834
330
8835
330
8838
330
8844
330
8896
330
889A
330
889B
330
889C
330
88A1
102
}
330
A
100
AcDbSymbolTableRecord
100
AcDbDimStyleTableRecord
  2
STANDARD
 70
     0
340
10
  0
ENDTAB
  0
TABLE
  2
BLOCK_RECORD
  5
1
330
0
100
AcDbSymbolTable
 70
    18
  0
BLOCK_RECORD
  5
1A
330
1
100
AcDbSymbolTableRecord
100
AcDbBlockTableRecord
  2
*MODEL_SPACE
340
A9A
  0
BLOCK_RECORD
  5
17
330
1
100
AcDbSymbolTableRecord
100
AcDbBlockTableRecord
  2
*PAPER_SPACE
340
A9B
  0
BLOCK_RECORD
  5
6D
330
1
100
AcDbSymbolTableRecord
100
AcDbBlockTableRecord
  2
_OPEN
340
0
102
{BLKREFS
331
8993
331
8994
331
899C
331
899D
331
89A5
331
89A6
331
89AE
331
89AF
331
89B7
331
89B8
331
89C0
331
89C1
331
89CB
331
89CC
331
89D4
331
89D5
331
89DD
331
89DE
331
89E8
331
89E9
331
89F1
331
89F2
331
89FA
331
89FB
331
8A03
331
8A04
331
8A0C
331
8A0D
331
8A17
331
8A18
331
8A20
331
8A21
331
8A29
331
8A2A
102
}
  0
BLOCK_RECORD
  5
88BE
330
1
100
AcDbSymbolTableRecord
100
AcDbBlockTableRecord
  2
*D1
340
0
  0
BLOCK_RECORD
  5
88CA
330
1
100
AcDbSymbolTableRecord
100
AcDbBlockTableRecord
  2
*D2
340
0
  0
BLOCK_RECORD
  5
88D6
330
1
100
AcDbSymbolTableRecord
100
AcDbBlockTableRecord
  2
*D3
340
0
  0
BLOCK_RECORD
  5
88E2
330
1
100
AcDbSymbolTableRecord
100
AcDbBlockTableRecord
  2
*D4
340
0
  0
BLOCK_RECORD
  5
88EE
330
1
100
AcDbSymbolTableRecord
100
AcDbBlockTableRecord
  2
*D5
340
0
  0
BLOCK_RECORD
  5
88FA
330
1
100
AcDbSymbolTableRecord
100
AcDbBlockTableRecord
  2
*D6
340
0
  0
BLOCK_RECORD
  5
8906
330
1
100
AcDbSymbolTableRecord
100
AcDbBlockTableRecord
  2
*D7
340
0
  0
BLOCK_RECORD
  5
8914
330
1
100
AcDbSymbolTableRecord
100
AcDbBlockTableRecord
  2
*D8
340
0
  0
BLOCK_RECORD
  5
8920
330
1
100
AcDbSymbolTableRecord
100
AcDbBlockTableRecord
  2
*D9
340
0
  0
BLOCK_RECORD
  5
892C
330
1
100
AcDbSymbolTableRecord
100
AcDbBlockTableRecord
  2
*D10
340
0
  0
BLOCK_RECORD
  5
893A
330
1
100
AcDbSymbolTableRecord
100
AcDbBlockTableRecord
  2
*D11
340
0
  0
BLOCK_RECORD
  5
8946
330
1
100
AcDbSymbolTableRecord
100
AcDbBlockTableRecord
  2
*D12
340
0
  0
BLOCK_RECORD
  5
8952
330
1
100
AcDbSymbolTableRecord
100
AcDbBlockTableRecord
  2
*D13
340
0
  0
BLOCK_RECORD
  5
895E
330
1
100
AcDbSymbolTableRecord
100
AcDbBlockTableRecord
  2
*D14
340
0
  0
BLOCK_RECORD
  5
896A
330
1
100
AcDbSymbolTableRecord
100
AcDbBlockTableRecord
  2
*D15
340
0
  0
BLOCK_RECORD
  5
8978
330
1
100
AcDbSymbolTableRecord
100
AcDbBlockTableRecord
  2
*D16
340
0
  0
BLOCK_RECORD
  5
8984
330
1
100
AcDbSymbolTableRecord
100
AcDbBlockTableRecord
  2
*D17
340
0
  0
ENDTAB
  0
ENDSEC
  0
SECTION
  2
BLOCKS
  0
BLOCK
  5
1B
330
1A
100
AcDbEntity
  8
0
100
AcDbBlockBegin
  2
*MODEL_SPACE
 70
     0
 71
     0
 10
0.0
 20
0.0
 30
0.0
  3
*MODEL_SPACE
  1

  0
ENDBLK
  5
1C
330
1A
100
AcDbEntity
  8
0
100
AcDbBlockEnd
  0
BLOCK
  5
18
330
17
100
AcDbEntity
 67
     1
  8
0
100
AcDbBlockBegin
  2
*PAPER_SPACE
 70
     0
 71
     0
 10
0.0
 20
0.0
 30
0.0
  3
*PAPER_SPACE
  1

  0
ENDBLK
  5
19
330
17
100
AcDbEntity
 67
     1
  8
0
100
AcDbBlockEnd
  0
BLOCK
  5
6E
330
6D
100
AcDbEntity
  8
0
100
AcDbBlockBegin
  2
_OPEN
 70
     0
 71
     0
 10
0.0
 20
0.0
 30
0.0
  3
_OPEN
  1

  0
LINE
  5
6F
330
6D
100
AcDbEntity
  8
0
  6
ByBlock
 62
     0
100
AcDbLine
 10
-1.0
 20
0.1666666666666667
 30
0.0
 11
0.0
 21
0.0
 31
0.0
  0
LINE
  5
70
330
6D
100
AcDbEntity
  8
0
  6
ByBlock
 62
     0
100
AcDbLine
 10
0.0
 20
0.0
 30
0.0
 11
-1.0
 21
-0.1666666666666667
 31
0.0
  0
LINE
  5
71
330
6D
100
AcDbEntity
  8
0
  6
ByBlock
 62
     0
100
AcDbLine
 10
0.0
 20
0.0
 30
0.0
 11
-1.0
 21
0.0
 31
0.0
  0
ENDBLK
  5
72
330
6D
100
AcDbEntity
  8
0
100
AcDbBlockEnd
  0
BLOCK
  5
88C8
330
88BE
100
AcDbEntity
  8
0
100
AcDbBlockBegin
  2
*D1
 70
     1
 71
     0
 10
0.0
 20
0.0
 30
0.0
  3
*D1
  1

  0
LINE
  5
8990
330
88BE
100
AcDbEntity
  8
SUNPOU
 62
     4
370
    -2
100
AcDbLine
 10
296.2909878585813
 20
182.6346839404827
 30
0.0
 11
296.2909878585813
 21
207.1868549008824
 31
0.0
  0
LINE
  5
8991
330
88BE
100
AcDbEntity
  8
SUNPOU
 62
     4
370
    -2
100
AcDbLine
 10
435.5059802107857
 20
201.3762339404826
 30
0.0
 11
435.5059802107857
 21
207.1868549008824
 31
0.0
  0
LINE
  5
8992
330
88BE
100
AcDbEntity
  8
SUNPOU
 62
     4
370
    -2
100
AcDbLine
 10
303.2909878585813
 20
204.1868549008824
 30
0.0
 11
428.5059802107857
 21
204.1868549008824
 31
0.0
  0
INSERT
  5
8993
330
88BE
100
AcDbEntity
  8
SUNPOU
 62
     4
370
    -2
100
AcDbBlockReference
  2
_OPEN
 10
296.2909878585813
 20
204.1868549008824
 30
0.0
 41
7.0
 42
7.0
 43
7.0
 50
180.0
  0
INSERT
  5
8994
330
88BE
100
AcDbEntity
  8
SUNPOU
 62
     4
370
    -2
100
AcDbBlockReference
  2
_OPEN
 10
435.5059802107857
 20
204.1868549008824
 30
0.0
 41
7.0
 42
7.0
 43
7.0
  0
MTEXT
  5
8995
330
88BE
100
AcDbEntity
  8
SUNPOU
 62
     4
100
AcDbMText
 10
365.8984840346835
 20
209.1868549008824
 30
0.0
 40
6.0
 41
0.0
 71
     5
 72
     1
  1
\A1;139
 73
     1
 44
1.0
  0
POINT
  5
8996
330
88BE
100
AcDbEntity
  8
DEFPOINTS
 62
     0
100
AcDbPoint
 10
296.2909878585813
 20
176.6346839404827
 30
0.0
  0
POINT
  5
8997
330
88BE
100
AcDbEntity
  8
DEFPOINTS
 62
     0
100
AcDbPoint
 10
435.5059802107857
 20
195.3762339404826
 30
0.0
  0
POINT
  5
8998
330
88BE
100
AcDbEntity
  8
DEFPOINTS
 62
     0
100
AcDbPoint
 10
435.5059802107857
 20
204.1868549008824
 30
0.0
  0
ENDBLK
  5
88C9
330
88BE
100
AcDbEntity
  8
0
100
AcDbBlockEnd
  0
BLOCK
  5
88D4
330
88CA
100
AcDbEntity
  8
0
100
AcDbBlockBegin
  2
*D2
 70
     1
 71
     0
 10
0.0
 20
0.0
 30
0.0
  3
*D2
  1

  0
LINE
  5
8999
330
88CA
100
AcDbEntity
  8
SUNPOU
 62
     4
370
    -2
100
AcDbLine
 10
439.0059878585812
 20
160.7668839404827
 30
0.0
 11
488.4634030188085
 21
160.7668839404826
 31
0.0
  0
LINE
  5
899A
330
88CA
100
AcDbEntity
  8
SUNPOU
 62
     4
370
    -2
100
AcDbLine
 10
427.1545878585811
 20
95.07838394048267
 30
0.0
 11
488.4634030188084
 21
95.07838394048265
 31
0.0
  0
LINE
  5
899B
330
88CA
100
AcDbEntity
  8
SUNPOU
 62
     4
370
    -2
100
AcDbLine
 10
485.4634030188085
 20
153.7668839404826
 30
0.0
 11
485.4634030188084
 21
102.0783839404827
 31
0.0
  0
INSERT
  5
899C
330
88CA
100
AcDbEntity
  8
SUNPOU
 62
     4
370
    -2
100
AcDbBlockReference
  2
_OPEN
 10
485.4634030188085
 20
160.7668839404826
 30
0.0
 41
7.0
 42
7.0
 43
7.0
 50
90.0
  0
INSERT
  5
899D
330
88CA
100
AcDbEntity
  8
SUNPOU
 62
     4
370
    -2
100
AcDbBlockReference
  2
_OPEN
 10
485.4634030188084
 20
95.07838394048265
 30
0.0
 41
7.0
 42
7.0
 43
7.0
 50
270.0
  0
MTEXT
  5
899E
330
88CA
100
AcDbEntity
  8
SUNPOU
 62
     4
100
AcDbMText
 10
480.4634030188084
 20
111.0783839404827
 30
0.0
 40
6.0
 41
0.0
 71
     5
 72
     1
  1
\A1;66
 11
6.123031769111886E-17
 21
1.0
 31
0.0
 73
     1
 44
1.0
  0
POINT
  5
899F
330
88CA
100
AcDbEntity
  8
DEFPOINTS
 62
     0
100
AcDbPoint
 10
433.0059878585812
 20
160.7668839404827
 30
0.0
  0
POINT
  5
89A0
330
88CA
100
AcDbEntity
  8
DEFPOINTS
 62
     0
100
AcDbPoint
 10
421.1545878585811
 20
95.07838394048267
 30
0.0
  0
POINT
  5
89A1
330
88CA
100
AcDbEntity
  8
DEFPOINTS
 62
     0
100
AcDbPoint
 10
485.4634030188084
 20
95.07838394048265
 30
0.0
  0
ENDBLK
  5
88D5
330
88CA
100
AcDbEntity
  8
0
100
AcDbBlockEnd
  0
BLOCK
  5
88E0
330
88D6
100
AcDbEntity
  8
0
100
AcDbBlockBegin
  2
*D3
 70
     1
 71
     0
 10
0.0
 20
0.0
 30
0.0
  3
*D3
  1

  0
LINE
  5
89A2
330
88D6
100
AcDbEntity
  8
SUNPOU
 62
     4
370
    -2
100
AcDbLine
 10
593.2565878585812
 20
472.7154785525237
 30
0.0
 11
593.2565878585812
 21
444.6913766440788
 31
0.0
  0
LINE
  5
89A3
330
88D6
100
AcDbEntity
  8
SUNPOU
 62
     4
370
    -2
100
AcDbLine
 10
296.2910878585812
 20
472.7154785525237
 30
0.0
 11
296.2910878585812
 21
444.6913766440788
 31
0.0
  0
LINE
  5
89A4
330
88D6
100
AcDbEntity
  8
SUNPOU
 62
     4
370
    -2
100
AcDbLine
 10
586.2565878585812
 20
447.6913766440788
 30
0.0
 11
303.2910878585812
 21
447.6913766440788
 31
0.0
  0
INSERT
  5
89A5
330
88D6
100
AcDbEntity
  8
SUNPOU
 62
     4
370
    -2
100
AcDbBlockReference
  2
_OPEN
 10
593.2565878585812
 20
447.6913766440788
 30
0.0
 41
7.0
 42
7.0
 43
7.0
  0
INSERT
  5
89A6
330
88D6
100
AcDbEntity
  8
SUNPOU
 62
     4
370
    -2
100
AcDbBlockReference
  2
_OPEN
 10
296.2910878585812
 20
447.6913766440788
 30
0.0
 41
7.0
 42
7.0
 43
7.0
 50
180.0
  0
MTEXT
  5
89A7
330
88D6
100
AcDbEntity
  8
SUNPOU
 62
     4
100
AcDbMText
 10
444.7738378585812
 20
452.6913766440788
 30
0.0
 40
6.0
 41
0.0
 71
     5
 72
     1
  1
\A1;297
 73
     1
 44
1.0
  0
POINT
  5
89A8
330
88D6
100
AcDbEntity
  8
DEFPOINTS
 62
     0
100
AcDbPoint
 10
593.2565878585812
 20
478.7154785525237
 30
0.0
  0
POINT
  5
89A9
330
88D6
100
AcDbEntity
  8
DEFPOINTS
 62
     0
100
AcDbPoint
 10
296.2910878585812
 20
478.7154785525237
 30
0.0
  0
POINT
  5
89AA
330
88D6
100
AcDbEntity
  8
DEFPOINTS
 62
     0
100
AcDbPoint
 10
296.2910878585812
 20
447.6913766440788
 30
0.0
  0
ENDBLK
  5
88E1
330
88D6
100
AcDbEntity
  8
0
100
AcDbBlockEnd
  0
BLOCK
  5
88EC
330
88E2
100
AcDbEntity
  8
0
100
AcDbBlockBegin
  2
*D4
 70
     1
 71
     0
 10
0.0
 20
0.0
 30
0.0
  3
*D4
  1

  0
LINE
  5
89AB
330
88E2
100
AcDbEntity
  8
SUNPOU
 62
     4
370
    -2
100
AcDbLine
 10
326.0636878585813
 20
95.07838394048267
 30
0.0
 11
258.203950541976
 21
95.07838394048268
 31
0.0
  0
LINE
  5
89AC
330
88E2
100
AcDbEntity
  8
SUNPOU
 62
     4
370
    -2
100
AcDbLine
 10
290.2909878585813
 20
176.6346839404827
 30
0.0
 11
258.203950541976
 21
176.6346839404827
 31
0.0
  0
LINE
  5
89AD
330
88E2
100
AcDbEntity
  8
SUNPOU
 62
     4
370
    -2
100
AcDbLine
 10
261.203950541976
 20
102.0783839404827
 30
0.0
 11
261.203950541976
 21
169.6346839404827
 31
0.0
  0
INSERT
  5
89AE
330
88E2
100
AcDbEntity
  8
SUNPOU
 62
     4
370
    -2
100
AcDbBlockReference
  2
_OPEN
 10
261.203950541976
 20
95.07838394048268
 30
0.0
 41
7.0
 42
7.0
 43
7.0
 50
270.0
  0
INSERT
  5
89AF
330
88E2
100
AcDbEntity
  8
SUNPOU
 62
     4
370
    -2
100
AcDbBlockReference
  2
_OPEN
 10
261.203950541976
 20
176.6346839404827
 30
0.0
 41
7.0
 42
7.0
 43
7.0
 50
90.0
  0
MTEXT
  5
89B0
330
88E2
100
AcDbEntity
  8
SUNPOU
 62
     4
100
AcDbMText
 10
256.203950541976
 20
135.8565339404827
 30
0.0
 40
6.0
 41
0.0
 71
     5
 72
     1
  1
\A1;82
 11
6.123031769111886E-17
 21
1.0
 31
0.0
 73
     1
 44
1.0
  0
POINT
  5
89B1
330
88E2
100
AcDbEntity
  8
DEFPOINTS
 62
     0
100
AcDbPoint
 10
332.0636878585813
 20
95.07838394048267
 30
0.0
  0
POINT
  5
89B2
330
88E2
100
AcDbEntity
  8
DEFPOINTS
 62
     0
100
AcDbPoint
 10
296.2909878585813
 20
176.6346839404827
 30
0.0
  0
POINT
  5
89B3
330
88E2
100
AcDbEntity
  8
DEFPOINTS
 62
     0
100
AcDbPoint
 10
261.203950541976
 20
176.6346839404827
 30
0.0
  0
ENDBLK
  5
88ED
330
88E2
100
AcDbEntity
  8
0
100
AcDbBlockEnd
  0
BLOCK
  5
88F8
330
88EE
100
AcDbEntity
  8
0
100
AcDbBlockBegin
  2
*D5
 70
     1
 71
     0
 10
0.0
 20
0.0
 30
0.0
  3
*D5
  1

  0
LINE
  5
89B4
330
88EE
100
AcDbEntity
  8
SUNPOU
 62
     4
370
    -2
100
AcDbLine
 10
329.8904306482175
 20
89.07838394048267
 30
0.0
 11
329.8904306482175
 21
57.348583877652
 31
0.0
  0
LINE
  5
89B5
330
88EE
100
AcDbEntity
  8
SUNPOU
 62
     4
370
    -2
100
AcDbLine
 10
423.5270204647591
 20
89.07838394048267
 30
0.0
 11
423.5270204647591
 21
57.348583877652
 31
0.0
  0
LINE
  5
89B6
330
88EE
100
AcDbEntity
  8
SUNPOU
 62
     4
370
    -2
100
AcDbLine
 10
336.8904306482175
 20
60.348583877652
 30
0.0
 11
416.5270204647591
 21
60.348583877652
 31
0.0
  0
INSERT
  5
89B7
330
88EE
100
AcDbEntity
  8
SUNPOU
 62
     4
370
    -2
100
AcDbBlockReference
  2
_OPEN
 10
329.8904306482175
 20
60.348583877652
 30
0.0
 41
7.0
 42
7.0
 43
7.0
 50
180.0
  0
INSERT
  5
89B8
330
88EE
100
AcDbEntity
  8
SUNPOU
 62
     4
370
    -2
100
AcDbBlockReference
  2
_OPEN
 10
423.5270204647591
 20
60.348583877652
 30
0.0
 41
7.0
 42
7.0
 43
7.0
  0
MTEXT
  5
89B9
330
88EE
100
AcDbEntity
  8
SUNPOU
 62
     4
100
AcDbMText
 10
376.7087255564883
 20
65.348583877652
 30
0.0
 40
6.0
 41
0.0
 71
     5
 72
     1
  1
\A1;94
 73
     1
 44
1.0
  0
POINT
  5
89BA
330
88EE
100
AcDbEntity
  8
DEFPOINTS
 62
     0
100
AcDbPoint
 10
329.8904306482175
 20
95.07838394048267
 30
0.0
  0
POINT
  5
89BB
330
88EE
100
AcDbEntity
  8
DEFPOINTS
 62
     0
100
AcDbPoint
 10
423.5270204647591
 20
95.07838394048267
 30
0.0
  0
POINT
  5
89BC
330
88EE
100
AcDbEntity
  8
DEFPOINTS
 62
     0
100
AcDbPoint
 10
423.5270204647591
 20
60.348583877652
 30
0.0
  0
ENDBLK
  5
88F9
330
88EE
100
AcDbEntity
  8
0
100
AcDbBlockEnd
  0
BLOCK
  5
8904
330
88FA
100
AcDbEntity
  8
0
100
AcDbBlockBegin
  2
*D6
 70
     1
 71
     0
 10
0.0
 20
0.0
 30
0.0
  3
*D6
  1

  0
LINE
  5
89BD
330
88FA
100
AcDbEntity
  8
SUNPOU
 62
     4
370
    -2
100
AcDbLine
 10
284.8254878585813
 20
211.2105839404827
 30
0.0
 11
258.203950541976
 21
211.2105839404827
 31
0.0
  0
LINE
  5
89BE
330
88FA
100
AcDbEntity
  8
SUNPOU
 62
     4
370
    -2
100
AcDbLine
 10
290.2909878585813
 20
176.6346839404827
 30
0.0
 11
258.203950541976
 21
176.6346839404827
 31
0.0
  0
LINE
  5
89BF
330
88FA
100
AcDbEntity
  8
SUNPOU
 62
     4
370
    -2
100
AcDbLine
 10
261.203950541976
 20
204.2105839404827
 30
0.0
 11
261.203950541976
 21
183.6346839404827
 31
0.0
  0
INSERT
  5
89C0
330
88FA
100
AcDbEntity
  8
SUNPOU
 62
     4
370
    -2
100
AcDbBlockReference
  2
_OPEN
 10
261.203950541976
 20
211.2105839404827
 30
0.0
 41
7.0
 42
7.0
 43
7.0
 50
90.0
  0
INSERT
  5
89C1
330
88FA
100
AcDbEntity
  8
SUNPOU
 62
     4
370
    -2
100
AcDbBlockReference
  2
_OPEN
 10
261.203950541976
 20
176.6346839404827
 30
0.0
 41
7.0
 42
7.0
 43
7.0
 50
270.0
  0
MTEXT
  5
89C2
330
88FA
100
AcDbEntity
  8
SUNPOU
 62
     4
100
AcDbMText
 10
256.203950541976
 20
193.9226339404827
 30
0.0
 40
6.0
 41
0.0
 71
     5
 72
     1
  1
\A1;35
 11
6.123031769111886E-17
 21
1.0
 31
0.0
 73
     1
 44
1.0
  0
POINT
  5
89C3
330
88FA
100
AcDbEntity
  8
DEFPOINTS
 62
     0
100
AcDbPoint
 10
290.8254878585813
 20
211.2105839404827
 30
0.0
  0
POINT
  5
89C4
330
88FA
100
AcDbEntity
  8
DEFPOINTS
 62
     0
100
AcDbPoint
 10
296.2909878585813
 20
176.6346839404827
 30
0.0
  0
POINT
  5
89C5
330
88FA
100
AcDbEntity
  8
DEFPOINTS
 62
     0
100
AcDbPoint
 10
261.203950541976
 20
176.6346839404827
 30
0.0
  0
ENDBLK
  5
8905
330
88FA
100
AcDbEntity
  8
0
100
AcDbBlockEnd
  0
BLOCK
  5
8912
330
8906
100
AcDbEntity
  8
0
100
AcDbBlockBegin
  2
*D7
 70
     1
 71
     0
 10
0.0
 20
0.0
 30
0.0
  3
*D7
  1

  0
LINE
  5
89C6
330
8906
100
AcDbEntity
  8
SUNPOU
 62
     4
370
    -2
100
AcDbLine
 10
316.7711056978362
 20
131.5049786241116
 30
0.0
 11
317.4929457165267
 21
126.3690024902228
 31
0.0
  0
LINE
  5
89C7
330
8906
100
AcDbEntity
  8
SUNPOU
 62
     4
370
    -2
100
AcDbLine
 10
318.7516055582966
 20
131.7833296169946
 30
0.0
 11
319.4734455769871
 21
126.6473534831058
 31
0.0
  0
LINE
  5
89C8
330
8906
100
AcDbEntity
  8
SUNPOU
 62
     4
370
    -2
100
AcDbLine
 10
325.9877834378656
 20
130.5924012945176
 30
0.0
 11
332.9196551486017
 21
131.5666469441852
 31
0.0
  0
LINE
  5
89C9
330
8906
100
AcDbEntity
  8
SUNPOU
 62
     4
370
    -2
100
AcDbLine
 10
310.143540155933
 20
128.3655590022992
 30
0.0
 11
282.4160533129886
 21
124.4685764036285
 31
0.0
  0
LINE
  5
89CA
330
8906
100
AcDbEntity
  8
SUNPOU
 62
     4
370
    -2
100
AcDbLine
 10
319.0559117271295
 20
129.6181556448499
 30
0.0
 11
317.0754118666691
 21
129.3398046519669
 31
0.0
  0
INSERT
  5
89CB
330
8906
100
AcDbEntity
  8
SUNPOU
 62
     4
370
    -2
100
AcDbBlockReference
  2
_OPEN
 10
319.0559117271295
 20
129.6181556448499
 30
0.0
 41
7.0
 42
7.0
 43
7.0
 50
188.0002805572624
  0
INSERT
  5
89CC
330
8906
100
AcDbEntity
  8
SUNPOU
 62
     4
370
    -2
100
AcDbBlockReference
  2
_OPEN
 10
317.0754118666691
 20
129.3398046519669
 30
0.0
 41
7.0
 42
7.0
 43
7.0
 50
8.000280557262434
  0
MTEXT
  5
89CD
330
8906
100
AcDbEntity
  8
SUNPOU
 62
     4
100
AcDbMText
 10
292.1179711293302
 20
130.8812818143701
 30
0.0
 40
6.0
 41
0.0
 71
     5
 72
     1
  1
\A1;t2.0
 11
0.9902673872480161
 21
0.1391779499525254
 31
0.0
 73
     1
 44
1.0
  0
POINT
  5
89CE
330
8906
100
AcDbEntity
  8
DEFPOINTS
 62
     0
100
AcDbPoint
 10
315.936037998121
 20
137.4465829475997
 30
0.0
  0
POINT
  5
89CF
330
8906
100
AcDbEntity
  8
DEFPOINTS
 62
     0
100
AcDbPoint
 10
317.9165378585814
 20
137.7249339404827
 30
0.0
  0
POINT
  5
89D0
330
8906
100
AcDbEntity
  8
DEFPOINTS
 62
     0
100
AcDbPoint
 10
319.0559117271295
 20
129.6181556448499
 30
0.0
  0
ENDBLK
  5
8913
330
8906
100
AcDbEntity
  8
0
100
AcDbBlockEnd
  0
BLOCK
  5
891E
330
8914
100
AcDbEntity
  8
0
100
AcDbBlockBegin
  2
*D8
 70
     1
 71
     0
 10
0.0
 20
0.0
 30
0.0
  3
*D8
  1

  0
LINE
  5
89D1
330
8914
100
AcDbEntity
  8
SUNPOU
100
AcDbLine
 10
177.1294338302488
 20
305.4001839404826
 30
0.0
 11
177.1294338302488
 21
348.4756436580017
 31
0.0
  0
LINE
  5
89D2
330
8914
100
AcDbEntity
  8
SUNPOU
100
AcDbLine
 10
196.1294108444149
 20
305.4001839404826
 30
0.0
 11
196.1294108444149
 21
348.4756436580017
 31
0.0
  0
LINE
  5
89D3
330
8914
100
AcDbEntity
  8
SUNPOU
100
AcDbLine
 10
184.1294338302488
 20
345.4756436580017
 30
0.0
 11
189.1294108444149
 21
345.4756436580017
 31
0.0
  0
INSERT
  5
89D4
330
8914
100
AcDbEntity
  8
SUNPOU
100
AcDbBlockReference
  2
_OPEN
 10
177.1294338302488
 20
345.4756436580017
 30
0.0
 41
7.0
 42
7.0
 43
7.0
 50
180.0
  0
INSERT
  5
89D5
330
8914
100
AcDbEntity
  8
SUNPOU
100
AcDbBlockReference
  2
_OPEN
 10
196.1294108444149
 20
345.4756436580017
 30
0.0
 41
7.0
 42
7.0
 43
7.0
  0
MTEXT
  5
89D6
330
8914
100
AcDbEntity
  8
SUNPOU
100
AcDbMText
 10
186.6294223373319
 20
350.4756436580017
 30
0.0
 40
6.0
 41
0.0
 71
     5
 72
     1
  1
\A1;19
 73
     1
 44
1.0
  0
POINT
  5
89D7
330
8914
100
AcDbEntity
  8
DEFPOINTS
 62
     0
100
AcDbPoint
 10
177.1294338302488
 20
299.4001839404826
 30
0.0
  0
POINT
  5
89D8
330
8914
100
AcDbEntity
  8
DEFPOINTS
 62
     0
100
AcDbPoint
 10
196.1294108444149
 20
299.4001839404826
 30
0.0
  0
POINT
  5
89D9
330
8914
100
AcDbEntity
  8
DEFPOINTS
 62
     0
100
AcDbPoint
 10
196.1294108444149
 20
345.4756436580017
 30
0.0
  0
ENDBLK
  5
891F
330
8914
100
AcDbEntity
  8
0
100
AcDbBlockEnd
  0
BLOCK
  5
892A
330
8920
100
AcDbEntity
  8
0
100
AcDbBlockBegin
  2
*D9
 70
     1
 71
     0
 10
0.0
 20
0.0
 30
0.0
  3
*D9
  1

  0
LINE
  5
89DA
330
8920
100
AcDbEntity
  8
SUNPOU
 62
     4
370
    -2
100
AcDbLine
 10
598.6484802107858
 20
299.4001839404827
 30
0.0
 11
637.6328487511983
 21
299.4001839404827
 31
0.0
  0
LINE
  5
89DB
330
8920
100
AcDbEntity
  8
SUNPOU
 62
     4
370
    -2
100
AcDbLine
 10
598.6484802107858
 20
232.4001839404826
 30
0.0
 11
637.6328487511981
 21
232.4001839404826
 31
0.0
  0
LINE
  5
89DC
330
8920
100
AcDbEntity
  8
SUNPOU
 62
     4
370
    -2
100
AcDbLine
 10
634.6328487511983
 20
292.4001839404827
 30
0.0
 11
634.6328487511981
 21
239.4001839404826
 31
0.0
  0
INSERT
  5
89DD
330
8920
100
AcDbEntity
  8
SUNPOU
 62
     4
370
    -2
100
AcDbBlockReference
  2
_OPEN
 10
634.6328487511983
 20
299.4001839404827
 30
0.0
 41
7.0
 42
7.0
 43
7.0
 50
90.0
  0
INSERT
  5
89DE
330
8920
100
AcDbEntity
  8
SUNPOU
 62
     4
370
    -2
100
AcDbBlockReference
  2
_OPEN
 10
634.6328487511981
 20
232.4001839404826
 30
0.0
 41
7.0
 42
7.0
 43
7.0
 50
270.0
  0
MTEXT
  5
89DF
330
8920
100
AcDbEntity
  8
SUNPOU
 62
     4
100
AcDbMText
 10
629.6328487511981
 20
265.9001839404828
 30
0.0
 40
6.0
 41
0.0
 71
     5
 72
     1
  1
\A1;67
 11
6.123031769111886E-17
 21
1.0
 31
0.0
 73
     1
 44
1.0
  0
POINT
  5
89E0
330
8920
100
AcDbEntity
  8
DEFPOINTS
 62
     0
100
AcDbPoint
 10
592.6484802107858
 20
299.4001839404827
 30
0.0
  0
POINT
  5
89E1
330
8920
100
AcDbEntity
  8
DEFPOINTS
 62
     0
100
AcDbPoint
 10
592.6484802107858
 20
232.4001839404826
 30
0.0
  0
POINT
  5
89E2
330
8920
100
AcDbEntity
  8
DEFPOINTS
 62
     0
100
AcDbPoint
 10
634.6328487511981
 20
232.4001839404826
 30
0.0
  0
ENDBLK
  5
892B
330
8920
100
AcDbEntity
  8
0
100
AcDbBlockEnd
  0
BLOCK
  5
8938
330
892C
100
AcDbEntity
  8
0
100
AcDbBlockBegin
  2
*D10
 70
     1
 71
     0
 10
0.0
 20
0.0
 30
0.0
  3
*D10
  1

  0
LINE
  5
89E3
330
892C
100
AcDbEntity
  8
SUNPOU
 62
     4
370
    -2
100
AcDbLine
 10
577.1237146055291
 20
295.5294374625988
 30
0.0
 11
569.400601455302
 21
293.6038647164442
 31
0.0
  0
LINE
  5
89E4
330
892C
100
AcDbEntity
  8
SUNPOU
 62
     4
370
    -2
100
AcDbLine
 10
577.7285275828605
 20
293.1036454129427
 30
0.0
 11
570.0054144326334
 21
291.1780726667881
 31
0.0
  0
LINE
  5
89E5
330
892C
100
AcDbEntity
  8
SUNPOU
 62
     4
370
    -2
100
AcDbLine
 10
570.6180496902598
 20
301.121698167326
 30
0.0
 11
568.9246093634393
 21
307.9137714781419
 31
0.0
  0
LINE
  5
89E6
330
892C
100
AcDbEntity
  8
SUNPOU
 62
     4
370
    -2
100
AcDbLine
 10
574.6097433212321
 20
285.1117594960381
 30
0.0
 11
581.6254246752026
 21
256.9731700655149
 31
0.0
  0
LINE
  5
89E7
330
892C
100
AcDbEntity
  8
SUNPOU
 62
     4
370
    -2
100
AcDbLine
 10
572.3114900170803
 20
294.3296248565101
 30
0.0
 11
572.9163029944117
 21
291.903832806854
 31
0.0
  0
INSERT
  5
89E8
330
892C
100
AcDbEntity
  8
SUNPOU
 62
     4
370
    -2
100
AcDbBlockReference
  2
_OPEN
 10
572.3114900170803
 20
294.3296248565101
 30
0.0
 41
7.0
 42
7.0
 43
7.0
 50
283.9998908221785
  0
INSERT
  5
89E9
330
892C
100
AcDbEntity
  8
SUNPOU
 62
     4
370
    -2
100
AcDbBlockReference
  2
_OPEN
 10
572.9163029944117
 20
291.903832806854
 30
0.0
 41
7.0
 42
7.0
 43
7.0
 50
103.9998908221785
  0
MTEXT
  5
89EA
330
892C
100
AcDbEntity
  8
SUNPOU
 62
     4
100
AcDbMText
 10
583.8157850979246
 20
268.8560283588117
 30
0.0
 40
6.0
 41
0.0
 71
     5
 72
     1
  1
\A1;t2.5
 11
0.2419200466886367
 21
-0.9702961872594202
 31
0.0
 73
     1
 44
1.0
  0
POINT
  5
89EB
330
892C
100
AcDbEntity
  8
DEFPOINTS
 62
     0
100
AcDbPoint
 10
582.9454917290857
 20
296.9809577427307
 30
0.0
  0
POINT
  5
89EC
330
892C
100
AcDbEntity
  8
DEFPOINTS
 62
     0
100
AcDbPoint
 10
583.550304706417
 20
294.5551656930746
 30
0.0
  0
POINT
  5
89ED
330
892C
100
AcDbEntity
  8
DEFPOINTS
 62
     0
100
AcDbPoint
 10
572.9163029944117
 20
291.903832806854
 30
0.0
  0
ENDBLK
  5
8939
330
892C
100
AcDbEntity
  8
0
100
AcDbBlockEnd
  0
BLOCK
  5
8944
330
893A
100
AcDbEntity
  8
0
100
AcDbBlockBegin
  2
*D11
 70
     1
 71
     0
 10
0.0
 20
0.0
 30
0.0
  3
*D11
  1

  0
LINE
  5
89EE
330
893A
100
AcDbEntity
  8
SUNPOU
 62
     4
370
    -2
100
AcDbLine
 10
591.1969491433544
 20
305.2219583744745
 30
0.0
 11
585.0047870969144
 21
330.0573694117961
 31
0.0
  0
LINE
  5
89EF
330
893A
100
AcDbEntity
  8
SUNPOU
 62
     4
370
    -2
100
AcDbLine
 10
436.5545518465108
 20
266.6652869397637
 30
0.0
 11
430.3623898000708
 21
291.5006979770853
 31
0.0
  0
LINE
  5
89F0
330
893A
100
AcDbEntity
  8
SUNPOU
 62
     4
370
    -2
100
AcDbLine
 10
578.9384824576396
 20
325.4530292827969
 30
0.0
 11
437.880225506777
 21
290.2832636720926
 31
0.0
  0
INSERT
  5
89F1
330
893A
100
AcDbEntity
  8
SUNPOU
 62
     4
370
    -2
100
AcDbBlockReference
  2
_OPEN
 10
585.7305526306301
 20
327.1464821948002
 30
0.0
 41
7.0
 42
7.0
 43
7.0
 50
13.99999698681913
  0
INSERT
  5
89F2
330
893A
100
AcDbEntity
  8
SUNPOU
 62
     4
370
    -2
100
AcDbBlockReference
  2
_OPEN
 10
431.0881553337865
 20
288.5898107600894
 30
0.0
 41
7.0
 42
7.0
 43
7.0
 50
193.9999969868191
  0
MTEXT
  5
89F3
330
893A
100
AcDbEntity
  8
SUNPOU
 62
     4
100
AcDbMText
 10
507.1997447593489
 20
312.719625172438
 30
0.0
 40
6.0
 41
0.0
 71
     5
 72
     1
  1
\A1;159
 11
0.97029573899865
 21
0.2419218445718858
 31
0.0
 73
     1
 44
1.0
  0
POINT
  5
89F4
330
893A
100
AcDbEntity
  8
DEFPOINTS
 62
     0
100
AcDbPoint
 10
592.6484802107857
 20
299.4001839404826
 30
0.0
  0
POINT
  5
89F5
330
893A
100
AcDbEntity
  8
DEFPOINTS
 62
     0
100
AcDbPoint
 10
438.0060829139421
 20
260.8435125057718
 30
0.0
  0
POINT
  5
89F6
330
893A
100
AcDbEntity
  8
DEFPOINTS
 62
     0
100
AcDbPoint
 10
431.0881553337865
 20
288.5898107600894
 30
0.0
  0
ENDBLK
  5
8945
330
893A
100
AcDbEntity
  8
0
100
AcDbBlockEnd
  0
BLOCK
  5
8950
330
8946
100
AcDbEntity
  8
0
100
AcDbBlockBegin
  2
*D12
 70
     1
 71
     0
 10
0.0
 20
0.0
 30
0.0
  3
*D12
  1

  0
LINE
  5
89F7
330
8946
100
AcDbEntity
  8
SUNPOU
 62
     4
370
    -2
100
AcDbLine
 10
444.0060829139422
 20
260.8435125057719
 30
0.0
 11
519.3786458319414
 21
260.8435125057719
 31
0.0
  0
LINE
  5
89F8
330
8946
100
AcDbEntity
  8
SUNPOU
 62
     4
370
    -2
100
AcDbLine
 10
444.0059802107856
 20
133.2668839404826
 30
0.0
 11
519.3786458319413
 21
133.2668839404826
 31
0.0
  0
LINE
  5
89F9
330
8946
100
AcDbEntity
  8
SUNPOU
 62
     4
370
    -2
100
AcDbLine
 10
516.3786458319413
 20
253.8435125057719
 30
0.0
 11
516.3786458319413
 21
140.2668839404826
 31
0.0
  0
INSERT
  5
89FA
330
8946
100
AcDbEntity
  8
SUNPOU
 62
     4
370
    -2
100
AcDbBlockReference
  2
_OPEN
 10
516.3786458319414
 20
260.8435125057719
 30
0.0
 41
7.0
 42
7.0
 43
7.0
 50
90.0
  0
INSERT
  5
89FB
330
8946
100
AcDbEntity
  8
SUNPOU
 62
     4
370
    -2
100
AcDbBlockReference
  2
_OPEN
 10
516.3786458319413
 20
133.2668839404826
 30
0.0
 41
7.0
 42
7.0
 43
7.0
 50
270.0
  0
MTEXT
  5
89FC
330
8946
100
AcDbEntity
  8
SUNPOU
 62
     4
100
AcDbMText
 10
511.3786458319413
 20
197.0551982231274
 30
0.0
 40
6.0
 41
0.0
 71
     5
 72
     1
  1
\A1;128
 11
6.123031769111886E-17
 21
1.0
 31
0.0
 73
     1
 44
1.0
  0
POINT
  5
89FD
330
8946
100
AcDbEntity
  8
DEFPOINTS
 62
     0
100
AcDbPoint
 10
438.0060829139422
 20
260.8435125057719
 30
0.0
  0
POINT
  5
89FE
330
8946
100
AcDbEntity
  8
DEFPOINTS
 62
     0
100
AcDbPoint
 10
438.0059802107856
 20
133.2668839404826
 30
0.0
  0
POINT
  5
89FF
330
8946
100
AcDbEntity
  8
DEFPOINTS
 62
     0
100
AcDbPoint
 10
516.3786458319413
 20
133.2668839404826
 30
0.0
  0
ENDBLK
  5
8951
330
8946
100
AcDbEntity
  8
0
100
AcDbBlockEnd
  0
BLOCK
  5
895C
330
8952
100
AcDbEntity
  8
0
100
AcDbBlockBegin
  2
*D13
 70
     1
 71
     0
 10
0.0
 20
0.0
 30
0.0
  3
*D13
  1

  0
LINE
  5
8A00
330
8952
100
AcDbEntity
  8
SUNPOU
 62
     4
370
    -2
100
AcDbLine
 10
599.2564878585812
 20
497.7154785525237
 30
0.0
 11
637.0921540344142
 21
497.7154785525237
 31
0.0
  0
LINE
  5
8A01
330
8952
100
AcDbEntity
  8
SUNPOU
 62
     4
370
    -2
100
AcDbLine
 10
598.6517878585811
 20
478.7154785525237
 30
0.0
 11
637.0921540344142
 21
478.7154785525237
 31
0.0
  0
LINE
  5
8A02
330
8952
100
AcDbEntity
  8
SUNPOU
 62
     4
370
    -2
100
AcDbLine
 10
634.0921540344142
 20
490.7154785525237
 30
0.0
 11
634.0921540344142
 21
485.7154785525237
 31
0.0
  0
INSERT
  5
8A03
330
8952
100
AcDbEntity
  8
SUNPOU
 62
     4
370
    -2
100
AcDbBlockReference
  2
_OPEN
 10
634.0921540344142
 20
497.7154785525237
 30
0.0
 41
7.0
 42
7.0
 43
7.0
 50
90.0
  0
INSERT
  5
8A04
330
8952
100
AcDbEntity
  8
SUNPOU
 62
     4
370
    -2
100
AcDbBlockReference
  2
_OPEN
 10
634.0921540344142
 20
478.7154785525237
 30
0.0
 41
7.0
 42
7.0
 43
7.0
 50
270.0
  0
MTEXT
  5
8A05
330
8952
100
AcDbEntity
  8
SUNPOU
 62
     4
100
AcDbMText
 10
629.0921540344141
 20
488.2154785525237
 30
0.0
 40
6.0
 41
0.0
 71
     5
 72
     1
  1
\A1;19
 11
6.123031769111886E-17
 21
1.0
 31
0.0
 73
     1
 44
1.0
  0
POINT
  5
8A06
330
8952
100
AcDbEntity
  8
DEFPOINTS
 62
     0
100
AcDbPoint
 10
593.2564878585812
 20
497.7154785525237
 30
0.0
  0
POINT
  5
8A07
330
8952
100
AcDbEntity
  8
DEFPOINTS
 62
     0
100
AcDbPoint
 10
592.6517878585811
 20
478.7154785525237
 30
0.0
  0
POINT
  5
8A08
330
8952
100
AcDbEntity
  8
DEFPOINTS
 62
     0
100
AcDbPoint
 10
634.0921540344142
 20
478.7154785525237
 30
0.0
  0
ENDBLK
  5
895D
330
8952
100
AcDbEntity
  8
0
100
AcDbBlockEnd
  0
BLOCK
  5
8968
330
895E
100
AcDbEntity
  8
0
100
AcDbBlockBegin
  2
*D14
 70
     1
 71
     0
 10
0.0
 20
0.0
 30
0.0
  3
*D14
  1

  0
LINE
  5
8A09
330
895E
100
AcDbEntity
  8
SUNPOU
 62
     4
370
    -2
100
AcDbLine
 10
563.4207838525762
 20
375.2906795282656
 30
0.0
 11
556.6538989117656
 21
402.4312245150736
 31
0.0
  0
LINE
  5
8A0A
330
895E
100
AcDbEntity
  8
SUNPOU
 62
     4
370
    -2
100
AcDbLine
 10
514.9058838525763
 20
363.1945795282657
 30
0.0
 11
508.1389989117658
 21
390.3351245150737
 31
0.0
  0
LINE
  5
8A0B
330
895E
100
AcDbEntity
  8
SUNPOU
 62
     4
370
    -2
100
AcDbLine
 10
550.5875924483737
 20
397.8268867893839
 30
0.0
 11
515.6568341361563
 21
389.1176872317138
 31
0.0
  0
INSERT
  5
8A0C
330
895E
100
AcDbEntity
  8
SUNPOU
 62
     4
370
    -2
100
AcDbBlockReference
  2
_OPEN
 10
557.3796632922649
 20
399.5203370105488
 30
0.0
 41
7.0
 42
7.0
 43
7.0
 50
13.99997428774978
  0
INSERT
  5
8A0D
330
895E
100
AcDbEntity
  8
SUNPOU
 62
     4
370
    -2
100
AcDbBlockReference
  2
_OPEN
 10
508.864763292265
 20
387.424237010549
 30
0.0
 41
7.0
 42
7.0
 43
7.0
 50
193.9999742877498
  0
MTEXT
  5
8A0E
330
895E
100
AcDbEntity
  8
SUNPOU
 62
     4
100
AcDbMText
 10
531.9126059914329
 20
398.3237661847569
 30
0.0
 40
6.0
 41
0.0
 71
     5
 72
     1
  1
\A1;50
 11
0.9702958348415972
 21
0.2419214601664102
 31
0.0
 73
     1
 44
1.0
  0
POINT
  5
8A0F
330
895E
100
AcDbEntity
  8
DEFPOINTS
 62
     0
100
AcDbPoint
 10
564.8723126135747
 20
369.468904519216
 30
0.0
  0
POINT
  5
8A10
330
895E
100
AcDbEntity
  8
DEFPOINTS
 62
     0
100
AcDbPoint
 10
516.3574126135748
 20
357.3728045192161
 30
0.0
  0
POINT
  5
8A11
330
895E
100
AcDbEntity
  8
DEFPOINTS
 62
     0
100
AcDbPoint
 10
508.864763292265
 20
387.424237010549
 30
0.0
  0
ENDBLK
  5
8969
330
895E
100
AcDbEntity
  8
0
100
AcDbBlockEnd
  0
BLOCK
  5
8976
330
896A
100
AcDbEntity
  8
0
100
AcDbBlockBegin
  2
*D15
 70
     1
 71
     0
 10
0.0
 20
0.0
 30
0.0
  3
*D15
  1

  0
LINE
  5
8A12
330
896A
100
AcDbEntity
  8
SUNPOU
 62
     4
370
    -2
100
AcDbLine
 10
573.2682464682779
 20
377.1300749996487
 30
0.0
 11
566.3568049458511
 21
404.8504239445794
 31
0.0
  0
LINE
  5
8A13
330
896A
100
AcDbEntity
  8
SUNPOU
 62
     4
370
    -2
100
AcDbLine
 10
563.5653411346463
 20
374.7108751928836
 30
0.0
 11
556.6538996122195
 21
402.4312241378142
 31
0.0
  0
LINE
  5
8A14
330
896A
100
AcDbEntity
  8
SUNPOU
 62
     4
370
    -2
100
AcDbLine
 10
550.5875924443532
 20
397.8268873402835
 30
0.0
 11
543.7955213413603
 21
396.1334381583213
 31
0.0
  0
LINE
  5
8A15
330
896A
100
AcDbEntity
  8
SUNPOU
 62
     4
370
    -2
100
AcDbLine
 10
573.8746399839707
 20
403.6329855109732
 30
0.0
 11
591.3399656773812
 21
407.9875691217333
 31
0.0
  0
LINE
  5
8A16
330
896A
100
AcDbEntity
  8
SUNPOU
 62
     4
370
    -2
100
AcDbLine
 10
557.3796635473461
 20
399.5203365222458
 30
0.0
 11
567.0825688809778
 21
401.9395363290109
 31
0.0
  0
INSERT
  5
8A17
330
896A
100
AcDbEntity
  8
SUNPOU
 62
     4
370
    -2
100
AcDbBlockReference
  2
_OPEN
 10
557.3796635473461
 20
399.5203365222458
 30
0.0
 41
7.0
 42
7.0
 43
7.0
 50
13.99996552136241
  0
INSERT
  5
8A18
330
896A
100
AcDbEntity
  8
SUNPOU
 62
     4
370
    -2
100
AcDbBlockReference
  2
_OPEN
 10
567.0825688809778
 20
401.9395363290109
 30
0.0
 41
7.0
 42
7.0
 43
7.0
 50
193.9999655213624
  0
MTEXT
  5
8A19
330
896A
100
AcDbEntity
  8
SUNPOU
 62
     4
100
AcDbMText
 10
584.793731823628
 20
411.5084812666149
 30
0.0
 40
6.0
 41
0.0
 71
     5
 72
     1
  1
\A1;10
 11
0.9702958718561312
 21
0.2419213117088908
 31
0.0
 73
     1
 44
1.0
  0
POINT
  5
8A1A
330
896A
100
AcDbEntity
  8
DEFPOINTS
 62
     0
100
AcDbPoint
 10
574.7197743385312
 20
371.3082997685119
 30
0.0
  0
POINT
  5
8A1B
330
896A
100
AcDbEntity
  8
DEFPOINTS
 62
     0
100
AcDbPoint
 10
565.0168690048996
 20
368.8890999617468
 30
0.0
  0
POINT
  5
8A1C
330
896A
100
AcDbEntity
  8
DEFPOINTS
 62
     0
100
AcDbPoint
 10
557.3796635473461
 20
399.5203365222458
 30
0.0
  0
ENDBLK
  5
8977
330
896A
100
AcDbEntity
  8
0
100
AcDbBlockEnd
  0
BLOCK
  5
8982
330
8978
100
AcDbEntity
  8
0
100
AcDbBlockBegin
  2
*D16
 70
     1
 71
     0
 10
0.0
 20
0.0
 30
0.0
  3
*D16
  1

  0
LINE
  5
8A1D
330
8978
100
AcDbEntity
  8
SUNPOU
 62
     4
370
    -2
100
AcDbLine
 10
514.9058810357525
 20
363.1945788259532
 30
0.0
 11
508.1389837825522
 21
390.335117252352
 31
0.0
  0
LINE
  5
8A1E
330
8978
100
AcDbEntity
  8
SUNPOU
 62
     4
370
    -2
100
AcDbLine
 10
466.3910810357523
 20
351.0984788259531
 30
0.0
 11
459.624183782552
 21
378.2390172523519
 31
0.0
  0
LINE
  5
8A1F
330
8978
100
AcDbEntity
  8
SUNPOU
 62
     4
370
    -2
100
AcDbLine
 10
502.0726795469364
 20
385.7307765915242
 30
0.0
 11
467.1420195959898
 21
377.0215836064424
 31
0.0
  0
INSERT
  5
8A20
330
8978
100
AcDbEntity
  8
SUNPOU
 62
     4
370
    -2
100
AcDbBlockReference
  2
_OPEN
 10
508.8647495714632
 20
387.4242300989833
 30
0.0
 41
7.0
 42
7.0
 43
7.0
 50
14.00000200989908
  0
INSERT
  5
8A21
330
8978
100
AcDbEntity
  8
SUNPOU
 62
     4
370
    -2
100
AcDbBlockReference
  2
_OPEN
 10
460.349949571463
 20
375.3281300989833
 30
0.0
 41
7.0
 42
7.0
 43
7.0
 50
194.0000020098991
  0
MTEXT
  5
8A22
330
8978
100
AcDbEntity
  8
SUNPOU
 62
     4
100
AcDbMText
 10
483.3977399232779
 20
386.227658687931
 30
0.0
 40
6.0
 41
0.0
 71
     5
 72
     1
  1
\A1;50
 11
0.9702957177895313
 21
0.2419219296370178
 31
0.0
 73
     1
 44
1.0
  0
POINT
  5
8A23
330
8978
100
AcDbEntity
  8
DEFPOINTS
 62
     0
100
AcDbPoint
 10
516.3574126135745
 20
357.372804519216
 30
0.0
  0
POINT
  5
8A24
330
8978
100
AcDbEntity
  8
DEFPOINTS
 62
     0
100
AcDbPoint
 10
467.8426126135744
 20
345.2767045192159
 30
0.0
  0
POINT
  5
8A25
330
8978
100
AcDbEntity
  8
DEFPOINTS
 62
     0
100
AcDbPoint
 10
460.349949571463
 20
375.3281300989833
 30
0.0
  0
ENDBLK
  5
8983
330
8978
100
AcDbEntity
  8
0
100
AcDbBlockEnd
  0
BLOCK
  5
898E
330
8984
100
AcDbEntity
  8
0
100
AcDbBlockBegin
  2
*D17
 70
     1
 71
     0
 10
0.0
 20
0.0
 30
0.0
  3
*D17
  1

  0
LINE
  5
8A26
330
8984
100
AcDbEntity
  8
SUNPOU
 62
     4
370
    -2
100
AcDbLine
 10
579.2109731358491
 20
378.0965334286979
 30
0.0
 11
605.772131510634
 21
384.7189784954125
 31
0.0
  0
LINE
  5
8A27
330
8984
100
AcDbEntity
  8
SUNPOU
 62
     4
370
    -2
100
AcDbLine
 10
583.8074867399137
 20
359.6609368205745
 30
0.0
 11
610.3686451146984
 21
366.2833818872891
 31
0.0
  0
LINE
  5
8A28
330
8984
100
AcDbEntity
  8
SUNPOU
 62
     4
370
    -2
100
AcDbLine
 10
604.5546987990495
 20
377.2011425306708
 30
0.0
 11
605.7643036999438
 21
372.3496855506722
 31
0.0
  0
INSERT
  5
8A29
330
8984
100
AcDbEntity
  8
SUNPOU
 62
     4
370
    -2
100
AcDbBlockReference
  2
_OPEN
 10
602.8612444474644
 20
383.9932123447332
 30
0.0
 41
7.0
 42
7.0
 43
7.0
 50
104.0000091306816
  0
INSERT
  5
8A2A
330
8984
100
AcDbEntity
  8
SUNPOU
 62
     4
370
    -2
100
AcDbBlockReference
  2
_OPEN
 10
607.4577580515288
 20
365.5576157366098
 30
0.0
 41
7.0
 42
7.0
 43
7.0
 50
284.0000091306816
  0
MTEXT
  5
8A2B
330
8984
100
AcDbEntity
  8
SUNPOU
 62
     4
100
AcDbMText
 10
610.0109796881126
 20
375.9850242918037
 30
0.0
 40
6.0
 41
0.0
 71
     5
 72
     1
  1
\A1;19
 11
0.2419220502264348
 21
-0.9702956877232004
 31
0.0
 73
     1
 44
1.0
  0
POINT
  5
8A2C
330
8984
100
AcDbEntity
  8
DEFPOINTS
 62
     0
100
AcDbPoint
 10
573.38919900951
 20
376.6450011273392
 30
0.0
  0
POINT
  5
8A2D
330
8984
100
AcDbEntity
  8
DEFPOINTS
 62
     0
100
AcDbPoint
 10
577.9857126135745
 20
358.2094045192159
 30
0.0
  0
POINT
  5
8A2E
330
8984
100
AcDbEntity
  8
DEFPOINTS
 62
     0
100
AcDbPoint
 10
607.4577580515288
 20
365.5576157366098
 30
0.0
  0
ENDBLK
  5
898F
330
8984
100
AcDbEntity
  8
0
100
AcDbBlockEnd
  0
ENDSEC
  0
SECTION
  2
ENTITIES
  0
LINE
  5
3EF3
330
1A
100
AcDbEntity
  8
ZUWAKU
100
AcDbLine
 10
208.646601303624
 20
15.19999986828872
 30
0.0
 11
447.4243639845474
 21
15.19999986828871
 31
0.0
  0
LINE
  5
3EF4
330
1A
100
AcDbEntity
  8
ZUWAKU
100
AcDbLine
 10
208.646601303624
 20
15.59999986828872
 30
0.0
 11
447.4243639845474
 21
15.59999986828872
 31
0.0
  0
LINE
  5
3EF5
330
1A
100
AcDbEntity
  8
ZUWAKU
100
AcDbLine
 10
208.646601303624
 20
15.39999986828872
 30
0.0
 11
447.4243639845474
 21
15.39999986828872
 31
0.0
  0
LINE
  5
3EF6
330
1A
100
AcDbEntity
  8
ZUWAKU
100
AcDbLine
 10
0.0000000135560185
 20
30.79999986828869
 30
0.0
 11
797.4000000135559
 21
30.79999986828869
 31
0.0
  0
LINE
  5
3EF7
330
1A
100
AcDbEntity
  8
ZUWAKU
100
AcDbLine
 10
0.0000000135560185
 20
30.59999986828869
 30
0.0
 11
797.4000000135559
 21
30.59999986828869
 31
0.0
  0
LINE
  5
3EF8
330
1A
100
AcDbEntity
  8
ZUWAKU
100
AcDbLine
 10
0.0000000135560185
 20
30.39999986828869
 30
0.0
 11
797.4000000135559
 21
30.39999986828869
 31
0.0
  0
LINE
  5
3EF9
330
1A
100
AcDbEntity
  8
ZUWAKU
100
AcDbLine
 10
0.0000000135560185
 20
30.19999986828869
 30
0.0
 11
797.4000000135559
 21
30.19999986828869
 31
0.0
  0
LINE
  5
3EFA
330
1A
100
AcDbEntity
  8
ZUWAKU
100
AcDbLine
 10
0.0000000135560185
 20
29.99999986828868
 30
0.0
 11
797.4000000135559
 21
29.99999986828868
 31
0.0
  0
LWPOLYLINE
  5
3EFB
330
1A
100
AcDbEntity
  8
ZUWAKU
100
AcDbPolyline
 90
        4
 70
     1
 43
0.0
 10
0.2000000135559503
 20
551.3999998682888
 10
0.2000000135559503
 20
0.1999998682887281
 10
797.4000000135559
 20
0.1999998682887512
 10
797.4000000135561
 20
551.3999998682888
  0
LWPOLYLINE
  5
3EFC
330
1A
100
AcDbEntity
  8
ZUWAKU
100
AcDbPolyline
 90
        4
 70
     1
 43
0.0
 10
0.6000000135559276
 20
550.9999998682888
 10
0.6000000135559276
 20
0.5999998682887053
 10
797.0000000135563
 20
0.5999998682887515
 10
797.000000013556
 20
550.9999998682888
  0
LWPOLYLINE
  5
3EFD
330
1A
100
AcDbEntity
  8
ZUWAKU
100
AcDbPolyline
 90
        4
 70
     1
 43
0.0
 10
0.0000000135560185
 20
551.5999998682887
 10
0.0000000135560185
 20
-0.0000001317113174
 10
797.6000000135562
 20
-0.0000001317112499
 10
797.6000000135562
 20
551.5999998682888
  0
LWPOLYLINE
  5
3EFE
330
1A
100
AcDbEntity
  8
ZUWAKU
100
AcDbPolyline
 90
        4
 70
     1
 43
0.0
 10
0.4000000135559958
 20
551.1999998682887
 10
0.4000000135559958
 20
0.3999998682887735
 10
797.2000000135561
 20
0.3999998682887505
 10
797.2000000135561
 20
551.1999998682887
  0
LWPOLYLINE
  5
3EFF
330
1A
100
AcDbEntity
  8
ZUWAKU
100
AcDbPolyline
 90
        4
 70
     1
 43
0.0
 10
0.8000000135559731
 20
550.7999998682888
 10
0.8000000135559731
 20
0.7999998682887508
 10
796.800000013556
 20
0.7999998682887508
 10
796.800000013556
 20
550.7999998682888
  0
TEXT
  5
3F00
330
1A
100
AcDbEntity
  8
moji
100
AcDbText
 10
92.95778960172515
 20
12.74117799856344
 30
0.0
 40
6.0
  1
アーバントップΣ９０
 41
0.9
  7
ｽﾀｲﾙ1
100
AcDbText
  0
HATCH
  5
3F01
330
1A
100
AcDbEntity
  8
ZUWAKU
100
AcDbHatch
 10
0.0
 20
0.0
 30
0.0
210
0.0
220
0.0
230
1.0
  2
ANSI37
 70
     0
 71
     0
 91
        8
 92
        7
 72
     1
 73
     1
 93
       24
 10
14.50226267467588
 20
17.64484834927227
 42
-0.1989123673796348
 10
14.09221216833714
 20
18.63479784293332
 42
0.0
 10
14.09221216833714
 20
19.92499986828869
 42
-0.4142135623730912
 10
14.61721216833712
 20
20.44999986828869
 42
0.0
 10
17.59221216833703
 20
20.44999986828869
 42
0.4142135623731546
 10
18.11721216833712
 20
20.97499986828868
 42
0.0
 10
18.11721216833712
 20
22.72499986828869
 42
0.4142135623731586
 10
17.59221216833703
 20
23.24999986828869
 42
0.0
 10
14.09221216833714
 20
23.24999986828869
 42
0.4142135623730928
 10
11.29221216833719
 20
20.44999986828871
 42
0.0
 10
11.29221216833719
 20
18.63479784293345
 42
0.1989123673796619
 10
12.52236368735362
 20
15.66494936194984
 42
0.0
 10
15.43216166199829
 20
12.75515138730518
 42
-0.1989123673796613
 10
15.84221216833714
 20
11.76520189364399
 42
0.0
 10
15.84221216833714
 20
10.47499986828868
 42
-0.4142135623730911
 10
15.31721216833716
 20
9.949999868288685
 42
0.0
 10
12.34221216833726
 20
9.949999868288685
 42
0.4142135623731526
 10
11.81721216833716
 20
9.424999868288698
 42
0.0
 10
11.81721216833716
 20
7.674999868288676
 42
0.4142135623731526
 10
12.34221216833726
 20
7.149999868288688
 42
0.0
 10
15.84221216833714
 20
7.149999868288688
 42
0.4142135623731044
 10
18.64221216833721
 20
9.949999868288664
 42
0.0
 10
18.64221216833721
 20
11.76520189364394
 42
0.1989123673796604
 10
17.41206064932067
 20
14.73505037462748
 42
0.0
 97
        0
 92
        7
 72
     1
 73
     1
 93
       16
 10
23.54221216833719
 20
19.04999986828869
 42
-0.4142135623730935
 10
24.94221216833716
 20
20.44999986828869
 42
0.0
 10
26.86721216833712
 20
20.44999986828869
 42
0.4142135623731546
 10
27.39221216833721
 20
20.97499986828868
 42
0.0
 10
27.39221216833721
 20
22.72499986828869
 42
0.4142135623730952
 10
26.86721216833723
 20
23.24999986828869
 42
0.0
 10
24.94221216833705
 20
23.24999986828865
 42
0.4142135623730892
 10
20.74221216833712
 20
19.04999986828862
 42
0.0
 10
20.74221216833712
 20
11.34999986828871
 42
0.4142135623730969
 10
24.94221216833716
 20
7.149999868288688
 42
0.0
 10
26.86721216833712
 20
7.149999868288688
 42
0.4142135623731526
 10
27.39221216833721
 20
7.674999868288676
 42
0.0
 10
27.39221216833721
 20
9.424999868288698
 42
0.414213562373089
 10
26.86721216833723
 20
9.949999868288685
 42
0.0
 10
24.94221216833716
 20
9.949999868288685
 42
-0.4142135623730928
 10
23.54221216833719
 20
11.34999986828867
 42
0.0
 97
        0
 92
        7
 72
     1
 73
     1
 93
        2
 10
24.24221216833712
 20
15.19999986828869
 42
1.0
 10
27.74221216833712
 20
15.19999986828869
 42
1.0
 97
        0
 92
        7
 72
     1
 73
     1
 93
       26
 10
37.31485865051513
 20
19.20504706185211
 42
0.0
 10
38.37649828365295
 20
22.5669059001217
 42
0.5069206636600134
 10
37.87586738445759
 20
23.24999986828869
 42
0.0
 10
36.17697800484837
 20
23.24999986828869
 42
0.3272098845218764
 10
35.67634710565301
 20
22.88309383645566
 42
0.0
 10
33.80807723102123
 20
16.96690590012177
 42
-0.3272098845219541
 10
33.30744633182576
 20
16.59999986828868
 42
0.0
 10
33.1672121683373
 20
16.59999986828868
 42
-0.4142135623731526
 10
32.64221216833721
 20
17.12499986828867
 42
0.0
 10
32.64221216833721
 20
22.72499986828869
 42
0.4142135623730952
 10
32.11721216833723
 20
23.24999986828869
 42
0.0
 10
30.36721216833712
 20
23.24999986828869
 42
0.4142135623730872
 10
29.84221216833714
 20
22.72499986828871
 42
0.0
 10
29.84221216833714
 20
7.674999868288676
 42
0.414213562373089
 10
30.36721216833712
 20
7.149999868288688
 42
0.0
 10
32.11721216833712
 20
7.149999868288688
 42
0.4142135623731526
 10
32.64221216833721
 20
7.674999868288676
 42
0.0
 10
32.64221216833721
 20
13.2749998682887
 42
-0.4142135623731526
 10
33.1672121683373
 20
13.79999986828869
 42
0.0
 10
33.30744633182587
 20
13.79999986828869
 42
-0.3272098845218915
 10
33.80807723102123
 20
13.43309383645561
 42
0.0
 10
35.67634710565301
 20
7.51690590012176
 42
0.3272098845218902
 10
36.17697800484837
 20
7.149999868288688
 42
0.0
 10
37.87586738445759
 20
7.149999868288688
 42
0.5069206636600334
 10
38.37649828365295
 20
7.833093836455696
 42
0.0
 10
36.05010690517929
 20
15.19999986828882
 42
0.0
 97
        0
 92
        7
 72
     1
 73
     1
 93
        8
 10
43.49221216833712
 20
22.7249998682887
 42
0.4142135623731546
 10
42.96721216833703
 20
23.24999986828869
 42
0.0
 10
41.21721216833726
 20
23.24999986828869
 42
0.4142135623731506
 10
40.69221216833716
 20
22.72499986828871
 42
0.0
 10
40.69221216833716
 20
7.674999868288676
 42
0.4142135623731526
 10
41.21721216833726
 20
7.149999868288688
 42
0.0
 10
42.96721216833703
 20
7.149999868288688
 42
0.4142135623731526
 10
43.49221216833712
 20
7.674999868288676
 42
0.0
 97
        0
 92
        7
 72
     1
 73
     1
 93
       24
 10
48.39221216833721
 20
19.92499986828869
 42
-0.4142135623731547
 10
48.9172121683373
 20
20.44999986828869
 42
0.0
 10
51.89221216833721
 20
20.44999986828869
 42
0.4142135623730911
 10
52.41721216833719
 20
20.97499986828868
 42
0.0
 10
52.41721216833719
 20
22.72499986828869
 42
0.4142135623730952
 10
51.89221216833721
 20
23.24999986828869
 42
0.0
 10
48.39221216833721
 20
23.24999986828869
 42
0.4142135623731048
 10
45.59221216833714
 20
20.44999986828871
 42
0.0
 10
45.59221216833714
 20
18.63479784293345
 42
0.1989123673796613
 10
46.82236368735369
 20
15.66494936194989
 42
0.0
 10
49.73216166199836
 20
12.75515138730523
 42
-0.1989123673796402
 10
50.14221216833721
 20
11.76520189364415
 42
0.0
 10
50.14221216833721
 20
10.47499986828868
 42
-0.4142135623730911
 10
49.61721216833723
 20
9.949999868288685
 42
0.0
 10
46.64221216833721
 20
9.949999868288685
 42
0.4142135623731526
 10
46.11721216833712
 20
9.424999868288698
 42
0.0
 10
46.11721216833712
 20
7.674999868288676
 42
0.414213562373089
 10
46.6422121683371
 20
7.149999868288688
 42
0.0
 10
50.14221216833721
 20
7.149999868288688
 42
0.4142135623730925
 10
52.94221216833716
 20
9.949999868288664
 42
0.0
 10
52.94221216833716
 20
11.76520189364394
 42
0.1989123673796675
 10
51.71206064932062
 20
14.73505037462759
 42
0.0
 10
48.80226267467606
 20
17.64484834927211
 42
-0.1989123673796653
 10
48.39221216833721
 20
18.63479784293327
 42
0.0
 97
        0
 92
        7
 72
     1
 73
     1
 93
       16
 10
57.84221216833714
 20
22.72499986828868
 42
0.414213562373103
 10
57.31721216833716
 20
23.24999986828869
 42
0.0
 10
55.56721216833716
 20
23.24999986828869
 42
0.4142135623730872
 10
55.04221216833719
 20
22.72499986828871
 42
0.0
 10
55.04221216833719
 20
9.949999868288664
 42
0.4142135623730925
 10
57.84221216833714
 20
7.149999868288688
 42
0.0
 10
61.34221216833714
 20
7.149999868288688
 42
0.4142135623731044
 10
64.14221216833721
 20
9.949999868288664
 42
0.0
 10
64.14221216833721
 20
22.72499986828869
 42
0.4142135623730952
 10
63.61721216833723
 20
23.24999986828869
 42
0.0
 10
61.86721216833712
 20
23.24999986828869
 42
0.4142135623730872
 10
61.34221216833714
 20
22.72499986828871
 42
0.0
 10
61.34221216833714
 20
10.99999986828866
 42
-0.414213562373088
 10
60.29221216833719
 20
9.949999868288685
 42
0.0
 10
58.89221216833721
 20
9.949999868288685
 42
-0.4142135623731197
 10
57.84221216833714
 20
10.99999986828866
 42
0.0
 97
        0
 92
        7
 72
     1
 73
     1
 93
        8
 10
69.04221216833719
 20
22.72499986828871
 42
0.4142135623730872
 10
68.51721216833721
 20
23.24999986828869
 42
0.0
 10
66.76721216833721
 20
23.24999986828869
 42
0.4142135623731506
 10
66.24221216833712
 20
22.72499986828871
 42
0.0
 10
66.24221216833712
 20
7.674999868288676
 42
0.414213562373089
 10
66.7672121683371
 20
7.149999868288688
 42
0.0
 10
68.51721216833721
 20
7.149999868288688
 42
0.414213562373089
 10
69.04221216833719
 20
7.674999868288676
 42
0.0
 97
        0
 75
     0
 76
     1
 52
0.0
 41
0.2
 77
     0
 78
     2
 53
45.0
 43
-900.942304321123
 44
-13.20000013171125
 45
-0.4490128060534576
 46
0.4490128060534577
 79
     0
 53
135.0
 43
-900.942304321123
 44
-13.20000013171125
 45
-0.4490128060534577
 46
-0.4490128060534576
 79
     0
 47
0.057451373970553
 98
        8
 10
16.07985497657933
 20
15.16717351417424
 10
22.40451501999519
 20
18.84406205073969
 10
25.16436789921568
 20
15.5118815143594
 10
30.91405999519316
 20
16.20129751473019
 10
41.83847203251276
 20
16.6609097822718
 10
46.89820090868557
 20
19.41857618469589
 10
56.55768598595637
 20
18.7291577833837
 10
67.82707963317876
 20
19.18877005092531
  0
LINE
  5
3F02
330
1A
100
AcDbEntity
  8
ZUWAKU
100
AcDbLine
 10
24.94221216833716
 20
23.24999986828865
 30
0.0
 11
26.86721216833712
 21
23.24999986828869
 31
0.0
  0
LINE
  5
3F03
330
1A
100
AcDbEntity
  8
ZUWAKU
100
AcDbLine
 10
26.86721216833712
 20
20.44999986828869
 30
0.0
 11
24.94221216833716
 21
20.44999986828869
 31
0.0
  0
LINE
  5
3F04
330
1A
100
AcDbEntity
  8
ZUWAKU
100
AcDbLine
 10
24.94221216833716
 20
9.949999868288685
 30
0.0
 11
26.86721216833712
 21
9.949999868288685
 31
0.0
  0
LINE
  5
3F05
330
1A
100
AcDbEntity
  8
ZUWAKU
100
AcDbLine
 10
26.86721216833712
 20
7.149999868288688
 30
0.0
 11
24.94221216833716
 21
7.149999868288688
 31
0.0
  0
CIRCLE
  5
3F06
330
1A
100
AcDbEntity
  8
ZUWAKU
100
AcDbCircle
 10
25.99221216833712
 20
15.19999986828869
 30
0.0
 40
1.75
  0
ARC
  5
3F07
330
1A
100
AcDbEntity
  8
ZUWAKU
100
AcDbCircle
 10
15.49221216833712
 20
18.63479784293339
 30
0.0
 40
1.4
100
AcDbArc
 50
180.0000000000016
 51
224.9999999999988
  0
LINE
  5
3F08
330
1A
100
AcDbEntity
  8
ZUWAKU
100
AcDbLine
 10
23.54221216833719
 20
19.04999986828869
 30
0.0
 11
23.54221216833719
 21
11.34999986828869
 31
0.0
  0
LINE
  5
3F09
330
1A
100
AcDbEntity
  8
ZUWAKU
100
AcDbLine
 10
20.74221216833712
 20
11.34999986828869
 30
0.0
 11
20.74221216833712
 21
19.04999986828864
 31
0.0
  0
ARC
  5
3F0A
330
1A
100
AcDbEntity
  8
ZUWAKU
100
AcDbCircle
 10
15.49221216833712
 20
18.63479784293339
 30
0.0
 40
4.199999999999999
100
AcDbArc
 50
180.0
 51
225.0
  0
ARC
  5
3F0B
330
1A
100
AcDbEntity
  8
ZUWAKU
100
AcDbCircle
 10
15.84221216833714
 20
9.949999868288685
 30
0.0
 40
2.8
100
AcDbArc
 50
270.0
 51
0.0
  0
ARC
  5
3F0C
330
1A
100
AcDbEntity
  8
ZUWAKU
100
AcDbCircle
 10
24.94221216833716
 20
11.34999986828869
 30
0.0
 40
4.199999999999999
100
AcDbArc
 50
180.0
 51
270.0
  0
ARC
  5
3F0D
330
1A
100
AcDbEntity
  8
ZUWAKU
100
AcDbCircle
 10
14.44221216833716
 20
11.76520189364399
 30
0.0
 40
4.199999999999999
100
AcDbArc
 50
0.0
 51
45.0
  0
LINE
  5
3F0E
330
1A
100
AcDbEntity
  8
ZUWAKU
100
AcDbLine
 10
17.41206064932067
 20
14.73505037462751
 30
0.0
 11
14.50226267467599
 21
17.64484834927219
 31
0.0
  0
LINE
  5
3F0F
330
1A
100
AcDbEntity
  8
ZUWAKU
100
AcDbLine
 10
15.84221216833714
 20
10.47499986828869
 30
0.0
 11
15.84221216833714
 21
11.76520189364403
 31
0.0
  0
ARC
  5
3F10
330
1A
100
AcDbEntity
  8
ZUWAKU
100
AcDbCircle
 10
15.31721216833716
 20
10.47499986828869
 30
0.0
 40
0.5249999999999999
100
AcDbArc
 50
270.0
 51
0.0
  0
ARC
  5
3F11
330
1A
100
AcDbEntity
  8
ZUWAKU
100
AcDbCircle
 10
14.44221216833716
 20
11.76520189364403
 30
0.0
 40
1.4
100
AcDbArc
 50
0.0
 51
45.0
  0
LINE
  5
3F12
330
1A
100
AcDbEntity
  8
ZUWAKU
100
AcDbLine
 10
11.81721216833716
 20
7.674999868288687
 30
0.0
 11
11.81721216833716
 21
9.424999868288687
 31
0.0
  0
ARC
  5
3F13
330
1A
100
AcDbEntity
  8
ZUWAKU
100
AcDbCircle
 10
12.34221216833714
 20
7.674999868288687
 30
0.0
 40
0.5249999999999999
100
AcDbArc
 50
180.0
 51
270.0
  0
ARC
  5
3F14
330
1A
100
AcDbEntity
  8
ZUWAKU
100
AcDbCircle
 10
12.34221216833714
 20
9.424999868288687
 30
0.0
 40
0.5249999999999999
100
AcDbArc
 50
90.0
 51
180.0
  0
LINE
  5
3F15
330
1A
100
AcDbEntity
  8
ZUWAKU
100
AcDbLine
 10
12.34221216833714
 20
7.149999868288688
 30
0.0
 11
15.84221216833714
 21
7.149999868288688
 31
0.0
  0
LINE
  5
3F16
330
1A
100
AcDbEntity
  8
ZUWAKU
100
AcDbLine
 10
12.34221216833714
 20
9.949999868288685
 30
0.0
 11
15.31721216833716
 21
9.949999868288685
 31
0.0
  0
LINE
  5
3F17
330
1A
100
AcDbEntity
  8
ZUWAKU
100
AcDbLine
 10
12.52236368735362
 20
15.66494936194987
 30
0.0
 11
15.43216166199829
 21
12.7551513873052
 31
0.0
  0
LINE
  5
3F18
330
1A
100
AcDbEntity
  8
ZUWAKU
100
AcDbLine
 10
18.64221216833721
 20
9.949999868288685
 30
0.0
 11
18.64221216833721
 21
11.76520189364403
 31
0.0
  0
ARC
  5
3F19
330
1A
100
AcDbEntity
  8
ZUWAKU
100
AcDbCircle
 10
24.94221216833716
 20
11.34999986828869
 30
0.0
 40
1.4
100
AcDbArc
 50
180.0
 51
270.0
  0
ARC
  5
3F1A
330
1A
100
AcDbEntity
  8
ZUWAKU
100
AcDbCircle
 10
17.59221216833714
 20
22.72499986828868
 30
0.0
 40
0.5249999999999999
100
AcDbArc
 50
0.0
 51
90.0
  0
ARC
  5
3F1B
330
1A
100
AcDbEntity
  8
ZUWAKU
100
AcDbCircle
 10
17.59221216833714
 20
20.97499986828868
 30
0.0
 40
0.5249999999999999
100
AcDbArc
 50
270.0
 51
0.0
  0
LINE
  5
3F1C
330
1A
100
AcDbEntity
  8
ZUWAKU
100
AcDbLine
 10
14.09221216833714
 20
23.24999986828869
 30
0.0
 11
17.59221216833714
 21
23.24999986828869
 31
0.0
  0
ARC
  5
3F1D
330
1A
100
AcDbEntity
  8
ZUWAKU
100
AcDbCircle
 10
14.61721216833712
 20
19.92499986828869
 30
0.0
 40
0.5249999999999999
100
AcDbArc
 50
90.0
 51
180.0
  0
LINE
  5
3F1E
330
1A
100
AcDbEntity
  8
ZUWAKU
100
AcDbLine
 10
14.09221216833714
 20
19.92499986828869
 30
0.0
 11
14.09221216833714
 21
18.63479784293335
 31
0.0
  0
LINE
  5
3F1F
330
1A
100
AcDbEntity
  8
ZUWAKU
100
AcDbLine
 10
17.59221216833714
 20
20.44999986828869
 30
0.0
 11
14.61721216833712
 21
20.44999986828869
 31
0.0
  0
LINE
  5
3F20
330
1A
100
AcDbEntity
  8
ZUWAKU
100
AcDbLine
 10
11.29221216833719
 20
20.44999986828869
 30
0.0
 11
11.29221216833719
 21
18.63479784293335
 31
0.0
  0
ARC
  5
3F21
330
1A
100
AcDbEntity
  8
ZUWAKU
100
AcDbCircle
 10
14.09221216833714
 20
20.44999986828869
 30
0.0
 40
2.8
100
AcDbArc
 50
90.0
 51
180.0
  0
LINE
  5
3F22
330
1A
100
AcDbEntity
  8
ZUWAKU
100
AcDbLine
 10
18.11721216833712
 20
22.72499986828868
 30
0.0
 11
18.11721216833712
 21
20.97499986828868
 31
0.0
  0
ARC
  5
3F23
330
1A
100
AcDbEntity
  8
ZUWAKU
100
AcDbCircle
 10
24.94221216833716
 20
19.04999986828869
 30
0.0
 40
1.4
100
AcDbArc
 50
90.0
 51
180.0
  0
ARC
  5
3F24
330
1A
100
AcDbEntity
  8
ZUWAKU
100
AcDbCircle
 10
24.94221216833716
 20
19.04999986828864
 30
0.0
 40
4.199999999999999
100
AcDbArc
 50
90.0
 51
180.0
  0
LINE
  5
3F25
330
1A
100
AcDbEntity
  8
ZUWAKU
100
AcDbLine
 10
79.32662956154422
 20
29.99999986828868
 30
0.0
 11
79.32662956154445
 21
0.7999998682887508
 31
0.0
  0
LINE
  5
3F26
330
1A
100
AcDbEntity
  8
ZUWAKU
100
AcDbLine
 10
79.52662956154427
 20
29.99999986828868
 30
0.0
 11
79.5266295615445
 21
0.7999998682887508
 31
0.0
  0
LINE
  5
3F27
330
1A
100
AcDbEntity
  8
ZUWAKU
100
AcDbLine
 10
79.12662956154441
 20
29.99999986828868
 30
0.0
 11
79.12662956154441
 21
0.7999998682887508
 31
0.0
  0
LINE
  5
3F28
330
1A
100
AcDbEntity
  8
ZUWAKU
100
AcDbLine
 10
64.14221216833721
 20
9.949999868288685
 30
0.0
 11
64.14221216833721
 21
22.72499986828868
 31
0.0
  0
LINE
  5
3F29
330
1A
100
AcDbEntity
  8
ZUWAKU
100
AcDbLine
 10
61.34221216833714
 20
22.72499986828868
 30
0.0
 11
61.34221216833714
 21
10.99999986828868
 31
0.0
  0
LINE
  5
3F2A
330
1A
100
AcDbEntity
  8
ZUWAKU
100
AcDbLine
 10
69.04221216833719
 20
7.674999868288687
 30
0.0
 11
69.04221216833719
 21
22.72499986828868
 31
0.0
  0
LINE
  5
3F2B
330
1A
100
AcDbEntity
  8
ZUWAKU
100
AcDbLine
 10
66.24221216833712
 20
22.72499986828868
 30
0.0
 11
66.24221216833712
 21
7.674999868288687
 31
0.0
  0
ARC
  5
3F2C
330
1A
100
AcDbEntity
  8
ZUWAKU
100
AcDbCircle
 10
49.79221216833719
 20
18.63479784293339
 30
0.0
 40
1.4
100
AcDbArc
 50
180.0000000000016
 51
224.9999999999988
  0
ARC
  5
3F2D
330
1A
100
AcDbEntity
  8
ZUWAKU
100
AcDbCircle
 10
49.79221216833719
 20
18.63479784293339
 30
0.0
 40
4.199999999999999
100
AcDbArc
 50
180.0
 51
225.0
  0
LINE
  5
3F2E
330
1A
100
AcDbEntity
  8
ZUWAKU
100
AcDbLine
 10
37.31485865051513
 20
19.20504706185211
 30
0.0
 11
36.05010690517929
 21
15.19999986828871
 31
0.0
  0
LINE
  5
3F2F
330
1A
100
AcDbEntity
  8
ZUWAKU
100
AcDbLine
 10
40.69221216833716
 20
22.72499986828868
 30
0.0
 11
40.69221216833716
 21
7.674999868288687
 31
0.0
  0
LINE
  5
3F30
330
1A
100
AcDbEntity
  8
ZUWAKU
100
AcDbLine
 10
43.49221216833712
 20
7.674999868288687
 30
0.0
 11
43.49221216833712
 21
22.72499986828868
 31
0.0
  0
LINE
  5
3F31
330
1A
100
AcDbEntity
  8
ZUWAKU
100
AcDbLine
 10
55.04221216833719
 20
22.72499986828868
 30
0.0
 11
55.04221216833719
 21
9.949999868288685
 31
0.0
  0
LINE
  5
3F32
330
1A
100
AcDbEntity
  8
ZUWAKU
100
AcDbLine
 10
57.84221216833714
 20
10.99999986828868
 30
0.0
 11
57.84221216833714
 21
22.72499986828868
 31
0.0
  0
LINE
  5
3F33
330
1A
100
AcDbEntity
  8
ZUWAKU
100
AcDbLine
 10
32.64221216833721
 20
17.12499986828869
 30
0.0
 11
32.64221216833721
 21
22.72499986828868
 31
0.0
  0
LINE
  5
3F34
330
1A
100
AcDbEntity
  8
ZUWAKU
100
AcDbLine
 10
29.84221216833714
 20
22.72499986828868
 30
0.0
 11
29.84221216833714
 21
7.674999868288687
 31
0.0
  0
LINE
  5
3F35
330
1A
100
AcDbEntity
  8
ZUWAKU
100
AcDbLine
 10
35.67634710565301
 20
22.88309383645566
 30
0.0
 11
33.80807723102123
 21
16.96690590012172
 31
0.0
  0
LINE
  5
3F36
330
1A
100
AcDbEntity
  8
ZUWAKU
100
AcDbLine
 10
60.29221216833719
 20
9.949999868288685
 30
0.0
 11
58.89221216833721
 21
9.949999868288685
 31
0.0
  0
LINE
  5
3F37
330
1A
100
AcDbEntity
  8
ZUWAKU
100
AcDbLine
 10
57.84221216833714
 20
7.149999868288688
 30
0.0
 11
61.34221216833714
 21
7.149999868288688
 31
0.0
  0
LINE
  5
3F38
330
1A
100
AcDbEntity
  8
ZUWAKU
100
AcDbLine
 10
41.21721216833714
 20
7.149999868288688
 30
0.0
 11
42.96721216833714
 21
7.149999868288688
 31
0.0
  0
LINE
  5
3F39
330
1A
100
AcDbEntity
  8
ZUWAKU
100
AcDbLine
 10
35.67634710565301
 20
7.516905900121714
 30
0.0
 11
33.80807723102123
 21
13.43309383645565
 31
0.0
  0
ARC
  5
3F3A
330
1A
100
AcDbEntity
  8
ZUWAKU
100
AcDbCircle
 10
33.30744633182587
 20
17.12499986828869
 30
0.0
 40
0.5249999999999999
100
AcDbArc
 50
270.0
 51
342.474431626277
  0
LINE
  5
3F3B
330
1A
100
AcDbEntity
  8
ZUWAKU
100
AcDbLine
 10
33.30744633182587
 20
16.59999986828868
 30
0.0
 11
33.16721216833719
 21
16.59999986828868
 31
0.0
  0
LINE
  5
3F3C
330
1A
100
AcDbEntity
  8
ZUWAKU
100
AcDbLine
 10
33.16721216833719
 20
13.79999986828869
 30
0.0
 11
33.30744633182587
 21
13.79999986828869
 31
0.0
  0
ARC
  5
3F3D
330
1A
100
AcDbEntity
  8
ZUWAKU
100
AcDbCircle
 10
33.16721216833719
 20
17.12499986828869
 30
0.0
 40
0.5249999999999999
100
AcDbArc
 50
180.0
 51
270.0
  0
LINE
  5
3F3E
330
1A
100
AcDbEntity
  8
ZUWAKU
100
AcDbLine
 10
30.36721216833712
 20
7.149999868288688
 30
0.0
 11
32.11721216833712
 21
7.149999868288688
 31
0.0
  0
ARC
  5
3F3F
330
1A
100
AcDbEntity
  8
ZUWAKU
100
AcDbCircle
 10
32.11721216833712
 20
7.674999868288687
 30
0.0
 40
0.5249999999999999
100
AcDbArc
 50
270.0
 51
0.0
  0
LINE
  5
3F40
330
1A
100
AcDbEntity
  8
ZUWAKU
100
AcDbLine
 10
32.64221216833721
 20
7.674999868288687
 30
0.0
 11
32.64221216833721
 21
13.27499986828869
 31
0.0
  0
LINE
  5
3F41
330
1A
100
AcDbEntity
  8
ZUWAKU
100
AcDbLine
 10
27.39221216833721
 20
9.424999868288687
 30
0.0
 11
27.39221216833721
 21
7.674999868288687
 31
0.0
  0
ARC
  5
3F42
330
1A
100
AcDbEntity
  8
ZUWAKU
100
AcDbCircle
 10
26.86721216833712
 20
7.674999868288687
 30
0.0
 40
0.5249999999999999
100
AcDbArc
 50
270.0
 51
0.0
  0
ARC
  5
3F43
330
1A
100
AcDbEntity
  8
ZUWAKU
100
AcDbCircle
 10
26.86721216833712
 20
9.424999868288687
 30
0.0
 40
0.5249999999999999
100
AcDbArc
 50
0.0
 51
90.0
  0
ARC
  5
3F44
330
1A
100
AcDbEntity
  8
ZUWAKU
100
AcDbCircle
 10
30.36721216833712
 20
7.674999868288687
 30
0.0
 40
0.5249999999999999
100
AcDbArc
 50
180.0
 51
270.0
  0
ARC
  5
3F45
330
1A
100
AcDbEntity
  8
ZUWAKU
100
AcDbCircle
 10
33.30744633182587
 20
13.27499986828869
 30
0.0
 40
0.5249999999999999
100
AcDbArc
 50
17.52556837372303
 51
90.0
  0
ARC
  5
3F46
330
1A
100
AcDbEntity
  8
ZUWAKU
100
AcDbCircle
 10
33.16721216833719
 20
13.27499986828869
 30
0.0
 40
0.5249999999999999
100
AcDbArc
 50
90.0
 51
180.0
  0
ARC
  5
3F47
330
1A
100
AcDbEntity
  8
ZUWAKU
100
AcDbCircle
 10
41.21721216833714
 20
7.674999868288687
 30
0.0
 40
0.5249999999999999
100
AcDbArc
 50
180.0
 51
270.0
  0
LINE
  5
3F48
330
1A
100
AcDbEntity
  8
ZUWAKU
100
AcDbLine
 10
36.17697800484848
 20
7.149999868288688
 30
0.0
 11
37.87586738445748
 21
7.149999868288688
 31
0.0
  0
ARC
  5
3F49
330
1A
100
AcDbEntity
  8
ZUWAKU
100
AcDbCircle
 10
37.87586738445748
 20
7.674999868288687
 30
0.0
 40
0.5249999999999999
100
AcDbArc
 50
270.0
 51
17.52556837372303
  0
LINE
  5
3F4A
330
1A
100
AcDbEntity
  8
ZUWAKU
100
AcDbLine
 10
38.37649828365295
 20
7.83309383645566
 30
0.0
 11
36.05010690517929
 21
15.19999986828871
 31
0.0
  0
ARC
  5
3F4B
330
1A
100
AcDbEntity
  8
ZUWAKU
100
AcDbCircle
 10
36.17697800484848
 20
7.674999868288687
 30
0.0
 40
0.5249999999999999
100
AcDbArc
 50
197.525568373723
 51
270.0
  0
ARC
  5
3F4C
330
1A
100
AcDbEntity
  8
ZUWAKU
100
AcDbCircle
 10
57.84221216833714
 20
9.949999868288685
 30
0.0
 40
2.8
100
AcDbArc
 50
180.0
 51
270.0
  0
ARC
  5
3F4D
330
1A
100
AcDbEntity
  8
ZUWAKU
100
AcDbCircle
 10
50.14221216833721
 20
9.949999868288685
 30
0.0
 40
2.8
100
AcDbArc
 50
270.0
 51
0.0
  0
LINE
  5
3F4E
330
1A
100
AcDbEntity
  8
ZUWAKU
100
AcDbLine
 10
51.71206064932073
 20
14.73505037462751
 30
0.0
 11
48.80226267467594
 21
17.64484834927219
 31
0.0
  0
LINE
  5
3F4F
330
1A
100
AcDbEntity
  8
ZUWAKU
100
AcDbLine
 10
50.14221216833721
 20
10.47499986828869
 30
0.0
 11
50.14221216833721
 21
11.76520189364403
 31
0.0
  0
ARC
  5
3F50
330
1A
100
AcDbEntity
  8
ZUWAKU
100
AcDbCircle
 10
48.74221216833712
 20
11.76520189364403
 30
0.0
 40
1.4
100
AcDbArc
 50
0.0
 51
45.0
  0
ARC
  5
3F51
330
1A
100
AcDbEntity
  8
ZUWAKU
100
AcDbCircle
 10
49.61721216833712
 20
10.47499986828869
 30
0.0
 40
0.5249999999999999
100
AcDbArc
 50
270.0
 51
0.0
  0
LINE
  5
3F52
330
1A
100
AcDbEntity
  8
ZUWAKU
100
AcDbLine
 10
46.11721216833712
 20
7.674999868288687
 30
0.0
 11
46.11721216833712
 21
9.424999868288687
 31
0.0
  0
ARC
  5
3F53
330
1A
100
AcDbEntity
  8
ZUWAKU
100
AcDbCircle
 10
46.64221216833721
 20
7.674999868288687
 30
0.0
 40
0.5249999999999999
100
AcDbArc
 50
180.0
 51
270.0
  0
ARC
  5
3F54
330
1A
100
AcDbEntity
  8
ZUWAKU
100
AcDbCircle
 10
42.96721216833714
 20
7.674999868288687
 30
0.0
 40
0.5249999999999999
100
AcDbArc
 50
270.0
 51
0.0
  0
ARC
  5
3F55
330
1A
100
AcDbEntity
  8
ZUWAKU
100
AcDbCircle
 10
46.64221216833721
 20
9.424999868288687
 30
0.0
 40
0.5249999999999999
100
AcDbArc
 50
90.0
 51
180.0
  0
LINE
  5
3F56
330
1A
100
AcDbEntity
  8
ZUWAKU
100
AcDbLine
 10
46.64221216833721
 20
9.949999868288685
 30
0.0
 11
49.61721216833712
 21
9.949999868288685
 31
0.0
  0
LINE
  5
3F57
330
1A
100
AcDbEntity
  8
ZUWAKU
100
AcDbLine
 10
46.64221216833721
 20
7.149999868288688
 30
0.0
 11
50.14221216833721
 21
7.149999868288688
 31
0.0
  0
LINE
  5
3F58
330
1A
100
AcDbEntity
  8
ZUWAKU
100
AcDbLine
 10
46.82236368735369
 20
15.66494936194987
 30
0.0
 11
49.73216166199836
 21
12.7551513873052
 31
0.0
  0
LINE
  5
3F59
330
1A
100
AcDbEntity
  8
ZUWAKU
100
AcDbLine
 10
52.94221216833716
 20
9.949999868288685
 30
0.0
 11
52.94221216833716
 21
11.76520189364403
 31
0.0
  0
ARC
  5
3F5A
330
1A
100
AcDbEntity
  8
ZUWAKU
100
AcDbCircle
 10
48.74221216833712
 20
11.76520189364399
 30
0.0
 40
4.199999999999999
100
AcDbArc
 50
0.0
 51
45.0
  0
ARC
  5
3F5B
330
1A
100
AcDbEntity
  8
ZUWAKU
100
AcDbCircle
 10
58.89221216833721
 20
10.99999986828868
 30
0.0
 40
1.05
100
AcDbArc
 50
180.0
 51
270.0
  0
ARC
  5
3F5C
330
1A
100
AcDbEntity
  8
ZUWAKU
100
AcDbCircle
 10
61.34221216833714
 20
9.949999868288685
 30
0.0
 40
2.8
100
AcDbArc
 50
270.0
 51
0.0
  0
LINE
  5
3F5D
330
1A
100
AcDbEntity
  8
ZUWAKU
100
AcDbLine
 10
66.76721216833721
 20
7.149999868288688
 30
0.0
 11
68.51721216833721
 21
7.149999868288688
 31
0.0
  0
ARC
  5
3F5E
330
1A
100
AcDbEntity
  8
ZUWAKU
100
AcDbCircle
 10
66.76721216833721
 20
7.674999868288687
 30
0.0
 40
0.5249999999999999
100
AcDbArc
 50
180.0
 51
270.0
  0
ARC
  5
3F5F
330
1A
100
AcDbEntity
  8
ZUWAKU
100
AcDbCircle
 10
60.29221216833719
 20
10.99999986828868
 30
0.0
 40
1.05
100
AcDbArc
 50
270.0
 51
0.0
  0
ARC
  5
3F60
330
1A
100
AcDbEntity
  8
ZUWAKU
100
AcDbCircle
 10
68.51721216833721
 20
7.674999868288687
 30
0.0
 40
0.5249999999999999
100
AcDbArc
 50
270.0
 51
0.0
  0
LINE
  5
3F61
330
1A
100
AcDbEntity
  8
ZUWAKU
100
AcDbLine
 10
42.96721216833714
 20
23.24999986828869
 30
0.0
 11
41.21721216833714
 21
23.24999986828869
 31
0.0
  0
ARC
  5
3F62
330
1A
100
AcDbEntity
  8
ZUWAKU
100
AcDbCircle
 10
32.11721216833712
 20
22.72499986828868
 30
0.0
 40
0.5249999999999999
100
AcDbArc
 50
0.0
 51
90.0
  0
LINE
  5
3F63
330
1A
100
AcDbEntity
  8
ZUWAKU
100
AcDbLine
 10
32.11721216833712
 20
23.24999986828869
 30
0.0
 11
30.36721216833712
 21
23.24999986828869
 31
0.0
  0
ARC
  5
3F64
330
1A
100
AcDbEntity
  8
ZUWAKU
100
AcDbCircle
 10
26.86721216833712
 20
22.72499986828868
 30
0.0
 40
0.5249999999999999
100
AcDbArc
 50
0.0
 51
90.0
  0
ARC
  5
3F65
330
1A
100
AcDbEntity
  8
ZUWAKU
100
AcDbCircle
 10
30.36721216833712
 20
22.72499986828868
 30
0.0
 40
0.5249999999999999
100
AcDbArc
 50
90.0
 51
180.0
  0
ARC
  5
3F66
330
1A
100
AcDbEntity
  8
ZUWAKU
100
AcDbCircle
 10
26.86721216833712
 20
20.97499986828868
 30
0.0
 40
0.5249999999999999
100
AcDbArc
 50
270.0
 51
0.0
  0
LINE
  5
3F67
330
1A
100
AcDbEntity
  8
ZUWAKU
100
AcDbLine
 10
27.39221216833721
 20
22.72499986828868
 30
0.0
 11
27.39221216833721
 21
20.97499986828868
 31
0.0
  0
ARC
  5
3F68
330
1A
100
AcDbEntity
  8
ZUWAKU
100
AcDbCircle
 10
41.21721216833714
 20
22.72499986828868
 30
0.0
 40
0.5249999999999999
100
AcDbArc
 50
90.0
 51
180.0
  0
LINE
  5
3F69
330
1A
100
AcDbEntity
  8
ZUWAKU
100
AcDbLine
 10
36.17697800484848
 20
23.24999986828869
 30
0.0
 11
37.87586738445748
 21
23.24999986828869
 31
0.0
  0
ARC
  5
3F6A
330
1A
100
AcDbEntity
  8
ZUWAKU
100
AcDbCircle
 10
37.87586738445748
 20
22.72499986828868
 30
0.0
 40
0.5249999999999999
100
AcDbArc
 50
342.474431626277
 51
90.0
  0
LINE
  5
3F6B
330
1A
100
AcDbEntity
  8
ZUWAKU
100
AcDbLine
 10
38.37649828365295
 20
22.56690590012172
 30
0.0
 11
37.31485865051513
 21
19.20504706185211
 31
0.0
  0
ARC
  5
3F6C
330
1A
100
AcDbEntity
  8
ZUWAKU
100
AcDbCircle
 10
36.17697800484848
 20
22.72499986828868
 30
0.0
 40
0.5249999999999999
100
AcDbArc
 50
90.0
 51
162.474431626277
  0
LINE
  5
3F6D
330
1A
100
AcDbEntity
  8
ZUWAKU
100
AcDbLine
 10
48.39221216833721
 20
23.24999986828869
 30
0.0
 11
51.89221216833721
 21
23.24999986828869
 31
0.0
  0
LINE
  5
3F6E
330
1A
100
AcDbEntity
  8
ZUWAKU
100
AcDbLine
 10
51.89221216833721
 20
20.44999986828869
 30
0.0
 11
48.91721216833719
 21
20.44999986828869
 31
0.0
  0
ARC
  5
3F6F
330
1A
100
AcDbEntity
  8
ZUWAKU
100
AcDbCircle
 10
48.91721216833719
 20
19.92499986828869
 30
0.0
 40
0.5249999999999999
100
AcDbArc
 50
90.0
 51
180.0
  0
LINE
  5
3F70
330
1A
100
AcDbEntity
  8
ZUWAKU
100
AcDbLine
 10
48.39221216833721
 20
19.92499986828869
 30
0.0
 11
48.39221216833721
 21
18.63479784293335
 31
0.0
  0
ARC
  5
3F71
330
1A
100
AcDbEntity
  8
ZUWAKU
100
AcDbCircle
 10
42.96721216833714
 20
22.72499986828868
 30
0.0
 40
0.5249999999999999
100
AcDbArc
 50
0.0
 51
90.0
  0
LINE
  5
3F72
330
1A
100
AcDbEntity
  8
ZUWAKU
100
AcDbLine
 10
45.59221216833714
 20
20.44999986828869
 30
0.0
 11
45.59221216833714
 21
18.63479784293335
 31
0.0
  0
ARC
  5
3F73
330
1A
100
AcDbEntity
  8
ZUWAKU
100
AcDbCircle
 10
48.39221216833721
 20
20.44999986828869
 30
0.0
 40
2.8
100
AcDbArc
 50
90.0
 51
180.0
  0
ARC
  5
3F74
330
1A
100
AcDbEntity
  8
ZUWAKU
100
AcDbCircle
 10
57.31721216833716
 20
22.72499986828868
 30
0.0
 40
0.5249999999999999
100
AcDbArc
 50
0.0
 51
90.0
  0
ARC
  5
3F75
330
1A
100
AcDbEntity
  8
ZUWAKU
100
AcDbCircle
 10
55.56721216833716
 20
22.72499986828868
 30
0.0
 40
0.5249999999999999
100
AcDbArc
 50
90.0
 51
180.0
  0
LINE
  5
3F76
330
1A
100
AcDbEntity
  8
ZUWAKU
100
AcDbLine
 10
57.31721216833716
 20
23.24999986828869
 30
0.0
 11
55.56721216833716
 21
23.24999986828869
 31
0.0
  0
ARC
  5
3F77
330
1A
100
AcDbEntity
  8
ZUWAKU
100
AcDbCircle
 10
51.89221216833721
 20
22.72499986828868
 30
0.0
 40
0.5249999999999999
100
AcDbArc
 50
0.0
 51
90.0
  0
ARC
  5
3F78
330
1A
100
AcDbEntity
  8
ZUWAKU
100
AcDbCircle
 10
51.89221216833721
 20
20.97499986828868
 30
0.0
 40
0.5249999999999999
100
AcDbArc
 50
270.0
 51
0.0
  0
LINE
  5
3F79
330
1A
100
AcDbEntity
  8
ZUWAKU
100
AcDbLine
 10
52.41721216833719
 20
22.72499986828868
 30
0.0
 11
52.41721216833719
 21
20.97499986828868
 31
0.0
  0
LINE
  5
3F7A
330
1A
100
AcDbEntity
  8
ZUWAKU
100
AcDbLine
 10
68.51721216833721
 20
23.24999986828869
 30
0.0
 11
66.76721216833721
 21
23.24999986828869
 31
0.0
  0
ARC
  5
3F7B
330
1A
100
AcDbEntity
  8
ZUWAKU
100
AcDbCircle
 10
66.76721216833721
 20
22.72499986828868
 30
0.0
 40
0.5249999999999999
100
AcDbArc
 50
90.0
 51
180.0
  0
ARC
  5
3F7C
330
1A
100
AcDbEntity
  8
ZUWAKU
100
AcDbCircle
 10
63.61721216833712
 20
22.72499986828868
 30
0.0
 40
0.5249999999999999
100
AcDbArc
 50
0.0
 51
90.0
  0
LINE
  5
3F7D
330
1A
100
AcDbEntity
  8
ZUWAKU
100
AcDbLine
 10
63.61721216833712
 20
23.24999986828869
 30
0.0
 11
61.86721216833712
 21
23.24999986828869
 31
0.0
  0
ARC
  5
3F7E
330
1A
100
AcDbEntity
  8
ZUWAKU
100
AcDbCircle
 10
61.86721216833712
 20
22.72499986828868
 30
0.0
 40
0.5249999999999999
100
AcDbArc
 50
90.0
 51
180.0
  0
ARC
  5
3F7F
330
1A
100
AcDbEntity
  8
ZUWAKU
100
AcDbCircle
 10
68.51721216833721
 20
22.72499986828868
 30
0.0
 40
0.5249999999999999
100
AcDbArc
 50
0.0
 51
90.0
  0
TEXT
  5
3F80
330
1A
100
AcDbEntity
  8
moji
100
AcDbText
 10
239.8272026944071
 20
18.00492092569607
 30
0.0
 40
5.6
  1
ステンレス金具上打Ⅰ型
 41
0.9
  7
ｽﾀｲﾙ1
100
AcDbText
  0
TEXT
  5
3F81
330
1A
100
AcDbEntity
  8
moji
100
AcDbText
 10
239.8272026944071
 20
3.204920925696104
 30
0.0
 40
5.6
  1
Σ９０－Ⅰ－２.５
 41
0.9
  7
ｽﾀｲﾙ1
100
AcDbText
  0
LINE
  5
3F82
330
1A
100
AcDbEntity
  8
ZUWAKU
100
AcDbLine
 10
208.246601303624
 20
29.99999986828868
 30
0.0
 11
208.246601303624
 21
0.7999998682887508
 31
0.0
  0
LINE
  5
3F83
330
1A
100
AcDbEntity
  8
ZUWAKU
100
AcDbLine
 10
208.6466013036238
 20
29.99999986828868
 30
0.0
 11
208.646601303624
 21
0.7999998682887508
 31
0.0
  0
LINE
  5
3F84
330
1A
100
AcDbEntity
  8
ZUWAKU
100
AcDbLine
 10
208.4466013036238
 20
29.99999986828868
 30
0.0
 11
208.446601303624
 21
0.7999998682887508
 31
0.0
  0
TEXT
  5
3F85
330
1A
100
AcDbEntity
  8
ZUWAKU
100
AcDbText
 10
209.7240463258336
 20
9.655356406674301
 30
0.0
 40
4.0
  1
サイズ
 41
0.9
  7
ｽﾀｲﾙ1
100
AcDbText
  0
TEXT
  5
3F86
330
1A
100
AcDbEntity
  8
ZUWAKU
100
AcDbText
 10
209.7240463258333
 20
24.05535640667426
 30
0.0
 40
4.0
  1
品名
 41
0.9
  7
ｽﾀｲﾙ1
100
AcDbText
  0
LINE
  5
3F87
330
1A
100
AcDbEntity
  8
ZUWAKU
100
AcDbLine
 10
648.8172025237602
 20
15.19999986828871
 30
0.0
 11
697.2490105620973
 21
15.19999986828872
 31
0.0
  0
LINE
  5
3F88
330
1A
100
AcDbEntity
  8
ZUWAKU
100
AcDbLine
 10
648.8172025237604
 20
15.39999986828872
 30
0.0
 11
697.2490105620973
 21
15.39999986828872
 31
0.0
  0
LINE
  5
3F89
330
1A
100
AcDbEntity
  8
ZUWAKU
100
AcDbLine
 10
648.8172025237602
 20
15.59999986828872
 30
0.0
 11
697.2490105620973
 21
15.59999986828872
 31
0.0
  0
TEXT
  5
3F8A
330
1A
100
AcDbEntity
  8
ZUWAKU
100
AcDbText
 10
658.2039377008584
 20
18.00492092569607
 30
0.0
 40
5.6
  1
　　．　　．　　
 41
0.9
  7
ｽﾀｲﾙ1
100
AcDbText
  0
LINE
  5
3F8B
330
1A
100
AcDbEntity
  8
ZUWAKU
100
AcDbLine
 10
505.1991795116969
 20
15.19999986828872
 30
0.0
 11
552.5269557796685
 21
15.19999986828872
 31
0.0
  0
LINE
  5
3F8C
330
1A
100
AcDbEntity
  8
ZUWAKU
100
AcDbLine
 10
505.1991795116969
 20
15.39999986828872
 30
0.0
 11
552.5269557796685
 21
15.39999986828872
 31
0.0
  0
LINE
  5
3F8D
330
1A
100
AcDbEntity
  8
ZUWAKU
100
AcDbLine
 10
505.1991795116969
 20
15.59999986828872
 30
0.0
 11
552.5269557796685
 21
15.59999986828872
 31
0.0
  0
TEXT
  5
3F8E
330
1A
100
AcDbEntity
  8
moji
100
AcDbText
 10
463.2464320045581
 20
11.94261758994867
 30
0.0
 40
5.6
  1
ＬＧ３６□
 41
0.9
  7
ｽﾀｲﾙ1
100
AcDbText
  0
LINE
  5
3F8F
330
1A
100
AcDbEntity
  8
ZUWAKU
100
AcDbLine
 10
447.6243639845472
 20
29.99999986828868
 30
0.0
 11
447.6243639845475
 21
0.7999998682887508
 31
0.0
  0
LINE
  5
3F90
330
1A
100
AcDbEntity
  8
ZUWAKU
100
AcDbLine
 10
447.8243639845473
 20
29.99999986828868
 30
0.0
 11
447.8243639845475
 21
0.7999998682887508
 31
0.0
  0
LINE
  5
3F91
330
1A
100
AcDbEntity
  8
ZUWAKU
100
AcDbLine
 10
447.4243639845474
 20
29.99999986828868
 30
0.0
 11
447.4243639845474
 21
0.7999998682887508
 31
0.0
  0
TEXT
  5
3F92
330
1A
100
AcDbEntity
  8
moji
100
AcDbText
 10
528.0409079858689
 20
18.00492092569607
 30
0.0
 40
5.6
  1
Ａ３
 41
0.9
  7
ｽﾀｲﾙ1
100
AcDbText
  0
LINE
  5
3F93
330
1A
100
AcDbEntity
  8
ZUWAKU
100
AcDbLine
 10
504.9991795116969
 20
29.99999986828868
 30
0.0
 11
504.9991795116971
 21
0.7999998682887508
 31
0.0
  0
LINE
  5
3F94
330
1A
100
AcDbEntity
  8
ZUWAKU
100
AcDbLine
 10
505.1991795116969
 20
29.99999986828868
 30
0.0
 11
505.1991795116971
 21
0.7999998682887508
 31
0.0
  0
LINE
  5
3F95
330
1A
100
AcDbEntity
  8
ZUWAKU
100
AcDbLine
 10
504.7991795116971
 20
29.99999986828868
 30
0.0
 11
504.7991795116971
 21
0.7999998682887508
 31
0.0
  0
TEXT
  5
3F97
330
1A
100
AcDbEntity
  8
ZUWAKU
100
AcDbText
 10
506.6766245339068
 20
9.655356406674301
 30
0.0
 40
4.0
  1
縮尺
 41
0.9
  7
ｽﾀｲﾙ1
100
AcDbText
  0
TEXT
  5
3F98
330
1A
100
AcDbEntity
  8
moji
100
AcDbText
 10
528.0409079858689
 20
3.204920925696104
 30
0.0
 40
5.6
  1
１/２
 41
0.9
  7
ｽﾀｲﾙ1
100
AcDbText
  0
TEXT
  5
3F99
330
1A
100
AcDbEntity
  8
ZUWAKU
100
AcDbText
 10
449.3018090067569
 20
24.05535640667426
 30
0.0
 40
4.0
  1
品番
 41
0.9
  7
ｽﾀｲﾙ1
100
AcDbText
  0
TEXT
  5
3F9A
330
1A
100
AcDbEntity
  8
ZUWAKU
100
AcDbText
 10
506.6766245339065
 20
24.05535640667426
 30
0.0
 40
4.0
  1
用紙
 41
0.9
  7
ｽﾀｲﾙ1
100
AcDbText
  0
LINE
  5
3F9B
330
1A
100
AcDbEntity
  8
ZUWAKU
100
AcDbLine
 10
648.6172025237604
 20
29.99999986828868
 30
0.0
 11
648.6172025237606
 21
0.7999998682887508
 31
0.0
  0
LINE
  5
3F9C
330
1A
100
AcDbEntity
  8
ZUWAKU
100
AcDbLine
 10
648.8172025237604
 20
29.99999986828868
 30
0.0
 11
648.8172025237607
 21
0.7999998682887508
 31
0.0
  0
LINE
  5
3F9D
330
1A
100
AcDbEntity
  8
ZUWAKU
100
AcDbLine
 10
648.4172025237606
 20
29.99999986828868
 30
0.0
 11
648.4172025237606
 21
0.7999998682887508
 31
0.0
  0
LINE
  5
3F9E
330
1A
100
AcDbEntity
  8
ZUWAKU
100
AcDbLine
 10
552.7269557796683
 20
29.99999986828868
 30
0.0
 11
552.7269557796685
 21
0.7999998682887508
 31
0.0
  0
LINE
  5
3F9F
330
1A
100
AcDbEntity
  8
ZUWAKU
100
AcDbLine
 10
552.9269557796683
 20
29.99999986828868
 30
0.0
 11
552.9269557796686
 21
0.7999998682887508
 31
0.0
  0
LINE
  5
3FA0
330
1A
100
AcDbEntity
  8
ZUWAKU
100
AcDbLine
 10
552.5269557796685
 20
29.99999986828868
 30
0.0
 11
552.5269557796685
 21
0.7999998682887508
 31
0.0
  0
TEXT
  5
3FA1
330
1A
100
AcDbEntity
  8
ZUWAKU
100
AcDbText
 10
650.2946475459701
 20
24.05535640667426
 30
0.0
 40
4.0
  1
DATE
 41
0.9
  7
ｽﾀｲﾙ1
100
AcDbText
  0
LINE
  5
3FA2
330
1A
100
AcDbEntity
  8
ZUWAKU
100
AcDbLine
 10
697.2490105620973
 20
29.99999986828868
 30
0.0
 11
697.2490105620973
 21
0.7999998682887508
 31
0.0
  0
LINE
  5
3FA3
330
1A
100
AcDbEntity
  8
ZUWAKU
100
AcDbLine
 10
697.4490105620973
 20
29.99999986828868
 30
0.0
 11
697.4490105620973
 21
0.7999998682887508
 31
0.0
  0
LINE
  5
3FA4
330
1A
100
AcDbEntity
  8
ZUWAKU
100
AcDbLine
 10
697.6490105620972
 20
29.99999986828868
 30
0.0
 11
697.6490105620974
 21
0.7999998682887508
 31
0.0
  0
LINE
  5
3FA5
330
1A
100
AcDbEntity
  8
ZUWAKU
100
AcDbLine
 10
697.8490105620972
 20
29.99999986828868
 30
0.0
 11
697.8490105620974
 21
0.7999998682887508
 31
0.0
  0
TEXT
  5
3FA6
330
1A
100
AcDbEntity
  8
ZUWAKU
100
AcDbText
 10
708.5280842057998
 20
17.55383920397549
 30
0.0
 40
6.0
  1
積水化学工業株式会社
 41
0.9
  7
ｽﾀｲﾙ1
100
AcDbText
  0
TEXT
  5
3FA7
330
1A
100
AcDbEntity
  8
ZUWAKU
100
AcDbText
 10
708.5280842057998
 20
6.648840182142749
 30
0.0
 40
6.0
  1
建材事業部
 41
0.9
  7
ｽﾀｲﾙ1
100
AcDbText
  0
TEXT
  5
6DB4
330
1A
100
AcDbEntity
  8
ZUWAKU
100
AcDbText
 10
462.1716760137121
 20
2.614070779428175
 30
0.0
 40
3.0
  1
□には色品番が入ります
 41
0.9
  7
ｽﾀｲﾙ1
100
AcDbText
  0
LINE
  5
87BB
330
1A
100
AcDbEntity
  8
SEIHIN
  6
Continuous
 62
     3
 48
5.0
100
AcDbLine
 10
422.7946878585813
 20
160.7668839404827
 30
0.0
 11
433.0059878585811
 21
160.7668839404827
 31
0.0
  0
LINE
  5
87BC
330
1A
100
AcDbEntity
  8
SEIHIN
  6
Continuous
 62
     3
 48
5.0
100
AcDbLine
 10
422.7946878585813
 20
158.7668839404826
 30
0.0
 11
433.0059878585811
 21
158.7668839404826
 31
0.0
  0
LINE
  5
87BD
330
1A
100
AcDbEntity
  8
SEIHIN
  6
Continuous
 62
     3
 48
5.0
100
AcDbLine
 10
434.2559878585811
 20
133.3904839404827
 30
0.0
 11
425.4978878585811
 21
128.3339839404827
 31
0.0
  0
ARC
  5
87BE
330
1A
100
AcDbEntity
  8
SEIHIN
  6
Continuous
 62
     3
 48
5.0
100
AcDbCircle
 10
421.1808063038188
 20
98.07840144451797
 30
0.0
 40
5.500017504066228
100
AcDbArc
 50
269.9998078489252
 51
357.0003251698716
  0
LINE
  5
87BF
330
1A
100
AcDbEntity
  8
SEIHIN
  6
Continuous
 62
     3
 48
5.0
100
AcDbLine
 10
424.4978878585811
 20
130.0659839404827
 30
0.0
 11
433.2559878585813
 21
135.1224839404827
 31
0.0
  0
DIMENSION
  5
87C0
330
1A
100
AcDbEntity
  8
SUNPOU
100
AcDbDimension
  2
*D1
 10
435.5059802107857
 20
204.1868549008824
 30
0.0
 11
365.8984840346835
 21
209.1868549008824
 31
0.0
 70
    32
 71
     5
 42
139.2149923522044
  3
STANDARD
100
AcDbAlignedDimension
 13
296.2909878585813
 23
176.6346839404827
 33
0.0
 14
435.5059802107857
 24
195.3762339404826
 34
0.0
100
AcDbRotatedDimension
1001
ACAD
1000
DSTYLE
1002
{
1070
   140
1040
6.0
1070
    74
1070
     0
1070
   172
1070
     1
1070
    73
1070
     0
1070
   272
1070
     2
1070
    77
1070
     3
1070
   173
1070
     1
1070
   147
1040
2.0
1070
    42
1040
6.0
1070
    44
1040
3.0
1070
    43
1040
14.0
1070
   271
1070
     0
1070
   178
1070
     4
1070
   177
1070
     4
1070
   176
1070
     4
1070
   141
1040
150.0
1070
     7
1000
_OPEN
1070
     6
1000
_OPEN
1070
    41
1040
7.0
1002
}
  0
LINE
  5
87C1
330
1A
100
AcDbEntity
  8
SEIHIN
  6
Continuous
 62
     3
 48
5.0
100
AcDbLine
 10
593.2564878585812
 20
478.7154785525237
 30
0.0
 11
296.2910878585812
 21
478.7154785525237
 31
0.0
  0
LINE
  5
87C2
330
1A
100
AcDbEntity
  8
SEIHIN
  6
Continuous
 62
     3
 48
5.0
100
AcDbLine
 10
296.2910878585812
 20
497.7154785525237
 30
0.0
 11
593.2564878585812
 21
497.7154785525237
 31
0.0
  0
LINE
  5
87C3
330
1A
100
AcDbEntity
  8
CENTER L
  6
CENTER
 62
     1
 48
5.0
100
AcDbLine
 10
600.1267878585812
 20
488.2154785525237
 30
0.0
 11
284.2352878585813
 21
488.2154785525237
 31
0.0
  0
DIMENSION
  5
87C4
330
1A
100
AcDbEntity
  8
SUNPOU
 48
5.0
100
AcDbDimension
  2
*D2
 10
485.4634030188084
 20
95.07838394048265
 30
0.0
 11
480.4634030188084
 21
111.0783839404827
 31
0.0
 70
    32
 71
     5
 42
65.68849999999999
  3
STANDARD
100
AcDbAlignedDimension
 13
433.0059878585812
 23
160.7668839404827
 33
0.0
 14
421.1545878585811
 24
95.07838394048267
 34
0.0
 50
90.0
100
AcDbRotatedDimension
1001
ACAD
1000
DSTYLE
1002
{
1070
   140
1040
6.0
1070
    74
1070
     0
1070
   172
1070
     1
1070
    73
1070
     0
1070
   272
1070
     2
1070
    77
1070
     3
1070
   173
1070
     1
1070
   280
1070
     2
1070
   147
1040
2.0
1070
    42
1040
6.0
1070
    44
1040
3.0
1070
    43
1040
14.0
1070
   271
1070
     0
1070
   178
1070
     4
1070
   177
1070
     4
1070
   176
1070
     4
1070
   141
1040
150.0
1070
     7
1000
_OPEN
1070
     6
1000
_OPEN
1070
    41
1040
7.0
1002
}
  0
DIMENSION
  5
87C5
330
1A
100
AcDbEntity
  8
SUNPOU
 62
     4
100
AcDbDimension
  2
*D3
 10
296.2910878585812
 20
447.6913766440788
 30
0.0
 11
444.7738378585812
 21
452.6913766440788
 31
0.0
 70
    32
 71
     5
 42
296.9655
  3
STANDARD
100
AcDbAlignedDimension
 13
593.2565878585812
 23
478.7154785525237
 33
0.0
 14
296.2910878585812
 24
478.7154785525237
 34
0.0
100
AcDbRotatedDimension
1001
ACAD
1000
DSTYLE
1002
{
1070
   140
1040
6.0
1070
    74
1070
     0
1070
   172
1070
     1
1070
    73
1070
     0
1070
   272
1070
     2
1070
    77
1070
     3
1070
   173
1070
     1
1070
   147
1040
2.0
1070
    42
1040
6.0
1070
    44
1040
3.0
1070
    43
1040
14.0
1070
   271
1070
     0
1070
   178
1070
     4
1070
   177
1070
     4
1070
   176
1070
     4
1070
   141
1040
150.0
1070
     7
1000
_OPEN
1070
     6
1000
_OPEN
1070
    41
1040
7.0
1002
}
  0
ELLIPSE
  5
87C6
330
1A
100
AcDbEntity
  8
SEIHIN
100
AcDbEllipse
 10
186.6298547045508
 20
284.8850281629599
 30
0.0
 11
-2.100000000000011
 21
0.0
 31
0.0
210
0.0
220
0.0
230
1.0
 40
0.241921844572304
 41
0.0
 42
6.283185307179586
  0
LINE
  5
87C7
330
1A
100
AcDbEntity
  8
CENTER L
  6
CENTER
 62
     1
 48
5.0
100
AcDbLine
 10
186.6299376130861
 20
306.4001839404826
 30
0.0
 11
186.6290878585811
 21
85.88488394048258
 31
0.0
  0
LINE
  5
87C8
330
1A
100
AcDbEntity
  8
SEIHIN
  6
Continuous
 62
     3
 48
5.0
100
AcDbLine
 10
196.1294108444149
 20
299.4001839404826
 30
0.0
 11
196.1292878585812
 21
95.07828394048269
 31
0.0
  0
LINE
  5
87C9
330
1A
100
AcDbEntity
  8
SEIHIN
  6
Continuous
 62
     3
 48
5.0
100
AcDbLine
 10
177.1294338302488
 20
299.4001839404826
 30
0.0
 11
177.1291878585813
 21
95.07828394048269
 31
0.0
  0
ELLIPSE
  5
87CA
330
1A
100
AcDbEntity
  8
SEIHIN
100
AcDbEllipse
 10
186.6298547045508
 20
272.7888603363098
 30
0.0
 11
-2.100000000000011
 21
0.0
 31
0.0
210
0.0
220
0.0
230
1.0
 40
0.241921844572304
 41
0.0
 42
6.283185307179586
  0
LINE
  5
87CB
330
1A
100
AcDbEntity
  8
SEIHIN
  6
Continuous
 62
     3
 48
5.0
100
AcDbLine
 10
423.6511878585811
 20
97.44758394048259
 30
0.0
 11
425.2485878585811
 21
127.9270839404827
 31
0.0
  0
LINE
  5
87CC
330
1A
100
AcDbEntity
  8
SEIHIN
  6
Continuous
 62
     3
 48
5.0
100
AcDbLine
 10
421.6538878585812
 20
97.55228394048268
 30
0.0
 11
423.2512878585812
 21
128.0317839404827
 31
0.0
  0
LINE
  5
87CD
330
1A
100
AcDbEntity
  8
SEIHIN
  6
Continuous
 62
     3
 48
5.0
100
AcDbLine
 10
331.5685878585813
 20
97.50888394048269
 30
0.0
 11
329.9119878585811
 21
109.2960839404827
 31
0.0
  0
LINE
  5
87CE
330
1A
100
AcDbEntity
  8
SEIHIN
  6
Continuous
 62
     3
 48
5.0
100
AcDbLine
 10
329.5879878585812
 20
97.23048394048269
 30
0.0
 11
327.9314878585813
 21
109.0176839404826
 31
0.0
  0
DIMENSION
  5
87CF
330
1A
100
AcDbEntity
  8
SUNPOU
 48
5.0
100
AcDbDimension
  2
*D4
 10
261.203950541976
 20
176.6346839404827
 30
0.0
 11
256.203950541976
 21
135.8565339404827
 31
0.0
 70
    32
 71
     5
 42
81.55630000000001
  3
STANDARD
100
AcDbAlignedDimension
 13
332.0636878585813
 23
95.07838394048267
 33
0.0
 14
296.2909878585813
 24
176.6346839404827
 34
0.0
 50
90.0
100
AcDbRotatedDimension
1001
ACAD
1000
DSTYLE
1002
{
1070
   140
1040
6.0
1070
    74
1070
     0
1070
   172
1070
     1
1070
    73
1070
     0
1070
   272
1070
     2
1070
    77
1070
     3
1070
   173
1070
     1
1070
   147
1040
2.0
1070
    42
1040
6.0
1070
    44
1040
3.0
1070
    43
1040
14.0
1070
   271
1070
     0
1070
   178
1070
     4
1070
   177
1070
     4
1070
   176
1070
     4
1070
   141
1040
150.0
1070
     7
1000
_OPEN
1070
     6
1000
_OPEN
1070
    41
1040
7.0
1002
}
  0
LINE
  5
87D0
330
1A
100
AcDbEntity
  8
CENTER L
  6
CENTER
 62
     1
 48
5.0
100
AcDbLine
 10
376.6290878585813
 20
87.62728394048267
 30
0.0
 11
376.6290878585813
 21
109.1774839404827
 31
0.0
  0
LINE
  5
87D1
330
1A
100
AcDbEntity
  8
SEIHIN
  6
Continuous
 62
     3
 48
5.0
100
AcDbLine
 10
196.1292878585812
 20
95.07828394048269
 30
0.0
 11
177.1292878585812
 21
95.07828394048269
 31
0.0
  0
ARC
  5
87D2
330
1A
100
AcDbEntity
  8
SEIHIN
  6
Continuous
 62
     3
 48
5.0
100
AcDbCircle
 10
186.6290795387879
 20
99.02878394039183
 30
0.0
 40
6.45010758115613
100
AcDbArc
 50
219.8141484625988
 51
320.1846950865442
  0
ARC
  5
87D3
330
1A
100
AcDbEntity
  8
SEIHIN
  6
Continuous
 62
     3
 48
5.0
100
AcDbCircle
 10
181.2904844637412
 20
94.57858553048777
 30
0.0
 40
0.4999984100063316
100
AcDbArc
 50
39.80664927491426
 51
89.99961097874679
  0
ARC
  5
87D4
330
1A
100
AcDbEntity
  8
SEIHIN
  6
Continuous
 62
     3
 48
5.0
100
AcDbCircle
 10
191.9676912534213
 20
94.57858553048769
 30
0.0
 40
0.4999984100064268
100
AcDbArc
 50
90.00038902124996
 51
140.1933507250831
  0
LINE
  5
87D5
330
1A
100
AcDbEntity
  8
SEIHIN
  6
Continuous
 62
     3
 48
5.0
100
AcDbLine
 10
359.6290878585813
 20
92.57838394048267
 30
0.0
 11
421.1807878585811
 21
92.57838394048267
 31
0.0
  0
LINE
  5
87D6
330
1A
100
AcDbEntity
  8
SEIHIN
  6
Continuous
 62
     3
 48
5.0
100
AcDbLine
 10
421.1545878585811
 20
95.07838394048267
 30
0.0
 11
332.0636878585813
 21
95.07838394048267
 31
0.0
  0
LINE
  5
87D7
330
1A
100
AcDbEntity
  8
SEIHIN
  6
Continuous
 62
     3
 48
5.0
100
AcDbLine
 10
332.0636878585813
 20
97.07838394048258
 30
0.0
 11
421.1545878585811
 21
97.07838394048258
 31
0.0
  0
DIMENSION
  5
87D8
330
1A
100
AcDbEntity
  8
SUNPOU
100
AcDbDimension
  2
*D5
 10
423.5270204647591
 20
60.348583877652
 30
0.0
 11
376.7087255564883
 21
65.348583877652
 31
0.0
 70
    32
 71
     5
 42
93.63658981654157
  3
STANDARD
100
AcDbAlignedDimension
 13
329.8904306482175
 23
95.07838394048267
 33
0.0
 14
423.5270204647591
 24
95.07838394048267
 34
0.0
100
AcDbRotatedDimension
1001
ACAD
1000
DSTYLE
1002
{
1070
   140
1040
6.0
1070
    74
1070
     0
1070
   172
1070
     1
1070
    73
1070
     0
1070
   272
1070
     2
1070
    77
1070
     3
1070
   173
1070
     1
1070
   147
1040
2.0
1070
    42
1040
6.0
1070
    44
1040
3.0
1070
    43
1040
14.0
1070
   271
1070
     0
1070
   178
1070
     4
1070
   177
1070
     4
1070
   176
1070
     4
1070
   141
1040
150.0
1070
     7
1000
_OPEN
1070
     6
1000
_OPEN
1070
    41
1040
7.0
1002
}
  0
ARC
  5
87D9
330
1A
100
AcDbEntity
  8
SEIHIN
  6
Continuous
 62
     3
 48
5.0
100
AcDbCircle
 10
345.5919296513948
 20
103.1061341064713
 30
0.0
 40
9.999932471453013
100
AcDbArc
 50
233.3954800395769
 51
267.8741580149982
  0
ARC
  5
87DA
330
1A
100
AcDbEntity
  8
SEIHIN
  6
Continuous
 62
     3
 48
5.0
100
AcDbCircle
 10
332.063673490764
 20
97.57839643042027
 30
0.0
 40
2.500012489978902
100
AcDbArc
 50
187.9994908279782
 51
270.0003292844721
  0
ARC
  5
87DB
330
1A
100
AcDbEntity
  8
SEIHIN
  6
Continuous
 62
     3
 48
5.0
100
AcDbCircle
 10
332.0637141644077
 20
97.57836106943645
 30
0.0
 40
0.4999771296458899
100
AcDbArc
 50
187.9877059361657
 51
269.9969854364504
  0
LINE
  5
87DC
330
1A
100
AcDbEntity
  8
SEIHIN
  6
Continuous
 62
     3
 48
5.0
100
AcDbLine
 10
345.2209878585813
 20
93.11308394048268
 30
0.0
 11
359.6290878585813
 21
92.57838394048267
 31
0.0
  0
LINE
  5
87DD
330
1A
100
AcDbEntity
  8
SEIHIN
  6
Continuous
 62
     3
 48
5.0
100
AcDbLine
 10
417.1545878585811
 20
97.07838394048258
 30
0.0
 11
386.2490878585813
 21
97.07838394048258
 31
0.0
  0
ARC
  5
87DE
330
1A
100
AcDbEntity
  8
SEIHIN
  6
Continuous
 62
     3
 48
5.0
100
AcDbCircle
 10
421.1546005247483
 20
97.57839596042484
 30
0.0
 40
2.500012019974262
100
AcDbArc
 50
269.9997097142261
 51
357.0006540590017
  0
ARC
  5
87DF
330
1A
100
AcDbEntity
  8
SEIHIN
  6
Continuous
 62
     3
 48
5.0
100
AcDbCircle
 10
421.1545782176125
 20
97.57837479031522
 30
0.0
 40
0.4999908499256062
100
AcDbArc
 50
270.0011047938444
 51
357.0087955549523
  0
LINE
  5
87E0
330
1A
100
AcDbEntity
  8
SEIHIN
  6
Continuous
 62
     3
 48
5.0
100
AcDbLine
 10
297.7843878585812
 20
161.6972839404826
 30
0.0
 11
290.8256878585813
 21
211.2106839404826
 31
0.0
  0
LINE
  5
87E1
330
1A
100
AcDbEntity
  8
SEIHIN
  6
Continuous
 62
     3
 48
5.0
100
AcDbLine
 10
291.4198878585813
 20
211.2941839404826
 30
0.0
 11
298.5963878585812
 21
160.2304839404827
 31
0.0
  0
DIMENSION
  5
87E2
330
1A
100
AcDbEntity
  8
SUNPOU
 48
5.0
100
AcDbDimension
  2
*D6
 10
261.203950541976
 20
176.6346839404827
 30
0.0
 11
256.203950541976
 21
193.9226339404827
 31
0.0
 70
    32
 71
     5
 42
34.57589999999999
  3
STANDARD
100
AcDbAlignedDimension
 13
290.8254878585813
 23
211.2105839404827
 33
0.0
 14
296.2909878585813
 24
176.6346839404827
 34
0.0
 50
90.0
100
AcDbRotatedDimension
1001
ACAD
1000
DSTYLE
1002
{
1070
   140
1040
6.0
1070
    74
1070
     0
1070
   172
1070
     1
1070
    73
1070
     0
1070
   272
1070
     2
1070
    77
1070
     3
1070
   173
1070
     1
1070
   147
1040
2.0
1070
    42
1040
6.0
1070
    44
1040
3.0
1070
    43
1040
14.0
1070
   271
1070
     0
1070
   178
1070
     4
1070
   177
1070
     4
1070
   176
1070
     4
1070
   141
1040
150.0
1070
     7
1000
_OPEN
1070
     6
1000
_OPEN
1070
    41
1040
7.0
1002
}
  0
DIMENSION
  5
87E3
330
1A
100
AcDbEntity
  8
SUNPOU
100
AcDbDimension
  2
*D7
 10
319.0559117271295
 20
129.6181556448499
 30
0.0
 11
292.8138608790928
 21
125.92994487813
 31
0.0
 70
   161
  1
t<>
 71
     5
 42
1.999964742819827
  3
STANDARD
100
AcDbAlignedDimension
 13
315.936037998121
 23
137.4465829475997
 33
0.0
 14
317.9165378585814
 24
137.7249339404827
 34
0.0
1001
ACAD
1000
DSTYLE
1002
{
1070
   288
1070
     1
1070
   140
1040
6.0
1070
    74
1070
     0
1070
   172
1070
     1
1070
    73
1070
     0
1070
   272
1070
     2
1070
    77
1070
     3
1070
   173
1070
     1
1070
   147
1040
2.0
1070
    42
1040
6.0
1070
    44
1040
3.0
1070
    43
1040
14.0
1070
   271
1070
     1
1070
   178
1070
     4
1070
   177
1070
     4
1070
   176
1070
     4
1070
   141
1040
150.0
1070
     7
1000
_OPEN
1070
     6
1000
_OPEN
1070
    41
1040
7.0
1002
}
  0
LINE
  5
87E4
330
1A
100
AcDbEntity
  8
SEIHIN
  6
Continuous
 62
     3
 48
5.0
100
AcDbLine
 10
193.6294878585812
 20
209.4122839404826
 30
0.0
 11
193.6292878585813
 21
176.6346839404827
 31
0.0
  0
LINE
  5
87E5
330
1A
100
AcDbEntity
  8
SEIHIN
  6
Continuous
 62
     3
 48
5.0
100
AcDbLine
 10
179.6294878585812
 20
209.2955839404827
 30
0.0
 11
179.6293878585811
 21
176.6347839404826
 31
0.0
  0
LINE
  5
87E6
330
1A
100
AcDbEntity
  8
SEIHIN
  6
Continuous
 62
     3
 48
5.0
100
AcDbLine
 10
196.1292878585812
 20
109.2654839404827
 30
0.0
 11
177.1292878585812
 21
109.2655839404827
 31
0.0
  0
ARC
  5
87E7
330
1A
100
AcDbEntity
  8
SEIHIN
  6
Continuous
 62
     3
 48
5.0
100
AcDbCircle
 10
193.1293075253768
 20
173.6766606703641
 30
0.0
 40
2.999980333294613
100
AcDbArc
 50
0.0004444294420851
 51
80.40624922216946
  0
ARC
  5
87E8
330
1A
100
AcDbEntity
  8
SEIHIN
  6
Continuous
 62
     3
 48
5.0
100
AcDbCircle
 10
194.1292878585813
 20
163.7393839404826
 30
0.0
 40
1.999999999999957
100
AcDbArc
 50
270.0000000000017
 51
0.0000000000016284
  0
LINE
  5
87E9
330
1A
100
AcDbEntity
  8
SEIHIN
  6
Continuous
 62
     3
 48
5.0
100
AcDbLine
 10
196.1292878585812
 20
158.1204839404826
 30
0.0
 11
177.1292878585812
 21
158.1204839404826
 31
0.0
  0
ARC
  5
87EA
330
1A
100
AcDbEntity
  8
SEIHIN
  6
Continuous
 62
     3
 48
5.0
100
AcDbCircle
 10
186.6294878585812
 20
169.0684839404827
 30
0.0
 40
1.599999999999994
100
AcDbArc
 50
180.0
 51
0.0
  0
ARC
  5
87EB
330
1A
100
AcDbEntity
  8
SEIHIN
  6
Continuous
 62
     3
 48
5.0
100
AcDbCircle
 10
186.6294878585812
 20
169.0684839404827
 30
0.0
 40
1.5
100
AcDbArc
 50
180.0
 51
0.0
  0
LINE
  5
87EC
330
1A
100
AcDbEntity
  8
SEIHIN
  6
Continuous
 62
     3
 48
5.0
100
AcDbLine
 10
186.6293878585813
 20
161.7394839404826
 30
0.0
 11
179.1292878585812
 21
161.7394839404826
 31
0.0
  0
ARC
  5
87ED
330
1A
100
AcDbEntity
  8
SEIHIN
  6
Continuous
 62
     3
 48
5.0
100
AcDbCircle
 10
179.1292878585812
 20
163.7394839404826
 30
0.0
 40
2.0
100
AcDbArc
 50
180.0
 51
270.0
  0
LINE
  5
87EE
330
1A
100
AcDbEntity
  8
SEIHIN
  6
Continuous
 62
     3
 48
5.0
100
AcDbLine
 10
186.6291878585812
 20
161.7394839404826
 30
0.0
 11
194.1292878585813
 21
161.7393839404826
 31
0.0
  0
ARC
  5
87EF
330
1A
100
AcDbEntity
  8
SEIHIN
  6
Continuous
 62
     3
 48
5.0
100
AcDbCircle
 10
180.1293174924551
 20
173.6767190036364
 30
0.0
 40
3.000029634078842
100
AcDbArc
 50
99.59454654979371
 51
180.0006696502923
  0
LINE
  5
87F0
330
1A
100
AcDbEntity
  8
CENTER L
  6
CENTER
 62
     1
 48
5.0
100
AcDbLine
 10
184.0515878585812
 20
169.0684839404827
 30
0.0
 11
189.4848878585813
 21
169.0684839404827
 31
0.0
  0
ARC
  5
87F1
330
1A
100
AcDbEntity
  8
SEIHIN
  6
Continuous
 62
     3
 48
5.0
100
AcDbCircle
 10
186.6294878585812
 20
169.0684839404827
 30
0.0
 40
1.599999999999994
100
AcDbArc
 50
0.0
 51
180.0
  0
ARC
  5
87F2
330
1A
100
AcDbEntity
  8
SEIHIN
  6
Continuous
 62
     3
 48
5.0
100
AcDbCircle
 10
186.6294878585812
 20
169.0684839404827
 30
0.0
 40
1.5
100
AcDbArc
 50
0.0
 51
180.0
  0
LINE
  5
87F3
330
1A
100
AcDbEntity
  8
SEIHIN
  6
Continuous
 62
     3
 48
5.0
100
AcDbLine
 10
191.6297987694052
 20
270.3695845544031
 30
0.0
 11
191.6296647733785
 21
235.5969839404831
 31
0.0
  0
LINE
  5
87F4
330
1A
100
AcDbEntity
  8
SEIHIN
  6
Continuous
 62
     3
 48
5.0
100
AcDbLine
 10
181.6297987693309
 20
270.3695845544031
 30
0.0
 11
181.6296647733043
 21
235.5969839404825
 31
0.0
  0
LINE
  5
87F5
330
1A
100
AcDbEntity
  8
SEIHIN
  6
Continuous
 62
     3
 48
5.0
100
AcDbLine
 10
189.8796288198761
 20
226.2668839404826
 30
0.0
 11
189.8795711226584
 21
211.2941839404826
 31
0.0
  0
LINE
  5
87F6
330
1A
100
AcDbEntity
  8
SEIHIN
  6
Continuous
 62
     3
 48
5.0
100
AcDbLine
 10
183.3796288198279
 20
226.2668839404826
 30
0.0
 11
183.3795711226102
 21
211.2941839404826
 31
0.0
  0
ARC
  5
87F7
330
1A
100
AcDbEntity
  8
SEIHIN
  6
Continuous
 62
     3
 48
5.0
100
AcDbCircle
 10
181.6295878585812
 20
209.2941839404826
 30
0.0
 40
2.0
100
AcDbArc
 50
90.0
 51
180.0
  0
ARC
  5
87F8
330
1A
100
AcDbEntity
  8
SEIHIN
  6
Continuous
 62
     3
 48
5.0
100
AcDbCircle
 10
181.6295878585812
 20
209.2106839404826
 30
0.0
 40
2.0
100
AcDbArc
 50
90.0
 51
180.0
  0
LINE
  5
87F9
330
1A
100
AcDbEntity
  8
SEIHIN
  6
Continuous
 62
     3
 48
5.0
100
AcDbLine
 10
191.6295878585812
 20
211.2106839404826
 30
0.0
 11
186.6295878585812
 21
211.2106839404826
 31
0.0
  0
LINE
  5
87FA
330
1A
100
AcDbEntity
  8
SEIHIN
  6
Continuous
 62
     3
 48
5.0
100
AcDbLine
 10
191.6295878585812
 20
211.2941839404826
 30
0.0
 11
186.6295878585812
 21
211.2941839404826
 31
0.0
  0
LINE
  5
87FB
330
1A
100
AcDbEntity
  8
SEIHIN
  6
Continuous
 62
     3
 48
5.0
100
AcDbLine
 10
181.6295878585812
 20
211.2106839404826
 30
0.0
 11
186.6295878585812
 21
211.2106839404826
 31
0.0
  0
LINE
  5
87FC
330
1A
100
AcDbEntity
  8
SEIHIN
  6
Continuous
 62
     3
 48
5.0
100
AcDbLine
 10
181.6295878585812
 20
211.2941839404826
 30
0.0
 11
186.6295878585812
 21
211.2941839404826
 31
0.0
  0
ARC
  5
87FD
330
1A
100
AcDbEntity
  8
SEIHIN
  6
Continuous
 62
     3
 48
5.0
100
AcDbCircle
 10
191.6295878585812
 20
209.2941839404826
 30
0.0
 40
2.0
100
AcDbArc
 50
0.0
 51
90.0
  0
ARC
  5
87FE
330
1A
100
AcDbEntity
  8
SEIHIN
  6
Continuous
 62
     3
 48
5.0
100
AcDbCircle
 10
191.6295878585812
 20
209.2106839404826
 30
0.0
 40
2.0
100
AcDbArc
 50
0.0
 51
90.0
  0
LINE
  5
87FF
330
1A
100
AcDbEntity
  8
SEIHIN
100
AcDbLine
 10
183.3796288198279
 20
226.2668839404826
 30
0.0
 11
189.8796288197796
 21
226.266858892768
 31
0.0
  0
ARC
  5
8800
330
1A
100
AcDbEntity
  8
SEIHIN
100
AcDbCircle
 10
186.6296647733414
 20
236.3187032991688
 30
0.0
 40
5.051819358713602
100
AcDbArc
 50
188.2135645473651
 51
351.7864354526349
  0
LINE
  5
8801
330
1A
100
AcDbEntity
  8
SEIHIN
100
AcDbLine
 10
196.1293872611033
 20
260.2201670315445
 30
0.0
 11
191.6297596586802
 21
260.2201670315446
 31
0.0
  0
ARC
  5
8802
330
1A
100
AcDbEntity
  8
SEIHIN
100
AcDbCircle
 10
186.629759658643
 20
251.5094656450669
 30
0.0
 40
10.04372035874932
100
AcDbArc
 50
60.14389205870563
 51
119.8561079412927
  0
LINE
  5
8803
330
1A
100
AcDbEntity
  8
SEIHIN
100
AcDbLine
 10
181.6297596586059
 20
260.2201670315446
 30
0.0
 11
177.1293866636255
 21
260.2201670315446
 31
0.0
  0
ARC
  5
8804
330
1A
100
AcDbEntity
  8
SEIHIN
100
AcDbCircle
 10
186.629798769368
 20
261.6588831679254
 30
0.0
 40
10.04372035874932
100
AcDbArc
 50
60.14389205870563
 51
119.8561079412927
  0
LINE
  5
8805
330
1A
100
AcDbEntity
  8
SEIHIN
  6
Continuous
 62
     3
 48
5.0
100
AcDbLine
 10
291.4197878585813
 20
211.2941839404826
 30
0.0
 11
290.8254878585813
 21
211.2105839404827
 31
0.0
  0
LINE
  5
8806
330
1A
100
AcDbEntity
  8
SEIHIN
  6
Continuous
 62
     3
 48
5.0
100
AcDbLine
 10
317.8677878585813
 20
123.7013839404827
 30
0.0
 11
314.0042878585813
 21
151.1917839404827
 31
0.0
  0
LINE
  5
8807
330
1A
100
AcDbEntity
  8
SEIHIN
  6
Continuous
 62
     3
 48
5.0
100
AcDbLine
 10
319.8482878585813
 20
123.9796839404827
 30
0.0
 11
315.9847878585813
 21
151.4701839404827
 31
0.0
  0
ARC
  5
8808
330
1A
100
AcDbEntity
  8
SEIHIN
  6
Continuous
 62
     3
 48
5.0
100
AcDbCircle
 10
337.1781169698382
 20
126.4151414646562
 30
0.0
 40
17.50002755488126
100
AcDbArc
 50
187.9997501245083
 51
240.8503529624012
  0
ARC
  5
8809
330
1A
100
AcDbEntity
  8
SEIHIN
  6
Continuous
 62
     3
 48
5.0
100
AcDbCircle
 10
337.1780541607465
 20
126.4152331084746
 30
0.0
 40
19.50003492220329
100
AcDbArc
 50
187.9999075418376
 51
240.8508611361806
  0
ARC
  5
880A
330
1A
100
AcDbEntity
  8
SEIHIN
  6
Continuous
 62
     3
 48
5.0
100
AcDbCircle
 10
327.4363089008195
 20
108.9480532393473
 30
0.0
 40
2.500022334067498
100
AcDbArc
 50
8.002194929974897
 51
60.85199918333529
  0
ARC
  5
880B
330
1A
100
AcDbEntity
  8
SEIHIN
  6
Continuous
 62
     3
 48
5.0
100
AcDbCircle
 10
327.4363001479413
 20
108.9480660080472
 30
0.0
 40
0.5000575219766495
100
AcDbArc
 50
8.002704766451002
 51
60.84857794814736
  0
LINE
  5
880C
330
1A
100
AcDbEntity
  8
SEIHIN
  6
Continuous
 62
     3
 48
5.0
100
AcDbLine
 10
300.5768878585812
 20
160.5088839404827
 30
0.0
 11
298.2714878585813
 21
176.9129839404827
 31
0.0
  0
LINE
  5
880D
330
1A
100
AcDbEntity
  8
SEIHIN
  6
Continuous
 62
     3
 48
5.0
100
AcDbLine
 10
296.5531878585813
 20
167.5831839404827
 30
0.0
 11
296.1356878585813
 21
170.5539839404827
 31
0.0
  0
ARC
  5
880E
330
1A
100
AcDbEntity
  8
SEIHIN
  6
Continuous
 62
     3
 48
5.0
100
AcDbCircle
 10
306.082155695203
 20
150.0785118999554
 30
0.0
 40
7.999972040591908
100
AcDbArc
 50
7.999212568201775
 51
89.99976964596615
  0
ARC
  5
880F
330
1A
100
AcDbEntity
  8
SEIHIN
  6
Continuous
 62
     3
 48
5.0
100
AcDbCircle
 10
306.0821394178969
 20
150.0785260494099
 30
0.0
 40
9.999957891189991
100
AcDbArc
 50
7.999610850779719
 51
89.99972245415417
  0
LINE
  5
8810
330
1A
100
AcDbEntity
  8
SEIHIN
  6
Continuous
 62
     3
 48
5.0
100
AcDbLine
 10
301.0720878585813
 20
158.0784839404826
 30
0.0
 11
306.0821878585813
 21
158.0784839404826
 31
0.0
  0
LINE
  5
8811
330
1A
100
AcDbEntity
  8
SEIHIN
  6
Continuous
 62
     3
 48
5.0
100
AcDbLine
 10
301.0720878585813
 20
160.0784839404826
 30
0.0
 11
306.0821878585813
 21
160.0784839404826
 31
0.0
  0
LINE
  5
8812
330
1A
100
AcDbEntity
  8
SEIHIN
  6
Continuous
 62
     3
 48
5.0
100
AcDbLine
 10
298.3786878585813
 20
161.7807839404827
 30
0.0
 11
297.7843878585812
 21
161.6972839404826
 31
0.0
  0
LINE
  5
8813
330
1A
100
AcDbEntity
  8
SEIHIN
  6
Continuous
 62
     3
 48
5.0
100
AcDbLine
 10
296.5531878585813
 20
167.5831839404827
 30
0.0
 11
296.9493878585812
 21
167.6388839404827
 31
0.0
  0
ARC
  5
8814
330
1A
100
AcDbEntity
  8
SEIHIN
  6
Continuous
 62
     3
 48
5.0
100
AcDbCircle
 10
301.0720492084769
 20
160.578517538225
 30
0.0
 40
0.5000335992361469
100
AcDbArc
 50
188.0049027930061
 51
270.0044286781163
  0
ARC
  5
8815
330
1A
100
AcDbEntity
  8
SEIHIN
  6
Continuous
 62
     3
 48
5.0
100
AcDbCircle
 10
301.0720654846758
 20
160.5785033893314
 30
0.0
 40
2.500019448948881
100
AcDbArc
 50
188.001943808252
 51
270.0005127681521
  0
LINE
  5
8816
330
1A
100
AcDbEntity
  8
SEIHIN
  6
Continuous
 62
     3
 48
5.0
100
AcDbLine
 10
296.1356878585813
 20
170.5539839404827
 30
0.0
 11
296.5317878585813
 21
170.6096839404827
 31
0.0
  0
LINE
  5
8817
330
1A
100
AcDbEntity
  8
SEIHIN
  6
Continuous
 62
     3
 48
5.0
100
AcDbLine
 10
298.2714878585813
 20
176.9129839404827
 30
0.0
 11
296.2909878585813
 21
176.6346839404827
 31
0.0
  0
ARC
  5
8818
330
1A
100
AcDbEntity
  8
SEIHIN
  6
Continuous
 62
     3
 48
5.0
100
AcDbCircle
 10
425.7478371918039
 20
127.9009012452119
 30
0.0
 40
0.5000352888762485
100
AcDbArc
 50
119.990962182147
 51
176.9985232546955
  0
ARC
  5
8819
330
1A
100
AcDbEntity
  8
SEIHIN
  6
Continuous
 62
     3
 48
5.0
100
AcDbCircle
 10
425.7478445842891
 20
127.9009133209432
 30
0.0
 40
2.499984520699227
100
AcDbArc
 50
119.999059617446
 51
176.9992761813935
  0
LINE
  5
881A
330
1A
100
AcDbEntity
  8
SEIHIN
  6
Continuous
 62
     3
 48
5.0
100
AcDbLine
 10
422.3615878585811
 20
158.5168839404826
 30
0.0
 11
418.5059878585813
 21
151.8386839404826
 31
0.0
  0
LINE
  5
881B
330
1A
100
AcDbEntity
  8
SEIHIN
  6
Continuous
 62
     3
 48
5.0
100
AcDbLine
 10
420.6295878585813
 20
159.5168839404827
 30
0.0
 11
416.7738878585811
 21
152.8386839404826
 31
0.0
  0
LINE
  5
881C
330
1A
100
AcDbEntity
  8
SEIHIN
  6
Continuous
 62
     3
 48
5.0
100
AcDbLine
 10
416.7738878585811
 20
152.8386839404826
 30
0.0
 11
418.5059878585813
 21
151.8386839404826
 31
0.0
  0
ARC
  5
881D
330
1A
100
AcDbEntity
  8
SEIHIN
  6
Continuous
 62
     3
 48
5.0
100
AcDbCircle
 10
422.7946604908501
 20
158.2668681395826
 30
0.0
 40
2.500015801049927
100
AcDbArc
 50
89.99937278176675
 51
149.9997909272552
  0
ARC
  5
881E
330
1A
100
AcDbEntity
  8
SEIHIN
  6
Continuous
 62
     3
 48
5.0
100
AcDbCircle
 10
422.7946223899492
 20
158.2668461383405
 30
0.0
 40
0.5000378064279205
100
AcDbArc
 50
89.99249841458165
 51
149.9974994715236
  0
ELLIPSE
  5
881F
330
1A
100
AcDbEntity
  8
SEIHIN
100
AcDbEllipse
 10
186.6299013161494
 20
296.9809577427307
 30
0.0
 11
-2.100000000000011
 21
0.0
 31
0.0
210
0.0
220
0.0
230
1.0
 40
0.241921844572304
 41
0.0
 42
6.283185307179586
  0
DIMENSION
  5
8820
330
1A
100
AcDbEntity
  8
SUNPOU
100
AcDbDimension
  2
*D8
 10
196.1294108444149
 20
345.4756436580017
 30
0.0
 11
186.6294223373319
 21
350.4756436580017
 31
0.0
 70
    32
 71
     5
 42
18.99997701416612
  3
STANDARD
100
AcDbAlignedDimension
 13
177.1294338302488
 23
299.4001839404826
 33
0.0
 14
196.1294108444149
 24
299.4001839404826
 34
0.0
100
AcDbRotatedDimension
1001
ACAD
1000
DSTYLE
1002
{
1070
    41
1040
7.0
1070
    42
1040
6.0
1070
    43
1040
14.0
1070
    44
1040
3.0
1070
    73
1070
     0
1070
    74
1070
     0
1070
    77
1070
     3
1070
   140
1040
6.0
1070
   141
1040
150.0
1070
   147
1040
2.0
1070
   172
1070
     1
1070
   173
1070
     1
1070
   176
1070
   256
1070
   177
1070
   256
1070
   178
1070
   256
1070
   271
1070
     0
1070
   272
1070
     0
1070
   341
1005
6D
1070
     6
1000
OPEN
1070
     7
1000
OPEN
1070
   371
1070
    -1
1070
   372
1070
    -1
1002
}
  0
LINE
  5
8821
330
1A
100
AcDbEntity
  8
SEIHIN
  6
Continuous
 62
     3
100
AcDbLine
 10
196.1294108444149
 20
299.4001839404826
 30
0.0
 11
177.1294338302488
 21
299.4001839404826
 31
0.0
  0
LINE
  5
8822
330
1A
100
AcDbEntity
  8
SEIHIN
  6
Continuous
 62
     3
 48
5.0
100
AcDbLine
 10
296.2910878585812
 20
495.2154785525237
 30
0.0
 11
290.8257878585812
 21
495.2154785525237
 31
0.0
  0
LINE
  5
8823
330
1A
100
AcDbEntity
  8
SEIHIN
  6
Continuous
 62
     3
 48
5.0
100
AcDbLine
 10
290.8257878585812
 20
481.2154785525237
 30
0.0
 11
296.2910878585812
 21
481.2154785525237
 31
0.0
  0
LINE
  5
8824
330
1A
100
AcDbEntity
  8
SEIHIN
  6
Continuous
 62
     3
 48
5.0
100
AcDbLine
 10
291.4199878585812
 20
481.2154785525237
 30
0.0
 11
291.4199878585812
 21
495.2154785525237
 31
0.0
  0
LINE
  5
8825
330
1A
100
AcDbEntity
  8
SEIHIN
  6
Continuous
 62
     3
 48
5.0
100
AcDbLine
 10
290.8257878585812
 20
481.2154785525237
 30
0.0
 11
290.8258878585813
 21
495.2154785525237
 31
0.0
  0
ARC
  5
8826
330
1A
100
AcDbEntity
  8
SEIHIN
  6
Continuous
 62
     3
 48
5.0
100
AcDbCircle
 10
363.6291878585811
 20
488.2154785525237
 30
0.0
 40
4.0
100
AcDbArc
 50
90.0
 51
270.0
  0
LINE
  5
8827
330
1A
100
AcDbEntity
  8
SEIHIN
  6
Continuous
 62
     3
 48
5.0
100
AcDbLine
 10
416.7739878585813
 20
484.2154785525237
 30
0.0
 11
343.6291878585813
 21
484.2154785525237
 31
0.0
  0
LINE
  5
8828
330
1A
100
AcDbEntity
  8
SEIHIN
  6
Continuous
 62
     3
 48
5.0
100
AcDbLine
 10
416.7739878585813
 20
492.2154785525237
 30
0.0
 11
343.7536878585813
 21
492.2154785525237
 31
0.0
  0
LINE
  5
8829
330
1A
100
AcDbEntity
  8
SEIHIN
  6
Continuous
 62
     3
 48
5.0
100
AcDbLine
 10
300.6374878585813
 20
478.7154785525237
 30
0.0
 11
300.6374878585813
 21
497.7154785525237
 31
0.0
  0
LINE
  5
882A
330
1A
100
AcDbEntity
  8
SEIHIN
  6
Continuous
 62
     3
 48
5.0
100
AcDbLine
 10
296.2910878585812
 20
478.7154785525237
 30
0.0
 11
296.2910878585812
 21
497.7154785525237
 31
0.0
  0
LINE
  5
882B
330
1A
100
AcDbEntity
  8
SEIHIN
  6
Continuous
 62
     3
 48
5.0
100
AcDbLine
 10
298.2715878585813
 20
478.7154785525237
 30
0.0
 11
298.2715878585813
 21
497.7154785525237
 31
0.0
  0
LINE
  5
882C
330
1A
100
AcDbEntity
  8
SEIHIN
  6
Continuous
 62
     3
 48
5.0
100
AcDbLine
 10
314.7750878585811
 20
478.7154785525237
 30
0.0
 11
314.7750878585811
 21
497.7154785525237
 31
0.0
  0
LINE
  5
882D
330
1A
100
AcDbEntity
  8
SEIHIN
  6
Continuous
 62
     3
 48
5.0
100
AcDbLine
 10
329.7318878585813
 20
478.7154785525237
 30
0.0
 11
329.7318878585813
 21
497.7154785525237
 31
0.0
  0
LINE
  5
882E
330
1A
100
AcDbEntity
  8
SEIHIN
  6
Continuous
 62
     3
 48
5.0
100
AcDbLine
 10
331.6291878585811
 20
478.7154785525237
 30
0.0
 11
331.6291878585811
 21
497.7154785525237
 31
0.0
  0
ARC
  5
882F
330
1A
100
AcDbEntity
  8
SEIHIN
  6
Continuous
 62
     3
 48
5.0
100
AcDbCircle
 10
343.7536878585813
 20
488.2154785525237
 30
0.0
 40
4.0
100
AcDbArc
 50
90.0
 51
270.0
  0
LINE
  5
8830
330
1A
100
AcDbEntity
  8
CENTER L
  6
CENTER
 62
     1
 48
5.0
100
AcDbLine
 10
376.6291878585813
 20
476.0541785525236
 30
0.0
 11
376.6291878585813
 21
500.1482785525237
 31
0.0
  0
LINE
  5
8831
330
1A
100
AcDbEntity
  8
SEIHIN
  6
Continuous
 62
     3
 48
5.0
100
AcDbLine
 10
416.7739878585813
 20
478.7154785525237
 30
0.0
 11
416.7739878585813
 21
497.7153785525235
 31
0.0
  0
LINE
  5
8832
330
1A
100
AcDbEntity
  8
SEIHIN
  6
Continuous
 62
     3
 48
5.0
100
AcDbLine
 10
421.3513878585812
 20
478.7154785525237
 30
0.0
 11
421.3513878585812
 21
497.7153785525235
 31
0.0
  0
LINE
  5
8833
330
1A
100
AcDbEntity
  8
CENTER L
  6
CENTER
 62
     1
 48
5.0
100
AcDbLine
 10
533.2213802107857
 20
289.7364839404827
 30
0.0
 11
536.2453802107858
 21
277.6077839404827
 31
0.0
  0
DIMENSION
  5
8834
330
1A
100
AcDbEntity
  8
SUNPOU
 48
5.0
100
AcDbDimension
  2
*D9
 10
634.6328487511981
 20
232.4001839404826
 30
0.0
 11
629.6328487511981
 21
265.9001839404828
 31
0.0
 70
    32
 71
     5
 42
67.00000000000003
  3
STANDARD
100
AcDbAlignedDimension
 13
592.6484802107858
 23
299.4001839404827
 33
0.0
 14
592.6484802107858
 24
232.4001839404826
 34
0.0
 50
90.0
100
AcDbRotatedDimension
1001
ACAD
1000
DSTYLE
1002
{
1070
   140
1040
6.0
1070
    74
1070
     0
1070
   172
1070
     1
1070
    73
1070
     0
1070
   272
1070
     2
1070
    77
1070
     3
1070
   173
1070
     1
1070
   147
1040
2.0
1070
    42
1040
6.0
1070
    44
1040
3.0
1070
    43
1040
14.0
1070
   271
1070
     0
1070
   178
1070
     4
1070
   177
1070
     4
1070
   176
1070
     4
1070
   141
1040
150.0
1070
     7
1000
_OPEN
1070
     6
1000
_OPEN
1070
    41
1040
7.0
1002
}
  0
DIMENSION
  5
8835
330
1A
100
AcDbEntity
  8
SUNPOU
100
AcDbDimension
  2
*D10
 10
572.9163029944117
 20
291.903832806854
 30
0.0
 11
583.8157850979246
 21
268.8560283588117
 31
0.0
 70
    33
  1
t<>
 71
     5
 42
2.500053160579427
  3
STANDARD
100
AcDbAlignedDimension
 13
582.9454917290856
 23
296.9809577427307
 33
0.0
 14
583.550304706417
 24
294.5551656930746
 34
0.0
1001
ACAD
1000
DSTYLE
1002
{
1070
   140
1040
6.0
1070
    74
1070
     0
1070
   172
1070
     1
1070
    73
1070
     0
1070
   272
1070
     2
1070
    77
1070
     3
1070
   173
1070
     1
1070
   147
1040
2.0
1070
    42
1040
6.0
1070
    44
1040
3.0
1070
    43
1040
14.0
1070
   271
1070
     1
1070
   178
1070
     4
1070
   177
1070
     4
1070
   176
1070
     4
1070
   141
1040
150.0
1070
     7
1000
_OPEN
1070
     6
1000
_OPEN
1070
    41
1040
7.0
1002
}
  0
LINE
  5
8836
330
1A
100
AcDbEntity
  8
SEIHIN
  6
Continuous
 62
     3
 48
5.0
100
AcDbLine
 10
438.1591802107857
 20
260.8816839404827
 30
0.0
 11
592.6484802107858
 21
299.4001839404827
 31
0.0
  0
LINE
  5
8837
330
1A
100
AcDbEntity
  8
SEIHIN
  6
Continuous
 62
     3
 48
5.0
100
AcDbLine
 10
438.7640802107856
 20
258.4559839404826
 30
0.0
 11
593.2532802107857
 21
296.9743839404827
 31
0.0
  0
DIMENSION
  5
8838
330
1A
100
AcDbEntity
  8
SUNPOU
100
AcDbDimension
  2
*D11
 10
431.0881553337865
 20
288.5898107600894
 30
0.0
 11
507.1997447593489
 21
312.719625172438
 31
0.0
 70
    33
 71
     5
 42
159.3765602397011
  3
STANDARD
100
AcDbAlignedDimension
 13
592.6484802107857
 23
299.4001839404826
 33
0.0
 14
438.0060829139422
 24
260.8435125057719
 34
0.0
1001
ACAD
1000
DSTYLE
1002
{
1070
   140
1040
6.0
1070
    74
1070
     0
1070
   172
1070
     1
1070
    73
1070
     0
1070
   272
1070
     2
1070
    77
1070
     3
1070
   173
1070
     1
1070
   147
1040
2.0
1070
    42
1040
6.0
1070
    44
1040
3.0
1070
    43
1040
14.0
1070
   271
1070
     0
1070
   178
1070
     4
1070
   177
1070
     4
1070
   176
1070
     4
1070
   141
1040
150.0
1070
     7
1000
_OPEN
1070
     6
1000
_OPEN
1070
    41
1040
7.0
1002
}
  0
LINE
  5
8839
330
1A
100
AcDbEntity
  8
SEIHIN
  6
Continuous
 62
     3
 48
5.0
100
AcDbLine
 10
428.1449878585811
 20
125.8723839404826
 30
0.0
 11
426.6732878585813
 21
97.79058394048269
 31
0.0
  0
LINE
  5
883A
330
1A
100
AcDbEntity
  8
SEIHIN
  6
PHANTOM
 62
     6
 48
5.0
100
AcDbLine
 10
435.5059802107857
 20
66.26688394048267
 30
0.0
 11
435.5059802107857
 21
190.4855839404825
 31
0.0
  0
LINE
  5
883B
330
1A
100
AcDbEntity
  8
SEIHIN
  6
PHANTOM
 62
     6
 48
5.0
100
AcDbLine
 10
438.0059802107856
 20
66.26688394048267
 30
0.0
 11
438.0060802107857
 21
190.4856839404826
 31
0.0
  0
LINE
  5
883C
330
1A
100
AcDbEntity
  8
SEIHIN
  6
PHANTOM
 62
     6
 48
5.0
100
AcDbLine
 10
438.0059802107856
 20
66.26688394048267
 30
0.0
 11
438.0060802107857
 21
190.4856839404826
 31
0.0
  0
LINE
  5
883D
330
1A
100
AcDbEntity
  8
SEIHIN
  6
PHANTOM
 62
     6
 48
5.0
100
AcDbLine
 10
435.5059802107857
 20
66.26688394048267
 30
0.0
 11
438.0059802107856
 21
66.26688394048267
 31
0.0
  0
LINE
  5
883E
330
1A
100
AcDbEntity
  8
SEIHIN
  6
PHANTOM
 62
     6
 48
5.0
100
AcDbLine
 10
438.1591802107857
 20
193.8816839404827
 30
0.0
 11
592.6484802107858
 21
232.4001839404826
 31
0.0
  0
LINE
  5
883F
330
1A
100
AcDbEntity
  8
SEIHIN
  6
PHANTOM
 62
     6
 48
5.0
100
AcDbLine
 10
438.7640802107856
 20
191.4559839404826
 30
0.0
 11
593.2532802107857
 21
229.9743839404827
 31
0.0
  0
ARC
  5
8840
330
1A
100
AcDbEntity
  8
SEIHIN
  6
PHANTOM
 62
     6
 48
5.0
100
AcDbCircle
 10
439.0060085034141
 20
190.4856201529526
 30
0.0
 40
3.500028292815761
100
AcDbArc
 50
103.9999124952824
 51
180.0005928014073
  0
ARC
  5
8841
330
1A
100
AcDbEntity
  8
SEIHIN
  6
PHANTOM
 62
     6
 48
5.0
100
AcDbCircle
 10
439.0060009523806
 20
190.4856104887889
 30
0.0
 40
6.000020741653719
100
AcDbArc
 50
104.000830141907
 51
180.0002535167745
  0
LINE
  5
8842
330
1A
100
AcDbEntity
  8
SEIHIN
  6
Continuous
 62
     3
 48
5.0
100
AcDbLine
 10
435.5059802107857
 20
133.2668839404826
 30
0.0
 11
435.5059802107857
 21
257.4855839404826
 31
0.0
  0
LINE
  5
8843
330
1A
100
AcDbEntity
  8
SEIHIN
  6
Continuous
 62
     3
 48
5.0
100
AcDbLine
 10
438.0059802107856
 20
133.2668839404826
 30
0.0
 11
438.0060802107857
 21
257.4856839404827
 31
0.0
  0
DIMENSION
  5
8844
330
1A
100
AcDbEntity
  8
SUNPOU
100
AcDbDimension
  2
*D12
 10
516.3786458319413
 20
133.2668839404826
 30
0.0
 11
511.3786458319413
 21
197.0551982231274
 31
0.0
 70
    32
 71
     5
 42
127.5766285652893
  3
STANDARD
100
AcDbAlignedDimension
 13
438.0060829139422
 23
260.8435125057719
 33
0.0
 14
438.0059802107856
 24
133.2668839404826
 34
0.0
 50
90.0
100
AcDbRotatedDimension
1001
ACAD
1000
DSTYLE
1002
{
1070
   140
1040
6.0
1070
    74
1070
     0
1070
   172
1070
     1
1070
    73
1070
     0
1070
   272
1070
     2
1070
    77
1070
     3
1070
   173
1070
     1
1070
   147
1040
2.0
1070
    42
1040
6.0
1070
    44
1040
3.0
1070
    43
1040
14.0
1070
   271
1070
     0
1070
   178
1070
     4
1070
   177
1070
     4
1070
   176
1070
     4
1070
   141
1040
150.0
1070
     7
1000
_OPEN
1070
     6
1000
_OPEN
1070
    41
1040
7.0
1002
}
  0
LINE
  5
8845
330
1A
100
AcDbEntity
  8
SEIHIN
  6
Continuous
 62
     3
 48
5.0
100
AcDbLine
 10
444.0059878585813
 20
142.7668839404827
 30
0.0
 11
444.0059878585813
 21
146.2668839404826
 31
0.0
  0
LINE
  5
8846
330
1A
100
AcDbEntity
  8
SEIHIN
  6
Continuous
 62
     3
 48
5.0
100
AcDbLine
 10
432.9059878585811
 20
137.0168839404826
 30
0.0
 11
432.9059878585811
 21
148.5168839404826
 31
0.0
  0
LINE
  5
8847
330
1A
100
AcDbEntity
  8
SEIHIN
  6
Continuous
 62
     3
 48
5.0
100
AcDbLine
 10
438.0059878585813
 20
136.7668839404827
 30
0.0
 11
438.0059878585813
 21
148.7668839404826
 31
0.0
  0
LINE
  5
8848
330
1A
100
AcDbEntity
  8
SEIHIN
  6
Continuous
 62
     3
 48
5.0
100
AcDbLine
 10
439.5059878585813
 20
136.7668839404827
 30
0.0
 11
439.5059878585813
 21
148.7668839404826
 31
0.0
  0
LINE
  5
8849
330
1A
100
AcDbEntity
  8
SEIHIN
  6
Continuous
 62
     3
 48
5.0
100
AcDbLine
 10
441.0059878585811
 20
147.2668839404826
 30
0.0
 11
441.0059878585811
 21
142.7668839404827
 31
0.0
  0
ARC
  5
884A
330
1A
100
AcDbEntity
  8
SEIHIN
  6
Continuous
 62
     3
 48
5.0
100
AcDbCircle
 10
438.5942878585811
 20
142.7668839404826
 30
0.0
 40
8.088217163874896
100
AcDbArc
 50
134.690940497346
 51
225.309059502654
  0
LINE
  5
884B
330
1A
100
AcDbEntity
  8
SEIHIN
  6
Continuous
 62
     3
 48
5.0
100
AcDbLine
 10
433.5059878585811
 20
135.5554839404827
 30
0.0
 11
433.5059878585811
 21
158.2668839404827
 31
0.0
  0
LINE
  5
884C
330
1A
100
AcDbEntity
  8
SEIHIN
  6
Continuous
 62
     3
 48
5.0
100
AcDbLine
 10
435.5059878585813
 20
135.2668839404826
 30
0.0
 11
435.5059878585813
 21
158.2668839404827
 31
0.0
  0
LINE
  5
884D
330
1A
100
AcDbEntity
  8
SEIHIN
  6
Continuous
 62
     3
 48
5.0
100
AcDbLine
 10
441.0059878585811
 20
138.2668839404826
 30
0.0
 11
444.0059878585813
 21
139.2668839404826
 31
0.0
  0
ARC
  5
884E
330
1A
100
AcDbEntity
  8
SEIHIN
  6
Continuous
 62
     3
 48
5.0
100
AcDbCircle
 10
449.3049054252999
 20
143.2649725182163
 30
0.0
 40
10.99998522318183
100
AcDbArc
 50
207.0245541307275
 51
266.9096427760473
  0
LINE
  5
884F
330
1A
100
AcDbEntity
  8
CENTER L
  6
CENTER
 62
     1
 48
5.0
100
AcDbLine
 10
454.0435878585811
 20
142.7668839404827
 30
0.0
 11
428.2226878585811
 21
142.7668839404827
 31
0.0
  0
ARC
  5
8850
330
1A
100
AcDbEntity
  8
SEIHIN
  6
Continuous
 62
     3
 48
5.0
100
AcDbCircle
 10
427.5059459553935
 20
135.2668113635868
 30
0.0
 40
8.000041903234736
100
AcDbArc
 50
300.0001732673354
 51
359.9998035975115
  0
ARC
  5
8851
330
1A
100
AcDbEntity
  8
SEIHIN
  6
Continuous
 62
     3
 48
5.0
100
AcDbCircle
 10
433.0060153588837
 20
135.5555315731026
 30
0.0
 40
2.499972500151354
100
AcDbArc
 50
299.9996361095826
 51
359.9989083287558
  0
LINE
  5
8852
330
1A
100
AcDbEntity
  8
SEIHIN
  6
Continuous
 62
     3
 48
5.0
100
AcDbLine
 10
431.5059878585813
 20
128.3386839404827
 30
0.0
 11
428.6435878585813
 21
126.6860839404827
 31
0.0
  0
ARC
  5
8853
330
1A
100
AcDbEntity
  8
SEIHIN
  6
Continuous
 62
     3
 48
5.0
100
AcDbCircle
 10
429.1435929913268
 20
125.8200923168043
 30
0.0
 40
0.9999733121703458
100
AcDbArc
 50
120.0012224461614
 51
177.0024634809396
  0
LINE
  5
8854
330
1A
100
AcDbEntity
  8
SEIHIN
  6
Continuous
 62
     3
 48
5.0
100
AcDbLine
 10
435.5059802107857
 20
133.2668839404826
 30
0.0
 11
438.0059802107856
 21
133.2668839404826
 31
0.0
  0
ARC
  5
8855
330
1A
100
AcDbEntity
  8
SEIHIN
  6
Continuous
 62
     3
 48
5.0
100
AcDbCircle
 10
433.0059933586417
 20
135.5554934670065
 30
0.0
 40
0.499994500030171
100
AcDbArc
 50
299.9996361096034
 51
359.9989083287753
  0
LINE
  5
8856
330
1A
100
AcDbEntity
  8
SEIHIN
  6
Continuous
 62
     3
 48
5.0
100
AcDbLine
 10
433.5059878585811
 20
137.0168839404826
 30
0.0
 11
432.9059878585811
 21
137.0168839404826
 31
0.0
  0
LINE
  5
8857
330
1A
100
AcDbEntity
  8
SEIHIN
  6
Continuous
 62
     3
 48
5.0
100
AcDbLine
 10
441.0059878585811
 20
138.2668839404826
 30
0.0
 11
441.0059878585811
 21
142.7668839404827
 31
0.0
  0
LINE
  5
8858
330
1A
100
AcDbEntity
  8
SEIHIN
  6
Continuous
 62
     3
 48
5.0
100
AcDbLine
 10
439.5059878585813
 20
136.7668839404827
 30
0.0
 11
438.0059878585813
 21
136.7668839404827
 31
0.0
  0
LINE
  5
8859
330
1A
100
AcDbEntity
  8
SEIHIN
  6
Continuous
 62
     3
 48
5.0
100
AcDbLine
 10
439.5059878585813
 20
143.2668839404826
 30
0.0
 11
438.0059878585813
 21
143.2668839404826
 31
0.0
  0
LINE
  5
885A
330
1A
100
AcDbEntity
  8
SEIHIN
  6
Continuous
 62
     3
 48
5.0
100
AcDbLine
 10
439.5059878585813
 20
142.2668839404826
 30
0.0
 11
438.0059878585813
 21
142.2668839404826
 31
0.0
  0
LINE
  5
885B
330
1A
100
AcDbEntity
  8
SEIHIN
  6
Continuous
 62
     3
 48
5.0
100
AcDbLine
 10
441.0059878585811
 20
138.2668839404826
 30
0.0
 11
439.5059878585813
 21
138.2668839404826
 31
0.0
  0
LINE
  5
885C
330
1A
100
AcDbEntity
  8
SEIHIN
  6
Continuous
 62
     3
 48
5.0
100
AcDbLine
 10
449.7235878585813
 20
132.9921839404826
 30
0.0
 11
450.6661878585813
 21
136.1340839404826
 31
0.0
  0
ARC
  5
885D
330
1A
100
AcDbEntity
  8
SEIHIN
  6
Continuous
 62
     3
 48
5.0
100
AcDbCircle
 10
449.3049096251339
 20
143.2649732315259
 30
0.0
 40
9.499980577636944
100
AcDbArc
 50
225.6596197418559
 51
261.9465225459464
  0
ARC
  5
885E
330
1A
100
AcDbEntity
  8
SEIHIN
  6
Continuous
 62
     3
 48
5.0
100
AcDbCircle
 10
448.7657456619311
 20
133.2795542798401
 30
0.0
 40
1.000021692577742
100
AcDbArc
 50
266.9127484359264
 51
343.2997854993056
  0
ARC
  5
885F
330
1A
100
AcDbEntity
  8
SEIHIN
  6
Continuous
 62
     3
 48
5.0
100
AcDbCircle
 10
449.708345712874
 20
136.4214506888148
 30
0.0
 40
1.000020611857654
100
AcDbArc
 50
343.299981728824
 51
81.23170305773532
  0
LINE
  5
8860
330
1A
100
AcDbEntity
  8
SEIHIN
  6
Continuous
 62
     3
 48
5.0
100
AcDbLine
 10
451.5059878585813
 20
145.2668839404827
 30
0.0
 11
444.0059878585813
 21
145.2668839404827
 31
0.0
  0
LINE
  5
8861
330
1A
100
AcDbEntity
  8
SEIHIN
  6
Continuous
 62
     3
 48
5.0
100
AcDbLine
 10
451.5059878585813
 20
140.2668839404826
 30
0.0
 11
444.0059878585813
 21
140.2668839404826
 31
0.0
  0
LINE
  5
8862
330
1A
100
AcDbEntity
  8
SEIHIN
  6
Continuous
 62
     3
 48
5.0
100
AcDbLine
 10
451.5059878585813
 20
144.4668839404827
 30
0.0
 11
444.0059878585813
 21
144.4668839404827
 31
0.0
  0
LINE
  5
8863
330
1A
100
AcDbEntity
  8
SEIHIN
  6
Continuous
 62
     3
 48
5.0
100
AcDbLine
 10
451.5059878585813
 20
141.0668839404827
 30
0.0
 11
444.0059878585813
 21
141.0668839404827
 31
0.0
  0
ARC
  5
8864
330
1A
100
AcDbEntity
  8
SEIHIN
  6
Continuous
 62
     3
 48
5.0
100
AcDbCircle
 10
452.9083598451261
 20
157.1762904798563
 30
0.0
 40
21.50007632291403
100
AcDbArc
 50
245.7620259091003
 51
258.2520175151796
  0
LINE
  5
8865
330
1A
100
AcDbEntity
  8
SEIHIN
  6
Continuous
 62
     3
 48
5.0
100
AcDbLine
 10
444.0059878585813
 20
142.7668839404827
 30
0.0
 11
444.0059878585813
 21
139.2668839404826
 31
0.0
  0
LINE
  5
8866
330
1A
100
AcDbEntity
  8
SEIHIN
  6
Continuous
 62
     3
 48
5.0
100
AcDbLine
 10
442.8565878585812
 20
137.3025839404827
 30
0.0
 11
443.7186878585811
 21
137.5899839404827
 31
0.0
  0
ARC
  5
8867
330
1A
100
AcDbEntity
  8
SEIHIN
  6
Continuous
 62
     3
 48
5.0
100
AcDbCircle
 10
443.0146908734427
 20
136.8281970449964
 30
0.0
 40
0.5000394883580486
100
AcDbArc
 50
108.4321279600252
 51
225.6571106533366
  0
ARC
  5
8868
330
1A
100
AcDbEntity
  8
SEIHIN
  6
Continuous
 62
     3
 48
5.0
100
AcDbCircle
 10
443.8768383617764
 20
137.1155813785889
 30
0.0
 40
0.4999745012296693
100
AcDbArc
 50
65.76249988086155
 51
108.4403465205969
  0
ARC
  5
8869
330
1A
100
AcDbEntity
  8
SEIHIN
  6
Continuous
 62
     3
 48
5.0
100
AcDbCircle
 10
448.4289952906853
 20
135.6370714604549
 30
0.0
 40
0.499984194731959
100
AcDbArc
 50
343.2985880045637
 51
78.25293660542684
  0
ARC
  5
886A
330
1A
100
AcDbEntity
  8
SEIHIN
  6
Continuous
 62
     3
 48
5.0
100
AcDbCircle
 10
448.0439981111409
 20
134.3537265055652
 30
0.0
 40
0.4999685757195116
100
AcDbArc
 50
261.9504579517474
 51
343.3034295652633
  0
LINE
  5
886B
330
1A
100
AcDbEntity
  8
SEIHIN
  6
Continuous
 62
     3
 48
5.0
100
AcDbLine
 10
448.5228878585813
 20
134.2100839404827
 30
0.0
 11
448.9078878585813
 21
135.4933839404827
 31
0.0
  0
ARC
  5
886C
330
1A
100
AcDbEntity
  8
SEIHIN
  6
Continuous
 62
     3
 48
5.0
100
AcDbCircle
 10
452.9086707242029
 20
157.176189375492
 30
0.0
 40
20.0000245842422
100
AcDbArc
 50
243.5681134773676
 51
261.2340247489674
  0
LINE
  5
886D
330
1A
100
AcDbEntity
  8
SEIHIN
  6
Continuous
 62
     3
 48
5.0
100
AcDbLine
 10
451.5059878585813
 20
140.2668839404826
 30
0.0
 11
451.5059878585813
 21
145.2668839404827
 31
0.0
  0
ARC
  5
886E
330
1A
100
AcDbEntity
  8
SEIHIN
  6
Continuous
 62
     3
 48
5.0
100
AcDbCircle
 10
449.3049420781812
 20
142.2687191947857
 30
0.0
 40
10.99996340185272
100
AcDbArc
 50
93.09055455326508
 51
152.974942526764
  0
LINE
  5
886F
330
1A
100
AcDbEntity
  8
SEIHIN
  6
Continuous
 62
     3
 48
5.0
100
AcDbLine
 10
441.0059878585811
 20
147.2668839404826
 30
0.0
 11
444.0059878585813
 21
146.2668839404826
 31
0.0
  0
LINE
  5
8870
330
1A
100
AcDbEntity
  8
SEIHIN
  6
Continuous
 62
     3
 48
5.0
100
AcDbLine
 10
433.5059878585811
 20
148.5168839404826
 30
0.0
 11
432.9059878585811
 21
148.5168839404826
 31
0.0
  0
LINE
  5
8871
330
1A
100
AcDbEntity
  8
SEIHIN
  6
Continuous
 62
     3
 48
5.0
100
AcDbLine
 10
439.5059878585813
 20
148.7668839404826
 30
0.0
 11
438.0059878585813
 21
148.7668839404826
 31
0.0
  0
LINE
  5
8872
330
1A
100
AcDbEntity
  8
SEIHIN
  6
Continuous
 62
     3
 48
5.0
100
AcDbLine
 10
441.0059878585811
 20
147.2668839404826
 30
0.0
 11
439.5059878585813
 21
147.2668839404826
 31
0.0
  0
ARC
  5
8873
330
1A
100
AcDbEntity
  8
SEIHIN
  6
Continuous
 62
     3
 48
5.0
100
AcDbCircle
 10
433.0059878585812
 20
158.2668839404826
 30
0.0
 40
2.500000000000085
100
AcDbArc
 50
0.0000000000016284
 51
90.00000000000162
  0
ARC
  5
8874
330
1A
100
AcDbEntity
  8
SEIHIN
  6
Continuous
 62
     3
 48
5.0
100
AcDbCircle
 10
433.0059878585811
 20
158.2668839404826
 30
0.0
 40
0.4999999999999716
100
AcDbArc
 50
0.0000000000032569
 51
90.00000000000325
  0
ARC
  5
8875
330
1A
100
AcDbEntity
  8
SEIHIN
  6
Continuous
 62
     3
 48
5.0
100
AcDbCircle
 10
449.7083806885944
 20
149.1122725848127
 30
0.0
 40
0.999971194572692
100
AcDbArc
 50
278.766705961267
 51
16.69755415617697
  0
LINE
  5
8876
330
1A
100
AcDbEntity
  8
SEIHIN
  6
Continuous
 62
     3
 48
5.0
100
AcDbLine
 10
449.7235878585813
 20
152.5414839404826
 30
0.0
 11
450.6661878585813
 21
149.3995839404827
 31
0.0
  0
ARC
  5
8877
330
1A
100
AcDbEntity
  8
SEIHIN
  6
Continuous
 62
     3
 48
5.0
100
AcDbCircle
 10
449.304909625134
 20
142.2686946494394
 30
0.0
 40
9.499980577636984
100
AcDbArc
 50
98.05347745405359
 51
134.3403802581462
  0
ARC
  5
8878
330
1A
100
AcDbEntity
  8
SEIHIN
  6
Continuous
 62
     3
 48
5.0
100
AcDbCircle
 10
452.9084209232573
 20
128.3574972402738
 30
0.0
 40
21.49995106929177
100
AcDbArc
 50
101.7479459581915
 51
114.2380106175291
  0
LINE
  5
8879
330
1A
100
AcDbEntity
  8
SEIHIN
  6
Continuous
 62
     3
 48
5.0
100
AcDbLine
 10
442.8565878585812
 20
148.2311839404827
 30
0.0
 11
443.7186878585811
 21
147.9437839404827
 31
0.0
  0
ARC
  5
887A
330
1A
100
AcDbEntity
  8
SEIHIN
  6
Continuous
 62
     3
 48
5.0
100
AcDbCircle
 10
443.0146784163495
 20
148.7055249883934
 30
0.0
 40
0.4999920541253459
100
AcDbArc
 50
134.3462057875047
 51
251.5675651468893
  0
ARC
  5
887B
330
1A
100
AcDbEntity
  8
SEIHIN
  6
Continuous
 62
     3
 48
5.0
100
AcDbCircle
 10
443.8768383617765
 20
148.4180865023764
 30
0.0
 40
0.4999745012296837
100
AcDbArc
 50
251.5596534793979
 51
294.2375001191313
  0
ARC
  5
887C
330
1A
100
AcDbEntity
  8
SEIHIN
  6
Continuous
 62
     3
 48
5.0
100
AcDbCircle
 10
448.0439981111409
 20
151.1799413754002
 30
0.0
 40
0.4999685757194821
100
AcDbArc
 50
16.69657043474333
 51
98.04954204825914
  0
ARC
  5
887D
330
1A
100
AcDbEntity
  8
SEIHIN
  6
Continuous
 62
     3
 48
5.0
100
AcDbCircle
 10
448.4289613051428
 20
149.8966393538754
 30
0.0
 40
0.500033148668515
100
AcDbArc
 50
281.7498744685937
 51
16.70655594419892
  0
LINE
  5
887E
330
1A
100
AcDbEntity
  8
SEIHIN
  6
Continuous
 62
     3
 48
5.0
100
AcDbLine
 10
448.5228878585813
 20
151.3235839404827
 30
0.0
 11
448.9078878585813
 21
150.0403839404827
 31
0.0
  0
ARC
  5
887F
330
1A
100
AcDbEntity
  8
SEIHIN
  6
Continuous
 62
     3
 48
5.0
100
AcDbCircle
 10
452.9086234244303
 20
128.3575635022014
 30
0.0
 40
20.00001696447672
100
AcDbArc
 50
98.76555164749229
 51
116.4317460515138
  0
ARC
  5
8880
330
1A
100
AcDbEntity
  8
SEIHIN
  6
Continuous
 62
     3
 48
5.0
100
AcDbCircle
 10
448.7657927108599
 20
152.2541805294173
 30
0.0
 40
0.9999573965966371
100
AcDbArc
 50
16.697316059977
 51
93.09015000477871
  0
LINE
  5
8881
330
1A
100
AcDbEntity
  8
SEIHIN
  6
PHANTOM
 62
     6
 48
5.0
100
AcDbLine
 10
433.0059802107856
 20
190.4855839404825
 30
0.0
 11
433.0059802107856
 21
168.5969839404827
 31
0.0
  0
ARC
  5
8882
330
1A
100
AcDbEntity
  8
SEIHIN
  6
PHANTOM
 62
     6
 48
5.0
100
AcDbCircle
 10
439.0060796357853
 20
190.4856832045327
 30
0.0
 40
0.9999994249998434
100
AcDbArc
 50
103.9986813324716
 51
179.9999578331509
  0
LINE
  5
8883
330
1A
100
AcDbEntity
  8
SEIHIN
  6
Continuous
 62
     3
 48
5.0
100
AcDbLine
 10
433.0059802107856
 20
257.4855839404826
 30
0.0
 11
433.0059802107856
 21
235.5969839404827
 31
0.0
  0
LINE
  5
8884
330
1A
100
AcDbEntity
  8
SEIHIN
  6
PHANTOM
 62
     6
 48
5.0
100
AcDbLine
 10
437.5543802107856
 20
196.3073839404827
 30
0.0
 11
471.4067802107857
 21
204.7477839404827
 31
0.0
  0
LINE
  5
8885
330
1A
100
AcDbEntity
  8
SEIHIN
  6
Continuous
 62
     4
 48
5.0
100
AcDbLine
 10
438.0059802107856
 20
226.2668839404826
 30
0.0
 11
435.5059802107857
 21
226.2668839404826
 31
0.0
  0
ARC
  5
8886
330
1A
100
AcDbEntity
  8
SEIHIN
  6
Continuous
 62
     3
 48
5.0
100
AcDbCircle
 10
438.0059935117502
 20
235.5969609020035
 30
0.0
 40
5.00001330101763
100
AcDbArc
 50
179.9997359991776
 51
239.9985888062496
  0
ARC
  5
8887
330
1A
100
AcDbEntity
  8
SEIHIN
  6
PHANTOM
 62
     6
 48
5.0
100
AcDbCircle
 10
472.6163686150785
 20
199.8962872655098
 30
0.0
 40
5.000012409491873
100
AcDbArc
 50
43.99993950276276
 51
103.9997156661985
  0
LINE
  5
8888
330
1A
100
AcDbEntity
  8
SEIHIN
  6
PHANTOM
 62
     6
 48
5.0
100
AcDbLine
 10
484.7062802107857
 20
210.6403839404827
 30
0.0
 11
487.7302802107857
 21
198.5117839404827
 31
0.0
  0
LINE
  5
8889
330
1A
100
AcDbEntity
  8
SEIHIN
  6
Continuous
 62
     3
 48
5.0
100
AcDbLine
 10
437.5543802107856
 20
263.3073839404827
 30
0.0
 11
471.4067802107857
 21
271.7477839404827
 31
0.0
  0
ARC
  5
888A
330
1A
100
AcDbEntity
  8
SEIHIN
  6
Continuous
 62
     3
 48
5.0
100
AcDbCircle
 10
439.0060009523806
 20
257.485610488789
 30
0.0
 40
6.000020741653719
100
AcDbArc
 50
104.000830141907
 51
180.0002535167745
  0
ARC
  5
888B
330
1A
100
AcDbEntity
  8
SEIHIN
  6
Continuous
 62
     3
 48
5.0
100
AcDbCircle
 10
439.0060796357853
 20
257.4856832045327
 30
0.0
 40
0.9999994249998434
100
AcDbArc
 50
103.9986813324716
 51
179.9999578331509
  0
ARC
  5
888C
330
1A
100
AcDbEntity
  8
SEIHIN
  6
Continuous
 62
     3
 48
5.0
100
AcDbCircle
 10
439.0060085034141
 20
257.4856201529526
 30
0.0
 40
3.500028292815761
100
AcDbArc
 50
103.9999124952824
 51
180.0005928014073
  0
ARC
  5
888D
330
1A
100
AcDbEntity
  8
SEIHIN
  6
Continuous
 62
     3
 48
5.0
100
AcDbCircle
 10
472.6163686150785
 20
266.8962872655098
 30
0.0
 40
5.000012409491873
100
AcDbArc
 50
43.99993950276276
 51
103.9997156661985
  0
LINE
  5
888E
330
1A
100
AcDbEntity
  8
CENTER L
  6
CENTER
 62
     1
 48
5.0
100
AcDbLine
 10
484.7062802107857
 20
277.6403839404827
 30
0.0
 11
487.7302802107857
 21
265.5117839404827
 31
0.0
  0
LINE
  5
888F
330
1A
100
AcDbEntity
  8
SEIHIN
  6
PHANTOM
 62
     6
 48
5.0
100
AcDbLine
 10
533.2213802107857
 20
222.7364839404827
 30
0.0
 11
536.2453802107858
 21
210.6077839404827
 31
0.0
  0
LINE
  5
8890
330
1A
100
AcDbEntity
  8
SEIHIN
  6
PHANTOM
 62
     6
 48
5.0
100
AcDbLine
 10
581.7358802107857
 20
234.8324839404827
 30
0.0
 11
584.7598802107858
 21
222.7037839404827
 31
0.0
  0
LINE
  5
8891
330
1A
100
AcDbEntity
  8
SEIHIN
  6
PHANTOM
 62
     6
 48
5.0
100
AcDbLine
 10
592.6484802107858
 20
232.4001839404826
 30
0.0
 11
593.2532802107857
 21
229.9743839404827
 31
0.0
  0
TEXT
  5
8892
330
1A
100
AcDbEntity
  8
SUNPOU
100
AcDbText
 10
645.5923341903589
 20
244.6247843077321
 30
0.0
 40
6.0
  1
スライド巾
 50
90.0
  7
STYLE1
100
AcDbText
  0
ELLIPSE
  5
8893
330
1A
100
AcDbEntity
  8
SEIHIN
100
AcDbEllipse
 10
582.9487878585813
 20
488.2488285525237
 30
0.0
 11
5.684341886080802E-14
 21
2.099999999999966
 31
0.0
210
0.0
220
0.0
230
1.0
 40
0.9708500692955697
 41
0.0000000000000279
 42
6.283185307179614
  0
ELLIPSE
  5
8894
330
1A
100
AcDbEntity
  8
SEIHIN
100
AcDbEllipse
 10
534.4339878585812
 20
488.2488285525237
 30
0.0
 11
5.684341886080802E-14
 21
2.099999999999966
 31
0.0
210
0.0
220
0.0
230
1.0
 40
0.9708500692955697
 41
-0.0000000000000279
 42
6.283185307179559
  0
ELLIPSE
  5
8895
330
1A
100
AcDbEntity
  8
SEIHIN
100
AcDbEllipse
 10
485.9188878585811
 20
488.2154785525237
 30
0.0
 11
5.684341886080802E-14
 21
2.099999999999966
 31
0.0
210
0.0
220
0.0
230
1.0
 40
0.9708500692955697
 41
0.0
 42
6.283185307179586
  0
DIMENSION
  5
8896
330
1A
100
AcDbEntity
  8
SUNPOU
100
AcDbDimension
  2
*D13
 10
634.0921540344142
 20
478.7154785525237
 30
0.0
 11
629.0921540344141
 21
488.2154785525237
 31
0.0
 70
    32
 71
     5
 42
19.0
  3
STANDARD
100
AcDbAlignedDimension
 13
593.2564878585812
 23
497.7154785525237
 33
0.0
 14
592.6517878585811
 24
478.7154785525237
 34
0.0
 50
90.0
100
AcDbRotatedDimension
1001
ACAD
1000
DSTYLE
1002
{
1070
   140
1040
6.0
1070
    74
1070
     0
1070
   172
1070
     1
1070
    73
1070
     0
1070
   272
1070
     2
1070
    77
1070
     3
1070
   173
1070
     1
1070
   147
1040
2.0
1070
    42
1040
6.0
1070
    44
1040
3.0
1070
    43
1040
14.0
1070
   271
1070
     0
1070
   178
1070
     4
1070
   177
1070
     4
1070
   176
1070
     4
1070
   141
1040
150.0
1070
     7
1000
_OPEN
1070
     6
1000
_OPEN
1070
    41
1040
7.0
1002
}
  0
LINE
  5
8897
330
1A
100
AcDbEntity
  8
SEIHIN
  6
Continuous
 62
     3
 48
5.0
100
AcDbLine
 10
461.5606126135746
 20
329.1813045192159
 30
0.0
 11
577.9857126135745
 21
358.2094045192159
 31
0.0
  0
LINE
  5
8898
330
1A
100
AcDbEntity
  8
SEIHIN
  6
Continuous
 62
     3
 48
5.0
100
AcDbLine
 10
455.6135126135745
 20
347.2802045192159
 30
0.0
 11
573.3892126135746
 21
376.6450045192158
 31
0.0
  0
LINE
  5
8899
330
1A
100
AcDbEntity
  8
CENTER L
  6
CENTER
 62
     1
 48
5.0
100
AcDbLine
 10
579.8502126135746
 20
368.4650045192159
 30
0.0
 11
455.9348126135743
 21
337.5695045192159
 31
0.0
  0
DIMENSION
  5
889A
330
1A
100
AcDbEntity
  8
SUNPOU
100
AcDbDimension
  2
*D14
 10
508.864763292265
 20
387.424237010549
 30
0.0
 11
531.9126059914329
 21
398.3237661847569
 31
0.0
 70
    33
 71
     5
 42
50.00011157207541
  3
STANDARD
100
AcDbAlignedDimension
 13
564.8723126135745
 23
369.4689045192159
 33
0.0
 14
516.3574126135746
 24
357.372804519216
 34
0.0
1001
ACAD
1000
DSTYLE
1002
{
1070
   140
1040
6.0
1070
    74
1070
     0
1070
   172
1070
     1
1070
    73
1070
     0
1070
   272
1070
     2
1070
    77
1070
     3
1070
   173
1070
     1
1070
   147
1040
2.0
1070
    42
1040
6.0
1070
    44
1040
3.0
1070
    43
1040
14.0
1070
   271
1070
     0
1070
   178
1070
     4
1070
   177
1070
     4
1070
   176
1070
     4
1070
   141
1040
150.0
1070
     7
1000
_OPEN
1070
     6
1000
_OPEN
1070
    41
1040
7.0
1002
}
  0
DIMENSION
  5
889B
330
1A
100
AcDbEntity
  8
SUNPOU
100
AcDbDimension
  2
*D15
 10
557.3796635473461
 20
399.5203365222458
 30
0.0
 11
586.0033383821725
 21
406.6570019073344
 31
0.0
 70
   161
 71
     5
 42
9.99994498077217
  3
STANDARD
100
AcDbAlignedDimension
 13
574.7197743385312
 23
371.3082997685119
 33
0.0
 14
565.0168690048995
 24
368.8890999617468
 34
0.0
1001
ACAD
1000
DSTYLE
1002
{
1070
   288
1070
     1
1070
   140
1040
6.0
1070
    74
1070
     0
1070
   172
1070
     1
1070
    73
1070
     0
1070
   272
1070
     2
1070
    77
1070
     3
1070
   173
1070
     1
1070
   147
1040
2.0
1070
    42
1040
6.0
1070
    44
1040
3.0
1070
    43
1040
14.0
1070
   271
1070
     0
1070
   178
1070
     4
1070
   177
1070
     4
1070
   176
1070
     4
1070
   141
1040
150.0
1070
     7
1000
_OPEN
1070
     6
1000
_OPEN
1070
    41
1040
7.0
1002
}
  0
DIMENSION
  5
889C
330
1A
100
AcDbEntity
  8
SUNPOU
100
AcDbDimension
  2
*D16
 10
460.349949571463
 20
375.3281300989833
 30
0.0
 11
483.3977399232779
 21
386.227658687931
 31
0.0
 70
    33
 71
     5
 42
50.00001454249798
  3
STANDARD
100
AcDbAlignedDimension
 13
516.3574126135745
 23
357.372804519216
 33
0.0
 14
467.8426126135744
 24
345.2767045192159
 34
0.0
1001
ACAD
1000
DSTYLE
1002
{
1070
   140
1040
6.0
1070
    74
1070
     0
1070
   172
1070
     1
1070
    73
1070
     0
1070
   272
1070
     2
1070
    77
1070
     3
1070
   173
1070
     1
1070
   147
1040
2.0
1070
    42
1040
6.0
1070
    44
1040
3.0
1070
    43
1040
14.0
1070
   271
1070
     0
1070
   178
1070
     4
1070
   177
1070
     4
1070
   176
1070
     4
1070
   141
1040
150.0
1070
     7
1000
_OPEN
1070
     6
1000
_OPEN
1070
    41
1040
7.0
1002
}
  0
CIRCLE
  5
889D
330
1A
100
AcDbEntity
  8
SEIHIN
 48
5.0
100
AcDbCircle
 10
468.9549920013728
 20
340.8152999860091
 30
0.0
 40
2.1
  0
LINE
  5
889E
330
1A
100
AcDbEntity
  8
CENTER L
  6
CENTER
 62
     1
 48
5.0
100
AcDbLine
 10
467.8426126135745
 20
345.2767045192159
 30
0.0
 11
469.9575126135744
 21
336.7945045192158
 31
0.0
  0
CIRCLE
  5
889F
330
1A
100
AcDbEntity
  8
SEIHIN
 48
5.0
100
AcDbCircle
 10
517.4697129299913
 20
352.9116645249178
 30
0.0
 40
2.1
  0
LINE
  5
88A0
330
1A
100
AcDbEntity
  8
CENTER L
  6
CENTER
 62
     1
 48
5.0
100
AcDbLine
 10
516.3574126135746
 20
357.372804519216
 30
0.0
 11
518.4723126135745
 21
348.8905045192159
 31
0.0
  0
DIMENSION
  5
88A1
330
1A
100
AcDbEntity
  8
SUNPOU
100
AcDbDimension
  2
*D17
 10
607.4577580515288
 20
365.5576157366098
 30
0.0
 11
610.0109796881126
 21
375.9850242918037
 31
0.0
 70
    33
 71
     5
 42
18.99997788445549
  3
STANDARD
100
AcDbAlignedDimension
 13
573.38919900951
 23
376.6450011273392
 33
0.0
 14
577.9857126135744
 24
358.2094045192159
 34
0.0
1001
ACAD
1000
DSTYLE
1002
{
1070
   140
1040
6.0
1070
    74
1070
     0
1070
   172
1070
     1
1070
    73
1070
     0
1070
   272
1070
     2
1070
    77
1070
     3
1070
   173
1070
     1
1070
   147
1040
2.0
1070
    42
1040
6.0
1070
    44
1040
3.0
1070
    43
1040
14.0
1070
   271
1070
     0
1070
   178
1070
     4
1070
   177
1070
     4
1070
   176
1070
     4
1070
   141
1040
150.0
1070
     7
1000
_OPEN
1070
     6
1000
_OPEN
1070
    41
1040
7.0
1002
}
  0
LEADER
  5
88A2
330
1A
100
AcDbEntity
  8
SUNPOU
  6
Continuous
 62
     4
100
AcDbLeader
  3
STANDARD
 74
     0
 40
6.0
 41
31.2
 76
     3
 10
566.7363567728946
 20
366.9687118947487
 30
0.0
 10
598.2771907959713
 20
410.6294893728756
 30
0.0
 10
600.4125891413117
 20
410.6294893728756
 30
0.0
1001
ACAD
1000
DSTYLE
1002
{
1070
     6
1000
OPEN
1070
    41
1040
7.0
1070
    42
1040
6.0
1070
    43
1040
14.0
1070
    44
1040
3.0
1070
    73
1070
     0
1070
    74
1070
     0
1070
    77
1070
     3
1070
   140
1040
6.0
1070
   141
1040
150.0
1070
   147
1040
2.0
1070
   172
1070
     1
1070
   173
1070
     1
1070
   176
1070
     4
1070
   177
1070
     4
1070
   178
1070
     4
1070
   271
1070
     0
1070
   272
1070
     2
1070
   341
1005
6D
1070
   343
1005
6D
1070
   344
1005
6D
1002
}
  0
LINE
  5
88A3
330
1A
100
AcDbEntity
  8
SUNPOU
  6
Continuous
 62
     4
 48
5.0
100
AcDbLine
 10
665.6078668280061
 20
317.5898109773682
 30
0.0
 11
621.5209014178714
 21
306.5984156932261
 31
0.0
  0
LINE
  5
88A4
330
1A
100
AcDbEntity
  8
CENTER L
  6
CENTER
 62
     1
 48
5.0
100
AcDbLine
 10
581.7358802107857
 20
301.8324839404827
 30
0.0
 11
584.7598802107858
 21
289.7037839404827
 31
0.0
  0
LINE
  5
88A5
330
1A
100
AcDbEntity
  8
SEIHIN
  6
Continuous
 62
     3
 48
5.0
100
AcDbLine
 10
592.6484802107858
 20
299.4001839404827
 30
0.0
 11
593.2532802107857
 21
296.9743839404827
 31
0.0
  0
LINE
  5
88A6
330
1A
100
AcDbEntity
  8
SEIHIN
  6
Continuous
 62
     3
 48
5.0
100
AcDbLine
 10
573.3892126135746
 20
376.6449045192159
 30
0.0
 11
577.9857126135745
 21
358.209304519216
 31
0.0
  0
LINE
  5
88A7
330
1A
100
AcDbEntity
  8
CENTER L
  6
CENTER
 62
     1
 48
5.0
100
AcDbLine
 10
564.8723126135745
 20
369.4689045192159
 30
0.0
 11
566.9871126135746
 21
360.9866045192158
 31
0.0
  0
CIRCLE
  5
88A8
330
1A
100
AcDbEntity
  8
SEIHIN
 48
5.0
100
AcDbCircle
 10
565.9845243135912
 20
365.0079090099238
 30
0.0
 40
2.1
  0
LINE
  5
88A9
330
1A
100
AcDbEntity
  8
SUNPOU
 48
5.0
100
AcDbLine
 10
645.6078668280063
 20
312.6035774355988
 30
0.0
 11
665.607866828006
 21
312.6035774355989
 31
0.0
  0
TEXT
  5
88AA
330
1A
100
AcDbEntity
  8
SUNPOU
 48
5.0
100
AcDbText
 10
656.3860122241739
 20
303.2470808718982
 30
0.0
 40
6.0
  1
10
100
AcDbText
  0
TEXT
  5
88AB
330
1A
100
AcDbEntity
  8
SUNPOU
 48
5.0
100
AcDbText
 10
670.0077731679811
 20
312.8855012012576
 30
0.0
 40
6.0
  1
2.5
100
AcDbText
  0
LINE
  5
88AC
330
1A
100
AcDbEntity
  8
SUNPOU
 48
5.0
100
AcDbLine
 10
665.607866828006
 20
312.6035774355988
 30
0.0
 11
665.6078668280061
 21
317.5898109773682
 31
0.0
  0
MTEXT
  5
88AD
330
1A
100
AcDbEntity
  8
SUNPOU
  6
Continuous
 62
     4
100
AcDbMText
 10
602.4125891413117
 20
412.6294893728756
 30
0.0
 40
6.0
 41
0.0
 71
     7
 72
     5
  1
3-φ4.2
 73
     1
 44
1.0
  0
LINE
  5
88AE
330
1A
100
AcDbEntity
  8
SEIHIN
  6
Continuous
 62
     3
 48
5.0
100
AcDbLine
 10
435.4457878585812
 20
493.2154785525237
 30
0.0
 11
471.7079878585813
 21
493.2154785525237
 31
0.0
  0
LINE
  5
88AF
330
1A
100
AcDbEntity
  8
SEIHIN
  6
Continuous
 62
     3
 48
5.0
100
AcDbLine
 10
435.4457878585812
 20
483.2154785525237
 30
0.0
 11
471.7079878585813
 21
483.2154785525237
 31
0.0
  0
ARC
  5
88B0
330
1A
100
AcDbEntity
  8
SEIHIN
  6
Continuous
 62
     3
 48
5.0
100
AcDbCircle
 10
435.0093110596578
 20
493.4595272218354
 30
0.0
 40
0.4999768012923038
100
AcDbArc
 50
309.0193496335591
 51
359.9944226489064
  0
LINE
  5
88B1
330
1A
100
AcDbEntity
  8
SEIHIN
  6
Continuous
 62
     3
 48
5.0
100
AcDbLine
 10
435.5092878585813
 20
478.7154785525237
 30
0.0
 11
435.5092878585813
 21
482.9716785525237
 31
0.0
  0
ARC
  5
88B2
330
1A
100
AcDbEntity
  8
SEIHIN
  6
Continuous
 62
     3
 48
5.0
100
AcDbCircle
 10
439.2592878586878
 20
488.2155880295032
 30
0.0
 40
6.249864016919212
100
AcDbArc
 50
129.0228076853213
 51
230.9760122844133
  0
ARC
  5
88B3
330
1A
100
AcDbEntity
  8
SEIHIN
  6
Continuous
 62
     3
 48
5.0
100
AcDbCircle
 10
435.0092722140707
 20
482.9717113649731
 30
0.0
 40
0.5000156455872203
100
AcDbArc
 50
359.9962400879197
 51
50.97852800596631
  0
LINE
  5
88B4
330
1A
100
AcDbEntity
  8
SEIHIN
  6
Continuous
 62
     3
 48
5.0
100
AcDbLine
 10
435.5092878585813
 20
497.7154785525237
 30
0.0
 11
435.5092878585813
 21
493.4594785525237
 31
0.0
  0
ARC
  5
88B5
330
1A
100
AcDbEntity
  8
SEIHIN
  6
Continuous
 62
     3
 48
5.0
100
AcDbCircle
 10
471.2163878585811
 20
488.2155785525237
 30
0.0
 40
5.0
100
AcDbArc
 50
270.0
 51
90.0
  0
LINE
  5
88B6
330
1A
100
AcDbEntity
  8
CENTER L
  6
CENTER
 62
     1
 48
5.0
100
AcDbLine
 10
485.9188878585811
 20
483.4243785525238
 30
0.0
 11
485.9188878585811
 21
492.9398785525237
 31
0.0
  0
ARC
  5
88B7
330
1A
100
AcDbEntity
  8
SEIHIN
  6
Continuous
 62
     3
 48
5.0
100
AcDbCircle
 10
486.5864878587878
 20
488.2148285525237
 30
0.0
 40
2.101507842633693
100
AcDbArc
 50
100.0049000383197
 51
259.9950999616804
  0
LINE
  5
88B8
330
1A
100
AcDbEntity
  8
CENTER L
  6
CENTER
 62
     1
 48
5.0
100
AcDbLine
 10
534.4339878585812
 20
483.4243785525238
 30
0.0
 11
534.4339878585812
 21
492.9398785525237
 31
0.0
  0
ARC
  5
88B9
330
1A
100
AcDbEntity
  8
SEIHIN
  6
Continuous
 62
     3
 48
5.0
100
AcDbCircle
 10
535.1015878587879
 20
488.2481785525237
 30
0.0
 40
2.101507842633693
100
AcDbArc
 50
100.0049000383197
 51
259.9950999616804
  0
ARC
  5
88BA
330
1A
100
AcDbEntity
  8
SEIHIN
  6
Continuous
 62
     3
 48
5.0
100
AcDbCircle
 10
583.616387858788
 20
488.2481785525237
 30
0.0
 40
2.101507842633693
100
AcDbArc
 50
100.0049000383197
 51
259.9950999616804
  0
LINE
  5
88BB
330
1A
100
AcDbEntity
  8
CENTER L
  6
CENTER
 62
     1
 48
5.0
100
AcDbLine
 10
582.9487878585813
 20
483.4243785525238
 30
0.0
 11
582.9487878585813
 21
492.9398785525237
 31
0.0
  0
LINE
  5
88BC
330
1A
100
AcDbEntity
  8
SEIHIN
  6
Continuous
 62
     3
 48
5.0
100
AcDbLine
 10
592.6517878585811
 20
478.7154785525237
 30
0.0
 11
592.6517878585811
 21
497.7152785525237
 31
0.0
  0
LINE
  5
88BD
330
1A
100
AcDbEntity
  8
SEIHIN
  6
Continuous
 62
     3
 48
5.0
100
AcDbLine
 10
593.2565878585812
 20
478.7154785525237
 30
0.0
 11
593.2565878585812
 21
497.7152785525237
 31
0.0
  0
VIEWPORT
  5
22
330
17
100
AcDbEntity
 67
     1
  8
0
100
AcDbViewport
 10
313.6808219178082
 20
286.420032064001
 30
0.0
 40
627.3616438356164
 41
572.840064128002
 68
     2
 69
     1
 12
313.6808219178082
 22
286.420032064001
 13
0.0
 23
0.0
 14
1.0
 24
1.0
 15
10.0
 25
10.0
 16
0.0
 26
0.0
 36
1.0
 17
0.0
 27
0.0
 37
0.0
 42
50.0
 43
0.0
 44
0.0
 45
572.840064128002
 50
0.0
 51
0.0
 72
   100
 90
    32768
  1

281
     0
 71
     1
 74
     0
110
0.0
120
0.0
130
0.0
111
1.0
121
0.0
131
0.0
112
0.0
122
1.0
132
0.0
 79
     0
146
0.0
  0
VIEWPORT
  5
64
330
17
100
AcDbEntity
 67
     1
  8
VIEWPORT
100
AcDbViewport
 10
210.0
 20
148.5
 30
0.0
 40
420.0
 41
297.0
 68
     1
 69
     2
 12
420.0
 22
297.0
 13
0.0
 23
0.0
 14
10.0
 24
10.0
 15
0.0
 25
0.0
 16
0.0
 26
0.0
 36
1.0
 17
0.0
 27
0.0
 37
0.0
 42
50.0
 43
0.0
 44
0.0
 45
605.8799999999999
 50
0.0
 51
0.0
 72
   100
 90
    32768
  1

281
     0
 71
     1
 74
     0
110
0.0
120
0.0
130
0.0
111
1.0
121
0.0
131
0.0
112
0.0
122
1.0
132
0.0
 79
     0
146
0.0
  0
ENDSEC
  0
SECTION
  2
OBJECTS
  0
DICTIONARY
  5
C
330
0
100
AcDbDictionary
281
     1
  3
ACAD_GROUP
350
D
  3
ACAD_LAYOUT
350
A98
  3
ACAD_MLINESTYLE
350
E
  3
ACAD_PLOTSETTINGS
350
A99
  3
ACAD_PLOTSTYLENAME
350
A96
  0
DICTIONARY
  5
D
102
{ACAD_REACTORS
330
C
102
}
330
C
100
AcDbDictionary
281
     1
  3
*A1
350
FA3
  3
*A2
350
1597
  3
*A3
350
179D
  3
*A4
350
3390
  3
*A5
350
3A0A
  0
DICTIONARY
  5
A98
102
{ACAD_REACTORS
330
C
102
}
330
C
100
AcDbDictionary
281
     1
  3
Model
350
A9A
  3
ﾚｲｱｳﾄ1
350
A9B
  0
DICTIONARY
  5
E
102
{ACAD_REACTORS
330
C
102
}
330
C
100
AcDbDictionary
281
     1
  3
STANDARD
350
13
  0
DICTIONARY
  5
A99
102
{ACAD_REACTORS
330
C
102
}
330
C
100
AcDbDictionary
281
     1
  0
ACDBDICTIONARYWDFLT
  5
A96
102
{ACAD_REACTORS
330
C
102
}
330
C
100
AcDbDictionary
281
     1
  3
Normal
350
A97
100
AcDbDictionaryWithDefault
340
A97
1001
ACAD
1000
TREAT_AS_HARD
1070
     0
1000
TREAT_AS_HARD
1070
     0
1000
TREAT_AS_HARD
1070
     0
1000
TREAT_AS_HARD
1070
     0
  0
GROUP
  5
FA3
102
{ACAD_REACTORS
330
D
102
}
330
D
100
AcDbGroup
300

 70
     1
 71
     1
  0
GROUP
  5
1597
102
{ACAD_REACTORS
330
D
102
}
330
D
100
AcDbGroup
300

 70
     1
 71
     1
  0
GROUP
  5
179D
102
{ACAD_REACTORS
330
D
102
}
330
D
100
AcDbGroup
300

 70
     1
 71
     1
  0
GROUP
  5
3390
102
{ACAD_REACTORS
330
D
102
}
330
D
100
AcDbGroup
300

 70
     1
 71
     1
  0
GROUP
  5
3A0A
102
{ACAD_REACTORS
330
D
102
}
330
D
100
AcDbGroup
300

 70
     1
 71
     1
  0
LAYOUT
  5
A9A
102
{ACAD_REACTORS
330
A98
102
}
330
A98
100
AcDbPlotSettings
  1

  2
Adobe PDF
  4
A3
  6

 40
3.174999952316284
 41
3.174999952316284
 42
3.17498779296875
 43
3.17498779296875
 44
297.0318298339844
 45
420.1583251953125
 46
2.67
 47
2.85
 48
-8.09872987394283
 49
-9.441603207410708
140
808.114529312747
141
561.2334822198422
142
1.0
143
2.0
 70
 28340
 72
     1
 73
     1
 74
     4
  7
systemprinter.ctb
 75
    17
147
0.5
148
8.09872987394283
149
9.441603207410708
100
AcDbLayout
  1
Model
 70
     1
 71
     0
 10
0.0
 20
0.0
 11
12.0
 21
9.0
 12
0.0
 22
0.0
 32
0.0
 14
0.0
 24
0.0
 34
0.0
 15
0.0
 25
0.0
 35
0.0
146
0.0
 13
0.0
 23
0.0
 33
0.0
 16
1.0
 26
0.0
 36
0.0
 17
0.0
 27
1.0
 37
0.0
 76
     0
330
1A
  0
LAYOUT
  5
A9B
102
{ACAD_REACTORS
330
A98
102
}
330
A98
100
AcDbPlotSettings
  1

  2
C:\PROGRAM FILES\ACAD LT 2000\plotters\DWF ePlot.pc3
  4
ANSI_A_(8.50_x_11.00_Inches)
  6

 40
5.793749809265137
 41
17.79375076293945
 42
5.793746948242188
 43
17.79376220703125
 44
215.8999938964844
 45
279.3999938964844
 46
0.0
 47
0.0
 48
0.0
 49
0.0
140
0.0
141
0.0
142
1.0
143
43.75760864458461
 70
   688
 72
     0
 73
     1
 74
     1
  7
systemprinter.ctb
 75
     0
147
0.0228531684197454
148
0.3255366854427166
149
0.2302009418498301
100
AcDbLayout
  1
ﾚｲｱｳﾄ1
 70
     1
 71
     1
 10
-30.66685116754002
 20
-9.990190459854741
 11
450.6668334081172
 21
361.9494725043409
 12
0.0
 22
0.0
 32
0.0
 14
-0.0128164049386896
 24
-0.0090630292066862
 34
-0.0015258207003583
 15
420.0128183607162
 25
297.0090644122207
 35
0.0000000349246037
146
0.0
 13
0.0
 23
0.0
 33
0.0
 16
1.0
 26
0.0
 36
0.0
 17
0.0
 27
1.0
 37
0.0
 76
     0
330
17
331
64
  0
MLINESTYLE
  5
13
102
{ACAD_REACTORS
330
E
102
}
330
E
100
AcDbMlineStyle
  2
STANDARD
 70
     0
  3

 62
     0
 51
90.0
 52
90.0
 71
     2
 49
0.5
 62
   256
  6
BYLAYER
 49
-0.5
 62
   256
  6
BYLAYER
  0
ACDBPLACEHOLDER
  5
A97
102
{ACAD_REACTORS
330
A96
102
}
330
A96
  0
ENDSEC
  0
EOF
