  0
SECTION
  2
HEADER
  9
$ACADVER
  1
AC1015
  9
$ACADMAINTVER
 70
     6
  9
$DWGCODEPAGE
  3
ANSI_932
  9
$INSBASE
 10
0.0
 20
0.0
 30
0.0
  9
$EXTMIN
 10
0.0000000135560185
 20
-0.0000001317113174
 30
0.0
  9
$EXTMAX
 10
797.6000000135562
 20
551.5999998682888
 30
0.0
  9
$LIMMIN
 10
0.0
 20
0.0
  9
$LIMMAX
 10
840.0
 20
594.0
  9
$ORTHOMODE
 70
     0
  9
$REGENMODE
 70
     1
  9
$FILLMODE
 70
     1
  9
$QTEXTMODE
 70
     0
  9
$MIRRTEXT
 70
     1
  9
$LTSCALE
 40
2.0
  9
$ATTMODE
 70
     1
  9
$TEXTSIZE
 40
6.0
  9
$TRACEWID
 40
1.0
  9
$TEXTSTYLE
  7
STANDARD
  9
$CLAYER
  8
SEIHIN
  9
$CELTYPE
  6
BYLAYER
  9
$CECOLOR
 62
   256
  9
$CELTSCALE
 40
1.0
  9
$DISPSILH
 70
     0
  9
$DIMSCALE
 40
1.0
  9
$DIMASZ
 40
7.0
  9
$DIMEXO
 40
6.0
  9
$DIMDLI
 40
14.0
  9
$DIMRND
 40
0.0
  9
$DIMDLE
 40
0.0
  9
$DIMEXE
 40
3.0
  9
$DIMTP
 40
0.0
  9
$DIMTM
 40
0.0
  9
$DIMTXT
 40
6.0
  9
$DIMCEN
 40
150.0
  9
$DIMTSZ
 40
0.0
  9
$DIMTOL
 70
     0
  9
$DIMLIM
 70
     0
  9
$DIMTIH
 70
     0
  9
$DIMTOH
 70
     0
  9
$DIMSE1
 70
     0
  9
$DIMSE2
 70
     0
  9
$DIMTAD
 70
     3
  9
$DIMZIN
 70
     0
  9
$DIMBLK
  1

  9
$DIMASO
 70
     1
  9
$DIMSHO
 70
     1
  9
$DIMPOST
  1

  9
$DIMAPOST
  1

  9
$DIMALT
 70
     0
  9
$DIMALTD
 70
     2
  9
$DIMALTF
 40
25.4
  9
$DIMLFAC
 40
1.0
  9
$DIMTOFL
 70
     1
  9
$DIMTVP
 40
0.0
  9
$DIMTIX
 70
     0
  9
$DIMSOXD
 70
     0
  9
$DIMSAH
 70
     1
  9
$DIMBLK1
  1
OPEN
  9
$DIMBLK2
  1
OPEN
  9
$DIMSTYLE
  2
STANDARD
  9
$DIMCLRD
 70
   256
  9
$DIMCLRE
 70
   256
  9
$DIMCLRT
 70
   256
  9
$DIMTFAC
 40
1.0
  9
$DIMGAP
 40
2.0
  9
$DIMJUST
 70
     0
  9
$DIMSD1
 70
     0
  9
$DIMSD2
 70
     0
  9
$DIMTOLJ
 70
     1
  9
$DIMTZIN
 70
     0
  9
$DIMALTZ
 70
     0
  9
$DIMALTTZ
 70
     0
  9
$DIMUPT
 70
     0
  9
$DIMDEC
 70
     0
  9
$DIMTDEC
 70
     0
  9
$DIMALTU
 70
     2
  9
$DIMALTTD
 70
     2
  9
$DIMTXSTY
  7
STANDARD
  9
$DIMAUNIT
 70
     0
  9
$DIMADEC
 70
     0
  9
$DIMALTRND
 40
0.0
  9
$DIMAZIN
 70
     0
  9
$DIMDSEP
 70
    46
  9
$DIMATFIT
 70
     3
  9
$DIMFRAC
 70
     0
  9
$DIMLDRBLK
  1
OPEN
  9
$DIMLUNIT
 70
     2
  9
$DIMLWD
 70
    -1
  9
$DIMLWE
 70
    -1
  9
$DIMTMOVE
 70
     0
  9
$LUNITS
 70
     2
  9
$LUPREC
 70
     4
  9
$SKETCHINC
 40
1.0
  9
$FILLETRAD
 40
10.0
  9
$AUNITS
 70
     0
  9
$AUPREC
 70
     0
  9
$MENU
  1
.
  9
$ELEVATION
 40
0.0
  9
$PELEVATION
 40
0.0
  9
$THICKNESS
 40
0.0
  9
$LIMCHECK
 70
     0
  9
$CHAMFERA
 40
0.0
  9
$CHAMFERB
 40
0.0
  9
$CHAMFERC
 40
40.0
  9
$CHAMFERD
 40
0.0
  9
$SKPOLY
 70
     0
  9
$TDCREATE
 40
2451030.614786227
  9
$TDUCREATE
 40
2451030.239786227
  9
$TDUPDATE
 40
2455609.406793484
  9
$TDUUPDATE
 40
2455609.031793484
  9
$TDINDWG
 40
0.343311875
  9
$TDUSRTIMER
 40
0.343311875
  9
$USRTIMER
 70
     1
  9
$ANGBASE
 50
0.0
  9
$ANGDIR
 70
     0
  9
$PDMODE
 70
     0
  9
$PDSIZE
 40
0.0
  9
$PLINEWID
 40
0.0
  9
$SPLFRAME
 70
     0
  9
$SPLINETYPE
 70
     6
  9
$SPLINESEGS
 70
     8
  9
$HANDSEED
  5
8F28
  9
$SURFTAB1
 70
     6
  9
$SURFTAB2
 70
     6
  9
$SURFTYPE
 70
     6
  9
$SURFU
 70
     6
  9
$SURFV
 70
     6
  9
$UCSBASE
  2

  9
$UCSNAME
  2

  9
$UCSORG
 10
0.0
 20
0.0
 30
0.0
  9
$UCSXDIR
 10
1.0
 20
0.0
 30
0.0
  9
$UCSYDIR
 10
0.0
 20
1.0
 30
0.0
  9
$UCSORTHOREF
  2

  9
$UCSORTHOVIEW
 70
     0
  9
$UCSORGTOP
 10
0.0
 20
0.0
 30
0.0
  9
$UCSORGBOTTOM
 10
0.0
 20
0.0
 30
0.0
  9
$UCSORGLEFT
 10
0.0
 20
0.0
 30
0.0
  9
$UCSORGRIGHT
 10
0.0
 20
0.0
 30
0.0
  9
$UCSORGFRONT
 10
0.0
 20
0.0
 30
0.0
  9
$UCSORGBACK
 10
0.0
 20
0.0
 30
0.0
  9
$PUCSBASE
  2

  9
$PUCSNAME
  2

  9
$PUCSORG
 10
0.0
 20
0.0
 30
0.0
  9
$PUCSXDIR
 10
1.0
 20
0.0
 30
0.0
  9
$PUCSYDIR
 10
0.0
 20
1.0
 30
0.0
  9
$PUCSORTHOREF
  2

  9
$PUCSORTHOVIEW
 70
     0
  9
$PUCSORGTOP
 10
0.0
 20
0.0
 30
0.0
  9
$PUCSORGBOTTOM
 10
0.0
 20
0.0
 30
0.0
  9
$PUCSORGLEFT
 10
0.0
 20
0.0
 30
0.0
  9
$PUCSORGRIGHT
 10
0.0
 20
0.0
 30
0.0
  9
$PUCSORGFRONT
 10
0.0
 20
0.0
 30
0.0
  9
$PUCSORGBACK
 10
0.0
 20
0.0
 30
0.0
  9
$USERI1
 70
     0
  9
$USERI2
 70
     0
  9
$USERI3
 70
     0
  9
$USERI4
 70
     0
  9
$USERI5
 70
     0
  9
$USERR1
 40
0.0
  9
$USERR2
 40
0.0
  9
$USERR3
 40
0.0
  9
$USERR4
 40
0.0
  9
$USERR5
 40
0.0
  9
$WORLDVIEW
 70
     1
  9
$SHADEDGE
 70
     3
  9
$SHADEDIF
 70
    70
  9
$TILEMODE
 70
     1
  9
$MAXACTVP
 70
    16
  9
$PINSBASE
 10
0.0
 20
0.0
 30
0.0
  9
$PLIMCHECK
 70
     0
  9
$PEXTMIN
 10
-0.0128164049386896
 20
-0.0090630292066862
 30
-0.0015258207003583
  9
$PEXTMAX
 10
420.0128183607162
 20
297.0090644122207
 30
0.0000000349246037
  9
$PLIMMIN
 10
-30.66685116754002
 20
-9.990190459854741
  9
$PLIMMAX
 10
450.6668334081172
 20
361.9494725043409
  9
$UNITMODE
 70
     0
  9
$VISRETAIN
 70
     0
  9
$PLINEGEN
 70
     0
  9
$PSLTSCALE
 70
     1
  9
$TREEDEPTH
 70
  3020
  9
$CMLSTYLE
  2
STANDARD
  9
$CMLJUST
 70
     0
  9
$CMLSCALE
 40
1.0
  9
$PROXYGRAPHICS
 70
     1
  9
$MEASUREMENT
 70
     0
  9
$CELWEIGHT
370
    -1
  9
$ENDCAPS
280
     0
  9
$JOINSTYLE
280
     0
  9
$LWDISPLAY
290
     0
  9
$INSUNITS
 70
     0
  9
$HYPERLINKBASE
  1

  9
$STYLESHEET
  1
systemprinter.ctb
  9
$XEDIT
290
     1
  9
$CEPSNTYPE
380
     0
  9
$PSTYLEMODE
290
     1
  9
$FINGERPRINTGUID
  2
{91E25F26-0CBF-4C93-982E-B5F00895E654}
  9
$VERSIONGUID
  2
{341C7C6D-8757-4387-BD16-B69ECA911143}
  9
$EXTNAMES
290
     1
  9
$PSVPSCALE
 40
0.0
  9
$OLESTARTUP
290
     0
  0
ENDSEC
  0
SECTION
  2
CLASSES
  0
CLASS
  1
ACDBDICTIONARYWDFLT
  2
AcDbDictionaryWithDefault
  3
ObjectDBX Classes
 90
        0
280
     0
281
     0
  0
CLASS
  1
ACDBPLACEHOLDER
  2
AcDbPlaceHolder
  3
ObjectDBX Classes
 90
        0
280
     0
281
     0
  0
CLASS
  1
LAYOUT
  2
AcDbLayout
  3
ObjectDBX Classes
 90
        0
280
     0
281
     0
  0
CLASS
  1
DUMMY
  2
AcDbLongTransaction
  3
DUMMY
 90
        0
280
     0
281
     0
  0
CLASS
  1
LWPOLYLINE
  2
AcDbPolyline
  3
AutoCAD 2000
 90
        0
280
     0
281
     1
  0
CLASS
  1
HATCH
  2
AcDbHatch
  3
AutoCAD 2000
 90
        0
280
     0
281
     1
  0
CLASS
  1
XRECORD
  2
AcDbXrecord
  3
AutoCAD 2000
 90
        0
280
     0
281
     0
  0
CLASS
  1
DUMMY
  2
AcDbLongTransaction
  3
DUMMY
 90
        0
280
     0
281
     0
  0
CLASS
  1
LWPOLYLINE
  2
AcDbPolyline
  3
AutoCAD 2000
 90
        0
280
     0
281
     1
  0
CLASS
  1
HATCH
  2
AcDbHatch
  3
AutoCAD 2000
 90
        0
280
     0
281
     1
  0
CLASS
  1
XRECORD
  2
AcDbXrecord
  3
AutoCAD 2000
 90
        0
280
     0
281
     0
  0
CLASS
  1
DUMMY
  2
AcDbLongTransaction
  3
DUMMY
 90
        0
280
     0
281
     0
  0
CLASS
  1
LWPOLYLINE
  2
AcDbPolyline
  3
AutoCAD 2000
 90
        0
280
     0
281
     1
  0
CLASS
  1
HATCH
  2
AcDbHatch
  3
AutoCAD 2000
 90
        0
280
     0
281
     1
  0
CLASS
  1
XRECORD
  2
AcDbXrecord
  3
AutoCAD 2000
 90
        0
280
     0
281
     0
  0
CLASS
  1
DUMMY
  2
AcDbLongTransaction
  3
DUMMY
 90
        0
280
     0
281
     0
  0
CLASS
  1
LWPOLYLINE
  2
AcDbPolyline
  3
AutoCAD 2000
 90
        0
280
     0
281
     1
  0
CLASS
  1
HATCH
  2
AcDbHatch
  3
AutoCAD 2000
 90
        0
280
     0
281
     1
  0
CLASS
  1
XRECORD
  2
AcDbXrecord
  3
AutoCAD 2000
 90
        0
280
     0
281
     0
  0
CLASS
  1
DUMMY
  2
AcDbLongTransaction
  3
DUMMY
 90
        0
280
     0
281
     0
  0
CLASS
  1
LWPOLYLINE
  2
AcDbPolyline
  3
AutoCAD 2000
 90
        0
280
     0
281
     1
  0
CLASS
  1
HATCH
  2
AcDbHatch
  3
AutoCAD 2000
 90
        0
280
     0
281
     1
  0
CLASS
  1
XRECORD
  2
AcDbXrecord
  3
AutoCAD 2000
 90
        0
280
     0
281
     0
  0
ENDSEC
  0
SECTION
  2
TABLES
  0
TABLE
  2
VPORT
  5
8
330
0
100
AcDbSymbolTable
 70
     2
  0
VPORT
  5
8F27
330
8
100
AcDbSymbolTableRecord
100
AcDbViewportTableRecord
  2
*Active
 70
     0
 10
0.0
 20
0.0
 11
1.0
 21
1.0
 12
397.8978143601196
 22
297.4860041034436
 13
0.0
 23
0.0
 14
5.0
 24
5.0
 15
0.0
 25
0.0
 16
0.0
 26
0.0
 36
1.0
 17
0.0
 27
0.0
 37
0.0
 40
700.8685923628697
 41
1.651537335285505
 42
50.0
 43
0.0
 44
0.0
 50
0.0
 51
0.0
 71
     0
 72
   100
 73
     1
 74
     0
 75
     0
 76
     0
 77
     0
 78
     0
281
     0
 65
     1
110
0.0
120
0.0
130
0.0
111
1.0
121
0.0
131
0.0
112
0.0
122
1.0
132
0.0
 79
     0
146
0.0
  0
ENDTAB
  0
TABLE
  2
LTYPE
  5
5
330
0
100
AcDbSymbolTable
 70
     3
  0
LTYPE
  5
14
330
5
100
AcDbSymbolTableRecord
100
AcDbLinetypeTableRecord
  2
BYBLOCK
 70
     0
  3

 72
    65
 73
     0
 40
0.0
  0
LTYPE
  5
15
330
5
100
AcDbSymbolTableRecord
100
AcDbLinetypeTableRecord
  2
BYLAYER
 70
     0
  3

 72
    65
 73
     0
 40
0.0
  0
LTYPE
  5
16
330
5
100
AcDbSymbolTableRecord
100
AcDbLinetypeTableRecord
  2
CONTINUOUS
 70
     0
  3
Solid line
 72
    65
 73
     0
 40
0.0
  0
LTYPE
  5
135
330
5
100
AcDbSymbolTableRecord
100
AcDbLinetypeTableRecord
  2
CENTER
 70
     0
  3
____ _ ____ _ ____ _ ____ _ ____ _ ____ _ ____ 
 72
    65
 73
     4
 40
2.0
 49
1.25
 74
     0
 49
-0.25
 74
     0
 49
0.25
 74
     0
 49
-0.25
 74
     0
  0
LTYPE
  5
8279
330
5
100
AcDbSymbolTableRecord
100
AcDbLinetypeTableRecord
  2
PHANTOM
 70
     0
  3
______  __  __  ______  __  __  ______  __  __ 
 72
    65
 73
     6
 40
2.5
 49
1.25
 74
     0
 49
-0.25
 74
     0
 49
0.25
 74
     0
 49
-0.25
 74
     0
 49
0.25
 74
     0
 49
-0.25
 74
     0
  0
ENDTAB
  0
TABLE
  2
LAYER
  5
2
330
0
100
AcDbSymbolTable
 70
     8
  0
LAYER
  5
F
330
2
100
AcDbSymbolTableRecord
100
AcDbLayerTableRecord
  2
0
 70
     0
 62
     7
  6
CONTINUOUS
370
    -3
390
A97
  0
LAYER
  5
62
330
2
100
AcDbSymbolTableRecord
100
AcDbLayerTableRecord
  2
VIEWPORT
 70
     0
 62
     7
  6
CONTINUOUS
370
    -3
390
A97
  0
LAYER
  5
143
330
2
100
AcDbSymbolTableRecord
100
AcDbLayerTableRecord
  2
SEIHIN
 70
     0
 62
     3
  6
CONTINUOUS
370
    -3
390
A97
  0
LAYER
  5
444
330
2
100
AcDbSymbolTableRecord
100
AcDbLayerTableRecord
  2
DEFPOINTS
 70
     0
 62
     7
  6
CONTINUOUS
290
     0
370
    -3
390
A97
  0
LAYER
  5
482
330
2
100
AcDbSymbolTableRecord
100
AcDbLayerTableRecord
  2
SUNPOU
 70
     0
 62
     4
  6
CONTINUOUS
370
    -3
390
A97
  0
LAYER
  5
5D4
330
2
100
AcDbSymbolTableRecord
100
AcDbLayerTableRecord
  2
CENTER L
 70
     0
 62
     1
  6
CENTER
370
    -3
390
A97
  0
LAYER
  5
3D95
330
2
100
AcDbSymbolTableRecord
100
AcDbLayerTableRecord
  2
ZUWAKU
 70
     0
 62
     7
  6
CONTINUOUS
370
    -3
390
A97
  0
LAYER
  5
3D96
330
2
100
AcDbSymbolTableRecord
100
AcDbLayerTableRecord
  2
moji
 70
     0
 62
     2
  6
CONTINUOUS
370
    -3
390
A97
  0
ENDTAB
  0
TABLE
  2
STYLE
  5
3
330
0
100
AcDbSymbolTable
 70
     2
  0
STYLE
  5
10
330
3
100
AcDbSymbolTableRecord
100
AcDbTextStyleTableRecord
  2
STANDARD
 70
     0
 40
0.0
 41
1.0
 50
0.0
 71
     0
 42
6.0
  3
TXT
  4
bigfont.shx
  0
STYLE
  5
3D97
330
3
100
AcDbSymbolTableRecord
100
AcDbTextStyleTableRecord
  2
ｽﾀｲﾙ1
 70
     0
 40
0.0
 41
1.0
 50
0.0
 71
     0
 42
2.5
  3
MS PGothic.ttf
  4

1001
ACAD
1000
MS PGothic
1071
    32818
  0
ENDTAB
  0
TABLE
  2
VIEW
  5
6
330
0
100
AcDbSymbolTable
 70
     0
  0
ENDTAB
  0
TABLE
  2
UCS
  5
7
330
0
100
AcDbSymbolTable
 70
     0
  0
ENDTAB
  0
TABLE
  2
APPID
  5
9
330
0
100
AcDbSymbolTable
 70
     1
  0
APPID
  5
11
330
9
100
AcDbSymbolTableRecord
100
AcDbRegAppTableRecord
  2
ACAD
 70
     0
  0
ENDTAB
  0
TABLE
  2
DIMSTYLE
  5
A
330
0
100
AcDbSymbolTable
 70
     1
100
AcDbDimStyleTable
  0
DIMSTYLE
105
1D
102
{ACAD_REACTORS
330
8C16
330
8C1A
330
8C1B
330
8C23
330
8C2B
330
8C51
330
8C66
330
8C78
330
8C79
330
8C7B
330
8C81
330
8C88
330
8CE7
330
8CE8
330
8CEC
330
8CED
330
8CF3
102
}
330
A
100
AcDbSymbolTableRecord
100
AcDbDimStyleTableRecord
  2
STANDARD
 70
     0
340
10
  0
ENDTAB
  0
TABLE
  2
BLOCK_RECORD
  5
1
330
0
100
AcDbSymbolTable
 70
    18
  0
BLOCK_RECORD
  5
1A
330
1
100
AcDbSymbolTableRecord
100
AcDbBlockTableRecord
  2
*MODEL_SPACE
340
A9A
  0
BLOCK_RECORD
  5
17
330
1
100
AcDbSymbolTableRecord
100
AcDbBlockTableRecord
  2
*PAPER_SPACE
340
A9B
  0
BLOCK_RECORD
  5
6D
330
1
100
AcDbSymbolTableRecord
100
AcDbBlockTableRecord
  2
_OPEN
340
0
102
{BLKREFS
331
8E97
331
8E98
331
8E8E
331
8E8F
331
8E85
331
8E86
331
8EA0
331
8EA1
331
8EA9
331
8EAA
331
8EB4
331
8EB5
331
8EBD
331
8EBE
331
8EDA
331
8EDB
331
8ECF
331
8ED0
331
8EC6
331
8EC7
331
8EE3
331
8EE4
331
8EEC
331
8EED
331
8EF5
331
8EF6
331
8F09
331
8F0A
331
8F00
331
8F01
331
8F12
331
8F13
331
8F1B
331
8F1C
102
}
  0
BLOCK_RECORD
  5
8D11
330
1
100
AcDbSymbolTableRecord
100
AcDbBlockTableRecord
  2
*D1
340
0
  0
BLOCK_RECORD
  5
8D1D
330
1
100
AcDbSymbolTableRecord
100
AcDbBlockTableRecord
  2
*D2
340
0
  0
BLOCK_RECORD
  5
8D29
330
1
100
AcDbSymbolTableRecord
100
AcDbBlockTableRecord
  2
*D3
340
0
  0
BLOCK_RECORD
  5
8D35
330
1
100
AcDbSymbolTableRecord
100
AcDbBlockTableRecord
  2
*D4
340
0
  0
BLOCK_RECORD
  5
8D41
330
1
100
AcDbSymbolTableRecord
100
AcDbBlockTableRecord
  2
*D5
340
0
  0
BLOCK_RECORD
  5
8D4D
330
1
100
AcDbSymbolTableRecord
100
AcDbBlockTableRecord
  2
*D6
340
0
  0
BLOCK_RECORD
  5
8D5B
330
1
100
AcDbSymbolTableRecord
100
AcDbBlockTableRecord
  2
*D7
340
0
  0
BLOCK_RECORD
  5
8D67
330
1
100
AcDbSymbolTableRecord
100
AcDbBlockTableRecord
  2
*D8
340
0
  0
BLOCK_RECORD
  5
8D75
330
1
100
AcDbSymbolTableRecord
100
AcDbBlockTableRecord
  2
*D9
340
0
  0
BLOCK_RECORD
  5
8D81
330
1
100
AcDbSymbolTableRecord
100
AcDbBlockTableRecord
  2
*D10
340
0
  0
BLOCK_RECORD
  5
8D8D
330
1
100
AcDbSymbolTableRecord
100
AcDbBlockTableRecord
  2
*D11
340
0
  0
BLOCK_RECORD
  5
8D99
330
1
100
AcDbSymbolTableRecord
100
AcDbBlockTableRecord
  2
*D12
340
0
  0
BLOCK_RECORD
  5
8DA5
330
1
100
AcDbSymbolTableRecord
100
AcDbBlockTableRecord
  2
*D13
340
0
  0
BLOCK_RECORD
  5
8DB1
330
1
100
AcDbSymbolTableRecord
100
AcDbBlockTableRecord
  2
*D14
340
0
  0
BLOCK_RECORD
  5
8DBD
330
1
100
AcDbSymbolTableRecord
100
AcDbBlockTableRecord
  2
*D15
340
0
  0
BLOCK_RECORD
  5
8DCB
330
1
100
AcDbSymbolTableRecord
100
AcDbBlockTableRecord
  2
*D16
340
0
  0
BLOCK_RECORD
  5
8DD7
330
1
100
AcDbSymbolTableRecord
100
AcDbBlockTableRecord
  2
*D17
340
0
  0
ENDTAB
  0
ENDSEC
  0
SECTION
  2
BLOCKS
  0
BLOCK
  5
1B
330
1A
100
AcDbEntity
  8
0
100
AcDbBlockBegin
  2
*MODEL_SPACE
 70
     0
 71
     0
 10
0.0
 20
0.0
 30
0.0
  3
*MODEL_SPACE
  1

  0
ENDBLK
  5
1C
330
1A
100
AcDbEntity
  8
0
100
AcDbBlockEnd
  0
BLOCK
  5
18
330
17
100
AcDbEntity
 67
     1
  8
0
100
AcDbBlockBegin
  2
*PAPER_SPACE
 70
     0
 71
     0
 10
0.0
 20
0.0
 30
0.0
  3
*PAPER_SPACE
  1

  0
ENDBLK
  5
19
330
17
100
AcDbEntity
 67
     1
  8
0
100
AcDbBlockEnd
  0
BLOCK
  5
6E
330
6D
100
AcDbEntity
  8
0
100
AcDbBlockBegin
  2
_OPEN
 70
     0
 71
     0
 10
0.0
 20
0.0
 30
0.0
  3
_OPEN
  1

  0
LINE
  5
6F
330
6D
100
AcDbEntity
  8
0
  6
ByBlock
 62
     0
100
AcDbLine
 10
-1.0
 20
0.1666666666666667
 30
0.0
 11
0.0
 21
0.0
 31
0.0
  0
LINE
  5
70
330
6D
100
AcDbEntity
  8
0
  6
ByBlock
 62
     0
100
AcDbLine
 10
0.0
 20
0.0
 30
0.0
 11
-1.0
 21
-0.1666666666666667
 31
0.0
  0
LINE
  5
71
330
6D
100
AcDbEntity
  8
0
  6
ByBlock
 62
     0
100
AcDbLine
 10
0.0
 20
0.0
 30
0.0
 11
-1.0
 21
0.0
 31
0.0
  0
ENDBLK
  5
72
330
6D
100
AcDbEntity
  8
0
100
AcDbBlockEnd
  0
BLOCK
  5
8D1B
330
8D11
100
AcDbEntity
  8
0
100
AcDbBlockBegin
  2
*D1
 70
     1
 71
     0
 10
0.0
 20
0.0
 30
0.0
  3
*D1
  1

  0
LINE
  5
8E94
330
8D11
100
AcDbEntity
  8
SUNPOU
 62
     4
370
    -2
100
AcDbLine
 10
341.1294297895999
 20
88.88561759579795
 30
0.0
 11
341.1294297895999
 21
53.69233558143299
 31
0.0
  0
LINE
  5
8E95
330
8D11
100
AcDbEntity
  8
SUNPOU
 62
     4
370
    -2
100
AcDbLine
 10
434.7660496462392
 20
88.88561759579795
 30
0.0
 11
434.7660496462392
 21
53.69233558143299
 31
0.0
  0
LINE
  5
8E96
330
8D11
100
AcDbEntity
  8
SUNPOU
 62
     4
370
    -2
100
AcDbLine
 10
348.1294297895999
 20
56.69233558143299
 30
0.0
 11
427.7660496462392
 21
56.69233558143299
 31
0.0
  0
INSERT
  5
8E97
330
8D11
100
AcDbEntity
  8
SUNPOU
 62
     4
370
    -2
100
AcDbBlockReference
  2
_OPEN
 10
341.1294297895999
 20
56.69233558143299
 30
0.0
 41
7.0
 42
7.0
 43
7.0
 50
180.0
  0
INSERT
  5
8E98
330
8D11
100
AcDbEntity
  8
SUNPOU
 62
     4
370
    -2
100
AcDbBlockReference
  2
_OPEN
 10
434.7660496462392
 20
56.69233558143299
 30
0.0
 41
7.0
 42
7.0
 43
7.0
  0
MTEXT
  5
8E99
330
8D11
100
AcDbEntity
  8
SUNPOU
 62
     4
100
AcDbMText
 10
387.9477397179196
 20
61.69233558143299
 30
0.0
 40
6.0
 41
0.0
 71
     5
 72
     1
  1
\A1;94
 73
     1
 44
1.0
  0
POINT
  5
8E9A
330
8D11
100
AcDbEntity
  8
DEFPOINTS
 62
     0
100
AcDbPoint
 10
341.1294297895999
 20
94.88561759579795
 30
0.0
  0
POINT
  5
8E9B
330
8D11
100
AcDbEntity
  8
DEFPOINTS
 62
     0
100
AcDbPoint
 10
434.7660496462392
 20
94.88561759579795
 30
0.0
  0
POINT
  5
8E9C
330
8D11
100
AcDbEntity
  8
DEFPOINTS
 62
     0
100
AcDbPoint
 10
434.7660496462392
 20
56.69233558143299
 30
0.0
  0
ENDBLK
  5
8D1C
330
8D11
100
AcDbEntity
  8
0
100
AcDbBlockEnd
  0
BLOCK
  5
8D27
330
8D1D
100
AcDbEntity
  8
0
100
AcDbBlockBegin
  2
*D2
 70
     1
 71
     0
 10
0.0
 20
0.0
 30
0.0
  3
*D2
  1

  0
LINE
  5
8E8B
330
8D1D
100
AcDbEntity
  8
SUNPOU
 62
     4
370
    -2
100
AcDbLine
 10
307.5300036190604
 20
182.4418175957981
 30
0.0
 11
307.5300036190604
 21
207.6550306033872
 31
0.0
  0
LINE
  5
8E8C
330
8D1D
100
AcDbEntity
  8
SUNPOU
 62
     4
370
    -2
100
AcDbLine
 10
446.7481536190603
 20
201.392317595798
 30
0.0
 11
446.7481536190603
 21
207.6550306033872
 31
0.0
  0
LINE
  5
8E8D
330
8D1D
100
AcDbEntity
  8
SUNPOU
 62
     4
370
    -2
100
AcDbLine
 10
314.5300036190604
 20
204.6550306033872
 30
0.0
 11
439.7481536190603
 21
204.6550306033872
 31
0.0
  0
INSERT
  5
8E8E
330
8D1D
100
AcDbEntity
  8
SUNPOU
 62
     4
370
    -2
100
AcDbBlockReference
  2
_OPEN
 10
307.5300036190604
 20
204.6550306033872
 30
0.0
 41
7.0
 42
7.0
 43
7.0
 50
180.0
  0
INSERT
  5
8E8F
330
8D1D
100
AcDbEntity
  8
SUNPOU
 62
     4
370
    -2
100
AcDbBlockReference
  2
_OPEN
 10
446.7481536190603
 20
204.6550306033872
 30
0.0
 41
7.0
 42
7.0
 43
7.0
  0
MTEXT
  5
8E90
330
8D1D
100
AcDbEntity
  8
SUNPOU
 62
     4
100
AcDbMText
 10
377.1390786190603
 20
209.6550306033872
 30
0.0
 40
6.0
 41
0.0
 71
     5
 72
     1
  1
\A1;139
 73
     1
 44
1.0
  0
POINT
  5
8E91
330
8D1D
100
AcDbEntity
  8
DEFPOINTS
 62
     0
100
AcDbPoint
 10
307.5300036190604
 20
176.4418175957981
 30
0.0
  0
POINT
  5
8E92
330
8D1D
100
AcDbEntity
  8
DEFPOINTS
 62
     0
100
AcDbPoint
 10
446.7481536190603
 20
195.392317595798
 30
0.0
  0
POINT
  5
8E93
330
8D1D
100
AcDbEntity
  8
DEFPOINTS
 62
     0
100
AcDbPoint
 10
446.7481536190603
 20
204.6550306033872
 30
0.0
  0
ENDBLK
  5
8D28
330
8D1D
100
AcDbEntity
  8
0
100
AcDbBlockEnd
  0
BLOCK
  5
8D33
330
8D29
100
AcDbEntity
  8
0
100
AcDbBlockBegin
  2
*D3
 70
     1
 71
     0
 10
0.0
 20
0.0
 30
0.0
  3
*D3
  1

  0
LINE
  5
8E82
330
8D29
100
AcDbEntity
  8
SUNPOU
 62
     4
370
    -2
100
AcDbLine
 10
602.4999036190603
 20
468.5956970773613
 30
0.0
 11
602.4999036190603
 21
442.7793685860446
 31
0.0
  0
LINE
  5
8E83
330
8D29
100
AcDbEntity
  8
SUNPOU
 62
     4
370
    -2
100
AcDbLine
 10
307.5101036190604
 20
468.5956970773613
 30
0.0
 11
307.5101036190604
 21
442.7793685860446
 31
0.0
  0
LINE
  5
8E84
330
8D29
100
AcDbEntity
  8
SUNPOU
 62
     4
370
    -2
100
AcDbLine
 10
595.4999036190603
 20
445.7793685860446
 30
0.0
 11
314.5101036190604
 21
445.7793685860446
 31
0.0
  0
INSERT
  5
8E85
330
8D29
100
AcDbEntity
  8
SUNPOU
 62
     4
370
    -2
100
AcDbBlockReference
  2
_OPEN
 10
602.4999036190603
 20
445.7793685860446
 30
0.0
 41
7.0
 42
7.0
 43
7.0
  0
INSERT
  5
8E86
330
8D29
100
AcDbEntity
  8
SUNPOU
 62
     4
370
    -2
100
AcDbBlockReference
  2
_OPEN
 10
307.5101036190604
 20
445.7793685860446
 30
0.0
 41
7.0
 42
7.0
 43
7.0
 50
180.0
  0
MTEXT
  5
8E87
330
8D29
100
AcDbEntity
  8
SUNPOU
 62
     4
100
AcDbMText
 10
455.0050036190604
 20
450.7793685860446
 30
0.0
 40
6.0
 41
0.0
 71
     5
 72
     1
  1
\A1;295
 73
     1
 44
1.0
  0
POINT
  5
8E88
330
8D29
100
AcDbEntity
  8
DEFPOINTS
 62
     0
100
AcDbPoint
 10
602.4999036190603
 20
474.5956970773613
 30
0.0
  0
POINT
  5
8E89
330
8D29
100
AcDbEntity
  8
DEFPOINTS
 62
     0
100
AcDbPoint
 10
307.5101036190604
 20
474.5956970773613
 30
0.0
  0
POINT
  5
8E8A
330
8D29
100
AcDbEntity
  8
DEFPOINTS
 62
     0
100
AcDbPoint
 10
307.5101036190604
 20
445.7793685860446
 30
0.0
  0
ENDBLK
  5
8D34
330
8D29
100
AcDbEntity
  8
0
100
AcDbBlockEnd
  0
BLOCK
  5
8D3F
330
8D35
100
AcDbEntity
  8
0
100
AcDbBlockBegin
  2
*D4
 70
     1
 71
     0
 10
0.0
 20
0.0
 30
0.0
  3
*D4
  1

  0
LINE
  5
8E9D
330
8D35
100
AcDbEntity
  8
SUNPOU
 62
     4
370
    -2
100
AcDbLine
 10
337.3027036190604
 20
94.88561759579795
 30
0.0
 11
266.771134918662
 21
94.88561759579797
 31
0.0
  0
LINE
  5
8E9E
330
8D35
100
AcDbEntity
  8
SUNPOU
 62
     4
370
    -2
100
AcDbLine
 10
301.5300036190604
 20
176.4418175957981
 30
0.0
 11
266.771134918662
 21
176.4418175957981
 31
0.0
  0
LINE
  5
8E9F
330
8D35
100
AcDbEntity
  8
SUNPOU
 62
     4
370
    -2
100
AcDbLine
 10
269.771134918662
 20
101.885617595798
 30
0.0
 11
269.771134918662
 21
169.4418175957981
 31
0.0
  0
INSERT
  5
8EA0
330
8D35
100
AcDbEntity
  8
SUNPOU
 62
     4
370
    -2
100
AcDbBlockReference
  2
_OPEN
 10
269.771134918662
 20
94.88561759579797
 30
0.0
 41
7.0
 42
7.0
 43
7.0
 50
270.0
  0
INSERT
  5
8EA1
330
8D35
100
AcDbEntity
  8
SUNPOU
 62
     4
370
    -2
100
AcDbBlockReference
  2
_OPEN
 10
269.771134918662
 20
176.4418175957981
 30
0.0
 41
7.0
 42
7.0
 43
7.0
 50
90.0
  0
MTEXT
  5
8EA2
330
8D35
100
AcDbEntity
  8
SUNPOU
 62
     4
100
AcDbMText
 10
264.771134918662
 20
135.663717595798
 30
0.0
 40
6.0
 41
0.0
 71
     5
 72
     1
  1
\A1;82
 11
6.123031769111886E-17
 21
1.0
 31
0.0
 73
     1
 44
1.0
  0
POINT
  5
8EA3
330
8D35
100
AcDbEntity
  8
DEFPOINTS
 62
     0
100
AcDbPoint
 10
343.3027036190604
 20
94.88561759579795
 30
0.0
  0
POINT
  5
8EA4
330
8D35
100
AcDbEntity
  8
DEFPOINTS
 62
     0
100
AcDbPoint
 10
307.5300036190604
 20
176.4418175957981
 30
0.0
  0
POINT
  5
8EA5
330
8D35
100
AcDbEntity
  8
DEFPOINTS
 62
     0
100
AcDbPoint
 10
269.771134918662
 20
176.4418175957981
 30
0.0
  0
ENDBLK
  5
8D40
330
8D35
100
AcDbEntity
  8
0
100
AcDbBlockEnd
  0
BLOCK
  5
8D4B
330
8D41
100
AcDbEntity
  8
0
100
AcDbBlockBegin
  2
*D5
 70
     1
 71
     0
 10
0.0
 20
0.0
 30
0.0
  3
*D5
  1

  0
LINE
  5
8EA6
330
8D41
100
AcDbEntity
  8
SUNPOU
 62
     4
370
    -2
100
AcDbLine
 10
296.0647036190604
 20
211.0179175957981
 30
0.0
 11
266.771134918662
 21
211.0179175957981
 31
0.0
  0
LINE
  5
8EA7
330
8D41
100
AcDbEntity
  8
SUNPOU
 62
     4
370
    -2
100
AcDbLine
 10
301.5300036190604
 20
176.4418175957981
 30
0.0
 11
266.771134918662
 21
176.4418175957981
 31
0.0
  0
LINE
  5
8EA8
330
8D41
100
AcDbEntity
  8
SUNPOU
 62
     4
370
    -2
100
AcDbLine
 10
269.771134918662
 20
204.0179175957981
 30
0.0
 11
269.771134918662
 21
183.4418175957981
 31
0.0
  0
INSERT
  5
8EA9
330
8D41
100
AcDbEntity
  8
SUNPOU
 62
     4
370
    -2
100
AcDbBlockReference
  2
_OPEN
 10
269.771134918662
 20
211.0179175957981
 30
0.0
 41
7.0
 42
7.0
 43
7.0
 50
90.0
  0
INSERT
  5
8EAA
330
8D41
100
AcDbEntity
  8
SUNPOU
 62
     4
370
    -2
100
AcDbBlockReference
  2
_OPEN
 10
269.771134918662
 20
176.4418175957981
 30
0.0
 41
7.0
 42
7.0
 43
7.0
 50
270.0
  0
MTEXT
  5
8EAB
330
8D41
100
AcDbEntity
  8
SUNPOU
 62
     4
100
AcDbMText
 10
264.771134918662
 20
193.7298675957981
 30
0.0
 40
6.0
 41
0.0
 71
     5
 72
     1
  1
\A1;35
 11
6.123031769111886E-17
 21
1.0
 31
0.0
 73
     1
 44
1.0
  0
POINT
  5
8EAC
330
8D41
100
AcDbEntity
  8
DEFPOINTS
 62
     0
100
AcDbPoint
 10
302.0647036190604
 20
211.0179175957981
 30
0.0
  0
POINT
  5
8EAD
330
8D41
100
AcDbEntity
  8
DEFPOINTS
 62
     0
100
AcDbPoint
 10
307.5300036190604
 20
176.4418175957981
 30
0.0
  0
POINT
  5
8EAE
330
8D41
100
AcDbEntity
  8
DEFPOINTS
 62
     0
100
AcDbPoint
 10
269.771134918662
 20
176.4418175957981
 30
0.0
  0
ENDBLK
  5
8D4C
330
8D41
100
AcDbEntity
  8
0
100
AcDbBlockEnd
  0
BLOCK
  5
8D59
330
8D4D
100
AcDbEntity
  8
0
100
AcDbBlockBegin
  2
*D6
 70
     1
 71
     0
 10
0.0
 20
0.0
 30
0.0
  3
*D6
  1

  0
LINE
  5
8EAF
330
8D4D
100
AcDbEntity
  8
SUNPOU
 62
     4
370
    -2
100
AcDbLine
 10
326.5903774735857
 20
141.4139952591
 30
0.0
 11
326.9065826987276
 21
139.1640561516158
 31
0.0
  0
LINE
  5
8EB0
330
8D4D
100
AcDbEntity
  8
SUNPOU
 62
     4
370
    -2
100
AcDbLine
 10
328.5708721815745
 20
141.6923329140832
 30
0.0
 11
328.8870774067165
 21
139.442393806599
 31
0.0
  0
LINE
  5
8EB1
330
8D4D
100
AcDbEntity
  8
SUNPOU
 62
     4
370
    -2
100
AcDbLine
 10
336.2364704974331
 20
137.4457913929657
 30
0.0
 11
343.1683482928024
 21
138.4199937487763
 31
0.0
  0
LINE
  5
8EB2
330
8D4D
100
AcDbEntity
  8
SUNPOU
 62
     4
370
    -2
100
AcDbLine
 10
320.3922201987058
 20
135.2190490263613
 30
0.0
 11
292.6647090172287
 21
131.3222396031188
 31
0.0
  0
LINE
  5
8EB3
330
8D4D
100
AcDbEntity
  8
SUNPOU
 62
     4
370
    -2
100
AcDbLine
 10
329.3045927020639
 20
136.4715890371551
 30
0.0
 11
327.324097994075
 21
136.1932513821719
 31
0.0
  0
INSERT
  5
8EB4
330
8D4D
100
AcDbEntity
  8
SUNPOU
 62
     4
370
    -2
100
AcDbBlockReference
  2
_OPEN
 10
329.3045927020639
 20
136.4715890371551
 30
0.0
 41
7.0
 42
7.0
 43
7.0
 50
187.9999227095838
  0
INSERT
  5
8EB5
330
8D4D
100
AcDbEntity
  8
SUNPOU
 62
     4
370
    -2
100
AcDbBlockReference
  2
_OPEN
 10
327.324097994075
 20
136.1932513821719
 30
0.0
 41
7.0
 42
7.0
 43
7.0
 50
7.999922709583744
  0
MTEXT
  5
8EB6
330
8D4D
100
AcDbEntity
  8
SUNPOU
 62
     4
100
AcDbMText
 10
302.3666668847035
 20
137.7348844192413
 30
0.0
 40
6.0
 41
0.0
 71
     5
 72
     1
  1
\A1;t2.0
 11
0.9902682564813196
 21
0.1391717651158005
 31
0.0
 73
     1
 44
1.0
  0
POINT
  5
8EB7
330
8D4D
100
AcDbEntity
  8
DEFPOINTS
 62
     0
100
AcDbPoint
 10
327.4254080642805
 20
135.472385720212
 30
0.0
  0
POINT
  5
8EB8
330
8D4D
100
AcDbEntity
  8
DEFPOINTS
 62
     0
100
AcDbPoint
 10
329.4059027722693
 20
135.7507233751952
 30
0.0
  0
POINT
  5
8EB9
330
8D4D
100
AcDbEntity
  8
DEFPOINTS
 62
     0
100
AcDbPoint
 10
329.3045927020639
 20
136.4715890371551
 30
0.0
  0
ENDBLK
  5
8D5A
330
8D4D
100
AcDbEntity
  8
0
100
AcDbBlockEnd
  0
BLOCK
  5
8D65
330
8D5B
100
AcDbEntity
  8
0
100
AcDbBlockBegin
  2
*D7
 70
     1
 71
     0
 10
0.0
 20
0.0
 30
0.0
  3
*D7
  1

  0
LINE
  5
8EBA
330
8D5B
100
AcDbEntity
  8
SUNPOU
100
AcDbLine
 10
178.3491476740602
 20
312.4505175957979
 30
0.0
 11
178.3491476740602
 21
347.3783753328917
 31
0.0
  0
LINE
  5
8EBB
330
8D5B
100
AcDbEntity
  8
SUNPOU
100
AcDbLine
 10
197.3491256465602
 20
312.4505175957979
 30
0.0
 11
197.3491256465602
 21
347.3783753328917
 31
0.0
  0
LINE
  5
8EBC
330
8D5B
100
AcDbEntity
  8
SUNPOU
100
AcDbLine
 10
185.3491476740602
 20
344.3783753328917
 30
0.0
 11
190.3491256465602
 21
344.3783753328917
 31
0.0
  0
INSERT
  5
8EBD
330
8D5B
100
AcDbEntity
  8
SUNPOU
100
AcDbBlockReference
  2
_OPEN
 10
178.3491476740602
 20
344.3783753328917
 30
0.0
 41
7.0
 42
7.0
 43
7.0
 50
180.0
  0
INSERT
  5
8EBE
330
8D5B
100
AcDbEntity
  8
SUNPOU
100
AcDbBlockReference
  2
_OPEN
 10
197.3491256465602
 20
344.3783753328917
 30
0.0
 41
7.0
 42
7.0
 43
7.0
  0
MTEXT
  5
8EBF
330
8D5B
100
AcDbEntity
  8
SUNPOU
100
AcDbMText
 10
187.8491366603102
 20
349.3783753328917
 30
0.0
 40
6.0
 41
0.0
 71
     5
 72
     1
  1
\A1;19
 73
     1
 44
1.0
  0
POINT
  5
8EC0
330
8D5B
100
AcDbEntity
  8
DEFPOINTS
 62
     0
100
AcDbPoint
 10
178.3491476740602
 20
306.4505175957979
 30
0.0
  0
POINT
  5
8EC1
330
8D5B
100
AcDbEntity
  8
DEFPOINTS
 62
     0
100
AcDbPoint
 10
197.3491256465602
 20
306.4505175957979
 30
0.0
  0
POINT
  5
8EC2
330
8D5B
100
AcDbEntity
  8
DEFPOINTS
 62
     0
100
AcDbPoint
 10
197.3491256465602
 20
344.3783753328917
 30
0.0
  0
ENDBLK
  5
8D66
330
8D5B
100
AcDbEntity
  8
0
100
AcDbBlockEnd
  0
BLOCK
  5
8D73
330
8D67
100
AcDbEntity
  8
0
100
AcDbBlockBegin
  2
*D8
 70
     1
 71
     0
 10
0.0
 20
0.0
 30
0.0
  3
*D8
  1

  0
LINE
  5
8ED5
330
8D67
100
AcDbEntity
  8
SUNPOU
 62
     4
370
    -2
100
AcDbLine
 10
586.4562953440673
 20
301.8527455003935
 30
0.0
 11
572.9387685601603
 21
297.797300919386
 31
0.0
  0
LINE
  5
8ED6
330
8D67
100
AcDbEntity
  8
SUNPOU
 62
     4
370
    -2
100
AcDbLine
 10
587.1746720486844
 20
299.4582666333732
 30
0.0
 11
573.6571452647773
 21
295.4028220523657
 31
0.0
  0
LINE
  5
8ED7
330
8D67
100
AcDbEntity
  8
SUNPOU
 62
     4
370
    -2
100
AcDbLine
 10
573.8007164149142
 20
305.3641394861644
 30
0.0
 11
571.7891963283727
 21
312.0688980158536
 31
0.0
  0
LINE
  5
8ED8
330
8D67
100
AcDbEntity
  8
SUNPOU
 62
     4
370
    -2
100
AcDbLine
 10
578.5421332926143
 20
289.5601435597657
 30
0.0
 11
586.8755736511433
 21
261.7832867939104
 31
0.0
  0
LINE
  5
8ED9
330
8D67
100
AcDbEntity
  8
SUNPOU
 62
     4
370
    -2
100
AcDbLine
 10
575.8122365014558
 20
298.6593809564752
 30
0.0
 11
576.5306132060728
 21
296.2649020894548
 31
0.0
  0
INSERT
  5
8EDA
330
8D67
100
AcDbEntity
  8
SUNPOU
 62
     4
370
    -2
100
AcDbBlockReference
  2
_OPEN
 10
575.8122365014558
 20
298.6593809564752
 30
0.0
 41
7.0
 42
7.0
 43
7.0
 50
286.6999696427674
  0
INSERT
  5
8EDB
330
8D67
100
AcDbEntity
  8
SUNPOU
 62
     4
370
    -2
100
AcDbBlockReference
  2
_OPEN
 10
576.5306132060728
 20
296.2649020894548
 30
0.0
 41
7.0
 42
7.0
 43
7.0
 50
106.6999696427674
  0
MTEXT
  5
8EDC
330
8D67
100
AcDbEntity
  8
SUNPOU
 62
     4
100
AcDbMText
 10
588.5037267506417
 20
273.7561359738089
 30
0.0
 40
6.0
 41
0.0
 71
     5
 72
     1
  1
\A1;t2.5
 11
0.2873600123630737
 21
-0.9578226470984564
 31
0.0
 73
     1
 44
1.0
  0
POINT
  5
8EDD
330
8D67
100
AcDbEntity
  8
DEFPOINTS
 62
     0
100
AcDbPoint
 10
592.2032312266581
 20
303.5769055745719
 30
0.0
  0
POINT
  5
8EDE
330
8D67
100
AcDbEntity
  8
DEFPOINTS
 62
     0
100
AcDbPoint
 10
592.9216079312752
 20
301.1824267075516
 30
0.0
  0
POINT
  5
8EDF
330
8D67
100
AcDbEntity
  8
DEFPOINTS
 62
     0
100
AcDbPoint
 10
576.5306132060728
 20
296.2649020894548
 30
0.0
  0
ENDBLK
  5
8D74
330
8D67
100
AcDbEntity
  8
0
100
AcDbBlockEnd
  0
BLOCK
  5
8D7F
330
8D75
100
AcDbEntity
  8
0
100
AcDbBlockBegin
  2
*D9
 70
     1
 71
     0
 10
0.0
 20
0.0
 30
0.0
  3
*D9
  1

  0
LINE
  5
8ECC
330
8D75
100
AcDbEntity
  8
SUNPOU
 62
     4
370
    -2
100
AcDbLine
 10
607.7815036190604
 20
306.4505175957979
 30
0.0
 11
648.5622571514087
 21
306.4505175957979
 31
0.0
  0
LINE
  5
8ECD
330
8D75
100
AcDbEntity
  8
SUNPOU
 62
     4
370
    -2
100
AcDbLine
 10
607.7814501845994
 20
239.8562175957979
 30
0.0
 11
648.5622571514086
 21
239.8562175957979
 31
0.0
  0
LINE
  5
8ECE
330
8D75
100
AcDbEntity
  8
SUNPOU
 62
     4
370
    -2
100
AcDbLine
 10
645.5622571514087
 20
299.4505175957979
 30
0.0
 11
645.5622571514086
 21
246.8562175957979
 31
0.0
  0
INSERT
  5
8ECF
330
8D75
100
AcDbEntity
  8
SUNPOU
 62
     4
370
    -2
100
AcDbBlockReference
  2
_OPEN
 10
645.5622571514087
 20
306.4505175957979
 30
0.0
 41
7.0
 42
7.0
 43
7.0
 50
90.0
  0
INSERT
  5
8ED0
330
8D75
100
AcDbEntity
  8
SUNPOU
 62
     4
370
    -2
100
AcDbBlockReference
  2
_OPEN
 10
645.5622571514086
 20
239.8562175957979
 30
0.0
 41
7.0
 42
7.0
 43
7.0
 50
270.0
  0
MTEXT
  5
8ED1
330
8D75
100
AcDbEntity
  8
SUNPOU
 62
     4
100
AcDbMText
 10
640.5622571514086
 20
273.153367595798
 30
0.0
 40
6.0
 41
0.0
 71
     5
 72
     1
  1
\A1;67
 11
6.123031769111886E-17
 21
1.0
 31
0.0
 73
     1
 44
1.0
  0
POINT
  5
8ED2
330
8D75
100
AcDbEntity
  8
DEFPOINTS
 62
     0
100
AcDbPoint
 10
601.7815036190604
 20
306.4505175957979
 30
0.0
  0
POINT
  5
8ED3
330
8D75
100
AcDbEntity
  8
DEFPOINTS
 62
     0
100
AcDbPoint
 10
601.7814501845994
 20
239.8562175957979
 30
0.0
  0
POINT
  5
8ED4
330
8D75
100
AcDbEntity
  8
DEFPOINTS
 62
     0
100
AcDbPoint
 10
645.5622571514086
 20
239.8562175957979
 30
0.0
  0
ENDBLK
  5
8D80
330
8D75
100
AcDbEntity
  8
0
100
AcDbBlockEnd
  0
BLOCK
  5
8D8B
330
8D81
100
AcDbEntity
  8
0
100
AcDbBlockBegin
  2
*D10
 70
     1
 71
     0
 10
0.0
 20
0.0
 30
0.0
  3
*D10
  1

  0
LINE
  5
8EC3
330
8D81
100
AcDbEntity
  8
SUNPOU
 62
     4
370
    -2
100
AcDbLine
 10
600.7756435448819
 20
309.8029534783886
 30
0.0
 11
591.9980689400903
 21
339.0601896328836
 31
0.0
  0
LINE
  5
8EC4
330
8D81
100
AcDbEntity
  8
SUNPOU
 62
     4
370
    -2
100
AcDbLine
 10
447.8803435448818
 20
263.9322534783887
 30
0.0
 11
439.1027689400902
 21
293.1894896328836
 31
0.0
  0
LINE
  5
8EC5
330
8D81
100
AcDbEntity
  8
SUNPOU
 62
     4
370
    -2
100
AcDbLine
 10
586.1553904474905
 20
334.1752016050466
 30
0.0
 11
446.6696075068686
 21
292.3275417781299
 31
0.0
  0
INSERT
  5
8EC6
330
8D81
100
AcDbEntity
  8
SUNPOU
 62
     4
370
    -2
100
AcDbBlockReference
  2
_OPEN
 10
592.8601489771796
 20
336.1867216915883
 30
0.0
 41
7.0
 42
7.0
 43
7.0
 50
16.6999696427686
  0
INSERT
  5
8EC7
330
8D81
100
AcDbEntity
  8
SUNPOU
 62
     4
370
    -2
100
AcDbBlockReference
  2
_OPEN
 10
439.9648489771795
 20
290.3160216915883
 30
0.0
 41
7.0
 42
7.0
 43
7.0
 50
196.6999696427686
  0
MTEXT
  5
8EC8
330
8D81
100
AcDbEntity
  8
SUNPOU
 62
     4
100
AcDbMText
 10
514.9756989153641
 20
318.0404849270805
 30
0.0
 40
6.0
 41
0.0
 71
     5
 72
     1
  1
\A1;160
 11
0.9578226470984506
 21
0.2873600123630932
 31
0.0
 73
     1
 44
1.0
  0
POINT
  5
8EC9
330
8D81
100
AcDbEntity
  8
DEFPOINTS
 62
     0
100
AcDbPoint
 10
602.4998036190605
 20
304.0560175957979
 30
0.0
  0
POINT
  5
8ECA
330
8D81
100
AcDbEntity
  8
DEFPOINTS
 62
     0
100
AcDbPoint
 10
449.6045036190603
 20
258.185317595798
 30
0.0
  0
POINT
  5
8ECB
330
8D81
100
AcDbEntity
  8
DEFPOINTS
 62
     0
100
AcDbPoint
 10
439.9648489771795
 20
290.3160216915883
 30
0.0
  0
ENDBLK
  5
8D8C
330
8D81
100
AcDbEntity
  8
0
100
AcDbBlockEnd
  0
BLOCK
  5
8D97
330
8D8D
100
AcDbEntity
  8
0
100
AcDbBlockBegin
  2
*D11
 70
     1
 71
     0
 10
0.0
 20
0.0
 30
0.0
  3
*D11
  1

  0
LINE
  5
8EE0
330
8D8D
100
AcDbEntity
  8
SUNPOU
 62
     4
370
    -2
100
AcDbLine
 10
450.2450036190603
 20
160.574017595798
 30
0.0
 11
493.6371057409411
 21
160.574017595798
 31
0.0
  0
LINE
  5
8EE1
330
8D8D
100
AcDbEntity
  8
SUNPOU
 62
     4
370
    -2
100
AcDbLine
 10
438.3936036190603
 20
94.88561759579795
 30
0.0
 11
493.637105740941
 21
94.88561759579794
 31
0.0
  0
LINE
  5
8EE2
330
8D8D
100
AcDbEntity
  8
SUNPOU
 62
     4
370
    -2
100
AcDbLine
 10
490.6371057409411
 20
153.574017595798
 30
0.0
 11
490.637105740941
 21
101.8856175957979
 31
0.0
  0
INSERT
  5
8EE3
330
8D8D
100
AcDbEntity
  8
SUNPOU
 62
     4
370
    -2
100
AcDbBlockReference
  2
_OPEN
 10
490.6371057409411
 20
160.574017595798
 30
0.0
 41
7.0
 42
7.0
 43
7.0
 50
90.0
  0
INSERT
  5
8EE4
330
8D8D
100
AcDbEntity
  8
SUNPOU
 62
     4
370
    -2
100
AcDbBlockReference
  2
_OPEN
 10
490.637105740941
 20
94.88561759579794
 30
0.0
 41
7.0
 42
7.0
 43
7.0
 50
270.0
  0
MTEXT
  5
8EE5
330
8D8D
100
AcDbEntity
  8
SUNPOU
 62
     4
100
AcDbMText
 10
485.637105740941
 20
110.885617595798
 30
0.0
 40
6.0
 41
0.0
 71
     5
 72
     1
  1
\A1;66
 11
6.123031769111886E-17
 21
1.0
 31
0.0
 73
     1
 44
1.0
  0
POINT
  5
8EE6
330
8D8D
100
AcDbEntity
  8
DEFPOINTS
 62
     0
100
AcDbPoint
 10
444.2450036190603
 20
160.574017595798
 30
0.0
  0
POINT
  5
8EE7
330
8D8D
100
AcDbEntity
  8
DEFPOINTS
 62
     0
100
AcDbPoint
 10
432.3936036190603
 20
94.88561759579795
 30
0.0
  0
POINT
  5
8EE8
330
8D8D
100
AcDbEntity
  8
DEFPOINTS
 62
     0
100
AcDbPoint
 10
490.637105740941
 20
94.88561759579794
 30
0.0
  0
ENDBLK
  5
8D98
330
8D8D
100
AcDbEntity
  8
0
100
AcDbBlockEnd
  0
BLOCK
  5
8DA3
330
8D99
100
AcDbEntity
  8
0
100
AcDbBlockBegin
  2
*D12
 70
     1
 71
     0
 10
0.0
 20
0.0
 30
0.0
  3
*D12
  1

  0
LINE
  5
8EE9
330
8D99
100
AcDbEntity
  8
SUNPOU
 62
     4
370
    -2
100
AcDbLine
 10
455.2482036190604
 20
257.7063175957981
 30
0.0
 11
508.578096557123
 21
257.7063175957981
 31
0.0
  0
LINE
  5
8EEA
330
8D99
100
AcDbEntity
  8
SUNPOU
 62
     4
370
    -2
100
AcDbLine
 10
455.2481036190604
 20
133.0783175957979
 30
0.0
 11
508.578096557123
 21
133.0783175957979
 31
0.0
  0
LINE
  5
8EEB
330
8D99
100
AcDbEntity
  8
SUNPOU
 62
     4
370
    -2
100
AcDbLine
 10
505.578096557123
 20
250.7063175957981
 30
0.0
 11
505.578096557123
 21
140.0783175957979
 31
0.0
  0
INSERT
  5
8EEC
330
8D99
100
AcDbEntity
  8
SUNPOU
 62
     4
370
    -2
100
AcDbBlockReference
  2
_OPEN
 10
505.578096557123
 20
257.7063175957981
 30
0.0
 41
7.0
 42
7.0
 43
7.0
 50
90.0
  0
INSERT
  5
8EED
330
8D99
100
AcDbEntity
  8
SUNPOU
 62
     4
370
    -2
100
AcDbBlockReference
  2
_OPEN
 10
505.578096557123
 20
133.0783175957979
 30
0.0
 41
7.0
 42
7.0
 43
7.0
 50
270.0
  0
MTEXT
  5
8EEE
330
8D99
100
AcDbEntity
  8
SUNPOU
 62
     4
100
AcDbMText
 10
500.5780965571229
 20
151.078317595798
 30
0.0
 40
6.0
 41
0.0
 71
     5
 72
     1
  1
\A1;125
 11
6.123031769111886E-17
 21
1.0
 31
0.0
 73
     1
 44
1.0
  0
POINT
  5
8EEF
330
8D99
100
AcDbEntity
  8
DEFPOINTS
 62
     0
100
AcDbPoint
 10
449.2482036190604
 20
257.7063175957981
 30
0.0
  0
POINT
  5
8EF0
330
8D99
100
AcDbEntity
  8
DEFPOINTS
 62
     0
100
AcDbPoint
 10
449.2481036190604
 20
133.0783175957979
 30
0.0
  0
POINT
  5
8EF1
330
8D99
100
AcDbEntity
  8
DEFPOINTS
 62
     0
100
AcDbPoint
 10
505.578096557123
 20
133.0783175957979
 30
0.0
  0
ENDBLK
  5
8DA4
330
8D99
100
AcDbEntity
  8
0
100
AcDbBlockEnd
  0
BLOCK
  5
8DAF
330
8DA5
100
AcDbEntity
  8
0
100
AcDbBlockBegin
  2
*D13
 70
     1
 71
     0
 10
0.0
 20
0.0
 30
0.0
  3
*D13
  1

  0
LINE
  5
8EF2
330
8DA5
100
AcDbEntity
  8
SUNPOU
 62
     4
370
    -2
100
AcDbLine
 10
607.7813036190604
 20
493.5954970773614
 30
0.0
 11
648.5622571514086
 21
493.5954970773614
 31
0.0
  0
LINE
  5
8EF3
330
8DA5
100
AcDbEntity
  8
SUNPOU
 62
     4
370
    -2
100
AcDbLine
 10
607.7813036190604
 20
474.5956970773613
 30
0.0
 11
648.5622571514086
 21
474.5956970773613
 31
0.0
  0
LINE
  5
8EF4
330
8DA5
100
AcDbEntity
  8
SUNPOU
 62
     4
370
    -2
100
AcDbLine
 10
645.5622571514086
 20
486.5954970773614
 30
0.0
 11
645.5622571514086
 21
481.5956970773613
 31
0.0
  0
INSERT
  5
8EF5
330
8DA5
100
AcDbEntity
  8
SUNPOU
 62
     4
370
    -2
100
AcDbBlockReference
  2
_OPEN
 10
645.5622571514086
 20
493.5954970773614
 30
0.0
 41
7.0
 42
7.0
 43
7.0
 50
90.0
  0
INSERT
  5
8EF6
330
8DA5
100
AcDbEntity
  8
SUNPOU
 62
     4
370
    -2
100
AcDbBlockReference
  2
_OPEN
 10
645.5622571514086
 20
474.5956970773613
 30
0.0
 41
7.0
 42
7.0
 43
7.0
 50
270.0
  0
MTEXT
  5
8EF7
330
8DA5
100
AcDbEntity
  8
SUNPOU
 62
     4
100
AcDbMText
 10
640.5622571514085
 20
484.0955970773615
 30
0.0
 40
6.0
 41
0.0
 71
     5
 72
     1
  1
\A1;19
 11
6.123031769111886E-17
 21
1.0
 31
0.0
 73
     1
 44
1.0
  0
POINT
  5
8EF8
330
8DA5
100
AcDbEntity
  8
DEFPOINTS
 62
     0
100
AcDbPoint
 10
601.7813036190604
 20
493.5954970773614
 30
0.0
  0
POINT
  5
8EF9
330
8DA5
100
AcDbEntity
  8
DEFPOINTS
 62
     0
100
AcDbPoint
 10
601.7813036190604
 20
474.5956970773613
 30
0.0
  0
POINT
  5
8EFA
330
8DA5
100
AcDbEntity
  8
DEFPOINTS
 62
     0
100
AcDbPoint
 10
645.5622571514086
 20
474.5956970773613
 30
0.0
  0
ENDBLK
  5
8DB0
330
8DA5
100
AcDbEntity
  8
0
100
AcDbBlockEnd
  0
BLOCK
  5
8DBB
330
8DB1
100
AcDbEntity
  8
0
100
AcDbBlockBegin
  2
*D14
 70
     1
 71
     0
 10
0.0
 20
0.0
 30
0.0
  3
*D14
  1

  0
LINE
  5
8F06
330
8DB1
100
AcDbEntity
  8
SUNPOU
 62
     4
370
    -2
100
AcDbLine
 10
569.1243200569704
 20
380.5031278413163
 30
0.0
 11
561.5081652235973
 21
405.8891317294747
 31
0.0
  0
LINE
  5
8F07
330
8DB1
100
AcDbEntity
  8
SUNPOU
 62
     4
370
    -2
100
AcDbLine
 10
521.2330266314948
 20
366.1350726126999
 30
0.0
 11
513.6168717981217
 21
391.5210765008582
 31
0.0
  0
LINE
  5
8F08
330
8DB1
100
AcDbEntity
  8
SUNPOU
 62
     4
370
    -2
100
AcDbLine
 10
555.6654873193337
 20
401.0041429979594
 30
0.0
 11
521.183710468711
 21
390.6591295574365
 31
0.0
  0
INSERT
  5
8F09
330
8DB1
100
AcDbEntity
  8
SUNPOU
 62
     4
370
    -2
100
AcDbBlockReference
  2
_OPEN
 10
562.3702456067601
 20
403.0156638920062
 30
0.0
 41
7.0
 42
7.0
 43
7.0
 50
16.69997654333528
  0
INSERT
  5
8F0A
330
8DB1
100
AcDbEntity
  8
SUNPOU
 62
     4
370
    -2
100
AcDbBlockReference
  2
_OPEN
 10
514.4789521812845
 20
388.6476086633898
 30
0.0
 41
7.0
 42
7.0
 43
7.0
 50
196.6999765433353
  0
MTEXT
  5
8F0B
330
8DB1
100
AcDbEntity
  8
SUNPOU
 62
     4
100
AcDbMText
 10
536.9877982554176
 20
400.6207493401454
 30
0.0
 40
6.0
 41
0.0
 71
     5
 72
     1
  1
\A1;50
 11
0.9578226124894907
 21
0.2873601277209608
 31
0.0
 73
     1
 44
1.0
  0
POINT
  5
8F0C
330
8DB1
100
AcDbEntity
  8
DEFPOINTS
 62
     0
100
AcDbPoint
 10
570.8484808232962
 20
374.7561921663794
 30
0.0
  0
POINT
  5
8F0D
330
8DB1
100
AcDbEntity
  8
DEFPOINTS
 62
     0
100
AcDbPoint
 10
522.9571873978206
 20
360.388136937763
 30
0.0
  0
POINT
  5
8F0E
330
8DB1
100
AcDbEntity
  8
DEFPOINTS
 62
     0
100
AcDbPoint
 10
514.4789521812845
 20
388.6476086633898
 30
0.0
  0
ENDBLK
  5
8DBC
330
8DB1
100
AcDbEntity
  8
0
100
AcDbBlockEnd
  0
BLOCK
  5
8DC9
330
8DBD
100
AcDbEntity
  8
0
100
AcDbBlockBegin
  2
*D15
 70
     1
 71
     0
 10
0.0
 20
0.0
 30
0.0
  3
*D15
  1

  0
LINE
  5
8EFB
330
8DBD
100
AcDbEntity
  8
SUNPOU
 62
     4
370
    -2
100
AcDbLine
 10
578.7025992731229
 20
383.3767450466429
 30
0.0
 11
571.0864444397499
 21
408.7627489348012
 31
0.0
  0
LINE
  5
8EFC
330
8DBD
100
AcDbEntity
  8
SUNPOU
 62
     4
370
    -2
100
AcDbLine
 10
569.1243200569704
 20
380.5031278413164
 30
0.0
 11
561.5081652235974
 21
405.8891317294746
 31
0.0
  0
LINE
  5
8EFD
330
8DBD
100
AcDbEntity
  8
SUNPOU
 62
     4
370
    -2
100
AcDbLine
 10
555.6654873193338
 20
401.0041429979594
 30
0.0
 11
548.9607290319074
 21
398.9926221039127
 31
0.0
  0
LINE
  5
8EFE
330
8DBD
100
AcDbEntity
  8
SUNPOU
 62
     4
370
    -2
100
AcDbLine
 10
578.6532831103392
 20
407.9008019913794
 30
0.0
 11
595.89409013515
 21
413.0732842903566
 31
0.0
  0
LINE
  5
8EFF
330
8DBD
100
AcDbEntity
  8
SUNPOU
 62
     4
370
    -2
100
AcDbLine
 10
562.3702456067603
 20
403.0156638920062
 30
0.0
 11
571.9485248229128
 21
405.8892810973326
 31
0.0
  0
INSERT
  5
8F00
330
8DBD
100
AcDbEntity
  8
SUNPOU
 62
     4
370
    -2
100
AcDbBlockReference
  2
_OPEN
 10
562.3702456067603
 20
403.0156638920062
 30
0.0
 41
7.0
 42
7.0
 43
7.0
 50
16.69997654333516
  0
INSERT
  5
8F01
330
8DBD
100
AcDbEntity
  8
SUNPOU
 62
     4
370
    -2
100
AcDbBlockReference
  2
_OPEN
 10
571.9485248229128
 20
405.8892810973326
 30
0.0
 41
7.0
 42
7.0
 43
7.0
 50
196.6999765433352
  0
MTEXT
  5
8F02
330
8DBD
100
AcDbEntity
  8
SUNPOU
 62
     4
100
AcDbMText
 10
589.189265127853
 20
416.2819166503388
 30
0.0
 40
6.0
 41
0.0
 71
     5
 72
     1
  1
\A1;10
 11
0.9578226124894915
 21
0.2873601277209582
 31
0.0
 73
     1
 44
1.0
  0
POINT
  5
8F03
330
8DBD
100
AcDbEntity
  8
DEFPOINTS
 62
     0
100
AcDbPoint
 10
580.4267600394487
 20
377.629809371706
 30
0.0
  0
POINT
  5
8F04
330
8DBD
100
AcDbEntity
  8
DEFPOINTS
 62
     0
100
AcDbPoint
 10
570.8484808232962
 20
374.7561921663794
 30
0.0
  0
POINT
  5
8F05
330
8DBD
100
AcDbEntity
  8
DEFPOINTS
 62
     0
100
AcDbPoint
 10
562.3702456067603
 20
403.0156638920062
 30
0.0
  0
ENDBLK
  5
8DCA
330
8DBD
100
AcDbEntity
  8
0
100
AcDbBlockEnd
  0
BLOCK
  5
8DD5
330
8DCB
100
AcDbEntity
  8
0
100
AcDbBlockBegin
  2
*D16
 70
     1
 71
     0
 10
0.0
 20
0.0
 30
0.0
  3
*D16
  1

  0
LINE
  5
8F0F
330
8DCB
100
AcDbEntity
  8
SUNPOU
 62
     4
370
    -2
100
AcDbLine
 10
521.2330266314949
 20
366.1350726127
 30
0.0
 11
513.6168717981218
 21
391.5210765008582
 31
0.0
  0
LINE
  5
8F10
330
8DCB
100
AcDbEntity
  8
SUNPOU
 62
     4
370
    -2
100
AcDbLine
 10
473.3419258603421
 20
351.7670751830646
 30
0.0
 11
465.725771026969
 21
377.1530790712228
 31
0.0
  0
LINE
  5
8F11
330
8DCB
100
AcDbEntity
  8
SUNPOU
 62
     4
370
    -2
100
AcDbLine
 10
507.7741938938582
 20
386.636087769343
 30
0.0
 11
473.2926096975583
 21
376.291132127801
 31
0.0
  0
INSERT
  5
8F12
330
8DCB
100
AcDbEntity
  8
SUNPOU
 62
     4
370
    -2
100
AcDbBlockReference
  2
_OPEN
 10
514.4789521812846
 20
388.6476086633898
 30
0.0
 41
7.0
 42
7.0
 43
7.0
 50
16.69997654333512
  0
INSERT
  5
8F13
330
8DCB
100
AcDbEntity
  8
SUNPOU
 62
     4
370
    -2
100
AcDbBlockReference
  2
_OPEN
 10
466.5878514101319
 20
374.2796112337543
 30
0.0
 41
7.0
 42
7.0
 43
7.0
 50
196.6999765433352
  0
MTEXT
  5
8F14
330
8DCB
100
AcDbEntity
  8
SUNPOU
 62
     4
100
AcDbMText
 10
489.0966011571036
 20
386.2527230110194
 30
0.0
 40
6.0
 41
0.0
 71
     5
 72
     1
  1
\A1;50
 11
0.9578226124894915
 21
0.2873601277209582
 31
0.0
 73
     1
 44
1.0
  0
POINT
  5
8F15
330
8DCB
100
AcDbEntity
  8
DEFPOINTS
 62
     0
100
AcDbPoint
 10
522.9571873978207
 20
360.388136937763
 30
0.0
  0
POINT
  5
8F16
330
8DCB
100
AcDbEntity
  8
DEFPOINTS
 62
     0
100
AcDbPoint
 10
475.0660866266679
 20
346.0201395081276
 30
0.0
  0
POINT
  5
8F17
330
8DCB
100
AcDbEntity
  8
DEFPOINTS
 62
     0
100
AcDbPoint
 10
466.5878514101319
 20
374.2796112337543
 30
0.0
  0
ENDBLK
  5
8DD6
330
8DCB
100
AcDbEntity
  8
0
100
AcDbBlockEnd
  0
BLOCK
  5
8DE1
330
8DD7
100
AcDbEntity
  8
0
100
AcDbBlockBegin
  2
*D17
 70
     1
 71
     0
 10
0.0
 20
0.0
 30
0.0
  3
*D17
  1

  0
LINE
  5
8F18
330
8DD7
100
AcDbEntity
  8
SUNPOU
 62
     4
370
    -2
100
AcDbLine
 10
584.5931908619074
 20
384.6220900793308
 30
0.0
 11
610.5964502157652
 21
392.4234607083289
 31
0.0
  0
LINE
  5
8F19
330
8DD7
100
AcDbEntity
  8
SUNPOU
 62
     4
370
    -2
100
AcDbLine
 10
590.0532036405266
 20
366.4229639116713
 30
0.0
 11
616.0564629943843
 21
374.2243345406694
 31
0.0
  0
LINE
  5
8F1A
330
8DD7
100
AcDbEntity
  8
SUNPOU
 62
     4
370
    -2
100
AcDbLine
 10
609.7345114299253
 20
384.8566211085049
 30
0.0
 11
611.1714679640566
 21
380.0670071785701
 31
0.0
  0
INSERT
  5
8F1B
330
8DD7
100
AcDbEntity
  8
SUNPOU
 62
     4
370
    -2
100
AcDbBlockReference
  2
_OPEN
 10
607.7229833076814
 20
391.5613772273672
 30
0.0
 41
7.0
 42
7.0
 43
7.0
 50
106.7000383121931
  0
INSERT
  5
8F1C
330
8DD7
100
AcDbEntity
  8
SUNPOU
 62
     4
370
    -2
100
AcDbBlockReference
  2
_OPEN
 10
613.1829960863005
 20
373.3622510597077
 30
0.0
 41
7.0
 42
7.0
 43
7.0
 50
286.7000383121932
  0
MTEXT
  5
8F1D
330
8DD7
100
AcDbEntity
  8
SUNPOU
 62
     4
100
AcDbMText
 10
615.2421012104641
 20
383.8986199451403
 30
0.0
 40
6.0
 41
0.0
 71
     5
 72
     1
  1
\A1;19
 11
0.2873611603205645
 21
-0.9578223026946172
 31
0.0
 73
     1
 44
1.0
  0
POINT
  5
8F1E
330
8DD7
100
AcDbEntity
  8
DEFPOINTS
 62
     0
100
AcDbPoint
 10
578.8462570457397
 20
382.8979231174073
 30
0.0
  0
POINT
  5
8F1F
330
8DD7
100
AcDbEntity
  8
DEFPOINTS
 62
     0
100
AcDbPoint
 10
584.3062698243589
 20
364.6987969497479
 30
0.0
  0
POINT
  5
8F20
330
8DD7
100
AcDbEntity
  8
DEFPOINTS
 62
     0
100
AcDbPoint
 10
613.1829960863005
 20
373.3622510597077
 30
0.0
  0
ENDBLK
  5
8DE2
330
8DD7
100
AcDbEntity
  8
0
100
AcDbBlockEnd
  0
ENDSEC
  0
SECTION
  2
ENTITIES
  0
LINE
  5
3EF3
330
1A
100
AcDbEntity
  8
ZUWAKU
100
AcDbLine
 10
208.646601303624
 20
15.19999986828872
 30
0.0
 11
447.4243639845474
 21
15.19999986828871
 31
0.0
  0
LINE
  5
3EF4
330
1A
100
AcDbEntity
  8
ZUWAKU
100
AcDbLine
 10
208.646601303624
 20
15.59999986828872
 30
0.0
 11
447.4243639845474
 21
15.59999986828872
 31
0.0
  0
LINE
  5
3EF5
330
1A
100
AcDbEntity
  8
ZUWAKU
100
AcDbLine
 10
208.646601303624
 20
15.39999986828872
 30
0.0
 11
447.4243639845474
 21
15.39999986828872
 31
0.0
  0
LINE
  5
3EF6
330
1A
100
AcDbEntity
  8
ZUWAKU
100
AcDbLine
 10
0.0000000135560185
 20
30.79999986828869
 30
0.0
 11
797.4000000135559
 21
30.79999986828869
 31
0.0
  0
LINE
  5
3EF7
330
1A
100
AcDbEntity
  8
ZUWAKU
100
AcDbLine
 10
0.0000000135560185
 20
30.59999986828869
 30
0.0
 11
797.4000000135559
 21
30.59999986828869
 31
0.0
  0
LINE
  5
3EF8
330
1A
100
AcDbEntity
  8
ZUWAKU
100
AcDbLine
 10
0.0000000135560185
 20
30.39999986828869
 30
0.0
 11
797.4000000135559
 21
30.39999986828869
 31
0.0
  0
LINE
  5
3EF9
330
1A
100
AcDbEntity
  8
ZUWAKU
100
AcDbLine
 10
0.0000000135560185
 20
30.19999986828869
 30
0.0
 11
797.4000000135559
 21
30.19999986828869
 31
0.0
  0
LINE
  5
3EFA
330
1A
100
AcDbEntity
  8
ZUWAKU
100
AcDbLine
 10
0.0000000135560185
 20
29.99999986828868
 30
0.0
 11
797.4000000135559
 21
29.99999986828868
 31
0.0
  0
LWPOLYLINE
  5
3EFB
330
1A
100
AcDbEntity
  8
ZUWAKU
100
AcDbPolyline
 90
        4
 70
     1
 43
0.0
 10
0.2000000135559503
 20
551.3999998682888
 10
0.2000000135559503
 20
0.1999998682887281
 10
797.4000000135559
 20
0.1999998682887512
 10
797.4000000135561
 20
551.3999998682888
  0
LWPOLYLINE
  5
3EFC
330
1A
100
AcDbEntity
  8
ZUWAKU
100
AcDbPolyline
 90
        4
 70
     1
 43
0.0
 10
0.6000000135559276
 20
550.9999998682888
 10
0.6000000135559276
 20
0.5999998682887053
 10
797.0000000135563
 20
0.5999998682887515
 10
797.000000013556
 20
550.9999998682888
  0
LWPOLYLINE
  5
3EFD
330
1A
100
AcDbEntity
  8
ZUWAKU
100
AcDbPolyline
 90
        4
 70
     1
 43
0.0
 10
0.0000000135560185
 20
551.5999998682887
 10
0.0000000135560185
 20
-0.0000001317113174
 10
797.6000000135562
 20
-0.0000001317112499
 10
797.6000000135562
 20
551.5999998682888
  0
LWPOLYLINE
  5
3EFE
330
1A
100
AcDbEntity
  8
ZUWAKU
100
AcDbPolyline
 90
        4
 70
     1
 43
0.0
 10
0.4000000135559958
 20
551.1999998682887
 10
0.4000000135559958
 20
0.3999998682887735
 10
797.2000000135561
 20
0.3999998682887505
 10
797.2000000135561
 20
551.1999998682887
  0
LWPOLYLINE
  5
3EFF
330
1A
100
AcDbEntity
  8
ZUWAKU
100
AcDbPolyline
 90
        4
 70
     1
 43
0.0
 10
0.8000000135559731
 20
550.7999998682888
 10
0.8000000135559731
 20
0.7999998682887508
 10
796.800000013556
 20
0.7999998682887508
 10
796.800000013556
 20
550.7999998682888
  0
TEXT
  5
3F00
330
1A
100
AcDbEntity
  8
moji
100
AcDbText
 10
92.95778960172515
 20
12.74117799856344
 30
0.0
 40
6.0
  1
アーバントップΣ９０
 41
0.9
  7
ｽﾀｲﾙ1
100
AcDbText
  0
HATCH
  5
3F01
330
1A
100
AcDbEntity
  8
ZUWAKU
100
AcDbHatch
 10
0.0
 20
0.0
 30
0.0
210
0.0
220
0.0
230
1.0
  2
ANSI37
 70
     0
 71
     0
 91
        8
 92
        7
 72
     1
 73
     1
 93
       24
 10
14.50226267467588
 20
17.64484834927227
 42
-0.1989123673796348
 10
14.09221216833714
 20
18.63479784293332
 42
0.0
 10
14.09221216833714
 20
19.92499986828869
 42
-0.4142135623730912
 10
14.61721216833712
 20
20.44999986828869
 42
0.0
 10
17.59221216833703
 20
20.44999986828869
 42
0.4142135623731546
 10
18.11721216833712
 20
20.97499986828868
 42
0.0
 10
18.11721216833712
 20
22.72499986828869
 42
0.4142135623731586
 10
17.59221216833703
 20
23.24999986828869
 42
0.0
 10
14.09221216833714
 20
23.24999986828869
 42
0.4142135623730928
 10
11.29221216833719
 20
20.44999986828871
 42
0.0
 10
11.29221216833719
 20
18.63479784293345
 42
0.1989123673796619
 10
12.52236368735362
 20
15.66494936194984
 42
0.0
 10
15.43216166199829
 20
12.75515138730518
 42
-0.1989123673796613
 10
15.84221216833714
 20
11.76520189364399
 42
0.0
 10
15.84221216833714
 20
10.47499986828868
 42
-0.4142135623730911
 10
15.31721216833716
 20
9.949999868288685
 42
0.0
 10
12.34221216833726
 20
9.949999868288685
 42
0.4142135623731526
 10
11.81721216833716
 20
9.424999868288698
 42
0.0
 10
11.81721216833716
 20
7.674999868288676
 42
0.4142135623731526
 10
12.34221216833726
 20
7.149999868288688
 42
0.0
 10
15.84221216833714
 20
7.149999868288688
 42
0.4142135623731044
 10
18.64221216833721
 20
9.949999868288664
 42
0.0
 10
18.64221216833721
 20
11.76520189364394
 42
0.1989123673796604
 10
17.41206064932067
 20
14.73505037462748
 42
0.0
 97
        0
 92
        7
 72
     1
 73
     1
 93
       16
 10
23.54221216833719
 20
19.04999986828869
 42
-0.4142135623730935
 10
24.94221216833716
 20
20.44999986828869
 42
0.0
 10
26.86721216833712
 20
20.44999986828869
 42
0.4142135623731546
 10
27.39221216833721
 20
20.97499986828868
 42
0.0
 10
27.39221216833721
 20
22.72499986828869
 42
0.4142135623730952
 10
26.86721216833723
 20
23.24999986828869
 42
0.0
 10
24.94221216833705
 20
23.24999986828865
 42
0.4142135623730892
 10
20.74221216833712
 20
19.04999986828862
 42
0.0
 10
20.74221216833712
 20
11.34999986828871
 42
0.4142135623730969
 10
24.94221216833716
 20
7.149999868288688
 42
0.0
 10
26.86721216833712
 20
7.149999868288688
 42
0.4142135623731526
 10
27.39221216833721
 20
7.674999868288676
 42
0.0
 10
27.39221216833721
 20
9.424999868288698
 42
0.414213562373089
 10
26.86721216833723
 20
9.949999868288685
 42
0.0
 10
24.94221216833716
 20
9.949999868288685
 42
-0.4142135623730928
 10
23.54221216833719
 20
11.34999986828867
 42
0.0
 97
        0
 92
        7
 72
     1
 73
     1
 93
        2
 10
24.24221216833712
 20
15.19999986828869
 42
1.0
 10
27.74221216833712
 20
15.19999986828869
 42
1.0
 97
        0
 92
        7
 72
     1
 73
     1
 93
       26
 10
37.31485865051513
 20
19.20504706185211
 42
0.0
 10
38.37649828365295
 20
22.5669059001217
 42
0.5069206636600134
 10
37.87586738445759
 20
23.24999986828869
 42
0.0
 10
36.17697800484837
 20
23.24999986828869
 42
0.3272098845218764
 10
35.67634710565301
 20
22.88309383645566
 42
0.0
 10
33.80807723102123
 20
16.96690590012177
 42
-0.3272098845219541
 10
33.30744633182576
 20
16.59999986828868
 42
0.0
 10
33.1672121683373
 20
16.59999986828868
 42
-0.4142135623731526
 10
32.64221216833721
 20
17.12499986828867
 42
0.0
 10
32.64221216833721
 20
22.72499986828869
 42
0.4142135623730952
 10
32.11721216833723
 20
23.24999986828869
 42
0.0
 10
30.36721216833712
 20
23.24999986828869
 42
0.4142135623730872
 10
29.84221216833714
 20
22.72499986828871
 42
0.0
 10
29.84221216833714
 20
7.674999868288676
 42
0.414213562373089
 10
30.36721216833712
 20
7.149999868288688
 42
0.0
 10
32.11721216833712
 20
7.149999868288688
 42
0.4142135623731526
 10
32.64221216833721
 20
7.674999868288676
 42
0.0
 10
32.64221216833721
 20
13.2749998682887
 42
-0.4142135623731526
 10
33.1672121683373
 20
13.79999986828869
 42
0.0
 10
33.30744633182587
 20
13.79999986828869
 42
-0.3272098845218915
 10
33.80807723102123
 20
13.43309383645561
 42
0.0
 10
35.67634710565301
 20
7.51690590012176
 42
0.3272098845218902
 10
36.17697800484837
 20
7.149999868288688
 42
0.0
 10
37.87586738445759
 20
7.149999868288688
 42
0.5069206636600334
 10
38.37649828365295
 20
7.833093836455696
 42
0.0
 10
36.05010690517929
 20
15.19999986828882
 42
0.0
 97
        0
 92
        7
 72
     1
 73
     1
 93
        8
 10
43.49221216833712
 20
22.7249998682887
 42
0.4142135623731546
 10
42.96721216833703
 20
23.24999986828869
 42
0.0
 10
41.21721216833726
 20
23.24999986828869
 42
0.4142135623731506
 10
40.69221216833716
 20
22.72499986828871
 42
0.0
 10
40.69221216833716
 20
7.674999868288676
 42
0.4142135623731526
 10
41.21721216833726
 20
7.149999868288688
 42
0.0
 10
42.96721216833703
 20
7.149999868288688
 42
0.4142135623731526
 10
43.49221216833712
 20
7.674999868288676
 42
0.0
 97
        0
 92
        7
 72
     1
 73
     1
 93
       24
 10
48.39221216833721
 20
19.92499986828869
 42
-0.4142135623731547
 10
48.9172121683373
 20
20.44999986828869
 42
0.0
 10
51.89221216833721
 20
20.44999986828869
 42
0.4142135623730911
 10
52.41721216833719
 20
20.97499986828868
 42
0.0
 10
52.41721216833719
 20
22.72499986828869
 42
0.4142135623730952
 10
51.89221216833721
 20
23.24999986828869
 42
0.0
 10
48.39221216833721
 20
23.24999986828869
 42
0.4142135623731048
 10
45.59221216833714
 20
20.44999986828871
 42
0.0
 10
45.59221216833714
 20
18.63479784293345
 42
0.1989123673796613
 10
46.82236368735369
 20
15.66494936194989
 42
0.0
 10
49.73216166199836
 20
12.75515138730523
 42
-0.1989123673796402
 10
50.14221216833721
 20
11.76520189364415
 42
0.0
 10
50.14221216833721
 20
10.47499986828868
 42
-0.4142135623730911
 10
49.61721216833723
 20
9.949999868288685
 42
0.0
 10
46.64221216833721
 20
9.949999868288685
 42
0.4142135623731526
 10
46.11721216833712
 20
9.424999868288698
 42
0.0
 10
46.11721216833712
 20
7.674999868288676
 42
0.414213562373089
 10
46.6422121683371
 20
7.149999868288688
 42
0.0
 10
50.14221216833721
 20
7.149999868288688
 42
0.4142135623730925
 10
52.94221216833716
 20
9.949999868288664
 42
0.0
 10
52.94221216833716
 20
11.76520189364394
 42
0.1989123673796675
 10
51.71206064932062
 20
14.73505037462759
 42
0.0
 10
48.80226267467606
 20
17.64484834927211
 42
-0.1989123673796653
 10
48.39221216833721
 20
18.63479784293327
 42
0.0
 97
        0
 92
        7
 72
     1
 73
     1
 93
       16
 10
57.84221216833714
 20
22.72499986828868
 42
0.414213562373103
 10
57.31721216833716
 20
23.24999986828869
 42
0.0
 10
55.56721216833716
 20
23.24999986828869
 42
0.4142135623730872
 10
55.04221216833719
 20
22.72499986828871
 42
0.0
 10
55.04221216833719
 20
9.949999868288664
 42
0.4142135623730925
 10
57.84221216833714
 20
7.149999868288688
 42
0.0
 10
61.34221216833714
 20
7.149999868288688
 42
0.4142135623731044
 10
64.14221216833721
 20
9.949999868288664
 42
0.0
 10
64.14221216833721
 20
22.72499986828869
 42
0.4142135623730952
 10
63.61721216833723
 20
23.24999986828869
 42
0.0
 10
61.86721216833712
 20
23.24999986828869
 42
0.4142135623730872
 10
61.34221216833714
 20
22.72499986828871
 42
0.0
 10
61.34221216833714
 20
10.99999986828866
 42
-0.414213562373088
 10
60.29221216833719
 20
9.949999868288685
 42
0.0
 10
58.89221216833721
 20
9.949999868288685
 42
-0.4142135623731197
 10
57.84221216833714
 20
10.99999986828866
 42
0.0
 97
        0
 92
        7
 72
     1
 73
     1
 93
        8
 10
69.04221216833719
 20
22.72499986828871
 42
0.4142135623730872
 10
68.51721216833721
 20
23.24999986828869
 42
0.0
 10
66.76721216833721
 20
23.24999986828869
 42
0.4142135623731506
 10
66.24221216833712
 20
22.72499986828871
 42
0.0
 10
66.24221216833712
 20
7.674999868288676
 42
0.414213562373089
 10
66.7672121683371
 20
7.149999868288688
 42
0.0
 10
68.51721216833721
 20
7.149999868288688
 42
0.414213562373089
 10
69.04221216833719
 20
7.674999868288676
 42
0.0
 97
        0
 75
     0
 76
     1
 52
0.0
 41
0.2
 77
     0
 78
     2
 53
45.0
 43
-900.942304321123
 44
-13.20000013171125
 45
-0.4490128060534576
 46
0.4490128060534577
 79
     0
 53
135.0
 43
-900.942304321123
 44
-13.20000013171125
 45
-0.4490128060534577
 46
-0.4490128060534576
 79
     0
 47
0.057451373970553
 98
        8
 10
16.07985497657933
 20
15.16717351417424
 10
22.40451501999519
 20
18.84406205073969
 10
25.16436789921568
 20
15.5118815143594
 10
30.91405999519316
 20
16.20129751473019
 10
41.83847203251276
 20
16.6609097822718
 10
46.89820090868557
 20
19.41857618469589
 10
56.55768598595637
 20
18.7291577833837
 10
67.82707963317876
 20
19.18877005092531
  0
LINE
  5
3F02
330
1A
100
AcDbEntity
  8
ZUWAKU
100
AcDbLine
 10
24.94221216833716
 20
23.24999986828865
 30
0.0
 11
26.86721216833712
 21
23.24999986828869
 31
0.0
  0
LINE
  5
3F03
330
1A
100
AcDbEntity
  8
ZUWAKU
100
AcDbLine
 10
26.86721216833712
 20
20.44999986828869
 30
0.0
 11
24.94221216833716
 21
20.44999986828869
 31
0.0
  0
LINE
  5
3F04
330
1A
100
AcDbEntity
  8
ZUWAKU
100
AcDbLine
 10
24.94221216833716
 20
9.949999868288685
 30
0.0
 11
26.86721216833712
 21
9.949999868288685
 31
0.0
  0
LINE
  5
3F05
330
1A
100
AcDbEntity
  8
ZUWAKU
100
AcDbLine
 10
26.86721216833712
 20
7.149999868288688
 30
0.0
 11
24.94221216833716
 21
7.149999868288688
 31
0.0
  0
CIRCLE
  5
3F06
330
1A
100
AcDbEntity
  8
ZUWAKU
100
AcDbCircle
 10
25.99221216833712
 20
15.19999986828869
 30
0.0
 40
1.75
  0
ARC
  5
3F07
330
1A
100
AcDbEntity
  8
ZUWAKU
100
AcDbCircle
 10
15.49221216833712
 20
18.63479784293339
 30
0.0
 40
1.4
100
AcDbArc
 50
180.0000000000016
 51
224.9999999999988
  0
LINE
  5
3F08
330
1A
100
AcDbEntity
  8
ZUWAKU
100
AcDbLine
 10
23.54221216833719
 20
19.04999986828869
 30
0.0
 11
23.54221216833719
 21
11.34999986828869
 31
0.0
  0
LINE
  5
3F09
330
1A
100
AcDbEntity
  8
ZUWAKU
100
AcDbLine
 10
20.74221216833712
 20
11.34999986828869
 30
0.0
 11
20.74221216833712
 21
19.04999986828864
 31
0.0
  0
ARC
  5
3F0A
330
1A
100
AcDbEntity
  8
ZUWAKU
100
AcDbCircle
 10
15.49221216833712
 20
18.63479784293339
 30
0.0
 40
4.199999999999999
100
AcDbArc
 50
180.0
 51
225.0
  0
ARC
  5
3F0B
330
1A
100
AcDbEntity
  8
ZUWAKU
100
AcDbCircle
 10
15.84221216833714
 20
9.949999868288685
 30
0.0
 40
2.8
100
AcDbArc
 50
270.0
 51
0.0
  0
ARC
  5
3F0C
330
1A
100
AcDbEntity
  8
ZUWAKU
100
AcDbCircle
 10
24.94221216833716
 20
11.34999986828869
 30
0.0
 40
4.199999999999999
100
AcDbArc
 50
180.0
 51
270.0
  0
ARC
  5
3F0D
330
1A
100
AcDbEntity
  8
ZUWAKU
100
AcDbCircle
 10
14.44221216833716
 20
11.76520189364399
 30
0.0
 40
4.199999999999999
100
AcDbArc
 50
0.0
 51
45.0
  0
LINE
  5
3F0E
330
1A
100
AcDbEntity
  8
ZUWAKU
100
AcDbLine
 10
17.41206064932067
 20
14.73505037462751
 30
0.0
 11
14.50226267467599
 21
17.64484834927219
 31
0.0
  0
LINE
  5
3F0F
330
1A
100
AcDbEntity
  8
ZUWAKU
100
AcDbLine
 10
15.84221216833714
 20
10.47499986828869
 30
0.0
 11
15.84221216833714
 21
11.76520189364403
 31
0.0
  0
ARC
  5
3F10
330
1A
100
AcDbEntity
  8
ZUWAKU
100
AcDbCircle
 10
15.31721216833716
 20
10.47499986828869
 30
0.0
 40
0.5249999999999999
100
AcDbArc
 50
270.0
 51
0.0
  0
ARC
  5
3F11
330
1A
100
AcDbEntity
  8
ZUWAKU
100
AcDbCircle
 10
14.44221216833716
 20
11.76520189364403
 30
0.0
 40
1.4
100
AcDbArc
 50
0.0
 51
45.0
  0
LINE
  5
3F12
330
1A
100
AcDbEntity
  8
ZUWAKU
100
AcDbLine
 10
11.81721216833716
 20
7.674999868288687
 30
0.0
 11
11.81721216833716
 21
9.424999868288687
 31
0.0
  0
ARC
  5
3F13
330
1A
100
AcDbEntity
  8
ZUWAKU
100
AcDbCircle
 10
12.34221216833714
 20
7.674999868288687
 30
0.0
 40
0.5249999999999999
100
AcDbArc
 50
180.0
 51
270.0
  0
ARC
  5
3F14
330
1A
100
AcDbEntity
  8
ZUWAKU
100
AcDbCircle
 10
12.34221216833714
 20
9.424999868288687
 30
0.0
 40
0.5249999999999999
100
AcDbArc
 50
90.0
 51
180.0
  0
LINE
  5
3F15
330
1A
100
AcDbEntity
  8
ZUWAKU
100
AcDbLine
 10
12.34221216833714
 20
7.149999868288688
 30
0.0
 11
15.84221216833714
 21
7.149999868288688
 31
0.0
  0
LINE
  5
3F16
330
1A
100
AcDbEntity
  8
ZUWAKU
100
AcDbLine
 10
12.34221216833714
 20
9.949999868288685
 30
0.0
 11
15.31721216833716
 21
9.949999868288685
 31
0.0
  0
LINE
  5
3F17
330
1A
100
AcDbEntity
  8
ZUWAKU
100
AcDbLine
 10
12.52236368735362
 20
15.66494936194987
 30
0.0
 11
15.43216166199829
 21
12.7551513873052
 31
0.0
  0
LINE
  5
3F18
330
1A
100
AcDbEntity
  8
ZUWAKU
100
AcDbLine
 10
18.64221216833721
 20
9.949999868288685
 30
0.0
 11
18.64221216833721
 21
11.76520189364403
 31
0.0
  0
ARC
  5
3F19
330
1A
100
AcDbEntity
  8
ZUWAKU
100
AcDbCircle
 10
24.94221216833716
 20
11.34999986828869
 30
0.0
 40
1.4
100
AcDbArc
 50
180.0
 51
270.0
  0
ARC
  5
3F1A
330
1A
100
AcDbEntity
  8
ZUWAKU
100
AcDbCircle
 10
17.59221216833714
 20
22.72499986828868
 30
0.0
 40
0.5249999999999999
100
AcDbArc
 50
0.0
 51
90.0
  0
ARC
  5
3F1B
330
1A
100
AcDbEntity
  8
ZUWAKU
100
AcDbCircle
 10
17.59221216833714
 20
20.97499986828868
 30
0.0
 40
0.5249999999999999
100
AcDbArc
 50
270.0
 51
0.0
  0
LINE
  5
3F1C
330
1A
100
AcDbEntity
  8
ZUWAKU
100
AcDbLine
 10
14.09221216833714
 20
23.24999986828869
 30
0.0
 11
17.59221216833714
 21
23.24999986828869
 31
0.0
  0
ARC
  5
3F1D
330
1A
100
AcDbEntity
  8
ZUWAKU
100
AcDbCircle
 10
14.61721216833712
 20
19.92499986828869
 30
0.0
 40
0.5249999999999999
100
AcDbArc
 50
90.0
 51
180.0
  0
LINE
  5
3F1E
330
1A
100
AcDbEntity
  8
ZUWAKU
100
AcDbLine
 10
14.09221216833714
 20
19.92499986828869
 30
0.0
 11
14.09221216833714
 21
18.63479784293335
 31
0.0
  0
LINE
  5
3F1F
330
1A
100
AcDbEntity
  8
ZUWAKU
100
AcDbLine
 10
17.59221216833714
 20
20.44999986828869
 30
0.0
 11
14.61721216833712
 21
20.44999986828869
 31
0.0
  0
LINE
  5
3F20
330
1A
100
AcDbEntity
  8
ZUWAKU
100
AcDbLine
 10
11.29221216833719
 20
20.44999986828869
 30
0.0
 11
11.29221216833719
 21
18.63479784293335
 31
0.0
  0
ARC
  5
3F21
330
1A
100
AcDbEntity
  8
ZUWAKU
100
AcDbCircle
 10
14.09221216833714
 20
20.44999986828869
 30
0.0
 40
2.8
100
AcDbArc
 50
90.0
 51
180.0
  0
LINE
  5
3F22
330
1A
100
AcDbEntity
  8
ZUWAKU
100
AcDbLine
 10
18.11721216833712
 20
22.72499986828868
 30
0.0
 11
18.11721216833712
 21
20.97499986828868
 31
0.0
  0
ARC
  5
3F23
330
1A
100
AcDbEntity
  8
ZUWAKU
100
AcDbCircle
 10
24.94221216833716
 20
19.04999986828869
 30
0.0
 40
1.4
100
AcDbArc
 50
90.0
 51
180.0
  0
ARC
  5
3F24
330
1A
100
AcDbEntity
  8
ZUWAKU
100
AcDbCircle
 10
24.94221216833716
 20
19.04999986828864
 30
0.0
 40
4.199999999999999
100
AcDbArc
 50
90.0
 51
180.0
  0
LINE
  5
3F25
330
1A
100
AcDbEntity
  8
ZUWAKU
100
AcDbLine
 10
79.32662956154422
 20
29.99999986828868
 30
0.0
 11
79.32662956154445
 21
0.7999998682887508
 31
0.0
  0
LINE
  5
3F26
330
1A
100
AcDbEntity
  8
ZUWAKU
100
AcDbLine
 10
79.52662956154427
 20
29.99999986828868
 30
0.0
 11
79.5266295615445
 21
0.7999998682887508
 31
0.0
  0
LINE
  5
3F27
330
1A
100
AcDbEntity
  8
ZUWAKU
100
AcDbLine
 10
79.12662956154441
 20
29.99999986828868
 30
0.0
 11
79.12662956154441
 21
0.7999998682887508
 31
0.0
  0
LINE
  5
3F28
330
1A
100
AcDbEntity
  8
ZUWAKU
100
AcDbLine
 10
64.14221216833721
 20
9.949999868288685
 30
0.0
 11
64.14221216833721
 21
22.72499986828868
 31
0.0
  0
LINE
  5
3F29
330
1A
100
AcDbEntity
  8
ZUWAKU
100
AcDbLine
 10
61.34221216833714
 20
22.72499986828868
 30
0.0
 11
61.34221216833714
 21
10.99999986828868
 31
0.0
  0
LINE
  5
3F2A
330
1A
100
AcDbEntity
  8
ZUWAKU
100
AcDbLine
 10
69.04221216833719
 20
7.674999868288687
 30
0.0
 11
69.04221216833719
 21
22.72499986828868
 31
0.0
  0
LINE
  5
3F2B
330
1A
100
AcDbEntity
  8
ZUWAKU
100
AcDbLine
 10
66.24221216833712
 20
22.72499986828868
 30
0.0
 11
66.24221216833712
 21
7.674999868288687
 31
0.0
  0
ARC
  5
3F2C
330
1A
100
AcDbEntity
  8
ZUWAKU
100
AcDbCircle
 10
49.79221216833719
 20
18.63479784293339
 30
0.0
 40
1.4
100
AcDbArc
 50
180.0000000000016
 51
224.9999999999988
  0
ARC
  5
3F2D
330
1A
100
AcDbEntity
  8
ZUWAKU
100
AcDbCircle
 10
49.79221216833719
 20
18.63479784293339
 30
0.0
 40
4.199999999999999
100
AcDbArc
 50
180.0
 51
225.0
  0
LINE
  5
3F2E
330
1A
100
AcDbEntity
  8
ZUWAKU
100
AcDbLine
 10
37.31485865051513
 20
19.20504706185211
 30
0.0
 11
36.05010690517929
 21
15.19999986828871
 31
0.0
  0
LINE
  5
3F2F
330
1A
100
AcDbEntity
  8
ZUWAKU
100
AcDbLine
 10
40.69221216833716
 20
22.72499986828868
 30
0.0
 11
40.69221216833716
 21
7.674999868288687
 31
0.0
  0
LINE
  5
3F30
330
1A
100
AcDbEntity
  8
ZUWAKU
100
AcDbLine
 10
43.49221216833712
 20
7.674999868288687
 30
0.0
 11
43.49221216833712
 21
22.72499986828868
 31
0.0
  0
LINE
  5
3F31
330
1A
100
AcDbEntity
  8
ZUWAKU
100
AcDbLine
 10
55.04221216833719
 20
22.72499986828868
 30
0.0
 11
55.04221216833719
 21
9.949999868288685
 31
0.0
  0
LINE
  5
3F32
330
1A
100
AcDbEntity
  8
ZUWAKU
100
AcDbLine
 10
57.84221216833714
 20
10.99999986828868
 30
0.0
 11
57.84221216833714
 21
22.72499986828868
 31
0.0
  0
LINE
  5
3F33
330
1A
100
AcDbEntity
  8
ZUWAKU
100
AcDbLine
 10
32.64221216833721
 20
17.12499986828869
 30
0.0
 11
32.64221216833721
 21
22.72499986828868
 31
0.0
  0
LINE
  5
3F34
330
1A
100
AcDbEntity
  8
ZUWAKU
100
AcDbLine
 10
29.84221216833714
 20
22.72499986828868
 30
0.0
 11
29.84221216833714
 21
7.674999868288687
 31
0.0
  0
LINE
  5
3F35
330
1A
100
AcDbEntity
  8
ZUWAKU
100
AcDbLine
 10
35.67634710565301
 20
22.88309383645566
 30
0.0
 11
33.80807723102123
 21
16.96690590012172
 31
0.0
  0
LINE
  5
3F36
330
1A
100
AcDbEntity
  8
ZUWAKU
100
AcDbLine
 10
60.29221216833719
 20
9.949999868288685
 30
0.0
 11
58.89221216833721
 21
9.949999868288685
 31
0.0
  0
LINE
  5
3F37
330
1A
100
AcDbEntity
  8
ZUWAKU
100
AcDbLine
 10
57.84221216833714
 20
7.149999868288688
 30
0.0
 11
61.34221216833714
 21
7.149999868288688
 31
0.0
  0
LINE
  5
3F38
330
1A
100
AcDbEntity
  8
ZUWAKU
100
AcDbLine
 10
41.21721216833714
 20
7.149999868288688
 30
0.0
 11
42.96721216833714
 21
7.149999868288688
 31
0.0
  0
LINE
  5
3F39
330
1A
100
AcDbEntity
  8
ZUWAKU
100
AcDbLine
 10
35.67634710565301
 20
7.516905900121714
 30
0.0
 11
33.80807723102123
 21
13.43309383645565
 31
0.0
  0
ARC
  5
3F3A
330
1A
100
AcDbEntity
  8
ZUWAKU
100
AcDbCircle
 10
33.30744633182587
 20
17.12499986828869
 30
0.0
 40
0.5249999999999999
100
AcDbArc
 50
270.0
 51
342.474431626277
  0
LINE
  5
3F3B
330
1A
100
AcDbEntity
  8
ZUWAKU
100
AcDbLine
 10
33.30744633182587
 20
16.59999986828868
 30
0.0
 11
33.16721216833719
 21
16.59999986828868
 31
0.0
  0
LINE
  5
3F3C
330
1A
100
AcDbEntity
  8
ZUWAKU
100
AcDbLine
 10
33.16721216833719
 20
13.79999986828869
 30
0.0
 11
33.30744633182587
 21
13.79999986828869
 31
0.0
  0
ARC
  5
3F3D
330
1A
100
AcDbEntity
  8
ZUWAKU
100
AcDbCircle
 10
33.16721216833719
 20
17.12499986828869
 30
0.0
 40
0.5249999999999999
100
AcDbArc
 50
180.0
 51
270.0
  0
LINE
  5
3F3E
330
1A
100
AcDbEntity
  8
ZUWAKU
100
AcDbLine
 10
30.36721216833712
 20
7.149999868288688
 30
0.0
 11
32.11721216833712
 21
7.149999868288688
 31
0.0
  0
ARC
  5
3F3F
330
1A
100
AcDbEntity
  8
ZUWAKU
100
AcDbCircle
 10
32.11721216833712
 20
7.674999868288687
 30
0.0
 40
0.5249999999999999
100
AcDbArc
 50
270.0
 51
0.0
  0
LINE
  5
3F40
330
1A
100
AcDbEntity
  8
ZUWAKU
100
AcDbLine
 10
32.64221216833721
 20
7.674999868288687
 30
0.0
 11
32.64221216833721
 21
13.27499986828869
 31
0.0
  0
LINE
  5
3F41
330
1A
100
AcDbEntity
  8
ZUWAKU
100
AcDbLine
 10
27.39221216833721
 20
9.424999868288687
 30
0.0
 11
27.39221216833721
 21
7.674999868288687
 31
0.0
  0
ARC
  5
3F42
330
1A
100
AcDbEntity
  8
ZUWAKU
100
AcDbCircle
 10
26.86721216833712
 20
7.674999868288687
 30
0.0
 40
0.5249999999999999
100
AcDbArc
 50
270.0
 51
0.0
  0
ARC
  5
3F43
330
1A
100
AcDbEntity
  8
ZUWAKU
100
AcDbCircle
 10
26.86721216833712
 20
9.424999868288687
 30
0.0
 40
0.5249999999999999
100
AcDbArc
 50
0.0
 51
90.0
  0
ARC
  5
3F44
330
1A
100
AcDbEntity
  8
ZUWAKU
100
AcDbCircle
 10
30.36721216833712
 20
7.674999868288687
 30
0.0
 40
0.5249999999999999
100
AcDbArc
 50
180.0
 51
270.0
  0
ARC
  5
3F45
330
1A
100
AcDbEntity
  8
ZUWAKU
100
AcDbCircle
 10
33.30744633182587
 20
13.27499986828869
 30
0.0
 40
0.5249999999999999
100
AcDbArc
 50
17.52556837372303
 51
90.0
  0
ARC
  5
3F46
330
1A
100
AcDbEntity
  8
ZUWAKU
100
AcDbCircle
 10
33.16721216833719
 20
13.27499986828869
 30
0.0
 40
0.5249999999999999
100
AcDbArc
 50
90.0
 51
180.0
  0
ARC
  5
3F47
330
1A
100
AcDbEntity
  8
ZUWAKU
100
AcDbCircle
 10
41.21721216833714
 20
7.674999868288687
 30
0.0
 40
0.5249999999999999
100
AcDbArc
 50
180.0
 51
270.0
  0
LINE
  5
3F48
330
1A
100
AcDbEntity
  8
ZUWAKU
100
AcDbLine
 10
36.17697800484848
 20
7.149999868288688
 30
0.0
 11
37.87586738445748
 21
7.149999868288688
 31
0.0
  0
ARC
  5
3F49
330
1A
100
AcDbEntity
  8
ZUWAKU
100
AcDbCircle
 10
37.87586738445748
 20
7.674999868288687
 30
0.0
 40
0.5249999999999999
100
AcDbArc
 50
270.0
 51
17.52556837372303
  0
LINE
  5
3F4A
330
1A
100
AcDbEntity
  8
ZUWAKU
100
AcDbLine
 10
38.37649828365295
 20
7.83309383645566
 30
0.0
 11
36.05010690517929
 21
15.19999986828871
 31
0.0
  0
ARC
  5
3F4B
330
1A
100
AcDbEntity
  8
ZUWAKU
100
AcDbCircle
 10
36.17697800484848
 20
7.674999868288687
 30
0.0
 40
0.5249999999999999
100
AcDbArc
 50
197.525568373723
 51
270.0
  0
ARC
  5
3F4C
330
1A
100
AcDbEntity
  8
ZUWAKU
100
AcDbCircle
 10
57.84221216833714
 20
9.949999868288685
 30
0.0
 40
2.8
100
AcDbArc
 50
180.0
 51
270.0
  0
ARC
  5
3F4D
330
1A
100
AcDbEntity
  8
ZUWAKU
100
AcDbCircle
 10
50.14221216833721
 20
9.949999868288685
 30
0.0
 40
2.8
100
AcDbArc
 50
270.0
 51
0.0
  0
LINE
  5
3F4E
330
1A
100
AcDbEntity
  8
ZUWAKU
100
AcDbLine
 10
51.71206064932073
 20
14.73505037462751
 30
0.0
 11
48.80226267467594
 21
17.64484834927219
 31
0.0
  0
LINE
  5
3F4F
330
1A
100
AcDbEntity
  8
ZUWAKU
100
AcDbLine
 10
50.14221216833721
 20
10.47499986828869
 30
0.0
 11
50.14221216833721
 21
11.76520189364403
 31
0.0
  0
ARC
  5
3F50
330
1A
100
AcDbEntity
  8
ZUWAKU
100
AcDbCircle
 10
48.74221216833712
 20
11.76520189364403
 30
0.0
 40
1.4
100
AcDbArc
 50
0.0
 51
45.0
  0
ARC
  5
3F51
330
1A
100
AcDbEntity
  8
ZUWAKU
100
AcDbCircle
 10
49.61721216833712
 20
10.47499986828869
 30
0.0
 40
0.5249999999999999
100
AcDbArc
 50
270.0
 51
0.0
  0
LINE
  5
3F52
330
1A
100
AcDbEntity
  8
ZUWAKU
100
AcDbLine
 10
46.11721216833712
 20
7.674999868288687
 30
0.0
 11
46.11721216833712
 21
9.424999868288687
 31
0.0
  0
ARC
  5
3F53
330
1A
100
AcDbEntity
  8
ZUWAKU
100
AcDbCircle
 10
46.64221216833721
 20
7.674999868288687
 30
0.0
 40
0.5249999999999999
100
AcDbArc
 50
180.0
 51
270.0
  0
ARC
  5
3F54
330
1A
100
AcDbEntity
  8
ZUWAKU
100
AcDbCircle
 10
42.96721216833714
 20
7.674999868288687
 30
0.0
 40
0.5249999999999999
100
AcDbArc
 50
270.0
 51
0.0
  0
ARC
  5
3F55
330
1A
100
AcDbEntity
  8
ZUWAKU
100
AcDbCircle
 10
46.64221216833721
 20
9.424999868288687
 30
0.0
 40
0.5249999999999999
100
AcDbArc
 50
90.0
 51
180.0
  0
LINE
  5
3F56
330
1A
100
AcDbEntity
  8
ZUWAKU
100
AcDbLine
 10
46.64221216833721
 20
9.949999868288685
 30
0.0
 11
49.61721216833712
 21
9.949999868288685
 31
0.0
  0
LINE
  5
3F57
330
1A
100
AcDbEntity
  8
ZUWAKU
100
AcDbLine
 10
46.64221216833721
 20
7.149999868288688
 30
0.0
 11
50.14221216833721
 21
7.149999868288688
 31
0.0
  0
LINE
  5
3F58
330
1A
100
AcDbEntity
  8
ZUWAKU
100
AcDbLine
 10
46.82236368735369
 20
15.66494936194987
 30
0.0
 11
49.73216166199836
 21
12.7551513873052
 31
0.0
  0
LINE
  5
3F59
330
1A
100
AcDbEntity
  8
ZUWAKU
100
AcDbLine
 10
52.94221216833716
 20
9.949999868288685
 30
0.0
 11
52.94221216833716
 21
11.76520189364403
 31
0.0
  0
ARC
  5
3F5A
330
1A
100
AcDbEntity
  8
ZUWAKU
100
AcDbCircle
 10
48.74221216833712
 20
11.76520189364399
 30
0.0
 40
4.199999999999999
100
AcDbArc
 50
0.0
 51
45.0
  0
ARC
  5
3F5B
330
1A
100
AcDbEntity
  8
ZUWAKU
100
AcDbCircle
 10
58.89221216833721
 20
10.99999986828868
 30
0.0
 40
1.05
100
AcDbArc
 50
180.0
 51
270.0
  0
ARC
  5
3F5C
330
1A
100
AcDbEntity
  8
ZUWAKU
100
AcDbCircle
 10
61.34221216833714
 20
9.949999868288685
 30
0.0
 40
2.8
100
AcDbArc
 50
270.0
 51
0.0
  0
LINE
  5
3F5D
330
1A
100
AcDbEntity
  8
ZUWAKU
100
AcDbLine
 10
66.76721216833721
 20
7.149999868288688
 30
0.0
 11
68.51721216833721
 21
7.149999868288688
 31
0.0
  0
ARC
  5
3F5E
330
1A
100
AcDbEntity
  8
ZUWAKU
100
AcDbCircle
 10
66.76721216833721
 20
7.674999868288687
 30
0.0
 40
0.5249999999999999
100
AcDbArc
 50
180.0
 51
270.0
  0
ARC
  5
3F5F
330
1A
100
AcDbEntity
  8
ZUWAKU
100
AcDbCircle
 10
60.29221216833719
 20
10.99999986828868
 30
0.0
 40
1.05
100
AcDbArc
 50
270.0
 51
0.0
  0
ARC
  5
3F60
330
1A
100
AcDbEntity
  8
ZUWAKU
100
AcDbCircle
 10
68.51721216833721
 20
7.674999868288687
 30
0.0
 40
0.5249999999999999
100
AcDbArc
 50
270.0
 51
0.0
  0
LINE
  5
3F61
330
1A
100
AcDbEntity
  8
ZUWAKU
100
AcDbLine
 10
42.96721216833714
 20
23.24999986828869
 30
0.0
 11
41.21721216833714
 21
23.24999986828869
 31
0.0
  0
ARC
  5
3F62
330
1A
100
AcDbEntity
  8
ZUWAKU
100
AcDbCircle
 10
32.11721216833712
 20
22.72499986828868
 30
0.0
 40
0.5249999999999999
100
AcDbArc
 50
0.0
 51
90.0
  0
LINE
  5
3F63
330
1A
100
AcDbEntity
  8
ZUWAKU
100
AcDbLine
 10
32.11721216833712
 20
23.24999986828869
 30
0.0
 11
30.36721216833712
 21
23.24999986828869
 31
0.0
  0
ARC
  5
3F64
330
1A
100
AcDbEntity
  8
ZUWAKU
100
AcDbCircle
 10
26.86721216833712
 20
22.72499986828868
 30
0.0
 40
0.5249999999999999
100
AcDbArc
 50
0.0
 51
90.0
  0
ARC
  5
3F65
330
1A
100
AcDbEntity
  8
ZUWAKU
100
AcDbCircle
 10
30.36721216833712
 20
22.72499986828868
 30
0.0
 40
0.5249999999999999
100
AcDbArc
 50
90.0
 51
180.0
  0
ARC
  5
3F66
330
1A
100
AcDbEntity
  8
ZUWAKU
100
AcDbCircle
 10
26.86721216833712
 20
20.97499986828868
 30
0.0
 40
0.5249999999999999
100
AcDbArc
 50
270.0
 51
0.0
  0
LINE
  5
3F67
330
1A
100
AcDbEntity
  8
ZUWAKU
100
AcDbLine
 10
27.39221216833721
 20
22.72499986828868
 30
0.0
 11
27.39221216833721
 21
20.97499986828868
 31
0.0
  0
ARC
  5
3F68
330
1A
100
AcDbEntity
  8
ZUWAKU
100
AcDbCircle
 10
41.21721216833714
 20
22.72499986828868
 30
0.0
 40
0.5249999999999999
100
AcDbArc
 50
90.0
 51
180.0
  0
LINE
  5
3F69
330
1A
100
AcDbEntity
  8
ZUWAKU
100
AcDbLine
 10
36.17697800484848
 20
23.24999986828869
 30
0.0
 11
37.87586738445748
 21
23.24999986828869
 31
0.0
  0
ARC
  5
3F6A
330
1A
100
AcDbEntity
  8
ZUWAKU
100
AcDbCircle
 10
37.87586738445748
 20
22.72499986828868
 30
0.0
 40
0.5249999999999999
100
AcDbArc
 50
342.474431626277
 51
90.0
  0
LINE
  5
3F6B
330
1A
100
AcDbEntity
  8
ZUWAKU
100
AcDbLine
 10
38.37649828365295
 20
22.56690590012172
 30
0.0
 11
37.31485865051513
 21
19.20504706185211
 31
0.0
  0
ARC
  5
3F6C
330
1A
100
AcDbEntity
  8
ZUWAKU
100
AcDbCircle
 10
36.17697800484848
 20
22.72499986828868
 30
0.0
 40
0.5249999999999999
100
AcDbArc
 50
90.0
 51
162.474431626277
  0
LINE
  5
3F6D
330
1A
100
AcDbEntity
  8
ZUWAKU
100
AcDbLine
 10
48.39221216833721
 20
23.24999986828869
 30
0.0
 11
51.89221216833721
 21
23.24999986828869
 31
0.0
  0
LINE
  5
3F6E
330
1A
100
AcDbEntity
  8
ZUWAKU
100
AcDbLine
 10
51.89221216833721
 20
20.44999986828869
 30
0.0
 11
48.91721216833719
 21
20.44999986828869
 31
0.0
  0
ARC
  5
3F6F
330
1A
100
AcDbEntity
  8
ZUWAKU
100
AcDbCircle
 10
48.91721216833719
 20
19.92499986828869
 30
0.0
 40
0.5249999999999999
100
AcDbArc
 50
90.0
 51
180.0
  0
LINE
  5
3F70
330
1A
100
AcDbEntity
  8
ZUWAKU
100
AcDbLine
 10
48.39221216833721
 20
19.92499986828869
 30
0.0
 11
48.39221216833721
 21
18.63479784293335
 31
0.0
  0
ARC
  5
3F71
330
1A
100
AcDbEntity
  8
ZUWAKU
100
AcDbCircle
 10
42.96721216833714
 20
22.72499986828868
 30
0.0
 40
0.5249999999999999
100
AcDbArc
 50
0.0
 51
90.0
  0
LINE
  5
3F72
330
1A
100
AcDbEntity
  8
ZUWAKU
100
AcDbLine
 10
45.59221216833714
 20
20.44999986828869
 30
0.0
 11
45.59221216833714
 21
18.63479784293335
 31
0.0
  0
ARC
  5
3F73
330
1A
100
AcDbEntity
  8
ZUWAKU
100
AcDbCircle
 10
48.39221216833721
 20
20.44999986828869
 30
0.0
 40
2.8
100
AcDbArc
 50
90.0
 51
180.0
  0
ARC
  5
3F74
330
1A
100
AcDbEntity
  8
ZUWAKU
100
AcDbCircle
 10
57.31721216833716
 20
22.72499986828868
 30
0.0
 40
0.5249999999999999
100
AcDbArc
 50
0.0
 51
90.0
  0
ARC
  5
3F75
330
1A
100
AcDbEntity
  8
ZUWAKU
100
AcDbCircle
 10
55.56721216833716
 20
22.72499986828868
 30
0.0
 40
0.5249999999999999
100
AcDbArc
 50
90.0
 51
180.0
  0
LINE
  5
3F76
330
1A
100
AcDbEntity
  8
ZUWAKU
100
AcDbLine
 10
57.31721216833716
 20
23.24999986828869
 30
0.0
 11
55.56721216833716
 21
23.24999986828869
 31
0.0
  0
ARC
  5
3F77
330
1A
100
AcDbEntity
  8
ZUWAKU
100
AcDbCircle
 10
51.89221216833721
 20
22.72499986828868
 30
0.0
 40
0.5249999999999999
100
AcDbArc
 50
0.0
 51
90.0
  0
ARC
  5
3F78
330
1A
100
AcDbEntity
  8
ZUWAKU
100
AcDbCircle
 10
51.89221216833721
 20
20.97499986828868
 30
0.0
 40
0.5249999999999999
100
AcDbArc
 50
270.0
 51
0.0
  0
LINE
  5
3F79
330
1A
100
AcDbEntity
  8
ZUWAKU
100
AcDbLine
 10
52.41721216833719
 20
22.72499986828868
 30
0.0
 11
52.41721216833719
 21
20.97499986828868
 31
0.0
  0
LINE
  5
3F7A
330
1A
100
AcDbEntity
  8
ZUWAKU
100
AcDbLine
 10
68.51721216833721
 20
23.24999986828869
 30
0.0
 11
66.76721216833721
 21
23.24999986828869
 31
0.0
  0
ARC
  5
3F7B
330
1A
100
AcDbEntity
  8
ZUWAKU
100
AcDbCircle
 10
66.76721216833721
 20
22.72499986828868
 30
0.0
 40
0.5249999999999999
100
AcDbArc
 50
90.0
 51
180.0
  0
ARC
  5
3F7C
330
1A
100
AcDbEntity
  8
ZUWAKU
100
AcDbCircle
 10
63.61721216833712
 20
22.72499986828868
 30
0.0
 40
0.5249999999999999
100
AcDbArc
 50
0.0
 51
90.0
  0
LINE
  5
3F7D
330
1A
100
AcDbEntity
  8
ZUWAKU
100
AcDbLine
 10
63.61721216833712
 20
23.24999986828869
 30
0.0
 11
61.86721216833712
 21
23.24999986828869
 31
0.0
  0
ARC
  5
3F7E
330
1A
100
AcDbEntity
  8
ZUWAKU
100
AcDbCircle
 10
61.86721216833712
 20
22.72499986828868
 30
0.0
 40
0.5249999999999999
100
AcDbArc
 50
90.0
 51
180.0
  0
ARC
  5
3F7F
330
1A
100
AcDbEntity
  8
ZUWAKU
100
AcDbCircle
 10
68.51721216833721
 20
22.72499986828868
 30
0.0
 40
0.5249999999999999
100
AcDbArc
 50
0.0
 51
90.0
  0
TEXT
  5
3F80
330
1A
100
AcDbEntity
  8
moji
100
AcDbText
 10
239.8272026944071
 20
18.00492092569607
 30
0.0
 40
5.6
  1
ステンレス金具上打Ⅰ型
 41
0.9
  7
ｽﾀｲﾙ1
100
AcDbText
  0
TEXT
  5
3F81
330
1A
100
AcDbEntity
  8
moji
100
AcDbText
 10
239.8272026944071
 20
3.204920925696104
 30
0.0
 40
5.6
  1
Σ９０－Ⅰ－３.０
 41
0.9
  7
ｽﾀｲﾙ1
100
AcDbText
  0
LINE
  5
3F82
330
1A
100
AcDbEntity
  8
ZUWAKU
100
AcDbLine
 10
208.246601303624
 20
29.99999986828868
 30
0.0
 11
208.246601303624
 21
0.7999998682887508
 31
0.0
  0
LINE
  5
3F83
330
1A
100
AcDbEntity
  8
ZUWAKU
100
AcDbLine
 10
208.6466013036238
 20
29.99999986828868
 30
0.0
 11
208.646601303624
 21
0.7999998682887508
 31
0.0
  0
LINE
  5
3F84
330
1A
100
AcDbEntity
  8
ZUWAKU
100
AcDbLine
 10
208.4466013036238
 20
29.99999986828868
 30
0.0
 11
208.446601303624
 21
0.7999998682887508
 31
0.0
  0
TEXT
  5
3F85
330
1A
100
AcDbEntity
  8
ZUWAKU
100
AcDbText
 10
209.7240463258336
 20
9.655356406674301
 30
0.0
 40
4.0
  1
サイズ
 41
0.9
  7
ｽﾀｲﾙ1
100
AcDbText
  0
TEXT
  5
3F86
330
1A
100
AcDbEntity
  8
ZUWAKU
100
AcDbText
 10
209.7240463258333
 20
24.05535640667426
 30
0.0
 40
4.0
  1
品名
 41
0.9
  7
ｽﾀｲﾙ1
100
AcDbText
  0
LINE
  5
3F87
330
1A
100
AcDbEntity
  8
ZUWAKU
100
AcDbLine
 10
648.8172025237602
 20
15.19999986828871
 30
0.0
 11
697.2490105620973
 21
15.19999986828872
 31
0.0
  0
LINE
  5
3F88
330
1A
100
AcDbEntity
  8
ZUWAKU
100
AcDbLine
 10
648.8172025237604
 20
15.39999986828872
 30
0.0
 11
697.2490105620973
 21
15.39999986828872
 31
0.0
  0
LINE
  5
3F89
330
1A
100
AcDbEntity
  8
ZUWAKU
100
AcDbLine
 10
648.8172025237602
 20
15.59999986828872
 30
0.0
 11
697.2490105620973
 21
15.59999986828872
 31
0.0
  0
TEXT
  5
3F8A
330
1A
100
AcDbEntity
  8
ZUWAKU
100
AcDbText
 10
658.2039377008584
 20
18.00492092569607
 30
0.0
 40
5.6
  1
　　．　　．　　
 41
0.9
  7
ｽﾀｲﾙ1
100
AcDbText
  0
LINE
  5
3F8B
330
1A
100
AcDbEntity
  8
ZUWAKU
100
AcDbLine
 10
505.1991795116969
 20
15.19999986828872
 30
0.0
 11
552.5269557796685
 21
15.19999986828872
 31
0.0
  0
LINE
  5
3F8C
330
1A
100
AcDbEntity
  8
ZUWAKU
100
AcDbLine
 10
505.1991795116969
 20
15.39999986828872
 30
0.0
 11
552.5269557796685
 21
15.39999986828872
 31
0.0
  0
LINE
  5
3F8D
330
1A
100
AcDbEntity
  8
ZUWAKU
100
AcDbLine
 10
505.1991795116969
 20
15.59999986828872
 30
0.0
 11
552.5269557796685
 21
15.59999986828872
 31
0.0
  0
TEXT
  5
3F8E
330
1A
100
AcDbEntity
  8
moji
100
AcDbText
 10
463.2464320045581
 20
11.94261758994867
 30
0.0
 40
5.6
  1
ＬＧ３７□
 41
0.9
  7
ｽﾀｲﾙ1
100
AcDbText
  0
LINE
  5
3F8F
330
1A
100
AcDbEntity
  8
ZUWAKU
100
AcDbLine
 10
447.6243639845472
 20
29.99999986828868
 30
0.0
 11
447.6243639845475
 21
0.7999998682887508
 31
0.0
  0
LINE
  5
3F90
330
1A
100
AcDbEntity
  8
ZUWAKU
100
AcDbLine
 10
447.8243639845473
 20
29.99999986828868
 30
0.0
 11
447.8243639845475
 21
0.7999998682887508
 31
0.0
  0
LINE
  5
3F91
330
1A
100
AcDbEntity
  8
ZUWAKU
100
AcDbLine
 10
447.4243639845474
 20
29.99999986828868
 30
0.0
 11
447.4243639845474
 21
0.7999998682887508
 31
0.0
  0
TEXT
  5
3F92
330
1A
100
AcDbEntity
  8
moji
100
AcDbText
 10
528.0409079858689
 20
18.00492092569607
 30
0.0
 40
5.6
  1
Ａ３
 41
0.9
  7
ｽﾀｲﾙ1
100
AcDbText
  0
LINE
  5
3F93
330
1A
100
AcDbEntity
  8
ZUWAKU
100
AcDbLine
 10
504.9991795116969
 20
29.99999986828868
 30
0.0
 11
504.9991795116971
 21
0.7999998682887508
 31
0.0
  0
LINE
  5
3F94
330
1A
100
AcDbEntity
  8
ZUWAKU
100
AcDbLine
 10
505.1991795116969
 20
29.99999986828868
 30
0.0
 11
505.1991795116971
 21
0.7999998682887508
 31
0.0
  0
LINE
  5
3F95
330
1A
100
AcDbEntity
  8
ZUWAKU
100
AcDbLine
 10
504.7991795116971
 20
29.99999986828868
 30
0.0
 11
504.7991795116971
 21
0.7999998682887508
 31
0.0
  0
TEXT
  5
3F97
330
1A
100
AcDbEntity
  8
ZUWAKU
100
AcDbText
 10
506.6766245339068
 20
9.655356406674301
 30
0.0
 40
4.0
  1
縮尺
 41
0.9
  7
ｽﾀｲﾙ1
100
AcDbText
  0
TEXT
  5
3F98
330
1A
100
AcDbEntity
  8
moji
100
AcDbText
 10
528.0409079858689
 20
3.204920925696104
 30
0.0
 40
5.6
  1
１/２
 41
0.9
  7
ｽﾀｲﾙ1
100
AcDbText
  0
TEXT
  5
3F99
330
1A
100
AcDbEntity
  8
ZUWAKU
100
AcDbText
 10
449.3018090067569
 20
24.05535640667426
 30
0.0
 40
4.0
  1
品番
 41
0.9
  7
ｽﾀｲﾙ1
100
AcDbText
  0
TEXT
  5
3F9A
330
1A
100
AcDbEntity
  8
ZUWAKU
100
AcDbText
 10
506.6766245339065
 20
24.05535640667426
 30
0.0
 40
4.0
  1
用紙
 41
0.9
  7
ｽﾀｲﾙ1
100
AcDbText
  0
LINE
  5
3F9B
330
1A
100
AcDbEntity
  8
ZUWAKU
100
AcDbLine
 10
648.6172025237604
 20
29.99999986828868
 30
0.0
 11
648.6172025237606
 21
0.7999998682887508
 31
0.0
  0
LINE
  5
3F9C
330
1A
100
AcDbEntity
  8
ZUWAKU
100
AcDbLine
 10
648.8172025237604
 20
29.99999986828868
 30
0.0
 11
648.8172025237607
 21
0.7999998682887508
 31
0.0
  0
LINE
  5
3F9D
330
1A
100
AcDbEntity
  8
ZUWAKU
100
AcDbLine
 10
648.4172025237606
 20
29.99999986828868
 30
0.0
 11
648.4172025237606
 21
0.7999998682887508
 31
0.0
  0
LINE
  5
3F9E
330
1A
100
AcDbEntity
  8
ZUWAKU
100
AcDbLine
 10
552.7269557796683
 20
29.99999986828868
 30
0.0
 11
552.7269557796685
 21
0.7999998682887508
 31
0.0
  0
LINE
  5
3F9F
330
1A
100
AcDbEntity
  8
ZUWAKU
100
AcDbLine
 10
552.9269557796683
 20
29.99999986828868
 30
0.0
 11
552.9269557796686
 21
0.7999998682887508
 31
0.0
  0
LINE
  5
3FA0
330
1A
100
AcDbEntity
  8
ZUWAKU
100
AcDbLine
 10
552.5269557796685
 20
29.99999986828868
 30
0.0
 11
552.5269557796685
 21
0.7999998682887508
 31
0.0
  0
TEXT
  5
3FA1
330
1A
100
AcDbEntity
  8
ZUWAKU
100
AcDbText
 10
650.2946475459701
 20
24.05535640667426
 30
0.0
 40
4.0
  1
DATE
 41
0.9
  7
ｽﾀｲﾙ1
100
AcDbText
  0
LINE
  5
3FA2
330
1A
100
AcDbEntity
  8
ZUWAKU
100
AcDbLine
 10
697.2490105620973
 20
29.99999986828868
 30
0.0
 11
697.2490105620973
 21
0.7999998682887508
 31
0.0
  0
LINE
  5
3FA3
330
1A
100
AcDbEntity
  8
ZUWAKU
100
AcDbLine
 10
697.4490105620973
 20
29.99999986828868
 30
0.0
 11
697.4490105620973
 21
0.7999998682887508
 31
0.0
  0
LINE
  5
3FA4
330
1A
100
AcDbEntity
  8
ZUWAKU
100
AcDbLine
 10
697.6490105620972
 20
29.99999986828868
 30
0.0
 11
697.6490105620974
 21
0.7999998682887508
 31
0.0
  0
LINE
  5
3FA5
330
1A
100
AcDbEntity
  8
ZUWAKU
100
AcDbLine
 10
697.8490105620972
 20
29.99999986828868
 30
0.0
 11
697.8490105620974
 21
0.7999998682887508
 31
0.0
  0
TEXT
  5
3FA6
330
1A
100
AcDbEntity
  8
ZUWAKU
100
AcDbText
 10
708.5280842057998
 20
17.55383920397549
 30
0.0
 40
6.0
  1
積水化学工業株式会社
 41
0.9
  7
ｽﾀｲﾙ1
100
AcDbText
  0
TEXT
  5
3FA7
330
1A
100
AcDbEntity
  8
ZUWAKU
100
AcDbText
 10
708.5280842057998
 20
6.648840182142749
 30
0.0
 40
6.0
  1
建材事業部
 41
0.9
  7
ｽﾀｲﾙ1
100
AcDbText
  0
TEXT
  5
6DB4
330
1A
100
AcDbEntity
  8
ZUWAKU
100
AcDbText
 10
462.1716760137121
 20
2.614070779428175
 30
0.0
 40
3.0
  1
□には色品番が入ります
 41
0.9
  7
ｽﾀｲﾙ1
100
AcDbText
  0
LINE
  5
8C10
330
1A
100
AcDbEntity
  8
SEIHIN
  6
Continuous
 62
     3
 48
5.0
100
AcDbLine
 10
427.9931036190604
 20
488.0956970773614
 30
0.0
 11
354.9727036190602
 21
488.0956970773614
 31
0.0
  0
LINE
  5
8C11
330
1A
100
AcDbEntity
  8
SEIHIN
  6
Continuous
 62
     3
 48
5.0
100
AcDbLine
 10
427.9931036190604
 20
480.0956970773614
 30
0.0
 11
354.8483036190604
 21
480.0956970773614
 31
0.0
  0
LINE
  5
8C12
330
1A
100
AcDbEntity
  8
SEIHIN
  6
Continuous
 62
     3
 48
5.0
100
AcDbLine
 10
428.3936036190604
 20
96.88561759579795
 30
0.0
 11
395.9366036190604
 21
96.88561759579795
 31
0.0
  0
LINE
  5
8C13
330
1A
100
AcDbEntity
  8
SEIHIN
  6
Continuous
 62
     3
 48
5.0
100
AcDbLine
 10
343.3027036190604
 20
96.88561759579795
 30
0.0
 11
432.3936036190604
 21
96.88561759579795
 31
0.0
  0
LINE
  5
8C14
330
1A
100
AcDbEntity
  8
SEIHIN
  6
Continuous
 62
     3
 48
5.0
100
AcDbLine
 10
432.3936036190604
 20
94.88561759579795
 30
0.0
 11
343.3027036190604
 21
94.88561759579795
 31
0.0
  0
LINE
  5
8C15
330
1A
100
AcDbEntity
  8
SEIHIN
  6
Continuous
 62
     3
 48
5.0
100
AcDbLine
 10
370.8681036190604
 20
92.38561759579807
 30
0.0
 11
432.4198036190604
 21
92.38561759579807
 31
0.0
  0
DIMENSION
  5
8C16
330
1A
100
AcDbEntity
  8
SUNPOU
100
AcDbDimension
  2
*D1
 10
434.7660496462392
 20
56.69233558143299
 30
0.0
 11
387.9477397179196
 21
61.69233558143299
 31
0.0
 70
    32
 71
     5
 42
93.6366198566393
  3
STANDARD
100
AcDbAlignedDimension
 13
341.1294297895999
 23
94.88561759579795
 33
0.0
 14
434.7660496462392
 24
94.88561759579795
 34
0.0
100
AcDbRotatedDimension
1001
ACAD
1000
DSTYLE
1002
{
1070
   140
1040
6.0
1070
    74
1070
     0
1070
   172
1070
     1
1070
    73
1070
     0
1070
   272
1070
     2
1070
    77
1070
     3
1070
   173
1070
     1
1070
   147
1040
2.0
1070
    42
1040
6.0
1070
    44
1040
3.0
1070
    43
1040
14.0
1070
   271
1070
     0
1070
   178
1070
     4
1070
   177
1070
     4
1070
   176
1070
     4
1070
   141
1040
150.0
1070
     7
1000
_OPEN
1070
     6
1000
_OPEN
1070
    41
1040
7.0
1002
}
  0
LINE
  5
8C17
330
1A
100
AcDbEntity
  8
SEIHIN
  6
Continuous
 62
     3
 48
5.0
100
AcDbLine
 10
307.5101036190604
 20
493.5956970773614
 30
0.0
 11
602.4998036190603
 21
493.5956970773614
 31
0.0
  0
LINE
  5
8C18
330
1A
100
AcDbEntity
  8
SEIHIN
  6
Continuous
 62
     3
 48
5.0
100
AcDbLine
 10
602.4998036190603
 20
474.5956970773613
 30
0.0
 11
307.5101036190604
 21
474.5956970773613
 31
0.0
  0
LINE
  5
8C19
330
1A
100
AcDbEntity
  8
CENTER L
  6
CENTER
 62
     1
 48
5.0
100
AcDbLine
 10
611.5944036190605
 20
484.0956970773614
 30
0.0
 11
294.4900036190604
 21
484.0956970773614
 31
0.0
  0
DIMENSION
  5
8C1A
330
1A
100
AcDbEntity
  8
SUNPOU
100
AcDbDimension
  2
*D2
 10
446.7481536190603
 20
204.6550306033872
 30
0.0
 11
377.1390786190603
 21
209.6550306033872
 31
0.0
 70
    32
 71
     5
 42
139.2181499999999
  3
STANDARD
100
AcDbAlignedDimension
 13
307.5300036190604
 23
176.4418175957981
 33
0.0
 14
446.7481536190603
 24
195.392317595798
 34
0.0
100
AcDbRotatedDimension
1001
ACAD
1000
DSTYLE
1002
{
1070
   140
1040
6.0
1070
    74
1070
     0
1070
   172
1070
     1
1070
    73
1070
     0
1070
   272
1070
     2
1070
    77
1070
     3
1070
   173
1070
     1
1070
   147
1040
2.0
1070
    42
1040
6.0
1070
    44
1040
3.0
1070
    43
1040
14.0
1070
   271
1070
     0
1070
   178
1070
     4
1070
   177
1070
     4
1070
   176
1070
     4
1070
   141
1040
150.0
1070
     7
1000
_OPEN
1070
     6
1000
_OPEN
1070
    41
1040
7.0
1002
}
  0
DIMENSION
  5
8C1B
330
1A
100
AcDbEntity
  8
SUNPOU
100
AcDbDimension
  2
*D3
 10
307.5101036190604
 20
445.7793685860446
 30
0.0
 11
455.0050036190604
 21
450.7793685860446
 31
0.0
 70
    32
 71
     5
 42
294.9898
  3
STANDARD
100
AcDbAlignedDimension
 13
602.4999036190603
 23
474.5956970773613
 33
0.0
 14
307.5101036190604
 24
474.5956970773613
 34
0.0
100
AcDbRotatedDimension
1001
ACAD
1000
DSTYLE
1002
{
1070
   140
1040
6.0
1070
    74
1070
     0
1070
   172
1070
     1
1070
    73
1070
     0
1070
   272
1070
     2
1070
    77
1070
     3
1070
   173
1070
     1
1070
   147
1040
2.0
1070
    42
1040
6.0
1070
    44
1040
3.0
1070
    43
1040
14.0
1070
   271
1070
     0
1070
   178
1070
     4
1070
   177
1070
     4
1070
   176
1070
     4
1070
   141
1040
150.0
1070
     7
1000
_OPEN
1070
     6
1000
_OPEN
1070
    41
1040
7.0
1002
}
  0
LINE
  5
8C1C
330
1A
100
AcDbEntity
  8
CENTER L
  6
CENTER
 62
     1
 48
5.0
100
AcDbLine
 10
187.8496486084418
 20
313.4505175957979
 30
0.0
 11
187.8488036190604
 21
85.69171759579808
 31
0.0
  0
LINE
  5
8C1D
330
1A
100
AcDbEntity
  8
SEIHIN
  6
Continuous
 62
     3
 48
5.0
100
AcDbLine
 10
197.3491256465602
 20
306.4505175957979
 30
0.0
 11
197.3490036190603
 21
94.88521759579805
 31
0.0
  0
LINE
  5
8C1E
330
1A
100
AcDbEntity
  8
SEIHIN
  6
Continuous
 62
     3
 48
5.0
100
AcDbLine
 10
178.3491476740602
 20
306.4505175957979
 30
0.0
 11
178.3489036190604
 21
94.88521759579805
 31
0.0
  0
ELLIPSE
  5
8C1F
330
1A
100
AcDbEntity
  8
SEIHIN
100
AcDbEllipse
 10
187.8495586705362
 20
274.8408927032563
 30
0.0
 11
-2.100000000000037
 21
0.0
 31
0.0
210
0.0
220
0.0
230
1.0
 40
0.2873598399373158
 41
0.0
 42
6.283185307179586
  0
ARC
  5
8C20
330
1A
100
AcDbEntity
  8
SEIHIN
  6
Continuous
 62
     3
 48
5.0
100
AcDbCircle
 10
343.302664968956
 20
97.38565119354041
 30
0.0
 40
0.500033599236159
100
AcDbArc
 50
188.0049027930043
 51
270.0044286781146
  0
LINE
  5
8C21
330
1A
100
AcDbEntity
  8
SEIHIN
  6
Continuous
 62
     3
 48
5.0
100
AcDbLine
 10
340.8270036190604
 20
97.037617595798
 30
0.0
 11
339.1705036190604
 21
108.8249175957981
 31
0.0
  0
LINE
  5
8C22
330
1A
100
AcDbEntity
  8
CENTER L
  6
CENTER
 62
     1
 48
5.0
100
AcDbLine
 10
387.8481036190603
 20
87.43441759579804
 30
0.0
 11
387.8482036190602
 21
108.984717595798
 31
0.0
  0
DIMENSION
  5
8C23
330
1A
100
AcDbEntity
  8
SUNPOU
 48
5.0
100
AcDbDimension
  2
*D4
 10
269.771134918662
 20
176.4418175957981
 30
0.0
 11
264.771134918662
 21
135.663717595798
 31
0.0
 70
    32
 71
     5
 42
81.55620000000009
  3
STANDARD
100
AcDbAlignedDimension
 13
343.3027036190604
 23
94.88561759579795
 33
0.0
 14
307.5300036190604
 24
176.4418175957981
 34
0.0
 50
90.0
100
AcDbRotatedDimension
1001
ACAD
1000
DSTYLE
1002
{
1070
   140
1040
6.0
1070
    74
1070
     0
1070
   172
1070
     1
1070
    73
1070
     0
1070
   272
1070
     2
1070
    77
1070
     3
1070
   173
1070
     1
1070
   147
1040
2.0
1070
    42
1040
6.0
1070
    44
1040
3.0
1070
    43
1040
14.0
1070
   271
1070
     0
1070
   178
1070
     4
1070
   177
1070
     4
1070
   176
1070
     4
1070
   141
1040
150.0
1070
     7
1000
_OPEN
1070
     6
1000
_OPEN
1070
    41
1040
7.0
1002
}
  0
ARC
  5
8C24
330
1A
100
AcDbEntity
  8
SEIHIN
  6
Continuous
 62
     3
 48
5.0
100
AcDbCircle
 10
187.8487536190603
 20
98.83571759604615
 30
0.0
 40
6.450139596516501
100
AcDbArc
 50
219.8150678455554
 51
320.1849321544446
  0
LINE
  5
8C25
330
1A
100
AcDbEntity
  8
SEIHIN
  6
Continuous
 62
     3
 48
5.0
100
AcDbLine
 10
197.3490036190603
 20
94.88521759579805
 30
0.0
 11
178.3490036190603
 21
94.88521759579805
 31
0.0
  0
ARC
  5
8C26
330
1A
100
AcDbEntity
  8
SEIHIN
  6
Continuous
 62
     3
 48
5.0
100
AcDbCircle
 10
182.5102002242202
 20
94.38551918580311
 30
0.0
 40
0.4999984100064499
100
AcDbArc
 50
39.80664927489373
 51
89.99961097872561
  0
ARC
  5
8C27
330
1A
100
AcDbEntity
  8
SEIHIN
  6
Continuous
 62
     3
 48
5.0
100
AcDbCircle
 10
193.1874070139006
 20
94.38551918580305
 30
0.0
 40
0.499998410006512
100
AcDbArc
 50
90.00038902127115
 51
140.193350725104
  0
ARC
  5
8C28
330
1A
100
AcDbEntity
  8
SEIHIN
  6
Continuous
 62
     3
 48
5.0
100
AcDbCircle
 10
356.8309766950308
 20
102.9133567677324
 30
0.0
 40
10.00002257661163
100
AcDbArc
 50
233.395640238228
 51
267.8739978163487
  0
ARC
  5
8C29
330
1A
100
AcDbEntity
  8
SEIHIN
  6
Continuous
 62
     3
 48
5.0
100
AcDbCircle
 10
343.302681245155
 20
97.38563704464667
 30
0.0
 40
2.500019448948848
100
AcDbArc
 50
188.0019438082512
 51
270.0005127681504
  0
LINE
  5
8C2A
330
1A
100
AcDbEntity
  8
SEIHIN
  6
Continuous
 62
     3
 48
5.0
100
AcDbLine
 10
356.4600036190603
 20
92.92031759579805
 30
0.0
 11
370.8681036190604
 21
92.38561759579807
 31
0.0
  0
DIMENSION
  5
8C2B
330
1A
100
AcDbEntity
  8
SUNPOU
 48
5.0
100
AcDbDimension
  2
*D5
 10
269.771134918662
 20
176.4418175957981
 30
0.0
 11
264.771134918662
 21
193.7298675957981
 31
0.0
 70
    32
 71
     5
 42
34.5761
  3
STANDARD
100
AcDbAlignedDimension
 13
302.0647036190604
 23
211.0179175957981
 33
0.0
 14
307.5300036190604
 24
176.4418175957981
 34
0.0
 50
90.0
100
AcDbRotatedDimension
1001
ACAD
1000
DSTYLE
1002
{
1070
   140
1040
6.0
1070
    74
1070
     0
1070
   172
1070
     1
1070
    73
1070
     0
1070
   272
1070
     2
1070
    77
1070
     3
1070
   173
1070
     1
1070
   147
1040
2.0
1070
    42
1040
6.0
1070
    44
1040
3.0
1070
    43
1040
14.0
1070
   271
1070
     0
1070
   178
1070
     4
1070
   177
1070
     4
1070
   176
1070
     4
1070
   141
1040
150.0
1070
     7
1000
_OPEN
1070
     6
1000
_OPEN
1070
    41
1040
7.0
1002
}
  0
LINE
  5
8C2C
330
1A
100
AcDbEntity
  8
SEIHIN
  6
Continuous
 62
     3
 48
5.0
100
AcDbLine
 10
180.8492036190604
 20
209.102517595798
 30
0.0
 11
180.8491036190603
 21
176.4417175957981
 31
0.0
  0
LINE
  5
8C2D
330
1A
100
AcDbEntity
  8
SEIHIN
  6
Continuous
 62
     3
 48
5.0
100
AcDbLine
 10
194.8492036190603
 20
209.2192175957981
 30
0.0
 11
194.8491036190603
 21
176.4416175957981
 31
0.0
  0
LINE
  5
8C2E
330
1A
100
AcDbEntity
  8
SEIHIN
  6
Continuous
 62
     3
 48
5.0
100
AcDbLine
 10
197.3490036190603
 20
109.072417595798
 30
0.0
 11
178.3490036190603
 21
109.072417595798
 31
0.0
  0
LINE
  5
8C2F
330
1A
100
AcDbEntity
  8
SEIHIN
  6
Continuous
 62
     3
 48
5.0
100
AcDbLine
 10
197.3490036190603
 20
157.927417595798
 30
0.0
 11
178.3490036190603
 21
157.927417595798
 31
0.0
  0
LINE
  5
8C30
330
1A
100
AcDbEntity
  8
SEIHIN
  6
Continuous
 62
     3
 48
5.0
100
AcDbLine
 10
187.8489036190604
 20
161.546417595798
 30
0.0
 11
195.3490036190603
 21
161.5463175957981
 31
0.0
  0
LINE
  5
8C31
330
1A
100
AcDbEntity
  8
SEIHIN
  6
Continuous
 62
     3
 48
5.0
100
AcDbLine
 10
187.8491036190603
 20
161.546417595798
 30
0.0
 11
180.3490036190603
 21
161.546417595798
 31
0.0
  0
ARC
  5
8C32
330
1A
100
AcDbEntity
  8
SEIHIN
  6
Continuous
 62
     3
 48
5.0
100
AcDbCircle
 10
180.3490036190603
 20
163.546417595798
 30
0.0
 40
2.0
100
AcDbArc
 50
180.0
 51
270.0
  0
ARC
  5
8C33
330
1A
100
AcDbEntity
  8
SEIHIN
  6
Continuous
 62
     3
 48
5.0
100
AcDbCircle
 10
181.3490332529343
 20
173.4836526589518
 30
0.0
 40
3.000029634078874
100
AcDbArc
 50
99.59454654979371
 51
180.0006696502931
  0
ARC
  5
8C34
330
1A
100
AcDbEntity
  8
SEIHIN
  6
Continuous
 62
     3
 48
5.0
100
AcDbCircle
 10
187.8492036190604
 20
168.875417595798
 30
0.0
 40
1.5
100
AcDbArc
 50
0.0
 51
180.0
  0
ARC
  5
8C35
330
1A
100
AcDbEntity
  8
SEIHIN
  6
Continuous
 62
     3
 48
5.0
100
AcDbCircle
 10
187.8492036190604
 20
168.875417595798
 30
0.0
 40
1.5
100
AcDbArc
 50
180.0
 51
0.0
  0
ARC
  5
8C36
330
1A
100
AcDbEntity
  8
SEIHIN
  6
Continuous
 62
     3
 48
5.0
100
AcDbCircle
 10
187.8492036190603
 20
168.875417595798
 30
0.0
 40
1.599999999999966
100
AcDbArc
 50
0.0
 51
180.0
  0
ARC
  5
8C37
330
1A
100
AcDbEntity
  8
SEIHIN
  6
Continuous
 62
     3
 48
5.0
100
AcDbCircle
 10
187.8492036190603
 20
168.875417595798
 30
0.0
 40
1.599999999999966
100
AcDbArc
 50
180.0
 51
0.0
  0
LINE
  5
8C38
330
1A
100
AcDbEntity
  8
CENTER L
  6
CENTER
 62
     1
 48
5.0
100
AcDbLine
 10
185.2713036190603
 20
168.875417595798
 30
0.0
 11
190.7046036190604
 21
168.875417595798
 31
0.0
  0
ARC
  5
8C39
330
1A
100
AcDbEntity
  8
SEIHIN
  6
Continuous
 62
     3
 48
5.0
100
AcDbCircle
 10
195.3490036190603
 20
163.546317595798
 30
0.0
 40
1.999999999999972
100
AcDbArc
 50
270.0
 51
0.0000000000008142
  0
ARC
  5
8C3A
330
1A
100
AcDbEntity
  8
SEIHIN
  6
Continuous
 62
     3
 48
5.0
100
AcDbCircle
 10
194.3490232858559
 20
173.4835943256794
 30
0.0
 40
2.999980333294656
100
AcDbArc
 50
0.0004444294428993
 51
80.40624922217114
  0
LINE
  5
8C3B
330
1A
100
AcDbEntity
  8
SEIHIN
  6
Continuous
 62
     3
 48
5.0
100
AcDbLine
 10
192.8494947050331
 20
271.9673175957979
 30
0.0
 11
192.8493590708346
 21
235.4084175957979
 31
0.0
  0
LINE
  5
8C3C
330
1A
100
AcDbEntity
  8
SEIHIN
  6
Continuous
 62
     3
 48
5.0
100
AcDbLine
 10
182.8494947049643
 20
271.9673175957979
 30
0.0
 11
182.8493590707658
 21
235.4084175957979
 31
0.0
  0
LINE
  5
8C3D
330
1A
100
AcDbEntity
  8
SEIHIN
100
AcDbLine
 10
191.0993244559782
 20
226.078317595798
 30
0.0
 11
184.5993244559335
 21
226.078317595798
 31
0.0
  0
LINE
  5
8C3E
330
1A
100
AcDbEntity
  8
SEIHIN
  6
Continuous
 62
     3
 48
5.0
100
AcDbLine
 10
192.8493036190604
 20
211.017617595798
 30
0.0
 11
187.8493036190604
 21
211.017617595798
 31
0.0
  0
LINE
  5
8C3F
330
1A
100
AcDbEntity
  8
SEIHIN
  6
Continuous
 62
     3
 48
5.0
100
AcDbLine
 10
192.8493036190604
 20
211.101117595798
 30
0.0
 11
187.8493036190604
 21
211.101117595798
 31
0.0
  0
ARC
  5
8C40
330
1A
100
AcDbEntity
  8
SEIHIN
100
AcDbCircle
 10
187.8493590708001
 20
236.1301369544833
 30
0.0
 40
5.051819358710796
100
AcDbArc
 50
188.2135645473609
 51
351.7864354526391
  0
LINE
  5
8C41
330
1A
100
AcDbEntity
  8
SEIHIN
  6
Continuous
 62
     3
 48
5.0
100
AcDbLine
 10
184.5993244559334
 20
226.078317595798
 30
0.0
 11
184.599268890243
 21
211.101117595798
 31
0.0
  0
ARC
  5
8C42
330
1A
100
AcDbEntity
  8
SEIHIN
  6
Continuous
 62
     3
 48
5.0
100
AcDbCircle
 10
182.8493036190604
 20
209.0176175957979
 30
0.0
 40
2.000000000000043
100
AcDbArc
 50
89.99999999999837
 51
179.9999999999984
  0
ARC
  5
8C43
330
1A
100
AcDbEntity
  8
SEIHIN
  6
Continuous
 62
     3
 48
5.0
100
AcDbCircle
 10
182.8493036190604
 20
209.101117595798
 30
0.0
 40
2.000000000000043
100
AcDbArc
 50
89.99999999999837
 51
179.9999999999984
  0
LINE
  5
8C44
330
1A
100
AcDbEntity
  8
SEIHIN
  6
Continuous
 62
     3
 48
5.0
100
AcDbLine
 10
182.8493036190604
 20
211.017617595798
 30
0.0
 11
187.8493036190604
 21
211.017617595798
 31
0.0
  0
LINE
  5
8C45
330
1A
100
AcDbEntity
  8
SEIHIN
  6
Continuous
 62
     3
 48
5.0
100
AcDbLine
 10
182.8493036190604
 20
211.101117595798
 30
0.0
 11
187.8493036190604
 21
211.101117595798
 31
0.0
  0
LINE
  5
8C46
330
1A
100
AcDbEntity
  8
SEIHIN
  6
Continuous
 62
     3
 48
5.0
100
AcDbLine
 10
191.0993244559782
 20
226.078317595798
 30
0.0
 11
191.0992688902877
 21
211.101117595798
 31
0.0
  0
ARC
  5
8C47
330
1A
100
AcDbEntity
  8
SEIHIN
  6
Continuous
 62
     3
 48
5.0
100
AcDbCircle
 10
192.8493036190604
 20
209.017617595798
 30
0.0
 40
2.0
100
AcDbArc
 50
0.0
 51
90.0
  0
ARC
  5
8C48
330
1A
100
AcDbEntity
  8
SEIHIN
  6
Continuous
 62
     3
 48
5.0
100
AcDbCircle
 10
192.8493036190604
 20
209.101117595798
 30
0.0
 40
2.0
100
AcDbArc
 50
0.0
 51
90.0
  0
ARC
  5
8C49
330
1A
100
AcDbEntity
  8
SEIHIN
100
AcDbCircle
 10
187.8494947049987
 20
262.3938168153397
 30
0.0
 40
10.8005517078424
100
AcDbArc
 50
62.4230606795087
 51
117.5769393204913
  0
ARC
  5
8C4A
330
1A
100
AcDbEntity
  8
SEIHIN
100
AcDbCircle
 10
187.8494761520211
 20
250.3649182685224
 30
0.0
 40
10.8005517078424
100
AcDbArc
 50
62.4230606795087
 51
117.5769393204913
  0
LINE
  5
8C4B
330
1A
100
AcDbEntity
  8
SEIHIN
  6
Continuous
 62
     3
 48
5.0
100
AcDbLine
 10
182.8494761519867
 20
259.9384190489806
 30
0.0
 11
178.3490988191217
 21
259.9384190489806
 31
0.0
  0
LINE
  5
8C4C
330
1A
100
AcDbEntity
  8
SEIHIN
  6
Continuous
 62
     3
 48
5.0
100
AcDbLine
 10
197.3490988191217
 20
259.9384190489806
 30
0.0
 11
192.8494761520556
 21
259.9384190489807
 31
0.0
  0
LINE
  5
8C4D
330
1A
100
AcDbEntity
  8
SEIHIN
  6
Continuous
 62
     3
 48
5.0
100
AcDbLine
 10
302.6589036190604
 20
211.101317595798
 30
0.0
 11
309.8354036190603
 21
160.0377175957981
 31
0.0
  0
LINE
  5
8C4E
330
1A
100
AcDbEntity
  8
SEIHIN
  6
Continuous
 62
     3
 48
5.0
100
AcDbLine
 10
309.0234036190602
 20
161.504517595798
 30
0.0
 11
302.0647036190604
 21
211.0179175957981
 31
0.0
  0
LINE
  5
8C4F
330
1A
100
AcDbEntity
  8
SEIHIN
  6
Continuous
 62
     3
 48
5.0
100
AcDbLine
 10
329.1068036190604
 20
123.508517595798
 30
0.0
 11
325.2433036190604
 21
150.9990175957981
 31
0.0
  0
LINE
  5
8C50
330
1A
100
AcDbEntity
  8
SEIHIN
  6
Continuous
 62
     3
 48
5.0
100
AcDbLine
 10
331.0873036190604
 20
123.7868175957981
 30
0.0
 11
327.2238036190603
 21
151.2773175957981
 31
0.0
  0
DIMENSION
  5
8C51
330
1A
100
AcDbEntity
  8
SUNPOU
100
AcDbDimension
  2
*D6
 10
329.3045927020639
 20
136.4715890371551
 30
0.0
 11
303.0625257102826
 21
132.7835431368347
 31
0.0
 70
   161
  1
t<>
 71
     5
 42
1.999957784192816
  3
STANDARD
100
AcDbAlignedDimension
 13
327.4254080642804
 23
135.472385720212
 33
0.0
 14
329.4059027722693
 24
135.7507233751952
 34
0.0
1001
ACAD
1000
DSTYLE
1002
{
1070
   288
1070
     1
1070
   140
1040
6.0
1070
    74
1070
     0
1070
   172
1070
     1
1070
    73
1070
     0
1070
   272
1070
     2
1070
    77
1070
     3
1070
   173
1070
     1
1070
   147
1040
2.0
1070
    42
1040
6.0
1070
    44
1040
3.0
1070
    43
1040
14.0
1070
   271
1070
     1
1070
   178
1070
     4
1070
   177
1070
     4
1070
   176
1070
     4
1070
   141
1040
150.0
1070
     7
1000
_OPEN
1070
     6
1000
_OPEN
1070
    41
1040
7.0
1002
}
  0
ARC
  5
8C52
330
1A
100
AcDbEntity
  8
SEIHIN
  6
Continuous
 62
     3
 48
5.0
100
AcDbCircle
 10
348.4170646902406
 20
126.2223284882485
 30
0.0
 40
17.49995368728293
100
AcDbArc
 50
187.9996299376815
 51
240.8504731492253
  0
ARC
  5
8C53
330
1A
100
AcDbEntity
  8
SEIHIN
  6
Continuous
 62
     3
 48
5.0
100
AcDbCircle
 10
348.4170239792425
 20
126.222387888754
 30
0.0
 40
19.49999236732618
100
AcDbArc
 50
187.9999877947361
 51
240.8506095322657
  0
LINE
  5
8C54
330
1A
100
AcDbEntity
  8
SEIHIN
  6
Continuous
 62
     3
 48
5.0
100
AcDbLine
 10
342.8076036190603
 20
97.31601759579803
 30
0.0
 11
341.1510036190604
 21
109.103217595798
 31
0.0
  0
ARC
  5
8C55
330
1A
100
AcDbEntity
  8
SEIHIN
  6
Continuous
 62
     3
 48
5.0
100
AcDbCircle
 10
338.6753468445988
 20
108.7552545336025
 30
0.0
 40
0.5000331724291791
100
AcDbArc
 50
8.008319058831761
 51
60.86419972688873
  0
ARC
  5
8C56
330
1A
100
AcDbEntity
  8
SEIHIN
  6
Continuous
 62
     3
 48
5.0
100
AcDbCircle
 10
338.6753158200606
 20
108.7552997934869
 30
0.0
 40
2.500015375008976
100
AcDbArc
 50
7.999604482325253
 51
60.85167823227901
  0
ARC
  5
8C57
330
1A
100
AcDbEntity
  8
SEIHIN
  6
Continuous
 62
     3
 48
5.0
100
AcDbCircle
 10
317.321155178376
 20
149.8856597047254
 30
0.0
 40
9.999957891189922
100
AcDbArc
 50
7.999610850778913
 51
89.99972245415417
  0
ARC
  5
8C58
330
1A
100
AcDbEntity
  8
SEIHIN
  6
Continuous
 62
     3
 48
5.0
100
AcDbCircle
 10
317.3211794601172
 20
149.8856385967906
 30
0.0
 40
7.99997899904382
100
AcDbArc
 50
7.999979128050264
 51
89.99982697386007
  0
LINE
  5
8C59
330
1A
100
AcDbEntity
  8
SEIHIN
  6
Continuous
 62
     3
 48
5.0
100
AcDbLine
 10
311.8159036190602
 20
160.3160175957981
 30
0.0
 11
309.5105036190603
 21
176.720217595798
 31
0.0
  0
LINE
  5
8C5A
330
1A
100
AcDbEntity
  8
SEIHIN
  6
Continuous
 62
     3
 48
5.0
100
AcDbLine
 10
312.3111036190604
 20
159.885617595798
 30
0.0
 11
317.3212036190604
 21
159.885617595798
 31
0.0
  0
LINE
  5
8C5B
330
1A
100
AcDbEntity
  8
SEIHIN
  6
Continuous
 62
     3
 48
5.0
100
AcDbLine
 10
312.3111036190604
 20
157.885617595798
 30
0.0
 11
317.3212036190604
 21
157.885617595798
 31
0.0
  0
ARC
  5
8C5C
330
1A
100
AcDbEntity
  8
SEIHIN
  6
Continuous
 62
     3
 48
5.0
100
AcDbCircle
 10
312.3110892512431
 20
160.3856300857356
 30
0.0
 40
2.50001248997892
100
AcDbArc
 50
187.9994908279782
 51
270.0003292844705
  0
LINE
  5
8C5D
330
1A
100
AcDbEntity
  8
SEIHIN
  6
Continuous
 62
     3
 48
5.0
100
AcDbLine
 10
309.6177036190604
 20
161.5880175957981
 30
0.0
 11
309.0234036190602
 21
161.504517595798
 31
0.0
  0
ARC
  5
8C5E
330
1A
100
AcDbEntity
  8
SEIHIN
  6
Continuous
 62
     3
 48
5.0
100
AcDbCircle
 10
312.3110729749999
 20
160.3856442393783
 30
0.0
 40
0.5000266445193177
100
AcDbArc
 50
187.9926390646158
 51
270.0035113635471
  0
LINE
  5
8C5F
330
1A
100
AcDbEntity
  8
SEIHIN
  6
Continuous
 62
     3
 48
5.0
100
AcDbLine
 10
307.7922036190603
 20
167.3904175957981
 30
0.0
 11
307.3747036190604
 21
170.361217595798
 31
0.0
  0
LINE
  5
8C60
330
1A
100
AcDbEntity
  8
SEIHIN
  6
Continuous
 62
     3
 48
5.0
100
AcDbLine
 10
307.3747036190604
 20
170.361217595798
 30
0.0
 11
307.7708036190603
 21
170.416817595798
 31
0.0
  0
LINE
  5
8C61
330
1A
100
AcDbEntity
  8
SEIHIN
  6
Continuous
 62
     3
 48
5.0
100
AcDbLine
 10
307.7922036190603
 20
167.3904175957981
 30
0.0
 11
308.1883036190604
 21
167.4460175957981
 31
0.0
  0
LINE
  5
8C62
330
1A
100
AcDbEntity
  8
SEIHIN
  6
Continuous
 62
     3
 48
5.0
100
AcDbLine
 10
309.5105036190603
 20
176.720217595798
 30
0.0
 11
307.5300036190604
 21
176.4418175957981
 31
0.0
  0
LINE
  5
8C63
330
1A
100
AcDbEntity
  8
SEIHIN
  6
Continuous
 62
     3
 48
5.0
100
AcDbLine
 10
302.0644036190604
 20
211.017817595798
 30
0.0
 11
302.6587036190604
 21
211.101317595798
 31
0.0
  0
ELLIPSE
  5
8C64
330
1A
100
AcDbEntity
  8
SEIHIN
100
AcDbEllipse
 10
187.8496119771576
 20
303.5769055745719
 30
0.0
 11
-2.100000000000037
 21
0.0
 31
0.0
210
0.0
220
0.0
230
1.0
 40
0.2873598399373158
 41
0.0
 42
6.283185307179586
  0
ELLIPSE
  5
8C65
330
1A
100
AcDbEntity
  8
SEIHIN
100
AcDbEllipse
 10
187.8496119771576
 20
289.2091822683477
 30
0.0
 11
-2.100000000000037
 21
0.0
 31
0.0
210
0.0
220
0.0
230
1.0
 40
0.2873598399373158
 41
0.0
 42
6.283185307179586
  0
DIMENSION
  5
8C66
330
1A
100
AcDbEntity
  8
SUNPOU
100
AcDbDimension
  2
*D7
 10
197.3491256465602
 20
344.3783753328917
 30
0.0
 11
187.8491366603102
 21
349.3783753328917
 31
0.0
 70
    32
 71
     5
 42
18.99997797250001
  3
STANDARD
100
AcDbAlignedDimension
 13
178.3491476740602
 23
306.4505175957979
 33
0.0
 14
197.3491256465602
 24
306.4505175957979
 34
0.0
100
AcDbRotatedDimension
1001
ACAD
1000
DSTYLE
1002
{
1070
    41
1040
7.0
1070
    42
1040
6.0
1070
    43
1040
14.0
1070
    44
1040
3.0
1070
    73
1070
     0
1070
    74
1070
     0
1070
    77
1070
     3
1070
   140
1040
6.0
1070
   141
1040
150.0
1070
   147
1040
2.0
1070
   172
1070
     1
1070
   173
1070
     1
1070
   176
1070
   256
1070
   177
1070
   256
1070
   178
1070
   256
1070
   271
1070
     0
1070
   272
1070
     0
1070
   341
1005
6D
1070
     6
1000
OPEN
1070
     7
1000
OPEN
1070
   371
1070
    -1
1070
   372
1070
    -1
1002
}
  0
LINE
  5
8C67
330
1A
100
AcDbEntity
  8
SEIHIN
  6
Continuous
 62
     3
100
AcDbLine
 10
197.3491256465603
 20
306.4505175957979
 30
0.0
 11
178.3491476740602
 21
306.4505175957979
 31
0.0
  0
ARC
  5
8C68
330
1A
100
AcDbEntity
  8
SEIHIN
  6
Continuous
 62
     3
 48
5.0
100
AcDbCircle
 10
354.9727036190602
 20
484.0956970773614
 30
0.0
 40
4.0
100
AcDbArc
 50
90.0
 51
270.0
  0
LINE
  5
8C69
330
1A
100
AcDbEntity
  8
SEIHIN
  6
Continuous
 62
     3
 48
5.0
100
AcDbLine
 10
309.4906036190603
 20
474.5956970773613
 30
0.0
 11
309.4906036190603
 21
493.5956970773614
 31
0.0
  0
LINE
  5
8C6A
330
1A
100
AcDbEntity
  8
SEIHIN
  6
Continuous
 62
     3
 48
5.0
100
AcDbLine
 10
311.8566036190604
 20
474.5956970773613
 30
0.0
 11
311.8566036190604
 21
493.5956970773614
 31
0.0
  0
LINE
  5
8C6B
330
1A
100
AcDbEntity
  8
SEIHIN
  6
Continuous
 62
     3
 48
5.0
100
AcDbLine
 10
307.5101036190604
 20
474.5956970773613
 30
0.0
 11
307.5101036190604
 21
493.5956970773614
 31
0.0
  0
LINE
  5
8C6C
330
1A
100
AcDbEntity
  8
SEIHIN
  6
Continuous
 62
     3
 48
5.0
100
AcDbLine
 10
307.5101036190604
 20
491.0956970773614
 30
0.0
 11
302.0449036190603
 21
491.0956970773614
 31
0.0
  0
LINE
  5
8C6D
330
1A
100
AcDbEntity
  8
SEIHIN
  6
Continuous
 62
     3
 48
5.0
100
AcDbLine
 10
307.5101036190604
 20
477.0956970773613
 30
0.0
 11
302.0449036190603
 21
477.0956970773613
 31
0.0
  0
LINE
  5
8C6E
330
1A
100
AcDbEntity
  8
SEIHIN
  6
Continuous
 62
     3
 48
5.0
100
AcDbLine
 10
302.0449036190603
 20
477.0956970773613
 30
0.0
 11
302.0449036190603
 21
491.0956970773614
 31
0.0
  0
LINE
  5
8C6F
330
1A
100
AcDbEntity
  8
SEIHIN
  6
Continuous
 62
     3
 48
5.0
100
AcDbLine
 10
302.6390036190604
 20
477.0956970773613
 30
0.0
 11
302.6391036190603
 21
491.0956970773614
 31
0.0
  0
LINE
  5
8C70
330
1A
100
AcDbEntity
  8
SEIHIN
  6
Continuous
 62
     3
 48
5.0
100
AcDbLine
 10
342.8483036190604
 20
474.5956970773613
 30
0.0
 11
342.8483036190604
 21
493.5956970773614
 31
0.0
  0
LINE
  5
8C71
330
1A
100
AcDbEntity
  8
SEIHIN
  6
Continuous
 62
     3
 48
5.0
100
AcDbLine
 10
340.9510036190604
 20
474.5956970773613
 30
0.0
 11
340.9510036190604
 21
493.5956970773614
 31
0.0
  0
LINE
  5
8C72
330
1A
100
AcDbEntity
  8
SEIHIN
  6
Continuous
 62
     3
 48
5.0
100
AcDbLine
 10
325.9942036190603
 20
474.5956970773613
 30
0.0
 11
325.9942036190603
 21
493.5956970773614
 31
0.0
  0
ARC
  5
8C73
330
1A
100
AcDbEntity
  8
SEIHIN
  6
Continuous
 62
     3
 48
5.0
100
AcDbCircle
 10
374.8483036190602
 20
484.0956970773614
 30
0.0
 40
4.0
100
AcDbArc
 50
90.0
 51
270.0
  0
LINE
  5
8C74
330
1A
100
AcDbEntity
  8
CENTER L
  6
CENTER
 62
     1
 48
5.0
100
AcDbLine
 10
387.8483036190604
 20
471.9343970773612
 30
0.0
 11
387.8483036190604
 21
496.0284970773613
 31
0.0
  0
LINE
  5
8C75
330
1A
100
AcDbEntity
  8
CENTER L
  6
CENTER
 62
     1
 48
5.0
100
AcDbLine
 10
542.8753036190605
 20
293.9981175957979
 30
0.0
 11
546.4672036190603
 21
282.0254175957979
 31
0.0
  0
LINE
  5
8C76
330
1A
100
AcDbEntity
  8
SEIHIN
  6
Continuous
 62
     3
 48
5.0
100
AcDbLine
 10
448.8861036190604
 20
260.579817595798
 30
0.0
 11
601.7815036190604
 21
306.4505175957979
 31
0.0
  0
LINE
  5
8C77
330
1A
100
AcDbEntity
  8
SEIHIN
  6
Continuous
 62
     3
 48
5.0
100
AcDbLine
 10
449.6045036190603
 20
258.185317595798
 30
0.0
 11
602.4998036190603
 21
304.0560175957979
 31
0.0
  0
DIMENSION
  5
8C78
330
1A
100
AcDbEntity
  8
SUNPOU
 48
5.0
100
AcDbDimension
  2
*D8
 10
576.5306132060728
 20
296.2649020894548
 30
0.0
 11
588.5037267506417
 21
273.7561359738089
 31
0.0
 70
    33
  1
t<>
 71
     5
 42
2.499918825550822
  3
STANDARD
100
AcDbAlignedDimension
 13
592.2032312266581
 23
303.5769055745719
 33
0.0
 14
592.9216079312751
 24
301.1824267075516
 34
0.0
1001
ACAD
1000
DSTYLE
1002
{
1070
   140
1040
6.0
1070
    74
1070
     0
1070
   172
1070
     1
1070
    73
1070
     0
1070
   272
1070
     2
1070
    77
1070
     3
1070
   173
1070
     1
1070
   147
1040
2.0
1070
    42
1040
6.0
1070
    44
1040
3.0
1070
    43
1040
14.0
1070
   271
1070
     1
1070
   178
1070
     4
1070
   177
1070
     4
1070
   176
1070
     4
1070
   141
1040
150.0
1070
     7
1000
_OPEN
1070
     6
1000
_OPEN
1070
    41
1040
7.0
1002
}
  0
DIMENSION
  5
8C79
330
1A
100
AcDbEntity
  8
SUNPOU
 48
5.0
100
AcDbDimension
  2
*D9
 10
645.5622571514086
 20
239.8562175957979
 30
0.0
 11
640.5622571514086
 21
273.153367595798
 31
0.0
 70
    32
 71
     5
 42
66.59429999999995
  3
STANDARD
100
AcDbAlignedDimension
 13
601.7815036190604
 23
306.4505175957979
 33
0.0
 14
601.7814501845994
 24
239.8562175957979
 34
0.0
 50
90.0
100
AcDbRotatedDimension
1001
ACAD
1000
DSTYLE
1002
{
1070
   140
1040
6.0
1070
    74
1070
     0
1070
   172
1070
     1
1070
    73
1070
     0
1070
   272
1070
     2
1070
    77
1070
     3
1070
   173
1070
     1
1070
   147
1040
2.0
1070
    42
1040
6.0
1070
    44
1040
3.0
1070
    43
1040
14.0
1070
   271
1070
     0
1070
   178
1070
     4
1070
   177
1070
     4
1070
   176
1070
     4
1070
   141
1040
150.0
1070
     7
1000
_OPEN
1070
     6
1000
_OPEN
1070
    41
1040
7.0
1002
}
  0
TEXT
  5
8C7A
330
1A
100
AcDbEntity
  8
SUNPOU
 48
5.0
100
AcDbText
 10
653.7826397296562
 20
252.8236960896967
 30
0.0
 40
6.0
  1
スライド巾
 50
90.0
100
AcDbText
  0
DIMENSION
  5
8C7B
330
1A
100
AcDbEntity
  8
SUNPOU
100
AcDbDimension
  2
*D10
 10
439.9648489771795
 20
290.3160216915883
 30
0.0
 11
514.9756989153641
 21
318.0404849270805
 31
0.0
 70
    33
 71
     5
 42
159.6279858940156
  3
STANDARD
100
AcDbAlignedDimension
 13
602.4998036190605
 23
304.056017595798
 33
0.0
 14
449.6045036190603
 24
258.185317595798
 34
0.0
1001
ACAD
1000
DSTYLE
1002
{
1070
   140
1040
6.0
1070
    74
1070
     0
1070
   172
1070
     1
1070
    73
1070
     0
1070
   272
1070
     2
1070
    77
1070
     3
1070
   173
1070
     1
1070
   147
1040
2.0
1070
    42
1040
6.0
1070
    44
1040
3.0
1070
    43
1040
14.0
1070
   271
1070
     0
1070
   178
1070
     4
1070
   177
1070
     4
1070
   176
1070
     4
1070
   141
1040
150.0
1070
     7
1000
_OPEN
1070
     6
1000
_OPEN
1070
    41
1040
7.0
1002
}
  0
LINE
  5
8C7C
330
1A
100
AcDbEntity
  8
SEIHIN
  6
PHANTOM
 62
     6
 48
5.0
100
AcDbLine
 10
449.2480501845995
 20
66.48401759579792
 30
0.0
 11
449.2481501845995
 21
191.1120175957981
 31
0.0
  0
LINE
  5
8C7D
330
1A
100
AcDbEntity
  8
SEIHIN
  6
PHANTOM
 62
     6
 48
5.0
100
AcDbLine
 10
446.7480501845993
 20
66.48401759579792
 30
0.0
 11
446.7481501845995
 21
191.1120175957981
 31
0.0
  0
ARC
  5
8C7E
330
1A
100
AcDbEntity
  8
SEIHIN
  6
Continuous
 62
     3
 48
5.0
100
AcDbCircle
 10
432.3935967320655
 20
97.38561106071256
 30
0.0
 40
0.4999934649620696
100
AcDbArc
 50
270.0007892017967
 51
356.9970361317568
  0
ARC
  5
8C7F
330
1A
100
AcDbEntity
  8
SEIHIN
  6
Continuous
 62
     3
 48
5.0
100
AcDbCircle
 10
432.3936190435121
 20
97.38563223271228
 30
0.0
 40
2.500014636961926
100
AcDbArc
 50
269.9996464996749
 51
356.9983021789678
  0
ARC
  5
8C80
330
1A
100
AcDbEntity
  8
SEIHIN
  6
Continuous
 62
     3
 48
5.0
100
AcDbCircle
 10
432.4198248221908
 20
97.88563771663348
 30
0.0
 40
5.500020120876314
100
AcDbArc
 50
269.9997791190108
 51
356.9992561333014
  0
DIMENSION
  5
8C81
330
1A
100
AcDbEntity
  8
SUNPOU
 48
5.0
100
AcDbDimension
  2
*D11
 10
490.637105740941
 20
94.88561759579794
 30
0.0
 11
485.637105740941
 21
110.885617595798
 31
0.0
 70
    32
 71
     5
 42
65.68840000000007
  3
STANDARD
100
AcDbAlignedDimension
 13
444.2450036190603
 23
160.574017595798
 33
0.0
 14
432.3936036190603
 24
94.88561759579795
 34
0.0
 50
90.0
100
AcDbRotatedDimension
1001
ACAD
1000
DSTYLE
1002
{
1070
   140
1040
6.0
1070
    74
1070
     0
1070
   172
1070
     1
1070
    73
1070
     0
1070
   272
1070
     2
1070
    77
1070
     3
1070
   173
1070
     1
1070
   280
1070
     2
1070
   147
1040
2.0
1070
    42
1040
6.0
1070
    44
1040
3.0
1070
    43
1040
14.0
1070
   271
1070
     0
1070
   178
1070
     4
1070
   177
1070
     4
1070
   176
1070
     4
1070
   141
1040
150.0
1070
     7
1000
_OPEN
1070
     6
1000
_OPEN
1070
    41
1040
7.0
1002
}
  0
LINE
  5
8C82
330
1A
100
AcDbEntity
  8
SEIHIN
  6
PHANTOM
 62
     6
 48
5.0
100
AcDbLine
 10
446.7480501845993
 20
66.48401759579792
 30
0.0
 11
449.2480501845995
 21
66.48401759579792
 31
0.0
  0
LINE
  5
8C83
330
1A
100
AcDbEntity
  8
SEIHIN
  6
PHANTOM
 62
     6
 48
5.0
100
AcDbLine
 10
448.8860501845994
 20
193.985517595798
 30
0.0
 11
601.7814501845994
 21
239.8562175957979
 31
0.0
  0
LINE
  5
8C84
330
1A
100
AcDbEntity
  8
SEIHIN
  6
PHANTOM
 62
     6
 48
5.0
100
AcDbLine
 10
449.6044501845994
 20
191.591017595798
 30
0.0
 11
602.4997501845994
 21
237.461717595798
 31
0.0
  0
LINE
  5
8C85
330
1A
100
AcDbEntity
  8
SEIHIN
  6
Continuous
 62
     3
 48
5.0
100
AcDbLine
 10
449.2481036190604
 20
133.0783175957979
 30
0.0
 11
449.2482036190604
 21
257.7063175957981
 31
0.0
  0
LINE
  5
8C86
330
1A
100
AcDbEntity
  8
SEIHIN
  6
Continuous
 62
     3
 48
5.0
100
AcDbLine
 10
446.7481036190602
 20
133.0783175957979
 30
0.0
 11
446.7482036190604
 21
257.7063175957981
 31
0.0
  0
LINE
  5
8C87
330
1A
100
AcDbEntity
  8
SEIHIN
  6
PHANTOM
 62
     6
 48
5.0
100
AcDbLine
 10
444.2481501845992
 20
191.1120175957981
 30
0.0
 11
444.2481501845992
 21
168.8141175957979
 31
0.0
  0
DIMENSION
  5
8C88
330
1A
100
AcDbEntity
  8
SUNPOU
100
AcDbDimension
  2
*D12
 10
505.578096557123
 20
133.0783175957979
 30
0.0
 11
500.5780965571229
 21
151.078317595798
 31
0.0
 70
    32
 71
     5
 42
124.6280000000001
  3
STANDARD
100
AcDbAlignedDimension
 13
449.2482036190604
 23
257.7063175957981
 33
0.0
 14
449.2481036190604
 24
133.0783175957979
 34
0.0
 50
90.0
100
AcDbRotatedDimension
1001
ACAD
1000
DSTYLE
1002
{
1070
   140
1040
6.0
1070
    74
1070
     0
1070
   172
1070
     1
1070
    73
1070
     0
1070
   272
1070
     2
1070
    77
1070
     3
1070
   173
1070
     1
1070
   280
1070
     2
1070
   147
1040
2.0
1070
    42
1040
6.0
1070
    44
1040
3.0
1070
    43
1040
14.0
1070
   271
1070
     0
1070
   178
1070
     4
1070
   177
1070
     4
1070
   176
1070
     4
1070
   141
1040
150.0
1070
     7
1000
_OPEN
1070
     6
1000
_OPEN
1070
    41
1040
7.0
1002
}
  0
LINE
  5
8C89
330
1A
100
AcDbEntity
  8
SEIHIN
  6
Continuous
 62
     3
 48
5.0
100
AcDbLine
 10
455.2450036190602
 20
142.574017595798
 30
0.0
 11
455.2450036190602
 21
146.074017595798
 31
0.0
  0
LINE
  5
8C8A
330
1A
100
AcDbEntity
  8
SEIHIN
  6
Continuous
 62
     3
 48
5.0
100
AcDbLine
 10
452.2450036190602
 20
147.074017595798
 30
0.0
 11
452.2450036190602
 21
142.574017595798
 31
0.0
  0
LINE
  5
8C8B
330
1A
100
AcDbEntity
  8
SEIHIN
  6
Continuous
 62
     3
 48
5.0
100
AcDbLine
 10
446.7450036190603
 20
133.9082175957981
 30
0.0
 11
446.7450036190603
 21
156.9083175957981
 31
0.0
  0
LINE
  5
8C8C
330
1A
100
AcDbEntity
  8
SEIHIN
  6
Continuous
 62
     3
 48
5.0
100
AcDbLine
 10
444.7450036190603
 20
135.362717595798
 30
0.0
 11
444.7450036190603
 21
158.074017595798
 31
0.0
  0
LINE
  5
8C8D
330
1A
100
AcDbEntity
  8
SEIHIN
  6
Continuous
 62
     3
 48
5.0
100
AcDbLine
 10
450.7450036190603
 20
136.574017595798
 30
0.0
 11
450.7450036190603
 21
148.574017595798
 31
0.0
  0
LINE
  5
8C8E
330
1A
100
AcDbEntity
  8
SEIHIN
  6
Continuous
 62
     3
 48
5.0
100
AcDbLine
 10
444.1450036190604
 20
136.824017595798
 30
0.0
 11
444.1450036190604
 21
148.324017595798
 31
0.0
  0
ARC
  5
8C8F
330
1A
100
AcDbEntity
  8
SEIHIN
  6
Continuous
 62
     3
 48
5.0
100
AcDbCircle
 10
449.8333036192778
 20
142.574067595798
 30
0.0
 40
8.088181618569925
100
AcDbArc
 50
134.6911895971244
 51
225.3088104028757
  0
LINE
  5
8C90
330
1A
100
AcDbEntity
  8
SEIHIN
  6
Continuous
 62
     3
 48
5.0
100
AcDbLine
 10
462.7450036190603
 20
140.074017595798
 30
0.0
 11
462.7450036190603
 21
145.074017595798
 31
0.0
  0
LINE
  5
8C91
330
1A
100
AcDbEntity
  8
SEIHIN
  6
Continuous
 62
     3
 48
5.0
100
AcDbLine
 10
452.2450036190602
 20
138.074017595798
 30
0.0
 11
455.2450036190602
 21
139.074017595798
 31
0.0
  0
ARC
  5
8C92
330
1A
100
AcDbEntity
  8
SEIHIN
  6
Continuous
 62
     3
 48
5.0
100
AcDbCircle
 10
460.5438830261652
 20
143.0722309856319
 30
0.0
 40
11.0000079420562
100
AcDbArc
 50
207.0252235677439
 51
266.9098482164764
  0
LINE
  5
8C93
330
1A
100
AcDbEntity
  8
CENTER L
  6
CENTER
 62
     1
 48
5.0
100
AcDbLine
 10
465.2826036190602
 20
142.574017595798
 30
0.0
 11
439.4616036190603
 21
142.574017595798
 31
0.0
  0
LINE
  5
8C94
330
1A
100
AcDbEntity
  8
SEIHIN
  6
Continuous
 62
     3
 48
5.0
100
AcDbLine
 10
432.8929036190604
 20
97.35941759579805
 30
0.0
 11
434.4903036190603
 21
127.8390175957981
 31
0.0
  0
LINE
  5
8C95
330
1A
100
AcDbEntity
  8
SEIHIN
  6
Continuous
 62
     3
 48
5.0
100
AcDbLine
 10
434.8902036190603
 20
97.25471759579807
 30
0.0
 11
436.4875036190604
 21
127.7343175957981
 31
0.0
  0
LINE
  5
8C96
330
1A
100
AcDbEntity
  8
SEIHIN
  6
Continuous
 62
     3
 48
5.0
100
AcDbLine
 10
439.3840036190603
 20
125.6795175957981
 30
0.0
 11
437.9123036190604
 21
97.59771759579792
 31
0.0
  0
LINE
  5
8C97
330
1A
100
AcDbEntity
  8
SEIHIN
  6
Continuous
 62
     3
 48
5.0
100
AcDbLine
 10
445.4950036190602
 20
133.1976175957981
 30
0.0
 11
436.7368036190604
 21
128.1411175957981
 31
0.0
  0
LINE
  5
8C98
330
1A
100
AcDbEntity
  8
SEIHIN
  6
Continuous
 62
     3
 48
5.0
100
AcDbLine
 10
435.7368036190604
 20
129.8732175957981
 30
0.0
 11
444.4950036190603
 21
134.9297175957981
 31
0.0
  0
ARC
  5
8C99
330
1A
100
AcDbEntity
  8
SEIHIN
  6
Continuous
 62
     3
 48
5.0
100
AcDbCircle
 10
436.9868047525642
 20
127.7081194453986
 30
0.0
 40
0.49998796485771
100
AcDbArc
 50
120.0009462499095
 51
176.9964653990441
  0
ARC
  5
8C9A
330
1A
100
AcDbEntity
  8
SEIHIN
  6
Continuous
 62
     3
 48
5.0
100
AcDbCircle
 10
436.9868595720035
 20
127.7082088993358
 30
0.0
 40
2.499980508173149
100
AcDbArc
 50
120.0017386693295
 51
177.0006924918462
  0
ARC
  5
8C9B
330
1A
100
AcDbEntity
  8
SEIHIN
  6
Continuous
 62
     3
 48
5.0
100
AcDbCircle
 10
438.7450300175849
 20
135.0740633188231
 30
0.0
 40
7.999973601606071
100
AcDbArc
 50
299.999063850422
 51
359.999672531874
  0
ARC
  5
8C9C
330
1A
100
AcDbEntity
  8
SEIHIN
  6
Continuous
 62
     3
 48
5.0
100
AcDbCircle
 10
440.3826087518058
 20
125.6272259721199
 30
0.0
 40
0.9999733121701943
100
AcDbArc
 50
120.001222446163
 51
177.002463480942
  0
LINE
  5
8C9D
330
1A
100
AcDbEntity
  8
SEIHIN
  6
Continuous
 62
     3
 48
5.0
100
AcDbLine
 10
442.7450036190602
 20
128.145817595798
 30
0.0
 11
439.8826036190604
 21
126.4932175957981
 31
0.0
  0
LINE
  5
8C9E
330
1A
100
AcDbEntity
  8
SEIHIN
  6
Continuous
 62
     3
 48
5.0
100
AcDbLine
 10
444.7450036190603
 20
136.824017595798
 30
0.0
 11
444.1450036190604
 21
136.824017595798
 31
0.0
  0
ARC
  5
8C9F
330
1A
100
AcDbEntity
  8
SEIHIN
  6
Continuous
 62
     3
 48
5.0
100
AcDbCircle
 10
444.2450091191209
 20
135.362727122322
 30
0.0
 40
0.499994500030178
100
AcDbArc
 50
299.9996361095808
 51
359.9989083287533
  0
LINE
  5
8CA0
330
1A
100
AcDbEntity
  8
SEIHIN
  6
Continuous
 62
     3
 48
5.0
100
AcDbLine
 10
450.7450036190603
 20
142.074017595798
 30
0.0
 11
449.2450036190603
 21
142.074017595798
 31
0.0
  0
LINE
  5
8CA1
330
1A
100
AcDbEntity
  8
SEIHIN
  6
Continuous
 62
     3
 48
5.0
100
AcDbLine
 10
450.7450036190603
 20
143.074017595798
 30
0.0
 11
449.2450036190603
 21
143.074017595798
 31
0.0
  0
LINE
  5
8CA2
330
1A
100
AcDbEntity
  8
SEIHIN
  6
Continuous
 62
     3
 48
5.0
100
AcDbLine
 10
450.7450036190603
 20
136.574017595798
 30
0.0
 11
449.2450036190603
 21
136.574017595798
 31
0.0
  0
LINE
  5
8CA3
330
1A
100
AcDbEntity
  8
SEIHIN
  6
Continuous
 62
     3
 48
5.0
100
AcDbLine
 10
452.2450036190602
 20
138.074017595798
 30
0.0
 11
450.7450036190603
 21
138.074017595798
 31
0.0
  0
ARC
  5
8CA4
330
1A
100
AcDbEntity
  8
SEIHIN
  6
Continuous
 62
     3
 48
5.0
100
AcDbCircle
 10
444.2449878181602
 20
135.3626902280669
 30
0.0
 40
2.500015801049909
100
AcDbArc
 50
300.0002090727405
 51
0.0006272182299918
  0
LINE
  5
8CA5
330
1A
100
AcDbEntity
  8
SEIHIN
  6
Continuous
 62
     3
 48
5.0
100
AcDbLine
 10
446.7481036190602
 20
133.0783175957979
 30
0.0
 11
449.2481036190604
 21
133.0783175957979
 31
0.0
  0
LINE
  5
8CA6
330
1A
100
AcDbEntity
  8
SEIHIN
  6
Continuous
 62
     3
 48
5.0
100
AcDbLine
 10
452.2450036190602
 20
138.074017595798
 30
0.0
 11
452.2450036190602
 21
142.574017595798
 31
0.0
  0
ARC
  5
8CA7
330
1A
100
AcDbEntity
  8
SEIHIN
  6
Continuous
 62
     3
 48
5.0
100
AcDbCircle
 10
460.004808471339
 20
133.0867210068635
 30
0.0
 40
0.9999573965967212
100
AcDbArc
 50
266.9098499952148
 51
343.3026839400163
  0
ARC
  5
8CA8
330
1A
100
AcDbEntity
  8
SEIHIN
  6
Continuous
 62
     3
 48
5.0
100
AcDbCircle
 10
460.9474066179558
 20
136.2286128457083
 30
0.0
 40
0.9999855623935543
100
AcDbArc
 50
343.2976742661057
 51
81.23401052044392
  0
LINE
  5
8CA9
330
1A
100
AcDbEntity
  8
SEIHIN
  6
Continuous
 62
     3
 48
5.0
100
AcDbLine
 10
460.9626036190604
 20
132.7994175957981
 30
0.0
 11
461.9052036190602
 21
135.941317595798
 31
0.0
  0
LINE
  5
8CAA
330
1A
100
AcDbEntity
  8
SEIHIN
  6
Continuous
 62
     3
 48
5.0
100
AcDbLine
 10
462.7450036190603
 20
140.8740175957981
 30
0.0
 11
455.2450036190602
 21
140.8740175957981
 31
0.0
  0
LINE
  5
8CAB
330
1A
100
AcDbEntity
  8
SEIHIN
  6
Continuous
 62
     3
 48
5.0
100
AcDbLine
 10
462.7450036190603
 20
140.074017595798
 30
0.0
 11
455.2450036190602
 21
140.074017595798
 31
0.0
  0
LINE
  5
8CAC
330
1A
100
AcDbEntity
  8
SEIHIN
  6
Continuous
 62
     3
 48
5.0
100
AcDbLine
 10
459.7620036190602
 20
134.017317595798
 30
0.0
 11
460.1469036190604
 21
135.300517595798
 31
0.0
  0
ARC
  5
8CAD
330
1A
100
AcDbEntity
  8
SEIHIN
  6
Continuous
 62
     3
 48
5.0
100
AcDbCircle
 10
459.6680110511643
 20
135.4442051157702
 30
0.0
 40
0.4999841947320638
100
AcDbArc
 50
343.2985880045688
 51
78.25293660543514
  0
ARC
  5
8CAE
330
1A
100
AcDbEntity
  8
SEIHIN
  6
Continuous
 62
     3
 48
5.0
100
AcDbCircle
 10
459.2830920944502
 20
134.1609742463698
 30
0.0
 40
0.4999934816152889
100
AcDbArc
 50
261.9418084970111
 51
343.3026004856063
  0
LINE
  5
8CAF
330
1A
100
AcDbEntity
  8
SEIHIN
  6
Continuous
 62
     3
 48
5.0
100
AcDbLine
 10
454.0955036190602
 20
137.109717595798
 30
0.0
 11
454.9577036190602
 21
137.3971175957981
 31
0.0
  0
ARC
  5
8CB0
330
1A
100
AcDbEntity
  8
SEIHIN
  6
Continuous
 62
     3
 48
5.0
100
AcDbCircle
 10
455.1158541222554
 20
136.9228150339043
 30
0.0
 40
0.499974501229681
100
AcDbArc
 50
65.76249988084007
 51
108.4403465205747
  0
ARC
  5
8CB1
330
1A
100
AcDbEntity
  8
SEIHIN
  6
Continuous
 62
     3
 48
5.0
100
AcDbCircle
 10
454.2536983320874
 20
136.635394601926
 30
0.0
 40
0.500007869683468
100
AcDbArc
 50
108.4444118015267
 51
225.6548997842567
  0
ARC
  5
8CB2
330
1A
100
AcDbEntity
  8
SEIHIN
  6
Continuous
 62
     3
 48
5.0
100
AcDbCircle
 10
464.1477742270516
 20
156.9832946621175
 30
0.0
 40
21.50003072824218
100
AcDbArc
 50
245.760806210939
 51
258.2509072230638
  0
ARC
  5
8CB3
330
1A
100
AcDbEntity
  8
SEIHIN
  6
Continuous
 62
     3
 48
5.0
100
AcDbCircle
 10
464.1476864846821
 20
156.983323030808
 30
0.0
 40
20.00002458424279
100
AcDbArc
 50
243.5681134773676
 51
261.2340247489674
  0
ARC
  5
8CB4
330
1A
100
AcDbEntity
  8
SEIHIN
  6
Continuous
 62
     3
 48
5.0
100
AcDbCircle
 10
460.5439253856131
 20
143.0722068868413
 30
0.0
 40
9.499980577636944
100
AcDbArc
 50
225.6596197418559
 51
261.9465225459464
  0
LINE
  5
8CB5
330
1A
100
AcDbEntity
  8
SEIHIN
  6
Continuous
 62
     3
 48
5.0
100
AcDbLine
 10
455.2450036190602
 20
142.574017595798
 30
0.0
 11
455.2450036190602
 21
139.074017595798
 31
0.0
  0
LINE
  5
8CB6
330
1A
100
AcDbEntity
  8
SEIHIN
  6
Continuous
 62
     3
 48
5.0
100
AcDbLine
 10
452.2450036190602
 20
147.074017595798
 30
0.0
 11
455.2450036190602
 21
146.074017595798
 31
0.0
  0
ARC
  5
8CB7
330
1A
100
AcDbEntity
  8
SEIHIN
  6
Continuous
 62
     3
 48
5.0
100
AcDbCircle
 10
460.543921185779
 20
142.0759290180645
 30
0.0
 40
10.99998522318186
100
AcDbArc
 50
93.09035722395434
 51
152.9754458692728
  0
ARC
  5
8CB8
330
1A
100
AcDbEntity
  8
SEIHIN
  6
PHANTOM
 62
     6
 48
5.0
100
AcDbCircle
 10
449.2481634855639
 20
168.8140945573189
 30
0.0
 40
5.000013301017687
100
AcDbArc
 50
179.9997359991784
 51
239.9985888062496
  0
LINE
  5
8CB9
330
1A
100
AcDbEntity
  8
SEIHIN
  6
Continuous
 62
     3
 48
5.0
100
AcDbLine
 10
434.0336036190604
 20
158.574017595798
 30
0.0
 11
444.2450036190603
 21
158.574017595798
 31
0.0
  0
LINE
  5
8CBA
330
1A
100
AcDbEntity
  8
SEIHIN
  6
Continuous
 62
     3
 48
5.0
100
AcDbLine
 10
434.0336036190604
 20
160.574017595798
 30
0.0
 11
444.2450036190603
 21
160.574017595798
 31
0.0
  0
LINE
  5
8CBB
330
1A
100
AcDbEntity
  8
SEIHIN
  6
Continuous
 62
     3
 48
5.0
100
AcDbLine
 10
433.6006036190603
 20
158.324017595798
 30
0.0
 11
429.7450036190603
 21
151.645817595798
 31
0.0
  0
LINE
  5
8CBC
330
1A
100
AcDbEntity
  8
SEIHIN
  6
Continuous
 62
     3
 48
5.0
100
AcDbLine
 10
431.8686036190604
 20
159.324017595798
 30
0.0
 11
428.0129036190604
 21
152.645817595798
 31
0.0
  0
LINE
  5
8CBD
330
1A
100
AcDbEntity
  8
SEIHIN
  6
Continuous
 62
     3
 48
5.0
100
AcDbLine
 10
428.0129036190604
 20
152.645817595798
 30
0.0
 11
429.7450036190603
 21
151.645817595798
 31
0.0
  0
ARC
  5
8CBE
330
1A
100
AcDbEntity
  8
SEIHIN
  6
Continuous
 62
     3
 48
5.0
100
AcDbCircle
 10
434.0336131455844
 20
158.0740230958584
 30
0.0
 40
0.4999945000303947
100
AcDbArc
 50
90.00109167124178
 51
150.0003638904145
  0
ARC
  5
8CBF
330
1A
100
AcDbEntity
  8
SEIHIN
  6
Continuous
 62
     3
 48
5.0
100
AcDbCircle
 10
434.0336512516802
 20
158.0740450961006
 30
0.0
 40
2.499972500151256
100
AcDbArc
 50
90.00109167124178
 51
150.0003638904145
  0
LINE
  5
8CC0
330
1A
100
AcDbEntity
  8
SEIHIN
  6
Continuous
 62
     3
 48
5.0
100
AcDbLine
 10
444.7450036190603
 20
148.324017595798
 30
0.0
 11
444.1450036190604
 21
148.324017595798
 31
0.0
  0
LINE
  5
8CC1
330
1A
100
AcDbEntity
  8
SEIHIN
  6
Continuous
 62
     3
 48
5.0
100
AcDbLine
 10
450.7450036190603
 20
148.574017595798
 30
0.0
 11
449.2450036190603
 21
148.574017595798
 31
0.0
  0
LINE
  5
8CC2
330
1A
100
AcDbEntity
  8
SEIHIN
  6
Continuous
 62
     3
 48
5.0
100
AcDbLine
 10
452.2450036190602
 20
147.074017595798
 30
0.0
 11
450.7450036190603
 21
147.074017595798
 31
0.0
  0
ARC
  5
8CC3
330
1A
100
AcDbEntity
  8
SEIHIN
  6
Continuous
 62
     3
 48
5.0
100
AcDbCircle
 10
444.2450036190603
 20
158.074017595798
 30
0.0
 40
2.500000000000057
100
AcDbArc
 50
359.9999999999992
 51
89.99999999999837
  0
ARC
  5
8CC4
330
1A
100
AcDbEntity
  8
SEIHIN
  6
Continuous
 62
     3
 48
5.0
100
AcDbCircle
 10
444.2450036190603
 20
158.074017595798
 30
0.0
 40
0.5000000000000568
100
AcDbArc
 50
359.9999999999951
 51
89.99999999999349
  0
ARC
  5
8CC5
330
1A
100
AcDbEntity
  8
SEIHIN
  6
Continuous
 62
     3
 48
5.0
100
AcDbCircle
 10
460.947406617956
 20
148.9194223458877
 30
0.0
 40
0.9999855623934971
100
AcDbArc
 50
278.7659894795528
 51
16.70232573389275
  0
LINE
  5
8CC6
330
1A
100
AcDbEntity
  8
SEIHIN
  6
Continuous
 62
     3
 48
5.0
100
AcDbLine
 10
460.9626036190604
 20
152.348717595798
 30
0.0
 11
461.9052036190602
 21
149.206817595798
 31
0.0
  0
LINE
  5
8CC7
330
1A
100
AcDbEntity
  8
SEIHIN
  6
Continuous
 62
     3
 48
5.0
100
AcDbLine
 10
462.7450036190603
 20
144.2740175957981
 30
0.0
 11
455.2450036190602
 21
144.2740175957981
 31
0.0
  0
LINE
  5
8CC8
330
1A
100
AcDbEntity
  8
SEIHIN
  6
Continuous
 62
     3
 48
5.0
100
AcDbLine
 10
462.7450036190603
 20
145.074017595798
 30
0.0
 11
455.2450036190602
 21
145.074017595798
 31
0.0
  0
ARC
  5
8CC9
330
1A
100
AcDbEntity
  8
SEIHIN
  6
Continuous
 62
     3
 48
5.0
100
AcDbCircle
 10
459.6680110511643
 20
149.7038300758258
 30
0.0
 40
0.4999841947320618
100
AcDbArc
 50
281.7470633945649
 51
16.70141199543122
  0
LINE
  5
8CCA
330
1A
100
AcDbEntity
  8
SEIHIN
  6
Continuous
 62
     3
 48
5.0
100
AcDbLine
 10
459.7620036190602
 20
151.1308175957981
 30
0.0
 11
460.1469036190604
 21
149.8475175957981
 31
0.0
  0
ARC
  5
8CCB
330
1A
100
AcDbEntity
  8
SEIHIN
  6
Continuous
 62
     3
 48
5.0
100
AcDbCircle
 10
460.0047614224101
 20
152.0613472564405
 30
0.0
 40
1.00002169257793
100
AcDbArc
 50
16.7002145006932
 51
93.08725156407198
  0
ARC
  5
8CCC
330
1A
100
AcDbEntity
  8
SEIHIN
  6
Continuous
 62
     3
 48
5.0
100
AcDbCircle
 10
459.2830466962201
 20
150.9870900185662
 30
0.0
 40
0.5000573471046963
100
AcDbArc
 50
16.70368899759144
 51
98.05190201979345
  0
LINE
  5
8CCD
330
1A
100
AcDbEntity
  8
SEIHIN
  6
Continuous
 62
     3
 48
5.0
100
AcDbLine
 10
454.0955036190602
 20
148.0383175957981
 30
0.0
 11
454.9577036190602
 21
147.7509175957981
 31
0.0
  0
ARC
  5
8CCE
330
1A
100
AcDbEntity
  8
SEIHIN
  6
Continuous
 62
     3
 48
5.0
100
AcDbCircle
 10
455.1158490719578
 20
148.2253199010735
 30
0.0
 40
0.5000675269629704
100
AcDbArc
 50
251.5638173489199
 51
294.2333362496125
  0
ARC
  5
8CCF
330
1A
100
AcDbEntity
  8
SEIHIN
  6
Continuous
 62
     3
 48
5.0
100
AcDbCircle
 10
454.2537107844673
 20
148.5126864368345
 30
0.0
 40
0.5000553014742107
100
AcDbArc
 50
134.3417835655395
 51
251.5558967153475
  0
ARC
  5
8CD0
330
1A
100
AcDbEntity
  8
SEIHIN
  6
Continuous
 62
     3
 48
5.0
100
AcDbCircle
 10
460.5439253856131
 20
142.0759283047547
 30
0.0
 40
9.499980577636945
100
AcDbArc
 50
98.05347745405359
 51
134.3403802581441
  0
ARC
  5
8CD1
330
1A
100
AcDbEntity
  8
SEIHIN
  6
Continuous
 62
     3
 48
5.0
100
AcDbCircle
 10
464.14786468424
 20
128.1647699094508
 30
0.0
 40
21.50000002065193
100
AcDbArc
 50
101.7490838218896
 51
114.2392027441083
  0
ARC
  5
8CD2
330
1A
100
AcDbEntity
  8
SEIHIN
  6
Continuous
 62
     3
 48
5.0
100
AcDbCircle
 10
464.1476391849095
 20
128.1646971575162
 30
0.0
 40
20.00001696447728
100
AcDbArc
 50
98.76555164749229
 51
116.4317460515138
  0
ARC
  5
8CD3
330
1A
100
AcDbEntity
  8
SEIHIN
  6
Continuous
 62
     3
 48
5.0
100
AcDbCircle
 10
483.4135539034267
 20
268.328429348122
 30
0.0
 40
5.000057544799343
100
AcDbArc
 50
46.69970893553834
 51
106.69917629477
  0
ARC
  5
8CD4
330
1A
100
AcDbEntity
  8
SEIHIN
  6
PHANTOM
 62
     6
 48
5.0
100
AcDbCircle
 10
483.4135004689657
 20
201.734129348122
 30
0.0
 40
5.000057544799343
100
AcDbArc
 50
46.69970893553834
 51
106.69917629477
  0
LINE
  5
8CD5
330
1A
100
AcDbEntity
  8
SEIHIN
  6
Continuous
 62
     3
 48
5.0
100
AcDbLine
 10
444.2482036190602
 20
257.7063175957981
 30
0.0
 11
444.2482036190602
 21
235.4084175957979
 31
0.0
  0
LINE
  5
8CD6
330
1A
100
AcDbEntity
  8
SEIHIN
  6
PHANTOM
 62
     6
 48
5.0
100
AcDbLine
 10
448.1676501845994
 20
196.3801175957981
 30
0.0
 11
481.9767501845995
 21
206.5233175957981
 31
0.0
  0
ARC
  5
8CD7
330
1A
100
AcDbEntity
  8
SEIHIN
  6
PHANTOM
 62
     6
 48
5.0
100
AcDbCircle
 10
449.7481891779593
 20
191.1120700047359
 30
0.0
 40
5.500038993609691
100
AcDbArc
 50
106.7004886509819
 51
180.0005459617553
  0
ARC
  5
8CD8
330
1A
100
AcDbEntity
  8
SEIHIN
  6
PHANTOM
 62
     6
 48
5.0
100
AcDbCircle
 10
449.7481955254879
 20
191.1120785353418
 30
0.0
 40
0.500045344601652
100
AcDbArc
 50
106.7062267580954
 51
180.0069825241004
  0
ARC
  5
8CD9
330
1A
100
AcDbEntity
  8
SEIHIN
  6
PHANTOM
 62
     6
 48
5.0
100
AcDbCircle
 10
449.7481684061554
 20
191.1120420865359
 30
0.0
 40
3.000018221655909
100
AcDbArc
 50
106.7006266154081
 51
180.0004677357985
  0
ARC
  5
8CDA
330
1A
100
AcDbEntity
  8
SEIHIN
  6
Continuous
 62
     3
 48
5.0
100
AcDbCircle
 10
449.2482169200248
 20
235.4083945573188
 30
0.0
 40
5.000013301017687
100
AcDbArc
 50
179.9997359991784
 51
239.9985888062496
  0
LINE
  5
8CDB
330
1A
100
AcDbEntity
  8
SEIHIN
  6
Continuous
 62
     3
 48
5.0
100
AcDbLine
 10
448.1677036190604
 20
262.9744175957981
 30
0.0
 11
481.9768036190604
 21
273.117617595798
 31
0.0
  0
ARC
  5
8CDC
330
1A
100
AcDbEntity
  8
SEIHIN
  6
Continuous
 62
     3
 48
5.0
100
AcDbCircle
 10
449.7482426124202
 20
257.7063700047359
 30
0.0
 40
5.500038993609691
100
AcDbArc
 50
106.7004886509819
 51
180.0005459617553
  0
ARC
  5
8CDD
330
1A
100
AcDbEntity
  8
SEIHIN
  6
Continuous
 62
     3
 48
5.0
100
AcDbCircle
 10
449.7482218406163
 20
257.7063420865359
 30
0.0
 40
3.000018221655909
100
AcDbArc
 50
106.7006266154081
 51
180.0004677357985
  0
ARC
  5
8CDE
330
1A
100
AcDbEntity
  8
SEIHIN
  6
Continuous
 62
     3
 48
5.0
100
AcDbCircle
 10
449.7482489599488
 20
257.7063785353417
 30
0.0
 40
0.500045344601652
100
AcDbArc
 50
106.7062267580954
 51
180.0069825241004
  0
LINE
  5
8CDF
330
1A
100
AcDbEntity
  8
SEIHIN
  6
PHANTOM
 62
     6
 48
5.0
100
AcDbLine
 10
494.9839501845993
 20
213.035917595798
 30
0.0
 11
498.5759501845995
 21
201.0631175957981
 31
0.0
  0
LINE
  5
8CE0
330
1A
100
AcDbEntity
  8
SEIHIN
  6
PHANTOM
 62
     6
 48
5.0
100
AcDbLine
 10
542.8752501845995
 20
227.4038175957979
 30
0.0
 11
546.4671501845994
 21
215.4311175957979
 31
0.0
  0
LINE
  5
8CE1
330
1A
100
AcDbEntity
  8
CENTER L
  6
CENTER
 62
     1
 48
5.0
100
AcDbLine
 10
494.9840036190602
 20
279.6302175957979
 30
0.0
 11
498.5760036190604
 21
267.6574175957981
 31
0.0
  0
LINE
  5
8CE2
330
1A
100
AcDbEntity
  8
SEIHIN
  6
PHANTOM
 62
     6
 48
5.0
100
AcDbLine
 10
590.7663501845996
 20
241.7718175957981
 30
0.0
 11
594.3583501845994
 21
229.799017595798
 31
0.0
  0
LINE
  5
8CE3
330
1A
100
AcDbEntity
  8
SEIHIN
  6
PHANTOM
 62
     6
 48
5.0
100
AcDbLine
 10
601.7814501845994
 20
239.8562175957979
 30
0.0
 11
602.4998501845994
 21
237.4616175957981
 31
0.0
  0
ELLIPSE
  5
8CE4
330
1A
100
AcDbEntity
  8
SEIHIN
100
AcDbEllipse
 10
592.2033036190602
 20
484.0956970773614
 30
0.0
 11
0.0
 21
2.133350000000064
 31
0.0
210
0.0
220
0.0
230
1.0
 40
0.9436508589746305
 41
0.0
 42
6.283185307179586
  0
ELLIPSE
  5
8CE5
330
1A
100
AcDbEntity
  8
SEIHIN
100
AcDbEllipse
 10
544.3121036190604
 20
484.0956970773614
 30
0.0
 11
0.0
 21
2.133350000000064
 31
0.0
210
0.0
220
0.0
230
1.0
 40
0.9436508589746305
 41
0.0
 42
6.283185307179586
  0
ELLIPSE
  5
8CE6
330
1A
100
AcDbEntity
  8
SEIHIN
100
AcDbEllipse
 10
496.4207036190604
 20
484.0623470773613
 30
0.0
 11
0.0
 21
2.133350000000064
 31
0.0
210
0.0
220
0.0
230
1.0
 40
0.9436508589746305
 41
0.0
 42
6.283185307179586
  0
DIMENSION
  5
8CE7
330
1A
100
AcDbEntity
  8
SUNPOU
 48
5.0
100
AcDbDimension
  2
*D13
 10
645.5622571514086
 20
474.5956970773613
 30
0.0
 11
640.5622571514085
 21
484.0955970773615
 31
0.0
 70
    32
 71
     5
 42
18.99980000000011
  3
STANDARD
100
AcDbAlignedDimension
 13
601.7813036190604
 23
493.5954970773614
 33
0.0
 14
601.7813036190604
 24
474.5956970773613
 34
0.0
 50
90.0
100
AcDbRotatedDimension
1001
ACAD
1000
DSTYLE
1002
{
1070
   140
1040
6.0
1070
    74
1070
     0
1070
   172
1070
     1
1070
    73
1070
     0
1070
   272
1070
     2
1070
    77
1070
     3
1070
   173
1070
     1
1070
   147
1040
2.0
1070
    42
1040
6.0
1070
    44
1040
3.0
1070
    43
1040
14.0
1070
   271
1070
     0
1070
   178
1070
     4
1070
   177
1070
     4
1070
   176
1070
     4
1070
   141
1040
150.0
1070
     7
1000
_OPEN
1070
     6
1000
_OPEN
1070
    41
1040
7.0
1002
}
  0
DIMENSION
  5
8CE8
330
1A
100
AcDbEntity
  8
SUNPOU
100
AcDbDimension
  2
*D14
 10
514.4789521812845
 20
388.6476086633898
 30
0.0
 11
536.9877982554176
 21
400.6207493401454
 31
0.0
 70
    33
 71
     5
 42
50.00016996988688
  3
STANDARD
100
AcDbAlignedDimension
 13
570.8484808232962
 23
374.7561921663794
 33
0.0
 14
522.9571873978206
 24
360.388136937763
 34
0.0
1001
ACAD
1000
DSTYLE
1002
{
1070
   140
1040
6.0
1070
    74
1070
     0
1070
   172
1070
     1
1070
    73
1070
     0
1070
   272
1070
     2
1070
    77
1070
     3
1070
   173
1070
     1
1070
   147
1040
2.0
1070
    42
1040
6.0
1070
    44
1040
3.0
1070
    43
1040
14.0
1070
   271
1070
     0
1070
   178
1070
     4
1070
   177
1070
     4
1070
   176
1070
     4
1070
   141
1040
150.0
1070
     7
1000
_OPEN
1070
     6
1000
_OPEN
1070
    41
1040
7.0
1002
}
  0
LINE
  5
8CE9
330
1A
100
AcDbEntity
  8
SEIHIN
  6
Continuous
 62
     3
 48
5.0
100
AcDbLine
 10
469.2175698243591
 20
330.170996949748
 30
0.0
 11
584.3061698243591
 21
364.698796949748
 31
0.0
  0
LINE
  5
8CEA
330
1A
100
AcDbEntity
  8
SEIHIN
  6
Continuous
 62
     3
 48
5.0
100
AcDbLine
 10
462.5843698243589
 20
348.0176969497479
 30
0.0
 11
578.8461698243591
 21
382.897896949748
 31
0.0
  0
LINE
  5
8CEB
330
1A
100
AcDbEntity
  8
CENTER L
  6
CENTER
 62
     1
 48
5.0
100
AcDbLine
 10
585.6852698243592
 20
375.0312969497479
 30
0.0
 11
463.6602698243592
 21
338.422096949748
 31
0.0
  0
DIMENSION
  5
8CEC
330
1A
100
AcDbEntity
  8
SUNPOU
100
AcDbDimension
  2
*D15
 10
562.3702456067603
 20
403.0156638920062
 30
0.0
 11
590.6260657664578
 21
411.4928035878913
 31
0.0
 70
   161
 71
     5
 42
10.00005542911276
  3
STANDARD
100
AcDbAlignedDimension
 13
580.4267600394486
 23
377.6298093717059
 33
0.0
 14
570.8484808232962
 24
374.7561921663794
 34
0.0
1001
ACAD
1000
DSTYLE
1002
{
1070
   288
1070
     1
1070
   140
1040
6.0
1070
    74
1070
     0
1070
   172
1070
     1
1070
    73
1070
     0
1070
   272
1070
     2
1070
    77
1070
     3
1070
   173
1070
     1
1070
   147
1040
2.0
1070
    42
1040
6.0
1070
    44
1040
3.0
1070
    43
1040
14.0
1070
   271
1070
     0
1070
   178
1070
     4
1070
   177
1070
     4
1070
   176
1070
     4
1070
   141
1040
150.0
1070
     7
1000
_OPEN
1070
     6
1000
_OPEN
1070
    41
1040
7.0
1002
}
  0
DIMENSION
  5
8CED
330
1A
100
AcDbEntity
  8
SUNPOU
100
AcDbDimension
  2
*D16
 10
466.5878514101319
 20
374.2796112337543
 30
0.0
 11
489.0966011571036
 21
386.2527230110194
 31
0.0
 70
    33
 71
     5
 42
49.99996883209747
  3
STANDARD
100
AcDbAlignedDimension
 13
522.9571873978206
 23
360.388136937763
 33
0.0
 14
475.0660866266678
 24
346.0201395081275
 34
0.0
1001
ACAD
1000
DSTYLE
1002
{
1070
   140
1040
6.0
1070
    74
1070
     0
1070
   172
1070
     1
1070
    73
1070
     0
1070
   272
1070
     2
1070
    77
1070
     3
1070
   173
1070
     1
1070
   147
1040
2.0
1070
    42
1040
6.0
1070
    44
1040
3.0
1070
    43
1040
14.0
1070
   271
1070
     0
1070
   178
1070
     4
1070
   177
1070
     4
1070
   176
1070
     4
1070
   141
1040
150.0
1070
     7
1000
_OPEN
1070
     6
1000
_OPEN
1070
    41
1040
7.0
1002
}
  0
CIRCLE
  5
8CEE
330
1A
100
AcDbEntity
  8
SEIHIN
 48
5.0
100
AcDbCircle
 10
476.1504558094479
 20
342.4057770061357
 30
0.0
 40
2.1
  0
LINE
  5
8CEF
330
1A
100
AcDbEntity
  8
CENTER L
  6
CENTER
 62
     1
 48
5.0
100
AcDbLine
 10
474.8943698243588
 20
346.592496949748
 30
0.0
 11
477.4064698243587
 21
338.219296949748
 31
0.0
  0
LINE
  5
8CF0
330
1A
100
AcDbEntity
  8
CENTER L
  6
CENTER
 62
     1
 48
5.0
100
AcDbLine
 10
522.7854698243591
 20
360.9604969497481
 30
0.0
 11
525.297569824359
 21
352.587296949748
 31
0.0
  0
CIRCLE
  5
8CF1
330
1A
100
AcDbEntity
  8
SEIHIN
 48
5.0
100
AcDbCircle
 10
524.0415198243591
 20
356.773896949748
 30
0.0
 40
2.1
  0
LINE
  5
8CF2
330
1A
100
AcDbEntity
  8
SEIHIN
  6
Continuous
 62
     3
 48
5.0
100
AcDbLine
 10
578.846369824359
 20
382.897496949748
 30
0.0
 11
584.3062698243589
 21
364.698796949748
 31
0.0
  0
DIMENSION
  5
8CF3
330
1A
100
AcDbEntity
  8
SUNPOU
100
AcDbDimension
  2
*D17
 10
613.1829960863005
 20
373.3622510597077
 30
0.0
 11
615.2421012104641
 21
383.8986199451403
 31
0.0
 70
    33
 71
     5
 42
19.0005245403666
  3
STANDARD
100
AcDbAlignedDimension
 13
578.8462570457398
 23
382.8979231174075
 33
0.0
 14
584.3062698243589
 24
364.6987969497479
 34
0.0
1001
ACAD
1000
DSTYLE
1002
{
1070
   140
1040
6.0
1070
    74
1070
     0
1070
   172
1070
     1
1070
    73
1070
     0
1070
   272
1070
     2
1070
    77
1070
     3
1070
   173
1070
     1
1070
   147
1040
2.0
1070
    42
1040
6.0
1070
    44
1040
3.0
1070
    43
1040
14.0
1070
   271
1070
     0
1070
   178
1070
     4
1070
   177
1070
     4
1070
   176
1070
     4
1070
   141
1040
150.0
1070
     7
1000
_OPEN
1070
     6
1000
_OPEN
1070
    41
1040
7.0
1002
}
  0
LEADER
  5
8CF4
330
1A
100
AcDbEntity
  8
SUNPOU
  6
Continuous
 62
     4
100
AcDbLeader
  3
STANDARD
 74
     0
 40
6.0
 41
31.2
 76
     3
 10
573.0859586124011
 20
372.72106617778
 30
0.0
 10
608.1341753017441
 20
421.4616701112624
 30
0.0
 10
610.4344523608452
 20
421.4616701112624
 30
0.0
1001
ACAD
1000
DSTYLE
1002
{
1070
     6
1000
OPEN
1070
    41
1040
7.0
1070
    42
1040
6.0
1070
    43
1040
14.0
1070
    44
1040
3.0
1070
    73
1070
     0
1070
    74
1070
     0
1070
    77
1070
     3
1070
   140
1040
6.0
1070
   141
1040
150.0
1070
   147
1040
2.0
1070
   172
1070
     1
1070
   173
1070
     1
1070
   176
1070
     4
1070
   177
1070
     4
1070
   178
1070
     4
1070
   271
1070
     0
1070
   272
1070
     2
1070
   341
1005
6D
1070
   343
1005
6D
1070
   344
1005
6D
1002
}
  0
LINE
  5
8CF5
330
1A
100
AcDbEntity
  8
CENTER L
  6
CENTER
 62
     1
 48
5.0
100
AcDbLine
 10
590.7664036190605
 20
308.3661175957981
 30
0.0
 11
594.3584036190604
 21
296.393317595798
 31
0.0
  0
LINE
  5
8CF6
330
1A
100
AcDbEntity
  8
SEIHIN
  6
Continuous
 62
     3
 48
5.0
100
AcDbLine
 10
601.7815036190604
 20
306.4505175957979
 30
0.0
 11
602.4999036190603
 21
304.0559175957981
 31
0.0
  0
LINE
  5
8CF7
330
1A
100
AcDbEntity
  8
CENTER L
  6
CENTER
 62
     1
 48
5.0
100
AcDbLine
 10
570.6768698243591
 20
375.328196949748
 30
0.0
 11
573.188969824359
 21
366.954996949748
 31
0.0
  0
CIRCLE
  5
8CF8
330
1A
100
AcDbEntity
  8
SEIHIN
 48
5.0
100
AcDbCircle
 10
571.9979311353119
 20
370.9249046568975
 30
0.0
 40
2.1
  0
LINE
  5
8CF9
330
1A
100
AcDbEntity
  8
SUNPOU
  6
Continuous
 62
     4
 48
5.0
100
AcDbLine
 10
640.0951388782528
 20
317.9424869088974
 30
0.0
 11
660.0944669548507
 21
317.9424869088974
 31
0.0
  0
LINE
  5
8CFA
330
1A
100
AcDbEntity
  8
SUNPOU
  6
Continuous
 62
     4
 48
5.0
100
AcDbLine
 10
660.0944669548507
 20
323.9411780532917
 30
0.0
 11
623.8295696586177
 21
313.0637166990856
 31
0.0
  0
TEXT
  5
8CFB
330
1A
100
AcDbEntity
  8
SUNPOU
 48
5.0
100
AcDbText
 10
664.8668109644118
 20
318.7807855208818
 30
0.0
 40
6.0
  1
3
100
AcDbText
  0
TEXT
  5
8CFC
330
1A
100
AcDbEntity
  8
SUNPOU
 48
5.0
100
AcDbText
 10
651.4119756867708
 20
309.4355122328219
 30
0.0
 40
6.0
  1
10
100
AcDbText
  0
LINE
  5
8CFD
330
1A
100
AcDbEntity
  8
SUNPOU
  6
Continuous
 62
     4
 48
5.0
100
AcDbLine
 10
660.0944669548507
 20
317.9447265912178
 30
0.0
 11
660.0944669548507
 21
323.9411780532917
 31
0.0
  0
MTEXT
  5
8CFE
330
1A
100
AcDbEntity
  8
SUNPOU
  6
Continuous
 62
     4
100
AcDbMText
 10
612.4344523608452
 20
423.4616701112624
 30
0.0
 40
6.0
 41
0.0
 71
     7
 72
     5
  1
3-φ4.2
 73
     1
 44
1.0
  0
ARC
  5
8CFF
330
1A
100
AcDbEntity
  8
SEIHIN
  6
Continuous
 62
     3
 48
5.0
100
AcDbCircle
 10
481.8427036190603
 20
484.0956970773614
 30
0.0
 40
5.0
100
AcDbArc
 50
270.0
 51
90.0
  0
LINE
  5
8D00
330
1A
100
AcDbEntity
  8
SEIHIN
  6
Continuous
 62
     3
 48
5.0
100
AcDbLine
 10
446.6648036190602
 20
479.0957970773613
 30
0.0
 11
481.8427036190603
 21
479.0956970773613
 31
0.0
  0
LINE
  5
8D01
330
1A
100
AcDbEntity
  8
SEIHIN
  6
Continuous
 62
     3
 48
5.0
100
AcDbLine
 10
446.6648036190602
 20
489.0957970773613
 30
0.0
 11
481.8427036190603
 21
489.0956970773614
 31
0.0
  0
LINE
  5
8D02
330
1A
100
AcDbEntity
  8
SEIHIN
  6
Continuous
 62
     3
 48
5.0
100
AcDbLine
 10
446.7284036190603
 20
493.5956970773614
 30
0.0
 11
446.7284036190603
 21
489.3396970773613
 31
0.0
  0
LINE
  5
8D03
330
1A
100
AcDbEntity
  8
SEIHIN
  6
Continuous
 62
     3
 48
5.0
100
AcDbLine
 10
432.5704036190604
 20
474.5956970773613
 30
0.0
 11
432.5704036190604
 21
493.5955970773614
 31
0.0
  0
LINE
  5
8D04
330
1A
100
AcDbEntity
  8
SEIHIN
  6
Continuous
 62
     3
 48
5.0
100
AcDbLine
 10
427.9931036190604
 20
474.5956970773613
 30
0.0
 11
427.9931036190604
 21
493.5955970773614
 31
0.0
  0
ARC
  5
8D05
330
1A
100
AcDbEntity
  8
SEIHIN
  6
Continuous
 62
     3
 48
5.0
100
AcDbCircle
 10
450.478303619167
 20
484.0958065543408
 30
0.0
 40
6.249864016919193
100
AcDbArc
 50
129.0228076853195
 51
230.9760122844133
  0
ARC
  5
8D06
330
1A
100
AcDbEntity
  8
SEIHIN
  6
Continuous
 62
     3
 48
5.0
100
AcDbCircle
 10
446.2283879745498
 20
478.8519298898111
 30
0.0
 40
0.5000156455870499
100
AcDbArc
 50
359.996240087874
 51
50.97852800592231
  0
LINE
  5
8D07
330
1A
100
AcDbEntity
  8
SEIHIN
  6
Continuous
 62
     3
 48
5.0
100
AcDbLine
 10
446.7283036190602
 20
474.5956970773613
 30
0.0
 11
446.7284036190603
 21
478.8518970773613
 31
0.0
  0
ARC
  5
8D08
330
1A
100
AcDbEntity
  8
SEIHIN
  6
Continuous
 62
     3
 48
5.0
100
AcDbCircle
 10
446.2284268201369
 20
489.3397457466728
 30
0.0
 40
0.4999768012921461
100
AcDbArc
 50
309.0193496335989
 51
359.9944226489454
  0
LINE
  5
8D09
330
1A
100
AcDbEntity
  8
CENTER L
  6
CENTER
 62
     1
 48
5.0
100
AcDbLine
 10
496.4207036190604
 20
479.3045970773613
 30
0.0
 11
496.4207036190604
 21
488.8200970773614
 31
0.0
  0
ARC
  5
8D0A
330
1A
100
AcDbEntity
  8
SEIHIN
  6
Continuous
 62
     3
 48
5.0
100
AcDbCircle
 10
497.2291036190604
 20
484.0946970773614
 30
0.0
 40
2.102847528947366
100
AcDbArc
 50
102.348236995587
 51
257.6517630044129
  0
LINE
  5
8D0B
330
1A
100
AcDbEntity
  8
CENTER L
  6
CENTER
 62
     1
 48
5.0
100
AcDbLine
 10
544.3121036190604
 20
479.3045970773613
 30
0.0
 11
544.3121036190604
 21
488.8200970773614
 31
0.0
  0
ARC
  5
8D0C
330
1A
100
AcDbEntity
  8
SEIHIN
  6
Continuous
 62
     3
 48
5.0
100
AcDbCircle
 10
545.1205036190604
 20
484.1280470773613
 30
0.0
 40
2.102847528947366
100
AcDbArc
 50
102.348236995587
 51
257.6517630044129
  0
LINE
  5
8D0D
330
1A
100
AcDbEntity
  8
SEIHIN
  6
Continuous
 62
     3
 48
5.0
100
AcDbLine
 10
602.4999036190603
 20
474.5956970773613
 30
0.0
 11
602.4999036190603
 21
493.5954970773614
 31
0.0
  0
LINE
  5
8D0E
330
1A
100
AcDbEntity
  8
SEIHIN
  6
Continuous
 62
     3
 48
5.0
100
AcDbLine
 10
601.7813036190604
 20
474.5956970773613
 30
0.0
 11
601.7813036190604
 21
493.5954970773614
 31
0.0
  0
LINE
  5
8D0F
330
1A
100
AcDbEntity
  8
CENTER L
  6
CENTER
 62
     1
 48
5.0
100
AcDbLine
 10
592.2033036190602
 20
479.3045970773613
 30
0.0
 11
592.2033036190602
 21
488.8200970773614
 31
0.0
  0
ARC
  5
8D10
330
1A
100
AcDbEntity
  8
SEIHIN
  6
Continuous
 62
     3
 48
5.0
100
AcDbCircle
 10
593.0117036190602
 20
484.1280470773613
 30
0.0
 40
2.102847528947366
100
AcDbArc
 50
102.348236995587
 51
257.6517630044129
  0
VIEWPORT
  5
22
330
17
100
AcDbEntity
 67
     1
  8
0
100
AcDbViewport
 10
313.6808219178082
 20
286.420032064001
 30
0.0
 40
627.3616438356164
 41
572.840064128002
 68
     2
 69
     1
 12
313.6808219178082
 22
286.420032064001
 13
0.0
 23
0.0
 14
1.0
 24
1.0
 15
10.0
 25
10.0
 16
0.0
 26
0.0
 36
1.0
 17
0.0
 27
0.0
 37
0.0
 42
50.0
 43
0.0
 44
0.0
 45
572.840064128002
 50
0.0
 51
0.0
 72
   100
 90
    32768
  1

281
     0
 71
     1
 74
     0
110
0.0
120
0.0
130
0.0
111
1.0
121
0.0
131
0.0
112
0.0
122
1.0
132
0.0
 79
     0
146
0.0
  0
VIEWPORT
  5
64
330
17
100
AcDbEntity
 67
     1
  8
VIEWPORT
100
AcDbViewport
 10
210.0
 20
148.5
 30
0.0
 40
420.0
 41
297.0
 68
     1
 69
     2
 12
420.0
 22
297.0
 13
0.0
 23
0.0
 14
10.0
 24
10.0
 15
0.0
 25
0.0
 16
0.0
 26
0.0
 36
1.0
 17
0.0
 27
0.0
 37
0.0
 42
50.0
 43
0.0
 44
0.0
 45
605.8799999999999
 50
0.0
 51
0.0
 72
   100
 90
    32768
  1

281
     0
 71
     1
 74
     0
110
0.0
120
0.0
130
0.0
111
1.0
121
0.0
131
0.0
112
0.0
122
1.0
132
0.0
 79
     0
146
0.0
  0
ENDSEC
  0
SECTION
  2
OBJECTS
  0
DICTIONARY
  5
C
330
0
100
AcDbDictionary
281
     1
  3
ACAD_GROUP
350
D
  3
ACAD_LAYOUT
350
A98
  3
ACAD_MLINESTYLE
350
E
  3
ACAD_PLOTSETTINGS
350
A99
  3
ACAD_PLOTSTYLENAME
350
A96
  0
DICTIONARY
  5
D
102
{ACAD_REACTORS
330
C
102
}
330
C
100
AcDbDictionary
281
     1
  3
*A1
350
FA3
  3
*A2
350
1597
  3
*A3
350
179D
  3
*A4
350
3390
  3
*A5
350
3A0A
  0
DICTIONARY
  5
A98
102
{ACAD_REACTORS
330
C
102
}
330
C
100
AcDbDictionary
281
     1
  3
Model
350
A9A
  3
ﾚｲｱｳﾄ1
350
A9B
  0
DICTIONARY
  5
E
102
{ACAD_REACTORS
330
C
102
}
330
C
100
AcDbDictionary
281
     1
  3
STANDARD
350
13
  0
DICTIONARY
  5
A99
102
{ACAD_REACTORS
330
C
102
}
330
C
100
AcDbDictionary
281
     1
  0
ACDBDICTIONARYWDFLT
  5
A96
102
{ACAD_REACTORS
330
C
102
}
330
C
100
AcDbDictionary
281
     1
  3
Normal
350
A97
100
AcDbDictionaryWithDefault
340
A97
1001
ACAD
1000
TREAT_AS_HARD
1070
     0
1000
TREAT_AS_HARD
1070
     0
1000
TREAT_AS_HARD
1070
     0
1000
TREAT_AS_HARD
1070
     0
  0
GROUP
  5
FA3
102
{ACAD_REACTORS
330
D
102
}
330
D
100
AcDbGroup
300

 70
     1
 71
     1
  0
GROUP
  5
1597
102
{ACAD_REACTORS
330
D
102
}
330
D
100
AcDbGroup
300

 70
     1
 71
     1
  0
GROUP
  5
179D
102
{ACAD_REACTORS
330
D
102
}
330
D
100
AcDbGroup
300

 70
     1
 71
     1
  0
GROUP
  5
3390
102
{ACAD_REACTORS
330
D
102
}
330
D
100
AcDbGroup
300

 70
     1
 71
     1
  0
GROUP
  5
3A0A
102
{ACAD_REACTORS
330
D
102
}
330
D
100
AcDbGroup
300

 70
     1
 71
     1
  0
LAYOUT
  5
A9A
102
{ACAD_REACTORS
330
A98
102
}
330
A98
100
AcDbPlotSettings
  1

  2
Adobe PDF
  4
A3
  6

 40
3.174999952316284
 41
3.174999952316284
 42
3.17498779296875
 43
3.17498779296875
 44
297.0318298339844
 45
420.1583251953125
 46
2.67
 47
2.85
 48
-8.09872987394283
 49
-9.441603207410708
140
808.114529312747
141
561.2334822198422
142
1.0
143
2.0
 70
 28340
 72
     1
 73
     1
 74
     4
  7
systemprinter.ctb
 75
    17
147
0.5
148
8.09872987394283
149
9.441603207410708
100
AcDbLayout
  1
Model
 70
     1
 71
     0
 10
0.0
 20
0.0
 11
12.0
 21
9.0
 12
0.0
 22
0.0
 32
0.0
 14
0.0
 24
0.0
 34
0.0
 15
0.0
 25
0.0
 35
0.0
146
0.0
 13
0.0
 23
0.0
 33
0.0
 16
1.0
 26
0.0
 36
0.0
 17
0.0
 27
1.0
 37
0.0
 76
     0
330
1A
  0
LAYOUT
  5
A9B
102
{ACAD_REACTORS
330
A98
102
}
330
A98
100
AcDbPlotSettings
  1

  2
C:\PROGRAM FILES\ACAD LT 2000\plotters\DWF ePlot.pc3
  4
ANSI_A_(8.50_x_11.00_Inches)
  6

 40
5.793749809265137
 41
17.79375076293945
 42
5.793746948242188
 43
17.79376220703125
 44
215.8999938964844
 45
279.3999938964844
 46
0.0
 47
0.0
 48
0.0
 49
0.0
140
0.0
141
0.0
142
1.0
143
43.75760864458461
 70
   688
 72
     0
 73
     1
 74
     1
  7
systemprinter.ctb
 75
     0
147
0.0228531684197454
148
0.3255366854427166
149
0.2302009418498301
100
AcDbLayout
  1
ﾚｲｱｳﾄ1
 70
     1
 71
     1
 10
-30.66685116754002
 20
-9.990190459854741
 11
450.6668334081172
 21
361.9494725043409
 12
0.0
 22
0.0
 32
0.0
 14
-0.0128164049386896
 24
-0.0090630292066862
 34
-0.0015258207003583
 15
420.0128183607162
 25
297.0090644122207
 35
0.0000000349246037
146
0.0
 13
0.0
 23
0.0
 33
0.0
 16
1.0
 26
0.0
 36
0.0
 17
0.0
 27
1.0
 37
0.0
 76
     0
330
17
331
64
  0
MLINESTYLE
  5
13
102
{ACAD_REACTORS
330
E
102
}
330
E
100
AcDbMlineStyle
  2
STANDARD
 70
     0
  3

 62
     0
 51
90.0
 52
90.0
 71
     2
 49
0.5
 62
   256
  6
BYLAYER
 49
-0.5
 62
   256
  6
BYLAYER
  0
ACDBPLACEHOLDER
  5
A97
102
{ACAD_REACTORS
330
A96
102
}
330
A96
  0
ENDSEC
  0
EOF
