  0
SECTION
  2
HEADER
  9
$ACADVER
  1
AC1015
  9
$ACADMAINTVER
 70
     6
  9
$DWGCODEPAGE
  3
ANSI_932
  9
$INSBASE
 10
0.0
 20
0.0
 30
0.0
  9
$EXTMIN
 10
0.0000000135560185
 20
-0.0000001317113174
 30
0.0
  9
$EXTMAX
 10
797.6000000135562
 20
551.5999998682888
 30
0.0
  9
$LIMMIN
 10
0.0
 20
0.0
  9
$LIMMAX
 10
840.0
 20
594.0
  9
$ORTHOMODE
 70
     0
  9
$REGENMODE
 70
     1
  9
$FILLMODE
 70
     1
  9
$QTEXTMODE
 70
     0
  9
$MIRRTEXT
 70
     1
  9
$LTSCALE
 40
2.0
  9
$ATTMODE
 70
     1
  9
$TEXTSIZE
 40
6.0
  9
$TRACEWID
 40
1.0
  9
$TEXTSTYLE
  7
STANDARD
  9
$CLAYER
  8
SEIHIN
  9
$CELTYPE
  6
BYLAYER
  9
$CECOLOR
 62
   256
  9
$CELTSCALE
 40
1.0
  9
$DISPSILH
 70
     0
  9
$DIMSCALE
 40
1.0
  9
$DIMASZ
 40
7.0
  9
$DIMEXO
 40
6.0
  9
$DIMDLI
 40
14.0
  9
$DIMRND
 40
0.0
  9
$DIMDLE
 40
0.0
  9
$DIMEXE
 40
3.0
  9
$DIMTP
 40
0.0
  9
$DIMTM
 40
0.0
  9
$DIMTXT
 40
6.0
  9
$DIMCEN
 40
150.0
  9
$DIMTSZ
 40
0.0
  9
$DIMTOL
 70
     0
  9
$DIMLIM
 70
     0
  9
$DIMTIH
 70
     0
  9
$DIMTOH
 70
     0
  9
$DIMSE1
 70
     0
  9
$DIMSE2
 70
     0
  9
$DIMTAD
 70
     3
  9
$DIMZIN
 70
     0
  9
$DIMBLK
  1

  9
$DIMASO
 70
     1
  9
$DIMSHO
 70
     1
  9
$DIMPOST
  1

  9
$DIMAPOST
  1

  9
$DIMALT
 70
     0
  9
$DIMALTD
 70
     2
  9
$DIMALTF
 40
25.4
  9
$DIMLFAC
 40
1.0
  9
$DIMTOFL
 70
     1
  9
$DIMTVP
 40
0.0
  9
$DIMTIX
 70
     0
  9
$DIMSOXD
 70
     0
  9
$DIMSAH
 70
     1
  9
$DIMBLK1
  1
OPEN
  9
$DIMBLK2
  1
OPEN
  9
$DIMSTYLE
  2
STANDARD
  9
$DIMCLRD
 70
   256
  9
$DIMCLRE
 70
   256
  9
$DIMCLRT
 70
   256
  9
$DIMTFAC
 40
1.0
  9
$DIMGAP
 40
2.0
  9
$DIMJUST
 70
     0
  9
$DIMSD1
 70
     0
  9
$DIMSD2
 70
     0
  9
$DIMTOLJ
 70
     1
  9
$DIMTZIN
 70
     0
  9
$DIMALTZ
 70
     0
  9
$DIMALTTZ
 70
     0
  9
$DIMUPT
 70
     0
  9
$DIMDEC
 70
     0
  9
$DIMTDEC
 70
     0
  9
$DIMALTU
 70
     2
  9
$DIMALTTD
 70
     2
  9
$DIMTXSTY
  7
STANDARD
  9
$DIMAUNIT
 70
     0
  9
$DIMADEC
 70
     0
  9
$DIMALTRND
 40
0.0
  9
$DIMAZIN
 70
     0
  9
$DIMDSEP
 70
    46
  9
$DIMATFIT
 70
     3
  9
$DIMFRAC
 70
     0
  9
$DIMLDRBLK
  1
OPEN
  9
$DIMLUNIT
 70
     2
  9
$DIMLWD
 70
    -1
  9
$DIMLWE
 70
    -1
  9
$DIMTMOVE
 70
     0
  9
$LUNITS
 70
     2
  9
$LUPREC
 70
     4
  9
$SKETCHINC
 40
1.0
  9
$FILLETRAD
 40
10.0
  9
$AUNITS
 70
     0
  9
$AUPREC
 70
     0
  9
$MENU
  1
.
  9
$ELEVATION
 40
0.0
  9
$PELEVATION
 40
0.0
  9
$THICKNESS
 40
0.0
  9
$LIMCHECK
 70
     0
  9
$CHAMFERA
 40
0.0
  9
$CHAMFERB
 40
0.0
  9
$CHAMFERC
 40
40.0
  9
$CHAMFERD
 40
0.0
  9
$SKPOLY
 70
     0
  9
$TDCREATE
 40
2451030.614786227
  9
$TDUCREATE
 40
2451030.239786227
  9
$TDUPDATE
 40
2455609.406912465
  9
$TDUUPDATE
 40
2455609.031912465
  9
$TDINDWG
 40
0.3444018171
  9
$TDUSRTIMER
 40
0.3444018171
  9
$USRTIMER
 70
     1
  9
$ANGBASE
 50
0.0
  9
$ANGDIR
 70
     0
  9
$PDMODE
 70
     0
  9
$PDSIZE
 40
0.0
  9
$PLINEWID
 40
0.0
  9
$SPLFRAME
 70
     0
  9
$SPLINETYPE
 70
     6
  9
$SPLINESEGS
 70
     8
  9
$HANDSEED
  5
9372
  9
$SURFTAB1
 70
     6
  9
$SURFTAB2
 70
     6
  9
$SURFTYPE
 70
     6
  9
$SURFU
 70
     6
  9
$SURFV
 70
     6
  9
$UCSBASE
  2

  9
$UCSNAME
  2

  9
$UCSORG
 10
0.0
 20
0.0
 30
0.0
  9
$UCSXDIR
 10
1.0
 20
0.0
 30
0.0
  9
$UCSYDIR
 10
0.0
 20
1.0
 30
0.0
  9
$UCSORTHOREF
  2

  9
$UCSORTHOVIEW
 70
     0
  9
$UCSORGTOP
 10
0.0
 20
0.0
 30
0.0
  9
$UCSORGBOTTOM
 10
0.0
 20
0.0
 30
0.0
  9
$UCSORGLEFT
 10
0.0
 20
0.0
 30
0.0
  9
$UCSORGRIGHT
 10
0.0
 20
0.0
 30
0.0
  9
$UCSORGFRONT
 10
0.0
 20
0.0
 30
0.0
  9
$UCSORGBACK
 10
0.0
 20
0.0
 30
0.0
  9
$PUCSBASE
  2

  9
$PUCSNAME
  2

  9
$PUCSORG
 10
0.0
 20
0.0
 30
0.0
  9
$PUCSXDIR
 10
1.0
 20
0.0
 30
0.0
  9
$PUCSYDIR
 10
0.0
 20
1.0
 30
0.0
  9
$PUCSORTHOREF
  2

  9
$PUCSORTHOVIEW
 70
     0
  9
$PUCSORGTOP
 10
0.0
 20
0.0
 30
0.0
  9
$PUCSORGBOTTOM
 10
0.0
 20
0.0
 30
0.0
  9
$PUCSORGLEFT
 10
0.0
 20
0.0
 30
0.0
  9
$PUCSORGRIGHT
 10
0.0
 20
0.0
 30
0.0
  9
$PUCSORGFRONT
 10
0.0
 20
0.0
 30
0.0
  9
$PUCSORGBACK
 10
0.0
 20
0.0
 30
0.0
  9
$USERI1
 70
     0
  9
$USERI2
 70
     0
  9
$USERI3
 70
     0
  9
$USERI4
 70
     0
  9
$USERI5
 70
     0
  9
$USERR1
 40
0.0
  9
$USERR2
 40
0.0
  9
$USERR3
 40
0.0
  9
$USERR4
 40
0.0
  9
$USERR5
 40
0.0
  9
$WORLDVIEW
 70
     1
  9
$SHADEDGE
 70
     3
  9
$SHADEDIF
 70
    70
  9
$TILEMODE
 70
     1
  9
$MAXACTVP
 70
    16
  9
$PINSBASE
 10
0.0
 20
0.0
 30
0.0
  9
$PLIMCHECK
 70
     0
  9
$PEXTMIN
 10
-0.0128164049386896
 20
-0.0090630292066862
 30
-0.0015258207003583
  9
$PEXTMAX
 10
420.0128183607162
 20
297.0090644122207
 30
0.0000000349246037
  9
$PLIMMIN
 10
-30.66685116754002
 20
-9.990190459854741
  9
$PLIMMAX
 10
450.6668334081172
 20
361.9494725043409
  9
$UNITMODE
 70
     0
  9
$VISRETAIN
 70
     0
  9
$PLINEGEN
 70
     0
  9
$PSLTSCALE
 70
     1
  9
$TREEDEPTH
 70
  3020
  9
$CMLSTYLE
  2
STANDARD
  9
$CMLJUST
 70
     0
  9
$CMLSCALE
 40
1.0
  9
$PROXYGRAPHICS
 70
     1
  9
$MEASUREMENT
 70
     0
  9
$CELWEIGHT
370
    -1
  9
$ENDCAPS
280
     0
  9
$JOINSTYLE
280
     0
  9
$LWDISPLAY
290
     0
  9
$INSUNITS
 70
     0
  9
$HYPERLINKBASE
  1

  9
$STYLESHEET
  1
systemprinter.ctb
  9
$XEDIT
290
     1
  9
$CEPSNTYPE
380
     0
  9
$PSTYLEMODE
290
     1
  9
$FINGERPRINTGUID
  2
{91E25F26-0CBF-4C93-982E-B5F00895E654}
  9
$VERSIONGUID
  2
{9ED9E393-F4A1-47CE-81EF-9A29704D5F64}
  9
$EXTNAMES
290
     1
  9
$PSVPSCALE
 40
0.0
  9
$OLESTARTUP
290
     0
  0
ENDSEC
  0
SECTION
  2
CLASSES
  0
CLASS
  1
ACDBDICTIONARYWDFLT
  2
AcDbDictionaryWithDefault
  3
ObjectDBX Classes
 90
        0
280
     0
281
     0
  0
CLASS
  1
ACDBPLACEHOLDER
  2
AcDbPlaceHolder
  3
ObjectDBX Classes
 90
        0
280
     0
281
     0
  0
CLASS
  1
LAYOUT
  2
AcDbLayout
  3
ObjectDBX Classes
 90
        0
280
     0
281
     0
  0
CLASS
  1
DUMMY
  2
AcDbLongTransaction
  3
DUMMY
 90
        0
280
     0
281
     0
  0
CLASS
  1
LWPOLYLINE
  2
AcDbPolyline
  3
AutoCAD 2000
 90
        0
280
     0
281
     1
  0
CLASS
  1
HATCH
  2
AcDbHatch
  3
AutoCAD 2000
 90
        0
280
     0
281
     1
  0
CLASS
  1
XRECORD
  2
AcDbXrecord
  3
AutoCAD 2000
 90
        0
280
     0
281
     0
  0
CLASS
  1
DUMMY
  2
AcDbLongTransaction
  3
DUMMY
 90
        0
280
     0
281
     0
  0
CLASS
  1
LWPOLYLINE
  2
AcDbPolyline
  3
AutoCAD 2000
 90
        0
280
     0
281
     1
  0
CLASS
  1
HATCH
  2
AcDbHatch
  3
AutoCAD 2000
 90
        0
280
     0
281
     1
  0
CLASS
  1
XRECORD
  2
AcDbXrecord
  3
AutoCAD 2000
 90
        0
280
     0
281
     0
  0
CLASS
  1
DUMMY
  2
AcDbLongTransaction
  3
DUMMY
 90
        0
280
     0
281
     0
  0
CLASS
  1
LWPOLYLINE
  2
AcDbPolyline
  3
AutoCAD 2000
 90
        0
280
     0
281
     1
  0
CLASS
  1
HATCH
  2
AcDbHatch
  3
AutoCAD 2000
 90
        0
280
     0
281
     1
  0
CLASS
  1
XRECORD
  2
AcDbXrecord
  3
AutoCAD 2000
 90
        0
280
     0
281
     0
  0
CLASS
  1
DUMMY
  2
AcDbLongTransaction
  3
DUMMY
 90
        0
280
     0
281
     0
  0
CLASS
  1
LWPOLYLINE
  2
AcDbPolyline
  3
AutoCAD 2000
 90
        0
280
     0
281
     1
  0
CLASS
  1
HATCH
  2
AcDbHatch
  3
AutoCAD 2000
 90
        0
280
     0
281
     1
  0
CLASS
  1
XRECORD
  2
AcDbXrecord
  3
AutoCAD 2000
 90
        0
280
     0
281
     0
  0
CLASS
  1
DUMMY
  2
AcDbLongTransaction
  3
DUMMY
 90
        0
280
     0
281
     0
  0
CLASS
  1
LWPOLYLINE
  2
AcDbPolyline
  3
AutoCAD 2000
 90
        0
280
     0
281
     1
  0
CLASS
  1
HATCH
  2
AcDbHatch
  3
AutoCAD 2000
 90
        0
280
     0
281
     1
  0
CLASS
  1
XRECORD
  2
AcDbXrecord
  3
AutoCAD 2000
 90
        0
280
     0
281
     0
  0
ENDSEC
  0
SECTION
  2
TABLES
  0
TABLE
  2
VPORT
  5
8
330
0
100
AcDbSymbolTable
 70
     2
  0
VPORT
  5
9371
330
8
100
AcDbSymbolTableRecord
100
AcDbViewportTableRecord
  2
*Active
 70
     0
 10
0.0
 20
0.0
 11
1.0
 21
1.0
 12
412.222625721664
 22
300.889372809646
 13
0.0
 23
0.0
 14
5.0
 24
5.0
 15
0.0
 25
0.0
 16
0.0
 26
0.0
 36
1.0
 17
0.0
 27
0.0
 37
0.0
 40
637.3186057498868
 41
1.651537335285505
 42
50.0
 43
0.0
 44
0.0
 50
0.0
 51
0.0
 71
     0
 72
   100
 73
     1
 74
     0
 75
     0
 76
     0
 77
     0
 78
     0
281
     0
 65
     1
110
0.0
120
0.0
130
0.0
111
1.0
121
0.0
131
0.0
112
0.0
122
1.0
132
0.0
 79
     0
146
0.0
  0
ENDTAB
  0
TABLE
  2
LTYPE
  5
5
330
0
100
AcDbSymbolTable
 70
     3
  0
LTYPE
  5
14
330
5
100
AcDbSymbolTableRecord
100
AcDbLinetypeTableRecord
  2
BYBLOCK
 70
     0
  3

 72
    65
 73
     0
 40
0.0
  0
LTYPE
  5
15
330
5
100
AcDbSymbolTableRecord
100
AcDbLinetypeTableRecord
  2
BYLAYER
 70
     0
  3

 72
    65
 73
     0
 40
0.0
  0
LTYPE
  5
16
330
5
100
AcDbSymbolTableRecord
100
AcDbLinetypeTableRecord
  2
CONTINUOUS
 70
     0
  3
Solid line
 72
    65
 73
     0
 40
0.0
  0
LTYPE
  5
135
330
5
100
AcDbSymbolTableRecord
100
AcDbLinetypeTableRecord
  2
CENTER
 70
     0
  3
____ _ ____ _ ____ _ ____ _ ____ _ ____ _ ____ 
 72
    65
 73
     4
 40
2.0
 49
1.25
 74
     0
 49
-0.25
 74
     0
 49
0.25
 74
     0
 49
-0.25
 74
     0
  0
LTYPE
  5
8279
330
5
100
AcDbSymbolTableRecord
100
AcDbLinetypeTableRecord
  2
PHANTOM
 70
     0
  3
______  __  __  ______  __  __  ______  __  __ 
 72
    65
 73
     6
 40
2.5
 49
1.25
 74
     0
 49
-0.25
 74
     0
 49
0.25
 74
     0
 49
-0.25
 74
     0
 49
0.25
 74
     0
 49
-0.25
 74
     0
  0
ENDTAB
  0
TABLE
  2
LAYER
  5
2
330
0
100
AcDbSymbolTable
 70
     8
  0
LAYER
  5
F
330
2
100
AcDbSymbolTableRecord
100
AcDbLayerTableRecord
  2
0
 70
     0
 62
     7
  6
CONTINUOUS
370
    -3
390
A97
  0
LAYER
  5
62
330
2
100
AcDbSymbolTableRecord
100
AcDbLayerTableRecord
  2
VIEWPORT
 70
     0
 62
     7
  6
CONTINUOUS
370
    -3
390
A97
  0
LAYER
  5
143
330
2
100
AcDbSymbolTableRecord
100
AcDbLayerTableRecord
  2
SEIHIN
 70
     0
 62
     3
  6
CONTINUOUS
370
    -3
390
A97
  0
LAYER
  5
444
330
2
100
AcDbSymbolTableRecord
100
AcDbLayerTableRecord
  2
DEFPOINTS
 70
     0
 62
     7
  6
CONTINUOUS
290
     0
370
    -3
390
A97
  0
LAYER
  5
482
330
2
100
AcDbSymbolTableRecord
100
AcDbLayerTableRecord
  2
SUNPOU
 70
     0
 62
     4
  6
CONTINUOUS
370
    -3
390
A97
  0
LAYER
  5
5D4
330
2
100
AcDbSymbolTableRecord
100
AcDbLayerTableRecord
  2
CENTER L
 70
     0
 62
     1
  6
CENTER
370
    -3
390
A97
  0
LAYER
  5
3D95
330
2
100
AcDbSymbolTableRecord
100
AcDbLayerTableRecord
  2
ZUWAKU
 70
     0
 62
     7
  6
CONTINUOUS
370
    -3
390
A97
  0
LAYER
  5
3D96
330
2
100
AcDbSymbolTableRecord
100
AcDbLayerTableRecord
  2
moji
 70
     0
 62
     2
  6
CONTINUOUS
370
    -3
390
A97
  0
ENDTAB
  0
TABLE
  2
STYLE
  5
3
330
0
100
AcDbSymbolTable
 70
     2
  0
STYLE
  5
10
330
3
100
AcDbSymbolTableRecord
100
AcDbTextStyleTableRecord
  2
STANDARD
 70
     0
 40
0.0
 41
1.0
 50
0.0
 71
     0
 42
6.0
  3
TXT
  4
bigfont.shx
  0
STYLE
  5
3D97
330
3
100
AcDbSymbolTableRecord
100
AcDbTextStyleTableRecord
  2
ｽﾀｲﾙ1
 70
     0
 40
0.0
 41
1.0
 50
0.0
 71
     0
 42
2.5
  3
MS PGothic.ttf
  4

1001
ACAD
1000
MS PGothic
1071
    32818
  0
ENDTAB
  0
TABLE
  2
VIEW
  5
6
330
0
100
AcDbSymbolTable
 70
     0
  0
ENDTAB
  0
TABLE
  2
UCS
  5
7
330
0
100
AcDbSymbolTable
 70
     0
  0
ENDTAB
  0
TABLE
  2
APPID
  5
9
330
0
100
AcDbSymbolTable
 70
     1
  0
APPID
  5
11
330
9
100
AcDbSymbolTableRecord
100
AcDbRegAppTableRecord
  2
ACAD
 70
     0
  0
ENDTAB
  0
TABLE
  2
DIMSTYLE
  5
A
330
0
100
AcDbSymbolTable
 70
     1
100
AcDbDimStyleTable
  0
DIMSTYLE
105
1D
102
{ACAD_REACTORS
330
9101
330
9105
330
9106
330
910F
330
9119
330
913B
330
9158
330
915F
330
9160
330
9161
330
9168
330
9172
330
91DA
330
91DD
330
91E1
330
91E2
330
91EB
102
}
330
A
100
AcDbSymbolTableRecord
100
AcDbDimStyleTableRecord
  2
STANDARD
 70
     0
340
10
  0
ENDTAB
  0
TABLE
  2
BLOCK_RECORD
  5
1
330
0
100
AcDbSymbolTable
 70
    18
  0
BLOCK_RECORD
  5
1A
330
1
100
AcDbSymbolTableRecord
100
AcDbBlockTableRecord
  2
*MODEL_SPACE
340
A9A
  0
BLOCK_RECORD
  5
17
330
1
100
AcDbSymbolTableRecord
100
AcDbBlockTableRecord
  2
*PAPER_SPACE
340
A9B
  0
BLOCK_RECORD
  5
6D
330
1
100
AcDbSymbolTableRecord
100
AcDbBlockTableRecord
  2
_OPEN
340
0
102
{BLKREFS
331
92CF
331
92D0
331
92D8
331
92D9
331
92E1
331
92E2
331
92EA
331
92EB
331
92F3
331
92F4
331
92FE
331
92FF
331
9307
331
9308
331
9310
331
9311
331
931B
331
931C
331
9324
331
9325
331
932D
331
932E
331
9336
331
9337
331
933F
331
9340
331
9348
331
9349
331
9353
331
9354
331
935C
331
935D
331
9365
331
9366
102
}
  0
BLOCK_RECORD
  5
91FA
330
1
100
AcDbSymbolTableRecord
100
AcDbBlockTableRecord
  2
*D1
340
0
  0
BLOCK_RECORD
  5
9206
330
1
100
AcDbSymbolTableRecord
100
AcDbBlockTableRecord
  2
*D2
340
0
  0
BLOCK_RECORD
  5
9212
330
1
100
AcDbSymbolTableRecord
100
AcDbBlockTableRecord
  2
*D3
340
0
  0
BLOCK_RECORD
  5
921E
330
1
100
AcDbSymbolTableRecord
100
AcDbBlockTableRecord
  2
*D4
340
0
  0
BLOCK_RECORD
  5
922A
330
1
100
AcDbSymbolTableRecord
100
AcDbBlockTableRecord
  2
*D5
340
0
  0
BLOCK_RECORD
  5
9236
330
1
100
AcDbSymbolTableRecord
100
AcDbBlockTableRecord
  2
*D6
340
0
  0
BLOCK_RECORD
  5
9244
330
1
100
AcDbSymbolTableRecord
100
AcDbBlockTableRecord
  2
*D7
340
0
  0
BLOCK_RECORD
  5
9250
330
1
100
AcDbSymbolTableRecord
100
AcDbBlockTableRecord
  2
*D8
340
0
  0
BLOCK_RECORD
  5
925C
330
1
100
AcDbSymbolTableRecord
100
AcDbBlockTableRecord
  2
*D9
340
0
  0
BLOCK_RECORD
  5
926A
330
1
100
AcDbSymbolTableRecord
100
AcDbBlockTableRecord
  2
*D10
340
0
  0
BLOCK_RECORD
  5
9276
330
1
100
AcDbSymbolTableRecord
100
AcDbBlockTableRecord
  2
*D11
340
0
  0
BLOCK_RECORD
  5
9282
330
1
100
AcDbSymbolTableRecord
100
AcDbBlockTableRecord
  2
*D12
340
0
  0
BLOCK_RECORD
  5
928E
330
1
100
AcDbSymbolTableRecord
100
AcDbBlockTableRecord
  2
*D13
340
0
  0
BLOCK_RECORD
  5
929A
330
1
100
AcDbSymbolTableRecord
100
AcDbBlockTableRecord
  2
*D14
340
0
  0
BLOCK_RECORD
  5
92A6
330
1
100
AcDbSymbolTableRecord
100
AcDbBlockTableRecord
  2
*D15
340
0
  0
BLOCK_RECORD
  5
92B4
330
1
100
AcDbSymbolTableRecord
100
AcDbBlockTableRecord
  2
*D16
340
0
  0
BLOCK_RECORD
  5
92C0
330
1
100
AcDbSymbolTableRecord
100
AcDbBlockTableRecord
  2
*D17
340
0
  0
ENDTAB
  0
ENDSEC
  0
SECTION
  2
BLOCKS
  0
BLOCK
  5
1B
330
1A
100
AcDbEntity
  8
0
100
AcDbBlockBegin
  2
*MODEL_SPACE
 70
     0
 71
     0
 10
0.0
 20
0.0
 30
0.0
  3
*MODEL_SPACE
  1

  0
ENDBLK
  5
1C
330
1A
100
AcDbEntity
  8
0
100
AcDbBlockEnd
  0
BLOCK
  5
18
330
17
100
AcDbEntity
 67
     1
  8
0
100
AcDbBlockBegin
  2
*PAPER_SPACE
 70
     0
 71
     0
 10
0.0
 20
0.0
 30
0.0
  3
*PAPER_SPACE
  1

  0
ENDBLK
  5
19
330
17
100
AcDbEntity
 67
     1
  8
0
100
AcDbBlockEnd
  0
BLOCK
  5
6E
330
6D
100
AcDbEntity
  8
0
100
AcDbBlockBegin
  2
_OPEN
 70
     0
 71
     0
 10
0.0
 20
0.0
 30
0.0
  3
_OPEN
  1

  0
LINE
  5
6F
330
6D
100
AcDbEntity
  8
0
  6
ByBlock
 62
     0
100
AcDbLine
 10
-1.0
 20
0.1666666666666667
 30
0.0
 11
0.0
 21
0.0
 31
0.0
  0
LINE
  5
70
330
6D
100
AcDbEntity
  8
0
  6
ByBlock
 62
     0
100
AcDbLine
 10
0.0
 20
0.0
 30
0.0
 11
-1.0
 21
-0.1666666666666667
 31
0.0
  0
LINE
  5
71
330
6D
100
AcDbEntity
  8
0
  6
ByBlock
 62
     0
100
AcDbLine
 10
0.0
 20
0.0
 30
0.0
 11
-1.0
 21
0.0
 31
0.0
  0
ENDBLK
  5
72
330
6D
100
AcDbEntity
  8
0
100
AcDbBlockEnd
  0
BLOCK
  5
9204
330
91FA
100
AcDbEntity
  8
0
100
AcDbBlockBegin
  2
*D1
 70
     1
 71
     0
 10
0.0
 20
0.0
 30
0.0
  3
*D1
  1

  0
LINE
  5
92CC
330
91FA
100
AcDbEntity
  8
SUNPOU
 62
     4
370
    -2
100
AcDbLine
 10
330.3951993113775
 20
86.8180563764883
 30
0.0
 11
330.3951993113775
 21
57.03641007267697
 31
0.0
  0
LINE
  5
92CD
330
91FA
100
AcDbEntity
  8
SUNPOU
 62
     4
370
    -2
100
AcDbLine
 10
424.0317891279193
 20
86.8180563764883
 30
0.0
 11
424.0317891279193
 21
57.03641007267697
 31
0.0
  0
LINE
  5
92CE
330
91FA
100
AcDbEntity
  8
SUNPOU
 62
     4
370
    -2
100
AcDbLine
 10
337.3951993113775
 20
60.03641007267697
 30
0.0
 11
417.0317891279193
 21
60.03641007267697
 31
0.0
  0
INSERT
  5
92CF
330
91FA
100
AcDbEntity
  8
SUNPOU
 62
     4
370
    -2
100
AcDbBlockReference
  2
_OPEN
 10
330.3951993113775
 20
60.03641007267697
 30
0.0
 41
7.0
 42
7.0
 43
7.0
 50
180.0
  0
INSERT
  5
92D0
330
91FA
100
AcDbEntity
  8
SUNPOU
 62
     4
370
    -2
100
AcDbBlockReference
  2
_OPEN
 10
424.0317891279193
 20
60.03641007267697
 30
0.0
 41
7.0
 42
7.0
 43
7.0
  0
MTEXT
  5
92D1
330
91FA
100
AcDbEntity
  8
SUNPOU
 62
     4
100
AcDbMText
 10
377.2134942196484
 20
65.03641007267697
 30
0.0
 40
6.0
 41
0.0
 71
     5
 72
     1
  1
\A1;94
 73
     1
 44
1.0
  0
POINT
  5
92D2
330
91FA
100
AcDbEntity
  8
DEFPOINTS
 62
     0
100
AcDbPoint
 10
330.3951993113775
 20
92.8180563764883
 30
0.0
  0
POINT
  5
92D3
330
91FA
100
AcDbEntity
  8
DEFPOINTS
 62
     0
100
AcDbPoint
 10
424.0317891279193
 20
92.8180563764883
 30
0.0
  0
POINT
  5
92D4
330
91FA
100
AcDbEntity
  8
DEFPOINTS
 62
     0
100
AcDbPoint
 10
424.0317891279193
 20
60.03641007267697
 30
0.0
  0
ENDBLK
  5
9205
330
91FA
100
AcDbEntity
  8
0
100
AcDbBlockEnd
  0
BLOCK
  5
9210
330
9206
100
AcDbEntity
  8
0
100
AcDbBlockBegin
  2
*D2
 70
     1
 71
     0
 10
0.0
 20
0.0
 30
0.0
  3
*D2
  1

  0
LINE
  5
92D5
330
9206
100
AcDbEntity
  8
SUNPOU
 62
     4
370
    -2
100
AcDbLine
 10
589.5221565217413
 20
464.6752891542215
 30
0.0
 11
589.5221565217413
 21
438.2755264704886
 31
0.0
  0
LINE
  5
92D6
330
9206
100
AcDbEntity
  8
SUNPOU
 62
     4
370
    -2
100
AcDbLine
 10
296.7958565217413
 20
464.6752891542215
 30
0.0
 11
296.7958565217413
 21
438.2755264704886
 31
0.0
  0
LINE
  5
92D7
330
9206
100
AcDbEntity
  8
SUNPOU
 62
     4
370
    -2
100
AcDbLine
 10
582.5221565217413
 20
441.2755264704886
 30
0.0
 11
303.7958565217413
 21
441.2755264704886
 31
0.0
  0
INSERT
  5
92D8
330
9206
100
AcDbEntity
  8
SUNPOU
 62
     4
370
    -2
100
AcDbBlockReference
  2
_OPEN
 10
589.5221565217413
 20
441.2755264704886
 30
0.0
 41
7.0
 42
7.0
 43
7.0
  0
INSERT
  5
92D9
330
9206
100
AcDbEntity
  8
SUNPOU
 62
     4
370
    -2
100
AcDbBlockReference
  2
_OPEN
 10
296.7958565217413
 20
441.2755264704886
 30
0.0
 41
7.0
 42
7.0
 43
7.0
 50
180.0
  0
MTEXT
  5
92DA
330
9206
100
AcDbEntity
  8
SUNPOU
 62
     4
100
AcDbMText
 10
443.1590065217413
 20
446.2755264704886
 30
0.0
 40
6.0
 41
0.0
 71
     5
 72
     1
  1
\A1;293
 73
     1
 44
1.0
  0
POINT
  5
92DB
330
9206
100
AcDbEntity
  8
DEFPOINTS
 62
     0
100
AcDbPoint
 10
589.5221565217413
 20
470.6752891542215
 30
0.0
  0
POINT
  5
92DC
330
9206
100
AcDbEntity
  8
DEFPOINTS
 62
     0
100
AcDbPoint
 10
296.7958565217413
 20
470.6752891542215
 30
0.0
  0
POINT
  5
92DD
330
9206
100
AcDbEntity
  8
DEFPOINTS
 62
     0
100
AcDbPoint
 10
296.7958565217413
 20
441.2755264704886
 30
0.0
  0
ENDBLK
  5
9211
330
9206
100
AcDbEntity
  8
0
100
AcDbBlockEnd
  0
BLOCK
  5
921C
330
9212
100
AcDbEntity
  8
0
100
AcDbBlockBegin
  2
*D3
 70
     1
 71
     0
 10
0.0
 20
0.0
 30
0.0
  3
*D3
  1

  0
LINE
  5
92DE
330
9212
100
AcDbEntity
  8
SUNPOU
 62
     4
370
    -2
100
AcDbLine
 10
296.7957565217411
 20
180.3743563764884
 30
0.0
 11
296.7957565217411
 21
203.6125157546958
 31
0.0
  0
LINE
  5
92DF
330
9212
100
AcDbEntity
  8
SUNPOU
 62
     4
370
    -2
100
AcDbLine
 10
436.0107065217411
 20
199.3291063764883
 30
0.0
 11
436.0107065217411
 21
203.6125157546958
 31
0.0
  0
LINE
  5
92E0
330
9212
100
AcDbEntity
  8
SUNPOU
 62
     4
370
    -2
100
AcDbLine
 10
303.7957565217411
 20
200.6125157546958
 30
0.0
 11
429.0107065217411
 21
200.6125157546958
 31
0.0
  0
INSERT
  5
92E1
330
9212
100
AcDbEntity
  8
SUNPOU
 62
     4
370
    -2
100
AcDbBlockReference
  2
_OPEN
 10
296.7957565217411
 20
200.6125157546958
 30
0.0
 41
7.0
 42
7.0
 43
7.0
 50
180.0
  0
INSERT
  5
92E2
330
9212
100
AcDbEntity
  8
SUNPOU
 62
     4
370
    -2
100
AcDbBlockReference
  2
_OPEN
 10
436.0107065217411
 20
200.6125157546958
 30
0.0
 41
7.0
 42
7.0
 43
7.0
  0
MTEXT
  5
92E3
330
9212
100
AcDbEntity
  8
SUNPOU
 62
     4
100
AcDbMText
 10
366.4032315217411
 20
205.6125157546958
 30
0.0
 40
6.0
 41
0.0
 71
     5
 72
     1
  1
\A1;139
 73
     1
 44
1.0
  0
POINT
  5
92E4
330
9212
100
AcDbEntity
  8
DEFPOINTS
 62
     0
100
AcDbPoint
 10
296.7957565217411
 20
174.3743563764884
 30
0.0
  0
POINT
  5
92E5
330
9212
100
AcDbEntity
  8
DEFPOINTS
 62
     0
100
AcDbPoint
 10
436.0107065217411
 20
193.3291063764883
 30
0.0
  0
POINT
  5
92E6
330
9212
100
AcDbEntity
  8
DEFPOINTS
 62
     0
100
AcDbPoint
 10
436.0107065217411
 20
200.6125157546958
 30
0.0
  0
ENDBLK
  5
921D
330
9212
100
AcDbEntity
  8
0
100
AcDbBlockEnd
  0
BLOCK
  5
9228
330
921E
100
AcDbEntity
  8
0
100
AcDbBlockBegin
  2
*D4
 70
     1
 71
     0
 10
0.0
 20
0.0
 30
0.0
  3
*D4
  1

  0
LINE
  5
92E7
330
921E
100
AcDbEntity
  8
SUNPOU
 62
     4
370
    -2
100
AcDbLine
 10
290.2015924835874
 20
174.2908328013905
 30
0.0
 11
258.0273023898943
 21
174.2908328013905
 31
0.0
  0
LINE
  5
92E8
330
921E
100
AcDbEntity
  8
SUNPOU
 62
     4
370
    -2
100
AcDbLine
 10
326.2403970461361
 20
94.94068311366399
 30
0.0
 11
258.0273023898943
 21
94.94068311366401
 31
0.0
  0
LINE
  5
92E9
330
921E
100
AcDbEntity
  8
SUNPOU
 62
     4
370
    -2
100
AcDbLine
 10
261.0273023898943
 20
167.2908328013905
 30
0.0
 11
261.0273023898943
 21
101.940683113664
 31
0.0
  0
INSERT
  5
92EA
330
921E
100
AcDbEntity
  8
SUNPOU
 62
     4
370
    -2
100
AcDbBlockReference
  2
_OPEN
 10
261.0273023898943
 20
174.2908328013905
 30
0.0
 41
7.0
 42
7.0
 43
7.0
 50
90.0
  0
INSERT
  5
92EB
330
921E
100
AcDbEntity
  8
SUNPOU
 62
     4
370
    -2
100
AcDbBlockReference
  2
_OPEN
 10
261.0273023898943
 20
94.94068311366401
 30
0.0
 41
7.0
 42
7.0
 43
7.0
 50
270.0
  0
MTEXT
  5
92EC
330
921E
100
AcDbEntity
  8
SUNPOU
 62
     4
100
AcDbMText
 10
256.0273023898943
 20
134.6157579575273
 30
0.0
 40
6.0
 41
0.0
 71
     5
 72
     1
  1
\A1;79
 11
6.123031769111886E-17
 21
1.0
 31
0.0
 73
     1
 44
1.0
  0
POINT
  5
92ED
330
921E
100
AcDbEntity
  8
DEFPOINTS
 62
     0
100
AcDbPoint
 10
296.2015924835874
 20
174.2908328013905
 30
0.0
  0
POINT
  5
92EE
330
921E
100
AcDbEntity
  8
DEFPOINTS
 62
     0
100
AcDbPoint
 10
332.2403970461361
 20
94.94068311366399
 30
0.0
  0
POINT
  5
92EF
330
921E
100
AcDbEntity
  8
DEFPOINTS
 62
     0
100
AcDbPoint
 10
261.0273023898943
 20
94.94068311366401
 30
0.0
  0
ENDBLK
  5
9229
330
921E
100
AcDbEntity
  8
0
100
AcDbBlockEnd
  0
BLOCK
  5
9234
330
922A
100
AcDbEntity
  8
0
100
AcDbBlockBegin
  2
*D5
 70
     1
 71
     0
 10
0.0
 20
0.0
 30
0.0
  3
*D5
  1

  0
LINE
  5
92F0
330
922A
100
AcDbEntity
  8
SUNPOU
 62
     4
370
    -2
100
AcDbLine
 10
285.3301565217411
 20
208.9502563764884
 30
0.0
 11
258.0273023898943
 21
208.9502563764884
 31
0.0
  0
LINE
  5
92F1
330
922A
100
AcDbEntity
  8
SUNPOU
 62
     4
370
    -2
100
AcDbLine
 10
290.7957565217411
 20
174.3743563764884
 30
0.0
 11
258.0273023898943
 21
174.3743563764884
 31
0.0
  0
LINE
  5
92F2
330
922A
100
AcDbEntity
  8
SUNPOU
 62
     4
370
    -2
100
AcDbLine
 10
261.0273023898943
 20
201.9502563764884
 30
0.0
 11
261.0273023898943
 21
181.3743563764884
 31
0.0
  0
INSERT
  5
92F3
330
922A
100
AcDbEntity
  8
SUNPOU
 62
     4
370
    -2
100
AcDbBlockReference
  2
_OPEN
 10
261.0273023898943
 20
208.9502563764884
 30
0.0
 41
7.0
 42
7.0
 43
7.0
 50
90.0
  0
INSERT
  5
92F4
330
922A
100
AcDbEntity
  8
SUNPOU
 62
     4
370
    -2
100
AcDbBlockReference
  2
_OPEN
 10
261.0273023898943
 20
174.3743563764884
 30
0.0
 41
7.0
 42
7.0
 43
7.0
 50
270.0
  0
MTEXT
  5
92F5
330
922A
100
AcDbEntity
  8
SUNPOU
 62
     4
100
AcDbMText
 10
256.0273023898942
 20
191.6623063764884
 30
0.0
 40
6.0
 41
0.0
 71
     5
 72
     1
  1
\A1;35
 11
6.123031769111886E-17
 21
1.0
 31
0.0
 73
     1
 44
1.0
  0
POINT
  5
92F6
330
922A
100
AcDbEntity
  8
DEFPOINTS
 62
     0
100
AcDbPoint
 10
291.3301565217411
 20
208.9502563764884
 30
0.0
  0
POINT
  5
92F7
330
922A
100
AcDbEntity
  8
DEFPOINTS
 62
     0
100
AcDbPoint
 10
296.7957565217411
 20
174.3743563764884
 30
0.0
  0
POINT
  5
92F8
330
922A
100
AcDbEntity
  8
DEFPOINTS
 62
     0
100
AcDbPoint
 10
261.0273023898943
 20
174.3743563764884
 30
0.0
  0
ENDBLK
  5
9235
330
922A
100
AcDbEntity
  8
0
100
AcDbBlockEnd
  0
BLOCK
  5
9242
330
9236
100
AcDbEntity
  8
0
100
AcDbBlockBegin
  2
*D6
 70
     1
 71
     0
 10
0.0
 20
0.0
 30
0.0
  3
*D6
  1

  0
LINE
  5
92F9
330
9236
100
AcDbEntity
  8
SUNPOU
  6
Continuous
 62
     4
370
    -2
100
AcDbLine
 10
317.5862844207737
 20
141.4061555072376
 30
0.0
 11
318.0037997161211
 21
138.4353507377936
 31
0.0
  0
LINE
  5
92FA
330
9236
100
AcDbEntity
  8
SUNPOU
  6
Continuous
 62
     4
370
    -2
100
AcDbLine
 10
315.6057759310464
 20
141.1278159153764
 30
0.0
 11
316.0232912263938
 21
138.1570111459324
 31
0.0
  0
LINE
  5
92FB
330
9236
100
AcDbEntity
  8
SUNPOU
  6
Continuous
 62
     4
370
    -2
100
AcDbLine
 10
325.3531928068377
 20
136.4387483241603
 30
0.0
 11
332.2850706022069
 21
137.4129506799709
 31
0.0
  0
LINE
  5
92FC
330
9236
100
AcDbEntity
  8
SUNPOU
  6
Continuous
 62
     4
370
    -2
100
AcDbLine
 10
309.508928726372
 20
134.2120040206779
 30
0.0
 11
281.781417544895
 21
130.3151945974355
 31
0.0
  0
LINE
  5
92FD
330
9236
100
AcDbEntity
  8
SUNPOU
  6
Continuous
 62
     4
370
    -2
100
AcDbLine
 10
318.4213150114684
 20
135.4645459683497
 30
0.0
 11
316.4408065217412
 21
135.1862063764884
 31
0.0
  0
INSERT
  5
92FE
330
9236
100
AcDbEntity
  8
SUNPOU
  6
Continuous
 62
     4
370
    -2
100
AcDbBlockReference
  2
_OPEN
 10
318.4213150114684
 20
135.4645459683497
 30
0.0
 41
7.0
 42
7.0
 43
7.0
 50
187.9999227095837
  0
INSERT
  5
92FF
330
9236
100
AcDbEntity
  8
SUNPOU
  6
Continuous
 62
     4
370
    -2
100
AcDbBlockReference
  2
_OPEN
 10
316.4408065217412
 20
135.1862063764884
 30
0.0
 41
7.0
 42
7.0
 43
7.0
 50
7.999922709583691
  0
MTEXT
  5
9300
330
9236
100
AcDbEntity
  8
SUNPOU
  6
Continuous
 62
     4
100
AcDbMText
 10
291.4833754123699
 20
136.727839413558
 30
0.0
 40
6.0
 41
0.0
 71
     5
 72
     1
  1
\A1;t2.0
 11
0.9902682564813198
 21
0.1391717651157992
 31
0.0
 73
     1
 44
1.0
  0
POINT
  5
9301
330
9236
100
AcDbEntity
  8
DEFPOINTS
  6
Continuous
 62
     0
100
AcDbPoint
 10
318.4213150114685
 20
135.4645459683497
 30
0.0
  0
POINT
  5
9302
330
9236
100
AcDbEntity
  8
DEFPOINTS
  6
Continuous
 62
     0
100
AcDbPoint
 10
316.4408065217413
 20
135.1862063764884
 30
0.0
  0
POINT
  5
9303
330
9236
100
AcDbEntity
  8
DEFPOINTS
  6
Continuous
 62
     0
100
AcDbPoint
 10
316.4408065217412
 20
135.1862063764884
 30
0.0
  0
ENDBLK
  5
9243
330
9236
100
AcDbEntity
  8
0
100
AcDbBlockEnd
  0
BLOCK
  5
924E
330
9244
100
AcDbEntity
  8
0
100
AcDbBlockBegin
  2
*D7
 70
     1
 71
     0
 10
0.0
 20
0.0
 30
0.0
  3
*D7
  1

  0
LINE
  5
9304
330
9244
100
AcDbEntity
  8
SUNPOU
 62
     4
370
    -2
100
AcDbLine
 10
182.6349939577169
 20
317.2482563764881
 30
0.0
 11
182.6349939577169
 21
353.0925929268276
 31
0.0
  0
LINE
  5
9305
330
9244
100
AcDbEntity
  8
SUNPOU
 62
     4
370
    -2
100
AcDbLine
 10
201.6349939577169
 20
317.2482563764881
 30
0.0
 11
201.6349939577169
 21
353.0925929268276
 31
0.0
  0
LINE
  5
9306
330
9244
100
AcDbEntity
  8
SUNPOU
 62
     4
370
    -2
100
AcDbLine
 10
189.6349939577169
 20
350.0925929268276
 30
0.0
 11
194.6349939577169
 21
350.0925929268276
 31
0.0
  0
INSERT
  5
9307
330
9244
100
AcDbEntity
  8
SUNPOU
 62
     4
370
    -2
100
AcDbBlockReference
  2
_OPEN
 10
182.6349939577169
 20
350.0925929268276
 30
0.0
 41
7.0
 42
7.0
 43
7.0
 50
180.0
  0
INSERT
  5
9308
330
9244
100
AcDbEntity
  8
SUNPOU
 62
     4
370
    -2
100
AcDbBlockReference
  2
_OPEN
 10
201.6349939577169
 20
350.0925929268276
 30
0.0
 41
7.0
 42
7.0
 43
7.0
  0
MTEXT
  5
9309
330
9244
100
AcDbEntity
  8
SUNPOU
 62
     4
100
AcDbMText
 10
192.1349939577169
 20
355.0925929268276
 30
0.0
 40
6.0
 41
0.0
 71
     5
 72
     1
  1
\A1;19
 73
     1
 44
1.0
  0
POINT
  5
930A
330
9244
100
AcDbEntity
  8
DEFPOINTS
 62
     0
100
AcDbPoint
 10
182.6349939577169
 20
311.2482563764881
 30
0.0
  0
POINT
  5
930B
330
9244
100
AcDbEntity
  8
DEFPOINTS
 62
     0
100
AcDbPoint
 10
201.6349939577169
 20
311.2482563764881
 30
0.0
  0
POINT
  5
930C
330
9244
100
AcDbEntity
  8
DEFPOINTS
 62
     0
100
AcDbPoint
 10
201.6349939577169
 20
350.0925929268276
 30
0.0
  0
ENDBLK
  5
924F
330
9244
100
AcDbEntity
  8
0
100
AcDbBlockEnd
  0
BLOCK
  5
925A
330
9250
100
AcDbEntity
  8
0
100
AcDbBlockBegin
  2
*D8
 70
     1
 71
     0
 10
0.0
 20
0.0
 30
0.0
  3
*D8
  1

  0
LINE
  5
930D
330
9250
100
AcDbEntity
  8
SUNPOU
 62
     4
370
    -2
100
AcDbLine
 10
594.692556521741
 20
311.2482563764881
 30
0.0
 11
633.7107205565776
 21
311.2482563764881
 31
0.0
  0
LINE
  5
930E
330
9250
100
AcDbEntity
  8
SUNPOU
 62
     4
370
    -2
100
AcDbLine
 10
594.692556521741
 20
244.6582563764882
 30
0.0
 11
633.7107205565775
 21
244.6582563764882
 31
0.0
  0
LINE
  5
930F
330
9250
100
AcDbEntity
  8
SUNPOU
 62
     4
370
    -2
100
AcDbLine
 10
630.7107205565776
 20
304.2482563764881
 30
0.0
 11
630.7107205565775
 21
251.6582563764882
 31
0.0
  0
INSERT
  5
9310
330
9250
100
AcDbEntity
  8
SUNPOU
 62
     4
370
    -2
100
AcDbBlockReference
  2
_OPEN
 10
630.7107205565776
 20
311.2482563764881
 30
0.0
 41
7.0
 42
7.0
 43
7.0
 50
90.0
  0
INSERT
  5
9311
330
9250
100
AcDbEntity
  8
SUNPOU
 62
     4
370
    -2
100
AcDbBlockReference
  2
_OPEN
 10
630.7107205565775
 20
244.6582563764882
 30
0.0
 41
7.0
 42
7.0
 43
7.0
 50
270.0
  0
MTEXT
  5
9312
330
9250
100
AcDbEntity
  8
SUNPOU
 62
     4
100
AcDbMText
 10
625.7107205565775
 20
277.9532563764882
 30
0.0
 40
6.0
 41
0.0
 71
     5
 72
     1
  1
\A1;67
 11
6.123031769111886E-17
 21
1.0
 31
0.0
 73
     1
 44
1.0
  0
POINT
  5
9313
330
9250
100
AcDbEntity
  8
DEFPOINTS
 62
     0
100
AcDbPoint
 10
588.692556521741
 20
311.2482563764881
 30
0.0
  0
POINT
  5
9314
330
9250
100
AcDbEntity
  8
DEFPOINTS
 62
     0
100
AcDbPoint
 10
588.692556521741
 20
244.6582563764882
 30
0.0
  0
POINT
  5
9315
330
9250
100
AcDbEntity
  8
DEFPOINTS
 62
     0
100
AcDbPoint
 10
630.7107205565775
 20
244.6582563764882
 30
0.0
  0
ENDBLK
  5
925B
330
9250
100
AcDbEntity
  8
0
100
AcDbBlockEnd
  0
BLOCK
  5
9268
330
925C
100
AcDbEntity
  8
0
100
AcDbBlockBegin
  2
*D9
 70
     1
 71
     0
 10
0.0
 20
0.0
 30
0.0
  3
*D9
  1

  0
LINE
  5
9316
330
925C
100
AcDbEntity
  8
SUNPOU
 62
     4
370
    -2
100
AcDbLine
 10
573.5918135692472
 20
305.9600621473537
 30
0.0
 11
561.1320601064454
 21
301.5967457280937
 31
0.0
  0
LINE
  5
9317
330
925C
100
AcDbEntity
  8
SUNPOU
 62
     4
370
    -2
100
AcDbLine
 10
574.4180944843557
 20
303.6005595341976
 30
0.0
 11
561.9583410215539
 21
299.2372431149376
 31
0.0
  0
LINE
  5
9318
330
925C
100
AcDbEntity
  8
SUNPOU
 62
     4
370
    -2
100
AcDbLine
 10
561.6498769810014
 20
309.1948945608309
 30
0.0
 11
559.3362890735148
 21
315.8015057189309
 31
0.0
  0
LINE
  5
9319
330
925C
100
AcDbEntity
  8
SUNPOU
 62
     4
370
    -2
100
AcDbLine
 10
567.1033337110833
 20
293.6221696314748
 30
0.0
 11
576.6881978992426
 21
266.2519234050605
 31
0.0
  0
LINE
  5
931A
330
925C
100
AcDbEntity
  8
SUNPOU
 62
     4
370
    -2
100
AcDbLine
 10
563.9634648884882
 20
302.5882834027309
 30
0.0
 11
564.7897458035967
 21
300.2287807895747
 31
0.0
  0
INSERT
  5
931B
330
925C
100
AcDbEntity
  8
SUNPOU
 62
     4
370
    -2
100
AcDbBlockReference
  2
_OPEN
 10
563.9634648884882
 20
302.5882834027309
 30
0.0
 41
7.0
 42
7.0
 43
7.0
 50
289.2998886321109
  0
INSERT
  5
931C
330
925C
100
AcDbEntity
  8
SUNPOU
 62
     4
370
    -2
100
AcDbBlockReference
  2
_OPEN
 10
564.7897458035967
 20
300.2287807895747
 30
0.0
 41
7.0
 42
7.0
 43
7.0
 50
109.2998886321109
  0
MTEXT
  5
931D
330
925C
100
AcDbEntity
  8
SUNPOU
 62
     4
100
AcDbMText
 10
577.7715677289779
 20
278.2863037302796
 30
0.0
 40
6.0
 41
0.0
 71
     5
 72
     1
  1
\A1;t2.5
 11
0.330512558212386
 21
-0.9438015940142844
 31
0.0
 73
     1
 44
1.0
  0
POINT
  5
931E
330
925C
100
AcDbEntity
  8
DEFPOINTS
 62
     0
100
AcDbPoint
 10
579.2546231333329
 20
307.943137496628
 30
0.0
  0
POINT
  5
931F
330
925C
100
AcDbEntity
  8
DEFPOINTS
 62
     0
100
AcDbPoint
 10
580.0809040484414
 20
305.5836348834719
 30
0.0
  0
POINT
  5
9320
330
925C
100
AcDbEntity
  8
DEFPOINTS
 62
     0
100
AcDbPoint
 10
564.7897458035967
 20
300.2287807895747
 30
0.0
  0
ENDBLK
  5
9269
330
925C
100
AcDbEntity
  8
0
100
AcDbBlockEnd
  0
BLOCK
  5
9274
330
926A
100
AcDbEntity
  8
0
100
AcDbBlockBegin
  2
*D10
 70
     1
 71
     0
 10
0.0
 20
0.0
 30
0.0
  3
*D10
  1

  0
LINE
  5
9321
330
926A
100
AcDbEntity
  8
SUNPOU
 62
     4
370
    -2
100
AcDbLine
 10
586.7094693038192
 20
316.9110617842446
 30
0.0
 11
578.8150062888117
 21
339.4540984438062
 31
0.0
  0
LINE
  5
9322
330
926A
100
AcDbEntity
  8
SUNPOU
 62
     4
370
    -2
100
AcDbLine
 10
436.5276693038195
 20
264.3181177398412
 30
0.0
 11
428.633206288812
 21
286.861154399403
 31
0.0
  0
LINE
  5
9323
330
926A
100
AcDbEntity
  8
SUNPOU
 62
     4
370
    -2
100
AcDbLine
 10
573.1999435887234
 20
334.3090939856859
 30
0.0
 11
436.231356206822
 21
286.3433534497667
 31
0.0
  0
INSERT
  5
9324
330
926A
100
AcDbEntity
  8
SUNPOU
 62
     4
370
    -2
100
AcDbBlockReference
  2
_OPEN
 10
579.8065498977726
 20
336.622695739928
 30
0.0
 41
7.0
 42
7.0
 43
7.0
 50
19.30000871802364
  0
INSERT
  5
9325
330
926A
100
AcDbEntity
  8
SUNPOU
 62
     4
370
    -2
100
AcDbBlockReference
  2
_OPEN
 10
429.6247498977729
 20
284.0297516955247
 30
0.0
 41
7.0
 42
7.0
 43
7.0
 50
199.3000087180236
  0
MTEXT
  5
9326
330
926A
100
AcDbEntity
  8
SUNPOU
 62
     4
100
AcDbMText
 10
503.0630772161712
 20
315.04522822419
 30
0.0
 40
6.0
 41
0.0
 71
     5
 72
     1
  1
\A1;159
 11
0.9438009012927378
 21
0.3305145363202893
 31
0.0
 73
     1
 44
1.0
  0
POINT
  5
9327
330
926A
100
AcDbEntity
  8
DEFPOINTS
 62
     0
100
AcDbPoint
 10
588.6925565217409
 20
311.2482563764881
 30
0.0
  0
POINT
  5
9328
330
926A
100
AcDbEntity
  8
DEFPOINTS
 62
     0
100
AcDbPoint
 10
438.5107565217413
 20
258.6553123320848
 30
0.0
  0
POINT
  5
9329
330
926A
100
AcDbEntity
  8
DEFPOINTS
 62
     0
100
AcDbPoint
 10
429.6247498977729
 20
284.0297516955247
 30
0.0
  0
ENDBLK
  5
9275
330
926A
100
AcDbEntity
  8
0
100
AcDbBlockEnd
  0
BLOCK
  5
9280
330
9276
100
AcDbEntity
  8
0
100
AcDbBlockBegin
  2
*D11
 70
     1
 71
     0
 10
0.0
 20
0.0
 30
0.0
  3
*D11
  1

  0
LINE
  5
932A
330
9276
100
AcDbEntity
  8
SUNPOU
 62
     4
370
    -2
100
AcDbLine
 10
439.5107565217412
 20
158.5064563764883
 30
0.0
 11
480.6846464780892
 21
158.5064563764883
 31
0.0
  0
LINE
  5
932B
330
9276
100
AcDbEntity
  8
SUNPOU
 62
     4
370
    -2
100
AcDbLine
 10
427.6593565217412
 20
92.8180563764883
 30
0.0
 11
480.6846464780891
 21
92.81805637648829
 31
0.0
  0
LINE
  5
932C
330
9276
100
AcDbEntity
  8
SUNPOU
 62
     4
370
    -2
100
AcDbLine
 10
477.6846464780892
 20
151.5064563764883
 30
0.0
 11
477.6846464780891
 21
99.8180563764883
 31
0.0
  0
INSERT
  5
932D
330
9276
100
AcDbEntity
  8
SUNPOU
 62
     4
370
    -2
100
AcDbBlockReference
  2
_OPEN
 10
477.6846464780892
 20
158.5064563764883
 30
0.0
 41
7.0
 42
7.0
 43
7.0
 50
90.0
  0
INSERT
  5
932E
330
9276
100
AcDbEntity
  8
SUNPOU
 62
     4
370
    -2
100
AcDbBlockReference
  2
_OPEN
 10
477.6846464780891
 20
92.8180563764883
 30
0.0
 41
7.0
 42
7.0
 43
7.0
 50
270.0
  0
MTEXT
  5
932F
330
9276
100
AcDbEntity
  8
SUNPOU
 62
     4
100
AcDbMText
 10
472.6846464780891
 20
108.8180563764884
 30
0.0
 40
6.0
 41
0.0
 71
     5
 72
     1
  1
\A1;66
 11
6.123031769111886E-17
 21
1.0
 31
0.0
 73
     1
 44
1.0
  0
POINT
  5
9330
330
9276
100
AcDbEntity
  8
DEFPOINTS
 62
     0
100
AcDbPoint
 10
433.5107565217412
 20
158.5064563764883
 30
0.0
  0
POINT
  5
9331
330
9276
100
AcDbEntity
  8
DEFPOINTS
 62
     0
100
AcDbPoint
 10
421.6593565217412
 20
92.8180563764883
 30
0.0
  0
POINT
  5
9332
330
9276
100
AcDbEntity
  8
DEFPOINTS
 62
     0
100
AcDbPoint
 10
477.6846464780891
 20
92.8180563764883
 30
0.0
  0
ENDBLK
  5
9281
330
9276
100
AcDbEntity
  8
0
100
AcDbBlockEnd
  0
BLOCK
  5
928C
330
9282
100
AcDbEntity
  8
0
100
AcDbBlockBegin
  2
*D12
 70
     1
 71
     0
 10
0.0
 20
0.0
 30
0.0
  3
*D12
  1

  0
LINE
  5
9333
330
9282
100
AcDbEntity
  8
SUNPOU
 62
     4
370
    -2
100
AcDbLine
 10
444.5107565217412
 20
256.0065111711334
 30
0.0
 11
495.4064512853296
 21
256.0065111711334
 31
0.0
  0
LINE
  5
9334
330
9282
100
AcDbEntity
  8
SUNPOU
 62
     4
370
    -2
100
AcDbLine
 10
444.5107565217412
 20
131.0064563764882
 30
0.0
 11
495.4064512853296
 21
131.0064563764882
 31
0.0
  0
LINE
  5
9335
330
9282
100
AcDbEntity
  8
SUNPOU
 62
     4
370
    -2
100
AcDbLine
 10
492.4064512853296
 20
249.0065111711334
 30
0.0
 11
492.4064512853296
 21
138.0064563764882
 31
0.0
  0
INSERT
  5
9336
330
9282
100
AcDbEntity
  8
SUNPOU
 62
     4
370
    -2
100
AcDbBlockReference
  2
_OPEN
 10
492.4064512853296
 20
256.0065111711334
 30
0.0
 41
7.0
 42
7.0
 43
7.0
 50
90.0
  0
INSERT
  5
9337
330
9282
100
AcDbEntity
  8
SUNPOU
 62
     4
370
    -2
100
AcDbBlockReference
  2
_OPEN
 10
492.4064512853296
 20
131.0064563764882
 30
0.0
 41
7.0
 42
7.0
 43
7.0
 50
270.0
  0
MTEXT
  5
9338
330
9282
100
AcDbEntity
  8
SUNPOU
 62
     4
100
AcDbMText
 10
487.4064512853295
 20
149.0064563764883
 30
0.0
 40
6.0
 41
0.0
 71
     5
 72
     1
  1
\A1;125
 11
6.123031769111886E-17
 21
1.0
 31
0.0
 73
     1
 44
1.0
  0
POINT
  5
9339
330
9282
100
AcDbEntity
  8
DEFPOINTS
 62
     0
100
AcDbPoint
 10
438.5107565217412
 20
256.0065111711334
 30
0.0
  0
POINT
  5
933A
330
9282
100
AcDbEntity
  8
DEFPOINTS
 62
     0
100
AcDbPoint
 10
438.5107565217412
 20
131.0064563764882
 30
0.0
  0
POINT
  5
933B
330
9282
100
AcDbEntity
  8
DEFPOINTS
 62
     0
100
AcDbPoint
 10
492.4064512853296
 20
131.0064563764882
 30
0.0
  0
ENDBLK
  5
928D
330
9282
100
AcDbEntity
  8
0
100
AcDbBlockEnd
  0
BLOCK
  5
9298
330
928E
100
AcDbEntity
  8
0
100
AcDbBlockBegin
  2
*D13
 70
     1
 71
     0
 10
0.0
 20
0.0
 30
0.0
  3
*D13
  1

  0
LINE
  5
933C
330
928E
100
AcDbEntity
  8
SUNPOU
 62
     4
370
    -2
100
AcDbLine
 10
595.5220565217413
 20
489.6752891542215
 30
0.0
 11
637.8843745946186
 21
489.6752891542215
 31
0.0
  0
LINE
  5
933D
330
928E
100
AcDbEntity
  8
SUNPOU
 62
     4
370
    -2
100
AcDbLine
 10
595.5220565217413
 20
470.6752891542215
 30
0.0
 11
637.8843745946186
 21
470.6752891542215
 31
0.0
  0
LINE
  5
933E
330
928E
100
AcDbEntity
  8
SUNPOU
 62
     4
370
    -2
100
AcDbLine
 10
634.8843745946186
 20
482.6752891542215
 30
0.0
 11
634.8843745946186
 21
477.6752891542215
 31
0.0
  0
INSERT
  5
933F
330
928E
100
AcDbEntity
  8
SUNPOU
 62
     4
370
    -2
100
AcDbBlockReference
  2
_OPEN
 10
634.8843745946186
 20
489.6752891542215
 30
0.0
 41
7.0
 42
7.0
 43
7.0
 50
90.0
  0
INSERT
  5
9340
330
928E
100
AcDbEntity
  8
SUNPOU
 62
     4
370
    -2
100
AcDbBlockReference
  2
_OPEN
 10
634.8843745946186
 20
470.6752891542215
 30
0.0
 41
7.0
 42
7.0
 43
7.0
 50
270.0
  0
MTEXT
  5
9341
330
928E
100
AcDbEntity
  8
SUNPOU
 62
     4
100
AcDbMText
 10
629.8843745946185
 20
480.1752891542215
 30
0.0
 40
6.0
 41
0.0
 71
     5
 72
     1
  1
\A1;19
 11
6.123031769111886E-17
 21
1.0
 31
0.0
 73
     1
 44
1.0
  0
POINT
  5
9342
330
928E
100
AcDbEntity
  8
DEFPOINTS
 62
     0
100
AcDbPoint
 10
589.5220565217413
 20
489.6752891542215
 30
0.0
  0
POINT
  5
9343
330
928E
100
AcDbEntity
  8
DEFPOINTS
 62
     0
100
AcDbPoint
 10
589.5220565217413
 20
470.6752891542215
 30
0.0
  0
POINT
  5
9344
330
928E
100
AcDbEntity
  8
DEFPOINTS
 62
     0
100
AcDbPoint
 10
634.8843745946186
 20
470.6752891542215
 30
0.0
  0
ENDBLK
  5
9299
330
928E
100
AcDbEntity
  8
0
100
AcDbBlockEnd
  0
BLOCK
  5
92A4
330
929A
100
AcDbEntity
  8
0
100
AcDbBlockBegin
  2
*D14
 70
     1
 71
     0
 10
0.0
 20
0.0
 30
0.0
  3
*D14
  1

  0
LINE
  5
9345
330
929A
100
AcDbEntity
  8
SUNPOU
 62
     4
370
    -2
100
AcDbLine
 10
549.369403320777
 20
393.2817304268855
 30
0.0
 11
542.1306917506277
 21
413.9522934206769
 31
0.0
  0
LINE
  5
9346
330
929A
100
AcDbEntity
  8
SUNPOU
 62
     4
370
    -2
100
AcDbLine
 10
502.179303320777
 20
376.7560304268855
 30
0.0
 11
494.9405917506278
 21
397.4265934206769
 31
0.0
  0
LINE
  5
9347
330
929A
100
AcDbEntity
  8
SUNPOU
 62
     4
370
    -2
100
AcDbLine
 10
536.515624577899
 20
408.8072938438311
 30
0.0
 11
502.5387412185016
 21
396.9087858658359
 31
0.0
  0
INSERT
  5
9348
330
929A
100
AcDbEntity
  8
SUNPOU
 62
     4
370
    -2
100
AcDbBlockReference
  2
_OPEN
 10
543.1222328982001
 20
411.1208898548335
 30
0.0
 41
7.0
 42
7.0
 43
7.0
 50
19.29995890979722
  0
INSERT
  5
9349
330
929A
100
AcDbEntity
  8
SUNPOU
 62
     4
370
    -2
100
AcDbBlockReference
  2
_OPEN
 10
495.9321328982002
 20
394.5951898548335
 30
0.0
 41
7.0
 42
7.0
 43
7.0
 50
199.2999589097972
  0
MTEXT
  5
934A
330
929A
100
AcDbEntity
  8
SUNPOU
 62
     4
100
AcDbMText
 10
517.8746143189128
 20
407.5770457979058
 30
0.0
 40
6.0
 41
0.0
 71
     5
 72
     1
  1
\A1;50
 11
0.9438011886144668
 21
0.330513715857481
 31
0.0
 73
     1
 44
1.0
  0
POINT
  5
934B
330
929A
100
AcDbEntity
  8
DEFPOINTS
 62
     0
100
AcDbPoint
 10
551.3524856159219
 20
387.6189232951987
 30
0.0
  0
POINT
  5
934C
330
929A
100
AcDbEntity
  8
DEFPOINTS
 62
     0
100
AcDbPoint
 10
504.1623856159219
 20
371.0932232951986
 30
0.0
  0
POINT
  5
934D
330
929A
100
AcDbEntity
  8
DEFPOINTS
 62
     0
100
AcDbPoint
 10
495.9321328982002
 20
394.5951898548335
 30
0.0
  0
ENDBLK
  5
92A5
330
929A
100
AcDbEntity
  8
0
100
AcDbBlockEnd
  0
BLOCK
  5
92B2
330
92A6
100
AcDbEntity
  8
0
100
AcDbBlockBegin
  2
*D15
 70
     1
 71
     0
 10
0.0
 20
0.0
 30
0.0
  3
*D15
  1

  0
LINE
  5
934E
330
92A6
100
AcDbEntity
  8
SUNPOU
 62
     4
370
    -2
100
AcDbLine
 10
559.0048822661556
 20
396.0229727811961
 30
0.0
 11
551.5686818012196
 21
417.257434210019
 31
0.0
  0
LINE
  5
934F
330
92A6
100
AcDbEntity
  8
SUNPOU
 62
     4
370
    -2
100
AcDbLine
 10
549.5668710406684
 20
392.7178292201837
 30
0.0
 11
542.1306705757323
 21
413.9522906490066
 31
0.0
  0
LINE
  5
9350
330
92A6
100
AcDbEntity
  8
SUNPOU
 62
     4
370
    -2
100
AcDbLine
 10
536.5156066242804
 20
408.8072875565775
 30
0.0
 11
529.9089997525191
 21
406.493687409189
 31
0.0
  0
LINE
  5
9351
330
92A6
100
AcDbEntity
  8
SUNPOU
 62
     4
370
    -2
100
AcDbLine
 10
559.1668315932903
 20
416.739631412367
 30
0.0
 11
576.4278766962653
 21
422.7843616754948
 31
0.0
  0
LINE
  5
9352
330
92A6
100
AcDbEntity
  8
SUNPOU
 62
     4
370
    -2
100
AcDbLine
 10
543.1222134960417
 20
411.1208877039661
 30
0.0
 11
552.5602247215289
 21
414.4260312649784
 31
0.0
  0
INSERT
  5
9353
330
92A6
100
AcDbEntity
  8
SUNPOU
 62
     4
370
    -2
100
AcDbBlockReference
  2
_OPEN
 10
543.1222134960417
 20
411.1208877039661
 30
0.0
 41
7.0
 42
7.0
 43
7.0
 50
19.29999478259074
  0
INSERT
  5
9354
330
92A6
100
AcDbEntity
  8
SUNPOU
 62
     4
370
    -2
100
AcDbBlockReference
  2
_OPEN
 10
552.5602247215289
 20
414.4260312649784
 30
0.0
 41
7.0
 42
7.0
 43
7.0
 50
199.2999947825907
  0
MTEXT
  5
9355
330
92A6
100
AcDbEntity
  8
SUNPOU
 62
     4
100
AcDbMText
 10
569.5843997631754
 20
425.6855378966618
 30
0.0
 40
6.0
 41
0.0
 71
     5
 72
     1
  1
\A1;10
 11
0.9438009816801867
 21
0.3305143067697915
 31
0.0
 73
     1
 44
1.0
  0
POINT
  5
9356
330
92A6
100
AcDbEntity
  8
DEFPOINTS
 62
     0
100
AcDbPoint
 10
560.9879681067744
 20
390.360166891115
 30
0.0
  0
POINT
  5
9357
330
92A6
100
AcDbEntity
  8
DEFPOINTS
 62
     0
100
AcDbPoint
 10
551.5499568812871
 20
387.0550233301026
 30
0.0
  0
POINT
  5
9358
330
92A6
100
AcDbEntity
  8
DEFPOINTS
 62
     0
100
AcDbPoint
 10
543.1222134960417
 20
411.1208877039661
 30
0.0
  0
ENDBLK
  5
92B3
330
92A6
100
AcDbEntity
  8
0
100
AcDbBlockEnd
  0
BLOCK
  5
92BE
330
92B4
100
AcDbEntity
  8
0
100
AcDbBlockBegin
  2
*D16
 70
     1
 71
     0
 10
0.0
 20
0.0
 30
0.0
  3
*D16
  1

  0
LINE
  5
9359
330
92B4
100
AcDbEntity
  8
SUNPOU
 62
     4
370
    -2
100
AcDbLine
 10
502.1793033207769
 20
376.7560304268853
 30
0.0
 11
494.9405917506277
 21
397.4265934206768
 31
0.0
  0
LINE
  5
935A
330
92B4
100
AcDbEntity
  8
SUNPOU
 62
     4
370
    -2
100
AcDbLine
 10
454.9892033207769
 20
360.2303304268854
 30
0.0
 11
447.7504917506277
 21
380.9008934206769
 31
0.0
  0
LINE
  5
935B
330
92B4
100
AcDbEntity
  8
SUNPOU
 62
     4
370
    -2
100
AcDbLine
 10
489.3255245778988
 20
392.2815938438311
 30
0.0
 11
455.3486412185013
 21
380.3830858658358
 31
0.0
  0
INSERT
  5
935C
330
92B4
100
AcDbEntity
  8
SUNPOU
 62
     4
370
    -2
100
AcDbBlockReference
  2
_OPEN
 10
495.9321328982001
 20
394.5951898548334
 30
0.0
 41
7.0
 42
7.0
 43
7.0
 50
19.29995890979714
  0
INSERT
  5
935D
330
92B4
100
AcDbEntity
  8
SUNPOU
 62
     4
370
    -2
100
AcDbBlockReference
  2
_OPEN
 10
448.7420328982001
 20
378.0694898548335
 30
0.0
 41
7.0
 42
7.0
 43
7.0
 50
199.2999589097972
  0
MTEXT
  5
935E
330
92B4
100
AcDbEntity
  8
SUNPOU
 62
     4
100
AcDbMText
 10
470.6845143189127
 20
391.0513457979058
 30
0.0
 40
6.0
 41
0.0
 71
     5
 72
     1
  1
\A1;50
 11
0.9438011886144671
 21
0.3305137158574801
 31
0.0
 73
     1
 44
1.0
  0
POINT
  5
935F
330
92B4
100
AcDbEntity
  8
DEFPOINTS
 62
     0
100
AcDbPoint
 10
504.1623856159218
 20
371.0932232951985
 30
0.0
  0
POINT
  5
9360
330
92B4
100
AcDbEntity
  8
DEFPOINTS
 62
     0
100
AcDbPoint
 10
456.9722856159218
 20
354.5675232951986
 30
0.0
  0
POINT
  5
9361
330
92B4
100
AcDbEntity
  8
DEFPOINTS
 62
     0
100
AcDbPoint
 10
448.7420328982001
 20
378.0694898548335
 30
0.0
  0
ENDBLK
  5
92BF
330
92B4
100
AcDbEntity
  8
0
100
AcDbBlockEnd
  0
BLOCK
  5
92CA
330
92C0
100
AcDbEntity
  8
0
100
AcDbBlockBegin
  2
*D17
 70
     1
 71
     0
 10
0.0
 20
0.0
 30
0.0
  3
*D17
  1

  0
LINE
  5
9362
330
92C0
100
AcDbEntity
  8
SUNPOU
 62
     4
370
    -2
100
AcDbLine
 10
564.8329979381988
 20
397.5340907682474
 30
0.0
 11
595.6540629753823
 21
408.3273588621792
 31
0.0
  0
LINE
  5
9363
330
92C0
100
AcDbEntity
  8
SUNPOU
 62
     4
370
    -2
100
AcDbLine
 10
571.112697938199
 20
379.6018907682475
 30
0.0
 11
601.9337629753824
 21
390.3951588621792
 31
0.0
  0
LINE
  5
9364
330
92C0
100
AcDbEntity
  8
SUNPOU
 62
     4
370
    -2
100
AcDbLine
 10
595.1362355328007
 20
400.7292107496645
 30
0.0
 11
596.7887780956869
 21
396.010239501645
 31
0.0
  0
INSERT
  5
9365
330
92C0
100
AcDbEntity
  8
SUNPOU
 62
     4
370
    -2
100
AcDbBlockReference
  2
_OPEN
 10
592.8226568142437
 20
407.3358251256548
 30
0.0
 41
7.0
 42
7.0
 43
7.0
 50
109.2998089412142
  0
INSERT
  5
9366
330
92C0
100
AcDbEntity
  8
SUNPOU
 62
     4
370
    -2
100
AcDbBlockReference
  2
_OPEN
 10
599.1023568142438
 20
389.4036251256548
 30
0.0
 41
7.0
 42
7.0
 43
7.0
 50
289.2998089412142
  0
MTEXT
  5
9367
330
92C0
100
AcDbEntity
  8
SUNPOU
 62
     4
100
AcDbMText
 10
600.6815170828081
 20
400.0222813531954
 30
0.0
 40
6.0
 41
0.0
 71
     5
 72
     1
  1
\A1;19
 11
0.3305112455081293
 21
-0.943802053712888
 31
0.0
 73
     1
 44
1.0
  0
POINT
  5
9368
330
92C0
100
AcDbEntity
  8
DEFPOINTS
 62
     0
100
AcDbPoint
 10
559.1701856159215
 20
395.5510232951987
 30
0.0
  0
POINT
  5
9369
330
92C0
100
AcDbEntity
  8
DEFPOINTS
 62
     0
100
AcDbPoint
 10
565.4498856159216
 20
377.6188232951987
 30
0.0
  0
POINT
  5
936A
330
92C0
100
AcDbEntity
  8
DEFPOINTS
 62
     0
100
AcDbPoint
 10
599.1023568142438
 20
389.4036251256548
 30
0.0
  0
ENDBLK
  5
92CB
330
92C0
100
AcDbEntity
  8
0
100
AcDbBlockEnd
  0
ENDSEC
  0
SECTION
  2
ENTITIES
  0
LINE
  5
3EF3
330
1A
100
AcDbEntity
  8
ZUWAKU
100
AcDbLine
 10
208.646601303624
 20
15.19999986828872
 30
0.0
 11
447.4243639845474
 21
15.19999986828871
 31
0.0
  0
LINE
  5
3EF4
330
1A
100
AcDbEntity
  8
ZUWAKU
100
AcDbLine
 10
208.646601303624
 20
15.59999986828872
 30
0.0
 11
447.4243639845474
 21
15.59999986828872
 31
0.0
  0
LINE
  5
3EF5
330
1A
100
AcDbEntity
  8
ZUWAKU
100
AcDbLine
 10
208.646601303624
 20
15.39999986828872
 30
0.0
 11
447.4243639845474
 21
15.39999986828872
 31
0.0
  0
LINE
  5
3EF6
330
1A
100
AcDbEntity
  8
ZUWAKU
100
AcDbLine
 10
0.0000000135560185
 20
30.79999986828869
 30
0.0
 11
797.4000000135559
 21
30.79999986828869
 31
0.0
  0
LINE
  5
3EF7
330
1A
100
AcDbEntity
  8
ZUWAKU
100
AcDbLine
 10
0.0000000135560185
 20
30.59999986828869
 30
0.0
 11
797.4000000135559
 21
30.59999986828869
 31
0.0
  0
LINE
  5
3EF8
330
1A
100
AcDbEntity
  8
ZUWAKU
100
AcDbLine
 10
0.0000000135560185
 20
30.39999986828869
 30
0.0
 11
797.4000000135559
 21
30.39999986828869
 31
0.0
  0
LINE
  5
3EF9
330
1A
100
AcDbEntity
  8
ZUWAKU
100
AcDbLine
 10
0.0000000135560185
 20
30.19999986828869
 30
0.0
 11
797.4000000135559
 21
30.19999986828869
 31
0.0
  0
LINE
  5
3EFA
330
1A
100
AcDbEntity
  8
ZUWAKU
100
AcDbLine
 10
0.0000000135560185
 20
29.99999986828868
 30
0.0
 11
797.4000000135559
 21
29.99999986828868
 31
0.0
  0
LWPOLYLINE
  5
3EFB
330
1A
100
AcDbEntity
  8
ZUWAKU
100
AcDbPolyline
 90
        4
 70
     1
 43
0.0
 10
0.2000000135559503
 20
551.3999998682888
 10
0.2000000135559503
 20
0.1999998682887281
 10
797.4000000135559
 20
0.1999998682887512
 10
797.4000000135561
 20
551.3999998682888
  0
LWPOLYLINE
  5
3EFC
330
1A
100
AcDbEntity
  8
ZUWAKU
100
AcDbPolyline
 90
        4
 70
     1
 43
0.0
 10
0.6000000135559276
 20
550.9999998682888
 10
0.6000000135559276
 20
0.5999998682887053
 10
797.0000000135563
 20
0.5999998682887515
 10
797.000000013556
 20
550.9999998682888
  0
LWPOLYLINE
  5
3EFD
330
1A
100
AcDbEntity
  8
ZUWAKU
100
AcDbPolyline
 90
        4
 70
     1
 43
0.0
 10
0.0000000135560185
 20
551.5999998682887
 10
0.0000000135560185
 20
-0.0000001317113174
 10
797.6000000135562
 20
-0.0000001317112499
 10
797.6000000135562
 20
551.5999998682888
  0
LWPOLYLINE
  5
3EFE
330
1A
100
AcDbEntity
  8
ZUWAKU
100
AcDbPolyline
 90
        4
 70
     1
 43
0.0
 10
0.4000000135559958
 20
551.1999998682887
 10
0.4000000135559958
 20
0.3999998682887735
 10
797.2000000135561
 20
0.3999998682887505
 10
797.2000000135561
 20
551.1999998682887
  0
LWPOLYLINE
  5
3EFF
330
1A
100
AcDbEntity
  8
ZUWAKU
100
AcDbPolyline
 90
        4
 70
     1
 43
0.0
 10
0.8000000135559731
 20
550.7999998682888
 10
0.8000000135559731
 20
0.7999998682887508
 10
796.800000013556
 20
0.7999998682887508
 10
796.800000013556
 20
550.7999998682888
  0
TEXT
  5
3F00
330
1A
100
AcDbEntity
  8
moji
100
AcDbText
 10
92.95778960172515
 20
12.74117799856344
 30
0.0
 40
6.0
  1
アーバントップΣ９０
 41
0.9
  7
ｽﾀｲﾙ1
100
AcDbText
  0
HATCH
  5
3F01
330
1A
100
AcDbEntity
  8
ZUWAKU
100
AcDbHatch
 10
0.0
 20
0.0
 30
0.0
210
0.0
220
0.0
230
1.0
  2
ANSI37
 70
     0
 71
     0
 91
        8
 92
        7
 72
     1
 73
     1
 93
       24
 10
14.50226267467588
 20
17.64484834927227
 42
-0.1989123673796348
 10
14.09221216833714
 20
18.63479784293332
 42
0.0
 10
14.09221216833714
 20
19.92499986828869
 42
-0.4142135623730912
 10
14.61721216833712
 20
20.44999986828869
 42
0.0
 10
17.59221216833703
 20
20.44999986828869
 42
0.4142135623731546
 10
18.11721216833712
 20
20.97499986828868
 42
0.0
 10
18.11721216833712
 20
22.72499986828869
 42
0.4142135623731586
 10
17.59221216833703
 20
23.24999986828869
 42
0.0
 10
14.09221216833714
 20
23.24999986828869
 42
0.4142135623730928
 10
11.29221216833719
 20
20.44999986828871
 42
0.0
 10
11.29221216833719
 20
18.63479784293345
 42
0.1989123673796619
 10
12.52236368735362
 20
15.66494936194984
 42
0.0
 10
15.43216166199829
 20
12.75515138730518
 42
-0.1989123673796613
 10
15.84221216833714
 20
11.76520189364399
 42
0.0
 10
15.84221216833714
 20
10.47499986828868
 42
-0.4142135623730911
 10
15.31721216833716
 20
9.949999868288685
 42
0.0
 10
12.34221216833726
 20
9.949999868288685
 42
0.4142135623731526
 10
11.81721216833716
 20
9.424999868288698
 42
0.0
 10
11.81721216833716
 20
7.674999868288676
 42
0.4142135623731526
 10
12.34221216833726
 20
7.149999868288688
 42
0.0
 10
15.84221216833714
 20
7.149999868288688
 42
0.4142135623731044
 10
18.64221216833721
 20
9.949999868288664
 42
0.0
 10
18.64221216833721
 20
11.76520189364394
 42
0.1989123673796604
 10
17.41206064932067
 20
14.73505037462748
 42
0.0
 97
        0
 92
        7
 72
     1
 73
     1
 93
       16
 10
23.54221216833719
 20
19.04999986828869
 42
-0.4142135623730935
 10
24.94221216833716
 20
20.44999986828869
 42
0.0
 10
26.86721216833712
 20
20.44999986828869
 42
0.4142135623731546
 10
27.39221216833721
 20
20.97499986828868
 42
0.0
 10
27.39221216833721
 20
22.72499986828869
 42
0.4142135623730952
 10
26.86721216833723
 20
23.24999986828869
 42
0.0
 10
24.94221216833705
 20
23.24999986828865
 42
0.4142135623730892
 10
20.74221216833712
 20
19.04999986828862
 42
0.0
 10
20.74221216833712
 20
11.34999986828871
 42
0.4142135623730969
 10
24.94221216833716
 20
7.149999868288688
 42
0.0
 10
26.86721216833712
 20
7.149999868288688
 42
0.4142135623731526
 10
27.39221216833721
 20
7.674999868288676
 42
0.0
 10
27.39221216833721
 20
9.424999868288698
 42
0.414213562373089
 10
26.86721216833723
 20
9.949999868288685
 42
0.0
 10
24.94221216833716
 20
9.949999868288685
 42
-0.4142135623730928
 10
23.54221216833719
 20
11.34999986828867
 42
0.0
 97
        0
 92
        7
 72
     1
 73
     1
 93
        2
 10
24.24221216833712
 20
15.19999986828869
 42
1.0
 10
27.74221216833712
 20
15.19999986828869
 42
1.0
 97
        0
 92
        7
 72
     1
 73
     1
 93
       26
 10
37.31485865051513
 20
19.20504706185211
 42
0.0
 10
38.37649828365295
 20
22.5669059001217
 42
0.5069206636600134
 10
37.87586738445759
 20
23.24999986828869
 42
0.0
 10
36.17697800484837
 20
23.24999986828869
 42
0.3272098845218764
 10
35.67634710565301
 20
22.88309383645566
 42
0.0
 10
33.80807723102123
 20
16.96690590012177
 42
-0.3272098845219541
 10
33.30744633182576
 20
16.59999986828868
 42
0.0
 10
33.1672121683373
 20
16.59999986828868
 42
-0.4142135623731526
 10
32.64221216833721
 20
17.12499986828867
 42
0.0
 10
32.64221216833721
 20
22.72499986828869
 42
0.4142135623730952
 10
32.11721216833723
 20
23.24999986828869
 42
0.0
 10
30.36721216833712
 20
23.24999986828869
 42
0.4142135623730872
 10
29.84221216833714
 20
22.72499986828871
 42
0.0
 10
29.84221216833714
 20
7.674999868288676
 42
0.414213562373089
 10
30.36721216833712
 20
7.149999868288688
 42
0.0
 10
32.11721216833712
 20
7.149999868288688
 42
0.4142135623731526
 10
32.64221216833721
 20
7.674999868288676
 42
0.0
 10
32.64221216833721
 20
13.2749998682887
 42
-0.4142135623731526
 10
33.1672121683373
 20
13.79999986828869
 42
0.0
 10
33.30744633182587
 20
13.79999986828869
 42
-0.3272098845218915
 10
33.80807723102123
 20
13.43309383645561
 42
0.0
 10
35.67634710565301
 20
7.51690590012176
 42
0.3272098845218902
 10
36.17697800484837
 20
7.149999868288688
 42
0.0
 10
37.87586738445759
 20
7.149999868288688
 42
0.5069206636600334
 10
38.37649828365295
 20
7.833093836455696
 42
0.0
 10
36.05010690517929
 20
15.19999986828882
 42
0.0
 97
        0
 92
        7
 72
     1
 73
     1
 93
        8
 10
43.49221216833712
 20
22.7249998682887
 42
0.4142135623731546
 10
42.96721216833703
 20
23.24999986828869
 42
0.0
 10
41.21721216833726
 20
23.24999986828869
 42
0.4142135623731506
 10
40.69221216833716
 20
22.72499986828871
 42
0.0
 10
40.69221216833716
 20
7.674999868288676
 42
0.4142135623731526
 10
41.21721216833726
 20
7.149999868288688
 42
0.0
 10
42.96721216833703
 20
7.149999868288688
 42
0.4142135623731526
 10
43.49221216833712
 20
7.674999868288676
 42
0.0
 97
        0
 92
        7
 72
     1
 73
     1
 93
       24
 10
48.39221216833721
 20
19.92499986828869
 42
-0.4142135623731547
 10
48.9172121683373
 20
20.44999986828869
 42
0.0
 10
51.89221216833721
 20
20.44999986828869
 42
0.4142135623730911
 10
52.41721216833719
 20
20.97499986828868
 42
0.0
 10
52.41721216833719
 20
22.72499986828869
 42
0.4142135623730952
 10
51.89221216833721
 20
23.24999986828869
 42
0.0
 10
48.39221216833721
 20
23.24999986828869
 42
0.4142135623731048
 10
45.59221216833714
 20
20.44999986828871
 42
0.0
 10
45.59221216833714
 20
18.63479784293345
 42
0.1989123673796613
 10
46.82236368735369
 20
15.66494936194989
 42
0.0
 10
49.73216166199836
 20
12.75515138730523
 42
-0.1989123673796402
 10
50.14221216833721
 20
11.76520189364415
 42
0.0
 10
50.14221216833721
 20
10.47499986828868
 42
-0.4142135623730911
 10
49.61721216833723
 20
9.949999868288685
 42
0.0
 10
46.64221216833721
 20
9.949999868288685
 42
0.4142135623731526
 10
46.11721216833712
 20
9.424999868288698
 42
0.0
 10
46.11721216833712
 20
7.674999868288676
 42
0.414213562373089
 10
46.6422121683371
 20
7.149999868288688
 42
0.0
 10
50.14221216833721
 20
7.149999868288688
 42
0.4142135623730925
 10
52.94221216833716
 20
9.949999868288664
 42
0.0
 10
52.94221216833716
 20
11.76520189364394
 42
0.1989123673796675
 10
51.71206064932062
 20
14.73505037462759
 42
0.0
 10
48.80226267467606
 20
17.64484834927211
 42
-0.1989123673796653
 10
48.39221216833721
 20
18.63479784293327
 42
0.0
 97
        0
 92
        7
 72
     1
 73
     1
 93
       16
 10
57.84221216833714
 20
22.72499986828868
 42
0.414213562373103
 10
57.31721216833716
 20
23.24999986828869
 42
0.0
 10
55.56721216833716
 20
23.24999986828869
 42
0.4142135623730872
 10
55.04221216833719
 20
22.72499986828871
 42
0.0
 10
55.04221216833719
 20
9.949999868288664
 42
0.4142135623730925
 10
57.84221216833714
 20
7.149999868288688
 42
0.0
 10
61.34221216833714
 20
7.149999868288688
 42
0.4142135623731044
 10
64.14221216833721
 20
9.949999868288664
 42
0.0
 10
64.14221216833721
 20
22.72499986828869
 42
0.4142135623730952
 10
63.61721216833723
 20
23.24999986828869
 42
0.0
 10
61.86721216833712
 20
23.24999986828869
 42
0.4142135623730872
 10
61.34221216833714
 20
22.72499986828871
 42
0.0
 10
61.34221216833714
 20
10.99999986828866
 42
-0.414213562373088
 10
60.29221216833719
 20
9.949999868288685
 42
0.0
 10
58.89221216833721
 20
9.949999868288685
 42
-0.4142135623731197
 10
57.84221216833714
 20
10.99999986828866
 42
0.0
 97
        0
 92
        7
 72
     1
 73
     1
 93
        8
 10
69.04221216833719
 20
22.72499986828871
 42
0.4142135623730872
 10
68.51721216833721
 20
23.24999986828869
 42
0.0
 10
66.76721216833721
 20
23.24999986828869
 42
0.4142135623731506
 10
66.24221216833712
 20
22.72499986828871
 42
0.0
 10
66.24221216833712
 20
7.674999868288676
 42
0.414213562373089
 10
66.7672121683371
 20
7.149999868288688
 42
0.0
 10
68.51721216833721
 20
7.149999868288688
 42
0.414213562373089
 10
69.04221216833719
 20
7.674999868288676
 42
0.0
 97
        0
 75
     0
 76
     1
 52
0.0
 41
0.2
 77
     0
 78
     2
 53
45.0
 43
-900.942304321123
 44
-13.20000013171125
 45
-0.4490128060534576
 46
0.4490128060534577
 79
     0
 53
135.0
 43
-900.942304321123
 44
-13.20000013171125
 45
-0.4490128060534577
 46
-0.4490128060534576
 79
     0
 47
0.057451373970553
 98
        8
 10
16.07985497657933
 20
15.16717351417424
 10
22.40451501999519
 20
18.84406205073969
 10
25.16436789921568
 20
15.5118815143594
 10
30.91405999519316
 20
16.20129751473019
 10
41.83847203251276
 20
16.6609097822718
 10
46.89820090868557
 20
19.41857618469589
 10
56.55768598595637
 20
18.7291577833837
 10
67.82707963317876
 20
19.18877005092531
  0
LINE
  5
3F02
330
1A
100
AcDbEntity
  8
ZUWAKU
100
AcDbLine
 10
24.94221216833716
 20
23.24999986828865
 30
0.0
 11
26.86721216833712
 21
23.24999986828869
 31
0.0
  0
LINE
  5
3F03
330
1A
100
AcDbEntity
  8
ZUWAKU
100
AcDbLine
 10
26.86721216833712
 20
20.44999986828869
 30
0.0
 11
24.94221216833716
 21
20.44999986828869
 31
0.0
  0
LINE
  5
3F04
330
1A
100
AcDbEntity
  8
ZUWAKU
100
AcDbLine
 10
24.94221216833716
 20
9.949999868288685
 30
0.0
 11
26.86721216833712
 21
9.949999868288685
 31
0.0
  0
LINE
  5
3F05
330
1A
100
AcDbEntity
  8
ZUWAKU
100
AcDbLine
 10
26.86721216833712
 20
7.149999868288688
 30
0.0
 11
24.94221216833716
 21
7.149999868288688
 31
0.0
  0
CIRCLE
  5
3F06
330
1A
100
AcDbEntity
  8
ZUWAKU
100
AcDbCircle
 10
25.99221216833712
 20
15.19999986828869
 30
0.0
 40
1.75
  0
ARC
  5
3F07
330
1A
100
AcDbEntity
  8
ZUWAKU
100
AcDbCircle
 10
15.49221216833712
 20
18.63479784293339
 30
0.0
 40
1.4
100
AcDbArc
 50
180.0000000000016
 51
224.9999999999988
  0
LINE
  5
3F08
330
1A
100
AcDbEntity
  8
ZUWAKU
100
AcDbLine
 10
23.54221216833719
 20
19.04999986828869
 30
0.0
 11
23.54221216833719
 21
11.34999986828869
 31
0.0
  0
LINE
  5
3F09
330
1A
100
AcDbEntity
  8
ZUWAKU
100
AcDbLine
 10
20.74221216833712
 20
11.34999986828869
 30
0.0
 11
20.74221216833712
 21
19.04999986828864
 31
0.0
  0
ARC
  5
3F0A
330
1A
100
AcDbEntity
  8
ZUWAKU
100
AcDbCircle
 10
15.49221216833712
 20
18.63479784293339
 30
0.0
 40
4.199999999999999
100
AcDbArc
 50
180.0
 51
225.0
  0
ARC
  5
3F0B
330
1A
100
AcDbEntity
  8
ZUWAKU
100
AcDbCircle
 10
15.84221216833714
 20
9.949999868288685
 30
0.0
 40
2.8
100
AcDbArc
 50
270.0
 51
0.0
  0
ARC
  5
3F0C
330
1A
100
AcDbEntity
  8
ZUWAKU
100
AcDbCircle
 10
24.94221216833716
 20
11.34999986828869
 30
0.0
 40
4.199999999999999
100
AcDbArc
 50
180.0
 51
270.0
  0
ARC
  5
3F0D
330
1A
100
AcDbEntity
  8
ZUWAKU
100
AcDbCircle
 10
14.44221216833716
 20
11.76520189364399
 30
0.0
 40
4.199999999999999
100
AcDbArc
 50
0.0
 51
45.0
  0
LINE
  5
3F0E
330
1A
100
AcDbEntity
  8
ZUWAKU
100
AcDbLine
 10
17.41206064932067
 20
14.73505037462751
 30
0.0
 11
14.50226267467599
 21
17.64484834927219
 31
0.0
  0
LINE
  5
3F0F
330
1A
100
AcDbEntity
  8
ZUWAKU
100
AcDbLine
 10
15.84221216833714
 20
10.47499986828869
 30
0.0
 11
15.84221216833714
 21
11.76520189364403
 31
0.0
  0
ARC
  5
3F10
330
1A
100
AcDbEntity
  8
ZUWAKU
100
AcDbCircle
 10
15.31721216833716
 20
10.47499986828869
 30
0.0
 40
0.5249999999999999
100
AcDbArc
 50
270.0
 51
0.0
  0
ARC
  5
3F11
330
1A
100
AcDbEntity
  8
ZUWAKU
100
AcDbCircle
 10
14.44221216833716
 20
11.76520189364403
 30
0.0
 40
1.4
100
AcDbArc
 50
0.0
 51
45.0
  0
LINE
  5
3F12
330
1A
100
AcDbEntity
  8
ZUWAKU
100
AcDbLine
 10
11.81721216833716
 20
7.674999868288687
 30
0.0
 11
11.81721216833716
 21
9.424999868288687
 31
0.0
  0
ARC
  5
3F13
330
1A
100
AcDbEntity
  8
ZUWAKU
100
AcDbCircle
 10
12.34221216833714
 20
7.674999868288687
 30
0.0
 40
0.5249999999999999
100
AcDbArc
 50
180.0
 51
270.0
  0
ARC
  5
3F14
330
1A
100
AcDbEntity
  8
ZUWAKU
100
AcDbCircle
 10
12.34221216833714
 20
9.424999868288687
 30
0.0
 40
0.5249999999999999
100
AcDbArc
 50
90.0
 51
180.0
  0
LINE
  5
3F15
330
1A
100
AcDbEntity
  8
ZUWAKU
100
AcDbLine
 10
12.34221216833714
 20
7.149999868288688
 30
0.0
 11
15.84221216833714
 21
7.149999868288688
 31
0.0
  0
LINE
  5
3F16
330
1A
100
AcDbEntity
  8
ZUWAKU
100
AcDbLine
 10
12.34221216833714
 20
9.949999868288685
 30
0.0
 11
15.31721216833716
 21
9.949999868288685
 31
0.0
  0
LINE
  5
3F17
330
1A
100
AcDbEntity
  8
ZUWAKU
100
AcDbLine
 10
12.52236368735362
 20
15.66494936194987
 30
0.0
 11
15.43216166199829
 21
12.7551513873052
 31
0.0
  0
LINE
  5
3F18
330
1A
100
AcDbEntity
  8
ZUWAKU
100
AcDbLine
 10
18.64221216833721
 20
9.949999868288685
 30
0.0
 11
18.64221216833721
 21
11.76520189364403
 31
0.0
  0
ARC
  5
3F19
330
1A
100
AcDbEntity
  8
ZUWAKU
100
AcDbCircle
 10
24.94221216833716
 20
11.34999986828869
 30
0.0
 40
1.4
100
AcDbArc
 50
180.0
 51
270.0
  0
ARC
  5
3F1A
330
1A
100
AcDbEntity
  8
ZUWAKU
100
AcDbCircle
 10
17.59221216833714
 20
22.72499986828868
 30
0.0
 40
0.5249999999999999
100
AcDbArc
 50
0.0
 51
90.0
  0
ARC
  5
3F1B
330
1A
100
AcDbEntity
  8
ZUWAKU
100
AcDbCircle
 10
17.59221216833714
 20
20.97499986828868
 30
0.0
 40
0.5249999999999999
100
AcDbArc
 50
270.0
 51
0.0
  0
LINE
  5
3F1C
330
1A
100
AcDbEntity
  8
ZUWAKU
100
AcDbLine
 10
14.09221216833714
 20
23.24999986828869
 30
0.0
 11
17.59221216833714
 21
23.24999986828869
 31
0.0
  0
ARC
  5
3F1D
330
1A
100
AcDbEntity
  8
ZUWAKU
100
AcDbCircle
 10
14.61721216833712
 20
19.92499986828869
 30
0.0
 40
0.5249999999999999
100
AcDbArc
 50
90.0
 51
180.0
  0
LINE
  5
3F1E
330
1A
100
AcDbEntity
  8
ZUWAKU
100
AcDbLine
 10
14.09221216833714
 20
19.92499986828869
 30
0.0
 11
14.09221216833714
 21
18.63479784293335
 31
0.0
  0
LINE
  5
3F1F
330
1A
100
AcDbEntity
  8
ZUWAKU
100
AcDbLine
 10
17.59221216833714
 20
20.44999986828869
 30
0.0
 11
14.61721216833712
 21
20.44999986828869
 31
0.0
  0
LINE
  5
3F20
330
1A
100
AcDbEntity
  8
ZUWAKU
100
AcDbLine
 10
11.29221216833719
 20
20.44999986828869
 30
0.0
 11
11.29221216833719
 21
18.63479784293335
 31
0.0
  0
ARC
  5
3F21
330
1A
100
AcDbEntity
  8
ZUWAKU
100
AcDbCircle
 10
14.09221216833714
 20
20.44999986828869
 30
0.0
 40
2.8
100
AcDbArc
 50
90.0
 51
180.0
  0
LINE
  5
3F22
330
1A
100
AcDbEntity
  8
ZUWAKU
100
AcDbLine
 10
18.11721216833712
 20
22.72499986828868
 30
0.0
 11
18.11721216833712
 21
20.97499986828868
 31
0.0
  0
ARC
  5
3F23
330
1A
100
AcDbEntity
  8
ZUWAKU
100
AcDbCircle
 10
24.94221216833716
 20
19.04999986828869
 30
0.0
 40
1.4
100
AcDbArc
 50
90.0
 51
180.0
  0
ARC
  5
3F24
330
1A
100
AcDbEntity
  8
ZUWAKU
100
AcDbCircle
 10
24.94221216833716
 20
19.04999986828864
 30
0.0
 40
4.199999999999999
100
AcDbArc
 50
90.0
 51
180.0
  0
LINE
  5
3F25
330
1A
100
AcDbEntity
  8
ZUWAKU
100
AcDbLine
 10
79.32662956154422
 20
29.99999986828868
 30
0.0
 11
79.32662956154445
 21
0.7999998682887508
 31
0.0
  0
LINE
  5
3F26
330
1A
100
AcDbEntity
  8
ZUWAKU
100
AcDbLine
 10
79.52662956154427
 20
29.99999986828868
 30
0.0
 11
79.5266295615445
 21
0.7999998682887508
 31
0.0
  0
LINE
  5
3F27
330
1A
100
AcDbEntity
  8
ZUWAKU
100
AcDbLine
 10
79.12662956154441
 20
29.99999986828868
 30
0.0
 11
79.12662956154441
 21
0.7999998682887508
 31
0.0
  0
LINE
  5
3F28
330
1A
100
AcDbEntity
  8
ZUWAKU
100
AcDbLine
 10
64.14221216833721
 20
9.949999868288685
 30
0.0
 11
64.14221216833721
 21
22.72499986828868
 31
0.0
  0
LINE
  5
3F29
330
1A
100
AcDbEntity
  8
ZUWAKU
100
AcDbLine
 10
61.34221216833714
 20
22.72499986828868
 30
0.0
 11
61.34221216833714
 21
10.99999986828868
 31
0.0
  0
LINE
  5
3F2A
330
1A
100
AcDbEntity
  8
ZUWAKU
100
AcDbLine
 10
69.04221216833719
 20
7.674999868288687
 30
0.0
 11
69.04221216833719
 21
22.72499986828868
 31
0.0
  0
LINE
  5
3F2B
330
1A
100
AcDbEntity
  8
ZUWAKU
100
AcDbLine
 10
66.24221216833712
 20
22.72499986828868
 30
0.0
 11
66.24221216833712
 21
7.674999868288687
 31
0.0
  0
ARC
  5
3F2C
330
1A
100
AcDbEntity
  8
ZUWAKU
100
AcDbCircle
 10
49.79221216833719
 20
18.63479784293339
 30
0.0
 40
1.4
100
AcDbArc
 50
180.0000000000016
 51
224.9999999999988
  0
ARC
  5
3F2D
330
1A
100
AcDbEntity
  8
ZUWAKU
100
AcDbCircle
 10
49.79221216833719
 20
18.63479784293339
 30
0.0
 40
4.199999999999999
100
AcDbArc
 50
180.0
 51
225.0
  0
LINE
  5
3F2E
330
1A
100
AcDbEntity
  8
ZUWAKU
100
AcDbLine
 10
37.31485865051513
 20
19.20504706185211
 30
0.0
 11
36.05010690517929
 21
15.19999986828871
 31
0.0
  0
LINE
  5
3F2F
330
1A
100
AcDbEntity
  8
ZUWAKU
100
AcDbLine
 10
40.69221216833716
 20
22.72499986828868
 30
0.0
 11
40.69221216833716
 21
7.674999868288687
 31
0.0
  0
LINE
  5
3F30
330
1A
100
AcDbEntity
  8
ZUWAKU
100
AcDbLine
 10
43.49221216833712
 20
7.674999868288687
 30
0.0
 11
43.49221216833712
 21
22.72499986828868
 31
0.0
  0
LINE
  5
3F31
330
1A
100
AcDbEntity
  8
ZUWAKU
100
AcDbLine
 10
55.04221216833719
 20
22.72499986828868
 30
0.0
 11
55.04221216833719
 21
9.949999868288685
 31
0.0
  0
LINE
  5
3F32
330
1A
100
AcDbEntity
  8
ZUWAKU
100
AcDbLine
 10
57.84221216833714
 20
10.99999986828868
 30
0.0
 11
57.84221216833714
 21
22.72499986828868
 31
0.0
  0
LINE
  5
3F33
330
1A
100
AcDbEntity
  8
ZUWAKU
100
AcDbLine
 10
32.64221216833721
 20
17.12499986828869
 30
0.0
 11
32.64221216833721
 21
22.72499986828868
 31
0.0
  0
LINE
  5
3F34
330
1A
100
AcDbEntity
  8
ZUWAKU
100
AcDbLine
 10
29.84221216833714
 20
22.72499986828868
 30
0.0
 11
29.84221216833714
 21
7.674999868288687
 31
0.0
  0
LINE
  5
3F35
330
1A
100
AcDbEntity
  8
ZUWAKU
100
AcDbLine
 10
35.67634710565301
 20
22.88309383645566
 30
0.0
 11
33.80807723102123
 21
16.96690590012172
 31
0.0
  0
LINE
  5
3F36
330
1A
100
AcDbEntity
  8
ZUWAKU
100
AcDbLine
 10
60.29221216833719
 20
9.949999868288685
 30
0.0
 11
58.89221216833721
 21
9.949999868288685
 31
0.0
  0
LINE
  5
3F37
330
1A
100
AcDbEntity
  8
ZUWAKU
100
AcDbLine
 10
57.84221216833714
 20
7.149999868288688
 30
0.0
 11
61.34221216833714
 21
7.149999868288688
 31
0.0
  0
LINE
  5
3F38
330
1A
100
AcDbEntity
  8
ZUWAKU
100
AcDbLine
 10
41.21721216833714
 20
7.149999868288688
 30
0.0
 11
42.96721216833714
 21
7.149999868288688
 31
0.0
  0
LINE
  5
3F39
330
1A
100
AcDbEntity
  8
ZUWAKU
100
AcDbLine
 10
35.67634710565301
 20
7.516905900121714
 30
0.0
 11
33.80807723102123
 21
13.43309383645565
 31
0.0
  0
ARC
  5
3F3A
330
1A
100
AcDbEntity
  8
ZUWAKU
100
AcDbCircle
 10
33.30744633182587
 20
17.12499986828869
 30
0.0
 40
0.5249999999999999
100
AcDbArc
 50
270.0
 51
342.474431626277
  0
LINE
  5
3F3B
330
1A
100
AcDbEntity
  8
ZUWAKU
100
AcDbLine
 10
33.30744633182587
 20
16.59999986828868
 30
0.0
 11
33.16721216833719
 21
16.59999986828868
 31
0.0
  0
LINE
  5
3F3C
330
1A
100
AcDbEntity
  8
ZUWAKU
100
AcDbLine
 10
33.16721216833719
 20
13.79999986828869
 30
0.0
 11
33.30744633182587
 21
13.79999986828869
 31
0.0
  0
ARC
  5
3F3D
330
1A
100
AcDbEntity
  8
ZUWAKU
100
AcDbCircle
 10
33.16721216833719
 20
17.12499986828869
 30
0.0
 40
0.5249999999999999
100
AcDbArc
 50
180.0
 51
270.0
  0
LINE
  5
3F3E
330
1A
100
AcDbEntity
  8
ZUWAKU
100
AcDbLine
 10
30.36721216833712
 20
7.149999868288688
 30
0.0
 11
32.11721216833712
 21
7.149999868288688
 31
0.0
  0
ARC
  5
3F3F
330
1A
100
AcDbEntity
  8
ZUWAKU
100
AcDbCircle
 10
32.11721216833712
 20
7.674999868288687
 30
0.0
 40
0.5249999999999999
100
AcDbArc
 50
270.0
 51
0.0
  0
LINE
  5
3F40
330
1A
100
AcDbEntity
  8
ZUWAKU
100
AcDbLine
 10
32.64221216833721
 20
7.674999868288687
 30
0.0
 11
32.64221216833721
 21
13.27499986828869
 31
0.0
  0
LINE
  5
3F41
330
1A
100
AcDbEntity
  8
ZUWAKU
100
AcDbLine
 10
27.39221216833721
 20
9.424999868288687
 30
0.0
 11
27.39221216833721
 21
7.674999868288687
 31
0.0
  0
ARC
  5
3F42
330
1A
100
AcDbEntity
  8
ZUWAKU
100
AcDbCircle
 10
26.86721216833712
 20
7.674999868288687
 30
0.0
 40
0.5249999999999999
100
AcDbArc
 50
270.0
 51
0.0
  0
ARC
  5
3F43
330
1A
100
AcDbEntity
  8
ZUWAKU
100
AcDbCircle
 10
26.86721216833712
 20
9.424999868288687
 30
0.0
 40
0.5249999999999999
100
AcDbArc
 50
0.0
 51
90.0
  0
ARC
  5
3F44
330
1A
100
AcDbEntity
  8
ZUWAKU
100
AcDbCircle
 10
30.36721216833712
 20
7.674999868288687
 30
0.0
 40
0.5249999999999999
100
AcDbArc
 50
180.0
 51
270.0
  0
ARC
  5
3F45
330
1A
100
AcDbEntity
  8
ZUWAKU
100
AcDbCircle
 10
33.30744633182587
 20
13.27499986828869
 30
0.0
 40
0.5249999999999999
100
AcDbArc
 50
17.52556837372303
 51
90.0
  0
ARC
  5
3F46
330
1A
100
AcDbEntity
  8
ZUWAKU
100
AcDbCircle
 10
33.16721216833719
 20
13.27499986828869
 30
0.0
 40
0.5249999999999999
100
AcDbArc
 50
90.0
 51
180.0
  0
ARC
  5
3F47
330
1A
100
AcDbEntity
  8
ZUWAKU
100
AcDbCircle
 10
41.21721216833714
 20
7.674999868288687
 30
0.0
 40
0.5249999999999999
100
AcDbArc
 50
180.0
 51
270.0
  0
LINE
  5
3F48
330
1A
100
AcDbEntity
  8
ZUWAKU
100
AcDbLine
 10
36.17697800484848
 20
7.149999868288688
 30
0.0
 11
37.87586738445748
 21
7.149999868288688
 31
0.0
  0
ARC
  5
3F49
330
1A
100
AcDbEntity
  8
ZUWAKU
100
AcDbCircle
 10
37.87586738445748
 20
7.674999868288687
 30
0.0
 40
0.5249999999999999
100
AcDbArc
 50
270.0
 51
17.52556837372303
  0
LINE
  5
3F4A
330
1A
100
AcDbEntity
  8
ZUWAKU
100
AcDbLine
 10
38.37649828365295
 20
7.83309383645566
 30
0.0
 11
36.05010690517929
 21
15.19999986828871
 31
0.0
  0
ARC
  5
3F4B
330
1A
100
AcDbEntity
  8
ZUWAKU
100
AcDbCircle
 10
36.17697800484848
 20
7.674999868288687
 30
0.0
 40
0.5249999999999999
100
AcDbArc
 50
197.525568373723
 51
270.0
  0
ARC
  5
3F4C
330
1A
100
AcDbEntity
  8
ZUWAKU
100
AcDbCircle
 10
57.84221216833714
 20
9.949999868288685
 30
0.0
 40
2.8
100
AcDbArc
 50
180.0
 51
270.0
  0
ARC
  5
3F4D
330
1A
100
AcDbEntity
  8
ZUWAKU
100
AcDbCircle
 10
50.14221216833721
 20
9.949999868288685
 30
0.0
 40
2.8
100
AcDbArc
 50
270.0
 51
0.0
  0
LINE
  5
3F4E
330
1A
100
AcDbEntity
  8
ZUWAKU
100
AcDbLine
 10
51.71206064932073
 20
14.73505037462751
 30
0.0
 11
48.80226267467594
 21
17.64484834927219
 31
0.0
  0
LINE
  5
3F4F
330
1A
100
AcDbEntity
  8
ZUWAKU
100
AcDbLine
 10
50.14221216833721
 20
10.47499986828869
 30
0.0
 11
50.14221216833721
 21
11.76520189364403
 31
0.0
  0
ARC
  5
3F50
330
1A
100
AcDbEntity
  8
ZUWAKU
100
AcDbCircle
 10
48.74221216833712
 20
11.76520189364403
 30
0.0
 40
1.4
100
AcDbArc
 50
0.0
 51
45.0
  0
ARC
  5
3F51
330
1A
100
AcDbEntity
  8
ZUWAKU
100
AcDbCircle
 10
49.61721216833712
 20
10.47499986828869
 30
0.0
 40
0.5249999999999999
100
AcDbArc
 50
270.0
 51
0.0
  0
LINE
  5
3F52
330
1A
100
AcDbEntity
  8
ZUWAKU
100
AcDbLine
 10
46.11721216833712
 20
7.674999868288687
 30
0.0
 11
46.11721216833712
 21
9.424999868288687
 31
0.0
  0
ARC
  5
3F53
330
1A
100
AcDbEntity
  8
ZUWAKU
100
AcDbCircle
 10
46.64221216833721
 20
7.674999868288687
 30
0.0
 40
0.5249999999999999
100
AcDbArc
 50
180.0
 51
270.0
  0
ARC
  5
3F54
330
1A
100
AcDbEntity
  8
ZUWAKU
100
AcDbCircle
 10
42.96721216833714
 20
7.674999868288687
 30
0.0
 40
0.5249999999999999
100
AcDbArc
 50
270.0
 51
0.0
  0
ARC
  5
3F55
330
1A
100
AcDbEntity
  8
ZUWAKU
100
AcDbCircle
 10
46.64221216833721
 20
9.424999868288687
 30
0.0
 40
0.5249999999999999
100
AcDbArc
 50
90.0
 51
180.0
  0
LINE
  5
3F56
330
1A
100
AcDbEntity
  8
ZUWAKU
100
AcDbLine
 10
46.64221216833721
 20
9.949999868288685
 30
0.0
 11
49.61721216833712
 21
9.949999868288685
 31
0.0
  0
LINE
  5
3F57
330
1A
100
AcDbEntity
  8
ZUWAKU
100
AcDbLine
 10
46.64221216833721
 20
7.149999868288688
 30
0.0
 11
50.14221216833721
 21
7.149999868288688
 31
0.0
  0
LINE
  5
3F58
330
1A
100
AcDbEntity
  8
ZUWAKU
100
AcDbLine
 10
46.82236368735369
 20
15.66494936194987
 30
0.0
 11
49.73216166199836
 21
12.7551513873052
 31
0.0
  0
LINE
  5
3F59
330
1A
100
AcDbEntity
  8
ZUWAKU
100
AcDbLine
 10
52.94221216833716
 20
9.949999868288685
 30
0.0
 11
52.94221216833716
 21
11.76520189364403
 31
0.0
  0
ARC
  5
3F5A
330
1A
100
AcDbEntity
  8
ZUWAKU
100
AcDbCircle
 10
48.74221216833712
 20
11.76520189364399
 30
0.0
 40
4.199999999999999
100
AcDbArc
 50
0.0
 51
45.0
  0
ARC
  5
3F5B
330
1A
100
AcDbEntity
  8
ZUWAKU
100
AcDbCircle
 10
58.89221216833721
 20
10.99999986828868
 30
0.0
 40
1.05
100
AcDbArc
 50
180.0
 51
270.0
  0
ARC
  5
3F5C
330
1A
100
AcDbEntity
  8
ZUWAKU
100
AcDbCircle
 10
61.34221216833714
 20
9.949999868288685
 30
0.0
 40
2.8
100
AcDbArc
 50
270.0
 51
0.0
  0
LINE
  5
3F5D
330
1A
100
AcDbEntity
  8
ZUWAKU
100
AcDbLine
 10
66.76721216833721
 20
7.149999868288688
 30
0.0
 11
68.51721216833721
 21
7.149999868288688
 31
0.0
  0
ARC
  5
3F5E
330
1A
100
AcDbEntity
  8
ZUWAKU
100
AcDbCircle
 10
66.76721216833721
 20
7.674999868288687
 30
0.0
 40
0.5249999999999999
100
AcDbArc
 50
180.0
 51
270.0
  0
ARC
  5
3F5F
330
1A
100
AcDbEntity
  8
ZUWAKU
100
AcDbCircle
 10
60.29221216833719
 20
10.99999986828868
 30
0.0
 40
1.05
100
AcDbArc
 50
270.0
 51
0.0
  0
ARC
  5
3F60
330
1A
100
AcDbEntity
  8
ZUWAKU
100
AcDbCircle
 10
68.51721216833721
 20
7.674999868288687
 30
0.0
 40
0.5249999999999999
100
AcDbArc
 50
270.0
 51
0.0
  0
LINE
  5
3F61
330
1A
100
AcDbEntity
  8
ZUWAKU
100
AcDbLine
 10
42.96721216833714
 20
23.24999986828869
 30
0.0
 11
41.21721216833714
 21
23.24999986828869
 31
0.0
  0
ARC
  5
3F62
330
1A
100
AcDbEntity
  8
ZUWAKU
100
AcDbCircle
 10
32.11721216833712
 20
22.72499986828868
 30
0.0
 40
0.5249999999999999
100
AcDbArc
 50
0.0
 51
90.0
  0
LINE
  5
3F63
330
1A
100
AcDbEntity
  8
ZUWAKU
100
AcDbLine
 10
32.11721216833712
 20
23.24999986828869
 30
0.0
 11
30.36721216833712
 21
23.24999986828869
 31
0.0
  0
ARC
  5
3F64
330
1A
100
AcDbEntity
  8
ZUWAKU
100
AcDbCircle
 10
26.86721216833712
 20
22.72499986828868
 30
0.0
 40
0.5249999999999999
100
AcDbArc
 50
0.0
 51
90.0
  0
ARC
  5
3F65
330
1A
100
AcDbEntity
  8
ZUWAKU
100
AcDbCircle
 10
30.36721216833712
 20
22.72499986828868
 30
0.0
 40
0.5249999999999999
100
AcDbArc
 50
90.0
 51
180.0
  0
ARC
  5
3F66
330
1A
100
AcDbEntity
  8
ZUWAKU
100
AcDbCircle
 10
26.86721216833712
 20
20.97499986828868
 30
0.0
 40
0.5249999999999999
100
AcDbArc
 50
270.0
 51
0.0
  0
LINE
  5
3F67
330
1A
100
AcDbEntity
  8
ZUWAKU
100
AcDbLine
 10
27.39221216833721
 20
22.72499986828868
 30
0.0
 11
27.39221216833721
 21
20.97499986828868
 31
0.0
  0
ARC
  5
3F68
330
1A
100
AcDbEntity
  8
ZUWAKU
100
AcDbCircle
 10
41.21721216833714
 20
22.72499986828868
 30
0.0
 40
0.5249999999999999
100
AcDbArc
 50
90.0
 51
180.0
  0
LINE
  5
3F69
330
1A
100
AcDbEntity
  8
ZUWAKU
100
AcDbLine
 10
36.17697800484848
 20
23.24999986828869
 30
0.0
 11
37.87586738445748
 21
23.24999986828869
 31
0.0
  0
ARC
  5
3F6A
330
1A
100
AcDbEntity
  8
ZUWAKU
100
AcDbCircle
 10
37.87586738445748
 20
22.72499986828868
 30
0.0
 40
0.5249999999999999
100
AcDbArc
 50
342.474431626277
 51
90.0
  0
LINE
  5
3F6B
330
1A
100
AcDbEntity
  8
ZUWAKU
100
AcDbLine
 10
38.37649828365295
 20
22.56690590012172
 30
0.0
 11
37.31485865051513
 21
19.20504706185211
 31
0.0
  0
ARC
  5
3F6C
330
1A
100
AcDbEntity
  8
ZUWAKU
100
AcDbCircle
 10
36.17697800484848
 20
22.72499986828868
 30
0.0
 40
0.5249999999999999
100
AcDbArc
 50
90.0
 51
162.474431626277
  0
LINE
  5
3F6D
330
1A
100
AcDbEntity
  8
ZUWAKU
100
AcDbLine
 10
48.39221216833721
 20
23.24999986828869
 30
0.0
 11
51.89221216833721
 21
23.24999986828869
 31
0.0
  0
LINE
  5
3F6E
330
1A
100
AcDbEntity
  8
ZUWAKU
100
AcDbLine
 10
51.89221216833721
 20
20.44999986828869
 30
0.0
 11
48.91721216833719
 21
20.44999986828869
 31
0.0
  0
ARC
  5
3F6F
330
1A
100
AcDbEntity
  8
ZUWAKU
100
AcDbCircle
 10
48.91721216833719
 20
19.92499986828869
 30
0.0
 40
0.5249999999999999
100
AcDbArc
 50
90.0
 51
180.0
  0
LINE
  5
3F70
330
1A
100
AcDbEntity
  8
ZUWAKU
100
AcDbLine
 10
48.39221216833721
 20
19.92499986828869
 30
0.0
 11
48.39221216833721
 21
18.63479784293335
 31
0.0
  0
ARC
  5
3F71
330
1A
100
AcDbEntity
  8
ZUWAKU
100
AcDbCircle
 10
42.96721216833714
 20
22.72499986828868
 30
0.0
 40
0.5249999999999999
100
AcDbArc
 50
0.0
 51
90.0
  0
LINE
  5
3F72
330
1A
100
AcDbEntity
  8
ZUWAKU
100
AcDbLine
 10
45.59221216833714
 20
20.44999986828869
 30
0.0
 11
45.59221216833714
 21
18.63479784293335
 31
0.0
  0
ARC
  5
3F73
330
1A
100
AcDbEntity
  8
ZUWAKU
100
AcDbCircle
 10
48.39221216833721
 20
20.44999986828869
 30
0.0
 40
2.8
100
AcDbArc
 50
90.0
 51
180.0
  0
ARC
  5
3F74
330
1A
100
AcDbEntity
  8
ZUWAKU
100
AcDbCircle
 10
57.31721216833716
 20
22.72499986828868
 30
0.0
 40
0.5249999999999999
100
AcDbArc
 50
0.0
 51
90.0
  0
ARC
  5
3F75
330
1A
100
AcDbEntity
  8
ZUWAKU
100
AcDbCircle
 10
55.56721216833716
 20
22.72499986828868
 30
0.0
 40
0.5249999999999999
100
AcDbArc
 50
90.0
 51
180.0
  0
LINE
  5
3F76
330
1A
100
AcDbEntity
  8
ZUWAKU
100
AcDbLine
 10
57.31721216833716
 20
23.24999986828869
 30
0.0
 11
55.56721216833716
 21
23.24999986828869
 31
0.0
  0
ARC
  5
3F77
330
1A
100
AcDbEntity
  8
ZUWAKU
100
AcDbCircle
 10
51.89221216833721
 20
22.72499986828868
 30
0.0
 40
0.5249999999999999
100
AcDbArc
 50
0.0
 51
90.0
  0
ARC
  5
3F78
330
1A
100
AcDbEntity
  8
ZUWAKU
100
AcDbCircle
 10
51.89221216833721
 20
20.97499986828868
 30
0.0
 40
0.5249999999999999
100
AcDbArc
 50
270.0
 51
0.0
  0
LINE
  5
3F79
330
1A
100
AcDbEntity
  8
ZUWAKU
100
AcDbLine
 10
52.41721216833719
 20
22.72499986828868
 30
0.0
 11
52.41721216833719
 21
20.97499986828868
 31
0.0
  0
LINE
  5
3F7A
330
1A
100
AcDbEntity
  8
ZUWAKU
100
AcDbLine
 10
68.51721216833721
 20
23.24999986828869
 30
0.0
 11
66.76721216833721
 21
23.24999986828869
 31
0.0
  0
ARC
  5
3F7B
330
1A
100
AcDbEntity
  8
ZUWAKU
100
AcDbCircle
 10
66.76721216833721
 20
22.72499986828868
 30
0.0
 40
0.5249999999999999
100
AcDbArc
 50
90.0
 51
180.0
  0
ARC
  5
3F7C
330
1A
100
AcDbEntity
  8
ZUWAKU
100
AcDbCircle
 10
63.61721216833712
 20
22.72499986828868
 30
0.0
 40
0.5249999999999999
100
AcDbArc
 50
0.0
 51
90.0
  0
LINE
  5
3F7D
330
1A
100
AcDbEntity
  8
ZUWAKU
100
AcDbLine
 10
63.61721216833712
 20
23.24999986828869
 30
0.0
 11
61.86721216833712
 21
23.24999986828869
 31
0.0
  0
ARC
  5
3F7E
330
1A
100
AcDbEntity
  8
ZUWAKU
100
AcDbCircle
 10
61.86721216833712
 20
22.72499986828868
 30
0.0
 40
0.5249999999999999
100
AcDbArc
 50
90.0
 51
180.0
  0
ARC
  5
3F7F
330
1A
100
AcDbEntity
  8
ZUWAKU
100
AcDbCircle
 10
68.51721216833721
 20
22.72499986828868
 30
0.0
 40
0.5249999999999999
100
AcDbArc
 50
0.0
 51
90.0
  0
TEXT
  5
3F80
330
1A
100
AcDbEntity
  8
moji
100
AcDbText
 10
239.8272026944071
 20
18.00492092569607
 30
0.0
 40
5.6
  1
ステンレス金具上打Ⅰ型
 41
0.9
  7
ｽﾀｲﾙ1
100
AcDbText
  0
TEXT
  5
3F81
330
1A
100
AcDbEntity
  8
moji
100
AcDbText
 10
239.8272026944071
 20
3.204920925696104
 30
0.0
 40
5.6
  1
Σ９０－Ⅰ－３.５
 41
0.9
  7
ｽﾀｲﾙ1
100
AcDbText
  0
LINE
  5
3F82
330
1A
100
AcDbEntity
  8
ZUWAKU
100
AcDbLine
 10
208.246601303624
 20
29.99999986828868
 30
0.0
 11
208.246601303624
 21
0.7999998682887508
 31
0.0
  0
LINE
  5
3F83
330
1A
100
AcDbEntity
  8
ZUWAKU
100
AcDbLine
 10
208.6466013036238
 20
29.99999986828868
 30
0.0
 11
208.646601303624
 21
0.7999998682887508
 31
0.0
  0
LINE
  5
3F84
330
1A
100
AcDbEntity
  8
ZUWAKU
100
AcDbLine
 10
208.4466013036238
 20
29.99999986828868
 30
0.0
 11
208.446601303624
 21
0.7999998682887508
 31
0.0
  0
TEXT
  5
3F85
330
1A
100
AcDbEntity
  8
ZUWAKU
100
AcDbText
 10
209.7240463258336
 20
9.655356406674301
 30
0.0
 40
4.0
  1
サイズ
 41
0.9
  7
ｽﾀｲﾙ1
100
AcDbText
  0
TEXT
  5
3F86
330
1A
100
AcDbEntity
  8
ZUWAKU
100
AcDbText
 10
209.7240463258333
 20
24.05535640667426
 30
0.0
 40
4.0
  1
品名
 41
0.9
  7
ｽﾀｲﾙ1
100
AcDbText
  0
LINE
  5
3F87
330
1A
100
AcDbEntity
  8
ZUWAKU
100
AcDbLine
 10
648.8172025237602
 20
15.19999986828871
 30
0.0
 11
697.2490105620973
 21
15.19999986828872
 31
0.0
  0
LINE
  5
3F88
330
1A
100
AcDbEntity
  8
ZUWAKU
100
AcDbLine
 10
648.8172025237604
 20
15.39999986828872
 30
0.0
 11
697.2490105620973
 21
15.39999986828872
 31
0.0
  0
LINE
  5
3F89
330
1A
100
AcDbEntity
  8
ZUWAKU
100
AcDbLine
 10
648.8172025237602
 20
15.59999986828872
 30
0.0
 11
697.2490105620973
 21
15.59999986828872
 31
0.0
  0
TEXT
  5
3F8A
330
1A
100
AcDbEntity
  8
ZUWAKU
100
AcDbText
 10
658.2039377008584
 20
18.00492092569607
 30
0.0
 40
5.6
  1
　　．　　．　　
 41
0.9
  7
ｽﾀｲﾙ1
100
AcDbText
  0
LINE
  5
3F8B
330
1A
100
AcDbEntity
  8
ZUWAKU
100
AcDbLine
 10
505.1991795116969
 20
15.19999986828872
 30
0.0
 11
552.5269557796685
 21
15.19999986828872
 31
0.0
  0
LINE
  5
3F8C
330
1A
100
AcDbEntity
  8
ZUWAKU
100
AcDbLine
 10
505.1991795116969
 20
15.39999986828872
 30
0.0
 11
552.5269557796685
 21
15.39999986828872
 31
0.0
  0
LINE
  5
3F8D
330
1A
100
AcDbEntity
  8
ZUWAKU
100
AcDbLine
 10
505.1991795116969
 20
15.59999986828872
 30
0.0
 11
552.5269557796685
 21
15.59999986828872
 31
0.0
  0
TEXT
  5
3F8E
330
1A
100
AcDbEntity
  8
moji
100
AcDbText
 10
463.2464320045581
 20
11.94261758994867
 30
0.0
 40
5.6
  1
ＬＧ３８□
 41
0.9
  7
ｽﾀｲﾙ1
100
AcDbText
  0
LINE
  5
3F8F
330
1A
100
AcDbEntity
  8
ZUWAKU
100
AcDbLine
 10
447.6243639845472
 20
29.99999986828868
 30
0.0
 11
447.6243639845475
 21
0.7999998682887508
 31
0.0
  0
LINE
  5
3F90
330
1A
100
AcDbEntity
  8
ZUWAKU
100
AcDbLine
 10
447.8243639845473
 20
29.99999986828868
 30
0.0
 11
447.8243639845475
 21
0.7999998682887508
 31
0.0
  0
LINE
  5
3F91
330
1A
100
AcDbEntity
  8
ZUWAKU
100
AcDbLine
 10
447.4243639845474
 20
29.99999986828868
 30
0.0
 11
447.4243639845474
 21
0.7999998682887508
 31
0.0
  0
TEXT
  5
3F92
330
1A
100
AcDbEntity
  8
moji
100
AcDbText
 10
528.0409079858689
 20
18.00492092569607
 30
0.0
 40
5.6
  1
Ａ３
 41
0.9
  7
ｽﾀｲﾙ1
100
AcDbText
  0
LINE
  5
3F93
330
1A
100
AcDbEntity
  8
ZUWAKU
100
AcDbLine
 10
504.9991795116969
 20
29.99999986828868
 30
0.0
 11
504.9991795116971
 21
0.7999998682887508
 31
0.0
  0
LINE
  5
3F94
330
1A
100
AcDbEntity
  8
ZUWAKU
100
AcDbLine
 10
505.1991795116969
 20
29.99999986828868
 30
0.0
 11
505.1991795116971
 21
0.7999998682887508
 31
0.0
  0
LINE
  5
3F95
330
1A
100
AcDbEntity
  8
ZUWAKU
100
AcDbLine
 10
504.7991795116971
 20
29.99999986828868
 30
0.0
 11
504.7991795116971
 21
0.7999998682887508
 31
0.0
  0
TEXT
  5
3F97
330
1A
100
AcDbEntity
  8
ZUWAKU
100
AcDbText
 10
506.6766245339068
 20
9.655356406674301
 30
0.0
 40
4.0
  1
縮尺
 41
0.9
  7
ｽﾀｲﾙ1
100
AcDbText
  0
TEXT
  5
3F98
330
1A
100
AcDbEntity
  8
moji
100
AcDbText
 10
528.0409079858689
 20
3.204920925696104
 30
0.0
 40
5.6
  1
１/２
 41
0.9
  7
ｽﾀｲﾙ1
100
AcDbText
  0
TEXT
  5
3F99
330
1A
100
AcDbEntity
  8
ZUWAKU
100
AcDbText
 10
449.3018090067569
 20
24.05535640667426
 30
0.0
 40
4.0
  1
品番
 41
0.9
  7
ｽﾀｲﾙ1
100
AcDbText
  0
TEXT
  5
3F9A
330
1A
100
AcDbEntity
  8
ZUWAKU
100
AcDbText
 10
506.6766245339065
 20
24.05535640667426
 30
0.0
 40
4.0
  1
用紙
 41
0.9
  7
ｽﾀｲﾙ1
100
AcDbText
  0
LINE
  5
3F9B
330
1A
100
AcDbEntity
  8
ZUWAKU
100
AcDbLine
 10
648.6172025237604
 20
29.99999986828868
 30
0.0
 11
648.6172025237606
 21
0.7999998682887508
 31
0.0
  0
LINE
  5
3F9C
330
1A
100
AcDbEntity
  8
ZUWAKU
100
AcDbLine
 10
648.8172025237604
 20
29.99999986828868
 30
0.0
 11
648.8172025237607
 21
0.7999998682887508
 31
0.0
  0
LINE
  5
3F9D
330
1A
100
AcDbEntity
  8
ZUWAKU
100
AcDbLine
 10
648.4172025237606
 20
29.99999986828868
 30
0.0
 11
648.4172025237606
 21
0.7999998682887508
 31
0.0
  0
LINE
  5
3F9E
330
1A
100
AcDbEntity
  8
ZUWAKU
100
AcDbLine
 10
552.7269557796683
 20
29.99999986828868
 30
0.0
 11
552.7269557796685
 21
0.7999998682887508
 31
0.0
  0
LINE
  5
3F9F
330
1A
100
AcDbEntity
  8
ZUWAKU
100
AcDbLine
 10
552.9269557796683
 20
29.99999986828868
 30
0.0
 11
552.9269557796686
 21
0.7999998682887508
 31
0.0
  0
LINE
  5
3FA0
330
1A
100
AcDbEntity
  8
ZUWAKU
100
AcDbLine
 10
552.5269557796685
 20
29.99999986828868
 30
0.0
 11
552.5269557796685
 21
0.7999998682887508
 31
0.0
  0
TEXT
  5
3FA1
330
1A
100
AcDbEntity
  8
ZUWAKU
100
AcDbText
 10
650.2946475459701
 20
24.05535640667426
 30
0.0
 40
4.0
  1
DATE
 41
0.9
  7
ｽﾀｲﾙ1
100
AcDbText
  0
LINE
  5
3FA2
330
1A
100
AcDbEntity
  8
ZUWAKU
100
AcDbLine
 10
697.2490105620973
 20
29.99999986828868
 30
0.0
 11
697.2490105620973
 21
0.7999998682887508
 31
0.0
  0
LINE
  5
3FA3
330
1A
100
AcDbEntity
  8
ZUWAKU
100
AcDbLine
 10
697.4490105620973
 20
29.99999986828868
 30
0.0
 11
697.4490105620973
 21
0.7999998682887508
 31
0.0
  0
LINE
  5
3FA4
330
1A
100
AcDbEntity
  8
ZUWAKU
100
AcDbLine
 10
697.6490105620972
 20
29.99999986828868
 30
0.0
 11
697.6490105620974
 21
0.7999998682887508
 31
0.0
  0
LINE
  5
3FA5
330
1A
100
AcDbEntity
  8
ZUWAKU
100
AcDbLine
 10
697.8490105620972
 20
29.99999986828868
 30
0.0
 11
697.8490105620974
 21
0.7999998682887508
 31
0.0
  0
TEXT
  5
3FA6
330
1A
100
AcDbEntity
  8
ZUWAKU
100
AcDbText
 10
708.5280842057998
 20
17.55383920397549
 30
0.0
 40
6.0
  1
積水化学工業株式会社
 41
0.9
  7
ｽﾀｲﾙ1
100
AcDbText
  0
TEXT
  5
3FA7
330
1A
100
AcDbEntity
  8
ZUWAKU
100
AcDbText
 10
708.5280842057998
 20
6.648840182142749
 30
0.0
 40
6.0
  1
建材事業部
 41
0.9
  7
ｽﾀｲﾙ1
100
AcDbText
  0
TEXT
  5
6DB4
330
1A
100
AcDbEntity
  8
ZUWAKU
100
AcDbText
 10
462.1716760137121
 20
2.614070779428175
 30
0.0
 40
3.0
  1
□には色品番が入ります
 41
0.9
  7
ｽﾀｲﾙ1
100
AcDbText
  0
LINE
  5
90FB
330
1A
100
AcDbEntity
  8
SEIHIN
  6
Continuous
 62
     3
 48
5.0
100
AcDbLine
 10
417.2787565217412
 20
484.1752891542213
 30
0.0
 11
344.2584565217413
 21
484.1752891542213
 31
0.0
  0
LINE
  5
90FC
330
1A
100
AcDbEntity
  8
SEIHIN
  6
Continuous
 62
     3
 48
5.0
100
AcDbLine
 10
417.2787565217412
 20
476.1752891542213
 30
0.0
 11
344.1339565217413
 21
476.1752891542213
 31
0.0
  0
LINE
  5
90FD
330
1A
100
AcDbEntity
  8
SEIHIN
  6
Continuous
 62
     3
 48
5.0
100
AcDbLine
 10
417.6593565217412
 20
94.8180563764883
 30
0.0
 11
386.4042565217413
 21
94.8180563764883
 31
0.0
  0
LINE
  5
90FE
330
1A
100
AcDbEntity
  8
SEIHIN
  6
Continuous
 62
     3
 48
5.0
100
AcDbLine
 10
332.5684565217411
 20
94.8180563764883
 30
0.0
 11
421.6593565217412
 21
94.8180563764883
 31
0.0
  0
LINE
  5
90FF
330
1A
100
AcDbEntity
  8
SEIHIN
  6
Continuous
 62
     3
 48
5.0
100
AcDbLine
 10
421.6593565217412
 20
92.8180563764883
 30
0.0
 11
332.5684565217411
 21
92.8180563764883
 31
0.0
  0
LINE
  5
9100
330
1A
100
AcDbEntity
  8
SEIHIN
  6
Continuous
 62
     3
 48
5.0
100
AcDbLine
 10
360.1338565217412
 20
90.31805637648841
 30
0.0
 11
421.6855565217412
 21
90.31805637648841
 31
0.0
  0
DIMENSION
  5
9101
330
1A
100
AcDbEntity
  8
SUNPOU
100
AcDbDimension
  2
*D1
 10
424.0317891279193
 20
60.03641007267697
 30
0.0
 11
377.2134942196484
 21
65.03641007267697
 31
0.0
 70
    32
 71
     5
 42
93.6365898165418
  3
STANDARD
100
AcDbAlignedDimension
 13
330.3951993113775
 23
92.8180563764883
 33
0.0
 14
424.0317891279193
 24
92.8180563764883
 34
0.0
100
AcDbRotatedDimension
1001
ACAD
1000
DSTYLE
1002
{
1070
   140
1040
6.0
1070
    74
1070
     0
1070
   172
1070
     1
1070
    73
1070
     0
1070
   272
1070
     2
1070
    77
1070
     3
1070
   173
1070
     1
1070
   147
1040
2.0
1070
    42
1040
6.0
1070
    44
1040
3.0
1070
    43
1040
14.0
1070
   271
1070
     0
1070
   178
1070
     4
1070
   177
1070
     4
1070
   176
1070
     4
1070
   141
1040
150.0
1070
     7
1000
_OPEN
1070
     6
1000
_OPEN
1070
    41
1040
7.0
1002
}
  0
LINE
  5
9102
330
1A
100
AcDbEntity
  8
SEIHIN
  6
Continuous
 62
     3
 48
5.0
100
AcDbLine
 10
296.7958565217413
 20
489.6752891542215
 30
0.0
 11
589.5220565217413
 21
489.6752891542215
 31
0.0
  0
LINE
  5
9103
330
1A
100
AcDbEntity
  8
SEIHIN
  6
Continuous
 62
     3
 48
5.0
100
AcDbLine
 10
589.5220565217413
 20
470.6752891542215
 30
0.0
 11
296.7958565217413
 21
470.6752891542215
 31
0.0
  0
LINE
  5
9104
330
1A
100
AcDbEntity
  8
CENTER L
  6
CENTER
 62
     1
 48
5.0
100
AcDbLine
 10
598.7180565217415
 20
480.1752891542213
 30
0.0
 11
281.5506565217413
 21
480.1752891542213
 31
0.0
  0
DIMENSION
  5
9105
330
1A
100
AcDbEntity
  8
SUNPOU
 48
5.0
100
AcDbDimension
  2
*D2
 10
296.7958565217413
 20
441.2755264704886
 30
0.0
 11
443.1590065217413
 21
446.2755264704886
 31
0.0
 70
    32
 71
     5
 42
292.7263
  3
STANDARD
100
AcDbAlignedDimension
 13
589.5221565217413
 23
470.6752891542215
 33
0.0
 14
296.7958565217413
 24
470.6752891542215
 34
0.0
100
AcDbRotatedDimension
1001
ACAD
1000
DSTYLE
1002
{
1070
   140
1040
6.0
1070
    74
1070
     0
1070
   172
1070
     1
1070
    73
1070
     0
1070
   272
1070
     2
1070
    77
1070
     3
1070
   173
1070
     1
1070
   147
1040
2.0
1070
    42
1040
6.0
1070
    44
1040
3.0
1070
    43
1040
14.0
1070
   271
1070
     0
1070
   178
1070
     4
1070
   177
1070
     4
1070
   176
1070
     4
1070
   141
1040
150.0
1070
     7
1000
_OPEN
1070
     6
1000
_OPEN
1070
    41
1040
7.0
1002
}
  0
DIMENSION
  5
9106
330
1A
100
AcDbEntity
  8
SUNPOU
100
AcDbDimension
  2
*D3
 10
436.0107065217411
 20
200.6125157546958
 30
0.0
 11
366.4032315217411
 21
205.6125157546958
 31
0.0
 70
    32
 71
     5
 42
139.21495
  3
STANDARD
100
AcDbAlignedDimension
 13
296.7957565217411
 23
174.3743563764884
 33
0.0
 14
436.0107065217411
 24
193.3291063764883
 34
0.0
100
AcDbRotatedDimension
1001
ACAD
1000
DSTYLE
1002
{
1070
   140
1040
6.0
1070
    74
1070
     0
1070
   172
1070
     1
1070
    73
1070
     0
1070
   272
1070
     2
1070
    77
1070
     3
1070
   173
1070
     1
1070
   147
1040
2.0
1070
    42
1040
6.0
1070
    44
1040
3.0
1070
    43
1040
14.0
1070
   271
1070
     0
1070
   178
1070
     4
1070
   177
1070
     4
1070
   176
1070
     4
1070
   141
1040
150.0
1070
     7
1000
_OPEN
1070
     6
1000
_OPEN
1070
    41
1040
7.0
1002
}
  0
ELLIPSE
  5
9107
330
1A
100
AcDbEntity
  8
SEIHIN
100
AcDbEllipse
 10
192.1353638531639
 20
291.4174198753159
 30
0.0
 11
2.099999999986437
 21
-7.557972708127636E-6
 31
0.0
210
0.0
220
0.0
230
1.0
 40
0.3305145363210175
 41
0.0
 42
6.283185307179586
  0
LINE
  5
9108
330
1A
100
AcDbEntity
  8
CENTER L
  6
CENTER
 62
     1
 48
5.0
100
AcDbLine
 10
192.135393957717
 20
316.307756376488
 30
0.0
 11
192.1345504116201
 21
81.9265452592781
 31
0.0
  0
LINE
  5
9109
330
1A
100
AcDbEntity
  8
SEIHIN
  6
Continuous
 62
     3
 48
5.0
100
AcDbLine
 10
201.6349939577169
 20
311.2482563764881
 30
0.0
 11
201.6347515851959
 21
92.8176563764884
 31
0.0
  0
LINE
  5
910A
330
1A
100
AcDbEntity
  8
SEIHIN
  6
Continuous
 62
     3
 48
5.0
100
AcDbLine
 10
182.6349939577169
 20
311.2482563764881
 30
0.0
 11
182.6347515851959
 21
92.8176563764884
 31
0.0
  0
ELLIPSE
  5
910B
330
1A
100
AcDbEntity
  8
SEIHIN
100
AcDbEllipse
 10
192.1353043764047
 20
274.8916663741495
 30
0.0
 11
2.099999999986437
 21
-7.557972708127636E-6
 31
0.0
210
0.0
220
0.0
230
1.0
 40
0.3305145363210175
 41
0.0
 42
6.283185307179586
  0
LINE
  5
910C
330
1A
100
AcDbEntity
  8
SEIHIN
  6
Continuous
 62
     3
 48
5.0
100
AcDbLine
 10
332.0733565217412
 20
95.24845637648841
 30
0.0
 11
330.4167565217413
 21
107.0356563764883
 31
0.0
  0
ARC
  5
910D
330
1A
100
AcDbEntity
  8
SEIHIN
  6
Continuous
 62
     3
 48
5.0
100
AcDbCircle
 10
337.6827768819233
 20
124.1548266694448
 30
0.0
 40
19.49999236732634
100
AcDbArc
 50
187.9999877947375
 51
240.8506095322657
  0
LINE
  5
910E
330
1A
100
AcDbEntity
  8
SEIHIN
  6
Continuous
 62
     3
 48
5.0
100
AcDbLine
 10
330.0927565217413
 20
94.9701563764884
 30
0.0
 11
328.4362565217413
 21
106.7573563764883
 31
0.0
  0
DIMENSION
  5
910F
330
1A
100
AcDbEntity
  8
SUNPOU
 48
5.0
100
AcDbDimension
  2
*D4
 10
261.0273023898943
 20
94.94068311366401
 30
0.0
 11
256.0273023898943
 21
134.6157579575273
 31
0.0
 70
    32
 71
     5
 42
79.35014968772644
  3
STANDARD
100
AcDbAlignedDimension
 13
296.2015924835874
 23
174.2908328013905
 33
0.0
 14
332.2403970461361
 24
94.94068311366399
 34
0.0
 50
90.0
100
AcDbRotatedDimension
1001
ACAD
1000
DSTYLE
1002
{
1070
   140
1040
6.0
1070
    74
1070
     0
1070
   172
1070
     1
1070
    73
1070
     0
1070
   272
1070
     2
1070
    77
1070
     3
1070
   173
1070
     1
1070
   147
1040
2.0
1070
    42
1040
6.0
1070
    44
1040
3.0
1070
    43
1040
14.0
1070
   271
1070
     0
1070
   178
1070
     4
1070
   177
1070
     4
1070
   176
1070
     4
1070
   141
1040
150.0
1070
     7
1000
_OPEN
1070
     6
1000
_OPEN
1070
    41
1040
7.0
1002
}
  0
LINE
  5
9110
330
1A
100
AcDbEntity
  8
CENTER L
  6
CENTER
 62
     1
 48
5.0
100
AcDbLine
 10
377.1338565217412
 20
85.36685637648839
 30
0.0
 11
377.1338565217412
 21
106.9171563764884
 31
0.0
  0
LINE
  5
9111
330
1A
100
AcDbEntity
  8
SEIHIN
  6
Continuous
 62
     3
 48
5.0
100
AcDbLine
 10
201.6347565217413
 20
92.8176563764884
 30
0.0
 11
182.6347565217411
 21
92.8176563764884
 31
0.0
  0
ARC
  5
9112
330
1A
100
AcDbEntity
  8
SEIHIN
  6
Continuous
 62
     3
 48
5.0
100
AcDbCircle
 10
192.134548201948
 20
96.76815637639757
 30
0.0
 40
6.450107581156053
100
AcDbArc
 50
219.8141484625988
 51
320.1846950865442
  0
ARC
  5
9113
330
1A
100
AcDbEntity
  8
SEIHIN
  6
Continuous
 62
     3
 48
5.0
100
AcDbCircle
 10
186.7960214915872
 20
92.31792595333954
 30
0.0
 40
0.5000304273696933
100
AcDbArc
 50
39.82328474754805
 51
90.00744454292506
  0
ARC
  5
9114
330
1A
100
AcDbEntity
  8
SEIHIN
  6
Continuous
 62
     3
 48
5.0
100
AcDbCircle
 10
197.4730915518953
 20
92.31792595333957
 30
0.0
 40
0.5000304273696811
100
AcDbArc
 50
89.9925554570782
 51
140.1767152524523
  0
LINE
  5
9115
330
1A
100
AcDbEntity
  8
SEIHIN
  6
Continuous
 62
     3
 48
5.0
100
AcDbLine
 10
345.7257565217412
 20
90.8527563764884
 30
0.0
 11
360.1338565217412
 21
90.31805637648841
 31
0.0
  0
ARC
  5
9116
330
1A
100
AcDbEntity
  8
SEIHIN
  6
Continuous
 62
     3
 48
5.0
100
AcDbCircle
 10
332.568442153924
 20
95.31806886642585
 30
0.0
 40
2.50001248997884
100
AcDbArc
 50
187.9994908279751
 51
270.0003292844689
  0
ARC
  5
9117
330
1A
100
AcDbEntity
  8
SEIHIN
  6
Continuous
 62
     3
 48
5.0
100
AcDbCircle
 10
346.0965705382066
 20
100.8458514503567
 30
0.0
 40
9.999972609471369
100
AcDbArc
 50
233.3965628292679
 51
267.8748991622293
  0
ARC
  5
9118
330
1A
100
AcDbEntity
  8
SEIHIN
  6
Continuous
 62
     3
 48
5.0
100
AcDbCircle
 10
332.5684178716369
 20
95.31808997423065
 30
0.0
 40
0.5000335992360697
100
AcDbArc
 50
188.0049027929958
 51
270.0044286781032
  0
DIMENSION
  5
9119
330
1A
100
AcDbEntity
  8
SUNPOU
 48
5.0
100
AcDbDimension
  2
*D5
 10
261.0273023898943
 20
174.3743563764884
 30
0.0
 11
256.0273023898942
 21
191.6623063764884
 31
0.0
 70
    32
 71
     5
 42
34.57589999999999
  3
STANDARD
100
AcDbAlignedDimension
 13
291.3301565217411
 23
208.9502563764884
 33
0.0
 14
296.7957565217411
 24
174.3743563764884
 34
0.0
 50
90.0
100
AcDbRotatedDimension
1001
ACAD
1000
DSTYLE
1002
{
1070
   140
1040
6.0
1070
    74
1070
     0
1070
   172
1070
     1
1070
    73
1070
     0
1070
   272
1070
     2
1070
    77
1070
     3
1070
   173
1070
     1
1070
   147
1040
2.0
1070
    42
1040
6.0
1070
    44
1040
3.0
1070
    43
1040
14.0
1070
   271
1070
     0
1070
   178
1070
     4
1070
   177
1070
     4
1070
   176
1070
     4
1070
   141
1040
150.0
1070
     7
1000
_OPEN
1070
     6
1000
_OPEN
1070
    41
1040
7.0
1002
}
  0
LINE
  5
911A
330
1A
100
AcDbEntity
  8
SEIHIN
  6
Continuous
 62
     3
 48
5.0
100
AcDbLine
 10
185.1349565217413
 20
207.0350563764884
 30
0.0
 11
185.1348565217412
 21
174.3741563764884
 31
0.0
  0
LINE
  5
911B
330
1A
100
AcDbEntity
  8
SEIHIN
  6
Continuous
 62
     3
 48
5.0
100
AcDbLine
 10
199.1349565217413
 20
207.1516563764884
 30
0.0
 11
199.1347565217411
 21
174.3740563764884
 31
0.0
  0
LINE
  5
911C
330
1A
100
AcDbEntity
  8
SEIHIN
  6
Continuous
 62
     3
 48
5.0
100
AcDbLine
 10
201.6347565217413
 20
107.0048563764883
 30
0.0
 11
182.6347565217411
 21
107.0049563764884
 31
0.0
  0
ARC
  5
911D
330
1A
100
AcDbEntity
  8
SEIHIN
  6
Continuous
 62
     3
 48
5.0
100
AcDbCircle
 10
185.6347861556152
 20
171.4160914396421
 30
0.0
 40
3.000029634078899
100
AcDbArc
 50
99.5945465497953
 51
180.0006696502952
  0
ARC
  5
911E
330
1A
100
AcDbEntity
  8
SEIHIN
  6
Continuous
 62
     3
 48
5.0
100
AcDbCircle
 10
184.6346565217414
 20
161.4788563764884
 30
0.0
 40
2.0
100
AcDbArc
 50
180.0
 51
270.0
  0
LINE
  5
911F
330
1A
100
AcDbEntity
  8
SEIHIN
  6
Continuous
 62
     3
 48
5.0
100
AcDbLine
 10
201.6347565217413
 20
155.8597563764884
 30
0.0
 11
182.6347565217411
 21
155.8598563764884
 31
0.0
  0
ARC
  5
9120
330
1A
100
AcDbEntity
  8
SEIHIN
  6
Continuous
 62
     3
 48
5.0
100
AcDbCircle
 10
198.6347761885368
 20
171.4160331063697
 30
0.0
 40
2.999980333294741
100
AcDbArc
 50
0.0004444294428993
 51
80.40624922217114
  0
LINE
  5
9121
330
1A
100
AcDbEntity
  8
SEIHIN
  6
Continuous
 62
     3
 48
5.0
100
AcDbLine
 10
192.1346565217414
 20
159.4788563764884
 30
0.0
 11
199.6346565217414
 21
159.4788563764884
 31
0.0
  0
LINE
  5
9122
330
1A
100
AcDbEntity
  8
SEIHIN
  6
Continuous
 62
     3
 48
5.0
100
AcDbLine
 10
192.1348565217412
 20
159.4788563764884
 30
0.0
 11
184.6346565217414
 21
159.4788563764884
 31
0.0
  0
ARC
  5
9123
330
1A
100
AcDbEntity
  8
SEIHIN
  6
Continuous
 62
     3
 48
5.0
100
AcDbCircle
 10
192.1349565217413
 20
166.8078563764883
 30
0.0
 40
1.5
100
AcDbArc
 50
0.0
 51
180.0
  0
ARC
  5
9124
330
1A
100
AcDbEntity
  8
SEIHIN
  6
Continuous
 62
     3
 48
5.0
100
AcDbCircle
 10
192.1349565217413
 20
166.8078563764883
 30
0.0
 40
1.5
100
AcDbArc
 50
180.0
 51
0.0
  0
ARC
  5
9125
330
1A
100
AcDbEntity
  8
SEIHIN
  6
Continuous
 62
     3
 48
5.0
100
AcDbCircle
 10
192.1349565217413
 20
166.8078563764883
 30
0.0
 40
1.600000000000009
100
AcDbArc
 50
0.0
 51
180.0
  0
ARC
  5
9126
330
1A
100
AcDbEntity
  8
SEIHIN
  6
Continuous
 62
     3
 48
5.0
100
AcDbCircle
 10
192.1349565217413
 20
166.8078563764883
 30
0.0
 40
1.600000000000009
100
AcDbArc
 50
180.0
 51
0.0
  0
LINE
  5
9127
330
1A
100
AcDbEntity
  8
CENTER L
  6
CENTER
 62
     1
 48
5.0
100
AcDbLine
 10
189.5570565217413
 20
166.8078563764883
 30
0.0
 11
194.9903565217412
 21
166.8078563764883
 31
0.0
  0
ARC
  5
9128
330
1A
100
AcDbEntity
  8
SEIHIN
  6
Continuous
 62
     3
 48
5.0
100
AcDbCircle
 10
199.6346565217414
 20
161.4788563764884
 30
0.0
 40
2.0
100
AcDbArc
 50
270.0
 51
0.0
  0
LINE
  5
9129
330
1A
100
AcDbEntity
  8
SEIHIN
  6
Continuous
 62
     3
 48
5.0
100
AcDbLine
 10
187.1352939577171
 20
209.0336563764884
 30
0.0
 11
187.1352939577171
 21
271.0146563764881
 31
0.0
  0
LINE
  5
912A
330
1A
100
AcDbEntity
  8
SEIHIN
  6
Continuous
 62
     3
 48
5.0
100
AcDbLine
 10
197.1352939577171
 20
209.0335563623944
 30
0.0
 11
197.1352939577171
 21
271.0144563764881
 31
0.0
  0
ARC
  5
912B
330
1A
100
AcDbEntity
  8
SEIHIN
  6
Continuous
 62
     3
 48
5.0
100
AcDbCircle
 10
197.1350565217413
 20
206.9500563764883
 30
0.0
 40
2.000000000000043
100
AcDbArc
 50
0.0000000000012213
 51
90.00000000000162
  0
ARC
  5
912C
330
1A
100
AcDbEntity
  8
SEIHIN
  6
Continuous
 62
     3
 48
5.0
100
AcDbCircle
 10
197.1350565217413
 20
207.0335563764884
 30
0.0
 40
2.000000000000043
100
AcDbArc
 50
0.0000000000012213
 51
90.00000000000162
  0
LINE
  5
912D
330
1A
100
AcDbEntity
  8
SEIHIN
  6
Continuous
 62
     3
 48
5.0
100
AcDbLine
 10
187.1350565217413
 20
208.9501563764884
 30
0.0
 11
192.1350565217413
 21
208.9501563764884
 31
0.0
  0
LINE
  5
912E
330
1A
100
AcDbEntity
  8
SEIHIN
  6
Continuous
 62
     3
 48
5.0
100
AcDbLine
 10
187.1350565217413
 20
209.0336563764884
 30
0.0
 11
192.1350565217413
 21
209.0336563764884
 31
0.0
  0
ARC
  5
912F
330
1A
100
AcDbEntity
  8
SEIHIN
  6
Continuous
 62
     3
 48
5.0
100
AcDbCircle
 10
187.1350565217413
 20
206.9501563764884
 30
0.0
 40
2.0
100
AcDbArc
 50
90.0
 51
180.0
  0
ARC
  5
9130
330
1A
100
AcDbEntity
  8
SEIHIN
  6
Continuous
 62
     3
 48
5.0
100
AcDbCircle
 10
187.1350565217413
 20
207.0336563764884
 30
0.0
 40
2.0
100
AcDbArc
 50
90.0
 51
180.0
  0
LINE
  5
9131
330
1A
100
AcDbEntity
  8
SEIHIN
  6
Continuous
 62
     3
 48
5.0
100
AcDbLine
 10
197.1350565217413
 20
208.9500563764883
 30
0.0
 11
192.1350565217413
 21
208.9501563764884
 31
0.0
  0
LINE
  5
9132
330
1A
100
AcDbEntity
  8
SEIHIN
  6
Continuous
 62
     3
 48
5.0
100
AcDbLine
 10
197.1350565217413
 20
209.0335563764884
 30
0.0
 11
192.1350565217413
 21
209.0336563764884
 31
0.0
  0
LINE
  5
9133
330
1A
100
AcDbEntity
  8
SEIHIN
  6
Continuous
 62
     3
 48
5.0
100
AcDbLine
 10
187.1352939577171
 20
257.7792563764881
 30
0.0
 11
182.6349939577169
 21
257.7792563764881
 31
0.0
  0
LINE
  5
9134
330
1A
100
AcDbEntity
  8
SEIHIN
  6
Continuous
 62
     3
 48
5.0
100
AcDbLine
 10
201.6348939577171
 20
257.7792563764881
 30
0.0
 11
197.1352939577171
 21
257.7792563764881
 31
0.0
  0
LINE
  5
9135
330
1A
100
AcDbEntity
  8
SEIHIN
  6
Continuous
 62
     3
 48
5.0
100
AcDbLine
 10
197.1352939577171
 20
259.552556376488
 30
0.0
 11
187.1352939577171
 21
259.552556376488
 31
0.0
  0
ARC
  5
9136
330
1A
100
AcDbEntity
  8
SEIHIN
  6
Continuous
 62
     3
 48
5.0
100
AcDbCircle
 10
192.135093957717
 20
263.4314563764881
 30
0.0
 40
9.083110095666523
100
AcDbArc
 50
56.59982748370584
 51
123.4001725162942
  0
LINE
  5
9137
330
1A
100
AcDbEntity
  8
SEIHIN
  6
Continuous
 62
     3
 48
5.0
100
AcDbLine
 10
291.9247565217411
 20
209.0338563764883
 30
0.0
 11
299.1011565217412
 21
157.9701563764884
 31
0.0
  0
LINE
  5
9138
330
1A
100
AcDbEntity
  8
SEIHIN
  6
Continuous
 62
     3
 48
5.0
100
AcDbLine
 10
298.2891565217413
 20
159.4369563764884
 30
0.0
 11
291.3305565217412
 21
208.9502563764884
 31
0.0
  0
ARC
  5
9139
330
1A
100
AcDbEntity
  8
SEIHIN
  6
Continuous
 62
     3
 48
5.0
100
AcDbCircle
 10
306.5869323627979
 20
147.8180773774811
 30
0.0
 40
7.999978999043848
100
AcDbArc
 50
7.999979128050264
 51
89.99982697386007
  0
ARC
  5
913A
330
1A
100
AcDbEntity
  8
SEIHIN
  6
Continuous
 62
     3
 48
5.0
100
AcDbCircle
 10
306.5869160858247
 20
147.8180915266119
 30
0.0
 40
9.999964849958243
100
AcDbArc
 50
8.000224101028929
 51
89.99976831845046
  0
DIMENSION
  5
913B
330
1A
100
AcDbEntity
  8
SUNPOU
  6
Continuous
100
AcDbDimension
  2
*D6
 10
316.4408065217412
 20
135.1862063764884
 30
0.0
 11
291.4833754123699
 21
136.727839413558
 31
0.0
 70
    33
  1
t<>
 71
     5
 42
1.999971701369589
  3
STANDARD
100
AcDbAlignedDimension
 13
318.4213150114684
 23
135.4645459683497
 33
0.0
 14
316.4408065217412
 24
135.1862063764884
 34
0.0
1001
ACAD
1000
DSTYLE
1002
{
1070
   140
1040
6.0
1070
    74
1070
     0
1070
   172
1070
     1
1070
    73
1070
     0
1070
   272
1070
     2
1070
    77
1070
     3
1070
   173
1070
     1
1070
   147
1040
2.0
1070
    42
1040
6.0
1070
    44
1040
3.0
1070
    43
1040
14.0
1070
   271
1070
     1
1070
   178
1070
     4
1070
   177
1070
     4
1070
   176
1070
     4
1070
   141
1040
150.0
1070
     7
1000
_OPEN
1070
     6
1000
_OPEN
1070
    41
1040
7.0
1002
}
  0
LINE
  5
913C
330
1A
100
AcDbEntity
  8
SEIHIN
  6
Continuous
 62
     3
 48
5.0
100
AcDbLine
 10
318.3725565217412
 20
121.4409563764884
 30
0.0
 11
314.5090565217411
 21
148.9314563764884
 31
0.0
  0
LINE
  5
913D
330
1A
100
AcDbEntity
  8
SEIHIN
  6
Continuous
 62
     3
 48
5.0
100
AcDbLine
 10
320.3530565217412
 20
121.7193563764884
 30
0.0
 11
316.4895565217412
 21
149.2098563764884
 31
0.0
  0
ARC
  5
913E
330
1A
100
AcDbEntity
  8
SEIHIN
  6
Continuous
 62
     3
 48
5.0
100
AcDbCircle
 10
327.9410687227414
 20
106.6877385741773
 30
0.0
 40
2.500015375009117
100
AcDbArc
 50
7.999604482321803
 51
60.851678232277
  0
ARC
  5
913F
330
1A
100
AcDbEntity
  8
SEIHIN
  6
Continuous
 62
     3
 48
5.0
100
AcDbCircle
 10
337.6828175929215
 20
124.1547672689389
 30
0.0
 40
17.49995368728284
100
AcDbArc
 50
187.999629937682
 51
240.8504731492253
  0
ARC
  5
9140
330
1A
100
AcDbEntity
  8
SEIHIN
  6
Continuous
 62
     3
 48
5.0
100
AcDbCircle
 10
327.9410997472798
 20
106.6876933142929
 30
0.0
 40
0.5000331724291796
100
AcDbArc
 50
8.008319058808732
 51
60.86419972686996
  0
LINE
  5
9141
330
1A
100
AcDbEntity
  8
SEIHIN
  6
Continuous
 62
     3
 48
5.0
100
AcDbLine
 10
298.7762565217412
 20
174.6526563764884
 30
0.0
 11
296.7957565217411
 21
174.3743563764884
 31
0.0
  0
LINE
  5
9142
330
1A
100
AcDbEntity
  8
SEIHIN
  6
Continuous
 62
     3
 48
5.0
100
AcDbLine
 10
297.0579565217412
 20
165.3228563764884
 30
0.0
 11
296.6404565217411
 21
168.2936563764884
 31
0.0
  0
LINE
  5
9143
330
1A
100
AcDbEntity
  8
SEIHIN
  6
Continuous
 62
     3
 48
5.0
100
AcDbLine
 10
296.6404565217411
 20
168.2936563764884
 30
0.0
 11
297.0365565217413
 21
168.3492563764884
 31
0.0
  0
LINE
  5
9144
330
1A
100
AcDbEntity
  8
SEIHIN
  6
Continuous
 62
     3
 48
5.0
100
AcDbLine
 10
297.0579565217412
 20
165.3228563764884
 30
0.0
 11
297.4540565217412
 21
165.3784563764884
 31
0.0
  0
LINE
  5
9145
330
1A
100
AcDbEntity
  8
SEIHIN
  6
Continuous
 62
     3
 48
5.0
100
AcDbLine
 10
301.0816565217413
 20
158.2484563764884
 30
0.0
 11
298.7762565217412
 21
174.6526563764884
 31
0.0
  0
LINE
  5
9146
330
1A
100
AcDbEntity
  8
SEIHIN
  6
Continuous
 62
     3
 48
5.0
100
AcDbLine
 10
301.5768565217413
 20
157.8180563764883
 30
0.0
 11
306.5869565217411
 21
157.8180563764883
 31
0.0
  0
LINE
  5
9147
330
1A
100
AcDbEntity
  8
SEIHIN
  6
Continuous
 62
     3
 48
5.0
100
AcDbLine
 10
301.5768565217413
 20
155.8180563764884
 30
0.0
 11
306.5869565217411
 21
155.8180563764884
 31
0.0
  0
ARC
  5
9148
330
1A
100
AcDbEntity
  8
SEIHIN
  6
Continuous
 62
     3
 48
5.0
100
AcDbCircle
 10
301.576825877681
 20
158.3180830200686
 30
0.0
 40
0.5000266445192788
100
AcDbArc
 50
187.9926390646013
 51
270.0035113635373
  0
LINE
  5
9149
330
1A
100
AcDbEntity
  8
SEIHIN
  6
Continuous
 62
     3
 48
5.0
100
AcDbLine
 10
298.8834565217413
 20
159.5204563764884
 30
0.0
 11
298.2891565217413
 21
159.4369563764884
 31
0.0
  0
ARC
  5
914A
330
1A
100
AcDbEntity
  8
SEIHIN
  6
Continuous
 62
     3
 48
5.0
100
AcDbCircle
 10
301.5768421539239
 20
158.3180688664261
 30
0.0
 40
2.50001248997896
100
AcDbArc
 50
187.9994908279798
 51
270.0003292844738
  0
LINE
  5
914B
330
1A
100
AcDbEntity
  8
SEIHIN
  6
Continuous
 62
     3
 48
5.0
100
AcDbLine
 10
291.3301565217411
 20
208.9502563764884
 30
0.0
 11
291.9244565217413
 21
209.0337563764885
 31
0.0
  0
ELLIPSE
  5
914C
330
1A
100
AcDbEntity
  8
SEIHIN
100
AcDbEllipse
 10
192.1353638531639
 20
307.9431374966281
 30
0.0
 11
2.099999999986437
 21
-7.557972708127636E-6
 31
0.0
210
0.0
220
0.0
230
1.0
 40
0.3305145363210175
 41
0.0
 42
6.283185307179586
  0
LINE
  5
914D
330
1A
100
AcDbEntity
  8
CENTER L
  6
CENTER
 62
     1
 48
5.0
100
AcDbLine
 10
377.1339565217413
 20
468.0140891542214
 30
0.0
 11
377.1339565217413
 21
492.1081891542215
 31
0.0
  0
ARC
  5
914E
330
1A
100
AcDbEntity
  8
SEIHIN
  6
Continuous
 62
     3
 48
5.0
100
AcDbCircle
 10
344.2584565217413
 20
480.1752891542213
 30
0.0
 40
4.0
100
AcDbArc
 50
90.0
 51
270.0
  0
LINE
  5
914F
330
1A
100
AcDbEntity
  8
SEIHIN
  6
Continuous
 62
     3
 48
5.0
100
AcDbLine
 10
332.1339565217413
 20
470.6753891542215
 30
0.0
 11
332.1339565217413
 21
489.6752891542215
 31
0.0
  0
LINE
  5
9150
330
1A
100
AcDbEntity
  8
SEIHIN
  6
Continuous
 62
     3
 48
5.0
100
AcDbLine
 10
330.2366565217412
 20
470.6753891542215
 30
0.0
 11
330.2366565217412
 21
489.6752891542215
 31
0.0
  0
LINE
  5
9151
330
1A
100
AcDbEntity
  8
SEIHIN
  6
Continuous
 62
     3
 48
5.0
100
AcDbLine
 10
298.7763565217413
 20
470.6753891542215
 30
0.0
 11
298.7763565217413
 21
489.6752891542215
 31
0.0
  0
LINE
  5
9152
330
1A
100
AcDbEntity
  8
SEIHIN
  6
Continuous
 62
     3
 48
5.0
100
AcDbLine
 10
296.7958565217413
 20
470.6753891542215
 30
0.0
 11
296.7958565217413
 21
489.6752891542215
 31
0.0
  0
LINE
  5
9153
330
1A
100
AcDbEntity
  8
SEIHIN
  6
Continuous
 62
     3
 48
5.0
100
AcDbLine
 10
301.1422565217411
 20
470.6752891542215
 30
0.0
 11
301.1422565217411
 21
489.6752891542215
 31
0.0
  0
LINE
  5
9154
330
1A
100
AcDbEntity
  8
SEIHIN
  6
Continuous
 62
     3
 48
5.0
100
AcDbLine
 10
315.2798565217412
 20
470.6753891542215
 30
0.0
 11
315.2798565217412
 21
489.6752891542215
 31
0.0
  0
ARC
  5
9155
330
1A
100
AcDbEntity
  8
SEIHIN
  6
Continuous
 62
     3
 48
5.0
100
AcDbCircle
 10
364.1339565217413
 20
480.1752891542213
 30
0.0
 40
4.0
100
AcDbArc
 50
90.0
 51
270.0
  0
LINE
  5
9156
330
1A
100
AcDbEntity
  8
SEIHIN
  6
Continuous
 62
     3
 48
5.0
100
AcDbLine
 10
291.9247565217411
 20
473.1752891542215
 30
0.0
 11
291.9247565217411
 21
487.1752891542215
 31
0.0
  0
LINE
  5
9157
330
1A
100
AcDbEntity
  8
SEIHIN
  6
Continuous
 62
     3
 48
5.0
100
AcDbLine
 10
291.3305565217412
 20
473.1752891542215
 30
0.0
 11
291.3305565217412
 21
487.1752891542215
 31
0.0
  0
DIMENSION
  5
9158
330
1A
100
AcDbEntity
  8
SUNPOU
100
AcDbDimension
  2
*D7
 10
201.6349939577169
 20
350.0925929268276
 30
0.0
 11
192.1349939577169
 21
355.0925929268276
 31
0.0
 70
    32
 71
     5
 42
19.0
  3
STANDARD
100
AcDbAlignedDimension
 13
182.6349939577169
 23
311.2482563764881
 33
0.0
 14
201.6349939577169
 24
311.2482563764881
 34
0.0
100
AcDbRotatedDimension
1001
ACAD
1000
DSTYLE
1002
{
1070
    41
1040
7.0
1070
    42
1040
6.0
1070
    43
1040
14.0
1070
    44
1040
3.0
1070
    73
1070
     0
1070
    74
1070
     0
1070
    77
1070
     3
1070
   140
1040
6.0
1070
   141
1040
150.0
1070
   147
1040
2.0
1070
   172
1070
     1
1070
   173
1070
     1
1070
   176
1070
     4
1070
   177
1070
     4
1070
   178
1070
     4
1070
   271
1070
     0
1070
   272
1070
     2
1070
   341
1005
6D
1070
     6
1000
OPEN
1070
     7
1000
OPEN
1002
}
  0
LINE
  5
9159
330
1A
100
AcDbEntity
  8
SEIHIN
  6
Continuous
 62
     3
 48
5.0
100
AcDbLine
 10
201.6349939577169
 20
311.2482563764881
 30
0.0
 11
182.6349939577169
 21
311.2482563764881
 31
0.0
  0
LINE
  5
915A
330
1A
100
AcDbEntity
  8
SEIHIN
  6
Continuous
 62
     3
 48
5.0
100
AcDbLine
 10
291.3305565217412
 20
473.1752891542215
 30
0.0
 11
296.7958565217413
 21
473.1752891542215
 31
0.0
  0
LINE
  5
915B
330
1A
100
AcDbEntity
  8
SEIHIN
  6
Continuous
 62
     3
 48
5.0
100
AcDbLine
 10
296.7958565217413
 20
487.1752891542215
 30
0.0
 11
291.3305565217412
 21
487.1752891542215
 31
0.0
  0
LINE
  5
915C
330
1A
100
AcDbEntity
  8
CENTER L
  6
CENTER
 62
     1
 48
5.0
100
AcDbLine
 10
530.4119565217412
 20
296.1365563764883
 30
0.0
 11
534.5434565217412
 21
284.3390563764883
 31
0.0
  0
LINE
  5
915D
330
1A
100
AcDbEntity
  8
SEIHIN
  6
Continuous
 62
     3
 48
5.0
100
AcDbLine
 10
438.8455565217413
 20
256.1237563764883
 30
0.0
 11
589.5188565217412
 21
308.8887563764881
 31
0.0
  0
LINE
  5
915E
330
1A
100
AcDbEntity
  8
SEIHIN
  6
Continuous
 62
     3
 48
5.0
100
AcDbLine
 10
438.0191565217414
 20
258.4831563764882
 30
0.0
 11
588.692556521741
 21
311.2482563764881
 31
0.0
  0
DIMENSION
  5
915F
330
1A
100
AcDbEntity
  8
SUNPOU
 48
5.0
100
AcDbDimension
  2
*D8
 10
630.7107205565775
 20
244.6582563764882
 30
0.0
 11
625.7107205565775
 21
277.9532563764882
 31
0.0
 70
    32
 71
     5
 42
66.58999999999989
  3
STANDARD
100
AcDbAlignedDimension
 13
588.692556521741
 23
311.2482563764881
 33
0.0
 14
588.692556521741
 24
244.6582563764882
 34
0.0
 50
90.0
100
AcDbRotatedDimension
1001
ACAD
1000
DSTYLE
1002
{
1070
   140
1040
6.0
1070
    74
1070
     0
1070
   172
1070
     1
1070
    73
1070
     0
1070
   272
1070
     2
1070
    77
1070
     3
1070
   173
1070
     1
1070
   147
1040
2.0
1070
    42
1040
6.0
1070
    44
1040
3.0
1070
    43
1040
14.0
1070
   271
1070
     0
1070
   178
1070
     4
1070
   177
1070
     4
1070
   176
1070
     4
1070
   141
1040
150.0
1070
     7
1000
_OPEN
1070
     6
1000
_OPEN
1070
    41
1040
7.0
1002
}
  0
DIMENSION
  5
9160
330
1A
100
AcDbEntity
  8
SUNPOU
 48
5.0
100
AcDbDimension
  2
*D9
 10
564.7897458035967
 20
300.2287807895747
 30
0.0
 11
577.7715677289779
 21
278.2863037302796
 31
0.0
 70
    33
  1
t<>
 71
     5
 42
2.499998546432209
  3
STANDARD
100
AcDbAlignedDimension
 13
579.254623133333
 23
307.9431374966281
 33
0.0
 14
580.0809040484415
 24
305.583634883472
 34
0.0
1001
ACAD
1000
DSTYLE
1002
{
1070
   140
1040
6.0
1070
    74
1070
     0
1070
   172
1070
     1
1070
    73
1070
     0
1070
   272
1070
     2
1070
    77
1070
     3
1070
   173
1070
     1
1070
   147
1040
2.0
1070
    42
1040
6.0
1070
    44
1040
3.0
1070
    43
1040
14.0
1070
   271
1070
     1
1070
   178
1070
     4
1070
   177
1070
     4
1070
   176
1070
     4
1070
   141
1040
150.0
1070
     7
1000
_OPEN
1070
     6
1000
_OPEN
1070
    41
1040
7.0
1002
}
  0
DIMENSION
  5
9161
330
1A
100
AcDbEntity
  8
SUNPOU
100
AcDbDimension
  2
*D10
 10
429.6247498977729
 20
284.0297516955247
 30
0.0
 11
503.0630772161712
 21
315.04522822419
 31
0.0
 70
    33
 71
     5
 42
159.1244507123203
  3
STANDARD
100
AcDbAlignedDimension
 13
588.692556521741
 23
311.2482563764881
 33
0.0
 14
438.5107565217413
 24
258.6553123320849
 34
0.0
1001
ACAD
1000
DSTYLE
1002
{
1070
   140
1040
6.0
1070
    74
1070
     0
1070
   172
1070
     1
1070
    73
1070
     0
1070
   272
1070
     2
1070
    77
1070
     3
1070
   173
1070
     1
1070
   147
1040
2.0
1070
    42
1040
6.0
1070
    44
1040
3.0
1070
    43
1040
14.0
1070
   271
1070
     0
1070
   178
1070
     4
1070
   177
1070
     4
1070
   176
1070
     4
1070
   141
1040
150.0
1070
     7
1000
_OPEN
1070
     6
1000
_OPEN
1070
    41
1040
7.0
1002
}
  0
TEXT
  5
9162
330
1A
100
AcDbEntity
  8
SUNPOU
100
AcDbText
 10
642.3674871858869
 20
258.9591502435958
 30
0.0
 40
6.0
  1
スライド巾
 50
90.0
100
AcDbText
  0
LINE
  5
9163
330
1A
100
AcDbEntity
  8
SEIHIN
  6
PHANTOM
 62
     6
 48
5.0
100
AcDbLine
 10
438.5107565217412
 20
64.41645637648827
 30
0.0
 11
438.5107565217412
 21
189.0618563764884
 31
0.0
  0
LINE
  5
9164
330
1A
100
AcDbEntity
  8
SEIHIN
  6
PHANTOM
 62
     6
 48
5.0
100
AcDbLine
 10
436.0107565217412
 20
64.41645637648827
 30
0.0
 11
436.0106565217412
 21
189.0617563764884
 31
0.0
  0
LINE
  5
9165
330
1A
100
AcDbEntity
  8
SEIHIN
  6
Continuous
 62
     3
 48
5.0
100
AcDbLine
 10
422.1586565217411
 20
95.29185637648831
 30
0.0
 11
423.756056521741
 21
125.7714563764884
 31
0.0
  0
LINE
  5
9166
330
1A
100
AcDbEntity
  8
SEIHIN
  6
Continuous
 62
     3
 48
5.0
100
AcDbLine
 10
424.1559565217414
 20
95.18725637648831
 30
0.0
 11
425.7533565217412
 21
125.6667563764883
 31
0.0
  0
LINE
  5
9167
330
1A
100
AcDbEntity
  8
SEIHIN
  6
Continuous
 62
     3
 48
5.0
100
AcDbLine
 10
428.6497565217411
 20
123.6120563764883
 30
0.0
 11
427.1780565217413
 21
95.53025637648841
 31
0.0
  0
DIMENSION
  5
9168
330
1A
100
AcDbEntity
  8
SUNPOU
 48
5.0
100
AcDbDimension
  2
*D11
 10
477.6846464780891
 20
92.8180563764883
 30
0.0
 11
472.6846464780891
 21
108.8180563764884
 31
0.0
 70
    32
 71
     5
 42
65.68840000000002
  3
STANDARD
100
AcDbAlignedDimension
 13
433.5107565217412
 23
158.5064563764883
 33
0.0
 14
421.6593565217412
 24
92.8180563764883
 34
0.0
 50
90.0
100
AcDbRotatedDimension
1001
ACAD
1000
DSTYLE
1002
{
1070
   140
1040
6.0
1070
    74
1070
     0
1070
   172
1070
     1
1070
    73
1070
     0
1070
   272
1070
     2
1070
    77
1070
     3
1070
   173
1070
     1
1070
   280
1070
     2
1070
   147
1040
2.0
1070
    42
1040
6.0
1070
    44
1040
3.0
1070
    43
1040
14.0
1070
   271
1070
     0
1070
   178
1070
     4
1070
   177
1070
     4
1070
   176
1070
     4
1070
   141
1040
150.0
1070
     7
1000
_OPEN
1070
     6
1000
_OPEN
1070
    41
1040
7.0
1002
}
  0
LINE
  5
9169
330
1A
100
AcDbEntity
  8
SEIHIN
  6
PHANTOM
 62
     6
 48
5.0
100
AcDbLine
 10
436.0107565217412
 20
64.41645637648827
 30
0.0
 11
438.5107565217412
 21
64.41645637648827
 31
0.0
  0
ARC
  5
916A
330
1A
100
AcDbEntity
  8
SEIHIN
  6
Continuous
 62
     3
 48
5.0
100
AcDbCircle
 10
421.6593691879085
 20
95.31806839643051
 30
0.0
 40
2.500012019974291
100
AcDbArc
 50
269.9997097142277
 51
357.0006540590033
  0
ARC
  5
916B
330
1A
100
AcDbEntity
  8
SEIHIN
  6
Continuous
 62
     3
 48
5.0
100
AcDbCircle
 10
421.6855749669788
 20
95.81807388052357
 30
0.0
 40
5.5000175040661
100
AcDbArc
 50
269.9998078489269
 51
357.0003251698729
  0
ARC
  5
916C
330
1A
100
AcDbEntity
  8
SEIHIN
  6
Continuous
 62
     3
 48
5.0
100
AcDbCircle
 10
421.6593496347463
 20
95.3180498414028
 30
0.0
 40
0.4999934649619275
100
AcDbArc
 50
270.0007892018
 51
356.9970361317625
  0
LINE
  5
916D
330
1A
100
AcDbEntity
  8
SEIHIN
  6
PHANTOM
 62
     6
 48
5.0
100
AcDbLine
 10
438.8455565217413
 20
189.5337563764884
 30
0.0
 11
589.5188565217412
 21
242.2987563764882
 31
0.0
  0
LINE
  5
916E
330
1A
100
AcDbEntity
  8
SEIHIN
  6
PHANTOM
 62
     6
 48
5.0
100
AcDbLine
 10
438.0191565217414
 20
191.8931563764883
 30
0.0
 11
588.692556521741
 21
244.6582563764882
 31
0.0
  0
LINE
  5
916F
330
1A
100
AcDbEntity
  8
SEIHIN
  6
PHANTOM
 62
     6
 48
5.0
100
AcDbLine
 10
437.1928565217412
 20
194.2526563764884
 30
0.0
 11
470.5234565217412
 21
205.9248563764883
 31
0.0
  0
LINE
  5
9170
330
1A
100
AcDbEntity
  8
SEIHIN
  6
Continuous
 62
     3
 48
5.0
100
AcDbLine
 10
438.5107565217412
 20
131.0064563764882
 30
0.0
 11
438.5107565217412
 21
255.6518563764882
 31
0.0
  0
LINE
  5
9171
330
1A
100
AcDbEntity
  8
SEIHIN
  6
Continuous
 62
     3
 48
5.0
100
AcDbLine
 10
436.0107565217412
 20
131.0064563764882
 30
0.0
 11
436.0106565217412
 21
255.6517563764883
 31
0.0
  0
DIMENSION
  5
9172
330
1A
100
AcDbEntity
  8
SUNPOU
100
AcDbDimension
  2
*D12
 10
492.4064512853296
 20
131.0064563764882
 30
0.0
 11
487.4064512853295
 21
149.0064563764883
 31
0.0
 70
    32
 71
     5
 42
125.0000547946452
  3
STANDARD
100
AcDbAlignedDimension
 13
438.5107565217412
 23
256.0065111711334
 33
0.0
 14
438.5107565217412
 24
131.0064563764882
 34
0.0
 50
90.0
100
AcDbRotatedDimension
1001
ACAD
1000
DSTYLE
1002
{
1070
   140
1040
6.0
1070
    74
1070
     0
1070
   172
1070
     1
1070
    73
1070
     0
1070
   272
1070
     2
1070
    77
1070
     3
1070
   173
1070
     1
1070
   280
1070
     2
1070
   147
1040
2.0
1070
    42
1040
6.0
1070
    44
1040
3.0
1070
    43
1040
14.0
1070
   271
1070
     0
1070
   178
1070
     4
1070
   177
1070
     4
1070
   176
1070
     4
1070
   141
1040
150.0
1070
     7
1000
_OPEN
1070
     6
1000
_OPEN
1070
    41
1040
7.0
1002
}
  0
LINE
  5
9173
330
1A
100
AcDbEntity
  8
SEIHIN
  6
Continuous
 62
     3
 48
5.0
100
AcDbLine
 10
434.0107565217412
 20
133.2951563764883
 30
0.0
 11
434.0107565217412
 21
156.0064563764883
 31
0.0
  0
LINE
  5
9174
330
1A
100
AcDbEntity
  8
SEIHIN
  6
Continuous
 62
     3
 48
5.0
100
AcDbLine
 10
436.0107565217412
 20
133.0064563764883
 30
0.0
 11
436.0107565217412
 21
156.0064563764883
 31
0.0
  0
LINE
  5
9175
330
1A
100
AcDbEntity
  8
SEIHIN
  6
Continuous
 62
     3
 48
5.0
100
AcDbLine
 10
421.1343565217411
 20
157.2564563764883
 30
0.0
 11
417.278656521741
 21
150.5782563764884
 31
0.0
  0
LINE
  5
9176
330
1A
100
AcDbEntity
  8
SEIHIN
  6
Continuous
 62
     3
 48
5.0
100
AcDbLine
 10
422.8663565217411
 20
156.2564563764883
 30
0.0
 11
419.0107565217412
 21
149.5782563764884
 31
0.0
  0
LINE
  5
9177
330
1A
100
AcDbEntity
  8
SEIHIN
  6
Continuous
 62
     3
 48
5.0
100
AcDbLine
 10
452.0107565217412
 20
138.8064563764884
 30
0.0
 11
444.5107565217412
 21
138.8064563764884
 31
0.0
  0
LINE
  5
9178
330
1A
100
AcDbEntity
  8
SEIHIN
  6
Continuous
 62
     3
 48
5.0
100
AcDbLine
 10
452.0107565217412
 20
138.0064563764884
 30
0.0
 11
444.5107565217412
 21
138.0064563764884
 31
0.0
  0
LINE
  5
9179
330
1A
100
AcDbEntity
  8
SEIHIN
  6
Continuous
 62
     3
 48
5.0
100
AcDbLine
 10
452.0107565217412
 20
142.2064563764884
 30
0.0
 11
444.5107565217412
 21
142.2064563764884
 31
0.0
  0
LINE
  5
917A
330
1A
100
AcDbEntity
  8
SEIHIN
  6
Continuous
 62
     3
 48
5.0
100
AcDbLine
 10
452.0107565217412
 20
143.0064563764884
 30
0.0
 11
444.5107565217412
 21
143.0064563764884
 31
0.0
  0
ARC
  5
917B
330
1A
100
AcDbEntity
  8
SEIHIN
  6
Continuous
 62
     3
 48
5.0
100
AcDbCircle
 10
453.4132189655308
 20
126.0970792189492
 30
0.0
 40
21.50004561357731
100
AcDbArc
 50
101.7479735293641
 51
114.2379830463593
  0
ARC
  5
917C
330
1A
100
AcDbEntity
  8
SEIHIN
  6
Continuous
 62
     3
 48
5.0
100
AcDbCircle
 10
453.4133920875901
 20
126.0971359382075
 30
0.0
 40
20.00001696447635
100
AcDbArc
 50
98.76555164749229
 51
116.4317460515138
  0
ARC
  5
917D
330
1A
100
AcDbEntity
  8
SEIHIN
  6
Continuous
 62
     3
 48
5.0
100
AcDbCircle
 10
449.8096740884599
 20
140.0083677987549
 30
0.0
 40
10.9999852231818
100
AcDbArc
 50
93.09035722395434
 51
152.9754458692728
  0
LINE
  5
917E
330
1A
100
AcDbEntity
  8
CENTER L
  6
CENTER
 62
     1
 48
5.0
100
AcDbLine
 10
454.5483565217413
 20
140.5064563764883
 30
0.0
 11
428.7274565217414
 21
140.5064563764883
 31
0.0
  0
ARC
  5
917F
330
1A
100
AcDbEntity
  8
SEIHIN
  6
Continuous
 62
     3
 48
5.0
100
AcDbCircle
 10
449.8096782882941
 20
140.0083670854455
 30
0.0
 40
9.499980577636576
100
AcDbArc
 50
98.05347745405518
 51
134.3403802581465
  0
ARC
  5
9180
330
1A
100
AcDbEntity
  8
SEIHIN
  6
Continuous
 62
     3
 48
5.0
100
AcDbCircle
 10
453.4130991292569
 20
154.9158724587881
 30
0.0
 40
21.49998177889527
100
AcDbArc
 50
245.7619983380859
 51
258.2520450861917
  0
ARC
  5
9181
330
1A
100
AcDbEntity
  8
SEIHIN
  6
Continuous
 62
     3
 48
5.0
100
AcDbCircle
 10
449.8096740884599
 20
141.0046449542219
 30
0.0
 40
10.9999852231818
100
AcDbArc
 50
207.0245541307272
 51
266.9096427760456
  0
ARC
  5
9182
330
1A
100
AcDbEntity
  8
SEIHIN
  6
Continuous
 62
     3
 48
5.0
100
AcDbCircle
 10
449.8096984735943
 20
141.0046357362655
 30
0.0
 40
9.499987582716225
100
AcDbArc
 50
225.659490809965
 51
261.9457964485797
  0
ARC
  5
9183
330
1A
100
AcDbEntity
  8
SEIHIN
  6
Continuous
 62
     3
 48
5.0
100
AcDbCircle
 10
453.4134393873629
 20
154.9157618114976
 30
0.0
 40
20.00002458424202
100
AcDbArc
 50
243.5681134773676
 51
261.2340247489674
  0
ARC
  5
9184
330
1A
100
AcDbEntity
  8
SEIHIN
  6
Continuous
 62
     3
 48
5.0
100
AcDbCircle
 10
428.0107579204915
 20
133.0064587991954
 30
0.0
 40
7.999998601250041
100
AcDbArc
 50
299.9999942162114
 51
359.9999826486353
  0
LINE
  5
9185
330
1A
100
AcDbEntity
  8
SEIHIN
  6
Continuous
 62
     3
 48
5.0
100
AcDbLine
 10
425.0026565217412
 20
127.8056563764884
 30
0.0
 11
433.7607565217412
 21
132.8621563764884
 31
0.0
  0
LINE
  5
9186
330
1A
100
AcDbEntity
  8
SEIHIN
  6
Continuous
 62
     3
 48
5.0
100
AcDbLine
 10
434.7607565217412
 20
131.1300563764883
 30
0.0
 11
426.0026565217412
 21
126.0735563764883
 31
0.0
  0
ARC
  5
9187
330
1A
100
AcDbEntity
  8
SEIHIN
  6
Continuous
 62
     3
 48
5.0
100
AcDbCircle
 10
429.6484062100557
 20
123.5597374510937
 30
0.0
 40
1.000019234777578
100
AcDbArc
 50
120.0026510555165
 51
177.0010348715887
  0
ARC
  5
9188
330
1A
100
AcDbEntity
  8
SEIHIN
  6
Continuous
 62
     3
 48
5.0
100
AcDbCircle
 10
426.2526029741142
 20
125.6404689988534
 30
0.0
 40
0.5000379042838538
100
AcDbArc
 50
119.9904080984868
 51
176.9865276188688
  0
ARC
  5
9189
330
1A
100
AcDbEntity
  8
SEIHIN
  6
Continuous
 62
     3
 48
5.0
100
AcDbCircle
 10
426.2526031184681
 20
125.6404692330711
 30
0.0
 40
2.500080370845965
100
AcDbArc
 50
119.9975233992085
 51
176.9967172166665
  0
LINE
  5
918A
330
1A
100
AcDbEntity
  8
SEIHIN
  6
Continuous
 62
     3
 48
5.0
100
AcDbLine
 10
432.0107565217412
 20
126.0782563764884
 30
0.0
 11
429.1483565217412
 21
124.4257563764884
 31
0.0
  0
LINE
  5
918B
330
1A
100
AcDbEntity
  8
SEIHIN
  6
Continuous
 62
     3
 48
5.0
100
AcDbLine
 10
417.278656521741
 20
150.5782563764884
 30
0.0
 11
419.0107565217412
 21
149.5782563764884
 31
0.0
  0
LINE
  5
918C
330
1A
100
AcDbEntity
  8
SEIHIN
  6
Continuous
 62
     3
 48
5.0
100
AcDbLine
 10
444.5107565217412
 20
140.5064563764883
 30
0.0
 11
444.5107565217412
 21
144.0064563764883
 31
0.0
  0
LINE
  5
918D
330
1A
100
AcDbEntity
  8
SEIHIN
  6
Continuous
 62
     3
 48
5.0
100
AcDbLine
 10
441.5107565217412
 20
145.0064563764883
 30
0.0
 11
441.5107565217412
 21
140.5064563764883
 31
0.0
  0
LINE
  5
918E
330
1A
100
AcDbEntity
  8
SEIHIN
  6
Continuous
 62
     3
 48
5.0
100
AcDbLine
 10
440.0107565217412
 20
134.5064563764883
 30
0.0
 11
440.0107565217412
 21
146.5064563764883
 31
0.0
  0
LINE
  5
918F
330
1A
100
AcDbEntity
  8
SEIHIN
  6
Continuous
 62
     3
 48
5.0
100
AcDbLine
 10
438.5107565217412
 20
134.5064563764883
 30
0.0
 11
438.5107565217412
 21
146.5064563764883
 31
0.0
  0
LINE
  5
9190
330
1A
100
AcDbEntity
  8
SEIHIN
  6
Continuous
 62
     3
 48
5.0
100
AcDbLine
 10
433.4107565217413
 20
134.7564563764884
 30
0.0
 11
433.4107565217413
 21
146.2564563764883
 31
0.0
  0
ARC
  5
9191
330
1A
100
AcDbEntity
  8
SEIHIN
  6
Continuous
 62
     3
 48
5.0
100
AcDbCircle
 10
439.0990565219587
 20
140.5065063764883
 30
0.0
 40
8.088181618570005
100
AcDbArc
 50
134.6911895971241
 51
225.3088104028759
  0
LINE
  5
9192
330
1A
100
AcDbEntity
  8
SEIHIN
  6
Continuous
 62
     3
 48
5.0
100
AcDbLine
 10
436.0107565217412
 20
131.0064563764882
 30
0.0
 11
438.5107565217412
 21
131.0064563764882
 31
0.0
  0
LINE
  5
9193
330
1A
100
AcDbEntity
  8
SEIHIN
  6
Continuous
 62
     3
 48
5.0
100
AcDbLine
 10
434.0107565217412
 20
134.7564563764884
 30
0.0
 11
433.4107565217413
 21
134.7564563764884
 31
0.0
  0
ARC
  5
9194
330
1A
100
AcDbEntity
  8
SEIHIN
  6
Continuous
 62
     3
 48
5.0
100
AcDbCircle
 10
433.510762021802
 20
133.2951659030124
 30
0.0
 40
0.499994500030178
100
AcDbArc
 50
299.9996361095808
 51
359.9989083287533
  0
ARC
  5
9195
330
1A
100
AcDbEntity
  8
SEIHIN
  6
Continuous
 62
     3
 48
5.0
100
AcDbCircle
 10
433.5107407208412
 20
133.2951290087571
 30
0.0
 40
2.500015801049932
100
AcDbArc
 50
300.0002090727443
 51
0.0006272182328416
  0
LINE
  5
9196
330
1A
100
AcDbEntity
  8
SEIHIN
  6
Continuous
 62
     3
 48
5.0
100
AcDbLine
 10
444.5107565217412
 20
140.5064563764883
 30
0.0
 11
444.5107565217412
 21
137.0064563764883
 31
0.0
  0
LINE
  5
9197
330
1A
100
AcDbEntity
  8
SEIHIN
  6
Continuous
 62
     3
 48
5.0
100
AcDbLine
 10
440.0107565217412
 20
140.0064563764883
 30
0.0
 11
438.5107565217412
 21
140.0064563764883
 31
0.0
  0
ARC
  5
9198
330
1A
100
AcDbEntity
  8
SEIHIN
  6
Continuous
 62
     3
 48
5.0
100
AcDbCircle
 10
444.3815506875429
 20
134.8552566719085
 30
0.0
 40
0.4999539729065992
100
AcDbArc
 50
65.76692820196462
 51
108.4343252285667
  0
ARC
  5
9199
330
1A
100
AcDbEntity
  8
SEIHIN
  6
Continuous
 62
     3
 48
5.0
100
AcDbCircle
 10
443.5193562565781
 20
134.5678552233759
 30
0.0
 40
0.4999571081596982
100
AcDbArc
 50
108.4348782053316
 51
225.6644333804789
  0
LINE
  5
919A
330
1A
100
AcDbEntity
  8
SEIHIN
  6
Continuous
 62
     3
 48
5.0
100
AcDbLine
 10
440.0107565217412
 20
134.5064563764883
 30
0.0
 11
438.5107565217412
 21
134.5064563764883
 31
0.0
  0
LINE
  5
919B
330
1A
100
AcDbEntity
  8
SEIHIN
  6
Continuous
 62
     3
 48
5.0
100
AcDbLine
 10
441.5107565217412
 20
136.0064563764883
 30
0.0
 11
440.0107565217412
 21
136.0064563764883
 31
0.0
  0
LINE
  5
919C
330
1A
100
AcDbEntity
  8
SEIHIN
  6
Continuous
 62
     3
 48
5.0
100
AcDbLine
 10
443.3612565217412
 20
135.0421563764884
 30
0.0
 11
444.2234565217412
 21
135.3295563764883
 31
0.0
  0
LINE
  5
919D
330
1A
100
AcDbEntity
  8
SEIHIN
  6
Continuous
 62
     3
 48
5.0
100
AcDbLine
 10
441.5107565217412
 20
136.0064563764883
 30
0.0
 11
444.5107565217412
 21
137.0064563764883
 31
0.0
  0
LINE
  5
919E
330
1A
100
AcDbEntity
  8
SEIHIN
  6
Continuous
 62
     3
 48
5.0
100
AcDbLine
 10
441.5107565217412
 20
136.0064563764883
 30
0.0
 11
441.5107565217412
 21
140.5064563764883
 31
0.0
  0
LINE
  5
919F
330
1A
100
AcDbEntity
  8
SEIHIN
  6
Continuous
 62
     3
 48
5.0
100
AcDbLine
 10
434.0107565217412
 20
146.2564563764883
 30
0.0
 11
433.4107565217413
 21
146.2564563764883
 31
0.0
  0
ARC
  5
91A0
330
1A
100
AcDbEntity
  8
SEIHIN
  6
Continuous
 62
     3
 48
5.0
100
AcDbCircle
 10
444.3814204566185
 20
146.1577494823901
 30
0.0
 40
0.5000014236468626
100
AcDbArc
 50
251.5832167961932
 51
294.2469904888666
  0
ARC
  5
91A1
330
1A
100
AcDbEntity
  8
SEIHIN
  6
Continuous
 62
     3
 48
5.0
100
AcDbCircle
 10
443.5193562565781
 20
146.4451575296008
 30
0.0
 40
0.4999571081596003
100
AcDbArc
 50
134.3355666195216
 51
251.5651217946718
  0
LINE
  5
91A2
330
1A
100
AcDbEntity
  8
SEIHIN
  6
Continuous
 62
     3
 48
5.0
100
AcDbLine
 10
440.0107565217412
 20
141.0064563764884
 30
0.0
 11
438.5107565217412
 21
141.0064563764884
 31
0.0
  0
LINE
  5
91A3
330
1A
100
AcDbEntity
  8
SEIHIN
  6
Continuous
 62
     3
 48
5.0
100
AcDbLine
 10
440.0107565217412
 20
146.5064563764883
 30
0.0
 11
438.5107565217412
 21
146.5064563764883
 31
0.0
  0
LINE
  5
91A4
330
1A
100
AcDbEntity
  8
SEIHIN
  6
Continuous
 62
     3
 48
5.0
100
AcDbLine
 10
441.5107565217412
 20
145.0064563764883
 30
0.0
 11
440.0107565217412
 21
145.0064563764883
 31
0.0
  0
LINE
  5
91A5
330
1A
100
AcDbEntity
  8
SEIHIN
  6
Continuous
 62
     3
 48
5.0
100
AcDbLine
 10
441.5107565217412
 20
145.0064563764883
 30
0.0
 11
444.5107565217412
 21
144.0064563764883
 31
0.0
  0
LINE
  5
91A6
330
1A
100
AcDbEntity
  8
SEIHIN
  6
Continuous
 62
     3
 48
5.0
100
AcDbLine
 10
443.3612565217412
 20
145.9707563764884
 30
0.0
 11
444.2234565217412
 21
145.6833563764884
 31
0.0
  0
LINE
  5
91A7
330
1A
100
AcDbEntity
  8
SEIHIN
  6
Continuous
 62
     3
 48
5.0
100
AcDbLine
 10
452.0107565217412
 20
138.0064563764884
 30
0.0
 11
452.0107565217412
 21
143.0064563764884
 31
0.0
  0
ARC
  5
91A8
330
1A
100
AcDbEntity
  8
SEIHIN
  6
Continuous
 62
     3
 48
5.0
100
AcDbCircle
 10
450.2130880181268
 20
134.1610064840286
 30
0.0
 40
1.000041076416273
100
AcDbArc
 50
343.301328877943
 51
81.23035590862699
  0
LINE
  5
91A9
330
1A
100
AcDbEntity
  8
SEIHIN
  6
Continuous
 62
     3
 48
5.0
100
AcDbLine
 10
449.0276565217413
 20
131.9497563764884
 30
0.0
 11
449.4126565217413
 21
133.2330563764884
 31
0.0
  0
LINE
  5
91AA
330
1A
100
AcDbEntity
  8
SEIHIN
  6
Continuous
 62
     3
 48
5.0
100
AcDbLine
 10
450.2283565217414
 20
130.7318563764883
 30
0.0
 11
451.1709565217412
 21
133.8737563764883
 31
0.0
  0
ARC
  5
91AB
330
1A
100
AcDbEntity
  8
SEIHIN
  6
Continuous
 62
     3
 48
5.0
100
AcDbCircle
 10
448.9337199858777
 20
133.3767177114945
 30
0.0
 40
0.5000187842077974
100
AcDbArc
 50
343.3029097843209
 51
78.24861482569854
  0
ARC
  5
91AC
330
1A
100
AcDbEntity
  8
SEIHIN
  6
Continuous
 62
     3
 48
5.0
100
AcDbCircle
 10
448.5487831212553
 20
132.0933734070141
 30
0.0
 40
0.4999455821887589
100
AcDbArc
 50
261.9481932064406
 51
343.3056943105491
  0
ARC
  5
91AD
330
1A
100
AcDbEntity
  8
SEIHIN
  6
Continuous
 62
     3
 48
5.0
100
AcDbCircle
 10
449.2705613740199
 20
131.0191597875538
 30
0.0
 40
0.9999573965967566
100
AcDbArc
 50
266.9098499952148
 51
343.302683940015
  0
ARC
  5
91AE
330
1A
100
AcDbEntity
  8
SEIHIN
  6
Continuous
 62
     3
 48
5.0
100
AcDbCircle
 10
449.2705143250909
 20
149.9937860371308
 30
0.0
 40
1.000021692577919
100
AcDbArc
 50
16.70021450069631
 51
93.0872515640736
  0
ARC
  5
91AF
330
1A
100
AcDbEntity
  8
SEIHIN
  6
Continuous
 62
     3
 48
5.0
100
AcDbCircle
 10
448.5487377130843
 20
148.919568416694
 30
0.0
 40
0.5000094549858113
100
AcDbArc
 50
16.70059612930686
 51
98.04551635370007
  0
ARC
  5
91B0
330
1A
100
AcDbEntity
  8
SEIHIN
  6
Continuous
 62
     3
 48
5.0
100
AcDbCircle
 10
450.2130428785357
 20
146.8519347673622
 30
0.0
 40
1.000076124557576
100
AcDbArc
 50
278.7719510417845
 51
16.6963641716473
  0
ARC
  5
91B1
330
1A
100
AcDbEntity
  8
SEIHIN
  6
Continuous
 62
     3
 48
5.0
100
AcDbCircle
 10
448.9337199858777
 20
147.6362950414823
 30
0.0
 40
0.5000187842077959
100
AcDbArc
 50
281.7513851743015
 51
16.6970902156791
  0
LINE
  5
91B2
330
1A
100
AcDbEntity
  8
SEIHIN
  6
Continuous
 62
     3
 48
5.0
100
AcDbLine
 10
449.0276565217413
 20
149.0632563764883
 30
0.0
 11
449.4126565217413
 21
147.7799563764884
 31
0.0
  0
LINE
  5
91B3
330
1A
100
AcDbEntity
  8
SEIHIN
  6
Continuous
 62
     3
 48
5.0
100
AcDbLine
 10
450.2283565217414
 20
150.2811563764884
 30
0.0
 11
451.1709565217412
 21
147.1392563764884
 31
0.0
  0
LINE
  5
91B4
330
1A
100
AcDbEntity
  8
SEIHIN
  6
PHANTOM
 62
     6
 48
5.0
100
AcDbLine
 10
433.5106565217412
 20
189.0617563764884
 30
0.0
 11
433.5107565217412
 21
166.7465563764883
 31
0.0
  0
LINE
  5
91B5
330
1A
100
AcDbEntity
  8
SEIHIN
  6
Continuous
 62
     3
 48
5.0
100
AcDbLine
 10
423.2994565217413
 20
156.5064563764883
 30
0.0
 11
433.5107565217412
 21
156.5064563764883
 31
0.0
  0
LINE
  5
91B6
330
1A
100
AcDbEntity
  8
SEIHIN
  6
Continuous
 62
     3
 48
5.0
100
AcDbLine
 10
423.2994565217413
 20
158.5064563764883
 30
0.0
 11
433.5107565217412
 21
158.5064563764883
 31
0.0
  0
ARC
  5
91B7
330
1A
100
AcDbEntity
  8
SEIHIN
  6
Continuous
 62
     3
 48
5.0
100
AcDbCircle
 10
423.2993910531092
 20
156.0064185743462
 30
0.0
 40
0.5000378064279774
100
AcDbArc
 50
89.99249841458165
 51
149.9974994715206
  0
ARC
  5
91B8
330
1A
100
AcDbEntity
  8
SEIHIN
  6
Continuous
 62
     3
 48
5.0
100
AcDbCircle
 10
423.29942915401
 20
156.0064405755881
 30
0.0
 40
2.500015801050055
100
AcDbArc
 50
89.99937278176512
 51
149.9997909272541
  0
ARC
  5
91B9
330
1A
100
AcDbEntity
  8
SEIHIN
  6
PHANTOM
 62
     6
 48
5.0
100
AcDbCircle
 10
438.5107698227058
 20
166.7465333380091
 30
0.0
 40
5.00001330101763
100
AcDbArc
 50
179.9997359991764
 51
239.9985888062478
  0
ARC
  5
91BA
330
1A
100
AcDbEntity
  8
SEIHIN
  6
Continuous
 62
     3
 48
5.0
100
AcDbCircle
 10
433.5107565217412
 20
156.0064563764883
 30
0.0
 40
0.5
100
AcDbArc
 50
0.0
 51
90.0
  0
ARC
  5
91BB
330
1A
100
AcDbEntity
  8
SEIHIN
  6
Continuous
 62
     3
 48
5.0
100
AcDbCircle
 10
433.5107565217412
 20
156.0064563764883
 30
0.0
 40
2.5
100
AcDbArc
 50
0.0
 51
90.0
  0
ARC
  5
91BC
330
1A
100
AcDbEntity
  8
SEIHIN
  6
PHANTOM
 62
     6
 48
5.0
100
AcDbCircle
 10
439.0106480392172
 20
189.0617444184991
 30
0.0
 40
2.999991517499848
100
AcDbArc
 50
109.2990113368455
 51
179.999771618581
  0
ARC
  5
91BD
330
1A
100
AcDbEntity
  8
SEIHIN
  6
PHANTOM
 62
     6
 48
5.0
100
AcDbCircle
 10
439.0106492330953
 20
189.0617461014403
 30
0.0
 40
5.49999271136357
100
AcDbArc
 50
109.2996242805581
 51
179.9998929604228
  0
ARC
  5
91BE
330
1A
100
AcDbEntity
  8
SEIHIN
  6
PHANTOM
 62
     6
 48
5.0
100
AcDbCircle
 10
439.0107468465541
 20
189.0618427385411
 30
0.0
 40
0.4999903249988335
100
AcDbArc
 50
109.292269078848
 51
179.9984371761229
  0
LINE
  5
91BF
330
1A
100
AcDbEntity
  8
SEIHIN
  6
Continuous
 62
     3
 48
5.0
100
AcDbLine
 10
433.5106565217412
 20
255.6517563764883
 30
0.0
 11
433.5107565217412
 21
233.3365563764883
 31
0.0
  0
LINE
  5
91C0
330
1A
100
AcDbEntity
  8
CENTER L
  6
CENTER
 62
     1
 48
5.0
100
AcDbLine
 10
443.7468565217411
 20
207.0964563764883
 30
0.0
 11
430.2381565217412
 21
207.0964563764883
 31
0.0
  0
ARC
  5
91C1
330
1A
100
AcDbEntity
  8
SEIHIN
  6
Continuous
 62
     3
 48
5.0
100
AcDbCircle
 10
438.5107698227058
 20
233.3365333380091
 30
0.0
 40
5.00001330101763
100
AcDbArc
 50
179.9997359991764
 51
239.9985888062478
  0
ARC
  5
91C2
330
1A
100
AcDbEntity
  8
SEIHIN
  6
PHANTOM
 62
     6
 48
5.0
100
AcDbCircle
 10
472.1760780388867
 20
201.2058523108717
 30
0.0
 40
5.00001572499915
100
AcDbArc
 50
49.30035959057836
 51
109.300538550333
  0
LINE
  5
91C3
330
1A
100
AcDbEntity
  8
SEIHIN
  6
Continuous
 62
     3
 48
5.0
100
AcDbLine
 10
437.1928565217412
 20
260.8426563764883
 30
0.0
 11
470.5234565217412
 21
272.5148563764882
 31
0.0
  0
ARC
  5
91C4
330
1A
100
AcDbEntity
  8
SEIHIN
  6
Continuous
 62
     3
 48
5.0
100
AcDbCircle
 10
439.0106492330953
 20
255.6517461014402
 30
0.0
 40
5.49999271136357
100
AcDbArc
 50
109.2996242805581
 51
179.9998929604228
  0
ARC
  5
91C5
330
1A
100
AcDbEntity
  8
SEIHIN
  6
Continuous
 62
     3
 48
5.0
100
AcDbCircle
 10
439.0106480392172
 20
255.651744418499
 30
0.0
 40
2.999991517499848
100
AcDbArc
 50
109.2990113368455
 51
179.999771618581
  0
ARC
  5
91C6
330
1A
100
AcDbEntity
  8
SEIHIN
  6
Continuous
 62
     3
 48
5.0
100
AcDbCircle
 10
439.0107468465541
 20
255.651842738541
 30
0.0
 40
0.4999903249988335
100
AcDbArc
 50
109.292269078848
 51
179.9984371761229
  0
ARC
  5
91C7
330
1A
100
AcDbEntity
  8
SEIHIN
  6
Continuous
 62
     3
 48
5.0
100
AcDbCircle
 10
472.1760780388867
 20
267.7958523108716
 30
0.0
 40
5.00001572499915
100
AcDbArc
 50
49.30035959057836
 51
109.300538550333
  0
LINE
  5
91C8
330
1A
100
AcDbEntity
  8
SEIHIN
  6
PHANTOM
 62
     6
 48
5.0
100
AcDbLine
 10
483.2218565217412
 20
213.0208563764883
 30
0.0
 11
487.3532565217412
 21
201.2233563764884
 31
0.0
  0
LINE
  5
91C9
330
1A
100
AcDbEntity
  8
SEIHIN
  6
PHANTOM
 62
     6
 48
5.0
100
AcDbLine
 10
530.4119565217412
 20
229.5465563764884
 30
0.0
 11
534.5434565217412
 21
217.7490563764884
 31
0.0
  0
LINE
  5
91CA
330
1A
100
AcDbEntity
  8
CENTER L
  6
CENTER
 62
     1
 48
5.0
100
AcDbLine
 10
483.2218565217412
 20
279.6108563764882
 30
0.0
 11
487.3532565217412
 21
267.8133563764883
 31
0.0
  0
LINE
  5
91CB
330
1A
100
AcDbEntity
  8
SEIHIN
  6
PHANTOM
 62
     6
 48
5.0
100
AcDbLine
 10
577.602056521741
 20
246.0721563764884
 30
0.0
 11
581.7334565217412
 21
234.2746563764882
 31
0.0
  0
LINE
  5
91CC
330
1A
100
AcDbEntity
  8
SEIHIN
  6
PHANTOM
 62
     6
 48
5.0
100
AcDbLine
 10
588.692556521741
 20
244.6582563764882
 30
0.0
 11
589.5189565217412
 21
242.2986563764882
 31
0.0
  0
ELLIPSE
  5
91CD
330
1A
100
AcDbEntity
  8
SEIHIN
 48
5.0
100
AcDbEllipse
 10
579.2578565217413
 20
480.1752891542213
 30
0.0
 11
0.0
 21
2.099982473490854
 31
0.0
210
0.0
220
0.0
230
1.0
 40
0.9429464373109001
 41
0.0
 42
6.283185307179586
  0
ELLIPSE
  5
91CE
330
1A
100
AcDbEntity
  8
SEIHIN
 48
5.0
100
AcDbEllipse
 10
580.0841525178854
 20
480.1752891542212
 30
0.0
 11
0.0
 21
2.099982473490854
 31
0.0
210
0.0
220
0.0
230
1.0
 40
0.9429464373109001
 41
0.4304559187729777
 42
2.711136734816816
  0
ELLIPSE
  5
91CF
330
1A
100
AcDbEntity
  8
SEIHIN
 48
5.0
100
AcDbEllipse
 10
532.8941525178856
 20
480.1752891542212
 30
0.0
 11
0.0
 21
2.099982473490854
 31
0.0
210
0.0
220
0.0
230
1.0
 40
0.9429464373109001
 41
0.4304559187729777
 42
2.711136734816816
  0
ELLIPSE
  5
91D0
330
1A
100
AcDbEntity
  8
SEIHIN
 48
5.0
100
AcDbEllipse
 10
532.0678565217414
 20
480.1752891542212
 30
0.0
 11
0.0
 21
2.099982473490854
 31
0.0
210
0.0
220
0.0
230
1.0
 40
0.9429464373109001
 41
0.0
 42
6.283185307179586
  0
ELLIPSE
  5
91D1
330
1A
100
AcDbEntity
  8
SEIHIN
 48
5.0
100
AcDbEllipse
 10
485.7037525178856
 20
480.1752891542212
 30
0.0
 11
0.0
 21
2.099982473490854
 31
0.0
210
0.0
220
0.0
230
1.0
 40
0.9429464373109001
 41
0.430455918773082
 42
2.711136734816711
  0
ELLIPSE
  5
91D2
330
1A
100
AcDbEntity
  8
SEIHIN
 48
5.0
100
AcDbEllipse
 10
484.8774565217412
 20
480.1752891542212
 30
0.0
 11
0.0
 21
2.099982473490854
 31
0.0
210
0.0
220
0.0
230
1.0
 40
0.9429464373109001
 41
0.0
 42
6.283185307179586
  0
LINE
  5
91D3
330
1A
100
AcDbEntity
  8
CENTER L
  6
CENTER
 62
     1
 48
5.0
100
AcDbLine
 10
579.2578565217413
 20
475.3841891542215
 30
0.0
 11
579.2578565217413
 21
484.8996891542214
 31
0.0
  0
LINE
  5
91D4
330
1A
100
AcDbEntity
  8
SEIHIN
  6
Continuous
 62
     3
 48
5.0
100
AcDbLine
 10
588.6958565217414
 20
470.6752891542215
 30
0.0
 11
588.6958565217414
 21
489.6750891542214
 31
0.0
  0
LINE
  5
91D5
330
1A
100
AcDbEntity
  8
SEIHIN
  6
Continuous
 62
     3
 48
5.0
100
AcDbLine
 10
589.5221565217413
 20
470.6752891542215
 30
0.0
 11
589.5221565217413
 21
489.6750891542214
 31
0.0
  0
LINE
  5
91D6
330
1A
100
AcDbEntity
  8
CENTER L
  6
CENTER
 62
     1
 48
5.0
100
AcDbLine
 10
532.0678565217414
 20
475.3841891542215
 30
0.0
 11
532.0678565217414
 21
484.8996891542214
 31
0.0
  0
ARC
  5
91D7
330
1A
100
AcDbEntity
  8
SEIHIN
  6
Continuous
 62
     3
 48
5.0
100
AcDbCircle
 10
470.4397565217411
 20
480.1752891542215
 30
0.0
 40
5.0
100
AcDbArc
 50
270.0
 51
90.0
  0
LINE
  5
91D8
330
1A
100
AcDbEntity
  8
CENTER L
  6
CENTER
 62
     1
 48
5.0
100
AcDbLine
 10
484.8774565217412
 20
475.3841891542215
 30
0.0
 11
484.8774565217412
 21
484.8996891542214
 31
0.0
  0
ARC
  5
91D9
330
1A
100
AcDbEntity
  8
SEIHIN
  6
Continuous
 62
     3
 48
5.0
100
AcDbCircle
 10
439.7640565216346
 20
480.1753986312009
 30
0.0
 40
6.249864016784996
100
AcDbArc
 50
129.0228076837999
 51
230.9760122859326
  0
DIMENSION
  5
91DA
330
1A
100
AcDbEntity
  8
SUNPOU
100
AcDbDimension
  2
*D13
 10
634.8843745946186
 20
470.6752891542215
 30
0.0
 11
629.8843745946185
 21
480.1752891542215
 31
0.0
 70
    32
 71
     5
 42
19.0
  3
STANDARD
100
AcDbAlignedDimension
 13
589.5220565217413
 23
489.6752891542215
 33
0.0
 14
589.5220565217413
 24
470.6752891542215
 34
0.0
 50
90.0
100
AcDbRotatedDimension
1001
ACAD
1000
DSTYLE
1002
{
1070
   140
1040
6.0
1070
    74
1070
     0
1070
   172
1070
     1
1070
    73
1070
     0
1070
   272
1070
     2
1070
    77
1070
     3
1070
   173
1070
     1
1070
   147
1040
2.0
1070
    42
1040
6.0
1070
    44
1040
3.0
1070
    43
1040
14.0
1070
   271
1070
     0
1070
   178
1070
     4
1070
   177
1070
     4
1070
   176
1070
     4
1070
   141
1040
150.0
1070
     7
1000
_OPEN
1070
     6
1000
_OPEN
1070
    41
1040
7.0
1002
}
  0
LINE
  5
91DB
330
1A
100
AcDbEntity
  8
SEIHIN
  6
Continuous
 62
     3
 48
5.0
100
AcDbLine
 10
421.8561565217411
 20
470.6752891542215
 30
0.0
 11
421.8561565217411
 21
489.6752891542215
 31
0.0
  0
LINE
  5
91DC
330
1A
100
AcDbEntity
  8
SEIHIN
  6
Continuous
 62
     3
 48
5.0
100
AcDbLine
 10
417.2787565217412
 20
470.6752891542215
 30
0.0
 11
417.2787565217412
 21
489.6752891542215
 31
0.0
  0
DIMENSION
  5
91DD
330
1A
100
AcDbEntity
  8
SUNPOU
100
AcDbDimension
  2
*D14
 10
495.9321328982002
 20
394.5951898548335
 30
0.0
 11
517.8746143189128
 21
407.5770457979058
 31
0.0
 70
    33
 71
     5
 42
50.00004298498141
  3
STANDARD
100
AcDbAlignedDimension
 13
551.3524856159219
 23
387.6189232951987
 33
0.0
 14
504.1623856159218
 24
371.0932232951986
 34
0.0
1001
ACAD
1000
DSTYLE
1002
{
1070
   140
1040
6.0
1070
    74
1070
     0
1070
   172
1070
     1
1070
    73
1070
     0
1070
   272
1070
     2
1070
    77
1070
     3
1070
   173
1070
     1
1070
   147
1040
2.0
1070
    42
1040
6.0
1070
    44
1040
3.0
1070
    43
1040
14.0
1070
   271
1070
     0
1070
   178
1070
     4
1070
   177
1070
     4
1070
   176
1070
     4
1070
   141
1040
150.0
1070
     7
1000
_OPEN
1070
     6
1000
_OPEN
1070
    41
1040
7.0
1002
}
  0
LINE
  5
91DE
330
1A
100
AcDbEntity
  8
SEIHIN
  6
Continuous
 62
     3
 48
5.0
100
AcDbLine
 10
451.7307856159217
 20
337.7949232951986
 30
0.0
 11
565.4498856159217
 21
377.6188232951986
 31
0.0
  0
LINE
  5
91DF
330
1A
100
AcDbEntity
  8
SEIHIN
  6
Continuous
 62
     3
 48
5.0
100
AcDbLine
 10
444.2034856159218
 20
355.2903232951986
 30
0.0
 11
559.1701856159217
 21
395.5510232951986
 31
0.0
  0
LINE
  5
91E0
330
1A
100
AcDbEntity
  8
CENTER L
  6
CENTER
 62
     1
 48
5.0
100
AcDbLine
 10
566.3590856159216
 20
388.0029232951986
 30
0.0
 11
444.7690856159217
 21
345.4227232951986
 31
0.0
  0
DIMENSION
  5
91E1
330
1A
100
AcDbEntity
  8
SUNPOU
100
AcDbDimension
  2
*D15
 10
543.1222134960417
 20
411.1208877039661
 30
0.0
 11
571.2369712970243
 21
420.9665329882609
 31
0.0
 70
   161
 71
     5
 42
10.00000149256618
  3
STANDARD
100
AcDbAlignedDimension
 13
560.9879681067745
 23
390.360166891115
 33
0.0
 14
551.5499568812871
 24
387.0550233301026
 34
0.0
1001
ACAD
1000
DSTYLE
1002
{
1070
   288
1070
     1
1070
   140
1040
6.0
1070
    74
1070
     0
1070
   172
1070
     1
1070
    73
1070
     0
1070
   272
1070
     2
1070
    77
1070
     3
1070
   173
1070
     1
1070
   147
1040
2.0
1070
    42
1040
6.0
1070
    44
1040
3.0
1070
    43
1040
14.0
1070
   271
1070
     0
1070
   178
1070
     4
1070
   177
1070
     4
1070
   176
1070
     4
1070
   141
1040
150.0
1070
     7
1000
_OPEN
1070
     6
1000
_OPEN
1070
    41
1040
7.0
1002
}
  0
DIMENSION
  5
91E2
330
1A
100
AcDbEntity
  8
SUNPOU
100
AcDbDimension
  2
*D16
 10
448.7420328982001
 20
378.0694898548335
 30
0.0
 11
470.6845143189127
 21
391.0513457979058
 31
0.0
 70
    33
 71
     5
 42
50.00004298498152
  3
STANDARD
100
AcDbAlignedDimension
 13
504.1623856159218
 23
371.0932232951986
 33
0.0
 14
456.9722856159218
 24
354.5675232951986
 34
0.0
1001
ACAD
1000
DSTYLE
1002
{
1070
   140
1040
6.0
1070
    74
1070
     0
1070
   172
1070
     1
1070
    73
1070
     0
1070
   272
1070
     2
1070
    77
1070
     3
1070
   173
1070
     1
1070
   147
1040
2.0
1070
    42
1040
6.0
1070
    44
1040
3.0
1070
    43
1040
14.0
1070
   271
1070
     0
1070
   178
1070
     4
1070
   177
1070
     4
1070
   176
1070
     4
1070
   141
1040
150.0
1070
     7
1000
_OPEN
1070
     6
1000
_OPEN
1070
    41
1040
7.0
1002
}
  0
LINE
  5
91E3
330
1A
100
AcDbEntity
  8
CENTER L
  6
CENTER
 62
     1
 48
5.0
100
AcDbLine
 10
456.9722856159218
 20
354.5675232951986
 30
0.0
 11
459.8616856159216
 21
346.3168232951986
 31
0.0
  0
CIRCLE
  5
91E4
330
1A
100
AcDbEntity
  8
SEIHIN
  6
Continuous
 62
     3
 48
5.0
100
AcDbCircle
 10
458.4918599628378
 20
350.2283691233634
 30
0.0
 40
2.1
  0
LINE
  5
91E5
330
1A
100
AcDbEntity
  8
CENTER L
  6
CENTER
 62
     1
 48
5.0
100
AcDbLine
 10
504.1623856159218
 20
371.0932232951986
 30
0.0
 11
507.0517856159219
 21
362.8425232951987
 31
0.0
  0
CIRCLE
  5
91E6
330
1A
100
AcDbEntity
  8
SEIHIN
  6
Continuous
 62
     3
 48
5.0
100
AcDbCircle
 10
505.6819496159566
 20
366.7540986689488
 30
0.0
 40
2.1
  0
LINE
  5
91E7
330
1A
100
AcDbEntity
  8
SEIHIN
  6
Continuous
 62
     3
 48
5.0
100
AcDbLine
 10
435.9505565217413
 20
475.1753891542215
 30
0.0
 11
470.4397565217411
 21
475.1752891542215
 31
0.0
  0
ARC
  5
91E8
330
1A
100
AcDbEntity
  8
SEIHIN
  6
Continuous
 62
     3
 48
5.0
100
AcDbCircle
 10
435.5140797228179
 20
474.9315404849099
 30
0.0
 40
0.4999768012921537
100
AcDbArc
 50
0.0055773510810204
 51
50.98065036643031
  0
LINE
  5
91E9
330
1A
100
AcDbEntity
  8
SEIHIN
  6
Continuous
 62
     3
 48
5.0
100
AcDbLine
 10
436.0140565217411
 20
470.6752891542215
 30
0.0
 11
436.0140565217411
 21
474.9315891542215
 31
0.0
  0
LINE
  5
91EA
330
1A
100
AcDbEntity
  8
SEIHIN
  6
Continuous
 62
     3
 48
5.0
100
AcDbLine
 10
559.1701856159217
 20
395.5510232951986
 30
0.0
 11
565.4498856159217
 21
377.6187232951986
 31
0.0
  0
DIMENSION
  5
91EB
330
1A
100
AcDbEntity
  8
SUNPOU
100
AcDbDimension
  2
*D17
 10
599.1023568142438
 20
389.4036251256548
 30
0.0
 11
600.6815170828081
 21
400.0222813531954
 31
0.0
 70
    33
 71
     5
 42
18.99995865600764
  3
STANDARD
100
AcDbAlignedDimension
 13
559.1701856159217
 23
395.5510232951987
 33
0.0
 14
565.4498856159217
 24
377.6188232951987
 34
0.0
1001
ACAD
1000
DSTYLE
1002
{
1070
   140
1040
6.0
1070
    74
1070
     0
1070
   172
1070
     1
1070
    73
1070
     0
1070
   272
1070
     2
1070
    77
1070
     3
1070
   173
1070
     1
1070
   147
1040
2.0
1070
    42
1040
6.0
1070
    44
1040
3.0
1070
    43
1040
14.0
1070
   271
1070
     0
1070
   178
1070
     4
1070
   177
1070
     4
1070
   176
1070
     4
1070
   141
1040
150.0
1070
     7
1000
_OPEN
1070
     6
1000
_OPEN
1070
    41
1040
7.0
1002
}
  0
CIRCLE
  5
91EC
330
1A
100
AcDbEntity
  8
SEIHIN
  6
Continuous
 62
     3
 48
5.0
100
AcDbCircle
 10
552.8719924233361
 20
383.2798118093945
 30
0.0
 40
2.1
  0
LINE
  5
91ED
330
1A
100
AcDbEntity
  8
CENTER L
  6
CENTER
 62
     1
 48
5.0
100
AcDbLine
 10
551.3524856159219
 20
387.6189232951986
 30
0.0
 11
554.2417856159217
 21
379.3682232951986
 31
0.0
  0
MTEXT
  5
91EE
330
1A
100
AcDbEntity
  8
SUNPOU
  6
Continuous
 62
     4
100
AcDbMText
 10
584.0745024778338
 20
355.1036045346725
 30
0.0
 40
6.0
 41
0.0
 71
     7
 72
     5
  1
3-φ4.2
 73
     1
 44
1.0
  0
LINE
  5
91EF
330
1A
100
AcDbEntity
  8
SUNPOU
  6
Continuous
 62
     4
 48
5.0
100
AcDbLine
 10
646.4444483544577
 20
331.4733984148523
 30
0.0
 11
609.1849368419361
 21
318.4248403727431
 31
0.0
  0
LEADER
  5
91F0
330
1A
100
AcDbEntity
  8
SUNPOU
  6
Continuous
 62
     4
100
AcDbLeader
  3
STANDARD
 74
     0
 40
6.0
 41
31.2
 76
     3
 10
554.9666590121818
 20
381.7073612638114
 30
0.0
 10
579.3342227640745
 20
353.1036045346725
 30
0.0
 10
582.0745024778338
 20
353.1036045346725
 30
0.0
1001
ACAD
1000
DSTYLE
1002
{
1070
     6
1000
OPEN
1070
    41
1040
7.0
1070
    42
1040
6.0
1070
    43
1040
14.0
1070
    44
1040
3.0
1070
    73
1070
     0
1070
    74
1070
     0
1070
    77
1070
     3
1070
   140
1040
6.0
1070
   141
1040
150.0
1070
   147
1040
2.0
1070
   172
1070
     1
1070
   173
1070
     1
1070
   176
1070
     4
1070
   177
1070
     4
1070
   178
1070
     4
1070
   271
1070
     0
1070
   272
1070
     2
1070
   341
1005
6D
1070
   343
1005
6D
1070
   344
1005
6D
1002
}
  0
LINE
  5
91F1
330
1A
100
AcDbEntity
  8
CENTER L
  6
CENTER
 62
     1
 48
5.0
100
AcDbLine
 10
577.602056521741
 20
312.6621563764883
 30
0.0
 11
581.7334565217412
 21
300.8646563764881
 31
0.0
  0
LINE
  5
91F2
330
1A
100
AcDbEntity
  8
SEIHIN
  6
Continuous
 62
     3
 48
5.0
100
AcDbLine
 10
588.692556521741
 20
311.2482563764881
 30
0.0
 11
589.5189565217412
 21
308.8886563764881
 31
0.0
  0
LINE
  5
91F3
330
1A
100
AcDbEntity
  8
SUNPOU
 48
5.0
100
AcDbLine
 10
626.4444483544577
 20
324.4692496687132
 30
0.0
 11
646.4444483544577
 21
324.4692496687133
 31
0.0
  0
TEXT
  5
91F4
330
1A
100
AcDbEntity
  8
SUNPOU
 48
5.0
100
AcDbText
 10
636.8191392737157
 20
316.3068663538868
 30
0.0
 40
6.0
  1
10
100
AcDbText
  0
TEXT
  5
91F5
330
1A
100
AcDbEntity
  8
SUNPOU
 48
5.0
100
AcDbText
 10
650.0658037639668
 20
325.3831915789203
 30
0.0
 40
6.0
  1
3.5
100
AcDbText
  0
LINE
  5
91F6
330
1A
100
AcDbEntity
  8
SUNPOU
 48
5.0
100
AcDbLine
 10
646.4444483544577
 20
324.4692496687132
 30
0.0
 11
646.4444483544577
 21
331.4733984148523
 31
0.0
  0
LINE
  5
91F7
330
1A
100
AcDbEntity
  8
SEIHIN
  6
Continuous
 62
     3
 48
5.0
100
AcDbLine
 10
435.9504565217411
 20
485.1753891542215
 30
0.0
 11
470.4397565217411
 21
485.1752891542215
 31
0.0
  0
LINE
  5
91F8
330
1A
100
AcDbEntity
  8
SEIHIN
  6
Continuous
 62
     3
 48
5.0
100
AcDbLine
 10
436.0140565217411
 20
489.6752891542215
 30
0.0
 11
436.0140565217411
 21
485.4193891542213
 31
0.0
  0
ARC
  5
91F9
330
1A
100
AcDbEntity
  8
SEIHIN
  6
Continuous
 62
     3
 48
5.0
100
AcDbCircle
 10
435.5140408772307
 20
485.4193563417719
 30
0.0
 40
0.5000156455869415
100
AcDbArc
 50
309.0214719940441
 51
0.0037599120864751
  0
VIEWPORT
  5
22
330
17
100
AcDbEntity
 67
     1
  8
0
100
AcDbViewport
 10
313.6808219178082
 20
286.420032064001
 30
0.0
 40
627.3616438356164
 41
572.840064128002
 68
     2
 69
     1
 12
313.6808219178082
 22
286.420032064001
 13
0.0
 23
0.0
 14
1.0
 24
1.0
 15
10.0
 25
10.0
 16
0.0
 26
0.0
 36
1.0
 17
0.0
 27
0.0
 37
0.0
 42
50.0
 43
0.0
 44
0.0
 45
572.840064128002
 50
0.0
 51
0.0
 72
   100
 90
    32768
  1

281
     0
 71
     1
 74
     0
110
0.0
120
0.0
130
0.0
111
1.0
121
0.0
131
0.0
112
0.0
122
1.0
132
0.0
 79
     0
146
0.0
  0
VIEWPORT
  5
64
330
17
100
AcDbEntity
 67
     1
  8
VIEWPORT
100
AcDbViewport
 10
210.0
 20
148.5
 30
0.0
 40
420.0
 41
297.0
 68
     1
 69
     2
 12
420.0
 22
297.0
 13
0.0
 23
0.0
 14
10.0
 24
10.0
 15
0.0
 25
0.0
 16
0.0
 26
0.0
 36
1.0
 17
0.0
 27
0.0
 37
0.0
 42
50.0
 43
0.0
 44
0.0
 45
605.8799999999999
 50
0.0
 51
0.0
 72
   100
 90
    32768
  1

281
     0
 71
     1
 74
     0
110
0.0
120
0.0
130
0.0
111
1.0
121
0.0
131
0.0
112
0.0
122
1.0
132
0.0
 79
     0
146
0.0
  0
ENDSEC
  0
SECTION
  2
OBJECTS
  0
DICTIONARY
  5
C
330
0
100
AcDbDictionary
281
     1
  3
ACAD_GROUP
350
D
  3
ACAD_LAYOUT
350
A98
  3
ACAD_MLINESTYLE
350
E
  3
ACAD_PLOTSETTINGS
350
A99
  3
ACAD_PLOTSTYLENAME
350
A96
  0
DICTIONARY
  5
D
102
{ACAD_REACTORS
330
C
102
}
330
C
100
AcDbDictionary
281
     1
  3
*A1
350
FA3
  3
*A2
350
1597
  3
*A3
350
179D
  3
*A4
350
3390
  3
*A5
350
3A0A
  0
DICTIONARY
  5
A98
102
{ACAD_REACTORS
330
C
102
}
330
C
100
AcDbDictionary
281
     1
  3
Model
350
A9A
  3
ﾚｲｱｳﾄ1
350
A9B
  0
DICTIONARY
  5
E
102
{ACAD_REACTORS
330
C
102
}
330
C
100
AcDbDictionary
281
     1
  3
STANDARD
350
13
  0
DICTIONARY
  5
A99
102
{ACAD_REACTORS
330
C
102
}
330
C
100
AcDbDictionary
281
     1
  0
ACDBDICTIONARYWDFLT
  5
A96
102
{ACAD_REACTORS
330
C
102
}
330
C
100
AcDbDictionary
281
     1
  3
Normal
350
A97
100
AcDbDictionaryWithDefault
340
A97
1001
ACAD
1000
TREAT_AS_HARD
1070
     0
1000
TREAT_AS_HARD
1070
     0
1000
TREAT_AS_HARD
1070
     0
1000
TREAT_AS_HARD
1070
     0
  0
GROUP
  5
FA3
102
{ACAD_REACTORS
330
D
102
}
330
D
100
AcDbGroup
300

 70
     1
 71
     1
  0
GROUP
  5
1597
102
{ACAD_REACTORS
330
D
102
}
330
D
100
AcDbGroup
300

 70
     1
 71
     1
  0
GROUP
  5
179D
102
{ACAD_REACTORS
330
D
102
}
330
D
100
AcDbGroup
300

 70
     1
 71
     1
  0
GROUP
  5
3390
102
{ACAD_REACTORS
330
D
102
}
330
D
100
AcDbGroup
300

 70
     1
 71
     1
  0
GROUP
  5
3A0A
102
{ACAD_REACTORS
330
D
102
}
330
D
100
AcDbGroup
300

 70
     1
 71
     1
  0
LAYOUT
  5
A9A
102
{ACAD_REACTORS
330
A98
102
}
330
A98
100
AcDbPlotSettings
  1

  2
Adobe PDF
  4
A3
  6

 40
3.174999952316284
 41
3.174999952316284
 42
3.17498779296875
 43
3.17498779296875
 44
297.0318298339844
 45
420.1583251953125
 46
2.67
 47
2.85
 48
-8.09872987394283
 49
-9.441603207410708
140
808.114529312747
141
561.2334822198422
142
1.0
143
2.0
 70
 28340
 72
     1
 73
     1
 74
     4
  7
systemprinter.ctb
 75
    17
147
0.5
148
8.09872987394283
149
9.441603207410708
100
AcDbLayout
  1
Model
 70
     1
 71
     0
 10
0.0
 20
0.0
 11
12.0
 21
9.0
 12
0.0
 22
0.0
 32
0.0
 14
0.0
 24
0.0
 34
0.0
 15
0.0
 25
0.0
 35
0.0
146
0.0
 13
0.0
 23
0.0
 33
0.0
 16
1.0
 26
0.0
 36
0.0
 17
0.0
 27
1.0
 37
0.0
 76
     0
330
1A
  0
LAYOUT
  5
A9B
102
{ACAD_REACTORS
330
A98
102
}
330
A98
100
AcDbPlotSettings
  1

  2
C:\PROGRAM FILES\ACAD LT 2000\plotters\DWF ePlot.pc3
  4
ANSI_A_(8.50_x_11.00_Inches)
  6

 40
5.793749809265137
 41
17.79375076293945
 42
5.793746948242188
 43
17.79376220703125
 44
215.8999938964844
 45
279.3999938964844
 46
0.0
 47
0.0
 48
0.0
 49
0.0
140
0.0
141
0.0
142
1.0
143
43.75760864458461
 70
   688
 72
     0
 73
     1
 74
     1
  7
systemprinter.ctb
 75
     0
147
0.0228531684197454
148
0.3255366854427166
149
0.2302009418498301
100
AcDbLayout
  1
ﾚｲｱｳﾄ1
 70
     1
 71
     1
 10
-30.66685116754002
 20
-9.990190459854741
 11
450.6668334081172
 21
361.9494725043409
 12
0.0
 22
0.0
 32
0.0
 14
-0.0128164049386896
 24
-0.0090630292066862
 34
-0.0015258207003583
 15
420.0128183607162
 25
297.0090644122207
 35
0.0000000349246037
146
0.0
 13
0.0
 23
0.0
 33
0.0
 16
1.0
 26
0.0
 36
0.0
 17
0.0
 27
1.0
 37
0.0
 76
     0
330
17
331
64
  0
MLINESTYLE
  5
13
102
{ACAD_REACTORS
330
E
102
}
330
E
100
AcDbMlineStyle
  2
STANDARD
 70
     0
  3

 62
     0
 51
90.0
 52
90.0
 71
     2
 49
0.5
 62
   256
  6
BYLAYER
 49
-0.5
 62
   256
  6
BYLAYER
  0
ACDBPLACEHOLDER
  5
A97
102
{ACAD_REACTORS
330
A96
102
}
330
A96
  0
ENDSEC
  0
EOF
