  0
SECTION
  2
HEADER
  9
$ACADVER
  1
AC1015
  9
$ACADMAINTVER
 70
     6
  9
$DWGCODEPAGE
  3
ANSI_932
  9
$INSBASE
 10
0.0
 20
0.0
 30
0.0
  9
$EXTMIN
 10
0.0000000135560185
 20
-0.0000001317113174
 30
0.0
  9
$EXTMAX
 10
797.6000000135562
 20
551.5999998682888
 30
0.0
  9
$LIMMIN
 10
0.0
 20
0.0
  9
$LIMMAX
 10
840.0
 20
594.0
  9
$ORTHOMODE
 70
     0
  9
$REGENMODE
 70
     1
  9
$FILLMODE
 70
     1
  9
$QTEXTMODE
 70
     0
  9
$MIRRTEXT
 70
     1
  9
$LTSCALE
 40
2.0
  9
$ATTMODE
 70
     1
  9
$TEXTSIZE
 40
6.0
  9
$TRACEWID
 40
1.0
  9
$TEXTSTYLE
  7
STANDARD
  9
$CLAYER
  8
SEIHIN
  9
$CELTYPE
  6
BYLAYER
  9
$CECOLOR
 62
   256
  9
$CELTSCALE
 40
1.0
  9
$DISPSILH
 70
     0
  9
$DIMSCALE
 40
1.0
  9
$DIMASZ
 40
7.0
  9
$DIMEXO
 40
6.0
  9
$DIMDLI
 40
14.0
  9
$DIMRND
 40
0.0
  9
$DIMDLE
 40
0.0
  9
$DIMEXE
 40
3.0
  9
$DIMTP
 40
0.0
  9
$DIMTM
 40
0.0
  9
$DIMTXT
 40
6.0
  9
$DIMCEN
 40
150.0
  9
$DIMTSZ
 40
0.0
  9
$DIMTOL
 70
     0
  9
$DIMLIM
 70
     0
  9
$DIMTIH
 70
     0
  9
$DIMTOH
 70
     0
  9
$DIMSE1
 70
     0
  9
$DIMSE2
 70
     0
  9
$DIMTAD
 70
     3
  9
$DIMZIN
 70
     0
  9
$DIMBLK
  1

  9
$DIMASO
 70
     1
  9
$DIMSHO
 70
     1
  9
$DIMPOST
  1

  9
$DIMAPOST
  1

  9
$DIMALT
 70
     0
  9
$DIMALTD
 70
     2
  9
$DIMALTF
 40
25.4
  9
$DIMLFAC
 40
1.0
  9
$DIMTOFL
 70
     1
  9
$DIMTVP
 40
0.0
  9
$DIMTIX
 70
     0
  9
$DIMSOXD
 70
     0
  9
$DIMSAH
 70
     1
  9
$DIMBLK1
  1
OPEN
  9
$DIMBLK2
  1
OPEN
  9
$DIMSTYLE
  2
STANDARD
  9
$DIMCLRD
 70
   256
  9
$DIMCLRE
 70
   256
  9
$DIMCLRT
 70
   256
  9
$DIMTFAC
 40
1.0
  9
$DIMGAP
 40
2.0
  9
$DIMJUST
 70
     0
  9
$DIMSD1
 70
     0
  9
$DIMSD2
 70
     0
  9
$DIMTOLJ
 70
     1
  9
$DIMTZIN
 70
     0
  9
$DIMALTZ
 70
     0
  9
$DIMALTTZ
 70
     0
  9
$DIMUPT
 70
     0
  9
$DIMDEC
 70
     0
  9
$DIMTDEC
 70
     0
  9
$DIMALTU
 70
     2
  9
$DIMALTTD
 70
     2
  9
$DIMTXSTY
  7
STANDARD
  9
$DIMAUNIT
 70
     0
  9
$DIMADEC
 70
     0
  9
$DIMALTRND
 40
0.0
  9
$DIMAZIN
 70
     0
  9
$DIMDSEP
 70
    46
  9
$DIMATFIT
 70
     3
  9
$DIMFRAC
 70
     0
  9
$DIMLDRBLK
  1
OPEN
  9
$DIMLUNIT
 70
     2
  9
$DIMLWD
 70
    -1
  9
$DIMLWE
 70
    -1
  9
$DIMTMOVE
 70
     0
  9
$LUNITS
 70
     2
  9
$LUPREC
 70
     4
  9
$SKETCHINC
 40
1.0
  9
$FILLETRAD
 40
10.0
  9
$AUNITS
 70
     0
  9
$AUPREC
 70
     0
  9
$MENU
  1
.
  9
$ELEVATION
 40
0.0
  9
$PELEVATION
 40
0.0
  9
$THICKNESS
 40
0.0
  9
$LIMCHECK
 70
     0
  9
$CHAMFERA
 40
0.0
  9
$CHAMFERB
 40
0.0
  9
$CHAMFERC
 40
40.0
  9
$CHAMFERD
 40
0.0
  9
$SKPOLY
 70
     0
  9
$TDCREATE
 40
2451030.614786227
  9
$TDUCREATE
 40
2451030.239786227
  9
$TDUPDATE
 40
2455609.407043032
  9
$TDUUPDATE
 40
2455609.032043032
  9
$TDINDWG
 40
0.3457921528
  9
$TDUSRTIMER
 40
0.3457921528
  9
$USRTIMER
 70
     1
  9
$ANGBASE
 50
0.0
  9
$ANGDIR
 70
     0
  9
$PDMODE
 70
     0
  9
$PDSIZE
 40
0.0
  9
$PLINEWID
 40
0.0
  9
$SPLFRAME
 70
     0
  9
$SPLINETYPE
 70
     6
  9
$SPLINESEGS
 70
     8
  9
$HANDSEED
  5
97D9
  9
$SURFTAB1
 70
     6
  9
$SURFTAB2
 70
     6
  9
$SURFTYPE
 70
     6
  9
$SURFU
 70
     6
  9
$SURFV
 70
     6
  9
$UCSBASE
  2

  9
$UCSNAME
  2

  9
$UCSORG
 10
0.0
 20
0.0
 30
0.0
  9
$UCSXDIR
 10
1.0
 20
0.0
 30
0.0
  9
$UCSYDIR
 10
0.0
 20
1.0
 30
0.0
  9
$UCSORTHOREF
  2

  9
$UCSORTHOVIEW
 70
     0
  9
$UCSORGTOP
 10
0.0
 20
0.0
 30
0.0
  9
$UCSORGBOTTOM
 10
0.0
 20
0.0
 30
0.0
  9
$UCSORGLEFT
 10
0.0
 20
0.0
 30
0.0
  9
$UCSORGRIGHT
 10
0.0
 20
0.0
 30
0.0
  9
$UCSORGFRONT
 10
0.0
 20
0.0
 30
0.0
  9
$UCSORGBACK
 10
0.0
 20
0.0
 30
0.0
  9
$PUCSBASE
  2

  9
$PUCSNAME
  2

  9
$PUCSORG
 10
0.0
 20
0.0
 30
0.0
  9
$PUCSXDIR
 10
1.0
 20
0.0
 30
0.0
  9
$PUCSYDIR
 10
0.0
 20
1.0
 30
0.0
  9
$PUCSORTHOREF
  2

  9
$PUCSORTHOVIEW
 70
     0
  9
$PUCSORGTOP
 10
0.0
 20
0.0
 30
0.0
  9
$PUCSORGBOTTOM
 10
0.0
 20
0.0
 30
0.0
  9
$PUCSORGLEFT
 10
0.0
 20
0.0
 30
0.0
  9
$PUCSORGRIGHT
 10
0.0
 20
0.0
 30
0.0
  9
$PUCSORGFRONT
 10
0.0
 20
0.0
 30
0.0
  9
$PUCSORGBACK
 10
0.0
 20
0.0
 30
0.0
  9
$USERI1
 70
     0
  9
$USERI2
 70
     0
  9
$USERI3
 70
     0
  9
$USERI4
 70
     0
  9
$USERI5
 70
     0
  9
$USERR1
 40
0.0
  9
$USERR2
 40
0.0
  9
$USERR3
 40
0.0
  9
$USERR4
 40
0.0
  9
$USERR5
 40
0.0
  9
$WORLDVIEW
 70
     1
  9
$SHADEDGE
 70
     3
  9
$SHADEDIF
 70
    70
  9
$TILEMODE
 70
     1
  9
$MAXACTVP
 70
    16
  9
$PINSBASE
 10
0.0
 20
0.0
 30
0.0
  9
$PLIMCHECK
 70
     0
  9
$PEXTMIN
 10
-0.0128164049386896
 20
-0.0090630292066862
 30
-0.0015258207003583
  9
$PEXTMAX
 10
420.0128183607162
 20
297.0090644122207
 30
0.0000000349246037
  9
$PLIMMIN
 10
-30.66685116754002
 20
-9.990190459854741
  9
$PLIMMAX
 10
450.6668334081172
 20
361.9494725043409
  9
$UNITMODE
 70
     0
  9
$VISRETAIN
 70
     0
  9
$PLINEGEN
 70
     0
  9
$PSLTSCALE
 70
     1
  9
$TREEDEPTH
 70
  3020
  9
$CMLSTYLE
  2
STANDARD
  9
$CMLJUST
 70
     0
  9
$CMLSCALE
 40
1.0
  9
$PROXYGRAPHICS
 70
     1
  9
$MEASUREMENT
 70
     0
  9
$CELWEIGHT
370
    -1
  9
$ENDCAPS
280
     0
  9
$JOINSTYLE
280
     0
  9
$LWDISPLAY
290
     0
  9
$INSUNITS
 70
     0
  9
$HYPERLINKBASE
  1

  9
$STYLESHEET
  1
systemprinter.ctb
  9
$XEDIT
290
     1
  9
$CEPSNTYPE
380
     0
  9
$PSTYLEMODE
290
     1
  9
$FINGERPRINTGUID
  2
{91E25F26-0CBF-4C93-982E-B5F00895E654}
  9
$VERSIONGUID
  2
{DC00FC2E-C5C1-4553-874C-59952B3C6FA0}
  9
$EXTNAMES
290
     1
  9
$PSVPSCALE
 40
0.0
  9
$OLESTARTUP
290
     0
  0
ENDSEC
  0
SECTION
  2
CLASSES
  0
CLASS
  1
ACDBDICTIONARYWDFLT
  2
AcDbDictionaryWithDefault
  3
ObjectDBX Classes
 90
        0
280
     0
281
     0
  0
CLASS
  1
ACDBPLACEHOLDER
  2
AcDbPlaceHolder
  3
ObjectDBX Classes
 90
        0
280
     0
281
     0
  0
CLASS
  1
LAYOUT
  2
AcDbLayout
  3
ObjectDBX Classes
 90
        0
280
     0
281
     0
  0
CLASS
  1
DUMMY
  2
AcDbLongTransaction
  3
DUMMY
 90
        0
280
     0
281
     0
  0
CLASS
  1
LWPOLYLINE
  2
AcDbPolyline
  3
AutoCAD 2000
 90
        0
280
     0
281
     1
  0
CLASS
  1
HATCH
  2
AcDbHatch
  3
AutoCAD 2000
 90
        0
280
     0
281
     1
  0
CLASS
  1
XRECORD
  2
AcDbXrecord
  3
AutoCAD 2000
 90
        0
280
     0
281
     0
  0
CLASS
  1
DUMMY
  2
AcDbLongTransaction
  3
DUMMY
 90
        0
280
     0
281
     0
  0
CLASS
  1
LWPOLYLINE
  2
AcDbPolyline
  3
AutoCAD 2000
 90
        0
280
     0
281
     1
  0
CLASS
  1
HATCH
  2
AcDbHatch
  3
AutoCAD 2000
 90
        0
280
     0
281
     1
  0
CLASS
  1
XRECORD
  2
AcDbXrecord
  3
AutoCAD 2000
 90
        0
280
     0
281
     0
  0
CLASS
  1
DUMMY
  2
AcDbLongTransaction
  3
DUMMY
 90
        0
280
     0
281
     0
  0
CLASS
  1
LWPOLYLINE
  2
AcDbPolyline
  3
AutoCAD 2000
 90
        0
280
     0
281
     1
  0
CLASS
  1
HATCH
  2
AcDbHatch
  3
AutoCAD 2000
 90
        0
280
     0
281
     1
  0
CLASS
  1
XRECORD
  2
AcDbXrecord
  3
AutoCAD 2000
 90
        0
280
     0
281
     0
  0
CLASS
  1
DUMMY
  2
AcDbLongTransaction
  3
DUMMY
 90
        0
280
     0
281
     0
  0
CLASS
  1
LWPOLYLINE
  2
AcDbPolyline
  3
AutoCAD 2000
 90
        0
280
     0
281
     1
  0
CLASS
  1
HATCH
  2
AcDbHatch
  3
AutoCAD 2000
 90
        0
280
     0
281
     1
  0
CLASS
  1
XRECORD
  2
AcDbXrecord
  3
AutoCAD 2000
 90
        0
280
     0
281
     0
  0
CLASS
  1
DUMMY
  2
AcDbLongTransaction
  3
DUMMY
 90
        0
280
     0
281
     0
  0
CLASS
  1
LWPOLYLINE
  2
AcDbPolyline
  3
AutoCAD 2000
 90
        0
280
     0
281
     1
  0
CLASS
  1
HATCH
  2
AcDbHatch
  3
AutoCAD 2000
 90
        0
280
     0
281
     1
  0
CLASS
  1
XRECORD
  2
AcDbXrecord
  3
AutoCAD 2000
 90
        0
280
     0
281
     0
  0
ENDSEC
  0
SECTION
  2
TABLES
  0
TABLE
  2
VPORT
  5
8
330
0
100
AcDbSymbolTable
 70
     2
  0
VPORT
  5
97D8
330
8
100
AcDbSymbolTableRecord
100
AcDbViewportTableRecord
  2
*Active
 70
     0
 10
0.0
 20
0.0
 11
1.0
 21
1.0
 12
412.2226257216639
 22
300.8918870899082
 13
0.0
 23
0.0
 14
5.0
 24
5.0
 15
0.0
 25
0.0
 16
0.0
 26
0.0
 36
1.0
 17
0.0
 27
0.0
 37
0.0
 40
637.4060456597227
 41
1.651537335285505
 42
50.0
 43
0.0
 44
0.0
 50
0.0
 51
0.0
 71
     0
 72
   100
 73
     1
 74
     0
 75
     0
 76
     0
 77
     0
 78
     0
281
     0
 65
     1
110
0.0
120
0.0
130
0.0
111
1.0
121
0.0
131
0.0
112
0.0
122
1.0
132
0.0
 79
     0
146
0.0
  0
ENDTAB
  0
TABLE
  2
LTYPE
  5
5
330
0
100
AcDbSymbolTable
 70
     3
  0
LTYPE
  5
14
330
5
100
AcDbSymbolTableRecord
100
AcDbLinetypeTableRecord
  2
BYBLOCK
 70
     0
  3

 72
    65
 73
     0
 40
0.0
  0
LTYPE
  5
15
330
5
100
AcDbSymbolTableRecord
100
AcDbLinetypeTableRecord
  2
BYLAYER
 70
     0
  3

 72
    65
 73
     0
 40
0.0
  0
LTYPE
  5
16
330
5
100
AcDbSymbolTableRecord
100
AcDbLinetypeTableRecord
  2
CONTINUOUS
 70
     0
  3
Solid line
 72
    65
 73
     0
 40
0.0
  0
LTYPE
  5
135
330
5
100
AcDbSymbolTableRecord
100
AcDbLinetypeTableRecord
  2
CENTER
 70
     0
  3
____ _ ____ _ ____ _ ____ _ ____ _ ____ _ ____ 
 72
    65
 73
     4
 40
2.0
 49
1.25
 74
     0
 49
-0.25
 74
     0
 49
0.25
 74
     0
 49
-0.25
 74
     0
  0
LTYPE
  5
8279
330
5
100
AcDbSymbolTableRecord
100
AcDbLinetypeTableRecord
  2
PHANTOM
 70
     0
  3
______  __  __  ______  __  __  ______  __  __ 
 72
    65
 73
     6
 40
2.5
 49
1.25
 74
     0
 49
-0.25
 74
     0
 49
0.25
 74
     0
 49
-0.25
 74
     0
 49
0.25
 74
     0
 49
-0.25
 74
     0
  0
ENDTAB
  0
TABLE
  2
LAYER
  5
2
330
0
100
AcDbSymbolTable
 70
     8
  0
LAYER
  5
F
330
2
100
AcDbSymbolTableRecord
100
AcDbLayerTableRecord
  2
0
 70
     0
 62
     7
  6
CONTINUOUS
370
    -3
390
A97
  0
LAYER
  5
62
330
2
100
AcDbSymbolTableRecord
100
AcDbLayerTableRecord
  2
VIEWPORT
 70
     0
 62
     7
  6
CONTINUOUS
370
    -3
390
A97
  0
LAYER
  5
143
330
2
100
AcDbSymbolTableRecord
100
AcDbLayerTableRecord
  2
SEIHIN
 70
     0
 62
     3
  6
CONTINUOUS
370
    -3
390
A97
  0
LAYER
  5
444
330
2
100
AcDbSymbolTableRecord
100
AcDbLayerTableRecord
  2
DEFPOINTS
 70
     0
 62
     7
  6
CONTINUOUS
290
     0
370
    -3
390
A97
  0
LAYER
  5
482
330
2
100
AcDbSymbolTableRecord
100
AcDbLayerTableRecord
  2
SUNPOU
 70
     0
 62
     4
  6
CONTINUOUS
370
    -3
390
A97
  0
LAYER
  5
5D4
330
2
100
AcDbSymbolTableRecord
100
AcDbLayerTableRecord
  2
CENTER L
 70
     0
 62
     1
  6
CENTER
370
    -3
390
A97
  0
LAYER
  5
3D95
330
2
100
AcDbSymbolTableRecord
100
AcDbLayerTableRecord
  2
ZUWAKU
 70
     0
 62
     7
  6
CONTINUOUS
370
    -3
390
A97
  0
LAYER
  5
3D96
330
2
100
AcDbSymbolTableRecord
100
AcDbLayerTableRecord
  2
moji
 70
     0
 62
     2
  6
CONTINUOUS
370
    -3
390
A97
  0
ENDTAB
  0
TABLE
  2
STYLE
  5
3
330
0
100
AcDbSymbolTable
 70
     2
  0
STYLE
  5
10
330
3
100
AcDbSymbolTableRecord
100
AcDbTextStyleTableRecord
  2
STANDARD
 70
     0
 40
0.0
 41
1.0
 50
0.0
 71
     0
 42
6.0
  3
TXT
  4
bigfont.shx
  0
STYLE
  5
3D97
330
3
100
AcDbSymbolTableRecord
100
AcDbTextStyleTableRecord
  2
ｽﾀｲﾙ1
 70
     0
 40
0.0
 41
1.0
 50
0.0
 71
     0
 42
2.5
  3
MS PGothic.ttf
  4

1001
ACAD
1000
MS PGothic
1071
    32818
  0
ENDTAB
  0
TABLE
  2
VIEW
  5
6
330
0
100
AcDbSymbolTable
 70
     0
  0
ENDTAB
  0
TABLE
  2
UCS
  5
7
330
0
100
AcDbSymbolTable
 70
     0
  0
ENDTAB
  0
TABLE
  2
APPID
  5
9
330
0
100
AcDbSymbolTable
 70
     1
  0
APPID
  5
11
330
9
100
AcDbSymbolTableRecord
100
AcDbRegAppTableRecord
  2
ACAD
 70
     0
  0
ENDTAB
  0
TABLE
  2
DIMSTYLE
  5
A
330
0
100
AcDbSymbolTable
 70
     1
100
AcDbDimStyleTable
  0
DIMSTYLE
105
1D
102
{ACAD_REACTORS
330
9559
330
955A
330
955B
330
9563
330
9573
330
9574
330
95B5
330
95BE
330
95BF
330
95C0
330
95C7
330
95D1
330
9634
330
963A
330
963B
330
963C
330
9645
102
}
330
A
100
AcDbSymbolTableRecord
100
AcDbDimStyleTableRecord
  2
STANDARD
 70
     0
340
10
  0
ENDTAB
  0
TABLE
  2
BLOCK_RECORD
  5
1
330
0
100
AcDbSymbolTable
 70
    18
  0
BLOCK_RECORD
  5
1A
330
1
100
AcDbSymbolTableRecord
100
AcDbBlockTableRecord
  2
*MODEL_SPACE
340
A9A
  0
BLOCK_RECORD
  5
17
330
1
100
AcDbSymbolTableRecord
100
AcDbBlockTableRecord
  2
*PAPER_SPACE
340
A9B
  0
BLOCK_RECORD
  5
6D
330
1
100
AcDbSymbolTableRecord
100
AcDbBlockTableRecord
  2
_OPEN
340
0
102
{BLKREFS
331
9733
331
9734
331
973C
331
973D
331
9745
331
9746
331
974E
331
974F
331
9757
331
9758
331
9762
331
9763
331
976B
331
976C
331
9776
331
9777
331
977F
331
9780
331
9788
331
9789
331
9791
331
9792
331
979A
331
979B
331
97A5
331
97A6
331
97B0
331
97B1
331
97B9
331
97BA
331
97C2
331
97C3
331
97CB
331
97CC
102
}
  0
BLOCK_RECORD
  5
965C
330
1
100
AcDbSymbolTableRecord
100
AcDbBlockTableRecord
  2
*D1
340
0
  0
BLOCK_RECORD
  5
9668
330
1
100
AcDbSymbolTableRecord
100
AcDbBlockTableRecord
  2
*D2
340
0
  0
BLOCK_RECORD
  5
9674
330
1
100
AcDbSymbolTableRecord
100
AcDbBlockTableRecord
  2
*D3
340
0
  0
BLOCK_RECORD
  5
9680
330
1
100
AcDbSymbolTableRecord
100
AcDbBlockTableRecord
  2
*D4
340
0
  0
BLOCK_RECORD
  5
968C
330
1
100
AcDbSymbolTableRecord
100
AcDbBlockTableRecord
  2
*D5
340
0
  0
BLOCK_RECORD
  5
9698
330
1
100
AcDbSymbolTableRecord
100
AcDbBlockTableRecord
  2
*D6
340
0
  0
BLOCK_RECORD
  5
96A6
330
1
100
AcDbSymbolTableRecord
100
AcDbBlockTableRecord
  2
*D7
340
0
  0
BLOCK_RECORD
  5
96B2
330
1
100
AcDbSymbolTableRecord
100
AcDbBlockTableRecord
  2
*D8
340
0
  0
BLOCK_RECORD
  5
96C0
330
1
100
AcDbSymbolTableRecord
100
AcDbBlockTableRecord
  2
*D9
340
0
  0
BLOCK_RECORD
  5
96CC
330
1
100
AcDbSymbolTableRecord
100
AcDbBlockTableRecord
  2
*D10
340
0
  0
BLOCK_RECORD
  5
96D8
330
1
100
AcDbSymbolTableRecord
100
AcDbBlockTableRecord
  2
*D11
340
0
  0
BLOCK_RECORD
  5
96E4
330
1
100
AcDbSymbolTableRecord
100
AcDbBlockTableRecord
  2
*D12
340
0
  0
BLOCK_RECORD
  5
96F0
330
1
100
AcDbSymbolTableRecord
100
AcDbBlockTableRecord
  2
*D13
340
0
  0
BLOCK_RECORD
  5
96FE
330
1
100
AcDbSymbolTableRecord
100
AcDbBlockTableRecord
  2
*D14
340
0
  0
BLOCK_RECORD
  5
970C
330
1
100
AcDbSymbolTableRecord
100
AcDbBlockTableRecord
  2
*D15
340
0
  0
BLOCK_RECORD
  5
9718
330
1
100
AcDbSymbolTableRecord
100
AcDbBlockTableRecord
  2
*D16
340
0
  0
BLOCK_RECORD
  5
9724
330
1
100
AcDbSymbolTableRecord
100
AcDbBlockTableRecord
  2
*D17
340
0
  0
ENDTAB
  0
ENDSEC
  0
SECTION
  2
BLOCKS
  0
BLOCK
  5
1B
330
1A
100
AcDbEntity
  8
0
100
AcDbBlockBegin
  2
*MODEL_SPACE
 70
     0
 71
     0
 10
0.0
 20
0.0
 30
0.0
  3
*MODEL_SPACE
  1

  0
ENDBLK
  5
1C
330
1A
100
AcDbEntity
  8
0
100
AcDbBlockEnd
  0
BLOCK
  5
18
330
17
100
AcDbEntity
 67
     1
  8
0
100
AcDbBlockBegin
  2
*PAPER_SPACE
 70
     0
 71
     0
 10
0.0
 20
0.0
 30
0.0
  3
*PAPER_SPACE
  1

  0
ENDBLK
  5
19
330
17
100
AcDbEntity
 67
     1
  8
0
100
AcDbBlockEnd
  0
BLOCK
  5
6E
330
6D
100
AcDbEntity
  8
0
100
AcDbBlockBegin
  2
_OPEN
 70
     0
 71
     0
 10
0.0
 20
0.0
 30
0.0
  3
_OPEN
  1

  0
LINE
  5
6F
330
6D
100
AcDbEntity
  8
0
  6
ByBlock
 62
     0
100
AcDbLine
 10
-1.0
 20
0.1666666666666667
 30
0.0
 11
0.0
 21
0.0
 31
0.0
  0
LINE
  5
70
330
6D
100
AcDbEntity
  8
0
  6
ByBlock
 62
     0
100
AcDbLine
 10
0.0
 20
0.0
 30
0.0
 11
-1.0
 21
-0.1666666666666667
 31
0.0
  0
LINE
  5
71
330
6D
100
AcDbEntity
  8
0
  6
ByBlock
 62
     0
100
AcDbLine
 10
0.0
 20
0.0
 30
0.0
 11
-1.0
 21
0.0
 31
0.0
  0
ENDBLK
  5
72
330
6D
100
AcDbEntity
  8
0
100
AcDbBlockEnd
  0
BLOCK
  5
9666
330
965C
100
AcDbEntity
  8
0
100
AcDbBlockBegin
  2
*D1
 70
     1
 71
     0
 10
0.0
 20
0.0
 30
0.0
  3
*D1
  1

  0
LINE
  5
9730
330
965C
100
AcDbEntity
  8
SUNPOU
 62
     4
370
    -2
100
AcDbLine
 10
585.3846190329257
 20
471.4366378839914
 30
0.0
 11
585.3846190329257
 21
443.3204029816239
 31
0.0
  0
LINE
  5
9731
330
965C
100
AcDbEntity
  8
SUNPOU
 62
     4
370
    -2
100
AcDbLine
 10
295.1086190329257
 20
471.4366378839914
 30
0.0
 11
295.1086190329257
 21
443.3204029816239
 31
0.0
  0
LINE
  5
9732
330
965C
100
AcDbEntity
  8
SUNPOU
 62
     4
370
    -2
100
AcDbLine
 10
578.3846190329257
 20
446.3204029816239
 30
0.0
 11
302.1086190329257
 21
446.3204029816239
 31
0.0
  0
INSERT
  5
9733
330
965C
100
AcDbEntity
  8
SUNPOU
 62
     4
370
    -2
100
AcDbBlockReference
  2
_OPEN
 10
585.3846190329257
 20
446.3204029816239
 30
0.0
 41
7.0
 42
7.0
 43
7.0
  0
INSERT
  5
9734
330
965C
100
AcDbEntity
  8
SUNPOU
 62
     4
370
    -2
100
AcDbBlockReference
  2
_OPEN
 10
295.1086190329257
 20
446.3204029816239
 30
0.0
 41
7.0
 42
7.0
 43
7.0
 50
180.0
  0
MTEXT
  5
9735
330
965C
100
AcDbEntity
  8
SUNPOU
 62
     4
100
AcDbMText
 10
440.2466190329257
 20
451.3204029816239
 30
0.0
 40
6.0
 41
0.0
 71
     5
 72
     1
  1
\A1;290
 73
     1
 44
1.0
  0
POINT
  5
9736
330
965C
100
AcDbEntity
  8
DEFPOINTS
 62
     0
100
AcDbPoint
 10
585.3846190329257
 20
477.4366378839914
 30
0.0
  0
POINT
  5
9737
330
965C
100
AcDbEntity
  8
DEFPOINTS
 62
     0
100
AcDbPoint
 10
295.1086190329257
 20
477.4366378839914
 30
0.0
  0
POINT
  5
9738
330
965C
100
AcDbEntity
  8
DEFPOINTS
 62
     0
100
AcDbPoint
 10
295.1086190329257
 20
446.3204029816239
 30
0.0
  0
ENDBLK
  5
9667
330
965C
100
AcDbEntity
  8
0
100
AcDbBlockEnd
  0
BLOCK
  5
9672
330
9668
100
AcDbEntity
  8
0
100
AcDbBlockBegin
  2
*D2
 70
     1
 71
     0
 10
0.0
 20
0.0
 30
0.0
  3
*D2
  1

  0
LINE
  5
9739
330
9668
100
AcDbEntity
  8
SUNPOU
 62
     4
370
    -2
100
AcDbLine
 10
328.708047769182
 20
89.15619825257616
 30
0.0
 11
328.708047769182
 21
58.1138607361284
 31
0.0
  0
LINE
  5
973A
330
9668
100
AcDbEntity
  8
SUNPOU
 62
     4
370
    -2
100
AcDbLine
 10
422.3446572873647
 20
89.15619825257616
 30
0.0
 11
422.3446572873647
 21
58.1138607361284
 31
0.0
  0
LINE
  5
973B
330
9668
100
AcDbEntity
  8
SUNPOU
 62
     4
370
    -2
100
AcDbLine
 10
335.708047769182
 20
61.1138607361284
 30
0.0
 11
415.3446572873647
 21
61.1138607361284
 31
0.0
  0
INSERT
  5
973C
330
9668
100
AcDbEntity
  8
SUNPOU
 62
     4
370
    -2
100
AcDbBlockReference
  2
_OPEN
 10
328.708047769182
 20
61.1138607361284
 30
0.0
 41
7.0
 42
7.0
 43
7.0
 50
180.0
  0
INSERT
  5
973D
330
9668
100
AcDbEntity
  8
SUNPOU
 62
     4
370
    -2
100
AcDbBlockReference
  2
_OPEN
 10
422.3446572873647
 20
61.1138607361284
 30
0.0
 41
7.0
 42
7.0
 43
7.0
  0
MTEXT
  5
973E
330
9668
100
AcDbEntity
  8
SUNPOU
 62
     4
100
AcDbMText
 10
375.5263525282734
 20
66.1138607361284
 30
0.0
 40
6.0
 41
0.0
 71
     5
 72
     1
  1
\A1;94
 73
     1
 44
1.0
  0
POINT
  5
973F
330
9668
100
AcDbEntity
  8
DEFPOINTS
 62
     0
100
AcDbPoint
 10
328.708047769182
 20
95.15619825257616
 30
0.0
  0
POINT
  5
9740
330
9668
100
AcDbEntity
  8
DEFPOINTS
 62
     0
100
AcDbPoint
 10
422.3446572873647
 20
95.15619825257616
 30
0.0
  0
POINT
  5
9741
330
9668
100
AcDbEntity
  8
DEFPOINTS
 62
     0
100
AcDbPoint
 10
422.3446572873647
 20
61.1138607361284
 30
0.0
  0
ENDBLK
  5
9673
330
9668
100
AcDbEntity
  8
0
100
AcDbBlockEnd
  0
BLOCK
  5
967E
330
9674
100
AcDbEntity
  8
0
100
AcDbBlockBegin
  2
*D3
 70
     1
 71
     0
 10
0.0
 20
0.0
 30
0.0
  3
*D3
  1

  0
LINE
  5
9742
330
9674
100
AcDbEntity
  8
SUNPOU
 62
     4
370
    -2
100
AcDbLine
 10
295.1086190329257
 20
182.7123982525763
 30
0.0
 11
295.1086190329257
 21
208.9463254014141
 31
0.0
  0
LINE
  5
9743
330
9674
100
AcDbEntity
  8
SUNPOU
 62
     4
370
    -2
100
AcDbLine
 10
434.3235690329256
 20
201.6752982525762
 30
0.0
 11
434.3235690329256
 21
208.9463254014141
 31
0.0
  0
LINE
  5
9744
330
9674
100
AcDbEntity
  8
SUNPOU
 62
     4
370
    -2
100
AcDbLine
 10
302.1086190329257
 20
205.9463254014141
 30
0.0
 11
427.3235690329256
 21
205.9463254014141
 31
0.0
  0
INSERT
  5
9745
330
9674
100
AcDbEntity
  8
SUNPOU
 62
     4
370
    -2
100
AcDbBlockReference
  2
_OPEN
 10
295.1086190329257
 20
205.9463254014141
 30
0.0
 41
7.0
 42
7.0
 43
7.0
 50
180.0
  0
INSERT
  5
9746
330
9674
100
AcDbEntity
  8
SUNPOU
 62
     4
370
    -2
100
AcDbBlockReference
  2
_OPEN
 10
434.3235690329256
 20
205.9463254014141
 30
0.0
 41
7.0
 42
7.0
 43
7.0
  0
MTEXT
  5
9747
330
9674
100
AcDbEntity
  8
SUNPOU
 62
     4
100
AcDbMText
 10
364.7160940329256
 20
210.9463254014141
 30
0.0
 40
6.0
 41
0.0
 71
     5
 72
     1
  1
\A1;139
 73
     1
 44
1.0
  0
POINT
  5
9748
330
9674
100
AcDbEntity
  8
DEFPOINTS
 62
     0
100
AcDbPoint
 10
295.1086190329257
 20
176.7123982525763
 30
0.0
  0
POINT
  5
9749
330
9674
100
AcDbEntity
  8
DEFPOINTS
 62
     0
100
AcDbPoint
 10
434.3235690329256
 20
195.6752982525762
 30
0.0
  0
POINT
  5
974A
330
9674
100
AcDbEntity
  8
DEFPOINTS
 62
     0
100
AcDbPoint
 10
434.3235690329256
 20
205.9463254014141
 30
0.0
  0
ENDBLK
  5
967F
330
9674
100
AcDbEntity
  8
0
100
AcDbBlockEnd
  0
BLOCK
  5
968A
330
9680
100
AcDbEntity
  8
0
100
AcDbBlockBegin
  2
*D4
 70
     1
 71
     0
 10
0.0
 20
0.0
 30
0.0
  3
*D4
  1

  0
LINE
  5
974B
330
9680
100
AcDbEntity
  8
SUNPOU
 62
     4
370
    -2
100
AcDbLine
 10
289.1086190329257
 20
176.7123982525763
 30
0.0
 11
258.6015620360336
 21
176.7123982525763
 31
0.0
  0
LINE
  5
974C
330
9680
100
AcDbEntity
  8
SUNPOU
 62
     4
370
    -2
100
AcDbLine
 10
323.2411767756205
 20
95.76939391177223
 30
0.0
 11
258.6015620360336
 21
95.76939391177224
 31
0.0
  0
LINE
  5
974D
330
9680
100
AcDbEntity
  8
SUNPOU
 62
     4
370
    -2
100
AcDbLine
 10
261.6015620360336
 20
169.7123982525763
 30
0.0
 11
261.6015620360336
 21
102.7693939117722
 31
0.0
  0
INSERT
  5
974E
330
9680
100
AcDbEntity
  8
SUNPOU
 62
     4
370
    -2
100
AcDbBlockReference
  2
_OPEN
 10
261.6015620360336
 20
176.7123982525763
 30
0.0
 41
7.0
 42
7.0
 43
7.0
 50
90.0
  0
INSERT
  5
974F
330
9680
100
AcDbEntity
  8
SUNPOU
 62
     4
370
    -2
100
AcDbBlockReference
  2
_OPEN
 10
261.6015620360336
 20
95.76939391177224
 30
0.0
 41
7.0
 42
7.0
 43
7.0
 50
270.0
  0
MTEXT
  5
9750
330
9680
100
AcDbEntity
  8
SUNPOU
 62
     4
100
AcDbMText
 10
256.6015620360336
 20
136.2408960821743
 30
0.0
 40
6.0
 41
0.0
 71
     5
 72
     1
  1
\A1;81
 11
6.123031769111886E-17
 21
1.0
 31
0.0
 73
     1
 44
1.0
  0
POINT
  5
9751
330
9680
100
AcDbEntity
  8
DEFPOINTS
 62
     0
100
AcDbPoint
 10
295.1086190329257
 20
176.7123982525763
 30
0.0
  0
POINT
  5
9752
330
9680
100
AcDbEntity
  8
DEFPOINTS
 62
     0
100
AcDbPoint
 10
329.2411767756205
 20
95.76939391177223
 30
0.0
  0
POINT
  5
9753
330
9680
100
AcDbEntity
  8
DEFPOINTS
 62
     0
100
AcDbPoint
 10
261.6015620360336
 20
95.76939391177224
 30
0.0
  0
ENDBLK
  5
968B
330
9680
100
AcDbEntity
  8
0
100
AcDbBlockEnd
  0
BLOCK
  5
9696
330
968C
100
AcDbEntity
  8
0
100
AcDbBlockBegin
  2
*D5
 70
     1
 71
     0
 10
0.0
 20
0.0
 30
0.0
  3
*D5
  1

  0
LINE
  5
9754
330
968C
100
AcDbEntity
  8
SUNPOU
 62
     4
370
    -2
100
AcDbLine
 10
283.6431190329256
 20
211.2882982525761
 30
0.0
 11
258.6015620360336
 21
211.2882982525761
 31
0.0
  0
LINE
  5
9755
330
968C
100
AcDbEntity
  8
SUNPOU
 62
     4
370
    -2
100
AcDbLine
 10
289.1086190329257
 20
176.7123982525763
 30
0.0
 11
258.6015620360336
 21
176.7123982525763
 31
0.0
  0
LINE
  5
9756
330
968C
100
AcDbEntity
  8
SUNPOU
 62
     4
370
    -2
100
AcDbLine
 10
261.6015620360336
 20
204.2882982525761
 30
0.0
 11
261.6015620360336
 21
183.7123982525763
 31
0.0
  0
INSERT
  5
9757
330
968C
100
AcDbEntity
  8
SUNPOU
 62
     4
370
    -2
100
AcDbBlockReference
  2
_OPEN
 10
261.6015620360336
 20
211.2882982525761
 30
0.0
 41
7.0
 42
7.0
 43
7.0
 50
90.0
  0
INSERT
  5
9758
330
968C
100
AcDbEntity
  8
SUNPOU
 62
     4
370
    -2
100
AcDbBlockReference
  2
_OPEN
 10
261.6015620360336
 20
176.7123982525763
 30
0.0
 41
7.0
 42
7.0
 43
7.0
 50
270.0
  0
MTEXT
  5
9759
330
968C
100
AcDbEntity
  8
SUNPOU
 62
     4
100
AcDbMText
 10
256.6015620360335
 20
194.0003482525762
 30
0.0
 40
6.0
 41
0.0
 71
     5
 72
     1
  1
\A1;35
 11
6.123031769111886E-17
 21
1.0
 31
0.0
 73
     1
 44
1.0
  0
POINT
  5
975A
330
968C
100
AcDbEntity
  8
DEFPOINTS
 62
     0
100
AcDbPoint
 10
289.6431190329256
 20
211.2882982525761
 30
0.0
  0
POINT
  5
975B
330
968C
100
AcDbEntity
  8
DEFPOINTS
 62
     0
100
AcDbPoint
 10
295.1086190329257
 20
176.7123982525763
 30
0.0
  0
POINT
  5
975C
330
968C
100
AcDbEntity
  8
DEFPOINTS
 62
     0
100
AcDbPoint
 10
261.6015620360336
 20
176.7123982525763
 30
0.0
  0
ENDBLK
  5
9697
330
968C
100
AcDbEntity
  8
0
100
AcDbBlockEnd
  0
BLOCK
  5
96A4
330
9698
100
AcDbEntity
  8
0
100
AcDbBlockBegin
  2
*D6
 70
     1
 71
     0
 10
0.0
 20
0.0
 30
0.0
  3
*D6
  1

  0
LINE
  5
975D
330
9698
100
AcDbEntity
  8
SUNPOU
 62
     4
370
    -2
100
AcDbLine
 10
315.850388442231
 20
129.7207077914642
 30
0.0
 11
315.351310633105
 21
133.2718656824381
 31
0.0
  0
LINE
  5
975E
330
9698
100
AcDbEntity
  8
SUNPOU
 62
     4
370
    -2
100
AcDbLine
 10
317.8309812133418
 20
129.9990592281855
 30
0.0
 11
317.3319034042158
 21
133.5502171191594
 31
0.0
  0
LINE
  5
975F
330
9698
100
AcDbEntity
  8
SUNPOU
 62
     4
370
    -2
100
AcDbLine
 10
324.6812964949324
 20
131.5536147055259
 30
0.0
 11
331.6131742903017
 21
132.5278170613364
 31
0.0
  0
LINE
  5
9760
330
9698
100
AcDbEntity
  8
SUNPOU
 62
     4
370
    -2
100
AcDbLine
 10
308.8369481330831
 20
129.3268585571836
 30
0.0
 11
279.7883468846424
 21
125.2443838505268
 31
0.0
  0
LINE
  5
9761
330
9698
100
AcDbEntity
  8
SUNPOU
 62
     4
370
    -2
100
AcDbLine
 10
317.7494186995632
 20
130.5794123497154
 30
0.0
 11
315.7688259284523
 21
130.3010609129941
 31
0.0
  0
INSERT
  5
9762
330
9698
100
AcDbEntity
  8
SUNPOU
 62
     4
370
    -2
100
AcDbBlockReference
  2
_OPEN
 10
317.7494186995632
 20
130.5794123497154
 30
0.0
 41
7.0
 42
7.0
 43
7.0
 50
187.999922709583
  0
INSERT
  5
9763
330
9698
100
AcDbEntity
  8
SUNPOU
 62
     4
370
    -2
100
AcDbBlockReference
  2
_OPEN
 10
315.7688259284523
 20
130.3010609129941
 30
0.0
 41
7.0
 42
7.0
 43
7.0
 50
7.999922709582946
  0
MTEXT
  5
9764
330
9698
100
AcDbEntity
  8
SUNPOU
 62
     4
100
AcDbMText
 10
289.4903047521173
 20
131.6570286666492
 30
0.0
 40
6.0
 41
0.0
 71
     5
 72
     1
  1
\A1;t2.0
 11
0.9902682564813216
 21
0.1391717651157862
 31
0.0
 73
     1
 44
1.0
  0
POINT
  5
9765
330
9698
100
AcDbEntity
  8
DEFPOINTS
 62
     0
100
AcDbPoint
 10
316.6854190329257
 20
123.7790982525763
 30
0.0
  0
POINT
  5
9766
330
9698
100
AcDbEntity
  8
DEFPOINTS
 62
     0
100
AcDbPoint
 10
318.6660118040365
 20
124.0574496892976
 30
0.0
  0
POINT
  5
9767
330
9698
100
AcDbEntity
  8
DEFPOINTS
 62
     0
100
AcDbPoint
 10
317.7494186995632
 20
130.5794123497154
 30
0.0
  0
ENDBLK
  5
96A5
330
9698
100
AcDbEntity
  8
0
100
AcDbBlockEnd
  0
BLOCK
  5
96B0
330
96A6
100
AcDbEntity
  8
0
100
AcDbBlockBegin
  2
*D7
 70
     1
 71
     0
 10
0.0
 20
0.0
 30
0.0
  3
*D7
  1

  0
LINE
  5
9768
330
96A6
100
AcDbEntity
  8
SUNPOU
100
AcDbLine
 10
175.9477599283761
 20
326.0845982525761
 30
0.0
 11
175.9477599283761
 21
365.5348170479454
 31
0.0
  0
LINE
  5
9769
330
96A6
100
AcDbEntity
  8
SUNPOU
100
AcDbLine
 10
194.9476394807799
 20
326.0845982525761
 30
0.0
 11
194.9476394807799
 21
365.5348170479454
 31
0.0
  0
LINE
  5
976A
330
96A6
100
AcDbEntity
  8
SUNPOU
100
AcDbLine
 10
182.9477599283761
 20
362.5348170479454
 30
0.0
 11
187.9476394807799
 21
362.5348170479454
 31
0.0
  0
INSERT
  5
976B
330
96A6
100
AcDbEntity
  8
SUNPOU
100
AcDbBlockReference
  2
_OPEN
 10
175.9477599283761
 20
362.5348170479454
 30
0.0
 41
7.0
 42
7.0
 43
7.0
 50
180.0
  0
INSERT
  5
976C
330
96A6
100
AcDbEntity
  8
SUNPOU
100
AcDbBlockReference
  2
_OPEN
 10
194.9476394807799
 20
362.5348170479454
 30
0.0
 41
7.0
 42
7.0
 43
7.0
  0
MTEXT
  5
976D
330
96A6
100
AcDbEntity
  8
SUNPOU
100
AcDbMText
 10
185.447699704578
 20
367.5348170479454
 30
0.0
 40
6.0
 41
0.0
 71
     5
 72
     1
  1
\A1;19
 73
     1
 44
1.0
  0
POINT
  5
976E
330
96A6
100
AcDbEntity
  8
DEFPOINTS
 62
     0
100
AcDbPoint
 10
175.9477599283761
 20
320.0845982525761
 30
0.0
  0
POINT
  5
976F
330
96A6
100
AcDbEntity
  8
DEFPOINTS
 62
     0
100
AcDbPoint
 10
194.9476394807799
 20
320.0845982525761
 30
0.0
  0
POINT
  5
9770
330
96A6
100
AcDbEntity
  8
DEFPOINTS
 62
     0
100
AcDbPoint
 10
194.9476394807799
 20
362.5348170479454
 30
0.0
  0
ENDBLK
  5
96B1
330
96A6
100
AcDbEntity
  8
0
100
AcDbBlockEnd
  0
BLOCK
  5
96BE
330
96B2
100
AcDbEntity
  8
0
100
AcDbBlockBegin
  2
*D8
 70
     1
 71
     0
 10
0.0
 20
0.0
 30
0.0
  3
*D8
  1

  0
LINE
  5
9771
330
96B2
100
AcDbEntity
  8
SUNPOU
 62
     4
370
    -2
100
AcDbLine
 10
569.5971674993031
 20
314.1426926658239
 30
0.0
 11
558.5410450030449
 21
309.7205675557628
 31
0.0
  0
LINE
  5
9772
330
96B2
100
AcDbEntity
  8
SUNPOU
 62
     4
370
    -2
100
AcDbLine
 10
570.5255787086381
 20
311.8214946440962
 30
0.0
 11
559.4694562123799
 21
307.399369534035
 31
0.0
  0
LINE
  5
9773
330
96B2
100
AcDbEntity
  8
SUNPOU
 62
     4
370
    -2
100
AcDbLine
 10
558.7269326166252
 20
317.3340717289486
 30
0.0
 11
556.1273620205653
 21
323.8334742181088
 31
0.0
  0
LINE
  5
9774
330
96B2
100
AcDbEntity
  8
SUNPOU
 62
     4
370
    -2
100
AcDbLine
 10
564.8544850180798
 20
302.0140687289006
 30
0.0
 11
575.6241346303277
 21
275.0879727023799
 31
0.0
  0
LINE
  5
9775
330
96B2
100
AcDbEntity
  8
SUNPOU
 62
     4
370
    -2
100
AcDbLine
 10
561.326503212685
 20
310.8346692397885
 30
0.0
 11
562.25491442202
 21
308.5134712180607
 31
0.0
  0
INSERT
  5
9776
330
96B2
100
AcDbEntity
  8
SUNPOU
 62
     4
370
    -2
100
AcDbBlockReference
  2
_OPEN
 10
561.326503212685
 20
310.8346692397885
 30
0.0
 41
7.0
 42
7.0
 43
7.0
 50
291.7999625093146
  0
INSERT
  5
9777
330
96B2
100
AcDbEntity
  8
SUNPOU
 62
     4
370
    -2
100
AcDbBlockReference
  2
_OPEN
 10
562.25491442202
 20
308.5134712180607
 30
0.0
 41
7.0
 42
7.0
 43
7.0
 50
111.7999625093147
  0
MTEXT
  5
9778
330
96B2
100
AcDbEntity
  8
SUNPOU
 62
     4
100
AcDbMText
 10
576.1815254716338
 20
287.1581556111029
 30
0.0
 40
6.0
 41
0.0
 71
     5
 72
     1
  1
\A1;t2.5
 11
0.371367228008548
 21
-0.9284860698800209
 31
0.0
 73
     1
 44
1.0
  0
POINT
  5
9779
330
96B2
100
AcDbEntity
  8
DEFPOINTS
 62
     0
100
AcDbPoint
 10
575.1680839185832
 20
316.3708960338752
 30
0.0
  0
POINT
  5
977A
330
96B2
100
AcDbEntity
  8
DEFPOINTS
 62
     0
100
AcDbPoint
 10
576.0964951279183
 20
314.0496980121475
 30
0.0
  0
POINT
  5
977B
330
96B2
100
AcDbEntity
  8
DEFPOINTS
 62
     0
100
AcDbPoint
 10
562.25491442202
 20
308.5134712180607
 30
0.0
  0
ENDBLK
  5
96BF
330
96B2
100
AcDbEntity
  8
0
100
AcDbBlockEnd
  0
BLOCK
  5
96CA
330
96C0
100
AcDbEntity
  8
0
100
AcDbBlockBegin
  2
*D9
 70
     1
 71
     0
 10
0.0
 20
0.0
 30
0.0
  3
*D9
  1

  0
LINE
  5
977C
330
96C0
100
AcDbEntity
  8
SUNPOU
 62
     4
370
    -2
100
AcDbLine
 10
590.4530190329256
 20
320.0845982525761
 30
0.0
 11
609.255977115664
 21
320.0845982525761
 31
0.0
  0
LINE
  5
977D
330
96C0
100
AcDbEntity
  8
SUNPOU
 62
     4
370
    -2
100
AcDbLine
 10
590.4529190329256
 20
253.4945982525761
 30
0.0
 11
609.2559771156639
 21
253.4945982525761
 31
0.0
  0
LINE
  5
977E
330
96C0
100
AcDbEntity
  8
SUNPOU
 62
     4
370
    -2
100
AcDbLine
 10
606.255977115664
 20
313.0845982525761
 30
0.0
 11
606.255977115664
 21
260.4945982525761
 31
0.0
  0
INSERT
  5
977F
330
96C0
100
AcDbEntity
  8
SUNPOU
 62
     4
370
    -2
100
AcDbBlockReference
  2
_OPEN
 10
606.255977115664
 20
320.0845982525761
 30
0.0
 41
7.0
 42
7.0
 43
7.0
 50
90.0
  0
INSERT
  5
9780
330
96C0
100
AcDbEntity
  8
SUNPOU
 62
     4
370
    -2
100
AcDbBlockReference
  2
_OPEN
 10
606.2559771156639
 20
253.4945982525761
 30
0.0
 41
7.0
 42
7.0
 43
7.0
 50
270.0
  0
MTEXT
  5
9781
330
96C0
100
AcDbEntity
  8
SUNPOU
 62
     4
100
AcDbMText
 10
601.2559771156639
 20
286.7895982525761
 30
0.0
 40
6.0
 41
0.0
 71
     5
 72
     1
  1
\A1;67
 11
6.123031769111886E-17
 21
1.0
 31
0.0
 73
     1
 44
1.0
  0
POINT
  5
9782
330
96C0
100
AcDbEntity
  8
DEFPOINTS
 62
     0
100
AcDbPoint
 10
584.4530190329256
 20
320.0845982525761
 30
0.0
  0
POINT
  5
9783
330
96C0
100
AcDbEntity
  8
DEFPOINTS
 62
     0
100
AcDbPoint
 10
584.4529190329256
 20
253.4945982525761
 30
0.0
  0
POINT
  5
9784
330
96C0
100
AcDbEntity
  8
DEFPOINTS
 62
     0
100
AcDbPoint
 10
606.2559771156639
 20
253.4945982525761
 30
0.0
  0
ENDBLK
  5
96CB
330
96C0
100
AcDbEntity
  8
0
100
AcDbBlockEnd
  0
BLOCK
  5
96D6
330
96CC
100
AcDbEntity
  8
0
100
AcDbBlockBegin
  2
*D10
 70
     1
 71
     0
 10
0.0
 20
0.0
 30
0.0
  3
*D10
  1

  0
LINE
  5
9785
330
96CC
100
AcDbEntity
  8
SUNPOU
 62
     4
370
    -2
100
AcDbLine
 10
582.224815574574
 20
325.6555146357387
 30
0.0
 11
574.1767089490666
 21
345.7772539165166
 31
0.0
  0
LINE
  5
9786
330
96CC
100
AcDbEntity
  8
SUNPOU
 62
     4
370
    -2
100
AcDbLine
 10
434.595415574574
 20
266.6080766543353
 30
0.0
 11
426.5473089490665
 21
286.7298159351132
 31
0.0
  0
LINE
  5
9787
330
96CC
100
AcDbEntity
  8
SUNPOU
 62
     4
370
    -2
100
AcDbLine
 10
568.7914082312193
 20
340.392225023525
 30
0.0
 11
434.1608131252654
 21
286.5439284449422
 31
0.0
  0
INSERT
  5
9788
330
96CC
100
AcDbEntity
  8
SUNPOU
 62
     4
370
    -2
100
AcDbBlockReference
  2
_OPEN
 10
575.2908106782423
 20
342.9917957249353
 30
0.0
 41
7.0
 42
7.0
 43
7.0
 50
21.79996343803611
  0
INSERT
  5
9789
330
96CC
100
AcDbEntity
  8
SUNPOU
 62
     4
370
    -2
100
AcDbBlockReference
  2
_OPEN
 10
427.6614106782423
 20
283.9443577435319
 30
0.0
 41
7.0
 42
7.0
 43
7.0
 50
201.7999634380361
  0
MTEXT
  5
978A
330
96CC
100
AcDbEntity
  8
SUNPOU
 62
     4
100
AcDbMText
 10
499.6192744629493
 20
318.1105070535358
 30
0.0
 40
6.0
 41
0.0
 71
     5
 72
     1
  1
\A1;159
 11
0.9284860638604376
 21
0.3713672430586082
 31
0.0
 73
     1
 44
1.0
  0
POINT
  5
978B
330
96CC
100
AcDbEntity
  8
DEFPOINTS
 62
     0
100
AcDbPoint
 10
584.4530190329257
 20
320.0845982525761
 30
0.0
  0
POINT
  5
978C
330
96CC
100
AcDbEntity
  8
DEFPOINTS
 62
     0
100
AcDbPoint
 10
436.8236190329257
 20
261.0371602711727
 30
0.0
  0
POINT
  5
978D
330
96CC
100
AcDbEntity
  8
DEFPOINTS
 62
     0
100
AcDbPoint
 10
427.6614106782423
 20
283.9443577435319
 30
0.0
  0
ENDBLK
  5
96D7
330
96CC
100
AcDbEntity
  8
0
100
AcDbBlockEnd
  0
BLOCK
  5
96E2
330
96D8
100
AcDbEntity
  8
0
100
AcDbBlockBegin
  2
*D11
 70
     1
 71
     0
 10
0.0
 20
0.0
 30
0.0
  3
*D11
  1

  0
LINE
  5
978E
330
96D8
100
AcDbEntity
  8
SUNPOU
 62
     4
370
    -2
100
AcDbLine
 10
437.8236190329255
 20
160.8445982525763
 30
0.0
 11
478.2837787141139
 21
160.8445982525762
 31
0.0
  0
LINE
  5
978F
330
96D8
100
AcDbEntity
  8
SUNPOU
 62
     4
370
    -2
100
AcDbLine
 10
425.9722190329258
 20
95.15619825257613
 30
0.0
 11
478.2837787141139
 21
95.15619825257613
 31
0.0
  0
LINE
  5
9790
330
96D8
100
AcDbEntity
  8
SUNPOU
 62
     4
370
    -2
100
AcDbLine
 10
475.2837787141139
 20
153.8445982525762
 30
0.0
 11
475.2837787141139
 21
102.1561982525761
 31
0.0
  0
INSERT
  5
9791
330
96D8
100
AcDbEntity
  8
SUNPOU
 62
     4
370
    -2
100
AcDbBlockReference
  2
_OPEN
 10
475.2837787141139
 20
160.8445982525762
 30
0.0
 41
7.0
 42
7.0
 43
7.0
 50
90.0
  0
INSERT
  5
9792
330
96D8
100
AcDbEntity
  8
SUNPOU
 62
     4
370
    -2
100
AcDbBlockReference
  2
_OPEN
 10
475.2837787141139
 20
95.15619825257613
 30
0.0
 41
7.0
 42
7.0
 43
7.0
 50
270.0
  0
MTEXT
  5
9793
330
96D8
100
AcDbEntity
  8
SUNPOU
 62
     4
100
AcDbMText
 10
470.2837787141139
 20
111.1561982525762
 30
0.0
 40
6.0
 41
0.0
 71
     5
 72
     1
  1
\A1;66
 11
6.123031769111886E-17
 21
1.0
 31
0.0
 73
     1
 44
1.0
  0
POINT
  5
9794
330
96D8
100
AcDbEntity
  8
DEFPOINTS
 62
     0
100
AcDbPoint
 10
431.8236190329255
 20
160.8445982525763
 30
0.0
  0
POINT
  5
9795
330
96D8
100
AcDbEntity
  8
DEFPOINTS
 62
     0
100
AcDbPoint
 10
419.9722190329258
 20
95.15619825257613
 30
0.0
  0
POINT
  5
9796
330
96D8
100
AcDbEntity
  8
DEFPOINTS
 62
     0
100
AcDbPoint
 10
475.2837787141139
 20
95.15619825257613
 30
0.0
  0
ENDBLK
  5
96E3
330
96D8
100
AcDbEntity
  8
0
100
AcDbBlockEnd
  0
BLOCK
  5
96EE
330
96E4
100
AcDbEntity
  8
0
100
AcDbBlockBegin
  2
*D12
 70
     1
 71
     0
 10
0.0
 20
0.0
 30
0.0
  3
*D12
  1

  0
LINE
  5
9797
330
96E4
100
AcDbEntity
  8
SUNPOU
 62
     4
370
    -2
100
AcDbLine
 10
443.1379190329255
 20
258.4702982525762
 30
0.0
 11
496.7855877695392
 21
258.4702982525762
 31
0.0
  0
LINE
  5
9798
330
96E4
100
AcDbEntity
  8
SUNPOU
 62
     4
370
    -2
100
AcDbLine
 10
442.8236190329257
 20
133.3445982525762
 30
0.0
 11
496.7855877695392
 21
133.3445982525762
 31
0.0
  0
LINE
  5
9799
330
96E4
100
AcDbEntity
  8
SUNPOU
 62
     4
370
    -2
100
AcDbLine
 10
493.7855877695392
 20
251.4702982525762
 30
0.0
 11
493.7855877695392
 21
140.3445982525762
 31
0.0
  0
INSERT
  5
979A
330
96E4
100
AcDbEntity
  8
SUNPOU
 62
     4
370
    -2
100
AcDbBlockReference
  2
_OPEN
 10
493.7855877695392
 20
258.4702982525762
 30
0.0
 41
7.0
 42
7.0
 43
7.0
 50
90.0
  0
INSERT
  5
979B
330
96E4
100
AcDbEntity
  8
SUNPOU
 62
     4
370
    -2
100
AcDbBlockReference
  2
_OPEN
 10
493.7855877695392
 20
133.3445982525762
 30
0.0
 41
7.0
 42
7.0
 43
7.0
 50
270.0
  0
MTEXT
  5
979C
330
96E4
100
AcDbEntity
  8
SUNPOU
 62
     4
100
AcDbMText
 10
488.7855877695392
 20
195.9074482525763
 30
0.0
 40
6.0
 41
0.0
 71
     5
 72
     1
  1
\A1;125
 11
6.123031769111886E-17
 21
1.0
 31
0.0
 73
     1
 44
1.0
  0
POINT
  5
979D
330
96E4
100
AcDbEntity
  8
DEFPOINTS
 62
     0
100
AcDbPoint
 10
437.1379190329255
 20
258.4702982525762
 30
0.0
  0
POINT
  5
979E
330
96E4
100
AcDbEntity
  8
DEFPOINTS
 62
     0
100
AcDbPoint
 10
436.8236190329257
 20
133.3445982525762
 30
0.0
  0
POINT
  5
979F
330
96E4
100
AcDbEntity
  8
DEFPOINTS
 62
     0
100
AcDbPoint
 10
493.7855877695392
 20
133.3445982525762
 30
0.0
  0
ENDBLK
  5
96EF
330
96E4
100
AcDbEntity
  8
0
100
AcDbBlockEnd
  0
BLOCK
  5
96FC
330
96F0
100
AcDbEntity
  8
0
100
AcDbBlockBegin
  2
*D13
 70
     1
 71
     0
 10
0.0
 20
0.0
 30
0.0
  3
*D13
  1

  0
LINE
  5
97A0
330
96F0
100
AcDbEntity
  8
SUNPOU
 62
     4
370
    -2
100
AcDbLine
 10
591.3846190329257
 20
496.4366378839914
 30
0.0
 11
625.0162777575275
 21
496.4366378839914
 31
0.0
  0
LINE
  5
97A1
330
96F0
100
AcDbEntity
  8
SUNPOU
 62
     4
370
    -2
100
AcDbLine
 10
591.3846190329257
 20
477.4366378839914
 30
0.0
 11
625.0162777575275
 21
477.4366378839914
 31
0.0
  0
LINE
  5
97A2
330
96F0
100
AcDbEntity
  8
SUNPOU
 62
     4
370
    -2
100
AcDbLine
 10
622.0162777575275
 20
503.4366378839914
 30
0.0
 11
622.0162777575275
 21
510.4366378839914
 31
0.0
  0
LINE
  5
97A3
330
96F0
100
AcDbEntity
  8
SUNPOU
 62
     4
370
    -2
100
AcDbLine
 10
622.0162777575275
 20
470.4366378839914
 30
0.0
 11
622.0162777575275
 21
463.4366378839914
 31
0.0
  0
LINE
  5
97A4
330
96F0
100
AcDbEntity
  8
SUNPOU
 62
     4
370
    -2
100
AcDbLine
 10
622.0162777575275
 20
496.4366378839914
 30
0.0
 11
622.0162777575275
 21
477.4366378839914
 31
0.0
  0
INSERT
  5
97A5
330
96F0
100
AcDbEntity
  8
SUNPOU
 62
     4
370
    -2
100
AcDbBlockReference
  2
_OPEN
 10
622.0162777575275
 20
496.4366378839914
 30
0.0
 41
7.0
 42
7.0
 43
7.0
 50
270.0
  0
INSERT
  5
97A6
330
96F0
100
AcDbEntity
  8
SUNPOU
 62
     4
370
    -2
100
AcDbBlockReference
  2
_OPEN
 10
622.0162777575275
 20
477.4366378839914
 30
0.0
 41
7.0
 42
7.0
 43
7.0
 50
90.0
  0
MTEXT
  5
97A7
330
96F0
100
AcDbEntity
  8
SUNPOU
 62
     4
100
AcDbMText
 10
617.0162777575274
 20
486.9366378839914
 30
0.0
 40
6.0
 41
0.0
 71
     5
 72
     1
  1
\A1;19
 11
6.123031769111886E-17
 21
1.0
 31
0.0
 73
     1
 44
1.0
  0
POINT
  5
97A8
330
96F0
100
AcDbEntity
  8
DEFPOINTS
 62
     0
100
AcDbPoint
 10
585.3846190329257
 20
496.4366378839914
 30
0.0
  0
POINT
  5
97A9
330
96F0
100
AcDbEntity
  8
DEFPOINTS
 62
     0
100
AcDbPoint
 10
585.3846190329257
 20
477.4366378839914
 30
0.0
  0
POINT
  5
97AA
330
96F0
100
AcDbEntity
  8
DEFPOINTS
 62
     0
100
AcDbPoint
 10
622.0162777575275
 20
477.4366378839914
 30
0.0
  0
ENDBLK
  5
96FD
330
96F0
100
AcDbEntity
  8
0
100
AcDbBlockEnd
  0
BLOCK
  5
970A
330
96FE
100
AcDbEntity
  8
0
100
AcDbBlockBegin
  2
*D14
 70
     1
 71
     0
 10
0.0
 20
0.0
 30
0.0
  3
*D14
  1

  0
LINE
  5
97AB
330
96FE
100
AcDbEntity
  8
SUNPOU
 62
     4
370
    -2
100
AcDbLine
 10
554.6207855040466
 20
394.6706599732818
 30
0.0
 11
544.9717025736718
 21
418.7951006230126
 31
0.0
  0
LINE
  5
97AC
330
96FE
100
AcDbEntity
  8
SUNPOU
 62
     4
370
    -2
100
AcDbLine
 10
545.3358865128953
 20
390.95696722216
 30
0.0
 11
535.6868035825205
 21
415.0814078718909
 31
0.0
  0
LINE
  5
97AD
330
96FE
100
AcDbEntity
  8
SUNPOU
 62
     4
370
    -2
100
AcDbLine
 10
530.3015053549452
 20
409.6963764885028
 30
0.0
 11
523.8021041100773
 21
407.0968027814866
 31
0.0
  0
LINE
  5
97AE
330
96FE
100
AcDbEntity
  8
SUNPOU
 62
     4
370
    -2
100
AcDbLine
 10
552.5852068358322
 20
418.6092166536569
 30
0.0
 11
569.2979528940642
 21
425.2938347574127
 31
0.0
  0
LINE
  5
97AF
330
96FE
100
AcDbEntity
  8
SUNPOU
 62
     4
370
    -2
100
AcDbLine
 10
536.8009065998131
 20
412.2959501955189
 30
0.0
 11
546.0858055909644
 21
416.0096429466407
 31
0.0
  0
INSERT
  5
97B0
330
96FE
100
AcDbEntity
  8
SUNPOU
 62
     4
370
    -2
100
AcDbBlockReference
  2
_OPEN
 10
536.8009065998131
 20
412.2959501955189
 30
0.0
 41
7.0
 42
7.0
 43
7.0
 50
21.79998993409471
  0
INSERT
  5
97B1
330
96FE
100
AcDbEntity
  8
SUNPOU
 62
     4
370
    -2
100
AcDbBlockReference
  2
_OPEN
 10
546.0858055909644
 20
416.0096429466407
 30
0.0
 41
7.0
 42
7.0
 43
7.0
 50
201.7999899340947
  0
MTEXT
  5
97B2
330
96FE
100
AcDbEntity
  8
SUNPOU
 62
     4
100
AcDbMText
 10
562.334442125228
 20
427.8937420196628
 30
0.0
 40
6.0
 41
0.0
 71
     5
 72
     1
  1
\A1;10
 11
0.928485892123985
 21
0.3713676724308777
 31
0.0
 73
     1
 44
1.0
  0
POINT
  5
97B3
330
96FE
100
AcDbEntity
  8
DEFPOINTS
 62
     0
100
AcDbPoint
 10
556.8489915386318
 20
389.0997446205379
 30
0.0
  0
POINT
  5
97B4
330
96FE
100
AcDbEntity
  8
DEFPOINTS
 62
     0
100
AcDbPoint
 10
547.5640925474806
 20
385.3860518694161
 30
0.0
  0
POINT
  5
97B5
330
96FE
100
AcDbEntity
  8
DEFPOINTS
 62
     0
100
AcDbPoint
 10
536.8009065998131
 20
412.2959501955189
 30
0.0
  0
ENDBLK
  5
970B
330
96FE
100
AcDbEntity
  8
0
100
AcDbBlockEnd
  0
BLOCK
  5
9716
330
970C
100
AcDbEntity
  8
0
100
AcDbBlockBegin
  2
*D15
 70
     1
 71
     0
 10
0.0
 20
0.0
 30
0.0
  3
*D15
  1

  0
LINE
  5
97B6
330
970C
100
AcDbEntity
  8
SUNPOU
 62
     4
370
    -2
100
AcDbLine
 10
545.1139535819718
 20
391.5118208812365
 30
0.0
 11
535.6867708437439
 21
415.0814023678506
 31
0.0
  0
LINE
  5
97B7
330
970C
100
AcDbEntity
  8
SUNPOU
 62
     4
370
    -2
100
AcDbLine
 10
498.6897535819718
 20
372.9434208812367
 30
0.0
 11
489.2625708437439
 21
396.5130023678507
 31
0.0
  0
LINE
  5
97B8
330
970C
100
AcDbEntity
  8
SUNPOU
 62
     4
370
    -2
100
AcDbLine
 10
530.3014780379212
 20
409.6963655624467
 30
0.0
 11
496.876075293052
 21
396.3271260639129
 31
0.0
  0
INSERT
  5
97B9
330
970C
100
AcDbEntity
  8
SUNPOU
 62
     4
370
    -2
100
AcDbBlockReference
  2
_OPEN
 10
536.8008766654866
 20
412.2959458131797
 30
0.0
 41
7.0
 42
7.0
 43
7.0
 50
21.80004762055315
  0
INSERT
  5
97BA
330
970C
100
AcDbEntity
  8
SUNPOU
 62
     4
370
    -2
100
AcDbBlockReference
  2
_OPEN
 10
490.3766766654866
 20
393.7275458131799
 30
0.0
 41
7.0
 42
7.0
 43
7.0
 50
201.8000476205531
  0
MTEXT
  5
97BB
330
970C
100
AcDbEntity
  8
SUNPOU
 62
     4
100
AcDbMText
 10
511.7319336292488
 20
407.6541734042979
 30
0.0
 40
6.0
 41
0.0
 71
     5
 72
     1
  1
\A1;50
 11
0.9284855182236221
 21
0.371368607247586
 31
0.0
 73
     1
 44
1.0
  0
POINT
  5
97BC
330
970C
100
AcDbEntity
  8
DEFPOINTS
 62
     0
100
AcDbPoint
 10
547.3421652254574
 20
385.9409077718948
 30
0.0
  0
POINT
  5
97BD
330
970C
100
AcDbEntity
  8
DEFPOINTS
 62
     0
100
AcDbPoint
 10
500.9179652254573
 20
367.372507771895
 30
0.0
  0
POINT
  5
97BE
330
970C
100
AcDbEntity
  8
DEFPOINTS
 62
     0
100
AcDbPoint
 10
490.3766766654866
 20
393.7275458131799
 30
0.0
  0
ENDBLK
  5
9717
330
970C
100
AcDbEntity
  8
0
100
AcDbBlockEnd
  0
BLOCK
  5
9722
330
9718
100
AcDbEntity
  8
0
100
AcDbBlockBegin
  2
*D16
 70
     1
 71
     0
 10
0.0
 20
0.0
 30
0.0
  3
*D16
  1

  0
LINE
  5
97BF
330
9718
100
AcDbEntity
  8
SUNPOU
 62
     4
370
    -2
100
AcDbLine
 10
452.2654513365193
 20
354.3750199831169
 30
0.0
 11
442.8382814217866
 21
377.9445418571056
 31
0.0
  0
LINE
  5
97C0
330
9718
100
AcDbEntity
  8
SUNPOU
 62
     4
370
    -2
100
AcDbLine
 10
498.6897300607055
 20
372.9434731762553
 30
0.0
 11
489.2625601459729
 21
396.5129950502441
 31
0.0
  0
LINE
  5
97C1
330
9718
100
AcDbEntity
  8
SUNPOU
 62
     4
370
    -2
100
AcDbLine
 10
450.4517859460148
 20
377.7586686219222
 30
0.0
 11
483.8772695106827
 21
391.1279560742053
 31
0.0
  0
INSERT
  5
97C2
330
9718
100
AcDbEntity
  8
SUNPOU
 62
     4
370
    -2
100
AcDbBlockReference
  2
_OPEN
 10
443.9523883662556
 20
375.1590857514946
 30
0.0
 41
7.0
 42
7.0
 43
7.0
 50
201.8000707146059
  0
INSERT
  5
97C3
330
9718
100
AcDbEntity
  8
SUNPOU
 62
     4
370
    -2
100
AcDbBlockReference
  2
_OPEN
 10
490.3766670904419
 20
393.727538944633
 30
0.0
 41
7.0
 42
7.0
 43
7.0
 50
21.80007071460593
  0
MTEXT
  5
97C4
330
9718
100
AcDbEntity
  8
SUNPOU
 62
     4
100
AcDbMText
 10
465.3076828209004
 20
389.0857391907489
 30
0.0
 40
6.0
 41
0.0
 71
     5
 72
     1
  1
\A1;50
 11
0.92848536853702
 21
0.371368981489669
 31
0.0
 73
     1
 44
1.0
  0
POINT
  5
97C5
330
9718
100
AcDbEntity
  8
DEFPOINTS
 62
     0
100
AcDbPoint
 10
454.4936652254573
 20
348.8041077718948
 30
0.0
  0
POINT
  5
97C6
330
9718
100
AcDbEntity
  8
DEFPOINTS
 62
     0
100
AcDbPoint
 10
500.9179439496436
 20
367.3725609650331
 30
0.0
  0
POINT
  5
97C7
330
9718
100
AcDbEntity
  8
DEFPOINTS
 62
     0
100
AcDbPoint
 10
490.3766670904419
 20
393.727538944633
 30
0.0
  0
ENDBLK
  5
9723
330
9718
100
AcDbEntity
  8
0
100
AcDbBlockEnd
  0
BLOCK
  5
972E
330
9724
100
AcDbEntity
  8
0
100
AcDbBlockBegin
  2
*D17
 70
     1
 71
     0
 10
0.0
 20
0.0
 30
0.0
  3
*D17
  1

  0
LINE
  5
97C8
330
9724
100
AcDbEntity
  8
SUNPOU
 62
     4
370
    -2
100
AcDbLine
 10
560.3773819930854
 20
396.4347102690117
 30
0.0
 11
585.0303126967566
 21
406.2951558736505
 31
0.0
  0
LINE
  5
97C9
330
9724
100
AcDbEntity
  8
SUNPOU
 62
     4
370
    -2
100
AcDbLine
 10
567.4333819930857
 20
378.7934102690117
 30
0.0
 11
592.086312696757
 21
388.6538558736505
 31
0.0
  0
LINE
  5
97CA
330
9724
100
AcDbEntity
  8
SUNPOU
 62
     4
370
    -2
100
AcDbLine
 10
584.8444238929121
 20
398.6816517295257
 30
0.0
 11
586.7012847329731
 21
394.0391575206585
 31
0.0
  0
INSERT
  5
97CB
330
9724
100
AcDbEntity
  8
SUNPOU
 62
     4
370
    -2
100
AcDbBlockReference
  2
_OPEN
 10
582.2448543129424
 20
405.181054625092
 30
0.0
 41
7.0
 42
7.0
 43
7.0
 50
111.7999535519257
  0
INSERT
  5
97CC
330
9724
100
AcDbEntity
  8
SUNPOU
 62
     4
370
    -2
100
AcDbBlockReference
  2
_OPEN
 10
589.3008543129429
 20
387.5397546250921
 30
0.0
 41
7.0
 42
7.0
 43
7.0
 50
291.7999535519257
  0
MTEXT
  5
97CD
330
9724
100
AcDbEntity
  8
SUNPOU
 62
     4
100
AcDbMText
 10
590.415284952633
 20
398.2172400393561
 30
0.0
 40
6.0
 41
0.0
 71
     5
 72
     1
  1
\A1;19
 11
0.3713670828528107
 21
-0.9284861279380504
 31
0.0
 73
     1
 44
1.0
  0
POINT
  5
97CE
330
9724
100
AcDbEntity
  8
DEFPOINTS
 62
     0
100
AcDbPoint
 10
554.806465225457
 20
394.2065077718947
 30
0.0
  0
POINT
  5
97CF
330
9724
100
AcDbEntity
  8
DEFPOINTS
 62
     0
100
AcDbPoint
 10
561.8624652254575
 20
376.5652077718949
 30
0.0
  0
POINT
  5
97D0
330
9724
100
AcDbEntity
  8
DEFPOINTS
 62
     0
100
AcDbPoint
 10
589.3008543129429
 20
387.5397546250921
 30
0.0
  0
ENDBLK
  5
972F
330
9724
100
AcDbEntity
  8
0
100
AcDbBlockEnd
  0
ENDSEC
  0
SECTION
  2
ENTITIES
  0
LINE
  5
3EF3
330
1A
100
AcDbEntity
  8
ZUWAKU
100
AcDbLine
 10
208.646601303624
 20
15.19999986828872
 30
0.0
 11
447.4243639845474
 21
15.19999986828871
 31
0.0
  0
LINE
  5
3EF4
330
1A
100
AcDbEntity
  8
ZUWAKU
100
AcDbLine
 10
208.646601303624
 20
15.59999986828872
 30
0.0
 11
447.4243639845474
 21
15.59999986828872
 31
0.0
  0
LINE
  5
3EF5
330
1A
100
AcDbEntity
  8
ZUWAKU
100
AcDbLine
 10
208.646601303624
 20
15.39999986828872
 30
0.0
 11
447.4243639845474
 21
15.39999986828872
 31
0.0
  0
LINE
  5
3EF6
330
1A
100
AcDbEntity
  8
ZUWAKU
100
AcDbLine
 10
0.0000000135560185
 20
30.79999986828869
 30
0.0
 11
797.4000000135559
 21
30.79999986828869
 31
0.0
  0
LINE
  5
3EF7
330
1A
100
AcDbEntity
  8
ZUWAKU
100
AcDbLine
 10
0.0000000135560185
 20
30.59999986828869
 30
0.0
 11
797.4000000135559
 21
30.59999986828869
 31
0.0
  0
LINE
  5
3EF8
330
1A
100
AcDbEntity
  8
ZUWAKU
100
AcDbLine
 10
0.0000000135560185
 20
30.39999986828869
 30
0.0
 11
797.4000000135559
 21
30.39999986828869
 31
0.0
  0
LINE
  5
3EF9
330
1A
100
AcDbEntity
  8
ZUWAKU
100
AcDbLine
 10
0.0000000135560185
 20
30.19999986828869
 30
0.0
 11
797.4000000135559
 21
30.19999986828869
 31
0.0
  0
LINE
  5
3EFA
330
1A
100
AcDbEntity
  8
ZUWAKU
100
AcDbLine
 10
0.0000000135560185
 20
29.99999986828868
 30
0.0
 11
797.4000000135559
 21
29.99999986828868
 31
0.0
  0
LWPOLYLINE
  5
3EFB
330
1A
100
AcDbEntity
  8
ZUWAKU
100
AcDbPolyline
 90
        4
 70
     1
 43
0.0
 10
0.2000000135559503
 20
551.3999998682888
 10
0.2000000135559503
 20
0.1999998682887281
 10
797.4000000135559
 20
0.1999998682887512
 10
797.4000000135561
 20
551.3999998682888
  0
LWPOLYLINE
  5
3EFC
330
1A
100
AcDbEntity
  8
ZUWAKU
100
AcDbPolyline
 90
        4
 70
     1
 43
0.0
 10
0.6000000135559276
 20
550.9999998682888
 10
0.6000000135559276
 20
0.5999998682887053
 10
797.0000000135563
 20
0.5999998682887515
 10
797.000000013556
 20
550.9999998682888
  0
LWPOLYLINE
  5
3EFD
330
1A
100
AcDbEntity
  8
ZUWAKU
100
AcDbPolyline
 90
        4
 70
     1
 43
0.0
 10
0.0000000135560185
 20
551.5999998682887
 10
0.0000000135560185
 20
-0.0000001317113174
 10
797.6000000135562
 20
-0.0000001317112499
 10
797.6000000135562
 20
551.5999998682888
  0
LWPOLYLINE
  5
3EFE
330
1A
100
AcDbEntity
  8
ZUWAKU
100
AcDbPolyline
 90
        4
 70
     1
 43
0.0
 10
0.4000000135559958
 20
551.1999998682887
 10
0.4000000135559958
 20
0.3999998682887735
 10
797.2000000135561
 20
0.3999998682887505
 10
797.2000000135561
 20
551.1999998682887
  0
LWPOLYLINE
  5
3EFF
330
1A
100
AcDbEntity
  8
ZUWAKU
100
AcDbPolyline
 90
        4
 70
     1
 43
0.0
 10
0.8000000135559731
 20
550.7999998682888
 10
0.8000000135559731
 20
0.7999998682887508
 10
796.800000013556
 20
0.7999998682887508
 10
796.800000013556
 20
550.7999998682888
  0
TEXT
  5
3F00
330
1A
100
AcDbEntity
  8
moji
100
AcDbText
 10
92.95778960172515
 20
12.74117799856344
 30
0.0
 40
6.0
  1
アーバントップΣ９０
 41
0.9
  7
ｽﾀｲﾙ1
100
AcDbText
  0
HATCH
  5
3F01
330
1A
100
AcDbEntity
  8
ZUWAKU
100
AcDbHatch
 10
0.0
 20
0.0
 30
0.0
210
0.0
220
0.0
230
1.0
  2
ANSI37
 70
     0
 71
     0
 91
        8
 92
        7
 72
     1
 73
     1
 93
       24
 10
14.50226267467588
 20
17.64484834927227
 42
-0.1989123673796348
 10
14.09221216833714
 20
18.63479784293332
 42
0.0
 10
14.09221216833714
 20
19.92499986828869
 42
-0.4142135623730912
 10
14.61721216833712
 20
20.44999986828869
 42
0.0
 10
17.59221216833703
 20
20.44999986828869
 42
0.4142135623731546
 10
18.11721216833712
 20
20.97499986828868
 42
0.0
 10
18.11721216833712
 20
22.72499986828869
 42
0.4142135623731586
 10
17.59221216833703
 20
23.24999986828869
 42
0.0
 10
14.09221216833714
 20
23.24999986828869
 42
0.4142135623730928
 10
11.29221216833719
 20
20.44999986828871
 42
0.0
 10
11.29221216833719
 20
18.63479784293345
 42
0.1989123673796619
 10
12.52236368735362
 20
15.66494936194984
 42
0.0
 10
15.43216166199829
 20
12.75515138730518
 42
-0.1989123673796613
 10
15.84221216833714
 20
11.76520189364399
 42
0.0
 10
15.84221216833714
 20
10.47499986828868
 42
-0.4142135623730911
 10
15.31721216833716
 20
9.949999868288685
 42
0.0
 10
12.34221216833726
 20
9.949999868288685
 42
0.4142135623731526
 10
11.81721216833716
 20
9.424999868288698
 42
0.0
 10
11.81721216833716
 20
7.674999868288676
 42
0.4142135623731526
 10
12.34221216833726
 20
7.149999868288688
 42
0.0
 10
15.84221216833714
 20
7.149999868288688
 42
0.4142135623731044
 10
18.64221216833721
 20
9.949999868288664
 42
0.0
 10
18.64221216833721
 20
11.76520189364394
 42
0.1989123673796604
 10
17.41206064932067
 20
14.73505037462748
 42
0.0
 97
        0
 92
        7
 72
     1
 73
     1
 93
       16
 10
23.54221216833719
 20
19.04999986828869
 42
-0.4142135623730935
 10
24.94221216833716
 20
20.44999986828869
 42
0.0
 10
26.86721216833712
 20
20.44999986828869
 42
0.4142135623731546
 10
27.39221216833721
 20
20.97499986828868
 42
0.0
 10
27.39221216833721
 20
22.72499986828869
 42
0.4142135623730952
 10
26.86721216833723
 20
23.24999986828869
 42
0.0
 10
24.94221216833705
 20
23.24999986828865
 42
0.4142135623730892
 10
20.74221216833712
 20
19.04999986828862
 42
0.0
 10
20.74221216833712
 20
11.34999986828871
 42
0.4142135623730969
 10
24.94221216833716
 20
7.149999868288688
 42
0.0
 10
26.86721216833712
 20
7.149999868288688
 42
0.4142135623731526
 10
27.39221216833721
 20
7.674999868288676
 42
0.0
 10
27.39221216833721
 20
9.424999868288698
 42
0.414213562373089
 10
26.86721216833723
 20
9.949999868288685
 42
0.0
 10
24.94221216833716
 20
9.949999868288685
 42
-0.4142135623730928
 10
23.54221216833719
 20
11.34999986828867
 42
0.0
 97
        0
 92
        7
 72
     1
 73
     1
 93
        2
 10
24.24221216833712
 20
15.19999986828869
 42
1.0
 10
27.74221216833712
 20
15.19999986828869
 42
1.0
 97
        0
 92
        7
 72
     1
 73
     1
 93
       26
 10
37.31485865051513
 20
19.20504706185211
 42
0.0
 10
38.37649828365295
 20
22.5669059001217
 42
0.5069206636600134
 10
37.87586738445759
 20
23.24999986828869
 42
0.0
 10
36.17697800484837
 20
23.24999986828869
 42
0.3272098845218764
 10
35.67634710565301
 20
22.88309383645566
 42
0.0
 10
33.80807723102123
 20
16.96690590012177
 42
-0.3272098845219541
 10
33.30744633182576
 20
16.59999986828868
 42
0.0
 10
33.1672121683373
 20
16.59999986828868
 42
-0.4142135623731526
 10
32.64221216833721
 20
17.12499986828867
 42
0.0
 10
32.64221216833721
 20
22.72499986828869
 42
0.4142135623730952
 10
32.11721216833723
 20
23.24999986828869
 42
0.0
 10
30.36721216833712
 20
23.24999986828869
 42
0.4142135623730872
 10
29.84221216833714
 20
22.72499986828871
 42
0.0
 10
29.84221216833714
 20
7.674999868288676
 42
0.414213562373089
 10
30.36721216833712
 20
7.149999868288688
 42
0.0
 10
32.11721216833712
 20
7.149999868288688
 42
0.4142135623731526
 10
32.64221216833721
 20
7.674999868288676
 42
0.0
 10
32.64221216833721
 20
13.2749998682887
 42
-0.4142135623731526
 10
33.1672121683373
 20
13.79999986828869
 42
0.0
 10
33.30744633182587
 20
13.79999986828869
 42
-0.3272098845218915
 10
33.80807723102123
 20
13.43309383645561
 42
0.0
 10
35.67634710565301
 20
7.51690590012176
 42
0.3272098845218902
 10
36.17697800484837
 20
7.149999868288688
 42
0.0
 10
37.87586738445759
 20
7.149999868288688
 42
0.5069206636600334
 10
38.37649828365295
 20
7.833093836455696
 42
0.0
 10
36.05010690517929
 20
15.19999986828882
 42
0.0
 97
        0
 92
        7
 72
     1
 73
     1
 93
        8
 10
43.49221216833712
 20
22.7249998682887
 42
0.4142135623731546
 10
42.96721216833703
 20
23.24999986828869
 42
0.0
 10
41.21721216833726
 20
23.24999986828869
 42
0.4142135623731506
 10
40.69221216833716
 20
22.72499986828871
 42
0.0
 10
40.69221216833716
 20
7.674999868288676
 42
0.4142135623731526
 10
41.21721216833726
 20
7.149999868288688
 42
0.0
 10
42.96721216833703
 20
7.149999868288688
 42
0.4142135623731526
 10
43.49221216833712
 20
7.674999868288676
 42
0.0
 97
        0
 92
        7
 72
     1
 73
     1
 93
       24
 10
48.39221216833721
 20
19.92499986828869
 42
-0.4142135623731547
 10
48.9172121683373
 20
20.44999986828869
 42
0.0
 10
51.89221216833721
 20
20.44999986828869
 42
0.4142135623730911
 10
52.41721216833719
 20
20.97499986828868
 42
0.0
 10
52.41721216833719
 20
22.72499986828869
 42
0.4142135623730952
 10
51.89221216833721
 20
23.24999986828869
 42
0.0
 10
48.39221216833721
 20
23.24999986828869
 42
0.4142135623731048
 10
45.59221216833714
 20
20.44999986828871
 42
0.0
 10
45.59221216833714
 20
18.63479784293345
 42
0.1989123673796613
 10
46.82236368735369
 20
15.66494936194989
 42
0.0
 10
49.73216166199836
 20
12.75515138730523
 42
-0.1989123673796402
 10
50.14221216833721
 20
11.76520189364415
 42
0.0
 10
50.14221216833721
 20
10.47499986828868
 42
-0.4142135623730911
 10
49.61721216833723
 20
9.949999868288685
 42
0.0
 10
46.64221216833721
 20
9.949999868288685
 42
0.4142135623731526
 10
46.11721216833712
 20
9.424999868288698
 42
0.0
 10
46.11721216833712
 20
7.674999868288676
 42
0.414213562373089
 10
46.6422121683371
 20
7.149999868288688
 42
0.0
 10
50.14221216833721
 20
7.149999868288688
 42
0.4142135623730925
 10
52.94221216833716
 20
9.949999868288664
 42
0.0
 10
52.94221216833716
 20
11.76520189364394
 42
0.1989123673796675
 10
51.71206064932062
 20
14.73505037462759
 42
0.0
 10
48.80226267467606
 20
17.64484834927211
 42
-0.1989123673796653
 10
48.39221216833721
 20
18.63479784293327
 42
0.0
 97
        0
 92
        7
 72
     1
 73
     1
 93
       16
 10
57.84221216833714
 20
22.72499986828868
 42
0.414213562373103
 10
57.31721216833716
 20
23.24999986828869
 42
0.0
 10
55.56721216833716
 20
23.24999986828869
 42
0.4142135623730872
 10
55.04221216833719
 20
22.72499986828871
 42
0.0
 10
55.04221216833719
 20
9.949999868288664
 42
0.4142135623730925
 10
57.84221216833714
 20
7.149999868288688
 42
0.0
 10
61.34221216833714
 20
7.149999868288688
 42
0.4142135623731044
 10
64.14221216833721
 20
9.949999868288664
 42
0.0
 10
64.14221216833721
 20
22.72499986828869
 42
0.4142135623730952
 10
63.61721216833723
 20
23.24999986828869
 42
0.0
 10
61.86721216833712
 20
23.24999986828869
 42
0.4142135623730872
 10
61.34221216833714
 20
22.72499986828871
 42
0.0
 10
61.34221216833714
 20
10.99999986828866
 42
-0.414213562373088
 10
60.29221216833719
 20
9.949999868288685
 42
0.0
 10
58.89221216833721
 20
9.949999868288685
 42
-0.4142135623731197
 10
57.84221216833714
 20
10.99999986828866
 42
0.0
 97
        0
 92
        7
 72
     1
 73
     1
 93
        8
 10
69.04221216833719
 20
22.72499986828871
 42
0.4142135623730872
 10
68.51721216833721
 20
23.24999986828869
 42
0.0
 10
66.76721216833721
 20
23.24999986828869
 42
0.4142135623731506
 10
66.24221216833712
 20
22.72499986828871
 42
0.0
 10
66.24221216833712
 20
7.674999868288676
 42
0.414213562373089
 10
66.7672121683371
 20
7.149999868288688
 42
0.0
 10
68.51721216833721
 20
7.149999868288688
 42
0.414213562373089
 10
69.04221216833719
 20
7.674999868288676
 42
0.0
 97
        0
 75
     0
 76
     1
 52
0.0
 41
0.2
 77
     0
 78
     2
 53
45.0
 43
-900.942304321123
 44
-13.20000013171125
 45
-0.4490128060534576
 46
0.4490128060534577
 79
     0
 53
135.0
 43
-900.942304321123
 44
-13.20000013171125
 45
-0.4490128060534577
 46
-0.4490128060534576
 79
     0
 47
0.057451373970553
 98
        8
 10
16.07985497657933
 20
15.16717351417424
 10
22.40451501999519
 20
18.84406205073969
 10
25.16436789921568
 20
15.5118815143594
 10
30.91405999519316
 20
16.20129751473019
 10
41.83847203251276
 20
16.6609097822718
 10
46.89820090868557
 20
19.41857618469589
 10
56.55768598595637
 20
18.7291577833837
 10
67.82707963317876
 20
19.18877005092531
  0
LINE
  5
3F02
330
1A
100
AcDbEntity
  8
ZUWAKU
100
AcDbLine
 10
24.94221216833716
 20
23.24999986828865
 30
0.0
 11
26.86721216833712
 21
23.24999986828869
 31
0.0
  0
LINE
  5
3F03
330
1A
100
AcDbEntity
  8
ZUWAKU
100
AcDbLine
 10
26.86721216833712
 20
20.44999986828869
 30
0.0
 11
24.94221216833716
 21
20.44999986828869
 31
0.0
  0
LINE
  5
3F04
330
1A
100
AcDbEntity
  8
ZUWAKU
100
AcDbLine
 10
24.94221216833716
 20
9.949999868288685
 30
0.0
 11
26.86721216833712
 21
9.949999868288685
 31
0.0
  0
LINE
  5
3F05
330
1A
100
AcDbEntity
  8
ZUWAKU
100
AcDbLine
 10
26.86721216833712
 20
7.149999868288688
 30
0.0
 11
24.94221216833716
 21
7.149999868288688
 31
0.0
  0
CIRCLE
  5
3F06
330
1A
100
AcDbEntity
  8
ZUWAKU
100
AcDbCircle
 10
25.99221216833712
 20
15.19999986828869
 30
0.0
 40
1.75
  0
ARC
  5
3F07
330
1A
100
AcDbEntity
  8
ZUWAKU
100
AcDbCircle
 10
15.49221216833712
 20
18.63479784293339
 30
0.0
 40
1.4
100
AcDbArc
 50
180.0000000000016
 51
224.9999999999988
  0
LINE
  5
3F08
330
1A
100
AcDbEntity
  8
ZUWAKU
100
AcDbLine
 10
23.54221216833719
 20
19.04999986828869
 30
0.0
 11
23.54221216833719
 21
11.34999986828869
 31
0.0
  0
LINE
  5
3F09
330
1A
100
AcDbEntity
  8
ZUWAKU
100
AcDbLine
 10
20.74221216833712
 20
11.34999986828869
 30
0.0
 11
20.74221216833712
 21
19.04999986828864
 31
0.0
  0
ARC
  5
3F0A
330
1A
100
AcDbEntity
  8
ZUWAKU
100
AcDbCircle
 10
15.49221216833712
 20
18.63479784293339
 30
0.0
 40
4.199999999999999
100
AcDbArc
 50
180.0
 51
225.0
  0
ARC
  5
3F0B
330
1A
100
AcDbEntity
  8
ZUWAKU
100
AcDbCircle
 10
15.84221216833714
 20
9.949999868288685
 30
0.0
 40
2.8
100
AcDbArc
 50
270.0
 51
0.0
  0
ARC
  5
3F0C
330
1A
100
AcDbEntity
  8
ZUWAKU
100
AcDbCircle
 10
24.94221216833716
 20
11.34999986828869
 30
0.0
 40
4.199999999999999
100
AcDbArc
 50
180.0
 51
270.0
  0
ARC
  5
3F0D
330
1A
100
AcDbEntity
  8
ZUWAKU
100
AcDbCircle
 10
14.44221216833716
 20
11.76520189364399
 30
0.0
 40
4.199999999999999
100
AcDbArc
 50
0.0
 51
45.0
  0
LINE
  5
3F0E
330
1A
100
AcDbEntity
  8
ZUWAKU
100
AcDbLine
 10
17.41206064932067
 20
14.73505037462751
 30
0.0
 11
14.50226267467599
 21
17.64484834927219
 31
0.0
  0
LINE
  5
3F0F
330
1A
100
AcDbEntity
  8
ZUWAKU
100
AcDbLine
 10
15.84221216833714
 20
10.47499986828869
 30
0.0
 11
15.84221216833714
 21
11.76520189364403
 31
0.0
  0
ARC
  5
3F10
330
1A
100
AcDbEntity
  8
ZUWAKU
100
AcDbCircle
 10
15.31721216833716
 20
10.47499986828869
 30
0.0
 40
0.5249999999999999
100
AcDbArc
 50
270.0
 51
0.0
  0
ARC
  5
3F11
330
1A
100
AcDbEntity
  8
ZUWAKU
100
AcDbCircle
 10
14.44221216833716
 20
11.76520189364403
 30
0.0
 40
1.4
100
AcDbArc
 50
0.0
 51
45.0
  0
LINE
  5
3F12
330
1A
100
AcDbEntity
  8
ZUWAKU
100
AcDbLine
 10
11.81721216833716
 20
7.674999868288687
 30
0.0
 11
11.81721216833716
 21
9.424999868288687
 31
0.0
  0
ARC
  5
3F13
330
1A
100
AcDbEntity
  8
ZUWAKU
100
AcDbCircle
 10
12.34221216833714
 20
7.674999868288687
 30
0.0
 40
0.5249999999999999
100
AcDbArc
 50
180.0
 51
270.0
  0
ARC
  5
3F14
330
1A
100
AcDbEntity
  8
ZUWAKU
100
AcDbCircle
 10
12.34221216833714
 20
9.424999868288687
 30
0.0
 40
0.5249999999999999
100
AcDbArc
 50
90.0
 51
180.0
  0
LINE
  5
3F15
330
1A
100
AcDbEntity
  8
ZUWAKU
100
AcDbLine
 10
12.34221216833714
 20
7.149999868288688
 30
0.0
 11
15.84221216833714
 21
7.149999868288688
 31
0.0
  0
LINE
  5
3F16
330
1A
100
AcDbEntity
  8
ZUWAKU
100
AcDbLine
 10
12.34221216833714
 20
9.949999868288685
 30
0.0
 11
15.31721216833716
 21
9.949999868288685
 31
0.0
  0
LINE
  5
3F17
330
1A
100
AcDbEntity
  8
ZUWAKU
100
AcDbLine
 10
12.52236368735362
 20
15.66494936194987
 30
0.0
 11
15.43216166199829
 21
12.7551513873052
 31
0.0
  0
LINE
  5
3F18
330
1A
100
AcDbEntity
  8
ZUWAKU
100
AcDbLine
 10
18.64221216833721
 20
9.949999868288685
 30
0.0
 11
18.64221216833721
 21
11.76520189364403
 31
0.0
  0
ARC
  5
3F19
330
1A
100
AcDbEntity
  8
ZUWAKU
100
AcDbCircle
 10
24.94221216833716
 20
11.34999986828869
 30
0.0
 40
1.4
100
AcDbArc
 50
180.0
 51
270.0
  0
ARC
  5
3F1A
330
1A
100
AcDbEntity
  8
ZUWAKU
100
AcDbCircle
 10
17.59221216833714
 20
22.72499986828868
 30
0.0
 40
0.5249999999999999
100
AcDbArc
 50
0.0
 51
90.0
  0
ARC
  5
3F1B
330
1A
100
AcDbEntity
  8
ZUWAKU
100
AcDbCircle
 10
17.59221216833714
 20
20.97499986828868
 30
0.0
 40
0.5249999999999999
100
AcDbArc
 50
270.0
 51
0.0
  0
LINE
  5
3F1C
330
1A
100
AcDbEntity
  8
ZUWAKU
100
AcDbLine
 10
14.09221216833714
 20
23.24999986828869
 30
0.0
 11
17.59221216833714
 21
23.24999986828869
 31
0.0
  0
ARC
  5
3F1D
330
1A
100
AcDbEntity
  8
ZUWAKU
100
AcDbCircle
 10
14.61721216833712
 20
19.92499986828869
 30
0.0
 40
0.5249999999999999
100
AcDbArc
 50
90.0
 51
180.0
  0
LINE
  5
3F1E
330
1A
100
AcDbEntity
  8
ZUWAKU
100
AcDbLine
 10
14.09221216833714
 20
19.92499986828869
 30
0.0
 11
14.09221216833714
 21
18.63479784293335
 31
0.0
  0
LINE
  5
3F1F
330
1A
100
AcDbEntity
  8
ZUWAKU
100
AcDbLine
 10
17.59221216833714
 20
20.44999986828869
 30
0.0
 11
14.61721216833712
 21
20.44999986828869
 31
0.0
  0
LINE
  5
3F20
330
1A
100
AcDbEntity
  8
ZUWAKU
100
AcDbLine
 10
11.29221216833719
 20
20.44999986828869
 30
0.0
 11
11.29221216833719
 21
18.63479784293335
 31
0.0
  0
ARC
  5
3F21
330
1A
100
AcDbEntity
  8
ZUWAKU
100
AcDbCircle
 10
14.09221216833714
 20
20.44999986828869
 30
0.0
 40
2.8
100
AcDbArc
 50
90.0
 51
180.0
  0
LINE
  5
3F22
330
1A
100
AcDbEntity
  8
ZUWAKU
100
AcDbLine
 10
18.11721216833712
 20
22.72499986828868
 30
0.0
 11
18.11721216833712
 21
20.97499986828868
 31
0.0
  0
ARC
  5
3F23
330
1A
100
AcDbEntity
  8
ZUWAKU
100
AcDbCircle
 10
24.94221216833716
 20
19.04999986828869
 30
0.0
 40
1.4
100
AcDbArc
 50
90.0
 51
180.0
  0
ARC
  5
3F24
330
1A
100
AcDbEntity
  8
ZUWAKU
100
AcDbCircle
 10
24.94221216833716
 20
19.04999986828864
 30
0.0
 40
4.199999999999999
100
AcDbArc
 50
90.0
 51
180.0
  0
LINE
  5
3F25
330
1A
100
AcDbEntity
  8
ZUWAKU
100
AcDbLine
 10
79.32662956154422
 20
29.99999986828868
 30
0.0
 11
79.32662956154445
 21
0.7999998682887508
 31
0.0
  0
LINE
  5
3F26
330
1A
100
AcDbEntity
  8
ZUWAKU
100
AcDbLine
 10
79.52662956154427
 20
29.99999986828868
 30
0.0
 11
79.5266295615445
 21
0.7999998682887508
 31
0.0
  0
LINE
  5
3F27
330
1A
100
AcDbEntity
  8
ZUWAKU
100
AcDbLine
 10
79.12662956154441
 20
29.99999986828868
 30
0.0
 11
79.12662956154441
 21
0.7999998682887508
 31
0.0
  0
LINE
  5
3F28
330
1A
100
AcDbEntity
  8
ZUWAKU
100
AcDbLine
 10
64.14221216833721
 20
9.949999868288685
 30
0.0
 11
64.14221216833721
 21
22.72499986828868
 31
0.0
  0
LINE
  5
3F29
330
1A
100
AcDbEntity
  8
ZUWAKU
100
AcDbLine
 10
61.34221216833714
 20
22.72499986828868
 30
0.0
 11
61.34221216833714
 21
10.99999986828868
 31
0.0
  0
LINE
  5
3F2A
330
1A
100
AcDbEntity
  8
ZUWAKU
100
AcDbLine
 10
69.04221216833719
 20
7.674999868288687
 30
0.0
 11
69.04221216833719
 21
22.72499986828868
 31
0.0
  0
LINE
  5
3F2B
330
1A
100
AcDbEntity
  8
ZUWAKU
100
AcDbLine
 10
66.24221216833712
 20
22.72499986828868
 30
0.0
 11
66.24221216833712
 21
7.674999868288687
 31
0.0
  0
ARC
  5
3F2C
330
1A
100
AcDbEntity
  8
ZUWAKU
100
AcDbCircle
 10
49.79221216833719
 20
18.63479784293339
 30
0.0
 40
1.4
100
AcDbArc
 50
180.0000000000016
 51
224.9999999999988
  0
ARC
  5
3F2D
330
1A
100
AcDbEntity
  8
ZUWAKU
100
AcDbCircle
 10
49.79221216833719
 20
18.63479784293339
 30
0.0
 40
4.199999999999999
100
AcDbArc
 50
180.0
 51
225.0
  0
LINE
  5
3F2E
330
1A
100
AcDbEntity
  8
ZUWAKU
100
AcDbLine
 10
37.31485865051513
 20
19.20504706185211
 30
0.0
 11
36.05010690517929
 21
15.19999986828871
 31
0.0
  0
LINE
  5
3F2F
330
1A
100
AcDbEntity
  8
ZUWAKU
100
AcDbLine
 10
40.69221216833716
 20
22.72499986828868
 30
0.0
 11
40.69221216833716
 21
7.674999868288687
 31
0.0
  0
LINE
  5
3F30
330
1A
100
AcDbEntity
  8
ZUWAKU
100
AcDbLine
 10
43.49221216833712
 20
7.674999868288687
 30
0.0
 11
43.49221216833712
 21
22.72499986828868
 31
0.0
  0
LINE
  5
3F31
330
1A
100
AcDbEntity
  8
ZUWAKU
100
AcDbLine
 10
55.04221216833719
 20
22.72499986828868
 30
0.0
 11
55.04221216833719
 21
9.949999868288685
 31
0.0
  0
LINE
  5
3F32
330
1A
100
AcDbEntity
  8
ZUWAKU
100
AcDbLine
 10
57.84221216833714
 20
10.99999986828868
 30
0.0
 11
57.84221216833714
 21
22.72499986828868
 31
0.0
  0
LINE
  5
3F33
330
1A
100
AcDbEntity
  8
ZUWAKU
100
AcDbLine
 10
32.64221216833721
 20
17.12499986828869
 30
0.0
 11
32.64221216833721
 21
22.72499986828868
 31
0.0
  0
LINE
  5
3F34
330
1A
100
AcDbEntity
  8
ZUWAKU
100
AcDbLine
 10
29.84221216833714
 20
22.72499986828868
 30
0.0
 11
29.84221216833714
 21
7.674999868288687
 31
0.0
  0
LINE
  5
3F35
330
1A
100
AcDbEntity
  8
ZUWAKU
100
AcDbLine
 10
35.67634710565301
 20
22.88309383645566
 30
0.0
 11
33.80807723102123
 21
16.96690590012172
 31
0.0
  0
LINE
  5
3F36
330
1A
100
AcDbEntity
  8
ZUWAKU
100
AcDbLine
 10
60.29221216833719
 20
9.949999868288685
 30
0.0
 11
58.89221216833721
 21
9.949999868288685
 31
0.0
  0
LINE
  5
3F37
330
1A
100
AcDbEntity
  8
ZUWAKU
100
AcDbLine
 10
57.84221216833714
 20
7.149999868288688
 30
0.0
 11
61.34221216833714
 21
7.149999868288688
 31
0.0
  0
LINE
  5
3F38
330
1A
100
AcDbEntity
  8
ZUWAKU
100
AcDbLine
 10
41.21721216833714
 20
7.149999868288688
 30
0.0
 11
42.96721216833714
 21
7.149999868288688
 31
0.0
  0
LINE
  5
3F39
330
1A
100
AcDbEntity
  8
ZUWAKU
100
AcDbLine
 10
35.67634710565301
 20
7.516905900121714
 30
0.0
 11
33.80807723102123
 21
13.43309383645565
 31
0.0
  0
ARC
  5
3F3A
330
1A
100
AcDbEntity
  8
ZUWAKU
100
AcDbCircle
 10
33.30744633182587
 20
17.12499986828869
 30
0.0
 40
0.5249999999999999
100
AcDbArc
 50
270.0
 51
342.474431626277
  0
LINE
  5
3F3B
330
1A
100
AcDbEntity
  8
ZUWAKU
100
AcDbLine
 10
33.30744633182587
 20
16.59999986828868
 30
0.0
 11
33.16721216833719
 21
16.59999986828868
 31
0.0
  0
LINE
  5
3F3C
330
1A
100
AcDbEntity
  8
ZUWAKU
100
AcDbLine
 10
33.16721216833719
 20
13.79999986828869
 30
0.0
 11
33.30744633182587
 21
13.79999986828869
 31
0.0
  0
ARC
  5
3F3D
330
1A
100
AcDbEntity
  8
ZUWAKU
100
AcDbCircle
 10
33.16721216833719
 20
17.12499986828869
 30
0.0
 40
0.5249999999999999
100
AcDbArc
 50
180.0
 51
270.0
  0
LINE
  5
3F3E
330
1A
100
AcDbEntity
  8
ZUWAKU
100
AcDbLine
 10
30.36721216833712
 20
7.149999868288688
 30
0.0
 11
32.11721216833712
 21
7.149999868288688
 31
0.0
  0
ARC
  5
3F3F
330
1A
100
AcDbEntity
  8
ZUWAKU
100
AcDbCircle
 10
32.11721216833712
 20
7.674999868288687
 30
0.0
 40
0.5249999999999999
100
AcDbArc
 50
270.0
 51
0.0
  0
LINE
  5
3F40
330
1A
100
AcDbEntity
  8
ZUWAKU
100
AcDbLine
 10
32.64221216833721
 20
7.674999868288687
 30
0.0
 11
32.64221216833721
 21
13.27499986828869
 31
0.0
  0
LINE
  5
3F41
330
1A
100
AcDbEntity
  8
ZUWAKU
100
AcDbLine
 10
27.39221216833721
 20
9.424999868288687
 30
0.0
 11
27.39221216833721
 21
7.674999868288687
 31
0.0
  0
ARC
  5
3F42
330
1A
100
AcDbEntity
  8
ZUWAKU
100
AcDbCircle
 10
26.86721216833712
 20
7.674999868288687
 30
0.0
 40
0.5249999999999999
100
AcDbArc
 50
270.0
 51
0.0
  0
ARC
  5
3F43
330
1A
100
AcDbEntity
  8
ZUWAKU
100
AcDbCircle
 10
26.86721216833712
 20
9.424999868288687
 30
0.0
 40
0.5249999999999999
100
AcDbArc
 50
0.0
 51
90.0
  0
ARC
  5
3F44
330
1A
100
AcDbEntity
  8
ZUWAKU
100
AcDbCircle
 10
30.36721216833712
 20
7.674999868288687
 30
0.0
 40
0.5249999999999999
100
AcDbArc
 50
180.0
 51
270.0
  0
ARC
  5
3F45
330
1A
100
AcDbEntity
  8
ZUWAKU
100
AcDbCircle
 10
33.30744633182587
 20
13.27499986828869
 30
0.0
 40
0.5249999999999999
100
AcDbArc
 50
17.52556837372303
 51
90.0
  0
ARC
  5
3F46
330
1A
100
AcDbEntity
  8
ZUWAKU
100
AcDbCircle
 10
33.16721216833719
 20
13.27499986828869
 30
0.0
 40
0.5249999999999999
100
AcDbArc
 50
90.0
 51
180.0
  0
ARC
  5
3F47
330
1A
100
AcDbEntity
  8
ZUWAKU
100
AcDbCircle
 10
41.21721216833714
 20
7.674999868288687
 30
0.0
 40
0.5249999999999999
100
AcDbArc
 50
180.0
 51
270.0
  0
LINE
  5
3F48
330
1A
100
AcDbEntity
  8
ZUWAKU
100
AcDbLine
 10
36.17697800484848
 20
7.149999868288688
 30
0.0
 11
37.87586738445748
 21
7.149999868288688
 31
0.0
  0
ARC
  5
3F49
330
1A
100
AcDbEntity
  8
ZUWAKU
100
AcDbCircle
 10
37.87586738445748
 20
7.674999868288687
 30
0.0
 40
0.5249999999999999
100
AcDbArc
 50
270.0
 51
17.52556837372303
  0
LINE
  5
3F4A
330
1A
100
AcDbEntity
  8
ZUWAKU
100
AcDbLine
 10
38.37649828365295
 20
7.83309383645566
 30
0.0
 11
36.05010690517929
 21
15.19999986828871
 31
0.0
  0
ARC
  5
3F4B
330
1A
100
AcDbEntity
  8
ZUWAKU
100
AcDbCircle
 10
36.17697800484848
 20
7.674999868288687
 30
0.0
 40
0.5249999999999999
100
AcDbArc
 50
197.525568373723
 51
270.0
  0
ARC
  5
3F4C
330
1A
100
AcDbEntity
  8
ZUWAKU
100
AcDbCircle
 10
57.84221216833714
 20
9.949999868288685
 30
0.0
 40
2.8
100
AcDbArc
 50
180.0
 51
270.0
  0
ARC
  5
3F4D
330
1A
100
AcDbEntity
  8
ZUWAKU
100
AcDbCircle
 10
50.14221216833721
 20
9.949999868288685
 30
0.0
 40
2.8
100
AcDbArc
 50
270.0
 51
0.0
  0
LINE
  5
3F4E
330
1A
100
AcDbEntity
  8
ZUWAKU
100
AcDbLine
 10
51.71206064932073
 20
14.73505037462751
 30
0.0
 11
48.80226267467594
 21
17.64484834927219
 31
0.0
  0
LINE
  5
3F4F
330
1A
100
AcDbEntity
  8
ZUWAKU
100
AcDbLine
 10
50.14221216833721
 20
10.47499986828869
 30
0.0
 11
50.14221216833721
 21
11.76520189364403
 31
0.0
  0
ARC
  5
3F50
330
1A
100
AcDbEntity
  8
ZUWAKU
100
AcDbCircle
 10
48.74221216833712
 20
11.76520189364403
 30
0.0
 40
1.4
100
AcDbArc
 50
0.0
 51
45.0
  0
ARC
  5
3F51
330
1A
100
AcDbEntity
  8
ZUWAKU
100
AcDbCircle
 10
49.61721216833712
 20
10.47499986828869
 30
0.0
 40
0.5249999999999999
100
AcDbArc
 50
270.0
 51
0.0
  0
LINE
  5
3F52
330
1A
100
AcDbEntity
  8
ZUWAKU
100
AcDbLine
 10
46.11721216833712
 20
7.674999868288687
 30
0.0
 11
46.11721216833712
 21
9.424999868288687
 31
0.0
  0
ARC
  5
3F53
330
1A
100
AcDbEntity
  8
ZUWAKU
100
AcDbCircle
 10
46.64221216833721
 20
7.674999868288687
 30
0.0
 40
0.5249999999999999
100
AcDbArc
 50
180.0
 51
270.0
  0
ARC
  5
3F54
330
1A
100
AcDbEntity
  8
ZUWAKU
100
AcDbCircle
 10
42.96721216833714
 20
7.674999868288687
 30
0.0
 40
0.5249999999999999
100
AcDbArc
 50
270.0
 51
0.0
  0
ARC
  5
3F55
330
1A
100
AcDbEntity
  8
ZUWAKU
100
AcDbCircle
 10
46.64221216833721
 20
9.424999868288687
 30
0.0
 40
0.5249999999999999
100
AcDbArc
 50
90.0
 51
180.0
  0
LINE
  5
3F56
330
1A
100
AcDbEntity
  8
ZUWAKU
100
AcDbLine
 10
46.64221216833721
 20
9.949999868288685
 30
0.0
 11
49.61721216833712
 21
9.949999868288685
 31
0.0
  0
LINE
  5
3F57
330
1A
100
AcDbEntity
  8
ZUWAKU
100
AcDbLine
 10
46.64221216833721
 20
7.149999868288688
 30
0.0
 11
50.14221216833721
 21
7.149999868288688
 31
0.0
  0
LINE
  5
3F58
330
1A
100
AcDbEntity
  8
ZUWAKU
100
AcDbLine
 10
46.82236368735369
 20
15.66494936194987
 30
0.0
 11
49.73216166199836
 21
12.7551513873052
 31
0.0
  0
LINE
  5
3F59
330
1A
100
AcDbEntity
  8
ZUWAKU
100
AcDbLine
 10
52.94221216833716
 20
9.949999868288685
 30
0.0
 11
52.94221216833716
 21
11.76520189364403
 31
0.0
  0
ARC
  5
3F5A
330
1A
100
AcDbEntity
  8
ZUWAKU
100
AcDbCircle
 10
48.74221216833712
 20
11.76520189364399
 30
0.0
 40
4.199999999999999
100
AcDbArc
 50
0.0
 51
45.0
  0
ARC
  5
3F5B
330
1A
100
AcDbEntity
  8
ZUWAKU
100
AcDbCircle
 10
58.89221216833721
 20
10.99999986828868
 30
0.0
 40
1.05
100
AcDbArc
 50
180.0
 51
270.0
  0
ARC
  5
3F5C
330
1A
100
AcDbEntity
  8
ZUWAKU
100
AcDbCircle
 10
61.34221216833714
 20
9.949999868288685
 30
0.0
 40
2.8
100
AcDbArc
 50
270.0
 51
0.0
  0
LINE
  5
3F5D
330
1A
100
AcDbEntity
  8
ZUWAKU
100
AcDbLine
 10
66.76721216833721
 20
7.149999868288688
 30
0.0
 11
68.51721216833721
 21
7.149999868288688
 31
0.0
  0
ARC
  5
3F5E
330
1A
100
AcDbEntity
  8
ZUWAKU
100
AcDbCircle
 10
66.76721216833721
 20
7.674999868288687
 30
0.0
 40
0.5249999999999999
100
AcDbArc
 50
180.0
 51
270.0
  0
ARC
  5
3F5F
330
1A
100
AcDbEntity
  8
ZUWAKU
100
AcDbCircle
 10
60.29221216833719
 20
10.99999986828868
 30
0.0
 40
1.05
100
AcDbArc
 50
270.0
 51
0.0
  0
ARC
  5
3F60
330
1A
100
AcDbEntity
  8
ZUWAKU
100
AcDbCircle
 10
68.51721216833721
 20
7.674999868288687
 30
0.0
 40
0.5249999999999999
100
AcDbArc
 50
270.0
 51
0.0
  0
LINE
  5
3F61
330
1A
100
AcDbEntity
  8
ZUWAKU
100
AcDbLine
 10
42.96721216833714
 20
23.24999986828869
 30
0.0
 11
41.21721216833714
 21
23.24999986828869
 31
0.0
  0
ARC
  5
3F62
330
1A
100
AcDbEntity
  8
ZUWAKU
100
AcDbCircle
 10
32.11721216833712
 20
22.72499986828868
 30
0.0
 40
0.5249999999999999
100
AcDbArc
 50
0.0
 51
90.0
  0
LINE
  5
3F63
330
1A
100
AcDbEntity
  8
ZUWAKU
100
AcDbLine
 10
32.11721216833712
 20
23.24999986828869
 30
0.0
 11
30.36721216833712
 21
23.24999986828869
 31
0.0
  0
ARC
  5
3F64
330
1A
100
AcDbEntity
  8
ZUWAKU
100
AcDbCircle
 10
26.86721216833712
 20
22.72499986828868
 30
0.0
 40
0.5249999999999999
100
AcDbArc
 50
0.0
 51
90.0
  0
ARC
  5
3F65
330
1A
100
AcDbEntity
  8
ZUWAKU
100
AcDbCircle
 10
30.36721216833712
 20
22.72499986828868
 30
0.0
 40
0.5249999999999999
100
AcDbArc
 50
90.0
 51
180.0
  0
ARC
  5
3F66
330
1A
100
AcDbEntity
  8
ZUWAKU
100
AcDbCircle
 10
26.86721216833712
 20
20.97499986828868
 30
0.0
 40
0.5249999999999999
100
AcDbArc
 50
270.0
 51
0.0
  0
LINE
  5
3F67
330
1A
100
AcDbEntity
  8
ZUWAKU
100
AcDbLine
 10
27.39221216833721
 20
22.72499986828868
 30
0.0
 11
27.39221216833721
 21
20.97499986828868
 31
0.0
  0
ARC
  5
3F68
330
1A
100
AcDbEntity
  8
ZUWAKU
100
AcDbCircle
 10
41.21721216833714
 20
22.72499986828868
 30
0.0
 40
0.5249999999999999
100
AcDbArc
 50
90.0
 51
180.0
  0
LINE
  5
3F69
330
1A
100
AcDbEntity
  8
ZUWAKU
100
AcDbLine
 10
36.17697800484848
 20
23.24999986828869
 30
0.0
 11
37.87586738445748
 21
23.24999986828869
 31
0.0
  0
ARC
  5
3F6A
330
1A
100
AcDbEntity
  8
ZUWAKU
100
AcDbCircle
 10
37.87586738445748
 20
22.72499986828868
 30
0.0
 40
0.5249999999999999
100
AcDbArc
 50
342.474431626277
 51
90.0
  0
LINE
  5
3F6B
330
1A
100
AcDbEntity
  8
ZUWAKU
100
AcDbLine
 10
38.37649828365295
 20
22.56690590012172
 30
0.0
 11
37.31485865051513
 21
19.20504706185211
 31
0.0
  0
ARC
  5
3F6C
330
1A
100
AcDbEntity
  8
ZUWAKU
100
AcDbCircle
 10
36.17697800484848
 20
22.72499986828868
 30
0.0
 40
0.5249999999999999
100
AcDbArc
 50
90.0
 51
162.474431626277
  0
LINE
  5
3F6D
330
1A
100
AcDbEntity
  8
ZUWAKU
100
AcDbLine
 10
48.39221216833721
 20
23.24999986828869
 30
0.0
 11
51.89221216833721
 21
23.24999986828869
 31
0.0
  0
LINE
  5
3F6E
330
1A
100
AcDbEntity
  8
ZUWAKU
100
AcDbLine
 10
51.89221216833721
 20
20.44999986828869
 30
0.0
 11
48.91721216833719
 21
20.44999986828869
 31
0.0
  0
ARC
  5
3F6F
330
1A
100
AcDbEntity
  8
ZUWAKU
100
AcDbCircle
 10
48.91721216833719
 20
19.92499986828869
 30
0.0
 40
0.5249999999999999
100
AcDbArc
 50
90.0
 51
180.0
  0
LINE
  5
3F70
330
1A
100
AcDbEntity
  8
ZUWAKU
100
AcDbLine
 10
48.39221216833721
 20
19.92499986828869
 30
0.0
 11
48.39221216833721
 21
18.63479784293335
 31
0.0
  0
ARC
  5
3F71
330
1A
100
AcDbEntity
  8
ZUWAKU
100
AcDbCircle
 10
42.96721216833714
 20
22.72499986828868
 30
0.0
 40
0.5249999999999999
100
AcDbArc
 50
0.0
 51
90.0
  0
LINE
  5
3F72
330
1A
100
AcDbEntity
  8
ZUWAKU
100
AcDbLine
 10
45.59221216833714
 20
20.44999986828869
 30
0.0
 11
45.59221216833714
 21
18.63479784293335
 31
0.0
  0
ARC
  5
3F73
330
1A
100
AcDbEntity
  8
ZUWAKU
100
AcDbCircle
 10
48.39221216833721
 20
20.44999986828869
 30
0.0
 40
2.8
100
AcDbArc
 50
90.0
 51
180.0
  0
ARC
  5
3F74
330
1A
100
AcDbEntity
  8
ZUWAKU
100
AcDbCircle
 10
57.31721216833716
 20
22.72499986828868
 30
0.0
 40
0.5249999999999999
100
AcDbArc
 50
0.0
 51
90.0
  0
ARC
  5
3F75
330
1A
100
AcDbEntity
  8
ZUWAKU
100
AcDbCircle
 10
55.56721216833716
 20
22.72499986828868
 30
0.0
 40
0.5249999999999999
100
AcDbArc
 50
90.0
 51
180.0
  0
LINE
  5
3F76
330
1A
100
AcDbEntity
  8
ZUWAKU
100
AcDbLine
 10
57.31721216833716
 20
23.24999986828869
 30
0.0
 11
55.56721216833716
 21
23.24999986828869
 31
0.0
  0
ARC
  5
3F77
330
1A
100
AcDbEntity
  8
ZUWAKU
100
AcDbCircle
 10
51.89221216833721
 20
22.72499986828868
 30
0.0
 40
0.5249999999999999
100
AcDbArc
 50
0.0
 51
90.0
  0
ARC
  5
3F78
330
1A
100
AcDbEntity
  8
ZUWAKU
100
AcDbCircle
 10
51.89221216833721
 20
20.97499986828868
 30
0.0
 40
0.5249999999999999
100
AcDbArc
 50
270.0
 51
0.0
  0
LINE
  5
3F79
330
1A
100
AcDbEntity
  8
ZUWAKU
100
AcDbLine
 10
52.41721216833719
 20
22.72499986828868
 30
0.0
 11
52.41721216833719
 21
20.97499986828868
 31
0.0
  0
LINE
  5
3F7A
330
1A
100
AcDbEntity
  8
ZUWAKU
100
AcDbLine
 10
68.51721216833721
 20
23.24999986828869
 30
0.0
 11
66.76721216833721
 21
23.24999986828869
 31
0.0
  0
ARC
  5
3F7B
330
1A
100
AcDbEntity
  8
ZUWAKU
100
AcDbCircle
 10
66.76721216833721
 20
22.72499986828868
 30
0.0
 40
0.5249999999999999
100
AcDbArc
 50
90.0
 51
180.0
  0
ARC
  5
3F7C
330
1A
100
AcDbEntity
  8
ZUWAKU
100
AcDbCircle
 10
63.61721216833712
 20
22.72499986828868
 30
0.0
 40
0.5249999999999999
100
AcDbArc
 50
0.0
 51
90.0
  0
LINE
  5
3F7D
330
1A
100
AcDbEntity
  8
ZUWAKU
100
AcDbLine
 10
63.61721216833712
 20
23.24999986828869
 30
0.0
 11
61.86721216833712
 21
23.24999986828869
 31
0.0
  0
ARC
  5
3F7E
330
1A
100
AcDbEntity
  8
ZUWAKU
100
AcDbCircle
 10
61.86721216833712
 20
22.72499986828868
 30
0.0
 40
0.5249999999999999
100
AcDbArc
 50
90.0
 51
180.0
  0
ARC
  5
3F7F
330
1A
100
AcDbEntity
  8
ZUWAKU
100
AcDbCircle
 10
68.51721216833721
 20
22.72499986828868
 30
0.0
 40
0.5249999999999999
100
AcDbArc
 50
0.0
 51
90.0
  0
TEXT
  5
3F80
330
1A
100
AcDbEntity
  8
moji
100
AcDbText
 10
239.8272026944071
 20
18.00492092569607
 30
0.0
 40
5.6
  1
ステンレス金具上打Ⅰ型
 41
0.9
  7
ｽﾀｲﾙ1
100
AcDbText
  0
TEXT
  5
3F81
330
1A
100
AcDbEntity
  8
moji
100
AcDbText
 10
239.8272026944071
 20
3.204920925696104
 30
0.0
 40
5.6
  1
Σ９０－Ⅰ－４.０
 41
0.9
  7
ｽﾀｲﾙ1
100
AcDbText
  0
LINE
  5
3F82
330
1A
100
AcDbEntity
  8
ZUWAKU
100
AcDbLine
 10
208.246601303624
 20
29.99999986828868
 30
0.0
 11
208.246601303624
 21
0.7999998682887508
 31
0.0
  0
LINE
  5
3F83
330
1A
100
AcDbEntity
  8
ZUWAKU
100
AcDbLine
 10
208.6466013036238
 20
29.99999986828868
 30
0.0
 11
208.646601303624
 21
0.7999998682887508
 31
0.0
  0
LINE
  5
3F84
330
1A
100
AcDbEntity
  8
ZUWAKU
100
AcDbLine
 10
208.4466013036238
 20
29.99999986828868
 30
0.0
 11
208.446601303624
 21
0.7999998682887508
 31
0.0
  0
TEXT
  5
3F85
330
1A
100
AcDbEntity
  8
ZUWAKU
100
AcDbText
 10
209.7240463258336
 20
9.655356406674301
 30
0.0
 40
4.0
  1
サイズ
 41
0.9
  7
ｽﾀｲﾙ1
100
AcDbText
  0
TEXT
  5
3F86
330
1A
100
AcDbEntity
  8
ZUWAKU
100
AcDbText
 10
209.7240463258333
 20
24.05535640667426
 30
0.0
 40
4.0
  1
品名
 41
0.9
  7
ｽﾀｲﾙ1
100
AcDbText
  0
LINE
  5
3F87
330
1A
100
AcDbEntity
  8
ZUWAKU
100
AcDbLine
 10
648.8172025237602
 20
15.19999986828871
 30
0.0
 11
697.2490105620973
 21
15.19999986828872
 31
0.0
  0
LINE
  5
3F88
330
1A
100
AcDbEntity
  8
ZUWAKU
100
AcDbLine
 10
648.8172025237604
 20
15.39999986828872
 30
0.0
 11
697.2490105620973
 21
15.39999986828872
 31
0.0
  0
LINE
  5
3F89
330
1A
100
AcDbEntity
  8
ZUWAKU
100
AcDbLine
 10
648.8172025237602
 20
15.59999986828872
 30
0.0
 11
697.2490105620973
 21
15.59999986828872
 31
0.0
  0
TEXT
  5
3F8A
330
1A
100
AcDbEntity
  8
ZUWAKU
100
AcDbText
 10
658.2039377008584
 20
18.00492092569607
 30
0.0
 40
5.6
  1
　　．　　．　　
 41
0.9
  7
ｽﾀｲﾙ1
100
AcDbText
  0
LINE
  5
3F8B
330
1A
100
AcDbEntity
  8
ZUWAKU
100
AcDbLine
 10
505.1991795116969
 20
15.19999986828872
 30
0.0
 11
552.5269557796685
 21
15.19999986828872
 31
0.0
  0
LINE
  5
3F8C
330
1A
100
AcDbEntity
  8
ZUWAKU
100
AcDbLine
 10
505.1991795116969
 20
15.39999986828872
 30
0.0
 11
552.5269557796685
 21
15.39999986828872
 31
0.0
  0
LINE
  5
3F8D
330
1A
100
AcDbEntity
  8
ZUWAKU
100
AcDbLine
 10
505.1991795116969
 20
15.59999986828872
 30
0.0
 11
552.5269557796685
 21
15.59999986828872
 31
0.0
  0
TEXT
  5
3F8E
330
1A
100
AcDbEntity
  8
moji
100
AcDbText
 10
463.2464320045581
 20
11.94261758994867
 30
0.0
 40
5.6
  1
ＬＧ３９□
 41
0.9
  7
ｽﾀｲﾙ1
100
AcDbText
  0
LINE
  5
3F8F
330
1A
100
AcDbEntity
  8
ZUWAKU
100
AcDbLine
 10
447.6243639845472
 20
29.99999986828868
 30
0.0
 11
447.6243639845475
 21
0.7999998682887508
 31
0.0
  0
LINE
  5
3F90
330
1A
100
AcDbEntity
  8
ZUWAKU
100
AcDbLine
 10
447.8243639845473
 20
29.99999986828868
 30
0.0
 11
447.8243639845475
 21
0.7999998682887508
 31
0.0
  0
LINE
  5
3F91
330
1A
100
AcDbEntity
  8
ZUWAKU
100
AcDbLine
 10
447.4243639845474
 20
29.99999986828868
 30
0.0
 11
447.4243639845474
 21
0.7999998682887508
 31
0.0
  0
TEXT
  5
3F92
330
1A
100
AcDbEntity
  8
moji
100
AcDbText
 10
528.0409079858689
 20
18.00492092569607
 30
0.0
 40
5.6
  1
Ａ３
 41
0.9
  7
ｽﾀｲﾙ1
100
AcDbText
  0
LINE
  5
3F93
330
1A
100
AcDbEntity
  8
ZUWAKU
100
AcDbLine
 10
504.9991795116969
 20
29.99999986828868
 30
0.0
 11
504.9991795116971
 21
0.7999998682887508
 31
0.0
  0
LINE
  5
3F94
330
1A
100
AcDbEntity
  8
ZUWAKU
100
AcDbLine
 10
505.1991795116969
 20
29.99999986828868
 30
0.0
 11
505.1991795116971
 21
0.7999998682887508
 31
0.0
  0
LINE
  5
3F95
330
1A
100
AcDbEntity
  8
ZUWAKU
100
AcDbLine
 10
504.7991795116971
 20
29.99999986828868
 30
0.0
 11
504.7991795116971
 21
0.7999998682887508
 31
0.0
  0
TEXT
  5
3F97
330
1A
100
AcDbEntity
  8
ZUWAKU
100
AcDbText
 10
506.6766245339068
 20
9.655356406674301
 30
0.0
 40
4.0
  1
縮尺
 41
0.9
  7
ｽﾀｲﾙ1
100
AcDbText
  0
TEXT
  5
3F98
330
1A
100
AcDbEntity
  8
moji
100
AcDbText
 10
528.0409079858689
 20
3.204920925696104
 30
0.0
 40
5.6
  1
１/２
 41
0.9
  7
ｽﾀｲﾙ1
100
AcDbText
  0
TEXT
  5
3F99
330
1A
100
AcDbEntity
  8
ZUWAKU
100
AcDbText
 10
449.3018090067569
 20
24.05535640667426
 30
0.0
 40
4.0
  1
品番
 41
0.9
  7
ｽﾀｲﾙ1
100
AcDbText
  0
TEXT
  5
3F9A
330
1A
100
AcDbEntity
  8
ZUWAKU
100
AcDbText
 10
506.6766245339065
 20
24.05535640667426
 30
0.0
 40
4.0
  1
用紙
 41
0.9
  7
ｽﾀｲﾙ1
100
AcDbText
  0
LINE
  5
3F9B
330
1A
100
AcDbEntity
  8
ZUWAKU
100
AcDbLine
 10
648.6172025237604
 20
29.99999986828868
 30
0.0
 11
648.6172025237606
 21
0.7999998682887508
 31
0.0
  0
LINE
  5
3F9C
330
1A
100
AcDbEntity
  8
ZUWAKU
100
AcDbLine
 10
648.8172025237604
 20
29.99999986828868
 30
0.0
 11
648.8172025237607
 21
0.7999998682887508
 31
0.0
  0
LINE
  5
3F9D
330
1A
100
AcDbEntity
  8
ZUWAKU
100
AcDbLine
 10
648.4172025237606
 20
29.99999986828868
 30
0.0
 11
648.4172025237606
 21
0.7999998682887508
 31
0.0
  0
LINE
  5
3F9E
330
1A
100
AcDbEntity
  8
ZUWAKU
100
AcDbLine
 10
552.7269557796683
 20
29.99999986828868
 30
0.0
 11
552.7269557796685
 21
0.7999998682887508
 31
0.0
  0
LINE
  5
3F9F
330
1A
100
AcDbEntity
  8
ZUWAKU
100
AcDbLine
 10
552.9269557796683
 20
29.99999986828868
 30
0.0
 11
552.9269557796686
 21
0.7999998682887508
 31
0.0
  0
LINE
  5
3FA0
330
1A
100
AcDbEntity
  8
ZUWAKU
100
AcDbLine
 10
552.5269557796685
 20
29.99999986828868
 30
0.0
 11
552.5269557796685
 21
0.7999998682887508
 31
0.0
  0
TEXT
  5
3FA1
330
1A
100
AcDbEntity
  8
ZUWAKU
100
AcDbText
 10
650.2946475459701
 20
24.05535640667426
 30
0.0
 40
4.0
  1
DATE
 41
0.9
  7
ｽﾀｲﾙ1
100
AcDbText
  0
LINE
  5
3FA2
330
1A
100
AcDbEntity
  8
ZUWAKU
100
AcDbLine
 10
697.2490105620973
 20
29.99999986828868
 30
0.0
 11
697.2490105620973
 21
0.7999998682887508
 31
0.0
  0
LINE
  5
3FA3
330
1A
100
AcDbEntity
  8
ZUWAKU
100
AcDbLine
 10
697.4490105620973
 20
29.99999986828868
 30
0.0
 11
697.4490105620973
 21
0.7999998682887508
 31
0.0
  0
LINE
  5
3FA4
330
1A
100
AcDbEntity
  8
ZUWAKU
100
AcDbLine
 10
697.6490105620972
 20
29.99999986828868
 30
0.0
 11
697.6490105620974
 21
0.7999998682887508
 31
0.0
  0
LINE
  5
3FA5
330
1A
100
AcDbEntity
  8
ZUWAKU
100
AcDbLine
 10
697.8490105620972
 20
29.99999986828868
 30
0.0
 11
697.8490105620974
 21
0.7999998682887508
 31
0.0
  0
TEXT
  5
3FA6
330
1A
100
AcDbEntity
  8
ZUWAKU
100
AcDbText
 10
708.5280842057998
 20
17.55383920397549
 30
0.0
 40
6.0
  1
積水化学工業株式会社
 41
0.9
  7
ｽﾀｲﾙ1
100
AcDbText
  0
TEXT
  5
3FA7
330
1A
100
AcDbEntity
  8
ZUWAKU
100
AcDbText
 10
708.5280842057998
 20
6.648840182142749
 30
0.0
 40
6.0
  1
建材事業部
 41
0.9
  7
ｽﾀｲﾙ1
100
AcDbText
  0
TEXT
  5
6DB4
330
1A
100
AcDbEntity
  8
ZUWAKU
100
AcDbText
 10
462.1716760137121
 20
2.614070779428175
 30
0.0
 40
3.0
  1
□には色品番が入ります
 41
0.9
  7
ｽﾀｲﾙ1
100
AcDbText
  0
LINE
  5
9551
330
1A
100
AcDbEntity
  8
SEIHIN
  6
Continuous
 62
     3
 48
5.0
100
AcDbLine
 10
415.5915190329256
 20
152.9163982525762
 30
0.0
 11
417.3236190329255
 21
151.9163982525762
 31
0.0
  0
LINE
  5
9552
330
1A
100
AcDbEntity
  8
SEIHIN
  6
Continuous
 62
     3
 48
5.0
100
AcDbLine
 10
585.3846190329257
 20
477.4366378839914
 30
0.0
 11
295.1086190329257
 21
477.4366378839914
 31
0.0
  0
LINE
  5
9553
330
1A
100
AcDbEntity
  8
SEIHIN
  6
Continuous
 62
     3
 48
5.0
100
AcDbLine
 10
295.1086190329257
 20
496.4366378839914
 30
0.0
 11
585.3846190329257
 21
496.4366378839914
 31
0.0
  0
LINE
  5
9554
330
1A
100
AcDbEntity
  8
SEIHIN
  6
Continuous
 62
     3
 48
5.0
100
AcDbLine
 10
358.4467190329257
 20
92.65619825257625
 30
0.0
 11
419.9984190329257
 21
92.65619825257625
 31
0.0
  0
LINE
  5
9555
330
1A
100
AcDbEntity
  8
SEIHIN
  6
Continuous
 62
     3
 48
5.0
100
AcDbLine
 10
419.9722190329258
 20
95.15619825257616
 30
0.0
 11
330.8813190329256
 21
95.15619825257616
 31
0.0
  0
LINE
  5
9556
330
1A
100
AcDbEntity
  8
SEIHIN
  6
Continuous
 62
     3
 48
5.0
100
AcDbLine
 10
330.8813190329256
 20
97.15619825257616
 30
0.0
 11
419.9722190329258
 21
97.15619825257616
 31
0.0
  0
LINE
  5
9557
330
1A
100
AcDbEntity
  8
CENTER L
  6
CENTER
 62
     1
 48
5.0
100
AcDbLine
 10
593.6151190329258
 20
486.9366378839914
 30
0.0
 11
279.8635190329258
 21
486.9366378839914
 31
0.0
  0
LINE
  5
9558
330
1A
100
AcDbEntity
  8
SEIHIN
  6
Continuous
 62
     3
 48
5.0
100
AcDbLine
 10
419.4472190329256
 20
159.5945982525763
 30
0.0
 11
415.5915190329256
 21
152.9163982525762
 31
0.0
  0
DIMENSION
  5
9559
330
1A
100
AcDbEntity
  8
SUNPOU
 48
5.0
100
AcDbDimension
  2
*D1
 10
295.1086190329257
 20
446.3204029816239
 30
0.0
 11
440.2466190329257
 21
451.3204029816239
 31
0.0
 70
    32
 71
     5
 42
290.276
  3
STANDARD
100
AcDbAlignedDimension
 13
585.3846190329257
 23
477.4366378839914
 33
0.0
 14
295.1086190329257
 24
477.4366378839914
 34
0.0
100
AcDbRotatedDimension
1001
ACAD
1000
DSTYLE
1002
{
1070
   140
1040
6.0
1070
    74
1070
     0
1070
   172
1070
     1
1070
    73
1070
     0
1070
   272
1070
     2
1070
    77
1070
     3
1070
   173
1070
     1
1070
   147
1040
2.0
1070
    42
1040
6.0
1070
    44
1040
3.0
1070
    43
1040
14.0
1070
   271
1070
     0
1070
   178
1070
     4
1070
   177
1070
     4
1070
   176
1070
     4
1070
   141
1040
150.0
1070
     7
1000
_OPEN
1070
     6
1000
_OPEN
1070
    41
1040
7.0
1002
}
  0
DIMENSION
  5
955A
330
1A
100
AcDbEntity
  8
SUNPOU
100
AcDbDimension
  2
*D2
 10
422.3446572873647
 20
61.1138607361284
 30
0.0
 11
375.5263525282734
 21
66.1138607361284
 31
0.0
 70
    32
 71
     5
 42
93.6366095181827
  3
STANDARD
100
AcDbAlignedDimension
 13
328.708047769182
 23
95.15619825257616
 33
0.0
 14
422.3446572873647
 24
95.15619825257616
 34
0.0
100
AcDbRotatedDimension
1001
ACAD
1000
DSTYLE
1002
{
1070
   140
1040
6.0
1070
    74
1070
     0
1070
   172
1070
     1
1070
    73
1070
     0
1070
   272
1070
     2
1070
    77
1070
     3
1070
   173
1070
     1
1070
   147
1040
2.0
1070
    42
1040
6.0
1070
    44
1040
3.0
1070
    43
1040
14.0
1070
   271
1070
     0
1070
   178
1070
     4
1070
   177
1070
     4
1070
   176
1070
     4
1070
   141
1040
150.0
1070
     7
1000
_OPEN
1070
     6
1000
_OPEN
1070
    41
1040
7.0
1002
}
  0
DIMENSION
  5
955B
330
1A
100
AcDbEntity
  8
SUNPOU
100
AcDbDimension
  2
*D3
 10
434.3235690329256
 20
205.9463254014141
 30
0.0
 11
364.7160940329256
 21
210.9463254014141
 31
0.0
 70
    32
 71
     5
 42
139.2149499999998
  3
STANDARD
100
AcDbAlignedDimension
 13
295.1086190329257
 23
176.7123982525763
 33
0.0
 14
434.3235690329256
 24
195.6752982525762
 34
0.0
100
AcDbRotatedDimension
1001
ACAD
1000
DSTYLE
1002
{
1070
   140
1040
6.0
1070
    74
1070
     0
1070
   172
1070
     1
1070
    73
1070
     0
1070
   272
1070
     2
1070
    77
1070
     3
1070
   173
1070
     1
1070
   147
1040
2.0
1070
    42
1040
6.0
1070
    44
1040
3.0
1070
    43
1040
14.0
1070
   271
1070
     0
1070
   178
1070
     4
1070
   177
1070
     4
1070
   176
1070
     4
1070
   141
1040
150.0
1070
     7
1000
_OPEN
1070
     6
1000
_OPEN
1070
    41
1040
7.0
1002
}
  0
ELLIPSE
  5
955C
330
1A
100
AcDbEntity
  8
SEIHIN
 48
5.0
100
AcDbEllipse
 10
185.4480737851629
 20
297.8025083202308
 30
0.0
 11
-2.100000000015996
 21
0.0
 31
0.0
210
0.0
220
0.0
230
1.0
 40
0.3958053577386284
 41
0.0
 42
6.283185307179586
  0
LINE
  5
955D
330
1A
100
AcDbEntity
  8
SEIHIN
  6
Continuous
 62
     3
 48
5.0
100
AcDbLine
 10
175.9477599283761
 20
320.0845982525761
 30
0.0
 11
175.9475190329257
 21
95.15569825257626
 31
0.0
  0
LINE
  5
955E
330
1A
100
AcDbEntity
  8
SEIHIN
  6
Continuous
 62
     3
 48
5.0
100
AcDbLine
 10
194.9476394807799
 20
320.0845982525761
 30
0.0
 11
194.9475190329257
 21
95.15569825257626
 31
0.0
  0
LINE
  5
955F
330
1A
100
AcDbEntity
  8
CENTER L
  6
CENTER
 62
     1
 48
5.0
100
AcDbLine
 10
185.4482606474832
 20
327.0845982525761
 30
0.0
 11
185.4473190329257
 21
85.96229825257626
 31
0.0
  0
ELLIPSE
  5
9560
330
1A
100
AcDbEntity
  8
SEIHIN
 48
5.0
100
AcDbEllipse
 10
185.4480737851629
 20
279.2341565925222
 30
0.0
 11
-2.100000000015996
 21
0.0
 31
0.0
210
0.0
220
0.0
230
1.0
 40
0.3958053577386284
 41
0.0
 42
6.283185307179586
  0
ARC
  5
9561
330
1A
100
AcDbEntity
  8
SEIHIN
  6
Continuous
 62
     3
 48
5.0
100
AcDbCircle
 10
335.9956853350908
 20
126.4929474205682
 30
0.0
 40
19.50003492220329
100
AcDbArc
 50
187.9999075418376
 51
240.8508611361806
  0
ARC
  5
9562
330
1A
100
AcDbEntity
  8
SEIHIN
  6
Continuous
 62
     3
 48
5.0
100
AcDbCircle
 10
335.9957172063946
 20
126.4929009176279
 30
0.0
 40
17.50000320042854
100
AcDbArc
 50
187.9999105761425
 51
240.8507993532658
  0
DIMENSION
  5
9563
330
1A
100
AcDbEntity
  8
SUNPOU
 48
5.0
100
AcDbDimension
  2
*D4
 10
261.6015620360336
 20
95.76939391177224
 30
0.0
 11
256.6015620360336
 21
136.2408960821743
 31
0.0
 70
    32
 71
     5
 42
80.94300434080405
  3
STANDARD
100
AcDbAlignedDimension
 13
295.1086190329257
 23
176.7123982525763
 33
0.0
 14
329.2411767756205
 24
95.76939391177223
 34
0.0
 50
90.0
100
AcDbRotatedDimension
1001
ACAD
1000
DSTYLE
1002
{
1070
   140
1040
6.0
1070
    74
1070
     0
1070
   172
1070
     1
1070
    73
1070
     0
1070
   272
1070
     2
1070
    77
1070
     3
1070
   173
1070
     1
1070
   147
1040
2.0
1070
    42
1040
6.0
1070
    44
1040
3.0
1070
    43
1040
14.0
1070
   271
1070
     0
1070
   178
1070
     4
1070
   177
1070
     4
1070
   176
1070
     4
1070
   141
1040
150.0
1070
     7
1000
_OPEN
1070
     6
1000
_OPEN
1070
    41
1040
7.0
1002
}
  0
LINE
  5
9564
330
1A
100
AcDbEntity
  8
SEIHIN
  6
Continuous
 62
     3
 48
5.0
100
AcDbLine
 10
194.9476190329257
 20
109.3429982525763
 30
0.0
 11
175.9476190329256
 21
109.3429982525763
 31
0.0
  0
ARC
  5
9565
330
1A
100
AcDbEntity
  8
SEIHIN
  6
Continuous
 62
     3
 48
5.0
100
AcDbCircle
 10
185.4472690329257
 20
99.10619825282436
 30
0.0
 40
6.450075565801553
100
AcDbArc
 50
219.8143855317391
 51
320.185614468261
  0
LINE
  5
9566
330
1A
100
AcDbEntity
  8
SEIHIN
  6
Continuous
 62
     3
 48
5.0
100
AcDbLine
 10
194.9475190329257
 20
95.15569825257626
 30
0.0
 11
175.9475190329257
 21
95.15579825257626
 31
0.0
  0
ARC
  5
9567
330
1A
100
AcDbEntity
  8
SEIHIN
  6
Continuous
 62
     3
 48
5.0
100
AcDbCircle
 10
180.1088019882041
 20
94.65600623270353
 30
0.0
 40
0.4999920201631555
100
AcDbArc
 50
39.82122477698788
 51
89.99804678760151
  0
ARC
  5
9568
330
1A
100
AcDbEntity
  8
SEIHIN
  6
Continuous
 62
     3
 48
5.0
100
AcDbCircle
 10
190.7858540630797
 20
94.65596782942728
 30
0.0
 40
0.5000304273696953
100
AcDbArc
 50
89.99255545707494
 51
140.1767152524519
  0
LINE
  5
9569
330
1A
100
AcDbEntity
  8
SEIHIN
  6
Continuous
 62
     3
 48
5.0
100
AcDbLine
 10
344.0386190329257
 20
93.19079825257626
 30
0.0
 11
358.4467190329257
 21
92.65619825257625
 31
0.0
  0
LINE
  5
956A
330
1A
100
AcDbEntity
  8
SEIHIN
  6
Continuous
 62
     3
 48
5.0
100
AcDbLine
 10
330.3862190329257
 20
97.58659825257627
 30
0.0
 11
328.7296190329256
 21
109.3737982525763
 31
0.0
  0
LINE
  5
956B
330
1A
100
AcDbEntity
  8
SEIHIN
  6
Continuous
 62
     3
 48
5.0
100
AcDbLine
 10
328.4056190329258
 20
97.30819825257623
 30
0.0
 11
326.7491190329256
 21
109.0953982525762
 31
0.0
  0
ARC
  5
956C
330
1A
100
AcDbEntity
  8
SEIHIN
  6
Continuous
 62
     3
 48
5.0
100
AcDbCircle
 10
330.8813373422894
 20
97.65618233706951
 30
0.0
 40
0.4999840848286006
100
AcDbArc
 50
187.9999709512645
 51
269.9979018346716
  0
ARC
  5
956D
330
1A
100
AcDbEntity
  8
SEIHIN
  6
Continuous
 62
     3
 48
5.0
100
AcDbCircle
 10
330.8812966590202
 20
97.65621770142479
 30
0.0
 40
2.50001944894875
100
AcDbArc
 50
188.0019438082488
 51
270.0005127681488
  0
ARC
  5
956E
330
1A
100
AcDbEntity
  8
SEIHIN
  6
Continuous
 62
     3
 48
5.0
100
AcDbCircle
 10
326.2539313222857
 20
109.0257803201408
 30
0.0
 40
0.5000575219766104
100
AcDbArc
 50
8.002704766448179
 51
60.84857794814918
  0
ARC
  5
956F
330
1A
100
AcDbEntity
  8
SEIHIN
  6
Continuous
 62
     3
 48
5.0
100
AcDbCircle
 10
326.2539091355538
 20
109.0258126936225
 30
0.0
 40
2.500046688600947
100
AcDbArc
 50
8.001071730092967
 51
60.84887443801096
  0
ARC
  5
9570
330
1A
100
AcDbEntity
  8
SEIHIN
  6
Continuous
 62
     3
 48
5.0
100
AcDbCircle
 10
344.4095718201743
 20
103.1838796996181
 30
0.0
 40
9.999964138814701
100
AcDbArc
 50
233.3955363415672
 51
267.8741017130097
  0
LINE
  5
9571
330
1A
100
AcDbEntity
  8
CENTER L
  6
CENTER
 62
     1
 48
5.0
100
AcDbLine
 10
375.4467190329257
 20
87.70499825257625
 30
0.0
 11
375.4467190329257
 21
109.2551982525763
 31
0.0
  0
LINE
  5
9572
330
1A
100
AcDbEntity
  8
SEIHIN
  6
Continuous
 62
     3
 48
5.0
100
AcDbLine
 10
415.9722190329258
 20
97.15619825257616
 30
0.0
 11
384.8656190329257
 21
97.15619825257616
 31
0.0
  0
DIMENSION
  5
9573
330
1A
100
AcDbEntity
  8
SUNPOU
 48
5.0
100
AcDbDimension
  2
*D5
 10
261.6015620360336
 20
176.7123982525763
 30
0.0
 11
256.6015620360335
 21
194.0003482525762
 31
0.0
 70
    32
 71
     5
 42
34.57589999999982
  3
STANDARD
100
AcDbAlignedDimension
 13
289.6431190329256
 23
211.2882982525761
 33
0.0
 14
295.1086190329257
 24
176.7123982525763
 34
0.0
 50
90.0
100
AcDbRotatedDimension
1001
ACAD
1000
DSTYLE
1002
{
1070
   140
1040
6.0
1070
    74
1070
     0
1070
   172
1070
     1
1070
    73
1070
     0
1070
   272
1070
     2
1070
    77
1070
     3
1070
   173
1070
     1
1070
   147
1040
2.0
1070
    42
1040
6.0
1070
    44
1040
3.0
1070
    43
1040
14.0
1070
   271
1070
     0
1070
   178
1070
     4
1070
   177
1070
     4
1070
   176
1070
     4
1070
   141
1040
150.0
1070
     7
1000
_OPEN
1070
     6
1000
_OPEN
1070
    41
1040
7.0
1002
}
  0
DIMENSION
  5
9574
330
1A
100
AcDbEntity
  8
SUNPOU
100
AcDbDimension
  2
*D6
 10
317.7494186995632
 20
130.5794123497154
 30
0.0
 11
290.1861635776962
 21
126.7056873842426
 31
0.0
 70
   161
  1
t<>
 71
     5
 42
2.00005681101851
  3
STANDARD
100
AcDbAlignedDimension
 13
316.6854190329257
 23
123.7790982525763
 33
0.0
 14
318.6660118040365
 24
124.0574496892976
 34
0.0
1001
ACAD
1000
DSTYLE
1002
{
1070
   288
1070
     1
1070
   140
1040
6.0
1070
    74
1070
     0
1070
   172
1070
     1
1070
    73
1070
     0
1070
   272
1070
     2
1070
    77
1070
     3
1070
   173
1070
     1
1070
   147
1040
2.0
1070
    42
1040
6.0
1070
    44
1040
3.0
1070
    43
1040
14.0
1070
   271
1070
     1
1070
   178
1070
     4
1070
   177
1070
     4
1070
   176
1070
     4
1070
   141
1040
150.0
1070
     7
1000
_OPEN
1070
     6
1000
_OPEN
1070
    41
1040
7.0
1002
}
  0
LINE
  5
9575
330
1A
100
AcDbEntity
  8
SEIHIN
  6
Continuous
 62
     3
 48
5.0
100
AcDbLine
 10
192.4477190329257
 20
209.4896982525762
 30
0.0
 11
192.4476190329257
 21
176.7121982525762
 31
0.0
  0
LINE
  5
9576
330
1A
100
AcDbEntity
  8
SEIHIN
  6
Continuous
 62
     3
 48
5.0
100
AcDbLine
 10
178.4477190329257
 20
209.3730982525761
 30
0.0
 11
178.4477190329257
 21
176.7121982525762
 31
0.0
  0
LINE
  5
9577
330
1A
100
AcDbEntity
  8
SEIHIN
  6
Continuous
 62
     3
 48
5.0
100
AcDbLine
 10
194.9475190329257
 20
158.1978982525762
 30
0.0
 11
175.9475190329257
 21
158.1979982525762
 31
0.0
  0
LINE
  5
9578
330
1A
100
AcDbEntity
  8
CENTER L
  6
CENTER
 62
     1
 48
5.0
100
AcDbLine
 10
182.8699190329257
 20
169.1459982525763
 30
0.0
 11
188.3031190329257
 21
169.1459982525763
 31
0.0
  0
LINE
  5
9579
330
1A
100
AcDbEntity
  8
SEIHIN
  6
Continuous
 62
     3
 48
5.0
100
AcDbLine
 10
185.4474190329256
 20
161.8168982525763
 30
0.0
 11
192.9475190329256
 21
161.8168982525763
 31
0.0
  0
LINE
  5
957A
330
1A
100
AcDbEntity
  8
SEIHIN
  6
Continuous
 62
     3
 48
5.0
100
AcDbLine
 10
185.4476190329256
 20
161.8168982525763
 30
0.0
 11
177.9475190329257
 21
161.8168982525763
 31
0.0
  0
ARC
  5
957B
330
1A
100
AcDbEntity
  8
SEIHIN
  6
Continuous
 62
     3
 48
5.0
100
AcDbCircle
 10
177.9475190329257
 20
163.8168982525763
 30
0.0
 40
2.0
100
AcDbArc
 50
180.0
 51
270.0
  0
ARC
  5
957C
330
1A
100
AcDbEntity
  8
SEIHIN
  6
Continuous
 62
     3
 48
5.0
100
AcDbCircle
 10
185.4477190329257
 20
169.1459982525763
 30
0.0
 40
1.599999999999994
100
AcDbArc
 50
0.0
 51
180.0
  0
ARC
  5
957D
330
1A
100
AcDbEntity
  8
SEIHIN
  6
Continuous
 62
     3
 48
5.0
100
AcDbCircle
 10
185.4477190329257
 20
169.1459982525763
 30
0.0
 40
1.499999999999957
100
AcDbArc
 50
0.0
 51
180.0
  0
ARC
  5
957E
330
1A
100
AcDbEntity
  8
SEIHIN
  6
Continuous
 62
     3
 48
5.0
100
AcDbCircle
 10
185.4477190329257
 20
169.1459982525763
 30
0.0
 40
1.599999999999994
100
AcDbArc
 50
180.0
 51
0.0
  0
ARC
  5
957F
330
1A
100
AcDbEntity
  8
SEIHIN
  6
Continuous
 62
     3
 48
5.0
100
AcDbCircle
 10
185.4477190329257
 20
169.1459982525763
 30
0.0
 40
1.499999999999957
100
AcDbArc
 50
180.0
 51
0.0
  0
ARC
  5
9580
330
1A
100
AcDbEntity
  8
SEIHIN
  6
Continuous
 62
     3
 48
5.0
100
AcDbCircle
 10
178.9476077003829
 20
173.7541848432537
 30
0.0
 40
2.999988667487201
100
AcDbArc
 50
99.59582226731081
 51
179.9997438998346
  0
ARC
  5
9581
330
1A
100
AcDbEntity
  8
SEIHIN
  6
Continuous
 62
     3
 48
5.0
100
AcDbCircle
 10
192.9475190329257
 20
163.8168982525763
 30
0.0
 40
2.000000000000043
100
AcDbArc
 50
269.9999999999984
 51
359.9999999999988
  0
ARC
  5
9582
330
1A
100
AcDbEntity
  8
SEIHIN
  6
Continuous
 62
     3
 48
5.0
100
AcDbCircle
 10
191.9475386997213
 20
173.7541749824576
 30
0.0
 40
2.999980333294656
100
AcDbArc
 50
0.0004444294428993
 51
80.40624922217114
  0
LINE
  5
9583
330
1A
100
AcDbEntity
  8
SEIHIN
  6
Continuous
 62
     3
 48
5.0
100
AcDbLine
 10
190.4480592828777
 20
275.5204995125537
 30
0.0
 11
190.4478478582862
 21
221.3803172596027
 31
0.0
  0
LINE
  5
9584
330
1A
100
AcDbEntity
  8
SEIHIN
  6
Continuous
 62
     3
 48
5.0
100
AcDbLine
 10
180.4480592872634
 20
275.521642101864
 30
0.0
 11
180.4479070841187
 21
236.5464881807375
 31
0.0
  0
LINE
  5
9585
330
1A
100
AcDbEntity
  8
SEIHIN
  6
Continuous
 62
     3
 48
5.0
100
AcDbLine
 10
190.4479190329257
 20
223.5422982525762
 30
0.0
 11
180.4479190329257
 21
223.5422982525762
 31
0.0
  0
LINE
  5
9586
330
1A
100
AcDbEntity
  8
SEIHIN
  6
Continuous
 62
     3
 48
5.0
100
AcDbLine
 10
190.4478190329257
 20
211.3716982525762
 30
0.0
 11
185.4478190329257
 21
211.3716982525762
 31
0.0
  0
LINE
  5
9587
330
1A
100
AcDbEntity
  8
SEIHIN
  6
Continuous
 62
     3
 48
5.0
100
AcDbLine
 10
190.4478190329257
 20
211.2881982525761
 30
0.0
 11
185.4478190329257
 21
211.2881982525761
 31
0.0
  0
ARC
  5
9588
330
1A
100
AcDbEntity
  8
SEIHIN
 48
5.0
100
AcDbCircle
 10
185.4479113561374
 20
236.3964254155753
 30
0.0
 40
5.051827163058808
100
AcDbArc
 50
188.2147871173531
 51
351.7852128826469
  0
LINE
  5
9589
330
1A
100
AcDbEntity
  8
SEIHIN
  6
Continuous
 62
     3
 48
5.0
100
AcDbLine
 10
180.4479190329257
 20
211.3716982525762
 30
0.0
 11
180.4479190329257
 21
236.5463982525762
 31
0.0
  0
ARC
  5
958A
330
1A
100
AcDbEntity
  8
SEIHIN
  6
Continuous
 62
     3
 48
5.0
100
AcDbCircle
 10
180.4478190329257
 20
209.3716982525762
 30
0.0
 40
2.0
100
AcDbArc
 50
90.0
 51
180.0
  0
ARC
  5
958B
330
1A
100
AcDbEntity
  8
SEIHIN
  6
Continuous
 62
     3
 48
5.0
100
AcDbCircle
 10
180.4478190329257
 20
209.2881982525761
 30
0.0
 40
2.0
100
AcDbArc
 50
90.0
 51
180.0
  0
LINE
  5
958C
330
1A
100
AcDbEntity
  8
SEIHIN
  6
Continuous
 62
     3
 48
5.0
100
AcDbLine
 10
180.4478190329257
 20
211.3716982525762
 30
0.0
 11
185.4478190329257
 21
211.3716982525762
 31
0.0
  0
LINE
  5
958D
330
1A
100
AcDbEntity
  8
SEIHIN
  6
Continuous
 62
     3
 48
5.0
100
AcDbLine
 10
180.4478190329257
 20
211.2881982525761
 30
0.0
 11
185.4478190329257
 21
211.2881982525761
 31
0.0
  0
LINE
  5
958E
330
1A
100
AcDbEntity
  8
SEIHIN
  6
Continuous
 62
     3
 48
5.0
100
AcDbLine
 10
180.4479190329257
 20
221.8497982525763
 30
0.0
 11
175.9476190329256
 21
221.8497982525763
 31
0.0
  0
LINE
  5
958F
330
1A
100
AcDbEntity
  8
SEIHIN
  6
Continuous
 62
     3
 48
5.0
100
AcDbLine
 10
190.4479190329257
 20
211.3716982525762
 30
0.0
 11
190.4479190329257
 21
236.5461982525762
 31
0.0
  0
ARC
  5
9590
330
1A
100
AcDbEntity
  8
SEIHIN
  6
Continuous
 62
     3
 48
5.0
100
AcDbCircle
 10
190.4478190329257
 20
209.3716982525762
 30
0.0
 40
2.0
100
AcDbArc
 50
0.0
 51
90.0
  0
ARC
  5
9591
330
1A
100
AcDbEntity
  8
SEIHIN
  6
Continuous
 62
     3
 48
5.0
100
AcDbCircle
 10
190.4478190329257
 20
209.2881982525761
 30
0.0
 40
2.0
100
AcDbArc
 50
0.0
 51
90.0
  0
LINE
  5
9592
330
1A
100
AcDbEntity
  8
SEIHIN
  6
Continuous
 62
     3
 48
5.0
100
AcDbLine
 10
194.9476190329257
 20
221.8496982525762
 30
0.0
 11
190.4479190329257
 21
221.8496982525762
 31
0.0
  0
ARC
  5
9593
330
1A
100
AcDbEntity
  8
SEIHIN
 48
5.0
100
AcDbCircle
 10
185.4467160757268
 20
263.7652340346909
 30
0.0
 40
12.77496380937128
100
AcDbArc
 50
66.95240265177739
 51
113.034504239233
  0
ARC
  5
9594
330
1A
100
AcDbEntity
  8
SEIHIN
 48
5.0
100
AcDbCircle
 10
185.4467160757268
 20
248.2819273348809
 30
0.0
 40
12.77496380937128
100
AcDbArc
 50
66.95240265177739
 51
113.034504239233
  0
LINE
  5
9595
330
1A
100
AcDbEntity
  8
SEIHIN
 48
5.0
100
AcDbLine
 10
180.4479989299306
 20
260.0657437377156
 30
0.0
 11
175.9476956490906
 21
260.0657437377157
 31
0.0
  0
LINE
  5
9596
330
1A
100
AcDbEntity
  8
SEIHIN
 48
5.0
100
AcDbLine
 10
194.9476073411027
 20
260.0657437377157
 30
0.0
 11
190.4479989300068
 21
260.0657437377156
 31
0.0
  0
LINE
  5
9597
330
1A
100
AcDbEntity
  8
SEIHIN
  6
Continuous
 62
     3
 48
5.0
100
AcDbLine
 10
296.6020190329257
 20
161.7749982525762
 30
0.0
 11
289.6434190329258
 21
211.2883982525762
 31
0.0
  0
LINE
  5
9598
330
1A
100
AcDbEntity
  8
SEIHIN
  6
Continuous
 62
     3
 48
5.0
100
AcDbLine
 10
290.2376190329258
 20
211.3718982525762
 30
0.0
 11
297.4140190329257
 21
160.3082982525763
 31
0.0
  0
ARC
  5
9599
330
1A
100
AcDbEntity
  8
SEIHIN
  6
Continuous
 62
     3
 48
5.0
100
AcDbCircle
 10
299.8897046651084
 20
160.6562107425138
 30
0.0
 40
2.500012489978895
100
AcDbArc
 50
187.9994908279774
 51
270.0003292844705
  0
ARC
  5
959A
330
1A
100
AcDbEntity
  8
SEIHIN
  6
Continuous
 62
     3
 48
5.0
100
AcDbCircle
 10
304.8997948739825
 20
150.1562192535689
 30
0.0
 40
7.999978999043817
100
AcDbArc
 50
7.999979128050666
 51
89.99982697386007
  0
ARC
  5
959B
330
1A
100
AcDbEntity
  8
SEIHIN
  6
Continuous
 62
     3
 48
5.0
100
AcDbCircle
 10
304.8998275507935
 20
150.1561908480818
 30
0.0
 40
10.00000740449804
100
AcDbArc
 50
7.999857461286229
 51
90.0000488037517
  0
LINE
  5
959C
330
1A
100
AcDbEntity
  8
SEIHIN
  6
Continuous
 62
     3
 48
5.0
100
AcDbLine
 10
318.6660190329255
 20
124.0573982525763
 30
0.0
 11
314.8025190329256
 21
151.5478982525763
 31
0.0
  0
LINE
  5
959D
330
1A
100
AcDbEntity
  8
SEIHIN
  6
Continuous
 62
     3
 48
5.0
100
AcDbLine
 10
316.6854190329256
 20
123.7790982525763
 30
0.0
 11
312.8219190329257
 21
151.2695982525763
 31
0.0
  0
LINE
  5
959E
330
1A
100
AcDbEntity
  8
SEIHIN
  6
Continuous
 62
     3
 48
5.0
100
AcDbLine
 10
299.8897190329257
 20
158.1561982525762
 30
0.0
 11
304.8998190329257
 21
158.1561982525762
 31
0.0
  0
LINE
  5
959F
330
1A
100
AcDbEntity
  8
SEIHIN
  6
Continuous
 62
     3
 48
5.0
100
AcDbLine
 10
299.8897190329257
 20
160.1561982525762
 30
0.0
 11
304.8998190329257
 21
160.1561982525762
 31
0.0
  0
LINE
  5
95A0
330
1A
100
AcDbEntity
  8
SEIHIN
  6
Continuous
 62
     3
 48
5.0
100
AcDbLine
 10
299.3946190329256
 20
160.5865982525763
 30
0.0
 11
297.0891190329257
 21
176.9907982525762
 31
0.0
  0
LINE
  5
95A1
330
1A
100
AcDbEntity
  8
SEIHIN
  6
Continuous
 62
     3
 48
5.0
100
AcDbLine
 10
295.3709190329256
 20
167.6608982525762
 30
0.0
 11
294.9533190329256
 21
170.6316982525763
 31
0.0
  0
LINE
  5
95A2
330
1A
100
AcDbEntity
  8
SEIHIN
  6
Continuous
 62
     3
 48
5.0
100
AcDbLine
 10
294.9533190329256
 20
170.6316982525763
 30
0.0
 11
295.3494190329255
 21
170.6873982525762
 31
0.0
  0
LINE
  5
95A3
330
1A
100
AcDbEntity
  8
SEIHIN
  6
Continuous
 62
     3
 48
5.0
100
AcDbLine
 10
295.3709190329256
 20
167.6608982525762
 30
0.0
 11
295.7670190329255
 21
167.7165982525763
 31
0.0
  0
ARC
  5
95A4
330
1A
100
AcDbEntity
  8
SEIHIN
  6
Continuous
 62
     3
 48
5.0
100
AcDbCircle
 10
299.8896803828213
 20
160.6562318503187
 30
0.0
 40
0.5000335992362122
100
AcDbArc
 50
188.0049027930122
 51
270.0044286781227
  0
LINE
  5
95A5
330
1A
100
AcDbEntity
  8
SEIHIN
  6
Continuous
 62
     3
 48
5.0
100
AcDbLine
 10
297.1963190329255
 20
161.8584982525762
 30
0.0
 11
296.6020190329257
 21
161.7749982525762
 31
0.0
  0
LINE
  5
95A6
330
1A
100
AcDbEntity
  8
SEIHIN
  6
Continuous
 62
     3
 48
5.0
100
AcDbLine
 10
297.0891190329257
 20
176.9906982525762
 30
0.0
 11
295.1086190329257
 21
176.7123982525763
 31
0.0
  0
LINE
  5
95A7
330
1A
100
AcDbEntity
  8
SEIHIN
  6
Continuous
 62
     3
 48
5.0
100
AcDbLine
 10
289.6431190329256
 20
211.2882982525761
 30
0.0
 11
290.2374190329257
 21
211.3718982525762
 31
0.0
  0
ELLIPSE
  5
95A8
330
1A
100
AcDbEntity
  8
SEIHIN
 48
5.0
100
AcDbEllipse
 10
185.4480737851629
 20
316.3708945288697
 30
0.0
 11
-2.100000000015996
 21
0.0
 31
0.0
210
0.0
220
0.0
230
1.0
 40
0.3958053577386284
 41
0.0
 42
6.283185307179586
  0
ARC
  5
95A9
330
1A
100
AcDbEntity
  8
SEIHIN
  6
Continuous
 62
     3
 48
5.0
100
AcDbCircle
 10
362.4468190329255
 20
486.9366378839914
 30
0.0
 40
4.0
100
AcDbArc
 50
90.0
 51
270.0
  0
ARC
  5
95AA
330
1A
100
AcDbEntity
  8
SEIHIN
  6
Continuous
 62
     3
 48
5.0
100
AcDbCircle
 10
342.5713190329255
 20
486.9366378839914
 30
0.0
 40
4.0
100
AcDbArc
 50
90.0
 51
270.0
  0
LINE
  5
95AB
330
1A
100
AcDbEntity
  8
SEIHIN
  6
Continuous
 62
     3
 48
5.0
100
AcDbLine
 10
290.2376190329258
 20
479.9366378839914
 30
0.0
 11
290.2376190329258
 21
493.9366378839914
 31
0.0
  0
LINE
  5
95AC
330
1A
100
AcDbEntity
  8
SEIHIN
  6
Continuous
 62
     3
 48
5.0
100
AcDbLine
 10
289.6434190329258
 20
479.9366378839914
 30
0.0
 11
289.6434190329258
 21
493.9366378839914
 31
0.0
  0
LINE
  5
95AD
330
1A
100
AcDbEntity
  8
SEIHIN
  6
Continuous
 62
     3
 48
5.0
100
AcDbLine
 10
295.1086190329257
 20
477.4367378839913
 30
0.0
 11
295.1086190329257
 21
496.4366378839914
 31
0.0
  0
LINE
  5
95AE
330
1A
100
AcDbEntity
  8
SEIHIN
  6
Continuous
 62
     3
 48
5.0
100
AcDbLine
 10
299.4551190329257
 20
477.4366378839914
 30
0.0
 11
299.4551190329257
 21
496.4366378839914
 31
0.0
  0
LINE
  5
95AF
330
1A
100
AcDbEntity
  8
SEIHIN
  6
Continuous
 62
     3
 48
5.0
100
AcDbLine
 10
297.0892190329256
 20
477.4367378839913
 30
0.0
 11
297.0892190329256
 21
496.4366378839914
 31
0.0
  0
LINE
  5
95B0
330
1A
100
AcDbEntity
  8
SEIHIN
  6
Continuous
 62
     3
 48
5.0
100
AcDbLine
 10
313.5927190329257
 20
477.4366378839914
 30
0.0
 11
313.5927190329257
 21
496.4366378839914
 31
0.0
  0
LINE
  5
95B1
330
1A
100
AcDbEntity
  8
SEIHIN
  6
Continuous
 62
     3
 48
5.0
100
AcDbLine
 10
328.5495190329257
 20
477.4366378839914
 30
0.0
 11
328.5495190329257
 21
496.4366378839914
 31
0.0
  0
LINE
  5
95B2
330
1A
100
AcDbEntity
  8
SEIHIN
  6
Continuous
 62
     3
 48
5.0
100
AcDbLine
 10
330.4468190329255
 20
477.4366378839914
 30
0.0
 11
330.4468190329255
 21
496.4366378839914
 31
0.0
  0
LINE
  5
95B3
330
1A
100
AcDbEntity
  8
CENTER L
  6
CENTER
 62
     1
 48
5.0
100
AcDbLine
 10
375.4468190329255
 20
474.7753378839913
 30
0.0
 11
375.4468190329255
 21
498.8694378839914
 31
0.0
  0
LINE
  5
95B4
330
1A
100
AcDbEntity
  8
SEIHIN
  6
Continuous
 62
     3
 48
5.0
100
AcDbLine
 10
415.5916190329257
 20
477.4366378839914
 30
0.0
 11
415.5916190329257
 21
496.4365378839914
 31
0.0
  0
DIMENSION
  5
95B5
330
1A
100
AcDbEntity
  8
SUNPOU
100
AcDbDimension
  2
*D7
 10
194.9476394807799
 20
362.5348170479454
 30
0.0
 11
185.447699704578
 21
367.5348170479454
 31
0.0
 70
    32
 71
     5
 42
18.9998795524038
  3
STANDARD
100
AcDbAlignedDimension
 13
175.9477599283761
 23
320.0845982525761
 33
0.0
 14
194.9476394807799
 24
320.0845982525761
 34
0.0
100
AcDbRotatedDimension
1001
ACAD
1000
DSTYLE
1002
{
1070
    41
1040
7.0
1070
    42
1040
6.0
1070
    43
1040
14.0
1070
    44
1040
3.0
1070
    73
1070
     0
1070
    74
1070
     0
1070
    77
1070
     3
1070
   140
1040
6.0
1070
   141
1040
150.0
1070
   147
1040
2.0
1070
   172
1070
     1
1070
   173
1070
     1
1070
   176
1070
   256
1070
   177
1070
   256
1070
   178
1070
   256
1070
   271
1070
     0
1070
   272
1070
     0
1070
   341
1005
6D
1070
     6
1000
OPEN
1070
     7
1000
OPEN
1070
   371
1070
    -1
1070
   372
1070
    -1
1002
}
  0
LINE
  5
95B6
330
1A
100
AcDbEntity
  8
SEIHIN
 48
5.0
100
AcDbLine
 10
194.9476394807799
 20
320.0845982525761
 30
0.0
 11
175.9477599283761
 21
320.0845982525761
 31
0.0
  0
LINE
  5
95B7
330
1A
100
AcDbEntity
  8
SEIHIN
  6
Continuous
 62
     3
 48
5.0
100
AcDbLine
 10
415.5916190329257
 20
482.9366378839914
 30
0.0
 11
342.4468190329255
 21
482.9366378839914
 31
0.0
  0
LINE
  5
95B8
330
1A
100
AcDbEntity
  8
SEIHIN
  6
Continuous
 62
     3
 48
5.0
100
AcDbLine
 10
289.6434190329258
 20
479.9366378839914
 30
0.0
 11
295.1086190329257
 21
479.9366378839914
 31
0.0
  0
LINE
  5
95B9
330
1A
100
AcDbEntity
  8
SEIHIN
  6
Continuous
 62
     3
 48
5.0
100
AcDbLine
 10
415.5916190329257
 20
490.9366378839914
 30
0.0
 11
342.5713190329255
 21
490.9366378839914
 31
0.0
  0
LINE
  5
95BA
330
1A
100
AcDbEntity
  8
SEIHIN
  6
Continuous
 62
     3
 48
5.0
100
AcDbLine
 10
295.1086190329257
 20
493.9366378839914
 30
0.0
 11
289.6434190329258
 21
493.9366378839914
 31
0.0
  0
LINE
  5
95BB
330
1A
100
AcDbEntity
  8
SEIHIN
  6
Continuous
 62
     3
 48
5.0
100
AcDbLine
 10
436.2094190329256
 20
260.7914982525762
 30
0.0
 11
584.4530190329256
 21
320.0845982525761
 31
0.0
  0
LINE
  5
95BC
330
1A
100
AcDbEntity
  8
SEIHIN
  6
Continuous
 62
     3
 48
5.0
100
AcDbLine
 10
437.1379190329255
 20
258.4702982525762
 30
0.0
 11
585.3814190329256
 21
317.7633982525761
 31
0.0
  0
LINE
  5
95BD
330
1A
100
AcDbEntity
  8
CENTER L
  6
CENTER
 62
     1
 48
5.0
100
AcDbLine
 10
526.8868190329256
 20
302.4450982525762
 30
0.0
 11
531.5289190329256
 21
290.8389982525762
 31
0.0
  0
DIMENSION
  5
95BE
330
1A
100
AcDbEntity
  8
SUNPOU
 48
5.0
100
AcDbDimension
  2
*D8
 10
562.25491442202
 20
308.5134712180607
 30
0.0
 11
576.1815254716338
 21
287.1581556111029
 31
0.0
 70
    33
  1
t<>
 71
     5
 42
2.499981525870112
  3
STANDARD
100
AcDbAlignedDimension
 13
575.1680839185834
 23
316.3708960338753
 33
0.0
 14
576.0964951279184
 24
314.0496980121475
 34
0.0
1001
ACAD
1000
DSTYLE
1002
{
1070
   140
1040
6.0
1070
    74
1070
     0
1070
   172
1070
     1
1070
    73
1070
     0
1070
   272
1070
     2
1070
    77
1070
     3
1070
   173
1070
     1
1070
   147
1040
2.0
1070
    42
1040
6.0
1070
    44
1040
3.0
1070
    43
1040
14.0
1070
   271
1070
     1
1070
   178
1070
     4
1070
   177
1070
     4
1070
   176
1070
     4
1070
   141
1040
150.0
1070
     7
1000
_OPEN
1070
     6
1000
_OPEN
1070
    41
1040
7.0
1002
}
  0
DIMENSION
  5
95BF
330
1A
100
AcDbEntity
  8
SUNPOU
 48
5.0
100
AcDbDimension
  2
*D9
 10
606.2559771156639
 20
253.4945982525761
 30
0.0
 11
601.2559771156639
 21
286.7895982525761
 31
0.0
 70
    32
 71
     5
 42
66.59
  3
STANDARD
100
AcDbAlignedDimension
 13
584.4530190329256
 23
320.0845982525761
 33
0.0
 14
584.4529190329256
 24
253.4945982525761
 34
0.0
 50
90.0
100
AcDbRotatedDimension
1001
ACAD
1000
DSTYLE
1002
{
1070
   140
1040
6.0
1070
    74
1070
     0
1070
   172
1070
     1
1070
    73
1070
     0
1070
   272
1070
     2
1070
    77
1070
     3
1070
   173
1070
     1
1070
   147
1040
2.0
1070
    42
1040
6.0
1070
    44
1040
3.0
1070
    43
1040
14.0
1070
   271
1070
     0
1070
   178
1070
     4
1070
   177
1070
     4
1070
   176
1070
     4
1070
   141
1040
150.0
1070
     7
1000
_OPEN
1070
     6
1000
_OPEN
1070
    41
1040
7.0
1002
}
  0
DIMENSION
  5
95C0
330
1A
100
AcDbEntity
  8
SUNPOU
100
AcDbDimension
  2
*D10
 10
427.6614106782423
 20
283.9443577435319
 30
0.0
 11
499.6192744629493
 21
318.1105070535358
 31
0.0
 70
    33
 71
     5
 42
159.000124768906
  3
STANDARD
100
AcDbAlignedDimension
 13
584.4530190329257
 23
320.0845982525761
 33
0.0
 14
436.8236190329257
 24
261.0371602711727
 34
0.0
1001
ACAD
1000
DSTYLE
1002
{
1070
   140
1040
6.0
1070
    74
1070
     0
1070
   172
1070
     1
1070
    73
1070
     0
1070
   272
1070
     2
1070
    77
1070
     3
1070
   173
1070
     1
1070
   147
1040
2.0
1070
    42
1040
6.0
1070
    44
1040
3.0
1070
    43
1040
14.0
1070
   271
1070
     0
1070
   178
1070
     4
1070
   177
1070
     4
1070
   176
1070
     4
1070
   141
1040
150.0
1070
     7
1000
_OPEN
1070
     6
1000
_OPEN
1070
    41
1040
7.0
1002
}
  0
TEXT
  5
95C1
330
1A
100
AcDbEntity
  8
SUNPOU
 48
5.0
100
AcDbText
 10
617.6343761401063
 20
265.8328686814153
 30
0.0
 40
6.0
  1
スライド巾
 50
90.0
100
AcDbText
  0
LINE
  5
95C2
330
1A
100
AcDbEntity
  8
SEIHIN
  6
Continuous
 62
     3
 48
5.0
100
AcDbLine
 10
426.9626190329257
 20
125.9500982525763
 30
0.0
 11
425.4909190329257
 21
97.86829825257615
 31
0.0
  0
LINE
  5
95C3
330
1A
100
AcDbEntity
  8
SEIHIN
  6
Continuous
 62
     3
 48
5.0
100
AcDbLine
 10
422.4688190329257
 20
97.52529825257625
 30
0.0
 11
424.0662190329257
 21
128.0048982525763
 31
0.0
  0
LINE
  5
95C4
330
1A
100
AcDbEntity
  8
SEIHIN
  6
Continuous
 62
     3
 48
5.0
100
AcDbLine
 10
420.4715190329256
 20
97.62999825257626
 30
0.0
 11
422.0689190329256
 21
128.1094982525763
 31
0.0
  0
LINE
  5
95C5
330
1A
100
AcDbEntity
  8
SEIHIN
  6
PHANTOM
 62
     6
 48
5.0
100
AcDbLine
 10
434.3236190329257
 20
66.75459825257613
 30
0.0
 11
434.3235190329255
 21
191.4159982525762
 31
0.0
  0
LINE
  5
95C6
330
1A
100
AcDbEntity
  8
SEIHIN
  6
PHANTOM
 62
     6
 48
5.0
100
AcDbLine
 10
436.8236190329257
 20
66.75449825257621
 30
0.0
 11
436.8236190329257
 21
191.4160982525762
 31
0.0
  0
DIMENSION
  5
95C7
330
1A
100
AcDbEntity
  8
SUNPOU
 48
5.0
100
AcDbDimension
  2
*D11
 10
475.2837787141139
 20
95.15619825257613
 30
0.0
 11
470.2837787141139
 21
111.1561982525762
 31
0.0
 70
    32
 71
     5
 42
65.6884000000001
  3
STANDARD
100
AcDbAlignedDimension
 13
431.8236190329255
 23
160.8445982525763
 33
0.0
 14
419.9722190329258
 24
95.15619825257613
 34
0.0
 50
90.0
100
AcDbRotatedDimension
1001
ACAD
1000
DSTYLE
1002
{
1070
   140
1040
6.0
1070
    74
1070
     0
1070
   172
1070
     1
1070
    73
1070
     0
1070
   272
1070
     2
1070
    77
1070
     3
1070
   173
1070
     1
1070
   280
1070
     2
1070
   147
1040
2.0
1070
    42
1040
6.0
1070
    44
1040
3.0
1070
    43
1040
14.0
1070
   271
1070
     0
1070
   178
1070
     4
1070
   177
1070
     4
1070
   176
1070
     4
1070
   141
1040
150.0
1070
     7
1000
_OPEN
1070
     6
1000
_OPEN
1070
    41
1040
7.0
1002
}
  0
LINE
  5
95C8
330
1A
100
AcDbEntity
  8
SEIHIN
  6
PHANTOM
 62
     6
 48
5.0
100
AcDbLine
 10
434.3236190329257
 20
66.75459825257613
 30
0.0
 11
436.8236190329257
 21
66.75459825257613
 31
0.0
  0
ARC
  5
95C9
330
1A
100
AcDbEntity
  8
SEIHIN
  6
Continuous
 62
     3
 48
5.0
100
AcDbCircle
 10
419.998440236056
 20
98.15621837341169
 30
0.0
 40
5.500020120876314
100
AcDbArc
 50
269.9997791190108
 51
356.9992561333014
  0
ARC
  5
95CA
330
1A
100
AcDbEntity
  8
SEIHIN
  6
Continuous
 62
     3
 48
5.0
100
AcDbCircle
 10
419.9722121459307
 20
97.65619171749071
 30
0.0
 40
0.4999934649619701
100
AcDbArc
 50
270.0007892018065
 51
356.9970361317677
  0
ARC
  5
95CB
330
1A
100
AcDbEntity
  8
SEIHIN
  6
Continuous
 62
     3
 48
5.0
100
AcDbCircle
 10
419.9722344573775
 20
97.65621288949049
 30
0.0
 40
2.500014636961926
100
AcDbArc
 50
269.9996464996749
 51
356.9983021789674
  0
LINE
  5
95CC
330
1A
100
AcDbEntity
  8
SEIHIN
  6
PHANTOM
 62
     6
 48
5.0
100
AcDbLine
 10
436.2094190329256
 20
194.2014982525762
 30
0.0
 11
584.4530190329256
 21
253.4945982525761
 31
0.0
  0
LINE
  5
95CD
330
1A
100
AcDbEntity
  8
SEIHIN
  6
PHANTOM
 62
     6
 48
5.0
100
AcDbLine
 10
437.1379190329255
 20
191.8802982525762
 30
0.0
 11
585.3814190329256
 21
251.1733982525761
 31
0.0
  0
LINE
  5
95CE
330
1A
100
AcDbEntity
  8
SEIHIN
  6
Continuous
 62
     3
 48
5.0
100
AcDbLine
 10
434.3236190329257
 20
133.3445982525762
 30
0.0
 11
434.3235190329255
 21
258.0059982525763
 31
0.0
  0
LINE
  5
95CF
330
1A
100
AcDbEntity
  8
SEIHIN
  6
Continuous
 62
     3
 48
5.0
100
AcDbLine
 10
436.8236190329257
 20
133.3444982525763
 30
0.0
 11
436.8236190329257
 21
258.0060982525762
 31
0.0
  0
LINE
  5
95D0
330
1A
100
AcDbEntity
  8
SEIHIN
  6
PHANTOM
 62
     6
 48
5.0
100
AcDbLine
 10
435.2810190329255
 20
196.5226982525763
 30
0.0
 11
468.0858190329255
 21
209.6435982525762
 31
0.0
  0
DIMENSION
  5
95D1
330
1A
100
AcDbEntity
  8
SUNPOU
100
AcDbDimension
  2
*D12
 10
493.7855877695392
 20
133.3445982525762
 30
0.0
 11
488.7855877695392
 21
195.9074482525763
 31
0.0
 70
    32
 71
     5
 42
125.1257000000001
  3
STANDARD
100
AcDbAlignedDimension
 13
437.1379190329255
 23
258.4702982525762
 33
0.0
 14
436.8236190329257
 24
133.3445982525762
 34
0.0
 50
90.0
100
AcDbRotatedDimension
1001
ACAD
1000
DSTYLE
1002
{
1070
   140
1040
6.0
1070
    74
1070
     0
1070
   172
1070
     1
1070
    73
1070
     0
1070
   272
1070
     2
1070
    77
1070
     3
1070
   173
1070
     1
1070
   147
1040
2.0
1070
    42
1040
6.0
1070
    44
1040
3.0
1070
    43
1040
14.0
1070
   271
1070
     0
1070
   178
1070
     4
1070
   177
1070
     4
1070
   176
1070
     4
1070
   141
1040
150.0
1070
     7
1000
_OPEN
1070
     6
1000
_OPEN
1070
    41
1040
7.0
1002
}
  0
ARC
  5
95D2
330
1A
100
AcDbEntity
  8
SEIHIN
  6
Continuous
 62
     3
 48
5.0
100
AcDbCircle
 10
431.8236190329255
 20
158.3445982525762
 30
0.0
 40
2.500000000000057
100
AcDbArc
 50
359.9999999999992
 51
89.99999999999837
  0
ARC
  5
95D3
330
1A
100
AcDbEntity
  8
SEIHIN
  6
Continuous
 62
     3
 48
5.0
100
AcDbCircle
 10
448.5259559250676
 20
149.1900566858911
 30
0.0
 40
1.000033454110748
100
AcDbArc
 50
278.7636015503795
 51
16.69829124813419
  0
LINE
  5
95D4
330
1A
100
AcDbEntity
  8
SEIHIN
  6
Continuous
 62
     3
 48
5.0
100
AcDbLine
 10
450.3236190329255
 20
145.3445982525762
 30
0.0
 11
442.8236190329255
 21
145.3445982525762
 31
0.0
  0
LINE
  5
95D5
330
1A
100
AcDbEntity
  8
SEIHIN
  6
Continuous
 62
     3
 48
5.0
100
AcDbLine
 10
450.3236190329255
 20
144.5445982525763
 30
0.0
 11
442.8236190329255
 21
144.5445982525763
 31
0.0
  0
ARC
  5
95D6
330
1A
100
AcDbEntity
  8
SEIHIN
  6
Continuous
 62
     3
 48
5.0
100
AcDbCircle
 10
448.5259559250676
 20
136.4991398192614
 30
0.0
 40
1.000033454110786
100
AcDbArc
 50
343.3017087518638
 51
81.23639844961893
  0
LINE
  5
95D7
330
1A
100
AcDbEntity
  8
SEIHIN
  6
Continuous
 62
     3
 48
5.0
100
AcDbLine
 10
450.3236190329255
 20
140.3445982525762
 30
0.0
 11
442.8236190329255
 21
140.3445982525762
 31
0.0
  0
LINE
  5
95D8
330
1A
100
AcDbEntity
  8
SEIHIN
  6
Continuous
 62
     3
 48
5.0
100
AcDbLine
 10
450.3236190329255
 20
141.1445982525763
 30
0.0
 11
442.8236190329255
 21
141.1445982525763
 31
0.0
  0
LINE
  5
95D9
330
1A
100
AcDbEntity
  8
CENTER L
  6
CENTER
 62
     1
 48
5.0
100
AcDbLine
 10
452.8611190329257
 20
142.8445982525762
 30
0.0
 11
427.0403190329256
 21
142.8445982525762
 31
0.0
  0
ARC
  5
95DA
330
1A
100
AcDbEntity
  8
SEIHIN
  6
Continuous
 62
     3
 48
5.0
100
AcDbCircle
 10
447.2466264650295
 20
135.7147857725484
 30
0.0
 40
0.4999841947320869
100
AcDbArc
 50
343.2985880045711
 51
78.25293660543346
  0
LINE
  5
95DB
330
1A
100
AcDbEntity
  8
SEIHIN
  6
Continuous
 62
     3
 48
5.0
100
AcDbLine
 10
448.5412190329256
 20
133.0698982525763
 30
0.0
 11
449.4838190329257
 21
136.2117982525762
 31
0.0
  0
ARC
  5
95DC
330
1A
100
AcDbEntity
  8
SEIHIN
  6
Continuous
 62
     3
 48
5.0
100
AcDbCircle
 10
448.1227036390289
 20
143.3427074269335
 30
0.0
 40
9.50003709146038
100
AcDbArc
 50
225.6585796283951
 51
261.9449697654614
  0
ARC
  5
95DD
330
1A
100
AcDbEntity
  8
SEIHIN
  6
Continuous
 62
     3
 48
5.0
100
AcDbCircle
 10
448.1224984400305
 20
143.3428116424103
 30
0.0
 40
11.00000794205639
100
AcDbArc
 50
207.0252235677457
 51
266.909848216478
  0
LINE
  5
95DE
330
1A
100
AcDbEntity
  8
SEIHIN
  6
Continuous
 62
     3
 48
5.0
100
AcDbLine
 10
434.3236190329255
 20
135.3445982525763
 30
0.0
 11
434.3236190329255
 21
158.3445982525762
 31
0.0
  0
LINE
  5
95DF
330
1A
100
AcDbEntity
  8
SEIHIN
  6
Continuous
 62
     3
 48
5.0
100
AcDbLine
 10
432.3236190329257
 20
135.6332982525762
 30
0.0
 11
432.3236190329257
 21
158.3445982525762
 31
0.0
  0
ARC
  5
95E0
330
1A
100
AcDbEntity
  8
SEIHIN
  6
Continuous
 62
     3
 48
5.0
100
AcDbCircle
 10
431.8236032320255
 20
135.633270884845
 30
0.0
 40
2.500015801049852
100
AcDbArc
 50
300.0002090727441
 51
0.0006272182320274
  0
ARC
  5
95E1
330
1A
100
AcDbEntity
  8
SEIHIN
  6
Continuous
 62
     3
 48
5.0
100
AcDbCircle
 10
426.3236204316758
 20
135.3446006752833
 30
0.0
 40
7.999998601250127
100
AcDbArc
 50
299.9999942162114
 51
359.9999826486357
  0
LINE
  5
95E2
330
1A
100
AcDbEntity
  8
SEIHIN
  6
Continuous
 62
     3
 48
5.0
100
AcDbLine
 10
433.0736190329255
 20
133.4681982525763
 30
0.0
 11
424.3155190329258
 21
128.4116982525763
 31
0.0
  0
LINE
  5
95E3
330
1A
100
AcDbEntity
  8
SEIHIN
  6
Continuous
 62
     3
 48
5.0
100
AcDbLine
 10
423.3155190329258
 20
130.1437982525763
 30
0.0
 11
432.0736190329255
 21
135.2001982525763
 31
0.0
  0
ARC
  5
95E4
330
1A
100
AcDbEntity
  8
SEIHIN
  6
Continuous
 62
     3
 48
5.0
100
AcDbCircle
 10
424.5655231730299
 20
127.9787050086819
 30
0.0
 40
2.500027820852127
100
AcDbArc
 50
119.9997414434971
 51
177.0011039337612
  0
ARC
  5
95E5
330
1A
100
AcDbEntity
  8
SEIHIN
  6
Continuous
 62
     3
 48
5.0
100
AcDbCircle
 10
424.5654654852988
 20
127.9786108749413
 30
0.0
 40
0.5000379042838538
100
AcDbArc
 50
119.9904080984868
 51
176.9865276188688
  0
ARC
  5
95E6
330
1A
100
AcDbEntity
  8
SEIHIN
  6
Continuous
 62
     3
 48
5.0
100
AcDbCircle
 10
431.8235812307837
 20
135.6332327839444
 30
0.0
 40
0.5000378064277911
100
AcDbArc
 50
300.0025005284535
 51
0.0075015853923087
  0
LINE
  5
95E7
330
1A
100
AcDbEntity
  8
SEIHIN
  6
Continuous
 62
     3
 48
5.0
100
AcDbLine
 10
430.3236190329255
 20
128.4163982525762
 30
0.0
 11
427.4612190329257
 21
126.7637982525763
 31
0.0
  0
ARC
  5
95E8
330
1A
100
AcDbEntity
  8
SEIHIN
  6
Continuous
 62
     3
 48
5.0
100
AcDbCircle
 10
427.9612241656712
 20
125.8978066288981
 30
0.0
 40
0.9999733121701735
100
AcDbArc
 50
120.0012224461669
 51
177.0024634809457
  0
LINE
  5
95E9
330
1A
100
AcDbEntity
  8
SEIHIN
  6
Continuous
 62
     3
 48
5.0
100
AcDbLine
 10
434.3236190329257
 20
133.3445982525762
 30
0.0
 11
436.8236190329257
 21
133.3445982525762
 31
0.0
  0
ARC
  5
95EA
330
1A
100
AcDbEntity
  8
SEIHIN
  6
Continuous
 62
     3
 48
5.0
100
AcDbCircle
 10
447.5833437636691
 20
133.3573156385532
 30
0.0
 40
1.000066890370334
100
AcDbArc
 50
266.9147856447631
 51
343.297748290483
  0
ARC
  5
95EB
330
1A
100
AcDbEntity
  8
SEIHIN
  6
Continuous
 62
     3
 48
5.0
100
AcDbCircle
 10
446.861600224269
 20
134.4314862123705
 30
0.0
 40
0.5000094549856656
100
AcDbArc
 50
261.9544836462999
 51
343.2994038706947
  0
LINE
  5
95EC
330
1A
100
AcDbEntity
  8
SEIHIN
  6
Continuous
 62
     3
 48
5.0
100
AcDbLine
 10
447.3405190329257
 20
134.2877982525763
 30
0.0
 11
447.7255190329257
 21
135.5710982525762
 31
0.0
  0
ARC
  5
95ED
330
1A
100
AcDbEntity
  8
SEIHIN
  6
Continuous
 62
     3
 48
5.0
100
AcDbCircle
 10
437.4119190329257
 20
142.8445982525762
 30
0.0
 40
8.088217163874846
100
AcDbArc
 50
134.690940497346
 51
225.309059502654
  0
LINE
  5
95EE
330
1A
100
AcDbEntity
  8
SEIHIN
  6
Continuous
 62
     3
 48
5.0
100
AcDbLine
 10
431.7236190329257
 20
137.0945982525762
 30
0.0
 11
431.7236190329257
 21
148.5945982525762
 31
0.0
  0
LINE
  5
95EF
330
1A
100
AcDbEntity
  8
SEIHIN
  6
Continuous
 62
     3
 48
5.0
100
AcDbLine
 10
432.3236190329257
 20
137.0945982525762
 30
0.0
 11
431.7236190329257
 21
137.0945982525762
 31
0.0
  0
LINE
  5
95F0
330
1A
100
AcDbEntity
  8
SEIHIN
  6
Continuous
 62
     3
 48
5.0
100
AcDbLine
 10
421.6122190329257
 20
158.8445982525763
 30
0.0
 11
431.8236190329255
 21
158.8445982525763
 31
0.0
  0
ARC
  5
95F1
330
1A
100
AcDbEntity
  8
SEIHIN
  6
Continuous
 62
     3
 48
5.0
100
AcDbCircle
 10
421.6122285594497
 20
158.3446037526367
 30
0.0
 40
0.4999945000302952
100
AcDbArc
 50
90.00109167124829
 51
150.0003638904214
  0
LINE
  5
95F2
330
1A
100
AcDbEntity
  8
SEIHIN
  6
Continuous
 62
     3
 48
5.0
100
AcDbLine
 10
421.1792190329257
 20
158.5945982525762
 30
0.0
 11
417.3236190329255
 21
151.9163982525762
 31
0.0
  0
ARC
  5
95F3
330
1A
100
AcDbEntity
  8
SEIHIN
  6
Continuous
 62
     3
 48
5.0
100
AcDbCircle
 10
431.8236190329255
 20
158.3445982525762
 30
0.0
 40
0.5000000000001137
100
AcDbArc
 50
0.0000000000016284
 51
90.0
  0
LINE
  5
95F4
330
1A
100
AcDbEntity
  8
SEIHIN
  6
Continuous
 62
     3
 48
5.0
100
AcDbLine
 10
432.3236190329257
 20
148.5945982525762
 30
0.0
 11
431.7236190329257
 21
148.5945982525762
 31
0.0
  0
ARC
  5
95F5
330
1A
100
AcDbEntity
  8
SEIHIN
  6
Continuous
 62
     3
 48
5.0
100
AcDbCircle
 10
451.7262927569528
 20
128.4353216373906
 30
0.0
 40
19.99999470789223
100
AcDbArc
 50
98.76596195067017
 51
116.4318998229958
  0
LINE
  5
95F6
330
1A
100
AcDbEntity
  8
SEIHIN
  6
Continuous
 62
     3
 48
5.0
100
AcDbLine
 10
436.8236190329257
 20
136.8445982525762
 30
0.0
 11
436.8236190329257
 21
148.8445982525763
 31
0.0
  0
LINE
  5
95F7
330
1A
100
AcDbEntity
  8
SEIHIN
  6
Continuous
 62
     3
 48
5.0
100
AcDbLine
 10
438.3236190329255
 20
136.8445982525762
 30
0.0
 11
438.3236190329255
 21
148.8445982525763
 31
0.0
  0
ARC
  5
95F8
330
1A
100
AcDbEntity
  8
SEIHIN
  6
Continuous
 62
     3
 48
5.0
100
AcDbCircle
 10
448.1224984400308
 20
142.3463848627421
 30
0.0
 40
11.0000079420565
100
AcDbArc
 50
93.09015178352361
 51
152.9747764322565
  0
LINE
  5
95F9
330
1A
100
AcDbEntity
  8
SEIHIN
  6
Continuous
 62
     3
 48
5.0
100
AcDbLine
 10
439.8236190329255
 20
147.3445982525762
 30
0.0
 11
442.8236190329255
 21
146.3445982525762
 31
0.0
  0
ARC
  5
95FA
330
1A
100
AcDbEntity
  8
SEIHIN
  6
Continuous
 62
     3
 48
5.0
100
AcDbCircle
 10
441.8322312215234
 20
136.9059512493565
 30
0.0
 40
0.500004543626083
100
AcDbArc
 50
108.4345706050144
 51
225.6677491141001
  0
LINE
  5
95FB
330
1A
100
AcDbEntity
  8
SEIHIN
  6
Continuous
 62
     3
 48
5.0
100
AcDbLine
 10
439.8236190329255
 20
138.3445982525762
 30
0.0
 11
442.8236190329255
 21
139.3445982525762
 31
0.0
  0
LINE
  5
95FC
330
1A
100
AcDbEntity
  8
SEIHIN
  6
Continuous
 62
     3
 48
5.0
100
AcDbLine
 10
439.8236190329255
 20
147.3445982525762
 30
0.0
 11
439.8236190329255
 21
142.8445982525762
 31
0.0
  0
LINE
  5
95FD
330
1A
100
AcDbEntity
  8
SEIHIN
  6
Continuous
 62
     3
 48
5.0
100
AcDbLine
 10
438.3236190329255
 20
143.3445982525763
 30
0.0
 11
436.8236190329257
 21
143.3445982525763
 31
0.0
  0
LINE
  5
95FE
330
1A
100
AcDbEntity
  8
SEIHIN
  6
Continuous
 62
     3
 48
5.0
100
AcDbLine
 10
439.8236190329255
 20
147.3445982525762
 30
0.0
 11
438.3236190329255
 21
147.3445982525762
 31
0.0
  0
LINE
  5
95FF
330
1A
100
AcDbEntity
  8
SEIHIN
  6
Continuous
 62
     3
 48
5.0
100
AcDbLine
 10
438.3236190329255
 20
136.8445982525762
 30
0.0
 11
436.8236190329257
 21
136.8445982525762
 31
0.0
  0
LINE
  5
9600
330
1A
100
AcDbEntity
  8
SEIHIN
  6
Continuous
 62
     3
 48
5.0
100
AcDbLine
 10
439.8236190329255
 20
138.3445982525762
 30
0.0
 11
438.3236190329255
 21
138.3445982525762
 31
0.0
  0
LINE
  5
9601
330
1A
100
AcDbEntity
  8
SEIHIN
  6
Continuous
 62
     3
 48
5.0
100
AcDbLine
 10
438.3236190329255
 20
142.3445982525762
 30
0.0
 11
436.8236190329257
 21
142.3445982525762
 31
0.0
  0
LINE
  5
9602
330
1A
100
AcDbEntity
  8
SEIHIN
  6
Continuous
 62
     3
 48
5.0
100
AcDbLine
 10
439.8236190329255
 20
138.3445982525762
 30
0.0
 11
439.8236190329255
 21
142.8445982525762
 31
0.0
  0
LINE
  5
9603
330
1A
100
AcDbEntity
  8
SEIHIN
  6
Continuous
 62
     3
 48
5.0
100
AcDbLine
 10
442.8236190329255
 20
142.8445982525762
 30
0.0
 11
442.8236190329255
 21
146.3445982525762
 31
0.0
  0
ARC
  5
9604
330
1A
100
AcDbEntity
  8
SEIHIN
  6
Continuous
 62
     3
 48
5.0
100
AcDbCircle
 10
442.6944081469926
 20
137.1932988036928
 30
0.0
 40
0.5000470028780939
100
AcDbArc
 50
65.77109131176661
 51
108.4301621187109
  0
LINE
  5
9605
330
1A
100
AcDbEntity
  8
SEIHIN
  6
Continuous
 62
     3
 48
5.0
100
AcDbLine
 10
441.6741190329256
 20
137.3802982525762
 30
0.0
 11
442.5363190329257
 21
137.6676982525763
 31
0.0
  0
ARC
  5
9606
330
1A
100
AcDbEntity
  8
SEIHIN
  6
Continuous
 62
     3
 48
5.0
100
AcDbCircle
 10
451.7263800981048
 20
157.2538459389218
 30
0.0
 40
21.50000002065027
100
AcDbArc
 50
245.7607972558917
 51
258.2509161781104
  0
ARC
  5
9607
330
1A
100
AcDbEntity
  8
SEIHIN
  6
Continuous
 62
     3
 48
5.0
100
AcDbCircle
 10
451.7262927569525
 20
157.2538748677618
 30
0.0
 40
19.99999470789214
100
AcDbArc
 50
243.5681001770044
 51
261.2340380493315
  0
LINE
  5
9608
330
1A
100
AcDbEntity
  8
SEIHIN
  6
Continuous
 62
     3
 48
5.0
100
AcDbLine
 10
442.8236190329255
 20
142.8445982525762
 30
0.0
 11
442.8236190329255
 21
139.3445982525762
 31
0.0
  0
ARC
  5
9609
330
1A
100
AcDbEntity
  8
SEIHIN
  6
Continuous
 62
     3
 48
5.0
100
AcDbCircle
 10
441.8322187677625
 20
148.7831994056888
 30
0.0
 40
0.4999571081596446
100
AcDbArc
 50
134.3355666195306
 51
251.5651217946839
  0
ARC
  5
960A
330
1A
100
AcDbEntity
  8
SEIHIN
  6
Continuous
 62
     3
 48
5.0
100
AcDbCircle
 10
448.1225407994784
 20
142.3464089615331
 30
0.0
 40
9.499980577636865
100
AcDbArc
 50
98.05347745405359
 51
134.3403802581441
  0
LINE
  5
960B
330
1A
100
AcDbEntity
  8
SEIHIN
  6
Continuous
 62
     3
 48
5.0
100
AcDbLine
 10
438.3236190329255
 20
148.8445982525763
 30
0.0
 11
436.8236190329257
 21
148.8445982525763
 31
0.0
  0
LINE
  5
960C
330
1A
100
AcDbEntity
  8
SEIHIN
  6
Continuous
 62
     3
 48
5.0
100
AcDbLine
 10
448.5412190329256
 20
152.6191982525763
 30
0.0
 11
449.4838190329257
 21
149.4773982525762
 31
0.0
  0
ARC
  5
960D
330
1A
100
AcDbEntity
  8
SEIHIN
  6
Continuous
 62
     3
 48
5.0
100
AcDbCircle
 10
446.8616642011035
 20
151.2576693394331
 30
0.0
 40
0.4999599488286413
100
AcDbArc
 50
16.70719838908837
 51
98.05372305896307
  0
ARC
  5
960E
330
1A
100
AcDbEntity
  8
SEIHIN
  6
Continuous
 62
     3
 48
5.0
100
AcDbCircle
 10
447.2466264650295
 20
149.9744107326041
 30
0.0
 40
0.4999841947320815
100
AcDbArc
 50
281.7470633945665
 51
16.70141199542887
  0
LINE
  5
960F
330
1A
100
AcDbEntity
  8
SEIHIN
  6
Continuous
 62
     3
 48
5.0
100
AcDbLine
 10
447.3405190329257
 20
151.4012982525762
 30
0.0
 11
447.7255190329257
 21
150.1180982525763
 31
0.0
  0
ARC
  5
9610
330
1A
100
AcDbEntity
  8
SEIHIN
  6
Continuous
 62
     3
 48
5.0
100
AcDbCircle
 10
447.5833908083451
 20
152.3318477888416
 30
0.0
 40
1.000002598402352
100
AcDbArc
 50
16.69935379278298
 51
93.08811227197053
  0
ARC
  5
9611
330
1A
100
AcDbEntity
  8
SEIHIN
  6
Continuous
 62
     3
 48
5.0
100
AcDbCircle
 10
442.6944131987275
 20
148.4957979571561
 30
0.0
 40
0.4999539729065975
100
AcDbArc
 50
251.5656747714333
 51
294.2330717980354
  0
LINE
  5
9612
330
1A
100
AcDbEntity
  8
SEIHIN
  6
Continuous
 62
     3
 48
5.0
100
AcDbLine
 10
441.6741190329256
 20
148.3088982525763
 30
0.0
 11
442.5363190329257
 21
148.0214982525763
 31
0.0
  0
ARC
  5
9613
330
1A
100
AcDbEntity
  8
SEIHIN
  6
Continuous
 62
     3
 48
5.0
100
AcDbCircle
 10
451.7265595747845
 20
128.4354088591042
 30
0.0
 40
21.49997949604044
100
AcDbArc
 50
101.7495837250175
 51
114.2394596477999
  0
LINE
  5
9614
330
1A
100
AcDbEntity
  8
SEIHIN
  6
Continuous
 62
     3
 48
5.0
100
AcDbLine
 10
450.3236190329255
 20
140.3445982525762
 30
0.0
 11
450.3236190329255
 21
145.3445982525762
 31
0.0
  0
LINE
  5
9615
330
1A
100
AcDbEntity
  8
SEIHIN
  6
PHANTOM
 62
     6
 48
5.0
100
AcDbLine
 10
431.8235190329257
 20
191.4159982525762
 30
0.0
 11
431.8236190329257
 21
169.0846982525762
 31
0.0
  0
ARC
  5
9616
330
1A
100
AcDbEntity
  8
SEIHIN
  6
PHANTOM
 62
     6
 48
5.0
100
AcDbCircle
 10
436.823632333851
 20
169.0846752146969
 30
0.0
 40
5.000013301517647
100
AcDbArc
 50
180.0008819185935
 51
239.9985888100744
  0
LINE
  5
9617
330
1A
100
AcDbEntity
  8
SEIHIN
  6
Continuous
 62
     3
 48
5.0
100
AcDbLine
 10
421.6122190329257
 20
160.8445982525763
 30
0.0
 11
431.8236190329255
 21
160.8445982525763
 31
0.0
  0
ARC
  5
9618
330
1A
100
AcDbEntity
  8
SEIHIN
  6
Continuous
 62
     3
 48
5.0
100
AcDbCircle
 10
421.6122666655455
 20
158.3446257528786
 30
0.0
 40
2.499972500151377
100
AcDbArc
 50
90.00109167124016
 51
150.0003638904119
  0
ARC
  5
9619
330
1A
100
AcDbEntity
  8
SEIHIN
  6
PHANTOM
 62
     6
 48
5.0
100
AcDbCircle
 10
437.3235277210937
 20
191.416011084867
 30
0.0
 40
5.500008688183027
100
AcDbArc
 50
111.7998021521629
 51
180.0001336790805
  0
ARC
  5
961A
330
1A
100
AcDbEntity
  8
SEIHIN
  6
PHANTOM
 62
     6
 48
5.0
100
AcDbCircle
 10
437.3235381211374
 20
191.4160264455545
 30
0.0
 40
3.000019088344346
100
AcDbArc
 50
111.8001746918542
 51
180.000538442797
  0
ARC
  5
961B
330
1A
100
AcDbEntity
  8
SEIHIN
  6
PHANTOM
 62
     6
 48
5.0
100
AcDbCircle
 10
437.323602097352
 20
191.4160732371752
 30
0.0
 40
0.4999830650521145
100
AcDbArc
 50
111.8006708914479
 51
179.9971333491013
  0
LINE
  5
961C
330
1A
100
AcDbEntity
  8
CENTER L
  6
CENTER
 62
     1
 48
5.0
100
AcDbLine
 10
480.4625190329257
 20
283.8767982525763
 30
0.0
 11
485.1046190329255
 21
272.2706982525762
 31
0.0
  0
LINE
  5
961D
330
1A
100
AcDbEntity
  8
SEIHIN
  6
PHANTOM
 62
     6
 48
5.0
100
AcDbLine
 10
480.4625190329257
 20
217.2867982525763
 30
0.0
 11
485.1046190329255
 21
205.6806982525762
 31
0.0
  0
LINE
  5
961E
330
1A
100
AcDbEntity
  8
SEIHIN
  6
Continuous
 62
     3
 48
5.0
100
AcDbLine
 10
431.8235190329257
 20
258.0059982525763
 30
0.0
 11
431.8236190329257
 21
235.6746982525762
 31
0.0
  0
ARC
  5
961F
330
1A
100
AcDbEntity
  8
SEIHIN
  6
Continuous
 62
     3
 48
5.0
100
AcDbCircle
 10
436.823632333851
 20
235.674675214697
 30
0.0
 40
5.000013301517647
100
AcDbArc
 50
180.0008819185935
 51
239.9985888100744
  0
ARC
  5
9620
330
1A
100
AcDbEntity
  8
SEIHIN
  6
PHANTOM
 62
     6
 48
5.0
100
AcDbCircle
 10
469.9425546965571
 20
205.0012075237204
 30
0.0
 40
5.000018749176092
100
AcDbArc
 50
51.79984302903649
 51
111.7986365306754
  0
LINE
  5
9621
330
1A
100
AcDbEntity
  8
SEIHIN
  6
Continuous
 62
     3
 48
5.0
100
AcDbLine
 10
435.2810190329255
 20
263.1126982525763
 30
0.0
 11
468.0858190329255
 21
276.2335982525762
 31
0.0
  0
ARC
  5
9622
330
1A
100
AcDbEntity
  8
SEIHIN
  6
Continuous
 62
     3
 48
5.0
100
AcDbCircle
 10
437.3235277210937
 20
258.006011084867
 30
0.0
 40
5.500008688183027
100
AcDbArc
 50
111.7998021521629
 51
180.0001336790805
  0
ARC
  5
9623
330
1A
100
AcDbEntity
  8
SEIHIN
  6
Continuous
 62
     3
 48
5.0
100
AcDbCircle
 10
437.323602097352
 20
258.0060732371753
 30
0.0
 40
0.4999830650521145
100
AcDbArc
 50
111.8006708914479
 51
179.9971333491013
  0
ARC
  5
9624
330
1A
100
AcDbEntity
  8
SEIHIN
  6
Continuous
 62
     3
 48
5.0
100
AcDbCircle
 10
437.3235381211374
 20
258.0060264455545
 30
0.0
 40
3.000019088344346
100
AcDbArc
 50
111.8001746918542
 51
180.000538442797
  0
ARC
  5
9625
330
1A
100
AcDbEntity
  8
SEIHIN
  6
Continuous
 62
     3
 48
5.0
100
AcDbCircle
 10
469.9425546965571
 20
271.5912075237205
 30
0.0
 40
5.000018749176092
100
AcDbArc
 50
51.79984302903649
 51
111.7986365306754
  0
LINE
  5
9626
330
1A
100
AcDbEntity
  8
SEIHIN
  6
PHANTOM
 62
     6
 48
5.0
100
AcDbLine
 10
526.8868190329256
 20
235.8550982525762
 30
0.0
 11
531.5289190329256
 21
224.2489982525762
 31
0.0
  0
LINE
  5
9627
330
1A
100
AcDbEntity
  8
SEIHIN
  6
PHANTOM
 62
     6
 48
5.0
100
AcDbLine
 10
584.4529190329256
 20
253.4945982525761
 30
0.0
 11
585.3814190329256
 21
251.1732982525762
 31
0.0
  0
LINE
  5
9628
330
1A
100
AcDbEntity
  8
SEIHIN
  6
PHANTOM
 62
     6
 48
5.0
100
AcDbLine
 10
573.3112190329255
 20
254.4233982525762
 30
0.0
 11
577.9533190329257
 21
242.8172982525761
 31
0.0
  0
ELLIPSE
  5
9629
330
1A
100
AcDbEntity
  8
SEIHIN
 48
5.0
100
AcDbEllipse
 10
575.1713190329258
 20
486.9366378839913
 30
0.0
 11
0.0
 21
2.099999999999909
 31
0.0
210
0.0
220
0.0
230
1.0
 40
0.9293871165358311
 41
0.0
 42
6.283185307179586
  0
ELLIPSE
  5
962A
330
1A
100
AcDbEntity
  8
SEIHIN
 48
5.0
100
AcDbEllipse
 10
528.7470190329257
 20
486.9366378839914
 30
0.0
 11
0.0
 21
2.099999999999909
 31
0.0
210
0.0
220
0.0
230
1.0
 40
0.9293871165358311
 41
0.0
 42
6.283185307179586
  0
ELLIPSE
  5
962B
330
1A
100
AcDbEntity
  8
SEIHIN
 48
5.0
100
AcDbEllipse
 10
482.3224190329257
 20
486.9366378839914
 30
0.0
 11
0.0
 21
2.099999999999909
 31
0.0
210
0.0
220
0.0
230
1.0
 40
0.9293871165358311
 41
0.0
 42
6.283185307179586
  0
LINE
  5
962C
330
1A
100
AcDbEntity
  8
CENTER L
  6
CENTER
 62
     1
 48
5.0
100
AcDbLine
 10
575.1713190329258
 20
482.1455378839913
 30
0.0
 11
575.1713190329258
 21
491.6610378839914
 31
0.0
  0
LINE
  5
962D
330
1A
100
AcDbEntity
  8
CENTER L
  6
CENTER
 62
     1
 48
5.0
100
AcDbLine
 10
528.7470190329257
 20
482.1455378839913
 30
0.0
 11
528.7470190329257
 21
491.6610378839914
 31
0.0
  0
ARC
  5
962E
330
1A
100
AcDbEntity
  8
SEIHIN
  6
Continuous
 62
     3
 48
5.0
100
AcDbCircle
 10
468.0378190329255
 20
486.9366378839914
 30
0.0
 40
5.0
100
AcDbArc
 50
270.0
 51
90.0
  0
LINE
  5
962F
330
1A
100
AcDbEntity
  8
CENTER L
  6
CENTER
 62
     1
 48
5.0
100
AcDbLine
 10
482.3224190329257
 20
482.1455378839913
 30
0.0
 11
482.3224190329257
 21
491.6610378839914
 31
0.0
  0
ARC
  5
9630
330
1A
100
AcDbEntity
  8
SEIHIN
  6
Continuous
 62
     3
 48
5.0
100
AcDbCircle
 10
438.0768190330324
 20
486.9367473620007
 30
0.0
 40
6.249801053632137
100
AcDbArc
 50
129.0220954633642
 51
230.9767245063697
  0
LINE
  5
9631
330
1A
100
AcDbEntity
  8
SEIHIN
  6
Continuous
 62
     3
 48
5.0
100
AcDbLine
 10
420.1690190329256
 20
477.4366378839914
 30
0.0
 11
420.1690190329256
 21
496.4365378839914
 31
0.0
  0
LINE
  5
9632
330
1A
100
AcDbEntity
  8
SEIHIN
  6
Continuous
 62
     3
 48
5.0
100
AcDbLine
 10
584.4549190329258
 20
477.4366378839914
 30
0.0
 11
584.4549190329258
 21
496.4364378839914
 31
0.0
  0
LINE
  5
9633
330
1A
100
AcDbEntity
  8
SEIHIN
  6
Continuous
 62
     3
 48
5.0
100
AcDbLine
 10
585.3846190329257
 20
477.4366378839914
 30
0.0
 11
585.3846190329257
 21
496.4364378839914
 31
0.0
  0
DIMENSION
  5
9634
330
1A
100
AcDbEntity
  8
SUNPOU
100
AcDbDimension
  2
*D13
 10
622.0162777575275
 20
477.4366378839914
 30
0.0
 11
622.0162777575274
 21
486.9366378839914
 31
0.0
 70
   160
 71
     5
 42
18.99999999999994
  3
STANDARD
100
AcDbAlignedDimension
 13
585.3846190329257
 23
496.4366378839914
 33
0.0
 14
585.3846190329257
 24
477.4366378839914
 34
0.0
 50
90.0
100
AcDbRotatedDimension
1001
ACAD
1000
DSTYLE
1002
{
1070
   288
1070
     1
1070
   140
1040
6.0
1070
    74
1070
     0
1070
   172
1070
     1
1070
    73
1070
     0
1070
   272
1070
     2
1070
    77
1070
     3
1070
   173
1070
     1
1070
   147
1040
2.0
1070
    42
1040
6.0
1070
    44
1040
3.0
1070
    43
1040
14.0
1070
   271
1070
     0
1070
   178
1070
     4
1070
   177
1070
     4
1070
   176
1070
     4
1070
   141
1040
150.0
1070
     7
1000
_OPEN
1070
     6
1000
_OPEN
1070
    41
1040
7.0
1002
}
  0
LINE
  5
9635
330
1A
100
AcDbEntity
  8
SEIHIN
  6
Continuous
 62
     3
 48
5.0
100
AcDbLine
 10
441.5200652254574
 20
348.895107771895
 30
0.0
 11
554.8064652254573
 21
394.2065077718949
 31
0.0
  0
LINE
  5
9636
330
1A
100
AcDbEntity
  8
SEIHIN
  6
Continuous
 62
     3
 48
5.0
100
AcDbLine
 10
449.8002652254573
 20
331.7435077718949
 30
0.0
 11
561.8624652254575
 21
376.5652077718949
 31
0.0
  0
LINE
  5
9637
330
1A
100
AcDbEntity
  8
CENTER L
  6
CENTER
 62
     1
 48
5.0
100
AcDbLine
 10
562.3177652254574
 20
386.9790077718949
 30
0.0
 11
441.9268652254574
 21
338.8261077718949
 31
0.0
  0
LINE
  5
9638
330
1A
100
AcDbEntity
  8
CENTER L
  6
CENTER
 62
     1
 48
5.0
100
AcDbLine
 10
547.3421652254574
 20
385.9409077718948
 30
0.0
 11
550.5886652254576
 21
377.8241077718948
 31
0.0
  0
CIRCLE
  5
9639
330
1A
100
AcDbEntity
  8
SEIHIN
 48
5.0
100
AcDbCircle
 10
549.0495684734408
 20
381.6721103952644
 30
0.0
 40
2.1
  0
DIMENSION
  5
963A
330
1A
100
AcDbEntity
  8
SUNPOU
100
AcDbDimension
  2
*D14
 10
536.8009065998131
 20
412.2959501955189
 30
0.0
 11
564.1912804873823
 21
423.2513125590428
 31
0.0
 70
   161
 71
     5
 42
10.00004315618764
  3
STANDARD
100
AcDbAlignedDimension
 13
556.8489915386319
 23
389.0997446205379
 33
0.0
 14
547.5640925474806
 24
385.3860518694161
 34
0.0
1001
ACAD
1000
DSTYLE
1002
{
1070
   288
1070
     1
1070
   140
1040
6.0
1070
    74
1070
     0
1070
   172
1070
     1
1070
    73
1070
     0
1070
   272
1070
     2
1070
    77
1070
     3
1070
   173
1070
     1
1070
   147
1040
2.0
1070
    42
1040
6.0
1070
    44
1040
3.0
1070
    43
1040
14.0
1070
   271
1070
     0
1070
   178
1070
     4
1070
   177
1070
     4
1070
   176
1070
     4
1070
   141
1040
150.0
1070
     7
1000
_OPEN
1070
     6
1000
_OPEN
1070
    41
1040
7.0
1002
}
  0
DIMENSION
  5
963B
330
1A
100
AcDbEntity
  8
SUNPOU
100
AcDbDimension
  2
*D15
 10
490.3766766654866
 20
393.7275458131799
 30
0.0
 11
511.7319336292488
 21
407.6541734042979
 31
0.0
 70
    33
 71
     5
 42
49.99991824193319
  3
STANDARD
100
AcDbAlignedDimension
 13
547.3421652254574
 23
385.9409077718948
 33
0.0
 14
500.9179652254574
 24
367.372507771895
 34
0.0
1001
ACAD
1000
DSTYLE
1002
{
1070
   140
1040
6.0
1070
    74
1070
     0
1070
   172
1070
     1
1070
    73
1070
     0
1070
   272
1070
     2
1070
    77
1070
     3
1070
   173
1070
     1
1070
   147
1040
2.0
1070
    42
1040
6.0
1070
    44
1040
3.0
1070
    43
1040
14.0
1070
   271
1070
     0
1070
   178
1070
     4
1070
   177
1070
     4
1070
   176
1070
     4
1070
   141
1040
150.0
1070
     7
1000
_OPEN
1070
     6
1000
_OPEN
1070
    41
1040
7.0
1002
}
  0
DIMENSION
  5
963C
330
1A
100
AcDbEntity
  8
SUNPOU
100
AcDbDimension
  2
*D16
 10
490.3766670904419
 20
393.727538944633
 30
0.0
 11
465.3076828209004
 21
389.0857391907489
 31
0.0
 70
    33
 71
     5
 42
50.00001109046582
  3
STANDARD
100
AcDbAlignedDimension
 13
454.4936652254573
 23
348.8041077718947
 33
0.0
 14
500.9179439496436
 24
367.3725609650332
 34
0.0
1001
ACAD
1000
DSTYLE
1002
{
1070
   140
1040
6.0
1070
    74
1070
     0
1070
   172
1070
     1
1070
    73
1070
     0
1070
   272
1070
     2
1070
    77
1070
     3
1070
   173
1070
     1
1070
   147
1040
2.0
1070
    42
1040
6.0
1070
    44
1040
3.0
1070
    43
1040
14.0
1070
   271
1070
     0
1070
   178
1070
     4
1070
   177
1070
     4
1070
   176
1070
     4
1070
   141
1040
150.0
1070
     7
1000
_OPEN
1070
     6
1000
_OPEN
1070
    41
1040
7.0
1002
}
  0
LINE
  5
963D
330
1A
100
AcDbEntity
  8
CENTER L
  6
CENTER
 62
     1
 48
5.0
100
AcDbLine
 10
454.4936652254575
 20
348.8041077718949
 30
0.0
 11
457.7400652254574
 21
340.687307771895
 31
0.0
  0
CIRCLE
  5
963E
330
1A
100
AcDbEntity
  8
SEIHIN
 48
5.0
100
AcDbCircle
 10
456.2008285038015
 20
344.5357788852319
 30
0.0
 40
2.1
  0
LINE
  5
963F
330
1A
100
AcDbEntity
  8
CENTER L
  6
CENTER
 62
     1
 48
5.0
100
AcDbLine
 10
500.9179652254574
 20
367.372507771895
 30
0.0
 11
504.1644652254573
 21
359.2557077718948
 31
0.0
  0
CIRCLE
  5
9640
330
1A
100
AcDbEntity
  8
SEIHIN
 48
5.0
100
AcDbCircle
 10
502.6253497784104
 20
363.1037571360071
 30
0.0
 40
2.1
  0
LINE
  5
9641
330
1A
100
AcDbEntity
  8
SEIHIN
  6
Continuous
 62
     3
 48
5.0
100
AcDbLine
 10
434.2634190329258
 20
481.9367378839913
 30
0.0
 11
468.0378190329255
 21
481.9366378839914
 31
0.0
  0
ARC
  5
9642
330
1A
100
AcDbEntity
  8
SEIHIN
  6
Continuous
 62
     3
 48
5.0
100
AcDbCircle
 10
433.8269033884151
 20
481.6928706964412
 30
0.0
 40
0.5000156455870499
100
AcDbArc
 50
359.9962400878745
 51
50.97852800592231
  0
LINE
  5
9643
330
1A
100
AcDbEntity
  8
SEIHIN
  6
Continuous
 62
     3
 48
5.0
100
AcDbLine
 10
434.3268190329258
 20
477.4366378839914
 30
0.0
 11
434.3269190329255
 21
481.6928378839914
 31
0.0
  0
LINE
  5
9644
330
1A
100
AcDbEntity
  8
SEIHIN
  6
Continuous
 62
     3
 48
5.0
100
AcDbLine
 10
554.8064652254573
 20
394.2064077718948
 30
0.0
 11
561.8624652254575
 21
376.5652077718949
 31
0.0
  0
DIMENSION
  5
9645
330
1A
100
AcDbEntity
  8
SUNPOU
100
AcDbDimension
  2
*D17
 10
589.3008543129429
 20
387.5397546250921
 30
0.0
 11
590.415284952633
 21
398.2172400393561
 31
0.0
 70
    33
 71
     5
 42
19.00006846540302
  3
STANDARD
100
AcDbAlignedDimension
 13
554.8064652254572
 23
394.2065077718948
 33
0.0
 14
561.8624652254575
 24
376.5652077718949
 34
0.0
1001
ACAD
1000
DSTYLE
1002
{
1070
   140
1040
6.0
1070
    74
1070
     0
1070
   172
1070
     1
1070
    73
1070
     0
1070
   272
1070
     2
1070
    77
1070
     3
1070
   173
1070
     1
1070
   147
1040
2.0
1070
    42
1040
6.0
1070
    44
1040
3.0
1070
    43
1040
14.0
1070
   271
1070
     0
1070
   178
1070
     4
1070
   177
1070
     4
1070
   176
1070
     4
1070
   141
1040
150.0
1070
     7
1000
_OPEN
1070
     6
1000
_OPEN
1070
    41
1040
7.0
1002
}
  0
LINE
  5
9646
330
1A
100
AcDbEntity
  8
SUNPOU
  6
Continuous
 62
     4
 48
5.0
100
AcDbLine
 10
641.5940653036982
 20
342.9393747258256
 30
0.0
 11
602.863343364871
 21
327.4481989366233
 31
0.0
  0
LINE
  5
9647
330
1A
100
AcDbEntity
  8
CENTER L
  6
CENTER
 62
     1
 48
5.0
100
AcDbLine
 10
575.2610397796735
 20
321.7932694313942
 30
0.0
 11
579.9031397796738
 21
310.1871694313941
 31
0.0
  0
LINE
  5
9648
330
1A
100
AcDbEntity
  8
CENTER L
  6
CENTER
 62
     1
 48
5.0
100
AcDbLine
 10
573.3112190329255
 20
321.0133982525762
 30
0.0
 11
577.9533190329257
 21
309.4072982525761
 31
0.0
  0
LINE
  5
9649
330
1A
100
AcDbEntity
  8
SEIHIN
  6
Continuous
 62
     3
 48
5.0
100
AcDbLine
 10
584.4529190329256
 20
320.0845982525761
 30
0.0
 11
585.3814190329256
 21
317.7632982525763
 31
0.0
  0
LEADER
  5
964A
330
1A
100
AcDbEntity
  8
SUNPOU
 62
     4
100
AcDbLeader
  3
STANDARD
 74
     0
 40
6.0
 41
33.59999999999999
 76
     3
 10
551.019486235725
 20
380.9444951055429
 30
0.0
 10
572.2890748227651
 20
356.200004439387
 30
0.0
 10
574.7772998801174
 20
356.200004439387
 30
0.0
1001
ACAD
1000
DSTYLE
1002
{
1070
     6
1000
OPEN
1070
    41
1040
7.0
1070
    42
1040
6.0
1070
    43
1040
14.0
1070
    44
1040
3.0
1070
    73
1070
     0
1070
    74
1070
     0
1070
    77
1070
     3
1070
   140
1040
6.0
1070
   141
1040
150.0
1070
   147
1040
2.0
1070
   172
1070
     1
1070
   173
1070
     1
1070
   176
1070
     4
1070
   177
1070
     4
1070
   178
1070
     4
1070
   271
1070
     0
1070
   272
1070
     2
1070
   341
1005
6D
1070
   343
1005
6D
1070
   344
1005
6D
1002
}
  0
MTEXT
  5
964B
330
1A
100
AcDbEntity
  8
SUNPOU
 62
     4
100
AcDbMText
 10
576.7772998801174
 20
358.200004439387
 30
0.0
 40
6.0
 41
0.0
 71
     7
 72
     5
  1
３－φ4.2
 73
     1
 44
1.0
  0
LINE
  5
964C
330
1A
100
AcDbEntity
  8
SUNPOU
 62
     4
 48
5.0
100
AcDbLine
 10
621.5920970073198
 20
334.9399494563098
 30
0.0
 11
641.5940653036981
 21
334.9399494563098
 31
0.0
  0
TEXT
  5
964D
330
1A
100
AcDbEntity
  8
SUNPOU
 62
     4
 48
5.0
100
AcDbText
 10
630.6601748045791
 20
325.6928795588188
 30
0.0
 40
6.0
  1
10
100
AcDbText
  0
LINE
  5
964E
330
1A
100
AcDbEntity
  8
SUNPOU
 62
     4
 48
5.0
100
AcDbLine
 10
641.5940653036981
 20
334.9399494563098
 30
0.0
 11
641.5940653036982
 21
342.9393747258256
 31
0.0
  0
TEXT
  5
964F
330
1A
100
AcDbEntity
  8
SUNPOU
 62
     4
 48
5.0
100
AcDbText
 10
647.3969441177515
 20
335.1928844380516
 30
0.0
 40
6.0
  1
4
100
AcDbText
  0
ARC
  5
9650
330
1A
100
AcDbEntity
  8
SEIHIN
  6
Continuous
 62
     3
 48
5.0
100
AcDbCircle
 10
483.4059190332744
 20
486.9354878839914
 30
0.0
 40
2.106827366665842
100
AcDbArc
 50
107.0945312846425
 51
252.9054687153575
  0
LINE
  5
9651
330
1A
100
AcDbEntity
  8
SEIHIN
  6
Continuous
 62
     3
 48
5.0
100
AcDbLine
 10
434.2633190329256
 20
491.9367378839913
 30
0.0
 11
468.0378190329255
 21
491.9366378839914
 31
0.0
  0
LINE
  5
9652
330
1A
100
AcDbEntity
  8
SEIHIN
  6
Continuous
 62
     3
 48
5.0
100
AcDbLine
 10
434.3269190329255
 20
496.4366378839914
 30
0.0
 11
434.3269190329255
 21
492.1806378839915
 31
0.0
  0
ARC
  5
9653
330
1A
100
AcDbEntity
  8
SEIHIN
  6
Continuous
 62
     3
 48
5.0
100
AcDbCircle
 10
433.8269422340022
 20
492.1806865533029
 30
0.0
 40
0.4999768012921461
100
AcDbArc
 50
309.0193496335989
 51
359.994422648945
  0
ARC
  5
9654
330
1A
100
AcDbEntity
  8
SEIHIN
  6
Continuous
 62
     3
 48
5.0
100
AcDbCircle
 10
529.8305190332744
 20
486.9354878839914
 30
0.0
 40
2.106827366665816
100
AcDbArc
 50
107.0945312846407
 51
252.9054687153593
  0
ARC
  5
9655
330
1A
100
AcDbEntity
  8
SEIHIN
  6
Continuous
 62
     3
 48
5.0
100
AcDbCircle
 10
528.9021190329256
 20
486.9355378839915
 30
0.0
 40
2.106816845385424
100
AcDbArc
 50
94.22182975275035
 51
265.7781702472497
  0
ARC
  5
9656
330
1A
100
AcDbEntity
  8
SEIHIN
  6
Continuous
 62
     3
 48
5.0
100
AcDbCircle
 10
528.5920190329257
 20
486.9355378839915
 30
0.0
 40
2.106809485928845
100
AcDbArc
 50
274.219117580248
 51
85.78088241975199
  0
ARC
  5
9657
330
1A
100
AcDbEntity
  8
SEIHIN
  6
Continuous
 62
     3
 48
5.0
100
AcDbCircle
 10
529.8305190332742
 20
486.9354878839912
 30
0.0
 40
2.106827366665842
100
AcDbArc
 50
107.0945312846425
 51
252.9054687153575
  0
ARC
  5
9658
330
1A
100
AcDbEntity
  8
SEIHIN
  6
Continuous
 62
     3
 48
5.0
100
AcDbCircle
 10
575.0166190330128
 20
486.9355415737253
 30
0.0
 40
2.106813165657164
100
AcDbArc
 50
274.2191101954767
 51
85.77816286247534
  0
ARC
  5
9659
330
1A
100
AcDbEntity
  8
SEIHIN
  6
Continuous
 62
     3
 48
5.0
100
AcDbCircle
 10
576.2551190332745
 20
486.9354878839914
 30
0.0
 40
2.106827366665816
100
AcDbArc
 50
107.0945312846407
 51
252.9054687153593
  0
ARC
  5
965A
330
1A
100
AcDbEntity
  8
SEIHIN
  6
Continuous
 62
     3
 48
5.0
100
AcDbCircle
 10
575.3267190328384
 20
486.9355341942574
 30
0.0
 40
2.106813165657156
100
AcDbArc
 50
94.21911019547507
 51
265.7781628624786
  0
ARC
  5
965B
330
1A
100
AcDbEntity
  8
SEIHIN
  6
Continuous
 62
     3
 48
5.0
100
AcDbCircle
 10
576.2548190332743
 20
486.9354878839911
 30
0.0
 40
2.106827366665842
100
AcDbArc
 50
107.0945312846425
 51
252.9054687153575
  0
VIEWPORT
  5
22
330
17
100
AcDbEntity
 67
     1
  8
0
100
AcDbViewport
 10
313.6808219178082
 20
286.420032064001
 30
0.0
 40
627.3616438356164
 41
572.840064128002
 68
     2
 69
     1
 12
313.6808219178082
 22
286.420032064001
 13
0.0
 23
0.0
 14
1.0
 24
1.0
 15
10.0
 25
10.0
 16
0.0
 26
0.0
 36
1.0
 17
0.0
 27
0.0
 37
0.0
 42
50.0
 43
0.0
 44
0.0
 45
572.840064128002
 50
0.0
 51
0.0
 72
   100
 90
    32768
  1

281
     0
 71
     1
 74
     0
110
0.0
120
0.0
130
0.0
111
1.0
121
0.0
131
0.0
112
0.0
122
1.0
132
0.0
 79
     0
146
0.0
  0
VIEWPORT
  5
64
330
17
100
AcDbEntity
 67
     1
  8
VIEWPORT
100
AcDbViewport
 10
210.0
 20
148.5
 30
0.0
 40
420.0
 41
297.0
 68
     1
 69
     2
 12
420.0
 22
297.0
 13
0.0
 23
0.0
 14
10.0
 24
10.0
 15
0.0
 25
0.0
 16
0.0
 26
0.0
 36
1.0
 17
0.0
 27
0.0
 37
0.0
 42
50.0
 43
0.0
 44
0.0
 45
605.8799999999999
 50
0.0
 51
0.0
 72
   100
 90
    32768
  1

281
     0
 71
     1
 74
     0
110
0.0
120
0.0
130
0.0
111
1.0
121
0.0
131
0.0
112
0.0
122
1.0
132
0.0
 79
     0
146
0.0
  0
ENDSEC
  0
SECTION
  2
OBJECTS
  0
DICTIONARY
  5
C
330
0
100
AcDbDictionary
281
     1
  3
ACAD_GROUP
350
D
  3
ACAD_LAYOUT
350
A98
  3
ACAD_MLINESTYLE
350
E
  3
ACAD_PLOTSETTINGS
350
A99
  3
ACAD_PLOTSTYLENAME
350
A96
  0
DICTIONARY
  5
D
102
{ACAD_REACTORS
330
C
102
}
330
C
100
AcDbDictionary
281
     1
  3
*A1
350
FA3
  3
*A2
350
1597
  3
*A3
350
179D
  3
*A4
350
3390
  3
*A5
350
3A0A
  0
DICTIONARY
  5
A98
102
{ACAD_REACTORS
330
C
102
}
330
C
100
AcDbDictionary
281
     1
  3
Model
350
A9A
  3
ﾚｲｱｳﾄ1
350
A9B
  0
DICTIONARY
  5
E
102
{ACAD_REACTORS
330
C
102
}
330
C
100
AcDbDictionary
281
     1
  3
STANDARD
350
13
  0
DICTIONARY
  5
A99
102
{ACAD_REACTORS
330
C
102
}
330
C
100
AcDbDictionary
281
     1
  0
ACDBDICTIONARYWDFLT
  5
A96
102
{ACAD_REACTORS
330
C
102
}
330
C
100
AcDbDictionary
281
     1
  3
Normal
350
A97
100
AcDbDictionaryWithDefault
340
A97
1001
ACAD
1000
TREAT_AS_HARD
1070
     0
1000
TREAT_AS_HARD
1070
     0
1000
TREAT_AS_HARD
1070
     0
1000
TREAT_AS_HARD
1070
     0
  0
GROUP
  5
FA3
102
{ACAD_REACTORS
330
D
102
}
330
D
100
AcDbGroup
300

 70
     1
 71
     1
  0
GROUP
  5
1597
102
{ACAD_REACTORS
330
D
102
}
330
D
100
AcDbGroup
300

 70
     1
 71
     1
  0
GROUP
  5
179D
102
{ACAD_REACTORS
330
D
102
}
330
D
100
AcDbGroup
300

 70
     1
 71
     1
  0
GROUP
  5
3390
102
{ACAD_REACTORS
330
D
102
}
330
D
100
AcDbGroup
300

 70
     1
 71
     1
  0
GROUP
  5
3A0A
102
{ACAD_REACTORS
330
D
102
}
330
D
100
AcDbGroup
300

 70
     1
 71
     1
  0
LAYOUT
  5
A9A
102
{ACAD_REACTORS
330
A98
102
}
330
A98
100
AcDbPlotSettings
  1

  2
Adobe PDF
  4
A3
  6

 40
3.174999952316284
 41
3.174999952316284
 42
3.17498779296875
 43
3.17498779296875
 44
297.0318298339844
 45
420.1583251953125
 46
2.67
 47
2.85
 48
-8.09872987394283
 49
-9.441603207410708
140
808.114529312747
141
561.2334822198422
142
1.0
143
2.0
 70
 28340
 72
     1
 73
     1
 74
     4
  7
systemprinter.ctb
 75
    17
147
0.5
148
8.09872987394283
149
9.441603207410708
100
AcDbLayout
  1
Model
 70
     1
 71
     0
 10
0.0
 20
0.0
 11
12.0
 21
9.0
 12
0.0
 22
0.0
 32
0.0
 14
0.0
 24
0.0
 34
0.0
 15
0.0
 25
0.0
 35
0.0
146
0.0
 13
0.0
 23
0.0
 33
0.0
 16
1.0
 26
0.0
 36
0.0
 17
0.0
 27
1.0
 37
0.0
 76
     0
330
1A
  0
LAYOUT
  5
A9B
102
{ACAD_REACTORS
330
A98
102
}
330
A98
100
AcDbPlotSettings
  1

  2
C:\PROGRAM FILES\ACAD LT 2000\plotters\DWF ePlot.pc3
  4
ANSI_A_(8.50_x_11.00_Inches)
  6

 40
5.793749809265137
 41
17.79375076293945
 42
5.793746948242188
 43
17.79376220703125
 44
215.8999938964844
 45
279.3999938964844
 46
0.0
 47
0.0
 48
0.0
 49
0.0
140
0.0
141
0.0
142
1.0
143
43.75760864458461
 70
   688
 72
     0
 73
     1
 74
     1
  7
systemprinter.ctb
 75
     0
147
0.0228531684197454
148
0.3255366854427166
149
0.2302009418498301
100
AcDbLayout
  1
ﾚｲｱｳﾄ1
 70
     1
 71
     1
 10
-30.66685116754002
 20
-9.990190459854741
 11
450.6668334081172
 21
361.9494725043409
 12
0.0
 22
0.0
 32
0.0
 14
-0.0128164049386896
 24
-0.0090630292066862
 34
-0.0015258207003583
 15
420.0128183607162
 25
297.0090644122207
 35
0.0000000349246037
146
0.0
 13
0.0
 23
0.0
 33
0.0
 16
1.0
 26
0.0
 36
0.0
 17
0.0
 27
1.0
 37
0.0
 76
     0
330
17
331
64
  0
MLINESTYLE
  5
13
102
{ACAD_REACTORS
330
E
102
}
330
E
100
AcDbMlineStyle
  2
STANDARD
 70
     0
  3

 62
     0
 51
90.0
 52
90.0
 71
     2
 49
0.5
 62
   256
  6
BYLAYER
 49
-0.5
 62
   256
  6
BYLAYER
  0
ACDBPLACEHOLDER
  5
A97
102
{ACAD_REACTORS
330
A96
102
}
330
A96
  0
ENDSEC
  0
EOF
