  0
SECTION
  2
HEADER
  9
$ACADVER
  1
AC1015
  9
$ACADMAINTVER
 70
     6
  9
$DWGCODEPAGE
  3
ANSI_932
  9
$INSBASE
 10
0.0
 20
0.0
 30
0.0
  9
$EXTMIN
 10
0.0000000135560185
 20
-0.0000001317113174
 30
0.0
  9
$EXTMAX
 10
797.6000000135562
 20
551.5999998682888
 30
0.0
  9
$LIMMIN
 10
0.0
 20
0.0
  9
$LIMMAX
 10
840.0
 20
594.0
  9
$ORTHOMODE
 70
     0
  9
$REGENMODE
 70
     1
  9
$FILLMODE
 70
     1
  9
$QTEXTMODE
 70
     0
  9
$MIRRTEXT
 70
     1
  9
$LTSCALE
 40
2.0
  9
$ATTMODE
 70
     1
  9
$TEXTSIZE
 40
6.0
  9
$TRACEWID
 40
1.0
  9
$TEXTSTYLE
  7
STANDARD
  9
$CLAYER
  8
SEIHIN
  9
$CELTYPE
  6
BYLAYER
  9
$CECOLOR
 62
   256
  9
$CELTSCALE
 40
1.0
  9
$DISPSILH
 70
     0
  9
$DIMSCALE
 40
1.0
  9
$DIMASZ
 40
7.0
  9
$DIMEXO
 40
6.0
  9
$DIMDLI
 40
14.0
  9
$DIMRND
 40
0.0
  9
$DIMDLE
 40
0.0
  9
$DIMEXE
 40
3.0
  9
$DIMTP
 40
0.0
  9
$DIMTM
 40
0.0
  9
$DIMTXT
 40
6.0
  9
$DIMCEN
 40
150.0
  9
$DIMTSZ
 40
0.0
  9
$DIMTOL
 70
     0
  9
$DIMLIM
 70
     0
  9
$DIMTIH
 70
     0
  9
$DIMTOH
 70
     0
  9
$DIMSE1
 70
     0
  9
$DIMSE2
 70
     0
  9
$DIMTAD
 70
     3
  9
$DIMZIN
 70
     0
  9
$DIMBLK
  1

  9
$DIMASO
 70
     1
  9
$DIMSHO
 70
     1
  9
$DIMPOST
  1

  9
$DIMAPOST
  1

  9
$DIMALT
 70
     0
  9
$DIMALTD
 70
     2
  9
$DIMALTF
 40
25.4
  9
$DIMLFAC
 40
1.0
  9
$DIMTOFL
 70
     1
  9
$DIMTVP
 40
0.0
  9
$DIMTIX
 70
     0
  9
$DIMSOXD
 70
     0
  9
$DIMSAH
 70
     1
  9
$DIMBLK1
  1
OPEN
  9
$DIMBLK2
  1
OPEN
  9
$DIMSTYLE
  2
STANDARD
  9
$DIMCLRD
 70
   256
  9
$DIMCLRE
 70
   256
  9
$DIMCLRT
 70
   256
  9
$DIMTFAC
 40
1.0
  9
$DIMGAP
 40
2.0
  9
$DIMJUST
 70
     0
  9
$DIMSD1
 70
     0
  9
$DIMSD2
 70
     0
  9
$DIMTOLJ
 70
     1
  9
$DIMTZIN
 70
     0
  9
$DIMALTZ
 70
     0
  9
$DIMALTTZ
 70
     0
  9
$DIMUPT
 70
     0
  9
$DIMDEC
 70
     0
  9
$DIMTDEC
 70
     0
  9
$DIMALTU
 70
     2
  9
$DIMALTTD
 70
     2
  9
$DIMTXSTY
  7
STANDARD
  9
$DIMAUNIT
 70
     0
  9
$DIMADEC
 70
     0
  9
$DIMALTRND
 40
0.0
  9
$DIMAZIN
 70
     0
  9
$DIMDSEP
 70
    46
  9
$DIMATFIT
 70
     3
  9
$DIMFRAC
 70
     0
  9
$DIMLDRBLK
  1
OPEN
  9
$DIMLUNIT
 70
     2
  9
$DIMLWD
 70
    -1
  9
$DIMLWE
 70
    -1
  9
$DIMTMOVE
 70
     0
  9
$LUNITS
 70
     2
  9
$LUPREC
 70
     4
  9
$SKETCHINC
 40
1.0
  9
$FILLETRAD
 40
10.0
  9
$AUNITS
 70
     0
  9
$AUPREC
 70
     0
  9
$MENU
  1
.
  9
$ELEVATION
 40
0.0
  9
$PELEVATION
 40
0.0
  9
$THICKNESS
 40
0.0
  9
$LIMCHECK
 70
     0
  9
$CHAMFERA
 40
0.0
  9
$CHAMFERB
 40
0.0
  9
$CHAMFERC
 40
40.0
  9
$CHAMFERD
 40
0.0
  9
$SKPOLY
 70
     0
  9
$TDCREATE
 40
2451030.614786227
  9
$TDUCREATE
 40
2451030.239786227
  9
$TDUPDATE
 40
2455609.407150984
  9
$TDUUPDATE
 40
2455609.032150984
  9
$TDINDWG
 40
0.3485006713
  9
$TDUSRTIMER
 40
0.3485006713
  9
$USRTIMER
 70
     1
  9
$ANGBASE
 50
0.0
  9
$ANGDIR
 70
     0
  9
$PDMODE
 70
     0
  9
$PDSIZE
 40
0.0
  9
$PLINEWID
 40
0.0
  9
$SPLFRAME
 70
     0
  9
$SPLINETYPE
 70
     6
  9
$SPLINESEGS
 70
     8
  9
$HANDSEED
  5
A0B4
  9
$SURFTAB1
 70
     6
  9
$SURFTAB2
 70
     6
  9
$SURFTYPE
 70
     6
  9
$SURFU
 70
     6
  9
$SURFV
 70
     6
  9
$UCSBASE
  2

  9
$UCSNAME
  2

  9
$UCSORG
 10
0.0
 20
0.0
 30
0.0
  9
$UCSXDIR
 10
1.0
 20
0.0
 30
0.0
  9
$UCSYDIR
 10
0.0
 20
1.0
 30
0.0
  9
$UCSORTHOREF
  2

  9
$UCSORTHOVIEW
 70
     0
  9
$UCSORGTOP
 10
0.0
 20
0.0
 30
0.0
  9
$UCSORGBOTTOM
 10
0.0
 20
0.0
 30
0.0
  9
$UCSORGLEFT
 10
0.0
 20
0.0
 30
0.0
  9
$UCSORGRIGHT
 10
0.0
 20
0.0
 30
0.0
  9
$UCSORGFRONT
 10
0.0
 20
0.0
 30
0.0
  9
$UCSORGBACK
 10
0.0
 20
0.0
 30
0.0
  9
$PUCSBASE
  2

  9
$PUCSNAME
  2

  9
$PUCSORG
 10
0.0
 20
0.0
 30
0.0
  9
$PUCSXDIR
 10
1.0
 20
0.0
 30
0.0
  9
$PUCSYDIR
 10
0.0
 20
1.0
 30
0.0
  9
$PUCSORTHOREF
  2

  9
$PUCSORTHOVIEW
 70
     0
  9
$PUCSORGTOP
 10
0.0
 20
0.0
 30
0.0
  9
$PUCSORGBOTTOM
 10
0.0
 20
0.0
 30
0.0
  9
$PUCSORGLEFT
 10
0.0
 20
0.0
 30
0.0
  9
$PUCSORGRIGHT
 10
0.0
 20
0.0
 30
0.0
  9
$PUCSORGFRONT
 10
0.0
 20
0.0
 30
0.0
  9
$PUCSORGBACK
 10
0.0
 20
0.0
 30
0.0
  9
$USERI1
 70
     0
  9
$USERI2
 70
     0
  9
$USERI3
 70
     0
  9
$USERI4
 70
     0
  9
$USERI5
 70
     0
  9
$USERR1
 40
0.0
  9
$USERR2
 40
0.0
  9
$USERR3
 40
0.0
  9
$USERR4
 40
0.0
  9
$USERR5
 40
0.0
  9
$WORLDVIEW
 70
     1
  9
$SHADEDGE
 70
     3
  9
$SHADEDIF
 70
    70
  9
$TILEMODE
 70
     1
  9
$MAXACTVP
 70
    16
  9
$PINSBASE
 10
0.0
 20
0.0
 30
0.0
  9
$PLIMCHECK
 70
     0
  9
$PEXTMIN
 10
-0.0128164049386896
 20
-0.0090630292066862
 30
-0.0015258207003583
  9
$PEXTMAX
 10
420.0128183607162
 20
297.0090644122207
 30
0.0000000349246037
  9
$PLIMMIN
 10
-30.66685116754002
 20
-9.990190459854741
  9
$PLIMMAX
 10
450.6668334081172
 20
361.9494725043409
  9
$UNITMODE
 70
     0
  9
$VISRETAIN
 70
     0
  9
$PLINEGEN
 70
     0
  9
$PSLTSCALE
 70
     1
  9
$TREEDEPTH
 70
  3020
  9
$CMLSTYLE
  2
STANDARD
  9
$CMLJUST
 70
     0
  9
$CMLSCALE
 40
1.0
  9
$PROXYGRAPHICS
 70
     1
  9
$MEASUREMENT
 70
     0
  9
$CELWEIGHT
370
    -1
  9
$ENDCAPS
280
     0
  9
$JOINSTYLE
280
     0
  9
$LWDISPLAY
290
     0
  9
$INSUNITS
 70
     0
  9
$HYPERLINKBASE
  1

  9
$STYLESHEET
  1
systemprinter.ctb
  9
$XEDIT
290
     1
  9
$CEPSNTYPE
380
     0
  9
$PSTYLEMODE
290
     1
  9
$FINGERPRINTGUID
  2
{91E25F26-0CBF-4C93-982E-B5F00895E654}
  9
$VERSIONGUID
  2
{890E6B8D-84E5-4E33-BCC2-6F953B2851EB}
  9
$EXTNAMES
290
     1
  9
$PSVPSCALE
 40
0.0
  9
$OLESTARTUP
290
     0
  0
ENDSEC
  0
SECTION
  2
CLASSES
  0
CLASS
  1
ACDBDICTIONARYWDFLT
  2
AcDbDictionaryWithDefault
  3
ObjectDBX Classes
 90
        0
280
     0
281
     0
  0
CLASS
  1
ACDBPLACEHOLDER
  2
AcDbPlaceHolder
  3
ObjectDBX Classes
 90
        0
280
     0
281
     0
  0
CLASS
  1
LAYOUT
  2
AcDbLayout
  3
ObjectDBX Classes
 90
        0
280
     0
281
     0
  0
CLASS
  1
DUMMY
  2
AcDbLongTransaction
  3
DUMMY
 90
        0
280
     0
281
     0
  0
CLASS
  1
LWPOLYLINE
  2
AcDbPolyline
  3
AutoCAD 2000
 90
        0
280
     0
281
     1
  0
CLASS
  1
HATCH
  2
AcDbHatch
  3
AutoCAD 2000
 90
        0
280
     0
281
     1
  0
CLASS
  1
XRECORD
  2
AcDbXrecord
  3
AutoCAD 2000
 90
        0
280
     0
281
     0
  0
CLASS
  1
DUMMY
  2
AcDbLongTransaction
  3
DUMMY
 90
        0
280
     0
281
     0
  0
CLASS
  1
LWPOLYLINE
  2
AcDbPolyline
  3
AutoCAD 2000
 90
        0
280
     0
281
     1
  0
CLASS
  1
HATCH
  2
AcDbHatch
  3
AutoCAD 2000
 90
        0
280
     0
281
     1
  0
CLASS
  1
XRECORD
  2
AcDbXrecord
  3
AutoCAD 2000
 90
        0
280
     0
281
     0
  0
CLASS
  1
DUMMY
  2
AcDbLongTransaction
  3
DUMMY
 90
        0
280
     0
281
     0
  0
CLASS
  1
LWPOLYLINE
  2
AcDbPolyline
  3
AutoCAD 2000
 90
        0
280
     0
281
     1
  0
CLASS
  1
HATCH
  2
AcDbHatch
  3
AutoCAD 2000
 90
        0
280
     0
281
     1
  0
CLASS
  1
XRECORD
  2
AcDbXrecord
  3
AutoCAD 2000
 90
        0
280
     0
281
     0
  0
CLASS
  1
DUMMY
  2
AcDbLongTransaction
  3
DUMMY
 90
        0
280
     0
281
     0
  0
CLASS
  1
LWPOLYLINE
  2
AcDbPolyline
  3
AutoCAD 2000
 90
        0
280
     0
281
     1
  0
CLASS
  1
HATCH
  2
AcDbHatch
  3
AutoCAD 2000
 90
        0
280
     0
281
     1
  0
CLASS
  1
XRECORD
  2
AcDbXrecord
  3
AutoCAD 2000
 90
        0
280
     0
281
     0
  0
CLASS
  1
DUMMY
  2
AcDbLongTransaction
  3
DUMMY
 90
        0
280
     0
281
     0
  0
CLASS
  1
LWPOLYLINE
  2
AcDbPolyline
  3
AutoCAD 2000
 90
        0
280
     0
281
     1
  0
CLASS
  1
HATCH
  2
AcDbHatch
  3
AutoCAD 2000
 90
        0
280
     0
281
     1
  0
CLASS
  1
XRECORD
  2
AcDbXrecord
  3
AutoCAD 2000
 90
        0
280
     0
281
     0
  0
ENDSEC
  0
SECTION
  2
TABLES
  0
TABLE
  2
VPORT
  5
8
330
0
100
AcDbSymbolTable
 70
     2
  0
VPORT
  5
A0B3
330
8
100
AcDbSymbolTableRecord
100
AcDbViewportTableRecord
  2
*Active
 70
     0
 10
0.0
 20
0.0
 11
1.0
 21
1.0
 12
412.2226257216639
 22
300.8969166853555
 13
0.0
 23
0.0
 14
5.0
 24
5.0
 15
0.0
 25
0.0
 16
0.0
 26
0.0
 36
1.0
 17
0.0
 27
0.0
 37
0.0
 40
637.5809614712242
 41
1.651537335285505
 42
50.0
 43
0.0
 44
0.0
 50
0.0
 51
0.0
 71
     0
 72
   100
 73
     1
 74
     0
 75
     0
 76
     0
 77
     0
 78
     0
281
     0
 65
     1
110
0.0
120
0.0
130
0.0
111
1.0
121
0.0
131
0.0
112
0.0
122
1.0
132
0.0
 79
     0
146
0.0
  0
ENDTAB
  0
TABLE
  2
LTYPE
  5
5
330
0
100
AcDbSymbolTable
 70
     3
  0
LTYPE
  5
14
330
5
100
AcDbSymbolTableRecord
100
AcDbLinetypeTableRecord
  2
BYBLOCK
 70
     0
  3

 72
    65
 73
     0
 40
0.0
  0
LTYPE
  5
15
330
5
100
AcDbSymbolTableRecord
100
AcDbLinetypeTableRecord
  2
BYLAYER
 70
     0
  3

 72
    65
 73
     0
 40
0.0
  0
LTYPE
  5
16
330
5
100
AcDbSymbolTableRecord
100
AcDbLinetypeTableRecord
  2
CONTINUOUS
 70
     0
  3
Solid line
 72
    65
 73
     0
 40
0.0
  0
LTYPE
  5
135
330
5
100
AcDbSymbolTableRecord
100
AcDbLinetypeTableRecord
  2
CENTER
 70
     0
  3
____ _ ____ _ ____ _ ____ _ ____ _ ____ _ ____ 
 72
    65
 73
     4
 40
2.0
 49
1.25
 74
     0
 49
-0.25
 74
     0
 49
0.25
 74
     0
 49
-0.25
 74
     0
  0
LTYPE
  5
8279
330
5
100
AcDbSymbolTableRecord
100
AcDbLinetypeTableRecord
  2
PHANTOM
 70
     0
  3
______  __  __  ______  __  __  ______  __  __ 
 72
    65
 73
     6
 40
2.5
 49
1.25
 74
     0
 49
-0.25
 74
     0
 49
0.25
 74
     0
 49
-0.25
 74
     0
 49
0.25
 74
     0
 49
-0.25
 74
     0
  0
ENDTAB
  0
TABLE
  2
LAYER
  5
2
330
0
100
AcDbSymbolTable
 70
     8
  0
LAYER
  5
F
330
2
100
AcDbSymbolTableRecord
100
AcDbLayerTableRecord
  2
0
 70
     0
 62
     7
  6
CONTINUOUS
370
    -3
390
A97
  0
LAYER
  5
62
330
2
100
AcDbSymbolTableRecord
100
AcDbLayerTableRecord
  2
VIEWPORT
 70
     0
 62
     7
  6
CONTINUOUS
370
    -3
390
A97
  0
LAYER
  5
143
330
2
100
AcDbSymbolTableRecord
100
AcDbLayerTableRecord
  2
SEIHIN
 70
     0
 62
     3
  6
CONTINUOUS
370
    -3
390
A97
  0
LAYER
  5
444
330
2
100
AcDbSymbolTableRecord
100
AcDbLayerTableRecord
  2
DEFPOINTS
 70
     0
 62
     7
  6
CONTINUOUS
290
     0
370
    -3
390
A97
  0
LAYER
  5
482
330
2
100
AcDbSymbolTableRecord
100
AcDbLayerTableRecord
  2
SUNPOU
 70
     0
 62
     4
  6
CONTINUOUS
370
    -3
390
A97
  0
LAYER
  5
5D4
330
2
100
AcDbSymbolTableRecord
100
AcDbLayerTableRecord
  2
CENTER L
 70
     0
 62
     1
  6
CENTER
370
    -3
390
A97
  0
LAYER
  5
3D95
330
2
100
AcDbSymbolTableRecord
100
AcDbLayerTableRecord
  2
ZUWAKU
 70
     0
 62
     7
  6
CONTINUOUS
370
    -3
390
A97
  0
LAYER
  5
3D96
330
2
100
AcDbSymbolTableRecord
100
AcDbLayerTableRecord
  2
moji
 70
     0
 62
     2
  6
CONTINUOUS
370
    -3
390
A97
  0
ENDTAB
  0
TABLE
  2
STYLE
  5
3
330
0
100
AcDbSymbolTable
 70
     2
  0
STYLE
  5
10
330
3
100
AcDbSymbolTableRecord
100
AcDbTextStyleTableRecord
  2
STANDARD
 70
     0
 40
0.0
 41
1.0
 50
0.0
 71
     0
 42
6.0
  3
TXT
  4
bigfont.shx
  0
STYLE
  5
3D97
330
3
100
AcDbSymbolTableRecord
100
AcDbTextStyleTableRecord
  2
ｽﾀｲﾙ1
 70
     0
 40
0.0
 41
1.0
 50
0.0
 71
     0
 42
2.5
  3
MS PGothic.ttf
  4

1001
ACAD
1000
MS PGothic
1071
    32818
  0
ENDTAB
  0
TABLE
  2
VIEW
  5
6
330
0
100
AcDbSymbolTable
 70
     0
  0
ENDTAB
  0
TABLE
  2
UCS
  5
7
330
0
100
AcDbSymbolTable
 70
     0
  0
ENDTAB
  0
TABLE
  2
APPID
  5
9
330
0
100
AcDbSymbolTable
 70
     1
  0
APPID
  5
11
330
9
100
AcDbSymbolTableRecord
100
AcDbRegAppTableRecord
  2
ACAD
 70
     0
  0
ENDTAB
  0
TABLE
  2
DIMSTYLE
  5
A
330
0
100
AcDbSymbolTable
 70
     1
100
AcDbDimStyleTable
  0
DIMSTYLE
105
1D
102
{ACAD_REACTORS
330
9E36
330
9E37
330
9E38
330
9E40
330
9E49
330
9E6A
330
9E8A
330
9E8F
330
9E91
330
9E94
330
9E9A
330
9EA8
330
9F11
330
9F13
330
9F19
330
9F1A
330
9F2B
102
}
330
A
100
AcDbSymbolTableRecord
100
AcDbDimStyleTableRecord
  2
STANDARD
 70
     0
340
10
  0
ENDTAB
  0
TABLE
  2
BLOCK_RECORD
  5
1
330
0
100
AcDbSymbolTable
 70
    18
  0
BLOCK_RECORD
  5
1A
330
1
100
AcDbSymbolTableRecord
100
AcDbBlockTableRecord
  2
*MODEL_SPACE
340
A9A
  0
BLOCK_RECORD
  5
17
330
1
100
AcDbSymbolTableRecord
100
AcDbBlockTableRecord
  2
*PAPER_SPACE
340
A9B
  0
BLOCK_RECORD
  5
6D
330
1
100
AcDbSymbolTableRecord
100
AcDbBlockTableRecord
  2
_OPEN
340
0
102
{BLKREFS
331
A011
331
A012
331
A01A
331
A01B
331
A023
331
A024
331
A02C
331
A02D
331
A035
331
A036
331
A040
331
A041
331
A049
331
A04A
331
A054
331
A055
331
A05D
331
A05E
331
A066
331
A067
331
A06F
331
A070
331
A078
331
A079
331
A081
331
A082
331
A08C
331
A08D
331
A095
331
A096
331
A09E
331
A09F
331
A0A7
331
A0A8
102
}
  0
BLOCK_RECORD
  5
9F3C
330
1
100
AcDbSymbolTableRecord
100
AcDbBlockTableRecord
  2
*D1
340
0
  0
BLOCK_RECORD
  5
9F48
330
1
100
AcDbSymbolTableRecord
100
AcDbBlockTableRecord
  2
*D2
340
0
  0
BLOCK_RECORD
  5
9F54
330
1
100
AcDbSymbolTableRecord
100
AcDbBlockTableRecord
  2
*D3
340
0
  0
BLOCK_RECORD
  5
9F60
330
1
100
AcDbSymbolTableRecord
100
AcDbBlockTableRecord
  2
*D4
340
0
  0
BLOCK_RECORD
  5
9F6C
330
1
100
AcDbSymbolTableRecord
100
AcDbBlockTableRecord
  2
*D5
340
0
  0
BLOCK_RECORD
  5
9F78
330
1
100
AcDbSymbolTableRecord
100
AcDbBlockTableRecord
  2
*D6
340
0
  0
BLOCK_RECORD
  5
9F86
330
1
100
AcDbSymbolTableRecord
100
AcDbBlockTableRecord
  2
*D7
340
0
  0
BLOCK_RECORD
  5
9F92
330
1
100
AcDbSymbolTableRecord
100
AcDbBlockTableRecord
  2
*D8
340
0
  0
BLOCK_RECORD
  5
9FA0
330
1
100
AcDbSymbolTableRecord
100
AcDbBlockTableRecord
  2
*D9
340
0
  0
BLOCK_RECORD
  5
9FAC
330
1
100
AcDbSymbolTableRecord
100
AcDbBlockTableRecord
  2
*D10
340
0
  0
BLOCK_RECORD
  5
9FB8
330
1
100
AcDbSymbolTableRecord
100
AcDbBlockTableRecord
  2
*D11
340
0
  0
BLOCK_RECORD
  5
9FC4
330
1
100
AcDbSymbolTableRecord
100
AcDbBlockTableRecord
  2
*D12
340
0
  0
BLOCK_RECORD
  5
9FD0
330
1
100
AcDbSymbolTableRecord
100
AcDbBlockTableRecord
  2
*D13
340
0
  0
BLOCK_RECORD
  5
9FDC
330
1
100
AcDbSymbolTableRecord
100
AcDbBlockTableRecord
  2
*D14
340
0
  0
BLOCK_RECORD
  5
9FEA
330
1
100
AcDbSymbolTableRecord
100
AcDbBlockTableRecord
  2
*D15
340
0
  0
BLOCK_RECORD
  5
9FF6
330
1
100
AcDbSymbolTableRecord
100
AcDbBlockTableRecord
  2
*D16
340
0
  0
BLOCK_RECORD
  5
A002
330
1
100
AcDbSymbolTableRecord
100
AcDbBlockTableRecord
  2
*D17
340
0
  0
ENDTAB
  0
ENDSEC
  0
SECTION
  2
BLOCKS
  0
BLOCK
  5
1B
330
1A
100
AcDbEntity
  8
0
100
AcDbBlockBegin
  2
*MODEL_SPACE
 70
     0
 71
     0
 10
0.0
 20
0.0
 30
0.0
  3
*MODEL_SPACE
  1

  0
ENDBLK
  5
1C
330
1A
100
AcDbEntity
  8
0
100
AcDbBlockEnd
  0
BLOCK
  5
18
330
17
100
AcDbEntity
 67
     1
  8
0
100
AcDbBlockBegin
  2
*PAPER_SPACE
 70
     0
 71
     0
 10
0.0
 20
0.0
 30
0.0
  3
*PAPER_SPACE
  1

  0
ENDBLK
  5
19
330
17
100
AcDbEntity
 67
     1
  8
0
100
AcDbBlockEnd
  0
BLOCK
  5
6E
330
6D
100
AcDbEntity
  8
0
100
AcDbBlockBegin
  2
_OPEN
 70
     0
 71
     0
 10
0.0
 20
0.0
 30
0.0
  3
_OPEN
  1

  0
LINE
  5
6F
330
6D
100
AcDbEntity
  8
0
  6
ByBlock
 62
     0
100
AcDbLine
 10
-1.0
 20
0.1666666666666667
 30
0.0
 11
0.0
 21
0.0
 31
0.0
  0
LINE
  5
70
330
6D
100
AcDbEntity
  8
0
  6
ByBlock
 62
     0
100
AcDbLine
 10
0.0
 20
0.0
 30
0.0
 11
-1.0
 21
-0.1666666666666667
 31
0.0
  0
LINE
  5
71
330
6D
100
AcDbEntity
  8
0
  6
ByBlock
 62
     0
100
AcDbLine
 10
0.0
 20
0.0
 30
0.0
 11
-1.0
 21
0.0
 31
0.0
  0
ENDBLK
  5
72
330
6D
100
AcDbEntity
  8
0
100
AcDbBlockEnd
  0
BLOCK
  5
9F46
330
9F3C
100
AcDbEntity
  8
0
100
AcDbBlockBegin
  2
*D1
 70
     1
 71
     0
 10
0.0
 20
0.0
 30
0.0
  3
*D1
  1

  0
LINE
  5
A00E
330
9F3C
100
AcDbEntity
  8
SUNPOU
  6
Continuous
 62
     4
370
    -2
100
AcDbLine
 10
578.9185233604442
 20
456.8223442146087
 30
0.0
 11
578.9185233604442
 21
434.6536275948665
 31
0.0
  0
LINE
  5
A00F
330
9F3C
100
AcDbEntity
  8
SUNPOU
  6
Continuous
 62
     4
370
    -2
100
AcDbLine
 10
317.8116233604442
 20
456.8223442146087
 30
0.0
 11
317.8116233604442
 21
434.6536275948665
 31
0.0
  0
LINE
  5
A010
330
9F3C
100
AcDbEntity
  8
SUNPOU
  6
Continuous
 62
     4
370
    -2
100
AcDbLine
 10
571.9185233604442
 20
437.6536275948665
 30
0.0
 11
324.8116233604442
 21
437.6536275948665
 31
0.0
  0
INSERT
  5
A011
330
9F3C
100
AcDbEntity
  8
SUNPOU
  6
Continuous
 62
     4
370
    -2
100
AcDbBlockReference
  2
_OPEN
 10
578.9185233604442
 20
437.6536275948665
 30
0.0
 41
7.0
 42
7.0
 43
7.0
  0
INSERT
  5
A012
330
9F3C
100
AcDbEntity
  8
SUNPOU
  6
Continuous
 62
     4
370
    -2
100
AcDbBlockReference
  2
_OPEN
 10
317.8116233604442
 20
437.6536275948665
 30
0.0
 41
7.0
 42
7.0
 43
7.0
 50
180.0
  0
MTEXT
  5
A013
330
9F3C
100
AcDbEntity
  8
SUNPOU
  6
Continuous
 62
     4
100
AcDbMText
 10
448.3650733604442
 20
442.6536275948665
 30
0.0
 40
6.0
 41
0.0
 71
     5
 72
     1
  1
\A1;261
 73
     1
 44
1.0
  0
POINT
  5
A014
330
9F3C
100
AcDbEntity
  8
DEFPOINTS
  6
Continuous
 62
     0
100
AcDbPoint
 10
578.9185233604442
 20
462.8223442146087
 30
0.0
  0
POINT
  5
A015
330
9F3C
100
AcDbEntity
  8
DEFPOINTS
  6
Continuous
 62
     0
100
AcDbPoint
 10
317.8116233604442
 20
462.8223442146087
 30
0.0
  0
POINT
  5
A016
330
9F3C
100
AcDbEntity
  8
DEFPOINTS
  6
Continuous
 62
     0
100
AcDbPoint
 10
317.8116233604442
 20
437.6536275948665
 30
0.0
  0
ENDBLK
  5
9F47
330
9F3C
100
AcDbEntity
  8
0
100
AcDbBlockEnd
  0
BLOCK
  5
9F52
330
9F48
100
AcDbEntity
  8
0
100
AcDbBlockBegin
  2
*D2
 70
     1
 71
     0
 10
0.0
 20
0.0
 30
0.0
  3
*D2
  1

  0
LINE
  5
A017
330
9F48
100
AcDbEntity
  8
SUNPOU
 62
     4
370
    -2
100
AcDbLine
 10
317.8114755936367
 20
181.5691080726783
 30
0.0
 11
317.8114755936367
 21
202.6741319795862
 31
0.0
  0
LINE
  5
A018
330
9F48
100
AcDbEntity
  8
SUNPOU
 62
     4
370
    -2
100
AcDbLine
 10
457.0296233604441
 20
179.4298147848734
 30
0.0
 11
457.0296233604441
 21
202.6741319795862
 31
0.0
  0
LINE
  5
A019
330
9F48
100
AcDbEntity
  8
SUNPOU
 62
     4
370
    -2
100
AcDbLine
 10
324.8114755936367
 20
199.6741319795862
 30
0.0
 11
450.0296233604441
 21
199.6741319795862
 31
0.0
  0
INSERT
  5
A01A
330
9F48
100
AcDbEntity
  8
SUNPOU
 62
     4
370
    -2
100
AcDbBlockReference
  2
_OPEN
 10
317.8114755936367
 20
199.6741319795862
 30
0.0
 41
7.0
 42
7.0
 43
7.0
 50
180.0
  0
INSERT
  5
A01B
330
9F48
100
AcDbEntity
  8
SUNPOU
 62
     4
370
    -2
100
AcDbBlockReference
  2
_OPEN
 10
457.0296233604441
 20
199.6741319795862
 30
0.0
 41
7.0
 42
7.0
 43
7.0
  0
MTEXT
  5
A01C
330
9F48
100
AcDbEntity
  8
SUNPOU
 62
     4
100
AcDbMText
 10
387.4205494770404
 20
204.6741319795862
 30
0.0
 40
6.0
 41
0.0
 71
     5
 72
     1
  1
\A1;139
 73
     1
 44
1.0
  0
POINT
  5
A01D
330
9F48
100
AcDbEntity
  8
DEFPOINTS
 62
     0
100
AcDbPoint
 10
317.8114755936367
 20
175.5691080726783
 30
0.0
  0
POINT
  5
A01E
330
9F48
100
AcDbEntity
  8
DEFPOINTS
 62
     0
100
AcDbPoint
 10
457.0296233604441
 20
173.4298147848734
 30
0.0
  0
POINT
  5
A01F
330
9F48
100
AcDbEntity
  8
DEFPOINTS
 62
     0
100
AcDbPoint
 10
457.0296233604441
 20
199.6741319795862
 30
0.0
  0
ENDBLK
  5
9F53
330
9F48
100
AcDbEntity
  8
0
100
AcDbBlockEnd
  0
BLOCK
  5
9F5E
330
9F54
100
AcDbEntity
  8
0
100
AcDbBlockBegin
  2
*D3
 70
     1
 71
     0
 10
0.0
 20
0.0
 30
0.0
  3
*D3
  1

  0
LINE
  5
A020
330
9F54
100
AcDbEntity
  8
SUNPOU
 62
     4
370
    -2
100
AcDbLine
 10
351.4109844080213
 20
88.01281478487346
 30
0.0
 11
351.4109844080213
 21
55.8348710311559
 31
0.0
  0
LINE
  5
A021
330
9F54
100
AcDbEntity
  8
SUNPOU
 62
     4
370
    -2
100
AcDbLine
 10
445.0475559666222
 20
88.01281478487346
 30
0.0
 11
445.0475559666222
 21
55.8348710311559
 31
0.0
  0
LINE
  5
A022
330
9F54
100
AcDbEntity
  8
SUNPOU
 62
     4
370
    -2
100
AcDbLine
 10
358.4109844080213
 20
58.8348710311559
 30
0.0
 11
438.0475559666222
 21
58.8348710311559
 31
0.0
  0
INSERT
  5
A023
330
9F54
100
AcDbEntity
  8
SUNPOU
 62
     4
370
    -2
100
AcDbBlockReference
  2
_OPEN
 10
351.4109844080213
 20
58.8348710311559
 30
0.0
 41
7.0
 42
7.0
 43
7.0
 50
180.0
  0
INSERT
  5
A024
330
9F54
100
AcDbEntity
  8
SUNPOU
 62
     4
370
    -2
100
AcDbBlockReference
  2
_OPEN
 10
445.0475559666222
 20
58.8348710311559
 30
0.0
 41
7.0
 42
7.0
 43
7.0
  0
MTEXT
  5
A025
330
9F54
100
AcDbEntity
  8
SUNPOU
 62
     4
100
AcDbMText
 10
398.2292701873217
 20
63.8348710311559
 30
0.0
 40
6.0
 41
0.0
 71
     5
 72
     1
  1
\A1;94
 73
     1
 44
1.0
  0
POINT
  5
A026
330
9F54
100
AcDbEntity
  8
DEFPOINTS
 62
     0
100
AcDbPoint
 10
351.4109844080213
 20
94.01281478487346
 30
0.0
  0
POINT
  5
A027
330
9F54
100
AcDbEntity
  8
DEFPOINTS
 62
     0
100
AcDbPoint
 10
445.0475559666222
 20
94.01281478487346
 30
0.0
  0
POINT
  5
A028
330
9F54
100
AcDbEntity
  8
DEFPOINTS
 62
     0
100
AcDbPoint
 10
445.0475559666222
 20
58.8348710311559
 30
0.0
  0
ENDBLK
  5
9F5F
330
9F54
100
AcDbEntity
  8
0
100
AcDbBlockEnd
  0
BLOCK
  5
9F6A
330
9F60
100
AcDbEntity
  8
0
100
AcDbBlockBegin
  2
*D4
 70
     1
 71
     0
 10
0.0
 20
0.0
 30
0.0
  3
*D4
  1

  0
LINE
  5
A029
330
9F60
100
AcDbEntity
  8
SUNPOU
 62
     4
370
    -2
100
AcDbLine
 10
311.8115233604442
 20
175.5691147848735
 30
0.0
 11
286.7836306370092
 21
175.5691147848735
 31
0.0
  0
LINE
  5
A02A
330
9F60
100
AcDbEntity
  8
SUNPOU
 62
     4
370
    -2
100
AcDbLine
 10
347.5842233604442
 20
94.01281478487347
 30
0.0
 11
286.7836306370091
 21
94.01281478487348
 31
0.0
  0
LINE
  5
A02B
330
9F60
100
AcDbEntity
  8
SUNPOU
 62
     4
370
    -2
100
AcDbLine
 10
289.7836306370092
 20
168.5691147848735
 30
0.0
 11
289.7836306370091
 21
101.0128147848735
 31
0.0
  0
INSERT
  5
A02C
330
9F60
100
AcDbEntity
  8
SUNPOU
 62
     4
370
    -2
100
AcDbBlockReference
  2
_OPEN
 10
289.7836306370092
 20
175.5691147848735
 30
0.0
 41
7.0
 42
7.0
 43
7.0
 50
90.0
  0
INSERT
  5
A02D
330
9F60
100
AcDbEntity
  8
SUNPOU
 62
     4
370
    -2
100
AcDbBlockReference
  2
_OPEN
 10
289.7836306370091
 20
94.01281478487347
 30
0.0
 41
7.0
 42
7.0
 43
7.0
 50
270.0
  0
MTEXT
  5
A02E
330
9F60
100
AcDbEntity
  8
SUNPOU
 62
     4
100
AcDbMText
 10
284.7836306370091
 20
134.7909647848735
 30
0.0
 40
6.0
 41
0.0
 71
     5
 72
     1
  1
\A1;82
 11
6.123031769111886E-17
 21
1.0
 31
0.0
 73
     1
 44
1.0
  0
POINT
  5
A02F
330
9F60
100
AcDbEntity
  8
DEFPOINTS
 62
     0
100
AcDbPoint
 10
317.8115233604442
 20
175.5691147848735
 30
0.0
  0
POINT
  5
A030
330
9F60
100
AcDbEntity
  8
DEFPOINTS
 62
     0
100
AcDbPoint
 10
353.5842233604442
 20
94.01281478487346
 30
0.0
  0
POINT
  5
A031
330
9F60
100
AcDbEntity
  8
DEFPOINTS
 62
     0
100
AcDbPoint
 10
289.7836306370091
 20
94.01281478487347
 30
0.0
  0
ENDBLK
  5
9F6B
330
9F60
100
AcDbEntity
  8
0
100
AcDbBlockEnd
  0
BLOCK
  5
9F76
330
9F6C
100
AcDbEntity
  8
0
100
AcDbBlockBegin
  2
*D5
 70
     1
 71
     0
 10
0.0
 20
0.0
 30
0.0
  3
*D5
  1

  0
LINE
  5
A032
330
9F6C
100
AcDbEntity
  8
SUNPOU
 62
     4
370
    -2
100
AcDbLine
 10
306.3462233604442
 20
210.1451147848735
 30
0.0
 11
286.7836306370091
 21
210.1451147848735
 31
0.0
  0
LINE
  5
A033
330
9F6C
100
AcDbEntity
  8
SUNPOU
 62
     4
370
    -2
100
AcDbLine
 10
311.8114755936367
 20
175.5691080726783
 30
0.0
 11
286.7836306370091
 21
175.5691080726783
 31
0.0
  0
LINE
  5
A034
330
9F6C
100
AcDbEntity
  8
SUNPOU
 62
     4
370
    -2
100
AcDbLine
 10
289.7836306370091
 20
203.1451147848735
 30
0.0
 11
289.7836306370091
 21
182.5691080726783
 31
0.0
  0
INSERT
  5
A035
330
9F6C
100
AcDbEntity
  8
SUNPOU
 62
     4
370
    -2
100
AcDbBlockReference
  2
_OPEN
 10
289.7836306370091
 20
210.1451147848735
 30
0.0
 41
7.0
 42
7.0
 43
7.0
 50
90.0
  0
INSERT
  5
A036
330
9F6C
100
AcDbEntity
  8
SUNPOU
 62
     4
370
    -2
100
AcDbBlockReference
  2
_OPEN
 10
289.7836306370091
 20
175.5691080726783
 30
0.0
 41
7.0
 42
7.0
 43
7.0
 50
270.0
  0
MTEXT
  5
A037
330
9F6C
100
AcDbEntity
  8
SUNPOU
 62
     4
100
AcDbMText
 10
284.7836306370091
 20
192.8571114287759
 30
0.0
 40
6.0
 41
0.0
 71
     5
 72
     1
  1
\A1;35
 11
6.123031769111886E-17
 21
1.0
 31
0.0
 73
     1
 44
1.0
  0
POINT
  5
A038
330
9F6C
100
AcDbEntity
  8
DEFPOINTS
 62
     0
100
AcDbPoint
 10
312.3462233604442
 20
210.1451147848735
 30
0.0
  0
POINT
  5
A039
330
9F6C
100
AcDbEntity
  8
DEFPOINTS
 62
     0
100
AcDbPoint
 10
317.8114755936367
 20
175.5691080726783
 30
0.0
  0
POINT
  5
A03A
330
9F6C
100
AcDbEntity
  8
DEFPOINTS
 62
     0
100
AcDbPoint
 10
289.7836306370091
 20
175.5691080726783
 30
0.0
  0
ENDBLK
  5
9F77
330
9F6C
100
AcDbEntity
  8
0
100
AcDbBlockEnd
  0
BLOCK
  5
9F84
330
9F78
100
AcDbEntity
  8
0
100
AcDbBlockBegin
  2
*D6
 70
     1
 71
     0
 10
0.0
 20
0.0
 30
0.0
  3
*D6
  1

  0
LINE
  5
A03B
330
9F78
100
AcDbEntity
  8
SUNPOU
 62
     4
370
    -2
100
AcDbLine
 10
340.5338012595068
 20
128.8556639156268
 30
0.0
 11
338.9944888910674
 21
139.8085477423609
 31
0.0
  0
LINE
  5
A03C
330
9F78
100
AcDbEntity
  8
SUNPOU
 62
     4
370
    -2
100
AcDbLine
 10
338.5532927697496
 20
128.5773243237614
 30
0.0
 11
337.0139804013102
 21
139.5302081504955
 31
0.0
  0
LINE
  5
A03D
330
9F78
100
AcDbEntity
  8
SUNPOU
 62
     4
370
    -2
100
AcDbLine
 10
346.343881981784
 20
137.8119453287274
 30
0.0
 11
353.2757597771533
 21
138.7861476845378
 31
0.0
  0
LINE
  5
A03E
330
9F78
100
AcDbEntity
  8
SUNPOU
 62
     4
370
    -2
100
AcDbLine
 10
330.4996179012883
 20
135.585201025241
 30
0.0
 11
302.7721067198112
 21
131.6883916019992
 31
0.0
  0
LINE
  5
A03F
330
9F78
100
AcDbEntity
  8
SUNPOU
 62
     4
370
    -2
100
AcDbLine
 10
339.4120041864148
 20
136.8377429729169
 30
0.0
 11
337.4314956966575
 21
136.5594033810515
 31
0.0
  0
INSERT
  5
A040
330
9F78
100
AcDbEntity
  8
SUNPOU
 62
     4
370
    -2
100
AcDbBlockReference
  2
_OPEN
 10
339.4120041864148
 20
136.8377429729169
 30
0.0
 41
7.0
 42
7.0
 43
7.0
 50
187.9999227095826
  0
INSERT
  5
A041
330
9F78
100
AcDbEntity
  8
SUNPOU
 62
     4
370
    -2
100
AcDbBlockReference
  2
_OPEN
 10
337.4314956966575
 20
136.5594033810515
 30
0.0
 41
7.0
 42
7.0
 43
7.0
 50
7.999922709582572
  0
MTEXT
  5
A042
330
9F78
100
AcDbEntity
  8
SUNPOU
 62
     4
100
AcDbMText
 10
312.4740645872862
 20
138.1010364181215
 30
0.0
 40
6.0
 41
0.0
 71
     5
 72
     1
  1
\A1;t2.0
 11
0.9902682564813224
 21
0.1391717651157798
 31
0.0
 73
     1
 44
1.0
  0
POINT
  5
A043
330
9F78
100
AcDbEntity
  8
DEFPOINTS
 62
     0
100
AcDbPoint
 10
341.3688318502016
 20
122.9140543767389
 30
0.0
  0
POINT
  5
A044
330
9F78
100
AcDbEntity
  8
DEFPOINTS
 62
     0
100
AcDbPoint
 10
339.3883233604443
 20
122.6357147848735
 30
0.0
  0
POINT
  5
A045
330
9F78
100
AcDbEntity
  8
DEFPOINTS
 62
     0
100
AcDbPoint
 10
337.4314956966575
 20
136.5594033810515
 30
0.0
  0
ENDBLK
  5
9F85
330
9F78
100
AcDbEntity
  8
0
100
AcDbBlockEnd
  0
BLOCK
  5
9F90
330
9F86
100
AcDbEntity
  8
0
100
AcDbBlockBegin
  2
*D7
 70
     1
 71
     0
 10
0.0
 20
0.0
 30
0.0
  3
*D7
  1

  0
LINE
  5
A046
330
9F86
100
AcDbEntity
  8
SUNPOU
 62
     4
370
    -2
100
AcDbLine
 10
183.6500840553725
 20
314.6496147848734
 30
0.0
 11
183.6500840553725
 21
354.1430689542747
 31
0.0
  0
LINE
  5
A047
330
9F86
100
AcDbEntity
  8
SUNPOU
 62
     4
370
    -2
100
AcDbLine
 10
202.6499840553726
 20
314.6496147848734
 30
0.0
 11
202.6499840553726
 21
354.1430689542747
 31
0.0
  0
LINE
  5
A048
330
9F86
100
AcDbEntity
  8
SUNPOU
 62
     4
370
    -2
100
AcDbLine
 10
190.6500840553725
 20
351.1430689542747
 30
0.0
 11
195.6499840553726
 21
351.1430689542747
 31
0.0
  0
INSERT
  5
A049
330
9F86
100
AcDbEntity
  8
SUNPOU
 62
     4
370
    -2
100
AcDbBlockReference
  2
_OPEN
 10
183.6500840553725
 20
351.1430689542747
 30
0.0
 41
7.0
 42
7.0
 43
7.0
 50
180.0
  0
INSERT
  5
A04A
330
9F86
100
AcDbEntity
  8
SUNPOU
 62
     4
370
    -2
100
AcDbBlockReference
  2
_OPEN
 10
202.6499840553726
 20
351.1430689542747
 30
0.0
 41
7.0
 42
7.0
 43
7.0
  0
MTEXT
  5
A04B
330
9F86
100
AcDbEntity
  8
SUNPOU
 62
     4
100
AcDbMText
 10
193.1500340553725
 20
356.1430689542747
 30
0.0
 40
6.0
 41
0.0
 71
     5
 72
     1
  1
\A1;19
 73
     1
 44
1.0
  0
POINT
  5
A04C
330
9F86
100
AcDbEntity
  8
DEFPOINTS
 62
     0
100
AcDbPoint
 10
183.6500840553725
 20
308.6496147848734
 30
0.0
  0
POINT
  5
A04D
330
9F86
100
AcDbEntity
  8
DEFPOINTS
 62
     0
100
AcDbPoint
 10
202.6499840553726
 20
308.6496147848734
 30
0.0
  0
POINT
  5
A04E
330
9F86
100
AcDbEntity
  8
DEFPOINTS
 62
     0
100
AcDbPoint
 10
202.6499840553726
 20
351.1430689542747
 30
0.0
  0
ENDBLK
  5
9F91
330
9F86
100
AcDbEntity
  8
0
100
AcDbBlockEnd
  0
BLOCK
  5
9F9E
330
9F92
100
AcDbEntity
  8
0
100
AcDbBlockBegin
  2
*D8
 70
     1
 71
     0
 10
0.0
 20
0.0
 30
0.0
  3
*D8
  1

  0
LINE
  5
A04F
330
9F92
100
AcDbEntity
  8
SUNPOU
 62
     4
370
    -2
100
AcDbLine
 10
562.8749140778887
 20
304.0518817175608
 30
0.0
 11
553.5728607777327
 21
301.2611585643685
 31
0.0
  0
LINE
  5
A050
330
9F92
100
AcDbEntity
  8
SUNPOU
 62
     4
370
    -2
100
AcDbLine
 10
563.5932952399313
 20
301.6573697963394
 30
0.0
 11
554.2912419397752
 21
298.8666466431471
 31
0.0
  0
LINE
  5
A051
330
9F92
100
AcDbEntity
  8
SUNPOU
 62
     4
370
    -2
100
AcDbLine
 10
554.4348244596878
 20
308.8279953282343
 30
0.0
 11
552.4233183971813
 21
315.5327580653116
 31
0.0
  0
LINE
  5
A052
330
9F92
100
AcDbEntity
  8
SUNPOU
 62
     4
370
    -2
100
AcDbLine
 10
559.1762177467433
 20
293.0239579328584
 30
0.0
 11
567.5096000056988
 21
265.2470837363954
 31
0.0
  0
LINE
  5
A053
330
9F92
100
AcDbEntity
  8
SUNPOU
 62
     4
370
    -2
100
AcDbLine
 10
556.4463305221943
 20
302.123232591157
 30
0.0
 11
557.1647116842369
 21
299.7287206699356
 31
0.0
  0
INSERT
  5
A054
330
9F92
100
AcDbEntity
  8
SUNPOU
 62
     4
370
    -2
100
AcDbBlockReference
  2
_OPEN
 10
556.4463305221943
 20
302.123232591157
 30
0.0
 41
7.0
 42
7.0
 43
7.0
 50
286.6998497998584
  0
INSERT
  5
A055
330
9F92
100
AcDbEntity
  8
SUNPOU
 62
     4
370
    -2
100
AcDbBlockReference
  2
_OPEN
 10
557.1647116842369
 20
299.7287206699356
 30
0.0
 41
7.0
 42
7.0
 43
7.0
 50
106.6998497998584
  0
MTEXT
  5
A056
330
9F92
100
AcDbEntity
  8
SUNPOU
 62
     4
100
AcDbMText
 10
569.1377781482437
 20
277.2199295107358
 30
0.0
 40
6.0
 41
0.0
 71
     5
 72
     1
  1
\A1;t2.5
 11
0.2873580089294982
 21
-0.9578232481538932
 31
0.0
 73
     1
 44
1.0
  0
POINT
  5
A057
330
9F92
100
AcDbEntity
  8
DEFPOINTS
 62
     0
100
AcDbPoint
 10
568.6218535668121
 20
305.7760297711378
 30
0.0
  0
POINT
  5
A058
330
9F92
100
AcDbEntity
  8
DEFPOINTS
 62
     0
100
AcDbPoint
 10
569.3402347288547
 20
303.3815178499164
 30
0.0
  0
POINT
  5
A059
330
9F92
100
AcDbEntity
  8
DEFPOINTS
 62
     0
100
AcDbPoint
 10
557.1647116842369
 20
299.7287206699356
 30
0.0
  0
ENDBLK
  5
9F9F
330
9F92
100
AcDbEntity
  8
0
100
AcDbBlockEnd
  0
BLOCK
  5
9FAA
330
9FA0
100
AcDbEntity
  8
0
100
AcDbBlockBegin
  2
*D9
 70
     1
 71
     0
 10
0.0
 20
0.0
 30
0.0
  3
*D9
  1

  0
LINE
  5
A05A
330
9FA0
100
AcDbEntity
  8
SUNPOU
 62
     4
370
    -2
100
AcDbLine
 10
584.2001233604442
 20
308.6496147848734
 30
0.0
 11
613.9087339869735
 21
308.6496147848734
 31
0.0
  0
LINE
  5
A05B
330
9FA0
100
AcDbEntity
  8
SUNPOU
 62
     4
370
    -2
100
AcDbLine
 10
584.200023360444
 20
255.0600147848735
 30
0.0
 11
613.9087339869734
 21
255.0600147848735
 31
0.0
  0
LINE
  5
A05C
330
9FA0
100
AcDbEntity
  8
SUNPOU
 62
     4
370
    -2
100
AcDbLine
 10
610.9087339869735
 20
301.6496147848734
 30
0.0
 11
610.9087339869735
 21
262.0600147848735
 31
0.0
  0
INSERT
  5
A05D
330
9FA0
100
AcDbEntity
  8
SUNPOU
 62
     4
370
    -2
100
AcDbBlockReference
  2
_OPEN
 10
610.9087339869735
 20
308.6496147848734
 30
0.0
 41
7.0
 42
7.0
 43
7.0
 50
90.0
  0
INSERT
  5
A05E
330
9FA0
100
AcDbEntity
  8
SUNPOU
 62
     4
370
    -2
100
AcDbBlockReference
  2
_OPEN
 10
610.9087339869734
 20
255.0600147848735
 30
0.0
 41
7.0
 42
7.0
 43
7.0
 50
270.0
  0
MTEXT
  5
A05F
330
9FA0
100
AcDbEntity
  8
SUNPOU
 62
     4
100
AcDbMText
 10
605.9087339869734
 20
281.8548147848735
 30
0.0
 40
6.0
 41
0.0
 71
     5
 72
     1
  1
\A1;54
 11
6.123031769111886E-17
 21
1.0
 31
0.0
 73
     1
 44
1.0
  0
POINT
  5
A060
330
9FA0
100
AcDbEntity
  8
DEFPOINTS
 62
     0
100
AcDbPoint
 10
578.2001233604442
 20
308.6496147848734
 30
0.0
  0
POINT
  5
A061
330
9FA0
100
AcDbEntity
  8
DEFPOINTS
 62
     0
100
AcDbPoint
 10
578.200023360444
 20
255.0600147848735
 30
0.0
  0
POINT
  5
A062
330
9FA0
100
AcDbEntity
  8
DEFPOINTS
 62
     0
100
AcDbPoint
 10
610.9087339869734
 20
255.0600147848735
 30
0.0
  0
ENDBLK
  5
9FAB
330
9FA0
100
AcDbEntity
  8
0
100
AcDbBlockEnd
  0
BLOCK
  5
9FB6
330
9FAC
100
AcDbEntity
  8
0
100
AcDbBlockBegin
  2
*D10
 70
     1
 71
     0
 10
0.0
 20
0.0
 30
0.0
  3
*D10
  1

  0
LINE
  5
A063
330
9FAC
100
AcDbEntity
  8
SUNPOU
 62
     4
370
    -2
100
AcDbLine
 10
576.4759971050556
 20
314.3965608134913
 30
0.0
 11
572.2099401363323
 21
328.6162356816855
 31
0.0
  0
LINE
  5
A064
330
9FAC
100
AcDbEntity
  8
SUNPOU
 62
     4
370
    -2
100
AcDbLine
 10
420.8296865031143
 20
267.7009764098926
 30
0.0
 11
416.5636295343909
 21
281.9206512780868
 31
0.0
  0
LINE
  5
A065
330
9FAC
100
AcDbEntity
  8
SUNPOU
 62
     4
370
    -2
100
AcDbLine
 10
566.3672484925371
 20
323.7312633833478
 30
0.0
 11
424.1304657806321
 21
281.0586830521232
 31
0.0
  0
INSERT
  5
A066
330
9FAC
100
AcDbEntity
  8
SUNPOU
 62
     4
370
    -2
100
AcDbBlockReference
  2
_OPEN
 10
573.0720124375553
 20
325.7427654195349
 30
0.0
 41
7.0
 42
7.0
 43
7.0
 50
16.69981539281052
  0
INSERT
  5
A067
330
9FAC
100
AcDbEntity
  8
SUNPOU
 62
     4
370
    -2
100
AcDbBlockReference
  2
_OPEN
 10
417.425701835614
 20
279.0471810159362
 30
0.0
 41
7.0
 42
7.0
 43
7.0
 50
196.6998153928105
  0
MTEXT
  5
A068
330
9FAC
100
AcDbEntity
  8
SUNPOU
 62
     4
100
AcDbMText
 10
493.8120699678796
 20
307.18409032132
 30
0.0
 40
6.0
 41
0.0
 71
     5
 72
     1
  1
\A1;163
 11
0.9578234207168803
 21
0.2873574337410015
 31
0.0
 73
     1
 44
1.0
  0
POINT
  5
A069
330
9FAC
100
AcDbEntity
  8
DEFPOINTS
 62
     0
100
AcDbPoint
 10
578.2001417075016
 20
308.64962028919
 30
0.0
  0
POINT
  5
A06A
330
9FAC
100
AcDbEntity
  8
DEFPOINTS
 62
     0
100
AcDbPoint
 10
422.5538311055603
 20
261.9540358855913
 30
0.0
  0
POINT
  5
A06B
330
9FAC
100
AcDbEntity
  8
DEFPOINTS
 62
     0
100
AcDbPoint
 10
417.425701835614
 20
279.0471810159362
 30
0.0
  0
ENDBLK
  5
9FB7
330
9FAC
100
AcDbEntity
  8
0
100
AcDbBlockEnd
  0
BLOCK
  5
9FC2
330
9FB8
100
AcDbEntity
  8
0
100
AcDbBlockBegin
  2
*D11
 70
     1
 71
     0
 10
0.0
 20
0.0
 30
0.0
  3
*D11
  1

  0
LINE
  5
A06C
330
9FB8
100
AcDbEntity
  8
SUNPOU
 62
     4
370
    -2
100
AcDbLine
 10
460.5265233604442
 20
159.7012147848734
 30
0.0
 11
503.4404275391395
 21
159.7012147848734
 31
0.0
  0
LINE
  5
A06D
330
9FB8
100
AcDbEntity
  8
SUNPOU
 62
     4
370
    -2
100
AcDbLine
 10
448.6751233604442
 20
94.01281478487346
 30
0.0
 11
503.4404275391394
 21
94.01281478487344
 31
0.0
  0
LINE
  5
A06E
330
9FB8
100
AcDbEntity
  8
SUNPOU
 62
     4
370
    -2
100
AcDbLine
 10
500.4404275391395
 20
152.7012147848734
 30
0.0
 11
500.4404275391394
 21
101.0128147848734
 31
0.0
  0
INSERT
  5
A06F
330
9FB8
100
AcDbEntity
  8
SUNPOU
 62
     4
370
    -2
100
AcDbBlockReference
  2
_OPEN
 10
500.4404275391395
 20
159.7012147848734
 30
0.0
 41
7.0
 42
7.0
 43
7.0
 50
90.0
  0
INSERT
  5
A070
330
9FB8
100
AcDbEntity
  8
SUNPOU
 62
     4
370
    -2
100
AcDbBlockReference
  2
_OPEN
 10
500.4404275391394
 20
94.01281478487344
 30
0.0
 41
7.0
 42
7.0
 43
7.0
 50
270.0
  0
MTEXT
  5
A071
330
9FB8
100
AcDbEntity
  8
SUNPOU
 62
     4
100
AcDbMText
 10
495.4404275391394
 20
110.0128147848735
 30
0.0
 40
6.0
 41
0.0
 71
     5
 72
     1
  1
\A1;66
 11
6.123031769111886E-17
 21
1.0
 31
0.0
 73
     1
 44
1.0
  0
POINT
  5
A072
330
9FB8
100
AcDbEntity
  8
DEFPOINTS
 62
     0
100
AcDbPoint
 10
454.5265233604442
 20
159.7012147848734
 30
0.0
  0
POINT
  5
A073
330
9FB8
100
AcDbEntity
  8
DEFPOINTS
 62
     0
100
AcDbPoint
 10
442.6751233604442
 20
94.01281478487346
 30
0.0
  0
POINT
  5
A074
330
9FB8
100
AcDbEntity
  8
DEFPOINTS
 62
     0
100
AcDbPoint
 10
500.4404275391394
 20
94.01281478487344
 30
0.0
  0
ENDBLK
  5
9FC3
330
9FB8
100
AcDbEntity
  8
0
100
AcDbBlockEnd
  0
BLOCK
  5
9FCE
330
9FC4
100
AcDbEntity
  8
0
100
AcDbBlockBegin
  2
*D12
 70
     1
 71
     0
 10
0.0
 20
0.0
 30
0.0
  3
*D12
  1

  0
LINE
  5
A075
330
9FC4
100
AcDbEntity
  8
SUNPOU
 62
     4
370
    -2
100
AcDbLine
 10
431.666839668998
 20
260.2778441605198
 30
0.0
 11
516.4307945624061
 21
260.2778441605198
 31
0.0
  0
LINE
  5
A076
330
9FC4
100
AcDbEntity
  8
SUNPOU
 62
     4
370
    -2
100
AcDbLine
 10
464.2796233604441
 20
132.2012147848734
 30
0.0
 11
516.4307945624059
 21
132.2012147848734
 31
0.0
  0
LINE
  5
A077
330
9FC4
100
AcDbEntity
  8
SUNPOU
 62
     4
370
    -2
100
AcDbLine
 10
513.4307945624059
 20
253.2778441605198
 30
0.0
 11
513.4307945624059
 21
139.2012147848734
 31
0.0
  0
INSERT
  5
A078
330
9FC4
100
AcDbEntity
  8
SUNPOU
 62
     4
370
    -2
100
AcDbBlockReference
  2
_OPEN
 10
513.4307945624061
 20
260.2778441605198
 30
0.0
 41
7.0
 42
7.0
 43
7.0
 50
90.0
  0
INSERT
  5
A079
330
9FC4
100
AcDbEntity
  8
SUNPOU
 62
     4
370
    -2
100
AcDbBlockReference
  2
_OPEN
 10
513.4307945624059
 20
132.2012147848734
 30
0.0
 41
7.0
 42
7.0
 43
7.0
 50
270.0
  0
MTEXT
  5
A07A
330
9FC4
100
AcDbEntity
  8
SUNPOU
 62
     4
100
AcDbMText
 10
508.4307945624059
 20
196.2395294726967
 30
0.0
 40
6.0
 41
0.0
 71
     5
 72
     1
  1
\A1;128
 11
6.123031769111886E-17
 21
1.0
 31
0.0
 73
     1
 44
1.0
  0
POINT
  5
A07B
330
9FC4
100
AcDbEntity
  8
DEFPOINTS
 62
     0
100
AcDbPoint
 10
425.666839668998
 20
260.2778441605198
 30
0.0
  0
POINT
  5
A07C
330
9FC4
100
AcDbEntity
  8
DEFPOINTS
 62
     0
100
AcDbPoint
 10
458.2796233604441
 20
132.2012147848734
 30
0.0
  0
POINT
  5
A07D
330
9FC4
100
AcDbEntity
  8
DEFPOINTS
 62
     0
100
AcDbPoint
 10
513.4307945624059
 20
132.2012147848734
 30
0.0
  0
ENDBLK
  5
9FCF
330
9FC4
100
AcDbEntity
  8
0
100
AcDbBlockEnd
  0
BLOCK
  5
9FDA
330
9FD0
100
AcDbEntity
  8
0
100
AcDbBlockBegin
  2
*D13
 70
     1
 71
     0
 10
0.0
 20
0.0
 30
0.0
  3
*D13
  1

  0
LINE
  5
A07E
330
9FD0
100
AcDbEntity
  8
SUNPOU
 62
     4
370
    -2
100
AcDbLine
 10
584.9185233604442
 20
481.8223442146087
 30
0.0
 11
620.4027386934195
 21
481.8223442146087
 31
0.0
  0
LINE
  5
A07F
330
9FD0
100
AcDbEntity
  8
SUNPOU
 62
     4
370
    -2
100
AcDbLine
 10
584.9185233604442
 20
462.8223442146087
 30
0.0
 11
620.4027386934195
 21
462.8223442146087
 31
0.0
  0
LINE
  5
A080
330
9FD0
100
AcDbEntity
  8
SUNPOU
 62
     4
370
    -2
100
AcDbLine
 10
617.4027386934195
 20
474.8223442146087
 30
0.0
 11
617.4027386934195
 21
469.8223442146087
 31
0.0
  0
INSERT
  5
A081
330
9FD0
100
AcDbEntity
  8
SUNPOU
 62
     4
370
    -2
100
AcDbBlockReference
  2
_OPEN
 10
617.4027386934195
 20
481.8223442146087
 30
0.0
 41
7.0
 42
7.0
 43
7.0
 50
90.0
  0
INSERT
  5
A082
330
9FD0
100
AcDbEntity
  8
SUNPOU
 62
     4
370
    -2
100
AcDbBlockReference
  2
_OPEN
 10
617.4027386934195
 20
462.8223442146087
 30
0.0
 41
7.0
 42
7.0
 43
7.0
 50
270.0
  0
MTEXT
  5
A083
330
9FD0
100
AcDbEntity
  8
SUNPOU
 62
     4
100
AcDbMText
 10
612.4027386934193
 20
472.3223442146088
 30
0.0
 40
6.0
 41
0.0
 71
     5
 72
     1
  1
\A1;19
 11
6.123031769111886E-17
 21
1.0
 31
0.0
 73
     1
 44
1.0
  0
POINT
  5
A084
330
9FD0
100
AcDbEntity
  8
DEFPOINTS
 62
     0
100
AcDbPoint
 10
578.9185233604442
 20
481.8223442146087
 30
0.0
  0
POINT
  5
A085
330
9FD0
100
AcDbEntity
  8
DEFPOINTS
 62
     0
100
AcDbPoint
 10
578.9185233604442
 20
462.8223442146087
 30
0.0
  0
POINT
  5
A086
330
9FD0
100
AcDbEntity
  8
DEFPOINTS
 62
     0
100
AcDbPoint
 10
617.4027386934195
 20
462.8223442146087
 30
0.0
  0
ENDBLK
  5
9FDB
330
9FD0
100
AcDbEntity
  8
0
100
AcDbBlockEnd
  0
BLOCK
  5
9FE8
330
9FDC
100
AcDbEntity
  8
0
100
AcDbBlockBegin
  2
*D14
 70
     1
 71
     0
 10
0.0
 20
0.0
 30
0.0
  3
*D14
  1

  0
LINE
  5
A087
330
9FDC
100
AcDbEntity
  8
SUNPOU
  6
Continuous
 62
     4
370
    -2
100
AcDbLine
 10
545.5518443721062
 20
382.6765184073131
 30
0.0
 11
539.9962615692168
 21
401.1945828069553
 31
0.0
  0
LINE
  5
A088
330
9FDC
100
AcDbEntity
  8
SUNPOU
  6
Continuous
 62
     4
370
    -2
100
AcDbLine
 10
555.1301236070983
 20
385.5500867377171
 30
0.0
 11
549.5745408042089
 21
404.0681511373594
 31
0.0
  0
LINE
  5
A089
330
9FDC
100
AcDbEntity
  8
SUNPOU
  6
Continuous
 62
     4
370
    -2
100
AcDbLine
 10
534.1535607941224
 20
396.3096214301672
 30
0.0
 11
527.4487930890849
 21
394.2981319269666
 31
0.0
  0
LINE
  5
A08A
330
9FDC
100
AcDbEntity
  8
SUNPOU
  6
Continuous
 62
     4
370
    -2
100
AcDbLine
 10
557.1413754391895
 20
403.2061687669726
 30
0.0
 11
574.3822066807146
 21
408.3785703466315
 31
0.0
  0
LINE
  5
A08B
330
9FDC
100
AcDbEntity
  8
SUNPOU
  6
Continuous
 62
     4
370
    -2
100
AcDbLine
 10
540.8583284991599
 20
398.3211109333679
 30
0.0
 11
550.4366077341521
 21
401.194679263772
 31
0.0
  0
INSERT
  5
A08C
330
9FDC
100
AcDbEntity
  8
SUNPOU
  6
Continuous
 62
     4
370
    -2
100
AcDbBlockReference
  2
_OPEN
 10
540.8583284991599
 20
398.3211109333679
 30
0.0
 41
7.0
 42
7.0
 43
7.0
 50
16.69970829179598
  0
INSERT
  5
A08D
330
9FDC
100
AcDbEntity
  8
SUNPOU
  6
Continuous
 62
     4
370
    -2
100
AcDbBlockReference
  2
_OPEN
 10
550.4366077341521
 20
401.194679263772
 30
0.0
 41
7.0
 42
7.0
 43
7.0
 50
196.699708291796
  0
MTEXT
  5
A08E
330
9FDC
100
AcDbEntity
  8
SUNPOU
  6
Continuous
 62
     4
100
AcDbMText
 10
567.6773966958989
 20
411.5872340977148
 30
0.0
 40
6.0
 41
0.0
 71
     5
 72
     1
  1
\A1;10
 11
0.9578239578624969
 21
0.2873556433143811
 31
0.0
 73
     1
 44
1.0
  0
POINT
  5
A08F
330
9FDC
100
AcDbEntity
  8
DEFPOINTS
  6
Continuous
 62
     0
100
AcDbPoint
 10
547.2759782319924
 20
376.9295746601381
 30
0.0
  0
POINT
  5
A090
330
9FDC
100
AcDbEntity
  8
DEFPOINTS
  6
Continuous
 62
     0
100
AcDbPoint
 10
556.8542574669846
 20
379.8031429905421
 30
0.0
  0
POINT
  5
A091
330
9FDC
100
AcDbEntity
  8
DEFPOINTS
  6
Continuous
 62
     0
100
AcDbPoint
 10
550.4366077341521
 20
401.194679263772
 30
0.0
  0
ENDBLK
  5
9FE9
330
9FDC
100
AcDbEntity
  8
0
100
AcDbBlockEnd
  0
BLOCK
  5
9FF4
330
9FEA
100
AcDbEntity
  8
0
100
AcDbBlockBegin
  2
*D15
 70
     1
 71
     0
 10
0.0
 20
0.0
 30
0.0
  3
*D15
  1

  0
LINE
  5
A092
330
9FEA
100
AcDbEntity
  8
SUNPOU
  6
Continuous
 62
     4
370
    -2
100
AcDbLine
 10
545.4220771190697
 20
383.1090396570176
 30
0.0
 11
539.9962124934428
 21
401.1945835747128
 31
0.0
  0
LINE
  5
A093
330
9FEA
100
AcDbEntity
  8
SUNPOU
  6
Continuous
 62
     4
370
    -2
100
AcDbLine
 10
497.5309670582603
 20
368.7411731917625
 30
0.0
 11
492.1051024326334
 21
386.8267171094577
 31
0.0
  0
LINE
  5
A094
330
9FEA
100
AcDbEntity
  8
SUNPOU
  6
Continuous
 62
     4
370
    -2
100
AcDbLine
 10
534.1535220728534
 20
396.3096098133551
 30
0.0
 11
499.6719388947126
 21
385.964750778243
 31
0.0
  0
INSERT
  5
A095
330
9FEA
100
AcDbEntity
  8
SUNPOU
  6
Continuous
 62
     4
370
    -2
100
AcDbBlockReference
  2
_OPEN
 10
540.8582855141877
 20
398.3211135284266
 30
0.0
 41
7.0
 42
7.0
 43
7.0
 50
16.69982973977334
  0
INSERT
  5
A096
330
9FEA
100
AcDbEntity
  8
SUNPOU
  6
Continuous
 62
     4
370
    -2
100
AcDbBlockReference
  2
_OPEN
 10
492.9671754533783
 20
383.9532470631716
 30
0.0
 41
7.0
 42
7.0
 43
7.0
 50
196.6998297397734
  0
MTEXT
  5
A097
330
9FEA
100
AcDbEntity
  8
SUNPOU
  6
Continuous
 62
     4
100
AcDbMText
 10
515.4759421158749
 20
395.9262970396093
 30
0.0
 40
6.0
 41
0.0
 71
     5
 72
     1
  1
\A1;50
 11
0.9578233487620493
 21
0.2873576735816422
 31
0.0
 73
     1
 44
1.0
  0
POINT
  5
A098
330
9FEA
100
AcDbEntity
  8
DEFPOINTS
  6
Continuous
 62
     0
100
AcDbPoint
 10
547.1462231605595
 20
377.3620995644453
 30
0.0
  0
POINT
  5
A099
330
9FEA
100
AcDbEntity
  8
DEFPOINTS
  6
Continuous
 62
     0
100
AcDbPoint
 10
499.2551130997502
 20
362.9942330991902
 30
0.0
  0
POINT
  5
A09A
330
9FEA
100
AcDbEntity
  8
DEFPOINTS
  6
Continuous
 62
     0
100
AcDbPoint
 10
492.9671754533783
 20
383.9532470631716
 30
0.0
  0
ENDBLK
  5
9FF5
330
9FEA
100
AcDbEntity
  8
0
100
AcDbBlockEnd
  0
BLOCK
  5
A000
330
9FF6
100
AcDbEntity
  8
0
100
AcDbBlockBegin
  2
*D16
 70
     1
 71
     0
 10
0.0
 20
0.0
 30
0.0
  3
*D16
  1

  0
LINE
  5
A09B
330
9FF6
100
AcDbEntity
  8
SUNPOU
  6
Continuous
 62
     4
370
    -2
100
AcDbLine
 10
497.5309766579677
 20
368.7411760717728
 30
0.0
 11
492.1051388824984
 21
386.826740252455
 31
0.0
  0
LINE
  5
A09C
330
9FF6
100
AcDbEntity
  8
SUNPOU
  6
Continuous
 62
     4
370
    -2
100
AcDbLine
 10
449.6399068156835
 20
354.3734088701581
 30
0.0
 11
444.2140690402143
 21
372.4589730508403
 31
0.0
  0
LINE
  5
A09D
330
9FF6
100
AcDbEntity
  8
SUNPOU
  6
Continuous
 62
     4
370
    -2
100
AcDbLine
 10
486.2624403020429
 20
381.9417762507509
 30
0.0
 11
451.780904062452
 21
371.5969940799616
 31
0.0
  0
INSERT
  5
A09E
330
9FF6
100
AcDbEntity
  8
SUNPOU
  6
Continuous
 62
     4
370
    -2
100
AcDbBlockReference
  2
_OPEN
 10
492.9672071033896
 20
383.9532687661636
 30
0.0
 41
7.0
 42
7.0
 43
7.0
 50
16.69973403273976
  0
INSERT
  5
A09F
330
9FF6
100
AcDbEntity
  8
SUNPOU
  6
Continuous
 62
     4
370
    -2
100
AcDbBlockReference
  2
_OPEN
 10
445.0761372611054
 20
369.5855015645489
 30
0.0
 41
7.0
 42
7.0
 43
7.0
 50
196.6997340327398
  0
MTEXT
  5
A0A0
330
9FF6
100
AcDbEntity
  8
SUNPOU
  6
Continuous
 62
     4
100
AcDbMText
 10
467.5848918140956
 20
381.5585043091752
 30
0.0
 40
6.0
 41
0.0
 71
     5
 72
     1
  1
\A1;50
 11
0.9578238287637909
 21
0.2873560736303865
 31
0.0
 73
     1
 44
1.0
  0
POINT
  5
A0A1
330
9FF6
100
AcDbEntity
  8
DEFPOINTS
  6
Continuous
 62
     0
100
AcDbPoint
 10
499.25511309975
 20
362.9942330991901
 30
0.0
  0
POINT
  5
A0A2
330
9FF6
100
AcDbEntity
  8
DEFPOINTS
  6
Continuous
 62
     0
100
AcDbPoint
 10
451.3640432574658
 20
348.6264658975754
 30
0.0
  0
POINT
  5
A0A3
330
9FF6
100
AcDbEntity
  8
DEFPOINTS
  6
Continuous
 62
     0
100
AcDbPoint
 10
445.0761372611054
 20
369.5855015645489
 30
0.0
  0
ENDBLK
  5
A001
330
9FF6
100
AcDbEntity
  8
0
100
AcDbBlockEnd
  0
BLOCK
  5
A00C
330
A002
100
AcDbEntity
  8
0
100
AcDbBlockBegin
  2
*D17
 70
     1
 71
     0
 10
0.0
 20
0.0
 30
0.0
  3
*D17
  1

  0
LINE
  5
A0A4
330
A002
100
AcDbEntity
  8
SUNPOU
  6
Continuous
 62
     4
370
    -2
100
AcDbLine
 10
561.0192286173914
 20
386.7949230102056
 30
0.0
 11
579.9320233597218
 21
392.4689297722154
 31
0.0
  0
LINE
  5
A0A5
330
A002
100
AcDbEntity
  8
SUNPOU
  6
Continuous
 62
     4
370
    -2
100
AcDbLine
 10
566.4790029140826
 20
368.5962152990787
 30
0.0
 11
585.391797656413
 21
374.2702220610885
 31
0.0
  0
LINE
  5
A0A6
330
A002
100
AcDbEntity
  8
SUNPOU
  6
Continuous
 62
     4
370
    -2
100
AcDbLine
 10
579.0700414927557
 20
384.9020950798872
 30
0.0
 11
580.5068358909108
 21
380.1129225111869
 31
0.0
  0
INSERT
  5
A0A7
330
A002
100
AcDbEntity
  8
SUNPOU
  6
Continuous
 62
     4
370
    -2
100
AcDbBlockReference
  2
_OPEN
 10
577.0585515434876
 20
391.6068626511005
 30
0.0
 41
7.0
 42
7.0
 43
7.0
 50
106.6997121036775
  0
INSERT
  5
A0A8
330
A002
100
AcDbEntity
  8
SUNPOU
  6
Continuous
 62
     4
370
    -2
100
AcDbBlockReference
  2
_OPEN
 10
582.5183258401788
 20
373.4081549399735
 30
0.0
 41
7.0
 42
7.0
 43
7.0
 50
286.6997121036775
  0
MTEXT
  5
A0A9
330
A002
100
AcDbEntity
  8
SUNPOU
  6
Continuous
 62
     4
100
AcDbMText
 10
584.5775583855569
 20
383.9442873307285
 30
0.0
 40
6.0
 41
0.0
 71
     5
 72
     1
  1
\A1;19
 11
0.2873557070382965
 21
-0.9578239387447574
 31
0.0
 73
     1
 44
1.0
  0
POINT
  5
A0AA
330
A002
100
AcDbEntity
  8
DEFPOINTS
  6
Continuous
 62
     0
100
AcDbPoint
 10
555.2722849849229
 20
385.0707887679758
 30
0.0
  0
POINT
  5
A0AB
330
A002
100
AcDbEntity
  8
DEFPOINTS
  6
Continuous
 62
     0
100
AcDbPoint
 10
560.7320592816141
 20
366.8720810568489
 30
0.0
  0
POINT
  5
A0AC
330
A002
100
AcDbEntity
  8
DEFPOINTS
  6
Continuous
 62
     0
100
AcDbPoint
 10
582.5183258401788
 20
373.4081549399735
 30
0.0
  0
ENDBLK
  5
A00D
330
A002
100
AcDbEntity
  8
0
100
AcDbBlockEnd
  0
ENDSEC
  0
SECTION
  2
ENTITIES
  0
LINE
  5
3EF3
330
1A
100
AcDbEntity
  8
ZUWAKU
100
AcDbLine
 10
208.646601303624
 20
15.19999986828872
 30
0.0
 11
447.4243639845474
 21
15.19999986828871
 31
0.0
  0
LINE
  5
3EF4
330
1A
100
AcDbEntity
  8
ZUWAKU
100
AcDbLine
 10
208.646601303624
 20
15.59999986828872
 30
0.0
 11
447.4243639845474
 21
15.59999986828872
 31
0.0
  0
LINE
  5
3EF5
330
1A
100
AcDbEntity
  8
ZUWAKU
100
AcDbLine
 10
208.646601303624
 20
15.39999986828872
 30
0.0
 11
447.4243639845474
 21
15.39999986828872
 31
0.0
  0
LINE
  5
3EF6
330
1A
100
AcDbEntity
  8
ZUWAKU
100
AcDbLine
 10
0.0000000135560185
 20
30.79999986828869
 30
0.0
 11
797.4000000135559
 21
30.79999986828869
 31
0.0
  0
LINE
  5
3EF7
330
1A
100
AcDbEntity
  8
ZUWAKU
100
AcDbLine
 10
0.0000000135560185
 20
30.59999986828869
 30
0.0
 11
797.4000000135559
 21
30.59999986828869
 31
0.0
  0
LINE
  5
3EF8
330
1A
100
AcDbEntity
  8
ZUWAKU
100
AcDbLine
 10
0.0000000135560185
 20
30.39999986828869
 30
0.0
 11
797.4000000135559
 21
30.39999986828869
 31
0.0
  0
LINE
  5
3EF9
330
1A
100
AcDbEntity
  8
ZUWAKU
100
AcDbLine
 10
0.0000000135560185
 20
30.19999986828869
 30
0.0
 11
797.4000000135559
 21
30.19999986828869
 31
0.0
  0
LINE
  5
3EFA
330
1A
100
AcDbEntity
  8
ZUWAKU
100
AcDbLine
 10
0.0000000135560185
 20
29.99999986828868
 30
0.0
 11
797.4000000135559
 21
29.99999986828868
 31
0.0
  0
LWPOLYLINE
  5
3EFB
330
1A
100
AcDbEntity
  8
ZUWAKU
100
AcDbPolyline
 90
        4
 70
     1
 43
0.0
 10
0.2000000135559503
 20
551.3999998682888
 10
0.2000000135559503
 20
0.1999998682887281
 10
797.4000000135559
 20
0.1999998682887512
 10
797.4000000135561
 20
551.3999998682888
  0
LWPOLYLINE
  5
3EFC
330
1A
100
AcDbEntity
  8
ZUWAKU
100
AcDbPolyline
 90
        4
 70
     1
 43
0.0
 10
0.6000000135559276
 20
550.9999998682888
 10
0.6000000135559276
 20
0.5999998682887053
 10
797.0000000135563
 20
0.5999998682887515
 10
797.000000013556
 20
550.9999998682888
  0
LWPOLYLINE
  5
3EFD
330
1A
100
AcDbEntity
  8
ZUWAKU
100
AcDbPolyline
 90
        4
 70
     1
 43
0.0
 10
0.0000000135560185
 20
551.5999998682887
 10
0.0000000135560185
 20
-0.0000001317113174
 10
797.6000000135562
 20
-0.0000001317112499
 10
797.6000000135562
 20
551.5999998682888
  0
LWPOLYLINE
  5
3EFE
330
1A
100
AcDbEntity
  8
ZUWAKU
100
AcDbPolyline
 90
        4
 70
     1
 43
0.0
 10
0.4000000135559958
 20
551.1999998682887
 10
0.4000000135559958
 20
0.3999998682887735
 10
797.2000000135561
 20
0.3999998682887505
 10
797.2000000135561
 20
551.1999998682887
  0
LWPOLYLINE
  5
3EFF
330
1A
100
AcDbEntity
  8
ZUWAKU
100
AcDbPolyline
 90
        4
 70
     1
 43
0.0
 10
0.8000000135559731
 20
550.7999998682888
 10
0.8000000135559731
 20
0.7999998682887508
 10
796.800000013556
 20
0.7999998682887508
 10
796.800000013556
 20
550.7999998682888
  0
TEXT
  5
3F00
330
1A
100
AcDbEntity
  8
moji
100
AcDbText
 10
92.95778960172515
 20
12.74117799856344
 30
0.0
 40
6.0
  1
アーバントップΣ９０
 41
0.9
  7
ｽﾀｲﾙ1
100
AcDbText
  0
HATCH
  5
3F01
330
1A
100
AcDbEntity
  8
ZUWAKU
100
AcDbHatch
 10
0.0
 20
0.0
 30
0.0
210
0.0
220
0.0
230
1.0
  2
ANSI37
 70
     0
 71
     0
 91
        8
 92
        7
 72
     1
 73
     1
 93
       24
 10
14.50226267467588
 20
17.64484834927227
 42
-0.1989123673796348
 10
14.09221216833714
 20
18.63479784293332
 42
0.0
 10
14.09221216833714
 20
19.92499986828869
 42
-0.4142135623730912
 10
14.61721216833712
 20
20.44999986828869
 42
0.0
 10
17.59221216833703
 20
20.44999986828869
 42
0.4142135623731546
 10
18.11721216833712
 20
20.97499986828868
 42
0.0
 10
18.11721216833712
 20
22.72499986828869
 42
0.4142135623731586
 10
17.59221216833703
 20
23.24999986828869
 42
0.0
 10
14.09221216833714
 20
23.24999986828869
 42
0.4142135623730928
 10
11.29221216833719
 20
20.44999986828871
 42
0.0
 10
11.29221216833719
 20
18.63479784293345
 42
0.1989123673796619
 10
12.52236368735362
 20
15.66494936194984
 42
0.0
 10
15.43216166199829
 20
12.75515138730518
 42
-0.1989123673796613
 10
15.84221216833714
 20
11.76520189364399
 42
0.0
 10
15.84221216833714
 20
10.47499986828868
 42
-0.4142135623730911
 10
15.31721216833716
 20
9.949999868288685
 42
0.0
 10
12.34221216833726
 20
9.949999868288685
 42
0.4142135623731526
 10
11.81721216833716
 20
9.424999868288698
 42
0.0
 10
11.81721216833716
 20
7.674999868288676
 42
0.4142135623731526
 10
12.34221216833726
 20
7.149999868288688
 42
0.0
 10
15.84221216833714
 20
7.149999868288688
 42
0.4142135623731044
 10
18.64221216833721
 20
9.949999868288664
 42
0.0
 10
18.64221216833721
 20
11.76520189364394
 42
0.1989123673796604
 10
17.41206064932067
 20
14.73505037462748
 42
0.0
 97
        0
 92
        7
 72
     1
 73
     1
 93
       16
 10
23.54221216833719
 20
19.04999986828869
 42
-0.4142135623730935
 10
24.94221216833716
 20
20.44999986828869
 42
0.0
 10
26.86721216833712
 20
20.44999986828869
 42
0.4142135623731546
 10
27.39221216833721
 20
20.97499986828868
 42
0.0
 10
27.39221216833721
 20
22.72499986828869
 42
0.4142135623730952
 10
26.86721216833723
 20
23.24999986828869
 42
0.0
 10
24.94221216833705
 20
23.24999986828865
 42
0.4142135623730892
 10
20.74221216833712
 20
19.04999986828862
 42
0.0
 10
20.74221216833712
 20
11.34999986828871
 42
0.4142135623730969
 10
24.94221216833716
 20
7.149999868288688
 42
0.0
 10
26.86721216833712
 20
7.149999868288688
 42
0.4142135623731526
 10
27.39221216833721
 20
7.674999868288676
 42
0.0
 10
27.39221216833721
 20
9.424999868288698
 42
0.414213562373089
 10
26.86721216833723
 20
9.949999868288685
 42
0.0
 10
24.94221216833716
 20
9.949999868288685
 42
-0.4142135623730928
 10
23.54221216833719
 20
11.34999986828867
 42
0.0
 97
        0
 92
        7
 72
     1
 73
     1
 93
        2
 10
24.24221216833712
 20
15.19999986828869
 42
1.0
 10
27.74221216833712
 20
15.19999986828869
 42
1.0
 97
        0
 92
        7
 72
     1
 73
     1
 93
       26
 10
37.31485865051513
 20
19.20504706185211
 42
0.0
 10
38.37649828365295
 20
22.5669059001217
 42
0.5069206636600134
 10
37.87586738445759
 20
23.24999986828869
 42
0.0
 10
36.17697800484837
 20
23.24999986828869
 42
0.3272098845218764
 10
35.67634710565301
 20
22.88309383645566
 42
0.0
 10
33.80807723102123
 20
16.96690590012177
 42
-0.3272098845219541
 10
33.30744633182576
 20
16.59999986828868
 42
0.0
 10
33.1672121683373
 20
16.59999986828868
 42
-0.4142135623731526
 10
32.64221216833721
 20
17.12499986828867
 42
0.0
 10
32.64221216833721
 20
22.72499986828869
 42
0.4142135623730952
 10
32.11721216833723
 20
23.24999986828869
 42
0.0
 10
30.36721216833712
 20
23.24999986828869
 42
0.4142135623730872
 10
29.84221216833714
 20
22.72499986828871
 42
0.0
 10
29.84221216833714
 20
7.674999868288676
 42
0.414213562373089
 10
30.36721216833712
 20
7.149999868288688
 42
0.0
 10
32.11721216833712
 20
7.149999868288688
 42
0.4142135623731526
 10
32.64221216833721
 20
7.674999868288676
 42
0.0
 10
32.64221216833721
 20
13.2749998682887
 42
-0.4142135623731526
 10
33.1672121683373
 20
13.79999986828869
 42
0.0
 10
33.30744633182587
 20
13.79999986828869
 42
-0.3272098845218915
 10
33.80807723102123
 20
13.43309383645561
 42
0.0
 10
35.67634710565301
 20
7.51690590012176
 42
0.3272098845218902
 10
36.17697800484837
 20
7.149999868288688
 42
0.0
 10
37.87586738445759
 20
7.149999868288688
 42
0.5069206636600334
 10
38.37649828365295
 20
7.833093836455696
 42
0.0
 10
36.05010690517929
 20
15.19999986828882
 42
0.0
 97
        0
 92
        7
 72
     1
 73
     1
 93
        8
 10
43.49221216833712
 20
22.7249998682887
 42
0.4142135623731546
 10
42.96721216833703
 20
23.24999986828869
 42
0.0
 10
41.21721216833726
 20
23.24999986828869
 42
0.4142135623731506
 10
40.69221216833716
 20
22.72499986828871
 42
0.0
 10
40.69221216833716
 20
7.674999868288676
 42
0.4142135623731526
 10
41.21721216833726
 20
7.149999868288688
 42
0.0
 10
42.96721216833703
 20
7.149999868288688
 42
0.4142135623731526
 10
43.49221216833712
 20
7.674999868288676
 42
0.0
 97
        0
 92
        7
 72
     1
 73
     1
 93
       24
 10
48.39221216833721
 20
19.92499986828869
 42
-0.4142135623731547
 10
48.9172121683373
 20
20.44999986828869
 42
0.0
 10
51.89221216833721
 20
20.44999986828869
 42
0.4142135623730911
 10
52.41721216833719
 20
20.97499986828868
 42
0.0
 10
52.41721216833719
 20
22.72499986828869
 42
0.4142135623730952
 10
51.89221216833721
 20
23.24999986828869
 42
0.0
 10
48.39221216833721
 20
23.24999986828869
 42
0.4142135623731048
 10
45.59221216833714
 20
20.44999986828871
 42
0.0
 10
45.59221216833714
 20
18.63479784293345
 42
0.1989123673796613
 10
46.82236368735369
 20
15.66494936194989
 42
0.0
 10
49.73216166199836
 20
12.75515138730523
 42
-0.1989123673796402
 10
50.14221216833721
 20
11.76520189364415
 42
0.0
 10
50.14221216833721
 20
10.47499986828868
 42
-0.4142135623730911
 10
49.61721216833723
 20
9.949999868288685
 42
0.0
 10
46.64221216833721
 20
9.949999868288685
 42
0.4142135623731526
 10
46.11721216833712
 20
9.424999868288698
 42
0.0
 10
46.11721216833712
 20
7.674999868288676
 42
0.414213562373089
 10
46.6422121683371
 20
7.149999868288688
 42
0.0
 10
50.14221216833721
 20
7.149999868288688
 42
0.4142135623730925
 10
52.94221216833716
 20
9.949999868288664
 42
0.0
 10
52.94221216833716
 20
11.76520189364394
 42
0.1989123673796675
 10
51.71206064932062
 20
14.73505037462759
 42
0.0
 10
48.80226267467606
 20
17.64484834927211
 42
-0.1989123673796653
 10
48.39221216833721
 20
18.63479784293327
 42
0.0
 97
        0
 92
        7
 72
     1
 73
     1
 93
       16
 10
57.84221216833714
 20
22.72499986828868
 42
0.414213562373103
 10
57.31721216833716
 20
23.24999986828869
 42
0.0
 10
55.56721216833716
 20
23.24999986828869
 42
0.4142135623730872
 10
55.04221216833719
 20
22.72499986828871
 42
0.0
 10
55.04221216833719
 20
9.949999868288664
 42
0.4142135623730925
 10
57.84221216833714
 20
7.149999868288688
 42
0.0
 10
61.34221216833714
 20
7.149999868288688
 42
0.4142135623731044
 10
64.14221216833721
 20
9.949999868288664
 42
0.0
 10
64.14221216833721
 20
22.72499986828869
 42
0.4142135623730952
 10
63.61721216833723
 20
23.24999986828869
 42
0.0
 10
61.86721216833712
 20
23.24999986828869
 42
0.4142135623730872
 10
61.34221216833714
 20
22.72499986828871
 42
0.0
 10
61.34221216833714
 20
10.99999986828866
 42
-0.414213562373088
 10
60.29221216833719
 20
9.949999868288685
 42
0.0
 10
58.89221216833721
 20
9.949999868288685
 42
-0.4142135623731197
 10
57.84221216833714
 20
10.99999986828866
 42
0.0
 97
        0
 92
        7
 72
     1
 73
     1
 93
        8
 10
69.04221216833719
 20
22.72499986828871
 42
0.4142135623730872
 10
68.51721216833721
 20
23.24999986828869
 42
0.0
 10
66.76721216833721
 20
23.24999986828869
 42
0.4142135623731506
 10
66.24221216833712
 20
22.72499986828871
 42
0.0
 10
66.24221216833712
 20
7.674999868288676
 42
0.414213562373089
 10
66.7672121683371
 20
7.149999868288688
 42
0.0
 10
68.51721216833721
 20
7.149999868288688
 42
0.414213562373089
 10
69.04221216833719
 20
7.674999868288676
 42
0.0
 97
        0
 75
     0
 76
     1
 52
0.0
 41
0.2
 77
     0
 78
     2
 53
45.0
 43
-900.942304321123
 44
-13.20000013171125
 45
-0.4490128060534576
 46
0.4490128060534577
 79
     0
 53
135.0
 43
-900.942304321123
 44
-13.20000013171125
 45
-0.4490128060534577
 46
-0.4490128060534576
 79
     0
 47
0.057451373970553
 98
        8
 10
16.07985497657933
 20
15.16717351417424
 10
22.40451501999519
 20
18.84406205073969
 10
25.16436789921568
 20
15.5118815143594
 10
30.91405999519316
 20
16.20129751473019
 10
41.83847203251276
 20
16.6609097822718
 10
46.89820090868557
 20
19.41857618469589
 10
56.55768598595637
 20
18.7291577833837
 10
67.82707963317876
 20
19.18877005092531
  0
LINE
  5
3F02
330
1A
100
AcDbEntity
  8
ZUWAKU
100
AcDbLine
 10
24.94221216833716
 20
23.24999986828865
 30
0.0
 11
26.86721216833712
 21
23.24999986828869
 31
0.0
  0
LINE
  5
3F03
330
1A
100
AcDbEntity
  8
ZUWAKU
100
AcDbLine
 10
26.86721216833712
 20
20.44999986828869
 30
0.0
 11
24.94221216833716
 21
20.44999986828869
 31
0.0
  0
LINE
  5
3F04
330
1A
100
AcDbEntity
  8
ZUWAKU
100
AcDbLine
 10
24.94221216833716
 20
9.949999868288685
 30
0.0
 11
26.86721216833712
 21
9.949999868288685
 31
0.0
  0
LINE
  5
3F05
330
1A
100
AcDbEntity
  8
ZUWAKU
100
AcDbLine
 10
26.86721216833712
 20
7.149999868288688
 30
0.0
 11
24.94221216833716
 21
7.149999868288688
 31
0.0
  0
CIRCLE
  5
3F06
330
1A
100
AcDbEntity
  8
ZUWAKU
100
AcDbCircle
 10
25.99221216833712
 20
15.19999986828869
 30
0.0
 40
1.75
  0
ARC
  5
3F07
330
1A
100
AcDbEntity
  8
ZUWAKU
100
AcDbCircle
 10
15.49221216833712
 20
18.63479784293339
 30
0.0
 40
1.4
100
AcDbArc
 50
180.0000000000016
 51
224.9999999999988
  0
LINE
  5
3F08
330
1A
100
AcDbEntity
  8
ZUWAKU
100
AcDbLine
 10
23.54221216833719
 20
19.04999986828869
 30
0.0
 11
23.54221216833719
 21
11.34999986828869
 31
0.0
  0
LINE
  5
3F09
330
1A
100
AcDbEntity
  8
ZUWAKU
100
AcDbLine
 10
20.74221216833712
 20
11.34999986828869
 30
0.0
 11
20.74221216833712
 21
19.04999986828864
 31
0.0
  0
ARC
  5
3F0A
330
1A
100
AcDbEntity
  8
ZUWAKU
100
AcDbCircle
 10
15.49221216833712
 20
18.63479784293339
 30
0.0
 40
4.199999999999999
100
AcDbArc
 50
180.0
 51
225.0
  0
ARC
  5
3F0B
330
1A
100
AcDbEntity
  8
ZUWAKU
100
AcDbCircle
 10
15.84221216833714
 20
9.949999868288685
 30
0.0
 40
2.8
100
AcDbArc
 50
270.0
 51
0.0
  0
ARC
  5
3F0C
330
1A
100
AcDbEntity
  8
ZUWAKU
100
AcDbCircle
 10
24.94221216833716
 20
11.34999986828869
 30
0.0
 40
4.199999999999999
100
AcDbArc
 50
180.0
 51
270.0
  0
ARC
  5
3F0D
330
1A
100
AcDbEntity
  8
ZUWAKU
100
AcDbCircle
 10
14.44221216833716
 20
11.76520189364399
 30
0.0
 40
4.199999999999999
100
AcDbArc
 50
0.0
 51
45.0
  0
LINE
  5
3F0E
330
1A
100
AcDbEntity
  8
ZUWAKU
100
AcDbLine
 10
17.41206064932067
 20
14.73505037462751
 30
0.0
 11
14.50226267467599
 21
17.64484834927219
 31
0.0
  0
LINE
  5
3F0F
330
1A
100
AcDbEntity
  8
ZUWAKU
100
AcDbLine
 10
15.84221216833714
 20
10.47499986828869
 30
0.0
 11
15.84221216833714
 21
11.76520189364403
 31
0.0
  0
ARC
  5
3F10
330
1A
100
AcDbEntity
  8
ZUWAKU
100
AcDbCircle
 10
15.31721216833716
 20
10.47499986828869
 30
0.0
 40
0.5249999999999999
100
AcDbArc
 50
270.0
 51
0.0
  0
ARC
  5
3F11
330
1A
100
AcDbEntity
  8
ZUWAKU
100
AcDbCircle
 10
14.44221216833716
 20
11.76520189364403
 30
0.0
 40
1.4
100
AcDbArc
 50
0.0
 51
45.0
  0
LINE
  5
3F12
330
1A
100
AcDbEntity
  8
ZUWAKU
100
AcDbLine
 10
11.81721216833716
 20
7.674999868288687
 30
0.0
 11
11.81721216833716
 21
9.424999868288687
 31
0.0
  0
ARC
  5
3F13
330
1A
100
AcDbEntity
  8
ZUWAKU
100
AcDbCircle
 10
12.34221216833714
 20
7.674999868288687
 30
0.0
 40
0.5249999999999999
100
AcDbArc
 50
180.0
 51
270.0
  0
ARC
  5
3F14
330
1A
100
AcDbEntity
  8
ZUWAKU
100
AcDbCircle
 10
12.34221216833714
 20
9.424999868288687
 30
0.0
 40
0.5249999999999999
100
AcDbArc
 50
90.0
 51
180.0
  0
LINE
  5
3F15
330
1A
100
AcDbEntity
  8
ZUWAKU
100
AcDbLine
 10
12.34221216833714
 20
7.149999868288688
 30
0.0
 11
15.84221216833714
 21
7.149999868288688
 31
0.0
  0
LINE
  5
3F16
330
1A
100
AcDbEntity
  8
ZUWAKU
100
AcDbLine
 10
12.34221216833714
 20
9.949999868288685
 30
0.0
 11
15.31721216833716
 21
9.949999868288685
 31
0.0
  0
LINE
  5
3F17
330
1A
100
AcDbEntity
  8
ZUWAKU
100
AcDbLine
 10
12.52236368735362
 20
15.66494936194987
 30
0.0
 11
15.43216166199829
 21
12.7551513873052
 31
0.0
  0
LINE
  5
3F18
330
1A
100
AcDbEntity
  8
ZUWAKU
100
AcDbLine
 10
18.64221216833721
 20
9.949999868288685
 30
0.0
 11
18.64221216833721
 21
11.76520189364403
 31
0.0
  0
ARC
  5
3F19
330
1A
100
AcDbEntity
  8
ZUWAKU
100
AcDbCircle
 10
24.94221216833716
 20
11.34999986828869
 30
0.0
 40
1.4
100
AcDbArc
 50
180.0
 51
270.0
  0
ARC
  5
3F1A
330
1A
100
AcDbEntity
  8
ZUWAKU
100
AcDbCircle
 10
17.59221216833714
 20
22.72499986828868
 30
0.0
 40
0.5249999999999999
100
AcDbArc
 50
0.0
 51
90.0
  0
ARC
  5
3F1B
330
1A
100
AcDbEntity
  8
ZUWAKU
100
AcDbCircle
 10
17.59221216833714
 20
20.97499986828868
 30
0.0
 40
0.5249999999999999
100
AcDbArc
 50
270.0
 51
0.0
  0
LINE
  5
3F1C
330
1A
100
AcDbEntity
  8
ZUWAKU
100
AcDbLine
 10
14.09221216833714
 20
23.24999986828869
 30
0.0
 11
17.59221216833714
 21
23.24999986828869
 31
0.0
  0
ARC
  5
3F1D
330
1A
100
AcDbEntity
  8
ZUWAKU
100
AcDbCircle
 10
14.61721216833712
 20
19.92499986828869
 30
0.0
 40
0.5249999999999999
100
AcDbArc
 50
90.0
 51
180.0
  0
LINE
  5
3F1E
330
1A
100
AcDbEntity
  8
ZUWAKU
100
AcDbLine
 10
14.09221216833714
 20
19.92499986828869
 30
0.0
 11
14.09221216833714
 21
18.63479784293335
 31
0.0
  0
LINE
  5
3F1F
330
1A
100
AcDbEntity
  8
ZUWAKU
100
AcDbLine
 10
17.59221216833714
 20
20.44999986828869
 30
0.0
 11
14.61721216833712
 21
20.44999986828869
 31
0.0
  0
LINE
  5
3F20
330
1A
100
AcDbEntity
  8
ZUWAKU
100
AcDbLine
 10
11.29221216833719
 20
20.44999986828869
 30
0.0
 11
11.29221216833719
 21
18.63479784293335
 31
0.0
  0
ARC
  5
3F21
330
1A
100
AcDbEntity
  8
ZUWAKU
100
AcDbCircle
 10
14.09221216833714
 20
20.44999986828869
 30
0.0
 40
2.8
100
AcDbArc
 50
90.0
 51
180.0
  0
LINE
  5
3F22
330
1A
100
AcDbEntity
  8
ZUWAKU
100
AcDbLine
 10
18.11721216833712
 20
22.72499986828868
 30
0.0
 11
18.11721216833712
 21
20.97499986828868
 31
0.0
  0
ARC
  5
3F23
330
1A
100
AcDbEntity
  8
ZUWAKU
100
AcDbCircle
 10
24.94221216833716
 20
19.04999986828869
 30
0.0
 40
1.4
100
AcDbArc
 50
90.0
 51
180.0
  0
ARC
  5
3F24
330
1A
100
AcDbEntity
  8
ZUWAKU
100
AcDbCircle
 10
24.94221216833716
 20
19.04999986828864
 30
0.0
 40
4.199999999999999
100
AcDbArc
 50
90.0
 51
180.0
  0
LINE
  5
3F25
330
1A
100
AcDbEntity
  8
ZUWAKU
100
AcDbLine
 10
79.32662956154422
 20
29.99999986828868
 30
0.0
 11
79.32662956154445
 21
0.7999998682887508
 31
0.0
  0
LINE
  5
3F26
330
1A
100
AcDbEntity
  8
ZUWAKU
100
AcDbLine
 10
79.52662956154427
 20
29.99999986828868
 30
0.0
 11
79.5266295615445
 21
0.7999998682887508
 31
0.0
  0
LINE
  5
3F27
330
1A
100
AcDbEntity
  8
ZUWAKU
100
AcDbLine
 10
79.12662956154441
 20
29.99999986828868
 30
0.0
 11
79.12662956154441
 21
0.7999998682887508
 31
0.0
  0
LINE
  5
3F28
330
1A
100
AcDbEntity
  8
ZUWAKU
100
AcDbLine
 10
64.14221216833721
 20
9.949999868288685
 30
0.0
 11
64.14221216833721
 21
22.72499986828868
 31
0.0
  0
LINE
  5
3F29
330
1A
100
AcDbEntity
  8
ZUWAKU
100
AcDbLine
 10
61.34221216833714
 20
22.72499986828868
 30
0.0
 11
61.34221216833714
 21
10.99999986828868
 31
0.0
  0
LINE
  5
3F2A
330
1A
100
AcDbEntity
  8
ZUWAKU
100
AcDbLine
 10
69.04221216833719
 20
7.674999868288687
 30
0.0
 11
69.04221216833719
 21
22.72499986828868
 31
0.0
  0
LINE
  5
3F2B
330
1A
100
AcDbEntity
  8
ZUWAKU
100
AcDbLine
 10
66.24221216833712
 20
22.72499986828868
 30
0.0
 11
66.24221216833712
 21
7.674999868288687
 31
0.0
  0
ARC
  5
3F2C
330
1A
100
AcDbEntity
  8
ZUWAKU
100
AcDbCircle
 10
49.79221216833719
 20
18.63479784293339
 30
0.0
 40
1.4
100
AcDbArc
 50
180.0000000000016
 51
224.9999999999988
  0
ARC
  5
3F2D
330
1A
100
AcDbEntity
  8
ZUWAKU
100
AcDbCircle
 10
49.79221216833719
 20
18.63479784293339
 30
0.0
 40
4.199999999999999
100
AcDbArc
 50
180.0
 51
225.0
  0
LINE
  5
3F2E
330
1A
100
AcDbEntity
  8
ZUWAKU
100
AcDbLine
 10
37.31485865051513
 20
19.20504706185211
 30
0.0
 11
36.05010690517929
 21
15.19999986828871
 31
0.0
  0
LINE
  5
3F2F
330
1A
100
AcDbEntity
  8
ZUWAKU
100
AcDbLine
 10
40.69221216833716
 20
22.72499986828868
 30
0.0
 11
40.69221216833716
 21
7.674999868288687
 31
0.0
  0
LINE
  5
3F30
330
1A
100
AcDbEntity
  8
ZUWAKU
100
AcDbLine
 10
43.49221216833712
 20
7.674999868288687
 30
0.0
 11
43.49221216833712
 21
22.72499986828868
 31
0.0
  0
LINE
  5
3F31
330
1A
100
AcDbEntity
  8
ZUWAKU
100
AcDbLine
 10
55.04221216833719
 20
22.72499986828868
 30
0.0
 11
55.04221216833719
 21
9.949999868288685
 31
0.0
  0
LINE
  5
3F32
330
1A
100
AcDbEntity
  8
ZUWAKU
100
AcDbLine
 10
57.84221216833714
 20
10.99999986828868
 30
0.0
 11
57.84221216833714
 21
22.72499986828868
 31
0.0
  0
LINE
  5
3F33
330
1A
100
AcDbEntity
  8
ZUWAKU
100
AcDbLine
 10
32.64221216833721
 20
17.12499986828869
 30
0.0
 11
32.64221216833721
 21
22.72499986828868
 31
0.0
  0
LINE
  5
3F34
330
1A
100
AcDbEntity
  8
ZUWAKU
100
AcDbLine
 10
29.84221216833714
 20
22.72499986828868
 30
0.0
 11
29.84221216833714
 21
7.674999868288687
 31
0.0
  0
LINE
  5
3F35
330
1A
100
AcDbEntity
  8
ZUWAKU
100
AcDbLine
 10
35.67634710565301
 20
22.88309383645566
 30
0.0
 11
33.80807723102123
 21
16.96690590012172
 31
0.0
  0
LINE
  5
3F36
330
1A
100
AcDbEntity
  8
ZUWAKU
100
AcDbLine
 10
60.29221216833719
 20
9.949999868288685
 30
0.0
 11
58.89221216833721
 21
9.949999868288685
 31
0.0
  0
LINE
  5
3F37
330
1A
100
AcDbEntity
  8
ZUWAKU
100
AcDbLine
 10
57.84221216833714
 20
7.149999868288688
 30
0.0
 11
61.34221216833714
 21
7.149999868288688
 31
0.0
  0
LINE
  5
3F38
330
1A
100
AcDbEntity
  8
ZUWAKU
100
AcDbLine
 10
41.21721216833714
 20
7.149999868288688
 30
0.0
 11
42.96721216833714
 21
7.149999868288688
 31
0.0
  0
LINE
  5
3F39
330
1A
100
AcDbEntity
  8
ZUWAKU
100
AcDbLine
 10
35.67634710565301
 20
7.516905900121714
 30
0.0
 11
33.80807723102123
 21
13.43309383645565
 31
0.0
  0
ARC
  5
3F3A
330
1A
100
AcDbEntity
  8
ZUWAKU
100
AcDbCircle
 10
33.30744633182587
 20
17.12499986828869
 30
0.0
 40
0.5249999999999999
100
AcDbArc
 50
270.0
 51
342.474431626277
  0
LINE
  5
3F3B
330
1A
100
AcDbEntity
  8
ZUWAKU
100
AcDbLine
 10
33.30744633182587
 20
16.59999986828868
 30
0.0
 11
33.16721216833719
 21
16.59999986828868
 31
0.0
  0
LINE
  5
3F3C
330
1A
100
AcDbEntity
  8
ZUWAKU
100
AcDbLine
 10
33.16721216833719
 20
13.79999986828869
 30
0.0
 11
33.30744633182587
 21
13.79999986828869
 31
0.0
  0
ARC
  5
3F3D
330
1A
100
AcDbEntity
  8
ZUWAKU
100
AcDbCircle
 10
33.16721216833719
 20
17.12499986828869
 30
0.0
 40
0.5249999999999999
100
AcDbArc
 50
180.0
 51
270.0
  0
LINE
  5
3F3E
330
1A
100
AcDbEntity
  8
ZUWAKU
100
AcDbLine
 10
30.36721216833712
 20
7.149999868288688
 30
0.0
 11
32.11721216833712
 21
7.149999868288688
 31
0.0
  0
ARC
  5
3F3F
330
1A
100
AcDbEntity
  8
ZUWAKU
100
AcDbCircle
 10
32.11721216833712
 20
7.674999868288687
 30
0.0
 40
0.5249999999999999
100
AcDbArc
 50
270.0
 51
0.0
  0
LINE
  5
3F40
330
1A
100
AcDbEntity
  8
ZUWAKU
100
AcDbLine
 10
32.64221216833721
 20
7.674999868288687
 30
0.0
 11
32.64221216833721
 21
13.27499986828869
 31
0.0
  0
LINE
  5
3F41
330
1A
100
AcDbEntity
  8
ZUWAKU
100
AcDbLine
 10
27.39221216833721
 20
9.424999868288687
 30
0.0
 11
27.39221216833721
 21
7.674999868288687
 31
0.0
  0
ARC
  5
3F42
330
1A
100
AcDbEntity
  8
ZUWAKU
100
AcDbCircle
 10
26.86721216833712
 20
7.674999868288687
 30
0.0
 40
0.5249999999999999
100
AcDbArc
 50
270.0
 51
0.0
  0
ARC
  5
3F43
330
1A
100
AcDbEntity
  8
ZUWAKU
100
AcDbCircle
 10
26.86721216833712
 20
9.424999868288687
 30
0.0
 40
0.5249999999999999
100
AcDbArc
 50
0.0
 51
90.0
  0
ARC
  5
3F44
330
1A
100
AcDbEntity
  8
ZUWAKU
100
AcDbCircle
 10
30.36721216833712
 20
7.674999868288687
 30
0.0
 40
0.5249999999999999
100
AcDbArc
 50
180.0
 51
270.0
  0
ARC
  5
3F45
330
1A
100
AcDbEntity
  8
ZUWAKU
100
AcDbCircle
 10
33.30744633182587
 20
13.27499986828869
 30
0.0
 40
0.5249999999999999
100
AcDbArc
 50
17.52556837372303
 51
90.0
  0
ARC
  5
3F46
330
1A
100
AcDbEntity
  8
ZUWAKU
100
AcDbCircle
 10
33.16721216833719
 20
13.27499986828869
 30
0.0
 40
0.5249999999999999
100
AcDbArc
 50
90.0
 51
180.0
  0
ARC
  5
3F47
330
1A
100
AcDbEntity
  8
ZUWAKU
100
AcDbCircle
 10
41.21721216833714
 20
7.674999868288687
 30
0.0
 40
0.5249999999999999
100
AcDbArc
 50
180.0
 51
270.0
  0
LINE
  5
3F48
330
1A
100
AcDbEntity
  8
ZUWAKU
100
AcDbLine
 10
36.17697800484848
 20
7.149999868288688
 30
0.0
 11
37.87586738445748
 21
7.149999868288688
 31
0.0
  0
ARC
  5
3F49
330
1A
100
AcDbEntity
  8
ZUWAKU
100
AcDbCircle
 10
37.87586738445748
 20
7.674999868288687
 30
0.0
 40
0.5249999999999999
100
AcDbArc
 50
270.0
 51
17.52556837372303
  0
LINE
  5
3F4A
330
1A
100
AcDbEntity
  8
ZUWAKU
100
AcDbLine
 10
38.37649828365295
 20
7.83309383645566
 30
0.0
 11
36.05010690517929
 21
15.19999986828871
 31
0.0
  0
ARC
  5
3F4B
330
1A
100
AcDbEntity
  8
ZUWAKU
100
AcDbCircle
 10
36.17697800484848
 20
7.674999868288687
 30
0.0
 40
0.5249999999999999
100
AcDbArc
 50
197.525568373723
 51
270.0
  0
ARC
  5
3F4C
330
1A
100
AcDbEntity
  8
ZUWAKU
100
AcDbCircle
 10
57.84221216833714
 20
9.949999868288685
 30
0.0
 40
2.8
100
AcDbArc
 50
180.0
 51
270.0
  0
ARC
  5
3F4D
330
1A
100
AcDbEntity
  8
ZUWAKU
100
AcDbCircle
 10
50.14221216833721
 20
9.949999868288685
 30
0.0
 40
2.8
100
AcDbArc
 50
270.0
 51
0.0
  0
LINE
  5
3F4E
330
1A
100
AcDbEntity
  8
ZUWAKU
100
AcDbLine
 10
51.71206064932073
 20
14.73505037462751
 30
0.0
 11
48.80226267467594
 21
17.64484834927219
 31
0.0
  0
LINE
  5
3F4F
330
1A
100
AcDbEntity
  8
ZUWAKU
100
AcDbLine
 10
50.14221216833721
 20
10.47499986828869
 30
0.0
 11
50.14221216833721
 21
11.76520189364403
 31
0.0
  0
ARC
  5
3F50
330
1A
100
AcDbEntity
  8
ZUWAKU
100
AcDbCircle
 10
48.74221216833712
 20
11.76520189364403
 30
0.0
 40
1.4
100
AcDbArc
 50
0.0
 51
45.0
  0
ARC
  5
3F51
330
1A
100
AcDbEntity
  8
ZUWAKU
100
AcDbCircle
 10
49.61721216833712
 20
10.47499986828869
 30
0.0
 40
0.5249999999999999
100
AcDbArc
 50
270.0
 51
0.0
  0
LINE
  5
3F52
330
1A
100
AcDbEntity
  8
ZUWAKU
100
AcDbLine
 10
46.11721216833712
 20
7.674999868288687
 30
0.0
 11
46.11721216833712
 21
9.424999868288687
 31
0.0
  0
ARC
  5
3F53
330
1A
100
AcDbEntity
  8
ZUWAKU
100
AcDbCircle
 10
46.64221216833721
 20
7.674999868288687
 30
0.0
 40
0.5249999999999999
100
AcDbArc
 50
180.0
 51
270.0
  0
ARC
  5
3F54
330
1A
100
AcDbEntity
  8
ZUWAKU
100
AcDbCircle
 10
42.96721216833714
 20
7.674999868288687
 30
0.0
 40
0.5249999999999999
100
AcDbArc
 50
270.0
 51
0.0
  0
ARC
  5
3F55
330
1A
100
AcDbEntity
  8
ZUWAKU
100
AcDbCircle
 10
46.64221216833721
 20
9.424999868288687
 30
0.0
 40
0.5249999999999999
100
AcDbArc
 50
90.0
 51
180.0
  0
LINE
  5
3F56
330
1A
100
AcDbEntity
  8
ZUWAKU
100
AcDbLine
 10
46.64221216833721
 20
9.949999868288685
 30
0.0
 11
49.61721216833712
 21
9.949999868288685
 31
0.0
  0
LINE
  5
3F57
330
1A
100
AcDbEntity
  8
ZUWAKU
100
AcDbLine
 10
46.64221216833721
 20
7.149999868288688
 30
0.0
 11
50.14221216833721
 21
7.149999868288688
 31
0.0
  0
LINE
  5
3F58
330
1A
100
AcDbEntity
  8
ZUWAKU
100
AcDbLine
 10
46.82236368735369
 20
15.66494936194987
 30
0.0
 11
49.73216166199836
 21
12.7551513873052
 31
0.0
  0
LINE
  5
3F59
330
1A
100
AcDbEntity
  8
ZUWAKU
100
AcDbLine
 10
52.94221216833716
 20
9.949999868288685
 30
0.0
 11
52.94221216833716
 21
11.76520189364403
 31
0.0
  0
ARC
  5
3F5A
330
1A
100
AcDbEntity
  8
ZUWAKU
100
AcDbCircle
 10
48.74221216833712
 20
11.76520189364399
 30
0.0
 40
4.199999999999999
100
AcDbArc
 50
0.0
 51
45.0
  0
ARC
  5
3F5B
330
1A
100
AcDbEntity
  8
ZUWAKU
100
AcDbCircle
 10
58.89221216833721
 20
10.99999986828868
 30
0.0
 40
1.05
100
AcDbArc
 50
180.0
 51
270.0
  0
ARC
  5
3F5C
330
1A
100
AcDbEntity
  8
ZUWAKU
100
AcDbCircle
 10
61.34221216833714
 20
9.949999868288685
 30
0.0
 40
2.8
100
AcDbArc
 50
270.0
 51
0.0
  0
LINE
  5
3F5D
330
1A
100
AcDbEntity
  8
ZUWAKU
100
AcDbLine
 10
66.76721216833721
 20
7.149999868288688
 30
0.0
 11
68.51721216833721
 21
7.149999868288688
 31
0.0
  0
ARC
  5
3F5E
330
1A
100
AcDbEntity
  8
ZUWAKU
100
AcDbCircle
 10
66.76721216833721
 20
7.674999868288687
 30
0.0
 40
0.5249999999999999
100
AcDbArc
 50
180.0
 51
270.0
  0
ARC
  5
3F5F
330
1A
100
AcDbEntity
  8
ZUWAKU
100
AcDbCircle
 10
60.29221216833719
 20
10.99999986828868
 30
0.0
 40
1.05
100
AcDbArc
 50
270.0
 51
0.0
  0
ARC
  5
3F60
330
1A
100
AcDbEntity
  8
ZUWAKU
100
AcDbCircle
 10
68.51721216833721
 20
7.674999868288687
 30
0.0
 40
0.5249999999999999
100
AcDbArc
 50
270.0
 51
0.0
  0
LINE
  5
3F61
330
1A
100
AcDbEntity
  8
ZUWAKU
100
AcDbLine
 10
42.96721216833714
 20
23.24999986828869
 30
0.0
 11
41.21721216833714
 21
23.24999986828869
 31
0.0
  0
ARC
  5
3F62
330
1A
100
AcDbEntity
  8
ZUWAKU
100
AcDbCircle
 10
32.11721216833712
 20
22.72499986828868
 30
0.0
 40
0.5249999999999999
100
AcDbArc
 50
0.0
 51
90.0
  0
LINE
  5
3F63
330
1A
100
AcDbEntity
  8
ZUWAKU
100
AcDbLine
 10
32.11721216833712
 20
23.24999986828869
 30
0.0
 11
30.36721216833712
 21
23.24999986828869
 31
0.0
  0
ARC
  5
3F64
330
1A
100
AcDbEntity
  8
ZUWAKU
100
AcDbCircle
 10
26.86721216833712
 20
22.72499986828868
 30
0.0
 40
0.5249999999999999
100
AcDbArc
 50
0.0
 51
90.0
  0
ARC
  5
3F65
330
1A
100
AcDbEntity
  8
ZUWAKU
100
AcDbCircle
 10
30.36721216833712
 20
22.72499986828868
 30
0.0
 40
0.5249999999999999
100
AcDbArc
 50
90.0
 51
180.0
  0
ARC
  5
3F66
330
1A
100
AcDbEntity
  8
ZUWAKU
100
AcDbCircle
 10
26.86721216833712
 20
20.97499986828868
 30
0.0
 40
0.5249999999999999
100
AcDbArc
 50
270.0
 51
0.0
  0
LINE
  5
3F67
330
1A
100
AcDbEntity
  8
ZUWAKU
100
AcDbLine
 10
27.39221216833721
 20
22.72499986828868
 30
0.0
 11
27.39221216833721
 21
20.97499986828868
 31
0.0
  0
ARC
  5
3F68
330
1A
100
AcDbEntity
  8
ZUWAKU
100
AcDbCircle
 10
41.21721216833714
 20
22.72499986828868
 30
0.0
 40
0.5249999999999999
100
AcDbArc
 50
90.0
 51
180.0
  0
LINE
  5
3F69
330
1A
100
AcDbEntity
  8
ZUWAKU
100
AcDbLine
 10
36.17697800484848
 20
23.24999986828869
 30
0.0
 11
37.87586738445748
 21
23.24999986828869
 31
0.0
  0
ARC
  5
3F6A
330
1A
100
AcDbEntity
  8
ZUWAKU
100
AcDbCircle
 10
37.87586738445748
 20
22.72499986828868
 30
0.0
 40
0.5249999999999999
100
AcDbArc
 50
342.474431626277
 51
90.0
  0
LINE
  5
3F6B
330
1A
100
AcDbEntity
  8
ZUWAKU
100
AcDbLine
 10
38.37649828365295
 20
22.56690590012172
 30
0.0
 11
37.31485865051513
 21
19.20504706185211
 31
0.0
  0
ARC
  5
3F6C
330
1A
100
AcDbEntity
  8
ZUWAKU
100
AcDbCircle
 10
36.17697800484848
 20
22.72499986828868
 30
0.0
 40
0.5249999999999999
100
AcDbArc
 50
90.0
 51
162.474431626277
  0
LINE
  5
3F6D
330
1A
100
AcDbEntity
  8
ZUWAKU
100
AcDbLine
 10
48.39221216833721
 20
23.24999986828869
 30
0.0
 11
51.89221216833721
 21
23.24999986828869
 31
0.0
  0
LINE
  5
3F6E
330
1A
100
AcDbEntity
  8
ZUWAKU
100
AcDbLine
 10
51.89221216833721
 20
20.44999986828869
 30
0.0
 11
48.91721216833719
 21
20.44999986828869
 31
0.0
  0
ARC
  5
3F6F
330
1A
100
AcDbEntity
  8
ZUWAKU
100
AcDbCircle
 10
48.91721216833719
 20
19.92499986828869
 30
0.0
 40
0.5249999999999999
100
AcDbArc
 50
90.0
 51
180.0
  0
LINE
  5
3F70
330
1A
100
AcDbEntity
  8
ZUWAKU
100
AcDbLine
 10
48.39221216833721
 20
19.92499986828869
 30
0.0
 11
48.39221216833721
 21
18.63479784293335
 31
0.0
  0
ARC
  5
3F71
330
1A
100
AcDbEntity
  8
ZUWAKU
100
AcDbCircle
 10
42.96721216833714
 20
22.72499986828868
 30
0.0
 40
0.5249999999999999
100
AcDbArc
 50
0.0
 51
90.0
  0
LINE
  5
3F72
330
1A
100
AcDbEntity
  8
ZUWAKU
100
AcDbLine
 10
45.59221216833714
 20
20.44999986828869
 30
0.0
 11
45.59221216833714
 21
18.63479784293335
 31
0.0
  0
ARC
  5
3F73
330
1A
100
AcDbEntity
  8
ZUWAKU
100
AcDbCircle
 10
48.39221216833721
 20
20.44999986828869
 30
0.0
 40
2.8
100
AcDbArc
 50
90.0
 51
180.0
  0
ARC
  5
3F74
330
1A
100
AcDbEntity
  8
ZUWAKU
100
AcDbCircle
 10
57.31721216833716
 20
22.72499986828868
 30
0.0
 40
0.5249999999999999
100
AcDbArc
 50
0.0
 51
90.0
  0
ARC
  5
3F75
330
1A
100
AcDbEntity
  8
ZUWAKU
100
AcDbCircle
 10
55.56721216833716
 20
22.72499986828868
 30
0.0
 40
0.5249999999999999
100
AcDbArc
 50
90.0
 51
180.0
  0
LINE
  5
3F76
330
1A
100
AcDbEntity
  8
ZUWAKU
100
AcDbLine
 10
57.31721216833716
 20
23.24999986828869
 30
0.0
 11
55.56721216833716
 21
23.24999986828869
 31
0.0
  0
ARC
  5
3F77
330
1A
100
AcDbEntity
  8
ZUWAKU
100
AcDbCircle
 10
51.89221216833721
 20
22.72499986828868
 30
0.0
 40
0.5249999999999999
100
AcDbArc
 50
0.0
 51
90.0
  0
ARC
  5
3F78
330
1A
100
AcDbEntity
  8
ZUWAKU
100
AcDbCircle
 10
51.89221216833721
 20
20.97499986828868
 30
0.0
 40
0.5249999999999999
100
AcDbArc
 50
270.0
 51
0.0
  0
LINE
  5
3F79
330
1A
100
AcDbEntity
  8
ZUWAKU
100
AcDbLine
 10
52.41721216833719
 20
22.72499986828868
 30
0.0
 11
52.41721216833719
 21
20.97499986828868
 31
0.0
  0
LINE
  5
3F7A
330
1A
100
AcDbEntity
  8
ZUWAKU
100
AcDbLine
 10
68.51721216833721
 20
23.24999986828869
 30
0.0
 11
66.76721216833721
 21
23.24999986828869
 31
0.0
  0
ARC
  5
3F7B
330
1A
100
AcDbEntity
  8
ZUWAKU
100
AcDbCircle
 10
66.76721216833721
 20
22.72499986828868
 30
0.0
 40
0.5249999999999999
100
AcDbArc
 50
90.0
 51
180.0
  0
ARC
  5
3F7C
330
1A
100
AcDbEntity
  8
ZUWAKU
100
AcDbCircle
 10
63.61721216833712
 20
22.72499986828868
 30
0.0
 40
0.5249999999999999
100
AcDbArc
 50
0.0
 51
90.0
  0
LINE
  5
3F7D
330
1A
100
AcDbEntity
  8
ZUWAKU
100
AcDbLine
 10
63.61721216833712
 20
23.24999986828869
 30
0.0
 11
61.86721216833712
 21
23.24999986828869
 31
0.0
  0
ARC
  5
3F7E
330
1A
100
AcDbEntity
  8
ZUWAKU
100
AcDbCircle
 10
61.86721216833712
 20
22.72499986828868
 30
0.0
 40
0.5249999999999999
100
AcDbArc
 50
90.0
 51
180.0
  0
ARC
  5
3F7F
330
1A
100
AcDbEntity
  8
ZUWAKU
100
AcDbCircle
 10
68.51721216833721
 20
22.72499986828868
 30
0.0
 40
0.5249999999999999
100
AcDbArc
 50
0.0
 51
90.0
  0
TEXT
  5
3F80
330
1A
100
AcDbEntity
  8
moji
100
AcDbText
 10
239.8272026944071
 20
18.00492092569607
 30
0.0
 40
5.6
  1
ステンレス金具上打Ⅱ型
 41
0.9
  7
ｽﾀｲﾙ1
100
AcDbText
  0
TEXT
  5
3F81
330
1A
100
AcDbEntity
  8
moji
100
AcDbText
 10
239.8272026944071
 20
3.204920925696104
 30
0.0
 40
5.6
  1
Σ９０－Ⅱ－３.０
 41
0.9
  7
ｽﾀｲﾙ1
100
AcDbText
  0
LINE
  5
3F82
330
1A
100
AcDbEntity
  8
ZUWAKU
100
AcDbLine
 10
208.246601303624
 20
29.99999986828868
 30
0.0
 11
208.246601303624
 21
0.7999998682887508
 31
0.0
  0
LINE
  5
3F83
330
1A
100
AcDbEntity
  8
ZUWAKU
100
AcDbLine
 10
208.6466013036238
 20
29.99999986828868
 30
0.0
 11
208.646601303624
 21
0.7999998682887508
 31
0.0
  0
LINE
  5
3F84
330
1A
100
AcDbEntity
  8
ZUWAKU
100
AcDbLine
 10
208.4466013036238
 20
29.99999986828868
 30
0.0
 11
208.446601303624
 21
0.7999998682887508
 31
0.0
  0
TEXT
  5
3F85
330
1A
100
AcDbEntity
  8
ZUWAKU
100
AcDbText
 10
209.7240463258336
 20
9.655356406674301
 30
0.0
 40
4.0
  1
サイズ
 41
0.9
  7
ｽﾀｲﾙ1
100
AcDbText
  0
TEXT
  5
3F86
330
1A
100
AcDbEntity
  8
ZUWAKU
100
AcDbText
 10
209.7240463258333
 20
24.05535640667426
 30
0.0
 40
4.0
  1
品名
 41
0.9
  7
ｽﾀｲﾙ1
100
AcDbText
  0
LINE
  5
3F87
330
1A
100
AcDbEntity
  8
ZUWAKU
100
AcDbLine
 10
648.8172025237602
 20
15.19999986828871
 30
0.0
 11
697.2490105620973
 21
15.19999986828872
 31
0.0
  0
LINE
  5
3F88
330
1A
100
AcDbEntity
  8
ZUWAKU
100
AcDbLine
 10
648.8172025237604
 20
15.39999986828872
 30
0.0
 11
697.2490105620973
 21
15.39999986828872
 31
0.0
  0
LINE
  5
3F89
330
1A
100
AcDbEntity
  8
ZUWAKU
100
AcDbLine
 10
648.8172025237602
 20
15.59999986828872
 30
0.0
 11
697.2490105620973
 21
15.59999986828872
 31
0.0
  0
TEXT
  5
3F8A
330
1A
100
AcDbEntity
  8
ZUWAKU
100
AcDbText
 10
658.2039377008584
 20
18.00492092569607
 30
0.0
 40
5.6
  1
　　．　　．　　
 41
0.9
  7
ｽﾀｲﾙ1
100
AcDbText
  0
LINE
  5
3F8B
330
1A
100
AcDbEntity
  8
ZUWAKU
100
AcDbLine
 10
505.1991795116969
 20
15.19999986828872
 30
0.0
 11
552.5269557796685
 21
15.19999986828872
 31
0.0
  0
LINE
  5
3F8C
330
1A
100
AcDbEntity
  8
ZUWAKU
100
AcDbLine
 10
505.1991795116969
 20
15.39999986828872
 30
0.0
 11
552.5269557796685
 21
15.39999986828872
 31
0.0
  0
LINE
  5
3F8D
330
1A
100
AcDbEntity
  8
ZUWAKU
100
AcDbLine
 10
505.1991795116969
 20
15.59999986828872
 30
0.0
 11
552.5269557796685
 21
15.59999986828872
 31
0.0
  0
TEXT
  5
3F8E
330
1A
100
AcDbEntity
  8
moji
100
AcDbText
 10
463.2464320045581
 20
11.94261758994867
 30
0.0
 40
5.6
  1
ＬＧ４１□
 41
0.9
  7
ｽﾀｲﾙ1
100
AcDbText
  0
LINE
  5
3F8F
330
1A
100
AcDbEntity
  8
ZUWAKU
100
AcDbLine
 10
447.6243639845472
 20
29.99999986828868
 30
0.0
 11
447.6243639845475
 21
0.7999998682887508
 31
0.0
  0
LINE
  5
3F90
330
1A
100
AcDbEntity
  8
ZUWAKU
100
AcDbLine
 10
447.8243639845473
 20
29.99999986828868
 30
0.0
 11
447.8243639845475
 21
0.7999998682887508
 31
0.0
  0
LINE
  5
3F91
330
1A
100
AcDbEntity
  8
ZUWAKU
100
AcDbLine
 10
447.4243639845474
 20
29.99999986828868
 30
0.0
 11
447.4243639845474
 21
0.7999998682887508
 31
0.0
  0
TEXT
  5
3F92
330
1A
100
AcDbEntity
  8
moji
100
AcDbText
 10
528.0409079858689
 20
18.00492092569607
 30
0.0
 40
5.6
  1
Ａ３
 41
0.9
  7
ｽﾀｲﾙ1
100
AcDbText
  0
LINE
  5
3F93
330
1A
100
AcDbEntity
  8
ZUWAKU
100
AcDbLine
 10
504.9991795116969
 20
29.99999986828868
 30
0.0
 11
504.9991795116971
 21
0.7999998682887508
 31
0.0
  0
LINE
  5
3F94
330
1A
100
AcDbEntity
  8
ZUWAKU
100
AcDbLine
 10
505.1991795116969
 20
29.99999986828868
 30
0.0
 11
505.1991795116971
 21
0.7999998682887508
 31
0.0
  0
LINE
  5
3F95
330
1A
100
AcDbEntity
  8
ZUWAKU
100
AcDbLine
 10
504.7991795116971
 20
29.99999986828868
 30
0.0
 11
504.7991795116971
 21
0.7999998682887508
 31
0.0
  0
TEXT
  5
3F97
330
1A
100
AcDbEntity
  8
ZUWAKU
100
AcDbText
 10
506.6766245339068
 20
9.655356406674301
 30
0.0
 40
4.0
  1
縮尺
 41
0.9
  7
ｽﾀｲﾙ1
100
AcDbText
  0
TEXT
  5
3F98
330
1A
100
AcDbEntity
  8
moji
100
AcDbText
 10
528.0409079858689
 20
3.204920925696104
 30
0.0
 40
5.6
  1
１/２
 41
0.9
  7
ｽﾀｲﾙ1
100
AcDbText
  0
TEXT
  5
3F99
330
1A
100
AcDbEntity
  8
ZUWAKU
100
AcDbText
 10
449.3018090067569
 20
24.05535640667426
 30
0.0
 40
4.0
  1
品番
 41
0.9
  7
ｽﾀｲﾙ1
100
AcDbText
  0
TEXT
  5
3F9A
330
1A
100
AcDbEntity
  8
ZUWAKU
100
AcDbText
 10
506.6766245339065
 20
24.05535640667426
 30
0.0
 40
4.0
  1
用紙
 41
0.9
  7
ｽﾀｲﾙ1
100
AcDbText
  0
LINE
  5
3F9B
330
1A
100
AcDbEntity
  8
ZUWAKU
100
AcDbLine
 10
648.6172025237604
 20
29.99999986828868
 30
0.0
 11
648.6172025237606
 21
0.7999998682887508
 31
0.0
  0
LINE
  5
3F9C
330
1A
100
AcDbEntity
  8
ZUWAKU
100
AcDbLine
 10
648.8172025237604
 20
29.99999986828868
 30
0.0
 11
648.8172025237607
 21
0.7999998682887508
 31
0.0
  0
LINE
  5
3F9D
330
1A
100
AcDbEntity
  8
ZUWAKU
100
AcDbLine
 10
648.4172025237606
 20
29.99999986828868
 30
0.0
 11
648.4172025237606
 21
0.7999998682887508
 31
0.0
  0
LINE
  5
3F9E
330
1A
100
AcDbEntity
  8
ZUWAKU
100
AcDbLine
 10
552.7269557796683
 20
29.99999986828868
 30
0.0
 11
552.7269557796685
 21
0.7999998682887508
 31
0.0
  0
LINE
  5
3F9F
330
1A
100
AcDbEntity
  8
ZUWAKU
100
AcDbLine
 10
552.9269557796683
 20
29.99999986828868
 30
0.0
 11
552.9269557796686
 21
0.7999998682887508
 31
0.0
  0
LINE
  5
3FA0
330
1A
100
AcDbEntity
  8
ZUWAKU
100
AcDbLine
 10
552.5269557796685
 20
29.99999986828868
 30
0.0
 11
552.5269557796685
 21
0.7999998682887508
 31
0.0
  0
TEXT
  5
3FA1
330
1A
100
AcDbEntity
  8
ZUWAKU
100
AcDbText
 10
650.2946475459701
 20
24.05535640667426
 30
0.0
 40
4.0
  1
DATE
 41
0.9
  7
ｽﾀｲﾙ1
100
AcDbText
  0
LINE
  5
3FA2
330
1A
100
AcDbEntity
  8
ZUWAKU
100
AcDbLine
 10
697.2490105620973
 20
29.99999986828868
 30
0.0
 11
697.2490105620973
 21
0.7999998682887508
 31
0.0
  0
LINE
  5
3FA3
330
1A
100
AcDbEntity
  8
ZUWAKU
100
AcDbLine
 10
697.4490105620973
 20
29.99999986828868
 30
0.0
 11
697.4490105620973
 21
0.7999998682887508
 31
0.0
  0
LINE
  5
3FA4
330
1A
100
AcDbEntity
  8
ZUWAKU
100
AcDbLine
 10
697.6490105620972
 20
29.99999986828868
 30
0.0
 11
697.6490105620974
 21
0.7999998682887508
 31
0.0
  0
LINE
  5
3FA5
330
1A
100
AcDbEntity
  8
ZUWAKU
100
AcDbLine
 10
697.8490105620972
 20
29.99999986828868
 30
0.0
 11
697.8490105620974
 21
0.7999998682887508
 31
0.0
  0
TEXT
  5
3FA6
330
1A
100
AcDbEntity
  8
ZUWAKU
100
AcDbText
 10
708.5280842057998
 20
17.55383920397549
 30
0.0
 40
6.0
  1
積水化学工業株式会社
 41
0.9
  7
ｽﾀｲﾙ1
100
AcDbText
  0
TEXT
  5
3FA7
330
1A
100
AcDbEntity
  8
ZUWAKU
100
AcDbText
 10
708.5280842057998
 20
6.648840182142749
 30
0.0
 40
6.0
  1
建材事業部
 41
0.9
  7
ｽﾀｲﾙ1
100
AcDbText
  0
TEXT
  5
6DB4
330
1A
100
AcDbEntity
  8
ZUWAKU
100
AcDbText
 10
462.1716760137121
 20
2.614070779428175
 30
0.0
 40
3.0
  1
□には色品番が入ります
 41
0.9
  7
ｽﾀｲﾙ1
100
AcDbText
  0
LINE
  5
9E2D
330
1A
100
AcDbEntity
  8
SEIHIN
  6
Continuous
 62
     3
 48
5.0
100
AcDbLine
 10
423.211823360444
 20
468.3223442146089
 30
0.0
 11
365.1497233604442
 21
468.3223442146089
 31
0.0
  0
LINE
  5
9E2E
330
1A
100
AcDbEntity
  8
SEIHIN
  6
Continuous
 62
     3
 48
5.0
100
AcDbLine
 10
423.2116233604441
 20
476.3223442146089
 30
0.0
 11
365.2742233604442
 21
476.3223442146089
 31
0.0
  0
LINE
  5
9E2F
330
1A
100
AcDbEntity
  8
SEIHIN
  6
Continuous
 62
     3
 48
5.0
100
AcDbLine
 10
578.9185233604442
 20
462.8223442146087
 30
0.0
 11
317.8116233604442
 21
462.8223442146087
 31
0.0
  0
LINE
  5
9E30
330
1A
100
AcDbEntity
  8
SEIHIN
  6
Continuous
 62
     3
 48
5.0
100
AcDbLine
 10
317.8116233604442
 20
481.8223442146087
 30
0.0
 11
578.9185233604442
 21
481.8223442146087
 31
0.0
  0
LINE
  5
9E31
330
1A
100
AcDbEntity
  8
SEIHIN
  6
Continuous
 62
     3
 48
5.0
100
AcDbLine
 10
381.1496233604442
 20
91.51281478487346
 30
0.0
 11
442.7013233604442
 21
91.51281478487346
 31
0.0
  0
LINE
  5
9E32
330
1A
100
AcDbEntity
  8
SEIHIN
  6
Continuous
 62
     3
 48
5.0
100
AcDbLine
 10
442.6751233604442
 20
94.01281478487346
 30
0.0
 11
353.5842233604442
 21
94.01281478487346
 31
0.0
  0
LINE
  5
9E33
330
1A
100
AcDbEntity
  8
SEIHIN
  6
Continuous
 62
     3
 48
5.0
100
AcDbLine
 10
353.5842233604442
 20
96.01281478487346
 30
0.0
 11
442.6751233604442
 21
96.01281478487346
 31
0.0
  0
LINE
  5
9E34
330
1A
100
AcDbEntity
  8
CENTER L
  6
CENTER
 62
     1
 48
5.0
100
AcDbLine
 10
584.7521233604443
 20
472.3223442146089
 30
0.0
 11
302.5664233604441
 21
472.3223442146089
 31
0.0
  0
LINE
  5
9E35
330
1A
100
AcDbEntity
  8
SEIHIN
  6
Continuous
 62
     3
 48
5.0
100
AcDbLine
 10
438.6751233604442
 20
96.01281478487346
 30
0.0
 11
409.3951233604443
 21
96.01281478487346
 31
0.0
  0
DIMENSION
  5
9E36
330
1A
100
AcDbEntity
  8
SUNPOU
  6
Continuous
 62
     4
100
AcDbDimension
  2
*D1
 10
317.8116233604442
 20
437.6536275948665
 30
0.0
 11
448.3650733604442
 21
442.6536275948665
 31
0.0
 70
    32
 71
     5
 42
261.1068999999999
  3
STANDARD
100
AcDbAlignedDimension
 13
578.9185233604442
 23
462.8223442146087
 33
0.0
 14
317.8116233604442
 24
462.8223442146087
 34
0.0
100
AcDbRotatedDimension
1001
ACAD
1000
DSTYLE
1002
{
1070
   140
1040
6.0
1070
    74
1070
     0
1070
   172
1070
     1
1070
    73
1070
     0
1070
   272
1070
     2
1070
    77
1070
     3
1070
   173
1070
     1
1070
   147
1040
2.0
1070
    42
1040
6.0
1070
    44
1040
3.0
1070
    43
1040
14.0
1070
   271
1070
     0
1070
   178
1070
     4
1070
   177
1070
     4
1070
   176
1070
     4
1070
   141
1040
150.0
1070
     7
1000
_OPEN
1070
     6
1000
_OPEN
1070
    41
1040
7.0
1002
}
  0
DIMENSION
  5
9E37
330
1A
100
AcDbEntity
  8
SUNPOU
100
AcDbDimension
  2
*D2
 10
457.0296233604441
 20
199.6741319795862
 30
0.0
 11
387.4205494770404
 21
204.6741319795862
 31
0.0
 70
    32
 71
     5
 42
139.2181477668074
  3
STANDARD
100
AcDbAlignedDimension
 13
317.8114755936367
 23
175.5691080726783
 33
0.0
 14
457.0296233604441
 24
173.4298147848734
 34
0.0
100
AcDbRotatedDimension
1001
ACAD
1000
DSTYLE
1002
{
1070
   140
1040
6.0
1070
    74
1070
     0
1070
   172
1070
     1
1070
    73
1070
     0
1070
   272
1070
     2
1070
    77
1070
     3
1070
   173
1070
     1
1070
   147
1040
2.0
1070
    42
1040
6.0
1070
    44
1040
3.0
1070
    43
1040
14.0
1070
   271
1070
     0
1070
   178
1070
     4
1070
   177
1070
     4
1070
   176
1070
     4
1070
   141
1040
150.0
1070
     7
1000
_OPEN
1070
     6
1000
_OPEN
1070
    41
1040
7.0
1002
}
  0
DIMENSION
  5
9E38
330
1A
100
AcDbEntity
  8
SUNPOU
100
AcDbDimension
  2
*D3
 10
445.0475559666222
 20
58.8348710311559
 30
0.0
 11
398.2292701873217
 21
63.8348710311559
 31
0.0
 70
    32
 71
     5
 42
93.63657155860085
  3
STANDARD
100
AcDbAlignedDimension
 13
351.4109844080213
 23
94.01281478487346
 33
0.0
 14
445.0475559666222
 24
94.01281478487346
 34
0.0
100
AcDbRotatedDimension
1001
ACAD
1000
DSTYLE
1002
{
1070
   140
1040
6.0
1070
    74
1070
     0
1070
   172
1070
     1
1070
    73
1070
     0
1070
   272
1070
     2
1070
    77
1070
     3
1070
   173
1070
     1
1070
   147
1040
2.0
1070
    42
1040
6.0
1070
    44
1040
3.0
1070
    43
1040
14.0
1070
   271
1070
     0
1070
   178
1070
     4
1070
   177
1070
     4
1070
   176
1070
     4
1070
   141
1040
150.0
1070
     7
1000
_OPEN
1070
     6
1000
_OPEN
1070
    41
1040
7.0
1002
}
  0
LINE
  5
9E39
330
1A
100
AcDbEntity
  8
SEIHIN
  6
Continuous
 62
     3
 48
5.0
100
AcDbLine
 10
183.6500840553725
 20
308.6496147848734
 30
0.0
 11
183.649840771738
 21
94.01311478487338
 31
0.0
  0
LINE
  5
9E3A
330
1A
100
AcDbEntity
  8
SEIHIN
  6
Continuous
 62
     3
 48
5.0
100
AcDbLine
 10
202.6499840553726
 20
308.6496147848734
 30
0.0
 11
202.6498624135553
 21
94.01311478487338
 31
0.0
  0
LINE
  5
9E3B
330
1A
100
AcDbEntity
  8
CENTER L
  6
CENTER
 62
     1
 48
5.0
100
AcDbLine
 10
193.1504840553725
 20
313.1154147848732
 30
0.0
 11
193.1495069472553
 21
80.91935024130635
 31
0.0
  0
ELLIPSE
  5
9E3C
330
1A
100
AcDbEntity
  8
SEIHIN
  6
Continuous
100
AcDbEllipse
 10
193.1503927101904
 20
277.0402960518276
 30
0.0
 11
-2.100000000000017
 21
8.837044920642933E-6
 31
0.0
210
0.0
220
0.0
230
1.0
 40
0.2873574337446793
 41
0.0000000000000308
 42
6.283185307179617
  0
LINE
  5
9E3D
330
1A
100
AcDbEntity
  8
SEIHIN
  6
Continuous
 62
     3
 48
5.0
100
AcDbLine
 10
353.0891233604442
 20
96.44321478487348
 30
0.0
 11
351.4325233604442
 21
108.2304147848734
 31
0.0
  0
LINE
  5
9E3E
330
1A
100
AcDbEntity
  8
SEIHIN
  6
Continuous
 62
     3
 48
5.0
100
AcDbLine
 10
351.1085233604442
 20
96.16491478487347
 30
0.0
 11
349.4519233604441
 21
107.9521147848734
 31
0.0
  0
LINE
  5
9E3F
330
1A
100
AcDbEntity
  8
CENTER L
  6
CENTER
 62
     1
 48
5.0
100
AcDbLine
 10
398.1496233604441
 20
86.56161478487348
 30
0.0
 11
398.1496233604441
 21
108.1119147848735
 31
0.0
  0
DIMENSION
  5
9E40
330
1A
100
AcDbEntity
  8
SUNPOU
100
AcDbDimension
  2
*D4
 10
289.7836306370091
 20
94.01281478487347
 30
0.0
 11
284.7836306370091
 21
134.7909647848735
 31
0.0
 70
    32
 71
     5
 42
81.55629999999997
  3
STANDARD
100
AcDbAlignedDimension
 13
317.8115233604442
 23
175.5691147848735
 33
0.0
 14
353.5842233604442
 24
94.01281478487346
 34
0.0
 50
90.0
100
AcDbRotatedDimension
1001
ACAD
1000
DSTYLE
1002
{
1070
   140
1040
6.0
1070
    74
1070
     0
1070
   172
1070
     1
1070
    73
1070
     0
1070
   272
1070
     2
1070
    77
1070
     3
1070
   173
1070
     1
1070
   147
1040
2.0
1070
    42
1040
6.0
1070
    44
1040
3.0
1070
    43
1040
14.0
1070
   271
1070
     0
1070
   178
1070
     4
1070
   177
1070
     4
1070
   176
1070
     4
1070
   141
1040
150.0
1070
     7
1000
_OPEN
1070
     6
1000
_OPEN
1070
    41
1040
7.0
1002
}
  0
LINE
  5
9E41
330
1A
100
AcDbEntity
  8
SEIHIN
  6
Continuous
 62
     3
 48
5.0
100
AcDbLine
 10
202.6498233604442
 20
94.01311478487338
 30
0.0
 11
183.6498233604442
 21
94.01311478487338
 31
0.0
  0
ARC
  5
9E42
330
1A
100
AcDbEntity
  8
SEIHIN
  6
Continuous
 62
     3
 48
5.0
100
AcDbCircle
 10
193.1495650410715
 20
97.96361478462529
 30
0.0
 40
6.450069175186251
100
AcDbArc
 50
219.8144328471924
 51
320.184410690279
  0
ARC
  5
9E43
330
1A
100
AcDbEntity
  8
SEIHIN
  6
Continuous
 62
     3
 48
5.0
100
AcDbCircle
 10
187.8110883302901
 20
93.51338436172466
 30
0.0
 40
0.5000304273696642
100
AcDbArc
 50
39.82328474754774
 51
90.00744454292341
  0
ARC
  5
9E44
330
1A
100
AcDbEntity
  8
SEIHIN
  6
Continuous
 62
     3
 48
5.0
100
AcDbCircle
 10
198.4881404051657
 20
93.51342276500083
 30
0.0
 40
0.4999920201631771
100
AcDbArc
 50
90.00195321239522
 51
140.1787752230098
  0
ARC
  5
9E45
330
1A
100
AcDbEntity
  8
SEIHIN
  6
Continuous
 62
     3
 48
5.0
100
AcDbCircle
 10
367.1123373769098
 20
102.0406098587421
 30
0.0
 40
9.999972609471813
100
AcDbArc
 50
233.3965628292679
 51
267.8748991622293
  0
ARC
  5
9E46
330
1A
100
AcDbEntity
  8
SEIHIN
  6
Continuous
 62
     3
 48
5.0
100
AcDbCircle
 10
353.5841847103399
 20
96.51284838261586
 30
0.0
 40
0.5000335992361247
100
AcDbArc
 50
188.0049027930109
 51
270.0044286781195
  0
ARC
  5
9E47
330
1A
100
AcDbEntity
  8
SEIHIN
  6
Continuous
 62
     3
 48
5.0
100
AcDbCircle
 10
353.5842089926269
 20
96.51282727481112
 30
0.0
 40
2.500012489978906
100
AcDbArc
 50
187.999490827979
 51
270.0003292844721
  0
LINE
  5
9E48
330
1A
100
AcDbEntity
  8
SEIHIN
  6
Continuous
 62
     3
 48
5.0
100
AcDbLine
 10
366.7415233604442
 20
92.04751478487339
 30
0.0
 11
381.1496233604442
 21
91.51281478487346
 31
0.0
  0
DIMENSION
  5
9E49
330
1A
100
AcDbEntity
  8
SUNPOU
100
AcDbDimension
  2
*D5
 10
289.7836306370091
 20
175.5691080726783
 30
0.0
 11
284.7836306370091
 21
192.8571114287759
 31
0.0
 70
    32
 71
     5
 42
34.57600671219521
  3
STANDARD
100
AcDbAlignedDimension
 13
312.3462233604442
 23
210.1451147848735
 33
0.0
 14
317.8114755936367
 24
175.5691080726783
 34
0.0
 50
90.0
100
AcDbRotatedDimension
1001
ACAD
1000
DSTYLE
1002
{
1070
   140
1040
6.0
1070
    74
1070
     0
1070
   172
1070
     1
1070
    73
1070
     0
1070
   272
1070
     2
1070
    77
1070
     3
1070
   173
1070
     1
1070
   147
1040
2.0
1070
    42
1040
6.0
1070
    44
1040
3.0
1070
    43
1040
14.0
1070
   271
1070
     0
1070
   178
1070
     4
1070
   177
1070
     4
1070
   176
1070
     4
1070
   141
1040
150.0
1070
     7
1000
_OPEN
1070
     6
1000
_OPEN
1070
    41
1040
7.0
1002
}
  0
LINE
  5
9E4A
330
1A
100
AcDbEntity
  8
SEIHIN
  6
Continuous
 62
     3
 48
5.0
100
AcDbLine
 10
200.1499233604441
 20
208.3471147848734
 30
0.0
 11
200.1498233604442
 21
175.5695147848734
 31
0.0
  0
LINE
  5
9E4B
330
1A
100
AcDbEntity
  8
SEIHIN
  6
Continuous
 62
     3
 48
5.0
100
AcDbLine
 10
186.1499233604441
 20
208.2304147848735
 30
0.0
 11
186.1499233604441
 21
175.5696147848734
 31
0.0
  0
LINE
  5
9E4C
330
1A
100
AcDbEntity
  8
SEIHIN
  6
Continuous
 62
     3
 48
5.0
100
AcDbLine
 10
202.6498233604442
 20
108.2004147848734
 30
0.0
 11
183.6498233604442
 21
108.2004147848734
 31
0.0
  0
ARC
  5
9E4D
330
1A
100
AcDbEntity
  8
SEIHIN
  6
Continuous
 62
     3
 48
5.0
100
AcDbCircle
 10
186.6498529943182
 20
172.6115498480272
 30
0.0
 40
3.000029634078846
100
AcDbArc
 50
99.5945465497953
 51
180.0006696502944
  0
LINE
  5
9E4E
330
1A
100
AcDbEntity
  8
SEIHIN
  6
Continuous
 62
     3
 48
5.0
100
AcDbLine
 10
202.6497233604442
 20
157.0553147848734
 30
0.0
 11
183.6497233604442
 21
157.0553147848734
 31
0.0
  0
LINE
  5
9E4F
330
1A
100
AcDbEntity
  8
SEIHIN
  6
Continuous
 62
     3
 48
5.0
100
AcDbLine
 10
193.1498233604442
 20
160.6743147848734
 30
0.0
 11
185.6497233604442
 21
160.6743147848734
 31
0.0
  0
ARC
  5
9E50
330
1A
100
AcDbEntity
  8
SEIHIN
  6
Continuous
 62
     3
 48
5.0
100
AcDbCircle
 10
185.6497233604442
 20
162.6743147848734
 30
0.0
 40
2.0
100
AcDbArc
 50
180.0
 51
270.0
  0
ARC
  5
9E51
330
1A
100
AcDbEntity
  8
SEIHIN
  6
Continuous
 62
     3
 48
5.0
100
AcDbCircle
 10
199.6498513598722
 20
172.6114816565333
 30
0.0
 40
2.999972000754917
100
AcDbArc
 50
0.0006327105966445
 51
80.40832068445423
  0
ARC
  5
9E52
330
1A
100
AcDbEntity
  8
SEIHIN
  6
Continuous
 62
     3
 48
5.0
100
AcDbCircle
 10
200.6497233604442
 20
162.6743147848734
 30
0.0
 40
2.000000000000028
100
AcDbArc
 50
269.9999999999984
 51
359.9999999999992
  0
LINE
  5
9E53
330
1A
100
AcDbEntity
  8
SEIHIN
  6
Continuous
 62
     3
 48
5.0
100
AcDbLine
 10
193.1497233604442
 20
160.6743147848734
 30
0.0
 11
200.6497233604441
 21
160.6743147848734
 31
0.0
  0
ARC
  5
9E54
330
1A
100
AcDbEntity
  8
SEIHIN
  6
Continuous
 62
     3
 48
5.0
100
AcDbCircle
 10
193.1500233604442
 20
168.0033147848734
 30
0.0
 40
1.600000000000051
100
AcDbArc
 50
180.0
 51
0.0
  0
ARC
  5
9E55
330
1A
100
AcDbEntity
  8
SEIHIN
  6
Continuous
 62
     3
 48
5.0
100
AcDbCircle
 10
193.1500233604442
 20
168.0033147848734
 30
0.0
 40
1.600000000000051
100
AcDbArc
 50
0.0
 51
180.0
  0
ARC
  5
9E56
330
1A
100
AcDbEntity
  8
SEIHIN
  6
Continuous
 62
     3
 48
5.0
100
AcDbCircle
 10
193.1500233604442
 20
168.0033147848734
 30
0.0
 40
1.499999999999972
100
AcDbArc
 50
180.0
 51
0.0
  0
ARC
  5
9E57
330
1A
100
AcDbEntity
  8
SEIHIN
  6
Continuous
 62
     3
 48
5.0
100
AcDbCircle
 10
193.1500233604442
 20
168.0033147848734
 30
0.0
 40
1.499999999999972
100
AcDbArc
 50
0.0
 51
180.0
  0
LINE
  5
9E58
330
1A
100
AcDbEntity
  8
CENTER L
  6
CENTER
 62
     1
 48
5.0
100
AcDbLine
 10
190.5721233604442
 20
168.0033147848734
 30
0.0
 11
196.0054233604441
 21
168.0033147848734
 31
0.0
  0
ARC
  5
9E59
330
1A
100
AcDbEntity
  8
SEIHIN
  6
Continuous
 62
     3
 48
5.0
100
AcDbCircle
 10
188.1500233604442
 20
208.2290147848735
 30
0.0
 40
2.0
100
AcDbArc
 50
90.0
 51
180.0
  0
ARC
  5
9E5A
330
1A
100
AcDbEntity
  8
SEIHIN
  6
Continuous
 62
     3
 48
5.0
100
AcDbCircle
 10
188.1500233604442
 20
208.1455147848735
 30
0.0
 40
2.0
100
AcDbArc
 50
90.0
 51
180.0
  0
LINE
  5
9E5B
330
1A
100
AcDbEntity
  8
SEIHIN
  6
Continuous
 62
     3
 48
5.0
100
AcDbLine
 10
198.1500233604442
 20
210.2290147848735
 30
0.0
 11
193.1500233604442
 21
210.2290147848735
 31
0.0
  0
LINE
  5
9E5C
330
1A
100
AcDbEntity
  8
SEIHIN
  6
Continuous
 62
     3
 48
5.0
100
AcDbLine
 10
198.1500233604442
 20
210.1455147848735
 30
0.0
 11
193.1500233604442
 21
210.1455147848735
 31
0.0
  0
LINE
  5
9E5D
330
1A
100
AcDbEntity
  8
SEIHIN
  6
Continuous
 62
     3
 48
5.0
100
AcDbLine
 10
188.1500233604442
 20
210.2290147848735
 30
0.0
 11
193.1500233604442
 21
210.2290147848735
 31
0.0
  0
LINE
  5
9E5E
330
1A
100
AcDbEntity
  8
SEIHIN
  6
Continuous
 62
     3
 48
5.0
100
AcDbLine
 10
188.1500233604442
 20
210.1455147848735
 30
0.0
 11
193.1500233604442
 21
210.1455147848735
 31
0.0
  0
ARC
  5
9E5F
330
1A
100
AcDbEntity
  8
SEIHIN
  6
Continuous
 62
     3
 48
5.0
100
AcDbCircle
 10
198.1500233604442
 20
208.2290147848735
 30
0.0
 40
2.0
100
AcDbArc
 50
0.0
 51
90.0
  0
ARC
  5
9E60
330
1A
100
AcDbEntity
  8
SEIHIN
  6
Continuous
 62
     3
 48
5.0
100
AcDbCircle
 10
198.1500233604442
 20
208.1455147848735
 30
0.0
 40
2.0
100
AcDbArc
 50
0.0
 51
90.0
  0
LINE
  5
9E61
330
1A
100
AcDbEntity
  8
SEIHIN
  6
Continuous
 62
     3
 48
5.0
100
AcDbLine
 10
188.1504840553725
 20
261.9534147848733
 30
0.0
 11
183.6500840553725
 21
261.9534147848733
 31
0.0
  0
LINE
  5
9E62
330
1A
100
AcDbEntity
  8
SEIHIN
  6
Continuous
 62
     3
 48
5.0
100
AcDbLine
 10
198.1503840553725
 20
248.4159147848734
 30
0.0
 11
198.1503840553725
 21
273.8163147848734
 31
0.0
  0
LINE
  5
9E63
330
1A
100
AcDbEntity
  8
SEIHIN
  6
Continuous
 62
     3
 48
5.0
100
AcDbLine
 10
188.1502840553725
 20
248.4159147848734
 30
0.0
 11
188.1503840553725
 21
273.8166147848734
 31
0.0
  0
LINE
  5
9E64
330
1A
100
AcDbEntity
  8
SEIHIN
  6
Continuous
 62
     3
 48
5.0
100
AcDbLine
 10
202.6500840553725
 20
261.9533147848734
 30
0.0
 11
198.1504840553725
 21
261.9533147848734
 31
0.0
  0
LINE
  5
9E65
330
1A
100
AcDbEntity
  8
SEIHIN
  6
Continuous
 62
     3
 48
5.0
100
AcDbLine
 10
198.1503840553725
 20
263.6295147848734
 30
0.0
 11
188.1503840553725
 21
263.6295147848734
 31
0.0
  0
ARC
  5
9E66
330
1A
100
AcDbEntity
  8
SEIHIN
  6
Continuous
 62
     3
 48
5.0
100
AcDbCircle
 10
193.1501340553725
 20
266.2334147846437
 30
0.0
 40
9.083137620116927
100
AcDbArc
 50
56.59956417700799
 51
123.400435822992
  0
LINE
  5
9E67
330
1A
100
AcDbEntity
  8
SEIHIN
  6
Continuous
 62
     3
 48
5.0
100
AcDbLine
 10
319.3048233604442
 20
160.6317147848735
 30
0.0
 11
312.3462233604442
 21
210.1451147848735
 31
0.0
  0
LINE
  5
9E68
330
1A
100
AcDbEntity
  8
SEIHIN
  6
Continuous
 62
     3
 48
5.0
100
AcDbLine
 10
312.9404233604442
 20
210.2286147848734
 30
0.0
 11
320.1169233604442
 21
159.1649147848734
 31
0.0
  0
ARC
  5
9E69
330
1A
100
AcDbEntity
  8
SEIHIN
  6
Continuous
 62
     3
 48
5.0
100
AcDbCircle
 10
358.6986524717012
 20
125.3495723090468
 30
0.0
 40
17.50002755488113
100
AcDbArc
 50
187.9997501245075
 51
240.850352962401
  0
DIMENSION
  5
9E6A
330
1A
100
AcDbEntity
  8
SUNPOU
100
AcDbDimension
  2
*D6
 10
337.4314956966575
 20
136.5594033810515
 30
0.0
 11
312.4740645872862
 21
138.1010364181215
 31
0.0
 70
    33
  1
t<>
 71
     5
 42
1.999971701399886
  3
STANDARD
100
AcDbAlignedDimension
 13
341.3688318502015
 23
122.9140543767389
 33
0.0
 14
339.3883233604443
 24
122.6357147848735
 34
0.0
1001
ACAD
1000
DSTYLE
1002
{
1070
   140
1040
6.0
1070
    74
1070
     0
1070
   172
1070
     1
1070
    73
1070
     0
1070
   272
1070
     2
1070
    77
1070
     3
1070
   173
1070
     1
1070
   147
1040
2.0
1070
    42
1040
6.0
1070
    44
1040
3.0
1070
    43
1040
14.0
1070
   271
1070
     1
1070
   178
1070
     4
1070
   177
1070
     4
1070
   176
1070
     4
1070
   141
1040
150.0
1070
     7
1000
_OPEN
1070
     6
1000
_OPEN
1070
    41
1040
7.0
1002
}
  0
LINE
  5
9E6B
330
1A
100
AcDbEntity
  8
SEIHIN
  6
Continuous
 62
     3
 48
5.0
100
AcDbLine
 10
341.3688233604441
 20
122.9141147848735
 30
0.0
 11
337.505323360444
 21
150.4045147848735
 31
0.0
  0
LINE
  5
9E6C
330
1A
100
AcDbEntity
  8
SEIHIN
  6
Continuous
 62
     3
 48
5.0
100
AcDbLine
 10
339.3883233604443
 20
122.6357147848735
 30
0.0
 11
335.5248233604442
 21
150.1262147848735
 31
0.0
  0
ARC
  5
9E6D
330
1A
100
AcDbEntity
  8
SEIHIN
  6
Continuous
 62
     3
 48
5.0
100
AcDbCircle
 10
358.6985808227017
 20
125.3496768507008
 30
0.0
 40
19.5000418808119
100
AcDbArc
 50
188.0002396492348
 51
240.8509022794941
  0
ARC
  5
9E6E
330
1A
100
AcDbEntity
  8
SEIHIN
  6
Continuous
 62
     3
 48
5.0
100
AcDbCircle
 10
348.9568036882109
 20
107.8825434840458
 30
0.0
 40
0.4999836554639557
100
AcDbArc
 50
7.998498524109815
 51
60.85278419046711
  0
LINE
  5
9E6F
330
1A
100
AcDbEntity
  8
SEIHIN
  6
Continuous
 62
     3
 48
5.0
100
AcDbLine
 10
322.0974233604442
 20
159.4432147848734
 30
0.0
 11
319.7920233604441
 21
175.8474147848735
 31
0.0
  0
ARC
  5
9E70
330
1A
100
AcDbEntity
  8
SEIHIN
  6
Continuous
 62
     3
 48
5.0
100
AcDbCircle
 10
327.6026398835589
 20
149.0128004216442
 30
0.0
 40
10.00001436324294
100
AcDbArc
 50
8.000470708318407
 51
90.00009467033759
  0
ARC
  5
9E71
330
1A
100
AcDbEntity
  8
SEIHIN
  6
Continuous
 62
     3
 48
5.0
100
AcDbCircle
 10
327.6026561602369
 20
149.0127862724751
 30
0.0
 40
8.00002851246559
100
AcDbArc
 50
8.000287387999338
 51
90.00023491037291
  0
LINE
  5
9E72
330
1A
100
AcDbEntity
  8
SEIHIN
  6
Continuous
 62
     3
 48
5.0
100
AcDbLine
 10
322.5925233604441
 20
157.0128147848735
 30
0.0
 11
327.6026233604442
 21
157.0128147848735
 31
0.0
  0
LINE
  5
9E73
330
1A
100
AcDbEntity
  8
SEIHIN
  6
Continuous
 62
     3
 48
5.0
100
AcDbLine
 10
322.5925233604441
 20
159.0128147848735
 30
0.0
 11
327.6026233604442
 21
159.0128147848735
 31
0.0
  0
ARC
  5
9E74
330
1A
100
AcDbEntity
  8
SEIHIN
  6
Continuous
 62
     3
 48
5.0
100
AcDbCircle
 10
322.5925659507744
 20
159.5127777613251
 30
0.0
 40
2.499962976814394
100
AcDbArc
 50
187.9985043680684
 51
269.9990238870737
  0
LINE
  5
9E75
330
1A
100
AcDbEntity
  8
SEIHIN
  6
Continuous
 62
     3
 48
5.0
100
AcDbLine
 10
319.8991233604441
 20
160.7152147848734
 30
0.0
 11
319.3048233604442
 21
160.6316147848735
 31
0.0
  0
ARC
  5
9E76
330
1A
100
AcDbEntity
  8
SEIHIN
  6
Continuous
 62
     3
 48
5.0
100
AcDbCircle
 10
322.5925416698078
 20
159.5127988693668
 30
0.0
 40
0.499984084828532
100
AcDbArc
 50
187.9999709512789
 51
269.9979018346814
  0
LINE
  5
9E77
330
1A
100
AcDbEntity
  8
SEIHIN
  6
Continuous
 62
     3
 48
5.0
100
AcDbLine
 10
318.0737233604441
 20
166.5176147848734
 30
0.0
 11
318.4698233604442
 21
166.5732147848734
 31
0.0
  0
LINE
  5
9E78
330
1A
100
AcDbEntity
  8
SEIHIN
  6
Continuous
 62
     3
 48
5.0
100
AcDbLine
 10
317.6562233604442
 20
169.4884147848735
 30
0.0
 11
318.0523233604442
 21
169.5440147848735
 31
0.0
  0
LINE
  5
9E79
330
1A
100
AcDbEntity
  8
SEIHIN
  6
Continuous
 62
     3
 48
5.0
100
AcDbLine
 10
318.0737233604441
 20
166.5176147848734
 30
0.0
 11
317.6562233604442
 21
169.4884147848735
 31
0.0
  0
LINE
  5
9E7A
330
1A
100
AcDbEntity
  8
SEIHIN
  6
Continuous
 62
     3
 48
5.0
100
AcDbLine
 10
319.7920233604441
 20
175.8474147848735
 30
0.0
 11
317.8115233604442
 21
175.5691147848735
 31
0.0
  0
ARC
  5
9E7B
330
1A
100
AcDbEntity
  8
SEIHIN
  6
Continuous
 62
     3
 48
5.0
100
AcDbCircle
 10
348.9568355614443
 20
107.8824969825624
 30
0.0
 40
2.500015375009127
100
AcDbArc
 50
7.999604482321399
 51
60.851678232277
  0
LINE
  5
9E7C
330
1A
100
AcDbEntity
  8
SEIHIN
  6
Continuous
 62
     3
 48
5.0
100
AcDbLine
 10
312.3459233604442
 20
210.1450147848735
 30
0.0
 11
312.9402233604442
 21
210.2286147848734
 31
0.0
  0
ELLIPSE
  5
9E7D
330
1A
100
AcDbEntity
  8
SEIHIN
  6
Continuous
100
AcDbEllipse
 10
193.1504531703845
 20
305.7760297711378
 30
0.0
 11
-2.100000000000017
 21
8.837044920642933E-6
 31
0.0
210
0.0
220
0.0
230
1.0
 40
0.2873574337446793
 41
0.0000000000000308
 42
6.283185307179617
  0
ELLIPSE
  5
9E7E
330
1A
100
AcDbEntity
  8
SEIHIN
  6
Continuous
100
AcDbEllipse
 10
193.1504531703845
 20
291.4078147503334
 30
0.0
 11
-2.100000000000017
 21
8.837044920642933E-6
 31
0.0
210
0.0
220
0.0
230
1.0
 40
0.2873574337446793
 41
0.0000000000000308
 42
6.283185307179617
  0
ARC
  5
9E7F
330
1A
100
AcDbEntity
  8
SEIHIN
  6
Continuous
 62
     3
 48
5.0
100
AcDbCircle
 10
385.1497233604442
 20
472.3223442146089
 30
0.0
 40
4.0
100
AcDbArc
 50
90.0
 51
270.0
  0
ARC
  5
9E80
330
1A
100
AcDbEntity
  8
SEIHIN
  6
Continuous
 62
     3
 48
5.0
100
AcDbCircle
 10
365.2742233604442
 20
472.3223442146089
 30
0.0
 40
4.0
100
AcDbArc
 50
90.0
 51
270.0
  0
LINE
  5
9E81
330
1A
100
AcDbEntity
  8
SEIHIN
  6
Continuous
 62
     3
 48
5.0
100
AcDbLine
 10
322.1580233604443
 20
462.8223442146087
 30
0.0
 11
322.1580233604443
 21
481.8223442146087
 31
0.0
  0
LINE
  5
9E82
330
1A
100
AcDbEntity
  8
SEIHIN
  6
Continuous
 62
     3
 48
5.0
100
AcDbLine
 10
317.8116233604442
 20
462.8224442146088
 30
0.0
 11
317.8116233604442
 21
481.8223442146087
 31
0.0
  0
LINE
  5
9E83
330
1A
100
AcDbEntity
  8
SEIHIN
  6
Continuous
 62
     3
 48
5.0
100
AcDbLine
 10
319.7921233604442
 20
462.8224442146088
 30
0.0
 11
319.7921233604442
 21
481.8223442146087
 31
0.0
  0
LINE
  5
9E84
330
1A
100
AcDbEntity
  8
SEIHIN
  6
Continuous
 62
     3
 48
5.0
100
AcDbLine
 10
312.9405233604442
 20
465.3223442146089
 30
0.0
 11
312.9405233604442
 21
479.3223442146089
 31
0.0
  0
LINE
  5
9E85
330
1A
100
AcDbEntity
  8
SEIHIN
  6
Continuous
 62
     3
 48
5.0
100
AcDbLine
 10
312.3463233604442
 20
465.3223442146089
 30
0.0
 11
312.3464233604441
 21
479.3223442146089
 31
0.0
  0
LINE
  5
9E86
330
1A
100
AcDbEntity
  8
SEIHIN
  6
Continuous
 62
     3
 48
5.0
100
AcDbLine
 10
336.2956233604442
 20
462.8224442146088
 30
0.0
 11
336.2956233604442
 21
481.8223442146087
 31
0.0
  0
LINE
  5
9E87
330
1A
100
AcDbEntity
  8
SEIHIN
  6
Continuous
 62
     3
 48
5.0
100
AcDbLine
 10
351.2524233604442
 20
462.8224442146088
 30
0.0
 11
351.2524233604442
 21
481.8223442146087
 31
0.0
  0
LINE
  5
9E88
330
1A
100
AcDbEntity
  8
SEIHIN
  6
Continuous
 62
     3
 48
5.0
100
AcDbLine
 10
353.1497233604442
 20
462.8224442146088
 30
0.0
 11
353.1497233604442
 21
481.8223442146087
 31
0.0
  0
LINE
  5
9E89
330
1A
100
AcDbEntity
  8
CENTER L
  6
CENTER
 62
     1
 48
5.0
100
AcDbLine
 10
398.1497233604442
 20
460.2741793560821
 30
0.0
 11
398.1497233604442
 21
484.3683793560822
 31
0.0
  0
DIMENSION
  5
9E8A
330
1A
100
AcDbEntity
  8
SUNPOU
100
AcDbDimension
  2
*D7
 10
202.6499840553726
 20
351.1430689542747
 30
0.0
 11
193.1500340553725
 21
356.1430689542747
 31
0.0
 70
    32
 71
     5
 42
18.99990000000008
  3
STANDARD
100
AcDbAlignedDimension
 13
183.6500840553725
 23
308.6496147848734
 33
0.0
 14
202.6499840553726
 24
308.6496147848734
 34
0.0
100
AcDbRotatedDimension
1001
ACAD
1000
DSTYLE
1002
{
1070
    41
1040
7.0
1070
    42
1040
6.0
1070
    43
1040
14.0
1070
    44
1040
3.0
1070
    73
1070
     0
1070
    74
1070
     0
1070
    77
1070
     3
1070
   140
1040
6.0
1070
   141
1040
150.0
1070
   147
1040
2.0
1070
   172
1070
     1
1070
   173
1070
     1
1070
   176
1070
     4
1070
   177
1070
     4
1070
   178
1070
     4
1070
   271
1070
     0
1070
   272
1070
     2
1070
   341
1005
6D
1070
     6
1000
OPEN
1070
     7
1000
OPEN
1002
}
  0
LINE
  5
9E8B
330
1A
100
AcDbEntity
  8
SEIHIN
  6
Continuous
 62
     3
 48
5.0
100
AcDbLine
 10
202.6500840553725
 20
308.6496147848734
 30
0.0
 11
183.6500840553725
 21
308.6496147848734
 31
0.0
  0
LINE
  5
9E8C
330
1A
100
AcDbEntity
  8
SEIHIN
  6
Continuous
 62
     3
 48
5.0
100
AcDbLine
 10
312.3463233604442
 20
465.3223442146089
 30
0.0
 11
317.8116233604442
 21
465.3223442146089
 31
0.0
  0
LINE
  5
9E8D
330
1A
100
AcDbEntity
  8
SEIHIN
  6
Continuous
 62
     3
 48
5.0
100
AcDbLine
 10
317.8116233604442
 20
479.3223442146089
 30
0.0
 11
312.3463233604442
 21
479.3223442146089
 31
0.0
  0
LINE
  5
9E8E
330
1A
100
AcDbEntity
  8
CENTER L
  6
CENTER
 62
     1
 48
5.0
100
AcDbLine
 10
523.2032233604443
 20
283.1669147848733
 30
0.0
 11
519.365623360444
 21
295.9581147848733
 31
0.0
  0
DIMENSION
  5
9E8F
330
1A
100
AcDbEntity
  8
SUNPOU
100
AcDbDimension
  2
*D8
 10
557.1647116842369
 20
299.7287206699356
 30
0.0
 11
569.1377781482437
 21
277.2199295107358
 31
0.0
 70
    33
  1
t<>
 71
     5
 42
2.499951766504523
  3
STANDARD
100
AcDbAlignedDimension
 13
568.621853566812
 23
305.7760297711378
 33
0.0
 14
569.3402347288545
 24
303.3815178499164
 34
0.0
1001
ACAD
1000
DSTYLE
1002
{
1070
   140
1040
6.0
1070
    74
1070
     0
1070
   172
1070
     1
1070
    73
1070
     0
1070
   272
1070
     2
1070
    77
1070
     3
1070
   173
1070
     1
1070
   147
1040
2.0
1070
    42
1040
6.0
1070
    44
1040
3.0
1070
    43
1040
14.0
1070
   271
1070
     1
1070
   178
1070
     4
1070
   177
1070
     4
1070
   176
1070
     4
1070
   141
1040
150.0
1070
     7
1000
_OPEN
1070
     6
1000
_OPEN
1070
    41
1040
7.0
1002
}
  0
TEXT
  5
9E90
330
1A
100
AcDbEntity
  8
SUNPOU
100
AcDbText
 10
623.540456366351
 20
259.7636960995467
 30
0.0
 40
6.0
  1
スライド巾
 50
90.0
100
AcDbText
  0
DIMENSION
  5
9E91
330
1A
100
AcDbEntity
  8
SUNPOU
100
AcDbDimension
  2
*D9
 10
610.9087339869734
 20
255.0600147848735
 30
0.0
 11
605.9087339869734
 21
281.8548147848735
 31
0.0
 70
    32
 71
     5
 42
53.58959999999988
  3
STANDARD
100
AcDbAlignedDimension
 13
578.2001233604442
 23
308.6496147848734
 33
0.0
 14
578.200023360444
 24
255.0600147848735
 34
0.0
 50
90.0
100
AcDbRotatedDimension
1001
ACAD
1000
DSTYLE
1002
{
1070
   140
1040
6.0
1070
    74
1070
     0
1070
   172
1070
     1
1070
    73
1070
     0
1070
   272
1070
     2
1070
    77
1070
     3
1070
   173
1070
     1
1070
   147
1040
2.0
1070
    42
1040
6.0
1070
    44
1040
3.0
1070
    43
1040
14.0
1070
   271
1070
     0
1070
   178
1070
     4
1070
   177
1070
     4
1070
   176
1070
     4
1070
   141
1040
150.0
1070
     7
1000
_OPEN
1070
     6
1000
_OPEN
1070
    41
1040
7.0
1002
}
  0
LINE
  5
9E92
330
1A
100
AcDbEntity
  8
SEIHIN
  6
Continuous
 62
     3
 48
5.0
100
AcDbLine
 10
578.2001233604442
 20
308.6496147848734
 30
0.0
 11
425.4273233604442
 21
262.8161147848733
 31
0.0
  0
LINE
  5
9E93
330
1A
100
AcDbEntity
  8
SEIHIN
  6
Continuous
 62
     3
 48
5.0
100
AcDbLine
 10
426.1457233604442
 20
260.4215147848735
 30
0.0
 11
578.9185233604442
 21
306.2551147848734
 31
0.0
  0
DIMENSION
  5
9E94
330
1A
100
AcDbEntity
  8
SUNPOU
100
AcDbDimension
  2
*D10
 10
417.425701835614
 20
279.0471810159362
 30
0.0
 11
493.8120699678796
 21
307.18409032132
 31
0.0
 70
    33
 71
     5
 42
162.500004943968
  3
STANDARD
100
AcDbAlignedDimension
 13
578.2001417075016
 23
308.64962028919
 33
0.0
 14
422.5538311055603
 24
261.9540358855913
 34
0.0
1001
ACAD
1000
DSTYLE
1002
{
1070
   140
1040
6.0
1070
    74
1070
     0
1070
   172
1070
     1
1070
    73
1070
     0
1070
   272
1070
     2
1070
    77
1070
     3
1070
   173
1070
     1
1070
   147
1040
2.0
1070
    42
1040
6.0
1070
    44
1040
3.0
1070
    43
1040
14.0
1070
   271
1070
     0
1070
   178
1070
     4
1070
   177
1070
     4
1070
   176
1070
     4
1070
   141
1040
150.0
1070
     7
1000
_OPEN
1070
     6
1000
_OPEN
1070
    41
1040
7.0
1002
}
  0
LINE
  5
9E95
330
1A
100
AcDbEntity
  8
SEIHIN
  6
Continuous
 62
     3
 48
5.0
100
AcDbLine
 10
449.6655233604442
 20
124.8068147848735
 30
0.0
 11
448.1938233604442
 21
96.72501478487345
 31
0.0
  0
LINE
  5
9E96
330
1A
100
AcDbEntity
  8
SEIHIN
  6
Continuous
 62
     3
 48
5.0
100
AcDbLine
 10
445.1717233604442
 20
96.38201478487349
 30
0.0
 11
446.7691233604442
 21
126.8615147848734
 31
0.0
  0
LINE
  5
9E97
330
1A
100
AcDbEntity
  8
SEIHIN
  6
Continuous
 62
     3
 48
5.0
100
AcDbLine
 10
443.1744233604442
 20
96.48661478487338
 30
0.0
 11
444.7718233604442
 21
126.9662147848734
 31
0.0
  0
LINE
  5
9E98
330
1A
100
AcDbEntity
  8
SEIHIN
  6
PHANTOM
 62
     6
 48
5.0
100
AcDbLine
 10
459.5296233604441
 20
78.61121478487348
 30
0.0
 11
459.5296233604441
 21
161.0684147848735
 31
0.0
  0
LINE
  5
9E99
330
1A
100
AcDbEntity
  8
SEIHIN
  6
PHANTOM
 62
     6
 48
5.0
100
AcDbLine
 10
457.0296233604441
 20
78.61121478487348
 30
0.0
 11
457.0296233604441
 21
161.0684147848735
 31
0.0
  0
DIMENSION
  5
9E9A
330
1A
100
AcDbEntity
  8
SUNPOU
100
AcDbDimension
  2
*D11
 10
500.4404275391394
 20
94.01281478487344
 30
0.0
 11
495.4404275391394
 21
110.0128147848735
 31
0.0
 70
    32
 71
     5
 42
65.68839999999996
  3
STANDARD
100
AcDbAlignedDimension
 13
454.5265233604442
 23
159.7012147848734
 33
0.0
 14
442.6751233604442
 24
94.01281478487346
 34
0.0
 50
90.0
100
AcDbRotatedDimension
1001
ACAD
1000
DSTYLE
1002
{
1070
   140
1040
6.0
1070
    74
1070
     0
1070
   172
1070
     1
1070
    73
1070
     0
1070
   272
1070
     2
1070
    77
1070
     3
1070
   173
1070
     1
1070
   280
1070
     2
1070
   147
1040
2.0
1070
    42
1040
6.0
1070
    44
1040
3.0
1070
    43
1040
14.0
1070
   271
1070
     0
1070
   178
1070
     4
1070
   177
1070
     4
1070
   176
1070
     4
1070
   141
1040
150.0
1070
     7
1000
_OPEN
1070
     6
1000
_OPEN
1070
    41
1040
7.0
1002
}
  0
ARC
  5
9E9B
330
1A
100
AcDbEntity
  8
SEIHIN
  6
Continuous
 62
     3
 48
5.0
100
AcDbCircle
 10
442.7013418056819
 20
97.01283228890867
 30
0.0
 40
5.500017504066142
100
AcDbArc
 50
269.9998078489269
 51
357.0003251698729
  0
ARC
  5
9E9C
330
1A
100
AcDbEntity
  8
SEIHIN
  6
Continuous
 62
     3
 48
5.0
100
AcDbCircle
 10
442.6751164734494
 20
96.51280824978801
 30
0.0
 40
0.4999934649619843
100
AcDbArc
 50
270.000789201787
 51
356.9970361317469
  0
ARC
  5
9E9D
330
1A
100
AcDbEntity
  8
SEIHIN
  6
Continuous
 62
     3
 48
5.0
100
AcDbCircle
 10
442.6751360266114
 20
96.51282680481569
 30
0.0
 40
2.500012019974319
100
AcDbArc
 50
269.9997097142277
 51
357.0006540590024
  0
LINE
  5
9E9E
330
1A
100
AcDbEntity
  8
SEIHIN
  6
PHANTOM
 62
     6
 48
5.0
100
AcDbLine
 10
457.0296233604441
 20
78.61121478487348
 30
0.0
 11
459.5296233604441
 21
78.61121478487348
 31
0.0
  0
LINE
  5
9E9F
330
1A
100
AcDbEntity
  8
SEIHIN
  6
PHANTOM
 62
     6
 48
5.0
100
AcDbLine
 10
452.0265233604442
 20
88.11121478487348
 30
0.0
 11
465.5265233604442
 21
88.11121478487348
 31
0.0
  0
LINE
  5
9EA0
330
1A
100
AcDbEntity
  8
SEIHIN
  6
PHANTOM
 62
     6
 48
5.0
100
AcDbLine
 10
459.5296233604441
 20
85.61121478487348
 30
0.0
 11
457.0296233604441
 21
85.61121478487348
 31
0.0
  0
LINE
  5
9EA1
330
1A
100
AcDbEntity
  8
SEIHIN
  6
PHANTOM
 62
     6
 48
5.0
100
AcDbLine
 10
426.1457233604443
 20
206.8315147848735
 30
0.0
 11
578.9185233604442
 21
252.6651147848735
 31
0.0
  0
LINE
  5
9EA2
330
1A
100
AcDbEntity
  8
SEIHIN
  6
PHANTOM
 62
     6
 48
5.0
100
AcDbLine
 10
578.2001233604442
 20
255.0596147848735
 30
0.0
 11
425.4273233604443
 21
209.2261147848734
 31
0.0
  0
LINE
  5
9EA3
330
1A
100
AcDbEntity
  8
SEIHIN
  6
Continuous
 62
     3
 48
5.0
100
AcDbLine
 10
457.0296233604441
 20
132.2012147848734
 30
0.0
 11
457.0296233604441
 21
214.6584147848735
 31
0.0
  0
LINE
  5
9EA4
330
1A
100
AcDbEntity
  8
SEIHIN
  6
Continuous
 62
     3
 48
5.0
100
AcDbLine
 10
459.5296233604441
 20
132.2012147848734
 30
0.0
 11
459.5296233604441
 21
214.6584147848735
 31
0.0
  0
LINE
  5
9EA5
330
1A
100
AcDbEntity
  8
SEIHIN
  6
PHANTOM
 62
     6
 48
5.0
100
AcDbLine
 10
421.0214233604441
 20
204.7721147848734
 30
0.0
 11
433.9798233604443
 21
161.5790147848735
 31
0.0
  0
LINE
  5
9EA6
330
1A
100
AcDbEntity
  8
SEIHIN
  6
PHANTOM
 62
     6
 48
5.0
100
AcDbLine
 10
436.374423360444
 20
162.2973147848735
 30
0.0
 11
423.4159233604442
 21
205.4905147848735
 31
0.0
  0
LINE
  5
9EA7
330
1A
100
AcDbEntity
  8
SEIHIN
  6
PHANTOM
 62
     6
 48
5.0
100
AcDbLine
 10
438.768923360444
 20
163.0157147848735
 30
0.0
 11
425.8105233604443
 21
206.2089147848734
 31
0.0
  0
DIMENSION
  5
9EA8
330
1A
100
AcDbEntity
  8
SUNPOU
100
AcDbDimension
  2
*D12
 10
513.4307945624059
 20
132.2012147848734
 30
0.0
 11
508.4307945624059
 21
196.2395294726967
 31
0.0
 70
    32
 71
     5
 42
128.0766293756464
  3
STANDARD
100
AcDbAlignedDimension
 13
425.666839668998
 23
260.2778441605198
 33
0.0
 14
458.2796233604441
 24
132.2012147848734
 34
0.0
 50
90.0
100
AcDbRotatedDimension
1001
ACAD
1000
DSTYLE
1002
{
1070
   140
1040
6.0
1070
    74
1070
     0
1070
   172
1070
     1
1070
    73
1070
     0
1070
   272
1070
     2
1070
    77
1070
     3
1070
   173
1070
     1
1070
   147
1040
2.0
1070
    42
1040
6.0
1070
    44
1040
3.0
1070
    43
1040
14.0
1070
   271
1070
     0
1070
   178
1070
     4
1070
   177
1070
     4
1070
   176
1070
     4
1070
   141
1040
150.0
1070
     7
1000
_OPEN
1070
     6
1000
_OPEN
1070
    41
1040
7.0
1002
}
  0
ARC
  5
9EA9
330
1A
100
AcDbEntity
  8
SEIHIN
  6
Continuous
 62
     3
 48
5.0
100
AcDbCircle
 10
470.825445126997
 20
141.2031254938304
 30
0.0
 40
9.499980577636825
100
AcDbArc
 50
98.05347745405518
 51
134.3403802581462
  0
LINE
  5
9EAA
330
1A
100
AcDbEntity
  8
SEIHIN
  6
Continuous
 62
     3
 48
5.0
100
AcDbLine
 10
470.0434233604441
 20
150.2580147848735
 30
0.0
 11
470.4284233604442
 21
148.9747147848735
 31
0.0
  0
ARC
  5
9EAB
330
1A
100
AcDbEntity
  8
SEIHIN
  6
Continuous
 62
     3
 48
5.0
100
AcDbCircle
 10
470.825440927163
 20
141.20312620714
 30
0.0
 40
10.9999852231818
100
AcDbArc
 50
93.09035722395434
 51
152.9754458692728
  0
LINE
  5
9EAC
330
1A
100
AcDbEntity
  8
SEIHIN
  6
Continuous
 62
     3
 48
5.0
100
AcDbLine
 10
471.2441233604442
 20
151.4759147848735
 30
0.0
 11
472.1867233604441
 21
148.3340147848734
 31
0.0
  0
LINE
  5
9EAD
330
1A
100
AcDbEntity
  8
SEIHIN
  6
Continuous
 62
     3
 48
5.0
100
AcDbLine
 10
457.0265233604442
 20
134.2012147848734
 30
0.0
 11
457.0265233604442
 21
157.2012147848735
 31
0.0
  0
LINE
  5
9EAE
330
1A
100
AcDbEntity
  8
SEIHIN
  6
Continuous
 62
     3
 48
5.0
100
AcDbLine
 10
455.0265233604442
 20
134.4899147848734
 30
0.0
 11
455.0265233604442
 21
157.2012147848735
 31
0.0
  0
LINE
  5
9EAF
330
1A
100
AcDbEntity
  8
SEIHIN
  6
Continuous
 62
     3
 48
5.0
100
AcDbLine
 10
446.0184233604441
 20
129.0004147848734
 30
0.0
 11
454.7765233604442
 21
134.0569147848734
 31
0.0
  0
LINE
  5
9EB0
330
1A
100
AcDbEntity
  8
SEIHIN
  6
Continuous
 62
     3
 48
5.0
100
AcDbLine
 10
455.7765233604441
 20
132.3248147848735
 30
0.0
 11
447.0184233604441
 21
127.2683147848734
 31
0.0
  0
ARC
  5
9EB1
330
1A
100
AcDbEntity
  8
SEIHIN
  6
Continuous
 62
     3
 48
5.0
100
AcDbCircle
 10
447.2684246350833
 20
126.8353168648238
 30
0.0
 40
2.500030437815268
100
AcDbArc
 50
119.9996309870319
 51
176.9987048118113
  0
ARC
  5
9EB2
330
1A
100
AcDbEntity
  8
SEIHIN
  6
Continuous
 62
     3
 48
5.0
100
AcDbCircle
 10
447.2684244939479
 20
126.8353166344741
 30
0.0
 40
0.4999879648575908
100
AcDbArc
 50
120.0009462499244
 51
176.9964653990596
  0
LINE
  5
9EB3
330
1A
100
AcDbEntity
  8
SEIHIN
  6
Continuous
 62
     3
 48
5.0
100
AcDbLine
 10
453.0265233604442
 20
127.2730147848735
 30
0.0
 11
450.1641233604442
 21
125.6204147848734
 31
0.0
  0
ARC
  5
9EB4
330
1A
100
AcDbEntity
  8
SEIHIN
  6
Continuous
 62
     3
 48
5.0
100
AcDbCircle
 10
450.6641256274518
 20
124.7544184840745
 30
0.0
 40
0.9999759297153523
100
AcDbArc
 50
120.0009462499113
 51
176.9964653990433
  0
LINE
  5
9EB5
330
1A
100
AcDbEntity
  8
SEIHIN
  6
Continuous
 62
     3
 48
5.0
100
AcDbLine
 10
464.3770233604441
 20
147.1655147848734
 30
0.0
 11
465.239223360444
 21
146.8781147848735
 31
0.0
  0
LINE
  5
9EB6
330
1A
100
AcDbEntity
  8
SEIHIN
  6
Continuous
 62
     3
 48
5.0
100
AcDbLine
 10
462.5265233604442
 20
146.2012147848734
 30
0.0
 11
465.5265233604442
 21
145.2012147848734
 31
0.0
  0
ARC
  5
9EB7
330
1A
100
AcDbEntity
  8
SEIHIN
  6
Continuous
 62
     3
 48
5.0
100
AcDbCircle
 10
470.8254451269968
 20
142.1994040759165
 30
0.0
 40
9.499980577636748
100
AcDbArc
 50
225.6596197418559
 51
261.9465225459464
  0
LINE
  5
9EB8
330
1A
100
AcDbEntity
  8
SEIHIN
  6
Continuous
 62
     3
 48
5.0
100
AcDbLine
 10
464.3770233604441
 20
136.2369147848735
 30
0.0
 11
465.239223360444
 21
136.5243147848735
 31
0.0
  0
LINE
  5
9EB9
330
1A
100
AcDbEntity
  8
SEIHIN
  6
Continuous
 62
     3
 48
5.0
100
AcDbLine
 10
462.5265233604442
 20
137.2012147848734
 30
0.0
 11
465.5265233604442
 21
138.2012147848734
 31
0.0
  0
ARC
  5
9EBA
330
1A
100
AcDbEntity
  8
SEIHIN
  6
Continuous
 62
     3
 48
5.0
100
AcDbCircle
 10
470.8254409271628
 20
142.199403362607
 30
0.0
 40
10.99998522318178
100
AcDbArc
 50
207.0245541307272
 51
266.9096427760456
  0
LINE
  5
9EBB
330
1A
100
AcDbEntity
  8
CENTER L
  6
CENTER
 62
     1
 48
5.0
100
AcDbLine
 10
475.5641233604441
 20
141.7012147848734
 30
0.0
 11
449.7432233604441
 21
141.7012147848734
 31
0.0
  0
LINE
  5
9EBC
330
1A
100
AcDbEntity
  8
SEIHIN
  6
Continuous
 62
     3
 48
5.0
100
AcDbLine
 10
462.5265233604442
 20
137.2012147848734
 30
0.0
 11
462.5265233604442
 21
141.7012147848734
 31
0.0
  0
ARC
  5
9EBD
330
1A
100
AcDbEntity
  8
SEIHIN
  6
Continuous
 62
     3
 48
5.0
100
AcDbCircle
 10
460.1148233606616
 20
141.7012647848734
 30
0.0
 40
8.088181618569974
100
AcDbArc
 50
134.6911895971241
 51
225.3088104028757
  0
LINE
  5
9EBE
330
1A
100
AcDbEntity
  8
SEIHIN
  6
Continuous
 62
     3
 48
5.0
100
AcDbLine
 10
454.4265233604442
 20
135.9512147848734
 30
0.0
 11
454.4265233604442
 21
147.4512147848734
 31
0.0
  0
LINE
  5
9EBF
330
1A
100
AcDbEntity
  8
SEIHIN
  6
Continuous
 62
     3
 48
5.0
100
AcDbLine
 10
459.5265233604442
 20
135.7012147848735
 30
0.0
 11
459.5265233604442
 21
147.7012147848734
 31
0.0
  0
LINE
  5
9EC0
330
1A
100
AcDbEntity
  8
SEIHIN
  6
Continuous
 62
     3
 48
5.0
100
AcDbLine
 10
461.0265233604442
 20
135.7012147848735
 30
0.0
 11
461.0265233604442
 21
147.7012147848734
 31
0.0
  0
ARC
  5
9EC1
330
1A
100
AcDbEntity
  8
SEIHIN
  6
Continuous
 62
     3
 48
5.0
100
AcDbCircle
 10
454.526507559544
 20
134.4898874171424
 30
0.0
 40
2.500015801049971
100
AcDbArc
 50
300.0002090727405
 51
0.0006272182287705
  0
ARC
  5
9EC2
330
1A
100
AcDbEntity
  8
SEIHIN
  6
Continuous
 62
     3
 48
5.0
100
AcDbCircle
 10
449.0265247591946
 20
134.2012172075805
 30
0.0
 40
7.999998601250067
100
AcDbArc
 50
299.9999942162114
 51
359.9999826486353
  0
ARC
  5
9EC3
330
1A
100
AcDbEntity
  8
SEIHIN
  6
Continuous
 62
     3
 48
5.0
100
AcDbCircle
 10
454.5265288605047
 20
134.4899243113974
 30
0.0
 40
0.4999945000302841
100
AcDbArc
 50
299.9996361095884
 51
359.9989083287599
  0
LINE
  5
9EC4
330
1A
100
AcDbEntity
  8
SEIHIN
  6
Continuous
 62
     3
 48
5.0
100
AcDbLine
 10
455.0265233604442
 20
135.9512147848734
 30
0.0
 11
454.4265233604442
 21
135.9512147848734
 31
0.0
  0
ARC
  5
9EC5
330
1A
100
AcDbEntity
  8
SEIHIN
  6
Continuous
 62
     3
 48
5.0
100
AcDbCircle
 10
464.535123095281
 20
135.7626136317609
 30
0.0
 40
0.4999571081596893
100
AcDbArc
 50
108.4348782053179
 51
225.6644333804697
  0
LINE
  5
9EC6
330
1A
100
AcDbEntity
  8
SEIHIN
  6
Continuous
 62
     3
 48
5.0
100
AcDbLine
 10
457.0296233604441
 20
132.2012147848734
 30
0.0
 11
459.5296233604441
 21
132.2012147848734
 31
0.0
  0
LINE
  5
9EC7
330
1A
100
AcDbEntity
  8
SEIHIN
  6
Continuous
 62
     3
 48
5.0
100
AcDbLine
 10
461.0265233604442
 20
135.7012147848735
 30
0.0
 11
459.5265233604442
 21
135.7012147848735
 31
0.0
  0
LINE
  5
9EC8
330
1A
100
AcDbEntity
  8
SEIHIN
  6
Continuous
 62
     3
 48
5.0
100
AcDbLine
 10
462.5265233604442
 20
137.2012147848734
 30
0.0
 11
461.0265233604442
 21
137.2012147848734
 31
0.0
  0
LINE
  5
9EC9
330
1A
100
AcDbEntity
  8
SEIHIN
  6
Continuous
 62
     3
 48
5.0
100
AcDbLine
 10
455.0265233604442
 20
147.4512147848734
 30
0.0
 11
454.4265233604442
 21
147.4512147848734
 31
0.0
  0
ARC
  5
9ECA
330
1A
100
AcDbEntity
  8
SEIHIN
  6
Continuous
 62
     3
 48
5.0
100
AcDbCircle
 10
464.535135549042
 20
147.6398617880931
 30
0.0
 40
0.5000045436261178
100
AcDbArc
 50
134.332250885902
 51
251.5654293949822
  0
LINE
  5
9ECB
330
1A
100
AcDbEntity
  8
SEIHIN
  6
Continuous
 62
     3
 48
5.0
100
AcDbLine
 10
461.0265233604442
 20
142.2012147848734
 30
0.0
 11
459.5265233604442
 21
142.2012147848734
 31
0.0
  0
LINE
  5
9ECC
330
1A
100
AcDbEntity
  8
SEIHIN
  6
Continuous
 62
     3
 48
5.0
100
AcDbLine
 10
461.0265233604442
 20
147.7012147848734
 30
0.0
 11
459.5265233604442
 21
147.7012147848734
 31
0.0
  0
LINE
  5
9ECD
330
1A
100
AcDbEntity
  8
SEIHIN
  6
Continuous
 62
     3
 48
5.0
100
AcDbLine
 10
462.5265233604442
 20
146.2012147848734
 30
0.0
 11
461.0265233604442
 21
146.2012147848734
 31
0.0
  0
LINE
  5
9ECE
330
1A
100
AcDbEntity
  8
SEIHIN
  6
Continuous
 62
     3
 48
5.0
100
AcDbLine
 10
461.0265233604442
 20
141.2012147848734
 30
0.0
 11
459.5265233604442
 21
141.2012147848734
 31
0.0
  0
LINE
  5
9ECF
330
1A
100
AcDbEntity
  8
SEIHIN
  6
Continuous
 62
     3
 48
5.0
100
AcDbLine
 10
462.5265233604442
 20
146.2012147848734
 30
0.0
 11
462.5265233604442
 21
141.7012147848734
 31
0.0
  0
ARC
  5
9ED0
330
1A
100
AcDbEntity
  8
SEIHIN
  6
Continuous
 62
     3
 48
5.0
100
AcDbCircle
 10
474.429168264324
 20
156.1105005415604
 30
0.0
 40
19.99990051855494
100
AcDbArc
 50
243.5680582455017
 51
261.23407998083
  0
ARC
  5
9ED1
330
1A
100
AcDbEntity
  8
SEIHIN
  6
Continuous
 62
     3
 48
5.0
100
AcDbCircle
 10
474.4288564251204
 20
156.1106014850815
 30
0.0
 40
21.49995106929111
100
AcDbArc
 50
245.7619893824691
 51
258.2520540418068
  0
ARC
  5
9ED2
330
1A
100
AcDbEntity
  8
SEIHIN
  6
Continuous
 62
     3
 48
5.0
100
AcDbCircle
 10
465.3973175262457
 20
136.0500150802935
 30
0.0
 40
0.4999539729066834
100
AcDbArc
 50
65.76692820195206
 51
108.4343252285546
  0
ARC
  5
9ED3
330
1A
100
AcDbEntity
  8
SEIHIN
  6
Continuous
 62
     3
 48
5.0
100
AcDbCircle
 10
470.2863282127229
 20
132.2139181959389
 30
0.0
 40
0.9999573965967157
100
AcDbArc
 50
266.9098499952132
 51
343.3026839400127
  0
ARC
  5
9ED4
330
1A
100
AcDbEntity
  8
SEIHIN
  6
Continuous
 62
     3
 48
5.0
100
AcDbCircle
 10
469.9495208187303
 20
134.5714190520029
 30
0.0
 40
0.49996982908759
100
AcDbArc
 50
343.3080546605829
 51
78.25142682721756
  0
ARC
  5
9ED5
330
1A
100
AcDbEntity
  8
SEIHIN
  6
Continuous
 62
     3
 48
5.0
100
AcDbCircle
 10
469.5645045517873
 20
133.2882027446677
 30
0.0
 40
0.5000094549856375
100
AcDbArc
 50
261.9544836462999
 51
343.2994038706979
  0
LINE
  5
9ED6
330
1A
100
AcDbEntity
  8
SEIHIN
  6
Continuous
 62
     3
 48
5.0
100
AcDbLine
 10
470.0434233604441
 20
133.1445147848735
 30
0.0
 11
470.4284233604442
 21
134.4278147848735
 31
0.0
  0
ARC
  5
9ED7
330
1A
100
AcDbEntity
  8
SEIHIN
  6
Continuous
 62
     3
 48
5.0
100
AcDbCircle
 10
471.2289161904573
 20
135.3558261405435
 30
0.0
 40
0.9999711945726518
100
AcDbArc
 50
343.3024458438143
 51
81.23329403872802
  0
LINE
  5
9ED8
330
1A
100
AcDbEntity
  8
SEIHIN
  6
Continuous
 62
     3
 48
5.0
100
AcDbLine
 10
471.2441233604442
 20
131.9266147848734
 30
0.0
 11
472.1867233604441
 21
135.0685147848734
 31
0.0
  0
ARC
  5
9ED9
330
1A
100
AcDbEntity
  8
SEIHIN
  6
Continuous
 62
     3
 48
5.0
100
AcDbCircle
 10
474.4290652737736
 20
127.2918959186344
 30
0.0
 40
21.50002508541914
100
AcDbArc
 50
101.7484734108921
 51
114.2382399292709
  0
ARC
  5
9EDA
330
1A
100
AcDbEntity
  8
SEIHIN
  6
Continuous
 62
     3
 48
5.0
100
AcDbCircle
 10
474.4291497848407
 20
127.29192316646
 30
0.0
 40
19.99998708813918
100
AcDbArc
 50
98.76553834691272
 51
116.4317593520936
  0
ARC
  5
9EDB
330
1A
100
AcDbEntity
  8
SEIHIN
  6
Continuous
 62
     3
 48
5.0
100
AcDbCircle
 10
465.3971872953211
 20
147.3525078907752
 30
0.0
 40
0.5000014236469391
100
AcDbArc
 50
251.5832167962035
 51
294.2469904888773
  0
ARC
  5
9EDC
330
1A
100
AcDbEntity
  8
SEIHIN
  6
Continuous
 62
     3
 48
5.0
100
AcDbCircle
 10
469.9495307925482
 20
148.8310272649013
 30
0.0
 40
0.4999841947320085
100
AcDbArc
 50
281.7470633945582
 51
16.70141199542887
  0
LINE
  5
9EDD
330
1A
100
AcDbEntity
  8
SEIHIN
  6
Continuous
 62
     3
 48
5.0
100
AcDbLine
 10
473.0265233604442
 20
144.2012147848734
 30
0.0
 11
465.5265233604442
 21
144.2012147848734
 31
0.0
  0
LINE
  5
9EDE
330
1A
100
AcDbEntity
  8
SEIHIN
  6
Continuous
 62
     3
 48
5.0
100
AcDbLine
 10
473.0265233604442
 20
143.4012147848735
 30
0.0
 11
465.5265233604442
 21
143.4012147848735
 31
0.0
  0
ARC
  5
9EDF
330
1A
100
AcDbEntity
  8
SEIHIN
  6
Continuous
 62
     3
 48
5.0
100
AcDbCircle
 10
471.2288812147369
 20
148.0466480365412
 30
0.0
 40
1.000020611857536
100
AcDbArc
 50
278.7682969422697
 51
16.70001827117794
  0
LINE
  5
9EE0
330
1A
100
AcDbEntity
  8
SEIHIN
  6
Continuous
 62
     3
 48
5.0
100
AcDbLine
 10
465.5265233604442
 20
141.7012147848734
 30
0.0
 11
465.5265233604442
 21
138.2012147848734
 31
0.0
  0
LINE
  5
9EE1
330
1A
100
AcDbEntity
  8
SEIHIN
  6
Continuous
 62
     3
 48
5.0
100
AcDbLine
 10
473.0265233604442
 20
139.2012147848735
 30
0.0
 11
465.5265233604442
 21
139.2012147848735
 31
0.0
  0
LINE
  5
9EE2
330
1A
100
AcDbEntity
  8
SEIHIN
  6
Continuous
 62
     3
 48
5.0
100
AcDbLine
 10
473.0265233604442
 20
140.0012147848734
 30
0.0
 11
465.5265233604442
 21
140.0012147848734
 31
0.0
  0
LINE
  5
9EE3
330
1A
100
AcDbEntity
  8
SEIHIN
  6
Continuous
 62
     3
 48
5.0
100
AcDbLine
 10
473.0265233604442
 20
139.2012147848735
 30
0.0
 11
473.0265233604442
 21
144.2012147848734
 31
0.0
  0
LINE
  5
9EE4
330
1A
100
AcDbEntity
  8
SEIHIN
  6
Continuous
 62
     3
 48
5.0
100
AcDbLine
 10
465.5265233604442
 20
141.7012147848734
 30
0.0
 11
465.5265233604442
 21
145.2012147848734
 31
0.0
  0
LINE
  5
9EE5
330
1A
100
AcDbEntity
  8
SEIHIN
  6
Continuous
 62
     3
 48
5.0
100
AcDbLine
 10
444.3152233604442
 20
159.7012147848734
 30
0.0
 11
454.5265233604442
 21
159.7012147848734
 31
0.0
  0
LINE
  5
9EE6
330
1A
100
AcDbEntity
  8
SEIHIN
  6
Continuous
 62
     3
 48
5.0
100
AcDbLine
 10
444.3152233604442
 20
157.7012147848734
 30
0.0
 11
454.5265233604442
 21
157.7012147848734
 31
0.0
  0
LINE
  5
9EE7
330
1A
100
AcDbEntity
  8
SEIHIN
  6
Continuous
 62
     3
 48
5.0
100
AcDbLine
 10
443.882123360444
 20
157.4512147848735
 30
0.0
 11
440.0265233604442
 21
150.7730147848735
 31
0.0
  0
LINE
  5
9EE8
330
1A
100
AcDbEntity
  8
SEIHIN
  6
Continuous
 62
     3
 48
5.0
100
AcDbLine
 10
442.1501233604442
 20
158.4512147848734
 30
0.0
 11
438.2944233604442
 21
151.7730147848735
 31
0.0
  0
LINE
  5
9EE9
330
1A
100
AcDbEntity
  8
SEIHIN
  6
Continuous
 62
     3
 48
5.0
100
AcDbLine
 10
438.2944233604442
 20
151.7730147848735
 30
0.0
 11
440.0265233604442
 21
150.7730147848735
 31
0.0
  0
ARC
  5
9EEA
330
1A
100
AcDbEntity
  8
SEIHIN
  6
Continuous
 62
     3
 48
5.0
100
AcDbCircle
 10
444.3151578918121
 20
157.2011769827313
 30
0.0
 40
0.5000378064279418
100
AcDbArc
 50
89.99249841457512
 51
149.9974994715148
  0
ARC
  5
9EEB
330
1A
100
AcDbEntity
  8
SEIHIN
  6
Continuous
 62
     3
 48
5.0
100
AcDbCircle
 10
444.315195992713
 20
157.2011989839733
 30
0.0
 40
2.500015801049927
100
AcDbArc
 50
89.99937278176675
 51
149.9997909272552
  0
ARC
  5
9EEC
330
1A
100
AcDbEntity
  8
SEIHIN
  6
Continuous
 62
     3
 48
5.0
100
AcDbCircle
 10
454.5265233604442
 20
157.2012147848734
 30
0.0
 40
2.499999999999972
100
AcDbArc
 50
0.0000000000008142
 51
90.0
  0
ARC
  5
9EED
330
1A
100
AcDbEntity
  8
SEIHIN
  6
Continuous
 62
     3
 48
5.0
100
AcDbCircle
 10
454.5265233604442
 20
157.2012147848734
 30
0.0
 40
0.4999999999999716
100
AcDbArc
 50
0.0000000000032569
 51
90.00000000000325
  0
ARC
  5
9EEE
330
1A
100
AcDbEntity
  8
SEIHIN
  6
Continuous
 62
     3
 48
5.0
100
AcDbCircle
 10
469.5645045517873
 20
150.1143268250793
 30
0.0
 40
0.5000094549856506
100
AcDbArc
 50
16.70059612930211
 51
98.04551635370007
  0
ARC
  5
9EEF
330
1A
100
AcDbEntity
  8
SEIHIN
  6
Continuous
 62
     3
 48
5.0
100
AcDbCircle
 10
470.2862811637939
 20
151.1885444455159
 30
0.0
 40
1.000021692577919
100
AcDbArc
 50
16.70021450069631
 51
93.0872515640736
  0
LINE
  5
9EF0
330
1A
100
AcDbEntity
  8
SEIHIN
  6
Continuous
 62
     3
 48
5.0
100
AcDbLine
 10
436.374423360444
 20
215.8873147848734
 30
0.0
 11
423.4159233604442
 21
259.0805147848735
 31
0.0
  0
LINE
  5
9EF1
330
1A
100
AcDbEntity
  8
SEIHIN
  6
Continuous
 62
     3
 48
5.0
100
AcDbLine
 10
421.0214233604441
 20
258.3621147848734
 30
0.0
 11
433.9798233604442
 21
215.1690147848734
 31
0.0
  0
LINE
  5
9EF2
330
1A
100
AcDbEntity
  8
SEIHIN
  6
Continuous
 62
     3
 48
5.0
100
AcDbLine
 10
438.7689233604441
 20
216.6057147848734
 30
0.0
 11
425.8105233604442
 21
259.7989147848733
 31
0.0
  0
LINE
  5
9EF3
330
1A
100
AcDbEntity
  8
SEIHIN
  6
Continuous
 62
     3
 48
5.0
100
AcDbLine
 10
456.4886233604441
 20
215.1567147848734
 30
0.0
 11
439.4936233604443
 21
213.7595147848734
 31
0.0
  0
LINE
  5
9EF4
330
1A
100
AcDbEntity
  8
SEIHIN
  6
Continuous
 62
     3
 48
5.0
100
AcDbLine
 10
439.2888233604442
 20
216.2511147848734
 30
0.0
 11
456.2838233604442
 21
217.6483147848734
 31
0.0
  0
ARC
  5
9EF5
330
1A
100
AcDbEntity
  8
SEIHIN
  6
Continuous
 62
     3
 48
5.0
100
AcDbCircle
 10
447.5260588001016
 20
216.9283384199559
 30
0.0
 40
4.999971100501353
100
AcDbArc
 50
272.6992390440452
 51
334.6994084756257
  0
LINE
  5
9EF6
330
1A
100
AcDbEntity
  8
SEIHIN
  6
PHANTOM
 62
     6
 48
5.0
100
AcDbLine
 10
424.7089233604441
 20
211.6206147848734
 30
0.0
 11
458.3954233604442
 21
221.7269147848735
 31
0.0
  0
ARC
  5
9EF7
330
1A
100
AcDbEntity
  8
SEIHIN
  6
PHANTOM
 62
     6
 48
5.0
100
AcDbCircle
 10
426.2894233604441
 20
206.3526147848733
 30
0.0
 40
3.000036443111926
100
AcDbArc
 50
106.700158879609
 51
196.7001588796091
  0
ARC
  5
9EF8
330
1A
100
AcDbEntity
  8
SEIHIN
  6
PHANTOM
 62
     6
 48
5.0
100
AcDbCircle
 10
426.2893912512939
 20
206.3525551514797
 30
0.0
 40
5.500030095826675
100
AcDbArc
 50
106.6997431432319
 51
196.6994437878971
  0
ARC
  5
9EF9
330
1A
100
AcDbEntity
  8
SEIHIN
  6
PHANTOM
 62
     6
 48
5.0
100
AcDbCircle
 10
426.2894233604444
 20
206.3526147848735
 30
0.0
 40
0.4999948999740417
100
AcDbArc
 50
106.7025370318054
 51
196.7025370318054
  0
LINE
  5
9EFA
330
1A
100
AcDbEntity
  8
SEIHIN
  6
Continuous
 62
     3
 48
5.0
100
AcDbLine
 10
439.6985233604441
 20
211.2679147848734
 30
0.0
 11
447.9357233604442
 21
211.9451147848734
 31
0.0
  0
ARC
  5
9EFB
330
1A
100
AcDbEntity
  8
SEIHIN
  6
Continuous
 62
     3
 48
5.0
100
AcDbCircle
 10
439.2478161337918
 20
216.7494197139863
 30
0.0
 40
0.4999893949035356
100
AcDbArc
 50
196.703316054759
 51
274.7044660116304
  0
ARC
  5
9EFC
330
1A
100
AcDbEntity
  8
SEIHIN
  6
Continuous
 62
     3
 48
5.0
100
AcDbCircle
 10
439.2478522737886
 20
216.7493950613961
 30
0.0
 40
5.499975495423001
100
AcDbArc
 50
196.6989608805843
 51
274.7001180837484
  0
ARC
  5
9EFD
330
1A
100
AcDbEntity
  8
SEIHIN
  6
Continuous
 62
     3
 48
5.0
100
AcDbCircle
 10
439.2478777552456
 20
216.7493776796072
 30
0.0
 40
2.999953364787832
100
AcDbArc
 50
196.6979010633691
 51
274.7006496472765
  0
LINE
  5
9EFE
330
1A
100
AcDbEntity
  8
SEIHIN
  6
PHANTOM
 62
     6
 48
5.0
100
AcDbLine
 10
475.3121233604442
 20
215.2088147848735
 30
0.0
 11
471.474523360444
 21
228.0001147848734
 31
0.0
  0
ARC
  5
9EFF
330
1A
100
AcDbEntity
  8
SEIHIN
  6
Continuous
 62
     3
 48
5.0
100
AcDbCircle
 10
456.5296341521496
 20
214.6584048436173
 30
0.0
 40
2.999989208310966
100
AcDbArc
 50
0.0001898646889126
 51
94.69800991625671
  0
ARC
  5
9F00
330
1A
100
AcDbEntity
  8
SEIHIN
  6
Continuous
 62
     3
 48
5.0
100
AcDbCircle
 10
456.5296314155738
 20
214.6584073652973
 30
0.0
 40
0.4999919449252825
100
AcDbArc
 50
0.0008502344952057
 51
94.70453722316734
  0
ARC
  5
9F01
330
1A
100
AcDbEntity
  8
SEIHIN
  6
PHANTOM
 62
     6
 48
5.0
100
AcDbCircle
 10
459.8320960337072
 20
216.9379212447807
 30
0.0
 40
4.999973264967866
100
AcDbArc
 50
46.69915134609865
 51
106.699733884209
  0
LINE
  5
9F02
330
1A
100
AcDbEntity
  8
SEIHIN
  6
Continuous
 62
     3
 48
5.0
100
AcDbLine
 10
424.7089233604441
 20
265.2106147848733
 30
0.0
 11
458.3954233604442
 21
275.3169147848735
 31
0.0
  0
ARC
  5
9F03
330
1A
100
AcDbEntity
  8
SEIHIN
  6
Continuous
 62
     3
 48
5.0
100
AcDbCircle
 10
426.2893912512939
 20
259.9425551514796
 30
0.0
 40
5.500030095826675
100
AcDbArc
 50
106.6997431432319
 51
196.6994437878971
  0
ARC
  5
9F04
330
1A
100
AcDbEntity
  8
SEIHIN
  6
Continuous
 62
     3
 48
5.0
100
AcDbCircle
 10
426.2894233604442
 20
259.9426147848733
 30
0.0
 40
3.000036443111926
100
AcDbArc
 50
106.700158879609
 51
196.7001588796091
  0
ARC
  5
9F05
330
1A
100
AcDbEntity
  8
SEIHIN
  6
Continuous
 62
     3
 48
5.0
100
AcDbCircle
 10
426.2894233604443
 20
259.9426147848734
 30
0.0
 40
0.4999948999740417
100
AcDbArc
 50
106.7025370318054
 51
196.7025370318054
  0
ARC
  5
9F06
330
1A
100
AcDbEntity
  8
SEIHIN
  6
Continuous
 62
     3
 48
5.0
100
AcDbCircle
 10
459.8320960337072
 20
270.5279212447806
 30
0.0
 40
4.999973264967866
100
AcDbArc
 50
46.69915134609865
 51
106.699733884209
  0
LINE
  5
9F07
330
1A
100
AcDbEntity
  8
CENTER L
  6
CENTER
 62
     1
 48
5.0
100
AcDbLine
 10
475.3121233604442
 20
268.7988147848735
 30
0.0
 11
471.474523360444
 21
281.5901147848733
 31
0.0
  0
LINE
  5
9F08
330
1A
100
AcDbEntity
  8
SEIHIN
  6
PHANTOM
 62
     6
 48
5.0
100
AcDbLine
 10
523.2032233604443
 20
229.5769147848733
 30
0.0
 11
519.365623360444
 21
242.3681147848733
 31
0.0
  0
LINE
  5
9F09
330
1A
100
AcDbEntity
  8
SEIHIN
  6
PHANTOM
 62
     6
 48
5.0
100
AcDbLine
 10
578.9184233604442
 20
252.6653147848735
 30
0.0
 11
578.200023360444
 21
255.0600147848735
 31
0.0
  0
LINE
  5
9F0A
330
1A
100
AcDbEntity
  8
SEIHIN
  6
PHANTOM
 62
     6
 48
5.0
100
AcDbLine
 10
571.0943233604442
 20
243.9449147848734
 30
0.0
 11
567.2567233604443
 21
256.7362147848735
 31
0.0
  0
LINE
  5
9F0B
330
1A
100
AcDbEntity
  8
CENTER L
  6
CENTER
 62
     1
 48
5.0
100
AcDbLine
 10
568.6217233604443
 20
467.5312442146087
 30
0.0
 11
568.6217233604443
 21
477.0467442146089
 31
0.0
  0
LINE
  5
9F0C
330
1A
100
AcDbEntity
  8
CENTER L
  6
CENTER
 62
     1
 48
5.0
100
AcDbLine
 10
520.7306233604443
 20
467.5312442146087
 30
0.0
 11
520.7306233604443
 21
477.0467442146089
 31
0.0
  0
LINE
  5
9F0D
330
1A
100
AcDbEntity
  8
CENTER L
  6
CENTER
 62
     1
 48
5.0
100
AcDbLine
 10
472.8394233604442
 20
467.5312442146087
 30
0.0
 11
472.8394233604442
 21
477.0467442146089
 31
0.0
  0
ARC
  5
9F0E
330
1A
100
AcDbEntity
  8
SEIHIN
  6
Continuous
 62
     3
 48
5.0
100
AcDbCircle
 10
458.2612233604442
 20
472.3223442146089
 30
0.0
 40
5.0
100
AcDbArc
 50
270.0
 51
90.0
  0
LINE
  5
9F0F
330
1A
100
AcDbEntity
  8
SEIHIN
  6
Continuous
 62
     3
 48
5.0
100
AcDbLine
 10
578.2001233604442
 20
462.8223442146087
 30
0.0
 11
578.2001233604442
 21
481.8221442146089
 31
0.0
  0
LINE
  5
9F10
330
1A
100
AcDbEntity
  8
SEIHIN
  6
Continuous
 62
     3
 48
5.0
100
AcDbLine
 10
578.9186233604441
 20
462.8223442146087
 30
0.0
 11
578.9186233604441
 21
481.8221442146089
 31
0.0
  0
DIMENSION
  5
9F11
330
1A
100
AcDbEntity
  8
SUNPOU
100
AcDbDimension
  2
*D13
 10
617.4027386934195
 20
462.8223442146087
 30
0.0
 11
612.4027386934193
 21
472.3223442146088
 31
0.0
 70
    32
 71
     5
 42
19.0
  3
STANDARD
100
AcDbAlignedDimension
 13
578.9185233604442
 23
481.8223442146087
 33
0.0
 14
578.9185233604442
 24
462.8223442146087
 34
0.0
 50
90.0
100
AcDbRotatedDimension
1001
ACAD
1000
DSTYLE
1002
{
1070
   140
1040
6.0
1070
    74
1070
     0
1070
   172
1070
     1
1070
    73
1070
     0
1070
   272
1070
     2
1070
    77
1070
     3
1070
   173
1070
     1
1070
   147
1040
2.0
1070
    42
1040
6.0
1070
    44
1040
3.0
1070
    43
1040
14.0
1070
   271
1070
     0
1070
   178
1070
     4
1070
   177
1070
     4
1070
   176
1070
     4
1070
   141
1040
150.0
1070
     7
1000
_OPEN
1070
     6
1000
_OPEN
1070
    41
1040
7.0
1002
}
  0
ARC
  5
9F12
330
1A
100
AcDbEntity
  8
SEIHIN
  6
Continuous
 62
     3
 48
5.0
100
AcDbCircle
 10
428.0138233606961
 20
472.3224942146088
 30
0.0
 40
6.249832534914913
100
AcDbArc
 50
129.0230415923034
 51
230.9769584076967
  0
DIMENSION
  5
9F13
330
1A
100
AcDbEntity
  8
SUNPOU
  6
Continuous
 62
     4
100
AcDbDimension
  2
*D14
 10
550.4366077341521
 20
401.194679263772
 30
0.0
 11
569.1141749124708
 21
406.7981143084023
 31
0.0
 70
   161
 71
     5
 42
10.0000414025634
  3
STANDARD
100
AcDbAlignedDimension
 13
547.2759782319924
 23
376.9295746601381
 33
0.0
 14
556.8542574669846
 24
379.8031429905421
 34
0.0
1001
ACAD
1000
DSTYLE
1002
{
1070
   288
1070
     1
1070
   140
1040
6.0
1070
    74
1070
     0
1070
   172
1070
     1
1070
    73
1070
     0
1070
   272
1070
     2
1070
    77
1070
     3
1070
   173
1070
     1
1070
   147
1040
2.0
1070
    42
1040
6.0
1070
    44
1040
3.0
1070
    43
1040
14.0
1070
   271
1070
     0
1070
   178
1070
     4
1070
   177
1070
     4
1070
   176
1070
     4
1070
   141
1040
150.0
1070
     7
1000
_OPEN
1070
     6
1000
_OPEN
1070
    41
1040
7.0
1002
}
  0
LINE
  5
9F14
330
1A
100
AcDbEntity
  8
SEIHIN
  6
Continuous
 62
     3
 48
5.0
100
AcDbLine
 10
450.4061619598565
 20
333.7733298697839
 30
0.0
 11
560.7321210504829
 21
366.8720995880593
 31
0.0
  0
LINE
  5
9F15
330
1A
100
AcDbEntity
  8
SEIHIN
  6
Continuous
 62
     3
 48
5.0
100
AcDbLine
 10
555.2722849849229
 20
385.0707887679757
 30
0.0
 11
446.0225410884193
 21
352.2948684045682
 31
0.0
  0
LINE
  5
9F16
330
1A
100
AcDbEntity
  8
CENTER L
  6
CENTER
 62
     1
 48
5.0
100
AcDbLine
 10
563.6213334402517
 20
377.657192773415
 30
0.0
 11
442.6005540965597
 21
341.3498905627658
 31
0.0
  0
ARC
  5
9F17
330
1A
100
AcDbEntity
  8
SEIHIN
  6
Continuous
 62
     3
 48
5.0
100
AcDbCircle
 10
548.4238756841353
 20
373.0978852864099
 30
0.0
 40
2.099900000000048
100
AcDbArc
 50
213.3996995997179
 51
33.3996995997182
  0
ARC
  5
9F18
330
1A
100
AcDbEntity
  8
SEIHIN
  6
Continuous
 62
     3
 48
5.0
100
AcDbCircle
 10
548.4238756841353
 20
373.0978852864099
 30
0.0
 40
2.099900000000048
100
AcDbArc
 50
33.3996995997182
 51
213.3996995997179
  0
DIMENSION
  5
9F19
330
1A
100
AcDbEntity
  8
SUNPOU
  6
Continuous
 62
     4
100
AcDbDimension
  2
*D15
 10
492.9671754533783
 20
383.9532470631716
 30
0.0
 11
515.4759421158749
 21
395.9262970396093
 31
0.0
 70
    33
 71
     5
 42
49.99994009616376
  3
STANDARD
100
AcDbAlignedDimension
 13
547.1462231605597
 23
377.3620995644453
 33
0.0
 14
499.2551130997501
 24
362.9942330991902
 34
0.0
1001
ACAD
1000
DSTYLE
1002
{
1070
   140
1040
6.0
1070
    74
1070
     0
1070
   172
1070
     1
1070
    73
1070
     0
1070
   272
1070
     2
1070
    77
1070
     3
1070
   173
1070
     1
1070
   147
1040
2.0
1070
    42
1040
6.0
1070
    44
1040
3.0
1070
    43
1040
14.0
1070
   271
1070
     0
1070
   178
1070
     4
1070
   177
1070
     4
1070
   176
1070
     4
1070
   141
1040
150.0
1070
     7
1000
_OPEN
1070
     6
1000
_OPEN
1070
    41
1040
7.0
1002
}
  0
DIMENSION
  5
9F1A
330
1A
100
AcDbEntity
  8
SUNPOU
  6
Continuous
 62
     4
100
AcDbDimension
  2
*D16
 10
445.0761372611054
 20
369.5855015645489
 30
0.0
 11
467.5848918140956
 21
381.5585043091752
 31
0.0
 70
    33
 71
     5
 42
49.9998730498221
  3
STANDARD
100
AcDbAlignedDimension
 13
499.25511309975
 23
362.9942330991901
 33
0.0
 14
451.3640432574658
 24
348.6264658975754
 34
0.0
1001
ACAD
1000
DSTYLE
1002
{
1070
   140
1040
6.0
1070
    74
1070
     0
1070
   172
1070
     1
1070
    73
1070
     0
1070
   272
1070
     2
1070
    77
1070
     3
1070
   173
1070
     1
1070
   147
1040
2.0
1070
    42
1040
6.0
1070
    44
1040
3.0
1070
    43
1040
14.0
1070
   271
1070
     0
1070
   178
1070
     4
1070
   177
1070
     4
1070
   176
1070
     4
1070
   141
1040
150.0
1070
     7
1000
_OPEN
1070
     6
1000
_OPEN
1070
    41
1040
7.0
1002
}
  0
ARC
  5
9F1B
330
1A
100
AcDbEntity
  8
SEIHIN
  6
Continuous
 62
     3
 48
5.0
100
AcDbCircle
 10
452.6418225326659
 20
344.3622624511721
 30
0.0
 40
2.10000000000008
100
AcDbArc
 50
33.3996995997182
 51
213.3996995997179
  0
LINE
  5
9F1C
330
1A
100
AcDbEntity
  8
CENTER L
  6
CENTER
 62
     1
 48
5.0
100
AcDbLine
 10
451.3640314763786
 20
348.626505166646
 30
0.0
 11
453.9874961391244
 21
339.8818945650627
 31
0.0
  0
ARC
  5
9F1D
330
1A
100
AcDbEntity
  8
SEIHIN
  6
Continuous
 62
     3
 48
5.0
100
AcDbCircle
 10
452.6418225326659
 20
344.3622624511721
 30
0.0
 40
2.10000000000008
100
AcDbArc
 50
213.3996995997179
 51
33.3996995997182
  0
ARC
  5
9F1E
330
1A
100
AcDbEntity
  8
SEIHIN
  6
Continuous
 62
     3
 48
5.0
100
AcDbCircle
 10
500.5328491084006
 20
358.730073868791
 30
0.0
 40
2.100000000000023
100
AcDbArc
 50
33.3996995997182
 51
213.3996995997179
  0
ARC
  5
9F1F
330
1A
100
AcDbEntity
  8
SEIHIN
  6
Continuous
 62
     3
 48
5.0
100
AcDbCircle
 10
500.5328491084006
 20
358.730073868791
 30
0.0
 40
2.100000000000023
100
AcDbArc
 50
213.3996995997179
 51
33.3996995997182
  0
LINE
  5
9F20
330
1A
100
AcDbEntity
  8
CENTER L
  6
CENTER
 62
     1
 48
5.0
100
AcDbLine
 10
499.25511309975
 20
362.9942330991901
 30
0.0
 11
501.8785227148592
 21
354.2497059826816
 31
0.0
  0
LINE
  5
9F21
330
1A
100
AcDbEntity
  8
SEIHIN
  6
Continuous
 62
     3
 48
5.0
100
AcDbLine
 10
424.2638233604442
 20
467.3224442146088
 30
0.0
 11
458.2611233604442
 21
467.3223442146089
 31
0.0
  0
LINE
  5
9F22
330
1A
100
AcDbEntity
  8
SEIHIN
  6
Continuous
 62
     3
 48
5.0
100
AcDbLine
 10
424.2638233604442
 20
462.8223442146087
 30
0.0
 11
424.263923360444
 21
467.0785442146089
 31
0.0
  0
ARC
  5
9F23
330
1A
100
AcDbEntity
  8
SEIHIN
  6
Continuous
 62
     3
 48
5.0
100
AcDbCircle
 10
423.7639077159336
 20
467.0785770270586
 30
0.0
 40
0.5000156455870499
100
AcDbArc
 50
359.9962400878745
 51
50.97852800592231
  0
ARC
  5
9F24
330
1A
100
AcDbEntity
  8
SEIHIN
  6
Continuous
 62
     3
 48
5.0
100
AcDbCircle
 10
472.7486233603929
 20
472.3227942146089
 30
0.0
 40
2.101512513050965
100
AcDbArc
 50
272.4763482522914
 51
87.52365174770863
  0
ARC
  5
9F25
330
1A
100
AcDbEntity
  8
SEIHIN
  6
Continuous
 62
     3
 48
5.0
100
AcDbCircle
 10
473.6486233606989
 20
472.3227942146089
 30
0.0
 40
2.101495315895154
100
AcDbArc
 50
102.3646813625506
 51
257.6353186374494
  0
ARC
  5
9F26
330
1A
100
AcDbEntity
  8
SEIHIN
  6
Continuous
 62
     3
 48
5.0
100
AcDbCircle
 10
472.9302233604956
 20
472.3227942146089
 30
0.0
 40
2.101512513050965
100
AcDbArc
 50
92.47634825229136
 51
267.5236517477087
  0
ARC
  5
9F27
330
1A
100
AcDbEntity
  8
SEIHIN
  6
Continuous
 62
     3
 48
5.0
100
AcDbCircle
 10
520.6398233616305
 20
472.3227963781676
 30
0.0
 40
2.101514674535867
100
AcDbArc
 50
272.4763456699132
 51
87.52092537485949
  0
ARC
  5
9F28
330
1A
100
AcDbEntity
  8
SEIHIN
  6
Continuous
 62
     3
 48
5.0
100
AcDbCircle
 10
521.5398233615504
 20
472.3227832549206
 30
0.0
 40
2.101484610606439
100
AcDbArc
 50
102.3619541984905
 51
257.6352546296936
  0
ARC
  5
9F29
330
1A
100
AcDbEntity
  8
SEIHIN
  6
Continuous
 62
     3
 48
5.0
100
AcDbCircle
 10
520.8214233616307
 20
472.3227920534314
 30
0.0
 40
2.101510353940826
100
AcDbArc
 50
92.47362187384354
 51
267.5236491709277
  0
LINE
  5
9F2A
330
1A
100
AcDbEntity
  8
SEIHIN
  6
Continuous
 62
     3
 48
5.0
100
AcDbLine
 10
560.7335100320772
 20
366.8725363146677
 30
0.0
 11
555.2738124992281
 21
385.0711970571456
 31
0.0
  0
DIMENSION
  5
9F2B
330
1A
100
AcDbEntity
  8
SUNPOU
  6
Continuous
 62
     4
100
AcDbDimension
  2
*D17
 10
582.5183258401788
 20
373.4081549399735
 30
0.0
 11
584.5775583855569
 21
383.9442873307285
 31
0.0
 70
    33
 71
     5
 42
19.0000552032314
  3
STANDARD
100
AcDbAlignedDimension
 13
555.2722849849229
 23
385.0707887679758
 33
0.0
 14
560.7320592816141
 24
366.872081056849
 34
0.0
1001
ACAD
1000
DSTYLE
1002
{
1070
   140
1040
6.0
1070
    74
1070
     0
1070
   172
1070
     1
1070
    73
1070
     0
1070
   272
1070
     2
1070
    77
1070
     3
1070
   173
1070
     1
1070
   147
1040
2.0
1070
    42
1040
6.0
1070
    44
1040
3.0
1070
    43
1040
14.0
1070
   271
1070
     0
1070
   178
1070
     4
1070
   177
1070
     4
1070
   176
1070
     4
1070
   141
1040
150.0
1070
     7
1000
_OPEN
1070
     6
1000
_OPEN
1070
    41
1040
7.0
1002
}
  0
LINE
  5
9F2C
330
1A
100
AcDbEntity
  8
SUNPOU
  6
Continuous
 62
     4
 48
5.0
100
AcDbLine
 10
596.1394168286756
 20
314.0315270857639
 30
0.0
 11
634.0786102969071
 21
325.4144573190288
 31
0.0
  0
LINE
  5
9F2D
330
1A
100
AcDbEntity
  8
CENTER L
  6
CENTER
 62
     1
 48
5.0
100
AcDbLine
 10
571.0943233604442
 20
297.5349147848733
 30
0.0
 11
567.2567233604443
 21
310.3262147848734
 31
0.0
  0
LINE
  5
9F2E
330
1A
100
AcDbEntity
  8
SEIHIN
  6
Continuous
 62
     3
 48
5.0
100
AcDbLine
 10
578.9184233604442
 20
306.2553147848735
 30
0.0
 11
578.200023360444
 21
308.6500147848734
 31
0.0
  0
LEADER
  5
9F2F
330
1A
100
AcDbEntity
  8
SUNPOU
  6
Continuous
 62
     4
100
AcDbLeader
  3
STANDARD
 74
     0
 40
6.0
 41
31.2
 76
     3
 10
549.5798209987818
 20
371.3447821977278
 30
0.0
 10
565.7850930360883
 20
344.4020782864113
 30
0.0
 10
567.2353098525559
 20
344.4020782864113
 30
0.0
1001
ACAD
1000
DSTYLE
1002
{
1070
     6
1000
OPEN
1070
    41
1040
7.0
1070
    42
1040
6.0
1070
    43
1040
14.0
1070
    44
1040
3.0
1070
    73
1070
     0
1070
    74
1070
     0
1070
    77
1070
     3
1070
   140
1040
6.0
1070
   141
1040
150.0
1070
   147
1040
2.0
1070
   172
1070
     1
1070
   173
1070
     1
1070
   176
1070
     4
1070
   177
1070
     4
1070
   178
1070
     4
1070
   271
1070
     0
1070
   272
1070
     2
1070
   341
1005
6D
1070
   343
1005
6D
1070
   344
1005
6D
1002
}
  0
MTEXT
  5
9F30
330
1A
100
AcDbEntity
  8
SUNPOU
  6
Continuous
 62
     4
100
AcDbMText
 10
569.2353098525559
 20
346.4020782864113
 30
0.0
 40
6.0
 41
0.0
 71
     7
 72
     5
  1
3-φ4.2
 73
     1
 44
1.0
  0
LINE
  5
9F31
330
1A
100
AcDbEntity
  8
CENTER L
  6
CENTER
 62
     1
 48
5.0
100
AcDbLine
 10
547.1462231605594
 20
377.3620995644452
 30
0.0
 11
549.7695492905939
 21
368.6175174003005
 31
0.0
  0
TEXT
  5
9F32
330
1A
100
AcDbEntity
  8
SUNPOU
100
AcDbText
 10
622.3176769240677
 20
310.5511216413468
 30
0.0
 40
6.0
  1
10
100
AcDbText
  0
LINE
  5
9F33
330
1A
100
AcDbEntity
  8
SUNPOU
  6
Continuous
 62
     4
100
AcDbLine
 10
614.0786102969071
 20
319.4138393866541
 30
0.0
 11
634.0786102969071
 21
319.4138393866541
 31
0.0
  0
TEXT
  5
9F34
330
1A
100
AcDbEntity
  8
SUNPOU
100
AcDbText
 10
637.2414385186594
 20
319.6719975002907
 30
0.0
 40
6.0
  1
3
100
AcDbText
  0
LINE
  5
9F35
330
1A
100
AcDbEntity
  8
SUNPOU
  6
Continuous
 62
     4
100
AcDbLine
 10
634.0786102969071
 20
325.4144573190287
 30
0.0
 11
634.0786102969071
 21
319.4138393866541
 31
0.0
  0
ARC
  5
9F36
330
1A
100
AcDbEntity
  8
SEIHIN
  6
Continuous
 62
     3
 48
5.0
100
AcDbCircle
 10
568.7127233616307
 20
472.3227920510499
 30
0.0
 40
2.101514674638438
100
AcDbArc
 50
92.47634573454133
 51
267.5209253102312
  0
ARC
  5
9F37
330
1A
100
AcDbEntity
  8
SEIHIN
  6
Continuous
 62
     3
 48
5.0
100
AcDbCircle
 10
569.4310233615504
 20
472.3227832549206
 30
0.0
 40
2.101484610606439
100
AcDbArc
 50
102.3619541984905
 51
257.6352546296936
  0
ARC
  5
9F38
330
1A
100
AcDbEntity
  8
SEIHIN
  6
Continuous
 62
     3
 48
5.0
100
AcDbCircle
 10
568.5311233616305
 20
472.3227963757862
 30
0.0
 40
2.101510353838366
100
AcDbArc
 50
272.4736218092155
 51
87.52364923555589
  0
LINE
  5
9F39
330
1A
100
AcDbEntity
  8
SEIHIN
  6
Continuous
 62
     3
 48
5.0
100
AcDbLine
 10
424.263923360444
 20
477.3224442146088
 30
0.0
 11
458.2612233604442
 21
477.3223442146089
 31
0.0
  0
ARC
  5
9F3A
330
1A
100
AcDbEntity
  8
SEIHIN
  6
Continuous
 62
     3
 48
5.0
100
AcDbCircle
 10
423.7639077159334
 20
477.566411402159
 30
0.0
 40
0.5000156455872277
100
AcDbArc
 50
309.0214719940859
 51
0.0037599121320715
  0
LINE
  5
9F3B
330
1A
100
AcDbEntity
  8
SEIHIN
  6
Continuous
 62
     3
 48
5.0
100
AcDbLine
 10
424.263923360444
 20
481.8223442146087
 30
0.0
 11
424.263923360444
 21
477.566444214609
 31
0.0
  0
VIEWPORT
  5
22
330
17
100
AcDbEntity
 67
     1
  8
0
100
AcDbViewport
 10
313.6808219178082
 20
286.420032064001
 30
0.0
 40
627.3616438356164
 41
572.840064128002
 68
     2
 69
     1
 12
313.6808219178082
 22
286.420032064001
 13
0.0
 23
0.0
 14
1.0
 24
1.0
 15
10.0
 25
10.0
 16
0.0
 26
0.0
 36
1.0
 17
0.0
 27
0.0
 37
0.0
 42
50.0
 43
0.0
 44
0.0
 45
572.840064128002
 50
0.0
 51
0.0
 72
   100
 90
    32768
  1

281
     0
 71
     1
 74
     0
110
0.0
120
0.0
130
0.0
111
1.0
121
0.0
131
0.0
112
0.0
122
1.0
132
0.0
 79
     0
146
0.0
  0
VIEWPORT
  5
64
330
17
100
AcDbEntity
 67
     1
  8
VIEWPORT
100
AcDbViewport
 10
210.0
 20
148.5
 30
0.0
 40
420.0
 41
297.0
 68
     1
 69
     2
 12
420.0
 22
297.0
 13
0.0
 23
0.0
 14
10.0
 24
10.0
 15
0.0
 25
0.0
 16
0.0
 26
0.0
 36
1.0
 17
0.0
 27
0.0
 37
0.0
 42
50.0
 43
0.0
 44
0.0
 45
605.8799999999999
 50
0.0
 51
0.0
 72
   100
 90
    32768
  1

281
     0
 71
     1
 74
     0
110
0.0
120
0.0
130
0.0
111
1.0
121
0.0
131
0.0
112
0.0
122
1.0
132
0.0
 79
     0
146
0.0
  0
ENDSEC
  0
SECTION
  2
OBJECTS
  0
DICTIONARY
  5
C
330
0
100
AcDbDictionary
281
     1
  3
ACAD_GROUP
350
D
  3
ACAD_LAYOUT
350
A98
  3
ACAD_MLINESTYLE
350
E
  3
ACAD_PLOTSETTINGS
350
A99
  3
ACAD_PLOTSTYLENAME
350
A96
  0
DICTIONARY
  5
D
102
{ACAD_REACTORS
330
C
102
}
330
C
100
AcDbDictionary
281
     1
  3
*A1
350
FA3
  3
*A2
350
1597
  3
*A3
350
179D
  3
*A4
350
3390
  3
*A5
350
3A0A
  0
DICTIONARY
  5
A98
102
{ACAD_REACTORS
330
C
102
}
330
C
100
AcDbDictionary
281
     1
  3
Model
350
A9A
  3
ﾚｲｱｳﾄ1
350
A9B
  0
DICTIONARY
  5
E
102
{ACAD_REACTORS
330
C
102
}
330
C
100
AcDbDictionary
281
     1
  3
STANDARD
350
13
  0
DICTIONARY
  5
A99
102
{ACAD_REACTORS
330
C
102
}
330
C
100
AcDbDictionary
281
     1
  0
ACDBDICTIONARYWDFLT
  5
A96
102
{ACAD_REACTORS
330
C
102
}
330
C
100
AcDbDictionary
281
     1
  3
Normal
350
A97
100
AcDbDictionaryWithDefault
340
A97
1001
ACAD
1000
TREAT_AS_HARD
1070
     0
1000
TREAT_AS_HARD
1070
     0
1000
TREAT_AS_HARD
1070
     0
1000
TREAT_AS_HARD
1070
     0
  0
GROUP
  5
FA3
102
{ACAD_REACTORS
330
D
102
}
330
D
100
AcDbGroup
300

 70
     1
 71
     1
  0
GROUP
  5
1597
102
{ACAD_REACTORS
330
D
102
}
330
D
100
AcDbGroup
300

 70
     1
 71
     1
  0
GROUP
  5
179D
102
{ACAD_REACTORS
330
D
102
}
330
D
100
AcDbGroup
300

 70
     1
 71
     1
  0
GROUP
  5
3390
102
{ACAD_REACTORS
330
D
102
}
330
D
100
AcDbGroup
300

 70
     1
 71
     1
  0
GROUP
  5
3A0A
102
{ACAD_REACTORS
330
D
102
}
330
D
100
AcDbGroup
300

 70
     1
 71
     1
  0
LAYOUT
  5
A9A
102
{ACAD_REACTORS
330
A98
102
}
330
A98
100
AcDbPlotSettings
  1

  2
Adobe PDF
  4
A3
  6

 40
3.174999952316284
 41
3.174999952316284
 42
3.17498779296875
 43
3.17498779296875
 44
297.0318298339844
 45
420.1583251953125
 46
2.67
 47
2.85
 48
-8.09872987394283
 49
-9.441603207410708
140
808.114529312747
141
561.2334822198422
142
1.0
143
2.0
 70
 28340
 72
     1
 73
     1
 74
     4
  7
systemprinter.ctb
 75
    17
147
0.5
148
8.09872987394283
149
9.441603207410708
100
AcDbLayout
  1
Model
 70
     1
 71
     0
 10
0.0
 20
0.0
 11
12.0
 21
9.0
 12
0.0
 22
0.0
 32
0.0
 14
0.0
 24
0.0
 34
0.0
 15
0.0
 25
0.0
 35
0.0
146
0.0
 13
0.0
 23
0.0
 33
0.0
 16
1.0
 26
0.0
 36
0.0
 17
0.0
 27
1.0
 37
0.0
 76
     0
330
1A
  0
LAYOUT
  5
A9B
102
{ACAD_REACTORS
330
A98
102
}
330
A98
100
AcDbPlotSettings
  1

  2
C:\PROGRAM FILES\ACAD LT 2000\plotters\DWF ePlot.pc3
  4
ANSI_A_(8.50_x_11.00_Inches)
  6

 40
5.793749809265137
 41
17.79375076293945
 42
5.793746948242188
 43
17.79376220703125
 44
215.8999938964844
 45
279.3999938964844
 46
0.0
 47
0.0
 48
0.0
 49
0.0
140
0.0
141
0.0
142
1.0
143
43.75760864458461
 70
   688
 72
     0
 73
     1
 74
     1
  7
systemprinter.ctb
 75
     0
147
0.0228531684197454
148
0.3255366854427166
149
0.2302009418498301
100
AcDbLayout
  1
ﾚｲｱｳﾄ1
 70
     1
 71
     1
 10
-30.66685116754002
 20
-9.990190459854741
 11
450.6668334081172
 21
361.9494725043409
 12
0.0
 22
0.0
 32
0.0
 14
-0.0128164049386896
 24
-0.0090630292066862
 34
-0.0015258207003583
 15
420.0128183607162
 25
297.0090644122207
 35
0.0000000349246037
146
0.0
 13
0.0
 23
0.0
 33
0.0
 16
1.0
 26
0.0
 36
0.0
 17
0.0
 27
1.0
 37
0.0
 76
     0
330
17
331
64
  0
MLINESTYLE
  5
13
102
{ACAD_REACTORS
330
E
102
}
330
E
100
AcDbMlineStyle
  2
STANDARD
 70
     0
  3

 62
     0
 51
90.0
 52
90.0
 71
     2
 49
0.5
 62
   256
  6
BYLAYER
 49
-0.5
 62
   256
  6
BYLAYER
  0
ACDBPLACEHOLDER
  5
A97
102
{ACAD_REACTORS
330
A96
102
}
330
A96
  0
ENDSEC
  0
EOF
