  0
SECTION
  2
HEADER
  9
$ACADVER
  1
AC1015
  9
$ACADMAINTVER
 70
     6
  9
$DWGCODEPAGE
  3
ANSI_932
  9
$INSBASE
 10
0.0
 20
0.0
 30
0.0
  9
$EXTMIN
 10
0.0000000135560185
 20
-0.0000001317113174
 30
0.0
  9
$EXTMAX
 10
797.6000000135562
 20
551.5999998682888
 30
0.0
  9
$LIMMIN
 10
0.0
 20
0.0
  9
$LIMMAX
 10
840.0
 20
594.0
  9
$ORTHOMODE
 70
     0
  9
$REGENMODE
 70
     1
  9
$FILLMODE
 70
     1
  9
$QTEXTMODE
 70
     0
  9
$MIRRTEXT
 70
     1
  9
$LTSCALE
 40
2.0
  9
$ATTMODE
 70
     1
  9
$TEXTSIZE
 40
6.0
  9
$TRACEWID
 40
1.0
  9
$TEXTSTYLE
  7
STANDARD
  9
$CLAYER
  8
SEIHIN
  9
$CELTYPE
  6
BYLAYER
  9
$CECOLOR
 62
   256
  9
$CELTSCALE
 40
1.0
  9
$DISPSILH
 70
     0
  9
$DIMSCALE
 40
1.0
  9
$DIMASZ
 40
7.0
  9
$DIMEXO
 40
6.0
  9
$DIMDLI
 40
14.0
  9
$DIMRND
 40
0.0
  9
$DIMDLE
 40
0.0
  9
$DIMEXE
 40
3.0
  9
$DIMTP
 40
0.0
  9
$DIMTM
 40
0.0
  9
$DIMTXT
 40
6.0
  9
$DIMCEN
 40
150.0
  9
$DIMTSZ
 40
0.0
  9
$DIMTOL
 70
     0
  9
$DIMLIM
 70
     0
  9
$DIMTIH
 70
     0
  9
$DIMTOH
 70
     0
  9
$DIMSE1
 70
     0
  9
$DIMSE2
 70
     0
  9
$DIMTAD
 70
     3
  9
$DIMZIN
 70
     0
  9
$DIMBLK
  1

  9
$DIMASO
 70
     1
  9
$DIMSHO
 70
     1
  9
$DIMPOST
  1

  9
$DIMAPOST
  1

  9
$DIMALT
 70
     0
  9
$DIMALTD
 70
     2
  9
$DIMALTF
 40
25.4
  9
$DIMLFAC
 40
1.0
  9
$DIMTOFL
 70
     1
  9
$DIMTVP
 40
0.0
  9
$DIMTIX
 70
     0
  9
$DIMSOXD
 70
     0
  9
$DIMSAH
 70
     1
  9
$DIMBLK1
  1
OPEN
  9
$DIMBLK2
  1
OPEN
  9
$DIMSTYLE
  2
STANDARD
  9
$DIMCLRD
 70
   256
  9
$DIMCLRE
 70
   256
  9
$DIMCLRT
 70
   256
  9
$DIMTFAC
 40
1.0
  9
$DIMGAP
 40
2.0
  9
$DIMJUST
 70
     0
  9
$DIMSD1
 70
     0
  9
$DIMSD2
 70
     0
  9
$DIMTOLJ
 70
     1
  9
$DIMTZIN
 70
     0
  9
$DIMALTZ
 70
     0
  9
$DIMALTTZ
 70
     0
  9
$DIMUPT
 70
     0
  9
$DIMDEC
 70
     0
  9
$DIMTDEC
 70
     0
  9
$DIMALTU
 70
     2
  9
$DIMALTTD
 70
     2
  9
$DIMTXSTY
  7
STANDARD
  9
$DIMAUNIT
 70
     0
  9
$DIMADEC
 70
     0
  9
$DIMALTRND
 40
0.0
  9
$DIMAZIN
 70
     0
  9
$DIMDSEP
 70
    46
  9
$DIMATFIT
 70
     3
  9
$DIMFRAC
 70
     0
  9
$DIMLDRBLK
  1
OPEN
  9
$DIMLUNIT
 70
     2
  9
$DIMLWD
 70
    -1
  9
$DIMLWE
 70
    -1
  9
$DIMTMOVE
 70
     0
  9
$LUNITS
 70
     2
  9
$LUPREC
 70
     4
  9
$SKETCHINC
 40
1.0
  9
$FILLETRAD
 40
10.0
  9
$AUNITS
 70
     0
  9
$AUPREC
 70
     0
  9
$MENU
  1
.
  9
$ELEVATION
 40
0.0
  9
$PELEVATION
 40
0.0
  9
$THICKNESS
 40
0.0
  9
$LIMCHECK
 70
     0
  9
$CHAMFERA
 40
0.0
  9
$CHAMFERB
 40
0.0
  9
$CHAMFERC
 40
40.0
  9
$CHAMFERD
 40
0.0
  9
$SKPOLY
 70
     0
  9
$TDCREATE
 40
2451030.614786227
  9
$TDUCREATE
 40
2451030.239786227
  9
$TDUPDATE
 40
2455609.40738066
  9
$TDUUPDATE
 40
2455609.03238066
  9
$TDINDWG
 40
0.3491434144
  9
$TDUSRTIMER
 40
0.3491434144
  9
$USRTIMER
 70
     1
  9
$ANGBASE
 50
0.0
  9
$ANGDIR
 70
     0
  9
$PDMODE
 70
     0
  9
$PDSIZE
 40
0.0
  9
$PLINEWID
 40
0.0
  9
$SPLFRAME
 70
     0
  9
$SPLINETYPE
 70
     6
  9
$SPLINESEGS
 70
     8
  9
$HANDSEED
  5
A095
  9
$SURFTAB1
 70
     6
  9
$SURFTAB2
 70
     6
  9
$SURFTYPE
 70
     6
  9
$SURFU
 70
     6
  9
$SURFV
 70
     6
  9
$UCSBASE
  2

  9
$UCSNAME
  2

  9
$UCSORG
 10
0.0
 20
0.0
 30
0.0
  9
$UCSXDIR
 10
1.0
 20
0.0
 30
0.0
  9
$UCSYDIR
 10
0.0
 20
1.0
 30
0.0
  9
$UCSORTHOREF
  2

  9
$UCSORTHOVIEW
 70
     0
  9
$UCSORGTOP
 10
0.0
 20
0.0
 30
0.0
  9
$UCSORGBOTTOM
 10
0.0
 20
0.0
 30
0.0
  9
$UCSORGLEFT
 10
0.0
 20
0.0
 30
0.0
  9
$UCSORGRIGHT
 10
0.0
 20
0.0
 30
0.0
  9
$UCSORGFRONT
 10
0.0
 20
0.0
 30
0.0
  9
$UCSORGBACK
 10
0.0
 20
0.0
 30
0.0
  9
$PUCSBASE
  2

  9
$PUCSNAME
  2

  9
$PUCSORG
 10
0.0
 20
0.0
 30
0.0
  9
$PUCSXDIR
 10
1.0
 20
0.0
 30
0.0
  9
$PUCSYDIR
 10
0.0
 20
1.0
 30
0.0
  9
$PUCSORTHOREF
  2

  9
$PUCSORTHOVIEW
 70
     0
  9
$PUCSORGTOP
 10
0.0
 20
0.0
 30
0.0
  9
$PUCSORGBOTTOM
 10
0.0
 20
0.0
 30
0.0
  9
$PUCSORGLEFT
 10
0.0
 20
0.0
 30
0.0
  9
$PUCSORGRIGHT
 10
0.0
 20
0.0
 30
0.0
  9
$PUCSORGFRONT
 10
0.0
 20
0.0
 30
0.0
  9
$PUCSORGBACK
 10
0.0
 20
0.0
 30
0.0
  9
$USERI1
 70
     0
  9
$USERI2
 70
     0
  9
$USERI3
 70
     0
  9
$USERI4
 70
     0
  9
$USERI5
 70
     0
  9
$USERR1
 40
0.0
  9
$USERR2
 40
0.0
  9
$USERR3
 40
0.0
  9
$USERR4
 40
0.0
  9
$USERR5
 40
0.0
  9
$WORLDVIEW
 70
     1
  9
$SHADEDGE
 70
     3
  9
$SHADEDIF
 70
    70
  9
$TILEMODE
 70
     1
  9
$MAXACTVP
 70
    16
  9
$PINSBASE
 10
0.0
 20
0.0
 30
0.0
  9
$PLIMCHECK
 70
     0
  9
$PEXTMIN
 10
-0.0128164049386896
 20
-0.0090630292066862
 30
-0.0015258207003583
  9
$PEXTMAX
 10
420.0128183607162
 20
297.0090644122207
 30
0.0000000349246037
  9
$PLIMMIN
 10
-30.66685116754002
 20
-9.990190459854741
  9
$PLIMMAX
 10
450.6668334081172
 20
361.9494725043409
  9
$UNITMODE
 70
     0
  9
$VISRETAIN
 70
     0
  9
$PLINEGEN
 70
     0
  9
$PSLTSCALE
 70
     1
  9
$TREEDEPTH
 70
  3020
  9
$CMLSTYLE
  2
STANDARD
  9
$CMLJUST
 70
     0
  9
$CMLSCALE
 40
1.0
  9
$PROXYGRAPHICS
 70
     1
  9
$MEASUREMENT
 70
     0
  9
$CELWEIGHT
370
    -1
  9
$ENDCAPS
280
     0
  9
$JOINSTYLE
280
     0
  9
$LWDISPLAY
290
     0
  9
$INSUNITS
 70
     0
  9
$HYPERLINKBASE
  1

  9
$STYLESHEET
  1
systemprinter.ctb
  9
$XEDIT
290
     1
  9
$CEPSNTYPE
380
     0
  9
$PSTYLEMODE
290
     1
  9
$FINGERPRINTGUID
  2
{91E25F26-0CBF-4C93-982E-B5F00895E654}
  9
$VERSIONGUID
  2
{A71DB9E8-5506-4482-A6E9-B534EEC97DE9}
  9
$EXTNAMES
290
     1
  9
$PSVPSCALE
 40
0.0
  9
$OLESTARTUP
290
     0
  0
ENDSEC
  0
SECTION
  2
CLASSES
  0
CLASS
  1
ACDBDICTIONARYWDFLT
  2
AcDbDictionaryWithDefault
  3
ObjectDBX Classes
 90
        0
280
     0
281
     0
  0
CLASS
  1
ACDBPLACEHOLDER
  2
AcDbPlaceHolder
  3
ObjectDBX Classes
 90
        0
280
     0
281
     0
  0
CLASS
  1
LAYOUT
  2
AcDbLayout
  3
ObjectDBX Classes
 90
        0
280
     0
281
     0
  0
CLASS
  1
DUMMY
  2
AcDbLongTransaction
  3
DUMMY
 90
        0
280
     0
281
     0
  0
CLASS
  1
LWPOLYLINE
  2
AcDbPolyline
  3
AutoCAD 2000
 90
        0
280
     0
281
     1
  0
CLASS
  1
HATCH
  2
AcDbHatch
  3
AutoCAD 2000
 90
        0
280
     0
281
     1
  0
CLASS
  1
XRECORD
  2
AcDbXrecord
  3
AutoCAD 2000
 90
        0
280
     0
281
     0
  0
CLASS
  1
DUMMY
  2
AcDbLongTransaction
  3
DUMMY
 90
        0
280
     0
281
     0
  0
CLASS
  1
LWPOLYLINE
  2
AcDbPolyline
  3
AutoCAD 2000
 90
        0
280
     0
281
     1
  0
CLASS
  1
HATCH
  2
AcDbHatch
  3
AutoCAD 2000
 90
        0
280
     0
281
     1
  0
CLASS
  1
XRECORD
  2
AcDbXrecord
  3
AutoCAD 2000
 90
        0
280
     0
281
     0
  0
CLASS
  1
DUMMY
  2
AcDbLongTransaction
  3
DUMMY
 90
        0
280
     0
281
     0
  0
CLASS
  1
LWPOLYLINE
  2
AcDbPolyline
  3
AutoCAD 2000
 90
        0
280
     0
281
     1
  0
CLASS
  1
HATCH
  2
AcDbHatch
  3
AutoCAD 2000
 90
        0
280
     0
281
     1
  0
CLASS
  1
XRECORD
  2
AcDbXrecord
  3
AutoCAD 2000
 90
        0
280
     0
281
     0
  0
CLASS
  1
DUMMY
  2
AcDbLongTransaction
  3
DUMMY
 90
        0
280
     0
281
     0
  0
CLASS
  1
LWPOLYLINE
  2
AcDbPolyline
  3
AutoCAD 2000
 90
        0
280
     0
281
     1
  0
CLASS
  1
HATCH
  2
AcDbHatch
  3
AutoCAD 2000
 90
        0
280
     0
281
     1
  0
CLASS
  1
XRECORD
  2
AcDbXrecord
  3
AutoCAD 2000
 90
        0
280
     0
281
     0
  0
CLASS
  1
DUMMY
  2
AcDbLongTransaction
  3
DUMMY
 90
        0
280
     0
281
     0
  0
CLASS
  1
LWPOLYLINE
  2
AcDbPolyline
  3
AutoCAD 2000
 90
        0
280
     0
281
     1
  0
CLASS
  1
HATCH
  2
AcDbHatch
  3
AutoCAD 2000
 90
        0
280
     0
281
     1
  0
CLASS
  1
XRECORD
  2
AcDbXrecord
  3
AutoCAD 2000
 90
        0
280
     0
281
     0
  0
ENDSEC
  0
SECTION
  2
TABLES
  0
TABLE
  2
VPORT
  5
8
330
0
100
AcDbSymbolTable
 70
     2
  0
VPORT
  5
A094
330
8
100
AcDbSymbolTableRecord
100
AcDbViewportTableRecord
  2
*Active
 70
     0
 10
0.0
 20
0.0
 11
1.0
 21
1.0
 12
446.8981252113221
 22
302.4369092050415
 13
0.0
 23
0.0
 14
5.0
 24
5.0
 15
0.0
 25
0.0
 16
0.0
 26
0.0
 36
1.0
 17
0.0
 27
0.0
 37
0.0
 40
691.137762234807
 41
1.651537335285505
 42
50.0
 43
0.0
 44
0.0
 50
0.0
 51
0.0
 71
     0
 72
   100
 73
     1
 74
     0
 75
     0
 76
     0
 77
     0
 78
     0
281
     0
 65
     1
110
0.0
120
0.0
130
0.0
111
1.0
121
0.0
131
0.0
112
0.0
122
1.0
132
0.0
 79
     0
146
0.0
  0
ENDTAB
  0
TABLE
  2
LTYPE
  5
5
330
0
100
AcDbSymbolTable
 70
     3
  0
LTYPE
  5
14
330
5
100
AcDbSymbolTableRecord
100
AcDbLinetypeTableRecord
  2
BYBLOCK
 70
     0
  3

 72
    65
 73
     0
 40
0.0
  0
LTYPE
  5
15
330
5
100
AcDbSymbolTableRecord
100
AcDbLinetypeTableRecord
  2
BYLAYER
 70
     0
  3

 72
    65
 73
     0
 40
0.0
  0
LTYPE
  5
16
330
5
100
AcDbSymbolTableRecord
100
AcDbLinetypeTableRecord
  2
CONTINUOUS
 70
     0
  3
Solid line
 72
    65
 73
     0
 40
0.0
  0
LTYPE
  5
135
330
5
100
AcDbSymbolTableRecord
100
AcDbLinetypeTableRecord
  2
CENTER
 70
     0
  3
____ _ ____ _ ____ _ ____ _ ____ _ ____ _ ____ 
 72
    65
 73
     4
 40
2.0
 49
1.25
 74
     0
 49
-0.25
 74
     0
 49
0.25
 74
     0
 49
-0.25
 74
     0
  0
LTYPE
  5
8279
330
5
100
AcDbSymbolTableRecord
100
AcDbLinetypeTableRecord
  2
PHANTOM
 70
     0
  3
______  __  __  ______  __  __  ______  __  __ 
 72
    65
 73
     6
 40
2.5
 49
1.25
 74
     0
 49
-0.25
 74
     0
 49
0.25
 74
     0
 49
-0.25
 74
     0
 49
0.25
 74
     0
 49
-0.25
 74
     0
  0
ENDTAB
  0
TABLE
  2
LAYER
  5
2
330
0
100
AcDbSymbolTable
 70
     8
  0
LAYER
  5
F
330
2
100
AcDbSymbolTableRecord
100
AcDbLayerTableRecord
  2
0
 70
     0
 62
     7
  6
CONTINUOUS
370
    -3
390
A97
  0
LAYER
  5
62
330
2
100
AcDbSymbolTableRecord
100
AcDbLayerTableRecord
  2
VIEWPORT
 70
     0
 62
     7
  6
CONTINUOUS
370
    -3
390
A97
  0
LAYER
  5
143
330
2
100
AcDbSymbolTableRecord
100
AcDbLayerTableRecord
  2
SEIHIN
 70
     0
 62
     3
  6
CONTINUOUS
370
    -3
390
A97
  0
LAYER
  5
444
330
2
100
AcDbSymbolTableRecord
100
AcDbLayerTableRecord
  2
DEFPOINTS
 70
     0
 62
     7
  6
CONTINUOUS
290
     0
370
    -3
390
A97
  0
LAYER
  5
482
330
2
100
AcDbSymbolTableRecord
100
AcDbLayerTableRecord
  2
SUNPOU
 70
     0
 62
     4
  6
CONTINUOUS
370
    -3
390
A97
  0
LAYER
  5
5D4
330
2
100
AcDbSymbolTableRecord
100
AcDbLayerTableRecord
  2
CENTER L
 70
     0
 62
     1
  6
CENTER
370
    -3
390
A97
  0
LAYER
  5
3D95
330
2
100
AcDbSymbolTableRecord
100
AcDbLayerTableRecord
  2
ZUWAKU
 70
     0
 62
     7
  6
CONTINUOUS
370
    -3
390
A97
  0
LAYER
  5
3D96
330
2
100
AcDbSymbolTableRecord
100
AcDbLayerTableRecord
  2
moji
 70
     0
 62
     2
  6
CONTINUOUS
370
    -3
390
A97
  0
ENDTAB
  0
TABLE
  2
STYLE
  5
3
330
0
100
AcDbSymbolTable
 70
     2
  0
STYLE
  5
10
330
3
100
AcDbSymbolTableRecord
100
AcDbTextStyleTableRecord
  2
STANDARD
 70
     0
 40
0.0
 41
1.0
 50
0.0
 71
     0
 42
6.0
  3
TXT
  4
bigfont.shx
  0
STYLE
  5
3D97
330
3
100
AcDbSymbolTableRecord
100
AcDbTextStyleTableRecord
  2
ｽﾀｲﾙ1
 70
     0
 40
0.0
 41
1.0
 50
0.0
 71
     0
 42
2.5
  3
MS PGothic.ttf
  4

1001
ACAD
1000
MS PGothic
1071
    32818
  0
ENDTAB
  0
TABLE
  2
VIEW
  5
6
330
0
100
AcDbSymbolTable
 70
     0
  0
ENDTAB
  0
TABLE
  2
UCS
  5
7
330
0
100
AcDbSymbolTable
 70
     0
  0
ENDTAB
  0
TABLE
  2
APPID
  5
9
330
0
100
AcDbSymbolTable
 70
     1
  0
APPID
  5
11
330
9
100
AcDbSymbolTableRecord
100
AcDbRegAppTableRecord
  2
ACAD
 70
     0
  0
ENDTAB
  0
TABLE
  2
DIMSTYLE
  5
A
330
0
100
AcDbSymbolTable
 70
     1
100
AcDbDimStyleTable
  0
DIMSTYLE
105
1D
102
{ACAD_REACTORS
330
9E2E
330
9E2F
330
9E36
330
9E3D
330
9E5F
330
9E76
330
9E87
330
9E88
330
9E8B
330
9E8E
330
9E99
330
9F00
330
9F06
330
9F09
330
9F0A
330
9F23
102
}
330
A
100
AcDbSymbolTableRecord
100
AcDbDimStyleTableRecord
  2
STANDARD
 70
     0
340
10
  0
ENDTAB
  0
TABLE
  2
BLOCK_RECORD
  5
1
330
0
100
AcDbSymbolTable
 70
    17
  0
BLOCK_RECORD
  5
1A
330
1
100
AcDbSymbolTableRecord
100
AcDbBlockTableRecord
  2
*MODEL_SPACE
340
A9A
  0
BLOCK_RECORD
  5
17
330
1
100
AcDbSymbolTableRecord
100
AcDbBlockTableRecord
  2
*PAPER_SPACE
340
A9B
  0
BLOCK_RECORD
  5
6D
330
1
100
AcDbSymbolTableRecord
100
AcDbBlockTableRecord
  2
_OPEN
340
0
102
{BLKREFS
331
9FFB
331
9FFC
331
A004
331
A005
331
A00D
331
A00E
331
A016
331
A017
331
A021
331
A022
331
A02A
331
A02B
331
A035
331
A036
331
A03E
331
A03F
331
A047
331
A048
331
A050
331
A051
331
A059
331
A05A
331
A062
331
A063
331
A06D
331
A06E
331
A076
331
A077
331
A07F
331
A080
331
A088
331
A089
102
}
  0
BLOCK_RECORD
  5
9F32
330
1
100
AcDbSymbolTableRecord
100
AcDbBlockTableRecord
  2
*D1
340
0
  0
BLOCK_RECORD
  5
9F3E
330
1
100
AcDbSymbolTableRecord
100
AcDbBlockTableRecord
  2
*D2
340
0
  0
BLOCK_RECORD
  5
9F4A
330
1
100
AcDbSymbolTableRecord
100
AcDbBlockTableRecord
  2
*D3
340
0
  0
BLOCK_RECORD
  5
9F56
330
1
100
AcDbSymbolTableRecord
100
AcDbBlockTableRecord
  2
*D4
340
0
  0
BLOCK_RECORD
  5
9F62
330
1
100
AcDbSymbolTableRecord
100
AcDbBlockTableRecord
  2
*D5
340
0
  0
BLOCK_RECORD
  5
9F70
330
1
100
AcDbSymbolTableRecord
100
AcDbBlockTableRecord
  2
*D6
340
0
  0
BLOCK_RECORD
  5
9F7C
330
1
100
AcDbSymbolTableRecord
100
AcDbBlockTableRecord
  2
*D7
340
0
  0
BLOCK_RECORD
  5
9F8A
330
1
100
AcDbSymbolTableRecord
100
AcDbBlockTableRecord
  2
*D8
340
0
  0
BLOCK_RECORD
  5
9F96
330
1
100
AcDbSymbolTableRecord
100
AcDbBlockTableRecord
  2
*D9
340
0
  0
BLOCK_RECORD
  5
9FA2
330
1
100
AcDbSymbolTableRecord
100
AcDbBlockTableRecord
  2
*D10
340
0
  0
BLOCK_RECORD
  5
9FAE
330
1
100
AcDbSymbolTableRecord
100
AcDbBlockTableRecord
  2
*D11
340
0
  0
BLOCK_RECORD
  5
9FBA
330
1
100
AcDbSymbolTableRecord
100
AcDbBlockTableRecord
  2
*D12
340
0
  0
BLOCK_RECORD
  5
9FC6
330
1
100
AcDbSymbolTableRecord
100
AcDbBlockTableRecord
  2
*D13
340
0
  0
BLOCK_RECORD
  5
9FD4
330
1
100
AcDbSymbolTableRecord
100
AcDbBlockTableRecord
  2
*D14
340
0
  0
BLOCK_RECORD
  5
9FE0
330
1
100
AcDbSymbolTableRecord
100
AcDbBlockTableRecord
  2
*D15
340
0
  0
BLOCK_RECORD
  5
9FEC
330
1
100
AcDbSymbolTableRecord
100
AcDbBlockTableRecord
  2
*D16
340
0
  0
ENDTAB
  0
ENDSEC
  0
SECTION
  2
BLOCKS
  0
BLOCK
  5
1B
330
1A
100
AcDbEntity
  8
0
100
AcDbBlockBegin
  2
*MODEL_SPACE
 70
     0
 71
     0
 10
0.0
 20
0.0
 30
0.0
  3
*MODEL_SPACE
  1

  0
ENDBLK
  5
1C
330
1A
100
AcDbEntity
  8
0
100
AcDbBlockEnd
  0
BLOCK
  5
18
330
17
100
AcDbEntity
 67
     1
  8
0
100
AcDbBlockBegin
  2
*PAPER_SPACE
 70
     0
 71
     0
 10
0.0
 20
0.0
 30
0.0
  3
*PAPER_SPACE
  1

  0
ENDBLK
  5
19
330
17
100
AcDbEntity
 67
     1
  8
0
100
AcDbBlockEnd
  0
BLOCK
  5
6E
330
6D
100
AcDbEntity
  8
0
100
AcDbBlockBegin
  2
_OPEN
 70
     0
 71
     0
 10
0.0
 20
0.0
 30
0.0
  3
_OPEN
  1

  0
LINE
  5
6F
330
6D
100
AcDbEntity
  8
0
  6
ByBlock
 62
     0
100
AcDbLine
 10
-1.0
 20
0.1666666666666667
 30
0.0
 11
0.0
 21
0.0
 31
0.0
  0
LINE
  5
70
330
6D
100
AcDbEntity
  8
0
  6
ByBlock
 62
     0
100
AcDbLine
 10
0.0
 20
0.0
 30
0.0
 11
-1.0
 21
-0.1666666666666667
 31
0.0
  0
LINE
  5
71
330
6D
100
AcDbEntity
  8
0
  6
ByBlock
 62
     0
100
AcDbLine
 10
0.0
 20
0.0
 30
0.0
 11
-1.0
 21
0.0
 31
0.0
  0
ENDBLK
  5
72
330
6D
100
AcDbEntity
  8
0
100
AcDbBlockEnd
  0
BLOCK
  5
9F3C
330
9F32
100
AcDbEntity
  8
0
100
AcDbBlockBegin
  2
*D1
 70
     1
 71
     0
 10
0.0
 20
0.0
 30
0.0
  3
*D1
  1

  0
LINE
  5
9FF8
330
9F32
100
AcDbEntity
  8
SUNPOU
 62
     4
370
    -2
100
AcDbLine
 10
350.0466979342194
 20
104.078391352238
 30
0.0
 11
350.0466979342194
 21
70.44086352587013
 31
0.0
  0
LINE
  5
9FF9
330
9F32
100
AcDbEntity
  8
SUNPOU
 62
     4
370
    -2
100
AcDbLine
 10
443.6831799776677
 20
104.078391352238
 30
0.0
 11
443.6831799776677
 21
70.44086352587013
 31
0.0
  0
LINE
  5
9FFA
330
9F32
100
AcDbEntity
  8
SUNPOU
 62
     4
370
    -2
100
AcDbLine
 10
357.0466979342194
 20
73.44086352587013
 30
0.0
 11
436.6831799776677
 21
73.44086352587013
 31
0.0
  0
INSERT
  5
9FFB
330
9F32
100
AcDbEntity
  8
SUNPOU
 62
     4
370
    -2
100
AcDbBlockReference
  2
_OPEN
 10
350.0466979342194
 20
73.44086352587013
 30
0.0
 41
7.0
 42
7.0
 43
7.0
 50
180.0
  0
INSERT
  5
9FFC
330
9F32
100
AcDbEntity
  8
SUNPOU
 62
     4
370
    -2
100
AcDbBlockReference
  2
_OPEN
 10
443.6831799776677
 20
73.44086352587013
 30
0.0
 41
7.0
 42
7.0
 43
7.0
  0
MTEXT
  5
9FFD
330
9F32
100
AcDbEntity
  8
SUNPOU
 62
     4
100
AcDbMText
 10
396.8649389559436
 20
78.44086352587013
 30
0.0
 40
6.0
 41
0.0
 71
     5
 72
     1
  1
\A1;94
 73
     1
 44
1.0
  0
POINT
  5
9FFE
330
9F32
100
AcDbEntity
  8
DEFPOINTS
 62
     0
100
AcDbPoint
 10
350.0466979342194
 20
110.078391352238
 30
0.0
  0
POINT
  5
9FFF
330
9F32
100
AcDbEntity
  8
DEFPOINTS
 62
     0
100
AcDbPoint
 10
443.6831799776677
 20
110.078391352238
 30
0.0
  0
POINT
  5
A000
330
9F32
100
AcDbEntity
  8
DEFPOINTS
 62
     0
100
AcDbPoint
 10
443.6831799776677
 20
73.44086352587013
 30
0.0
  0
ENDBLK
  5
9F3D
330
9F32
100
AcDbEntity
  8
0
100
AcDbBlockEnd
  0
BLOCK
  5
9F48
330
9F3E
100
AcDbEntity
  8
0
100
AcDbBlockBegin
  2
*D2
 70
     1
 71
     0
 10
0.0
 20
0.0
 30
0.0
  3
*D2
  1

  0
LINE
  5
A001
330
9F3E
100
AcDbEntity
  8
SUNPOU
 62
     4
370
    -2
100
AcDbLine
 10
316.4472073777757
 20
197.6346846400427
 30
0.0
 11
316.4472073777757
 21
219.287067384068
 31
0.0
  0
LINE
  5
A002
330
9F3E
100
AcDbEntity
  8
SUNPOU
 62
     4
370
    -2
100
AcDbLine
 10
455.6653551445833
 20
195.482841352238
 30
0.0
 11
455.6653551445833
 21
219.287067384068
 31
0.0
  0
LINE
  5
A003
330
9F3E
100
AcDbEntity
  8
SUNPOU
 62
     4
370
    -2
100
AcDbLine
 10
323.4472073777757
 20
216.287067384068
 30
0.0
 11
448.6653551445833
 21
216.287067384068
 31
0.0
  0
INSERT
  5
A004
330
9F3E
100
AcDbEntity
  8
SUNPOU
 62
     4
370
    -2
100
AcDbBlockReference
  2
_OPEN
 10
316.4472073777757
 20
216.287067384068
 30
0.0
 41
7.0
 42
7.0
 43
7.0
 50
180.0
  0
INSERT
  5
A005
330
9F3E
100
AcDbEntity
  8
SUNPOU
 62
     4
370
    -2
100
AcDbBlockReference
  2
_OPEN
 10
455.6653551445833
 20
216.287067384068
 30
0.0
 41
7.0
 42
7.0
 43
7.0
  0
MTEXT
  5
A006
330
9F3E
100
AcDbEntity
  8
SUNPOU
 62
     4
100
AcDbMText
 10
386.0562812611795
 20
221.287067384068
 30
0.0
 40
6.0
 41
0.0
 71
     5
 72
     1
  1
\A1;139
 73
     1
 44
1.0
  0
POINT
  5
A007
330
9F3E
100
AcDbEntity
  8
DEFPOINTS
 62
     0
100
AcDbPoint
 10
316.4472073777757
 20
191.6346846400427
 30
0.0
  0
POINT
  5
A008
330
9F3E
100
AcDbEntity
  8
DEFPOINTS
 62
     0
100
AcDbPoint
 10
455.6653551445833
 20
189.482841352238
 30
0.0
  0
POINT
  5
A009
330
9F3E
100
AcDbEntity
  8
DEFPOINTS
 62
     0
100
AcDbPoint
 10
455.6653551445833
 20
216.287067384068
 30
0.0
  0
ENDBLK
  5
9F49
330
9F3E
100
AcDbEntity
  8
0
100
AcDbBlockEnd
  0
BLOCK
  5
9F54
330
9F4A
100
AcDbEntity
  8
0
100
AcDbBlockBegin
  2
*D3
 70
     1
 71
     0
 10
0.0
 20
0.0
 30
0.0
  3
*D3
  1

  0
LINE
  5
A00A
330
9F4A
100
AcDbEntity
  8
SUNPOU
 62
     4
370
    -2
100
AcDbLine
 10
310.4472073777757
 20
191.6346846400427
 30
0.0
 11
281.0098535993783
 21
191.6346846400427
 31
0.0
  0
LINE
  5
A00B
330
9F4A
100
AcDbEntity
  8
SUNPOU
 62
     4
370
    -2
100
AcDbLine
 10
346.2199551445833
 20
110.078391352238
 30
0.0
 11
281.0098535993782
 21
110.078391352238
 31
0.0
  0
LINE
  5
A00C
330
9F4A
100
AcDbEntity
  8
SUNPOU
 62
     4
370
    -2
100
AcDbLine
 10
284.0098535993783
 20
184.6346846400427
 30
0.0
 11
284.0098535993782
 21
117.078391352238
 31
0.0
  0
INSERT
  5
A00D
330
9F4A
100
AcDbEntity
  8
SUNPOU
 62
     4
370
    -2
100
AcDbBlockReference
  2
_OPEN
 10
284.0098535993783
 20
191.6346846400427
 30
0.0
 41
7.0
 42
7.0
 43
7.0
 50
90.0
  0
INSERT
  5
A00E
330
9F4A
100
AcDbEntity
  8
SUNPOU
 62
     4
370
    -2
100
AcDbBlockReference
  2
_OPEN
 10
284.0098535993782
 20
110.078391352238
 30
0.0
 41
7.0
 42
7.0
 43
7.0
 50
270.0
  0
MTEXT
  5
A00F
330
9F4A
100
AcDbEntity
  8
SUNPOU
 62
     4
100
AcDbMText
 10
279.0098535993782
 20
150.8565379961404
 30
0.0
 40
6.0
 41
0.0
 71
     5
 72
     1
  1
\A1;82
 11
6.123031769111886E-17
 21
1.0
 31
0.0
 73
     1
 44
1.0
  0
POINT
  5
A010
330
9F4A
100
AcDbEntity
  8
DEFPOINTS
 62
     0
100
AcDbPoint
 10
316.4472073777757
 20
191.6346846400427
 30
0.0
  0
POINT
  5
A011
330
9F4A
100
AcDbEntity
  8
DEFPOINTS
 62
     0
100
AcDbPoint
 10
352.2199551445833
 20
110.078391352238
 30
0.0
  0
POINT
  5
A012
330
9F4A
100
AcDbEntity
  8
DEFPOINTS
 62
     0
100
AcDbPoint
 10
284.0098535993782
 20
110.078391352238
 30
0.0
  0
ENDBLK
  5
9F55
330
9F4A
100
AcDbEntity
  8
0
100
AcDbBlockEnd
  0
BLOCK
  5
9F60
330
9F56
100
AcDbEntity
  8
0
100
AcDbBlockBegin
  2
*D4
 70
     1
 71
     0
 10
0.0
 20
0.0
 30
0.0
  3
*D4
  1

  0
LINE
  5
A013
330
9F56
100
AcDbEntity
  8
SUNPOU
 62
     4
370
    -2
100
AcDbLine
 10
304.9819551445832
 20
226.2106913522379
 30
0.0
 11
281.0098535993782
 21
226.2106913522379
 31
0.0
  0
LINE
  5
A014
330
9F56
100
AcDbEntity
  8
SUNPOU
 62
     4
370
    -2
100
AcDbLine
 10
310.4472073777757
 20
191.6346846400427
 30
0.0
 11
281.0098535993782
 21
191.6346846400427
 31
0.0
  0
LINE
  5
A015
330
9F56
100
AcDbEntity
  8
SUNPOU
 62
     4
370
    -2
100
AcDbLine
 10
284.0098535993782
 20
219.2106913522379
 30
0.0
 11
284.0098535993782
 21
198.6346846400427
 31
0.0
  0
INSERT
  5
A016
330
9F56
100
AcDbEntity
  8
SUNPOU
 62
     4
370
    -2
100
AcDbBlockReference
  2
_OPEN
 10
284.0098535993782
 20
226.2106913522379
 30
0.0
 41
7.0
 42
7.0
 43
7.0
 50
90.0
  0
INSERT
  5
A017
330
9F56
100
AcDbEntity
  8
SUNPOU
 62
     4
370
    -2
100
AcDbBlockReference
  2
_OPEN
 10
284.0098535993782
 20
191.6346846400427
 30
0.0
 41
7.0
 42
7.0
 43
7.0
 50
270.0
  0
MTEXT
  5
A018
330
9F56
100
AcDbEntity
  8
SUNPOU
 62
     4
100
AcDbMText
 10
279.0098535993782
 20
208.9226879961404
 30
0.0
 40
6.0
 41
0.0
 71
     5
 72
     1
  1
\A1;35
 11
6.123031769111886E-17
 21
1.0
 31
0.0
 73
     1
 44
1.0
  0
POINT
  5
A019
330
9F56
100
AcDbEntity
  8
DEFPOINTS
 62
     0
100
AcDbPoint
 10
310.9819551445832
 20
226.2106913522379
 30
0.0
  0
POINT
  5
A01A
330
9F56
100
AcDbEntity
  8
DEFPOINTS
 62
     0
100
AcDbPoint
 10
316.4472073777757
 20
191.6346846400427
 30
0.0
  0
POINT
  5
A01B
330
9F56
100
AcDbEntity
  8
DEFPOINTS
 62
     0
100
AcDbPoint
 10
284.0098535993782
 20
191.6346846400427
 30
0.0
  0
ENDBLK
  5
9F61
330
9F56
100
AcDbEntity
  8
0
100
AcDbBlockEnd
  0
BLOCK
  5
9F6E
330
9F62
100
AcDbEntity
  8
0
100
AcDbBlockBegin
  2
*D5
 70
     1
 71
     0
 10
0.0
 20
0.0
 30
0.0
  3
*D5
  1

  0
LINE
  5
A01C
330
9F62
100
AcDbEntity
  8
SUNPOU
 62
     4
370
    -2
100
AcDbLine
 10
339.1695161436371
 20
144.9213391203628
 30
0.0
 11
339.2723523538049
 21
144.1896169637702
 31
0.0
  0
LINE
  5
A01D
330
9F62
100
AcDbEntity
  8
SUNPOU
 62
     4
370
    -2
100
AcDbLine
 10
337.1890215751869
 20
144.6430004725
 30
0.0
 11
337.2918577853546
 21
143.9112783159074
 31
0.0
  0
LINE
  5
A01E
330
9F62
100
AcDbEntity
  8
SUNPOU
 62
     4
370
    -2
100
AcDbLine
 10
346.6217464454755
 20
142.1930182346017
 30
0.0
 11
353.5536237524478
 21
143.1672240655641
 31
0.0
  0
LINE
  5
A01F
330
9F62
100
AcDbEntity
  8
SUNPOU
 62
     4
370
    -2
100
AcDbLine
 10
330.7774972630804
 20
139.9662679248139
 30
0.0
 11
303.0499880351909
 21
136.0694446009641
 31
0.0
  0
LINE
  5
A020
330
9F62
100
AcDbEntity
  8
SUNPOU
 62
     4
370
    -2
100
AcDbLine
 10
339.6898691385031
 20
141.2188124036392
 30
0.0
 11
337.7093745700528
 21
140.9404737557764
 31
0.0
  0
INSERT
  5
A021
330
9F62
100
AcDbEntity
  8
SUNPOU
 62
     4
370
    -2
100
AcDbBlockReference
  2
_OPEN
 10
339.6898691385031
 20
141.2188124036392
 30
0.0
 41
7.0
 42
7.0
 43
7.0
 50
187.9999514336247
  0
INSERT
  5
A022
330
9F62
100
AcDbEntity
  8
SUNPOU
 62
     4
370
    -2
100
AcDbBlockReference
  2
_OPEN
 10
337.7093745700528
 20
140.9404737557764
 30
0.0
 41
7.0
 42
7.0
 43
7.0
 50
7.999951433624658
  0
MTEXT
  5
A023
330
9F62
100
AcDbEntity
  8
SUNPOU
 62
     4
100
AcDbMText
 10
312.7519426878191
 20
142.4820942809595
 30
0.0
 40
6.0
 41
0.0
 71
     5
 72
     1
  1
\A1;t2.0
 11
0.990268186710341
 21
0.1391722615660649
 31
0.0
 73
     1
 44
1.0
  0
POINT
  5
A024
330
9F62
100
AcDbEntity
  8
DEFPOINTS
 62
     0
100
AcDbPoint
 10
340.0045497130335
 20
138.9797300001007
 30
0.0
  0
POINT
  5
A025
330
9F62
100
AcDbEntity
  8
DEFPOINTS
 62
     0
100
AcDbPoint
 10
338.0240551445833
 20
138.701391352238
 30
0.0
  0
POINT
  5
A026
330
9F62
100
AcDbEntity
  8
DEFPOINTS
 62
     0
100
AcDbPoint
 10
337.7093745700528
 20
140.9404737557764
 30
0.0
  0
ENDBLK
  5
9F6F
330
9F62
100
AcDbEntity
  8
0
100
AcDbBlockEnd
  0
BLOCK
  5
9F7A
330
9F70
100
AcDbEntity
  8
0
100
AcDbBlockBegin
  2
*D6
 70
     1
 71
     0
 10
0.0
 20
0.0
 30
0.0
  3
*D6
  1

  0
LINE
  5
A027
330
9F70
100
AcDbEntity
  8
SUNPOU
 62
     4
370
    -2
100
AcDbLine
 10
182.2864896669226
 20
336.1161913522379
 30
0.0
 11
182.2864896669226
 21
373.9376712040189
 31
0.0
  0
LINE
  5
A028
330
9F70
100
AcDbEntity
  8
SUNPOU
 62
     4
370
    -2
100
AcDbLine
 10
201.2864896669226
 20
336.1161913522379
 30
0.0
 11
201.2864896669226
 21
373.9376712040189
 31
0.0
  0
LINE
  5
A029
330
9F70
100
AcDbEntity
  8
SUNPOU
 62
     4
370
    -2
100
AcDbLine
 10
189.2864896669226
 20
370.9376712040189
 30
0.0
 11
194.2864896669226
 21
370.9376712040189
 31
0.0
  0
INSERT
  5
A02A
330
9F70
100
AcDbEntity
  8
SUNPOU
 62
     4
370
    -2
100
AcDbBlockReference
  2
_OPEN
 10
182.2864896669226
 20
370.9376712040189
 30
0.0
 41
7.0
 42
7.0
 43
7.0
 50
180.0
  0
INSERT
  5
A02B
330
9F70
100
AcDbEntity
  8
SUNPOU
 62
     4
370
    -2
100
AcDbBlockReference
  2
_OPEN
 10
201.2864896669226
 20
370.9376712040189
 30
0.0
 41
7.0
 42
7.0
 43
7.0
  0
MTEXT
  5
A02C
330
9F70
100
AcDbEntity
  8
SUNPOU
 62
     4
100
AcDbMText
 10
191.7864896669226
 20
375.9376712040189
 30
0.0
 40
6.0
 41
0.0
 71
     5
 72
     1
  1
\A1;19
 73
     1
 44
1.0
  0
POINT
  5
A02D
330
9F70
100
AcDbEntity
  8
DEFPOINTS
 62
     0
100
AcDbPoint
 10
182.2864896669226
 20
330.1161913522379
 30
0.0
  0
POINT
  5
A02E
330
9F70
100
AcDbEntity
  8
DEFPOINTS
 62
     0
100
AcDbPoint
 10
201.2864896669226
 20
330.1161913522379
 30
0.0
  0
POINT
  5
A02F
330
9F70
100
AcDbEntity
  8
DEFPOINTS
 62
     0
100
AcDbPoint
 10
201.2864896669226
 20
370.9376712040189
 30
0.0
  0
ENDBLK
  5
9F7B
330
9F70
100
AcDbEntity
  8
0
100
AcDbBlockEnd
  0
BLOCK
  5
9F88
330
9F7C
100
AcDbEntity
  8
0
100
AcDbBlockBegin
  2
*D7
 70
     1
 71
     0
 10
0.0
 20
0.0
 30
0.0
  3
*D7
  1

  0
LINE
  5
A030
330
9F7C
100
AcDbEntity
  8
SUNPOU
 62
     4
370
    -2
100
AcDbLine
 10
557.3711217486348
 20
324.8279959971367
 30
0.0
 11
548.4388488030637
 21
321.6999622081336
 31
0.0
  0
LINE
  5
A031
330
9F7C
100
AcDbEntity
  8
SUNPOU
 62
     4
370
    -2
100
AcDbLine
 10
558.1974076467105
 20
322.468491058719
 30
0.0
 11
549.2651347011395
 21
319.340457269716
 31
0.0
  0
LINE
  5
A032
330
9F7C
100
AcDbEntity
  8
SUNPOU
 62
     4
370
    -2
100
AcDbLine
 10
548.9566537199547
 20
329.298111855781
 30
0.0
 11
546.6430554152489
 21
335.9047193728401
 31
0.0
  0
LINE
  5
A033
330
9F7C
100
AcDbEntity
  8
SUNPOU
 62
     4
370
    -2
100
AcDbLine
 10
554.4101362274421
 20
313.725391883245
 30
0.0
 11
563.9950434897945
 21
286.3551607411428
 31
0.0
  0
LINE
  5
A034
330
9F7C
100
AcDbEntity
  8
SUNPOU
 62
     4
370
    -2
100
AcDbLine
 10
551.2702520246605
 20
322.6915043387218
 30
0.0
 11
552.0965379227363
 21
320.3319994003042
 31
0.0
  0
INSERT
  5
A035
330
9F7C
100
AcDbEntity
  8
SUNPOU
 62
     4
370
    -2
100
AcDbBlockReference
  2
_OPEN
 10
551.2702520246605
 20
322.6915043387218
 30
0.0
 41
7.0
 42
7.0
 43
7.0
 50
289.2999788019303
  0
INSERT
  5
A036
330
9F7C
100
AcDbEntity
  8
SUNPOU
 62
     4
370
    -2
100
AcDbBlockReference
  2
_OPEN
 10
552.0965379227363
 20
320.3319994003042
 30
0.0
 41
7.0
 42
7.0
 43
7.0
 50
109.2999788019303
  0
MTEXT
  5
A037
330
9F7C
100
AcDbEntity
  8
SUNPOU
 62
     4
100
AcDbMText
 10
565.0783943802992
 20
298.3895427713112
 30
0.0
 40
6.0
 41
0.0
 71
     5
 72
     1
  1
\A1;t2.5
 11
0.3305140435293943
 21
-0.9438010738655946
 31
0.0
 73
     1
 44
1.0
  0
POINT
  5
A038
330
9F7C
100
AcDbEntity
  8
DEFPOINTS
 62
     0
100
AcDbPoint
 10
563.0339281918284
 20
326.811080258313
 30
0.0
  0
POINT
  5
A039
330
9F7C
100
AcDbEntity
  8
DEFPOINTS
 62
     0
100
AcDbPoint
 10
563.8602140899042
 20
324.4515753198954
 30
0.0
  0
POINT
  5
A03A
330
9F7C
100
AcDbEntity
  8
DEFPOINTS
 62
     0
100
AcDbPoint
 10
552.0965379227363
 20
320.3319994003042
 30
0.0
  0
ENDBLK
  5
9F89
330
9F7C
100
AcDbEntity
  8
0
100
AcDbBlockEnd
  0
BLOCK
  5
9F94
330
9F8A
100
AcDbEntity
  8
0
100
AcDbBlockBegin
  2
*D8
 70
     1
 71
     0
 10
0.0
 20
0.0
 30
0.0
  3
*D8
  1

  0
LINE
  5
A03B
330
9F8A
100
AcDbEntity
  8
SUNPOU
 62
     4
370
    -2
100
AcDbLine
 10
578.4721551445832
 20
330.1158913522381
 30
0.0
 11
612.0691507231757
 21
330.1158913522381
 31
0.0
  0
LINE
  5
A03C
330
9F8A
100
AcDbEntity
  8
SUNPOU
 62
     4
370
    -2
100
AcDbLine
 10
578.4721551445832
 20
276.5257913522381
 30
0.0
 11
612.0691507231757
 21
276.5257913522381
 31
0.0
  0
LINE
  5
A03D
330
9F8A
100
AcDbEntity
  8
SUNPOU
 62
     4
370
    -2
100
AcDbLine
 10
609.0691507231757
 20
323.1158913522381
 30
0.0
 11
609.0691507231757
 21
283.5257913522381
 31
0.0
  0
INSERT
  5
A03E
330
9F8A
100
AcDbEntity
  8
SUNPOU
 62
     4
370
    -2
100
AcDbBlockReference
  2
_OPEN
 10
609.0691507231757
 20
330.1158913522381
 30
0.0
 41
7.0
 42
7.0
 43
7.0
 50
90.0
  0
INSERT
  5
A03F
330
9F8A
100
AcDbEntity
  8
SUNPOU
 62
     4
370
    -2
100
AcDbBlockReference
  2
_OPEN
 10
609.0691507231757
 20
276.5257913522381
 30
0.0
 41
7.0
 42
7.0
 43
7.0
 50
270.0
  0
MTEXT
  5
A040
330
9F8A
100
AcDbEntity
  8
SUNPOU
 62
     4
100
AcDbMText
 10
604.0691507231755
 20
303.3208413522381
 30
0.0
 40
6.0
 41
0.0
 71
     5
 72
     1
  1
\A1;54
 11
6.123031769111886E-17
 21
1.0
 31
0.0
 73
     1
 44
1.0
  0
POINT
  5
A041
330
9F8A
100
AcDbEntity
  8
DEFPOINTS
 62
     0
100
AcDbPoint
 10
572.4721551445832
 20
330.1158913522381
 30
0.0
  0
POINT
  5
A042
330
9F8A
100
AcDbEntity
  8
DEFPOINTS
 62
     0
100
AcDbPoint
 10
572.4721551445832
 20
276.5257913522381
 30
0.0
  0
POINT
  5
A043
330
9F8A
100
AcDbEntity
  8
DEFPOINTS
 62
     0
100
AcDbPoint
 10
609.0691507231757
 20
276.5257913522381
 30
0.0
  0
ENDBLK
  5
9F95
330
9F8A
100
AcDbEntity
  8
0
100
AcDbBlockEnd
  0
BLOCK
  5
9FA0
330
9F96
100
AcDbEntity
  8
0
100
AcDbBlockBegin
  2
*D9
 70
     1
 71
     0
 10
0.0
 20
0.0
 30
0.0
  3
*D9
  1

  0
LINE
  5
A044
330
9F96
100
AcDbEntity
  8
SUNPOU
 62
     4
370
    -2
100
AcDbLine
 10
570.4889445323075
 20
335.7790586063394
 30
0.0
 11
565.1110904823267
 21
351.1358173487587
 31
0.0
  0
LINE
  5
A045
330
9F96
100
AcDbEntity
  8
SUNPOU
 62
     4
370
    -2
100
AcDbLine
 10
417.1211087368992
 20
282.0704700491176
 30
0.0
 11
411.7432546869185
 21
297.4272287915369
 31
0.0
  0
LINE
  5
A046
330
9F96
100
AcDbEntity
  8
SUNPOU
 62
     4
370
    -2
100
AcDbLine
 10
559.4960250958563
 20
345.9908158224555
 30
0.0
 11
419.3414043345659
 21
296.9094238746467
 31
0.0
  0
INSERT
  5
A047
330
9F96
100
AcDbEntity
  8
SUNPOU
 62
     4
370
    -2
100
AcDbBlockReference
  2
_OPEN
 10
566.1026326129153
 20
348.304414127162
 30
0.0
 41
7.0
 42
7.0
 43
7.0
 50
19.29997880193692
  0
INSERT
  5
A048
330
9F96
100
AcDbEntity
  8
SUNPOU
 62
     4
370
    -2
100
AcDbBlockReference
  2
_OPEN
 10
412.734796817507
 20
294.5958255699402
 30
0.0
 41
7.0
 42
7.0
 43
7.0
 50
199.2999788019369
  0
MTEXT
  5
A049
330
9F96
100
AcDbEntity
  8
SUNPOU
 62
     4
100
AcDbMText
 10
487.7661444975636
 20
326.1691252178789
 30
0.0
 40
6.0
 41
0.0
 71
     5
 72
     1
  1
\A1;163
 11
0.9438010738655566
 21
0.3305140435295032
 31
0.0
 73
     1
 44
1.0
  0
POINT
  5
A04A
330
9F96
100
AcDbEntity
  8
DEFPOINTS
 62
     0
100
AcDbPoint
 10
572.4720287934845
 20
330.116252163146
 30
0.0
  0
POINT
  5
A04B
330
9F96
100
AcDbEntity
  8
DEFPOINTS
 62
     0
100
AcDbPoint
 10
419.1041929980762
 20
276.4076636059243
 30
0.0
  0
POINT
  5
A04C
330
9F96
100
AcDbEntity
  8
DEFPOINTS
 62
     0
100
AcDbPoint
 10
412.734796817507
 20
294.5958255699402
 30
0.0
  0
ENDBLK
  5
9FA1
330
9F96
100
AcDbEntity
  8
0
100
AcDbBlockEnd
  0
BLOCK
  5
9FAC
330
9FA2
100
AcDbEntity
  8
0
100
AcDbBlockBegin
  2
*D10
 70
     1
 71
     0
 10
0.0
 20
0.0
 30
0.0
  3
*D10
  1

  0
LINE
  5
A04D
330
9FA2
100
AcDbEntity
  8
SUNPOU
 62
     4
370
    -2
100
AcDbLine
 10
459.1622551445833
 20
175.7668913522379
 30
0.0
 11
494.1247738501323
 21
175.7668913522379
 31
0.0
  0
LINE
  5
A04E
330
9FA2
100
AcDbEntity
  8
SUNPOU
 62
     4
370
    -2
100
AcDbLine
 10
447.3108551445832
 20
110.078391352238
 30
0.0
 11
494.1247738501323
 21
110.0783913522379
 31
0.0
  0
LINE
  5
A04F
330
9FA2
100
AcDbEntity
  8
SUNPOU
 62
     4
370
    -2
100
AcDbLine
 10
491.1247738501323
 20
168.7668913522379
 30
0.0
 11
491.1247738501323
 21
117.0783913522379
 31
0.0
  0
INSERT
  5
A050
330
9FA2
100
AcDbEntity
  8
SUNPOU
 62
     4
370
    -2
100
AcDbBlockReference
  2
_OPEN
 10
491.1247738501323
 20
175.7668913522379
 30
0.0
 41
7.0
 42
7.0
 43
7.0
 50
90.0
  0
INSERT
  5
A051
330
9FA2
100
AcDbEntity
  8
SUNPOU
 62
     4
370
    -2
100
AcDbBlockReference
  2
_OPEN
 10
491.1247738501323
 20
110.0783913522379
 30
0.0
 41
7.0
 42
7.0
 43
7.0
 50
270.0
  0
MTEXT
  5
A052
330
9FA2
100
AcDbEntity
  8
SUNPOU
 62
     4
100
AcDbMText
 10
486.1247738501323
 20
126.078391352238
 30
0.0
 40
6.0
 41
0.0
 71
     5
 72
     1
  1
\A1;66
 11
6.123031769111886E-17
 21
1.0
 31
0.0
 73
     1
 44
1.0
  0
POINT
  5
A053
330
9FA2
100
AcDbEntity
  8
DEFPOINTS
 62
     0
100
AcDbPoint
 10
453.1622551445833
 20
175.7668913522379
 30
0.0
  0
POINT
  5
A054
330
9FA2
100
AcDbEntity
  8
DEFPOINTS
 62
     0
100
AcDbPoint
 10
441.3108551445832
 20
110.078391352238
 30
0.0
  0
POINT
  5
A055
330
9FA2
100
AcDbEntity
  8
DEFPOINTS
 62
     0
100
AcDbPoint
 10
491.1247738501323
 20
110.0783913522379
 30
0.0
  0
ENDBLK
  5
9FAD
330
9FA2
100
AcDbEntity
  8
0
100
AcDbBlockEnd
  0
BLOCK
  5
9FB8
330
9FAE
100
AcDbEntity
  8
0
100
AcDbBlockBegin
  2
*D11
 70
     1
 71
     0
 10
0.0
 20
0.0
 30
0.0
  3
*D11
  1

  0
LINE
  5
A056
330
9FAE
100
AcDbEntity
  8
SUNPOU
 62
     4
370
    -2
100
AcDbLine
 10
428.289980747583
 20
274.8744434845365
 30
0.0
 11
512.2480696663046
 21
274.8744434845365
 31
0.0
  0
LINE
  5
A057
330
9FAE
100
AcDbEntity
  8
SUNPOU
 62
     4
370
    -2
100
AcDbLine
 10
464.1653551445832
 20
148.266891352238
 30
0.0
 11
512.2480696663045
 21
148.266891352238
 31
0.0
  0
LINE
  5
A058
330
9FAE
100
AcDbEntity
  8
SUNPOU
 62
     4
370
    -2
100
AcDbLine
 10
509.2480696663045
 20
267.8744434845365
 30
0.0
 11
509.2480696663045
 21
155.266891352238
 31
0.0
  0
INSERT
  5
A059
330
9FAE
100
AcDbEntity
  8
SUNPOU
 62
     4
370
    -2
100
AcDbBlockReference
  2
_OPEN
 10
509.2480696663045
 20
274.8744434845365
 30
0.0
 41
7.0
 42
7.0
 43
7.0
 50
90.0
  0
INSERT
  5
A05A
330
9FAE
100
AcDbEntity
  8
SUNPOU
 62
     4
370
    -2
100
AcDbBlockReference
  2
_OPEN
 10
509.2480696663045
 20
148.266891352238
 30
0.0
 41
7.0
 42
7.0
 43
7.0
 50
270.0
  0
MTEXT
  5
A05B
330
9FAE
100
AcDbEntity
  8
SUNPOU
 62
     4
100
AcDbMText
 10
504.2480696663044
 20
211.5706674183873
 30
0.0
 40
6.0
 41
0.0
 71
     5
 72
     1
  1
\A1;127
 11
6.123031769111886E-17
 21
1.0
 31
0.0
 73
     1
 44
1.0
  0
POINT
  5
A05C
330
9FAE
100
AcDbEntity
  8
DEFPOINTS
 62
     0
100
AcDbPoint
 10
422.289980747583
 20
274.8744434845365
 30
0.0
  0
POINT
  5
A05D
330
9FAE
100
AcDbEntity
  8
DEFPOINTS
 62
     0
100
AcDbPoint
 10
458.1653551445832
 20
148.266891352238
 30
0.0
  0
POINT
  5
A05E
330
9FAE
100
AcDbEntity
  8
DEFPOINTS
 62
     0
100
AcDbPoint
 10
509.2480696663045
 20
148.266891352238
 30
0.0
  0
ENDBLK
  5
9FB9
330
9FAE
100
AcDbEntity
  8
0
100
AcDbBlockEnd
  0
BLOCK
  5
9FC4
330
9FBA
100
AcDbEntity
  8
0
100
AcDbBlockBegin
  2
*D12
 70
     1
 71
     0
 10
0.0
 20
0.0
 30
0.0
  3
*D12
  1

  0
LINE
  5
A05F
330
9FBA
100
AcDbEntity
  8
SUNPOU
 62
     4
370
    -2
100
AcDbLine
 10
579.2999551445832
 20
478.6880553111284
 30
0.0
 11
611.699906222136
 21
478.6880553111284
 31
0.0
  0
LINE
  5
A060
330
9FBA
100
AcDbEntity
  8
SUNPOU
 62
     4
370
    -2
100
AcDbLine
 10
579.2999551445832
 20
459.6880553111283
 30
0.0
 11
611.699906222136
 21
459.6880553111283
 31
0.0
  0
LINE
  5
A061
330
9FBA
100
AcDbEntity
  8
SUNPOU
 62
     4
370
    -2
100
AcDbLine
 10
608.699906222136
 20
471.6880553111284
 30
0.0
 11
608.699906222136
 21
466.6880553111283
 31
0.0
  0
INSERT
  5
A062
330
9FBA
100
AcDbEntity
  8
SUNPOU
 62
     4
370
    -2
100
AcDbBlockReference
  2
_OPEN
 10
608.699906222136
 20
478.6880553111284
 30
0.0
 41
7.0
 42
7.0
 43
7.0
 50
90.0
  0
INSERT
  5
A063
330
9FBA
100
AcDbEntity
  8
SUNPOU
 62
     4
370
    -2
100
AcDbBlockReference
  2
_OPEN
 10
608.699906222136
 20
459.6880553111283
 30
0.0
 41
7.0
 42
7.0
 43
7.0
 50
270.0
  0
MTEXT
  5
A064
330
9FBA
100
AcDbEntity
  8
SUNPOU
 62
     4
100
AcDbMText
 10
603.6999062221358
 20
469.1880553111284
 30
0.0
 40
6.0
 41
0.0
 71
     5
 72
     1
  1
\A1;19
 11
6.123031769111886E-17
 21
1.0
 31
0.0
 73
     1
 44
1.0
  0
POINT
  5
A065
330
9FBA
100
AcDbEntity
  8
DEFPOINTS
 62
     0
100
AcDbPoint
 10
573.2999551445832
 20
478.6880553111284
 30
0.0
  0
POINT
  5
A066
330
9FBA
100
AcDbEntity
  8
DEFPOINTS
 62
     0
100
AcDbPoint
 10
573.2999551445832
 20
459.6880553111283
 30
0.0
  0
POINT
  5
A067
330
9FBA
100
AcDbEntity
  8
DEFPOINTS
 62
     0
100
AcDbPoint
 10
608.699906222136
 20
459.6880553111283
 30
0.0
  0
ENDBLK
  5
9FC5
330
9FBA
100
AcDbEntity
  8
0
100
AcDbBlockEnd
  0
BLOCK
  5
9FD2
330
9FC6
100
AcDbEntity
  8
0
100
AcDbBlockBegin
  2
*D13
 70
     1
 71
     0
 10
0.0
 20
0.0
 30
0.0
  3
*D13
  1

  0
LINE
  5
A068
330
9FC6
100
AcDbEntity
  8
SUNPOU
 62
     4
370
    -2
100
AcDbLine
 10
545.8674637026891
 20
406.0929065406642
 30
0.0
 11
538.6660269953514
 21
426.6570032824379
 31
0.0
  0
LINE
  5
A069
330
9FC6
100
AcDbEntity
  8
SUNPOU
 62
     4
370
    -2
100
AcDbLine
 10
536.4294996171425
 20
402.7877819897706
 30
0.0
 11
529.2280629098049
 21
423.3518787315442
 31
0.0
  0
LINE
  5
A06A
330
9FC6
100
AcDbEntity
  8
SUNPOU
 62
     4
370
    -2
100
AcDbLine
 10
523.6129977434349
 20
418.2068769650314
 30
0.0
 11
517.0063903253506
 21
415.8932783776977
 31
0.0
  0
LINE
  5
A06B
330
9FC6
100
AcDbEntity
  8
SUNPOU
 62
     4
370
    -2
100
AcDbLine
 10
546.2641766651503
 20
426.1391986905926
 30
0.0
 11
563.2686470261002
 21
432.0940732753548
 31
0.0
  0
LINE
  5
A06C
330
9FC6
100
AcDbEntity
  8
SUNPOU
 62
     4
370
    -2
100
AcDbLine
 10
530.2196051615193
 20
420.5204755523652
 30
0.0
 11
539.6575692470659
 21
423.8256001032589
 31
0.0
  0
INSERT
  5
A06D
330
9FC6
100
AcDbEntity
  8
SUNPOU
 62
     4
370
    -2
100
AcDbBlockReference
  2
_OPEN
 10
530.2196051615193
 20
420.5204755523652
 30
0.0
 41
7.0
 42
7.0
 43
7.0
 50
19.29998125302037
  0
INSERT
  5
A06E
330
9FC6
100
AcDbEntity
  8
SUNPOU
 62
     4
370
    -2
100
AcDbBlockReference
  2
_OPEN
 10
539.6575692470659
 20
423.8256001032589
 30
0.0
 41
7.0
 42
7.0
 43
7.0
 50
199.2999812530204
  0
MTEXT
  5
A06F
330
9FC6
100
AcDbEntity
  8
SUNPOU
 62
     4
100
AcDbMText
 10
556.4251707780812
 20
434.99525111251
 30
0.0
 40
6.0
 41
0.0
 71
     5
 72
     1
  1
\A1;10
 11
0.9438010597263378
 21
0.3305140839048191
 31
0.0
 73
     1
 44
1.0
  0
POINT
  5
A070
330
9FC6
100
AcDbEntity
  8
DEFPOINTS
 62
     0
100
AcDbPoint
 10
547.850548206118
 20
400.4301001823062
 30
0.0
  0
POINT
  5
A071
330
9FC6
100
AcDbEntity
  8
DEFPOINTS
 62
     0
100
AcDbPoint
 10
538.4125841205714
 20
397.1249756314125
 30
0.0
  0
POINT
  5
A072
330
9FC6
100
AcDbEntity
  8
DEFPOINTS
 62
     0
100
AcDbPoint
 10
530.2196051615193
 20
420.5204755523652
 30
0.0
  0
ENDBLK
  5
9FD3
330
9FC6
100
AcDbEntity
  8
0
100
AcDbBlockEnd
  0
BLOCK
  5
9FDE
330
9FD4
100
AcDbEntity
  8
0
100
AcDbBlockBegin
  2
*D14
 70
     1
 71
     0
 10
0.0
 20
0.0
 30
0.0
  3
*D14
  1

  0
LINE
  5
A073
330
9FD4
100
AcDbEntity
  8
SUNPOU
 62
     4
370
    -2
100
AcDbLine
 10
536.2053619789748
 20
403.4277194866126
 30
0.0
 11
529.2279219398054
 21
423.3518659977973
 31
0.0
  0
LINE
  5
A074
330
9FD4
100
AcDbEntity
  8
SUNPOU
 62
     4
370
    -2
100
AcDbLine
 10
489.0154703201607
 20
386.9018101173235
 30
0.0
 11
482.0380302809913
 21
406.8259566285082
 31
0.0
  0
LINE
  5
A075
330
9FD4
100
AcDbEntity
  8
SUNPOU
 62
     4
370
    -2
100
AcDbLine
 10
523.6128821862022
 20
418.2068364968658
 30
0.0
 11
489.6361825082887
 21
406.3081895661967
 31
0.0
  0
INSERT
  5
A076
330
9FD4
100
AcDbEntity
  8
SUNPOU
 62
     4
370
    -2
100
AcDbBlockReference
  2
_OPEN
 10
530.2194781766525
 20
420.5204677161757
 30
0.0
 41
7.0
 42
7.0
 43
7.0
 50
19.30026425396445
  0
INSERT
  5
A077
330
9FD4
100
AcDbEntity
  8
SUNPOU
 62
     4
370
    -2
100
AcDbBlockReference
  2
_OPEN
 10
483.0295865178384
 20
403.9945583468867
 30
0.0
 41
7.0
 42
7.0
 43
7.0
 50
199.3002642539644
  0
MTEXT
  5
A078
330
9FD4
100
AcDbEntity
  8
SUNPOU
 62
     4
100
AcDbMText
 10
504.9719386191669
 20
416.9765101675671
 30
0.0
 40
6.0
 41
0.0
 71
     5
 72
     1
  1
\A1;50
 11
0.9437994272071854
 21
0.3305187456157196
 31
0.0
 73
     1
 44
1.0
  0
POINT
  5
A079
330
9FD4
100
AcDbEntity
  8
DEFPOINTS
 62
     0
100
AcDbPoint
 10
538.1884744526691
 20
397.7649229233695
 30
0.0
  0
POINT
  5
A07A
330
9FD4
100
AcDbEntity
  8
DEFPOINTS
 62
     0
100
AcDbPoint
 10
490.998582793855
 20
381.2390135540804
 30
0.0
  0
POINT
  5
A07B
330
9FD4
100
AcDbEntity
  8
DEFPOINTS
 62
     0
100
AcDbPoint
 10
483.0295865178384
 20
403.9945583468867
 30
0.0
  0
ENDBLK
  5
9FDF
330
9FD4
100
AcDbEntity
  8
0
100
AcDbBlockEnd
  0
BLOCK
  5
9FEA
330
9FE0
100
AcDbEntity
  8
0
100
AcDbBlockBegin
  2
*D15
 70
     1
 71
     0
 10
0.0
 20
0.0
 30
0.0
  3
*D15
  1

  0
LINE
  5
A07C
330
9FE0
100
AcDbEntity
  8
SUNPOU
 62
     4
370
    -2
100
AcDbLine
 10
489.0155408258752
 20
386.9018348079459
 30
0.0
 11
482.0383200514455
 21
406.8261504464097
 31
0.0
  0
LINE
  5
A07D
330
9FE0
100
AcDbEntity
  8
SUNPOU
 62
     4
370
    -2
100
AcDbLine
 10
441.8255324846889
 20
370.3765441772348
 30
0.0
 11
434.8483117102592
 21
390.3008598156987
 31
0.0
  0
LINE
  5
A07E
330
9FE0
100
AcDbEntity
  8
SUNPOU
 62
     4
370
    -2
100
AcDbLine
 10
476.423216239259
 20
401.6811908568337
 30
0.0
 11
442.4464574904255
 21
389.7829981514092
 31
0.0
  0
INSERT
  5
A07F
330
9FE0
100
AcDbEntity
  8
SUNPOU
 62
     4
370
    -2
100
AcDbBlockReference
  2
_OPEN
 10
483.0298410354354
 20
403.994739819477
 30
0.0
 41
7.0
 42
7.0
 43
7.0
 50
19.29955088363316
  0
INSERT
  5
A080
330
9FE0
100
AcDbEntity
  8
SUNPOU
 62
     4
370
    -2
100
AcDbBlockReference
  2
_OPEN
 10
435.8398326942491
 20
387.4694491887659
 30
0.0
 41
7.0
 42
7.0
 43
7.0
 50
199.2995508836331
  0
MTEXT
  5
A081
330
9FE0
100
AcDbEntity
  8
SUNPOU
 62
     4
100
AcDbMText
 10
457.7823018915257
 20
400.451112215676
 30
0.0
 40
6.0
 41
0.0
 71
     5
 72
     1
  1
\A1;50
 11
0.94380354231091
 21
0.3305069946633177
 31
0.0
 73
     1
 44
1.0
  0
POINT
  5
A082
330
9FE0
100
AcDbEntity
  8
DEFPOINTS
 62
     0
100
AcDbPoint
 10
490.9985827938551
 20
381.2390135540804
 30
0.0
  0
POINT
  5
A083
330
9FE0
100
AcDbEntity
  8
DEFPOINTS
 62
     0
100
AcDbPoint
 10
443.8085744526688
 20
364.7137229233694
 30
0.0
  0
POINT
  5
A084
330
9FE0
100
AcDbEntity
  8
DEFPOINTS
 62
     0
100
AcDbPoint
 10
435.8398326942491
 20
387.4694491887659
 30
0.0
  0
ENDBLK
  5
9FEB
330
9FE0
100
AcDbEntity
  8
0
100
AcDbBlockEnd
  0
BLOCK
  5
9FF6
330
9FEC
100
AcDbEntity
  8
0
100
AcDbBlockBegin
  2
*D16
 70
     1
 71
     0
 10
0.0
 20
0.0
 30
0.0
  3
*D16
  1

  0
LINE
  5
A085
330
9FEC
100
AcDbEntity
  8
SUNPOU
 62
     4
370
    -2
100
AcDbLine
 10
551.6956320662185
 20
407.6036754565022
 30
0.0
 11
572.5822641463353
 21
414.9162737184375
 31
0.0
  0
LINE
  5
A086
330
9FEC
100
AcDbEntity
  8
SUNPOU
 62
     4
370
    -2
100
AcDbLine
 10
557.9740320662187
 20
389.6709754565022
 30
0.0
 11
578.8606641463355
 21
396.9835737184376
 31
0.0
  0
LINE
  5
A087
330
9FEC
100
AcDbEntity
  8
SUNPOU
 62
     4
370
    -2
100
AcDbLine
 10
572.0638799615489
 20
407.3181635693964
 30
0.0
 11
573.7160907175722
 21
402.5990313343459
 31
0.0
  0
INSERT
  5
A088
330
9FEC
100
AcDbEntity
  8
SUNPOU
 62
     4
370
    -2
100
AcDbBlockReference
  2
_OPEN
 10
569.7507853395605
 20
413.9249474518711
 30
0.0
 41
7.0
 42
7.0
 43
7.0
 50
109.2956106737134
  0
INSERT
  5
A089
330
9FEC
100
AcDbEntity
  8
SUNPOU
 62
     4
370
    -2
100
AcDbBlockReference
  2
_OPEN
 10
576.0291853395606
 20
395.9922474518712
 30
0.0
 41
7.0
 42
7.0
 43
7.0
 50
289.2956106737133
  0
MTEXT
  5
A08A
330
9FEC
100
AcDbEntity
  8
SUNPOU
 62
     4
100
AcDbMText
 10
577.6091166841853
 20
406.6108078961485
 30
0.0
 40
6.0
 41
0.0
 71
     5
 72
     1
  1
\A1;19
 11
0.3304420888554802
 21
-0.9438262689249687
 31
0.0
 73
     1
 44
1.0
  0
POINT
  5
A08B
330
9FEC
100
AcDbEntity
  8
DEFPOINTS
 62
     0
100
AcDbPoint
 10
546.0326744526687
 20
405.6210229233693
 30
0.0
  0
POINT
  5
A08C
330
9FEC
100
AcDbEntity
  8
DEFPOINTS
 62
     0
100
AcDbPoint
 10
552.3110744526689
 20
387.6883229233694
 30
0.0
  0
POINT
  5
A08D
330
9FEC
100
AcDbEntity
  8
DEFPOINTS
 62
     0
100
AcDbPoint
 10
576.0291853395606
 20
395.9922474518712
 30
0.0
  0
ENDBLK
  5
9FF7
330
9FEC
100
AcDbEntity
  8
0
100
AcDbBlockEnd
  0
ENDSEC
  0
SECTION
  2
ENTITIES
  0
LINE
  5
3EF3
330
1A
100
AcDbEntity
  8
ZUWAKU
100
AcDbLine
 10
208.646601303624
 20
15.19999986828872
 30
0.0
 11
447.4243639845474
 21
15.19999986828871
 31
0.0
  0
LINE
  5
3EF4
330
1A
100
AcDbEntity
  8
ZUWAKU
100
AcDbLine
 10
208.646601303624
 20
15.59999986828872
 30
0.0
 11
447.4243639845474
 21
15.59999986828872
 31
0.0
  0
LINE
  5
3EF5
330
1A
100
AcDbEntity
  8
ZUWAKU
100
AcDbLine
 10
208.646601303624
 20
15.39999986828872
 30
0.0
 11
447.4243639845474
 21
15.39999986828872
 31
0.0
  0
LINE
  5
3EF6
330
1A
100
AcDbEntity
  8
ZUWAKU
100
AcDbLine
 10
0.0000000135560185
 20
30.79999986828869
 30
0.0
 11
797.4000000135559
 21
30.79999986828869
 31
0.0
  0
LINE
  5
3EF7
330
1A
100
AcDbEntity
  8
ZUWAKU
100
AcDbLine
 10
0.0000000135560185
 20
30.59999986828869
 30
0.0
 11
797.4000000135559
 21
30.59999986828869
 31
0.0
  0
LINE
  5
3EF8
330
1A
100
AcDbEntity
  8
ZUWAKU
100
AcDbLine
 10
0.0000000135560185
 20
30.39999986828869
 30
0.0
 11
797.4000000135559
 21
30.39999986828869
 31
0.0
  0
LINE
  5
3EF9
330
1A
100
AcDbEntity
  8
ZUWAKU
100
AcDbLine
 10
0.0000000135560185
 20
30.19999986828869
 30
0.0
 11
797.4000000135559
 21
30.19999986828869
 31
0.0
  0
LINE
  5
3EFA
330
1A
100
AcDbEntity
  8
ZUWAKU
100
AcDbLine
 10
0.0000000135560185
 20
29.99999986828868
 30
0.0
 11
797.4000000135559
 21
29.99999986828868
 31
0.0
  0
LWPOLYLINE
  5
3EFB
330
1A
100
AcDbEntity
  8
ZUWAKU
100
AcDbPolyline
 90
        4
 70
     1
 43
0.0
 10
0.2000000135559503
 20
551.3999998682888
 10
0.2000000135559503
 20
0.1999998682887281
 10
797.4000000135559
 20
0.1999998682887512
 10
797.4000000135561
 20
551.3999998682888
  0
LWPOLYLINE
  5
3EFC
330
1A
100
AcDbEntity
  8
ZUWAKU
100
AcDbPolyline
 90
        4
 70
     1
 43
0.0
 10
0.6000000135559276
 20
550.9999998682888
 10
0.6000000135559276
 20
0.5999998682887053
 10
797.0000000135563
 20
0.5999998682887515
 10
797.000000013556
 20
550.9999998682888
  0
LWPOLYLINE
  5
3EFD
330
1A
100
AcDbEntity
  8
ZUWAKU
100
AcDbPolyline
 90
        4
 70
     1
 43
0.0
 10
0.0000000135560185
 20
551.5999998682887
 10
0.0000000135560185
 20
-0.0000001317113174
 10
797.6000000135562
 20
-0.0000001317112499
 10
797.6000000135562
 20
551.5999998682888
  0
LWPOLYLINE
  5
3EFE
330
1A
100
AcDbEntity
  8
ZUWAKU
100
AcDbPolyline
 90
        4
 70
     1
 43
0.0
 10
0.4000000135559958
 20
551.1999998682887
 10
0.4000000135559958
 20
0.3999998682887735
 10
797.2000000135561
 20
0.3999998682887505
 10
797.2000000135561
 20
551.1999998682887
  0
LWPOLYLINE
  5
3EFF
330
1A
100
AcDbEntity
  8
ZUWAKU
100
AcDbPolyline
 90
        4
 70
     1
 43
0.0
 10
0.8000000135559731
 20
550.7999998682888
 10
0.8000000135559731
 20
0.7999998682887508
 10
796.800000013556
 20
0.7999998682887508
 10
796.800000013556
 20
550.7999998682888
  0
TEXT
  5
3F00
330
1A
100
AcDbEntity
  8
moji
100
AcDbText
 10
92.95778960172515
 20
12.74117799856344
 30
0.0
 40
6.0
  1
アーバントップΣ９０
 41
0.9
  7
ｽﾀｲﾙ1
100
AcDbText
  0
HATCH
  5
3F01
330
1A
100
AcDbEntity
  8
ZUWAKU
100
AcDbHatch
 10
0.0
 20
0.0
 30
0.0
210
0.0
220
0.0
230
1.0
  2
ANSI37
 70
     0
 71
     0
 91
        8
 92
        7
 72
     1
 73
     1
 93
       24
 10
14.50226267467588
 20
17.64484834927227
 42
-0.1989123673796348
 10
14.09221216833714
 20
18.63479784293332
 42
0.0
 10
14.09221216833714
 20
19.92499986828869
 42
-0.4142135623730912
 10
14.61721216833712
 20
20.44999986828869
 42
0.0
 10
17.59221216833703
 20
20.44999986828869
 42
0.4142135623731546
 10
18.11721216833712
 20
20.97499986828868
 42
0.0
 10
18.11721216833712
 20
22.72499986828869
 42
0.4142135623731586
 10
17.59221216833703
 20
23.24999986828869
 42
0.0
 10
14.09221216833714
 20
23.24999986828869
 42
0.4142135623730928
 10
11.29221216833719
 20
20.44999986828871
 42
0.0
 10
11.29221216833719
 20
18.63479784293345
 42
0.1989123673796619
 10
12.52236368735362
 20
15.66494936194984
 42
0.0
 10
15.43216166199829
 20
12.75515138730518
 42
-0.1989123673796613
 10
15.84221216833714
 20
11.76520189364399
 42
0.0
 10
15.84221216833714
 20
10.47499986828868
 42
-0.4142135623730911
 10
15.31721216833716
 20
9.949999868288685
 42
0.0
 10
12.34221216833726
 20
9.949999868288685
 42
0.4142135623731526
 10
11.81721216833716
 20
9.424999868288698
 42
0.0
 10
11.81721216833716
 20
7.674999868288676
 42
0.4142135623731526
 10
12.34221216833726
 20
7.149999868288688
 42
0.0
 10
15.84221216833714
 20
7.149999868288688
 42
0.4142135623731044
 10
18.64221216833721
 20
9.949999868288664
 42
0.0
 10
18.64221216833721
 20
11.76520189364394
 42
0.1989123673796604
 10
17.41206064932067
 20
14.73505037462748
 42
0.0
 97
        0
 92
        7
 72
     1
 73
     1
 93
       16
 10
23.54221216833719
 20
19.04999986828869
 42
-0.4142135623730935
 10
24.94221216833716
 20
20.44999986828869
 42
0.0
 10
26.86721216833712
 20
20.44999986828869
 42
0.4142135623731546
 10
27.39221216833721
 20
20.97499986828868
 42
0.0
 10
27.39221216833721
 20
22.72499986828869
 42
0.4142135623730952
 10
26.86721216833723
 20
23.24999986828869
 42
0.0
 10
24.94221216833705
 20
23.24999986828865
 42
0.4142135623730892
 10
20.74221216833712
 20
19.04999986828862
 42
0.0
 10
20.74221216833712
 20
11.34999986828871
 42
0.4142135623730969
 10
24.94221216833716
 20
7.149999868288688
 42
0.0
 10
26.86721216833712
 20
7.149999868288688
 42
0.4142135623731526
 10
27.39221216833721
 20
7.674999868288676
 42
0.0
 10
27.39221216833721
 20
9.424999868288698
 42
0.414213562373089
 10
26.86721216833723
 20
9.949999868288685
 42
0.0
 10
24.94221216833716
 20
9.949999868288685
 42
-0.4142135623730928
 10
23.54221216833719
 20
11.34999986828867
 42
0.0
 97
        0
 92
        7
 72
     1
 73
     1
 93
        2
 10
24.24221216833712
 20
15.19999986828869
 42
1.0
 10
27.74221216833712
 20
15.19999986828869
 42
1.0
 97
        0
 92
        7
 72
     1
 73
     1
 93
       26
 10
37.31485865051513
 20
19.20504706185211
 42
0.0
 10
38.37649828365295
 20
22.5669059001217
 42
0.5069206636600134
 10
37.87586738445759
 20
23.24999986828869
 42
0.0
 10
36.17697800484837
 20
23.24999986828869
 42
0.3272098845218764
 10
35.67634710565301
 20
22.88309383645566
 42
0.0
 10
33.80807723102123
 20
16.96690590012177
 42
-0.3272098845219541
 10
33.30744633182576
 20
16.59999986828868
 42
0.0
 10
33.1672121683373
 20
16.59999986828868
 42
-0.4142135623731526
 10
32.64221216833721
 20
17.12499986828867
 42
0.0
 10
32.64221216833721
 20
22.72499986828869
 42
0.4142135623730952
 10
32.11721216833723
 20
23.24999986828869
 42
0.0
 10
30.36721216833712
 20
23.24999986828869
 42
0.4142135623730872
 10
29.84221216833714
 20
22.72499986828871
 42
0.0
 10
29.84221216833714
 20
7.674999868288676
 42
0.414213562373089
 10
30.36721216833712
 20
7.149999868288688
 42
0.0
 10
32.11721216833712
 20
7.149999868288688
 42
0.4142135623731526
 10
32.64221216833721
 20
7.674999868288676
 42
0.0
 10
32.64221216833721
 20
13.2749998682887
 42
-0.4142135623731526
 10
33.1672121683373
 20
13.79999986828869
 42
0.0
 10
33.30744633182587
 20
13.79999986828869
 42
-0.3272098845218915
 10
33.80807723102123
 20
13.43309383645561
 42
0.0
 10
35.67634710565301
 20
7.51690590012176
 42
0.3272098845218902
 10
36.17697800484837
 20
7.149999868288688
 42
0.0
 10
37.87586738445759
 20
7.149999868288688
 42
0.5069206636600334
 10
38.37649828365295
 20
7.833093836455696
 42
0.0
 10
36.05010690517929
 20
15.19999986828882
 42
0.0
 97
        0
 92
        7
 72
     1
 73
     1
 93
        8
 10
43.49221216833712
 20
22.7249998682887
 42
0.4142135623731546
 10
42.96721216833703
 20
23.24999986828869
 42
0.0
 10
41.21721216833726
 20
23.24999986828869
 42
0.4142135623731506
 10
40.69221216833716
 20
22.72499986828871
 42
0.0
 10
40.69221216833716
 20
7.674999868288676
 42
0.4142135623731526
 10
41.21721216833726
 20
7.149999868288688
 42
0.0
 10
42.96721216833703
 20
7.149999868288688
 42
0.4142135623731526
 10
43.49221216833712
 20
7.674999868288676
 42
0.0
 97
        0
 92
        7
 72
     1
 73
     1
 93
       24
 10
48.39221216833721
 20
19.92499986828869
 42
-0.4142135623731547
 10
48.9172121683373
 20
20.44999986828869
 42
0.0
 10
51.89221216833721
 20
20.44999986828869
 42
0.4142135623730911
 10
52.41721216833719
 20
20.97499986828868
 42
0.0
 10
52.41721216833719
 20
22.72499986828869
 42
0.4142135623730952
 10
51.89221216833721
 20
23.24999986828869
 42
0.0
 10
48.39221216833721
 20
23.24999986828869
 42
0.4142135623731048
 10
45.59221216833714
 20
20.44999986828871
 42
0.0
 10
45.59221216833714
 20
18.63479784293345
 42
0.1989123673796613
 10
46.82236368735369
 20
15.66494936194989
 42
0.0
 10
49.73216166199836
 20
12.75515138730523
 42
-0.1989123673796402
 10
50.14221216833721
 20
11.76520189364415
 42
0.0
 10
50.14221216833721
 20
10.47499986828868
 42
-0.4142135623730911
 10
49.61721216833723
 20
9.949999868288685
 42
0.0
 10
46.64221216833721
 20
9.949999868288685
 42
0.4142135623731526
 10
46.11721216833712
 20
9.424999868288698
 42
0.0
 10
46.11721216833712
 20
7.674999868288676
 42
0.414213562373089
 10
46.6422121683371
 20
7.149999868288688
 42
0.0
 10
50.14221216833721
 20
7.149999868288688
 42
0.4142135623730925
 10
52.94221216833716
 20
9.949999868288664
 42
0.0
 10
52.94221216833716
 20
11.76520189364394
 42
0.1989123673796675
 10
51.71206064932062
 20
14.73505037462759
 42
0.0
 10
48.80226267467606
 20
17.64484834927211
 42
-0.1989123673796653
 10
48.39221216833721
 20
18.63479784293327
 42
0.0
 97
        0
 92
        7
 72
     1
 73
     1
 93
       16
 10
57.84221216833714
 20
22.72499986828868
 42
0.414213562373103
 10
57.31721216833716
 20
23.24999986828869
 42
0.0
 10
55.56721216833716
 20
23.24999986828869
 42
0.4142135623730872
 10
55.04221216833719
 20
22.72499986828871
 42
0.0
 10
55.04221216833719
 20
9.949999868288664
 42
0.4142135623730925
 10
57.84221216833714
 20
7.149999868288688
 42
0.0
 10
61.34221216833714
 20
7.149999868288688
 42
0.4142135623731044
 10
64.14221216833721
 20
9.949999868288664
 42
0.0
 10
64.14221216833721
 20
22.72499986828869
 42
0.4142135623730952
 10
63.61721216833723
 20
23.24999986828869
 42
0.0
 10
61.86721216833712
 20
23.24999986828869
 42
0.4142135623730872
 10
61.34221216833714
 20
22.72499986828871
 42
0.0
 10
61.34221216833714
 20
10.99999986828866
 42
-0.414213562373088
 10
60.29221216833719
 20
9.949999868288685
 42
0.0
 10
58.89221216833721
 20
9.949999868288685
 42
-0.4142135623731197
 10
57.84221216833714
 20
10.99999986828866
 42
0.0
 97
        0
 92
        7
 72
     1
 73
     1
 93
        8
 10
69.04221216833719
 20
22.72499986828871
 42
0.4142135623730872
 10
68.51721216833721
 20
23.24999986828869
 42
0.0
 10
66.76721216833721
 20
23.24999986828869
 42
0.4142135623731506
 10
66.24221216833712
 20
22.72499986828871
 42
0.0
 10
66.24221216833712
 20
7.674999868288676
 42
0.414213562373089
 10
66.7672121683371
 20
7.149999868288688
 42
0.0
 10
68.51721216833721
 20
7.149999868288688
 42
0.414213562373089
 10
69.04221216833719
 20
7.674999868288676
 42
0.0
 97
        0
 75
     0
 76
     1
 52
0.0
 41
0.2
 77
     0
 78
     2
 53
45.0
 43
-900.942304321123
 44
-13.20000013171125
 45
-0.4490128060534576
 46
0.4490128060534577
 79
     0
 53
135.0
 43
-900.942304321123
 44
-13.20000013171125
 45
-0.4490128060534577
 46
-0.4490128060534576
 79
     0
 47
0.057451373970553
 98
        8
 10
16.07985497657933
 20
15.16717351417424
 10
22.40451501999519
 20
18.84406205073969
 10
25.16436789921568
 20
15.5118815143594
 10
30.91405999519316
 20
16.20129751473019
 10
41.83847203251276
 20
16.6609097822718
 10
46.89820090868557
 20
19.41857618469589
 10
56.55768598595637
 20
18.7291577833837
 10
67.82707963317876
 20
19.18877005092531
  0
LINE
  5
3F02
330
1A
100
AcDbEntity
  8
ZUWAKU
100
AcDbLine
 10
24.94221216833716
 20
23.24999986828865
 30
0.0
 11
26.86721216833712
 21
23.24999986828869
 31
0.0
  0
LINE
  5
3F03
330
1A
100
AcDbEntity
  8
ZUWAKU
100
AcDbLine
 10
26.86721216833712
 20
20.44999986828869
 30
0.0
 11
24.94221216833716
 21
20.44999986828869
 31
0.0
  0
LINE
  5
3F04
330
1A
100
AcDbEntity
  8
ZUWAKU
100
AcDbLine
 10
24.94221216833716
 20
9.949999868288685
 30
0.0
 11
26.86721216833712
 21
9.949999868288685
 31
0.0
  0
LINE
  5
3F05
330
1A
100
AcDbEntity
  8
ZUWAKU
100
AcDbLine
 10
26.86721216833712
 20
7.149999868288688
 30
0.0
 11
24.94221216833716
 21
7.149999868288688
 31
0.0
  0
CIRCLE
  5
3F06
330
1A
100
AcDbEntity
  8
ZUWAKU
100
AcDbCircle
 10
25.99221216833712
 20
15.19999986828869
 30
0.0
 40
1.75
  0
ARC
  5
3F07
330
1A
100
AcDbEntity
  8
ZUWAKU
100
AcDbCircle
 10
15.49221216833712
 20
18.63479784293339
 30
0.0
 40
1.4
100
AcDbArc
 50
180.0000000000016
 51
224.9999999999988
  0
LINE
  5
3F08
330
1A
100
AcDbEntity
  8
ZUWAKU
100
AcDbLine
 10
23.54221216833719
 20
19.04999986828869
 30
0.0
 11
23.54221216833719
 21
11.34999986828869
 31
0.0
  0
LINE
  5
3F09
330
1A
100
AcDbEntity
  8
ZUWAKU
100
AcDbLine
 10
20.74221216833712
 20
11.34999986828869
 30
0.0
 11
20.74221216833712
 21
19.04999986828864
 31
0.0
  0
ARC
  5
3F0A
330
1A
100
AcDbEntity
  8
ZUWAKU
100
AcDbCircle
 10
15.49221216833712
 20
18.63479784293339
 30
0.0
 40
4.199999999999999
100
AcDbArc
 50
180.0
 51
225.0
  0
ARC
  5
3F0B
330
1A
100
AcDbEntity
  8
ZUWAKU
100
AcDbCircle
 10
15.84221216833714
 20
9.949999868288685
 30
0.0
 40
2.8
100
AcDbArc
 50
270.0
 51
0.0
  0
ARC
  5
3F0C
330
1A
100
AcDbEntity
  8
ZUWAKU
100
AcDbCircle
 10
24.94221216833716
 20
11.34999986828869
 30
0.0
 40
4.199999999999999
100
AcDbArc
 50
180.0
 51
270.0
  0
ARC
  5
3F0D
330
1A
100
AcDbEntity
  8
ZUWAKU
100
AcDbCircle
 10
14.44221216833716
 20
11.76520189364399
 30
0.0
 40
4.199999999999999
100
AcDbArc
 50
0.0
 51
45.0
  0
LINE
  5
3F0E
330
1A
100
AcDbEntity
  8
ZUWAKU
100
AcDbLine
 10
17.41206064932067
 20
14.73505037462751
 30
0.0
 11
14.50226267467599
 21
17.64484834927219
 31
0.0
  0
LINE
  5
3F0F
330
1A
100
AcDbEntity
  8
ZUWAKU
100
AcDbLine
 10
15.84221216833714
 20
10.47499986828869
 30
0.0
 11
15.84221216833714
 21
11.76520189364403
 31
0.0
  0
ARC
  5
3F10
330
1A
100
AcDbEntity
  8
ZUWAKU
100
AcDbCircle
 10
15.31721216833716
 20
10.47499986828869
 30
0.0
 40
0.5249999999999999
100
AcDbArc
 50
270.0
 51
0.0
  0
ARC
  5
3F11
330
1A
100
AcDbEntity
  8
ZUWAKU
100
AcDbCircle
 10
14.44221216833716
 20
11.76520189364403
 30
0.0
 40
1.4
100
AcDbArc
 50
0.0
 51
45.0
  0
LINE
  5
3F12
330
1A
100
AcDbEntity
  8
ZUWAKU
100
AcDbLine
 10
11.81721216833716
 20
7.674999868288687
 30
0.0
 11
11.81721216833716
 21
9.424999868288687
 31
0.0
  0
ARC
  5
3F13
330
1A
100
AcDbEntity
  8
ZUWAKU
100
AcDbCircle
 10
12.34221216833714
 20
7.674999868288687
 30
0.0
 40
0.5249999999999999
100
AcDbArc
 50
180.0
 51
270.0
  0
ARC
  5
3F14
330
1A
100
AcDbEntity
  8
ZUWAKU
100
AcDbCircle
 10
12.34221216833714
 20
9.424999868288687
 30
0.0
 40
0.5249999999999999
100
AcDbArc
 50
90.0
 51
180.0
  0
LINE
  5
3F15
330
1A
100
AcDbEntity
  8
ZUWAKU
100
AcDbLine
 10
12.34221216833714
 20
7.149999868288688
 30
0.0
 11
15.84221216833714
 21
7.149999868288688
 31
0.0
  0
LINE
  5
3F16
330
1A
100
AcDbEntity
  8
ZUWAKU
100
AcDbLine
 10
12.34221216833714
 20
9.949999868288685
 30
0.0
 11
15.31721216833716
 21
9.949999868288685
 31
0.0
  0
LINE
  5
3F17
330
1A
100
AcDbEntity
  8
ZUWAKU
100
AcDbLine
 10
12.52236368735362
 20
15.66494936194987
 30
0.0
 11
15.43216166199829
 21
12.7551513873052
 31
0.0
  0
LINE
  5
3F18
330
1A
100
AcDbEntity
  8
ZUWAKU
100
AcDbLine
 10
18.64221216833721
 20
9.949999868288685
 30
0.0
 11
18.64221216833721
 21
11.76520189364403
 31
0.0
  0
ARC
  5
3F19
330
1A
100
AcDbEntity
  8
ZUWAKU
100
AcDbCircle
 10
24.94221216833716
 20
11.34999986828869
 30
0.0
 40
1.4
100
AcDbArc
 50
180.0
 51
270.0
  0
ARC
  5
3F1A
330
1A
100
AcDbEntity
  8
ZUWAKU
100
AcDbCircle
 10
17.59221216833714
 20
22.72499986828868
 30
0.0
 40
0.5249999999999999
100
AcDbArc
 50
0.0
 51
90.0
  0
ARC
  5
3F1B
330
1A
100
AcDbEntity
  8
ZUWAKU
100
AcDbCircle
 10
17.59221216833714
 20
20.97499986828868
 30
0.0
 40
0.5249999999999999
100
AcDbArc
 50
270.0
 51
0.0
  0
LINE
  5
3F1C
330
1A
100
AcDbEntity
  8
ZUWAKU
100
AcDbLine
 10
14.09221216833714
 20
23.24999986828869
 30
0.0
 11
17.59221216833714
 21
23.24999986828869
 31
0.0
  0
ARC
  5
3F1D
330
1A
100
AcDbEntity
  8
ZUWAKU
100
AcDbCircle
 10
14.61721216833712
 20
19.92499986828869
 30
0.0
 40
0.5249999999999999
100
AcDbArc
 50
90.0
 51
180.0
  0
LINE
  5
3F1E
330
1A
100
AcDbEntity
  8
ZUWAKU
100
AcDbLine
 10
14.09221216833714
 20
19.92499986828869
 30
0.0
 11
14.09221216833714
 21
18.63479784293335
 31
0.0
  0
LINE
  5
3F1F
330
1A
100
AcDbEntity
  8
ZUWAKU
100
AcDbLine
 10
17.59221216833714
 20
20.44999986828869
 30
0.0
 11
14.61721216833712
 21
20.44999986828869
 31
0.0
  0
LINE
  5
3F20
330
1A
100
AcDbEntity
  8
ZUWAKU
100
AcDbLine
 10
11.29221216833719
 20
20.44999986828869
 30
0.0
 11
11.29221216833719
 21
18.63479784293335
 31
0.0
  0
ARC
  5
3F21
330
1A
100
AcDbEntity
  8
ZUWAKU
100
AcDbCircle
 10
14.09221216833714
 20
20.44999986828869
 30
0.0
 40
2.8
100
AcDbArc
 50
90.0
 51
180.0
  0
LINE
  5
3F22
330
1A
100
AcDbEntity
  8
ZUWAKU
100
AcDbLine
 10
18.11721216833712
 20
22.72499986828868
 30
0.0
 11
18.11721216833712
 21
20.97499986828868
 31
0.0
  0
ARC
  5
3F23
330
1A
100
AcDbEntity
  8
ZUWAKU
100
AcDbCircle
 10
24.94221216833716
 20
19.04999986828869
 30
0.0
 40
1.4
100
AcDbArc
 50
90.0
 51
180.0
  0
ARC
  5
3F24
330
1A
100
AcDbEntity
  8
ZUWAKU
100
AcDbCircle
 10
24.94221216833716
 20
19.04999986828864
 30
0.0
 40
4.199999999999999
100
AcDbArc
 50
90.0
 51
180.0
  0
LINE
  5
3F25
330
1A
100
AcDbEntity
  8
ZUWAKU
100
AcDbLine
 10
79.32662956154422
 20
29.99999986828868
 30
0.0
 11
79.32662956154445
 21
0.7999998682887508
 31
0.0
  0
LINE
  5
3F26
330
1A
100
AcDbEntity
  8
ZUWAKU
100
AcDbLine
 10
79.52662956154427
 20
29.99999986828868
 30
0.0
 11
79.5266295615445
 21
0.7999998682887508
 31
0.0
  0
LINE
  5
3F27
330
1A
100
AcDbEntity
  8
ZUWAKU
100
AcDbLine
 10
79.12662956154441
 20
29.99999986828868
 30
0.0
 11
79.12662956154441
 21
0.7999998682887508
 31
0.0
  0
LINE
  5
3F28
330
1A
100
AcDbEntity
  8
ZUWAKU
100
AcDbLine
 10
64.14221216833721
 20
9.949999868288685
 30
0.0
 11
64.14221216833721
 21
22.72499986828868
 31
0.0
  0
LINE
  5
3F29
330
1A
100
AcDbEntity
  8
ZUWAKU
100
AcDbLine
 10
61.34221216833714
 20
22.72499986828868
 30
0.0
 11
61.34221216833714
 21
10.99999986828868
 31
0.0
  0
LINE
  5
3F2A
330
1A
100
AcDbEntity
  8
ZUWAKU
100
AcDbLine
 10
69.04221216833719
 20
7.674999868288687
 30
0.0
 11
69.04221216833719
 21
22.72499986828868
 31
0.0
  0
LINE
  5
3F2B
330
1A
100
AcDbEntity
  8
ZUWAKU
100
AcDbLine
 10
66.24221216833712
 20
22.72499986828868
 30
0.0
 11
66.24221216833712
 21
7.674999868288687
 31
0.0
  0
ARC
  5
3F2C
330
1A
100
AcDbEntity
  8
ZUWAKU
100
AcDbCircle
 10
49.79221216833719
 20
18.63479784293339
 30
0.0
 40
1.4
100
AcDbArc
 50
180.0000000000016
 51
224.9999999999988
  0
ARC
  5
3F2D
330
1A
100
AcDbEntity
  8
ZUWAKU
100
AcDbCircle
 10
49.79221216833719
 20
18.63479784293339
 30
0.0
 40
4.199999999999999
100
AcDbArc
 50
180.0
 51
225.0
  0
LINE
  5
3F2E
330
1A
100
AcDbEntity
  8
ZUWAKU
100
AcDbLine
 10
37.31485865051513
 20
19.20504706185211
 30
0.0
 11
36.05010690517929
 21
15.19999986828871
 31
0.0
  0
LINE
  5
3F2F
330
1A
100
AcDbEntity
  8
ZUWAKU
100
AcDbLine
 10
40.69221216833716
 20
22.72499986828868
 30
0.0
 11
40.69221216833716
 21
7.674999868288687
 31
0.0
  0
LINE
  5
3F30
330
1A
100
AcDbEntity
  8
ZUWAKU
100
AcDbLine
 10
43.49221216833712
 20
7.674999868288687
 30
0.0
 11
43.49221216833712
 21
22.72499986828868
 31
0.0
  0
LINE
  5
3F31
330
1A
100
AcDbEntity
  8
ZUWAKU
100
AcDbLine
 10
55.04221216833719
 20
22.72499986828868
 30
0.0
 11
55.04221216833719
 21
9.949999868288685
 31
0.0
  0
LINE
  5
3F32
330
1A
100
AcDbEntity
  8
ZUWAKU
100
AcDbLine
 10
57.84221216833714
 20
10.99999986828868
 30
0.0
 11
57.84221216833714
 21
22.72499986828868
 31
0.0
  0
LINE
  5
3F33
330
1A
100
AcDbEntity
  8
ZUWAKU
100
AcDbLine
 10
32.64221216833721
 20
17.12499986828869
 30
0.0
 11
32.64221216833721
 21
22.72499986828868
 31
0.0
  0
LINE
  5
3F34
330
1A
100
AcDbEntity
  8
ZUWAKU
100
AcDbLine
 10
29.84221216833714
 20
22.72499986828868
 30
0.0
 11
29.84221216833714
 21
7.674999868288687
 31
0.0
  0
LINE
  5
3F35
330
1A
100
AcDbEntity
  8
ZUWAKU
100
AcDbLine
 10
35.67634710565301
 20
22.88309383645566
 30
0.0
 11
33.80807723102123
 21
16.96690590012172
 31
0.0
  0
LINE
  5
3F36
330
1A
100
AcDbEntity
  8
ZUWAKU
100
AcDbLine
 10
60.29221216833719
 20
9.949999868288685
 30
0.0
 11
58.89221216833721
 21
9.949999868288685
 31
0.0
  0
LINE
  5
3F37
330
1A
100
AcDbEntity
  8
ZUWAKU
100
AcDbLine
 10
57.84221216833714
 20
7.149999868288688
 30
0.0
 11
61.34221216833714
 21
7.149999868288688
 31
0.0
  0
LINE
  5
3F38
330
1A
100
AcDbEntity
  8
ZUWAKU
100
AcDbLine
 10
41.21721216833714
 20
7.149999868288688
 30
0.0
 11
42.96721216833714
 21
7.149999868288688
 31
0.0
  0
LINE
  5
3F39
330
1A
100
AcDbEntity
  8
ZUWAKU
100
AcDbLine
 10
35.67634710565301
 20
7.516905900121714
 30
0.0
 11
33.80807723102123
 21
13.43309383645565
 31
0.0
  0
ARC
  5
3F3A
330
1A
100
AcDbEntity
  8
ZUWAKU
100
AcDbCircle
 10
33.30744633182587
 20
17.12499986828869
 30
0.0
 40
0.5249999999999999
100
AcDbArc
 50
270.0
 51
342.474431626277
  0
LINE
  5
3F3B
330
1A
100
AcDbEntity
  8
ZUWAKU
100
AcDbLine
 10
33.30744633182587
 20
16.59999986828868
 30
0.0
 11
33.16721216833719
 21
16.59999986828868
 31
0.0
  0
LINE
  5
3F3C
330
1A
100
AcDbEntity
  8
ZUWAKU
100
AcDbLine
 10
33.16721216833719
 20
13.79999986828869
 30
0.0
 11
33.30744633182587
 21
13.79999986828869
 31
0.0
  0
ARC
  5
3F3D
330
1A
100
AcDbEntity
  8
ZUWAKU
100
AcDbCircle
 10
33.16721216833719
 20
17.12499986828869
 30
0.0
 40
0.5249999999999999
100
AcDbArc
 50
180.0
 51
270.0
  0
LINE
  5
3F3E
330
1A
100
AcDbEntity
  8
ZUWAKU
100
AcDbLine
 10
30.36721216833712
 20
7.149999868288688
 30
0.0
 11
32.11721216833712
 21
7.149999868288688
 31
0.0
  0
ARC
  5
3F3F
330
1A
100
AcDbEntity
  8
ZUWAKU
100
AcDbCircle
 10
32.11721216833712
 20
7.674999868288687
 30
0.0
 40
0.5249999999999999
100
AcDbArc
 50
270.0
 51
0.0
  0
LINE
  5
3F40
330
1A
100
AcDbEntity
  8
ZUWAKU
100
AcDbLine
 10
32.64221216833721
 20
7.674999868288687
 30
0.0
 11
32.64221216833721
 21
13.27499986828869
 31
0.0
  0
LINE
  5
3F41
330
1A
100
AcDbEntity
  8
ZUWAKU
100
AcDbLine
 10
27.39221216833721
 20
9.424999868288687
 30
0.0
 11
27.39221216833721
 21
7.674999868288687
 31
0.0
  0
ARC
  5
3F42
330
1A
100
AcDbEntity
  8
ZUWAKU
100
AcDbCircle
 10
26.86721216833712
 20
7.674999868288687
 30
0.0
 40
0.5249999999999999
100
AcDbArc
 50
270.0
 51
0.0
  0
ARC
  5
3F43
330
1A
100
AcDbEntity
  8
ZUWAKU
100
AcDbCircle
 10
26.86721216833712
 20
9.424999868288687
 30
0.0
 40
0.5249999999999999
100
AcDbArc
 50
0.0
 51
90.0
  0
ARC
  5
3F44
330
1A
100
AcDbEntity
  8
ZUWAKU
100
AcDbCircle
 10
30.36721216833712
 20
7.674999868288687
 30
0.0
 40
0.5249999999999999
100
AcDbArc
 50
180.0
 51
270.0
  0
ARC
  5
3F45
330
1A
100
AcDbEntity
  8
ZUWAKU
100
AcDbCircle
 10
33.30744633182587
 20
13.27499986828869
 30
0.0
 40
0.5249999999999999
100
AcDbArc
 50
17.52556837372303
 51
90.0
  0
ARC
  5
3F46
330
1A
100
AcDbEntity
  8
ZUWAKU
100
AcDbCircle
 10
33.16721216833719
 20
13.27499986828869
 30
0.0
 40
0.5249999999999999
100
AcDbArc
 50
90.0
 51
180.0
  0
ARC
  5
3F47
330
1A
100
AcDbEntity
  8
ZUWAKU
100
AcDbCircle
 10
41.21721216833714
 20
7.674999868288687
 30
0.0
 40
0.5249999999999999
100
AcDbArc
 50
180.0
 51
270.0
  0
LINE
  5
3F48
330
1A
100
AcDbEntity
  8
ZUWAKU
100
AcDbLine
 10
36.17697800484848
 20
7.149999868288688
 30
0.0
 11
37.87586738445748
 21
7.149999868288688
 31
0.0
  0
ARC
  5
3F49
330
1A
100
AcDbEntity
  8
ZUWAKU
100
AcDbCircle
 10
37.87586738445748
 20
7.674999868288687
 30
0.0
 40
0.5249999999999999
100
AcDbArc
 50
270.0
 51
17.52556837372303
  0
LINE
  5
3F4A
330
1A
100
AcDbEntity
  8
ZUWAKU
100
AcDbLine
 10
38.37649828365295
 20
7.83309383645566
 30
0.0
 11
36.05010690517929
 21
15.19999986828871
 31
0.0
  0
ARC
  5
3F4B
330
1A
100
AcDbEntity
  8
ZUWAKU
100
AcDbCircle
 10
36.17697800484848
 20
7.674999868288687
 30
0.0
 40
0.5249999999999999
100
AcDbArc
 50
197.525568373723
 51
270.0
  0
ARC
  5
3F4C
330
1A
100
AcDbEntity
  8
ZUWAKU
100
AcDbCircle
 10
57.84221216833714
 20
9.949999868288685
 30
0.0
 40
2.8
100
AcDbArc
 50
180.0
 51
270.0
  0
ARC
  5
3F4D
330
1A
100
AcDbEntity
  8
ZUWAKU
100
AcDbCircle
 10
50.14221216833721
 20
9.949999868288685
 30
0.0
 40
2.8
100
AcDbArc
 50
270.0
 51
0.0
  0
LINE
  5
3F4E
330
1A
100
AcDbEntity
  8
ZUWAKU
100
AcDbLine
 10
51.71206064932073
 20
14.73505037462751
 30
0.0
 11
48.80226267467594
 21
17.64484834927219
 31
0.0
  0
LINE
  5
3F4F
330
1A
100
AcDbEntity
  8
ZUWAKU
100
AcDbLine
 10
50.14221216833721
 20
10.47499986828869
 30
0.0
 11
50.14221216833721
 21
11.76520189364403
 31
0.0
  0
ARC
  5
3F50
330
1A
100
AcDbEntity
  8
ZUWAKU
100
AcDbCircle
 10
48.74221216833712
 20
11.76520189364403
 30
0.0
 40
1.4
100
AcDbArc
 50
0.0
 51
45.0
  0
ARC
  5
3F51
330
1A
100
AcDbEntity
  8
ZUWAKU
100
AcDbCircle
 10
49.61721216833712
 20
10.47499986828869
 30
0.0
 40
0.5249999999999999
100
AcDbArc
 50
270.0
 51
0.0
  0
LINE
  5
3F52
330
1A
100
AcDbEntity
  8
ZUWAKU
100
AcDbLine
 10
46.11721216833712
 20
7.674999868288687
 30
0.0
 11
46.11721216833712
 21
9.424999868288687
 31
0.0
  0
ARC
  5
3F53
330
1A
100
AcDbEntity
  8
ZUWAKU
100
AcDbCircle
 10
46.64221216833721
 20
7.674999868288687
 30
0.0
 40
0.5249999999999999
100
AcDbArc
 50
180.0
 51
270.0
  0
ARC
  5
3F54
330
1A
100
AcDbEntity
  8
ZUWAKU
100
AcDbCircle
 10
42.96721216833714
 20
7.674999868288687
 30
0.0
 40
0.5249999999999999
100
AcDbArc
 50
270.0
 51
0.0
  0
ARC
  5
3F55
330
1A
100
AcDbEntity
  8
ZUWAKU
100
AcDbCircle
 10
46.64221216833721
 20
9.424999868288687
 30
0.0
 40
0.5249999999999999
100
AcDbArc
 50
90.0
 51
180.0
  0
LINE
  5
3F56
330
1A
100
AcDbEntity
  8
ZUWAKU
100
AcDbLine
 10
46.64221216833721
 20
9.949999868288685
 30
0.0
 11
49.61721216833712
 21
9.949999868288685
 31
0.0
  0
LINE
  5
3F57
330
1A
100
AcDbEntity
  8
ZUWAKU
100
AcDbLine
 10
46.64221216833721
 20
7.149999868288688
 30
0.0
 11
50.14221216833721
 21
7.149999868288688
 31
0.0
  0
LINE
  5
3F58
330
1A
100
AcDbEntity
  8
ZUWAKU
100
AcDbLine
 10
46.82236368735369
 20
15.66494936194987
 30
0.0
 11
49.73216166199836
 21
12.7551513873052
 31
0.0
  0
LINE
  5
3F59
330
1A
100
AcDbEntity
  8
ZUWAKU
100
AcDbLine
 10
52.94221216833716
 20
9.949999868288685
 30
0.0
 11
52.94221216833716
 21
11.76520189364403
 31
0.0
  0
ARC
  5
3F5A
330
1A
100
AcDbEntity
  8
ZUWAKU
100
AcDbCircle
 10
48.74221216833712
 20
11.76520189364399
 30
0.0
 40
4.199999999999999
100
AcDbArc
 50
0.0
 51
45.0
  0
ARC
  5
3F5B
330
1A
100
AcDbEntity
  8
ZUWAKU
100
AcDbCircle
 10
58.89221216833721
 20
10.99999986828868
 30
0.0
 40
1.05
100
AcDbArc
 50
180.0
 51
270.0
  0
ARC
  5
3F5C
330
1A
100
AcDbEntity
  8
ZUWAKU
100
AcDbCircle
 10
61.34221216833714
 20
9.949999868288685
 30
0.0
 40
2.8
100
AcDbArc
 50
270.0
 51
0.0
  0
LINE
  5
3F5D
330
1A
100
AcDbEntity
  8
ZUWAKU
100
AcDbLine
 10
66.76721216833721
 20
7.149999868288688
 30
0.0
 11
68.51721216833721
 21
7.149999868288688
 31
0.0
  0
ARC
  5
3F5E
330
1A
100
AcDbEntity
  8
ZUWAKU
100
AcDbCircle
 10
66.76721216833721
 20
7.674999868288687
 30
0.0
 40
0.5249999999999999
100
AcDbArc
 50
180.0
 51
270.0
  0
ARC
  5
3F5F
330
1A
100
AcDbEntity
  8
ZUWAKU
100
AcDbCircle
 10
60.29221216833719
 20
10.99999986828868
 30
0.0
 40
1.05
100
AcDbArc
 50
270.0
 51
0.0
  0
ARC
  5
3F60
330
1A
100
AcDbEntity
  8
ZUWAKU
100
AcDbCircle
 10
68.51721216833721
 20
7.674999868288687
 30
0.0
 40
0.5249999999999999
100
AcDbArc
 50
270.0
 51
0.0
  0
LINE
  5
3F61
330
1A
100
AcDbEntity
  8
ZUWAKU
100
AcDbLine
 10
42.96721216833714
 20
23.24999986828869
 30
0.0
 11
41.21721216833714
 21
23.24999986828869
 31
0.0
  0
ARC
  5
3F62
330
1A
100
AcDbEntity
  8
ZUWAKU
100
AcDbCircle
 10
32.11721216833712
 20
22.72499986828868
 30
0.0
 40
0.5249999999999999
100
AcDbArc
 50
0.0
 51
90.0
  0
LINE
  5
3F63
330
1A
100
AcDbEntity
  8
ZUWAKU
100
AcDbLine
 10
32.11721216833712
 20
23.24999986828869
 30
0.0
 11
30.36721216833712
 21
23.24999986828869
 31
0.0
  0
ARC
  5
3F64
330
1A
100
AcDbEntity
  8
ZUWAKU
100
AcDbCircle
 10
26.86721216833712
 20
22.72499986828868
 30
0.0
 40
0.5249999999999999
100
AcDbArc
 50
0.0
 51
90.0
  0
ARC
  5
3F65
330
1A
100
AcDbEntity
  8
ZUWAKU
100
AcDbCircle
 10
30.36721216833712
 20
22.72499986828868
 30
0.0
 40
0.5249999999999999
100
AcDbArc
 50
90.0
 51
180.0
  0
ARC
  5
3F66
330
1A
100
AcDbEntity
  8
ZUWAKU
100
AcDbCircle
 10
26.86721216833712
 20
20.97499986828868
 30
0.0
 40
0.5249999999999999
100
AcDbArc
 50
270.0
 51
0.0
  0
LINE
  5
3F67
330
1A
100
AcDbEntity
  8
ZUWAKU
100
AcDbLine
 10
27.39221216833721
 20
22.72499986828868
 30
0.0
 11
27.39221216833721
 21
20.97499986828868
 31
0.0
  0
ARC
  5
3F68
330
1A
100
AcDbEntity
  8
ZUWAKU
100
AcDbCircle
 10
41.21721216833714
 20
22.72499986828868
 30
0.0
 40
0.5249999999999999
100
AcDbArc
 50
90.0
 51
180.0
  0
LINE
  5
3F69
330
1A
100
AcDbEntity
  8
ZUWAKU
100
AcDbLine
 10
36.17697800484848
 20
23.24999986828869
 30
0.0
 11
37.87586738445748
 21
23.24999986828869
 31
0.0
  0
ARC
  5
3F6A
330
1A
100
AcDbEntity
  8
ZUWAKU
100
AcDbCircle
 10
37.87586738445748
 20
22.72499986828868
 30
0.0
 40
0.5249999999999999
100
AcDbArc
 50
342.474431626277
 51
90.0
  0
LINE
  5
3F6B
330
1A
100
AcDbEntity
  8
ZUWAKU
100
AcDbLine
 10
38.37649828365295
 20
22.56690590012172
 30
0.0
 11
37.31485865051513
 21
19.20504706185211
 31
0.0
  0
ARC
  5
3F6C
330
1A
100
AcDbEntity
  8
ZUWAKU
100
AcDbCircle
 10
36.17697800484848
 20
22.72499986828868
 30
0.0
 40
0.5249999999999999
100
AcDbArc
 50
90.0
 51
162.474431626277
  0
LINE
  5
3F6D
330
1A
100
AcDbEntity
  8
ZUWAKU
100
AcDbLine
 10
48.39221216833721
 20
23.24999986828869
 30
0.0
 11
51.89221216833721
 21
23.24999986828869
 31
0.0
  0
LINE
  5
3F6E
330
1A
100
AcDbEntity
  8
ZUWAKU
100
AcDbLine
 10
51.89221216833721
 20
20.44999986828869
 30
0.0
 11
48.91721216833719
 21
20.44999986828869
 31
0.0
  0
ARC
  5
3F6F
330
1A
100
AcDbEntity
  8
ZUWAKU
100
AcDbCircle
 10
48.91721216833719
 20
19.92499986828869
 30
0.0
 40
0.5249999999999999
100
AcDbArc
 50
90.0
 51
180.0
  0
LINE
  5
3F70
330
1A
100
AcDbEntity
  8
ZUWAKU
100
AcDbLine
 10
48.39221216833721
 20
19.92499986828869
 30
0.0
 11
48.39221216833721
 21
18.63479784293335
 31
0.0
  0
ARC
  5
3F71
330
1A
100
AcDbEntity
  8
ZUWAKU
100
AcDbCircle
 10
42.96721216833714
 20
22.72499986828868
 30
0.0
 40
0.5249999999999999
100
AcDbArc
 50
0.0
 51
90.0
  0
LINE
  5
3F72
330
1A
100
AcDbEntity
  8
ZUWAKU
100
AcDbLine
 10
45.59221216833714
 20
20.44999986828869
 30
0.0
 11
45.59221216833714
 21
18.63479784293335
 31
0.0
  0
ARC
  5
3F73
330
1A
100
AcDbEntity
  8
ZUWAKU
100
AcDbCircle
 10
48.39221216833721
 20
20.44999986828869
 30
0.0
 40
2.8
100
AcDbArc
 50
90.0
 51
180.0
  0
ARC
  5
3F74
330
1A
100
AcDbEntity
  8
ZUWAKU
100
AcDbCircle
 10
57.31721216833716
 20
22.72499986828868
 30
0.0
 40
0.5249999999999999
100
AcDbArc
 50
0.0
 51
90.0
  0
ARC
  5
3F75
330
1A
100
AcDbEntity
  8
ZUWAKU
100
AcDbCircle
 10
55.56721216833716
 20
22.72499986828868
 30
0.0
 40
0.5249999999999999
100
AcDbArc
 50
90.0
 51
180.0
  0
LINE
  5
3F76
330
1A
100
AcDbEntity
  8
ZUWAKU
100
AcDbLine
 10
57.31721216833716
 20
23.24999986828869
 30
0.0
 11
55.56721216833716
 21
23.24999986828869
 31
0.0
  0
ARC
  5
3F77
330
1A
100
AcDbEntity
  8
ZUWAKU
100
AcDbCircle
 10
51.89221216833721
 20
22.72499986828868
 30
0.0
 40
0.5249999999999999
100
AcDbArc
 50
0.0
 51
90.0
  0
ARC
  5
3F78
330
1A
100
AcDbEntity
  8
ZUWAKU
100
AcDbCircle
 10
51.89221216833721
 20
20.97499986828868
 30
0.0
 40
0.5249999999999999
100
AcDbArc
 50
270.0
 51
0.0
  0
LINE
  5
3F79
330
1A
100
AcDbEntity
  8
ZUWAKU
100
AcDbLine
 10
52.41721216833719
 20
22.72499986828868
 30
0.0
 11
52.41721216833719
 21
20.97499986828868
 31
0.0
  0
LINE
  5
3F7A
330
1A
100
AcDbEntity
  8
ZUWAKU
100
AcDbLine
 10
68.51721216833721
 20
23.24999986828869
 30
0.0
 11
66.76721216833721
 21
23.24999986828869
 31
0.0
  0
ARC
  5
3F7B
330
1A
100
AcDbEntity
  8
ZUWAKU
100
AcDbCircle
 10
66.76721216833721
 20
22.72499986828868
 30
0.0
 40
0.5249999999999999
100
AcDbArc
 50
90.0
 51
180.0
  0
ARC
  5
3F7C
330
1A
100
AcDbEntity
  8
ZUWAKU
100
AcDbCircle
 10
63.61721216833712
 20
22.72499986828868
 30
0.0
 40
0.5249999999999999
100
AcDbArc
 50
0.0
 51
90.0
  0
LINE
  5
3F7D
330
1A
100
AcDbEntity
  8
ZUWAKU
100
AcDbLine
 10
63.61721216833712
 20
23.24999986828869
 30
0.0
 11
61.86721216833712
 21
23.24999986828869
 31
0.0
  0
ARC
  5
3F7E
330
1A
100
AcDbEntity
  8
ZUWAKU
100
AcDbCircle
 10
61.86721216833712
 20
22.72499986828868
 30
0.0
 40
0.5249999999999999
100
AcDbArc
 50
90.0
 51
180.0
  0
ARC
  5
3F7F
330
1A
100
AcDbEntity
  8
ZUWAKU
100
AcDbCircle
 10
68.51721216833721
 20
22.72499986828868
 30
0.0
 40
0.5249999999999999
100
AcDbArc
 50
0.0
 51
90.0
  0
TEXT
  5
3F80
330
1A
100
AcDbEntity
  8
moji
100
AcDbText
 10
239.8272026944071
 20
18.00492092569607
 30
0.0
 40
5.6
  1
ステンレス金具上打Ⅱ型
 41
0.9
  7
ｽﾀｲﾙ1
100
AcDbText
  0
TEXT
  5
3F81
330
1A
100
AcDbEntity
  8
moji
100
AcDbText
 10
239.8272026944071
 20
3.204920925696104
 30
0.0
 40
5.6
  1
Σ９０－Ⅱ－３.５
 41
0.9
  7
ｽﾀｲﾙ1
100
AcDbText
  0
LINE
  5
3F82
330
1A
100
AcDbEntity
  8
ZUWAKU
100
AcDbLine
 10
208.246601303624
 20
29.99999986828868
 30
0.0
 11
208.246601303624
 21
0.7999998682887508
 31
0.0
  0
LINE
  5
3F83
330
1A
100
AcDbEntity
  8
ZUWAKU
100
AcDbLine
 10
208.6466013036238
 20
29.99999986828868
 30
0.0
 11
208.646601303624
 21
0.7999998682887508
 31
0.0
  0
LINE
  5
3F84
330
1A
100
AcDbEntity
  8
ZUWAKU
100
AcDbLine
 10
208.4466013036238
 20
29.99999986828868
 30
0.0
 11
208.446601303624
 21
0.7999998682887508
 31
0.0
  0
TEXT
  5
3F85
330
1A
100
AcDbEntity
  8
ZUWAKU
100
AcDbText
 10
209.7240463258336
 20
9.655356406674301
 30
0.0
 40
4.0
  1
サイズ
 41
0.9
  7
ｽﾀｲﾙ1
100
AcDbText
  0
TEXT
  5
3F86
330
1A
100
AcDbEntity
  8
ZUWAKU
100
AcDbText
 10
209.7240463258333
 20
24.05535640667426
 30
0.0
 40
4.0
  1
品名
 41
0.9
  7
ｽﾀｲﾙ1
100
AcDbText
  0
LINE
  5
3F87
330
1A
100
AcDbEntity
  8
ZUWAKU
100
AcDbLine
 10
648.8172025237602
 20
15.19999986828871
 30
0.0
 11
697.2490105620973
 21
15.19999986828872
 31
0.0
  0
LINE
  5
3F88
330
1A
100
AcDbEntity
  8
ZUWAKU
100
AcDbLine
 10
648.8172025237604
 20
15.39999986828872
 30
0.0
 11
697.2490105620973
 21
15.39999986828872
 31
0.0
  0
LINE
  5
3F89
330
1A
100
AcDbEntity
  8
ZUWAKU
100
AcDbLine
 10
648.8172025237602
 20
15.59999986828872
 30
0.0
 11
697.2490105620973
 21
15.59999986828872
 31
0.0
  0
TEXT
  5
3F8A
330
1A
100
AcDbEntity
  8
ZUWAKU
100
AcDbText
 10
658.2039377008584
 20
18.00492092569607
 30
0.0
 40
5.6
  1
　　．　　．　　
 41
0.9
  7
ｽﾀｲﾙ1
100
AcDbText
  0
LINE
  5
3F8B
330
1A
100
AcDbEntity
  8
ZUWAKU
100
AcDbLine
 10
505.1991795116969
 20
15.19999986828872
 30
0.0
 11
552.5269557796685
 21
15.19999986828872
 31
0.0
  0
LINE
  5
3F8C
330
1A
100
AcDbEntity
  8
ZUWAKU
100
AcDbLine
 10
505.1991795116969
 20
15.39999986828872
 30
0.0
 11
552.5269557796685
 21
15.39999986828872
 31
0.0
  0
LINE
  5
3F8D
330
1A
100
AcDbEntity
  8
ZUWAKU
100
AcDbLine
 10
505.1991795116969
 20
15.59999986828872
 30
0.0
 11
552.5269557796685
 21
15.59999986828872
 31
0.0
  0
TEXT
  5
3F8E
330
1A
100
AcDbEntity
  8
moji
100
AcDbText
 10
463.2464320045581
 20
11.94261758994867
 30
0.0
 40
5.6
  1
ＬＧ４２□
 41
0.9
  7
ｽﾀｲﾙ1
100
AcDbText
  0
LINE
  5
3F8F
330
1A
100
AcDbEntity
  8
ZUWAKU
100
AcDbLine
 10
447.6243639845472
 20
29.99999986828868
 30
0.0
 11
447.6243639845475
 21
0.7999998682887508
 31
0.0
  0
LINE
  5
3F90
330
1A
100
AcDbEntity
  8
ZUWAKU
100
AcDbLine
 10
447.8243639845473
 20
29.99999986828868
 30
0.0
 11
447.8243639845475
 21
0.7999998682887508
 31
0.0
  0
LINE
  5
3F91
330
1A
100
AcDbEntity
  8
ZUWAKU
100
AcDbLine
 10
447.4243639845474
 20
29.99999986828868
 30
0.0
 11
447.4243639845474
 21
0.7999998682887508
 31
0.0
  0
TEXT
  5
3F92
330
1A
100
AcDbEntity
  8
moji
100
AcDbText
 10
528.0409079858689
 20
18.00492092569607
 30
0.0
 40
5.6
  1
Ａ３
 41
0.9
  7
ｽﾀｲﾙ1
100
AcDbText
  0
LINE
  5
3F93
330
1A
100
AcDbEntity
  8
ZUWAKU
100
AcDbLine
 10
504.9991795116969
 20
29.99999986828868
 30
0.0
 11
504.9991795116971
 21
0.7999998682887508
 31
0.0
  0
LINE
  5
3F94
330
1A
100
AcDbEntity
  8
ZUWAKU
100
AcDbLine
 10
505.1991795116969
 20
29.99999986828868
 30
0.0
 11
505.1991795116971
 21
0.7999998682887508
 31
0.0
  0
LINE
  5
3F95
330
1A
100
AcDbEntity
  8
ZUWAKU
100
AcDbLine
 10
504.7991795116971
 20
29.99999986828868
 30
0.0
 11
504.7991795116971
 21
0.7999998682887508
 31
0.0
  0
TEXT
  5
3F97
330
1A
100
AcDbEntity
  8
ZUWAKU
100
AcDbText
 10
506.6766245339068
 20
9.655356406674301
 30
0.0
 40
4.0
  1
縮尺
 41
0.9
  7
ｽﾀｲﾙ1
100
AcDbText
  0
TEXT
  5
3F98
330
1A
100
AcDbEntity
  8
moji
100
AcDbText
 10
528.0409079858689
 20
3.204920925696104
 30
0.0
 40
5.6
  1
１/２
 41
0.9
  7
ｽﾀｲﾙ1
100
AcDbText
  0
TEXT
  5
3F99
330
1A
100
AcDbEntity
  8
ZUWAKU
100
AcDbText
 10
449.3018090067569
 20
24.05535640667426
 30
0.0
 40
4.0
  1
品番
 41
0.9
  7
ｽﾀｲﾙ1
100
AcDbText
  0
TEXT
  5
3F9A
330
1A
100
AcDbEntity
  8
ZUWAKU
100
AcDbText
 10
506.6766245339065
 20
24.05535640667426
 30
0.0
 40
4.0
  1
用紙
 41
0.9
  7
ｽﾀｲﾙ1
100
AcDbText
  0
LINE
  5
3F9B
330
1A
100
AcDbEntity
  8
ZUWAKU
100
AcDbLine
 10
648.6172025237604
 20
29.99999986828868
 30
0.0
 11
648.6172025237606
 21
0.7999998682887508
 31
0.0
  0
LINE
  5
3F9C
330
1A
100
AcDbEntity
  8
ZUWAKU
100
AcDbLine
 10
648.8172025237604
 20
29.99999986828868
 30
0.0
 11
648.8172025237607
 21
0.7999998682887508
 31
0.0
  0
LINE
  5
3F9D
330
1A
100
AcDbEntity
  8
ZUWAKU
100
AcDbLine
 10
648.4172025237606
 20
29.99999986828868
 30
0.0
 11
648.4172025237606
 21
0.7999998682887508
 31
0.0
  0
LINE
  5
3F9E
330
1A
100
AcDbEntity
  8
ZUWAKU
100
AcDbLine
 10
552.7269557796683
 20
29.99999986828868
 30
0.0
 11
552.7269557796685
 21
0.7999998682887508
 31
0.0
  0
LINE
  5
3F9F
330
1A
100
AcDbEntity
  8
ZUWAKU
100
AcDbLine
 10
552.9269557796683
 20
29.99999986828868
 30
0.0
 11
552.9269557796686
 21
0.7999998682887508
 31
0.0
  0
LINE
  5
3FA0
330
1A
100
AcDbEntity
  8
ZUWAKU
100
AcDbLine
 10
552.5269557796685
 20
29.99999986828868
 30
0.0
 11
552.5269557796685
 21
0.7999998682887508
 31
0.0
  0
TEXT
  5
3FA1
330
1A
100
AcDbEntity
  8
ZUWAKU
100
AcDbText
 10
650.2946475459701
 20
24.05535640667426
 30
0.0
 40
4.0
  1
DATE
 41
0.9
  7
ｽﾀｲﾙ1
100
AcDbText
  0
LINE
  5
3FA2
330
1A
100
AcDbEntity
  8
ZUWAKU
100
AcDbLine
 10
697.2490105620973
 20
29.99999986828868
 30
0.0
 11
697.2490105620973
 21
0.7999998682887508
 31
0.0
  0
LINE
  5
3FA3
330
1A
100
AcDbEntity
  8
ZUWAKU
100
AcDbLine
 10
697.4490105620973
 20
29.99999986828868
 30
0.0
 11
697.4490105620973
 21
0.7999998682887508
 31
0.0
  0
LINE
  5
3FA4
330
1A
100
AcDbEntity
  8
ZUWAKU
100
AcDbLine
 10
697.6490105620972
 20
29.99999986828868
 30
0.0
 11
697.6490105620974
 21
0.7999998682887508
 31
0.0
  0
LINE
  5
3FA5
330
1A
100
AcDbEntity
  8
ZUWAKU
100
AcDbLine
 10
697.8490105620972
 20
29.99999986828868
 30
0.0
 11
697.8490105620974
 21
0.7999998682887508
 31
0.0
  0
TEXT
  5
3FA6
330
1A
100
AcDbEntity
  8
ZUWAKU
100
AcDbText
 10
708.5280842057998
 20
17.55383920397549
 30
0.0
 40
6.0
  1
積水化学工業株式会社
 41
0.9
  7
ｽﾀｲﾙ1
100
AcDbText
  0
TEXT
  5
3FA7
330
1A
100
AcDbEntity
  8
ZUWAKU
100
AcDbText
 10
708.5280842057998
 20
6.648840182142749
 30
0.0
 40
6.0
  1
建材事業部
 41
0.9
  7
ｽﾀｲﾙ1
100
AcDbText
  0
TEXT
  5
6DB4
330
1A
100
AcDbEntity
  8
ZUWAKU
100
AcDbText
 10
462.1716760137121
 20
2.614070779428175
 30
0.0
 40
3.0
  1
□には色品番が入ります
 41
0.9
  7
ｽﾀｲﾙ1
100
AcDbText
  0
LINE
  5
9E25
330
1A
100
AcDbEntity
  8
SEIHIN
  6
Continuous
 62
     3
 48
5.0
100
AcDbLine
 10
421.8473551445832
 20
473.1880553111283
 30
0.0
 11
363.9099551445831
 21
473.1880553111283
 31
0.0
  0
LINE
  5
9E26
330
1A
100
AcDbEntity
  8
SEIHIN
  6
Continuous
 62
     3
 48
5.0
100
AcDbLine
 10
421.8475551445833
 20
465.1880553111283
 30
0.0
 11
363.7855551445833
 21
465.1880553111283
 31
0.0
  0
LINE
  5
9E27
330
1A
100
AcDbEntity
  8
SEIHIN
  6
Continuous
 62
     3
 48
5.0
100
AcDbLine
 10
573.2999551445832
 20
459.6880553111283
 30
0.0
 11
316.4473551445833
 21
459.6880553111283
 31
0.0
  0
LINE
  5
9E28
330
1A
100
AcDbEntity
  8
SEIHIN
  6
Continuous
 62
     3
 48
5.0
100
AcDbLine
 10
316.4473551445833
 20
478.6880553111284
 30
0.0
 11
573.2999551445832
 21
478.6880553111284
 31
0.0
  0
LINE
  5
9E29
330
1A
100
AcDbEntity
  8
SEIHIN
  6
Continuous
 62
     3
 48
5.0
100
AcDbLine
 10
379.7853551445833
 20
107.578391352238
 30
0.0
 11
441.3370551445833
 21
107.578391352238
 31
0.0
  0
LINE
  5
9E2A
330
1A
100
AcDbEntity
  8
SEIHIN
  6
Continuous
 62
     3
 48
5.0
100
AcDbLine
 10
441.3108551445832
 20
110.078391352238
 30
0.0
 11
352.2199551445833
 21
110.078391352238
 31
0.0
  0
LINE
  5
9E2B
330
1A
100
AcDbEntity
  8
SEIHIN
  6
Continuous
 62
     3
 48
5.0
100
AcDbLine
 10
352.2199551445833
 20
112.0783913522378
 30
0.0
 11
441.3108551445832
 21
112.0783913522378
 31
0.0
  0
LINE
  5
9E2C
330
1A
100
AcDbEntity
  8
CENTER L
  6
CENTER
 62
     1
 48
5.0
100
AcDbLine
 10
581.8450551445833
 20
469.1880553111283
 30
0.0
 11
301.2021551445832
 21
469.1880553111283
 31
0.0
  0
LINE
  5
9E2D
330
1A
100
AcDbEntity
  8
SEIHIN
  6
Continuous
 62
     3
 48
5.0
100
AcDbLine
 10
437.3108551445832
 20
112.0783913522378
 30
0.0
 11
408.5659551445833
 21
112.0783913522378
 31
0.0
  0
DIMENSION
  5
9E2E
330
1A
100
AcDbEntity
  8
SUNPOU
 48
5.0
100
AcDbDimension
  2
*D1
 10
443.6831799776677
 20
73.44086352587013
 30
0.0
 11
396.8649389559436
 21
78.44086352587013
 31
0.0
 70
    32
 71
     5
 42
93.63648204344833
  3
STANDARD
100
AcDbAlignedDimension
 13
350.0466979342194
 23
110.078391352238
 33
0.0
 14
443.6831799776677
 24
110.078391352238
 34
0.0
100
AcDbRotatedDimension
1001
ACAD
1000
DSTYLE
1002
{
1070
   140
1040
6.0
1070
    74
1070
     0
1070
   172
1070
     1
1070
    73
1070
     0
1070
   272
1070
     2
1070
    77
1070
     3
1070
   173
1070
     1
1070
   147
1040
2.0
1070
    42
1040
6.0
1070
    44
1040
3.0
1070
    43
1040
14.0
1070
   271
1070
     0
1070
   178
1070
     4
1070
   177
1070
     4
1070
   176
1070
     4
1070
   141
1040
150.0
1070
     7
1000
_OPEN
1070
     6
1000
_OPEN
1070
    41
1040
7.0
1002
}
  0
DIMENSION
  5
9E2F
330
1A
100
AcDbEntity
  8
SUNPOU
 48
5.0
100
AcDbDimension
  2
*D2
 10
455.6653551445833
 20
216.287067384068
 30
0.0
 11
386.0562812611795
 21
221.287067384068
 31
0.0
 70
    32
 71
     5
 42
139.2181477668077
  3
STANDARD
100
AcDbAlignedDimension
 13
316.4472073777757
 23
191.6346846400427
 33
0.0
 14
455.6653551445833
 24
189.482841352238
 34
0.0
100
AcDbRotatedDimension
1001
ACAD
1000
DSTYLE
1002
{
1070
   140
1040
6.0
1070
    74
1070
     0
1070
   172
1070
     1
1070
    73
1070
     0
1070
   272
1070
     2
1070
    77
1070
     3
1070
   173
1070
     1
1070
   147
1040
2.0
1070
    42
1040
6.0
1070
    44
1040
3.0
1070
    43
1040
14.0
1070
   271
1070
     0
1070
   178
1070
     4
1070
   177
1070
     4
1070
   176
1070
     4
1070
   141
1040
150.0
1070
     7
1000
_OPEN
1070
     6
1000
_OPEN
1070
    41
1040
7.0
1002
}
  0
LINE
  5
9E30
330
1A
100
AcDbEntity
  8
SEIHIN
  6
Continuous
 62
     3
 48
5.0
100
AcDbLine
 10
182.2864896669226
 20
330.1161913522379
 30
0.0
 11
182.2862476689596
 21
110.0780913522773
 31
0.0
  0
LINE
  5
9E31
330
1A
100
AcDbEntity
  8
SEIHIN
  6
Continuous
 62
     3
 48
5.0
100
AcDbLine
 10
201.2864896669226
 20
330.1161913522379
 30
0.0
 11
201.2862476688495
 21
110.0779913522772
 31
0.0
  0
LINE
  5
9E32
330
1A
100
AcDbEntity
  8
CENTER L
  6
CENTER
 62
     1
 48
5.0
100
AcDbLine
 10
191.7868896669226
 20
335.2065913522378
 30
0.0
 11
191.7860282932723
 21
93.85584717374152
 31
0.0
  0
ELLIPSE
  5
9E33
330
1A
100
AcDbEntity
  8
SEIHIN
 48
5.0
100
AcDbEllipse
 10
191.7868007238396
 20
293.7596964764601
 30
0.0
 11
2.099999999986665
 21
-7.494837745980476E-6
 31
0.0
210
0.0
220
0.0
230
1.0
 40
0.3305140435313438
 41
0.0
 42
6.283185307179586
  0
LINE
  5
9E34
330
1A
100
AcDbEntity
  8
CENTER L
  6
CENTER
 62
     1
 48
5.0
100
AcDbLine
 10
396.7853551445833
 20
102.627291352238
 30
0.0
 11
396.7853551445833
 21
124.1774913522379
 31
0.0
  0
ARC
  5
9E35
330
1A
100
AcDbEntity
  8
SEIHIN
  6
Continuous
 62
     3
 48
5.0
100
AcDbCircle
 10
352.2199977349136
 20
112.5783543286896
 30
0.0
 40
2.499962976814448
100
AcDbArc
 50
187.99850436807
 51
269.9990238870753
  0
DIMENSION
  5
9E36
330
1A
100
AcDbEntity
  8
SUNPOU
 48
5.0
100
AcDbDimension
  2
*D3
 10
284.0098535993782
 20
110.078391352238
 30
0.0
 11
279.0098535993782
 21
150.8565379961404
 31
0.0
 70
    32
 71
     5
 42
81.55629328780469
  3
STANDARD
100
AcDbAlignedDimension
 13
316.4472073777757
 23
191.6346846400427
 33
0.0
 14
352.2199551445833
 24
110.078391352238
 34
0.0
 50
90.0
100
AcDbRotatedDimension
1001
ACAD
1000
DSTYLE
1002
{
1070
   140
1040
6.0
1070
    74
1070
     0
1070
   172
1070
     1
1070
    73
1070
     0
1070
   272
1070
     2
1070
    77
1070
     3
1070
   173
1070
     1
1070
   147
1040
2.0
1070
    42
1040
6.0
1070
    44
1040
3.0
1070
    43
1040
14.0
1070
   271
1070
     0
1070
   178
1070
     4
1070
   177
1070
     4
1070
   176
1070
     4
1070
   141
1040
150.0
1070
     7
1000
_OPEN
1070
     6
1000
_OPEN
1070
    41
1040
7.0
1002
}
  0
LINE
  5
9E37
330
1A
100
AcDbEntity
  8
SEIHIN
  6
Continuous
 62
     3
 48
5.0
100
AcDbLine
 10
201.2862551445833
 20
110.0779913522378
 30
0.0
 11
182.2862551445833
 21
110.0780913522379
 31
0.0
  0
ARC
  5
9E38
330
1A
100
AcDbEntity
  8
SEIHIN
  6
Continuous
 62
     3
 48
5.0
100
AcDbCircle
 10
191.7859551445833
 20
114.0284913522378
 30
0.0
 40
6.450037159582822
100
AcDbArc
 50
219.8146699209282
 51
320.1853300790718
  0
ARC
  5
9E39
330
1A
100
AcDbEntity
  8
SEIHIN
  6
Continuous
 62
     3
 48
5.0
100
AcDbCircle
 10
186.4475201144292
 20
109.5782609290891
 30
0.0
 40
0.5000304273697424
100
AcDbArc
 50
39.82328474753762
 51
90.00744454291365
  0
ARC
  5
9E3A
330
1A
100
AcDbEntity
  8
SEIHIN
  6
Continuous
 62
     3
 48
5.0
100
AcDbCircle
 10
197.124572189305
 20
109.5782993323653
 30
0.0
 40
0.4999920201631487
100
AcDbArc
 50
90.00195321241151
 51
140.1787752230242
  0
LINE
  5
9E3B
330
1A
100
AcDbEntity
  8
SEIHIN
  6
Continuous
 62
     3
 48
5.0
100
AcDbLine
 10
365.3772551445833
 20
108.1130913522378
 30
0.0
 11
379.7853551445833
 21
107.578391352238
 31
0.0
  0
ARC
  5
9E3C
330
1A
100
AcDbEntity
  8
SEIHIN
  6
Continuous
 62
     3
 48
5.0
100
AcDbCircle
 10
365.7482079318322
 20
118.1061727992797
 30
0.0
 40
9.999964138814686
100
AcDbArc
 50
233.3955363415655
 51
267.8741017130082
  0
DIMENSION
  5
9E3D
330
1A
100
AcDbEntity
  8
SUNPOU
 48
5.0
100
AcDbDimension
  2
*D4
 10
284.0098535993782
 20
191.6346846400427
 30
0.0
 11
279.0098535993782
 21
208.9226879961404
 31
0.0
 70
    32
 71
     5
 42
34.57600671219527
  3
STANDARD
100
AcDbAlignedDimension
 13
310.9819551445832
 23
226.2106913522379
 33
0.0
 14
316.4472073777757
 24
191.6346846400427
 34
0.0
 50
90.0
100
AcDbRotatedDimension
1001
ACAD
1000
DSTYLE
1002
{
1070
   140
1040
6.0
1070
    74
1070
     0
1070
   172
1070
     1
1070
    73
1070
     0
1070
   272
1070
     2
1070
    77
1070
     3
1070
   173
1070
     1
1070
   147
1040
2.0
1070
    42
1040
6.0
1070
    44
1040
3.0
1070
    43
1040
14.0
1070
   271
1070
     0
1070
   178
1070
     4
1070
   177
1070
     4
1070
   176
1070
     4
1070
   141
1040
150.0
1070
     7
1000
_OPEN
1070
     6
1000
_OPEN
1070
    41
1040
7.0
1002
}
  0
LINE
  5
9E3E
330
1A
100
AcDbEntity
  8
SEIHIN
  6
Continuous
 62
     3
 48
5.0
100
AcDbLine
 10
198.7864551445833
 20
224.4119913522379
 30
0.0
 11
198.7862551445833
 21
191.6343913522379
 31
0.0
  0
LINE
  5
9E3F
330
1A
100
AcDbEntity
  8
SEIHIN
  6
Continuous
 62
     3
 48
5.0
100
AcDbLine
 10
184.7864551445833
 20
224.2953913522379
 30
0.0
 11
184.7863551445832
 21
191.6344913522379
 31
0.0
  0
LINE
  5
9E40
330
1A
100
AcDbEntity
  8
SEIHIN
  6
Continuous
 62
     3
 48
5.0
100
AcDbLine
 10
201.2862551445833
 20
124.2652913522379
 30
0.0
 11
182.2862551445833
 21
124.2652913522379
 31
0.0
  0
LINE
  5
9E41
330
1A
100
AcDbEntity
  8
SEIHIN
  6
Continuous
 62
     3
 48
5.0
100
AcDbLine
 10
201.2862551445833
 20
173.1201913522379
 30
0.0
 11
182.2862551445833
 21
173.1201913522379
 31
0.0
  0
LINE
  5
9E42
330
1A
100
AcDbEntity
  8
SEIHIN
  6
Continuous
 62
     3
 48
5.0
100
AcDbLine
 10
191.7861551445834
 20
176.7391913522378
 30
0.0
 11
199.2861551445834
 21
176.7391913522378
 31
0.0
  0
LINE
  5
9E43
330
1A
100
AcDbEntity
  8
SEIHIN
  6
Continuous
 62
     3
 48
5.0
100
AcDbLine
 10
191.7863551445832
 20
176.7391913522378
 30
0.0
 11
184.2861551445834
 21
176.7391913522378
 31
0.0
  0
ARC
  5
9E44
330
1A
100
AcDbEntity
  8
SEIHIN
  6
Continuous
 62
     3
 48
5.0
100
AcDbCircle
 10
184.2861551445834
 20
178.7391913522378
 30
0.0
 40
2.0
100
AcDbArc
 50
180.0
 51
270.0
  0
ARC
  5
9E45
330
1A
100
AcDbEntity
  8
SEIHIN
  6
Continuous
 62
     3
 48
5.0
100
AcDbCircle
 10
199.2861551445833
 20
178.7391913522378
 30
0.0
 40
1.999999999999957
100
AcDbArc
 50
270.0000000000017
 51
0.0000000000016284
  0
ARC
  5
9E46
330
1A
100
AcDbEntity
  8
SEIHIN
  6
Continuous
 62
     3
 48
5.0
100
AcDbCircle
 10
185.2862354777878
 20
188.6764680821192
 30
0.0
 40
2.999980333294689
100
AcDbArc
 50
99.59375077782886
 51
179.9995555705579
  0
ARC
  5
9E47
330
1A
100
AcDbEntity
  8
SEIHIN
  6
Continuous
 62
     3
 48
5.0
100
AcDbCircle
 10
191.7864551445833
 20
184.0681913522379
 30
0.0
 40
1.599999999999966
100
AcDbArc
 50
180.0
 51
0.0
  0
ARC
  5
9E48
330
1A
100
AcDbEntity
  8
SEIHIN
  6
Continuous
 62
     3
 48
5.0
100
AcDbCircle
 10
191.7864551445833
 20
184.0681913522379
 30
0.0
 40
1.599999999999966
100
AcDbArc
 50
0.0
 51
180.0
  0
ARC
  5
9E49
330
1A
100
AcDbEntity
  8
SEIHIN
  6
Continuous
 62
     3
 48
5.0
100
AcDbCircle
 10
191.7864551445833
 20
184.0681913522379
 30
0.0
 40
1.5
100
AcDbArc
 50
180.0
 51
0.0
  0
ARC
  5
9E4A
330
1A
100
AcDbEntity
  8
SEIHIN
  6
Continuous
 62
     3
 48
5.0
100
AcDbCircle
 10
191.7864551445833
 20
184.0681913522379
 30
0.0
 40
1.5
100
AcDbArc
 50
0.0
 51
180.0
  0
LINE
  5
9E4B
330
1A
100
AcDbEntity
  8
CENTER L
  6
CENTER
 62
     1
 48
5.0
100
AcDbLine
 10
189.2085551445833
 20
184.0681913522379
 30
0.0
 11
194.6418551445833
 21
184.0681913522379
 31
0.0
  0
ARC
  5
9E4C
330
1A
100
AcDbEntity
  8
SEIHIN
  6
Continuous
 62
     3
 48
5.0
100
AcDbCircle
 10
198.2862255107094
 20
188.6764264153917
 30
0.0
 40
3.000029634078838
100
AcDbArc
 50
359.999330349706
 51
80.40545345020462
  0
LINE
  5
9E4D
330
1A
100
AcDbEntity
  8
SEIHIN
  6
Continuous
 62
     3
 48
5.0
100
AcDbLine
 10
196.7867896669226
 20
226.293891352238
 30
0.0
 11
196.7867896669226
 21
289.8820913522378
 31
0.0
  0
LINE
  5
9E4E
330
1A
100
AcDbEntity
  8
SEIHIN
  6
Continuous
 62
     3
 48
5.0
100
AcDbLine
 10
186.7867896669227
 20
226.293891352238
 30
0.0
 11
186.7867896669227
 21
289.8823913522378
 31
0.0
  0
ARC
  5
9E4F
330
1A
100
AcDbEntity
  8
SEIHIN
  6
Continuous
 62
     3
 48
5.0
100
AcDbCircle
 10
196.7864551445833
 20
224.293891352238
 30
0.0
 40
2.0
100
AcDbArc
 50
0.0
 51
90.0
  0
ARC
  5
9E50
330
1A
100
AcDbEntity
  8
SEIHIN
  6
Continuous
 62
     3
 48
5.0
100
AcDbCircle
 10
196.7864551445833
 20
224.210391352238
 30
0.0
 40
2.0
100
AcDbArc
 50
0.0
 51
90.0
  0
LINE
  5
9E51
330
1A
100
AcDbEntity
  8
SEIHIN
  6
Continuous
 62
     3
 48
5.0
100
AcDbLine
 10
186.7864551445833
 20
226.293891352238
 30
0.0
 11
191.7864551445833
 21
226.293891352238
 31
0.0
  0
LINE
  5
9E52
330
1A
100
AcDbEntity
  8
SEIHIN
  6
Continuous
 62
     3
 48
5.0
100
AcDbLine
 10
186.7864551445833
 20
226.210391352238
 30
0.0
 11
191.7864551445833
 21
226.210391352238
 31
0.0
  0
ARC
  5
9E53
330
1A
100
AcDbEntity
  8
SEIHIN
  6
Continuous
 62
     3
 48
5.0
100
AcDbCircle
 10
186.7864551445833
 20
224.2938913522379
 30
0.0
 40
2.000000000000028
100
AcDbArc
 50
89.99999999999837
 51
179.9999999999992
  0
ARC
  5
9E54
330
1A
100
AcDbEntity
  8
SEIHIN
  6
Continuous
 62
     3
 48
5.0
100
AcDbCircle
 10
186.7864551445833
 20
224.2103913522379
 30
0.0
 40
2.000000000000028
100
AcDbArc
 50
89.99999999999837
 51
179.9999999999992
  0
LINE
  5
9E55
330
1A
100
AcDbEntity
  8
SEIHIN
  6
Continuous
 62
     3
 48
5.0
100
AcDbLine
 10
196.7864551445833
 20
226.293891352238
 30
0.0
 11
191.7864551445833
 21
226.293891352238
 31
0.0
  0
LINE
  5
9E56
330
1A
100
AcDbEntity
  8
SEIHIN
  6
Continuous
 62
     3
 48
5.0
100
AcDbLine
 10
196.7864551445833
 20
226.210391352238
 30
0.0
 11
191.7864551445833
 21
226.210391352238
 31
0.0
  0
LINE
  5
9E57
330
1A
100
AcDbEntity
  8
SEIHIN
  6
Continuous
 62
     3
 48
5.0
100
AcDbLine
 10
201.2864896669226
 20
276.4069913522379
 30
0.0
 11
196.7868896669227
 21
276.4069913522379
 31
0.0
  0
LINE
  5
9E58
330
1A
100
AcDbEntity
  8
SEIHIN
  6
Continuous
 62
     3
 48
5.0
100
AcDbLine
 10
196.7868896669227
 20
277.9401913522377
 30
0.0
 11
186.7868896669226
 21
277.9401913522377
 31
0.0
  0
LINE
  5
9E59
330
1A
100
AcDbEntity
  8
SEIHIN
  6
Continuous
 62
     3
 48
5.0
100
AcDbLine
 10
186.7868896669226
 20
276.4069913522379
 30
0.0
 11
182.2865896669227
 21
276.4069913522379
 31
0.0
  0
ARC
  5
9E5A
330
1A
100
AcDbEntity
  8
SEIHIN
  6
Continuous
 62
     3
 48
5.0
100
AcDbCircle
 10
191.7865896669227
 20
282.2990913522378
 30
0.0
 40
9.083193580454013
100
AcDbArc
 50
56.60017472244647
 51
123.3998252775535
  0
LINE
  5
9E5B
330
1A
100
AcDbEntity
  8
SEIHIN
  6
Continuous
 62
     3
 48
5.0
100
AcDbLine
 10
317.9406551445833
 20
176.6972913522378
 30
0.0
 11
310.9819551445832
 21
226.2106913522379
 31
0.0
  0
LINE
  5
9E5C
330
1A
100
AcDbEntity
  8
SEIHIN
  6
Continuous
 62
     3
 48
5.0
100
AcDbLine
 10
311.5761551445833
 20
226.294191352238
 30
0.0
 11
318.7526551445832
 21
175.2304913522379
 31
0.0
  0
ARC
  5
9E5D
330
1A
100
AcDbEntity
  8
SEIHIN
  6
Continuous
 62
     3
 48
5.0
100
AcDbCircle
 10
357.3343214467485
 20
141.41524052023
 30
0.0
 40
19.50003492220322
100
AcDbArc
 50
187.9999075418376
 51
240.8508611361806
  0
ARC
  5
9E5E
330
1A
100
AcDbEntity
  8
SEIHIN
  6
Continuous
 62
     3
 48
5.0
100
AcDbCircle
 10
357.3343533180521
 20
141.4151940172893
 30
0.0
 40
17.50000320042829
100
AcDbArc
 50
187.9999105761421
 51
240.8507993532656
  0
DIMENSION
  5
9E5F
330
1A
100
AcDbEntity
  8
SUNPOU
 48
5.0
100
AcDbDimension
  2
*D5
 10
337.7093745700528
 20
140.9404737557764
 30
0.0
 11
313.4478039956495
 21
137.5307533474078
 31
0.0
 70
   161
  1
t<>
 71
     5
 42
1.999957784193214
  3
STANDARD
100
AcDbAlignedDimension
 13
340.0045497130336
 23
138.9797300001008
 33
0.0
 14
338.0240551445833
 24
138.701391352238
 34
0.0
1001
ACAD
1000
DSTYLE
1002
{
1070
   288
1070
     1
1070
   140
1040
6.0
1070
    74
1070
     0
1070
   172
1070
     1
1070
    73
1070
     0
1070
   272
1070
     2
1070
    77
1070
     3
1070
   173
1070
     1
1070
   147
1040
2.0
1070
    42
1040
6.0
1070
    44
1040
3.0
1070
    43
1040
14.0
1070
   271
1070
     1
1070
   178
1070
     4
1070
   177
1070
     4
1070
   176
1070
     4
1070
   141
1040
150.0
1070
     7
1000
_OPEN
1070
     6
1000
_OPEN
1070
    41
1040
7.0
1002
}
  0
LINE
  5
9E60
330
1A
100
AcDbEntity
  8
SEIHIN
  6
Continuous
 62
     3
 48
5.0
100
AcDbLine
 10
340.0045551445833
 20
138.9796913522378
 30
0.0
 11
336.1410551445833
 21
166.4701913522379
 31
0.0
  0
LINE
  5
9E61
330
1A
100
AcDbEntity
  8
SEIHIN
  6
Continuous
 62
     3
 48
5.0
100
AcDbLine
 10
338.0240551445833
 20
138.701391352238
 30
0.0
 11
334.1605551445833
 21
166.1917913522379
 31
0.0
  0
LINE
  5
9E62
330
1A
100
AcDbEntity
  8
SEIHIN
  6
Continuous
 62
     3
 48
5.0
100
AcDbLine
 10
320.7331551445832
 20
175.508891352238
 30
0.0
 11
318.4277551445833
 21
191.9130913522378
 31
0.0
  0
ARC
  5
9E63
330
1A
100
AcDbEntity
  8
SEIHIN
  6
Continuous
 62
     3
 48
5.0
100
AcDbCircle
 10
326.238422981205
 20
165.0785193117107
 30
0.0
 40
7.999972040591966
100
AcDbArc
 50
7.999212568200968
 51
89.99976964596615
  0
ARC
  5
9E64
330
1A
100
AcDbEntity
  8
SEIHIN
  6
Continuous
 62
     3
 48
5.0
100
AcDbCircle
 10
326.2384067038989
 20
165.0785334611652
 30
0.0
 40
9.999957891190041
100
AcDbArc
 50
7.999610850778913
 51
89.99972245415417
  0
ARC
  5
9E65
330
1A
100
AcDbEntity
  8
SEIHIN
  6
Continuous
 62
     3
 48
5.0
100
AcDbCircle
 10
321.2283327706778
 20
175.5785108010867
 30
0.0
 40
2.500019448948828
100
AcDbArc
 50
188.001943808252
 51
270.0005127681521
  0
LINE
  5
9E66
330
1A
100
AcDbEntity
  8
SEIHIN
  6
Continuous
 62
     3
 48
5.0
100
AcDbLine
 10
318.5349551445833
 20
176.7807913522379
 30
0.0
 11
317.9406551445833
 21
176.6972913522378
 31
0.0
  0
LINE
  5
9E67
330
1A
100
AcDbEntity
  8
SEIHIN
  6
Continuous
 62
     3
 48
5.0
100
AcDbLine
 10
321.2283551445832
 20
173.0784913522379
 30
0.0
 11
326.2384551445833
 21
173.0784913522379
 31
0.0
  0
LINE
  5
9E68
330
1A
100
AcDbEntity
  8
SEIHIN
  6
Continuous
 62
     3
 48
5.0
100
AcDbLine
 10
321.2283551445832
 20
175.0784913522379
 30
0.0
 11
326.2384551445833
 21
175.0784913522379
 31
0.0
  0
ARC
  5
9E69
330
1A
100
AcDbEntity
  8
SEIHIN
  6
Continuous
 62
     3
 48
5.0
100
AcDbCircle
 10
321.2283164944788
 20
175.5785249499803
 30
0.0
 40
0.5000335992361197
100
AcDbArc
 50
188.0049027930126
 51
270.0044286781195
  0
LINE
  5
9E6A
330
1A
100
AcDbEntity
  8
SEIHIN
  6
Continuous
 62
     3
 48
5.0
100
AcDbLine
 10
316.7094551445833
 20
182.5831913522379
 30
0.0
 11
316.2919551445833
 21
185.5539913522379
 31
0.0
  0
LINE
  5
9E6B
330
1A
100
AcDbEntity
  8
SEIHIN
  6
Continuous
 62
     3
 48
5.0
100
AcDbLine
 10
316.7094551445833
 20
182.5831913522379
 30
0.0
 11
317.1056551445833
 21
182.638891352238
 31
0.0
  0
LINE
  5
9E6C
330
1A
100
AcDbEntity
  8
SEIHIN
  6
Continuous
 62
     3
 48
5.0
100
AcDbLine
 10
316.2919551445833
 20
185.5539913522379
 30
0.0
 11
316.6880551445832
 21
185.6096913522379
 31
0.0
  0
LINE
  5
9E6D
330
1A
100
AcDbEntity
  8
SEIHIN
  6
Continuous
 62
     3
 48
5.0
100
AcDbLine
 10
318.4277551445833
 20
191.9129913522379
 30
0.0
 11
316.4472551445833
 21
191.6346913522379
 31
0.0
  0
LINE
  5
9E6E
330
1A
100
AcDbEntity
  8
SEIHIN
  6
Continuous
 62
     3
 48
5.0
100
AcDbLine
 10
349.7442551445832
 20
112.2304913522379
 30
0.0
 11
348.0877551445833
 21
124.017691352238
 31
0.0
  0
LINE
  5
9E6F
330
1A
100
AcDbEntity
  8
SEIHIN
  6
Continuous
 62
     3
 48
5.0
100
AcDbLine
 10
351.7248551445833
 20
112.508891352238
 30
0.0
 11
350.0682551445832
 21
124.2960913522379
 31
0.0
  0
ARC
  5
9E70
330
1A
100
AcDbEntity
  8
SEIHIN
  6
Continuous
 62
     3
 48
5.0
100
AcDbCircle
 10
352.2199814504097
 20
112.5783684811918
 30
0.0
 40
0.4999771296458958
100
AcDbArc
 50
187.9877059361706
 51
269.9969854364504
  0
ARC
  5
9E71
330
1A
100
AcDbEntity
  8
SEIHIN
  6
Continuous
 62
     3
 48
5.0
100
AcDbCircle
 10
347.5925761868216
 20
123.9480606511026
 30
0.0
 40
2.500022334067514
100
AcDbArc
 50
8.002194929975703
 51
60.85199918333548
  0
ARC
  5
9E72
330
1A
100
AcDbEntity
  8
SEIHIN
  6
Continuous
 62
     3
 48
5.0
100
AcDbCircle
 10
347.5925674339433
 20
123.9480734198026
 30
0.0
 40
0.5000575219766636
100
AcDbArc
 50
8.002704766451002
 51
60.84857794814535
  0
LINE
  5
9E73
330
1A
100
AcDbEntity
  8
SEIHIN
  6
Continuous
 62
     3
 48
5.0
100
AcDbLine
 10
310.9817551445833
 20
226.2105913522379
 30
0.0
 11
311.5759551445833
 21
226.294191352238
 31
0.0
  0
ELLIPSE
  5
9E74
330
1A
100
AcDbEntity
  8
SEIHIN
 48
5.0
100
AcDbEllipse
 10
191.7868597035924
 20
326.8110802583131
 30
0.0
 11
2.099999999986665
 21
-7.494837745980476E-6
 31
0.0
210
0.0
220
0.0
230
1.0
 40
0.3305140435313438
 41
0.0
 42
6.283185307179586
  0
ELLIPSE
  5
9E75
330
1A
100
AcDbEntity
  8
SEIHIN
 48
5.0
100
AcDbEllipse
 10
191.7868597035924
 20
310.2854019363502
 30
0.0
 11
2.099999999986665
 21
-7.494837745980476E-6
 31
0.0
210
0.0
220
0.0
230
1.0
 40
0.3305140435313438
 41
0.0
 42
6.283185307179586
  0
DIMENSION
  5
9E76
330
1A
100
AcDbEntity
  8
SUNPOU
100
AcDbDimension
  2
*D6
 10
201.2864896669226
 20
370.9376712040189
 30
0.0
 11
191.7864896669226
 21
375.9376712040189
 31
0.0
 70
    32
 71
     5
 42
19.0
  3
STANDARD
100
AcDbAlignedDimension
 13
182.2864896669226
 23
330.1161913522379
 33
0.0
 14
201.2864896669226
 24
330.1161913522379
 34
0.0
100
AcDbRotatedDimension
1001
ACAD
1000
DSTYLE
1002
{
1070
    41
1040
7.0
1070
    42
1040
6.0
1070
    43
1040
14.0
1070
    44
1040
3.0
1070
    73
1070
     0
1070
    74
1070
     0
1070
    77
1070
     3
1070
   140
1040
6.0
1070
   141
1040
150.0
1070
   147
1040
2.0
1070
   172
1070
     1
1070
   173
1070
     1
1070
   176
1070
     4
1070
   177
1070
     4
1070
   178
1070
     4
1070
   271
1070
     0
1070
   272
1070
     2
1070
   341
1005
6D
1070
     6
1000
OPEN
1070
     7
1000
OPEN
1002
}
  0
LINE
  5
9E77
330
1A
100
AcDbEntity
  8
SEIHIN
  6
Continuous
 62
     3
 48
5.0
100
AcDbLine
 10
201.2864896669226
 20
330.1161913522379
 30
0.0
 11
182.2865896669227
 21
330.1161913522379
 31
0.0
  0
LINE
  5
9E78
330
1A
100
AcDbEntity
  8
SEIHIN
  6
Continuous
 62
     3
 48
5.0
100
AcDbLine
 10
316.4473551445833
 20
476.1880553111283
 30
0.0
 11
310.9820551445832
 21
476.1880553111283
 31
0.0
  0
LINE
  5
9E79
330
1A
100
AcDbEntity
  8
SEIHIN
  6
Continuous
 62
     3
 48
5.0
100
AcDbLine
 10
310.9820551445832
 20
462.1880553111283
 30
0.0
 11
316.4473551445833
 21
462.1880553111283
 31
0.0
  0
LINE
  5
9E7A
330
1A
100
AcDbEntity
  8
SEIHIN
  6
Continuous
 62
     3
 48
5.0
100
AcDbLine
 10
311.5762551445832
 20
462.1880553111283
 30
0.0
 11
311.5763551445833
 21
476.1880553111283
 31
0.0
  0
LINE
  5
9E7B
330
1A
100
AcDbEntity
  8
SEIHIN
  6
Continuous
 62
     3
 48
5.0
100
AcDbLine
 10
310.9820551445832
 20
462.1880553111283
 30
0.0
 11
310.9821551445833
 21
476.1880553111283
 31
0.0
  0
LINE
  5
9E7C
330
1A
100
AcDbEntity
  8
SEIHIN
  6
Continuous
 62
     3
 48
5.0
100
AcDbLine
 10
320.7938551445832
 20
459.6880553111283
 30
0.0
 11
320.7938551445832
 21
478.6880553111284
 31
0.0
  0
LINE
  5
9E7D
330
1A
100
AcDbEntity
  8
SEIHIN
  6
Continuous
 62
     3
 48
5.0
100
AcDbLine
 10
316.4473551445833
 20
459.6881553111285
 30
0.0
 11
316.4473551445833
 21
478.6880553111284
 31
0.0
  0
LINE
  5
9E7E
330
1A
100
AcDbEntity
  8
SEIHIN
  6
Continuous
 62
     3
 48
5.0
100
AcDbLine
 10
318.4278551445832
 20
459.6881553111285
 30
0.0
 11
318.4278551445832
 21
478.6880553111284
 31
0.0
  0
LINE
  5
9E7F
330
1A
100
AcDbEntity
  8
SEIHIN
  6
Continuous
 62
     3
 48
5.0
100
AcDbLine
 10
334.9314551445833
 20
459.6881553111285
 30
0.0
 11
334.9314551445833
 21
478.6880553111284
 31
0.0
  0
ARC
  5
9E80
330
1A
100
AcDbEntity
  8
SEIHIN
  6
Continuous
 62
     3
 48
5.0
100
AcDbCircle
 10
363.9099551445831
 20
469.1880553111283
 30
0.0
 40
4.0
100
AcDbArc
 50
90.0
 51
270.0
  0
LINE
  5
9E81
330
1A
100
AcDbEntity
  8
SEIHIN
  6
Continuous
 62
     3
 48
5.0
100
AcDbLine
 10
349.8881551445833
 20
459.6881553111285
 30
0.0
 11
349.8881551445833
 21
478.6880553111284
 31
0.0
  0
LINE
  5
9E82
330
1A
100
AcDbEntity
  8
SEIHIN
  6
Continuous
 62
     3
 48
5.0
100
AcDbLine
 10
351.7855551445833
 20
459.6881553111285
 30
0.0
 11
351.7855551445833
 21
478.6880553111284
 31
0.0
  0
LINE
  5
9E83
330
1A
100
AcDbEntity
  8
CENTER L
  6
CENTER
 62
     1
 48
5.0
100
AcDbLine
 10
396.7855551445833
 20
457.0268553111285
 30
0.0
 11
396.7855551445833
 21
481.1209553111284
 31
0.0
  0
ARC
  5
9E84
330
1A
100
AcDbEntity
  8
SEIHIN
  6
Continuous
 62
     3
 48
5.0
100
AcDbCircle
 10
383.7855551445833
 20
469.1880553111283
 30
0.0
 40
4.0
100
AcDbArc
 50
90.0
 51
270.0
  0
TEXT
  5
9E85
330
1A
100
AcDbEntity
  8
SUNPOU
 48
5.0
100
AcDbText
 10
618.9565676794221
 20
286.8743006950115
 30
0.0
 40
6.0
  1
スライド巾
 50
90.0
100
AcDbText
  0
LINE
  5
9E86
330
1A
100
AcDbEntity
  8
CENTER L
  6
CENTER
 62
     1
 48
5.0
100
AcDbLine
 10
471.4977551445833
 20
285.638691352238
 30
0.0
 11
467.0839551445832
 21
298.2427913522379
 31
0.0
  0
DIMENSION
  5
9E87
330
1A
100
AcDbEntity
  8
SUNPOU
 48
5.0
100
AcDbDimension
  2
*D7
 10
552.0965379227363
 20
320.3319994003042
 30
0.0
 11
560.3593890109712
 21
296.7369725536643
 31
0.0
 70
   161
  1
t<>
 71
     5
 42
2.500002387954112
  3
STANDARD
100
AcDbAlignedDimension
 13
563.0339281918284
 23
326.8110802583131
 33
0.0
 14
563.8602140899043
 24
324.4515753198954
 34
0.0
1001
ACAD
1000
DSTYLE
1002
{
1070
   288
1070
     1
1070
   140
1040
6.0
1070
    74
1070
     0
1070
   172
1070
     1
1070
    73
1070
     0
1070
   272
1070
     2
1070
    77
1070
     3
1070
   173
1070
     1
1070
   147
1040
2.0
1070
    42
1040
6.0
1070
    44
1040
3.0
1070
    43
1040
14.0
1070
   271
1070
     1
1070
   178
1070
     4
1070
   177
1070
     4
1070
   176
1070
     4
1070
   141
1040
150.0
1070
     7
1000
_OPEN
1070
     6
1000
_OPEN
1070
    41
1040
7.0
1002
}
  0
DIMENSION
  5
9E88
330
1A
100
AcDbEntity
  8
SUNPOU
 48
5.0
100
AcDbDimension
  2
*D8
 10
609.0691507231757
 20
276.5257913522381
 30
0.0
 11
604.0691507231755
 21
303.3208413522381
 31
0.0
 70
    32
 71
     5
 42
53.59010000000001
  3
STANDARD
100
AcDbAlignedDimension
 13
572.4721551445832
 23
330.1158913522381
 33
0.0
 14
572.4721551445832
 24
276.5257913522381
 34
0.0
 50
90.0
100
AcDbRotatedDimension
1001
ACAD
1000
DSTYLE
1002
{
1070
   140
1040
6.0
1070
    74
1070
     0
1070
   172
1070
     1
1070
    73
1070
     0
1070
   272
1070
     2
1070
    77
1070
     3
1070
   173
1070
     1
1070
   147
1040
2.0
1070
    42
1040
6.0
1070
    44
1040
3.0
1070
    43
1040
14.0
1070
   271
1070
     0
1070
   178
1070
     4
1070
   177
1070
     4
1070
   176
1070
     4
1070
   141
1040
150.0
1070
     7
1000
_OPEN
1070
     6
1000
_OPEN
1070
    41
1040
7.0
1002
}
  0
LINE
  5
9E89
330
1A
100
AcDbEntity
  8
SEIHIN
  6
Continuous
 62
     3
 48
5.0
100
AcDbLine
 10
572.4718551445833
 20
330.1161913522379
 30
0.0
 11
421.9355551445831
 21
277.399191352238
 31
0.0
  0
LINE
  5
9E8A
330
1A
100
AcDbEntity
  8
SEIHIN
  6
Continuous
 62
     3
 48
5.0
100
AcDbLine
 10
422.7618551445833
 20
275.039691352238
 30
0.0
 11
573.2981551445832
 21
327.7566913522379
 31
0.0
  0
DIMENSION
  5
9E8B
330
1A
100
AcDbEntity
  8
SUNPOU
 48
5.0
100
AcDbDimension
  2
*D9
 10
412.734796817507
 20
294.5958255699402
 30
0.0
 11
487.7661444975636
 21
326.1691252178789
 31
0.0
 70
    33
 71
     5
 42
162.5001708964525
  3
STANDARD
100
AcDbAlignedDimension
 13
572.4720287934845
 23
330.116252163146
 33
0.0
 14
419.1041929980761
 24
276.4076636059243
 34
0.0
1001
ACAD
1000
DSTYLE
1002
{
1070
   140
1040
6.0
1070
    74
1070
     0
1070
   172
1070
     1
1070
    73
1070
     0
1070
   272
1070
     2
1070
    77
1070
     3
1070
   173
1070
     1
1070
   147
1040
2.0
1070
    42
1040
6.0
1070
    44
1040
3.0
1070
    43
1040
14.0
1070
   271
1070
     0
1070
   178
1070
     4
1070
   177
1070
     4
1070
   176
1070
     4
1070
   141
1040
150.0
1070
     7
1000
_OPEN
1070
     6
1000
_OPEN
1070
    41
1040
7.0
1002
}
  0
ARC
  5
9E8C
330
1A
100
AcDbEntity
  8
SEIHIN
  6
Continuous
 62
     3
 48
5.0
100
AcDbCircle
 10
441.3370735898209
 20
113.0784088562731
 30
0.0
 40
5.500017504066043
100
AcDbArc
 50
269.9998078489269
 51
357.0003251698733
  0
ARC
  5
9E8D
330
1A
100
AcDbEntity
  8
SEIHIN
  6
Continuous
 62
     3
 48
5.0
100
AcDbCircle
 10
441.3108151946946
 20
112.578353440663
 30
0.0
 40
2.499962088744268
100
AcDbArc
 50
270.0009155978874
 51
357.0017400315717
  0
DIMENSION
  5
9E8E
330
1A
100
AcDbEntity
  8
SUNPOU
 48
5.0
100
AcDbDimension
  2
*D10
 10
491.1247738501323
 20
110.0783913522379
 30
0.0
 11
486.1247738501323
 21
126.078391352238
 31
0.0
 70
    32
 71
     5
 42
65.68849999999999
  3
STANDARD
100
AcDbAlignedDimension
 13
453.1622551445833
 23
175.7668913522379
 33
0.0
 14
441.3108551445832
 24
110.078391352238
 34
0.0
 50
90.0
100
AcDbRotatedDimension
1001
ACAD
1000
DSTYLE
1002
{
1070
   140
1040
6.0
1070
    74
1070
     0
1070
   172
1070
     1
1070
    73
1070
     0
1070
   272
1070
     2
1070
    77
1070
     3
1070
   173
1070
     1
1070
   280
1070
     2
1070
   147
1040
2.0
1070
    42
1040
6.0
1070
    44
1040
3.0
1070
    43
1040
14.0
1070
   271
1070
     0
1070
   178
1070
     4
1070
   177
1070
     4
1070
   176
1070
     4
1070
   141
1040
150.0
1070
     7
1000
_OPEN
1070
     6
1000
_OPEN
1070
    41
1040
7.0
1002
}
  0
LINE
  5
9E8F
330
1A
100
AcDbEntity
  8
SEIHIN
  6
PHANTOM
 62
     6
 48
5.0
100
AcDbLine
 10
458.1653551445832
 20
94.67679135223798
 30
0.0
 11
458.1653551445832
 21
177.1086913522379
 31
0.0
  0
LINE
  5
9E90
330
1A
100
AcDbEntity
  8
SEIHIN
  6
PHANTOM
 62
     6
 48
5.0
100
AcDbLine
 10
455.6653551445833
 20
94.67679135223798
 30
0.0
 11
455.6653551445833
 21
177.1086913522379
 31
0.0
  0
LINE
  5
9E91
330
1A
100
AcDbEntity
  8
SEIHIN
  6
PHANTOM
 62
     6
 48
5.0
100
AcDbLine
 10
455.6653551445833
 20
94.67679135223798
 30
0.0
 11
458.1653551445832
 21
94.67679135223798
 31
0.0
  0
LINE
  5
9E92
330
1A
100
AcDbEntity
  8
SEIHIN
  6
PHANTOM
 62
     6
 48
5.0
100
AcDbLine
 10
422.7618551445833
 20
221.449591352238
 30
0.0
 11
573.2981551445832
 21
274.1665913522378
 31
0.0
  0
LINE
  5
9E93
330
1A
100
AcDbEntity
  8
SEIHIN
  6
PHANTOM
 62
     6
 48
5.0
100
AcDbLine
 10
572.4718551445833
 20
276.5260913522379
 30
0.0
 11
421.9355551445831
 21
223.809091352238
 31
0.0
  0
LINE
  5
9E94
330
1A
100
AcDbEntity
  8
SEIHIN
  6
Continuous
 62
     3
 48
5.0
100
AcDbLine
 10
455.6653551445833
 20
148.266891352238
 30
0.0
 11
455.6653551445833
 21
230.6987913522379
 31
0.0
  0
LINE
  5
9E95
330
1A
100
AcDbEntity
  8
SEIHIN
  6
Continuous
 62
     3
 48
5.0
100
AcDbLine
 10
458.1653551445832
 20
148.266891352238
 30
0.0
 11
458.1653551445832
 21
230.6987913522379
 31
0.0
  0
LINE
  5
9E96
330
1A
100
AcDbEntity
  8
SEIHIN
  6
PHANTOM
 62
     6
 48
5.0
100
AcDbLine
 10
437.3597551445831
 20
178.251591352238
 30
0.0
 11
422.4552551445831
 21
220.8123913522379
 31
0.0
  0
LINE
  5
9E97
330
1A
100
AcDbEntity
  8
SEIHIN
  6
PHANTOM
 62
     6
 48
5.0
100
AcDbLine
 10
417.7362551445833
 20
219.1597913522379
 30
0.0
 11
432.6407551445832
 21
176.598991352238
 31
0.0
  0
LINE
  5
9E98
330
1A
100
AcDbEntity
  8
SEIHIN
  6
PHANTOM
 62
     6
 48
5.0
100
AcDbLine
 10
435.0002551445832
 20
177.425291352238
 30
0.0
 11
420.0957551445833
 21
219.986091352238
 31
0.0
  0
DIMENSION
  5
9E99
330
1A
100
AcDbEntity
  8
SUNPOU
 48
5.0
100
AcDbDimension
  2
*D11
 10
509.2480696663045
 20
148.266891352238
 30
0.0
 11
504.2480696663044
 21
211.5706674183873
 31
0.0
 70
    32
 71
     5
 42
126.6075521322985
  3
STANDARD
100
AcDbAlignedDimension
 13
422.289980747583
 23
274.8744434845365
 33
0.0
 14
458.1653551445832
 24
148.266891352238
 34
0.0
 50
90.0
100
AcDbRotatedDimension
1001
ACAD
1000
DSTYLE
1002
{
1070
   140
1040
6.0
1070
    74
1070
     0
1070
   172
1070
     1
1070
    73
1070
     0
1070
   272
1070
     2
1070
    77
1070
     3
1070
   173
1070
     1
1070
   147
1040
2.0
1070
    42
1040
6.0
1070
    44
1040
3.0
1070
    43
1040
14.0
1070
   271
1070
     0
1070
   178
1070
     4
1070
   177
1070
     4
1070
   176
1070
     4
1070
   141
1040
150.0
1070
     7
1000
_OPEN
1070
     6
1000
_OPEN
1070
    41
1040
7.0
1002
}
  0
LINE
  5
9E9A
330
1A
100
AcDbEntity
  8
SEIHIN
  6
Continuous
 62
     3
 48
5.0
100
AcDbLine
 10
461.1622551445833
 20
153.2668913522379
 30
0.0
 11
461.1622551445833
 21
157.7668913522379
 31
0.0
  0
LINE
  5
9E9B
330
1A
100
AcDbEntity
  8
SEIHIN
  6
Continuous
 62
     3
 48
5.0
100
AcDbLine
 10
464.1622551445833
 20
157.7668913522379
 30
0.0
 11
464.1622551445833
 21
154.2668913522379
 31
0.0
  0
LINE
  5
9E9C
330
1A
100
AcDbEntity
  8
SEIHIN
  6
Continuous
 62
     3
 48
5.0
100
AcDbLine
 10
471.6622551445831
 20
155.2668913522379
 30
0.0
 11
471.6622551445831
 21
160.2668913522379
 31
0.0
  0
ARC
  5
9E9D
330
1A
100
AcDbEntity
  8
SEIHIN
  6
Continuous
 62
     3
 48
5.0
100
AcDbCircle
 10
458.7505551445833
 20
157.7668913522379
 30
0.0
 40
8.088217163874846
100
AcDbArc
 50
134.6909404973457
 51
225.3090595026543
  0
LINE
  5
9E9E
330
1A
100
AcDbEntity
  8
SEIHIN
  6
Continuous
 62
     3
 48
5.0
100
AcDbLine
 10
453.0622551445833
 20
152.0168913522379
 30
0.0
 11
453.0622551445833
 21
163.5168913522379
 31
0.0
  0
LINE
  5
9E9F
330
1A
100
AcDbEntity
  8
SEIHIN
  6
Continuous
 62
     3
 48
5.0
100
AcDbLine
 10
458.1622551445831
 20
151.7668913522379
 30
0.0
 11
458.1622551445831
 21
163.7668913522379
 31
0.0
  0
LINE
  5
9EA0
330
1A
100
AcDbEntity
  8
SEIHIN
  6
Continuous
 62
     3
 48
5.0
100
AcDbLine
 10
459.6622551445831
 20
151.7668913522379
 30
0.0
 11
459.6622551445831
 21
163.7668913522379
 31
0.0
  0
LINE
  5
9EA1
330
1A
100
AcDbEntity
  8
SEIHIN
  6
Continuous
 62
     3
 48
5.0
100
AcDbLine
 10
455.6622551445833
 20
150.2668913522379
 30
0.0
 11
455.6622551445833
 21
173.2668913522379
 31
0.0
  0
LINE
  5
9EA2
330
1A
100
AcDbEntity
  8
SEIHIN
  6
Continuous
 62
     3
 48
5.0
100
AcDbLine
 10
453.6622551445831
 20
150.555491352238
 30
0.0
 11
453.6622551445831
 21
173.2668913522379
 31
0.0
  0
ARC
  5
9EA3
330
1A
100
AcDbEntity
  8
SEIHIN
  6
Continuous
 62
     3
 48
5.0
100
AcDbCircle
 10
445.9041118702911
 20
142.9009207326983
 30
0.0
 40
2.499984520699253
100
AcDbArc
 50
119.9990596174423
 51
176.9992761813911
  0
LINE
  5
9EA4
330
1A
100
AcDbEntity
  8
SEIHIN
  6
Continuous
 62
     3
 48
5.0
100
AcDbLine
 10
441.8101551445832
 20
112.5522913522379
 30
0.0
 11
443.4075551445832
 21
143.031791352238
 31
0.0
  0
ARC
  5
9EA5
330
1A
100
AcDbEntity
  8
SEIHIN
  6
Continuous
 62
     3
 48
5.0
100
AcDbCircle
 10
441.3108455036145
 20
112.5783822020704
 30
0.0
 40
0.4999908499255067
100
AcDbArc
 50
270.0011047938444
 51
357.0087955549498
  0
LINE
  5
9EA6
330
1A
100
AcDbEntity
  8
SEIHIN
  6
Continuous
 62
     3
 48
5.0
100
AcDbLine
 10
448.3012551445833
 20
140.8723913522378
 30
0.0
 11
446.8295551445831
 21
112.790591352238
 31
0.0
  0
LINE
  5
9EA7
330
1A
100
AcDbEntity
  8
SEIHIN
  6
Continuous
 62
     3
 48
5.0
100
AcDbLine
 10
443.8073551445831
 20
112.4475913522379
 30
0.0
 11
445.4048551445832
 21
142.927091352238
 31
0.0
  0
ARC
  5
9EA8
330
1A
100
AcDbEntity
  8
SEIHIN
  6
Continuous
 62
     3
 48
5.0
100
AcDbCircle
 10
469.4611727113019
 20
158.2649799299716
 30
0.0
 40
10.99998522318196
100
AcDbArc
 50
207.0245541307275
 51
266.9096427760473
  0
LINE
  5
9EA9
330
1A
100
AcDbEntity
  8
SEIHIN
  6
Continuous
 62
     3
 48
5.0
100
AcDbLine
 10
461.1622551445833
 20
153.2668913522379
 30
0.0
 11
459.6622551445831
 21
153.2668913522379
 31
0.0
  0
ARC
  5
9EAA
330
1A
100
AcDbEntity
  8
SEIHIN
  6
Continuous
 62
     3
 48
5.0
100
AcDbCircle
 10
447.6622132413956
 20
150.2668187753422
 30
0.0
 40
8.000041903234736
100
AcDbArc
 50
300.0001732673356
 51
359.9998035975115
  0
LINE
  5
9EAB
330
1A
100
AcDbEntity
  8
SEIHIN
  6
Continuous
 62
     3
 48
5.0
100
AcDbLine
 10
444.6541551445832
 20
145.0659913522379
 30
0.0
 11
453.4122551445831
 21
150.1224913522379
 31
0.0
  0
LINE
  5
9EAC
330
1A
100
AcDbEntity
  8
SEIHIN
  6
Continuous
 62
     3
 48
5.0
100
AcDbLine
 10
454.4122551445833
 20
148.3904913522379
 30
0.0
 11
445.6541551445833
 21
143.3339913522379
 31
0.0
  0
LINE
  5
9EAD
330
1A
100
AcDbEntity
  8
SEIHIN
  6
Continuous
 62
     3
 48
5.0
100
AcDbLine
 10
451.6622551445833
 20
143.3386913522379
 30
0.0
 11
448.7998551445833
 21
141.6860913522379
 31
0.0
  0
ARC
  5
9EAE
330
1A
100
AcDbEntity
  8
SEIHIN
  6
Continuous
 62
     3
 48
5.0
100
AcDbCircle
 10
445.9041044778058
 20
142.9009086569668
 30
0.0
 40
0.5000352888763255
100
AcDbArc
 50
119.9909621821114
 51
176.9985232546572
  0
ARC
  5
9EAF
330
1A
100
AcDbEntity
  8
SEIHIN
  6
Continuous
 62
     3
 48
5.0
100
AcDbCircle
 10
449.2998602773289
 20
140.8200997285598
 30
0.0
 40
0.9999733121702388
100
AcDbArc
 50
120.0012224461689
 51
177.0024634809485
  0
ARC
  5
9EB0
330
1A
100
AcDbEntity
  8
SEIHIN
  6
Continuous
 62
     3
 48
5.0
100
AcDbCircle
 10
453.1622826448858
 20
150.5555389848577
 30
0.0
 40
2.499972500151327
100
AcDbArc
 50
299.9996361095867
 51
359.9989083287599
  0
LINE
  5
9EB1
330
1A
100
AcDbEntity
  8
SEIHIN
  6
Continuous
 62
     3
 48
5.0
100
AcDbLine
 10
455.6653551445833
 20
148.266891352238
 30
0.0
 11
458.1653551445832
 21
148.266891352238
 31
0.0
  0
ARC
  5
9EB2
330
1A
100
AcDbEntity
  8
SEIHIN
  6
Continuous
 62
     3
 48
5.0
100
AcDbCircle
 10
453.1622606446436
 20
150.5555008787619
 30
0.0
 40
0.4999945000303106
100
AcDbArc
 50
299.9996361095903
 51
359.9989083287647
  0
LINE
  5
9EB3
330
1A
100
AcDbEntity
  8
SEIHIN
  6
Continuous
 62
     3
 48
5.0
100
AcDbLine
 10
453.6622551445831
 20
152.0168913522379
 30
0.0
 11
453.0622551445833
 21
152.0168913522379
 31
0.0
  0
LINE
  5
9EB4
330
1A
100
AcDbEntity
  8
SEIHIN
  6
Continuous
 62
     3
 48
5.0
100
AcDbLine
 10
459.6622551445831
 20
151.7668913522379
 30
0.0
 11
458.1622551445831
 21
151.7668913522379
 31
0.0
  0
LINE
  5
9EB5
330
1A
100
AcDbEntity
  8
SEIHIN
  6
Continuous
 62
     3
 48
5.0
100
AcDbLine
 10
459.6622551445831
 20
157.2668913522379
 30
0.0
 11
458.1622551445831
 21
157.2668913522379
 31
0.0
  0
ARC
  5
9EB6
330
1A
100
AcDbEntity
  8
SEIHIN
  6
Continuous
 62
     3
 48
5.0
100
AcDbCircle
 10
469.4611970964364
 20
158.2649707120148
 30
0.0
 40
9.499987582716086
100
AcDbArc
 50
225.6594908099626
 51
261.945796448578
  0
ARC
  5
9EB7
330
1A
100
AcDbEntity
  8
SEIHIN
  6
Continuous
 62
     3
 48
5.0
100
AcDbCircle
 10
473.0650162097628
 20
172.1761390385846
 30
0.0
 40
21.50000002065134
100
AcDbArc
 50
245.7607972558919
 51
258.2509161781105
  0
ARC
  5
9EB8
330
1A
100
AcDbEntity
  8
SEIHIN
  6
Continuous
 62
     3
 48
5.0
100
AcDbCircle
 10
473.0649288686105
 20
172.1761679674231
 30
0.0
 40
19.9999947078919
100
AcDbArc
 50
243.5681001770024
 51
261.2340380493298
  0
LINE
  5
9EB9
330
1A
100
AcDbEntity
  8
SEIHIN
  6
Continuous
 62
     3
 48
5.0
100
AcDbLine
 10
471.6622551445831
 20
155.2668913522379
 30
0.0
 11
464.1622551445833
 21
155.2668913522379
 31
0.0
  0
LINE
  5
9EBA
330
1A
100
AcDbEntity
  8
SEIHIN
  6
Continuous
 62
     3
 48
5.0
100
AcDbLine
 10
471.6622551445831
 20
156.0668913522379
 30
0.0
 11
464.1622551445833
 21
156.0668913522379
 31
0.0
  0
LINE
  5
9EBB
330
1A
100
AcDbEntity
  8
SEIHIN
  6
Continuous
 62
     3
 48
5.0
100
AcDbLine
 10
461.1622551445833
 20
153.2668913522379
 30
0.0
 11
464.1622551445833
 21
154.2668913522379
 31
0.0
  0
ARC
  5
9EBC
330
1A
100
AcDbEntity
  8
SEIHIN
  6
Continuous
 62
     3
 48
5.0
100
AcDbCircle
 10
463.1708673331813
 20
151.8282443490183
 30
0.0
 40
0.500004543626092
100
AcDbArc
 50
108.4345706050179
 51
225.6677491140978
  0
ARC
  5
9EBD
330
1A
100
AcDbEntity
  8
SEIHIN
  6
Continuous
 62
     3
 48
5.0
100
AcDbCircle
 10
464.0329190794604
 20
152.1155982463363
 30
0.0
 40
0.5000014236467877
100
AcDbArc
 50
65.75300951112979
 51
108.4167832038085
  0
LINE
  5
9EBE
330
1A
100
AcDbEntity
  8
SEIHIN
  6
Continuous
 62
     3
 48
5.0
100
AcDbLine
 10
463.0127551445833
 20
152.302591352238
 30
0.0
 11
463.8749551445833
 21
152.5899913522379
 31
0.0
  0
LINE
  5
9EBF
330
1A
100
AcDbEntity
  8
SEIHIN
  6
Continuous
 62
     3
 48
5.0
100
AcDbLine
 10
469.8798551445831
 20
147.9921913522379
 30
0.0
 11
470.8224551445833
 21
151.134091352238
 31
0.0
  0
ARC
  5
9EC0
330
1A
100
AcDbEntity
  8
SEIHIN
  6
Continuous
 62
     3
 48
5.0
100
AcDbCircle
 10
468.922012947933
 20
148.2795616915954
 30
0.0
 40
1.000021692577759
100
AcDbArc
 50
266.9127484359313
 51
343.2997854993116
  0
ARC
  5
9EC1
330
1A
100
AcDbEntity
  8
SEIHIN
  6
Continuous
 62
     3
 48
5.0
100
AcDbCircle
 10
469.8646129988761
 20
151.4214581005701
 30
0.0
 40
1.000020611857573
100
AcDbArc
 50
343.2999817288276
 51
81.2317030577386
  0
ARC
  5
9EC2
330
1A
100
AcDbEntity
  8
SEIHIN
  6
Continuous
 62
     3
 48
5.0
100
AcDbCircle
 10
468.2002363359265
 20
149.353779312032
 30
0.0
 40
0.5000094549855452
100
AcDbArc
 50
261.9544836463048
 51
343.2994038707003
  0
ARC
  5
9EC3
330
1A
100
AcDbEntity
  8
SEIHIN
  6
Continuous
 62
     3
 48
5.0
100
AcDbCircle
 10
468.5852625766872
 20
150.6370788722103
 30
0.0
 40
0.4999841947319998
100
AcDbArc
 50
343.2985880045474
 51
78.25293660540687
  0
LINE
  5
9EC4
330
1A
100
AcDbEntity
  8
SEIHIN
  6
Continuous
 62
     3
 48
5.0
100
AcDbLine
 10
468.6791551445832
 20
149.2100913522379
 30
0.0
 11
469.0641551445831
 21
150.4933913522379
 31
0.0
  0
LINE
  5
9EC5
330
1A
100
AcDbEntity
  8
SEIHIN
  6
Continuous
 62
     3
 48
5.0
100
AcDbLine
 10
442.9509551445831
 20
175.7668913522379
 30
0.0
 11
453.1622551445833
 21
175.7668913522379
 31
0.0
  0
LINE
  5
9EC6
330
1A
100
AcDbEntity
  8
SEIHIN
  6
Continuous
 62
     3
 48
5.0
100
AcDbLine
 10
442.9509551445831
 20
173.7668913522379
 30
0.0
 11
453.1622551445833
 21
173.7668913522379
 31
0.0
  0
LINE
  5
9EC7
330
1A
100
AcDbEntity
  8
SEIHIN
  6
Continuous
 62
     3
 48
5.0
100
AcDbLine
 10
442.5178551445833
 20
173.5168913522379
 30
0.0
 11
438.6622551445831
 21
166.8386913522379
 31
0.0
  0
LINE
  5
9EC8
330
1A
100
AcDbEntity
  8
SEIHIN
  6
Continuous
 62
     3
 48
5.0
100
AcDbLine
 10
440.7858551445833
 20
174.5168913522379
 30
0.0
 11
436.9301551445832
 21
167.8386913522379
 31
0.0
  0
LINE
  5
9EC9
330
1A
100
AcDbEntity
  8
SEIHIN
  6
Continuous
 62
     3
 48
5.0
100
AcDbLine
 10
436.9301551445832
 20
167.8386913522379
 30
0.0
 11
438.6622551445831
 21
166.8386913522379
 31
0.0
  0
ARC
  5
9ECA
330
1A
100
AcDbEntity
  8
SEIHIN
  6
Continuous
 62
     3
 48
5.0
100
AcDbCircle
 10
442.950927776852
 20
173.266875551338
 30
0.0
 40
2.500015801049782
100
AcDbArc
 50
89.99937278176839
 51
149.9997909272577
  0
ARC
  5
9ECB
330
1A
100
AcDbEntity
  8
SEIHIN
  6
Continuous
 62
     3
 48
5.0
100
AcDbCircle
 10
442.9508896759513
 20
173.2668535500961
 30
0.0
 40
0.5000378064276505
100
AcDbArc
 50
89.99249841460444
 51
149.9974994715414
  0
LINE
  5
9ECC
330
1A
100
AcDbEntity
  8
CENTER L
  6
CENTER
 62
     1
 48
5.0
100
AcDbLine
 10
474.1998551445833
 20
157.7668913522379
 30
0.0
 11
448.3789551445833
 21
157.7668913522379
 31
0.0
  0
ARC
  5
9ECD
330
1A
100
AcDbEntity
  8
SEIHIN
  6
Continuous
 62
     3
 48
5.0
100
AcDbCircle
 10
469.4611345516881
 20
157.2686779624039
 30
0.0
 40
11.00000794205636
100
AcDbArc
 50
93.09015178352361
 51
152.974776432255
  0
LINE
  5
9ECE
330
1A
100
AcDbEntity
  8
SEIHIN
  6
Continuous
 62
     3
 48
5.0
100
AcDbLine
 10
461.1622551445833
 20
162.2668913522379
 30
0.0
 11
459.6622551445831
 21
162.2668913522379
 31
0.0
  0
LINE
  5
9ECF
330
1A
100
AcDbEntity
  8
SEIHIN
  6
Continuous
 62
     3
 48
5.0
100
AcDbLine
 10
459.6622551445831
 20
158.2668913522379
 30
0.0
 11
458.1622551445831
 21
158.2668913522379
 31
0.0
  0
LINE
  5
9ED0
330
1A
100
AcDbEntity
  8
SEIHIN
  6
Continuous
 62
     3
 48
5.0
100
AcDbLine
 10
453.6622551445831
 20
163.5168913522379
 30
0.0
 11
453.0622551445833
 21
163.5168913522379
 31
0.0
  0
LINE
  5
9ED1
330
1A
100
AcDbEntity
  8
SEIHIN
  6
Continuous
 62
     3
 48
5.0
100
AcDbLine
 10
459.6622551445831
 20
163.7668913522379
 30
0.0
 11
458.1622551445831
 21
163.7668913522379
 31
0.0
  0
ARC
  5
9ED2
330
1A
100
AcDbEntity
  8
SEIHIN
  6
Continuous
 62
     3
 48
5.0
100
AcDbCircle
 10
453.1622551445833
 20
173.2668913522379
 30
0.0
 40
2.5
100
AcDbArc
 50
0.0
 51
90.0
  0
ARC
  5
9ED3
330
1A
100
AcDbEntity
  8
SEIHIN
  6
Continuous
 62
     3
 48
5.0
100
AcDbCircle
 10
453.1622551445832
 20
173.2668913522381
 30
0.0
 40
0.4999999999999147
100
AcDbArc
 50
359.9999999999902
 51
89.99999999999022
  0
ARC
  5
9ED4
330
1A
100
AcDbEntity
  8
SEIHIN
  6
Continuous
 62
     3
 48
5.0
100
AcDbCircle
 10
469.4611769111359
 20
157.2687020611949
 30
0.0
 40
9.499980577636624
100
AcDbArc
 50
98.05347745405359
 51
134.3403802581441
  0
ARC
  5
9ED5
330
1A
100
AcDbEntity
  8
SEIHIN
  6
Continuous
 62
     3
 48
5.0
100
AcDbCircle
 10
473.0651956864417
 20
143.3577019587657
 30
0.0
 40
21.49997949604052
100
AcDbArc
 50
101.7495837250174
 51
114.239459647798
  0
ARC
  5
9ED6
330
1A
100
AcDbEntity
  8
SEIHIN
  6
Continuous
 62
     3
 48
5.0
100
AcDbCircle
 10
473.0648815689796
 20
143.3575997338246
 30
0.0
 40
19.99998708813912
100
AcDbArc
 50
98.76553834691272
 51
116.4317593520936
  0
LINE
  5
9ED7
330
1A
100
AcDbEntity
  8
SEIHIN
  6
Continuous
 62
     3
 48
5.0
100
AcDbLine
 10
471.6622551445831
 20
160.2668913522379
 30
0.0
 11
464.1622551445833
 21
160.2668913522379
 31
0.0
  0
LINE
  5
9ED8
330
1A
100
AcDbEntity
  8
SEIHIN
  6
Continuous
 62
     3
 48
5.0
100
AcDbLine
 10
471.6622551445831
 20
159.4668913522379
 30
0.0
 11
464.1622551445833
 21
159.4668913522379
 31
0.0
  0
LINE
  5
9ED9
330
1A
100
AcDbEntity
  8
SEIHIN
  6
Continuous
 62
     3
 48
5.0
100
AcDbLine
 10
461.1622551445833
 20
162.2668913522379
 30
0.0
 11
461.1622551445833
 21
157.7668913522379
 31
0.0
  0
LINE
  5
9EDA
330
1A
100
AcDbEntity
  8
SEIHIN
  6
Continuous
 62
     3
 48
5.0
100
AcDbLine
 10
464.1622551445833
 20
157.7668913522379
 30
0.0
 11
464.1622551445833
 21
161.2668913522379
 31
0.0
  0
ARC
  5
9EDB
330
1A
100
AcDbEntity
  8
SEIHIN
  6
Continuous
 62
     3
 48
5.0
100
AcDbCircle
 10
463.1708548794202
 20
163.7054925053505
 30
0.0
 40
0.4999571081596599
100
AcDbArc
 50
134.33556661953
 51
251.5651217946839
  0
ARC
  5
9EDC
330
1A
100
AcDbEntity
  8
SEIHIN
  6
Continuous
 62
     3
 48
5.0
100
AcDbCircle
 10
464.0330493103848
 20
163.4180910568177
 30
0.0
 40
0.49995397290652
100
AcDbArc
 50
251.5656747714609
 51
294.2330717980713
  0
LINE
  5
9EDD
330
1A
100
AcDbEntity
  8
SEIHIN
  6
Continuous
 62
     3
 48
5.0
100
AcDbLine
 10
463.0127551445833
 20
163.2311913522379
 30
0.0
 11
463.8749551445833
 21
162.9437913522379
 31
0.0
  0
LINE
  5
9EDE
330
1A
100
AcDbEntity
  8
SEIHIN
  6
Continuous
 62
     3
 48
5.0
100
AcDbLine
 10
461.1622551445833
 20
162.2668913522379
 30
0.0
 11
464.1622551445833
 21
161.2668913522379
 31
0.0
  0
ARC
  5
9EDF
330
1A
100
AcDbEntity
  8
SEIHIN
  6
Continuous
 62
     3
 48
5.0
100
AcDbCircle
 10
468.9220599968619
 20
167.2541879411726
 30
0.0
 40
0.9999573965965384
100
AcDbArc
 50
16.69731605998059
 51
93.0901500047836
  0
LINE
  5
9EE0
330
1A
100
AcDbEntity
  8
SEIHIN
  6
Continuous
 62
     3
 48
5.0
100
AcDbLine
 10
469.8798551445831
 20
167.541491352238
 30
0.0
 11
470.8224551445833
 21
164.3995913522379
 31
0.0
  0
ARC
  5
9EE1
330
1A
100
AcDbEntity
  8
SEIHIN
  6
Continuous
 62
     3
 48
5.0
100
AcDbCircle
 10
469.8646581434789
 20
164.1122961023278
 30
0.0
 40
0.9999855623936008
100
AcDbArc
 50
278.7659894795478
 51
16.70232573388916
  0
ARC
  5
9EE2
330
1A
100
AcDbEntity
  8
SEIHIN
  6
Continuous
 62
     3
 48
5.0
100
AcDbCircle
 10
468.2002817440974
 20
166.1799743217124
 30
0.0
 40
0.4999455821884853
100
AcDbArc
 50
16.69430568944249
 51
98.05180679354953
  0
ARC
  5
9EE3
330
1A
100
AcDbEntity
  8
SEIHIN
  6
Continuous
 62
     3
 48
5.0
100
AcDbCircle
 10
468.5852186087199
 20
164.8966300172317
 30
0.0
 40
0.5000187842076556
100
AcDbArc
 50
281.7513851743281
 51
16.69709021569969
  0
LINE
  5
9EE4
330
1A
100
AcDbEntity
  8
SEIHIN
  6
Continuous
 62
     3
 48
5.0
100
AcDbLine
 10
468.6791551445832
 20
166.3235913522379
 30
0.0
 11
469.0641551445831
 21
165.0402913522379
 31
0.0
  0
LINE
  5
9EE5
330
1A
100
AcDbEntity
  8
SEIHIN
  6
Continuous
 62
     3
 48
5.0
100
AcDbLine
 10
435.0002551445833
 20
231.015391352238
 30
0.0
 11
420.0957551445833
 21
273.576191352238
 31
0.0
  0
LINE
  5
9EE6
330
1A
100
AcDbEntity
  8
SEIHIN
  6
Continuous
 62
     3
 48
5.0
100
AcDbLine
 10
417.7362551445833
 20
272.749891352238
 30
0.0
 11
432.6407551445833
 21
230.1890913522379
 31
0.0
  0
LINE
  5
9EE7
330
1A
100
AcDbEntity
  8
SEIHIN
  6
Continuous
 62
     3
 48
5.0
100
AcDbLine
 10
437.3597551445832
 20
231.8416913522379
 30
0.0
 11
422.4552551445831
 21
274.402491352238
 31
0.0
  0
LINE
  5
9EE8
330
1A
100
AcDbEntity
  8
SEIHIN
  6
Continuous
 62
     3
 48
5.0
100
AcDbLine
 10
437.8951551445833
 20
231.510991352238
 30
0.0
 11
454.7841551445832
 21
233.674491352238
 31
0.0
  0
LINE
  5
9EE9
330
1A
100
AcDbEntity
  8
SEIHIN
  6
Continuous
 62
     3
 48
5.0
100
AcDbLine
 10
455.1017551445833
 20
231.1947913522379
 30
0.0
 11
438.2128551445833
 21
229.0311913522379
 31
0.0
  0
LINE
  5
9EEA
330
1A
100
AcDbEntity
  8
SEIHIN
  6
Continuous
 62
     3
 48
5.0
100
AcDbLine
 10
438.5305551445833
 20
226.5514913522379
 30
0.0
 11
446.7285551445831
 21
227.6016913522379
 31
0.0
  0
LINE
  5
9EEB
330
1A
100
AcDbEntity
  8
SEIHIN
  6
PHANTOM
 62
     6
 48
5.0
100
AcDbLine
 10
421.1094551445831
 20
226.1685913522379
 30
0.0
 11
454.3027551445831
 21
237.7926913522379
 31
0.0
  0
ARC
  5
9EEC
330
1A
100
AcDbEntity
  8
SEIHIN
  6
Continuous
 62
     3
 48
5.0
100
AcDbCircle
 10
437.8316558033499
 20
232.0068909453772
 30
0.0
 40
5.499985909982019
100
AcDbArc
 50
199.2997250516993
 51
277.3004808527597
  0
ARC
  5
9EED
330
1A
100
AcDbEntity
  8
SEIHIN
  6
PHANTOM
 62
     6
 48
5.0
100
AcDbCircle
 10
422.9271942207695
 20
220.9776725467396
 30
0.0
 40
5.50004913887142
100
AcDbArc
 50
109.3010339545864
 51
199.3003950754438
  0
ARC
  5
9EEE
330
1A
100
AcDbEntity
  8
SEIHIN
  6
PHANTOM
 62
     6
 48
5.0
100
AcDbCircle
 10
422.9271652804371
 20
220.9776124122712
 30
0.0
 40
0.4999971749922181
100
AcDbArc
 50
109.3065411807442
 51
199.2957259071071
  0
ARC
  5
9EEF
330
1A
100
AcDbEntity
  8
SEIHIN
  6
PHANTOM
 62
     6
 48
5.0
100
AcDbCircle
 10
422.9271652797637
 20
220.9776124117203
 30
0.0
 40
2.9999995608332
100
AcDbArc
 50
109.3013578742085
 51
199.2995553484562
  0
ARC
  5
9EF0
330
1A
100
AcDbEntity
  8
SEIHIN
  6
Continuous
 62
     3
 48
5.0
100
AcDbCircle
 10
437.8316783212554
 20
232.0068770378425
 30
0.0
 40
3.00000017835909
100
AcDbArc
 50
199.2988354022878
 51
277.299672186822
  0
ARC
  5
9EF1
330
1A
100
AcDbEntity
  8
SEIHIN
  6
Continuous
 62
     3
 48
5.0
100
AcDbCircle
 10
437.8316337907826
 20
232.0069045429704
 30
0.0
 40
0.4999648538957788
100
AcDbArc
 50
199.2960672213492
 51
277.299250786687
  0
ARC
  5
9EF2
330
1A
100
AcDbEntity
  8
SEIHIN
  6
Continuous
 62
     3
 48
5.0
100
AcDbCircle
 10
446.0931201047102
 20
232.5611656130052
 30
0.0
 40
5.000058137250896
100
AcDbArc
 50
275.3008830550475
 51
337.299731532701
  0
ARC
  5
9EF3
330
1A
100
AcDbEntity
  8
SEIHIN
  6
Continuous
 62
     3
 48
5.0
100
AcDbCircle
 10
455.1653464837748
 20
230.6987989743352
 30
0.0
 40
3.000008660818017
100
AcDbArc
 50
359.9998544290839
 51
97.29993093188296
  0
ARC
  5
9EF4
330
1A
100
AcDbEntity
  8
SEIHIN
  6
Continuous
 62
     3
 48
5.0
100
AcDbCircle
 10
455.1653742603141
 20
230.6987745315602
 30
0.0
 40
0.4999808845521522
100
AcDbArc
 50
0.001927581379614
 51
97.31031026756571
  0
LINE
  5
9EF5
330
1A
100
AcDbEntity
  8
SEIHIN
  6
Continuous
 62
     4
 48
5.0
100
AcDbLine
 10
458.1653551445832
 20
228.266891352238
 30
0.0
 11
455.6653551445833
 21
228.266891352238
 31
0.0
  0
ARC
  5
9EF6
330
1A
100
AcDbEntity
  8
SEIHIN
  6
PHANTOM
 62
     6
 48
5.0
100
AcDbCircle
 10
455.9553766617288
 20
233.0736872866211
 30
0.0
 40
5.000015724999413
100
AcDbArc
 50
49.30035959058013
 51
109.3005385503348
  0
LINE
  5
9EF7
330
1A
100
AcDbEntity
  8
SEIHIN
  6
PHANTOM
 62
     6
 48
5.0
100
AcDbLine
 10
471.4977551445833
 20
232.048591352238
 30
0.0
 11
467.0839551445831
 21
244.6526913522379
 31
0.0
  0
LINE
  5
9EF8
330
1A
100
AcDbEntity
  8
SEIHIN
  6
Continuous
 62
     3
 48
5.0
100
AcDbLine
 10
421.1094551445831
 20
279.7586913522379
 30
0.0
 11
454.3027551445832
 21
291.3827913522379
 31
0.0
  0
ARC
  5
9EF9
330
1A
100
AcDbEntity
  8
SEIHIN
  6
Continuous
 62
     3
 48
5.0
100
AcDbCircle
 10
422.9271942207695
 20
274.5677725467397
 30
0.0
 40
5.50004913887142
100
AcDbArc
 50
109.3010339545864
 51
199.3003950754438
  0
ARC
  5
9EFA
330
1A
100
AcDbEntity
  8
SEIHIN
  6
Continuous
 62
     3
 48
5.0
100
AcDbCircle
 10
422.9271652804371
 20
274.5677124122712
 30
0.0
 40
0.4999971749922181
100
AcDbArc
 50
109.3065411807442
 51
199.2957259071071
  0
ARC
  5
9EFB
330
1A
100
AcDbEntity
  8
SEIHIN
  6
Continuous
 62
     3
 48
5.0
100
AcDbCircle
 10
422.9271652797638
 20
274.5677124117204
 30
0.0
 40
2.9999995608332
100
AcDbArc
 50
109.3013578742085
 51
199.2995553484562
  0
ARC
  5
9EFC
330
1A
100
AcDbEntity
  8
SEIHIN
  6
Continuous
 62
     3
 48
5.0
100
AcDbCircle
 10
455.9553766617289
 20
286.6637872866211
 30
0.0
 40
5.000015724999413
100
AcDbArc
 50
49.30035959058013
 51
109.3005385503348
  0
LINE
  5
9EFD
330
1A
100
AcDbEntity
  8
SEIHIN
  6
PHANTOM
 62
     6
 48
5.0
100
AcDbLine
 10
518.6878551445832
 20
248.5741913522378
 30
0.0
 11
514.2740551445834
 21
261.178291352238
 31
0.0
  0
LINE
  5
9EFE
330
1A
100
AcDbEntity
  8
SEIHIN
  6
PHANTOM
 62
     6
 48
5.0
100
AcDbLine
 10
565.8779551445832
 20
265.0997913522379
 30
0.0
 11
561.4640551445832
 21
277.7037913522381
 31
0.0
  0
LINE
  5
9EFF
330
1A
100
AcDbEntity
  8
SEIHIN
  6
PHANTOM
 62
     6
 48
5.0
100
AcDbLine
 10
573.2984551445834
 20
274.1661913522381
 30
0.0
 11
572.4721551445832
 21
276.5257913522381
 31
0.0
  0
DIMENSION
  5
9F00
330
1A
100
AcDbEntity
  8
SUNPOU
 48
5.0
100
AcDbDimension
  2
*D12
 10
608.699906222136
 20
459.6880553111283
 30
0.0
 11
603.6999062221358
 21
469.1880553111284
 31
0.0
 70
    32
 71
     5
 42
19.00000000000011
  3
STANDARD
100
AcDbAlignedDimension
 13
573.2999551445832
 23
478.6880553111284
 33
0.0
 14
573.2999551445832
 24
459.6880553111283
 34
0.0
 50
90.0
100
AcDbRotatedDimension
1001
ACAD
1000
DSTYLE
1002
{
1070
   140
1040
6.0
1070
    74
1070
     0
1070
   172
1070
     1
1070
    73
1070
     0
1070
   272
1070
     2
1070
    77
1070
     3
1070
   173
1070
     1
1070
   147
1040
2.0
1070
    42
1040
6.0
1070
    44
1040
3.0
1070
    43
1040
14.0
1070
   271
1070
     0
1070
   178
1070
     4
1070
   177
1070
     4
1070
   176
1070
     4
1070
   141
1040
150.0
1070
     7
1000
_OPEN
1070
     6
1000
_OPEN
1070
    41
1040
7.0
1002
}
  0
ARC
  5
9F01
330
1A
100
AcDbEntity
  8
SEIHIN
  6
Continuous
 62
     3
 48
5.0
100
AcDbCircle
 10
539.7331744526691
 20
393.3493229233694
 30
0.0
 40
2.099999999999852
100
AcDbArc
 50
180.0
 51
0.0
  0
ARC
  5
9F02
330
1A
100
AcDbEntity
  8
SEIHIN
  6
Continuous
 62
     3
 48
5.0
100
AcDbCircle
 10
539.7331744526691
 20
393.3493229233694
 30
0.0
 40
2.099999999999852
100
AcDbArc
 50
0.0
 51
180.0
  0
LINE
  5
9F03
330
1A
100
AcDbEntity
  8
SEIHIN
  6
Continuous
 62
     3
 48
5.0
100
AcDbLine
 10
436.1862744526689
 20
367.1534229233694
 30
0.0
 11
546.0312744526691
 21
405.6206229233694
 31
0.0
  0
LINE
  5
9F04
330
1A
100
AcDbEntity
  8
SEIHIN
  6
Continuous
 62
     3
 48
5.0
100
AcDbLine
 10
552.3110744526691
 20
387.6883229233694
 30
0.0
 11
444.7164744526689
 21
350.0092229233693
 31
0.0
  0
LINE
  5
9F05
330
1A
100
AcDbEntity
  8
CENTER L
  6
CENTER
 62
     1
 48
5.0
100
AcDbLine
 10
554.7081744526688
 20
398.5934229233693
 30
0.0
 11
433.7488744526689
 21
356.2341229233693
 31
0.0
  0
DIMENSION
  5
9F06
330
1A
100
AcDbEntity
  8
SUNPOU
 48
5.0
100
AcDbDimension
  2
*D13
 10
530.2196051615193
 20
420.5204755523652
 30
0.0
 11
558.0777411976054
 21
430.2762458138783
 31
0.0
 70
   161
 71
     5
 42
9.999950718727973
  3
STANDARD
100
AcDbAlignedDimension
 13
547.850548206118
 23
400.4301001823062
 33
0.0
 14
538.4125841205714
 24
397.1249756314125
 34
0.0
1001
ACAD
1000
DSTYLE
1002
{
1070
   288
1070
     1
1070
   140
1040
6.0
1070
    74
1070
     0
1070
   172
1070
     1
1070
    73
1070
     0
1070
   272
1070
     2
1070
    77
1070
     3
1070
   173
1070
     1
1070
   147
1040
2.0
1070
    42
1040
6.0
1070
    44
1040
3.0
1070
    43
1040
14.0
1070
   271
1070
     0
1070
   178
1070
     4
1070
   177
1070
     4
1070
   176
1070
     4
1070
   141
1040
150.0
1070
     7
1000
_OPEN
1070
     6
1000
_OPEN
1070
    41
1040
7.0
1002
}
  0
LEADER
  5
9F07
330
1A
100
AcDbEntity
  8
SUNPOU
  6
Continuous
 62
     4
100
AcDbLeader
  3
STANDARD
 74
     0
 40
6.0
 41
31.2
 76
     3
 10
541.0670967524704
 20
391.727394657973
 30
0.0
 10
561.1495048727009
 20
366.871602434193
 30
0.0
 10
563.7915390849018
 20
366.871602434193
 30
0.0
1001
ACAD
1000
DSTYLE
1002
{
1070
     6
1000
OPEN
1070
    41
1040
7.0
1070
    42
1040
6.0
1070
    43
1040
14.0
1070
    44
1040
3.0
1070
    73
1070
     0
1070
    74
1070
     0
1070
    77
1070
     3
1070
   140
1040
6.0
1070
   141
1040
150.0
1070
   147
1040
2.0
1070
   172
1070
     1
1070
   173
1070
     1
1070
   176
1070
     4
1070
   177
1070
     4
1070
   178
1070
     4
1070
   271
1070
     0
1070
   272
1070
     2
1070
   341
1005
6D
1070
   343
1005
6D
1070
   344
1005
6D
1002
}
  0
LINE
  5
9F08
330
1A
100
AcDbEntity
  8
CENTER L
  6
CENTER
 62
     1
 48
5.0
100
AcDbLine
 10
541.2059744526691
 20
389.1484229233694
 30
0.0
 11
538.188474452669
 21
397.7649229233693
 31
0.0
  0
DIMENSION
  5
9F09
330
1A
100
AcDbEntity
  8
SUNPOU
 48
5.0
100
AcDbDimension
  2
*D14
 10
483.0295865178384
 20
403.9945583468867
 30
0.0
 11
504.9719386191669
 21
416.9765101675671
 31
0.0
 70
    33
 71
     5
 42
49.99991555245435
  3
STANDARD
100
AcDbAlignedDimension
 13
538.188474452669
 23
397.7649229233694
 33
0.0
 14
490.998582793855
 24
381.2390135540803
 34
0.0
1001
ACAD
1000
DSTYLE
1002
{
1070
   140
1040
6.0
1070
    74
1070
     0
1070
   172
1070
     1
1070
    73
1070
     0
1070
   272
1070
     2
1070
    77
1070
     3
1070
   173
1070
     1
1070
   147
1040
2.0
1070
    42
1040
6.0
1070
    44
1040
3.0
1070
    43
1040
14.0
1070
   271
1070
     0
1070
   178
1070
     4
1070
   177
1070
     4
1070
   176
1070
     4
1070
   141
1040
150.0
1070
     7
1000
_OPEN
1070
     6
1000
_OPEN
1070
    41
1040
7.0
1002
}
  0
DIMENSION
  5
9F0A
330
1A
100
AcDbEntity
  8
SUNPOU
 48
5.0
100
AcDbDimension
  2
*D15
 10
435.8398326942491
 20
387.4694491887659
 30
0.0
 11
457.7823018915257
 21
400.451112215676
 31
0.0
 70
    33
 71
     5
 42
49.99982117638717
  3
STANDARD
100
AcDbAlignedDimension
 13
490.9985827938551
 23
381.2390135540804
 33
0.0
 14
443.8085744526688
 24
364.7137229233694
 34
0.0
1001
ACAD
1000
DSTYLE
1002
{
1070
   140
1040
6.0
1070
    74
1070
     0
1070
   172
1070
     1
1070
    73
1070
     0
1070
   272
1070
     2
1070
    77
1070
     3
1070
   173
1070
     1
1070
   147
1040
2.0
1070
    42
1040
6.0
1070
    44
1040
3.0
1070
    43
1040
14.0
1070
   271
1070
     0
1070
   178
1070
     4
1070
   177
1070
     4
1070
   176
1070
     4
1070
   141
1040
150.0
1070
     7
1000
_OPEN
1070
     6
1000
_OPEN
1070
    41
1040
7.0
1002
}
  0
ARC
  5
9F0B
330
1A
100
AcDbEntity
  8
SEIHIN
  6
Continuous
 62
     3
 48
5.0
100
AcDbCircle
 10
445.3532744526688
 20
360.2981229233694
 30
0.0
 40
2.099999999999938
100
AcDbArc
 50
180.0
 51
0.0
  0
ARC
  5
9F0C
330
1A
100
AcDbEntity
  8
SEIHIN
  6
Continuous
 62
     3
 48
5.0
100
AcDbCircle
 10
445.3532744526688
 20
360.2981229233694
 30
0.0
 40
2.099999999999938
100
AcDbArc
 50
0.0
 51
180.0
  0
LINE
  5
9F0D
330
1A
100
AcDbEntity
  8
CENTER L
  6
CENTER
 62
     1
 48
5.0
100
AcDbLine
 10
446.8259744526687
 20
356.0972229233693
 30
0.0
 11
443.8085744526689
 21
364.7137229233694
 31
0.0
  0
LINE
  5
9F0E
330
1A
100
AcDbEntity
  8
CENTER L
  6
CENTER
 62
     1
 48
5.0
100
AcDbLine
 10
518.6878551445832
 20
302.1642913522379
 30
0.0
 11
514.2740551445834
 21
314.768391352238
 31
0.0
  0
ARC
  5
9F0F
330
1A
100
AcDbEntity
  8
SEIHIN
  6
Continuous
 62
     3
 48
5.0
100
AcDbCircle
 10
492.543174452669
 20
376.8237229233693
 30
0.0
 40
2.10000000000008
100
AcDbArc
 50
180.0
 51
0.0
  0
ARC
  5
9F10
330
1A
100
AcDbEntity
  8
SEIHIN
  6
Continuous
 62
     3
 48
5.0
100
AcDbCircle
 10
492.543174452669
 20
376.8237229233693
 30
0.0
 40
2.10000000000008
100
AcDbArc
 50
0.0
 51
180.0
  0
LINE
  5
9F11
330
1A
100
AcDbEntity
  8
CENTER L
  6
CENTER
 62
     1
 48
5.0
100
AcDbLine
 10
494.015974452669
 20
372.6228229233694
 30
0.0
 11
490.9984744526689
 21
381.2393229233693
 31
0.0
  0
LINE
  5
9F12
330
1A
100
AcDbEntity
  8
SEIHIN
  6
Continuous
 62
     3
 48
5.0
100
AcDbLine
 10
422.8996551445833
 20
464.1882553111283
 30
0.0
 11
454.2157551445833
 21
464.1880553111283
 31
0.0
  0
LINE
  5
9F13
330
1A
100
AcDbEntity
  8
SEIHIN
  6
Continuous
 62
     3
 48
5.0
100
AcDbLine
 10
422.8996551445833
 20
474.1882553111283
 30
0.0
 11
454.2158551445833
 21
474.1880553111283
 31
0.0
  0
ARC
  5
9F14
330
1A
100
AcDbEntity
  8
SEIHIN
  6
Continuous
 62
     3
 48
5.0
100
AcDbCircle
 10
426.6496551443315
 20
469.1882147885252
 30
0.0
 40
6.249902861218019
100
AcDbArc
 50
129.0225190796956
 51
230.9763009021927
  0
ARC
  5
9F15
330
1A
100
AcDbEntity
  8
SEIHIN
  6
Continuous
 62
     3
 48
5.0
100
AcDbCircle
 10
422.39967834566
 20
463.9443066418167
 30
0.0
 40
0.4999768012921537
100
AcDbArc
 50
0.0055773510806133
 51
50.98065036643031
  0
LINE
  5
9F16
330
1A
100
AcDbEntity
  8
SEIHIN
  6
Continuous
 62
     3
 48
5.0
100
AcDbLine
 10
422.8996551445833
 20
459.6880553111283
 30
0.0
 11
422.8996551445833
 21
463.9443553111284
 31
0.0
  0
LINE
  5
9F17
330
1A
100
AcDbEntity
  8
SEIHIN
  6
Continuous
 62
     3
 48
5.0
100
AcDbLine
 10
422.8996551445833
 20
478.6880553111284
 30
0.0
 11
422.8996551445833
 21
474.4321553111283
 31
0.0
  0
ARC
  5
9F18
330
1A
100
AcDbEntity
  8
SEIHIN
  6
Continuous
 62
     3
 48
5.0
100
AcDbCircle
 10
422.3996783456601
 20
474.43220398044
 30
0.0
 40
0.4999768012920555
100
AcDbArc
 50
309.0193496335651
 51
359.9944226489129
  0
ARC
  5
9F19
330
1A
100
AcDbEntity
  8
SEIHIN
  6
Continuous
 62
     3
 48
5.0
100
AcDbCircle
 10
454.2158551445833
 20
469.1880553111283
 30
0.0
 40
5.0
100
AcDbArc
 50
270.0
 51
90.0
  0
ARC
  5
9F1A
330
1A
100
AcDbEntity
  8
SEIHIN
  6
Continuous
 62
     3
 48
5.0
100
AcDbCircle
 10
468.5323551445146
 20
469.1894053111285
 30
0.0
 40
2.102164140241323
100
AcDbArc
 50
273.3134039200403
 51
86.68659607995973
  0
LINE
  5
9F1B
330
1A
100
AcDbEntity
  8
CENTER L
  6
CENTER
 62
     1
 48
5.0
100
AcDbLine
 10
468.6538551445833
 20
464.3970553111283
 30
0.0
 11
468.6538551445833
 21
473.9125553111284
 31
0.0
  0
ARC
  5
9F1C
330
1A
100
AcDbEntity
  8
SEIHIN
  6
Continuous
 62
     3
 48
5.0
100
AcDbCircle
 10
469.601555145793
 20
469.1894553111284
 30
0.0
 40
2.102211400238773
100
AcDbArc
 50
104.7323261986618
 51
255.2676738013382
  0
ARC
  5
9F1D
330
1A
100
AcDbEntity
  8
SEIHIN
  6
Continuous
 62
     3
 48
5.0
100
AcDbCircle
 10
468.7753551446521
 20
469.1894053111285
 30
0.0
 40
2.102164140241326
100
AcDbArc
 50
93.31340392004189
 51
266.6865960799581
  0
LINE
  5
9F1E
330
1A
100
AcDbEntity
  8
CENTER L
  6
CENTER
 62
     1
 48
5.0
100
AcDbLine
 10
515.8439551445833
 20
464.3970553111283
 30
0.0
 11
515.8439551445833
 21
473.9125553111284
 31
0.0
  0
ARC
  5
9F1F
330
1A
100
AcDbEntity
  8
SEIHIN
  6
Continuous
 62
     3
 48
5.0
100
AcDbCircle
 10
516.7916551476319
 20
469.1894421649476
 30
0.0
 40
2.102198686716455
100
AcDbArc
 50
104.729599215857
 51
255.267582635529
  0
ARC
  5
9F20
330
1A
100
AcDbEntity
  8
SEIHIN
  6
Continuous
 62
     3
 48
5.0
100
AcDbCircle
 10
515.7225551445147
 20
469.1894053111285
 30
0.0
 40
2.102158362853887
100
AcDbArc
 50
273.310682907177
 51
86.68931709282303
  0
ARC
  5
9F21
330
1A
100
AcDbEntity
  8
SEIHIN
  6
Continuous
 62
     3
 48
5.0
100
AcDbCircle
 10
515.965455144652
 20
469.1894053111285
 30
0.0
 40
2.102164140241323
100
AcDbArc
 50
93.31340392004027
 51
266.6865960799597
  0
LINE
  5
9F22
330
1A
100
AcDbEntity
  8
SEIHIN
  6
Continuous
 62
     3
 48
5.0
100
AcDbLine
 10
546.032674452669
 20
405.6210229233693
 30
0.0
 11
552.312574452669
 21
387.6888229233693
 31
0.0
  0
DIMENSION
  5
9F23
330
1A
100
AcDbEntity
  8
SUNPOU
 48
5.0
100
AcDbDimension
  2
*D16
 10
576.0291853395606
 20
395.9922474518712
 30
0.0
 11
577.6091166841853
 21
406.6108078961485
 31
0.0
 70
    33
 71
     5
 42
19.00000094342101
  3
STANDARD
100
AcDbAlignedDimension
 13
546.0326744526687
 23
405.6210229233693
 33
0.0
 14
552.3110744526689
 24
387.6883229233693
 34
0.0
1001
ACAD
1000
DSTYLE
1002
{
1070
   140
1040
6.0
1070
    74
1070
     0
1070
   172
1070
     1
1070
    73
1070
     0
1070
   272
1070
     2
1070
    77
1070
     3
1070
   173
1070
     1
1070
   147
1040
2.0
1070
    42
1040
6.0
1070
    44
1040
3.0
1070
    43
1040
14.0
1070
   271
1070
     0
1070
   178
1070
     4
1070
   177
1070
     4
1070
   176
1070
     4
1070
   141
1040
150.0
1070
     7
1000
_OPEN
1070
     6
1000
_OPEN
1070
    41
1040
7.0
1002
}
  0
LINE
  5
9F24
330
1A
100
AcDbEntity
  8
SUNPOU
  6
Continuous
 62
     4
 48
5.0
100
AcDbLine
 10
592.6879100066387
 20
337.1960159680085
 30
0.0
 11
632.9039648686942
 21
351.2800010533463
 31
0.0
  0
LINE
  5
9F25
330
1A
100
AcDbEntity
  8
CENTER L
  6
CENTER
 62
     1
 48
5.0
100
AcDbLine
 10
565.8779551445832
 20
318.6898913522379
 30
0.0
 11
561.4640551445832
 21
331.2938913522381
 31
0.0
  0
LINE
  5
9F26
330
1A
100
AcDbEntity
  8
SEIHIN
  6
Continuous
 62
     3
 48
5.0
100
AcDbLine
 10
573.2984551445834
 20
327.7562913522381
 30
0.0
 11
572.4721551445832
 21
330.1158913522381
 31
0.0
  0
MTEXT
  5
9F27
330
1A
100
AcDbEntity
  8
SUNPOU
  6
Continuous
 62
     4
100
AcDbMText
 10
565.7915390849018
 20
368.871602434193
 30
0.0
 40
6.0
 41
0.0
 71
     7
 72
     5
  1
3-φ4.2
 73
     1
 44
1.0
  0
TEXT
  5
9F28
330
1A
100
AcDbEntity
  8
SUNPOU
 62
     4
100
AcDbText
 10
620.9355285975842
 20
335.0768109344311
 30
0.0
 40
6.0
  1
10
100
AcDbText
  0
TEXT
  5
9F29
330
1A
100
AcDbEntity
  8
SUNPOU
 62
     4
100
AcDbText
 10
637.7369358915869
 20
345.4055872786362
 30
0.0
 40
6.0
  1
3.5
100
AcDbText
  0
LINE
  5
9F2A
330
1A
100
AcDbEntity
  8
SUNPOU
 62
     4
100
AcDbLine
 10
612.9039648686942
 20
344.275840583779
 30
0.0
 11
632.9039648686942
 21
344.2758405837791
 31
0.0
  0
LINE
  5
9F2B
330
1A
100
AcDbEntity
  8
SUNPOU
 62
     4
100
AcDbLine
 10
632.9039648686942
 20
351.2800010533463
 30
0.0
 11
632.9039648686942
 21
344.2758405837791
 31
0.0
  0
LINE
  5
9F2C
330
1A
100
AcDbEntity
  8
CENTER L
  6
CENTER
 62
     1
 48
5.0
100
AcDbLine
 10
563.0340551445831
 20
464.3970553111283
 30
0.0
 11
563.0340551445831
 21
473.9125553111284
 31
0.0
  0
ARC
  5
9F2D
330
1A
100
AcDbEntity
  8
SEIHIN
  6
Continuous
 62
     3
 48
5.0
100
AcDbCircle
 10
563.9818551457929
 20
469.1894553111284
 30
0.0
 40
2.102211400238795
100
AcDbArc
 50
104.7323261986636
 51
255.2676738013364
  0
ARC
  5
9F2E
330
1A
100
AcDbEntity
  8
SEIHIN
  6
Continuous
 62
     3
 48
5.0
100
AcDbCircle
 10
562.9126551445145
 20
469.1894053111285
 30
0.0
 40
2.102158362853883
100
AcDbArc
 50
273.3106829071754
 51
86.68931709282465
  0
ARC
  5
9F2F
330
1A
100
AcDbEntity
  8
SEIHIN
  6
Continuous
 62
     3
 48
5.0
100
AcDbCircle
 10
563.155555144652
 20
469.1894053111285
 30
0.0
 40
2.102164140241323
100
AcDbArc
 50
93.31340392004027
 51
266.6865960799597
  0
LINE
  5
9F30
330
1A
100
AcDbEntity
  8
SEIHIN
  6
Continuous
 62
     3
 48
5.0
100
AcDbLine
 10
572.4720551445832
 20
459.6880553111283
 30
0.0
 11
572.4720551445832
 21
478.6879553111283
 31
0.0
  0
LINE
  5
9F31
330
1A
100
AcDbEntity
  8
SEIHIN
  6
Continuous
 62
     3
 48
5.0
100
AcDbLine
 10
573.3000551445832
 20
459.6880553111283
 30
0.0
 11
573.3000551445832
 21
478.6879553111283
 31
0.0
  0
VIEWPORT
  5
22
330
17
100
AcDbEntity
 67
     1
  8
0
100
AcDbViewport
 10
313.6808219178082
 20
286.420032064001
 30
0.0
 40
627.3616438356164
 41
572.840064128002
 68
     2
 69
     1
 12
313.6808219178082
 22
286.420032064001
 13
0.0
 23
0.0
 14
1.0
 24
1.0
 15
10.0
 25
10.0
 16
0.0
 26
0.0
 36
1.0
 17
0.0
 27
0.0
 37
0.0
 42
50.0
 43
0.0
 44
0.0
 45
572.840064128002
 50
0.0
 51
0.0
 72
   100
 90
    32768
  1

281
     0
 71
     1
 74
     0
110
0.0
120
0.0
130
0.0
111
1.0
121
0.0
131
0.0
112
0.0
122
1.0
132
0.0
 79
     0
146
0.0
  0
VIEWPORT
  5
64
330
17
100
AcDbEntity
 67
     1
  8
VIEWPORT
100
AcDbViewport
 10
210.0
 20
148.5
 30
0.0
 40
420.0
 41
297.0
 68
     1
 69
     2
 12
420.0
 22
297.0
 13
0.0
 23
0.0
 14
10.0
 24
10.0
 15
0.0
 25
0.0
 16
0.0
 26
0.0
 36
1.0
 17
0.0
 27
0.0
 37
0.0
 42
50.0
 43
0.0
 44
0.0
 45
605.8799999999999
 50
0.0
 51
0.0
 72
   100
 90
    32768
  1

281
     0
 71
     1
 74
     0
110
0.0
120
0.0
130
0.0
111
1.0
121
0.0
131
0.0
112
0.0
122
1.0
132
0.0
 79
     0
146
0.0
  0
ENDSEC
  0
SECTION
  2
OBJECTS
  0
DICTIONARY
  5
C
330
0
100
AcDbDictionary
281
     1
  3
ACAD_GROUP
350
D
  3
ACAD_LAYOUT
350
A98
  3
ACAD_MLINESTYLE
350
E
  3
ACAD_PLOTSETTINGS
350
A99
  3
ACAD_PLOTSTYLENAME
350
A96
  0
DICTIONARY
  5
D
102
{ACAD_REACTORS
330
C
102
}
330
C
100
AcDbDictionary
281
     1
  3
*A1
350
FA3
  3
*A2
350
1597
  3
*A3
350
179D
  3
*A4
350
3390
  3
*A5
350
3A0A
  0
DICTIONARY
  5
A98
102
{ACAD_REACTORS
330
C
102
}
330
C
100
AcDbDictionary
281
     1
  3
Model
350
A9A
  3
ﾚｲｱｳﾄ1
350
A9B
  0
DICTIONARY
  5
E
102
{ACAD_REACTORS
330
C
102
}
330
C
100
AcDbDictionary
281
     1
  3
STANDARD
350
13
  0
DICTIONARY
  5
A99
102
{ACAD_REACTORS
330
C
102
}
330
C
100
AcDbDictionary
281
     1
  0
ACDBDICTIONARYWDFLT
  5
A96
102
{ACAD_REACTORS
330
C
102
}
330
C
100
AcDbDictionary
281
     1
  3
Normal
350
A97
100
AcDbDictionaryWithDefault
340
A97
1001
ACAD
1000
TREAT_AS_HARD
1070
     0
1000
TREAT_AS_HARD
1070
     0
1000
TREAT_AS_HARD
1070
     0
1000
TREAT_AS_HARD
1070
     0
  0
GROUP
  5
FA3
102
{ACAD_REACTORS
330
D
102
}
330
D
100
AcDbGroup
300

 70
     1
 71
     1
  0
GROUP
  5
1597
102
{ACAD_REACTORS
330
D
102
}
330
D
100
AcDbGroup
300

 70
     1
 71
     1
  0
GROUP
  5
179D
102
{ACAD_REACTORS
330
D
102
}
330
D
100
AcDbGroup
300

 70
     1
 71
     1
  0
GROUP
  5
3390
102
{ACAD_REACTORS
330
D
102
}
330
D
100
AcDbGroup
300

 70
     1
 71
     1
  0
GROUP
  5
3A0A
102
{ACAD_REACTORS
330
D
102
}
330
D
100
AcDbGroup
300

 70
     1
 71
     1
  0
LAYOUT
  5
A9A
102
{ACAD_REACTORS
330
A98
102
}
330
A98
100
AcDbPlotSettings
  1

  2
Adobe PDF
  4
A3
  6

 40
3.174999952316284
 41
3.174999952316284
 42
3.17498779296875
 43
3.17498779296875
 44
297.0318298339844
 45
420.1583251953125
 46
2.67
 47
2.85
 48
-8.09872987394283
 49
-9.441603207410708
140
808.114529312747
141
561.2334822198422
142
1.0
143
2.0
 70
 28340
 72
     1
 73
     1
 74
     4
  7
systemprinter.ctb
 75
    17
147
0.5
148
8.09872987394283
149
9.441603207410708
100
AcDbLayout
  1
Model
 70
     1
 71
     0
 10
0.0
 20
0.0
 11
12.0
 21
9.0
 12
0.0
 22
0.0
 32
0.0
 14
0.0
 24
0.0
 34
0.0
 15
0.0
 25
0.0
 35
0.0
146
0.0
 13
0.0
 23
0.0
 33
0.0
 16
1.0
 26
0.0
 36
0.0
 17
0.0
 27
1.0
 37
0.0
 76
     0
330
1A
  0
LAYOUT
  5
A9B
102
{ACAD_REACTORS
330
A98
102
}
330
A98
100
AcDbPlotSettings
  1

  2
C:\PROGRAM FILES\ACAD LT 2000\plotters\DWF ePlot.pc3
  4
ANSI_A_(8.50_x_11.00_Inches)
  6

 40
5.793749809265137
 41
17.79375076293945
 42
5.793746948242188
 43
17.79376220703125
 44
215.8999938964844
 45
279.3999938964844
 46
0.0
 47
0.0
 48
0.0
 49
0.0
140
0.0
141
0.0
142
1.0
143
43.75760864458461
 70
   688
 72
     0
 73
     1
 74
     1
  7
systemprinter.ctb
 75
     0
147
0.0228531684197454
148
0.3255366854427166
149
0.2302009418498301
100
AcDbLayout
  1
ﾚｲｱｳﾄ1
 70
     1
 71
     1
 10
-30.66685116754002
 20
-9.990190459854741
 11
450.6668334081172
 21
361.9494725043409
 12
0.0
 22
0.0
 32
0.0
 14
-0.0128164049386896
 24
-0.0090630292066862
 34
-0.0015258207003583
 15
420.0128183607162
 25
297.0090644122207
 35
0.0000000349246037
146
0.0
 13
0.0
 23
0.0
 33
0.0
 16
1.0
 26
0.0
 36
0.0
 17
0.0
 27
1.0
 37
0.0
 76
     0
330
17
331
64
  0
MLINESTYLE
  5
13
102
{ACAD_REACTORS
330
E
102
}
330
E
100
AcDbMlineStyle
  2
STANDARD
 70
     0
  3

 62
     0
 51
90.0
 52
90.0
 71
     2
 49
0.5
 62
   256
  6
BYLAYER
 49
-0.5
 62
   256
  6
BYLAYER
  0
ACDBPLACEHOLDER
  5
A97
102
{ACAD_REACTORS
330
A96
102
}
330
A96
  0
ENDSEC
  0
EOF
