  0
SECTION
  2
HEADER
  9
$ACADVER
  1
AC1015
  9
$ACADMAINTVER
 70
     6
  9
$DWGCODEPAGE
  3
ANSI_932
  9
$INSBASE
 10
0.0
 20
0.0
 30
0.0
  9
$EXTMIN
 10
0.0000000135560185
 20
-0.0000001317113174
 30
0.0
  9
$EXTMAX
 10
797.6000000135562
 20
551.5999998682888
 30
0.0
  9
$LIMMIN
 10
0.0
 20
0.0
  9
$LIMMAX
 10
840.0
 20
594.0
  9
$ORTHOMODE
 70
     0
  9
$REGENMODE
 70
     1
  9
$FILLMODE
 70
     1
  9
$QTEXTMODE
 70
     0
  9
$MIRRTEXT
 70
     1
  9
$LTSCALE
 40
2.0
  9
$ATTMODE
 70
     1
  9
$TEXTSIZE
 40
6.0
  9
$TRACEWID
 40
1.0
  9
$TEXTSTYLE
  7
STANDARD
  9
$CLAYER
  8
SEIHIN
  9
$CELTYPE
  6
BYLAYER
  9
$CECOLOR
 62
   256
  9
$CELTSCALE
 40
1.0
  9
$DISPSILH
 70
     0
  9
$DIMSCALE
 40
1.0
  9
$DIMASZ
 40
7.0
  9
$DIMEXO
 40
6.0
  9
$DIMDLI
 40
14.0
  9
$DIMRND
 40
0.0
  9
$DIMDLE
 40
0.0
  9
$DIMEXE
 40
3.0
  9
$DIMTP
 40
0.0
  9
$DIMTM
 40
0.0
  9
$DIMTXT
 40
6.0
  9
$DIMCEN
 40
150.0
  9
$DIMTSZ
 40
0.0
  9
$DIMTOL
 70
     0
  9
$DIMLIM
 70
     0
  9
$DIMTIH
 70
     0
  9
$DIMTOH
 70
     0
  9
$DIMSE1
 70
     0
  9
$DIMSE2
 70
     0
  9
$DIMTAD
 70
     3
  9
$DIMZIN
 70
     0
  9
$DIMBLK
  1

  9
$DIMASO
 70
     1
  9
$DIMSHO
 70
     1
  9
$DIMPOST
  1

  9
$DIMAPOST
  1

  9
$DIMALT
 70
     0
  9
$DIMALTD
 70
     2
  9
$DIMALTF
 40
25.4
  9
$DIMLFAC
 40
1.0
  9
$DIMTOFL
 70
     1
  9
$DIMTVP
 40
0.0
  9
$DIMTIX
 70
     0
  9
$DIMSOXD
 70
     0
  9
$DIMSAH
 70
     1
  9
$DIMBLK1
  1
OPEN
  9
$DIMBLK2
  1
OPEN
  9
$DIMSTYLE
  2
STANDARD
  9
$DIMCLRD
 70
   256
  9
$DIMCLRE
 70
   256
  9
$DIMCLRT
 70
   256
  9
$DIMTFAC
 40
1.0
  9
$DIMGAP
 40
2.0
  9
$DIMJUST
 70
     0
  9
$DIMSD1
 70
     0
  9
$DIMSD2
 70
     0
  9
$DIMTOLJ
 70
     1
  9
$DIMTZIN
 70
     0
  9
$DIMALTZ
 70
     0
  9
$DIMALTTZ
 70
     0
  9
$DIMUPT
 70
     0
  9
$DIMDEC
 70
     0
  9
$DIMTDEC
 70
     0
  9
$DIMALTU
 70
     2
  9
$DIMALTTD
 70
     2
  9
$DIMTXSTY
  7
STANDARD
  9
$DIMAUNIT
 70
     0
  9
$DIMADEC
 70
     0
  9
$DIMALTRND
 40
0.0
  9
$DIMAZIN
 70
     0
  9
$DIMDSEP
 70
    46
  9
$DIMATFIT
 70
     3
  9
$DIMFRAC
 70
     0
  9
$DIMLDRBLK
  1
OPEN
  9
$DIMLUNIT
 70
     2
  9
$DIMLWD
 70
    -1
  9
$DIMLWE
 70
    -1
  9
$DIMTMOVE
 70
     0
  9
$LUNITS
 70
     2
  9
$LUPREC
 70
     4
  9
$SKETCHINC
 40
1.0
  9
$FILLETRAD
 40
10.0
  9
$AUNITS
 70
     0
  9
$AUPREC
 70
     0
  9
$MENU
  1
.
  9
$ELEVATION
 40
0.0
  9
$PELEVATION
 40
0.0
  9
$THICKNESS
 40
0.0
  9
$LIMCHECK
 70
     0
  9
$CHAMFERA
 40
0.0
  9
$CHAMFERB
 40
0.0
  9
$CHAMFERC
 40
40.0
  9
$CHAMFERD
 40
0.0
  9
$SKPOLY
 70
     0
  9
$TDCREATE
 40
2451030.614786227
  9
$TDUCREATE
 40
2451030.239786227
  9
$TDUPDATE
 40
2455609.407488623
  9
$TDUUPDATE
 40
2455609.032488623
  9
$TDINDWG
 40
0.3502754861
  9
$TDUSRTIMER
 40
0.3502754861
  9
$USRTIMER
 70
     1
  9
$ANGBASE
 50
0.0
  9
$ANGDIR
 70
     0
  9
$PDMODE
 70
     0
  9
$PDSIZE
 40
0.0
  9
$PLINEWID
 40
0.0
  9
$SPLFRAME
 70
     0
  9
$SPLINETYPE
 70
     6
  9
$SPLINESEGS
 70
     8
  9
$HANDSEED
  5
A4D9
  9
$SURFTAB1
 70
     6
  9
$SURFTAB2
 70
     6
  9
$SURFTYPE
 70
     6
  9
$SURFU
 70
     6
  9
$SURFV
 70
     6
  9
$UCSBASE
  2

  9
$UCSNAME
  2

  9
$UCSORG
 10
0.0
 20
0.0
 30
0.0
  9
$UCSXDIR
 10
1.0
 20
0.0
 30
0.0
  9
$UCSYDIR
 10
0.0
 20
1.0
 30
0.0
  9
$UCSORTHOREF
  2

  9
$UCSORTHOVIEW
 70
     0
  9
$UCSORGTOP
 10
0.0
 20
0.0
 30
0.0
  9
$UCSORGBOTTOM
 10
0.0
 20
0.0
 30
0.0
  9
$UCSORGLEFT
 10
0.0
 20
0.0
 30
0.0
  9
$UCSORGRIGHT
 10
0.0
 20
0.0
 30
0.0
  9
$UCSORGFRONT
 10
0.0
 20
0.0
 30
0.0
  9
$UCSORGBACK
 10
0.0
 20
0.0
 30
0.0
  9
$PUCSBASE
  2

  9
$PUCSNAME
  2

  9
$PUCSORG
 10
0.0
 20
0.0
 30
0.0
  9
$PUCSXDIR
 10
1.0
 20
0.0
 30
0.0
  9
$PUCSYDIR
 10
0.0
 20
1.0
 30
0.0
  9
$PUCSORTHOREF
  2

  9
$PUCSORTHOVIEW
 70
     0
  9
$PUCSORGTOP
 10
0.0
 20
0.0
 30
0.0
  9
$PUCSORGBOTTOM
 10
0.0
 20
0.0
 30
0.0
  9
$PUCSORGLEFT
 10
0.0
 20
0.0
 30
0.0
  9
$PUCSORGRIGHT
 10
0.0
 20
0.0
 30
0.0
  9
$PUCSORGFRONT
 10
0.0
 20
0.0
 30
0.0
  9
$PUCSORGBACK
 10
0.0
 20
0.0
 30
0.0
  9
$USERI1
 70
     0
  9
$USERI2
 70
     0
  9
$USERI3
 70
     0
  9
$USERI4
 70
     0
  9
$USERI5
 70
     0
  9
$USERR1
 40
0.0
  9
$USERR2
 40
0.0
  9
$USERR3
 40
0.0
  9
$USERR4
 40
0.0
  9
$USERR5
 40
0.0
  9
$WORLDVIEW
 70
     1
  9
$SHADEDGE
 70
     3
  9
$SHADEDIF
 70
    70
  9
$TILEMODE
 70
     1
  9
$MAXACTVP
 70
    16
  9
$PINSBASE
 10
0.0
 20
0.0
 30
0.0
  9
$PLIMCHECK
 70
     0
  9
$PEXTMIN
 10
-0.0128164049386896
 20
-0.0090630292066862
 30
-0.0015258207003583
  9
$PEXTMAX
 10
420.0128183607162
 20
297.0090644122207
 30
0.0000000349246037
  9
$PLIMMIN
 10
-30.66685116754002
 20
-9.990190459854741
  9
$PLIMMAX
 10
450.6668334081172
 20
361.9494725043409
  9
$UNITMODE
 70
     0
  9
$VISRETAIN
 70
     0
  9
$PLINEGEN
 70
     0
  9
$PSLTSCALE
 70
     1
  9
$TREEDEPTH
 70
  3020
  9
$CMLSTYLE
  2
STANDARD
  9
$CMLJUST
 70
     0
  9
$CMLSCALE
 40
1.0
  9
$PROXYGRAPHICS
 70
     1
  9
$MEASUREMENT
 70
     0
  9
$CELWEIGHT
370
    -1
  9
$ENDCAPS
280
     0
  9
$JOINSTYLE
280
     0
  9
$LWDISPLAY
290
     0
  9
$INSUNITS
 70
     0
  9
$HYPERLINKBASE
  1

  9
$STYLESHEET
  1
systemprinter.ctb
  9
$XEDIT
290
     1
  9
$CEPSNTYPE
380
     0
  9
$PSTYLEMODE
290
     1
  9
$FINGERPRINTGUID
  2
{91E25F26-0CBF-4C93-982E-B5F00895E654}
  9
$VERSIONGUID
  2
{27E57E74-925A-45E9-83DA-2CB32A146CCB}
  9
$EXTNAMES
290
     1
  9
$PSVPSCALE
 40
0.0
  9
$OLESTARTUP
290
     0
  0
ENDSEC
  0
SECTION
  2
CLASSES
  0
CLASS
  1
ACDBDICTIONARYWDFLT
  2
AcDbDictionaryWithDefault
  3
ObjectDBX Classes
 90
        0
280
     0
281
     0
  0
CLASS
  1
ACDBPLACEHOLDER
  2
AcDbPlaceHolder
  3
ObjectDBX Classes
 90
        0
280
     0
281
     0
  0
CLASS
  1
LAYOUT
  2
AcDbLayout
  3
ObjectDBX Classes
 90
        0
280
     0
281
     0
  0
CLASS
  1
DUMMY
  2
AcDbLongTransaction
  3
DUMMY
 90
        0
280
     0
281
     0
  0
CLASS
  1
LWPOLYLINE
  2
AcDbPolyline
  3
AutoCAD 2000
 90
        0
280
     0
281
     1
  0
CLASS
  1
HATCH
  2
AcDbHatch
  3
AutoCAD 2000
 90
        0
280
     0
281
     1
  0
CLASS
  1
XRECORD
  2
AcDbXrecord
  3
AutoCAD 2000
 90
        0
280
     0
281
     0
  0
CLASS
  1
DUMMY
  2
AcDbLongTransaction
  3
DUMMY
 90
        0
280
     0
281
     0
  0
CLASS
  1
LWPOLYLINE
  2
AcDbPolyline
  3
AutoCAD 2000
 90
        0
280
     0
281
     1
  0
CLASS
  1
HATCH
  2
AcDbHatch
  3
AutoCAD 2000
 90
        0
280
     0
281
     1
  0
CLASS
  1
XRECORD
  2
AcDbXrecord
  3
AutoCAD 2000
 90
        0
280
     0
281
     0
  0
CLASS
  1
DUMMY
  2
AcDbLongTransaction
  3
DUMMY
 90
        0
280
     0
281
     0
  0
CLASS
  1
LWPOLYLINE
  2
AcDbPolyline
  3
AutoCAD 2000
 90
        0
280
     0
281
     1
  0
CLASS
  1
HATCH
  2
AcDbHatch
  3
AutoCAD 2000
 90
        0
280
     0
281
     1
  0
CLASS
  1
XRECORD
  2
AcDbXrecord
  3
AutoCAD 2000
 90
        0
280
     0
281
     0
  0
CLASS
  1
DUMMY
  2
AcDbLongTransaction
  3
DUMMY
 90
        0
280
     0
281
     0
  0
CLASS
  1
LWPOLYLINE
  2
AcDbPolyline
  3
AutoCAD 2000
 90
        0
280
     0
281
     1
  0
CLASS
  1
HATCH
  2
AcDbHatch
  3
AutoCAD 2000
 90
        0
280
     0
281
     1
  0
CLASS
  1
XRECORD
  2
AcDbXrecord
  3
AutoCAD 2000
 90
        0
280
     0
281
     0
  0
CLASS
  1
DUMMY
  2
AcDbLongTransaction
  3
DUMMY
 90
        0
280
     0
281
     0
  0
CLASS
  1
LWPOLYLINE
  2
AcDbPolyline
  3
AutoCAD 2000
 90
        0
280
     0
281
     1
  0
CLASS
  1
HATCH
  2
AcDbHatch
  3
AutoCAD 2000
 90
        0
280
     0
281
     1
  0
CLASS
  1
XRECORD
  2
AcDbXrecord
  3
AutoCAD 2000
 90
        0
280
     0
281
     0
  0
ENDSEC
  0
SECTION
  2
TABLES
  0
TABLE
  2
VPORT
  5
8
330
0
100
AcDbSymbolTable
 70
     2
  0
VPORT
  5
A4D8
330
8
100
AcDbSymbolTableRecord
100
AcDbViewportTableRecord
  2
*Active
 70
     0
 10
0.0
 20
0.0
 11
1.0
 21
1.0
 12
446.8981252113221
 22
302.4396358068046
 13
0.0
 23
0.0
 14
5.0
 24
5.0
 15
0.0
 25
0.0
 16
0.0
 26
0.0
 36
1.0
 17
0.0
 27
0.0
 37
0.0
 40
691.2325861157809
 41
1.651537335285505
 42
50.0
 43
0.0
 44
0.0
 50
0.0
 51
0.0
 71
     0
 72
   100
 73
     1
 74
     0
 75
     0
 76
     0
 77
     0
 78
     0
281
     0
 65
     1
110
0.0
120
0.0
130
0.0
111
1.0
121
0.0
131
0.0
112
0.0
122
1.0
132
0.0
 79
     0
146
0.0
  0
ENDTAB
  0
TABLE
  2
LTYPE
  5
5
330
0
100
AcDbSymbolTable
 70
     3
  0
LTYPE
  5
14
330
5
100
AcDbSymbolTableRecord
100
AcDbLinetypeTableRecord
  2
BYBLOCK
 70
     0
  3

 72
    65
 73
     0
 40
0.0
  0
LTYPE
  5
15
330
5
100
AcDbSymbolTableRecord
100
AcDbLinetypeTableRecord
  2
BYLAYER
 70
     0
  3

 72
    65
 73
     0
 40
0.0
  0
LTYPE
  5
16
330
5
100
AcDbSymbolTableRecord
100
AcDbLinetypeTableRecord
  2
CONTINUOUS
 70
     0
  3
Solid line
 72
    65
 73
     0
 40
0.0
  0
LTYPE
  5
135
330
5
100
AcDbSymbolTableRecord
100
AcDbLinetypeTableRecord
  2
CENTER
 70
     0
  3
____ _ ____ _ ____ _ ____ _ ____ _ ____ _ ____ 
 72
    65
 73
     4
 40
2.0
 49
1.25
 74
     0
 49
-0.25
 74
     0
 49
0.25
 74
     0
 49
-0.25
 74
     0
  0
LTYPE
  5
8279
330
5
100
AcDbSymbolTableRecord
100
AcDbLinetypeTableRecord
  2
PHANTOM
 70
     0
  3
______  __  __  ______  __  __  ______  __  __ 
 72
    65
 73
     6
 40
2.5
 49
1.25
 74
     0
 49
-0.25
 74
     0
 49
0.25
 74
     0
 49
-0.25
 74
     0
 49
0.25
 74
     0
 49
-0.25
 74
     0
  0
ENDTAB
  0
TABLE
  2
LAYER
  5
2
330
0
100
AcDbSymbolTable
 70
     8
  0
LAYER
  5
F
330
2
100
AcDbSymbolTableRecord
100
AcDbLayerTableRecord
  2
0
 70
     0
 62
     7
  6
CONTINUOUS
370
    -3
390
A97
  0
LAYER
  5
62
330
2
100
AcDbSymbolTableRecord
100
AcDbLayerTableRecord
  2
VIEWPORT
 70
     0
 62
     7
  6
CONTINUOUS
370
    -3
390
A97
  0
LAYER
  5
143
330
2
100
AcDbSymbolTableRecord
100
AcDbLayerTableRecord
  2
SEIHIN
 70
     0
 62
     3
  6
CONTINUOUS
370
    -3
390
A97
  0
LAYER
  5
444
330
2
100
AcDbSymbolTableRecord
100
AcDbLayerTableRecord
  2
DEFPOINTS
 70
     0
 62
     7
  6
CONTINUOUS
290
     0
370
    -3
390
A97
  0
LAYER
  5
482
330
2
100
AcDbSymbolTableRecord
100
AcDbLayerTableRecord
  2
SUNPOU
 70
     0
 62
     4
  6
CONTINUOUS
370
    -3
390
A97
  0
LAYER
  5
5D4
330
2
100
AcDbSymbolTableRecord
100
AcDbLayerTableRecord
  2
CENTER L
 70
     0
 62
     1
  6
CENTER
370
    -3
390
A97
  0
LAYER
  5
3D95
330
2
100
AcDbSymbolTableRecord
100
AcDbLayerTableRecord
  2
ZUWAKU
 70
     0
 62
     7
  6
CONTINUOUS
370
    -3
390
A97
  0
LAYER
  5
3D96
330
2
100
AcDbSymbolTableRecord
100
AcDbLayerTableRecord
  2
moji
 70
     0
 62
     2
  6
CONTINUOUS
370
    -3
390
A97
  0
ENDTAB
  0
TABLE
  2
STYLE
  5
3
330
0
100
AcDbSymbolTable
 70
     2
  0
STYLE
  5
10
330
3
100
AcDbSymbolTableRecord
100
AcDbTextStyleTableRecord
  2
STANDARD
 70
     0
 40
0.0
 41
1.0
 50
0.0
 71
     0
 42
6.0
  3
TXT
  4
bigfont.shx
  0
STYLE
  5
3D97
330
3
100
AcDbSymbolTableRecord
100
AcDbTextStyleTableRecord
  2
ｽﾀｲﾙ1
 70
     0
 40
0.0
 41
1.0
 50
0.0
 71
     0
 42
2.5
  3
MS PGothic.ttf
  4

1001
ACAD
1000
MS PGothic
1071
    32818
  0
ENDTAB
  0
TABLE
  2
VIEW
  5
6
330
0
100
AcDbSymbolTable
 70
     0
  0
ENDTAB
  0
TABLE
  2
UCS
  5
7
330
0
100
AcDbSymbolTable
 70
     0
  0
ENDTAB
  0
TABLE
  2
APPID
  5
9
330
0
100
AcDbSymbolTable
 70
     1
  0
APPID
  5
11
330
9
100
AcDbSymbolTableRecord
100
AcDbRegAppTableRecord
  2
ACAD
 70
     0
  0
ENDTAB
  0
TABLE
  2
DIMSTYLE
  5
A
330
0
100
AcDbSymbolTable
 70
     1
100
AcDbDimStyleTable
  0
DIMSTYLE
105
1D
102
{ACAD_REACTORS
330
A273
330
A274
330
A275
330
A276
330
A27E
330
A287
330
A2A9
330
A2CC
330
A2CE
330
A2D4
330
A2E2
330
A34B
330
A34E
330
A350
330
A353
330
A355
102
}
330
A
100
AcDbSymbolTableRecord
100
AcDbDimStyleTableRecord
  2
STANDARD
 70
     0
340
10
  0
ENDTAB
  0
TABLE
  2
BLOCK_RECORD
  5
1
330
0
100
AcDbSymbolTable
 70
    17
  0
BLOCK_RECORD
  5
1A
330
1
100
AcDbSymbolTableRecord
100
AcDbBlockTableRecord
  2
*MODEL_SPACE
340
A9A
  0
BLOCK_RECORD
  5
17
330
1
100
AcDbSymbolTableRecord
100
AcDbBlockTableRecord
  2
*PAPER_SPACE
340
A9B
  0
BLOCK_RECORD
  5
6D
330
1
100
AcDbSymbolTableRecord
100
AcDbBlockTableRecord
  2
_OPEN
340
0
102
{BLKREFS
331
A43F
331
A440
331
A448
331
A449
331
A451
331
A452
331
A45A
331
A45B
331
A463
331
A464
331
A46C
331
A46D
331
A477
331
A478
331
A482
331
A483
331
A48B
331
A48C
331
A494
331
A495
331
A49D
331
A49E
331
A4A6
331
A4A7
331
A4B1
331
A4B2
331
A4BA
331
A4BB
331
A4C3
331
A4C4
331
A4CC
331
A4CD
102
}
  0
BLOCK_RECORD
  5
A376
330
1
100
AcDbSymbolTableRecord
100
AcDbBlockTableRecord
  2
*D1
340
0
  0
BLOCK_RECORD
  5
A382
330
1
100
AcDbSymbolTableRecord
100
AcDbBlockTableRecord
  2
*D2
340
0
  0
BLOCK_RECORD
  5
A38E
330
1
100
AcDbSymbolTableRecord
100
AcDbBlockTableRecord
  2
*D3
340
0
  0
BLOCK_RECORD
  5
A39A
330
1
100
AcDbSymbolTableRecord
100
AcDbBlockTableRecord
  2
*D4
340
0
  0
BLOCK_RECORD
  5
A3A6
330
1
100
AcDbSymbolTableRecord
100
AcDbBlockTableRecord
  2
*D5
340
0
  0
BLOCK_RECORD
  5
A3B2
330
1
100
AcDbSymbolTableRecord
100
AcDbBlockTableRecord
  2
*D6
340
0
  0
BLOCK_RECORD
  5
A3BE
330
1
100
AcDbSymbolTableRecord
100
AcDbBlockTableRecord
  2
*D7
340
0
  0
BLOCK_RECORD
  5
A3CC
330
1
100
AcDbSymbolTableRecord
100
AcDbBlockTableRecord
  2
*D8
340
0
  0
BLOCK_RECORD
  5
A3DA
330
1
100
AcDbSymbolTableRecord
100
AcDbBlockTableRecord
  2
*D9
340
0
  0
BLOCK_RECORD
  5
A3E6
330
1
100
AcDbSymbolTableRecord
100
AcDbBlockTableRecord
  2
*D10
340
0
  0
BLOCK_RECORD
  5
A3F2
330
1
100
AcDbSymbolTableRecord
100
AcDbBlockTableRecord
  2
*D11
340
0
  0
BLOCK_RECORD
  5
A3FE
330
1
100
AcDbSymbolTableRecord
100
AcDbBlockTableRecord
  2
*D12
340
0
  0
BLOCK_RECORD
  5
A40A
330
1
100
AcDbSymbolTableRecord
100
AcDbBlockTableRecord
  2
*D13
340
0
  0
BLOCK_RECORD
  5
A418
330
1
100
AcDbSymbolTableRecord
100
AcDbBlockTableRecord
  2
*D14
340
0
  0
BLOCK_RECORD
  5
A424
330
1
100
AcDbSymbolTableRecord
100
AcDbBlockTableRecord
  2
*D15
340
0
  0
BLOCK_RECORD
  5
A430
330
1
100
AcDbSymbolTableRecord
100
AcDbBlockTableRecord
  2
*D16
340
0
  0
ENDTAB
  0
ENDSEC
  0
SECTION
  2
BLOCKS
  0
BLOCK
  5
1B
330
1A
100
AcDbEntity
  8
0
100
AcDbBlockBegin
  2
*MODEL_SPACE
 70
     0
 71
     0
 10
0.0
 20
0.0
 30
0.0
  3
*MODEL_SPACE
  1

  0
ENDBLK
  5
1C
330
1A
100
AcDbEntity
  8
0
100
AcDbBlockEnd
  0
BLOCK
  5
18
330
17
100
AcDbEntity
 67
     1
  8
0
100
AcDbBlockBegin
  2
*PAPER_SPACE
 70
     0
 71
     0
 10
0.0
 20
0.0
 30
0.0
  3
*PAPER_SPACE
  1

  0
ENDBLK
  5
19
330
17
100
AcDbEntity
 67
     1
  8
0
100
AcDbBlockEnd
  0
BLOCK
  5
6E
330
6D
100
AcDbEntity
  8
0
100
AcDbBlockBegin
  2
_OPEN
 70
     0
 71
     0
 10
0.0
 20
0.0
 30
0.0
  3
_OPEN
  1

  0
LINE
  5
6F
330
6D
100
AcDbEntity
  8
0
  6
ByBlock
 62
     0
100
AcDbLine
 10
-1.0
 20
0.1666666666666667
 30
0.0
 11
0.0
 21
0.0
 31
0.0
  0
LINE
  5
70
330
6D
100
AcDbEntity
  8
0
  6
ByBlock
 62
     0
100
AcDbLine
 10
0.0
 20
0.0
 30
0.0
 11
-1.0
 21
-0.1666666666666667
 31
0.0
  0
LINE
  5
71
330
6D
100
AcDbEntity
  8
0
  6
ByBlock
 62
     0
100
AcDbLine
 10
0.0
 20
0.0
 30
0.0
 11
-1.0
 21
0.0
 31
0.0
  0
ENDBLK
  5
72
330
6D
100
AcDbEntity
  8
0
100
AcDbBlockEnd
  0
BLOCK
  5
A380
330
A376
100
AcDbEntity
  8
0
100
AcDbBlockBegin
  2
*D1
 70
     1
 71
     0
 10
0.0
 20
0.0
 30
0.0
  3
*D1
  1

  0
LINE
  5
A43C
330
A376
100
AcDbEntity
  8
SUNPOU
 62
     4
370
    -2
100
AcDbLine
 10
579.0178145745974
 20
332.958964610353
 30
0.0
 11
570.0126702729585
 21
355.4735889088695
 31
0.0
  0
LINE
  5
A43D
330
A376
100
AcDbEntity
  8
SUNPOU
 62
     4
370
    -2
100
AcDbLine
 10
428.1386142207603
 20
272.6120117459565
 30
0.0
 11
419.1334699191215
 21
295.126636044473
 31
0.0
  0
LINE
  5
A43E
330
A376
100
AcDbEntity
  8
SUNPOU
 62
     4
370
    -2
100
AcDbLine
 10
564.6273600132115
 20
350.0885695582764
 30
0.0
 11
426.7469737659283
 21
294.9407350636858
 31
0.0
  0
INSERT
  5
A43F
330
A376
100
AcDbEntity
  8
SUNPOU
 62
     4
370
    -2
100
AcDbBlockReference
  2
_OPEN
 10
571.1267670664885
 20
352.6881287431794
 30
0.0
 41
7.0
 42
7.0
 43
7.0
 50
21.79986191377544
  0
INSERT
  5
A440
330
A376
100
AcDbEntity
  8
SUNPOU
 62
     4
370
    -2
100
AcDbBlockReference
  2
_OPEN
 10
420.2475667126513
 20
292.3411758787829
 30
0.0
 41
7.0
 42
7.0
 43
7.0
 50
201.7998619137754
  0
MTEXT
  5
A441
330
A376
100
AcDbEntity
  8
SUNPOU
 62
     4
100
AcDbMText
 10
493.8303389003534
 20
327.1570859204647
 30
0.0
 40
6.0
 41
0.0
 71
     5
 72
     1
  1
\A1;163
 11
0.928486721896712
 21
0.3713655978432813
 31
0.0
 73
     1
 44
1.0
  0
POINT
  5
A442
330
A376
100
AcDbEntity
  8
DEFPOINTS
 62
     0
100
AcDbPoint
 10
581.2460081616571
 20
327.3880442789728
 30
0.0
  0
POINT
  5
A443
330
A376
100
AcDbEntity
  8
DEFPOINTS
 62
     0
100
AcDbPoint
 10
430.3668078078199
 20
267.0410914145763
 30
0.0
  0
POINT
  5
A444
330
A376
100
AcDbEntity
  8
DEFPOINTS
 62
     0
100
AcDbPoint
 10
420.2475667126513
 20
292.3411758787829
 30
0.0
  0
ENDBLK
  5
A381
330
A376
100
AcDbEntity
  8
0
100
AcDbBlockEnd
  0
BLOCK
  5
A38C
330
A382
100
AcDbEntity
  8
0
100
AcDbBlockBegin
  2
*D2
 70
     1
 71
     0
 10
0.0
 20
0.0
 30
0.0
  3
*D2
  1

  0
LINE
  5
A445
330
A382
100
AcDbEntity
  8
SUNPOU
 62
     4
370
    -2
100
AcDbLine
 10
329.6441618626982
 20
466.426569670761
 30
0.0
 11
329.6441618626982
 21
447.0833208023477
 31
0.0
  0
LINE
  5
A446
330
A382
100
AcDbEntity
  8
SUNPOU
 62
     4
370
    -2
100
AcDbLine
 10
582.1757618626982
 20
466.426569670761
 30
0.0
 11
582.1757618626982
 21
447.0833208023477
 31
0.0
  0
LINE
  5
A447
330
A382
100
AcDbEntity
  8
SUNPOU
 62
     4
370
    -2
100
AcDbLine
 10
336.6441618626982
 20
450.0833208023477
 30
0.0
 11
575.1757618626982
 21
450.0833208023477
 31
0.0
  0
INSERT
  5
A448
330
A382
100
AcDbEntity
  8
SUNPOU
 62
     4
370
    -2
100
AcDbBlockReference
  2
_OPEN
 10
329.6441618626982
 20
450.0833208023477
 30
0.0
 41
7.0
 42
7.0
 43
7.0
 50
180.0
  0
INSERT
  5
A449
330
A382
100
AcDbEntity
  8
SUNPOU
 62
     4
370
    -2
100
AcDbBlockReference
  2
_OPEN
 10
582.1757618626982
 20
450.0833208023477
 30
0.0
 41
7.0
 42
7.0
 43
7.0
  0
MTEXT
  5
A44A
330
A382
100
AcDbEntity
  8
SUNPOU
 62
     4
100
AcDbMText
 10
455.9099618626982
 20
455.0833208023477
 30
0.0
 40
6.0
 41
0.0
 71
     5
 72
     1
  1
\A1;253
 73
     1
 44
1.0
  0
POINT
  5
A44B
330
A382
100
AcDbEntity
  8
DEFPOINTS
 62
     0
100
AcDbPoint
 10
329.6441618626982
 20
472.426569670761
 30
0.0
  0
POINT
  5
A44C
330
A382
100
AcDbEntity
  8
DEFPOINTS
 62
     0
100
AcDbPoint
 10
582.1757618626982
 20
472.426569670761
 30
0.0
  0
POINT
  5
A44D
330
A382
100
AcDbEntity
  8
DEFPOINTS
 62
     0
100
AcDbPoint
 10
582.1757618626982
 20
450.0833208023477
 30
0.0
  0
ENDBLK
  5
A38D
330
A382
100
AcDbEntity
  8
0
100
AcDbBlockEnd
  0
BLOCK
  5
A398
330
A38E
100
AcDbEntity
  8
0
100
AcDbBlockBegin
  2
*D3
 70
     1
 71
     0
 10
0.0
 20
0.0
 30
0.0
  3
*D3
  1

  0
LINE
  5
A44E
330
A38E
100
AcDbEntity
  8
SUNPOU
 62
     4
370
    -2
100
AcDbLine
 10
363.2434880332375
 20
96.34974427897259
 30
0.0
 11
363.2434880332375
 21
64.40179082263407
 31
0.0
  0
LINE
  5
A44F
330
A38E
100
AcDbEntity
  8
SUNPOU
 62
     4
370
    -2
100
AcDbLine
 10
456.8801001171371
 20
96.34974427897259
 30
0.0
 11
456.8801001171371
 21
64.40179082263407
 31
0.0
  0
LINE
  5
A450
330
A38E
100
AcDbEntity
  8
SUNPOU
 62
     4
370
    -2
100
AcDbLine
 10
370.2434880332375
 20
67.40179082263407
 30
0.0
 11
449.8801001171371
 21
67.40179082263407
 31
0.0
  0
INSERT
  5
A451
330
A38E
100
AcDbEntity
  8
SUNPOU
 62
     4
370
    -2
100
AcDbBlockReference
  2
_OPEN
 10
363.2434880332375
 20
67.40179082263407
 30
0.0
 41
7.0
 42
7.0
 43
7.0
 50
180.0
  0
INSERT
  5
A452
330
A38E
100
AcDbEntity
  8
SUNPOU
 62
     4
370
    -2
100
AcDbBlockReference
  2
_OPEN
 10
456.8801001171371
 20
67.40179082263407
 30
0.0
 41
7.0
 42
7.0
 43
7.0
  0
MTEXT
  5
A453
330
A38E
100
AcDbEntity
  8
SUNPOU
 62
     4
100
AcDbMText
 10
410.0617940751873
 20
72.40179082263407
 30
0.0
 40
6.0
 41
0.0
 71
     5
 72
     1
  1
\A1;94
 73
     1
 44
1.0
  0
POINT
  5
A454
330
A38E
100
AcDbEntity
  8
DEFPOINTS
 62
     0
100
AcDbPoint
 10
363.2434880332375
 20
102.3497442789726
 30
0.0
  0
POINT
  5
A455
330
A38E
100
AcDbEntity
  8
DEFPOINTS
 62
     0
100
AcDbPoint
 10
456.8801001171371
 20
102.3497442789726
 30
0.0
  0
POINT
  5
A456
330
A38E
100
AcDbEntity
  8
DEFPOINTS
 62
     0
100
AcDbPoint
 10
456.8801001171371
 20
67.40179082263407
 30
0.0
  0
ENDBLK
  5
A399
330
A38E
100
AcDbEntity
  8
0
100
AcDbBlockEnd
  0
BLOCK
  5
A3A4
330
A39A
100
AcDbEntity
  8
0
100
AcDbBlockBegin
  2
*D4
 70
     1
 71
     0
 10
0.0
 20
0.0
 30
0.0
  3
*D4
  1

  0
LINE
  5
A457
330
A39A
100
AcDbEntity
  8
SUNPOU
 62
     4
370
    -2
100
AcDbLine
 10
329.6440618626982
 20
189.9059442789726
 30
0.0
 11
329.6440618626982
 21
208.0645707003351
 31
0.0
  0
LINE
  5
A458
330
A39A
100
AcDbEntity
  8
SUNPOU
 62
     4
370
    -2
100
AcDbLine
 10
468.8622081616572
 20
187.7792442789726
 30
0.0
 11
468.8622081616572
 21
208.0645707003351
 31
0.0
  0
LINE
  5
A459
330
A39A
100
AcDbEntity
  8
SUNPOU
 62
     4
370
    -2
100
AcDbLine
 10
336.6440618626982
 20
205.0645707003351
 30
0.0
 11
461.8622081616572
 21
205.0645707003351
 31
0.0
  0
INSERT
  5
A45A
330
A39A
100
AcDbEntity
  8
SUNPOU
 62
     4
370
    -2
100
AcDbBlockReference
  2
_OPEN
 10
329.6440618626982
 20
205.0645707003351
 30
0.0
 41
7.0
 42
7.0
 43
7.0
 50
180.0
  0
INSERT
  5
A45B
330
A39A
100
AcDbEntity
  8
SUNPOU
 62
     4
370
    -2
100
AcDbBlockReference
  2
_OPEN
 10
468.8622081616572
 20
205.0645707003351
 30
0.0
 41
7.0
 42
7.0
 43
7.0
  0
MTEXT
  5
A45C
330
A39A
100
AcDbEntity
  8
SUNPOU
 62
     4
100
AcDbMText
 10
399.2531350121777
 20
210.0645707003351
 30
0.0
 40
6.0
 41
0.0
 71
     5
 72
     1
  1
\A1;139
 73
     1
 44
1.0
  0
POINT
  5
A45D
330
A39A
100
AcDbEntity
  8
DEFPOINTS
 62
     0
100
AcDbPoint
 10
329.6440618626982
 20
183.9059442789726
 30
0.0
  0
POINT
  5
A45E
330
A39A
100
AcDbEntity
  8
DEFPOINTS
 62
     0
100
AcDbPoint
 10
468.8622081616572
 20
181.7792442789726
 30
0.0
  0
POINT
  5
A45F
330
A39A
100
AcDbEntity
  8
DEFPOINTS
 62
     0
100
AcDbPoint
 10
468.8622081616572
 20
205.0645707003351
 30
0.0
  0
ENDBLK
  5
A3A5
330
A39A
100
AcDbEntity
  8
0
100
AcDbBlockEnd
  0
BLOCK
  5
A3B0
330
A3A6
100
AcDbEntity
  8
0
100
AcDbBlockBegin
  2
*D5
 70
     1
 71
     0
 10
0.0
 20
0.0
 30
0.0
  3
*D5
  1

  0
LINE
  5
A460
330
A3A6
100
AcDbEntity
  8
SUNPOU
 62
     4
370
    -2
100
AcDbLine
 10
359.4167618626982
 20
102.3497442789726
 30
0.0
 11
296.2427917717901
 21
102.3497442789726
 31
0.0
  0
LINE
  5
A461
330
A3A6
100
AcDbEntity
  8
SUNPOU
 62
     4
370
    -2
100
AcDbLine
 10
323.6440618626982
 20
183.9059442789726
 30
0.0
 11
296.2427917717901
 21
183.9059442789726
 31
0.0
  0
LINE
  5
A462
330
A3A6
100
AcDbEntity
  8
SUNPOU
 62
     4
370
    -2
100
AcDbLine
 10
299.2427917717901
 20
109.3497442789726
 30
0.0
 11
299.2427917717901
 21
176.9059442789726
 31
0.0
  0
INSERT
  5
A463
330
A3A6
100
AcDbEntity
  8
SUNPOU
 62
     4
370
    -2
100
AcDbBlockReference
  2
_OPEN
 10
299.2427917717901
 20
102.3497442789726
 30
0.0
 41
7.0
 42
7.0
 43
7.0
 50
270.0
  0
INSERT
  5
A464
330
A3A6
100
AcDbEntity
  8
SUNPOU
 62
     4
370
    -2
100
AcDbBlockReference
  2
_OPEN
 10
299.2427917717901
 20
183.9059442789726
 30
0.0
 41
7.0
 42
7.0
 43
7.0
 50
90.0
  0
MTEXT
  5
A465
330
A3A6
100
AcDbEntity
  8
SUNPOU
 62
     4
100
AcDbMText
 10
294.2427917717901
 20
143.1278442789726
 30
0.0
 40
6.0
 41
0.0
 71
     5
 72
     1
  1
\A1;82
 11
6.123031769111886E-17
 21
1.0
 31
0.0
 73
     1
 44
1.0
  0
POINT
  5
A466
330
A3A6
100
AcDbEntity
  8
DEFPOINTS
 62
     0
100
AcDbPoint
 10
365.4167618626982
 20
102.3497442789726
 30
0.0
  0
POINT
  5
A467
330
A3A6
100
AcDbEntity
  8
DEFPOINTS
 62
     0
100
AcDbPoint
 10
329.6440618626982
 20
183.9059442789726
 30
0.0
  0
POINT
  5
A468
330
A3A6
100
AcDbEntity
  8
DEFPOINTS
 62
     0
100
AcDbPoint
 10
299.2427917717901
 20
183.9059442789726
 30
0.0
  0
ENDBLK
  5
A3B1
330
A3A6
100
AcDbEntity
  8
0
100
AcDbBlockEnd
  0
BLOCK
  5
A3BC
330
A3B2
100
AcDbEntity
  8
0
100
AcDbBlockBegin
  2
*D6
 70
     1
 71
     0
 10
0.0
 20
0.0
 30
0.0
  3
*D6
  1

  0
LINE
  5
A469
330
A3B2
100
AcDbEntity
  8
SUNPOU
 62
     4
370
    -2
100
AcDbLine
 10
323.6440234506061
 20
183.9059388793631
 30
0.0
 11
296.2427917717901
 21
183.9059388793632
 31
0.0
  0
LINE
  5
A46A
330
A3B2
100
AcDbEntity
  8
SUNPOU
 62
     4
370
    -2
100
AcDbLine
 10
318.1787618626981
 20
218.4819442789726
 30
0.0
 11
296.2427917717901
 21
218.4819442789726
 31
0.0
  0
LINE
  5
A46B
330
A3B2
100
AcDbEntity
  8
SUNPOU
 62
     4
370
    -2
100
AcDbLine
 10
299.2427917717901
 20
190.9059388793632
 30
0.0
 11
299.2427917717901
 21
211.4819442789726
 31
0.0
  0
INSERT
  5
A46C
330
A3B2
100
AcDbEntity
  8
SUNPOU
 62
     4
370
    -2
100
AcDbBlockReference
  2
_OPEN
 10
299.2427917717901
 20
183.9059388793632
 30
0.0
 41
7.0
 42
7.0
 43
7.0
 50
270.0
  0
INSERT
  5
A46D
330
A3B2
100
AcDbEntity
  8
SUNPOU
 62
     4
370
    -2
100
AcDbBlockReference
  2
_OPEN
 10
299.2427917717901
 20
218.4819442789726
 30
0.0
 41
7.0
 42
7.0
 43
7.0
 50
90.0
  0
MTEXT
  5
A46E
330
A3B2
100
AcDbEntity
  8
SUNPOU
 62
     4
100
AcDbMText
 10
294.2427917717901
 20
201.1939415791679
 30
0.0
 40
6.0
 41
0.0
 71
     5
 72
     1
  1
\A1;35
 11
6.123031769111886E-17
 21
1.0
 31
0.0
 73
     1
 44
1.0
  0
POINT
  5
A46F
330
A3B2
100
AcDbEntity
  8
DEFPOINTS
 62
     0
100
AcDbPoint
 10
329.6440234506061
 20
183.9059388793631
 30
0.0
  0
POINT
  5
A470
330
A3B2
100
AcDbEntity
  8
DEFPOINTS
 62
     0
100
AcDbPoint
 10
324.1787618626981
 20
218.4819442789726
 30
0.0
  0
POINT
  5
A471
330
A3B2
100
AcDbEntity
  8
DEFPOINTS
 62
     0
100
AcDbPoint
 10
299.2427917717901
 20
218.4819442789726
 30
0.0
  0
ENDBLK
  5
A3BD
330
A3B2
100
AcDbEntity
  8
0
100
AcDbBlockEnd
  0
BLOCK
  5
A3CA
330
A3BE
100
AcDbEntity
  8
0
100
AcDbBlockBegin
  2
*D7
 70
     1
 71
     0
 10
0.0
 20
0.0
 30
0.0
  3
*D7
  1

  0
LINE
  5
A472
330
A3BE
100
AcDbEntity
  8
SUNPOU
 62
     4
370
    -2
100
AcDbLine
 10
352.3664378248759
 20
137.1926071914631
 30
0.0
 11
351.3135123671891
 21
144.6846344451302
 31
0.0
  0
LINE
  5
A473
330
A3BE
100
AcDbEntity
  8
SUNPOU
 62
     4
370
    -2
100
AcDbLine
 10
350.3858312720035
 20
136.9142538178605
 30
0.0
 11
349.3329058143166
 21
144.4062810715276
 31
0.0
  0
LINE
  5
A474
330
A3BE
100
AcDbEntity
  8
SUNPOU
 62
     4
370
    -2
100
AcDbLine
 10
358.6629054579057
 20
142.6880320314967
 30
0.0
 11
365.5947832532749
 21
143.6622343873072
 31
0.0
  0
LINE
  5
A475
330
A3BE
100
AcDbEntity
  8
SUNPOU
 62
     4
370
    -2
100
AcDbLine
 10
342.8185433142947
 20
140.4612739462732
 30
0.0
 11
315.0910321328177
 21
136.5644645230314
 31
0.0
  0
LINE
  5
A476
330
A3BE
100
AcDbEntity
  8
SUNPOU
 62
     4
370
    -2
100
AcDbLine
 10
351.7310276625364
 20
141.7138296756863
 30
0.0
 11
349.750421109664
 21
141.4354763020837
 31
0.0
  0
INSERT
  5
A477
330
A3BE
100
AcDbEntity
  8
SUNPOU
 62
     4
370
    -2
100
AcDbBlockReference
  2
_OPEN
 10
351.7310276625364
 20
141.7138296756863
 30
0.0
 41
7.0
 42
7.0
 43
7.0
 50
187.9999227095825
  0
INSERT
  5
A478
330
A3BE
100
AcDbEntity
  8
SUNPOU
 62
     4
370
    -2
100
AcDbBlockReference
  2
_OPEN
 10
349.750421109664
 20
141.4354763020837
 30
0.0
 41
7.0
 42
7.0
 43
7.0
 50
7.999922709582521
  0
MTEXT
  5
A479
330
A3BE
100
AcDbEntity
  8
SUNPOU
 62
     4
100
AcDbMText
 10
324.7929900002927
 20
142.9771093391537
 30
0.0
 40
6.0
 41
0.0
 71
     5
 72
     1
  1
\A1;t2.0
 11
0.9902682564813226
 21
0.1391717651157789
 31
0.0
 73
     1
 44
1.0
  0
POINT
  5
A47A
330
A3BE
100
AcDbEntity
  8
DEFPOINTS
 62
     0
100
AcDbPoint
 10
353.2014684155706
 20
131.2509976525752
 30
0.0
  0
POINT
  5
A47B
330
A3BE
100
AcDbEntity
  8
DEFPOINTS
 62
     0
100
AcDbPoint
 10
351.2208618626982
 20
130.9726442789726
 30
0.0
  0
POINT
  5
A47C
330
A3BE
100
AcDbEntity
  8
DEFPOINTS
 62
     0
100
AcDbPoint
 10
349.750421109664
 20
141.4354763020837
 30
0.0
  0
ENDBLK
  5
A3CB
330
A3BE
100
AcDbEntity
  8
0
100
AcDbBlockEnd
  0
BLOCK
  5
A3D8
330
A3CC
100
AcDbEntity
  8
0
100
AcDbBlockBegin
  2
*D8
 70
     1
 71
     0
 10
0.0
 20
0.0
 30
0.0
  3
*D8
  1

  0
LINE
  5
A47D
330
A3CC
100
AcDbEntity
  8
SUNPOU
 62
     4
370
    -2
100
AcDbLine
 10
566.3902768777806
 20
321.4462223871686
 30
0.0
 11
559.5847283889128
 21
318.7242225342957
 31
0.0
  0
LINE
  5
A47E
330
A3CC
100
AcDbEntity
  8
SUNPOU
 62
     4
370
    -2
100
AcDbLine
 10
567.3185791706784
 20
319.1252794745614
 30
0.0
 11
560.5130306818106
 21
316.4032796216885
 31
0.0
  0
LINE
  5
A47F
330
A3CC
100
AcDbEntity
  8
SUNPOU
 62
     4
370
    -2
100
AcDbLine
 10
559.7706354595139
 20
326.3377262324035
 30
0.0
 11
557.1710814732929
 21
332.837135364988
 31
0.0
  0
LINE
  5
A480
330
A3CC
100
AcDbEntity
  8
SUNPOU
 62
     4
370
    -2
100
AcDbLine
 10
565.8980457248534
 20
311.0179650546272
 30
0.0
 11
576.6676265249115
 21
284.0918415053485
 31
0.0
  0
LINE
  5
A481
330
A3CC
100
AcDbEntity
  8
SUNPOU
 62
     4
370
    -2
100
AcDbLine
 10
562.3701894457348
 20
319.8383170998189
 30
0.0
 11
563.2984917386326
 21
317.5173741872118
 31
0.0
  0
INSERT
  5
A482
330
A3CC
100
AcDbEntity
  8
SUNPOU
 62
     4
370
    -2
100
AcDbBlockReference
  2
_OPEN
 10
562.3701894457348
 20
319.8383170998189
 30
0.0
 41
7.0
 42
7.0
 43
7.0
 50
291.7998160845957
  0
INSERT
  5
A483
330
A3CC
100
AcDbEntity
  8
SUNPOU
 62
     4
370
    -2
100
AcDbBlockReference
  2
_OPEN
 10
563.2984917386326
 20
317.5173741872118
 30
0.0
 41
7.0
 42
7.0
 43
7.0
 50
111.7998160845956
  0
MTEXT
  5
A484
330
A3CC
100
AcDbEntity
  8
SUNPOU
 62
     4
100
AcDbMText
 10
577.225048212696
 20
296.1620229895677
 30
0.0
 40
6.0
 41
0.0
 71
     5
 72
     1
  1
\A1;t2.5
 11
0.3713648551744136
 21
-0.9284870189406456
 31
0.0
 73
     1
 44
1.0
  0
POINT
  5
A485
330
A3CC
100
AcDbEntity
  8
DEFPOINTS
 62
     0
100
AcDbPoint
 10
571.9611989914245
 20
323.6744115182151
 30
0.0
  0
POINT
  5
A486
330
A3CC
100
AcDbEntity
  8
DEFPOINTS
 62
     0
100
AcDbPoint
 10
572.8895012843223
 20
321.3534686056079
 30
0.0
  0
POINT
  5
A487
330
A3CC
100
AcDbEntity
  8
DEFPOINTS
 62
     0
100
AcDbPoint
 10
563.2984917386326
 20
317.5173741872118
 30
0.0
  0
ENDBLK
  5
A3D9
330
A3CC
100
AcDbEntity
  8
0
100
AcDbBlockEnd
  0
BLOCK
  5
A3E4
330
A3DA
100
AcDbEntity
  8
0
100
AcDbBlockBegin
  2
*D9
 70
     1
 71
     0
 10
0.0
 20
0.0
 30
0.0
  3
*D9
  1

  0
LINE
  5
A488
330
A3DA
100
AcDbEntity
  8
SUNPOU
 62
     4
370
    -2
100
AcDbLine
 10
587.2460081616571
 20
327.3880442789728
 30
0.0
 11
617.9040066199577
 21
327.3880442789728
 31
0.0
  0
LINE
  5
A489
330
A3DA
100
AcDbEntity
  8
SUNPOU
 62
     4
370
    -2
100
AcDbLine
 10
587.2459431900215
 20
273.7980097982352
 30
0.0
 11
617.9040066199577
 21
273.7980097982352
 31
0.0
  0
LINE
  5
A48A
330
A3DA
100
AcDbEntity
  8
SUNPOU
 62
     4
370
    -2
100
AcDbLine
 10
614.9040066199577
 20
320.3880442789728
 30
0.0
 11
614.9040066199577
 21
280.7980097982352
 31
0.0
  0
INSERT
  5
A48B
330
A3DA
100
AcDbEntity
  8
SUNPOU
 62
     4
370
    -2
100
AcDbBlockReference
  2
_OPEN
 10
614.9040066199577
 20
327.3880442789728
 30
0.0
 41
7.0
 42
7.0
 43
7.0
 50
90.0
  0
INSERT
  5
A48C
330
A3DA
100
AcDbEntity
  8
SUNPOU
 62
     4
370
    -2
100
AcDbBlockReference
  2
_OPEN
 10
614.9040066199577
 20
273.7980097982352
 30
0.0
 41
7.0
 42
7.0
 43
7.0
 50
270.0
  0
MTEXT
  5
A48D
330
A3DA
100
AcDbEntity
  8
SUNPOU
 62
     4
100
AcDbMText
 10
609.9040066199576
 20
300.593027038604
 30
0.0
 40
6.0
 41
0.0
 71
     5
 72
     1
  1
\A1;54
 11
6.123031769111886E-17
 21
1.0
 31
0.0
 73
     1
 44
1.0
  0
POINT
  5
A48E
330
A3DA
100
AcDbEntity
  8
DEFPOINTS
 62
     0
100
AcDbPoint
 10
581.2460081616571
 20
327.3880442789728
 30
0.0
  0
POINT
  5
A48F
330
A3DA
100
AcDbEntity
  8
DEFPOINTS
 62
     0
100
AcDbPoint
 10
581.2459431900215
 20
273.7980097982352
 30
0.0
  0
POINT
  5
A490
330
A3DA
100
AcDbEntity
  8
DEFPOINTS
 62
     0
100
AcDbPoint
 10
614.9040066199577
 20
273.7980097982352
 30
0.0
  0
ENDBLK
  5
A3E5
330
A3DA
100
AcDbEntity
  8
0
100
AcDbBlockEnd
  0
BLOCK
  5
A3F0
330
A3E6
100
AcDbEntity
  8
0
100
AcDbBlockBegin
  2
*D10
 70
     1
 71
     0
 10
0.0
 20
0.0
 30
0.0
  3
*D10
  1

  0
LINE
  5
A491
330
A3E6
100
AcDbEntity
  8
SUNPOU
 62
     4
370
    -2
100
AcDbLine
 10
472.3590618626982
 20
168.0381442789726
 30
0.0
 11
516.0921328175841
 21
168.0381442789726
 31
0.0
  0
LINE
  5
A492
330
A3E6
100
AcDbEntity
  8
SUNPOU
 62
     4
370
    -2
100
AcDbLine
 10
460.5076618626981
 20
102.3497442789726
 30
0.0
 11
516.0921328175841
 21
102.3497442789726
 31
0.0
  0
LINE
  5
A493
330
A3E6
100
AcDbEntity
  8
SUNPOU
 62
     4
370
    -2
100
AcDbLine
 10
513.0921328175841
 20
161.0381442789726
 30
0.0
 11
513.0921328175841
 21
109.3497442789726
 31
0.0
  0
INSERT
  5
A494
330
A3E6
100
AcDbEntity
  8
SUNPOU
 62
     4
370
    -2
100
AcDbBlockReference
  2
_OPEN
 10
513.0921328175841
 20
168.0381442789726
 30
0.0
 41
7.0
 42
7.0
 43
7.0
 50
90.0
  0
INSERT
  5
A495
330
A3E6
100
AcDbEntity
  8
SUNPOU
 62
     4
370
    -2
100
AcDbBlockReference
  2
_OPEN
 10
513.0921328175841
 20
102.3497442789726
 30
0.0
 41
7.0
 42
7.0
 43
7.0
 50
270.0
  0
MTEXT
  5
A496
330
A3E6
100
AcDbEntity
  8
SUNPOU
 62
     4
100
AcDbMText
 10
508.0921328175841
 20
118.3497442789727
 30
0.0
 40
6.0
 41
0.0
 71
     5
 72
     1
  1
\A1;66
 11
6.123031769111886E-17
 21
1.0
 31
0.0
 73
     1
 44
1.0
  0
POINT
  5
A497
330
A3E6
100
AcDbEntity
  8
DEFPOINTS
 62
     0
100
AcDbPoint
 10
466.3590618626982
 20
168.0381442789726
 30
0.0
  0
POINT
  5
A498
330
A3E6
100
AcDbEntity
  8
DEFPOINTS
 62
     0
100
AcDbPoint
 10
454.5076618626981
 20
102.3497442789726
 30
0.0
  0
POINT
  5
A499
330
A3E6
100
AcDbEntity
  8
DEFPOINTS
 62
     0
100
AcDbPoint
 10
513.0921328175841
 20
102.3497442789726
 30
0.0
  0
ENDBLK
  5
A3F1
330
A3E6
100
AcDbEntity
  8
0
100
AcDbBlockEnd
  0
BLOCK
  5
A3FC
330
A3F2
100
AcDbEntity
  8
0
100
AcDbBlockBegin
  2
*D11
 70
     1
 71
     0
 10
0.0
 20
0.0
 30
0.0
  3
*D11
  1

  0
LINE
  5
A49A
330
A3F2
100
AcDbEntity
  8
SUNPOU
 62
     4
370
    -2
100
AcDbLine
 10
436.36680780782
 20
267.0410914145763
 30
0.0
 11
533.0874337654451
 21
267.0410914145763
 31
0.0
  0
LINE
  5
A49B
330
A3F2
100
AcDbEntity
  8
SUNPOU
 62
     4
370
    -2
100
AcDbLine
 10
477.3622081616571
 20
140.5381442789727
 30
0.0
 11
533.087433765445
 21
140.5381442789727
 31
0.0
  0
LINE
  5
A49C
330
A3F2
100
AcDbEntity
  8
SUNPOU
 62
     4
370
    -2
100
AcDbLine
 10
530.0874337654451
 20
260.0410914145763
 30
0.0
 11
530.087433765445
 21
147.5381442789727
 31
0.0
  0
INSERT
  5
A49D
330
A3F2
100
AcDbEntity
  8
SUNPOU
 62
     4
370
    -2
100
AcDbBlockReference
  2
_OPEN
 10
530.0874337654451
 20
267.0410914145763
 30
0.0
 41
7.0
 42
7.0
 43
7.0
 50
90.0
  0
INSERT
  5
A49E
330
A3F2
100
AcDbEntity
  8
SUNPOU
 62
     4
370
    -2
100
AcDbBlockReference
  2
_OPEN
 10
530.087433765445
 20
140.5381442789727
 30
0.0
 41
7.0
 42
7.0
 43
7.0
 50
270.0
  0
MTEXT
  5
A49F
330
A3F2
100
AcDbEntity
  8
SUNPOU
 62
     4
100
AcDbMText
 10
525.087433765445
 20
203.7896178467746
 30
0.0
 40
6.0
 41
0.0
 71
     5
 72
     1
  1
\A1;127
 11
6.123031769111886E-17
 21
1.0
 31
0.0
 73
     1
 44
1.0
  0
POINT
  5
A4A0
330
A3F2
100
AcDbEntity
  8
DEFPOINTS
 62
     0
100
AcDbPoint
 10
430.36680780782
 20
267.0410914145763
 30
0.0
  0
POINT
  5
A4A1
330
A3F2
100
AcDbEntity
  8
DEFPOINTS
 62
     0
100
AcDbPoint
 10
471.3622081616571
 20
140.5381442789727
 30
0.0
  0
POINT
  5
A4A2
330
A3F2
100
AcDbEntity
  8
DEFPOINTS
 62
     0
100
AcDbPoint
 10
530.087433765445
 20
140.5381442789727
 30
0.0
  0
ENDBLK
  5
A3FD
330
A3F2
100
AcDbEntity
  8
0
100
AcDbBlockEnd
  0
BLOCK
  5
A408
330
A3FE
100
AcDbEntity
  8
0
100
AcDbBlockBegin
  2
*D12
 70
     1
 71
     0
 10
0.0
 20
0.0
 30
0.0
  3
*D12
  1

  0
LINE
  5
A4A3
330
A3FE
100
AcDbEntity
  8
SUNPOU
 62
     4
370
    -2
100
AcDbLine
 10
588.1757618626982
 20
491.426569670761
 30
0.0
 11
618.4800555553661
 21
491.426569670761
 31
0.0
  0
LINE
  5
A4A4
330
A3FE
100
AcDbEntity
  8
SUNPOU
 62
     4
370
    -2
100
AcDbLine
 10
588.1757618626982
 20
472.426569670761
 30
0.0
 11
618.4800555553661
 21
472.426569670761
 31
0.0
  0
LINE
  5
A4A5
330
A3FE
100
AcDbEntity
  8
SUNPOU
 62
     4
370
    -2
100
AcDbLine
 10
615.4800555553661
 20
484.426569670761
 30
0.0
 11
615.4800555553661
 21
479.426569670761
 31
0.0
  0
INSERT
  5
A4A6
330
A3FE
100
AcDbEntity
  8
SUNPOU
 62
     4
370
    -2
100
AcDbBlockReference
  2
_OPEN
 10
615.4800555553661
 20
491.426569670761
 30
0.0
 41
7.0
 42
7.0
 43
7.0
 50
90.0
  0
INSERT
  5
A4A7
330
A3FE
100
AcDbEntity
  8
SUNPOU
 62
     4
370
    -2
100
AcDbBlockReference
  2
_OPEN
 10
615.4800555553661
 20
472.426569670761
 30
0.0
 41
7.0
 42
7.0
 43
7.0
 50
270.0
  0
MTEXT
  5
A4A8
330
A3FE
100
AcDbEntity
  8
SUNPOU
 62
     4
100
AcDbMText
 10
610.480055555366
 20
481.926569670761
 30
0.0
 40
6.0
 41
0.0
 71
     5
 72
     1
  1
\A1;19
 11
6.123031769111886E-17
 21
1.0
 31
0.0
 73
     1
 44
1.0
  0
POINT
  5
A4A9
330
A3FE
100
AcDbEntity
  8
DEFPOINTS
 62
     0
100
AcDbPoint
 10
582.1757618626982
 20
491.426569670761
 30
0.0
  0
POINT
  5
A4AA
330
A3FE
100
AcDbEntity
  8
DEFPOINTS
 62
     0
100
AcDbPoint
 10
582.1757618626982
 20
472.426569670761
 30
0.0
  0
POINT
  5
A4AB
330
A3FE
100
AcDbEntity
  8
DEFPOINTS
 62
     0
100
AcDbPoint
 10
615.4800555553661
 20
472.426569670761
 30
0.0
  0
ENDBLK
  5
A409
330
A3FE
100
AcDbEntity
  8
0
100
AcDbBlockEnd
  0
BLOCK
  5
A416
330
A40A
100
AcDbEntity
  8
0
100
AcDbBlockBegin
  2
*D13
 70
     1
 71
     0
 10
0.0
 20
0.0
 30
0.0
  3
*D13
  1

  0
LINE
  5
A4AC
330
A40A
100
AcDbEntity
  8
SUNPOU
 62
     4
370
    -2
100
AcDbLine
 10
551.3785032012529
 20
402.0643423720371
 30
0.0
 11
546.1382453800841
 21
415.1660131636429
 31
0.0
  0
LINE
  5
A4AD
330
A40A
100
AcDbEntity
  8
SUNPOU
 62
     4
370
    -2
100
AcDbLine
 10
542.0936970016957
 20
398.3507107994562
 30
0.0
 11
536.853439180527
 21
411.4523815910621
 31
0.0
  0
LINE
  5
A4AE
330
A40A
100
AcDbEntity
  8
SUNPOU
 62
     4
370
    -2
100
AcDbLine
 10
531.4681289207798
 20
406.067362240469
 30
0.0
 11
524.9687218675028
 21
403.467803055566
 31
0.0
  0
LINE
  5
A4AF
330
A40A
100
AcDbEntity
  8
SUNPOU
 62
     4
370
    -2
100
AcDbLine
 10
553.751749226891
 20
414.9801121828558
 30
0.0
 11
570.464510221032
 21
421.664692944035
 31
0.0
  0
LINE
  5
A4B0
330
A40A
100
AcDbEntity
  8
SUNPOU
 62
     4
370
    -2
100
AcDbLine
 10
537.9675359740568
 20
408.666921425372
 30
0.0
 11
547.252342173614
 21
412.3805529979528
 31
0.0
  0
INSERT
  5
A4B1
330
A40A
100
AcDbEntity
  8
SUNPOU
 62
     4
370
    -2
100
AcDbBlockReference
  2
_OPEN
 10
537.9675359740568
 20
408.666921425372
 30
0.0
 41
7.0
 42
7.0
 43
7.0
 50
21.79986191377555
  0
INSERT
  5
A4B2
330
A40A
100
AcDbEntity
  8
SUNPOU
 62
     4
370
    -2
100
AcDbBlockReference
  2
_OPEN
 10
547.252342173614
 20
412.3805529979528
 30
0.0
 41
7.0
 42
7.0
 43
7.0
 50
201.7998619137755
  0
MTEXT
  5
A4B3
330
A40A
100
AcDbEntity
  8
SUNPOU
 62
     4
100
AcDbMText
 10
563.5010052613837
 20
424.2646157653804
 30
0.0
 40
6.0
 41
0.0
 71
     5
 72
     1
  1
\A1;10
 11
0.9284867218967111
 21
0.3713655978432837
 31
0.0
 73
     1
 44
1.0
  0
POINT
  5
A4B4
330
A40A
100
AcDbEntity
  8
DEFPOINTS
 62
     0
100
AcDbPoint
 10
553.6066967883127
 20
396.4934220406568
 30
0.0
  0
POINT
  5
A4B5
330
A40A
100
AcDbEntity
  8
DEFPOINTS
 62
     0
100
AcDbPoint
 10
544.3218905887554
 20
392.779790468076
 30
0.0
  0
POINT
  5
A4B6
330
A40A
100
AcDbEntity
  8
DEFPOINTS
 62
     0
100
AcDbPoint
 10
537.9675359740568
 20
408.666921425372
 30
0.0
  0
ENDBLK
  5
A417
330
A40A
100
AcDbEntity
  8
0
100
AcDbBlockEnd
  0
BLOCK
  5
A422
330
A418
100
AcDbEntity
  8
0
100
AcDbBlockBegin
  2
*D14
 70
     1
 71
     0
 10
0.0
 20
0.0
 30
0.0
  3
*D14
  1

  0
LINE
  5
A4B7
330
A418
100
AcDbEntity
  8
SUNPOU
 62
     4
370
    -2
100
AcDbLine
 10
557.1066759473147
 20
403.8947776501866
 30
0.0
 11
594.015572791501
 21
418.6572484506702
 31
0.0
  0
LINE
  5
A4B8
330
A418
100
AcDbEntity
  8
SUNPOU
 62
     4
370
    -2
100
AcDbLine
 10
564.1626759473145
 20
386.2534776501866
 30
0.0
 11
601.0715727915008
 21
401.0159484506702
 31
0.0
  0
LINE
  5
A4B9
330
A418
100
AcDbEntity
  8
SUNPOU
 62
     4
370
    -2
100
AcDbLine
 10
593.8296839876564
 20
411.0437443065455
 30
0.0
 11
595.6865448277173
 21
406.4012500976783
 31
0.0
  0
INSERT
  5
A4BA
330
A418
100
AcDbEntity
  8
SUNPOU
 62
     4
370
    -2
100
AcDbBlockReference
  2
_OPEN
 10
591.2301144076869
 20
417.5431472021119
 30
0.0
 41
7.0
 42
7.0
 43
7.0
 50
111.7999535519239
  0
INSERT
  5
A4BB
330
A418
100
AcDbEntity
  8
SUNPOU
 62
     4
370
    -2
100
AcDbBlockReference
  2
_OPEN
 10
598.2861144076867
 20
399.9018472021119
 30
0.0
 41
7.0
 42
7.0
 43
7.0
 50
291.799953551924
  0
MTEXT
  5
A4BC
330
A418
100
AcDbEntity
  8
SUNPOU
 62
     4
100
AcDbMText
 10
599.400545047377
 20
410.5793326163757
 30
0.0
 40
6.0
 41
0.0
 71
     5
 72
     1
  1
\A1;19
 11
0.3713670828527823
 21
-0.9284861279380617
 31
0.0
 73
     1
 44
1.0
  0
POINT
  5
A4BD
330
A418
100
AcDbEntity
  8
DEFPOINTS
 62
     0
100
AcDbPoint
 10
551.5357591796862
 20
401.6665751530699
 30
0.0
  0
POINT
  5
A4BE
330
A418
100
AcDbEntity
  8
DEFPOINTS
 62
     0
100
AcDbPoint
 10
558.5917591796861
 20
384.0252751530699
 30
0.0
  0
POINT
  5
A4BF
330
A418
100
AcDbEntity
  8
DEFPOINTS
 62
     0
100
AcDbPoint
 10
598.2861144076867
 20
399.9018472021119
 30
0.0
  0
ENDBLK
  5
A423
330
A418
100
AcDbEntity
  8
0
100
AcDbBlockEnd
  0
BLOCK
  5
A42E
330
A424
100
AcDbEntity
  8
0
100
AcDbBlockBegin
  2
*D15
 70
     1
 71
     0
 10
0.0
 20
0.0
 30
0.0
  3
*D15
  1

  0
LINE
  5
A4C0
330
A424
100
AcDbEntity
  8
SUNPOU
 62
     4
370
    -2
100
AcDbLine
 10
541.8151700486399
 20
399.0470972667138
 30
0.0
 11
536.8534561954853
 21
411.4523823661594
 31
0.0
  0
LINE
  5
A4C1
330
A424
100
AcDbEntity
  8
SUNPOU
 62
     4
370
    -2
100
AcDbLine
 10
495.3907398290801
 20
380.4788228015432
 30
0.0
 11
490.4290259759255
 21
392.8841079009889
 31
0.0
  0
LINE
  5
A4C2
330
A424
100
AcDbEntity
  8
SUNPOU
 62
     4
370
    -2
100
AcDbLine
 10
531.4681416284236
 20
406.067367323117
 30
0.0
 11
498.0425296740333
 21
392.6982008303874
 31
0.0
  0
INSERT
  5
A4C3
330
A424
100
AcDbEntity
  8
SUNPOU
 62
     4
370
    -2
100
AcDbBlockReference
  2
_OPEN
 10
537.9675507610083
 20
408.6669213093375
 30
0.0
 41
7.0
 42
7.0
 43
7.0
 50
21.79981608459163
  0
INSERT
  5
A4C4
330
A424
100
AcDbEntity
  8
SUNPOU
 62
     4
370
    -2
100
AcDbBlockReference
  2
_OPEN
 10
491.5431205414486
 20
390.0986468441669
 30
0.0
 41
7.0
 42
7.0
 43
7.0
 50
201.7998160845916
  0
MTEXT
  5
A4C5
330
A424
100
AcDbEntity
  8
SUNPOU
 62
     4
100
AcDbMText
 10
512.8985113753566
 20
404.0252191714555
 30
0.0
 40
6.0
 41
0.0
 71
     5
 72
     1
  1
\A1;50
 11
0.9284870189406717
 21
0.3713648551743484
 31
0.0
 73
     1
 44
1.0
  0
POINT
  5
A4C6
330
A424
100
AcDbEntity
  8
DEFPOINTS
 62
     0
100
AcDbPoint
 10
544.0433591796859
 20
393.4761751530698
 30
0.0
  0
POINT
  5
A4C7
330
A424
100
AcDbEntity
  8
DEFPOINTS
 62
     0
100
AcDbPoint
 10
497.6189289601263
 20
374.9079006878992
 30
0.0
  0
POINT
  5
A4C8
330
A424
100
AcDbEntity
  8
DEFPOINTS
 62
     0
100
AcDbPoint
 10
491.5431205414486
 20
390.0986468441669
 30
0.0
  0
ENDBLK
  5
A42F
330
A424
100
AcDbEntity
  8
0
100
AcDbBlockEnd
  0
BLOCK
  5
A43A
330
A430
100
AcDbEntity
  8
0
100
AcDbBlockBegin
  2
*D16
 70
     1
 71
     0
 10
0.0
 20
0.0
 30
0.0
  3
*D16
  1

  0
LINE
  5
A4C9
330
A430
100
AcDbEntity
  8
SUNPOU
 62
     4
370
    -2
100
AcDbLine
 10
495.3906313163857
 20
380.4789817749056
 30
0.0
 11
490.4289190702884
 21
392.8840127246955
 31
0.0
  0
LINE
  5
A4CA
330
A430
100
AcDbEntity
  8
SUNPOU
 62
     4
370
    -2
100
AcDbLine
 10
448.9663129623751
 20
361.9103776475848
 30
0.0
 11
444.0046007162779
 21
374.3154085973747
 31
0.0
  0
LINE
  5
A4CB
330
A430
100
AcDbEntity
  8
SUNPOU
 62
     4
370
    -2
100
AcDbLine
 10
485.0436419431304
 20
387.4989602399272
 30
0.0
 11
451.6181057067363
 21
374.1295544603074
 31
0.0
  0
INSERT
  5
A4CC
330
A430
100
AcDbEntity
  8
SUNPOU
 62
     4
370
    -2
100
AcDbBlockReference
  2
_OPEN
 10
491.5430330019386
 20
390.0985594137777
 30
0.0
 41
7.0
 42
7.0
 43
7.0
 50
21.80021443835496
  0
INSERT
  5
A4CD
330
A430
100
AcDbEntity
  8
SUNPOU
 62
     4
370
    -2
100
AcDbBlockReference
  2
_OPEN
 10
445.1187146479281
 20
371.5299552864569
 30
0.0
 41
7.0
 42
7.0
 43
7.0
 50
201.800214438355
  0
MTEXT
  5
A4CE
330
A430
100
AcDbEntity
  8
SUNPOU
 62
     4
100
AcDbMText
 10
466.4740172721831
 20
385.4566795349803
 30
0.0
 40
6.0
 41
0.0
 71
     5
 72
     1
  1
\A1;50
 11
0.928484436972599
 21
0.3713713105500692
 31
0.0
 73
     1
 44
1.0
  0
POINT
  5
A4CF
330
A430
100
AcDbEntity
  8
DEFPOINTS
 62
     0
100
AcDbPoint
 10
497.6188591796861
 20
374.9080751530699
 30
0.0
  0
POINT
  5
A4D0
330
A430
100
AcDbEntity
  8
DEFPOINTS
 62
     0
100
AcDbPoint
 10
451.1945408256756
 20
356.3394710257492
 30
0.0
  0
POINT
  5
A4D1
330
A430
100
AcDbEntity
  8
DEFPOINTS
 62
     0
100
AcDbPoint
 10
445.1187146479281
 20
371.5299552864569
 30
0.0
  0
ENDBLK
  5
A43B
330
A430
100
AcDbEntity
  8
0
100
AcDbBlockEnd
  0
ENDSEC
  0
SECTION
  2
ENTITIES
  0
LINE
  5
3EF3
330
1A
100
AcDbEntity
  8
ZUWAKU
100
AcDbLine
 10
208.646601303624
 20
15.19999986828872
 30
0.0
 11
447.4243639845474
 21
15.19999986828871
 31
0.0
  0
LINE
  5
3EF4
330
1A
100
AcDbEntity
  8
ZUWAKU
100
AcDbLine
 10
208.646601303624
 20
15.59999986828872
 30
0.0
 11
447.4243639845474
 21
15.59999986828872
 31
0.0
  0
LINE
  5
3EF5
330
1A
100
AcDbEntity
  8
ZUWAKU
100
AcDbLine
 10
208.646601303624
 20
15.39999986828872
 30
0.0
 11
447.4243639845474
 21
15.39999986828872
 31
0.0
  0
LINE
  5
3EF6
330
1A
100
AcDbEntity
  8
ZUWAKU
100
AcDbLine
 10
0.0000000135560185
 20
30.79999986828869
 30
0.0
 11
797.4000000135559
 21
30.79999986828869
 31
0.0
  0
LINE
  5
3EF7
330
1A
100
AcDbEntity
  8
ZUWAKU
100
AcDbLine
 10
0.0000000135560185
 20
30.59999986828869
 30
0.0
 11
797.4000000135559
 21
30.59999986828869
 31
0.0
  0
LINE
  5
3EF8
330
1A
100
AcDbEntity
  8
ZUWAKU
100
AcDbLine
 10
0.0000000135560185
 20
30.39999986828869
 30
0.0
 11
797.4000000135559
 21
30.39999986828869
 31
0.0
  0
LINE
  5
3EF9
330
1A
100
AcDbEntity
  8
ZUWAKU
100
AcDbLine
 10
0.0000000135560185
 20
30.19999986828869
 30
0.0
 11
797.4000000135559
 21
30.19999986828869
 31
0.0
  0
LINE
  5
3EFA
330
1A
100
AcDbEntity
  8
ZUWAKU
100
AcDbLine
 10
0.0000000135560185
 20
29.99999986828868
 30
0.0
 11
797.4000000135559
 21
29.99999986828868
 31
0.0
  0
LWPOLYLINE
  5
3EFB
330
1A
100
AcDbEntity
  8
ZUWAKU
100
AcDbPolyline
 90
        4
 70
     1
 43
0.0
 10
0.2000000135559503
 20
551.3999998682888
 10
0.2000000135559503
 20
0.1999998682887281
 10
797.4000000135559
 20
0.1999998682887512
 10
797.4000000135561
 20
551.3999998682888
  0
LWPOLYLINE
  5
3EFC
330
1A
100
AcDbEntity
  8
ZUWAKU
100
AcDbPolyline
 90
        4
 70
     1
 43
0.0
 10
0.6000000135559276
 20
550.9999998682888
 10
0.6000000135559276
 20
0.5999998682887053
 10
797.0000000135563
 20
0.5999998682887515
 10
797.000000013556
 20
550.9999998682888
  0
LWPOLYLINE
  5
3EFD
330
1A
100
AcDbEntity
  8
ZUWAKU
100
AcDbPolyline
 90
        4
 70
     1
 43
0.0
 10
0.0000000135560185
 20
551.5999998682887
 10
0.0000000135560185
 20
-0.0000001317113174
 10
797.6000000135562
 20
-0.0000001317112499
 10
797.6000000135562
 20
551.5999998682888
  0
LWPOLYLINE
  5
3EFE
330
1A
100
AcDbEntity
  8
ZUWAKU
100
AcDbPolyline
 90
        4
 70
     1
 43
0.0
 10
0.4000000135559958
 20
551.1999998682887
 10
0.4000000135559958
 20
0.3999998682887735
 10
797.2000000135561
 20
0.3999998682887505
 10
797.2000000135561
 20
551.1999998682887
  0
LWPOLYLINE
  5
3EFF
330
1A
100
AcDbEntity
  8
ZUWAKU
100
AcDbPolyline
 90
        4
 70
     1
 43
0.0
 10
0.8000000135559731
 20
550.7999998682888
 10
0.8000000135559731
 20
0.7999998682887508
 10
796.800000013556
 20
0.7999998682887508
 10
796.800000013556
 20
550.7999998682888
  0
TEXT
  5
3F00
330
1A
100
AcDbEntity
  8
moji
100
AcDbText
 10
92.95778960172515
 20
12.74117799856344
 30
0.0
 40
6.0
  1
アーバントップΣ９０
 41
0.9
  7
ｽﾀｲﾙ1
100
AcDbText
  0
HATCH
  5
3F01
330
1A
100
AcDbEntity
  8
ZUWAKU
100
AcDbHatch
 10
0.0
 20
0.0
 30
0.0
210
0.0
220
0.0
230
1.0
  2
ANSI37
 70
     0
 71
     0
 91
        8
 92
        7
 72
     1
 73
     1
 93
       24
 10
14.50226267467588
 20
17.64484834927227
 42
-0.1989123673796348
 10
14.09221216833714
 20
18.63479784293332
 42
0.0
 10
14.09221216833714
 20
19.92499986828869
 42
-0.4142135623730912
 10
14.61721216833712
 20
20.44999986828869
 42
0.0
 10
17.59221216833703
 20
20.44999986828869
 42
0.4142135623731546
 10
18.11721216833712
 20
20.97499986828868
 42
0.0
 10
18.11721216833712
 20
22.72499986828869
 42
0.4142135623731586
 10
17.59221216833703
 20
23.24999986828869
 42
0.0
 10
14.09221216833714
 20
23.24999986828869
 42
0.4142135623730928
 10
11.29221216833719
 20
20.44999986828871
 42
0.0
 10
11.29221216833719
 20
18.63479784293345
 42
0.1989123673796619
 10
12.52236368735362
 20
15.66494936194984
 42
0.0
 10
15.43216166199829
 20
12.75515138730518
 42
-0.1989123673796613
 10
15.84221216833714
 20
11.76520189364399
 42
0.0
 10
15.84221216833714
 20
10.47499986828868
 42
-0.4142135623730911
 10
15.31721216833716
 20
9.949999868288685
 42
0.0
 10
12.34221216833726
 20
9.949999868288685
 42
0.4142135623731526
 10
11.81721216833716
 20
9.424999868288698
 42
0.0
 10
11.81721216833716
 20
7.674999868288676
 42
0.4142135623731526
 10
12.34221216833726
 20
7.149999868288688
 42
0.0
 10
15.84221216833714
 20
7.149999868288688
 42
0.4142135623731044
 10
18.64221216833721
 20
9.949999868288664
 42
0.0
 10
18.64221216833721
 20
11.76520189364394
 42
0.1989123673796604
 10
17.41206064932067
 20
14.73505037462748
 42
0.0
 97
        0
 92
        7
 72
     1
 73
     1
 93
       16
 10
23.54221216833719
 20
19.04999986828869
 42
-0.4142135623730935
 10
24.94221216833716
 20
20.44999986828869
 42
0.0
 10
26.86721216833712
 20
20.44999986828869
 42
0.4142135623731546
 10
27.39221216833721
 20
20.97499986828868
 42
0.0
 10
27.39221216833721
 20
22.72499986828869
 42
0.4142135623730952
 10
26.86721216833723
 20
23.24999986828869
 42
0.0
 10
24.94221216833705
 20
23.24999986828865
 42
0.4142135623730892
 10
20.74221216833712
 20
19.04999986828862
 42
0.0
 10
20.74221216833712
 20
11.34999986828871
 42
0.4142135623730969
 10
24.94221216833716
 20
7.149999868288688
 42
0.0
 10
26.86721216833712
 20
7.149999868288688
 42
0.4142135623731526
 10
27.39221216833721
 20
7.674999868288676
 42
0.0
 10
27.39221216833721
 20
9.424999868288698
 42
0.414213562373089
 10
26.86721216833723
 20
9.949999868288685
 42
0.0
 10
24.94221216833716
 20
9.949999868288685
 42
-0.4142135623730928
 10
23.54221216833719
 20
11.34999986828867
 42
0.0
 97
        0
 92
        7
 72
     1
 73
     1
 93
        2
 10
24.24221216833712
 20
15.19999986828869
 42
1.0
 10
27.74221216833712
 20
15.19999986828869
 42
1.0
 97
        0
 92
        7
 72
     1
 73
     1
 93
       26
 10
37.31485865051513
 20
19.20504706185211
 42
0.0
 10
38.37649828365295
 20
22.5669059001217
 42
0.5069206636600134
 10
37.87586738445759
 20
23.24999986828869
 42
0.0
 10
36.17697800484837
 20
23.24999986828869
 42
0.3272098845218764
 10
35.67634710565301
 20
22.88309383645566
 42
0.0
 10
33.80807723102123
 20
16.96690590012177
 42
-0.3272098845219541
 10
33.30744633182576
 20
16.59999986828868
 42
0.0
 10
33.1672121683373
 20
16.59999986828868
 42
-0.4142135623731526
 10
32.64221216833721
 20
17.12499986828867
 42
0.0
 10
32.64221216833721
 20
22.72499986828869
 42
0.4142135623730952
 10
32.11721216833723
 20
23.24999986828869
 42
0.0
 10
30.36721216833712
 20
23.24999986828869
 42
0.4142135623730872
 10
29.84221216833714
 20
22.72499986828871
 42
0.0
 10
29.84221216833714
 20
7.674999868288676
 42
0.414213562373089
 10
30.36721216833712
 20
7.149999868288688
 42
0.0
 10
32.11721216833712
 20
7.149999868288688
 42
0.4142135623731526
 10
32.64221216833721
 20
7.674999868288676
 42
0.0
 10
32.64221216833721
 20
13.2749998682887
 42
-0.4142135623731526
 10
33.1672121683373
 20
13.79999986828869
 42
0.0
 10
33.30744633182587
 20
13.79999986828869
 42
-0.3272098845218915
 10
33.80807723102123
 20
13.43309383645561
 42
0.0
 10
35.67634710565301
 20
7.51690590012176
 42
0.3272098845218902
 10
36.17697800484837
 20
7.149999868288688
 42
0.0
 10
37.87586738445759
 20
7.149999868288688
 42
0.5069206636600334
 10
38.37649828365295
 20
7.833093836455696
 42
0.0
 10
36.05010690517929
 20
15.19999986828882
 42
0.0
 97
        0
 92
        7
 72
     1
 73
     1
 93
        8
 10
43.49221216833712
 20
22.7249998682887
 42
0.4142135623731546
 10
42.96721216833703
 20
23.24999986828869
 42
0.0
 10
41.21721216833726
 20
23.24999986828869
 42
0.4142135623731506
 10
40.69221216833716
 20
22.72499986828871
 42
0.0
 10
40.69221216833716
 20
7.674999868288676
 42
0.4142135623731526
 10
41.21721216833726
 20
7.149999868288688
 42
0.0
 10
42.96721216833703
 20
7.149999868288688
 42
0.4142135623731526
 10
43.49221216833712
 20
7.674999868288676
 42
0.0
 97
        0
 92
        7
 72
     1
 73
     1
 93
       24
 10
48.39221216833721
 20
19.92499986828869
 42
-0.4142135623731547
 10
48.9172121683373
 20
20.44999986828869
 42
0.0
 10
51.89221216833721
 20
20.44999986828869
 42
0.4142135623730911
 10
52.41721216833719
 20
20.97499986828868
 42
0.0
 10
52.41721216833719
 20
22.72499986828869
 42
0.4142135623730952
 10
51.89221216833721
 20
23.24999986828869
 42
0.0
 10
48.39221216833721
 20
23.24999986828869
 42
0.4142135623731048
 10
45.59221216833714
 20
20.44999986828871
 42
0.0
 10
45.59221216833714
 20
18.63479784293345
 42
0.1989123673796613
 10
46.82236368735369
 20
15.66494936194989
 42
0.0
 10
49.73216166199836
 20
12.75515138730523
 42
-0.1989123673796402
 10
50.14221216833721
 20
11.76520189364415
 42
0.0
 10
50.14221216833721
 20
10.47499986828868
 42
-0.4142135623730911
 10
49.61721216833723
 20
9.949999868288685
 42
0.0
 10
46.64221216833721
 20
9.949999868288685
 42
0.4142135623731526
 10
46.11721216833712
 20
9.424999868288698
 42
0.0
 10
46.11721216833712
 20
7.674999868288676
 42
0.414213562373089
 10
46.6422121683371
 20
7.149999868288688
 42
0.0
 10
50.14221216833721
 20
7.149999868288688
 42
0.4142135623730925
 10
52.94221216833716
 20
9.949999868288664
 42
0.0
 10
52.94221216833716
 20
11.76520189364394
 42
0.1989123673796675
 10
51.71206064932062
 20
14.73505037462759
 42
0.0
 10
48.80226267467606
 20
17.64484834927211
 42
-0.1989123673796653
 10
48.39221216833721
 20
18.63479784293327
 42
0.0
 97
        0
 92
        7
 72
     1
 73
     1
 93
       16
 10
57.84221216833714
 20
22.72499986828868
 42
0.414213562373103
 10
57.31721216833716
 20
23.24999986828869
 42
0.0
 10
55.56721216833716
 20
23.24999986828869
 42
0.4142135623730872
 10
55.04221216833719
 20
22.72499986828871
 42
0.0
 10
55.04221216833719
 20
9.949999868288664
 42
0.4142135623730925
 10
57.84221216833714
 20
7.149999868288688
 42
0.0
 10
61.34221216833714
 20
7.149999868288688
 42
0.4142135623731044
 10
64.14221216833721
 20
9.949999868288664
 42
0.0
 10
64.14221216833721
 20
22.72499986828869
 42
0.4142135623730952
 10
63.61721216833723
 20
23.24999986828869
 42
0.0
 10
61.86721216833712
 20
23.24999986828869
 42
0.4142135623730872
 10
61.34221216833714
 20
22.72499986828871
 42
0.0
 10
61.34221216833714
 20
10.99999986828866
 42
-0.414213562373088
 10
60.29221216833719
 20
9.949999868288685
 42
0.0
 10
58.89221216833721
 20
9.949999868288685
 42
-0.4142135623731197
 10
57.84221216833714
 20
10.99999986828866
 42
0.0
 97
        0
 92
        7
 72
     1
 73
     1
 93
        8
 10
69.04221216833719
 20
22.72499986828871
 42
0.4142135623730872
 10
68.51721216833721
 20
23.24999986828869
 42
0.0
 10
66.76721216833721
 20
23.24999986828869
 42
0.4142135623731506
 10
66.24221216833712
 20
22.72499986828871
 42
0.0
 10
66.24221216833712
 20
7.674999868288676
 42
0.414213562373089
 10
66.7672121683371
 20
7.149999868288688
 42
0.0
 10
68.51721216833721
 20
7.149999868288688
 42
0.414213562373089
 10
69.04221216833719
 20
7.674999868288676
 42
0.0
 97
        0
 75
     0
 76
     1
 52
0.0
 41
0.2
 77
     0
 78
     2
 53
45.0
 43
-900.942304321123
 44
-13.20000013171125
 45
-0.4490128060534576
 46
0.4490128060534577
 79
     0
 53
135.0
 43
-900.942304321123
 44
-13.20000013171125
 45
-0.4490128060534577
 46
-0.4490128060534576
 79
     0
 47
0.057451373970553
 98
        8
 10
16.07985497657933
 20
15.16717351417424
 10
22.40451501999519
 20
18.84406205073969
 10
25.16436789921568
 20
15.5118815143594
 10
30.91405999519316
 20
16.20129751473019
 10
41.83847203251276
 20
16.6609097822718
 10
46.89820090868557
 20
19.41857618469589
 10
56.55768598595637
 20
18.7291577833837
 10
67.82707963317876
 20
19.18877005092531
  0
LINE
  5
3F02
330
1A
100
AcDbEntity
  8
ZUWAKU
100
AcDbLine
 10
24.94221216833716
 20
23.24999986828865
 30
0.0
 11
26.86721216833712
 21
23.24999986828869
 31
0.0
  0
LINE
  5
3F03
330
1A
100
AcDbEntity
  8
ZUWAKU
100
AcDbLine
 10
26.86721216833712
 20
20.44999986828869
 30
0.0
 11
24.94221216833716
 21
20.44999986828869
 31
0.0
  0
LINE
  5
3F04
330
1A
100
AcDbEntity
  8
ZUWAKU
100
AcDbLine
 10
24.94221216833716
 20
9.949999868288685
 30
0.0
 11
26.86721216833712
 21
9.949999868288685
 31
0.0
  0
LINE
  5
3F05
330
1A
100
AcDbEntity
  8
ZUWAKU
100
AcDbLine
 10
26.86721216833712
 20
7.149999868288688
 30
0.0
 11
24.94221216833716
 21
7.149999868288688
 31
0.0
  0
CIRCLE
  5
3F06
330
1A
100
AcDbEntity
  8
ZUWAKU
100
AcDbCircle
 10
25.99221216833712
 20
15.19999986828869
 30
0.0
 40
1.75
  0
ARC
  5
3F07
330
1A
100
AcDbEntity
  8
ZUWAKU
100
AcDbCircle
 10
15.49221216833712
 20
18.63479784293339
 30
0.0
 40
1.4
100
AcDbArc
 50
180.0000000000016
 51
224.9999999999988
  0
LINE
  5
3F08
330
1A
100
AcDbEntity
  8
ZUWAKU
100
AcDbLine
 10
23.54221216833719
 20
19.04999986828869
 30
0.0
 11
23.54221216833719
 21
11.34999986828869
 31
0.0
  0
LINE
  5
3F09
330
1A
100
AcDbEntity
  8
ZUWAKU
100
AcDbLine
 10
20.74221216833712
 20
11.34999986828869
 30
0.0
 11
20.74221216833712
 21
19.04999986828864
 31
0.0
  0
ARC
  5
3F0A
330
1A
100
AcDbEntity
  8
ZUWAKU
100
AcDbCircle
 10
15.49221216833712
 20
18.63479784293339
 30
0.0
 40
4.199999999999999
100
AcDbArc
 50
180.0
 51
225.0
  0
ARC
  5
3F0B
330
1A
100
AcDbEntity
  8
ZUWAKU
100
AcDbCircle
 10
15.84221216833714
 20
9.949999868288685
 30
0.0
 40
2.8
100
AcDbArc
 50
270.0
 51
0.0
  0
ARC
  5
3F0C
330
1A
100
AcDbEntity
  8
ZUWAKU
100
AcDbCircle
 10
24.94221216833716
 20
11.34999986828869
 30
0.0
 40
4.199999999999999
100
AcDbArc
 50
180.0
 51
270.0
  0
ARC
  5
3F0D
330
1A
100
AcDbEntity
  8
ZUWAKU
100
AcDbCircle
 10
14.44221216833716
 20
11.76520189364399
 30
0.0
 40
4.199999999999999
100
AcDbArc
 50
0.0
 51
45.0
  0
LINE
  5
3F0E
330
1A
100
AcDbEntity
  8
ZUWAKU
100
AcDbLine
 10
17.41206064932067
 20
14.73505037462751
 30
0.0
 11
14.50226267467599
 21
17.64484834927219
 31
0.0
  0
LINE
  5
3F0F
330
1A
100
AcDbEntity
  8
ZUWAKU
100
AcDbLine
 10
15.84221216833714
 20
10.47499986828869
 30
0.0
 11
15.84221216833714
 21
11.76520189364403
 31
0.0
  0
ARC
  5
3F10
330
1A
100
AcDbEntity
  8
ZUWAKU
100
AcDbCircle
 10
15.31721216833716
 20
10.47499986828869
 30
0.0
 40
0.5249999999999999
100
AcDbArc
 50
270.0
 51
0.0
  0
ARC
  5
3F11
330
1A
100
AcDbEntity
  8
ZUWAKU
100
AcDbCircle
 10
14.44221216833716
 20
11.76520189364403
 30
0.0
 40
1.4
100
AcDbArc
 50
0.0
 51
45.0
  0
LINE
  5
3F12
330
1A
100
AcDbEntity
  8
ZUWAKU
100
AcDbLine
 10
11.81721216833716
 20
7.674999868288687
 30
0.0
 11
11.81721216833716
 21
9.424999868288687
 31
0.0
  0
ARC
  5
3F13
330
1A
100
AcDbEntity
  8
ZUWAKU
100
AcDbCircle
 10
12.34221216833714
 20
7.674999868288687
 30
0.0
 40
0.5249999999999999
100
AcDbArc
 50
180.0
 51
270.0
  0
ARC
  5
3F14
330
1A
100
AcDbEntity
  8
ZUWAKU
100
AcDbCircle
 10
12.34221216833714
 20
9.424999868288687
 30
0.0
 40
0.5249999999999999
100
AcDbArc
 50
90.0
 51
180.0
  0
LINE
  5
3F15
330
1A
100
AcDbEntity
  8
ZUWAKU
100
AcDbLine
 10
12.34221216833714
 20
7.149999868288688
 30
0.0
 11
15.84221216833714
 21
7.149999868288688
 31
0.0
  0
LINE
  5
3F16
330
1A
100
AcDbEntity
  8
ZUWAKU
100
AcDbLine
 10
12.34221216833714
 20
9.949999868288685
 30
0.0
 11
15.31721216833716
 21
9.949999868288685
 31
0.0
  0
LINE
  5
3F17
330
1A
100
AcDbEntity
  8
ZUWAKU
100
AcDbLine
 10
12.52236368735362
 20
15.66494936194987
 30
0.0
 11
15.43216166199829
 21
12.7551513873052
 31
0.0
  0
LINE
  5
3F18
330
1A
100
AcDbEntity
  8
ZUWAKU
100
AcDbLine
 10
18.64221216833721
 20
9.949999868288685
 30
0.0
 11
18.64221216833721
 21
11.76520189364403
 31
0.0
  0
ARC
  5
3F19
330
1A
100
AcDbEntity
  8
ZUWAKU
100
AcDbCircle
 10
24.94221216833716
 20
11.34999986828869
 30
0.0
 40
1.4
100
AcDbArc
 50
180.0
 51
270.0
  0
ARC
  5
3F1A
330
1A
100
AcDbEntity
  8
ZUWAKU
100
AcDbCircle
 10
17.59221216833714
 20
22.72499986828868
 30
0.0
 40
0.5249999999999999
100
AcDbArc
 50
0.0
 51
90.0
  0
ARC
  5
3F1B
330
1A
100
AcDbEntity
  8
ZUWAKU
100
AcDbCircle
 10
17.59221216833714
 20
20.97499986828868
 30
0.0
 40
0.5249999999999999
100
AcDbArc
 50
270.0
 51
0.0
  0
LINE
  5
3F1C
330
1A
100
AcDbEntity
  8
ZUWAKU
100
AcDbLine
 10
14.09221216833714
 20
23.24999986828869
 30
0.0
 11
17.59221216833714
 21
23.24999986828869
 31
0.0
  0
ARC
  5
3F1D
330
1A
100
AcDbEntity
  8
ZUWAKU
100
AcDbCircle
 10
14.61721216833712
 20
19.92499986828869
 30
0.0
 40
0.5249999999999999
100
AcDbArc
 50
90.0
 51
180.0
  0
LINE
  5
3F1E
330
1A
100
AcDbEntity
  8
ZUWAKU
100
AcDbLine
 10
14.09221216833714
 20
19.92499986828869
 30
0.0
 11
14.09221216833714
 21
18.63479784293335
 31
0.0
  0
LINE
  5
3F1F
330
1A
100
AcDbEntity
  8
ZUWAKU
100
AcDbLine
 10
17.59221216833714
 20
20.44999986828869
 30
0.0
 11
14.61721216833712
 21
20.44999986828869
 31
0.0
  0
LINE
  5
3F20
330
1A
100
AcDbEntity
  8
ZUWAKU
100
AcDbLine
 10
11.29221216833719
 20
20.44999986828869
 30
0.0
 11
11.29221216833719
 21
18.63479784293335
 31
0.0
  0
ARC
  5
3F21
330
1A
100
AcDbEntity
  8
ZUWAKU
100
AcDbCircle
 10
14.09221216833714
 20
20.44999986828869
 30
0.0
 40
2.8
100
AcDbArc
 50
90.0
 51
180.0
  0
LINE
  5
3F22
330
1A
100
AcDbEntity
  8
ZUWAKU
100
AcDbLine
 10
18.11721216833712
 20
22.72499986828868
 30
0.0
 11
18.11721216833712
 21
20.97499986828868
 31
0.0
  0
ARC
  5
3F23
330
1A
100
AcDbEntity
  8
ZUWAKU
100
AcDbCircle
 10
24.94221216833716
 20
19.04999986828869
 30
0.0
 40
1.4
100
AcDbArc
 50
90.0
 51
180.0
  0
ARC
  5
3F24
330
1A
100
AcDbEntity
  8
ZUWAKU
100
AcDbCircle
 10
24.94221216833716
 20
19.04999986828864
 30
0.0
 40
4.199999999999999
100
AcDbArc
 50
90.0
 51
180.0
  0
LINE
  5
3F25
330
1A
100
AcDbEntity
  8
ZUWAKU
100
AcDbLine
 10
79.32662956154422
 20
29.99999986828868
 30
0.0
 11
79.32662956154445
 21
0.7999998682887508
 31
0.0
  0
LINE
  5
3F26
330
1A
100
AcDbEntity
  8
ZUWAKU
100
AcDbLine
 10
79.52662956154427
 20
29.99999986828868
 30
0.0
 11
79.5266295615445
 21
0.7999998682887508
 31
0.0
  0
LINE
  5
3F27
330
1A
100
AcDbEntity
  8
ZUWAKU
100
AcDbLine
 10
79.12662956154441
 20
29.99999986828868
 30
0.0
 11
79.12662956154441
 21
0.7999998682887508
 31
0.0
  0
LINE
  5
3F28
330
1A
100
AcDbEntity
  8
ZUWAKU
100
AcDbLine
 10
64.14221216833721
 20
9.949999868288685
 30
0.0
 11
64.14221216833721
 21
22.72499986828868
 31
0.0
  0
LINE
  5
3F29
330
1A
100
AcDbEntity
  8
ZUWAKU
100
AcDbLine
 10
61.34221216833714
 20
22.72499986828868
 30
0.0
 11
61.34221216833714
 21
10.99999986828868
 31
0.0
  0
LINE
  5
3F2A
330
1A
100
AcDbEntity
  8
ZUWAKU
100
AcDbLine
 10
69.04221216833719
 20
7.674999868288687
 30
0.0
 11
69.04221216833719
 21
22.72499986828868
 31
0.0
  0
LINE
  5
3F2B
330
1A
100
AcDbEntity
  8
ZUWAKU
100
AcDbLine
 10
66.24221216833712
 20
22.72499986828868
 30
0.0
 11
66.24221216833712
 21
7.674999868288687
 31
0.0
  0
ARC
  5
3F2C
330
1A
100
AcDbEntity
  8
ZUWAKU
100
AcDbCircle
 10
49.79221216833719
 20
18.63479784293339
 30
0.0
 40
1.4
100
AcDbArc
 50
180.0000000000016
 51
224.9999999999988
  0
ARC
  5
3F2D
330
1A
100
AcDbEntity
  8
ZUWAKU
100
AcDbCircle
 10
49.79221216833719
 20
18.63479784293339
 30
0.0
 40
4.199999999999999
100
AcDbArc
 50
180.0
 51
225.0
  0
LINE
  5
3F2E
330
1A
100
AcDbEntity
  8
ZUWAKU
100
AcDbLine
 10
37.31485865051513
 20
19.20504706185211
 30
0.0
 11
36.05010690517929
 21
15.19999986828871
 31
0.0
  0
LINE
  5
3F2F
330
1A
100
AcDbEntity
  8
ZUWAKU
100
AcDbLine
 10
40.69221216833716
 20
22.72499986828868
 30
0.0
 11
40.69221216833716
 21
7.674999868288687
 31
0.0
  0
LINE
  5
3F30
330
1A
100
AcDbEntity
  8
ZUWAKU
100
AcDbLine
 10
43.49221216833712
 20
7.674999868288687
 30
0.0
 11
43.49221216833712
 21
22.72499986828868
 31
0.0
  0
LINE
  5
3F31
330
1A
100
AcDbEntity
  8
ZUWAKU
100
AcDbLine
 10
55.04221216833719
 20
22.72499986828868
 30
0.0
 11
55.04221216833719
 21
9.949999868288685
 31
0.0
  0
LINE
  5
3F32
330
1A
100
AcDbEntity
  8
ZUWAKU
100
AcDbLine
 10
57.84221216833714
 20
10.99999986828868
 30
0.0
 11
57.84221216833714
 21
22.72499986828868
 31
0.0
  0
LINE
  5
3F33
330
1A
100
AcDbEntity
  8
ZUWAKU
100
AcDbLine
 10
32.64221216833721
 20
17.12499986828869
 30
0.0
 11
32.64221216833721
 21
22.72499986828868
 31
0.0
  0
LINE
  5
3F34
330
1A
100
AcDbEntity
  8
ZUWAKU
100
AcDbLine
 10
29.84221216833714
 20
22.72499986828868
 30
0.0
 11
29.84221216833714
 21
7.674999868288687
 31
0.0
  0
LINE
  5
3F35
330
1A
100
AcDbEntity
  8
ZUWAKU
100
AcDbLine
 10
35.67634710565301
 20
22.88309383645566
 30
0.0
 11
33.80807723102123
 21
16.96690590012172
 31
0.0
  0
LINE
  5
3F36
330
1A
100
AcDbEntity
  8
ZUWAKU
100
AcDbLine
 10
60.29221216833719
 20
9.949999868288685
 30
0.0
 11
58.89221216833721
 21
9.949999868288685
 31
0.0
  0
LINE
  5
3F37
330
1A
100
AcDbEntity
  8
ZUWAKU
100
AcDbLine
 10
57.84221216833714
 20
7.149999868288688
 30
0.0
 11
61.34221216833714
 21
7.149999868288688
 31
0.0
  0
LINE
  5
3F38
330
1A
100
AcDbEntity
  8
ZUWAKU
100
AcDbLine
 10
41.21721216833714
 20
7.149999868288688
 30
0.0
 11
42.96721216833714
 21
7.149999868288688
 31
0.0
  0
LINE
  5
3F39
330
1A
100
AcDbEntity
  8
ZUWAKU
100
AcDbLine
 10
35.67634710565301
 20
7.516905900121714
 30
0.0
 11
33.80807723102123
 21
13.43309383645565
 31
0.0
  0
ARC
  5
3F3A
330
1A
100
AcDbEntity
  8
ZUWAKU
100
AcDbCircle
 10
33.30744633182587
 20
17.12499986828869
 30
0.0
 40
0.5249999999999999
100
AcDbArc
 50
270.0
 51
342.474431626277
  0
LINE
  5
3F3B
330
1A
100
AcDbEntity
  8
ZUWAKU
100
AcDbLine
 10
33.30744633182587
 20
16.59999986828868
 30
0.0
 11
33.16721216833719
 21
16.59999986828868
 31
0.0
  0
LINE
  5
3F3C
330
1A
100
AcDbEntity
  8
ZUWAKU
100
AcDbLine
 10
33.16721216833719
 20
13.79999986828869
 30
0.0
 11
33.30744633182587
 21
13.79999986828869
 31
0.0
  0
ARC
  5
3F3D
330
1A
100
AcDbEntity
  8
ZUWAKU
100
AcDbCircle
 10
33.16721216833719
 20
17.12499986828869
 30
0.0
 40
0.5249999999999999
100
AcDbArc
 50
180.0
 51
270.0
  0
LINE
  5
3F3E
330
1A
100
AcDbEntity
  8
ZUWAKU
100
AcDbLine
 10
30.36721216833712
 20
7.149999868288688
 30
0.0
 11
32.11721216833712
 21
7.149999868288688
 31
0.0
  0
ARC
  5
3F3F
330
1A
100
AcDbEntity
  8
ZUWAKU
100
AcDbCircle
 10
32.11721216833712
 20
7.674999868288687
 30
0.0
 40
0.5249999999999999
100
AcDbArc
 50
270.0
 51
0.0
  0
LINE
  5
3F40
330
1A
100
AcDbEntity
  8
ZUWAKU
100
AcDbLine
 10
32.64221216833721
 20
7.674999868288687
 30
0.0
 11
32.64221216833721
 21
13.27499986828869
 31
0.0
  0
LINE
  5
3F41
330
1A
100
AcDbEntity
  8
ZUWAKU
100
AcDbLine
 10
27.39221216833721
 20
9.424999868288687
 30
0.0
 11
27.39221216833721
 21
7.674999868288687
 31
0.0
  0
ARC
  5
3F42
330
1A
100
AcDbEntity
  8
ZUWAKU
100
AcDbCircle
 10
26.86721216833712
 20
7.674999868288687
 30
0.0
 40
0.5249999999999999
100
AcDbArc
 50
270.0
 51
0.0
  0
ARC
  5
3F43
330
1A
100
AcDbEntity
  8
ZUWAKU
100
AcDbCircle
 10
26.86721216833712
 20
9.424999868288687
 30
0.0
 40
0.5249999999999999
100
AcDbArc
 50
0.0
 51
90.0
  0
ARC
  5
3F44
330
1A
100
AcDbEntity
  8
ZUWAKU
100
AcDbCircle
 10
30.36721216833712
 20
7.674999868288687
 30
0.0
 40
0.5249999999999999
100
AcDbArc
 50
180.0
 51
270.0
  0
ARC
  5
3F45
330
1A
100
AcDbEntity
  8
ZUWAKU
100
AcDbCircle
 10
33.30744633182587
 20
13.27499986828869
 30
0.0
 40
0.5249999999999999
100
AcDbArc
 50
17.52556837372303
 51
90.0
  0
ARC
  5
3F46
330
1A
100
AcDbEntity
  8
ZUWAKU
100
AcDbCircle
 10
33.16721216833719
 20
13.27499986828869
 30
0.0
 40
0.5249999999999999
100
AcDbArc
 50
90.0
 51
180.0
  0
ARC
  5
3F47
330
1A
100
AcDbEntity
  8
ZUWAKU
100
AcDbCircle
 10
41.21721216833714
 20
7.674999868288687
 30
0.0
 40
0.5249999999999999
100
AcDbArc
 50
180.0
 51
270.0
  0
LINE
  5
3F48
330
1A
100
AcDbEntity
  8
ZUWAKU
100
AcDbLine
 10
36.17697800484848
 20
7.149999868288688
 30
0.0
 11
37.87586738445748
 21
7.149999868288688
 31
0.0
  0
ARC
  5
3F49
330
1A
100
AcDbEntity
  8
ZUWAKU
100
AcDbCircle
 10
37.87586738445748
 20
7.674999868288687
 30
0.0
 40
0.5249999999999999
100
AcDbArc
 50
270.0
 51
17.52556837372303
  0
LINE
  5
3F4A
330
1A
100
AcDbEntity
  8
ZUWAKU
100
AcDbLine
 10
38.37649828365295
 20
7.83309383645566
 30
0.0
 11
36.05010690517929
 21
15.19999986828871
 31
0.0
  0
ARC
  5
3F4B
330
1A
100
AcDbEntity
  8
ZUWAKU
100
AcDbCircle
 10
36.17697800484848
 20
7.674999868288687
 30
0.0
 40
0.5249999999999999
100
AcDbArc
 50
197.525568373723
 51
270.0
  0
ARC
  5
3F4C
330
1A
100
AcDbEntity
  8
ZUWAKU
100
AcDbCircle
 10
57.84221216833714
 20
9.949999868288685
 30
0.0
 40
2.8
100
AcDbArc
 50
180.0
 51
270.0
  0
ARC
  5
3F4D
330
1A
100
AcDbEntity
  8
ZUWAKU
100
AcDbCircle
 10
50.14221216833721
 20
9.949999868288685
 30
0.0
 40
2.8
100
AcDbArc
 50
270.0
 51
0.0
  0
LINE
  5
3F4E
330
1A
100
AcDbEntity
  8
ZUWAKU
100
AcDbLine
 10
51.71206064932073
 20
14.73505037462751
 30
0.0
 11
48.80226267467594
 21
17.64484834927219
 31
0.0
  0
LINE
  5
3F4F
330
1A
100
AcDbEntity
  8
ZUWAKU
100
AcDbLine
 10
50.14221216833721
 20
10.47499986828869
 30
0.0
 11
50.14221216833721
 21
11.76520189364403
 31
0.0
  0
ARC
  5
3F50
330
1A
100
AcDbEntity
  8
ZUWAKU
100
AcDbCircle
 10
48.74221216833712
 20
11.76520189364403
 30
0.0
 40
1.4
100
AcDbArc
 50
0.0
 51
45.0
  0
ARC
  5
3F51
330
1A
100
AcDbEntity
  8
ZUWAKU
100
AcDbCircle
 10
49.61721216833712
 20
10.47499986828869
 30
0.0
 40
0.5249999999999999
100
AcDbArc
 50
270.0
 51
0.0
  0
LINE
  5
3F52
330
1A
100
AcDbEntity
  8
ZUWAKU
100
AcDbLine
 10
46.11721216833712
 20
7.674999868288687
 30
0.0
 11
46.11721216833712
 21
9.424999868288687
 31
0.0
  0
ARC
  5
3F53
330
1A
100
AcDbEntity
  8
ZUWAKU
100
AcDbCircle
 10
46.64221216833721
 20
7.674999868288687
 30
0.0
 40
0.5249999999999999
100
AcDbArc
 50
180.0
 51
270.0
  0
ARC
  5
3F54
330
1A
100
AcDbEntity
  8
ZUWAKU
100
AcDbCircle
 10
42.96721216833714
 20
7.674999868288687
 30
0.0
 40
0.5249999999999999
100
AcDbArc
 50
270.0
 51
0.0
  0
ARC
  5
3F55
330
1A
100
AcDbEntity
  8
ZUWAKU
100
AcDbCircle
 10
46.64221216833721
 20
9.424999868288687
 30
0.0
 40
0.5249999999999999
100
AcDbArc
 50
90.0
 51
180.0
  0
LINE
  5
3F56
330
1A
100
AcDbEntity
  8
ZUWAKU
100
AcDbLine
 10
46.64221216833721
 20
9.949999868288685
 30
0.0
 11
49.61721216833712
 21
9.949999868288685
 31
0.0
  0
LINE
  5
3F57
330
1A
100
AcDbEntity
  8
ZUWAKU
100
AcDbLine
 10
46.64221216833721
 20
7.149999868288688
 30
0.0
 11
50.14221216833721
 21
7.149999868288688
 31
0.0
  0
LINE
  5
3F58
330
1A
100
AcDbEntity
  8
ZUWAKU
100
AcDbLine
 10
46.82236368735369
 20
15.66494936194987
 30
0.0
 11
49.73216166199836
 21
12.7551513873052
 31
0.0
  0
LINE
  5
3F59
330
1A
100
AcDbEntity
  8
ZUWAKU
100
AcDbLine
 10
52.94221216833716
 20
9.949999868288685
 30
0.0
 11
52.94221216833716
 21
11.76520189364403
 31
0.0
  0
ARC
  5
3F5A
330
1A
100
AcDbEntity
  8
ZUWAKU
100
AcDbCircle
 10
48.74221216833712
 20
11.76520189364399
 30
0.0
 40
4.199999999999999
100
AcDbArc
 50
0.0
 51
45.0
  0
ARC
  5
3F5B
330
1A
100
AcDbEntity
  8
ZUWAKU
100
AcDbCircle
 10
58.89221216833721
 20
10.99999986828868
 30
0.0
 40
1.05
100
AcDbArc
 50
180.0
 51
270.0
  0
ARC
  5
3F5C
330
1A
100
AcDbEntity
  8
ZUWAKU
100
AcDbCircle
 10
61.34221216833714
 20
9.949999868288685
 30
0.0
 40
2.8
100
AcDbArc
 50
270.0
 51
0.0
  0
LINE
  5
3F5D
330
1A
100
AcDbEntity
  8
ZUWAKU
100
AcDbLine
 10
66.76721216833721
 20
7.149999868288688
 30
0.0
 11
68.51721216833721
 21
7.149999868288688
 31
0.0
  0
ARC
  5
3F5E
330
1A
100
AcDbEntity
  8
ZUWAKU
100
AcDbCircle
 10
66.76721216833721
 20
7.674999868288687
 30
0.0
 40
0.5249999999999999
100
AcDbArc
 50
180.0
 51
270.0
  0
ARC
  5
3F5F
330
1A
100
AcDbEntity
  8
ZUWAKU
100
AcDbCircle
 10
60.29221216833719
 20
10.99999986828868
 30
0.0
 40
1.05
100
AcDbArc
 50
270.0
 51
0.0
  0
ARC
  5
3F60
330
1A
100
AcDbEntity
  8
ZUWAKU
100
AcDbCircle
 10
68.51721216833721
 20
7.674999868288687
 30
0.0
 40
0.5249999999999999
100
AcDbArc
 50
270.0
 51
0.0
  0
LINE
  5
3F61
330
1A
100
AcDbEntity
  8
ZUWAKU
100
AcDbLine
 10
42.96721216833714
 20
23.24999986828869
 30
0.0
 11
41.21721216833714
 21
23.24999986828869
 31
0.0
  0
ARC
  5
3F62
330
1A
100
AcDbEntity
  8
ZUWAKU
100
AcDbCircle
 10
32.11721216833712
 20
22.72499986828868
 30
0.0
 40
0.5249999999999999
100
AcDbArc
 50
0.0
 51
90.0
  0
LINE
  5
3F63
330
1A
100
AcDbEntity
  8
ZUWAKU
100
AcDbLine
 10
32.11721216833712
 20
23.24999986828869
 30
0.0
 11
30.36721216833712
 21
23.24999986828869
 31
0.0
  0
ARC
  5
3F64
330
1A
100
AcDbEntity
  8
ZUWAKU
100
AcDbCircle
 10
26.86721216833712
 20
22.72499986828868
 30
0.0
 40
0.5249999999999999
100
AcDbArc
 50
0.0
 51
90.0
  0
ARC
  5
3F65
330
1A
100
AcDbEntity
  8
ZUWAKU
100
AcDbCircle
 10
30.36721216833712
 20
22.72499986828868
 30
0.0
 40
0.5249999999999999
100
AcDbArc
 50
90.0
 51
180.0
  0
ARC
  5
3F66
330
1A
100
AcDbEntity
  8
ZUWAKU
100
AcDbCircle
 10
26.86721216833712
 20
20.97499986828868
 30
0.0
 40
0.5249999999999999
100
AcDbArc
 50
270.0
 51
0.0
  0
LINE
  5
3F67
330
1A
100
AcDbEntity
  8
ZUWAKU
100
AcDbLine
 10
27.39221216833721
 20
22.72499986828868
 30
0.0
 11
27.39221216833721
 21
20.97499986828868
 31
0.0
  0
ARC
  5
3F68
330
1A
100
AcDbEntity
  8
ZUWAKU
100
AcDbCircle
 10
41.21721216833714
 20
22.72499986828868
 30
0.0
 40
0.5249999999999999
100
AcDbArc
 50
90.0
 51
180.0
  0
LINE
  5
3F69
330
1A
100
AcDbEntity
  8
ZUWAKU
100
AcDbLine
 10
36.17697800484848
 20
23.24999986828869
 30
0.0
 11
37.87586738445748
 21
23.24999986828869
 31
0.0
  0
ARC
  5
3F6A
330
1A
100
AcDbEntity
  8
ZUWAKU
100
AcDbCircle
 10
37.87586738445748
 20
22.72499986828868
 30
0.0
 40
0.5249999999999999
100
AcDbArc
 50
342.474431626277
 51
90.0
  0
LINE
  5
3F6B
330
1A
100
AcDbEntity
  8
ZUWAKU
100
AcDbLine
 10
38.37649828365295
 20
22.56690590012172
 30
0.0
 11
37.31485865051513
 21
19.20504706185211
 31
0.0
  0
ARC
  5
3F6C
330
1A
100
AcDbEntity
  8
ZUWAKU
100
AcDbCircle
 10
36.17697800484848
 20
22.72499986828868
 30
0.0
 40
0.5249999999999999
100
AcDbArc
 50
90.0
 51
162.474431626277
  0
LINE
  5
3F6D
330
1A
100
AcDbEntity
  8
ZUWAKU
100
AcDbLine
 10
48.39221216833721
 20
23.24999986828869
 30
0.0
 11
51.89221216833721
 21
23.24999986828869
 31
0.0
  0
LINE
  5
3F6E
330
1A
100
AcDbEntity
  8
ZUWAKU
100
AcDbLine
 10
51.89221216833721
 20
20.44999986828869
 30
0.0
 11
48.91721216833719
 21
20.44999986828869
 31
0.0
  0
ARC
  5
3F6F
330
1A
100
AcDbEntity
  8
ZUWAKU
100
AcDbCircle
 10
48.91721216833719
 20
19.92499986828869
 30
0.0
 40
0.5249999999999999
100
AcDbArc
 50
90.0
 51
180.0
  0
LINE
  5
3F70
330
1A
100
AcDbEntity
  8
ZUWAKU
100
AcDbLine
 10
48.39221216833721
 20
19.92499986828869
 30
0.0
 11
48.39221216833721
 21
18.63479784293335
 31
0.0
  0
ARC
  5
3F71
330
1A
100
AcDbEntity
  8
ZUWAKU
100
AcDbCircle
 10
42.96721216833714
 20
22.72499986828868
 30
0.0
 40
0.5249999999999999
100
AcDbArc
 50
0.0
 51
90.0
  0
LINE
  5
3F72
330
1A
100
AcDbEntity
  8
ZUWAKU
100
AcDbLine
 10
45.59221216833714
 20
20.44999986828869
 30
0.0
 11
45.59221216833714
 21
18.63479784293335
 31
0.0
  0
ARC
  5
3F73
330
1A
100
AcDbEntity
  8
ZUWAKU
100
AcDbCircle
 10
48.39221216833721
 20
20.44999986828869
 30
0.0
 40
2.8
100
AcDbArc
 50
90.0
 51
180.0
  0
ARC
  5
3F74
330
1A
100
AcDbEntity
  8
ZUWAKU
100
AcDbCircle
 10
57.31721216833716
 20
22.72499986828868
 30
0.0
 40
0.5249999999999999
100
AcDbArc
 50
0.0
 51
90.0
  0
ARC
  5
3F75
330
1A
100
AcDbEntity
  8
ZUWAKU
100
AcDbCircle
 10
55.56721216833716
 20
22.72499986828868
 30
0.0
 40
0.5249999999999999
100
AcDbArc
 50
90.0
 51
180.0
  0
LINE
  5
3F76
330
1A
100
AcDbEntity
  8
ZUWAKU
100
AcDbLine
 10
57.31721216833716
 20
23.24999986828869
 30
0.0
 11
55.56721216833716
 21
23.24999986828869
 31
0.0
  0
ARC
  5
3F77
330
1A
100
AcDbEntity
  8
ZUWAKU
100
AcDbCircle
 10
51.89221216833721
 20
22.72499986828868
 30
0.0
 40
0.5249999999999999
100
AcDbArc
 50
0.0
 51
90.0
  0
ARC
  5
3F78
330
1A
100
AcDbEntity
  8
ZUWAKU
100
AcDbCircle
 10
51.89221216833721
 20
20.97499986828868
 30
0.0
 40
0.5249999999999999
100
AcDbArc
 50
270.0
 51
0.0
  0
LINE
  5
3F79
330
1A
100
AcDbEntity
  8
ZUWAKU
100
AcDbLine
 10
52.41721216833719
 20
22.72499986828868
 30
0.0
 11
52.41721216833719
 21
20.97499986828868
 31
0.0
  0
LINE
  5
3F7A
330
1A
100
AcDbEntity
  8
ZUWAKU
100
AcDbLine
 10
68.51721216833721
 20
23.24999986828869
 30
0.0
 11
66.76721216833721
 21
23.24999986828869
 31
0.0
  0
ARC
  5
3F7B
330
1A
100
AcDbEntity
  8
ZUWAKU
100
AcDbCircle
 10
66.76721216833721
 20
22.72499986828868
 30
0.0
 40
0.5249999999999999
100
AcDbArc
 50
90.0
 51
180.0
  0
ARC
  5
3F7C
330
1A
100
AcDbEntity
  8
ZUWAKU
100
AcDbCircle
 10
63.61721216833712
 20
22.72499986828868
 30
0.0
 40
0.5249999999999999
100
AcDbArc
 50
0.0
 51
90.0
  0
LINE
  5
3F7D
330
1A
100
AcDbEntity
  8
ZUWAKU
100
AcDbLine
 10
63.61721216833712
 20
23.24999986828869
 30
0.0
 11
61.86721216833712
 21
23.24999986828869
 31
0.0
  0
ARC
  5
3F7E
330
1A
100
AcDbEntity
  8
ZUWAKU
100
AcDbCircle
 10
61.86721216833712
 20
22.72499986828868
 30
0.0
 40
0.5249999999999999
100
AcDbArc
 50
90.0
 51
180.0
  0
ARC
  5
3F7F
330
1A
100
AcDbEntity
  8
ZUWAKU
100
AcDbCircle
 10
68.51721216833721
 20
22.72499986828868
 30
0.0
 40
0.5249999999999999
100
AcDbArc
 50
0.0
 51
90.0
  0
TEXT
  5
3F80
330
1A
100
AcDbEntity
  8
moji
100
AcDbText
 10
239.8272026944071
 20
18.00492092569607
 30
0.0
 40
5.6
  1
ステンレス金具上打Ⅱ型
 41
0.9
  7
ｽﾀｲﾙ1
100
AcDbText
  0
TEXT
  5
3F81
330
1A
100
AcDbEntity
  8
moji
100
AcDbText
 10
239.8272026944071
 20
3.204920925696104
 30
0.0
 40
5.6
  1
Σ９０－Ⅱ－４.０
 41
0.9
  7
ｽﾀｲﾙ1
100
AcDbText
  0
LINE
  5
3F82
330
1A
100
AcDbEntity
  8
ZUWAKU
100
AcDbLine
 10
208.246601303624
 20
29.99999986828868
 30
0.0
 11
208.246601303624
 21
0.7999998682887508
 31
0.0
  0
LINE
  5
3F83
330
1A
100
AcDbEntity
  8
ZUWAKU
100
AcDbLine
 10
208.6466013036238
 20
29.99999986828868
 30
0.0
 11
208.646601303624
 21
0.7999998682887508
 31
0.0
  0
LINE
  5
3F84
330
1A
100
AcDbEntity
  8
ZUWAKU
100
AcDbLine
 10
208.4466013036238
 20
29.99999986828868
 30
0.0
 11
208.446601303624
 21
0.7999998682887508
 31
0.0
  0
TEXT
  5
3F85
330
1A
100
AcDbEntity
  8
ZUWAKU
100
AcDbText
 10
209.7240463258336
 20
9.655356406674301
 30
0.0
 40
4.0
  1
サイズ
 41
0.9
  7
ｽﾀｲﾙ1
100
AcDbText
  0
TEXT
  5
3F86
330
1A
100
AcDbEntity
  8
ZUWAKU
100
AcDbText
 10
209.7240463258333
 20
24.05535640667426
 30
0.0
 40
4.0
  1
品名
 41
0.9
  7
ｽﾀｲﾙ1
100
AcDbText
  0
LINE
  5
3F87
330
1A
100
AcDbEntity
  8
ZUWAKU
100
AcDbLine
 10
648.8172025237602
 20
15.19999986828871
 30
0.0
 11
697.2490105620973
 21
15.19999986828872
 31
0.0
  0
LINE
  5
3F88
330
1A
100
AcDbEntity
  8
ZUWAKU
100
AcDbLine
 10
648.8172025237604
 20
15.39999986828872
 30
0.0
 11
697.2490105620973
 21
15.39999986828872
 31
0.0
  0
LINE
  5
3F89
330
1A
100
AcDbEntity
  8
ZUWAKU
100
AcDbLine
 10
648.8172025237602
 20
15.59999986828872
 30
0.0
 11
697.2490105620973
 21
15.59999986828872
 31
0.0
  0
TEXT
  5
3F8A
330
1A
100
AcDbEntity
  8
ZUWAKU
100
AcDbText
 10
658.2039377008584
 20
18.00492092569607
 30
0.0
 40
5.6
  1
　　．　　．　　
 41
0.9
  7
ｽﾀｲﾙ1
100
AcDbText
  0
LINE
  5
3F8B
330
1A
100
AcDbEntity
  8
ZUWAKU
100
AcDbLine
 10
505.1991795116969
 20
15.19999986828872
 30
0.0
 11
552.5269557796685
 21
15.19999986828872
 31
0.0
  0
LINE
  5
3F8C
330
1A
100
AcDbEntity
  8
ZUWAKU
100
AcDbLine
 10
505.1991795116969
 20
15.39999986828872
 30
0.0
 11
552.5269557796685
 21
15.39999986828872
 31
0.0
  0
LINE
  5
3F8D
330
1A
100
AcDbEntity
  8
ZUWAKU
100
AcDbLine
 10
505.1991795116969
 20
15.59999986828872
 30
0.0
 11
552.5269557796685
 21
15.59999986828872
 31
0.0
  0
TEXT
  5
3F8E
330
1A
100
AcDbEntity
  8
moji
100
AcDbText
 10
463.2464320045581
 20
11.94261758994867
 30
0.0
 40
5.6
  1
ＬＧ４３□
 41
0.9
  7
ｽﾀｲﾙ1
100
AcDbText
  0
LINE
  5
3F8F
330
1A
100
AcDbEntity
  8
ZUWAKU
100
AcDbLine
 10
447.6243639845472
 20
29.99999986828868
 30
0.0
 11
447.6243639845475
 21
0.7999998682887508
 31
0.0
  0
LINE
  5
3F90
330
1A
100
AcDbEntity
  8
ZUWAKU
100
AcDbLine
 10
447.8243639845473
 20
29.99999986828868
 30
0.0
 11
447.8243639845475
 21
0.7999998682887508
 31
0.0
  0
LINE
  5
3F91
330
1A
100
AcDbEntity
  8
ZUWAKU
100
AcDbLine
 10
447.4243639845474
 20
29.99999986828868
 30
0.0
 11
447.4243639845474
 21
0.7999998682887508
 31
0.0
  0
TEXT
  5
3F92
330
1A
100
AcDbEntity
  8
moji
100
AcDbText
 10
528.0409079858689
 20
18.00492092569607
 30
0.0
 40
5.6
  1
Ａ３
 41
0.9
  7
ｽﾀｲﾙ1
100
AcDbText
  0
LINE
  5
3F93
330
1A
100
AcDbEntity
  8
ZUWAKU
100
AcDbLine
 10
504.9991795116969
 20
29.99999986828868
 30
0.0
 11
504.9991795116971
 21
0.7999998682887508
 31
0.0
  0
LINE
  5
3F94
330
1A
100
AcDbEntity
  8
ZUWAKU
100
AcDbLine
 10
505.1991795116969
 20
29.99999986828868
 30
0.0
 11
505.1991795116971
 21
0.7999998682887508
 31
0.0
  0
LINE
  5
3F95
330
1A
100
AcDbEntity
  8
ZUWAKU
100
AcDbLine
 10
504.7991795116971
 20
29.99999986828868
 30
0.0
 11
504.7991795116971
 21
0.7999998682887508
 31
0.0
  0
TEXT
  5
3F97
330
1A
100
AcDbEntity
  8
ZUWAKU
100
AcDbText
 10
506.6766245339068
 20
9.655356406674301
 30
0.0
 40
4.0
  1
縮尺
 41
0.9
  7
ｽﾀｲﾙ1
100
AcDbText
  0
TEXT
  5
3F98
330
1A
100
AcDbEntity
  8
moji
100
AcDbText
 10
528.0409079858689
 20
3.204920925696104
 30
0.0
 40
5.6
  1
１/２
 41
0.9
  7
ｽﾀｲﾙ1
100
AcDbText
  0
TEXT
  5
3F99
330
1A
100
AcDbEntity
  8
ZUWAKU
100
AcDbText
 10
449.3018090067569
 20
24.05535640667426
 30
0.0
 40
4.0
  1
品番
 41
0.9
  7
ｽﾀｲﾙ1
100
AcDbText
  0
TEXT
  5
3F9A
330
1A
100
AcDbEntity
  8
ZUWAKU
100
AcDbText
 10
506.6766245339065
 20
24.05535640667426
 30
0.0
 40
4.0
  1
用紙
 41
0.9
  7
ｽﾀｲﾙ1
100
AcDbText
  0
LINE
  5
3F9B
330
1A
100
AcDbEntity
  8
ZUWAKU
100
AcDbLine
 10
648.6172025237604
 20
29.99999986828868
 30
0.0
 11
648.6172025237606
 21
0.7999998682887508
 31
0.0
  0
LINE
  5
3F9C
330
1A
100
AcDbEntity
  8
ZUWAKU
100
AcDbLine
 10
648.8172025237604
 20
29.99999986828868
 30
0.0
 11
648.8172025237607
 21
0.7999998682887508
 31
0.0
  0
LINE
  5
3F9D
330
1A
100
AcDbEntity
  8
ZUWAKU
100
AcDbLine
 10
648.4172025237606
 20
29.99999986828868
 30
0.0
 11
648.4172025237606
 21
0.7999998682887508
 31
0.0
  0
LINE
  5
3F9E
330
1A
100
AcDbEntity
  8
ZUWAKU
100
AcDbLine
 10
552.7269557796683
 20
29.99999986828868
 30
0.0
 11
552.7269557796685
 21
0.7999998682887508
 31
0.0
  0
LINE
  5
3F9F
330
1A
100
AcDbEntity
  8
ZUWAKU
100
AcDbLine
 10
552.9269557796683
 20
29.99999986828868
 30
0.0
 11
552.9269557796686
 21
0.7999998682887508
 31
0.0
  0
LINE
  5
3FA0
330
1A
100
AcDbEntity
  8
ZUWAKU
100
AcDbLine
 10
552.5269557796685
 20
29.99999986828868
 30
0.0
 11
552.5269557796685
 21
0.7999998682887508
 31
0.0
  0
TEXT
  5
3FA1
330
1A
100
AcDbEntity
  8
ZUWAKU
100
AcDbText
 10
650.2946475459701
 20
24.05535640667426
 30
0.0
 40
4.0
  1
DATE
 41
0.9
  7
ｽﾀｲﾙ1
100
AcDbText
  0
LINE
  5
3FA2
330
1A
100
AcDbEntity
  8
ZUWAKU
100
AcDbLine
 10
697.2490105620973
 20
29.99999986828868
 30
0.0
 11
697.2490105620973
 21
0.7999998682887508
 31
0.0
  0
LINE
  5
3FA3
330
1A
100
AcDbEntity
  8
ZUWAKU
100
AcDbLine
 10
697.4490105620973
 20
29.99999986828868
 30
0.0
 11
697.4490105620973
 21
0.7999998682887508
 31
0.0
  0
LINE
  5
3FA4
330
1A
100
AcDbEntity
  8
ZUWAKU
100
AcDbLine
 10
697.6490105620972
 20
29.99999986828868
 30
0.0
 11
697.6490105620974
 21
0.7999998682887508
 31
0.0
  0
LINE
  5
3FA5
330
1A
100
AcDbEntity
  8
ZUWAKU
100
AcDbLine
 10
697.8490105620972
 20
29.99999986828868
 30
0.0
 11
697.8490105620974
 21
0.7999998682887508
 31
0.0
  0
TEXT
  5
3FA6
330
1A
100
AcDbEntity
  8
ZUWAKU
100
AcDbText
 10
708.5280842057998
 20
17.55383920397549
 30
0.0
 40
6.0
  1
積水化学工業株式会社
 41
0.9
  7
ｽﾀｲﾙ1
100
AcDbText
  0
TEXT
  5
3FA7
330
1A
100
AcDbEntity
  8
ZUWAKU
100
AcDbText
 10
708.5280842057998
 20
6.648840182142749
 30
0.0
 40
6.0
  1
建材事業部
 41
0.9
  7
ｽﾀｲﾙ1
100
AcDbText
  0
TEXT
  5
6DB4
330
1A
100
AcDbEntity
  8
ZUWAKU
100
AcDbText
 10
462.1716760137121
 20
2.614070779428175
 30
0.0
 40
3.0
  1
□には色品番が入ります
 41
0.9
  7
ｽﾀｲﾙ1
100
AcDbText
  0
LINE
  5
A26A
330
1A
100
AcDbEntity
  8
SEIHIN
  6
Continuous
 62
     3
 48
5.0
100
AcDbLine
 10
435.0443618626982
 20
477.9265696707612
 30
0.0
 11
376.9822618626981
 21
477.9265696707612
 31
0.0
  0
LINE
  5
A26B
330
1A
100
AcDbEntity
  8
SEIHIN
  6
Continuous
 62
     3
 48
5.0
100
AcDbLine
 10
435.0441618626981
 20
485.9265696707612
 30
0.0
 11
377.106761862698
 21
485.9265696707612
 31
0.0
  0
LINE
  5
A26C
330
1A
100
AcDbEntity
  8
SEIHIN
  6
Continuous
 62
     3
 48
5.0
100
AcDbLine
 10
582.1757618626982
 20
472.426569670761
 30
0.0
 11
329.6441618626982
 21
472.426569670761
 31
0.0
  0
LINE
  5
A26D
330
1A
100
AcDbEntity
  8
SEIHIN
  6
Continuous
 62
     3
 48
5.0
100
AcDbLine
 10
329.6441618626982
 20
491.426569670761
 30
0.0
 11
582.1757618626982
 21
491.426569670761
 31
0.0
  0
LINE
  5
A26E
330
1A
100
AcDbEntity
  8
SEIHIN
  6
Continuous
 62
     3
 48
5.0
100
AcDbLine
 10
392.9821618626982
 20
99.84974427897259
 30
0.0
 11
454.5338618626982
 21
99.84974427897259
 31
0.0
  0
LINE
  5
A26F
330
1A
100
AcDbEntity
  8
SEIHIN
  6
Continuous
 62
     3
 48
5.0
100
AcDbLine
 10
454.5076618626981
 20
102.3497442789726
 30
0.0
 11
365.4167618626982
 21
102.3497442789726
 31
0.0
  0
LINE
  5
A270
330
1A
100
AcDbEntity
  8
SEIHIN
  6
Continuous
 62
     3
 48
5.0
100
AcDbLine
 10
365.4167618626982
 20
104.3497442789726
 30
0.0
 11
454.5076618626981
 21
104.3497442789726
 31
0.0
  0
LINE
  5
A271
330
1A
100
AcDbEntity
  8
SEIHIN
  6
Continuous
 62
     3
 48
5.0
100
AcDbLine
 10
450.5076618626981
 20
104.3497442789726
 30
0.0
 11
422.7269618626982
 21
104.3497442789726
 31
0.0
  0
LINE
  5
A272
330
1A
100
AcDbEntity
  8
CENTER L
  6
CENTER
 62
     1
 48
5.0
100
AcDbLine
 10
591.588861862698
 20
481.9265696707612
 30
0.0
 11
314.3989618626981
 21
481.9265696707612
 31
0.0
  0
DIMENSION
  5
A273
330
1A
100
AcDbEntity
  8
SUNPOU
 48
5.0
100
AcDbDimension
  2
*D1
 10
420.2475667126513
 20
292.3411758787829
 30
0.0
 11
493.8303389003534
 21
327.1570859204647
 31
0.0
 70
    33
 71
     5
 42
162.5001163674385
  3
STANDARD
100
AcDbAlignedDimension
 13
581.2460081616571
 23
327.3880442789728
 33
0.0
 14
430.36680780782
 24
267.0410914145763
 34
0.0
1001
ACAD
1000
DSTYLE
1002
{
1070
   140
1040
6.0
1070
    74
1070
     0
1070
   172
1070
     1
1070
    73
1070
     0
1070
   272
1070
     2
1070
    77
1070
     3
1070
   173
1070
     1
1070
   147
1040
2.0
1070
    42
1040
6.0
1070
    44
1040
3.0
1070
    43
1040
14.0
1070
   271
1070
     0
1070
   178
1070
     4
1070
   177
1070
     4
1070
   176
1070
     4
1070
   141
1040
150.0
1070
     7
1000
_OPEN
1070
     6
1000
_OPEN
1070
    41
1040
7.0
1002
}
  0
DIMENSION
  5
A274
330
1A
100
AcDbEntity
  8
SUNPOU
 48
5.0
100
AcDbDimension
  2
*D2
 10
582.1757618626982
 20
450.0833208023477
 30
0.0
 11
455.9099618626982
 21
455.0833208023477
 31
0.0
 70
    32
 71
     5
 42
252.5316
  3
STANDARD
100
AcDbAlignedDimension
 13
329.6441618626982
 23
472.426569670761
 33
0.0
 14
582.1757618626982
 24
472.426569670761
 34
0.0
100
AcDbRotatedDimension
1001
ACAD
1000
DSTYLE
1002
{
1070
   140
1040
6.0
1070
    74
1070
     0
1070
   172
1070
     1
1070
    73
1070
     0
1070
   272
1070
     2
1070
    77
1070
     3
1070
   173
1070
     1
1070
   147
1040
2.0
1070
    42
1040
6.0
1070
    44
1040
3.0
1070
    43
1040
14.0
1070
   271
1070
     0
1070
   178
1070
     4
1070
   177
1070
     4
1070
   176
1070
     4
1070
   141
1040
150.0
1070
     7
1000
_OPEN
1070
     6
1000
_OPEN
1070
    41
1040
7.0
1002
}
  0
DIMENSION
  5
A275
330
1A
100
AcDbEntity
  8
SUNPOU
 48
5.0
100
AcDbDimension
  2
*D3
 10
456.8801001171371
 20
67.40179082263407
 30
0.0
 11
410.0617940751873
 21
72.40179082263407
 31
0.0
 70
    32
 71
     5
 42
93.63661208389959
  3
STANDARD
100
AcDbAlignedDimension
 13
363.2434880332375
 23
102.3497442789726
 33
0.0
 14
456.8801001171371
 24
102.3497442789726
 34
0.0
100
AcDbRotatedDimension
1001
ACAD
1000
DSTYLE
1002
{
1070
   140
1040
6.0
1070
    74
1070
     0
1070
   172
1070
     1
1070
    73
1070
     0
1070
   272
1070
     2
1070
    77
1070
     3
1070
   173
1070
     1
1070
   147
1040
2.0
1070
    42
1040
6.0
1070
    44
1040
3.0
1070
    43
1040
14.0
1070
   271
1070
     0
1070
   178
1070
     4
1070
   177
1070
     4
1070
   176
1070
     4
1070
   141
1040
150.0
1070
     7
1000
_OPEN
1070
     6
1000
_OPEN
1070
    41
1040
7.0
1002
}
  0
DIMENSION
  5
A276
330
1A
100
AcDbEntity
  8
SUNPOU
 48
5.0
100
AcDbDimension
  2
*D4
 10
468.8622081616572
 20
205.0645707003351
 30
0.0
 11
399.2531350121777
 21
210.0645707003351
 31
0.0
 70
    32
 71
     5
 42
139.218146298959
  3
STANDARD
100
AcDbAlignedDimension
 13
329.6440618626982
 23
183.9059442789726
 33
0.0
 14
468.8622081616572
 24
181.7792442789726
 34
0.0
100
AcDbRotatedDimension
1001
ACAD
1000
DSTYLE
1002
{
1070
   140
1040
6.0
1070
    74
1070
     0
1070
   172
1070
     1
1070
    73
1070
     0
1070
   272
1070
     2
1070
    77
1070
     3
1070
   173
1070
     1
1070
   147
1040
2.0
1070
    42
1040
6.0
1070
    44
1040
3.0
1070
    43
1040
14.0
1070
   271
1070
     0
1070
   178
1070
     4
1070
   177
1070
     4
1070
   176
1070
     4
1070
   141
1040
150.0
1070
     7
1000
_OPEN
1070
     6
1000
_OPEN
1070
    41
1040
7.0
1002
}
  0
LINE
  5
A277
330
1A
100
AcDbEntity
  8
SEIHIN
  6
Continuous
 62
     3
 48
5.0
100
AcDbLine
 10
195.4826108842879
 20
327.3880942806309
 30
0.0
 11
195.4823700100838
 21
102.3500442789725
 31
0.0
  0
LINE
  5
A278
330
1A
100
AcDbEntity
  8
SEIHIN
  6
Continuous
 62
     3
 48
5.0
100
AcDbLine
 10
214.4826108842878
 20
327.3879942806309
 30
0.0
 11
214.4823700100619
 21
102.3500442789725
 31
0.0
  0
LINE
  5
A279
330
1A
100
AcDbEntity
  8
CENTER L
  6
CENTER
 62
     1
 48
5.0
100
AcDbLine
 10
204.9830032497848
 20
334.3880442789728
 30
0.0
 11
204.9820618626982
 21
93.1565442789726
 31
0.0
  0
ELLIPSE
  5
A27A
330
1A
100
AcDbEntity
  8
SEIHIN
 48
5.0
100
AcDbEllipse
 10
204.9829614406697
 20
286.5377936926981
 30
0.0
 11
2.100000000015996
 21
0.0
 31
0.0
210
0.0
220
0.0
230
1.0
 40
0.3714917908341883
 41
0.0
 42
6.283185307179586
  0
LINE
  5
A27B
330
1A
100
AcDbEntity
  8
CENTER L
  6
CENTER
 62
     1
 48
5.0
100
AcDbLine
 10
409.9821618626982
 20
94.89854427897259
 30
0.0
 11
409.9821618626982
 21
116.4488442789725
 31
0.0
  0
LINE
  5
A27C
330
1A
100
AcDbEntity
  8
SEIHIN
  6
Continuous
 62
     3
 48
5.0
100
AcDbLine
 10
364.9216618626982
 20
104.7801442789726
 30
0.0
 11
363.2650618626981
 21
116.5673442789726
 31
0.0
  0
LINE
  5
A27D
330
1A
100
AcDbEntity
  8
SEIHIN
  6
Continuous
 62
     3
 48
5.0
100
AcDbLine
 10
362.9410618626981
 20
104.5017442789725
 30
0.0
 11
361.2845618626982
 21
116.2890442789726
 31
0.0
  0
DIMENSION
  5
A27E
330
1A
100
AcDbEntity
  8
SUNPOU
 48
5.0
100
AcDbDimension
  2
*D5
 10
299.2427917717901
 20
183.9059442789726
 30
0.0
 11
294.2427917717901
 21
143.1278442789726
 31
0.0
 70
    32
 71
     5
 42
81.55619999999996
  3
STANDARD
100
AcDbAlignedDimension
 13
365.4167618626982
 23
102.3497442789726
 33
0.0
 14
329.6440618626982
 24
183.9059442789726
 34
0.0
 50
90.0
100
AcDbRotatedDimension
1001
ACAD
1000
DSTYLE
1002
{
1070
   140
1040
6.0
1070
    74
1070
     0
1070
   172
1070
     1
1070
    73
1070
     0
1070
   272
1070
     2
1070
    77
1070
     3
1070
   173
1070
     1
1070
   147
1040
2.0
1070
    42
1040
6.0
1070
    44
1040
3.0
1070
    43
1040
14.0
1070
   271
1070
     0
1070
   178
1070
     4
1070
   177
1070
     4
1070
   176
1070
     4
1070
   141
1040
150.0
1070
     7
1000
_OPEN
1070
     6
1000
_OPEN
1070
    41
1040
7.0
1002
}
  0
LINE
  5
A27F
330
1A
100
AcDbEntity
  8
SEIHIN
  6
Continuous
 62
     3
 48
5.0
100
AcDbLine
 10
214.4823618626981
 20
102.3500442789725
 30
0.0
 11
195.4823618626981
 21
102.3500442789725
 31
0.0
  0
ARC
  5
A280
330
1A
100
AcDbEntity
  8
SEIHIN
  6
Continuous
 62
     3
 48
5.0
100
AcDbCircle
 10
204.9820618626982
 20
106.3005442789726
 30
0.0
 40
6.450101190679037
100
AcDbArc
 50
219.8153522359842
 51
320.1846477640158
  0
ARC
  5
A281
330
1A
100
AcDbEntity
  8
SEIHIN
  6
Continuous
 62
     3
 48
5.0
100
AcDbCircle
 10
199.6435584678582
 20
101.8503458689775
 30
0.0
 40
0.4999984100065063
100
AcDbArc
 50
39.80664927492407
 51
89.9996109787598
  0
ARC
  5
A282
330
1A
100
AcDbEntity
  8
SEIHIN
  6
Continuous
 62
     3
 48
5.0
100
AcDbCircle
 10
210.320747277604
 20
101.8503842771722
 30
0.0
 40
0.4999600090966218
100
AcDbArc
 50
90.00978861017563
 51
140.195412941795
  0
LINE
  5
A283
330
1A
100
AcDbEntity
  8
SEIHIN
  6
Continuous
 62
     3
 48
5.0
100
AcDbLine
 10
378.5740618626982
 20
100.3843442789725
 30
0.0
 11
392.9821618626982
 21
99.84974427897259
 31
0.0
  0
ARC
  5
A284
330
1A
100
AcDbEntity
  8
SEIHIN
  6
Continuous
 62
     3
 48
5.0
100
AcDbCircle
 10
378.9448868734124
 20
110.3775706349553
 30
0.0
 40
10.00000427775941
100
AcDbArc
 50
233.3966191320849
 51
267.8748428594124
  0
ARC
  5
A285
330
1A
100
AcDbEntity
  8
SEIHIN
  6
Continuous
 62
     3
 48
5.0
100
AcDbCircle
 10
365.4167394887926
 20
104.8497637278213
 30
0.0
 40
2.500019448948842
100
AcDbArc
 50
188.0019438082545
 51
270.0005127681537
  0
ARC
  5
A286
330
1A
100
AcDbEntity
  8
SEIHIN
  6
Continuous
 62
     3
 48
5.0
100
AcDbCircle
 10
365.4167801720619
 20
104.849728363466
 30
0.0
 40
0.4999840848286325
100
AcDbArc
 50
187.999970951278
 51
269.997901834683
  0
DIMENSION
  5
A287
330
1A
100
AcDbEntity
  8
SUNPOU
 48
5.0
100
AcDbDimension
  2
*D6
 10
299.2427917717901
 20
218.4819442789726
 30
0.0
 11
294.2427917717901
 21
201.1939415791679
 31
0.0
 70
    32
 71
     5
 42
34.57600539960944
  3
STANDARD
100
AcDbAlignedDimension
 13
329.6440234506061
 23
183.9059388793631
 33
0.0
 14
324.1787618626981
 24
218.4819442789726
 34
0.0
 50
90.0
100
AcDbRotatedDimension
1001
ACAD
1000
DSTYLE
1002
{
1070
   140
1040
6.0
1070
    74
1070
     0
1070
   172
1070
     1
1070
    73
1070
     0
1070
   272
1070
     2
1070
    77
1070
     3
1070
   173
1070
     1
1070
   147
1040
2.0
1070
    42
1040
6.0
1070
    44
1040
3.0
1070
    43
1040
14.0
1070
   271
1070
     0
1070
   178
1070
     4
1070
   177
1070
     4
1070
   176
1070
     4
1070
   141
1040
150.0
1070
     7
1000
_OPEN
1070
     6
1000
_OPEN
1070
    41
1040
7.0
1002
}
  0
LINE
  5
A288
330
1A
100
AcDbEntity
  8
SEIHIN
  6
Continuous
 62
     3
 48
5.0
100
AcDbLine
 10
197.9825618626981
 20
216.5673442789725
 30
0.0
 11
197.9824618626981
 21
183.9065442789726
 31
0.0
  0
LINE
  5
A289
330
1A
100
AcDbEntity
  8
SEIHIN
  6
Continuous
 62
     3
 48
5.0
100
AcDbLine
 10
211.9825618626982
 20
216.6839442789726
 30
0.0
 11
211.9823618626981
 21
183.9064442789725
 31
0.0
  0
LINE
  5
A28A
330
1A
100
AcDbEntity
  8
SEIHIN
  6
Continuous
 62
     3
 48
5.0
100
AcDbLine
 10
214.4823618626981
 20
116.5372442789725
 30
0.0
 11
195.4823618626981
 21
116.5373442789726
 31
0.0
  0
ARC
  5
A28B
330
1A
100
AcDbEntity
  8
SEIHIN
  6
Continuous
 62
     3
 48
5.0
100
AcDbCircle
 10
198.4823914965721
 20
180.9484793421264
 30
0.0
 40
3.000029634078846
100
AcDbArc
 50
99.59454654979538
 51
180.0006696502948
  0
LINE
  5
A28C
330
1A
100
AcDbEntity
  8
SEIHIN
  6
Continuous
 62
     3
 48
5.0
100
AcDbLine
 10
204.9822618626982
 20
169.0112442789726
 30
0.0
 11
212.4822618626982
 21
169.0111442789726
 31
0.0
  0
LINE
  5
A28D
330
1A
100
AcDbEntity
  8
SEIHIN
  6
Continuous
 62
     3
 48
5.0
100
AcDbLine
 10
214.4822618626982
 20
165.3921442789726
 30
0.0
 11
195.4822618626982
 21
165.3922442789725
 31
0.0
  0
LINE
  5
A28E
330
1A
100
AcDbEntity
  8
SEIHIN
  6
Continuous
 62
     3
 48
5.0
100
AcDbLine
 10
204.9823618626981
 20
169.0111442789726
 30
0.0
 11
197.4822618626982
 21
169.0111442789726
 31
0.0
  0
ARC
  5
A28F
330
1A
100
AcDbEntity
  8
SEIHIN
  6
Continuous
 62
     3
 48
5.0
100
AcDbCircle
 10
197.4822618626982
 20
171.0111442789726
 30
0.0
 40
2.0
100
AcDbArc
 50
180.0
 51
270.0
  0
LINE
  5
A290
330
1A
100
AcDbEntity
  8
CENTER L
  6
CENTER
 62
     1
 48
5.0
100
AcDbLine
 10
202.4046618626981
 20
176.3401442789725
 30
0.0
 11
207.8379618626981
 21
176.3401442789725
 31
0.0
  0
ARC
  5
A291
330
1A
100
AcDbEntity
  8
SEIHIN
  6
Continuous
 62
     3
 48
5.0
100
AcDbCircle
 10
204.9825618626982
 20
176.3401442789725
 30
0.0
 40
1.599999999999966
100
AcDbArc
 50
0.0
 51
180.0
  0
ARC
  5
A292
330
1A
100
AcDbEntity
  8
SEIHIN
  6
Continuous
 62
     3
 48
5.0
100
AcDbCircle
 10
204.9825618626982
 20
176.3401442789725
 30
0.0
 40
1.500000000000028
100
AcDbArc
 50
0.0
 51
180.0
  0
ARC
  5
A293
330
1A
100
AcDbEntity
  8
SEIHIN
  6
Continuous
 62
     3
 48
5.0
100
AcDbCircle
 10
204.9825618626982
 20
176.3401442789725
 30
0.0
 40
1.599999999999966
100
AcDbArc
 50
180.0
 51
0.0
  0
ARC
  5
A294
330
1A
100
AcDbEntity
  8
SEIHIN
  6
Continuous
 62
     3
 48
5.0
100
AcDbCircle
 10
204.9825618626982
 20
176.3401442789725
 30
0.0
 40
1.500000000000028
100
AcDbArc
 50
180.0
 51
0.0
  0
ARC
  5
A295
330
1A
100
AcDbEntity
  8
SEIHIN
  6
Continuous
 62
     3
 48
5.0
100
AcDbCircle
 10
212.4822618626982
 20
171.0111442789726
 30
0.0
 40
2.0
100
AcDbArc
 50
270.0
 51
0.0
  0
ARC
  5
A296
330
1A
100
AcDbEntity
  8
SEIHIN
  6
Continuous
 62
     3
 48
5.0
100
AcDbCircle
 10
211.4823898618552
 20
180.9484111498331
 30
0.0
 40
2.99997200158818
100
AcDbArc
 50
359.9987228487207
 51
80.40832068189441
  0
ARC
  5
A297
330
1A
100
AcDbEntity
  8
SEIHIN
  6
Continuous
 62
     3
 48
5.0
100
AcDbCircle
 10
209.9825618626981
 20
216.5658442789726
 30
0.0
 40
2.000000000000071
100
AcDbArc
 50
359.9999999999992
 51
90.0
  0
ARC
  5
A298
330
1A
100
AcDbEntity
  8
SEIHIN
  6
Continuous
 62
     3
 48
5.0
100
AcDbCircle
 10
209.9825618626982
 20
216.4824442789726
 30
0.0
 40
2.000000000000028
100
AcDbArc
 50
0.0000000000008142
 51
90.0
  0
LINE
  5
A299
330
1A
100
AcDbEntity
  8
SEIHIN
  6
Continuous
 62
     3
 48
5.0
100
AcDbLine
 10
199.9825618626981
 20
218.5659442789726
 30
0.0
 11
204.9825618626981
 21
218.5659442789726
 31
0.0
  0
LINE
  5
A29A
330
1A
100
AcDbEntity
  8
SEIHIN
  6
Continuous
 62
     3
 48
5.0
100
AcDbLine
 10
199.9825618626981
 20
218.4824442789726
 30
0.0
 11
204.9825618626981
 21
218.4824442789726
 31
0.0
  0
ARC
  5
A29B
330
1A
100
AcDbEntity
  8
SEIHIN
  6
Continuous
 62
     3
 48
5.0
100
AcDbCircle
 10
199.9825618626981
 20
216.5659442789726
 30
0.0
 40
2.0
100
AcDbArc
 50
90.0
 51
180.0
  0
ARC
  5
A29C
330
1A
100
AcDbEntity
  8
SEIHIN
  6
Continuous
 62
     3
 48
5.0
100
AcDbCircle
 10
199.9825618626981
 20
216.4824442789726
 30
0.0
 40
2.0
100
AcDbArc
 50
90.0
 51
180.0
  0
LINE
  5
A29D
330
1A
100
AcDbEntity
  8
SEIHIN
  6
Continuous
 62
     3
 48
5.0
100
AcDbLine
 10
209.9825618626981
 20
218.5658442789727
 30
0.0
 11
204.9825618626981
 21
218.5659442789726
 31
0.0
  0
LINE
  5
A29E
330
1A
100
AcDbEntity
  8
SEIHIN
  6
Continuous
 62
     3
 48
5.0
100
AcDbLine
 10
209.9825618626981
 20
218.4824442789726
 30
0.0
 11
204.9825618626981
 21
218.4824442789726
 31
0.0
  0
LINE
  5
A29F
330
1A
100
AcDbEntity
  8
SEIHIN
  6
Continuous
 62
     3
 48
5.0
100
AcDbLine
 10
209.9829108842878
 20
256.752794280631
 30
0.0
 11
209.9829108842878
 21
282.036694280631
 31
0.0
  0
LINE
  5
A2A0
330
1A
100
AcDbEntity
  8
SEIHIN
  6
Continuous
 62
     3
 48
5.0
100
AcDbLine
 10
199.9829108842878
 20
256.752794280631
 30
0.0
 11
199.9829108842878
 21
282.0368942806308
 31
0.0
  0
LINE
  5
A2A1
330
1A
100
AcDbEntity
  8
SEIHIN
  6
Continuous
 62
     3
 48
5.0
100
AcDbLine
 10
214.4826108842878
 20
267.0405942806309
 30
0.0
 11
209.9830108842879
 21
267.0405942806309
 31
0.0
  0
LINE
  5
A2A2
330
1A
100
AcDbEntity
  8
SEIHIN
  6
Continuous
 62
     3
 48
5.0
100
AcDbLine
 10
209.9829108842878
 20
268.4331942806309
 30
0.0
 11
199.9829108842878
 21
268.4331942806309
 31
0.0
  0
LINE
  5
A2A3
330
1A
100
AcDbEntity
  8
SEIHIN
  6
Continuous
 62
     3
 48
5.0
100
AcDbLine
 10
199.9830108842879
 20
267.0405942806309
 30
0.0
 11
195.4826108842879
 21
267.0405942806309
 31
0.0
  0
ARC
  5
A2A4
330
1A
100
AcDbEntity
  8
SEIHIN
  6
Continuous
 62
     3
 48
5.0
100
AcDbCircle
 10
204.9827108842878
 20
274.4536942806309
 30
0.0
 40
9.083110095666596
100
AcDbArc
 50
56.59982748370584
 51
123.4001725162942
  0
LINE
  5
A2A5
330
1A
100
AcDbEntity
  8
SEIHIN
  6
Continuous
 62
     3
 48
5.0
100
AcDbLine
 10
331.1374618626982
 20
168.9685442789725
 30
0.0
 11
324.1787618626981
 21
218.4819442789726
 31
0.0
  0
LINE
  5
A2A6
330
1A
100
AcDbEntity
  8
SEIHIN
  6
Continuous
 62
     3
 48
5.0
100
AcDbLine
 10
324.7729618626982
 20
218.5654442789725
 30
0.0
 11
331.9494618626981
 21
167.5018442789725
 31
0.0
  0
ARC
  5
A2A7
330
1A
100
AcDbEntity
  8
SEIHIN
  6
Continuous
 62
     3
 48
5.0
100
AcDbCircle
 10
370.5311193249557
 20
133.6866063447998
 30
0.0
 40
19.50004188081199
100
AcDbArc
 50
188.0002396492348
 51
240.8509022794923
  0
ARC
  5
A2A8
330
1A
100
AcDbEntity
  8
SEIHIN
  6
Continuous
 62
     3
 48
5.0
100
AcDbCircle
 10
370.5311909739552
 20
133.6865018031459
 30
0.0
 40
17.5000275548812
100
AcDbArc
 50
187.9997501245075
 51
240.8503529624012
  0
DIMENSION
  5
A2A9
330
1A
100
AcDbEntity
  8
SUNPOU
 48
5.0
100
AcDbDimension
  2
*D7
 10
349.750421109664
 20
141.4354763020837
 30
0.0
 11
325.4888488258716
 21
138.0257680567471
 31
0.0
 70
   161
  1
t<>
 71
     5
 42
2.000070728218645
  3
STANDARD
100
AcDbAlignedDimension
 13
353.2014684155706
 23
131.2509976525752
 33
0.0
 14
351.2208618626982
 24
130.9726442789726
 34
0.0
1001
ACAD
1000
DSTYLE
1002
{
1070
   288
1070
     1
1070
   140
1040
6.0
1070
    74
1070
     0
1070
   172
1070
     1
1070
    73
1070
     0
1070
   272
1070
     2
1070
    77
1070
     3
1070
   173
1070
     1
1070
   147
1040
2.0
1070
    42
1040
6.0
1070
    44
1040
3.0
1070
    43
1040
14.0
1070
   271
1070
     1
1070
   178
1070
     4
1070
   177
1070
     4
1070
   176
1070
     4
1070
   141
1040
150.0
1070
     7
1000
_OPEN
1070
     6
1000
_OPEN
1070
    41
1040
7.0
1002
}
  0
ARC
  5
A2AA
330
1A
100
AcDbEntity
  8
SEIHIN
  6
Continuous
 62
     3
 48
5.0
100
AcDbCircle
 10
339.4351946624908
 20
157.349715766574
 30
0.0
 40
8.000028512465706
100
AcDbArc
 50
8.000287387999338
 51
90.00023491037456
  0
ARC
  5
A2AB
330
1A
100
AcDbEntity
  8
SEIHIN
  6
Continuous
 62
     3
 48
5.0
100
AcDbCircle
 10
339.435170380566
 20
157.3497368744779
 30
0.0
 40
10.00000740449819
100
AcDbArc
 50
7.999857461287665
 51
90.0000488037517
  0
LINE
  5
A2AC
330
1A
100
AcDbEntity
  8
SEIHIN
  6
Continuous
 62
     3
 48
5.0
100
AcDbLine
 10
353.2014618626982
 20
131.2510442789725
 30
0.0
 11
349.3379618626981
 21
158.7414442789726
 31
0.0
  0
LINE
  5
A2AD
330
1A
100
AcDbEntity
  8
SEIHIN
  6
Continuous
 62
     3
 48
5.0
100
AcDbLine
 10
351.2208618626982
 20
130.9726442789726
 30
0.0
 11
347.3573618626982
 21
158.4631442789725
 31
0.0
  0
LINE
  5
A2AE
330
1A
100
AcDbEntity
  8
SEIHIN
  6
Continuous
 62
     3
 48
5.0
100
AcDbLine
 10
333.9299618626981
 20
167.7801442789726
 30
0.0
 11
331.6245618626982
 21
184.1843442789725
 31
0.0
  0
LINE
  5
A2AF
330
1A
100
AcDbEntity
  8
SEIHIN
  6
Continuous
 62
     3
 48
5.0
100
AcDbLine
 10
334.4250618626982
 20
165.3497442789725
 30
0.0
 11
339.4351618626981
 21
165.3497442789725
 31
0.0
  0
LINE
  5
A2B0
330
1A
100
AcDbEntity
  8
SEIHIN
  6
Continuous
 62
     3
 48
5.0
100
AcDbLine
 10
334.4250618626982
 20
167.3497442789725
 30
0.0
 11
339.4351618626981
 21
167.3497442789725
 31
0.0
  0
ARC
  5
A2B1
330
1A
100
AcDbEntity
  8
SEIHIN
  6
Continuous
 62
     3
 48
5.0
100
AcDbCircle
 10
334.4251044530284
 20
167.8497072554243
 30
0.0
 40
2.499962976814593
100
AcDbArc
 50
187.99850436807
 51
269.9990238870753
  0
ARC
  5
A2B2
330
1A
100
AcDbEntity
  8
SEIHIN
  6
Continuous
 62
     3
 48
5.0
100
AcDbCircle
 10
334.4250801720619
 20
167.849728363466
 30
0.0
 40
0.499984084828762
100
AcDbArc
 50
187.9999709512847
 51
269.9979018346896
  0
LINE
  5
A2B3
330
1A
100
AcDbEntity
  8
SEIHIN
  6
Continuous
 62
     3
 48
5.0
100
AcDbLine
 10
331.7317618626981
 20
169.0521442789726
 30
0.0
 11
331.1374618626982
 21
168.9685442789725
 31
0.0
  0
LINE
  5
A2B4
330
1A
100
AcDbEntity
  8
SEIHIN
  6
Continuous
 62
     3
 48
5.0
100
AcDbLine
 10
329.4887618626982
 20
177.8252442789726
 30
0.0
 11
329.8848618626981
 21
177.8809442789726
 31
0.0
  0
LINE
  5
A2B5
330
1A
100
AcDbEntity
  8
SEIHIN
  6
Continuous
 62
     3
 48
5.0
100
AcDbLine
 10
331.6245618626982
 20
184.1843442789725
 30
0.0
 11
329.6440618626982
 21
183.9059442789726
 31
0.0
  0
LINE
  5
A2B6
330
1A
100
AcDbEntity
  8
SEIHIN
  6
Continuous
 62
     3
 48
5.0
100
AcDbLine
 10
329.9062618626982
 20
174.8545442789726
 30
0.0
 11
330.3023618626981
 21
174.9101442789726
 31
0.0
  0
LINE
  5
A2B7
330
1A
100
AcDbEntity
  8
SEIHIN
  6
Continuous
 62
     3
 48
5.0
100
AcDbLine
 10
329.9062618626982
 20
174.8545442789726
 30
0.0
 11
329.4887618626982
 21
177.8252442789726
 31
0.0
  0
ARC
  5
A2B8
330
1A
100
AcDbEntity
  8
SEIHIN
  6
Continuous
 62
     3
 48
5.0
100
AcDbCircle
 10
360.7893741520583
 20
116.2194263465372
 30
0.0
 40
0.5000575219765852
100
AcDbArc
 50
8.002704766456647
 51
60.8485779481512
  0
ARC
  5
A2B9
330
1A
100
AcDbEntity
  8
SEIHIN
  6
Continuous
 62
     3
 48
5.0
100
AcDbCircle
 10
360.7893740636984
 20
116.2194264766617
 30
0.0
 40
2.500015375008842
100
AcDbArc
 50
7.999604482319382
 51
60.85167823227337
  0
LINE
  5
A2BA
330
1A
100
AcDbEntity
  8
SEIHIN
  6
Continuous
 62
     3
 48
5.0
100
AcDbLine
 10
324.1784618626982
 20
218.4819442789726
 30
0.0
 11
324.7727618626982
 21
218.5654442789725
 31
0.0
  0
ELLIPSE
  5
A2BB
330
1A
100
AcDbEntity
  8
SEIHIN
 48
5.0
100
AcDbEllipse
 10
204.9829614406697
 20
323.674411518215
 30
0.0
 11
2.100000000015996
 21
0.0
 31
0.0
210
0.0
220
0.0
230
1.0
 40
0.3714917908341883
 41
0.0
 42
6.283185307179586
  0
ELLIPSE
  5
A2BC
330
1A
100
AcDbEntity
  8
SEIHIN
 48
5.0
100
AcDbEllipse
 10
204.9829614406697
 20
305.1060999195285
 30
0.0
 11
2.100000000015996
 21
0.0
 31
0.0
210
0.0
220
0.0
230
1.0
 40
0.3714917908341883
 41
0.0
 42
6.283185307179586
  0
LINE
  5
A2BD
330
1A
100
AcDbEntity
  8
CENTER L
  6
CENTER
 62
     1
 48
5.0
100
AcDbLine
 10
409.9822618626981
 20
469.7653696707611
 30
0.0
 11
409.9822618626981
 21
493.8594696707612
 31
0.0
  0
LINE
  5
A2BE
330
1A
100
AcDbEntity
  8
SEIHIN
  6
Continuous
 62
     3
 48
5.0
100
AcDbLine
 10
348.1281618626982
 20
472.426569670761
 30
0.0
 11
348.1281618626982
 21
491.426569670761
 31
0.0
  0
LINE
  5
A2BF
330
1A
100
AcDbEntity
  8
SEIHIN
  6
Continuous
 62
     3
 48
5.0
100
AcDbLine
 10
363.0849618626982
 20
472.426569670761
 30
0.0
 11
363.0849618626982
 21
491.426569670761
 31
0.0
  0
LINE
  5
A2C0
330
1A
100
AcDbEntity
  8
SEIHIN
  6
Continuous
 62
     3
 48
5.0
100
AcDbLine
 10
364.9822618626981
 20
472.426569670761
 30
0.0
 11
364.9822618626981
 21
491.426569670761
 31
0.0
  0
LINE
  5
A2C1
330
1A
100
AcDbEntity
  8
SEIHIN
  6
Continuous
 62
     3
 48
5.0
100
AcDbLine
 10
324.7730618626981
 20
474.926569670761
 30
0.0
 11
324.7730618626981
 21
488.926569670761
 31
0.0
  0
LINE
  5
A2C2
330
1A
100
AcDbEntity
  8
SEIHIN
  6
Continuous
 62
     3
 48
5.0
100
AcDbLine
 10
324.1788618626981
 20
474.926569670761
 30
0.0
 11
324.1789618626982
 21
488.926569670761
 31
0.0
  0
LINE
  5
A2C3
330
1A
100
AcDbEntity
  8
SEIHIN
  6
Continuous
 62
     3
 48
5.0
100
AcDbLine
 10
333.9905618626982
 20
472.426569670761
 30
0.0
 11
333.9905618626982
 21
491.426569670761
 31
0.0
  0
LINE
  5
A2C4
330
1A
100
AcDbEntity
  8
SEIHIN
  6
Continuous
 62
     3
 48
5.0
100
AcDbLine
 10
329.6441618626982
 20
472.426569670761
 30
0.0
 11
329.6441618626982
 21
491.426569670761
 31
0.0
  0
LINE
  5
A2C5
330
1A
100
AcDbEntity
  8
SEIHIN
  6
Continuous
 62
     3
 48
5.0
100
AcDbLine
 10
331.6246618626981
 20
472.426569670761
 30
0.0
 11
331.6246618626981
 21
491.426569670761
 31
0.0
  0
LINE
  5
A2C6
330
1A
100
AcDbEntity
  8
SEIHIN
  6
Continuous
 62
     3
 48
5.0
100
AcDbLine
 10
214.4826108842878
 20
327.3879942806309
 30
0.0
 11
195.4827108842878
 21
327.3880942806309
 31
0.0
  0
LINE
  5
A2C7
330
1A
100
AcDbEntity
  8
SEIHIN
  6
Continuous
 62
     3
 48
5.0
100
AcDbLine
 10
324.1788618626981
 20
474.926569670761
 30
0.0
 11
329.6441618626982
 21
474.926569670761
 31
0.0
  0
ARC
  5
A2C8
330
1A
100
AcDbEntity
  8
SEIHIN
  6
Continuous
 62
     3
 48
5.0
100
AcDbCircle
 10
377.106761862698
 20
481.9265696707612
 30
0.0
 40
4.0
100
AcDbArc
 50
90.0
 51
270.0
  0
ARC
  5
A2C9
330
1A
100
AcDbEntity
  8
SEIHIN
  6
Continuous
 62
     3
 48
5.0
100
AcDbCircle
 10
396.9822618626982
 20
481.9265696707612
 30
0.0
 40
4.0
100
AcDbArc
 50
90.0
 51
270.0
  0
LINE
  5
A2CA
330
1A
100
AcDbEntity
  8
SEIHIN
  6
Continuous
 62
     3
 48
5.0
100
AcDbLine
 10
329.6441618626982
 20
488.926569670761
 30
0.0
 11
324.1788618626981
 21
488.926569670761
 31
0.0
  0
LINE
  5
A2CB
330
1A
100
AcDbEntity
  8
CENTER L
  6
CENTER
 62
     1
 48
5.0
100
AcDbLine
 10
528.7321081616572
 20
297.1171442789728
 30
0.0
 11
523.7727081616572
 21
309.5166442789728
 31
0.0
  0
DIMENSION
  5
A2CC
330
1A
100
AcDbEntity
  8
SUNPOU
 48
5.0
100
AcDbDimension
  2
*D8
 10
563.2984917386326
 20
317.5173741872118
 30
0.0
 11
572.5826131179928
 21
294.3051987136956
 31
0.0
 70
   161
  1
t<>
 71
     5
 42
2.499704212618156
  3
STANDARD
100
AcDbAlignedDimension
 13
571.9611989914245
 23
323.674411518215
 33
0.0
 14
572.8895012843223
 24
321.3534686056079
 34
0.0
1001
ACAD
1000
DSTYLE
1002
{
1070
   288
1070
     1
1070
   140
1040
6.0
1070
    74
1070
     0
1070
   172
1070
     1
1070
    73
1070
     0
1070
   272
1070
     2
1070
    77
1070
     3
1070
   173
1070
     1
1070
   147
1040
2.0
1070
    42
1040
6.0
1070
    44
1040
3.0
1070
    43
1040
14.0
1070
   271
1070
     1
1070
   178
1070
     4
1070
   177
1070
     4
1070
   176
1070
     4
1070
   141
1040
150.0
1070
     7
1000
_OPEN
1070
     6
1000
_OPEN
1070
    41
1040
7.0
1002
}
  0
TEXT
  5
A2CD
330
1A
100
AcDbEntity
  8
SUNPOU
 48
5.0
100
AcDbText
 10
625.599136426742
 20
280.032979664357
 30
0.0
 40
6.0
  1
スライド巾
 50
90.0
100
AcDbText
  0
DIMENSION
  5
A2CE
330
1A
100
AcDbEntity
  8
SUNPOU
 48
5.0
100
AcDbDimension
  2
*D9
 10
614.9040066199577
 20
273.7980097982352
 30
0.0
 11
609.9040066199576
 21
300.593027038604
 31
0.0
 70
    32
 71
     5
 42
53.59003448073759
  3
STANDARD
100
AcDbAlignedDimension
 13
581.2460081616571
 23
327.3880442789728
 33
0.0
 14
581.2459431900215
 24
273.7980097982352
 34
0.0
 50
90.0
100
AcDbRotatedDimension
1001
ACAD
1000
DSTYLE
1002
{
1070
   140
1040
6.0
1070
    74
1070
     0
1070
   172
1070
     1
1070
    73
1070
     0
1070
   272
1070
     2
1070
    77
1070
     3
1070
   173
1070
     1
1070
   147
1040
2.0
1070
    42
1040
6.0
1070
    44
1040
3.0
1070
    43
1040
14.0
1070
   271
1070
     0
1070
   178
1070
     4
1070
   177
1070
     4
1070
   176
1070
     4
1070
   141
1040
150.0
1070
     7
1000
_OPEN
1070
     6
1000
_OPEN
1070
    41
1040
7.0
1002
}
  0
LINE
  5
A2CF
330
1A
100
AcDbEntity
  8
SEIHIN
  6
Continuous
 62
     3
 48
5.0
100
AcDbLine
 10
434.0807081616572
 20
265.8339442789728
 30
0.0
 11
582.1741081616572
 21
325.0670442789726
 31
0.0
  0
LINE
  5
A2D0
330
1A
100
AcDbEntity
  8
SEIHIN
  6
Continuous
 62
     3
 48
5.0
100
AcDbLine
 10
581.2460081616571
 20
327.3880442789728
 30
0.0
 11
433.1524081616571
 21
268.1552442789727
 31
0.0
  0
LINE
  5
A2D1
330
1A
100
AcDbEntity
  8
SEIHIN
  6
Continuous
 62
     3
 48
5.0
100
AcDbLine
 10
457.0042618626981
 20
104.7188442789725
 30
0.0
 11
458.6016618626982
 21
135.1984442789725
 31
0.0
  0
LINE
  5
A2D2
330
1A
100
AcDbEntity
  8
SEIHIN
  6
Continuous
 62
     3
 48
5.0
100
AcDbLine
 10
455.0069618626981
 20
104.8235442789725
 30
0.0
 11
456.6043618626981
 21
135.3031442789726
 31
0.0
  0
LINE
  5
A2D3
330
1A
100
AcDbEntity
  8
SEIHIN
  6
Continuous
 62
     3
 48
5.0
100
AcDbLine
 10
461.4980618626982
 20
133.1436442789725
 30
0.0
 11
460.026361862698
 21
105.0618442789725
 31
0.0
  0
DIMENSION
  5
A2D4
330
1A
100
AcDbEntity
  8
SUNPOU
 48
5.0
100
AcDbDimension
  2
*D10
 10
513.0921328175841
 20
102.3497442789726
 30
0.0
 11
508.0921328175841
 21
118.3497442789727
 31
0.0
 70
    32
 71
     5
 42
65.68840000000002
  3
STANDARD
100
AcDbAlignedDimension
 13
466.3590618626982
 23
168.0381442789726
 33
0.0
 14
454.5076618626981
 24
102.3497442789726
 34
0.0
 50
90.0
100
AcDbRotatedDimension
1001
ACAD
1000
DSTYLE
1002
{
1070
   140
1040
6.0
1070
    74
1070
     0
1070
   172
1070
     1
1070
    73
1070
     0
1070
   272
1070
     2
1070
    77
1070
     3
1070
   173
1070
     1
1070
   280
1070
     2
1070
   147
1040
2.0
1070
    42
1040
6.0
1070
    44
1040
3.0
1070
    43
1040
14.0
1070
   271
1070
     0
1070
   178
1070
     4
1070
   177
1070
     4
1070
   176
1070
     4
1070
   141
1040
150.0
1070
     7
1000
_OPEN
1070
     6
1000
_OPEN
1070
    41
1040
7.0
1002
}
  0
LINE
  5
A2D5
330
1A
100
AcDbEntity
  8
SEIHIN
  6
PHANTOM
 62
     6
 48
5.0
100
AcDbLine
 10
468.8621431900216
 20
86.94810979823515
 30
0.0
 11
468.8621431900216
 21
169.430309798235
 31
0.0
  0
LINE
  5
A2D6
330
1A
100
AcDbEntity
  8
SEIHIN
  6
PHANTOM
 62
     6
 48
5.0
100
AcDbLine
 10
471.3621431900215
 20
86.94810979823515
 30
0.0
 11
471.3622431900215
 21
169.430309798235
 31
0.0
  0
ARC
  5
A2D7
330
1A
100
AcDbEntity
  8
SEIHIN
  6
Continuous
 62
     3
 48
5.0
100
AcDbCircle
 10
454.5338830658285
 20
105.349764399808
 30
0.0
 40
5.500020120876215
100
AcDbArc
 50
269.9997791190124
 51
356.9992561333023
  0
ARC
  5
A2D8
330
1A
100
AcDbEntity
  8
SEIHIN
  6
Continuous
 62
     3
 48
5.0
100
AcDbCircle
 10
454.5076772871499
 20
104.8497589158868
 30
0.0
 40
2.500014636961827
100
AcDbArc
 50
269.9996464996733
 51
356.9983021789653
  0
ARC
  5
A2D9
330
1A
100
AcDbEntity
  8
SEIHIN
  6
Continuous
 62
     3
 48
5.0
100
AcDbCircle
 10
454.5076549757033
 20
104.8497377438872
 30
0.0
 40
0.4999934649619843
100
AcDbArc
 50
270.000789201787
 51
356.9970361317453
  0
LINE
  5
A2DA
330
1A
100
AcDbEntity
  8
SEIHIN
  6
PHANTOM
 62
     6
 48
5.0
100
AcDbLine
 10
468.8621431900216
 20
86.94810979823515
 30
0.0
 11
471.3621431900215
 21
86.94810979823515
 31
0.0
  0
LINE
  5
A2DB
330
1A
100
AcDbEntity
  8
SEIHIN
  6
PHANTOM
 62
     6
 48
5.0
100
AcDbLine
 10
581.2459431900215
 20
273.7980097982352
 30
0.0
 11
433.1523431900214
 21
214.5652097982351
 31
0.0
  0
LINE
  5
A2DC
330
1A
100
AcDbEntity
  8
SEIHIN
  6
PHANTOM
 62
     6
 48
5.0
100
AcDbLine
 10
434.0806431900217
 20
212.2439097982352
 30
0.0
 11
582.1740431900216
 21
271.477009798235
 31
0.0
  0
LINE
  5
A2DD
330
1A
100
AcDbEntity
  8
SEIHIN
  6
Continuous
 62
     3
 48
5.0
100
AcDbLine
 10
471.3622081616571
 20
140.5381442789727
 30
0.0
 11
471.3623081616571
 21
223.0203442789726
 31
0.0
  0
LINE
  5
A2DE
330
1A
100
AcDbEntity
  8
SEIHIN
  6
Continuous
 62
     3
 48
5.0
100
AcDbLine
 10
468.8622081616572
 20
140.5381442789727
 30
0.0
 11
468.8622081616572
 21
223.0203442789726
 31
0.0
  0
LINE
  5
A2DF
330
1A
100
AcDbEntity
  8
SEIHIN
  6
PHANTOM
 62
     6
 48
5.0
100
AcDbLine
 10
448.2277431900214
 20
168.7954097982351
 30
0.0
 11
431.4808431900216
 21
210.6656097982351
 31
0.0
  0
LINE
  5
A2E0
330
1A
100
AcDbEntity
  8
SEIHIN
  6
PHANTOM
 62
     6
 48
5.0
100
AcDbLine
 10
429.1596431900216
 20
209.7372097982351
 30
0.0
 11
445.9064431900216
 21
167.8669097982352
 31
0.0
  0
LINE
  5
A2E1
330
1A
100
AcDbEntity
  8
SEIHIN
  6
PHANTOM
 62
     6
 48
5.0
100
AcDbLine
 10
450.5489431900214
 20
169.723809798235
 30
0.0
 11
433.8020431900216
 21
211.5940097982351
 31
0.0
  0
DIMENSION
  5
A2E2
330
1A
100
AcDbEntity
  8
SUNPOU
 48
5.0
100
AcDbDimension
  2
*D11
 10
530.087433765445
 20
140.5381442789727
 30
0.0
 11
525.087433765445
 21
203.7896178467746
 31
0.0
 70
    32
 71
     5
 42
126.5029471356036
  3
STANDARD
100
AcDbAlignedDimension
 13
430.36680780782
 23
267.0410914145763
 33
0.0
 14
471.3622081616571
 24
140.5381442789727
 34
0.0
 50
90.0
100
AcDbRotatedDimension
1001
ACAD
1000
DSTYLE
1002
{
1070
   140
1040
6.0
1070
    74
1070
     0
1070
   172
1070
     1
1070
    73
1070
     0
1070
   272
1070
     2
1070
    77
1070
     3
1070
   173
1070
     1
1070
   147
1040
2.0
1070
    42
1040
6.0
1070
    44
1040
3.0
1070
    43
1040
14.0
1070
   271
1070
     0
1070
   178
1070
     4
1070
   177
1070
     4
1070
   176
1070
     4
1070
   141
1040
150.0
1070
     7
1000
_OPEN
1070
     6
1000
_OPEN
1070
    41
1040
7.0
1002
}
  0
LINE
  5
A2E3
330
1A
100
AcDbEntity
  8
SEIHIN
  6
Continuous
 62
     3
 48
5.0
100
AcDbLine
 10
468.8590618626982
 20
142.5381442789725
 30
0.0
 11
468.8590618626982
 21
165.5381442789726
 31
0.0
  0
LINE
  5
A2E4
330
1A
100
AcDbEntity
  8
SEIHIN
  6
Continuous
 62
     3
 48
5.0
100
AcDbLine
 10
466.8590618626981
 20
142.8268442789725
 30
0.0
 11
466.8590618626981
 21
165.5381442789726
 31
0.0
  0
LINE
  5
A2E5
330
1A
100
AcDbEntity
  8
SEIHIN
  6
Continuous
 62
     3
 48
5.0
100
AcDbLine
 10
455.7146618626982
 20
165.7881442789725
 30
0.0
 11
451.8590618626981
 21
159.1099442789725
 31
0.0
  0
LINE
  5
A2E6
330
1A
100
AcDbEntity
  8
SEIHIN
  6
Continuous
 62
     3
 48
5.0
100
AcDbLine
 10
453.9826618626982
 20
166.7881442789726
 30
0.0
 11
450.1269618626981
 21
160.1099442789725
 31
0.0
  0
ARC
  5
A2E7
330
1A
100
AcDbEntity
  8
SEIHIN
  6
Continuous
 62
     3
 48
5.0
100
AcDbCircle
 10
482.6579794294169
 20
149.5400557012389
 30
0.0
 40
10.99998522318196
100
AcDbArc
 50
93.09035722395429
 51
152.9754458692725
  0
ARC
  5
A2E8
330
1A
100
AcDbEntity
  8
SEIHIN
  6
Continuous
 62
     3
 48
5.0
100
AcDbCircle
 10
459.1009631373373
 20
135.1722463589229
 30
0.0
 40
2.500030437815367
100
AcDbArc
 50
119.9996309870282
 51
176.9987048118073
  0
LINE
  5
A2E9
330
1A
100
AcDbEntity
  8
SEIHIN
  6
Continuous
 62
     3
 48
5.0
100
AcDbLine
 10
450.1269618626981
 20
160.1099442789725
 30
0.0
 11
451.8590618626981
 21
159.1099442789725
 31
0.0
  0
LINE
  5
A2EA
330
1A
100
AcDbEntity
  8
SEIHIN
  6
Continuous
 62
     3
 48
5.0
100
AcDbLine
 10
467.6090618626982
 20
140.6617442789726
 30
0.0
 11
458.8509618626982
 21
135.6052442789726
 31
0.0
  0
LINE
  5
A2EB
330
1A
100
AcDbEntity
  8
SEIHIN
  6
Continuous
 62
     3
 48
5.0
100
AcDbLine
 10
457.8509618626981
 20
137.3373442789726
 30
0.0
 11
466.6090618626981
 21
142.3938442789726
 31
0.0
  0
ARC
  5
A2EC
330
1A
100
AcDbEntity
  8
SEIHIN
  6
Continuous
 62
     3
 48
5.0
100
AcDbCircle
 10
482.6579457975307
 20
150.5363547249085
 30
0.0
 40
11.00001063773054
100
AcDbArc
 50
207.0251991922423
 51
266.9093037277294
  0
ARC
  5
A2ED
330
1A
100
AcDbEntity
  8
SEIHIN
  6
Continuous
 62
     3
 48
5.0
100
AcDbCircle
 10
460.8590882612229
 20
142.5381900019975
 30
0.0
 40
7.99997360160598
100
AcDbArc
 50
299.999063850422
 51
359.999672531874
  0
ARC
  5
A2EE
330
1A
100
AcDbEntity
  8
SEIHIN
  6
Continuous
 62
     3
 48
5.0
100
AcDbCircle
 10
462.4966669954437
 20
133.0913526552943
 30
0.0
 40
0.9999733121701593
100
AcDbArc
 50
120.0012224461667
 51
177.0024634809437
  0
LINE
  5
A2EF
330
1A
100
AcDbEntity
  8
SEIHIN
  6
Continuous
 62
     3
 48
5.0
100
AcDbLine
 10
464.8590618626982
 20
135.6099442789726
 30
0.0
 11
461.9966618626982
 21
133.9573442789725
 31
0.0
  0
ARC
  5
A2F0
330
1A
100
AcDbEntity
  8
SEIHIN
  6
Continuous
 62
     3
 48
5.0
100
AcDbCircle
 10
459.1009083150713
 20
135.1721569013376
 30
0.0
 40
0.5000379042839314
100
AcDbArc
 50
119.9904080984889
 51
176.986527618872
  0
LINE
  5
A2F1
330
1A
100
AcDbEntity
  8
SEIHIN
  6
Continuous
 62
     3
 48
5.0
100
AcDbLine
 10
474.3590618626982
 20
154.5381442789725
 30
0.0
 11
472.8590618626981
 21
154.5381442789725
 31
0.0
  0
LINE
  5
A2F2
330
1A
100
AcDbEntity
  8
SEIHIN
  6
Continuous
 62
     3
 48
5.0
100
AcDbLine
 10
474.3590618626982
 20
145.5381442789725
 30
0.0
 11
472.8590618626981
 21
145.5381442789725
 31
0.0
  0
LINE
  5
A2F3
330
1A
100
AcDbEntity
  8
CENTER L
  6
CENTER
 62
     1
 48
5.0
100
AcDbLine
 10
487.3965618626982
 20
150.0381442789726
 30
0.0
 11
461.5757618626982
 21
150.0381442789726
 31
0.0
  0
ARC
  5
A2F4
330
1A
100
AcDbEntity
  8
SEIHIN
  6
Continuous
 62
     3
 48
5.0
100
AcDbCircle
 10
471.9473618629154
 20
150.0381942789726
 30
0.0
 40
8.088181618569884
100
AcDbArc
 50
134.6911895971244
 51
225.3088104028759
  0
LINE
  5
A2F5
330
1A
100
AcDbEntity
  8
SEIHIN
  6
Continuous
 62
     3
 48
5.0
100
AcDbLine
 10
466.2590618626982
 20
144.2881442789725
 30
0.0
 11
466.2590618626982
 21
155.7881442789725
 31
0.0
  0
LINE
  5
A2F6
330
1A
100
AcDbEntity
  8
SEIHIN
  6
Continuous
 62
     3
 48
5.0
100
AcDbLine
 10
471.3590618626981
 20
144.0381442789726
 30
0.0
 11
471.3590618626981
 21
156.0381442789725
 31
0.0
  0
LINE
  5
A2F7
330
1A
100
AcDbEntity
  8
SEIHIN
  6
Continuous
 62
     3
 48
5.0
100
AcDbLine
 10
472.8590618626981
 20
144.0381442789726
 30
0.0
 11
472.8590618626981
 21
156.0381442789725
 31
0.0
  0
LINE
  5
A2F8
330
1A
100
AcDbEntity
  8
SEIHIN
  6
Continuous
 62
     3
 48
5.0
100
AcDbLine
 10
472.8590618626981
 20
144.0381442789726
 30
0.0
 11
471.3590618626981
 21
144.0381442789726
 31
0.0
  0
LINE
  5
A2F9
330
1A
100
AcDbEntity
  8
SEIHIN
  6
Continuous
 62
     3
 48
5.0
100
AcDbLine
 10
472.8590618626981
 20
149.5381442789725
 30
0.0
 11
471.3590618626981
 21
149.5381442789725
 31
0.0
  0
ARC
  5
A2FA
330
1A
100
AcDbEntity
  8
SEIHIN
  6
Continuous
 62
     3
 48
5.0
100
AcDbCircle
 10
466.3590673627587
 20
142.8268538054965
 30
0.0
 40
0.499994500030178
100
AcDbArc
 50
299.9996361095808
 51
359.9989083287533
  0
LINE
  5
A2FB
330
1A
100
AcDbEntity
  8
SEIHIN
  6
Continuous
 62
     3
 48
5.0
100
AcDbLine
 10
466.8590618626981
 20
144.2881442789725
 30
0.0
 11
466.2590618626982
 21
144.2881442789725
 31
0.0
  0
LINE
  5
A2FC
330
1A
100
AcDbEntity
  8
SEIHIN
  6
Continuous
 62
     3
 48
5.0
100
AcDbLine
 10
468.8622081616572
 20
140.5381442789727
 30
0.0
 11
471.3622081616571
 21
140.5381442789727
 31
0.0
  0
ARC
  5
A2FD
330
1A
100
AcDbEntity
  8
SEIHIN
  6
Continuous
 62
     3
 48
5.0
100
AcDbCircle
 10
466.3590460617981
 20
142.8268169112413
 30
0.0
 40
2.500015801049852
100
AcDbArc
 50
300.0002090727441
 51
0.0006272182316203
  0
LINE
  5
A2FE
330
1A
100
AcDbEntity
  8
SEIHIN
  6
Continuous
 62
     3
 48
5.0
100
AcDbLine
 10
472.8590618626981
 20
156.0381442789725
 30
0.0
 11
471.3590618626981
 21
156.0381442789725
 31
0.0
  0
LINE
  5
A2FF
330
1A
100
AcDbEntity
  8
SEIHIN
  6
Continuous
 62
     3
 48
5.0
100
AcDbLine
 10
466.8590618626981
 20
155.7881442789725
 30
0.0
 11
466.2590618626982
 21
155.7881442789725
 31
0.0
  0
LINE
  5
A300
330
1A
100
AcDbEntity
  8
SEIHIN
  6
Continuous
 62
     3
 48
5.0
100
AcDbLine
 10
472.8590618626981
 20
150.5381442789725
 30
0.0
 11
471.3590618626981
 21
150.5381442789725
 31
0.0
  0
LINE
  5
A301
330
1A
100
AcDbEntity
  8
SEIHIN
  6
Continuous
 62
     3
 48
5.0
100
AcDbLine
 10
484.8590618626981
 20
147.5381442789725
 30
0.0
 11
484.8590618626981
 21
152.5381442789726
 31
0.0
  0
LINE
  5
A302
330
1A
100
AcDbEntity
  8
SEIHIN
  6
Continuous
 62
     3
 48
5.0
100
AcDbLine
 10
477.3590618626982
 20
150.0381442789726
 30
0.0
 11
477.3590618626982
 21
153.5381442789726
 31
0.0
  0
LINE
  5
A303
330
1A
100
AcDbEntity
  8
SEIHIN
  6
Continuous
 62
     3
 48
5.0
100
AcDbLine
 10
474.3590618626982
 20
154.5381442789725
 30
0.0
 11
474.3590618626982
 21
150.0381442789726
 31
0.0
  0
ARC
  5
A304
330
1A
100
AcDbEntity
  8
SEIHIN
  6
Continuous
 62
     3
 48
5.0
100
AcDbCircle
 10
486.2615974285469
 20
164.4474647172538
 30
0.0
 40
20.00001696447658
100
AcDbArc
 50
243.5682539484862
 51
261.2344483525094
  0
ARC
  5
A305
330
1A
100
AcDbEntity
  8
SEIHIN
  6
Continuous
 62
     3
 48
5.0
100
AcDbCircle
 10
481.7820692948021
 20
142.9083317989449
 30
0.0
 40
0.4999841947319332
100
AcDbArc
 50
343.2985880045511
 51
78.25293660541183
  0
LINE
  5
A306
330
1A
100
AcDbEntity
  8
SEIHIN
  6
Continuous
 62
     3
 48
5.0
100
AcDbLine
 10
481.875961862698
 20
141.4814442789725
 30
0.0
 11
482.260961862698
 21
142.7646442789726
 31
0.0
  0
LINE
  5
A307
330
1A
100
AcDbEntity
  8
SEIHIN
  6
Continuous
 62
     3
 48
5.0
100
AcDbLine
 10
484.8590618626981
 20
147.5381442789725
 30
0.0
 11
477.3590618626982
 21
147.5381442789725
 31
0.0
  0
LINE
  5
A308
330
1A
100
AcDbEntity
  8
SEIHIN
  6
Continuous
 62
     3
 48
5.0
100
AcDbLine
 10
484.8590618626981
 20
148.3381442789726
 30
0.0
 11
477.3590618626982
 21
148.3381442789726
 31
0.0
  0
ARC
  5
A309
330
1A
100
AcDbEntity
  8
SEIHIN
  6
Continuous
 62
     3
 48
5.0
100
AcDbCircle
 10
482.1188631460149
 20
140.5508451810255
 30
0.0
 40
0.9999600942038588
100
AcDbArc
 50
266.9043249675137
 51
343.3028803945095
  0
LINE
  5
A30A
330
1A
100
AcDbEntity
  8
SEIHIN
  6
Continuous
 62
     3
 48
5.0
100
AcDbLine
 10
477.3590618626982
 20
150.0381442789726
 30
0.0
 11
477.3590618626982
 21
146.5381442789725
 31
0.0
  0
ARC
  5
A30B
330
1A
100
AcDbEntity
  8
SEIHIN
  6
Continuous
 62
     3
 48
5.0
100
AcDbCircle
 10
486.2618229278773
 20
164.4473919653189
 30
0.0
 40
21.50000002065097
100
AcDbArc
 50
245.7607972558917
 51
258.2509161781121
  0
ARC
  5
A30C
330
1A
100
AcDbEntity
  8
SEIHIN
  6
Continuous
 62
     3
 48
5.0
100
AcDbCircle
 10
477.2298560284997
 20
144.3869445743927
 30
0.0
 40
0.499953972906594
100
AcDbArc
 50
65.76692820193239
 51
108.4343252285374
  0
LINE
  5
A30D
330
1A
100
AcDbEntity
  8
SEIHIN
  6
Continuous
 62
     3
 48
5.0
100
AcDbLine
 10
474.3590618626982
 20
145.5381442789725
 30
0.0
 11
474.3590618626982
 21
150.0381442789726
 31
0.0
  0
ARC
  5
A30E
330
1A
100
AcDbEntity
  8
SEIHIN
  6
Continuous
 62
     3
 48
5.0
100
AcDbCircle
 10
476.3676615975351
 20
144.09954312586
 30
0.0
 40
0.4999571081595971
100
AcDbArc
 50
108.4348782053143
 51
225.6644333804674
  0
LINE
  5
A30F
330
1A
100
AcDbEntity
  8
SEIHIN
  6
Continuous
 62
     3
 48
5.0
100
AcDbLine
 10
476.2095618626982
 20
144.5738442789725
 30
0.0
 11
477.0717618626982
 21
144.8612442789726
 31
0.0
  0
LINE
  5
A310
330
1A
100
AcDbEntity
  8
SEIHIN
  6
Continuous
 62
     3
 48
5.0
100
AcDbLine
 10
474.3590618626982
 20
145.5381442789725
 30
0.0
 11
477.3590618626982
 21
146.5381442789725
 31
0.0
  0
ARC
  5
A311
330
1A
100
AcDbEntity
  8
SEIHIN
  6
Continuous
 62
     3
 48
5.0
100
AcDbCircle
 10
482.6580038145511
 20
150.5363236387496
 30
0.0
 40
9.499987582716017
100
AcDbArc
 50
225.6594908099646
 51
261.9457964485797
  0
ARC
  5
A312
330
1A
100
AcDbEntity
  8
SEIHIN
  6
Continuous
 62
     3
 48
5.0
100
AcDbCircle
 10
481.3970884622123
 20
141.6250613094981
 30
0.0
 40
0.4999455821884656
100
AcDbArc
 50
261.9481932064455
 51
343.3056943105508
  0
ARC
  5
A313
330
1A
100
AcDbEntity
  8
SEIHIN
  6
Continuous
 62
     3
 48
5.0
100
AcDbCircle
 10
483.06139875484
 20
143.6926858456578
 30
0.0
 40
1.000033454110766
100
AcDbArc
 50
343.3017087518559
 51
81.23639844961231
  0
LINE
  5
A314
330
1A
100
AcDbEntity
  8
SEIHIN
  6
Continuous
 62
     3
 48
5.0
100
AcDbLine
 10
483.076661862698
 20
140.2635442789725
 30
0.0
 11
484.019261862698
 21
143.4054442789726
 31
0.0
  0
ARC
  5
A315
330
1A
100
AcDbEntity
  8
SEIHIN
  6
Continuous
 62
     3
 48
5.0
100
AcDbCircle
 10
482.1188160984339
 20
159.5254764439298
 30
0.0
 40
1.000024390070539
100
AcDbArc
 50
16.70001833100176
 51
93.09277630695976
  0
ARC
  5
A316
330
1A
100
AcDbEntity
  8
SEIHIN
  6
Continuous
 62
     3
 48
5.0
100
AcDbCircle
 10
486.2617355867251
 20
135.6288676637874
 30
0.0
 40
19.99999470789179
100
AcDbArc
 50
98.76596195067017
 51
116.4318998229958
  0
ARC
  5
A317
330
1A
100
AcDbEntity
  8
SEIHIN
  6
Continuous
 62
     3
 48
5.0
100
AcDbCircle
 10
481.7820692948021
 20
157.1679567590003
 30
0.0
 40
0.4999841947319226
100
AcDbArc
 50
281.7470633945882
 51
16.70141199544977
  0
LINE
  5
A318
330
1A
100
AcDbEntity
  8
SEIHIN
  6
Continuous
 62
     3
 48
5.0
100
AcDbLine
 10
481.875961862698
 20
158.5949442789726
 30
0.0
 11
482.260961862698
 21
157.3116442789726
 31
0.0
  0
LINE
  5
A319
330
1A
100
AcDbEntity
  8
SEIHIN
  6
Continuous
 62
     3
 48
5.0
100
AcDbLine
 10
484.8590618626981
 20
152.5381442789726
 30
0.0
 11
477.3590618626982
 21
152.5381442789726
 31
0.0
  0
LINE
  5
A31A
330
1A
100
AcDbEntity
  8
SEIHIN
  6
Continuous
 62
     3
 48
5.0
100
AcDbLine
 10
484.8590618626981
 20
151.7381442789726
 30
0.0
 11
477.3590618626982
 21
151.7381442789726
 31
0.0
  0
ARC
  5
A31B
330
1A
100
AcDbEntity
  8
SEIHIN
  6
Continuous
 62
     3
 48
5.0
100
AcDbCircle
 10
481.3970430540414
 20
158.4512563191784
 30
0.0
 40
0.5000094549855254
100
AcDbArc
 50
16.70059612929977
 51
98.04551635369518
  0
ARC
  5
A31C
330
1A
100
AcDbEntity
  8
SEIHIN
  6
Continuous
 62
     3
 48
5.0
100
AcDbCircle
 10
486.262002404557
 20
135.6289548855003
 30
0.0
 40
21.49997949604065
100
AcDbArc
 50
101.7495837250174
 51
114.239459647798
  0
ARC
  5
A31D
330
1A
100
AcDbEntity
  8
SEIHIN
  6
Continuous
 62
     3
 48
5.0
100
AcDbCircle
 10
477.2297257975751
 20
155.6894373848743
 30
0.0
 40
0.5000014236468537
100
AcDbArc
 50
251.5832167962173
 51
294.2469904888915
  0
ARC
  5
A31E
330
1A
100
AcDbEntity
  8
SEIHIN
  6
Continuous
 62
     3
 48
5.0
100
AcDbCircle
 10
476.3676740512961
 20
155.9767912821923
 30
0.0
 40
0.5000045436260374
100
AcDbArc
 50
134.3322508859017
 51
251.5654293949874
  0
ARC
  5
A31F
330
1A
100
AcDbEntity
  8
SEIHIN
  6
Continuous
 62
     3
 48
5.0
100
AcDbCircle
 10
482.6579836292511
 20
149.5400549879295
 30
0.0
 40
9.499980577636743
100
AcDbArc
 50
98.05347745405359
 51
134.3403802581465
  0
LINE
  5
A320
330
1A
100
AcDbEntity
  8
SEIHIN
  6
Continuous
 62
     3
 48
5.0
100
AcDbLine
 10
476.2095618626982
 20
155.5024442789726
 30
0.0
 11
477.0717618626982
 21
155.2150442789725
 31
0.0
  0
LINE
  5
A321
330
1A
100
AcDbEntity
  8
SEIHIN
  6
Continuous
 62
     3
 48
5.0
100
AcDbLine
 10
474.3590618626982
 20
154.5381442789725
 30
0.0
 11
477.3590618626982
 21
153.5381442789726
 31
0.0
  0
ARC
  5
A322
330
1A
100
AcDbEntity
  8
SEIHIN
  6
Continuous
 62
     3
 48
5.0
100
AcDbCircle
 10
483.06139875484
 20
156.3836027122874
 30
0.0
 40
1.000033454110741
100
AcDbArc
 50
278.7636015503877
 51
16.69829124814051
  0
LINE
  5
A323
330
1A
100
AcDbEntity
  8
SEIHIN
  6
Continuous
 62
     3
 48
5.0
100
AcDbLine
 10
483.076661862698
 20
159.8128442789725
 30
0.0
 11
484.019261862698
 21
156.6709442789726
 31
0.0
  0
LINE
  5
A324
330
1A
100
AcDbEntity
  8
SEIHIN
  6
Continuous
 62
     3
 48
5.0
100
AcDbLine
 10
456.1476618626982
 20
168.0381442789726
 30
0.0
 11
466.3590618626982
 21
168.0381442789726
 31
0.0
  0
LINE
  5
A325
330
1A
100
AcDbEntity
  8
SEIHIN
  6
Continuous
 62
     3
 48
5.0
100
AcDbLine
 10
456.1476618626982
 20
166.0381442789726
 30
0.0
 11
466.3590618626982
 21
166.0381442789726
 31
0.0
  0
ARC
  5
A326
330
1A
100
AcDbEntity
  8
SEIHIN
  6
Continuous
 62
     3
 48
5.0
100
AcDbCircle
 10
456.147709495318
 20
165.5381717792751
 30
0.0
 40
2.499972500151281
100
AcDbArc
 50
90.00109167124016
 51
150.0003638904138
  0
ARC
  5
A327
330
1A
100
AcDbEntity
  8
SEIHIN
  6
Continuous
 62
     3
 48
5.0
100
AcDbCircle
 10
456.1476713892222
 20
165.5381497790331
 30
0.0
 40
0.4999945000302952
100
AcDbArc
 50
90.00109167124829
 51
150.000363890421
  0
ARC
  5
A328
330
1A
100
AcDbEntity
  8
SEIHIN
  6
Continuous
 62
     3
 48
5.0
100
AcDbCircle
 10
466.3590618626981
 20
165.5381442789727
 30
0.0
 40
0.4999999999999432
100
AcDbArc
 50
359.9999999999935
 51
89.99999999999349
  0
ARC
  5
A329
330
1A
100
AcDbEntity
  8
SEIHIN
  6
Continuous
 62
     3
 48
5.0
100
AcDbCircle
 10
466.3590618626982
 20
165.5381442789726
 30
0.0
 40
2.5
100
AcDbArc
 50
0.0
 51
90.0
  0
LINE
  5
A32A
330
1A
100
AcDbEntity
  8
SEIHIN
  6
Continuous
 62
     3
 48
5.0
100
AcDbLine
 10
450.5490081616571
 20
223.3138442789726
 30
0.0
 11
433.8021081616573
 21
265.1840442789727
 31
0.0
  0
LINE
  5
A32B
330
1A
100
AcDbEntity
  8
SEIHIN
  6
Continuous
 62
     3
 48
5.0
100
AcDbLine
 10
429.1597081616573
 20
263.3272442789727
 30
0.0
 11
445.9065081616573
 21
221.4569442789727
 31
0.0
  0
LINE
  5
A32C
330
1A
100
AcDbEntity
  8
SEIHIN
  6
Continuous
 62
     3
 48
5.0
100
AcDbLine
 10
448.2278081616571
 20
222.3854442789726
 30
0.0
 11
431.4809081616572
 21
264.2556442789727
 31
0.0
  0
LINE
  5
A32D
330
1A
100
AcDbEntity
  8
SEIHIN
  6
Continuous
 62
     3
 48
5.0
100
AcDbLine
 10
451.9494081616571
 20
218.0797442789727
 30
0.0
 11
460.0938081616571
 21
219.4865442789727
 31
0.0
  0
LINE
  5
A32E
330
1A
100
AcDbEntity
  8
SEIHIN
  6
Continuous
 62
     3
 48
5.0
100
AcDbLine
 10
468.3520081616572
 20
223.4500442789728
 30
0.0
 11
451.5238081616573
 21
220.5432442789727
 31
0.0
  0
LINE
  5
A32F
330
1A
100
AcDbEntity
  8
SEIHIN
  6
Continuous
 62
     3
 48
5.0
100
AcDbLine
 10
451.0983081616573
 20
223.0067442789728
 30
0.0
 11
467.9265081616571
 21
225.9135442789727
 31
0.0
  0
LINE
  5
A330
330
1A
100
AcDbEntity
  8
SEIHIN
  6
PHANTOM
 62
     6
 48
5.0
100
AcDbLine
 10
432.2238431900216
 20
216.8863097982352
 30
0.0
 11
464.8784431900215
 21
229.9473097982352
 31
0.0
  0
ARC
  5
A331
330
1A
100
AcDbEntity
  8
SEIHIN
  6
PHANTOM
 62
     6
 48
5.0
100
AcDbCircle
 10
434.2663173260423
 20
211.7796494530768
 30
0.0
 40
2.999991752488696
100
AcDbArc
 50
111.7994588589228
 51
201.7987495969348
  0
ARC
  5
A332
330
1A
100
AcDbEntity
  8
SEIHIN
  6
PHANTOM
 62
     6
 48
5.0
100
AcDbCircle
 10
434.2663173259559
 20
211.7796494532505
 30
0.0
 40
5.499970952196025
100
AcDbArc
 50
111.7995717146897
 51
201.7991848457117
  0
ARC
  5
A333
330
1A
100
AcDbEntity
  8
SEIHIN
  6
PHANTOM
 62
     6
 48
5.0
100
AcDbCircle
 10
434.2663173269924
 20
211.7796494511663
 30
0.0
 40
0.5000125548427465
100
AcDbArc
 50
111.7982175012029
 51
201.793961784345
  0
ARC
  5
A334
330
1A
100
AcDbEntity
  8
SEIHIN
  6
Continuous
 62
     3
 48
5.0
100
AcDbCircle
 10
451.0132285964513
 20
223.4995328581258
 30
0.0
 40
5.500032108552981
100
AcDbArc
 50
201.7994789518897
 51
279.7991738780157
  0
ARC
  5
A335
330
1A
100
AcDbEntity
  8
SEIHIN
  6
Continuous
 62
     3
 48
5.0
100
AcDbCircle
 10
451.0132265213109
 20
223.4995340180851
 30
0.0
 40
2.999958563895897
100
AcDbArc
 50
201.8000333334807
 51
279.7992285261922
  0
ARC
  5
A336
330
1A
100
AcDbEntity
  8
SEIHIN
  6
Continuous
 62
     3
 48
5.0
100
AcDbCircle
 10
451.0132967418797
 20
223.4994947743043
 30
0.0
 40
0.5000299912425483
100
AcDbArc
 50
201.7945009160063
 51
279.7885540767352
  0
LINE
  5
A337
330
1A
100
AcDbEntity
  8
SEIHIN
  6
PHANTOM
 62
     6
 48
5.0
100
AcDbLine
 10
482.3077431900216
 20
224.9587097982351
 30
0.0
 11
477.3482431900216
 21
237.3582097982352
 31
0.0
  0
ARC
  5
A338
330
1A
100
AcDbEntity
  8
SEIHIN
  6
Continuous
 62
     3
 48
5.0
100
AcDbCircle
 10
459.2427623973789
 20
224.413587885888
 30
0.0
 40
5.000000007727341
100
AcDbArc
 50
277.7996287384134
 51
339.7993576309304
  0
ARC
  5
A339
330
1A
100
AcDbEntity
  8
SEIHIN
  6
PHANTOM
 62
     6
 48
5.0
100
AcDbCircle
 10
466.7352420976773
 20
225.3048243651138
 30
0.0
 40
5.000037317882498
100
AcDbArc
 50
51.79947450748195
 51
111.7993319620322
  0
ARC
  5
A33A
330
1A
100
AcDbEntity
  8
SEIHIN
  6
Continuous
 62
     3
 48
5.0
100
AcDbCircle
 10
468.3622943842204
 20
223.0203575836862
 30
0.0
 40
3.000013777466251
100
AcDbArc
 50
359.9997458998557
 51
91.99975637677925
  0
ARC
  5
A33B
330
1A
100
AcDbEntity
  8
SEIHIN
  6
Continuous
 62
     3
 48
5.0
100
AcDbCircle
 10
468.3622049916772
 20
223.0203473398799
 30
0.0
 40
0.5000031699893739
100
AcDbArc
 50
359.9996492480869
 51
92.00538574002316
  0
LINE
  5
A33C
330
1A
100
AcDbEntity
  8
SEIHIN
  6
Continuous
 62
     3
 48
5.0
100
AcDbLine
 10
432.2239081616572
 20
270.4763442789727
 30
0.0
 11
464.8785081616571
 21
283.5373442789728
 31
0.0
  0
ARC
  5
A33D
330
1A
100
AcDbEntity
  8
SEIHIN
  6
Continuous
 62
     3
 48
5.0
100
AcDbCircle
 10
434.266382297678
 20
265.3696839338143
 30
0.0
 40
2.999991752488696
100
AcDbArc
 50
111.7994588589228
 51
201.7987495969348
  0
ARC
  5
A33E
330
1A
100
AcDbEntity
  8
SEIHIN
  6
Continuous
 62
     3
 48
5.0
100
AcDbCircle
 10
434.2663822975916
 20
265.369683933988
 30
0.0
 40
5.499970952196025
100
AcDbArc
 50
111.7995717146897
 51
201.7991848457117
  0
ARC
  5
A33F
330
1A
100
AcDbEntity
  8
SEIHIN
  6
Continuous
 62
     3
 48
5.0
100
AcDbCircle
 10
434.2663822986281
 20
265.3696839319039
 30
0.0
 40
0.5000125548427465
100
AcDbArc
 50
111.7982175012029
 51
201.793961784345
  0
ARC
  5
A340
330
1A
100
AcDbEntity
  8
SEIHIN
  6
Continuous
 62
     3
 48
5.0
100
AcDbCircle
 10
466.735307069313
 20
278.8948588458512
 30
0.0
 40
5.000037317882498
100
AcDbArc
 50
51.79947450748195
 51
111.7993319620322
  0
LINE
  5
A341
330
1A
100
AcDbEntity
  8
CENTER L
  6
CENTER
 62
     1
 48
5.0
100
AcDbLine
 10
482.3078081616573
 20
278.5487442789727
 30
0.0
 11
477.3483081616573
 21
290.9482442789728
 31
0.0
  0
LINE
  5
A342
330
1A
100
AcDbEntity
  8
SEIHIN
  6
PHANTOM
 62
     6
 48
5.0
100
AcDbLine
 10
528.7320431900216
 20
243.5271097982352
 30
0.0
 11
523.7726431900217
 21
255.9266097982352
 31
0.0
  0
LINE
  5
A343
330
1A
100
AcDbEntity
  8
SEIHIN
  6
PHANTOM
 62
     6
 48
5.0
100
AcDbLine
 10
575.1565431900215
 20
262.095209798235
 30
0.0
 11
570.1971431900215
 21
274.4947097982351
 31
0.0
  0
LINE
  5
A344
330
1A
100
AcDbEntity
  8
SEIHIN
  6
PHANTOM
 62
     6
 48
5.0
100
AcDbLine
 10
582.1745431900215
 20
271.476609798235
 30
0.0
 11
581.2460431900215
 21
273.7980097982352
 31
0.0
  0
LINE
  5
A345
330
1A
100
AcDbEntity
  8
SEIHIN
  6
Continuous
 62
     3
 48
5.0
100
AcDbLine
 10
581.2461618626981
 20
472.426569670761
 30
0.0
 11
581.2461618626981
 21
491.4264696707612
 31
0.0
  0
LINE
  5
A346
330
1A
100
AcDbEntity
  8
SEIHIN
  6
Continuous
 62
     3
 48
5.0
100
AcDbLine
 10
582.1757618626982
 20
472.426569670761
 30
0.0
 11
582.1757618626982
 21
491.4264696707612
 31
0.0
  0
LINE
  5
A347
330
1A
100
AcDbEntity
  8
CENTER L
  6
CENTER
 62
     1
 48
5.0
100
AcDbLine
 10
571.960861862698
 20
477.1355696707611
 30
0.0
 11
571.960861862698
 21
486.6510696707612
 31
0.0
  0
LINE
  5
A348
330
1A
100
AcDbEntity
  8
CENTER L
  6
CENTER
 62
     1
 48
5.0
100
AcDbLine
 10
525.5366618626981
 20
477.1355696707611
 30
0.0
 11
525.5366618626981
 21
486.6510696707612
 31
0.0
  0
LINE
  5
A349
330
1A
100
AcDbEntity
  8
CENTER L
  6
CENTER
 62
     1
 48
5.0
100
AcDbLine
 10
479.1124618626981
 20
477.1355696707611
 30
0.0
 11
479.1124618626981
 21
486.6510696707612
 31
0.0
  0
ARC
  5
A34A
330
1A
100
AcDbEntity
  8
SEIHIN
  6
Continuous
 62
     3
 48
5.0
100
AcDbCircle
 10
464.8273618626981
 20
481.926569670761
 30
0.0
 40
5.0
100
AcDbArc
 50
270.0
 51
90.0
  0
DIMENSION
  5
A34B
330
1A
100
AcDbEntity
  8
SUNPOU
 48
5.0
100
AcDbDimension
  2
*D12
 10
615.4800555553661
 20
472.426569670761
 30
0.0
 11
610.480055555366
 21
481.926569670761
 31
0.0
 70
    33
 71
     5
 42
19.0
  3
STANDARD
100
AcDbAlignedDimension
 13
582.1757618626982
 23
491.426569670761
 33
0.0
 14
582.1757618626982
 24
472.426569670761
 34
0.0
1001
ACAD
1000
DSTYLE
1002
{
1070
   140
1040
6.0
1070
    74
1070
     0
1070
   172
1070
     1
1070
    73
1070
     0
1070
   272
1070
     2
1070
    77
1070
     3
1070
   173
1070
     1
1070
   147
1040
2.0
1070
    42
1040
6.0
1070
    44
1040
3.0
1070
    43
1040
14.0
1070
   271
1070
     0
1070
   178
1070
     4
1070
   177
1070
     4
1070
   176
1070
     4
1070
   141
1040
150.0
1070
     7
1000
_OPEN
1070
     6
1000
_OPEN
1070
    41
1040
7.0
1002
}
  0
ARC
  5
A34C
330
1A
100
AcDbEntity
  8
SEIHIN
  6
Continuous
 62
     3
 48
5.0
100
AcDbCircle
 10
439.8463618628048
 20
481.9267791487705
 30
0.0
 40
6.249801053632083
100
AcDbArc
 50
129.022095463366
 51
230.9767245063715
  0
LINE
  5
A34D
330
1A
100
AcDbEntity
  8
SEIHIN
  6
Continuous
 62
     3
 48
5.0
100
AcDbLine
 10
551.5370591796861
 20
401.6670751530699
 30
0.0
 11
558.5931591796864
 21
384.0258751530698
 31
0.0
  0
DIMENSION
  5
A34E
330
1A
100
AcDbEntity
  8
SUNPOU
 48
5.0
100
AcDbDimension
  2
*D13
 10
537.9675359740568
 20
408.666921425372
 30
0.0
 11
565.3578332506002
 21
419.6221821558969
 31
0.0
 70
   161
 71
     5
 42
9.999934280794378
  3
STANDARD
100
AcDbAlignedDimension
 13
553.6066967883128
 23
396.4934220406568
 33
0.0
 14
544.3218905887554
 24
392.779790468076
 34
0.0
1001
ACAD
1000
DSTYLE
1002
{
1070
   288
1070
     1
1070
   140
1040
6.0
1070
    74
1070
     0
1070
   172
1070
     1
1070
    73
1070
     0
1070
   272
1070
     2
1070
    77
1070
     3
1070
   173
1070
     1
1070
   147
1040
2.0
1070
    42
1040
6.0
1070
    44
1040
3.0
1070
    43
1040
14.0
1070
   271
1070
     0
1070
   178
1070
     4
1070
   177
1070
     4
1070
   176
1070
     4
1070
   141
1040
150.0
1070
     7
1000
_OPEN
1070
     6
1000
_OPEN
1070
    41
1040
7.0
1002
}
  0
LINE
  5
A34F
330
1A
100
AcDbEntity
  8
SEIHIN
  6
Continuous
 62
     3
 48
5.0
100
AcDbLine
 10
558.5917591796861
 20
384.02527515307
 30
0.0
 11
453.5790591796863
 21
342.0232751530699
 31
0.0
  0
DIMENSION
  5
A350
330
1A
100
AcDbEntity
  8
SUNPOU
 48
5.0
100
AcDbDimension
  2
*D14
 10
598.2861144076867
 20
399.9018472021119
 30
0.0
 11
599.400545047377
 21
410.5793326163757
 31
0.0
 70
    33
 71
     5
 42
19.00006846540293
  3
STANDARD
100
AcDbAlignedDimension
 13
551.5357591796862
 23
401.6665751530699
 33
0.0
 14
558.5917591796861
 24
384.0252751530699
 34
0.0
1001
ACAD
1000
DSTYLE
1002
{
1070
   140
1040
6.0
1070
    74
1070
     0
1070
   172
1070
     1
1070
    73
1070
     0
1070
   272
1070
     2
1070
    77
1070
     3
1070
   173
1070
     1
1070
   147
1040
2.0
1070
    42
1040
6.0
1070
    44
1040
3.0
1070
    43
1040
14.0
1070
   271
1070
     0
1070
   178
1070
     4
1070
   177
1070
     4
1070
   176
1070
     4
1070
   141
1040
150.0
1070
     7
1000
_OPEN
1070
     6
1000
_OPEN
1070
    41
1040
7.0
1002
}
  0
LEADER
  5
A351
330
1A
100
AcDbEntity
  8
SUNPOU
  6
Continuous
 62
     4
100
AcDbLeader
  3
STANDARD
 74
     0
 40
6.0
 41
31.2
 76
     3
 10
547.8788591796861
 20
389.1322751530699
 30
0.0
 10
567.0901977758663
 20
365.8276944030603
 30
0.0
 10
568.826377632312
 20
365.8276944030603
 30
0.0
1001
ACAD
1000
DSTYLE
1002
{
1070
     6
1000
OPEN
1070
    41
1040
7.0
1070
    42
1040
6.0
1070
    43
1040
14.0
1070
    44
1040
3.0
1070
    73
1070
     0
1070
    74
1070
     0
1070
    77
1070
     3
1070
   140
1040
6.0
1070
   141
1040
150.0
1070
   147
1040
2.0
1070
   172
1070
     1
1070
   173
1070
     1
1070
   176
1070
     4
1070
   177
1070
     4
1070
   178
1070
     4
1070
   271
1070
     0
1070
   272
1070
     2
1070
   341
1005
6D
1070
   343
1005
6D
1070
   344
1005
6D
1002
}
  0
LINE
  5
A352
330
1A
100
AcDbEntity
  8
CENTER L
  6
CENTER
 62
     1
 48
5.0
100
AcDbLine
 10
560.5107591796862
 20
395.0245751530699
 30
0.0
 11
441.7736591796863
 21
347.5330751530698
 31
0.0
  0
DIMENSION
  5
A353
330
1A
100
AcDbEntity
  8
SUNPOU
 48
5.0
100
AcDbDimension
  2
*D15
 10
491.5431205414486
 20
390.0986468441669
 30
0.0
 11
512.8985113753566
 21
404.0252191714555
 31
0.0
 70
    33
 71
     5
 42
50.00008537817382
  3
STANDARD
100
AcDbAlignedDimension
 13
544.0433591796859
 23
393.4761751530698
 33
0.0
 14
497.6189289601262
 24
374.9079006878992
 34
0.0
1001
ACAD
1000
DSTYLE
1002
{
1070
   140
1040
6.0
1070
    74
1070
     0
1070
   172
1070
     1
1070
    73
1070
     0
1070
   272
1070
     2
1070
    77
1070
     3
1070
   173
1070
     1
1070
   147
1040
2.0
1070
    42
1040
6.0
1070
    44
1040
3.0
1070
    43
1040
14.0
1070
   271
1070
     0
1070
   178
1070
     4
1070
   177
1070
     4
1070
   176
1070
     4
1070
   141
1040
150.0
1070
     7
1000
_OPEN
1070
     6
1000
_OPEN
1070
    41
1040
7.0
1002
}
  0
LINE
  5
A354
330
1A
100
AcDbEntity
  8
SEIHIN
  6
Continuous
 62
     3
 48
5.0
100
AcDbLine
 10
444.3388591796863
 20
358.7907751530698
 30
0.0
 11
551.5357591796862
 21
401.66657515307
 31
0.0
  0
DIMENSION
  5
A355
330
1A
100
AcDbEntity
  8
SUNPOU
 48
5.0
100
AcDbDimension
  2
*D16
 10
445.1187146479281
 20
371.5299552864569
 30
0.0
 11
466.4740172721831
 21
385.4566795349803
 31
0.0
 70
    33
 71
     5
 42
50.00010393860873
  3
STANDARD
100
AcDbAlignedDimension
 13
497.6188591796861
 23
374.9080751530699
 33
0.0
 14
451.1945408256756
 24
356.3394710257492
 34
0.0
1001
ACAD
1000
DSTYLE
1002
{
1070
   140
1040
6.0
1070
    74
1070
     0
1070
   172
1070
     1
1070
    73
1070
     0
1070
   272
1070
     2
1070
    77
1070
     3
1070
   173
1070
     1
1070
   147
1040
2.0
1070
    42
1040
6.0
1070
    44
1040
3.0
1070
    43
1040
14.0
1070
   271
1070
     0
1070
   178
1070
     4
1070
   177
1070
     4
1070
   176
1070
     4
1070
   141
1040
150.0
1070
     7
1000
_OPEN
1070
     6
1000
_OPEN
1070
    41
1040
7.0
1002
}
  0
ARC
  5
A356
330
1A
100
AcDbEntity
  8
SEIHIN
  6
Continuous
 62
     3
 48
5.0
100
AcDbCircle
 10
452.9304591796863
 20
351.9956751530699
 30
0.0
 40
2.099999999999994
100
AcDbArc
 50
0.0
 51
180.0
  0
LINE
  5
A357
330
1A
100
AcDbEntity
  8
CENTER L
  6
CENTER
 62
     1
 48
5.0
100
AcDbLine
 10
454.5850591796862
 20
347.8630751530699
 30
0.0
 11
451.1946591796861
 21
356.3397751530699
 31
0.0
  0
ARC
  5
A358
330
1A
100
AcDbEntity
  8
SEIHIN
  6
Continuous
 62
     3
 48
5.0
100
AcDbCircle
 10
452.9304591796863
 20
351.9956751530699
 30
0.0
 40
2.099999999999994
100
AcDbArc
 50
180.0
 51
0.0
  0
ARC
  5
A359
330
1A
100
AcDbEntity
  8
SEIHIN
  6
Continuous
 62
     3
 48
5.0
100
AcDbCircle
 10
499.354759179686
 20
370.5639751530699
 30
0.0
 40
2.099900000000105
100
AcDbArc
 50
0.0
 51
180.0
  0
LINE
  5
A35A
330
1A
100
AcDbEntity
  8
CENTER L
  6
CENTER
 62
     1
 48
5.0
100
AcDbLine
 10
501.0092591796861
 20
366.4313751530699
 30
0.0
 11
497.6188591796861
 21
374.9080751530699
 31
0.0
  0
ARC
  5
A35B
330
1A
100
AcDbEntity
  8
SEIHIN
  6
Continuous
 62
     3
 48
5.0
100
AcDbCircle
 10
499.354759179686
 20
370.5639751530699
 30
0.0
 40
2.099900000000105
100
AcDbArc
 50
180.0
 51
0.0
  0
ARC
  5
A35C
330
1A
100
AcDbEntity
  8
SEIHIN
  6
Continuous
 62
     3
 48
5.0
100
AcDbCircle
 10
545.7788591796862
 20
389.1322751530699
 30
0.0
 40
2.099999999999852
100
AcDbArc
 50
180.0
 51
0.0
  0
ARC
  5
A35D
330
1A
100
AcDbEntity
  8
SEIHIN
  6
Continuous
 62
     3
 48
5.0
100
AcDbCircle
 10
545.7788591796862
 20
389.1322751530699
 30
0.0
 40
2.099999999999852
100
AcDbArc
 50
0.0
 51
180.0
  0
LINE
  5
A35E
330
1A
100
AcDbEntity
  8
CENTER L
  6
CENTER
 62
     1
 48
5.0
100
AcDbLine
 10
547.4334591796862
 20
384.9995751530699
 30
0.0
 11
544.0429591796863
 21
393.47627515307
 31
0.0
  0
LINE
  5
A35F
330
1A
100
AcDbEntity
  8
SEIHIN
  6
Continuous
 62
     3
 48
5.0
100
AcDbLine
 10
436.096361862698
 20
476.9267696707611
 30
0.0
 11
464.8273618626981
 21
476.926569670761
 31
0.0
  0
LINE
  5
A360
330
1A
100
AcDbEntity
  8
SEIHIN
  6
Continuous
 62
     3
 48
5.0
100
AcDbLine
 10
436.096361862698
 20
472.426569670761
 30
0.0
 11
436.0964618626981
 21
476.6828696707612
 31
0.0
  0
ARC
  5
A361
330
1A
100
AcDbEntity
  8
SEIHIN
  6
Continuous
 62
     3
 48
5.0
100
AcDbCircle
 10
435.5964462181876
 20
476.682902483211
 30
0.0
 40
0.5000156455870499
100
AcDbArc
 50
359.996240087874
 51
50.97852800592231
  0
ARC
  5
A362
330
1A
100
AcDbEntity
  8
SEIHIN
  6
Continuous
 62
     3
 48
5.0
100
AcDbCircle
 10
478.9572618626106
 20
481.9264196707612
 30
0.0
 40
2.1059765199373
100
AcDbArc
 50
274.2262454451939
 51
85.77375455480613
  0
ARC
  5
A363
330
1A
100
AcDbEntity
  8
SEIHIN
  6
Continuous
 62
     3
 48
5.0
100
AcDbCircle
 10
479.2676618627856
 20
481.9264196707612
 30
0.0
 40
2.105976519937304
100
AcDbArc
 50
94.22624544519555
 51
265.7737545548045
  0
ARC
  5
A364
330
1A
100
AcDbEntity
  8
SEIHIN
  6
Continuous
 62
     3
 48
5.0
100
AcDbCircle
 10
480.1960618626982
 20
481.9263696707612
 30
0.0
 40
2.10594876480889
100
AcDbArc
 50
107.1047292406433
 51
252.8952707593567
  0
ARC
  5
A365
330
1A
100
AcDbEntity
  8
SEIHIN
  6
Continuous
 62
     3
 48
5.0
100
AcDbCircle
 10
525.6918618627856
 20
481.9264196707612
 30
0.0
 40
2.1059765199373
100
AcDbArc
 50
94.22624544519388
 51
265.7737545548062
  0
ARC
  5
A366
330
1A
100
AcDbEntity
  8
SEIHIN
  6
Continuous
 62
     3
 48
5.0
100
AcDbCircle
 10
526.620261862698
 20
481.9263696707612
 30
0.0
 40
2.105948764808907
100
AcDbArc
 50
107.1047292406449
 51
252.895270759355
  0
ARC
  5
A367
330
1A
100
AcDbEntity
  8
SEIHIN
  6
Continuous
 62
     3
 48
5.0
100
AcDbCircle
 10
525.3814618626107
 20
481.9264196707612
 30
0.0
 40
2.105976519937304
100
AcDbArc
 50
274.2262454451955
 51
85.77375455480446
  0
LINE
  5
A368
330
1A
100
AcDbEntity
  8
SUNPOU
  6
Continuous
 62
     4
100
AcDbLine
 10
618.7580710170046
 20
342.3363934074806
 30
0.0
 11
638.7580710170046
 21
342.3363934074806
 31
0.0
  0
LINE
  5
A369
330
1A
100
AcDbEntity
  8
SUNPOU
  6
Continuous
 62
     4
 48
5.0
100
AcDbLine
 10
595.4339398513894
 20
333.0418564174141
 30
0.0
 11
638.7580710170046
 21
350.3062825528209
 31
0.0
  0
LINE
  5
A36A
330
1A
100
AcDbEntity
  8
CENTER L
  6
CENTER
 62
     1
 48
5.0
100
AcDbLine
 10
575.156608161657
 20
315.6852442789726
 30
0.0
 11
570.197208161657
 21
328.0847442789727
 31
0.0
  0
LINE
  5
A36B
330
1A
100
AcDbEntity
  8
SEIHIN
  6
Continuous
 62
     3
 48
5.0
100
AcDbLine
 10
582.174608161657
 20
325.0666442789726
 30
0.0
 11
581.2461081616571
 21
327.3880442789728
 31
0.0
  0
MTEXT
  5
A36C
330
1A
100
AcDbEntity
  8
SUNPOU
  6
Continuous
 62
     4
100
AcDbMText
 10
570.826377632312
 20
367.8276944030603
 30
0.0
 40
6.0
 41
0.0
 71
     7
 72
     5
  1
3-φ4.2
 73
     1
 44
1.0
  0
TEXT
  5
A36D
330
1A
100
AcDbEntity
  8
SUNPOU
100
AcDbText
 10
642.9541313054319
 20
342.577595111689
 30
0.0
 40
6.0
  1
4
100
AcDbText
  0
LINE
  5
A36E
330
1A
100
AcDbEntity
  8
SUNPOU
  6
Continuous
 62
     4
100
AcDbLine
 10
638.7580710170046
 20
350.3062825528209
 30
0.0
 11
638.7580710170046
 21
342.3363934074806
 31
0.0
  0
TEXT
  5
A36F
330
1A
100
AcDbEntity
  8
SUNPOU
100
AcDbText
 10
625.733511751042
 20
334.0839298537045
 30
0.0
 40
6.0
  1
10
100
AcDbText
  0
ARC
  5
A370
330
1A
100
AcDbEntity
  8
SEIHIN
  6
Continuous
 62
     3
 48
5.0
100
AcDbCircle
 10
571.8056618626106
 20
481.9264196707612
 30
0.0
 40
2.105976519937295
100
AcDbArc
 50
274.2262454451923
 51
85.77375455480775
  0
ARC
  5
A371
330
1A
100
AcDbEntity
  8
SEIHIN
  6
Continuous
 62
     3
 48
5.0
100
AcDbCircle
 10
573.0445618623489
 20
481.9263542829929
 30
0.0
 40
2.105963471858986
100
AcDbArc
 50
107.1046060995893
 51
252.8925473294838
  0
ARC
  5
A372
330
1A
100
AcDbEntity
  8
SEIHIN
  6
Continuous
 62
     3
 48
5.0
100
AcDbCircle
 10
572.1161618627855
 20
481.9264196707612
 30
0.0
 40
2.10598389180147
100
AcDbArc
 50
94.22895866548632
 51
265.7710413345137
  0
LINE
  5
A373
330
1A
100
AcDbEntity
  8
SEIHIN
  6
Continuous
 62
     3
 48
5.0
100
AcDbLine
 10
436.0964618626981
 20
486.9267696707611
 30
0.0
 11
464.8273618626981
 21
486.926569670761
 31
0.0
  0
ARC
  5
A374
330
1A
100
AcDbEntity
  8
SEIHIN
  6
Continuous
 62
     3
 48
5.0
100
AcDbCircle
 10
435.5964850637747
 20
487.1707183400725
 30
0.0
 40
0.499976801292204
100
AcDbArc
 50
309.0193496336009
 51
359.9944226489479
  0
LINE
  5
A375
330
1A
100
AcDbEntity
  8
SEIHIN
  6
Continuous
 62
     3
 48
5.0
100
AcDbLine
 10
436.0964618626981
 20
491.426569670761
 30
0.0
 11
436.0964618626981
 21
487.1706696707612
 31
0.0
  0
VIEWPORT
  5
22
330
17
100
AcDbEntity
 67
     1
  8
0
100
AcDbViewport
 10
313.6808219178082
 20
286.420032064001
 30
0.0
 40
627.3616438356164
 41
572.840064128002
 68
     2
 69
     1
 12
313.6808219178082
 22
286.420032064001
 13
0.0
 23
0.0
 14
1.0
 24
1.0
 15
10.0
 25
10.0
 16
0.0
 26
0.0
 36
1.0
 17
0.0
 27
0.0
 37
0.0
 42
50.0
 43
0.0
 44
0.0
 45
572.840064128002
 50
0.0
 51
0.0
 72
   100
 90
    32768
  1

281
     0
 71
     1
 74
     0
110
0.0
120
0.0
130
0.0
111
1.0
121
0.0
131
0.0
112
0.0
122
1.0
132
0.0
 79
     0
146
0.0
  0
VIEWPORT
  5
64
330
17
100
AcDbEntity
 67
     1
  8
VIEWPORT
100
AcDbViewport
 10
210.0
 20
148.5
 30
0.0
 40
420.0
 41
297.0
 68
     1
 69
     2
 12
420.0
 22
297.0
 13
0.0
 23
0.0
 14
10.0
 24
10.0
 15
0.0
 25
0.0
 16
0.0
 26
0.0
 36
1.0
 17
0.0
 27
0.0
 37
0.0
 42
50.0
 43
0.0
 44
0.0
 45
605.8799999999999
 50
0.0
 51
0.0
 72
   100
 90
    32768
  1

281
     0
 71
     1
 74
     0
110
0.0
120
0.0
130
0.0
111
1.0
121
0.0
131
0.0
112
0.0
122
1.0
132
0.0
 79
     0
146
0.0
  0
ENDSEC
  0
SECTION
  2
OBJECTS
  0
DICTIONARY
  5
C
330
0
100
AcDbDictionary
281
     1
  3
ACAD_GROUP
350
D
  3
ACAD_LAYOUT
350
A98
  3
ACAD_MLINESTYLE
350
E
  3
ACAD_PLOTSETTINGS
350
A99
  3
ACAD_PLOTSTYLENAME
350
A96
  0
DICTIONARY
  5
D
102
{ACAD_REACTORS
330
C
102
}
330
C
100
AcDbDictionary
281
     1
  3
*A1
350
FA3
  3
*A2
350
1597
  3
*A3
350
179D
  3
*A4
350
3390
  3
*A5
350
3A0A
  0
DICTIONARY
  5
A98
102
{ACAD_REACTORS
330
C
102
}
330
C
100
AcDbDictionary
281
     1
  3
Model
350
A9A
  3
ﾚｲｱｳﾄ1
350
A9B
  0
DICTIONARY
  5
E
102
{ACAD_REACTORS
330
C
102
}
330
C
100
AcDbDictionary
281
     1
  3
STANDARD
350
13
  0
DICTIONARY
  5
A99
102
{ACAD_REACTORS
330
C
102
}
330
C
100
AcDbDictionary
281
     1
  0
ACDBDICTIONARYWDFLT
  5
A96
102
{ACAD_REACTORS
330
C
102
}
330
C
100
AcDbDictionary
281
     1
  3
Normal
350
A97
100
AcDbDictionaryWithDefault
340
A97
1001
ACAD
1000
TREAT_AS_HARD
1070
     0
1000
TREAT_AS_HARD
1070
     0
1000
TREAT_AS_HARD
1070
     0
1000
TREAT_AS_HARD
1070
     0
  0
GROUP
  5
FA3
102
{ACAD_REACTORS
330
D
102
}
330
D
100
AcDbGroup
300

 70
     1
 71
     1
  0
GROUP
  5
1597
102
{ACAD_REACTORS
330
D
102
}
330
D
100
AcDbGroup
300

 70
     1
 71
     1
  0
GROUP
  5
179D
102
{ACAD_REACTORS
330
D
102
}
330
D
100
AcDbGroup
300

 70
     1
 71
     1
  0
GROUP
  5
3390
102
{ACAD_REACTORS
330
D
102
}
330
D
100
AcDbGroup
300

 70
     1
 71
     1
  0
GROUP
  5
3A0A
102
{ACAD_REACTORS
330
D
102
}
330
D
100
AcDbGroup
300

 70
     1
 71
     1
  0
LAYOUT
  5
A9A
102
{ACAD_REACTORS
330
A98
102
}
330
A98
100
AcDbPlotSettings
  1

  2
Adobe PDF
  4
A3
  6

 40
3.174999952316284
 41
3.174999952316284
 42
3.17498779296875
 43
3.17498779296875
 44
297.0318298339844
 45
420.1583251953125
 46
2.67
 47
2.85
 48
-8.09872987394283
 49
-9.441603207410708
140
808.114529312747
141
561.2334822198422
142
1.0
143
2.0
 70
 28340
 72
     1
 73
     1
 74
     4
  7
systemprinter.ctb
 75
    17
147
0.5
148
8.09872987394283
149
9.441603207410708
100
AcDbLayout
  1
Model
 70
     1
 71
     0
 10
0.0
 20
0.0
 11
12.0
 21
9.0
 12
0.0
 22
0.0
 32
0.0
 14
0.0
 24
0.0
 34
0.0
 15
0.0
 25
0.0
 35
0.0
146
0.0
 13
0.0
 23
0.0
 33
0.0
 16
1.0
 26
0.0
 36
0.0
 17
0.0
 27
1.0
 37
0.0
 76
     0
330
1A
  0
LAYOUT
  5
A9B
102
{ACAD_REACTORS
330
A98
102
}
330
A98
100
AcDbPlotSettings
  1

  2
C:\PROGRAM FILES\ACAD LT 2000\plotters\DWF ePlot.pc3
  4
ANSI_A_(8.50_x_11.00_Inches)
  6

 40
5.793749809265137
 41
17.79375076293945
 42
5.793746948242188
 43
17.79376220703125
 44
215.8999938964844
 45
279.3999938964844
 46
0.0
 47
0.0
 48
0.0
 49
0.0
140
0.0
141
0.0
142
1.0
143
43.75760864458461
 70
   688
 72
     0
 73
     1
 74
     1
  7
systemprinter.ctb
 75
     0
147
0.0228531684197454
148
0.3255366854427166
149
0.2302009418498301
100
AcDbLayout
  1
ﾚｲｱｳﾄ1
 70
     1
 71
     1
 10
-30.66685116754002
 20
-9.990190459854741
 11
450.6668334081172
 21
361.9494725043409
 12
0.0
 22
0.0
 32
0.0
 14
-0.0128164049386896
 24
-0.0090630292066862
 34
-0.0015258207003583
 15
420.0128183607162
 25
297.0090644122207
 35
0.0000000349246037
146
0.0
 13
0.0
 23
0.0
 33
0.0
 16
1.0
 26
0.0
 36
0.0
 17
0.0
 27
1.0
 37
0.0
 76
     0
330
17
331
64
  0
MLINESTYLE
  5
13
102
{ACAD_REACTORS
330
E
102
}
330
E
100
AcDbMlineStyle
  2
STANDARD
 70
     0
  3

 62
     0
 51
90.0
 52
90.0
 71
     2
 49
0.5
 62
   256
  6
BYLAYER
 49
-0.5
 62
   256
  6
BYLAYER
  0
ACDBPLACEHOLDER
  5
A97
102
{ACAD_REACTORS
330
A96
102
}
330
A96
  0
ENDSEC
  0
EOF
