  0
SECTION
  2
HEADER
  9
$ACADVER
  1
AC1015
  9
$ACADMAINTVER
 70
     6
  9
$DWGCODEPAGE
  3
ANSI_932
  9
$INSBASE
 10
0.0
 20
0.0
 30
0.0
  9
$EXTMIN
 10
0.0000000135560185
 20
-0.0000001317113174
 30
0.0
  9
$EXTMAX
 10
797.6000000135562
 20
551.5999998682888
 30
0.0
  9
$LIMMIN
 10
0.0
 20
0.0
  9
$LIMMAX
 10
840.0
 20
594.0
  9
$ORTHOMODE
 70
     0
  9
$REGENMODE
 70
     1
  9
$FILLMODE
 70
     1
  9
$QTEXTMODE
 70
     0
  9
$MIRRTEXT
 70
     1
  9
$LTSCALE
 40
2.0
  9
$ATTMODE
 70
     1
  9
$TEXTSIZE
 40
6.0
  9
$TRACEWID
 40
1.0
  9
$TEXTSTYLE
  7
STANDARD
  9
$CLAYER
  8
SEIHIN
  9
$CELTYPE
  6
BYLAYER
  9
$CECOLOR
 62
   256
  9
$CELTSCALE
 40
1.0
  9
$DISPSILH
 70
     0
  9
$DIMSCALE
 40
1.0
  9
$DIMASZ
 40
7.0
  9
$DIMEXO
 40
6.0
  9
$DIMDLI
 40
14.0
  9
$DIMRND
 40
0.0
  9
$DIMDLE
 40
0.0
  9
$DIMEXE
 40
3.0
  9
$DIMTP
 40
0.0
  9
$DIMTM
 40
0.0
  9
$DIMTXT
 40
6.0
  9
$DIMCEN
 40
150.0
  9
$DIMTSZ
 40
0.0
  9
$DIMTOL
 70
     0
  9
$DIMLIM
 70
     0
  9
$DIMTIH
 70
     0
  9
$DIMTOH
 70
     0
  9
$DIMSE1
 70
     0
  9
$DIMSE2
 70
     0
  9
$DIMTAD
 70
     3
  9
$DIMZIN
 70
     0
  9
$DIMBLK
  1

  9
$DIMASO
 70
     1
  9
$DIMSHO
 70
     1
  9
$DIMPOST
  1

  9
$DIMAPOST
  1

  9
$DIMALT
 70
     0
  9
$DIMALTD
 70
     2
  9
$DIMALTF
 40
25.4
  9
$DIMLFAC
 40
1.0
  9
$DIMTOFL
 70
     1
  9
$DIMTVP
 40
0.0
  9
$DIMTIX
 70
     0
  9
$DIMSOXD
 70
     0
  9
$DIMSAH
 70
     1
  9
$DIMBLK1
  1
OPEN
  9
$DIMBLK2
  1
OPEN
  9
$DIMSTYLE
  2
STANDARD
  9
$DIMCLRD
 70
   256
  9
$DIMCLRE
 70
   256
  9
$DIMCLRT
 70
   256
  9
$DIMTFAC
 40
1.0
  9
$DIMGAP
 40
2.0
  9
$DIMJUST
 70
     0
  9
$DIMSD1
 70
     0
  9
$DIMSD2
 70
     0
  9
$DIMTOLJ
 70
     1
  9
$DIMTZIN
 70
     0
  9
$DIMALTZ
 70
     0
  9
$DIMALTTZ
 70
     0
  9
$DIMUPT
 70
     0
  9
$DIMDEC
 70
     0
  9
$DIMTDEC
 70
     0
  9
$DIMALTU
 70
     2
  9
$DIMALTTD
 70
     2
  9
$DIMTXSTY
  7
STANDARD
  9
$DIMAUNIT
 70
     0
  9
$DIMADEC
 70
     0
  9
$DIMALTRND
 40
0.0
  9
$DIMAZIN
 70
     0
  9
$DIMDSEP
 70
    46
  9
$DIMATFIT
 70
     3
  9
$DIMFRAC
 70
     0
  9
$DIMLDRBLK
  1
OPEN
  9
$DIMLUNIT
 70
     2
  9
$DIMLWD
 70
    -1
  9
$DIMLWE
 70
    -1
  9
$DIMTMOVE
 70
     0
  9
$LUNITS
 70
     2
  9
$LUPREC
 70
     4
  9
$SKETCHINC
 40
1.0
  9
$FILLETRAD
 40
10.0
  9
$AUNITS
 70
     0
  9
$AUPREC
 70
     0
  9
$MENU
  1
.
  9
$ELEVATION
 40
0.0
  9
$PELEVATION
 40
0.0
  9
$THICKNESS
 40
0.0
  9
$LIMCHECK
 70
     0
  9
$CHAMFERA
 40
0.0
  9
$CHAMFERB
 40
0.0
  9
$CHAMFERC
 40
40.0
  9
$CHAMFERD
 40
0.0
  9
$SKPOLY
 70
     0
  9
$TDCREATE
 40
2451030.614786227
  9
$TDUCREATE
 40
2451030.239786227
  9
$TDUPDATE
 40
2455609.407681238
  9
$TDUUPDATE
 40
2455609.032681238
  9
$TDINDWG
 40
0.3516056019
  9
$TDUSRTIMER
 40
0.3516056019
  9
$USRTIMER
 70
     1
  9
$ANGBASE
 50
0.0
  9
$ANGDIR
 70
     0
  9
$PDMODE
 70
     0
  9
$PDSIZE
 40
0.0
  9
$PLINEWID
 40
0.0
  9
$SPLFRAME
 70
     0
  9
$SPLINETYPE
 70
     6
  9
$SPLINESEGS
 70
     8
  9
$HANDSEED
  5
A92E
  9
$SURFTAB1
 70
     6
  9
$SURFTAB2
 70
     6
  9
$SURFTYPE
 70
     6
  9
$SURFU
 70
     6
  9
$SURFV
 70
     6
  9
$UCSBASE
  2

  9
$UCSNAME
  2

  9
$UCSORG
 10
0.0
 20
0.0
 30
0.0
  9
$UCSXDIR
 10
1.0
 20
0.0
 30
0.0
  9
$UCSYDIR
 10
0.0
 20
1.0
 30
0.0
  9
$UCSORTHOREF
  2

  9
$UCSORTHOVIEW
 70
     0
  9
$UCSORGTOP
 10
0.0
 20
0.0
 30
0.0
  9
$UCSORGBOTTOM
 10
0.0
 20
0.0
 30
0.0
  9
$UCSORGLEFT
 10
0.0
 20
0.0
 30
0.0
  9
$UCSORGRIGHT
 10
0.0
 20
0.0
 30
0.0
  9
$UCSORGFRONT
 10
0.0
 20
0.0
 30
0.0
  9
$UCSORGBACK
 10
0.0
 20
0.0
 30
0.0
  9
$PUCSBASE
  2

  9
$PUCSNAME
  2

  9
$PUCSORG
 10
0.0
 20
0.0
 30
0.0
  9
$PUCSXDIR
 10
1.0
 20
0.0
 30
0.0
  9
$PUCSYDIR
 10
0.0
 20
1.0
 30
0.0
  9
$PUCSORTHOREF
  2

  9
$PUCSORTHOVIEW
 70
     0
  9
$PUCSORGTOP
 10
0.0
 20
0.0
 30
0.0
  9
$PUCSORGBOTTOM
 10
0.0
 20
0.0
 30
0.0
  9
$PUCSORGLEFT
 10
0.0
 20
0.0
 30
0.0
  9
$PUCSORGRIGHT
 10
0.0
 20
0.0
 30
0.0
  9
$PUCSORGFRONT
 10
0.0
 20
0.0
 30
0.0
  9
$PUCSORGBACK
 10
0.0
 20
0.0
 30
0.0
  9
$USERI1
 70
     0
  9
$USERI2
 70
     0
  9
$USERI3
 70
     0
  9
$USERI4
 70
     0
  9
$USERI5
 70
     0
  9
$USERR1
 40
0.0
  9
$USERR2
 40
0.0
  9
$USERR3
 40
0.0
  9
$USERR4
 40
0.0
  9
$USERR5
 40
0.0
  9
$WORLDVIEW
 70
     1
  9
$SHADEDGE
 70
     3
  9
$SHADEDIF
 70
    70
  9
$TILEMODE
 70
     1
  9
$MAXACTVP
 70
    16
  9
$PINSBASE
 10
0.0
 20
0.0
 30
0.0
  9
$PLIMCHECK
 70
     0
  9
$PEXTMIN
 10
-0.0128164049386896
 20
-0.0090630292066862
 30
-0.0015258207003583
  9
$PEXTMAX
 10
420.0128183607162
 20
297.0090644122207
 30
0.0000000349246037
  9
$PLIMMIN
 10
-30.66685116754002
 20
-9.990190459854741
  9
$PLIMMAX
 10
450.6668334081172
 20
361.9494725043409
  9
$UNITMODE
 70
     0
  9
$VISRETAIN
 70
     0
  9
$PLINEGEN
 70
     0
  9
$PSLTSCALE
 70
     1
  9
$TREEDEPTH
 70
  3020
  9
$CMLSTYLE
  2
STANDARD
  9
$CMLJUST
 70
     0
  9
$CMLSCALE
 40
1.0
  9
$PROXYGRAPHICS
 70
     1
  9
$MEASUREMENT
 70
     0
  9
$CELWEIGHT
370
    -1
  9
$ENDCAPS
280
     0
  9
$JOINSTYLE
280
     0
  9
$LWDISPLAY
290
     0
  9
$INSUNITS
 70
     0
  9
$HYPERLINKBASE
  1

  9
$STYLESHEET
  1
systemprinter.ctb
  9
$XEDIT
290
     1
  9
$CEPSNTYPE
380
     0
  9
$PSTYLEMODE
290
     1
  9
$FINGERPRINTGUID
  2
{91E25F26-0CBF-4C93-982E-B5F00895E654}
  9
$VERSIONGUID
  2
{9C943A16-767A-4F1E-89F1-19469463E128}
  9
$EXTNAMES
290
     1
  9
$PSVPSCALE
 40
0.0
  9
$OLESTARTUP
290
     0
  0
ENDSEC
  0
SECTION
  2
CLASSES
  0
CLASS
  1
ACDBDICTIONARYWDFLT
  2
AcDbDictionaryWithDefault
  3
ObjectDBX Classes
 90
        0
280
     0
281
     0
  0
CLASS
  1
ACDBPLACEHOLDER
  2
AcDbPlaceHolder
  3
ObjectDBX Classes
 90
        0
280
     0
281
     0
  0
CLASS
  1
LAYOUT
  2
AcDbLayout
  3
ObjectDBX Classes
 90
        0
280
     0
281
     0
  0
CLASS
  1
DUMMY
  2
AcDbLongTransaction
  3
DUMMY
 90
        0
280
     0
281
     0
  0
CLASS
  1
LWPOLYLINE
  2
AcDbPolyline
  3
AutoCAD 2000
 90
        0
280
     0
281
     1
  0
CLASS
  1
HATCH
  2
AcDbHatch
  3
AutoCAD 2000
 90
        0
280
     0
281
     1
  0
CLASS
  1
XRECORD
  2
AcDbXrecord
  3
AutoCAD 2000
 90
        0
280
     0
281
     0
  0
CLASS
  1
DUMMY
  2
AcDbLongTransaction
  3
DUMMY
 90
        0
280
     0
281
     0
  0
CLASS
  1
LWPOLYLINE
  2
AcDbPolyline
  3
AutoCAD 2000
 90
        0
280
     0
281
     1
  0
CLASS
  1
HATCH
  2
AcDbHatch
  3
AutoCAD 2000
 90
        0
280
     0
281
     1
  0
CLASS
  1
XRECORD
  2
AcDbXrecord
  3
AutoCAD 2000
 90
        0
280
     0
281
     0
  0
CLASS
  1
DUMMY
  2
AcDbLongTransaction
  3
DUMMY
 90
        0
280
     0
281
     0
  0
CLASS
  1
LWPOLYLINE
  2
AcDbPolyline
  3
AutoCAD 2000
 90
        0
280
     0
281
     1
  0
CLASS
  1
HATCH
  2
AcDbHatch
  3
AutoCAD 2000
 90
        0
280
     0
281
     1
  0
CLASS
  1
XRECORD
  2
AcDbXrecord
  3
AutoCAD 2000
 90
        0
280
     0
281
     0
  0
CLASS
  1
DUMMY
  2
AcDbLongTransaction
  3
DUMMY
 90
        0
280
     0
281
     0
  0
CLASS
  1
LWPOLYLINE
  2
AcDbPolyline
  3
AutoCAD 2000
 90
        0
280
     0
281
     1
  0
CLASS
  1
HATCH
  2
AcDbHatch
  3
AutoCAD 2000
 90
        0
280
     0
281
     1
  0
CLASS
  1
XRECORD
  2
AcDbXrecord
  3
AutoCAD 2000
 90
        0
280
     0
281
     0
  0
CLASS
  1
DUMMY
  2
AcDbLongTransaction
  3
DUMMY
 90
        0
280
     0
281
     0
  0
CLASS
  1
LWPOLYLINE
  2
AcDbPolyline
  3
AutoCAD 2000
 90
        0
280
     0
281
     1
  0
CLASS
  1
HATCH
  2
AcDbHatch
  3
AutoCAD 2000
 90
        0
280
     0
281
     1
  0
CLASS
  1
XRECORD
  2
AcDbXrecord
  3
AutoCAD 2000
 90
        0
280
     0
281
     0
  0
ENDSEC
  0
SECTION
  2
TABLES
  0
TABLE
  2
VPORT
  5
8
330
0
100
AcDbSymbolTable
 70
     2
  0
VPORT
  5
A92D
330
8
100
AcDbSymbolTableRecord
100
AcDbViewportTableRecord
  2
*Active
 70
     0
 10
0.0
 20
0.0
 11
1.0
 21
1.0
 12
411.9710790997629
 22
289.5012987235623
 13
0.0
 23
0.0
 14
5.0
 24
5.0
 15
0.0
 25
0.0
 16
0.0
 26
0.0
 36
1.0
 17
0.0
 27
0.0
 37
0.0
 40
691.327423145282
 41
1.651537335285505
 42
50.0
 43
0.0
 44
0.0
 50
0.0
 51
0.0
 71
     0
 72
   100
 73
     1
 74
     0
 75
     0
 76
     0
 77
     0
 78
     0
281
     0
 65
     1
110
0.0
120
0.0
130
0.0
111
1.0
121
0.0
131
0.0
112
0.0
122
1.0
132
0.0
 79
     0
146
0.0
  0
ENDTAB
  0
TABLE
  2
LTYPE
  5
5
330
0
100
AcDbSymbolTable
 70
     3
  0
LTYPE
  5
14
330
5
100
AcDbSymbolTableRecord
100
AcDbLinetypeTableRecord
  2
BYBLOCK
 70
     0
  3

 72
    65
 73
     0
 40
0.0
  0
LTYPE
  5
15
330
5
100
AcDbSymbolTableRecord
100
AcDbLinetypeTableRecord
  2
BYLAYER
 70
     0
  3

 72
    65
 73
     0
 40
0.0
  0
LTYPE
  5
16
330
5
100
AcDbSymbolTableRecord
100
AcDbLinetypeTableRecord
  2
CONTINUOUS
 70
     0
  3
Solid line
 72
    65
 73
     0
 40
0.0
  0
LTYPE
  5
135
330
5
100
AcDbSymbolTableRecord
100
AcDbLinetypeTableRecord
  2
CENTER
 70
     0
  3
____ _ ____ _ ____ _ ____ _ ____ _ ____ _ ____ 
 72
    65
 73
     4
 40
2.0
 49
1.25
 74
     0
 49
-0.25
 74
     0
 49
0.25
 74
     0
 49
-0.25
 74
     0
  0
LTYPE
  5
8279
330
5
100
AcDbSymbolTableRecord
100
AcDbLinetypeTableRecord
  2
PHANTOM
 70
     0
  3
______  __  __  ______  __  __  ______  __  __ 
 72
    65
 73
     6
 40
2.5
 49
1.25
 74
     0
 49
-0.25
 74
     0
 49
0.25
 74
     0
 49
-0.25
 74
     0
 49
0.25
 74
     0
 49
-0.25
 74
     0
  0
ENDTAB
  0
TABLE
  2
LAYER
  5
2
330
0
100
AcDbSymbolTable
 70
     8
  0
LAYER
  5
F
330
2
100
AcDbSymbolTableRecord
100
AcDbLayerTableRecord
  2
0
 70
     0
 62
     7
  6
CONTINUOUS
370
    -3
390
A97
  0
LAYER
  5
62
330
2
100
AcDbSymbolTableRecord
100
AcDbLayerTableRecord
  2
VIEWPORT
 70
     0
 62
     7
  6
CONTINUOUS
370
    -3
390
A97
  0
LAYER
  5
143
330
2
100
AcDbSymbolTableRecord
100
AcDbLayerTableRecord
  2
SEIHIN
 70
     0
 62
     3
  6
CONTINUOUS
370
    -3
390
A97
  0
LAYER
  5
444
330
2
100
AcDbSymbolTableRecord
100
AcDbLayerTableRecord
  2
DEFPOINTS
 70
     0
 62
     7
  6
CONTINUOUS
290
     0
370
    -3
390
A97
  0
LAYER
  5
482
330
2
100
AcDbSymbolTableRecord
100
AcDbLayerTableRecord
  2
SUNPOU
 70
     0
 62
     4
  6
CONTINUOUS
370
    -3
390
A97
  0
LAYER
  5
5D4
330
2
100
AcDbSymbolTableRecord
100
AcDbLayerTableRecord
  2
CENTER L
 70
     0
 62
     1
  6
CENTER
370
    -3
390
A97
  0
LAYER
  5
3D95
330
2
100
AcDbSymbolTableRecord
100
AcDbLayerTableRecord
  2
ZUWAKU
 70
     0
 62
     7
  6
CONTINUOUS
370
    -3
390
A97
  0
LAYER
  5
3D96
330
2
100
AcDbSymbolTableRecord
100
AcDbLayerTableRecord
  2
moji
 70
     0
 62
     2
  6
CONTINUOUS
370
    -3
390
A97
  0
ENDTAB
  0
TABLE
  2
STYLE
  5
3
330
0
100
AcDbSymbolTable
 70
     2
  0
STYLE
  5
10
330
3
100
AcDbSymbolTableRecord
100
AcDbTextStyleTableRecord
  2
STANDARD
 70
     0
 40
0.0
 41
1.0
 50
0.0
 71
     0
 42
6.0
  3
TXT
  4
bigfont.shx
  0
STYLE
  5
3D97
330
3
100
AcDbSymbolTableRecord
100
AcDbTextStyleTableRecord
  2
ｽﾀｲﾙ1
 70
     0
 40
0.0
 41
1.0
 50
0.0
 71
     0
 42
2.5
  3
MS PGothic.ttf
  4

1001
ACAD
1000
MS PGothic
1071
    32818
  0
ENDTAB
  0
TABLE
  2
VIEW
  5
6
330
0
100
AcDbSymbolTable
 70
     0
  0
ENDTAB
  0
TABLE
  2
UCS
  5
7
330
0
100
AcDbSymbolTable
 70
     0
  0
ENDTAB
  0
TABLE
  2
APPID
  5
9
330
0
100
AcDbSymbolTable
 70
     1
  0
APPID
  5
11
330
9
100
AcDbSymbolTableRecord
100
AcDbRegAppTableRecord
  2
ACAD
 70
     0
  0
ENDTAB
  0
TABLE
  2
DIMSTYLE
  5
A
330
0
100
AcDbSymbolTable
 70
     1
100
AcDbDimStyleTable
  0
DIMSTYLE
105
1D
102
{ACAD_REACTORS
330
A6C9
330
A6CA
330
A6CB
330
A6D7
330
A6E0
330
A6FC
330
A71D
330
A733
330
A737
330
A7A0
330
A7A1
330
A7A8
330
A7A9
330
A7AC
330
A7AD
330
A7C3
102
}
330
A
100
AcDbSymbolTableRecord
100
AcDbDimStyleTableRecord
  2
STANDARD
 70
     0
340
10
  0
ENDTAB
  0
TABLE
  2
BLOCK_RECORD
  5
1
330
0
100
AcDbSymbolTable
 70
    17
  0
BLOCK_RECORD
  5
1A
330
1
100
AcDbSymbolTableRecord
100
AcDbBlockTableRecord
  2
*MODEL_SPACE
340
A9A
  0
BLOCK_RECORD
  5
17
330
1
100
AcDbSymbolTableRecord
100
AcDbBlockTableRecord
  2
*PAPER_SPACE
340
A9B
  0
BLOCK_RECORD
  5
6D
330
1
100
AcDbSymbolTableRecord
100
AcDbBlockTableRecord
  2
_OPEN
340
0
102
{BLKREFS
331
A894
331
A895
331
A89D
331
A89E
331
A8A6
331
A8A7
331
A8AF
331
A8B0
331
A8B8
331
A8B9
331
A8C3
331
A8C4
331
A8CC
331
A8CD
331
A8D5
331
A8D6
331
A8DE
331
A8DF
331
A8E7
331
A8E8
331
A8F0
331
A8F1
331
A8FB
331
A8FC
331
A904
331
A905
331
A90F
331
A910
331
A918
331
A919
331
A921
331
A922
102
}
  0
BLOCK_RECORD
  5
A7CB
330
1
100
AcDbSymbolTableRecord
100
AcDbBlockTableRecord
  2
*D1
340
0
  0
BLOCK_RECORD
  5
A7D7
330
1
100
AcDbSymbolTableRecord
100
AcDbBlockTableRecord
  2
*D2
340
0
  0
BLOCK_RECORD
  5
A7E3
330
1
100
AcDbSymbolTableRecord
100
AcDbBlockTableRecord
  2
*D3
340
0
  0
BLOCK_RECORD
  5
A7EF
330
1
100
AcDbSymbolTableRecord
100
AcDbBlockTableRecord
  2
*D4
340
0
  0
BLOCK_RECORD
  5
A7FB
330
1
100
AcDbSymbolTableRecord
100
AcDbBlockTableRecord
  2
*D5
340
0
  0
BLOCK_RECORD
  5
A807
330
1
100
AcDbSymbolTableRecord
100
AcDbBlockTableRecord
  2
*D6
340
0
  0
BLOCK_RECORD
  5
A815
330
1
100
AcDbSymbolTableRecord
100
AcDbBlockTableRecord
  2
*D7
340
0
  0
BLOCK_RECORD
  5
A821
330
1
100
AcDbSymbolTableRecord
100
AcDbBlockTableRecord
  2
*D8
340
0
  0
BLOCK_RECORD
  5
A82D
330
1
100
AcDbSymbolTableRecord
100
AcDbBlockTableRecord
  2
*D9
340
0
  0
BLOCK_RECORD
  5
A839
330
1
100
AcDbSymbolTableRecord
100
AcDbBlockTableRecord
  2
*D10
340
0
  0
BLOCK_RECORD
  5
A845
330
1
100
AcDbSymbolTableRecord
100
AcDbBlockTableRecord
  2
*D11
340
0
  0
BLOCK_RECORD
  5
A851
330
1
100
AcDbSymbolTableRecord
100
AcDbBlockTableRecord
  2
*D12
340
0
  0
BLOCK_RECORD
  5
A85F
330
1
100
AcDbSymbolTableRecord
100
AcDbBlockTableRecord
  2
*D13
340
0
  0
BLOCK_RECORD
  5
A86B
330
1
100
AcDbSymbolTableRecord
100
AcDbBlockTableRecord
  2
*D14
340
0
  0
BLOCK_RECORD
  5
A879
330
1
100
AcDbSymbolTableRecord
100
AcDbBlockTableRecord
  2
*D15
340
0
  0
BLOCK_RECORD
  5
A885
330
1
100
AcDbSymbolTableRecord
100
AcDbBlockTableRecord
  2
*D16
340
0
  0
ENDTAB
  0
ENDSEC
  0
SECTION
  2
BLOCKS
  0
BLOCK
  5
1B
330
1A
100
AcDbEntity
  8
0
100
AcDbBlockBegin
  2
*MODEL_SPACE
 70
     0
 71
     0
 10
0.0
 20
0.0
 30
0.0
  3
*MODEL_SPACE
  1

  0
ENDBLK
  5
1C
330
1A
100
AcDbEntity
  8
0
100
AcDbBlockEnd
  0
BLOCK
  5
18
330
17
100
AcDbEntity
 67
     1
  8
0
100
AcDbBlockBegin
  2
*PAPER_SPACE
 70
     0
 71
     0
 10
0.0
 20
0.0
 30
0.0
  3
*PAPER_SPACE
  1

  0
ENDBLK
  5
19
330
17
100
AcDbEntity
 67
     1
  8
0
100
AcDbBlockEnd
  0
BLOCK
  5
6E
330
6D
100
AcDbEntity
  8
0
100
AcDbBlockBegin
  2
_OPEN
 70
     0
 71
     0
 10
0.0
 20
0.0
 30
0.0
  3
_OPEN
  1

  0
LINE
  5
6F
330
6D
100
AcDbEntity
  8
0
  6
ByBlock
 62
     0
100
AcDbLine
 10
-1.0
 20
0.1666666666666667
 30
0.0
 11
0.0
 21
0.0
 31
0.0
  0
LINE
  5
70
330
6D
100
AcDbEntity
  8
0
  6
ByBlock
 62
     0
100
AcDbLine
 10
0.0
 20
0.0
 30
0.0
 11
-1.0
 21
-0.1666666666666667
 31
0.0
  0
LINE
  5
71
330
6D
100
AcDbEntity
  8
0
  6
ByBlock
 62
     0
100
AcDbLine
 10
0.0
 20
0.0
 30
0.0
 11
-1.0
 21
0.0
 31
0.0
  0
ENDBLK
  5
72
330
6D
100
AcDbEntity
  8
0
100
AcDbBlockEnd
  0
BLOCK
  5
A7D5
330
A7CB
100
AcDbEntity
  8
0
100
AcDbBlockBegin
  2
*D1
 70
     1
 71
     0
 10
0.0
 20
0.0
 30
0.0
  3
*D1
  1

  0
LINE
  5
A891
330
A7CB
100
AcDbEntity
  8
SUNPOU
 62
     4
370
    -2
100
AcDbLine
 10
420.0445619977771
 20
295.0478462669683
 30
0.0
 11
509.3358453891923
 21
295.0478462669683
 31
0.0
  0
LINE
  5
A892
330
A7CB
100
AcDbEntity
  8
SUNPOU
 62
     4
370
    -2
100
AcDbLine
 10
457.6659680669521
 20
139.3490360789041
 30
0.0
 11
509.3358453891923
 21
139.3490360789041
 31
0.0
  0
LINE
  5
A893
330
A7CB
100
AcDbEntity
  8
SUNPOU
 62
     4
370
    -2
100
AcDbLine
 10
506.3358453891923
 20
288.0478462669683
 30
0.0
 11
506.3358453891923
 21
146.3490360789041
 31
0.0
  0
INSERT
  5
A894
330
A7CB
100
AcDbEntity
  8
SUNPOU
 62
     4
370
    -2
100
AcDbBlockReference
  2
_OPEN
 10
506.3358453891923
 20
295.0478462669683
 30
0.0
 41
7.0
 42
7.0
 43
7.0
 50
90.0
  0
INSERT
  5
A895
330
A7CB
100
AcDbEntity
  8
SUNPOU
 62
     4
370
    -2
100
AcDbBlockReference
  2
_OPEN
 10
506.3358453891923
 20
139.3490360789041
 30
0.0
 41
7.0
 42
7.0
 43
7.0
 50
270.0
  0
MTEXT
  5
A896
330
A7CB
100
AcDbEntity
  8
SUNPOU
 62
     4
100
AcDbMText
 10
501.3358453891922
 20
217.1984411729362
 30
0.0
 40
6.0
 41
0.0
 71
     5
 72
     1
  1
\A1;156
 11
6.123031769111886E-17
 21
1.0
 31
0.0
 73
     1
 44
1.0
  0
POINT
  5
A897
330
A7CB
100
AcDbEntity
  8
DEFPOINTS
 62
     0
100
AcDbPoint
 10
414.0445619977771
 20
295.0478462669683
 30
0.0
  0
POINT
  5
A898
330
A7CB
100
AcDbEntity
  8
DEFPOINTS
 62
     0
100
AcDbPoint
 10
451.6659680669521
 20
139.3490360789041
 30
0.0
  0
POINT
  5
A899
330
A7CB
100
AcDbEntity
  8
DEFPOINTS
 62
     0
100
AcDbPoint
 10
506.3358453891923
 20
139.3490360789041
 30
0.0
  0
ENDBLK
  5
A7D6
330
A7CB
100
AcDbEntity
  8
0
100
AcDbBlockEnd
  0
BLOCK
  5
A7E1
330
A7D7
100
AcDbEntity
  8
0
100
AcDbBlockBegin
  2
*D2
 70
     1
 71
     0
 10
0.0
 20
0.0
 30
0.0
  3
*D2
  1

  0
LINE
  5
A89A
330
A7D7
100
AcDbEntity
  8
SUNPOU
 62
     4
370
    -2
100
AcDbLine
 10
343.5473150603008
 20
95.16063607890413
 30
0.0
 11
343.5473150603008
 21
65.85670062840919
 31
0.0
  0
LINE
  5
A89B
330
A7D7
100
AcDbEntity
  8
SUNPOU
 62
     4
370
    -2
100
AcDbLine
 10
437.1838063213912
 20
95.16063607890413
 30
0.0
 11
437.1838063213912
 21
65.85670062840919
 31
0.0
  0
LINE
  5
A89C
330
A7D7
100
AcDbEntity
  8
SUNPOU
 62
     4
370
    -2
100
AcDbLine
 10
350.5473150603008
 20
68.85670062840919
 30
0.0
 11
430.1838063213912
 21
68.85670062840919
 31
0.0
  0
INSERT
  5
A89D
330
A7D7
100
AcDbEntity
  8
SUNPOU
 62
     4
370
    -2
100
AcDbBlockReference
  2
_OPEN
 10
343.5473150603008
 20
68.85670062840919
 30
0.0
 41
7.0
 42
7.0
 43
7.0
 50
180.0
  0
INSERT
  5
A89E
330
A7D7
100
AcDbEntity
  8
SUNPOU
 62
     4
370
    -2
100
AcDbBlockReference
  2
_OPEN
 10
437.1838063213912
 20
68.85670062840919
 30
0.0
 41
7.0
 42
7.0
 43
7.0
  0
MTEXT
  5
A89F
330
A7D7
100
AcDbEntity
  8
SUNPOU
 62
     4
100
AcDbMText
 10
390.365560690846
 20
73.85670062840919
 30
0.0
 40
6.0
 41
0.0
 71
     5
 72
     1
  1
\A1;94
 73
     1
 44
1.0
  0
POINT
  5
A8A0
330
A7D7
100
AcDbEntity
  8
DEFPOINTS
 62
     0
100
AcDbPoint
 10
343.5473150603008
 20
101.1606360789041
 30
0.0
  0
POINT
  5
A8A1
330
A7D7
100
AcDbEntity
  8
DEFPOINTS
 62
     0
100
AcDbPoint
 10
437.1838063213912
 20
101.1606360789041
 30
0.0
  0
POINT
  5
A8A2
330
A7D7
100
AcDbEntity
  8
DEFPOINTS
 62
     0
100
AcDbPoint
 10
437.1838063213912
 20
68.85670062840919
 30
0.0
  0
ENDBLK
  5
A7E2
330
A7D7
100
AcDbEntity
  8
0
100
AcDbBlockEnd
  0
BLOCK
  5
A7ED
330
A7E3
100
AcDbEntity
  8
0
100
AcDbBlockBegin
  2
*D3
 70
     1
 71
     0
 10
0.0
 20
0.0
 30
0.0
  3
*D3
  1

  0
LINE
  5
A8A3
330
A7E3
100
AcDbEntity
  8
SUNPOU
 62
     4
370
    -2
100
AcDbLine
 10
309.9478296548601
 20
188.7168306792946
 30
0.0
 11
309.9478296548601
 21
213.4224484472849
 31
0.0
  0
LINE
  5
A8A4
330
A7E3
100
AcDbEntity
  8
SUNPOU
 62
     4
370
    -2
100
AcDbLine
 10
449.1659180669523
 20
186.576186078904
 30
0.0
 11
449.1659180669523
 21
213.4224484472849
 31
0.0
  0
LINE
  5
A8A5
330
A7E3
100
AcDbEntity
  8
SUNPOU
 62
     4
370
    -2
100
AcDbLine
 10
316.9478296548601
 20
210.4224484472849
 30
0.0
 11
442.1659180669523
 21
210.4224484472849
 31
0.0
  0
INSERT
  5
A8A6
330
A7E3
100
AcDbEntity
  8
SUNPOU
 62
     4
370
    -2
100
AcDbBlockReference
  2
_OPEN
 10
309.9478296548601
 20
210.4224484472849
 30
0.0
 41
7.0
 42
7.0
 43
7.0
 50
180.0
  0
INSERT
  5
A8A7
330
A7E3
100
AcDbEntity
  8
SUNPOU
 62
     4
370
    -2
100
AcDbBlockReference
  2
_OPEN
 10
449.1659180669523
 20
210.4224484472849
 30
0.0
 41
7.0
 42
7.0
 43
7.0
  0
MTEXT
  5
A8A8
330
A7E3
100
AcDbEntity
  8
SUNPOU
 62
     4
100
AcDbMText
 10
379.5568738609062
 20
215.4224484472849
 30
0.0
 40
6.0
 41
0.0
 71
     5
 72
     1
  1
\A1;139
 73
     1
 44
1.0
  0
POINT
  5
A8A9
330
A7E3
100
AcDbEntity
  8
DEFPOINTS
 62
     0
100
AcDbPoint
 10
309.9478296548601
 20
182.7168306792946
 30
0.0
  0
POINT
  5
A8AA
330
A7E3
100
AcDbEntity
  8
DEFPOINTS
 62
     0
100
AcDbPoint
 10
449.1659180669523
 20
180.576186078904
 30
0.0
  0
POINT
  5
A8AB
330
A7E3
100
AcDbEntity
  8
DEFPOINTS
 62
     0
100
AcDbPoint
 10
449.1659180669523
 20
210.4224484472849
 30
0.0
  0
ENDBLK
  5
A7EE
330
A7E3
100
AcDbEntity
  8
0
100
AcDbBlockEnd
  0
BLOCK
  5
A7F9
330
A7EF
100
AcDbEntity
  8
0
100
AcDbBlockBegin
  2
*D4
 70
     1
 71
     0
 10
0.0
 20
0.0
 30
0.0
  3
*D4
  1

  0
LINE
  5
A8AC
330
A7EF
100
AcDbEntity
  8
SUNPOU
 62
     4
370
    -2
100
AcDbLine
 10
339.7205680669523
 20
101.1606360789041
 30
0.0
 11
274.6383321322526
 21
101.1606360789042
 31
0.0
  0
LINE
  5
A8AD
330
A7EF
100
AcDbEntity
  8
SUNPOU
 62
     4
370
    -2
100
AcDbLine
 10
303.9478296548601
 20
182.7168306792946
 30
0.0
 11
274.6383321322527
 21
182.7168306792946
 31
0.0
  0
LINE
  5
A8AE
330
A7EF
100
AcDbEntity
  8
SUNPOU
 62
     4
370
    -2
100
AcDbLine
 10
277.6383321322526
 20
108.1606360789042
 30
0.0
 11
277.6383321322527
 21
175.7168306792946
 31
0.0
  0
INSERT
  5
A8AF
330
A7EF
100
AcDbEntity
  8
SUNPOU
 62
     4
370
    -2
100
AcDbBlockReference
  2
_OPEN
 10
277.6383321322526
 20
101.1606360789042
 30
0.0
 41
7.0
 42
7.0
 43
7.0
 50
270.0
  0
INSERT
  5
A8B0
330
A7EF
100
AcDbEntity
  8
SUNPOU
 62
     4
370
    -2
100
AcDbBlockReference
  2
_OPEN
 10
277.6383321322527
 20
182.7168306792946
 30
0.0
 41
7.0
 42
7.0
 43
7.0
 50
90.0
  0
MTEXT
  5
A8B1
330
A7EF
100
AcDbEntity
  8
SUNPOU
 62
     4
100
AcDbMText
 10
272.6383321322526
 20
141.9387333790994
 30
0.0
 40
6.0
 41
0.0
 71
     5
 72
     1
  1
\A1;82
 11
6.123031769111886E-17
 21
1.0
 31
0.0
 73
     1
 44
1.0
  0
POINT
  5
A8B2
330
A7EF
100
AcDbEntity
  8
DEFPOINTS
 62
     0
100
AcDbPoint
 10
345.7205680669523
 20
101.1606360789041
 30
0.0
  0
POINT
  5
A8B3
330
A7EF
100
AcDbEntity
  8
DEFPOINTS
 62
     0
100
AcDbPoint
 10
309.9478296548601
 20
182.7168306792946
 30
0.0
  0
POINT
  5
A8B4
330
A7EF
100
AcDbEntity
  8
DEFPOINTS
 62
     0
100
AcDbPoint
 10
277.6383321322527
 20
182.7168306792946
 30
0.0
  0
ENDBLK
  5
A7FA
330
A7EF
100
AcDbEntity
  8
0
100
AcDbBlockEnd
  0
BLOCK
  5
A805
330
A7FB
100
AcDbEntity
  8
0
100
AcDbBlockBegin
  2
*D5
 70
     1
 71
     0
 10
0.0
 20
0.0
 30
0.0
  3
*D5
  1

  0
LINE
  5
A8B5
330
A7FB
100
AcDbEntity
  8
SUNPOU
 62
     4
370
    -2
100
AcDbLine
 10
298.4825680669522
 20
217.2928360789041
 30
0.0
 11
274.6383321322527
 21
217.2928360789041
 31
0.0
  0
LINE
  5
A8B6
330
A7FB
100
AcDbEntity
  8
SUNPOU
 62
     4
370
    -2
100
AcDbLine
 10
303.9478296548601
 20
182.7168306792946
 30
0.0
 11
274.6383321322527
 21
182.7168306792946
 31
0.0
  0
LINE
  5
A8B7
330
A7FB
100
AcDbEntity
  8
SUNPOU
 62
     4
370
    -2
100
AcDbLine
 10
277.6383321322527
 20
210.2928360789041
 30
0.0
 11
277.6383321322527
 21
189.7168306792946
 31
0.0
  0
INSERT
  5
A8B8
330
A7FB
100
AcDbEntity
  8
SUNPOU
 62
     4
370
    -2
100
AcDbBlockReference
  2
_OPEN
 10
277.6383321322527
 20
217.2928360789041
 30
0.0
 41
7.0
 42
7.0
 43
7.0
 50
90.0
  0
INSERT
  5
A8B9
330
A7FB
100
AcDbEntity
  8
SUNPOU
 62
     4
370
    -2
100
AcDbBlockReference
  2
_OPEN
 10
277.6383321322527
 20
182.7168306792946
 30
0.0
 41
7.0
 42
7.0
 43
7.0
 50
270.0
  0
MTEXT
  5
A8BA
330
A7FB
100
AcDbEntity
  8
SUNPOU
 62
     4
100
AcDbMText
 10
272.6383321322526
 20
200.0048333790994
 30
0.0
 40
6.0
 41
0.0
 71
     5
 72
     1
  1
\A1;35
 11
6.123031769111886E-17
 21
1.0
 31
0.0
 73
     1
 44
1.0
  0
POINT
  5
A8BB
330
A7FB
100
AcDbEntity
  8
DEFPOINTS
 62
     0
100
AcDbPoint
 10
304.4825680669522
 20
217.2928360789041
 30
0.0
  0
POINT
  5
A8BC
330
A7FB
100
AcDbEntity
  8
DEFPOINTS
 62
     0
100
AcDbPoint
 10
309.9478296548601
 20
182.7168306792946
 30
0.0
  0
POINT
  5
A8BD
330
A7FB
100
AcDbEntity
  8
DEFPOINTS
 62
     0
100
AcDbPoint
 10
277.6383321322527
 20
182.7168306792946
 30
0.0
  0
ENDBLK
  5
A806
330
A7FB
100
AcDbEntity
  8
0
100
AcDbBlockEnd
  0
BLOCK
  5
A813
330
A807
100
AcDbEntity
  8
0
100
AcDbBlockBegin
  2
*D6
 70
     1
 71
     0
 10
0.0
 20
0.0
 30
0.0
  3
*D6
  1

  0
LINE
  5
A8BE
330
A807
100
AcDbEntity
  8
SUNPOU
  6
Continuous
 62
     4
370
    -2
100
AcDbLine
 10
332.4084433656361
 20
137.8655141949994
 30
0.0
 11
332.176490255555
 21
139.5159624861039
 31
0.0
  0
LINE
  5
A8BF
330
A807
100
AcDbEntity
  8
SUNPOU
  6
Continuous
 62
     4
370
    -2
100
AcDbLine
 10
330.4279486576471
 20
137.5871765400162
 30
0.0
 11
330.195995547566
 21
139.2376248311207
 31
0.0
  0
LINE
  5
A8C0
330
A807
100
AcDbEntity
  8
SUNPOU
  6
Continuous
 62
     4
370
    -2
100
AcDbLine
 10
338.6908527555769
 20
143.4609696113584
 30
0.0
 11
345.6227305509461
 21
144.4351719671689
 31
0.0
  0
LINE
  5
A8C1
330
A807
100
AcDbEntity
  8
SUNPOU
  6
Continuous
 62
     4
370
    -2
100
AcDbLine
 10
322.8466024568494
 20
141.2342272447541
 30
0.0
 11
295.1190912753724
 21
137.3374178215119
 31
0.0
  0
LINE
  5
A8C2
330
A807
100
AcDbEntity
  8
SUNPOU
  6
Continuous
 62
     4
370
    -2
100
AcDbLine
 10
331.7589749602076
 20
142.4867672555478
 30
0.0
 11
329.7784802522186
 21
142.2084296005646
 31
0.0
  0
INSERT
  5
A8C3
330
A807
100
AcDbEntity
  8
SUNPOU
  6
Continuous
 62
     4
370
    -2
100
AcDbBlockReference
  2
_OPEN
 10
331.7589749602076
 20
142.4867672555478
 30
0.0
 41
7.0
 42
7.0
 43
7.0
 50
187.9999227095833
  0
INSERT
  5
A8C4
330
A807
100
AcDbEntity
  8
SUNPOU
  6
Continuous
 62
     4
370
    -2
100
AcDbBlockReference
  2
_OPEN
 10
329.7784802522186
 20
142.2084296005646
 30
0.0
 41
7.0
 42
7.0
 43
7.0
 50
7.999922709583335
  0
MTEXT
  5
A8C5
330
A807
100
AcDbEntity
  8
SUNPOU
  6
Continuous
 62
     4
100
AcDbMText
 10
304.8210491428473
 20
143.7500626376343
 30
0.0
 40
6.0
 41
0.0
 71
     5
 72
     1
  1
\A1;t2.0
 11
0.9902682564813206
 21
0.139171765115793
 31
0.0
 73
     1
 44
1.0
  0
POINT
  5
A8C6
330
A807
100
AcDbEntity
  8
DEFPOINTS
  6
Continuous
 62
     0
100
AcDbPoint
 10
331.5734127749413
 20
143.8071237338873
 30
0.0
  0
POINT
  5
A8C7
330
A807
100
AcDbEntity
  8
DEFPOINTS
  6
Continuous
 62
     0
100
AcDbPoint
 10
329.5929180669523
 20
143.5287860789041
 30
0.0
  0
POINT
  5
A8C8
330
A807
100
AcDbEntity
  8
DEFPOINTS
  6
Continuous
 62
     0
100
AcDbPoint
 10
329.7784802522186
 20
142.2084296005646
 30
0.0
  0
ENDBLK
  5
A814
330
A807
100
AcDbEntity
  8
0
100
AcDbBlockEnd
  0
BLOCK
  5
A81F
330
A815
100
AcDbEntity
  8
0
100
AcDbBlockBegin
  2
*D7
 70
     1
 71
     0
 10
0.0
 20
0.0
 30
0.0
  3
*D7
  1

  0
LINE
  5
A8C9
330
A815
100
AcDbEntity
  8
SUNPOU
 62
     4
370
    -2
100
AcDbLine
 10
185.7864180588265
 20
333.445136078904
 30
0.0
 11
185.7864180588265
 21
369.8624646759488
 31
0.0
  0
LINE
  5
A8CA
330
A815
100
AcDbEntity
  8
SUNPOU
 62
     4
370
    -2
100
AcDbLine
 10
204.7863180588266
 20
333.445136078904
 30
0.0
 11
204.7863180588266
 21
369.8624646759488
 31
0.0
  0
LINE
  5
A8CB
330
A815
100
AcDbEntity
  8
SUNPOU
 62
     4
370
    -2
100
AcDbLine
 10
192.7864180588265
 20
366.8624646759488
 30
0.0
 11
197.7863180588266
 21
366.8624646759488
 31
0.0
  0
INSERT
  5
A8CC
330
A815
100
AcDbEntity
  8
SUNPOU
 62
     4
370
    -2
100
AcDbBlockReference
  2
_OPEN
 10
185.7864180588265
 20
366.8624646759488
 30
0.0
 41
7.0
 42
7.0
 43
7.0
 50
180.0
  0
INSERT
  5
A8CD
330
A815
100
AcDbEntity
  8
SUNPOU
 62
     4
370
    -2
100
AcDbBlockReference
  2
_OPEN
 10
204.7863180588266
 20
366.8624646759488
 30
0.0
 41
7.0
 42
7.0
 43
7.0
  0
MTEXT
  5
A8CE
330
A815
100
AcDbEntity
  8
SUNPOU
 62
     4
100
AcDbMText
 10
195.2863680588265
 20
371.8624646759488
 30
0.0
 40
6.0
 41
0.0
 71
     5
 72
     1
  1
\A1;19
 73
     1
 44
1.0
  0
POINT
  5
A8CF
330
A815
100
AcDbEntity
  8
DEFPOINTS
 62
     0
100
AcDbPoint
 10
185.7864180588265
 20
327.445136078904
 30
0.0
  0
POINT
  5
A8D0
330
A815
100
AcDbEntity
  8
DEFPOINTS
 62
     0
100
AcDbPoint
 10
204.7863180588266
 20
327.445136078904
 30
0.0
  0
POINT
  5
A8D1
330
A815
100
AcDbEntity
  8
DEFPOINTS
 62
     0
100
AcDbPoint
 10
204.7863180588266
 20
366.8624646759488
 30
0.0
  0
ENDBLK
  5
A820
330
A815
100
AcDbEntity
  8
0
100
AcDbBlockEnd
  0
BLOCK
  5
A82B
330
A821
100
AcDbEntity
  8
0
100
AcDbBlockBegin
  2
*D8
 70
     1
 71
     0
 10
0.0
 20
0.0
 30
0.0
  3
*D8
  1

  0
LINE
  5
A8D2
330
A821
100
AcDbEntity
  8
SUNPOU
 62
     4
370
    -2
100
AcDbLine
 10
579.2823680669521
 20
327.445136078904
 30
0.0
 11
610.3305445930981
 21
327.445136078904
 31
0.0
  0
LINE
  5
A8D3
330
A821
100
AcDbEntity
  8
SUNPOU
 62
     4
370
    -2
100
AcDbLine
 10
579.2791680669524
 20
273.855136078904
 30
0.0
 11
610.3305445930981
 21
273.855136078904
 31
0.0
  0
LINE
  5
A8D4
330
A821
100
AcDbEntity
  8
SUNPOU
 62
     4
370
    -2
100
AcDbLine
 10
607.3305445930981
 20
320.445136078904
 30
0.0
 11
607.3305445930981
 21
280.855136078904
 31
0.0
  0
INSERT
  5
A8D5
330
A821
100
AcDbEntity
  8
SUNPOU
 62
     4
370
    -2
100
AcDbBlockReference
  2
_OPEN
 10
607.3305445930981
 20
327.445136078904
 30
0.0
 41
7.0
 42
7.0
 43
7.0
 50
90.0
  0
INSERT
  5
A8D6
330
A821
100
AcDbEntity
  8
SUNPOU
 62
     4
370
    -2
100
AcDbBlockReference
  2
_OPEN
 10
607.3305445930981
 20
273.855136078904
 30
0.0
 41
7.0
 42
7.0
 43
7.0
 50
270.0
  0
MTEXT
  5
A8D7
330
A821
100
AcDbEntity
  8
SUNPOU
 62
     4
100
AcDbMText
 10
602.330544593098
 20
300.650136078904
 30
0.0
 40
6.0
 41
0.0
 71
     5
 72
     1
  1
\A1;54
 11
6.123031769111886E-17
 21
1.0
 31
0.0
 73
     1
 44
1.0
  0
POINT
  5
A8D8
330
A821
100
AcDbEntity
  8
DEFPOINTS
 62
     0
100
AcDbPoint
 10
573.2823680669521
 20
327.445136078904
 30
0.0
  0
POINT
  5
A8D9
330
A821
100
AcDbEntity
  8
DEFPOINTS
 62
     0
100
AcDbPoint
 10
573.2791680669524
 20
273.855136078904
 30
0.0
  0
POINT
  5
A8DA
330
A821
100
AcDbEntity
  8
DEFPOINTS
 62
     0
100
AcDbPoint
 10
607.3305445930981
 20
273.855136078904
 30
0.0
  0
ENDBLK
  5
A82C
330
A821
100
AcDbEntity
  8
0
100
AcDbBlockEnd
  0
BLOCK
  5
A837
330
A82D
100
AcDbEntity
  8
0
100
AcDbBlockBegin
  2
*D9
 70
     1
 71
     0
 10
0.0
 20
0.0
 30
0.0
  3
*D9
  1

  0
LINE
  5
A8DB
330
A82D
100
AcDbEntity
  8
SUNPOU
 62
     4
370
    -2
100
AcDbLine
 10
452.6627680669521
 20
166.8490360789041
 30
0.0
 11
492.4689901183082
 21
166.8490360789041
 31
0.0
  0
LINE
  5
A8DC
330
A82D
100
AcDbEntity
  8
SUNPOU
 62
     4
370
    -2
100
AcDbLine
 10
440.8114680669523
 20
101.1606360789041
 30
0.0
 11
492.4689901183082
 21
101.1606360789041
 31
0.0
  0
LINE
  5
A8DD
330
A82D
100
AcDbEntity
  8
SUNPOU
 62
     4
370
    -2
100
AcDbLine
 10
489.4689901183082
 20
159.8490360789041
 30
0.0
 11
489.4689901183082
 21
108.1606360789041
 31
0.0
  0
INSERT
  5
A8DE
330
A82D
100
AcDbEntity
  8
SUNPOU
 62
     4
370
    -2
100
AcDbBlockReference
  2
_OPEN
 10
489.4689901183082
 20
166.8490360789041
 30
0.0
 41
7.0
 42
7.0
 43
7.0
 50
90.0
  0
INSERT
  5
A8DF
330
A82D
100
AcDbEntity
  8
SUNPOU
 62
     4
370
    -2
100
AcDbBlockReference
  2
_OPEN
 10
489.4689901183082
 20
101.1606360789041
 30
0.0
 41
7.0
 42
7.0
 43
7.0
 50
270.0
  0
MTEXT
  5
A8E0
330
A82D
100
AcDbEntity
  8
SUNPOU
 62
     4
100
AcDbMText
 10
484.4689901183082
 20
117.1606360789042
 30
0.0
 40
6.0
 41
0.0
 71
     5
 72
     1
  1
\A1;66
 11
6.123031769111886E-17
 21
1.0
 31
0.0
 73
     1
 44
1.0
  0
POINT
  5
A8E1
330
A82D
100
AcDbEntity
  8
DEFPOINTS
 62
     0
100
AcDbPoint
 10
446.6627680669521
 20
166.8490360789041
 30
0.0
  0
POINT
  5
A8E2
330
A82D
100
AcDbEntity
  8
DEFPOINTS
 62
     0
100
AcDbPoint
 10
434.8114680669523
 20
101.1606360789041
 30
0.0
  0
POINT
  5
A8E3
330
A82D
100
AcDbEntity
  8
DEFPOINTS
 62
     0
100
AcDbPoint
 10
489.4689901183082
 20
101.1606360789041
 30
0.0
  0
ENDBLK
  5
A838
330
A82D
100
AcDbEntity
  8
0
100
AcDbBlockEnd
  0
BLOCK
  5
A843
330
A839
100
AcDbEntity
  8
0
100
AcDbBlockBegin
  2
*D10
 70
     1
 71
     0
 10
0.0
 20
0.0
 30
0.0
  3
*D10
  1

  0
LINE
  5
A8E4
330
A839
100
AcDbEntity
  8
SUNPOU
 62
     4
370
    -2
100
AcDbLine
 10
579.7824680669521
 20
483.3987720824928
 30
0.0
 11
610.3305445930981
 21
483.3987720824928
 31
0.0
  0
LINE
  5
A8E5
330
A839
100
AcDbEntity
  8
SUNPOU
 62
     4
370
    -2
100
AcDbLine
 10
579.7824680669521
 20
464.3987720824928
 30
0.0
 11
610.3305445930981
 21
464.3987720824928
 31
0.0
  0
LINE
  5
A8E6
330
A839
100
AcDbEntity
  8
SUNPOU
 62
     4
370
    -2
100
AcDbLine
 10
607.3305445930981
 20
476.3987720824928
 30
0.0
 11
607.3305445930981
 21
471.3987720824928
 31
0.0
  0
INSERT
  5
A8E7
330
A839
100
AcDbEntity
  8
SUNPOU
 62
     4
370
    -2
100
AcDbBlockReference
  2
_OPEN
 10
607.3305445930981
 20
483.3987720824928
 30
0.0
 41
7.0
 42
7.0
 43
7.0
 50
90.0
  0
INSERT
  5
A8E8
330
A839
100
AcDbEntity
  8
SUNPOU
 62
     4
370
    -2
100
AcDbBlockReference
  2
_OPEN
 10
607.3305445930981
 20
464.3987720824928
 30
0.0
 41
7.0
 42
7.0
 43
7.0
 50
270.0
  0
MTEXT
  5
A8E9
330
A839
100
AcDbEntity
  8
SUNPOU
 62
     4
100
AcDbMText
 10
602.330544593098
 20
473.8987720824928
 30
0.0
 40
6.0
 41
0.0
 71
     5
 72
     1
  1
\A1;19
 11
6.123031769111886E-17
 21
1.0
 31
0.0
 73
     1
 44
1.0
  0
POINT
  5
A8EA
330
A839
100
AcDbEntity
  8
DEFPOINTS
 62
     0
100
AcDbPoint
 10
573.7824680669521
 20
483.3987720824928
 30
0.0
  0
POINT
  5
A8EB
330
A839
100
AcDbEntity
  8
DEFPOINTS
 62
     0
100
AcDbPoint
 10
573.7824680669521
 20
464.3987720824928
 30
0.0
  0
POINT
  5
A8EC
330
A839
100
AcDbEntity
  8
DEFPOINTS
 62
     0
100
AcDbPoint
 10
607.3305445930981
 20
464.3987720824928
 30
0.0
  0
ENDBLK
  5
A844
330
A839
100
AcDbEntity
  8
0
100
AcDbBlockEnd
  0
BLOCK
  5
A84F
330
A845
100
AcDbEntity
  8
0
100
AcDbBlockBegin
  2
*D11
 70
     1
 71
     0
 10
0.0
 20
0.0
 30
0.0
  3
*D11
  1

  0
LINE
  5
A8ED
330
A845
100
AcDbEntity
  8
SUNPOU
 62
     4
370
    -2
100
AcDbLine
 10
450.1284530107536
 20
385.5179600062735
 30
0.0
 11
446.0188735886817
 21
406.6598846385905
 31
0.0
  0
LINE
  5
A8EE
330
A845
100
AcDbEntity
  8
SUNPOU
 62
     4
370
    -2
100
AcDbLine
 10
548.2912402634984
 20
404.5988988291495
 30
0.0
 11
544.1816608414265
 21
425.7408234614665
 31
0.0
  0
LINE
  5
A8EF
330
A845
100
AcDbEntity
  8
SUNPOU
 62
     4
370
    -2
100
AcDbLine
 10
453.4626912679303
 20
405.0506679477415
 30
0.0
 11
537.88269863133
 21
421.4602773425963
 31
0.0
  0
INSERT
  5
A8F0
330
A845
100
AcDbEntity
  8
SUNPOU
 62
     4
370
    -2
100
AcDbBlockReference
  2
_OPEN
 10
446.5913013232577
 20
403.7150032337309
 30
0.0
 41
7.0
 42
7.0
 43
7.0
 50
191.0000145618141
  0
INSERT
  5
A8F1
330
A845
100
AcDbEntity
  8
SUNPOU
 62
     4
370
    -2
100
AcDbBlockReference
  2
_OPEN
 10
544.7540885760025
 20
422.7959420566069
 30
0.0
 41
7.0
 42
7.0
 43
7.0
 50
11.0000145618141
  0
MTEXT
  5
A8F2
330
A845
100
AcDbEntity
  8
SUNPOU
 62
     4
100
AcDbMText
 10
494.7186487253368
 20
418.163608319935
 30
0.0
 40
6.0
 41
0.0
 71
     5
 72
     1
  1
\A1;100
 11
0.9816271349532207
 21
0.1908092448586591
 31
0.0
 73
     1
 44
1.0
  0
POINT
  5
A8F3
330
A845
100
AcDbEntity
  8
DEFPOINTS
 62
     0
100
AcDbPoint
 10
451.2733084799055
 20
379.6281971965541
 30
0.0
  0
POINT
  5
A8F4
330
A845
100
AcDbEntity
  8
DEFPOINTS
 62
     0
100
AcDbPoint
 10
549.4360957326503
 20
398.7091360194302
 30
0.0
  0
POINT
  5
A8F5
330
A845
100
AcDbEntity
  8
DEFPOINTS
 62
     0
100
AcDbPoint
 10
544.7540885760025
 20
422.7959420566069
 30
0.0
  0
ENDBLK
  5
A850
330
A845
100
AcDbEntity
  8
0
100
AcDbBlockEnd
  0
BLOCK
  5
A85D
330
A851
100
AcDbEntity
  8
0
100
AcDbBlockBegin
  2
*D12
 70
     1
 71
     0
 10
0.0
 20
0.0
 30
0.0
  3
*D12
  1

  0
LINE
  5
A8F6
330
A851
100
AcDbEntity
  8
SUNPOU
 62
     4
370
    -2
100
AcDbLine
 10
548.2912402634983
 20
404.5988988291493
 30
0.0
 11
544.1816608414264
 21
425.7408234614666
 31
0.0
  0
LINE
  5
A8F7
330
A851
100
AcDbEntity
  8
SUNPOU
 62
     4
370
    -2
100
AcDbLine
 10
558.1075252157467
 20
406.5069939218396
 30
0.0
 11
553.9979457936748
 21
427.648918554157
 31
0.0
  0
LINE
  5
A8F8
330
A851
100
AcDbEntity
  8
SUNPOU
 62
     4
370
    -2
100
AcDbLine
 10
537.8826986313298
 20
421.4602773425963
 30
0.0
 11
531.0113086866572
 21
420.1246126285857
 31
0.0
  0
LINE
  5
A8F9
330
A851
100
AcDbEntity
  8
SUNPOU
 62
     4
370
    -2
100
AcDbLine
 10
561.4417634729233
 20
426.0397018633079
 30
0.0
 11
579.1110519020813
 21
429.4742682707638
 31
0.0
  0
LINE
  5
A8FA
330
A851
100
AcDbEntity
  8
SUNPOU
 62
     4
370
    -2
100
AcDbLine
 10
544.7540885760024
 20
422.795942056607
 30
0.0
 11
554.5703735282508
 21
424.7040371492973
 31
0.0
  0
INSERT
  5
A8FB
330
A851
100
AcDbEntity
  8
SUNPOU
 62
     4
370
    -2
100
AcDbBlockReference
  2
_OPEN
 10
544.7540885760024
 20
422.795942056607
 30
0.0
 41
7.0
 42
7.0
 43
7.0
 50
11.00001456181412
  0
INSERT
  5
A8FC
330
A851
100
AcDbEntity
  8
SUNPOU
 62
     4
370
    -2
100
AcDbBlockReference
  2
_OPEN
 10
554.5703735282508
 20
424.7040371492973
 30
0.0
 41
7.0
 42
7.0
 43
7.0
 50
191.0000145618141
  0
MTEXT
  5
A8FD
330
A851
100
AcDbEntity
  8
SUNPOU
 62
     4
100
AcDbMText
 10
572.7580564355453
 20
433.3329530988073
 30
0.0
 40
6.0
 41
0.0
 71
     5
 72
     1
  1
\A1;10
 11
0.9816271349532207
 21
0.1908092448586584
 31
0.0
 73
     1
 44
1.0
  0
POINT
  5
A8FE
330
A851
100
AcDbEntity
  8
DEFPOINTS
 62
     0
100
AcDbPoint
 10
549.4360957326502
 20
398.7091360194299
 30
0.0
  0
POINT
  5
A8FF
330
A851
100
AcDbEntity
  8
DEFPOINTS
 62
     0
100
AcDbPoint
 10
559.2523806848986
 20
400.6172311121203
 30
0.0
  0
POINT
  5
A900
330
A851
100
AcDbEntity
  8
DEFPOINTS
 62
     0
100
AcDbPoint
 10
554.5703735282508
 20
424.7040371492973
 30
0.0
  0
ENDBLK
  5
A85E
330
A851
100
AcDbEntity
  8
0
100
AcDbBlockEnd
  0
BLOCK
  5
A869
330
A85F
100
AcDbEntity
  8
0
100
AcDbBlockBegin
  2
*D13
 70
     1
 71
     0
 10
0.0
 20
0.0
 30
0.0
  3
*D13
  1

  0
LINE
  5
A901
330
A85F
100
AcDbEntity
  8
SUNPOU
 62
     4
370
    -2
100
AcDbLine
 10
561.1604690130314
 20
390.8008808768997
 30
0.0
 11
568.2950033690951
 21
354.0966686073996
 31
0.0
  0
LINE
  5
A902
330
A85F
100
AcDbEntity
  8
SUNPOU
 62
     4
370
    -2
100
AcDbLine
 10
516.9872596483095
 20
382.2145290566731
 30
0.0
 11
524.1217940043732
 21
345.5103167871731
 31
0.0
  0
LINE
  5
A903
330
A85F
100
AcDbEntity
  8
SUNPOU
 62
     4
370
    -2
100
AcDbLine
 10
560.8511878635442
 20
355.7058953531756
 30
0.0
 11
530.420761996522
 21
349.7908543975541
 31
0.0
  0
INSERT
  5
A904
330
A85F
100
AcDbEntity
  8
SUNPOU
 62
     4
370
    -2
100
AcDbBlockReference
  2
_OPEN
 10
567.722579612394
 20
357.0415507854781
 30
0.0
 41
7.0
 42
7.0
 43
7.0
 50
10.99993716806455
  0
INSERT
  5
A905
330
A85F
100
AcDbEntity
  8
SUNPOU
 62
     4
370
    -2
100
AcDbBlockReference
  2
_OPEN
 10
523.5493702476722
 20
348.4551989652516
 30
0.0
 41
7.0
 42
7.0
 43
7.0
 50
190.9999371680646
  0
MTEXT
  5
A906
330
A85F
100
AcDbEntity
  8
SUNPOU
 62
     4
100
AcDbMText
 10
544.6819353355313
 20
357.656511838829
 30
0.0
 40
6.0
 41
0.0
 71
     5
 72
     1
  1
\A1;45
 11
0.981627392692826
 21
0.1908079189003552
 31
0.0
 73
     1
 44
1.0
  0
POINT
  5
A907
330
A85F
100
AcDbEntity
  8
DEFPOINTS
 62
     0
100
AcDbPoint
 10
560.0156214996292
 20
396.6906452330566
 30
0.0
  0
POINT
  5
A908
330
A85F
100
AcDbEntity
  8
DEFPOINTS
 62
     0
100
AcDbPoint
 10
515.8424121349074
 20
388.1042934128301
 30
0.0
  0
POINT
  5
A909
330
A85F
100
AcDbEntity
  8
DEFPOINTS
 62
     0
100
AcDbPoint
 10
523.5493702476722
 20
348.4551989652516
 30
0.0
  0
ENDBLK
  5
A86A
330
A85F
100
AcDbEntity
  8
0
100
AcDbBlockEnd
  0
BLOCK
  5
A877
330
A86B
100
AcDbEntity
  8
0
100
AcDbBlockBegin
  2
*D14
 70
     1
 71
     0
 10
0.0
 20
0.0
 30
0.0
  3
*D14
  1

  0
LINE
  5
A90A
330
A86B
100
AcDbEntity
  8
SUNPOU
 62
     4
370
    -2
100
AcDbLine
 10
515.8700453244989
 20
393.203244032793
 30
0.0
 11
521.5754914333882
 21
394.3122149460456
 31
0.0
  0
LINE
  5
A90B
330
A86B
100
AcDbEntity
  8
SUNPOU
 62
     4
370
    -2
100
AcDbLine
 10
517.778045324499
 20
383.3869440327931
 30
0.0
 11
523.4834914333883
 21
384.4959149460457
 31
0.0
  0
LINE
  5
A90C
330
A86B
100
AcDbEntity
  8
SUNPOU
 62
     4
370
    -2
100
AcDbLine
 10
517.2950059212609
 20
400.6112183418589
 30
0.0
 11
515.9594073215684
 21
407.4826211375404
 31
0.0
  0
LINE
  5
A90D
330
A86B
100
AcDbEntity
  8
SUNPOU
 62
     4
370
    -2
100
AcDbLine
 10
521.8742031206459
 20
377.052112750496
 30
0.0
 11
525.3085995198552
 21
359.3827912758865
 31
0.0
  0
LINE
  5
A90E
330
A86B
100
AcDbEntity
  8
SUNPOU
 62
     4
370
    -2
100
AcDbLine
 10
518.6306045209533
 20
393.7398155461774
 30
0.0
 11
520.5386045209534
 21
383.9235155461776
 31
0.0
  0
INSERT
  5
A90F
330
A86B
100
AcDbEntity
  8
SUNPOU
 62
     4
370
    -2
100
AcDbBlockReference
  2
_OPEN
 10
518.6306045209533
 20
393.7398155461774
 30
0.0
 41
7.0
 42
7.0
 43
7.0
 50
280.9994632806494
  0
INSERT
  5
A910
330
A86B
100
AcDbEntity
  8
SUNPOU
 62
     4
370
    -2
100
AcDbBlockReference
  2
_OPEN
 10
520.5386045209534
 20
383.9235155461776
 30
0.0
 41
7.0
 42
7.0
 43
7.0
 50
100.9994632806494
  0
MTEXT
  5
A911
330
A86B
100
AcDbEntity
  8
SUNPOU
 62
     4
100
AcDbMText
 10
529.1673454741549
 20
365.7357496151309
 30
0.0
 40
6.0
 41
0.0
 71
     5
 72
     1
  1
\A1;10
 11
0.1907997999560688
 21
-0.9816289708116424
 31
0.0
 73
     1
 44
1.0
  0
POINT
  5
A912
330
A86B
100
AcDbEntity
  8
DEFPOINTS
 62
     0
100
AcDbPoint
 10
509.9802714996291
 20
392.0584452330566
 30
0.0
  0
POINT
  5
A913
330
A86B
100
AcDbEntity
  8
DEFPOINTS
 62
     0
100
AcDbPoint
 10
511.8882714996292
 20
382.2421452330567
 30
0.0
  0
POINT
  5
A914
330
A86B
100
AcDbEntity
  8
DEFPOINTS
 62
     0
100
AcDbPoint
 10
520.5386045209534
 20
383.9235155461776
 30
0.0
  0
ENDBLK
  5
A878
330
A86B
100
AcDbEntity
  8
0
100
AcDbBlockEnd
  0
BLOCK
  5
A883
330
A879
100
AcDbEntity
  8
0
100
AcDbBlockBegin
  2
*D15
 70
     1
 71
     0
 10
0.0
 20
0.0
 30
0.0
  3
*D15
  1

  0
LINE
  5
A915
330
A879
100
AcDbEntity
  8
SUNPOU
 62
     4
370
    -2
100
AcDbLine
 10
516.9872659051075
 20
382.2145302728679
 30
0.0
 11
524.1218406715811
 21
345.5103182829532
 31
0.0
  0
LINE
  5
A916
330
A879
100
AcDbEntity
  8
SUNPOU
 62
     4
370
    -2
100
AcDbLine
 10
462.997677745157
 20
371.7200193583133
 30
0.0
 11
470.1322525116307
 21
335.0158073683986
 31
0.0
  0
LINE
  5
A917
330
A879
100
AcDbEntity
  8
SUNPOU
 62
     4
370
    -2
100
AcDbLine
 10
516.6780234565251
 20
347.1195371210341
 30
0.0
 11
476.4312159564865
 21
339.2963516702799
 31
0.0
  0
INSERT
  5
A918
330
A879
100
AcDbEntity
  8
SUNPOU
 62
     4
370
    -2
100
AcDbBlockReference
  2
_OPEN
 10
523.5494137864811
 20
348.4551998529344
 30
0.0
 41
7.0
 42
7.0
 43
7.0
 50
10.99999803436383
  0
INSERT
  5
A919
330
A879
100
AcDbEntity
  8
SUNPOU
 62
     4
370
    -2
100
AcDbBlockReference
  2
_OPEN
 10
469.5598256265305
 20
337.9606889383797
 30
0.0
 41
7.0
 42
7.0
 43
7.0
 50
190.9999980343639
  0
MTEXT
  5
A91A
330
A879
100
AcDbEntity
  8
SUNPOU
 62
     4
100
AcDbMText
 10
495.6005748980056
 20
348.1160803456256
 30
0.0
 40
6.0
 41
0.0
 71
     5
 72
     1
  1
\A1;55
 11
0.9816271899937138
 21
0.190808961700035
 31
0.0
 73
     1
 44
1.0
  0
POINT
  5
A91B
330
A879
100
AcDbEntity
  8
DEFPOINTS
 62
     0
100
AcDbPoint
 10
515.8424121349073
 20
388.1042934128302
 30
0.0
  0
POINT
  5
A91C
330
A879
100
AcDbEntity
  8
DEFPOINTS
 62
     0
100
AcDbPoint
 10
461.8528239749568
 20
377.6097824982755
 30
0.0
  0
POINT
  5
A91D
330
A879
100
AcDbEntity
  8
DEFPOINTS
 62
     0
100
AcDbPoint
 10
469.5598256265305
 20
337.9606889383797
 30
0.0
  0
ENDBLK
  5
A884
330
A879
100
AcDbEntity
  8
0
100
AcDbBlockEnd
  0
BLOCK
  5
A88F
330
A885
100
AcDbEntity
  8
0
100
AcDbBlockBegin
  2
*D16
 70
     1
 71
     0
 10
0.0
 20
0.0
 30
0.0
  3
*D16
  1

  0
LINE
  5
A91E
330
A885
100
AcDbEntity
  8
SUNPOU
 62
     4
370
    -2
100
AcDbLine
 10
564.0926326902676
 20
407.1610090316154
 30
0.0
 11
588.5696876521466
 21
411.9189089216366
 31
0.0
  0
LINE
  5
A91F
330
A885
100
AcDbEntity
  8
SUNPOU
 62
     4
370
    -2
100
AcDbLine
 10
567.7180326902675
 20
388.5101090316155
 30
0.0
 11
592.1950876521466
 21
393.2680089216367
 31
0.0
  0
LINE
  5
A920
330
A885
100
AcDbEntity
  8
SUNPOU
 62
     4
370
    -2
100
AcDbLine
 10
586.9604814884795
 20
404.4750889666125
 30
0.0
 11
587.9145326251756
 21
399.566965078102
 31
0.0
  0
INSERT
  5
A921
330
A885
100
AcDbEntity
  8
SUNPOU
 62
     4
370
    -2
100
AcDbBlockReference
  2
_OPEN
 10
585.6248070568275
 20
411.3464770223573
 30
0.0
 41
7.0
 42
7.0
 43
7.0
 50
101.0000955905312
  0
INSERT
  5
A922
330
A885
100
AcDbEntity
  8
SUNPOU
 62
     4
370
    -2
100
AcDbBlockReference
  2
_OPEN
 10
589.2502070568276
 20
392.6955770223573
 30
0.0
 41
7.0
 42
7.0
 43
7.0
 50
281.0000955905311
  0
MTEXT
  5
A923
330
A885
100
AcDbEntity
  8
SUNPOU
 62
     4
100
AcDbMText
 10
592.3456413823595
 20
402.9750801878229
 30
0.0
 40
6.0
 41
0.0
 71
     5
 72
     1
  1
\A1;19
 11
0.1908106330931347
 21
-0.9816268651063892
 31
0.0
 73
     1
 44
1.0
  0
POINT
  5
A924
330
A885
100
AcDbEntity
  8
DEFPOINTS
 62
     0
100
AcDbPoint
 10
558.2028714996293
 20
406.0161452330566
 30
0.0
  0
POINT
  5
A925
330
A885
100
AcDbEntity
  8
DEFPOINTS
 62
     0
100
AcDbPoint
 10
561.8282714996292
 20
387.3652452330566
 30
0.0
  0
POINT
  5
A926
330
A885
100
AcDbEntity
  8
DEFPOINTS
 62
     0
100
AcDbPoint
 10
589.2502070568276
 20
392.6955770223573
 30
0.0
  0
ENDBLK
  5
A890
330
A885
100
AcDbEntity
  8
0
100
AcDbBlockEnd
  0
ENDSEC
  0
SECTION
  2
ENTITIES
  0
LINE
  5
3EF3
330
1A
100
AcDbEntity
  8
ZUWAKU
100
AcDbLine
 10
208.646601303624
 20
15.19999986828872
 30
0.0
 11
447.4243639845474
 21
15.19999986828871
 31
0.0
  0
LINE
  5
3EF4
330
1A
100
AcDbEntity
  8
ZUWAKU
100
AcDbLine
 10
208.646601303624
 20
15.59999986828872
 30
0.0
 11
447.4243639845474
 21
15.59999986828872
 31
0.0
  0
LINE
  5
3EF5
330
1A
100
AcDbEntity
  8
ZUWAKU
100
AcDbLine
 10
208.646601303624
 20
15.39999986828872
 30
0.0
 11
447.4243639845474
 21
15.39999986828872
 31
0.0
  0
LINE
  5
3EF6
330
1A
100
AcDbEntity
  8
ZUWAKU
100
AcDbLine
 10
0.0000000135560185
 20
30.79999986828869
 30
0.0
 11
797.4000000135559
 21
30.79999986828869
 31
0.0
  0
LINE
  5
3EF7
330
1A
100
AcDbEntity
  8
ZUWAKU
100
AcDbLine
 10
0.0000000135560185
 20
30.59999986828869
 30
0.0
 11
797.4000000135559
 21
30.59999986828869
 31
0.0
  0
LINE
  5
3EF8
330
1A
100
AcDbEntity
  8
ZUWAKU
100
AcDbLine
 10
0.0000000135560185
 20
30.39999986828869
 30
0.0
 11
797.4000000135559
 21
30.39999986828869
 31
0.0
  0
LINE
  5
3EF9
330
1A
100
AcDbEntity
  8
ZUWAKU
100
AcDbLine
 10
0.0000000135560185
 20
30.19999986828869
 30
0.0
 11
797.4000000135559
 21
30.19999986828869
 31
0.0
  0
LINE
  5
3EFA
330
1A
100
AcDbEntity
  8
ZUWAKU
100
AcDbLine
 10
0.0000000135560185
 20
29.99999986828868
 30
0.0
 11
797.4000000135559
 21
29.99999986828868
 31
0.0
  0
LWPOLYLINE
  5
3EFB
330
1A
100
AcDbEntity
  8
ZUWAKU
100
AcDbPolyline
 90
        4
 70
     1
 43
0.0
 10
0.2000000135559503
 20
551.3999998682888
 10
0.2000000135559503
 20
0.1999998682887281
 10
797.4000000135559
 20
0.1999998682887512
 10
797.4000000135561
 20
551.3999998682888
  0
LWPOLYLINE
  5
3EFC
330
1A
100
AcDbEntity
  8
ZUWAKU
100
AcDbPolyline
 90
        4
 70
     1
 43
0.0
 10
0.6000000135559276
 20
550.9999998682888
 10
0.6000000135559276
 20
0.5999998682887053
 10
797.0000000135563
 20
0.5999998682887515
 10
797.000000013556
 20
550.9999998682888
  0
LWPOLYLINE
  5
3EFD
330
1A
100
AcDbEntity
  8
ZUWAKU
100
AcDbPolyline
 90
        4
 70
     1
 43
0.0
 10
0.0000000135560185
 20
551.5999998682887
 10
0.0000000135560185
 20
-0.0000001317113174
 10
797.6000000135562
 20
-0.0000001317112499
 10
797.6000000135562
 20
551.5999998682888
  0
LWPOLYLINE
  5
3EFE
330
1A
100
AcDbEntity
  8
ZUWAKU
100
AcDbPolyline
 90
        4
 70
     1
 43
0.0
 10
0.4000000135559958
 20
551.1999998682887
 10
0.4000000135559958
 20
0.3999998682887735
 10
797.2000000135561
 20
0.3999998682887505
 10
797.2000000135561
 20
551.1999998682887
  0
LWPOLYLINE
  5
3EFF
330
1A
100
AcDbEntity
  8
ZUWAKU
100
AcDbPolyline
 90
        4
 70
     1
 43
0.0
 10
0.8000000135559731
 20
550.7999998682888
 10
0.8000000135559731
 20
0.7999998682887508
 10
796.800000013556
 20
0.7999998682887508
 10
796.800000013556
 20
550.7999998682888
  0
TEXT
  5
3F00
330
1A
100
AcDbEntity
  8
moji
100
AcDbText
 10
92.95778960172515
 20
12.74117799856344
 30
0.0
 40
6.0
  1
アーバントップΣ９０
 41
0.9
  7
ｽﾀｲﾙ1
100
AcDbText
  0
HATCH
  5
3F01
330
1A
100
AcDbEntity
  8
ZUWAKU
100
AcDbHatch
 10
0.0
 20
0.0
 30
0.0
210
0.0
220
0.0
230
1.0
  2
ANSI37
 70
     0
 71
     0
 91
        8
 92
        7
 72
     1
 73
     1
 93
       24
 10
14.50226267467588
 20
17.64484834927227
 42
-0.1989123673796348
 10
14.09221216833714
 20
18.63479784293332
 42
0.0
 10
14.09221216833714
 20
19.92499986828869
 42
-0.4142135623730912
 10
14.61721216833712
 20
20.44999986828869
 42
0.0
 10
17.59221216833703
 20
20.44999986828869
 42
0.4142135623731546
 10
18.11721216833712
 20
20.97499986828868
 42
0.0
 10
18.11721216833712
 20
22.72499986828869
 42
0.4142135623731586
 10
17.59221216833703
 20
23.24999986828869
 42
0.0
 10
14.09221216833714
 20
23.24999986828869
 42
0.4142135623730928
 10
11.29221216833719
 20
20.44999986828871
 42
0.0
 10
11.29221216833719
 20
18.63479784293345
 42
0.1989123673796619
 10
12.52236368735362
 20
15.66494936194984
 42
0.0
 10
15.43216166199829
 20
12.75515138730518
 42
-0.1989123673796613
 10
15.84221216833714
 20
11.76520189364399
 42
0.0
 10
15.84221216833714
 20
10.47499986828868
 42
-0.4142135623730911
 10
15.31721216833716
 20
9.949999868288685
 42
0.0
 10
12.34221216833726
 20
9.949999868288685
 42
0.4142135623731526
 10
11.81721216833716
 20
9.424999868288698
 42
0.0
 10
11.81721216833716
 20
7.674999868288676
 42
0.4142135623731526
 10
12.34221216833726
 20
7.149999868288688
 42
0.0
 10
15.84221216833714
 20
7.149999868288688
 42
0.4142135623731044
 10
18.64221216833721
 20
9.949999868288664
 42
0.0
 10
18.64221216833721
 20
11.76520189364394
 42
0.1989123673796604
 10
17.41206064932067
 20
14.73505037462748
 42
0.0
 97
        0
 92
        7
 72
     1
 73
     1
 93
       16
 10
23.54221216833719
 20
19.04999986828869
 42
-0.4142135623730935
 10
24.94221216833716
 20
20.44999986828869
 42
0.0
 10
26.86721216833712
 20
20.44999986828869
 42
0.4142135623731546
 10
27.39221216833721
 20
20.97499986828868
 42
0.0
 10
27.39221216833721
 20
22.72499986828869
 42
0.4142135623730952
 10
26.86721216833723
 20
23.24999986828869
 42
0.0
 10
24.94221216833705
 20
23.24999986828865
 42
0.4142135623730892
 10
20.74221216833712
 20
19.04999986828862
 42
0.0
 10
20.74221216833712
 20
11.34999986828871
 42
0.4142135623730969
 10
24.94221216833716
 20
7.149999868288688
 42
0.0
 10
26.86721216833712
 20
7.149999868288688
 42
0.4142135623731526
 10
27.39221216833721
 20
7.674999868288676
 42
0.0
 10
27.39221216833721
 20
9.424999868288698
 42
0.414213562373089
 10
26.86721216833723
 20
9.949999868288685
 42
0.0
 10
24.94221216833716
 20
9.949999868288685
 42
-0.4142135623730928
 10
23.54221216833719
 20
11.34999986828867
 42
0.0
 97
        0
 92
        7
 72
     1
 73
     1
 93
        2
 10
24.24221216833712
 20
15.19999986828869
 42
1.0
 10
27.74221216833712
 20
15.19999986828869
 42
1.0
 97
        0
 92
        7
 72
     1
 73
     1
 93
       26
 10
37.31485865051513
 20
19.20504706185211
 42
0.0
 10
38.37649828365295
 20
22.5669059001217
 42
0.5069206636600134
 10
37.87586738445759
 20
23.24999986828869
 42
0.0
 10
36.17697800484837
 20
23.24999986828869
 42
0.3272098845218764
 10
35.67634710565301
 20
22.88309383645566
 42
0.0
 10
33.80807723102123
 20
16.96690590012177
 42
-0.3272098845219541
 10
33.30744633182576
 20
16.59999986828868
 42
0.0
 10
33.1672121683373
 20
16.59999986828868
 42
-0.4142135623731526
 10
32.64221216833721
 20
17.12499986828867
 42
0.0
 10
32.64221216833721
 20
22.72499986828869
 42
0.4142135623730952
 10
32.11721216833723
 20
23.24999986828869
 42
0.0
 10
30.36721216833712
 20
23.24999986828869
 42
0.4142135623730872
 10
29.84221216833714
 20
22.72499986828871
 42
0.0
 10
29.84221216833714
 20
7.674999868288676
 42
0.414213562373089
 10
30.36721216833712
 20
7.149999868288688
 42
0.0
 10
32.11721216833712
 20
7.149999868288688
 42
0.4142135623731526
 10
32.64221216833721
 20
7.674999868288676
 42
0.0
 10
32.64221216833721
 20
13.2749998682887
 42
-0.4142135623731526
 10
33.1672121683373
 20
13.79999986828869
 42
0.0
 10
33.30744633182587
 20
13.79999986828869
 42
-0.3272098845218915
 10
33.80807723102123
 20
13.43309383645561
 42
0.0
 10
35.67634710565301
 20
7.51690590012176
 42
0.3272098845218902
 10
36.17697800484837
 20
7.149999868288688
 42
0.0
 10
37.87586738445759
 20
7.149999868288688
 42
0.5069206636600334
 10
38.37649828365295
 20
7.833093836455696
 42
0.0
 10
36.05010690517929
 20
15.19999986828882
 42
0.0
 97
        0
 92
        7
 72
     1
 73
     1
 93
        8
 10
43.49221216833712
 20
22.7249998682887
 42
0.4142135623731546
 10
42.96721216833703
 20
23.24999986828869
 42
0.0
 10
41.21721216833726
 20
23.24999986828869
 42
0.4142135623731506
 10
40.69221216833716
 20
22.72499986828871
 42
0.0
 10
40.69221216833716
 20
7.674999868288676
 42
0.4142135623731526
 10
41.21721216833726
 20
7.149999868288688
 42
0.0
 10
42.96721216833703
 20
7.149999868288688
 42
0.4142135623731526
 10
43.49221216833712
 20
7.674999868288676
 42
0.0
 97
        0
 92
        7
 72
     1
 73
     1
 93
       24
 10
48.39221216833721
 20
19.92499986828869
 42
-0.4142135623731547
 10
48.9172121683373
 20
20.44999986828869
 42
0.0
 10
51.89221216833721
 20
20.44999986828869
 42
0.4142135623730911
 10
52.41721216833719
 20
20.97499986828868
 42
0.0
 10
52.41721216833719
 20
22.72499986828869
 42
0.4142135623730952
 10
51.89221216833721
 20
23.24999986828869
 42
0.0
 10
48.39221216833721
 20
23.24999986828869
 42
0.4142135623731048
 10
45.59221216833714
 20
20.44999986828871
 42
0.0
 10
45.59221216833714
 20
18.63479784293345
 42
0.1989123673796613
 10
46.82236368735369
 20
15.66494936194989
 42
0.0
 10
49.73216166199836
 20
12.75515138730523
 42
-0.1989123673796402
 10
50.14221216833721
 20
11.76520189364415
 42
0.0
 10
50.14221216833721
 20
10.47499986828868
 42
-0.4142135623730911
 10
49.61721216833723
 20
9.949999868288685
 42
0.0
 10
46.64221216833721
 20
9.949999868288685
 42
0.4142135623731526
 10
46.11721216833712
 20
9.424999868288698
 42
0.0
 10
46.11721216833712
 20
7.674999868288676
 42
0.414213562373089
 10
46.6422121683371
 20
7.149999868288688
 42
0.0
 10
50.14221216833721
 20
7.149999868288688
 42
0.4142135623730925
 10
52.94221216833716
 20
9.949999868288664
 42
0.0
 10
52.94221216833716
 20
11.76520189364394
 42
0.1989123673796675
 10
51.71206064932062
 20
14.73505037462759
 42
0.0
 10
48.80226267467606
 20
17.64484834927211
 42
-0.1989123673796653
 10
48.39221216833721
 20
18.63479784293327
 42
0.0
 97
        0
 92
        7
 72
     1
 73
     1
 93
       16
 10
57.84221216833714
 20
22.72499986828868
 42
0.414213562373103
 10
57.31721216833716
 20
23.24999986828869
 42
0.0
 10
55.56721216833716
 20
23.24999986828869
 42
0.4142135623730872
 10
55.04221216833719
 20
22.72499986828871
 42
0.0
 10
55.04221216833719
 20
9.949999868288664
 42
0.4142135623730925
 10
57.84221216833714
 20
7.149999868288688
 42
0.0
 10
61.34221216833714
 20
7.149999868288688
 42
0.4142135623731044
 10
64.14221216833721
 20
9.949999868288664
 42
0.0
 10
64.14221216833721
 20
22.72499986828869
 42
0.4142135623730952
 10
63.61721216833723
 20
23.24999986828869
 42
0.0
 10
61.86721216833712
 20
23.24999986828869
 42
0.4142135623730872
 10
61.34221216833714
 20
22.72499986828871
 42
0.0
 10
61.34221216833714
 20
10.99999986828866
 42
-0.414213562373088
 10
60.29221216833719
 20
9.949999868288685
 42
0.0
 10
58.89221216833721
 20
9.949999868288685
 42
-0.4142135623731197
 10
57.84221216833714
 20
10.99999986828866
 42
0.0
 97
        0
 92
        7
 72
     1
 73
     1
 93
        8
 10
69.04221216833719
 20
22.72499986828871
 42
0.4142135623730872
 10
68.51721216833721
 20
23.24999986828869
 42
0.0
 10
66.76721216833721
 20
23.24999986828869
 42
0.4142135623731506
 10
66.24221216833712
 20
22.72499986828871
 42
0.0
 10
66.24221216833712
 20
7.674999868288676
 42
0.414213562373089
 10
66.7672121683371
 20
7.149999868288688
 42
0.0
 10
68.51721216833721
 20
7.149999868288688
 42
0.414213562373089
 10
69.04221216833719
 20
7.674999868288676
 42
0.0
 97
        0
 75
     0
 76
     1
 52
0.0
 41
0.2
 77
     0
 78
     2
 53
45.0
 43
-900.942304321123
 44
-13.20000013171125
 45
-0.4490128060534576
 46
0.4490128060534577
 79
     0
 53
135.0
 43
-900.942304321123
 44
-13.20000013171125
 45
-0.4490128060534577
 46
-0.4490128060534576
 79
     0
 47
0.057451373970553
 98
        8
 10
16.07985497657933
 20
15.16717351417424
 10
22.40451501999519
 20
18.84406205073969
 10
25.16436789921568
 20
15.5118815143594
 10
30.91405999519316
 20
16.20129751473019
 10
41.83847203251276
 20
16.6609097822718
 10
46.89820090868557
 20
19.41857618469589
 10
56.55768598595637
 20
18.7291577833837
 10
67.82707963317876
 20
19.18877005092531
  0
LINE
  5
3F02
330
1A
100
AcDbEntity
  8
ZUWAKU
100
AcDbLine
 10
24.94221216833716
 20
23.24999986828865
 30
0.0
 11
26.86721216833712
 21
23.24999986828869
 31
0.0
  0
LINE
  5
3F03
330
1A
100
AcDbEntity
  8
ZUWAKU
100
AcDbLine
 10
26.86721216833712
 20
20.44999986828869
 30
0.0
 11
24.94221216833716
 21
20.44999986828869
 31
0.0
  0
LINE
  5
3F04
330
1A
100
AcDbEntity
  8
ZUWAKU
100
AcDbLine
 10
24.94221216833716
 20
9.949999868288685
 30
0.0
 11
26.86721216833712
 21
9.949999868288685
 31
0.0
  0
LINE
  5
3F05
330
1A
100
AcDbEntity
  8
ZUWAKU
100
AcDbLine
 10
26.86721216833712
 20
7.149999868288688
 30
0.0
 11
24.94221216833716
 21
7.149999868288688
 31
0.0
  0
CIRCLE
  5
3F06
330
1A
100
AcDbEntity
  8
ZUWAKU
100
AcDbCircle
 10
25.99221216833712
 20
15.19999986828869
 30
0.0
 40
1.75
  0
ARC
  5
3F07
330
1A
100
AcDbEntity
  8
ZUWAKU
100
AcDbCircle
 10
15.49221216833712
 20
18.63479784293339
 30
0.0
 40
1.4
100
AcDbArc
 50
180.0000000000016
 51
224.9999999999988
  0
LINE
  5
3F08
330
1A
100
AcDbEntity
  8
ZUWAKU
100
AcDbLine
 10
23.54221216833719
 20
19.04999986828869
 30
0.0
 11
23.54221216833719
 21
11.34999986828869
 31
0.0
  0
LINE
  5
3F09
330
1A
100
AcDbEntity
  8
ZUWAKU
100
AcDbLine
 10
20.74221216833712
 20
11.34999986828869
 30
0.0
 11
20.74221216833712
 21
19.04999986828864
 31
0.0
  0
ARC
  5
3F0A
330
1A
100
AcDbEntity
  8
ZUWAKU
100
AcDbCircle
 10
15.49221216833712
 20
18.63479784293339
 30
0.0
 40
4.199999999999999
100
AcDbArc
 50
180.0
 51
225.0
  0
ARC
  5
3F0B
330
1A
100
AcDbEntity
  8
ZUWAKU
100
AcDbCircle
 10
15.84221216833714
 20
9.949999868288685
 30
0.0
 40
2.8
100
AcDbArc
 50
270.0
 51
0.0
  0
ARC
  5
3F0C
330
1A
100
AcDbEntity
  8
ZUWAKU
100
AcDbCircle
 10
24.94221216833716
 20
11.34999986828869
 30
0.0
 40
4.199999999999999
100
AcDbArc
 50
180.0
 51
270.0
  0
ARC
  5
3F0D
330
1A
100
AcDbEntity
  8
ZUWAKU
100
AcDbCircle
 10
14.44221216833716
 20
11.76520189364399
 30
0.0
 40
4.199999999999999
100
AcDbArc
 50
0.0
 51
45.0
  0
LINE
  5
3F0E
330
1A
100
AcDbEntity
  8
ZUWAKU
100
AcDbLine
 10
17.41206064932067
 20
14.73505037462751
 30
0.0
 11
14.50226267467599
 21
17.64484834927219
 31
0.0
  0
LINE
  5
3F0F
330
1A
100
AcDbEntity
  8
ZUWAKU
100
AcDbLine
 10
15.84221216833714
 20
10.47499986828869
 30
0.0
 11
15.84221216833714
 21
11.76520189364403
 31
0.0
  0
ARC
  5
3F10
330
1A
100
AcDbEntity
  8
ZUWAKU
100
AcDbCircle
 10
15.31721216833716
 20
10.47499986828869
 30
0.0
 40
0.5249999999999999
100
AcDbArc
 50
270.0
 51
0.0
  0
ARC
  5
3F11
330
1A
100
AcDbEntity
  8
ZUWAKU
100
AcDbCircle
 10
14.44221216833716
 20
11.76520189364403
 30
0.0
 40
1.4
100
AcDbArc
 50
0.0
 51
45.0
  0
LINE
  5
3F12
330
1A
100
AcDbEntity
  8
ZUWAKU
100
AcDbLine
 10
11.81721216833716
 20
7.674999868288687
 30
0.0
 11
11.81721216833716
 21
9.424999868288687
 31
0.0
  0
ARC
  5
3F13
330
1A
100
AcDbEntity
  8
ZUWAKU
100
AcDbCircle
 10
12.34221216833714
 20
7.674999868288687
 30
0.0
 40
0.5249999999999999
100
AcDbArc
 50
180.0
 51
270.0
  0
ARC
  5
3F14
330
1A
100
AcDbEntity
  8
ZUWAKU
100
AcDbCircle
 10
12.34221216833714
 20
9.424999868288687
 30
0.0
 40
0.5249999999999999
100
AcDbArc
 50
90.0
 51
180.0
  0
LINE
  5
3F15
330
1A
100
AcDbEntity
  8
ZUWAKU
100
AcDbLine
 10
12.34221216833714
 20
7.149999868288688
 30
0.0
 11
15.84221216833714
 21
7.149999868288688
 31
0.0
  0
LINE
  5
3F16
330
1A
100
AcDbEntity
  8
ZUWAKU
100
AcDbLine
 10
12.34221216833714
 20
9.949999868288685
 30
0.0
 11
15.31721216833716
 21
9.949999868288685
 31
0.0
  0
LINE
  5
3F17
330
1A
100
AcDbEntity
  8
ZUWAKU
100
AcDbLine
 10
12.52236368735362
 20
15.66494936194987
 30
0.0
 11
15.43216166199829
 21
12.7551513873052
 31
0.0
  0
LINE
  5
3F18
330
1A
100
AcDbEntity
  8
ZUWAKU
100
AcDbLine
 10
18.64221216833721
 20
9.949999868288685
 30
0.0
 11
18.64221216833721
 21
11.76520189364403
 31
0.0
  0
ARC
  5
3F19
330
1A
100
AcDbEntity
  8
ZUWAKU
100
AcDbCircle
 10
24.94221216833716
 20
11.34999986828869
 30
0.0
 40
1.4
100
AcDbArc
 50
180.0
 51
270.0
  0
ARC
  5
3F1A
330
1A
100
AcDbEntity
  8
ZUWAKU
100
AcDbCircle
 10
17.59221216833714
 20
22.72499986828868
 30
0.0
 40
0.5249999999999999
100
AcDbArc
 50
0.0
 51
90.0
  0
ARC
  5
3F1B
330
1A
100
AcDbEntity
  8
ZUWAKU
100
AcDbCircle
 10
17.59221216833714
 20
20.97499986828868
 30
0.0
 40
0.5249999999999999
100
AcDbArc
 50
270.0
 51
0.0
  0
LINE
  5
3F1C
330
1A
100
AcDbEntity
  8
ZUWAKU
100
AcDbLine
 10
14.09221216833714
 20
23.24999986828869
 30
0.0
 11
17.59221216833714
 21
23.24999986828869
 31
0.0
  0
ARC
  5
3F1D
330
1A
100
AcDbEntity
  8
ZUWAKU
100
AcDbCircle
 10
14.61721216833712
 20
19.92499986828869
 30
0.0
 40
0.5249999999999999
100
AcDbArc
 50
90.0
 51
180.0
  0
LINE
  5
3F1E
330
1A
100
AcDbEntity
  8
ZUWAKU
100
AcDbLine
 10
14.09221216833714
 20
19.92499986828869
 30
0.0
 11
14.09221216833714
 21
18.63479784293335
 31
0.0
  0
LINE
  5
3F1F
330
1A
100
AcDbEntity
  8
ZUWAKU
100
AcDbLine
 10
17.59221216833714
 20
20.44999986828869
 30
0.0
 11
14.61721216833712
 21
20.44999986828869
 31
0.0
  0
LINE
  5
3F20
330
1A
100
AcDbEntity
  8
ZUWAKU
100
AcDbLine
 10
11.29221216833719
 20
20.44999986828869
 30
0.0
 11
11.29221216833719
 21
18.63479784293335
 31
0.0
  0
ARC
  5
3F21
330
1A
100
AcDbEntity
  8
ZUWAKU
100
AcDbCircle
 10
14.09221216833714
 20
20.44999986828869
 30
0.0
 40
2.8
100
AcDbArc
 50
90.0
 51
180.0
  0
LINE
  5
3F22
330
1A
100
AcDbEntity
  8
ZUWAKU
100
AcDbLine
 10
18.11721216833712
 20
22.72499986828868
 30
0.0
 11
18.11721216833712
 21
20.97499986828868
 31
0.0
  0
ARC
  5
3F23
330
1A
100
AcDbEntity
  8
ZUWAKU
100
AcDbCircle
 10
24.94221216833716
 20
19.04999986828869
 30
0.0
 40
1.4
100
AcDbArc
 50
90.0
 51
180.0
  0
ARC
  5
3F24
330
1A
100
AcDbEntity
  8
ZUWAKU
100
AcDbCircle
 10
24.94221216833716
 20
19.04999986828864
 30
0.0
 40
4.199999999999999
100
AcDbArc
 50
90.0
 51
180.0
  0
LINE
  5
3F25
330
1A
100
AcDbEntity
  8
ZUWAKU
100
AcDbLine
 10
79.32662956154422
 20
29.99999986828868
 30
0.0
 11
79.32662956154445
 21
0.7999998682887508
 31
0.0
  0
LINE
  5
3F26
330
1A
100
AcDbEntity
  8
ZUWAKU
100
AcDbLine
 10
79.52662956154427
 20
29.99999986828868
 30
0.0
 11
79.5266295615445
 21
0.7999998682887508
 31
0.0
  0
LINE
  5
3F27
330
1A
100
AcDbEntity
  8
ZUWAKU
100
AcDbLine
 10
79.12662956154441
 20
29.99999986828868
 30
0.0
 11
79.12662956154441
 21
0.7999998682887508
 31
0.0
  0
LINE
  5
3F28
330
1A
100
AcDbEntity
  8
ZUWAKU
100
AcDbLine
 10
64.14221216833721
 20
9.949999868288685
 30
0.0
 11
64.14221216833721
 21
22.72499986828868
 31
0.0
  0
LINE
  5
3F29
330
1A
100
AcDbEntity
  8
ZUWAKU
100
AcDbLine
 10
61.34221216833714
 20
22.72499986828868
 30
0.0
 11
61.34221216833714
 21
10.99999986828868
 31
0.0
  0
LINE
  5
3F2A
330
1A
100
AcDbEntity
  8
ZUWAKU
100
AcDbLine
 10
69.04221216833719
 20
7.674999868288687
 30
0.0
 11
69.04221216833719
 21
22.72499986828868
 31
0.0
  0
LINE
  5
3F2B
330
1A
100
AcDbEntity
  8
ZUWAKU
100
AcDbLine
 10
66.24221216833712
 20
22.72499986828868
 30
0.0
 11
66.24221216833712
 21
7.674999868288687
 31
0.0
  0
ARC
  5
3F2C
330
1A
100
AcDbEntity
  8
ZUWAKU
100
AcDbCircle
 10
49.79221216833719
 20
18.63479784293339
 30
0.0
 40
1.4
100
AcDbArc
 50
180.0000000000016
 51
224.9999999999988
  0
ARC
  5
3F2D
330
1A
100
AcDbEntity
  8
ZUWAKU
100
AcDbCircle
 10
49.79221216833719
 20
18.63479784293339
 30
0.0
 40
4.199999999999999
100
AcDbArc
 50
180.0
 51
225.0
  0
LINE
  5
3F2E
330
1A
100
AcDbEntity
  8
ZUWAKU
100
AcDbLine
 10
37.31485865051513
 20
19.20504706185211
 30
0.0
 11
36.05010690517929
 21
15.19999986828871
 31
0.0
  0
LINE
  5
3F2F
330
1A
100
AcDbEntity
  8
ZUWAKU
100
AcDbLine
 10
40.69221216833716
 20
22.72499986828868
 30
0.0
 11
40.69221216833716
 21
7.674999868288687
 31
0.0
  0
LINE
  5
3F30
330
1A
100
AcDbEntity
  8
ZUWAKU
100
AcDbLine
 10
43.49221216833712
 20
7.674999868288687
 30
0.0
 11
43.49221216833712
 21
22.72499986828868
 31
0.0
  0
LINE
  5
3F31
330
1A
100
AcDbEntity
  8
ZUWAKU
100
AcDbLine
 10
55.04221216833719
 20
22.72499986828868
 30
0.0
 11
55.04221216833719
 21
9.949999868288685
 31
0.0
  0
LINE
  5
3F32
330
1A
100
AcDbEntity
  8
ZUWAKU
100
AcDbLine
 10
57.84221216833714
 20
10.99999986828868
 30
0.0
 11
57.84221216833714
 21
22.72499986828868
 31
0.0
  0
LINE
  5
3F33
330
1A
100
AcDbEntity
  8
ZUWAKU
100
AcDbLine
 10
32.64221216833721
 20
17.12499986828869
 30
0.0
 11
32.64221216833721
 21
22.72499986828868
 31
0.0
  0
LINE
  5
3F34
330
1A
100
AcDbEntity
  8
ZUWAKU
100
AcDbLine
 10
29.84221216833714
 20
22.72499986828868
 30
0.0
 11
29.84221216833714
 21
7.674999868288687
 31
0.0
  0
LINE
  5
3F35
330
1A
100
AcDbEntity
  8
ZUWAKU
100
AcDbLine
 10
35.67634710565301
 20
22.88309383645566
 30
0.0
 11
33.80807723102123
 21
16.96690590012172
 31
0.0
  0
LINE
  5
3F36
330
1A
100
AcDbEntity
  8
ZUWAKU
100
AcDbLine
 10
60.29221216833719
 20
9.949999868288685
 30
0.0
 11
58.89221216833721
 21
9.949999868288685
 31
0.0
  0
LINE
  5
3F37
330
1A
100
AcDbEntity
  8
ZUWAKU
100
AcDbLine
 10
57.84221216833714
 20
7.149999868288688
 30
0.0
 11
61.34221216833714
 21
7.149999868288688
 31
0.0
  0
LINE
  5
3F38
330
1A
100
AcDbEntity
  8
ZUWAKU
100
AcDbLine
 10
41.21721216833714
 20
7.149999868288688
 30
0.0
 11
42.96721216833714
 21
7.149999868288688
 31
0.0
  0
LINE
  5
3F39
330
1A
100
AcDbEntity
  8
ZUWAKU
100
AcDbLine
 10
35.67634710565301
 20
7.516905900121714
 30
0.0
 11
33.80807723102123
 21
13.43309383645565
 31
0.0
  0
ARC
  5
3F3A
330
1A
100
AcDbEntity
  8
ZUWAKU
100
AcDbCircle
 10
33.30744633182587
 20
17.12499986828869
 30
0.0
 40
0.5249999999999999
100
AcDbArc
 50
270.0
 51
342.474431626277
  0
LINE
  5
3F3B
330
1A
100
AcDbEntity
  8
ZUWAKU
100
AcDbLine
 10
33.30744633182587
 20
16.59999986828868
 30
0.0
 11
33.16721216833719
 21
16.59999986828868
 31
0.0
  0
LINE
  5
3F3C
330
1A
100
AcDbEntity
  8
ZUWAKU
100
AcDbLine
 10
33.16721216833719
 20
13.79999986828869
 30
0.0
 11
33.30744633182587
 21
13.79999986828869
 31
0.0
  0
ARC
  5
3F3D
330
1A
100
AcDbEntity
  8
ZUWAKU
100
AcDbCircle
 10
33.16721216833719
 20
17.12499986828869
 30
0.0
 40
0.5249999999999999
100
AcDbArc
 50
180.0
 51
270.0
  0
LINE
  5
3F3E
330
1A
100
AcDbEntity
  8
ZUWAKU
100
AcDbLine
 10
30.36721216833712
 20
7.149999868288688
 30
0.0
 11
32.11721216833712
 21
7.149999868288688
 31
0.0
  0
ARC
  5
3F3F
330
1A
100
AcDbEntity
  8
ZUWAKU
100
AcDbCircle
 10
32.11721216833712
 20
7.674999868288687
 30
0.0
 40
0.5249999999999999
100
AcDbArc
 50
270.0
 51
0.0
  0
LINE
  5
3F40
330
1A
100
AcDbEntity
  8
ZUWAKU
100
AcDbLine
 10
32.64221216833721
 20
7.674999868288687
 30
0.0
 11
32.64221216833721
 21
13.27499986828869
 31
0.0
  0
LINE
  5
3F41
330
1A
100
AcDbEntity
  8
ZUWAKU
100
AcDbLine
 10
27.39221216833721
 20
9.424999868288687
 30
0.0
 11
27.39221216833721
 21
7.674999868288687
 31
0.0
  0
ARC
  5
3F42
330
1A
100
AcDbEntity
  8
ZUWAKU
100
AcDbCircle
 10
26.86721216833712
 20
7.674999868288687
 30
0.0
 40
0.5249999999999999
100
AcDbArc
 50
270.0
 51
0.0
  0
ARC
  5
3F43
330
1A
100
AcDbEntity
  8
ZUWAKU
100
AcDbCircle
 10
26.86721216833712
 20
9.424999868288687
 30
0.0
 40
0.5249999999999999
100
AcDbArc
 50
0.0
 51
90.0
  0
ARC
  5
3F44
330
1A
100
AcDbEntity
  8
ZUWAKU
100
AcDbCircle
 10
30.36721216833712
 20
7.674999868288687
 30
0.0
 40
0.5249999999999999
100
AcDbArc
 50
180.0
 51
270.0
  0
ARC
  5
3F45
330
1A
100
AcDbEntity
  8
ZUWAKU
100
AcDbCircle
 10
33.30744633182587
 20
13.27499986828869
 30
0.0
 40
0.5249999999999999
100
AcDbArc
 50
17.52556837372303
 51
90.0
  0
ARC
  5
3F46
330
1A
100
AcDbEntity
  8
ZUWAKU
100
AcDbCircle
 10
33.16721216833719
 20
13.27499986828869
 30
0.0
 40
0.5249999999999999
100
AcDbArc
 50
90.0
 51
180.0
  0
ARC
  5
3F47
330
1A
100
AcDbEntity
  8
ZUWAKU
100
AcDbCircle
 10
41.21721216833714
 20
7.674999868288687
 30
0.0
 40
0.5249999999999999
100
AcDbArc
 50
180.0
 51
270.0
  0
LINE
  5
3F48
330
1A
100
AcDbEntity
  8
ZUWAKU
100
AcDbLine
 10
36.17697800484848
 20
7.149999868288688
 30
0.0
 11
37.87586738445748
 21
7.149999868288688
 31
0.0
  0
ARC
  5
3F49
330
1A
100
AcDbEntity
  8
ZUWAKU
100
AcDbCircle
 10
37.87586738445748
 20
7.674999868288687
 30
0.0
 40
0.5249999999999999
100
AcDbArc
 50
270.0
 51
17.52556837372303
  0
LINE
  5
3F4A
330
1A
100
AcDbEntity
  8
ZUWAKU
100
AcDbLine
 10
38.37649828365295
 20
7.83309383645566
 30
0.0
 11
36.05010690517929
 21
15.19999986828871
 31
0.0
  0
ARC
  5
3F4B
330
1A
100
AcDbEntity
  8
ZUWAKU
100
AcDbCircle
 10
36.17697800484848
 20
7.674999868288687
 30
0.0
 40
0.5249999999999999
100
AcDbArc
 50
197.525568373723
 51
270.0
  0
ARC
  5
3F4C
330
1A
100
AcDbEntity
  8
ZUWAKU
100
AcDbCircle
 10
57.84221216833714
 20
9.949999868288685
 30
0.0
 40
2.8
100
AcDbArc
 50
180.0
 51
270.0
  0
ARC
  5
3F4D
330
1A
100
AcDbEntity
  8
ZUWAKU
100
AcDbCircle
 10
50.14221216833721
 20
9.949999868288685
 30
0.0
 40
2.8
100
AcDbArc
 50
270.0
 51
0.0
  0
LINE
  5
3F4E
330
1A
100
AcDbEntity
  8
ZUWAKU
100
AcDbLine
 10
51.71206064932073
 20
14.73505037462751
 30
0.0
 11
48.80226267467594
 21
17.64484834927219
 31
0.0
  0
LINE
  5
3F4F
330
1A
100
AcDbEntity
  8
ZUWAKU
100
AcDbLine
 10
50.14221216833721
 20
10.47499986828869
 30
0.0
 11
50.14221216833721
 21
11.76520189364403
 31
0.0
  0
ARC
  5
3F50
330
1A
100
AcDbEntity
  8
ZUWAKU
100
AcDbCircle
 10
48.74221216833712
 20
11.76520189364403
 30
0.0
 40
1.4
100
AcDbArc
 50
0.0
 51
45.0
  0
ARC
  5
3F51
330
1A
100
AcDbEntity
  8
ZUWAKU
100
AcDbCircle
 10
49.61721216833712
 20
10.47499986828869
 30
0.0
 40
0.5249999999999999
100
AcDbArc
 50
270.0
 51
0.0
  0
LINE
  5
3F52
330
1A
100
AcDbEntity
  8
ZUWAKU
100
AcDbLine
 10
46.11721216833712
 20
7.674999868288687
 30
0.0
 11
46.11721216833712
 21
9.424999868288687
 31
0.0
  0
ARC
  5
3F53
330
1A
100
AcDbEntity
  8
ZUWAKU
100
AcDbCircle
 10
46.64221216833721
 20
7.674999868288687
 30
0.0
 40
0.5249999999999999
100
AcDbArc
 50
180.0
 51
270.0
  0
ARC
  5
3F54
330
1A
100
AcDbEntity
  8
ZUWAKU
100
AcDbCircle
 10
42.96721216833714
 20
7.674999868288687
 30
0.0
 40
0.5249999999999999
100
AcDbArc
 50
270.0
 51
0.0
  0
ARC
  5
3F55
330
1A
100
AcDbEntity
  8
ZUWAKU
100
AcDbCircle
 10
46.64221216833721
 20
9.424999868288687
 30
0.0
 40
0.5249999999999999
100
AcDbArc
 50
90.0
 51
180.0
  0
LINE
  5
3F56
330
1A
100
AcDbEntity
  8
ZUWAKU
100
AcDbLine
 10
46.64221216833721
 20
9.949999868288685
 30
0.0
 11
49.61721216833712
 21
9.949999868288685
 31
0.0
  0
LINE
  5
3F57
330
1A
100
AcDbEntity
  8
ZUWAKU
100
AcDbLine
 10
46.64221216833721
 20
7.149999868288688
 30
0.0
 11
50.14221216833721
 21
7.149999868288688
 31
0.0
  0
LINE
  5
3F58
330
1A
100
AcDbEntity
  8
ZUWAKU
100
AcDbLine
 10
46.82236368735369
 20
15.66494936194987
 30
0.0
 11
49.73216166199836
 21
12.7551513873052
 31
0.0
  0
LINE
  5
3F59
330
1A
100
AcDbEntity
  8
ZUWAKU
100
AcDbLine
 10
52.94221216833716
 20
9.949999868288685
 30
0.0
 11
52.94221216833716
 21
11.76520189364403
 31
0.0
  0
ARC
  5
3F5A
330
1A
100
AcDbEntity
  8
ZUWAKU
100
AcDbCircle
 10
48.74221216833712
 20
11.76520189364399
 30
0.0
 40
4.199999999999999
100
AcDbArc
 50
0.0
 51
45.0
  0
ARC
  5
3F5B
330
1A
100
AcDbEntity
  8
ZUWAKU
100
AcDbCircle
 10
58.89221216833721
 20
10.99999986828868
 30
0.0
 40
1.05
100
AcDbArc
 50
180.0
 51
270.0
  0
ARC
  5
3F5C
330
1A
100
AcDbEntity
  8
ZUWAKU
100
AcDbCircle
 10
61.34221216833714
 20
9.949999868288685
 30
0.0
 40
2.8
100
AcDbArc
 50
270.0
 51
0.0
  0
LINE
  5
3F5D
330
1A
100
AcDbEntity
  8
ZUWAKU
100
AcDbLine
 10
66.76721216833721
 20
7.149999868288688
 30
0.0
 11
68.51721216833721
 21
7.149999868288688
 31
0.0
  0
ARC
  5
3F5E
330
1A
100
AcDbEntity
  8
ZUWAKU
100
AcDbCircle
 10
66.76721216833721
 20
7.674999868288687
 30
0.0
 40
0.5249999999999999
100
AcDbArc
 50
180.0
 51
270.0
  0
ARC
  5
3F5F
330
1A
100
AcDbEntity
  8
ZUWAKU
100
AcDbCircle
 10
60.29221216833719
 20
10.99999986828868
 30
0.0
 40
1.05
100
AcDbArc
 50
270.0
 51
0.0
  0
ARC
  5
3F60
330
1A
100
AcDbEntity
  8
ZUWAKU
100
AcDbCircle
 10
68.51721216833721
 20
7.674999868288687
 30
0.0
 40
0.5249999999999999
100
AcDbArc
 50
270.0
 51
0.0
  0
LINE
  5
3F61
330
1A
100
AcDbEntity
  8
ZUWAKU
100
AcDbLine
 10
42.96721216833714
 20
23.24999986828869
 30
0.0
 11
41.21721216833714
 21
23.24999986828869
 31
0.0
  0
ARC
  5
3F62
330
1A
100
AcDbEntity
  8
ZUWAKU
100
AcDbCircle
 10
32.11721216833712
 20
22.72499986828868
 30
0.0
 40
0.5249999999999999
100
AcDbArc
 50
0.0
 51
90.0
  0
LINE
  5
3F63
330
1A
100
AcDbEntity
  8
ZUWAKU
100
AcDbLine
 10
32.11721216833712
 20
23.24999986828869
 30
0.0
 11
30.36721216833712
 21
23.24999986828869
 31
0.0
  0
ARC
  5
3F64
330
1A
100
AcDbEntity
  8
ZUWAKU
100
AcDbCircle
 10
26.86721216833712
 20
22.72499986828868
 30
0.0
 40
0.5249999999999999
100
AcDbArc
 50
0.0
 51
90.0
  0
ARC
  5
3F65
330
1A
100
AcDbEntity
  8
ZUWAKU
100
AcDbCircle
 10
30.36721216833712
 20
22.72499986828868
 30
0.0
 40
0.5249999999999999
100
AcDbArc
 50
90.0
 51
180.0
  0
ARC
  5
3F66
330
1A
100
AcDbEntity
  8
ZUWAKU
100
AcDbCircle
 10
26.86721216833712
 20
20.97499986828868
 30
0.0
 40
0.5249999999999999
100
AcDbArc
 50
270.0
 51
0.0
  0
LINE
  5
3F67
330
1A
100
AcDbEntity
  8
ZUWAKU
100
AcDbLine
 10
27.39221216833721
 20
22.72499986828868
 30
0.0
 11
27.39221216833721
 21
20.97499986828868
 31
0.0
  0
ARC
  5
3F68
330
1A
100
AcDbEntity
  8
ZUWAKU
100
AcDbCircle
 10
41.21721216833714
 20
22.72499986828868
 30
0.0
 40
0.5249999999999999
100
AcDbArc
 50
90.0
 51
180.0
  0
LINE
  5
3F69
330
1A
100
AcDbEntity
  8
ZUWAKU
100
AcDbLine
 10
36.17697800484848
 20
23.24999986828869
 30
0.0
 11
37.87586738445748
 21
23.24999986828869
 31
0.0
  0
ARC
  5
3F6A
330
1A
100
AcDbEntity
  8
ZUWAKU
100
AcDbCircle
 10
37.87586738445748
 20
22.72499986828868
 30
0.0
 40
0.5249999999999999
100
AcDbArc
 50
342.474431626277
 51
90.0
  0
LINE
  5
3F6B
330
1A
100
AcDbEntity
  8
ZUWAKU
100
AcDbLine
 10
38.37649828365295
 20
22.56690590012172
 30
0.0
 11
37.31485865051513
 21
19.20504706185211
 31
0.0
  0
ARC
  5
3F6C
330
1A
100
AcDbEntity
  8
ZUWAKU
100
AcDbCircle
 10
36.17697800484848
 20
22.72499986828868
 30
0.0
 40
0.5249999999999999
100
AcDbArc
 50
90.0
 51
162.474431626277
  0
LINE
  5
3F6D
330
1A
100
AcDbEntity
  8
ZUWAKU
100
AcDbLine
 10
48.39221216833721
 20
23.24999986828869
 30
0.0
 11
51.89221216833721
 21
23.24999986828869
 31
0.0
  0
LINE
  5
3F6E
330
1A
100
AcDbEntity
  8
ZUWAKU
100
AcDbLine
 10
51.89221216833721
 20
20.44999986828869
 30
0.0
 11
48.91721216833719
 21
20.44999986828869
 31
0.0
  0
ARC
  5
3F6F
330
1A
100
AcDbEntity
  8
ZUWAKU
100
AcDbCircle
 10
48.91721216833719
 20
19.92499986828869
 30
0.0
 40
0.5249999999999999
100
AcDbArc
 50
90.0
 51
180.0
  0
LINE
  5
3F70
330
1A
100
AcDbEntity
  8
ZUWAKU
100
AcDbLine
 10
48.39221216833721
 20
19.92499986828869
 30
0.0
 11
48.39221216833721
 21
18.63479784293335
 31
0.0
  0
ARC
  5
3F71
330
1A
100
AcDbEntity
  8
ZUWAKU
100
AcDbCircle
 10
42.96721216833714
 20
22.72499986828868
 30
0.0
 40
0.5249999999999999
100
AcDbArc
 50
0.0
 51
90.0
  0
LINE
  5
3F72
330
1A
100
AcDbEntity
  8
ZUWAKU
100
AcDbLine
 10
45.59221216833714
 20
20.44999986828869
 30
0.0
 11
45.59221216833714
 21
18.63479784293335
 31
0.0
  0
ARC
  5
3F73
330
1A
100
AcDbEntity
  8
ZUWAKU
100
AcDbCircle
 10
48.39221216833721
 20
20.44999986828869
 30
0.0
 40
2.8
100
AcDbArc
 50
90.0
 51
180.0
  0
ARC
  5
3F74
330
1A
100
AcDbEntity
  8
ZUWAKU
100
AcDbCircle
 10
57.31721216833716
 20
22.72499986828868
 30
0.0
 40
0.5249999999999999
100
AcDbArc
 50
0.0
 51
90.0
  0
ARC
  5
3F75
330
1A
100
AcDbEntity
  8
ZUWAKU
100
AcDbCircle
 10
55.56721216833716
 20
22.72499986828868
 30
0.0
 40
0.5249999999999999
100
AcDbArc
 50
90.0
 51
180.0
  0
LINE
  5
3F76
330
1A
100
AcDbEntity
  8
ZUWAKU
100
AcDbLine
 10
57.31721216833716
 20
23.24999986828869
 30
0.0
 11
55.56721216833716
 21
23.24999986828869
 31
0.0
  0
ARC
  5
3F77
330
1A
100
AcDbEntity
  8
ZUWAKU
100
AcDbCircle
 10
51.89221216833721
 20
22.72499986828868
 30
0.0
 40
0.5249999999999999
100
AcDbArc
 50
0.0
 51
90.0
  0
ARC
  5
3F78
330
1A
100
AcDbEntity
  8
ZUWAKU
100
AcDbCircle
 10
51.89221216833721
 20
20.97499986828868
 30
0.0
 40
0.5249999999999999
100
AcDbArc
 50
270.0
 51
0.0
  0
LINE
  5
3F79
330
1A
100
AcDbEntity
  8
ZUWAKU
100
AcDbLine
 10
52.41721216833719
 20
22.72499986828868
 30
0.0
 11
52.41721216833719
 21
20.97499986828868
 31
0.0
  0
LINE
  5
3F7A
330
1A
100
AcDbEntity
  8
ZUWAKU
100
AcDbLine
 10
68.51721216833721
 20
23.24999986828869
 30
0.0
 11
66.76721216833721
 21
23.24999986828869
 31
0.0
  0
ARC
  5
3F7B
330
1A
100
AcDbEntity
  8
ZUWAKU
100
AcDbCircle
 10
66.76721216833721
 20
22.72499986828868
 30
0.0
 40
0.5249999999999999
100
AcDbArc
 50
90.0
 51
180.0
  0
ARC
  5
3F7C
330
1A
100
AcDbEntity
  8
ZUWAKU
100
AcDbCircle
 10
63.61721216833712
 20
22.72499986828868
 30
0.0
 40
0.5249999999999999
100
AcDbArc
 50
0.0
 51
90.0
  0
LINE
  5
3F7D
330
1A
100
AcDbEntity
  8
ZUWAKU
100
AcDbLine
 10
63.61721216833712
 20
23.24999986828869
 30
0.0
 11
61.86721216833712
 21
23.24999986828869
 31
0.0
  0
ARC
  5
3F7E
330
1A
100
AcDbEntity
  8
ZUWAKU
100
AcDbCircle
 10
61.86721216833712
 20
22.72499986828868
 30
0.0
 40
0.5249999999999999
100
AcDbArc
 50
90.0
 51
180.0
  0
ARC
  5
3F7F
330
1A
100
AcDbEntity
  8
ZUWAKU
100
AcDbCircle
 10
68.51721216833721
 20
22.72499986828868
 30
0.0
 40
0.5249999999999999
100
AcDbArc
 50
0.0
 51
90.0
  0
TEXT
  5
3F80
330
1A
100
AcDbEntity
  8
moji
100
AcDbText
 10
239.8272026944071
 20
18.00492092569607
 30
0.0
 40
5.6
  1
ステンレス金具上打Ⅲ型
 41
0.9
  7
ｽﾀｲﾙ1
100
AcDbText
  0
TEXT
  5
3F81
330
1A
100
AcDbEntity
  8
moji
100
AcDbText
 10
239.8272026944071
 20
3.204920925696104
 30
0.0
 40
5.6
  1
Σ９０－Ⅲ－２.０
 41
0.9
  7
ｽﾀｲﾙ1
100
AcDbText
  0
LINE
  5
3F82
330
1A
100
AcDbEntity
  8
ZUWAKU
100
AcDbLine
 10
208.246601303624
 20
29.99999986828868
 30
0.0
 11
208.246601303624
 21
0.7999998682887508
 31
0.0
  0
LINE
  5
3F83
330
1A
100
AcDbEntity
  8
ZUWAKU
100
AcDbLine
 10
208.6466013036238
 20
29.99999986828868
 30
0.0
 11
208.646601303624
 21
0.7999998682887508
 31
0.0
  0
LINE
  5
3F84
330
1A
100
AcDbEntity
  8
ZUWAKU
100
AcDbLine
 10
208.4466013036238
 20
29.99999986828868
 30
0.0
 11
208.446601303624
 21
0.7999998682887508
 31
0.0
  0
TEXT
  5
3F85
330
1A
100
AcDbEntity
  8
ZUWAKU
100
AcDbText
 10
209.7240463258336
 20
9.655356406674301
 30
0.0
 40
4.0
  1
サイズ
 41
0.9
  7
ｽﾀｲﾙ1
100
AcDbText
  0
TEXT
  5
3F86
330
1A
100
AcDbEntity
  8
ZUWAKU
100
AcDbText
 10
209.7240463258333
 20
24.05535640667426
 30
0.0
 40
4.0
  1
品名
 41
0.9
  7
ｽﾀｲﾙ1
100
AcDbText
  0
LINE
  5
3F87
330
1A
100
AcDbEntity
  8
ZUWAKU
100
AcDbLine
 10
648.8172025237602
 20
15.19999986828871
 30
0.0
 11
697.2490105620973
 21
15.19999986828872
 31
0.0
  0
LINE
  5
3F88
330
1A
100
AcDbEntity
  8
ZUWAKU
100
AcDbLine
 10
648.8172025237604
 20
15.39999986828872
 30
0.0
 11
697.2490105620973
 21
15.39999986828872
 31
0.0
  0
LINE
  5
3F89
330
1A
100
AcDbEntity
  8
ZUWAKU
100
AcDbLine
 10
648.8172025237602
 20
15.59999986828872
 30
0.0
 11
697.2490105620973
 21
15.59999986828872
 31
0.0
  0
TEXT
  5
3F8A
330
1A
100
AcDbEntity
  8
ZUWAKU
100
AcDbText
 10
658.2039377008584
 20
18.00492092569607
 30
0.0
 40
5.6
  1
　　．　　．　　
 41
0.9
  7
ｽﾀｲﾙ1
100
AcDbText
  0
LINE
  5
3F8B
330
1A
100
AcDbEntity
  8
ZUWAKU
100
AcDbLine
 10
505.1991795116969
 20
15.19999986828872
 30
0.0
 11
552.5269557796685
 21
15.19999986828872
 31
0.0
  0
LINE
  5
3F8C
330
1A
100
AcDbEntity
  8
ZUWAKU
100
AcDbLine
 10
505.1991795116969
 20
15.39999986828872
 30
0.0
 11
552.5269557796685
 21
15.39999986828872
 31
0.0
  0
LINE
  5
3F8D
330
1A
100
AcDbEntity
  8
ZUWAKU
100
AcDbLine
 10
505.1991795116969
 20
15.59999986828872
 30
0.0
 11
552.5269557796685
 21
15.59999986828872
 31
0.0
  0
TEXT
  5
3F8E
330
1A
100
AcDbEntity
  8
moji
100
AcDbText
 10
463.2464320045581
 20
11.94261758994867
 30
0.0
 40
5.6
  1
ＬＧ４４□
 41
0.9
  7
ｽﾀｲﾙ1
100
AcDbText
  0
LINE
  5
3F8F
330
1A
100
AcDbEntity
  8
ZUWAKU
100
AcDbLine
 10
447.6243639845472
 20
29.99999986828868
 30
0.0
 11
447.6243639845475
 21
0.7999998682887508
 31
0.0
  0
LINE
  5
3F90
330
1A
100
AcDbEntity
  8
ZUWAKU
100
AcDbLine
 10
447.8243639845473
 20
29.99999986828868
 30
0.0
 11
447.8243639845475
 21
0.7999998682887508
 31
0.0
  0
LINE
  5
3F91
330
1A
100
AcDbEntity
  8
ZUWAKU
100
AcDbLine
 10
447.4243639845474
 20
29.99999986828868
 30
0.0
 11
447.4243639845474
 21
0.7999998682887508
 31
0.0
  0
TEXT
  5
3F92
330
1A
100
AcDbEntity
  8
moji
100
AcDbText
 10
528.0409079858689
 20
18.00492092569607
 30
0.0
 40
5.6
  1
Ａ３
 41
0.9
  7
ｽﾀｲﾙ1
100
AcDbText
  0
LINE
  5
3F93
330
1A
100
AcDbEntity
  8
ZUWAKU
100
AcDbLine
 10
504.9991795116969
 20
29.99999986828868
 30
0.0
 11
504.9991795116971
 21
0.7999998682887508
 31
0.0
  0
LINE
  5
3F94
330
1A
100
AcDbEntity
  8
ZUWAKU
100
AcDbLine
 10
505.1991795116969
 20
29.99999986828868
 30
0.0
 11
505.1991795116971
 21
0.7999998682887508
 31
0.0
  0
LINE
  5
3F95
330
1A
100
AcDbEntity
  8
ZUWAKU
100
AcDbLine
 10
504.7991795116971
 20
29.99999986828868
 30
0.0
 11
504.7991795116971
 21
0.7999998682887508
 31
0.0
  0
TEXT
  5
3F97
330
1A
100
AcDbEntity
  8
ZUWAKU
100
AcDbText
 10
506.6766245339068
 20
9.655356406674301
 30
0.0
 40
4.0
  1
縮尺
 41
0.9
  7
ｽﾀｲﾙ1
100
AcDbText
  0
TEXT
  5
3F98
330
1A
100
AcDbEntity
  8
moji
100
AcDbText
 10
528.0409079858689
 20
3.204920925696104
 30
0.0
 40
5.6
  1
１/２
 41
0.9
  7
ｽﾀｲﾙ1
100
AcDbText
  0
TEXT
  5
3F99
330
1A
100
AcDbEntity
  8
ZUWAKU
100
AcDbText
 10
449.3018090067569
 20
24.05535640667426
 30
0.0
 40
4.0
  1
品番
 41
0.9
  7
ｽﾀｲﾙ1
100
AcDbText
  0
TEXT
  5
3F9A
330
1A
100
AcDbEntity
  8
ZUWAKU
100
AcDbText
 10
506.6766245339065
 20
24.05535640667426
 30
0.0
 40
4.0
  1
用紙
 41
0.9
  7
ｽﾀｲﾙ1
100
AcDbText
  0
LINE
  5
3F9B
330
1A
100
AcDbEntity
  8
ZUWAKU
100
AcDbLine
 10
648.6172025237604
 20
29.99999986828868
 30
0.0
 11
648.6172025237606
 21
0.7999998682887508
 31
0.0
  0
LINE
  5
3F9C
330
1A
100
AcDbEntity
  8
ZUWAKU
100
AcDbLine
 10
648.8172025237604
 20
29.99999986828868
 30
0.0
 11
648.8172025237607
 21
0.7999998682887508
 31
0.0
  0
LINE
  5
3F9D
330
1A
100
AcDbEntity
  8
ZUWAKU
100
AcDbLine
 10
648.4172025237606
 20
29.99999986828868
 30
0.0
 11
648.4172025237606
 21
0.7999998682887508
 31
0.0
  0
LINE
  5
3F9E
330
1A
100
AcDbEntity
  8
ZUWAKU
100
AcDbLine
 10
552.7269557796683
 20
29.99999986828868
 30
0.0
 11
552.7269557796685
 21
0.7999998682887508
 31
0.0
  0
LINE
  5
3F9F
330
1A
100
AcDbEntity
  8
ZUWAKU
100
AcDbLine
 10
552.9269557796683
 20
29.99999986828868
 30
0.0
 11
552.9269557796686
 21
0.7999998682887508
 31
0.0
  0
LINE
  5
3FA0
330
1A
100
AcDbEntity
  8
ZUWAKU
100
AcDbLine
 10
552.5269557796685
 20
29.99999986828868
 30
0.0
 11
552.5269557796685
 21
0.7999998682887508
 31
0.0
  0
TEXT
  5
3FA1
330
1A
100
AcDbEntity
  8
ZUWAKU
100
AcDbText
 10
650.2946475459701
 20
24.05535640667426
 30
0.0
 40
4.0
  1
DATE
 41
0.9
  7
ｽﾀｲﾙ1
100
AcDbText
  0
LINE
  5
3FA2
330
1A
100
AcDbEntity
  8
ZUWAKU
100
AcDbLine
 10
697.2490105620973
 20
29.99999986828868
 30
0.0
 11
697.2490105620973
 21
0.7999998682887508
 31
0.0
  0
LINE
  5
3FA3
330
1A
100
AcDbEntity
  8
ZUWAKU
100
AcDbLine
 10
697.4490105620973
 20
29.99999986828868
 30
0.0
 11
697.4490105620973
 21
0.7999998682887508
 31
0.0
  0
LINE
  5
3FA4
330
1A
100
AcDbEntity
  8
ZUWAKU
100
AcDbLine
 10
697.6490105620972
 20
29.99999986828868
 30
0.0
 11
697.6490105620974
 21
0.7999998682887508
 31
0.0
  0
LINE
  5
3FA5
330
1A
100
AcDbEntity
  8
ZUWAKU
100
AcDbLine
 10
697.8490105620972
 20
29.99999986828868
 30
0.0
 11
697.8490105620974
 21
0.7999998682887508
 31
0.0
  0
TEXT
  5
3FA6
330
1A
100
AcDbEntity
  8
ZUWAKU
100
AcDbText
 10
708.5280842057998
 20
17.55383920397549
 30
0.0
 40
6.0
  1
積水化学工業株式会社
 41
0.9
  7
ｽﾀｲﾙ1
100
AcDbText
  0
TEXT
  5
3FA7
330
1A
100
AcDbEntity
  8
ZUWAKU
100
AcDbText
 10
708.5280842057998
 20
6.648840182142749
 30
0.0
 40
6.0
  1
建材事業部
 41
0.9
  7
ｽﾀｲﾙ1
100
AcDbText
  0
TEXT
  5
6DB4
330
1A
100
AcDbEntity
  8
ZUWAKU
100
AcDbText
 10
462.1716760137121
 20
2.614070779428175
 30
0.0
 40
3.0
  1
□には色品番が入ります
 41
0.9
  7
ｽﾀｲﾙ1
100
AcDbText
  0
LINE
  5
A6B4
330
1A
100
AcDbEntity
  8
SEIHIN
  6
Continuous
 62
     3
 48
5.0
100
AcDbLine
 10
345.7205680669523
 20
103.1606360789041
 30
0.0
 11
434.8114680669523
 21
103.1606360789041
 31
0.0
  0
LINE
  5
A6B5
330
1A
100
AcDbEntity
  8
SEIHIN
  6
Continuous
 62
     3
 48
5.0
100
AcDbLine
 10
434.8114680669523
 20
101.1606360789041
 30
0.0
 11
345.7205680669523
 21
101.1606360789041
 31
0.0
  0
LINE
  5
A6B6
330
1A
100
AcDbEntity
  8
SEIHIN
  6
Continuous
 62
     3
 48
5.0
100
AcDbLine
 10
373.2858680669522
 20
98.66063607890413
 30
0.0
 11
434.8375680669521
 21
98.66063607890413
 31
0.0
  0
LINE
  5
A6B7
330
1A
100
AcDbEntity
  8
SEIHIN
  6
Continuous
 62
     3
 48
5.0
100
AcDbLine
 10
309.9478680669523
 20
483.3987720824928
 30
0.0
 11
573.7824680669521
 21
483.3987720824928
 31
0.0
  0
LINE
  5
A6B8
330
1A
100
AcDbEntity
  8
SEIHIN
  6
Continuous
 62
     3
 48
5.0
100
AcDbLine
 10
573.7824680669521
 20
464.3987720824928
 30
0.0
 11
309.9478680669523
 21
464.3987720824928
 31
0.0
  0
LINE
  5
A6B9
330
1A
100
AcDbEntity
  8
CENTER L
  6
CENTER
 62
     1
 48
5.0
100
AcDbLine
 10
583.8125680669523
 20
473.8987720824928
 30
0.0
 11
294.7026680669523
 21
473.8987720824928
 31
0.0
  0
LINE
  5
A6BA
330
1A
100
AcDbEntity
  8
SEIHIN
  6
Continuous
 62
     3
 48
5.0
100
AcDbLine
 10
430.8114680669523
 20
103.1606360789041
 30
0.0
 11
400.7001680669521
 21
103.1606360789041
 31
0.0
  0
LINE
  5
A6BB
330
1A
100
AcDbEntity
  8
SEIHIN
  6
Continuous
 62
     3
 48
5.0
100
AcDbLine
 10
417.4826680669523
 20
293.1961360789041
 30
0.0
 11
573.7807680669521
 21
324.995336078904
 31
0.0
  0
LINE
  5
A6BC
330
1A
100
AcDbEntity
  8
SEIHIN
  6
Continuous
 62
     3
 48
5.0
100
AcDbLine
 10
431.1370680669523
 20
223.574436078904
 30
0.0
 11
417.0924680669523
 21
292.606536078904
 31
0.0
  0
LINE
  5
A6BD
330
1A
100
AcDbEntity
  8
SEIHIN
  6
Continuous
 62
     3
 48
5.0
100
AcDbLine
 10
428.6872680669521
 20
223.0760360789041
 30
0.0
 11
414.6426680669521
 21
292.108036078904
 31
0.0
  0
LINE
  5
A6BE
330
1A
100
AcDbEntity
  8
SEIHIN
  6
Continuous
 62
     3
 48
5.0
100
AcDbLine
 10
426.2374680669523
 20
222.577636078904
 30
0.0
 11
412.1927680669523
 21
291.6096360789041
 31
0.0
  0
LINE
  5
A6BF
330
1A
100
AcDbEntity
  8
SEIHIN
  6
Continuous
 62
     3
 48
5.0
100
AcDbLine
 10
416.9842680669523
 20
295.6459360789041
 30
0.0
 11
573.2823680669521
 21
327.445136078904
 31
0.0
  0
LINE
  5
A6C0
330
1A
100
AcDbEntity
  8
SEIHIN
  6
Continuous
 62
     3
 48
5.0
100
AcDbLine
 10
416.4858680669523
 20
298.0957360789039
 30
0.0
 11
450.9496680669523
 21
305.1075360789041
 31
0.0
  0
LINE
  5
A6C1
330
1A
100
AcDbEntity
  8
SEIHIN
  6
Continuous
 62
     3
 48
5.0
100
AcDbLine
 10
413.9541680669523
 20
478.8988720824925
 30
0.0
 11
450.6912680669523
 21
478.8987720824928
 31
0.0
  0
LINE
  5
A6C2
330
1A
100
AcDbEntity
  8
SEIHIN
  6
Continuous
 62
     3
 48
5.0
100
AcDbLine
 10
413.9541680669523
 20
468.8988720824925
 30
0.0
 11
450.6912680669523
 21
468.8987720824928
 31
0.0
  0
LINE
  5
A6C3
330
1A
100
AcDbEntity
  8
SEIHIN
  6
PHANTOM
 62
     6
 48
5.0
100
AcDbLine
 10
426.2342680669526
 20
168.9876360789041
 30
0.0
 11
412.1895680669524
 21
238.019636078904
 31
0.0
  0
LINE
  5
A6C4
330
1A
100
AcDbEntity
  8
SEIHIN
  6
PHANTOM
 62
     6
 48
5.0
100
AcDbLine
 10
428.6840680669523
 20
169.486036078904
 30
0.0
 11
414.6394680669523
 21
238.518036078904
 31
0.0
  0
LINE
  5
A6C5
330
1A
100
AcDbEntity
  8
SEIHIN
  6
PHANTOM
 62
     6
 48
5.0
100
AcDbLine
 10
431.1338680669525
 20
169.984436078904
 30
0.0
 11
417.0892680669525
 21
239.0165360789039
 31
0.0
  0
LINE
  5
A6C6
330
1A
100
AcDbEntity
  8
SEIHIN
  6
PHANTOM
 62
     6
 48
5.0
100
AcDbLine
 10
416.9810680669525
 20
242.055936078904
 30
0.0
 11
573.2791680669524
 21
273.855136078904
 31
0.0
  0
LINE
  5
A6C7
330
1A
100
AcDbEntity
  8
SEIHIN
  6
PHANTOM
 62
     6
 48
5.0
100
AcDbLine
 10
417.4794680669525
 20
239.606136078904
 30
0.0
 11
573.7775680669523
 21
271.405336078904
 31
0.0
  0
LINE
  5
A6C8
330
1A
100
AcDbEntity
  8
SEIHIN
  6
PHANTOM
 62
     6
 48
5.0
100
AcDbLine
 10
416.4826680669525
 20
244.5057360789039
 30
0.0
 11
450.9464680669525
 21
251.517536078904
 31
0.0
  0
DIMENSION
  5
A6C9
330
1A
100
AcDbEntity
  8
SUNPOU
 48
5.0
100
AcDbDimension
  2
*D1
 10
506.3358453891923
 20
139.3490360789041
 30
0.0
 11
501.3358453891922
 21
217.1984411729362
 31
0.0
 70
    32
 71
     5
 42
155.6988101880642
  3
STANDARD
100
AcDbAlignedDimension
 13
414.0445619977771
 23
295.0478462669683
 33
0.0
 14
451.6659680669521
 24
139.3490360789041
 34
0.0
 50
90.0
100
AcDbRotatedDimension
1001
ACAD
1000
DSTYLE
1002
{
1070
   140
1040
6.0
1070
    74
1070
     0
1070
   172
1070
     1
1070
    73
1070
     0
1070
   272
1070
     2
1070
    77
1070
     3
1070
   173
1070
     1
1070
   147
1040
2.0
1070
    42
1040
6.0
1070
    44
1040
3.0
1070
    43
1040
14.0
1070
   271
1070
     0
1070
   178
1070
     4
1070
   177
1070
     4
1070
   176
1070
     4
1070
   141
1040
150.0
1070
     7
1000
_OPEN
1070
     6
1000
_OPEN
1070
    41
1040
7.0
1002
}
  0
DIMENSION
  5
A6CA
330
1A
100
AcDbEntity
  8
SUNPOU
 48
5.0
100
AcDbDimension
  2
*D2
 10
437.1838063213912
 20
68.85670062840919
 30
0.0
 11
390.365560690846
 21
73.85670062840919
 31
0.0
 70
    32
 71
     5
 42
93.63649126109033
  3
STANDARD
100
AcDbAlignedDimension
 13
343.5473150603008
 23
101.1606360789041
 33
0.0
 14
437.1838063213912
 24
101.1606360789041
 34
0.0
100
AcDbRotatedDimension
1001
ACAD
1000
DSTYLE
1002
{
1070
   140
1040
6.0
1070
    74
1070
     0
1070
   172
1070
     1
1070
    73
1070
     0
1070
   272
1070
     2
1070
    77
1070
     3
1070
   173
1070
     1
1070
   147
1040
2.0
1070
    42
1040
6.0
1070
    44
1040
3.0
1070
    43
1040
14.0
1070
   271
1070
     0
1070
   178
1070
     4
1070
   177
1070
     4
1070
   176
1070
     4
1070
   141
1040
150.0
1070
     7
1000
_OPEN
1070
     6
1000
_OPEN
1070
    41
1040
7.0
1002
}
  0
DIMENSION
  5
A6CB
330
1A
100
AcDbEntity
  8
SUNPOU
 48
5.0
100
AcDbDimension
  2
*D3
 10
449.1659180669523
 20
210.4224484472849
 30
0.0
 11
379.5568738609062
 21
215.4224484472849
 31
0.0
 70
    32
 71
     5
 42
139.2180884120921
  3
STANDARD
100
AcDbAlignedDimension
 13
309.9478296548601
 23
182.7168306792946
 33
0.0
 14
449.1659180669523
 24
180.576186078904
 34
0.0
100
AcDbRotatedDimension
1001
ACAD
1000
DSTYLE
1002
{
1070
   140
1040
6.0
1070
    74
1070
     0
1070
   172
1070
     1
1070
    73
1070
     0
1070
   272
1070
     2
1070
    77
1070
     3
1070
   173
1070
     1
1070
   147
1040
2.0
1070
    42
1040
6.0
1070
    44
1040
3.0
1070
    43
1040
14.0
1070
   271
1070
     0
1070
   178
1070
     4
1070
   177
1070
     4
1070
   176
1070
     4
1070
   141
1040
150.0
1070
     7
1000
_OPEN
1070
     6
1000
_OPEN
1070
    41
1040
7.0
1002
}
  0
ARC
  5
A6CC
330
1A
100
AcDbEntity
  8
SEIHIN
  6
Continuous
 62
     3
 48
5.0
100
AcDbCircle
 10
417.5823680669523
 20
292.7062360789039
 30
0.0
 40
3.000024608232327
100
AcDbArc
 50
101.4998302575643
 51
191.4998302575652
  0
ARC
  5
A6CD
330
1A
100
AcDbEntity
  8
SEIHIN
  6
Continuous
 62
     3
 48
5.0
100
AcDbCircle
 10
417.5823680669524
 20
292.7062360789039
 30
0.0
 40
0.4999420966472992
100
AcDbArc
 50
101.5032252068348
 51
191.503225206834
  0
ARC
  5
A6CE
330
1A
100
AcDbEntity
  8
SEIHIN
  6
Continuous
 62
     3
 48
5.0
100
AcDbCircle
 10
417.5823680669523
 20
292.7062360789039
 30
0.0
 40
5.500009128174316
100
AcDbArc
 50
101.4997293485407
 51
191.4997293485407
  0
LINE
  5
A6CF
330
1A
100
AcDbEntity
  8
SEIHIN
  6
Continuous
 62
     3
 48
5.0
100
AcDbLine
 10
190.2866180588266
 20
217.376836078904
 30
0.0
 11
190.2866180588266
 21
303.607036078904
 31
0.0
  0
LINE
  5
A6D0
330
1A
100
AcDbEntity
  8
SEIHIN
  6
Continuous
 62
     3
 48
5.0
100
AcDbLine
 10
200.2866180588266
 20
217.3768360632801
 30
0.0
 11
200.2866180588266
 21
303.606936078904
 31
0.0
  0
LINE
  5
A6D1
330
1A
100
AcDbEntity
  8
CENTER L
  6
CENTER
 62
     1
 48
5.0
100
AcDbLine
 10
195.2868180588266
 20
333.828836078904
 30
0.0
 11
195.2858622705855
 21
90.49172098419911
 31
0.0
  0
LINE
  5
A6D2
330
1A
100
AcDbEntity
  8
SEIHIN
  6
Continuous
 62
     3
 48
5.0
100
AcDbLine
 10
204.7863180588266
 20
327.445136078904
 30
0.0
 11
204.7861977571528
 21
101.1609360789041
 31
0.0
  0
LINE
  5
A6D3
330
1A
100
AcDbEntity
  8
SEIHIN
  6
Continuous
 62
     3
 48
5.0
100
AcDbLine
 10
185.7864180588265
 20
327.445136078904
 30
0.0
 11
185.7861774554792
 21
101.1609360789041
 31
0.0
  0
LINE
  5
A6D4
330
1A
100
AcDbEntity
  8
CENTER L
  6
CENTER
 62
     1
 48
5.0
100
AcDbLine
 10
390.2858680669522
 20
93.70943607890411
 30
0.0
 11
390.2859680669523
 21
115.2597360789041
 31
0.0
  0
LINE
  5
A6D5
330
1A
100
AcDbEntity
  8
SEIHIN
  6
Continuous
 62
     3
 48
5.0
100
AcDbLine
 10
345.2254680669523
 20
103.5910360789041
 30
0.0
 11
343.5688680669521
 21
115.378236078904
 31
0.0
  0
LINE
  5
A6D6
330
1A
100
AcDbEntity
  8
SEIHIN
  6
Continuous
 62
     3
 48
5.0
100
AcDbLine
 10
343.2448680669522
 20
103.312636078904
 30
0.0
 11
341.5882680669523
 21
115.0998360789041
 31
0.0
  0
DIMENSION
  5
A6D7
330
1A
100
AcDbEntity
  8
SUNPOU
 48
5.0
100
AcDbDimension
  2
*D4
 10
277.6383321322527
 20
182.7168306792946
 30
0.0
 11
272.6383321322526
 21
141.9387333790994
 31
0.0
 70
    32
 71
     5
 42
81.55619460039047
  3
STANDARD
100
AcDbAlignedDimension
 13
345.7205680669523
 23
101.1606360789041
 33
0.0
 14
309.9478296548601
 24
182.7168306792946
 34
0.0
 50
90.0
100
AcDbRotatedDimension
1001
ACAD
1000
DSTYLE
1002
{
1070
   140
1040
6.0
1070
    74
1070
     0
1070
   172
1070
     1
1070
    73
1070
     0
1070
   272
1070
     2
1070
    77
1070
     3
1070
   173
1070
     1
1070
   147
1040
2.0
1070
    42
1040
6.0
1070
    44
1040
3.0
1070
    43
1040
14.0
1070
   271
1070
     0
1070
   178
1070
     4
1070
   177
1070
     4
1070
   176
1070
     4
1070
   141
1040
150.0
1070
     7
1000
_OPEN
1070
     6
1000
_OPEN
1070
    41
1040
7.0
1002
}
  0
LINE
  5
A6D8
330
1A
100
AcDbEntity
  8
SEIHIN
  6
Continuous
 62
     3
 48
5.0
100
AcDbLine
 10
204.7860680669522
 20
101.160936078904
 30
0.0
 11
185.7860680669522
 21
101.160936078904
 31
0.0
  0
ARC
  5
A6D9
330
1A
100
AcDbEntity
  8
SEIHIN
  6
Continuous
 62
     3
 48
5.0
100
AcDbCircle
 10
195.2858180669522
 20
105.1114360791523
 30
0.0
 40
6.450139596516492
100
AcDbArc
 50
219.8150678455557
 51
320.1849321544443
  0
ARC
  5
A6DA
330
1A
100
AcDbEntity
  8
SEIHIN
  6
Continuous
 62
     3
 48
5.0
100
AcDbCircle
 10
189.9472826520463
 20
100.6612760771039
 30
0.0
 40
0.4999600090965544
100
AcDbArc
 50
39.80458705818546
 51
89.99021138980808
  0
ARC
  5
A6DB
330
1A
100
AcDbEntity
  8
SEIHIN
  6
Continuous
 62
     3
 48
5.0
100
AcDbCircle
 10
200.6244714617924
 20
100.6612376689092
 30
0.0
 40
0.4999984100064552
100
AcDbArc
 50
90.00038902126137
 51
140.1933507250955
  0
ARC
  5
A6DC
330
1A
100
AcDbEntity
  8
SEIHIN
  6
Continuous
 62
     3
 48
5.0
100
AcDbCircle
 10
345.7205456930468
 20
103.6606555277529
 30
0.0
 40
2.500019448948843
100
AcDbArc
 50
188.0019438082545
 51
270.0005127681537
  0
ARC
  5
A6DD
330
1A
100
AcDbEntity
  8
SEIHIN
  6
Continuous
 62
     3
 48
5.0
100
AcDbCircle
 10
345.7205294168479
 20
103.6606696766466
 30
0.0
 40
0.5000335992361858
100
AcDbArc
 50
188.0049027930201
 51
270.004428678126
  0
LINE
  5
A6DE
330
1A
100
AcDbEntity
  8
SEIHIN
  6
Continuous
 62
     3
 48
5.0
100
AcDbLine
 10
358.8778680669523
 20
99.19523607890403
 30
0.0
 11
373.2858680669522
 21
98.66063607890413
 31
0.0
  0
ARC
  5
A6DF
330
1A
100
AcDbEntity
  8
SEIHIN
  6
Continuous
 62
     3
 48
5.0
100
AcDbCircle
 10
359.2487462333039
 20
109.1884086067544
 30
0.0
 40
10.00005238914575
100
AcDbArc
 50
233.3957307836957
 51
267.8745483210598
  0
DIMENSION
  5
A6E0
330
1A
100
AcDbEntity
  8
SUNPOU
 48
5.0
100
AcDbDimension
  2
*D5
 10
277.6383321322527
 20
182.7168306792946
 30
0.0
 11
272.6383321322526
 21
200.0048333790994
 31
0.0
 70
    32
 71
     5
 42
34.57600539960947
  3
STANDARD
100
AcDbAlignedDimension
 13
304.4825680669522
 23
217.2928360789041
 33
0.0
 14
309.9478296548601
 24
182.7168306792946
 34
0.0
 50
90.0
100
AcDbRotatedDimension
1001
ACAD
1000
DSTYLE
1002
{
1070
   140
1040
6.0
1070
    74
1070
     0
1070
   172
1070
     1
1070
    73
1070
     0
1070
   272
1070
     2
1070
    77
1070
     3
1070
   173
1070
     1
1070
   147
1040
2.0
1070
    42
1040
6.0
1070
    44
1040
3.0
1070
    43
1040
14.0
1070
   271
1070
     0
1070
   178
1070
     4
1070
   177
1070
     4
1070
   176
1070
     4
1070
   141
1040
150.0
1070
     7
1000
_OPEN
1070
     6
1000
_OPEN
1070
    41
1040
7.0
1002
}
  0
LINE
  5
A6E1
330
1A
100
AcDbEntity
  8
SEIHIN
  6
Continuous
 62
     3
 48
5.0
100
AcDbLine
 10
202.2862680669522
 20
215.4948360789041
 30
0.0
 11
202.2861680669523
 21
182.7173360789041
 31
0.0
  0
LINE
  5
A6E2
330
1A
100
AcDbEntity
  8
SEIHIN
  6
Continuous
 62
     3
 48
5.0
100
AcDbLine
 10
188.2862680669523
 20
215.378236078904
 30
0.0
 11
188.2861680669523
 21
182.7174360789041
 31
0.0
  0
LINE
  5
A6E3
330
1A
100
AcDbEntity
  8
SEIHIN
  6
Continuous
 62
     3
 48
5.0
100
AcDbLine
 10
204.7861680669523
 20
115.3481360789041
 30
0.0
 11
185.7861680669523
 21
115.3482360789041
 31
0.0
  0
LINE
  5
A6E4
330
1A
100
AcDbEntity
  8
SEIHIN
  6
Continuous
 62
     3
 48
5.0
100
AcDbLine
 10
204.7860680669522
 20
164.2030360789041
 30
0.0
 11
185.7860680669522
 21
164.2031360789041
 31
0.0
  0
LINE
  5
A6E5
330
1A
100
AcDbEntity
  8
SEIHIN
  6
Continuous
 62
     3
 48
5.0
100
AcDbLine
 10
195.2861680669523
 20
167.8220360789041
 30
0.0
 11
187.7860680669523
 21
167.8220360789041
 31
0.0
  0
ARC
  5
A6E6
330
1A
100
AcDbEntity
  8
SEIHIN
  6
Continuous
 62
     3
 48
5.0
100
AcDbCircle
 10
188.7862060348051
 20
179.7593810044187
 30
0.0
 40
3.000037968189193
100
AcDbArc
 50
99.59661800284874
 51
180.0008580032674
  0
ARC
  5
A6E7
330
1A
100
AcDbEntity
  8
SEIHIN
  6
Continuous
 62
     3
 48
5.0
100
AcDbCircle
 10
187.7860680669523
 20
169.8220360789042
 30
0.0
 40
2.000000000000043
100
AcDbArc
 50
180.0000000000016
 51
270.0000000000017
  0
ARC
  5
A6E8
330
1A
100
AcDbEntity
  8
SEIHIN
  6
Continuous
 62
     3
 48
5.0
100
AcDbCircle
 10
202.7860680669522
 20
169.8220360789041
 30
0.0
 40
2.0
100
AcDbArc
 50
270.0
 51
0.0
  0
ARC
  5
A6E9
330
1A
100
AcDbEntity
  8
SEIHIN
  6
Continuous
 62
     3
 48
5.0
100
AcDbCircle
 10
195.2862680669522
 20
175.1510360789041
 30
0.0
 40
1.5
100
AcDbArc
 50
180.0
 51
0.0
  0
ARC
  5
A6EA
330
1A
100
AcDbEntity
  8
SEIHIN
  6
Continuous
 62
     3
 48
5.0
100
AcDbCircle
 10
195.2862680669523
 20
175.1510360789041
 30
0.0
 40
1.600000000000037
100
AcDbArc
 50
180.0
 51
0.0
  0
ARC
  5
A6EB
330
1A
100
AcDbEntity
  8
SEIHIN
  6
Continuous
 62
     3
 48
5.0
100
AcDbCircle
 10
195.2862680669522
 20
175.1510360789041
 30
0.0
 40
1.5
100
AcDbArc
 50
0.0
 51
180.0
  0
ARC
  5
A6EC
330
1A
100
AcDbEntity
  8
SEIHIN
  6
Continuous
 62
     3
 48
5.0
100
AcDbCircle
 10
195.2862680669523
 20
175.1510360789041
 30
0.0
 40
1.600000000000037
100
AcDbArc
 50
0.0
 51
180.0
  0
LINE
  5
A6ED
330
1A
100
AcDbEntity
  8
CENTER L
  6
CENTER
 62
     1
 48
5.0
100
AcDbLine
 10
192.7084680669522
 20
175.1510360789041
 30
0.0
 11
198.1416680669522
 21
175.1510360789041
 31
0.0
  0
LINE
  5
A6EE
330
1A
100
AcDbEntity
  8
SEIHIN
  6
Continuous
 62
     3
 48
5.0
100
AcDbLine
 10
195.2859680669523
 20
167.8221360789041
 30
0.0
 11
202.7860680669522
 21
167.8220360789041
 31
0.0
  0
ARC
  5
A6EF
330
1A
100
AcDbEntity
  8
SEIHIN
  6
Continuous
 62
     3
 48
5.0
100
AcDbCircle
 10
201.7860877338055
 20
179.7593128079306
 30
0.0
 40
2.999980334127983
100
AcDbArc
 50
359.9985345739321
 51
80.4062492259763
  0
ARC
  5
A6F0
330
1A
100
AcDbEntity
  8
SEIHIN
  6
Continuous
 62
     3
 48
5.0
100
AcDbCircle
 10
190.2863680669522
 20
215.293336078904
 30
0.0
 40
2.0
100
AcDbArc
 50
90.0
 51
180.0
  0
ARC
  5
A6F1
330
1A
100
AcDbEntity
  8
SEIHIN
  6
Continuous
 62
     3
 48
5.0
100
AcDbCircle
 10
190.2863680669522
 20
215.376836078904
 30
0.0
 40
2.0
100
AcDbArc
 50
90.0
 51
180.0
  0
LINE
  5
A6F2
330
1A
100
AcDbEntity
  8
SEIHIN
  6
Continuous
 62
     3
 48
5.0
100
AcDbLine
 10
200.2863680669523
 20
217.293336078904
 30
0.0
 11
195.2863680669522
 21
217.293336078904
 31
0.0
  0
LINE
  5
A6F3
330
1A
100
AcDbEntity
  8
SEIHIN
  6
Continuous
 62
     3
 48
5.0
100
AcDbLine
 10
200.2863680669523
 20
217.376836078904
 30
0.0
 11
195.2863680669522
 21
217.376836078904
 31
0.0
  0
LINE
  5
A6F4
330
1A
100
AcDbEntity
  8
SEIHIN
  6
Continuous
 62
     3
 48
5.0
100
AcDbLine
 10
190.2863680669522
 20
217.293336078904
 30
0.0
 11
195.2863680669522
 21
217.293336078904
 31
0.0
  0
LINE
  5
A6F5
330
1A
100
AcDbEntity
  8
SEIHIN
  6
Continuous
 62
     3
 48
5.0
100
AcDbLine
 10
190.2863680669522
 20
217.376836078904
 30
0.0
 11
195.2863680669522
 21
217.376836078904
 31
0.0
  0
ARC
  5
A6F6
330
1A
100
AcDbEntity
  8
SEIHIN
  6
Continuous
 62
     3
 48
5.0
100
AcDbCircle
 10
200.2863680669523
 20
215.293336078904
 30
0.0
 40
2.0
100
AcDbArc
 50
0.0
 51
90.0
  0
ARC
  5
A6F7
330
1A
100
AcDbEntity
  8
SEIHIN
  6
Continuous
 62
     3
 48
5.0
100
AcDbCircle
 10
200.2863680669523
 20
215.376836078904
 30
0.0
 40
2.0
100
AcDbArc
 50
0.0
 51
90.0
  0
LINE
  5
A6F8
330
1A
100
AcDbEntity
  8
SEIHIN
  6
Continuous
 62
     3
 48
5.0
100
AcDbLine
 10
305.0767680669522
 20
217.3763360789041
 30
0.0
 11
312.2532680669522
 21
166.3127360789041
 31
0.0
  0
LINE
  5
A6F9
330
1A
100
AcDbEntity
  8
SEIHIN
  6
Continuous
 62
     3
 48
5.0
100
AcDbLine
 10
311.4411680669523
 20
167.779436078904
 30
0.0
 11
304.4825680669522
 21
217.2928360789041
 31
0.0
  0
LINE
  5
A6FA
330
1A
100
AcDbEntity
  8
SEIHIN
  6
Continuous
 62
     3
 48
5.0
100
AcDbLine
 10
333.5051680669522
 20
130.0618360789041
 30
0.0
 11
329.6416680669523
 21
157.552336078904
 31
0.0
  0
LINE
  5
A6FB
330
1A
100
AcDbEntity
  8
SEIHIN
  6
Continuous
 62
     3
 48
5.0
100
AcDbLine
 10
331.5246680669523
 20
129.7835360789041
 30
0.0
 11
327.6611680669523
 21
157.2740360789041
 31
0.0
  0
DIMENSION
  5
A6FC
330
1A
100
AcDbEntity
  8
SUNPOU
  6
Continuous
100
AcDbDimension
  2
*D6
 10
329.7784802522186
 20
142.2084296005646
 30
0.0
 11
304.8210491428473
 21
143.7500626376343
 31
0.0
 70
    33
  1
t<>
 71
     5
 42
1.999957784192986
  3
STANDARD
100
AcDbAlignedDimension
 13
331.5734127749413
 23
143.8071237338873
 33
0.0
 14
329.5929180669523
 24
143.5287860789041
 34
0.0
1001
ACAD
1000
DSTYLE
1002
{
1070
   140
1040
6.0
1070
    74
1070
     0
1070
   172
1070
     1
1070
    73
1070
     0
1070
   272
1070
     2
1070
    77
1070
     3
1070
   173
1070
     1
1070
   147
1040
2.0
1070
    42
1040
6.0
1070
    44
1040
3.0
1070
    43
1040
14.0
1070
   271
1070
     1
1070
   178
1070
     4
1070
   177
1070
     4
1070
   176
1070
     4
1070
   141
1040
150.0
1070
     7
1000
_OPEN
1070
     6
1000
_OPEN
1070
    41
1040
7.0
1002
}
  0
ARC
  5
A6FD
330
1A
100
AcDbEntity
  8
SEIHIN
  6
Continuous
 62
     3
 48
5.0
100
AcDbCircle
 10
350.8348662404212
 20
132.4973387439558
 30
0.0
 40
17.50000320042851
100
AcDbArc
 50
187.9999105761421
 51
240.850799353266
  0
ARC
  5
A6FE
330
1A
100
AcDbEntity
  8
SEIHIN
  6
Continuous
 62
     3
 48
5.0
100
AcDbCircle
 10
350.8348972665436
 20
132.4972934742627
 30
0.0
 40
19.49998540875379
100
AcDbArc
 50
187.9996556873025
 51
240.8505683903637
  0
ARC
  5
A6FF
330
1A
100
AcDbEntity
  8
SEIHIN
  6
Continuous
 62
     3
 48
5.0
100
AcDbCircle
 10
341.0932357386376
 20
115.0302373380196
 30
0.0
 40
2.499971709570577
100
AcDbArc
 50
8.001618351164487
 51
60.85257576214104
  0
ARC
  5
A700
330
1A
100
AcDbEntity
  8
SEIHIN
  6
Continuous
 62
     3
 48
5.0
100
AcDbCircle
 10
341.0931950255023
 20
115.0302967375017
 30
0.0
 40
0.4999330318885664
100
AcDbArc
 50
7.995615017235706
 51
60.85566769736134
  0
LINE
  5
A701
330
1A
100
AcDbEntity
  8
SEIHIN
  6
Continuous
 62
     3
 48
5.0
100
AcDbLine
 10
314.7288680669523
 20
166.1606360789041
 30
0.0
 11
319.7389680669522
 21
166.1606360789041
 31
0.0
  0
LINE
  5
A702
330
1A
100
AcDbEntity
  8
SEIHIN
  6
Continuous
 62
     3
 48
5.0
100
AcDbLine
 10
314.7288680669523
 20
164.1606360789041
 30
0.0
 11
319.7389680669522
 21
164.1606360789041
 31
0.0
  0
LINE
  5
A703
330
1A
100
AcDbEntity
  8
SEIHIN
  6
Continuous
 62
     3
 48
5.0
100
AcDbLine
 10
314.2337680669522
 20
166.5910360789041
 30
0.0
 11
311.9283680669523
 21
182.995236078904
 31
0.0
  0
ARC
  5
A704
330
1A
100
AcDbEntity
  8
SEIHIN
  6
Continuous
 62
     3
 48
5.0
100
AcDbCircle
 10
314.7289106572825
 20
166.6605990553559
 30
0.0
 40
2.499962976814581
100
AcDbArc
 50
187.998504368071
 51
269.9990238870769
  0
LINE
  5
A705
330
1A
100
AcDbEntity
  8
SEIHIN
  6
Continuous
 62
     3
 48
5.0
100
AcDbLine
 10
310.2100680669523
 20
173.6654360789041
 30
0.0
 11
309.7925680669523
 21
176.6361360789041
 31
0.0
  0
LINE
  5
A706
330
1A
100
AcDbEntity
  8
SEIHIN
  6
Continuous
 62
     3
 48
5.0
100
AcDbLine
 10
310.2100680669523
 20
173.6654360789041
 30
0.0
 11
310.6061680669522
 21
173.7210360789041
 31
0.0
  0
LINE
  5
A707
330
1A
100
AcDbEntity
  8
SEIHIN
  6
Continuous
 62
     3
 48
5.0
100
AcDbLine
 10
309.7925680669523
 20
176.6361360789041
 30
0.0
 11
310.1886680669522
 21
176.6918360789041
 31
0.0
  0
ARC
  5
A708
330
1A
100
AcDbEntity
  8
SEIHIN
  6
Continuous
 62
     3
 48
5.0
100
AcDbCircle
 10
314.7288863763159
 20
166.6606201633976
 30
0.0
 40
0.4999840848287186
100
AcDbArc
 50
187.9999709512904
 51
269.9979018346945
  0
LINE
  5
A709
330
1A
100
AcDbEntity
  8
SEIHIN
  6
Continuous
 62
     3
 48
5.0
100
AcDbLine
 10
312.0354680669523
 20
167.8629360789041
 30
0.0
 11
311.4411680669523
 21
167.779436078904
 31
0.0
  0
LINE
  5
A70A
330
1A
100
AcDbEntity
  8
SEIHIN
  6
Continuous
 62
     3
 48
5.0
100
AcDbLine
 10
311.9283680669523
 20
182.995236078904
 30
0.0
 11
309.9478680669523
 21
182.716836078904
 31
0.0
  0
ARC
  5
A70B
330
1A
100
AcDbEntity
  8
SEIHIN
  6
Continuous
 62
     3
 48
5.0
100
AcDbCircle
 10
319.7390008667449
 20
156.1606075665057
 30
0.0
 40
8.000028512465701
100
AcDbArc
 50
8.000287387999338
 51
90.00023491037456
  0
ARC
  5
A70C
330
1A
100
AcDbEntity
  8
SEIHIN
  6
Continuous
 62
     3
 48
5.0
100
AcDbCircle
 10
319.73897658482
 20
156.1606286744095
 30
0.0
 40
10.00000740449827
100
AcDbArc
 50
7.999857461286633
 51
90.0000488037517
  0
LINE
  5
A70D
330
1A
100
AcDbEntity
  8
SEIHIN
  6
Continuous
 62
     3
 48
5.0
100
AcDbLine
 10
304.4822680669523
 20
217.2928360789041
 30
0.0
 11
305.0765680669523
 21
217.3763360789041
 31
0.0
  0
ARC
  5
A70E
330
1A
100
AcDbEntity
  8
SEIHIN
  6
PHANTOM
 62
     6
 48
5.0
100
AcDbCircle
 10
417.5791680669526
 20
239.116236078904
 30
0.0
 40
0.4999420966472992
100
AcDbArc
 50
101.5032252068348
 51
191.503225206834
  0
ARC
  5
A70F
330
1A
100
AcDbEntity
  8
SEIHIN
  6
PHANTOM
 62
     6
 48
5.0
100
AcDbCircle
 10
417.5791680669524
 20
239.116236078904
 30
0.0
 40
3.000024608232327
100
AcDbArc
 50
101.4998302575643
 51
191.4998302575652
  0
ARC
  5
A710
330
1A
100
AcDbEntity
  8
SEIHIN
  6
PHANTOM
 62
     6
 48
5.0
100
AcDbCircle
 10
417.5791680669525
 20
239.116236078904
 30
0.0
 40
5.500009128174316
100
AcDbArc
 50
101.4997293485407
 51
191.4997293485407
  0
ELLIPSE
  5
A711
330
1A
100
AcDbEntity
  8
SEIHIN
 48
5.0
100
AcDbEllipse
 10
195.2867851538296
 20
325.4514500799597
 30
0.0
 11
-2.100000000016223
 21
0.0
 31
0.0
210
0.0
220
0.0
230
1.0
 40
0.1993571257885894
 41
0.0
 42
6.283185307179586
  0
ELLIPSE
  5
A712
330
1A
100
AcDbEntity
  8
SEIHIN
 48
5.0
100
AcDbEllipse
 10
195.2867068480152
 20
305.5153280729938
 30
0.0
 11
-2.100000000016223
 21
0.0
 31
0.0
210
0.0
220
0.0
230
1.0
 40
0.1993571257885894
 41
0.0
 42
6.283185307179586
  0
ARC
  5
A713
330
1A
100
AcDbEntity
  8
SEIHIN
  6
Continuous
 62
     3
 48
5.0
100
AcDbCircle
 10
413.5444535673727
 20
479.1854460817881
 30
0.0
 40
0.5000145002554499
100
AcDbArc
 50
301.7095702063584
 51
0.0029793748859423
  0
LINE
  5
A714
330
1A
100
AcDbEntity
  8
CENTER L
  6
CENTER
 62
     1
 48
5.0
100
AcDbLine
 10
390.2860680669522
 20
461.7374720824927
 30
0.0
 11
390.2860680669522
 21
485.8315720824926
 31
0.0
  0
LINE
  5
A715
330
1A
100
AcDbEntity
  8
SEIHIN
  6
Continuous
 62
     3
 48
5.0
100
AcDbLine
 10
328.4319680669523
 20
464.3987720824928
 30
0.0
 11
328.4319680669523
 21
483.3987720824928
 31
0.0
  0
LINE
  5
A716
330
1A
100
AcDbEntity
  8
SEIHIN
  6
Continuous
 62
     3
 48
5.0
100
AcDbLine
 10
345.2860680669522
 20
464.3987720824928
 30
0.0
 11
345.2860680669522
 21
483.3987720824928
 31
0.0
  0
LINE
  5
A717
330
1A
100
AcDbEntity
  8
SEIHIN
  6
Continuous
 62
     3
 48
5.0
100
AcDbLine
 10
343.3887680669523
 20
464.3987720824928
 30
0.0
 11
343.3887680669523
 21
483.3987720824928
 31
0.0
  0
LINE
  5
A718
330
1A
100
AcDbEntity
  8
SEIHIN
  6
Continuous
 62
     3
 48
5.0
100
AcDbLine
 10
305.0768680669523
 20
466.8987720824928
 30
0.0
 11
305.0768680669523
 21
480.8987720824925
 31
0.0
  0
LINE
  5
A719
330
1A
100
AcDbEntity
  8
SEIHIN
  6
Continuous
 62
     3
 48
5.0
100
AcDbLine
 10
304.4826680669523
 20
466.8987720824928
 30
0.0
 11
304.4826680669523
 21
480.8987720824925
 31
0.0
  0
LINE
  5
A71A
330
1A
100
AcDbEntity
  8
SEIHIN
  6
Continuous
 62
     3
 48
5.0
100
AcDbLine
 10
311.9284680669522
 20
464.3987720824928
 30
0.0
 11
311.9284680669522
 21
483.3987720824928
 31
0.0
  0
LINE
  5
A71B
330
1A
100
AcDbEntity
  8
SEIHIN
  6
Continuous
 62
     3
 48
5.0
100
AcDbLine
 10
309.9478680669523
 20
464.3987720824928
 30
0.0
 11
309.9478680669523
 21
483.3987720824928
 31
0.0
  0
LINE
  5
A71C
330
1A
100
AcDbEntity
  8
SEIHIN
  6
Continuous
 62
     3
 48
5.0
100
AcDbLine
 10
314.2943680669523
 20
464.3987720824928
 30
0.0
 11
314.2943680669523
 21
483.3987720824928
 31
0.0
  0
DIMENSION
  5
A71D
330
1A
100
AcDbEntity
  8
SUNPOU
100
AcDbDimension
  2
*D7
 10
204.7863180588266
 20
366.8624646759488
 30
0.0
 11
195.2863680588265
 21
371.8624646759488
 31
0.0
 70
    32
 71
     5
 42
18.99990000000008
  3
STANDARD
100
AcDbAlignedDimension
 13
185.7864180588265
 23
327.445136078904
 33
0.0
 14
204.7863180588266
 24
327.445136078904
 34
0.0
100
AcDbRotatedDimension
1001
ACAD
1000
DSTYLE
1002
{
1070
    41
1040
7.0
1070
    42
1040
6.0
1070
    43
1040
14.0
1070
    44
1040
3.0
1070
    73
1070
     0
1070
    74
1070
     0
1070
    77
1070
     3
1070
   140
1040
6.0
1070
   141
1040
150.0
1070
   147
1040
2.0
1070
   172
1070
     1
1070
   173
1070
     1
1070
   176
1070
     4
1070
   177
1070
     4
1070
   178
1070
     4
1070
   271
1070
     0
1070
   272
1070
     2
1070
   341
1005
6D
1070
     6
1000
OPEN
1070
     7
1000
OPEN
1002
}
  0
LINE
  5
A71E
330
1A
100
AcDbEntity
  8
SEIHIN
  6
Continuous
 62
     3
 48
5.0
100
AcDbLine
 10
204.7864180588265
 20
327.445136078904
 30
0.0
 11
185.7865180588265
 21
327.445136078904
 31
0.0
  0
LINE
  5
A71F
330
1A
100
AcDbEntity
  8
SEIHIN
  6
Continuous
 62
     3
 48
5.0
100
AcDbLine
 10
190.2868180588266
 20
295.0472360789041
 30
0.0
 11
185.7865180588265
 21
295.0472360789041
 31
0.0
  0
LINE
  5
A720
330
1A
100
AcDbEntity
  8
SEIHIN
 48
5.0
100
AcDbLine
 10
200.2867538299303
 20
317.4765908330655
 30
0.0
 11
200.2867185916898
 21
308.5051770747544
 31
0.0
  0
LINE
  5
A721
330
1A
100
AcDbEntity
  8
SEIHIN
 48
5.0
100
AcDbLine
 10
190.2867538298532
 20
317.4765908330656
 30
0.0
 11
190.2867185916126
 21
308.5051770747544
 31
0.0
  0
ARC
  5
A722
330
1A
100
AcDbEntity
  8
SEIHIN
 48
5.0
100
AcDbCircle
 10
195.2867538298917
 20
303.982599474982
 30
0.0
 40
13.03798184976095
100
AcDbArc
 50
67.44966428728785
 51
112.5503357127122
  0
LINE
  5
A723
330
1A
100
AcDbEntity
  8
SEIHIN
  6
Continuous
 62
     3
 48
5.0
100
AcDbLine
 10
204.7865180588265
 20
295.0472360789041
 30
0.0
 11
200.2868180588266
 21
295.0472360789041
 31
0.0
  0
ARC
  5
A724
330
1A
100
AcDbEntity
  8
SEIHIN
  6
Continuous
 62
     3
 48
5.0
100
AcDbCircle
 10
195.2865180588265
 20
296.023836078904
 30
0.0
 40
9.083193580454013
100
AcDbArc
 50
56.60017472244647
 51
123.3998252775535
  0
LINE
  5
A725
330
1A
100
AcDbEntity
  8
SEIHIN
  6
Continuous
 62
     3
 48
5.0
100
AcDbLine
 10
200.2868180588266
 20
296.9985360789041
 30
0.0
 11
190.2868180588266
 21
296.9985360789041
 31
0.0
  0
ARC
  5
A726
330
1A
100
AcDbEntity
  8
SEIHIN
 48
5.0
100
AcDbCircle
 10
195.2867185916513
 20
320.5549972650206
 30
0.0
 40
13.04600193998656
100
AcDbArc
 50
247.4642895594811
 51
292.5357104405189
  0
ARC
  5
A727
330
1A
100
AcDbEntity
  8
SEIHIN
 48
5.0
100
AcDbCircle
 10
195.2867538298917
 20
305.4354542291436
 30
0.0
 40
13.03798184976095
100
AcDbArc
 50
67.44966428728785
 51
112.5503357127122
  0
LINE
  5
A728
330
1A
100
AcDbEntity
  8
SEIHIN
  6
Continuous
 62
     3
 48
5.0
100
AcDbLine
 10
309.9478680669523
 20
466.8987720824928
 30
0.0
 11
304.4826680669523
 21
466.8987720824928
 31
0.0
  0
LINE
  5
A729
330
1A
100
AcDbEntity
  8
SEIHIN
  6
Continuous
 62
     3
 48
5.0
100
AcDbLine
 10
412.7297680669523
 20
477.8987720824928
 30
0.0
 11
357.4105680669521
 21
477.8987720824928
 31
0.0
  0
LINE
  5
A72A
330
1A
100
AcDbEntity
  8
SEIHIN
  6
Continuous
 62
     3
 48
5.0
100
AcDbLine
 10
412.7299680669523
 20
469.8987720824925
 30
0.0
 11
357.2860680669522
 21
469.8987720824925
 31
0.0
  0
ARC
  5
A72B
330
1A
100
AcDbEntity
  8
SEIHIN
  6
Continuous
 62
     3
 48
5.0
100
AcDbCircle
 10
357.4105680669521
 20
473.8987720824925
 30
0.0
 40
4.000000000000057
100
AcDbArc
 50
90.0
 51
270.0
  0
ARC
  5
A72C
330
1A
100
AcDbEntity
  8
SEIHIN
  6
Continuous
 62
     3
 48
5.0
100
AcDbCircle
 10
377.2860680669523
 20
473.8987720824925
 30
0.0
 40
4.000000000000057
100
AcDbArc
 50
90.0
 51
270.0
  0
LINE
  5
A72D
330
1A
100
AcDbEntity
  8
SEIHIN
  6
Continuous
 62
     3
 48
5.0
100
AcDbLine
 10
414.0444680669522
 20
468.6120720824927
 30
0.0
 11
414.0444680669522
 21
464.3986720824926
 31
0.0
  0
ARC
  5
A72E
330
1A
100
AcDbEntity
  8
SEIHIN
  6
Continuous
 62
     3
 48
5.0
100
AcDbCircle
 10
413.5444535673726
 20
468.6121980831974
 30
0.0
 40
0.5000145002556519
100
AcDbArc
 50
359.9970206251011
 51
58.29042979362985
  0
ARC
  5
A72F
330
1A
100
AcDbEntity
  8
SEIHIN
  6
Continuous
 62
     3
 48
5.0
100
AcDbCircle
 10
416.8102680671822
 20
473.8988220824926
 30
0.0
 40
5.713996899183681
100
AcDbArc
 50
121.7053816150163
 51
238.2946183849837
  0
LINE
  5
A730
330
1A
100
AcDbEntity
  8
SEIHIN
  6
Continuous
 62
     3
 48
5.0
100
AcDbLine
 10
304.4826680669523
 20
480.8987720824925
 30
0.0
 11
309.9478680669523
 21
480.8987720824925
 31
0.0
  0
LINE
  5
A731
330
1A
100
AcDbEntity
  8
SEIHIN
  6
Continuous
 62
     3
 48
5.0
100
AcDbLine
 10
414.0444680669522
 20
479.1854720824927
 30
0.0
 11
414.0444680669522
 21
483.3986720824928
 31
0.0
  0
TEXT
  5
A732
330
1A
100
AcDbEntity
  8
SUNPOU
100
AcDbText
 10
615.6945057039765
 20
280.6209842061732
 30
0.0
 40
6.0
  1
スライド巾
 50
90.0
100
AcDbText
  0
DIMENSION
  5
A733
330
1A
100
AcDbEntity
  8
SUNPOU
 48
5.0
100
AcDbDimension
  2
*D8
 10
607.3305445930981
 20
273.855136078904
 30
0.0
 11
602.330544593098
 21
300.650136078904
 31
0.0
 70
    32
 71
     5
 42
53.58999999999998
  3
STANDARD
100
AcDbAlignedDimension
 13
573.2823680669521
 23
327.445136078904
 33
0.0
 14
573.2791680669524
 24
273.855136078904
 34
0.0
 50
90.0
100
AcDbRotatedDimension
1001
ACAD
1000
DSTYLE
1002
{
1070
   140
1040
6.0
1070
    74
1070
     0
1070
   172
1070
     1
1070
    73
1070
     0
1070
   272
1070
     2
1070
    77
1070
     3
1070
   173
1070
     1
1070
   147
1040
2.0
1070
    42
1040
6.0
1070
    44
1040
3.0
1070
    43
1040
14.0
1070
   271
1070
     0
1070
   178
1070
     4
1070
   177
1070
     4
1070
   176
1070
     4
1070
   141
1040
150.0
1070
     7
1000
_OPEN
1070
     6
1000
_OPEN
1070
    41
1040
7.0
1002
}
  0
LINE
  5
A734
330
1A
100
AcDbEntity
  8
SEIHIN
  6
Continuous
 62
     3
 48
5.0
100
AcDbLine
 10
441.8017680669523
 20
131.954536078904
 30
0.0
 11
440.3300680669523
 21
103.8727360789041
 31
0.0
  0
LINE
  5
A735
330
1A
100
AcDbEntity
  8
SEIHIN
  6
Continuous
 62
     3
 48
5.0
100
AcDbLine
 10
435.3107680669522
 20
103.634436078904
 30
0.0
 11
436.9081680669523
 21
134.1139360789041
 31
0.0
  0
LINE
  5
A736
330
1A
100
AcDbEntity
  8
SEIHIN
  6
Continuous
 62
     3
 48
5.0
100
AcDbLine
 10
437.3079680669521
 20
103.5297360789041
 30
0.0
 11
438.9053680669521
 21
134.009336078904
 31
0.0
  0
DIMENSION
  5
A737
330
1A
100
AcDbEntity
  8
SUNPOU
 48
5.0
100
AcDbDimension
  2
*D9
 10
489.4689901183082
 20
101.1606360789041
 30
0.0
 11
484.4689901183082
 21
117.1606360789042
 31
0.0
 70
    32
 71
     5
 42
65.68839999999999
  3
STANDARD
100
AcDbAlignedDimension
 13
446.6627680669521
 23
166.8490360789041
 33
0.0
 14
434.8114680669523
 24
101.1606360789041
 34
0.0
 50
90.0
100
AcDbRotatedDimension
1001
ACAD
1000
DSTYLE
1002
{
1070
   140
1040
6.0
1070
    74
1070
     0
1070
   172
1070
     1
1070
    73
1070
     0
1070
   272
1070
     2
1070
    77
1070
     3
1070
   173
1070
     1
1070
   280
1070
     2
1070
   147
1040
2.0
1070
    42
1040
6.0
1070
    44
1040
3.0
1070
    43
1040
14.0
1070
   271
1070
     0
1070
   178
1070
     4
1070
   177
1070
     4
1070
   176
1070
     4
1070
   141
1040
150.0
1070
     7
1000
_OPEN
1070
     6
1000
_OPEN
1070
    41
1040
7.0
1002
}
  0
LINE
  5
A738
330
1A
100
AcDbEntity
  8
SEIHIN
  6
PHANTOM
 62
     6
 48
5.0
100
AcDbLine
 10
449.1627680669525
 20
85.75903607890405
 30
0.0
 11
449.1626680669525
 21
168.213336078904
 31
0.0
  0
LINE
  5
A739
330
1A
100
AcDbEntity
  8
SEIHIN
  6
PHANTOM
 62
     6
 48
5.0
100
AcDbLine
 10
451.6627680669523
 20
85.75903607890405
 30
0.0
 11
451.6627680669523
 21
168.213436078904
 31
0.0
  0
LINE
  5
A73A
330
1A
100
AcDbEntity
  8
SEIHIN
  6
PHANTOM
 62
     6
 48
5.0
100
AcDbLine
 10
449.1627680669525
 20
85.75903607890405
 30
0.0
 11
451.6627680669523
 21
85.75903607890405
 31
0.0
  0
ARC
  5
A73B
330
1A
100
AcDbEntity
  8
SEIHIN
  6
Continuous
 62
     3
 48
5.0
100
AcDbCircle
 10
434.8114611799574
 20
103.6606295438186
 30
0.0
 40
0.4999934649618991
100
AcDbArc
 50
270.0007892017967
 51
356.9970361317527
  0
ARC
  5
A73C
330
1A
100
AcDbEntity
  8
SEIHIN
  6
Continuous
 62
     3
 48
5.0
100
AcDbCircle
 10
434.8114308733595
 20
103.6606007844057
 30
0.0
 40
2.499964705778288
100
AcDbArc
 50
270.0008524263906
 51
356.9993881034192
  0
ARC
  5
A73D
330
1A
100
AcDbEntity
  8
SEIHIN
  6
Continuous
 62
     3
 48
5.0
100
AcDbCircle
 10
434.8375892700826
 20
104.1606561997397
 30
0.0
 40
5.500020120876442
100
AcDbArc
 50
269.9997791190108
 51
356.9992561333006
  0
LINE
  5
A73E
330
1A
100
AcDbEntity
  8
SEIHIN
  6
Continuous
 62
     3
 48
5.0
100
AcDbLine
 10
451.6659680669521
 20
139.3490360789041
 30
0.0
 11
451.6659680669521
 21
221.8034360789039
 31
0.0
  0
LINE
  5
A73F
330
1A
100
AcDbEntity
  8
SEIHIN
  6
Continuous
 62
     3
 48
5.0
100
AcDbLine
 10
449.1659680669523
 20
139.3490360789041
 30
0.0
 11
449.1658680669523
 21
221.8033360789041
 31
0.0
  0
ARC
  5
A740
330
1A
100
AcDbEntity
  8
SEIHIN
  6
Continuous
 62
     3
 48
5.0
100
AcDbCircle
 10
466.5654036328012
 20
134.4397156406229
 30
0.0
 40
20.00001696447667
100
AcDbArc
 50
98.76555164749229
 51
116.4317460515138
  0
LINE
  5
A741
330
1A
100
AcDbEntity
  8
SEIHIN
  6
Continuous
 62
     3
 48
5.0
100
AcDbLine
 10
453.1627680669523
 20
142.8490360789041
 30
0.0
 11
453.1627680669523
 21
154.8490360789041
 31
0.0
  0
LINE
  5
A742
330
1A
100
AcDbEntity
  8
SEIHIN
  6
Continuous
 62
     3
 48
5.0
100
AcDbLine
 10
451.6627680669523
 20
142.8490360789041
 30
0.0
 11
451.6627680669523
 21
154.8490360789041
 31
0.0
  0
LINE
  5
A743
330
1A
100
AcDbEntity
  8
SEIHIN
  6
Continuous
 62
     3
 48
5.0
100
AcDbLine
 10
446.5627680669522
 20
143.0990360789041
 30
0.0
 11
446.5627680669522
 21
154.5990360789041
 31
0.0
  0
ARC
  5
A744
330
1A
100
AcDbEntity
  8
SEIHIN
  6
Continuous
 62
     3
 48
5.0
100
AcDbCircle
 10
452.2510680669522
 20
148.8490360789041
 30
0.0
 40
8.088217163874885
100
AcDbArc
 50
134.6909404973463
 51
225.3090595026537
  0
LINE
  5
A745
330
1A
100
AcDbEntity
  8
SEIHIN
  6
Continuous
 62
     3
 48
5.0
100
AcDbLine
 10
447.1627680669521
 20
141.6377360789041
 30
0.0
 11
447.1627680669521
 21
164.3490360789041
 31
0.0
  0
LINE
  5
A746
330
1A
100
AcDbEntity
  8
SEIHIN
  6
Continuous
 62
     3
 48
5.0
100
AcDbLine
 10
449.1627680669523
 20
141.3490360789041
 30
0.0
 11
449.1627680669523
 21
164.3490360789041
 31
0.0
  0
ARC
  5
A747
330
1A
100
AcDbEntity
  8
SEIHIN
  6
Continuous
 62
     3
 48
5.0
100
AcDbCircle
 10
462.9617520017848
 20
148.3508256329681
 30
0.0
 40
11.00001063773057
100
AcDbArc
 50
93.09069627227068
 51
152.9748008077573
  0
LINE
  5
A748
330
1A
100
AcDbEntity
  8
SEIHIN
  6
Continuous
 62
     4
 48
5.0
100
AcDbLine
 10
451.6659680669521
 20
146.3490360789039
 30
0.0
 11
449.1659680669523
 21
146.3490360789039
 31
0.0
  0
LINE
  5
A749
330
1A
100
AcDbEntity
  8
SEIHIN
  6
Continuous
 62
     3
 48
5.0
100
AcDbLine
 10
449.1659680669523
 20
139.3490360789041
 30
0.0
 11
451.6659680669521
 21
139.3490360789041
 31
0.0
  0
LINE
  5
A74A
330
1A
100
AcDbEntity
  8
CENTER L
  6
CENTER
 62
     1
 48
5.0
100
AcDbLine
 10
467.7003680669521
 20
148.8490360789041
 30
0.0
 11
441.8794680669523
 21
148.8490360789041
 31
0.0
  0
LINE
  5
A74B
330
1A
100
AcDbEntity
  8
SEIHIN
  6
Continuous
 62
     3
 48
5.0
100
AcDbLine
 10
438.1546680669523
 20
136.1482360789041
 30
0.0
 11
446.9127680669523
 21
141.2046360789041
 31
0.0
  0
LINE
  5
A74C
330
1A
100
AcDbEntity
  8
SEIHIN
  6
Continuous
 62
     3
 48
5.0
100
AcDbLine
 10
447.9127680669523
 20
139.4726360789041
 30
0.0
 11
439.1546680669521
 21
134.416136078904
 31
0.0
  0
ARC
  5
A74D
330
1A
100
AcDbEntity
  8
SEIHIN
  6
Continuous
 62
     3
 48
5.0
100
AcDbCircle
 10
442.8004185272478
 20
131.9021552327086
 30
0.0
 40
1.000023247177996
100
AcDbArc
 50
119.9959536456285
 51
176.9974943262134
  0
ARC
  5
A74E
330
1A
100
AcDbEntity
  8
SEIHIN
  6
Continuous
 62
     3
 48
5.0
100
AcDbCircle
 10
439.4046722070566
 20
133.9831428350099
 30
0.0
 40
2.500027820852042
100
AcDbArc
 50
119.999741443501
 51
177.0011039337653
  0
ARC
  5
A74F
330
1A
100
AcDbEntity
  8
SEIHIN
  6
Continuous
 62
     3
 48
5.0
100
AcDbCircle
 10
439.4046692004559
 20
133.9831379285046
 30
0.0
 40
0.49998796485771
100
AcDbArc
 50
120.0009462499097
 51
176.9964653990441
  0
ARC
  5
A750
330
1A
100
AcDbEntity
  8
SEIHIN
  6
Continuous
 62
     3
 48
5.0
100
AcDbCircle
 10
446.6627522660522
 20
141.6377087111729
 30
0.0
 40
2.500015801049932
100
AcDbArc
 50
300.0002090727441
 51
0.0006272182332487
  0
ARC
  5
A751
330
1A
100
AcDbEntity
  8
SEIHIN
  6
Continuous
 62
     3
 48
5.0
100
AcDbCircle
 10
441.1627694657026
 20
141.3490385016112
 30
0.0
 40
7.999998601250127
100
AcDbArc
 50
299.9999942162114
 51
359.9999826486361
  0
ARC
  5
A752
330
1A
100
AcDbEntity
  8
SEIHIN
  6
Continuous
 62
     3
 48
5.0
100
AcDbCircle
 10
446.6627302648103
 20
141.637670610272
 30
0.0
 40
0.5000378064277182
100
AcDbArc
 50
300.0025005284837
 51
0.0075015854248776
  0
LINE
  5
A753
330
1A
100
AcDbEntity
  8
SEIHIN
  6
Continuous
 62
     3
 48
5.0
100
AcDbLine
 10
445.1627680669523
 20
134.4208360789041
 30
0.0
 11
442.3004680669523
 21
132.7682360789041
 31
0.0
  0
LINE
  5
A754
330
1A
100
AcDbEntity
  8
SEIHIN
  6
Continuous
 62
     3
 48
5.0
100
AcDbLine
 10
447.1627680669521
 20
143.0990360789041
 30
0.0
 11
446.5627680669522
 21
143.0990360789041
 31
0.0
  0
ARC
  5
A755
330
1A
100
AcDbEntity
  8
SEIHIN
  6
Continuous
 62
     3
 48
5.0
100
AcDbCircle
 10
463.3651710658479
 20
142.5036313288144
 30
0.0
 40
0.9999855623934836
100
AcDbArc
 50
343.2976742661072
 51
81.23401052044719
  0
ARC
  5
A756
330
1A
100
AcDbEntity
  8
SEIHIN
  6
Continuous
 62
     3
 48
5.0
100
AcDbCircle
 10
462.9617093221636
 20
149.3472649814905
 30
0.0
 40
9.500022528839377
100
AcDbArc
 50
225.6597026515781
 51
261.9464396362216
  0
ARC
  5
A757
330
1A
100
AcDbEntity
  8
SEIHIN
  6
Continuous
 62
     3
 48
5.0
100
AcDbCircle
 10
466.5657181514987
 20
163.2582548513066
 30
0.0
 40
21.50001020261477
100
AcDbArc
 50
245.760549306785
 51
258.2504073203988
  0
ARC
  5
A758
330
1A
100
AcDbEntity
  8
SEIHIN
  6
Continuous
 62
     3
 48
5.0
100
AcDbCircle
 10
462.961677189479
 20
149.3472951697637
 30
0.0
 40
11.00005517853871
100
AcDbArc
 50
207.0253652886663
 51
266.9097064955529
  0
LINE
  5
A759
330
1A
100
AcDbEntity
  8
SEIHIN
  6
Continuous
 62
     3
 48
5.0
100
AcDbLine
 10
463.3804680669522
 20
139.0743360789041
 30
0.0
 11
464.3229680669522
 21
142.2162360789041
 31
0.0
  0
ARC
  5
A75A
330
1A
100
AcDbEntity
  8
SEIHIN
  6
Continuous
 62
     3
 48
5.0
100
AcDbCircle
 10
462.4226552925431
 20
139.3617973925689
 30
0.0
 40
1.000019658644282
100
AcDbArc
 50
266.9053161447842
 51
343.2943085867408
  0
LINE
  5
A75B
330
1A
100
AcDbEntity
  8
SEIHIN
  6
Continuous
 62
     3
 48
5.0
100
AcDbLine
 10
462.1797680669521
 20
140.2922360789041
 30
0.0
 11
462.5646680669523
 21
141.5755360789041
 31
0.0
  0
ARC
  5
A75C
330
1A
100
AcDbEntity
  8
SEIHIN
  6
Continuous
 62
     3
 48
5.0
100
AcDbCircle
 10
461.7009041797306
 20
140.4359591904458
 30
0.0
 40
0.4999669541841195
100
AcDbArc
 50
261.9358644133413
 51
343.2937367339692
  0
ARC
  5
A75D
330
1A
100
AcDbEntity
  8
SEIHIN
  6
Continuous
 62
     3
 48
5.0
100
AcDbCircle
 10
462.0857754990564
 20
141.7192235988763
 30
0.0
 40
0.4999841947319508
100
AcDbArc
 50
343.298588004566
 51
78.25293660543338
  0
LINE
  5
A75E
330
1A
100
AcDbEntity
  8
SEIHIN
  6
Continuous
 62
     3
 48
5.0
100
AcDbLine
 10
465.1627680669523
 20
150.549036078904
 30
0.0
 11
457.6627680669523
 21
150.549036078904
 31
0.0
  0
LINE
  5
A75F
330
1A
100
AcDbEntity
  8
SEIHIN
  6
Continuous
 62
     3
 48
5.0
100
AcDbLine
 10
465.1627680669523
 20
147.1490360789041
 30
0.0
 11
457.6627680669523
 21
147.1490360789041
 31
0.0
  0
LINE
  5
A760
330
1A
100
AcDbEntity
  8
SEIHIN
  6
Continuous
 62
     3
 48
5.0
100
AcDbLine
 10
465.1627680669523
 20
146.3490360789041
 30
0.0
 11
457.6627680669523
 21
146.3490360789041
 31
0.0
  0
LINE
  5
A761
330
1A
100
AcDbEntity
  8
SEIHIN
  6
Continuous
 62
     3
 48
5.0
100
AcDbLine
 10
465.1627680669523
 20
151.3490360789041
 30
0.0
 11
457.6627680669523
 21
151.3490360789041
 31
0.0
  0
ARC
  5
A762
330
1A
100
AcDbEntity
  8
SEIHIN
  6
Continuous
 62
     3
 48
5.0
100
AcDbCircle
 10
466.5654509325746
 20
163.2583415139139
 30
0.0
 40
20.00002458424273
100
AcDbArc
 50
243.5681134773658
 51
261.2340247489658
  0
LINE
  5
A763
330
1A
100
AcDbEntity
  8
SEIHIN
  6
Continuous
 62
     3
 48
5.0
100
AcDbLine
 10
454.6627680669521
 20
153.3490360789041
 30
0.0
 11
453.1627680669523
 21
153.3490360789041
 31
0.0
  0
LINE
  5
A764
330
1A
100
AcDbEntity
  8
SEIHIN
  6
Continuous
 62
     3
 48
5.0
100
AcDbLine
 10
457.6627680669523
 20
148.8490360789041
 30
0.0
 11
457.6627680669523
 21
152.3490360789041
 31
0.0
  0
LINE
  5
A765
330
1A
100
AcDbEntity
  8
SEIHIN
  6
Continuous
 62
     3
 48
5.0
100
AcDbLine
 10
454.6627680669521
 20
153.3490360789041
 30
0.0
 11
454.6627680669521
 21
148.8490360789041
 31
0.0
  0
LINE
  5
A766
330
1A
100
AcDbEntity
  8
SEIHIN
  6
Continuous
 62
     3
 48
5.0
100
AcDbLine
 10
457.6627680669523
 20
148.8490360789041
 30
0.0
 11
457.6627680669523
 21
145.3490360789041
 31
0.0
  0
LINE
  5
A767
330
1A
100
AcDbEntity
  8
SEIHIN
  6
Continuous
 62
     3
 48
5.0
100
AcDbLine
 10
454.6627680669521
 20
153.3490360789041
 30
0.0
 11
457.6627680669523
 21
152.3490360789041
 31
0.0
  0
LINE
  5
A768
330
1A
100
AcDbEntity
  8
SEIHIN
  6
Continuous
 62
     3
 48
5.0
100
AcDbLine
 10
454.6627680669521
 20
144.3490360789041
 30
0.0
 11
453.1627680669523
 21
144.3490360789041
 31
0.0
  0
LINE
  5
A769
330
1A
100
AcDbEntity
  8
SEIHIN
  6
Continuous
 62
     3
 48
5.0
100
AcDbLine
 10
456.5133680669523
 20
143.3847360789041
 30
0.0
 11
457.3754680669523
 21
143.6721360789041
 31
0.0
  0
ARC
  5
A76A
330
1A
100
AcDbEntity
  8
SEIHIN
  6
Continuous
 62
     3
 48
5.0
100
AcDbCircle
 10
457.5336135198497
 20
143.1977337736287
 30
0.0
 40
0.5000675269628484
100
AcDbArc
 50
65.76666375038042
 51
108.4361826510715
  0
ARC
  5
A76B
330
1A
100
AcDbEntity
  8
SEIHIN
  6
Continuous
 62
     3
 48
5.0
100
AcDbCircle
 10
456.6714710818138
 20
142.910349183418
 30
0.0
 40
0.5000394883579408
100
AcDbArc
 50
108.4321279600303
 51
225.6571106533519
  0
LINE
  5
A76C
330
1A
100
AcDbEntity
  8
SEIHIN
  6
Continuous
 62
     3
 48
5.0
100
AcDbLine
 10
454.6627680669521
 20
144.3490360789041
 30
0.0
 11
457.6627680669523
 21
145.3490360789041
 31
0.0
  0
LINE
  5
A76D
330
1A
100
AcDbEntity
  8
SEIHIN
  6
Continuous
 62
     3
 48
5.0
100
AcDbLine
 10
454.6627680669521
 20
144.3490360789041
 30
0.0
 11
454.6627680669521
 21
148.8490360789041
 31
0.0
  0
LINE
  5
A76E
330
1A
100
AcDbEntity
  8
SEIHIN
  6
Continuous
 62
     3
 48
5.0
100
AcDbLine
 10
453.1627680669523
 20
148.3490360789041
 30
0.0
 11
451.6627680669523
 21
148.3490360789041
 31
0.0
  0
LINE
  5
A76F
330
1A
100
AcDbEntity
  8
SEIHIN
  6
Continuous
 62
     3
 48
5.0
100
AcDbLine
 10
453.1627680669523
 20
149.3490360789041
 30
0.0
 11
451.6627680669523
 21
149.3490360789041
 31
0.0
  0
LINE
  5
A770
330
1A
100
AcDbEntity
  8
SEIHIN
  6
Continuous
 62
     3
 48
5.0
100
AcDbLine
 10
453.1627680669523
 20
142.8490360789041
 30
0.0
 11
451.6627680669523
 21
142.8490360789041
 31
0.0
  0
LINE
  5
A771
330
1A
100
AcDbEntity
  8
SEIHIN
  6
Continuous
 62
     3
 48
5.0
100
AcDbLine
 10
465.1627680669523
 20
146.3490360789041
 30
0.0
 11
465.1627680669523
 21
151.3490360789041
 31
0.0
  0
LINE
  5
A772
330
1A
100
AcDbEntity
  8
SEIHIN
  6
Continuous
 62
     4
 48
5.0
100
AcDbLine
 10
452.1627680669523
 20
164.3490360789041
 30
0.0
 11
449.1627680669523
 21
161.3490360789041
 31
0.0
  0
LINE
  5
A773
330
1A
100
AcDbEntity
  8
SEIHIN
  6
Continuous
 62
     3
 48
5.0
100
AcDbLine
 10
450.7485680669522
 20
165.7632360789041
 30
0.0
 11
449.1627680669523
 21
164.177436078904
 31
0.0
  0
LINE
  5
A774
330
1A
100
AcDbEntity
  8
SEIHIN
  6
Continuous
 62
     3
 48
5.0
100
AcDbLine
 10
434.2863680669523
 20
165.5990360789041
 30
0.0
 11
430.4307680669522
 21
158.9208360789041
 31
0.0
  0
LINE
  5
A775
330
1A
100
AcDbEntity
  8
SEIHIN
  6
Continuous
 62
     3
 48
5.0
100
AcDbLine
 10
436.0184680669523
 20
164.5990360789041
 30
0.0
 11
432.1627680669523
 21
157.9208360789041
 31
0.0
  0
LINE
  5
A776
330
1A
100
AcDbEntity
  8
SEIHIN
  6
Continuous
 62
     3
 48
5.0
100
AcDbLine
 10
430.4307680669522
 20
158.9208360789041
 30
0.0
 11
432.1627680669523
 21
157.9208360789041
 31
0.0
  0
ARC
  5
A777
330
1A
100
AcDbEntity
  8
SEIHIN
  6
Continuous
 62
     3
 48
5.0
100
AcDbCircle
 10
446.6627680669523
 20
164.3490360789041
 30
0.0
 40
2.500000000000085
100
AcDbArc
 50
0.0000000000016284
 51
90.00000000000162
  0
LINE
  5
A778
330
1A
100
AcDbEntity
  8
SEIHIN
  6
Continuous
 62
     3
 48
5.0
100
AcDbLine
 10
436.4514680669523
 20
164.8490360789041
 30
0.0
 11
446.6627680669521
 21
164.8490360789041
 31
0.0
  0
ARC
  5
A779
330
1A
100
AcDbEntity
  8
SEIHIN
  6
Continuous
 62
     3
 48
5.0
100
AcDbCircle
 10
436.4514775934763
 20
164.3490415789646
 30
0.0
 40
0.4999945000302526
100
AcDbArc
 50
90.00109167124178
 51
150.0003638904138
  0
ARC
  5
A77A
330
1A
100
AcDbEntity
  8
SEIHIN
  6
Continuous
 62
     3
 48
5.0
100
AcDbCircle
 10
446.6627680669521
 20
164.3490360789041
 30
0.0
 40
0.5
100
AcDbArc
 50
0.0
 51
90.0
  0
LINE
  5
A77B
330
1A
100
AcDbEntity
  8
SEIHIN
  6
Continuous
 62
     3
 48
5.0
100
AcDbLine
 10
447.1627680669521
 20
154.5990360789041
 30
0.0
 11
446.5627680669522
 21
154.5990360789041
 31
0.0
  0
LINE
  5
A77C
330
1A
100
AcDbEntity
  8
SEIHIN
  6
Continuous
 62
     3
 48
5.0
100
AcDbLine
 10
436.4514680669523
 20
166.8490360789041
 30
0.0
 11
446.6627680669521
 21
166.8490360789041
 31
0.0
  0
ARC
  5
A77D
330
1A
100
AcDbEntity
  8
SEIHIN
  6
Continuous
 62
     3
 48
5.0
100
AcDbCircle
 10
436.4514406992211
 20
164.349020278004
 30
0.0
 40
2.500015801049927
100
AcDbArc
 50
89.99937278176675
 51
149.9997909272555
  0
LINE
  5
A77E
330
1A
100
AcDbEntity
  8
SEIHIN
  6
Continuous
 62
     4
 48
5.0
100
AcDbLine
 10
450.7485680669522
 20
165.7632360789041
 30
0.0
 11
452.1627680669523
 21
164.3490360789041
 31
0.0
  0
ARC
  5
A77F
330
1A
100
AcDbEntity
  8
SEIHIN
  6
Continuous
 62
     3
 48
5.0
100
AcDbCircle
 10
466.5656291321321
 20
134.4397883925569
 30
0.0
 40
21.50000002065196
100
AcDbArc
 50
101.7490838218895
 51
114.2392027441099
  0
ARC
  5
A780
330
1A
100
AcDbEntity
  8
SEIHIN
  6
Continuous
 62
     3
 48
5.0
100
AcDbCircle
 10
462.9617093221634
 20
148.3508071763177
 30
0.0
 40
9.500022528839281
100
AcDbArc
 50
98.0535603637768
 51
134.3402973484201
  0
LINE
  5
A781
330
1A
100
AcDbEntity
  8
SEIHIN
  6
Continuous
 62
     3
 48
5.0
100
AcDbLine
 10
456.5133680669523
 20
154.3133360789041
 30
0.0
 11
457.3754680669523
 21
154.025936078904
 31
0.0
  0
ARC
  5
A782
330
1A
100
AcDbEntity
  8
SEIHIN
  6
Continuous
 62
     3
 48
5.0
100
AcDbCircle
 10
457.5336135198496
 20
154.5003383841795
 30
0.0
 40
0.5000675269628536
100
AcDbArc
 50
251.5638173489388
 51
294.2333362496302
  0
ARC
  5
A783
330
1A
100
AcDbEntity
  8
SEIHIN
  6
Continuous
 62
     3
 48
5.0
100
AcDbCircle
 10
456.6714586247207
 20
154.7876771268147
 30
0.0
 40
0.4999920541253478
100
AcDbArc
 50
134.3462057874862
 51
251.5675651468809
  0
LINE
  5
A784
330
1A
100
AcDbEntity
  8
SEIHIN
  6
Continuous
 62
     3
 48
5.0
100
AcDbLine
 10
453.1627680669523
 20
154.8490360789041
 30
0.0
 11
451.6627680669523
 21
154.8490360789041
 31
0.0
  0
ARC
  5
A785
330
1A
100
AcDbEntity
  8
SEIHIN
  6
Continuous
 62
     3
 48
5.0
100
AcDbCircle
 10
462.4226552925432
 20
158.3362747652393
 30
0.0
 40
1.000019658644248
100
AcDbArc
 50
16.70569141326355
 51
93.09468385521907
  0
ARC
  5
A786
330
1A
100
AcDbEntity
  8
SEIHIN
  6
Continuous
 62
     3
 48
5.0
100
AcDbCircle
 10
461.7009041797306
 20
157.2621129673623
 30
0.0
 40
0.4999669541840806
100
AcDbArc
 50
16.70626326603589
 51
98.06413558666201
  0
ARC
  5
A787
330
1A
100
AcDbEntity
  8
SEIHIN
  6
Continuous
 62
     3
 48
5.0
100
AcDbCircle
 10
463.3651710658478
 20
155.1944408289938
 30
0.0
 40
0.9999855623935339
100
AcDbArc
 50
278.7659894795561
 51
16.70232573389353
  0
ARC
  5
A788
330
1A
100
AcDbEntity
  8
SEIHIN
  6
Continuous
 62
     3
 48
5.0
100
AcDbCircle
 10
462.0857754990564
 20
155.9788485589319
 30
0.0
 40
0.4999841947319644
100
AcDbArc
 50
281.7470633945666
 51
16.70141199543636
  0
LINE
  5
A789
330
1A
100
AcDbEntity
  8
SEIHIN
  6
Continuous
 62
     3
 48
5.0
100
AcDbLine
 10
462.1797680669521
 20
157.4057360789041
 30
0.0
 11
462.5646680669523
 21
156.1225360789041
 31
0.0
  0
LINE
  5
A78A
330
1A
100
AcDbEntity
  8
SEIHIN
  6
Continuous
 62
     3
 48
5.0
100
AcDbLine
 10
463.3804680669522
 20
158.6236360789041
 30
0.0
 11
464.3229680669522
 21
155.4818360789041
 31
0.0
  0
LINE
  5
A78B
330
1A
100
AcDbEntity
  8
SEIHIN
  6
PHANTOM
 62
     6
 48
5.0
100
AcDbLine
 10
466.9479680669523
 20
244.745536078904
 30
0.0
 11
464.5608680669524
 21
256.4786360789041
 31
0.0
  0
ARC
  5
A78C
330
1A
100
AcDbEntity
  8
SEIHIN
  6
Continuous
 62
     3
 48
5.0
100
AcDbCircle
 10
448.6659630736272
 20
221.803440654548
 30
0.0
 40
3.000004993328439
100
AcDbArc
 50
359.9999126117798
 51
94.99860706123043
  0
LINE
  5
A78D
330
1A
100
AcDbEntity
  8
SEIHIN
  6
Continuous
 62
     4
 48
5.0
100
AcDbLine
 10
451.6659680669521
 20
219.3490360789041
 30
0.0
 11
449.1659680669523
 21
219.3490360789041
 31
0.0
  0
ARC
  5
A78E
330
1A
100
AcDbEntity
  8
SEIHIN
  6
Continuous
 62
     3
 48
5.0
100
AcDbCircle
 10
431.6270380564369
 20
223.6741582908256
 30
0.0
 40
0.5000151099177009
100
AcDbArc
 50
191.5041199383945
 51
275.4891428565646
  0
LINE
  5
A78F
330
1A
100
AcDbEntity
  8
SEIHIN
  6
Continuous
 62
     3
 48
5.0
100
AcDbLine
 10
448.3832680669523
 20
224.7852360789041
 30
0.0
 11
431.6749680669523
 21
223.176436078904
 31
0.0
  0
LINE
  5
A790
330
1A
100
AcDbEntity
  8
SEIHIN
  6
Continuous
 62
     3
 48
5.0
100
AcDbLine
 10
448.6227680669523
 20
222.296736078904
 30
0.0
 11
431.9145680669523
 21
220.6879360789039
 31
0.0
  0
LINE
  5
A791
330
1A
100
AcDbEntity
  8
SEIHIN
  6
Continuous
 62
     3
 48
5.0
100
AcDbLine
 10
440.3359680669522
 20
218.987236078904
 30
0.0
 11
432.1541680669521
 21
218.199436078904
 31
0.0
  0
ARC
  5
A792
330
1A
100
AcDbEntity
  8
SEIHIN
  6
Continuous
 62
     3
 48
5.0
100
AcDbCircle
 10
431.6270721127357
 20
223.6741330851364
 30
0.0
 40
5.500012495895037
100
AcDbArc
 50
191.4996903848901
 51
275.4994046942362
  0
ARC
  5
A793
330
1A
100
AcDbEntity
  8
SEIHIN
  6
Continuous
 62
     3
 48
5.0
100
AcDbCircle
 10
431.6270579596928
 20
223.6741435580053
 30
0.0
 40
3.000016194959159
100
AcDbArc
 50
191.5000087137547
 51
275.4994492901154
  0
ARC
  5
A794
330
1A
100
AcDbEntity
  8
SEIHIN
  6
Continuous
 62
     3
 48
5.0
100
AcDbCircle
 10
439.8568616069288
 20
223.964231471076
 30
0.0
 40
5.000012196488152
100
AcDbArc
 50
275.4997297924791
 51
335.4996962431335
  0
ARC
  5
A795
330
1A
100
AcDbEntity
  8
SEIHIN
  6
Continuous
 62
     3
 48
5.0
100
AcDbCircle
 10
448.6658701369609
 20
221.8033341817943
 30
0.0
 40
0.4999979299950505
100
AcDbArc
 50
0.0002173936608849
 51
94.9913013980089
  0
ARC
  5
A796
330
1A
100
AcDbEntity
  8
SEIHIN
  6
PHANTOM
 62
     6
 48
5.0
100
AcDbCircle
 10
451.943312472355
 20
246.6179212208244
 30
0.0
 40
4.999992452603924
100
AcDbArc
 50
41.50030016091106
 51
101.5000729470546
  0
LINE
  5
A797
330
1A
100
AcDbEntity
  8
SEIHIN
  6
PHANTOM
 62
     6
 48
5.0
100
AcDbLine
 10
475.7850680669525
 20
251.4684360789041
 30
0.0
 11
475.2866680669525
 21
253.9183360789039
 31
0.0
  0
LINE
  5
A798
330
1A
100
AcDbEntity
  8
SEIHIN
  6
PHANTOM
 62
     6
 48
5.0
100
AcDbLine
 10
564.9404680669524
 20
264.6823360789039
 30
0.0
 11
562.5533680669522
 21
276.415336078904
 31
0.0
  0
LINE
  5
A799
330
1A
100
AcDbEntity
  8
SEIHIN
  6
PHANTOM
 62
     6
 48
5.0
100
AcDbLine
 10
573.2791680669524
 20
273.8550360789041
 30
0.0
 11
573.7775680669523
 21
271.405236078904
 31
0.0
  0
LINE
  5
A79A
330
1A
100
AcDbEntity
  8
SEIHIN
  6
Continuous
 62
     3
 48
5.0
100
AcDbLine
 10
573.7824680669521
 20
464.3987720824928
 30
0.0
 11
573.7824680669521
 21
483.3985720824926
 31
0.0
  0
LINE
  5
A79B
330
1A
100
AcDbEntity
  8
SEIHIN
  6
Continuous
 62
     3
 48
5.0
100
AcDbLine
 10
573.2824680669521
 20
464.3987720824928
 30
0.0
 11
573.2824680669521
 21
483.3985720824926
 31
0.0
  0
ARC
  5
A79C
330
1A
100
AcDbEntity
  8
SEIHIN
  6
Continuous
 62
     3
 48
5.0
100
AcDbCircle
 10
524.0490680669523
 20
473.8988720824927
 30
0.0
 40
5.137830890560694
100
AcDbArc
 50
283.3062264216882
 51
76.69377357831175
  0
ARC
  5
A79D
330
1A
100
AcDbEntity
  8
SEIHIN
  6
Continuous
 62
     3
 48
5.0
100
AcDbCircle
 10
480.2897680669523
 20
473.8987720824928
 30
0.0
 40
5.0
100
AcDbArc
 50
90.0
 51
270.0
  0
ARC
  5
A79E
330
1A
100
AcDbEntity
  8
SEIHIN
  6
Continuous
 62
     3
 48
5.0
100
AcDbCircle
 10
480.7882680669523
 20
473.8987720824928
 30
0.0
 40
5.0
100
AcDbArc
 50
90.0
 51
270.0
  0
ARC
  5
A79F
330
1A
100
AcDbEntity
  8
SEIHIN
  6
Continuous
 62
     3
 48
5.0
100
AcDbCircle
 10
450.6912680669523
 20
473.8987720824928
 30
0.0
 40
5.0
100
AcDbArc
 50
270.0
 51
90.0
  0
DIMENSION
  5
A7A0
330
1A
100
AcDbEntity
  8
SUNPOU
 48
5.0
100
AcDbDimension
  2
*D10
 10
607.3305445930981
 20
464.3987720824928
 30
0.0
 11
602.330544593098
 21
473.8987720824928
 31
0.0
 70
    32
 71
     5
 42
19.0
  3
STANDARD
100
AcDbAlignedDimension
 13
573.7824680669521
 23
483.3987720824928
 33
0.0
 14
573.7824680669521
 24
464.3987720824928
 34
0.0
 50
90.0
100
AcDbRotatedDimension
1001
ACAD
1000
DSTYLE
1002
{
1070
   140
1040
6.0
1070
    74
1070
     0
1070
   172
1070
     1
1070
    73
1070
     0
1070
   272
1070
     2
1070
    77
1070
     3
1070
   173
1070
     1
1070
   147
1040
2.0
1070
    42
1040
6.0
1070
    44
1040
3.0
1070
    43
1040
14.0
1070
   271
1070
     0
1070
   178
1070
     4
1070
   177
1070
     4
1070
   176
1070
     4
1070
   141
1040
150.0
1070
     7
1000
_OPEN
1070
     6
1000
_OPEN
1070
    41
1040
7.0
1002
}
  0
DIMENSION
  5
A7A1
330
1A
100
AcDbEntity
  8
SUNPOU
 48
5.0
100
AcDbDimension
  2
*D11
 10
544.7540885760025
 20
422.7959420566069
 30
0.0
 11
494.7186487253368
 21
418.163608319935
 31
0.0
 70
    33
 71
     5
 42
100.0000751379216
  3
STANDARD
100
AcDbAlignedDimension
 13
451.2733084799056
 23
379.6281971965542
 33
0.0
 14
549.4360957326503
 24
398.7091360194302
 34
0.0
1001
ACAD
1000
DSTYLE
1002
{
1070
   140
1040
6.0
1070
    74
1070
     0
1070
   172
1070
     1
1070
    73
1070
     0
1070
   272
1070
     2
1070
    77
1070
     3
1070
   173
1070
     1
1070
   147
1040
2.0
1070
    42
1040
6.0
1070
    44
1040
3.0
1070
    43
1040
14.0
1070
   271
1070
     0
1070
   178
1070
     4
1070
   177
1070
     4
1070
   176
1070
     4
1070
   141
1040
150.0
1070
     7
1000
_OPEN
1070
     6
1000
_OPEN
1070
    41
1040
7.0
1002
}
  0
LINE
  5
A7A2
330
1A
100
AcDbEntity
  8
CENTER L
  6
CENTER
 62
     1
 48
5.0
100
AcDbLine
 10
440.1400714996293
 20
373.3892452330565
 30
0.0
 11
566.174271499629
 21
397.8878452330566
 31
0.0
  0
LINE
  5
A7A3
330
1A
100
AcDbEntity
  8
SEIHIN
  6
Continuous
 62
     3
 48
5.0
100
AcDbLine
 10
441.8592714996291
 20
383.4012452330566
 30
0.0
 11
558.2028714996293
 21
406.0161452330565
 31
0.0
  0
LINE
  5
A7A4
330
1A
100
AcDbEntity
  8
SEIHIN
  6
Continuous
 62
     3
 48
5.0
100
AcDbLine
 10
561.8282714996292
 20
387.3652452330566
 30
0.0
 11
449.2423714996293
 21
365.4807452330565
 31
0.0
  0
ARC
  5
A7A5
330
1A
100
AcDbEntity
  8
SEIHIN
  6
Continuous
 62
     3
 48
5.0
100
AcDbCircle
 10
550.1992714996291
 20
394.7826452330565
 30
0.0
 40
2.099999999999909
100
AcDbArc
 50
180.0
 51
0.0
  0
ARC
  5
A7A6
330
1A
100
AcDbEntity
  8
SEIHIN
  6
Continuous
 62
     3
 48
5.0
100
AcDbCircle
 10
550.1992714996291
 20
394.7826452330565
 30
0.0
 40
2.099999999999909
100
AcDbArc
 50
0.0
 51
180.0
  0
LINE
  5
A7A7
330
1A
100
AcDbEntity
  8
CENTER L
  6
CENTER
 62
     1
 48
5.0
100
AcDbLine
 10
440.1401524249939
 20
373.3892609633753
 30
0.0
 11
566.1743524249936
 21
397.8878609633754
 31
0.0
  0
DIMENSION
  5
A7A8
330
1A
100
AcDbEntity
  8
SUNPOU
 48
5.0
100
AcDbDimension
  2
*D12
 10
554.5703735282508
 20
424.7040371492973
 30
0.0
 11
573.7121026598386
 21
428.4248174240412
 31
0.0
 70
   161
 71
     5
 42
10.0000138573148
  3
STANDARD
100
AcDbAlignedDimension
 13
549.4360957326502
 23
398.7091360194299
 33
0.0
 14
559.2523806848986
 24
400.6172311121202
 34
0.0
1001
ACAD
1000
DSTYLE
1002
{
1070
   288
1070
     1
1070
   140
1040
6.0
1070
    74
1070
     0
1070
   172
1070
     1
1070
    73
1070
     0
1070
   272
1070
     2
1070
    77
1070
     3
1070
   173
1070
     1
1070
   147
1040
2.0
1070
    42
1040
6.0
1070
    44
1040
3.0
1070
    43
1040
14.0
1070
   271
1070
     0
1070
   178
1070
     4
1070
   177
1070
     4
1070
   176
1070
     4
1070
   141
1040
150.0
1070
     7
1000
_OPEN
1070
     6
1000
_OPEN
1070
    41
1040
7.0
1002
}
  0
DIMENSION
  5
A7A9
330
1A
100
AcDbEntity
  8
SUNPOU
 48
5.0
100
AcDbDimension
  2
*D13
 10
523.5493702476722
 20
348.4551989652516
 30
0.0
 11
544.6819353355313
 21
357.656511838829
 31
0.0
 70
    33
 71
     5
 42
44.99997625732988
  3
STANDARD
100
AcDbAlignedDimension
 13
560.0156214996292
 23
396.6906452330566
 33
0.0
 14
515.8424121349074
 24
388.1042934128301
 34
0.0
1001
ACAD
1000
DSTYLE
1002
{
1070
   140
1040
6.0
1070
    74
1070
     0
1070
   172
1070
     1
1070
    73
1070
     0
1070
   272
1070
     2
1070
    77
1070
     3
1070
   173
1070
     1
1070
   147
1040
2.0
1070
    42
1040
6.0
1070
    44
1040
3.0
1070
    43
1040
14.0
1070
   271
1070
     0
1070
   178
1070
     4
1070
   177
1070
     4
1070
   176
1070
     4
1070
   141
1040
150.0
1070
     7
1000
_OPEN
1070
     6
1000
_OPEN
1070
    41
1040
7.0
1002
}
  0
ARC
  5
A7AA
330
1A
100
AcDbEntity
  8
SEIHIN
  6
Continuous
 62
     3
 48
5.0
100
AcDbCircle
 10
510.9342621348985
 20
387.1502934128283
 30
0.0
 40
5.00000524225632
100
AcDbArc
 50
280.9995726007664
 51
100.9993539605313
  0
LINE
  5
A7AB
330
1A
100
AcDbEntity
  8
SEIHIN
  6
Continuous
 62
     3
 48
5.0
100
AcDbLine
 10
465.8069714996292
 20
383.4719452330567
 30
0.0
 11
509.980271499629
 21
392.0584452330566
 31
0.0
  0
DIMENSION
  5
A7AC
330
1A
100
AcDbEntity
  8
SUNPOU
 48
5.0
100
AcDbDimension
  2
*D14
 10
520.5386045209534
 20
383.9235155461776
 30
0.0
 11
529.1673454741549
 21
365.7357496151309
 31
0.0
 70
    33
 71
     5
 42
10.0000104844944
  3
STANDARD
100
AcDbAlignedDimension
 13
509.980271499629
 23
392.0584452330566
 33
0.0
 14
511.8882714996291
 24
382.2421452330567
 34
0.0
1001
ACAD
1000
DSTYLE
1002
{
1070
   140
1040
6.0
1070
    74
1070
     0
1070
   172
1070
     1
1070
    73
1070
     0
1070
   272
1070
     2
1070
    77
1070
     3
1070
   173
1070
     1
1070
   147
1040
2.0
1070
    42
1040
6.0
1070
    44
1040
3.0
1070
    43
1040
14.0
1070
   271
1070
     0
1070
   178
1070
     4
1070
   177
1070
     4
1070
   176
1070
     4
1070
   141
1040
150.0
1070
     7
1000
_OPEN
1070
     6
1000
_OPEN
1070
    41
1040
7.0
1002
}
  0
DIMENSION
  5
A7AD
330
1A
100
AcDbEntity
  8
SUNPOU
 48
5.0
100
AcDbDimension
  2
*D15
 10
469.5598256265305
 20
337.9606889383797
 30
0.0
 11
495.6005748980056
 21
348.1160803456256
 31
0.0
 70
    33
 71
     5
 42
55.00009444552597
  3
STANDARD
100
AcDbAlignedDimension
 13
515.8424121349073
 23
388.1042934128302
 33
0.0
 14
461.8528239749567
 24
377.6097824982755
 34
0.0
1001
ACAD
1000
DSTYLE
1002
{
1070
   140
1040
6.0
1070
    74
1070
     0
1070
   172
1070
     1
1070
    73
1070
     0
1070
   272
1070
     2
1070
    77
1070
     3
1070
   173
1070
     1
1070
   147
1040
2.0
1070
    42
1040
6.0
1070
    44
1040
3.0
1070
    43
1040
14.0
1070
   271
1070
     0
1070
   178
1070
     4
1070
   177
1070
     4
1070
   176
1070
     4
1070
   141
1040
150.0
1070
     7
1000
_OPEN
1070
     6
1000
_OPEN
1070
    41
1040
7.0
1002
}
  0
LINE
  5
A7AE
330
1A
100
AcDbEntity
  8
SEIHIN
  6
Continuous
 62
     3
 48
5.0
100
AcDbLine
 10
467.7150714996291
 20
373.6557452330566
 30
0.0
 11
511.8882714996291
 21
382.2421452330566
 31
0.0
  0
LINE
  5
A7AF
330
1A
100
AcDbEntity
  8
CENTER L
  6
CENTER
 62
     1
 48
5.0
100
AcDbLine
 10
466.9511680669522
 20
298.335536078904
 30
0.0
 11
464.5640680669523
 21
310.068636078904
 31
0.0
  0
ARC
  5
A7B0
330
1A
100
AcDbEntity
  8
SEIHIN
  6
Continuous
 62
     3
 48
5.0
100
AcDbCircle
 10
451.9465124723548
 20
300.2079212208244
 30
0.0
 40
4.999992452603924
100
AcDbArc
 50
41.50030016091106
 51
101.5000729470546
  0
ARC
  5
A7B1
330
1A
100
AcDbEntity
  8
SEIHIN
  6
Continuous
 62
     3
 48
5.0
100
AcDbCircle
 10
452.0365714996292
 20
375.7017452330566
 30
0.0
 40
2.099999999999938
100
AcDbArc
 50
0.0
 51
180.0
  0
ARC
  5
A7B2
330
1A
100
AcDbEntity
  8
SEIHIN
  6
Continuous
 62
     3
 48
5.0
100
AcDbCircle
 10
452.0365714996292
 20
375.7017452330566
 30
0.0
 40
2.099999999999938
100
AcDbArc
 50
180.0
 51
0.0
  0
ARC
  5
A7B3
330
1A
100
AcDbEntity
  8
SEIHIN
  6
Continuous
 62
     3
 48
5.0
100
AcDbCircle
 10
466.7609639548556
 20
378.5638840474589
 30
0.0
 40
5.000014782821761
100
AcDbArc
 50
100.9993539562912
 51
281.0006974656215
  0
LINE
  5
A7B4
330
1A
100
AcDbEntity
  8
CENTER L
  6
CENTER
 62
     1
 48
5.0
100
AcDbLine
 10
452.8852714996293
 20
371.3357452330566
 30
0.0
 11
451.1848714996293
 21
380.0831452330565
 31
0.0
  0
LINE
  5
A7B5
330
1A
100
AcDbEntity
  8
SEIHIN
  6
Continuous
 62
     3
 48
5.0
100
AcDbLine
 10
480.2897680669523
 20
468.8987720824928
 30
0.0
 11
525.2307680669521
 21
468.8987720824928
 31
0.0
  0
ARC
  5
A7B6
330
1A
100
AcDbEntity
  8
SEIHIN
  6
Continuous
 62
     3
 48
5.0
100
AcDbCircle
 10
465.4464680669523
 20
473.8988720824927
 30
0.0
 40
2.100360923746136
100
AcDbArc
 50
271.2003645174848
 51
88.79963548251514
  0
ARC
  5
A7B7
330
1A
100
AcDbEntity
  8
SEIHIN
  6
Continuous
 62
     3
 48
5.0
100
AcDbCircle
 10
465.5345680669523
 20
473.8988720824927
 30
0.0
 40
2.100363021003685
100
AcDbArc
 50
91.20309181773882
 51
268.7969081822612
  0
ARC
  5
A7B8
330
1A
100
AcDbEntity
  8
SEIHIN
  6
Continuous
 62
     3
 48
5.0
100
AcDbCircle
 10
466.0329680667861
 20
473.8988650325359
 30
0.0
 40
2.100372253899847
100
AcDbArc
 50
98.0243709709041
 51
261.9728741594203
  0
LINE
  5
A7B9
330
1A
100
AcDbEntity
  8
CENTER L
  6
CENTER
 62
     1
 48
5.0
100
AcDbLine
 10
465.4904680669523
 20
469.1076720824926
 30
0.0
 11
465.4904680669523
 21
478.6231720824928
 31
0.0
  0
LINE
  5
A7BA
330
1A
100
AcDbEntity
  8
SUNPOU
  6
Continuous
 62
     4
100
AcDbLine
 10
613.583807018012
 20
335.643984615394
 30
0.0
 11
633.583807018012
 21
335.643984615394
 31
0.0
  0
LINE
  5
A7BB
330
1A
100
AcDbEntity
  8
SUNPOU
  6
Continuous
 62
     4
 48
5.0
100
AcDbLine
 10
633.583807018012
 20
339.7127467985241
 30
0.0
 11
587.4914938020419
 21
330.3358137512176
 31
0.0
  0
LINE
  5
A7BC
330
1A
100
AcDbEntity
  8
CENTER L
  6
CENTER
 62
     1
 48
5.0
100
AcDbLine
 10
564.9436680669521
 20
318.272336078904
 30
0.0
 11
562.556568066952
 21
330.005336078904
 31
0.0
  0
LINE
  5
A7BD
330
1A
100
AcDbEntity
  8
SEIHIN
  6
Continuous
 62
     3
 48
5.0
100
AcDbLine
 10
573.2823680669521
 20
327.445036078904
 30
0.0
 11
573.7807680669521
 21
324.995236078904
 31
0.0
  0
LINE
  5
A7BE
330
1A
100
AcDbEntity
  8
SUNPOU
  6
Continuous
 62
     4
100
AcDbLine
 10
633.583807018012
 20
339.7127467985241
 30
0.0
 11
633.5838070180118
 21
335.643984615394
 31
0.0
  0
TEXT
  5
A7BF
330
1A
100
AcDbEntity
  8
SUNPOU
  6
Continuous
 62
     4
100
AcDbText
 10
638.4354959573306
 20
336.4540588591701
 30
0.0
 40
6.0
  1
2
100
AcDbText
  0
TEXT
  5
A7C0
330
1A
100
AcDbEntity
  8
SUNPOU
  6
Continuous
 62
     4
100
AcDbText
 10
623.5935854864882
 20
324.7881454412279
 30
0.0
 40
6.0
  1
10
100
AcDbText
  0
LEADER
  5
A7C1
330
1A
100
AcDbEntity
  8
SUNPOU
  6
Continuous
 62
     4
100
AcDbLeader
  3
STANDARD
 74
     0
 40
6.0
 41
31.2
 76
     3
 10
551.8241995396976
 20
396.1129116968143
 30
0.0
 10
585.5284606492872
 20
434.4227078168391
 30
0.0
 10
588.6872970062876
 20
434.4227078168391
 30
0.0
1001
ACAD
1000
DSTYLE
1002
{
1070
     6
1000
OPEN
1070
    41
1040
7.0
1070
    42
1040
6.0
1070
    43
1040
14.0
1070
    44
1040
3.0
1070
    73
1070
     0
1070
    74
1070
     0
1070
    77
1070
     3
1070
   140
1040
6.0
1070
   141
1040
150.0
1070
   147
1040
2.0
1070
   172
1070
     1
1070
   173
1070
     1
1070
   176
1070
     4
1070
   177
1070
     4
1070
   178
1070
     4
1070
   271
1070
     0
1070
   272
1070
     2
1070
   341
1005
6D
1070
   343
1005
6D
1070
   344
1005
6D
1002
}
  0
MTEXT
  5
A7C2
330
1A
100
AcDbEntity
  8
SUNPOU
  6
Continuous
 62
     4
100
AcDbMText
 10
590.6872970062876
 20
436.4227078168391
 30
0.0
 40
6.0
 41
0.0
 71
     7
 72
     5
  1
3-φ4.2
 73
     1
 44
1.0
  0
DIMENSION
  5
A7C3
330
1A
100
AcDbEntity
  8
SUNPOU
 48
5.0
100
AcDbDimension
  2
*D16
 10
589.2502070568276
 20
392.6955770223573
 30
0.0
 11
592.3456413823595
 21
402.9750801878229
 31
0.0
 70
    33
 71
     5
 42
18.99998936762853
  3
STANDARD
100
AcDbAlignedDimension
 13
558.2028714996292
 23
406.0161452330565
 33
0.0
 14
561.8282714996292
 24
387.3652452330566
 34
0.0
1001
ACAD
1000
DSTYLE
1002
{
1070
   140
1040
6.0
1070
    74
1070
     0
1070
   172
1070
     1
1070
    73
1070
     0
1070
   272
1070
     2
1070
    77
1070
     3
1070
   173
1070
     1
1070
   147
1040
2.0
1070
    42
1040
6.0
1070
    44
1040
3.0
1070
    43
1040
14.0
1070
   271
1070
     0
1070
   178
1070
     4
1070
   177
1070
     4
1070
   176
1070
     4
1070
   141
1040
150.0
1070
     7
1000
_OPEN
1070
     6
1000
_OPEN
1070
    41
1040
7.0
1002
}
  0
LINE
  5
A7C4
330
1A
100
AcDbEntity
  8
SEIHIN
  6
Continuous
 62
     3
 48
5.0
100
AcDbLine
 10
561.8282714996292
 20
387.3652452330566
 30
0.0
 11
558.202971499629
 21
406.0160452330566
 31
0.0
  0
LINE
  5
A7C5
330
1A
100
AcDbEntity
  8
CENTER L
  6
CENTER
 62
     1
 48
5.0
100
AcDbLine
 10
551.0479714996293
 20
390.4166452330564
 30
0.0
 11
549.3476714996291
 21
399.1640452330566
 31
0.0
  0
ARC
  5
A7C6
330
1A
100
AcDbEntity
  8
SEIHIN
  6
Continuous
 62
     3
 48
5.0
100
AcDbCircle
 10
563.4389680669522
 20
473.8988720824927
 30
0.0
 40
2.100363021003683
100
AcDbArc
 50
271.2030918177372
 51
88.7969081822628
  0
ARC
  5
A7C7
330
1A
100
AcDbEntity
  8
SEIHIN
  6
Continuous
 62
     3
 48
5.0
100
AcDbCircle
 10
563.5271680669521
 20
473.8988720824927
 30
0.0
 40
2.100363021003686
100
AcDbArc
 50
91.20309181774044
 51
268.7969081822596
  0
ARC
  5
A7C8
330
1A
100
AcDbEntity
  8
SEIHIN
  6
Continuous
 62
     3
 48
5.0
100
AcDbCircle
 10
564.0255680669523
 20
473.8988720824927
 30
0.0
 40
2.100365272994228
100
AcDbArc
 50
98.02439782153597
 51
261.975602178464
  0
LINE
  5
A7C9
330
1A
100
AcDbEntity
  8
CENTER L
  6
CENTER
 62
     1
 48
5.0
100
AcDbLine
 10
563.483068066952
 20
469.1076720824926
 30
0.0
 11
563.483068066952
 21
478.6231720824928
 31
0.0
  0
LINE
  5
A7CA
330
1A
100
AcDbEntity
  8
SEIHIN
  6
Continuous
 62
     3
 48
5.0
100
AcDbLine
 10
525.2315680669522
 20
478.8987720824928
 30
0.0
 11
480.2897680669523
 21
478.8987720824928
 31
0.0
  0
VIEWPORT
  5
22
330
17
100
AcDbEntity
 67
     1
  8
0
100
AcDbViewport
 10
313.6808219178082
 20
286.420032064001
 30
0.0
 40
627.3616438356164
 41
572.840064128002
 68
     2
 69
     1
 12
313.6808219178082
 22
286.420032064001
 13
0.0
 23
0.0
 14
1.0
 24
1.0
 15
10.0
 25
10.0
 16
0.0
 26
0.0
 36
1.0
 17
0.0
 27
0.0
 37
0.0
 42
50.0
 43
0.0
 44
0.0
 45
572.840064128002
 50
0.0
 51
0.0
 72
   100
 90
    32768
  1

281
     0
 71
     1
 74
     0
110
0.0
120
0.0
130
0.0
111
1.0
121
0.0
131
0.0
112
0.0
122
1.0
132
0.0
 79
     0
146
0.0
  0
VIEWPORT
  5
64
330
17
100
AcDbEntity
 67
     1
  8
VIEWPORT
100
AcDbViewport
 10
210.0
 20
148.5
 30
0.0
 40
420.0
 41
297.0
 68
     1
 69
     2
 12
420.0
 22
297.0
 13
0.0
 23
0.0
 14
10.0
 24
10.0
 15
0.0
 25
0.0
 16
0.0
 26
0.0
 36
1.0
 17
0.0
 27
0.0
 37
0.0
 42
50.0
 43
0.0
 44
0.0
 45
605.8799999999999
 50
0.0
 51
0.0
 72
   100
 90
    32768
  1

281
     0
 71
     1
 74
     0
110
0.0
120
0.0
130
0.0
111
1.0
121
0.0
131
0.0
112
0.0
122
1.0
132
0.0
 79
     0
146
0.0
  0
ENDSEC
  0
SECTION
  2
OBJECTS
  0
DICTIONARY
  5
C
330
0
100
AcDbDictionary
281
     1
  3
ACAD_GROUP
350
D
  3
ACAD_LAYOUT
350
A98
  3
ACAD_MLINESTYLE
350
E
  3
ACAD_PLOTSETTINGS
350
A99
  3
ACAD_PLOTSTYLENAME
350
A96
  0
DICTIONARY
  5
D
102
{ACAD_REACTORS
330
C
102
}
330
C
100
AcDbDictionary
281
     1
  3
*A1
350
FA3
  3
*A2
350
1597
  3
*A3
350
179D
  3
*A4
350
3390
  3
*A5
350
3A0A
  0
DICTIONARY
  5
A98
102
{ACAD_REACTORS
330
C
102
}
330
C
100
AcDbDictionary
281
     1
  3
Model
350
A9A
  3
ﾚｲｱｳﾄ1
350
A9B
  0
DICTIONARY
  5
E
102
{ACAD_REACTORS
330
C
102
}
330
C
100
AcDbDictionary
281
     1
  3
STANDARD
350
13
  0
DICTIONARY
  5
A99
102
{ACAD_REACTORS
330
C
102
}
330
C
100
AcDbDictionary
281
     1
  0
ACDBDICTIONARYWDFLT
  5
A96
102
{ACAD_REACTORS
330
C
102
}
330
C
100
AcDbDictionary
281
     1
  3
Normal
350
A97
100
AcDbDictionaryWithDefault
340
A97
1001
ACAD
1000
TREAT_AS_HARD
1070
     0
1000
TREAT_AS_HARD
1070
     0
1000
TREAT_AS_HARD
1070
     0
1000
TREAT_AS_HARD
1070
     0
  0
GROUP
  5
FA3
102
{ACAD_REACTORS
330
D
102
}
330
D
100
AcDbGroup
300

 70
     1
 71
     1
  0
GROUP
  5
1597
102
{ACAD_REACTORS
330
D
102
}
330
D
100
AcDbGroup
300

 70
     1
 71
     1
  0
GROUP
  5
179D
102
{ACAD_REACTORS
330
D
102
}
330
D
100
AcDbGroup
300

 70
     1
 71
     1
  0
GROUP
  5
3390
102
{ACAD_REACTORS
330
D
102
}
330
D
100
AcDbGroup
300

 70
     1
 71
     1
  0
GROUP
  5
3A0A
102
{ACAD_REACTORS
330
D
102
}
330
D
100
AcDbGroup
300

 70
     1
 71
     1
  0
LAYOUT
  5
A9A
102
{ACAD_REACTORS
330
A98
102
}
330
A98
100
AcDbPlotSettings
  1

  2
Adobe PDF
  4
A3
  6

 40
3.174999952316284
 41
3.174999952316284
 42
3.17498779296875
 43
3.17498779296875
 44
297.0318298339844
 45
420.1583251953125
 46
2.67
 47
2.85
 48
-8.09872987394283
 49
-9.441603207410708
140
808.114529312747
141
561.2334822198422
142
1.0
143
2.0
 70
 28340
 72
     1
 73
     1
 74
     4
  7
systemprinter.ctb
 75
    17
147
0.5
148
8.09872987394283
149
9.441603207410708
100
AcDbLayout
  1
Model
 70
     1
 71
     0
 10
0.0
 20
0.0
 11
12.0
 21
9.0
 12
0.0
 22
0.0
 32
0.0
 14
0.0
 24
0.0
 34
0.0
 15
0.0
 25
0.0
 35
0.0
146
0.0
 13
0.0
 23
0.0
 33
0.0
 16
1.0
 26
0.0
 36
0.0
 17
0.0
 27
1.0
 37
0.0
 76
     0
330
1A
  0
LAYOUT
  5
A9B
102
{ACAD_REACTORS
330
A98
102
}
330
A98
100
AcDbPlotSettings
  1

  2
C:\PROGRAM FILES\ACAD LT 2000\plotters\DWF ePlot.pc3
  4
ANSI_A_(8.50_x_11.00_Inches)
  6

 40
5.793749809265137
 41
17.79375076293945
 42
5.793746948242188
 43
17.79376220703125
 44
215.8999938964844
 45
279.3999938964844
 46
0.0
 47
0.0
 48
0.0
 49
0.0
140
0.0
141
0.0
142
1.0
143
43.75760864458461
 70
   688
 72
     0
 73
     1
 74
     1
  7
systemprinter.ctb
 75
     0
147
0.0228531684197454
148
0.3255366854427166
149
0.2302009418498301
100
AcDbLayout
  1
ﾚｲｱｳﾄ1
 70
     1
 71
     1
 10
-30.66685116754002
 20
-9.990190459854741
 11
450.6668334081172
 21
361.9494725043409
 12
0.0
 22
0.0
 32
0.0
 14
-0.0128164049386896
 24
-0.0090630292066862
 34
-0.0015258207003583
 15
420.0128183607162
 25
297.0090644122207
 35
0.0000000349246037
146
0.0
 13
0.0
 23
0.0
 33
0.0
 16
1.0
 26
0.0
 36
0.0
 17
0.0
 27
1.0
 37
0.0
 76
     0
330
17
331
64
  0
MLINESTYLE
  5
13
102
{ACAD_REACTORS
330
E
102
}
330
E
100
AcDbMlineStyle
  2
STANDARD
 70
     0
  3

 62
     0
 51
90.0
 52
90.0
 71
     2
 49
0.5
 62
   256
  6
BYLAYER
 49
-0.5
 62
   256
  6
BYLAYER
  0
ACDBPLACEHOLDER
  5
A97
102
{ACAD_REACTORS
330
A96
102
}
330
A96
  0
ENDSEC
  0
EOF
