  0
SECTION
  2
HEADER
  9
$ACADVER
  1
AC1015
  9
$ACADMAINTVER
 70
     6
  9
$DWGCODEPAGE
  3
ANSI_932
  9
$INSBASE
 10
0.0
 20
0.0
 30
0.0
  9
$EXTMIN
 10
0.0000000135560185
 20
-0.0000001317113174
 30
0.0
  9
$EXTMAX
 10
797.6000000135562
 20
551.5999998682888
 30
0.0
  9
$LIMMIN
 10
0.0
 20
0.0
  9
$LIMMAX
 10
840.0
 20
594.0
  9
$ORTHOMODE
 70
     0
  9
$REGENMODE
 70
     1
  9
$FILLMODE
 70
     1
  9
$QTEXTMODE
 70
     0
  9
$MIRRTEXT
 70
     1
  9
$LTSCALE
 40
2.0
  9
$ATTMODE
 70
     1
  9
$TEXTSIZE
 40
6.0
  9
$TRACEWID
 40
1.0
  9
$TEXTSTYLE
  7
STANDARD
  9
$CLAYER
  8
SEIHIN
  9
$CELTYPE
  6
BYLAYER
  9
$CECOLOR
 62
   256
  9
$CELTSCALE
 40
1.0
  9
$DISPSILH
 70
     0
  9
$DIMSCALE
 40
1.0
  9
$DIMASZ
 40
7.0
  9
$DIMEXO
 40
6.0
  9
$DIMDLI
 40
14.0
  9
$DIMRND
 40
0.0
  9
$DIMDLE
 40
0.0
  9
$DIMEXE
 40
3.0
  9
$DIMTP
 40
0.0
  9
$DIMTM
 40
0.0
  9
$DIMTXT
 40
6.0
  9
$DIMCEN
 40
150.0
  9
$DIMTSZ
 40
0.0
  9
$DIMTOL
 70
     0
  9
$DIMLIM
 70
     0
  9
$DIMTIH
 70
     0
  9
$DIMTOH
 70
     0
  9
$DIMSE1
 70
     0
  9
$DIMSE2
 70
     0
  9
$DIMTAD
 70
     3
  9
$DIMZIN
 70
     0
  9
$DIMBLK
  1

  9
$DIMASO
 70
     1
  9
$DIMSHO
 70
     1
  9
$DIMPOST
  1

  9
$DIMAPOST
  1

  9
$DIMALT
 70
     0
  9
$DIMALTD
 70
     2
  9
$DIMALTF
 40
25.4
  9
$DIMLFAC
 40
1.0
  9
$DIMTOFL
 70
     1
  9
$DIMTVP
 40
0.0
  9
$DIMTIX
 70
     0
  9
$DIMSOXD
 70
     0
  9
$DIMSAH
 70
     1
  9
$DIMBLK1
  1
OPEN
  9
$DIMBLK2
  1
OPEN
  9
$DIMSTYLE
  2
STANDARD
  9
$DIMCLRD
 70
   256
  9
$DIMCLRE
 70
   256
  9
$DIMCLRT
 70
   256
  9
$DIMTFAC
 40
1.0
  9
$DIMGAP
 40
2.0
  9
$DIMJUST
 70
     0
  9
$DIMSD1
 70
     0
  9
$DIMSD2
 70
     0
  9
$DIMTOLJ
 70
     1
  9
$DIMTZIN
 70
     0
  9
$DIMALTZ
 70
     0
  9
$DIMALTTZ
 70
     0
  9
$DIMUPT
 70
     0
  9
$DIMDEC
 70
     0
  9
$DIMTDEC
 70
     0
  9
$DIMALTU
 70
     2
  9
$DIMALTTD
 70
     2
  9
$DIMTXSTY
  7
STANDARD
  9
$DIMAUNIT
 70
     0
  9
$DIMADEC
 70
     0
  9
$DIMALTRND
 40
0.0
  9
$DIMAZIN
 70
     0
  9
$DIMDSEP
 70
    46
  9
$DIMATFIT
 70
     3
  9
$DIMFRAC
 70
     0
  9
$DIMLDRBLK
  1
OPEN
  9
$DIMLUNIT
 70
     2
  9
$DIMLWD
 70
    -1
  9
$DIMLWE
 70
    -1
  9
$DIMTMOVE
 70
     0
  9
$LUNITS
 70
     2
  9
$LUPREC
 70
     4
  9
$SKETCHINC
 40
1.0
  9
$FILLETRAD
 40
10.0
  9
$AUNITS
 70
     0
  9
$AUPREC
 70
     0
  9
$MENU
  1
.
  9
$ELEVATION
 40
0.0
  9
$PELEVATION
 40
0.0
  9
$THICKNESS
 40
0.0
  9
$LIMCHECK
 70
     0
  9
$CHAMFERA
 40
0.0
  9
$CHAMFERB
 40
0.0
  9
$CHAMFERC
 40
40.0
  9
$CHAMFERD
 40
0.0
  9
$SKPOLY
 70
     0
  9
$TDCREATE
 40
2451030.614786227
  9
$TDUCREATE
 40
2451030.239786227
  9
$TDUPDATE
 40
2455609.403760938
  9
$TDUUPDATE
 40
2455609.028760938
  9
$TDINDWG
 40
0.2787464005
  9
$TDUSRTIMER
 40
0.2787464005
  9
$USRTIMER
 70
     1
  9
$ANGBASE
 50
0.0
  9
$ANGDIR
 70
     0
  9
$PDMODE
 70
     0
  9
$PDSIZE
 40
0.0
  9
$PLINEWID
 40
0.0
  9
$SPLFRAME
 70
     0
  9
$SPLINETYPE
 70
     6
  9
$SPLINESEGS
 70
     8
  9
$HANDSEED
  5
50C2
  9
$SURFTAB1
 70
     6
  9
$SURFTAB2
 70
     6
  9
$SURFTYPE
 70
     6
  9
$SURFU
 70
     6
  9
$SURFV
 70
     6
  9
$UCSBASE
  2

  9
$UCSNAME
  2

  9
$UCSORG
 10
0.0
 20
0.0
 30
0.0
  9
$UCSXDIR
 10
1.0
 20
0.0
 30
0.0
  9
$UCSYDIR
 10
0.0
 20
1.0
 30
0.0
  9
$UCSORTHOREF
  2

  9
$UCSORTHOVIEW
 70
     0
  9
$UCSORGTOP
 10
0.0
 20
0.0
 30
0.0
  9
$UCSORGBOTTOM
 10
0.0
 20
0.0
 30
0.0
  9
$UCSORGLEFT
 10
0.0
 20
0.0
 30
0.0
  9
$UCSORGRIGHT
 10
0.0
 20
0.0
 30
0.0
  9
$UCSORGFRONT
 10
0.0
 20
0.0
 30
0.0
  9
$UCSORGBACK
 10
0.0
 20
0.0
 30
0.0
  9
$PUCSBASE
  2

  9
$PUCSNAME
  2

  9
$PUCSORG
 10
0.0
 20
0.0
 30
0.0
  9
$PUCSXDIR
 10
1.0
 20
0.0
 30
0.0
  9
$PUCSYDIR
 10
0.0
 20
1.0
 30
0.0
  9
$PUCSORTHOREF
  2

  9
$PUCSORTHOVIEW
 70
     0
  9
$PUCSORGTOP
 10
0.0
 20
0.0
 30
0.0
  9
$PUCSORGBOTTOM
 10
0.0
 20
0.0
 30
0.0
  9
$PUCSORGLEFT
 10
0.0
 20
0.0
 30
0.0
  9
$PUCSORGRIGHT
 10
0.0
 20
0.0
 30
0.0
  9
$PUCSORGFRONT
 10
0.0
 20
0.0
 30
0.0
  9
$PUCSORGBACK
 10
0.0
 20
0.0
 30
0.0
  9
$USERI1
 70
     0
  9
$USERI2
 70
     0
  9
$USERI3
 70
     0
  9
$USERI4
 70
     0
  9
$USERI5
 70
     0
  9
$USERR1
 40
0.0
  9
$USERR2
 40
0.0
  9
$USERR3
 40
0.0
  9
$USERR4
 40
0.0
  9
$USERR5
 40
0.0
  9
$WORLDVIEW
 70
     1
  9
$SHADEDGE
 70
     3
  9
$SHADEDIF
 70
    70
  9
$TILEMODE
 70
     1
  9
$MAXACTVP
 70
    16
  9
$PINSBASE
 10
0.0
 20
0.0
 30
0.0
  9
$PLIMCHECK
 70
     0
  9
$PEXTMIN
 10
-0.0128164049386896
 20
-0.0090630292066862
 30
-0.0015258207003583
  9
$PEXTMAX
 10
420.0128183607162
 20
297.0090644122207
 30
0.0000000349246037
  9
$PLIMMIN
 10
-30.66685116754002
 20
-9.990190459854741
  9
$PLIMMAX
 10
450.6668334081172
 20
361.9494725043409
  9
$UNITMODE
 70
     0
  9
$VISRETAIN
 70
     0
  9
$PLINEGEN
 70
     0
  9
$PSLTSCALE
 70
     1
  9
$TREEDEPTH
 70
  3020
  9
$CMLSTYLE
  2
STANDARD
  9
$CMLJUST
 70
     0
  9
$CMLSCALE
 40
1.0
  9
$PROXYGRAPHICS
 70
     1
  9
$MEASUREMENT
 70
     0
  9
$CELWEIGHT
370
    -1
  9
$ENDCAPS
280
     0
  9
$JOINSTYLE
280
     0
  9
$LWDISPLAY
290
     0
  9
$INSUNITS
 70
     0
  9
$HYPERLINKBASE
  1

  9
$STYLESHEET
  1
systemprinter.ctb
  9
$XEDIT
290
     1
  9
$CEPSNTYPE
380
     0
  9
$PSTYLEMODE
290
     1
  9
$FINGERPRINTGUID
  2
{91E25F26-0CBF-4C93-982E-B5F00895E654}
  9
$VERSIONGUID
  2
{B14C0E35-3F4A-47A6-AB51-6FD74700BA88}
  9
$EXTNAMES
290
     1
  9
$PSVPSCALE
 40
0.0
  9
$OLESTARTUP
290
     0
  0
ENDSEC
  0
SECTION
  2
CLASSES
  0
CLASS
  1
ACDBDICTIONARYWDFLT
  2
AcDbDictionaryWithDefault
  3
ObjectDBX Classes
 90
        0
280
     0
281
     0
  0
CLASS
  1
ACDBPLACEHOLDER
  2
AcDbPlaceHolder
  3
ObjectDBX Classes
 90
        0
280
     0
281
     0
  0
CLASS
  1
LAYOUT
  2
AcDbLayout
  3
ObjectDBX Classes
 90
        0
280
     0
281
     0
  0
CLASS
  1
DUMMY
  2
AcDbLongTransaction
  3
DUMMY
 90
        0
280
     0
281
     0
  0
CLASS
  1
LWPOLYLINE
  2
AcDbPolyline
  3
AutoCAD 2000
 90
        0
280
     0
281
     1
  0
CLASS
  1
HATCH
  2
AcDbHatch
  3
AutoCAD 2000
 90
        0
280
     0
281
     1
  0
CLASS
  1
XRECORD
  2
AcDbXrecord
  3
AutoCAD 2000
 90
        0
280
     0
281
     0
  0
CLASS
  1
DUMMY
  2
AcDbLongTransaction
  3
DUMMY
 90
        0
280
     0
281
     0
  0
CLASS
  1
LWPOLYLINE
  2
AcDbPolyline
  3
AutoCAD 2000
 90
        0
280
     0
281
     1
  0
CLASS
  1
HATCH
  2
AcDbHatch
  3
AutoCAD 2000
 90
        0
280
     0
281
     1
  0
CLASS
  1
XRECORD
  2
AcDbXrecord
  3
AutoCAD 2000
 90
        0
280
     0
281
     0
  0
CLASS
  1
DUMMY
  2
AcDbLongTransaction
  3
DUMMY
 90
        0
280
     0
281
     0
  0
CLASS
  1
LWPOLYLINE
  2
AcDbPolyline
  3
AutoCAD 2000
 90
        0
280
     0
281
     1
  0
CLASS
  1
HATCH
  2
AcDbHatch
  3
AutoCAD 2000
 90
        0
280
     0
281
     1
  0
CLASS
  1
XRECORD
  2
AcDbXrecord
  3
AutoCAD 2000
 90
        0
280
     0
281
     0
  0
CLASS
  1
DUMMY
  2
AcDbLongTransaction
  3
DUMMY
 90
        0
280
     0
281
     0
  0
CLASS
  1
LWPOLYLINE
  2
AcDbPolyline
  3
AutoCAD 2000
 90
        0
280
     0
281
     1
  0
CLASS
  1
HATCH
  2
AcDbHatch
  3
AutoCAD 2000
 90
        0
280
     0
281
     1
  0
CLASS
  1
XRECORD
  2
AcDbXrecord
  3
AutoCAD 2000
 90
        0
280
     0
281
     0
  0
ENDSEC
  0
SECTION
  2
TABLES
  0
TABLE
  2
VPORT
  5
8
330
0
100
AcDbSymbolTable
 70
     2
  0
VPORT
  5
50C1
330
8
100
AcDbSymbolTableRecord
100
AcDbViewportTableRecord
  2
*Active
 70
     0
 10
0.0
 20
0.0
 11
1.0
 21
1.0
 12
411.1124883490152
 22
294.2335733881261
 13
0.0
 23
0.0
 14
5.0
 24
5.0
 15
0.0
 25
0.0
 16
0.0
 26
0.0
 36
1.0
 17
0.0
 27
0.0
 37
0.0
 40
637.493496445583
 41
1.651537335285505
 42
50.0
 43
0.0
 44
0.0
 50
0.0
 51
0.0
 71
     0
 72
   100
 73
     1
 74
     0
 75
     0
 76
     0
 77
     0
 78
     0
281
     0
 65
     1
110
0.0
120
0.0
130
0.0
111
1.0
121
0.0
131
0.0
112
0.0
122
1.0
132
0.0
 79
     0
146
0.0
  0
ENDTAB
  0
TABLE
  2
LTYPE
  5
5
330
0
100
AcDbSymbolTable
 70
     3
  0
LTYPE
  5
14
330
5
100
AcDbSymbolTableRecord
100
AcDbLinetypeTableRecord
  2
BYBLOCK
 70
     0
  3

 72
    65
 73
     0
 40
0.0
  0
LTYPE
  5
15
330
5
100
AcDbSymbolTableRecord
100
AcDbLinetypeTableRecord
  2
BYLAYER
 70
     0
  3

 72
    65
 73
     0
 40
0.0
  0
LTYPE
  5
16
330
5
100
AcDbSymbolTableRecord
100
AcDbLinetypeTableRecord
  2
CONTINUOUS
 70
     0
  3
Solid line
 72
    65
 73
     0
 40
0.0
  0
LTYPE
  5
115
330
5
100
AcDbSymbolTableRecord
100
AcDbLinetypeTableRecord
  2
PHANTOM
 70
     0
  3
______  __  __  ______  __  __  ______  __  __ 
 72
    65
 73
     6
 40
2.5
 49
1.25
 74
     0
 49
-0.25
 74
     0
 49
0.25
 74
     0
 49
-0.25
 74
     0
 49
0.25
 74
     0
 49
-0.25
 74
     0
  0
LTYPE
  5
135
330
5
100
AcDbSymbolTableRecord
100
AcDbLinetypeTableRecord
  2
CENTER
 70
     0
  3
____ _ ____ _ ____ _ ____ _ ____ _ ____ _ ____ 
 72
    65
 73
     4
 40
2.0
 49
1.25
 74
     0
 49
-0.25
 74
     0
 49
0.25
 74
     0
 49
-0.25
 74
     0
  0
ENDTAB
  0
TABLE
  2
LAYER
  5
2
330
0
100
AcDbSymbolTable
 70
     8
  0
LAYER
  5
F
330
2
100
AcDbSymbolTableRecord
100
AcDbLayerTableRecord
  2
0
 70
     0
 62
     7
  6
CONTINUOUS
370
    -3
390
A97
  0
LAYER
  5
62
330
2
100
AcDbSymbolTableRecord
100
AcDbLayerTableRecord
  2
VIEWPORT
 70
     0
 62
     7
  6
CONTINUOUS
370
    -3
390
A97
  0
LAYER
  5
143
330
2
100
AcDbSymbolTableRecord
100
AcDbLayerTableRecord
  2
SEIHIN
 70
     0
 62
     3
  6
CONTINUOUS
370
    -3
390
A97
  0
LAYER
  5
444
330
2
100
AcDbSymbolTableRecord
100
AcDbLayerTableRecord
  2
DEFPOINTS
 70
     0
 62
     7
  6
CONTINUOUS
290
     0
370
    -3
390
A97
  0
LAYER
  5
482
330
2
100
AcDbSymbolTableRecord
100
AcDbLayerTableRecord
  2
SUNPOU
 70
     0
 62
     4
  6
CONTINUOUS
370
    -3
390
A97
  0
LAYER
  5
5D4
330
2
100
AcDbSymbolTableRecord
100
AcDbLayerTableRecord
  2
CENTER L
 70
     0
 62
     1
  6
CENTER
370
    -3
390
A97
  0
LAYER
  5
3D95
330
2
100
AcDbSymbolTableRecord
100
AcDbLayerTableRecord
  2
ZUWAKU
 70
     0
 62
     7
  6
CONTINUOUS
370
    -3
390
A97
  0
LAYER
  5
3D96
330
2
100
AcDbSymbolTableRecord
100
AcDbLayerTableRecord
  2
moji
 70
     0
 62
     2
  6
CONTINUOUS
370
    -3
390
A97
  0
ENDTAB
  0
TABLE
  2
STYLE
  5
3
330
0
100
AcDbSymbolTable
 70
     2
  0
STYLE
  5
10
330
3
100
AcDbSymbolTableRecord
100
AcDbTextStyleTableRecord
  2
STANDARD
 70
     0
 40
0.0
 41
1.0
 50
0.0
 71
     0
 42
6.0
  3
TXT
  4
bigfont.shx
  0
STYLE
  5
3D97
330
3
100
AcDbSymbolTableRecord
100
AcDbTextStyleTableRecord
  2
ｽﾀｲﾙ1
 70
     0
 40
0.0
 41
1.0
 50
0.0
 71
     0
 42
2.5
  3
MS PGothic.ttf
  4

1001
ACAD
1000
MS PGothic
1071
    32818
  0
ENDTAB
  0
TABLE
  2
VIEW
  5
6
330
0
100
AcDbSymbolTable
 70
     0
  0
ENDTAB
  0
TABLE
  2
UCS
  5
7
330
0
100
AcDbSymbolTable
 70
     0
  0
ENDTAB
  0
TABLE
  2
APPID
  5
9
330
0
100
AcDbSymbolTable
 70
     1
  0
APPID
  5
11
330
9
100
AcDbSymbolTableRecord
100
AcDbRegAppTableRecord
  2
ACAD
 70
     0
  0
ENDTAB
  0
TABLE
  2
DIMSTYLE
  5
A
330
0
100
AcDbSymbolTable
 70
     1
100
AcDbDimStyleTable
  0
DIMSTYLE
105
1D
102
{ACAD_REACTORS
330
4E61
330
4E62
330
4E64
330
4E65
330
4E66
330
4E77
330
4E78
330
4EE1
330
4EF9
330
4F3A
330
4F3B
330
4F3C
330
4F3D
330
4F48
102
}
330
A
100
AcDbSymbolTableRecord
100
AcDbDimStyleTableRecord
  2
STANDARD
 70
     0
340
10
  0
ENDTAB
  0
TABLE
  2
BLOCK_RECORD
  5
1
330
0
100
AcDbSymbolTable
 70
    15
  0
BLOCK_RECORD
  5
1A
330
1
100
AcDbSymbolTableRecord
100
AcDbBlockTableRecord
  2
*MODEL_SPACE
340
A9A
  0
BLOCK_RECORD
  5
17
330
1
100
AcDbSymbolTableRecord
100
AcDbBlockTableRecord
  2
*PAPER_SPACE
340
A9B
  0
BLOCK_RECORD
  5
6D
330
1
100
AcDbSymbolTableRecord
100
AcDbBlockTableRecord
  2
_OPEN
340
0
102
{BLKREFS
331
503A
331
503B
331
5045
331
5046
331
504E
331
504F
331
5057
331
5058
331
5060
331
5061
331
5069
331
506A
331
5072
331
5073
331
507B
331
507C
331
5086
331
5087
331
508F
331
5090
331
5098
331
5099
331
50A1
331
50A2
331
50AA
331
50AB
331
50B5
331
50B6
102
}
  0
BLOCK_RECORD
  5
4F85
330
1
100
AcDbSymbolTableRecord
100
AcDbBlockTableRecord
  2
*D1
340
0
  0
BLOCK_RECORD
  5
4F93
330
1
100
AcDbSymbolTableRecord
100
AcDbBlockTableRecord
  2
*D2
340
0
  0
BLOCK_RECORD
  5
4FA1
330
1
100
AcDbSymbolTableRecord
100
AcDbBlockTableRecord
  2
*D3
340
0
  0
BLOCK_RECORD
  5
4FAD
330
1
100
AcDbSymbolTableRecord
100
AcDbBlockTableRecord
  2
*D4
340
0
  0
BLOCK_RECORD
  5
4FB9
330
1
100
AcDbSymbolTableRecord
100
AcDbBlockTableRecord
  2
*D5
340
0
  0
BLOCK_RECORD
  5
4FC5
330
1
100
AcDbSymbolTableRecord
100
AcDbBlockTableRecord
  2
*D6
340
0
  0
BLOCK_RECORD
  5
4FD1
330
1
100
AcDbSymbolTableRecord
100
AcDbBlockTableRecord
  2
*D7
340
0
  0
BLOCK_RECORD
  5
4FDD
330
1
100
AcDbSymbolTableRecord
100
AcDbBlockTableRecord
  2
*D8
340
0
  0
BLOCK_RECORD
  5
4FE9
330
1
100
AcDbSymbolTableRecord
100
AcDbBlockTableRecord
  2
*D9
340
0
  0
BLOCK_RECORD
  5
4FF7
330
1
100
AcDbSymbolTableRecord
100
AcDbBlockTableRecord
  2
*D10
340
0
  0
BLOCK_RECORD
  5
5003
330
1
100
AcDbSymbolTableRecord
100
AcDbBlockTableRecord
  2
*D11
340
0
  0
BLOCK_RECORD
  5
500F
330
1
100
AcDbSymbolTableRecord
100
AcDbBlockTableRecord
  2
*D12
340
0
  0
BLOCK_RECORD
  5
501B
330
1
100
AcDbSymbolTableRecord
100
AcDbBlockTableRecord
  2
*D13
340
0
  0
BLOCK_RECORD
  5
5027
330
1
100
AcDbSymbolTableRecord
100
AcDbBlockTableRecord
  2
*D14
340
0
  0
ENDTAB
  0
ENDSEC
  0
SECTION
  2
BLOCKS
  0
BLOCK
  5
1B
330
1A
100
AcDbEntity
  8
0
100
AcDbBlockBegin
  2
*MODEL_SPACE
 70
     0
 71
     0
 10
0.0
 20
0.0
 30
0.0
  3
*MODEL_SPACE
  1

  0
ENDBLK
  5
1C
330
1A
100
AcDbEntity
  8
0
100
AcDbBlockEnd
  0
BLOCK
  5
18
330
17
100
AcDbEntity
 67
     1
  8
0
100
AcDbBlockBegin
  2
*PAPER_SPACE
 70
     0
 71
     0
 10
0.0
 20
0.0
 30
0.0
  3
*PAPER_SPACE
  1

  0
ENDBLK
  5
19
330
17
100
AcDbEntity
 67
     1
  8
0
100
AcDbBlockEnd
  0
BLOCK
  5
6E
330
6D
100
AcDbEntity
  8
0
100
AcDbBlockBegin
  2
_OPEN
 70
     0
 71
     0
 10
0.0
 20
0.0
 30
0.0
  3
_OPEN
  1

  0
LINE
  5
6F
330
6D
100
AcDbEntity
  8
0
  6
ByBlock
 62
     0
100
AcDbLine
 10
-1.0
 20
0.1666666666666667
 30
0.0
 11
0.0
 21
0.0
 31
0.0
  0
LINE
  5
70
330
6D
100
AcDbEntity
  8
0
  6
ByBlock
 62
     0
100
AcDbLine
 10
0.0
 20
0.0
 30
0.0
 11
-1.0
 21
-0.1666666666666667
 31
0.0
  0
LINE
  5
71
330
6D
100
AcDbEntity
  8
0
  6
ByBlock
 62
     0
100
AcDbLine
 10
0.0
 20
0.0
 30
0.0
 11
-1.0
 21
0.0
 31
0.0
  0
ENDBLK
  5
72
330
6D
100
AcDbEntity
  8
0
100
AcDbBlockEnd
  0
BLOCK
  5
4F91
330
4F85
100
AcDbEntity
  8
0
100
AcDbBlockBegin
  2
*D1
 70
     1
 71
     0
 10
0.0
 20
0.0
 30
0.0
  3
*D1
  1

  0
LINE
  5
5035
330
4F85
100
AcDbEntity
  8
SUNPOU
 62
     4
370
    -2
100
AcDbLine
 10
429.3666968019268
 20
261.4853274142265
 30
0.0
 11
429.3666968019268
 21
307.3131114613038
 31
0.0
  0
LINE
  5
5036
330
4F85
100
AcDbEntity
  8
SUNPOU
 62
     4
370
    -2
100
AcDbLine
 10
414.3666968019269
 20
261.4853274142266
 30
0.0
 11
414.3666968019269
 21
307.3131114613038
 31
0.0
  0
LINE
  5
5037
330
4F85
100
AcDbEntity
  8
SUNPOU
 62
     4
370
    -2
100
AcDbLine
 10
436.3666968019268
 20
304.3131114613038
 30
0.0
 11
443.3666968019268
 21
304.3131114613038
 31
0.0
  0
LINE
  5
5038
330
4F85
100
AcDbEntity
  8
SUNPOU
 62
     4
370
    -2
100
AcDbLine
 10
407.3666968019269
 20
304.3131114613038
 30
0.0
 11
400.3666968019269
 21
304.3131114613038
 31
0.0
  0
LINE
  5
5039
330
4F85
100
AcDbEntity
  8
SUNPOU
 62
     4
370
    -2
100
AcDbLine
 10
429.3666968019268
 20
304.3131114613038
 30
0.0
 11
414.3666968019269
 21
304.3131114613038
 31
0.0
  0
INSERT
  5
503A
330
4F85
100
AcDbEntity
  8
SUNPOU
 62
     4
370
    -2
100
AcDbBlockReference
  2
_OPEN
 10
429.3666968019268
 20
304.3131114613038
 30
0.0
 41
7.0
 42
7.0
 43
7.0
 50
180.0
  0
INSERT
  5
503B
330
4F85
100
AcDbEntity
  8
SUNPOU
 62
     4
370
    -2
100
AcDbBlockReference
  2
_OPEN
 10
414.3666968019269
 20
304.3131114613038
 30
0.0
 41
7.0
 42
7.0
 43
7.0
  0
MTEXT
  5
503C
330
4F85
100
AcDbEntity
  8
SUNPOU
 62
     4
100
AcDbMText
 10
421.8666968019268
 20
309.3131114613038
 30
0.0
 40
6.0
 41
0.0
 71
     5
 72
     1
  1
\A1;15
 73
     1
 44
1.0
  0
POINT
  5
503D
330
4F85
100
AcDbEntity
  8
DEFPOINTS
 62
     0
100
AcDbPoint
 10
429.3666968019268
 20
255.4853274142265
 30
0.0
  0
POINT
  5
503E
330
4F85
100
AcDbEntity
  8
DEFPOINTS
 62
     0
100
AcDbPoint
 10
414.3666968019269
 20
255.4853274142266
 30
0.0
  0
POINT
  5
503F
330
4F85
100
AcDbEntity
  8
DEFPOINTS
 62
     0
100
AcDbPoint
 10
414.3666968019269
 20
304.3131114613038
 30
0.0
  0
ENDBLK
  5
4F92
330
4F85
100
AcDbEntity
  8
0
100
AcDbBlockEnd
  0
BLOCK
  5
4F9F
330
4F93
100
AcDbEntity
  8
0
100
AcDbBlockBegin
  2
*D2
 70
     1
 71
     0
 10
0.0
 20
0.0
 30
0.0
  3
*D2
  1

  0
LINE
  5
5040
330
4F93
100
AcDbEntity
  8
SUNPOU
 62
     4
370
    -2
100
AcDbLine
 10
442.592440607194
 20
184.9211676484359
 30
0.0
 11
452.8279895977328
 21
159.3332126519846
 31
0.0
  0
LINE
  5
5041
330
4F93
100
AcDbEntity
  8
SUNPOU
 62
     4
370
    -2
100
AcDbLine
 10
441.1979710929415
 20
184.3633598427351
 30
0.0
 11
451.4335200834804
 21
158.7754048462837
 31
0.0
  0
LINE
  5
5042
330
4F93
100
AcDbEntity
  8
SUNPOU
 62
     4
370
    -2
100
AcDbLine
 10
458.2130878219965
 20
164.7184440411667
 30
0.0
 11
464.7123925144404
 21
167.3182591335871
 31
0.0
  0
LINE
  5
5043
330
4F93
100
AcDbEntity
  8
SUNPOU
 62
     4
370
    -2
100
AcDbLine
 10
443.8200089228563
 20
158.961006050625
 30
0.0
 11
418.7512622520014
 21
148.9331478370034
 31
0.0
  0
LINE
  5
5044
330
4F93
100
AcDbEntity
  8
SUNPOU
 62
     4
370
    -2
100
AcDbLine
 10
451.7137831295527
 20
162.1186289487463
 30
0.0
 11
450.3193136153002
 21
161.5608211430454
 31
0.0
  0
INSERT
  5
5045
330
4F93
100
AcDbEntity
  8
SUNPOU
 62
     4
370
    -2
100
AcDbBlockReference
  2
_OPEN
 10
451.7137831295527
 20
162.1186289487463
 30
0.0
 41
7.0
 42
7.0
 43
7.0
 50
201.802117894365
  0
INSERT
  5
5046
330
4F93
100
AcDbEntity
  8
SUNPOU
 62
     4
370
    -2
100
AcDbBlockReference
  2
_OPEN
 10
450.3193136153002
 20
161.5608211430454
 30
0.0
 41
7.0
 42
7.0
 43
7.0
 50
21.80211789436492
  0
MTEXT
  5
5047
330
4F93
100
AcDbEntity
  8
SUNPOU
 62
     4
100
AcDbMText
 10
426.1789724609066
 20
157.2895298922067
 30
0.0
 40
6.0
 41
0.0
 71
     5
 72
     1
  1
\A1;t1.5
 11
0.9284720989205541
 21
0.3714021560600596
 31
0.0
 73
     1
 44
1.0
  0
POINT
  5
5048
330
4F93
100
AcDbEntity
  8
DEFPOINTS
 62
     0
100
AcDbPoint
 10
440.3640276708336
 20
190.4920002419592
 30
0.0
  0
POINT
  5
5049
330
4F93
100
AcDbEntity
  8
DEFPOINTS
 62
     0
100
AcDbPoint
 10
438.9695581565811
 20
189.9341924362584
 30
0.0
  0
POINT
  5
504A
330
4F93
100
AcDbEntity
  8
DEFPOINTS
 62
     0
100
AcDbPoint
 10
450.3193136153002
 20
161.5608211430454
 30
0.0
  0
ENDBLK
  5
4FA0
330
4F93
100
AcDbEntity
  8
0
100
AcDbBlockEnd
  0
BLOCK
  5
4FAB
330
4FA1
100
AcDbEntity
  8
0
100
AcDbBlockBegin
  2
*D3
 70
     1
 71
     0
 10
0.0
 20
0.0
 30
0.0
  3
*D3
  1

  0
LINE
  5
504B
330
4FA1
100
AcDbEntity
  8
SUNPOU
 62
     4
370
    -2
100
AcDbLine
 10
419.9375569472384
 20
257.7136714723511
 30
0.0
 11
447.9484080554317
 21
268.9180119156284
 31
0.0
  0
LINE
  5
504C
330
4FA1
100
AcDbEntity
  8
SUNPOU
 62
     4
370
    -2
100
AcDbLine
 10
445.9348878161451
 20
192.7203443000839
 30
0.0
 11
473.9457389243384
 21
203.9246847433611
 31
0.0
  0
LINE
  5
504D
330
4FA1
100
AcDbEntity
  8
SUNPOU
 62
     4
370
    -2
100
AcDbLine
 10
447.7627127172547
 20
261.3045030503693
 30
0.0
 11
468.5605741172039
 21
209.3098495504956
 31
0.0
  0
INSERT
  5
504E
330
4FA1
100
AcDbEntity
  8
SUNPOU
 62
     4
370
    -2
100
AcDbBlockReference
  2
_OPEN
 10
445.1629779827759
 20
267.803839886566
 30
0.0
 41
7.0
 42
7.0
 43
7.0
 50
111.8014094863516
  0
INSERT
  5
504F
330
4FA1
100
AcDbEntity
  8
SUNPOU
 62
     4
370
    -2
100
AcDbBlockReference
  2
_OPEN
 10
471.1603088516826
 20
202.8105127142988
 30
0.0
 41
7.0
 42
7.0
 43
7.0
 50
291.8014094863516
  0
MTEXT
  5
5050
330
4FA1
100
AcDbEntity
  8
SUNPOU
 62
     4
100
AcDbMText
 10
462.8040268716557
 20
237.1641296822029
 30
0.0
 40
6.0
 41
0.0
 71
     5
 72
     1
  1
\A1;70
 11
0.3713906763541005
 21
-0.9284766908852606
 31
0.0
 73
     1
 44
1.0
  0
POINT
  5
5051
330
4FA1
100
AcDbEntity
  8
DEFPOINTS
 62
     0
100
AcDbPoint
 10
414.3666968019268
 20
255.4853274142265
 30
0.0
  0
POINT
  5
5052
330
4FA1
100
AcDbEntity
  8
DEFPOINTS
 62
     0
100
AcDbPoint
 10
440.3640276708335
 20
190.4920002419593
 30
0.0
  0
POINT
  5
5053
330
4FA1
100
AcDbEntity
  8
DEFPOINTS
 62
     0
100
AcDbPoint
 10
471.1603088516826
 20
202.8105127142988
 30
0.0
  0
ENDBLK
  5
4FAC
330
4FA1
100
AcDbEntity
  8
0
100
AcDbBlockEnd
  0
BLOCK
  5
4FB7
330
4FAD
100
AcDbEntity
  8
0
100
AcDbBlockBegin
  2
*D4
 70
     1
 71
     0
 10
0.0
 20
0.0
 30
0.0
  3
*D4
  1

  0
LINE
  5
5054
330
4FAD
100
AcDbEntity
  8
SUNPOU
 62
     4
370
    -2
100
AcDbLine
 10
434.1075581565811
 20
423.3067633037853
 30
0.0
 11
473.6091408428657
 21
423.3067633037853
 31
0.0
  0
LINE
  5
5055
330
4FAD
100
AcDbEntity
  8
SUNPOU
 62
     4
370
    -2
100
AcDbLine
 10
434.1075581565811
 20
368.3067633037853
 30
0.0
 11
473.6091408428656
 21
368.3067633037853
 31
0.0
  0
LINE
  5
5056
330
4FAD
100
AcDbEntity
  8
SUNPOU
 62
     4
370
    -2
100
AcDbLine
 10
470.6091408428657
 20
416.3067633037853
 30
0.0
 11
470.6091408428656
 21
375.3067633037853
 31
0.0
  0
INSERT
  5
5057
330
4FAD
100
AcDbEntity
  8
SUNPOU
 62
     4
370
    -2
100
AcDbBlockReference
  2
_OPEN
 10
470.6091408428657
 20
423.3067633037853
 30
0.0
 41
7.0
 42
7.0
 43
7.0
 50
90.0
  0
INSERT
  5
5058
330
4FAD
100
AcDbEntity
  8
SUNPOU
 62
     4
370
    -2
100
AcDbBlockReference
  2
_OPEN
 10
470.6091408428656
 20
368.3067633037853
 30
0.0
 41
7.0
 42
7.0
 43
7.0
 50
270.0
  0
MTEXT
  5
5059
330
4FAD
100
AcDbEntity
  8
SUNPOU
 62
     4
100
AcDbMText
 10
465.6091408428655
 20
395.8067633037853
 30
0.0
 40
6.0
 41
0.0
 71
     5
 72
     1
  1
\A1;55
 11
6.123031769111886E-17
 21
1.0
 31
0.0
 73
     1
 44
1.0
  0
POINT
  5
505A
330
4FAD
100
AcDbEntity
  8
DEFPOINTS
 62
     0
100
AcDbPoint
 10
428.1075581565811
 20
423.3067633037853
 30
0.0
  0
POINT
  5
505B
330
4FAD
100
AcDbEntity
  8
DEFPOINTS
 62
     0
100
AcDbPoint
 10
428.1075581565811
 20
368.3067633037853
 30
0.0
  0
POINT
  5
505C
330
4FAD
100
AcDbEntity
  8
DEFPOINTS
 62
     0
100
AcDbPoint
 10
470.6091408428656
 20
368.3067633037853
 30
0.0
  0
ENDBLK
  5
4FB8
330
4FAD
100
AcDbEntity
  8
0
100
AcDbBlockEnd
  0
BLOCK
  5
4FC3
330
4FB9
100
AcDbEntity
  8
0
100
AcDbBlockBegin
  2
*D5
 70
     1
 71
     0
 10
0.0
 20
0.0
 30
0.0
  3
*D5
  1

  0
LINE
  5
505D
330
4FB9
100
AcDbEntity
  8
SUNPOU
 62
     4
370
    -2
100
AcDbLine
 10
241.8666581565811
 20
244.5541924362584
 30
0.0
 11
213.0877155589392
 21
244.5541924362584
 31
0.0
  0
LINE
  5
505E
330
4FB9
100
AcDbEntity
  8
SUNPOU
 62
     4
370
    -2
100
AcDbLine
 10
432.9695581565811
 20
189.9341924362583
 30
0.0
 11
213.0877155589392
 21
189.9341924362584
 31
0.0
  0
LINE
  5
505F
330
4FB9
100
AcDbEntity
  8
SUNPOU
 62
     4
370
    -2
100
AcDbLine
 10
216.0877155589392
 20
237.5541924362584
 30
0.0
 11
216.0877155589392
 21
196.9341924362584
 31
0.0
  0
INSERT
  5
5060
330
4FB9
100
AcDbEntity
  8
SUNPOU
 62
     4
370
    -2
100
AcDbBlockReference
  2
_OPEN
 10
216.0877155589392
 20
244.5541924362584
 30
0.0
 41
7.0
 42
7.0
 43
7.0
 50
90.0
  0
INSERT
  5
5061
330
4FB9
100
AcDbEntity
  8
SUNPOU
 62
     4
370
    -2
100
AcDbBlockReference
  2
_OPEN
 10
216.0877155589392
 20
189.9341924362584
 30
0.0
 41
7.0
 42
7.0
 43
7.0
 50
270.0
  0
MTEXT
  5
5062
330
4FB9
100
AcDbEntity
  8
SUNPOU
 62
     4
100
AcDbMText
 10
211.0877155589392
 20
217.2441924362584
 30
0.0
 40
6.0
 41
0.0
 71
     5
 72
     1
  1
\A1;55
 11
6.123031769111886E-17
 21
1.0
 31
0.0
 73
     1
 44
1.0
  0
POINT
  5
5063
330
4FB9
100
AcDbEntity
  8
DEFPOINTS
 62
     0
100
AcDbPoint
 10
247.8666581565811
 20
244.5541924362584
 30
0.0
  0
POINT
  5
5064
330
4FB9
100
AcDbEntity
  8
DEFPOINTS
 62
     0
100
AcDbPoint
 10
438.9695581565811
 20
189.9341924362583
 30
0.0
  0
POINT
  5
5065
330
4FB9
100
AcDbEntity
  8
DEFPOINTS
 62
     0
100
AcDbPoint
 10
216.0877155589392
 20
189.9341924362584
 30
0.0
  0
ENDBLK
  5
4FC4
330
4FB9
100
AcDbEntity
  8
0
100
AcDbBlockEnd
  0
BLOCK
  5
4FCF
330
4FC5
100
AcDbEntity
  8
0
100
AcDbBlockBegin
  2
*D6
 70
     1
 71
     0
 10
0.0
 20
0.0
 30
0.0
  3
*D6
  1

  0
LINE
  5
5066
330
4FC5
100
AcDbEntity
  8
SUNPOU
 62
     4
370
    -2
100
AcDbLine
 10
246.366658156581
 20
248.5541924362584
 30
0.0
 11
246.366658156581
 21
307.3131114613038
 31
0.0
  0
LINE
  5
5067
330
4FC5
100
AcDbEntity
  8
SUNPOU
 62
     4
370
    -2
100
AcDbLine
 10
414.3666968019269
 20
261.4853274142266
 30
0.0
 11
414.3666968019269
 21
307.3131114613038
 31
0.0
  0
LINE
  5
5068
330
4FC5
100
AcDbEntity
  8
SUNPOU
 62
     4
370
    -2
100
AcDbLine
 10
253.366658156581
 20
304.3131114613038
 30
0.0
 11
407.3666968019269
 21
304.3131114613038
 31
0.0
  0
INSERT
  5
5069
330
4FC5
100
AcDbEntity
  8
SUNPOU
 62
     4
370
    -2
100
AcDbBlockReference
  2
_OPEN
 10
246.366658156581
 20
304.3131114613038
 30
0.0
 41
7.0
 42
7.0
 43
7.0
 50
180.0
  0
INSERT
  5
506A
330
4FC5
100
AcDbEntity
  8
SUNPOU
 62
     4
370
    -2
100
AcDbBlockReference
  2
_OPEN
 10
414.3666968019269
 20
304.3131114613038
 30
0.0
 41
7.0
 42
7.0
 43
7.0
  0
MTEXT
  5
506B
330
4FC5
100
AcDbEntity
  8
SUNPOU
 62
     4
100
AcDbMText
 10
330.366677479254
 20
309.3131114613038
 30
0.0
 40
6.0
 41
0.0
 71
     5
 72
     1
  1
\A1;168
 73
     1
 44
1.0
  0
POINT
  5
506C
330
4FC5
100
AcDbEntity
  8
DEFPOINTS
 62
     0
100
AcDbPoint
 10
246.366658156581
 20
242.5541924362584
 30
0.0
  0
POINT
  5
506D
330
4FC5
100
AcDbEntity
  8
DEFPOINTS
 62
     0
100
AcDbPoint
 10
414.3666968019269
 20
255.4853274142266
 30
0.0
  0
POINT
  5
506E
330
4FC5
100
AcDbEntity
  8
DEFPOINTS
 62
     0
100
AcDbPoint
 10
414.3666968019269
 20
304.3131114613038
 30
0.0
  0
ENDBLK
  5
4FD0
330
4FC5
100
AcDbEntity
  8
0
100
AcDbBlockEnd
  0
BLOCK
  5
4FDB
330
4FD1
100
AcDbEntity
  8
0
100
AcDbBlockBegin
  2
*D7
 70
     1
 71
     0
 10
0.0
 20
0.0
 30
0.0
  3
*D7
  1

  0
LINE
  5
506F
330
4FD1
100
AcDbEntity
  8
SUNPOU
 62
     4
370
    -2
100
AcDbLine
 10
289.6167581565811
 20
223.5540924362583
 30
0.0
 11
289.6167581565811
 21
291.809476385808
 31
0.0
  0
LINE
  5
5070
330
4FD1
100
AcDbEntity
  8
SUNPOU
 62
     4
370
    -2
100
AcDbLine
 10
414.3666968019269
 20
261.4853274142266
 30
0.0
 11
414.3666968019269
 21
291.809476385808
 31
0.0
  0
LINE
  5
5071
330
4FD1
100
AcDbEntity
  8
SUNPOU
 62
     4
370
    -2
100
AcDbLine
 10
296.6167581565811
 20
288.809476385808
 30
0.0
 11
407.3666968019269
 21
288.809476385808
 31
0.0
  0
INSERT
  5
5072
330
4FD1
100
AcDbEntity
  8
SUNPOU
 62
     4
370
    -2
100
AcDbBlockReference
  2
_OPEN
 10
289.6167581565811
 20
288.809476385808
 30
0.0
 41
7.0
 42
7.0
 43
7.0
 50
180.0
  0
INSERT
  5
5073
330
4FD1
100
AcDbEntity
  8
SUNPOU
 62
     4
370
    -2
100
AcDbBlockReference
  2
_OPEN
 10
414.3666968019269
 20
288.809476385808
 30
0.0
 41
7.0
 42
7.0
 43
7.0
  0
MTEXT
  5
5074
330
4FD1
100
AcDbEntity
  8
SUNPOU
 62
     4
100
AcDbMText
 10
351.991727479254
 20
293.809476385808
 30
0.0
 40
6.0
 41
0.0
 71
     5
 72
     1
  1
\A1;125
 73
     1
 44
1.0
  0
POINT
  5
5075
330
4FD1
100
AcDbEntity
  8
DEFPOINTS
 62
     0
100
AcDbPoint
 10
289.6167581565811
 20
217.5540924362583
 30
0.0
  0
POINT
  5
5076
330
4FD1
100
AcDbEntity
  8
DEFPOINTS
 62
     0
100
AcDbPoint
 10
414.3666968019269
 20
255.4853274142266
 30
0.0
  0
POINT
  5
5077
330
4FD1
100
AcDbEntity
  8
DEFPOINTS
 62
     0
100
AcDbPoint
 10
414.3666968019269
 20
288.809476385808
 30
0.0
  0
ENDBLK
  5
4FDC
330
4FD1
100
AcDbEntity
  8
0
100
AcDbBlockEnd
  0
BLOCK
  5
4FE7
330
4FDD
100
AcDbEntity
  8
0
100
AcDbBlockBegin
  2
*D8
 70
     1
 71
     0
 10
0.0
 20
0.0
 30
0.0
  3
*D8
  1

  0
LINE
  5
5078
330
4FDD
100
AcDbEntity
  8
SUNPOU
 62
     4
370
    -2
100
AcDbLine
 10
369.3666581565812
 20
232.8541924362584
 30
0.0
 11
369.3666581565812
 21
277.4241831875747
 31
0.0
  0
LINE
  5
5079
330
4FDD
100
AcDbEntity
  8
SUNPOU
 62
     4
370
    -2
100
AcDbLine
 10
414.3666968019269
 20
261.4853274142266
 30
0.0
 11
414.3666968019269
 21
277.4241831875747
 31
0.0
  0
LINE
  5
507A
330
4FDD
100
AcDbEntity
  8
SUNPOU
 62
     4
370
    -2
100
AcDbLine
 10
376.3666581565812
 20
274.4241831875747
 30
0.0
 11
407.3666968019269
 21
274.4241831875747
 31
0.0
  0
INSERT
  5
507B
330
4FDD
100
AcDbEntity
  8
SUNPOU
 62
     4
370
    -2
100
AcDbBlockReference
  2
_OPEN
 10
369.3666581565812
 20
274.4241831875747
 30
0.0
 41
7.0
 42
7.0
 43
7.0
 50
180.0
  0
INSERT
  5
507C
330
4FDD
100
AcDbEntity
  8
SUNPOU
 62
     4
370
    -2
100
AcDbBlockReference
  2
_OPEN
 10
414.3666968019269
 20
274.4241831875747
 30
0.0
 41
7.0
 42
7.0
 43
7.0
  0
MTEXT
  5
507D
330
4FDD
100
AcDbEntity
  8
SUNPOU
 62
     4
100
AcDbMText
 10
391.866677479254
 20
279.4241831875747
 30
0.0
 40
6.0
 41
0.0
 71
     5
 72
     1
  1
\A1;45
 73
     1
 44
1.0
  0
POINT
  5
507E
330
4FDD
100
AcDbEntity
  8
DEFPOINTS
 62
     0
100
AcDbPoint
 10
369.3666581565812
 20
226.8541924362584
 30
0.0
  0
POINT
  5
507F
330
4FDD
100
AcDbEntity
  8
DEFPOINTS
 62
     0
100
AcDbPoint
 10
414.3666968019269
 20
255.4853274142266
 30
0.0
  0
POINT
  5
5080
330
4FDD
100
AcDbEntity
  8
DEFPOINTS
 62
     0
100
AcDbPoint
 10
414.3666968019269
 20
274.4241831875747
 30
0.0
  0
ENDBLK
  5
4FE8
330
4FDD
100
AcDbEntity
  8
0
100
AcDbBlockEnd
  0
BLOCK
  5
4FF5
330
4FE9
100
AcDbEntity
  8
0
100
AcDbBlockBegin
  2
*D9
 70
     1
 71
     0
 10
0.0
 20
0.0
 30
0.0
  3
*D9
  1

  0
LINE
  5
5081
330
4FE9
100
AcDbEntity
  8
SUNPOU
 62
     4
370
    -2
100
AcDbLine
 10
243.3665581565811
 20
403.3067633037853
 30
0.0
 11
213.0877155589392
 21
403.3067633037853
 31
0.0
  0
LINE
  5
5082
330
4FE9
100
AcDbEntity
  8
SUNPOU
 62
     4
370
    -2
100
AcDbLine
 10
243.3665581565811
 20
388.3068633037852
 30
0.0
 11
213.0877155589392
 21
388.3068633037852
 31
0.0
  0
LINE
  5
5083
330
4FE9
100
AcDbEntity
  8
SUNPOU
 62
     4
370
    -2
100
AcDbLine
 10
216.0877155589392
 20
410.3067633037853
 30
0.0
 11
216.0877155589392
 21
417.3067633037853
 31
0.0
  0
LINE
  5
5084
330
4FE9
100
AcDbEntity
  8
SUNPOU
 62
     4
370
    -2
100
AcDbLine
 10
216.0877155589392
 20
381.3068633037852
 30
0.0
 11
216.0877155589392
 21
374.3068633037852
 31
0.0
  0
LINE
  5
5085
330
4FE9
100
AcDbEntity
  8
SUNPOU
 62
     4
370
    -2
100
AcDbLine
 10
216.0877155589392
 20
403.3067633037853
 30
0.0
 11
216.0877155589392
 21
388.3068633037852
 31
0.0
  0
INSERT
  5
5086
330
4FE9
100
AcDbEntity
  8
SUNPOU
 62
     4
370
    -2
100
AcDbBlockReference
  2
_OPEN
 10
216.0877155589392
 20
403.3067633037853
 30
0.0
 41
7.0
 42
7.0
 43
7.0
 50
270.0
  0
INSERT
  5
5087
330
4FE9
100
AcDbEntity
  8
SUNPOU
 62
     4
370
    -2
100
AcDbBlockReference
  2
_OPEN
 10
216.0877155589392
 20
388.3068633037852
 30
0.0
 41
7.0
 42
7.0
 43
7.0
 50
90.0
  0
MTEXT
  5
5088
330
4FE9
100
AcDbEntity
  8
SUNPOU
 62
     4
100
AcDbMText
 10
211.0877155589391
 20
395.8068133037853
 30
0.0
 40
6.0
 41
0.0
 71
     5
 72
     1
  1
\A1;15
 11
6.123031769111886E-17
 21
1.0
 31
0.0
 73
     1
 44
1.0
  0
POINT
  5
5089
330
4FE9
100
AcDbEntity
  8
DEFPOINTS
 62
     0
100
AcDbPoint
 10
249.3665581565811
 20
403.3067633037853
 30
0.0
  0
POINT
  5
508A
330
4FE9
100
AcDbEntity
  8
DEFPOINTS
 62
     0
100
AcDbPoint
 10
249.3665581565811
 20
388.3068633037852
 30
0.0
  0
POINT
  5
508B
330
4FE9
100
AcDbEntity
  8
DEFPOINTS
 62
     0
100
AcDbPoint
 10
216.0877155589392
 20
388.3068633037852
 30
0.0
  0
ENDBLK
  5
4FF6
330
4FE9
100
AcDbEntity
  8
0
100
AcDbBlockEnd
  0
BLOCK
  5
5001
330
4FF7
100
AcDbEntity
  8
0
100
AcDbBlockBegin
  2
*D10
 70
     1
 71
     0
 10
0.0
 20
0.0
 30
0.0
  3
*D10
  1

  0
LINE
  5
508C
330
4FF7
100
AcDbEntity
  8
SUNPOU
 62
     4
370
    -2
100
AcDbLine
 10
564.2885750405471
 20
315.4493116782656
 30
0.0
 11
597.6982787950738
 21
328.8122398032685
 31
0.0
  0
LINE
  5
508D
330
4FF7
100
AcDbEntity
  8
SUNPOU
 62
     4
370
    -2
100
AcDbLine
 10
581.1834851471649
 20
284.9417979207166
 30
0.0
 11
610.5476134570142
 21
296.6866113120869
 31
0.0
  0
LINE
  5
508E
330
4FF7
100
AcDbEntity
  8
SUNPOU
 62
     4
370
    -2
100
AcDbLine
 10
597.5123961632827
 20
321.1987355084514
 30
0.0
 11
605.1625811275198
 21
302.0719085936025
 31
0.0
  0
INSERT
  5
508F
330
4FF7
100
AcDbEntity
  8
SUNPOU
 62
     4
370
    -2
100
AcDbBlockReference
  2
_OPEN
 10
594.9128213144311
 20
327.6981362966178
 30
0.0
 41
7.0
 42
7.0
 43
7.0
 50
111.8000000000005
  0
INSERT
  5
5090
330
4FF7
100
AcDbEntity
  8
SUNPOU
 62
     4
370
    -2
100
AcDbBlockReference
  2
_OPEN
 10
607.7621559763716
 20
295.5725078054362
 30
0.0
 41
7.0
 42
7.0
 43
7.0
 50
291.8000000000005
  0
MTEXT
  5
5091
330
4FF7
100
AcDbEntity
  8
SUNPOU
 62
     4
100
AcDbMText
 10
605.9799177798058
 20
313.4921612287782
 30
0.0
 40
6.0
 41
0.0
 71
     5
 72
     1
  1
\A1;35
 11
0.3713678355502434
 21
-0.9284858268809101
 31
0.0
 73
     1
 44
1.0
  0
POINT
  5
5092
330
4FF7
100
AcDbEntity
  8
DEFPOINTS
 62
     0
100
AcDbPoint
 10
558.7176600792617
 20
313.2211046649642
 30
0.0
  0
POINT
  5
5093
330
4FF7
100
AcDbEntity
  8
DEFPOINTS
 62
     0
100
AcDbPoint
 10
575.6125701858795
 20
282.7135909074152
 30
0.0
  0
POINT
  5
5094
330
4FF7
100
AcDbEntity
  8
DEFPOINTS
 62
     0
100
AcDbPoint
 10
607.7621559763716
 20
295.5725078054362
 30
0.0
  0
ENDBLK
  5
5002
330
4FF7
100
AcDbEntity
  8
0
100
AcDbBlockEnd
  0
BLOCK
  5
500D
330
5003
100
AcDbEntity
  8
0
100
AcDbBlockBegin
  2
*D11
 70
     1
 71
     0
 10
0.0
 20
0.0
 30
0.0
  3
*D11
  1

  0
LINE
  5
5095
330
5003
100
AcDbEntity
  8
SUNPOU
 62
     4
370
    -2
100
AcDbLine
 10
516.9357752901308
 20
296.5096222161066
 30
0.0
 11
490.5141945545782
 21
285.9417438861375
 31
0.0
  0
LINE
  5
5096
330
5003
100
AcDbEntity
  8
SUNPOU
 62
     4
370
    -2
100
AcDbLine
 10
523.8960552245939
 20
268.4907838941136
 30
0.0
 11
501.1352843334851
 21
259.3871250373261
 31
0.0
  0
LINE
  5
5097
330
5003
100
AcDbEntity
  8
SUNPOU
 62
     4
370
    -2
100
AcDbLine
 10
495.8992268840727
 20
280.5564466046218
 30
0.0
 11
501.3211669652762
 21
267.0006293321432
 31
0.0
  0
INSERT
  5
5098
330
5003
100
AcDbEntity
  8
SUNPOU
 62
     4
370
    -2
100
AcDbBlockReference
  2
_OPEN
 10
493.299652035221
 20
287.0558473927882
 30
0.0
 41
7.0
 42
7.0
 43
7.0
 50
111.8000000000005
  0
INSERT
  5
5099
330
5003
100
AcDbEntity
  8
SUNPOU
 62
     4
370
    -2
100
AcDbBlockReference
  2
_OPEN
 10
503.9207418141279
 20
260.5012285439768
 30
0.0
 41
7.0
 42
7.0
 43
7.0
 50
291.8000000000005
  0
MTEXT
  5
509A
330
5003
100
AcDbEntity
  8
SUNPOU
 62
     4
100
AcDbMText
 10
503.2526260590789
 20
275.6353771461338
 30
0.0
 40
6.0
 41
0.0
 71
     5
 72
     1
  1
\A1;29
 11
0.3713678355502434
 21
-0.9284858268809101
 31
0.0
 73
     1
 44
1.0
  0
POINT
  5
509B
330
5003
100
AcDbEntity
  8
DEFPOINTS
 62
     0
100
AcDbPoint
 10
522.5066902514163
 20
298.737829229408
 30
0.0
  0
POINT
  5
509C
330
5003
100
AcDbEntity
  8
DEFPOINTS
 62
     0
100
AcDbPoint
 10
529.4669701858794
 20
270.7189909074151
 30
0.0
  0
POINT
  5
509D
330
5003
100
AcDbEntity
  8
DEFPOINTS
 62
     0
100
AcDbPoint
 10
503.9207418141279
 20
260.5012285439768
 30
0.0
  0
ENDBLK
  5
500E
330
5003
100
AcDbEntity
  8
0
100
AcDbBlockEnd
  0
BLOCK
  5
5019
330
500F
100
AcDbEntity
  8
0
100
AcDbBlockBegin
  2
*D12
 70
     1
 71
     0
 10
0.0
 20
0.0
 30
0.0
  3
*D12
  1

  0
LINE
  5
509E
330
500F
100
AcDbEntity
  8
SUNPOU
 62
     4
370
    -2
100
AcDbLine
 10
516.5643263890228
 20
292.0529544513887
 30
0.0
 11
499.4342136288706
 21
334.8812917173442
 31
0.0
  0
LINE
  5
509F
330
500F
100
AcDbEntity
  8
SUNPOU
 62
     4
370
    -2
100
AcDbLine
 10
567.6311263890228
 20
312.4780544513887
 30
0.0
 11
550.5009575070759
 21
355.3065320318411
 31
0.0
  0
LINE
  5
50A0
330
500F
100
AcDbEntity
  8
SUNPOU
 62
     4
370
    -2
100
AcDbLine
 10
507.0477179236877
 20
334.6954090855531
 30
0.0
 11
545.1156602255602
 21
349.9214997023468
 31
0.0
  0
INSERT
  5
50A1
330
500F
100
AcDbEntity
  8
SUNPOU
 62
     4
370
    -2
100
AcDbBlockReference
  2
_OPEN
 10
500.5483171355213
 20
332.0958342367015
 30
0.0
 41
7.0
 42
7.0
 43
7.0
 50
201.7999999999997
  0
INSERT
  5
50A2
330
500F
100
AcDbEntity
  8
SUNPOU
 62
     4
370
    -2
100
AcDbBlockReference
  2
_OPEN
 10
551.6150610137266
 20
352.5210745511984
 30
0.0
 41
7.0
 42
7.0
 43
7.0
 50
21.79999999999974
  0
MTEXT
  5
50A3
330
500F
100
AcDbEntity
  8
SUNPOU
 62
     4
100
AcDbMText
 10
524.2248498968729
 20
346.9508835283546
 30
0.0
 40
6.0
 41
0.0
 71
     5
 72
     1
  1
\A1;55
 11
0.9284858268809153
 21
0.3713678355502306
 31
0.0
 73
     1
 44
1.0
  0
POINT
  5
50A4
330
500F
100
AcDbEntity
  8
DEFPOINTS
 62
     0
100
AcDbPoint
 10
518.7925334023241
 20
286.4820394901033
 30
0.0
  0
POINT
  5
50A5
330
500F
100
AcDbEntity
  8
DEFPOINTS
 62
     0
100
AcDbPoint
 10
569.8593334023243
 20
306.9071394901032
 30
0.0
  0
POINT
  5
50A6
330
500F
100
AcDbEntity
  8
DEFPOINTS
 62
     0
100
AcDbPoint
 10
551.6150610137266
 20
352.5210745511984
 30
0.0
  0
ENDBLK
  5
501A
330
500F
100
AcDbEntity
  8
0
100
AcDbBlockEnd
  0
BLOCK
  5
5025
330
501B
100
AcDbEntity
  8
0
100
AcDbBlockBegin
  2
*D13
 70
     1
 71
     0
 10
0.0
 20
0.0
 30
0.0
  3
*D13
  1

  0
LINE
  5
50A7
330
501B
100
AcDbEntity
  8
SUNPOU
 62
     4
370
    -2
100
AcDbLine
 10
529.4647565250049
 20
281.3414224890321
 30
0.0
 11
513.6954336500512
 21
320.7675423284361
 31
0.0
  0
LINE
  5
50A8
330
501B
100
AcDbEntity
  8
SUNPOU
 62
     4
370
    -2
100
AcDbLine
 10
565.6757631725783
 20
295.8246058687008
 30
0.0
 11
549.9063761751504
 21
335.2508860257273
 31
0.0
  0
LINE
  5
50A9
330
501B
100
AcDbEntity
  8
SUNPOU
 62
     4
370
    -2
100
AcDbLine
 10
521.3089379448684
 20
320.581659696645
 30
0.0
 11
544.5210788936347
 21
329.865853696233
 31
0.0
  0
INSERT
  5
50AA
330
501B
100
AcDbEntity
  8
SUNPOU
 62
     4
370
    -2
100
AcDbBlockReference
  2
_OPEN
 10
514.8095371567019
 20
317.9820848477934
 30
0.0
 41
7.0
 42
7.0
 43
7.0
 50
201.7999999999997
  0
INSERT
  5
50AB
330
501B
100
AcDbEntity
  8
SUNPOU
 62
     4
370
    -2
100
AcDbBlockReference
  2
_OPEN
 10
551.0204796818011
 20
332.4654285450846
 30
0.0
 41
7.0
 42
7.0
 43
7.0
 50
21.79999999999974
  0
MTEXT
  5
50AC
330
501B
100
AcDbEntity
  8
SUNPOU
 62
     4
100
AcDbMText
 10
531.0581692415003
 20
329.8661858308436
 30
0.0
 40
6.0
 41
0.0
 71
     5
 72
     1
  1
\A1;39
 11
0.9284858268809153
 21
0.3713678355502306
 31
0.0
 73
     1
 44
1.0
  0
POINT
  5
50AD
330
501B
100
AcDbEntity
  8
DEFPOINTS
 62
     0
100
AcDbPoint
 10
531.6929635383062
 20
275.7705075277466
 30
0.0
  0
POINT
  5
50AE
330
501B
100
AcDbEntity
  8
DEFPOINTS
 62
     0
100
AcDbPoint
 10
567.9039701858796
 20
290.2536909074153
 30
0.0
  0
POINT
  5
50AF
330
501B
100
AcDbEntity
  8
DEFPOINTS
 62
     0
100
AcDbPoint
 10
551.0204796818011
 20
332.4654285450846
 30
0.0
  0
ENDBLK
  5
5026
330
501B
100
AcDbEntity
  8
0
100
AcDbBlockEnd
  0
BLOCK
  5
5033
330
5027
100
AcDbEntity
  8
0
100
AcDbBlockBegin
  2
*D14
 70
     1
 71
     0
 10
0.0
 20
0.0
 30
0.0
  3
*D14
  1

  0
LINE
  5
50B0
330
5027
100
AcDbEntity
  8
SUNPOU
 62
     4
370
    -2
100
AcDbLine
 10
553.9668184410388
 20
244.0070324768017
 30
0.0
 11
523.9972529978604
 21
232.0200615088086
 31
0.0
  0
LINE
  5
50B1
330
5027
100
AcDbEntity
  8
SUNPOU
 62
     4
370
    -2
100
AcDbLine
 10
561.0369415820998
 20
238.7572688570051
 30
0.0
 11
526.7824922466659
 21
225.0564666052362
 31
0.0
  0
LINE
  5
50B2
330
5027
100
AcDbEntity
  8
SUNPOU
 62
     4
370
    -2
100
AcDbLine
 10
524.1831356296514
 20
239.6335658036257
 30
0.0
 11
521.5835607807996
 21
246.132966591792
 31
0.0
  0
LINE
  5
50B3
330
5027
100
AcDbEntity
  8
SUNPOU
 62
     4
370
    -2
100
AcDbLine
 10
532.1675245761603
 20
219.6711693237205
 30
0.0
 11
540.7089847938159
 21
198.3159953054596
 31
0.0
  0
LINE
  5
50B4
330
5027
100
AcDbEntity
  8
SUNPOU
 62
     4
370
    -2
100
AcDbLine
 10
526.7827104785031
 20
233.1341650154593
 30
0.0
 11
529.5679497273086
 21
226.1705701118869
 31
0.0
  0
INSERT
  5
50B5
330
5027
100
AcDbEntity
  8
SUNPOU
 62
     4
370
    -2
100
AcDbBlockReference
  2
_OPEN
 10
526.7827104785031
 20
233.1341650154593
 30
0.0
 41
7.0
 42
7.0
 43
7.0
 50
291.8000000000005
  0
INSERT
  5
50B6
330
5027
100
AcDbEntity
  8
SUNPOU
 62
     4
370
    -2
100
AcDbBlockReference
  2
_OPEN
 10
529.5679497273086
 20
226.1705701118869
 30
0.0
 41
7.0
 42
7.0
 43
7.0
 50
111.8000000000005
  0
MTEXT
  5
50B7
330
5027
100
AcDbEntity
  8
SUNPOU
 62
     4
100
AcDbMText
 10
542.3804712438185
 20
207.6007210982581
 30
0.0
 40
6.0
 41
0.0
 71
     5
 72
     1
  1
\A1;7.5
 11
0.3713678355502434
 21
-0.9284858268809101
 31
0.0
 73
     1
 44
1.0
  0
POINT
  5
50B8
330
5027
100
AcDbEntity
  8
DEFPOINTS
 62
     0
100
AcDbPoint
 10
559.5377334023242
 20
246.2352394901031
 30
0.0
  0
POINT
  5
50B9
330
5027
100
AcDbEntity
  8
DEFPOINTS
 62
     0
100
AcDbPoint
 10
566.6078565433852
 20
240.9854758703066
 30
0.0
  0
POINT
  5
50BA
330
5027
100
AcDbEntity
  8
DEFPOINTS
 62
     0
100
AcDbPoint
 10
529.5679497273086
 20
226.1705701118869
 30
0.0
  0
ENDBLK
  5
5034
330
5027
100
AcDbEntity
  8
0
100
AcDbBlockEnd
  0
ENDSEC
  0
SECTION
  2
ENTITIES
  0
LINE
  5
3EF3
330
1A
100
AcDbEntity
  8
ZUWAKU
100
AcDbLine
 10
208.646601303624
 20
15.19999986828872
 30
0.0
 11
447.4243639845474
 21
15.19999986828871
 31
0.0
  0
LINE
  5
3EF4
330
1A
100
AcDbEntity
  8
ZUWAKU
100
AcDbLine
 10
208.646601303624
 20
15.59999986828872
 30
0.0
 11
447.4243639845474
 21
15.59999986828872
 31
0.0
  0
LINE
  5
3EF5
330
1A
100
AcDbEntity
  8
ZUWAKU
100
AcDbLine
 10
208.646601303624
 20
15.39999986828872
 30
0.0
 11
447.4243639845474
 21
15.39999986828872
 31
0.0
  0
LINE
  5
3EF6
330
1A
100
AcDbEntity
  8
ZUWAKU
100
AcDbLine
 10
0.0000000135560185
 20
30.79999986828869
 30
0.0
 11
797.4000000135559
 21
30.79999986828869
 31
0.0
  0
LINE
  5
3EF7
330
1A
100
AcDbEntity
  8
ZUWAKU
100
AcDbLine
 10
0.0000000135560185
 20
30.59999986828869
 30
0.0
 11
797.4000000135559
 21
30.59999986828869
 31
0.0
  0
LINE
  5
3EF8
330
1A
100
AcDbEntity
  8
ZUWAKU
100
AcDbLine
 10
0.0000000135560185
 20
30.39999986828869
 30
0.0
 11
797.4000000135559
 21
30.39999986828869
 31
0.0
  0
LINE
  5
3EF9
330
1A
100
AcDbEntity
  8
ZUWAKU
100
AcDbLine
 10
0.0000000135560185
 20
30.19999986828869
 30
0.0
 11
797.4000000135559
 21
30.19999986828869
 31
0.0
  0
LINE
  5
3EFA
330
1A
100
AcDbEntity
  8
ZUWAKU
100
AcDbLine
 10
0.0000000135560185
 20
29.99999986828868
 30
0.0
 11
797.4000000135559
 21
29.99999986828868
 31
0.0
  0
LWPOLYLINE
  5
3EFB
330
1A
100
AcDbEntity
  8
ZUWAKU
100
AcDbPolyline
 90
        4
 70
     1
 43
0.0
 10
0.2000000135559503
 20
551.3999998682888
 10
0.2000000135559503
 20
0.1999998682887281
 10
797.4000000135559
 20
0.1999998682887512
 10
797.4000000135561
 20
551.3999998682888
  0
LWPOLYLINE
  5
3EFC
330
1A
100
AcDbEntity
  8
ZUWAKU
100
AcDbPolyline
 90
        4
 70
     1
 43
0.0
 10
0.6000000135559276
 20
550.9999998682888
 10
0.6000000135559276
 20
0.5999998682887053
 10
797.0000000135563
 20
0.5999998682887515
 10
797.000000013556
 20
550.9999998682888
  0
LWPOLYLINE
  5
3EFD
330
1A
100
AcDbEntity
  8
ZUWAKU
100
AcDbPolyline
 90
        4
 70
     1
 43
0.0
 10
0.0000000135560185
 20
551.5999998682887
 10
0.0000000135560185
 20
-0.0000001317113174
 10
797.6000000135562
 20
-0.0000001317112499
 10
797.6000000135562
 20
551.5999998682888
  0
LWPOLYLINE
  5
3EFE
330
1A
100
AcDbEntity
  8
ZUWAKU
100
AcDbPolyline
 90
        4
 70
     1
 43
0.0
 10
0.4000000135559958
 20
551.1999998682887
 10
0.4000000135559958
 20
0.3999998682887735
 10
797.2000000135561
 20
0.3999998682887505
 10
797.2000000135561
 20
551.1999998682887
  0
LWPOLYLINE
  5
3EFF
330
1A
100
AcDbEntity
  8
ZUWAKU
100
AcDbPolyline
 90
        4
 70
     1
 43
0.0
 10
0.8000000135559731
 20
550.7999998682888
 10
0.8000000135559731
 20
0.7999998682887508
 10
796.800000013556
 20
0.7999998682887508
 10
796.800000013556
 20
550.7999998682888
  0
TEXT
  5
3F00
330
1A
100
AcDbEntity
  8
moji
100
AcDbText
 10
92.95778960172515
 20
12.74117799856344
 30
0.0
 40
6.0
  1
アーバントップΣ９０
 41
0.9
  7
ｽﾀｲﾙ1
100
AcDbText
  0
HATCH
  5
3F01
330
1A
100
AcDbEntity
  8
ZUWAKU
100
AcDbHatch
 10
0.0
 20
0.0
 30
0.0
210
0.0
220
0.0
230
1.0
  2
ANSI37
 70
     0
 71
     0
 91
        8
 92
        7
 72
     1
 73
     1
 93
       24
 10
14.50226267467588
 20
17.64484834927227
 42
-0.1989123673796348
 10
14.09221216833714
 20
18.63479784293332
 42
0.0
 10
14.09221216833714
 20
19.92499986828869
 42
-0.4142135623730912
 10
14.61721216833712
 20
20.44999986828869
 42
0.0
 10
17.59221216833703
 20
20.44999986828869
 42
0.4142135623731546
 10
18.11721216833712
 20
20.97499986828868
 42
0.0
 10
18.11721216833712
 20
22.72499986828869
 42
0.4142135623731586
 10
17.59221216833703
 20
23.24999986828869
 42
0.0
 10
14.09221216833714
 20
23.24999986828869
 42
0.4142135623730928
 10
11.29221216833719
 20
20.44999986828871
 42
0.0
 10
11.29221216833719
 20
18.63479784293345
 42
0.1989123673796619
 10
12.52236368735362
 20
15.66494936194984
 42
0.0
 10
15.43216166199829
 20
12.75515138730518
 42
-0.1989123673796613
 10
15.84221216833714
 20
11.76520189364399
 42
0.0
 10
15.84221216833714
 20
10.47499986828868
 42
-0.4142135623730911
 10
15.31721216833716
 20
9.949999868288685
 42
0.0
 10
12.34221216833726
 20
9.949999868288685
 42
0.4142135623731526
 10
11.81721216833716
 20
9.424999868288698
 42
0.0
 10
11.81721216833716
 20
7.674999868288676
 42
0.4142135623731526
 10
12.34221216833726
 20
7.149999868288688
 42
0.0
 10
15.84221216833714
 20
7.149999868288688
 42
0.4142135623731044
 10
18.64221216833721
 20
9.949999868288664
 42
0.0
 10
18.64221216833721
 20
11.76520189364394
 42
0.1989123673796604
 10
17.41206064932067
 20
14.73505037462748
 42
0.0
 97
        0
 92
        7
 72
     1
 73
     1
 93
       16
 10
23.54221216833719
 20
19.04999986828869
 42
-0.4142135623730935
 10
24.94221216833716
 20
20.44999986828869
 42
0.0
 10
26.86721216833712
 20
20.44999986828869
 42
0.4142135623731546
 10
27.39221216833721
 20
20.97499986828868
 42
0.0
 10
27.39221216833721
 20
22.72499986828869
 42
0.4142135623730952
 10
26.86721216833723
 20
23.24999986828869
 42
0.0
 10
24.94221216833705
 20
23.24999986828865
 42
0.4142135623730892
 10
20.74221216833712
 20
19.04999986828862
 42
0.0
 10
20.74221216833712
 20
11.34999986828871
 42
0.4142135623730969
 10
24.94221216833716
 20
7.149999868288688
 42
0.0
 10
26.86721216833712
 20
7.149999868288688
 42
0.4142135623731526
 10
27.39221216833721
 20
7.674999868288676
 42
0.0
 10
27.39221216833721
 20
9.424999868288698
 42
0.414213562373089
 10
26.86721216833723
 20
9.949999868288685
 42
0.0
 10
24.94221216833716
 20
9.949999868288685
 42
-0.4142135623730928
 10
23.54221216833719
 20
11.34999986828867
 42
0.0
 97
        0
 92
        7
 72
     1
 73
     1
 93
        2
 10
24.24221216833712
 20
15.19999986828869
 42
1.0
 10
27.74221216833712
 20
15.19999986828869
 42
1.0
 97
        0
 92
        7
 72
     1
 73
     1
 93
       26
 10
37.31485865051513
 20
19.20504706185211
 42
0.0
 10
38.37649828365295
 20
22.5669059001217
 42
0.5069206636600134
 10
37.87586738445759
 20
23.24999986828869
 42
0.0
 10
36.17697800484837
 20
23.24999986828869
 42
0.3272098845218764
 10
35.67634710565301
 20
22.88309383645566
 42
0.0
 10
33.80807723102123
 20
16.96690590012177
 42
-0.3272098845219541
 10
33.30744633182576
 20
16.59999986828868
 42
0.0
 10
33.1672121683373
 20
16.59999986828868
 42
-0.4142135623731526
 10
32.64221216833721
 20
17.12499986828867
 42
0.0
 10
32.64221216833721
 20
22.72499986828869
 42
0.4142135623730952
 10
32.11721216833723
 20
23.24999986828869
 42
0.0
 10
30.36721216833712
 20
23.24999986828869
 42
0.4142135623730872
 10
29.84221216833714
 20
22.72499986828871
 42
0.0
 10
29.84221216833714
 20
7.674999868288676
 42
0.414213562373089
 10
30.36721216833712
 20
7.149999868288688
 42
0.0
 10
32.11721216833712
 20
7.149999868288688
 42
0.4142135623731526
 10
32.64221216833721
 20
7.674999868288676
 42
0.0
 10
32.64221216833721
 20
13.2749998682887
 42
-0.4142135623731526
 10
33.1672121683373
 20
13.79999986828869
 42
0.0
 10
33.30744633182587
 20
13.79999986828869
 42
-0.3272098845218915
 10
33.80807723102123
 20
13.43309383645561
 42
0.0
 10
35.67634710565301
 20
7.51690590012176
 42
0.3272098845218902
 10
36.17697800484837
 20
7.149999868288688
 42
0.0
 10
37.87586738445759
 20
7.149999868288688
 42
0.5069206636600334
 10
38.37649828365295
 20
7.833093836455696
 42
0.0
 10
36.05010690517929
 20
15.19999986828882
 42
0.0
 97
        0
 92
        7
 72
     1
 73
     1
 93
        8
 10
43.49221216833712
 20
22.7249998682887
 42
0.4142135623731546
 10
42.96721216833703
 20
23.24999986828869
 42
0.0
 10
41.21721216833726
 20
23.24999986828869
 42
0.4142135623731506
 10
40.69221216833716
 20
22.72499986828871
 42
0.0
 10
40.69221216833716
 20
7.674999868288676
 42
0.4142135623731526
 10
41.21721216833726
 20
7.149999868288688
 42
0.0
 10
42.96721216833703
 20
7.149999868288688
 42
0.4142135623731526
 10
43.49221216833712
 20
7.674999868288676
 42
0.0
 97
        0
 92
        7
 72
     1
 73
     1
 93
       24
 10
48.39221216833721
 20
19.92499986828869
 42
-0.4142135623731547
 10
48.9172121683373
 20
20.44999986828869
 42
0.0
 10
51.89221216833721
 20
20.44999986828869
 42
0.4142135623730911
 10
52.41721216833719
 20
20.97499986828868
 42
0.0
 10
52.41721216833719
 20
22.72499986828869
 42
0.4142135623730952
 10
51.89221216833721
 20
23.24999986828869
 42
0.0
 10
48.39221216833721
 20
23.24999986828869
 42
0.4142135623731048
 10
45.59221216833714
 20
20.44999986828871
 42
0.0
 10
45.59221216833714
 20
18.63479784293345
 42
0.1989123673796613
 10
46.82236368735369
 20
15.66494936194989
 42
0.0
 10
49.73216166199836
 20
12.75515138730523
 42
-0.1989123673796402
 10
50.14221216833721
 20
11.76520189364415
 42
0.0
 10
50.14221216833721
 20
10.47499986828868
 42
-0.4142135623730911
 10
49.61721216833723
 20
9.949999868288685
 42
0.0
 10
46.64221216833721
 20
9.949999868288685
 42
0.4142135623731526
 10
46.11721216833712
 20
9.424999868288698
 42
0.0
 10
46.11721216833712
 20
7.674999868288676
 42
0.414213562373089
 10
46.6422121683371
 20
7.149999868288688
 42
0.0
 10
50.14221216833721
 20
7.149999868288688
 42
0.4142135623730925
 10
52.94221216833716
 20
9.949999868288664
 42
0.0
 10
52.94221216833716
 20
11.76520189364394
 42
0.1989123673796675
 10
51.71206064932062
 20
14.73505037462759
 42
0.0
 10
48.80226267467606
 20
17.64484834927211
 42
-0.1989123673796653
 10
48.39221216833721
 20
18.63479784293327
 42
0.0
 97
        0
 92
        7
 72
     1
 73
     1
 93
       16
 10
57.84221216833714
 20
22.72499986828868
 42
0.414213562373103
 10
57.31721216833716
 20
23.24999986828869
 42
0.0
 10
55.56721216833716
 20
23.24999986828869
 42
0.4142135623730872
 10
55.04221216833719
 20
22.72499986828871
 42
0.0
 10
55.04221216833719
 20
9.949999868288664
 42
0.4142135623730925
 10
57.84221216833714
 20
7.149999868288688
 42
0.0
 10
61.34221216833714
 20
7.149999868288688
 42
0.4142135623731044
 10
64.14221216833721
 20
9.949999868288664
 42
0.0
 10
64.14221216833721
 20
22.72499986828869
 42
0.4142135623730952
 10
63.61721216833723
 20
23.24999986828869
 42
0.0
 10
61.86721216833712
 20
23.24999986828869
 42
0.4142135623730872
 10
61.34221216833714
 20
22.72499986828871
 42
0.0
 10
61.34221216833714
 20
10.99999986828866
 42
-0.414213562373088
 10
60.29221216833719
 20
9.949999868288685
 42
0.0
 10
58.89221216833721
 20
9.949999868288685
 42
-0.4142135623731197
 10
57.84221216833714
 20
10.99999986828866
 42
0.0
 97
        0
 92
        7
 72
     1
 73
     1
 93
        8
 10
69.04221216833719
 20
22.72499986828871
 42
0.4142135623730872
 10
68.51721216833721
 20
23.24999986828869
 42
0.0
 10
66.76721216833721
 20
23.24999986828869
 42
0.4142135623731506
 10
66.24221216833712
 20
22.72499986828871
 42
0.0
 10
66.24221216833712
 20
7.674999868288676
 42
0.414213562373089
 10
66.7672121683371
 20
7.149999868288688
 42
0.0
 10
68.51721216833721
 20
7.149999868288688
 42
0.414213562373089
 10
69.04221216833719
 20
7.674999868288676
 42
0.0
 97
        0
 75
     0
 76
     1
 52
0.0
 41
0.2
 77
     0
 78
     2
 53
45.0
 43
-900.942304321123
 44
-13.20000013171125
 45
-0.4490128060534576
 46
0.4490128060534577
 79
     0
 53
135.0
 43
-900.942304321123
 44
-13.20000013171125
 45
-0.4490128060534577
 46
-0.4490128060534576
 79
     0
 47
0.057451373970553
 98
        8
 10
16.07985497657933
 20
15.16717351417424
 10
22.40451501999519
 20
18.84406205073969
 10
25.16436789921568
 20
15.5118815143594
 10
30.91405999519316
 20
16.20129751473019
 10
41.83847203251276
 20
16.6609097822718
 10
46.89820090868557
 20
19.41857618469589
 10
56.55768598595637
 20
18.7291577833837
 10
67.82707963317876
 20
19.18877005092531
  0
LINE
  5
3F02
330
1A
100
AcDbEntity
  8
ZUWAKU
100
AcDbLine
 10
24.94221216833716
 20
23.24999986828865
 30
0.0
 11
26.86721216833712
 21
23.24999986828869
 31
0.0
  0
LINE
  5
3F03
330
1A
100
AcDbEntity
  8
ZUWAKU
100
AcDbLine
 10
26.86721216833712
 20
20.44999986828869
 30
0.0
 11
24.94221216833716
 21
20.44999986828869
 31
0.0
  0
LINE
  5
3F04
330
1A
100
AcDbEntity
  8
ZUWAKU
100
AcDbLine
 10
24.94221216833716
 20
9.949999868288685
 30
0.0
 11
26.86721216833712
 21
9.949999868288685
 31
0.0
  0
LINE
  5
3F05
330
1A
100
AcDbEntity
  8
ZUWAKU
100
AcDbLine
 10
26.86721216833712
 20
7.149999868288688
 30
0.0
 11
24.94221216833716
 21
7.149999868288688
 31
0.0
  0
CIRCLE
  5
3F06
330
1A
100
AcDbEntity
  8
ZUWAKU
100
AcDbCircle
 10
25.99221216833712
 20
15.19999986828869
 30
0.0
 40
1.75
  0
ARC
  5
3F07
330
1A
100
AcDbEntity
  8
ZUWAKU
100
AcDbCircle
 10
15.49221216833712
 20
18.63479784293339
 30
0.0
 40
1.4
100
AcDbArc
 50
180.0000000000016
 51
224.9999999999988
  0
LINE
  5
3F08
330
1A
100
AcDbEntity
  8
ZUWAKU
100
AcDbLine
 10
23.54221216833719
 20
19.04999986828869
 30
0.0
 11
23.54221216833719
 21
11.34999986828869
 31
0.0
  0
LINE
  5
3F09
330
1A
100
AcDbEntity
  8
ZUWAKU
100
AcDbLine
 10
20.74221216833712
 20
11.34999986828869
 30
0.0
 11
20.74221216833712
 21
19.04999986828864
 31
0.0
  0
ARC
  5
3F0A
330
1A
100
AcDbEntity
  8
ZUWAKU
100
AcDbCircle
 10
15.49221216833712
 20
18.63479784293339
 30
0.0
 40
4.199999999999999
100
AcDbArc
 50
180.0
 51
225.0
  0
ARC
  5
3F0B
330
1A
100
AcDbEntity
  8
ZUWAKU
100
AcDbCircle
 10
15.84221216833714
 20
9.949999868288685
 30
0.0
 40
2.8
100
AcDbArc
 50
270.0
 51
0.0
  0
ARC
  5
3F0C
330
1A
100
AcDbEntity
  8
ZUWAKU
100
AcDbCircle
 10
24.94221216833716
 20
11.34999986828869
 30
0.0
 40
4.199999999999999
100
AcDbArc
 50
180.0
 51
270.0
  0
ARC
  5
3F0D
330
1A
100
AcDbEntity
  8
ZUWAKU
100
AcDbCircle
 10
14.44221216833716
 20
11.76520189364399
 30
0.0
 40
4.199999999999999
100
AcDbArc
 50
0.0
 51
45.0
  0
LINE
  5
3F0E
330
1A
100
AcDbEntity
  8
ZUWAKU
100
AcDbLine
 10
17.41206064932067
 20
14.73505037462751
 30
0.0
 11
14.50226267467599
 21
17.64484834927219
 31
0.0
  0
LINE
  5
3F0F
330
1A
100
AcDbEntity
  8
ZUWAKU
100
AcDbLine
 10
15.84221216833714
 20
10.47499986828869
 30
0.0
 11
15.84221216833714
 21
11.76520189364403
 31
0.0
  0
ARC
  5
3F10
330
1A
100
AcDbEntity
  8
ZUWAKU
100
AcDbCircle
 10
15.31721216833716
 20
10.47499986828869
 30
0.0
 40
0.5249999999999999
100
AcDbArc
 50
270.0
 51
0.0
  0
ARC
  5
3F11
330
1A
100
AcDbEntity
  8
ZUWAKU
100
AcDbCircle
 10
14.44221216833716
 20
11.76520189364403
 30
0.0
 40
1.4
100
AcDbArc
 50
0.0
 51
45.0
  0
LINE
  5
3F12
330
1A
100
AcDbEntity
  8
ZUWAKU
100
AcDbLine
 10
11.81721216833716
 20
7.674999868288687
 30
0.0
 11
11.81721216833716
 21
9.424999868288687
 31
0.0
  0
ARC
  5
3F13
330
1A
100
AcDbEntity
  8
ZUWAKU
100
AcDbCircle
 10
12.34221216833714
 20
7.674999868288687
 30
0.0
 40
0.5249999999999999
100
AcDbArc
 50
180.0
 51
270.0
  0
ARC
  5
3F14
330
1A
100
AcDbEntity
  8
ZUWAKU
100
AcDbCircle
 10
12.34221216833714
 20
9.424999868288687
 30
0.0
 40
0.5249999999999999
100
AcDbArc
 50
90.0
 51
180.0
  0
LINE
  5
3F15
330
1A
100
AcDbEntity
  8
ZUWAKU
100
AcDbLine
 10
12.34221216833714
 20
7.149999868288688
 30
0.0
 11
15.84221216833714
 21
7.149999868288688
 31
0.0
  0
LINE
  5
3F16
330
1A
100
AcDbEntity
  8
ZUWAKU
100
AcDbLine
 10
12.34221216833714
 20
9.949999868288685
 30
0.0
 11
15.31721216833716
 21
9.949999868288685
 31
0.0
  0
LINE
  5
3F17
330
1A
100
AcDbEntity
  8
ZUWAKU
100
AcDbLine
 10
12.52236368735362
 20
15.66494936194987
 30
0.0
 11
15.43216166199829
 21
12.7551513873052
 31
0.0
  0
LINE
  5
3F18
330
1A
100
AcDbEntity
  8
ZUWAKU
100
AcDbLine
 10
18.64221216833721
 20
9.949999868288685
 30
0.0
 11
18.64221216833721
 21
11.76520189364403
 31
0.0
  0
ARC
  5
3F19
330
1A
100
AcDbEntity
  8
ZUWAKU
100
AcDbCircle
 10
24.94221216833716
 20
11.34999986828869
 30
0.0
 40
1.4
100
AcDbArc
 50
180.0
 51
270.0
  0
ARC
  5
3F1A
330
1A
100
AcDbEntity
  8
ZUWAKU
100
AcDbCircle
 10
17.59221216833714
 20
22.72499986828868
 30
0.0
 40
0.5249999999999999
100
AcDbArc
 50
0.0
 51
90.0
  0
ARC
  5
3F1B
330
1A
100
AcDbEntity
  8
ZUWAKU
100
AcDbCircle
 10
17.59221216833714
 20
20.97499986828868
 30
0.0
 40
0.5249999999999999
100
AcDbArc
 50
270.0
 51
0.0
  0
LINE
  5
3F1C
330
1A
100
AcDbEntity
  8
ZUWAKU
100
AcDbLine
 10
14.09221216833714
 20
23.24999986828869
 30
0.0
 11
17.59221216833714
 21
23.24999986828869
 31
0.0
  0
ARC
  5
3F1D
330
1A
100
AcDbEntity
  8
ZUWAKU
100
AcDbCircle
 10
14.61721216833712
 20
19.92499986828869
 30
0.0
 40
0.5249999999999999
100
AcDbArc
 50
90.0
 51
180.0
  0
LINE
  5
3F1E
330
1A
100
AcDbEntity
  8
ZUWAKU
100
AcDbLine
 10
14.09221216833714
 20
19.92499986828869
 30
0.0
 11
14.09221216833714
 21
18.63479784293335
 31
0.0
  0
LINE
  5
3F1F
330
1A
100
AcDbEntity
  8
ZUWAKU
100
AcDbLine
 10
17.59221216833714
 20
20.44999986828869
 30
0.0
 11
14.61721216833712
 21
20.44999986828869
 31
0.0
  0
LINE
  5
3F20
330
1A
100
AcDbEntity
  8
ZUWAKU
100
AcDbLine
 10
11.29221216833719
 20
20.44999986828869
 30
0.0
 11
11.29221216833719
 21
18.63479784293335
 31
0.0
  0
ARC
  5
3F21
330
1A
100
AcDbEntity
  8
ZUWAKU
100
AcDbCircle
 10
14.09221216833714
 20
20.44999986828869
 30
0.0
 40
2.8
100
AcDbArc
 50
90.0
 51
180.0
  0
LINE
  5
3F22
330
1A
100
AcDbEntity
  8
ZUWAKU
100
AcDbLine
 10
18.11721216833712
 20
22.72499986828868
 30
0.0
 11
18.11721216833712
 21
20.97499986828868
 31
0.0
  0
ARC
  5
3F23
330
1A
100
AcDbEntity
  8
ZUWAKU
100
AcDbCircle
 10
24.94221216833716
 20
19.04999986828869
 30
0.0
 40
1.4
100
AcDbArc
 50
90.0
 51
180.0
  0
ARC
  5
3F24
330
1A
100
AcDbEntity
  8
ZUWAKU
100
AcDbCircle
 10
24.94221216833716
 20
19.04999986828864
 30
0.0
 40
4.199999999999999
100
AcDbArc
 50
90.0
 51
180.0
  0
LINE
  5
3F25
330
1A
100
AcDbEntity
  8
ZUWAKU
100
AcDbLine
 10
79.32662956154422
 20
29.99999986828868
 30
0.0
 11
79.32662956154445
 21
0.7999998682887508
 31
0.0
  0
LINE
  5
3F26
330
1A
100
AcDbEntity
  8
ZUWAKU
100
AcDbLine
 10
79.52662956154427
 20
29.99999986828868
 30
0.0
 11
79.5266295615445
 21
0.7999998682887508
 31
0.0
  0
LINE
  5
3F27
330
1A
100
AcDbEntity
  8
ZUWAKU
100
AcDbLine
 10
79.12662956154441
 20
29.99999986828868
 30
0.0
 11
79.12662956154441
 21
0.7999998682887508
 31
0.0
  0
LINE
  5
3F28
330
1A
100
AcDbEntity
  8
ZUWAKU
100
AcDbLine
 10
64.14221216833721
 20
9.949999868288685
 30
0.0
 11
64.14221216833721
 21
22.72499986828868
 31
0.0
  0
LINE
  5
3F29
330
1A
100
AcDbEntity
  8
ZUWAKU
100
AcDbLine
 10
61.34221216833714
 20
22.72499986828868
 30
0.0
 11
61.34221216833714
 21
10.99999986828868
 31
0.0
  0
LINE
  5
3F2A
330
1A
100
AcDbEntity
  8
ZUWAKU
100
AcDbLine
 10
69.04221216833719
 20
7.674999868288687
 30
0.0
 11
69.04221216833719
 21
22.72499986828868
 31
0.0
  0
LINE
  5
3F2B
330
1A
100
AcDbEntity
  8
ZUWAKU
100
AcDbLine
 10
66.24221216833712
 20
22.72499986828868
 30
0.0
 11
66.24221216833712
 21
7.674999868288687
 31
0.0
  0
ARC
  5
3F2C
330
1A
100
AcDbEntity
  8
ZUWAKU
100
AcDbCircle
 10
49.79221216833719
 20
18.63479784293339
 30
0.0
 40
1.4
100
AcDbArc
 50
180.0000000000016
 51
224.9999999999988
  0
ARC
  5
3F2D
330
1A
100
AcDbEntity
  8
ZUWAKU
100
AcDbCircle
 10
49.79221216833719
 20
18.63479784293339
 30
0.0
 40
4.199999999999999
100
AcDbArc
 50
180.0
 51
225.0
  0
LINE
  5
3F2E
330
1A
100
AcDbEntity
  8
ZUWAKU
100
AcDbLine
 10
37.31485865051513
 20
19.20504706185211
 30
0.0
 11
36.05010690517929
 21
15.19999986828871
 31
0.0
  0
LINE
  5
3F2F
330
1A
100
AcDbEntity
  8
ZUWAKU
100
AcDbLine
 10
40.69221216833716
 20
22.72499986828868
 30
0.0
 11
40.69221216833716
 21
7.674999868288687
 31
0.0
  0
LINE
  5
3F30
330
1A
100
AcDbEntity
  8
ZUWAKU
100
AcDbLine
 10
43.49221216833712
 20
7.674999868288687
 30
0.0
 11
43.49221216833712
 21
22.72499986828868
 31
0.0
  0
LINE
  5
3F31
330
1A
100
AcDbEntity
  8
ZUWAKU
100
AcDbLine
 10
55.04221216833719
 20
22.72499986828868
 30
0.0
 11
55.04221216833719
 21
9.949999868288685
 31
0.0
  0
LINE
  5
3F32
330
1A
100
AcDbEntity
  8
ZUWAKU
100
AcDbLine
 10
57.84221216833714
 20
10.99999986828868
 30
0.0
 11
57.84221216833714
 21
22.72499986828868
 31
0.0
  0
LINE
  5
3F33
330
1A
100
AcDbEntity
  8
ZUWAKU
100
AcDbLine
 10
32.64221216833721
 20
17.12499986828869
 30
0.0
 11
32.64221216833721
 21
22.72499986828868
 31
0.0
  0
LINE
  5
3F34
330
1A
100
AcDbEntity
  8
ZUWAKU
100
AcDbLine
 10
29.84221216833714
 20
22.72499986828868
 30
0.0
 11
29.84221216833714
 21
7.674999868288687
 31
0.0
  0
LINE
  5
3F35
330
1A
100
AcDbEntity
  8
ZUWAKU
100
AcDbLine
 10
35.67634710565301
 20
22.88309383645566
 30
0.0
 11
33.80807723102123
 21
16.96690590012172
 31
0.0
  0
LINE
  5
3F36
330
1A
100
AcDbEntity
  8
ZUWAKU
100
AcDbLine
 10
60.29221216833719
 20
9.949999868288685
 30
0.0
 11
58.89221216833721
 21
9.949999868288685
 31
0.0
  0
LINE
  5
3F37
330
1A
100
AcDbEntity
  8
ZUWAKU
100
AcDbLine
 10
57.84221216833714
 20
7.149999868288688
 30
0.0
 11
61.34221216833714
 21
7.149999868288688
 31
0.0
  0
LINE
  5
3F38
330
1A
100
AcDbEntity
  8
ZUWAKU
100
AcDbLine
 10
41.21721216833714
 20
7.149999868288688
 30
0.0
 11
42.96721216833714
 21
7.149999868288688
 31
0.0
  0
LINE
  5
3F39
330
1A
100
AcDbEntity
  8
ZUWAKU
100
AcDbLine
 10
35.67634710565301
 20
7.516905900121714
 30
0.0
 11
33.80807723102123
 21
13.43309383645565
 31
0.0
  0
ARC
  5
3F3A
330
1A
100
AcDbEntity
  8
ZUWAKU
100
AcDbCircle
 10
33.30744633182587
 20
17.12499986828869
 30
0.0
 40
0.5249999999999999
100
AcDbArc
 50
270.0
 51
342.474431626277
  0
LINE
  5
3F3B
330
1A
100
AcDbEntity
  8
ZUWAKU
100
AcDbLine
 10
33.30744633182587
 20
16.59999986828868
 30
0.0
 11
33.16721216833719
 21
16.59999986828868
 31
0.0
  0
LINE
  5
3F3C
330
1A
100
AcDbEntity
  8
ZUWAKU
100
AcDbLine
 10
33.16721216833719
 20
13.79999986828869
 30
0.0
 11
33.30744633182587
 21
13.79999986828869
 31
0.0
  0
ARC
  5
3F3D
330
1A
100
AcDbEntity
  8
ZUWAKU
100
AcDbCircle
 10
33.16721216833719
 20
17.12499986828869
 30
0.0
 40
0.5249999999999999
100
AcDbArc
 50
180.0
 51
270.0
  0
LINE
  5
3F3E
330
1A
100
AcDbEntity
  8
ZUWAKU
100
AcDbLine
 10
30.36721216833712
 20
7.149999868288688
 30
0.0
 11
32.11721216833712
 21
7.149999868288688
 31
0.0
  0
ARC
  5
3F3F
330
1A
100
AcDbEntity
  8
ZUWAKU
100
AcDbCircle
 10
32.11721216833712
 20
7.674999868288687
 30
0.0
 40
0.5249999999999999
100
AcDbArc
 50
270.0
 51
0.0
  0
LINE
  5
3F40
330
1A
100
AcDbEntity
  8
ZUWAKU
100
AcDbLine
 10
32.64221216833721
 20
7.674999868288687
 30
0.0
 11
32.64221216833721
 21
13.27499986828869
 31
0.0
  0
LINE
  5
3F41
330
1A
100
AcDbEntity
  8
ZUWAKU
100
AcDbLine
 10
27.39221216833721
 20
9.424999868288687
 30
0.0
 11
27.39221216833721
 21
7.674999868288687
 31
0.0
  0
ARC
  5
3F42
330
1A
100
AcDbEntity
  8
ZUWAKU
100
AcDbCircle
 10
26.86721216833712
 20
7.674999868288687
 30
0.0
 40
0.5249999999999999
100
AcDbArc
 50
270.0
 51
0.0
  0
ARC
  5
3F43
330
1A
100
AcDbEntity
  8
ZUWAKU
100
AcDbCircle
 10
26.86721216833712
 20
9.424999868288687
 30
0.0
 40
0.5249999999999999
100
AcDbArc
 50
0.0
 51
90.0
  0
ARC
  5
3F44
330
1A
100
AcDbEntity
  8
ZUWAKU
100
AcDbCircle
 10
30.36721216833712
 20
7.674999868288687
 30
0.0
 40
0.5249999999999999
100
AcDbArc
 50
180.0
 51
270.0
  0
ARC
  5
3F45
330
1A
100
AcDbEntity
  8
ZUWAKU
100
AcDbCircle
 10
33.30744633182587
 20
13.27499986828869
 30
0.0
 40
0.5249999999999999
100
AcDbArc
 50
17.52556837372303
 51
90.0
  0
ARC
  5
3F46
330
1A
100
AcDbEntity
  8
ZUWAKU
100
AcDbCircle
 10
33.16721216833719
 20
13.27499986828869
 30
0.0
 40
0.5249999999999999
100
AcDbArc
 50
90.0
 51
180.0
  0
ARC
  5
3F47
330
1A
100
AcDbEntity
  8
ZUWAKU
100
AcDbCircle
 10
41.21721216833714
 20
7.674999868288687
 30
0.0
 40
0.5249999999999999
100
AcDbArc
 50
180.0
 51
270.0
  0
LINE
  5
3F48
330
1A
100
AcDbEntity
  8
ZUWAKU
100
AcDbLine
 10
36.17697800484848
 20
7.149999868288688
 30
0.0
 11
37.87586738445748
 21
7.149999868288688
 31
0.0
  0
ARC
  5
3F49
330
1A
100
AcDbEntity
  8
ZUWAKU
100
AcDbCircle
 10
37.87586738445748
 20
7.674999868288687
 30
0.0
 40
0.5249999999999999
100
AcDbArc
 50
270.0
 51
17.52556837372303
  0
LINE
  5
3F4A
330
1A
100
AcDbEntity
  8
ZUWAKU
100
AcDbLine
 10
38.37649828365295
 20
7.83309383645566
 30
0.0
 11
36.05010690517929
 21
15.19999986828871
 31
0.0
  0
ARC
  5
3F4B
330
1A
100
AcDbEntity
  8
ZUWAKU
100
AcDbCircle
 10
36.17697800484848
 20
7.674999868288687
 30
0.0
 40
0.5249999999999999
100
AcDbArc
 50
197.525568373723
 51
270.0
  0
ARC
  5
3F4C
330
1A
100
AcDbEntity
  8
ZUWAKU
100
AcDbCircle
 10
57.84221216833714
 20
9.949999868288685
 30
0.0
 40
2.8
100
AcDbArc
 50
180.0
 51
270.0
  0
ARC
  5
3F4D
330
1A
100
AcDbEntity
  8
ZUWAKU
100
AcDbCircle
 10
50.14221216833721
 20
9.949999868288685
 30
0.0
 40
2.8
100
AcDbArc
 50
270.0
 51
0.0
  0
LINE
  5
3F4E
330
1A
100
AcDbEntity
  8
ZUWAKU
100
AcDbLine
 10
51.71206064932073
 20
14.73505037462751
 30
0.0
 11
48.80226267467594
 21
17.64484834927219
 31
0.0
  0
LINE
  5
3F4F
330
1A
100
AcDbEntity
  8
ZUWAKU
100
AcDbLine
 10
50.14221216833721
 20
10.47499986828869
 30
0.0
 11
50.14221216833721
 21
11.76520189364403
 31
0.0
  0
ARC
  5
3F50
330
1A
100
AcDbEntity
  8
ZUWAKU
100
AcDbCircle
 10
48.74221216833712
 20
11.76520189364403
 30
0.0
 40
1.4
100
AcDbArc
 50
0.0
 51
45.0
  0
ARC
  5
3F51
330
1A
100
AcDbEntity
  8
ZUWAKU
100
AcDbCircle
 10
49.61721216833712
 20
10.47499986828869
 30
0.0
 40
0.5249999999999999
100
AcDbArc
 50
270.0
 51
0.0
  0
LINE
  5
3F52
330
1A
100
AcDbEntity
  8
ZUWAKU
100
AcDbLine
 10
46.11721216833712
 20
7.674999868288687
 30
0.0
 11
46.11721216833712
 21
9.424999868288687
 31
0.0
  0
ARC
  5
3F53
330
1A
100
AcDbEntity
  8
ZUWAKU
100
AcDbCircle
 10
46.64221216833721
 20
7.674999868288687
 30
0.0
 40
0.5249999999999999
100
AcDbArc
 50
180.0
 51
270.0
  0
ARC
  5
3F54
330
1A
100
AcDbEntity
  8
ZUWAKU
100
AcDbCircle
 10
42.96721216833714
 20
7.674999868288687
 30
0.0
 40
0.5249999999999999
100
AcDbArc
 50
270.0
 51
0.0
  0
ARC
  5
3F55
330
1A
100
AcDbEntity
  8
ZUWAKU
100
AcDbCircle
 10
46.64221216833721
 20
9.424999868288687
 30
0.0
 40
0.5249999999999999
100
AcDbArc
 50
90.0
 51
180.0
  0
LINE
  5
3F56
330
1A
100
AcDbEntity
  8
ZUWAKU
100
AcDbLine
 10
46.64221216833721
 20
9.949999868288685
 30
0.0
 11
49.61721216833712
 21
9.949999868288685
 31
0.0
  0
LINE
  5
3F57
330
1A
100
AcDbEntity
  8
ZUWAKU
100
AcDbLine
 10
46.64221216833721
 20
7.149999868288688
 30
0.0
 11
50.14221216833721
 21
7.149999868288688
 31
0.0
  0
LINE
  5
3F58
330
1A
100
AcDbEntity
  8
ZUWAKU
100
AcDbLine
 10
46.82236368735369
 20
15.66494936194987
 30
0.0
 11
49.73216166199836
 21
12.7551513873052
 31
0.0
  0
LINE
  5
3F59
330
1A
100
AcDbEntity
  8
ZUWAKU
100
AcDbLine
 10
52.94221216833716
 20
9.949999868288685
 30
0.0
 11
52.94221216833716
 21
11.76520189364403
 31
0.0
  0
ARC
  5
3F5A
330
1A
100
AcDbEntity
  8
ZUWAKU
100
AcDbCircle
 10
48.74221216833712
 20
11.76520189364399
 30
0.0
 40
4.199999999999999
100
AcDbArc
 50
0.0
 51
45.0
  0
ARC
  5
3F5B
330
1A
100
AcDbEntity
  8
ZUWAKU
100
AcDbCircle
 10
58.89221216833721
 20
10.99999986828868
 30
0.0
 40
1.05
100
AcDbArc
 50
180.0
 51
270.0
  0
ARC
  5
3F5C
330
1A
100
AcDbEntity
  8
ZUWAKU
100
AcDbCircle
 10
61.34221216833714
 20
9.949999868288685
 30
0.0
 40
2.8
100
AcDbArc
 50
270.0
 51
0.0
  0
LINE
  5
3F5D
330
1A
100
AcDbEntity
  8
ZUWAKU
100
AcDbLine
 10
66.76721216833721
 20
7.149999868288688
 30
0.0
 11
68.51721216833721
 21
7.149999868288688
 31
0.0
  0
ARC
  5
3F5E
330
1A
100
AcDbEntity
  8
ZUWAKU
100
AcDbCircle
 10
66.76721216833721
 20
7.674999868288687
 30
0.0
 40
0.5249999999999999
100
AcDbArc
 50
180.0
 51
270.0
  0
ARC
  5
3F5F
330
1A
100
AcDbEntity
  8
ZUWAKU
100
AcDbCircle
 10
60.29221216833719
 20
10.99999986828868
 30
0.0
 40
1.05
100
AcDbArc
 50
270.0
 51
0.0
  0
ARC
  5
3F60
330
1A
100
AcDbEntity
  8
ZUWAKU
100
AcDbCircle
 10
68.51721216833721
 20
7.674999868288687
 30
0.0
 40
0.5249999999999999
100
AcDbArc
 50
270.0
 51
0.0
  0
LINE
  5
3F61
330
1A
100
AcDbEntity
  8
ZUWAKU
100
AcDbLine
 10
42.96721216833714
 20
23.24999986828869
 30
0.0
 11
41.21721216833714
 21
23.24999986828869
 31
0.0
  0
ARC
  5
3F62
330
1A
100
AcDbEntity
  8
ZUWAKU
100
AcDbCircle
 10
32.11721216833712
 20
22.72499986828868
 30
0.0
 40
0.5249999999999999
100
AcDbArc
 50
0.0
 51
90.0
  0
LINE
  5
3F63
330
1A
100
AcDbEntity
  8
ZUWAKU
100
AcDbLine
 10
32.11721216833712
 20
23.24999986828869
 30
0.0
 11
30.36721216833712
 21
23.24999986828869
 31
0.0
  0
ARC
  5
3F64
330
1A
100
AcDbEntity
  8
ZUWAKU
100
AcDbCircle
 10
26.86721216833712
 20
22.72499986828868
 30
0.0
 40
0.5249999999999999
100
AcDbArc
 50
0.0
 51
90.0
  0
ARC
  5
3F65
330
1A
100
AcDbEntity
  8
ZUWAKU
100
AcDbCircle
 10
30.36721216833712
 20
22.72499986828868
 30
0.0
 40
0.5249999999999999
100
AcDbArc
 50
90.0
 51
180.0
  0
ARC
  5
3F66
330
1A
100
AcDbEntity
  8
ZUWAKU
100
AcDbCircle
 10
26.86721216833712
 20
20.97499986828868
 30
0.0
 40
0.5249999999999999
100
AcDbArc
 50
270.0
 51
0.0
  0
LINE
  5
3F67
330
1A
100
AcDbEntity
  8
ZUWAKU
100
AcDbLine
 10
27.39221216833721
 20
22.72499986828868
 30
0.0
 11
27.39221216833721
 21
20.97499986828868
 31
0.0
  0
ARC
  5
3F68
330
1A
100
AcDbEntity
  8
ZUWAKU
100
AcDbCircle
 10
41.21721216833714
 20
22.72499986828868
 30
0.0
 40
0.5249999999999999
100
AcDbArc
 50
90.0
 51
180.0
  0
LINE
  5
3F69
330
1A
100
AcDbEntity
  8
ZUWAKU
100
AcDbLine
 10
36.17697800484848
 20
23.24999986828869
 30
0.0
 11
37.87586738445748
 21
23.24999986828869
 31
0.0
  0
ARC
  5
3F6A
330
1A
100
AcDbEntity
  8
ZUWAKU
100
AcDbCircle
 10
37.87586738445748
 20
22.72499986828868
 30
0.0
 40
0.5249999999999999
100
AcDbArc
 50
342.474431626277
 51
90.0
  0
LINE
  5
3F6B
330
1A
100
AcDbEntity
  8
ZUWAKU
100
AcDbLine
 10
38.37649828365295
 20
22.56690590012172
 30
0.0
 11
37.31485865051513
 21
19.20504706185211
 31
0.0
  0
ARC
  5
3F6C
330
1A
100
AcDbEntity
  8
ZUWAKU
100
AcDbCircle
 10
36.17697800484848
 20
22.72499986828868
 30
0.0
 40
0.5249999999999999
100
AcDbArc
 50
90.0
 51
162.474431626277
  0
LINE
  5
3F6D
330
1A
100
AcDbEntity
  8
ZUWAKU
100
AcDbLine
 10
48.39221216833721
 20
23.24999986828869
 30
0.0
 11
51.89221216833721
 21
23.24999986828869
 31
0.0
  0
LINE
  5
3F6E
330
1A
100
AcDbEntity
  8
ZUWAKU
100
AcDbLine
 10
51.89221216833721
 20
20.44999986828869
 30
0.0
 11
48.91721216833719
 21
20.44999986828869
 31
0.0
  0
ARC
  5
3F6F
330
1A
100
AcDbEntity
  8
ZUWAKU
100
AcDbCircle
 10
48.91721216833719
 20
19.92499986828869
 30
0.0
 40
0.5249999999999999
100
AcDbArc
 50
90.0
 51
180.0
  0
LINE
  5
3F70
330
1A
100
AcDbEntity
  8
ZUWAKU
100
AcDbLine
 10
48.39221216833721
 20
19.92499986828869
 30
0.0
 11
48.39221216833721
 21
18.63479784293335
 31
0.0
  0
ARC
  5
3F71
330
1A
100
AcDbEntity
  8
ZUWAKU
100
AcDbCircle
 10
42.96721216833714
 20
22.72499986828868
 30
0.0
 40
0.5249999999999999
100
AcDbArc
 50
0.0
 51
90.0
  0
LINE
  5
3F72
330
1A
100
AcDbEntity
  8
ZUWAKU
100
AcDbLine
 10
45.59221216833714
 20
20.44999986828869
 30
0.0
 11
45.59221216833714
 21
18.63479784293335
 31
0.0
  0
ARC
  5
3F73
330
1A
100
AcDbEntity
  8
ZUWAKU
100
AcDbCircle
 10
48.39221216833721
 20
20.44999986828869
 30
0.0
 40
2.8
100
AcDbArc
 50
90.0
 51
180.0
  0
ARC
  5
3F74
330
1A
100
AcDbEntity
  8
ZUWAKU
100
AcDbCircle
 10
57.31721216833716
 20
22.72499986828868
 30
0.0
 40
0.5249999999999999
100
AcDbArc
 50
0.0
 51
90.0
  0
ARC
  5
3F75
330
1A
100
AcDbEntity
  8
ZUWAKU
100
AcDbCircle
 10
55.56721216833716
 20
22.72499986828868
 30
0.0
 40
0.5249999999999999
100
AcDbArc
 50
90.0
 51
180.0
  0
LINE
  5
3F76
330
1A
100
AcDbEntity
  8
ZUWAKU
100
AcDbLine
 10
57.31721216833716
 20
23.24999986828869
 30
0.0
 11
55.56721216833716
 21
23.24999986828869
 31
0.0
  0
ARC
  5
3F77
330
1A
100
AcDbEntity
  8
ZUWAKU
100
AcDbCircle
 10
51.89221216833721
 20
22.72499986828868
 30
0.0
 40
0.5249999999999999
100
AcDbArc
 50
0.0
 51
90.0
  0
ARC
  5
3F78
330
1A
100
AcDbEntity
  8
ZUWAKU
100
AcDbCircle
 10
51.89221216833721
 20
20.97499986828868
 30
0.0
 40
0.5249999999999999
100
AcDbArc
 50
270.0
 51
0.0
  0
LINE
  5
3F79
330
1A
100
AcDbEntity
  8
ZUWAKU
100
AcDbLine
 10
52.41721216833719
 20
22.72499986828868
 30
0.0
 11
52.41721216833719
 21
20.97499986828868
 31
0.0
  0
LINE
  5
3F7A
330
1A
100
AcDbEntity
  8
ZUWAKU
100
AcDbLine
 10
68.51721216833721
 20
23.24999986828869
 30
0.0
 11
66.76721216833721
 21
23.24999986828869
 31
0.0
  0
ARC
  5
3F7B
330
1A
100
AcDbEntity
  8
ZUWAKU
100
AcDbCircle
 10
66.76721216833721
 20
22.72499986828868
 30
0.0
 40
0.5249999999999999
100
AcDbArc
 50
90.0
 51
180.0
  0
ARC
  5
3F7C
330
1A
100
AcDbEntity
  8
ZUWAKU
100
AcDbCircle
 10
63.61721216833712
 20
22.72499986828868
 30
0.0
 40
0.5249999999999999
100
AcDbArc
 50
0.0
 51
90.0
  0
LINE
  5
3F7D
330
1A
100
AcDbEntity
  8
ZUWAKU
100
AcDbLine
 10
63.61721216833712
 20
23.24999986828869
 30
0.0
 11
61.86721216833712
 21
23.24999986828869
 31
0.0
  0
ARC
  5
3F7E
330
1A
100
AcDbEntity
  8
ZUWAKU
100
AcDbCircle
 10
61.86721216833712
 20
22.72499986828868
 30
0.0
 40
0.5249999999999999
100
AcDbArc
 50
90.0
 51
180.0
  0
ARC
  5
3F7F
330
1A
100
AcDbEntity
  8
ZUWAKU
100
AcDbCircle
 10
68.51721216833721
 20
22.72499986828868
 30
0.0
 40
0.5249999999999999
100
AcDbArc
 50
0.0
 51
90.0
  0
TEXT
  5
3F80
330
1A
100
AcDbEntity
  8
moji
100
AcDbText
 10
239.8272026944071
 20
18.00492092569607
 30
0.0
 40
5.6
  1
ブラケット正面打（吊）自在式
 41
0.9
  7
ｽﾀｲﾙ1
100
AcDbText
  0
TEXT
  5
3F81
330
1A
100
AcDbEntity
  8
moji
100
AcDbText
 10
239.8272026944071
 20
3.204920925696104
 30
0.0
 40
5.6
  1
Σ９０－４－４５～６０
 41
0.9
  7
ｽﾀｲﾙ1
100
AcDbText
  0
LINE
  5
3F82
330
1A
100
AcDbEntity
  8
ZUWAKU
100
AcDbLine
 10
208.246601303624
 20
29.99999986828868
 30
0.0
 11
208.246601303624
 21
0.7999998682887508
 31
0.0
  0
LINE
  5
3F83
330
1A
100
AcDbEntity
  8
ZUWAKU
100
AcDbLine
 10
208.6466013036238
 20
29.99999986828868
 30
0.0
 11
208.646601303624
 21
0.7999998682887508
 31
0.0
  0
LINE
  5
3F84
330
1A
100
AcDbEntity
  8
ZUWAKU
100
AcDbLine
 10
208.4466013036238
 20
29.99999986828868
 30
0.0
 11
208.446601303624
 21
0.7999998682887508
 31
0.0
  0
TEXT
  5
3F85
330
1A
100
AcDbEntity
  8
ZUWAKU
100
AcDbText
 10
209.7240463258336
 20
9.655356406674301
 30
0.0
 40
4.0
  1
サイズ
 41
0.9
  7
ｽﾀｲﾙ1
100
AcDbText
  0
TEXT
  5
3F86
330
1A
100
AcDbEntity
  8
ZUWAKU
100
AcDbText
 10
209.7240463258333
 20
24.05535640667426
 30
0.0
 40
4.0
  1
品名
 41
0.9
  7
ｽﾀｲﾙ1
100
AcDbText
  0
LINE
  5
3F87
330
1A
100
AcDbEntity
  8
ZUWAKU
100
AcDbLine
 10
648.8172025237602
 20
15.19999986828871
 30
0.0
 11
697.2490105620973
 21
15.19999986828872
 31
0.0
  0
LINE
  5
3F88
330
1A
100
AcDbEntity
  8
ZUWAKU
100
AcDbLine
 10
648.8172025237604
 20
15.39999986828872
 30
0.0
 11
697.2490105620973
 21
15.39999986828872
 31
0.0
  0
LINE
  5
3F89
330
1A
100
AcDbEntity
  8
ZUWAKU
100
AcDbLine
 10
648.8172025237602
 20
15.59999986828872
 30
0.0
 11
697.2490105620973
 21
15.59999986828872
 31
0.0
  0
TEXT
  5
3F8A
330
1A
100
AcDbEntity
  8
ZUWAKU
100
AcDbText
 10
658.2039377008584
 20
18.00492092569607
 30
0.0
 40
5.6
  1
　　．　　．　　
 41
0.9
  7
ｽﾀｲﾙ1
100
AcDbText
  0
LINE
  5
3F8B
330
1A
100
AcDbEntity
  8
ZUWAKU
100
AcDbLine
 10
505.1991795116969
 20
15.19999986828872
 30
0.0
 11
552.5269557796685
 21
15.19999986828872
 31
0.0
  0
LINE
  5
3F8C
330
1A
100
AcDbEntity
  8
ZUWAKU
100
AcDbLine
 10
505.1991795116969
 20
15.39999986828872
 30
0.0
 11
552.5269557796685
 21
15.39999986828872
 31
0.0
  0
LINE
  5
3F8D
330
1A
100
AcDbEntity
  8
ZUWAKU
100
AcDbLine
 10
505.1991795116969
 20
15.59999986828872
 30
0.0
 11
552.5269557796685
 21
15.59999986828872
 31
0.0
  0
TEXT
  5
3F8E
330
1A
100
AcDbEntity
  8
moji
100
AcDbText
 10
463.2464320045581
 20
11.94261758994867
 30
0.0
 40
5.6
  1
ＬＧ４８Ｔ
 41
0.9
  7
ｽﾀｲﾙ1
100
AcDbText
  0
LINE
  5
3F8F
330
1A
100
AcDbEntity
  8
ZUWAKU
100
AcDbLine
 10
447.6243639845472
 20
29.99999986828868
 30
0.0
 11
447.6243639845475
 21
0.7999998682887508
 31
0.0
  0
LINE
  5
3F90
330
1A
100
AcDbEntity
  8
ZUWAKU
100
AcDbLine
 10
447.8243639845473
 20
29.99999986828868
 30
0.0
 11
447.8243639845475
 21
0.7999998682887508
 31
0.0
  0
LINE
  5
3F91
330
1A
100
AcDbEntity
  8
ZUWAKU
100
AcDbLine
 10
447.4243639845474
 20
29.99999986828868
 30
0.0
 11
447.4243639845474
 21
0.7999998682887508
 31
0.0
  0
TEXT
  5
3F92
330
1A
100
AcDbEntity
  8
moji
100
AcDbText
 10
528.0409079858689
 20
18.00492092569607
 30
0.0
 40
5.6
  1
Ａ３
 41
0.9
  7
ｽﾀｲﾙ1
100
AcDbText
  0
LINE
  5
3F93
330
1A
100
AcDbEntity
  8
ZUWAKU
100
AcDbLine
 10
504.9991795116969
 20
29.99999986828868
 30
0.0
 11
504.9991795116971
 21
0.7999998682887508
 31
0.0
  0
LINE
  5
3F94
330
1A
100
AcDbEntity
  8
ZUWAKU
100
AcDbLine
 10
505.1991795116969
 20
29.99999986828868
 30
0.0
 11
505.1991795116971
 21
0.7999998682887508
 31
0.0
  0
LINE
  5
3F95
330
1A
100
AcDbEntity
  8
ZUWAKU
100
AcDbLine
 10
504.7991795116971
 20
29.99999986828868
 30
0.0
 11
504.7991795116971
 21
0.7999998682887508
 31
0.0
  0
TEXT
  5
3F97
330
1A
100
AcDbEntity
  8
ZUWAKU
100
AcDbText
 10
506.6766245339068
 20
9.655356406674301
 30
0.0
 40
4.0
  1
縮尺
 41
0.9
  7
ｽﾀｲﾙ1
100
AcDbText
  0
TEXT
  5
3F98
330
1A
100
AcDbEntity
  8
moji
100
AcDbText
 10
528.0409079858689
 20
3.204920925696104
 30
0.0
 40
5.6
  1
１/２
 41
0.9
  7
ｽﾀｲﾙ1
100
AcDbText
  0
TEXT
  5
3F99
330
1A
100
AcDbEntity
  8
ZUWAKU
100
AcDbText
 10
449.3018090067569
 20
24.05535640667426
 30
0.0
 40
4.0
  1
品番
 41
0.9
  7
ｽﾀｲﾙ1
100
AcDbText
  0
TEXT
  5
3F9A
330
1A
100
AcDbEntity
  8
ZUWAKU
100
AcDbText
 10
506.6766245339065
 20
24.05535640667426
 30
0.0
 40
4.0
  1
用紙
 41
0.9
  7
ｽﾀｲﾙ1
100
AcDbText
  0
LINE
  5
3F9B
330
1A
100
AcDbEntity
  8
ZUWAKU
100
AcDbLine
 10
648.6172025237604
 20
29.99999986828868
 30
0.0
 11
648.6172025237606
 21
0.7999998682887508
 31
0.0
  0
LINE
  5
3F9C
330
1A
100
AcDbEntity
  8
ZUWAKU
100
AcDbLine
 10
648.8172025237604
 20
29.99999986828868
 30
0.0
 11
648.8172025237607
 21
0.7999998682887508
 31
0.0
  0
LINE
  5
3F9D
330
1A
100
AcDbEntity
  8
ZUWAKU
100
AcDbLine
 10
648.4172025237606
 20
29.99999986828868
 30
0.0
 11
648.4172025237606
 21
0.7999998682887508
 31
0.0
  0
LINE
  5
3F9E
330
1A
100
AcDbEntity
  8
ZUWAKU
100
AcDbLine
 10
552.7269557796683
 20
29.99999986828868
 30
0.0
 11
552.7269557796685
 21
0.7999998682887508
 31
0.0
  0
LINE
  5
3F9F
330
1A
100
AcDbEntity
  8
ZUWAKU
100
AcDbLine
 10
552.9269557796683
 20
29.99999986828868
 30
0.0
 11
552.9269557796686
 21
0.7999998682887508
 31
0.0
  0
LINE
  5
3FA0
330
1A
100
AcDbEntity
  8
ZUWAKU
100
AcDbLine
 10
552.5269557796685
 20
29.99999986828868
 30
0.0
 11
552.5269557796685
 21
0.7999998682887508
 31
0.0
  0
TEXT
  5
3FA1
330
1A
100
AcDbEntity
  8
ZUWAKU
100
AcDbText
 10
650.2946475459701
 20
24.05535640667426
 30
0.0
 40
4.0
  1
DATE
 41
0.9
  7
ｽﾀｲﾙ1
100
AcDbText
  0
LINE
  5
3FA2
330
1A
100
AcDbEntity
  8
ZUWAKU
100
AcDbLine
 10
697.2490105620973
 20
29.99999986828868
 30
0.0
 11
697.2490105620973
 21
0.7999998682887508
 31
0.0
  0
LINE
  5
3FA3
330
1A
100
AcDbEntity
  8
ZUWAKU
100
AcDbLine
 10
697.4490105620973
 20
29.99999986828868
 30
0.0
 11
697.4490105620973
 21
0.7999998682887508
 31
0.0
  0
LINE
  5
3FA4
330
1A
100
AcDbEntity
  8
ZUWAKU
100
AcDbLine
 10
697.6490105620972
 20
29.99999986828868
 30
0.0
 11
697.6490105620974
 21
0.7999998682887508
 31
0.0
  0
LINE
  5
3FA5
330
1A
100
AcDbEntity
  8
ZUWAKU
100
AcDbLine
 10
697.8490105620972
 20
29.99999986828868
 30
0.0
 11
697.8490105620974
 21
0.7999998682887508
 31
0.0
  0
TEXT
  5
3FA6
330
1A
100
AcDbEntity
  8
ZUWAKU
100
AcDbText
 10
708.5280842057998
 20
17.55383920397549
 30
0.0
 40
6.0
  1
積水化学工業株式会社
 41
0.9
  7
ｽﾀｲﾙ1
100
AcDbText
  0
TEXT
  5
3FA7
330
1A
100
AcDbEntity
  8
ZUWAKU
100
AcDbText
 10
708.5280842057998
 20
6.648840182142749
 30
0.0
 40
6.0
  1
建材事業部
 41
0.9
  7
ｽﾀｲﾙ1
100
AcDbText
  0
DIMENSION
  5
4E61
330
1A
100
AcDbEntity
  8
SUNPOU
 62
     4
 48
5.0
100
AcDbDimension
  2
*D1
 10
414.3666968019269
 20
304.3131114613038
 30
0.0
 11
421.8666968019268
 21
309.3131114613038
 31
0.0
 70
    32
 71
     5
 42
14.99999999999989
  3
STANDARD
100
AcDbAlignedDimension
 13
429.3666968019268
 23
255.4853274142265
 33
0.0
 14
414.3666968019269
 24
255.4853274142266
 34
0.0
100
AcDbRotatedDimension
1001
ACAD
1000
DSTYLE
1002
{
1070
   140
1040
6.0
1070
    74
1070
     0
1070
   172
1070
     1
1070
    73
1070
     0
1070
   272
1070
     2
1070
    77
1070
     3
1070
   173
1070
     1
1070
   147
1040
2.0
1070
    42
1040
6.0
1070
    44
1040
3.0
1070
    43
1040
14.0
1070
   271
1070
     0
1070
   178
1070
     4
1070
   177
1070
     4
1070
   176
1070
     4
1070
   141
1040
150.0
1070
     7
1000
_OPEN
1070
     6
1000
_OPEN
1070
    41
1040
7.0
1002
}
  0
DIMENSION
  5
4E62
330
1A
100
AcDbEntity
  8
SUNPOU
 62
     4
 48
5.0
100
AcDbDimension
  2
*D2
 10
450.3193136153002
 20
161.5608211430454
 30
0.0
 11
426.1789724609066
 21
157.2895298922067
 31
0.0
 70
    33
  1
t<>
 71
     5
 42
1.501897058483166
  3
STANDARD
100
AcDbAlignedDimension
 13
440.3640276708336
 23
190.4920002419593
 33
0.0
 14
438.9695581565812
 24
189.9341924362584
 34
0.0
1001
ACAD
1000
DSTYLE
1002
{
1070
   140
1040
6.0
1070
    74
1070
     0
1070
   172
1070
     1
1070
    73
1070
     0
1070
   272
1070
     2
1070
    77
1070
     3
1070
   173
1070
     1
1070
   147
1040
2.0
1070
    42
1040
6.0
1070
    44
1040
3.0
1070
    43
1040
14.0
1070
   271
1070
     1
1070
   178
1070
     4
1070
   177
1070
     4
1070
   176
1070
     4
1070
   141
1040
150.0
1070
     7
1000
_OPEN
1070
     6
1000
_OPEN
1070
    41
1040
7.0
1002
}
  0
TEXT
  5
4E63
330
1A
100
AcDbEntity
  8
SUNPOU
 48
5.0
100
AcDbText
 10
420.7161452504702
 20
316.3981812668194
 30
0.0
 40
6.0
  1
スライド巾
100
AcDbText
  0
DIMENSION
  5
4E64
330
1A
100
AcDbEntity
  8
SUNPOU
 48
5.0
100
AcDbDimension
  2
*D3
 10
471.1603088516826
 20
202.8105127142988
 30
0.0
 11
462.8040268716557
 21
237.1641296822029
 31
0.0
 70
    33
 71
     5
 42
69.99995563733441
  3
STANDARD
100
AcDbAlignedDimension
 13
414.3666968019269
 23
255.4853274142266
 33
0.0
 14
440.3640276708335
 24
190.4920002419593
 34
0.0
1001
ACAD
1000
DSTYLE
1002
{
1070
   140
1040
6.0
1070
    74
1070
     0
1070
   172
1070
     1
1070
    73
1070
     0
1070
   272
1070
     2
1070
    77
1070
     3
1070
   173
1070
     1
1070
   147
1040
2.0
1070
    42
1040
6.0
1070
    44
1040
3.0
1070
    43
1040
14.0
1070
   271
1070
     0
1070
   178
1070
     4
1070
   177
1070
     4
1070
   176
1070
     4
1070
   141
1040
150.0
1070
     7
1000
_OPEN
1070
     6
1000
_OPEN
1070
    41
1040
7.0
1002
}
  0
DIMENSION
  5
4E65
330
1A
100
AcDbEntity
  8
SUNPOU
 48
5.0
100
AcDbDimension
  2
*D4
 10
470.6091408428656
 20
368.3067633037853
 30
0.0
 11
465.6091408428655
 21
395.8067633037853
 31
0.0
 70
    32
 71
     5
 42
55.0
  3
STANDARD
100
AcDbAlignedDimension
 13
428.1075581565811
 23
423.3067633037853
 33
0.0
 14
428.1075581565811
 24
368.3067633037853
 34
0.0
 50
90.0
100
AcDbRotatedDimension
1001
ACAD
1000
DSTYLE
1002
{
1070
   140
1040
6.0
1070
    74
1070
     0
1070
   172
1070
     1
1070
    73
1070
     0
1070
   272
1070
     2
1070
    77
1070
     3
1070
   173
1070
     1
1070
   147
1040
2.0
1070
    42
1040
6.0
1070
    44
1040
3.0
1070
    43
1040
14.0
1070
   271
1070
     0
1070
   178
1070
     4
1070
   177
1070
     4
1070
   176
1070
     4
1070
   141
1040
150.0
1070
     7
1000
_OPEN
1070
     6
1000
_OPEN
1070
    41
1040
7.0
1002
}
  0
DIMENSION
  5
4E66
330
1A
100
AcDbEntity
  8
SUNPOU
 48
5.0
100
AcDbDimension
  2
*D5
 10
216.0877155589392
 20
189.9341924362584
 30
0.0
 11
211.0877155589392
 21
217.2441924362584
 31
0.0
 70
    32
 71
     5
 42
54.61999999999998
  3
STANDARD
100
AcDbAlignedDimension
 13
247.8666581565811
 23
244.5541924362584
 33
0.0
 14
438.9695581565811
 24
189.9341924362583
 34
0.0
 50
90.0
100
AcDbRotatedDimension
1001
ACAD
1000
DSTYLE
1002
{
1070
   140
1040
6.0
1070
    74
1070
     0
1070
   172
1070
     1
1070
    73
1070
     0
1070
   272
1070
     2
1070
    77
1070
     3
1070
   173
1070
     1
1070
   147
1040
2.0
1070
    42
1040
6.0
1070
    44
1040
3.0
1070
    43
1040
14.0
1070
   271
1070
     0
1070
   178
1070
     4
1070
   177
1070
     4
1070
   176
1070
     4
1070
   141
1040
150.0
1070
     7
1000
_OPEN
1070
     6
1000
_OPEN
1070
    41
1040
7.0
1002
}
  0
LINE
  5
4E67
330
1A
100
AcDbEntity
  8
CENTER L
  6
CENTER
 62
     1
 48
5.0
100
AcDbLine
 10
429.2553658610219
 20
415.3068092669874
 30
0.0
 11
423.415765861111
 21
415.3068415208393
 31
0.0
  0
ELLIPSE
  5
4E68
330
1A
100
AcDbEntity
  8
SEIHIN
  6
Continuous
 62
     3
 48
5.0
100
AcDbEllipse
 10
428.8499731565811
 20
395.8066343037852
 30
0.0
 11
-2.255861885700000E-6
 21
-4.015700281930287
 31
0.0
210
0.0
220
0.0
230
1.0
 40
0.3712500000000001
 41
1.570828754682717
 42
4.355477460176606
  0
LINE
  5
4E69
330
1A
100
AcDbEntity
  8
SEIHIN
  6
Continuous
 62
     3
 48
5.0
100
AcDbLine
 10
428.8499581565811
 20
399.8067633037853
 30
0.0
 11
401.3667581565811
 21
399.8067633037853
 31
0.0
  0
LINE
  5
4E6A
330
1A
100
AcDbEntity
  8
CENTER L
  6
CENTER
 62
     1
 48
5.0
100
AcDbLine
 10
429.2552581565811
 20
376.3067633037853
 30
0.0
 11
423.4156581565811
 21
376.3067633037853
 31
0.0
  0
LINE
  5
4E6B
330
1A
100
AcDbEntity
  8
SEIHIN
  6
Continuous
 62
     3
 48
5.0
100
AcDbLine
 10
428.8499581565811
 20
391.8067633037853
 30
0.0
 11
401.3667581565811
 21
391.8067633037853
 31
0.0
  0
LINE
  5
4E6C
330
1A
100
AcDbEntity
  8
SEIHIN
  6
Continuous
 62
     3
 48
5.0
100
AcDbLine
 10
437.0927581565811
 20
382.1464633037853
 30
0.0
 11
428.1075581565811
 21
368.3067633037853
 31
0.0
  0
LINE
  5
4E6D
330
1A
100
AcDbEntity
  8
SEIHIN
  6
Continuous
 62
     3
 48
5.0
100
AcDbLine
 10
437.0927581565811
 20
409.4670633037853
 30
0.0
 11
428.1075581565811
 21
423.3067633037853
 31
0.0
  0
ARC
  5
4E6E
330
1A
100
AcDbEntity
  8
SEIHIN
  6
PHANTOM
 62
     6
 48
5.0
100
AcDbCircle
 10
424.8003581565811
 20
248.0526924362583
 30
0.0
 40
7.000042999999999
100
AcDbArc
 50
21.80019400000011
 51
95.0690450000007
  0
LINE
  5
4E6F
330
1A
100
AcDbEntity
  8
SEIHIN
  6
PHANTOM
 62
     6
 48
5.0
100
AcDbLine
 10
424.0906581565811
 20
247.9897924362584
 30
0.0
 11
431.6876581565811
 21
245.6433924362584
 31
0.0
  0
LINE
  5
4E70
330
1A
100
AcDbEntity
  8
SEIHIN
  6
PHANTOM
 62
     6
 48
5.0
100
AcDbLine
 10
431.2235581565811
 20
250.8427924362584
 30
0.0
 11
424.0906581565811
 21
247.9897924362584
 31
0.0
  0
LINE
  5
4E71
330
1A
100
AcDbEntity
  8
CENTER L
  6
CENTER
 62
     1
 48
5.0
100
AcDbLine
 10
420.1485581565811
 20
220.6414924362583
 30
0.0
 11
429.7937581565811
 21
224.4991924362583
 31
0.0
  0
ARC
  5
4E72
330
1A
100
AcDbEntity
  8
SEIHIN
  6
Continuous
 62
     3
 48
5.0
100
AcDbCircle
 10
428.3856581565811
 20
216.3961924362583
 30
0.0
 40
3.000038
100
AcDbArc
 50
201.799636
 51
291.7996359999992
  0
LINE
  5
4E73
330
1A
100
AcDbEntity
  8
SEIHIN
  6
PHANTOM
 62
     6
 48
5.0
100
AcDbLine
 10
428.0011581565811
 20
246.7819924362584
 30
0.0
 11
440.6001581565811
 21
215.2820924362584
 31
0.0
  0
LINE
  5
4E74
330
1A
100
AcDbEntity
  8
SEIHIN
  6
Continuous
 62
     3
 48
5.0
100
AcDbLine
 10
416.6876581565811
 20
245.6433924362584
 30
0.0
 11
438.9695581565811
 21
189.9341924362583
 31
0.0
  0
LINE
  5
4E75
330
1A
100
AcDbEntity
  8
SEIHIN
  6
Continuous
 62
     3
 48
5.0
100
AcDbLine
 10
416.2997446016286
 20
250.6523263263156
 30
0.0
 11
440.3622581565811
 21
190.4912924362583
 31
0.0
  0
LINE
  5
4E76
330
1A
100
AcDbEntity
  8
CENTER L
  6
CENTER
 62
     1
 48
5.0
100
AcDbLine
 10
241.8040581565811
 20
395.8067633037853
 30
0.0
 11
446.8744581565811
 21
395.8067633037853
 31
0.0
  0
DIMENSION
  5
4E77
330
1A
100
AcDbEntity
  8
SUNPOU
 62
     4
 48
5.0
100
AcDbDimension
  2
*D6
 10
414.3666968019269
 20
304.3131114613038
 30
0.0
 11
330.366677479254
 21
309.3131114613038
 31
0.0
 70
    32
 71
     5
 42
168.0000386453459
  3
STANDARD
100
AcDbAlignedDimension
 13
246.366658156581
 23
242.5541924362584
 33
0.0
 14
414.3666968019269
 24
255.4853274142266
 34
0.0
100
AcDbRotatedDimension
1001
ACAD
1000
DSTYLE
1002
{
1070
   140
1040
6.0
1070
    74
1070
     0
1070
   172
1070
     1
1070
    73
1070
     0
1070
   272
1070
     2
1070
    77
1070
     3
1070
   173
1070
     1
1070
   147
1040
2.0
1070
    42
1040
6.0
1070
    44
1040
3.0
1070
    43
1040
14.0
1070
   271
1070
     0
1070
   178
1070
     4
1070
   177
1070
     4
1070
   176
1070
     4
1070
   141
1040
150.0
1070
     7
1000
_OPEN
1070
     6
1000
_OPEN
1070
    41
1040
7.0
1002
}
  0
DIMENSION
  5
4E78
330
1A
100
AcDbEntity
  8
SUNPOU
 62
     4
 48
5.0
100
AcDbDimension
  2
*D7
 10
414.3666968019269
 20
288.809476385808
 30
0.0
 11
351.991727479254
 21
293.809476385808
 31
0.0
 70
    32
 71
     5
 42
124.7499386453458
  3
STANDARD
100
AcDbAlignedDimension
 13
289.6167581565811
 23
217.5540924362583
 33
0.0
 14
414.3666968019269
 24
255.4853274142266
 34
0.0
100
AcDbRotatedDimension
1001
ACAD
1000
DSTYLE
1002
{
1070
   140
1040
6.0
1070
    74
1070
     0
1070
   172
1070
     1
1070
    73
1070
     0
1070
   272
1070
     2
1070
    77
1070
     3
1070
   173
1070
     1
1070
   147
1040
2.0
1070
    42
1040
6.0
1070
    44
1040
3.0
1070
    43
1040
14.0
1070
   271
1070
     0
1070
   178
1070
     4
1070
   177
1070
     4
1070
   176
1070
     4
1070
   141
1040
150.0
1070
     7
1000
_OPEN
1070
     6
1000
_OPEN
1070
    41
1040
7.0
1002
}
  0
ARC
  5
4E79
330
1A
100
AcDbEntity
  8
SEIHIN
  6
Continuous
 62
     3
 48
5.0
100
AcDbCircle
 10
299.6169581565811
 20
210.9706924362583
 30
0.0
 40
9.083389
100
AcDbArc
 50
56.60174300000082
 51
123.3982569999992
  0
LINE
  5
4E7A
330
1A
100
AcDbEntity
  8
SEIHIN
  6
Continuous
 62
     3
 48
5.0
100
AcDbLine
 10
304.6169581565811
 20
218.5540924362583
 30
0.0
 11
294.6169581565811
 21
218.5540924362583
 31
0.0
  0
LINE
  5
4E7B
330
1A
100
AcDbEntity
  8
SEIHIN
  6
Continuous
 62
     3
 48
5.0
100
AcDbLine
 10
289.6167581565811
 20
217.5540924362583
 30
0.0
 11
307.6167581565811
 21
217.5540924362583
 31
0.0
  0
LINE
  5
4E7C
330
1A
100
AcDbEntity
  8
SEIHIN
  6
Continuous
 62
     3
 48
5.0
100
AcDbLine
 10
296.6168581565811
 20
195.5540924362583
 30
0.0
 11
302.6168581565811
 21
195.5540924362583
 31
0.0
  0
LINE
  5
4E7D
330
1A
100
AcDbEntity
  8
SEIHIN
  6
Continuous
 62
     3
 48
5.0
100
AcDbLine
 10
295.1168581565811
 20
197.5540924362583
 30
0.0
 11
304.1168581565811
 21
197.5540924362583
 31
0.0
  0
LINE
  5
4E7E
330
1A
100
AcDbEntity
  8
SEIHIN
  6
Continuous
 62
     3
 48
5.0
100
AcDbLine
 10
293.1168581565811
 20
203.5540924362583
 30
0.0
 11
306.1168581565811
 21
203.5540924362583
 31
0.0
  0
LINE
  5
4E7F
330
1A
100
AcDbEntity
  8
SEIHIN
  6
Continuous
 62
     3
 48
5.0
100
AcDbLine
 10
293.6167581565811
 20
210.5540924362583
 30
0.0
 11
307.3253581565811
 21
210.5540924362583
 31
0.0
  0
LINE
  5
4E80
330
1A
100
AcDbEntity
  8
SEIHIN
  6
Continuous
 62
     3
 48
5.0
100
AcDbLine
 10
274.5949581565811
 20
208.0541924362584
 30
0.0
 11
338.1402581565811
 21
208.0540924362583
 31
0.0
  0
LINE
  5
4E81
330
1A
100
AcDbEntity
  8
SEIHIN
  6
Continuous
 62
     3
 48
5.0
100
AcDbLine
 10
274.2559581565811
 20
205.5541924362584
 30
0.0
 11
340.1345581565811
 21
205.5540924362583
 31
0.0
  0
LINE
  5
4E82
330
1A
100
AcDbEntity
  8
SEIHIN
  6
Continuous
 62
     3
 48
5.0
100
AcDbLine
 10
296.6168581565811
 20
195.5540924362583
 30
0.0
 11
296.6168581565811
 21
197.5540924362583
 31
0.0
  0
LINE
  5
4E83
330
1A
100
AcDbEntity
  8
SEIHIN
  6
Continuous
 62
     3
 48
5.0
100
AcDbLine
 10
293.1444581565811
 20
194.0215924362584
 30
0.0
 11
294.0670581565811
 21
197.4980924362583
 31
0.0
  0
ARC
  5
4E84
330
1A
100
AcDbEntity
  8
SEIHIN
  6
Continuous
 62
     3
 48
5.0
100
AcDbCircle
 10
288.1869581565811
 20
196.7330924362584
 30
0.0
 40
1.500005
100
AcDbArc
 50
129.4460959999994
 51
240.0011820000002
  0
ARC
  5
4E85
330
1A
100
AcDbEntity
  8
SEIHIN
  6
Continuous
 62
     3
 48
5.0
100
AcDbCircle
 10
288.1869581565811
 20
196.7330924362584
 30
0.0
 40
0.500041
100
AcDbArc
 50
129.4490450000006
 51
240.0050010000005
  0
LINE
  5
4E86
330
1A
100
AcDbEntity
  8
SEIHIN
  6
Continuous
 62
     3
 48
5.0
100
AcDbLine
 10
295.1165581565811
 20
197.5540924362583
 30
0.0
 11
294.1109581565811
 21
193.7650924362583
 31
0.0
  0
LINE
  5
4E87
330
1A
100
AcDbEntity
  8
SEIHIN
  6
Continuous
 62
     3
 48
5.0
100
AcDbLine
 10
287.9369581565811
 20
196.2999924362584
 30
0.0
 11
292.4111581565811
 21
193.7168924362584
 31
0.0
  0
LINE
  5
4E88
330
1A
100
AcDbEntity
  8
SEIHIN
  6
Continuous
 62
     3
 48
5.0
100
AcDbLine
 10
291.9111581565811
 20
192.8507924362583
 30
0.0
 11
287.4369581565811
 21
195.4339924362583
 31
0.0
  0
ARC
  5
4E89
330
1A
100
AcDbEntity
  8
SEIHIN
  6
Continuous
 62
     3
 48
5.0
100
AcDbCircle
 10
292.6611581565811
 20
194.1497924362583
 30
0.0
 40
0.5000020000000001
100
AcDbArc
 50
239.9992719999999
 51
345.1438720000002
  0
ARC
  5
4E8A
330
1A
100
AcDbEntity
  8
SEIHIN
  6
Continuous
 62
     3
 48
5.0
100
AcDbCircle
 10
292.6611581565811
 20
194.1497924362583
 30
0.0
 40
1.499969
100
AcDbArc
 50
239.9992719999999
 51
345.1392000000001
  0
ARC
  5
4E8B
330
1A
100
AcDbEntity
  8
SEIHIN
  6
Continuous
 62
     3
 48
5.0
100
AcDbCircle
 10
247.8666581565811
 20
243.0541924362584
 30
0.0
 40
1.5
100
AcDbArc
 50
0.0
 51
180.0
  0
ARC
  5
4E8C
330
1A
100
AcDbEntity
  8
SEIHIN
  6
Continuous
 62
     3
 48
5.0
100
AcDbCircle
 10
265.2068581565811
 20
228.2020924362583
 30
0.0
 40
1.000005
100
AcDbArc
 50
27.91037699999971
 51
201.734379
  0
ARC
  5
4E8D
330
1A
100
AcDbEntity
  8
SEIHIN
  6
Continuous
 62
     3
 48
5.0
100
AcDbCircle
 10
261.5607581565811
 20
236.1541924362583
 30
0.0
 40
2.999986
100
AcDbArc
 50
27.90700100000012
 51
90.0
  0
LINE
  5
4E8E
330
1A
100
AcDbEntity
  8
SEIHIN
  6
Continuous
 62
     3
 48
5.0
100
AcDbLine
 10
275.4439581565811
 20
217.3519924362583
 30
0.0
 11
264.2118581565811
 21
237.5582924362583
 31
0.0
  0
LINE
  5
4E8F
330
1A
100
AcDbEntity
  8
SEIHIN
  6
Continuous
 62
     3
 48
5.0
100
AcDbLine
 10
260.1218581565811
 20
231.5057924362583
 30
0.0
 11
269.6114581565811
 21
208.7024924362584
 31
0.0
  0
LINE
  5
4E90
330
1A
100
AcDbEntity
  8
SEIHIN
  6
Continuous
 62
     3
 48
5.0
100
AcDbLine
 10
271.8082581565811
 20
209.9431924362583
 30
0.0
 11
264.2779581565811
 21
227.8317924362584
 31
0.0
  0
LINE
  5
4E91
330
1A
100
AcDbEntity
  8
SEIHIN
  6
Continuous
 62
     3
 48
5.0
100
AcDbLine
 10
246.3666581565811
 20
240.5540924362583
 30
0.0
 11
249.3666581565811
 21
240.5540924362583
 31
0.0
  0
ARC
  5
4E92
330
1A
100
AcDbEntity
  8
SEIHIN
  6
Continuous
 62
     3
 48
5.0
100
AcDbCircle
 10
249.3666581565811
 20
237.6541924362583
 30
0.0
 40
3.0
100
AcDbArc
 50
180.0
 51
270.0
  0
LINE
  5
4E93
330
1A
100
AcDbEntity
  8
SEIHIN
  6
Continuous
 62
     3
 48
5.0
100
AcDbLine
 10
246.3666581565811
 20
243.0541924362584
 30
0.0
 11
246.3666581565811
 21
237.6541924362583
 31
0.0
  0
ARC
  5
4E94
330
1A
100
AcDbEntity
  8
SEIHIN
  6
Continuous
 62
     3
 48
5.0
100
AcDbCircle
 10
255.4773581565811
 20
229.6541924362583
 30
0.0
 40
4.99999
100
AcDbArc
 50
21.73544399999976
 51
90.0
  0
LINE
  5
4E95
330
1A
100
AcDbEntity
  8
SEIHIN
  6
Continuous
 62
     3
 48
5.0
100
AcDbLine
 10
261.5607581565811
 20
239.1541924362583
 30
0.0
 11
250.3666581565811
 21
239.1541924362583
 31
0.0
  0
LINE
  5
4E96
330
1A
100
AcDbEntity
  8
SEIHIN
  6
Continuous
 62
     3
 48
5.0
100
AcDbLine
 10
249.3666581565811
 20
243.0541924362584
 30
0.0
 11
249.3666581565811
 21
240.1541924362583
 31
0.0
  0
ARC
  5
4E97
330
1A
100
AcDbEntity
  8
SEIHIN
  6
Continuous
 62
     3
 48
5.0
100
AcDbCircle
 10
250.3666581565811
 20
240.1541924362583
 30
0.0
 40
1.0
100
AcDbArc
 50
180.0
 51
270.0
  0
LINE
  5
4E98
330
1A
100
AcDbEntity
  8
SEIHIN
  6
Continuous
 62
     3
 48
5.0
100
AcDbLine
 10
255.4773581565811
 20
234.6541924362583
 30
0.0
 11
249.3666581565811
 21
234.6541924362583
 31
0.0
  0
LINE
  5
4E99
330
1A
100
AcDbEntity
  8
SEIHIN
  6
Continuous
 62
     3
 48
5.0
100
AcDbLine
 10
273.5164581565811
 20
215.6499924362583
 30
0.0
 11
266.0905581565811
 21
228.6701924362583
 31
0.0
  0
LINE
  5
4E9A
330
1A
100
AcDbEntity
  8
SEIHIN
  6
Continuous
 62
     3
 48
5.0
100
AcDbLine
 10
289.6167581565811
 20
216.5539924362583
 30
0.0
 11
276.7695581565811
 21
216.5541924362584
 31
0.0
  0
LINE
  5
4E9B
330
1A
100
AcDbEntity
  8
SEIHIN
  6
Continuous
 62
     3
 48
5.0
100
AcDbLine
 10
276.1675581565811
 20
214.0541924362584
 30
0.0
 11
290.1168581565811
 21
214.0539924362583
 31
0.0
  0
ARC
  5
4E9C
330
1A
100
AcDbEntity
  8
SEIHIN
  6
Continuous
 62
     3
 48
5.0
100
AcDbCircle
 10
274.5949581565811
 20
211.0541924362584
 30
0.0
 40
3.000001
100
AcDbArc
 50
201.7361540000001
 51
270.0
  0
LINE
  5
4E9D
330
1A
100
AcDbEntity
  8
SEIHIN
  6
Continuous
 62
     3
 48
5.0
100
AcDbLine
 10
274.8664581565811
 20
214.0541924362584
 30
0.0
 11
274.8664581565811
 21
208.0541924362584
 31
0.0
  0
ARC
  5
4E9E
330
1A
100
AcDbEntity
  8
SEIHIN
  6
Continuous
 62
     3
 48
5.0
100
AcDbCircle
 10
274.2559581565811
 20
210.5541924362584
 30
0.0
 40
5.000009
100
AcDbArc
 50
201.736508
 51
270.0
  0
ARC
  5
4E9F
330
1A
100
AcDbEntity
  8
SEIHIN
  6
Continuous
 62
     3
 48
5.0
100
AcDbCircle
 10
276.7695581565811
 20
218.0541924362584
 30
0.0
 40
1.499982
100
AcDbArc
 50
207.9095829999997
 51
270.0
  0
ARC
  5
4EA0
330
1A
100
AcDbEntity
  8
SEIHIN
  6
Continuous
 62
     3
 48
5.0
100
AcDbCircle
 10
276.1675581565811
 20
217.0541924362584
 30
0.0
 40
3.000009
100
AcDbArc
 50
207.9086889999998
 51
270.0
  0
LINE
  5
4EA1
330
1A
100
AcDbEntity
  8
SEIHIN
  6
Continuous
 62
     3
 48
5.0
100
AcDbLine
 10
294.1165581565811
 20
203.5540924362583
 30
0.0
 11
287.2339581565811
 21
197.8913924362583
 31
0.0
  0
LINE
  5
4EA2
330
1A
100
AcDbEntity
  8
SEIHIN
  6
Continuous
 62
     3
 48
5.0
100
AcDbLine
 10
287.8692581565811
 20
197.1191924362583
 30
0.0
 11
292.7462581565811
 21
201.1316924362583
 31
0.0
  0
ARC
  5
4EA3
330
1A
100
AcDbEntity
  8
SEIHIN
  6
Continuous
 62
     3
 48
5.0
100
AcDbCircle
 10
293.0639581565811
 20
200.7455924362583
 30
0.0
 40
0.500005
100
AcDbArc
 50
9.462322000000173
 51
129.4490450000006
  0
ARC
  5
4EA4
330
1A
100
AcDbEntity
  8
SEIHIN
  6
Continuous
 62
     3
 48
5.0
100
AcDbCircle
 10
293.5837581565811
 20
197.6263924362583
 30
0.0
 40
0.5000210000000001
100
AcDbArc
 50
345.1327970000004
 51
9.462322000000173
  0
LINE
  5
4EA5
330
1A
100
AcDbEntity
  8
SEIHIN
  6
Continuous
 62
     3
 48
5.0
100
AcDbLine
 10
293.5571581565811
 20
200.8277924362583
 30
0.0
 11
294.0769581565811
 21
197.7085924362584
 31
0.0
  0
LINE
  5
4EA6
330
1A
100
AcDbEntity
  8
SEIHIN
  6
Continuous
 62
     3
 48
5.0
100
AcDbLine
 10
294.1168581565811
 20
203.5540924362583
 30
0.0
 11
295.1168581565811
 21
197.5540924362583
 31
0.0
  0
LINE
  5
4EA7
330
1A
100
AcDbEntity
  8
SEIHIN
  6
Continuous
 62
     3
 48
5.0
100
AcDbLine
 10
293.1168581565811
 20
203.5540924362583
 30
0.0
 11
293.1168581565811
 21
205.5540924362583
 31
0.0
  0
LINE
  5
4EA8
330
1A
100
AcDbEntity
  8
SEIHIN
  6
Continuous
 62
     3
 48
5.0
100
AcDbLine
 10
294.6168581565811
 20
217.5540924362583
 30
0.0
 11
294.6169581565811
 21
218.5539924362583
 31
0.0
  0
LINE
  5
4EA9
330
1A
100
AcDbEntity
  8
SEIHIN
  6
Continuous
 62
     3
 48
5.0
100
AcDbLine
 10
289.6167581565811
 20
214.5540924362583
 30
0.0
 11
293.6167581565811
 21
210.5540924362583
 31
0.0
  0
LINE
  5
4EAA
330
1A
100
AcDbEntity
  8
SEIHIN
  6
Continuous
 62
     3
 48
5.0
100
AcDbLine
 10
289.6167581565811
 20
214.5540924362583
 30
0.0
 11
289.6167581565811
 21
217.5540924362583
 31
0.0
  0
LINE
  5
4EAB
330
1A
100
AcDbEntity
  8
CENTER L
 48
5.0
100
AcDbLine
 10
299.6168581565811
 20
226.6555890192756
 30
0.0
 11
299.6168581565811
 21
186.4451919525211
 31
0.0
  0
ARC
  5
4EAC
330
1A
100
AcDbEntity
  8
SEIHIN
  6
Continuous
 62
     3
 48
5.0
100
AcDbCircle
 10
311.0464581565811
 20
196.7329924362583
 30
0.0
 40
1.5
100
AcDbArc
 50
300.0007279999997
 51
50.55633099999936
  0
ARC
  5
4EAD
330
1A
100
AcDbEntity
  8
SEIHIN
  6
Continuous
 62
     3
 48
5.0
100
AcDbCircle
 10
311.0464581565811
 20
196.7329924362583
 30
0.0
 40
0.4999979999999999
100
AcDbArc
 50
300.0007279999997
 51
50.5509549999994
  0
LINE
  5
4EAE
330
1A
100
AcDbEntity
  8
SEIHIN
  6
Continuous
 62
     3
 48
5.0
100
AcDbLine
 10
304.1168581565811
 20
197.5540924362583
 30
0.0
 11
305.1224581565811
 21
193.7650924362583
 31
0.0
  0
LINE
  5
4EAF
330
1A
100
AcDbEntity
  8
SEIHIN
  6
Continuous
 62
     3
 48
5.0
100
AcDbLine
 10
306.0889581565811
 20
194.0215924362584
 30
0.0
 11
305.1663581565811
 21
197.4980924362583
 31
0.0
  0
LINE
  5
4EB0
330
1A
100
AcDbEntity
  8
SEIHIN
  6
Continuous
 62
     3
 48
5.0
100
AcDbLine
 10
302.6168581565811
 20
195.5540924362583
 30
0.0
 11
302.6168581565811
 21
197.5540924362583
 31
0.0
  0
LINE
  5
4EB1
330
1A
100
AcDbEntity
  8
SEIHIN
  6
Continuous
 62
     3
 48
5.0
100
AcDbLine
 10
297.2169581565811
 20
197.5540924362583
 30
0.0
 11
297.2169581565811
 21
195.5540924362583
 31
0.0
  0
LINE
  5
4EB2
330
1A
100
AcDbEntity
  8
SEIHIN
  6
Continuous
 62
     3
 48
5.0
100
AcDbLine
 10
302.0169581565811
 20
197.5540924362583
 30
0.0
 11
302.0169581565811
 21
195.5540924362583
 31
0.0
  0
ARC
  5
4EB3
330
1A
100
AcDbEntity
  8
SEIHIN
  6
Continuous
 62
     3
 48
5.0
100
AcDbCircle
 10
306.5722581565811
 20
194.1497924362583
 30
0.0
 40
1.499969
100
AcDbArc
 50
194.8607999999999
 51
300.0007279999997
  0
ARC
  5
4EB4
330
1A
100
AcDbEntity
  8
SEIHIN
  6
Continuous
 62
     3
 48
5.0
100
AcDbCircle
 10
306.5722581565811
 20
194.1497924362583
 30
0.0
 40
0.5000020000000001
100
AcDbArc
 50
194.8561279999998
 51
300.0007279999997
  0
LINE
  5
4EB5
330
1A
100
AcDbEntity
  8
SEIHIN
  6
Continuous
 62
     3
 48
5.0
100
AcDbLine
 10
311.2964581565811
 20
196.2999924362584
 30
0.0
 11
306.8222581565811
 21
193.7167924362583
 31
0.0
  0
LINE
  5
4EB6
330
1A
100
AcDbEntity
  8
SEIHIN
  6
Continuous
 62
     3
 48
5.0
100
AcDbLine
 10
307.3222581565811
 20
192.8507924362583
 30
0.0
 11
311.7964581565811
 21
195.4339924362583
 31
0.0
  0
LINE
  5
4EB7
330
1A
100
AcDbEntity
  8
SEIHIN
  6
Continuous
 62
     3
 48
5.0
100
AcDbLine
 10
366.3666581565811
 20
241.0539924362583
 30
0.0
 11
352.5006581565811
 21
241.0540924362583
 31
0.0
  0
LINE
  5
4EB8
330
1A
100
AcDbEntity
  8
SEIHIN
  6
Continuous
 62
     3
 48
5.0
100
AcDbLine
 10
370.3666581565811
 20
243.5539924362583
 30
0.0
 11
359.5576581565811
 21
243.5539924362583
 31
0.0
  0
LINE
  5
4EB9
330
1A
100
AcDbEntity
  8
SEIHIN
  6
Continuous
 62
     3
 48
5.0
100
AcDbLine
 10
358.4835581565811
 20
232.5539924362583
 30
0.0
 11
364.3666581565811
 21
232.5539924362583
 31
0.0
  0
LINE
  5
4EBA
330
1A
100
AcDbEntity
  8
SEIHIN
  6
Continuous
 62
     3
 48
5.0
100
AcDbLine
 10
355.8299581565811
 20
235.0539924362583
 30
0.0
 11
366.3666581565811
 21
235.0539924362583
 31
0.0
  0
ARC
  5
4EBB
330
1A
100
AcDbEntity
  8
SEIHIN
  6
Continuous
 62
     3
 48
5.0
100
AcDbCircle
 10
364.3666581565811
 20
211.5539924362583
 30
0.0
 40
1.499984
100
AcDbArc
 50
44.54354500000001
 51
207.2723069999996
  0
LINE
  5
4EBC
330
1A
100
AcDbEntity
  8
SEIHIN
  6
Continuous
 62
     3
 48
5.0
100
AcDbLine
 10
409.1818121002646
 20
255.0253883507096
 30
0.0
 11
328.2587581565811
 21
247.8468924362584
 31
0.0
  0
LINE
  5
4EBD
330
1A
100
AcDbEntity
  8
SEIHIN
  6
Continuous
 62
     3
 48
5.0
100
AcDbLine
 10
409.0906581565811
 20
247.9897924362584
 30
0.0
 11
332.5373581565811
 21
241.1989924362583
 31
0.0
  0
LINE
  5
4EBE
330
1A
100
AcDbEntity
  8
SEIHIN
  6
Continuous
 62
     3
 48
5.0
100
AcDbLine
 10
307.6167581565811
 20
217.5540924362583
 30
0.0
 11
322.7871581565811
 21
244.3253924362583
 31
0.0
  0
LINE
  5
4EBF
330
1A
100
AcDbEntity
  8
SEIHIN
  6
Continuous
 62
     3
 48
5.0
100
AcDbLine
 10
333.0120581565811
 20
216.5540924362583
 30
0.0
 11
315.0958581565811
 21
216.5540924362583
 31
0.0
  0
ARC
  5
4EC0
330
1A
100
AcDbEntity
  8
SEIHIN
  6
Continuous
 62
     3
 48
5.0
100
AcDbCircle
 10
333.1558581565811
 20
234.2263924362584
 30
0.0
 40
6.999967999999999
100
AcDbArc
 50
95.06911799999968
 51
150.4609089999998
  0
LINE
  5
4EC1
330
1A
100
AcDbEntity
  8
SEIHIN
  6
Continuous
 62
     3
 48
5.0
100
AcDbLine
 10
313.6696581565811
 20
214.0540924362583
 30
0.0
 11
340.5106581565811
 21
214.0540924362583
 31
0.0
  0
LINE
  5
4EC2
330
1A
100
AcDbEntity
  8
SEIHIN
  6
Continuous
 62
     3
 48
5.0
100
AcDbLine
 10
327.0657581565811
 20
237.6774924362584
 30
0.0
 11
313.8505581565811
 21
214.3564924362584
 31
0.0
  0
ARC
  5
4EC3
330
1A
100
AcDbEntity
  8
SEIHIN
  6
Continuous
 62
     3
 48
5.0
100
AcDbCircle
 10
307.3253581565811
 20
218.0540924362583
 30
0.0
 40
7.500016000000001
100
AcDbArc
 50
270.0
 51
330.4613059999998
  0
LINE
  5
4EC4
330
1A
100
AcDbEntity
  8
SEIHIN
  6
Continuous
 62
     3
 48
5.0
100
AcDbLine
 10
305.6763581565811
 20
200.8277924362583
 30
0.0
 11
305.1564581565811
 21
197.7085924362584
 31
0.0
  0
LINE
  5
4EC5
330
1A
100
AcDbEntity
  8
SEIHIN
  6
Continuous
 62
     3
 48
5.0
100
AcDbLine
 10
305.1168581565811
 20
203.5540924362583
 30
0.0
 11
311.9994581565811
 21
197.8913924362583
 31
0.0
  0
ARC
  5
4EC6
330
1A
100
AcDbEntity
  8
SEIHIN
  6
Continuous
 62
     3
 48
5.0
100
AcDbCircle
 10
305.6496581565811
 20
197.6262924362584
 30
0.0
 40
0.500009
100
AcDbArc
 50
170.5376779999998
 51
194.8561279999998
  0
LINE
  5
4EC7
330
1A
100
AcDbEntity
  8
SEIHIN
  6
Continuous
 62
     3
 48
5.0
100
AcDbLine
 10
304.1168581565811
 20
197.5540924362583
 30
0.0
 11
305.1168581565811
 21
203.5540924362583
 31
0.0
  0
ARC
  5
4EC8
330
1A
100
AcDbEntity
  8
SEIHIN
  6
Continuous
 62
     3
 48
5.0
100
AcDbCircle
 10
306.1695581565811
 20
200.7455924362583
 30
0.0
 40
0.499973
100
AcDbArc
 50
50.55980500000024
 51
170.5376779999998
  0
LINE
  5
4EC9
330
1A
100
AcDbEntity
  8
SEIHIN
  6
Continuous
 62
     3
 48
5.0
100
AcDbLine
 10
311.3641581565811
 20
197.1190924362583
 30
0.0
 11
306.4871581565811
 21
201.1316924362583
 31
0.0
  0
LINE
  5
4ECA
330
1A
100
AcDbEntity
  8
SEIHIN
  6
Continuous
 62
     3
 48
5.0
100
AcDbLine
 10
306.1168581565811
 20
203.5540924362583
 30
0.0
 11
306.1168581565811
 21
205.5540924362583
 31
0.0
  0
LINE
  5
4ECB
330
1A
100
AcDbEntity
  8
SEIHIN
  6
Continuous
 62
     3
 48
5.0
100
AcDbLine
 10
304.6169581565811
 20
217.5540924362583
 30
0.0
 11
304.6169581565811
 21
218.5540924362583
 31
0.0
  0
LINE
  5
4ECC
330
1A
100
AcDbEntity
  8
SEIHIN
  6
Continuous
 62
     3
 48
5.0
100
AcDbLine
 10
344.0375581565811
 20
217.0441924362584
 30
0.0
 11
353.2089581565811
 21
233.5135924362584
 31
0.0
  0
LINE
  5
4ECD
330
1A
100
AcDbEntity
  8
SEIHIN
  6
Continuous
 62
     3
 48
5.0
100
AcDbLine
 10
342.6181581565811
 20
209.7449924362583
 30
0.0
 11
354.1820581565811
 21
230.1029924362583
 31
0.0
  0
LINE
  5
4ECE
330
1A
100
AcDbEntity
  8
SEIHIN
  6
Continuous
 62
     3
 48
5.0
100
AcDbLine
 10
337.6069581565811
 20
218.0504924362583
 30
0.0
 11
349.8751581565811
 21
239.5054924362584
 31
0.0
  0
LINE
  5
4ECF
330
1A
100
AcDbEntity
  8
SEIHIN
  6
Continuous
 62
     3
 48
5.0
100
AcDbLine
 10
347.8755581565811
 20
241.0352924362584
 30
0.0
 11
334.3024581565811
 21
217.2893924362584
 31
0.0
  0
LINE
  5
4ED0
330
1A
100
AcDbEntity
  8
SEIHIN
  6
Continuous
 62
     3
 48
5.0
100
AcDbLine
 10
343.6631581565811
 20
208.2524924362583
 30
0.0
 11
357.1420581565811
 21
210.0736924362583
 31
0.0
  0
LINE
  5
4ED1
330
1A
100
AcDbEntity
  8
SEIHIN
  6
Continuous
 62
     3
 48
5.0
100
AcDbLine
 10
340.1345581565811
 20
205.5540924362583
 30
0.0
 11
357.3580581565811
 21
208.7919924362583
 31
0.0
  0
LINE
  5
4ED2
330
1A
100
AcDbEntity
  8
SEIHIN
  6
Continuous
 62
     3
 48
5.0
100
AcDbLine
 10
339.0005581565811
 20
208.5442924362583
 30
0.0
 11
341.3708581565811
 21
212.5441924362584
 31
0.0
  0
ARC
  5
4ED3
330
1A
100
AcDbEntity
  8
SEIHIN
  6
Continuous
 62
     3
 48
5.0
100
AcDbCircle
 10
343.4784581565811
 20
209.2351924362583
 30
0.0
 40
0.999956
100
AcDbArc
 50
149.3496969999993
 51
280.6446470000001
  0
LINE
  5
4ED4
330
1A
100
AcDbEntity
  8
SEIHIN
  6
Continuous
 62
     3
 48
5.0
100
AcDbLine
 10
333.8667581565811
 20
208.0541924362584
 30
0.0
 11
333.8667581565811
 21
214.0541924362584
 31
0.0
  0
ARC
  5
4ED5
330
1A
100
AcDbEntity
  8
SEIHIN
  6
Continuous
 62
     3
 48
5.0
100
AcDbCircle
 10
338.1402581565811
 20
209.0540924362583
 30
0.0
 40
1.000003
100
AcDbArc
 50
270.0
 51
329.3496969999993
  0
ARC
  5
4ED6
330
1A
100
AcDbEntity
  8
SEIHIN
  6
Continuous
 62
     3
 48
5.0
100
AcDbCircle
 10
338.4750581565811
 20
217.5540924362583
 30
0.0
 40
0.999978
100
AcDbArc
 50
150.2430370000002
 51
270.0
  0
ARC
  5
4ED7
330
1A
100
AcDbEntity
  8
SEIHIN
  6
Continuous
 62
     3
 48
5.0
100
AcDbCircle
 10
333.0120581565811
 20
218.0540924362583
 30
0.0
 40
1.499983
100
AcDbArc
 50
270.0
 51
329.3487229999997
  0
LINE
  5
4ED8
330
1A
100
AcDbEntity
  8
SEIHIN
  6
Continuous
 62
     3
 48
5.0
100
AcDbLine
 10
343.1772581565811
 20
216.5540924362583
 30
0.0
 11
338.4750581565811
 21
216.5540924362583
 31
0.0
  0
ARC
  5
4ED9
330
1A
100
AcDbEntity
  8
SEIHIN
  6
Continuous
 62
     3
 48
5.0
100
AcDbCircle
 10
343.1772581565811
 20
217.5540924362583
 30
0.0
 40
1.000003
100
AcDbArc
 50
270.0
 51
329.3496969999993
  0
ARC
  5
4EDA
330
1A
100
AcDbEntity
  8
SEIHIN
  6
Continuous
 62
     3
 48
5.0
100
AcDbCircle
 10
340.5106581565811
 20
213.0540924362583
 30
0.0
 40
0.9999600000000001
100
AcDbArc
 50
329.3467760000003
 51
90.0
  0
ARC
  5
4EDB
330
1A
100
AcDbEntity
  8
SEIHIN
  6
Continuous
 62
     3
 48
5.0
100
AcDbCircle
 10
357.2379581565811
 20
209.4308924362584
 30
0.0
 40
0.6500060000000001
100
AcDbArc
 50
278.475411
 51
98.48412899999988
  0
ARC
  5
4EDC
330
1A
100
AcDbEntity
  8
SEIHIN
  6
Continuous
 62
     3
 48
5.0
100
AcDbCircle
 10
358.4835581565811
 20
227.5539924362583
 30
0.0
 40
5.000015
100
AcDbArc
 50
90.0
 51
149.3496969999993
  0
ARC
  5
4EDD
330
1A
100
AcDbEntity
  8
SEIHIN
  6
Continuous
 62
     3
 48
5.0
100
AcDbCircle
 10
355.8299581565811
 20
232.0539924362583
 30
0.0
 40
3.000006
100
AcDbArc
 50
90.0
 51
150.8871489999995
  0
ARC
  5
4EDE
330
1A
100
AcDbEntity
  8
SEIHIN
  6
Continuous
 62
     3
 48
5.0
100
AcDbCircle
 10
352.2164581565811
 20
238.5539924362583
 30
0.0
 40
5.0
100
AcDbArc
 50
124.7462480000001
 51
150.247301
  0
ARC
  5
4EDF
330
1A
100
AcDbEntity
  8
SEIHIN
  6
Continuous
 62
     3
 48
5.0
100
AcDbCircle
 10
352.5006581565811
 20
238.0540924362583
 30
0.0
 40
3.000009
100
AcDbArc
 50
90.0
 51
149.3496969999993
  0
ARC
  5
4EE0
330
1A
100
AcDbEntity
  8
SEIHIN
  6
Continuous
 62
     3
 48
5.0
100
AcDbCircle
 10
328.8773581565811
 20
240.8742924362583
 30
0.0
 40
7.000011
100
AcDbArc
 50
95.06911799999968
 51
150.4613130000004
  0
DIMENSION
  5
4EE1
330
1A
100
AcDbEntity
  8
SUNPOU
 62
     4
 48
5.0
100
AcDbDimension
  2
*D8
 10
414.3666968019269
 20
274.4241831875747
 30
0.0
 11
391.866677479254
 21
279.4241831875747
 31
0.0
 70
    32
 71
     5
 42
45.00003864534568
  3
STANDARD
100
AcDbAlignedDimension
 13
369.3666581565812
 23
226.8541924362584
 33
0.0
 14
414.3666968019269
 24
255.4853274142266
 34
0.0
100
AcDbRotatedDimension
1001
ACAD
1000
DSTYLE
1002
{
1070
   140
1040
6.0
1070
    74
1070
     0
1070
   172
1070
     1
1070
    73
1070
     0
1070
   272
1070
     2
1070
    77
1070
     3
1070
   173
1070
     1
1070
   147
1040
2.0
1070
    42
1040
6.0
1070
    44
1040
3.0
1070
    43
1040
14.0
1070
   271
1070
     0
1070
   178
1070
     4
1070
   177
1070
     4
1070
   176
1070
     4
1070
   141
1040
150.0
1070
     7
1000
_OPEN
1070
     6
1000
_OPEN
1070
    41
1040
7.0
1002
}
  0
LINE
  5
4EE2
330
1A
100
AcDbEntity
  8
SEIHIN
  6
Continuous
 62
     3
 48
5.0
100
AcDbLine
 10
414.2299581565811
 20
246.4024924362584
 30
0.0
 11
422.0722581565811
 21
226.7951924362583
 31
0.0
  0
LINE
  5
4EE3
330
1A
100
AcDbEntity
  8
SEIHIN
  6
Continuous
 62
     3
 48
5.0
100
AcDbLine
 10
413.0011581565811
 20
246.7819924362584
 30
0.0
 11
425.6001581565811
 21
215.2820924362584
 31
0.0
  0
ARC
  5
4EE4
330
1A
100
AcDbEntity
  8
SEIHIN
  6
Continuous
 62
     3
 48
5.0
100
AcDbCircle
 10
370.3666581565811
 20
238.5539924362583
 30
0.0
 40
5.0
100
AcDbArc
 50
0.0
 51
90.0
  0
LINE
  5
4EE5
330
1A
100
AcDbEntity
  8
SEIHIN
  6
Continuous
 62
     3
 48
5.0
100
AcDbLine
 10
369.3666581565811
 20
227.5539924362583
 30
0.0
 11
369.3666581565811
 21
211.0539924362583
 31
0.0
  0
LINE
  5
4EE6
330
1A
100
AcDbEntity
  8
SEIHIN
  6
Continuous
 62
     3
 48
5.0
100
AcDbLine
 10
375.3666581565811
 20
238.5539924362583
 30
0.0
 11
375.3666581565811
 21
208.5539924362583
 31
0.0
  0
LINE
  5
4EE7
330
1A
100
AcDbEntity
  8
SEIHIN
  6
Continuous
 62
     3
 48
5.0
100
AcDbLine
 10
365.9224581565811
 20
206.2627924362583
 30
0.0
 11
363.0334581565811
 21
210.8665924362583
 31
0.0
  0
ARC
  5
4EE8
330
1A
100
AcDbEntity
  8
SEIHIN
  6
Continuous
 62
     3
 48
5.0
100
AcDbCircle
 10
370.3666581565811
 20
208.5539924362583
 30
0.0
 40
5.000028
100
AcDbArc
 50
205.2238120000002
 51
0.0
  0
LINE
  5
4EE9
330
1A
100
AcDbEntity
  8
SEIHIN
  6
Continuous
 62
     3
 48
5.0
100
AcDbLine
 10
365.4357581565811
 20
212.6061924362583
 30
0.0
 11
367.6540581565811
 21
210.3524924362583
 31
0.0
  0
ARC
  5
4EEA
330
1A
100
AcDbEntity
  8
SEIHIN
  6
Continuous
 62
     3
 48
5.0
100
AcDbCircle
 10
368.3666581565811
 20
211.0539924362583
 30
0.0
 40
0.999975
100
AcDbArc
 50
224.5502650000001
 51
0.0
  0
ARC
  5
4EEB
330
1A
100
AcDbEntity
  8
SEIHIN
  6
Continuous
 62
     3
 48
5.0
100
AcDbCircle
 10
364.3666581565811
 20
227.5539924362583
 30
0.0
 40
5.0
100
AcDbArc
 50
0.0
 51
90.0
  0
ARC
  5
4EEC
330
1A
100
AcDbEntity
  8
SEIHIN
  6
Continuous
 62
     3
 48
5.0
100
AcDbCircle
 10
366.3666581565811
 20
238.0539924362583
 30
0.0
 40
3.0
100
AcDbArc
 50
270.0
 51
0.0
  0
ARC
  5
4EED
330
1A
100
AcDbEntity
  8
SEIHIN
  6
Continuous
 62
     3
 48
5.0
100
AcDbCircle
 10
366.3666581565811
 20
238.0539924362583
 30
0.0
 40
3.0
100
AcDbArc
 50
0.0
 51
90.0
  0
ARC
  5
4EEE
330
1A
100
AcDbEntity
  8
SEIHIN
  6
Continuous
 62
     3
 48
5.0
100
AcDbCircle
 10
370.3666581565811
 20
238.5539924362583
 30
0.0
 40
5.000022
100
AcDbArc
 50
0.0
 51
2.064222000000294
  0
LINE
  5
4EEF
330
1A
100
AcDbEntity
  8
CENTER L
  6
CENTER
 62
     1
 48
5.0
100
AcDbLine
 10
417.8579581565811
 20
226.1871924362583
 30
0.0
 11
427.6155581565811
 21
230.0898924362583
 31
0.0
  0
LINE
  5
4EF0
330
1A
100
AcDbEntity
  8
SEIHIN
  6
Continuous
 62
     3
 48
5.0
100
AcDbLine
 10
428.1072581565811
 20
221.1312924362584
 30
0.0
 11
426.7147581565811
 21
220.5742924362584
 31
0.0
  0
ARC
  5
4EF1
330
1A
100
AcDbEntity
  8
SEIHIN
  6
Continuous
 62
     3
 48
5.0
100
AcDbCircle
 10
423.9292581565811
 20
227.5379924362584
 30
0.0
 40
2.000032
100
AcDbArc
 50
201.8014090000001
 51
291.7987499999995
  0
ARC
  5
4EF2
330
1A
100
AcDbEntity
  8
SEIHIN
  6
Continuous
 62
     3
 48
5.0
100
AcDbCircle
 10
409.8003369872257
 20
248.0527685443377
 30
0.0
 40
7.0
100
AcDbArc
 50
21.79984954623403
 51
95.06930625973239
  0
LINE
  5
4EF3
330
1A
100
AcDbEntity
  8
SEIHIN
  6
Continuous
 62
     3
 48
5.0
100
AcDbLine
 10
409.0906581565811
 20
247.9897924362584
 30
0.0
 11
416.6876581565811
 21
245.6433924362584
 31
0.0
  0
LINE
  5
4EF4
330
1A
100
AcDbEntity
  8
SEIHIN
  6
Continuous
 62
     3
 48
5.0
100
AcDbLine
 10
416.2235581565811
 20
250.8427924362584
 30
0.0
 11
409.0906581565811
 21
247.9897924362584
 31
0.0
  0
LINE
  5
4EF5
330
1A
100
AcDbEntity
  8
SEIHIN
  6
Continuous
 62
     3
 48
5.0
100
AcDbLine
 10
416.6876581565811
 20
245.6433924362584
 30
0.0
 11
418.0803581565811
 21
246.2003924362583
 31
0.0
  0
CIRCLE
  5
4EF6
330
1A
100
AcDbEntity
  8
SEIHIN
  6
Continuous
 62
     3
 48
5.0
100
AcDbCircle
 10
299.6168581565811
 20
395.8067633037853
 30
0.0
 40
5.0
  0
LINE
  5
4EF7
330
1A
100
AcDbEntity
  8
SEIHIN
  6
Continuous
 62
     3
 48
5.0
100
AcDbLine
 10
289.6167581565811
 20
404.5567633037853
 30
0.0
 11
307.6168581565811
 21
404.5567633037853
 31
0.0
  0
LINE
  5
4EF8
330
1A
100
AcDbEntity
  8
SEIHIN
  6
Continuous
 62
     3
 48
5.0
100
AcDbLine
 10
289.6167581565811
 20
387.0567633037853
 30
0.0
 11
307.6168581565811
 21
387.0567633037853
 31
0.0
  0
DIMENSION
  5
4EF9
330
1A
100
AcDbEntity
  8
SUNPOU
 48
5.0
100
AcDbDimension
  2
*D9
 10
216.0877155589392
 20
388.3068633037852
 30
0.0
 11
211.0877155589391
 21
395.8068133037853
 31
0.0
 70
    32
 71
     5
 42
14.99990000000003
  3
STANDARD
100
AcDbAlignedDimension
 13
249.3665581565811
 23
403.3067633037853
 33
0.0
 14
249.3665581565811
 24
388.3068633037852
 34
0.0
 50
90.0
100
AcDbRotatedDimension
1001
ACAD
1000
DSTYLE
1002
{
1070
   140
1040
6.0
1070
    74
1070
     0
1070
   172
1070
     1
1070
    73
1070
     0
1070
   272
1070
     2
1070
    77
1070
     3
1070
   173
1070
     1
1070
   147
1040
2.0
1070
    42
1040
6.0
1070
    44
1040
3.0
1070
    43
1040
14.0
1070
   271
1070
     0
1070
   178
1070
     4
1070
   177
1070
     4
1070
   176
1070
     4
1070
   141
1040
150.0
1070
     7
1000
_OPEN
1070
     6
1000
_OPEN
1070
    41
1040
7.0
1002
}
  0
LINE
  5
4EFA
330
1A
100
AcDbEntity
  8
SEIHIN
  6
Continuous
 62
     3
 48
5.0
100
AcDbLine
 10
249.3665581565811
 20
388.3068633037852
 30
0.0
 11
289.6167581565811
 21
388.3067633037853
 31
0.0
  0
LINE
  5
4EFB
330
1A
100
AcDbEntity
  8
SEIHIN
  6
Continuous
 62
     3
 48
5.0
100
AcDbLine
 10
249.3665581565811
 20
403.3067633037853
 30
0.0
 11
289.6168581565811
 21
403.3067633037853
 31
0.0
  0
LINE
  5
4EFC
330
1A
100
AcDbEntity
  8
SEIHIN
  6
Continuous
 62
     3
 48
5.0
100
AcDbLine
 10
249.3665581565811
 20
395.8065633037852
 30
0.0
 11
249.3665581565811
 21
406.8067633037853
 31
0.0
  0
LINE
  5
4EFD
330
1A
100
AcDbEntity
  8
SEIHIN
  6
Continuous
 62
     3
 48
5.0
100
AcDbLine
 10
246.3665581565811
 20
395.8065633037852
 30
0.0
 11
246.3665581565811
 21
406.8067633037853
 31
0.0
  0
LINE
  5
4EFE
330
1A
100
AcDbEntity
  8
SEIHIN
  6
Continuous
 62
     3
 48
5.0
100
AcDbLine
 10
246.3665581565811
 20
384.8067633037853
 30
0.0
 11
249.3665581565811
 21
384.8067633037853
 31
0.0
  0
LINE
  5
4EFF
330
1A
100
AcDbEntity
  8
SEIHIN
  6
Continuous
 62
     3
 48
5.0
100
AcDbLine
 10
246.3665581565811
 20
395.8070633037852
 30
0.0
 11
246.3665581565811
 21
384.8067633037853
 31
0.0
  0
LINE
  5
4F00
330
1A
100
AcDbEntity
  8
SEIHIN
  6
Continuous
 62
     3
 48
5.0
100
AcDbLine
 10
263.3665581565811
 20
395.8068633037852
 30
0.0
 11
263.3665581565811
 21
388.3066633037852
 31
0.0
  0
LINE
  5
4F01
330
1A
100
AcDbEntity
  8
SEIHIN
  6
Continuous
 62
     3
 48
5.0
100
AcDbLine
 10
249.3665581565811
 20
395.8070633037852
 30
0.0
 11
249.3665581565811
 21
384.8067633037853
 31
0.0
  0
LINE
  5
4F02
330
1A
100
AcDbEntity
  8
SEIHIN
  6
Continuous
 62
     3
 48
5.0
100
AcDbLine
 10
263.3665581565811
 20
395.8066633037852
 30
0.0
 11
263.3665581565811
 21
403.3068633037852
 31
0.0
  0
LINE
  5
4F03
330
1A
100
AcDbEntity
  8
SEIHIN
  6
Continuous
 62
     3
 48
5.0
100
AcDbLine
 10
246.3666581565811
 20
406.8067633037853
 30
0.0
 11
249.3666581565811
 21
406.8067633037853
 31
0.0
  0
LINE
  5
4F04
330
1A
100
AcDbEntity
  8
SEIHIN
  6
Continuous
 62
     3
 48
5.0
100
AcDbLine
 10
275.8665581565811
 20
388.3067633037853
 30
0.0
 11
275.8665581565811
 21
403.3067633037853
 31
0.0
  0
LINE
  5
4F05
330
1A
100
AcDbEntity
  8
SEIHIN
  6
Continuous
 62
     3
 48
5.0
100
AcDbLine
 10
289.6167581565811
 20
387.0567633037853
 30
0.0
 11
289.6168581565811
 21
404.5567633037853
 31
0.0
  0
ARC
  5
4F06
330
1A
100
AcDbEntity
  8
SEIHIN
  6
Continuous
 62
     3
 48
5.0
100
AcDbCircle
 10
405.8667581565811
 20
381.8067633037853
 30
0.0
 40
1.5
100
AcDbArc
 50
90.0
 51
270.0
  0
ARC
  5
4F07
330
1A
100
AcDbEntity
  8
SEIHIN
  6
Continuous
 62
     3
 48
5.0
100
AcDbCircle
 10
413.8667581565811
 20
381.8067633037853
 30
0.0
 40
1.5
100
AcDbArc
 50
90.0
 51
270.0
  0
LINE
  5
4F08
330
1A
100
AcDbEntity
  8
SEIHIN
  6
Continuous
 62
     3
 48
5.0
100
AcDbLine
 10
307.6167581565811
 20
387.0567633037853
 30
0.0
 11
414.3667581565811
 21
374.8067633037853
 31
0.0
  0
ELLIPSE
  5
4F09
330
1A
100
AcDbEntity
  8
SEIHIN
 48
5.0
100
AcDbEllipse
 10
423.5573553357865
 20
376.2522633037852
 30
0.0
 11
-0.0002381134094662229
 21
2.154500000000042
 31
0.0
210
0.0
220
0.0
230
0.9999999999999999
 40
0.3620818952154269
 41
-0.9204713785568145
 42
4.124124088218951
  0
ELLIPSE
  5
4F0A
330
1A
100
AcDbEntity
  8
SEIHIN
 48
5.0
100
AcDbEllipse
 10
425.7855553357865
 20
376.2734633037852
 30
0.0
 11
0.0
 21
3.283300000000054
 31
0.0
210
0.0
220
0.0
230
1.0
 40
0.3676977014889524
 41
-2.526479684555625
 42
-0.6151129690342267
  0
ELLIPSE
  5
4F0B
330
1A
100
AcDbEntity
  8
SEIHIN
 48
5.0
100
AcDbEllipse
 10
424.9506581565811
 20
376.2522633037852
 30
0.0
 11
-0.0002381134094662229
 21
2.154500000000042
 31
0.0
210
0.0
220
0.0
230
0.9999999999999999
 40
0.3620818952154269
 41
-0.9204713785568145
 42
4.124124088218951
  0
ELLIPSE
  5
4F0C
330
1A
100
AcDbEntity
  8
SEIHIN
 48
5.0
100
AcDbEllipse
 10
427.1788581565811
 20
376.2734633037852
 30
0.0
 11
0.0
 21
3.283300000000054
 31
0.0
210
0.0
220
0.0
230
1.0
 40
0.3676977014889524
 41
1.950421430123003
 42
7.452419421002151
  0
LINE
  5
4F0D
330
1A
100
AcDbEntity
  8
SEIHIN
  6
Continuous
 62
     3
 48
5.0
100
AcDbLine
 10
405.8667581565811
 20
380.3067633037853
 30
0.0
 11
424.9506581565811
 21
380.3067633037853
 31
0.0
  0
LINE
  5
4F0E
330
1A
100
AcDbEntity
  8
CENTER L
  6
CENTER
 62
     1
 48
5.0
100
AcDbLine
 10
401.3667581565811
 20
381.8067633037853
 30
0.0
 11
426.5153581565811
 21
381.8067633037853
 31
0.0
  0
LINE
  5
4F0F
330
1A
100
AcDbEntity
  8
SEIHIN
  6
Continuous
 62
     3
 48
5.0
100
AcDbLine
 10
416.6876581565811
 20
368.3067633037853
 30
0.0
 11
409.0906581565811
 21
375.4121633037852
 31
0.0
  0
LINE
  5
4F10
330
1A
100
AcDbEntity
  8
SEIHIN
  6
Continuous
 62
     3
 48
5.0
100
AcDbLine
 10
414.3667581565811
 20
374.8067633037853
 30
0.0
 11
418.0803581565811
 21
368.3067633037853
 31
0.0
  0
LINE
  5
4F11
330
1A
100
AcDbEntity
  8
SEIHIN
  6
Continuous
 62
     3
 48
5.0
100
AcDbLine
 10
428.1075581565811
 20
368.3067633037853
 30
0.0
 11
416.6876581565811
 21
368.3067633037853
 31
0.0
  0
LINE
  5
4F12
330
1A
100
AcDbEntity
  8
SEIHIN
  6
Continuous
 62
     3
 48
5.0
100
AcDbLine
 10
414.3667581565811
 20
374.8067633037853
 30
0.0
 11
414.3667581565811
 21
380.3066633037852
 31
0.0
  0
LINE
  5
4F13
330
1A
100
AcDbEntity
  8
CENTER L
  6
CENTER
 62
     1
 48
5.0
100
AcDbLine
 10
427.1788581565811
 20
371.5227459002325
 30
0.0
 11
427.1788581565811
 21
381.090780707338
 31
0.0
  0
LINE
  5
4F14
330
1A
100
AcDbEntity
  8
CENTER L
  6
CENTER
 62
     1
 48
5.0
100
AcDbLine
 10
424.9506581565809
 20
371.4486052771268
 30
0.0
 11
424.9506581565812
 21
381.1649213304437
 31
0.0
  0
LINE
  5
4F15
330
1A
100
AcDbEntity
  8
SEIHIN
  6
Continuous
 62
     3
 48
5.0
100
AcDbLine
 10
426.0575489590149
 20
375.0567633037853
 30
0.0
 11
424.301782187452
 21
375.0567633037853
 31
0.0
  0
LINE
  5
4F16
330
1A
100
AcDbEntity
  8
SEIHIN
  6
Continuous
 62
     3
 48
5.0
100
AcDbLine
 10
426.0676321443767
 20
377.5567633037853
 30
0.0
 11
424.3296759190372
 21
377.5567633037853
 31
0.0
  0
ELLIPSE
  5
4F17
330
1A
100
AcDbEntity
  8
SEIHIN
 48
5.0
100
AcDbEllipse
 10
424.9507661621073
 20
415.3613330425758
 30
0.0
 11
-0.0002500133553184928
 21
-2.154499998652006
 31
0.0
210
0.0
220
0.0
230
-0.9999999999999999
 40
0.362081895215427
 41
-0.9204713785567907
 42
4.124124088218991
  0
ELLIPSE
  5
4F18
330
1A
100
AcDbEntity
  8
SEIHIN
 48
5.0
100
AcDbEllipse
 10
425.7856632242061
 20
415.3401284311902
 30
0.0
 11
-1.813464480328738E-5
 21
-3.283299999949973
 31
0.0
210
0.0
220
0.0
230
-1.0
 40
0.3676977014889524
 41
-2.526479684555613
 42
-0.6151129690342088
  0
ELLIPSE
  5
4F19
330
1A
100
AcDbEntity
  8
SEIHIN
 48
5.0
100
AcDbEllipse
 10
423.557463341334
 20
415.3613407382027
 30
0.0
 11
-0.0002500133553184928
 21
-2.154499998652006
 31
0.0
210
0.0
220
0.0
230
-0.9999999999999999
 40
0.362081895215427
 41
-0.9204713785567907
 42
4.124124088218991
  0
ELLIPSE
  5
4F1A
330
1A
100
AcDbEntity
  8
SEIHIN
 48
5.0
100
AcDbEllipse
 10
427.1789660449794
 20
415.3401207355633
 30
0.0
 11
-1.813464480328738E-5
 21
-3.283299999949973
 31
0.0
210
0.0
220
0.0
230
-1.0
 40
0.3676977014889524
 41
1.950421430122994
 42
7.452419421002147
  0
ELLIPSE
  5
4F1B
330
1A
100
AcDbEntity
  8
SEIHIN
  6
Continuous
 62
     3
 48
5.0
100
AcDbEllipse
 10
428.8499731565811
 20
395.8066343037852
 30
0.0
 11
-2.255861885700000E-6
 21
-4.015700281930287
 31
0.0
210
0.0
220
0.0
230
1.0
 40
0.3712500000000001
 41
-1.9277078470033
 42
-1.570828339098993
  0
LINE
  5
4F1C
330
1A
100
AcDbEntity
  8
SEIHIN
  6
Continuous
 62
     3
 48
5.0
100
AcDbLine
 10
321.6168581565811
 20
391.8067633037853
 30
0.0
 11
397.3667581565811
 21
391.8067633037853
 31
0.0
  0
LINE
  5
4F1D
330
1A
100
AcDbEntity
  8
SEIHIN
  6
Continuous
 62
     3
 48
5.0
100
AcDbLine
 10
321.6168581565811
 20
399.8067633037853
 30
0.0
 11
397.3667581565811
 21
399.8067633037853
 31
0.0
  0
LINE
  5
4F1E
330
1A
100
AcDbEntity
  8
SEIHIN
  6
Continuous
 62
     3
 48
5.0
100
AcDbLine
 10
307.6167581565811
 20
404.5567633037853
 30
0.0
 11
414.3667581565811
 21
416.8067633037853
 31
0.0
  0
LINE
  5
4F1F
330
1A
100
AcDbEntity
  8
CENTER L
 48
5.0
100
AcDbLine
 10
299.6168581565811
 20
407.7740501627328
 30
0.0
 11
299.6168581565811
 21
383.8394764448381
 31
0.0
  0
LINE
  5
4F20
330
1A
100
AcDbEntity
  8
SEIHIN
  6
Continuous
 62
     3
 48
5.0
100
AcDbLine
 10
307.6168581565811
 20
404.5567633037853
 30
0.0
 11
307.6168581565811
 21
387.0567633037853
 31
0.0
  0
ARC
  5
4F21
330
1A
100
AcDbEntity
  8
SEIHIN
  6
Continuous
 62
     3
 48
5.0
100
AcDbCircle
 10
321.6168581565811
 20
395.8067633037853
 30
0.0
 40
4.0
100
AcDbArc
 50
90.0
 51
270.0
  0
LINE
  5
4F22
330
1A
100
AcDbEntity
  8
SEIHIN
  6
Continuous
 62
     3
 48
5.0
100
AcDbLine
 10
324.6168581565811
 20
387.4501633037852
 30
0.0
 11
324.6168581565811
 21
391.8067633037853
 31
0.0
  0
LINE
  5
4F23
330
1A
100
AcDbEntity
  8
SEIHIN
  6
Continuous
 62
     3
 48
5.0
100
AcDbLine
 10
324.6168581565811
 20
399.8067633037853
 30
0.0
 11
324.6168581565811
 21
404.3046633037852
 31
0.0
  0
LINE
  5
4F24
330
1A
100
AcDbEntity
  8
SEIHIN
  6
Continuous
 62
     3
 48
5.0
100
AcDbLine
 10
414.3667581565811
 20
408.3067633037853
 30
0.0
 11
414.3667581565811
 21
399.8067633037853
 31
0.0
  0
ARC
  5
4F25
330
1A
100
AcDbEntity
  8
SEIHIN
  6
Continuous
 62
     3
 48
5.0
100
AcDbCircle
 10
415.3667581565811
 20
395.8067633037853
 30
0.0
 40
4.000008
100
AcDbArc
 50
104.4774529999994
 51
180.0
  0
LINE
  5
4F26
330
1A
100
AcDbEntity
  8
SEIHIN
  6
Continuous
 62
     3
 48
5.0
100
AcDbLine
 10
405.8667581565811
 20
383.3067633037853
 30
0.0
 11
424.9506581565811
 21
383.3067633037853
 31
0.0
  0
ARC
  5
4F27
330
1A
100
AcDbEntity
  8
SEIHIN
  6
Continuous
 62
     3
 48
5.0
100
AcDbCircle
 10
415.3667581565811
 20
395.8067633037853
 30
0.0
 40
4.000008
100
AcDbArc
 50
180.0
 51
255.5225470000006
  0
LINE
  5
4F28
330
1A
100
AcDbEntity
  8
SEIHIN
  6
Continuous
 62
     3
 48
5.0
100
AcDbLine
 10
401.3667581565811
 20
391.8067633037853
 30
0.0
 11
401.3667581565811
 21
395.8066633037852
 31
0.0
  0
LINE
  5
4F29
330
1A
100
AcDbEntity
  8
SEIHIN
  6
Continuous
 62
     3
 48
5.0
100
AcDbLine
 10
397.3667581565811
 20
391.8067633037853
 30
0.0
 11
397.3667581565811
 21
399.8067633037853
 31
0.0
  0
LINE
  5
4F2A
330
1A
100
AcDbEntity
  8
SEIHIN
  6
Continuous
 62
     3
 48
5.0
100
AcDbLine
 10
401.3667581565811
 20
399.8067633037853
 30
0.0
 11
401.3667581565811
 21
395.8068633037852
 31
0.0
  0
LINE
  5
4F2B
330
1A
100
AcDbEntity
  8
SEIHIN
  6
Continuous
 62
     3
 48
5.0
100
AcDbLine
 10
414.3667581565811
 20
383.3067633037853
 30
0.0
 11
414.3667581565811
 21
391.8067633037853
 31
0.0
  0
LINE
  5
4F2C
330
1A
100
AcDbEntity
  8
SEIHIN
  6
Continuous
 62
     3
 48
5.0
100
AcDbLine
 10
405.8667581565811
 20
411.3067633037853
 30
0.0
 11
424.9506581565811
 21
411.3067633037853
 31
0.0
  0
LINE
  5
4F2D
330
1A
100
AcDbEntity
  8
SEIHIN
  6
Continuous
 62
     3
 48
5.0
100
AcDbLine
 10
405.8667581565811
 20
408.3067633037853
 30
0.0
 11
424.9506581565811
 21
408.3067633037853
 31
0.0
  0
LINE
  5
4F2E
330
1A
100
AcDbEntity
  8
CENTER L
  6
CENTER
 62
     1
 48
5.0
100
AcDbLine
 10
401.3667581565811
 20
409.8067633037853
 30
0.0
 11
426.5153581565811
 21
409.8067633037853
 31
0.0
  0
LINE
  5
4F2F
330
1A
100
AcDbEntity
  8
SEIHIN
  6
Continuous
 62
     3
 48
5.0
100
AcDbLine
 10
416.6876581565811
 20
423.3067633037853
 30
0.0
 11
409.0906581565811
 21
416.2012633037853
 31
0.0
  0
ARC
  5
4F30
330
1A
100
AcDbEntity
  8
SEIHIN
  6
Continuous
 62
     3
 48
5.0
100
AcDbCircle
 10
405.8667581565811
 20
409.8067633037853
 30
0.0
 40
1.5
100
AcDbArc
 50
90.0
 51
270.0
  0
LINE
  5
4F31
330
1A
100
AcDbEntity
  8
CENTER L
  6
CENTER
 62
     1
 48
5.0
100
AcDbLine
 10
427.178992284608
 20
420.0908381390435
 30
0.0
 11
427.1789394374991
 21
410.5228033320839
 31
0.0
  0
LINE
  5
4F32
330
1A
100
AcDbEntity
  8
CENTER L
  6
CENTER
 62
     1
 48
5.0
100
AcDbLine
 10
424.9507926941426
 20
420.164991069161
 30
0.0
 11
424.9507390280324
 21
410.4486750159923
 31
0.0
  0
LINE
  5
4F33
330
1A
100
AcDbEntity
  8
SEIHIN
  6
Continuous
 62
     3
 48
5.0
100
AcDbLine
 10
414.3667581565811
 20
416.8067633037853
 30
0.0
 11
418.0803581565811
 21
423.3067633037853
 31
0.0
  0
LINE
  5
4F34
330
1A
100
AcDbEntity
  8
SEIHIN
  6
Continuous
 62
     3
 48
5.0
100
AcDbLine
 10
414.3667581565811
 20
416.8067633037853
 30
0.0
 11
414.3667581565811
 21
411.3067633037853
 31
0.0
  0
ARC
  5
4F35
330
1A
100
AcDbEntity
  8
SEIHIN
  6
Continuous
 62
     3
 48
5.0
100
AcDbCircle
 10
413.8667581565811
 20
409.8067633037853
 30
0.0
 40
1.5
100
AcDbArc
 50
90.0
 51
270.0
  0
LINE
  5
4F36
330
1A
100
AcDbEntity
  8
SEIHIN
  6
Continuous
 62
     3
 48
5.0
100
AcDbLine
 10
426.0677329447433
 20
414.0568268732154
 30
0.0
 11
424.3297767194305
 21
414.0568364724658
 31
0.0
  0
LINE
  5
4F37
330
1A
100
AcDbEntity
  8
SEIHIN
  6
Continuous
 62
     3
 48
5.0
100
AcDbLine
 10
426.0576635676271
 20
416.5568269288697
 30
0.0
 11
424.3018967960911
 21
416.556836626493
 31
0.0
  0
LINE
  5
4F38
330
1A
100
AcDbEntity
  8
SEIHIN
  6
Continuous
 62
     3
 48
5.0
100
AcDbLine
 10
428.1075581565811
 20
423.3067633037853
 30
0.0
 11
416.6876581565811
 21
423.3067633037853
 31
0.0
  0
LEADER
  5
4F39
330
1A
100
AcDbEntity
  8
SUNPOU
  6
Continuous
 62
     4
100
AcDbLeader
  3
STANDARD
 40
6.0
 41
31.2
 76
     3
 10
530.8192302004168
 20
273.0415831138214
 30
0.0
 10
502.3675410056299
 20
309.3605257351048
 30
0.0
 10
500.5169194714244
 20
309.3605257351048
 30
0.0
1001
ACAD
1000
DSTYLE
1002
{
1070
     6
1000
OPEN
1070
    41
1040
7.0
1070
    42
1040
6.0
1070
    43
1040
14.0
1070
    44
1040
3.0
1070
    73
1070
     0
1070
    74
1070
     0
1070
    77
1070
     3
1070
   140
1040
6.0
1070
   141
1040
150.0
1070
   147
1040
2.0
1070
   172
1070
     1
1070
   173
1070
     1
1070
   176
1070
     4
1070
   177
1070
     4
1070
   178
1070
     4
1070
   271
1070
     0
1070
   272
1070
     2
1070
   341
1005
6D
1070
   343
1005
6D
1070
   344
1005
6D
1002
}
  0
DIMENSION
  5
4F3A
330
1A
100
AcDbEntity
  8
SUNPOU
 48
5.0
100
AcDbDimension
  2
*D10
 10
607.7621559763716
 20
295.5725078054362
 30
0.0
 11
605.9799177798058
 21
313.4921612287782
 31
0.0
 70
    32
 71
     5
 42
34.60002033536924
  3
STANDARD
100
AcDbAlignedDimension
 13
558.7176600792617
 23
313.2211046649642
 33
0.0
 14
575.6125701858794
 24
282.7135909074151
 34
0.0
 50
111.8000000000005
100
AcDbRotatedDimension
1001
ACAD
1000
DSTYLE
1002
{
1070
   140
1040
6.0
1070
    74
1070
     0
1070
   172
1070
     1
1070
    73
1070
     0
1070
   272
1070
     2
1070
    77
1070
     3
1070
   173
1070
     1
1070
   147
1040
2.0
1070
    42
1040
6.0
1070
    44
1040
3.0
1070
    43
1040
14.0
1070
   271
1070
     0
1070
   178
1070
     4
1070
   177
1070
     4
1070
   176
1070
     4
1070
   141
1040
150.0
1070
     7
1000
_OPEN
1070
     6
1000
_OPEN
1070
    41
1040
7.0
1002
}
  0
DIMENSION
  5
4F3B
330
1A
100
AcDbEntity
  8
SUNPOU
 48
5.0
100
AcDbDimension
  2
*D11
 10
503.9207418141279
 20
260.5012285439768
 30
0.0
 11
503.2526260590789
 21
275.6353771461338
 31
0.0
 70
    32
 71
     5
 42
28.59991836172353
  3
STANDARD
100
AcDbAlignedDimension
 13
522.5066902514163
 23
298.737829229408
 33
0.0
 14
529.4669701858793
 24
270.718990907415
 34
0.0
 50
111.8000000000005
100
AcDbRotatedDimension
1001
ACAD
1000
DSTYLE
1002
{
1070
   140
1040
6.0
1070
    74
1070
     0
1070
   172
1070
     1
1070
    73
1070
     0
1070
   272
1070
     2
1070
    77
1070
     3
1070
   173
1070
     1
1070
   147
1040
2.0
1070
    42
1040
6.0
1070
    44
1040
3.0
1070
    43
1040
14.0
1070
   271
1070
     0
1070
   178
1070
     4
1070
   177
1070
     4
1070
   176
1070
     4
1070
   141
1040
150.0
1070
     7
1000
_OPEN
1070
     6
1000
_OPEN
1070
    41
1040
7.0
1002
}
  0
DIMENSION
  5
4F3C
330
1A
100
AcDbEntity
  8
SUNPOU
 48
5.0
100
AcDbDimension
  2
*D12
 10
551.6150610137266
 20
352.5210745511984
 30
0.0
 11
524.2248498968729
 21
346.9508835283546
 31
0.0
 70
    32
 71
     5
 42
55.00002520205942
  3
STANDARD
100
AcDbAlignedDimension
 13
518.7925334023241
 23
286.4820394901033
 33
0.0
 14
569.8593334023243
 24
306.9071394901032
 34
0.0
 50
21.79999999999975
100
AcDbRotatedDimension
1001
ACAD
1000
DSTYLE
1002
{
1070
   140
1040
6.0
1070
    74
1070
     0
1070
   172
1070
     1
1070
    73
1070
     0
1070
   272
1070
     2
1070
    77
1070
     3
1070
   173
1070
     1
1070
   147
1040
2.0
1070
    42
1040
6.0
1070
    44
1040
3.0
1070
    43
1040
14.0
1070
   271
1070
     0
1070
   178
1070
     4
1070
   177
1070
     4
1070
   176
1070
     4
1070
   141
1040
150.0
1070
     7
1000
_OPEN
1070
     6
1000
_OPEN
1070
    41
1040
7.0
1002
}
  0
DIMENSION
  5
4F3D
330
1A
100
AcDbEntity
  8
SUNPOU
 48
5.0
100
AcDbDimension
  2
*D13
 10
551.0204796818011
 20
332.4654285450846
 30
0.0
 11
531.0581692415003
 21
329.8661858308436
 31
0.0
 70
    32
 71
     5
 42
38.99999491294716
  3
STANDARD
100
AcDbAlignedDimension
 13
531.6929635383062
 23
275.7705075277465
 33
0.0
 14
567.9039701858796
 24
290.2536909074153
 34
0.0
 50
21.79999999999975
100
AcDbRotatedDimension
1001
ACAD
1000
DSTYLE
1002
{
1070
   140
1040
6.0
1070
    74
1070
     0
1070
   172
1070
     1
1070
    73
1070
     0
1070
   272
1070
     2
1070
    77
1070
     3
1070
   173
1070
     1
1070
   147
1040
2.0
1070
    42
1040
6.0
1070
    44
1040
3.0
1070
    43
1040
14.0
1070
   271
1070
     0
1070
   178
1070
     4
1070
   177
1070
     4
1070
   176
1070
     4
1070
   141
1040
150.0
1070
     7
1000
_OPEN
1070
     6
1000
_OPEN
1070
    41
1040
7.0
1002
}
  0
LINE
  5
4F3E
330
1A
100
AcDbEntity
  8
SEIHIN
  6
Continuous
 62
     3
 48
5.0
100
AcDbLine
 10
522.9708334023243
 20
293.5383394901031
 30
0.0
 11
518.7925334023241
 21
286.4820394901033
 31
0.0
  0
LINE
  5
4F3F
330
1A
100
AcDbEntity
  8
SEIHIN
  6
Continuous
 62
     3
 48
5.0
100
AcDbLine
 10
543.3040334023241
 20
276.3610394901031
 30
0.0
 11
532.7200334023243
 21
302.8228394901033
 31
0.0
  0
LINE
  5
4F40
330
1A
100
AcDbEntity
  8
SEIHIN
  6
Continuous
 62
     3
 48
5.0
100
AcDbLine
 10
529.934633402324
 20
301.7087394901031
 30
0.0
 11
540.5185334023242
 21
275.2469394901033
 31
0.0
  0
LINE
  5
4F41
330
1A
100
AcDbEntity
  8
SEIHIN
  6
Continuous
 62
     3
 48
5.0
100
AcDbLine
 10
536.8983334023245
 20
304.4940394901031
 30
0.0
 11
551.3815334023241
 21
268.2830394901031
 31
0.0
  0
LINE
  5
4F42
330
1A
100
AcDbEntity
  8
SEIHIN
  6
Continuous
 62
     3
 48
5.0
100
AcDbLine
 10
551.2899334023243
 20
310.2502394901031
 30
0.0
 11
561.8737334023242
 21
283.7883394901031
 31
0.0
  0
LINE
  5
4F43
330
1A
100
AcDbEntity
  8
SEIHIN
  6
Continuous
 62
     3
 48
5.0
100
AcDbLine
 10
544.326233402324
 20
307.4649394901031
 30
0.0
 11
558.8094334023243
 21
271.2540394901031
 31
0.0
  0
LINE
  5
4F44
330
1A
100
AcDbEntity
  8
SEIHIN
  6
Continuous
 62
     3
 48
5.0
100
AcDbLine
 10
559.0883334023242
 20
282.6742394901032
 30
0.0
 11
548.5043334023244
 21
309.1361394901031
 31
0.0
  0
LINE
  5
4F45
330
1A
100
AcDbEntity
  8
SEIHIN
  6
Continuous
 62
     3
 48
5.0
100
AcDbLine
 10
579.8861334023244
 20
281.8380394901031
 30
0.0
 11
569.8593334023242
 21
306.9071394901031
 31
0.0
  0
LINE
  5
4F46
330
1A
100
AcDbEntity
  8
CENTER L
  6
CENTER
 62
     1
 48
5.0
100
AcDbLine
 10
573.3680701858792
 20
276.5922909074149
 30
0.0
 11
567.9039701858792
 21
290.253690907415
 31
0.0
  0
LINE
  5
4F47
330
1A
100
AcDbEntity
  8
CENTER L
  6
CENTER
 62
     1
 48
5.0
100
AcDbLine
 10
538.9559334023245
 20
310.1206394901031
 30
0.0
 11
567.3525334023241
 21
239.1236394901032
 31
0.0
  0
DIMENSION
  5
4F48
330
1A
100
AcDbEntity
  8
SUNPOU
 48
5.0
100
AcDbDimension
  2
*D14
 10
529.5679497273086
 20
226.1705701118869
 30
0.0
 11
542.3804712438185
 21
207.6007210982581
 31
0.0
 70
    32
 71
     5
 42
7.49994744342564
  3
STANDARD
100
AcDbAlignedDimension
 13
559.5377334023242
 23
246.2352394901031
 33
0.0
 14
566.6078565433852
 24
240.9854758703066
 34
0.0
 50
111.8000000000005
100
AcDbRotatedDimension
1001
ACAD
1000
DSTYLE
1002
{
1070
   140
1040
6.0
1070
    74
1070
     0
1070
   172
1070
     1
1070
    73
1070
     0
1070
   272
1070
     2
1070
    77
1070
     3
1070
   173
1070
     1
1070
   147
1040
2.0
1070
    42
1040
6.0
1070
    44
1040
3.0
1070
    43
1040
14.0
1070
   271
1070
     1
1070
   178
1070
     4
1070
   177
1070
     4
1070
   176
1070
     4
1070
   141
1040
150.0
1070
     7
1000
_OPEN
1070
     6
1000
_OPEN
1070
    41
1040
7.0
1002
}
  0
ARC
  5
4F49
330
1A
100
AcDbEntity
  8
SEIHIN
  6
Continuous
 62
     3
 48
5.0
100
AcDbCircle
 10
560.4810334023244
 20
283.2313394901032
 30
0.0
 40
1.499973
100
AcDbArc
 50
201.8021190000003
 51
21.79857199999966
  0
LINE
  5
4F4A
330
1A
100
AcDbEntity
  8
CENTER L
  6
CENTER
 62
     1
 48
5.0
100
AcDbLine
 10
559.5377334023242
 20
246.2352394901031
 30
0.0
 11
567.0590334023242
 21
249.2435394901031
 31
0.0
  0
ARC
  5
4F4B
330
1A
100
AcDbEntity
  8
SEIHIN
  6
Continuous
 62
     3
 48
5.0
100
AcDbCircle
 10
555.0955334023242
 20
269.7685394901031
 30
0.0
 40
3.999952
100
AcDbArc
 50
291.7992820000006
 51
21.80061200000031
  0
ARC
  5
4F4C
330
1A
100
AcDbEntity
  8
SEIHIN
  6
Continuous
 62
     3
 48
5.0
100
AcDbCircle
 10
561.0372334023242
 20
254.9127394901032
 30
0.0
 40
15.000035
100
AcDbArc
 50
231.4396349999999
 51
291.8002750000001
  0
LINE
  5
4F4D
330
1A
100
AcDbEntity
  8
CENTER L
  6
CENTER
 62
     1
 48
5.0
100
AcDbLine
 10
445.8387581565811
 20
194.7598924362584
 30
0.0
 11
454.9592581565811
 21
198.4077924362584
 31
0.0
  0
LINE
  5
4F4E
330
1A
100
AcDbEntity
  8
CENTER L
  6
CENTER
 62
     1
 48
5.0
100
AcDbLine
 10
430.8387581565811
 20
194.7598924362584
 30
0.0
 11
439.9592581565811
 21
198.4077924362584
 31
0.0
  0
LINE
  5
4F4F
330
1A
100
AcDbEntity
  8
SEIHIN
  6
PHANTOM
 62
     6
 48
5.0
100
AcDbLine
 10
431.6876581565811
 20
245.6433924362584
 30
0.0
 11
453.9695581565811
 21
189.9341924362583
 31
0.0
  0
LINE
  5
4F50
330
1A
100
AcDbEntity
  8
SEIHIN
  6
PHANTOM
 62
     6
 48
5.0
100
AcDbLine
 10
431.2997581565811
 20
250.6522924362583
 30
0.0
 11
455.3622581565811
 21
190.4912924362583
 31
0.0
  0
LINE
  5
4F51
330
1A
100
AcDbEntity
  8
SUNPOU
  6
Continuous
 62
     4
 48
5.0
100
AcDbLine
 10
465.5380667776802
 20
127.8645041586028
 30
0.0
 11
447.8956692264887
 21
171.9639957882259
 31
0.0
  0
TEXT
  5
4F52
330
1A
100
AcDbEntity
  8
SUNPOU
 48
5.0
100
AcDbText
 10
460.0590984442874
 20
119.0435565398975
 30
0.0
 40
6.0
  1
4
100
AcDbText
  0
LINE
  5
4F53
330
1A
100
AcDbEntity
  8
SUNPOU
 48
5.0
100
AcDbLine
 10
457.5368872178956
 20
127.8645041586028
 30
0.0
 11
465.5380667776802
 21
127.8645041586028
 31
0.0
  0
TEXT
  5
4F54
330
1A
100
AcDbEntity
  8
SUNPOU
 48
5.0
100
AcDbText
 10
443.9557448505029
 20
132.6124730805502
 30
0.0
 40
6.0
  1
10
100
AcDbText
  0
LINE
  5
4F55
330
1A
100
AcDbEntity
  8
SUNPOU
 48
5.0
100
AcDbLine
 10
457.5368872178956
 20
147.8645041586029
 30
0.0
 11
457.5368872178956
 21
127.8645041586028
 31
0.0
  0
LINE
  5
4F56
330
1A
100
AcDbEntity
  8
SEIHIN
  6
Continuous
 62
     3
 48
5.0
100
AcDbLine
 10
440.3622581565811
 20
190.4912924362583
 30
0.0
 11
438.9697581565811
 21
189.9342924362584
 31
0.0
  0
LINE
  5
4F57
330
1A
100
AcDbEntity
  8
SEIHIN
  6
PHANTOM
 62
     6
 48
5.0
100
AcDbLine
 10
455.3622581565811
 20
190.4912924362583
 30
0.0
 11
453.9697581565811
 21
189.9342924362584
 31
0.0
  0
LINE
  5
4F58
330
1A
100
AcDbEntity
  8
SEIHIN
  6
PHANTOM
 62
     6
 48
5.0
100
AcDbLine
 10
429.2299581565811
 20
246.4024924362584
 30
0.0
 11
437.0722581565811
 21
226.7951924362583
 31
0.0
  0
ARC
  5
4F59
330
1A
100
AcDbEntity
  8
SEIHIN
  6
PHANTOM
 62
     6
 48
5.0
100
AcDbCircle
 10
443.3856581565811
 20
216.3961924362583
 30
0.0
 40
3.000038
100
AcDbArc
 50
201.799636
 51
291.7996359999992
  0
LINE
  5
4F5A
330
1A
100
AcDbEntity
  8
CENTER L
  6
CENTER
 62
     1
 48
5.0
100
AcDbLine
 10
435.1485581565811
 20
220.6414924362583
 30
0.0
 11
444.7937581565811
 21
224.4991924362583
 31
0.0
  0
LINE
  5
4F5B
330
1A
100
AcDbEntity
  8
CENTER L
  6
CENTER
 62
     1
 48
5.0
100
AcDbLine
 10
432.8579581565811
 20
226.1871924362583
 30
0.0
 11
442.6155581565811
 21
230.0898924362583
 31
0.0
  0
ARC
  5
4F5C
330
1A
100
AcDbEntity
  8
SEIHIN
  6
PHANTOM
 62
     6
 48
5.0
100
AcDbCircle
 10
438.9292581565811
 20
227.5379924362584
 30
0.0
 40
2.000032
100
AcDbArc
 50
201.8014090000001
 51
291.7987499999995
  0
LINE
  5
4F5D
330
1A
100
AcDbEntity
  8
SEIHIN
  6
PHANTOM
 62
     6
 48
5.0
100
AcDbLine
 10
443.1072581565811
 20
221.1312924362584
 30
0.0
 11
441.7147581565811
 21
220.5742924362584
 31
0.0
  0
LINE
  5
4F5E
330
1A
100
AcDbEntity
  8
SEIHIN
  6
PHANTOM
 62
     6
 48
5.0
100
AcDbLine
 10
431.6876581565811
 20
245.6433924362584
 30
0.0
 11
433.0803581565811
 21
246.2003924362583
 31
0.0
  0
LINE
  5
4F5F
330
1A
100
AcDbEntity
  8
SEIHIN
  6
Continuous
 62
     3
 48
5.0
100
AcDbLine
 10
528.8193334023242
 20
261.4129394901032
 30
0.0
 11
551.6871334023242
 21
243.183539490103
 31
0.0
  0
LINE
  5
4F60
330
1A
100
AcDbEntity
  8
SEIHIN
  6
Continuous
 62
     3
 48
5.0
100
AcDbLine
 10
528.8193334023242
 20
261.4129394901032
 30
0.0
 11
518.7925334023241
 21
286.4820394901033
 31
0.0
  0
ARC
  5
4F61
330
1A
100
AcDbEntity
  8
SEIHIN
  6
Continuous
 62
     3
 48
5.0
100
AcDbCircle
 10
555.0955334023242
 20
269.7685394901031
 30
0.0
 40
4.000045
100
AcDbArc
 50
201.8000799999998
 51
291.7987499999995
  0
ARC
  5
4F62
330
1A
100
AcDbEntity
  8
SEIHIN
  6
Continuous
 62
     3
 48
5.0
100
AcDbCircle
 10
535.3560701858793
 20
266.6121909074151
 30
0.0
 40
3.250066
100
AcDbArc
 50
134.4203429999999
 51
89.18020999999949
  0
LINE
  5
4F63
330
1A
100
AcDbEntity
  8
CENTER L
  6
CENTER
 62
     1
 48
5.0
100
AcDbLine
 10
530.5084701858793
 20
264.673390907415
 30
0.0
 11
539.6368701858792
 21
268.3244909074151
 31
0.0
  0
LINE
  5
4F64
330
1A
100
AcDbEntity
  8
CENTER L
  6
CENTER
 62
     1
 48
5.0
100
AcDbLine
 10
537.1570701858793
 20
262.109090907415
 30
0.0
 11
531.6929701858792
 21
275.770490907415
 31
0.0
  0
ARC
  5
4F65
330
1A
100
AcDbEntity
  8
SEIHIN
  6
Continuous
 62
     3
 48
5.0
100
AcDbCircle
 10
541.9112334023246
 20
275.8039394901031
 30
0.0
 40
1.499973
100
AcDbArc
 50
201.7985720000004
 51
21.80211900000034
  0
LINE
  5
4F66
330
1A
100
AcDbEntity
  8
SEIHIN
  6
Continuous
 62
     3
 48
5.0
100
AcDbLine
 10
535.4025701858793
 20
269.8618909074151
 30
0.0
 11
534.9831701858793
 21
270.910290907415
 31
0.0
  0
ARC
  5
4F67
330
1A
100
AcDbEntity
  8
SEIHIN
  6
Continuous
 62
     3
 48
5.0
100
AcDbCircle
 10
533.1277701858793
 20
272.183190907415
 30
0.0
 40
2.249976
100
AcDbArc
 50
325.54997
 51
258.0517980000004
  0
LINE
  5
4F68
330
1A
100
AcDbEntity
  8
CENTER L
  6
CENTER
 62
     1
 48
5.0
100
AcDbLine
 10
529.4669701858793
 20
270.718990907415
 30
0.0
 11
536.4290701858793
 21
273.503590907415
 31
0.0
  0
LINE
  5
4F69
330
1A
100
AcDbEntity
  8
SEIHIN
  6
Continuous
 62
     3
 48
5.0
100
AcDbLine
 10
533.081270185879
 20
268.9334909074149
 30
0.0
 11
532.6619701858795
 21
269.9818909074152
 31
0.0
  0
MTEXT
  5
4F6A
330
1A
100
AcDbEntity
  8
SUNPOU
  6
Continuous
 62
     4
100
AcDbMText
 10
599.8255846307047
 20
259.5694310223191
 30
0.0
 40
6.0
 41
0.0
 71
     7
 72
     5
  1
2-φ6.5
 73
     1
 44
1.0
  0
LEADER
  5
4F6B
330
1A
100
AcDbEntity
  8
SUNPOU
  6
Continuous
 62
     4
100
AcDbLeader
  3
STANDARD
 74
     0
 40
6.0
 41
31.2
 76
     3
 10
574.7508696952518
 20
280.4429595407506
 30
0.0
 10
595.8067240782734
 20
257.5694310223191
 30
0.0
 10
597.8255846307047
 20
257.5694310223191
 30
0.0
1001
ACAD
1000
DSTYLE
1002
{
1070
     6
1000
OPEN
1070
    41
1040
7.0
1070
    42
1040
6.0
1070
    43
1040
14.0
1070
    44
1040
3.0
1070
    73
1070
     0
1070
    74
1070
     0
1070
    77
1070
     3
1070
   140
1040
6.0
1070
   141
1040
150.0
1070
   147
1040
2.0
1070
   172
1070
     1
1070
   173
1070
     1
1070
   176
1070
     4
1070
   177
1070
     4
1070
   178
1070
     4
1070
   271
1070
     0
1070
   272
1070
     2
1070
   341
1005
6D
1070
   343
1005
6D
1070
   344
1005
6D
1002
}
  0
ARC
  5
4F6C
330
1A
100
AcDbEntity
  8
SEIHIN
  6
Continuous
 62
     3
 48
5.0
100
AcDbCircle
 10
561.0373334023244
 20
254.912739490103
 30
0.0
 40
14.99998
100
AcDbArc
 50
291.7995650000005
 51
352.160413
  0
LINE
  5
4F6D
330
1A
100
AcDbEntity
  8
SEIHIN
  6
Continuous
 62
     3
 48
5.0
100
AcDbLine
 10
579.8861334023244
 20
281.8380394901031
 30
0.0
 11
575.8971334023242
 21
252.8667394901031
 31
0.0
  0
CIRCLE
  5
4F6E
330
1A
100
AcDbEntity
  8
SEIHIN
  6
Continuous
 62
     3
 48
5.0
100
AcDbCircle
 10
563.8225334023243
 20
247.9491394901031
 30
0.0
 40
2.1
  0
CIRCLE
  5
4F6F
330
1A
100
AcDbEntity
  8
SEIHIN
  6
Continuous
 62
     3
 48
5.0
100
AcDbCircle
 10
563.8225334023244
 20
247.949039490103
 30
0.0
 40
2.1
  0
LINE
  5
4F70
330
1A
100
AcDbEntity
  8
CENTER L
  6
CENTER
 62
     1
 48
5.0
100
AcDbLine
 10
567.3139334023242
 20
249.3455394901031
 30
0.0
 11
560.5861334023241
 21
246.6546394901031
 31
0.0
  0
ARC
  5
4F71
330
1A
100
AcDbEntity
  8
SEIHIN
  6
Continuous
 62
     3
 48
5.0
100
AcDbCircle
 10
571.5670701858794
 20
281.095490907415
 30
0.0
 40
3.249981
100
AcDbArc
 50
134.4215770000004
 51
89.18018499999948
  0
ARC
  5
4F72
330
1A
100
AcDbEntity
  8
SEIHIN
  6
Continuous
 62
     3
 48
5.0
100
AcDbCircle
 10
569.3387701858792
 20
286.6663909074151
 30
0.0
 40
2.249976
100
AcDbArc
 50
325.54997
 51
258.0517980000004
  0
LINE
  5
4F73
330
1A
100
AcDbEntity
  8
CENTER L
  6
CENTER
 62
     1
 48
5.0
100
AcDbLine
 10
572.4669701858793
 20
287.9175909074149
 30
0.0
 11
566.0374701858791
 21
285.3459909074149
 31
0.0
  0
LINE
  5
4F74
330
1A
100
AcDbEntity
  8
CENTER L
  6
CENTER
 62
     1
 48
5.0
100
AcDbLine
 10
575.6125701858794
 20
282.7135909074151
 30
0.0
 11
567.2861701858794
 21
279.383290907415
 31
0.0
  0
LINE
  5
4F75
330
1A
100
AcDbEntity
  8
SEIHIN
  6
Continuous
 62
     3
 48
5.0
100
AcDbLine
 10
571.6134701858794
 20
284.3450909074149
 30
0.0
 11
571.1941701858793
 21
285.3935909074149
 31
0.0
  0
LINE
  5
4F76
330
1A
100
AcDbEntity
  8
SEIHIN
  6
Continuous
 62
     3
 48
5.0
100
AcDbLine
 10
569.2922701858793
 20
283.4166909074148
 30
0.0
 11
568.8729701858792
 21
284.4651909074149
 31
0.0
  0
ARC
  5
4F77
330
1A
100
AcDbEntity
  8
SEIHIN
  6
Continuous
 62
     3
 48
5.0
100
AcDbCircle
 10
559.5534334023243
 20
312.4783394901031
 30
0.0
 40
0.9999790000000001
100
AcDbArc
 50
21.80353799999992
 51
111.801408999999
  0
ARC
  5
4F78
330
1A
100
AcDbEntity
  8
SEIHIN
 48
5.0
100
AcDbCircle
 10
410.1904541590278
 20
395.8067633037853
 30
0.0
 40
30.17180399755329
100
AcDbArc
 50
333.0797080149999
 51
26.92029198500003
  0
MTEXT
  5
4F79
330
1A
100
AcDbEntity
  8
SUNPOU
  6
Continuous
 62
     4
100
AcDbMText
 10
498.5169194714244
 20
311.3605257351048
 30
0.0
 40
6.0
 41
0.0
 71
     9
 72
     5
  1
3-φ4.2
 73
     1
 44
1.0
  0
LINE
  5
4F7A
330
1A
100
AcDbEntity
  8
SEIHIN
  6
Continuous
 62
     3
 48
5.0
100
AcDbLine
 10
540.6122334023244
 20
305.9795394901033
 30
0.0
 11
522.0424334023243
 21
298.5521394901031
 31
0.0
  0
ARC
  5
4F7B
330
1A
100
AcDbEntity
  8
SEIHIN
  6
Continuous
 62
     3
 48
5.0
100
AcDbCircle
 10
522.4138334023244
 20
297.6237394901031
 30
0.0
 40
1.000025
100
AcDbArc
 50
111.801408999999
 51
201.8014090000001
  0
LINE
  5
4F7C
330
1A
100
AcDbEntity
  8
SEIHIN
  6
Continuous
 62
     3
 48
5.0
100
AcDbLine
 10
521.4853334023243
 20
297.2523394901032
 30
0.0
 11
522.9708334023243
 21
293.5383394901031
 31
0.0
  0
LINE
  5
4F7D
330
1A
100
AcDbEntity
  8
SEIHIN
  6
Continuous
 62
     3
 48
5.0
100
AcDbLine
 10
540.6123334023243
 20
305.9795394901032
 30
0.0
 11
559.1820334023241
 21
313.4068394901032
 31
0.0
  0
ARC
  5
4F7E
330
1A
100
AcDbEntity
  8
SEIHIN
  6
Continuous
 62
     3
 48
5.0
100
AcDbCircle
 10
540.2409334023242
 20
306.9080394901032
 30
0.0
 40
4.000031
100
AcDbArc
 50
216.2771699999999
 51
7.320804999999964
  0
ARC
  5
4F7F
330
1A
100
AcDbEntity
  8
SEIHIN
  6
Continuous
 62
     3
 48
5.0
100
AcDbCircle
 10
531.5130334023243
 20
301.8015394901031
 30
0.0
 40
1.499973
100
AcDbArc
 50
201.7985720000004
 51
21.80211900000034
  0
ARC
  5
4F80
330
1A
100
AcDbEntity
  8
SEIHIN
  6
Continuous
 62
     3
 48
5.0
100
AcDbCircle
 10
550.0828334023244
 20
309.2289394901031
 30
0.0
 40
1.499973
100
AcDbArc
 50
201.8021190000003
 51
21.79857199999966
  0
ELLIPSE
  5
4F81
330
1A
100
AcDbEntity
  8
SEIHIN
 48
5.0
100
AcDbEllipse
 10
437.5770069347171
 20
395.8067633037853
 30
0.0
 11
0.0
 21
2.100000000000023
 31
0.0
210
0.0
220
0.0
230
1.0
 40
0.3713653974256434
 41
0.0
 42
6.283185307179586
  0
LINE
  5
4F82
330
1A
100
AcDbEntity
  8
CENTER L
  6
CENTER
 62
     1
 48
5.0
100
AcDbLine
 10
437.5770069347171
 20
388.3783891626024
 30
0.0
 11
437.5770069347171
 21
403.2351374449681
 31
0.0
  0
LINE
  5
4F83
330
1A
100
AcDbEntity
  8
SEIHIN
  6
Continuous
 62
     3
 48
5.0
100
AcDbLine
 10
561.967333402324
 20
309.1357394901032
 30
0.0
 11
569.8593334023242
 21
306.9071394901031
 31
0.0
  0
LINE
  5
4F84
330
1A
100
AcDbEntity
  8
SEIHIN
  6
Continuous
 62
     3
 48
5.0
100
AcDbLine
 10
560.4818334023241
 20
312.8497394901032
 30
0.0
 11
561.967333402324
 21
309.1357394901032
 31
0.0
  0
VIEWPORT
  5
22
330
17
100
AcDbEntity
 67
     1
  8
0
100
AcDbViewport
 10
313.6808219178082
 20
286.420032064001
 30
0.0
 40
627.3616438356164
 41
572.840064128002
 68
     2
 69
     1
 12
313.6808219178082
 22
286.420032064001
 13
0.0
 23
0.0
 14
1.0
 24
1.0
 15
10.0
 25
10.0
 16
0.0
 26
0.0
 36
1.0
 17
0.0
 27
0.0
 37
0.0
 42
50.0
 43
0.0
 44
0.0
 45
572.840064128002
 50
0.0
 51
0.0
 72
   100
 90
    32768
  1

281
     0
 71
     1
 74
     0
110
0.0
120
0.0
130
0.0
111
1.0
121
0.0
131
0.0
112
0.0
122
1.0
132
0.0
 79
     0
146
0.0
  0
VIEWPORT
  5
64
330
17
100
AcDbEntity
 67
     1
  8
VIEWPORT
100
AcDbViewport
 10
210.0
 20
148.5
 30
0.0
 40
420.0
 41
297.0
 68
     1
 69
     2
 12
420.0
 22
297.0
 13
0.0
 23
0.0
 14
10.0
 24
10.0
 15
0.0
 25
0.0
 16
0.0
 26
0.0
 36
1.0
 17
0.0
 27
0.0
 37
0.0
 42
50.0
 43
0.0
 44
0.0
 45
605.8799999999999
 50
0.0
 51
0.0
 72
   100
 90
    32768
  1

281
     0
 71
     1
 74
     0
110
0.0
120
0.0
130
0.0
111
1.0
121
0.0
131
0.0
112
0.0
122
1.0
132
0.0
 79
     0
146
0.0
  0
ENDSEC
  0
SECTION
  2
OBJECTS
  0
DICTIONARY
  5
C
330
0
100
AcDbDictionary
281
     1
  3
ACAD_GROUP
350
D
  3
ACAD_LAYOUT
350
A98
  3
ACAD_MLINESTYLE
350
E
  3
ACAD_PLOTSETTINGS
350
A99
  3
ACAD_PLOTSTYLENAME
350
A96
  0
DICTIONARY
  5
D
102
{ACAD_REACTORS
330
C
102
}
330
C
100
AcDbDictionary
281
     1
  3
*A1
350
FA3
  3
*A2
350
1597
  3
*A3
350
179D
  3
*A4
350
3390
  3
*A5
350
3A0A
  0
DICTIONARY
  5
A98
102
{ACAD_REACTORS
330
C
102
}
330
C
100
AcDbDictionary
281
     1
  3
Model
350
A9A
  3
ﾚｲｱｳﾄ1
350
A9B
  0
DICTIONARY
  5
E
102
{ACAD_REACTORS
330
C
102
}
330
C
100
AcDbDictionary
281
     1
  3
STANDARD
350
13
  0
DICTIONARY
  5
A99
102
{ACAD_REACTORS
330
C
102
}
330
C
100
AcDbDictionary
281
     1
  0
ACDBDICTIONARYWDFLT
  5
A96
102
{ACAD_REACTORS
330
C
102
}
330
C
100
AcDbDictionary
281
     1
  3
Normal
350
A97
100
AcDbDictionaryWithDefault
340
A97
1001
ACAD
1000
TREAT_AS_HARD
1070
     0
1000
TREAT_AS_HARD
1070
     0
1000
TREAT_AS_HARD
1070
     0
1000
TREAT_AS_HARD
1070
     0
  0
GROUP
  5
FA3
102
{ACAD_REACTORS
330
D
102
}
330
D
100
AcDbGroup
300

 70
     1
 71
     1
  0
GROUP
  5
1597
102
{ACAD_REACTORS
330
D
102
}
330
D
100
AcDbGroup
300

 70
     1
 71
     1
  0
GROUP
  5
179D
102
{ACAD_REACTORS
330
D
102
}
330
D
100
AcDbGroup
300

 70
     1
 71
     1
  0
GROUP
  5
3390
102
{ACAD_REACTORS
330
D
102
}
330
D
100
AcDbGroup
300

 70
     1
 71
     1
  0
GROUP
  5
3A0A
102
{ACAD_REACTORS
330
D
102
}
330
D
100
AcDbGroup
300

 70
     1
 71
     1
  0
LAYOUT
  5
A9A
102
{ACAD_REACTORS
330
A98
102
}
330
A98
100
AcDbPlotSettings
  1

  2
Adobe PDF
  4
A3
  6

 40
3.174999952316284
 41
3.174999952316284
 42
3.17498779296875
 43
3.17498779296875
 44
297.0318298339844
 45
420.1583251953125
 46
2.67
 47
2.85
 48
-8.09872987394283
 49
-9.441603207410708
140
808.114529312747
141
561.2334822198422
142
1.0
143
2.0
 70
 28340
 72
     1
 73
     1
 74
     4
  7
systemprinter.ctb
 75
    17
147
0.5
148
8.09872987394283
149
9.441603207410708
100
AcDbLayout
  1
Model
 70
     1
 71
     0
 10
0.0
 20
0.0
 11
12.0
 21
9.0
 12
0.0
 22
0.0
 32
0.0
 14
0.0
 24
0.0
 34
0.0
 15
0.0
 25
0.0
 35
0.0
146
0.0
 13
0.0
 23
0.0
 33
0.0
 16
1.0
 26
0.0
 36
0.0
 17
0.0
 27
1.0
 37
0.0
 76
     0
330
1A
  0
LAYOUT
  5
A9B
102
{ACAD_REACTORS
330
A98
102
}
330
A98
100
AcDbPlotSettings
  1

  2
C:\PROGRAM FILES\ACAD LT 2000\plotters\DWF ePlot.pc3
  4
ANSI_A_(8.50_x_11.00_Inches)
  6

 40
5.793749809265137
 41
17.79375076293945
 42
5.793746948242188
 43
17.79376220703125
 44
215.8999938964844
 45
279.3999938964844
 46
0.0
 47
0.0
 48
0.0
 49
0.0
140
0.0
141
0.0
142
1.0
143
43.75760864458461
 70
   688
 72
     0
 73
     1
 74
     1
  7
systemprinter.ctb
 75
     0
147
0.0228531684197454
148
0.3255366854427166
149
0.2302009418498301
100
AcDbLayout
  1
ﾚｲｱｳﾄ1
 70
     1
 71
     1
 10
-30.66685116754002
 20
-9.990190459854741
 11
450.6668334081172
 21
361.9494725043409
 12
0.0
 22
0.0
 32
0.0
 14
-0.0128164049386896
 24
-0.0090630292066862
 34
-0.0015258207003583
 15
420.0128183607162
 25
297.0090644122207
 35
0.0000000349246037
146
0.0
 13
0.0
 23
0.0
 33
0.0
 16
1.0
 26
0.0
 36
0.0
 17
0.0
 27
1.0
 37
0.0
 76
     0
330
17
331
64
  0
MLINESTYLE
  5
13
102
{ACAD_REACTORS
330
E
102
}
330
E
100
AcDbMlineStyle
  2
STANDARD
 70
     0
  3

 62
     0
 51
90.0
 52
90.0
 71
     2
 49
0.5
 62
   256
  6
BYLAYER
 49
-0.5
 62
   256
  6
BYLAYER
  0
ACDBPLACEHOLDER
  5
A97
102
{ACAD_REACTORS
330
A96
102
}
330
A96
  0
ENDSEC
  0
EOF
