  0
SECTION
  2
HEADER
  9
$ACADVER
  1
AC1015
  9
$ACADMAINTVER
 70
     6
  9
$DWGCODEPAGE
  3
ANSI_932
  9
$INSBASE
 10
0.0
 20
0.0
 30
0.0
  9
$EXTMIN
 10
0.0000000135560185
 20
-0.0000001317113174
 30
0.0
  9
$EXTMAX
 10
797.600000013556
 20
551.5999998682888
 30
0.0
  9
$LIMMIN
 10
0.0
 20
0.0
  9
$LIMMAX
 10
840.0
 20
594.0
  9
$ORTHOMODE
 70
     0
  9
$REGENMODE
 70
     1
  9
$FILLMODE
 70
     1
  9
$QTEXTMODE
 70
     0
  9
$MIRRTEXT
 70
     1
  9
$LTSCALE
 40
2.0
  9
$ATTMODE
 70
     1
  9
$TEXTSIZE
 40
6.0
  9
$TRACEWID
 40
1.0
  9
$TEXTSTYLE
  7
STANDARD
  9
$CLAYER
  8
SEIHIN
  9
$CELTYPE
  6
BYLAYER
  9
$CECOLOR
 62
   256
  9
$CELTSCALE
 40
1.0
  9
$DISPSILH
 70
     0
  9
$DIMSCALE
 40
1.0
  9
$DIMASZ
 40
7.0
  9
$DIMEXO
 40
6.0
  9
$DIMDLI
 40
14.0
  9
$DIMRND
 40
0.0
  9
$DIMDLE
 40
0.0
  9
$DIMEXE
 40
3.0
  9
$DIMTP
 40
0.0
  9
$DIMTM
 40
0.0
  9
$DIMTXT
 40
6.0
  9
$DIMCEN
 40
150.0
  9
$DIMTSZ
 40
0.0
  9
$DIMTOL
 70
     0
  9
$DIMLIM
 70
     0
  9
$DIMTIH
 70
     0
  9
$DIMTOH
 70
     0
  9
$DIMSE1
 70
     0
  9
$DIMSE2
 70
     0
  9
$DIMTAD
 70
     3
  9
$DIMZIN
 70
     0
  9
$DIMBLK
  1

  9
$DIMASO
 70
     1
  9
$DIMSHO
 70
     1
  9
$DIMPOST
  1

  9
$DIMAPOST
  1

  9
$DIMALT
 70
     0
  9
$DIMALTD
 70
     2
  9
$DIMALTF
 40
25.4
  9
$DIMLFAC
 40
1.0
  9
$DIMTOFL
 70
     1
  9
$DIMTVP
 40
0.0
  9
$DIMTIX
 70
     0
  9
$DIMSOXD
 70
     0
  9
$DIMSAH
 70
     1
  9
$DIMBLK1
  1
OPEN
  9
$DIMBLK2
  1
OPEN
  9
$DIMSTYLE
  2
STANDARD
  9
$DIMCLRD
 70
   256
  9
$DIMCLRE
 70
   256
  9
$DIMCLRT
 70
   256
  9
$DIMTFAC
 40
1.0
  9
$DIMGAP
 40
2.0
  9
$DIMJUST
 70
     0
  9
$DIMSD1
 70
     0
  9
$DIMSD2
 70
     0
  9
$DIMTOLJ
 70
     1
  9
$DIMTZIN
 70
     0
  9
$DIMALTZ
 70
     0
  9
$DIMALTTZ
 70
     0
  9
$DIMUPT
 70
     0
  9
$DIMDEC
 70
     0
  9
$DIMTDEC
 70
     0
  9
$DIMALTU
 70
     2
  9
$DIMALTTD
 70
     2
  9
$DIMTXSTY
  7
STANDARD
  9
$DIMAUNIT
 70
     0
  9
$DIMADEC
 70
     0
  9
$DIMALTRND
 40
0.0
  9
$DIMAZIN
 70
     0
  9
$DIMDSEP
 70
    46
  9
$DIMATFIT
 70
     3
  9
$DIMFRAC
 70
     0
  9
$DIMLDRBLK
  1
OPEN
  9
$DIMLUNIT
 70
     2
  9
$DIMLWD
 70
    -1
  9
$DIMLWE
 70
    -1
  9
$DIMTMOVE
 70
     0
  9
$LUNITS
 70
     2
  9
$LUPREC
 70
     4
  9
$SKETCHINC
 40
1.0
  9
$FILLETRAD
 40
10.0
  9
$AUNITS
 70
     0
  9
$AUPREC
 70
     0
  9
$MENU
  1
.
  9
$ELEVATION
 40
0.0
  9
$PELEVATION
 40
0.0
  9
$THICKNESS
 40
0.0
  9
$LIMCHECK
 70
     0
  9
$CHAMFERA
 40
0.0
  9
$CHAMFERB
 40
0.0
  9
$CHAMFERC
 40
40.0
  9
$CHAMFERD
 40
0.0
  9
$SKPOLY
 70
     0
  9
$TDCREATE
 40
2451030.614786227
  9
$TDUCREATE
 40
2451030.239786227
  9
$TDUPDATE
 40
2455609.409260671
  9
$TDUUPDATE
 40
2455609.034260671
  9
$TDINDWG
 40
0.2826532407
  9
$TDUSRTIMER
 40
0.2826532407
  9
$USRTIMER
 70
     1
  9
$ANGBASE
 50
0.0
  9
$ANGDIR
 70
     0
  9
$PDMODE
 70
     0
  9
$PDSIZE
 40
0.0
  9
$PLINEWID
 40
0.0
  9
$SPLFRAME
 70
     0
  9
$SPLINETYPE
 70
     6
  9
$SPLINESEGS
 70
     8
  9
$HANDSEED
  5
5AA0
  9
$SURFTAB1
 70
     6
  9
$SURFTAB2
 70
     6
  9
$SURFTYPE
 70
     6
  9
$SURFU
 70
     6
  9
$SURFV
 70
     6
  9
$UCSBASE
  2

  9
$UCSNAME
  2

  9
$UCSORG
 10
0.0
 20
0.0
 30
0.0
  9
$UCSXDIR
 10
1.0
 20
0.0
 30
0.0
  9
$UCSYDIR
 10
0.0
 20
1.0
 30
0.0
  9
$UCSORTHOREF
  2

  9
$UCSORTHOVIEW
 70
     0
  9
$UCSORGTOP
 10
0.0
 20
0.0
 30
0.0
  9
$UCSORGBOTTOM
 10
0.0
 20
0.0
 30
0.0
  9
$UCSORGLEFT
 10
0.0
 20
0.0
 30
0.0
  9
$UCSORGRIGHT
 10
0.0
 20
0.0
 30
0.0
  9
$UCSORGFRONT
 10
0.0
 20
0.0
 30
0.0
  9
$UCSORGBACK
 10
0.0
 20
0.0
 30
0.0
  9
$PUCSBASE
  2

  9
$PUCSNAME
  2

  9
$PUCSORG
 10
0.0
 20
0.0
 30
0.0
  9
$PUCSXDIR
 10
1.0
 20
0.0
 30
0.0
  9
$PUCSYDIR
 10
0.0
 20
1.0
 30
0.0
  9
$PUCSORTHOREF
  2

  9
$PUCSORTHOVIEW
 70
     0
  9
$PUCSORGTOP
 10
0.0
 20
0.0
 30
0.0
  9
$PUCSORGBOTTOM
 10
0.0
 20
0.0
 30
0.0
  9
$PUCSORGLEFT
 10
0.0
 20
0.0
 30
0.0
  9
$PUCSORGRIGHT
 10
0.0
 20
0.0
 30
0.0
  9
$PUCSORGFRONT
 10
0.0
 20
0.0
 30
0.0
  9
$PUCSORGBACK
 10
0.0
 20
0.0
 30
0.0
  9
$USERI1
 70
     0
  9
$USERI2
 70
     0
  9
$USERI3
 70
     0
  9
$USERI4
 70
     0
  9
$USERI5
 70
     0
  9
$USERR1
 40
0.0
  9
$USERR2
 40
0.0
  9
$USERR3
 40
0.0
  9
$USERR4
 40
0.0
  9
$USERR5
 40
0.0
  9
$WORLDVIEW
 70
     1
  9
$SHADEDGE
 70
     3
  9
$SHADEDIF
 70
    70
  9
$TILEMODE
 70
     1
  9
$MAXACTVP
 70
    16
  9
$PINSBASE
 10
0.0
 20
0.0
 30
0.0
  9
$PLIMCHECK
 70
     0
  9
$PEXTMIN
 10
-0.0128164049386896
 20
-0.0090630292066862
 30
-0.0015258207003583
  9
$PEXTMAX
 10
420.0128183607161
 20
297.0090644122207
 30
0.0000000349246037
  9
$PLIMMIN
 10
-30.66685116754001
 20
-9.990190459854739
  9
$PLIMMAX
 10
450.6668334081172
 20
361.9494725043409
  9
$UNITMODE
 70
     0
  9
$VISRETAIN
 70
     0
  9
$PLINEGEN
 70
     0
  9
$PSLTSCALE
 70
     1
  9
$TREEDEPTH
 70
  3020
  9
$CMLSTYLE
  2
STANDARD
  9
$CMLJUST
 70
     0
  9
$CMLSCALE
 40
1.0
  9
$PROXYGRAPHICS
 70
     1
  9
$MEASUREMENT
 70
     0
  9
$CELWEIGHT
370
    -1
  9
$ENDCAPS
280
     0
  9
$JOINSTYLE
280
     0
  9
$LWDISPLAY
290
     0
  9
$INSUNITS
 70
     0
  9
$HYPERLINKBASE
  1

  9
$STYLESHEET
  1
systemprinter.ctb
  9
$XEDIT
290
     1
  9
$CEPSNTYPE
380
     0
  9
$PSTYLEMODE
290
     1
  9
$FINGERPRINTGUID
  2
{91E25F26-0CBF-4C93-982E-B5F00895E654}
  9
$VERSIONGUID
  2
{019E4806-24B0-4E6A-93CA-48C3C0625227}
  9
$EXTNAMES
290
     1
  9
$PSVPSCALE
 40
0.0
  9
$OLESTARTUP
290
     0
  0
ENDSEC
  0
SECTION
  2
CLASSES
  0
CLASS
  1
ACDBDICTIONARYWDFLT
  2
AcDbDictionaryWithDefault
  3
ObjectDBX Classes
 90
        0
280
     0
281
     0
  0
CLASS
  1
ACDBPLACEHOLDER
  2
AcDbPlaceHolder
  3
ObjectDBX Classes
 90
        0
280
     0
281
     0
  0
CLASS
  1
LAYOUT
  2
AcDbLayout
  3
ObjectDBX Classes
 90
        0
280
     0
281
     0
  0
CLASS
  1
DUMMY
  2
AcDbLongTransaction
  3
DUMMY
 90
        0
280
     0
281
     0
  0
CLASS
  1
LWPOLYLINE
  2
AcDbPolyline
  3
AutoCAD 2000
 90
        0
280
     0
281
     1
  0
CLASS
  1
HATCH
  2
AcDbHatch
  3
AutoCAD 2000
 90
        0
280
     0
281
     1
  0
CLASS
  1
XRECORD
  2
AcDbXrecord
  3
AutoCAD 2000
 90
        0
280
     0
281
     0
  0
CLASS
  1
DUMMY
  2
AcDbLongTransaction
  3
DUMMY
 90
        0
280
     0
281
     0
  0
CLASS
  1
LWPOLYLINE
  2
AcDbPolyline
  3
AutoCAD 2000
 90
        0
280
     0
281
     1
  0
CLASS
  1
HATCH
  2
AcDbHatch
  3
AutoCAD 2000
 90
        0
280
     0
281
     1
  0
CLASS
  1
XRECORD
  2
AcDbXrecord
  3
AutoCAD 2000
 90
        0
280
     0
281
     0
  0
CLASS
  1
DUMMY
  2
AcDbLongTransaction
  3
DUMMY
 90
        0
280
     0
281
     0
  0
CLASS
  1
LWPOLYLINE
  2
AcDbPolyline
  3
AutoCAD 2000
 90
        0
280
     0
281
     1
  0
CLASS
  1
HATCH
  2
AcDbHatch
  3
AutoCAD 2000
 90
        0
280
     0
281
     1
  0
CLASS
  1
XRECORD
  2
AcDbXrecord
  3
AutoCAD 2000
 90
        0
280
     0
281
     0
  0
CLASS
  1
DUMMY
  2
AcDbLongTransaction
  3
DUMMY
 90
        0
280
     0
281
     0
  0
CLASS
  1
LWPOLYLINE
  2
AcDbPolyline
  3
AutoCAD 2000
 90
        0
280
     0
281
     1
  0
CLASS
  1
HATCH
  2
AcDbHatch
  3
AutoCAD 2000
 90
        0
280
     0
281
     1
  0
CLASS
  1
XRECORD
  2
AcDbXrecord
  3
AutoCAD 2000
 90
        0
280
     0
281
     0
  0
CLASS
  1
DUMMY
  2
AcDbLongTransaction
  3
DUMMY
 90
        0
280
     0
281
     0
  0
CLASS
  1
LWPOLYLINE
  2
AcDbPolyline
  3
AutoCAD 2000
 90
        0
280
     0
281
     1
  0
CLASS
  1
HATCH
  2
AcDbHatch
  3
AutoCAD 2000
 90
        0
280
     0
281
     1
  0
CLASS
  1
XRECORD
  2
AcDbXrecord
  3
AutoCAD 2000
 90
        0
280
     0
281
     0
  0
ENDSEC
  0
SECTION
  2
TABLES
  0
TABLE
  2
VPORT
  5
8
330
0
100
AcDbSymbolTable
 70
     2
  0
VPORT
  5
5A9F
330
8
100
AcDbSymbolTableRecord
100
AcDbViewportTableRecord
  2
*Active
 70
     0
 10
0.0
 20
0.0
 11
1.0
 21
1.0
 12
400.2416872879331
 22
303.9518674333558
 13
0.0
 23
0.0
 14
5.0
 24
5.0
 15
0.0
 25
0.0
 16
0.0
 26
0.0
 36
1.0
 17
0.0
 27
0.0
 37
0.0
 40
701.3174118445345
 41
1.651537335285505
 42
50.0
 43
0.0
 44
0.0
 50
0.0
 51
0.0
 71
     0
 72
   100
 73
     1
 74
     0
 75
     0
 76
     0
 77
     0
 78
     0
281
     0
 65
     1
110
0.0
120
0.0
130
0.0
111
1.0
121
0.0
131
0.0
112
0.0
122
1.0
132
0.0
 79
     0
146
0.0
  0
ENDTAB
  0
TABLE
  2
LTYPE
  5
5
330
0
100
AcDbSymbolTable
 70
     3
  0
LTYPE
  5
14
330
5
100
AcDbSymbolTableRecord
100
AcDbLinetypeTableRecord
  2
BYBLOCK
 70
     0
  3

 72
    65
 73
     0
 40
0.0
  0
LTYPE
  5
15
330
5
100
AcDbSymbolTableRecord
100
AcDbLinetypeTableRecord
  2
BYLAYER
 70
     0
  3

 72
    65
 73
     0
 40
0.0
  0
LTYPE
  5
16
330
5
100
AcDbSymbolTableRecord
100
AcDbLinetypeTableRecord
  2
CONTINUOUS
 70
     0
  3
Solid line
 72
    65
 73
     0
 40
0.0
  0
LTYPE
  5
115
330
5
100
AcDbSymbolTableRecord
100
AcDbLinetypeTableRecord
  2
PHANTOM
 70
     0
  3
______  __  __  ______  __  __  ______  __  __ 
 72
    65
 73
     6
 40
2.5
 49
1.25
 74
     0
 49
-0.25
 74
     0
 49
0.25
 74
     0
 49
-0.25
 74
     0
 49
0.25
 74
     0
 49
-0.25
 74
     0
  0
LTYPE
  5
135
330
5
100
AcDbSymbolTableRecord
100
AcDbLinetypeTableRecord
  2
CENTER
 70
     0
  3
____ _ ____ _ ____ _ ____ _ ____ _ ____ _ ____ 
 72
    65
 73
     4
 40
2.0
 49
1.25
 74
     0
 49
-0.25
 74
     0
 49
0.25
 74
     0
 49
-0.25
 74
     0
  0
ENDTAB
  0
TABLE
  2
LAYER
  5
2
330
0
100
AcDbSymbolTable
 70
     8
  0
LAYER
  5
F
330
2
100
AcDbSymbolTableRecord
100
AcDbLayerTableRecord
  2
0
 70
     0
 62
     7
  6
CONTINUOUS
370
    -3
390
A97
  0
LAYER
  5
62
330
2
100
AcDbSymbolTableRecord
100
AcDbLayerTableRecord
  2
VIEWPORT
 70
     0
 62
     7
  6
CONTINUOUS
370
    -3
390
A97
  0
LAYER
  5
143
330
2
100
AcDbSymbolTableRecord
100
AcDbLayerTableRecord
  2
SEIHIN
 70
     0
 62
     3
  6
CONTINUOUS
370
    -3
390
A97
  0
LAYER
  5
444
330
2
100
AcDbSymbolTableRecord
100
AcDbLayerTableRecord
  2
DEFPOINTS
 70
     0
 62
     7
  6
CONTINUOUS
290
     0
370
    -3
390
A97
  0
LAYER
  5
482
330
2
100
AcDbSymbolTableRecord
100
AcDbLayerTableRecord
  2
SUNPOU
 70
     0
 62
     4
  6
CONTINUOUS
370
    -3
390
A97
  0
LAYER
  5
5D4
330
2
100
AcDbSymbolTableRecord
100
AcDbLayerTableRecord
  2
CENTER_L
 70
     0
 62
     1
  6
CENTER
370
    -3
390
A97
  0
LAYER
  5
3D95
330
2
100
AcDbSymbolTableRecord
100
AcDbLayerTableRecord
  2
ZUWAKU
 70
     0
 62
     7
  6
CONTINUOUS
370
    -3
390
A97
  0
LAYER
  5
3D96
330
2
100
AcDbSymbolTableRecord
100
AcDbLayerTableRecord
  2
MOJI
 70
     0
 62
     2
  6
CONTINUOUS
370
    -3
390
A97
  0
ENDTAB
  0
TABLE
  2
STYLE
  5
3
330
0
100
AcDbSymbolTable
 70
     2
  0
STYLE
  5
10
330
3
100
AcDbSymbolTableRecord
100
AcDbTextStyleTableRecord
  2
STANDARD
 70
     0
 40
0.0
 41
1.0
 50
0.0
 71
     0
 42
6.0
  3
TXT
  4
bigfont.shx
  0
STYLE
  5
3D97
330
3
100
AcDbSymbolTableRecord
100
AcDbTextStyleTableRecord
  2
ｽﾀｲﾙ1
 70
     0
 40
0.0
 41
1.0
 50
0.0
 71
     0
 42
2.5
  3
MS PGothic.ttf
  4

1001
ACAD
1000
MS PGothic
1071
    32818
  0
ENDTAB
  0
TABLE
  2
VIEW
  5
6
330
0
100
AcDbSymbolTable
 70
     0
  0
ENDTAB
  0
TABLE
  2
UCS
  5
7
330
0
100
AcDbSymbolTable
 70
     0
  0
ENDTAB
  0
TABLE
  2
APPID
  5
9
330
0
100
AcDbSymbolTable
 70
     1
  0
APPID
  5
11
330
9
100
AcDbSymbolTableRecord
100
AcDbRegAppTableRecord
  2
ACAD
 70
     0
  0
ENDTAB
  0
TABLE
  2
DIMSTYLE
  5
A
330
0
100
AcDbSymbolTable
 70
     1
100
AcDbDimStyleTable
  0
DIMSTYLE
105
1D
102
{ACAD_REACTORS
330
578C
330
578D
330
578E
330
578F
330
5798
330
5799
330
579A
330
57E3
330
582D
330
586F
330
5870
330
587D
330
589A
330
589B
102
}
330
A
100
AcDbSymbolTableRecord
100
AcDbDimStyleTableRecord
  2
STANDARD
 70
     0
340
10
  0
ENDTAB
  0
TABLE
  2
BLOCK_RECORD
  5
1
330
0
100
AcDbSymbolTable
 70
    15
  0
BLOCK_RECORD
  5
1A
330
1
100
AcDbSymbolTableRecord
100
AcDbBlockTableRecord
  2
*MODEL_SPACE
340
5A9C
  0
BLOCK_RECORD
  5
17
330
1
100
AcDbSymbolTableRecord
100
AcDbBlockTableRecord
  2
*PAPER_SPACE
340
5A9D
  0
BLOCK_RECORD
  5
6D
330
1
100
AcDbSymbolTableRecord
100
AcDbBlockTableRecord
  2
_OPEN
340
0
102
{BLKREFS
331
5A0F
331
5A10
331
5A06
331
5A07
331
59FD
331
59FE
331
59F2
331
59F3
331
59E9
331
59EA
331
5A21
331
5A22
331
5A18
331
5A19
331
5A2A
331
5A2B
331
5A35
331
5A36
331
5A47
331
5A48
331
5A3E
331
5A3F
331
5A52
331
5A53
331
5A64
331
5A65
331
5A5B
331
5A5C
102
}
  0
BLOCK_RECORD
  5
58AE
330
1
100
AcDbSymbolTableRecord
100
AcDbBlockTableRecord
  2
*D1
340
0
  0
BLOCK_RECORD
  5
58BA
330
1
100
AcDbSymbolTableRecord
100
AcDbBlockTableRecord
  2
*D2
340
0
  0
BLOCK_RECORD
  5
58C6
330
1
100
AcDbSymbolTableRecord
100
AcDbBlockTableRecord
  2
*D3
340
0
  0
BLOCK_RECORD
  5
58D4
330
1
100
AcDbSymbolTableRecord
100
AcDbBlockTableRecord
  2
*D4
340
0
  0
BLOCK_RECORD
  5
58E0
330
1
100
AcDbSymbolTableRecord
100
AcDbBlockTableRecord
  2
*D5
340
0
  0
BLOCK_RECORD
  5
58EE
330
1
100
AcDbSymbolTableRecord
100
AcDbBlockTableRecord
  2
*D6
340
0
  0
BLOCK_RECORD
  5
58FA
330
1
100
AcDbSymbolTableRecord
100
AcDbBlockTableRecord
  2
*D7
340
0
  0
BLOCK_RECORD
  5
5906
330
1
100
AcDbSymbolTableRecord
100
AcDbBlockTableRecord
  2
*D8
340
0
  0
BLOCK_RECORD
  5
5912
330
1
100
AcDbSymbolTableRecord
100
AcDbBlockTableRecord
  2
*D9
340
0
  0
BLOCK_RECORD
  5
5920
330
1
100
AcDbSymbolTableRecord
100
AcDbBlockTableRecord
  2
*D10
340
0
  0
BLOCK_RECORD
  5
592C
330
1
100
AcDbSymbolTableRecord
100
AcDbBlockTableRecord
  2
*D11
340
0
  0
BLOCK_RECORD
  5
5938
330
1
100
AcDbSymbolTableRecord
100
AcDbBlockTableRecord
  2
*D12
340
0
  0
BLOCK_RECORD
  5
5946
330
1
100
AcDbSymbolTableRecord
100
AcDbBlockTableRecord
  2
*D13
340
0
  0
BLOCK_RECORD
  5
5952
330
1
100
AcDbSymbolTableRecord
100
AcDbBlockTableRecord
  2
*D14
340
0
  0
ENDTAB
  0
ENDSEC
  0
SECTION
  2
BLOCKS
  0
BLOCK
  5
1B
330
1A
100
AcDbEntity
  8
0
100
AcDbBlockBegin
  2
*MODEL_SPACE
 70
     0
 71
     0
 10
0.0
 20
0.0
 30
0.0
  3
*MODEL_SPACE
  1

  0
ENDBLK
  5
1C
330
1A
100
AcDbEntity
  8
0
100
AcDbBlockEnd
  0
BLOCK
  5
18
330
17
100
AcDbEntity
 67
     1
  8
0
100
AcDbBlockBegin
  2
*PAPER_SPACE
 70
     0
 71
     0
 10
0.0
 20
0.0
 30
0.0
  3
*PAPER_SPACE
  1

  0
ENDBLK
  5
19
330
17
100
AcDbEntity
 67
     1
  8
0
100
AcDbBlockEnd
  0
BLOCK
  5
6E
330
6D
100
AcDbEntity
  8
0
100
AcDbBlockBegin
  2
_OPEN
 70
     0
 71
     0
 10
0.0
 20
0.0
 30
0.0
  3
_OPEN
  1

  0
LINE
  5
6F
330
6D
100
AcDbEntity
  8
0
  6
ByBlock
 62
     0
100
AcDbLine
 10
-1.0
 20
0.1666666666666666
 30
0.0
 11
0.0
 21
0.0
 31
0.0
  0
LINE
  5
70
330
6D
100
AcDbEntity
  8
0
  6
ByBlock
 62
     0
100
AcDbLine
 10
0.0
 20
0.0
 30
0.0
 11
-1.0
 21
-0.1666666666666666
 31
0.0
  0
LINE
  5
71
330
6D
100
AcDbEntity
  8
0
  6
ByBlock
 62
     0
100
AcDbLine
 10
0.0
 20
0.0
 30
0.0
 11
-1.0
 21
0.0
 31
0.0
  0
ENDBLK
  5
72
330
6D
100
AcDbEntity
  8
0
100
AcDbBlockEnd
  0
BLOCK
  5
58B8
330
58AE
100
AcDbEntity
  8
0
100
AcDbBlockBegin
  2
*D1
 70
     1
 71
     0
 10
0.0
 20
0.0
 30
0.0
  3
*D1
  1

  0
LINE
  5
5A0C
330
58AE
100
AcDbEntity
  8
SUNPOU
 62
     4
100
AcDbLine
 10
421.1666429362542
 20
415.3080483919377
 30
0.0
 11
463.4787485903589
 21
415.3080483919377
 31
0.0
  0
LINE
  5
5A0D
330
58AE
100
AcDbEntity
  8
SUNPOU
 62
     4
100
AcDbLine
 10
421.1666429362542
 20
360.3080483919377
 30
0.0
 11
463.4787485903589
 21
360.3080483919377
 31
0.0
  0
LINE
  5
5A0E
330
58AE
100
AcDbEntity
  8
SUNPOU
 62
     4
100
AcDbLine
 10
460.478748590359
 20
408.3080483919377
 30
0.0
 11
460.4787485903589
 21
367.3080483919377
 31
0.0
  0
INSERT
  5
5A0F
330
58AE
100
AcDbEntity
  8
SUNPOU
 62
     4
100
AcDbBlockReference
  2
_OPEN
 10
460.478748590359
 20
415.3080483919377
 30
0.0
 41
7.0
 42
7.0
 43
7.0
 50
90.0
  0
INSERT
  5
5A10
330
58AE
100
AcDbEntity
  8
SUNPOU
 62
     4
100
AcDbBlockReference
  2
_OPEN
 10
460.4787485903589
 20
360.3080483919377
 30
0.0
 41
7.0
 42
7.0
 43
7.0
 50
270.0
  0
MTEXT
  5
5A11
330
58AE
100
AcDbEntity
  8
SUNPOU
 62
     4
100
AcDbMText
 10
455.4787485903588
 20
387.8080483919378
 30
0.0
 40
6.0
 41
0.0
 71
     5
 72
     1
  1
\A1;55
 11
1.000000000000000E-16
 21
1.0
 31
0.0
 73
     1
 44
1.0
  0
POINT
  5
5A12
330
58AE
100
AcDbEntity
  8
DEFPOINTS
 62
     0
100
AcDbPoint
 10
415.1666429362542
 20
415.3080483919377
 30
0.0
  0
POINT
  5
5A13
330
58AE
100
AcDbEntity
  8
DEFPOINTS
 62
     0
100
AcDbPoint
 10
415.1666429362542
 20
360.3080483919377
 30
0.0
  0
POINT
  5
5A14
330
58AE
100
AcDbEntity
  8
DEFPOINTS
 62
     0
100
AcDbPoint
 10
460.4787485903589
 20
360.3080483919377
 30
0.0
  0
ENDBLK
  5
58B9
330
58AE
100
AcDbEntity
  8
0
100
AcDbBlockEnd
  0
BLOCK
  5
58C4
330
58BA
100
AcDbEntity
  8
0
100
AcDbBlockBegin
  2
*D2
 70
     1
 71
     0
 10
0.0
 20
0.0
 30
0.0
  3
*D2
  1

  0
LINE
  5
5A03
330
58BA
100
AcDbEntity
  8
SUNPOU
 62
     4
100
AcDbLine
 10
228.9257429362542
 20
241.26414296669
 30
0.0
 11
203.044438033065
 21
241.26414296669
 31
0.0
  0
LINE
  5
5A04
330
58BA
100
AcDbEntity
  8
SUNPOU
 62
     4
100
AcDbLine
 10
425.4275429362541
 20
188.9327429666901
 30
0.0
 11
203.044438033065
 21
188.9327429666901
 31
0.0
  0
LINE
  5
5A05
330
58BA
100
AcDbEntity
  8
SUNPOU
 62
     4
100
AcDbLine
 10
206.044438033065
 20
234.2641429666901
 30
0.0
 11
206.044438033065
 21
195.9327429666901
 31
0.0
  0
INSERT
  5
5A06
330
58BA
100
AcDbEntity
  8
SUNPOU
 62
     4
100
AcDbBlockReference
  2
_OPEN
 10
206.044438033065
 20
241.26414296669
 30
0.0
 41
7.0
 42
7.0
 43
7.0
 50
90.0
  0
INSERT
  5
5A07
330
58BA
100
AcDbEntity
  8
SUNPOU
 62
     4
100
AcDbBlockReference
  2
_OPEN
 10
206.044438033065
 20
188.9327429666901
 30
0.0
 41
7.0
 42
7.0
 43
7.0
 50
270.0
  0
MTEXT
  5
5A08
330
58BA
100
AcDbEntity
  8
SUNPOU
 62
     4
100
AcDbMText
 10
201.044438033065
 20
215.0984429666901
 30
0.0
 40
6.0
 41
0.0
 71
     5
 72
     1
  1
\A1;52
 11
1.000000000000000E-16
 21
1.0
 31
0.0
 73
     1
 44
1.0
  0
POINT
  5
5A09
330
58BA
100
AcDbEntity
  8
DEFPOINTS
 62
     0
100
AcDbPoint
 10
234.9257429362542
 20
241.26414296669
 30
0.0
  0
POINT
  5
5A0A
330
58BA
100
AcDbEntity
  8
DEFPOINTS
 62
     0
100
AcDbPoint
 10
431.4275429362542
 20
188.9327429666901
 30
0.0
  0
POINT
  5
5A0B
330
58BA
100
AcDbEntity
  8
DEFPOINTS
 62
     0
100
AcDbPoint
 10
206.044438033065
 20
188.9327429666901
 30
0.0
  0
ENDBLK
  5
58C5
330
58BA
100
AcDbEntity
  8
0
100
AcDbBlockEnd
  0
BLOCK
  5
58D2
330
58C6
100
AcDbEntity
  8
0
100
AcDbBlockBegin
  2
*D3
 70
     1
 71
     0
 10
0.0
 20
0.0
 30
0.0
  3
*D3
  1

  0
LINE
  5
59F8
330
58C6
100
AcDbEntity
  8
SUNPOU
 62
     4
100
AcDbLine
 10
435.4555444579931
 20
184.239641238501
 30
0.0
 11
446.1262066222738
 21
162.9332714316216
 31
0.0
  0
LINE
  5
59F9
330
58C6
100
AcDbEntity
  8
SUNPOU
 62
     4
100
AcDbLine
 10
434.1145444579932
 20
183.5680412385009
 30
0.0
 11
444.7852066222737
 21
162.2616714316215
 31
0.0
  0
LINE
  5
59FA
330
58C6
100
AcDbEntity
  8
SUNPOU
 62
     4
100
AcDbLine
 10
451.0417412109584
 20
168.7502740710783
 30
0.0
 11
457.3006765605124
 21
171.8848758464403
 31
0.0
  0
LINE
  5
59FB
330
58C6
100
AcDbEntity
  8
SUNPOU
 62
     4
100
AcDbLine
 10
437.1828705118502
 20
161.8094705203541
 30
0.0
 11
413.041262734999
 21
149.718863672529
 31
0.0
  0
LINE
  5
59FC
330
58C6
100
AcDbEntity
  8
SUNPOU
 62
     4
100
AcDbLine
 10
444.7828058614044
 20
165.6156722957162
 30
0.0
 11
443.4418058614044
 21
164.9440722957162
 31
0.0
  0
INSERT
  5
59FD
330
58C6
100
AcDbEntity
  8
SUNPOU
 62
     4
100
AcDbBlockReference
  2
_OPEN
 10
444.7828058614044
 20
165.6156722957162
 30
0.0
 41
7.0
 42
7.0
 43
7.0
 50
206.6026378591055
  0
INSERT
  5
59FE
330
58C6
100
AcDbEntity
  8
SUNPOU
 62
     4
100
AcDbBlockReference
  2
_OPEN
 10
443.4418058614044
 20
164.9440722957162
 30
0.0
 41
7.0
 42
7.0
 43
7.0
 50
26.60263785910557
  0
MTEXT
  5
59FF
330
58C6
100
AcDbEntity
  8
SUNPOU
 62
     4
100
AcDbMText
 10
419.7435976805318
 20
158.6675343155848
 30
0.0
 40
6.0
 41
0.0
 71
     5
 72
     1
  1
\A1;t1.5
 11
0.8941336213648607
 21
0.4478002536231527
 31
0.0
 73
     1
 44
1.0
  0
POINT
  5
5A00
330
58C6
100
AcDbEntity
  8
DEFPOINTS
 62
     0
100
AcDbPoint
 10
432.7687429362543
 20
189.6044429666901
 30
0.0
  0
POINT
  5
5A01
330
58C6
100
AcDbEntity
  8
DEFPOINTS
 62
     0
100
AcDbPoint
 10
431.4277429362542
 20
188.9328429666901
 30
0.0
  0
POINT
  5
5A02
330
58C6
100
AcDbEntity
  8
DEFPOINTS
 62
     0
100
AcDbPoint
 10
443.4418058614044
 20
164.9440722957162
 30
0.0
  0
ENDBLK
  5
58D3
330
58C6
100
AcDbEntity
  8
0
100
AcDbBlockEnd
  0
BLOCK
  5
58DE
330
58D4
100
AcDbEntity
  8
0
100
AcDbBlockBegin
  2
*D4
 70
     1
 71
     0
 10
0.0
 20
0.0
 30
0.0
  3
*D4
  1

  0
LINE
  5
59EF
330
58D4
100
AcDbEntity
  8
SUNPOU
 62
     4
100
AcDbLine
 10
406.7906153224117
 20
254.8820338800314
 30
0.0
 11
436.4882327479463
 21
269.7552030545201
 31
0.0
  0
LINE
  5
59F0
330
58D4
100
AcDbEntity
  8
SUNPOU
 62
     4
100
AcDbLine
 10
438.1365886951999
 20
192.2927690007751
 30
0.0
 11
467.8342061207346
 21
207.1659381752637
 31
0.0
  0
LINE
  5
59F1
330
58D4
100
AcDbEntity
  8
SUNPOU
 62
     4
100
AcDbLine
 10
436.9404336592138
 20
262.1528669440966
 30
0.0
 11
462.0172034812779
 21
212.0814727639483
 31
0.0
  0
INSERT
  5
59F2
330
58D4
100
AcDbEntity
  8
SUNPOU
 62
     4
100
AcDbBlockReference
  2
_OPEN
 10
433.8058318838517
 20
268.4118022936506
 30
0.0
 41
7.0
 42
7.0
 43
7.0
 50
116.6026378591056
  0
INSERT
  5
59F3
330
58D4
100
AcDbEntity
  8
SUNPOU
 62
     4
100
AcDbBlockReference
  2
_OPEN
 10
465.15180525664
 20
205.8225374143943
 30
0.0
 41
7.0
 42
7.0
 43
7.0
 50
296.6026378591056
  0
MTEXT
  5
59F4
330
58D4
100
AcDbEntity
  8
SUNPOU
 62
     4
100
AcDbMText
 10
453.9494866770702
 20
239.3561711221382
 30
0.0
 40
6.0
 41
0.0
 71
     5
 72
     1
  1
\A1;70
 11
0.4478002536231532
 21
-0.8941336213648604
 31
0.0
 73
     1
 44
1.0
  0
POINT
  5
59F5
330
58D4
100
AcDbEntity
  8
DEFPOINTS
 62
     0
100
AcDbPoint
 10
401.4258135942226
 20
252.1952323582925
 30
0.0
  0
POINT
  5
59F6
330
58D4
100
AcDbEntity
  8
DEFPOINTS
 62
     0
100
AcDbPoint
 10
432.7717869670108
 20
189.6059674790361
 30
0.0
  0
POINT
  5
59F7
330
58D4
100
AcDbEntity
  8
DEFPOINTS
 62
     0
100
AcDbPoint
 10
465.15180525664
 20
205.8225374143943
 30
0.0
  0
ENDBLK
  5
58DF
330
58D4
100
AcDbEntity
  8
0
100
AcDbBlockEnd
  0
BLOCK
  5
58EC
330
58E0
100
AcDbEntity
  8
0
100
AcDbBlockBegin
  2
*D5
 70
     1
 71
     0
 10
0.0
 20
0.0
 30
0.0
  3
*D5
  1

  0
LINE
  5
59E4
330
58E0
100
AcDbEntity
  8
SUNPOU
 62
     4
100
AcDbLine
 10
401.4258135942225
 20
258.1952323582925
 30
0.0
 11
401.4258135942225
 21
303.6409909490653
 31
0.0
  0
LINE
  5
59E5
330
58E0
100
AcDbEntity
  8
SUNPOU
 62
     4
100
AcDbLine
 10
416.4258135942224
 20
258.1952323582925
 30
0.0
 11
416.4258135942224
 21
303.6409909490653
 31
0.0
  0
LINE
  5
59E6
330
58E0
100
AcDbEntity
  8
SUNPOU
 62
     4
100
AcDbLine
 10
394.4258135942225
 20
300.6409909490653
 30
0.0
 11
387.4258135942225
 21
300.6409909490653
 31
0.0
  0
LINE
  5
59E7
330
58E0
100
AcDbEntity
  8
SUNPOU
 62
     4
100
AcDbLine
 10
423.4258135942225
 20
300.6409909490653
 30
0.0
 11
430.4258135942225
 21
300.6409909490653
 31
0.0
  0
LINE
  5
59E8
330
58E0
100
AcDbEntity
  8
SUNPOU
 62
     4
100
AcDbLine
 10
401.4258135942225
 20
300.6409909490653
 30
0.0
 11
416.4258135942224
 21
300.6409909490653
 31
0.0
  0
INSERT
  5
59E9
330
58E0
100
AcDbEntity
  8
SUNPOU
 62
     4
100
AcDbBlockReference
  2
_OPEN
 10
401.4258135942225
 20
300.6409909490653
 30
0.0
 41
7.0
 42
7.0
 43
7.0
  0
INSERT
  5
59EA
330
58E0
100
AcDbEntity
  8
SUNPOU
 62
     4
100
AcDbBlockReference
  2
_OPEN
 10
416.4258135942224
 20
300.6409909490653
 30
0.0
 41
7.0
 42
7.0
 43
7.0
 50
180.0
  0
MTEXT
  5
59EB
330
58E0
100
AcDbEntity
  8
SUNPOU
 62
     4
100
AcDbMText
 10
408.9258135942225
 20
305.6409909490653
 30
0.0
 40
6.0
 41
0.0
 71
     5
 72
     1
  1
\A1;15
 73
     1
 44
1.0
  0
POINT
  5
59EC
330
58E0
100
AcDbEntity
  8
DEFPOINTS
 62
     0
100
AcDbPoint
 10
401.4258135942225
 20
252.1952323582925
 30
0.0
  0
POINT
  5
59ED
330
58E0
100
AcDbEntity
  8
DEFPOINTS
 62
     0
100
AcDbPoint
 10
416.4258135942224
 20
252.1952323582925
 30
0.0
  0
POINT
  5
59EE
330
58E0
100
AcDbEntity
  8
DEFPOINTS
 62
     0
100
AcDbPoint
 10
416.4258135942224
 20
300.6409909490653
 30
0.0
  0
ENDBLK
  5
58ED
330
58E0
100
AcDbEntity
  8
0
100
AcDbBlockEnd
  0
BLOCK
  5
58F8
330
58EE
100
AcDbEntity
  8
0
100
AcDbBlockBegin
  2
*D6
 70
     1
 71
     0
 10
0.0
 20
0.0
 30
0.0
  3
*D6
  1

  0
LINE
  5
5A1E
330
58EE
100
AcDbEntity
  8
SUNPOU
 62
     4
100
AcDbLine
 10
233.4257429362541
 20
245.76414296669
 30
0.0
 11
233.4257429362541
 21
303.6409909490653
 31
0.0
  0
LINE
  5
5A1F
330
58EE
100
AcDbEntity
  8
SUNPOU
 62
     4
100
AcDbLine
 10
401.4258135942225
 20
258.1952323582925
 30
0.0
 11
401.4258135942225
 21
303.6409909490653
 31
0.0
  0
LINE
  5
5A20
330
58EE
100
AcDbEntity
  8
SUNPOU
 62
     4
100
AcDbLine
 10
240.4257429362542
 20
300.6409909490653
 30
0.0
 11
394.4258135942225
 21
300.6409909490653
 31
0.0
  0
INSERT
  5
5A21
330
58EE
100
AcDbEntity
  8
SUNPOU
 62
     4
100
AcDbBlockReference
  2
_OPEN
 10
233.4257429362541
 20
300.6409909490653
 30
0.0
 41
7.0
 42
7.0
 43
7.0
 50
180.0
  0
INSERT
  5
5A22
330
58EE
100
AcDbEntity
  8
SUNPOU
 62
     4
100
AcDbBlockReference
  2
_OPEN
 10
401.4258135942225
 20
300.6409909490653
 30
0.0
 41
7.0
 42
7.0
 43
7.0
  0
MTEXT
  5
5A23
330
58EE
100
AcDbEntity
  8
SUNPOU
 62
     4
100
AcDbMText
 10
317.4257782652383
 20
305.6409909490653
 30
0.0
 40
6.0
 41
0.0
 71
     5
 72
     1
  1
\A1;168
 73
     1
 44
1.0
  0
POINT
  5
5A24
330
58EE
100
AcDbEntity
  8
DEFPOINTS
 62
     0
100
AcDbPoint
 10
233.4257429362541
 20
239.76414296669
 30
0.0
  0
POINT
  5
5A25
330
58EE
100
AcDbEntity
  8
DEFPOINTS
 62
     0
100
AcDbPoint
 10
401.4258135942225
 20
252.1952323582925
 30
0.0
  0
POINT
  5
5A26
330
58EE
100
AcDbEntity
  8
DEFPOINTS
 62
     0
100
AcDbPoint
 10
401.4258135942225
 20
300.6409909490653
 30
0.0
  0
ENDBLK
  5
58F9
330
58EE
100
AcDbEntity
  8
0
100
AcDbBlockEnd
  0
BLOCK
  5
5904
330
58FA
100
AcDbEntity
  8
0
100
AcDbBlockBegin
  2
*D7
 70
     1
 71
     0
 10
0.0
 20
0.0
 30
0.0
  3
*D7
  1

  0
LINE
  5
5A15
330
58FA
100
AcDbEntity
  8
SUNPOU
 62
     4
100
AcDbLine
 10
276.6758429362541
 20
220.2641429666901
 30
0.0
 11
276.6758429362541
 21
287.7160291466275
 31
0.0
  0
LINE
  5
5A16
330
58FA
100
AcDbEntity
  8
SUNPOU
 62
     4
100
AcDbLine
 10
401.4258135942226
 20
258.1952323582925
 30
0.0
 11
401.4258135942226
 21
287.7160291466275
 31
0.0
  0
LINE
  5
5A17
330
58FA
100
AcDbEntity
  8
SUNPOU
 62
     4
100
AcDbLine
 10
283.6758429362541
 20
284.7160291466275
 30
0.0
 11
394.4258135942225
 21
284.7160291466275
 31
0.0
  0
INSERT
  5
5A18
330
58FA
100
AcDbEntity
  8
SUNPOU
 62
     4
100
AcDbBlockReference
  2
_OPEN
 10
276.6758429362541
 20
284.7160291466275
 30
0.0
 41
7.0
 42
7.0
 43
7.0
 50
180.0
  0
INSERT
  5
5A19
330
58FA
100
AcDbEntity
  8
SUNPOU
 62
     4
100
AcDbBlockReference
  2
_OPEN
 10
401.4258135942226
 20
284.7160291466275
 30
0.0
 41
7.0
 42
7.0
 43
7.0
  0
MTEXT
  5
5A1A
330
58FA
100
AcDbEntity
  8
SUNPOU
 62
     4
100
AcDbMText
 10
339.0508282652383
 20
289.7160291466275
 30
0.0
 40
6.0
 41
0.0
 71
     5
 72
     1
  1
\A1;125
 73
     1
 44
1.0
  0
POINT
  5
5A1B
330
58FA
100
AcDbEntity
  8
DEFPOINTS
 62
     0
100
AcDbPoint
 10
276.6758429362541
 20
214.2641429666901
 30
0.0
  0
POINT
  5
5A1C
330
58FA
100
AcDbEntity
  8
DEFPOINTS
 62
     0
100
AcDbPoint
 10
401.4258135942226
 20
252.1952323582925
 30
0.0
  0
POINT
  5
5A1D
330
58FA
100
AcDbEntity
  8
DEFPOINTS
 62
     0
100
AcDbPoint
 10
401.4258135942226
 20
284.7160291466275
 30
0.0
  0
ENDBLK
  5
5905
330
58FA
100
AcDbEntity
  8
0
100
AcDbBlockEnd
  0
BLOCK
  5
5910
330
5906
100
AcDbEntity
  8
0
100
AcDbBlockBegin
  2
*D8
 70
     1
 71
     0
 10
0.0
 20
0.0
 30
0.0
  3
*D8
  1

  0
LINE
  5
5A27
330
5906
100
AcDbEntity
  8
SUNPOU
 62
     4
100
AcDbLine
 10
356.4257429362543
 20
229.56414296669
 30
0.0
 11
356.4257429362543
 21
271.8498990307707
 31
0.0
  0
LINE
  5
5A28
330
5906
100
AcDbEntity
  8
SUNPOU
 62
     4
100
AcDbLine
 10
401.4258135942225
 20
258.1952323582924
 30
0.0
 11
401.4258135942225
 21
271.8498990307707
 31
0.0
  0
LINE
  5
5A29
330
5906
100
AcDbEntity
  8
SUNPOU
 62
     4
100
AcDbLine
 10
363.4257429362543
 20
268.8498990307707
 30
0.0
 11
394.4258135942225
 21
268.8498990307707
 31
0.0
  0
INSERT
  5
5A2A
330
5906
100
AcDbEntity
  8
SUNPOU
 62
     4
100
AcDbBlockReference
  2
_OPEN
 10
356.4257429362543
 20
268.8498990307707
 30
0.0
 41
7.0
 42
7.0
 43
7.0
 50
180.0
  0
INSERT
  5
5A2B
330
5906
100
AcDbEntity
  8
SUNPOU
 62
     4
100
AcDbBlockReference
  2
_OPEN
 10
401.4258135942225
 20
268.8498990307707
 30
0.0
 41
7.0
 42
7.0
 43
7.0
  0
MTEXT
  5
5A2C
330
5906
100
AcDbEntity
  8
SUNPOU
 62
     4
100
AcDbMText
 10
378.9257782652384
 20
273.8498990307707
 30
0.0
 40
6.0
 41
0.0
 71
     5
 72
     1
  1
\A1;45
 73
     1
 44
1.0
  0
POINT
  5
5A2D
330
5906
100
AcDbEntity
  8
DEFPOINTS
 62
     0
100
AcDbPoint
 10
356.4257429362543
 20
223.56414296669
 30
0.0
  0
POINT
  5
5A2E
330
5906
100
AcDbEntity
  8
DEFPOINTS
 62
     0
100
AcDbPoint
 10
401.4258135942225
 20
252.1952323582924
 30
0.0
  0
POINT
  5
5A2F
330
5906
100
AcDbEntity
  8
DEFPOINTS
 62
     0
100
AcDbPoint
 10
401.4258135942225
 20
268.8498990307707
 30
0.0
  0
ENDBLK
  5
5911
330
5906
100
AcDbEntity
  8
0
100
AcDbBlockEnd
  0
BLOCK
  5
591E
330
5912
100
AcDbEntity
  8
0
100
AcDbBlockBegin
  2
*D9
 70
     1
 71
     0
 10
0.0
 20
0.0
 30
0.0
  3
*D9
  1

  0
LINE
  5
5A30
330
5912
100
AcDbEntity
  8
SUNPOU
 62
     4
100
AcDbLine
 10
230.4256429362542
 20
395.3080483919377
 30
0.0
 11
204.2111046997316
 21
395.3080483919377
 31
0.0
  0
LINE
  5
5A31
330
5912
100
AcDbEntity
  8
SUNPOU
 62
     4
100
AcDbLine
 10
230.4256429362542
 20
380.3081483919377
 30
0.0
 11
204.2111046997316
 21
380.3081483919377
 31
0.0
  0
LINE
  5
5A32
330
5912
100
AcDbEntity
  8
SUNPOU
 62
     4
100
AcDbLine
 10
207.2111046997316
 20
402.3080483919377
 30
0.0
 11
207.2111046997316
 21
409.3080483919377
 31
0.0
  0
LINE
  5
5A33
330
5912
100
AcDbEntity
  8
SUNPOU
 62
     4
100
AcDbLine
 10
207.2111046997316
 20
373.3081483919377
 30
0.0
 11
207.2111046997316
 21
366.3081483919377
 31
0.0
  0
LINE
  5
5A34
330
5912
100
AcDbEntity
  8
SUNPOU
 62
     4
100
AcDbLine
 10
207.2111046997316
 20
395.3080483919377
 30
0.0
 11
207.2111046997316
 21
380.3081483919377
 31
0.0
  0
INSERT
  5
5A35
330
5912
100
AcDbEntity
  8
SUNPOU
 62
     4
100
AcDbBlockReference
  2
_OPEN
 10
207.2111046997316
 20
395.3080483919377
 30
0.0
 41
7.0
 42
7.0
 43
7.0
 50
270.0
  0
INSERT
  5
5A36
330
5912
100
AcDbEntity
  8
SUNPOU
 62
     4
100
AcDbBlockReference
  2
_OPEN
 10
207.2111046997316
 20
380.3081483919377
 30
0.0
 41
7.0
 42
7.0
 43
7.0
 50
90.0
  0
MTEXT
  5
5A37
330
5912
100
AcDbEntity
  8
SUNPOU
 62
     4
100
AcDbMText
 10
202.2111046997316
 20
387.8080983919378
 30
0.0
 40
6.0
 41
0.0
 71
     5
 72
     1
  1
\A1;15
 11
1.000000000000000E-16
 21
1.0
 31
0.0
 73
     1
 44
1.0
  0
POINT
  5
5A38
330
5912
100
AcDbEntity
  8
DEFPOINTS
 62
     0
100
AcDbPoint
 10
236.4256429362542
 20
395.3080483919377
 30
0.0
  0
POINT
  5
5A39
330
5912
100
AcDbEntity
  8
DEFPOINTS
 62
     0
100
AcDbPoint
 10
236.4256429362542
 20
380.3081483919377
 30
0.0
  0
POINT
  5
5A3A
330
5912
100
AcDbEntity
  8
DEFPOINTS
 62
     0
100
AcDbPoint
 10
207.2111046997316
 20
380.3081483919377
 30
0.0
  0
ENDBLK
  5
591F
330
5912
100
AcDbEntity
  8
0
100
AcDbBlockEnd
  0
BLOCK
  5
592A
330
5920
100
AcDbEntity
  8
0
100
AcDbBlockBegin
  2
*D10
 70
     1
 71
     0
 10
0.0
 20
0.0
 30
0.0
  3
*D10
  1

  0
LINE
  5
5A44
330
5920
100
AcDbEntity
  8
SUNPOU
 62
     4
100
AcDbLine
 10
520.9541140050626
 20
304.5212294234344
 30
0.0
 11
497.3295161789542
 21
292.6134518323431
 31
0.0
  0
LINE
  5
5A45
330
5920
100
AcDbEntity
  8
SUNPOU
 62
     4
100
AcDbLine
 10
530.8395914516434
 20
277.4859213484171
 30
0.0
 11
510.1984602181743
 21
267.0819347169476
 31
0.0
  0
LINE
  5
5A46
330
5920
100
AcDbEntity
  8
SUNPOU
 62
     4
100
AcDbLine
 10
503.1591420964497
 20
287.7128945515774
 30
0.0
 11
509.7267079611459
 21
274.6830826439378
 31
0.0
  0
INSERT
  5
5A47
330
5920
100
AcDbEntity
  8
SUNPOU
 62
     4
100
AcDbBlockReference
  2
_OPEN
 10
500.0084530091877
 20
293.9637471554553
 30
0.0
 41
7.0
 42
7.0
 43
7.0
 50
116.7499999999995
  0
INSERT
  5
5A48
330
5920
100
AcDbEntity
  8
SUNPOU
 62
     4
100
AcDbBlockReference
  2
_OPEN
 10
512.8773970484079
 20
268.4322300400598
 30
0.0
 41
7.0
 42
7.0
 43
7.0
 50
296.7499999999994
  0
MTEXT
  5
5A49
330
5920
100
AcDbEntity
  8
SUNPOU
 62
     4
100
AcDbMText
 10
510.9078197458535
 20
283.4484808029447
 30
0.0
 40
6.0
 41
0.0
 71
     5
 72
     1
  1
\A1;29
 11
0.4500984410374274
 21
-0.8929789434111409
 31
0.0
 73
     1
 44
1.0
  0
POINT
  5
5A4A
330
5920
100
AcDbEntity
  8
DEFPOINTS
 62
     0
100
AcDbPoint
 10
526.3119876655296
 20
307.221820069659
 30
0.0
  0
POINT
  5
5A4B
330
5920
100
AcDbEntity
  8
DEFPOINTS
 62
     0
100
AcDbPoint
 10
536.1974651121102
 20
280.1865119946416
 30
0.0
  0
POINT
  5
5A4C
330
5920
100
AcDbEntity
  8
DEFPOINTS
 62
     0
100
AcDbPoint
 10
512.8773970484079
 20
268.4322300400598
 30
0.0
  0
ENDBLK
  5
592B
330
5920
100
AcDbEntity
  8
0
100
AcDbBlockEnd
  0
BLOCK
  5
5936
330
592C
100
AcDbEntity
  8
0
100
AcDbBlockBegin
  2
*D11
 70
     1
 71
     0
 10
0.0
 20
0.0
 30
0.0
  3
*D11
  1

  0
LINE
  5
5A3B
330
592C
100
AcDbEntity
  8
SUNPOU
 62
     4
100
AcDbLine
 10
534.7002646217818
 20
290.5797835494499
 30
0.0
 11
515.0636865695307
 21
329.5380405051797
 31
0.0
  0
LINE
  5
5A3C
330
592C
100
AcDbEntity
  8
SUNPOU
 62
     4
100
AcDbLine
 10
569.5723646217816
 20
308.0422835494499
 30
0.0
 11
549.8897716347303
 21
347.0918324629216
 31
0.0
  0
LINE
  5
5A3D
330
592C
100
AcDbEntity
  8
SUNPOU
 62
     4
100
AcDbLine
 10
522.6648344965208
 20
330.0097927622082
 30
0.0
 11
544.9892143539646
 21
341.2622065454261
 31
0.0
  0
INSERT
  5
5A3E
330
592C
100
AcDbEntity
  8
SUNPOU
 62
     4
100
AcDbBlockReference
  2
_OPEN
 10
516.4139818926429
 20
326.8591036749461
 30
0.0
 41
7.0
 42
7.0
 43
7.0
 50
206.7499999999999
  0
INSERT
  5
5A3F
330
592C
100
AcDbEntity
  8
SUNPOU
 62
     4
100
AcDbBlockReference
  2
_OPEN
 10
551.2400669578426
 20
344.4128956326882
 30
0.0
 41
7.0
 42
7.0
 43
7.0
 50
26.74999999999989
  0
MTEXT
  5
5A40
330
592C
100
AcDbEntity
  8
SUNPOU
 62
     4
100
AcDbMText
 10
531.5765322200556
 20
340.1008943708728
 30
0.0
 40
6.0
 41
0.0
 71
     5
 72
     1
  1
\A1;39
 11
0.8929789434111379
 21
0.4500984410374333
 31
0.0
 73
     1
 44
1.0
  0
POINT
  5
5A41
330
592C
100
AcDbEntity
  8
DEFPOINTS
 62
     0
100
AcDbPoint
 10
537.4008552680065
 20
285.2219098889831
 30
0.0
  0
POINT
  5
5A42
330
592C
100
AcDbEntity
  8
DEFPOINTS
 62
     0
100
AcDbPoint
 10
572.2729552680063
 20
302.6844098889831
 30
0.0
  0
POINT
  5
5A43
330
592C
100
AcDbEntity
  8
DEFPOINTS
 62
     0
100
AcDbPoint
 10
551.2400669578426
 20
344.4128956326882
 30
0.0
  0
ENDBLK
  5
5937
330
592C
100
AcDbEntity
  8
0
100
AcDbBlockEnd
  0
BLOCK
  5
5944
330
5938
100
AcDbEntity
  8
0
100
AcDbBlockBegin
  2
*D12
 70
     1
 71
     0
 10
0.0
 20
0.0
 30
0.0
  3
*D12
  1

  0
LINE
  5
5A4D
330
5938
100
AcDbEntity
  8
SUNPOU
 62
     4
100
AcDbLine
 10
563.3158816075401
 20
255.8359192427587
 30
0.0
 11
534.0159786676409
 21
241.0675523813638
 31
0.0
  0
LINE
  5
5A4E
330
5938
100
AcDbEntity
  8
SUNPOU
 62
     4
100
AcDbLine
 10
569.7909448915885
 20
250.690470670002
 30
0.0
 11
537.3958547842422
 21
234.3620010435124
 31
0.0
  0
LINE
  5
5A4F
330
5938
100
AcDbEntity
  8
SUNPOU
 62
     4
100
AcDbLine
 10
533.5442264106123
 20
248.6687003083541
 30
0.0
 11
530.3935373233502
 21
254.9195529122321
 31
0.0
  0
LINE
  5
5A50
330
5938
100
AcDbEntity
  8
SUNPOU
 62
     4
100
AcDbLine
 10
543.2254807017376
 20
229.4614437627468
 30
0.0
 11
553.5777448455985
 21
208.9229280642905
 31
0.0
  0
LINE
  5
5A51
330
5938
100
AcDbEntity
  8
SUNPOU
 62
     4
100
AcDbLine
 10
536.6949154978743
 20
242.4178477044761
 30
0.0
 11
540.0747916144757
 21
235.7122963666247
 31
0.0
  0
INSERT
  5
5A52
330
5938
100
AcDbEntity
  8
SUNPOU
 62
     4
100
AcDbBlockReference
  2
_OPEN
 10
536.6949154978743
 20
242.4178477044761
 30
0.0
 41
7.0
 42
7.0
 43
7.0
 50
296.7499999999994
  0
INSERT
  5
5A53
330
5938
100
AcDbEntity
  8
SUNPOU
 62
     4
100
AcDbBlockReference
  2
_OPEN
 10
540.0747916144757
 20
235.7122963666247
 30
0.0
 41
7.0
 42
7.0
 43
7.0
 50
116.7499999999995
  0
MTEXT
  5
5A54
330
5938
100
AcDbEntity
  8
SUNPOU
 62
     4
100
AcDbMText
 10
554.4418520343548
 20
218.3172518167668
 30
0.0
 40
6.0
 41
0.0
 71
     5
 72
     1
  1
\A1;7.5
 11
0.4500984410374274
 21
-0.8929789434111409
 31
0.0
 73
     1
 44
1.0
  0
POINT
  5
5A55
330
5938
100
AcDbEntity
  8
DEFPOINTS
 62
     0
100
AcDbPoint
 10
568.6737552680067
 20
258.5365098889833
 30
0.0
  0
POINT
  5
5A56
330
5938
100
AcDbEntity
  8
DEFPOINTS
 62
     0
100
AcDbPoint
 10
575.1488185520553
 20
253.3910613162265
 30
0.0
  0
POINT
  5
5A57
330
5938
100
AcDbEntity
  8
DEFPOINTS
 62
     0
100
AcDbPoint
 10
540.0747916144757
 20
235.7122963666247
 30
0.0
  0
ENDBLK
  5
5945
330
5938
100
AcDbEntity
  8
0
100
AcDbBlockEnd
  0
BLOCK
  5
5950
330
5946
100
AcDbEntity
  8
0
100
AcDbBlockBegin
  2
*D13
 70
     1
 71
     0
 10
0.0
 20
0.0
 30
0.0
  3
*D13
  1

  0
LINE
  5
5A61
330
5946
100
AcDbEntity
  8
SUNPOU
 62
     4
100
AcDbLine
 10
567.0468289284733
 20
327.6377005352077
 30
0.0
 11
597.1200166397154
 21
342.7958350082889
 31
0.0
  0
LINE
  5
5A62
330
5946
100
AcDbEntity
  8
SUNPOU
 62
     4
100
AcDbLine
 10
585.9883387725769
 20
298.4271026408666
 30
0.0
 11
612.6979204864416
 21
311.8898401207101
 31
0.0
  0
LINE
  5
5A63
330
5946
100
AcDbEntity
  8
SUNPOU
 62
     4
100
AcDbLine
 10
597.591768896744
 20
335.1946870812986
 30
0.0
 11
606.8682945689462
 21
316.7903974014758
 31
0.0
  0
INSERT
  5
5A64
330
5946
100
AcDbEntity
  8
SUNPOU
 62
     4
100
AcDbBlockReference
  2
_OPEN
 10
594.441079809482
 20
341.4455396851765
 30
0.0
 41
7.0
 42
7.0
 43
7.0
 50
116.7499999999995
  0
INSERT
  5
5A65
330
5946
100
AcDbEntity
  8
SUNPOU
 62
     4
100
AcDbBlockReference
  2
_OPEN
 10
610.0189836562083
 20
310.5395447975978
 30
0.0
 41
7.0
 42
7.0
 43
7.0
 50
296.7499999999994
  0
MTEXT
  5
5A66
330
5946
100
AcDbEntity
  8
SUNPOU
 62
     4
100
AcDbMText
 10
606.6949264499008
 20
328.2430344465743
 30
0.0
 40
6.0
 41
0.0
 71
     5
 72
     1
  1
\A1;35
 11
0.4500984410374274
 21
-0.8929789434111409
 31
0.0
 73
     1
 44
1.0
  0
POINT
  5
5A67
330
5946
100
AcDbEntity
  8
DEFPOINTS
 62
     0
100
AcDbPoint
 10
561.6889552680066
 20
324.9371098889832
 30
0.0
  0
POINT
  5
5A68
330
5946
100
AcDbEntity
  8
DEFPOINTS
 62
     0
100
AcDbPoint
 10
580.63046511211
 20
295.726511994642
 30
0.0
  0
POINT
  5
5A69
330
5946
100
AcDbEntity
  8
DEFPOINTS
 62
     0
100
AcDbPoint
 10
610.0189836562083
 20
310.5395447975978
 30
0.0
  0
ENDBLK
  5
5951
330
5946
100
AcDbEntity
  8
0
100
AcDbBlockEnd
  0
BLOCK
  5
595C
330
5952
100
AcDbEntity
  8
0
100
AcDbBlockBegin
  2
*D14
 70
     1
 71
     0
 10
0.0
 20
0.0
 30
0.0
  3
*D14
  1

  0
LINE
  5
5A58
330
5952
100
AcDbEntity
  8
SUNPOU
 62
     4
100
AcDbLine
 10
520.9934646217821
 20
300.0849835494501
 30
0.0
 11
500.0020771254938
 21
341.7311331872137
 31
0.0
  0
LINE
  5
5A59
330
5952
100
AcDbEntity
  8
SUNPOU
 62
     4
100
AcDbLine
 10
570.1720735052588
 20
324.7115658093898
 30
0.0
 11
549.1157837111477
 21
366.4864792464711
 31
0.0
  0
LINE
  5
5A5A
330
5952
100
AcDbEntity
  8
SUNPOU
 62
     4
100
AcDbLine
 10
507.6032250524841
 20
342.2028854442424
 30
0.0
 11
544.2152264303821
 21
360.6568533289757
 31
0.0
  0
INSERT
  5
5A5B
330
5952
100
AcDbEntity
  8
SUNPOU
 62
     4
100
AcDbBlockReference
  2
_OPEN
 10
501.3523724486062
 20
339.0521963569804
 30
0.0
 41
7.0
 42
7.0
 43
7.0
 50
206.7499999999999
  0
INSERT
  5
5A5C
330
5952
100
AcDbEntity
  8
SUNPOU
 62
     4
100
AcDbBlockReference
  2
_OPEN
 10
550.4660790342601
 20
363.8075424162377
 30
0.0
 41
7.0
 42
7.0
 43
7.0
 50
26.74999999999989
  0
MTEXT
  5
5A5D
330
5952
100
AcDbEntity
  8
SUNPOU
 62
     4
100
AcDbMText
 10
523.6587335362458
 20
355.8947641036648
 30
0.0
 40
6.0
 41
0.0
 71
     5
 72
     1
  1
\A1;55
 11
0.8929789434111379
 21
0.4500984410374333
 31
0.0
 73
     1
 44
1.0
  0
POINT
  5
5A5E
330
5952
100
AcDbEntity
  8
DEFPOINTS
 62
     0
100
AcDbPoint
 10
523.6940552680065
 20
294.7271098889832
 30
0.0
  0
POINT
  5
5A5F
330
5952
100
AcDbEntity
  8
DEFPOINTS
 62
     0
100
AcDbPoint
 10
572.8726641514835
 20
319.353692148923
 30
0.0
  0
POINT
  5
5A60
330
5952
100
AcDbEntity
  8
DEFPOINTS
 62
     0
100
AcDbPoint
 10
550.4660790342601
 20
363.8075424162377
 30
0.0
  0
ENDBLK
  5
595D
330
5952
100
AcDbEntity
  8
0
100
AcDbBlockEnd
  0
ENDSEC
  0
SECTION
  2
ENTITIES
  0
LINE
  5
3EF3
330
1A
100
AcDbEntity
  8
ZUWAKU
100
AcDbLine
 10
208.646601303624
 20
15.19999986828872
 30
0.0
 11
447.4243639845474
 21
15.19999986828871
 31
0.0
  0
LINE
  5
3EF4
330
1A
100
AcDbEntity
  8
ZUWAKU
100
AcDbLine
 10
208.646601303624
 20
15.59999986828871
 30
0.0
 11
447.4243639845474
 21
15.59999986828872
 31
0.0
  0
LINE
  5
3EF5
330
1A
100
AcDbEntity
  8
ZUWAKU
100
AcDbLine
 10
208.646601303624
 20
15.39999986828871
 30
0.0
 11
447.4243639845474
 21
15.39999986828871
 31
0.0
  0
LINE
  5
3EF6
330
1A
100
AcDbEntity
  8
ZUWAKU
100
AcDbLine
 10
0.0000000135560185
 20
30.79999986828869
 30
0.0
 11
797.4000000135559
 21
30.79999986828869
 31
0.0
  0
LINE
  5
3EF7
330
1A
100
AcDbEntity
  8
ZUWAKU
100
AcDbLine
 10
0.0000000135560185
 20
30.5999998682887
 30
0.0
 11
797.4000000135559
 21
30.5999998682887
 31
0.0
  0
LINE
  5
3EF8
330
1A
100
AcDbEntity
  8
ZUWAKU
100
AcDbLine
 10
0.0000000135560185
 20
30.39999986828869
 30
0.0
 11
797.4000000135559
 21
30.39999986828869
 31
0.0
  0
LINE
  5
3EF9
330
1A
100
AcDbEntity
  8
ZUWAKU
100
AcDbLine
 10
0.0000000135560185
 20
30.19999986828868
 30
0.0
 11
797.4000000135559
 21
30.19999986828868
 31
0.0
  0
LINE
  5
3EFA
330
1A
100
AcDbEntity
  8
ZUWAKU
100
AcDbLine
 10
0.0000000135560185
 20
29.99999986828868
 30
0.0
 11
797.4000000135559
 21
29.99999986828868
 31
0.0
  0
LWPOLYLINE
  5
3EFB
330
1A
100
AcDbEntity
  8
ZUWAKU
100
AcDbPolyline
 90
        4
 70
     1
 43
0.0
 10
0.2000000135559503
 20
551.3999998682887
 10
0.2000000135559503
 20
0.1999998682887281
 10
797.4000000135559
 20
0.1999998682887511
 10
797.4000000135561
 20
551.3999998682887
  0
LWPOLYLINE
  5
3EFC
330
1A
100
AcDbEntity
  8
ZUWAKU
100
AcDbPolyline
 90
        4
 70
     1
 43
0.0
 10
0.6000000135559276
 20
550.9999998682888
 10
0.6000000135559276
 20
0.5999998682887054
 10
797.0000000135563
 20
0.5999998682887516
 10
797.000000013556
 20
550.9999998682888
  0
LWPOLYLINE
  5
3EFD
330
1A
100
AcDbEntity
  8
ZUWAKU
100
AcDbPolyline
 90
        4
 70
     1
 43
0.0
 10
0.0000000135560185
 20
551.5999998682887
 10
0.0000000135560185
 20
-0.0000001317113174
 10
797.600000013556
 20
-0.0000001317112499
 10
797.600000013556
 20
551.5999998682888
  0
LWPOLYLINE
  5
3EFE
330
1A
100
AcDbEntity
  8
ZUWAKU
100
AcDbPolyline
 90
        4
 70
     1
 43
0.0
 10
0.4000000135559958
 20
551.1999998682886
 10
0.4000000135559958
 20
0.3999998682887735
 10
797.2000000135561
 20
0.3999998682887504
 10
797.2000000135561
 20
551.1999998682886
  0
LWPOLYLINE
  5
3EFF
330
1A
100
AcDbEntity
  8
ZUWAKU
100
AcDbPolyline
 90
        4
 70
     1
 43
0.0
 10
0.8000000135559731
 20
550.7999998682886
 10
0.8000000135559731
 20
0.7999998682887508
 10
796.8000000135559
 20
0.7999998682887508
 10
796.8000000135559
 20
550.7999998682886
  0
TEXT
  5
3F00
330
1A
100
AcDbEntity
  8
MOJI
100
AcDbText
 10
92.95778960172515
 20
12.74117799856344
 30
0.0
 40
6.0
  1
アーバントップΣ９０
 41
0.9
  7
ｽﾀｲﾙ1
100
AcDbText
  0
HATCH
  5
3F01
330
1A
100
AcDbEntity
  8
ZUWAKU
100
AcDbHatch
 10
0.0
 20
0.0
 30
0.0
210
0.0
220
0.0
230
1.0
  2
ANSI37
 70
     0
 71
     0
 91
        8
 92
        7
 72
     1
 73
     1
 93
       24
 10
14.50226267467587
 20
17.64484834927226
 42
-0.1989123673796348
 10
14.09221216833714
 20
18.63479784293331
 42
0.0
 10
14.09221216833714
 20
19.92499986828869
 42
-0.4142135623730912
 10
14.61721216833711
 20
20.44999986828868
 42
0.0
 10
17.59221216833702
 20
20.44999986828868
 42
0.4142135623731546
 10
18.11721216833712
 20
20.97499986828867
 42
0.0
 10
18.11721216833712
 20
22.7249998682887
 42
0.4142135623731586
 10
17.59221216833702
 20
23.24999986828868
 42
0.0
 10
14.09221216833714
 20
23.24999986828868
 42
0.4142135623730928
 10
11.29221216833718
 20
20.44999986828871
 42
0.0
 10
11.29221216833718
 20
18.63479784293344
 42
0.1989123673796619
 10
12.52236368735361
 20
15.66494936194983
 42
0.0
 10
15.43216166199829
 20
12.75515138730518
 42
-0.1989123673796613
 10
15.84221216833714
 20
11.76520189364399
 42
0.0
 10
15.84221216833714
 20
10.47499986828867
 42
-0.4142135623730911
 10
15.31721216833716
 20
9.949999868288684
 42
0.0
 10
12.34221216833725
 20
9.949999868288684
 42
0.4142135623731526
 10
11.81721216833716
 20
9.424999868288696
 42
0.0
 10
11.81721216833716
 20
7.674999868288675
 42
0.4142135623731526
 10
12.34221216833725
 20
7.149999868288687
 42
0.0
 10
15.84221216833714
 20
7.149999868288687
 42
0.4142135623731044
 10
18.64221216833721
 20
9.949999868288664
 42
0.0
 10
18.64221216833721
 20
11.76520189364393
 42
0.1989123673796604
 10
17.41206064932066
 20
14.73505037462747
 42
0.0
 97
        0
 92
        7
 72
     1
 73
     1
 93
       16
 10
23.54221216833718
 20
19.04999986828869
 42
-0.4142135623730935
 10
24.94221216833716
 20
20.44999986828868
 42
0.0
 10
26.86721216833712
 20
20.44999986828868
 42
0.4142135623731546
 10
27.39221216833721
 20
20.97499986828867
 42
0.0
 10
27.39221216833721
 20
22.7249998682887
 42
0.4142135623730951
 10
26.86721216833723
 20
23.24999986828868
 42
0.0
 10
24.94221216833705
 20
23.24999986828864
 42
0.4142135623730892
 10
20.74221216833711
 20
19.04999986828862
 42
0.0
 10
20.74221216833711
 20
11.34999986828871
 42
0.4142135623730969
 10
24.94221216833716
 20
7.149999868288687
 42
0.0
 10
26.86721216833712
 20
7.149999868288687
 42
0.4142135623731526
 10
27.39221216833721
 20
7.674999868288675
 42
0.0
 10
27.39221216833721
 20
9.424999868288696
 42
0.4142135623730891
 10
26.86721216833723
 20
9.949999868288684
 42
0.0
 10
24.94221216833716
 20
9.949999868288684
 42
-0.4142135623730928
 10
23.54221216833718
 20
11.34999986828867
 42
0.0
 97
        0
 92
        7
 72
     1
 73
     1
 93
        2
 10
24.24221216833712
 20
15.19999986828868
 42
1.0
 10
27.74221216833712
 20
15.19999986828868
 42
1.0
 97
        0
 92
        7
 72
     1
 73
     1
 93
       26
 10
37.31485865051513
 20
19.20504706185211
 42
0.0
 10
38.37649828365296
 20
22.5669059001217
 42
0.5069206636600134
 10
37.87586738445759
 20
23.24999986828868
 42
0.0
 10
36.17697800484836
 20
23.24999986828868
 42
0.3272098845218764
 10
35.676347105653
 20
22.88309383645565
 42
0.0
 10
33.80807723102122
 20
16.96690590012176
 42
-0.3272098845219541
 10
33.30744633182575
 20
16.59999986828868
 42
0.0
 10
33.1672121683373
 20
16.59999986828868
 42
-0.4142135623731526
 10
32.64221216833721
 20
17.12499986828867
 42
0.0
 10
32.64221216833721
 20
22.7249998682887
 42
0.4142135623730951
 10
32.11721216833723
 20
23.24999986828868
 42
0.0
 10
30.36721216833711
 20
23.24999986828868
 42
0.4142135623730871
 10
29.84221216833714
 20
22.7249998682887
 42
0.0
 10
29.84221216833714
 20
7.674999868288675
 42
0.4142135623730891
 10
30.36721216833711
 20
7.149999868288687
 42
0.0
 10
32.11721216833712
 20
7.149999868288687
 42
0.4142135623731526
 10
32.64221216833721
 20
7.674999868288675
 42
0.0
 10
32.64221216833721
 20
13.27499986828869
 42
-0.4142135623731526
 10
33.1672121683373
 20
13.79999986828868
 42
0.0
 10
33.30744633182587
 20
13.79999986828868
 42
-0.3272098845218915
 10
33.80807723102122
 20
13.43309383645561
 42
0.0
 10
35.676347105653
 20
7.516905900121759
 42
0.3272098845218902
 10
36.17697800484836
 20
7.149999868288687
 42
0.0
 10
37.87586738445759
 20
7.149999868288687
 42
0.5069206636600335
 10
38.37649828365296
 20
7.833093836455696
 42
0.0
 10
36.05010690517929
 20
15.19999986828882
 42
0.0
 97
        0
 92
        7
 72
     1
 73
     1
 93
        8
 10
43.49221216833711
 20
22.7249998682887
 42
0.4142135623731546
 10
42.96721216833702
 20
23.24999986828868
 42
0.0
 10
41.21721216833726
 20
23.24999986828868
 42
0.4142135623731507
 10
40.69221216833716
 20
22.7249998682887
 42
0.0
 10
40.69221216833716
 20
7.674999868288675
 42
0.4142135623731526
 10
41.21721216833726
 20
7.149999868288687
 42
0.0
 10
42.96721216833702
 20
7.149999868288687
 42
0.4142135623731526
 10
43.49221216833711
 20
7.674999868288675
 42
0.0
 97
        0
 92
        7
 72
     1
 73
     1
 93
       24
 10
48.3922121683372
 20
19.92499986828869
 42
-0.4142135623731546
 10
48.9172121683373
 20
20.44999986828868
 42
0.0
 10
51.89221216833721
 20
20.44999986828868
 42
0.4142135623730911
 10
52.41721216833718
 20
20.97499986828867
 42
0.0
 10
52.41721216833718
 20
22.7249998682887
 42
0.4142135623730952
 10
51.89221216833721
 20
23.24999986828868
 42
0.0
 10
48.3922121683372
 20
23.24999986828868
 42
0.4142135623731048
 10
45.59221216833714
 20
20.44999986828871
 42
0.0
 10
45.59221216833714
 20
18.63479784293344
 42
0.1989123673796613
 10
46.82236368735368
 20
15.66494936194989
 42
0.0
 10
49.73216166199835
 20
12.75515138730522
 42
-0.1989123673796402
 10
50.14221216833721
 20
11.76520189364415
 42
0.0
 10
50.14221216833721
 20
10.47499986828867
 42
-0.4142135623730911
 10
49.61721216833723
 20
9.949999868288684
 42
0.0
 10
46.64221216833721
 20
9.949999868288684
 42
0.4142135623731526
 10
46.11721216833712
 20
9.424999868288696
 42
0.0
 10
46.11721216833712
 20
7.674999868288675
 42
0.4142135623730891
 10
46.6422121683371
 20
7.149999868288687
 42
0.0
 10
50.14221216833721
 20
7.149999868288687
 42
0.4142135623730925
 10
52.94221216833716
 20
9.949999868288664
 42
0.0
 10
52.94221216833716
 20
11.76520189364393
 42
0.1989123673796675
 10
51.71206064932062
 20
14.73505037462759
 42
0.0
 10
48.80226267467604
 20
17.6448483492721
 42
-0.1989123673796652
 10
48.3922121683372
 20
18.63479784293327
 42
0.0
 97
        0
 92
        7
 72
     1
 73
     1
 93
       16
 10
57.84221216833714
 20
22.72499986828867
 42
0.414213562373103
 10
57.31721216833716
 20
23.24999986828868
 42
0.0
 10
55.56721216833716
 20
23.24999986828868
 42
0.4142135623730871
 10
55.04221216833718
 20
22.7249998682887
 42
0.0
 10
55.04221216833718
 20
9.949999868288664
 42
0.4142135623730926
 10
57.84221216833714
 20
7.149999868288687
 42
0.0
 10
61.34221216833714
 20
7.149999868288687
 42
0.4142135623731044
 10
64.14221216833721
 20
9.949999868288664
 42
0.0
 10
64.14221216833721
 20
22.7249998682887
 42
0.4142135623730951
 10
63.61721216833723
 20
23.24999986828868
 42
0.0
 10
61.86721216833712
 20
23.24999986828868
 42
0.4142135623730871
 10
61.34221216833714
 20
22.7249998682887
 42
0.0
 10
61.34221216833714
 20
10.99999986828866
 42
-0.4142135623730879
 10
60.29221216833718
 20
9.949999868288684
 42
0.0
 10
58.89221216833721
 20
9.949999868288684
 42
-0.4142135623731197
 10
57.84221216833714
 20
10.99999986828866
 42
0.0
 97
        0
 92
        7
 72
     1
 73
     1
 93
        8
 10
69.04221216833719
 20
22.7249998682887
 42
0.4142135623730871
 10
68.51721216833721
 20
23.24999986828868
 42
0.0
 10
66.76721216833721
 20
23.24999986828868
 42
0.4142135623731507
 10
66.24221216833712
 20
22.7249998682887
 42
0.0
 10
66.24221216833712
 20
7.674999868288675
 42
0.4142135623730891
 10
66.7672121683371
 20
7.149999868288687
 42
0.0
 10
68.51721216833721
 20
7.149999868288687
 42
0.4142135623730891
 10
69.04221216833719
 20
7.674999868288675
 42
0.0
 97
        0
 75
     0
 76
     1
 52
0.0
 41
0.2
 77
     0
 78
     2
 53
45.0
 43
-900.9423043211231
 44
-13.20000013171124
 45
-0.4490128060534576
 46
0.4490128060534577
 79
     0
 53
135.0
 43
-900.9423043211231
 44
-13.20000013171124
 45
-0.4490128060534577
 46
-0.4490128060534576
 79
     0
 47
0.057451373970553
 98
        8
 10
16.07985497657932
 20
15.16717351417423
 10
22.4045150199952
 20
18.84406205073969
 10
25.16436789921567
 20
15.5118815143594
 10
30.91405999519315
 20
16.20129751473018
 10
41.83847203251275
 20
16.6609097822718
 10
46.89820090868557
 20
19.41857618469589
 10
56.55768598595636
 20
18.72915778338369
 10
67.82707963317876
 20
19.18877005092531
  0
LINE
  5
3F02
330
1A
100
AcDbEntity
  8
ZUWAKU
100
AcDbLine
 10
24.94221216833716
 20
23.24999986828864
 30
0.0
 11
26.86721216833712
 21
23.24999986828868
 31
0.0
  0
LINE
  5
3F03
330
1A
100
AcDbEntity
  8
ZUWAKU
100
AcDbLine
 10
26.86721216833712
 20
20.44999986828868
 30
0.0
 11
24.94221216833716
 21
20.44999986828868
 31
0.0
  0
LINE
  5
3F04
330
1A
100
AcDbEntity
  8
ZUWAKU
100
AcDbLine
 10
24.94221216833716
 20
9.949999868288684
 30
0.0
 11
26.86721216833712
 21
9.949999868288684
 31
0.0
  0
LINE
  5
3F05
330
1A
100
AcDbEntity
  8
ZUWAKU
100
AcDbLine
 10
26.86721216833712
 20
7.149999868288687
 30
0.0
 11
24.94221216833716
 21
7.149999868288687
 31
0.0
  0
CIRCLE
  5
3F06
330
1A
100
AcDbEntity
  8
ZUWAKU
100
AcDbCircle
 10
25.99221216833711
 20
15.19999986828868
 30
0.0
 40
1.75
  0
ARC
  5
3F07
330
1A
100
AcDbEntity
  8
ZUWAKU
100
AcDbCircle
 10
15.49221216833712
 20
18.63479784293338
 30
0.0
 40
1.399999999999999
100
AcDbArc
 50
180.0000000000016
 51
224.9999999999988
  0
LINE
  5
3F08
330
1A
100
AcDbEntity
  8
ZUWAKU
100
AcDbLine
 10
23.54221216833718
 20
19.04999986828868
 30
0.0
 11
23.54221216833718
 21
11.34999986828869
 31
0.0
  0
LINE
  5
3F09
330
1A
100
AcDbEntity
  8
ZUWAKU
100
AcDbLine
 10
20.74221216833711
 20
11.34999986828869
 30
0.0
 11
20.74221216833711
 21
19.04999986828864
 31
0.0
  0
ARC
  5
3F0A
330
1A
100
AcDbEntity
  8
ZUWAKU
100
AcDbCircle
 10
15.49221216833712
 20
18.63479784293338
 30
0.0
 40
4.199999999999998
100
AcDbArc
 50
180.0
 51
225.0
  0
ARC
  5
3F0B
330
1A
100
AcDbEntity
  8
ZUWAKU
100
AcDbCircle
 10
15.84221216833714
 20
9.949999868288684
 30
0.0
 40
2.799999999999999
100
AcDbArc
 50
270.0
 51
0.0
  0
ARC
  5
3F0C
330
1A
100
AcDbEntity
  8
ZUWAKU
100
AcDbCircle
 10
24.94221216833716
 20
11.34999986828869
 30
0.0
 40
4.199999999999998
100
AcDbArc
 50
180.0
 51
270.0
  0
ARC
  5
3F0D
330
1A
100
AcDbEntity
  8
ZUWAKU
100
AcDbCircle
 10
14.44221216833716
 20
11.76520189364399
 30
0.0
 40
4.199999999999998
100
AcDbArc
 50
0.0
 51
45.0
  0
LINE
  5
3F0E
330
1A
100
AcDbEntity
  8
ZUWAKU
100
AcDbLine
 10
17.41206064932066
 20
14.73505037462751
 30
0.0
 11
14.50226267467598
 21
17.64484834927218
 31
0.0
  0
LINE
  5
3F0F
330
1A
100
AcDbEntity
  8
ZUWAKU
100
AcDbLine
 10
15.84221216833714
 20
10.47499986828869
 30
0.0
 11
15.84221216833714
 21
11.76520189364403
 31
0.0
  0
ARC
  5
3F10
330
1A
100
AcDbEntity
  8
ZUWAKU
100
AcDbCircle
 10
15.31721216833716
 20
10.47499986828869
 30
0.0
 40
0.525
100
AcDbArc
 50
270.0
 51
0.0
  0
ARC
  5
3F11
330
1A
100
AcDbEntity
  8
ZUWAKU
100
AcDbCircle
 10
14.44221216833716
 20
11.76520189364403
 30
0.0
 40
1.399999999999999
100
AcDbArc
 50
0.0
 51
45.0
  0
LINE
  5
3F12
330
1A
100
AcDbEntity
  8
ZUWAKU
100
AcDbLine
 10
11.81721216833716
 20
7.674999868288686
 30
0.0
 11
11.81721216833716
 21
9.424999868288685
 31
0.0
  0
ARC
  5
3F13
330
1A
100
AcDbEntity
  8
ZUWAKU
100
AcDbCircle
 10
12.34221216833714
 20
7.674999868288686
 30
0.0
 40
0.525
100
AcDbArc
 50
180.0
 51
270.0
  0
ARC
  5
3F14
330
1A
100
AcDbEntity
  8
ZUWAKU
100
AcDbCircle
 10
12.34221216833714
 20
9.424999868288685
 30
0.0
 40
0.525
100
AcDbArc
 50
90.0
 51
180.0
  0
LINE
  5
3F15
330
1A
100
AcDbEntity
  8
ZUWAKU
100
AcDbLine
 10
12.34221216833714
 20
7.149999868288687
 30
0.0
 11
15.84221216833714
 21
7.149999868288687
 31
0.0
  0
LINE
  5
3F16
330
1A
100
AcDbEntity
  8
ZUWAKU
100
AcDbLine
 10
12.34221216833714
 20
9.949999868288684
 30
0.0
 11
15.31721216833716
 21
9.949999868288684
 31
0.0
  0
LINE
  5
3F17
330
1A
100
AcDbEntity
  8
ZUWAKU
100
AcDbLine
 10
12.52236368735361
 20
15.66494936194986
 30
0.0
 11
15.43216166199829
 21
12.7551513873052
 31
0.0
  0
LINE
  5
3F18
330
1A
100
AcDbEntity
  8
ZUWAKU
100
AcDbLine
 10
18.64221216833721
 20
9.949999868288684
 30
0.0
 11
18.64221216833721
 21
11.76520189364403
 31
0.0
  0
ARC
  5
3F19
330
1A
100
AcDbEntity
  8
ZUWAKU
100
AcDbCircle
 10
24.94221216833716
 20
11.34999986828869
 30
0.0
 40
1.399999999999999
100
AcDbArc
 50
180.0
 51
270.0
  0
ARC
  5
3F1A
330
1A
100
AcDbEntity
  8
ZUWAKU
100
AcDbCircle
 10
17.59221216833714
 20
22.72499986828868
 30
0.0
 40
0.525
100
AcDbArc
 50
0.0
 51
90.0
  0
ARC
  5
3F1B
330
1A
100
AcDbEntity
  8
ZUWAKU
100
AcDbCircle
 10
17.59221216833714
 20
20.97499986828868
 30
0.0
 40
0.525
100
AcDbArc
 50
270.0
 51
0.0
  0
LINE
  5
3F1C
330
1A
100
AcDbEntity
  8
ZUWAKU
100
AcDbLine
 10
14.09221216833714
 20
23.24999986828868
 30
0.0
 11
17.59221216833714
 21
23.24999986828868
 31
0.0
  0
ARC
  5
3F1D
330
1A
100
AcDbEntity
  8
ZUWAKU
100
AcDbCircle
 10
14.61721216833711
 20
19.92499986828868
 30
0.0
 40
0.525
100
AcDbArc
 50
90.0
 51
180.0
  0
LINE
  5
3F1E
330
1A
100
AcDbEntity
  8
ZUWAKU
100
AcDbLine
 10
14.09221216833714
 20
19.92499986828868
 30
0.0
 11
14.09221216833714
 21
18.63479784293334
 31
0.0
  0
LINE
  5
3F1F
330
1A
100
AcDbEntity
  8
ZUWAKU
100
AcDbLine
 10
17.59221216833714
 20
20.44999986828868
 30
0.0
 11
14.61721216833711
 21
20.44999986828868
 31
0.0
  0
LINE
  5
3F20
330
1A
100
AcDbEntity
  8
ZUWAKU
100
AcDbLine
 10
11.29221216833718
 20
20.44999986828868
 30
0.0
 11
11.29221216833718
 21
18.63479784293334
 31
0.0
  0
ARC
  5
3F21
330
1A
100
AcDbEntity
  8
ZUWAKU
100
AcDbCircle
 10
14.09221216833714
 20
20.44999986828868
 30
0.0
 40
2.799999999999999
100
AcDbArc
 50
90.0
 51
180.0
  0
LINE
  5
3F22
330
1A
100
AcDbEntity
  8
ZUWAKU
100
AcDbLine
 10
18.11721216833712
 20
22.72499986828868
 30
0.0
 11
18.11721216833712
 21
20.97499986828868
 31
0.0
  0
ARC
  5
3F23
330
1A
100
AcDbEntity
  8
ZUWAKU
100
AcDbCircle
 10
24.94221216833716
 20
19.04999986828868
 30
0.0
 40
1.399999999999999
100
AcDbArc
 50
90.0
 51
180.0
  0
ARC
  5
3F24
330
1A
100
AcDbEntity
  8
ZUWAKU
100
AcDbCircle
 10
24.94221216833716
 20
19.04999986828864
 30
0.0
 40
4.199999999999998
100
AcDbArc
 50
90.0
 51
180.0
  0
LINE
  5
3F25
330
1A
100
AcDbEntity
  8
ZUWAKU
100
AcDbLine
 10
79.32662956154422
 20
29.99999986828868
 30
0.0
 11
79.32662956154445
 21
0.7999998682887508
 31
0.0
  0
LINE
  5
3F26
330
1A
100
AcDbEntity
  8
ZUWAKU
100
AcDbLine
 10
79.52662956154427
 20
29.99999986828868
 30
0.0
 11
79.52662956154448
 21
0.7999998682887508
 31
0.0
  0
LINE
  5
3F27
330
1A
100
AcDbEntity
  8
ZUWAKU
100
AcDbLine
 10
79.12662956154441
 20
29.99999986828868
 30
0.0
 11
79.12662956154441
 21
0.7999998682887508
 31
0.0
  0
LINE
  5
3F28
330
1A
100
AcDbEntity
  8
ZUWAKU
100
AcDbLine
 10
64.14221216833721
 20
9.949999868288684
 30
0.0
 11
64.14221216833721
 21
22.72499986828868
 31
0.0
  0
LINE
  5
3F29
330
1A
100
AcDbEntity
  8
ZUWAKU
100
AcDbLine
 10
61.34221216833714
 20
22.72499986828868
 30
0.0
 11
61.34221216833714
 21
10.99999986828868
 31
0.0
  0
LINE
  5
3F2A
330
1A
100
AcDbEntity
  8
ZUWAKU
100
AcDbLine
 10
69.04221216833719
 20
7.674999868288686
 30
0.0
 11
69.04221216833719
 21
22.72499986828868
 31
0.0
  0
LINE
  5
3F2B
330
1A
100
AcDbEntity
  8
ZUWAKU
100
AcDbLine
 10
66.24221216833712
 20
22.72499986828868
 30
0.0
 11
66.24221216833712
 21
7.674999868288686
 31
0.0
  0
ARC
  5
3F2C
330
1A
100
AcDbEntity
  8
ZUWAKU
100
AcDbCircle
 10
49.79221216833718
 20
18.63479784293338
 30
0.0
 40
1.399999999999999
100
AcDbArc
 50
180.0000000000016
 51
224.9999999999988
  0
ARC
  5
3F2D
330
1A
100
AcDbEntity
  8
ZUWAKU
100
AcDbCircle
 10
49.79221216833718
 20
18.63479784293338
 30
0.0
 40
4.199999999999998
100
AcDbArc
 50
180.0
 51
225.0
  0
LINE
  5
3F2E
330
1A
100
AcDbEntity
  8
ZUWAKU
100
AcDbLine
 10
37.31485865051513
 20
19.20504706185211
 30
0.0
 11
36.05010690517929
 21
15.1999998682887
 31
0.0
  0
LINE
  5
3F2F
330
1A
100
AcDbEntity
  8
ZUWAKU
100
AcDbLine
 10
40.69221216833716
 20
22.72499986828868
 30
0.0
 11
40.69221216833716
 21
7.674999868288686
 31
0.0
  0
LINE
  5
3F30
330
1A
100
AcDbEntity
  8
ZUWAKU
100
AcDbLine
 10
43.49221216833711
 20
7.674999868288686
 30
0.0
 11
43.49221216833711
 21
22.72499986828868
 31
0.0
  0
LINE
  5
3F31
330
1A
100
AcDbEntity
  8
ZUWAKU
100
AcDbLine
 10
55.04221216833718
 20
22.72499986828868
 30
0.0
 11
55.04221216833718
 21
9.949999868288684
 31
0.0
  0
LINE
  5
3F32
330
1A
100
AcDbEntity
  8
ZUWAKU
100
AcDbLine
 10
57.84221216833714
 20
10.99999986828868
 30
0.0
 11
57.84221216833714
 21
22.72499986828868
 31
0.0
  0
LINE
  5
3F33
330
1A
100
AcDbEntity
  8
ZUWAKU
100
AcDbLine
 10
32.64221216833721
 20
17.12499986828869
 30
0.0
 11
32.64221216833721
 21
22.72499986828868
 31
0.0
  0
LINE
  5
3F34
330
1A
100
AcDbEntity
  8
ZUWAKU
100
AcDbLine
 10
29.84221216833714
 20
22.72499986828868
 30
0.0
 11
29.84221216833714
 21
7.674999868288686
 31
0.0
  0
LINE
  5
3F35
330
1A
100
AcDbEntity
  8
ZUWAKU
100
AcDbLine
 10
35.676347105653
 20
22.88309383645565
 30
0.0
 11
33.80807723102122
 21
16.96690590012171
 31
0.0
  0
LINE
  5
3F36
330
1A
100
AcDbEntity
  8
ZUWAKU
100
AcDbLine
 10
60.29221216833718
 20
9.949999868288684
 30
0.0
 11
58.89221216833721
 21
9.949999868288684
 31
0.0
  0
LINE
  5
3F37
330
1A
100
AcDbEntity
  8
ZUWAKU
100
AcDbLine
 10
57.84221216833714
 20
7.149999868288687
 30
0.0
 11
61.34221216833714
 21
7.149999868288687
 31
0.0
  0
LINE
  5
3F38
330
1A
100
AcDbEntity
  8
ZUWAKU
100
AcDbLine
 10
41.21721216833714
 20
7.149999868288687
 30
0.0
 11
42.96721216833714
 21
7.149999868288687
 31
0.0
  0
LINE
  5
3F39
330
1A
100
AcDbEntity
  8
ZUWAKU
100
AcDbLine
 10
35.676347105653
 20
7.516905900121713
 30
0.0
 11
33.80807723102122
 21
13.43309383645565
 31
0.0
  0
ARC
  5
3F3A
330
1A
100
AcDbEntity
  8
ZUWAKU
100
AcDbCircle
 10
33.30744633182587
 20
17.12499986828869
 30
0.0
 40
0.525
100
AcDbArc
 50
270.0
 51
342.474431626277
  0
LINE
  5
3F3B
330
1A
100
AcDbEntity
  8
ZUWAKU
100
AcDbLine
 10
33.30744633182587
 20
16.59999986828868
 30
0.0
 11
33.16721216833718
 21
16.59999986828868
 31
0.0
  0
LINE
  5
3F3C
330
1A
100
AcDbEntity
  8
ZUWAKU
100
AcDbLine
 10
33.16721216833718
 20
13.79999986828868
 30
0.0
 11
33.30744633182587
 21
13.79999986828868
 31
0.0
  0
ARC
  5
3F3D
330
1A
100
AcDbEntity
  8
ZUWAKU
100
AcDbCircle
 10
33.16721216833718
 20
17.12499986828869
 30
0.0
 40
0.525
100
AcDbArc
 50
180.0
 51
270.0
  0
LINE
  5
3F3E
330
1A
100
AcDbEntity
  8
ZUWAKU
100
AcDbLine
 10
30.36721216833711
 20
7.149999868288687
 30
0.0
 11
32.11721216833712
 21
7.149999868288687
 31
0.0
  0
ARC
  5
3F3F
330
1A
100
AcDbEntity
  8
ZUWAKU
100
AcDbCircle
 10
32.11721216833712
 20
7.674999868288686
 30
0.0
 40
0.525
100
AcDbArc
 50
270.0
 51
0.0
  0
LINE
  5
3F40
330
1A
100
AcDbEntity
  8
ZUWAKU
100
AcDbLine
 10
32.64221216833721
 20
7.674999868288686
 30
0.0
 11
32.64221216833721
 21
13.27499986828868
 31
0.0
  0
LINE
  5
3F41
330
1A
100
AcDbEntity
  8
ZUWAKU
100
AcDbLine
 10
27.39221216833721
 20
9.424999868288685
 30
0.0
 11
27.39221216833721
 21
7.674999868288686
 31
0.0
  0
ARC
  5
3F42
330
1A
100
AcDbEntity
  8
ZUWAKU
100
AcDbCircle
 10
26.86721216833712
 20
7.674999868288686
 30
0.0
 40
0.525
100
AcDbArc
 50
270.0
 51
0.0
  0
ARC
  5
3F43
330
1A
100
AcDbEntity
  8
ZUWAKU
100
AcDbCircle
 10
26.86721216833712
 20
9.424999868288685
 30
0.0
 40
0.525
100
AcDbArc
 50
0.0
 51
90.0
  0
ARC
  5
3F44
330
1A
100
AcDbEntity
  8
ZUWAKU
100
AcDbCircle
 10
30.36721216833711
 20
7.674999868288686
 30
0.0
 40
0.525
100
AcDbArc
 50
180.0
 51
270.0
  0
ARC
  5
3F45
330
1A
100
AcDbEntity
  8
ZUWAKU
100
AcDbCircle
 10
33.30744633182587
 20
13.27499986828868
 30
0.0
 40
0.525
100
AcDbArc
 50
17.52556837372303
 51
90.0
  0
ARC
  5
3F46
330
1A
100
AcDbEntity
  8
ZUWAKU
100
AcDbCircle
 10
33.16721216833718
 20
13.27499986828868
 30
0.0
 40
0.525
100
AcDbArc
 50
90.0
 51
180.0
  0
ARC
  5
3F47
330
1A
100
AcDbEntity
  8
ZUWAKU
100
AcDbCircle
 10
41.21721216833714
 20
7.674999868288686
 30
0.0
 40
0.525
100
AcDbArc
 50
180.0
 51
270.0
  0
LINE
  5
3F48
330
1A
100
AcDbEntity
  8
ZUWAKU
100
AcDbLine
 10
36.17697800484847
 20
7.149999868288687
 30
0.0
 11
37.87586738445748
 21
7.149999868288687
 31
0.0
  0
ARC
  5
3F49
330
1A
100
AcDbEntity
  8
ZUWAKU
100
AcDbCircle
 10
37.87586738445748
 20
7.674999868288686
 30
0.0
 40
0.525
100
AcDbArc
 50
270.0
 51
17.52556837372303
  0
LINE
  5
3F4A
330
1A
100
AcDbEntity
  8
ZUWAKU
100
AcDbLine
 10
38.37649828365296
 20
7.83309383645566
 30
0.0
 11
36.05010690517929
 21
15.1999998682887
 31
0.0
  0
ARC
  5
3F4B
330
1A
100
AcDbEntity
  8
ZUWAKU
100
AcDbCircle
 10
36.17697800484847
 20
7.674999868288686
 30
0.0
 40
0.525
100
AcDbArc
 50
197.525568373723
 51
270.0
  0
ARC
  5
3F4C
330
1A
100
AcDbEntity
  8
ZUWAKU
100
AcDbCircle
 10
57.84221216833714
 20
9.949999868288684
 30
0.0
 40
2.799999999999999
100
AcDbArc
 50
180.0
 51
270.0
  0
ARC
  5
3F4D
330
1A
100
AcDbEntity
  8
ZUWAKU
100
AcDbCircle
 10
50.14221216833721
 20
9.949999868288684
 30
0.0
 40
2.799999999999999
100
AcDbArc
 50
270.0
 51
0.0
  0
LINE
  5
3F4E
330
1A
100
AcDbEntity
  8
ZUWAKU
100
AcDbLine
 10
51.71206064932073
 20
14.73505037462751
 30
0.0
 11
48.80226267467595
 21
17.64484834927218
 31
0.0
  0
LINE
  5
3F4F
330
1A
100
AcDbEntity
  8
ZUWAKU
100
AcDbLine
 10
50.14221216833721
 20
10.47499986828869
 30
0.0
 11
50.14221216833721
 21
11.76520189364403
 31
0.0
  0
ARC
  5
3F50
330
1A
100
AcDbEntity
  8
ZUWAKU
100
AcDbCircle
 10
48.74221216833712
 20
11.76520189364403
 30
0.0
 40
1.399999999999999
100
AcDbArc
 50
0.0
 51
45.0
  0
ARC
  5
3F51
330
1A
100
AcDbEntity
  8
ZUWAKU
100
AcDbCircle
 10
49.61721216833712
 20
10.47499986828869
 30
0.0
 40
0.525
100
AcDbArc
 50
270.0
 51
0.0
  0
LINE
  5
3F52
330
1A
100
AcDbEntity
  8
ZUWAKU
100
AcDbLine
 10
46.11721216833712
 20
7.674999868288686
 30
0.0
 11
46.11721216833712
 21
9.424999868288685
 31
0.0
  0
ARC
  5
3F53
330
1A
100
AcDbEntity
  8
ZUWAKU
100
AcDbCircle
 10
46.64221216833721
 20
7.674999868288686
 30
0.0
 40
0.525
100
AcDbArc
 50
180.0
 51
270.0
  0
ARC
  5
3F54
330
1A
100
AcDbEntity
  8
ZUWAKU
100
AcDbCircle
 10
42.96721216833714
 20
7.674999868288686
 30
0.0
 40
0.525
100
AcDbArc
 50
270.0
 51
0.0
  0
ARC
  5
3F55
330
1A
100
AcDbEntity
  8
ZUWAKU
100
AcDbCircle
 10
46.64221216833721
 20
9.424999868288685
 30
0.0
 40
0.525
100
AcDbArc
 50
90.0
 51
180.0
  0
LINE
  5
3F56
330
1A
100
AcDbEntity
  8
ZUWAKU
100
AcDbLine
 10
46.64221216833721
 20
9.949999868288684
 30
0.0
 11
49.61721216833712
 21
9.949999868288684
 31
0.0
  0
LINE
  5
3F57
330
1A
100
AcDbEntity
  8
ZUWAKU
100
AcDbLine
 10
46.64221216833721
 20
7.149999868288687
 30
0.0
 11
50.14221216833721
 21
7.149999868288687
 31
0.0
  0
LINE
  5
3F58
330
1A
100
AcDbEntity
  8
ZUWAKU
100
AcDbLine
 10
46.82236368735368
 20
15.66494936194986
 30
0.0
 11
49.73216166199835
 21
12.7551513873052
 31
0.0
  0
LINE
  5
3F59
330
1A
100
AcDbEntity
  8
ZUWAKU
100
AcDbLine
 10
52.94221216833716
 20
9.949999868288684
 30
0.0
 11
52.94221216833716
 21
11.76520189364403
 31
0.0
  0
ARC
  5
3F5A
330
1A
100
AcDbEntity
  8
ZUWAKU
100
AcDbCircle
 10
48.74221216833712
 20
11.76520189364399
 30
0.0
 40
4.199999999999998
100
AcDbArc
 50
0.0
 51
45.0
  0
ARC
  5
3F5B
330
1A
100
AcDbEntity
  8
ZUWAKU
100
AcDbCircle
 10
58.89221216833721
 20
10.99999986828868
 30
0.0
 40
1.049999999999999
100
AcDbArc
 50
180.0
 51
270.0
  0
ARC
  5
3F5C
330
1A
100
AcDbEntity
  8
ZUWAKU
100
AcDbCircle
 10
61.34221216833714
 20
9.949999868288684
 30
0.0
 40
2.799999999999999
100
AcDbArc
 50
270.0
 51
0.0
  0
LINE
  5
3F5D
330
1A
100
AcDbEntity
  8
ZUWAKU
100
AcDbLine
 10
66.76721216833721
 20
7.149999868288687
 30
0.0
 11
68.51721216833721
 21
7.149999868288687
 31
0.0
  0
ARC
  5
3F5E
330
1A
100
AcDbEntity
  8
ZUWAKU
100
AcDbCircle
 10
66.76721216833721
 20
7.674999868288686
 30
0.0
 40
0.525
100
AcDbArc
 50
180.0
 51
270.0
  0
ARC
  5
3F5F
330
1A
100
AcDbEntity
  8
ZUWAKU
100
AcDbCircle
 10
60.29221216833718
 20
10.99999986828868
 30
0.0
 40
1.049999999999999
100
AcDbArc
 50
270.0
 51
0.0
  0
ARC
  5
3F60
330
1A
100
AcDbEntity
  8
ZUWAKU
100
AcDbCircle
 10
68.51721216833721
 20
7.674999868288686
 30
0.0
 40
0.525
100
AcDbArc
 50
270.0
 51
0.0
  0
LINE
  5
3F61
330
1A
100
AcDbEntity
  8
ZUWAKU
100
AcDbLine
 10
42.96721216833714
 20
23.24999986828868
 30
0.0
 11
41.21721216833714
 21
23.24999986828868
 31
0.0
  0
ARC
  5
3F62
330
1A
100
AcDbEntity
  8
ZUWAKU
100
AcDbCircle
 10
32.11721216833712
 20
22.72499986828868
 30
0.0
 40
0.525
100
AcDbArc
 50
0.0
 51
90.0
  0
LINE
  5
3F63
330
1A
100
AcDbEntity
  8
ZUWAKU
100
AcDbLine
 10
32.11721216833712
 20
23.24999986828868
 30
0.0
 11
30.36721216833711
 21
23.24999986828868
 31
0.0
  0
ARC
  5
3F64
330
1A
100
AcDbEntity
  8
ZUWAKU
100
AcDbCircle
 10
26.86721216833712
 20
22.72499986828868
 30
0.0
 40
0.525
100
AcDbArc
 50
0.0
 51
90.0
  0
ARC
  5
3F65
330
1A
100
AcDbEntity
  8
ZUWAKU
100
AcDbCircle
 10
30.36721216833711
 20
22.72499986828868
 30
0.0
 40
0.525
100
AcDbArc
 50
90.0
 51
180.0
  0
ARC
  5
3F66
330
1A
100
AcDbEntity
  8
ZUWAKU
100
AcDbCircle
 10
26.86721216833712
 20
20.97499986828868
 30
0.0
 40
0.525
100
AcDbArc
 50
270.0
 51
0.0
  0
LINE
  5
3F67
330
1A
100
AcDbEntity
  8
ZUWAKU
100
AcDbLine
 10
27.39221216833721
 20
22.72499986828868
 30
0.0
 11
27.39221216833721
 21
20.97499986828868
 31
0.0
  0
ARC
  5
3F68
330
1A
100
AcDbEntity
  8
ZUWAKU
100
AcDbCircle
 10
41.21721216833714
 20
22.72499986828868
 30
0.0
 40
0.525
100
AcDbArc
 50
90.0
 51
180.0
  0
LINE
  5
3F69
330
1A
100
AcDbEntity
  8
ZUWAKU
100
AcDbLine
 10
36.17697800484847
 20
23.24999986828868
 30
0.0
 11
37.87586738445748
 21
23.24999986828868
 31
0.0
  0
ARC
  5
3F6A
330
1A
100
AcDbEntity
  8
ZUWAKU
100
AcDbCircle
 10
37.87586738445748
 20
22.72499986828868
 30
0.0
 40
0.525
100
AcDbArc
 50
342.474431626277
 51
90.0
  0
LINE
  5
3F6B
330
1A
100
AcDbEntity
  8
ZUWAKU
100
AcDbLine
 10
38.37649828365296
 20
22.56690590012171
 30
0.0
 11
37.31485865051513
 21
19.20504706185211
 31
0.0
  0
ARC
  5
3F6C
330
1A
100
AcDbEntity
  8
ZUWAKU
100
AcDbCircle
 10
36.17697800484847
 20
22.72499986828868
 30
0.0
 40
0.525
100
AcDbArc
 50
90.0
 51
162.4744316262769
  0
LINE
  5
3F6D
330
1A
100
AcDbEntity
  8
ZUWAKU
100
AcDbLine
 10
48.3922121683372
 20
23.24999986828868
 30
0.0
 11
51.89221216833721
 21
23.24999986828868
 31
0.0
  0
LINE
  5
3F6E
330
1A
100
AcDbEntity
  8
ZUWAKU
100
AcDbLine
 10
51.89221216833721
 20
20.44999986828868
 30
0.0
 11
48.91721216833718
 21
20.44999986828868
 31
0.0
  0
ARC
  5
3F6F
330
1A
100
AcDbEntity
  8
ZUWAKU
100
AcDbCircle
 10
48.91721216833718
 20
19.92499986828868
 30
0.0
 40
0.525
100
AcDbArc
 50
90.0
 51
180.0
  0
LINE
  5
3F70
330
1A
100
AcDbEntity
  8
ZUWAKU
100
AcDbLine
 10
48.3922121683372
 20
19.92499986828868
 30
0.0
 11
48.3922121683372
 21
18.63479784293334
 31
0.0
  0
ARC
  5
3F71
330
1A
100
AcDbEntity
  8
ZUWAKU
100
AcDbCircle
 10
42.96721216833714
 20
22.72499986828868
 30
0.0
 40
0.525
100
AcDbArc
 50
0.0
 51
90.0
  0
LINE
  5
3F72
330
1A
100
AcDbEntity
  8
ZUWAKU
100
AcDbLine
 10
45.59221216833714
 20
20.44999986828868
 30
0.0
 11
45.59221216833714
 21
18.63479784293334
 31
0.0
  0
ARC
  5
3F73
330
1A
100
AcDbEntity
  8
ZUWAKU
100
AcDbCircle
 10
48.3922121683372
 20
20.44999986828868
 30
0.0
 40
2.799999999999999
100
AcDbArc
 50
90.0
 51
180.0
  0
ARC
  5
3F74
330
1A
100
AcDbEntity
  8
ZUWAKU
100
AcDbCircle
 10
57.31721216833716
 20
22.72499986828868
 30
0.0
 40
0.525
100
AcDbArc
 50
0.0
 51
90.0
  0
ARC
  5
3F75
330
1A
100
AcDbEntity
  8
ZUWAKU
100
AcDbCircle
 10
55.56721216833716
 20
22.72499986828868
 30
0.0
 40
0.525
100
AcDbArc
 50
90.0
 51
180.0
  0
LINE
  5
3F76
330
1A
100
AcDbEntity
  8
ZUWAKU
100
AcDbLine
 10
57.31721216833716
 20
23.24999986828868
 30
0.0
 11
55.56721216833716
 21
23.24999986828868
 31
0.0
  0
ARC
  5
3F77
330
1A
100
AcDbEntity
  8
ZUWAKU
100
AcDbCircle
 10
51.89221216833721
 20
22.72499986828868
 30
0.0
 40
0.525
100
AcDbArc
 50
0.0
 51
90.0
  0
ARC
  5
3F78
330
1A
100
AcDbEntity
  8
ZUWAKU
100
AcDbCircle
 10
51.89221216833721
 20
20.97499986828868
 30
0.0
 40
0.525
100
AcDbArc
 50
270.0
 51
0.0
  0
LINE
  5
3F79
330
1A
100
AcDbEntity
  8
ZUWAKU
100
AcDbLine
 10
52.41721216833718
 20
22.72499986828868
 30
0.0
 11
52.41721216833718
 21
20.97499986828868
 31
0.0
  0
LINE
  5
3F7A
330
1A
100
AcDbEntity
  8
ZUWAKU
100
AcDbLine
 10
68.51721216833721
 20
23.24999986828868
 30
0.0
 11
66.76721216833721
 21
23.24999986828868
 31
0.0
  0
ARC
  5
3F7B
330
1A
100
AcDbEntity
  8
ZUWAKU
100
AcDbCircle
 10
66.76721216833721
 20
22.72499986828868
 30
0.0
 40
0.525
100
AcDbArc
 50
90.0
 51
180.0
  0
ARC
  5
3F7C
330
1A
100
AcDbEntity
  8
ZUWAKU
100
AcDbCircle
 10
63.61721216833712
 20
22.72499986828868
 30
0.0
 40
0.525
100
AcDbArc
 50
0.0
 51
90.0
  0
LINE
  5
3F7D
330
1A
100
AcDbEntity
  8
ZUWAKU
100
AcDbLine
 10
63.61721216833712
 20
23.24999986828868
 30
0.0
 11
61.86721216833712
 21
23.24999986828868
 31
0.0
  0
ARC
  5
3F7E
330
1A
100
AcDbEntity
  8
ZUWAKU
100
AcDbCircle
 10
61.86721216833712
 20
22.72499986828868
 30
0.0
 40
0.525
100
AcDbArc
 50
90.0
 51
180.0
  0
ARC
  5
3F7F
330
1A
100
AcDbEntity
  8
ZUWAKU
100
AcDbCircle
 10
68.51721216833721
 20
22.72499986828868
 30
0.0
 40
0.525
100
AcDbArc
 50
0.0
 51
90.0
  0
TEXT
  5
3F80
330
1A
100
AcDbEntity
  8
MOJI
100
AcDbText
 10
239.827202694407
 20
18.00492092569607
 30
0.0
 40
5.599999999999999
  1
ブラケット正面打（吊）自在式
 41
0.9
  7
ｽﾀｲﾙ1
100
AcDbText
  0
TEXT
  5
3F81
330
1A
100
AcDbEntity
  8
MOJI
100
AcDbText
 10
239.827202694407
 20
3.204920925696104
 30
0.0
 40
5.599999999999999
  1
Σ９０－５－４５～６０
 41
0.9
  7
ｽﾀｲﾙ1
100
AcDbText
  0
LINE
  5
3F82
330
1A
100
AcDbEntity
  8
ZUWAKU
100
AcDbLine
 10
208.2466013036239
 20
29.99999986828868
 30
0.0
 11
208.2466013036239
 21
0.7999998682887508
 31
0.0
  0
LINE
  5
3F83
330
1A
100
AcDbEntity
  8
ZUWAKU
100
AcDbLine
 10
208.6466013036238
 20
29.99999986828868
 30
0.0
 11
208.646601303624
 21
0.7999998682887508
 31
0.0
  0
LINE
  5
3F84
330
1A
100
AcDbEntity
  8
ZUWAKU
100
AcDbLine
 10
208.4466013036237
 20
29.99999986828868
 30
0.0
 11
208.446601303624
 21
0.7999998682887508
 31
0.0
  0
TEXT
  5
3F85
330
1A
100
AcDbEntity
  8
ZUWAKU
100
AcDbText
 10
209.7240463258335
 20
9.655356406674301
 30
0.0
 40
4.0
  1
サイズ
 41
0.9
  7
ｽﾀｲﾙ1
100
AcDbText
  0
TEXT
  5
3F86
330
1A
100
AcDbEntity
  8
ZUWAKU
100
AcDbText
 10
209.7240463258333
 20
24.05535640667426
 30
0.0
 40
4.0
  1
品名
 41
0.9
  7
ｽﾀｲﾙ1
100
AcDbText
  0
LINE
  5
3F87
330
1A
100
AcDbEntity
  8
ZUWAKU
100
AcDbLine
 10
648.8172025237602
 20
15.19999986828871
 30
0.0
 11
697.2490105620973
 21
15.19999986828871
 31
0.0
  0
LINE
  5
3F88
330
1A
100
AcDbEntity
  8
ZUWAKU
100
AcDbLine
 10
648.8172025237603
 20
15.39999986828872
 30
0.0
 11
697.2490105620973
 21
15.39999986828871
 31
0.0
  0
LINE
  5
3F89
330
1A
100
AcDbEntity
  8
ZUWAKU
100
AcDbLine
 10
648.8172025237602
 20
15.59999986828871
 30
0.0
 11
697.2490105620973
 21
15.59999986828871
 31
0.0
  0
TEXT
  5
3F8A
330
1A
100
AcDbEntity
  8
ZUWAKU
100
AcDbText
 10
658.2039377008584
 20
18.00492092569607
 30
0.0
 40
5.599999999999999
  1
　　．　　．　　
 41
0.9
  7
ｽﾀｲﾙ1
100
AcDbText
  0
LINE
  5
3F8B
330
1A
100
AcDbEntity
  8
ZUWAKU
100
AcDbLine
 10
505.1991795116968
 20
15.19999986828872
 30
0.0
 11
552.5269557796685
 21
15.19999986828872
 31
0.0
  0
LINE
  5
3F8C
330
1A
100
AcDbEntity
  8
ZUWAKU
100
AcDbLine
 10
505.1991795116968
 20
15.39999986828871
 30
0.0
 11
552.5269557796685
 21
15.39999986828871
 31
0.0
  0
LINE
  5
3F8D
330
1A
100
AcDbEntity
  8
ZUWAKU
100
AcDbLine
 10
505.1991795116968
 20
15.59999986828871
 30
0.0
 11
552.5269557796685
 21
15.59999986828871
 31
0.0
  0
TEXT
  5
3F8E
330
1A
100
AcDbEntity
  8
MOJI
100
AcDbText
 10
463.246432004558
 20
11.94261758994866
 30
0.0
 40
5.599999999999999
  1
ＬＧ４９Ｔ
 41
0.9
  7
ｽﾀｲﾙ1
100
AcDbText
  0
LINE
  5
3F8F
330
1A
100
AcDbEntity
  8
ZUWAKU
100
AcDbLine
 10
447.6243639845472
 20
29.99999986828868
 30
0.0
 11
447.6243639845474
 21
0.7999998682887508
 31
0.0
  0
LINE
  5
3F90
330
1A
100
AcDbEntity
  8
ZUWAKU
100
AcDbLine
 10
447.8243639845472
 20
29.99999986828868
 30
0.0
 11
447.8243639845475
 21
0.7999998682887508
 31
0.0
  0
LINE
  5
3F91
330
1A
100
AcDbEntity
  8
ZUWAKU
100
AcDbLine
 10
447.4243639845474
 20
29.99999986828868
 30
0.0
 11
447.4243639845474
 21
0.7999998682887508
 31
0.0
  0
TEXT
  5
3F92
330
1A
100
AcDbEntity
  8
MOJI
100
AcDbText
 10
528.0409079858689
 20
18.00492092569607
 30
0.0
 40
5.599999999999999
  1
Ａ３
 41
0.9
  7
ｽﾀｲﾙ1
100
AcDbText
  0
LINE
  5
3F93
330
1A
100
AcDbEntity
  8
ZUWAKU
100
AcDbLine
 10
504.9991795116969
 20
29.99999986828868
 30
0.0
 11
504.999179511697
 21
0.7999998682887508
 31
0.0
  0
LINE
  5
3F94
330
1A
100
AcDbEntity
  8
ZUWAKU
100
AcDbLine
 10
505.1991795116968
 20
29.99999986828868
 30
0.0
 11
505.1991795116971
 21
0.7999998682887508
 31
0.0
  0
LINE
  5
3F95
330
1A
100
AcDbEntity
  8
ZUWAKU
100
AcDbLine
 10
504.799179511697
 20
29.99999986828868
 30
0.0
 11
504.799179511697
 21
0.7999998682887508
 31
0.0
  0
TEXT
  5
3F97
330
1A
100
AcDbEntity
  8
ZUWAKU
100
AcDbText
 10
506.6766245339067
 20
9.655356406674301
 30
0.0
 40
4.0
  1
縮尺
 41
0.9
  7
ｽﾀｲﾙ1
100
AcDbText
  0
TEXT
  5
3F98
330
1A
100
AcDbEntity
  8
MOJI
100
AcDbText
 10
528.0409079858689
 20
3.204920925696104
 30
0.0
 40
5.599999999999999
  1
１/２
 41
0.9
  7
ｽﾀｲﾙ1
100
AcDbText
  0
TEXT
  5
3F99
330
1A
100
AcDbEntity
  8
ZUWAKU
100
AcDbText
 10
449.3018090067569
 20
24.05535640667426
 30
0.0
 40
4.0
  1
品番
 41
0.9
  7
ｽﾀｲﾙ1
100
AcDbText
  0
TEXT
  5
3F9A
330
1A
100
AcDbEntity
  8
ZUWAKU
100
AcDbText
 10
506.6766245339065
 20
24.05535640667426
 30
0.0
 40
4.0
  1
用紙
 41
0.9
  7
ｽﾀｲﾙ1
100
AcDbText
  0
LINE
  5
3F9B
330
1A
100
AcDbEntity
  8
ZUWAKU
100
AcDbLine
 10
648.6172025237602
 20
29.99999986828868
 30
0.0
 11
648.6172025237606
 21
0.7999998682887508
 31
0.0
  0
LINE
  5
3F9C
330
1A
100
AcDbEntity
  8
ZUWAKU
100
AcDbLine
 10
648.8172025237603
 20
29.99999986828868
 30
0.0
 11
648.8172025237608
 21
0.7999998682887508
 31
0.0
  0
LINE
  5
3F9D
330
1A
100
AcDbEntity
  8
ZUWAKU
100
AcDbLine
 10
648.4172025237606
 20
29.99999986828868
 30
0.0
 11
648.4172025237606
 21
0.7999998682887508
 31
0.0
  0
LINE
  5
3F9E
330
1A
100
AcDbEntity
  8
ZUWAKU
100
AcDbLine
 10
552.7269557796684
 20
29.99999986828868
 30
0.0
 11
552.7269557796684
 21
0.7999998682887508
 31
0.0
  0
LINE
  5
3F9F
330
1A
100
AcDbEntity
  8
ZUWAKU
100
AcDbLine
 10
552.9269557796683
 20
29.99999986828868
 30
0.0
 11
552.9269557796685
 21
0.7999998682887508
 31
0.0
  0
LINE
  5
3FA0
330
1A
100
AcDbEntity
  8
ZUWAKU
100
AcDbLine
 10
552.5269557796685
 20
29.99999986828868
 30
0.0
 11
552.5269557796685
 21
0.7999998682887508
 31
0.0
  0
TEXT
  5
3FA1
330
1A
100
AcDbEntity
  8
ZUWAKU
100
AcDbText
 10
650.29464754597
 20
24.05535640667426
 30
0.0
 40
4.0
  1
DATE
 41
0.9
  7
ｽﾀｲﾙ1
100
AcDbText
  0
LINE
  5
3FA2
330
1A
100
AcDbEntity
  8
ZUWAKU
100
AcDbLine
 10
697.2490105620973
 20
29.99999986828868
 30
0.0
 11
697.2490105620973
 21
0.7999998682887508
 31
0.0
  0
LINE
  5
3FA3
330
1A
100
AcDbEntity
  8
ZUWAKU
100
AcDbLine
 10
697.4490105620973
 20
29.99999986828868
 30
0.0
 11
697.4490105620973
 21
0.7999998682887508
 31
0.0
  0
LINE
  5
3FA4
330
1A
100
AcDbEntity
  8
ZUWAKU
100
AcDbLine
 10
697.6490105620972
 20
29.99999986828868
 30
0.0
 11
697.6490105620974
 21
0.7999998682887508
 31
0.0
  0
LINE
  5
3FA5
330
1A
100
AcDbEntity
  8
ZUWAKU
100
AcDbLine
 10
697.8490105620973
 20
29.99999986828868
 30
0.0
 11
697.8490105620973
 21
0.7999998682887508
 31
0.0
  0
TEXT
  5
3FA6
330
1A
100
AcDbEntity
  8
ZUWAKU
100
AcDbText
 10
708.5280842057997
 20
17.55383920397548
 30
0.0
 40
6.0
  1
積水化学工業株式会社
 41
0.9
  7
ｽﾀｲﾙ1
100
AcDbText
  0
TEXT
  5
3FA7
330
1A
100
AcDbEntity
  8
ZUWAKU
100
AcDbText
 10
708.5280842057997
 20
6.648840182142748
 30
0.0
 40
6.0
  1
建材事業部
 41
0.9
  7
ｽﾀｲﾙ1
100
AcDbText
  0
LINE
  5
5789
330
1A
100
AcDbEntity
  8
CENTER_L
  6
CENTER
 62
     1
 48
5.0
100
AcDbLine
 10
425.0384429362542
 20
217.9242429666901
 30
0.0
 11
434.9080429362542
 21
222.8664429666901
 31
0.0
  0
LINE
  5
578A
330
1A
100
AcDbEntity
  8
CENTER_L
  6
CENTER
 62
     1
 48
5.0
100
AcDbLine
 10
422.3697429362542
 20
223.2981429666901
 30
0.0
 11
432.2247429362541
 21
228.2330429666901
 31
0.0
  0
TEXT
  5
578B
330
1A
100
AcDbEntity
  8
SUNPOU
 62
     4
 48
5.0
100
AcDbText
 10
411.1878928745743
 20
311.4136944833185
 30
0.0
 40
6.0
  1
スライド巾
100
AcDbText
  0
DIMENSION
  5
578C
330
1A
100
AcDbEntity
  8
SUNPOU
 48
5.0
100
AcDbDimension
  2
*D1
 10
460.4787485903589
 20
360.3080483919377
 30
0.0
 11
455.4787485903588
 21
387.8080483919378
 31
0.0
 70
    32
 71
     5
 42
-1.0
  3
STANDARD
100
AcDbAlignedDimension
 13
415.1666429362542
 23
415.3080483919377
 33
0.0
 14
415.1666429362542
 24
360.3080483919377
 34
0.0
 50
90.0
100
AcDbRotatedDimension
1001
ACAD
1000
DSTYLE
1002
{
1070
   140
1040
6.0
1070
    74
1070
     0
1070
   172
1070
     1
1070
    73
1070
     0
1070
   272
1070
     2
1070
    77
1070
     3
1070
   173
1070
     1
1070
   147
1040
2.0
1070
    42
1040
6.0
1070
    44
1040
3.0
1070
    43
1040
14.0
1070
   271
1070
     0
1070
   178
1070
     4
1070
   177
1070
     4
1070
   176
1070
     4
1070
   141
1040
150.0
1070
     7
1000
_OPEN
1070
     6
1000
_OPEN
1070
    41
1040
7.0
1002
}
  0
DIMENSION
  5
578D
330
1A
100
AcDbEntity
  8
SUNPOU
 48
5.0
100
AcDbDimension
  2
*D2
 10
206.044438033065
 20
188.9327429666901
 30
0.0
 11
201.044438033065
 21
215.0984429666901
 31
0.0
 70
    32
 71
     5
 42
-1.0
  3
STANDARD
100
AcDbAlignedDimension
 13
234.9257429362542
 23
241.26414296669
 33
0.0
 14
431.4275429362542
 24
188.9327429666901
 34
0.0
 50
90.0
100
AcDbRotatedDimension
1001
ACAD
1000
DSTYLE
1002
{
1070
   140
1040
6.0
1070
    74
1070
     0
1070
   172
1070
     1
1070
    73
1070
     0
1070
   272
1070
     2
1070
    77
1070
     3
1070
   173
1070
     1
1070
   147
1040
2.0
1070
    42
1040
6.0
1070
    44
1040
3.0
1070
    43
1040
14.0
1070
   271
1070
     0
1070
   178
1070
     4
1070
   177
1070
     4
1070
   176
1070
     4
1070
   141
1040
150.0
1070
     7
1000
_OPEN
1070
     6
1000
_OPEN
1070
    41
1040
7.0
1002
}
  0
DIMENSION
  5
578E
330
1A
100
AcDbEntity
  8
SUNPOU
 48
5.0
100
AcDbDimension
  2
*D3
 10
443.4418058614044
 20
164.9440722957162
 30
0.0
 11
419.7435976805318
 21
158.6675343155848
 31
0.0
 70
    33
  1
t<>
 71
     5
 42
-1.0
  3
STANDARD
100
AcDbAlignedDimension
 13
432.7687429362542
 23
189.6044429666901
 33
0.0
 14
431.4277429362542
 24
188.9328429666901
 34
0.0
1001
ACAD
1000
DSTYLE
1002
{
1070
   140
1040
6.0
1070
    74
1070
     0
1070
   172
1070
     1
1070
    73
1070
     0
1070
   272
1070
     2
1070
    77
1070
     3
1070
   173
1070
     1
1070
   147
1040
2.0
1070
    42
1040
6.0
1070
    44
1040
3.0
1070
    43
1040
14.0
1070
   271
1070
     1
1070
   178
1070
     4
1070
   177
1070
     4
1070
   176
1070
     4
1070
   141
1040
150.0
1070
     7
1000
_OPEN
1070
     6
1000
_OPEN
1070
    41
1040
7.0
1002
}
  0
DIMENSION
  5
578F
330
1A
100
AcDbEntity
  8
SUNPOU
 48
5.0
100
AcDbDimension
  2
*D4
 10
465.15180525664
 20
205.8225374143943
 30
0.0
 11
453.9494866770702
 21
239.3561711221382
 31
0.0
 70
    33
 71
     5
 42
-1.0
  3
STANDARD
100
AcDbAlignedDimension
 13
401.4258135942226
 23
252.1952323582925
 33
0.0
 14
432.7717869670108
 24
189.6059674790361
 34
0.0
1001
ACAD
1000
DSTYLE
1002
{
1070
   140
1040
6.0
1070
    74
1070
     0
1070
   172
1070
     1
1070
    73
1070
     0
1070
   272
1070
     2
1070
    77
1070
     3
1070
   173
1070
     1
1070
   147
1040
2.0
1070
    42
1040
6.0
1070
    44
1040
3.0
1070
    43
1040
14.0
1070
   271
1070
     0
1070
   178
1070
     4
1070
   177
1070
     4
1070
   176
1070
     4
1070
   141
1040
150.0
1070
     7
1000
_OPEN
1070
     6
1000
_OPEN
1070
    41
1040
7.0
1002
}
  0
ARC
  5
5790
330
1A
100
AcDbEntity
  8
SEIHIN
 48
5.0
100
AcDbCircle
 10
406.7468694140512
 20
387.8080983919377
 30
0.0
 40
26.02187352225112
100
AcDbArc
 50
328.8416490422682
 51
31.15835095773186
  0
LINE
  5
5791
330
1A
100
AcDbEntity
  8
SEIHIN
  6
PHANTOM
 62
     6
 48
5.0
100
AcDbLine
 10
415.5090429362542
 20
243.9759429666901
 30
0.0
 11
430.9839429362542
 21
213.07304296669
 31
0.0
  0
LINE
  5
5792
330
1A
100
AcDbEntity
  8
CENTER_L
  6
CENTER
 62
     1
 48
5.0
100
AcDbLine
 10
422.7048429362541
 20
192.9525429666901
 30
0.0
 11
432.5274429362542
 21
197.8713429666901
 31
0.0
  0
LINE
  5
5793
330
1A
100
AcDbEntity
  8
SEIHIN
  6
PHANTOM
 62
     6
 48
5.0
100
AcDbLine
 10
419.5621429362542
 20
242.5820429666901
 30
0.0
 11
446.4275429362542
 21
188.9327429666901
 31
0.0
  0
LINE
  5
5794
330
1A
100
AcDbEntity
  8
SEIHIN
  6
PHANTOM
 62
     6
 48
5.0
100
AcDbLine
 10
418.5586429362542
 20
247.9360429666901
 30
0.0
 11
447.7687429362542
 21
189.6044429666901
 31
0.0
  0
LINE
  5
5795
330
1A
100
AcDbEntity
  8
SEIHIN
  6
Continuous
 62
     3
 48
5.0
100
AcDbLine
 10
404.5621429362541
 20
242.5820429666901
 30
0.0
 11
431.4275429362542
 21
188.9327429666901
 31
0.0
  0
LINE
  5
5796
330
1A
100
AcDbEntity
  8
SEIHIN
  6
Continuous
 62
     3
 48
5.0
100
AcDbLine
 10
403.5586542338436
 20
247.9360204057785
 30
0.0
 11
432.7687429362542
 21
189.6044429666901
 31
0.0
  0
LINE
  5
5797
330
1A
100
AcDbEntity
  8
CENTER_L
  6
CENTER
 62
     1
 48
5.0
100
AcDbLine
 10
228.8631429362542
 20
387.8080483919377
 30
0.0
 11
433.9335429362542
 21
387.8080483919377
 31
0.0
  0
DIMENSION
  5
5798
330
1A
100
AcDbEntity
  8
SUNPOU
 48
5.0
100
AcDbDimension
  2
*D5
 10
416.4258135942224
 20
300.6409909490653
 30
0.0
 11
408.9258135942225
 21
305.6409909490653
 31
0.0
 70
    32
 71
     5
 42
-1.0
  3
STANDARD
100
AcDbAlignedDimension
 13
401.4258135942225
 23
252.1952323582925
 33
0.0
 14
416.4258135942224
 24
252.1952323582925
 34
0.0
100
AcDbRotatedDimension
1001
ACAD
1000
DSTYLE
1002
{
1070
   140
1040
6.0
1070
    74
1070
     0
1070
   172
1070
     1
1070
    73
1070
     0
1070
   272
1070
     2
1070
    77
1070
     3
1070
   173
1070
     1
1070
   147
1040
2.0
1070
    42
1040
6.0
1070
    44
1040
3.0
1070
    43
1040
14.0
1070
   271
1070
     0
1070
   178
1070
     4
1070
   177
1070
     4
1070
   176
1070
     4
1070
   141
1040
150.0
1070
     7
1000
_OPEN
1070
     6
1000
_OPEN
1070
    41
1040
7.0
1002
}
  0
DIMENSION
  5
5799
330
1A
100
AcDbEntity
  8
SUNPOU
 48
5.0
100
AcDbDimension
  2
*D6
 10
401.4258135942225
 20
300.6409909490653
 30
0.0
 11
317.4257782652383
 21
305.6409909490653
 31
0.0
 70
    32
 71
     5
 42
-1.0
  3
STANDARD
100
AcDbAlignedDimension
 13
233.4257429362541
 23
239.76414296669
 33
0.0
 14
401.4258135942225
 24
252.1952323582925
 34
0.0
100
AcDbRotatedDimension
1001
ACAD
1000
DSTYLE
1002
{
1070
   140
1040
6.0
1070
    74
1070
     0
1070
   172
1070
     1
1070
    73
1070
     0
1070
   272
1070
     2
1070
    77
1070
     3
1070
   173
1070
     1
1070
   147
1040
2.0
1070
    42
1040
6.0
1070
    44
1040
3.0
1070
    43
1040
14.0
1070
   271
1070
     0
1070
   178
1070
     4
1070
   177
1070
     4
1070
   176
1070
     4
1070
   141
1040
150.0
1070
     7
1000
_OPEN
1070
     6
1000
_OPEN
1070
    41
1040
7.0
1002
}
  0
DIMENSION
  5
579A
330
1A
100
AcDbEntity
  8
SUNPOU
 48
5.0
100
AcDbDimension
  2
*D7
 10
401.4258135942226
 20
284.7160291466275
 30
0.0
 11
339.0508282652383
 21
289.7160291466275
 31
0.0
 70
    32
 71
     5
 42
-1.0
  3
STANDARD
100
AcDbAlignedDimension
 13
276.6758429362541
 23
214.2641429666901
 33
0.0
 14
401.4258135942226
 24
252.1952323582925
 34
0.0
100
AcDbRotatedDimension
1001
ACAD
1000
DSTYLE
1002
{
1070
   140
1040
6.0
1070
    74
1070
     0
1070
   172
1070
     1
1070
    73
1070
     0
1070
   272
1070
     2
1070
    77
1070
     3
1070
   173
1070
     1
1070
   147
1040
2.0
1070
    42
1040
6.0
1070
    44
1040
3.0
1070
    43
1040
14.0
1070
   271
1070
     0
1070
   178
1070
     4
1070
   177
1070
     4
1070
   176
1070
     4
1070
   141
1040
150.0
1070
     7
1000
_OPEN
1070
     6
1000
_OPEN
1070
    41
1040
7.0
1002
}
  0
ARC
  5
579B
330
1A
100
AcDbEntity
  8
SEIHIN
  6
Continuous
 62
     3
 48
5.0
100
AcDbCircle
 10
294.3844429362541
 20
214.7641429666901
 30
0.0
 40
7.500041
100
AcDbArc
 50
270.0
 51
330.4606420000002
  0
LINE
  5
579C
330
1A
100
AcDbEntity
  8
SEIHIN
  6
Continuous
 62
     3
 48
5.0
100
AcDbLine
 10
294.6758429362541
 20
214.2641429666901
 30
0.0
 11
309.8462429362542
 21
241.0353429666901
 31
0.0
  0
LINE
  5
579D
330
1A
100
AcDbEntity
  8
SEIHIN
  6
Continuous
 62
     3
 48
5.0
100
AcDbLine
 10
261.6540429362542
 20
204.7641429666901
 30
0.0
 11
325.1993429362542
 21
204.7640429666901
 31
0.0
  0
LINE
  5
579E
330
1A
100
AcDbEntity
  8
SEIHIN
  6
Continuous
 62
     3
 48
5.0
100
AcDbLine
 10
261.3150429362542
 20
202.2641429666901
 30
0.0
 11
327.1936429362542
 21
202.2640429666901
 31
0.0
  0
ARC
  5
579F
330
1A
100
AcDbEntity
  8
SEIHIN
  6
Continuous
 62
     3
 48
5.0
100
AcDbCircle
 10
298.1055429362541
 20
193.4430429666901
 30
0.0
 40
1.500004999999999
100
AcDbArc
 50
299.9988179999998
 51
50.55390400000064
  0
LINE
  5
57A0
330
1A
100
AcDbEntity
  8
SEIHIN
  6
Continuous
 62
     3
 48
5.0
100
AcDbLine
 10
293.1760429362542
 20
200.2640429666901
 30
0.0
 11
293.1760429362542
 21
202.2641429666901
 31
0.0
  0
LINE
  5
57A1
330
1A
100
AcDbEntity
  8
SEIHIN
  6
Continuous
 62
     3
 48
5.0
100
AcDbLine
 10
280.1759429362541
 20
200.2640429666901
 30
0.0
 11
280.1759429362541
 21
202.2641429666901
 31
0.0
  0
ARC
  5
57A2
330
1A
100
AcDbEntity
  8
SEIHIN
  6
Continuous
 62
     3
 48
5.0
100
AcDbCircle
 10
261.3150429362542
 20
207.2641429666901
 30
0.0
 40
4.99999
100
AcDbArc
 50
201.7354439999997
 51
270.0
  0
LINE
  5
57A3
330
1A
100
AcDbEntity
  8
SEIHIN
  6
Continuous
 62
     3
 48
5.0
100
AcDbLine
 10
280.1759429362541
 20
200.2640429666901
 30
0.0
 11
293.1760429362542
 21
200.2640429666901
 31
0.0
  0
LINE
  5
57A4
330
1A
100
AcDbEntity
  8
SEIHIN
  6
Continuous
 62
     3
 48
5.0
100
AcDbLine
 10
282.1759429362542
 20
194.2640429666901
 30
0.0
 11
291.1759429362542
 21
194.2640429666901
 31
0.0
  0
LINE
  5
57A5
330
1A
100
AcDbEntity
  8
SEIHIN
  6
Continuous
 62
     3
 48
5.0
100
AcDbLine
 10
278.9702429362541
 20
189.5608429666901
 30
0.0
 11
274.4960429362541
 21
192.1440429666901
 31
0.0
  0
ARC
  5
57A6
330
1A
100
AcDbEntity
  8
SEIHIN
  6
Continuous
 62
     3
 48
5.0
100
AcDbCircle
 10
279.7202429362541
 20
190.8598429666901
 30
0.0
 40
1.500024999999999
100
AcDbArc
 50
240.0011820000001
 51
345.1355079999999
  0
ARC
  5
57A7
330
1A
100
AcDbEntity
  8
SEIHIN
  6
Continuous
 62
     3
 48
5.0
100
AcDbCircle
 10
275.2460429362542
 20
193.4430429666901
 30
0.0
 40
0.4999979999999999
100
AcDbArc
 50
129.4490450000005
 51
239.999272
  0
LINE
  5
57A8
330
1A
100
AcDbEntity
  8
SEIHIN
  6
Continuous
 62
     3
 48
5.0
100
AcDbLine
 10
281.1756429362541
 20
200.2640429666901
 30
0.0
 11
274.2930429362542
 21
194.6013429666901
 31
0.0
  0
ARC
  5
57A9
330
1A
100
AcDbEntity
  8
SEIHIN
  6
Continuous
 62
     3
 48
5.0
100
AcDbCircle
 10
275.2460429362542
 20
193.4430429666901
 30
0.0
 40
1.499961
100
AcDbArc
 50
129.4460959999993
 51
239.999272
  0
ARC
  5
57AA
330
1A
100
AcDbEntity
  8
SEIHIN
  6
Continuous
 62
     3
 48
5.0
100
AcDbCircle
 10
280.6428429362541
 20
194.3363429666901
 30
0.0
 40
0.5000090000000002
100
AcDbArc
 50
345.1438720000002
 51
9.462322000000171
  0
LINE
  5
57AB
330
1A
100
AcDbEntity
  8
SEIHIN
  6
Continuous
 62
     3
 48
5.0
100
AcDbLine
 10
282.1756429362541
 20
194.2640429666901
 30
0.0
 11
281.1700429362542
 21
190.4750429666901
 31
0.0
  0
ARC
  5
57AC
330
1A
100
AcDbEntity
  8
SEIHIN
  6
Continuous
 62
     3
 48
5.0
100
AcDbCircle
 10
280.1230429362541
 20
197.4555429666901
 30
0.0
 40
0.500043
100
AcDbArc
 50
9.462322000000171
 51
129.4417650000009
  0
ARC
  5
57AD
330
1A
100
AcDbEntity
  8
SEIHIN
  6
Continuous
 62
     3
 48
5.0
100
AcDbCircle
 10
279.7202429362541
 20
190.8598429666901
 30
0.0
 40
0.5000140000000001
100
AcDbArc
 50
239.999272
 51
345.1327970000004
  0
LINE
  5
57AE
330
1A
100
AcDbEntity
  8
SEIHIN
  6
Continuous
 62
     3
 48
5.0
100
AcDbLine
 10
274.9960429362541
 20
193.0100429666901
 30
0.0
 11
279.4702429362541
 21
190.4268429666901
 31
0.0
  0
LINE
  5
57AF
330
1A
100
AcDbEntity
  8
SEIHIN
  6
Continuous
 62
     3
 48
5.0
100
AcDbLine
 10
274.9283429362542
 20
193.8291429666901
 30
0.0
 11
279.8053429362541
 21
197.8417429666901
 31
0.0
  0
LINE
  5
57B0
330
1A
100
AcDbEntity
  8
SEIHIN
  6
Continuous
 62
     3
 48
5.0
100
AcDbLine
 10
280.2035429362541
 20
190.7315429666901
 30
0.0
 11
281.1261429362541
 21
194.2081429666901
 31
0.0
  0
LINE
  5
57B1
330
1A
100
AcDbEntity
  8
SEIHIN
  6
Continuous
 62
     3
 48
5.0
100
AcDbLine
 10
280.6162429362542
 20
197.5378429666901
 30
0.0
 11
281.1360429362542
 21
194.4185429666901
 31
0.0
  0
LINE
  5
57B2
330
1A
100
AcDbEntity
  8
SEIHIN
  6
Continuous
 62
     3
 48
5.0
100
AcDbLine
 10
281.1759429362542
 20
200.2640429666901
 30
0.0
 11
282.1759429362542
 21
194.2640429666901
 31
0.0
  0
ARC
  5
57B3
330
1A
100
AcDbEntity
  8
SEIHIN
  6
Continuous
 62
     3
 48
5.0
100
AcDbCircle
 10
293.6313429362542
 20
190.8598429666901
 30
0.0
 40
1.500024999999999
100
AcDbArc
 50
194.8644920000002
 51
299.9988179999998
  0
LINE
  5
57B4
330
1A
100
AcDbEntity
  8
SEIHIN
  6
Continuous
 62
     3
 48
5.0
100
AcDbLine
 10
294.3813429362542
 20
189.5607429666901
 30
0.0
 11
298.8555429362542
 21
192.1439429666901
 31
0.0
  0
LINE
  5
57B5
330
1A
100
AcDbEntity
  8
SEIHIN
  6
Continuous
 62
     3
 48
5.0
100
AcDbLine
 10
289.6759429362542
 20
192.2641429666901
 30
0.0
 11
289.6759429362542
 21
194.2640429666901
 31
0.0
  0
LINE
  5
57B6
330
1A
100
AcDbEntity
  8
SEIHIN
  6
Continuous
 62
     3
 48
5.0
100
AcDbLine
 10
283.6759429362542
 20
192.2641429666901
 30
0.0
 11
283.6759429362542
 21
194.2640429666901
 31
0.0
  0
LINE
  5
57B7
330
1A
100
AcDbEntity
  8
SEIHIN
  6
Continuous
 62
     3
 48
5.0
100
AcDbLine
 10
284.2759429362542
 20
194.2640429666901
 30
0.0
 11
284.2759429362542
 21
192.2641429666901
 31
0.0
  0
LINE
  5
57B8
330
1A
100
AcDbEntity
  8
SEIHIN
  6
Continuous
 62
     3
 48
5.0
100
AcDbLine
 10
289.0760429362542
 20
194.2640429666901
 30
0.0
 11
289.0760429362542
 21
192.2641429666901
 31
0.0
  0
LINE
  5
57B9
330
1A
100
AcDbEntity
  8
SEIHIN
  6
Continuous
 62
     3
 48
5.0
100
AcDbLine
 10
283.6759429362542
 20
192.26404296669
 30
0.0
 11
289.6759429362542
 21
192.26404296669
 31
0.0
  0
ARC
  5
57BA
330
1A
100
AcDbEntity
  8
SEIHIN
  6
Continuous
 62
     3
 48
5.0
100
AcDbCircle
 10
298.1055429362541
 20
193.4430429666901
 30
0.0
 40
0.4999979999999999
100
AcDbArc
 50
300.0007279999997
 51
50.55095499999939
  0
ARC
  5
57BB
330
1A
100
AcDbEntity
  8
SEIHIN
  6
Continuous
 62
     3
 48
5.0
100
AcDbCircle
 10
293.2286429362541
 20
197.4555429666901
 30
0.0
 40
0.500005
100
AcDbArc
 50
50.55095499999939
 51
170.5376779999998
  0
ARC
  5
57BC
330
1A
100
AcDbEntity
  8
SEIHIN
  6
Continuous
 62
     3
 48
5.0
100
AcDbCircle
 10
292.7087429362542
 20
194.3363429666901
 30
0.0
 40
0.5000210000000001
100
AcDbArc
 50
170.5376779999998
 51
194.8672029999995
  0
ARC
  5
57BD
330
1A
100
AcDbEntity
  8
SEIHIN
  6
Continuous
 62
     3
 48
5.0
100
AcDbCircle
 10
293.6313429362542
 20
190.8598429666901
 30
0.0
 40
0.5000140000000001
100
AcDbArc
 50
194.8672029999995
 51
300.0007279999997
  0
LINE
  5
57BE
330
1A
100
AcDbEntity
  8
SEIHIN
  6
Continuous
 62
     3
 48
5.0
100
AcDbLine
 10
291.1759429362542
 20
194.2640429666901
 30
0.0
 11
292.1815429362542
 21
190.4750429666901
 31
0.0
  0
LINE
  5
57BF
330
1A
100
AcDbEntity
  8
SEIHIN
  6
Continuous
 62
     3
 48
5.0
100
AcDbLine
 10
293.1480429362542
 20
190.7315429666901
 30
0.0
 11
292.2254429362542
 21
194.2081429666901
 31
0.0
  0
LINE
  5
57C0
330
1A
100
AcDbEntity
  8
SEIHIN
  6
Continuous
 62
     3
 48
5.0
100
AcDbLine
 10
292.7353429362542
 20
197.5377429666901
 30
0.0
 11
292.2155429362542
 21
194.4185429666901
 31
0.0
  0
LINE
  5
57C1
330
1A
100
AcDbEntity
  8
SEIHIN
  6
Continuous
 62
     3
 48
5.0
100
AcDbLine
 10
298.3555429362542
 20
193.0100429666901
 30
0.0
 11
293.8813429362541
 21
190.4268429666901
 31
0.0
  0
LINE
  5
57C2
330
1A
100
AcDbEntity
  8
SEIHIN
  6
Continuous
 62
     3
 48
5.0
100
AcDbLine
 10
298.4232429362542
 20
193.8291429666901
 30
0.0
 11
293.5462429362542
 21
197.8416429666901
 31
0.0
  0
LINE
  5
57C3
330
1A
100
AcDbEntity
  8
SEIHIN
  6
Continuous
 62
     3
 48
5.0
100
AcDbLine
 10
291.1759429362542
 20
194.2640429666901
 30
0.0
 11
292.1760429362541
 21
200.2640429666901
 31
0.0
  0
LINE
  5
57C4
330
1A
100
AcDbEntity
  8
SEIHIN
  6
Continuous
 62
     3
 48
5.0
100
AcDbLine
 10
292.1760429362541
 20
200.2640429666901
 30
0.0
 11
299.0585429362541
 21
194.6013429666901
 31
0.0
  0
LINE
  5
57C5
330
1A
100
AcDbEntity
  8
SEIHIN
  6
Continuous
 62
     3
 48
5.0
100
AcDbLine
 10
233.4257429362541
 20
237.26414296669
 30
0.0
 11
236.4257429362542
 21
237.26414296669
 31
0.0
  0
ARC
  5
57C6
330
1A
100
AcDbEntity
  8
SEIHIN
  6
Continuous
 62
     3
 48
5.0
100
AcDbCircle
 10
234.9257429362542
 20
239.76414296669
 30
0.0
 40
1.5
100
AcDbArc
 50
0.0
 51
180.0
  0
ARC
  5
57C7
330
1A
100
AcDbEntity
  8
SEIHIN
  6
Continuous
 62
     3
 48
5.0
100
AcDbCircle
 10
236.4257429362542
 20
234.3641429666901
 30
0.0
 40
3.0
100
AcDbArc
 50
180.0
 51
270.0
  0
LINE
  5
57C8
330
1A
100
AcDbEntity
  8
SEIHIN
  6
Continuous
 62
     3
 48
5.0
100
AcDbLine
 10
233.4257429362541
 20
239.76414296669
 30
0.0
 11
233.4257429362541
 21
234.3641429666901
 31
0.0
  0
LINE
  5
57C9
330
1A
100
AcDbEntity
  8
SEIHIN
  6
Continuous
 62
     3
 48
5.0
100
AcDbLine
 10
263.2266429362541
 20
210.7641429666901
 30
0.0
 11
277.1759429362541
 21
210.7640429666901
 31
0.0
  0
LINE
  5
57CA
330
1A
100
AcDbEntity
  8
SEIHIN
  6
Continuous
 62
     3
 48
5.0
100
AcDbLine
 10
276.6758429362541
 20
213.2640429666901
 30
0.0
 11
263.8286429362541
 21
213.2641429666901
 31
0.0
  0
ARC
  5
57CB
330
1A
100
AcDbEntity
  8
SEIHIN
  6
Continuous
 62
     3
 48
5.0
100
AcDbCircle
 10
252.2659429362541
 20
224.9120429666901
 30
0.0
 40
1.000005
100
AcDbArc
 50
27.91037699999971
 51
201.734379
  0
LINE
  5
57CC
330
1A
100
AcDbEntity
  8
SEIHIN
  6
Continuous
 62
     3
 48
5.0
100
AcDbLine
 10
247.1809429362542
 20
228.2157429666901
 30
0.0
 11
256.6705429362542
 21
205.4125429666901
 31
0.0
  0
LINE
  5
57CD
330
1A
100
AcDbEntity
  8
SEIHIN
  6
Continuous
 62
     3
 48
5.0
100
AcDbLine
 10
262.5030429362542
 20
214.0620429666901
 30
0.0
 11
251.2709429362542
 21
234.2683429666901
 31
0.0
  0
LINE
  5
57CE
330
1A
100
AcDbEntity
  8
SEIHIN
  6
Continuous
 62
     3
 48
5.0
100
AcDbLine
 10
260.5755429362542
 20
212.3599429666901
 30
0.0
 11
253.1496429362541
 21
225.3801429666901
 31
0.0
  0
ARC
  5
57CF
330
1A
100
AcDbEntity
  8
SEIHIN
  6
Continuous
 62
     3
 48
5.0
100
AcDbCircle
 10
263.8286429362541
 20
214.7641429666901
 30
0.0
 40
1.500027
100
AcDbArc
 50
207.907795
 51
270.0
  0
LINE
  5
57D0
330
1A
100
AcDbEntity
  8
SEIHIN
  6
Continuous
 62
     3
 48
5.0
100
AcDbLine
 10
258.8673429362541
 20
206.6531429666901
 30
0.0
 11
251.3370429362542
 21
224.5417429666901
 31
0.0
  0
ARC
  5
57D1
330
1A
100
AcDbEntity
  8
SEIHIN
  6
Continuous
 62
     3
 48
5.0
100
AcDbCircle
 10
263.2266429362541
 20
213.7641429666901
 30
0.0
 40
3.000008999999999
100
AcDbArc
 50
207.9086889999998
 51
270.0
  0
ARC
  5
57D2
330
1A
100
AcDbEntity
  8
SEIHIN
  6
Continuous
 62
     3
 48
5.0
100
AcDbCircle
 10
261.6540429362542
 20
207.7641429666901
 30
0.0
 40
3.000000999999999
100
AcDbArc
 50
201.7361540000001
 51
270.0
  0
LINE
  5
57D3
330
1A
100
AcDbEntity
  8
SEIHIN
  6
Continuous
 62
     3
 48
5.0
100
AcDbLine
 10
261.9255429362542
 20
210.7641429666901
 30
0.0
 11
261.9255429362542
 21
204.7641429666901
 31
0.0
  0
ARC
  5
57D4
330
1A
100
AcDbEntity
  8
SEIHIN
  6
Continuous
 62
     3
 48
5.0
100
AcDbCircle
 10
248.6198429362541
 20
232.8641429666901
 30
0.0
 40
3.000008999999999
100
AcDbArc
 50
27.90868899999983
 51
90.0
  0
ARC
  5
57D5
330
1A
100
AcDbEntity
  8
SEIHIN
  6
Continuous
 62
     3
 48
5.0
100
AcDbCircle
 10
237.4257429362542
 20
236.86414296669
 30
0.0
 40
1.0
100
AcDbArc
 50
180.0
 51
270.0
  0
LINE
  5
57D6
330
1A
100
AcDbEntity
  8
SEIHIN
  6
Continuous
 62
     3
 48
5.0
100
AcDbLine
 10
242.5364429362541
 20
231.3641429666901
 30
0.0
 11
236.4257429362542
 21
231.3641429666901
 31
0.0
  0
LINE
  5
57D7
330
1A
100
AcDbEntity
  8
SEIHIN
  6
Continuous
 62
     3
 48
5.0
100
AcDbLine
 10
248.6198429362541
 20
235.8641429666901
 30
0.0
 11
237.4257429362542
 21
235.8641429666901
 31
0.0
  0
ARC
  5
57D8
330
1A
100
AcDbEntity
  8
SEIHIN
  6
Continuous
 62
     3
 48
5.0
100
AcDbCircle
 10
242.5364429362541
 20
226.36414296669
 30
0.0
 40
4.99999
100
AcDbArc
 50
21.73544399999976
 51
90.0
  0
LINE
  5
57D9
330
1A
100
AcDbEntity
  8
SEIHIN
  6
Continuous
 62
     3
 48
5.0
100
AcDbLine
 10
236.4257429362542
 20
239.76414296669
 30
0.0
 11
236.4257429362542
 21
236.86414296669
 31
0.0
  0
ARC
  5
57DA
330
1A
100
AcDbEntity
  8
SEIHIN
  6
Continuous
 62
     3
 48
5.0
100
AcDbCircle
 10
286.6760429362542
 20
207.6806429666901
 30
0.0
 40
9.083389
100
AcDbArc
 50
56.60174300000083
 51
123.3982569999991
  0
LINE
  5
57DB
330
1A
100
AcDbEntity
  8
SEIHIN
  6
Continuous
 62
     3
 48
5.0
100
AcDbLine
 10
291.6760429362541
 20
215.2640429666901
 30
0.0
 11
281.6760429362541
 21
215.2640429666901
 31
0.0
  0
LINE
  5
57DC
330
1A
100
AcDbEntity
  8
SEIHIN
  6
Continuous
 62
     3
 48
5.0
100
AcDbLine
 10
276.6758429362541
 20
214.2641429666901
 30
0.0
 11
294.6758429362541
 21
214.2641429666901
 31
0.0
  0
LINE
  5
57DD
330
1A
100
AcDbEntity
  8
SEIHIN
  6
Continuous
 62
     3
 48
5.0
100
AcDbLine
 10
280.6758429362541
 20
207.2641429666901
 30
0.0
 11
294.3844429362541
 21
207.2641429666901
 31
0.0
  0
LINE
  5
57DE
330
1A
100
AcDbEntity
  8
SEIHIN
  6
Continuous
 62
     3
 48
5.0
100
AcDbLine
 10
276.6758429362541
 20
211.2641429666901
 30
0.0
 11
276.6758429362541
 21
214.2641429666901
 31
0.0
  0
LINE
  5
57DF
330
1A
100
AcDbEntity
  8
SEIHIN
  6
Continuous
 62
     3
 48
5.0
100
AcDbLine
 10
276.6758429362541
 20
211.2641429666901
 30
0.0
 11
280.6758429362541
 21
207.2641429666901
 31
0.0
  0
LINE
  5
57E0
330
1A
100
AcDbEntity
  8
SEIHIN
  6
Continuous
 62
     3
 48
5.0
100
AcDbLine
 10
281.6760429362541
 20
214.2640429666901
 30
0.0
 11
281.6760429362541
 21
215.2640429666901
 31
0.0
  0
LINE
  5
57E1
330
1A
100
AcDbEntity
  8
SEIHIN
  6
Continuous
 62
     3
 48
5.0
100
AcDbLine
 10
291.6760429362541
 20
214.2640429666901
 30
0.0
 11
291.6760429362541
 21
215.2640429666901
 31
0.0
  0
ARC
  5
57E2
330
1A
100
AcDbEntity
  8
SEIHIN
  6
Continuous
 62
     3
 48
5.0
100
AcDbCircle
 10
357.4257429362542
 20
205.2639429666901
 30
0.0
 40
4.999982
100
AcDbArc
 50
205.2243000000005
 51
0.0
  0
DIMENSION
  5
57E3
330
1A
100
AcDbEntity
  8
SUNPOU
 48
5.0
100
AcDbDimension
  2
*D8
 10
401.4258135942225
 20
268.8498990307707
 30
0.0
 11
378.9257782652384
 21
273.8498990307707
 31
0.0
 70
    32
 71
     5
 42
-1.0
  3
STANDARD
100
AcDbAlignedDimension
 13
356.4257429362543
 23
223.56414296669
 33
0.0
 14
401.4258135942225
 24
252.1952323582924
 34
0.0
100
AcDbRotatedDimension
1001
ACAD
1000
DSTYLE
1002
{
1070
   140
1040
6.0
1070
    74
1070
     0
1070
   172
1070
     1
1070
    73
1070
     0
1070
   272
1070
     2
1070
    77
1070
     3
1070
   173
1070
     1
1070
   147
1040
2.0
1070
    42
1040
6.0
1070
    44
1040
3.0
1070
    43
1040
14.0
1070
   271
1070
     0
1070
   178
1070
     4
1070
   177
1070
     4
1070
   176
1070
     4
1070
   141
1040
150.0
1070
     7
1000
_OPEN
1070
     6
1000
_OPEN
1070
    41
1040
7.0
1002
}
  0
LINE
  5
57E4
330
1A
100
AcDbEntity
  8
SEIHIN
  6
Continuous
 62
     3
 48
5.0
100
AcDbLine
 10
396.6810534782972
 20
251.7743439018321
 30
0.0
 11
315.3178429362542
 21
244.5569429666901
 31
0.0
  0
LINE
  5
57E5
330
1A
100
AcDbEntity
  8
SEIHIN
  6
Continuous
 62
     3
 48
5.0
100
AcDbLine
 10
397.9421429362541
 20
244.8587429666901
 30
0.0
 11
319.5964429362542
 21
237.9089429666901
 31
0.0
  0
LINE
  5
57E6
330
1A
100
AcDbEntity
  8
SEIHIN
  6
Continuous
 62
     3
 48
5.0
100
AcDbLine
 10
330.7222429362541
 20
204.9624429666901
 30
0.0
 11
344.2011429362541
 21
206.7837429666901
 31
0.0
  0
LINE
  5
57E7
330
1A
100
AcDbEntity
  8
SEIHIN
  6
Continuous
 62
     3
 48
5.0
100
AcDbLine
 10
327.1936429362542
 20
202.2640429666901
 30
0.0
 11
344.4171429362542
 21
205.5020429666901
 31
0.0
  0
LINE
  5
57E8
330
1A
100
AcDbEntity
  8
SEIHIN
  6
Continuous
 62
     3
 48
5.0
100
AcDbLine
 10
324.6660429362542
 20
214.7604429666901
 30
0.0
 11
336.9342429362542
 21
236.2154429666901
 31
0.0
  0
LINE
  5
57E9
330
1A
100
AcDbEntity
  8
SEIHIN
  6
Continuous
 62
     3
 48
5.0
100
AcDbLine
 10
329.6772429362541
 20
206.4550429666901
 30
0.0
 11
341.2411429362542
 21
226.81304296669
 31
0.0
  0
LINE
  5
57EA
330
1A
100
AcDbEntity
  8
SEIHIN
  6
Continuous
 62
     3
 48
5.0
100
AcDbLine
 10
331.0966429362542
 20
213.7542429666901
 30
0.0
 11
340.2680429362541
 21
230.2235429666901
 31
0.0
  0
LINE
  5
57EB
330
1A
100
AcDbEntity
  8
SEIHIN
  6
Continuous
 62
     3
 48
5.0
100
AcDbLine
 10
334.9345429362542
 20
237.7452429666901
 30
0.0
 11
321.3615429362541
 21
213.9993429666901
 31
0.0
  0
LINE
  5
57EC
330
1A
100
AcDbEntity
  8
SEIHIN
  6
Continuous
 62
     3
 48
5.0
100
AcDbLine
 10
314.1248429362542
 20
234.3874429666901
 30
0.0
 11
300.9096429362542
 21
211.0665429666901
 31
0.0
  0
LINE
  5
57ED
330
1A
100
AcDbEntity
  8
SEIHIN
  6
Continuous
 62
     3
 48
5.0
100
AcDbLine
 10
320.0711429362542
 20
213.2640429666901
 30
0.0
 11
302.1549429362542
 21
213.2640429666901
 31
0.0
  0
LINE
  5
57EE
330
1A
100
AcDbEntity
  8
SEIHIN
  6
Continuous
 62
     3
 48
5.0
100
AcDbLine
 10
300.7287429362542
 20
210.7640429666901
 30
0.0
 11
327.5697429362542
 21
210.7640429666901
 31
0.0
  0
ARC
  5
57EF
330
1A
100
AcDbEntity
  8
SEIHIN
  6
Continuous
 62
     3
 48
5.0
100
AcDbCircle
 10
325.5341429362542
 20
214.2640429666901
 30
0.0
 40
1.000002999999999
100
AcDbArc
 50
150.2380629999994
 51
270.0
  0
ARC
  5
57F0
330
1A
100
AcDbEntity
  8
SEIHIN
  6
Continuous
 62
     3
 48
5.0
100
AcDbCircle
 10
330.2363429362541
 20
214.2640429666901
 30
0.0
 40
1.000002999999999
100
AcDbArc
 50
270.0
 51
329.3496969999992
  0
ARC
  5
57F1
330
1A
100
AcDbEntity
  8
SEIHIN
  6
Continuous
 62
     3
 48
5.0
100
AcDbCircle
 10
320.0711429362542
 20
214.7640429666901
 30
0.0
 40
1.499983
100
AcDbArc
 50
270.0
 51
329.3487229999997
  0
LINE
  5
57F2
330
1A
100
AcDbEntity
  8
SEIHIN
  6
Continuous
 62
     3
 48
5.0
100
AcDbLine
 10
320.9258429362542
 20
204.7641429666901
 30
0.0
 11
320.9258429362542
 21
210.7641429666901
 31
0.0
  0
ARC
  5
57F3
330
1A
100
AcDbEntity
  8
SEIHIN
  6
Continuous
 62
     3
 48
5.0
100
AcDbCircle
 10
325.1993429362542
 20
205.7640429666901
 30
0.0
 40
1.000002999999999
100
AcDbArc
 50
270.0
 51
329.3496969999992
  0
LINE
  5
57F4
330
1A
100
AcDbEntity
  8
SEIHIN
  6
Continuous
 62
     3
 48
5.0
100
AcDbLine
 10
326.0596429362542
 20
205.2542429666901
 30
0.0
 11
328.4300429362541
 21
209.2542429666901
 31
0.0
  0
ARC
  5
57F5
330
1A
100
AcDbEntity
  8
SEIHIN
  6
Continuous
 62
     3
 48
5.0
100
AcDbCircle
 10
330.5375429362542
 20
205.9452429666901
 30
0.0
 40
1.000005999999999
100
AcDbArc
 50
149.3497109999998
 51
280.6436029999996
  0
ARC
  5
57F6
330
1A
100
AcDbEntity
  8
SEIHIN
  6
Continuous
 62
     3
 48
5.0
100
AcDbCircle
 10
327.5697429362542
 20
209.7640429666901
 30
0.0
 40
1.000002999999999
100
AcDbArc
 50
329.3496969999992
 51
90.0
  0
LINE
  5
57F7
330
1A
100
AcDbEntity
  8
SEIHIN
  6
Continuous
 62
     3
 48
5.0
100
AcDbLine
 10
330.2363429362541
 20
213.2640429666901
 30
0.0
 11
325.5341429362542
 21
213.2640429666901
 31
0.0
  0
ARC
  5
57F8
330
1A
100
AcDbEntity
  8
SEIHIN
  6
Continuous
 62
     3
 48
5.0
100
AcDbCircle
 10
320.2149429362542
 20
230.9363429666901
 30
0.0
 40
6.999967999999999
100
AcDbArc
 50
95.06911799999969
 51
150.4609089999998
  0
ARC
  5
57F9
330
1A
100
AcDbEntity
  8
SEIHIN
  6
Continuous
 62
     3
 48
5.0
100
AcDbCircle
 10
315.9364429362542
 20
237.5842429666901
 30
0.0
 40
7.000060999999999
100
AcDbArc
 50
95.0690450000007
 51
150.4613130000004
  0
LINE
  5
57FA
330
1A
100
AcDbEntity
  8
SEIHIN
  6
Continuous
 62
     3
 48
5.0
100
AcDbLine
 10
362.4257429362542
 20
235.2640429666901
 30
0.0
 11
362.4257429362542
 21
205.2639429666901
 31
0.0
  0
ARC
  5
57FB
330
1A
100
AcDbEntity
  8
SEIHIN
  6
Continuous
 62
     3
 48
5.0
100
AcDbCircle
 10
351.4257429362542
 20
224.2640429666901
 30
0.0
 40
5.0
100
AcDbArc
 50
0.0
 51
90.0
  0
ARC
  5
57FC
330
1A
100
AcDbEntity
  8
SEIHIN
  6
Continuous
 62
     3
 48
5.0
100
AcDbCircle
 10
344.2970429362541
 20
206.1408429666901
 30
0.0
 40
0.6500060000000002
100
AcDbArc
 50
278.475411
 51
98.48412899999987
  0
LINE
  5
57FD
330
1A
100
AcDbEntity
  8
SEIHIN
  6
Continuous
 62
     3
 48
5.0
100
AcDbLine
 10
356.4257429362541
 20
224.2640429666901
 30
0.0
 11
356.4257429362541
 21
207.7640429666901
 31
0.0
  0
LINE
  5
57FE
330
1A
100
AcDbEntity
  8
SEIHIN
  6
Continuous
 62
     3
 48
5.0
100
AcDbLine
 10
352.4948429362542
 20
209.3162429666901
 30
0.0
 11
354.7131429362542
 21
207.0625429666901
 31
0.0
  0
LINE
  5
57FF
330
1A
100
AcDbEntity
  8
SEIHIN
  6
Continuous
 62
     3
 48
5.0
100
AcDbLine
 10
352.9815429362542
 20
202.9728429666901
 30
0.0
 11
350.0925429362542
 21
207.5766429666901
 31
0.0
  0
ARC
  5
5800
330
1A
100
AcDbEntity
  8
SEIHIN
  6
Continuous
 62
     3
 48
5.0
100
AcDbCircle
 10
351.4257429362542
 20
208.2639429666901
 30
0.0
 40
1.500018999999999
100
AcDbArc
 50
44.54626700000006
 51
207.2723069999995
  0
ARC
  5
5801
330
1A
100
AcDbEntity
  8
SEIHIN
  6
Continuous
 62
     3
 48
5.0
100
AcDbCircle
 10
355.4257429362542
 20
207.7640429666901
 30
0.0
 40
0.9999749999999998
100
AcDbArc
 50
224.5502650000001
 51
0.0
  0
LINE
  5
5802
330
1A
100
AcDbEntity
  8
SEIHIN
  6
Continuous
 62
     3
 48
5.0
100
AcDbLine
 10
353.4257429362542
 20
237.7640429666901
 30
0.0
 11
339.5597429362542
 21
237.7640429666901
 31
0.0
  0
LINE
  5
5803
330
1A
100
AcDbEntity
  8
SEIHIN
  6
Continuous
 62
     3
 48
5.0
100
AcDbLine
 10
345.5426429362542
 20
229.2640429666901
 30
0.0
 11
351.4257429362542
 21
229.2640429666901
 31
0.0
  0
LINE
  5
5804
330
1A
100
AcDbEntity
  8
SEIHIN
  6
Continuous
 62
     3
 48
5.0
100
AcDbLine
 10
342.8890429362542
 20
231.7640429666901
 30
0.0
 11
353.4257429362542
 21
231.7640429666901
 31
0.0
  0
LINE
  5
5805
330
1A
100
AcDbEntity
  8
SEIHIN
  6
Continuous
 62
     3
 48
5.0
100
AcDbLine
 10
357.4257429362542
 20
240.2640429666901
 30
0.0
 11
346.6167429362541
 21
240.2640429666901
 31
0.0
  0
ARC
  5
5806
330
1A
100
AcDbEntity
  8
SEIHIN
  6
Continuous
 62
     3
 48
5.0
100
AcDbCircle
 10
339.5597429362542
 20
234.7640429666901
 30
0.0
 40
3.000008999999999
100
AcDbArc
 50
90.0
 51
149.3496969999993
  0
ARC
  5
5807
330
1A
100
AcDbEntity
  8
SEIHIN
  6
Continuous
 62
     3
 48
5.0
100
AcDbCircle
 10
342.8890429362542
 20
228.7640429666901
 30
0.0
 40
3.000005999999999
100
AcDbArc
 50
90.0
 51
150.8871489999994
  0
ARC
  5
5808
330
1A
100
AcDbEntity
  8
SEIHIN
  6
Continuous
 62
     3
 48
5.0
100
AcDbCircle
 10
345.5426429362542
 20
224.2640429666901
 30
0.0
 40
5.000015
100
AcDbArc
 50
90.0
 51
149.3496969999993
  0
ARC
  5
5809
330
1A
100
AcDbEntity
  8
SEIHIN
  6
Continuous
 62
     3
 48
5.0
100
AcDbCircle
 10
339.2755429362542
 20
235.2640429666901
 30
0.0
 40
5.000047
100
AcDbArc
 50
124.74719
 51
150.2488649999996
  0
ARC
  5
580A
330
1A
100
AcDbEntity
  8
SEIHIN
  6
Continuous
 62
     3
 48
5.0
100
AcDbCircle
 10
357.4257429362542
 20
235.2640429666901
 30
0.0
 40
5.0
100
AcDbArc
 50
0.0
 51
90.0
  0
ARC
  5
580B
330
1A
100
AcDbEntity
  8
SEIHIN
  6
Continuous
 62
     3
 48
5.0
100
AcDbCircle
 10
353.4257429362542
 20
234.7640429666901
 30
0.0
 40
3.0
100
AcDbArc
 50
0.0
 51
90.0
  0
ARC
  5
580C
330
1A
100
AcDbEntity
  8
SEIHIN
  6
Continuous
 62
     3
 48
5.0
100
AcDbCircle
 10
353.4257429362542
 20
234.7640429666901
 30
0.0
 40
3.0
100
AcDbArc
 50
270.0
 51
0.0
  0
ARC
  5
580D
330
1A
100
AcDbEntity
  8
SEIHIN
  6
Continuous
 62
     3
 48
5.0
100
AcDbCircle
 10
357.4257429362542
 20
235.2639429666901
 30
0.0
 40
5.000022
100
AcDbArc
 50
0.0
 51
2.064222000000293
  0
ARC
  5
580E
330
1A
100
AcDbEntity
  8
SEIHIN
  6
PHANTOM
 62
     6
 48
5.0
100
AcDbCircle
 10
412.2995664402418
 20
244.80172303763
 30
0.0
 40
7.0
100
AcDbArc
 50
26.59985127716864
 51
95.06920826886473
  0
ARC
  5
580F
330
1A
100
AcDbEntity
  8
SEIHIN
  6
Continuous
 62
     3
 48
5.0
100
AcDbCircle
 10
397.2995664402418
 20
244.80172303763
 30
0.0
 40
7.0
100
AcDbArc
 50
26.59985127716864
 51
95.06920826886473
  0
LINE
  5
5810
330
1A
100
AcDbEntity
  8
CENTER_L
  6
CENTER
 62
     1
 48
5.0
100
AcDbLine
 10
407.3697429362542
 20
223.2981429666901
 30
0.0
 11
417.2247429362541
 21
228.2330429666901
 31
0.0
  0
LINE
  5
5811
330
1A
100
AcDbEntity
  8
SEIHIN
  6
Continuous
 62
     3
 48
5.0
100
AcDbLine
 10
401.8600429362542
 20
243.5113429666901
 30
0.0
 11
411.5050429362542
 21
224.2506429666901
 31
0.0
  0
LINE
  5
5812
330
1A
100
AcDbEntity
  8
SEIHIN
  6
Continuous
 62
     3
 48
5.0
100
AcDbLine
 10
400.5090429362542
 20
243.9759429666901
 30
0.0
 11
415.9839429362541
 21
213.07304296669
 31
0.0
  0
LINE
  5
5813
330
1A
100
AcDbEntity
  8
SEIHIN
  6
PHANTOM
 62
     6
 48
5.0
100
AcDbLine
 10
416.8600429362542
 20
243.5113429666901
 30
0.0
 11
426.5050429362542
 21
224.2506429666901
 31
0.0
  0
ARC
  5
5814
330
1A
100
AcDbEntity
  8
SEIHIN
  6
Continuous
 62
     3
 48
5.0
100
AcDbCircle
 10
413.2933429362542
 20
225.1461429666901
 30
0.0
 40
1.999983999999999
100
AcDbArc
 50
206.5996430000006
 51
296.5996429999995
  0
LINE
  5
5815
330
1A
100
AcDbEntity
  8
CENTER_L
  6
CENTER
 62
     1
 48
5.0
100
AcDbLine
 10
410.0384429362541
 20
217.9242429666901
 30
0.0
 11
419.9080429362542
 21
222.8664429666901
 31
0.0
  0
ARC
  5
5816
330
1A
100
AcDbEntity
  8
SEIHIN
  6
Continuous
 62
     3
 48
5.0
100
AcDbCircle
 10
418.6664429362542
 20
214.4163429666901
 30
0.0
 40
3.000020999999999
100
AcDbArc
 50
206.6000689999998
 51
296.5983619999996
  0
LINE
  5
5817
330
1A
100
AcDbEntity
  8
SEIHIN
  6
Continuous
 62
     3
 48
5.0
100
AcDbLine
 10
417.9928429362542
 20
219.1115429666901
 30
0.0
 11
416.6518429362541
 21
218.4400429666901
 31
0.0
  0
ARC
  5
5818
330
1A
100
AcDbEntity
  8
SEIHIN
  6
PHANTOM
 62
     6
 48
5.0
100
AcDbCircle
 10
428.2933429362541
 20
225.1461429666901
 30
0.0
 40
1.999983999999999
100
AcDbArc
 50
206.5996430000006
 51
296.5996429999995
  0
LINE
  5
5819
330
1A
100
AcDbEntity
  8
SEIHIN
  6
PHANTOM
 62
     6
 48
5.0
100
AcDbLine
 10
419.5621429362542
 20
242.5820429666901
 30
0.0
 11
412.9421429362541
 21
244.8587429666901
 31
0.0
  0
LINE
  5
581A
330
1A
100
AcDbEntity
  8
SEIHIN
  6
Continuous
 62
     3
 48
5.0
100
AcDbLine
 10
404.5621429362541
 20
242.5820429666901
 30
0.0
 11
405.9033429362542
 21
243.25374296669
 31
0.0
  0
LINE
  5
581B
330
1A
100
AcDbEntity
  8
SEIHIN
  6
Continuous
 62
     3
 48
5.0
100
AcDbLine
 10
404.5621429362541
 20
242.5820429666901
 30
0.0
 11
397.9421429362541
 21
244.8587429666901
 31
0.0
  0
LINE
  5
581C
330
1A
100
AcDbEntity
  8
SEIHIN
  6
PHANTOM
 62
     6
 48
5.0
100
AcDbLine
 10
419.5621429362542
 20
242.5820429666901
 30
0.0
 11
420.9033429362541
 21
243.25374296669
 31
0.0
  0
ELLIPSE
  5
581D
330
1A
100
AcDbEntity
  8
SEIHIN
 48
5.0
100
AcDbEllipse
 10
414.1868429362542
 20
407.3099940237013
 30
0.0
 11
0.0
 21
2.100000000000022
 31
0.0
210
0.0
220
0.0
230
-1.0
 40
0.4477314539425223
 41
2.208358247414105
 42
7.216419713355287
  0
ELLIPSE
  5
581E
330
1A
100
AcDbEntity
  8
SEIHIN
 48
5.0
100
AcDbEllipse
 10
415.5328732085505
 20
407.3866940237014
 30
0.0
 11
-0.1750817383783734
 21
-3.322089594650654
 31
0.0
210
0.0
220
0.0
230
-0.9999999999999999
 40
0.4380810969228646
 41
-2.68734054544434
 42
-0.5004196625460429
  0
ELLIPSE
  5
581F
330
1A
100
AcDbEntity
  8
SEIHIN
 48
5.0
100
AcDbEllipse
 10
412.8462732085503
 20
407.3099940237013
 30
0.0
 11
0.0
 21
2.100000000000022
 31
0.0
210
0.0
220
0.0
230
-1.0
 40
0.4477314539425223
 41
2.208358247414105
 42
2.347981993356466
  0
ELLIPSE
  5
5820
330
1A
100
AcDbEntity
  8
SEIHIN
 48
5.0
100
AcDbEllipse
 10
412.8462732085503
 20
407.3099940237013
 30
0.0
 11
0.0
 21
2.100000000000022
 31
0.0
210
0.0
220
0.0
230
-1.0
 40
0.4477314539425223
 41
0.793610660233265
 42
0.9332344061756874
  0
ELLIPSE
  5
5821
330
1A
100
AcDbEntity
  8
SEIHIN
 48
5.0
100
AcDbEllipse
 10
416.8734429362542
 20
407.3866940237014
 30
0.0
 11
-0.1750817383783734
 21
-3.322089594650654
 31
0.0
210
0.0
220
0.0
230
-0.9999999999999999
 40
0.4380810969228646
 41
1.908581373229686
 42
7.420198435925457
  0
ELLIPSE
  5
5822
330
1A
100
AcDbEntity
  8
SEIHIN
 48
5.0
100
AcDbEllipse
 10
414.1869429362541
 20
373.8082484186902
 30
0.0
 11
0.0
 21
-1.5
 31
0.0
210
0.0
220
0.0
230
-1.0
 40
0.4115061375091405
 41
-3.141592653589793
 42
0.0
  0
ELLIPSE
  5
5823
330
1A
100
AcDbEntity
  8
SEIHIN
 48
5.0
100
AcDbEllipse
 10
414.1869429362541
 20
401.8080483919377
 30
0.0
 11
0.0
 21
1.5
 31
0.0
210
0.0
220
0.0
230
1.0
 40
0.4115061375091405
 41
3.141592653589793
 42
6.2831853071796
  0
ELLIPSE
  5
5824
330
1A
100
AcDbEntity
  8
SEIHIN
 48
5.0
100
AcDbEllipse
 10
429.4106005128235
 20
387.8080483919377
 30
0.0
 11
0.0
 21
-2.100000000000022
 31
0.0
210
0.0
220
0.0
230
1.0
 40
0.447759693740588
 41
0.0
 42
6.283185307179585
  0
ELLIPSE
  5
5825
330
1A
100
AcDbEntity
  8
SEIHIN
 48
5.0
100
AcDbEllipse
 10
412.8462732085503
 20
368.3080483919377
 30
0.0
 11
0.0
 21
-2.100000000000022
 31
0.0
210
0.0
220
0.0
230
1.0
 40
0.4477314539425223
 41
0.793610660233265
 42
0.9332344061756874
  0
ELLIPSE
  5
5826
330
1A
100
AcDbEntity
  8
SEIHIN
 48
5.0
100
AcDbEllipse
 10
412.8462732085503
 20
368.3080483919377
 30
0.0
 11
0.0
 21
-2.100000000000022
 31
0.0
210
0.0
220
0.0
230
1.0
 40
0.4477314539425223
 41
2.208358247414105
 42
2.347981993356466
  0
ELLIPSE
  5
5827
330
1A
100
AcDbEntity
  8
SEIHIN
 48
5.0
100
AcDbEllipse
 10
415.5328732085505
 20
368.2313483919378
 30
0.0
 11
-0.1750817383783734
 21
3.322089594650654
 31
0.0
210
0.0
220
0.0
230
0.9999999999999999
 40
0.4380810969228646
 41
-2.68734054544434
 42
-0.5004196625460429
  0
ELLIPSE
  5
5828
330
1A
100
AcDbEntity
  8
SEIHIN
 48
5.0
100
AcDbEllipse
 10
414.1868429362542
 20
368.3080483919377
 30
0.0
 11
0.0
 21
-2.100000000000022
 31
0.0
210
0.0
220
0.0
230
1.0
 40
0.4477314539425223
 41
2.208358247414105
 42
7.216419713355287
  0
ELLIPSE
  5
5829
330
1A
100
AcDbEntity
  8
SEIHIN
 48
5.0
100
AcDbEllipse
 10
416.8734429362542
 20
368.2313483919378
 30
0.0
 11
-0.1750817383783734
 21
3.322089594650654
 31
0.0
210
0.0
220
0.0
230
0.9999999999999999
 40
0.4380810969228646
 41
1.908581373229686
 42
7.420198435925457
  0
ELLIPSE
  5
582A
330
1A
100
AcDbEntity
  8
SEIHIN
  6
Continuous
 62
     3
 48
5.0
100
AcDbEllipse
 10
418.8882759362542
 20
387.8081513919377
 30
0.0
 11
-2.250234740900000E-6
 21
-4.005684427686728
 31
0.0
210
0.0
220
0.0
230
0.9999999999999999
 40
0.4475000000000001
 41
-0.0527955910197543
 42
3.195354447829214
  0
LINE
  5
582B
330
1A
100
AcDbEntity
  8
SEIHIN
  6
Continuous
 62
     3
 48
5.0
100
AcDbLine
 10
294.6758429362541
 20
379.0580483919377
 30
0.0
 11
401.4258429362541
 21
366.8080483919377
 31
0.0
  0
LINE
  5
582C
330
1A
100
AcDbEntity
  8
SEIHIN
  6
Continuous
 62
     3
 48
5.0
100
AcDbLine
 10
294.6758429362541
 20
396.5580483919377
 30
0.0
 11
401.4258429362541
 21
408.8080483919377
 31
0.0
  0
DIMENSION
  5
582D
330
1A
100
AcDbEntity
  8
SUNPOU
 48
5.0
100
AcDbDimension
  2
*D9
 10
207.2111046997316
 20
380.3081483919377
 30
0.0
 11
202.2111046997316
 21
387.8080983919378
 31
0.0
 70
    32
 71
     5
 42
-1.0
  3
STANDARD
100
AcDbAlignedDimension
 13
236.4256429362542
 23
395.3080483919377
 33
0.0
 14
236.4256429362542
 24
380.3081483919377
 34
0.0
 50
90.0
100
AcDbRotatedDimension
1001
ACAD
1000
DSTYLE
1002
{
1070
   140
1040
6.0
1070
    74
1070
     0
1070
   172
1070
     1
1070
    73
1070
     0
1070
   272
1070
     2
1070
    77
1070
     3
1070
   173
1070
     1
1070
   147
1040
2.0
1070
    42
1040
6.0
1070
    44
1040
3.0
1070
    43
1040
14.0
1070
   271
1070
     0
1070
   178
1070
     4
1070
   177
1070
     4
1070
   176
1070
     4
1070
   141
1040
150.0
1070
     7
1000
_OPEN
1070
     6
1000
_OPEN
1070
    41
1040
7.0
1002
}
  0
LINE
  5
582E
330
1A
100
AcDbEntity
  8
SEIHIN
  6
Continuous
 62
     3
 48
5.0
100
AcDbLine
 10
294.6759429362542
 20
396.5580483919377
 30
0.0
 11
294.6759429362542
 21
379.0580483919377
 31
0.0
  0
LINE
  5
582F
330
1A
100
AcDbEntity
  8
SEIHIN
  6
Continuous
 62
     3
 48
5.0
100
AcDbLine
 10
276.6759429362541
 20
379.0580483919377
 30
0.0
 11
276.6759429362541
 21
396.5580483919377
 31
0.0
  0
LINE
  5
5830
330
1A
100
AcDbEntity
  8
SEIHIN
  6
Continuous
 62
     3
 48
5.0
100
AcDbLine
 10
262.9256429362542
 20
380.3081483919377
 30
0.0
 11
262.9256429362542
 21
395.3081483919377
 31
0.0
  0
CIRCLE
  5
5831
330
1A
100
AcDbEntity
  8
SEIHIN
  6
Continuous
 62
     3
 48
5.0
100
AcDbCircle
 10
286.6759429362542
 20
387.8081483919377
 30
0.0
 40
5.0
  0
LINE
  5
5832
330
1A
100
AcDbEntity
  8
SEIHIN
  6
Continuous
 62
     3
 48
5.0
100
AcDbLine
 10
250.4256429362542
 20
387.8081483919377
 30
0.0
 11
250.4256429362542
 21
380.3080483919377
 31
0.0
  0
LINE
  5
5833
330
1A
100
AcDbEntity
  8
SEIHIN
  6
Continuous
 62
     3
 48
5.0
100
AcDbLine
 10
236.4256429362542
 20
387.8083483919377
 30
0.0
 11
236.4256429362542
 21
376.8080483919377
 31
0.0
  0
LINE
  5
5834
330
1A
100
AcDbEntity
  8
SEIHIN
  6
Continuous
 62
     3
 48
5.0
100
AcDbLine
 10
233.4256429362542
 20
387.8083483919377
 30
0.0
 11
233.4256429362542
 21
376.8080483919377
 31
0.0
  0
LINE
  5
5835
330
1A
100
AcDbEntity
  8
SEIHIN
  6
Continuous
 62
     3
 48
5.0
100
AcDbLine
 10
233.4256429362542
 20
376.8081483919377
 30
0.0
 11
236.4256429362542
 21
376.8081483919377
 31
0.0
  0
LINE
  5
5836
330
1A
100
AcDbEntity
  8
SEIHIN
  6
Continuous
 62
     3
 48
5.0
100
AcDbLine
 10
236.4256429362542
 20
380.3081483919377
 30
0.0
 11
276.6759429362541
 21
380.3080483919377
 31
0.0
  0
LINE
  5
5837
330
1A
100
AcDbEntity
  8
SEIHIN
  6
Continuous
 62
     3
 48
5.0
100
AcDbLine
 10
276.6758429362541
 20
379.0580483919377
 30
0.0
 11
294.6759429362542
 21
379.0580483919377
 31
0.0
  0
LINE
  5
5838
330
1A
100
AcDbEntity
  8
SEIHIN
  6
Continuous
 62
     3
 48
5.0
100
AcDbLine
 10
233.4257429362541
 20
398.8081483919377
 30
0.0
 11
236.4257429362542
 21
398.8081483919377
 31
0.0
  0
LINE
  5
5839
330
1A
100
AcDbEntity
  8
SEIHIN
  6
Continuous
 62
     3
 48
5.0
100
AcDbLine
 10
233.4256429362542
 20
387.8078483919378
 30
0.0
 11
233.4256429362542
 21
398.8081483919377
 31
0.0
  0
LINE
  5
583A
330
1A
100
AcDbEntity
  8
SEIHIN
  6
Continuous
 62
     3
 48
5.0
100
AcDbLine
 10
236.4256429362542
 20
395.3080483919377
 30
0.0
 11
276.6759429362541
 21
395.3080483919377
 31
0.0
  0
LINE
  5
583B
330
1A
100
AcDbEntity
  8
SEIHIN
  6
Continuous
 62
     3
 48
5.0
100
AcDbLine
 10
236.4256429362542
 20
387.8078483919378
 30
0.0
 11
236.4256429362542
 21
398.8081483919377
 31
0.0
  0
LINE
  5
583C
330
1A
100
AcDbEntity
  8
SEIHIN
  6
Continuous
 62
     3
 48
5.0
100
AcDbLine
 10
250.4256429362542
 20
387.8079483919377
 30
0.0
 11
250.4256429362542
 21
395.3081483919377
 31
0.0
  0
LINE
  5
583D
330
1A
100
AcDbEntity
  8
SEIHIN
  6
Continuous
 62
     3
 48
5.0
100
AcDbLine
 10
276.6758429362541
 20
396.5580483919377
 30
0.0
 11
294.6759429362542
 21
396.5580483919377
 31
0.0
  0
LINE
  5
583E
330
1A
100
AcDbEntity
  8
CENTER_L
  6
CENTER
 62
     1
 48
5.0
100
AcDbLine
 10
429.4106005128235
 20
383.3981814036526
 30
0.0
 11
429.4106005128235
 21
392.3212153802228
 31
0.0
  0
LINE
  5
583F
330
1A
100
AcDbEntity
  8
CENTER_L
  6
CENTER
 62
     1
 48
5.0
100
AcDbLine
 10
429.4106429362542
 20
384.6268483919377
 30
0.0
 11
429.4106429362542
 21
391.0925483919377
 31
0.0
  0
LINE
  5
5840
330
1A
100
AcDbEntity
  8
SEIHIN
  6
Continuous
 62
     3
 48
5.0
100
AcDbLine
 10
388.4258429362541
 20
383.8080483919377
 30
0.0
 11
388.4258429362541
 21
387.8079483919377
 31
0.0
  0
ARC
  5
5841
330
1A
100
AcDbEntity
  8
SEIHIN
  6
Continuous
 62
     3
 48
5.0
100
AcDbCircle
 10
402.4258429362541
 20
387.8080483919377
 30
0.0
 40
4.000008
100
AcDbArc
 50
180.0
 51
255.5225470000005
  0
LINE
  5
5842
330
1A
100
AcDbEntity
  8
SEIHIN
  6
Continuous
 62
     3
 48
5.0
100
AcDbLine
 10
384.4258429362541
 20
383.8080483919377
 30
0.0
 11
384.4258429362541
 21
391.8080483919377
 31
0.0
  0
ARC
  5
5843
330
1A
100
AcDbEntity
  8
SEIHIN
  6
Continuous
 62
     3
 48
5.0
100
AcDbCircle
 10
308.6759429362542
 20
387.8080483919377
 30
0.0
 40
4.0
100
AcDbArc
 50
90.0
 51
270.0
  0
LINE
  5
5844
330
1A
100
AcDbEntity
  8
SEIHIN
  6
Continuous
 62
     3
 48
5.0
100
AcDbLine
 10
308.6759429362542
 20
383.8080483919377
 30
0.0
 11
384.4258429362541
 21
383.8080483919377
 31
0.0
  0
LINE
  5
5845
330
1A
100
AcDbEntity
  8
SEIHIN
  6
Continuous
 62
     3
 48
5.0
100
AcDbLine
 10
311.6759429362542
 20
379.4515483919377
 30
0.0
 11
311.6759429362542
 21
383.8080483919377
 31
0.0
  0
LINE
  5
5846
330
1A
100
AcDbEntity
  8
SEIHIN
  6
Continuous
 62
     3
 48
5.0
100
AcDbLine
 10
392.9258429362541
 20
372.3082484186902
 30
0.0
 11
414.1869429362541
 21
372.3082484186902
 31
0.0
  0
LINE
  5
5847
330
1A
100
AcDbEntity
  8
SEIHIN
  6
Continuous
 62
     3
 48
5.0
100
AcDbLine
 10
392.9258429362541
 20
375.3082484186902
 30
0.0
 11
414.1869429362541
 21
375.3082484186902
 31
0.0
  0
LINE
  5
5848
330
1A
100
AcDbEntity
  8
SEIHIN
  6
Continuous
 62
     3
 48
5.0
100
AcDbLine
 10
418.8883429362542
 20
383.8080483919377
 30
0.0
 11
388.4258429362541
 21
383.8080483919377
 31
0.0
  0
LINE
  5
5849
330
1A
100
AcDbEntity
  8
SEIHIN
  6
Continuous
 62
     3
 48
5.0
100
AcDbLine
 10
403.7467429362541
 20
360.3080483919377
 30
0.0
 11
396.1497429362541
 21
367.4135483919377
 31
0.0
  0
ARC
  5
584A
330
1A
100
AcDbEntity
  8
SEIHIN
  6
Continuous
 62
     3
 48
5.0
100
AcDbCircle
 10
392.9258429362541
 20
373.8082484186902
 30
0.0
 40
1.5
100
AcDbArc
 50
90.0
 51
270.0
  0
LINE
  5
584B
330
1A
100
AcDbEntity
  8
CENTER_L
  6
CENTER
 62
     1
 48
5.0
100
AcDbLine
 10
414.1868832375971
 20
363.0016249520556
 30
0.0
 11
414.1868832375971
 21
373.4610718318198
 31
0.0
  0
LINE
  5
584C
330
1A
100
AcDbEntity
  8
CENTER_L
  6
CENTER
 62
     1
 48
5.0
100
AcDbLine
 10
416.8734275984829
 20
362.3519257781206
 30
0.0
 11
416.8734275984829
 21
374.1107710057548
 31
0.0
  0
LINE
  5
584D
330
1A
100
AcDbEntity
  8
SEIHIN
  6
Continuous
 62
     3
 48
5.0
100
AcDbLine
 10
401.4258429362541
 20
366.8080483919377
 30
0.0
 11
405.1394429362542
 21
360.3080483919377
 31
0.0
  0
LINE
  5
584E
330
1A
100
AcDbEntity
  8
SEIHIN
  6
Continuous
 62
     3
 48
5.0
100
AcDbLine
 10
429.0148429362542
 20
374.3442483919377
 30
0.0
 11
415.1666429362542
 21
360.3080483919377
 31
0.0
  0
LINE
  5
584F
330
1A
100
AcDbEntity
  8
SEIHIN
  6
Continuous
 62
     3
 48
5.0
100
AcDbLine
 10
415.1666429362542
 20
360.3080483919377
 30
0.0
 11
403.7467429362541
 21
360.3080483919377
 31
0.0
  0
LINE
  5
5850
330
1A
100
AcDbEntity
  8
CENTER_L
  6
CENTER
 62
     1
 48
5.0
100
AcDbLine
 10
419.0342429362542
 20
368.3080483919377
 30
0.0
 11
412.4713429362541
 21
368.3080483919377
 31
0.0
  0
LINE
  5
5851
330
1A
100
AcDbEntity
  8
SEIHIN
  6
Continuous
 62
     3
 48
5.0
100
AcDbLine
 10
415.4793011727377
 20
369.5580483919377
 30
0.0
 11
413.6017993084861
 21
369.5580483919377
 31
0.0
  0
LINE
  5
5852
330
1A
100
AcDbEntity
  8
SEIHIN
  6
Continuous
 62
     3
 48
5.0
100
AcDbLine
 10
413.6017993084861
 20
367.0580483919377
 30
0.0
 11
415.5583600965198
 21
367.0580483919377
 31
0.0
  0
LINE
  5
5853
330
1A
100
AcDbEntity
  8
SEIHIN
  6
Continuous
 62
     3
 48
5.0
100
AcDbLine
 10
401.4258429362541
 20
375.3082484186902
 30
0.0
 11
401.4258429362541
 21
383.8082484186902
 31
0.0
  0
ARC
  5
5854
330
1A
100
AcDbEntity
  8
SEIHIN
  6
Continuous
 62
     3
 48
5.0
100
AcDbCircle
 10
400.9258429362541
 20
373.8082484186902
 30
0.0
 40
1.5
100
AcDbArc
 50
90.0
 51
270.0
  0
LINE
  5
5855
330
1A
100
AcDbEntity
  8
SEIHIN
  6
Continuous
 62
     3
 48
5.0
100
AcDbLine
 10
401.4258429362541
 20
366.8082484186902
 30
0.0
 11
401.4258429362541
 21
372.3082484186902
 31
0.0
  0
LINE
  5
5856
330
1A
100
AcDbEntity
  8
CENTER_L
  6
CENTER
 62
     1
 48
5.0
100
AcDbLine
 10
414.1868429362542
 20
365.5962483919377
 30
0.0
 11
414.1868429362542
 21
371.1962483919377
 31
0.0
  0
LINE
  5
5857
330
1A
100
AcDbEntity
  8
CENTER_L
  6
CENTER
 62
     1
 48
5.0
100
AcDbLine
 10
416.8734429362542
 20
364.2593483919378
 30
0.0
 11
416.8734429362542
 21
372.2033483919377
 31
0.0
  0
LINE
  5
5858
330
1A
100
AcDbEntity
  8
SEIHIN
  6
Continuous
 62
     3
 48
5.0
100
AcDbLine
 10
308.6759429362542
 20
391.8080483919377
 30
0.0
 11
384.4258429362541
 21
391.8080483919377
 31
0.0
  0
LINE
  5
5859
330
1A
100
AcDbEntity
  8
SEIHIN
  6
Continuous
 62
     3
 48
5.0
100
AcDbLine
 10
311.6759429362542
 20
391.8080483919377
 30
0.0
 11
311.6759429362542
 21
396.3059483919377
 31
0.0
  0
ARC
  5
585A
330
1A
100
AcDbEntity
  8
SEIHIN
  6
Continuous
 62
     3
 48
5.0
100
AcDbCircle
 10
402.4258429362541
 20
387.8080483919377
 30
0.0
 40
4.000008
100
AcDbArc
 50
104.4774529999994
 51
180.0
  0
LINE
  5
585B
330
1A
100
AcDbEntity
  8
SEIHIN
  6
Continuous
 62
     3
 48
5.0
100
AcDbLine
 10
392.9258429362541
 20
400.3080483919377
 30
0.0
 11
414.1869429362541
 21
400.3080483919377
 31
0.0
  0
LINE
  5
585C
330
1A
100
AcDbEntity
  8
SEIHIN
  6
Continuous
 62
     3
 48
5.0
100
AcDbLine
 10
392.9258429362541
 20
403.3080483919377
 30
0.0
 11
414.1869429362541
 21
403.3080483919377
 31
0.0
  0
LINE
  5
585D
330
1A
100
AcDbEntity
  8
SEIHIN
  6
Continuous
 62
     3
 48
5.0
100
AcDbLine
 10
418.8883429362542
 20
391.8080483919377
 30
0.0
 11
388.4258429362541
 21
391.8080483919377
 31
0.0
  0
LINE
  5
585E
330
1A
100
AcDbEntity
  8
SEIHIN
  6
Continuous
 62
     3
 48
5.0
100
AcDbLine
 10
403.7467429362541
 20
415.3080483919377
 30
0.0
 11
396.1497429362541
 21
408.2026483919377
 31
0.0
  0
LINE
  5
585F
330
1A
100
AcDbEntity
  8
SEIHIN
  6
Continuous
 62
     3
 48
5.0
100
AcDbLine
 10
388.4258429362541
 20
391.8080483919377
 30
0.0
 11
388.4258429362541
 21
387.8081483919377
 31
0.0
  0
ARC
  5
5860
330
1A
100
AcDbEntity
  8
SEIHIN
  6
Continuous
 62
     3
 48
5.0
100
AcDbCircle
 10
392.9258429362541
 20
401.8080483919377
 30
0.0
 40
1.5
100
AcDbArc
 50
90.0
 51
270.0
  0
LINE
  5
5861
330
1A
100
AcDbEntity
  8
CENTER_L
  6
CENTER
 62
     1
 48
5.0
100
AcDbLine
 10
416.8734429362542
 20
411.3586940237013
 30
0.0
 11
416.8734429362542
 21
403.4146940237013
 31
0.0
  0
LINE
  5
5862
330
1A
100
AcDbEntity
  8
CENTER_L
  6
CENTER
 62
     1
 48
5.0
100
AcDbLine
 10
416.8734275984829
 20
413.2661166375185
 30
0.0
 11
416.8734275984829
 21
401.5072714098842
 31
0.0
  0
LINE
  5
5863
330
1A
100
AcDbEntity
  8
CENTER_L
  6
CENTER
 62
     1
 48
5.0
100
AcDbLine
 10
414.1868832375971
 20
412.6164174635833
 30
0.0
 11
414.1868832375971
 21
402.1569705838193
 31
0.0
  0
LINE
  5
5864
330
1A
100
AcDbEntity
  8
SEIHIN
  6
Continuous
 62
     3
 48
5.0
100
AcDbLine
 10
401.4258429362541
 20
408.8080483919377
 30
0.0
 11
405.1394429362542
 21
415.3080483919377
 31
0.0
  0
LINE
  5
5865
330
1A
100
AcDbEntity
  8
SEIHIN
  6
Continuous
 62
     3
 48
5.0
100
AcDbLine
 10
429.0148429362542
 20
401.2719483919377
 30
0.0
 11
415.1666429362542
 21
415.3080483919377
 31
0.0
  0
LINE
  5
5866
330
1A
100
AcDbEntity
  8
SEIHIN
  6
Continuous
 62
     3
 48
5.0
100
AcDbLine
 10
413.6017993084861
 20
408.5599940237013
 30
0.0
 11
415.5583600965198
 21
408.5599940237013
 31
0.0
  0
LINE
  5
5867
330
1A
100
AcDbEntity
  8
SEIHIN
  6
Continuous
 62
     3
 48
5.0
100
AcDbLine
 10
415.4793011727377
 20
406.0599940237014
 30
0.0
 11
413.6017993084861
 21
406.0599940237014
 31
0.0
  0
LINE
  5
5868
330
1A
100
AcDbEntity
  8
CENTER_L
  6
CENTER
 62
     1
 48
5.0
100
AcDbLine
 10
419.0342429362542
 20
407.3099940237013
 30
0.0
 11
412.4713429362541
 21
407.3099940237013
 31
0.0
  0
LINE
  5
5869
330
1A
100
AcDbEntity
  8
SEIHIN
  6
Continuous
 62
     3
 48
5.0
100
AcDbLine
 10
401.4258429362541
 20
400.3080483919377
 30
0.0
 11
401.4258429362541
 21
391.8080483919377
 31
0.0
  0
ARC
  5
586A
330
1A
100
AcDbEntity
  8
SEIHIN
  6
Continuous
 62
     3
 48
5.0
100
AcDbCircle
 10
400.9258429362541
 20
401.8080483919377
 30
0.0
 40
1.5
100
AcDbArc
 50
90.0
 51
270.0
  0
LINE
  5
586B
330
1A
100
AcDbEntity
  8
SEIHIN
  6
Continuous
 62
     3
 48
5.0
100
AcDbLine
 10
401.4258429362541
 20
408.8080483919377
 30
0.0
 11
401.4258429362541
 21
403.3080483919377
 31
0.0
  0
LINE
  5
586C
330
1A
100
AcDbEntity
  8
CENTER_L
  6
CENTER
 62
     1
 48
5.0
100
AcDbLine
 10
414.1868429362542
 20
410.0217940237014
 30
0.0
 11
414.1868429362542
 21
404.4217940237014
 31
0.0
  0
LINE
  5
586D
330
1A
100
AcDbEntity
  8
SEIHIN
  6
Continuous
 62
     3
 48
5.0
100
AcDbLine
 10
415.1666429362542
 20
415.3080483919377
 30
0.0
 11
403.7467429362541
 21
415.3080483919377
 31
0.0
  0
LEADER
  5
586E
330
1A
100
AcDbEntity
  8
SUNPOU
  6
Continuous
 62
     4
100
AcDbLeader
  3
STANDARD
 40
6.0
 41
31.19999999999999
 76
     3
 10
537.1944302919184
 20
283.3149530439945
 30
0.0
 10
505.4923153969229
 20
313.8504144432777
 30
0.0
 10
503.6055694006968
 20
314.1612721756761
 30
0.0
1001
ACAD
1000
DSTYLE
1002
{
1070
     6
1000
OPEN
1070
    41
1040
7.0
1070
    42
1040
6.0
1070
    43
1040
14.0
1070
    44
1040
3.0
1070
    73
1070
     0
1070
    74
1070
     0
1070
    77
1070
     3
1070
   140
1040
6.0
1070
   141
1040
150.0
1070
   147
1040
2.0
1070
   172
1070
     1
1070
   173
1070
     1
1070
   176
1070
     4
1070
   177
1070
     4
1070
   178
1070
     4
1070
   271
1070
     0
1070
   272
1070
     2
1070
   341
1005
6D
1070
   343
1005
6D
1070
   344
1005
6D
1002
}
  0
DIMENSION
  5
586F
330
1A
100
AcDbEntity
  8
SUNPOU
 48
5.0
100
AcDbDimension
  2
*D10
 10
512.8773970484079
 20
268.4322300400598
 30
0.0
 11
510.9078197458535
 21
283.4484808029447
 31
0.0
 70
    32
 71
     5
 42
-1.0
  3
STANDARD
100
AcDbAlignedDimension
 13
526.3119876655296
 23
307.2218200696589
 33
0.0
 14
536.1974651121102
 24
280.1865119946416
 34
0.0
 50
116.7499999999995
100
AcDbRotatedDimension
1001
ACAD
1000
DSTYLE
1002
{
1070
   140
1040
6.0
1070
    74
1070
     0
1070
   172
1070
     1
1070
    73
1070
     0
1070
   272
1070
     2
1070
    77
1070
     3
1070
   173
1070
     1
1070
   147
1040
2.0
1070
    42
1040
6.0
1070
    44
1040
3.0
1070
    43
1040
14.0
1070
   271
1070
     0
1070
   178
1070
     4
1070
   177
1070
     4
1070
   176
1070
     4
1070
   141
1040
150.0
1070
     7
1000
_OPEN
1070
     6
1000
_OPEN
1070
    41
1040
7.0
1002
}
  0
DIMENSION
  5
5870
330
1A
100
AcDbEntity
  8
SUNPOU
 48
5.0
100
AcDbDimension
  2
*D11
 10
551.2400669578426
 20
344.4128956326882
 30
0.0
 11
531.5765322200556
 21
340.1008943708728
 31
0.0
 70
    32
 71
     5
 42
-1.0
  3
STANDARD
100
AcDbAlignedDimension
 13
537.4008552680065
 23
285.221909888983
 33
0.0
 14
572.2729552680062
 24
302.6844098889831
 34
0.0
 50
26.74999999999989
100
AcDbRotatedDimension
1001
ACAD
1000
DSTYLE
1002
{
1070
   140
1040
6.0
1070
    74
1070
     0
1070
   172
1070
     1
1070
    73
1070
     0
1070
   272
1070
     2
1070
    77
1070
     3
1070
   173
1070
     1
1070
   147
1040
2.0
1070
    42
1040
6.0
1070
    44
1040
3.0
1070
    43
1040
14.0
1070
   271
1070
     0
1070
   178
1070
     4
1070
   177
1070
     4
1070
   176
1070
     4
1070
   141
1040
150.0
1070
     7
1000
_OPEN
1070
     6
1000
_OPEN
1070
    41
1040
7.0
1002
}
  0
LINE
  5
5871
330
1A
100
AcDbEntity
  8
SEIHIN
  6
Continuous
 62
     3
 48
5.0
100
AcDbLine
 10
584.9620552680063
 20
295.211509888983
 30
0.0
 11
583.4113552680063
 21
266.0080098889831
 31
0.0
  0
ARC
  5
5872
330
1A
100
AcDbEntity
  8
SEIHIN
  6
Continuous
 62
     3
 48
5.0
100
AcDbCircle
 10
565.5084552680063
 20
294.9761098889827
 30
0.0
 40
1.500021999999999
100
AcDbArc
 50
206.6009219999994
 51
26.5992169999997
  0
LINE
  5
5873
330
1A
100
AcDbEntity
  8
CENTER_L
  6
CENTER
 62
     1
 48
5.0
100
AcDbLine
 10
578.9060651121102
 20
289.4388119946419
 30
0.0
 11
572.3179651121097
 21
302.595111994642
 31
0.0
  0
LINE
  5
5874
330
1A
100
AcDbEntity
  8
CENTER_L
  6
CENTER
 62
     1
 48
5.0
100
AcDbLine
 10
580.63046511211
 20
295.726511994642
 30
0.0
 11
572.6118651121102
 21
291.7111119946418
 31
0.0
  0
ARC
  5
5875
330
1A
100
AcDbEntity
  8
SEIHIN
  6
Continuous
 62
     3
 48
5.0
100
AcDbCircle
 10
576.7344651121099
 20
293.7755119946414
 30
0.0
 40
3.250043
100
AcDbArc
 50
139.2197269999993
 51
93.98036099999969
  0
LINE
  5
5876
330
1A
100
AcDbEntity
  8
SEIHIN
  6
Continuous
 62
     3
 48
5.0
100
AcDbLine
 10
535.7835552680061
 20
270.5848098889831
 30
0.0
 11
523.6940552680065
 21
294.7271098889832
 31
0.0
  0
LINE
  5
5877
330
1A
100
AcDbEntity
  8
CENTER_L
  6
CENTER
 62
     1
 48
5.0
100
AcDbLine
 10
541.8088552680061
 20
319.9699098889831
 30
0.0
 11
576.0466552680064
 21
251.5981098889831
 31
0.0
  0
LINE
  5
5878
330
1A
100
AcDbEntity
  8
SEIHIN
  6
Continuous
 62
     3
 48
5.0
100
AcDbLine
 10
564.1672552680063
 20
294.304409888983
 30
0.0
 11
551.4061552680064
 21
319.7879098889831
 31
0.0
  0
LINE
  5
5879
330
1A
100
AcDbEntity
  8
SEIHIN
  6
Continuous
 62
     3
 48
5.0
100
AcDbLine
 10
533.5229552680062
 20
310.8327098889831
 30
0.0
 11
546.2840552680063
 21
285.3493098889833
 31
0.0
  0
LINE
  5
587A
330
1A
100
AcDbEntity
  8
SEIHIN
  6
Continuous
 62
     3
 48
5.0
100
AcDbLine
 10
548.9664552680063
 20
286.6926098889831
 30
0.0
 11
536.2054552680064
 21
312.1760098889834
 31
0.0
  0
LINE
  5
587B
330
1A
100
AcDbEntity
  8
SEIHIN
  6
Continuous
 62
     3
 48
5.0
100
AcDbLine
 10
547.3824552680063
 20
317.7729098889831
 30
0.0
 11
564.8449552680066
 21
282.900909888983
 31
0.0
  0
LINE
  5
587C
330
1A
100
AcDbEntity
  8
SEIHIN
  6
Continuous
 62
     3
 48
5.0
100
AcDbLine
 10
540.2291552680066
 20
314.1909098889831
 30
0.0
 11
557.6916552680061
 21
279.3188098889829
 31
0.0
  0
DIMENSION
  5
587D
330
1A
100
AcDbEntity
  8
SUNPOU
 48
5.0
100
AcDbDimension
  2
*D12
 10
540.0747916144757
 20
235.7122963666247
 30
0.0
 11
554.4418520343548
 21
218.3172518167668
 31
0.0
 70
    32
 71
     5
 42
-1.0
  3
STANDARD
100
AcDbAlignedDimension
 13
568.6737552680066
 23
258.5365098889832
 33
0.0
 14
575.1488185520553
 24
253.3910613162265
 34
0.0
 50
116.7499999999995
100
AcDbRotatedDimension
1001
ACAD
1000
DSTYLE
1002
{
1070
   140
1040
6.0
1070
    74
1070
     0
1070
   172
1070
     1
1070
    73
1070
     0
1070
   272
1070
     2
1070
    77
1070
     3
1070
   173
1070
     1
1070
   147
1040
2.0
1070
    42
1040
6.0
1070
    44
1040
3.0
1070
    43
1040
14.0
1070
   271
1070
     1
1070
   178
1070
     4
1070
   177
1070
     4
1070
   176
1070
     4
1070
   141
1040
150.0
1070
     7
1000
_OPEN
1070
     6
1000
_OPEN
1070
    41
1040
7.0
1002
}
  0
ARC
  5
587E
330
1A
100
AcDbEntity
  8
SEIHIN
  6
Continuous
 62
     3
 48
5.0
100
AcDbCircle
 10
561.2683552680063
 20
281.1099098889828
 30
0.0
 40
4.000035999999999
100
AcDbArc
 50
206.6002829999999
 51
296.5996429999995
  0
ARC
  5
587F
330
1A
100
AcDbEntity
  8
SEIHIN
  6
Continuous
 62
     3
 48
5.0
100
AcDbCircle
 10
568.4323552680064
 20
266.8034098889827
 30
0.0
 40
15.000007
100
AcDbArc
 50
236.2392709999995
 51
296.6000699999995
  0
LINE
  5
5880
330
1A
100
AcDbEntity
  8
SUNPOU
  6
Continuous
 62
     4
 48
5.0
100
AcDbLine
 10
465.2257959837605
 20
124.804529685105
 30
0.0
 11
435.6884314205326
 21
183.7753382628968
 31
0.0
  0
LINE
  5
5881
330
1A
100
AcDbEntity
  8
SUNPOU
 48
5.0
100
AcDbLine
 10
455.2081736124262
 20
124.804529685105
 30
0.0
 11
465.2257959837605
 21
124.804529685105
 31
0.0
  0
TEXT
  5
5882
330
1A
100
AcDbEntity
  8
SUNPOU
 48
5.0
100
AcDbText
 10
444.9511282494482
 20
130.0198641302752
 30
0.0
 40
6.0
  1
10
100
AcDbText
  0
LINE
  5
5883
330
1A
100
AcDbEntity
  8
SUNPOU
 48
5.0
100
AcDbLine
 10
455.2081736124262
 20
144.804529685105
 30
0.0
 11
455.2081736124262
 21
124.804529685105
 31
0.0
  0
TEXT
  5
5884
330
1A
100
AcDbEntity
  8
SUNPOU
 48
5.0
100
AcDbText
 10
458.2251724284251
 20
115.6739605357688
 30
0.0
 40
6.0
  1
5
100
AcDbText
  0
LINE
  5
5885
330
1A
100
AcDbEntity
  8
CENTER_L
  6
CENTER
 62
     1
 48
5.0
100
AcDbLine
 10
437.7048429362542
 20
192.9525429666901
 30
0.0
 11
447.5274429362542
 21
197.8713429666901
 31
0.0
  0
LINE
  5
5886
330
1A
100
AcDbEntity
  8
SEIHIN
  6
PHANTOM
 62
     6
 48
5.0
100
AcDbLine
 10
447.7687429362542
 20
189.6044429666901
 30
0.0
 11
446.4277429362542
 21
188.9328429666901
 31
0.0
  0
LINE
  5
5887
330
1A
100
AcDbEntity
  8
SEIHIN
  6
Continuous
 62
     3
 48
5.0
100
AcDbLine
 10
432.7687429362542
 20
189.6044429666901
 30
0.0
 11
431.4277429362542
 21
188.9328429666901
 31
0.0
  0
ARC
  5
5888
330
1A
100
AcDbEntity
  8
SEIHIN
  6
PHANTOM
 62
     6
 48
5.0
100
AcDbCircle
 10
433.6664429362541
 20
214.4163429666901
 30
0.0
 40
3.000020999999999
100
AcDbArc
 50
206.6000689999998
 51
296.5983619999996
  0
LINE
  5
5889
330
1A
100
AcDbEntity
  8
SEIHIN
  6
PHANTOM
 62
     6
 48
5.0
100
AcDbLine
 10
432.9928429362541
 20
219.1115429666901
 30
0.0
 11
431.6518429362542
 21
218.4400429666901
 31
0.0
  0
LINE
  5
588A
330
1A
100
AcDbEntity
  8
SEIHIN
  6
Continuous
 62
     3
 48
5.0
100
AcDbLine
 10
535.7835552680061
 20
270.5848098889831
 30
0.0
 11
560.0964552680063
 21
254.3329098889833
 31
0.0
  0
LINE
  5
588B
330
1A
100
AcDbEntity
  8
CENTER_L
  6
CENTER
 62
     1
 48
5.0
100
AcDbLine
 10
537.7992651121102
 20
274.2784119946419
 30
0.0
 11
545.9849651121102
 21
278.377411994642
 31
0.0
  0
ARC
  5
588C
330
1A
100
AcDbEntity
  8
SEIHIN
  6
Continuous
 62
     3
 48
5.0
100
AcDbCircle
 10
539.1758651121103
 20
281.6780119946418
 30
0.0
 40
2.250035
100
AcDbArc
 50
330.347345
 51
262.8487680000001
  0
LINE
  5
588D
330
1A
100
AcDbEntity
  8
CENTER_L
  6
CENTER
 62
     1
 48
5.0
100
AcDbLine
 10
544.0339651121101
 20
271.976411994642
 30
0.0
 11
537.4458651121103
 21
285.1326119946419
 31
0.0
  0
LINE
  5
588E
330
1A
100
AcDbEntity
  8
CENTER_L
  6
CENTER
 62
     1
 48
5.0
100
AcDbLine
 10
536.1974651121102
 20
280.1865119946416
 30
0.0
 11
542.3550651121099
 21
283.2700119946419
 31
0.0
  0
LINE
  5
588F
330
1A
100
AcDbEntity
  8
SEIHIN
  6
Continuous
 62
     3
 48
5.0
100
AcDbLine
 10
539.4014651121102
 20
278.435811994642
 30
0.0
 11
538.8957651121101
 21
279.445511994642
 31
0.0
  0
LINE
  5
5890
330
1A
100
AcDbEntity
  8
SEIHIN
  6
Continuous
 62
     3
 48
5.0
100
AcDbLine
 10
541.6367651121099
 20
279.555211994642
 30
0.0
 11
541.1312651121102
 21
280.5648119946421
 31
0.0
  0
ARC
  5
5891
330
1A
100
AcDbEntity
  8
SEIHIN
  6
Continuous
 62
     3
 48
5.0
100
AcDbCircle
 10
541.86236511211
 20
276.3130119946417
 30
0.0
 40
3.249922
100
AcDbArc
 50
139.2199109999997
 51
93.98048399999935
  0
ARC
  5
5892
330
1A
100
AcDbEntity
  8
SEIHIN
  6
Continuous
 62
     3
 48
5.0
100
AcDbCircle
 10
547.6252552680062
 20
286.0209098889828
 30
0.0
 40
1.499999
100
AcDbArc
 50
206.5992169999996
 51
26.59750699999964
  0
MTEXT
  5
5893
330
1A
100
AcDbEntity
  8
SUNPOU
  6
Continuous
 62
     4
100
AcDbMText
 10
605.3384144335123
 20
274.3354740186455
 30
0.0
 40
6.0
 41
0.0
 71
     7
 72
     5
  1
2-φ6.5
 73
     1
 44
1.0
  0
LEADER
  5
5894
330
1A
100
AcDbEntity
  8
SUNPOU
  6
Continuous
 62
     4
100
AcDbLeader
  3
STANDARD
 74
     0
 40
6.0
 41
31.19999999999999
 76
     3
 10
579.8861427679932
 20
292.9819709085879
 30
0.0
 10
601.5282289322394
 20
272.3354740186455
 30
0.0
 10
603.3384144335123
 20
272.3354740186455
 30
0.0
1001
ACAD
1000
DSTYLE
1002
{
1070
     6
1000
OPEN
1070
    41
1040
7.0
1070
    42
1040
6.0
1070
    43
1040
14.0
1070
    44
1040
3.0
1070
    73
1070
     0
1070
    74
1070
     0
1070
    77
1070
     3
1070
   140
1040
6.0
1070
   141
1040
150.0
1070
   147
1040
2.0
1070
   172
1070
     1
1070
   173
1070
     1
1070
   176
1070
     4
1070
   177
1070
     4
1070
   178
1070
     4
1070
   271
1070
     0
1070
   272
1070
     2
1070
   341
1005
6D
1070
   343
1005
6D
1070
   344
1005
6D
1002
}
  0
ARC
  5
5895
330
1A
100
AcDbEntity
  8
SEIHIN
  6
Continuous
 62
     3
 48
5.0
100
AcDbCircle
 10
568.4324552680063
 20
266.8034098889827
 30
0.0
 40
15.00002099999999
100
AcDbArc
 50
296.5995570000004
 51
356.9603709999994
  0
CIRCLE
  5
5896
330
1A
100
AcDbEntity
  8
SEIHIN
  6
Continuous
 62
     3
 48
5.0
100
AcDbCircle
 10
571.7905552680063
 20
260.0972098889828
 30
0.0
 40
2.1
  0
CIRCLE
  5
5897
330
1A
100
AcDbEntity
  8
SEIHIN
  6
Continuous
 62
     3
 48
5.0
100
AcDbCircle
 10
571.7905552680063
 20
260.0972098889828
 30
0.0
 40
2.1
  0
LINE
  5
5898
330
1A
100
AcDbEntity
  8
CENTER_L
  6
CENTER
 62
     1
 48
5.0
100
AcDbLine
 10
575.1528552680063
 20
261.7809098889832
 30
0.0
 11
568.6737552680066
 21
258.5365098889832
 31
0.0
  0
ARC
  5
5899
330
1A
100
AcDbEntity
  8
SEIHIN
  6
Continuous
 62
     3
 48
5.0
100
AcDbCircle
 10
561.2683552680063
 20
281.1099098889828
 30
0.0
 40
3.999969
100
AcDbArc
 50
296.5996429999995
 51
26.59964300000065
  0
DIMENSION
  5
589A
330
1A
100
AcDbEntity
  8
SUNPOU
 48
5.0
100
AcDbDimension
  2
*D13
 10
610.0189836562083
 20
310.5395447975978
 30
0.0
 11
606.6949264499008
 21
328.2430344465743
 31
0.0
 70
    32
 71
     5
 42
-1.0
  3
STANDARD
100
AcDbAlignedDimension
 13
561.6889552680063
 23
324.9371098889831
 33
0.0
 14
580.63046511211
 24
295.726511994642
 34
0.0
 50
116.7499999999995
100
AcDbRotatedDimension
1001
ACAD
1000
DSTYLE
1002
{
1070
   140
1040
6.0
1070
    74
1070
     0
1070
   172
1070
     1
1070
    73
1070
     0
1070
   272
1070
     2
1070
    77
1070
     3
1070
   173
1070
     1
1070
   147
1040
2.0
1070
    42
1040
6.0
1070
    44
1040
3.0
1070
    43
1040
14.0
1070
   271
1070
     0
1070
   178
1070
     4
1070
   177
1070
     4
1070
   176
1070
     4
1070
   141
1040
150.0
1070
     7
1000
_OPEN
1070
     6
1000
_OPEN
1070
    41
1040
7.0
1002
}
  0
DIMENSION
  5
589B
330
1A
100
AcDbEntity
  8
SUNPOU
 48
5.0
100
AcDbDimension
  2
*D14
 10
550.4660790342601
 20
363.8075424162377
 30
0.0
 11
523.6587335362458
 21
355.8947641036648
 31
0.0
 70
    32
 71
     5
 42
-1.0
  3
STANDARD
100
AcDbAlignedDimension
 13
523.6940552680065
 23
294.7271098889832
 33
0.0
 14
572.8726641514834
 24
319.3536921489229
 34
0.0
 50
26.74999999999989
100
AcDbRotatedDimension
1001
ACAD
1000
DSTYLE
1002
{
1070
   140
1040
6.0
1070
    74
1070
     0
1070
   172
1070
     1
1070
    73
1070
     0
1070
   272
1070
     2
1070
    77
1070
     3
1070
   173
1070
     1
1070
   147
1040
2.0
1070
    42
1040
6.0
1070
    44
1040
3.0
1070
    43
1040
14.0
1070
   271
1070
     0
1070
   178
1070
     4
1070
   177
1070
     4
1070
   176
1070
     4
1070
   141
1040
150.0
1070
     7
1000
_OPEN
1070
     6
1000
_OPEN
1070
    41
1040
7.0
1002
}
  0
ARC
  5
589C
330
1A
100
AcDbEntity
  8
SEIHIN
  6
Continuous
 62
     3
 48
5.0
100
AcDbCircle
 10
562.1367552680064
 20
324.0429098889829
 30
0.0
 40
1.000014999999999
100
AcDbArc
 50
26.603488
 51
116.6009219999998
  0
LINE
  5
589D
330
1A
100
AcDbEntity
  8
SEIHIN
  6
Continuous
 62
     3
 48
5.0
100
AcDbLine
 10
554.0886552680064
 20
321.1311098889831
 30
0.0
 11
566.8496552680063
 21
295.6477098889832
 31
0.0
  0
MTEXT
  5
589E
330
1A
100
AcDbEntity
  8
SUNPOU
  6
Continuous
 62
     4
100
AcDbMText
 10
501.6055694006968
 20
316.1612721756761
 30
0.0
 40
6.0
 41
0.0
 71
     9
 72
     5
  1
3-φ4.2
 73
     1
 44
1.0
  0
LINE
  5
589F
330
1A
100
AcDbEntity
  8
SEIHIN
  6
Continuous
 62
     3
 48
5.0
100
AcDbLine
 10
543.8057552680062
 20
315.981909888983
 30
0.0
 11
525.9225552680066
 21
307.0268098889834
 31
0.0
  0
ARC
  5
58A0
330
1A
100
AcDbEntity
  8
SEIHIN
  6
Continuous
 62
     3
 48
5.0
100
AcDbCircle
 10
526.3704552680064
 20
306.1326098889828
 30
0.0
 40
1.000037
100
AcDbArc
 50
116.6009219999998
 51
206.5957990000001
  0
LINE
  5
58A1
330
1A
100
AcDbEntity
  8
SEIHIN
  6
Continuous
 62
     3
 48
5.0
100
AcDbLine
 10
527.2672552680062
 20
302.1082098889833
 30
0.0
 11
523.6940552680065
 21
294.7271098889832
 31
0.0
  0
LINE
  5
58A2
330
1A
100
AcDbEntity
  8
SEIHIN
  6
Continuous
 62
     3
 48
5.0
100
AcDbLine
 10
525.4762552680062
 20
305.684909888983
 30
0.0
 11
527.2672552680062
 21
302.1082098889833
 31
0.0
  0
LINE
  5
58A3
330
1A
100
AcDbEntity
  8
SEIHIN
  6
Continuous
 62
     3
 48
5.0
100
AcDbLine
 10
543.8058552680066
 20
315.981909888983
 30
0.0
 11
561.6889552680063
 21
324.9371098889831
 31
0.0
  0
ARC
  5
58A4
330
1A
100
AcDbEntity
  8
SEIHIN
  6
Continuous
 62
     3
 48
5.0
100
AcDbCircle
 10
543.3580552680065
 20
316.8761098889829
 30
0.0
 40
4.000030000000001
100
AcDbArc
 50
221.0782629999999
 51
12.12236900000029
  0
ARC
  5
58A5
330
1A
100
AcDbEntity
  8
SEIHIN
  6
Continuous
 62
     3
 48
5.0
100
AcDbCircle
 10
535.0880552680063
 20
311.057209888983
 30
0.0
 40
1.500021999999999
100
AcDbArc
 50
206.5992169999996
 51
26.6009219999995
  0
ARC
  5
58A6
330
1A
100
AcDbEntity
  8
SEIHIN
  6
Continuous
 62
     3
 48
5.0
100
AcDbCircle
 10
552.9712552680064
 20
320.0124098889829
 30
0.0
 40
1.499954999999999
100
AcDbArc
 50
206.5992169999996
 51
26.5992169999997
  0
LINE
  5
58A7
330
1A
100
AcDbEntity
  8
SEIHIN
  6
Continuous
 62
     3
 48
5.0
100
AcDbLine
 10
584.9620552680063
 20
295.211509888983
 30
0.0
 11
572.8726552680065
 21
319.353709888983
 31
0.0
  0
LINE
  5
58A8
330
1A
100
AcDbEntity
  8
SEIHIN
  6
Continuous
 62
     3
 48
5.0
100
AcDbLine
 10
576.5088651121102
 20
297.017711994642
 30
0.0
 11
576.0032651121099
 21
298.0273119946419
 31
0.0
  0
LINE
  5
58A9
330
1A
100
AcDbEntity
  8
SEIHIN
  6
Continuous
 62
     3
 48
5.0
100
AcDbLine
 10
574.2735651121102
 20
295.898311994642
 30
0.0
 11
573.7678651121103
 21
296.9079119946419
 31
0.0
  0
LINE
  5
58AA
330
1A
100
AcDbEntity
  8
CENTER_L
  6
CENTER
 62
     1
 48
5.0
100
AcDbLine
 10
577.06046511211
 20
300.649011994642
 30
0.0
 11
570.8686651121102
 21
297.5484119946418
 31
0.0
  0
ARC
  5
58AB
330
1A
100
AcDbEntity
  8
SEIHIN
  6
Continuous
 62
     3
 48
5.0
100
AcDbCircle
 10
574.0479651121099
 20
299.1404119946416
 30
0.0
 40
2.25001
100
AcDbArc
 50
330.3495579999998
 51
262.8487680000001
  0
LINE
  5
58AC
330
1A
100
AcDbEntity
  8
SEIHIN
  6
Continuous
 62
     3
 48
5.0
100
AcDbLine
 10
564.8218552680065
 20
320.9141098889832
 30
0.0
 11
572.8726552680065
 21
319.353709888983
 31
0.0
  0
LINE
  5
58AD
330
1A
100
AcDbEntity
  8
SEIHIN
  6
Continuous
 62
     3
 48
5.0
100
AcDbLine
 10
563.0308552680062
 20
324.4907098889831
 30
0.0
 11
564.8218552680065
 21
320.9141098889832
 31
0.0
  0
VIEWPORT
  5
22
330
17
100
AcDbEntity
 67
     1
  8
0
100
AcDbViewport
 10
313.6808219178082
 20
286.420032064001
 30
0.0
 40
627.3616438356164
 41
572.840064128002
 68
     2
 69
     1
 12
313.6808219178082
 22
286.420032064001
 13
0.0
 23
0.0
 14
1.0
 24
1.0
 15
10.0
 25
10.0
 16
0.0
 26
0.0
 36
1.0
 17
0.0
 27
0.0
 37
0.0
 42
50.0
 43
0.0
 44
0.0
 45
572.840064128002
 50
0.0
 51
0.0
 72
   100
 90
    32768
  1

281
     0
 71
     1
 74
     0
110
0.0
120
0.0
130
0.0
111
1.0
121
0.0
131
0.0
112
0.0
122
1.0
132
0.0
 79
     0
146
0.0
  0
VIEWPORT
  5
64
330
17
100
AcDbEntity
 67
     1
  8
VIEWPORT
100
AcDbViewport
 10
210.0
 20
148.5
 30
0.0
 40
420.0
 41
297.0
 68
     1
 69
     2
 12
420.0
 22
297.0
 13
0.0
 23
0.0
 14
10.0
 24
10.0
 15
0.0
 25
0.0
 16
0.0
 26
0.0
 36
1.0
 17
0.0
 27
0.0
 37
0.0
 42
50.0
 43
0.0
 44
0.0
 45
605.8799999999998
 50
0.0
 51
0.0
 72
   100
 90
    32768
  1

281
     0
 71
     1
 74
     0
110
0.0
120
0.0
130
0.0
111
1.0
121
0.0
131
0.0
112
0.0
122
1.0
132
0.0
 79
     0
146
0.0
  0
ENDSEC
  0
SECTION
  2
OBJECTS
  0
DICTIONARY
  5
C
330
0
100
AcDbDictionary
281
     1
  3
ACAD_GROUP
350
D
  3
ACAD_LAYOUT
350
A98
  3
ACAD_MLINESTYLE
350
E
  3
ACAD_PLOTSETTINGS
350
A99
  3
ACAD_PLOTSTYLENAME
350
A96
  0
DICTIONARY
  5
D
102
{ACAD_REACTORS
330
C
102
}
330
C
100
AcDbDictionary
281
     1
  3
*A1
350
FA3
  3
*A2
350
1597
  3
*A3
350
179D
  3
*A4
350
3390
  3
*A5
350
3A0A
  0
DICTIONARY
  5
A98
102
{ACAD_REACTORS
330
C
102
}
330
C
100
AcDbDictionary
281
     1
  3
Model
350
5A9C
  3
ﾚｲｱｳﾄ1
350
5A9D
  0
DICTIONARY
  5
E
102
{ACAD_REACTORS
330
C
102
}
330
C
100
AcDbDictionary
281
     1
  3
STANDARD
350
13
  0
DICTIONARY
  5
A99
102
{ACAD_REACTORS
330
C
102
}
330
C
100
AcDbDictionary
281
     1
  0
ACDBDICTIONARYWDFLT
  5
A96
102
{ACAD_REACTORS
330
C
102
}
330
C
100
AcDbDictionary
281
     1
  3
Normal
350
A97
100
AcDbDictionaryWithDefault
340
A97
1001
ACAD
1000
TREAT_AS_HARD
1070
     0
1000
TREAT_AS_HARD
1070
     0
1000
TREAT_AS_HARD
1070
     0
1000
TREAT_AS_HARD
1070
     0
  0
GROUP
  5
FA3
102
{ACAD_REACTORS
330
D
102
}
330
D
100
AcDbGroup
300

 70
     1
 71
     1
  0
GROUP
  5
1597
102
{ACAD_REACTORS
330
D
102
}
330
D
100
AcDbGroup
300

 70
     1
 71
     1
  0
GROUP
  5
179D
102
{ACAD_REACTORS
330
D
102
}
330
D
100
AcDbGroup
300

 70
     1
 71
     1
  0
GROUP
  5
3390
102
{ACAD_REACTORS
330
D
102
}
330
D
100
AcDbGroup
300

 70
     1
 71
     1
  0
GROUP
  5
3A0A
102
{ACAD_REACTORS
330
D
102
}
330
D
100
AcDbGroup
300

 70
     1
 71
     1
  0
LAYOUT
  5
5A9C
102
{ACAD_REACTORS
330
A98
102
}
330
A98
100
AcDbPlotSettings
  1

  2
EPSON LP-9200C
  4

  6

 40
0.0
 41
0.0
 42
0.0
 43
0.0
 44
0.0
 45
0.0
 46
0.0
 47
0.0
 48
0.0
 49
0.0
140
0.0
141
0.0
142
1.0
143
1.0
 70
  1712
 72
     0
 73
     0
 74
     0
  7

 75
     0
147
1.0
148
0.0
149
0.0
100
AcDbLayout
  1
Model
 70
     1
 71
     0
 10
0.0
 20
0.0
 11
12.0
 21
9.0
 12
0.0
 22
0.0
 32
0.0
 14
0.0
 24
0.0
 34
0.0
 15
0.0
 25
0.0
 35
0.0
146
0.0
 13
0.0
 23
0.0
 33
0.0
 16
1.0
 26
0.0
 36
0.0
 17
0.0
 27
1.0
 37
0.0
 76
     0
330
1A
  0
LAYOUT
  5
5A9D
102
{ACAD_REACTORS
330
A98
102
}
330
A98
100
AcDbPlotSettings
  1

  2
EPSON LP-9200C
  4

  6

 40
0.0
 41
0.0
 42
0.0
 43
0.0
 44
0.0
 45
0.0
 46
0.0
 47
0.0
 48
0.0
 49
0.0
140
0.0
141
0.0
142
1.0
143
1.0
 70
   688
 72
     0
 73
     0
 74
     5
  7

 75
    16
147
1.0
148
0.0
149
0.0
100
AcDbLayout
  1
ﾚｲｱｳﾄ1
 70
     1
 71
     1
 10
-30.66685116754001
 20
-9.990190459854739
 11
450.6668334081172
 21
361.9494725043409
 12
0.0
 22
0.0
 32
0.0
 14
-0.0128164049386896
 24
-0.0090630292066862
 34
-0.0015258207003583
 15
420.0128183607161
 25
297.0090644122207
 35
0.0000000349246037
146
0.0
 13
0.0
 23
0.0
 33
0.0
 16
1.0
 26
0.0
 36
0.0
 17
0.0
 27
1.0
 37
0.0
 76
     0
330
17
331
64
  0
MLINESTYLE
  5
13
102
{ACAD_REACTORS
330
E
102
}
330
E
100
AcDbMlineStyle
  2
STANDARD
 70
     0
  3

 62
     0
 51
90.0
 52
90.0
 71
     2
 49
0.5
 62
   256
  6
BYLAYER
 49
-0.5
 62
   256
  6
BYLAYER
  0
ACDBPLACEHOLDER
  5
A97
102
{ACAD_REACTORS
330
A96
102
}
330
A96
  0
ENDSEC
  0
EOF
