  0
SECTION
  2
HEADER
  9
$ACADVER
  1
AC1014
  9
$ACADMAINTVER
 70
     9
  9
$DWGCODEPAGE
  3
ANSI_932
  9
$INSBASE
 10
0.0
 20
0.0
 30
0.0
  9
$EXTMIN
 10
-0.0256336331046896
 20
-0.0181266884808338
 30
-0.0000000100021362
  9
$EXTMAX
 10
797.6000995211149
 20
551.6452344430783
 30
0.0000000100021363
  9
$LIMMIN
 10
0.0
 20
0.0
  9
$LIMMAX
 10
840.0
 20
594.0
  9
$ORTHOMODE
 70
     0
  9
$REGENMODE
 70
     1
  9
$FILLMODE
 70
     1
  9
$QTEXTMODE
 70
     0
  9
$MIRRTEXT
 70
     1
  9
$DRAGMODE
 70
     2
  9
$LTSCALE
 40
2.0
  9
$OSMODE
 70
    35
  9
$ATTMODE
 70
     1
  9
$TEXTSIZE
 40
6.0
  9
$TRACEWID
 40
1.0
  9
$TEXTSTYLE
  7
STANDARD
  9
$CLAYER
  8
CENTER_L
  9
$CELTYPE
  6
BYLAYER
  9
$CECOLOR
 62
   256
  9
$CELTSCALE
 40
1.0
  9
$DELOBJ
 70
     1
  9
$DISPSILH
 70
     0
  9
$DIMSCALE
 40
1.0
  9
$DIMASZ
 40
7.0
  9
$DIMEXO
 40
6.0
  9
$DIMDLI
 40
14.0
  9
$DIMRND
 40
0.0
  9
$DIMDLE
 40
0.0
  9
$DIMEXE
 40
3.0
  9
$DIMTP
 40
0.0
  9
$DIMTM
 40
0.0
  9
$DIMTXT
 40
6.0
  9
$DIMCEN
 40
150.0
  9
$DIMTSZ
 40
0.0
  9
$DIMTOL
 70
     0
  9
$DIMLIM
 70
     0
  9
$DIMTIH
 70
     0
  9
$DIMTOH
 70
     0
  9
$DIMSE1
 70
     0
  9
$DIMSE2
 70
     0
  9
$DIMTAD
 70
     3
  9
$DIMZIN
 70
     0
  9
$DIMBLK
  1

  9
$DIMASO
 70
     1
  9
$DIMSHO
 70
     1
  9
$DIMPOST
  1

  9
$DIMAPOST
  1

  9
$DIMALT
 70
     0
  9
$DIMALTD
 70
     2
  9
$DIMALTF
 40
25.4
  9
$DIMLFAC
 40
1.0
  9
$DIMTOFL
 70
     1
  9
$DIMTVP
 40
0.0
  9
$DIMTIX
 70
     0
  9
$DIMSOXD
 70
     0
  9
$DIMSAH
 70
     1
  9
$DIMBLK1
  1
OPEN
  9
$DIMBLK2
  1
OPEN
  9
$DIMSTYLE
  2
STANDARD
  9
$DIMCLRD
 70
   256
  9
$DIMCLRE
 70
   256
  9
$DIMCLRT
 70
   256
  9
$DIMTFAC
 40
1.0
  9
$DIMGAP
 40
2.0
  9
$DIMJUST
 70
     0
  9
$DIMSD1
 70
     0
  9
$DIMSD2
 70
     0
  9
$DIMTOLJ
 70
     1
  9
$DIMTZIN
 70
     0
  9
$DIMALTZ
 70
     0
  9
$DIMALTTZ
 70
     0
  9
$DIMFIT
 70
     3
  9
$DIMUPT
 70
     0
  9
$DIMUNIT
 70
     2
  9
$DIMDEC
 70
     0
  9
$DIMTDEC
 70
     0
  9
$DIMALTU
 70
     2
  9
$DIMALTTD
 70
     2
  9
$DIMTXSTY
  7
STANDARD
  9
$DIMAUNIT
 70
     0
  9
$LUNITS
 70
     2
  9
$LUPREC
 70
     4
  9
$SKETCHINC
 40
1.0
  9
$FILLETRAD
 40
0.3
  9
$AUNITS
 70
     0
  9
$AUPREC
 70
     0
  9
$MENU
  1
.
  9
$ELEVATION
 40
0.0
  9
$PELEVATION
 40
0.0
  9
$THICKNESS
 40
0.0
  9
$LIMCHECK
 70
     0
  9
$BLIPMODE
 70
     0
  9
$CHAMFERA
 40
1.0
  9
$CHAMFERB
 40
1.0
  9
$CHAMFERC
 40
40.0
  9
$CHAMFERD
 40
0.0
  9
$SKPOLY
 70
     0
  9
$TDCREATE
 40
2451200.417325926
  9
$TDUPDATE
 40
2453802.431939375
  9
$TDINDWG
 40
0.1624932407
  9
$TDUSRTIMER
 40
0.1624932407
  9
$USRTIMER
 70
     1
  9
$ANGBASE
 50
0.0
  9
$ANGDIR
 70
     0
  9
$PDMODE
 70
     0
  9
$PDSIZE
 40
0.0
  9
$PLINEWID
 40
0.0
  9
$COORDS
 70
     1
  9
$SPLFRAME
 70
     0
  9
$SPLINETYPE
 70
     6
  9
$SPLINESEGS
 70
     8
  9
$ATTDIA
 70
     0
  9
$ATTREQ
 70
     1
  9
$HANDLING
 70
 10241
  9
$HANDSEED
  5
D15
  9
$SURFTAB1
 70
     6
  9
$SURFTAB2
 70
     6
  9
$SURFTYPE
 70
     6
  9
$SURFU
 70
     6
  9
$SURFV
 70
     6
  9
$UCSNAME
  2

  9
$UCSORG
 10
0.0
 20
0.0
 30
0.0
  9
$UCSXDIR
 10
1.0
 20
0.0
 30
0.0
  9
$UCSYDIR
 10
0.0
 20
1.0
 30
0.0
  9
$PUCSNAME
  2

  9
$PUCSORG
 10
0.0
 20
0.0
 30
0.0
  9
$PUCSXDIR
 10
1.0
 20
0.0
 30
0.0
  9
$PUCSYDIR
 10
0.0
 20
1.0
 30
0.0
  9
$USERI1
 70
     0
  9
$USERI2
 70
     0
  9
$USERI3
 70
     0
  9
$USERI4
 70
     0
  9
$USERI5
 70
     0
  9
$USERR1
 40
0.0
  9
$USERR2
 40
0.0
  9
$USERR3
 40
0.0
  9
$USERR4
 40
0.0
  9
$USERR5
 40
0.0
  9
$WORLDVIEW
 70
     1
  9
$SHADEDGE
 70
     3
  9
$SHADEDIF
 70
    70
  9
$TILEMODE
 70
     1
  9
$MAXACTVP
 70
    16
  9
$PINSBASE
 10
0.0
 20
0.0
 30
0.0
  9
$PLIMCHECK
 70
     0
  9
$PEXTMIN
 10
0.0
 20
0.0
 30
0.0
  9
$PEXTMAX
 10
420.0
 20
297.0
 30
0.0
  9
$PLIMMIN
 10
0.0
 20
0.0
  9
$PLIMMAX
 10
420.0
 20
297.0
  9
$UNITMODE
 70
     0
  9
$VISRETAIN
 70
     0
  9
$PLINEGEN
 70
     0
  9
$PSLTSCALE
 70
     1
  9
$TREEDEPTH
 70
  3020
  9
$PICKSTYLE
 70
     1
  9
$CMLSTYLE
  2
STANDARD
  9
$CMLJUST
 70
     0
  9
$CMLSCALE
 40
1.0
  9
$PROXYGRAPHICS
 70
     1
  9
$MEASUREMENT
 70
     1
  0
ENDSEC
  0
SECTION
  2
CLASSES
  0
CLASS
  1
ACDBDICTIONARYWDFLT
  2
AcDbDictionaryWithDefault
  3
AutoCAD 2000
 90
        0
280
     0
281
     0
  0
CLASS
  1
ACDBPLACEHOLDER
  2
AcDbPlaceHolder
  3
AutoCAD 2000
 90
        0
280
     0
281
     0
  0
CLASS
  1
LAYOUT
  2
AcDbLayout
  3
AutoCAD 2000
 90
        0
280
     0
281
     0
  0
CLASS
  1
LONG_TRANSACTION
  2
AcDbLongTransaction
  3
AutoCAD 2000
 90
        0
280
     0
281
     0
  0
CLASS
  1
LWPOLYLINE
  2
AcDbPolyline
  3
AutoCAD 2000
 90
        0
280
     0
281
     1
  0
CLASS
  1
HATCH
  2
AcDbHatch
  3
AutoCAD 2000
 90
        0
280
     0
281
     1
  0
CLASS
  1
XRECORD
  2
AcDbXrecord
  3
AutoCAD 2000
 90
        0
280
     0
281
     0
  0
CLASS
  1
LONG_TRANSACTION
  2
AcDbLongTransaction
  3
AutoCAD 2000
 90
        0
280
     0
281
     0
  0
CLASS
  1
LWPOLYLINE
  2
AcDbPolyline
  3
AutoCAD 2000
 90
        0
280
     0
281
     1
  0
CLASS
  1
HATCH
  2
AcDbHatch
  3
AutoCAD 2000
 90
        0
280
     0
281
     1
  0
CLASS
  1
XRECORD
  2
AcDbXrecord
  3
AutoCAD 2000
 90
        0
280
     0
281
     0
  0
CLASS
  1
LONG_TRANSACTION
  2
AcDbLongTransaction
  3
AutoCAD 2000
 90
        0
280
     0
281
     0
  0
CLASS
  1
LWPOLYLINE
  2
AcDbPolyline
  3
AutoCAD 2000
 90
        0
280
     0
281
     1
  0
CLASS
  1
HATCH
  2
AcDbHatch
  3
AutoCAD 2000
 90
        0
280
     0
281
     1
  0
CLASS
  1
XRECORD
  2
AcDbXrecord
  3
AutoCAD 2000
 90
        0
280
     0
281
     0
  0
ENDSEC
  0
SECTION
  2
TABLES
  0
TABLE
  2
VPORT
  5
8
330
0
100
AcDbSymbolTable
 70
     2
  0
VPORT
  5
CF1
330
8
100
AcDbSymbolTableRecord
100
AcDbViewportTableRecord
  2
*ACTIVE
 70
     0
 10
0.0
 20
0.0
 11
1.0
 21
1.0
 12
421.1633256928831
 22
286.9626337642753
 13
0.0
 23
0.0
 14
5.0
 24
5.0
 15
0.0
 25
0.0
 16
0.0
 26
0.0
 36
1.0
 17
0.0
 27
0.0
 37
0.0
 40
660.2484376308981
 41
1.795454545454545
 42
50.0
 43
0.0
 44
0.0
 50
0.0
 51
0.0
 71
     0
 72
   100
 73
     1
 74
     0
 75
     0
 76
     0
 77
     0
 78
     0
  0
ENDTAB
  0
TABLE
  2
LTYPE
  5
5
330
0
100
AcDbSymbolTable
 70
     3
  0
LTYPE
  5
14
330
5
100
AcDbSymbolTableRecord
100
AcDbLinetypeTableRecord
  2
BYBLOCK
 70
     0
  3

 72
    65
 73
     0
 40
0.0
  0
LTYPE
  5
15
330
5
100
AcDbSymbolTableRecord
100
AcDbLinetypeTableRecord
  2
BYLAYER
 70
     0
  3

 72
    65
 73
     0
 40
0.0
  0
LTYPE
  5
16
330
5
100
AcDbSymbolTableRecord
100
AcDbLinetypeTableRecord
  2
CONTINUOUS
 70
     0
  3
Solid line
 72
    65
 73
     0
 40
0.0
  0
LTYPE
  5
115
330
5
100
AcDbSymbolTableRecord
100
AcDbLinetypeTableRecord
  2
PHANTOM
 70
     0
  3
______  __  __  ______  __  __  ______  __  __ 
 72
    65
 73
     6
 40
2.5
 49
1.25
 74
     0
 49
-0.25
 74
     0
 49
0.25
 74
     0
 49
-0.25
 74
     0
 49
0.25
 74
     0
 49
-0.25
 74
     0
  0
LTYPE
  5
135
330
5
100
AcDbSymbolTableRecord
100
AcDbLinetypeTableRecord
  2
CENTER
 70
     0
  3
____ _ ____ _ ____ _ ____ _ ____ _ ____ _ ____ 
 72
    65
 73
     4
 40
2.0
 49
1.25
 74
     0
 49
-0.25
 74
     0
 49
0.25
 74
     0
 49
-0.25
 74
     0
  0
ENDTAB
  0
TABLE
  2
LAYER
  5
2
330
0
100
AcDbSymbolTable
 70
     9
  0
LAYER
  5
F
330
2
100
AcDbSymbolTableRecord
100
AcDbLayerTableRecord
  2
0
 70
     0
 62
     7
  6
CONTINUOUS
  0
LAYER
  5
62
330
2
100
AcDbSymbolTableRecord
100
AcDbLayerTableRecord
  2
VIEWPORT
 70
     0
 62
     7
  6
CONTINUOUS
  0
LAYER
  5
143
330
2
100
AcDbSymbolTableRecord
100
AcDbLayerTableRecord
  2
SEIHIN
 70
     0
 62
     3
  6
CONTINUOUS
  0
LAYER
  5
144
330
2
100
AcDbSymbolTableRecord
100
AcDbLayerTableRecord
  2
SUNPOU
 70
     0
 62
     4
  6
CONTINUOUS
  0
LAYER
  5
145
330
2
100
AcDbSymbolTableRecord
100
AcDbLayerTableRecord
  2
CENTER_L
 70
     0
 62
     1
  6
CENTER
  0
LAYER
  5
146
330
2
100
AcDbSymbolTableRecord
100
AcDbLayerTableRecord
  2
NOKITOI
 70
     0
 62
     8
  6
PHANTOM
  0
LAYER
  5
67D
330
2
100
AcDbSymbolTableRecord
100
AcDbLayerTableRecord
  2
DEFPOINTS
 70
     0
 62
     7
  6
CONTINUOUS
  0
LAYER
  5
ADF
330
2
100
AcDbSymbolTableRecord
100
AcDbLayerTableRecord
  2
ZUWAKU
 70
     0
 62
     7
  6
CONTINUOUS
  0
LAYER
  5
AE0
330
2
100
AcDbSymbolTableRecord
100
AcDbLayerTableRecord
  2
MOJI
 70
     0
 62
     2
  6
CONTINUOUS
  0
ENDTAB
  0
TABLE
  2
STYLE
  5
3
330
0
100
AcDbSymbolTable
 70
     2
  0
STYLE
  5
10
330
3
100
AcDbSymbolTableRecord
100
AcDbTextStyleTableRecord
  2
STANDARD
 70
     0
 40
0.0
 41
1.0
 50
0.0
 71
     0
 42
6.0
  3
TXT
  4
bigfont.shx
  0
STYLE
  5
AE1
330
3
100
AcDbSymbolTableRecord
100
AcDbTextStyleTableRecord
  2
ｽﾀｲﾙ1
 70
     0
 40
0.0
 41
1.0
 50
0.0
 71
     0
 42
2.5
  3
MS PGothic.ttf
  4

1001
ACAD
1000
MS PGothic
1071
    32818
  0
ENDTAB
  0
TABLE
  2
VIEW
  5
6
330
0
100
AcDbSymbolTable
 70
     0
  0
ENDTAB
  0
TABLE
  2
UCS
  5
7
330
0
100
AcDbSymbolTable
 70
     0
  0
ENDTAB
  0
TABLE
  2
APPID
  5
9
330
0
100
AcDbSymbolTable
 70
     1
  0
APPID
  5
11
330
9
100
AcDbSymbolTableRecord
100
AcDbRegAppTableRecord
  2
ACAD
 70
     0
  0
ENDTAB
  0
TABLE
  2
DIMSTYLE
  5
A
330
0
100
AcDbSymbolTable
 70
     1
  0
DIMSTYLE
105
1D
102
{ACAD_REACTORS
330
6F7
330
704
330
711
330
74A
330
75B
330
76A
330
84F
330
86B
330
878
330
888
330
897
330
8A6
330
8B3
330
8C0
330
8CD
330
92E
102
}
330
A
100
AcDbSymbolTableRecord
100
AcDbDimStyleTableRecord
  2
STANDARD
 70
     0
  3

  4

  5

  6

  7

 40
1.0
 41
0.18
 42
0.0625
 43
0.38
 44
0.18
 45
0.0
 46
0.0
 47
0.0
 48
0.0
140
0.18
141
0.09
142
0.0
143
25.4
144
1.0
145
0.0
146
1.0
147
0.09
 71
     0
 72
     0
 73
     1
 74
     1
 75
     0
 76
     0
 77
     0
 78
     0
170
     0
171
     2
172
     0
173
     0
174
     0
175
     0
176
     0
177
     0
178
     0
270
     2
271
     4
272
     4
273
     2
274
     2
340
10
275
     0
280
     0
281
     0
282
     0
283
     1
284
     0
285
     0
286
     0
287
     3
288
     0
  0
ENDTAB
  0
TABLE
  2
BLOCK_RECORD
  5
1
330
0
100
AcDbSymbolTable
 70
    17
  0
BLOCK_RECORD
  5
1A
102
{ACAD_XDICTIONARY
360
9FD
102
}
330
1
100
AcDbSymbolTableRecord
100
AcDbBlockTableRecord
  2
*MODEL_SPACE
  0
BLOCK_RECORD
  5
17
102
{ACAD_XDICTIONARY
360
9FB
102
}
330
1
100
AcDbSymbolTableRecord
100
AcDbBlockTableRecord
  2
*PAPER_SPACE
  0
BLOCK_RECORD
  5
6D
330
1
100
AcDbSymbolTableRecord
100
AcDbBlockTableRecord
  2
_OPEN
  0
BLOCK_RECORD
  5
6EB
330
1
100
AcDbSymbolTableRecord
100
AcDbBlockTableRecord
  2
*D1
  0
BLOCK_RECORD
  5
6F8
330
1
100
AcDbSymbolTableRecord
100
AcDbBlockTableRecord
  2
*D2
  0
BLOCK_RECORD
  5
705
330
1
100
AcDbSymbolTableRecord
100
AcDbBlockTableRecord
  2
*D3
  0
BLOCK_RECORD
  5
73C
330
1
100
AcDbSymbolTableRecord
100
AcDbBlockTableRecord
  2
*D4
  0
BLOCK_RECORD
  5
74D
330
1
100
AcDbSymbolTableRecord
100
AcDbBlockTableRecord
  2
*D5
  0
BLOCK_RECORD
  5
75C
330
1
100
AcDbSymbolTableRecord
100
AcDbBlockTableRecord
  2
*D6
  0
BLOCK_RECORD
  5
843
330
1
100
AcDbSymbolTableRecord
100
AcDbBlockTableRecord
  2
*D7
  0
BLOCK_RECORD
  5
85D
330
1
100
AcDbSymbolTableRecord
100
AcDbBlockTableRecord
  2
*D8
  0
BLOCK_RECORD
  5
86C
330
1
100
AcDbSymbolTableRecord
100
AcDbBlockTableRecord
  2
*D9
  0
BLOCK_RECORD
  5
87A
330
1
100
AcDbSymbolTableRecord
100
AcDbBlockTableRecord
  2
*D10
  0
BLOCK_RECORD
  5
889
330
1
100
AcDbSymbolTableRecord
100
AcDbBlockTableRecord
  2
*D11
  0
BLOCK_RECORD
  5
898
330
1
100
AcDbSymbolTableRecord
100
AcDbBlockTableRecord
  2
*D12
  0
BLOCK_RECORD
  5
8A7
330
1
100
AcDbSymbolTableRecord
100
AcDbBlockTableRecord
  2
*D13
  0
BLOCK_RECORD
  5
8B4
330
1
100
AcDbSymbolTableRecord
100
AcDbBlockTableRecord
  2
*D14
  0
BLOCK_RECORD
  5
8C1
330
1
100
AcDbSymbolTableRecord
100
AcDbBlockTableRecord
  2
*D15
  0
BLOCK_RECORD
  5
922
330
1
100
AcDbSymbolTableRecord
100
AcDbBlockTableRecord
  2
*D16
  0
ENDTAB
  0
ENDSEC
  0
SECTION
  2
BLOCKS
  0
BLOCK
  5
1B
330
1A
100
AcDbEntity
  8
0
100
AcDbBlockBegin
  2
*MODEL_SPACE
 70
     0
 10
0.0
 20
0.0
 30
0.0
  3
*MODEL_SPACE
  1

  0
ENDBLK
  5
1C
330
1A
100
AcDbEntity
  8
0
100
AcDbBlockEnd
  0
BLOCK
  5
18
330
17
100
AcDbEntity
 67
     1
  8
0
100
AcDbBlockBegin
  2
*PAPER_SPACE
 70
     0
 10
0.0
 20
0.0
 30
0.0
  3
*PAPER_SPACE
  1

  0
ENDBLK
  5
19
330
17
100
AcDbEntity
 67
     1
  8
0
100
AcDbBlockEnd
  0
BLOCK
  5
6E
330
6D
100
AcDbEntity
  8
0
100
AcDbBlockBegin
  2
_OPEN
 70
     0
 10
0.0
 20
0.0
 30
0.0
  3
_OPEN
  1

  0
LINE
  5
6F
330
6D
100
AcDbEntity
  8
0
  6
BYBLOCK
 62
     0
100
AcDbLine
 10
-1.0
 20
0.1666666666666666
 30
0.0
 11
0.0
 21
0.0
 31
0.0
  0
LINE
  5
70
330
6D
100
AcDbEntity
  8
0
  6
BYBLOCK
 62
     0
100
AcDbLine
 10
0.0
 20
0.0
 30
0.0
 11
-1.0
 21
-0.1666666666666666
 31
0.0
  0
LINE
  5
71
330
6D
100
AcDbEntity
  8
0
  6
BYBLOCK
 62
     0
100
AcDbLine
 10
0.0
 20
0.0
 30
0.0
 11
-1.0
 21
0.0
 31
0.0
  0
ENDBLK
  5
72
330
6D
100
AcDbEntity
  8
0
100
AcDbBlockEnd
  0
BLOCK
  5
6EC
330
6EB
100
AcDbEntity
  8
0
100
AcDbBlockBegin
  2
*D1
 70
     1
 10
0.0
 20
0.0
 30
0.0
  3
*D1
  1

  0
LINE
  5
CA6
330
6EB
100
AcDbEntity
  8
SUNPOU
 62
     4
100
AcDbLine
 10
400.4753575913241
 20
300.3107301151031
 30
0.0
 11
412.3842541103453
 21
305.0739735649271
 31
0.0
  0
LINE
  5
CA7
330
6EB
100
AcDbEntity
  8
SUNPOU
 62
     4
100
AcDbLine
 10
413.4732575913241
 20
267.813830115103
 30
0.0
 11
425.3821541103453
 21
272.577073564927
 31
0.0
  0
LINE
  5
CA8
330
6EB
100
AcDbEntity
  8
SUNPOU
 62
     4
100
AcDbLine
 10
412.1983850772038
 20
297.460468938113
 30
0.0
 11
419.9971121620603
 21
277.9623612281081
 31
0.0
  0
INSERT
  5
CA9
330
6EB
100
AcDbEntity
  8
SUNPOU
 62
     4
100
AcDbBlockReference
  2
_OPEN
 10
409.5987986196321
 20
303.9598650831106
 30
0.0
 41
7.0
 42
7.0
 43
7.0
 50
111.8001023372658
  0
INSERT
  5
CAA
330
6EB
100
AcDbEntity
  8
SUNPOU
 62
     4
100
AcDbBlockReference
  2
_OPEN
 10
422.596698619632
 20
271.4629650831105
 30
0.0
 41
7.0
 42
7.0
 43
7.0
 50
291.8001023372658
  0
MTEXT
  5
CAB
330
6EB
100
AcDbEntity
  8
SUNPOU
 62
     4
100
AcDbMText
 10
420.7401744374875
 20
289.5682625528046
 30
0.0
 40
6.0
 41
0.0
 71
     5
 72
     1
  1
\A1;35
 11
0.3713694939388239
 21
-0.9284851635710838
 31
0.0
1001
ACAD
1000
MTEXTBEGIN
1070
    73
1070
     1
1070
    44
1040
1.0
1070
    74
1070
     0
1000
MTEXTEND
  0
POINT
  5
CAC
330
6EB
100
AcDbEntity
  8
DEFPOINTS
 62
     0
100
AcDbPoint
 10
394.9044466098976
 20
298.0825131514701
 30
0.0
  0
POINT
  5
CAD
330
6EB
100
AcDbEntity
  8
DEFPOINTS
 62
     0
100
AcDbPoint
 10
407.9023466098975
 20
265.58561315147
 30
0.0
  0
POINT
  5
CAE
330
6EB
100
AcDbEntity
  8
DEFPOINTS
 62
     0
100
AcDbPoint
 10
422.596698619632
 20
271.4629650831105
 30
0.0
  0
ENDBLK
  5
6F6
330
6EB
100
AcDbEntity
  8
0
100
AcDbBlockEnd
  0
BLOCK
  5
6F9
330
6F8
100
AcDbEntity
  8
0
100
AcDbBlockBegin
  2
*D2
 70
     1
 10
0.0
 20
0.0
 30
0.0
  3
*D2
  1

  0
LINE
  5
C63
330
6F8
100
AcDbEntity
  8
SUNPOU
 62
     4
100
AcDbLine
 10
394.9048682655734
 20
314.2380440992063
 30
0.0
 11
436.0546926614453
 21
330.6968248624234
 31
0.0
  0
LINE
  5
C64
330
6F8
100
AcDbEntity
  8
SUNPOU
 62
     4
100
AcDbLine
 10
413.4732603923444
 20
267.8138231120761
 30
0.0
 11
454.6230847882164
 21
284.2726038752932
 31
0.0
  0
LINE
  5
C65
330
6F8
100
AcDbEntity
  8
SUNPOU
 62
     4
100
AcDbLine
 10
435.8688140575958
 20
323.0833204692658
 30
0.0
 11
449.2380496096191
 21
289.6578983078447
 31
0.0
  0
INSERT
  5
C66
330
6F8
100
AcDbEntity
  8
SUNPOU
 62
     4
100
AcDbBlockReference
  2
_OPEN
 10
433.269235770222
 20
329.5827198821204
 30
0.0
 41
7.0
 42
7.0
 43
7.0
 50
111.8000303124606
  0
INSERT
  5
C67
330
6F8
100
AcDbEntity
  8
SUNPOU
 62
     4
100
AcDbBlockReference
  2
_OPEN
 10
451.8376278969929
 20
283.1584988949902
 30
0.0
 41
7.0
 42
7.0
 43
7.0
 50
291.8000303124606
  0
MTEXT
  5
C68
330
6F8
100
AcDbEntity
  8
SUNPOU
 62
     4
100
AcDbMText
 10
447.1958599856463
 20
308.2274510223937
 30
0.0
 40
6.0
 41
0.0
 71
     5
 72
     1
  1
\A1;50
 11
0.3713683267676924
 21
-0.9284856304077971
 31
0.0
1001
ACAD
1000
MTEXTBEGIN
1070
    73
1070
     1
1070
    44
1040
1.0
1070
    74
1070
     0
1000
MTEXTEND
  0
POINT
  5
C69
330
6F8
100
AcDbEntity
  8
DEFPOINTS
 62
     0
100
AcDbPoint
 10
389.3339544831266
 20
312.0098341386002
 30
0.0
  0
POINT
  5
C6A
330
6F8
100
AcDbEntity
  8
DEFPOINTS
 62
     0
100
AcDbPoint
 10
407.9023466098976
 20
265.58561315147
 30
0.0
  0
POINT
  5
C6B
330
6F8
100
AcDbEntity
  8
DEFPOINTS
 62
     0
100
AcDbPoint
 10
451.8376278969929
 20
283.1584988949902
 30
0.0
  0
ENDBLK
  5
703
330
6F8
100
AcDbEntity
  8
0
100
AcDbBlockEnd
  0
BLOCK
  5
712
330
705
100
AcDbEntity
  8
0
100
AcDbBlockBegin
  2
*D3
 70
     1
 10
0.0
 20
0.0
 30
0.0
  3
*D3
  1

  0
LINE
  5
C89
330
705
100
AcDbEntity
  8
SUNPOU
 62
     4
100
AcDbLine
 10
389.3339544831267
 20
318.0098341386002
 30
0.0
 11
389.3339544831267
 21
357.6441342861683
 31
0.0
  0
LINE
  5
C8A
330
705
100
AcDbEntity
  8
SUNPOU
 62
     4
100
AcDbLine
 10
279.3339466098976
 20
286.79831315147
 30
0.0
 11
279.3339466098976
 21
357.6441342861683
 31
0.0
  0
LINE
  5
C8B
330
705
100
AcDbEntity
  8
SUNPOU
 62
     4
100
AcDbLine
 10
382.3339544831267
 20
354.6441342861683
 30
0.0
 11
286.3339466098976
 21
354.6441342861683
 31
0.0
  0
INSERT
  5
C8C
330
705
100
AcDbEntity
  8
SUNPOU
 62
     4
100
AcDbBlockReference
  2
_OPEN
 10
389.3339544831267
 20
354.6441342861683
 30
0.0
 41
7.0
 42
7.0
 43
7.0
  0
INSERT
  5
C8D
330
705
100
AcDbEntity
  8
SUNPOU
 62
     4
100
AcDbBlockReference
  2
_OPEN
 10
279.3339466098976
 20
354.6441342861683
 30
0.0
 41
7.0
 42
7.0
 43
7.0
 50
180.0
  0
MTEXT
  5
C8E
330
705
100
AcDbEntity
  8
SUNPOU
 62
     4
100
AcDbMText
 10
334.3339505465121
 20
359.6441342861683
 30
0.0
 40
6.0
 41
0.0
 71
     5
 72
     1
  1
\A1;110
1001
ACAD
1000
MTEXTBEGIN
1070
    73
1070
     1
1070
    44
1040
1.0
1070
    74
1070
     0
1000
MTEXTEND
  0
POINT
  5
C8F
330
705
100
AcDbEntity
  8
DEFPOINTS
 62
     0
100
AcDbPoint
 10
389.3339544831267
 20
312.0098341386002
 30
0.0
  0
POINT
  5
C90
330
705
100
AcDbEntity
  8
DEFPOINTS
 62
     0
100
AcDbPoint
 10
279.3339466098976
 20
280.79831315147
 30
0.0
  0
POINT
  5
C91
330
705
100
AcDbEntity
  8
DEFPOINTS
 62
     0
100
AcDbPoint
 10
279.3339466098976
 20
354.6441342861683
 30
0.0
  0
ENDBLK
  5
71C
330
705
100
AcDbEntity
  8
0
100
AcDbBlockEnd
  0
BLOCK
  5
9B5
330
73C
100
AcDbEntity
  8
0
100
AcDbBlockBegin
  2
*D4
 70
     1
 10
0.0
 20
0.0
 30
0.0
  3
*D4
  1

  0
LINE
  5
C9B
330
73C
100
AcDbEntity
  8
SUNPOU
 62
     4
100
AcDbLine
 10
379.3339539221449
 20
294.7225759636068
 30
0.0
 11
379.3339539221449
 21
343.8915766543125
 31
0.0
  0
LINE
  5
C9C
330
73C
100
AcDbEntity
  8
SUNPOU
 62
     4
100
AcDbLine
 10
389.3339544831266
 20
318.0098341386002
 30
0.0
 11
389.3339544831266
 21
343.8915766543125
 31
0.0
  0
LINE
  5
C9D
330
73C
100
AcDbEntity
  8
SUNPOU
 62
     4
100
AcDbLine
 10
396.3339544831266
 20
340.8915766543125
 30
0.0
 11
403.3339544831266
 21
340.8915766543125
 31
0.0
  0
LINE
  5
C9E
330
73C
100
AcDbEntity
  8
SUNPOU
 62
     4
100
AcDbLine
 10
372.3339539221449
 20
340.8915766543125
 30
0.0
 11
354.3339539221449
 21
340.8915766543125
 31
0.0
  0
LINE
  5
C9F
330
73C
100
AcDbEntity
  8
SUNPOU
 62
     4
100
AcDbLine
 10
389.3339544831266
 20
340.8915766543125
 30
0.0
 11
379.3339539221449
 21
340.8915766543125
 31
0.0
  0
INSERT
  5
CA0
330
73C
100
AcDbEntity
  8
SUNPOU
 62
     4
100
AcDbBlockReference
  2
_OPEN
 10
389.3339544831266
 20
340.8915766543125
 30
0.0
 41
7.0
 42
7.0
 43
7.0
 50
180.0
  0
INSERT
  5
CA1
330
73C
100
AcDbEntity
  8
SUNPOU
 62
     4
100
AcDbBlockReference
  2
_OPEN
 10
379.3339539221449
 20
340.8915766543125
 30
0.0
 41
7.0
 42
7.0
 43
7.0
  0
MTEXT
  5
CA2
330
73C
100
AcDbEntity
  8
SUNPOU
 62
     4
100
AcDbMText
 10
359.8339539221449
 20
345.8915766543125
 30
0.0
 40
6.0
 41
0.0
 71
     5
 72
     1
  1
\A1;10
1001
ACAD
1000
MTEXTBEGIN
1070
    73
1070
     1
1070
    44
1040
1.0
1070
    74
1070
     0
1000
MTEXTEND
  0
POINT
  5
CA3
330
73C
100
AcDbEntity
  8
DEFPOINTS
 62
     0
100
AcDbPoint
 10
379.3339539221449
 20
288.7225759636068
 30
0.0
  0
POINT
  5
CA4
330
73C
100
AcDbEntity
  8
DEFPOINTS
 62
     0
100
AcDbPoint
 10
389.3339544831266
 20
312.0098341386002
 30
0.0
  0
POINT
  5
CA5
330
73C
100
AcDbEntity
  8
DEFPOINTS
 62
     0
100
AcDbPoint
 10
389.3339544831266
 20
340.8915766543125
 30
0.0
  0
ENDBLK
  5
9C1
330
73C
100
AcDbEntity
  8
0
100
AcDbBlockEnd
  0
BLOCK
  5
965
330
74D
100
AcDbEntity
  8
0
100
AcDbBlockBegin
  2
*D5
 70
     1
 10
0.0
 20
0.0
 30
0.0
  3
*D5
  1

  0
LINE
  5
C80
330
74D
100
AcDbEntity
  8
SUNPOU
 62
     4
100
AcDbLine
 10
257.5863166098975
 20
284.5982131514701
 30
0.0
 11
234.2654108126216
 21
284.5982131514701
 31
0.0
  0
LINE
  5
C81
330
74D
100
AcDbEntity
  8
SUNPOU
 62
     4
100
AcDbLine
 10
401.9023466098975
 20
265.58561315147
 30
0.0
 11
234.2654108126216
 21
265.5856131514701
 31
0.0
  0
LINE
  5
C82
330
74D
100
AcDbEntity
  8
SUNPOU
 62
     4
100
AcDbLine
 10
237.2654108126216
 20
277.5982131514701
 30
0.0
 11
237.2654108126216
 21
272.5856131514701
 31
0.0
  0
INSERT
  5
C83
330
74D
100
AcDbEntity
  8
SUNPOU
 62
     4
100
AcDbBlockReference
  2
_OPEN
 10
237.2654108126216
 20
284.5982131514701
 30
0.0
 41
7.0
 42
7.0
 43
7.0
 50
90.0
  0
INSERT
  5
C84
330
74D
100
AcDbEntity
  8
SUNPOU
 62
     4
100
AcDbBlockReference
  2
_OPEN
 10
237.2654108126216
 20
265.5856131514701
 30
0.0
 41
7.0
 42
7.0
 43
7.0
 50
270.0
  0
MTEXT
  5
C85
330
74D
100
AcDbEntity
  8
SUNPOU
 62
     4
100
AcDbMText
 10
232.2654108126216
 20
275.0919131514701
 30
0.0
 40
6.0
 41
0.0
 71
     5
 72
     1
  1
\A1;19
 11
0.0000000000000001
 21
1.0
 31
0.0
1001
ACAD
1000
MTEXTBEGIN
1070
    73
1070
     1
1070
    44
1040
1.0
1070
    74
1070
     0
1000
MTEXTEND
  0
POINT
  5
C86
330
74D
100
AcDbEntity
  8
DEFPOINTS
 62
     0
100
AcDbPoint
 10
263.5863166098975
 20
284.5982131514701
 30
0.0
  0
POINT
  5
C87
330
74D
100
AcDbEntity
  8
DEFPOINTS
 62
     0
100
AcDbPoint
 10
407.9023466098974
 20
265.58561315147
 30
0.0
  0
POINT
  5
C88
330
74D
100
AcDbEntity
  8
DEFPOINTS
 62
     0
100
AcDbPoint
 10
237.2654108126216
 20
265.5856131514701
 30
0.0
  0
ENDBLK
  5
971
330
74D
100
AcDbEntity
  8
0
100
AcDbBlockEnd
  0
BLOCK
  5
972
330
75C
100
AcDbEntity
  8
0
100
AcDbBlockBegin
  2
*D6
 70
     1
 10
0.0
 20
0.0
 30
0.0
  3
*D6
  1

  0
LINE
  5
C6C
330
75C
100
AcDbEntity
  8
SUNPOU
 62
     4
100
AcDbLine
 10
256.2363166098975
 20
465.4921845297862
 30
0.0
 11
234.2654108126216
 21
465.4921845297862
 31
0.0
  0
LINE
  5
C6D
330
75C
100
AcDbEntity
  8
SUNPOU
 62
     4
100
AcDbLine
 10
256.2363166098975
 20
452.8921845297863
 30
0.0
 11
234.2654108126216
 21
452.8921845297863
 31
0.0
  0
LINE
  5
C6E
330
75C
100
AcDbEntity
  8
SUNPOU
 62
     4
100
AcDbLine
 10
237.2654108126216
 20
472.4921845297862
 30
0.0
 11
237.2654108126216
 21
479.4921845297863
 31
0.0
  0
LINE
  5
C6F
330
75C
100
AcDbEntity
  8
SUNPOU
 62
     4
100
AcDbLine
 10
237.2654108126216
 20
445.8921845297862
 30
0.0
 11
237.2654108126216
 21
438.8921845297862
 31
0.0
  0
LINE
  5
C70
330
75C
100
AcDbEntity
  8
SUNPOU
 62
     4
100
AcDbLine
 10
237.2654108126216
 20
465.4921845297862
 30
0.0
 11
237.2654108126216
 21
452.8921845297863
 31
0.0
  0
INSERT
  5
C71
330
75C
100
AcDbEntity
  8
SUNPOU
 62
     4
100
AcDbBlockReference
  2
_OPEN
 10
237.2654108126216
 20
465.4921845297862
 30
0.0
 41
7.0
 42
7.0
 43
7.0
 50
270.0
  0
INSERT
  5
C72
330
75C
100
AcDbEntity
  8
SUNPOU
 62
     4
100
AcDbBlockReference
  2
_OPEN
 10
237.2654108126216
 20
452.8921845297863
 30
0.0
 41
7.0
 42
7.0
 43
7.0
 50
90.0
  0
MTEXT
  5
C73
330
75C
100
AcDbEntity
  8
SUNPOU
 62
     4
100
AcDbMText
 10
232.2654108126215
 20
459.1921845297863
 30
0.0
 40
6.0
 41
0.0
 71
     5
 72
     1
  1
\A1;13
 11
0.0000000000000001
 21
1.0
 31
0.0
1001
ACAD
1000
MTEXTBEGIN
1070
    73
1070
     1
1070
    44
1040
1.0
1070
    74
1070
     0
1000
MTEXTEND
  0
POINT
  5
C74
330
75C
100
AcDbEntity
  8
DEFPOINTS
 62
     0
100
AcDbPoint
 10
262.2363166098975
 20
465.4921845297862
 30
0.0
  0
POINT
  5
C75
330
75C
100
AcDbEntity
  8
DEFPOINTS
 62
     0
100
AcDbPoint
 10
262.2363166098975
 20
452.8921845297863
 30
0.0
  0
POINT
  5
C76
330
75C
100
AcDbEntity
  8
DEFPOINTS
 62
     0
100
AcDbPoint
 10
237.2654108126216
 20
452.8921845297863
 30
0.0
  0
ENDBLK
  5
97E
330
75C
100
AcDbEntity
  8
0
100
AcDbBlockEnd
  0
BLOCK
  5
97F
330
843
100
AcDbEntity
  8
0
100
AcDbBlockBegin
  2
*D7
 70
     1
 10
0.0
 20
0.0
 30
0.0
  3
*D7
  1

  0
LINE
  5
C5A
330
843
100
AcDbEntity
  8
SUNPOU
 62
     4
100
AcDbLine
 10
413.902198937838
 20
482.6921845297861
 30
0.0
 11
441.6932806322847
 21
482.6921845297861
 31
0.0
  0
LINE
  5
C5B
330
843
100
AcDbEntity
  8
SUNPOU
 62
     4
100
AcDbLine
 10
413.902198937838
 20
435.692184529786
 30
0.0
 11
441.6932806322847
 21
435.692184529786
 31
0.0
  0
LINE
  5
C5C
330
843
100
AcDbEntity
  8
SUNPOU
 62
     4
100
AcDbLine
 10
438.6932806322847
 20
475.6921845297861
 30
0.0
 11
438.6932806322847
 21
442.6921845297861
 31
0.0
  0
INSERT
  5
C5D
330
843
100
AcDbEntity
  8
SUNPOU
 62
     4
100
AcDbBlockReference
  2
_OPEN
 10
438.6932806322847
 20
482.6921845297861
 30
0.0
 41
7.0
 42
7.0
 43
7.0
 50
90.0
  0
INSERT
  5
C5E
330
843
100
AcDbEntity
  8
SUNPOU
 62
     4
100
AcDbBlockReference
  2
_OPEN
 10
438.6932806322847
 20
435.692184529786
 30
0.0
 41
7.0
 42
7.0
 43
7.0
 50
270.0
  0
MTEXT
  5
C5F
330
843
100
AcDbEntity
  8
SUNPOU
 62
     4
100
AcDbMText
 10
433.6932806322846
 20
459.1921845297862
 30
0.0
 40
6.0
 41
0.0
 71
     5
 72
     1
  1
\A1;47
 11
0.0000000000000001
 21
1.0
 31
0.0
1001
ACAD
1000
MTEXTBEGIN
1070
    73
1070
     1
1070
    44
1040
1.0
1070
    74
1070
     0
1000
MTEXTEND
  0
POINT
  5
C60
330
843
100
AcDbEntity
  8
DEFPOINTS
 62
     0
100
AcDbPoint
 10
407.902198937838
 20
482.6921845297861
 30
0.0
  0
POINT
  5
C61
330
843
100
AcDbEntity
  8
DEFPOINTS
 62
     0
100
AcDbPoint
 10
407.902198937838
 20
435.692184529786
 30
0.0
  0
POINT
  5
C62
330
843
100
AcDbEntity
  8
DEFPOINTS
 62
     0
100
AcDbPoint
 10
438.6932806322847
 20
435.692184529786
 30
0.0
  0
ENDBLK
  5
989
330
843
100
AcDbEntity
  8
0
100
AcDbBlockEnd
  0
BLOCK
  5
958
330
85D
100
AcDbEntity
  8
0
100
AcDbBlockBegin
  2
*D8
 70
     1
 10
0.0
 20
0.0
 30
0.0
  3
*D8
  1

  0
LINE
  5
C4F
330
85D
100
AcDbEntity
  8
SUNPOU
 62
     4
100
AcDbLine
 10
409.2021906680226
 20
259.6433530061587
 30
0.0
 11
419.9602507485237
 21
232.7482028049109
 31
0.0
  0
LINE
  5
C50
330
85D
100
AcDbEntity
  8
SUNPOU
 62
     4
100
AcDbLine
 10
410.1306906680224
 20
260.0147530061587
 30
0.0
 11
420.8887507485234
 21
233.1196028049109
 31
0.0
  0
LINE
  5
C51
330
85D
100
AcDbEntity
  8
SUNPOU
 62
     4
100
AcDbLine
 10
412.3467418832645
 20
232.9338981430875
 30
0.0
 11
405.8474050470679
 21
230.3341634086084
 31
0.0
  0
LINE
  5
C52
330
85D
100
AcDbEntity
  8
SUNPOU
 62
     4
100
AcDbLine
 10
426.2739155556577
 20
238.5047676120458
 30
0.0
 11
450.4143095186738
 21
248.160925197254
 31
0.0
  0
LINE
  5
C53
330
85D
100
AcDbEntity
  8
SUNPOU
 62
     4
100
AcDbLine
 10
418.8460787194612
 20
235.5336328775667
 30
0.0
 11
419.774578719461
 21
235.9050328775666
 31
0.0
  0
INSERT
  5
C54
330
85D
100
AcDbEntity
  8
SUNPOU
 62
     4
100
AcDbBlockReference
  2
_OPEN
 10
418.8460787194612
 20
235.5336328775667
 30
0.0
 41
7.0
 42
7.0
 43
7.0
 50
21.80140948635544
  0
INSERT
  5
C55
330
85D
100
AcDbEntity
  8
SUNPOU
 62
     4
100
AcDbBlockReference
  2
_OPEN
 10
419.774578719461
 20
235.9050328775666
 30
0.0
 41
7.0
 42
7.0
 43
7.0
 50
201.8014094863554
  0
MTEXT
  5
C56
330
85D
100
AcDbEntity
  8
SUNPOU
 62
     4
100
AcDbMText
 10
439.7368275734932
 20
249.2750972263156
 30
0.0
 40
6.0
 41
0.0
 71
     5
 72
     1
  1
\A1;t1.0
 11
0.9284766908852358
 21
0.3713906763541625
 31
0.0
1001
ACAD
1000
MTEXTBEGIN
1070
    73
1070
     1
1070
    44
1040
1.0
1070
    74
1070
     0
1000
MTEXTEND
  0
POINT
  5
C57
330
85D
100
AcDbEntity
  8
DEFPOINTS
 62
     0
100
AcDbPoint
 10
406.9738466098977
 20
265.2142131514701
 30
0.0
  0
POINT
  5
C58
330
85D
100
AcDbEntity
  8
DEFPOINTS
 62
     0
100
AcDbPoint
 10
407.9023466098974
 20
265.5856131514701
 30
0.0
  0
POINT
  5
C59
330
85D
100
AcDbEntity
  8
DEFPOINTS
 62
     0
100
AcDbPoint
 10
419.774578719461
 20
235.9050328775666
 30
0.0
  0
ENDBLK
  5
964
330
85D
100
AcDbEntity
  8
0
100
AcDbBlockEnd
  0
BLOCK
  5
86D
330
86C
100
AcDbEntity
  8
0
100
AcDbBlockBegin
  2
*D9
 70
     1
 10
0.0
 20
0.0
 30
0.0
  3
*D9
  1

  0
LINE
  5
C77
330
86C
100
AcDbEntity
  8
SUNPOU
 62
     4
100
AcDbLine
 10
262.2362954468827
 20
285.8982252930385
 30
0.0
 11
262.2362954468827
 21
371.6797520195961
 31
0.0
  0
LINE
  5
C78
330
86C
100
AcDbEntity
  8
SUNPOU
 62
     4
100
AcDbLine
 10
389.3339544831266
 20
318.0098341386002
 30
0.0
 11
389.3339544831266
 21
371.6797520195961
 31
0.0
  0
LINE
  5
C79
330
86C
100
AcDbEntity
  8
SUNPOU
 62
     4
100
AcDbLine
 10
269.2362954468827
 20
368.6797520195962
 30
0.0
 11
382.3339544831266
 21
368.6797520195962
 31
0.0
  0
INSERT
  5
C7A
330
86C
100
AcDbEntity
  8
SUNPOU
 62
     4
100
AcDbBlockReference
  2
_OPEN
 10
262.2362954468827
 20
368.6797520195962
 30
0.0
 41
7.0
 42
7.0
 43
7.0
 50
180.0
  0
INSERT
  5
C7B
330
86C
100
AcDbEntity
  8
SUNPOU
 62
     4
100
AcDbBlockReference
  2
_OPEN
 10
389.3339544831266
 20
368.6797520195962
 30
0.0
 41
7.0
 42
7.0
 43
7.0
  0
MTEXT
  5
C7C
330
86C
100
AcDbEntity
  8
SUNPOU
 62
     4
100
AcDbMText
 10
325.7851249650046
 20
373.6797520195962
 30
0.0
 40
6.0
 41
0.0
 71
     5
 72
     1
  1
\A1;127
1001
ACAD
1000
MTEXTBEGIN
1070
    73
1070
     1
1070
    44
1040
1.0
1070
    74
1070
     0
1000
MTEXTEND
  0
POINT
  5
C7D
330
86C
100
AcDbEntity
  8
DEFPOINTS
 62
     0
100
AcDbPoint
 10
262.2362954468827
 20
279.8982252930385
 30
0.0
  0
POINT
  5
C7E
330
86C
100
AcDbEntity
  8
DEFPOINTS
 62
     0
100
AcDbPoint
 10
389.3339544831266
 20
312.0098341386002
 30
0.0
  0
POINT
  5
C7F
330
86C
100
AcDbEntity
  8
DEFPOINTS
 62
     0
100
AcDbPoint
 10
389.3339544831266
 20
368.6797520195962
 30
0.0
  0
ENDBLK
  5
877
330
86C
100
AcDbEntity
  8
0
100
AcDbBlockEnd
  0
BLOCK
  5
8FE
330
87A
100
AcDbEntity
  8
0
100
AcDbBlockBegin
  2
*D10
 70
     1
 10
0.0
 20
0.0
 30
0.0
  3
*D10
  1

  0
LINE
  5
CD5
330
87A
100
AcDbEntity
  8
SUNPOU
 62
     4
100
AcDbLine
 10
547.6260964380808
 20
351.6279941709192
 30
0.0
 11
503.5337141094847
 21
333.9922994564062
 31
0.0
  0
LINE
  5
CD6
330
87A
100
AcDbEntity
  8
SUNPOU
 62
     4
100
AcDbLine
 10
543.4284531192909
 20
357.4882879531948
 30
0.0
 11
500.9341134758541
 21
340.4917647111189
 31
0.0
  0
LINE
  5
CD7
330
87A
100
AcDbEntity
  8
SUNPOU
 62
     4
100
AcDbLine
 10
508.9187464389791
 20
328.6070021748904
 30
0.0
 11
511.5183212878307
 21
322.107601386724
 31
0.0
  0
LINE
  5
CD8
330
87A
100
AcDbEntity
  8
SUNPOU
 62
     4
100
AcDbLine
 10
501.1199961076453
 20
348.105269005936
 30
0.0
 11
495.5494785743918
 21
362.0325564091497
 31
0.0
  0
LINE
  5
CD9
330
87A
100
AcDbEntity
  8
SUNPOU
 62
     4
100
AcDbLine
 10
506.3191715901274
 20
335.1064029630569
 30
0.0
 11
503.7195709564969
 21
341.6058682177696
 31
0.0
  0
INSERT
  5
CDA
330
87A
100
AcDbEntity
  8
SUNPOU
 62
     4
100
AcDbBlockReference
  2
_OPEN
 10
506.3191715901274
 20
335.1064029630569
 30
0.0
 41
7.0
 42
7.0
 43
7.0
 50
111.7999999999998
  0
INSERT
  5
CDB
330
87A
100
AcDbEntity
  8
SUNPOU
 62
     4
100
AcDbBlockReference
  2
_OPEN
 10
503.7195709564969
 20
341.6058682177696
 30
0.0
 41
7.0
 42
7.0
 43
7.0
 50
291.7999999999998
  0
MTEXT
  5
CDC
330
87A
100
AcDbEntity
  8
SUNPOU
 62
     4
100
AcDbMText
 10
501.6773790509972
 20
360.1754522793772
 30
0.0
 40
6.0
 41
0.0
 71
     5
 72
     1
  1
\A1;7
 11
0.3713678355502318
 21
-0.9284858268809147
 31
0.0
1001
ACAD
1000
MTEXTBEGIN
1070
    73
1070
     1
1070
    44
1040
1.0
1070
    74
1070
     0
1000
MTEXTEND
  0
POINT
  5
CDD
330
87A
100
AcDbEntity
  8
DEFPOINTS
 62
     0
100
AcDbPoint
 10
553.1970113993663
 20
353.8562011842206
 30
0.0
  0
POINT
  5
CDE
330
87A
100
AcDbEntity
  8
DEFPOINTS
 62
     0
100
AcDbPoint
 10
548.9993680805765
 20
359.7164949664962
 30
0.0
  0
POINT
  5
CDF
330
87A
100
AcDbEntity
  8
DEFPOINTS
 62
     0
100
AcDbPoint
 10
503.7195709564969
 20
341.6058682177696
 30
0.0
  0
ENDBLK
  5
90A
330
87A
100
AcDbEntity
  8
0
100
AcDbBlockEnd
  0
BLOCK
  5
8F1
330
889
100
AcDbEntity
  8
0
100
AcDbBlockBegin
  2
*D11
 70
     1
 10
0.0
 20
0.0
 30
0.0
  3
*D11
  1

  0
LINE
  5
CCA
330
889
100
AcDbEntity
  8
SUNPOU
 62
     4
100
AcDbLine
 10
549.0524964380812
 20
345.7366941709191
 30
0.0
 11
489.2848326169099
 21
321.8313341680367
 31
0.0
  0
LINE
  5
CCB
330
889
100
AcDbEntity
  8
SUNPOU
 62
     4
100
AcDbLine
 10
543.4284531192909
 20
357.4882879531948
 30
0.0
 11
484.4571335458515
 21
333.9014429249851
 31
0.0
  0
LINE
  5
CCC
330
889
100
AcDbEntity
  8
SUNPOU
 62
     4
100
AcDbLine
 10
494.6698649464043
 20
316.446036886521
 30
0.0
 11
497.2694397952559
 21
309.9466360983546
 31
0.0
  0
LINE
  5
CCD
330
889
100
AcDbEntity
  8
SUNPOU
 62
     4
100
AcDbLine
 10
484.6430161776427
 20
341.5149472198023
 30
0.0
 11
482.0434413287911
 21
348.0143480079687
 31
0.0
  0
LINE
  5
CCE
330
889
100
AcDbEntity
  8
SUNPOU
 62
     4
100
AcDbLine
 10
492.0702900975526
 20
322.9454376746874
 30
0.0
 11
487.2425910264943
 21
335.0155464316359
 31
0.0
  0
INSERT
  5
CCF
330
889
100
AcDbEntity
  8
SUNPOU
 62
     4
100
AcDbBlockReference
  2
_OPEN
 10
492.0702900975526
 20
322.9454376746874
 30
0.0
 41
7.0
 42
7.0
 43
7.0
 50
111.7999999999998
  0
INSERT
  5
CD0
330
889
100
AcDbEntity
  8
SUNPOU
 62
     4
100
AcDbBlockReference
  2
_OPEN
 10
487.2425910264943
 20
335.0155464316359
 30
0.0
 41
7.0
 42
7.0
 43
7.0
 50
291.7999999999998
  0
MTEXT
  5
CD1
330
889
100
AcDbEntity
  8
SUNPOU
 62
     4
100
AcDbMText
 10
494.298869696428
 20
330.8373312309128
 30
0.0
 40
6.0
 41
0.0
 71
     5
 72
     1
  1
\A1;13
 11
0.3713678355502318
 21
-0.9284858268809147
 31
0.0
1001
ACAD
1000
MTEXTBEGIN
1070
    73
1070
     1
1070
    44
1040
1.0
1070
    74
1070
     0
1000
MTEXTEND
  0
POINT
  5
CD2
330
889
100
AcDbEntity
  8
DEFPOINTS
 62
     0
100
AcDbPoint
 10
554.6234113993667
 20
347.9649011842206
 30
0.0
  0
POINT
  5
CD3
330
889
100
AcDbEntity
  8
DEFPOINTS
 62
     0
100
AcDbPoint
 10
548.9993680805765
 20
359.7164949664962
 30
0.0
  0
POINT
  5
CD4
330
889
100
AcDbEntity
  8
DEFPOINTS
 62
     0
100
AcDbPoint
 10
487.2425910264943
 20
335.0155464316359
 30
0.0
  0
ENDBLK
  5
8FD
330
889
100
AcDbEntity
  8
0
100
AcDbBlockEnd
  0
BLOCK
  5
8D9
330
898
100
AcDbEntity
  8
0
100
AcDbBlockBegin
  2
*D12
 70
     1
 10
0.0
 20
0.0
 30
0.0
  3
*D12
  1

  0
LINE
  5
CE0
330
898
100
AcDbEntity
  8
SUNPOU
 62
     4
100
AcDbLine
 10
555.376496438081
 20
332.1104941709193
 30
0.0
 11
511.3324280344725
 21
314.4941236477187
 31
0.0
  0
LINE
  5
CE1
330
898
100
AcDbEntity
  8
SUNPOU
 62
     4
100
AcDbLine
 10
556.4263535317738
 20
324.9911659488741
 30
0.0
 11
513.932032038523
 21
307.9946499663548
 31
0.0
  0
LINE
  5
CE2
330
898
100
AcDbEntity
  8
SUNPOU
 62
     4
100
AcDbLine
 10
511.5183106662636
 20
322.1076279425358
 30
0.0
 11
508.918735817412
 21
328.6070287307022
 31
0.0
  0
LINE
  5
CE3
330
898
100
AcDbEntity
  8
SUNPOU
 62
     4
100
AcDbLine
 10
519.3170643680174
 20
302.6093526848391
 30
0.0
 11
524.887581901271
 21
288.6820652816253
 31
0.0
  0
LINE
  5
CE4
330
898
100
AcDbEntity
  8
SUNPOU
 62
     4
100
AcDbLine
 10
514.1178855151152
 20
315.6082271543694
 30
0.0
 11
516.7174895191658
 21
309.1087534730054
 31
0.0
  0
INSERT
  5
CE5
330
898
100
AcDbEntity
  8
SUNPOU
 62
     4
100
AcDbBlockReference
  2
_OPEN
 10
514.1178855151152
 20
315.6082271543694
 30
0.0
 41
7.0
 42
7.0
 43
7.0
 50
291.7999999999998
  0
INSERT
  5
CE6
330
898
100
AcDbEntity
  8
SUNPOU
 62
     4
100
AcDbBlockReference
  2
_OPEN
 10
516.7174895191658
 20
309.1087534730054
 30
0.0
 41
7.0
 42
7.0
 43
7.0
 50
111.7999999999998
  0
MTEXT
  5
CE7
330
898
100
AcDbEntity
  8
SUNPOU
 62
     4
100
AcDbMText
 10
528.0445396934745
 20
294.2528477669002
 30
0.0
 40
6.0
 41
0.0
 71
     5
 72
     1
  1
\A1;7
 11
0.3713678355502318
 21
-0.9284858268809147
 31
0.0
1001
ACAD
1000
MTEXTBEGIN
1070
    73
1070
     1
1070
    44
1040
1.0
1070
    74
1070
     0
1000
MTEXTEND
  0
POINT
  5
CE8
330
898
100
AcDbEntity
  8
DEFPOINTS
 62
     0
100
AcDbPoint
 10
560.9474113993664
 20
334.3387011842206
 30
0.0
  0
POINT
  5
CE9
330
898
100
AcDbEntity
  8
DEFPOINTS
 62
     0
100
AcDbPoint
 10
561.9972684930593
 20
327.2193729621756
 30
0.0
  0
POINT
  5
CEA
330
898
100
AcDbEntity
  8
DEFPOINTS
 62
     0
100
AcDbPoint
 10
516.7174895191658
 20
309.1087534730054
 30
0.0
  0
ENDBLK
  5
8E5
330
898
100
AcDbEntity
  8
0
100
AcDbBlockEnd
  0
BLOCK
  5
8E6
330
8A7
100
AcDbEntity
  8
0
100
AcDbBlockBegin
  2
*D13
 70
     1
 10
0.0
 20
0.0
 30
0.0
  3
*D13
  1

  0
LINE
  5
CC1
330
8A7
100
AcDbEntity
  8
SUNPOU
 62
     4
100
AcDbLine
 10
543.4284531192909
 20
357.4882879531948
 30
0.0
 11
470.4083431661847
 21
328.2823276683503
 31
0.0
  0
LINE
  5
CC2
330
8A7
100
AcDbEntity
  8
SUNPOU
 62
     4
100
AcDbLine
 10
556.4263535317738
 20
324.9911659488741
 30
0.0
 11
483.4062617288537
 21
295.7852129235862
 31
0.0
  0
LINE
  5
CC3
330
8A7
100
AcDbEntity
  8
SUNPOU
 62
     4
100
AcDbLine
 10
475.7933754956791
 20
322.8970303868346
 30
0.0
 11
483.592144360645
 21
303.3987172184033
 31
0.0
  0
INSERT
  5
CC4
330
8A7
100
AcDbEntity
  8
SUNPOU
 62
     4
100
AcDbBlockReference
  2
_OPEN
 10
473.1938006468275
 20
329.396431175001
 30
0.0
 41
7.0
 42
7.0
 43
7.0
 50
111.7999999999998
  0
INSERT
  5
CC5
330
8A7
100
AcDbEntity
  8
SUNPOU
 62
     4
100
AcDbBlockReference
  2
_OPEN
 10
486.1917192094965
 20
296.8993164302369
 30
0.0
 41
7.0
 42
7.0
 43
7.0
 50
291.7999999999998
  0
MTEXT
  5
CC6
330
8A7
100
AcDbEntity
  8
SUNPOU
 62
     4
100
AcDbMText
 10
484.3351890625665
 20
315.0047129803701
 30
0.0
 40
6.0
 41
0.0
 71
     5
 72
     1
  1
\A1;35
 11
0.3713678355502318
 21
-0.9284858268809147
 31
0.0
1001
ACAD
1000
MTEXTBEGIN
1070
    73
1070
     1
1070
    44
1040
1.0
1070
    74
1070
     0
1000
MTEXTEND
  0
POINT
  5
CC7
330
8A7
100
AcDbEntity
  8
DEFPOINTS
 62
     0
100
AcDbPoint
 10
548.9993680805765
 20
359.7164949664962
 30
0.0
  0
POINT
  5
CC8
330
8A7
100
AcDbEntity
  8
DEFPOINTS
 62
     0
100
AcDbPoint
 10
561.9972684930593
 20
327.2193729621756
 30
0.0
  0
POINT
  5
CC9
330
8A7
100
AcDbEntity
  8
DEFPOINTS
 62
     0
100
AcDbPoint
 10
486.1917192094965
 20
296.8993164302369
 30
0.0
  0
ENDBLK
  5
8F0
330
8A7
100
AcDbEntity
  8
0
100
AcDbBlockEnd
  0
BLOCK
  5
90B
330
8B4
100
AcDbEntity
  8
0
100
AcDbBlockBegin
  2
*D14
 70
     1
 10
0.0
 20
0.0
 30
0.0
  3
*D14
  1

  0
LINE
  5
CB8
330
8B4
100
AcDbEntity
  8
SUNPOU
 62
     4
100
AcDbLine
 10
586.3021043860649
 20
377.5289161455061
 30
0.0
 11
572.9944969232567
 21
410.8003083774292
 31
0.0
  0
LINE
  5
CB9
330
8B4
100
AcDbEntity
  8
SUNPOU
 62
     4
100
AcDbLine
 10
552.8766043860649
 20
364.1596161455062
 30
0.0
 11
539.568978362985
 21
397.4310547814189
 31
0.0
  0
LINE
  5
CBA
330
8B4
100
AcDbEntity
  8
SUNPOU
 62
     4
100
AcDbLine
 10
567.609199641741
 20
405.4152760479349
 30
0.0
 11
547.1824826578021
 21
397.2451721496279
 31
0.0
  0
INSERT
  5
CBB
330
8B4
100
AcDbEntity
  8
SUNPOU
 62
     4
100
AcDbBlockReference
  2
_OPEN
 10
574.1086004299075
 20
408.0148508967864
 30
0.0
 41
7.0
 42
7.0
 43
7.0
 50
21.79999999999973
  0
INSERT
  5
CBC
330
8B4
100
AcDbEntity
  8
SUNPOU
 62
     4
100
AcDbBlockReference
  2
_OPEN
 10
540.6830818696358
 20
394.6455973007762
 30
0.0
 41
7.0
 42
7.0
 43
7.0
 50
201.7999999999997
  0
MTEXT
  5
CBD
330
8B4
100
AcDbEntity
  8
SUNPOU
 62
     4
100
AcDbMText
 10
555.5390019720204
 20
405.9726532331859
 30
0.0
 40
6.0
 41
0.0
 71
     5
 72
     1
  1
\A1;36
 11
0.9284858268809148
 21
0.3713678355502314
 31
0.0
1001
ACAD
1000
MTEXTBEGIN
1070
    73
1070
     1
1070
    44
1040
1.0
1070
    74
1070
     0
1000
MTEXTEND
  0
POINT
  5
CBE
330
8B4
100
AcDbEntity
  8
DEFPOINTS
 62
     0
100
AcDbPoint
 10
588.5303113993662
 20
371.9580011842206
 30
0.0
  0
POINT
  5
CBF
330
8B4
100
AcDbEntity
  8
DEFPOINTS
 62
     0
100
AcDbPoint
 10
555.1048113993663
 20
358.5887011842207
 30
0.0
  0
POINT
  5
CC0
330
8B4
100
AcDbEntity
  8
DEFPOINTS
 62
     0
100
AcDbPoint
 10
540.6830818696358
 20
394.6455973007762
 30
0.0
  0
ENDBLK
  5
915
330
8B4
100
AcDbEntity
  8
0
100
AcDbBlockEnd
  0
BLOCK
  5
8CE
330
8C1
100
AcDbEntity
  8
0
100
AcDbBlockBegin
  2
*D15
 70
     1
 10
0.0
 20
0.0
 30
0.0
  3
*D15
  1

  0
LINE
  5
CAF
330
8C1
100
AcDbEntity
  8
SUNPOU
 62
     4
100
AcDbLine
 10
589.9457832807326
 20
382.5559543900854
 30
0.0
 11
572.9163239801358
 21
425.1326400543741
 31
0.0
  0
LINE
  5
CB0
330
8C1
100
AcDbEntity
  8
SUNPOU
 62
     4
100
AcDbLine
 10
546.7711614332675
 20
365.287409012734
 30
0.0
 11
529.7417267292806
 21
407.864033181111
 31
0.0
  0
LINE
  5
CB1
330
8C1
100
AcDbEntity
  8
SUNPOU
 62
     4
100
AcDbLine
 10
567.53102669862
 20
419.7476077248797
 30
0.0
 11
537.3552310240976
 21
407.6781505493199
 31
0.0
  0
INSERT
  5
CB2
330
8C1
100
AcDbEntity
  8
SUNPOU
 62
     4
100
AcDbBlockReference
  2
_OPEN
 10
574.0304274867865
 20
422.3471825737314
 30
0.0
 41
7.0
 42
7.0
 43
7.0
 50
21.79999999999973
  0
INSERT
  5
CB3
330
8C1
100
AcDbEntity
  8
SUNPOU
 62
     4
100
AcDbBlockReference
  2
_OPEN
 10
530.8558302359313
 20
405.0785757004683
 30
0.0
 41
7.0
 42
7.0
 43
7.0
 50
201.7999999999997
  0
MTEXT
  5
CB4
330
8C1
100
AcDbEntity
  8
SUNPOU
 62
     4
100
AcDbMText
 10
550.5862896836077
 20
418.3553082715044
 30
0.0
 40
6.0
 41
0.0
 71
     5
 72
     1
  1
\A1;47
 11
0.9284858268809148
 21
0.3713678355502314
 31
0.0
1001
ACAD
1000
MTEXTBEGIN
1070
    73
1070
     1
1070
    44
1040
1.0
1070
    74
1070
     0
1000
MTEXTEND
  0
POINT
  5
CB5
330
8C1
100
AcDbEntity
  8
DEFPOINTS
 62
     0
100
AcDbPoint
 10
592.1739902940339
 20
376.9850394287999
 30
0.0
  0
POINT
  5
CB6
330
8C1
100
AcDbEntity
  8
DEFPOINTS
 62
     0
100
AcDbPoint
 10
548.9993684465689
 20
359.7164940514486
 30
0.0
  0
POINT
  5
CB7
330
8C1
100
AcDbEntity
  8
DEFPOINTS
 62
     0
100
AcDbPoint
 10
530.8558302359313
 20
405.0785757004683
 30
0.0
  0
ENDBLK
  5
8D8
330
8C1
100
AcDbEntity
  8
0
100
AcDbBlockEnd
  0
BLOCK
  5
923
330
922
100
AcDbEntity
  8
0
100
AcDbBlockBegin
  2
*D16
 70
     1
 10
0.0
 20
0.0
 30
0.0
  3
*D16
  1

  0
LINE
  5
C92
330
922
100
AcDbEntity
  8
SUNPOU
 62
     4
100
AcDbLine
 10
389.3339544831267
 20
318.0098341386002
 30
0.0
 11
389.3339544831267
 21
357.7265212688682
 31
0.0
  0
LINE
  5
C93
330
922
100
AcDbEntity
  8
SUNPOU
 62
     4
100
AcDbLine
 10
424.3339559787234
 20
318.0098303993474
 30
0.0
 11
424.3339559787234
 21
357.7265212688682
 31
0.0
  0
LINE
  5
C94
330
922
100
AcDbEntity
  8
SUNPOU
 62
     4
100
AcDbLine
 10
396.3339544831267
 20
354.7265212688683
 30
0.0
 11
417.3339559787233
 21
354.7265212688683
 31
0.0
  0
INSERT
  5
C95
330
922
100
AcDbEntity
  8
SUNPOU
 62
     4
100
AcDbBlockReference
  2
_OPEN
 10
389.3339544831267
 20
354.7265212688683
 30
0.0
 41
7.0
 42
7.0
 43
7.0
 50
180.0
  0
INSERT
  5
C96
330
922
100
AcDbEntity
  8
SUNPOU
 62
     4
100
AcDbBlockReference
  2
_OPEN
 10
424.3339559787234
 20
354.7265212688683
 30
0.0
 41
7.0
 42
7.0
 43
7.0
  0
MTEXT
  5
C97
330
922
100
AcDbEntity
  8
SUNPOU
 62
     4
100
AcDbMText
 10
406.833955230925
 20
359.7265212688682
 30
0.0
 40
6.0
 41
0.0
 71
     5
 72
     1
  1
\A1;35
1001
ACAD
1000
MTEXTBEGIN
1070
    73
1070
     1
1070
    44
1040
1.0
1070
    74
1070
     0
1000
MTEXTEND
  0
POINT
  5
C98
330
922
100
AcDbEntity
  8
DEFPOINTS
 62
     0
100
AcDbPoint
 10
389.3339544831267
 20
312.0098341386002
 30
0.0
  0
POINT
  5
C99
330
922
100
AcDbEntity
  8
DEFPOINTS
 62
     0
100
AcDbPoint
 10
424.3339559787234
 20
312.0098303993473
 30
0.0
  0
POINT
  5
C9A
330
922
100
AcDbEntity
  8
DEFPOINTS
 62
     0
100
AcDbPoint
 10
424.3339559787234
 20
354.7265212688683
 30
0.0
  0
ENDBLK
  5
92D
330
922
100
AcDbEntity
  8
0
100
AcDbBlockEnd
  0
ENDSEC
  0
SECTION
  2
ENTITIES
  0
LINE
  5
35F
330
1A
100
AcDbEntity
  8
SEIHIN
  6
PHANTOM
 62
     6
 48
5.0
100
AcDbLine
 10
441.9738466098976
 20
265.2142131514701
 30
0.0
 11
428.9759466098977
 21
297.7112131514701
 31
0.0
  0
LINE
  5
360
330
1A
100
AcDbEntity
  8
SEIHIN
  6
PHANTOM
 62
     6
 48
5.0
100
AcDbLine
 10
425.7129466098976
 20
308.5621131514701
 30
0.0
 11
442.9023466098976
 21
265.58561315147
 31
0.0
  0
LINE
  5
361
330
1A
100
AcDbEntity
  8
SEIHIN
  6
PHANTOM
 62
     6
 48
5.0
100
AcDbLine
 10
437.3314466098976
 20
263.3574131514701
 30
0.0
 11
424.3335466098976
 21
295.8544131514701
 31
0.0
  0
ARC
  5
363
330
1A
100
AcDbEntity
  8
NOKITOI
  6
PHANTOM
 62
     8
 48
3.5
100
AcDbCircle
 10
311.2120376956875
 20
278.7850904399769
 30
0.0
 40
43.00001447645168
100
AcDbArc
 50
186.524910707118
 51
269.999888375144
  0
ARC
  5
364
330
1A
100
AcDbEntity
  8
NOKITOI
  6
PHANTOM
 62
     8
 48
3.5
100
AcDbCircle
 10
311.2120600041127
 20
278.7850703389505
 30
0.0
 40
41.79999437547816
100
AcDbArc
 50
184.474295212525
 51
269.9998545921086
  0
LINE
  5
365
330
1A
100
AcDbEntity
  8
NOKITOI
  6
PHANTOM
 62
     8
 48
3.5
100
AcDbLine
 10
370.3084539221451
 20
273.8845759636068
 30
0.0
 11
367.4396539221449
 21
245.1971759636068
 31
0.0
  0
LINE
  5
366
330
1A
100
AcDbEntity
  8
NOKITOI
  6
PHANTOM
 62
     8
 48
3.5
100
AcDbLine
 10
369.267453922145
 20
275.5348759636068
 30
0.0
 11
366.2744539221446
 21
245.6050759636067
 31
0.0
  0
LINE
  5
36F
330
1A
100
AcDbEntity
  8
NOKITOI
  6
PHANTOM
 62
     8
 48
3.5
100
AcDbLine
 10
356.0414539221449
 20
235.7849759636068
 30
0.0
 11
311.2120539221448
 21
235.7850759636068
 31
0.0
  0
LINE
  5
370
330
1A
100
AcDbEntity
  8
NOKITOI
  6
PHANTOM
 62
     8
 48
3.5
100
AcDbLine
 10
311.2120539221448
 20
236.9850759636068
 30
0.0
 11
355.7916539221448
 21
236.9849759636068
 31
0.0
  0
LINE
  5
371
330
1A
100
AcDbEntity
  8
NOKITOI
  6
PHANTOM
 62
     8
 48
3.5
100
AcDbLine
 10
352.0414539221448
 20
235.7849759636068
 30
0.0
 11
331.8835539221452
 21
235.7849759636068
 31
0.0
  0
LINE
  5
372
330
1A
100
AcDbEntity
  8
NOKITOI
  6
PHANTOM
 62
     8
 48
3.5
100
AcDbLine
 10
351.7916539221448
 20
236.9849759636068
 30
0.0
 11
331.8835539221452
 21
236.9849759636068
 31
0.0
  0
LINE
  5
373
330
1A
100
AcDbEntity
  8
NOKITOI
  6
PHANTOM
 62
     8
 48
3.5
100
AcDbLine
 10
367.0778539221448
 20
244.5226759636069
 30
0.0
 11
356.6747539221448
 21
236.0109759636069
 31
0.0
  0
LINE
  5
374
330
1A
100
AcDbEntity
  8
NOKITOI
  6
PHANTOM
 62
     8
 48
3.5
100
AcDbLine
 10
366.0935539221452
 20
245.2677759636068
 30
0.0
 11
356.1082539221449
 21
237.0979759636067
 31
0.0
  0
ARC
  5
375
330
1A
100
AcDbEntity
  8
NOKITOI
  6
PHANTOM
 62
     8
 48
3.5
100
AcDbCircle
 10
355.7916603098935
 20
237.4849782435964
 30
0.0
 40
0.5000022800304047
100
AcDbArc
 50
269.9992680212786
 51
309.2854498596058
  0
ARC
  5
376
330
1A
100
AcDbEntity
  8
NOKITOI
  6
PHANTOM
 62
     8
 48
3.5
100
AcDbCircle
 10
356.0414469895675
 20
236.7849734886007
 30
0.0
 40
0.9999975250179316
100
AcDbArc
 50
270.0003972084043
 51
309.2946416752298
  0
ARC
  5
377
330
1A
100
AcDbEntity
  8
NOKITOI
  6
PHANTOM
 62
     8
 48
3.5
100
AcDbCircle
 10
365.7769364962666
 20
245.6547434772188
 30
0.0
 40
0.4999904508696396
100
AcDbArc
 50
309.2900846377958
 51
354.2990110749245
  0
ARC
  5
378
330
1A
100
AcDbEntity
  8
NOKITOI
  6
PHANTOM
 62
     8
 48
3.5
100
AcDbCircle
 10
366.444631349276
 20
245.2966338919342
 30
0.0
 40
0.9999908507640039
100
AcDbArc
 50
309.2887092230696
 51
354.2862329477531
  0
LINE
  5
37B
330
1A
100
AcDbEntity
  8
CENTER_L
  6
CENTER
 62
     1
 48
5.0
100
AcDbLine
 10
405.3028166098976
 20
480.1899845297863
 30
0.0
 11
405.3028166098976
 21
474.3682845297861
 31
0.0
  0
LINE
  5
37C
330
1A
100
AcDbEntity
  8
SEIHIN
  6
CONTINUOUS
 62
     3
 48
16.0
100
AcDbLine
 10
407.9022166098976
 20
480.6921845297861
 30
0.0
 11
407.9023166098974
 21
469.3748845297861
 31
0.0
  0
LINE
  5
37D
330
1A
100
AcDbEntity
  8
SEIHIN
  6
CONTINUOUS
 62
     3
 48
16.0
100
AcDbLine
 10
394.5345166098976
 20
480.6921845297861
 30
0.0
 11
394.5345166098976
 21
469.9580845297862
 31
0.0
  0
LINE
  5
37E
330
1A
100
AcDbEntity
  8
SEIHIN
  6
CONTINUOUS
 62
     3
 48
16.0
100
AcDbLine
 10
394.9045166098976
 20
480.6921845297861
 30
0.0
 11
394.9045166098976
 21
469.4411845297862
 31
0.0
  0
LINE
  5
37F
330
1A
100
AcDbEntity
  8
CENTER_L
  6
CENTER
 62
     1
 48
5.0
100
AcDbLine
 10
399.7323166098975
 20
481.192184529786
 30
0.0
 11
399.7323166098975
 21
473.192184529786
 31
0.0
  0
LINE
  5
380
330
1A
100
AcDbEntity
  8
CENTER_L
  6
CENTER
 62
     1
 48
5.0
100
AcDbLine
 10
397.5040166098976
 20
480.1899845297863
 30
0.0
 11
397.5040166098976
 21
474.3682845297861
 31
0.0
  0
ARC
  5
381
330
1A
100
AcDbEntity
  8
SEIHIN
  6
CONTINUOUS
 62
     3
 48
16.0
100
AcDbCircle
 10
299.3339106116097
 20
280.7981448977421
 30
0.0
 40
11.00003174645827
100
AcDbArc
 50
269.9996666347812
 51
322.7645340726742
  0
LINE
  5
382
330
1A
100
AcDbEntity
  8
SEIHIN
  6
CONTINUOUS
 62
     3
 48
16.0
100
AcDbLine
 10
299.3339466098976
 20
280.79821315147
 30
0.0
 11
315.6548466098975
 21
302.2730131514701
 31
0.0
  0
LINE
  5
386
330
1A
100
AcDbEntity
  8
CENTER_L
  6
CENTER
 62
     1
 48
5.0
100
AcDbLine
 10
414.6857166098975
 20
459.1921845297861
 30
0.0
 11
259.8915166098976
 21
459.1921845297861
 31
0.0
  0
LINE
  5
387
330
1A
100
AcDbEntity
  8
SEIHIN
  6
CONTINUOUS
 62
     3
 48
16.0
100
AcDbLine
 10
406.9022166098975
 20
450.2421845297861
 30
0.0
 11
279.3339166098975
 21
450.2421845297861
 31
0.0
  0
LINE
  5
388
330
1A
100
AcDbEntity
  8
SEIHIN
  6
CONTINUOUS
 62
     3
 48
16.0
100
AcDbLine
 10
406.9023166098975
 20
468.1421845297863
 30
0.0
 11
279.3339166098975
 21
468.1421845297863
 31
0.0
  0
ARC
  5
38F
330
1A
100
AcDbEntity
  8
NOKITOI
  6
PHANTOM
 62
     8
 48
3.5
100
AcDbCircle
 10
269.0409664918531
 20
275.4850643388771
 30
0.0
 40
0.5000116248877111
100
AcDbArc
 50
4.474846808342897
 51
90.00144034898337
  0
LINE
  5
390
330
1A
100
AcDbEntity
  8
SEIHIN
  6
CONTINUOUS
 62
     3
 48
16.0
100
AcDbLine
 10
263.7363166098976
 20
278.3982131514701
 30
0.0
 11
270.5681166098975
 21
278.3982131514701
 31
0.0
  0
LINE
  5
391
330
1A
100
AcDbEntity
  8
SEIHIN
  6
CONTINUOUS
 62
     3
 48
16.0
100
AcDbLine
 10
263.7363166098976
 20
279.5982131514701
 30
0.0
 11
270.5681166098975
 21
279.5982131514701
 31
0.0
  0
LINE
  5
392
330
1A
100
AcDbEntity
  8
SEIHIN
  6
CONTINUOUS
 62
     3
 48
16.0
100
AcDbLine
 10
269.5833166098975
 20
276.39821315147
 30
0.0
 11
265.7363166098976
 21
276.39821315147
 31
0.0
  0
ARC
  5
395
330
1A
100
AcDbEntity
  8
NOKITOI
  6
PHANTOM
 62
     8
 48
3.5
100
AcDbCircle
 10
264.9135918035915
 20
280.7851197461321
 30
0.0
 40
3.999989731271038
100
AcDbArc
 50
96.47731142013144
 51
181.7899836067308
  0
LINE
  5
396
330
1A
100
AcDbEntity
  8
NOKITOI
  6
PHANTOM
 62
     8
 48
3.5
100
AcDbLine
 10
264.6800539221446
 20
281.8558759636069
 30
0.0
 11
265.0137539221448
 21
284.1920759636069
 31
0.0
  0
LINE
  5
397
330
1A
100
AcDbEntity
  8
NOKITOI
  6
PHANTOM
 62
     8
 48
3.5
100
AcDbLine
 10
267.9234539221449
 20
281.7588759636068
 30
0.0
 11
268.2392539221448
 21
287.7587759636067
 31
0.0
  0
LINE
  5
398
330
1A
100
AcDbEntity
  8
NOKITOI
  6
PHANTOM
 62
     8
 48
3.5
100
AcDbLine
 10
259.4629539221448
 20
288.7225759636068
 30
0.0
 11
259.8531539221446
 21
276.2382759636067
 31
0.0
  0
LINE
  5
399
330
1A
100
AcDbEntity
  8
SEIHIN
  6
CONTINUOUS
 62
     3
 48
16.0
100
AcDbLine
 10
263.5863166098975
 20
284.5982131514701
 30
0.0
 11
262.3001166098976
 21
280.3311131514701
 31
0.0
  0
LINE
  5
39A
330
1A
100
AcDbEntity
  8
SEIHIN
  6
CONTINUOUS
 62
     3
 48
16.0
100
AcDbLine
 10
264.7352166098975
 20
284.2519131514701
 30
0.0
 11
263.4490166098976
 21
279.9848131514701
 31
0.0
  0
ARC
  5
39B
330
1A
100
AcDbEntity
  8
NOKITOI
  6
PHANTOM
 62
     8
 48
3.5
100
AcDbCircle
 10
263.0000674942832
 20
277.9850628085204
 30
0.0
 40
1.999986844959662
100
AcDbArc
 50
181.7875531852363
 51
269.9996111843223
  0
ARC
  5
39C
330
1A
100
AcDbEntity
  8
NOKITOI
  6
PHANTOM
 62
     8
 48
3.5
100
AcDbCircle
 10
261.3523898812957
 20
276.2850411094635
 30
0.0
 40
1.499965146287778
100
AcDbArc
 50
181.7866280217767
 51
269.9986264296976
  0
LINE
  5
39D
330
1A
100
AcDbEntity
  8
NOKITOI
  6
PHANTOM
 62
     8
 48
3.5
100
AcDbLine
 10
261.0010539221446
 20
277.9226759636068
 30
0.0
 11
260.9155539221449
 21
280.6601759636068
 31
0.0
  0
LINE
  5
39E
330
1A
100
AcDbEntity
  8
NOKITOI
  6
PHANTOM
 62
     8
 48
3.5
100
AcDbLine
 10
269.0409539221452
 20
275.9850759636068
 30
0.0
 11
263.0000539221448
 21
275.9850759636068
 31
0.0
  0
LINE
  5
39F
330
1A
100
AcDbEntity
  8
NOKITOI
  6
PHANTOM
 62
     8
 48
3.5
100
AcDbLine
 10
261.3523539221448
 20
274.7850759636067
 30
0.0
 11
267.4970539221447
 21
274.7850759636067
 31
0.0
  0
ARC
  5
3A0
330
1A
100
AcDbEntity
  8
NOKITOI
  6
PHANTOM
 62
     8
 48
3.5
100
AcDbCircle
 10
267.4240470351498
 20
281.7850694285212
 30
0.0
 40
0.499993464961963
100
AcDbArc
 50
270.0007892017873
 51
356.9970361317427
  0
ARC
  5
3A1
330
1A
100
AcDbEntity
  8
NOKITOI
  6
PHANTOM
 62
     8
 48
3.5
100
AcDbCircle
 10
265.1749805227425
 20
281.7850452867247
 30
0.0
 40
0.4999693238254178
100
AcDbArc
 50
171.8555038770532
 51
269.9969516090348
  0
LINE
  5
3A2
330
1A
100
AcDbEntity
  8
NOKITOI
  6
PHANTOM
 62
     8
 48
3.5
100
AcDbLine
 10
267.4240539221448
 20
281.2850759636067
 30
0.0
 11
265.1749539221448
 21
281.2850759636067
 31
0.0
  0
ARC
  5
3A3
330
1A
100
AcDbEntity
  8
NOKITOI
  6
PHANTOM
 62
     8
 48
3.5
100
AcDbCircle
 10
267.4970454979823
 20
273.7850834786633
 30
0.0
 40
0.9999924849789756
100
AcDbArc
 50
6.528264606674428
 51
89.99951732740891
  0
ARC
  5
3A4
330
1A
100
AcDbEntity
  8
SEIHIN
  6
CONTINUOUS
 62
     3
 48
16.0
100
AcDbCircle
 10
263.7362913193139
 20
279.8982471892748
 30
0.0
 40
0.3000340388706611
100
AcDbArc
 50
163.2306005061152
 51
270.0048295977081
  0
ARC
  5
3A5
330
1A
100
AcDbEntity
  8
SEIHIN
  6
CONTINUOUS
 62
     3
 48
16.0
100
AcDbCircle
 10
263.7363075884783
 20
279.8982252930385
 30
0.0
 40
1.500012141595524
100
AcDbArc
 50
163.2264655542261
 51
270.0003445900468
  0
ARC
  5
3A6
330
1A
100
AcDbEntity
  8
SEIHIN
  6
CONTINUOUS
 62
     3
 48
16.0
100
AcDbCircle
 10
265.7363166098976
 20
278.39821315147
 30
0.0
 40
2.000000000000028
100
AcDbArc
 50
179.9999999999991
 51
269.9999999999992
  0
ARC
  5
3A7
330
1A
100
AcDbEntity
  8
NOKITOI
  6
PHANTOM
 62
     8
 48
3.5
100
AcDbCircle
 10
261.4619584169429
 20
288.7850806011337
 30
0.0
 40
0.7999953624857498
100
AcDbArc
 50
90.00032191805336
 51
181.7911273464199
  0
ARC
  5
3A8
330
1A
100
AcDbEntity
  8
NOKITOI
  6
PHANTOM
 62
     8
 48
3.5
100
AcDbCircle
 10
264.913674134814
 20
280.7851346919868
 30
0.0
 40
5.2000412730095
100
AcDbArc
 50
90.00132454306161
 51
142.0757990790561
  0
ARC
  5
3A9
330
1A
100
AcDbEntity
  8
NOKITOI
  6
PHANTOM
 62
     8
 48
3.5
100
AcDbCircle
 10
261.4619666729947
 20
288.7850891186932
 30
0.0
 40
1.999986844954076
100
AcDbArc
 50
90.00036528735526
 51
181.7883072882699
  0
LINE
  5
3AA
330
1A
100
AcDbEntity
  8
NOKITOI
  6
PHANTOM
 62
     8
 48
3.5
100
AcDbLine
 10
260.6623539221452
 20
288.7600759636067
 30
0.0
 11
260.8117539221445
 21
283.9811759636069
 31
0.0
  0
ARC
  5
3AB
330
1A
100
AcDbEntity
  8
NOKITOI
  6
PHANTOM
 62
     8
 48
3.5
100
AcDbCircle
 10
267.7398477209869
 20
287.7850824986921
 30
0.0
 40
0.4999934649531607
100
AcDbArc
 50
356.9955363203384
 51
89.99928939038005
  0
LINE
  5
3AC
330
1A
100
AcDbEntity
  8
NOKITOI
  6
PHANTOM
 62
     8
 48
3.5
100
AcDbLine
 10
263.934753922145
 20
289.5850759636069
 30
0.0
 11
263.4347539221451
 21
287.085075963607
 31
0.0
  0
LINE
  5
3AD
330
1A
100
AcDbEntity
  8
NOKITOI
  6
PHANTOM
 62
     8
 48
3.5
100
AcDbLine
 10
263.4347539221451
 20
287.085075963607
 30
0.0
 11
266.3712539221449
 21
287.085075963607
 31
0.0
  0
LINE
  5
3AE
330
1A
100
AcDbEntity
  8
NOKITOI
  6
PHANTOM
 62
     8
 48
3.5
100
AcDbLine
 10
265.3754539221452
 20
285.9850759636068
 30
0.0
 11
264.9135539221449
 21
285.9850759636068
 31
0.0
  0
ARC
  5
3AF
330
1A
100
AcDbEntity
  8
NOKITOI
  6
PHANTOM
 62
     8
 48
3.5
100
AcDbCircle
 10
264.5187681405602
 20
284.2627613293058
 30
0.0
 40
0.5000073448410256
100
AcDbArc
 50
351.8729478641243
 51
96.47829282996843
  0
LINE
  5
3B0
330
1A
100
AcDbEntity
  8
NOKITOI
  6
PHANTOM
 62
     8
 48
3.5
100
AcDbLine
 10
265.3754539221452
 20
285.9850759636068
 30
0.0
 11
266.3712539221449
 21
287.085075963607
 31
0.0
  0
LINE
  5
3B1
330
1A
100
AcDbEntity
  8
NOKITOI
  6
PHANTOM
 62
     8
 48
3.5
100
AcDbLine
 10
266.3861539221449
 20
285.3134759636067
 30
0.0
 11
266.9411539221448
 21
285.9265759636069
 31
0.0
  0
LINE
  5
3B2
330
1A
100
AcDbEntity
  8
NOKITOI
  6
PHANTOM
 62
     8
 48
3.5
100
AcDbLine
 10
261.4619539221446
 20
290.7850759636068
 30
0.0
 11
264.7885539221449
 21
290.7850759636068
 31
0.0
  0
LINE
  5
3B3
330
1A
100
AcDbEntity
  8
NOKITOI
  6
PHANTOM
 62
     8
 48
3.5
100
AcDbLine
 10
261.4619539221446
 20
289.5850759636069
 30
0.0
 11
263.934753922145
 21
289.5850759636069
 31
0.0
  0
LINE
  5
3B4
330
1A
100
AcDbEntity
  8
NOKITOI
  6
PHANTOM
 62
     8
 48
3.5
100
AcDbLine
 10
265.0180539221448
 20
288.8831759636067
 30
0.0
 11
265.2788539221448
 21
290.1870759636068
 31
0.0
  0
ARC
  5
3B5
330
1A
100
AcDbEntity
  8
NOKITOI
  6
PHANTOM
 62
     8
 48
3.5
100
AcDbCircle
 10
265.5083466675894
 20
288.7850848134502
 30
0.0
 40
0.5000088498959383
100
AcDbArc
 50
168.6864043304884
 51
270.0008312961434
  0
LINE
  5
3B6
330
1A
100
AcDbEntity
  8
NOKITOI
  6
PHANTOM
 62
     8
 48
3.5
100
AcDbLine
 10
267.7398539221446
 20
288.2850759636068
 30
0.0
 11
265.5083539221448
 21
288.2850759636068
 31
0.0
  0
ARC
  5
3B7
330
1A
100
AcDbEntity
  8
NOKITOI
  6
PHANTOM
 62
     8
 48
3.5
100
AcDbCircle
 10
264.7885531391364
 20
290.2850769186085
 30
0.0
 40
0.4999990449987349
100
AcDbArc
 50
348.6967198015448
 51
89.99991027369452
  0
LINE
  5
3B8
330
1A
100
AcDbEntity
  8
NOKITOI
  6
PHANTOM
 62
     8
 48
3.5
100
AcDbLine
 10
266.7599539221448
 20
282.4850759636068
 30
0.0
 11
265.9820539221452
 21
282.4850759636068
 31
0.0
  0
LINE
  5
3B9
330
1A
100
AcDbEntity
  8
NOKITOI
  6
PHANTOM
 62
     8
 48
3.5
100
AcDbLine
 10
266.7599539221448
 20
282.4850759636068
 30
0.0
 11
266.9411539221448
 21
285.9265759636069
 31
0.0
  0
LINE
  5
3BA
330
1A
100
AcDbEntity
  8
NOKITOI
  6
PHANTOM
 62
     8
 48
3.5
100
AcDbLine
 10
265.9820539221452
 20
282.4850759636068
 30
0.0
 11
266.3861539221449
 21
285.3134759636067
 31
0.0
  0
LINE
  5
3BB
330
1A
100
AcDbEntity
  8
SEIHIN
  6
CONTINUOUS
 62
     3
 48
16.0
100
AcDbLine
 10
264.7351166098976
 20
284.2519131514701
 30
0.0
 11
263.5863166098975
 21
284.5982131514701
 31
0.0
  0
LINE
  5
3BC
330
1A
100
AcDbEntity
  8
SEIHIN
  6
CONTINUOUS
 62
     3
 48
16.0
100
AcDbLine
 10
278.6378466098976
 20
270.19831315147
 30
0.0
 11
278.6378466098976
 21
270.5982131514701
 31
0.0
  0
LINE
  5
3BD
330
1A
100
AcDbEntity
  8
SEIHIN
  6
CONTINUOUS
 62
     3
 48
16.0
100
AcDbLine
 10
286.3339466098976
 20
269.79811315147
 30
0.0
 11
279.3339466098976
 21
276.7981131514701
 31
0.0
  0
LINE
  5
3BE
330
1A
100
AcDbEntity
  8
CENTER_L
  6
CENTER
 62
     1
 48
5.0
100
AcDbLine
 10
289.3339466098976
 20
291.3688131514701
 30
0.0
 11
289.3339466098976
 21
265.32471315147
 31
0.0
  0
ARC
  5
3BF
330
1A
100
AcDbEntity
  8
SEIHIN
  6
CONTINUOUS
 62
     3
 48
16.0
100
AcDbCircle
 10
275.8410523036849
 20
272.1835180549853
 30
0.0
 40
2.000041103216348
100
AcDbArc
 50
217.570699907886
 51
313.7107426657459
  0
LINE
  5
3C0
330
1A
100
AcDbEntity
  8
SEIHIN
  6
CONTINUOUS
 62
     3
 48
16.0
100
AcDbLine
 10
285.9336466098973
 20
270.1984131514701
 30
0.0
 11
278.6378466098976
 21
270.1984131514701
 31
0.0
  0
LINE
  5
3C1
330
1A
100
AcDbEntity
  8
SEIHIN
  6
CONTINUOUS
 62
     3
 48
16.0
100
AcDbLine
 10
283.8342466098976
 20
269.3986131514701
 30
0.0
 11
294.8342466098975
 21
269.3986131514701
 31
0.0
  0
ARC
  5
3C2
330
1A
100
AcDbEntity
  8
SEIHIN
  6
CONTINUOUS
 62
     3
 48
16.0
100
AcDbCircle
 10
289.3341466098977
 20
277.4456131514701
 30
0.0
 40
9.747010259561649
100
AcDbArc
 50
235.6479976531776
 51
304.3520023468222
  0
LINE
  5
3C3
330
1A
100
AcDbEntity
  8
SEIHIN
  6
CONTINUOUS
 62
     3
 48
16.0
100
AcDbLine
 10
283.8342466098976
 20
269.3986131514701
 30
0.0
 11
283.8342466098976
 21
270.1985131514701
 31
0.0
  0
LINE
  5
3C4
330
1A
100
AcDbEntity
  8
SEIHIN
  6
CONTINUOUS
 62
     3
 48
16.0
100
AcDbLine
 10
286.3339466098976
 20
269.79811315147
 30
0.0
 11
299.3338466098975
 21
269.79811315147
 31
0.0
  0
LINE
  5
3C5
330
1A
100
AcDbEntity
  8
SEIHIN
  6
CONTINUOUS
 62
     3
 48
16.0
100
AcDbLine
 10
294.8342466098975
 20
269.3986131514701
 30
0.0
 11
294.8342466098975
 21
269.79821315147
 31
0.0
  0
ARC
  5
3C6
330
1A
100
AcDbEntity
  8
SEIHIN
  6
CONTINUOUS
 62
     3
 48
16.0
100
AcDbCircle
 10
283.2014624605828
 20
291.4615040003233
 30
0.0
 40
1.500016424910045
100
AcDbArc
 50
15.00301852584775
 51
104.9993290130918
  0
LINE
  5
3C7
330
1A
100
AcDbEntity
  8
SEIHIN
  6
CONTINUOUS
 62
     3
 48
16.0
100
AcDbLine
 10
283.8341466098976
 20
282.29871315147
 30
0.0
 11
289.3341466098977
 21
282.2986131514701
 31
0.0
  0
ARC
  5
3C8
330
1A
100
AcDbEntity
  8
SEIHIN
  6
CONTINUOUS
 62
     3
 48
16.0
100
AcDbCircle
 10
284.2412328796675
 20
285.9755106988501
 30
0.0
 40
0.4999732692047813
100
AcDbArc
 50
222.8773689717967
 51
337.3801181495897
  0
ARC
  5
3C9
330
1A
100
AcDbEntity
  8
SEIHIN
  6
CONTINUOUS
 62
     3
 48
16.0
100
AcDbCircle
 10
290.4700659501413
 20
291.7593081017423
 30
0.0
 40
9.999994428414789
100
AcDbArc
 50
205.0007250443951
 51
235.696102103716
  0
LINE
  5
3CA
330
1A
100
AcDbEntity
  8
SEIHIN
  6
CONTINUOUS
 62
     3
 48
16.0
100
AcDbLine
 10
277.8976166098975
 20
270.5984131514701
 30
0.0
 11
285.5336466098975
 21
270.5984131514701
 31
0.0
  0
LINE
  5
3CB
330
1A
100
AcDbEntity
  8
SEIHIN
  6
CONTINUOUS
 62
     3
 48
16.0
100
AcDbLine
 10
299.3339466098976
 20
280.79821315147
 30
0.0
 11
279.3339466098976
 21
280.79831315147
 31
0.0
  0
LINE
  5
3CC
330
1A
100
AcDbEntity
  8
SEIHIN
  6
CONTINUOUS
 62
     3
 48
16.0
100
AcDbLine
 10
283.6844466098976
 20
291.5910131514701
 30
0.0
 11
284.9860466098976
 21
286.73341315147
 31
0.0
  0
LINE
  5
3CD
330
1A
100
AcDbEntity
  8
SEIHIN
  6
CONTINUOUS
 62
     3
 48
16.0
100
AcDbLine
 10
283.8341466098976
 20
282.29871315147
 30
0.0
 11
283.8341466098976
 21
280.7987131514701
 31
0.0
  0
LINE
  5
3D0
330
1A
100
AcDbEntity
  8
SEIHIN
  6
CONTINUOUS
 62
     3
 48
16.0
100
AcDbLine
 10
277.5013166098975
 20
271.99341315147
 30
0.0
 11
272.3119166098975
 21
278.7396131514701
 31
0.0
  0
ARC
  5
3D1
330
1A
100
AcDbEntity
  8
SEIHIN
  6
CONTINUOUS
 62
     3
 48
16.0
100
AcDbCircle
 10
277.8975901796127
 20
272.2982261660762
 30
0.0
 40
1.700013014811606
100
AcDbArc
 50
217.5684553619165
 51
270.0008907836318
  0
ARC
  5
3D2
330
1A
100
AcDbEntity
  8
SEIHIN
  6
CONTINUOUS
 62
     3
 48
16.0
100
AcDbCircle
 10
270.5681308930562
 20
277.3982024764671
 30
0.0
 40
2.200038914490237
100
AcDbArc
 50
37.569356759628
 51
68.88384407614674
  0
ARC
  5
3D3
330
1A
100
AcDbEntity
  8
SEIHIN
  6
CONTINUOUS
 62
     3
 48
16.0
100
AcDbCircle
 10
270.5682080892901
 20
277.3981961004658
 30
0.0
 40
2.200017052906235
100
AcDbArc
 50
68.88577934791921
 51
90.00238242839978
  0
LINE
  5
3D5
330
1A
100
AcDbEntity
  8
SEIHIN
  6
CONTINUOUS
 62
     3
 48
16.0
100
AcDbLine
 10
270.3759166098975
 20
276.0079131514701
 30
0.0
 11
274.2558166098975
 21
270.96401315147
 31
0.0
  0
LINE
  5
3D6
330
1A
100
AcDbEntity
  8
SEIHIN
  6
CONTINUOUS
 62
     3
 48
16.0
100
AcDbLine
 10
276.5501166098975
 20
271.2617131514701
 30
0.0
 11
271.3607166098975
 21
278.0079131514701
 31
0.0
  0
ARC
  5
3D7
330
1A
100
AcDbEntity
  8
SEIHIN
  6
CONTINUOUS
 62
     3
 48
16.0
100
AcDbCircle
 10
269.5832906397047
 20
275.3982259391337
 30
0.0
 40
0.9999872126736008
100
AcDbArc
 50
37.56745337482034
 51
89.99851199852548
  0
ARC
  5
3D8
330
1A
100
AcDbEntity
  8
SEIHIN
  6
CONTINUOUS
 62
     3
 48
16.0
100
AcDbCircle
 10
270.5680906397045
 20
277.3982259391336
 30
0.0
 40
0.9999872126737322
100
AcDbArc
 50
37.56745337481994
 51
89.99851199852416
  0
LINE
  5
3DA
330
1A
100
AcDbEntity
  8
SEIHIN
  6
CONTINUOUS
 62
     3
 48
16.0
100
AcDbLine
 10
277.8976166098975
 20
270.5982131514701
 30
0.0
 11
277.8976166098975
 21
277.5982131514701
 31
0.0
  0
ARC
  5
3DB
330
1A
100
AcDbEntity
  8
SEIHIN
  6
CONTINUOUS
 62
     3
 48
16.0
100
AcDbCircle
 10
277.8976605454646
 20
272.2981915155337
 30
0.0
 40
0.4999783659940606
100
AcDbArc
 50
217.5593647406146
 51
269.994965137017
  0
LINE
  5
3DC
330
1A
100
AcDbEntity
  8
SEIHIN
  6
CONTINUOUS
 62
     3
 48
16.0
100
AcDbLine
 10
279.3339466098976
 20
276.7981131514701
 30
0.0
 11
279.3339466098976
 21
280.7981131514701
 31
0.0
  0
ARC
  5
3DD
330
1A
100
AcDbEntity
  8
SEIHIN
  6
CONTINUOUS
 62
     3
 48
16.0
100
AcDbCircle
 10
279.8976166098975
 20
277.5982131514701
 30
0.0
 40
2.0
100
AcDbArc
 50
106.3697538160878
 51
180.0
  0
LINE
  5
3DE
330
1A
100
AcDbEntity
  8
SEIHIN
  6
CONTINUOUS
 62
     3
 48
16.0
100
AcDbLine
 10
281.3196466098975
 20
291.4750131514701
 30
0.0
 11
283.0721466098976
 21
291.94451315147
 31
0.0
  0
LINE
  5
3DF
330
1A
100
AcDbEntity
  8
SEIHIN
  6
CONTINUOUS
 62
     3
 48
16.0
100
AcDbLine
 10
282.8132466098977
 20
292.91041315147
 30
0.0
 11
281.0609466098977
 21
292.4409131514701
 31
0.0
  0
ARC
  5
3E0
330
1A
100
AcDbEntity
  8
SEIHIN
  6
CONTINUOUS
 62
     3
 48
16.0
100
AcDbCircle
 10
281.4489411837915
 20
290.9919015158722
 30
0.0
 40
1.500013318264655
100
AcDbArc
 50
104.9985194361928
 51
204.998117930741
  0
ARC
  5
3E1
330
1A
100
AcDbEntity
  8
SEIHIN
  6
CONTINUOUS
 62
     3
 48
16.0
100
AcDbCircle
 10
281.4491453492428
 20
290.9920104483159
 30
0.0
 40
0.500035643727986
100
AcDbArc
 50
104.9976264979411
 51
204.9965994016853
  0
ARC
  5
3E2
330
1A
100
AcDbEntity
  8
SEIHIN
  6
CONTINUOUS
 62
     3
 48
16.0
100
AcDbCircle
 10
283.2014624648232
 20
291.4615039988715
 30
0.0
 40
0.5000463028560472
100
AcDbArc
 50
15.01039707620244
 51
104.999329581437
  0
ARC
  5
3E3
330
1A
100
AcDbEntity
  8
SEIHIN
  6
CONTINUOUS
 62
     3
 48
16.0
100
AcDbCircle
 10
290.4700841376562
 20
291.7593059841185
 30
0.0
 40
9.000024792292794
100
AcDbArc
 50
205.0008288656333
 51
222.8781744476658
  0
LINE
  5
3E4
330
1A
100
AcDbEntity
  8
SEIHIN
  6
CONTINUOUS
 62
     3
 48
16.0
100
AcDbLine
 10
282.3133466098976
 20
287.95561315147
 30
0.0
 11
280.9959466098976
 21
290.7807131514701
 31
0.0
  0
LINE
  5
3E5
330
1A
100
AcDbEntity
  8
SEIHIN
  6
CONTINUOUS
 62
     3
 48
16.0
100
AcDbLine
 10
280.0896466098975
 20
290.35811315147
 30
0.0
 11
281.4070466098975
 21
287.5330131514701
 31
0.0
  0
LINE
  5
3E6
330
1A
100
AcDbEntity
  8
SEIHIN
  6
CONTINUOUS
 62
     3
 48
16.0
100
AcDbLine
 10
294.8341466098976
 20
282.2986131514701
 30
0.0
 11
294.8341466098976
 21
280.79831315147
 31
0.0
  0
LINE
  5
3E7
330
1A
100
AcDbEntity
  8
SEIHIN
  6
CONTINUOUS
 62
     3
 48
16.0
100
AcDbLine
 10
294.8341466098976
 20
282.2986131514701
 30
0.0
 11
289.3341466098977
 21
282.2986131514701
 31
0.0
  0
LINE
  5
3E8
330
1A
100
AcDbEntity
  8
SEIHIN
  6
CONTINUOUS
 62
     3
 48
16.0
100
AcDbLine
 10
289.3341466098977
 20
286.4986131514701
 30
0.0
 11
292.5841466098976
 21
286.4987131514701
 31
0.0
  0
LINE
  5
3E9
330
1A
100
AcDbEntity
  8
SEIHIN
  6
CONTINUOUS
 62
     3
 48
16.0
100
AcDbLine
 10
293.8341466098975
 20
283.4987131514701
 30
0.0
 11
289.3341466098977
 21
283.4986131514701
 31
0.0
  0
LINE
  5
3EA
330
1A
100
AcDbEntity
  8
SEIHIN
  6
CONTINUOUS
 62
     3
 48
16.0
100
AcDbLine
 10
291.8341466098975
 20
287.7986131514701
 30
0.0
 11
291.8341466098975
 21
286.4987131514701
 31
0.0
  0
LINE
  5
3EB
330
1A
100
AcDbEntity
  8
SEIHIN
  6
CONTINUOUS
 62
     3
 48
16.0
100
AcDbLine
 10
289.3341466098977
 20
287.7986131514701
 30
0.0
 11
286.8342466098975
 21
287.7986131514701
 31
0.0
  0
LINE
  5
3EC
330
1A
100
AcDbEntity
  8
SEIHIN
  6
CONTINUOUS
 62
     3
 48
16.0
100
AcDbLine
 10
284.9646466098976
 20
286.41161315147
 30
0.0
 11
284.7027466098976
 21
285.78321315147
 31
0.0
  0
LINE
  5
3ED
330
1A
100
AcDbEntity
  8
SEIHIN
  6
CONTINUOUS
 62
     3
 48
16.0
100
AcDbLine
 10
286.8342466098975
 20
287.7986131514701
 30
0.0
 11
286.8342466098975
 21
286.4986131514701
 31
0.0
  0
LINE
  5
3EE
330
1A
100
AcDbEntity
  8
SEIHIN
  6
CONTINUOUS
 62
     3
 48
16.0
100
AcDbLine
 10
284.8341466098976
 20
283.4987131514701
 30
0.0
 11
289.3341466098977
 21
283.4986131514701
 31
0.0
  0
LINE
  5
3EF
330
1A
100
AcDbEntity
  8
SEIHIN
  6
CONTINUOUS
 62
     3
 48
16.0
100
AcDbLine
 10
289.3341466098977
 20
286.4986131514701
 30
0.0
 11
286.0842466098975
 21
286.4987131514701
 31
0.0
  0
LINE
  5
3F0
330
1A
100
AcDbEntity
  8
SEIHIN
  6
CONTINUOUS
 62
     3
 48
16.0
100
AcDbLine
 10
284.8341466098976
 20
283.4987131514701
 30
0.0
 11
285.3341466098977
 21
282.29871315147
 31
0.0
  0
LINE
  5
3F1
330
1A
100
AcDbEntity
  8
SEIHIN
  6
CONTINUOUS
 62
     3
 48
16.0
100
AcDbLine
 10
284.8341466098976
 20
283.4987131514701
 30
0.0
 11
286.0842466098975
 21
286.4987131514701
 31
0.0
  0
ARC
  5
3F2
330
1A
100
AcDbEntity
  8
SEIHIN
  6
CONTINUOUS
 62
     3
 48
16.0
100
AcDbCircle
 10
284.5030405288093
 20
286.6039219461725
 30
0.0
 40
0.5000628426684893
100
AcDbArc
 50
337.3829983264293
 51
15.00775994294664
  0
LINE
  5
3F3
330
1A
100
AcDbEntity
  8
SEIHIN
  6
CONTINUOUS
 62
     3
 48
16.0
100
AcDbLine
 10
289.3342466098975
 20
287.7986131514701
 30
0.0
 11
291.8341466098975
 21
287.7986131514701
 31
0.0
  0
LINE
  5
3F4
330
1A
100
AcDbEntity
  8
SEIHIN
  6
CONTINUOUS
 62
     3
 48
16.0
100
AcDbLine
 10
286.0842466098975
 20
286.4987131514701
 30
0.0
 11
284.6503466098975
 21
291.84981315147
 31
0.0
  0
LINE
  5
3F5
330
1A
100
AcDbEntity
  8
SEIHIN
  6
CONTINUOUS
 62
     3
 48
16.0
100
AcDbLine
 10
295.8551466098976
 20
292.91041315147
 30
0.0
 11
297.6074466098976
 21
292.4409131514701
 31
0.0
  0
LINE
  5
3F6
330
1A
100
AcDbEntity
  8
SEIHIN
  6
CONTINUOUS
 62
     3
 48
16.0
100
AcDbLine
 10
297.3486466098975
 20
291.47491315147
 30
0.0
 11
295.5963466098976
 21
291.94451315147
 31
0.0
  0
ARC
  5
3F7
330
1A
100
AcDbEntity
  8
SEIHIN
  6
CONTINUOUS
 62
     3
 48
16.0
100
AcDbCircle
 10
295.4669466098976
 20
291.46151315147
 30
0.0
 40
1.500003483329295
100
AcDbArc
 50
75.00116534316392
 51
165.0011653431647
  0
ARC
  5
3F8
330
1A
100
AcDbEntity
  8
SEIHIN
  6
CONTINUOUS
 62
     3
 48
16.0
100
AcDbCircle
 10
297.2192745170843
 20
290.9919533075448
 30
0.0
 40
0.49998734908321
100
AcDbArc
 50
335.0080449606104
 51
75.00405205756696
  0
ARC
  5
3F9
330
1A
100
AcDbEntity
  8
SEIHIN
  6
CONTINUOUS
 62
     3
 48
16.0
100
AcDbCircle
 10
295.4669466098976
 20
291.46151315147
 30
0.0
 40
0.5000333588872284
100
AcDbArc
 50
75.0021538181001
 51
165.0021538181033
  0
ARC
  5
3FA
330
1A
100
AcDbEntity
  8
SEIHIN
  6
CONTINUOUS
 62
     3
 48
16.0
100
AcDbCircle
 10
297.2192636928572
 20
290.9919765163357
 30
0.0
 40
1.50003444950985
100
AcDbArc
 50
334.9990975355038
 51
75.00215776397097
  0
LINE
  5
3FB
330
1A
100
AcDbEntity
  8
SEIHIN
  6
CONTINUOUS
 62
     3
 48
16.0
100
AcDbLine
 10
293.7038466098975
 20
286.41161315147
 30
0.0
 11
293.9656466098975
 21
285.78321315147
 31
0.0
  0
LINE
  5
3FC
330
1A
100
AcDbEntity
  8
SEIHIN
  6
CONTINUOUS
 62
     3
 48
16.0
100
AcDbLine
 10
293.8341466098975
 20
283.4987131514701
 30
0.0
 11
293.3341466098976
 21
282.29871315147
 31
0.0
  0
LINE
  5
3FD
330
1A
100
AcDbEntity
  8
SEIHIN
  6
CONTINUOUS
 62
     3
 48
16.0
100
AcDbLine
 10
293.8341466098975
 20
283.4987131514701
 30
0.0
 11
292.5841466098976
 21
286.4987131514701
 31
0.0
  0
ARC
  5
3FE
330
1A
100
AcDbEntity
  8
SEIHIN
  6
CONTINUOUS
 62
     3
 48
16.0
100
AcDbCircle
 10
288.1983262389478
 20
291.7591891715273
 30
0.0
 40
10.00003573047771
100
AcDbArc
 50
304.3044371974912
 51
335.0001371699181
  0
ARC
  5
3FF
330
1A
100
AcDbEntity
  8
SEIHIN
  6
CONTINUOUS
 62
     3
 48
16.0
100
AcDbCircle
 10
294.1653531336535
 20
286.603915325517
 30
0.0
 40
0.4999683966137843
100
AcDbArc
 50
164.9885528190636
 51
202.6206889115297
  0
ARC
  5
400
330
1A
100
AcDbEntity
  8
SEIHIN
  6
CONTINUOUS
 62
     3
 48
16.0
100
AcDbCircle
 10
294.4272063196498
 20
285.9755203500834
 30
0.0
 40
0.5000194239279034
100
AcDbArc
 50
202.6188762781231
 51
317.126032511708
  0
ARC
  5
401
330
1A
100
AcDbEntity
  8
SEIHIN
  6
CONTINUOUS
 62
     3
 48
16.0
100
AcDbCircle
 10
288.1984090821392
 20
291.7593059841188
 30
0.0
 40
9.000024792292954
100
AcDbArc
 50
317.1218255523321
 51
334.9991711343647
  0
LINE
  5
402
330
1A
100
AcDbEntity
  8
SEIHIN
  6
CONTINUOUS
 62
     3
 48
16.0
100
AcDbLine
 10
294.9839466098976
 20
291.59091315147
 30
0.0
 11
293.6823466098975
 21
286.73341315147
 31
0.0
  0
LINE
  5
403
330
1A
100
AcDbEntity
  8
SEIHIN
  6
CONTINUOUS
 62
     3
 48
16.0
100
AcDbLine
 10
298.5787466098976
 20
290.35811315147
 30
0.0
 11
297.2613466098976
 21
287.5330131514701
 31
0.0
  0
LINE
  5
404
330
1A
100
AcDbEntity
  8
SEIHIN
  6
CONTINUOUS
 62
     3
 48
16.0
100
AcDbLine
 10
292.5841466098976
 20
286.4987131514701
 30
0.0
 11
294.0180466098975
 21
291.84981315147
 31
0.0
  0
LINE
  5
405
330
1A
100
AcDbEntity
  8
SEIHIN
  6
CONTINUOUS
 62
     3
 48
16.0
100
AcDbLine
 10
296.3550466098975
 20
287.95561315147
 30
0.0
 11
297.6724466098977
 21
290.7807131514701
 31
0.0
  0
LINE
  5
414
330
1A
100
AcDbEntity
  8
SEIHIN
  6
CONTINUOUS
 62
     3
 48
16.0
100
AcDbLine
 10
264.7352166098975
 20
457.1921845297861
 30
0.0
 11
275.6514166098976
 21
457.1921845297861
 31
0.0
  0
LINE
  5
415
330
1A
100
AcDbEntity
  8
SEIHIN
  6
CONTINUOUS
 62
     3
 48
16.0
100
AcDbLine
 10
264.7352166098975
 20
461.1921845297861
 30
0.0
 11
275.6514166098976
 21
461.1921845297861
 31
0.0
  0
LINE
  5
416
330
1A
100
AcDbEntity
  8
SEIHIN
  6
CONTINUOUS
 62
     3
 48
16.0
100
AcDbLine
 10
262.2363166098975
 20
452.8921845297863
 30
0.0
 11
279.3339166098975
 21
452.8921845297863
 31
0.0
  0
LINE
  5
417
330
1A
100
AcDbEntity
  8
SEIHIN
  6
CONTINUOUS
 62
     3
 48
16.0
100
AcDbLine
 10
262.2363166098975
 20
465.4921845297862
 30
0.0
 11
279.3339166098975
 21
465.4921845297862
 31
0.0
  0
LINE
  5
418
330
1A
100
AcDbEntity
  8
SEIHIN
  6
CONTINUOUS
 62
     3
 48
16.0
100
AcDbLine
 10
262.2363166098975
 20
452.8921845297863
 30
0.0
 11
262.2363166098975
 21
459.1921845297861
 31
0.0
  0
LINE
  5
41C
330
1A
100
AcDbEntity
  8
SEIHIN
  6
CONTINUOUS
 62
     3
 48
16.0
100
AcDbLine
 10
263.5863166098975
 20
452.8921845297863
 30
0.0
 11
263.5863166098975
 21
465.4921845297862
 31
0.0
  0
LINE
  5
41D
330
1A
100
AcDbEntity
  8
SEIHIN
  6
CONTINUOUS
 62
     3
 48
16.0
100
AcDbLine
 10
264.7352166098975
 20
452.8921845297863
 30
0.0
 11
264.7352166098975
 21
465.4921845297862
 31
0.0
  0
LINE
  5
423
330
1A
100
AcDbEntity
  8
SEIHIN
  6
CONTINUOUS
 62
     3
 48
16.0
100
AcDbLine
 10
262.2363166098975
 20
465.4921845297862
 30
0.0
 11
262.2363166098975
 21
459.1921845297861
 31
0.0
  0
LINE
  5
424
330
1A
100
AcDbEntity
  8
SEIHIN
  6
CONTINUOUS
 62
     3
 48
16.0
100
AcDbLine
 10
299.3339166098976
 20
451.2421845297862
 30
0.0
 11
299.3339166098976
 21
459.1921845297861
 31
0.0
  0
LINE
  5
425
330
1A
100
AcDbEntity
  8
SEIHIN
  6
CONTINUOUS
 62
     3
 48
16.0
100
AcDbLine
 10
279.3339166098975
 20
450.2421845297861
 30
0.0
 11
279.3339166098975
 21
459.1921845297861
 31
0.0
  0
LINE
  5
426
330
1A
100
AcDbEntity
  8
SEIHIN
  6
CONTINUOUS
 62
     3
 48
16.0
100
AcDbLine
 10
277.6514166098976
 20
453.8921845297863
 30
0.0
 11
277.6514166098976
 21
459.1921845297861
 31
0.0
  0
LINE
  5
427
330
1A
100
AcDbEntity
  8
CENTER_L
  6
CENTER
 62
     1
 48
5.0
100
AcDbLine
 10
289.3339166098975
 20
451.7272845297862
 30
0.0
 11
289.3339166098975
 21
466.5986845297863
 31
0.0
  0
LINE
  5
428
330
1A
100
AcDbEntity
  8
SEIHIN
  6
CONTINUOUS
 62
     3
 48
16.0
100
AcDbLine
 10
271.6514166098976
 20
453.8921845297863
 30
0.0
 11
271.6514166098976
 21
456.192184529786
 31
0.0
  0
LINE
  5
429
330
1A
100
AcDbEntity
  8
SEIHIN
  6
CONTINUOUS
 62
     3
 48
16.0
100
AcDbLine
 10
277.8976166098975
 20
451.6921845297861
 30
0.0
 11
279.3339166098975
 21
451.6921845297861
 31
0.0
  0
LINE
  5
42A
330
1A
100
AcDbEntity
  8
SEIHIN
  6
CONTINUOUS
 62
     3
 48
16.0
100
AcDbLine
 10
277.8976166098975
 20
451.6920845297861
 30
0.0
 11
277.8976166098975
 21
452.8921845297863
 31
0.0
  0
LINE
  5
42B
330
1A
100
AcDbEntity
  8
SEIHIN
  6
CONTINUOUS
 62
     3
 48
16.0
100
AcDbLine
 10
286.3339166098975
 20
457.9421845297861
 30
0.0
 11
279.8335166098975
 21
457.9421845297861
 31
0.0
  0
LINE
  5
42C
330
1A
100
AcDbEntity
  8
SEIHIN
  6
CONTINUOUS
 62
     3
 48
16.0
100
AcDbLine
 10
286.3339166098975
 20
460.4421845297861
 30
0.0
 11
279.8335166098975
 21
460.4421845297861
 31
0.0
  0
LINE
  5
42D
330
1A
100
AcDbEntity
  8
SEIHIN
  6
CONTINUOUS
 62
     3
 48
16.0
100
AcDbLine
 10
279.3339166098975
 20
468.1421845297863
 30
0.0
 11
279.3339166098975
 21
459.1921845297861
 31
0.0
  0
LINE
  5
42E
330
1A
100
AcDbEntity
  8
SEIHIN
  6
CONTINUOUS
 62
     3
 48
16.0
100
AcDbLine
 10
277.6514166098976
 20
464.4921845297862
 30
0.0
 11
277.6514166098976
 21
459.1921845297861
 31
0.0
  0
LINE
  5
42F
330
1A
100
AcDbEntity
  8
SEIHIN
  6
CONTINUOUS
 62
     3
 48
16.0
100
AcDbLine
 10
271.6514166098976
 20
464.4921845297862
 30
0.0
 11
271.6514166098976
 21
462.1921845297862
 31
0.0
  0
ARC
  5
430
330
1A
100
AcDbEntity
  8
SEIHIN
  6
CONTINUOUS
 62
     3
 48
16.0
100
AcDbCircle
 10
275.6514166098976
 20
459.1921845297861
 30
0.0
 40
1.999999999999985
100
AcDbArc
 50
0.0000000000004071
 51
90.0000000000004
  0
ARC
  5
431
330
1A
100
AcDbEntity
  8
SEIHIN
  6
CONTINUOUS
 62
     3
 48
16.0
100
AcDbCircle
 10
275.6514166098976
 20
459.1921845297861
 30
0.0
 40
2.0
100
AcDbArc
 50
270.0
 51
0.0
  0
ARC
  5
432
330
1A
100
AcDbEntity
  8
SEIHIN
  6
CONTINUOUS
 62
     3
 48
16.0
100
AcDbCircle
 10
272.6666166098975
 20
459.1921845297861
 30
0.0
 40
2.000000000000028
100
AcDbArc
 50
89.99999999999836
 51
179.9999999999983
  0
ARC
  5
433
330
1A
100
AcDbEntity
  8
SEIHIN
  6
CONTINUOUS
 62
     3
 48
16.0
100
AcDbCircle
 10
272.6666166098975
 20
459.1921845297862
 30
0.0
 40
2.000000000000042
100
AcDbArc
 50
180.0000000000012
 51
270.0000000000012
  0
LINE
  5
434
330
1A
100
AcDbEntity
  8
SEIHIN
  6
CONTINUOUS
 62
     3
 48
16.0
100
AcDbLine
 10
279.3335166098975
 20
458.4421845297862
 30
0.0
 11
279.3335166098975
 21
459.9421845297861
 31
0.0
  0
ARC
  5
435
330
1A
100
AcDbEntity
  8
SEIHIN
  6
CONTINUOUS
 62
     3
 48
16.0
100
AcDbCircle
 10
279.8335166098977
 20
458.4421845297861
 30
0.0
 40
0.5000000000000285
100
AcDbArc
 50
179.9999999999902
 51
269.9999999999902
  0
ARC
  5
436
330
1A
100
AcDbEntity
  8
SEIHIN
  6
CONTINUOUS
 62
     3
 48
16.0
100
AcDbCircle
 10
279.8335166098975
 20
459.9421845297861
 30
0.0
 40
0.4999999999999574
100
AcDbArc
 50
90.00000000000161
 51
180.0000000000016
  0
LINE
  5
437
330
1A
100
AcDbEntity
  8
SEIHIN
  6
CONTINUOUS
 62
     3
 48
16.0
100
AcDbLine
 10
277.8976166098975
 20
466.6921845297861
 30
0.0
 11
277.8976166098975
 21
465.4921845297862
 31
0.0
  0
LINE
  5
438
330
1A
100
AcDbEntity
  8
SEIHIN
  6
CONTINUOUS
 62
     3
 48
16.0
100
AcDbLine
 10
277.8976166098975
 20
466.6921845297861
 30
0.0
 11
279.3339166098975
 21
466.6921845297861
 31
0.0
  0
LINE
  5
439
330
1A
100
AcDbEntity
  8
SEIHIN
  6
CONTINUOUS
 62
     3
 48
16.0
100
AcDbLine
 10
299.3339166098976
 20
467.1421845297863
 30
0.0
 11
299.3339166098976
 21
459.1921845297861
 31
0.0
  0
ARC
  5
43A
330
1A
100
AcDbEntity
  8
SEIHIN
  6
CONTINUOUS
 62
     3
 48
16.0
100
AcDbCircle
 10
289.3339166098975
 20
459.1921845297861
 30
0.0
 40
4.499996045553759
100
AcDbArc
 50
16.12763477212874
 51
163.8723652278712
  0
ARC
  5
43B
330
1A
100
AcDbEntity
  8
SEIHIN
  6
CONTINUOUS
 62
     3
 48
16.0
100
AcDbCircle
 10
289.3339166098975
 20
459.1921845297861
 30
0.0
 40
4.499996045553759
100
AcDbArc
 50
196.1276347721287
 51
343.8723652278712
  0
ARC
  5
43C
330
1A
100
AcDbEntity
  8
SEIHIN
  6
CONTINUOUS
 62
     3
 48
16.0
100
AcDbCircle
 10
289.3339166098975
 20
459.1921845297861
 30
0.0
 40
5.500027928110867
100
AcDbArc
 50
13.13649088801976
 51
166.8635091119802
  0
ARC
  5
43D
330
1A
100
AcDbEntity
  8
SEIHIN
  6
CONTINUOUS
 62
     3
 48
16.0
100
AcDbCircle
 10
289.3339166098975
 20
459.1921845297861
 30
0.0
 40
5.500027928110867
100
AcDbArc
 50
193.1364908880197
 51
346.8635091119801
  0
ARC
  5
43E
330
1A
100
AcDbEntity
  8
SEIHIN
  6
CONTINUOUS
 62
     3
 48
16.0
100
AcDbCircle
 10
289.3339166098975
 20
459.1921845297861
 30
0.0
 40
3.249999999999971
100
AcDbArc
 50
0.0
 51
180.0
  0
ARC
  5
43F
330
1A
100
AcDbEntity
  8
SEIHIN
  6
CONTINUOUS
 62
     3
 48
16.0
100
AcDbCircle
 10
289.3339166098975
 20
459.1921845297861
 30
0.0
 40
3.249999999999971
100
AcDbArc
 50
180.0
 51
0.0
  0
LINE
  5
440
330
1A
100
AcDbEntity
  8
SEIHIN
  6
CONTINUOUS
 62
     3
 48
16.0
100
AcDbLine
 10
284.2615166098975
 20
458.4421845297862
 30
0.0
 11
284.2615166098975
 21
459.9421845297861
 31
0.0
  0
ARC
  5
441
330
1A
100
AcDbEntity
  8
SEIHIN
  6
CONTINUOUS
 62
     3
 48
16.0
100
AcDbCircle
 10
284.7615166098975
 20
459.9421845297861
 30
0.0
 40
0.4999999999999574
100
AcDbArc
 50
90.00000000000161
 51
180.0000000000016
  0
ARC
  5
442
330
1A
100
AcDbEntity
  8
SEIHIN
  6
CONTINUOUS
 62
     3
 48
16.0
100
AcDbCircle
 10
284.7615166098977
 20
458.4421845297861
 30
0.0
 40
0.5000000000000285
100
AcDbArc
 50
179.9999999999902
 51
269.9999999999902
  0
ARC
  5
443
330
1A
100
AcDbEntity
  8
SEIHIN
  6
CONTINUOUS
 62
     3
 48
16.0
100
AcDbCircle
 10
289.3339166098975
 20
459.1921845297861
 30
0.0
 40
2.5
100
AcDbArc
 50
0.0
 51
180.0
  0
ARC
  5
444
330
1A
100
AcDbEntity
  8
SEIHIN
  6
CONTINUOUS
 62
     3
 48
16.0
100
AcDbCircle
 10
289.3339166098975
 20
459.1921845297861
 30
0.0
 40
2.5
100
AcDbArc
 50
180.0
 51
0.0
  0
LINE
  5
445
330
1A
100
AcDbEntity
  8
SEIHIN
  6
CONTINUOUS
 62
     3
 48
16.0
100
AcDbLine
 10
299.3343166098976
 20
459.9421845297861
 30
0.0
 11
299.3343166098976
 21
458.4421845297862
 31
0.0
  0
LINE
  5
446
330
1A
100
AcDbEntity
  8
SEIHIN
  6
CONTINUOUS
 62
     3
 48
16.0
100
AcDbLine
 10
294.4063166098976
 20
459.9421845297861
 30
0.0
 11
294.4063166098976
 21
458.4421845297862
 31
0.0
  0
LINE
  5
447
330
1A
100
AcDbEntity
  8
SEIHIN
  6
CONTINUOUS
 62
     3
 48
16.0
100
AcDbLine
 10
292.3339166098975
 20
457.9421845297861
 30
0.0
 11
298.8343166098975
 21
457.9421845297861
 31
0.0
  0
LINE
  5
448
330
1A
100
AcDbEntity
  8
SEIHIN
  6
CONTINUOUS
 62
     3
 48
16.0
100
AcDbLine
 10
292.3339166098975
 20
460.4421845297861
 30
0.0
 11
298.8343166098975
 21
460.4421845297861
 31
0.0
  0
ARC
  5
449
330
1A
100
AcDbEntity
  8
SEIHIN
  6
CONTINUOUS
 62
     3
 48
16.0
100
AcDbCircle
 10
293.9063166098977
 20
459.9421845297861
 30
0.0
 40
0.4999999999999858
100
AcDbArc
 50
0.0000000000016284
 51
90.00000000000161
  0
ARC
  5
44A
330
1A
100
AcDbEntity
  8
SEIHIN
  6
CONTINUOUS
 62
     3
 48
16.0
100
AcDbCircle
 10
293.9063166098975
 20
458.4421845297862
 30
0.0
 40
0.5000000000000569
100
AcDbArc
 50
270.0000000000065
 51
0.0000000000065138
  0
ARC
  5
44B
330
1A
100
AcDbEntity
  8
SEIHIN
  6
CONTINUOUS
 62
     3
 48
16.0
100
AcDbCircle
 10
298.8343166098975
 20
458.4421845297862
 30
0.0
 40
0.5000000000000569
100
AcDbArc
 50
270.0000000000065
 51
0.0000000000065138
  0
ARC
  5
44C
330
1A
100
AcDbEntity
  8
SEIHIN
  6
CONTINUOUS
 62
     3
 48
16.0
100
AcDbCircle
 10
298.8343166098977
 20
459.9421845297861
 30
0.0
 40
0.4999999999999858
100
AcDbArc
 50
0.0000000000016284
 51
90.00000000000161
  0
ARC
  5
44D
330
1A
100
AcDbEntity
  8
SEIHIN
  6
CONTINUOUS
 62
     3
 48
16.0
100
AcDbCircle
 10
368.2477998763556
 20
282.5982044714776
 30
0.0
 40
10.00000868000652
100
AcDbArc
 50
89.99990412394963
 51
144.8330848664228
  0
LINE
  5
44E
330
1A
100
AcDbEntity
  8
SEIHIN
  6
CONTINUOUS
 62
     3
 48
16.0
100
AcDbLine
 10
322.7449466098976
 20
306.18421315147
 30
0.0
 11
385.6348466098976
 21
311.6862131514701
 31
0.0
  0
LINE
  5
44F
330
1A
100
AcDbEntity
  8
SEIHIN
  6
CONTINUOUS
 62
     3
 48
16.0
100
AcDbLine
 10
383.2192466098975
 20
300.4329131514701
 30
0.0
 11
328.9966466098974
 21
295.68911315147
 31
0.0
  0
ARC
  5
450
330
1A
100
AcDbEntity
  8
SEIHIN
  6
CONTINUOUS
 62
     3
 48
16.0
100
AcDbCircle
 10
368.2478698706801
 20
282.5982670527667
 30
0.0
 40
19.00003024406641
100
AcDbArc
 50
125.8514733178776
 51
144.8338901924741
  0
ARC
  5
451
330
1A
100
AcDbEntity
  8
SEIHIN
  6
CONTINUOUS
 62
     3
 48
16.0
100
AcDbCircle
 10
329.9554395362876
 20
284.7308092494645
 30
0.0
 40
11.00006022188247
100
AcDbArc
 50
94.99986671047604
 51
142.7648289625843
  0
LINE
  5
452
330
1A
100
AcDbEntity
  8
SEIHIN
  6
CONTINUOUS
 62
     3
 48
16.0
100
AcDbLine
 10
312.2382914688977
 20
279.5982131514701
 30
0.0
 11
337.7049166098976
 21
279.5982131514701
 31
0.0
  0
LINE
  5
453
330
1A
100
AcDbEntity
  8
SEIHIN
  6
CONTINUOUS
 62
     3
 48
16.0
100
AcDbLine
 10
303.452926564825
 20
270.5984191171032
 30
0.0
 11
363.0606166098974
 21
270.5982131514701
 31
0.0
  0
LINE
  5
454
330
1A
100
AcDbEntity
  8
SEIHIN
  6
CONTINUOUS
 62
     3
 48
16.0
100
AcDbLine
 10
364.6606166098974
 20
270.1982131514701
 30
0.0
 11
302.2744047889576
 21
270.1984188439209
 31
0.0
  0
LINE
  5
455
330
1A
100
AcDbEntity
  8
SEIHIN
  6
CONTINUOUS
 62
     3
 48
16.0
100
AcDbLine
 10
308.0916466098976
 20
274.14211315147
 30
0.0
 11
321.1976466098976
 21
291.3868131514701
 31
0.0
  0
ARC
  5
456
330
1A
100
AcDbEntity
  8
SEIHIN
  6
CONTINUOUS
 62
     3
 48
16.0
100
AcDbCircle
 10
364.6606166098976
 20
271.0982131514701
 30
0.0
 40
0.9000000000000483
100
AcDbArc
 50
269.9999999999972
 51
359.9999999999973
  0
ARC
  5
457
330
1A
100
AcDbEntity
  8
SEIHIN
  6
CONTINUOUS
 62
     3
 48
16.0
100
AcDbCircle
 10
363.0606166098974
 20
271.0982131514701
 30
0.0
 40
0.8999999999999914
100
AcDbArc
 50
270.0000000000009
 51
0.0000000000009047
  0
ARC
  5
458
330
1A
100
AcDbEntity
  8
SEIHIN
  6
CONTINUOUS
 62
     3
 48
16.0
100
AcDbCircle
 10
344.9669694607297
 20
275.5981886938505
 30
0.0
 40
4.999975542602631
100
AcDbArc
 50
270.0005402923081
 51
324.834657805396
  0
LINE
  5
459
330
1A
100
AcDbEntity
  8
SEIHIN
  6
CONTINUOUS
 62
     3
 48
16.0
100
AcDbLine
 10
339.6106166098976
 20
269.5983131514701
 30
0.0
 11
335.4606166098974
 21
269.5983131514701
 31
0.0
  0
LINE
  5
45A
330
1A
100
AcDbEntity
  8
SEIHIN
  6
CONTINUOUS
 62
     3
 48
16.0
100
AcDbLine
 10
339.6106166098976
 20
269.5982131514701
 30
0.0
 11
339.6106166098976
 21
270.1982131514701
 31
0.0
  0
LINE
  5
45B
330
1A
100
AcDbEntity
  8
SEIHIN
  6
CONTINUOUS
 62
     3
 48
16.0
100
AcDbLine
 10
334.2879466098974
 20
269.5982131514701
 30
0.0
 11
334.2879466098974
 21
270.1982131514701
 31
0.0
  0
LINE
  5
45C
330
1A
100
AcDbEntity
  8
SEIHIN
  6
CONTINUOUS
 62
     3
 48
16.0
100
AcDbLine
 10
360.0730166098976
 20
288.35781315147
 30
0.0
 11
349.0544166098976
 21
272.7185131514699
 31
0.0
  0
LINE
  5
45D
330
1A
100
AcDbEntity
  8
SEIHIN
  6
CONTINUOUS
 62
     3
 48
16.0
100
AcDbLine
 10
352.7156166098974
 20
293.54131315147
 30
0.0
 11
345.8797166098975
 21
283.8387131514701
 31
0.0
  0
ARC
  5
45E
330
1A
100
AcDbEntity
  8
SEIHIN
  6
CONTINUOUS
 62
     3
 48
16.0
100
AcDbCircle
 10
337.7048778266233
 20
289.5981930336795
 30
0.0
 40
9.99997988228463
100
AcDbArc
 50
270.0002222122398
 51
324.8338713373226
  0
LINE
  5
45F
330
1A
100
AcDbEntity
  8
SEIHIN
  6
CONTINUOUS
 62
     3
 48
16.0
100
AcDbLine
 10
365.5606166098976
 20
278.5982131514701
 30
0.0
 11
363.5606166098976
 21
278.5982131514701
 31
0.0
  0
ARC
  5
460
330
1A
100
AcDbEntity
  8
SEIHIN
  6
CONTINUOUS
 62
     3
 48
16.0
100
AcDbCircle
 10
363.0606166098975
 20
271.0982131514701
 30
0.0
 40
0.5000000000000569
100
AcDbArc
 50
269.9999999999934
 51
359.9999999999934
  0
LINE
  5
461
330
1A
100
AcDbEntity
  8
SEIHIN
  6
CONTINUOUS
 62
     3
 48
16.0
100
AcDbLine
 10
365.5606166098976
 20
278.5982131514701
 30
0.0
 11
365.5606166098976
 21
271.0982131514701
 31
0.0
  0
LINE
  5
462
330
1A
100
AcDbEntity
  8
SEIHIN
  6
CONTINUOUS
 62
     3
 48
16.0
100
AcDbLine
 10
363.9606166098974
 20
271.0982131514701
 30
0.0
 11
363.9606166098974
 21
278.5982131514701
 31
0.0
  0
LINE
  5
463
330
1A
100
AcDbEntity
  8
SEIHIN
  6
CONTINUOUS
 62
     3
 48
16.0
100
AcDbLine
 10
363.5606166098976
 20
271.0982131514701
 30
0.0
 11
363.5606166098976
 21
278.5982131514701
 31
0.0
  0
ARC
  5
465
330
1A
100
AcDbEntity
  8
SEIHIN
  6
CONTINUOUS
 62
     3
 48
16.0
100
AcDbCircle
 10
323.61636542531
 20
296.222068367999
 30
0.0
 40
9.999985731028798
100
AcDbArc
 50
94.99920992970192
 51
142.7642970925041
  0
ARC
  5
466
330
1A
100
AcDbEntity
  8
SEIHIN
  6
CONTINUOUS
 62
     3
 48
16.0
100
AcDbCircle
 10
372.2606396979508
 20
288.6669602576558
 30
0.0
 40
9.999976912086648
100
AcDbArc
 50
0.0003030599310789
 51
47.16266586547755
  0
ARC
  5
467
330
1A
100
AcDbEntity
  8
SEIHIN
  6
CONTINUOUS
 62
     3
 48
16.0
100
AcDbCircle
 10
376.0606166098976
 20
287.5982131514701
 30
0.0
 40
5.0
100
AcDbArc
 50
0.0
 51
90.0
  0
LINE
  5
468
330
1A
100
AcDbEntity
  8
SEIHIN
  6
CONTINUOUS
 62
     3
 48
16.0
100
AcDbLine
 10
402.3314466098977
 20
263.3574131514701
 30
0.0
 11
389.3335466098976
 21
295.8544131514701
 31
0.0
  0
LINE
  5
469
330
1A
100
AcDbEntity
  8
SEIHIN
  6
CONTINUOUS
 62
     3
 48
16.0
100
AcDbLine
 10
390.7129466098976
 20
308.5621131514701
 30
0.0
 11
407.9023466098974
 21
265.58561315147
 31
0.0
  0
LINE
  5
46A
330
1A
100
AcDbEntity
  8
SEIHIN
  6
CONTINUOUS
 62
     3
 48
16.0
100
AcDbLine
 10
406.9738466098976
 20
265.2142131514701
 30
0.0
 11
393.9759466098976
 21
297.7112131514701
 31
0.0
  0
LINE
  5
46B
330
1A
100
AcDbEntity
  8
CENTER_L
  6
CENTER
 62
     1
 48
5.0
100
AcDbLine
 10
404.6381466098975
 20
287.9749131514701
 30
0.0
 11
391.5276466098976
 21
282.73111315147
 31
0.0
  0
LINE
  5
46C
330
1A
100
AcDbEntity
  8
CENTER_L
  6
CENTER
 62
     1
 48
5.0
100
AcDbLine
 10
397.0604466098975
 20
268.78851315147
 30
0.0
 11
409.8834466098974
 21
273.9173131514701
 31
0.0
  0
LINE
  5
46D
330
1A
100
AcDbEntity
  8
CENTER_L
  6
CENTER
 62
     1
 48
5.0
100
AcDbLine
 10
402.5401466098974
 20
293.59751315147
 30
0.0
 11
389.3147466098976
 21
288.30771315147
 31
0.0
  0
LINE
  5
46E
330
1A
100
AcDbEntity
  8
SEIHIN
  6
CONTINUOUS
 62
     3
 48
16.0
100
AcDbLine
 10
371.0605166098975
 20
273.01461315147
 30
0.0
 11
379.9481166098975
 21
267.2873131514701
 31
0.0
  0
LINE
  5
46F
330
1A
100
AcDbEntity
  8
SEIHIN
  6
CONTINUOUS
 62
     3
 48
16.0
100
AcDbLine
 10
371.7105166098976
 20
274.0233131514701
 30
0.0
 11
380.5981166098975
 21
268.2959131514701
 31
0.0
  0
LINE
  5
470
330
1A
100
AcDbEntity
  8
SEIHIN
  6
CONTINUOUS
 62
     3
 48
16.0
100
AcDbLine
 10
382.2606166098976
 20
288.66701315147
 30
0.0
 11
382.2606166098976
 21
268.5481131514701
 31
0.0
  0
LINE
  5
471
330
1A
100
AcDbEntity
  8
SEIHIN
  6
CONTINUOUS
 62
     3
 48
16.0
100
AcDbLine
 10
381.0606166098975
 20
287.5982131514701
 30
0.0
 11
381.0606166098975
 21
268.5481131514701
 31
0.0
  0
ARC
  5
472
330
1A
100
AcDbEntity
  8
SEIHIN
  6
CONTINUOUS
 62
     3
 48
16.0
100
AcDbCircle
 10
380.7606493968141
 20
268.5481310255322
 30
0.0
 40
0.2999672136159586
100
AcDbArc
 50
237.1913454210685
 51
359.9965859324638
  0
ARC
  5
473
330
1A
100
AcDbEntity
  8
SEIHIN
  6
CONTINUOUS
 62
     3
 48
16.0
100
AcDbCircle
 10
380.7606544625194
 20
268.5481337898044
 30
0.0
 40
1.499962147520158
100
AcDbArc
 50
237.2001798555907
 51
359.9992116538031
  0
LINE
  5
474
330
1A
100
AcDbEntity
  8
NOKITOI
  6
PHANTOM
 62
     8
 48
3.5
100
AcDbLine
 10
379.3339539221449
 20
288.7225759636068
 30
0.0
 11
378.9438539221448
 21
276.2381759636067
 31
0.0
  0
ARC
  5
475
330
1A
100
AcDbEntity
  8
NOKITOI
  6
PHANTOM
 62
     8
 48
3.5
100
AcDbCircle
 10
373.8834229952087
 20
280.7851117082705
 30
0.0
 40
3.99998565374706
100
AcDbArc
 50
358.2086966591014
 51
83.52422380468325
  0
LINE
  5
476
330
1A
100
AcDbEntity
  8
NOKITOI
  6
PHANTOM
 62
     8
 48
3.5
100
AcDbLine
 10
374.1169539221448
 20
281.8557759636068
 30
0.0
 11
373.7831539221449
 21
284.1919759636069
 31
0.0
  0
LINE
  5
477
330
1A
100
AcDbEntity
  8
NOKITOI
  6
PHANTOM
 62
     8
 48
3.5
100
AcDbLine
 10
370.873553922145
 20
281.7587759636068
 30
0.0
 11
370.5577539221446
 21
287.7587759636067
 31
0.0
  0
LINE
  5
478
330
1A
100
AcDbEntity
  8
SEIHIN
  6
CONTINUOUS
 62
     3
 48
16.0
100
AcDbLine
 10
383.0606166098975
 20
287.5982131514701
 30
0.0
 11
383.0606166098975
 21
274.5982131514701
 31
0.0
  0
ARC
  5
479
330
1A
100
AcDbEntity
  8
NOKITOI
  6
PHANTOM
 62
     8
 48
3.5
100
AcDbCircle
 10
375.7968919099691
 20
277.985012784179
 30
0.0
 40
2.000036820932882
100
AcDbArc
 50
269.9989117490339
 51
358.2110591274196
  0
LINE
  5
47A
330
1A
100
AcDbEntity
  8
NOKITOI
  6
PHANTOM
 62
     8
 48
3.5
100
AcDbLine
 10
377.4445539221449
 20
274.7850759636067
 30
0.0
 11
371.303453922145
 21
274.7850759636067
 31
0.0
  0
LINE
  5
47B
330
1A
100
AcDbEntity
  8
NOKITOI
  6
PHANTOM
 62
     8
 48
3.5
100
AcDbLine
 10
369.7649539221445
 20
275.9850759636068
 30
0.0
 11
375.7968539221449
 21
275.9850759636068
 31
0.0
  0
ARC
  5
47C
330
1A
100
AcDbEntity
  8
NOKITOI
  6
PHANTOM
 62
     8
 48
3.5
100
AcDbCircle
 10
369.7649669931495
 20
275.4850877938867
 30
0.0
 40
0.499988169890889
100
AcDbArc
 50
90.00149786226627
 51
174.2966061377156
  0
LINE
  5
47D
330
1A
100
AcDbEntity
  8
NOKITOI
  6
PHANTOM
 62
     8
 48
3.5
100
AcDbLine
 10
371.3728539221449
 20
281.2850759636067
 30
0.0
 11
373.6219539221445
 21
281.2850759636067
 31
0.0
  0
ARC
  5
47E
330
1A
100
AcDbEntity
  8
NOKITOI
  6
PHANTOM
 62
     8
 48
3.5
100
AcDbCircle
 10
371.3728580435515
 20
281.7850720535762
 30
0.0
 40
0.4999960899864752
100
AcDbArc
 50
183.0147243791737
 51
269.9995277178594
  0
ARC
  5
47F
330
1A
100
AcDbEntity
  8
NOKITOI
  6
PHANTOM
 62
     8
 48
3.5
100
AcDbCircle
 10
373.621964108581
 20
281.7850877083309
 30
0.0
 40
0.5000117448278309
100
AcDbArc
 50
269.9988327478018
 51
8.127314608715803
  0
ARC
  5
480
330
1A
100
AcDbEntity
  8
NOKITOI
  6
PHANTOM
 62
     8
 48
3.5
100
AcDbCircle
 10
371.3034745719858
 20
273.7850946514559
 30
0.0
 40
0.9999813123640345
100
AcDbArc
 50
90.00118317084957
 51
174.290590033351
  0
LINE
  5
481
330
1A
100
AcDbEntity
  8
SEIHIN
  6
CONTINUOUS
 62
     3
 48
16.0
100
AcDbLine
 10
371.7105166098976
 20
274.0233131514701
 30
0.0
 11
371.0605166098975
 21
273.01461315147
 31
0.0
  0
ARC
  5
482
330
1A
100
AcDbEntity
  8
NOKITOI
  6
PHANTOM
 62
     8
 48
3.5
100
AcDbCircle
 10
377.444571135323
 20
276.2850926467546
 30
0.0
 40
1.500016683246579
100
AcDbArc
 50
269.9993425123348
 51
358.207642324411
  0
LINE
  5
483
330
1A
100
AcDbEntity
  8
NOKITOI
  6
PHANTOM
 62
     8
 48
3.5
100
AcDbLine
 10
377.7959539221449
 20
277.9224759636068
 30
0.0
 11
377.8814539221446
 21
280.6600759636068
 31
0.0
  0
ARC
  5
484
330
1A
100
AcDbEntity
  8
SEIHIN
  6
CONTINUOUS
 62
     3
 48
16.0
100
AcDbCircle
 10
382.2605666098976
 20
274.59816315147
 30
0.0
 40
0.7999500015626358
100
AcDbArc
 50
270.0035812100447
 51
0.0035812100447219
  0
LINE
  5
485
330
1A
100
AcDbEntity
  8
NOKITOI
  6
PHANTOM
 62
     8
 48
3.5
100
AcDbLine
 10
377.3349539221451
 20
290.7849759636068
 30
0.0
 11
374.0083539221448
 21
290.7850759636068
 31
0.0
  0
LINE
  5
486
330
1A
100
AcDbEntity
  8
NOKITOI
  6
PHANTOM
 62
     8
 48
3.5
100
AcDbLine
 10
377.3349539221451
 20
289.5849759636067
 30
0.0
 11
374.8622539221448
 21
289.5850759636069
 31
0.0
  0
ARC
  5
487
330
1A
100
AcDbEntity
  8
NOKITOI
  6
PHANTOM
 62
     8
 48
3.5
100
AcDbCircle
 10
373.8834360557937
 20
280.7850846919867
 30
0.0
 40
5.199991271650611
100
AcDbArc
 50
37.92532860473096
 51
89.99980314072548
  0
LINE
  5
488
330
1A
100
AcDbEntity
  8
SEIHIN
  6
CONTINUOUS
 62
     3
 48
16.0
100
AcDbLine
 10
376.0606166098976
 20
292.5982131514701
 30
0.0
 11
368.2478166098976
 21
292.5982131514701
 31
0.0
  0
ARC
  5
489
330
1A
100
AcDbEntity
  8
NOKITOI
  6
PHANTOM
 62
     8
 48
3.5
100
AcDbCircle
 10
371.0570576316401
 20
287.7850798736375
 30
0.0
 40
0.4999960899831856
100
AcDbArc
 50
90.00042508015132
 51
183.0156217414654
  0
LINE
  5
48A
330
1A
100
AcDbEntity
  8
NOKITOI
  6
PHANTOM
 62
     8
 48
3.5
100
AcDbLine
 10
374.8622539221448
 20
289.5850759636069
 30
0.0
 11
375.3622539221448
 21
287.085075963607
 31
0.0
  0
LINE
  5
48B
330
1A
100
AcDbEntity
  8
NOKITOI
  6
PHANTOM
 62
     8
 48
3.5
100
AcDbLine
 10
375.3622539221448
 20
287.085075963607
 30
0.0
 11
372.4256539221448
 21
287.085075963607
 31
0.0
  0
LINE
  5
48C
330
1A
100
AcDbEntity
  8
NOKITOI
  6
PHANTOM
 62
     8
 48
3.5
100
AcDbLine
 10
373.421453922145
 20
285.9850759636068
 30
0.0
 11
372.4256539221448
 21
287.085075963607
 31
0.0
  0
LINE
  5
48D
330
1A
100
AcDbEntity
  8
NOKITOI
  6
PHANTOM
 62
     8
 48
3.5
100
AcDbLine
 10
372.4108539221449
 20
285.3134759636067
 30
0.0
 11
371.8558539221446
 21
285.9264759636067
 31
0.0
  0
LINE
  5
48E
330
1A
100
AcDbEntity
  8
NOKITOI
  6
PHANTOM
 62
     8
 48
3.5
100
AcDbLine
 10
373.421453922145
 20
285.9850759636068
 30
0.0
 11
373.883453922145
 21
285.9850759636068
 31
0.0
  0
ARC
  5
48F
330
1A
100
AcDbEntity
  8
NOKITOI
  6
PHANTOM
 62
     8
 48
3.5
100
AcDbCircle
 10
374.2781832946445
 20
284.2627061961016
 30
0.0
 40
0.4999578477751074
100
AcDbArc
 50
83.52609071220776
 51
188.1330561712924
  0
LINE
  5
490
330
1A
100
AcDbEntity
  8
NOKITOI
  6
PHANTOM
 62
     8
 48
3.5
100
AcDbLine
 10
373.7788539221448
 20
288.883075963607
 30
0.0
 11
373.5180539221448
 21
290.1870759636068
 31
0.0
  0
LINE
  5
491
330
1A
100
AcDbEntity
  8
NOKITOI
  6
PHANTOM
 62
     8
 48
3.5
100
AcDbLine
 10
371.057053922145
 20
288.2850759636068
 30
0.0
 11
373.2885539221449
 21
288.2850759636068
 31
0.0
  0
ARC
  5
492
330
1A
100
AcDbEntity
  8
NOKITOI
  6
PHANTOM
 62
     8
 48
3.5
100
AcDbCircle
 10
373.2885531391364
 20
288.785075008605
 30
0.0
 40
0.4999990449987399
100
AcDbArc
 50
270.0000897263054
 51
11.30328019845509
  0
ARC
  5
493
330
1A
100
AcDbEntity
  8
NOKITOI
  6
PHANTOM
 62
     8
 48
3.5
100
AcDbCircle
 10
374.0083466675894
 20
290.2850671137633
 30
0.0
 40
0.500008849895925
100
AcDbArc
 50
89.99916870385492
 51
191.3135956695117
  0
LINE
  5
494
330
1A
100
AcDbEntity
  8
NOKITOI
  6
PHANTOM
 62
     8
 48
3.5
100
AcDbLine
 10
372.0369539221449
 20
282.4850759636068
 30
0.0
 11
372.8148539221444
 21
282.4850759636068
 31
0.0
  0
LINE
  5
495
330
1A
100
AcDbEntity
  8
NOKITOI
  6
PHANTOM
 62
     8
 48
3.5
100
AcDbLine
 10
372.8148539221444
 20
282.4850759636068
 30
0.0
 11
372.4108539221449
 21
285.3134759636067
 31
0.0
  0
LINE
  5
496
330
1A
100
AcDbEntity
  8
NOKITOI
  6
PHANTOM
 62
     8
 48
3.5
100
AcDbLine
 10
372.0369539221449
 20
282.4850759636068
 30
0.0
 11
371.8558539221446
 21
285.9264759636067
 31
0.0
  0
ARC
  5
497
330
1A
100
AcDbEntity
  8
NOKITOI
  6
PHANTOM
 62
     8
 48
3.5
100
AcDbCircle
 10
377.3349978884978
 20
288.7850306011338
 30
0.0
 40
0.7999453636812564
100
AcDbArc
 50
358.212343644788
 51
90.00314907315372
  0
ARC
  5
498
330
1A
100
AcDbEntity
  8
NOKITOI
  6
PHANTOM
 62
     8
 48
3.5
100
AcDbCircle
 10
377.3349426851507
 20
288.7850875574239
 30
0.0
 40
1.999988406214315
100
AcDbArc
 50
358.2088726535929
 51
89.99967808195611
  0
LINE
  5
499
330
1A
100
AcDbEntity
  8
NOKITOI
  6
PHANTOM
 62
     8
 48
3.5
100
AcDbLine
 10
378.1345539221445
 20
288.7600759636067
 30
0.0
 11
377.9852539221449
 21
283.9810759636069
 31
0.0
  0
ARC
  5
49A
330
1A
100
AcDbEntity
  8
SEIHIN
  6
CONTINUOUS
 62
     3
 48
16.0
100
AcDbCircle
 10
376.0606346528012
 20
287.5981549258688
 30
0.0
 40
6.999981957338525
100
AcDbArc
 50
0.000476584258711
 51
34.43472123321652
  0
LINE
  5
49B
330
1A
100
AcDbEntity
  8
SEIHIN
  6
CONTINUOUS
 62
     3
 48
16.0
100
AcDbLine
 10
407.9023466098974
 20
265.58561315147
 30
0.0
 11
402.3314466098977
 21
263.35731315147
 31
0.0
  0
LINE
  5
49F
330
1A
100
AcDbEntity
  8
SEIHIN
  6
CONTINUOUS
 62
     3
 48
16.0
100
AcDbLine
 10
379.0598166098974
 20
295.99981315147
 30
0.0
 11
375.1985166098976
 21
299.58011315147
 31
0.0
  0
LINE
  5
4A0
330
1A
100
AcDbEntity
  8
SEIHIN
  6
CONTINUOUS
 62
     3
 48
16.0
100
AcDbLine
 10
394.9044466098975
 20
298.0825131514701
 30
0.0
 11
389.3335466098976
 21
295.85431315147
 31
0.0
  0
ARC
  5
4A1
330
1A
100
AcDbEntity
  8
SEIHIN
  6
CONTINUOUS
 62
     3
 48
16.0
100
AcDbCircle
 10
383.8293257405676
 20
293.4595259903055
 30
0.0
 40
7.000023217473977
100
AcDbArc
 50
21.80003253005969
 51
94.99989243073654
  0
ARC
  5
4A2
330
1A
100
AcDbEntity
  8
SEIHIN
  6
CONTINUOUS
 62
     3
 48
16.0
100
AcDbCircle
 10
386.0705294586281
 20
306.7052237030333
 30
0.0
 40
5.000007543005986
100
AcDbArc
 50
21.80058585728585
 51
94.99888971211985
  0
LINE
  5
4A8
330
1A
100
AcDbEntity
  8
SEIHIN
  6
PHANTOM
 62
     6
 48
5.0
100
AcDbLine
 10
418.2192466098975
 20
300.4329131514701
 30
0.0
 11
413.2208466098974
 21
299.9956131514701
 31
0.0
  0
LINE
  5
4A9
330
1A
100
AcDbEntity
  8
SEIHIN
  6
PHANTOM
 62
     6
 48
5.0
100
AcDbLine
 10
409.0797466098975
 20
310.6753131514701
 30
0.0
 11
420.6348466098977
 21
311.6862131514701
 31
0.0
  0
ARC
  5
4AA
330
1A
100
AcDbEntity
  8
SEIHIN
  6
PHANTOM
 62
     6
 48
5.0
100
AcDbCircle
 10
418.8293217005954
 20
293.4595280388455
 30
0.0
 40
7.000020824630758
100
AcDbArc
 50
23.26933201766974
 51
94.99986095038977
  0
LINE
  5
4AB
330
1A
100
AcDbEntity
  8
SEIHIN
  6
PHANTOM
 62
     6
 48
5.0
100
AcDbLine
 10
429.9044466098975
 20
298.0825131514701
 30
0.0
 11
424.3335466098976
 21
295.85431315147
 31
0.0
  0
ARC
  5
4AC
330
1A
100
AcDbEntity
  8
SEIHIN
  6
PHANTOM
 62
     6
 48
5.0
100
AcDbCircle
 10
421.0705294586281
 20
306.7052237030333
 30
0.0
 40
5.000007543005986
100
AcDbArc
 50
21.80058585728585
 51
94.99888971211985
  0
LINE
  5
4B0
330
1A
100
AcDbEntity
  8
SEIHIN
  6
CONTINUOUS
 62
     3
 48
16.0
100
AcDbLine
 10
371.3911166098974
 20
455.1921845297862
 30
0.0
 11
314.8767166098975
 21
455.1921845297861
 31
0.0
  0
LINE
  5
4B1
330
1A
100
AcDbEntity
  8
SEIHIN
  6
CONTINUOUS
 62
     3
 48
16.0
100
AcDbLine
 10
371.3911166098974
 20
463.192184529786
 30
0.0
 11
314.8767166098975
 21
463.1921845297861
 31
0.0
  0
LINE
  5
4B2
330
1A
100
AcDbEntity
  8
SEIHIN
  6
CONTINUOUS
 62
     3
 48
16.0
100
AcDbLine
 10
318.3340166098974
 20
451.2421845297862
 30
0.0
 11
318.3340166098974
 21
454.7308845297862
 31
0.0
  0
LINE
  5
4B3
330
1A
100
AcDbEntity
  8
SEIHIN
  6
CONTINUOUS
 62
     3
 48
16.0
100
AcDbLine
 10
318.3340166098973
 20
467.1421845297862
 30
0.0
 11
318.3340166098974
 21
463.6533845297862
 31
0.0
  0
LINE
  5
4B6
330
1A
100
AcDbEntity
  8
SEIHIN
  6
CONTINUOUS
 62
     3
 48
16.0
100
AcDbLine
 10
404.5600166098974
 20
455.1921845297861
 30
0.0
 11
377.3911166098974
 21
455.1921845297862
 31
0.0
  0
LINE
  5
4B9
330
1A
100
AcDbEntity
  8
SEIHIN
  6
CONTINUOUS
 62
     3
 48
16.0
100
AcDbLine
 10
390.6781601411702
 20
468.4921845297861
 30
0.0
 11
405.7448166098974
 21
468.4921845297861
 31
0.0
  0
LINE
  5
4BA
330
1A
100
AcDbEntity
  8
SEIHIN
  6
CONTINUOUS
 62
     3
 48
16.0
100
AcDbLine
 10
394.9045166098976
 20
468.9921845297861
 30
0.0
 11
407.3559166098976
 21
468.9921845297861
 31
0.0
  0
LINE
  5
4BB
330
1A
100
AcDbEntity
  8
SEIHIN
  6
CONTINUOUS
 62
     3
 48
16.0
100
AcDbLine
 10
404.5600166098974
 20
463.1921845297861
 30
0.0
 11
377.3911166098974
 21
463.1921845297861
 31
0.0
  0
LINE
  5
4BC
330
1A
100
AcDbEntity
  8
SEIHIN
  6
CONTINUOUS
 62
     3
 48
16.0
100
AcDbLine
 10
389.3340166098974
 20
451.2421845297861
 30
0.0
 11
389.3340166098974
 21
454.7199845297862
 31
0.0
  0
LINE
  5
4C9
330
1A
100
AcDbEntity
  8
SEIHIN
  6
CONTINUOUS
 62
     3
 48
16.0
100
AcDbLine
 10
372.3911166098975
 20
462.192184529786
 30
0.0
 11
372.3911166098974
 21
459.1921845297861
 31
0.0
  0
LINE
  5
4CA
330
1A
100
AcDbEntity
  8
SEIHIN
  6
CONTINUOUS
 62
     3
 48
16.0
100
AcDbLine
 10
372.3911166098974
 20
456.1921845297861
 30
0.0
 11
372.3911166098974
 21
459.1921845297861
 31
0.0
  0
LINE
  5
4CB
330
1A
100
AcDbEntity
  8
SEIHIN
  6
CONTINUOUS
 62
     3
 48
16.0
100
AcDbLine
 10
376.3911166098974
 20
459.1921845297861
 30
0.0
 11
376.3911166098974
 21
462.1921845297861
 31
0.0
  0
LINE
  5
4CC
330
1A
100
AcDbEntity
  8
SEIHIN
  6
CONTINUOUS
 62
     3
 48
16.0
100
AcDbLine
 10
376.3911166098974
 20
459.1921845297861
 30
0.0
 11
376.3911166098974
 21
456.1921845297861
 31
0.0
  0
LINE
  5
4CD
330
1A
100
AcDbEntity
  8
SEIHIN
  6
CONTINUOUS
 62
     3
 48
16.0
100
AcDbLine
 10
389.3340166098974
 20
467.1421845297863
 30
0.0
 11
389.3340166098974
 21
463.6642845297862
 31
0.0
  0
ARC
  5
4CE
330
1A
100
AcDbEntity
  8
SEIHIN
  6
CONTINUOUS
 62
     3
 48
16.0
100
AcDbCircle
 10
392.3340166102308
 20
459.1921345297863
 30
0.0
 40
5.000022112423313
100
AcDbArc
 50
131.8111132017662
 51
228.1888867982337
  0
LINE
  5
4D1
330
1A
100
AcDbEntity
  8
SEIHIN
  6
CONTINUOUS
 62
     3
 48
16.0
100
AcDbLine
 10
394.5345166098976
 20
469.9580845297862
 30
0.0
 11
390.2265166098976
 21
469.4940845297863
 31
0.0
  0
LINE
  5
4D2
330
1A
100
AcDbEntity
  8
SEIHIN
  6
CONTINUOUS
 62
     3
 48
16.0
100
AcDbLine
 10
394.4580166098976
 20
468.9440845297863
 30
0.0
 11
390.5299922715363
 21
468.5210348387769
 31
0.0
  0
ARC
  5
4D4
330
1A
100
AcDbEntity
  8
SEIHIN
  6
CONTINUOUS
 62
     3
 48
16.0
100
AcDbCircle
 10
390.3336277993517
 20
468.4997970848681
 30
0.0
 40
1.000040164207571
100
AcDbArc
 50
96.14856699646823
 51
180.4361539722222
  0
ARC
  5
4D5
330
1A
100
AcDbEntity
  8
SEIHIN
  6
CONTINUOUS
 62
     3
 48
16.0
100
AcDbCircle
 10
394.404531280328
 20
469.4412008638293
 30
0.0
 40
0.4999853298363235
100
AcDbArc
 50
276.1408974482786
 51
359.9981282016169
  0
LINE
  5
4D8
330
1A
100
AcDbEntity
  8
SEIHIN
  6
CONTINUOUS
 62
     3
 48
16.0
100
AcDbLine
 10
407.9023166098974
 20
459.1921845297861
 30
0.0
 11
407.9022166098976
 21
451.2421845297861
 31
0.0
  0
ARC
  5
4DD
330
1A
100
AcDbEntity
  8
SEIHIN
  6
CONTINUOUS
 62
     3
 48
16.0
100
AcDbCircle
 10
406.9022166098975
 20
451.2421845297861
 30
0.0
 40
1.0
100
AcDbArc
 50
270.0
 51
0.0
  0
LINE
  5
4E0
330
1A
100
AcDbEntity
  8
SEIHIN
  6
CONTINUOUS
 62
     3
 48
16.0
100
AcDbLine
 10
407.9023166098974
 20
459.1921845297861
 30
0.0
 11
407.9023166098974
 21
467.1421845297863
 31
0.0
  0
ARC
  5
4E1
330
1A
100
AcDbEntity
  8
SEIHIN
  6
CONTINUOUS
 62
     3
 48
16.0
100
AcDbCircle
 10
399.9169166095883
 20
459.1921345297861
 30
0.0
 40
6.12845638112657
100
AcDbArc
 50
319.2556725663265
 51
40.74432743367347
  0
LINE
  5
4E2
330
1A
100
AcDbEntity
  8
SEIHIN
  6
CONTINUOUS
 62
     3
 48
16.0
100
AcDbLine
 10
406.0445166098975
 20
468.4921845297861
 30
0.0
 11
407.5321166098974
 21
468.8920845297861
 31
0.0
  0
ARC
  5
4E3
330
1A
100
AcDbEntity
  8
SEIHIN
  6
CONTINUOUS
 62
     3
 48
16.0
100
AcDbCircle
 10
406.9023166098975
 20
467.1421845297863
 30
0.0
 40
0.9999999999999431
100
AcDbArc
 50
359.9999999999967
 51
89.99999999999674
  0
LINE
  5
4E4
330
1A
100
AcDbEntity
  8
SEIHIN
  6
CONTINUOUS
 62
     3
 48
16.0
100
AcDbLine
 10
406.0445166098975
 20
468.4921845297861
 30
0.0
 11
406.0445166098975
 21
468.1421845297863
 31
0.0
  0
ARC
  5
4E5
330
1A
100
AcDbEntity
  8
SEIHIN
  6
CONTINUOUS
 62
     3
 48
16.0
100
AcDbCircle
 10
407.4023446714723
 20
469.3749211321162
 30
0.0
 40
0.4999719397649308
100
AcDbArc
 50
285.0438633587862
 51
359.995805446521
  0
LINE
  5
4E6
330
1A
100
AcDbEntity
  8
SEIHIN
  6
CONTINUOUS
 62
     3
 48
16.0
100
AcDbLine
 10
407.1622166098975
 20
482.6921845297861
 30
0.0
 11
395.2716166098976
 21
482.6921845297861
 31
0.0
  0
LINE
  5
4E7
330
1A
100
AcDbEntity
  8
CENTER_L
  6
CENTER
 62
     1
 48
5.0
100
AcDbLine
 10
406.9958166098976
 20
477.1921845297862
 30
0.0
 11
395.6315166098976
 21
477.1921845297862
 31
0.0
  0
LINE
  5
4E8
330
1A
100
AcDbEntity
  8
SEIHIN
  6
CONTINUOUS
 62
     3
 48
16.0
100
AcDbLine
 10
398.5397166098976
 20
476.7271845297862
 30
0.0
 11
397.8947166098974
 21
476.7271845297862
 31
0.0
  0
LINE
  5
4E9
330
1A
100
AcDbEntity
  8
SEIHIN
  6
CONTINUOUS
 62
     3
 48
16.0
100
AcDbLine
 10
398.5397166098976
 20
477.6570845297861
 30
0.0
 11
397.8947166098974
 21
477.6570845297861
 31
0.0
  0
LINE
  5
4F3
330
1A
100
AcDbEntity
  8
SEIHIN
  6
CONTINUOUS
 62
     3
 48
16.0
100
AcDbLine
 10
575.2746113993664
 20
332.5300011842206
 30
0.0
 11
557.0775113993666
 21
378.0258011842207
 31
0.0
  0
LINE
  5
4F4
330
1A
100
AcDbEntity
  8
CENTER_L
  6
CENTER
 62
     1
 48
5.0
100
AcDbLine
 10
585.1397113993662
 20
331.9656011842206
 30
0.0
 11
562.5261113993665
 21
388.5035011842207
 31
0.0
  0
LINE
  5
4F5
330
1A
100
AcDbEntity
  8
CENTER_L
  6
CENTER
 62
     1
 48
5.0
100
AcDbLine
 10
560.5307113993664
 20
345.0230011842206
 30
0.0
 11
555.1048113993664
 21
358.5887011842207
 31
0.0
  0
LINE
  5
4F6
330
1A
100
AcDbEntity
  8
SEIHIN
  6
CONTINUOUS
 62
     3
 48
16.0
100
AcDbLine
 10
561.9517514781832
 20
364.8969586691058
 30
0.0
 11
574.9495514781832
 21
332.3999586691058
 31
0.0
  0
LINE
  5
4F7
330
1A
100
AcDbEntity
  8
SEIHIN
  6
CONTINUOUS
 62
     3
 48
16.0
100
AcDbLine
 10
561.8480113993665
 20
379.4279011842206
 30
0.0
 11
576.5283113993667
 21
342.7246011842206
 31
0.0
  0
LINE
  5
4F8
330
1A
100
AcDbEntity
  8
SEIHIN
  6
CONTINUOUS
 62
     3
 48
16.0
100
AcDbLine
 10
579.2215713205496
 20
371.8044436993354
 30
0.0
 11
592.2194713205498
 21
339.3074436993355
 31
0.0
  0
LINE
  5
4F9
330
1A
100
AcDbEntity
  8
SEIHIN
  6
CONTINUOUS
 62
     3
 48
16.0
100
AcDbLine
 10
549.7421113993666
 20
357.8595011842208
 30
0.0
 11
561.2545113993665
 21
329.0764011842207
 31
0.0
  0
LINE
  5
4FA
330
1A
100
AcDbEntity
  8
SEIHIN
  6
CONTINUOUS
 62
     3
 48
16.0
100
AcDbLine
 10
591.8945113993665
 20
339.1775011842206
 30
0.0
 11
573.6975113993667
 21
384.6733011842207
 31
0.0
  0
LINE
  5
4FB
330
1A
100
AcDbEntity
  8
SEIHIN
  6
CONTINUOUS
 62
     3
 48
16.0
100
AcDbLine
 10
569.2759113993663
 20
382.3989011842208
 30
0.0
 11
583.9561113993664
 21
345.6956011842206
 31
0.0
  0
LINE
  5
4FC
330
1A
100
AcDbEntity
  8
SEIHIN
  6
CONTINUOUS
 62
     3
 48
16.0
100
AcDbLine
 10
592.9167113993663
 20
375.1281011842205
 30
0.0
 11
604.4291113993665
 21
346.3450011842206
 31
0.0
  0
LINE
  5
50E
330
1A
100
AcDbEntity
  8
SEIHIN
  6
PHANTOM
 62
     6
 48
5.0
100
AcDbLine
 10
442.9023466098976
 20
265.58561315147
 30
0.0
 11
437.3314466098976
 21
263.35731315147
 31
0.0
  0
LINE
  5
51F
330
1A
100
AcDbEntity
  8
SEIHIN
  6
CONTINUOUS
 62
     3
 48
16.0
100
AcDbLine
 10
563.8542113993667
 20
327.9621011842207
 30
0.0
 11
583.5845113993666
 21
335.8537011842207
 31
0.0
  0
LINE
  5
520
330
1A
100
AcDbEntity
  8
CENTER_L
  6
CENTER
 62
     1
 48
5.0
100
AcDbLine
 10
565.7064113993665
 20
332.0828011842207
 30
0.0
 11
562.9578113993663
 21
338.9547011842206
 31
0.0
  0
ARC
  5
521
330
1A
100
AcDbEntity
  8
SEIHIN
  6
CONTINUOUS
 62
     3
 48
16.0
100
AcDbCircle
 10
564.2722113993662
 20
335.6685011842206
 30
0.0
 40
2.100000000000079
100
AcDbArc
 50
179.9999999999999
 51
359.9999999999999
  0
ARC
  5
527
330
1A
100
AcDbEntity
  8
SEIHIN
  6
CONTINUOUS
 62
     3
 48
16.0
100
AcDbCircle
 10
563.1115113993664
 20
329.8191011842205
 30
0.0
 40
2.000013072457359
100
AcDbArc
 50
201.7987496139473
 51
291.7987496139476
  0
LINE
  5
528
330
1A
100
AcDbEntity
  8
CENTER_L
  6
CENTER
 62
     1
 48
5.0
100
AcDbLine
 10
560.0267113993663
 20
356.5879011842207
 30
0.0
 11
553.1970113993663
 21
353.8562011842206
 31
0.0
  0
ARC
  5
529
330
1A
100
AcDbEntity
  8
SEIHIN
  6
CONTINUOUS
 62
     3
 48
16.0
100
AcDbCircle
 10
556.4734997619279
 20
355.1666965292097
 30
0.0
 40
2.099994970242888
100
AcDbArc
 50
328.3318213216578
 51
255.2718488102219
  0
LINE
  5
52A
330
1A
100
AcDbEntity
  8
CENTER_L
  6
CENTER
 62
     1
 48
5.0
100
AcDbLine
 10
563.1367113993665
 20
351.3700011842207
 30
0.0
 11
554.6234113993667
 21
347.9649011842206
 31
0.0
  0
ARC
  5
52B
330
1A
100
AcDbEntity
  8
SEIHIN
  6
CONTINUOUS
 62
     3
 48
16.0
100
AcDbCircle
 10
558.7015803654526
 20
349.5960887713829
 30
0.0
 40
3.249945533510834
100
AcDbArc
 50
134.4197735578329
 51
89.179640727619
  0
LINE
  5
52C
330
1A
100
AcDbEntity
  8
SEIHIN
  6
CONTINUOUS
 62
     3
 48
16.0
100
AcDbLine
 10
556.4269113993666
 20
351.9173011842207
 30
0.0
 11
555.9396113993666
 21
353.1357011842207
 31
0.0
  0
LINE
  5
52D
330
1A
100
AcDbEntity
  8
CENTER_L
  6
CENTER
 62
     1
 48
5.0
100
AcDbLine
 10
560.9474113993664
 20
334.3387011842206
 30
0.0
 11
567.5886113993665
 21
336.9949011842208
 31
0.0
  0
ARC
  5
52E
330
1A
100
AcDbEntity
  8
SEIHIN
  6
CONTINUOUS
 62
     3
 48
16.0
100
AcDbCircle
 10
564.2722113993662
 20
335.6685011842206
 30
0.0
 40
2.100000000000079
100
AcDbArc
 50
359.9999999999999
 51
179.9999999999999
  0
LINE
  5
52F
330
1A
100
AcDbEntity
  8
SEIHIN
  6
CONTINUOUS
 62
     3
 48
16.0
100
AcDbLine
 10
558.7481113993665
 20
352.8457011842207
 30
0.0
 11
558.2608113993664
 21
354.0642011842206
 31
0.0
  0
LINE
  5
530
330
1A
100
AcDbEntity
  8
SEIHIN
  6
CONTINUOUS
 62
     3
 48
16.0
100
AcDbLine
 10
603.3148113993664
 20
343.7453011842206
 30
0.0
 11
583.5845113993666
 21
335.8537011842207
 31
0.0
  0
ARC
  5
531
330
1A
100
AcDbEntity
  8
SEIHIN
  6
CONTINUOUS
 62
     3
 48
16.0
100
AcDbCircle
 10
580.2422372635685
 20
344.2101115289963
 30
0.0
 40
3.999998288652682
100
AcDbArc
 50
201.800611507033
 51
21.79874960746501
  0
ARC
  5
532
330
1A
100
AcDbEntity
  8
SEIHIN
  6
CONTINUOUS
 62
     3
 48
16.0
100
AcDbCircle
 10
602.5721113993663
 20
345.6023011842207
 30
0.0
 40
2.000013072457309
100
AcDbArc
 50
291.7987496139446
 51
21.7987496139432
  0
LINE
  5
533
330
1A
100
AcDbEntity
  8
CENTER_L
  6
CENTER
 62
     1
 48
5.0
100
AcDbLine
 10
599.1319113993662
 20
345.4521011842207
 30
0.0
 11
596.3009113993666
 21
352.5301011842206
 31
0.0
  0
ARC
  5
534
330
1A
100
AcDbEntity
  8
SEIHIN
  6
CONTINUOUS
 62
     3
 48
16.0
100
AcDbCircle
 10
597.6977113993664
 20
349.0377011842206
 30
0.0
 40
2.100000000000022
100
AcDbArc
 50
179.9999999999999
 51
359.9999999999999
  0
LINE
  5
535
330
1A
100
AcDbEntity
  8
CENTER_L
  6
CENTER
 62
     1
 48
5.0
100
AcDbLine
 10
600.7153113993665
 20
350.2447011842207
 30
0.0
 11
594.3814113993664
 21
347.7113011842208
 31
0.0
  0
ARC
  5
536
330
1A
100
AcDbEntity
  8
SEIHIN
  6
CONTINUOUS
 62
     3
 48
16.0
100
AcDbCircle
 10
597.6977113993664
 20
349.0377011842206
 30
0.0
 40
2.100000000000022
100
AcDbArc
 50
359.9999999999999
 51
179.9999999999999
  0
ARC
  5
542
330
1A
100
AcDbEntity
  8
SEIHIN
  6
CONTINUOUS
 62
     3
 48
16.0
100
AcDbCircle
 10
572.7690113993665
 20
384.3019011842205
 30
0.0
 40
1.000025104685057
100
AcDbArc
 50
21.8014094863489
 51
111.801409486349
  0
ARC
  5
544
330
1A
100
AcDbEntity
  8
SEIHIN
  6
CONTINUOUS
 62
     3
 48
16.0
100
AcDbCircle
 10
560.8388748578192
 20
379.5302126560096
 30
0.0
 40
1.000000882646226
100
AcDbArc
 50
33.33875559624206
 51
111.7997096676398
  0
ARC
  5
546
330
1A
100
AcDbEntity
  8
SEIHIN
  6
CONTINUOUS
 62
     3
 48
16.0
100
AcDbCircle
 10
565.0162371771441
 20
382.2782477454518
 30
0.0
 40
3.999836971123535
100
AcDbArc
 50
291.7978929385311
 51
10.26031029854572
  0
LINE
  5
547
330
1A
100
AcDbEntity
  8
SEIHIN
  6
CONTINUOUS
 62
     3
 48
16.0
100
AcDbLine
 10
550.8563113993663
 20
360.4592011842206
 30
0.0
 11
561.9517514781832
 21
364.8969586691058
 31
0.0
  0
ARC
  5
548
330
1A
100
AcDbEntity
  8
SEIHIN
  6
CONTINUOUS
 62
     3
 48
16.0
100
AcDbCircle
 10
551.599121744394
 20
358.6022253210712
 30
0.0
 40
2.000031640999691
100
AcDbArc
 50
111.8019414497216
 51
201.7992815773165
  0
LINE
  5
549
330
1A
100
AcDbEntity
  8
SEIHIN
  6
CONTINUOUS
 62
     3
 48
16.0
100
AcDbLine
 10
564.1335113993664
 20
360.3845011842207
 30
0.0
 11
563.808551478183
 21
360.2545586691058
 31
0.0
  0
ARC
  5
54A
330
1A
100
AcDbEntity
  8
SEIHIN
  6
CONTINUOUS
 62
     3
 48
16.0
100
AcDbCircle
 10
565.0158978930967
 20
382.2781368200487
 30
0.0
 40
3.999859980403305
100
AcDbArc
 50
213.3397915074435
 51
291.8029955269401
  0
LINE
  5
54B
330
1A
100
AcDbEntity
  8
SEIHIN
  6
CONTINUOUS
 62
     3
 48
16.0
100
AcDbLine
 10
557.6347113993665
 20
379.3256011842205
 30
0.0
 11
560.4675113993667
 21
380.4587011842207
 31
0.0
  0
ARC
  5
54C
330
1A
100
AcDbEntity
  8
SEIHIN
  6
CONTINUOUS
 62
     3
 48
16.0
100
AcDbCircle
 10
558.0060010550994
 20
378.3971770506916
 30
0.0
 40
1.000006537478556
100
AcDbArc
 50
111.7950259160648
 51
201.8003457596441
  0
LINE
  5
54F
330
1A
100
AcDbEntity
  8
SEIHIN
  6
CONTINUOUS
 62
     3
 48
16.0
100
AcDbLine
 10
572.3976113993664
 20
385.2304011842207
 30
0.0
 11
569.5648113993666
 21
384.0973011842205
 31
0.0
  0
ARC
  5
550
330
1A
100
AcDbEntity
  8
SEIHIN
  6
CONTINUOUS
 62
     3
 48
16.0
100
AcDbCircle
 10
569.9361114625527
 20
383.1688012983413
 30
0.0
 40
0.9999878874266233
100
AcDbArc
 50
111.7960954321445
 51
190.259241953325
  0
LINE
  5
551
330
1A
100
AcDbEntity
  8
SEIHIN
  6
CONTINUOUS
 62
     3
 48
16.0
100
AcDbLine
 10
589.8524113993667
 20
365.2865011842207
 30
0.0
 11
589.3650113993665
 21
366.5050011842207
 31
0.0
  0
ARC
  5
552
330
1A
100
AcDbEntity
  8
SEIHIN
  6
CONTINUOUS
 62
     3
 48
16.0
100
AcDbCircle
 10
589.8989889816891
 20
368.5358922181626
 30
0.0
 40
2.099916772200633
100
AcDbArc
 50
328.3306434062083
 51
255.268770879243
  0
LINE
  5
553
330
1A
100
AcDbEntity
  8
CENTER_L
  6
CENTER
 62
     1
 48
5.0
100
AcDbLine
 10
586.3458113993665
 20
367.1148011842207
 30
0.0
 11
592.9166113993665
 21
369.7429011842207
 31
0.0
  0
LINE
  5
554
330
1A
100
AcDbEntity
  8
CENTER_L
  6
CENTER
 62
     1
 48
5.0
100
AcDbLine
 10
587.6919113993665
 20
361.1914011842206
 30
0.0
 11
596.2209113993664
 21
364.6027011842207
 31
0.0
  0
LINE
  5
555
330
1A
100
AcDbEntity
  8
CENTER_L
  6
CENTER
 62
     1
 48
5.0
100
AcDbLine
 10
593.9562113993663
 20
358.3922011842207
 30
0.0
 11
588.5303113993663
 21
371.9580011842207
 31
0.0
  0
ARC
  5
556
330
1A
100
AcDbEntity
  8
SEIHIN
  6
CONTINUOUS
 62
     3
 48
16.0
100
AcDbCircle
 10
592.1272010550641
 20
362.9653370444201
 30
0.0
 40
3.24999552946836
100
AcDbArc
 50
134.4218888690612
 51
89.18178126282098
  0
LINE
  5
557
330
1A
100
AcDbEntity
  8
SEIHIN
  6
CONTINUOUS
 62
     3
 48
16.0
100
AcDbLine
 10
590.3170113993665
 20
376.2423011842207
 30
0.0
 11
579.2215713205496
 21
371.8044436993354
 31
0.0
  0
LINE
  5
558
330
1A
100
AcDbEntity
  8
SEIHIN
  6
CONTINUOUS
 62
     3
 48
16.0
100
AcDbLine
 10
580.7534113993665
 20
367.0321011842208
 30
0.0
 11
581.07847132055
 21
367.1620436993356
 31
0.0
  0
LINE
  5
55B
330
1A
100
AcDbEntity
  8
SEIHIN
  6
CONTINUOUS
 62
     3
 48
16.0
100
AcDbLine
 10
592.1736113993662
 20
366.2150011842208
 30
0.0
 11
591.6862113993663
 21
367.4334011842206
 31
0.0
  0
ARC
  5
55D
330
1A
100
AcDbEntity
  8
SEIHIN
  6
CONTINUOUS
 62
     3
 48
16.0
100
AcDbCircle
 10
591.059735536217
 20
374.3852908391932
 30
0.0
 40
2.000031640999617
100
AcDbArc
 50
21.80194144971729
 51
111.7992815773146
  0
LINE
  5
567
330
1A
100
AcDbEntity
  8
SEIHIN
  6
PHANTOM
 62
     6
 48
5.0
100
AcDbLine
 10
437.3314166098976
 20
115.9888951420684
 30
0.0
 11
424.3335166098975
 21
148.4858951420684
 31
0.0
  0
LINE
  5
568
330
1A
100
AcDbEntity
  8
SEIHIN
  6
PHANTOM
 62
     6
 48
5.0
100
AcDbLine
 10
425.7129166098976
 20
161.1935951420685
 30
0.0
 11
442.9023166098976
 21
118.2170951420683
 31
0.0
  0
LINE
  5
569
330
1A
100
AcDbEntity
  8
SEIHIN
  6
PHANTOM
 62
     6
 48
5.0
100
AcDbLine
 10
441.9738166098976
 20
117.8456951420684
 30
0.0
 11
428.9759166098976
 21
150.3426951420684
 31
0.0
  0
LINE
  5
56F
330
1A
100
AcDbEntity
  8
SEIHIN
  6
CONTINUOUS
 62
     3
 48
16.0
100
AcDbLine
 10
299.3339166098976
 20
133.4296951420683
 30
0.0
 11
315.6548166098975
 21
154.9044951420684
 31
0.0
  0
ARC
  5
570
330
1A
100
AcDbEntity
  8
SEIHIN
  6
CONTINUOUS
 62
     3
 48
16.0
100
AcDbCircle
 10
299.3338806116097
 20
133.4296268883404
 30
0.0
 40
11.00003174645827
100
AcDbArc
 50
269.9996666347812
 51
322.7645340726742
  0
ARC
  5
571
330
1A
100
AcDbEntity
  8
NOKITOI
  6
PHANTOM
 62
     8
 48
3.5
100
AcDbCircle
 10
327.584847840177
 20
131.4165523295488
 30
0.0
 40
41.79999437547816
100
AcDbArc
 50
270.0001454078912
 51
355.525704787475
  0
ARC
  5
572
330
1A
100
AcDbEntity
  8
NOKITOI
  6
PHANTOM
 62
     8
 48
3.5
100
AcDbCircle
 10
327.5848701486023
 20
131.4165724305752
 30
0.0
 40
43.00001447645168
100
AcDbArc
 50
270.0001116248559
 51
353.4750892928819
  0
LINE
  5
574
330
1A
100
AcDbEntity
  8
CENTER_L
  6
CENTER
 62
     1
 48
5.0
100
AcDbLine
 10
289.3339166098975
 20
144.0002951420684
 30
0.0
 11
289.3339166098975
 21
117.9561951420683
 31
0.0
  0
ARC
  5
578
330
1A
100
AcDbEntity
  8
NOKITOI
  6
PHANTOM
 62
     8
 48
3.5
100
AcDbCircle
 10
371.2998623463075
 20
126.4165654692616
 30
0.0
 40
0.9999924849789756
100
AcDbArc
 50
90.00048267259112
 51
173.4717353933255
  0
LINE
  5
579
330
1A
100
AcDbEntity
  8
NOKITOI
  6
PHANTOM
 62
     8
 48
3.5
100
AcDbLine
 10
369.7559539221446
 20
128.6165579542051
 30
0.0
 11
375.796853922145
 21
128.6165579542051
 31
0.0
  0
LINE
  5
57A
330
1A
100
AcDbEntity
  8
SEIHIN
  6
CONTINUOUS
 62
     3
 48
16.0
100
AcDbLine
 10
269.5833166098975
 20
129.0296951420683
 30
0.0
 11
265.7363166098976
 21
129.0296951420683
 31
0.0
  0
LINE
  5
57B
330
1A
100
AcDbEntity
  8
SEIHIN
  6
CONTINUOUS
 62
     3
 48
16.0
100
AcDbLine
 10
263.7363166098976
 20
132.2296951420684
 30
0.0
 11
270.5681166098975
 21
132.2296951420684
 31
0.0
  0
LINE
  5
57C
330
1A
100
AcDbEntity
  8
SEIHIN
  6
CONTINUOUS
 62
     3
 48
16.0
100
AcDbLine
 10
263.7363166098976
 20
131.0296951420684
 30
0.0
 11
270.5681166098975
 21
131.0296951420684
 31
0.0
  0
ARC
  5
57E
330
1A
100
AcDbEntity
  8
NOKITOI
  6
PHANTOM
 62
     8
 48
3.5
100
AcDbCircle
 10
374.0083547051534
 20
142.9165589092068
 30
0.0
 40
0.4999990449987349
100
AcDbArc
 50
90.00008972630549
 51
191.3032801984551
  0
ARC
  5
57F
330
1A
100
AcDbEntity
  8
NOKITOI
  6
PHANTOM
 62
     8
 48
3.5
100
AcDbCircle
 10
377.334941171295
 20
141.4165711092915
 30
0.0
 40
1.999986844954076
100
AcDbArc
 50
358.21169271173
 51
89.99963471264475
  0
ARC
  5
581
330
1A
100
AcDbEntity
  8
SEIHIN
  6
CONTINUOUS
 62
     3
 48
16.0
100
AcDbCircle
 10
263.7363075884783
 20
132.5297072836368
 30
0.0
 40
1.500012141595524
100
AcDbArc
 50
163.2264655542261
 51
270.0003445900468
  0
LINE
  5
582
330
1A
100
AcDbEntity
  8
NOKITOI
  6
PHANTOM
 62
     8
 48
3.5
100
AcDbLine
 10
377.7958539221452
 20
130.5541579542051
 30
0.0
 11
377.8813539221449
 21
133.2916579542051
 31
0.0
  0
LINE
  5
583
330
1A
100
AcDbEntity
  8
NOKITOI
  6
PHANTOM
 62
     8
 48
3.5
100
AcDbLine
 10
379.333953922145
 20
141.3540579542051
 30
0.0
 11
378.9437539221452
 21
128.869757954205
 31
0.0
  0
ARC
  5
584
330
1A
100
AcDbEntity
  8
NOKITOI
  6
PHANTOM
 62
     8
 48
3.5
100
AcDbCircle
 10
377.4445179629941
 20
128.9165231000619
 30
0.0
 40
1.499965146287778
100
AcDbArc
 50
270.0013735703023
 51
358.2133719782232
  0
ARC
  5
585
330
1A
100
AcDbEntity
  8
SEIHIN
  6
CONTINUOUS
 62
     3
 48
16.0
100
AcDbCircle
 10
265.7363166098976
 20
131.0296951420684
 30
0.0
 40
2.000000000000028
100
AcDbArc
 50
179.9999999999991
 51
269.9999999999992
  0
LINE
  5
586
330
1A
100
AcDbEntity
  8
NOKITOI
  6
PHANTOM
 62
     8
 48
3.5
100
AcDbLine
 10
377.444553922145
 20
127.4165579542051
 30
0.0
 11
371.2998539221452
 21
127.4165579542051
 31
0.0
  0
ARC
  5
587
330
1A
100
AcDbEntity
  8
NOKITOI
  6
PHANTOM
 62
     8
 48
3.5
100
AcDbCircle
 10
375.7968403500066
 20
130.6165447991187
 30
0.0
 40
1.999986844959662
100
AcDbArc
 50
270.0003888156776
 51
358.2124468147636
  0
ARC
  5
588
330
1A
100
AcDbEntity
  8
NOKITOI
  6
PHANTOM
 62
     8
 48
3.5
100
AcDbCircle
 10
373.8833160406983
 20
133.4166017367305
 30
0.0
 40
3.999989731271038
100
AcDbArc
 50
358.2100163932691
 51
83.52268857986855
  0
LINE
  5
589
330
1A
100
AcDbEntity
  8
SEIHIN
  6
CONTINUOUS
 62
     3
 48
16.0
100
AcDbLine
 10
264.7351166098976
 20
136.8833951420684
 30
0.0
 11
263.5863166098975
 21
137.2296951420684
 31
0.0
  0
LINE
  5
58A
330
1A
100
AcDbEntity
  8
NOKITOI
  6
PHANTOM
 62
     8
 48
3.5
100
AcDbLine
 10
372.8148539221446
 20
135.1165579542051
 30
0.0
 11
372.4107539221448
 21
137.944957954205
 31
0.0
  0
LINE
  5
58B
330
1A
100
AcDbEntity
  8
NOKITOI
  6
PHANTOM
 62
     8
 48
3.5
100
AcDbLine
 10
372.036953922145
 20
135.1165579542051
 30
0.0
 11
371.855753922145
 21
138.5580579542053
 31
0.0
  0
LINE
  5
58C
330
1A
100
AcDbEntity
  8
NOKITOI
  6
PHANTOM
 62
     8
 48
3.5
100
AcDbLine
 10
372.036953922145
 20
135.1165579542051
 30
0.0
 11
372.8148539221446
 21
135.1165579542051
 31
0.0
  0
LINE
  5
58D
330
1A
100
AcDbEntity
  8
NOKITOI
  6
PHANTOM
 62
     8
 48
3.5
100
AcDbLine
 10
371.0570539221452
 20
140.9165579542051
 30
0.0
 11
373.288553922145
 21
140.9165579542051
 31
0.0
  0
ARC
  5
58E
330
1A
100
AcDbEntity
  8
NOKITOI
  6
PHANTOM
 62
     8
 48
3.5
100
AcDbCircle
 10
373.2885611767004
 20
141.4165668040485
 30
0.0
 40
0.5000088498959383
100
AcDbArc
 50
269.9991687038565
 51
11.31359566951149
  0
LINE
  5
58F
330
1A
100
AcDbEntity
  8
NOKITOI
  6
PHANTOM
 62
     8
 48
3.5
100
AcDbLine
 10
373.778853922145
 20
141.514657954205
 30
0.0
 11
373.5180539221449
 21
142.8185579542051
 31
0.0
  0
LINE
  5
590
330
1A
100
AcDbEntity
  8
NOKITOI
  6
PHANTOM
 62
     8
 48
3.5
100
AcDbLine
 10
377.3349539221452
 20
142.2165579542053
 30
0.0
 11
374.8621539221447
 21
142.2165579542053
 31
0.0
  0
LINE
  5
591
330
1A
100
AcDbEntity
  8
NOKITOI
  6
PHANTOM
 62
     8
 48
3.5
100
AcDbLine
 10
372.4107539221448
 20
137.944957954205
 30
0.0
 11
371.855753922145
 21
138.5580579542053
 31
0.0
  0
LINE
  5
592
330
1A
100
AcDbEntity
  8
NOKITOI
  6
PHANTOM
 62
     8
 48
3.5
100
AcDbLine
 10
373.4214539221446
 20
138.6165579542051
 30
0.0
 11
372.425653922145
 21
139.7165579542053
 31
0.0
  0
ARC
  5
593
330
1A
100
AcDbEntity
  8
NOKITOI
  6
PHANTOM
 62
     8
 48
3.5
100
AcDbCircle
 10
374.2781397037296
 20
136.8942433199041
 30
0.0
 40
0.5000073448410256
100
AcDbArc
 50
83.5217071700316
 51
188.1270521358757
  0
LINE
  5
594
330
1A
100
AcDbEntity
  8
NOKITOI
  6
PHANTOM
 62
     8
 48
3.5
100
AcDbLine
 10
373.4214539221446
 20
138.6165579542051
 30
0.0
 11
373.8833539221449
 21
138.6165579542051
 31
0.0
  0
LINE
  5
595
330
1A
100
AcDbEntity
  8
NOKITOI
  6
PHANTOM
 62
     8
 48
3.5
100
AcDbLine
 10
375.3621539221447
 20
139.7165579542053
 30
0.0
 11
372.425653922145
 21
139.7165579542053
 31
0.0
  0
LINE
  5
596
330
1A
100
AcDbEntity
  8
NOKITOI
  6
PHANTOM
 62
     8
 48
3.5
100
AcDbLine
 10
374.8621539221447
 20
142.2165579542053
 30
0.0
 11
375.3621539221447
 21
139.7165579542053
 31
0.0
  0
ARC
  5
597
330
1A
100
AcDbEntity
  8
NOKITOI
  6
PHANTOM
 62
     8
 48
3.5
100
AcDbCircle
 10
371.0570601233029
 20
140.4165644892904
 30
0.0
 40
0.4999934649531607
100
AcDbArc
 50
90.00071060961996
 51
183.0044636796616
  0
LINE
  5
598
330
1A
100
AcDbEntity
  8
NOKITOI
  6
PHANTOM
 62
     8
 48
3.5
100
AcDbLine
 10
378.1345539221446
 20
141.391557954205
 30
0.0
 11
377.9851539221453
 21
136.6126579542052
 31
0.0
  0
ARC
  5
599
330
1A
100
AcDbEntity
  8
NOKITOI
  6
PHANTOM
 62
     8
 48
3.5
100
AcDbCircle
 10
373.8832337094758
 20
133.4166166825851
 30
0.0
 40
5.2000412730095
100
AcDbArc
 50
37.92420092094385
 51
89.99867545693838
  0
ARC
  5
59A
330
1A
100
AcDbEntity
  8
NOKITOI
  6
PHANTOM
 62
     8
 48
3.5
100
AcDbCircle
 10
377.3349494273469
 20
141.416562591732
 30
0.0
 40
0.7999953624857498
100
AcDbArc
 50
358.20887265358
 51
89.99967808194661
  0
ARC
  5
59B
330
1A
100
AcDbEntity
  8
SEIHIN
  6
CONTINUOUS
 62
     3
 48
16.0
100
AcDbCircle
 10
263.7362913193139
 20
132.5297291798732
 30
0.0
 40
0.3000340388706611
100
AcDbArc
 50
163.2306005061152
 51
270.0048295977081
  0
LINE
  5
59C
330
1A
100
AcDbEntity
  8
NOKITOI
  6
PHANTOM
 62
     8
 48
3.5
100
AcDbLine
 10
371.372853922145
 20
133.9165579542051
 30
0.0
 11
373.621953922145
 21
133.9165579542051
 31
0.0
  0
ARC
  5
59D
330
1A
100
AcDbEntity
  8
NOKITOI
  6
PHANTOM
 62
     8
 48
3.5
100
AcDbCircle
 10
373.6219273215473
 20
134.416527277323
 30
0.0
 40
0.4999693238254178
100
AcDbArc
 50
270.0030483909652
 51
8.144496122946778
  0
ARC
  5
59E
330
1A
100
AcDbEntity
  8
NOKITOI
  6
PHANTOM
 62
     8
 48
3.5
100
AcDbCircle
 10
371.37286080914
 20
134.4165514191196
 30
0.0
 40
0.499993464961963
100
AcDbArc
 50
183.0029638682573
 51
269.9992107982126
  0
LINE
  5
59F
330
1A
100
AcDbEntity
  8
SEIHIN
  6
CONTINUOUS
 62
     3
 48
16.0
100
AcDbLine
 10
264.7352166098975
 20
136.8833951420684
 30
0.0
 11
263.4490166098976
 21
132.6162951420684
 31
0.0
  0
LINE
  5
5A0
330
1A
100
AcDbEntity
  8
SEIHIN
  6
CONTINUOUS
 62
     3
 48
16.0
100
AcDbLine
 10
263.5863166098975
 20
137.2296951420684
 30
0.0
 11
262.3001166098976
 21
132.9625951420684
 31
0.0
  0
LINE
  5
5A1
330
1A
100
AcDbEntity
  8
NOKITOI
  6
PHANTOM
 62
     8
 48
3.5
100
AcDbLine
 10
370.8734539221449
 20
134.3903579542051
 30
0.0
 11
370.557653922145
 21
140.3902579542051
 31
0.0
  0
LINE
  5
5A2
330
1A
100
AcDbEntity
  8
NOKITOI
  6
PHANTOM
 62
     8
 48
3.5
100
AcDbLine
 10
374.1168539221451
 20
134.4873579542053
 30
0.0
 11
373.783153922145
 21
136.8235579542052
 31
0.0
  0
LINE
  5
5A5
330
1A
100
AcDbEntity
  8
NOKITOI
  6
PHANTOM
 62
     8
 48
3.5
100
AcDbLine
 10
377.3349539221452
 20
143.4165579542051
 30
0.0
 11
374.0083539221449
 21
143.4165579542051
 31
0.0
  0
LINE
  5
5A6
330
1A
100
AcDbEntity
  8
SEIHIN
  6
CONTINUOUS
 62
     3
 48
16.0
100
AcDbLine
 10
296.3550166098975
 20
140.5870951420683
 30
0.0
 11
297.6724166098976
 21
143.4121951420684
 31
0.0
  0
LINE
  5
5A7
330
1A
100
AcDbEntity
  8
SEIHIN
  6
CONTINUOUS
 62
     3
 48
16.0
100
AcDbLine
 10
292.5841166098976
 20
139.1301951420684
 30
0.0
 11
294.0180166098975
 21
144.4812951420683
 31
0.0
  0
LINE
  5
5A8
330
1A
100
AcDbEntity
  8
SEIHIN
  6
CONTINUOUS
 62
     3
 48
16.0
100
AcDbLine
 10
294.9839166098975
 20
144.2223951420684
 30
0.0
 11
293.6823166098975
 21
139.3648951420683
 31
0.0
  0
ARC
  5
5A9
330
1A
100
AcDbEntity
  8
SEIHIN
  6
CONTINUOUS
 62
     3
 48
16.0
100
AcDbCircle
 10
297.2192336928572
 20
143.6234585069341
 30
0.0
 40
1.50003444950985
100
AcDbArc
 50
334.9990975355038
 51
75.00215776397097
  0
LINE
  5
5AA
330
1A
100
AcDbEntity
  8
SEIHIN
  6
CONTINUOUS
 62
     3
 48
16.0
100
AcDbLine
 10
286.0842166098975
 20
139.1301951420684
 30
0.0
 11
284.6503166098975
 21
144.4812951420683
 31
0.0
  0
LINE
  5
5AB
330
1A
100
AcDbEntity
  8
SEIHIN
  6
CONTINUOUS
 62
     3
 48
16.0
100
AcDbLine
 10
282.3133166098976
 20
140.5870951420683
 30
0.0
 11
280.9959166098976
 21
143.4121951420684
 31
0.0
  0
ARC
  5
5AC
330
1A
100
AcDbEntity
  8
SEIHIN
  6
CONTINUOUS
 62
     3
 48
16.0
100
AcDbCircle
 10
281.4489111837914
 20
143.6233835064705
 30
0.0
 40
1.500013318264655
100
AcDbArc
 50
104.9985194361928
 51
204.998117930741
  0
LINE
  5
5AD
330
1A
100
AcDbEntity
  8
SEIHIN
  6
CONTINUOUS
 62
     3
 48
16.0
100
AcDbLine
 10
283.6844166098975
 20
144.2224951420684
 30
0.0
 11
284.9860166098975
 21
139.3648951420683
 31
0.0
  0
ARC
  5
5AF
330
1A
100
AcDbEntity
  8
SEIHIN
  6
CONTINUOUS
 62
     3
 48
16.0
100
AcDbCircle
 10
290.4700541376561
 20
144.3907879747168
 30
0.0
 40
9.000024792292794
100
AcDbArc
 50
205.0008288656333
 51
222.8781744476658
  0
LINE
  5
5B0
330
1A
100
AcDbEntity
  8
SEIHIN
  6
CONTINUOUS
 62
     3
 48
16.0
100
AcDbLine
 10
299.3339166098976
 20
133.4296951420683
 30
0.0
 11
279.3339166098975
 21
133.4297951420683
 31
0.0
  0
LINE
  5
5B1
330
1A
100
AcDbEntity
  8
SEIHIN
  6
CONTINUOUS
 62
     3
 48
16.0
100
AcDbLine
 10
277.8976166098975
 20
123.2298951420684
 30
0.0
 11
285.5336166098974
 21
123.2298951420684
 31
0.0
  0
ARC
  5
5B2
330
1A
100
AcDbEntity
  8
SEIHIN
  6
CONTINUOUS
 62
     3
 48
16.0
100
AcDbCircle
 10
290.4700359501412
 20
144.3907900923406
 30
0.0
 40
9.999994428414789
100
AcDbArc
 50
205.0007250443951
 51
235.696102103716
  0
LINE
  5
5B3
330
1A
100
AcDbEntity
  8
SEIHIN
  6
CONTINUOUS
 62
     3
 48
16.0
100
AcDbLine
 10
285.9336166098975
 20
122.8298951420685
 30
0.0
 11
278.0838166098976
 21
122.8298951420685
 31
0.0
  0
LINE
  5
5B4
330
1A
100
AcDbEntity
  8
SEIHIN
  6
CONTINUOUS
 62
     3
 48
16.0
100
AcDbLine
 10
286.3339166098975
 20
122.4295951420683
 30
0.0
 11
279.3339166098975
 21
129.4295951420684
 31
0.0
  0
ARC
  5
5B5
330
1A
100
AcDbEntity
  8
SEIHIN
  6
CONTINUOUS
 62
     3
 48
16.0
100
AcDbCircle
 10
279.8976166098975
 20
130.2296951420684
 30
0.0
 40
2.0
100
AcDbArc
 50
106.3706495658644
 51
180.0
  0
LINE
  5
5B6
330
1A
100
AcDbEntity
  8
SEIHIN
  6
CONTINUOUS
 62
     3
 48
16.0
100
AcDbLine
 10
279.3339166098975
 20
129.4295951420684
 30
0.0
 11
279.3339166098975
 21
133.4295951420684
 31
0.0
  0
ARC
  5
5B7
330
1A
100
AcDbEntity
  8
SEIHIN
  6
CONTINUOUS
 62
     3
 48
16.0
100
AcDbCircle
 10
270.5681308930562
 20
130.0296844670655
 30
0.0
 40
2.200038914490237
100
AcDbArc
 50
37.569356759628
 51
68.88384407614674
  0
ARC
  5
5B8
330
1A
100
AcDbEntity
  8
SEIHIN
  6
CONTINUOUS
 62
     3
 48
16.0
100
AcDbCircle
 10
277.8975901796127
 20
124.9297081566746
 30
0.0
 40
1.700013014811606
100
AcDbArc
 50
217.5684553619165
 51
270.0008907836318
  0
LINE
  5
5B9
330
1A
100
AcDbEntity
  8
SEIHIN
  6
CONTINUOUS
 62
     3
 48
16.0
100
AcDbLine
 10
277.5013166098975
 20
124.6248951420683
 30
0.0
 11
272.3119166098975
 21
131.3710951420685
 31
0.0
  0
ARC
  5
5BA
330
1A
100
AcDbEntity
  8
SEIHIN
  6
CONTINUOUS
 62
     3
 48
16.0
100
AcDbCircle
 10
275.8410523036849
 20
124.8150000455836
 30
0.0
 40
2.000041103216348
100
AcDbArc
 50
217.570699907886
 51
313.7107426657459
  0
ARC
  5
5BB
330
1A
100
AcDbEntity
  8
SEIHIN
  6
CONTINUOUS
 62
     3
 48
16.0
100
AcDbCircle
 10
270.5680906397045
 20
130.0297079297319
 30
0.0
 40
0.9999872126737322
100
AcDbArc
 50
37.56745337481994
 51
89.99851199852416
  0
ARC
  5
5BC
330
1A
100
AcDbEntity
  8
SEIHIN
  6
CONTINUOUS
 62
     3
 48
16.0
100
AcDbCircle
 10
269.5832906397047
 20
128.029707929732
 30
0.0
 40
0.9999872126736008
100
AcDbArc
 50
37.56745337482034
 51
89.99851199852548
  0
LINE
  5
5BD
330
1A
100
AcDbEntity
  8
SEIHIN
  6
CONTINUOUS
 62
     3
 48
16.0
100
AcDbLine
 10
276.5501166098975
 20
123.8931951420684
 30
0.0
 11
271.3607166098975
 21
130.6393951420684
 31
0.0
  0
LINE
  5
5BE
330
1A
100
AcDbEntity
  8
SEIHIN
  6
CONTINUOUS
 62
     3
 48
16.0
100
AcDbLine
 10
270.3759166098975
 20
128.6393951420684
 30
0.0
 11
274.2558166098975
 21
123.5954951420683
 31
0.0
  0
ARC
  5
5BF
330
1A
100
AcDbEntity
  8
NOKITOI
  6
PHANTOM
 62
     8
 48
3.5
100
AcDbCircle
 10
369.7559413524367
 20
128.1165463294754
 30
0.0
 40
0.5000116248877111
100
AcDbArc
 50
89.99855965101662
 51
175.5251531916571
  0
ARC
  5
5C0
330
1A
100
AcDbEntity
  8
SEIHIN
  6
CONTINUOUS
 62
     3
 48
16.0
100
AcDbCircle
 10
277.8976605454646
 20
124.929673506132
 30
0.0
 40
0.4999783659940606
100
AcDbArc
 50
217.5593647406146
 51
269.994965137017
  0
LINE
  5
5C1
330
1A
100
AcDbEntity
  8
SEIHIN
  6
CONTINUOUS
 62
     3
 48
16.0
100
AcDbLine
 10
277.8976166098975
 20
123.2296951420684
 30
0.0
 11
277.8976166098975
 21
130.2296951420684
 31
0.0
  0
LINE
  5
5C2
330
1A
100
AcDbEntity
  8
SEIHIN
  6
CONTINUOUS
 62
     3
 48
16.0
100
AcDbLine
 10
278.0838166098976
 20
122.8297951420683
 30
0.0
 11
278.0838166098976
 21
123.2296951420684
 31
0.0
  0
ARC
  5
5C5
330
1A
100
AcDbEntity
  8
SEIHIN
  6
CONTINUOUS
 62
     3
 48
16.0
100
AcDbCircle
 10
270.5682080892901
 20
130.0296780910641
 30
0.0
 40
2.200017052906235
100
AcDbArc
 50
68.88577934791921
 51
90.00238242839978
  0
LINE
  5
5C7
330
1A
100
AcDbEntity
  8
SEIHIN
  6
CONTINUOUS
 62
     3
 48
16.0
100
AcDbLine
 10
280.0896166098975
 20
142.9895951420683
 30
0.0
 11
281.4070166098975
 21
140.1644951420684
 31
0.0
  0
LINE
  5
5C9
330
1A
100
AcDbEntity
  8
SEIHIN
  6
CONTINUOUS
 62
     3
 48
16.0
100
AcDbLine
 10
286.3339166098975
 20
122.4295951420683
 30
0.0
 11
299.3338166098975
 21
122.4295951420683
 31
0.0
  0
ARC
  5
5CA
330
1A
100
AcDbEntity
  8
SEIHIN
  6
CONTINUOUS
 62
     3
 48
16.0
100
AcDbCircle
 10
289.3341166098976
 20
130.0770951420684
 30
0.0
 40
9.747010259561649
100
AcDbArc
 50
235.6479976531776
 51
304.3520023468222
  0
LINE
  5
5CB
330
1A
100
AcDbEntity
  8
SEIHIN
  6
CONTINUOUS
 62
     3
 48
16.0
100
AcDbLine
 10
283.8342166098976
 20
122.0300951420684
 30
0.0
 11
294.8342166098975
 21
122.0300951420684
 31
0.0
  0
LINE
  5
5CC
330
1A
100
AcDbEntity
  8
SEIHIN
  6
CONTINUOUS
 62
     3
 48
16.0
100
AcDbLine
 10
283.8342166098976
 20
122.0300951420684
 30
0.0
 11
283.8342166098976
 21
122.8299951420684
 31
0.0
  0
LINE
  5
5CD
330
1A
100
AcDbEntity
  8
SEIHIN
  6
CONTINUOUS
 62
     3
 48
16.0
100
AcDbLine
 10
294.8342166098975
 20
122.0300951420684
 30
0.0
 11
294.8342166098975
 21
122.4296951420683
 31
0.0
  0
LINE
  5
5CE
330
1A
100
AcDbEntity
  8
SEIHIN
  6
CONTINUOUS
 62
     3
 48
16.0
100
AcDbLine
 10
289.3342166098975
 20
140.4300951420684
 30
0.0
 11
291.8341166098975
 21
140.4300951420684
 31
0.0
  0
LINE
  5
5CF
330
1A
100
AcDbEntity
  8
SEIHIN
  6
CONTINUOUS
 62
     3
 48
16.0
100
AcDbLine
 10
293.8341166098975
 20
136.1301951420684
 30
0.0
 11
289.3341166098976
 21
136.1300951420684
 31
0.0
  0
LINE
  5
5D0
330
1A
100
AcDbEntity
  8
SEIHIN
  6
CONTINUOUS
 62
     3
 48
16.0
100
AcDbLine
 10
289.3341166098976
 20
139.1300951420683
 30
0.0
 11
292.5841166098976
 21
139.1301951420684
 31
0.0
  0
LINE
  5
5D1
330
1A
100
AcDbEntity
  8
SEIHIN
  6
CONTINUOUS
 62
     3
 48
16.0
100
AcDbLine
 10
294.8341166098976
 20
134.9300951420684
 30
0.0
 11
289.3341166098976
 21
134.9300951420684
 31
0.0
  0
ARC
  5
5D2
330
1A
100
AcDbEntity
  8
SEIHIN
  6
CONTINUOUS
 62
     3
 48
16.0
100
AcDbCircle
 10
284.5030105288092
 20
139.2354039367709
 30
0.0
 40
0.5000628426684893
100
AcDbArc
 50
337.3829983264293
 51
15.00775994294664
  0
LINE
  5
5D3
330
1A
100
AcDbEntity
  8
SEIHIN
  6
CONTINUOUS
 62
     3
 48
16.0
100
AcDbLine
 10
284.8341166098976
 20
136.1301951420684
 30
0.0
 11
286.0842166098975
 21
139.1301951420684
 31
0.0
  0
LINE
  5
5D4
330
1A
100
AcDbEntity
  8
SEIHIN
  6
CONTINUOUS
 62
     3
 48
16.0
100
AcDbLine
 10
284.8341166098976
 20
136.1301951420684
 30
0.0
 11
285.3341166098976
 21
134.9301951420683
 31
0.0
  0
LINE
  5
5D5
330
1A
100
AcDbEntity
  8
SEIHIN
  6
CONTINUOUS
 62
     3
 48
16.0
100
AcDbLine
 10
289.3341166098976
 20
139.1300951420683
 30
0.0
 11
286.0842166098975
 21
139.1301951420684
 31
0.0
  0
LINE
  5
5D6
330
1A
100
AcDbEntity
  8
SEIHIN
  6
CONTINUOUS
 62
     3
 48
16.0
100
AcDbLine
 10
284.8341166098976
 20
136.1301951420684
 30
0.0
 11
289.3341166098976
 21
136.1300951420684
 31
0.0
  0
LINE
  5
5D7
330
1A
100
AcDbEntity
  8
SEIHIN
  6
CONTINUOUS
 62
     3
 48
16.0
100
AcDbLine
 10
286.8342166098975
 20
140.4300951420684
 30
0.0
 11
286.8342166098975
 21
139.1300951420683
 31
0.0
  0
LINE
  5
5D8
330
1A
100
AcDbEntity
  8
SEIHIN
  6
CONTINUOUS
 62
     3
 48
16.0
100
AcDbLine
 10
284.9646166098976
 20
139.0430951420684
 30
0.0
 11
284.7027166098975
 21
138.4146951420683
 31
0.0
  0
LINE
  5
5D9
330
1A
100
AcDbEntity
  8
SEIHIN
  6
CONTINUOUS
 62
     3
 48
16.0
100
AcDbLine
 10
289.3341166098976
 20
140.4300951420684
 30
0.0
 11
286.8342166098975
 21
140.4300951420684
 31
0.0
  0
LINE
  5
5DA
330
1A
100
AcDbEntity
  8
SEIHIN
  6
CONTINUOUS
 62
     3
 48
16.0
100
AcDbLine
 10
283.8341166098976
 20
134.9301951420683
 30
0.0
 11
283.8341166098976
 21
133.4301951420684
 31
0.0
  0
ARC
  5
5DB
330
1A
100
AcDbEntity
  8
SEIHIN
  6
CONTINUOUS
 62
     3
 48
16.0
100
AcDbCircle
 10
284.2412028796674
 20
138.6069926894484
 30
0.0
 40
0.4999732692047813
100
AcDbArc
 50
222.8773689717967
 51
337.3801181495897
  0
LINE
  5
5DC
330
1A
100
AcDbEntity
  8
SEIHIN
  6
CONTINUOUS
 62
     3
 48
16.0
100
AcDbLine
 10
283.8341166098976
 20
134.9301951420683
 30
0.0
 11
289.3341166098976
 21
134.9300951420684
 31
0.0
  0
LINE
  5
5DD
330
1A
100
AcDbEntity
  8
SEIHIN
  6
CONTINUOUS
 62
     3
 48
16.0
100
AcDbLine
 10
298.5787166098976
 20
142.9895951420683
 30
0.0
 11
297.2613166098976
 21
140.1644951420684
 31
0.0
  0
ARC
  5
5DE
330
1A
100
AcDbEntity
  8
SEIHIN
  6
CONTINUOUS
 62
     3
 48
16.0
100
AcDbCircle
 10
288.1983790821391
 20
144.3907879747172
 30
0.0
 40
9.000024792292954
100
AcDbArc
 50
317.1218255523321
 51
334.9991711343647
  0
ARC
  5
5DF
330
1A
100
AcDbEntity
  8
SEIHIN
  6
CONTINUOUS
 62
     3
 48
16.0
100
AcDbCircle
 10
294.4271763196498
 20
138.6070023406817
 30
0.0
 40
0.5000194239279034
100
AcDbArc
 50
202.6188762781231
 51
317.126032511708
  0
ARC
  5
5E0
330
1A
100
AcDbEntity
  8
SEIHIN
  6
CONTINUOUS
 62
     3
 48
16.0
100
AcDbCircle
 10
294.1653231336535
 20
139.2353973161153
 30
0.0
 40
0.4999683966137843
100
AcDbArc
 50
164.9885528190636
 51
202.6206889115297
  0
ARC
  5
5E1
330
1A
100
AcDbEntity
  8
SEIHIN
  6
CONTINUOUS
 62
     3
 48
16.0
100
AcDbCircle
 10
288.1982962389478
 20
144.3906711621257
 30
0.0
 40
10.00003573047771
100
AcDbArc
 50
304.3044371974912
 51
335.0001371699181
  0
LINE
  5
5E2
330
1A
100
AcDbEntity
  8
SEIHIN
  6
CONTINUOUS
 62
     3
 48
16.0
100
AcDbLine
 10
293.8341166098975
 20
136.1301951420684
 30
0.0
 11
292.5841166098976
 21
139.1301951420684
 31
0.0
  0
LINE
  5
5E3
330
1A
100
AcDbEntity
  8
SEIHIN
  6
CONTINUOUS
 62
     3
 48
16.0
100
AcDbLine
 10
293.8341166098975
 20
136.1301951420684
 30
0.0
 11
293.3341166098976
 21
134.9301951420683
 31
0.0
  0
LINE
  5
5E4
330
1A
100
AcDbEntity
  8
SEIHIN
  6
CONTINUOUS
 62
     3
 48
16.0
100
AcDbLine
 10
293.7038166098975
 20
139.0430951420684
 30
0.0
 11
293.9656166098974
 21
138.4146951420683
 31
0.0
  0
LINE
  5
5E5
330
1A
100
AcDbEntity
  8
SEIHIN
  6
CONTINUOUS
 62
     3
 48
16.0
100
AcDbLine
 10
291.8341166098975
 20
140.4300951420684
 30
0.0
 11
291.8341166098975
 21
139.1301951420684
 31
0.0
  0
LINE
  5
5E6
330
1A
100
AcDbEntity
  8
SEIHIN
  6
CONTINUOUS
 62
     3
 48
16.0
100
AcDbLine
 10
294.8341166098976
 20
134.9300951420684
 30
0.0
 11
294.8341166098976
 21
133.4297951420683
 31
0.0
  0
ARC
  5
5E7
330
1A
100
AcDbEntity
  8
SEIHIN
  6
CONTINUOUS
 62
     3
 48
16.0
100
AcDbCircle
 10
283.2014324648231
 20
144.0929859894699
 30
0.0
 40
0.5000463028560472
100
AcDbArc
 50
15.01039707620244
 51
104.999329581437
  0
ARC
  5
5E8
330
1A
100
AcDbEntity
  8
SEIHIN
  6
CONTINUOUS
 62
     3
 48
16.0
100
AcDbCircle
 10
283.2014324605827
 20
144.0929859909216
 30
0.0
 40
1.500016424910045
100
AcDbArc
 50
15.00301852584775
 51
104.9993290130918
  0
ARC
  5
5EB
330
1A
100
AcDbEntity
  8
SEIHIN
  6
CONTINUOUS
 62
     3
 48
16.0
100
AcDbCircle
 10
281.4491153492428
 20
143.6234924389142
 30
0.0
 40
0.500035643727986
100
AcDbArc
 50
104.9976264979411
 51
204.9965994016853
  0
LINE
  5
5EC
330
1A
100
AcDbEntity
  8
SEIHIN
  6
CONTINUOUS
 62
     3
 48
16.0
100
AcDbLine
 10
282.8132166098976
 20
145.5418951420683
 30
0.0
 11
281.0609166098976
 21
145.0723951420684
 31
0.0
  0
LINE
  5
5ED
330
1A
100
AcDbEntity
  8
SEIHIN
  6
CONTINUOUS
 62
     3
 48
16.0
100
AcDbLine
 10
281.3196166098975
 20
144.1064951420684
 30
0.0
 11
283.0721166098975
 21
144.5759951420684
 31
0.0
  0
ARC
  5
5EE
330
1A
100
AcDbEntity
  8
SEIHIN
  6
CONTINUOUS
 62
     3
 48
16.0
100
AcDbCircle
 10
295.4669166098976
 20
144.0929951420683
 30
0.0
 40
0.5000333588872284
100
AcDbArc
 50
75.0021538181001
 51
165.0021538181033
  0
ARC
  5
5EF
330
1A
100
AcDbEntity
  8
SEIHIN
  6
CONTINUOUS
 62
     3
 48
16.0
100
AcDbCircle
 10
297.2192445170843
 20
143.6234352981431
 30
0.0
 40
0.49998734908321
100
AcDbArc
 50
335.0080449606104
 51
75.00405205756696
  0
ARC
  5
5F0
330
1A
100
AcDbEntity
  8
SEIHIN
  6
CONTINUOUS
 62
     3
 48
16.0
100
AcDbCircle
 10
295.4669166098976
 20
144.0929951420683
 30
0.0
 40
1.500003483329295
100
AcDbArc
 50
75.00116534316392
 51
165.0011653431647
  0
LINE
  5
5F1
330
1A
100
AcDbEntity
  8
SEIHIN
  6
CONTINUOUS
 62
     3
 48
16.0
100
AcDbLine
 10
297.3486166098975
 20
144.1063951420684
 30
0.0
 11
295.5963166098976
 21
144.5759951420684
 31
0.0
  0
LINE
  5
5F2
330
1A
100
AcDbEntity
  8
SEIHIN
  6
CONTINUOUS
 62
     3
 48
16.0
100
AcDbLine
 10
295.8551166098976
 20
145.5418951420683
 30
0.0
 11
297.6074166098976
 21
145.0723951420684
 31
0.0
  0
LINE
  5
5F5
330
1A
100
AcDbEntity
  8
SEIHIN
  6
CONTINUOUS
 62
     3
 48
16.0
100
AcDbLine
 10
383.2192166098975
 20
153.0643951420684
 30
0.0
 11
328.9966166098974
 21
148.3205951420683
 31
0.0
  0
LINE
  5
5F6
330
1A
100
AcDbEntity
  8
SEIHIN
  6
CONTINUOUS
 62
     3
 48
16.0
100
AcDbLine
 10
322.7449166098976
 20
158.8156951420684
 30
0.0
 11
385.6348166098976
 21
164.3176951420684
 31
0.0
  0
ARC
  5
5F7
330
1A
100
AcDbEntity
  8
SEIHIN
  6
CONTINUOUS
 62
     3
 48
16.0
100
AcDbCircle
 10
368.2477998763556
 20
135.2296864620759
 30
0.0
 40
10.00000868000652
100
AcDbArc
 50
89.99990412394963
 51
144.8330848664228
  0
LINE
  5
5F8
330
1A
100
AcDbEntity
  8
NOKITOI
  6
PHANTOM
 62
     8
 48
3.5
100
AcDbLine
 10
271.719053922145
 20
97.15415795420529
 30
0.0
 11
282.122153922145
 21
88.64245795420528
 31
0.0
  0
LINE
  5
5F9
330
1A
100
AcDbEntity
  8
NOKITOI
  6
PHANTOM
 62
     8
 48
3.5
100
AcDbLine
 10
269.5294539221448
 20
128.1663579542051
 30
0.0
 11
272.5224539221452
 21
98.23655795420506
 31
0.0
  0
LINE
  5
5FA
330
1A
100
AcDbEntity
  8
NOKITOI
  6
PHANTOM
 62
     8
 48
3.5
100
AcDbLine
 10
287.005253922145
 20
89.61645795420521
 30
0.0
 11
306.9133539221446
 21
89.61645795420521
 31
0.0
  0
LINE
  5
5FB
330
1A
100
AcDbEntity
  8
NOKITOI
  6
PHANTOM
 62
     8
 48
3.5
100
AcDbLine
 10
286.7554539221449
 20
88.41645795420516
 30
0.0
 11
306.9133539221446
 21
88.41645795420516
 31
0.0
  0
LINE
  5
5FC
330
1A
100
AcDbEntity
  8
NOKITOI
  6
PHANTOM
 62
     8
 48
3.5
100
AcDbLine
 10
327.584853922145
 20
89.61655795420517
 30
0.0
 11
283.005253922145
 21
89.61645795420521
 31
0.0
  0
LINE
  5
5FD
330
1A
100
AcDbEntity
  8
NOKITOI
  6
PHANTOM
 62
     8
 48
3.5
100
AcDbLine
 10
282.7554539221449
 20
88.41645795420516
 30
0.0
 11
327.584853922145
 21
88.41655795420512
 31
0.0
  0
LINE
  5
5FE
330
1A
100
AcDbEntity
  8
NOKITOI
  6
PHANTOM
 62
     8
 48
3.5
100
AcDbLine
 10
272.7033539221446
 20
97.89925795420515
 30
0.0
 11
282.6886539221449
 21
89.72945795420503
 31
0.0
  0
ARC
  5
5FF
330
1A
100
AcDbEntity
  8
NOKITOI
  6
PHANTOM
 62
     8
 48
3.5
100
AcDbCircle
 10
282.7554608547223
 20
89.41645547919904
 30
0.0
 40
0.9999975250179316
100
AcDbArc
 50
230.7053583247701
 51
269.9996027915957
  0
ARC
  5
600
330
1A
100
AcDbEntity
  8
NOKITOI
  6
PHANTOM
 62
     8
 48
3.5
100
AcDbCircle
 10
283.0052475343963
 20
90.11646023419473
 30
0.0
 40
0.5000022800304047
100
AcDbArc
 50
230.7145501403941
 51
270.0007319787213
  0
ARC
  5
601
330
1A
100
AcDbEntity
  8
NOKITOI
  6
PHANTOM
 62
     8
 48
3.5
100
AcDbCircle
 10
273.0199713480232
 20
98.28622546781719
 30
0.0
 40
0.4999904508696396
100
AcDbArc
 50
185.7009889250754
 51
230.7099153622041
  0
LINE
  5
602
330
1A
100
AcDbEntity
  8
SEIHIN
  6
CONTINUOUS
 62
     3
 48
16.0
100
AcDbLine
 10
364.6606166098974
 20
122.8296951420684
 30
0.0
 11
302.2743747893168
 21
122.8299008346183
 31
0.0
  0
LINE
  5
603
330
1A
100
AcDbEntity
  8
SEIHIN
  6
CONTINUOUS
 62
     3
 48
16.0
100
AcDbLine
 10
303.4528965650836
 20
123.2299011078053
 30
0.0
 11
363.0606166098974
 21
123.2296951420684
 31
0.0
  0
LINE
  5
604
330
1A
100
AcDbEntity
  8
SEIHIN
  6
CONTINUOUS
 62
     3
 48
16.0
100
AcDbLine
 10
312.2382614688977
 20
132.2296951420685
 30
0.0
 11
337.7049166098976
 21
132.2296951420684
 31
0.0
  0
LINE
  5
605
330
1A
100
AcDbEntity
  8
SEIHIN
  6
CONTINUOUS
 62
     3
 48
16.0
100
AcDbLine
 10
308.0916166098976
 20
126.7735951420684
 30
0.0
 11
321.1976166098975
 21
144.0182951420684
 31
0.0
  0
ARC
  5
606
330
1A
100
AcDbEntity
  8
SEIHIN
  6
CONTINUOUS
 62
     3
 48
16.0
100
AcDbCircle
 10
323.6163354253099
 20
148.8535503585973
 30
0.0
 40
9.999985731028798
100
AcDbArc
 50
94.99920992970192
 51
142.7642970925041
  0
ARC
  5
607
330
1A
100
AcDbEntity
  8
SEIHIN
  6
CONTINUOUS
 62
     3
 48
16.0
100
AcDbCircle
 10
329.9554095362876
 20
137.3622912400628
 30
0.0
 40
11.00006022188247
100
AcDbArc
 50
94.99986671047604
 51
142.7648289625843
  0
LINE
  5
608
330
1A
100
AcDbEntity
  8
SEIHIN
  6
CONTINUOUS
 62
     3
 48
16.0
100
AcDbLine
 10
352.7156166098974
 20
146.1727951420683
 30
0.0
 11
345.8797166098975
 21
136.4701951420684
 31
0.0
  0
LINE
  5
609
330
1A
100
AcDbEntity
  8
SEIHIN
  6
CONTINUOUS
 62
     3
 48
16.0
100
AcDbLine
 10
360.0730166098976
 20
140.9892951420683
 30
0.0
 11
349.0544166098976
 21
125.3499951420683
 31
0.0
  0
ARC
  5
60A
330
1A
100
AcDbEntity
  8
SEIHIN
  6
CONTINUOUS
 62
     3
 48
16.0
100
AcDbCircle
 10
337.7048778266233
 20
142.2296750242778
 30
0.0
 40
9.99997988228463
100
AcDbArc
 50
270.0002222122398
 51
324.8338713373226
  0
LINE
  5
60B
330
1A
100
AcDbEntity
  8
SEIHIN
  6
CONTINUOUS
 62
     3
 48
16.0
100
AcDbLine
 10
335.4606166098974
 20
122.2296951420684
 30
0.0
 11
335.4606166098974
 21
122.8296951420684
 31
0.0
  0
LINE
  5
60C
330
1A
100
AcDbEntity
  8
SEIHIN
  6
CONTINUOUS
 62
     3
 48
16.0
100
AcDbLine
 10
339.6106166098976
 20
122.2296951420684
 30
0.0
 11
339.6106166098976
 21
122.8296951420684
 31
0.0
  0
LINE
  5
60D
330
1A
100
AcDbEntity
  8
SEIHIN
  6
CONTINUOUS
 62
     3
 48
16.0
100
AcDbLine
 10
339.6106166098976
 20
122.2297951420685
 30
0.0
 11
335.4606166098974
 21
122.2297951420685
 31
0.0
  0
ARC
  5
60E
330
1A
100
AcDbEntity
  8
SEIHIN
  6
CONTINUOUS
 62
     3
 48
16.0
100
AcDbCircle
 10
344.9669694607297
 20
128.2296706844488
 30
0.0
 40
4.999975542602631
100
AcDbArc
 50
270.0005402923081
 51
324.834657805396
  0
LINE
  5
60F
330
1A
100
AcDbEntity
  8
SEIHIN
  6
CONTINUOUS
 62
     3
 48
16.0
100
AcDbLine
 10
363.5606166098976
 20
123.7296951420684
 30
0.0
 11
363.5606166098976
 21
131.2296951420684
 31
0.0
  0
LINE
  5
610
330
1A
100
AcDbEntity
  8
SEIHIN
  6
CONTINUOUS
 62
     3
 48
16.0
100
AcDbLine
 10
363.9606166098974
 20
123.7296951420684
 30
0.0
 11
363.9606166098974
 21
131.2296951420684
 31
0.0
  0
LINE
  5
611
330
1A
100
AcDbEntity
  8
SEIHIN
  6
CONTINUOUS
 62
     3
 48
16.0
100
AcDbLine
 10
365.5606166098976
 20
131.2296951420684
 30
0.0
 11
365.5606166098976
 21
123.7296951420684
 31
0.0
  0
ARC
  5
612
330
1A
100
AcDbEntity
  8
SEIHIN
  6
CONTINUOUS
 62
     3
 48
16.0
100
AcDbCircle
 10
363.0606166098975
 20
123.7296951420685
 30
0.0
 40
0.5000000000000569
100
AcDbArc
 50
269.9999999999934
 51
359.9999999999934
  0
LINE
  5
613
330
1A
100
AcDbEntity
  8
SEIHIN
  6
CONTINUOUS
 62
     3
 48
16.0
100
AcDbLine
 10
365.5606166098976
 20
131.2296951420684
 30
0.0
 11
363.5606166098976
 21
131.2296951420684
 31
0.0
  0
ARC
  5
614
330
1A
100
AcDbEntity
  8
SEIHIN
  6
CONTINUOUS
 62
     3
 48
16.0
100
AcDbCircle
 10
363.0606166098974
 20
123.7296951420684
 30
0.0
 40
0.8999999999999914
100
AcDbArc
 50
270.0000000000009
 51
0.0000000000009047
  0
ARC
  5
615
330
1A
100
AcDbEntity
  8
SEIHIN
  6
CONTINUOUS
 62
     3
 48
16.0
100
AcDbCircle
 10
364.6606166098976
 20
123.7296951420685
 30
0.0
 40
0.9000000000000483
100
AcDbArc
 50
269.9999999999972
 51
359.9999999999973
  0
ARC
  5
616
330
1A
100
AcDbEntity
  8
SEIHIN
  6
CONTINUOUS
 62
     3
 48
16.0
100
AcDbCircle
 10
368.2478698706801
 20
135.229749043365
 30
0.0
 40
19.00003024406641
100
AcDbArc
 50
125.8514733178776
 51
144.8338901924741
  0
ARC
  5
617
330
1A
100
AcDbEntity
  8
SEIHIN
  6
CONTINUOUS
 62
     3
 48
16.0
100
AcDbCircle
 10
380.7606544625194
 20
121.1796157804027
 30
0.0
 40
1.499962147520158
100
AcDbArc
 50
237.2001798555907
 51
359.9992116538031
  0
LINE
  5
618
330
1A
100
AcDbEntity
  8
SEIHIN
  6
CONTINUOUS
 62
     3
 48
16.0
100
AcDbLine
 10
371.0605166098975
 20
125.6460951420683
 30
0.0
 11
379.9481166098975
 21
119.9187951420684
 31
0.0
  0
LINE
  5
619
330
1A
100
AcDbEntity
  8
SEIHIN
  6
CONTINUOUS
 62
     3
 48
16.0
100
AcDbLine
 10
406.9738166098976
 20
117.8456951420684
 30
0.0
 11
393.9759166098976
 21
150.3426951420684
 31
0.0
  0
LINE
  5
61A
330
1A
100
AcDbEntity
  8
SEIHIN
  6
CONTINUOUS
 62
     3
 48
16.0
100
AcDbLine
 10
390.7129166098976
 20
161.1935951420685
 30
0.0
 11
407.9023166098974
 21
118.2170951420683
 31
0.0
  0
LINE
  5
61B
330
1A
100
AcDbEntity
  8
SEIHIN
  6
CONTINUOUS
 62
     3
 48
16.0
100
AcDbLine
 10
402.3314166098976
 20
115.9888951420684
 30
0.0
 11
389.3335166098975
 21
148.4858951420684
 31
0.0
  0
LINE
  5
61C
330
1A
100
AcDbEntity
  8
NOKITOI
  6
PHANTOM
 62
     8
 48
3.5
100
AcDbLine
 10
268.4884539221446
 20
126.5160579542051
 30
0.0
 11
271.3572539221448
 21
97.82865795420514
 31
0.0
  0
TEXT
  5
61D
330
1A
100
AcDbEntity
  8
SUNPOU
  6
CONTINUOUS
 62
     4
 48
16.0
100
AcDbText
 10
412.8653445719644
 20
215.8844220421891
 30
0.0
 40
6.0
  1
10
100
AcDbText
  0
ARC
  5
61E
330
1A
100
AcDbEntity
  8
NOKITOI
  6
PHANTOM
 62
     8
 48
3.5
100
AcDbCircle
 10
272.3522764950138
 20
97.92811588253256
 30
0.0
 40
0.9999908507640039
100
AcDbArc
 50
185.7137670522468
 51
230.7112907769303
  0
LINE
  5
61F
330
1A
100
AcDbEntity
  8
SUNPOU
  6
CONTINUOUS
 62
     4
 48
16.0
100
AcDbLine
 10
423.424278719461
 20
226.7801328775666
 30
0.0
 11
423.424278719461
 21
211.7801328775665
 31
0.0
  0
LINE
  5
620
330
1A
100
AcDbEntity
  8
SUNPOU
  6
CONTINUOUS
 62
     4
 48
16.0
100
AcDbLine
 10
419.774578719461
 20
235.9050328775666
 30
0.0
 11
429.4238787194608
 21
211.7801328775665
 31
0.0
  0
LINE
  5
621
330
1A
100
AcDbEntity
  8
SUNPOU
  6
CONTINUOUS
 62
     4
 48
16.0
100
AcDbLine
 10
423.424278719461
 20
211.7801328775665
 30
0.0
 11
429.4238787194608
 21
211.7801328775665
 31
0.0
  0
TEXT
  5
622
330
1A
100
AcDbEntity
  8
SUNPOU
  6
CONTINUOUS
 62
     4
 48
16.0
100
AcDbText
 10
424.5862363577344
 20
202.2789442588428
 30
0.0
 40
6.0
  1
4
100
AcDbText
  0
LINE
  5
623
330
1A
100
AcDbEntity
  8
SEIHIN
  6
CONTINUOUS
 62
     3
 48
16.0
100
AcDbLine
 10
407.9023166098974
 20
118.2170951420683
 30
0.0
 11
402.3314166098976
 21
115.9887951420683
 31
0.0
  0
LINE
  5
624
330
1A
100
AcDbEntity
  8
CENTER_L
  6
CENTER
 62
     1
 48
5.0
100
AcDbLine
 10
402.5401166098974
 20
146.2289951420683
 30
0.0
 11
389.3147166098976
 21
140.9391951420683
 31
0.0
  0
LINE
  5
625
330
1A
100
AcDbEntity
  8
CENTER_L
  6
CENTER
 62
     1
 48
5.0
100
AcDbLine
 10
397.0604166098974
 20
121.4199951420683
 30
0.0
 11
409.8834166098974
 21
126.5487951420684
 31
0.0
  0
LINE
  5
626
330
1A
100
AcDbEntity
  8
CENTER_L
  6
CENTER
 62
     1
 48
5.0
100
AcDbLine
 10
404.6381166098974
 20
140.6063951420684
 30
0.0
 11
391.5276166098976
 21
135.3625951420683
 31
0.0
  0
ARC
  5
627
330
1A
100
AcDbEntity
  8
SEIHIN
  6
CONTINUOUS
 62
     3
 48
16.0
100
AcDbCircle
 10
376.0606346528012
 20
140.2296369164671
 30
0.0
 40
6.999981957338525
100
AcDbArc
 50
0.000476584258711
 51
34.43472123321652
  0
ARC
  5
628
330
1A
100
AcDbEntity
  8
NOKITOI
  6
PHANTOM
 62
     8
 48
3.5
100
AcDbCircle
 10
261.4619651591391
 20
141.4165695480222
 30
0.0
 40
1.999988406214315
100
AcDbArc
 50
90.0003219180439
 51
181.791127346407
  0
ARC
  5
629
330
1A
100
AcDbEntity
  8
NOKITOI
  6
PHANTOM
 62
     8
 48
3.5
100
AcDbCircle
 10
264.7885611767004
 20
142.9165491043617
 30
0.0
 40
0.500008849895925
100
AcDbArc
 50
348.6864043304882
 51
90.00083129614507
  0
ARC
  5
62A
330
1A
100
AcDbEntity
  8
SEIHIN
  6
CONTINUOUS
 62
     3
 48
16.0
100
AcDbCircle
 10
376.0606166098976
 20
140.2296951420684
 30
0.0
 40
5.0
100
AcDbArc
 50
0.0
 51
90.0
  0
ARC
  5
62B
330
1A
100
AcDbEntity
  8
SEIHIN
  6
CONTINUOUS
 62
     3
 48
16.0
100
AcDbCircle
 10
372.2606396979508
 20
141.2984422482542
 30
0.0
 40
9.999976912086648
100
AcDbArc
 50
0.0003030599310789
 51
47.16266586547755
  0
LINE
  5
62C
330
1A
100
AcDbEntity
  8
NOKITOI
  6
PHANTOM
 62
     8
 48
3.5
100
AcDbLine
 10
261.0009539221449
 20
130.5539579542052
 30
0.0
 11
260.9154539221453
 21
133.2915579542051
 31
0.0
  0
LINE
  5
62D
330
1A
100
AcDbEntity
  8
SEIHIN
  6
CONTINUOUS
 62
     3
 48
16.0
100
AcDbLine
 10
383.0606166098975
 20
140.2296951420684
 30
0.0
 11
383.0606166098975
 21
127.2296951420684
 31
0.0
  0
LINE
  5
62E
330
1A
100
AcDbEntity
  8
NOKITOI
  6
PHANTOM
 62
     8
 48
3.5
100
AcDbLine
 10
259.4629539221449
 20
141.3540579542051
 30
0.0
 11
259.853053922145
 21
128.869657954205
 31
0.0
  0
LINE
  5
62F
330
1A
100
AcDbEntity
  8
SEIHIN
  6
CONTINUOUS
 62
     3
 48
16.0
100
AcDbLine
 10
381.0606166098975
 20
140.2296951420684
 30
0.0
 11
381.0606166098975
 21
121.1795951420684
 31
0.0
  0
LINE
  5
630
330
1A
100
AcDbEntity
  8
SEIHIN
  6
CONTINUOUS
 62
     3
 48
16.0
100
AcDbLine
 10
382.2606166098976
 20
141.2984951420684
 30
0.0
 11
382.2606166098976
 21
121.1795951420684
 31
0.0
  0
LINE
  5
631
330
1A
100
AcDbEntity
  8
NOKITOI
  6
PHANTOM
 62
     8
 48
3.5
100
AcDbLine
 10
269.0319539221453
 20
128.6165579542051
 30
0.0
 11
263.0000539221449
 21
128.6165579542051
 31
0.0
  0
LINE
  5
632
330
1A
100
AcDbEntity
  8
NOKITOI
  6
PHANTOM
 62
     8
 48
3.5
100
AcDbLine
 10
261.3523539221449
 20
127.4165579542051
 30
0.0
 11
267.4934539221447
 21
127.4165579542051
 31
0.0
  0
LINE
  5
633
330
1A
100
AcDbEntity
  8
SEIHIN
  6
CONTINUOUS
 62
     3
 48
16.0
100
AcDbLine
 10
371.7105166098976
 20
126.6547951420684
 30
0.0
 11
380.5981166098975
 21
120.9273951420684
 31
0.0
  0
LINE
  5
634
330
1A
100
AcDbEntity
  8
SEIHIN
  6
CONTINUOUS
 62
     3
 48
16.0
100
AcDbLine
 10
371.7105166098976
 20
126.6547951420684
 30
0.0
 11
371.0605166098975
 21
125.6460951420683
 31
0.0
  0
ARC
  5
635
330
1A
100
AcDbEntity
  8
NOKITOI
  6
PHANTOM
 62
     8
 48
3.5
100
AcDbCircle
 10
267.493433272304
 20
126.4165766420543
 30
0.0
 40
0.9999813123640345
100
AcDbArc
 50
5.709409966648967
 51
89.99881682915043
  0
ARC
  5
636
330
1A
100
AcDbEntity
  8
NOKITOI
  6
PHANTOM
 62
     8
 48
3.5
100
AcDbCircle
 10
269.0319408511403
 20
128.116569784485
 30
0.0
 40
0.499988169890889
100
AcDbArc
 50
5.703393862284335
 51
89.99850213773372
  0
ARC
  5
637
330
1A
100
AcDbEntity
  8
SEIHIN
  6
CONTINUOUS
 62
     3
 48
16.0
100
AcDbCircle
 10
382.2605666098976
 20
127.2296451420684
 30
0.0
 40
0.7999500015626358
100
AcDbArc
 50
270.0035812100447
 51
0.0035812100447219
  0
ARC
  5
638
330
1A
100
AcDbEntity
  8
NOKITOI
  6
PHANTOM
 62
     8
 48
3.5
100
AcDbCircle
 10
261.3523367089668
 20
128.9165746373529
 30
0.0
 40
1.500016683246579
100
AcDbArc
 50
181.7923576755889
 51
270.0006574876651
  0
ARC
  5
639
330
1A
100
AcDbEntity
  8
NOKITOI
  6
PHANTOM
 62
     8
 48
3.5
100
AcDbCircle
 10
263.0000159343206
 20
130.6164947747773
 30
0.0
 40
2.000036820932882
100
AcDbArc
 50
181.7889408725803
 51
270.001088250966
  0
ARC
  5
63A
330
1A
100
AcDbEntity
  8
SEIHIN
  6
CONTINUOUS
 62
     3
 48
16.0
100
AcDbCircle
 10
380.7606493968141
 20
121.1796130161305
 30
0.0
 40
0.2999672136159586
100
AcDbArc
 50
237.1913454210685
 51
359.9965859324638
  0
LINE
  5
63B
330
1A
100
AcDbEntity
  8
NOKITOI
  6
PHANTOM
 62
     8
 48
3.5
100
AcDbLine
 10
263.434653922145
 20
139.7165579542053
 30
0.0
 11
266.371253922145
 21
139.7165579542053
 31
0.0
  0
LINE
  5
63C
330
1A
100
AcDbEntity
  8
NOKITOI
  6
PHANTOM
 62
     8
 48
3.5
100
AcDbLine
 10
263.9346539221449
 20
142.2165579542053
 30
0.0
 11
263.434653922145
 21
139.7165579542053
 31
0.0
  0
ARC
  5
63D
330
1A
100
AcDbEntity
  8
NOKITOI
  6
PHANTOM
 62
     8
 48
3.5
100
AcDbCircle
 10
264.9134717884961
 20
133.416566682585
 30
0.0
 40
5.199991271650611
100
AcDbArc
 50
90.00019685927453
 51
142.074671395269
  0
LINE
  5
63E
330
1A
100
AcDbEntity
  8
NOKITOI
  6
PHANTOM
 62
     8
 48
3.5
100
AcDbLine
 10
261.4619539221447
 20
142.2164579542051
 30
0.0
 11
263.9346539221449
 21
142.2165579542053
 31
0.0
  0
ARC
  5
63F
330
1A
100
AcDbEntity
  8
NOKITOI
  6
PHANTOM
 62
     8
 48
3.5
100
AcDbCircle
 10
264.9134848490811
 20
133.4165936988689
 30
0.0
 40
3.99998565374706
100
AcDbArc
 50
96.47577619531674
 51
181.7913033408985
  0
LINE
  5
640
330
1A
100
AcDbEntity
  8
NOKITOI
  6
PHANTOM
 62
     8
 48
3.5
100
AcDbLine
 10
266.7599539221449
 20
135.1165579542051
 30
0.0
 11
266.9410539221451
 21
138.5579579542051
 31
0.0
  0
LINE
  5
641
330
1A
100
AcDbEntity
  8
NOKITOI
  6
PHANTOM
 62
     8
 48
3.5
100
AcDbLine
 10
265.9820539221454
 20
135.1165579542051
 30
0.0
 11
266.3860539221449
 21
137.944957954205
 31
0.0
  0
LINE
  5
642
330
1A
100
AcDbEntity
  8
NOKITOI
  6
PHANTOM
 62
     8
 48
3.5
100
AcDbLine
 10
266.7599539221449
 20
135.1165579542051
 30
0.0
 11
265.9820539221454
 21
135.1165579542051
 31
0.0
  0
ARC
  5
643
330
1A
100
AcDbEntity
  8
NOKITOI
  6
PHANTOM
 62
     8
 48
3.5
100
AcDbCircle
 10
265.5083547051534
 20
141.4165569992034
 30
0.0
 40
0.4999990449987399
100
AcDbArc
 50
168.6967198015449
 51
269.9999102736945
  0
LINE
  5
644
330
1A
100
AcDbEntity
  8
NOKITOI
  6
PHANTOM
 62
     8
 48
3.5
100
AcDbLine
 10
267.7398539221448
 20
140.9165579542051
 30
0.0
 11
265.5083539221449
 21
140.9165579542051
 31
0.0
  0
LINE
  5
645
330
1A
100
AcDbEntity
  8
NOKITOI
  6
PHANTOM
 62
     8
 48
3.5
100
AcDbLine
 10
265.0180539221449
 20
141.5145579542053
 30
0.0
 11
265.278853922145
 21
142.8185579542051
 31
0.0
  0
ARC
  5
646
330
1A
100
AcDbEntity
  8
NOKITOI
  6
PHANTOM
 62
     8
 48
3.5
100
AcDbCircle
 10
264.5187245496452
 20
136.8941881867
 30
0.0
 40
0.4999578477751074
100
AcDbArc
 50
351.8669438287075
 51
96.47390928779223
  0
LINE
  5
647
330
1A
100
AcDbEntity
  8
NOKITOI
  6
PHANTOM
 62
     8
 48
3.5
100
AcDbLine
 10
265.3754539221448
 20
138.6165579542051
 30
0.0
 11
264.9134539221448
 21
138.6165579542051
 31
0.0
  0
LINE
  5
648
330
1A
100
AcDbEntity
  8
NOKITOI
  6
PHANTOM
 62
     8
 48
3.5
100
AcDbLine
 10
266.3860539221449
 20
137.944957954205
 30
0.0
 11
266.9410539221451
 21
138.5579579542051
 31
0.0
  0
LINE
  5
649
330
1A
100
AcDbEntity
  8
NOKITOI
  6
PHANTOM
 62
     8
 48
3.5
100
AcDbLine
 10
265.3754539221448
 20
138.6165579542051
 30
0.0
 11
266.371253922145
 21
139.7165579542053
 31
0.0
  0
ARC
  5
64A
330
1A
100
AcDbEntity
  8
NOKITOI
  6
PHANTOM
 62
     8
 48
3.5
100
AcDbCircle
 10
267.7398502126496
 20
140.4165618642358
 30
0.0
 40
0.4999960899831856
100
AcDbArc
 50
356.9843782585345
 51
89.99957491984867
  0
ARC
  5
64B
330
1A
100
AcDbEntity
  8
NOKITOI
  6
PHANTOM
 62
     8
 48
3.5
100
AcDbCircle
 10
265.1749437357088
 20
134.4165696989292
 30
0.0
 40
0.5000117448278309
100
AcDbArc
 50
171.8726853912841
 51
270.0011672521981
  0
ARC
  5
64C
330
1A
100
AcDbEntity
  8
NOKITOI
  6
PHANTOM
 62
     8
 48
3.5
100
AcDbCircle
 10
267.4240498007383
 20
134.4165540441746
 30
0.0
 40
0.4999960899864752
100
AcDbArc
 50
270.0004722821405
 51
356.9852756208263
  0
LINE
  5
64D
330
1A
100
AcDbEntity
  8
NOKITOI
  6
PHANTOM
 62
     8
 48
3.5
100
AcDbLine
 10
267.4240539221449
 20
133.9165579542051
 30
0.0
 11
265.1749539221453
 21
133.9165579542051
 31
0.0
  0
LINE
  5
64E
330
1A
100
AcDbEntity
  8
NOKITOI
  6
PHANTOM
 62
     8
 48
3.5
100
AcDbLine
 10
267.9233539221448
 20
134.3902579542051
 30
0.0
 11
268.2391539221451
 21
140.3902579542051
 31
0.0
  0
LINE
  5
64F
330
1A
100
AcDbEntity
  8
NOKITOI
  6
PHANTOM
 62
     8
 48
3.5
100
AcDbLine
 10
264.679953922145
 20
134.4872579542051
 30
0.0
 11
265.0137539221449
 21
136.8234579542053
 31
0.0
  0
LINE
  5
650
330
1A
100
AcDbEntity
  8
NOKITOI
  6
PHANTOM
 62
     8
 48
3.5
100
AcDbLine
 10
260.6623539221453
 20
141.391557954205
 30
0.0
 11
260.8116539221449
 21
136.6125579542052
 31
0.0
  0
ARC
  5
651
330
1A
100
AcDbEntity
  8
NOKITOI
  6
PHANTOM
 62
     8
 48
3.5
100
AcDbCircle
 10
261.461909955792
 20
141.4165125917321
 30
0.0
 40
0.7999453636812564
100
AcDbArc
 50
89.99685092684627
 51
181.7876563552118
  0
LINE
  5
652
330
1A
100
AcDbEntity
  8
SEIHIN
  6
CONTINUOUS
 62
     3
 48
16.0
100
AcDbLine
 10
376.0606166098976
 20
145.2296951420684
 30
0.0
 11
368.2478166098976
 21
145.2296951420684
 31
0.0
  0
LINE
  5
653
330
1A
100
AcDbEntity
  8
NOKITOI
  6
PHANTOM
 62
     8
 48
3.5
100
AcDbLine
 10
261.4619539221447
 20
143.4164579542051
 30
0.0
 11
264.788553922145
 21
143.4165579542051
 31
0.0
  0
LINE
  5
654
330
1A
100
AcDbEntity
  8
SEIHIN
  6
CONTINUOUS
 62
     3
 48
16.0
100
AcDbLine
 10
379.0598166098974
 20
148.6312951420683
 30
0.0
 11
375.1985166098976
 21
152.2115951420684
 31
0.0
  0
ARC
  5
655
330
1A
100
AcDbEntity
  8
SEIHIN
  6
CONTINUOUS
 62
     3
 48
16.0
100
AcDbCircle
 10
383.8292957405676
 20
146.0910079809038
 30
0.0
 40
7.000023217473977
100
AcDbArc
 50
21.80003253005969
 51
94.99989243073654
  0
LINE
  5
656
330
1A
100
AcDbEntity
  8
SEIHIN
  6
CONTINUOUS
 62
     3
 48
16.0
100
AcDbLine
 10
394.9044166098975
 20
150.7139951420684
 30
0.0
 11
389.3335166098975
 21
148.4857951420683
 31
0.0
  0
ARC
  5
657
330
1A
100
AcDbEntity
  8
SEIHIN
  6
CONTINUOUS
 62
     3
 48
16.0
100
AcDbCircle
 10
386.0704994586281
 20
159.3367056936316
 30
0.0
 40
5.000007543005986
100
AcDbArc
 50
21.80058585728585
 51
94.99888971211985
  0
LINE
  5
658
330
1A
100
AcDbEntity
  8
SEIHIN
  6
PHANTOM
 62
     6
 48
5.0
100
AcDbLine
 10
409.0797166098974
 20
163.3067951420684
 30
0.0
 11
420.6348166098976
 21
164.3176951420684
 31
0.0
  0
LINE
  5
659
330
1A
100
AcDbEntity
  8
SEIHIN
  6
PHANTOM
 62
     6
 48
5.0
100
AcDbLine
 10
418.2192166098975
 20
153.0643951420684
 30
0.0
 11
413.2208166098974
 21
152.6270951420684
 31
0.0
  0
ARC
  5
65A
330
1A
100
AcDbEntity
  8
SEIHIN
  6
PHANTOM
 62
     6
 48
5.0
100
AcDbCircle
 10
418.8292917005954
 20
146.0910100294438
 30
0.0
 40
7.000020824630758
100
AcDbArc
 50
23.26933201766974
 51
94.99986095038977
  0
LINE
  5
65B
330
1A
100
AcDbEntity
  8
SEIHIN
  6
PHANTOM
 62
     6
 48
5.0
100
AcDbLine
 10
429.9044166098974
 20
150.7139951420684
 30
0.0
 11
424.3335166098975
 21
148.4857951420683
 31
0.0
  0
ARC
  5
65C
330
1A
100
AcDbEntity
  8
SEIHIN
  6
PHANTOM
 62
     6
 48
5.0
100
AcDbCircle
 10
421.0704994586281
 20
159.3367056936316
 30
0.0
 40
5.000007543005986
100
AcDbArc
 50
21.80058585728585
 51
94.99888971211985
  0
LINE
  5
66D
330
1A
100
AcDbEntity
  8
SEIHIN
  6
PHANTOM
 62
     6
 48
5.0
100
AcDbLine
 10
442.9023166098976
 20
118.2170951420683
 30
0.0
 11
437.3314166098976
 21
115.9887951420683
 31
0.0
  0
DIMENSION
  5
6F7
330
1A
100
AcDbEntity
  8
SUNPOU
100
AcDbDimension
  2
*D1
 10
422.596698619632
 20
271.4629650831105
 30
0.0
 11
420.7401744374875
 21
289.5682625528046
 31
0.0
 70
    33
  3
STANDARD
100
AcDbAlignedDimension
 13
394.9044466098976
 23
298.0825131514701
 33
0.0
 14
407.9023466098976
 24
265.58561315147
 34
0.0
1001
ACAD
1000
DSTYLE
1002
{
1070
   140
1040
6.0
1070
    74
1070
     0
1070
   172
1070
     1
1070
    73
1070
     0
1070
   272
1070
     2
1070
    77
1070
     3
1070
   173
1070
     1
1070
   147
1040
2.0
1070
    42
1040
6.0
1070
    44
1040
3.0
1070
    43
1040
14.0
1070
   271
1070
     0
1070
   178
1070
     4
1070
   177
1070
     4
1070
   176
1070
     4
1070
   141
1040
150.0
1070
     7
1000
_OPEN
1070
     6
1000
_OPEN
1070
    41
1040
7.0
1002
}
  0
DIMENSION
  5
704
330
1A
100
AcDbEntity
  8
SUNPOU
100
AcDbDimension
  2
*D2
 10
451.8376278969929
 20
283.1584988949902
 30
0.0
 11
447.1958599856463
 21
308.2274510223937
 31
0.0
 70
    33
  3
STANDARD
100
AcDbAlignedDimension
 13
389.3339544831266
 23
312.0098341386002
 33
0.0
 14
407.9023466098976
 24
265.58561315147
 34
0.0
1001
ACAD
1000
DSTYLE
1002
{
1070
   140
1040
6.0
1070
    74
1070
     0
1070
   172
1070
     1
1070
    73
1070
     0
1070
   272
1070
     2
1070
    77
1070
     3
1070
   173
1070
     1
1070
   147
1040
2.0
1070
    42
1040
6.0
1070
    44
1040
3.0
1070
    43
1040
14.0
1070
   271
1070
     0
1070
   178
1070
     4
1070
   177
1070
     4
1070
   176
1070
     4
1070
   141
1040
150.0
1070
     7
1000
_OPEN
1070
     6
1000
_OPEN
1070
    41
1040
7.0
1002
}
  0
DIMENSION
  5
711
330
1A
100
AcDbEntity
  8
SUNPOU
100
AcDbDimension
  2
*D3
 10
279.3339466098976
 20
354.6441342861683
 30
0.0
 11
334.3339505465121
 21
359.6441342861683
 31
0.0
 70
    32
  3
STANDARD
100
AcDbAlignedDimension
 13
389.3339544831267
 23
312.0098341386002
 33
0.0
 14
279.3339466098976
 24
280.79831315147
 34
0.0
100
AcDbRotatedDimension
1001
ACAD
1000
DSTYLE
1002
{
1070
   140
1040
6.0
1070
    74
1070
     0
1070
   172
1070
     1
1070
    73
1070
     0
1070
   272
1070
     2
1070
    77
1070
     3
1070
   173
1070
     1
1070
   147
1040
2.0
1070
    42
1040
6.0
1070
    44
1040
3.0
1070
    43
1040
14.0
1070
   271
1070
     0
1070
   178
1070
     4
1070
   177
1070
     4
1070
   176
1070
     4
1070
   141
1040
150.0
1070
     7
1000
_OPEN
1070
     6
1000
_OPEN
1070
    41
1040
7.0
1002
}
  0
DIMENSION
  5
74A
330
1A
100
AcDbEntity
  8
SUNPOU
100
AcDbDimension
  2
*D4
 10
389.3339544831266
 20
340.8915766543125
 30
0.0
 11
359.8339539221449
 21
345.8915766543125
 31
0.0
 70
    32
  3
STANDARD
100
AcDbAlignedDimension
 13
379.3339539221449
 23
288.7225759636068
 33
0.0
 14
389.3339544831266
 24
312.0098341386002
 34
0.0
100
AcDbRotatedDimension
1001
ACAD
1000
DSTYLE
1002
{
1070
   140
1040
6.0
1070
    74
1070
     0
1070
   172
1070
     1
1070
    73
1070
     0
1070
   272
1070
     2
1070
    77
1070
     3
1070
   173
1070
     1
1070
   280
1070
     1
1070
   147
1040
2.0
1070
    42
1040
6.0
1070
    44
1040
3.0
1070
    43
1040
14.0
1070
   271
1070
     0
1070
   178
1070
     4
1070
   177
1070
     4
1070
   176
1070
     4
1070
   141
1040
150.0
1070
     7
1000
_OPEN
1070
     6
1000
_OPEN
1070
    41
1040
7.0
1002
}
  0
DIMENSION
  5
75B
330
1A
100
AcDbEntity
  8
SUNPOU
100
AcDbDimension
  2
*D5
 10
237.2654108126216
 20
265.5856131514701
 30
0.0
 11
232.2654108126216
 21
275.0919131514701
 31
0.0
 70
    32
  3
STANDARD
100
AcDbAlignedDimension
 13
263.5863166098975
 23
284.5982131514701
 33
0.0
 14
407.9023466098974
 24
265.58561315147
 34
0.0
 50
90.0
100
AcDbRotatedDimension
1001
ACAD
1000
DSTYLE
1002
{
1070
   140
1040
6.0
1070
    74
1070
     0
1070
   172
1070
     1
1070
    73
1070
     0
1070
   272
1070
     2
1070
    77
1070
     3
1070
   173
1070
     1
1070
   147
1040
2.0
1070
    42
1040
6.0
1070
    44
1040
3.0
1070
    43
1040
14.0
1070
   271
1070
     0
1070
   178
1070
     4
1070
   177
1070
     4
1070
   176
1070
     4
1070
   141
1040
150.0
1070
     7
1000
_OPEN
1070
     6
1000
_OPEN
1070
    41
1040
7.0
1002
}
  0
DIMENSION
  5
76A
330
1A
100
AcDbEntity
  8
SUNPOU
100
AcDbDimension
  2
*D6
 10
237.2654108126216
 20
452.8921845297863
 30
0.0
 11
232.2654108126215
 21
459.1921845297863
 31
0.0
 70
    32
  3
STANDARD
100
AcDbAlignedDimension
 13
262.2363166098975
 23
465.4921845297862
 33
0.0
 14
262.2363166098975
 24
452.8921845297863
 34
0.0
 50
90.0
100
AcDbRotatedDimension
1001
ACAD
1000
DSTYLE
1002
{
1070
   140
1040
6.0
1070
    74
1070
     0
1070
   172
1070
     1
1070
    73
1070
     0
1070
   272
1070
     2
1070
    77
1070
     3
1070
   173
1070
     1
1070
   147
1040
2.0
1070
    42
1040
6.0
1070
    44
1040
3.0
1070
    43
1040
14.0
1070
   271
1070
     0
1070
   178
1070
     4
1070
   177
1070
     4
1070
   176
1070
     4
1070
   141
1040
150.0
1070
     7
1000
_OPEN
1070
     6
1000
_OPEN
1070
    41
1040
7.0
1002
}
  0
ARC
  5
80B
330
1A
100
AcDbEntity
  8
SEIHIN
  6
CONTINUOUS
 62
     3
 48
16.0
100
AcDbCircle
 10
407.4023446714723
 20
469.3749211321162
 30
0.0
 40
0.4999719397649308
100
AcDbArc
 50
285.0438633587862
 51
359.995805446521
  0
ELLIPSE
  5
80F
330
1A
100
AcDbEntity
  8
SEIHIN
  6
CONTINUOUS
 62
     3
100
AcDbEllipse
 10
395.2785166098976
 20
480.6921845297861
 30
0.0
 11
0.0
 21
-2.0
 31
0.0
210
0.0
220
0.0
230
1.0
 40
0.3720000000000141
 41
3.141592653589793
 42
4.712388980384703
  0
ELLIPSE
  5
810
330
1A
100
AcDbEntity
  8
SEIHIN
  6
CONTINUOUS
 62
     3
100
AcDbEllipse
 10
395.6485166098976
 20
480.6921845297861
 30
0.0
 11
0.0
 21
-2.0
 31
0.0
210
0.0
220
0.0
230
1.0
 40
0.3720000000000141
 41
3.141592653589793
 42
4.712388980384703
  0
ELLIPSE
  5
811
330
1A
100
AcDbEntity
  8
SEIHIN
  6
CONTINUOUS
 62
     3
100
AcDbEllipse
 10
396.5754916587548
 20
477.1921845297862
 30
0.0
 11
0.0
 21
-2.1
 31
0.0
210
0.0
220
0.0
230
1.0
 40
0.3713685087643355
 41
1.794026659451607
 42
2.503956715353631
  0
ELLIPSE
  5
812
330
1A
100
AcDbEntity
  8
SEIHIN
  6
CONTINUOUS
 62
     3
100
AcDbEllipse
 10
398.8035601614832
 20
477.1921845297862
 30
0.0
 11
0.0
 21
-3.249999999999999
 31
0.0
210
0.0
220
0.0
230
1.0
 40
0.3713685087653945
 41
0.3948997485915449
 42
2.746692904998305
  0
ELLIPSE
  5
813
330
1A
100
AcDbEntity
  8
SEIHIN
  6
CONTINUOUS
 62
     3
100
AcDbEllipse
 10
396.5754916587548
 20
477.1921845297862
 30
0.0
 11
0.0
 21
-2.1
 31
0.0
210
0.0
220
0.0
230
1.0
 40
0.3713685087643355
 41
0.6376359382361616
 42
1.347517163204409
  0
ELLIPSE
  5
814
330
1A
100
AcDbEntity
  8
SEIHIN
  6
CONTINUOUS
 62
     3
100
AcDbEllipse
 10
399.7323166098975
 20
477.1921845297862
 30
0.0
 11
0.0
 21
-3.25
 31
0.0
210
0.0
220
0.0
230
1.0
 40
0.3714429964516232
 41
-1.427226696533154
 42
4.568850439141829
  0
ELLIPSE
  5
815
330
1A
100
AcDbEntity
  8
SEIHIN
  6
CONTINUOUS
 62
     3
100
AcDbEllipse
 10
397.5040054694243
 20
477.1921845297862
 30
0.0
 11
0.0
 21
-2.1
 31
0.0
210
0.0
220
0.0
230
1.0
 40
0.3713683267677327
 41
1.79402665945161
 42
7.630702470384064
  0
ELLIPSE
  5
81A
330
1A
100
AcDbEntity
  8
SEIHIN
  6
CONTINUOUS
 62
     3
100
AcDbEllipse
 10
407.1582166098646
 20
480.6921845297861
 30
0.0
 11
0.0
 21
2.0
 31
0.0
210
0.0
220
0.0
230
1.0
 40
0.3720000000164987
 41
-1.570796326795351
 42
0.0
  0
ELLIPSE
  5
81B
330
1A
100
AcDbEntity
  8
SEIHIN
  6
CONTINUOUS
100
AcDbEllipse
 10
404.3741676984158
 20
477.1921845297862
 30
0.0
 11
0.0
 21
-2.1
 31
0.0
210
0.0
220
0.0
230
1.0
 40
0.3713685087659866
 41
0.6376783505900983
 42
2.503914302999695
  0
ELLIPSE
  5
81C
330
1A
100
AcDbEntity
  8
SEIHIN
  6
CONTINUOUS
100
AcDbEllipse
 10
405.3028166098976
 20
477.1921845297862
 30
0.0
 11
0.0
 21
-2.1
 31
0.0
210
0.0
220
0.0
230
1.0
 40
0.3714338746368098
 41
0.0
 42
6.283185307179586
  0
LINE
  5
81E
330
1A
100
AcDbEntity
  8
SEIHIN
100
AcDbLine
 10
389.3336166098976
 20
468.4921845297861
 30
0.0
 11
389.3338214879463
 21
468.1421845297862
 31
0.0
  0
LINE
  5
81F
330
1A
100
AcDbEntity
  8
SEIHIN
100
AcDbLine
 10
390.2621166098977
 20
468.2227597528498
 30
0.0
 11
390.2621166098976
 21
468.1421845297862
 31
0.0
  0
ARC
  5
820
330
1A
100
AcDbEntity
  8
SEIHIN
100
AcDbCircle
 10
390.5621166098977
 20
468.2227597528498
 30
0.0
 40
0.3
100
AcDbArc
 50
96.14708253596948
 51
180.0
  0
LINE
  5
822
330
1A
100
AcDbEntity
  8
SEIHIN
  6
CONTINUOUS
 62
     3
 48
16.0
100
AcDbLine
 10
394.9045166098976
 20
449.3921845297861
 30
0.0
 11
407.3559166098976
 21
449.3921845297861
 31
0.0
  0
LINE
  5
823
330
1A
100
AcDbEntity
  8
SEIHIN
  6
CONTINUOUS
 62
     3
 48
16.0
100
AcDbLine
 10
390.6781601411702
 20
449.8921845297862
 30
0.0
 11
405.7448166098974
 21
449.8921845297861
 31
0.0
  0
ELLIPSE
  5
824
330
1A
100
AcDbEntity
  8
SEIHIN
  6
CONTINUOUS
 62
     3
100
AcDbEllipse
 10
398.8035601614832
 20
441.192184529786
 30
0.0
 11
0.0
 21
3.249999999999999
 31
0.0
210
0.0
220
0.0
230
-1.0
 40
0.3713685087653945
 41
0.3948997485915449
 42
2.746692904998298
  0
ELLIPSE
  5
825
330
1A
100
AcDbEntity
  8
SEIHIN
  6
CONTINUOUS
 62
     3
100
AcDbEllipse
 10
399.7323166098975
 20
441.192184529786
 30
0.0
 11
0.0
 21
3.25
 31
0.0
210
0.0
220
0.0
230
-1.0
 40
0.3714429964516232
 41
-1.427226696533154
 42
4.568850439141846
  0
LINE
  5
826
330
1A
100
AcDbEntity
  8
SEIHIN
  6
CONTINUOUS
 62
     3
 48
16.0
100
AcDbLine
 10
407.1622166098975
 20
435.692184529786
 30
0.0
 11
395.2716166098976
 21
435.692184529786
 31
0.0
  0
LINE
  5
827
330
1A
100
AcDbEntity
  8
CENTER_L
  6
CENTER
 62
     1
 48
5.0
100
AcDbLine
 10
406.9958166098976
 20
441.192184529786
 30
0.0
 11
395.6315166098976
 21
441.192184529786
 31
0.0
  0
LINE
  5
828
330
1A
100
AcDbEntity
  8
SEIHIN
  6
CONTINUOUS
 62
     3
 48
16.0
100
AcDbLine
 10
394.9045166098976
 20
437.6921845297861
 30
0.0
 11
394.9045166098976
 21
448.943184529786
 31
0.0
  0
LINE
  5
829
330
1A
100
AcDbEntity
  8
SEIHIN
  6
CONTINUOUS
 62
     3
 48
16.0
100
AcDbLine
 10
394.5345166098976
 20
437.6921845297861
 30
0.0
 11
394.5345166098976
 21
448.4262845297861
 31
0.0
  0
LINE
  5
82A
330
1A
100
AcDbEntity
  8
SEIHIN
  6
CONTINUOUS
 62
     3
 48
16.0
100
AcDbLine
 10
394.5345166098976
 20
448.4262845297861
 30
0.0
 11
390.2265166098976
 21
448.8902845297858
 31
0.0
  0
LINE
  5
82B
330
1A
100
AcDbEntity
  8
SEIHIN
  6
CONTINUOUS
 62
     3
 48
16.0
100
AcDbLine
 10
394.4580166098976
 20
449.440284529786
 30
0.0
 11
390.5299922715363
 21
449.8633342207952
 31
0.0
  0
ARC
  5
82C
330
1A
100
AcDbEntity
  8
SEIHIN
  6
CONTINUOUS
 62
     3
 48
16.0
100
AcDbCircle
 10
390.3336277993517
 20
449.884571974704
 30
0.0
 40
1.000040164207571
100
AcDbArc
 50
179.5638460277777
 51
263.8514330035317
  0
LINE
  5
82D
330
1A
100
AcDbEntity
  8
SEIHIN
100
AcDbLine
 10
389.3336166098976
 20
449.8921845297861
 30
0.0
 11
389.3338214879463
 21
450.242184529786
 31
0.0
  0
LINE
  5
82E
330
1A
100
AcDbEntity
  8
SEIHIN
100
AcDbLine
 10
390.2621166098977
 20
450.1616093067223
 30
0.0
 11
390.2621166098976
 21
450.242184529786
 31
0.0
  0
ARC
  5
82F
330
1A
100
AcDbEntity
  8
SEIHIN
100
AcDbCircle
 10
390.5621166098977
 20
450.1616093067223
 30
0.0
 40
0.3
100
AcDbArc
 50
180.0
 51
263.8529174640305
  0
ARC
  5
830
330
1A
100
AcDbEntity
  8
SEIHIN
  6
CONTINUOUS
 62
     3
 48
16.0
100
AcDbCircle
 10
394.404531280328
 20
448.9431681957429
 30
0.0
 40
0.4999853298363235
100
AcDbArc
 50
0.0018717983830842
 51
83.8591025517214
  0
ELLIPSE
  5
831
330
1A
100
AcDbEntity
  8
SEIHIN
  6
CONTINUOUS
 62
     3
100
AcDbEllipse
 10
396.5754916587548
 20
441.192184529786
 30
0.0
 11
0.0
 21
2.1
 31
0.0
210
0.0
220
0.0
230
-1.0
 40
0.3713685087643355
 41
1.794026659451607
 42
2.503956715353631
  0
ELLIPSE
  5
832
330
1A
100
AcDbEntity
  8
SEIHIN
  6
CONTINUOUS
 62
     3
100
AcDbEllipse
 10
396.5754916587548
 20
441.192184529786
 30
0.0
 11
0.0
 21
2.1
 31
0.0
210
0.0
220
0.0
230
-1.0
 40
0.3713685087643355
 41
0.6376359382361616
 42
1.347517163204409
  0
ELLIPSE
  5
833
330
1A
100
AcDbEntity
  8
SEIHIN
  6
CONTINUOUS
 62
     3
100
AcDbEllipse
 10
397.5040054694243
 20
441.192184529786
 30
0.0
 11
0.0
 21
2.1
 31
0.0
210
0.0
220
0.0
230
-1.0
 40
0.3713683267677327
 41
1.79402665945161
 42
7.630702470384064
  0
ELLIPSE
  5
834
330
1A
100
AcDbEntity
  8
SEIHIN
  6
CONTINUOUS
 62
     3
100
AcDbEllipse
 10
395.2785166098976
 20
437.6921845297861
 30
0.0
 11
0.0
 21
2.0
 31
0.0
210
0.0
220
0.0
230
-1.0
 40
0.3720000000000141
 41
3.141592653589793
 42
4.712388980384703
  0
ELLIPSE
  5
835
330
1A
100
AcDbEntity
  8
SEIHIN
  6
CONTINUOUS
 62
     3
100
AcDbEllipse
 10
395.6485166098976
 20
437.6921845297861
 30
0.0
 11
0.0
 21
2.0
 31
0.0
210
0.0
220
0.0
230
-1.0
 40
0.3720000000000141
 41
3.141592653589793
 42
4.712388980384703
  0
LINE
  5
836
330
1A
100
AcDbEntity
  8
CENTER_L
  6
CENTER
 62
     1
 48
5.0
100
AcDbLine
 10
397.5040166098976
 20
438.1943845297858
 30
0.0
 11
397.5040166098976
 21
444.016084529786
 31
0.0
  0
LINE
  5
837
330
1A
100
AcDbEntity
  8
SEIHIN
  6
CONTINUOUS
 62
     3
 48
16.0
100
AcDbLine
 10
398.5397166098976
 20
441.6571845297859
 30
0.0
 11
397.8947166098974
 21
441.6571845297859
 31
0.0
  0
LINE
  5
838
330
1A
100
AcDbEntity
  8
SEIHIN
  6
CONTINUOUS
 62
     3
 48
16.0
100
AcDbLine
 10
398.5397166098976
 20
440.727284529786
 30
0.0
 11
397.8947166098974
 21
440.727284529786
 31
0.0
  0
LINE
  5
839
330
1A
100
AcDbEntity
  8
SEIHIN
  6
CONTINUOUS
 62
     3
 48
16.0
100
AcDbLine
 10
407.9022166098976
 20
437.6921845297861
 30
0.0
 11
407.9023166098974
 21
449.0094845297861
 31
0.0
  0
LINE
  5
83A
330
1A
100
AcDbEntity
  8
CENTER_L
  6
CENTER
 62
     1
 48
5.0
100
AcDbLine
 10
399.7323166098975
 20
437.1921845297861
 30
0.0
 11
399.7323166098975
 21
445.1921845297861
 31
0.0
  0
ARC
  5
83B
330
1A
100
AcDbEntity
  8
SEIHIN
  6
CONTINUOUS
 62
     3
 48
16.0
100
AcDbCircle
 10
407.4023446714723
 20
449.0094479274559
 30
0.0
 40
0.4999719397649308
100
AcDbArc
 50
0.0041945534788977
 51
74.95613664121373
  0
ARC
  5
83C
330
1A
100
AcDbEntity
  8
SEIHIN
  6
CONTINUOUS
 62
     3
 48
16.0
100
AcDbCircle
 10
407.4023446714723
 20
449.0094479274559
 30
0.0
 40
0.4999719397649308
100
AcDbArc
 50
0.0041945534788977
 51
74.95613664121373
  0
LINE
  5
83D
330
1A
100
AcDbEntity
  8
SEIHIN
  6
CONTINUOUS
 62
     3
 48
16.0
100
AcDbLine
 10
406.0445166098975
 20
449.8921845297861
 30
0.0
 11
407.5321166098974
 21
449.492284529786
 31
0.0
  0
LINE
  5
83E
330
1A
100
AcDbEntity
  8
SEIHIN
  6
CONTINUOUS
 62
     3
 48
16.0
100
AcDbLine
 10
406.0445166098975
 20
449.8921845297861
 30
0.0
 11
406.0445166098975
 21
450.2421845297859
 31
0.0
  0
ELLIPSE
  5
83F
330
1A
100
AcDbEntity
  8
SEIHIN
  6
CONTINUOUS
 62
     3
100
AcDbEllipse
 10
407.1582166098646
 20
437.6921845297861
 30
0.0
 11
0.0
 21
-2.0
 31
0.0
210
0.0
220
0.0
230
-1.0
 40
0.3720000000164987
 41
-1.570796326795351
 42
0.0
  0
ELLIPSE
  5
840
330
1A
100
AcDbEntity
  8
SEIHIN
  6
CONTINUOUS
100
AcDbEllipse
 10
404.3741676984158
 20
441.192184529786
 30
0.0
 11
0.0
 21
2.1
 31
0.0
210
0.0
220
0.0
230
-1.0
 40
0.3713685087659866
 41
0.6376783505900983
 42
2.503914302999695
  0
ELLIPSE
  5
841
330
1A
100
AcDbEntity
  8
SEIHIN
  6
CONTINUOUS
100
AcDbEllipse
 10
405.3028166098976
 20
441.192184529786
 30
0.0
 11
0.0
 21
2.1
 31
0.0
210
0.0
220
0.0
230
-1.0
 40
0.3714338746368098
 41
0.0
 42
6.283185307179586
  0
LINE
  5
842
330
1A
100
AcDbEntity
  8
CENTER_L
  6
CENTER
 62
     1
 48
5.0
100
AcDbLine
 10
405.3028166098976
 20
438.1943845297858
 30
0.0
 11
405.3028166098976
 21
444.016084529786
 31
0.0
  0
DIMENSION
  5
84F
330
1A
100
AcDbEntity
  8
SUNPOU
100
AcDbDimension
  2
*D7
 10
438.6932806322847
 20
435.692184529786
 30
0.0
 11
433.6932806322846
 21
459.1921845297862
 31
0.0
 70
    32
  3
STANDARD
100
AcDbAlignedDimension
 13
407.902198937838
 23
482.6921845297861
 33
0.0
 14
407.902198937838
 24
435.692184529786
 34
0.0
 50
90.0
100
AcDbRotatedDimension
1001
ACAD
1000
DSTYLE
1002
{
1070
   140
1040
6.0
1070
    74
1070
     0
1070
   172
1070
     1
1070
    73
1070
     0
1070
   272
1070
     2
1070
    77
1070
     3
1070
   173
1070
     1
1070
   147
1040
2.0
1070
    42
1040
6.0
1070
    44
1040
3.0
1070
    43
1040
14.0
1070
   271
1070
     0
1070
   178
1070
     4
1070
   177
1070
     4
1070
   176
1070
     4
1070
   141
1040
150.0
1070
     7
1000
_OPEN
1070
     6
1000
_OPEN
1070
    41
1040
7.0
1002
}
  0
DIMENSION
  5
86B
330
1A
100
AcDbEntity
  8
SUNPOU
100
AcDbDimension
  2
*D8
 10
419.774578719461
 20
235.9050328775666
 30
0.0
 11
439.7368275734932
 21
249.2750972263156
 31
0.0
 70
    33
  1
t<>
  3
STANDARD
100
AcDbAlignedDimension
 13
406.9738466098977
 23
265.2142131514701
 33
0.0
 14
407.9023466098974
 24
265.5856131514701
 34
0.0
1001
ACAD
1000
DSTYLE
1002
{
1070
   140
1040
6.0
1070
    74
1070
     0
1070
   172
1070
     1
1070
    73
1070
     0
1070
   272
1070
     2
1070
    77
1070
     3
1070
   173
1070
     1
1070
   147
1040
2.0
1070
    42
1040
6.0
1070
    44
1040
3.0
1070
    43
1040
14.0
1070
   271
1070
     1
1070
   178
1070
     4
1070
   177
1070
     4
1070
   176
1070
     4
1070
   141
1040
150.0
1070
     7
1000
_OPEN
1070
     6
1000
_OPEN
1070
    41
1040
7.0
1002
}
  0
DIMENSION
  5
878
330
1A
100
AcDbEntity
  8
SUNPOU
100
AcDbDimension
  2
*D9
 10
389.3339544831266
 20
368.6797520195962
 30
0.0
 11
325.7851249650046
 21
373.6797520195962
 31
0.0
 70
    32
  3
STANDARD
100
AcDbAlignedDimension
 13
262.2362954468827
 23
279.8982252930385
 33
0.0
 14
389.3339544831266
 24
312.0098341386002
 34
0.0
100
AcDbRotatedDimension
1001
ACAD
1000
DSTYLE
1002
{
1070
   140
1040
6.0
1070
    74
1070
     0
1070
   172
1070
     1
1070
    73
1070
     0
1070
   272
1070
     2
1070
    77
1070
     3
1070
   173
1070
     1
1070
   147
1040
2.0
1070
    42
1040
6.0
1070
    44
1040
3.0
1070
    43
1040
14.0
1070
   271
1070
     0
1070
   178
1070
     4
1070
   177
1070
     4
1070
   176
1070
     4
1070
   141
1040
150.0
1070
     7
1000
_OPEN
1070
     6
1000
_OPEN
1070
    41
1040
7.0
1002
}
  0
DIMENSION
  5
888
330
1A
100
AcDbEntity
  8
SUNPOU
100
AcDbDimension
  2
*D10
 10
503.7195709564969
 20
341.6058682177696
 30
0.0
 11
501.6773790509972
 21
360.1754522793772
 31
0.0
 70
    32
  3
STANDARD
100
AcDbAlignedDimension
 13
553.1970113993663
 23
353.8562011842206
 33
0.0
 14
548.9993680805765
 24
359.7164949664962
 34
0.0
 50
111.7999999999998
100
AcDbRotatedDimension
1001
ACAD
1000
DSTYLE
1002
{
1070
   140
1040
6.0
1070
    74
1070
     0
1070
   172
1070
     1
1070
    73
1070
     0
1070
   272
1070
     2
1070
    77
1070
     3
1070
   173
1070
     1
1070
   147
1040
2.0
1070
    42
1040
6.0
1070
    44
1040
3.0
1070
    43
1040
14.0
1070
   271
1070
     0
1070
   178
1070
     4
1070
   177
1070
     4
1070
   176
1070
     4
1070
   141
1040
150.0
1070
     7
1000
_OPEN
1070
     6
1000
_OPEN
1070
    41
1040
7.0
1002
}
  0
DIMENSION
  5
897
330
1A
100
AcDbEntity
  8
SUNPOU
100
AcDbDimension
  2
*D11
 10
487.2425910264943
 20
335.0155464316359
 30
0.0
 11
494.298869696428
 21
330.8373312309128
 31
0.0
 70
    32
  3
STANDARD
100
AcDbAlignedDimension
 13
554.6234113993667
 23
347.9649011842206
 33
0.0
 14
548.9993680805765
 24
359.7164949664962
 34
0.0
 50
111.7999999999998
100
AcDbRotatedDimension
1001
ACAD
1000
DSTYLE
1002
{
1070
   140
1040
6.0
1070
    74
1070
     0
1070
   172
1070
     1
1070
    73
1070
     0
1070
   272
1070
     2
1070
    77
1070
     3
1070
   173
1070
     1
1070
   147
1040
2.0
1070
    42
1040
6.0
1070
    44
1040
3.0
1070
    43
1040
14.0
1070
   271
1070
     0
1070
   178
1070
     4
1070
   177
1070
     4
1070
   176
1070
     4
1070
   141
1040
150.0
1070
     7
1000
_OPEN
1070
     6
1000
_OPEN
1070
    41
1040
7.0
1002
}
  0
DIMENSION
  5
8A6
330
1A
100
AcDbEntity
  8
SUNPOU
100
AcDbDimension
  2
*D12
 10
516.7174895191658
 20
309.1087534730054
 30
0.0
 11
528.0445396934745
 21
294.2528477669002
 31
0.0
 70
    32
  3
STANDARD
100
AcDbAlignedDimension
 13
560.9474113993664
 23
334.3387011842206
 33
0.0
 14
561.9972684930593
 24
327.2193729621756
 34
0.0
 50
111.7999999999998
100
AcDbRotatedDimension
1001
ACAD
1000
DSTYLE
1002
{
1070
   140
1040
6.0
1070
    74
1070
     0
1070
   172
1070
     1
1070
    73
1070
     0
1070
   272
1070
     2
1070
    77
1070
     3
1070
   173
1070
     1
1070
   147
1040
2.0
1070
    42
1040
6.0
1070
    44
1040
3.0
1070
    43
1040
14.0
1070
   271
1070
     0
1070
   178
1070
     4
1070
   177
1070
     4
1070
   176
1070
     4
1070
   141
1040
150.0
1070
     7
1000
_OPEN
1070
     6
1000
_OPEN
1070
    41
1040
7.0
1002
}
  0
DIMENSION
  5
8B3
330
1A
100
AcDbEntity
  8
SUNPOU
100
AcDbDimension
  2
*D13
 10
486.1917192094965
 20
296.8993164302369
 30
0.0
 11
484.3351890625665
 21
315.0047129803701
 31
0.0
 70
    32
  3
STANDARD
100
AcDbAlignedDimension
 13
548.9993680805765
 23
359.7164949664962
 33
0.0
 14
561.9972684930593
 24
327.2193729621756
 34
0.0
 50
111.7999999999998
100
AcDbRotatedDimension
1001
ACAD
1000
DSTYLE
1002
{
1070
   140
1040
6.0
1070
    74
1070
     0
1070
   172
1070
     1
1070
    73
1070
     0
1070
   272
1070
     2
1070
    77
1070
     3
1070
   173
1070
     1
1070
   147
1040
2.0
1070
    42
1040
6.0
1070
    44
1040
3.0
1070
    43
1040
14.0
1070
   271
1070
     0
1070
   178
1070
     4
1070
   177
1070
     4
1070
   176
1070
     4
1070
   141
1040
150.0
1070
     7
1000
_OPEN
1070
     6
1000
_OPEN
1070
    41
1040
7.0
1002
}
  0
DIMENSION
  5
8C0
330
1A
100
AcDbEntity
  8
SUNPOU
100
AcDbDimension
  2
*D14
 10
540.6830818696358
 20
394.6455973007762
 30
0.0
 11
555.5390019720204
 21
405.9726532331859
 31
0.0
 70
    32
  3
STANDARD
100
AcDbAlignedDimension
 13
588.5303113993663
 23
371.9580011842207
 33
0.0
 14
555.1048113993664
 24
358.5887011842207
 34
0.0
 50
21.79999999999978
100
AcDbRotatedDimension
1001
ACAD
1000
DSTYLE
1002
{
1070
   140
1040
6.0
1070
    74
1070
     0
1070
   172
1070
     1
1070
    73
1070
     0
1070
   272
1070
     2
1070
    77
1070
     3
1070
   173
1070
     1
1070
   147
1040
2.0
1070
    42
1040
6.0
1070
    44
1040
3.0
1070
    43
1040
14.0
1070
   271
1070
     0
1070
   178
1070
     4
1070
   177
1070
     4
1070
   176
1070
     4
1070
   141
1040
150.0
1070
     7
1000
_OPEN
1070
     6
1000
_OPEN
1070
    41
1040
7.0
1002
}
  0
DIMENSION
  5
8CD
330
1A
100
AcDbEntity
  8
SUNPOU
100
AcDbDimension
  2
*D15
 10
530.8558302359313
 20
405.0785757004683
 30
0.0
 11
550.5862896836077
 21
418.3553082715044
 31
0.0
 70
    32
  3
STANDARD
100
AcDbAlignedDimension
 13
592.1739902940339
 23
376.9850394287999
 33
0.0
 14
548.9993684465689
 24
359.7164940514486
 34
0.0
 50
21.79999999999978
100
AcDbRotatedDimension
1001
ACAD
1000
DSTYLE
1002
{
1070
   140
1040
6.0
1070
    74
1070
     0
1070
   172
1070
     1
1070
    73
1070
     0
1070
   272
1070
     2
1070
    77
1070
     3
1070
   173
1070
     1
1070
   147
1040
2.0
1070
    42
1040
6.0
1070
    44
1040
3.0
1070
    43
1040
14.0
1070
   271
1070
     0
1070
   178
1070
     4
1070
   177
1070
     4
1070
   176
1070
     4
1070
   141
1040
150.0
1070
     7
1000
_OPEN
1070
     6
1000
_OPEN
1070
    41
1040
7.0
1002
}
  0
LEADER
  5
916
330
1A
100
AcDbEntity
  8
SUNPOU
 62
     4
100
AcDbLeader
  3
STANDARD
 40
6.0
 41
31.19999999999999
 76
     3
 10
554.5397573076996
 20
355.985609830946
 30
0.0
 10
529.3248614672402
 20
375.0382124447781
 30
0.0
 10
526.9316662304545
 20
375.0382124447781
 30
0.0
1001
ACAD
1000
DSTYLE
1002
{
1070
     6
1000
OPEN
1070
    41
1040
7.0
1070
    42
1040
6.0
1070
    43
1040
14.0
1070
    44
1040
3.0
1070
    73
1070
     0
1070
    74
1070
     0
1070
    77
1070
     3
1070
   140
1040
6.0
1070
   141
1040
150.0
1070
   147
1040
2.0
1070
   172
1070
     1
1070
   173
1070
     1
1070
   176
1070
     4
1070
   177
1070
     4
1070
   178
1070
     4
1070
   271
1070
     0
1070
   272
1070
     2
1070
   341
1005
6D
1070
   343
1005
6D
1070
   344
1005
6D
1002
}
  0
MTEXT
  5
917
330
1A
100
AcDbEntity
  8
SUNPOU
 62
     4
100
AcDbMText
 10
524.9316662304545
 20
377.0382124447781
 30
0.0
 40
6.0
 41
0.0
 71
     9
 72
     5
  1
4-φ4.2
1001
ACAD
1000
MTEXTBEGIN
1070
    73
1070
     1
1070
    44
1040
1.0
1070
    74
1070
     0
1000
MTEXTEND
1000
MTEXTBEGIN
1070
    73
1070
     1
1070
    44
1040
1.0
1070
    74
1070
     0
1000
MTEXTEND
1000
MTEXTBEGIN
1070
    73
1070
     1
1070
    44
1040
1.0
1070
    74
1070
     0
1000
MTEXTEND
  0
LEADER
  5
91F
330
1A
100
AcDbEntity
  8
SUNPOU
 62
     4
100
AcDbLeader
  3
STANDARD
 74
     0
 40
6.0
 41
31.19999999999999
 76
     3
 10
557.6664714634854
 20
346.5153915237042
 30
0.0
 10
544.4786475722203
 20
302.570542423896
 30
0.0
 10
547.8384174459725
 20
302.570542423896
 30
0.0
1001
ACAD
1000
DSTYLE
1002
{
1070
     6
1000
OPEN
1070
    41
1040
7.0
1070
    42
1040
6.0
1070
    43
1040
14.0
1070
    44
1040
3.0
1070
    73
1070
     0
1070
    74
1070
     0
1070
    77
1070
     3
1070
   140
1040
6.0
1070
   141
1040
150.0
1070
   147
1040
2.0
1070
   172
1070
     1
1070
   173
1070
     1
1070
   176
1070
     4
1070
   177
1070
     4
1070
   178
1070
     4
1070
   271
1070
     0
1070
   272
1070
     2
1070
   341
1005
6D
1070
   343
1005
6D
1070
   344
1005
6D
1002
}
  0
MTEXT
  5
920
330
1A
100
AcDbEntity
  8
SUNPOU
 62
     4
100
AcDbMText
 10
549.8384174459724
 20
304.570542423896
 30
0.0
 40
6.0
 41
0.0
 71
     7
 72
     5
  1
2-φ6.5
1001
ACAD
1000
MTEXTBEGIN
1070
    73
1070
     1
1070
    44
1040
1.0
1070
    74
1070
     0
1000
MTEXTEND
1000
MTEXTBEGIN
1070
    73
1070
     1
1070
    44
1040
1.0
1070
    74
1070
     0
1000
MTEXTEND
1000
MTEXTBEGIN
1070
    73
1070
     1
1070
    44
1040
1.0
1070
    74
1070
     0
1000
MTEXTEND
  0
TEXT
  5
921
330
1A
100
AcDbEntity
  8
SUNPOU
 62
     4
100
AcDbText
 10
296.6665842031361
 20
55.23370507803178
 30
0.0
 40
8.0
  1
軒樋の差し替え
100
AcDbText
  0
DIMENSION
  5
92E
330
1A
100
AcDbEntity
  8
SUNPOU
100
AcDbDimension
  2
*D16
 10
424.3339559787234
 20
354.7265212688683
 30
0.0
 11
406.833955230925
 21
359.7265212688682
 31
0.0
 70
    32
  3
STANDARD
100
AcDbAlignedDimension
 13
389.3339544831267
 23
312.0098341386002
 33
0.0
 14
424.3339559787234
 24
312.0098303993473
 34
0.0
100
AcDbRotatedDimension
1001
ACAD
1000
DSTYLE
1002
{
1070
   140
1040
6.0
1070
    74
1070
     0
1070
   172
1070
     1
1070
    73
1070
     0
1070
   272
1070
     2
1070
    77
1070
     3
1070
   173
1070
     1
1070
   147
1040
2.0
1070
    42
1040
6.0
1070
    44
1040
3.0
1070
    43
1040
14.0
1070
   271
1070
     0
1070
   178
1070
     4
1070
   177
1070
     4
1070
   176
1070
     4
1070
   141
1040
150.0
1070
     7
1000
_OPEN
1070
     6
1000
_OPEN
1070
    41
1040
7.0
1002
}
  0
TEXT
  5
92F
330
1A
100
AcDbEntity
  8
SUNPOU
100
AcDbText
 10
420.0985248014521
 20
362.3881039078262
 30
0.0
 40
6.0
  1
スライド巾
100
AcDbText
  0
LINE
  5
938
330
1A
100
AcDbEntity
  8
CENTER_L
  6
CENTER
 62
     1
 48
5.0
100
AcDbLine
 10
437.5401466098974
 20
293.59751315147
 30
0.0
 11
424.3147466098976
 21
288.30771315147
 31
0.0
  0
LINE
  5
939
330
1A
100
AcDbEntity
  8
CENTER_L
  6
CENTER
 62
     1
 48
5.0
100
AcDbLine
 10
439.6381466098975
 20
287.9749131514701
 30
0.0
 11
426.5276466098976
 21
282.73111315147
 31
0.0
  0
LINE
  5
93A
330
1A
100
AcDbEntity
  8
CENTER_L
  6
CENTER
 62
     1
 48
5.0
100
AcDbLine
 10
432.0604466098974
 20
268.78851315147
 30
0.0
 11
444.8834466098975
 21
273.9173131514701
 31
0.0
  0
LINE
  5
93B
330
1A
100
AcDbEntity
  8
CENTER_L
  6
CENTER
 62
     1
 48
5.0
100
AcDbLine
 10
437.5401166098974
 20
146.2289951420683
 30
0.0
 11
424.3147166098976
 21
140.9391951420683
 31
0.0
  0
LINE
  5
93C
330
1A
100
AcDbEntity
  8
CENTER_L
  6
CENTER
 62
     1
 48
5.0
100
AcDbLine
 10
439.6381166098975
 20
140.6063951420684
 30
0.0
 11
426.5276166098976
 21
135.3625951420683
 31
0.0
  0
LINE
  5
93D
330
1A
100
AcDbEntity
  8
CENTER_L
  6
CENTER
 62
     1
 48
5.0
100
AcDbLine
 10
432.0604166098974
 20
121.4199951420683
 30
0.0
 11
444.8834166098974
 21
126.5487951420684
 31
0.0
  0
LINE
  5
B9B
330
1A
100
AcDbEntity
  8
ZUWAKU
100
AcDbLine
 10
208.6466004668659
 20
15.19999936995179
 30
0.0
 11
447.4243631477893
 21
15.19999936995178
 31
0.0
  0
LINE
  5
B9C
330
1A
100
AcDbEntity
  8
ZUWAKU
100
AcDbLine
 10
208.6466004668659
 20
15.59999936995178
 30
0.0
 11
447.4243631477893
 21
15.59999936995179
 31
0.0
  0
LINE
  5
B9D
330
1A
100
AcDbEntity
  8
ZUWAKU
100
AcDbLine
 10
208.6466004668659
 20
15.39999936995178
 30
0.0
 11
447.4243631477893
 21
15.39999936995178
 31
0.0
  0
LINE
  5
B9E
330
1A
100
AcDbEntity
  8
ZUWAKU
100
AcDbLine
 10
-0.0000008232020718
 20
30.79999936995176
 30
0.0
 11
797.3999991767978
 21
30.79999936995176
 31
0.0
  0
LINE
  5
B9F
330
1A
100
AcDbEntity
  8
ZUWAKU
100
AcDbLine
 10
-0.0000008232020718
 20
30.59999936995176
 30
0.0
 11
797.3999991767978
 21
30.59999936995176
 31
0.0
  0
LINE
  5
BA0
330
1A
100
AcDbEntity
  8
ZUWAKU
100
AcDbLine
 10
-0.0000008232020718
 20
30.39999936995176
 30
0.0
 11
797.3999991767978
 21
30.39999936995176
 31
0.0
  0
LINE
  5
BA1
330
1A
100
AcDbEntity
  8
ZUWAKU
100
AcDbLine
 10
-0.0000008232020718
 20
30.19999936995175
 30
0.0
 11
797.3999991767978
 21
30.19999936995175
 31
0.0
  0
LINE
  5
BA2
330
1A
100
AcDbEntity
  8
ZUWAKU
100
AcDbLine
 10
-0.0000008232020718
 20
29.99999936995175
 30
0.0
 11
797.3999991767978
 21
29.99999936995175
 31
0.0
  0
LWPOLYLINE
  5
BA3
330
1A
100
AcDbEntity
  8
ZUWAKU
100
AcDbPolyline
 90
        4
 70
     1
 43
0.0
 10
0.1999991767978599
 20
551.3999993699518
 10
0.1999991767978599
 20
0.1999993699517972
 10
797.3999991767978
 20
0.1999993699518203
 10
797.399999176798
 20
551.3999993699518
  0
LWPOLYLINE
  5
BA4
330
1A
100
AcDbEntity
  8
ZUWAKU
100
AcDbPolyline
 90
        4
 70
     1
 43
0.0
 10
0.5999991767978372
 20
550.9999993699518
 10
0.5999991767978372
 20
0.5999993699517745
 10
796.9999991767982
 20
0.5999993699518207
 10
796.9999991767979
 20
550.9999993699518
  0
LWPOLYLINE
  5
BA5
330
1A
100
AcDbEntity
  8
ZUWAKU
100
AcDbPolyline
 90
        4
 70
     1
 43
0.0
 10
-0.0000008232020718
 20
551.5999993699518
 10
-0.0000008232020718
 20
-0.0000006300482482
 10
797.599999176798
 20
-0.0000006300481807
 10
797.599999176798
 20
551.5999993699518
  0
LWPOLYLINE
  5
BA6
330
1A
100
AcDbEntity
  8
ZUWAKU
100
AcDbPolyline
 90
        4
 70
     1
 43
0.0
 10
0.3999991767979054
 20
551.1999993699517
 10
0.3999991767979054
 20
0.3999993699518427
 10
797.199999176798
 20
0.3999993699518196
 10
797.199999176798
 20
551.1999993699517
  0
LWPOLYLINE
  5
BA7
330
1A
100
AcDbEntity
  8
ZUWAKU
100
AcDbPolyline
 90
        4
 70
     1
 43
0.0
 10
0.7999991767978827
 20
550.7999993699518
 10
0.7999991767978827
 20
0.79999936995182
 10
796.7999991767978
 20
0.79999936995182
 10
796.7999991767978
 20
550.7999993699518
  0
TEXT
  5
BA8
330
1A
100
AcDbEntity
  8
MOJI
100
AcDbText
 10
92.95778876496706
 20
12.74117750022651
 30
0.0
 40
6.0
  1
新・丸トップＲＶ１０５
 41
0.9
  7
ｽﾀｲﾙ1
100
AcDbText
  0
HATCH
  5
BA9
330
1A
100
AcDbEntity
  8
ZUWAKU
100
AcDbHatch
 10
0.0
 20
0.0
 30
0.0
210
0.0
220
0.0
230
1.0
  2
ANSI37
 70
     0
 71
     0
 91
        8
 92
        7
 72
     1
 73
     1
 93
       24
 10
14.50226183791778
 20
17.64484785093533
 42
-0.1989123673796348
 10
14.09221133157905
 20
18.63479734459638
 42
0.0
 10
14.09221133157905
 20
19.92499936995176
 42
-0.4142135623730912
 10
14.61721133157903
 20
20.44999936995175
 42
0.0
 10
17.59221133157893
 20
20.44999936995175
 42
0.4142135623731546
 10
18.11721133157902
 20
20.97499936995174
 42
0.0
 10
18.11721133157902
 20
22.72499936995175
 42
0.4142135623731586
 10
17.59221133157893
 20
23.24999936995176
 42
0.0
 10
14.09221133157905
 20
23.24999936995176
 42
0.4142135623730928
 10
11.29221133157909
 20
20.44999936995178
 42
0.0
 10
11.29221133157909
 20
18.63479734459651
 42
0.1989123673796619
 10
12.52236285059552
 20
15.6649488636129
 42
0.0
 10
15.4321608252402
 20
12.75515088896824
 42
-0.1989123673796613
 10
15.84221133157905
 20
11.76520139530706
 42
0.0
 10
15.84221133157905
 20
10.47499936995174
 42
-0.4142135623730911
 10
15.31721133157907
 20
9.949999369951754
 42
0.0
 10
12.34221133157916
 20
9.949999369951754
 42
0.4142135623731526
 10
11.81721133157907
 20
9.424999369951766
 42
0.0
 10
11.81721133157907
 20
7.674999369951745
 42
0.4142135623731526
 10
12.34221133157916
 20
7.149999369951757
 42
0.0
 10
15.84221133157905
 20
7.149999369951757
 42
0.4142135623731044
 10
18.64221133157911
 20
9.949999369951733
 42
0.0
 10
18.64221133157911
 20
11.765201395307
 42
0.1989123673796604
 10
17.41205981256257
 20
14.73504987629054
 42
0.0
 97
        0
 92
        7
 72
     1
 73
     1
 93
       16
 10
23.54221133157909
 20
19.04999936995176
 42
-0.4142135623730935
 10
24.94221133157907
 20
20.44999936995175
 42
0.0
 10
26.86721133157902
 20
20.44999936995175
 42
0.4142135623731546
 10
27.39221133157911
 20
20.97499936995174
 42
0.0
 10
27.39221133157911
 20
22.72499936995175
 42
0.4142135623730951
 10
26.86721133157914
 20
23.24999936995176
 42
0.0
 10
24.94221133157896
 20
23.24999936995171
 42
0.4142135623730892
 10
20.74221133157903
 20
19.04999936995169
 42
0.0
 10
20.74221133157903
 20
11.34999936995178
 42
0.4142135623730969
 10
24.94221133157907
 20
7.149999369951757
 42
0.0
 10
26.86721133157902
 20
7.149999369951757
 42
0.4142135623731526
 10
27.39221133157911
 20
7.674999369951745
 42
0.0
 10
27.39221133157911
 20
9.424999369951766
 42
0.4142135623730891
 10
26.86721133157914
 20
9.949999369951754
 42
0.0
 10
24.94221133157907
 20
9.949999369951754
 42
-0.4142135623730928
 10
23.54221133157909
 20
11.34999936995174
 42
0.0
 97
        0
 92
        7
 72
     1
 73
     1
 93
        2
 10
24.24221133157903
 20
15.19999936995175
 42
1.0
 10
27.74221133157903
 20
15.19999936995175
 42
1.0
 97
        0
 92
        7
 72
     1
 73
     1
 93
       26
 10
37.31485781375704
 20
19.20504656351518
 42
0.0
 10
38.37649744689485
 20
22.56690540178477
 42
0.5069206636600134
 10
37.8758665476995
 20
23.24999936995176
 42
0.0
 10
36.17697716809027
 20
23.24999936995176
 42
0.3272098845218764
 10
35.67634626889491
 20
22.88309333811872
 42
0.0
 10
33.80807639426314
 20
16.96690540178483
 42
-0.3272098845219541
 10
33.30744549506766
 20
16.59999936995175
 42
0.0
 10
33.16721133157921
 20
16.59999936995175
 42
-0.4142135623731526
 10
32.64221133157912
 20
17.12499936995174
 42
0.0
 10
32.64221133157912
 20
22.72499936995175
 42
0.4142135623730951
 10
32.11721133157914
 20
23.24999936995176
 42
0.0
 10
30.36721133157902
 20
23.24999936995176
 42
0.4142135623730871
 10
29.84221133157905
 20
22.72499936995177
 42
0.0
 10
29.84221133157905
 20
7.674999369951745
 42
0.4142135623730891
 10
30.36721133157902
 20
7.149999369951757
 42
0.0
 10
32.11721133157903
 20
7.149999369951757
 42
0.4142135623731526
 10
32.64221133157912
 20
7.674999369951745
 42
0.0
 10
32.64221133157912
 20
13.27499936995176
 42
-0.4142135623731526
 10
33.16721133157921
 20
13.79999936995175
 42
0.0
 10
33.30744549506778
 20
13.79999936995175
 42
-0.3272098845218915
 10
33.80807639426314
 20
13.43309333811868
 42
0.0
 10
35.67634626889491
 20
7.516905401784828
 42
0.3272098845218902
 10
36.17697716809027
 20
7.149999369951757
 42
0.0
 10
37.8758665476995
 20
7.149999369951757
 42
0.5069206636600335
 10
38.37649744689485
 20
7.833093338118764
 42
0.0
 10
36.0501060684212
 20
15.19999936995189
 42
0.0
 97
        0
 92
        7
 72
     1
 73
     1
 93
        8
 10
43.49221133157903
 20
22.72499936995176
 42
0.4142135623731546
 10
42.96721133157894
 20
23.24999936995176
 42
0.0
 10
41.21721133157916
 20
23.24999936995176
 42
0.4142135623731507
 10
40.69221133157907
 20
22.72499936995177
 42
0.0
 10
40.69221133157907
 20
7.674999369951745
 42
0.4142135623731526
 10
41.21721133157916
 20
7.149999369951757
 42
0.0
 10
42.96721133157894
 20
7.149999369951757
 42
0.4142135623731526
 10
43.49221133157903
 20
7.674999369951745
 42
0.0
 97
        0
 92
        7
 72
     1
 73
     1
 93
       24
 10
48.39221133157912
 20
19.92499936995176
 42
-0.4142135623731546
 10
48.91721133157921
 20
20.44999936995175
 42
0.0
 10
51.89221133157912
 20
20.44999936995175
 42
0.4142135623730911
 10
52.41721133157909
 20
20.97499936995174
 42
0.0
 10
52.41721133157909
 20
22.72499936995175
 42
0.4142135623730952
 10
51.89221133157912
 20
23.24999936995176
 42
0.0
 10
48.39221133157912
 20
23.24999936995176
 42
0.4142135623731048
 10
45.59221133157905
 20
20.44999936995178
 42
0.0
 10
45.59221133157905
 20
18.63479734459651
 42
0.1989123673796613
 10
46.82236285059559
 20
15.66494886361296
 42
0.0
 10
49.73216082524027
 20
12.75515088896829
 42
-0.1989123673796402
 10
50.14221133157912
 20
11.76520139530722
 42
0.0
 10
50.14221133157912
 20
10.47499936995174
 42
-0.4142135623730911
 10
49.61721133157914
 20
9.949999369951754
 42
0.0
 10
46.64221133157911
 20
9.949999369951754
 42
0.4142135623731526
 10
46.11721133157902
 20
9.424999369951766
 42
0.0
 10
46.11721133157902
 20
7.674999369951745
 42
0.4142135623730891
 10
46.64221133157901
 20
7.149999369951757
 42
0.0
 10
50.14221133157912
 20
7.149999369951757
 42
0.4142135623730925
 10
52.94221133157908
 20
9.949999369951733
 42
0.0
 10
52.94221133157908
 20
11.765201395307
 42
0.1989123673796675
 10
51.71205981256253
 20
14.73504987629065
 42
0.0
 10
48.80226183791797
 20
17.64484785093517
 42
-0.1989123673796652
 10
48.39221133157912
 20
18.63479734459634
 42
0.0
 97
        0
 92
        7
 72
     1
 73
     1
 93
       16
 10
57.84221133157905
 20
22.72499936995174
 42
0.414213562373103
 10
57.31721133157908
 20
23.24999936995176
 42
0.0
 10
55.56721133157907
 20
23.24999936995176
 42
0.4142135623730871
 10
55.04221133157909
 20
22.72499936995177
 42
0.0
 10
55.04221133157909
 20
9.949999369951733
 42
0.4142135623730926
 10
57.84221133157905
 20
7.149999369951757
 42
0.0
 10
61.34221133157905
 20
7.149999369951757
 42
0.4142135623731044
 10
64.14221133157912
 20
9.949999369951733
 42
0.0
 10
64.14221133157912
 20
22.72499936995175
 42
0.4142135623730951
 10
63.61721133157914
 20
23.24999936995176
 42
0.0
 10
61.86721133157902
 20
23.24999936995176
 42
0.4142135623730871
 10
61.34221133157905
 20
22.72499936995177
 42
0.0
 10
61.34221133157905
 20
10.99999936995173
 42
-0.414213562373088
 10
60.2922113315791
 20
9.949999369951754
 42
0.0
 10
58.89221133157912
 20
9.949999369951754
 42
-0.4142135623731197
 10
57.84221133157905
 20
10.99999936995173
 42
0.0
 97
        0
 92
        7
 72
     1
 73
     1
 93
        8
 10
69.0422113315791
 20
22.72499936995177
 42
0.4142135623730871
 10
68.51721133157912
 20
23.24999936995176
 42
0.0
 10
66.76721133157911
 20
23.24999936995176
 42
0.4142135623731507
 10
66.24221133157902
 20
22.72499936995177
 42
0.0
 10
66.24221133157902
 20
7.674999369951745
 42
0.4142135623730891
 10
66.76721133157901
 20
7.149999369951757
 42
0.0
 10
68.51721133157912
 20
7.149999369951757
 42
0.4142135623730891
 10
69.0422113315791
 20
7.674999369951745
 42
0.0
 97
        0
 75
     0
 76
     1
 52
0.0
 41
0.2
 77
     0
 78
     2
 53
45.0
 43
-900.942305157881
 44
-13.20000063004818
 45
-0.4490128060534576
 46
0.4490128060534577
 79
     0
 53
135.0
 43
-900.942305157881
 44
-13.20000063004818
 45
-0.4490128060534577
 46
-0.4490128060534576
 79
     0
 47
0.057451373970553
 98
        8
 10
16.07985413982123
 20
15.1671730158373
 10
22.40451418323709
 20
18.84406155240276
 10
25.16436706245758
 20
15.51188101602247
 10
30.91405915843506
 20
16.20129701639325
 10
41.83847119575466
 20
16.66090928393487
 10
46.89820007192747
 20
19.41857568635896
 10
56.55768514919827
 20
18.72915728504676
 10
67.82707879642067
 20
19.18876955258838
  0
LINE
  5
BAA
330
1A
100
AcDbEntity
  8
ZUWAKU
100
AcDbLine
 10
24.94221133157907
 20
23.24999936995171
 30
0.0
 11
26.86721133157902
 21
23.24999936995176
 31
0.0
  0
LINE
  5
BAB
330
1A
100
AcDbEntity
  8
ZUWAKU
100
AcDbLine
 10
26.86721133157902
 20
20.44999936995175
 30
0.0
 11
24.94221133157907
 21
20.44999936995175
 31
0.0
  0
LINE
  5
BAC
330
1A
100
AcDbEntity
  8
ZUWAKU
100
AcDbLine
 10
24.94221133157907
 20
9.949999369951754
 30
0.0
 11
26.86721133157902
 21
9.949999369951754
 31
0.0
  0
LINE
  5
BAD
330
1A
100
AcDbEntity
  8
ZUWAKU
100
AcDbLine
 10
26.86721133157902
 20
7.149999369951757
 30
0.0
 11
24.94221133157907
 21
7.149999369951757
 31
0.0
  0
CIRCLE
  5
BAE
330
1A
100
AcDbEntity
  8
ZUWAKU
100
AcDbCircle
 10
25.99221133157902
 20
15.19999936995175
 30
0.0
 40
1.75
  0
ARC
  5
BAF
330
1A
100
AcDbEntity
  8
ZUWAKU
100
AcDbCircle
 10
15.49221133157902
 20
18.63479734459645
 30
0.0
 40
1.399999999999999
100
AcDbArc
 50
180.0000000000016
 51
224.9999999999988
  0
LINE
  5
BB0
330
1A
100
AcDbEntity
  8
ZUWAKU
100
AcDbLine
 10
23.54221133157909
 20
19.04999936995175
 30
0.0
 11
23.54221133157909
 21
11.34999936995175
 31
0.0
  0
LINE
  5
BB1
330
1A
100
AcDbEntity
  8
ZUWAKU
100
AcDbLine
 10
20.74221133157903
 20
11.34999936995175
 30
0.0
 11
20.74221133157903
 21
19.04999936995171
 31
0.0
  0
ARC
  5
BB2
330
1A
100
AcDbEntity
  8
ZUWAKU
100
AcDbCircle
 10
15.49221133157902
 20
18.63479734459645
 30
0.0
 40
4.199999999999999
100
AcDbArc
 50
180.0
 51
225.0
  0
ARC
  5
BB3
330
1A
100
AcDbEntity
  8
ZUWAKU
100
AcDbCircle
 10
15.84221133157905
 20
9.949999369951754
 30
0.0
 40
2.799999999999999
100
AcDbArc
 50
270.0
 51
0.0
  0
ARC
  5
BB4
330
1A
100
AcDbEntity
  8
ZUWAKU
100
AcDbCircle
 10
24.94221133157907
 20
11.34999936995175
 30
0.0
 40
4.199999999999999
100
AcDbArc
 50
180.0
 51
270.0
  0
ARC
  5
BB5
330
1A
100
AcDbEntity
  8
ZUWAKU
100
AcDbCircle
 10
14.44221133157907
 20
11.76520139530705
 30
0.0
 40
4.199999999999999
100
AcDbArc
 50
0.0
 51
45.0
  0
LINE
  5
BB6
330
1A
100
AcDbEntity
  8
ZUWAKU
100
AcDbLine
 10
17.41205981256257
 20
14.73504987629058
 30
0.0
 11
14.5022618379179
 21
17.64484785093525
 31
0.0
  0
LINE
  5
BB7
330
1A
100
AcDbEntity
  8
ZUWAKU
100
AcDbLine
 10
15.84221133157905
 20
10.47499936995176
 30
0.0
 11
15.84221133157905
 21
11.7652013953071
 31
0.0
  0
ARC
  5
BB8
330
1A
100
AcDbEntity
  8
ZUWAKU
100
AcDbCircle
 10
15.31721133157907
 20
10.47499936995176
 30
0.0
 40
0.525
100
AcDbArc
 50
270.0
 51
0.0
  0
ARC
  5
BB9
330
1A
100
AcDbEntity
  8
ZUWAKU
100
AcDbCircle
 10
14.44221133157907
 20
11.7652013953071
 30
0.0
 40
1.399999999999999
100
AcDbArc
 50
0.0
 51
45.0
  0
LINE
  5
BBA
330
1A
100
AcDbEntity
  8
ZUWAKU
100
AcDbLine
 10
11.81721133157907
 20
7.674999369951756
 30
0.0
 11
11.81721133157907
 21
9.424999369951756
 31
0.0
  0
ARC
  5
BBB
330
1A
100
AcDbEntity
  8
ZUWAKU
100
AcDbCircle
 10
12.34221133157905
 20
7.674999369951756
 30
0.0
 40
0.525
100
AcDbArc
 50
180.0
 51
270.0
  0
ARC
  5
BBC
330
1A
100
AcDbEntity
  8
ZUWAKU
100
AcDbCircle
 10
12.34221133157905
 20
9.424999369951756
 30
0.0
 40
0.525
100
AcDbArc
 50
90.0
 51
180.0
  0
LINE
  5
BBD
330
1A
100
AcDbEntity
  8
ZUWAKU
100
AcDbLine
 10
12.34221133157905
 20
7.149999369951757
 30
0.0
 11
15.84221133157905
 21
7.149999369951757
 31
0.0
  0
LINE
  5
BBE
330
1A
100
AcDbEntity
  8
ZUWAKU
100
AcDbLine
 10
12.34221133157905
 20
9.949999369951754
 30
0.0
 11
15.31721133157907
 21
9.949999369951754
 31
0.0
  0
LINE
  5
BBF
330
1A
100
AcDbEntity
  8
ZUWAKU
100
AcDbLine
 10
12.52236285059552
 20
15.66494886361293
 30
0.0
 11
15.4321608252402
 21
12.75515088896827
 31
0.0
  0
LINE
  5
BC0
330
1A
100
AcDbEntity
  8
ZUWAKU
100
AcDbLine
 10
18.64221133157911
 20
9.949999369951754
 30
0.0
 11
18.64221133157911
 21
11.7652013953071
 31
0.0
  0
ARC
  5
BC1
330
1A
100
AcDbEntity
  8
ZUWAKU
100
AcDbCircle
 10
24.94221133157907
 20
11.34999936995175
 30
0.0
 40
1.399999999999999
100
AcDbArc
 50
180.0
 51
270.0
  0
ARC
  5
BC2
330
1A
100
AcDbEntity
  8
ZUWAKU
100
AcDbCircle
 10
17.59221133157905
 20
22.72499936995175
 30
0.0
 40
0.525
100
AcDbArc
 50
0.0
 51
90.0
  0
ARC
  5
BC3
330
1A
100
AcDbEntity
  8
ZUWAKU
100
AcDbCircle
 10
17.59221133157905
 20
20.97499936995175
 30
0.0
 40
0.525
100
AcDbArc
 50
270.0
 51
0.0
  0
LINE
  5
BC4
330
1A
100
AcDbEntity
  8
ZUWAKU
100
AcDbLine
 10
14.09221133157905
 20
23.24999936995176
 30
0.0
 11
17.59221133157905
 21
23.24999936995176
 31
0.0
  0
ARC
  5
BC5
330
1A
100
AcDbEntity
  8
ZUWAKU
100
AcDbCircle
 10
14.61721133157903
 20
19.92499936995175
 30
0.0
 40
0.525
100
AcDbArc
 50
90.0
 51
180.0
  0
LINE
  5
BC6
330
1A
100
AcDbEntity
  8
ZUWAKU
100
AcDbLine
 10
14.09221133157905
 20
19.92499936995175
 30
0.0
 11
14.09221133157905
 21
18.63479734459641
 31
0.0
  0
LINE
  5
BC7
330
1A
100
AcDbEntity
  8
ZUWAKU
100
AcDbLine
 10
17.59221133157905
 20
20.44999936995175
 30
0.0
 11
14.61721133157903
 21
20.44999936995175
 31
0.0
  0
LINE
  5
BC8
330
1A
100
AcDbEntity
  8
ZUWAKU
100
AcDbLine
 10
11.29221133157909
 20
20.44999936995175
 30
0.0
 11
11.29221133157909
 21
18.63479734459641
 31
0.0
  0
ARC
  5
BC9
330
1A
100
AcDbEntity
  8
ZUWAKU
100
AcDbCircle
 10
14.09221133157905
 20
20.44999936995175
 30
0.0
 40
2.799999999999999
100
AcDbArc
 50
90.0
 51
180.0
  0
LINE
  5
BCA
330
1A
100
AcDbEntity
  8
ZUWAKU
100
AcDbLine
 10
18.11721133157902
 20
22.72499936995175
 30
0.0
 11
18.11721133157902
 21
20.97499936995175
 31
0.0
  0
ARC
  5
BCB
330
1A
100
AcDbEntity
  8
ZUWAKU
100
AcDbCircle
 10
24.94221133157907
 20
19.04999936995175
 30
0.0
 40
1.399999999999999
100
AcDbArc
 50
90.0
 51
180.0
  0
ARC
  5
BCC
330
1A
100
AcDbEntity
  8
ZUWAKU
100
AcDbCircle
 10
24.94221133157907
 20
19.04999936995171
 30
0.0
 40
4.199999999999999
100
AcDbArc
 50
90.0
 51
180.0
  0
LINE
  5
BCD
330
1A
100
AcDbEntity
  8
ZUWAKU
100
AcDbLine
 10
79.32662872478613
 20
29.99999936995175
 30
0.0
 11
79.32662872478636
 21
0.79999936995182
 31
0.0
  0
LINE
  5
BCE
330
1A
100
AcDbEntity
  8
ZUWAKU
100
AcDbLine
 10
79.52662872478618
 20
29.99999936995175
 30
0.0
 11
79.5266287247864
 21
0.79999936995182
 31
0.0
  0
LINE
  5
BCF
330
1A
100
AcDbEntity
  8
ZUWAKU
100
AcDbLine
 10
79.12662872478631
 20
29.99999936995175
 30
0.0
 11
79.12662872478631
 21
0.79999936995182
 31
0.0
  0
LINE
  5
BD0
330
1A
100
AcDbEntity
  8
ZUWAKU
100
AcDbLine
 10
64.14221133157912
 20
9.949999369951754
 30
0.0
 11
64.14221133157912
 21
22.72499936995175
 31
0.0
  0
LINE
  5
BD1
330
1A
100
AcDbEntity
  8
ZUWAKU
100
AcDbLine
 10
61.34221133157905
 20
22.72499936995175
 30
0.0
 11
61.34221133157905
 21
10.99999936995175
 31
0.0
  0
LINE
  5
BD2
330
1A
100
AcDbEntity
  8
ZUWAKU
100
AcDbLine
 10
69.0422113315791
 20
7.674999369951756
 30
0.0
 11
69.0422113315791
 21
22.72499936995175
 31
0.0
  0
LINE
  5
BD3
330
1A
100
AcDbEntity
  8
ZUWAKU
100
AcDbLine
 10
66.24221133157902
 20
22.72499936995175
 30
0.0
 11
66.24221133157902
 21
7.674999369951756
 31
0.0
  0
ARC
  5
BD4
330
1A
100
AcDbEntity
  8
ZUWAKU
100
AcDbCircle
 10
49.7922113315791
 20
18.63479734459645
 30
0.0
 40
1.399999999999999
100
AcDbArc
 50
180.0000000000016
 51
224.9999999999988
  0
ARC
  5
BD5
330
1A
100
AcDbEntity
  8
ZUWAKU
100
AcDbCircle
 10
49.7922113315791
 20
18.63479734459645
 30
0.0
 40
4.199999999999999
100
AcDbArc
 50
180.0
 51
225.0
  0
LINE
  5
BD6
330
1A
100
AcDbEntity
  8
ZUWAKU
100
AcDbLine
 10
37.31485781375704
 20
19.20504656351518
 30
0.0
 11
36.0501060684212
 21
15.19999936995177
 31
0.0
  0
LINE
  5
BD7
330
1A
100
AcDbEntity
  8
ZUWAKU
100
AcDbLine
 10
40.69221133157907
 20
22.72499936995175
 30
0.0
 11
40.69221133157907
 21
7.674999369951756
 31
0.0
  0
LINE
  5
BD8
330
1A
100
AcDbEntity
  8
ZUWAKU
100
AcDbLine
 10
43.49221133157903
 20
7.674999369951756
 30
0.0
 11
43.49221133157903
 21
22.72499936995175
 31
0.0
  0
LINE
  5
BD9
330
1A
100
AcDbEntity
  8
ZUWAKU
100
AcDbLine
 10
55.04221133157909
 20
22.72499936995175
 30
0.0
 11
55.04221133157909
 21
9.949999369951754
 31
0.0
  0
LINE
  5
BDA
330
1A
100
AcDbEntity
  8
ZUWAKU
100
AcDbLine
 10
57.84221133157905
 20
10.99999936995175
 30
0.0
 11
57.84221133157905
 21
22.72499936995175
 31
0.0
  0
LINE
  5
BDB
330
1A
100
AcDbEntity
  8
ZUWAKU
100
AcDbLine
 10
32.64221133157912
 20
17.12499936995175
 30
0.0
 11
32.64221133157912
 21
22.72499936995175
 31
0.0
  0
LINE
  5
BDC
330
1A
100
AcDbEntity
  8
ZUWAKU
100
AcDbLine
 10
29.84221133157905
 20
22.72499936995175
 30
0.0
 11
29.84221133157905
 21
7.674999369951756
 31
0.0
  0
LINE
  5
BDD
330
1A
100
AcDbEntity
  8
ZUWAKU
100
AcDbLine
 10
35.67634626889491
 20
22.88309333811872
 30
0.0
 11
33.80807639426314
 21
16.96690540178478
 31
0.0
  0
LINE
  5
BDE
330
1A
100
AcDbEntity
  8
ZUWAKU
100
AcDbLine
 10
60.2922113315791
 20
9.949999369951754
 30
0.0
 11
58.89221133157912
 21
9.949999369951754
 31
0.0
  0
LINE
  5
BDF
330
1A
100
AcDbEntity
  8
ZUWAKU
100
AcDbLine
 10
57.84221133157905
 20
7.149999369951757
 30
0.0
 11
61.34221133157905
 21
7.149999369951757
 31
0.0
  0
LINE
  5
BE0
330
1A
100
AcDbEntity
  8
ZUWAKU
100
AcDbLine
 10
41.21721133157905
 20
7.149999369951757
 30
0.0
 11
42.96721133157904
 21
7.149999369951757
 31
0.0
  0
LINE
  5
BE1
330
1A
100
AcDbEntity
  8
ZUWAKU
100
AcDbLine
 10
35.67634626889491
 20
7.516905401784782
 30
0.0
 11
33.80807639426314
 21
13.43309333811872
 31
0.0
  0
ARC
  5
BE2
330
1A
100
AcDbEntity
  8
ZUWAKU
100
AcDbCircle
 10
33.30744549506778
 20
17.12499936995175
 30
0.0
 40
0.525
100
AcDbArc
 50
270.0
 51
342.4744316262769
  0
LINE
  5
BE3
330
1A
100
AcDbEntity
  8
ZUWAKU
100
AcDbLine
 10
33.30744549506778
 20
16.59999936995175
 30
0.0
 11
33.16721133157909
 21
16.59999936995175
 31
0.0
  0
LINE
  5
BE4
330
1A
100
AcDbEntity
  8
ZUWAKU
100
AcDbLine
 10
33.16721133157909
 20
13.79999936995175
 30
0.0
 11
33.30744549506778
 21
13.79999936995175
 31
0.0
  0
ARC
  5
BE5
330
1A
100
AcDbEntity
  8
ZUWAKU
100
AcDbCircle
 10
33.16721133157909
 20
17.12499936995175
 30
0.0
 40
0.525
100
AcDbArc
 50
180.0
 51
270.0
  0
LINE
  5
BE6
330
1A
100
AcDbEntity
  8
ZUWAKU
100
AcDbLine
 10
30.36721133157902
 20
7.149999369951757
 30
0.0
 11
32.11721133157903
 21
7.149999369951757
 31
0.0
  0
ARC
  5
BE7
330
1A
100
AcDbEntity
  8
ZUWAKU
100
AcDbCircle
 10
32.11721133157903
 20
7.674999369951756
 30
0.0
 40
0.525
100
AcDbArc
 50
270.0
 51
0.0
  0
LINE
  5
BE8
330
1A
100
AcDbEntity
  8
ZUWAKU
100
AcDbLine
 10
32.64221133157912
 20
7.674999369951756
 30
0.0
 11
32.64221133157912
 21
13.27499936995175
 31
0.0
  0
LINE
  5
BE9
330
1A
100
AcDbEntity
  8
ZUWAKU
100
AcDbLine
 10
27.39221133157911
 20
9.424999369951756
 30
0.0
 11
27.39221133157911
 21
7.674999369951756
 31
0.0
  0
ARC
  5
BEA
330
1A
100
AcDbEntity
  8
ZUWAKU
100
AcDbCircle
 10
26.86721133157902
 20
7.674999369951756
 30
0.0
 40
0.525
100
AcDbArc
 50
270.0
 51
0.0
  0
ARC
  5
BEB
330
1A
100
AcDbEntity
  8
ZUWAKU
100
AcDbCircle
 10
26.86721133157902
 20
9.424999369951756
 30
0.0
 40
0.525
100
AcDbArc
 50
0.0
 51
90.0
  0
ARC
  5
BEC
330
1A
100
AcDbEntity
  8
ZUWAKU
100
AcDbCircle
 10
30.36721133157902
 20
7.674999369951756
 30
0.0
 40
0.525
100
AcDbArc
 50
180.0
 51
270.0
  0
ARC
  5
BED
330
1A
100
AcDbEntity
  8
ZUWAKU
100
AcDbCircle
 10
33.30744549506778
 20
13.27499936995175
 30
0.0
 40
0.525
100
AcDbArc
 50
17.52556837372303
 51
90.0
  0
ARC
  5
BEE
330
1A
100
AcDbEntity
  8
ZUWAKU
100
AcDbCircle
 10
33.16721133157909
 20
13.27499936995175
 30
0.0
 40
0.525
100
AcDbArc
 50
90.0
 51
180.0
  0
ARC
  5
BEF
330
1A
100
AcDbEntity
  8
ZUWAKU
100
AcDbCircle
 10
41.21721133157905
 20
7.674999369951756
 30
0.0
 40
0.525
100
AcDbArc
 50
180.0
 51
270.0
  0
LINE
  5
BF0
330
1A
100
AcDbEntity
  8
ZUWAKU
100
AcDbLine
 10
36.17697716809038
 20
7.149999369951757
 30
0.0
 11
37.87586654769938
 21
7.149999369951757
 31
0.0
  0
ARC
  5
BF1
330
1A
100
AcDbEntity
  8
ZUWAKU
100
AcDbCircle
 10
37.87586654769938
 20
7.674999369951756
 30
0.0
 40
0.525
100
AcDbArc
 50
270.0
 51
17.52556837372303
  0
LINE
  5
BF2
330
1A
100
AcDbEntity
  8
ZUWAKU
100
AcDbLine
 10
38.37649744689485
 20
7.833093338118729
 30
0.0
 11
36.0501060684212
 21
15.19999936995177
 31
0.0
  0
ARC
  5
BF3
330
1A
100
AcDbEntity
  8
ZUWAKU
100
AcDbCircle
 10
36.17697716809038
 20
7.674999369951756
 30
0.0
 40
0.525
100
AcDbArc
 50
197.525568373723
 51
270.0
  0
ARC
  5
BF4
330
1A
100
AcDbEntity
  8
ZUWAKU
100
AcDbCircle
 10
57.84221133157905
 20
9.949999369951754
 30
0.0
 40
2.799999999999999
100
AcDbArc
 50
180.0
 51
270.0
  0
ARC
  5
BF5
330
1A
100
AcDbEntity
  8
ZUWAKU
100
AcDbCircle
 10
50.14221133157912
 20
9.949999369951754
 30
0.0
 40
2.799999999999999
100
AcDbArc
 50
270.0
 51
0.0
  0
LINE
  5
BF6
330
1A
100
AcDbEntity
  8
ZUWAKU
100
AcDbLine
 10
51.71205981256264
 20
14.73504987629058
 30
0.0
 11
48.80226183791785
 21
17.64484785093525
 31
0.0
  0
LINE
  5
BF7
330
1A
100
AcDbEntity
  8
ZUWAKU
100
AcDbLine
 10
50.14221133157912
 20
10.47499936995176
 30
0.0
 11
50.14221133157912
 21
11.7652013953071
 31
0.0
  0
ARC
  5
BF8
330
1A
100
AcDbEntity
  8
ZUWAKU
100
AcDbCircle
 10
48.74221133157902
 20
11.7652013953071
 30
0.0
 40
1.399999999999999
100
AcDbArc
 50
0.0
 51
45.0
  0
ARC
  5
BF9
330
1A
100
AcDbEntity
  8
ZUWAKU
100
AcDbCircle
 10
49.61721133157903
 20
10.47499936995176
 30
0.0
 40
0.525
100
AcDbArc
 50
270.0
 51
0.0
  0
LINE
  5
BFA
330
1A
100
AcDbEntity
  8
ZUWAKU
100
AcDbLine
 10
46.11721133157902
 20
7.674999369951756
 30
0.0
 11
46.11721133157902
 21
9.424999369951756
 31
0.0
  0
ARC
  5
BFB
330
1A
100
AcDbEntity
  8
ZUWAKU
100
AcDbCircle
 10
46.64221133157911
 20
7.674999369951756
 30
0.0
 40
0.525
100
AcDbArc
 50
180.0
 51
270.0
  0
ARC
  5
BFC
330
1A
100
AcDbEntity
  8
ZUWAKU
100
AcDbCircle
 10
42.96721133157904
 20
7.674999369951756
 30
0.0
 40
0.525
100
AcDbArc
 50
270.0
 51
0.0
  0
ARC
  5
BFD
330
1A
100
AcDbEntity
  8
ZUWAKU
100
AcDbCircle
 10
46.64221133157911
 20
9.424999369951756
 30
0.0
 40
0.525
100
AcDbArc
 50
90.0
 51
180.0
  0
LINE
  5
BFE
330
1A
100
AcDbEntity
  8
ZUWAKU
100
AcDbLine
 10
46.64221133157911
 20
9.949999369951754
 30
0.0
 11
49.61721133157903
 21
9.949999369951754
 31
0.0
  0
LINE
  5
BFF
330
1A
100
AcDbEntity
  8
ZUWAKU
100
AcDbLine
 10
46.64221133157911
 20
7.149999369951757
 30
0.0
 11
50.14221133157912
 21
7.149999369951757
 31
0.0
  0
LINE
  5
C00
330
1A
100
AcDbEntity
  8
ZUWAKU
100
AcDbLine
 10
46.82236285059559
 20
15.66494886361293
 30
0.0
 11
49.73216082524027
 21
12.75515088896827
 31
0.0
  0
LINE
  5
C01
330
1A
100
AcDbEntity
  8
ZUWAKU
100
AcDbLine
 10
52.94221133157908
 20
9.949999369951754
 30
0.0
 11
52.94221133157908
 21
11.7652013953071
 31
0.0
  0
ARC
  5
C02
330
1A
100
AcDbEntity
  8
ZUWAKU
100
AcDbCircle
 10
48.74221133157902
 20
11.76520139530705
 30
0.0
 40
4.199999999999999
100
AcDbArc
 50
0.0
 51
45.0
  0
ARC
  5
C03
330
1A
100
AcDbEntity
  8
ZUWAKU
100
AcDbCircle
 10
58.89221133157912
 20
10.99999936995175
 30
0.0
 40
1.049999999999999
100
AcDbArc
 50
180.0
 51
270.0
  0
ARC
  5
C04
330
1A
100
AcDbEntity
  8
ZUWAKU
100
AcDbCircle
 10
61.34221133157905
 20
9.949999369951754
 30
0.0
 40
2.799999999999999
100
AcDbArc
 50
270.0
 51
0.0
  0
LINE
  5
C05
330
1A
100
AcDbEntity
  8
ZUWAKU
100
AcDbLine
 10
66.76721133157911
 20
7.149999369951757
 30
0.0
 11
68.51721133157912
 21
7.149999369951757
 31
0.0
  0
ARC
  5
C06
330
1A
100
AcDbEntity
  8
ZUWAKU
100
AcDbCircle
 10
66.76721133157911
 20
7.674999369951756
 30
0.0
 40
0.525
100
AcDbArc
 50
180.0
 51
270.0
  0
ARC
  5
C07
330
1A
100
AcDbEntity
  8
ZUWAKU
100
AcDbCircle
 10
60.2922113315791
 20
10.99999936995175
 30
0.0
 40
1.049999999999999
100
AcDbArc
 50
270.0
 51
0.0
  0
ARC
  5
C08
330
1A
100
AcDbEntity
  8
ZUWAKU
100
AcDbCircle
 10
68.51721133157912
 20
7.674999369951756
 30
0.0
 40
0.525
100
AcDbArc
 50
270.0
 51
0.0
  0
LINE
  5
C09
330
1A
100
AcDbEntity
  8
ZUWAKU
100
AcDbLine
 10
42.96721133157904
 20
23.24999936995176
 30
0.0
 11
41.21721133157905
 21
23.24999936995176
 31
0.0
  0
ARC
  5
C0A
330
1A
100
AcDbEntity
  8
ZUWAKU
100
AcDbCircle
 10
32.11721133157903
 20
22.72499936995175
 30
0.0
 40
0.525
100
AcDbArc
 50
0.0
 51
90.0
  0
LINE
  5
C0B
330
1A
100
AcDbEntity
  8
ZUWAKU
100
AcDbLine
 10
32.11721133157903
 20
23.24999936995176
 30
0.0
 11
30.36721133157902
 21
23.24999936995176
 31
0.0
  0
ARC
  5
C0C
330
1A
100
AcDbEntity
  8
ZUWAKU
100
AcDbCircle
 10
26.86721133157902
 20
22.72499936995175
 30
0.0
 40
0.525
100
AcDbArc
 50
0.0
 51
90.0
  0
ARC
  5
C0D
330
1A
100
AcDbEntity
  8
ZUWAKU
100
AcDbCircle
 10
30.36721133157902
 20
22.72499936995175
 30
0.0
 40
0.525
100
AcDbArc
 50
90.0
 51
180.0
  0
ARC
  5
C0E
330
1A
100
AcDbEntity
  8
ZUWAKU
100
AcDbCircle
 10
26.86721133157902
 20
20.97499936995175
 30
0.0
 40
0.525
100
AcDbArc
 50
270.0
 51
0.0
  0
LINE
  5
C0F
330
1A
100
AcDbEntity
  8
ZUWAKU
100
AcDbLine
 10
27.39221133157911
 20
22.72499936995175
 30
0.0
 11
27.39221133157911
 21
20.97499936995175
 31
0.0
  0
ARC
  5
C10
330
1A
100
AcDbEntity
  8
ZUWAKU
100
AcDbCircle
 10
41.21721133157905
 20
22.72499936995175
 30
0.0
 40
0.525
100
AcDbArc
 50
90.0
 51
180.0
  0
LINE
  5
C11
330
1A
100
AcDbEntity
  8
ZUWAKU
100
AcDbLine
 10
36.17697716809038
 20
23.24999936995176
 30
0.0
 11
37.87586654769938
 21
23.24999936995176
 31
0.0
  0
ARC
  5
C12
330
1A
100
AcDbEntity
  8
ZUWAKU
100
AcDbCircle
 10
37.87586654769938
 20
22.72499936995175
 30
0.0
 40
0.525
100
AcDbArc
 50
342.4744316262769
 51
90.0
  0
LINE
  5
C13
330
1A
100
AcDbEntity
  8
ZUWAKU
100
AcDbLine
 10
38.37649744689485
 20
22.56690540178478
 30
0.0
 11
37.31485781375704
 21
19.20504656351518
 31
0.0
  0
ARC
  5
C14
330
1A
100
AcDbEntity
  8
ZUWAKU
100
AcDbCircle
 10
36.17697716809038
 20
22.72499936995175
 30
0.0
 40
0.525
100
AcDbArc
 50
90.0
 51
162.4744316262769
  0
LINE
  5
C15
330
1A
100
AcDbEntity
  8
ZUWAKU
100
AcDbLine
 10
48.39221133157912
 20
23.24999936995176
 30
0.0
 11
51.89221133157912
 21
23.24999936995176
 31
0.0
  0
LINE
  5
C16
330
1A
100
AcDbEntity
  8
ZUWAKU
100
AcDbLine
 10
51.89221133157912
 20
20.44999936995175
 30
0.0
 11
48.9172113315791
 21
20.44999936995175
 31
0.0
  0
ARC
  5
C17
330
1A
100
AcDbEntity
  8
ZUWAKU
100
AcDbCircle
 10
48.9172113315791
 20
19.92499936995175
 30
0.0
 40
0.525
100
AcDbArc
 50
90.0
 51
180.0
  0
LINE
  5
C18
330
1A
100
AcDbEntity
  8
ZUWAKU
100
AcDbLine
 10
48.39221133157912
 20
19.92499936995175
 30
0.0
 11
48.39221133157912
 21
18.63479734459641
 31
0.0
  0
ARC
  5
C19
330
1A
100
AcDbEntity
  8
ZUWAKU
100
AcDbCircle
 10
42.96721133157904
 20
22.72499936995175
 30
0.0
 40
0.525
100
AcDbArc
 50
0.0
 51
90.0
  0
LINE
  5
C1A
330
1A
100
AcDbEntity
  8
ZUWAKU
100
AcDbLine
 10
45.59221133157905
 20
20.44999936995175
 30
0.0
 11
45.59221133157905
 21
18.63479734459641
 31
0.0
  0
ARC
  5
C1B
330
1A
100
AcDbEntity
  8
ZUWAKU
100
AcDbCircle
 10
48.39221133157912
 20
20.44999936995175
 30
0.0
 40
2.799999999999999
100
AcDbArc
 50
90.0
 51
180.0
  0
ARC
  5
C1C
330
1A
100
AcDbEntity
  8
ZUWAKU
100
AcDbCircle
 10
57.31721133157908
 20
22.72499936995175
 30
0.0
 40
0.525
100
AcDbArc
 50
0.0
 51
90.0
  0
ARC
  5
C1D
330
1A
100
AcDbEntity
  8
ZUWAKU
100
AcDbCircle
 10
55.56721133157907
 20
22.72499936995175
 30
0.0
 40
0.525
100
AcDbArc
 50
90.0
 51
180.0
  0
LINE
  5
C1E
330
1A
100
AcDbEntity
  8
ZUWAKU
100
AcDbLine
 10
57.31721133157908
 20
23.24999936995176
 30
0.0
 11
55.56721133157907
 21
23.24999936995176
 31
0.0
  0
ARC
  5
C1F
330
1A
100
AcDbEntity
  8
ZUWAKU
100
AcDbCircle
 10
51.89221133157912
 20
22.72499936995175
 30
0.0
 40
0.525
100
AcDbArc
 50
0.0
 51
90.0
  0
ARC
  5
C20
330
1A
100
AcDbEntity
  8
ZUWAKU
100
AcDbCircle
 10
51.89221133157912
 20
20.97499936995175
 30
0.0
 40
0.525
100
AcDbArc
 50
270.0
 51
0.0
  0
LINE
  5
C21
330
1A
100
AcDbEntity
  8
ZUWAKU
100
AcDbLine
 10
52.41721133157909
 20
22.72499936995175
 30
0.0
 11
52.41721133157909
 21
20.97499936995175
 31
0.0
  0
LINE
  5
C22
330
1A
100
AcDbEntity
  8
ZUWAKU
100
AcDbLine
 10
68.51721133157912
 20
23.24999936995176
 30
0.0
 11
66.76721133157911
 21
23.24999936995176
 31
0.0
  0
ARC
  5
C23
330
1A
100
AcDbEntity
  8
ZUWAKU
100
AcDbCircle
 10
66.76721133157911
 20
22.72499936995175
 30
0.0
 40
0.525
100
AcDbArc
 50
90.0
 51
180.0
  0
ARC
  5
C24
330
1A
100
AcDbEntity
  8
ZUWAKU
100
AcDbCircle
 10
63.61721133157903
 20
22.72499936995175
 30
0.0
 40
0.525
100
AcDbArc
 50
0.0
 51
90.0
  0
LINE
  5
C25
330
1A
100
AcDbEntity
  8
ZUWAKU
100
AcDbLine
 10
63.61721133157903
 20
23.24999936995176
 30
0.0
 11
61.86721133157902
 21
23.24999936995176
 31
0.0
  0
ARC
  5
C26
330
1A
100
AcDbEntity
  8
ZUWAKU
100
AcDbCircle
 10
61.86721133157902
 20
22.72499936995175
 30
0.0
 40
0.525
100
AcDbArc
 50
90.0
 51
180.0
  0
ARC
  5
C27
330
1A
100
AcDbEntity
  8
ZUWAKU
100
AcDbCircle
 10
68.51721133157912
 20
22.72499936995175
 30
0.0
 40
0.525
100
AcDbArc
 50
0.0
 51
90.0
  0
TEXT
  5
C28
330
1A
100
AcDbEntity
  8
MOJI
100
AcDbText
 10
239.827201857649
 20
3.204920427359173
 30
0.0
 40
5.599999999999999
  1
ＲＶ１０５－４－１０～４５
 41
0.9
  7
ｽﾀｲﾙ1
100
AcDbText
  0
TEXT
  5
C29
330
1A
100
AcDbEntity
  8
MOJI
100
AcDbText
 10
239.827201857649
 20
18.00492042735913
 30
0.0
 40
5.599999999999999
  1
ステンレス金具正面打（吊）自在式
 41
0.9
  7
ｽﾀｲﾙ1
100
AcDbText
  0
LINE
  5
C2A
330
1A
100
AcDbEntity
  8
ZUWAKU
100
AcDbLine
 10
208.2466004668658
 20
29.99999936995175
 30
0.0
 11
208.2466004668658
 21
0.79999936995182
 31
0.0
  0
LINE
  5
C2B
330
1A
100
AcDbEntity
  8
ZUWAKU
100
AcDbLine
 10
208.6466004668657
 20
29.99999936995175
 30
0.0
 11
208.6466004668659
 21
0.79999936995182
 31
0.0
  0
LINE
  5
C2C
330
1A
100
AcDbEntity
  8
ZUWAKU
100
AcDbLine
 10
208.4466004668656
 20
29.99999936995175
 30
0.0
 11
208.4466004668659
 21
0.79999936995182
 31
0.0
  0
TEXT
  5
C2D
330
1A
100
AcDbEntity
  8
ZUWAKU
100
AcDbText
 10
209.7240454890754
 20
9.655355908337369
 30
0.0
 40
4.0
  1
サイズ
 41
0.9
  7
ｽﾀｲﾙ1
100
AcDbText
  0
TEXT
  5
C2E
330
1A
100
AcDbEntity
  8
ZUWAKU
100
AcDbText
 10
209.7240454890752
 20
24.05535590833733
 30
0.0
 40
4.0
  1
品名
 41
0.9
  7
ｽﾀｲﾙ1
100
AcDbText
  0
LINE
  5
C2F
330
1A
100
AcDbEntity
  8
ZUWAKU
100
AcDbLine
 10
648.8172016870021
 20
15.19999936995178
 30
0.0
 11
697.2490097253391
 21
15.19999936995178
 31
0.0
  0
LINE
  5
C30
330
1A
100
AcDbEntity
  8
ZUWAKU
100
AcDbLine
 10
648.8172016870024
 20
15.39999936995179
 30
0.0
 11
697.2490097253391
 21
15.39999936995178
 31
0.0
  0
LINE
  5
C31
330
1A
100
AcDbEntity
  8
ZUWAKU
100
AcDbLine
 10
648.8172016870021
 20
15.59999936995178
 30
0.0
 11
697.2490097253391
 21
15.59999936995178
 31
0.0
  0
TEXT
  5
C32
330
1A
100
AcDbEntity
  8
ZUWAKU
100
AcDbText
 10
658.2039368641003
 20
18.00492042735913
 30
0.0
 40
5.599999999999999
  1
　　．　　．　　
 41
0.9
  7
ｽﾀｲﾙ1
100
AcDbText
  0
LINE
  5
C33
330
1A
100
AcDbEntity
  8
ZUWAKU
100
AcDbLine
 10
505.1991786749388
 20
15.19999936995179
 30
0.0
 11
552.5269549429103
 21
15.19999936995179
 31
0.0
  0
LINE
  5
C34
330
1A
100
AcDbEntity
  8
ZUWAKU
100
AcDbLine
 10
505.1991786749388
 20
15.39999936995178
 30
0.0
 11
552.5269549429103
 21
15.39999936995178
 31
0.0
  0
LINE
  5
C35
330
1A
100
AcDbEntity
  8
ZUWAKU
100
AcDbLine
 10
505.1991786749388
 20
15.59999936995178
 30
0.0
 11
552.5269549429103
 21
15.59999936995178
 31
0.0
  0
TEXT
  5
C36
330
1A
100
AcDbEntity
  8
MOJI
100
AcDbText
 10
464.5946251800369
 20
11.94261709161173
 30
0.0
 40
5.599999999999999
  1
ＬＧ５４Ｇ
 41
0.9
  7
ｽﾀｲﾙ1
100
AcDbText
  0
LINE
  5
C37
330
1A
100
AcDbEntity
  8
ZUWAKU
100
AcDbLine
 10
447.6243631477891
 20
29.99999936995175
 30
0.0
 11
447.6243631477894
 21
0.79999936995182
 31
0.0
  0
LINE
  5
C38
330
1A
100
AcDbEntity
  8
ZUWAKU
100
AcDbLine
 10
447.8243631477892
 20
29.99999936995175
 30
0.0
 11
447.8243631477893
 21
0.79999936995182
 31
0.0
  0
LINE
  5
C39
330
1A
100
AcDbEntity
  8
ZUWAKU
100
AcDbLine
 10
447.4243631477893
 20
29.99999936995175
 30
0.0
 11
447.4243631477893
 21
0.79999936995182
 31
0.0
  0
TEXT
  5
C3A
330
1A
100
AcDbEntity
  8
MOJI
100
AcDbText
 10
528.0409071491107
 20
18.00492042735913
 30
0.0
 40
5.599999999999999
  1
Ａ３
 41
0.9
  7
ｽﾀｲﾙ1
100
AcDbText
  0
LINE
  5
C3B
330
1A
100
AcDbEntity
  8
ZUWAKU
100
AcDbLine
 10
504.9991786749387
 20
29.99999936995175
 30
0.0
 11
504.999178674939
 21
0.79999936995182
 31
0.0
  0
LINE
  5
C3C
330
1A
100
AcDbEntity
  8
ZUWAKU
100
AcDbLine
 10
505.1991786749388
 20
29.99999936995175
 30
0.0
 11
505.199178674939
 21
0.79999936995182
 31
0.0
  0
LINE
  5
C3D
330
1A
100
AcDbEntity
  8
ZUWAKU
100
AcDbLine
 10
504.7991786749389
 20
29.99999936995175
 30
0.0
 11
504.7991786749389
 21
0.79999936995182
 31
0.0
  0
TEXT
  5
C3E
330
1A
100
AcDbEntity
  8
ZUWAKU
100
AcDbText
 10
506.6766236971487
 20
9.655355908337369
 30
0.0
 40
4.0
  1
縮尺
 41
0.9
  7
ｽﾀｲﾙ1
100
AcDbText
  0
TEXT
  5
C3F
330
1A
100
AcDbEntity
  8
MOJI
100
AcDbText
 10
528.0409071491107
 20
3.204920427359173
 30
0.0
 40
5.599999999999999
  1
１/２
 41
0.9
  7
ｽﾀｲﾙ1
100
AcDbText
  0
TEXT
  5
C40
330
1A
100
AcDbEntity
  8
ZUWAKU
100
AcDbText
 10
449.3018081699988
 20
24.05535590833733
 30
0.0
 40
4.0
  1
品番
 41
0.9
  7
ｽﾀｲﾙ1
100
AcDbText
  0
TEXT
  5
C41
330
1A
100
AcDbEntity
  8
ZUWAKU
100
AcDbText
 10
506.6766236971484
 20
24.05535590833733
 30
0.0
 40
4.0
  1
用紙
 41
0.9
  7
ｽﾀｲﾙ1
100
AcDbText
  0
LINE
  5
C42
330
1A
100
AcDbEntity
  8
ZUWAKU
100
AcDbLine
 10
648.6172016870023
 20
29.99999936995175
 30
0.0
 11
648.6172016870025
 21
0.79999936995182
 31
0.0
  0
LINE
  5
C43
330
1A
100
AcDbEntity
  8
ZUWAKU
100
AcDbLine
 10
648.8172016870024
 20
29.99999936995175
 30
0.0
 11
648.8172016870025
 21
0.79999936995182
 31
0.0
  0
LINE
  5
C44
330
1A
100
AcDbEntity
  8
ZUWAKU
100
AcDbLine
 10
648.4172016870025
 20
29.99999936995175
 30
0.0
 11
648.4172016870025
 21
0.79999936995182
 31
0.0
  0
LINE
  5
C45
330
1A
100
AcDbEntity
  8
ZUWAKU
100
AcDbLine
 10
552.7269549429101
 20
29.99999936995175
 30
0.0
 11
552.7269549429104
 21
0.79999936995182
 31
0.0
  0
LINE
  5
C46
330
1A
100
AcDbEntity
  8
ZUWAKU
100
AcDbLine
 10
552.9269549429102
 20
29.99999936995175
 30
0.0
 11
552.9269549429105
 21
0.79999936995182
 31
0.0
  0
LINE
  5
C47
330
1A
100
AcDbEntity
  8
ZUWAKU
100
AcDbLine
 10
552.5269549429103
 20
29.99999936995175
 30
0.0
 11
552.5269549429103
 21
0.79999936995182
 31
0.0
  0
TEXT
  5
C48
330
1A
100
AcDbEntity
  8
ZUWAKU
100
AcDbText
 10
650.294646709212
 20
24.05535590833733
 30
0.0
 40
4.0
  1
DATE
 41
0.9
  7
ｽﾀｲﾙ1
100
AcDbText
  0
LINE
  5
C49
330
1A
100
AcDbEntity
  8
ZUWAKU
100
AcDbLine
 10
697.2490097253391
 20
29.99999936995175
 30
0.0
 11
697.2490097253391
 21
0.79999936995182
 31
0.0
  0
LINE
  5
C4A
330
1A
100
AcDbEntity
  8
ZUWAKU
100
AcDbLine
 10
697.4490097253392
 20
29.99999936995175
 30
0.0
 11
697.4490097253392
 21
0.79999936995182
 31
0.0
  0
LINE
  5
C4B
330
1A
100
AcDbEntity
  8
ZUWAKU
100
AcDbLine
 10
697.649009725339
 20
29.99999936995175
 30
0.0
 11
697.6490097253392
 21
0.79999936995182
 31
0.0
  0
LINE
  5
C4C
330
1A
100
AcDbEntity
  8
ZUWAKU
100
AcDbLine
 10
697.849009725339
 20
29.99999936995175
 30
0.0
 11
697.8490097253393
 21
0.79999936995182
 31
0.0
  0
TEXT
  5
C4D
330
1A
100
AcDbEntity
  8
ZUWAKU
100
AcDbText
 10
708.5280833690417
 20
17.55383870563855
 30
0.0
 40
6.0
  1
積水化学工業株式会社
 41
0.9
  7
ｽﾀｲﾙ1
100
AcDbText
  0
TEXT
  5
C4E
330
1A
100
AcDbEntity
  8
ZUWAKU
100
AcDbText
 10
708.5280833690417
 20
6.648839683805817
 30
0.0
 40
6.0
  1
建材事業部
 41
0.9
  7
ｽﾀｲﾙ1
100
AcDbText
  0
VIEWPORT
  5
22
330
17
100
AcDbEntity
 67
     1
  8
0
100
AcDbViewport
 10
313.6808219178082
 20
148.5
 30
0.0
 40
627.3616438356165
 41
297.0
 68
     2
 69
     1
1001
ACAD
1000
MVIEW
1002
{
1070
    16
1010
0.0
1020
0.0
1030
0.0
1010
0.0
1020
0.0
1030
1.0
1040
0.0
1040
297.0
1040
313.6808219178082
1040
148.5
1040
50.0
1040
0.0
1040
0.0
1070
     0
1070
   100
1070
     1
1070
     0
1070
     0
1070
     0
1070
     0
1070
     0
1040
0.0
1040
0.0
1040
0.0
1040
1.0
1040
1.0
1040
10.0
1040
10.0
1070
     0
1002
{
1002
}
1002
}
  0
VIEWPORT
  5
64
330
17
100
AcDbEntity
 67
     1
  8
VIEWPORT
100
AcDbViewport
 10
210.0
 20
148.5
 30
0.0
 40
420.0
 41
297.0
 68
     1
 69
     2
1001
ACAD
1000
MVIEW
1002
{
1070
    16
1010
0.0
1020
0.0
1030
0.0
1010
0.0
1020
0.0
1030
1.0
1040
0.0
1040
605.8799999999998
1040
420.0
1040
297.0
1040
50.0
1040
0.0
1040
0.0
1070
     0
1070
   100
1070
     1
1070
     0
1070
     0
1070
     0
1070
     0
1070
     0
1040
0.0
1040
0.0
1040
0.0
1040
10.0
1040
10.0
1040
0.0
1040
0.0
1070
     0
1002
{
1002
}
1002
}
  0
ENDSEC
  0
SECTION
  2
OBJECTS
  0
DICTIONARY
  5
C
330
0
100
AcDbDictionary
  3
ACAD_GROUP
350
D
  3
ACAD_LAYOUT
350
9CE
  3
ACAD_MLINESTYLE
350
E
  3
ACAD_PLOTSETTINGS
350
9CF
  3
ACAD_PLOTSTYLENAME
350
9CC
  3
ACDBHEADERROUNDTRIPXREC
350
CF2
  0
DICTIONARY
  5
9FD
330
1A
100
AcDbDictionary
280
     1
  3
ACAD_LAYOUTSELFREF
360
D14
  0
DICTIONARY
  5
9FB
330
17
100
AcDbDictionary
280
     1
  3
ACAD_LAYOUTSELFREF
360
D13
  0
DICTIONARY
  5
D
102
{ACAD_REACTORS
330
C
102
}
330
C
100
AcDbDictionary
  0
DICTIONARY
  5
9CE
102
{ACAD_REACTORS
330
C
102
}
330
C
100
AcDbDictionary
  0
DICTIONARY
  5
E
102
{ACAD_REACTORS
330
C
102
}
330
C
100
AcDbDictionary
  3
STANDARD
350
13
  0
DICTIONARY
  5
9CF
102
{ACAD_REACTORS
330
C
102
}
330
C
100
AcDbDictionary
  0
ACDBDICTIONARYWDFLT
  5
9CC
102
{ACAD_REACTORS
330
C
102
}
330
C
100
AcDbDictionary
281
     1
  3
Normal
350
9CD
100
AcDbDictionaryWithDefault
340
9CD
1001
ACAD
1000
TREAT_AS_HARD
1070
     0
1000
TREAT_AS_HARD
1070
     0
  0
DICTIONARY
  5
CF2
102
{ACAD_REACTORS
330
C
102
}
330
C
100
AcDbDictionary
  3
TSTACKALIGN
350
CF3
  3
TSTACKSIZE
350
CF4
  3
HYPERLINKBASE
350
CF5
  3
STYLESHEET
350
CF6
  3
LAYOUTDICT
350
CF7
  3
PLOTSETDICT
350
CF8
  3
PLOTSTYLNAMDICT
350
CF9
  3
LWETCUNION
350
CFA
  3
INSUNITS
350
CFB
  3
CEPSNTYPE
350
CFC
  3
FINGERPRINTGUID
350
CFD
  3
VERSIONGUID
350
CFE
  3
PSVPSCALE
350
CFF
  3
DIMSTYLEDATA
350
D00
  3
PUCSORTHOREF
350
D01
  3
PUCSORTHOVIEW
350
D02
  3
PUCSBASE
350
D03
  3
PUCSORGTOP
350
D04
  3
PUCSORGBOTTOM
350
D05
  3
PUCSORGLEFT
350
D06
  3
PUCSORGRIGHT
350
D07
  3
PUCSORGFRONT
350
D08
  3
PUCSORGBACK
350
D09
  3
UCSORTHOREF
350
D0A
  3
UCSORTHOVIEW
350
D0B
  3
UCSBASE
350
D0C
  3
UCSORGTOP
350
D0D
  3
UCSORGBOTTOM
350
D0E
  3
UCSORGLEFT
350
D0F
  3
UCSORGRIGHT
350
D10
  3
UCSORGFRONT
350
D11
  3
UCSORGBACK
350
D12
  0
XRECORD
  5
D14
102
{ACAD_REACTORS
330
9FD
102
}
330
9FD
100
AcDbXrecord
340
1A
  0
XRECORD
  5
D13
102
{ACAD_REACTORS
330
9FB
102
}
330
9FB
100
AcDbXrecord
340
17
  0
MLINESTYLE
  5
13
102
{ACAD_REACTORS
330
E
102
}
330
E
100
AcDbMlineStyle
  2
STANDARD
 70
     0
  3

 62
     0
 51
90.0
 52
90.0
 71
     2
 49
0.5
 62
   256
  6
BYLAYER
 49
-0.5
 62
   256
  6
BYLAYER
  0
ACDBPLACEHOLDER
  5
9CD
102
{ACAD_REACTORS
330
9CC
102
}
330
9CC
100
AcDbPlaceHolder
280
     0
  0
XRECORD
  5
CF3
102
{ACAD_REACTORS
330
CF2
102
}
330
CF2
100
AcDbXrecord
 90
        1
  0
XRECORD
  5
CF4
102
{ACAD_REACTORS
330
CF2
102
}
330
CF2
100
AcDbXrecord
 90
       70
  0
XRECORD
  5
CF5
102
{ACAD_REACTORS
330
CF2
102
}
330
CF2
100
AcDbXrecord
  1

  0
XRECORD
  5
CF6
102
{ACAD_REACTORS
330
CF2
102
}
330
CF2
100
AcDbXrecord
  1
systemprinter.ctb
  0
XRECORD
  5
CF7
102
{ACAD_REACTORS
330
CF2
102
}
330
CF2
100
AcDbXrecord
340
9CE
  0
XRECORD
  5
CF8
102
{ACAD_REACTORS
330
CF2
102
}
330
CF2
100
AcDbXrecord
340
9CF
  0
XRECORD
  5
CF9
102
{ACAD_REACTORS
330
CF2
102
}
330
CF2
100
AcDbXrecord
340
9CC
  0
XRECORD
  5
CFA
102
{ACAD_REACTORS
330
CF2
102
}
330
CF2
100
AcDbXrecord
 90
    10781
  0
XRECORD
  5
CFB
102
{ACAD_REACTORS
330
CF2
102
}
330
CF2
100
AcDbXrecord
 90
        0
  0
XRECORD
  5
CFC
102
{ACAD_REACTORS
330
CF2
102
}
330
CF2
100
AcDbXrecord
 90
        0
  0
XRECORD
  5
CFD
102
{ACAD_REACTORS
330
CF2
102
}
330
CF2
100
AcDbXrecord
  1
{8E897C0C-D2E6-4C0E-B876-693FD546A530}
  0
XRECORD
  5
CFE
102
{ACAD_REACTORS
330
CF2
102
}
330
CF2
100
AcDbXrecord
  1
{E9428B9E-4F8C-4A7F-9645-1C518C654196}
  0
XRECORD
  5
CFF
102
{ACAD_REACTORS
330
CF2
102
}
330
CF2
100
AcDbXrecord
 40
0.0
  0
XRECORD
  5
D00
102
{ACAD_REACTORS
330
CF2
102
}
330
CF2
100
AcDbXrecord
1000
DSTYLE
1002
{
1070
   341
340
6D
1070
   343
340
6D
1070
   344
340
6D
1070
   371
 70
    -1
1070
   372
 70
    -1
1002
}
  0
XRECORD
  5
D01
102
{ACAD_REACTORS
330
CF2
102
}
330
CF2
100
AcDbXrecord
340
0
  0
XRECORD
  5
D02
102
{ACAD_REACTORS
330
CF2
102
}
330
CF2
100
AcDbXrecord
 70
     0
  0
XRECORD
  5
D03
102
{ACAD_REACTORS
330
CF2
102
}
330
CF2
100
AcDbXrecord
340
0
  0
XRECORD
  5
D04
102
{ACAD_REACTORS
330
CF2
102
}
330
CF2
100
AcDbXrecord
 10
0.0
 20
0.0
 30
0.0
  0
XRECORD
  5
D05
102
{ACAD_REACTORS
330
CF2
102
}
330
CF2
100
AcDbXrecord
 10
0.0
 20
0.0
 30
0.0
  0
XRECORD
  5
D06
102
{ACAD_REACTORS
330
CF2
102
}
330
CF2
100
AcDbXrecord
 10
0.0
 20
0.0
 30
0.0
  0
XRECORD
  5
D07
102
{ACAD_REACTORS
330
CF2
102
}
330
CF2
100
AcDbXrecord
 10
0.0
 20
0.0
 30
0.0
  0
XRECORD
  5
D08
102
{ACAD_REACTORS
330
CF2
102
}
330
CF2
100
AcDbXrecord
 10
0.0
 20
0.0
 30
0.0
  0
XRECORD
  5
D09
102
{ACAD_REACTORS
330
CF2
102
}
330
CF2
100
AcDbXrecord
 10
0.0
 20
0.0
 30
0.0
  0
XRECORD
  5
D0A
102
{ACAD_REACTORS
330
CF2
102
}
330
CF2
100
AcDbXrecord
340
0
  0
XRECORD
  5
D0B
102
{ACAD_REACTORS
330
CF2
102
}
330
CF2
100
AcDbXrecord
 70
     0
  0
XRECORD
  5
D0C
102
{ACAD_REACTORS
330
CF2
102
}
330
CF2
100
AcDbXrecord
340
0
  0
XRECORD
  5
D0D
102
{ACAD_REACTORS
330
CF2
102
}
330
CF2
100
AcDbXrecord
 10
0.0
 20
0.0
 30
0.0
  0
XRECORD
  5
D0E
102
{ACAD_REACTORS
330
CF2
102
}
330
CF2
100
AcDbXrecord
 10
0.0
 20
0.0
 30
0.0
  0
XRECORD
  5
D0F
102
{ACAD_REACTORS
330
CF2
102
}
330
CF2
100
AcDbXrecord
 10
0.0
 20
0.0
 30
0.0
  0
XRECORD
  5
D10
102
{ACAD_REACTORS
330
CF2
102
}
330
CF2
100
AcDbXrecord
 10
0.0
 20
0.0
 30
0.0
  0
XRECORD
  5
D11
102
{ACAD_REACTORS
330
CF2
102
}
330
CF2
100
AcDbXrecord
 10
0.0
 20
0.0
 30
0.0
  0
XRECORD
  5
D12
102
{ACAD_REACTORS
330
CF2
102
}
330
CF2
100
AcDbXrecord
 10
0.0
 20
0.0
 30
0.0
  0
ENDSEC
  0
EOF
