  0
SECTION
  2
HEADER
  9
$ACADVER
  1
AC1014
  9
$ACADMAINTVER
 70
     9
  9
$DWGCODEPAGE
  3
ANSI_932
  9
$INSBASE
 10
0.0
 20
0.0
 30
0.0
  9
$EXTMIN
 10
-0.0256336331046896
 20
-0.0181266884808338
 30
-0.0000000100021362
  9
$EXTMAX
 10
797.6000995211149
 20
551.6452344430783
 30
0.0000000100021363
  9
$LIMMIN
 10
0.0
 20
0.0
  9
$LIMMAX
 10
840.0
 20
594.0
  9
$ORTHOMODE
 70
     0
  9
$REGENMODE
 70
     1
  9
$FILLMODE
 70
     1
  9
$QTEXTMODE
 70
     0
  9
$MIRRTEXT
 70
     1
  9
$DRAGMODE
 70
     2
  9
$LTSCALE
 40
2.0
  9
$OSMODE
 70
    35
  9
$ATTMODE
 70
     1
  9
$TEXTSIZE
 40
6.0
  9
$TRACEWID
 40
1.0
  9
$TEXTSTYLE
  7
STANDARD
  9
$CLAYER
  8
CENTER_L
  9
$CELTYPE
  6
BYLAYER
  9
$CECOLOR
 62
   256
  9
$CELTSCALE
 40
1.0
  9
$DELOBJ
 70
     1
  9
$DISPSILH
 70
     0
  9
$DIMSCALE
 40
1.0
  9
$DIMASZ
 40
7.0
  9
$DIMEXO
 40
6.0
  9
$DIMDLI
 40
14.0
  9
$DIMRND
 40
0.0
  9
$DIMDLE
 40
0.0
  9
$DIMEXE
 40
3.0
  9
$DIMTP
 40
0.0
  9
$DIMTM
 40
0.0
  9
$DIMTXT
 40
6.0
  9
$DIMCEN
 40
150.0
  9
$DIMTSZ
 40
0.0
  9
$DIMTOL
 70
     0
  9
$DIMLIM
 70
     0
  9
$DIMTIH
 70
     0
  9
$DIMTOH
 70
     0
  9
$DIMSE1
 70
     0
  9
$DIMSE2
 70
     0
  9
$DIMTAD
 70
     3
  9
$DIMZIN
 70
     0
  9
$DIMBLK
  1

  9
$DIMASO
 70
     1
  9
$DIMSHO
 70
     1
  9
$DIMPOST
  1

  9
$DIMAPOST
  1

  9
$DIMALT
 70
     0
  9
$DIMALTD
 70
     2
  9
$DIMALTF
 40
25.4
  9
$DIMLFAC
 40
1.0
  9
$DIMTOFL
 70
     1
  9
$DIMTVP
 40
0.0
  9
$DIMTIX
 70
     0
  9
$DIMSOXD
 70
     0
  9
$DIMSAH
 70
     1
  9
$DIMBLK1
  1
OPEN
  9
$DIMBLK2
  1
OPEN
  9
$DIMSTYLE
  2
STANDARD
  9
$DIMCLRD
 70
   256
  9
$DIMCLRE
 70
   256
  9
$DIMCLRT
 70
   256
  9
$DIMTFAC
 40
1.0
  9
$DIMGAP
 40
2.0
  9
$DIMJUST
 70
     0
  9
$DIMSD1
 70
     0
  9
$DIMSD2
 70
     0
  9
$DIMTOLJ
 70
     1
  9
$DIMTZIN
 70
     0
  9
$DIMALTZ
 70
     0
  9
$DIMALTTZ
 70
     0
  9
$DIMFIT
 70
     3
  9
$DIMUPT
 70
     0
  9
$DIMUNIT
 70
     2
  9
$DIMDEC
 70
     0
  9
$DIMTDEC
 70
     0
  9
$DIMALTU
 70
     2
  9
$DIMALTTD
 70
     2
  9
$DIMTXSTY
  7
STANDARD
  9
$DIMAUNIT
 70
     0
  9
$LUNITS
 70
     2
  9
$LUPREC
 70
     4
  9
$SKETCHINC
 40
1.0
  9
$FILLETRAD
 40
20.0
  9
$AUNITS
 70
     0
  9
$AUPREC
 70
     0
  9
$MENU
  1
.
  9
$ELEVATION
 40
0.0
  9
$PELEVATION
 40
0.0
  9
$THICKNESS
 40
0.0
  9
$LIMCHECK
 70
     0
  9
$BLIPMODE
 70
     0
  9
$CHAMFERA
 40
1.0
  9
$CHAMFERB
 40
1.0
  9
$CHAMFERC
 40
40.0
  9
$CHAMFERD
 40
0.0
  9
$SKPOLY
 70
     0
  9
$TDCREATE
 40
2451200.621384838
  9
$TDUPDATE
 40
2453802.433213970
  9
$TDINDWG
 40
0.0359275231
  9
$TDUSRTIMER
 40
0.0359275231
  9
$USRTIMER
 70
     1
  9
$ANGBASE
 50
0.0
  9
$ANGDIR
 70
     0
  9
$PDMODE
 70
     0
  9
$PDSIZE
 40
0.0
  9
$PLINEWID
 40
0.0
  9
$COORDS
 70
     1
  9
$SPLFRAME
 70
     0
  9
$SPLINETYPE
 70
     6
  9
$SPLINESEGS
 70
     8
  9
$ATTDIA
 70
     0
  9
$ATTREQ
 70
     1
  9
$HANDLING
 70
 10241
  9
$HANDSEED
  5
B24
  9
$SURFTAB1
 70
     6
  9
$SURFTAB2
 70
     6
  9
$SURFTYPE
 70
     6
  9
$SURFU
 70
     6
  9
$SURFV
 70
     6
  9
$UCSNAME
  2

  9
$UCSORG
 10
0.0
 20
0.0
 30
0.0
  9
$UCSXDIR
 10
1.0
 20
0.0
 30
0.0
  9
$UCSYDIR
 10
0.0
 20
1.0
 30
0.0
  9
$PUCSNAME
  2

  9
$PUCSORG
 10
0.0
 20
0.0
 30
0.0
  9
$PUCSXDIR
 10
1.0
 20
0.0
 30
0.0
  9
$PUCSYDIR
 10
0.0
 20
1.0
 30
0.0
  9
$USERI1
 70
     0
  9
$USERI2
 70
     0
  9
$USERI3
 70
     0
  9
$USERI4
 70
     0
  9
$USERI5
 70
     0
  9
$USERR1
 40
0.0
  9
$USERR2
 40
0.0
  9
$USERR3
 40
0.0
  9
$USERR4
 40
0.0
  9
$USERR5
 40
0.0
  9
$WORLDVIEW
 70
     1
  9
$SHADEDGE
 70
     3
  9
$SHADEDIF
 70
    70
  9
$TILEMODE
 70
     1
  9
$MAXACTVP
 70
    16
  9
$PINSBASE
 10
0.0
 20
0.0
 30
0.0
  9
$PLIMCHECK
 70
     0
  9
$PEXTMIN
 10
0.0
 20
0.0
 30
0.0
  9
$PEXTMAX
 10
420.0
 20
297.0
 30
0.0
  9
$PLIMMIN
 10
0.0
 20
0.0
  9
$PLIMMAX
 10
420.0
 20
297.0
  9
$UNITMODE
 70
     0
  9
$VISRETAIN
 70
     0
  9
$PLINEGEN
 70
     0
  9
$PSLTSCALE
 70
     1
  9
$TREEDEPTH
 70
  3020
  9
$PICKSTYLE
 70
     1
  9
$CMLSTYLE
  2
STANDARD
  9
$CMLJUST
 70
     0
  9
$CMLSCALE
 40
1.0
  9
$PROXYGRAPHICS
 70
     1
  9
$MEASUREMENT
 70
     1
  0
ENDSEC
  0
SECTION
  2
CLASSES
  0
CLASS
  1
ACDBDICTIONARYWDFLT
  2
AcDbDictionaryWithDefault
  3
AutoCAD 2000
 90
        0
280
     0
281
     0
  0
CLASS
  1
ACDBPLACEHOLDER
  2
AcDbPlaceHolder
  3
AutoCAD 2000
 90
        0
280
     0
281
     0
  0
CLASS
  1
LAYOUT
  2
AcDbLayout
  3
AutoCAD 2000
 90
        0
280
     0
281
     0
  0
CLASS
  1
LONG_TRANSACTION
  2
AcDbLongTransaction
  3
AutoCAD 2000
 90
        0
280
     0
281
     0
  0
CLASS
  1
LWPOLYLINE
  2
AcDbPolyline
  3
AutoCAD 2000
 90
        0
280
     0
281
     1
  0
CLASS
  1
HATCH
  2
AcDbHatch
  3
AutoCAD 2000
 90
        0
280
     0
281
     1
  0
CLASS
  1
XRECORD
  2
AcDbXrecord
  3
AutoCAD 2000
 90
        0
280
     0
281
     0
  0
CLASS
  1
LONG_TRANSACTION
  2
AcDbLongTransaction
  3
AutoCAD 2000
 90
        0
280
     0
281
     0
  0
CLASS
  1
LWPOLYLINE
  2
AcDbPolyline
  3
AutoCAD 2000
 90
        0
280
     0
281
     1
  0
CLASS
  1
HATCH
  2
AcDbHatch
  3
AutoCAD 2000
 90
        0
280
     0
281
     1
  0
CLASS
  1
XRECORD
  2
AcDbXrecord
  3
AutoCAD 2000
 90
        0
280
     0
281
     0
  0
CLASS
  1
LONG_TRANSACTION
  2
AcDbLongTransaction
  3
AutoCAD 2000
 90
        0
280
     0
281
     0
  0
CLASS
  1
LWPOLYLINE
  2
AcDbPolyline
  3
AutoCAD 2000
 90
        0
280
     0
281
     1
  0
CLASS
  1
HATCH
  2
AcDbHatch
  3
AutoCAD 2000
 90
        0
280
     0
281
     1
  0
CLASS
  1
XRECORD
  2
AcDbXrecord
  3
AutoCAD 2000
 90
        0
280
     0
281
     0
  0
ENDSEC
  0
SECTION
  2
TABLES
  0
TABLE
  2
VPORT
  5
8
330
0
100
AcDbSymbolTable
 70
     2
  0
VPORT
  5
B00
330
8
100
AcDbSymbolTableRecord
100
AcDbViewportTableRecord
  2
*ACTIVE
 70
     0
 10
0.0
 20
0.0
 11
1.0
 21
1.0
 12
424.6891234760687
 22
284.8193122236299
 13
0.0
 23
0.0
 14
5.0
 24
5.0
 15
0.0
 25
0.0
 16
0.0
 26
0.0
 36
1.0
 17
0.0
 27
0.0
 37
0.0
 40
660.2484359248657
 41
1.795454545454545
 42
50.0
 43
0.0
 44
0.0
 50
0.0
 51
0.0
 71
     0
 72
   100
 73
     1
 74
     0
 75
     0
 76
     0
 77
     0
 78
     0
  0
ENDTAB
  0
TABLE
  2
LTYPE
  5
5
330
0
100
AcDbSymbolTable
 70
     3
  0
LTYPE
  5
14
330
5
100
AcDbSymbolTableRecord
100
AcDbLinetypeTableRecord
  2
BYBLOCK
 70
     0
  3

 72
    65
 73
     0
 40
0.0
  0
LTYPE
  5
15
330
5
100
AcDbSymbolTableRecord
100
AcDbLinetypeTableRecord
  2
BYLAYER
 70
     0
  3

 72
    65
 73
     0
 40
0.0
  0
LTYPE
  5
16
330
5
100
AcDbSymbolTableRecord
100
AcDbLinetypeTableRecord
  2
CONTINUOUS
 70
     0
  3
Solid line
 72
    65
 73
     0
 40
0.0
  0
LTYPE
  5
115
330
5
100
AcDbSymbolTableRecord
100
AcDbLinetypeTableRecord
  2
PHANTOM
 70
     0
  3
______  __  __  ______  __  __  ______  __  __ 
 72
    65
 73
     6
 40
2.5
 49
1.25
 74
     0
 49
-0.25
 74
     0
 49
0.25
 74
     0
 49
-0.25
 74
     0
 49
0.25
 74
     0
 49
-0.25
 74
     0
  0
LTYPE
  5
135
330
5
100
AcDbSymbolTableRecord
100
AcDbLinetypeTableRecord
  2
CENTER
 70
     0
  3
____ _ ____ _ ____ _ ____ _ ____ _ ____ _ ____ 
 72
    65
 73
     4
 40
2.0
 49
1.25
 74
     0
 49
-0.25
 74
     0
 49
0.25
 74
     0
 49
-0.25
 74
     0
  0
ENDTAB
  0
TABLE
  2
LAYER
  5
2
330
0
100
AcDbSymbolTable
 70
     9
  0
LAYER
  5
F
330
2
100
AcDbSymbolTableRecord
100
AcDbLayerTableRecord
  2
0
 70
     0
 62
     7
  6
CONTINUOUS
  0
LAYER
  5
62
330
2
100
AcDbSymbolTableRecord
100
AcDbLayerTableRecord
  2
VIEWPORT
 70
     0
 62
     7
  6
CONTINUOUS
  0
LAYER
  5
65
330
2
100
AcDbSymbolTableRecord
100
AcDbLayerTableRecord
  2
ZUWAKU
 70
     0
 62
     7
  6
CONTINUOUS
  0
LAYER
  5
143
330
2
100
AcDbSymbolTableRecord
100
AcDbLayerTableRecord
  2
SEIHIN
 70
     0
 62
     3
  6
CONTINUOUS
  0
LAYER
  5
144
330
2
100
AcDbSymbolTableRecord
100
AcDbLayerTableRecord
  2
SUNPOU
 70
     0
 62
     4
  6
CONTINUOUS
  0
LAYER
  5
145
330
2
100
AcDbSymbolTableRecord
100
AcDbLayerTableRecord
  2
CENTER_L
 70
     0
 62
     1
  6
CENTER
  0
LAYER
  5
146
330
2
100
AcDbSymbolTableRecord
100
AcDbLayerTableRecord
  2
NOKITOI
 70
     0
 62
     8
  6
PHANTOM
  0
LAYER
  5
6B3
330
2
100
AcDbSymbolTableRecord
100
AcDbLayerTableRecord
  2
DEFPOINTS
 70
     0
 62
     7
  6
CONTINUOUS
  0
LAYER
  5
98B
330
2
100
AcDbSymbolTableRecord
100
AcDbLayerTableRecord
  2
MOJI
 70
     0
 62
     2
  6
CONTINUOUS
  0
ENDTAB
  0
TABLE
  2
STYLE
  5
3
330
0
100
AcDbSymbolTable
 70
     2
  0
STYLE
  5
10
330
3
100
AcDbSymbolTableRecord
100
AcDbTextStyleTableRecord
  2
STANDARD
 70
     0
 40
0.0
 41
1.0
 50
0.0
 71
     0
 42
6.0
  3
TXT
  4
bigfont.shx
  0
STYLE
  5
98C
330
3
100
AcDbSymbolTableRecord
100
AcDbTextStyleTableRecord
  2
ｽﾀｲﾙ1
 70
     0
 40
0.0
 41
1.0
 50
0.0
 71
     0
 42
2.5
  3
MS PGothic.ttf
  4

1001
ACAD
1000
MS PGothic
1071
    32818
  0
ENDTAB
  0
TABLE
  2
VIEW
  5
6
330
0
100
AcDbSymbolTable
 70
     0
  0
ENDTAB
  0
TABLE
  2
UCS
  5
7
330
0
100
AcDbSymbolTable
 70
     0
  0
ENDTAB
  0
TABLE
  2
APPID
  5
9
330
0
100
AcDbSymbolTable
 70
     1
  0
APPID
  5
11
330
9
100
AcDbSymbolTableRecord
100
AcDbRegAppTableRecord
  2
ACAD
 70
     0
  0
ENDTAB
  0
TABLE
  2
DIMSTYLE
  5
A
330
0
100
AcDbSymbolTable
 70
     1
  0
DIMSTYLE
105
1D
102
{ACAD_REACTORS
330
6B8
330
6C7
330
6D6
330
6E3
330
6F0
330
6FD
330
752
330
75F
330
770
330
77D
330
78A
330
797
330
7A6
330
802
330
80F
330
822
102
}
330
A
100
AcDbSymbolTableRecord
100
AcDbDimStyleTableRecord
  2
STANDARD
 70
     0
  3

  4

  5

  6

  7

 40
1.0
 41
0.18
 42
0.0625
 43
0.38
 44
0.18
 45
0.0
 46
0.0
 47
0.0
 48
0.0
140
0.18
141
0.09
142
0.0
143
25.4
144
1.0
145
0.0
146
1.0
147
0.09
 71
     0
 72
     0
 73
     1
 74
     1
 75
     0
 76
     0
 77
     0
 78
     0
170
     0
171
     2
172
     0
173
     0
174
     0
175
     0
176
     0
177
     0
178
     0
270
     2
271
     4
272
     4
273
     2
274
     2
340
10
275
     0
280
     0
281
     0
282
     0
283
     1
284
     0
285
     0
286
     0
287
     3
288
     0
  0
ENDTAB
  0
TABLE
  2
BLOCK_RECORD
  5
1
330
0
100
AcDbSymbolTable
 70
    17
  0
BLOCK_RECORD
  5
1A
102
{ACAD_XDICTIONARY
360
8A7
102
}
330
1
100
AcDbSymbolTableRecord
100
AcDbBlockTableRecord
  2
*MODEL_SPACE
  0
BLOCK_RECORD
  5
17
102
{ACAD_XDICTIONARY
360
8A5
102
}
330
1
100
AcDbSymbolTableRecord
100
AcDbBlockTableRecord
  2
*PAPER_SPACE
  0
BLOCK_RECORD
  5
6D
330
1
100
AcDbSymbolTableRecord
100
AcDbBlockTableRecord
  2
_OPEN
  0
BLOCK_RECORD
  5
6A9
330
1
100
AcDbSymbolTableRecord
100
AcDbBlockTableRecord
  2
*D1
  0
BLOCK_RECORD
  5
6B9
330
1
100
AcDbSymbolTableRecord
100
AcDbBlockTableRecord
  2
*D2
  0
BLOCK_RECORD
  5
6C8
330
1
100
AcDbSymbolTableRecord
100
AcDbBlockTableRecord
  2
*D3
  0
BLOCK_RECORD
  5
6D7
330
1
100
AcDbSymbolTableRecord
100
AcDbBlockTableRecord
  2
*D4
  0
BLOCK_RECORD
  5
6E4
330
1
100
AcDbSymbolTableRecord
100
AcDbBlockTableRecord
  2
*D5
  0
BLOCK_RECORD
  5
6F1
330
1
100
AcDbSymbolTableRecord
100
AcDbBlockTableRecord
  2
*D6
  0
BLOCK_RECORD
  5
746
330
1
100
AcDbSymbolTableRecord
100
AcDbBlockTableRecord
  2
*D7
  0
BLOCK_RECORD
  5
753
330
1
100
AcDbSymbolTableRecord
100
AcDbBlockTableRecord
  2
*D8
  0
BLOCK_RECORD
  5
762
330
1
100
AcDbSymbolTableRecord
100
AcDbBlockTableRecord
  2
*D9
  0
BLOCK_RECORD
  5
771
330
1
100
AcDbSymbolTableRecord
100
AcDbBlockTableRecord
  2
*D10
  0
BLOCK_RECORD
  5
77E
330
1
100
AcDbSymbolTableRecord
100
AcDbBlockTableRecord
  2
*D11
  0
BLOCK_RECORD
  5
78B
330
1
100
AcDbSymbolTableRecord
100
AcDbBlockTableRecord
  2
*D12
  0
BLOCK_RECORD
  5
798
330
1
100
AcDbSymbolTableRecord
100
AcDbBlockTableRecord
  2
*D13
  0
BLOCK_RECORD
  5
7F4
330
1
100
AcDbSymbolTableRecord
100
AcDbBlockTableRecord
  2
*D14
  0
BLOCK_RECORD
  5
803
330
1
100
AcDbSymbolTableRecord
100
AcDbBlockTableRecord
  2
*D15
  0
BLOCK_RECORD
  5
814
330
1
100
AcDbSymbolTableRecord
100
AcDbBlockTableRecord
  2
*D16
  0
ENDTAB
  0
ENDSEC
  0
SECTION
  2
BLOCKS
  0
BLOCK
  5
1B
330
1A
100
AcDbEntity
  8
0
100
AcDbBlockBegin
  2
*MODEL_SPACE
 70
     0
 10
0.0
 20
0.0
 30
0.0
  3
*MODEL_SPACE
  1

  0
ENDBLK
  5
1C
330
1A
100
AcDbEntity
  8
0
100
AcDbBlockEnd
  0
BLOCK
  5
18
330
17
100
AcDbEntity
 67
     1
  8
0
100
AcDbBlockBegin
  2
*PAPER_SPACE
 70
     0
 10
0.0
 20
0.0
 30
0.0
  3
*PAPER_SPACE
  1

  0
ENDBLK
  5
19
330
17
100
AcDbEntity
 67
     1
  8
0
100
AcDbBlockEnd
  0
BLOCK
  5
6E
330
6D
100
AcDbEntity
  8
0
100
AcDbBlockBegin
  2
_OPEN
 70
     0
 10
0.0
 20
0.0
 30
0.0
  3
_OPEN
  1

  0
LINE
  5
6F
330
6D
100
AcDbEntity
  8
0
  6
BYBLOCK
 62
     0
100
AcDbLine
 10
-1.0
 20
0.1666666666666666
 30
0.0
 11
0.0
 21
0.0
 31
0.0
  0
LINE
  5
70
330
6D
100
AcDbEntity
  8
0
  6
BYBLOCK
 62
     0
100
AcDbLine
 10
0.0
 20
0.0
 30
0.0
 11
-1.0
 21
-0.1666666666666666
 31
0.0
  0
LINE
  5
71
330
6D
100
AcDbEntity
  8
0
  6
BYBLOCK
 62
     0
100
AcDbLine
 10
0.0
 20
0.0
 30
0.0
 11
-1.0
 21
0.0
 31
0.0
  0
ENDBLK
  5
72
330
6D
100
AcDbEntity
  8
0
100
AcDbBlockEnd
  0
BLOCK
  5
739
330
6A9
100
AcDbEntity
  8
0
100
AcDbBlockBegin
  2
*D1
 70
     1
 10
0.0
 20
0.0
 30
0.0
  3
*D1
  1

  0
LINE
  5
8B6
330
6A9
100
AcDbEntity
  8
SUNPOU
 62
     4
100
AcDbLine
 10
554.8217698059159
 20
383.713792286566
 30
0.0
 11
520.0069221066552
 21
366.1656644275441
 31
0.0
  0
LINE
  5
8B7
330
6A9
100
AcDbEntity
  8
SUNPOU
 62
     4
100
AcDbLine
 10
550.204522282597
 20
389.2309873332041
 30
0.0
 11
516.8540028196647
 21
372.4209416666029
 31
0.0
  0
LINE
  5
8B8
330
6A9
100
AcDbEntity
  8
SUNPOU
 62
     4
100
AcDbLine
 10
525.8365480241506
 20
361.2651071467784
 30
0.0
 11
528.9872371114126
 21
355.0142545429005
 31
0.0
  0
LINE
  5
8B9
330
6A9
100
AcDbEntity
  8
SUNPOU
 62
     4
100
AcDbLine
 10
516.382250562636
 20
380.0220895935932
 30
0.0
 11
509.6307739470745
 21
393.4167737447602
 31
0.0
  0
LINE
  5
8BA
330
6A9
100
AcDbEntity
  8
SUNPOU
 62
     4
100
AcDbLine
 10
522.6858589368886
 20
367.5159597506564
 30
0.0
 11
519.5329396498981
 21
373.7712369897152
 31
0.0
  0
INSERT
  5
8BB
330
6A9
100
AcDbEntity
  8
SUNPOU
 62
     4
100
AcDbBlockReference
  2
_OPEN
 10
522.6858589368886
 20
367.5159597506564
 30
0.0
 41
7.0
 42
7.0
 43
7.0
 50
116.75
  0
INSERT
  5
8BC
330
6A9
100
AcDbEntity
  8
SUNPOU
 62
     4
100
AcDbBlockReference
  2
_OPEN
 10
519.5329396498981
 20
373.7712369897152
 30
0.0
 41
7.0
 42
7.0
 43
7.0
 50
296.75
  0
MTEXT
  5
8BD
330
6A9
100
AcDbEntity
  8
SUNPOU
 62
     4
100
AcDbMText
 10
515.8960624282799
 20
392.095350176303
 30
0.0
 40
6.0
 41
0.0
 71
     5
 72
     5
  1
\A1;7
 11
0.4500984410374353
 21
-0.8929789434111368
 31
0.0
1001
ACAD
1000
MTEXTBEGIN
1070
    73
1070
     1
1070
    44
1040
1.0
1070
    74
1070
     0
1000
MTEXTEND
1000
MTEXTBEGIN
1070
    73
1070
     1
1070
    44
1040
1.0
1070
    74
1070
     0
1000
MTEXTEND
  0
POINT
  5
8BE
330
6A9
100
AcDbEntity
  8
DEFPOINTS
 62
     0
100
AcDbPoint
 10
560.1796434663826
 20
386.4143829327906
 30
0.0
  0
POINT
  5
8BF
330
6A9
100
AcDbEntity
  8
DEFPOINTS
 62
     0
100
AcDbPoint
 10
555.5623959430639
 20
391.9315779794287
 30
0.0
  0
POINT
  5
8C0
330
6A9
100
AcDbEntity
  8
DEFPOINTS
 62
     0
100
AcDbPoint
 10
519.5329396498981
 20
373.7712369897152
 30
0.0
  0
ENDBLK
  5
745
330
6A9
100
AcDbEntity
  8
0
100
AcDbBlockEnd
  0
BLOCK
  5
72C
330
6B9
100
AcDbEntity
  8
0
100
AcDbBlockBegin
  2
*D2
 70
     1
 10
0.0
 20
0.0
 30
0.0
  3
*D2
  1

  0
LINE
  5
8C1
330
6B9
100
AcDbEntity
  8
SUNPOU
 62
     4
100
AcDbLine
 10
556.8132698059158
 20
378.0016922865661
 30
0.0
 11
509.8582455879721
 21
354.3344117137016
 31
0.0
  0
LINE
  5
8C2
330
6B9
100
AcDbEntity
  8
SUNPOU
 62
     4
100
AcDbLine
 10
551.0988098036688
 20
387.4424122910603
 30
0.0
 11
504.9060673261169
 21
364.1593533457194
 31
0.0
  0
LINE
  5
8C3
330
6B9
100
AcDbEntity
  8
SUNPOU
 62
     4
100
AcDbLine
 10
515.6878715054675
 20
349.4338544329359
 30
0.0
 11
518.8385605927297
 21
343.1830018290579
 31
0.0
  0
LINE
  5
8C4
330
6B9
100
AcDbEntity
  8
SUNPOU
 62
     4
100
AcDbLine
 10
504.4343150690883
 20
371.7605012727096
 30
0.0
 11
501.2836259818262
 21
378.0113538765876
 31
0.0
  0
LINE
  5
8C5
330
6B9
100
AcDbEntity
  8
SUNPOU
 62
     4
100
AcDbLine
 10
512.5371824182056
 20
355.6847070368139
 30
0.0
 11
507.5850041563503
 21
365.5096486688317
 31
0.0
  0
INSERT
  5
8C6
330
6B9
100
AcDbEntity
  8
SUNPOU
 62
     4
100
AcDbBlockReference
  2
_OPEN
 10
512.5371824182056
 20
355.6847070368139
 30
0.0
 41
7.0
 42
7.0
 43
7.0
 50
116.75
  0
INSERT
  5
8C7
330
6B9
100
AcDbEntity
  8
SUNPOU
 62
     4
100
AcDbBlockReference
  2
_OPEN
 10
507.5850041563503
 20
365.5096486688317
 30
0.0
 41
7.0
 42
7.0
 43
7.0
 50
296.75
  0
MTEXT
  5
8C8
330
6B9
100
AcDbEntity
  8
SUNPOU
 62
     4
100
AcDbMText
 10
514.5259880043336
 20
362.84767005801
 30
0.0
 40
6.0
 41
0.0
 71
     5
 72
     5
  1
\A1;11
 11
0.4500984410374353
 21
-0.8929789434111368
 31
0.0
1001
ACAD
1000
MTEXTBEGIN
1070
    73
1070
     1
1070
    44
1040
1.0
1070
    74
1070
     0
1000
MTEXTEND
1000
MTEXTBEGIN
1070
    73
1070
     1
1070
    44
1040
1.0
1070
    74
1070
     0
1000
MTEXTEND
  0
POINT
  5
8C9
330
6B9
100
AcDbEntity
  8
DEFPOINTS
 62
     0
100
AcDbPoint
 10
562.1711434663827
 20
380.7022829327907
 30
0.0
  0
POINT
  5
8CA
330
6B9
100
AcDbEntity
  8
DEFPOINTS
 62
     0
100
AcDbPoint
 10
556.4566834641356
 20
390.143002937285
 30
0.0
  0
POINT
  5
8CB
330
6B9
100
AcDbEntity
  8
DEFPOINTS
 62
     0
100
AcDbPoint
 10
507.5850041563503
 20
365.5096486688317
 30
0.0
  0
ENDBLK
  5
738
330
6B9
100
AcDbEntity
  8
0
100
AcDbBlockEnd
  0
BLOCK
  5
71F
330
6C8
100
AcDbEntity
  8
0
100
AcDbBlockBegin
  2
*D3
 70
     1
 10
0.0
 20
0.0
 30
0.0
  3
*D3
  1

  0
LINE
  5
8CC
330
6C8
100
AcDbEntity
  8
SUNPOU
 62
     4
100
AcDbLine
 10
564.4756698059161
 20
365.0620922865662
 30
0.0
 11
529.4593407597329
 21
347.4124094683628
 31
0.0
  0
LINE
  5
8CD
330
6C8
100
AcDbEntity
  8
SUNPOU
 62
     4
100
AcDbLine
 10
565.8567860411527
 20
357.9264598160928
 30
0.0
 11
532.6071527315321
 21
341.1672649569635
 31
0.0
  0
LINE
  5
8CE
330
6C8
100
AcDbEntity
  8
SUNPOU
 62
     4
100
AcDbLine
 10
528.9875885027042
 20
355.0135573953531
 30
0.0
 11
525.8368994154421
 21
361.264409999231
 31
0.0
  0
LINE
  5
8CF
330
6C8
100
AcDbEntity
  8
SUNPOU
 62
     4
100
AcDbLine
 10
538.4367786490277
 20
336.2667076761978
 30
0.0
 11
545.1882552645892
 21
322.8720235250307
 31
0.0
  0
LINE
  5
8D0
330
6C8
100
AcDbEntity
  8
SUNPOU
 62
     4
100
AcDbLine
 10
532.1382775899662
 20
348.7627047914751
 30
0.0
 11
535.2860895617656
 21
342.5175602800758
 31
0.0
  0
INSERT
  5
8D1
330
6C8
100
AcDbEntity
  8
SUNPOU
 62
     4
100
AcDbBlockReference
  2
_OPEN
 10
532.1382775899662
 20
348.7627047914751
 30
0.0
 41
7.0
 42
7.0
 43
7.0
 50
296.75
  0
INSERT
  5
8D2
330
6C8
100
AcDbEntity
  8
SUNPOU
 62
     4
100
AcDbBlockReference
  2
_OPEN
 10
535.2860895617656
 20
342.5175602800758
 30
0.0
 41
7.0
 42
7.0
 43
7.0
 50
116.75
  0
MTEXT
  5
8D3
330
6C8
100
AcDbEntity
  8
SUNPOU
 62
     4
100
AcDbMText
 10
547.8527562174952
 20
328.6944315038625
 30
0.0
 40
6.0
 41
0.0
 71
     5
 72
     5
  1
\A1;7
 11
0.4500984410374353
 21
-0.8929789434111368
 31
0.0
1001
ACAD
1000
MTEXTBEGIN
1070
    73
1070
     1
1070
    44
1040
1.0
1070
    74
1070
     0
1000
MTEXTEND
1000
MTEXTBEGIN
1070
    73
1070
     1
1070
    44
1040
1.0
1070
    74
1070
     0
1000
MTEXTEND
  0
POINT
  5
8D4
330
6C8
100
AcDbEntity
  8
DEFPOINTS
 62
     0
100
AcDbPoint
 10
569.8335434663829
 20
367.7626829327908
 30
0.0
  0
POINT
  5
8D5
330
6C8
100
AcDbEntity
  8
DEFPOINTS
 62
     0
100
AcDbPoint
 10
571.2146597016195
 20
360.6270504623174
 30
0.0
  0
POINT
  5
8D6
330
6C8
100
AcDbEntity
  8
DEFPOINTS
 62
     0
100
AcDbPoint
 10
535.2860895617656
 20
342.5175602800758
 30
0.0
  0
ENDBLK
  5
72B
330
6C8
100
AcDbEntity
  8
0
100
AcDbBlockEnd
  0
BLOCK
  5
714
330
6D7
100
AcDbEntity
  8
0
100
AcDbBlockBegin
  2
*D4
 70
     1
 10
0.0
 20
0.0
 30
0.0
  3
*D4
  1

  0
LINE
  5
8D7
330
6D7
100
AcDbEntity
  8
SUNPOU
 62
     4
100
AcDbLine
 10
550.204522282597
 20
389.2309873332041
 30
0.0
 11
491.4004429716577
 21
359.5912913249304
 31
0.0
  0
LINE
  5
8D8
330
6D7
100
AcDbEntity
  8
SUNPOU
 62
     4
100
AcDbLine
 10
565.8567860411527
 20
357.9264598160928
 30
0.0
 11
507.1535928835253
 21
328.337614615291
 31
0.0
  0
LINE
  5
8D9
330
6D7
100
AcDbEntity
  8
SUNPOU
 62
     4
100
AcDbLine
 10
497.2300688891531
 20
354.6907340441648
 30
0.0
 11
506.6818406264966
 21
335.9387625422813
 31
0.0
  0
INSERT
  5
8DA
330
6D7
100
AcDbEntity
  8
SUNPOU
 62
     4
100
AcDbBlockReference
  2
_OPEN
 10
494.0793798018911
 20
360.9415866480428
 30
0.0
 41
7.0
 42
7.0
 43
7.0
 50
116.75
  0
INSERT
  5
8DB
330
6D7
100
AcDbEntity
  8
SUNPOU
 62
     4
100
AcDbBlockReference
  2
_OPEN
 10
509.8325297137586
 20
329.6879099384034
 30
0.0
 41
7.0
 42
7.0
 43
7.0
 50
296.75
  0
MTEXT
  5
8DC
330
6D7
100
AcDbEntity
  8
SUNPOU
 62
     4
100
AcDbMText
 10
506.4208494748806
 20
347.5652404984102
 30
0.0
 40
6.0
 41
0.0
 71
     5
 72
     5
  1
\A1;35
 11
0.4500984410374353
 21
-0.8929789434111368
 31
0.0
1001
ACAD
1000
MTEXTBEGIN
1070
    73
1070
     1
1070
    44
1040
1.0
1070
    74
1070
     0
1000
MTEXTEND
1000
MTEXTBEGIN
1070
    73
1070
     1
1070
    44
1040
1.0
1070
    74
1070
     0
1000
MTEXTEND
  0
POINT
  5
8DD
330
6D7
100
AcDbEntity
  8
DEFPOINTS
 62
     0
100
AcDbPoint
 10
555.5623959430639
 20
391.9315779794287
 30
0.0
  0
POINT
  5
8DE
330
6D7
100
AcDbEntity
  8
DEFPOINTS
 62
     0
100
AcDbPoint
 10
571.2146597016195
 20
360.6270504623174
 30
0.0
  0
POINT
  5
8DF
330
6D7
100
AcDbEntity
  8
DEFPOINTS
 62
     0
100
AcDbPoint
 10
509.8325297137586
 20
329.6879099384034
 30
0.0
  0
ENDBLK
  5
71E
330
6D7
100
AcDbEntity
  8
0
100
AcDbBlockEnd
  0
BLOCK
  5
709
330
6E4
100
AcDbEntity
  8
0
100
AcDbBlockBegin
  2
*D5
 70
     1
 10
0.0
 20
0.0
 30
0.0
  3
*D5
  1

  0
LINE
  5
8E0
330
6E4
100
AcDbEntity
  8
SUNPOU
 62
     4
100
AcDbLine
 10
559.039652820158
 20
396.6731565932575
 30
0.0
 11
543.6307623455023
 21
427.2438350952334
 31
0.0
  0
LINE
  5
8E1
330
6E4
100
AcDbEntity
  8
SUNPOU
 62
     4
100
AcDbLine
 10
591.2390034074441
 20
412.7729554179278
 30
0.0
 11
575.7778582329859
 21
443.4473053445599
 31
0.0
  0
LINE
  5
8E2
330
6E4
100
AcDbEntity
  8
SUNPOU
 62
     4
100
AcDbLine
 10
551.2319102724926
 20
427.7155873522621
 30
0.0
 11
570.8773009522202
 21
437.6176794270644
 31
0.0
  0
INSERT
  5
8E3
330
6E4
100
AcDbEntity
  8
SUNPOU
 62
     4
100
AcDbBlockReference
  2
_OPEN
 10
544.9810576686146
 20
424.5648982650001
 30
0.0
 41
7.0
 42
7.0
 43
7.0
 50
206.7499999999999
  0
INSERT
  5
8E4
330
6E4
100
AcDbEntity
  8
SUNPOU
 62
     4
100
AcDbBlockReference
  2
_OPEN
 10
577.1281535560982
 20
440.7683685143265
 30
0.0
 41
7.0
 42
7.0
 43
7.0
 50
26.74999999999998
  0
MTEXT
  5
8E5
330
6E4
100
AcDbEntity
  8
SUNPOU
 62
     4
100
AcDbMText
 10
558.8041134071693
 20
437.131528106719
 30
0.0
 40
6.0
 41
0.0
 71
     5
 72
     5
  1
\A1;36
 11
0.8929789434111372
 21
0.4500984410374349
 31
0.0
1001
ACAD
1000
MTEXTBEGIN
1070
    73
1070
     1
1070
    44
1040
1.0
1070
    74
1070
     0
1000
MTEXTEND
1000
MTEXTBEGIN
1070
    73
1070
     1
1070
    44
1040
1.0
1070
    74
1070
     0
1000
MTEXTEND
  0
POINT
  5
8E6
330
6E4
100
AcDbEntity
  8
DEFPOINTS
 62
     0
100
AcDbPoint
 10
561.7402434663826
 20
391.3152829327906
 30
0.0
  0
POINT
  5
8E7
330
6E4
100
AcDbEntity
  8
DEFPOINTS
 62
     0
100
AcDbPoint
 10
593.9395940536687
 20
407.415081757461
 30
0.0
  0
POINT
  5
8E8
330
6E4
100
AcDbEntity
  8
DEFPOINTS
 62
     0
100
AcDbPoint
 10
577.1281535560982
 20
440.7683685143265
 30
0.0
  0
ENDBLK
  5
713
330
6E4
100
AcDbEntity
  8
0
100
AcDbBlockEnd
  0
BLOCK
  5
6FE
330
6F1
100
AcDbEntity
  8
0
100
AcDbBlockBegin
  2
*D6
 70
     1
 10
0.0
 20
0.0
 30
0.0
  3
*D6
  1

  0
LINE
  5
8E9
330
6F1
100
AcDbEntity
  8
SUNPOU
 62
     4
100
AcDbLine
 10
552.8618052968393
 20
397.2894516398956
 30
0.0
 11
532.8483251729962
 21
436.9954686031554
 31
0.0
  0
LINE
  5
8EA
330
6F1
100
AcDbEntity
  8
SUNPOU
 62
     4
100
AcDbLine
 10
594.4523437072698
 20
418.0855748190348
 30
0.0
 11
574.3716475039978
 21
457.9249460401992
 31
0.0
  0
LINE
  5
8EB
330
6F1
100
AcDbEntity
  8
SUNPOU
 62
     4
100
AcDbLine
 10
540.4494730999865
 20
437.4672208601839
 30
0.0
 11
569.4710902232323
 21
452.0953201227039
 31
0.0
  0
INSERT
  5
8EC
330
6F1
100
AcDbEntity
  8
SUNPOU
 62
     4
100
AcDbBlockReference
  2
_OPEN
 10
534.1986204961085
 20
434.3165317729219
 30
0.0
 41
7.0
 42
7.0
 43
7.0
 50
206.7499999999999
  0
INSERT
  5
8ED
330
6F1
100
AcDbEntity
  8
SUNPOU
 62
     4
100
AcDbBlockReference
  2
_OPEN
 10
575.7219428271103
 20
455.2460092099659
 30
0.0
 41
7.0
 42
7.0
 43
7.0
 50
26.74999999999998
  0
MTEXT
  5
8EE
330
6F1
100
AcDbEntity
  8
SUNPOU
 62
     4
100
AcDbMText
 10
552.7097894564223
 20
449.2461652084996
 30
0.0
 40
6.0
 41
0.0
 71
     5
 72
     5
  1
\A1;46
 11
0.8929789434111372
 21
0.4500984410374349
 31
0.0
1001
ACAD
1000
MTEXTBEGIN
1070
    73
1070
     1
1070
    44
1040
1.0
1070
    74
1070
     0
1000
MTEXTEND
1000
MTEXTBEGIN
1070
    73
1070
     1
1070
    44
1040
1.0
1070
    74
1070
     0
1000
MTEXTEND
  0
POINT
  5
8EF
330
6F1
100
AcDbEntity
  8
DEFPOINTS
 62
     0
100
AcDbPoint
 10
555.5623959430639
 20
391.9315779794287
 30
0.0
  0
POINT
  5
8F0
330
6F1
100
AcDbEntity
  8
DEFPOINTS
 62
     0
100
AcDbPoint
 10
597.1529343534943
 20
412.727701158568
 30
0.0
  0
POINT
  5
8F1
330
6F1
100
AcDbEntity
  8
DEFPOINTS
 62
     0
100
AcDbPoint
 10
575.7219428271103
 20
455.2460092099659
 30
0.0
  0
ENDBLK
  5
708
330
6F1
100
AcDbEntity
  8
0
100
AcDbBlockEnd
  0
BLOCK
  5
747
330
746
100
AcDbEntity
  8
0
100
AcDbBlockBegin
  2
*D7
 70
     1
 10
0.0
 20
0.0
 30
0.0
  3
*D7
  1

  0
LINE
  5
8F2
330
746
100
AcDbEntity
  8
SUNPOU
 62
     4
100
AcDbLine
 10
412.7445794190397
 20
320.5235188924646
 30
0.0
 11
423.2114082329049
 21
325.7569500169539
 31
0.0
  0
LINE
  5
8F3
330
746
100
AcDbEntity
  8
SUNPOU
 62
     4
100
AcDbLine
 10
428.3970794190398
 20
289.2186188924646
 30
0.0
 11
438.863908232905
 21
294.4520500169539
 31
0.0
  0
LINE
  5
8F4
330
746
100
AcDbEntity
  8
SUNPOU
 62
     4
100
AcDbLine
 10
423.6586315427
 20
318.15431946489
 30
0.0
 11
433.0501252056897
 21
299.3713921388705
 31
0.0
  0
INSERT
  5
8F5
330
746
100
AcDbEntity
  8
SUNPOU
 62
     4
100
AcDbBlockReference
  2
_OPEN
 10
420.5281283741948
 20
324.4153058018802
 30
0.0
 41
7.0
 42
7.0
 43
7.0
 50
116.5651243870139
  0
INSERT
  5
8F6
330
746
100
AcDbEntity
  8
SUNPOU
 62
     4
100
AcDbBlockReference
  2
_OPEN
 10
436.1806283741949
 20
293.1104058018803
 30
0.0
 41
7.0
 42
7.0
 43
7.0
 50
296.5651243870139
  0
MTEXT
  5
8F7
330
746
100
AcDbEntity
  8
SUNPOU
 62
     4
100
AcDbMText
 10
432.826511472045
 20
310.9989294936698
 30
0.0
 40
6.0
 41
0.0
 71
     5
 72
     5
  1
\A1;35
 11
0.4472147383578965
 21
-0.894426619570034
 31
0.0
1001
ACAD
1000
MTEXTBEGIN
1070
    73
1070
     1
1070
    44
1040
1.0
1070
    74
1070
     0
1000
MTEXTEND
1000
MTEXTBEGIN
1070
    73
1070
     1
1070
    44
1040
1.0
1070
    74
1070
     0
1000
MTEXTEND
  0
POINT
  5
8F8
330
746
100
AcDbEntity
  8
DEFPOINTS
 62
     0
100
AcDbPoint
 10
407.3780197016195
 20
317.8402304623172
 30
0.0
  0
POINT
  5
8F9
330
746
100
AcDbEntity
  8
DEFPOINTS
 62
     0
100
AcDbPoint
 10
423.0305197016197
 20
286.5353304623173
 30
0.0
  0
POINT
  5
8FA
330
746
100
AcDbEntity
  8
DEFPOINTS
 62
     0
100
AcDbPoint
 10
436.1806283741949
 20
293.1104058018803
 30
0.0
  0
ENDBLK
  5
751
330
746
100
AcDbEntity
  8
0
100
AcDbBlockEnd
  0
BLOCK
  5
754
330
753
100
AcDbEntity
  8
0
100
AcDbBlockBegin
  2
*D8
 70
     1
 10
0.0
 20
0.0
 30
0.0
  3
*D8
  1

  0
LINE
  5
8FB
330
753
100
AcDbEntity
  8
SUNPOU
 62
     4
100
AcDbLine
 10
406.0363681940999
 20
333.9399486389767
 30
0.0
 11
443.5585934137014
 21
352.7010162366191
 31
0.0
  0
LINE
  5
8FC
330
753
100
AcDbEntity
  8
SUNPOU
 62
     4
100
AcDbLine
 10
428.3970054226994
 20
289.2185668850538
 30
0.0
 11
465.9192306423009
 21
307.9796344826962
 31
0.0
  0
LINE
  5
8FD
330
753
100
AcDbEntity
  8
SUNPOU
 62
     4
100
AcDbLine
 10
444.005799713024
 20
345.0983846839364
 30
0.0
 11
460.1054586218599
 21
312.8989896126231
 31
0.0
  0
INSERT
  5
8FE
330
753
100
AcDbEntity
  8
SUNPOU
 62
     4
100
AcDbBlockReference
  2
_OPEN
 10
440.8753105531422
 20
351.3593780252412
 30
0.0
 41
7.0
 42
7.0
 43
7.0
 50
116.5649961908308
  0
INSERT
  5
8FF
330
753
100
AcDbEntity
  8
SUNPOU
 62
     4
100
AcDbBlockReference
  2
_OPEN
 10
463.2359477817417
 20
306.6379962713183
 30
0.0
 41
7.0
 42
7.0
 43
7.0
 50
296.5649961908308
  0
MTEXT
  5
900
330
753
100
AcDbEntity
  8
SUNPOU
 62
     4
100
AcDbMText
 10
456.527767268374
 20
331.2347508339096
 30
0.0
 40
6.0
 41
0.0
 71
     5
 72
     5
  1
\A1;50
 11
0.4472127371259759
 21
-0.8944276201863921
 31
0.0
1001
ACAD
1000
MTEXTBEGIN
1070
    73
1070
     1
1070
    44
1040
1.0
1070
    74
1070
     0
1000
MTEXTEND
1000
MTEXTBEGIN
1070
    73
1070
     1
1070
    44
1040
1.0
1070
    74
1070
     0
1000
MTEXTEND
  0
POINT
  5
901
330
753
100
AcDbEntity
  8
DEFPOINTS
 62
     0
100
AcDbPoint
 10
400.6698024729815
 20
331.2566722162208
 30
0.0
  0
POINT
  5
902
330
753
100
AcDbEntity
  8
DEFPOINTS
 62
     0
100
AcDbPoint
 10
423.030439701581
 20
286.535290462298
 30
0.0
  0
POINT
  5
903
330
753
100
AcDbEntity
  8
DEFPOINTS
 62
     0
100
AcDbPoint
 10
463.2359477817417
 20
306.6379962713183
 30
0.0
  0
ENDBLK
  5
75E
330
753
100
AcDbEntity
  8
0
100
AcDbBlockEnd
  0
BLOCK
  5
85F
330
762
100
AcDbEntity
  8
0
100
AcDbBlockBegin
  2
*D9
 70
     1
 10
0.0
 20
0.0
 30
0.0
  3
*D9
  1

  0
LINE
  5
904
330
762
100
AcDbEntity
  8
SUNPOU
 62
     4
100
AcDbLine
 10
390.6699570138668
 20
313.9693932744539
 30
0.0
 11
390.6699570138668
 21
363.1456960367186
 31
0.0
  0
LINE
  5
905
330
762
100
AcDbEntity
  8
SUNPOU
 62
     4
100
AcDbLine
 10
400.6698024729816
 20
337.2566722162208
 30
0.0
 11
400.6698024729816
 21
363.1456960367186
 31
0.0
  0
LINE
  5
906
330
762
100
AcDbEntity
  8
SUNPOU
 62
     4
100
AcDbLine
 10
407.6698024729816
 20
360.1456960367186
 30
0.0
 11
414.6698024729816
 21
360.1456960367186
 31
0.0
  0
LINE
  5
907
330
762
100
AcDbEntity
  8
SUNPOU
 62
     4
100
AcDbLine
 10
383.6699570138668
 20
360.1456960367186
 30
0.0
 11
365.6699570138667
 21
360.1456960367186
 31
0.0
  0
LINE
  5
908
330
762
100
AcDbEntity
  8
SUNPOU
 62
     4
100
AcDbLine
 10
400.6698024729816
 20
360.1456960367186
 30
0.0
 11
390.6699570138668
 21
360.1456960367186
 31
0.0
  0
INSERT
  5
909
330
762
100
AcDbEntity
  8
SUNPOU
 62
     4
100
AcDbBlockReference
  2
_OPEN
 10
400.6698024729816
 20
360.1456960367186
 30
0.0
 41
7.0
 42
7.0
 43
7.0
 50
180.0
  0
INSERT
  5
90A
330
762
100
AcDbEntity
  8
SUNPOU
 62
     4
100
AcDbBlockReference
  2
_OPEN
 10
390.6699570138668
 20
360.1456960367186
 30
0.0
 41
7.0
 42
7.0
 43
7.0
  0
MTEXT
  5
90B
330
762
100
AcDbEntity
  8
SUNPOU
 62
     4
100
AcDbMText
 10
371.1699570138668
 20
365.1456960367186
 30
0.0
 40
6.0
 41
0.0
 71
     5
 72
     5
  1
\A1;10
1001
ACAD
1000
MTEXTBEGIN
1070
    73
1070
     1
1070
    44
1040
1.0
1070
    74
1070
     0
1000
MTEXTEND
1000
MTEXTBEGIN
1070
    73
1070
     1
1070
    44
1040
1.0
1070
    74
1070
     0
1000
MTEXTEND
  0
POINT
  5
90C
330
762
100
AcDbEntity
  8
DEFPOINTS
 62
     0
100
AcDbPoint
 10
390.6699570138668
 20
307.9693932744539
 30
0.0
  0
POINT
  5
90D
330
762
100
AcDbEntity
  8
DEFPOINTS
 62
     0
100
AcDbPoint
 10
400.6698024729816
 20
331.2566722162208
 30
0.0
  0
POINT
  5
90E
330
762
100
AcDbEntity
  8
DEFPOINTS
 62
     0
100
AcDbPoint
 10
400.6698024729816
 20
360.1456960367186
 30
0.0
  0
ENDBLK
  5
86B
330
762
100
AcDbEntity
  8
0
100
AcDbBlockEnd
  0
BLOCK
  5
772
330
771
100
AcDbEntity
  8
0
100
AcDbBlockBegin
  2
*D10
 70
     1
 10
0.0
 20
0.0
 30
0.0
  3
*D10
  1

  0
LINE
  5
90F
330
771
100
AcDbEntity
  8
SUNPOU
 62
     4
100
AcDbLine
 10
400.6698024729815
 20
337.2566722162208
 30
0.0
 11
400.6698024729815
 21
376.5407217266599
 31
0.0
  0
LINE
  5
910
330
771
100
AcDbEntity
  8
SUNPOU
 62
     4
100
AcDbLine
 10
290.6698197016194
 20
306.0450304623171
 30
0.0
 11
290.6698197016194
 21
376.5407217266599
 31
0.0
  0
LINE
  5
911
330
771
100
AcDbEntity
  8
SUNPOU
 62
     4
100
AcDbLine
 10
393.6698024729815
 20
373.5407217266599
 30
0.0
 11
297.6698197016194
 21
373.5407217266599
 31
0.0
  0
INSERT
  5
912
330
771
100
AcDbEntity
  8
SUNPOU
 62
     4
100
AcDbBlockReference
  2
_OPEN
 10
400.6698024729815
 20
373.5407217266599
 30
0.0
 41
7.0
 42
7.0
 43
7.0
  0
INSERT
  5
913
330
771
100
AcDbEntity
  8
SUNPOU
 62
     4
100
AcDbBlockReference
  2
_OPEN
 10
290.6698197016194
 20
373.5407217266599
 30
0.0
 41
7.0
 42
7.0
 43
7.0
 50
180.0
  0
MTEXT
  5
914
330
771
100
AcDbEntity
  8
SUNPOU
 62
     4
100
AcDbMText
 10
345.6698110873005
 20
378.5407217266599
 30
0.0
 40
6.0
 41
0.0
 71
     5
 72
     5
  1
\A1;110
1001
ACAD
1000
MTEXTBEGIN
1070
    73
1070
     1
1070
    44
1040
1.0
1070
    74
1070
     0
1000
MTEXTEND
1000
MTEXTBEGIN
1070
    73
1070
     1
1070
    44
1040
1.0
1070
    74
1070
     0
1000
MTEXTEND
  0
POINT
  5
915
330
771
100
AcDbEntity
  8
DEFPOINTS
 62
     0
100
AcDbPoint
 10
400.6698024729815
 20
331.2566722162208
 30
0.0
  0
POINT
  5
916
330
771
100
AcDbEntity
  8
DEFPOINTS
 62
     0
100
AcDbPoint
 10
290.6698197016194
 20
300.0450304623171
 30
0.0
  0
POINT
  5
917
330
771
100
AcDbEntity
  8
DEFPOINTS
 62
     0
100
AcDbPoint
 10
290.6698197016194
 20
373.5407217266599
 30
0.0
  0
ENDBLK
  5
77C
330
771
100
AcDbEntity
  8
0
100
AcDbBlockEnd
  0
BLOCK
  5
77F
330
77E
100
AcDbEntity
  8
0
100
AcDbBlockBegin
  2
*D11
 70
     1
 10
0.0
 20
0.0
 30
0.0
  3
*D11
  1

  0
LINE
  5
918
330
77E
100
AcDbEntity
  8
SUNPOU
 62
     4
100
AcDbLine
 10
273.5721985386047
 20
305.1450426038855
 30
0.0
 11
273.5721985386047
 21
389.5856433545871
 31
0.0
  0
LINE
  5
919
330
77E
100
AcDbEntity
  8
SUNPOU
 62
     4
100
AcDbLine
 10
400.6698024729816
 20
337.2566722162208
 30
0.0
 11
400.6698024729816
 21
389.5856433545871
 31
0.0
  0
LINE
  5
91A
330
77E
100
AcDbEntity
  8
SUNPOU
 62
     4
100
AcDbLine
 10
280.5721985386047
 20
386.5856433545871
 30
0.0
 11
393.6698024729816
 21
386.5856433545871
 31
0.0
  0
INSERT
  5
91B
330
77E
100
AcDbEntity
  8
SUNPOU
 62
     4
100
AcDbBlockReference
  2
_OPEN
 10
273.5721985386047
 20
386.5856433545871
 30
0.0
 41
7.0
 42
7.0
 43
7.0
 50
180.0
  0
INSERT
  5
91C
330
77E
100
AcDbEntity
  8
SUNPOU
 62
     4
100
AcDbBlockReference
  2
_OPEN
 10
400.6698024729816
 20
386.5856433545871
 30
0.0
 41
7.0
 42
7.0
 43
7.0
  0
MTEXT
  5
91D
330
77E
100
AcDbEntity
  8
SUNPOU
 62
     4
100
AcDbMText
 10
337.1210005057931
 20
391.585643354587
 30
0.0
 40
6.0
 41
0.0
 71
     5
 72
     5
  1
\A1;127
1001
ACAD
1000
MTEXTBEGIN
1070
    73
1070
     1
1070
    44
1040
1.0
1070
    74
1070
     0
1000
MTEXTEND
1000
MTEXTBEGIN
1070
    73
1070
     1
1070
    44
1040
1.0
1070
    74
1070
     0
1000
MTEXTEND
  0
POINT
  5
91E
330
77E
100
AcDbEntity
  8
DEFPOINTS
 62
     0
100
AcDbPoint
 10
273.5721985386047
 20
299.1450426038855
 30
0.0
  0
POINT
  5
91F
330
77E
100
AcDbEntity
  8
DEFPOINTS
 62
     0
100
AcDbPoint
 10
400.6698024729816
 20
331.2566722162208
 30
0.0
  0
POINT
  5
920
330
77E
100
AcDbEntity
  8
DEFPOINTS
 62
     0
100
AcDbPoint
 10
400.6698024729816
 20
386.5856433545871
 30
0.0
  0
ENDBLK
  5
789
330
77E
100
AcDbEntity
  8
0
100
AcDbBlockEnd
  0
BLOCK
  5
78C
330
78B
100
AcDbEntity
  8
0
100
AcDbBlockBegin
  2
*D12
 70
     1
 10
0.0
 20
0.0
 30
0.0
  3
*D12
  1

  0
LINE
  5
921
330
78B
100
AcDbEntity
  8
SUNPOU
 62
     4
100
AcDbLine
 10
430.3111197016195
 20
481.4192343477619
 30
0.0
 11
457.4443662545604
 21
481.4192343477619
 31
0.0
  0
LINE
  5
922
330
78B
100
AcDbEntity
  8
SUNPOU
 62
     4
100
AcDbLine
 10
430.3111197016195
 20
434.4192343477621
 30
0.0
 11
457.4443662545604
 21
434.4192343477621
 31
0.0
  0
LINE
  5
923
330
78B
100
AcDbEntity
  8
SUNPOU
 62
     4
100
AcDbLine
 10
454.4443662545604
 20
474.4192343477618
 30
0.0
 11
454.4443662545604
 21
441.4192343477621
 31
0.0
  0
INSERT
  5
924
330
78B
100
AcDbEntity
  8
SUNPOU
 62
     4
100
AcDbBlockReference
  2
_OPEN
 10
454.4443662545604
 20
481.4192343477619
 30
0.0
 41
7.0
 42
7.0
 43
7.0
 50
90.0
  0
INSERT
  5
925
330
78B
100
AcDbEntity
  8
SUNPOU
 62
     4
100
AcDbBlockReference
  2
_OPEN
 10
454.4443662545604
 20
434.4192343477621
 30
0.0
 41
7.0
 42
7.0
 43
7.0
 50
270.0
  0
MTEXT
  5
926
330
78B
100
AcDbEntity
  8
SUNPOU
 62
     4
100
AcDbMText
 10
449.4443662545603
 20
457.9192343477621
 30
0.0
 40
6.0
 41
0.0
 71
     5
 72
     5
  1
\A1;47
 11
0.0000000000000001
 21
1.0
 31
0.0
1001
ACAD
1000
MTEXTBEGIN
1070
    73
1070
     1
1070
    44
1040
1.0
1070
    74
1070
     0
1000
MTEXTEND
1000
MTEXTBEGIN
1070
    73
1070
     1
1070
    44
1040
1.0
1070
    74
1070
     0
1000
MTEXTEND
  0
POINT
  5
927
330
78B
100
AcDbEntity
  8
DEFPOINTS
 62
     0
100
AcDbPoint
 10
424.3111197016195
 20
481.4192343477619
 30
0.0
  0
POINT
  5
928
330
78B
100
AcDbEntity
  8
DEFPOINTS
 62
     0
100
AcDbPoint
 10
424.3111197016195
 20
434.4192343477621
 30
0.0
  0
POINT
  5
929
330
78B
100
AcDbEntity
  8
DEFPOINTS
 62
     0
100
AcDbPoint
 10
454.4443662545604
 20
434.4192343477621
 30
0.0
  0
ENDBLK
  5
796
330
78B
100
AcDbEntity
  8
0
100
AcDbBlockEnd
  0
BLOCK
  5
7CE
330
798
100
AcDbEntity
  8
0
100
AcDbBlockBegin
  2
*D13
 70
     1
 10
0.0
 20
0.0
 30
0.0
  3
*D13
  1

  0
LINE
  5
92A
330
798
100
AcDbEntity
  8
SUNPOU
 62
     4
100
AcDbLine
 10
424.8197812570095
 20
280.7217073343449
 30
0.0
 11
439.38238207637
 21
251.6030170306541
 31
0.0
  0
LINE
  5
92B
330
798
100
AcDbEntity
  8
SUNPOU
 62
     4
100
AcDbLine
 10
425.7141812570097
 20
281.1690073343448
 30
0.0
 11
440.2767820763702
 21
252.050317030654
 31
0.0
  0
LINE
  5
92C
330
798
100
AcDbEntity
  8
SUNPOU
 62
     4
100
AcDbLine
 10
431.7797909827074
 20
251.1551234466849
 30
0.0
 11
425.5190806667398
 21
248.0240682987296
 31
0.0
  0
LINE
  5
92D
330
798
100
AcDbEntity
  8
SUNPOU
 62
     4
100
AcDbLine
 10
445.1956116146426
 20
257.8645337425955
 30
0.0
 11
471.9867023877394
 21
271.2630745552091
 31
0.0
  0
LINE
  5
92E
330
798
100
AcDbEntity
  8
SUNPOU
 62
     4
100
AcDbLine
 10
438.0405012986749
 20
254.2861785946402
 30
0.0
 11
438.9349012986751
 21
254.7334785946401
 31
0.0
  0
INSERT
  5
92F
330
798
100
AcDbEntity
  8
SUNPOU
 62
     4
100
AcDbBlockReference
  2
_OPEN
 10
438.0405012986749
 20
254.2861785946402
 30
0.0
 41
7.0
 42
7.0
 43
7.0
 50
26.57017579397926
  0
INSERT
  5
930
330
798
100
AcDbEntity
  8
SUNPOU
 62
     4
100
AcDbBlockReference
  2
_OPEN
 10
438.9349012986751
 20
254.7334785946401
 30
0.0
 41
7.0
 42
7.0
 43
7.0
 50
206.5701757939792
  0
MTEXT
  5
931
330
798
100
AcDbEntity
  8
SUNPOU
 62
     4
100
AcDbMText
 10
461.2535561389582
 20
271.4857213658181
 30
0.0
 40
6.0
 41
0.0
 71
     5
 72
     5
  1
\A1;t1.0
 11
0.8943871879953642
 21
0.4472935925650458
 31
0.0
1001
ACAD
1000
MTEXTBEGIN
1070
    73
1070
     1
1070
    44
1040
1.0
1070
    74
1070
     0
1000
MTEXTEND
1000
MTEXTBEGIN
1070
    73
1070
     1
1070
    44
1040
1.0
1070
    74
1070
     0
1000
MTEXTEND
  0
POINT
  5
932
330
798
100
AcDbEntity
  8
DEFPOINTS
 62
     0
100
AcDbPoint
 10
422.1360197016193
 20
286.0880304623171
 30
0.0
  0
POINT
  5
933
330
798
100
AcDbEntity
  8
DEFPOINTS
 62
     0
100
AcDbPoint
 10
423.0304197016194
 20
286.535330462317
 30
0.0
  0
POINT
  5
934
330
798
100
AcDbEntity
  8
DEFPOINTS
 62
     0
100
AcDbPoint
 10
438.9349012986751
 20
254.7334785946401
 30
0.0
  0
ENDBLK
  5
7DA
330
798
100
AcDbEntity
  8
0
100
AcDbBlockEnd
  0
BLOCK
  5
840
330
7F4
100
AcDbEntity
  8
0
100
AcDbBlockBegin
  2
*D14
 70
     1
 10
0.0
 20
0.0
 30
0.0
  3
*D14
  1

  0
LINE
  5
935
330
7F4
100
AcDbEntity
  8
SUNPOU
 62
     4
100
AcDbLine
 10
267.5722197016194
 20
451.619334347762
 30
0.0
 11
246.190458377916
 21
451.619334347762
 31
0.0
  0
LINE
  5
936
330
7F4
100
AcDbEntity
  8
SUNPOU
 62
     4
100
AcDbLine
 10
267.5722197016194
 20
464.2193343477619
 30
0.0
 11
246.190458377916
 21
464.2193343477619
 31
0.0
  0
LINE
  5
937
330
7F4
100
AcDbEntity
  8
SUNPOU
 62
     4
100
AcDbLine
 10
249.1904583779159
 20
444.6193343477621
 30
0.0
 11
249.1904583779159
 21
437.6193343477621
 31
0.0
  0
LINE
  5
938
330
7F4
100
AcDbEntity
  8
SUNPOU
 62
     4
100
AcDbLine
 10
249.190458377916
 20
471.2193343477619
 30
0.0
 11
249.190458377916
 21
478.219334347762
 31
0.0
  0
LINE
  5
939
330
7F4
100
AcDbEntity
  8
SUNPOU
 62
     4
100
AcDbLine
 10
249.190458377916
 20
451.619334347762
 30
0.0
 11
249.190458377916
 21
464.2193343477619
 31
0.0
  0
INSERT
  5
93A
330
7F4
100
AcDbEntity
  8
SUNPOU
 62
     4
100
AcDbBlockReference
  2
_OPEN
 10
249.190458377916
 20
451.619334347762
 30
0.0
 41
7.0
 42
7.0
 43
7.0
 50
90.0
  0
INSERT
  5
93B
330
7F4
100
AcDbEntity
  8
SUNPOU
 62
     4
100
AcDbBlockReference
  2
_OPEN
 10
249.190458377916
 20
464.2193343477619
 30
0.0
 41
7.0
 42
7.0
 43
7.0
 50
270.0
  0
MTEXT
  5
93C
330
7F4
100
AcDbEntity
  8
SUNPOU
 62
     4
100
AcDbMText
 10
244.1904583779159
 20
457.919334347762
 30
0.0
 40
6.0
 41
0.0
 71
     5
 72
     5
  1
\A1;13
 11
0.0000000000000001
 21
1.0
 31
0.0
1001
ACAD
1000
MTEXTBEGIN
1070
    73
1070
     1
1070
    44
1040
1.0
1070
    74
1070
     0
1000
MTEXTEND
1000
MTEXTBEGIN
1070
    73
1070
     1
1070
    44
1040
1.0
1070
    74
1070
     0
1000
MTEXTEND
  0
POINT
  5
93D
330
7F4
100
AcDbEntity
  8
DEFPOINTS
 62
     0
100
AcDbPoint
 10
273.5722197016194
 20
451.619334347762
 30
0.0
  0
POINT
  5
93E
330
7F4
100
AcDbEntity
  8
DEFPOINTS
 62
     0
100
AcDbPoint
 10
273.5722197016194
 20
464.2193343477619
 30
0.0
  0
POINT
  5
93F
330
7F4
100
AcDbEntity
  8
DEFPOINTS
 62
     0
100
AcDbPoint
 10
249.190458377916
 20
464.2193343477619
 30
0.0
  0
ENDBLK
  5
84C
330
7F4
100
AcDbEntity
  8
0
100
AcDbBlockEnd
  0
BLOCK
  5
804
330
803
100
AcDbEntity
  8
0
100
AcDbBlockBegin
  2
*D15
 70
     1
 10
0.0
 20
0.0
 30
0.0
  3
*D15
  1

  0
LINE
  5
940
330
803
100
AcDbEntity
  8
SUNPOU
 62
     4
100
AcDbLine
 10
435.6698084967086
 20
337.2566601687378
 30
0.0
 11
435.6698084967086
 21
376.5407217266599
 31
0.0
  0
LINE
  5
941
330
803
100
AcDbEntity
  8
SUNPOU
 62
     4
100
AcDbLine
 10
400.6698024729816
 20
337.2566722162208
 30
0.0
 11
400.6698024729816
 21
376.5407217266599
 31
0.0
  0
LINE
  5
942
330
803
100
AcDbEntity
  8
SUNPOU
 62
     4
100
AcDbLine
 10
428.6698084967086
 20
373.5407217266599
 30
0.0
 11
407.6698024729816
 21
373.5407217266599
 31
0.0
  0
INSERT
  5
943
330
803
100
AcDbEntity
  8
SUNPOU
 62
     4
100
AcDbBlockReference
  2
_OPEN
 10
435.6698084967086
 20
373.5407217266599
 30
0.0
 41
7.0
 42
7.0
 43
7.0
  0
INSERT
  5
944
330
803
100
AcDbEntity
  8
SUNPOU
 62
     4
100
AcDbBlockReference
  2
_OPEN
 10
400.6698024729816
 20
373.5407217266599
 30
0.0
 41
7.0
 42
7.0
 43
7.0
 50
180.0
  0
MTEXT
  5
945
330
803
100
AcDbEntity
  8
SUNPOU
 62
     4
100
AcDbMText
 10
418.1698054848451
 20
378.5407217266599
 30
0.0
 40
6.0
 41
0.0
 71
     5
 72
     5
  1
\A1;35
1001
ACAD
1000
MTEXTBEGIN
1070
    73
1070
     1
1070
    44
1040
1.0
1070
    74
1070
     0
1000
MTEXTEND
1000
MTEXTBEGIN
1070
    73
1070
     1
1070
    44
1040
1.0
1070
    74
1070
     0
1000
MTEXTEND
  0
POINT
  5
946
330
803
100
AcDbEntity
  8
DEFPOINTS
 62
     0
100
AcDbPoint
 10
435.6698084967086
 20
331.2566601687378
 30
0.0
  0
POINT
  5
947
330
803
100
AcDbEntity
  8
DEFPOINTS
 62
     0
100
AcDbPoint
 10
400.6698024729816
 20
331.2566722162208
 30
0.0
  0
POINT
  5
948
330
803
100
AcDbEntity
  8
DEFPOINTS
 62
     0
100
AcDbPoint
 10
400.6698024729816
 20
373.5407217266599
 30
0.0
  0
ENDBLK
  5
80E
330
803
100
AcDbEntity
  8
0
100
AcDbBlockEnd
  0
BLOCK
  5
833
330
814
100
AcDbEntity
  8
0
100
AcDbBlockBegin
  2
*D16
 70
     1
 10
0.0
 20
0.0
 30
0.0
  3
*D16
  1

  0
LINE
  5
949
330
814
100
AcDbEntity
  8
SUNPOU
 62
     4
100
AcDbLine
 10
268.9222197016195
 20
303.8450304623172
 30
0.0
 11
245.6071250445826
 21
303.8450304623172
 31
0.0
  0
LINE
  5
94A
330
814
100
AcDbEntity
  8
SUNPOU
 62
     4
100
AcDbLine
 10
417.0305197016195
 20
286.5353304623171
 30
0.0
 11
245.6071250445826
 21
286.5353304623172
 31
0.0
  0
LINE
  5
94B
330
814
100
AcDbEntity
  8
SUNPOU
 62
     4
100
AcDbLine
 10
248.6071250445827
 20
310.8450304623171
 30
0.0
 11
248.6071250445827
 21
317.8450304623172
 31
0.0
  0
LINE
  5
94C
330
814
100
AcDbEntity
  8
SUNPOU
 62
     4
100
AcDbLine
 10
248.6071250445827
 20
279.5353304623172
 30
0.0
 11
248.6071250445827
 21
272.5353304623172
 31
0.0
  0
LINE
  5
94D
330
814
100
AcDbEntity
  8
SUNPOU
 62
     4
100
AcDbLine
 10
248.6071250445827
 20
303.8450304623172
 30
0.0
 11
248.6071250445827
 21
286.5353304623172
 31
0.0
  0
INSERT
  5
94E
330
814
100
AcDbEntity
  8
SUNPOU
 62
     4
100
AcDbBlockReference
  2
_OPEN
 10
248.6071250445827
 20
303.8450304623172
 30
0.0
 41
7.0
 42
7.0
 43
7.0
 50
270.0
  0
INSERT
  5
94F
330
814
100
AcDbEntity
  8
SUNPOU
 62
     4
100
AcDbBlockReference
  2
_OPEN
 10
248.6071250445827
 20
286.5353304623172
 30
0.0
 41
7.0
 42
7.0
 43
7.0
 50
90.0
  0
MTEXT
  5
950
330
814
100
AcDbEntity
  8
SUNPOU
 62
     4
100
AcDbMText
 10
243.6071250445826
 20
295.1901804623172
 30
0.0
 40
6.0
 41
0.0
 71
     5
 72
     5
  1
\A1;17
 11
0.0000000000000001
 21
1.0
 31
0.0
1001
ACAD
1000
MTEXTBEGIN
1070
    73
1070
     1
1070
    44
1040
1.0
1070
    74
1070
     0
1000
MTEXTEND
1000
MTEXTBEGIN
1070
    73
1070
     1
1070
    44
1040
1.0
1070
    74
1070
     0
1000
MTEXTEND
  0
POINT
  5
951
330
814
100
AcDbEntity
  8
DEFPOINTS
 62
     0
100
AcDbPoint
 10
274.9222197016195
 20
303.8450304623172
 30
0.0
  0
POINT
  5
952
330
814
100
AcDbEntity
  8
DEFPOINTS
 62
     0
100
AcDbPoint
 10
423.0305197016195
 20
286.5353304623171
 30
0.0
  0
POINT
  5
953
330
814
100
AcDbEntity
  8
DEFPOINTS
 62
     0
100
AcDbPoint
 10
248.6071250445827
 20
286.5353304623172
 30
0.0
  0
ENDBLK
  5
83F
330
814
100
AcDbEntity
  8
0
100
AcDbBlockEnd
  0
ENDSEC
  0
SECTION
  2
ENTITIES
  0
LINE
  5
375
330
1A
100
AcDbEntity
  8
CENTER_L
  6
CENTER
 62
     1
 48
5.0
100
AcDbLine
 10
423.5420197016195
 20
439.9192343477619
 30
0.0
 11
410.4287197016193
 21
439.9192343477619
 31
0.0
  0
LINE
  5
376
330
1A
100
AcDbEntity
  8
CENTER_L
  6
CENTER
 62
     1
 48
5.0
100
AcDbLine
 10
412.2718197016196
 20
288.9822304623172
 30
0.0
 11
424.3354197016195
 21
295.0139304623172
 31
0.0
  0
LINE
  5
377
330
1A
100
AcDbEntity
  8
CENTER_L
  6
CENTER
 62
     1
 48
5.0
100
AcDbLine
 10
431.9386197016195
 20
457.9192343477618
 30
0.0
 11
270.5404197016195
 21
457.9192343477618
 31
0.0
  0
LINE
  5
378
330
1A
100
AcDbEntity
  8
CENTER_L
  6
CENTER
 62
     1
 48
5.0
100
AcDbLine
 10
423.5420197016195
 20
475.9192343477621
 30
0.0
 11
410.4287197016193
 21
475.9192343477621
 31
0.0
  0
TEXT
  5
37A
330
1A
100
AcDbEntity
  8
SUNPOU
  6
CONTINUOUS
 62
     4
100
AcDbText
 10
432.4021470882451
 20
235.9281886020168
 30
0.0
 40
6.0
  1
10
100
AcDbText
  0
LINE
  5
37D
330
1A
100
AcDbEntity
  8
SEIHIN
  6
CONTINUOUS
 62
     3
100
AcDbLine
 10
402.1904197016195
 20
328.2154304623172
 30
0.0
 11
423.0304197016195
 21
286.5353304623171
 31
0.0
  0
LINE
  5
37E
330
1A
100
AcDbEntity
  8
SEIHIN
  6
CONTINUOUS
 62
     3
100
AcDbLine
 10
422.1360197016195
 20
286.0880304623172
 30
0.0
 11
406.4836197016194
 21
317.3930304623172
 31
0.0
  0
LINE
  5
37F
330
1A
100
AcDbEntity
  8
SEIHIN
  6
CONTINUOUS
 62
     3
100
AcDbLine
 10
423.0305197016195
 20
286.5353304623171
 30
0.0
 11
417.6639197016195
 21
283.8520304623172
 31
0.0
  0
LINE
  5
380
330
1A
100
AcDbEntity
  8
SEIHIN
  6
CONTINUOUS
 62
     3
100
AcDbLine
 10
423.7571197016195
 20
448.969234347762
 30
0.0
 11
292.3965197016194
 21
448.969234347762
 31
0.0
  0
LINE
  5
381
330
1A
100
AcDbEntity
  8
SEIHIN
  6
CONTINUOUS
 62
     3
100
AcDbLine
 10
423.7571197016195
 20
466.869334347762
 30
0.0
 11
292.3965197016194
 21
466.869334347762
 31
0.0
  0
LINE
  5
382
330
1A
100
AcDbEntity
  8
SEIHIN
  6
CONTINUOUS
 62
     3
100
AcDbLine
 10
420.7325197016193
 20
453.9192343477618
 30
0.0
 11
390.5582197016142
 21
453.9193311399913
 31
0.0
  0
LINE
  5
383
330
1A
100
AcDbEntity
  8
SEIHIN
  6
CONTINUOUS
 62
     3
100
AcDbLine
 10
421.9427197016193
 20
448.6192343477618
 30
0.0
 11
406.8687197016194
 21
448.6192343477618
 31
0.0
  0
LINE
  5
384
330
1A
100
AcDbEntity
  8
SEIHIN
  6
CONTINUOUS
 62
     3
100
AcDbLine
 10
424.3111197016195
 20
434.4192343477621
 30
0.0
 11
409.5030197016193
 21
434.4192343477621
 31
0.0
  0
LINE
  5
385
330
1A
100
AcDbEntity
  8
SEIHIN
  6
CONTINUOUS
 62
     3
100
AcDbLine
 10
424.1697197016195
 20
448.1192343477618
 30
0.0
 11
409.3356197016194
 21
448.1192343477618
 31
0.0
  0
LINE
  5
386
330
1A
100
AcDbEntity
  8
SEIHIN
  6
CONTINUOUS
 62
     3
100
AcDbLine
 10
420.7323197016195
 20
461.919334347762
 30
0.0
 11
390.5582197016143
 21
461.9192375555528
 31
0.0
  0
LINE
  5
387
330
1A
100
AcDbEntity
  8
SEIHIN
  6
CONTINUOUS
 62
     3
100
AcDbLine
 10
421.9427197016193
 20
467.2192343477618
 30
0.0
 11
406.8687197016194
 21
467.2192343477617
 31
0.0
  0
LINE
  5
388
330
1A
100
AcDbEntity
  8
SEIHIN
  6
CONTINUOUS
 62
     3
100
AcDbLine
 10
424.1697197016195
 20
467.7192343477618
 30
0.0
 11
409.3356197016194
 21
467.7192343477618
 31
0.0
  0
LINE
  5
389
330
1A
100
AcDbEntity
  8
SEIHIN
  6
CONTINUOUS
 62
     3
100
AcDbLine
 10
424.3111197016195
 20
481.4192343477619
 30
0.0
 11
409.0831197016195
 21
481.4192343477619
 31
0.0
  0
ARC
  5
38B
330
1A
100
AcDbEntity
  8
NOKITOI
  6
PHANTOM
 62
     8
 48
5.0
100
AcDbCircle
 10
322.5480407874093
 20
298.031907750824
 30
0.0
 40
43.00001447645168
100
AcDbArc
 50
186.524910707118
 51
269.999888375144
  0
ARC
  5
38C
330
1A
100
AcDbEntity
  8
NOKITOI
  6
PHANTOM
 62
     8
 48
5.0
100
AcDbCircle
 10
322.5480630958346
 20
298.0318876497976
 30
0.0
 40
41.79999437547816
100
AcDbArc
 50
184.474295212525
 51
269.9998545921086
  0
LINE
  5
392
330
1A
100
AcDbEntity
  8
CENTER_L
  6
CENTER
 62
     1
 48
5.0
100
AcDbLine
 10
302.3965197016194
 20
450.4544343477621
 30
0.0
 11
302.3965197016194
 21
465.3258343477621
 31
0.0
  0
LINE
  5
393
330
1A
100
AcDbEntity
  8
SEIHIN
  6
CONTINUOUS
 62
     3
100
AcDbLine
 10
274.9223197016195
 20
451.619334347762
 30
0.0
 11
274.9223197016195
 21
464.219334347762
 31
0.0
  0
LINE
  5
394
330
1A
100
AcDbEntity
  8
SEIHIN
  6
CONTINUOUS
 62
     3
100
AcDbLine
 10
276.0712197016194
 20
451.619334347762
 30
0.0
 11
276.0712197016194
 21
464.219334347762
 31
0.0
  0
LINE
  5
39E
330
1A
100
AcDbEntity
  8
SEIHIN
  6
CONTINUOUS
 62
     3
100
AcDbLine
 10
282.9873197016195
 20
463.2193343477619
 30
0.0
 11
282.9873197016195
 21
460.9192343477618
 31
0.0
  0
LINE
  5
39F
330
1A
100
AcDbEntity
  8
SEIHIN
  6
CONTINUOUS
 62
     3
100
AcDbLine
 10
292.3965197016194
 20
466.8692343477621
 30
0.0
 11
292.3965197016194
 21
457.9192343477618
 31
0.0
  0
LINE
  5
3A3
330
1A
100
AcDbEntity
  8
SEIHIN
  6
CONTINUOUS
 62
     3
100
AcDbLine
 10
331.3966197016195
 20
462.6055343477619
 30
0.0
 11
331.3966197016195
 21
465.869334347762
 31
0.0
  0
LINE
  5
3A4
330
1A
100
AcDbEntity
  8
SEIHIN
  6
CONTINUOUS
 62
     3
100
AcDbLine
 10
402.3966197016195
 20
465.8693343477619
 30
0.0
 11
402.3966197016195
 21
462.391434347762
 31
0.0
  0
LINE
  5
3A5
330
1A
100
AcDbEntity
  8
SEIHIN
  6
CONTINUOUS
 62
     3
100
AcDbLine
 10
289.2335197016194
 20
289.8452304623171
 30
0.0
 11
296.8695197016193
 21
289.8452304623171
 31
0.0
  0
ARC
  5
3A9
330
1A
100
AcDbEntity
  8
SEIHIN
  6
CONTINUOUS
 62
     3
100
AcDbCircle
 10
291.2335197016195
 20
296.8450304623171
 30
0.0
 40
2.0
100
AcDbArc
 50
106.370649565866
 51
180.0
  0
LINE
  5
3AA
330
1A
100
AcDbEntity
  8
SEIHIN
  6
CONTINUOUS
 62
     3
100
AcDbLine
 10
273.5722197016194
 20
451.619334347762
 30
0.0
 11
292.3965197016194
 21
451.619334347762
 31
0.0
  0
LINE
  5
3AB
330
1A
100
AcDbEntity
  8
SEIHIN
  6
CONTINUOUS
 62
     3
100
AcDbLine
 10
289.2335197016194
 20
450.4192343477618
 30
0.0
 11
292.3965197016194
 21
450.4192343477618
 31
0.0
  0
LINE
  5
3AF
330
1A
100
AcDbEntity
  8
NOKITOI
  6
PHANTOM
 62
     8
 48
5.0
100
AcDbLine
 10
270.7989570138666
 20
307.9693932744539
 30
0.0
 11
271.1891570138665
 21
295.4850932744538
 31
0.0
  0
ARC
  5
3B0
330
1A
100
AcDbEntity
  8
NOKITOI
  6
PHANTOM
 62
     8
 48
5.0
100
AcDbCircle
 10
276.2495948953134
 20
300.0319370569793
 30
0.0
 40
3.999989731271038
100
AcDbArc
 50
96.47731142013144
 51
181.7899836067308
  0
LINE
  5
3B1
330
1A
100
AcDbEntity
  8
NOKITOI
  6
PHANTOM
 62
     8
 48
5.0
100
AcDbLine
 10
276.0160570138665
 20
301.1026932744541
 30
0.0
 11
276.3497570138667
 21
303.4388932744541
 31
0.0
  0
LINE
  5
3B2
330
1A
100
AcDbEntity
  8
SEIHIN
  6
CONTINUOUS
 62
     3
100
AcDbLine
 10
274.9222197016195
 20
303.8450304623172
 30
0.0
 11
273.6360197016195
 21
299.5779304623171
 31
0.0
  0
LINE
  5
3B3
330
1A
100
AcDbEntity
  8
SEIHIN
  6
CONTINUOUS
 62
     3
100
AcDbLine
 10
276.0711197016195
 20
303.4987304623172
 30
0.0
 11
274.7850197016195
 21
299.2316304623172
 31
0.0
  0
LINE
  5
3B4
330
1A
100
AcDbEntity
  8
NOKITOI
  6
PHANTOM
 62
     8
 48
5.0
100
AcDbLine
 10
279.2594570138668
 20
301.0056932744539
 30
0.0
 11
279.5752570138666
 21
307.0055932744539
 31
0.0
  0
LINE
  5
3B8
330
1A
100
AcDbEntity
  8
NOKITOI
  6
PHANTOM
 62
     8
 48
5.0
100
AcDbLine
 10
272.6883570138667
 20
294.0318932744539
 30
0.0
 11
278.8330570138665
 21
294.0318932744539
 31
0.0
  0
ARC
  5
3B9
330
1A
100
AcDbEntity
  8
NOKITOI
  6
PHANTOM
 62
     8
 48
5.0
100
AcDbCircle
 10
274.3360705860051
 20
297.2318801193675
 30
0.0
 40
1.999986844959662
100
AcDbArc
 50
181.7875531852363
 51
269.9996111843223
  0
ARC
  5
3BB
330
1A
100
AcDbEntity
  8
NOKITOI
  6
PHANTOM
 62
     8
 48
5.0
100
AcDbCircle
 10
272.6883929730175
 20
295.5318584203106
 30
0.0
 40
1.499965146287778
100
AcDbArc
 50
181.7866280217767
 51
269.9986264296976
  0
LINE
  5
3BC
330
1A
100
AcDbEntity
  8
NOKITOI
  6
PHANTOM
 62
     8
 48
5.0
100
AcDbLine
 10
272.3370570138664
 20
297.1694932744539
 30
0.0
 11
272.2515570138667
 21
299.9069932744538
 31
0.0
  0
ARC
  5
3BD
330
1A
100
AcDbEntity
  8
SEIHIN
  6
CONTINUOUS
 62
     3
100
AcDbCircle
 10
287.1770569529591
 20
291.43032762173
 30
0.0
 40
2.000037615859002
100
AcDbArc
 50
217.570496864357
 51
313.7068133922674
  0
LINE
  5
3BE
330
1A
100
AcDbEntity
  8
SEIHIN
  6
CONTINUOUS
 62
     3
100
AcDbLine
 10
275.0722197016195
 20
297.6450304623171
 30
0.0
 11
281.9040197016196
 21
297.6450304623171
 31
0.0
  0
LINE
  5
3BF
330
1A
100
AcDbEntity
  8
SEIHIN
  6
CONTINUOUS
 62
     3
100
AcDbLine
 10
275.0722197016195
 20
298.8450304623171
 30
0.0
 11
281.9040197016196
 21
298.8450304623171
 31
0.0
  0
ARC
  5
3C0
330
1A
100
AcDbEntity
  8
SEIHIN
  6
CONTINUOUS
 62
     3
100
AcDbCircle
 10
280.9191937314266
 20
294.6450432499807
 30
0.0
 40
0.9999872126736606
100
AcDbArc
 50
37.56745337482412
 51
89.99851199852834
  0
ARC
  5
3C1
330
1A
100
AcDbEntity
  8
NOKITOI
  6
PHANTOM
 62
     8
 48
5.0
100
AcDbCircle
 10
278.8330485897041
 20
293.0319007895104
 30
0.0
 40
0.9999924849789756
100
AcDbArc
 50
6.528264606674428
 51
89.99951732740891
  0
LINE
  5
3C2
330
1A
100
AcDbEntity
  8
NOKITOI
  6
PHANTOM
 62
     8
 48
5.0
100
AcDbLine
 10
280.3769570138671
 20
295.2318932744539
 30
0.0
 11
274.3360570138666
 21
295.2318932744539
 31
0.0
  0
LINE
  5
3C3
330
1A
100
AcDbEntity
  8
NOKITOI
  6
PHANTOM
 62
     8
 48
5.0
100
AcDbLine
 10
278.7600570138666
 20
300.5318932744539
 30
0.0
 11
276.5109570138666
 21
300.5318932744539
 31
0.0
  0
LINE
  5
3C4
330
1A
100
AcDbEntity
  8
SEIHIN
  6
CONTINUOUS
 62
     3
100
AcDbLine
 10
280.9192197016195
 20
295.6450304623171
 30
0.0
 11
277.0722197016195
 21
295.6450304623171
 31
0.0
  0
ARC
  5
3C5
330
1A
100
AcDbEntity
  8
NOKITOI
  6
PHANTOM
 62
     8
 48
5.0
100
AcDbCircle
 10
276.5109836144644
 20
301.0318625975719
 30
0.0
 40
0.4999693238254178
100
AcDbArc
 50
171.8555038770532
 51
269.9969516090348
  0
ARC
  5
3C6
330
1A
100
AcDbEntity
  8
SEIHIN
  6
CONTINUOUS
 62
     3
100
AcDbCircle
 10
275.0722299794284
 20
299.1450166283459
 30
0.0
 40
0.2999861662048304
100
AcDbArc
 50
163.2182955160988
 51
269.9980369925692
  0
ARC
  5
3C7
330
1A
100
AcDbEntity
  8
SEIHIN
  6
CONTINUOUS
 62
     3
100
AcDbCircle
 10
275.0722106802002
 20
299.1450426038855
 30
0.0
 40
1.500012141595522
100
AcDbArc
 50
163.226465554226
 51
270.0003445900458
  0
ARC
  5
3C8
330
1A
100
AcDbEntity
  8
SEIHIN
  6
CONTINUOUS
 62
     3
100
AcDbCircle
 10
277.0722197016195
 20
297.6450304623171
 30
0.0
 40
2.0
100
AcDbArc
 50
180.0
 51
270.0
  0
ARC
  5
3C9
330
1A
100
AcDbEntity
  8
NOKITOI
  6
PHANTOM
 62
     8
 48
5.0
100
AcDbCircle
 10
278.7600501268717
 20
301.0318867393684
 30
0.0
 40
0.499993464961963
100
AcDbArc
 50
270.0007892017873
 51
356.9970361317427
  0
ARC
  5
3CA
330
1A
100
AcDbEntity
  8
NOKITOI
  6
PHANTOM
 62
     8
 48
5.0
100
AcDbCircle
 10
280.376969583575
 20
294.7318816497242
 30
0.0
 40
0.5000116248877111
100
AcDbArc
 50
4.474846808342897
 51
90.00144034898337
  0
LINE
  5
3CB
330
1A
100
AcDbEntity
  8
SEIHIN
  6
CONTINUOUS
 62
     3
100
AcDbLine
 10
287.8860197016195
 20
290.5085304623172
 30
0.0
 11
282.6967197016195
 21
297.2547304623172
 31
0.0
  0
LINE
  5
3CC
330
1A
100
AcDbEntity
  8
SEIHIN
  6
CONTINUOUS
 62
     3
100
AcDbLine
 10
288.8372197016195
 20
291.2401304623172
 30
0.0
 11
283.6478197016195
 21
297.9864304623172
 31
0.0
  0
LINE
  5
3CD
330
1A
100
AcDbEntity
  8
SEIHIN
  6
CONTINUOUS
 62
     3
100
AcDbLine
 10
281.7119197016194
 20
295.2547304623172
 30
0.0
 11
285.5918197016194
 21
290.2108304623171
 31
0.0
  0
LINE
  5
3CE
330
1A
100
AcDbEntity
  8
SEIHIN
  6
CONTINUOUS
 62
     3
100
AcDbLine
 10
289.2335197016194
 20
289.8450304623172
 30
0.0
 11
289.2335197016194
 21
296.8450304623171
 31
0.0
  0
ARC
  5
3CF
330
1A
100
AcDbEntity
  8
SEIHIN
  6
CONTINUOUS
 62
     3
100
AcDbCircle
 10
289.2335636371866
 20
291.545008826381
 30
0.0
 40
0.4999783659941892
100
AcDbArc
 50
217.5593647406095
 51
269.9949651370121
  0
ARC
  5
3D0
330
1A
100
AcDbEntity
  8
SEIHIN
  6
CONTINUOUS
 62
     3
100
AcDbCircle
 10
289.2334932713346
 20
291.5450434769234
 30
0.0
 40
1.700013014811688
100
AcDbArc
 50
217.5684553619203
 51
270.0008907836348
  0
ARC
  5
3D2
330
1A
100
AcDbEntity
  8
SEIHIN
  6
CONTINUOUS
 62
     3
100
AcDbCircle
 10
281.9039937314266
 20
296.6450432499807
 30
0.0
 40
0.9999872126736606
100
AcDbArc
 50
37.56745337482412
 51
89.99851199852834
  0
ARC
  5
3D3
330
1A
100
AcDbEntity
  8
SEIHIN
  6
CONTINUOUS
 62
     3
100
AcDbCircle
 10
281.9040339847781
 20
296.6450197873144
 30
0.0
 40
2.200038914490291
100
AcDbArc
 50
37.56935675962437
 51
68.8838440761437
  0
ARC
  5
3D4
330
1A
100
AcDbEntity
  8
SEIHIN
  6
CONTINUOUS
 62
     3
100
AcDbCircle
 10
281.9041111810124
 20
296.645013411313
 30
0.0
 40
2.20001705290609
100
AcDbArc
 50
68.88577934792877
 51
90.0023824284093
  0
ARC
  5
3D9
330
1A
100
AcDbEntity
  8
NOKITOI
  6
PHANTOM
 62
     8
 48
5.0
100
AcDbCircle
 10
276.2496772265359
 20
300.0319520028339
 30
0.0
 40
5.2000412730095
100
AcDbArc
 50
90.00132454306161
 51
142.0757990790561
  0
LINE
  5
3DA
330
1A
100
AcDbEntity
  8
NOKITOI
  6
PHANTOM
 62
     8
 48
5.0
100
AcDbLine
 10
272.7979570138665
 20
310.0318932744539
 30
0.0
 11
276.1245570138668
 21
310.0318932744539
 31
0.0
  0
LINE
  5
3DB
330
1A
100
AcDbEntity
  8
NOKITOI
  6
PHANTOM
 62
     8
 48
5.0
100
AcDbLine
 10
272.7979570138665
 20
308.8318932744541
 30
0.0
 11
275.2707570138669
 21
308.8318932744541
 31
0.0
  0
LINE
  5
3DC
330
1A
100
AcDbEntity
  8
NOKITOI
  6
PHANTOM
 62
     8
 48
5.0
100
AcDbLine
 10
271.9983570138671
 20
308.0068932744538
 30
0.0
 11
272.1477570138664
 21
303.227993274454
 31
0.0
  0
ARC
  5
3DD
330
1A
100
AcDbEntity
  8
NOKITOI
  6
PHANTOM
 62
     8
 48
5.0
100
AcDbCircle
 10
272.7979615086648
 20
308.0318979119808
 30
0.0
 40
0.7999953624857498
100
AcDbArc
 50
90.00032191805336
 51
181.7911273464199
  0
ARC
  5
3DE
330
1A
100
AcDbEntity
  8
NOKITOI
  6
PHANTOM
 62
     8
 48
5.0
100
AcDbCircle
 10
272.7979697647166
 20
308.0319064295403
 30
0.0
 40
1.999986844954076
100
AcDbArc
 50
90.00036528735526
 51
181.7883072882699
  0
LINE
  5
3E0
330
1A
100
AcDbEntity
  8
NOKITOI
  6
PHANTOM
 62
     8
 48
5.0
100
AcDbLine
 10
274.7707570138669
 20
306.331893274454
 30
0.0
 11
277.7072570138667
 21
306.331893274454
 31
0.0
  0
LINE
  5
3E1
330
1A
100
AcDbEntity
  8
NOKITOI
  6
PHANTOM
 62
     8
 48
5.0
100
AcDbLine
 10
276.711457013867
 20
305.2318932744539
 30
0.0
 11
277.7072570138667
 21
306.331893274454
 31
0.0
  0
LINE
  5
3E2
330
1A
100
AcDbEntity
  8
NOKITOI
  6
PHANTOM
 62
     8
 48
5.0
100
AcDbLine
 10
279.0758570138665
 20
307.5318932744539
 30
0.0
 11
276.8443570138666
 21
307.5318932744539
 31
0.0
  0
LINE
  5
3E3
330
1A
100
AcDbEntity
  8
NOKITOI
  6
PHANTOM
 62
     8
 48
5.0
100
AcDbLine
 10
276.711457013867
 20
305.2318932744539
 30
0.0
 11
276.2495570138668
 21
305.2318932744539
 31
0.0
  0
ARC
  5
3E4
330
1A
100
AcDbEntity
  8
NOKITOI
  6
PHANTOM
 62
     8
 48
5.0
100
AcDbCircle
 10
275.8547712322821
 20
303.5095786401529
 30
0.0
 40
0.5000073448410256
100
AcDbArc
 50
351.8729478641243
 51
96.47829282996843
  0
LINE
  5
3E5
330
1A
100
AcDbEntity
  8
SEIHIN
  6
CONTINUOUS
 62
     3
100
AcDbLine
 10
276.0711197016195
 20
303.4987304623172
 30
0.0
 11
274.9222197016195
 21
303.8450304623172
 31
0.0
  0
LINE
  5
3E6
330
1A
100
AcDbEntity
  8
NOKITOI
  6
PHANTOM
 62
     8
 48
5.0
100
AcDbLine
 10
275.2707570138669
 20
308.8318932744541
 30
0.0
 11
274.7707570138669
 21
306.331893274454
 31
0.0
  0
LINE
  5
3E7
330
1A
100
AcDbEntity
  8
NOKITOI
  6
PHANTOM
 62
     8
 48
5.0
100
AcDbLine
 10
276.3540570138667
 20
308.1299932744538
 30
0.0
 11
276.6148570138667
 21
309.4338932744539
 31
0.0
  0
ARC
  5
3E8
330
1A
100
AcDbEntity
  8
NOKITOI
  6
PHANTOM
 62
     8
 48
5.0
100
AcDbCircle
 10
276.8443497593112
 20
308.0319021242973
 30
0.0
 40
0.5000088498959383
100
AcDbArc
 50
168.6864043304884
 51
270.0008312961434
  0
ARC
  5
3E9
330
1A
100
AcDbEntity
  8
NOKITOI
  6
PHANTOM
 62
     8
 48
5.0
100
AcDbCircle
 10
276.1245562308582
 20
309.5318942294556
 30
0.0
 40
0.4999990449987349
100
AcDbArc
 50
348.6967198015448
 51
89.99991027369452
  0
LINE
  5
3EA
330
1A
100
AcDbEntity
  8
NOKITOI
  6
PHANTOM
 62
     8
 48
5.0
100
AcDbLine
 10
277.7221570138668
 20
304.5602932744538
 30
0.0
 11
278.2771570138667
 21
305.1733932744541
 31
0.0
  0
LINE
  5
3EB
330
1A
100
AcDbEntity
  8
NOKITOI
  6
PHANTOM
 62
     8
 48
5.0
100
AcDbLine
 10
278.0959570138667
 20
301.7318932744539
 30
0.0
 11
277.3180570138671
 21
301.7318932744539
 31
0.0
  0
LINE
  5
3EC
330
1A
100
AcDbEntity
  8
NOKITOI
  6
PHANTOM
 62
     8
 48
5.0
100
AcDbLine
 10
278.0959570138667
 20
301.7318932744539
 30
0.0
 11
278.2771570138667
 21
305.1733932744541
 31
0.0
  0
LINE
  5
3ED
330
1A
100
AcDbEntity
  8
NOKITOI
  6
PHANTOM
 62
     8
 48
5.0
100
AcDbLine
 10
277.3180570138671
 20
301.7318932744539
 30
0.0
 11
277.7221570138668
 21
304.5602932744538
 31
0.0
  0
ARC
  5
3EE
330
1A
100
AcDbEntity
  8
NOKITOI
  6
PHANTOM
 62
     8
 48
5.0
100
AcDbCircle
 10
279.0758508127088
 20
307.0318998095391
 30
0.0
 40
0.4999934649531607
100
AcDbArc
 50
356.9955363203384
 51
89.99928939038005
  0
LINE
  5
3F8
330
1A
100
AcDbEntity
  8
SEIHIN
  6
CONTINUOUS
 62
     3
100
AcDbLine
 10
288.9873197016195
 20
452.6193343477621
 30
0.0
 11
288.9873197016195
 21
463.2193343477619
 31
0.0
  0
LINE
  5
3F9
330
1A
100
AcDbEntity
  8
SEIHIN
  6
CONTINUOUS
 62
     3
100
AcDbLine
 10
273.5722197016194
 20
451.619334347762
 30
0.0
 11
273.5722197016194
 21
464.2193343477619
 31
0.0
  0
LINE
  5
3FA
330
1A
100
AcDbEntity
  8
SEIHIN
  6
CONTINUOUS
 62
     3
100
AcDbLine
 10
282.9873197016195
 20
452.619334347762
 30
0.0
 11
282.9873197016194
 21
454.9192343477617
 31
0.0
  0
LINE
  5
3FB
330
1A
100
AcDbEntity
  8
SEIHIN
  6
CONTINUOUS
 62
     3
100
AcDbLine
 10
289.2335197016194
 20
450.4192343477618
 30
0.0
 11
289.2335197016194
 21
451.619334347762
 31
0.0
  0
LINE
  5
3FC
330
1A
100
AcDbEntity
  8
SEIHIN
  6
CONTINUOUS
 62
     3
100
AcDbLine
 10
276.0712197016194
 20
455.9192343477618
 30
0.0
 11
286.9873197016195
 21
455.9192343477618
 31
0.0
  0
LINE
  5
3FD
330
1A
100
AcDbEntity
  8
SEIHIN
  6
CONTINUOUS
 62
     3
100
AcDbLine
 10
276.0712197016194
 20
459.9192343477618
 30
0.0
 11
286.9873197016195
 21
459.9192343477618
 31
0.0
  0
ARC
  5
3FE
330
1A
100
AcDbEntity
  8
SEIHIN
  6
CONTINUOUS
 62
     3
100
AcDbCircle
 10
284.0025197016194
 20
457.9192343477618
 30
0.0
 40
2.0
100
AcDbArc
 50
180.0
 51
270.0
  0
ARC
  5
3FF
330
1A
100
AcDbEntity
  8
SEIHIN
  6
CONTINUOUS
 62
     3
100
AcDbCircle
 10
286.9873197016195
 20
457.9192343477618
 30
0.0
 40
2.0
100
AcDbArc
 50
270.0
 51
0.0
  0
ARC
  5
400
330
1A
100
AcDbEntity
  8
SEIHIN
  6
CONTINUOUS
 62
     3
100
AcDbCircle
 10
284.0025197016194
 20
457.9192343477618
 30
0.0
 40
2.0
100
AcDbArc
 50
90.0
 51
180.0
  0
ARC
  5
401
330
1A
100
AcDbEntity
  8
SEIHIN
  6
CONTINUOUS
 62
     3
100
AcDbCircle
 10
286.9873197016195
 20
457.9192343477618
 30
0.0
 40
2.0
100
AcDbArc
 50
0.0
 51
90.0
  0
LINE
  5
404
330
1A
100
AcDbEntity
  8
NOKITOI
  6
PHANTOM
 62
     8
 48
5.0
100
AcDbLine
 10
367.3774570138667
 20
255.0317932744539
 30
0.0
 11
322.5480570138667
 21
255.0318932744539
 31
0.0
  0
LINE
  5
405
330
1A
100
AcDbEntity
  8
NOKITOI
  6
PHANTOM
 62
     8
 48
5.0
100
AcDbLine
 10
322.5480570138667
 20
256.2318932744539
 30
0.0
 11
367.1276570138667
 21
256.231793274454
 31
0.0
  0
LINE
  5
406
330
1A
100
AcDbEntity
  8
NOKITOI
  6
PHANTOM
 62
     8
 48
5.0
100
AcDbLine
 10
363.3774570138667
 20
255.0317932744539
 30
0.0
 11
343.219557013867
 21
255.0317932744539
 31
0.0
  0
LINE
  5
407
330
1A
100
AcDbEntity
  8
NOKITOI
  6
PHANTOM
 62
     8
 48
5.0
100
AcDbLine
 10
363.1276570138667
 20
256.231793274454
 30
0.0
 11
343.219557013867
 21
256.231793274454
 31
0.0
  0
LINE
  5
408
330
1A
100
AcDbEntity
  8
SEIHIN
  6
CONTINUOUS
 62
     3
100
AcDbLine
 10
314.7887996568073
 20
289.8452364280539
 30
0.0
 11
374.3965197016195
 21
289.8450304623172
 31
0.0
  0
LINE
  5
409
330
1A
100
AcDbEntity
  8
SEIHIN
  6
CONTINUOUS
 62
     3
100
AcDbLine
 10
375.9965197016195
 20
289.4450304623172
 30
0.0
 11
313.6102778810414
 21
289.4452361548669
 31
0.0
  0
LINE
  5
40A
330
1A
100
AcDbEntity
  8
SEIHIN
  6
CONTINUOUS
 62
     3
100
AcDbLine
 10
334.0808197016194
 20
325.4310304623172
 30
0.0
 11
397.2825197016195
 21
330.9603304623172
 31
0.0
  0
LINE
  5
40B
330
1A
100
AcDbEntity
  8
SEIHIN
  6
CONTINUOUS
 62
     3
100
AcDbLine
 10
395.8614197016194
 20
319.7939304623172
 30
0.0
 11
340.3325197016195
 21
314.9359304623172
 31
0.0
  0
ARC
  5
40C
330
1A
100
AcDbEntity
  8
SEIHIN
  6
CONTINUOUS
 62
     3
100
AcDbCircle
 10
349.0407809183453
 20
308.8450103445268
 30
0.0
 40
9.999979882284851
100
AcDbArc
 50
270.0002222122391
 51
324.833871337322
  0
LINE
  5
40D
330
1A
100
AcDbEntity
  8
CENTER_L
  6
CENTER
 62
     1
 48
5.0
100
AcDbLine
 10
300.6699197016195
 20
309.4634304623172
 30
0.0
 11
300.6698197016195
 21
284.1983304623173
 31
0.0
  0
LINE
  5
40E
330
1A
100
AcDbEntity
  8
SEIHIN
  6
CONTINUOUS
 62
     3
100
AcDbLine
 10
319.4275197016194
 20
293.3889304623172
 30
0.0
 11
332.5335197016194
 21
310.6336304623171
 31
0.0
  0
LINE
  5
40F
330
1A
100
AcDbEntity
  8
SEIHIN
  6
CONTINUOUS
 62
     3
100
AcDbLine
 10
310.6698197016195
 20
300.0450304623171
 30
0.0
 11
326.9907197016194
 21
321.5197304623172
 31
0.0
  0
LINE
  5
410
330
1A
100
AcDbEntity
  8
SEIHIN
  6
CONTINUOUS
 62
     3
100
AcDbLine
 10
295.1700197016195
 20
301.5454304623172
 30
0.0
 11
295.1700197016195
 21
300.0454304623172
 31
0.0
  0
LINE
  5
411
330
1A
100
AcDbEntity
  8
SEIHIN
  6
CONTINUOUS
 62
     3
100
AcDbLine
 10
306.1700197016195
 20
301.5454304623172
 30
0.0
 11
306.1700197016195
 21
300.0451304623172
 31
0.0
  0
LINE
  5
412
330
1A
100
AcDbEntity
  8
SEIHIN
  6
CONTINUOUS
 62
     3
100
AcDbLine
 10
310.6698197016195
 20
300.0450304623171
 30
0.0
 11
290.6698197016194
 21
300.0450304623171
 31
0.0
  0
LINE
  5
413
330
1A
100
AcDbEntity
  8
SEIHIN
  6
CONTINUOUS
 62
     3
100
AcDbLine
 10
297.6698197016195
 20
289.0449304623171
 30
0.0
 11
310.6697197016195
 21
289.0449304623171
 31
0.0
  0
LINE
  5
414
330
1A
100
AcDbEntity
  8
SEIHIN
  6
CONTINUOUS
 62
     3
100
AcDbLine
 10
295.1701197016194
 20
288.6454304623171
 30
0.0
 11
306.1701197016194
 21
288.6454304623171
 31
0.0
  0
ARC
  5
415
330
1A
100
AcDbEntity
  8
SEIHIN
  6
CONTINUOUS
 62
     3
100
AcDbCircle
 10
300.6700197016194
 20
296.6924304623172
 30
0.0
 40
9.747010259561621
100
AcDbArc
 50
235.6479976531777
 51
304.3520023468222
  0
LINE
  5
416
330
1A
100
AcDbEntity
  8
SEIHIN
  6
CONTINUOUS
 62
     3
100
AcDbLine
 10
297.6698197016195
 20
289.0449304623171
 30
0.0
 11
290.6698197016194
 21
296.0449304623172
 31
0.0
  0
LINE
  5
417
330
1A
100
AcDbEntity
  8
SEIHIN
  6
CONTINUOUS
 62
     3
100
AcDbLine
 10
291.1465197016195
 20
289.4451304623172
 30
0.0
 11
291.1465197016195
 21
289.8450304623172
 31
0.0
  0
LINE
  5
418
330
1A
100
AcDbEntity
  8
SEIHIN
  6
CONTINUOUS
 62
     3
100
AcDbLine
 10
297.2695197016194
 20
289.4452304623171
 30
0.0
 11
291.1465197016195
 21
289.4452304623171
 31
0.0
  0
LINE
  5
419
330
1A
100
AcDbEntity
  8
SEIHIN
  6
CONTINUOUS
 62
     3
100
AcDbLine
 10
295.1701197016194
 20
288.6454304623171
 30
0.0
 11
295.1701197016194
 21
289.4453304623172
 31
0.0
  0
LINE
  5
41B
330
1A
100
AcDbEntity
  8
SEIHIN
  6
CONTINUOUS
 62
     3
100
AcDbLine
 10
290.6698197016194
 20
296.0449304623172
 30
0.0
 11
290.6698197016194
 21
300.0449304623172
 31
0.0
  0
ARC
  5
41C
330
1A
100
AcDbEntity
  8
SEIHIN
  6
CONTINUOUS
 62
     3
100
AcDbCircle
 10
310.6697837033316
 20
300.044962208589
 30
0.0
 40
11.00003174645808
100
AcDbArc
 50
269.999666634782
 51
322.7645340726747
  0
LINE
  5
41D
330
1A
100
AcDbEntity
  8
SEIHIN
  6
CONTINUOUS
 62
     3
100
AcDbLine
 10
306.1701197016194
 20
288.6454304623171
 30
0.0
 11
306.1701197016194
 21
289.0449304623171
 31
0.0
  0
LINE
  5
41E
330
1A
100
AcDbEntity
  8
SEIHIN
  6
CONTINUOUS
 62
     3
100
AcDbLine
 10
323.5741645606195
 20
298.8450304623171
 30
0.0
 11
349.0408197016193
 21
298.8450304623171
 31
0.0
  0
LINE
  5
41F
330
1A
100
AcDbEntity
  8
SEIHIN
  6
CONTINUOUS
 62
     3
100
AcDbLine
 10
350.9466197016194
 20
288.8451304623172
 30
0.0
 11
346.7965197016195
 21
288.8451304623172
 31
0.0
  0
LINE
  5
420
330
1A
100
AcDbEntity
  8
SEIHIN
  6
CONTINUOUS
 62
     3
100
AcDbLine
 10
346.7965197016195
 20
288.8450304623172
 30
0.0
 11
346.7965197016195
 21
289.4450304623172
 31
0.0
  0
LINE
  5
421
330
1A
100
AcDbEntity
  8
SEIHIN
  6
CONTINUOUS
 62
     3
100
AcDbLine
 10
350.9466197016194
 20
288.8450304623172
 30
0.0
 11
350.9466197016194
 21
289.4450304623172
 31
0.0
  0
LINE
  5
422
330
1A
100
AcDbEntity
  8
SEIHIN
  6
CONTINUOUS
 62
     3
100
AcDbLine
 10
303.9200197016195
 20
305.7454304623173
 30
0.0
 11
305.3539197016195
 21
311.0966304623172
 31
0.0
  0
LINE
  5
423
330
1A
100
AcDbEntity
  8
SEIHIN
  6
CONTINUOUS
 62
     3
100
AcDbLine
 10
305.1700197016195
 20
302.7454304623172
 30
0.0
 11
303.9200197016195
 21
305.7454304623173
 31
0.0
  0
LINE
  5
424
330
1A
100
AcDbEntity
  8
SEIHIN
  6
CONTINUOUS
 62
     3
100
AcDbLine
 10
305.1700197016195
 20
302.7454304623172
 30
0.0
 11
300.6700197016195
 21
302.7454304623172
 31
0.0
  0
LINE
  5
425
330
1A
100
AcDbEntity
  8
SEIHIN
  6
CONTINUOUS
 62
     3
100
AcDbLine
 10
306.1700197016195
 20
301.5454304623172
 30
0.0
 11
300.6700197016195
 21
301.5454304623172
 31
0.0
  0
LINE
  5
426
330
1A
100
AcDbEntity
  8
SEIHIN
  6
CONTINUOUS
 62
     3
100
AcDbLine
 10
295.0203197016195
 20
310.8377304623172
 30
0.0
 11
296.3219197016195
 21
305.9802304623172
 31
0.0
  0
ARC
  5
427
330
1A
100
AcDbEntity
  8
SEIHIN
  6
CONTINUOUS
 62
     3
100
AcDbCircle
 10
301.8060400725691
 20
311.0060064823745
 30
0.0
 40
10.00003573047764
100
AcDbArc
 50
204.9998628300822
 51
235.6955628025087
  0
LINE
  5
428
330
1A
100
AcDbEntity
  8
SEIHIN
  6
CONTINUOUS
 62
     3
100
AcDbLine
 10
295.1700197016195
 20
301.5454304623172
 30
0.0
 11
300.6700197016195
 21
301.5454304623172
 31
0.0
  0
ARC
  5
429
330
1A
100
AcDbEntity
  8
SEIHIN
  6
CONTINUOUS
 62
     3
100
AcDbCircle
 10
295.5771059713894
 20
305.2223280096973
 30
0.0
 40
0.4999732692047991
100
AcDbArc
 50
222.877368971804
 51
337.3801181495939
  0
ARC
  5
42A
330
1A
100
AcDbEntity
  8
SEIHIN
  6
CONTINUOUS
 62
     3
100
AcDbCircle
 10
294.5373355523047
 20
310.7083213111705
 30
0.0
 40
1.500016424910027
100
AcDbArc
 50
15.00301852584737
 51
104.9993290130914
  0
LINE
  5
42B
330
1A
100
AcDbEntity
  8
SEIHIN
  6
CONTINUOUS
 62
     3
100
AcDbLine
 10
291.4256197016195
 20
309.6048304623172
 30
0.0
 11
292.7429197016195
 21
306.7798304623171
 31
0.0
  0
ARC
  5
42C
330
1A
100
AcDbEntity
  8
SEIHIN
  6
CONTINUOUS
 62
     3
100
AcDbCircle
 10
292.7848392761971
 20
310.238772439065
 30
0.0
 40
1.499968002867922
100
AcDbArc
 50
104.9999718590788
 51
205.0011846144236
  0
ARC
  5
42D
330
1A
100
AcDbEntity
  8
SEIHIN
  6
CONTINUOUS
 62
     3
100
AcDbCircle
 10
301.8059572293782
 20
311.0061232949662
 30
0.0
 40
9.000024792293261
100
AcDbArc
 50
205.0008288656352
 51
222.8781744476678
  0
LINE
  5
42E
330
1A
100
AcDbEntity
  8
SEIHIN
  6
CONTINUOUS
 62
     3
100
AcDbLine
 10
294.1491197016195
 20
312.1572304623172
 30
0.0
 11
292.3968197016195
 21
311.6877304623172
 31
0.0
  0
LINE
  5
42F
330
1A
100
AcDbEntity
  8
SEIHIN
  6
CONTINUOUS
 62
     3
100
AcDbLine
 10
292.6556197016194
 20
310.7217304623172
 30
0.0
 11
294.4080197016194
 21
311.1913304623172
 31
0.0
  0
LINE
  5
430
330
1A
100
AcDbEntity
  8
SEIHIN
  6
CONTINUOUS
 62
     3
100
AcDbLine
 10
293.6492197016194
 20
307.2024304623173
 30
0.0
 11
292.3318197016195
 21
310.0275304623172
 31
0.0
  0
ARC
  5
431
330
1A
100
AcDbEntity
  8
SEIHIN
  6
CONTINUOUS
 62
     3
100
AcDbCircle
 10
292.7850167967929
 20
310.2388242325453
 30
0.0
 40
0.4999420316314657
100
AcDbArc
 50
105.0003056294915
 51
205.0011555088752
  0
ARC
  5
432
330
1A
100
AcDbEntity
  8
SEIHIN
  6
CONTINUOUS
 62
     3
100
AcDbCircle
 10
294.5373197016195
 20
310.7083304623173
 30
0.0
 40
0.5000333588871861
100
AcDbArc
 50
14.9978461818953
 51
104.997846181892
  0
LINE
  5
433
330
1A
100
AcDbEntity
  8
SEIHIN
  6
CONTINUOUS
 62
     3
100
AcDbLine
 10
303.1700197016195
 20
307.0454304623172
 30
0.0
 11
303.1700197016195
 21
305.7454304623173
 31
0.0
  0
LINE
  5
434
330
1A
100
AcDbEntity
  8
SEIHIN
  6
CONTINUOUS
 62
     3
100
AcDbLine
 10
298.1701197016194
 20
307.0454304623172
 30
0.0
 11
298.1701197016194
 21
305.7454304623173
 31
0.0
  0
LINE
  5
435
330
1A
100
AcDbEntity
  8
SEIHIN
  6
CONTINUOUS
 62
     3
100
AcDbLine
 10
297.4201197016194
 20
305.7454304623173
 30
0.0
 11
295.9862197016194
 21
311.0966304623172
 31
0.0
  0
LINE
  5
436
330
1A
100
AcDbEntity
  8
SEIHIN
  6
CONTINUOUS
 62
     3
100
AcDbLine
 10
300.6700197016195
 20
305.7454304623173
 30
0.0
 11
297.4201197016194
 21
305.7454304623173
 31
0.0
  0
LINE
  5
437
330
1A
100
AcDbEntity
  8
SEIHIN
  6
CONTINUOUS
 62
     3
100
AcDbLine
 10
296.1700197016194
 20
302.7454304623172
 30
0.0
 11
300.6700197016195
 21
302.7454304623172
 31
0.0
  0
LINE
  5
438
330
1A
100
AcDbEntity
  8
SEIHIN
  6
CONTINUOUS
 62
     3
100
AcDbLine
 10
296.1700197016194
 20
302.7454304623172
 30
0.0
 11
297.4201197016194
 21
305.7454304623173
 31
0.0
  0
LINE
  5
439
330
1A
100
AcDbEntity
  8
SEIHIN
  6
CONTINUOUS
 62
     3
100
AcDbLine
 10
296.1700197016194
 20
302.7454304623172
 30
0.0
 11
296.6700197016195
 21
301.5454304623172
 31
0.0
  0
LINE
  5
43A
330
1A
100
AcDbEntity
  8
SEIHIN
  6
CONTINUOUS
 62
     3
100
AcDbLine
 10
296.3005197016194
 20
305.6584304623172
 30
0.0
 11
296.0386197016195
 21
305.0300304623172
 31
0.0
  0
ARC
  5
43B
330
1A
100
AcDbEntity
  8
SEIHIN
  6
CONTINUOUS
 62
     3
100
AcDbCircle
 10
295.8389297564103
 20
305.850881608439
 30
0.0
 40
0.5000104130644015
100
AcDbArc
 50
337.3628230304298
 51
14.99248319646928
  0
LINE
  5
43C
330
1A
100
AcDbEntity
  8
SEIHIN
  6
CONTINUOUS
 62
     3
100
AcDbLine
 10
300.6700197016195
 20
305.7454304623173
 30
0.0
 11
303.9200197016195
 21
305.7454304623173
 31
0.0
  0
LINE
  5
43D
330
1A
100
AcDbEntity
  8
SEIHIN
  6
CONTINUOUS
 62
     3
100
AcDbLine
 10
300.6700197016195
 20
307.0454304623172
 30
0.0
 11
298.1701197016194
 21
307.0454304623172
 31
0.0
  0
LINE
  5
43E
330
1A
100
AcDbEntity
  8
SEIHIN
  6
CONTINUOUS
 62
     3
100
AcDbLine
 10
300.6701197016194
 20
307.0454304623172
 30
0.0
 11
303.1700197016195
 21
307.0454304623172
 31
0.0
  0
LINE
  5
43F
330
1A
100
AcDbEntity
  8
SEIHIN
  6
CONTINUOUS
 62
     3
100
AcDbLine
 10
308.6845197016195
 20
310.7217304623172
 30
0.0
 11
306.9322197016195
 21
311.1913304623172
 31
0.0
  0
LINE
  5
440
330
1A
100
AcDbEntity
  8
SEIHIN
  6
CONTINUOUS
 62
     3
100
AcDbLine
 10
307.6909197016194
 20
307.2024304623173
 30
0.0
 11
309.0083197016195
 21
310.0275304623172
 31
0.0
  0
LINE
  5
441
330
1A
100
AcDbEntity
  8
SEIHIN
  6
CONTINUOUS
 62
     3
100
AcDbLine
 10
307.1910197016195
 20
312.1572304623172
 30
0.0
 11
308.9433197016195
 21
311.6876304623172
 31
0.0
  0
ARC
  5
442
330
1A
100
AcDbEntity
  8
SEIHIN
  6
CONTINUOUS
 62
     3
100
AcDbCircle
 10
299.5341993306698
 20
311.0060064823745
 30
0.0
 40
10.00003573047762
100
AcDbArc
 50
304.3044371974906
 51
335.0001371699174
  0
LINE
  5
443
330
1A
100
AcDbEntity
  8
SEIHIN
  6
CONTINUOUS
 62
     3
100
AcDbLine
 10
306.3198197016195
 20
310.8377304623172
 30
0.0
 11
305.0182197016195
 21
305.9802304623172
 31
0.0
  0
ARC
  5
444
330
1A
100
AcDbEntity
  8
SEIHIN
  6
CONTINUOUS
 62
     3
100
AcDbCircle
 10
299.5342821738607
 20
311.0061232949662
 30
0.0
 40
9.000024792293261
100
AcDbArc
 50
317.1218255523321
 51
334.9991711343647
  0
LINE
  5
445
330
1A
100
AcDbEntity
  8
SEIHIN
  6
CONTINUOUS
 62
     3
100
AcDbLine
 10
305.1700197016195
 20
302.7454304623172
 30
0.0
 11
304.6700197016194
 21
301.5454304623172
 31
0.0
  0
LINE
  5
446
330
1A
100
AcDbEntity
  8
SEIHIN
  6
CONTINUOUS
 62
     3
100
AcDbLine
 10
305.0397197016195
 20
305.6584304623172
 30
0.0
 11
305.3015197016195
 21
305.0300304623172
 31
0.0
  0
ARC
  5
447
330
1A
100
AcDbEntity
  8
SEIHIN
  6
CONTINUOUS
 62
     3
100
AcDbCircle
 10
305.501219586409
 20
305.850732194867
 30
0.0
 40
0.4999620985658942
100
AcDbArc
 50
164.988306886614
 51
202.6209348440397
  0
ARC
  5
448
330
1A
100
AcDbEntity
  8
SEIHIN
  6
CONTINUOUS
 62
     3
100
AcDbCircle
 10
305.7630794113718
 20
305.2223376609305
 30
0.0
 40
0.5000194239278282
100
AcDbArc
 50
202.6188762781183
 51
317.1260325116974
  0
ARC
  5
449
330
1A
100
AcDbEntity
  8
SEIHIN
  6
CONTINUOUS
 62
     3
100
AcDbCircle
 10
306.8028197016195
 20
310.7083304623173
 30
0.0
 40
0.5000333588871314
100
AcDbArc
 50
75.00215381810808
 51
165.0021538181093
  0
ARC
  5
44A
330
1A
100
AcDbEntity
  8
SEIHIN
  6
CONTINUOUS
 62
     3
100
AcDbCircle
 10
306.8028197016195
 20
310.7083304623173
 30
0.0
 40
1.50000348332929
100
AcDbArc
 50
75.00116534316669
 51
165.0011653431674
  0
LINE
  5
44B
330
1A
100
AcDbEntity
  8
SEIHIN
  6
CONTINUOUS
 62
     3
100
AcDbLine
 10
309.9146197016195
 20
309.6048304623172
 30
0.0
 11
308.5972197016195
 21
306.7798304623171
 31
0.0
  0
ARC
  5
44C
330
1A
100
AcDbEntity
  8
SEIHIN
  6
CONTINUOUS
 62
     3
100
AcDbCircle
 10
308.5551592575364
 20
310.2387456188862
 30
0.0
 40
0.5000084834054097
100
AcDbArc
 50
334.9996914388832
 51
75.00608266149995
  0
ARC
  5
44D
330
1A
100
AcDbEntity
  8
SEIHIN
  6
CONTINUOUS
 62
     3
100
AcDbCircle
 10
308.5551634277402
 20
310.2387366876778
 30
0.0
 40
1.499986154316334
100
AcDbArc
 50
335.0006455034246
 51
75.00271712964153
  0
ARC
  5
44E
330
1A
100
AcDbEntity
  8
SEIHIN
  6
CONTINUOUS
 62
     3
100
AcDbCircle
 10
334.9523039493934
 20
315.4689217729094
 30
0.0
 40
9.999955476411765
100
AcDbArc
 50
94.99960142639947
 51
142.7651447559171
  0
ARC
  5
44F
330
1A
100
AcDbEntity
  8
SEIHIN
  6
CONTINUOUS
 62
     3
100
AcDbCircle
 10
341.2913126280096
 20
303.9776265603113
 30
0.0
 40
11.00006022188277
100
AcDbArc
 50
94.99986671047571
 51
142.7648289625839
  0
LINE
  5
450
330
1A
100
AcDbEntity
  8
SEIHIN
  6
CONTINUOUS
 62
     3
100
AcDbLine
 10
394.3965197016193
 20
293.8450304623172
 30
0.0
 11
394.3965197016193
 21
306.8450304623172
 31
0.0
  0
LINE
  5
451
330
1A
100
AcDbEntity
  8
SEIHIN
  6
CONTINUOUS
 62
     3
100
AcDbLine
 10
393.5965197016193
 20
287.7949304623172
 30
0.0
 11
393.5965197016193
 21
307.9138304623172
 31
0.0
  0
LINE
  5
452
330
1A
100
AcDbEntity
  8
SEIHIN
  6
CONTINUOUS
 62
     3
100
AcDbLine
 10
392.3965197016193
 20
306.8450304623172
 30
0.0
 11
392.3965197016193
 21
287.7949304623172
 31
0.0
  0
LINE
  5
453
330
1A
100
AcDbEntity
  8
SEIHIN
  6
CONTINUOUS
 62
     3
100
AcDbLine
 10
371.4090197016195
 20
307.6046304623171
 30
0.0
 11
360.3903197016195
 21
291.9653304623171
 31
0.0
  0
LINE
  5
454
330
1A
100
AcDbEntity
  8
SEIHIN
  6
CONTINUOUS
 62
     3
100
AcDbLine
 10
417.6639197016195
 20
283.8520304623172
 30
0.0
 11
402.0114197016195
 21
315.1569304623171
 31
0.0
  0
LINE
  5
455
330
1A
100
AcDbEntity
  8
NOKITOI
  6
PHANTOM
 62
     8
 48
5.0
100
AcDbLine
 10
390.6699570138668
 20
307.9693932744539
 30
0.0
 11
390.2798570138667
 21
295.4849932744538
 31
0.0
  0
LINE
  5
456
330
1A
100
AcDbEntity
  8
NOKITOI
  6
PHANTOM
 62
     8
 48
5.0
100
AcDbLine
 10
382.2095570138668
 20
301.0055932744539
 30
0.0
 11
381.8937570138665
 21
307.0055932744539
 31
0.0
  0
ARC
  5
457
330
1A
100
AcDbEntity
  8
NOKITOI
  6
PHANTOM
 62
     8
 48
5.0
100
AcDbCircle
 10
385.2194260869306
 20
300.0319290191177
 30
0.0
 40
3.99998565374706
100
AcDbArc
 50
358.2086966591014
 51
83.52422380468325
  0
LINE
  5
458
330
1A
100
AcDbEntity
  8
NOKITOI
  6
PHANTOM
 62
     8
 48
5.0
100
AcDbLine
 10
385.4529570138666
 20
301.1025932744539
 30
0.0
 11
385.1191570138668
 21
303.438793274454
 31
0.0
  0
LINE
  5
459
330
1A
100
AcDbEntity
  8
NOKITOI
  6
PHANTOM
 62
     8
 48
5.0
100
AcDbLine
 10
388.7805570138667
 20
294.0318932744539
 30
0.0
 11
382.6394570138669
 21
294.0318932744539
 31
0.0
  0
LINE
  5
45A
330
1A
100
AcDbEntity
  8
SEIHIN
  6
CONTINUOUS
 62
     3
100
AcDbLine
 10
383.0465197016195
 20
293.2701304623171
 30
0.0
 11
391.9340197016195
 21
287.5428304623172
 31
0.0
  0
LINE
  5
45B
330
1A
100
AcDbEntity
  8
SEIHIN
  6
CONTINUOUS
 62
     3
100
AcDbLine
 10
382.3965197016193
 20
292.2614304623171
 30
0.0
 11
391.2840197016194
 21
286.5341304623172
 31
0.0
  0
ARC
  5
45C
330
1A
100
AcDbEntity
  8
NOKITOI
  6
PHANTOM
 62
     8
 48
5.0
100
AcDbCircle
 10
387.132895001691
 20
297.2318300950261
 30
0.0
 40
2.000036820932882
100
AcDbArc
 50
269.9989117490339
 51
358.2110591274196
  0
LINE
  5
45D
330
1A
100
AcDbEntity
  8
NOKITOI
  6
PHANTOM
 62
     8
 48
5.0
100
AcDbLine
 10
380.6034570138669
 20
294.7816932744539
 30
0.0
 11
377.6104570138664
 21
264.8518932744538
 31
0.0
  0
LINE
  5
45E
330
1A
100
AcDbEntity
  8
NOKITOI
  6
PHANTOM
 62
     8
 48
5.0
100
AcDbLine
 10
381.644457013867
 20
293.1313932744539
 30
0.0
 11
378.7756570138668
 21
264.4439932744539
 31
0.0
  0
LINE
  5
45F
330
1A
100
AcDbEntity
  8
NOKITOI
  6
PHANTOM
 62
     8
 48
5.0
100
AcDbLine
 10
378.4138570138667
 20
263.769493274454
 30
0.0
 11
368.0107570138667
 21
255.257793274454
 31
0.0
  0
LINE
  5
460
330
1A
100
AcDbEntity
  8
NOKITOI
  6
PHANTOM
 62
     8
 48
5.0
100
AcDbLine
 10
377.4295570138671
 20
264.5145932744539
 30
0.0
 11
367.4442570138668
 21
256.3447932744538
 31
0.0
  0
ARC
  5
461
330
1A
100
AcDbEntity
  8
NOKITOI
  6
PHANTOM
 62
     8
 48
5.0
100
AcDbCircle
 10
367.1276634016154
 20
256.7317955544435
 30
0.0
 40
0.5000022800304047
100
AcDbArc
 50
269.9992680212786
 51
309.2854498596058
  0
ARC
  5
462
330
1A
100
AcDbEntity
  8
NOKITOI
  6
PHANTOM
 62
     8
 48
5.0
100
AcDbCircle
 10
367.3774500812893
 20
256.0317907994478
 30
0.0
 40
0.9999975250179316
100
AcDbArc
 50
270.0003972084043
 51
309.2946416752298
  0
ARC
  5
463
330
1A
100
AcDbEntity
  8
NOKITOI
  6
PHANTOM
 62
     8
 48
5.0
100
AcDbCircle
 10
377.1129395879885
 20
264.9015607880659
 30
0.0
 40
0.4999904508696396
100
AcDbArc
 50
309.2900846377958
 51
354.2990110749245
  0
ARC
  5
464
330
1A
100
AcDbEntity
  8
NOKITOI
  6
PHANTOM
 62
     8
 48
5.0
100
AcDbCircle
 10
377.7806344409979
 20
264.5434512027813
 30
0.0
 40
0.9999908507640039
100
AcDbArc
 50
309.2887092230696
 51
354.2862329477531
  0
ARC
  5
465
330
1A
100
AcDbEntity
  8
SEIHIN
  6
CONTINUOUS
 62
     3
100
AcDbCircle
 10
356.3028725524516
 20
294.8450060046976
 30
0.0
 40
4.999975542602624
100
AcDbArc
 50
270.0005402923082
 51
324.8346578053964
  0
ARC
  5
466
330
1A
100
AcDbEntity
  8
SEIHIN
  6
CONTINUOUS
 62
     3
100
AcDbCircle
 10
374.3965197016195
 20
290.3450304623172
 30
0.0
 40
0.9000000000000198
100
AcDbArc
 50
269.999999999999
 51
359.999999999999
  0
ARC
  5
467
330
1A
100
AcDbEntity
  8
SEIHIN
  6
CONTINUOUS
 62
     3
100
AcDbCircle
 10
375.9965197016195
 20
290.3450304623172
 30
0.0
 40
0.8999999999999914
100
AcDbArc
 50
270.0000000000009
 51
0.0000000000009047
  0
LINE
  5
468
330
1A
100
AcDbEntity
  8
SEIHIN
  6
CONTINUOUS
 62
     3
100
AcDbLine
 10
376.8966197016195
 20
297.8450304623172
 30
0.0
 11
376.8965197016195
 21
290.3450304623172
 31
0.0
  0
LINE
  5
469
330
1A
100
AcDbEntity
  8
SEIHIN
  6
CONTINUOUS
 62
     3
100
AcDbLine
 10
375.2965197016195
 20
290.3450304623172
 30
0.0
 11
375.2965197016195
 21
297.8450304623172
 31
0.0
  0
LINE
  5
46A
330
1A
100
AcDbEntity
  8
SEIHIN
  6
CONTINUOUS
 62
     3
100
AcDbLine
 10
374.8965197016195
 20
290.3450304623172
 30
0.0
 11
374.8965197016195
 21
297.8450304623172
 31
0.0
  0
ARC
  5
46B
330
1A
100
AcDbEntity
  8
SEIHIN
  6
CONTINUOUS
 62
     3
100
AcDbCircle
 10
374.3965197016195
 20
290.3450304623172
 30
0.0
 40
0.5
100
AcDbArc
 50
270.0
 51
0.0
  0
LINE
  5
46C
330
1A
100
AcDbEntity
  8
SEIHIN
  6
CONTINUOUS
 62
     3
100
AcDbLine
 10
376.8966197016195
 20
297.8450304623172
 30
0.0
 11
374.8966197016195
 21
297.8450304623172
 31
0.0
  0
ARC
  5
46D
330
1A
100
AcDbEntity
  8
NOKITOI
  6
PHANTOM
 62
     8
 48
5.0
100
AcDbCircle
 10
382.6394776637076
 20
293.0319119623031
 30
0.0
 40
0.9999813123640345
100
AcDbArc
 50
90.00118317084957
 51
174.290590033351
  0
LINE
  5
46E
330
1A
100
AcDbEntity
  8
SEIHIN
  6
CONTINUOUS
 62
     3
100
AcDbLine
 10
382.3965197016193
 20
292.2614304623171
 30
0.0
 11
383.0464197016195
 21
293.2701304623171
 31
0.0
  0
LINE
  5
46F
330
1A
100
AcDbEntity
  8
NOKITOI
  6
PHANTOM
 62
     8
 48
5.0
100
AcDbLine
 10
381.1009570138663
 20
295.2318932744539
 30
0.0
 11
387.1328570138667
 21
295.2318932744539
 31
0.0
  0
LINE
  5
470
330
1A
100
AcDbEntity
  8
NOKITOI
  6
PHANTOM
 62
     8
 48
5.0
100
AcDbLine
 10
382.7088570138668
 20
300.5318932744539
 30
0.0
 11
384.9579570138663
 21
300.5318932744539
 31
0.0
  0
ARC
  5
471
330
1A
100
AcDbEntity
  8
NOKITOI
  6
PHANTOM
 62
     8
 48
5.0
100
AcDbCircle
 10
381.1009700848714
 20
294.7319051047338
 30
0.0
 40
0.499988169890889
100
AcDbArc
 50
90.00149786226627
 51
174.2966061377156
  0
ARC
  5
472
330
1A
100
AcDbEntity
  8
NOKITOI
  6
PHANTOM
 62
     8
 48
5.0
100
AcDbCircle
 10
382.7088611352734
 20
301.0318893644234
 30
0.0
 40
0.4999960899864752
100
AcDbArc
 50
183.0147243791737
 51
269.9995277178594
  0
ARC
  5
473
330
1A
100
AcDbEntity
  8
NOKITOI
  6
PHANTOM
 62
     8
 48
5.0
100
AcDbCircle
 10
384.9579672003029
 20
301.031905019178
 30
0.0
 40
0.5000117448278309
100
AcDbArc
 50
269.9988327478018
 51
8.127314608715803
  0
ARC
  5
474
330
1A
100
AcDbEntity
  8
SEIHIN
  6
CONTINUOUS
 62
     3
100
AcDbCircle
 10
392.0965575542413
 20
287.7949511006515
 30
0.0
 40
1.499962147520053
100
AcDbArc
 50
237.2001798555939
 51
359.9992116538058
  0
ARC
  5
475
330
1A
100
AcDbEntity
  8
SEIHIN
  6
CONTINUOUS
 62
     3
100
AcDbCircle
 10
392.096552488536
 20
287.7949483363794
 30
0.0
 40
0.2999672136158423
100
AcDbArc
 50
237.1913454210929
 51
359.9965859324747
  0
ARC
  5
476
330
1A
100
AcDbEntity
  8
NOKITOI
  6
PHANTOM
 62
     8
 48
5.0
100
AcDbCircle
 10
388.7805742270448
 20
295.5319099576017
 30
0.0
 40
1.500016683246579
100
AcDbArc
 50
269.9993425123348
 51
358.207642324411
  0
ARC
  5
477
330
1A
100
AcDbEntity
  8
SEIHIN
  6
CONTINUOUS
 62
     3
100
AcDbCircle
 10
393.5965197016193
 20
293.8450304623172
 30
0.0
 40
0.7999999999999688
100
AcDbArc
 50
270.000000000001
 51
0.0000000000010178
  0
LINE
  5
478
330
1A
100
AcDbEntity
  8
NOKITOI
  6
PHANTOM
 62
     8
 48
5.0
100
AcDbLine
 10
389.1319570138668
 20
297.1692932744539
 30
0.0
 11
389.2174570138664
 21
299.9068932744539
 31
0.0
  0
ARC
  5
479
330
1A
100
AcDbEntity
  8
SEIHIN
  6
CONTINUOUS
 62
     3
100
AcDbCircle
 10
387.3965197016194
 20
306.8450304623173
 30
0.0
 40
4.999999999999886
100
AcDbArc
 50
359.9999999999993
 51
89.99999999999934
  0
LINE
  5
47A
330
1A
100
AcDbEntity
  8
SEIHIN
  6
CONTINUOUS
 62
     3
100
AcDbLine
 10
390.3957197016195
 20
315.2467304623172
 30
0.0
 11
386.5344197016193
 21
318.8269304623172
 31
0.0
  0
ARC
  5
47B
330
1A
100
AcDbEntity
  8
NOKITOI
  6
PHANTOM
 62
     8
 48
5.0
100
AcDbCircle
 10
385.2194391475155
 20
300.0319020028338
 30
0.0
 40
5.199991271650611
100
AcDbArc
 50
37.92532860473096
 51
89.99980314072548
  0
LINE
  5
47C
330
1A
100
AcDbEntity
  8
NOKITOI
  6
PHANTOM
 62
     8
 48
5.0
100
AcDbLine
 10
388.670957013867
 20
310.0317932744539
 30
0.0
 11
385.3443570138666
 21
310.0318932744539
 31
0.0
  0
LINE
  5
47D
330
1A
100
AcDbEntity
  8
NOKITOI
  6
PHANTOM
 62
     8
 48
5.0
100
AcDbLine
 10
388.670957013867
 20
308.8317932744538
 30
0.0
 11
386.1982570138667
 21
308.8318932744541
 31
0.0
  0
ARC
  5
47E
330
1A
100
AcDbEntity
  8
SEIHIN
  6
CONTINUOUS
 62
     3
100
AcDbCircle
 10
379.5838584848936
 20
301.8450505801077
 30
0.0
 40
9.999979882284623
100
AcDbArc
 50
90.00022221223971
 51
144.8338713373227
  0
LINE
  5
47F
330
1A
100
AcDbEntity
  8
SEIHIN
  6
CONTINUOUS
 62
     3
100
AcDbLine
 10
364.0516197016194
 20
312.7881304623172
 30
0.0
 11
357.2156197016195
 21
303.0855304623171
 31
0.0
  0
ARC
  5
480
330
1A
100
AcDbEntity
  8
SEIHIN
  6
CONTINUOUS
 62
     3
100
AcDbCircle
 10
379.583872962402
 20
301.8450843636143
 30
0.0
 40
19.00003024406616
100
AcDbArc
 50
125.8514733178784
 51
144.8338901924748
  0
LINE
  5
481
330
1A
100
AcDbEntity
  8
SEIHIN
  6
CONTINUOUS
 62
     3
100
AcDbLine
 10
387.3965197016195
 20
311.8450304623172
 30
0.0
 11
379.5838197016194
 21
311.8450304623172
 31
0.0
  0
LINE
  5
482
330
1A
100
AcDbEntity
  8
NOKITOI
  6
PHANTOM
 62
     8
 48
5.0
100
AcDbLine
 10
384.7574570138668
 20
305.2318932744539
 30
0.0
 11
383.7616570138667
 21
306.331893274454
 31
0.0
  0
LINE
  5
483
330
1A
100
AcDbEntity
  8
NOKITOI
  6
PHANTOM
 62
     8
 48
5.0
100
AcDbLine
 10
383.3729570138667
 20
301.7318932744539
 30
0.0
 11
384.1508570138663
 21
301.7318932744539
 31
0.0
  0
LINE
  5
484
330
1A
100
AcDbEntity
  8
NOKITOI
  6
PHANTOM
 62
     8
 48
5.0
100
AcDbLine
 10
384.1508570138663
 20
301.7318932744539
 30
0.0
 11
383.7468570138668
 21
304.5602932744538
 31
0.0
  0
LINE
  5
485
330
1A
100
AcDbEntity
  8
NOKITOI
  6
PHANTOM
 62
     8
 48
5.0
100
AcDbLine
 10
383.7468570138668
 20
304.5602932744538
 30
0.0
 11
383.1918570138665
 21
305.1732932744538
 31
0.0
  0
LINE
  5
486
330
1A
100
AcDbEntity
  8
NOKITOI
  6
PHANTOM
 62
     8
 48
5.0
100
AcDbLine
 10
383.3729570138667
 20
301.7318932744539
 30
0.0
 11
383.1918570138665
 21
305.1732932744538
 31
0.0
  0
LINE
  5
487
330
1A
100
AcDbEntity
  8
NOKITOI
  6
PHANTOM
 62
     8
 48
5.0
100
AcDbLine
 10
384.7574570138668
 20
305.2318932744539
 30
0.0
 11
385.2194570138668
 21
305.2318932744539
 31
0.0
  0
ARC
  5
488
330
1A
100
AcDbEntity
  8
NOKITOI
  6
PHANTOM
 62
     8
 48
5.0
100
AcDbCircle
 10
385.6141863863664
 20
303.5095235069488
 30
0.0
 40
0.4999578477751074
100
AcDbArc
 50
83.52609071220776
 51
188.1330561712924
  0
LINE
  5
489
330
1A
100
AcDbEntity
  8
NOKITOI
  6
PHANTOM
 62
     8
 48
5.0
100
AcDbLine
 10
386.6982570138667
 20
306.331893274454
 30
0.0
 11
383.7616570138667
 21
306.331893274454
 31
0.0
  0
LINE
  5
48A
330
1A
100
AcDbEntity
  8
NOKITOI
  6
PHANTOM
 62
     8
 48
5.0
100
AcDbLine
 10
382.3930570138669
 20
307.5318932744539
 30
0.0
 11
384.6245570138668
 21
307.5318932744539
 31
0.0
  0
ARC
  5
48B
330
1A
100
AcDbEntity
  8
NOKITOI
  6
PHANTOM
 62
     8
 48
5.0
100
AcDbCircle
 10
382.393060723362
 20
307.0318971844846
 30
0.0
 40
0.4999960899831856
100
AcDbArc
 50
90.00042508015132
 51
183.0156217414654
  0
LINE
  5
48C
330
1A
100
AcDbEntity
  8
NOKITOI
  6
PHANTOM
 62
     8
 48
5.0
100
AcDbLine
 10
386.1982570138667
 20
308.8318932744541
 30
0.0
 11
386.6982570138667
 21
306.331893274454
 31
0.0
  0
LINE
  5
48D
330
1A
100
AcDbEntity
  8
NOKITOI
  6
PHANTOM
 62
     8
 48
5.0
100
AcDbLine
 10
385.1148570138667
 20
308.1298932744541
 30
0.0
 11
384.8540570138667
 21
309.4338932744539
 31
0.0
  0
ARC
  5
48E
330
1A
100
AcDbEntity
  8
NOKITOI
  6
PHANTOM
 62
     8
 48
5.0
100
AcDbCircle
 10
384.6245562308583
 20
308.0318923194521
 30
0.0
 40
0.4999990449987399
100
AcDbArc
 50
270.0000897263054
 51
11.30328019845509
  0
ARC
  5
48F
330
1A
100
AcDbEntity
  8
NOKITOI
  6
PHANTOM
 62
     8
 48
5.0
100
AcDbCircle
 10
385.3443497593112
 20
309.5318844246104
 30
0.0
 40
0.500008849895925
100
AcDbArc
 50
89.99916870385492
 51
191.3135956695117
  0
ARC
  5
490
330
1A
100
AcDbEntity
  8
SEIHIN
  6
CONTINUOUS
 62
     3
100
AcDbCircle
 10
396.4714828019572
 20
312.8205951709725
 30
0.0
 40
6.999970147929772
100
AcDbArc
 50
26.56554052496019
 51
94.99979872162468
  0
LINE
  5
491
330
1A
100
AcDbEntity
  8
SEIHIN
  6
CONTINUOUS
 62
     3
100
AcDbLine
 10
407.3780197016195
 20
317.8402304623171
 30
0.0
 11
402.0115197016194
 21
315.1569304623171
 31
0.0
  0
ARC
  5
492
330
1A
100
AcDbEntity
  8
SEIHIN
  6
CONTINUOUS
 62
     3
100
AcDbCircle
 10
383.596506125388
 20
307.9138615646367
 30
0.0
 40
10.00001357627982
100
AcDbArc
 50
359.9998217970781
 51
47.16257416882949
  0
LINE
  5
493
330
1A
100
AcDbEntity
  8
NOKITOI
  6
PHANTOM
 62
     8
 48
5.0
100
AcDbLine
 10
389.4705570138663
 20
308.0068932744538
 30
0.0
 11
389.3212570138667
 21
303.227893274454
 31
0.0
  0
ARC
  5
494
330
1A
100
AcDbEntity
  8
NOKITOI
  6
PHANTOM
 62
     8
 48
5.0
100
AcDbCircle
 10
388.6710009802196
 20
308.0318479119809
 30
0.0
 40
0.7999453636812564
100
AcDbArc
 50
358.212343644788
 51
90.00314907315372
  0
ARC
  5
495
330
1A
100
AcDbEntity
  8
NOKITOI
  6
PHANTOM
 62
     8
 48
5.0
100
AcDbCircle
 10
388.6709457768726
 20
308.031904868271
 30
0.0
 40
1.999988406214315
100
AcDbArc
 50
358.2088726535929
 51
89.99967808195611
  0
ARC
  5
496
330
1A
100
AcDbEntity
  8
SEIHIN
  6
CONTINUOUS
 62
     3
100
AcDbCircle
 10
387.3965247780517
 20
306.8450140797713
 30
0.0
 40
6.999994923586839
100
AcDbArc
 50
0.0001340930592666
 51
34.43324081693328
  0
LINE
  5
497
330
1A
100
AcDbEntity
  8
CENTER_L
  6
CENTER
 62
     1
 48
5.0
100
AcDbLine
 10
415.2834197016195
 20
313.9666304623172
 30
0.0
 11
402.7749197016194
 21
307.7124304623172
 31
0.0
  0
LINE
  5
498
330
1A
100
AcDbEntity
  8
CENTER_L
  6
CENTER
 62
     1
 48
5.0
100
AcDbLine
 10
417.8695197016195
 20
308.5520304623173
 30
0.0
 11
405.4881197016195
 21
302.3613304623172
 31
0.0
  0
ARC
  5
499
330
1A
100
AcDbEntity
  8
SEIHIN
  6
CONTINUOUS
 62
     3
100
AcDbCircle
 10
397.7182839250776
 20
325.9793504711737
 30
0.0
 40
5.000005213059093
100
AcDbArc
 50
26.56517522389545
 51
94.99982809321879
  0
LINE
  5
49A
330
1A
100
AcDbEntity
  8
SEIHIN
  6
CONTINUOUS
 62
     3
100
AcDbLine
 10
384.558219701621
 20
453.9193360876064
 30
0.0
 11
331.3731757647331
 21
453.9194286213142
 31
0.0
  0
LINE
  5
49B
330
1A
100
AcDbEntity
  8
SEIHIN
  6
CONTINUOUS
 62
     3
100
AcDbLine
 10
384.558219701621
 20
461.9192325863815
 30
0.0
 11
331.3966149232455
 21
461.9191401137264
 31
0.0
  0
LINE
  5
49D
330
1A
100
AcDbEntity
  8
SEIHIN
  6
CONTINUOUS
 62
     3
100
AcDbLine
 10
305.3965197016194
 20
456.6692343477618
 30
0.0
 11
311.8969197016195
 21
456.6692343477618
 31
0.0
  0
ARC
  5
49E
330
1A
100
AcDbEntity
  8
SEIHIN
  6
CONTINUOUS
 62
     3
100
AcDbCircle
 10
302.3965197016195
 20
457.9192343477618
 30
0.0
 40
4.499996045553849
100
AcDbArc
 50
196.1276347721288
 51
343.8723652278712
  0
ARC
  5
49F
330
1A
100
AcDbEntity
  8
SEIHIN
  6
CONTINUOUS
 62
     3
100
AcDbCircle
 10
302.396531370091
 20
457.9192343476586
 30
0.0
 40
5.50001656496395
100
AcDbArc
 50
193.1354487834943
 51
346.8634814870458
  0
LINE
  5
4A0
330
1A
100
AcDbEntity
  8
SEIHIN
  6
CONTINUOUS
 62
     3
100
AcDbLine
 10
305.3965197016194
 20
459.169234347762
 30
0.0
 11
311.8969197016195
 21
459.169234347762
 31
0.0
  0
ARC
  5
4A1
330
1A
100
AcDbEntity
  8
SEIHIN
  6
CONTINUOUS
 62
     3
100
AcDbCircle
 10
302.3965197016195
 20
457.9192343477621
 30
0.0
 40
4.499996045553849
100
AcDbArc
 50
16.12763477212878
 51
163.8723652278712
  0
ARC
  5
4A2
330
1A
100
AcDbEntity
  8
SEIHIN
  6
CONTINUOUS
 62
     3
100
AcDbCircle
 10
302.3965197016195
 20
457.9192343477621
 30
0.0
 40
5.500027928110909
100
AcDbArc
 50
13.13649088801966
 51
166.8635091119803
  0
LINE
  5
4A3
330
1A
100
AcDbEntity
  8
SEIHIN
  6
CONTINUOUS
 62
     3
100
AcDbLine
 10
292.3965197016194
 20
448.969234347762
 30
0.0
 11
292.3965197016194
 21
457.9192343477618
 31
0.0
  0
LINE
  5
4A4
330
1A
100
AcDbEntity
  8
SEIHIN
  6
CONTINUOUS
 62
     3
100
AcDbLine
 10
299.3965197016195
 20
459.169234347762
 30
0.0
 11
292.8961197016194
 21
459.169334347762
 31
0.0
  0
LINE
  5
4A5
330
1A
100
AcDbEntity
  8
SEIHIN
  6
CONTINUOUS
 62
     3
100
AcDbLine
 10
299.3965197016195
 20
456.6692343477618
 30
0.0
 11
292.8961197016194
 21
456.669334347762
 31
0.0
  0
ARC
  5
4A6
330
1A
100
AcDbEntity
  8
SEIHIN
  6
CONTINUOUS
 62
     3
100
AcDbCircle
 10
297.8241197016195
 20
457.1692343477621
 30
0.0
 40
0.5000000000000569
100
AcDbArc
 50
179.9999999999934
 51
269.9999999999934
  0
ARC
  5
4A7
330
1A
100
AcDbEntity
  8
SEIHIN
  6
CONTINUOUS
 62
     3
100
AcDbCircle
 10
297.8241197016195
 20
458.669234347762
 30
0.0
 40
0.5000000000000569
100
AcDbArc
 50
90.00000000000651
 51
180.0000000000065
  0
ARC
  5
4A8
330
1A
100
AcDbEntity
  8
SEIHIN
  6
CONTINUOUS
 62
     3
100
AcDbCircle
 10
292.8961197016194
 20
457.169334347762
 30
0.0
 40
0.5
100
AcDbArc
 50
180.0
 51
270.0
  0
LINE
  5
4A9
330
1A
100
AcDbEntity
  8
SEIHIN
  6
CONTINUOUS
 62
     3
100
AcDbLine
 10
292.3961197016194
 20
457.169334347762
 30
0.0
 11
292.3961197016194
 21
458.669334347762
 31
0.0
  0
ARC
  5
4AA
330
1A
100
AcDbEntity
  8
SEIHIN
  6
CONTINUOUS
 62
     3
100
AcDbCircle
 10
292.8961197016194
 20
458.669334347762
 30
0.0
 40
0.5
100
AcDbArc
 50
90.0
 51
180.0
  0
LINE
  5
4AB
330
1A
100
AcDbEntity
  8
SEIHIN
  6
CONTINUOUS
 62
     3
100
AcDbLine
 10
297.3241197016194
 20
457.1692343477621
 30
0.0
 11
297.3241197016194
 21
458.6692343477619
 31
0.0
  0
ARC
  5
4AC
330
1A
100
AcDbEntity
  8
SEIHIN
  6
CONTINUOUS
 62
     3
100
AcDbCircle
 10
302.3965197016195
 20
457.9192343477618
 30
0.0
 40
2.499999999999971
100
AcDbArc
 50
180.0
 51
0.0
  0
ARC
  5
4AD
330
1A
100
AcDbEntity
  8
SEIHIN
  6
CONTINUOUS
 62
     3
100
AcDbCircle
 10
302.3965197016195
 20
457.9192343477618
 30
0.0
 40
3.250000000000028
100
AcDbArc
 50
180.0
 51
0.0
  0
ARC
  5
4AE
330
1A
100
AcDbEntity
  8
SEIHIN
  6
CONTINUOUS
 62
     3
100
AcDbCircle
 10
302.3965197016195
 20
457.9192343477618
 30
0.0
 40
2.499999999999971
100
AcDbArc
 50
0.0
 51
180.0
  0
ARC
  5
4AF
330
1A
100
AcDbEntity
  8
SEIHIN
  6
CONTINUOUS
 62
     3
100
AcDbCircle
 10
302.3965197016195
 20
457.9192343477618
 30
0.0
 40
3.250000000000028
100
AcDbArc
 50
0.0
 51
180.0
  0
LINE
  5
4B0
330
1A
100
AcDbEntity
  8
SEIHIN
  6
CONTINUOUS
 62
     3
100
AcDbLine
 10
312.3966197016195
 20
449.8448343477621
 30
0.0
 11
312.3966197016195
 21
457.919334347762
 31
0.0
  0
LINE
  5
4B1
330
1A
100
AcDbEntity
  8
SEIHIN
  6
CONTINUOUS
 62
     3
100
AcDbLine
 10
312.3965197016195
 20
449.969234347762
 30
0.0
 11
312.3965197016195
 21
465.8693343477621
 31
0.0
  0
ARC
  5
4B2
330
1A
100
AcDbEntity
  8
SEIHIN
  6
CONTINUOUS
 62
     3
100
AcDbCircle
 10
306.9689197016194
 20
457.1692343477621
 30
0.0
 40
0.5000000000000569
100
AcDbArc
 50
270.0000000000065
 51
0.0000000000065138
  0
ARC
  5
4B3
330
1A
100
AcDbEntity
  8
SEIHIN
  6
CONTINUOUS
 62
     3
100
AcDbCircle
 10
311.8969197016194
 20
457.1692343477621
 30
0.0
 40
0.5000000000000569
100
AcDbArc
 50
270.0000000000065
 51
0.0000000000065138
  0
LINE
  5
4B4
330
1A
100
AcDbEntity
  8
SEIHIN
  6
CONTINUOUS
 62
     3
100
AcDbLine
 10
307.4689197016195
 20
458.6692343477619
 30
0.0
 11
307.4689197016195
 21
457.1692343477621
 31
0.0
  0
ARC
  5
4B5
330
1A
100
AcDbEntity
  8
SEIHIN
  6
CONTINUOUS
 62
     3
100
AcDbCircle
 10
306.9689197016194
 20
458.669234347762
 30
0.0
 40
0.5000000000000569
100
AcDbArc
 50
359.9999999999934
 51
89.99999999999349
  0
LINE
  5
4B6
330
1A
100
AcDbEntity
  8
SEIHIN
  6
CONTINUOUS
 62
     3
100
AcDbLine
 10
312.3969197016195
 20
458.6692343477619
 30
0.0
 11
312.3969197016195
 21
457.1692343477621
 31
0.0
  0
ARC
  5
4B7
330
1A
100
AcDbEntity
  8
SEIHIN
  6
CONTINUOUS
 62
     3
100
AcDbCircle
 10
311.8969197016194
 20
458.669234347762
 30
0.0
 40
0.5000000000000569
100
AcDbArc
 50
359.9999999999934
 51
89.99999999999349
  0
LINE
  5
4B8
330
1A
100
AcDbEntity
  8
SEIHIN
  6
CONTINUOUS
 62
     3
100
AcDbLine
 10
331.3966197016195
 20
449.9692343477621
 30
0.0
 11
331.3966197016195
 21
453.1698343477619
 31
0.0
  0
LINE
  5
4BD
330
1A
100
AcDbEntity
  8
SEIHIN
  6
CONTINUOUS
 62
     3
100
AcDbLine
 10
385.5582197016195
 20
460.9192343258448
 30
0.0
 11
385.5582197016195
 21
454.9193343477618
 31
0.0
  0
LINE
  5
4BF
330
1A
100
AcDbEntity
  8
CENTER_L
  6
CENTER
 62
     1
 48
5.0
100
AcDbLine
 10
412.2352161013292
 20
439.9192343477619
 30
0.0
 11
412.2352161013292
 21
442.8594343477619
 31
0.0
  0
LINE
  5
4C0
330
1A
100
AcDbEntity
  8
CENTER_L
  6
CENTER
 62
     1
 48
5.0
100
AcDbLine
 10
414.9182785861514
 20
439.9192343477619
 30
0.0
 11
414.9182785861514
 21
444.1108343477619
 31
0.0
  0
ELLIPSE
  5
4C1
330
1A
100
AcDbEntity
  8
SEIHIN
  6
CONTINUOUS
 62
     3
100
AcDbEllipse
 10
414.0238699883472
 20
439.9192343477619
 30
0.0
 11
0.0
 21
-3.25
 31
0.0
210
0.0
220
0.0
230
1.0
 40
0.4472113097862908
 41
0.3127611362900813
 42
2.828831517299711
  0
ELLIPSE
  5
4C2
330
1A
100
AcDbEntity
  8
SEIHIN
  6
CONTINUOUS
 62
     3
100
AcDbEllipse
 10
412.2352161013292
 20
439.9192343477619
 30
0.0
 11
0.0
 21
-2.1
 31
0.0
210
0.0
220
0.0
230
1.0
 40
0.4472127371270961
 41
2.208358247414106
 42
7.216419713355286
  0
ELLIPSE
  5
4C3
330
1A
100
AcDbEntity
  8
SEIHIN
  6
CONTINUOUS
 62
     3
100
AcDbEllipse
 10
414.9182785861514
 20
439.9192343477619
 30
0.0
 11
0.0
 21
-3.249999999999999
 31
0.0
210
0.0
220
0.0
230
1.0
 40
0.4472127371261826
 41
-1.176005207095136
 42
4.317597860685054
  0
LINE
  5
4C4
330
1A
100
AcDbEntity
  8
SEIHIN
  6
CONTINUOUS
 62
     3
100
AcDbLine
 10
408.6371197016195
 20
447.1903343477619
 30
0.0
 11
408.6371197016195
 21
436.419234347762
 31
0.0
  0
LINE
  5
4C5
330
1A
100
AcDbEntity
  8
SEIHIN
  6
CONTINUOUS
 62
     3
100
AcDbLine
 10
409.0871197016195
 20
436.419334347762
 30
0.0
 11
409.0871197016195
 21
447.7106343477621
 31
0.0
  0
LINE
  5
4C6
330
1A
100
AcDbEntity
  8
SEIHIN
  6
CONTINUOUS
 62
     3
100
AcDbLine
 10
413.5766403747728
 20
438.6692343477618
 30
0.0
 11
412.0954630175697
 21
438.6692343477618
 31
0.0
  0
LINE
  5
4C7
330
1A
100
AcDbEntity
  8
CENTER_L
  6
CENTER
 62
     1
 48
5.0
100
AcDbLine
 10
412.2352161013292
 20
439.919334347762
 30
0.0
 11
412.2352161013292
 21
436.979134347762
 31
0.0
  0
ELLIPSE
  5
4C8
330
1A
100
AcDbEntity
  8
SEIHIN
  6
CONTINUOUS
 62
     3
100
AcDbEllipse
 10
409.9791197016195
 20
436.419234347762
 30
0.0
 11
0.0
 21
-2.0
 31
0.0
210
0.0
220
0.0
230
1.0
 40
0.4459999999999979
 41
-1.570796326794896
 42
0.0
  0
ELLIPSE
  5
4C9
330
1A
100
AcDbEntity
  8
SEIHIN
  6
CONTINUOUS
 62
     3
100
AcDbEllipse
 10
409.5291197016195
 20
436.419234347762
 30
0.0
 11
0.0
 21
-2.0
 31
0.0
210
0.0
220
0.0
230
1.0
 40
0.4459999999999979
 41
-1.570796326794896
 42
0.0
  0
ELLIPSE
  5
4CA
330
1A
100
AcDbEntity
  8
SEIHIN
  6
CONTINUOUS
 62
     3
100
AcDbEllipse
 10
411.340814636819
 20
439.9192343477619
 30
0.0
 11
0.0
 21
-2.1
 31
0.0
210
0.0
220
0.0
230
1.0
 40
0.4472113097849236
 41
0.4963036896275163
 42
0.9332344061756865
  0
LINE
  5
4CB
330
1A
100
AcDbEntity
  8
CENTER_L
  6
CENTER
 62
     1
 48
5.0
100
AcDbLine
 10
414.9182785861514
 20
439.9192343477619
 30
0.0
 11
414.9182785861514
 21
435.7276343477622
 31
0.0
  0
ARC
  5
4CC
330
1A
100
AcDbEntity
  8
SEIHIN
  6
CONTINUOUS
 62
     3
100
AcDbCircle
 10
404.7382429510788
 20
448.607408341342
 30
0.0
 40
1.000023249797633
100
AcDbArc
 50
179.9985099765452
 51
263.5912523738941
  0
LINE
  5
4CD
330
1A
100
AcDbEntity
  8
SEIHIN
  6
CONTINUOUS
 62
     3
100
AcDbLine
 10
402.3966197016195
 20
449.969234347762
 30
0.0
 11
402.3966197016195
 21
453.4471343477621
 31
0.0
  0
LINE
  5
4CF
330
1A
100
AcDbEntity
  8
SEIHIN
  6
CONTINUOUS
 62
     3
100
AcDbLine
 10
389.5582197016195
 20
460.9192343477618
 30
0.0
 11
389.5582197016194
 21
454.9193343477617
 31
0.0
  0
ARC
  5
4D1
330
1A
100
AcDbEntity
  8
SEIHIN
  6
CONTINUOUS
 62
     3
100
AcDbCircle
 10
405.3966197016939
 20
457.9192396258192
 30
0.0
 40
4.999988778987074
100
AcDbArc
 50
131.8099174366653
 51
228.1885451438782
  0
LINE
  5
4D4
330
1A
100
AcDbEntity
  8
SEIHIN
  6
CONTINUOUS
 62
     3
100
AcDbLine
 10
413.5766403747728
 20
441.1692343477618
 30
0.0
 11
412.0954630175697
 21
441.1692343477618
 31
0.0
  0
ELLIPSE
  5
4D5
330
1A
100
AcDbEntity
  8
SEIHIN
  6
CONTINUOUS
 62
     3
100
AcDbEllipse
 10
411.340814636819
 20
439.9192343477619
 30
0.0
 11
0.0
 21
-2.1
 31
0.0
210
0.0
220
0.0
230
1.0
 40
0.4472113097849236
 41
2.208358247414106
 42
2.645288963962276
  0
LINE
  5
4D6
330
1A
100
AcDbEntity
  8
SEIHIN
  6
CONTINUOUS
 62
     3
100
AcDbLine
 10
408.6371197016195
 20
447.1635343477621
 30
0.0
 11
404.6266197016195
 21
447.613634347762
 31
0.0
  0
LINE
  5
4D7
330
1A
100
AcDbEntity
  8
SEIHIN
  6
CONTINUOUS
 62
     3
100
AcDbLine
 10
408.6429197016194
 20
448.169134347762
 30
0.0
 11
404.6325197016193
 21
448.6192343477618
 31
0.0
  0
ARC
  5
4DA
330
1A
100
AcDbEntity
  8
SEIHIN
  6
CONTINUOUS
 62
     3
100
AcDbCircle
 10
408.5871080768897
 20
447.6722473509719
 30
0.0
 40
0.5000116248989445
100
AcDbArc
 50
359.998509976533
 51
83.59125237388761
  0
LINE
  5
4DB
330
1A
100
AcDbEntity
  8
SEIHIN
  6
CONTINUOUS
 62
     3
100
AcDbLine
 10
273.5722197016194
 20
464.219334347762
 30
0.0
 11
292.3965197016194
 21
464.219334347762
 31
0.0
  0
LINE
  5
4DC
330
1A
100
AcDbEntity
  8
SEIHIN
  6
CONTINUOUS
 62
     3
100
AcDbLine
 10
289.2335197016194
 20
465.419234347762
 30
0.0
 11
292.3965197016194
 21
465.419234347762
 31
0.0
  0
LINE
  5
4DF
330
1A
100
AcDbEntity
  8
SEIHIN
  6
CONTINUOUS
 62
     3
100
AcDbLine
 10
289.2335197016194
 20
465.419334347762
 30
0.0
 11
289.2335197016194
 21
464.219334347762
 31
0.0
  0
ARC
  5
4E0
330
1A
100
AcDbEntity
  8
SEIHIN
  6
CONTINUOUS
 62
     3
100
AcDbCircle
 10
404.7382429510788
 20
467.2311603541818
 30
0.0
 40
1.000023249797629
100
AcDbArc
 50
96.40874762610584
 51
180.0014900234547
  0
LINE
  5
4E1
330
1A
100
AcDbEntity
  8
SEIHIN
  6
CONTINUOUS
 62
     3
100
AcDbLine
 10
403.7382197016193
 20
467.2192343477618
 30
0.0
 11
403.7382197016193
 21
467.2311343477621
 31
0.0
  0
LINE
  5
4E3
330
1A
100
AcDbEntity
  8
CENTER_L
  6
CENTER
 62
     1
 48
5.0
100
AcDbLine
 10
412.2352161013292
 20
475.919334347762
 30
0.0
 11
412.2352161013292
 21
472.9791343477621
 31
0.0
  0
LINE
  5
4E4
330
1A
100
AcDbEntity
  8
CENTER_L
  6
CENTER
 62
     1
 48
5.0
100
AcDbLine
 10
414.9182785861514
 20
475.9192343477621
 30
0.0
 11
414.9182785861514
 21
471.7276343477619
 31
0.0
  0
ELLIPSE
  5
4E5
330
1A
100
AcDbEntity
  8
SEIHIN
  6
CONTINUOUS
 62
     3
100
AcDbEllipse
 10
414.0238699883472
 20
475.9192343477621
 30
0.0
 11
0.0
 21
-3.25
 31
0.0
210
0.0
220
0.0
230
1.0
 40
0.4472113097862908
 41
0.3127611362900813
 42
2.828831517299711
  0
ELLIPSE
  5
4E6
330
1A
100
AcDbEntity
  8
SEIHIN
  6
CONTINUOUS
 62
     3
100
AcDbEllipse
 10
412.2352161013292
 20
475.9192343477621
 30
0.0
 11
0.0
 21
-2.1
 31
0.0
210
0.0
220
0.0
230
1.0
 40
0.4472127371270961
 41
2.208358247414005
 42
7.216419713355286
  0
ELLIPSE
  5
4E7
330
1A
100
AcDbEntity
  8
SEIHIN
  6
CONTINUOUS
 62
     3
100
AcDbEllipse
 10
414.9182785861514
 20
475.9192343477621
 30
0.0
 11
0.0
 21
-3.249999999999999
 31
0.0
210
0.0
220
0.0
230
1.0
 40
0.4472127371261826
 41
-1.176005207095072
 42
4.317597860685087
  0
LINE
  5
4E8
330
1A
100
AcDbEntity
  8
SEIHIN
  6
CONTINUOUS
 62
     3
100
AcDbLine
 10
409.0871197016195
 20
479.4192343477618
 30
0.0
 11
409.0871197016195
 21
468.1663343477621
 31
0.0
  0
LINE
  5
4E9
330
1A
100
AcDbEntity
  8
SEIHIN
  6
CONTINUOUS
 62
     3
100
AcDbLine
 10
408.6371197016195
 20
468.675034347762
 30
0.0
 11
408.6371197016195
 21
479.4192343477618
 31
0.0
  0
LINE
  5
4EA
330
1A
100
AcDbEntity
  8
SEIHIN
  6
CONTINUOUS
 62
     3
100
AcDbLine
 10
413.5766403747728
 20
474.6692343477618
 30
0.0
 11
412.0954630175697
 21
474.6692343477618
 31
0.0
  0
ELLIPSE
  5
4EB
330
1A
100
AcDbEntity
  8
SEIHIN
  6
CONTINUOUS
 62
     3
100
AcDbEllipse
 10
411.340814636819
 20
475.9192343477621
 30
0.0
 11
0.0
 21
-2.1
 31
0.0
210
0.0
220
0.0
230
1.0
 40
0.4472113097849236
 41
0.4963036896275034
 42
0.9332344061755852
  0
LINE
  5
4EC
330
1A
100
AcDbEntity
  8
SEIHIN
  6
CONTINUOUS
 62
     3
100
AcDbLine
 10
408.6371197016195
 20
468.675034347762
 30
0.0
 11
404.6266197016195
 21
468.224934347762
 31
0.0
  0
LINE
  5
4ED
330
1A
100
AcDbEntity
  8
SEIHIN
  6
CONTINUOUS
 62
     3
100
AcDbLine
 10
408.6429197016194
 20
467.6694343477619
 30
0.0
 11
404.6325197016193
 21
467.2192343477618
 31
0.0
  0
ARC
  5
4F0
330
1A
100
AcDbEntity
  8
SEIHIN
  6
CONTINUOUS
 62
     3
100
AcDbCircle
 10
408.5871080768897
 20
468.166321344552
 30
0.0
 40
0.5000116248989426
100
AcDbArc
 50
276.4087476261124
 51
0.0014900234669601
  0
LINE
  5
4F1
330
1A
100
AcDbEntity
  8
SEIHIN
  6
CONTINUOUS
 62
     3
100
AcDbLine
 10
413.5766403747728
 20
477.1692343477618
 30
0.0
 11
412.0954630175697
 21
477.1692343477618
 31
0.0
  0
LINE
  5
4F2
330
1A
100
AcDbEntity
  8
CENTER_L
  6
CENTER
 62
     1
 48
5.0
100
AcDbLine
 10
412.2352161013292
 20
475.9192343477621
 30
0.0
 11
412.2352161013292
 21
478.8594343477618
 31
0.0
  0
ELLIPSE
  5
4F3
330
1A
100
AcDbEntity
  8
SEIHIN
  6
CONTINUOUS
 62
     3
100
AcDbEllipse
 10
409.0831197016195
 20
479.4192343477618
 30
0.0
 11
0.0
 21
-2.0
 31
0.0
210
0.0
220
0.0
230
1.0
 40
0.2230000000000132
 41
3.141592653589793
 42
4.712388980384703
  0
ELLIPSE
  5
4F4
330
1A
100
AcDbEntity
  8
SEIHIN
  6
CONTINUOUS
 62
     3
100
AcDbEllipse
 10
409.5331197016196
 20
479.4192343477618
 30
0.0
 11
0.0
 21
-2.0
 31
0.0
210
0.0
220
0.0
230
1.0
 40
0.2230000000000132
 41
3.141592653589793
 42
4.712388980384703
  0
ELLIPSE
  5
4F5
330
1A
100
AcDbEntity
  8
SEIHIN
  6
CONTINUOUS
 62
     3
100
AcDbEllipse
 10
411.340814636819
 20
475.9192343477621
 30
0.0
 11
0.0
 21
-2.1
 31
0.0
210
0.0
220
0.0
230
1.0
 40
0.4472113097849236
 41
2.208358247414005
 42
2.645288963962276
  0
LINE
  5
4F6
330
1A
100
AcDbEntity
  8
CENTER_L
  6
CENTER
 62
     1
 48
5.0
100
AcDbLine
 10
414.9182785861514
 20
475.9192343477621
 30
0.0
 11
414.9182785861514
 21
480.1108343477619
 31
0.0
  0
TEXT
  5
4FB
330
1A
100
AcDbEntity
  8
SUNPOU
  6
CONTINUOUS
 62
     4
100
AcDbText
 10
444.4728095154312
 20
221.3120886020168
 30
0.0
 40
6.0
  1
5
100
AcDbText
  0
LINE
  5
4FC
330
1A
100
AcDbEntity
  8
SEIHIN
  6
CONTINUOUS
 62
     3
100
AcDbLine
 10
424.7571197016196
 20
465.8693343477619
 30
0.0
 11
424.7571197016196
 21
457.9192343477618
 31
0.0
  0
LINE
  5
4FF
330
1A
100
AcDbEntity
  8
CENTER_L
  6
CENTER
 62
     1
 48
5.0
100
AcDbLine
 10
593.8829434663826
 20
367.2791829327906
 30
0.0
 11
566.6509434663827
 21
421.7431829327906
 31
0.0
  0
LINE
  5
500
330
1A
100
AcDbEntity
  8
SEIHIN
  6
CONTINUOUS
 62
     3
100
AcDbLine
 10
595.3643434663827
 20
411.8329829327905
 30
0.0
 11
584.6768582059949
 21
406.4867140240643
 31
0.0
  0
LINE
  5
501
330
1A
100
AcDbEntity
  8
SEIHIN
  6
CONTINUOUS
 62
     3
100
AcDbLine
 10
600.0153434663829
 20
375.0272829327907
 30
0.0
 11
578.1018434663827
 21
418.8541829327907
 31
0.0
  0
LINE
  5
502
330
1A
100
AcDbEntity
  8
SEIHIN
  6
CONTINUOUS
 62
     3
100
AcDbLine
 10
584.6768582059949
 20
406.4867140240643
 30
0.0
 11
600.3293582059951
 21
375.1818140240644
 31
0.0
  0
LINE
  5
503
330
1A
100
AcDbEntity
  8
SEIHIN
  6
CONTINUOUS
 62
     3
100
AcDbLine
 10
573.0035434663829
 20
361.5214829327906
 30
0.0
 11
592.0101434663828
 21
371.0246829327906
 31
0.0
  0
ARC
  5
504
330
1A
100
AcDbEntity
  8
SEIHIN
  6
CONTINUOUS
 62
     3
100
AcDbCircle
 10
587.9851834663266
 20
379.0745529331823
 30
0.0
 40
4.00003492303505
100
AcDbArc
 50
206.5650511824557
 51
26.56441059099161
  0
LINE
  5
506
330
1A
100
AcDbEntity
  8
CENTER_L
  6
CENTER
 62
     1
 48
5.0
100
AcDbLine
 10
569.8335434663829
 20
367.7626829327907
 30
0.0
 11
575.9746434663829
 21
370.8331829327905
 31
0.0
  0
LINE
  5
507
330
1A
100
AcDbEntity
  8
CENTER_L
  6
CENTER
 62
     1
 48
5.0
100
AcDbLine
 10
574.5070434663829
 20
365.7816829327907
 30
0.0
 11
571.0692434663827
 21
372.6573829327906
 31
0.0
  0
LINE
  5
508
330
1A
100
AcDbEntity
  8
SEIHIN
  6
CONTINUOUS
 62
     3
100
AcDbLine
 10
584.0050434663827
 20
367.0221829327908
 30
0.0
 11
562.0916434663828
 21
410.8490829327906
 31
0.0
  0
LINE
  5
50C
330
1A
100
AcDbEntity
  8
SEIHIN
  6
CONTINUOUS
 62
     3
100
AcDbLine
 10
556.4566434663828
 20
390.1430829327907
 30
0.0
 11
570.3202434663829
 21
362.4158829327905
 31
0.0
  0
LINE
  5
511
330
1A
100
AcDbEntity
  8
SEIHIN
  6
CONTINUOUS
 62
     3
100
AcDbLine
 10
568.0385287267706
 20
398.1726518415169
 30
0.0
 11
583.6909287267705
 21
366.867651841517
 31
0.0
  0
ARC
  5
512
330
1A
100
AcDbEntity
  8
SEIHIN
  6
CONTINUOUS
 62
     3
100
AcDbCircle
 10
572.7799434663829
 20
369.2358829327906
 30
0.0
 40
2.100000000000051
100
AcDbArc
 50
179.9999999999999
 51
0.0
  0
LINE
  5
513
330
1A
100
AcDbEntity
  8
SEIHIN
  6
PHANTOM
 62
     6
 48
5.0
100
AcDbLine
 10
452.6639197016193
 20
283.8520304623172
 30
0.0
 11
437.0114197016195
 21
315.1569304623171
 31
0.0
  0
LINE
  5
514
330
1A
100
AcDbEntity
  8
SEIHIN
  6
PHANTOM
 62
     6
 48
5.0
100
AcDbLine
 10
437.1904197016195
 20
328.2154304623172
 30
0.0
 11
458.0304197016196
 21
286.5353304623171
 31
0.0
  0
LINE
  5
515
330
1A
100
AcDbEntity
  8
SEIHIN
  6
PHANTOM
 62
     6
 48
5.0
100
AcDbLine
 10
457.1360197016193
 20
286.0880304623172
 30
0.0
 11
441.4836197016195
 21
317.3930304623172
 31
0.0
  0
LINE
  5
517
330
1A
100
AcDbEntity
  8
SUNPOU
  6
CONTINUOUS
 62
     4
100
AcDbLine
 10
435.9996095154309
 20
260.5968886020168
 30
0.0
 11
450.336109515431
 21
231.9238886020167
 31
0.0
  0
LINE
  5
518
330
1A
100
AcDbEntity
  8
SUNPOU
  6
CONTINUOUS
 62
     4
100
AcDbLine
 10
442.8361095154309
 20
231.9238886020167
 30
0.0
 11
450.336109515431
 21
231.9238886020167
 31
0.0
  0
LINE
  5
519
330
1A
100
AcDbEntity
  8
SUNPOU
  6
CONTINUOUS
 62
     4
100
AcDbLine
 10
442.8361095154309
 20
246.9238886020168
 30
0.0
 11
442.8361095154309
 21
231.9238886020167
 31
0.0
  0
LINE
  5
51B
330
1A
100
AcDbEntity
  8
SEIHIN
  6
PHANTOM
 62
     6
 48
5.0
100
AcDbLine
 10
458.0305197016195
 20
286.5353304623171
 30
0.0
 11
452.6639197016193
 21
283.8520304623172
 31
0.0
  0
ARC
  5
521
330
1A
100
AcDbEntity
  8
SEIHIN
  6
PHANTOM
 62
     6
 48
5.0
100
AcDbCircle
 10
431.4714983932954
 20
312.820583540816
 30
0.0
 40
6.999983092668737
100
AcDbArc
 50
23.38857036881282
 51
94.99991755678781
  0
LINE
  5
522
330
1A
100
AcDbEntity
  8
SEIHIN
  6
PHANTOM
 62
     6
 48
5.0
100
AcDbLine
 10
430.8614197016193
 20
319.7939304623172
 30
0.0
 11
426.5608197016195
 21
319.4177304623171
 31
0.0
  0
LINE
  5
523
330
1A
100
AcDbEntity
  8
SEIHIN
  6
PHANTOM
 62
     6
 48
5.0
100
AcDbLine
 10
442.3780197016196
 20
317.8402304623171
 30
0.0
 11
437.0115197016193
 21
315.1569304623171
 31
0.0
  0
ARC
  5
524
330
1A
100
AcDbEntity
  8
SEIHIN
  6
PHANTOM
 62
     6
 48
5.0
100
AcDbCircle
 10
432.7182839250776
 20
325.9793504711737
 30
0.0
 40
5.000005213059093
100
AcDbArc
 50
26.56517522389545
 51
94.99982809321879
  0
LINE
  5
525
330
1A
100
AcDbEntity
  8
SEIHIN
  6
PHANTOM
 62
     6
 48
5.0
100
AcDbLine
 10
421.2712197016195
 20
329.9970304623172
 30
0.0
 11
432.2825197016195
 21
330.9603304623172
 31
0.0
  0
ARC
  5
532
330
1A
100
AcDbEntity
  8
SEIHIN
  6
CONTINUOUS
 62
     3
100
AcDbCircle
 10
572.1091434663827
 20
363.3102829327906
 30
0.0
 40
1.999939199075874
100
AcDbArc
 50
206.5650511770809
 51
296.5650511770803
  0
LINE
  5
537
330
1A
100
AcDbEntity
  8
CENTER_L
  6
CENTER
 62
     1
 48
5.0
100
AcDbLine
 10
421.6271197016194
 20
439.9192343477619
 30
0.0
 11
421.6271197016194
 21
442.8594343477619
 31
0.0
  0
ELLIPSE
  5
538
330
1A
100
AcDbEntity
  8
SEIHIN
  6
CONTINUOUS
 62
     3
100
AcDbEllipse
 10
420.7322380290206
 20
439.9192343477619
 30
0.0
 11
0.0
 21
-2.1
 31
0.0
210
0.0
220
0.0
230
1.0
 40
0.4472113097885507
 41
0.4963227672005825
 42
2.64526988638921
  0
ELLIPSE
  5
539
330
1A
100
AcDbEntity
  8
SEIHIN
  6
CONTINUOUS
 62
     3
100
AcDbEllipse
 10
421.6266710032757
 20
439.9192343477619
 30
0.0
 11
0.0
 21
-2.1
 31
0.0
210
0.0
220
0.0
230
1.0
 40
0.4472127371331594
 41
0.0
 42
6.283185307179586
  0
LINE
  5
53A
330
1A
100
AcDbEntity
  8
SEIHIN
  6
CONTINUOUS
 62
     3
100
AcDbLine
 10
424.7571197016196
 20
447.7106343477621
 30
0.0
 11
424.7571197016196
 21
436.419234347762
 31
0.0
  0
LINE
  5
53B
330
1A
100
AcDbEntity
  8
CENTER_L
  6
CENTER
 62
     1
 48
5.0
100
AcDbLine
 10
421.6271197016194
 20
439.9192343477619
 30
0.0
 11
421.6271197016194
 21
436.979134347762
 31
0.0
  0
ELLIPSE
  5
53C
330
1A
100
AcDbEntity
  8
SEIHIN
  6
CONTINUOUS
 62
     3
100
AcDbEllipse
 10
424.3111197016195
 20
436.419234347762
 30
0.0
 11
0.0
 21
2.0
 31
0.0
210
0.0
220
0.0
230
1.0
 40
0.2230000000000132
 41
3.141592653589793
 42
4.712388980384703
  0
LINE
  5
53E
330
1A
100
AcDbEntity
  8
SEIHIN
  6
CONTINUOUS
 62
     3
100
AcDbLine
 10
424.7571197016196
 20
449.969234347762
 30
0.0
 11
424.7571197016196
 21
457.9192343477618
 31
0.0
  0
ARC
  5
53F
330
1A
100
AcDbEntity
  8
SEIHIN
  6
CONTINUOUS
 62
     3
100
AcDbCircle
 10
423.7571197016196
 20
449.969234347762
 30
0.0
 40
0.9999999999999431
100
AcDbArc
 50
269.9999999999967
 51
359.9999999999967
  0
ARC
  5
540
330
1A
100
AcDbEntity
  8
SEIHIN
  6
CONTINUOUS
 62
     3
100
AcDbCircle
 10
424.2571096218227
 20
447.7106466825566
 30
0.0
 40
0.5000100799489387
100
AcDbArc
 50
359.9985865651489
 51
78.50887501526419
  0
LINE
  5
541
330
1A
100
AcDbEntity
  8
SEIHIN
  6
CONTINUOUS
 62
     3
100
AcDbLine
 10
422.2971197016193
 20
448.6192343477618
 30
0.0
 11
424.3567197016195
 21
448.200634347762
 31
0.0
  0
LINE
  5
542
330
1A
100
AcDbEntity
  8
SEIHIN
  6
CONTINUOUS
 62
     3
100
AcDbLine
 10
422.2971197016193
 20
448.969234347762
 30
0.0
 11
422.2971197016193
 21
448.6192343477618
 31
0.0
  0
ARC
  5
543
330
1A
100
AcDbEntity
  8
SEIHIN
  6
CONTINUOUS
 62
     3
100
AcDbCircle
 10
417.1541197019299
 20
457.9191896207553
 30
0.0
 40
5.366998516375591
100
AcDbArc
 50
311.8146260376994
 51
48.18680632097722
  0
LINE
  5
546
330
1A
100
AcDbEntity
  8
SEIHIN
  6
CONTINUOUS
 62
     3
100
AcDbLine
 10
573.8845434663828
 20
416.2202829327904
 30
0.0
 11
591.562943466383
 21
380.8633829327906
 31
0.0
  0
ARC
  5
548
330
1A
100
AcDbEntity
  8
SEIHIN
  6
CONTINUOUS
 62
     3
100
AcDbCircle
 10
569.6495242455399
 20
415.7462401752368
 30
0.0
 40
3.999893473011512
100
AcDbArc
 50
296.5636495320742
 51
15.02660821972941
  0
LINE
  5
549
330
1A
100
AcDbEntity
  8
SEIHIN
  6
CONTINUOUS
 62
     3
100
AcDbLine
 10
557.3511434663829
 20
392.8263829327907
 30
0.0
 11
568.0385287267706
 21
398.1726518415169
 31
0.0
  0
ARC
  5
54D
330
1A
100
AcDbEntity
  8
SEIHIN
  6
CONTINUOUS
 62
     3
100
AcDbCircle
 10
558.2455434663832
 20
391.0374829327906
 30
0.0
 40
2.000028642295121
100
AcDbArc
 50
116.5637700228539
 51
206.5637700228284
  0
LINE
  5
55A
330
1A
100
AcDbEntity
  8
SEIHIN
  6
CONTINUOUS
 62
     3
100
AcDbLine
 10
566.7291434663829
 20
412.6425829327904
 30
0.0
 11
584.4075434663826
 21
377.2856829327906
 31
0.0
  0
LINE
  5
55B
330
1A
100
AcDbEntity
  8
CENTER_L
  6
CENTER
 62
     1
 48
5.0
100
AcDbLine
 10
568.3146434663828
 20
378.1665829327905
 30
0.0
 11
561.7402434663826
 21
391.3152829327906
 31
0.0
  0
ARC
  5
55C
330
1A
100
AcDbEntity
  8
SEIHIN
  6
CONTINUOUS
 62
     3
100
AcDbCircle
 10
566.0715954662479
 20
382.6525589328819
 30
0.0
 40
3.250021602547825
100
AcDbArc
 50
139.1838608701227
 51
93.94419161893445
  0
ARC
  5
55D
330
1A
100
AcDbEntity
  8
SEIHIN
  6
CONTINUOUS
 62
     3
100
AcDbCircle
 10
572.7799434663829
 20
369.2358829327906
 30
0.0
 40
2.100000000000051
100
AcDbArc
 50
0.0
 51
179.9999999999999
  0
LINE
  5
55E
330
1A
100
AcDbEntity
  8
CENTER_L
  6
CENTER
 62
     1
 48
5.0
100
AcDbLine
 10
570.3441434663826
 20
384.7887829327905
 30
0.0
 11
562.1711434663827
 21
380.7022829327907
 31
0.0
  0
LINE
  5
55F
330
1A
100
AcDbEntity
  8
CENTER_L
  6
CENTER
 62
     1
 48
5.0
100
AcDbLine
 10
566.8113434663829
 20
389.7302829327907
 30
0.0
 11
560.1796434663826
 21
386.4143829327906
 31
0.0
  0
LINE
  5
560
330
1A
100
AcDbEntity
  8
SEIHIN
  6
CONTINUOUS
 62
     3
100
AcDbLine
 10
563.611943466383
 20
384.7768829327906
 30
0.0
 11
563.0251434663827
 21
385.9504829327907
 31
0.0
  0
ARC
  5
561
330
1A
100
AcDbEntity
  8
SEIHIN
  6
CONTINUOUS
 62
     3
100
AcDbCircle
 10
563.3884964670641
 20
388.0188594332615
 30
0.0
 40
2.100049225804975
100
AcDbArc
 50
333.0956758712703
 51
260.0364763113251
  0
LINE
  5
562
330
1A
100
AcDbEntity
  8
SEIHIN
  6
CONTINUOUS
 62
     3
100
AcDbLine
 10
565.8480434663828
 20
385.8947829327906
 30
0.0
 11
565.2611434663827
 21
387.0685829327906
 31
0.0
  0
LINE
  5
563
330
1A
100
AcDbEntity
  8
SEIHIN
  6
CONTINUOUS
 62
     3
100
AcDbLine
 10
570.5886434663827
 20
393.8549829327905
 30
0.0
 11
570.2745287267706
 21
393.7004518415169
 31
0.0
  0
ARC
  5
564
330
1A
100
AcDbEntity
  8
SEIHIN
  6
CONTINUOUS
 62
     3
100
AcDbCircle
 10
569.6493554059994
 20
415.7461802497684
 30
0.0
 40
3.999915380983567
100
AcDbArc
 50
218.1037503626395
 51
296.5661965938633
  0
LINE
  5
565
330
1A
100
AcDbEntity
  8
SEIHIN
  6
CONTINUOUS
 62
     3
100
AcDbLine
 10
562.5388434663829
 20
412.1906829327907
 30
0.0
 11
565.2677434663827
 21
413.5551829327905
 31
0.0
  0
ARC
  5
566
330
1A
100
AcDbEntity
  8
SEIHIN
  6
CONTINUOUS
 62
     3
100
AcDbCircle
 10
562.9860634675006
 20
411.2963429316726
 30
0.0
 40
1.000014322397376
100
AcDbArc
 50
116.565051205719
 51
206.5676133995957
  0
ARC
  5
567
330
1A
100
AcDbEntity
  8
SEIHIN
  6
CONTINUOUS
 62
     3
100
AcDbCircle
 10
565.7149761796384
 20
412.6607755812896
 30
0.0
 40
0.9999908050702645
100
AcDbArc
 50
38.10561746224142
 51
116.5665392729858
  0
LINE
  5
568
330
1A
100
AcDbEntity
  8
SEIHIN
  6
CONTINUOUS
 62
     3
100
AcDbLine
 10
586.5988434663828
 20
401.8600829327905
 30
0.0
 11
586.9129582059949
 21
402.0146140240645
 31
0.0
  0
LINE
  5
571
330
1A
100
AcDbEntity
  8
SEIHIN
  6
CONTINUOUS
 62
     3
100
AcDbLine
 10
576.7602434663827
 20
419.3013829327906
 30
0.0
 11
574.0313434663827
 21
417.9369829327904
 31
0.0
  0
ARC
  5
574
330
1A
100
AcDbEntity
  8
SEIHIN
  6
CONTINUOUS
 62
     3
100
AcDbCircle
 10
574.4785013151991
 20
417.0424891595557
 30
0.0
 40
1.000034625457484
100
AcDbArc
 50
116.5604884235063
 51
195.0224352558846
  0
ARC
  5
575
330
1A
100
AcDbEntity
  8
SEIHIN
  6
CONTINUOUS
 62
     3
100
AcDbCircle
 10
577.2073834648175
 20
418.4070029348029
 30
0.0
 40
1.000014322397431
100
AcDbArc
 50
26.56248872537384
 51
116.5599265315079
  0
LINE
  5
57B
330
1A
100
AcDbEntity
  8
SEIHIN
  6
CONTINUOUS
 62
     3
100
AcDbLine
 10
598.047543466383
 20
410.9384829327906
 30
0.0
 11
611.9111434663827
 21
383.2112829327905
 31
0.0
  0
LINE
  5
57D
330
1A
100
AcDbEntity
  8
SEIHIN
  6
CONTINUOUS
 62
     3
100
AcDbLine
 10
611.0167434663826
 20
380.5279829327905
 30
0.0
 11
592.0101434663828
 21
371.0246829327906
 31
0.0
  0
LINE
  5
57E
330
1A
100
AcDbEntity
  8
CENTER_L
  6
CENTER
 62
     1
 48
5.0
100
AcDbLine
 10
606.7064434663827
 20
381.8813829327906
 30
0.0
 11
603.3228434663828
 21
388.6485829327906
 31
0.0
  0
LINE
  5
57F
330
1A
100
AcDbEntity
  8
CENTER_L
  6
CENTER
 62
     1
 48
5.0
100
AcDbLine
 10
607.886243466383
 20
386.7889829327906
 30
0.0
 11
601.7846434663828
 21
383.7381829327907
 31
0.0
  0
ARC
  5
580
330
1A
100
AcDbEntity
  8
SEIHIN
  6
CONTINUOUS
 62
     3
100
AcDbCircle
 10
604.9793434663826
 20
385.3354829327906
 30
0.0
 40
2.100000000000079
100
AcDbArc
 50
179.9999999999999
 51
0.0
  0
ARC
  5
581
330
1A
100
AcDbEntity
  8
SEIHIN
  6
CONTINUOUS
 62
     3
100
AcDbCircle
 10
604.9793434663826
 20
385.3354829327906
 30
0.0
 40
2.100000000000079
100
AcDbArc
 50
0.0
 51
179.9999999999999
  0
ARC
  5
582
330
1A
100
AcDbEntity
  8
SEIHIN
  6
CONTINUOUS
 62
     3
100
AcDbCircle
 10
610.1223534659356
 20
382.3168129336851
 30
0.0
 40
1.999961560880718
100
AcDbArc
 50
296.5644105784737
 51
26.56697294422856
  0
LINE
  5
584
330
1A
100
AcDbEntity
  8
CENTER_L
  6
CENTER
 62
     1
 48
5.0
100
AcDbLine
 10
592.1650434663828
 20
402.4070829327904
 30
0.0
 11
598.4948434663827
 21
405.5719829327907
 31
0.0
  0
LINE
  5
585
330
1A
100
AcDbEntity
  8
CENTER_L
  6
CENTER
 62
     1
 48
5.0
100
AcDbLine
 10
600.456143466383
 20
394.3820829327906
 30
0.0
 11
593.939643466383
 21
407.4149829327907
 31
0.0
  0
ARC
  5
586
330
1A
100
AcDbEntity
  8
SEIHIN
  6
CONTINUOUS
 62
     3
100
AcDbCircle
 10
595.5878704655024
 20
404.1184964321364
 30
0.0
 40
2.099999979825255
100
AcDbArc
 50
333.0938620864758
 51
260.0341904025738
  0
LINE
  5
587
330
1A
100
AcDbEntity
  8
SEIHIN
  6
CONTINUOUS
 62
     3
100
AcDbLine
 10
598.047443466383
 20
401.9944829327905
 30
0.0
 11
597.4605434663829
 21
403.1681829327904
 31
0.0
  0
LINE
  5
588
330
1A
100
AcDbEntity
  8
CENTER_L
  6
CENTER
 62
     1
 48
5.0
100
AcDbLine
 10
593.998543466383
 20
396.6159829327905
 30
0.0
 11
602.2145434663829
 21
400.7239829327907
 31
0.0
  0
ARC
  5
589
330
1A
100
AcDbEntity
  8
SEIHIN
  6
CONTINUOUS
 62
     3
100
AcDbCircle
 10
598.2709954662478
 20
398.7521589328815
 30
0.0
 40
3.250021602548083
100
AcDbArc
 50
139.1838608701205
 51
93.94419161893214
  0
LINE
  5
58A
330
1A
100
AcDbEntity
  8
SEIHIN
  6
CONTINUOUS
 62
     3
100
AcDbLine
 10
595.8113434663827
 20
400.8764829327906
 30
0.0
 11
595.2244434663826
 21
402.0501829327904
 31
0.0
  0
ARC
  5
58F
330
1A
100
AcDbEntity
  8
SEIHIN
  6
CONTINUOUS
 62
     3
100
AcDbCircle
 10
596.2587434663827
 20
410.0440829327904
 30
0.0
 40
1.99993919907593
100
AcDbArc
 50
26.56505117707866
 51
116.5650511770786
  0
LINE
  5
593
330
1A
100
AcDbEntity
  8
CENTER_L
  6
CENTER
 62
     1
 48
5.0
100
AcDbLine
 10
421.6271197016194
 20
475.9192343477621
 30
0.0
 11
421.6271197016194
 21
472.9791343477621
 31
0.0
  0
ELLIPSE
  5
594
330
1A
100
AcDbEntity
  8
SEIHIN
  6
CONTINUOUS
 62
     3
100
AcDbEllipse
 10
420.7322380290206
 20
475.9192343477621
 30
0.0
 11
0.0
 21
-2.1
 31
0.0
210
0.0
220
0.0
230
1.0
 40
0.4472113097885507
 41
0.4963227672005825
 42
2.645269886389197
  0
ELLIPSE
  5
595
330
1A
100
AcDbEntity
  8
SEIHIN
  6
CONTINUOUS
 62
     3
100
AcDbEllipse
 10
421.6266710032757
 20
475.9192343477621
 30
0.0
 11
0.0
 21
-2.1
 31
0.0
210
0.0
220
0.0
230
1.0
 40
0.4472127371331594
 41
0.0
 42
6.283185307179586
  0
LINE
  5
596
330
1A
100
AcDbEntity
  8
SEIHIN
  6
CONTINUOUS
 62
     3
100
AcDbLine
 10
424.7571197016196
 20
468.1278343477621
 30
0.0
 11
424.7571197016196
 21
479.4192343477618
 31
0.0
  0
ARC
  5
597
330
1A
100
AcDbEntity
  8
SEIHIN
  6
CONTINUOUS
 62
     3
100
AcDbCircle
 10
424.2571096218227
 20
468.1278220129676
 30
0.0
 40
0.5000100799489389
100
AcDbArc
 50
281.4911249847357
 51
0.0014134348510536
  0
ARC
  5
598
330
1A
100
AcDbEntity
  8
SEIHIN
  6
CONTINUOUS
 62
     3
100
AcDbCircle
 10
423.7571197016195
 20
465.869334347762
 30
0.0
 40
1.000000000000085
100
AcDbArc
 50
359.9999999999951
 51
89.99999999999511
  0
LINE
  5
599
330
1A
100
AcDbEntity
  8
SEIHIN
  6
CONTINUOUS
 62
     3
100
AcDbLine
 10
422.2971197016193
 20
467.2192343477618
 30
0.0
 11
424.3567197016195
 21
467.6378343477621
 31
0.0
  0
LINE
  5
59A
330
1A
100
AcDbEntity
  8
SEIHIN
  6
CONTINUOUS
 62
     3
100
AcDbLine
 10
422.2971197016193
 20
466.869334347762
 30
0.0
 11
422.2971197016193
 21
467.2192343477618
 31
0.0
  0
LINE
  5
59B
330
1A
100
AcDbEntity
  8
CENTER_L
  6
CENTER
 62
     1
 48
5.0
100
AcDbLine
 10
421.6271197016194
 20
475.9192343477621
 30
0.0
 11
421.6271197016194
 21
478.8594343477618
 31
0.0
  0
ELLIPSE
  5
59C
330
1A
100
AcDbEntity
  8
SEIHIN
  6
CONTINUOUS
 62
     3
100
AcDbEllipse
 10
424.3111197016195
 20
479.4192343477618
 30
0.0
 11
0.0
 21
2.0
 31
0.0
210
0.0
220
0.0
230
1.0
 40
0.2230000000000132
 41
-1.570796326794896
 42
0.0
  0
LINE
  5
59E
330
1A
100
AcDbEntity
  8
CENTER_L
  6
CENTER
 62
     1
 48
5.0
100
AcDbLine
 10
417.8695197016195
 20
167.3381241262301
 30
0.0
 11
405.4881197016195
 21
161.14742412623
 31
0.0
  0
LINE
  5
59F
330
1A
100
AcDbEntity
  8
SEIHIN
  6
CONTINUOUS
 62
     3
100
AcDbLine
 10
417.6639197016195
 20
142.6381241262301
 30
0.0
 11
402.0114197016195
 21
173.94302412623
 31
0.0
  0
LINE
  5
5A0
330
1A
100
AcDbEntity
  8
CENTER_L
  6
CENTER
 62
     1
 48
5.0
100
AcDbLine
 10
412.2718197016196
 20
147.76832412623
 30
0.0
 11
424.3354197016195
 21
153.8000241262301
 31
0.0
  0
LINE
  5
5A5
330
1A
100
AcDbEntity
  8
SEIHIN
  6
CONTINUOUS
 62
     3
100
AcDbLine
 10
402.1904197016195
 20
187.0015241262301
 30
0.0
 11
423.0304197016195
 21
145.32142412623
 31
0.0
  0
LINE
  5
5A6
330
1A
100
AcDbEntity
  8
SEIHIN
  6
CONTINUOUS
 62
     3
100
AcDbLine
 10
422.1360197016195
 20
144.8741241262301
 30
0.0
 11
406.4836197016194
 21
176.1791241262301
 31
0.0
  0
LINE
  5
5A7
330
1A
100
AcDbEntity
  8
NOKITOI
  6
PHANTOM
 62
     8
 48
5.0
100
AcDbLine
 10
283.0550570138672
 20
122.5555869383669
 30
0.0
 11
293.4581570138671
 21
114.0438869383669
 31
0.0
  0
LINE
  5
5A8
330
1A
100
AcDbEntity
  8
NOKITOI
  6
PHANTOM
 62
     8
 48
5.0
100
AcDbLine
 10
284.0393570138668
 20
123.3006869383668
 30
0.0
 11
294.024657013867
 21
115.1308869383667
 31
0.0
  0
ARC
  5
5A9
330
1A
100
AcDbEntity
  8
NOKITOI
  6
PHANTOM
 62
     8
 48
5.0
100
AcDbCircle
 10
338.9208732403245
 20
156.8180014147368
 30
0.0
 40
43.00001447645168
100
AcDbArc
 50
270.0001116248559
 51
353.4750892928819
  0
ARC
  5
5AA
330
1A
100
AcDbEntity
  8
NOKITOI
  6
PHANTOM
 62
     8
 48
5.0
100
AcDbCircle
 10
338.9208509318992
 20
156.8179813137104
 30
0.0
 40
41.79999437547816
100
AcDbArc
 50
270.0001454078912
 51
355.525704787475
  0
LINE
  5
5AB
330
1A
100
AcDbEntity
  8
NOKITOI
  6
PHANTOM
 62
     8
 48
5.0
100
AcDbLine
 10
294.0914570138671
 20
113.8178869383668
 30
0.0
 11
338.9208570138672
 21
113.8179869383667
 31
0.0
  0
LINE
  5
5AC
330
1A
100
AcDbEntity
  8
NOKITOI
  6
PHANTOM
 62
     8
 48
5.0
100
AcDbLine
 10
338.9208570138672
 20
115.0179869383668
 30
0.0
 11
294.3412570138672
 21
115.0178869383668
 31
0.0
  0
LINE
  5
5AD
330
1A
100
AcDbEntity
  8
NOKITOI
  6
PHANTOM
 62
     8
 48
5.0
100
AcDbLine
 10
298.0914570138671
 20
113.8178869383668
 30
0.0
 11
318.2493570138668
 21
113.8178869383668
 31
0.0
  0
LINE
  5
5AE
330
1A
100
AcDbEntity
  8
NOKITOI
  6
PHANTOM
 62
     8
 48
5.0
100
AcDbLine
 10
298.3412570138672
 20
115.0178869383668
 30
0.0
 11
318.2493570138668
 21
115.0178869383668
 31
0.0
  0
ARC
  5
5AF
330
1A
100
AcDbEntity
  8
NOKITOI
  6
PHANTOM
 62
     8
 48
5.0
100
AcDbCircle
 10
294.3412506261184
 20
115.5178892183563
 30
0.0
 40
0.5000022800304047
100
AcDbArc
 50
230.7145501403941
 51
270.0007319787213
  0
ARC
  5
5B0
330
1A
100
AcDbEntity
  8
NOKITOI
  6
PHANTOM
 62
     8
 48
5.0
100
AcDbCircle
 10
294.0914639464446
 20
114.8178844633607
 30
0.0
 40
0.9999975250179316
100
AcDbArc
 50
230.7053583247701
 51
269.9996027915957
  0
ARC
  5
5B3
330
1A
100
AcDbEntity
  8
SEIHIN
  6
CONTINUOUS
 62
     3
100
AcDbCircle
 10
287.1770569529591
 20
150.2164212856428
 30
0.0
 40
2.000037615859002
100
AcDbArc
 50
217.570496864357
 51
313.7068133922674
  0
LINE
  5
5B4
330
1A
100
AcDbEntity
  8
SEIHIN
  6
CONTINUOUS
 62
     3
100
AcDbLine
 10
287.8860197016195
 20
149.29462412623
 30
0.0
 11
282.6967197016195
 21
156.0408241262301
 31
0.0
  0
LINE
  5
5B9
330
1A
100
AcDbEntity
  8
SEIHIN
  6
CONTINUOUS
 62
     3
100
AcDbLine
 10
288.8372197016195
 20
150.0262241262301
 30
0.0
 11
283.6478197016195
 21
156.7725241262301
 31
0.0
  0
LINE
  5
5BD
330
1A
100
AcDbEntity
  8
SEIHIN
  6
CONTINUOUS
 62
     3
100
AcDbLine
 10
274.9222197016195
 20
162.63112412623
 30
0.0
 11
273.6360197016195
 21
158.36402412623
 31
0.0
  0
LINE
  5
5BE
330
1A
100
AcDbEntity
  8
NOKITOI
  6
PHANTOM
 62
     8
 48
5.0
100
AcDbLine
 10
382.2094570138671
 20
159.7917869383667
 30
0.0
 11
381.8936570138672
 21
165.7916869383668
 31
0.0
  0
ARC
  5
5BF
330
1A
100
AcDbEntity
  8
NOKITOI
  6
PHANTOM
 62
     8
 48
5.0
100
AcDbCircle
 10
385.6141427954518
 20
162.2956723040658
 30
0.0
 40
0.5000073448410256
100
AcDbArc
 50
83.5217071700316
 51
188.1270521358757
  0
LINE
  5
5C0
330
1A
100
AcDbEntity
  8
SEIHIN
  6
CONTINUOUS
 62
     3
100
AcDbLine
 10
276.0711197016195
 20
162.2848241262301
 30
0.0
 11
274.9222197016195
 21
162.63112412623
 31
0.0
  0
LINE
  5
5C1
330
1A
100
AcDbEntity
  8
NOKITOI
  6
PHANTOM
 62
     8
 48
5.0
100
AcDbLine
 10
383.3729570138672
 20
160.5179869383668
 30
0.0
 11
383.1917570138672
 21
163.9594869383669
 31
0.0
  0
LINE
  5
5C2
330
1A
100
AcDbEntity
  8
NOKITOI
  6
PHANTOM
 62
     8
 48
5.0
100
AcDbLine
 10
384.1508570138668
 20
160.5179869383668
 30
0.0
 11
383.746757013867
 21
163.3463869383667
 31
0.0
  0
LINE
  5
5C3
330
1A
100
AcDbEntity
  8
NOKITOI
  6
PHANTOM
 62
     8
 48
5.0
100
AcDbLine
 10
389.4705570138668
 20
166.7929869383667
 30
0.0
 11
389.3211570138674
 21
162.0140869383669
 31
0.0
  0
ARC
  5
5C4
330
1A
100
AcDbEntity
  8
NOKITOI
  6
PHANTOM
 62
     8
 48
5.0
100
AcDbCircle
 10
385.2193191324205
 20
158.8180307208921
 30
0.0
 40
3.999989731271038
100
AcDbArc
 50
358.2100163932691
 51
83.52268857986855
  0
ARC
  5
5C5
330
1A
100
AcDbEntity
  8
NOKITOI
  6
PHANTOM
 62
     8
 48
5.0
100
AcDbCircle
 10
385.219236801198
 20
158.8180456667468
 30
0.0
 40
5.2000412730095
100
AcDbArc
 50
37.92420092094385
 51
89.99867545693838
  0
LINE
  5
5C6
330
1A
100
AcDbEntity
  8
NOKITOI
  6
PHANTOM
 62
     8
 48
5.0
100
AcDbLine
 10
390.6699570138672
 20
166.7554869383668
 30
0.0
 11
390.2797570138674
 21
154.2711869383667
 31
0.0
  0
ARC
  5
5CA
330
1A
100
AcDbEntity
  8
NOKITOI
  6
PHANTOM
 62
     8
 48
5.0
100
AcDbCircle
 10
388.7805210547163
 20
154.3179520842235
 30
0.0
 40
1.499965146287778
100
AcDbArc
 50
270.0013735703023
 51
358.2133719782232
  0
LINE
  5
5CD
330
1A
100
AcDbEntity
  8
SEIHIN
  6
CONTINUOUS
 62
     3
100
AcDbLine
 10
281.7119197016194
 20
154.0408241262301
 30
0.0
 11
285.5918197016194
 21
148.99692412623
 31
0.0
  0
LINE
  5
5CE
330
1A
100
AcDbEntity
  8
SEIHIN
  6
CONTINUOUS
 62
     3
100
AcDbLine
 10
275.0722197016195
 20
157.63112412623
 30
0.0
 11
281.9040197016196
 21
157.63112412623
 31
0.0
  0
ARC
  5
5CF
330
1A
100
AcDbEntity
  8
NOKITOI
  6
PHANTOM
 62
     8
 48
5.0
100
AcDbCircle
 10
382.6358654380297
 20
151.8179944534232
 30
0.0
 40
0.9999924849789756
100
AcDbArc
 50
90.00048267259112
 51
173.4717353933255
  0
LINE
  5
5D0
330
1A
100
AcDbEntity
  8
NOKITOI
  6
PHANTOM
 62
     8
 48
5.0
100
AcDbLine
 10
381.0919570138668
 20
154.0179869383668
 30
0.0
 11
387.1328570138672
 21
154.0179869383668
 31
0.0
  0
LINE
  5
5D1
330
1A
100
AcDbEntity
  8
SEIHIN
  6
CONTINUOUS
 62
     3
100
AcDbLine
 10
275.0722197016195
 20
156.43112412623
 30
0.0
 11
281.9040197016196
 21
156.43112412623
 31
0.0
  0
LINE
  5
5D2
330
1A
100
AcDbEntity
  8
SEIHIN
  6
CONTINUOUS
 62
     3
100
AcDbLine
 10
280.9192197016195
 20
154.43112412623
 30
0.0
 11
277.0722197016195
 21
154.43112412623
 31
0.0
  0
LINE
  5
5D3
330
1A
100
AcDbEntity
  8
NOKITOI
  6
PHANTOM
 62
     8
 48
5.0
100
AcDbLine
 10
385.4528570138674
 20
159.8887869383669
 30
0.0
 11
385.1191570138672
 21
162.2249869383669
 31
0.0
  0
LINE
  5
5D4
330
1A
100
AcDbEntity
  8
SEIHIN
  6
CONTINUOUS
 62
     3
100
AcDbLine
 10
276.0711197016195
 20
162.2848241262301
 30
0.0
 11
274.7850197016195
 21
158.0177241262301
 31
0.0
  0
LINE
  5
5D5
330
1A
100
AcDbEntity
  8
NOKITOI
  6
PHANTOM
 62
     8
 48
5.0
100
AcDbLine
 10
382.7088570138672
 20
159.3179869383668
 30
0.0
 11
384.9579570138672
 21
159.3179869383668
 31
0.0
  0
ARC
  5
5D6
330
1A
100
AcDbEntity
  8
NOKITOI
  6
PHANTOM
 62
     8
 48
5.0
100
AcDbCircle
 10
384.9579304132695
 20
159.8179562614847
 30
0.0
 40
0.4999693238254178
100
AcDbArc
 50
270.0030483909652
 51
8.144496122946778
  0
ARC
  5
5D7
330
1A
100
AcDbEntity
  8
SEIHIN
  6
CONTINUOUS
 62
     3
100
AcDbCircle
 10
275.0722299794284
 20
157.9311102922588
 30
0.0
 40
0.2999861662048304
100
AcDbArc
 50
163.2182955160988
 51
269.9980369925692
  0
ARC
  5
5D8
330
1A
100
AcDbEntity
  8
NOKITOI
  6
PHANTOM
 62
     8
 48
5.0
100
AcDbCircle
 10
382.7088639008621
 20
159.8179804032812
 30
0.0
 40
0.499993464961963
100
AcDbArc
 50
183.0029638682573
 51
269.9992107982126
  0
LINE
  5
5D9
330
1A
100
AcDbEntity
  8
NOKITOI
  6
PHANTOM
 62
     8
 48
5.0
100
AcDbLine
 10
383.3729570138672
 20
160.5179869383668
 30
0.0
 11
384.1508570138668
 21
160.5179869383668
 31
0.0
  0
LINE
  5
5DA
330
1A
100
AcDbEntity
  8
NOKITOI
  6
PHANTOM
 62
     8
 48
5.0
100
AcDbLine
 10
388.7805570138672
 20
152.8179869383668
 30
0.0
 11
382.6358570138673
 21
152.8179869383668
 31
0.0
  0
ARC
  5
5DB
330
1A
100
AcDbEntity
  8
SEIHIN
  6
CONTINUOUS
 62
     3
100
AcDbCircle
 10
277.0722197016195
 20
156.43112412623
 30
0.0
 40
2.0
100
AcDbArc
 50
180.0
 51
270.0
  0
ARC
  5
5DC
330
1A
100
AcDbEntity
  8
NOKITOI
  6
PHANTOM
 62
     8
 48
5.0
100
AcDbCircle
 10
387.1328434417288
 20
156.0179737832804
 30
0.0
 40
1.999986844959662
100
AcDbArc
 50
270.0003888156776
 51
358.2124468147636
  0
LINE
  5
5DD
330
1A
100
AcDbEntity
  8
NOKITOI
  6
PHANTOM
 62
     8
 48
5.0
100
AcDbLine
 10
389.1318570138674
 20
155.9555869383668
 30
0.0
 11
389.2173570138671
 21
158.6930869383667
 31
0.0
  0
ARC
  5
5DE
330
1A
100
AcDbEntity
  8
SEIHIN
  6
CONTINUOUS
 62
     3
100
AcDbCircle
 10
275.0722106802002
 20
157.9311362677984
 30
0.0
 40
1.500012141595522
100
AcDbArc
 50
163.226465554226
 51
270.0003445900458
  0
ARC
  5
5DF
330
1A
100
AcDbEntity
  8
SEIHIN
  6
CONTINUOUS
 62
     3
100
AcDbCircle
 10
281.9040339847781
 20
155.4311134512273
 30
0.0
 40
2.200038914490291
100
AcDbArc
 50
37.56935675962437
 51
68.8838440761437
  0
ARC
  5
5E0
330
1A
100
AcDbEntity
  8
SEIHIN
  6
CONTINUOUS
 62
     3
100
AcDbCircle
 10
281.9041111810124
 20
155.4311070752258
 30
0.0
 40
2.20001705290609
100
AcDbArc
 50
68.88577934792877
 51
90.0023824284093
  0
ARC
  5
5E1
330
1A
100
AcDbEntity
  8
SEIHIN
  6
CONTINUOUS
 62
     3
100
AcDbCircle
 10
280.9191937314266
 20
153.4311369138936
 30
0.0
 40
0.9999872126736606
100
AcDbArc
 50
37.56745337482412
 51
89.99851199852834
  0
ARC
  5
5E2
330
1A
100
AcDbEntity
  8
NOKITOI
  6
PHANTOM
 62
     8
 48
5.0
100
AcDbCircle
 10
381.0919444441589
 20
153.5179753136371
 30
0.0
 40
0.5000116248877111
100
AcDbArc
 50
89.99855965101662
 51
175.5251531916571
  0
ARC
  5
5E3
330
1A
100
AcDbEntity
  8
SEIHIN
  6
CONTINUOUS
 62
     3
100
AcDbCircle
 10
281.9039937314266
 20
155.4311369138936
 30
0.0
 40
0.9999872126736606
100
AcDbArc
 50
37.56745337482412
 51
89.99851199852834
  0
ARC
  5
5E6
330
1A
100
AcDbEntity
  8
NOKITOI
  6
PHANTOM
 62
     8
 48
5.0
100
AcDbCircle
 10
388.6709442630173
 20
166.8180000934532
 30
0.0
 40
1.999986844954076
100
AcDbArc
 50
358.21169271173
 51
89.99963471264475
  0
ARC
  5
5E8
330
1A
100
AcDbEntity
  8
NOKITOI
  6
PHANTOM
 62
     8
 48
5.0
100
AcDbCircle
 10
382.3930632150251
 20
165.817993473452
 30
0.0
 40
0.4999934649531607
100
AcDbArc
 50
90.00071060961996
 51
183.0044636796616
  0
LINE
  5
5E9
330
1A
100
AcDbEntity
  8
NOKITOI
  6
PHANTOM
 62
     8
 48
5.0
100
AcDbLine
 10
388.6709570138674
 20
168.8179869383668
 30
0.0
 11
385.3443570138671
 21
168.8179869383668
 31
0.0
  0
ARC
  5
5EA
330
1A
100
AcDbEntity
  8
NOKITOI
  6
PHANTOM
 62
     8
 48
5.0
100
AcDbCircle
 10
385.3443577968756
 20
168.3179878933685
 30
0.0
 40
0.4999990449987349
100
AcDbArc
 50
90.00008972630549
 51
191.3032801984551
  0
LINE
  5
5EB
330
1A
100
AcDbEntity
  8
NOKITOI
  6
PHANTOM
 62
     8
 48
5.0
100
AcDbLine
 10
388.6709570138674
 20
167.6179869383669
 30
0.0
 11
386.198157013867
 21
167.6179869383669
 31
0.0
  0
LINE
  5
5EC
330
1A
100
AcDbEntity
  8
NOKITOI
  6
PHANTOM
 62
     8
 48
5.0
100
AcDbLine
 10
386.6981570138669
 20
165.1179869383669
 30
0.0
 11
383.7616570138671
 21
165.1179869383669
 31
0.0
  0
LINE
  5
5ED
330
1A
100
AcDbEntity
  8
NOKITOI
  6
PHANTOM
 62
     8
 48
5.0
100
AcDbLine
 10
384.7574570138668
 20
164.0179869383668
 30
0.0
 11
383.7616570138671
 21
165.1179869383669
 31
0.0
  0
LINE
  5
5EE
330
1A
100
AcDbEntity
  8
NOKITOI
  6
PHANTOM
 62
     8
 48
5.0
100
AcDbLine
 10
382.3930570138674
 20
166.3179869383668
 30
0.0
 11
384.6245570138672
 21
166.3179869383668
 31
0.0
  0
LINE
  5
5EF
330
1A
100
AcDbEntity
  8
NOKITOI
  6
PHANTOM
 62
     8
 48
5.0
100
AcDbLine
 10
384.7574570138668
 20
164.0179869383668
 30
0.0
 11
385.2193570138671
 21
164.0179869383668
 31
0.0
  0
LINE
  5
5F0
330
1A
100
AcDbEntity
  8
NOKITOI
  6
PHANTOM
 62
     8
 48
5.0
100
AcDbLine
 10
386.198157013867
 20
167.6179869383669
 30
0.0
 11
386.6981570138669
 21
165.1179869383669
 31
0.0
  0
ARC
  5
5F1
330
1A
100
AcDbEntity
  8
NOKITOI
  6
PHANTOM
 62
     8
 48
5.0
100
AcDbCircle
 10
384.6245642684226
 20
166.8179957882102
 30
0.0
 40
0.5000088498959383
100
AcDbArc
 50
269.9991687038565
 51
11.31359566951149
  0
LINE
  5
5F2
330
1A
100
AcDbEntity
  8
NOKITOI
  6
PHANTOM
 62
     8
 48
5.0
100
AcDbLine
 10
383.746757013867
 20
163.3463869383667
 30
0.0
 11
383.1917570138672
 21
163.9594869383669
 31
0.0
  0
LINE
  5
5F3
330
1A
100
AcDbEntity
  8
NOKITOI
  6
PHANTOM
 62
     8
 48
5.0
100
AcDbLine
 10
385.1148570138672
 20
166.9160869383667
 30
0.0
 11
384.8540570138672
 21
168.2199869383668
 31
0.0
  0
ARC
  5
5F4
330
1A
100
AcDbEntity
  8
NOKITOI
  6
PHANTOM
 62
     8
 48
5.0
100
AcDbCircle
 10
388.6709525190691
 20
166.8179915758936
 30
0.0
 40
0.7999953624857498
100
AcDbArc
 50
358.20887265358
 51
89.99967808194661
  0
LINE
  5
5FB
330
1A
100
AcDbEntity
  8
SEIHIN
  6
CONTINUOUS
 62
     3
100
AcDbLine
 10
334.0808197016194
 20
184.2171241262301
 30
0.0
 11
397.2825197016195
 21
189.7464241262301
 31
0.0
  0
LINE
  5
5FC
330
1A
100
AcDbEntity
  8
SEIHIN
  6
CONTINUOUS
 62
     3
100
AcDbLine
 10
314.7887996568056
 20
148.6313300919668
 30
0.0
 11
374.3965197016195
 21
148.6311241262301
 31
0.0
  0
LINE
  5
5FD
330
1A
100
AcDbEntity
  8
SEIHIN
  6
CONTINUOUS
 62
     3
100
AcDbLine
 10
375.9965197016195
 20
148.23112412623
 30
0.0
 11
313.610277881039
 21
148.2313298187799
 31
0.0
  0
LINE
  5
5FE
330
1A
100
AcDbEntity
  8
SEIHIN
  6
CONTINUOUS
 62
     3
100
AcDbLine
 10
395.8614197016194
 20
178.5800241262301
 30
0.0
 11
340.3325197016195
 21
173.7220241262301
 31
0.0
  0
ARC
  5
5FF
330
1A
100
AcDbEntity
  8
SEIHIN
  6
CONTINUOUS
 62
     3
100
AcDbCircle
 10
349.0407809183453
 20
167.6311040084397
 30
0.0
 40
9.999979882284851
100
AcDbArc
 50
270.0002222122391
 51
324.833871337322
  0
LINE
  5
600
330
1A
100
AcDbEntity
  8
SEIHIN
  6
CONTINUOUS
 62
     3
100
AcDbLine
 10
305.1700197016195
 20
161.5315241262301
 30
0.0
 11
303.9200197016195
 21
164.5315241262301
 31
0.0
  0
ARC
  5
601
330
1A
100
AcDbEntity
  8
SEIHIN
  6
CONTINUOUS
 62
     3
100
AcDbCircle
 10
299.5341993306698
 20
169.7921001462874
 30
0.0
 40
10.00003573047762
100
AcDbArc
 50
304.3044371974906
 51
335.0001371699174
  0
LINE
  5
602
330
1A
100
AcDbEntity
  8
SEIHIN
  6
CONTINUOUS
 62
     3
100
AcDbLine
 10
296.1700197016194
 20
161.5315241262301
 30
0.0
 11
297.4201197016194
 21
164.5315241262301
 31
0.0
  0
ARC
  5
603
330
1A
100
AcDbEntity
  8
SEIHIN
  6
CONTINUOUS
 62
     3
100
AcDbCircle
 10
301.8060400725691
 20
169.7921001462874
 30
0.0
 40
10.00003573047764
100
AcDbArc
 50
204.9998628300822
 51
235.6955628025087
  0
LINE
  5
604
330
1A
100
AcDbEntity
  8
CENTER_L
  6
CENTER
 62
     1
 48
5.0
100
AcDbLine
 10
300.6699197016195
 20
168.2495241262301
 30
0.0
 11
300.6698197016195
 21
142.9844241262301
 31
0.0
  0
LINE
  5
605
330
1A
100
AcDbEntity
  8
SEIHIN
  6
CONTINUOUS
 62
     3
100
AcDbLine
 10
319.4275197016194
 20
152.17502412623
 30
0.0
 11
332.5335197016194
 21
169.41972412623
 31
0.0
  0
LINE
  5
606
330
1A
100
AcDbEntity
  8
SEIHIN
  6
CONTINUOUS
 62
     3
100
AcDbLine
 10
310.6698197016195
 20
158.83112412623
 30
0.0
 11
326.9907197016194
 21
180.3058241262301
 31
0.0
  0
ARC
  5
607
330
1A
100
AcDbEntity
  8
SEIHIN
  6
CONTINUOUS
 62
     3
100
AcDbCircle
 10
310.6697837033316
 20
158.8310558725019
 30
0.0
 40
11.00003174645808
100
AcDbArc
 50
269.999666634782
 51
322.7645340726747
  0
LINE
  5
608
330
1A
100
AcDbEntity
  8
SEIHIN
  6
CONTINUOUS
 62
     3
100
AcDbLine
 10
310.6698197016195
 20
158.83112412623
 30
0.0
 11
290.6698197016194
 21
158.83112412623
 31
0.0
  0
LINE
  5
609
330
1A
100
AcDbEntity
  8
SEIHIN
  6
CONTINUOUS
 62
     3
100
AcDbLine
 10
305.1700197016195
 20
161.5315241262301
 30
0.0
 11
300.6700197016195
 21
161.5315241262301
 31
0.0
  0
LINE
  5
60A
330
1A
100
AcDbEntity
  8
SEIHIN
  6
CONTINUOUS
 62
     3
100
AcDbLine
 10
306.1700197016195
 20
160.33152412623
 30
0.0
 11
300.6700197016195
 21
160.33152412623
 31
0.0
  0
LINE
  5
60B
330
1A
100
AcDbEntity
  8
SEIHIN
  6
CONTINUOUS
 62
     3
100
AcDbLine
 10
297.6698197016195
 20
147.83102412623
 30
0.0
 11
310.6697197016195
 21
147.83102412623
 31
0.0
  0
LINE
  5
60C
330
1A
100
AcDbEntity
  8
SEIHIN
  6
CONTINUOUS
 62
     3
100
AcDbLine
 10
295.1701197016194
 20
147.43152412623
 30
0.0
 11
306.1701197016194
 21
147.43152412623
 31
0.0
  0
ARC
  5
60D
330
1A
100
AcDbEntity
  8
SEIHIN
  6
CONTINUOUS
 62
     3
100
AcDbCircle
 10
300.6700197016194
 20
155.47852412623
 30
0.0
 40
9.747010259561621
100
AcDbArc
 50
235.6479976531777
 51
304.3520023468222
  0
LINE
  5
60E
330
1A
100
AcDbEntity
  8
SEIHIN
  6
CONTINUOUS
 62
     3
100
AcDbLine
 10
289.2335197016194
 20
148.6311241262301
 30
0.0
 11
289.2335197016194
 21
155.63112412623
 31
0.0
  0
LINE
  5
60F
330
1A
100
AcDbEntity
  8
SEIHIN
  6
CONTINUOUS
 62
     3
100
AcDbLine
 10
297.6698197016195
 20
147.83102412623
 30
0.0
 11
290.6698197016194
 21
154.8310241262301
 31
0.0
  0
LINE
  5
610
330
1A
100
AcDbEntity
  8
SEIHIN
  6
CONTINUOUS
 62
     3
100
AcDbLine
 10
289.2335197016194
 20
148.63132412623
 30
0.0
 11
296.8695197016195
 21
148.63132412623
 31
0.0
  0
LINE
  5
611
330
1A
100
AcDbEntity
  8
SEIHIN
  6
CONTINUOUS
 62
     3
100
AcDbLine
 10
297.2695197016195
 20
148.23132412623
 30
0.0
 11
291.1465197016195
 21
148.23132412623
 31
0.0
  0
ARC
  5
612
330
1A
100
AcDbEntity
  8
SEIHIN
  6
CONTINUOUS
 62
     3
100
AcDbCircle
 10
289.2335636371866
 20
150.3311024902939
 30
0.0
 40
0.4999783659941892
100
AcDbArc
 50
217.5593647406095
 51
269.9949651370121
  0
LINE
  5
613
330
1A
100
AcDbEntity
  8
SEIHIN
  6
CONTINUOUS
 62
     3
100
AcDbLine
 10
291.1465197016195
 20
148.23122412623
 30
0.0
 11
291.1465197016195
 21
148.6311241262301
 31
0.0
  0
ARC
  5
614
330
1A
100
AcDbEntity
  8
SEIHIN
  6
CONTINUOUS
 62
     3
100
AcDbCircle
 10
289.2334932713346
 20
150.3311371408363
 30
0.0
 40
1.700013014811688
100
AcDbArc
 50
217.5684553619203
 51
270.0008907836348
  0
LINE
  5
615
330
1A
100
AcDbEntity
  8
SEIHIN
  6
CONTINUOUS
 62
     3
100
AcDbLine
 10
295.1701197016194
 20
147.43152412623
 30
0.0
 11
295.1701197016194
 21
148.2314241262301
 31
0.0
  0
ARC
  5
617
330
1A
100
AcDbEntity
  8
SEIHIN
  6
CONTINUOUS
 62
     3
100
AcDbCircle
 10
291.2335197016195
 20
155.63112412623
 30
0.0
 40
2.0
100
AcDbArc
 50
106.370649565866
 51
180.0
  0
LINE
  5
618
330
1A
100
AcDbEntity
  8
SEIHIN
  6
CONTINUOUS
 62
     3
100
AcDbLine
 10
290.6698197016194
 20
154.8310241262301
 30
0.0
 11
290.6698197016194
 21
158.8310241262301
 31
0.0
  0
LINE
  5
619
330
1A
100
AcDbEntity
  8
SEIHIN
  6
CONTINUOUS
 62
     3
100
AcDbLine
 10
296.1700197016194
 20
161.5315241262301
 30
0.0
 11
300.6700197016195
 21
161.5315241262301
 31
0.0
  0
LINE
  5
61A
330
1A
100
AcDbEntity
  8
SEIHIN
  6
CONTINUOUS
 62
     3
100
AcDbLine
 10
296.1700197016194
 20
161.5315241262301
 30
0.0
 11
296.6700197016195
 21
160.33152412623
 31
0.0
  0
LINE
  5
61B
330
1A
100
AcDbEntity
  8
SEIHIN
  6
CONTINUOUS
 62
     3
100
AcDbLine
 10
295.1700197016195
 20
160.33152412623
 30
0.0
 11
295.1700197016195
 21
158.8315241262301
 31
0.0
  0
LINE
  5
61C
330
1A
100
AcDbEntity
  8
SEIHIN
  6
CONTINUOUS
 62
     3
100
AcDbLine
 10
295.1700197016195
 20
160.33152412623
 30
0.0
 11
300.6700197016195
 21
160.33152412623
 31
0.0
  0
LINE
  5
61D
330
1A
100
AcDbEntity
  8
SEIHIN
  6
CONTINUOUS
 62
     3
100
AcDbLine
 10
306.1701197016194
 20
147.43152412623
 30
0.0
 11
306.1701197016194
 21
147.83102412623
 31
0.0
  0
LINE
  5
61E
330
1A
100
AcDbEntity
  8
SEIHIN
  6
CONTINUOUS
 62
     3
100
AcDbLine
 10
306.1700197016195
 20
160.33152412623
 30
0.0
 11
306.1700197016195
 21
158.8312241262301
 31
0.0
  0
LINE
  5
61F
330
1A
100
AcDbEntity
  8
SEIHIN
  6
CONTINUOUS
 62
     3
100
AcDbLine
 10
305.1700197016195
 20
161.5315241262301
 30
0.0
 11
304.6700197016194
 21
160.33152412623
 31
0.0
  0
LINE
  5
620
330
1A
100
AcDbEntity
  8
SEIHIN
  6
CONTINUOUS
 62
     3
100
AcDbLine
 10
323.5741645606195
 20
157.63112412623
 30
0.0
 11
349.0408197016193
 21
157.63112412623
 31
0.0
  0
LINE
  5
621
330
1A
100
AcDbEntity
  8
SEIHIN
  6
CONTINUOUS
 62
     3
100
AcDbLine
 10
350.9466197016194
 20
147.6312241262301
 30
0.0
 11
346.7965197016195
 21
147.6312241262301
 31
0.0
  0
LINE
  5
622
330
1A
100
AcDbEntity
  8
SEIHIN
  6
CONTINUOUS
 62
     3
100
AcDbLine
 10
346.7965197016195
 20
147.63112412623
 30
0.0
 11
346.7965197016195
 21
148.23112412623
 31
0.0
  0
LINE
  5
623
330
1A
100
AcDbEntity
  8
SEIHIN
  6
CONTINUOUS
 62
     3
100
AcDbLine
 10
350.9466197016194
 20
147.63112412623
 30
0.0
 11
350.9466197016194
 21
148.23112412623
 31
0.0
  0
LINE
  5
624
330
1A
100
AcDbEntity
  8
SEIHIN
  6
CONTINUOUS
 62
     3
100
AcDbLine
 10
300.6701197016194
 20
165.83152412623
 30
0.0
 11
303.1700197016195
 21
165.83152412623
 31
0.0
  0
LINE
  5
625
330
1A
100
AcDbEntity
  8
SEIHIN
  6
CONTINUOUS
 62
     3
100
AcDbLine
 10
300.6700197016195
 20
164.5315241262301
 30
0.0
 11
303.9200197016195
 21
164.5315241262301
 31
0.0
  0
LINE
  5
626
330
1A
100
AcDbEntity
  8
SEIHIN
  6
CONTINUOUS
 62
     3
100
AcDbLine
 10
294.1491197016195
 20
170.9433241262301
 30
0.0
 11
292.3968197016195
 21
170.4738241262301
 31
0.0
  0
LINE
  5
627
330
1A
100
AcDbEntity
  8
SEIHIN
  6
CONTINUOUS
 62
     3
100
AcDbLine
 10
292.6556197016194
 20
169.5078241262301
 30
0.0
 11
294.4080197016194
 21
169.9774241262301
 31
0.0
  0
ARC
  5
628
330
1A
100
AcDbEntity
  8
SEIHIN
  6
CONTINUOUS
 62
     3
100
AcDbCircle
 10
301.8059572293782
 20
169.7922169588791
 30
0.0
 40
9.000024792293261
100
AcDbArc
 50
205.0008288656352
 51
222.8781744476678
  0
ARC
  5
629
330
1A
100
AcDbEntity
  8
SEIHIN
  6
CONTINUOUS
 62
     3
100
AcDbCircle
 10
292.7848392761971
 20
169.0248661029779
 30
0.0
 40
1.499968002867922
100
AcDbArc
 50
104.9999718590788
 51
205.0011846144236
  0
ARC
  5
62A
330
1A
100
AcDbEntity
  8
SEIHIN
  6
CONTINUOUS
 62
     3
100
AcDbCircle
 10
292.7850167967929
 20
169.0249178964582
 30
0.0
 40
0.4999420316314657
100
AcDbArc
 50
105.0003056294915
 51
205.0011555088752
  0
LINE
  5
62B
330
1A
100
AcDbEntity
  8
SEIHIN
  6
CONTINUOUS
 62
     3
100
AcDbLine
 10
291.4256197016195
 20
168.3909241262301
 30
0.0
 11
292.7429197016195
 21
165.56592412623
 31
0.0
  0
LINE
  5
62C
330
1A
100
AcDbEntity
  8
SEIHIN
  6
CONTINUOUS
 62
     3
100
AcDbLine
 10
293.6492197016194
 20
165.9885241262301
 30
0.0
 11
292.3318197016195
 21
168.8136241262301
 31
0.0
  0
ARC
  5
62D
330
1A
100
AcDbEntity
  8
SEIHIN
  6
CONTINUOUS
 62
     3
100
AcDbCircle
 10
294.5373197016195
 20
169.4944241262301
 30
0.0
 40
0.5000333588871861
100
AcDbArc
 50
14.9978461818953
 51
104.997846181892
  0
ARC
  5
62E
330
1A
100
AcDbEntity
  8
SEIHIN
  6
CONTINUOUS
 62
     3
100
AcDbCircle
 10
294.5373355523047
 20
169.4944149750834
 30
0.0
 40
1.500016424910027
100
AcDbArc
 50
15.00301852584737
 51
104.9993290130914
  0
ARC
  5
62F
330
1A
100
AcDbEntity
  8
SEIHIN
  6
CONTINUOUS
 62
     3
100
AcDbCircle
 10
295.5771059713894
 20
164.0084216736102
 30
0.0
 40
0.4999732692047991
100
AcDbArc
 50
222.877368971804
 51
337.3801181495939
  0
LINE
  5
630
330
1A
100
AcDbEntity
  8
SEIHIN
  6
CONTINUOUS
 62
     3
100
AcDbLine
 10
298.1701197016194
 20
165.83152412623
 30
0.0
 11
298.1701197016194
 21
164.5315241262301
 31
0.0
  0
LINE
  5
631
330
1A
100
AcDbEntity
  8
SEIHIN
  6
CONTINUOUS
 62
     3
100
AcDbLine
 10
300.6700197016195
 20
164.5315241262301
 30
0.0
 11
297.4201197016194
 21
164.5315241262301
 31
0.0
  0
LINE
  5
632
330
1A
100
AcDbEntity
  8
SEIHIN
  6
CONTINUOUS
 62
     3
100
AcDbLine
 10
296.3005197016194
 20
164.4445241262301
 30
0.0
 11
296.0386197016195
 21
163.8161241262301
 31
0.0
  0
ARC
  5
633
330
1A
100
AcDbEntity
  8
SEIHIN
  6
CONTINUOUS
 62
     3
100
AcDbCircle
 10
295.8389297564103
 20
164.6369752723519
 30
0.0
 40
0.5000104130644015
100
AcDbArc
 50
337.3628230304298
 51
14.99248319646928
  0
LINE
  5
634
330
1A
100
AcDbEntity
  8
SEIHIN
  6
CONTINUOUS
 62
     3
100
AcDbLine
 10
300.6700197016195
 20
165.83152412623
 30
0.0
 11
298.1701197016194
 21
165.83152412623
 31
0.0
  0
LINE
  5
635
330
1A
100
AcDbEntity
  8
SEIHIN
  6
CONTINUOUS
 62
     3
100
AcDbLine
 10
295.0203197016195
 20
169.6238241262301
 30
0.0
 11
296.3219197016195
 21
164.7663241262301
 31
0.0
  0
LINE
  5
636
330
1A
100
AcDbEntity
  8
SEIHIN
  6
CONTINUOUS
 62
     3
100
AcDbLine
 10
297.4201197016194
 20
164.5315241262301
 30
0.0
 11
295.9862197016194
 21
169.8827241262301
 31
0.0
  0
LINE
  5
637
330
1A
100
AcDbEntity
  8
SEIHIN
  6
CONTINUOUS
 62
     3
100
AcDbLine
 10
308.6845197016195
 20
169.5078241262301
 30
0.0
 11
306.9322197016195
 21
169.9774241262301
 31
0.0
  0
LINE
  5
638
330
1A
100
AcDbEntity
  8
SEIHIN
  6
CONTINUOUS
 62
     3
100
AcDbLine
 10
307.1910197016195
 20
170.9433241262301
 30
0.0
 11
308.9433197016195
 21
170.4737241262301
 31
0.0
  0
ARC
  5
639
330
1A
100
AcDbEntity
  8
SEIHIN
  6
CONTINUOUS
 62
     3
100
AcDbCircle
 10
306.8028197016195
 20
169.4944241262301
 30
0.0
 40
0.5000333588871314
100
AcDbArc
 50
75.00215381810808
 51
165.0021538181093
  0
ARC
  5
63A
330
1A
100
AcDbEntity
  8
SEIHIN
  6
CONTINUOUS
 62
     3
100
AcDbCircle
 10
306.8028197016195
 20
169.4944241262301
 30
0.0
 40
1.50000348332929
100
AcDbArc
 50
75.00116534316669
 51
165.0011653431674
  0
ARC
  5
63B
330
1A
100
AcDbEntity
  8
SEIHIN
  6
CONTINUOUS
 62
     3
100
AcDbCircle
 10
308.5551592575364
 20
169.0248392827991
 30
0.0
 40
0.5000084834054097
100
AcDbArc
 50
334.9996914388832
 51
75.00608266149995
  0
ARC
  5
63C
330
1A
100
AcDbEntity
  8
SEIHIN
  6
CONTINUOUS
 62
     3
100
AcDbCircle
 10
308.5551634277402
 20
169.0248303515907
 30
0.0
 40
1.499986154316334
100
AcDbArc
 50
335.0006455034246
 51
75.00271712964153
  0
ARC
  5
63D
330
1A
100
AcDbEntity
  8
SEIHIN
  6
CONTINUOUS
 62
     3
100
AcDbCircle
 10
299.5342821738607
 20
169.7922169588791
 30
0.0
 40
9.000024792293261
100
AcDbArc
 50
317.1218255523321
 51
334.9991711343647
  0
LINE
  5
63E
330
1A
100
AcDbEntity
  8
SEIHIN
  6
CONTINUOUS
 62
     3
100
AcDbLine
 10
305.0397197016195
 20
164.4445241262301
 30
0.0
 11
305.3015197016195
 21
163.8161241262301
 31
0.0
  0
ARC
  5
63F
330
1A
100
AcDbEntity
  8
SEIHIN
  6
CONTINUOUS
 62
     3
100
AcDbCircle
 10
305.501219586409
 20
164.6368258587799
 30
0.0
 40
0.4999620985658942
100
AcDbArc
 50
164.988306886614
 51
202.6209348440397
  0
ARC
  5
640
330
1A
100
AcDbEntity
  8
SEIHIN
  6
CONTINUOUS
 62
     3
100
AcDbCircle
 10
305.7630794113718
 20
164.0084313248434
 30
0.0
 40
0.5000194239278282
100
AcDbArc
 50
202.6188762781183
 51
317.1260325116974
  0
LINE
  5
641
330
1A
100
AcDbEntity
  8
SEIHIN
  6
CONTINUOUS
 62
     3
100
AcDbLine
 10
303.9200197016195
 20
164.5315241262301
 30
0.0
 11
305.3539197016195
 21
169.8827241262301
 31
0.0
  0
LINE
  5
642
330
1A
100
AcDbEntity
  8
SEIHIN
  6
CONTINUOUS
 62
     3
100
AcDbLine
 10
307.6909197016194
 20
165.9885241262301
 30
0.0
 11
309.0083197016195
 21
168.8136241262301
 31
0.0
  0
LINE
  5
643
330
1A
100
AcDbEntity
  8
SEIHIN
  6
CONTINUOUS
 62
     3
100
AcDbLine
 10
306.3198197016195
 20
169.6238241262301
 30
0.0
 11
305.0182197016195
 21
164.7663241262301
 31
0.0
  0
LINE
  5
644
330
1A
100
AcDbEntity
  8
SEIHIN
  6
CONTINUOUS
 62
     3
100
AcDbLine
 10
309.9146197016195
 20
168.3909241262301
 30
0.0
 11
308.5972197016195
 21
165.56592412623
 31
0.0
  0
LINE
  5
645
330
1A
100
AcDbEntity
  8
SEIHIN
  6
CONTINUOUS
 62
     3
100
AcDbLine
 10
303.1700197016195
 20
165.83152412623
 30
0.0
 11
303.1700197016195
 21
164.5315241262301
 31
0.0
  0
ARC
  5
646
330
1A
100
AcDbEntity
  8
SEIHIN
  6
CONTINUOUS
 62
     3
100
AcDbCircle
 10
341.2913126280096
 20
162.7637202242242
 30
0.0
 40
11.00006022188277
100
AcDbArc
 50
94.99986671047571
 51
142.7648289625839
  0
ARC
  5
647
330
1A
100
AcDbEntity
  8
SEIHIN
  6
CONTINUOUS
 62
     3
100
AcDbCircle
 10
334.9523039493934
 20
174.2550154368223
 30
0.0
 40
9.999955476411765
100
AcDbArc
 50
94.99960142639947
 51
142.7651447559171
  0
LINE
  5
648
330
1A
100
AcDbEntity
  8
NOKITOI
  6
PHANTOM
 62
     8
 48
5.0
100
AcDbLine
 10
271.9983570138675
 20
166.7929869383667
 30
0.0
 11
272.1476570138671
 21
162.0139869383669
 31
0.0
  0
LINE
  5
649
330
1A
100
AcDbEntity
  8
SEIHIN
  6
CONTINUOUS
 62
     3
100
AcDbLine
 10
394.3965197016193
 20
152.6311241262301
 30
0.0
 11
394.3965197016193
 21
165.6311241262301
 31
0.0
  0
LINE
  5
64A
330
1A
100
AcDbEntity
  8
SEIHIN
  6
CONTINUOUS
 62
     3
100
AcDbLine
 10
393.5965197016193
 20
146.5810241262301
 30
0.0
 11
393.5965197016193
 21
166.6999241262301
 31
0.0
  0
LINE
  5
64B
330
1A
100
AcDbEntity
  8
SEIHIN
  6
CONTINUOUS
 62
     3
100
AcDbLine
 10
392.3965197016193
 20
165.6311241262301
 30
0.0
 11
392.3965197016193
 21
146.5810241262301
 31
0.0
  0
LINE
  5
64C
330
1A
100
AcDbEntity
  8
NOKITOI
  6
PHANTOM
 62
     8
 48
5.0
100
AcDbLine
 10
270.7989570138671
 20
166.7554869383668
 30
0.0
 11
271.1890570138672
 21
154.2710869383667
 31
0.0
  0
LINE
  5
64D
330
1A
100
AcDbEntity
  8
NOKITOI
  6
PHANTOM
 62
     8
 48
5.0
100
AcDbLine
 10
279.2593570138671
 20
159.7916869383668
 30
0.0
 11
279.5751570138674
 21
165.7916869383668
 31
0.0
  0
LINE
  5
64E
330
1A
100
AcDbEntity
  8
NOKITOI
  6
PHANTOM
 62
     8
 48
5.0
100
AcDbLine
 10
277.3180570138675
 20
160.5179869383668
 30
0.0
 11
277.7220570138671
 21
163.3463869383667
 31
0.0
  0
LINE
  5
64F
330
1A
100
AcDbEntity
  8
NOKITOI
  6
PHANTOM
 62
     8
 48
5.0
100
AcDbLine
 10
278.0959570138672
 20
160.5179869383668
 30
0.0
 11
278.2770570138674
 21
163.9593869383667
 31
0.0
  0
ARC
  5
650
330
1A
100
AcDbEntity
  8
NOKITOI
  6
PHANTOM
 62
     8
 48
5.0
100
AcDbCircle
 10
275.8547276413675
 20
162.2956171708617
 30
0.0
 40
0.4999578477751074
100
AcDbArc
 50
351.8669438287075
 51
96.47390928779223
  0
LINE
  5
651
330
1A
100
AcDbEntity
  8
SEIHIN
  6
CONTINUOUS
 62
     3
100
AcDbLine
 10
364.0516197016194
 20
171.5742241262301
 30
0.0
 11
357.2156197016195
 21
161.87162412623
 31
0.0
  0
LINE
  5
652
330
1A
100
AcDbEntity
  8
SEIHIN
  6
CONTINUOUS
 62
     3
100
AcDbLine
 10
371.4090197016195
 20
166.39072412623
 30
0.0
 11
360.3903197016195
 21
150.75142412623
 31
0.0
  0
ARC
  5
653
330
1A
100
AcDbEntity
  8
NOKITOI
  6
PHANTOM
 62
     8
 48
5.0
100
AcDbCircle
 10
276.2494879408033
 20
158.8180226830306
 30
0.0
 40
3.99998565374706
100
AcDbArc
 50
96.47577619531674
 51
181.7913033408985
  0
ARC
  5
654
330
1A
100
AcDbEntity
  8
NOKITOI
  6
PHANTOM
 62
     8
 48
5.0
100
AcDbCircle
 10
276.2494748802183
 20
158.8179956667467
 30
0.0
 40
5.199991271650611
100
AcDbArc
 50
90.00019685927453
 51
142.074671395269
  0
LINE
  5
655
330
1A
100
AcDbEntity
  8
NOKITOI
  6
PHANTOM
 62
     8
 48
5.0
100
AcDbLine
 10
280.3679570138675
 20
154.0179869383668
 30
0.0
 11
274.3360570138671
 21
154.0179869383668
 31
0.0
  0
LINE
  5
656
330
1A
100
AcDbEntity
  8
NOKITOI
  6
PHANTOM
 62
     8
 48
5.0
100
AcDbLine
 10
272.6883570138671
 20
152.8179869383668
 30
0.0
 11
278.829457013867
 21
152.8179869383668
 31
0.0
  0
LINE
  5
657
330
1A
100
AcDbEntity
  8
SEIHIN
  6
CONTINUOUS
 62
     3
100
AcDbLine
 10
383.0465197016195
 20
152.05622412623
 30
0.0
 11
391.9340197016195
 21
146.3289241262301
 31
0.0
  0
LINE
  5
658
330
1A
100
AcDbEntity
  8
SEIHIN
  6
CONTINUOUS
 62
     3
100
AcDbLine
 10
382.3965197016193
 20
151.04752412623
 30
0.0
 11
391.2840197016194
 21
145.3202241262301
 31
0.0
  0
LINE
  5
659
330
1A
100
AcDbEntity
  8
NOKITOI
  6
PHANTOM
 62
     8
 48
5.0
100
AcDbLine
 10
280.865457013867
 20
153.5677869383668
 30
0.0
 11
283.8584570138674
 21
123.6379869383667
 31
0.0
  0
LINE
  5
65A
330
1A
100
AcDbEntity
  8
NOKITOI
  6
PHANTOM
 62
     8
 48
5.0
100
AcDbLine
 10
279.8244570138669
 20
151.9174869383668
 30
0.0
 11
282.693257013867
 21
123.2300869383668
 31
0.0
  0
ARC
  5
65B
330
1A
100
AcDbEntity
  8
NOKITOI
  6
PHANTOM
 62
     8
 48
5.0
100
AcDbCircle
 10
284.3559744397454
 20
123.6876544519788
 30
0.0
 40
0.4999904508696396
100
AcDbArc
 50
185.7009889250754
 51
230.7099153622041
  0
ARC
  5
65C
330
1A
100
AcDbEntity
  8
NOKITOI
  6
PHANTOM
 62
     8
 48
5.0
100
AcDbCircle
 10
283.688279586736
 20
123.3295448666942
 30
0.0
 40
0.9999908507640039
100
AcDbArc
 50
185.7137670522468
 51
230.7112907769303
  0
ARC
  5
65D
330
1A
100
AcDbEntity
  8
SEIHIN
  6
CONTINUOUS
 62
     3
100
AcDbCircle
 10
356.3028725524516
 20
153.6310996686104
 30
0.0
 40
4.999975542602624
100
AcDbArc
 50
270.0005402923082
 51
324.8346578053964
  0
LINE
  5
65E
330
1A
100
AcDbEntity
  8
SEIHIN
  6
CONTINUOUS
 62
     3
100
AcDbLine
 10
376.8966197016195
 20
156.6311241262301
 30
0.0
 11
376.8965197016195
 21
149.1311241262301
 31
0.0
  0
LINE
  5
65F
330
1A
100
AcDbEntity
  8
SEIHIN
  6
CONTINUOUS
 62
     3
100
AcDbLine
 10
375.2965197016195
 20
149.1311241262301
 30
0.0
 11
375.2965197016195
 21
156.6311241262301
 31
0.0
  0
LINE
  5
660
330
1A
100
AcDbEntity
  8
SEIHIN
  6
CONTINUOUS
 62
     3
100
AcDbLine
 10
374.8965197016195
 20
149.1311241262301
 30
0.0
 11
374.8965197016195
 21
156.6311241262301
 31
0.0
  0
ARC
  5
661
330
1A
100
AcDbEntity
  8
SEIHIN
  6
CONTINUOUS
 62
     3
100
AcDbCircle
 10
374.3965197016195
 20
149.1311241262301
 30
0.0
 40
0.9000000000000198
100
AcDbArc
 50
269.999999999999
 51
359.999999999999
  0
ARC
  5
662
330
1A
100
AcDbEntity
  8
SEIHIN
  6
CONTINUOUS
 62
     3
100
AcDbCircle
 10
375.9965197016195
 20
149.1311241262301
 30
0.0
 40
0.8999999999999914
100
AcDbArc
 50
270.0000000000009
 51
0.0000000000009047
  0
ARC
  5
663
330
1A
100
AcDbEntity
  8
SEIHIN
  6
CONTINUOUS
 62
     3
100
AcDbCircle
 10
374.3965197016195
 20
149.1311241262301
 30
0.0
 40
0.5
100
AcDbArc
 50
270.0
 51
0.0
  0
LINE
  5
664
330
1A
100
AcDbEntity
  8
SEIHIN
  6
CONTINUOUS
 62
     3
100
AcDbLine
 10
376.8966197016195
 20
156.6311241262301
 30
0.0
 11
374.8966197016195
 21
156.6311241262301
 31
0.0
  0
LINE
  5
665
330
1A
100
AcDbEntity
  8
NOKITOI
  6
PHANTOM
 62
     8
 48
5.0
100
AcDbLine
 10
276.0159570138672
 20
159.8886869383667
 30
0.0
 11
276.3497570138671
 21
162.2248869383669
 31
0.0
  0
LINE
  5
666
330
1A
100
AcDbEntity
  8
NOKITOI
  6
PHANTOM
 62
     8
 48
5.0
100
AcDbLine
 10
278.7600570138671
 20
159.3179869383668
 30
0.0
 11
276.5109570138676
 21
159.3179869383668
 31
0.0
  0
ARC
  5
667
330
1A
100
AcDbEntity
  8
NOKITOI
  6
PHANTOM
 62
     8
 48
5.0
100
AcDbCircle
 10
278.7600528924605
 20
159.8179830283362
 30
0.0
 40
0.4999960899864752
100
AcDbArc
 50
270.0004722821405
 51
356.9852756208263
  0
ARC
  5
668
330
1A
100
AcDbEntity
  8
NOKITOI
  6
PHANTOM
 62
     8
 48
5.0
100
AcDbCircle
 10
276.5109468274309
 20
159.8179986830909
 30
0.0
 40
0.5000117448278309
100
AcDbArc
 50
171.8726853912841
 51
270.0011672521981
  0
LINE
  5
669
330
1A
100
AcDbEntity
  8
NOKITOI
  6
PHANTOM
 62
     8
 48
5.0
100
AcDbLine
 10
278.0959570138672
 20
160.5179869383668
 30
0.0
 11
277.3180570138675
 21
160.5179869383668
 31
0.0
  0
ARC
  5
66A
330
1A
100
AcDbEntity
  8
NOKITOI
  6
PHANTOM
 62
     8
 48
5.0
100
AcDbCircle
 10
278.8294363640262
 20
151.818005626216
 30
0.0
 40
0.9999813123640345
100
AcDbArc
 50
5.709409966648967
 51
89.99881682915043
  0
LINE
  5
66B
330
1A
100
AcDbEntity
  8
SEIHIN
  6
CONTINUOUS
 62
     3
100
AcDbLine
 10
382.3965197016193
 20
151.04752412623
 30
0.0
 11
383.0464197016195
 21
152.05622412623
 31
0.0
  0
ARC
  5
66C
330
1A
100
AcDbEntity
  8
NOKITOI
  6
PHANTOM
 62
     8
 48
5.0
100
AcDbCircle
 10
280.3679439428625
 20
153.5179987686466
 30
0.0
 40
0.499988169890889
100
AcDbArc
 50
5.703393862284335
 51
89.99850213773372
  0
ARC
  5
66D
330
1A
100
AcDbEntity
  8
SEIHIN
  6
CONTINUOUS
 62
     3
100
AcDbCircle
 10
392.096552488536
 20
146.5810420002922
 30
0.0
 40
0.2999672136158423
100
AcDbArc
 50
237.1913454210929
 51
359.9965859324747
  0
ARC
  5
66E
330
1A
100
AcDbEntity
  8
SEIHIN
  6
CONTINUOUS
 62
     3
100
AcDbCircle
 10
392.0965575542413
 20
146.5810447645644
 30
0.0
 40
1.499962147520053
100
AcDbArc
 50
237.2001798555939
 51
359.9992116538058
  0
ARC
  5
66F
330
1A
100
AcDbEntity
  8
SEIHIN
  6
CONTINUOUS
 62
     3
100
AcDbCircle
 10
393.5965197016193
 20
152.6311241262301
 30
0.0
 40
0.7999999999999688
100
AcDbArc
 50
270.000000000001
 51
0.0000000000010178
  0
ARC
  5
670
330
1A
100
AcDbEntity
  8
NOKITOI
  6
PHANTOM
 62
     8
 48
5.0
100
AcDbCircle
 10
272.688339800689
 20
154.3180036215145
 30
0.0
 40
1.500016683246579
100
AcDbArc
 50
181.7923576755889
 51
270.0006574876651
  0
LINE
  5
671
330
1A
100
AcDbEntity
  8
NOKITOI
  6
PHANTOM
 62
     8
 48
5.0
100
AcDbLine
 10
272.3369570138671
 20
155.9553869383668
 30
0.0
 11
272.2514570138674
 21
158.6929869383667
 31
0.0
  0
ARC
  5
672
330
1A
100
AcDbEntity
  8
NOKITOI
  6
PHANTOM
 62
     8
 48
5.0
100
AcDbCircle
 10
274.3360190260428
 20
156.017923758939
 30
0.0
 40
2.000036820932882
100
AcDbArc
 50
181.7889408725803
 51
270.001088250966
  0
LINE
  5
673
330
1A
100
AcDbEntity
  8
NOKITOI
  6
PHANTOM
 62
     8
 48
5.0
100
AcDbLine
 10
274.7706570138672
 20
165.1179869383669
 30
0.0
 11
277.7072570138672
 21
165.1179869383669
 31
0.0
  0
LINE
  5
674
330
1A
100
AcDbEntity
  8
NOKITOI
  6
PHANTOM
 62
     8
 48
5.0
100
AcDbLine
 10
272.7979570138669
 20
168.8178869383668
 30
0.0
 11
276.1245570138672
 21
168.8179869383668
 31
0.0
  0
LINE
  5
675
330
1A
100
AcDbEntity
  8
SEIHIN
  6
CONTINUOUS
 62
     3
100
AcDbLine
 10
387.3965197016195
 20
170.63112412623
 30
0.0
 11
379.5838197016194
 21
170.63112412623
 31
0.0
  0
ARC
  5
676
330
1A
100
AcDbEntity
  8
SEIHIN
  6
CONTINUOUS
 62
     3
100
AcDbCircle
 10
379.583872962402
 20
160.6311780275271
 30
0.0
 40
19.00003024406616
100
AcDbArc
 50
125.8514733178784
 51
144.8338901924748
  0
ARC
  5
677
330
1A
100
AcDbEntity
  8
SEIHIN
  6
CONTINUOUS
 62
     3
100
AcDbCircle
 10
379.5838584848936
 20
160.6311442440206
 30
0.0
 40
9.999979882284623
100
AcDbArc
 50
90.00022221223971
 51
144.8338713373227
  0
ARC
  5
678
330
1A
100
AcDbEntity
  8
NOKITOI
  6
PHANTOM
 62
     8
 48
5.0
100
AcDbCircle
 10
276.1245642684226
 20
168.3179780885233
 30
0.0
 40
0.500008849895925
100
AcDbArc
 50
348.6864043304882
 51
90.00083129614507
  0
LINE
  5
679
330
1A
100
AcDbEntity
  8
NOKITOI
  6
PHANTOM
 62
     8
 48
5.0
100
AcDbLine
 10
276.711457013867
 20
164.0179869383668
 30
0.0
 11
277.7072570138672
 21
165.1179869383669
 31
0.0
  0
LINE
  5
67A
330
1A
100
AcDbEntity
  8
NOKITOI
  6
PHANTOM
 62
     8
 48
5.0
100
AcDbLine
 10
277.7220570138671
 20
163.3463869383667
 30
0.0
 11
278.2770570138674
 21
163.9593869383667
 31
0.0
  0
LINE
  5
67B
330
1A
100
AcDbEntity
  8
NOKITOI
  6
PHANTOM
 62
     8
 48
5.0
100
AcDbLine
 10
276.711457013867
 20
164.0179869383668
 30
0.0
 11
276.249457013867
 21
164.0179869383668
 31
0.0
  0
LINE
  5
67C
330
1A
100
AcDbEntity
  8
NOKITOI
  6
PHANTOM
 62
     8
 48
5.0
100
AcDbLine
 10
279.0758570138669
 20
166.3179869383668
 30
0.0
 11
276.8443570138671
 21
166.3179869383668
 31
0.0
  0
ARC
  5
67D
330
1A
100
AcDbEntity
  8
NOKITOI
  6
PHANTOM
 62
     8
 48
5.0
100
AcDbCircle
 10
279.0758533043718
 20
165.8179908483975
 30
0.0
 40
0.4999960899831856
100
AcDbArc
 50
356.9843782585345
 51
89.99957491984867
  0
ARC
  5
67E
330
1A
100
AcDbEntity
  8
NOKITOI
  6
PHANTOM
 62
     8
 48
5.0
100
AcDbCircle
 10
276.8443577968756
 20
166.817985983365
 30
0.0
 40
0.4999990449987399
100
AcDbArc
 50
168.6967198015449
 51
269.9999102736945
  0
LINE
  5
67F
330
1A
100
AcDbEntity
  8
NOKITOI
  6
PHANTOM
 62
     8
 48
5.0
100
AcDbLine
 10
276.3540570138672
 20
166.9159869383669
 30
0.0
 11
276.6148570138672
 21
168.2199869383668
 31
0.0
  0
ARC
  5
680
330
1A
100
AcDbEntity
  8
SEIHIN
  6
CONTINUOUS
 62
     3
100
AcDbCircle
 10
396.4714828019572
 20
171.6066888348854
 30
0.0
 40
6.999970147929772
100
AcDbArc
 50
26.56554052496019
 51
94.99979872162468
  0
ARC
  5
681
330
1A
100
AcDbEntity
  8
SEIHIN
  6
CONTINUOUS
 62
     3
100
AcDbCircle
 10
383.596506125388
 20
166.6999552285496
 30
0.0
 40
10.00001357627982
100
AcDbArc
 50
359.9998217970781
 51
47.16257416882949
  0
LINE
  5
682
330
1A
100
AcDbEntity
  8
SEIHIN
  6
CONTINUOUS
 62
     3
100
AcDbLine
 10
390.3957197016195
 20
174.03282412623
 30
0.0
 11
386.5344197016193
 21
177.61302412623
 31
0.0
  0
ARC
  5
683
330
1A
100
AcDbEntity
  8
SEIHIN
  6
CONTINUOUS
 62
     3
100
AcDbCircle
 10
387.3965247780517
 20
165.6311077436842
 30
0.0
 40
6.999994923586839
100
AcDbArc
 50
0.0001340930592666
 51
34.43324081693328
  0
ARC
  5
684
330
1A
100
AcDbEntity
  8
NOKITOI
  6
PHANTOM
 62
     8
 48
5.0
100
AcDbCircle
 10
272.7979130475142
 20
166.8179415758938
 30
0.0
 40
0.7999453636812564
100
AcDbArc
 50
89.99685092684627
 51
181.7876563552118
  0
ARC
  5
685
330
1A
100
AcDbEntity
  8
SEIHIN
  6
CONTINUOUS
 62
     3
100
AcDbCircle
 10
387.3965197016194
 20
165.6311241262302
 30
0.0
 40
4.999999999999886
100
AcDbArc
 50
359.9999999999993
 51
89.99999999999934
  0
ARC
  5
686
330
1A
100
AcDbEntity
  8
NOKITOI
  6
PHANTOM
 62
     8
 48
5.0
100
AcDbCircle
 10
272.7979682508613
 20
166.8179985321839
 30
0.0
 40
1.999988406214315
100
AcDbArc
 50
90.0003219180439
 51
181.791127346407
  0
LINE
  5
687
330
1A
100
AcDbEntity
  8
NOKITOI
  6
PHANTOM
 62
     8
 48
5.0
100
AcDbLine
 10
275.2706570138672
 20
167.6179869383669
 30
0.0
 11
274.7706570138672
 21
165.1179869383669
 31
0.0
  0
LINE
  5
688
330
1A
100
AcDbEntity
  8
NOKITOI
  6
PHANTOM
 62
     8
 48
5.0
100
AcDbLine
 10
272.7979570138669
 20
167.6178869383667
 30
0.0
 11
275.2706570138672
 21
167.6179869383669
 31
0.0
  0
LINE
  5
689
330
1A
100
AcDbEntity
  8
SEIHIN
  6
CONTINUOUS
 62
     3
100
AcDbLine
 10
407.3780197016195
 20
176.62632412623
 30
0.0
 11
402.0115197016194
 21
173.94302412623
 31
0.0
  0
LINE
  5
68A
330
1A
100
AcDbEntity
  8
CENTER_L
  6
CENTER
 62
     1
 48
5.0
100
AcDbLine
 10
415.2834197016195
 20
172.75272412623
 30
0.0
 11
402.7749197016194
 21
166.4985241262301
 31
0.0
  0
ARC
  5
68B
330
1A
100
AcDbEntity
  8
SEIHIN
  6
CONTINUOUS
 62
     3
100
AcDbCircle
 10
397.7182839250776
 20
184.7654441350866
 30
0.0
 40
5.000005213059093
100
AcDbArc
 50
26.56517522389545
 51
94.99982809321879
  0
LINE
  5
692
330
1A
100
AcDbEntity
  8
SEIHIN
  6
PHANTOM
 62
     6
 48
5.0
100
AcDbLine
 10
452.6639197016193
 20
142.6381241262301
 30
0.0
 11
437.0114197016195
 21
173.94302412623
 31
0.0
  0
LINE
  5
693
330
1A
100
AcDbEntity
  8
SEIHIN
  6
PHANTOM
 62
     6
 48
5.0
100
AcDbLine
 10
457.1360197016193
 20
144.8741241262301
 30
0.0
 11
441.4836197016195
 21
176.1791241262301
 31
0.0
  0
LINE
  5
694
330
1A
100
AcDbEntity
  8
SEIHIN
  6
PHANTOM
 62
     6
 48
5.0
100
AcDbLine
 10
437.1904197016195
 20
187.0015241262301
 30
0.0
 11
458.0304197016196
 21
145.32142412623
 31
0.0
  0
LINE
  5
699
330
1A
100
AcDbEntity
  8
SEIHIN
  6
CONTINUOUS
 62
     3
100
AcDbLine
 10
423.0305197016195
 20
145.32142412623
 30
0.0
 11
417.6639197016195
 21
142.6381241262301
 31
0.0
  0
LINE
  5
69B
330
1A
100
AcDbEntity
  8
SEIHIN
  6
PHANTOM
 62
     6
 48
5.0
100
AcDbLine
 10
458.0305197016195
 20
145.32142412623
 30
0.0
 11
452.6639197016193
 21
142.6381241262301
 31
0.0
  0
ARC
  5
69F
330
1A
100
AcDbEntity
  8
SEIHIN
  6
PHANTOM
 62
     6
 48
5.0
100
AcDbCircle
 10
431.4714983932954
 20
171.6066772047289
 30
0.0
 40
6.999983092668737
100
AcDbArc
 50
23.38857036881282
 51
94.99991755678781
  0
LINE
  5
6A0
330
1A
100
AcDbEntity
  8
SEIHIN
  6
PHANTOM
 62
     6
 48
5.0
100
AcDbLine
 10
430.8614197016193
 20
178.5800241262301
 30
0.0
 11
426.5608197016195
 21
178.20382412623
 31
0.0
  0
LINE
  5
6A1
330
1A
100
AcDbEntity
  8
SEIHIN
  6
PHANTOM
 62
     6
 48
5.0
100
AcDbLine
 10
442.3780197016196
 20
176.62632412623
 30
0.0
 11
437.0115197016193
 21
173.94302412623
 31
0.0
  0
ARC
  5
6A2
330
1A
100
AcDbEntity
  8
SEIHIN
  6
PHANTOM
 62
     6
 48
5.0
100
AcDbCircle
 10
432.7182839250776
 20
184.7654441350866
 30
0.0
 40
5.000005213059093
100
AcDbArc
 50
26.56517522389545
 51
94.99982809321879
  0
LINE
  5
6A3
330
1A
100
AcDbEntity
  8
SEIHIN
  6
PHANTOM
 62
     6
 48
5.0
100
AcDbLine
 10
421.2712197016195
 20
188.7831241262301
 30
0.0
 11
432.2825197016195
 21
189.7464241262301
 31
0.0
  0
DIMENSION
  5
6B8
330
1A
100
AcDbEntity
  8
SUNPOU
 62
     4
100
AcDbDimension
  2
*D1
 10
519.5329396498981
 20
373.7712369897152
 30
0.0
 11
515.8960624282799
 21
392.095350176303
 31
0.0
 70
    32
  3
STANDARD
100
AcDbAlignedDimension
 13
560.1796434663826
 23
386.4143829327906
 33
0.0
 14
555.5623959430638
 24
391.9315779794287
 34
0.0
 50
116.7499999999999
100
AcDbRotatedDimension
1001
ACAD
1000
DSTYLE
1002
{
1070
   140
1040
6.0
1070
    74
1070
     0
1070
   172
1070
     1
1070
    73
1070
     0
1070
   272
1070
     2
1070
    77
1070
     3
1070
   173
1070
     1
1070
   147
1040
2.0
1070
    42
1040
6.0
1070
    44
1040
3.0
1070
    43
1040
14.0
1070
   271
1070
     0
1070
   178
1070
     4
1070
   177
1070
     4
1070
   176
1070
     4
1070
   141
1040
150.0
1070
     7
1000
_OPEN
1070
     6
1000
_OPEN
1070
    41
1040
7.0
1002
}
  0
DIMENSION
  5
6C7
330
1A
100
AcDbEntity
  8
SUNPOU
 62
     4
100
AcDbDimension
  2
*D2
 10
507.5850041563503
 20
365.5096486688317
 30
0.0
 11
514.5259880043336
 21
362.84767005801
 31
0.0
 70
    32
  3
STANDARD
100
AcDbAlignedDimension
 13
562.1711434663827
 23
380.7022829327907
 33
0.0
 14
556.4566834641356
 24
390.143002937285
 34
0.0
 50
116.7499999999999
100
AcDbRotatedDimension
1001
ACAD
1000
DSTYLE
1002
{
1070
   140
1040
6.0
1070
    74
1070
     0
1070
   172
1070
     1
1070
    73
1070
     0
1070
   272
1070
     2
1070
    77
1070
     3
1070
   173
1070
     1
1070
   147
1040
2.0
1070
    42
1040
6.0
1070
    44
1040
3.0
1070
    43
1040
14.0
1070
   271
1070
     0
1070
   178
1070
     4
1070
   177
1070
     4
1070
   176
1070
     4
1070
   141
1040
150.0
1070
     7
1000
_OPEN
1070
     6
1000
_OPEN
1070
    41
1040
7.0
1002
}
  0
DIMENSION
  5
6D6
330
1A
100
AcDbEntity
  8
SUNPOU
 62
     4
100
AcDbDimension
  2
*D3
 10
535.2860895617656
 20
342.5175602800758
 30
0.0
 11
547.8527562174952
 21
328.6944315038625
 31
0.0
 70
    32
  3
STANDARD
100
AcDbAlignedDimension
 13
569.8335434663829
 23
367.7626829327907
 33
0.0
 14
571.2146597016195
 24
360.6270504623173
 34
0.0
 50
116.7499999999999
100
AcDbRotatedDimension
1001
ACAD
1000
DSTYLE
1002
{
1070
   140
1040
6.0
1070
    74
1070
     0
1070
   172
1070
     1
1070
    73
1070
     0
1070
   272
1070
     2
1070
    77
1070
     3
1070
   173
1070
     1
1070
   147
1040
2.0
1070
    42
1040
6.0
1070
    44
1040
3.0
1070
    43
1040
14.0
1070
   271
1070
     0
1070
   178
1070
     4
1070
   177
1070
     4
1070
   176
1070
     4
1070
   141
1040
150.0
1070
     7
1000
_OPEN
1070
     6
1000
_OPEN
1070
    41
1040
7.0
1002
}
  0
DIMENSION
  5
6E3
330
1A
100
AcDbEntity
  8
SUNPOU
 62
     4
100
AcDbDimension
  2
*D4
 10
509.8325297137586
 20
329.6879099384034
 30
0.0
 11
506.4208494748806
 21
347.5652404984102
 31
0.0
 70
    32
  3
STANDARD
100
AcDbAlignedDimension
 13
555.5623959430638
 23
391.9315779794287
 33
0.0
 14
571.2146597016195
 24
360.6270504623173
 34
0.0
 50
116.7499999999999
100
AcDbRotatedDimension
1001
ACAD
1000
DSTYLE
1002
{
1070
   140
1040
6.0
1070
    74
1070
     0
1070
   172
1070
     1
1070
    73
1070
     0
1070
   272
1070
     2
1070
    77
1070
     3
1070
   173
1070
     1
1070
   147
1040
2.0
1070
    42
1040
6.0
1070
    44
1040
3.0
1070
    43
1040
14.0
1070
   271
1070
     0
1070
   178
1070
     4
1070
   177
1070
     4
1070
   176
1070
     4
1070
   141
1040
150.0
1070
     7
1000
_OPEN
1070
     6
1000
_OPEN
1070
    41
1040
7.0
1002
}
  0
DIMENSION
  5
6F0
330
1A
100
AcDbEntity
  8
SUNPOU
 62
     4
100
AcDbDimension
  2
*D5
 10
577.1281535560982
 20
440.7683685143265
 30
0.0
 11
558.8041134071693
 21
437.131528106719
 31
0.0
 70
    32
  3
STANDARD
100
AcDbAlignedDimension
 13
561.7402434663826
 23
391.3152829327906
 33
0.0
 14
593.9395940536686
 24
407.4150817574609
 34
0.0
 50
26.74999999999999
100
AcDbRotatedDimension
1001
ACAD
1000
DSTYLE
1002
{
1070
   140
1040
6.0
1070
    74
1070
     0
1070
   172
1070
     1
1070
    73
1070
     0
1070
   272
1070
     2
1070
    77
1070
     3
1070
   173
1070
     1
1070
   147
1040
2.0
1070
    42
1040
6.0
1070
    44
1040
3.0
1070
    43
1040
14.0
1070
   271
1070
     0
1070
   178
1070
     4
1070
   177
1070
     4
1070
   176
1070
     4
1070
   141
1040
150.0
1070
     7
1000
_OPEN
1070
     6
1000
_OPEN
1070
    41
1040
7.0
1002
}
  0
DIMENSION
  5
6FD
330
1A
100
AcDbEntity
  8
SUNPOU
 62
     4
100
AcDbDimension
  2
*D6
 10
575.7219428271103
 20
455.2460092099659
 30
0.0
 11
552.7097894564223
 21
449.2461652084996
 31
0.0
 70
    32
  3
STANDARD
100
AcDbAlignedDimension
 13
555.5623959430638
 23
391.9315779794287
 33
0.0
 14
597.1529343534943
 24
412.7277011585679
 34
0.0
 50
26.74999999999999
100
AcDbRotatedDimension
1001
ACAD
1000
DSTYLE
1002
{
1070
   140
1040
6.0
1070
    74
1070
     0
1070
   172
1070
     1
1070
    73
1070
     0
1070
   272
1070
     2
1070
    77
1070
     3
1070
   173
1070
     1
1070
   147
1040
2.0
1070
    42
1040
6.0
1070
    44
1040
3.0
1070
    43
1040
14.0
1070
   271
1070
     0
1070
   178
1070
     4
1070
   177
1070
     4
1070
   176
1070
     4
1070
   141
1040
150.0
1070
     7
1000
_OPEN
1070
     6
1000
_OPEN
1070
    41
1040
7.0
1002
}
  0
DIMENSION
  5
752
330
1A
100
AcDbEntity
  8
SUNPOU
100
AcDbDimension
  2
*D7
 10
436.1806283741949
 20
293.1104058018803
 30
0.0
 11
432.826511472045
 21
310.9989294936698
 31
0.0
 70
    33
  3
STANDARD
100
AcDbAlignedDimension
 13
407.3780197016195
 23
317.8402304623172
 33
0.0
 14
423.0305197016196
 24
286.5353304623172
 34
0.0
1001
ACAD
1000
DSTYLE
1002
{
1070
   140
1040
6.0
1070
    74
1070
     0
1070
   172
1070
     1
1070
    73
1070
     0
1070
   272
1070
     2
1070
    77
1070
     3
1070
   173
1070
     1
1070
   147
1040
2.0
1070
    42
1040
6.0
1070
    44
1040
3.0
1070
    43
1040
14.0
1070
   271
1070
     0
1070
   178
1070
     4
1070
   177
1070
     4
1070
   176
1070
     4
1070
   141
1040
150.0
1070
     7
1000
_OPEN
1070
     6
1000
_OPEN
1070
    41
1040
7.0
1002
}
  0
DIMENSION
  5
75F
330
1A
100
AcDbEntity
  8
SUNPOU
100
AcDbDimension
  2
*D8
 10
463.2359477817417
 20
306.6379962713183
 30
0.0
 11
456.527767268374
 21
331.2347508339096
 31
0.0
 70
    33
  3
STANDARD
100
AcDbAlignedDimension
 13
400.6698024729816
 23
331.2566722162208
 33
0.0
 14
423.0304397015811
 24
286.535290462298
 34
0.0
1001
ACAD
1000
DSTYLE
1002
{
1070
   140
1040
6.0
1070
    74
1070
     0
1070
   172
1070
     1
1070
    73
1070
     0
1070
   272
1070
     2
1070
    77
1070
     3
1070
   173
1070
     1
1070
   147
1040
2.0
1070
    42
1040
6.0
1070
    44
1040
3.0
1070
    43
1040
14.0
1070
   271
1070
     0
1070
   178
1070
     4
1070
   177
1070
     4
1070
   176
1070
     4
1070
   141
1040
150.0
1070
     7
1000
_OPEN
1070
     6
1000
_OPEN
1070
    41
1040
7.0
1002
}
  0
DIMENSION
  5
770
330
1A
100
AcDbEntity
  8
SUNPOU
100
AcDbDimension
  2
*D9
 10
400.6698024729816
 20
360.1456960367186
 30
0.0
 11
371.1699570138668
 21
365.1456960367186
 31
0.0
 70
    32
  3
STANDARD
100
AcDbAlignedDimension
 13
390.6699570138668
 23
307.9693932744539
 33
0.0
 14
400.6698024729816
 24
331.2566722162208
 34
0.0
100
AcDbRotatedDimension
1001
ACAD
1000
DSTYLE
1002
{
1070
   140
1040
6.0
1070
    74
1070
     0
1070
   172
1070
     1
1070
    73
1070
     0
1070
   272
1070
     2
1070
    77
1070
     3
1070
   173
1070
     1
1070
   280
1070
     1
1070
   147
1040
2.0
1070
    42
1040
6.0
1070
    44
1040
3.0
1070
    43
1040
14.0
1070
   271
1070
     0
1070
   178
1070
     4
1070
   177
1070
     4
1070
   176
1070
     4
1070
   141
1040
150.0
1070
     7
1000
_OPEN
1070
     6
1000
_OPEN
1070
    41
1040
7.0
1002
}
  0
DIMENSION
  5
77D
330
1A
100
AcDbEntity
  8
SUNPOU
100
AcDbDimension
  2
*D10
 10
290.6698197016194
 20
373.5407217266599
 30
0.0
 11
345.6698110873005
 21
378.5407217266599
 31
0.0
 70
    32
  3
STANDARD
100
AcDbAlignedDimension
 13
400.6698024729815
 23
331.2566722162208
 33
0.0
 14
290.6698197016194
 24
300.0450304623171
 34
0.0
100
AcDbRotatedDimension
1001
ACAD
1000
DSTYLE
1002
{
1070
   140
1040
6.0
1070
    74
1070
     0
1070
   172
1070
     1
1070
    73
1070
     0
1070
   272
1070
     2
1070
    77
1070
     3
1070
   173
1070
     1
1070
   147
1040
2.0
1070
    42
1040
6.0
1070
    44
1040
3.0
1070
    43
1040
14.0
1070
   271
1070
     0
1070
   178
1070
     4
1070
   177
1070
     4
1070
   176
1070
     4
1070
   141
1040
150.0
1070
     7
1000
_OPEN
1070
     6
1000
_OPEN
1070
    41
1040
7.0
1002
}
  0
DIMENSION
  5
78A
330
1A
100
AcDbEntity
  8
SUNPOU
100
AcDbDimension
  2
*D11
 10
400.6698024729816
 20
386.5856433545871
 30
0.0
 11
337.1210005057931
 21
391.585643354587
 31
0.0
 70
    32
  3
STANDARD
100
AcDbAlignedDimension
 13
273.5721985386047
 23
299.1450426038855
 33
0.0
 14
400.6698024729816
 24
331.2566722162208
 34
0.0
100
AcDbRotatedDimension
1001
ACAD
1000
DSTYLE
1002
{
1070
   140
1040
6.0
1070
    74
1070
     0
1070
   172
1070
     1
1070
    73
1070
     0
1070
   272
1070
     2
1070
    77
1070
     3
1070
   173
1070
     1
1070
   147
1040
2.0
1070
    42
1040
6.0
1070
    44
1040
3.0
1070
    43
1040
14.0
1070
   271
1070
     0
1070
   178
1070
     4
1070
   177
1070
     4
1070
   176
1070
     4
1070
   141
1040
150.0
1070
     7
1000
_OPEN
1070
     6
1000
_OPEN
1070
    41
1040
7.0
1002
}
  0
DIMENSION
  5
797
330
1A
100
AcDbEntity
  8
SUNPOU
100
AcDbDimension
  2
*D12
 10
454.4443662545604
 20
434.4192343477621
 30
0.0
 11
449.4443662545603
 21
457.9192343477621
 31
0.0
 70
    32
  3
STANDARD
100
AcDbAlignedDimension
 13
424.3111197016195
 23
481.4192343477619
 33
0.0
 14
424.3111197016195
 24
434.4192343477621
 34
0.0
 50
90.0
100
AcDbRotatedDimension
1001
ACAD
1000
DSTYLE
1002
{
1070
   140
1040
6.0
1070
    74
1070
     0
1070
   172
1070
     1
1070
    73
1070
     0
1070
   272
1070
     2
1070
    77
1070
     3
1070
   173
1070
     1
1070
   147
1040
2.0
1070
    42
1040
6.0
1070
    44
1040
3.0
1070
    43
1040
14.0
1070
   271
1070
     0
1070
   178
1070
     4
1070
   177
1070
     4
1070
   176
1070
     4
1070
   141
1040
150.0
1070
     7
1000
_OPEN
1070
     6
1000
_OPEN
1070
    41
1040
7.0
1002
}
  0
DIMENSION
  5
7A6
330
1A
100
AcDbEntity
  8
SUNPOU
100
AcDbDimension
  2
*D13
 10
438.9349012986751
 20
254.7334785946401
 30
0.0
 11
463.4900241017834
 21
267.0137854258412
 31
0.0
 70
   161
  1
t<>
  3
STANDARD
100
AcDbAlignedDimension
 13
422.1360197016192
 23
286.0880304623171
 33
0.0
 14
423.0304197016194
 24
286.535330462317
 34
0.0
1001
ACAD
1000
DSTYLE
1002
{
1070
   140
1040
6.0
1070
    74
1070
     0
1070
   172
1070
     1
1070
    73
1070
     0
1070
   272
1070
     2
1070
    77
1070
     3
1070
   173
1070
     1
1070
   147
1040
2.0
1070
    42
1040
6.0
1070
    44
1040
3.0
1070
    43
1040
14.0
1070
   271
1070
     1
1070
   178
1070
     4
1070
   177
1070
     4
1070
   176
1070
     4
1070
   141
1040
150.0
1070
     7
1000
_OPEN
1070
     6
1000
_OPEN
1070
    41
1040
7.0
1002
}
  0
LEADER
  5
7DB
330
1A
100
AcDbEntity
  8
SUNPOU
 62
     4
100
AcDbLeader
  3
STANDARD
 40
6.0
 41
31.19999999999999
 76
     3
 10
561.3568130450008
 20
388.5503377708424
 30
0.0
 10
535.8662967344294
 20
407.8083693170485
 30
0.0
 10
533.4220775837466
 20
407.8083693170485
 30
0.0
1001
ACAD
1000
DSTYLE
1002
{
1070
     6
1000
OPEN
1070
    41
1040
7.0
1070
    42
1040
6.0
1070
    43
1040
14.0
1070
    44
1040
3.0
1070
    73
1070
     0
1070
    74
1070
     0
1070
    77
1070
     3
1070
   140
1040
6.0
1070
   141
1040
150.0
1070
   147
1040
2.0
1070
   172
1070
     1
1070
   173
1070
     1
1070
   176
1070
     4
1070
   177
1070
     4
1070
   178
1070
     4
1070
   271
1070
     1
1070
   272
1070
     2
1070
   341
1005
6D
1070
   343
1005
6D
1070
   344
1005
6D
1002
}
  0
MTEXT
  5
7DC
330
1A
100
AcDbEntity
  8
SUNPOU
 62
     4
100
AcDbMText
 10
531.4220775837465
 20
409.8083693170485
 30
0.0
 40
6.0
 41
0.0
 71
     9
 72
     5
  1
4-φ4.2
1001
ACAD
1000
MTEXTBEGIN
1070
    73
1070
     1
1070
    44
1040
1.0
1070
    74
1070
     0
1000
MTEXTEND
1000
MTEXTBEGIN
1070
    73
1070
     1
1070
    44
1040
1.0
1070
    74
1070
     0
1000
MTEXTEND
1000
MTEXTBEGIN
1070
    73
1070
     1
1070
    44
1040
1.0
1070
    74
1070
     0
1000
MTEXTEND
  0
LEADER
  5
7DD
330
1A
100
AcDbEntity
  8
SUNPOU
 62
     4
100
AcDbLeader
  3
STANDARD
 74
     0
 40
6.0
 41
31.19999999999999
 76
     3
 10
568.0497740433252
 20
380.0739061966221
 30
0.0
 10
561.041730747012
 20
333.8152675819622
 30
0.0
 10
564.9524778516665
 20
333.8152675819622
 30
0.0
1001
ACAD
1000
DSTYLE
1002
{
1070
     6
1000
OPEN
1070
    41
1040
7.0
1070
    42
1040
6.0
1070
    43
1040
14.0
1070
    44
1040
3.0
1070
    73
1070
     0
1070
    74
1070
     0
1070
    77
1070
     3
1070
   140
1040
6.0
1070
   141
1040
150.0
1070
   147
1040
2.0
1070
   172
1070
     1
1070
   173
1070
     1
1070
   176
1070
     4
1070
   177
1070
     4
1070
   178
1070
     4
1070
   271
1070
     1
1070
   272
1070
     2
1070
   341
1005
6D
1070
   343
1005
6D
1070
   344
1005
6D
1002
}
  0
MTEXT
  5
7DE
330
1A
100
AcDbEntity
  8
SUNPOU
 62
     4
100
AcDbMText
 10
566.9524778516666
 20
335.8152675819622
 30
0.0
 40
6.0
 41
0.0
 71
     7
 72
     5
  1
2-φ6.5
1001
ACAD
1000
MTEXTBEGIN
1070
    73
1070
     1
1070
    44
1040
1.0
1070
    74
1070
     0
1000
MTEXTEND
1000
MTEXTBEGIN
1070
    73
1070
     1
1070
    44
1040
1.0
1070
    74
1070
     0
1000
MTEXTEND
1000
MTEXTBEGIN
1070
    73
1070
     1
1070
    44
1040
1.0
1070
    74
1070
     0
1000
MTEXTEND
  0
ELLIPSE
  5
7EA
330
1A
100
AcDbEntity
  8
SEIHIN
 62
     3
100
AcDbEllipse
 10
331.3966197016195
 20
457.9192343477618
 30
0.0
 11
-0.0000000000000568
 21
3.999905765972868
 31
0.0
210
0.0
220
0.0
230
1.0
 40
0.8287195234888438
 41
0.0000000000000171
 42
3.141592653589858
  0
LINE
  5
7EF
330
1A
100
AcDbEntity
  8
SEIHIN
100
AcDbLine
 10
403.7382197016193
 20
467.2311343477621
 30
0.0
 11
403.7382197016193
 21
466.8693343477621
 31
0.0
  0
LINE
  5
7F0
330
1A
100
AcDbEntity
  8
SEIHIN
100
AcDbLine
 10
403.7382197016193
 20
448.969234347762
 30
0.0
 11
403.7382197016193
 21
448.6192343477618
 31
0.0
  0
LINE
  5
7F1
330
1A
100
AcDbEntity
  8
SEIHIN
100
AcDbLine
 10
404.6325197016193
 20
467.2192343477618
 30
0.0
 11
404.6325197016193
 21
466.869334347762
 31
0.0
  0
LINE
  5
7F2
330
1A
100
AcDbEntity
  8
SEIHIN
100
AcDbLine
 10
404.6325197016193
 20
448.969234347762
 30
0.0
 11
404.6325197016193
 21
448.6192343477618
 31
0.0
  0
DIMENSION
  5
802
330
1A
100
AcDbEntity
  8
SUNPOU
100
AcDbDimension
  2
*D14
 10
249.190458377916
 20
464.2193343477619
 30
0.0
 11
244.1904583779159
 21
457.919334347762
 31
0.0
 70
    32
  3
STANDARD
100
AcDbAlignedDimension
 13
273.5722197016194
 23
451.619334347762
 33
0.0
 14
273.5722197016194
 24
464.2193343477619
 34
0.0
 50
90.0
100
AcDbRotatedDimension
1001
ACAD
1000
DSTYLE
1002
{
1070
   140
1040
6.0
1070
    74
1070
     0
1070
   172
1070
     1
1070
    73
1070
     0
1070
   272
1070
     2
1070
    77
1070
     3
1070
   173
1070
     1
1070
   147
1040
2.0
1070
    42
1040
6.0
1070
    44
1040
3.0
1070
    43
1040
14.0
1070
   271
1070
     0
1070
   178
1070
     4
1070
   177
1070
     4
1070
   176
1070
     4
1070
   141
1040
150.0
1070
     7
1000
_OPEN
1070
     6
1000
_OPEN
1070
    41
1040
7.0
1002
}
  0
DIMENSION
  5
80F
330
1A
100
AcDbEntity
  8
SUNPOU
100
AcDbDimension
  2
*D15
 10
400.6698024729816
 20
373.5407217266599
 30
0.0
 11
418.1698054848451
 21
378.5407217266599
 31
0.0
 70
    32
  3
STANDARD
100
AcDbAlignedDimension
 13
435.6698084967086
 23
331.2566601687378
 33
0.0
 14
400.6698024729816
 24
331.2566722162208
 34
0.0
100
AcDbRotatedDimension
1001
ACAD
1000
DSTYLE
1002
{
1070
   140
1040
6.0
1070
    74
1070
     0
1070
   172
1070
     1
1070
    73
1070
     0
1070
   272
1070
     2
1070
    77
1070
     3
1070
   173
1070
     1
1070
   147
1040
2.0
1070
    42
1040
6.0
1070
    44
1040
3.0
1070
    43
1040
14.0
1070
   271
1070
     0
1070
   178
1070
     4
1070
   177
1070
     4
1070
   176
1070
     4
1070
   141
1040
150.0
1070
     7
1000
_OPEN
1070
     6
1000
_OPEN
1070
    41
1040
7.0
1002
}
  0
TEXT
  5
810
330
1A
100
AcDbEntity
  8
SUNPOU
100
AcDbText
 10
429.4031956324379
 20
381.8739729212813
 30
0.0
 40
6.0
  1
スライド巾
100
AcDbText
  0
TEXT
  5
813
330
1A
100
AcDbEntity
  8
SUNPOU
 62
     4
100
AcDbText
 10
297.4637165292301
 20
83.94024608147379
 30
0.0
 40
8.0
  1
軒樋の差し替え
100
AcDbText
  0
DIMENSION
  5
822
330
1A
100
AcDbEntity
  8
SUNPOU
100
AcDbDimension
  2
*D16
 10
248.6071250445827
 20
286.5353304623172
 30
0.0
 11
243.6071250445826
 21
295.1901804623172
 31
0.0
 70
    32
  3
STANDARD
100
AcDbAlignedDimension
 13
274.9222197016195
 23
303.8450304623172
 33
0.0
 14
423.0305197016195
 24
286.5353304623171
 34
0.0
 50
90.0
100
AcDbRotatedDimension
1001
ACAD
1000
DSTYLE
1002
{
1070
   140
1040
6.0
1070
    74
1070
     0
1070
   172
1070
     1
1070
    73
1070
     0
1070
   272
1070
     2
1070
    77
1070
     3
1070
   173
1070
     1
1070
   147
1040
2.0
1070
    42
1040
6.0
1070
    44
1040
3.0
1070
    43
1040
14.0
1070
   271
1070
     0
1070
   178
1070
     4
1070
   177
1070
     4
1070
   176
1070
     4
1070
   141
1040
150.0
1070
     7
1000
_OPEN
1070
     6
1000
_OPEN
1070
    41
1040
7.0
1002
}
  0
LINE
  5
82D
330
1A
100
AcDbEntity
  8
CENTER_L
  6
CENTER
 62
     1
 48
5.0
100
AcDbLine
 10
450.2834197016195
 20
313.9666304623172
 30
0.0
 11
437.7749197016194
 21
307.7124304623172
 31
0.0
  0
LINE
  5
82E
330
1A
100
AcDbEntity
  8
CENTER_L
  6
CENTER
 62
     1
 48
5.0
100
AcDbLine
 10
452.8695197016195
 20
308.5520304623173
 30
0.0
 11
440.4881197016195
 21
302.3613304623172
 31
0.0
  0
LINE
  5
82F
330
1A
100
AcDbEntity
  8
CENTER_L
  6
CENTER
 62
     1
 48
5.0
100
AcDbLine
 10
447.2718197016195
 20
288.9822304623172
 30
0.0
 11
459.3354197016195
 21
295.0139304623172
 31
0.0
  0
LINE
  5
830
330
1A
100
AcDbEntity
  8
CENTER_L
  6
CENTER
 62
     1
 48
5.0
100
AcDbLine
 10
450.2834197016195
 20
172.75272412623
 30
0.0
 11
437.7749197016194
 21
166.4985241262301
 31
0.0
  0
LINE
  5
831
330
1A
100
AcDbEntity
  8
CENTER_L
  6
CENTER
 62
     1
 48
5.0
100
AcDbLine
 10
452.8695197016195
 20
167.3381241262301
 30
0.0
 11
440.4881197016195
 21
161.14742412623
 31
0.0
  0
LINE
  5
832
330
1A
100
AcDbEntity
  8
CENTER_L
  6
CENTER
 62
     1
 48
5.0
100
AcDbLine
 10
447.2718197016195
 20
147.76832412623
 30
0.0
 11
459.3354197016195
 21
153.8000241262301
 31
0.0
  0
LINE
  5
A46
330
1A
100
AcDbEntity
  8
ZUWAKU
100
AcDbLine
 10
208.6466004668659
 20
15.19999936995179
 30
0.0
 11
447.4243631477893
 21
15.19999936995178
 31
0.0
  0
LINE
  5
A47
330
1A
100
AcDbEntity
  8
ZUWAKU
100
AcDbLine
 10
208.6466004668659
 20
15.59999936995178
 30
0.0
 11
447.4243631477893
 21
15.59999936995179
 31
0.0
  0
LINE
  5
A48
330
1A
100
AcDbEntity
  8
ZUWAKU
100
AcDbLine
 10
208.6466004668659
 20
15.39999936995178
 30
0.0
 11
447.4243631477893
 21
15.39999936995178
 31
0.0
  0
LINE
  5
A49
330
1A
100
AcDbEntity
  8
ZUWAKU
100
AcDbLine
 10
-0.0000008232020718
 20
30.79999936995176
 30
0.0
 11
797.3999991767978
 21
30.79999936995176
 31
0.0
  0
LINE
  5
A4A
330
1A
100
AcDbEntity
  8
ZUWAKU
100
AcDbLine
 10
-0.0000008232020718
 20
30.59999936995176
 30
0.0
 11
797.3999991767978
 21
30.59999936995176
 31
0.0
  0
LINE
  5
A4B
330
1A
100
AcDbEntity
  8
ZUWAKU
100
AcDbLine
 10
-0.0000008232020718
 20
30.39999936995176
 30
0.0
 11
797.3999991767978
 21
30.39999936995176
 31
0.0
  0
LINE
  5
A4C
330
1A
100
AcDbEntity
  8
ZUWAKU
100
AcDbLine
 10
-0.0000008232020718
 20
30.19999936995175
 30
0.0
 11
797.3999991767978
 21
30.19999936995175
 31
0.0
  0
LINE
  5
A4D
330
1A
100
AcDbEntity
  8
ZUWAKU
100
AcDbLine
 10
-0.0000008232020718
 20
29.99999936995175
 30
0.0
 11
797.3999991767978
 21
29.99999936995175
 31
0.0
  0
LWPOLYLINE
  5
A4E
330
1A
100
AcDbEntity
  8
ZUWAKU
100
AcDbPolyline
 90
        4
 70
     1
 43
0.0
 10
0.1999991767978599
 20
551.3999993699518
 10
0.1999991767978599
 20
0.1999993699517972
 10
797.3999991767978
 20
0.1999993699518203
 10
797.399999176798
 20
551.3999993699518
  0
LWPOLYLINE
  5
A4F
330
1A
100
AcDbEntity
  8
ZUWAKU
100
AcDbPolyline
 90
        4
 70
     1
 43
0.0
 10
0.5999991767978372
 20
550.9999993699518
 10
0.5999991767978372
 20
0.5999993699517745
 10
796.9999991767982
 20
0.5999993699518207
 10
796.9999991767979
 20
550.9999993699518
  0
LWPOLYLINE
  5
A50
330
1A
100
AcDbEntity
  8
ZUWAKU
100
AcDbPolyline
 90
        4
 70
     1
 43
0.0
 10
-0.0000008232020718
 20
551.5999993699518
 10
-0.0000008232020718
 20
-0.0000006300482482
 10
797.599999176798
 20
-0.0000006300481807
 10
797.599999176798
 20
551.5999993699518
  0
LWPOLYLINE
  5
A51
330
1A
100
AcDbEntity
  8
ZUWAKU
100
AcDbPolyline
 90
        4
 70
     1
 43
0.0
 10
0.3999991767979054
 20
551.1999993699517
 10
0.3999991767979054
 20
0.3999993699518427
 10
797.199999176798
 20
0.3999993699518196
 10
797.199999176798
 20
551.1999993699517
  0
LWPOLYLINE
  5
A52
330
1A
100
AcDbEntity
  8
ZUWAKU
100
AcDbPolyline
 90
        4
 70
     1
 43
0.0
 10
0.7999991767978827
 20
550.7999993699518
 10
0.7999991767978827
 20
0.79999936995182
 10
796.7999991767978
 20
0.79999936995182
 10
796.7999991767978
 20
550.7999993699518
  0
TEXT
  5
A53
330
1A
100
AcDbEntity
  8
MOJI
100
AcDbText
 10
92.95778876496706
 20
12.74117750022651
 30
0.0
 40
6.0
  1
新・丸トップＲＶ１０５
 41
0.9
  7
ｽﾀｲﾙ1
100
AcDbText
  0
HATCH
  5
A54
330
1A
100
AcDbEntity
  8
ZUWAKU
100
AcDbHatch
 10
0.0
 20
0.0
 30
0.0
210
0.0
220
0.0
230
1.0
  2
ANSI37
 70
     0
 71
     0
 91
        8
 92
        7
 72
     1
 73
     1
 93
       24
 10
14.50226183791778
 20
17.64484785093533
 42
-0.1989123673796348
 10
14.09221133157905
 20
18.63479734459638
 42
0.0
 10
14.09221133157905
 20
19.92499936995176
 42
-0.4142135623730912
 10
14.61721133157903
 20
20.44999936995175
 42
0.0
 10
17.59221133157893
 20
20.44999936995175
 42
0.4142135623731546
 10
18.11721133157902
 20
20.97499936995174
 42
0.0
 10
18.11721133157902
 20
22.72499936995175
 42
0.4142135623731586
 10
17.59221133157893
 20
23.24999936995176
 42
0.0
 10
14.09221133157905
 20
23.24999936995176
 42
0.4142135623730928
 10
11.29221133157909
 20
20.44999936995178
 42
0.0
 10
11.29221133157909
 20
18.63479734459651
 42
0.1989123673796619
 10
12.52236285059552
 20
15.6649488636129
 42
0.0
 10
15.4321608252402
 20
12.75515088896824
 42
-0.1989123673796613
 10
15.84221133157905
 20
11.76520139530706
 42
0.0
 10
15.84221133157905
 20
10.47499936995174
 42
-0.4142135623730911
 10
15.31721133157907
 20
9.949999369951754
 42
0.0
 10
12.34221133157916
 20
9.949999369951754
 42
0.4142135623731526
 10
11.81721133157907
 20
9.424999369951766
 42
0.0
 10
11.81721133157907
 20
7.674999369951745
 42
0.4142135623731526
 10
12.34221133157916
 20
7.149999369951757
 42
0.0
 10
15.84221133157905
 20
7.149999369951757
 42
0.4142135623731044
 10
18.64221133157911
 20
9.949999369951733
 42
0.0
 10
18.64221133157911
 20
11.765201395307
 42
0.1989123673796604
 10
17.41205981256257
 20
14.73504987629054
 42
0.0
 97
        0
 92
        7
 72
     1
 73
     1
 93
       16
 10
23.54221133157909
 20
19.04999936995176
 42
-0.4142135623730935
 10
24.94221133157907
 20
20.44999936995175
 42
0.0
 10
26.86721133157902
 20
20.44999936995175
 42
0.4142135623731546
 10
27.39221133157911
 20
20.97499936995174
 42
0.0
 10
27.39221133157911
 20
22.72499936995175
 42
0.4142135623730951
 10
26.86721133157914
 20
23.24999936995176
 42
0.0
 10
24.94221133157896
 20
23.24999936995171
 42
0.4142135623730892
 10
20.74221133157903
 20
19.04999936995169
 42
0.0
 10
20.74221133157903
 20
11.34999936995178
 42
0.4142135623730969
 10
24.94221133157907
 20
7.149999369951757
 42
0.0
 10
26.86721133157902
 20
7.149999369951757
 42
0.4142135623731526
 10
27.39221133157911
 20
7.674999369951745
 42
0.0
 10
27.39221133157911
 20
9.424999369951766
 42
0.4142135623730891
 10
26.86721133157914
 20
9.949999369951754
 42
0.0
 10
24.94221133157907
 20
9.949999369951754
 42
-0.4142135623730928
 10
23.54221133157909
 20
11.34999936995174
 42
0.0
 97
        0
 92
        7
 72
     1
 73
     1
 93
        2
 10
24.24221133157903
 20
15.19999936995175
 42
1.0
 10
27.74221133157903
 20
15.19999936995175
 42
1.0
 97
        0
 92
        7
 72
     1
 73
     1
 93
       26
 10
37.31485781375704
 20
19.20504656351518
 42
0.0
 10
38.37649744689485
 20
22.56690540178477
 42
0.5069206636600134
 10
37.8758665476995
 20
23.24999936995176
 42
0.0
 10
36.17697716809027
 20
23.24999936995176
 42
0.3272098845218764
 10
35.67634626889491
 20
22.88309333811872
 42
0.0
 10
33.80807639426314
 20
16.96690540178483
 42
-0.3272098845219541
 10
33.30744549506766
 20
16.59999936995175
 42
0.0
 10
33.16721133157921
 20
16.59999936995175
 42
-0.4142135623731526
 10
32.64221133157912
 20
17.12499936995174
 42
0.0
 10
32.64221133157912
 20
22.72499936995175
 42
0.4142135623730951
 10
32.11721133157914
 20
23.24999936995176
 42
0.0
 10
30.36721133157902
 20
23.24999936995176
 42
0.4142135623730871
 10
29.84221133157905
 20
22.72499936995177
 42
0.0
 10
29.84221133157905
 20
7.674999369951745
 42
0.4142135623730891
 10
30.36721133157902
 20
7.149999369951757
 42
0.0
 10
32.11721133157903
 20
7.149999369951757
 42
0.4142135623731526
 10
32.64221133157912
 20
7.674999369951745
 42
0.0
 10
32.64221133157912
 20
13.27499936995176
 42
-0.4142135623731526
 10
33.16721133157921
 20
13.79999936995175
 42
0.0
 10
33.30744549506778
 20
13.79999936995175
 42
-0.3272098845218915
 10
33.80807639426314
 20
13.43309333811868
 42
0.0
 10
35.67634626889491
 20
7.516905401784828
 42
0.3272098845218902
 10
36.17697716809027
 20
7.149999369951757
 42
0.0
 10
37.8758665476995
 20
7.149999369951757
 42
0.5069206636600335
 10
38.37649744689485
 20
7.833093338118764
 42
0.0
 10
36.0501060684212
 20
15.19999936995189
 42
0.0
 97
        0
 92
        7
 72
     1
 73
     1
 93
        8
 10
43.49221133157903
 20
22.72499936995176
 42
0.4142135623731546
 10
42.96721133157894
 20
23.24999936995176
 42
0.0
 10
41.21721133157916
 20
23.24999936995176
 42
0.4142135623731507
 10
40.69221133157907
 20
22.72499936995177
 42
0.0
 10
40.69221133157907
 20
7.674999369951745
 42
0.4142135623731526
 10
41.21721133157916
 20
7.149999369951757
 42
0.0
 10
42.96721133157894
 20
7.149999369951757
 42
0.4142135623731526
 10
43.49221133157903
 20
7.674999369951745
 42
0.0
 97
        0
 92
        7
 72
     1
 73
     1
 93
       24
 10
48.39221133157912
 20
19.92499936995176
 42
-0.4142135623731546
 10
48.91721133157921
 20
20.44999936995175
 42
0.0
 10
51.89221133157912
 20
20.44999936995175
 42
0.4142135623730911
 10
52.41721133157909
 20
20.97499936995174
 42
0.0
 10
52.41721133157909
 20
22.72499936995175
 42
0.4142135623730952
 10
51.89221133157912
 20
23.24999936995176
 42
0.0
 10
48.39221133157912
 20
23.24999936995176
 42
0.4142135623731048
 10
45.59221133157905
 20
20.44999936995178
 42
0.0
 10
45.59221133157905
 20
18.63479734459651
 42
0.1989123673796613
 10
46.82236285059559
 20
15.66494886361296
 42
0.0
 10
49.73216082524027
 20
12.75515088896829
 42
-0.1989123673796402
 10
50.14221133157912
 20
11.76520139530722
 42
0.0
 10
50.14221133157912
 20
10.47499936995174
 42
-0.4142135623730911
 10
49.61721133157914
 20
9.949999369951754
 42
0.0
 10
46.64221133157911
 20
9.949999369951754
 42
0.4142135623731526
 10
46.11721133157902
 20
9.424999369951766
 42
0.0
 10
46.11721133157902
 20
7.674999369951745
 42
0.4142135623730891
 10
46.64221133157901
 20
7.149999369951757
 42
0.0
 10
50.14221133157912
 20
7.149999369951757
 42
0.4142135623730925
 10
52.94221133157908
 20
9.949999369951733
 42
0.0
 10
52.94221133157908
 20
11.765201395307
 42
0.1989123673796675
 10
51.71205981256253
 20
14.73504987629065
 42
0.0
 10
48.80226183791797
 20
17.64484785093517
 42
-0.1989123673796652
 10
48.39221133157912
 20
18.63479734459634
 42
0.0
 97
        0
 92
        7
 72
     1
 73
     1
 93
       16
 10
57.84221133157905
 20
22.72499936995174
 42
0.414213562373103
 10
57.31721133157908
 20
23.24999936995176
 42
0.0
 10
55.56721133157907
 20
23.24999936995176
 42
0.4142135623730871
 10
55.04221133157909
 20
22.72499936995177
 42
0.0
 10
55.04221133157909
 20
9.949999369951733
 42
0.4142135623730926
 10
57.84221133157905
 20
7.149999369951757
 42
0.0
 10
61.34221133157905
 20
7.149999369951757
 42
0.4142135623731044
 10
64.14221133157912
 20
9.949999369951733
 42
0.0
 10
64.14221133157912
 20
22.72499936995175
 42
0.4142135623730951
 10
63.61721133157914
 20
23.24999936995176
 42
0.0
 10
61.86721133157902
 20
23.24999936995176
 42
0.4142135623730871
 10
61.34221133157905
 20
22.72499936995177
 42
0.0
 10
61.34221133157905
 20
10.99999936995173
 42
-0.414213562373088
 10
60.2922113315791
 20
9.949999369951754
 42
0.0
 10
58.89221133157912
 20
9.949999369951754
 42
-0.4142135623731197
 10
57.84221133157905
 20
10.99999936995173
 42
0.0
 97
        0
 92
        7
 72
     1
 73
     1
 93
        8
 10
69.0422113315791
 20
22.72499936995177
 42
0.4142135623730871
 10
68.51721133157912
 20
23.24999936995176
 42
0.0
 10
66.76721133157911
 20
23.24999936995176
 42
0.4142135623731507
 10
66.24221133157902
 20
22.72499936995177
 42
0.0
 10
66.24221133157902
 20
7.674999369951745
 42
0.4142135623730891
 10
66.76721133157901
 20
7.149999369951757
 42
0.0
 10
68.51721133157912
 20
7.149999369951757
 42
0.4142135623730891
 10
69.0422113315791
 20
7.674999369951745
 42
0.0
 97
        0
 75
     0
 76
     1
 52
0.0
 41
0.2
 77
     0
 78
     2
 53
45.0
 43
-900.942305157881
 44
-13.20000063004818
 45
-0.4490128060534576
 46
0.4490128060534577
 79
     0
 53
135.0
 43
-900.942305157881
 44
-13.20000063004818
 45
-0.4490128060534577
 46
-0.4490128060534576
 79
     0
 47
0.057451373970553
 98
        8
 10
16.07985413982123
 20
15.1671730158373
 10
22.40451418323709
 20
18.84406155240276
 10
25.16436706245758
 20
15.51188101602247
 10
30.91405915843506
 20
16.20129701639325
 10
41.83847119575466
 20
16.66090928393487
 10
46.89820007192747
 20
19.41857568635896
 10
56.55768514919827
 20
18.72915728504676
 10
67.82707879642067
 20
19.18876955258838
  0
LINE
  5
A55
330
1A
100
AcDbEntity
  8
ZUWAKU
100
AcDbLine
 10
24.94221133157907
 20
23.24999936995171
 30
0.0
 11
26.86721133157902
 21
23.24999936995176
 31
0.0
  0
LINE
  5
A56
330
1A
100
AcDbEntity
  8
ZUWAKU
100
AcDbLine
 10
26.86721133157902
 20
20.44999936995175
 30
0.0
 11
24.94221133157907
 21
20.44999936995175
 31
0.0
  0
LINE
  5
A57
330
1A
100
AcDbEntity
  8
ZUWAKU
100
AcDbLine
 10
24.94221133157907
 20
9.949999369951754
 30
0.0
 11
26.86721133157902
 21
9.949999369951754
 31
0.0
  0
LINE
  5
A58
330
1A
100
AcDbEntity
  8
ZUWAKU
100
AcDbLine
 10
26.86721133157902
 20
7.149999369951757
 30
0.0
 11
24.94221133157907
 21
7.149999369951757
 31
0.0
  0
CIRCLE
  5
A59
330
1A
100
AcDbEntity
  8
ZUWAKU
100
AcDbCircle
 10
25.99221133157902
 20
15.19999936995175
 30
0.0
 40
1.75
  0
ARC
  5
A5A
330
1A
100
AcDbEntity
  8
ZUWAKU
100
AcDbCircle
 10
15.49221133157902
 20
18.63479734459645
 30
0.0
 40
1.399999999999999
100
AcDbArc
 50
180.0000000000016
 51
224.9999999999988
  0
LINE
  5
A5B
330
1A
100
AcDbEntity
  8
ZUWAKU
100
AcDbLine
 10
23.54221133157909
 20
19.04999936995175
 30
0.0
 11
23.54221133157909
 21
11.34999936995175
 31
0.0
  0
LINE
  5
A5C
330
1A
100
AcDbEntity
  8
ZUWAKU
100
AcDbLine
 10
20.74221133157903
 20
11.34999936995175
 30
0.0
 11
20.74221133157903
 21
19.04999936995171
 31
0.0
  0
ARC
  5
A5D
330
1A
100
AcDbEntity
  8
ZUWAKU
100
AcDbCircle
 10
15.49221133157902
 20
18.63479734459645
 30
0.0
 40
4.199999999999999
100
AcDbArc
 50
180.0
 51
225.0
  0
ARC
  5
A5E
330
1A
100
AcDbEntity
  8
ZUWAKU
100
AcDbCircle
 10
15.84221133157905
 20
9.949999369951754
 30
0.0
 40
2.799999999999999
100
AcDbArc
 50
270.0
 51
0.0
  0
ARC
  5
A5F
330
1A
100
AcDbEntity
  8
ZUWAKU
100
AcDbCircle
 10
24.94221133157907
 20
11.34999936995175
 30
0.0
 40
4.199999999999999
100
AcDbArc
 50
180.0
 51
270.0
  0
ARC
  5
A60
330
1A
100
AcDbEntity
  8
ZUWAKU
100
AcDbCircle
 10
14.44221133157907
 20
11.76520139530705
 30
0.0
 40
4.199999999999999
100
AcDbArc
 50
0.0
 51
45.0
  0
LINE
  5
A61
330
1A
100
AcDbEntity
  8
ZUWAKU
100
AcDbLine
 10
17.41205981256257
 20
14.73504987629058
 30
0.0
 11
14.5022618379179
 21
17.64484785093525
 31
0.0
  0
LINE
  5
A62
330
1A
100
AcDbEntity
  8
ZUWAKU
100
AcDbLine
 10
15.84221133157905
 20
10.47499936995176
 30
0.0
 11
15.84221133157905
 21
11.7652013953071
 31
0.0
  0
ARC
  5
A63
330
1A
100
AcDbEntity
  8
ZUWAKU
100
AcDbCircle
 10
15.31721133157907
 20
10.47499936995176
 30
0.0
 40
0.525
100
AcDbArc
 50
270.0
 51
0.0
  0
ARC
  5
A64
330
1A
100
AcDbEntity
  8
ZUWAKU
100
AcDbCircle
 10
14.44221133157907
 20
11.7652013953071
 30
0.0
 40
1.399999999999999
100
AcDbArc
 50
0.0
 51
45.0
  0
LINE
  5
A65
330
1A
100
AcDbEntity
  8
ZUWAKU
100
AcDbLine
 10
11.81721133157907
 20
7.674999369951756
 30
0.0
 11
11.81721133157907
 21
9.424999369951756
 31
0.0
  0
ARC
  5
A66
330
1A
100
AcDbEntity
  8
ZUWAKU
100
AcDbCircle
 10
12.34221133157905
 20
7.674999369951756
 30
0.0
 40
0.525
100
AcDbArc
 50
180.0
 51
270.0
  0
ARC
  5
A67
330
1A
100
AcDbEntity
  8
ZUWAKU
100
AcDbCircle
 10
12.34221133157905
 20
9.424999369951756
 30
0.0
 40
0.525
100
AcDbArc
 50
90.0
 51
180.0
  0
LINE
  5
A68
330
1A
100
AcDbEntity
  8
ZUWAKU
100
AcDbLine
 10
12.34221133157905
 20
7.149999369951757
 30
0.0
 11
15.84221133157905
 21
7.149999369951757
 31
0.0
  0
LINE
  5
A69
330
1A
100
AcDbEntity
  8
ZUWAKU
100
AcDbLine
 10
12.34221133157905
 20
9.949999369951754
 30
0.0
 11
15.31721133157907
 21
9.949999369951754
 31
0.0
  0
LINE
  5
A6A
330
1A
100
AcDbEntity
  8
ZUWAKU
100
AcDbLine
 10
12.52236285059552
 20
15.66494886361293
 30
0.0
 11
15.4321608252402
 21
12.75515088896827
 31
0.0
  0
LINE
  5
A6B
330
1A
100
AcDbEntity
  8
ZUWAKU
100
AcDbLine
 10
18.64221133157911
 20
9.949999369951754
 30
0.0
 11
18.64221133157911
 21
11.7652013953071
 31
0.0
  0
ARC
  5
A6C
330
1A
100
AcDbEntity
  8
ZUWAKU
100
AcDbCircle
 10
24.94221133157907
 20
11.34999936995175
 30
0.0
 40
1.399999999999999
100
AcDbArc
 50
180.0
 51
270.0
  0
ARC
  5
A6D
330
1A
100
AcDbEntity
  8
ZUWAKU
100
AcDbCircle
 10
17.59221133157905
 20
22.72499936995175
 30
0.0
 40
0.525
100
AcDbArc
 50
0.0
 51
90.0
  0
ARC
  5
A6E
330
1A
100
AcDbEntity
  8
ZUWAKU
100
AcDbCircle
 10
17.59221133157905
 20
20.97499936995175
 30
0.0
 40
0.525
100
AcDbArc
 50
270.0
 51
0.0
  0
LINE
  5
A6F
330
1A
100
AcDbEntity
  8
ZUWAKU
100
AcDbLine
 10
14.09221133157905
 20
23.24999936995176
 30
0.0
 11
17.59221133157905
 21
23.24999936995176
 31
0.0
  0
ARC
  5
A70
330
1A
100
AcDbEntity
  8
ZUWAKU
100
AcDbCircle
 10
14.61721133157903
 20
19.92499936995175
 30
0.0
 40
0.525
100
AcDbArc
 50
90.0
 51
180.0
  0
LINE
  5
A71
330
1A
100
AcDbEntity
  8
ZUWAKU
100
AcDbLine
 10
14.09221133157905
 20
19.92499936995175
 30
0.0
 11
14.09221133157905
 21
18.63479734459641
 31
0.0
  0
LINE
  5
A72
330
1A
100
AcDbEntity
  8
ZUWAKU
100
AcDbLine
 10
17.59221133157905
 20
20.44999936995175
 30
0.0
 11
14.61721133157903
 21
20.44999936995175
 31
0.0
  0
LINE
  5
A73
330
1A
100
AcDbEntity
  8
ZUWAKU
100
AcDbLine
 10
11.29221133157909
 20
20.44999936995175
 30
0.0
 11
11.29221133157909
 21
18.63479734459641
 31
0.0
  0
ARC
  5
A74
330
1A
100
AcDbEntity
  8
ZUWAKU
100
AcDbCircle
 10
14.09221133157905
 20
20.44999936995175
 30
0.0
 40
2.799999999999999
100
AcDbArc
 50
90.0
 51
180.0
  0
LINE
  5
A75
330
1A
100
AcDbEntity
  8
ZUWAKU
100
AcDbLine
 10
18.11721133157902
 20
22.72499936995175
 30
0.0
 11
18.11721133157902
 21
20.97499936995175
 31
0.0
  0
ARC
  5
A76
330
1A
100
AcDbEntity
  8
ZUWAKU
100
AcDbCircle
 10
24.94221133157907
 20
19.04999936995175
 30
0.0
 40
1.399999999999999
100
AcDbArc
 50
90.0
 51
180.0
  0
ARC
  5
A77
330
1A
100
AcDbEntity
  8
ZUWAKU
100
AcDbCircle
 10
24.94221133157907
 20
19.04999936995171
 30
0.0
 40
4.199999999999999
100
AcDbArc
 50
90.0
 51
180.0
  0
LINE
  5
A78
330
1A
100
AcDbEntity
  8
ZUWAKU
100
AcDbLine
 10
79.32662872478613
 20
29.99999936995175
 30
0.0
 11
79.32662872478636
 21
0.79999936995182
 31
0.0
  0
LINE
  5
A79
330
1A
100
AcDbEntity
  8
ZUWAKU
100
AcDbLine
 10
79.52662872478618
 20
29.99999936995175
 30
0.0
 11
79.5266287247864
 21
0.79999936995182
 31
0.0
  0
LINE
  5
A7A
330
1A
100
AcDbEntity
  8
ZUWAKU
100
AcDbLine
 10
79.12662872478631
 20
29.99999936995175
 30
0.0
 11
79.12662872478631
 21
0.79999936995182
 31
0.0
  0
LINE
  5
A7B
330
1A
100
AcDbEntity
  8
ZUWAKU
100
AcDbLine
 10
64.14221133157912
 20
9.949999369951754
 30
0.0
 11
64.14221133157912
 21
22.72499936995175
 31
0.0
  0
LINE
  5
A7C
330
1A
100
AcDbEntity
  8
ZUWAKU
100
AcDbLine
 10
61.34221133157905
 20
22.72499936995175
 30
0.0
 11
61.34221133157905
 21
10.99999936995175
 31
0.0
  0
LINE
  5
A7D
330
1A
100
AcDbEntity
  8
ZUWAKU
100
AcDbLine
 10
69.0422113315791
 20
7.674999369951756
 30
0.0
 11
69.0422113315791
 21
22.72499936995175
 31
0.0
  0
LINE
  5
A7E
330
1A
100
AcDbEntity
  8
ZUWAKU
100
AcDbLine
 10
66.24221133157902
 20
22.72499936995175
 30
0.0
 11
66.24221133157902
 21
7.674999369951756
 31
0.0
  0
ARC
  5
A7F
330
1A
100
AcDbEntity
  8
ZUWAKU
100
AcDbCircle
 10
49.7922113315791
 20
18.63479734459645
 30
0.0
 40
1.399999999999999
100
AcDbArc
 50
180.0000000000016
 51
224.9999999999988
  0
ARC
  5
A80
330
1A
100
AcDbEntity
  8
ZUWAKU
100
AcDbCircle
 10
49.7922113315791
 20
18.63479734459645
 30
0.0
 40
4.199999999999999
100
AcDbArc
 50
180.0
 51
225.0
  0
LINE
  5
A81
330
1A
100
AcDbEntity
  8
ZUWAKU
100
AcDbLine
 10
37.31485781375704
 20
19.20504656351518
 30
0.0
 11
36.0501060684212
 21
15.19999936995177
 31
0.0
  0
LINE
  5
A82
330
1A
100
AcDbEntity
  8
ZUWAKU
100
AcDbLine
 10
40.69221133157907
 20
22.72499936995175
 30
0.0
 11
40.69221133157907
 21
7.674999369951756
 31
0.0
  0
LINE
  5
A83
330
1A
100
AcDbEntity
  8
ZUWAKU
100
AcDbLine
 10
43.49221133157903
 20
7.674999369951756
 30
0.0
 11
43.49221133157903
 21
22.72499936995175
 31
0.0
  0
LINE
  5
A84
330
1A
100
AcDbEntity
  8
ZUWAKU
100
AcDbLine
 10
55.04221133157909
 20
22.72499936995175
 30
0.0
 11
55.04221133157909
 21
9.949999369951754
 31
0.0
  0
LINE
  5
A85
330
1A
100
AcDbEntity
  8
ZUWAKU
100
AcDbLine
 10
57.84221133157905
 20
10.99999936995175
 30
0.0
 11
57.84221133157905
 21
22.72499936995175
 31
0.0
  0
LINE
  5
A86
330
1A
100
AcDbEntity
  8
ZUWAKU
100
AcDbLine
 10
32.64221133157912
 20
17.12499936995175
 30
0.0
 11
32.64221133157912
 21
22.72499936995175
 31
0.0
  0
LINE
  5
A87
330
1A
100
AcDbEntity
  8
ZUWAKU
100
AcDbLine
 10
29.84221133157905
 20
22.72499936995175
 30
0.0
 11
29.84221133157905
 21
7.674999369951756
 31
0.0
  0
LINE
  5
A88
330
1A
100
AcDbEntity
  8
ZUWAKU
100
AcDbLine
 10
35.67634626889491
 20
22.88309333811872
 30
0.0
 11
33.80807639426314
 21
16.96690540178478
 31
0.0
  0
LINE
  5
A89
330
1A
100
AcDbEntity
  8
ZUWAKU
100
AcDbLine
 10
60.2922113315791
 20
9.949999369951754
 30
0.0
 11
58.89221133157912
 21
9.949999369951754
 31
0.0
  0
LINE
  5
A8A
330
1A
100
AcDbEntity
  8
ZUWAKU
100
AcDbLine
 10
57.84221133157905
 20
7.149999369951757
 30
0.0
 11
61.34221133157905
 21
7.149999369951757
 31
0.0
  0
LINE
  5
A8B
330
1A
100
AcDbEntity
  8
ZUWAKU
100
AcDbLine
 10
41.21721133157905
 20
7.149999369951757
 30
0.0
 11
42.96721133157904
 21
7.149999369951757
 31
0.0
  0
LINE
  5
A8C
330
1A
100
AcDbEntity
  8
ZUWAKU
100
AcDbLine
 10
35.67634626889491
 20
7.516905401784782
 30
0.0
 11
33.80807639426314
 21
13.43309333811872
 31
0.0
  0
ARC
  5
A8D
330
1A
100
AcDbEntity
  8
ZUWAKU
100
AcDbCircle
 10
33.30744549506778
 20
17.12499936995175
 30
0.0
 40
0.525
100
AcDbArc
 50
270.0
 51
342.4744316262769
  0
LINE
  5
A8E
330
1A
100
AcDbEntity
  8
ZUWAKU
100
AcDbLine
 10
33.30744549506778
 20
16.59999936995175
 30
0.0
 11
33.16721133157909
 21
16.59999936995175
 31
0.0
  0
LINE
  5
A8F
330
1A
100
AcDbEntity
  8
ZUWAKU
100
AcDbLine
 10
33.16721133157909
 20
13.79999936995175
 30
0.0
 11
33.30744549506778
 21
13.79999936995175
 31
0.0
  0
ARC
  5
A90
330
1A
100
AcDbEntity
  8
ZUWAKU
100
AcDbCircle
 10
33.16721133157909
 20
17.12499936995175
 30
0.0
 40
0.525
100
AcDbArc
 50
180.0
 51
270.0
  0
LINE
  5
A91
330
1A
100
AcDbEntity
  8
ZUWAKU
100
AcDbLine
 10
30.36721133157902
 20
7.149999369951757
 30
0.0
 11
32.11721133157903
 21
7.149999369951757
 31
0.0
  0
ARC
  5
A92
330
1A
100
AcDbEntity
  8
ZUWAKU
100
AcDbCircle
 10
32.11721133157903
 20
7.674999369951756
 30
0.0
 40
0.525
100
AcDbArc
 50
270.0
 51
0.0
  0
LINE
  5
A93
330
1A
100
AcDbEntity
  8
ZUWAKU
100
AcDbLine
 10
32.64221133157912
 20
7.674999369951756
 30
0.0
 11
32.64221133157912
 21
13.27499936995175
 31
0.0
  0
LINE
  5
A94
330
1A
100
AcDbEntity
  8
ZUWAKU
100
AcDbLine
 10
27.39221133157911
 20
9.424999369951756
 30
0.0
 11
27.39221133157911
 21
7.674999369951756
 31
0.0
  0
ARC
  5
A95
330
1A
100
AcDbEntity
  8
ZUWAKU
100
AcDbCircle
 10
26.86721133157902
 20
7.674999369951756
 30
0.0
 40
0.525
100
AcDbArc
 50
270.0
 51
0.0
  0
ARC
  5
A96
330
1A
100
AcDbEntity
  8
ZUWAKU
100
AcDbCircle
 10
26.86721133157902
 20
9.424999369951756
 30
0.0
 40
0.525
100
AcDbArc
 50
0.0
 51
90.0
  0
ARC
  5
A97
330
1A
100
AcDbEntity
  8
ZUWAKU
100
AcDbCircle
 10
30.36721133157902
 20
7.674999369951756
 30
0.0
 40
0.525
100
AcDbArc
 50
180.0
 51
270.0
  0
ARC
  5
A98
330
1A
100
AcDbEntity
  8
ZUWAKU
100
AcDbCircle
 10
33.30744549506778
 20
13.27499936995175
 30
0.0
 40
0.525
100
AcDbArc
 50
17.52556837372303
 51
90.0
  0
ARC
  5
A99
330
1A
100
AcDbEntity
  8
ZUWAKU
100
AcDbCircle
 10
33.16721133157909
 20
13.27499936995175
 30
0.0
 40
0.525
100
AcDbArc
 50
90.0
 51
180.0
  0
ARC
  5
A9A
330
1A
100
AcDbEntity
  8
ZUWAKU
100
AcDbCircle
 10
41.21721133157905
 20
7.674999369951756
 30
0.0
 40
0.525
100
AcDbArc
 50
180.0
 51
270.0
  0
LINE
  5
A9B
330
1A
100
AcDbEntity
  8
ZUWAKU
100
AcDbLine
 10
36.17697716809038
 20
7.149999369951757
 30
0.0
 11
37.87586654769938
 21
7.149999369951757
 31
0.0
  0
ARC
  5
A9C
330
1A
100
AcDbEntity
  8
ZUWAKU
100
AcDbCircle
 10
37.87586654769938
 20
7.674999369951756
 30
0.0
 40
0.525
100
AcDbArc
 50
270.0
 51
17.52556837372303
  0
LINE
  5
A9D
330
1A
100
AcDbEntity
  8
ZUWAKU
100
AcDbLine
 10
38.37649744689485
 20
7.833093338118729
 30
0.0
 11
36.0501060684212
 21
15.19999936995177
 31
0.0
  0
ARC
  5
A9E
330
1A
100
AcDbEntity
  8
ZUWAKU
100
AcDbCircle
 10
36.17697716809038
 20
7.674999369951756
 30
0.0
 40
0.525
100
AcDbArc
 50
197.525568373723
 51
270.0
  0
ARC
  5
A9F
330
1A
100
AcDbEntity
  8
ZUWAKU
100
AcDbCircle
 10
57.84221133157905
 20
9.949999369951754
 30
0.0
 40
2.799999999999999
100
AcDbArc
 50
180.0
 51
270.0
  0
ARC
  5
AA0
330
1A
100
AcDbEntity
  8
ZUWAKU
100
AcDbCircle
 10
50.14221133157912
 20
9.949999369951754
 30
0.0
 40
2.799999999999999
100
AcDbArc
 50
270.0
 51
0.0
  0
LINE
  5
AA1
330
1A
100
AcDbEntity
  8
ZUWAKU
100
AcDbLine
 10
51.71205981256264
 20
14.73504987629058
 30
0.0
 11
48.80226183791785
 21
17.64484785093525
 31
0.0
  0
LINE
  5
AA2
330
1A
100
AcDbEntity
  8
ZUWAKU
100
AcDbLine
 10
50.14221133157912
 20
10.47499936995176
 30
0.0
 11
50.14221133157912
 21
11.7652013953071
 31
0.0
  0
ARC
  5
AA3
330
1A
100
AcDbEntity
  8
ZUWAKU
100
AcDbCircle
 10
48.74221133157902
 20
11.7652013953071
 30
0.0
 40
1.399999999999999
100
AcDbArc
 50
0.0
 51
45.0
  0
ARC
  5
AA4
330
1A
100
AcDbEntity
  8
ZUWAKU
100
AcDbCircle
 10
49.61721133157903
 20
10.47499936995176
 30
0.0
 40
0.525
100
AcDbArc
 50
270.0
 51
0.0
  0
LINE
  5
AA5
330
1A
100
AcDbEntity
  8
ZUWAKU
100
AcDbLine
 10
46.11721133157902
 20
7.674999369951756
 30
0.0
 11
46.11721133157902
 21
9.424999369951756
 31
0.0
  0
ARC
  5
AA6
330
1A
100
AcDbEntity
  8
ZUWAKU
100
AcDbCircle
 10
46.64221133157911
 20
7.674999369951756
 30
0.0
 40
0.525
100
AcDbArc
 50
180.0
 51
270.0
  0
ARC
  5
AA7
330
1A
100
AcDbEntity
  8
ZUWAKU
100
AcDbCircle
 10
42.96721133157904
 20
7.674999369951756
 30
0.0
 40
0.525
100
AcDbArc
 50
270.0
 51
0.0
  0
ARC
  5
AA8
330
1A
100
AcDbEntity
  8
ZUWAKU
100
AcDbCircle
 10
46.64221133157911
 20
9.424999369951756
 30
0.0
 40
0.525
100
AcDbArc
 50
90.0
 51
180.0
  0
LINE
  5
AA9
330
1A
100
AcDbEntity
  8
ZUWAKU
100
AcDbLine
 10
46.64221133157911
 20
9.949999369951754
 30
0.0
 11
49.61721133157903
 21
9.949999369951754
 31
0.0
  0
LINE
  5
AAA
330
1A
100
AcDbEntity
  8
ZUWAKU
100
AcDbLine
 10
46.64221133157911
 20
7.149999369951757
 30
0.0
 11
50.14221133157912
 21
7.149999369951757
 31
0.0
  0
LINE
  5
AAB
330
1A
100
AcDbEntity
  8
ZUWAKU
100
AcDbLine
 10
46.82236285059559
 20
15.66494886361293
 30
0.0
 11
49.73216082524027
 21
12.75515088896827
 31
0.0
  0
LINE
  5
AAC
330
1A
100
AcDbEntity
  8
ZUWAKU
100
AcDbLine
 10
52.94221133157908
 20
9.949999369951754
 30
0.0
 11
52.94221133157908
 21
11.7652013953071
 31
0.0
  0
ARC
  5
AAD
330
1A
100
AcDbEntity
  8
ZUWAKU
100
AcDbCircle
 10
48.74221133157902
 20
11.76520139530705
 30
0.0
 40
4.199999999999999
100
AcDbArc
 50
0.0
 51
45.0
  0
ARC
  5
AAE
330
1A
100
AcDbEntity
  8
ZUWAKU
100
AcDbCircle
 10
58.89221133157912
 20
10.99999936995175
 30
0.0
 40
1.049999999999999
100
AcDbArc
 50
180.0
 51
270.0
  0
ARC
  5
AAF
330
1A
100
AcDbEntity
  8
ZUWAKU
100
AcDbCircle
 10
61.34221133157905
 20
9.949999369951754
 30
0.0
 40
2.799999999999999
100
AcDbArc
 50
270.0
 51
0.0
  0
LINE
  5
AB0
330
1A
100
AcDbEntity
  8
ZUWAKU
100
AcDbLine
 10
66.76721133157911
 20
7.149999369951757
 30
0.0
 11
68.51721133157912
 21
7.149999369951757
 31
0.0
  0
ARC
  5
AB1
330
1A
100
AcDbEntity
  8
ZUWAKU
100
AcDbCircle
 10
66.76721133157911
 20
7.674999369951756
 30
0.0
 40
0.525
100
AcDbArc
 50
180.0
 51
270.0
  0
ARC
  5
AB2
330
1A
100
AcDbEntity
  8
ZUWAKU
100
AcDbCircle
 10
60.2922113315791
 20
10.99999936995175
 30
0.0
 40
1.049999999999999
100
AcDbArc
 50
270.0
 51
0.0
  0
ARC
  5
AB3
330
1A
100
AcDbEntity
  8
ZUWAKU
100
AcDbCircle
 10
68.51721133157912
 20
7.674999369951756
 30
0.0
 40
0.525
100
AcDbArc
 50
270.0
 51
0.0
  0
LINE
  5
AB4
330
1A
100
AcDbEntity
  8
ZUWAKU
100
AcDbLine
 10
42.96721133157904
 20
23.24999936995176
 30
0.0
 11
41.21721133157905
 21
23.24999936995176
 31
0.0
  0
ARC
  5
AB5
330
1A
100
AcDbEntity
  8
ZUWAKU
100
AcDbCircle
 10
32.11721133157903
 20
22.72499936995175
 30
0.0
 40
0.525
100
AcDbArc
 50
0.0
 51
90.0
  0
LINE
  5
AB6
330
1A
100
AcDbEntity
  8
ZUWAKU
100
AcDbLine
 10
32.11721133157903
 20
23.24999936995176
 30
0.0
 11
30.36721133157902
 21
23.24999936995176
 31
0.0
  0
ARC
  5
AB7
330
1A
100
AcDbEntity
  8
ZUWAKU
100
AcDbCircle
 10
26.86721133157902
 20
22.72499936995175
 30
0.0
 40
0.525
100
AcDbArc
 50
0.0
 51
90.0
  0
ARC
  5
AB8
330
1A
100
AcDbEntity
  8
ZUWAKU
100
AcDbCircle
 10
30.36721133157902
 20
22.72499936995175
 30
0.0
 40
0.525
100
AcDbArc
 50
90.0
 51
180.0
  0
ARC
  5
AB9
330
1A
100
AcDbEntity
  8
ZUWAKU
100
AcDbCircle
 10
26.86721133157902
 20
20.97499936995175
 30
0.0
 40
0.525
100
AcDbArc
 50
270.0
 51
0.0
  0
LINE
  5
ABA
330
1A
100
AcDbEntity
  8
ZUWAKU
100
AcDbLine
 10
27.39221133157911
 20
22.72499936995175
 30
0.0
 11
27.39221133157911
 21
20.97499936995175
 31
0.0
  0
ARC
  5
ABB
330
1A
100
AcDbEntity
  8
ZUWAKU
100
AcDbCircle
 10
41.21721133157905
 20
22.72499936995175
 30
0.0
 40
0.525
100
AcDbArc
 50
90.0
 51
180.0
  0
LINE
  5
ABC
330
1A
100
AcDbEntity
  8
ZUWAKU
100
AcDbLine
 10
36.17697716809038
 20
23.24999936995176
 30
0.0
 11
37.87586654769938
 21
23.24999936995176
 31
0.0
  0
ARC
  5
ABD
330
1A
100
AcDbEntity
  8
ZUWAKU
100
AcDbCircle
 10
37.87586654769938
 20
22.72499936995175
 30
0.0
 40
0.525
100
AcDbArc
 50
342.4744316262769
 51
90.0
  0
LINE
  5
ABE
330
1A
100
AcDbEntity
  8
ZUWAKU
100
AcDbLine
 10
38.37649744689485
 20
22.56690540178478
 30
0.0
 11
37.31485781375704
 21
19.20504656351518
 31
0.0
  0
ARC
  5
ABF
330
1A
100
AcDbEntity
  8
ZUWAKU
100
AcDbCircle
 10
36.17697716809038
 20
22.72499936995175
 30
0.0
 40
0.525
100
AcDbArc
 50
90.0
 51
162.4744316262769
  0
LINE
  5
AC0
330
1A
100
AcDbEntity
  8
ZUWAKU
100
AcDbLine
 10
48.39221133157912
 20
23.24999936995176
 30
0.0
 11
51.89221133157912
 21
23.24999936995176
 31
0.0
  0
LINE
  5
AC1
330
1A
100
AcDbEntity
  8
ZUWAKU
100
AcDbLine
 10
51.89221133157912
 20
20.44999936995175
 30
0.0
 11
48.9172113315791
 21
20.44999936995175
 31
0.0
  0
ARC
  5
AC2
330
1A
100
AcDbEntity
  8
ZUWAKU
100
AcDbCircle
 10
48.9172113315791
 20
19.92499936995175
 30
0.0
 40
0.525
100
AcDbArc
 50
90.0
 51
180.0
  0
LINE
  5
AC3
330
1A
100
AcDbEntity
  8
ZUWAKU
100
AcDbLine
 10
48.39221133157912
 20
19.92499936995175
 30
0.0
 11
48.39221133157912
 21
18.63479734459641
 31
0.0
  0
ARC
  5
AC4
330
1A
100
AcDbEntity
  8
ZUWAKU
100
AcDbCircle
 10
42.96721133157904
 20
22.72499936995175
 30
0.0
 40
0.525
100
AcDbArc
 50
0.0
 51
90.0
  0
LINE
  5
AC5
330
1A
100
AcDbEntity
  8
ZUWAKU
100
AcDbLine
 10
45.59221133157905
 20
20.44999936995175
 30
0.0
 11
45.59221133157905
 21
18.63479734459641
 31
0.0
  0
ARC
  5
AC6
330
1A
100
AcDbEntity
  8
ZUWAKU
100
AcDbCircle
 10
48.39221133157912
 20
20.44999936995175
 30
0.0
 40
2.799999999999999
100
AcDbArc
 50
90.0
 51
180.0
  0
ARC
  5
AC7
330
1A
100
AcDbEntity
  8
ZUWAKU
100
AcDbCircle
 10
57.31721133157908
 20
22.72499936995175
 30
0.0
 40
0.525
100
AcDbArc
 50
0.0
 51
90.0
  0
ARC
  5
AC8
330
1A
100
AcDbEntity
  8
ZUWAKU
100
AcDbCircle
 10
55.56721133157907
 20
22.72499936995175
 30
0.0
 40
0.525
100
AcDbArc
 50
90.0
 51
180.0
  0
LINE
  5
AC9
330
1A
100
AcDbEntity
  8
ZUWAKU
100
AcDbLine
 10
57.31721133157908
 20
23.24999936995176
 30
0.0
 11
55.56721133157907
 21
23.24999936995176
 31
0.0
  0
ARC
  5
ACA
330
1A
100
AcDbEntity
  8
ZUWAKU
100
AcDbCircle
 10
51.89221133157912
 20
22.72499936995175
 30
0.0
 40
0.525
100
AcDbArc
 50
0.0
 51
90.0
  0
ARC
  5
ACB
330
1A
100
AcDbEntity
  8
ZUWAKU
100
AcDbCircle
 10
51.89221133157912
 20
20.97499936995175
 30
0.0
 40
0.525
100
AcDbArc
 50
270.0
 51
0.0
  0
LINE
  5
ACC
330
1A
100
AcDbEntity
  8
ZUWAKU
100
AcDbLine
 10
52.41721133157909
 20
22.72499936995175
 30
0.0
 11
52.41721133157909
 21
20.97499936995175
 31
0.0
  0
LINE
  5
ACD
330
1A
100
AcDbEntity
  8
ZUWAKU
100
AcDbLine
 10
68.51721133157912
 20
23.24999936995176
 30
0.0
 11
66.76721133157911
 21
23.24999936995176
 31
0.0
  0
ARC
  5
ACE
330
1A
100
AcDbEntity
  8
ZUWAKU
100
AcDbCircle
 10
66.76721133157911
 20
22.72499936995175
 30
0.0
 40
0.525
100
AcDbArc
 50
90.0
 51
180.0
  0
ARC
  5
ACF
330
1A
100
AcDbEntity
  8
ZUWAKU
100
AcDbCircle
 10
63.61721133157903
 20
22.72499936995175
 30
0.0
 40
0.525
100
AcDbArc
 50
0.0
 51
90.0
  0
LINE
  5
AD0
330
1A
100
AcDbEntity
  8
ZUWAKU
100
AcDbLine
 10
63.61721133157903
 20
23.24999936995176
 30
0.0
 11
61.86721133157902
 21
23.24999936995176
 31
0.0
  0
ARC
  5
AD1
330
1A
100
AcDbEntity
  8
ZUWAKU
100
AcDbCircle
 10
61.86721133157902
 20
22.72499936995175
 30
0.0
 40
0.525
100
AcDbArc
 50
90.0
 51
180.0
  0
ARC
  5
AD2
330
1A
100
AcDbEntity
  8
ZUWAKU
100
AcDbCircle
 10
68.51721133157912
 20
22.72499936995175
 30
0.0
 40
0.525
100
AcDbArc
 50
0.0
 51
90.0
  0
TEXT
  5
AD3
330
1A
100
AcDbEntity
  8
MOJI
100
AcDbText
 10
239.827201857649
 20
3.204920427359173
 30
0.0
 40
5.599999999999999
  1
ＲＶ１０５－５－１０～４５
 41
0.9
  7
ｽﾀｲﾙ1
100
AcDbText
  0
TEXT
  5
AD4
330
1A
100
AcDbEntity
  8
MOJI
100
AcDbText
 10
239.827201857649
 20
18.00492042735913
 30
0.0
 40
5.599999999999999
  1
ステンレス金具正面打（吊）自在式
 41
0.9
  7
ｽﾀｲﾙ1
100
AcDbText
  0
LINE
  5
AD5
330
1A
100
AcDbEntity
  8
ZUWAKU
100
AcDbLine
 10
208.2466004668658
 20
29.99999936995175
 30
0.0
 11
208.2466004668658
 21
0.79999936995182
 31
0.0
  0
LINE
  5
AD6
330
1A
100
AcDbEntity
  8
ZUWAKU
100
AcDbLine
 10
208.6466004668657
 20
29.99999936995175
 30
0.0
 11
208.6466004668659
 21
0.79999936995182
 31
0.0
  0
LINE
  5
AD7
330
1A
100
AcDbEntity
  8
ZUWAKU
100
AcDbLine
 10
208.4466004668656
 20
29.99999936995175
 30
0.0
 11
208.4466004668659
 21
0.79999936995182
 31
0.0
  0
TEXT
  5
AD8
330
1A
100
AcDbEntity
  8
ZUWAKU
100
AcDbText
 10
209.7240454890754
 20
9.655355908337369
 30
0.0
 40
4.0
  1
サイズ
 41
0.9
  7
ｽﾀｲﾙ1
100
AcDbText
  0
TEXT
  5
AD9
330
1A
100
AcDbEntity
  8
ZUWAKU
100
AcDbText
 10
209.7240454890752
 20
24.05535590833733
 30
0.0
 40
4.0
  1
品名
 41
0.9
  7
ｽﾀｲﾙ1
100
AcDbText
  0
LINE
  5
ADA
330
1A
100
AcDbEntity
  8
ZUWAKU
100
AcDbLine
 10
648.8172016870021
 20
15.19999936995178
 30
0.0
 11
697.2490097253391
 21
15.19999936995178
 31
0.0
  0
LINE
  5
ADB
330
1A
100
AcDbEntity
  8
ZUWAKU
100
AcDbLine
 10
648.8172016870024
 20
15.39999936995179
 30
0.0
 11
697.2490097253391
 21
15.39999936995178
 31
0.0
  0
LINE
  5
ADC
330
1A
100
AcDbEntity
  8
ZUWAKU
100
AcDbLine
 10
648.8172016870021
 20
15.59999936995178
 30
0.0
 11
697.2490097253391
 21
15.59999936995178
 31
0.0
  0
TEXT
  5
ADD
330
1A
100
AcDbEntity
  8
ZUWAKU
100
AcDbText
 10
658.2039368641003
 20
18.00492042735913
 30
0.0
 40
5.599999999999999
  1
　　．　　．　　
 41
0.9
  7
ｽﾀｲﾙ1
100
AcDbText
  0
LINE
  5
ADE
330
1A
100
AcDbEntity
  8
ZUWAKU
100
AcDbLine
 10
505.1991786749388
 20
15.19999936995179
 30
0.0
 11
552.5269549429103
 21
15.19999936995179
 31
0.0
  0
LINE
  5
ADF
330
1A
100
AcDbEntity
  8
ZUWAKU
100
AcDbLine
 10
505.1991786749388
 20
15.39999936995178
 30
0.0
 11
552.5269549429103
 21
15.39999936995178
 31
0.0
  0
LINE
  5
AE0
330
1A
100
AcDbEntity
  8
ZUWAKU
100
AcDbLine
 10
505.1991786749388
 20
15.59999936995178
 30
0.0
 11
552.5269549429103
 21
15.59999936995178
 31
0.0
  0
TEXT
  5
AE1
330
1A
100
AcDbEntity
  8
MOJI
100
AcDbText
 10
464.5946251800369
 20
11.94261709161173
 30
0.0
 40
5.599999999999999
  1
ＬＧ５５Ｇ
 41
0.9
  7
ｽﾀｲﾙ1
100
AcDbText
  0
LINE
  5
AE2
330
1A
100
AcDbEntity
  8
ZUWAKU
100
AcDbLine
 10
447.6243631477891
 20
29.99999936995175
 30
0.0
 11
447.6243631477894
 21
0.79999936995182
 31
0.0
  0
LINE
  5
AE3
330
1A
100
AcDbEntity
  8
ZUWAKU
100
AcDbLine
 10
447.8243631477892
 20
29.99999936995175
 30
0.0
 11
447.8243631477893
 21
0.79999936995182
 31
0.0
  0
LINE
  5
AE4
330
1A
100
AcDbEntity
  8
ZUWAKU
100
AcDbLine
 10
447.4243631477893
 20
29.99999936995175
 30
0.0
 11
447.4243631477893
 21
0.79999936995182
 31
0.0
  0
TEXT
  5
AE5
330
1A
100
AcDbEntity
  8
MOJI
100
AcDbText
 10
528.0409071491107
 20
18.00492042735913
 30
0.0
 40
5.599999999999999
  1
Ａ３
 41
0.9
  7
ｽﾀｲﾙ1
100
AcDbText
  0
LINE
  5
AE6
330
1A
100
AcDbEntity
  8
ZUWAKU
100
AcDbLine
 10
504.9991786749387
 20
29.99999936995175
 30
0.0
 11
504.999178674939
 21
0.79999936995182
 31
0.0
  0
LINE
  5
AE7
330
1A
100
AcDbEntity
  8
ZUWAKU
100
AcDbLine
 10
505.1991786749388
 20
29.99999936995175
 30
0.0
 11
505.199178674939
 21
0.79999936995182
 31
0.0
  0
LINE
  5
AE8
330
1A
100
AcDbEntity
  8
ZUWAKU
100
AcDbLine
 10
504.7991786749389
 20
29.99999936995175
 30
0.0
 11
504.7991786749389
 21
0.79999936995182
 31
0.0
  0
TEXT
  5
AE9
330
1A
100
AcDbEntity
  8
ZUWAKU
100
AcDbText
 10
506.6766236971487
 20
9.655355908337369
 30
0.0
 40
4.0
  1
縮尺
 41
0.9
  7
ｽﾀｲﾙ1
100
AcDbText
  0
TEXT
  5
AEA
330
1A
100
AcDbEntity
  8
MOJI
100
AcDbText
 10
528.0409071491107
 20
3.204920427359173
 30
0.0
 40
5.599999999999999
  1
１/２
 41
0.9
  7
ｽﾀｲﾙ1
100
AcDbText
  0
TEXT
  5
AEB
330
1A
100
AcDbEntity
  8
ZUWAKU
100
AcDbText
 10
449.3018081699988
 20
24.05535590833733
 30
0.0
 40
4.0
  1
品番
 41
0.9
  7
ｽﾀｲﾙ1
100
AcDbText
  0
TEXT
  5
AEC
330
1A
100
AcDbEntity
  8
ZUWAKU
100
AcDbText
 10
506.6766236971484
 20
24.05535590833733
 30
0.0
 40
4.0
  1
用紙
 41
0.9
  7
ｽﾀｲﾙ1
100
AcDbText
  0
LINE
  5
AED
330
1A
100
AcDbEntity
  8
ZUWAKU
100
AcDbLine
 10
648.6172016870023
 20
29.99999936995175
 30
0.0
 11
648.6172016870025
 21
0.79999936995182
 31
0.0
  0
LINE
  5
AEE
330
1A
100
AcDbEntity
  8
ZUWAKU
100
AcDbLine
 10
648.8172016870024
 20
29.99999936995175
 30
0.0
 11
648.8172016870025
 21
0.79999936995182
 31
0.0
  0
LINE
  5
AEF
330
1A
100
AcDbEntity
  8
ZUWAKU
100
AcDbLine
 10
648.4172016870025
 20
29.99999936995175
 30
0.0
 11
648.4172016870025
 21
0.79999936995182
 31
0.0
  0
LINE
  5
AF0
330
1A
100
AcDbEntity
  8
ZUWAKU
100
AcDbLine
 10
552.7269549429101
 20
29.99999936995175
 30
0.0
 11
552.7269549429104
 21
0.79999936995182
 31
0.0
  0
LINE
  5
AF1
330
1A
100
AcDbEntity
  8
ZUWAKU
100
AcDbLine
 10
552.9269549429102
 20
29.99999936995175
 30
0.0
 11
552.9269549429105
 21
0.79999936995182
 31
0.0
  0
LINE
  5
AF2
330
1A
100
AcDbEntity
  8
ZUWAKU
100
AcDbLine
 10
552.5269549429103
 20
29.99999936995175
 30
0.0
 11
552.5269549429103
 21
0.79999936995182
 31
0.0
  0
TEXT
  5
AF3
330
1A
100
AcDbEntity
  8
ZUWAKU
100
AcDbText
 10
650.294646709212
 20
24.05535590833733
 30
0.0
 40
4.0
  1
DATE
 41
0.9
  7
ｽﾀｲﾙ1
100
AcDbText
  0
LINE
  5
AF4
330
1A
100
AcDbEntity
  8
ZUWAKU
100
AcDbLine
 10
697.2490097253391
 20
29.99999936995175
 30
0.0
 11
697.2490097253391
 21
0.79999936995182
 31
0.0
  0
LINE
  5
AF5
330
1A
100
AcDbEntity
  8
ZUWAKU
100
AcDbLine
 10
697.4490097253392
 20
29.99999936995175
 30
0.0
 11
697.4490097253392
 21
0.79999936995182
 31
0.0
  0
LINE
  5
AF6
330
1A
100
AcDbEntity
  8
ZUWAKU
100
AcDbLine
 10
697.649009725339
 20
29.99999936995175
 30
0.0
 11
697.6490097253392
 21
0.79999936995182
 31
0.0
  0
LINE
  5
AF7
330
1A
100
AcDbEntity
  8
ZUWAKU
100
AcDbLine
 10
697.849009725339
 20
29.99999936995175
 30
0.0
 11
697.8490097253393
 21
0.79999936995182
 31
0.0
  0
TEXT
  5
AF8
330
1A
100
AcDbEntity
  8
ZUWAKU
100
AcDbText
 10
708.5280833690417
 20
17.55383870563855
 30
0.0
 40
6.0
  1
積水化学工業株式会社
 41
0.9
  7
ｽﾀｲﾙ1
100
AcDbText
  0
TEXT
  5
AF9
330
1A
100
AcDbEntity
  8
ZUWAKU
100
AcDbText
 10
708.5280833690417
 20
6.648839683805817
 30
0.0
 40
6.0
  1
建材事業部
 41
0.9
  7
ｽﾀｲﾙ1
100
AcDbText
  0
VIEWPORT
  5
22
330
17
100
AcDbEntity
 67
     1
  8
0
100
AcDbViewport
 10
313.6808219178082
 20
148.5
 30
0.0
 40
627.3616438356165
 41
297.0
 68
     2
 69
     1
1001
ACAD
1000
MVIEW
1002
{
1070
    16
1010
0.0
1020
0.0
1030
0.0
1010
0.0
1020
0.0
1030
1.0
1040
0.0
1040
297.0
1040
313.6808219178082
1040
148.5
1040
50.0
1040
0.0
1040
0.0
1070
     0
1070
   100
1070
     1
1070
     0
1070
     0
1070
     0
1070
     0
1070
     0
1040
0.0
1040
0.0
1040
0.0
1040
1.0
1040
1.0
1040
10.0
1040
10.0
1070
     0
1002
{
1002
}
1002
}
  0
VIEWPORT
  5
64
330
17
100
AcDbEntity
 67
     1
  8
VIEWPORT
100
AcDbViewport
 10
210.0
 20
148.5
 30
0.0
 40
420.0
 41
297.0
 68
     1
 69
     2
1001
ACAD
1000
MVIEW
1002
{
1070
    16
1010
0.0
1020
0.0
1030
0.0
1010
0.0
1020
0.0
1030
1.0
1040
0.0
1040
605.8799999999998
1040
420.0
1040
297.0
1040
50.0
1040
0.0
1040
0.0
1070
     0
1070
   100
1070
     1
1070
     0
1070
     0
1070
     0
1070
     0
1070
     0
1040
0.0
1040
0.0
1040
0.0
1040
10.0
1040
10.0
1040
0.0
1040
0.0
1070
     0
1002
{
1002
}
1002
}
  0
ENDSEC
  0
SECTION
  2
OBJECTS
  0
DICTIONARY
  5
C
330
0
100
AcDbDictionary
  3
ACAD_GROUP
350
D
  3
ACAD_LAYOUT
350
878
  3
ACAD_MLINESTYLE
350
E
  3
ACAD_PLOTSETTINGS
350
879
  3
ACAD_PLOTSTYLENAME
350
876
  3
ACDBHEADERROUNDTRIPXREC
350
B01
  0
DICTIONARY
  5
8A7
330
1A
100
AcDbDictionary
280
     1
  3
ACAD_LAYOUTSELFREF
360
B23
  0
DICTIONARY
  5
8A5
330
17
100
AcDbDictionary
280
     1
  3
ACAD_LAYOUTSELFREF
360
B22
  0
DICTIONARY
  5
D
102
{ACAD_REACTORS
330
C
102
}
330
C
100
AcDbDictionary
  0
DICTIONARY
  5
878
102
{ACAD_REACTORS
330
C
102
}
330
C
100
AcDbDictionary
  0
DICTIONARY
  5
E
102
{ACAD_REACTORS
330
C
102
}
330
C
100
AcDbDictionary
  3
STANDARD
350
13
  0
DICTIONARY
  5
879
102
{ACAD_REACTORS
330
C
102
}
330
C
100
AcDbDictionary
  0
ACDBDICTIONARYWDFLT
  5
876
102
{ACAD_REACTORS
330
C
102
}
330
C
100
AcDbDictionary
281
     1
  3
Normal
350
877
100
AcDbDictionaryWithDefault
340
877
1001
ACAD
1000
TREAT_AS_HARD
1070
     0
1000
TREAT_AS_HARD
1070
     0
  0
DICTIONARY
  5
B01
102
{ACAD_REACTORS
330
C
102
}
330
C
100
AcDbDictionary
  3
TSTACKALIGN
350
B02
  3
TSTACKSIZE
350
B03
  3
HYPERLINKBASE
350
B04
  3
STYLESHEET
350
B05
  3
LAYOUTDICT
350
B06
  3
PLOTSETDICT
350
B07
  3
PLOTSTYLNAMDICT
350
B08
  3
LWETCUNION
350
B09
  3
INSUNITS
350
B0A
  3
CEPSNTYPE
350
B0B
  3
FINGERPRINTGUID
350
B0C
  3
VERSIONGUID
350
B0D
  3
PSVPSCALE
350
B0E
  3
DIMSTYLEDATA
350
B0F
  3
PUCSORTHOREF
350
B10
  3
PUCSORTHOVIEW
350
B11
  3
PUCSBASE
350
B12
  3
PUCSORGTOP
350
B13
  3
PUCSORGBOTTOM
350
B14
  3
PUCSORGLEFT
350
B15
  3
PUCSORGRIGHT
350
B16
  3
PUCSORGFRONT
350
B17
  3
PUCSORGBACK
350
B18
  3
UCSORTHOREF
350
B19
  3
UCSORTHOVIEW
350
B1A
  3
UCSBASE
350
B1B
  3
UCSORGTOP
350
B1C
  3
UCSORGBOTTOM
350
B1D
  3
UCSORGLEFT
350
B1E
  3
UCSORGRIGHT
350
B1F
  3
UCSORGFRONT
350
B20
  3
UCSORGBACK
350
B21
  0
XRECORD
  5
B23
102
{ACAD_REACTORS
330
8A7
102
}
330
8A7
100
AcDbXrecord
340
1A
  0
XRECORD
  5
B22
102
{ACAD_REACTORS
330
8A5
102
}
330
8A5
100
AcDbXrecord
340
17
  0
MLINESTYLE
  5
13
102
{ACAD_REACTORS
330
E
102
}
330
E
100
AcDbMlineStyle
  2
STANDARD
 70
     0
  3

 62
     0
 51
90.0
 52
90.0
 71
     2
 49
0.5
 62
   256
  6
BYLAYER
 49
-0.5
 62
   256
  6
BYLAYER
  0
ACDBPLACEHOLDER
  5
877
102
{ACAD_REACTORS
330
876
102
}
330
876
100
AcDbPlaceHolder
280
     0
  0
XRECORD
  5
B02
102
{ACAD_REACTORS
330
B01
102
}
330
B01
100
AcDbXrecord
 90
        1
  0
XRECORD
  5
B03
102
{ACAD_REACTORS
330
B01
102
}
330
B01
100
AcDbXrecord
 90
       70
  0
XRECORD
  5
B04
102
{ACAD_REACTORS
330
B01
102
}
330
B01
100
AcDbXrecord
  1

  0
XRECORD
  5
B05
102
{ACAD_REACTORS
330
B01
102
}
330
B01
100
AcDbXrecord
  1
systemprinter.ctb
  0
XRECORD
  5
B06
102
{ACAD_REACTORS
330
B01
102
}
330
B01
100
AcDbXrecord
340
878
  0
XRECORD
  5
B07
102
{ACAD_REACTORS
330
B01
102
}
330
B01
100
AcDbXrecord
340
879
  0
XRECORD
  5
B08
102
{ACAD_REACTORS
330
B01
102
}
330
B01
100
AcDbXrecord
340
876
  0
XRECORD
  5
B09
102
{ACAD_REACTORS
330
B01
102
}
330
B01
100
AcDbXrecord
 90
    10781
  0
XRECORD
  5
B0A
102
{ACAD_REACTORS
330
B01
102
}
330
B01
100
AcDbXrecord
 90
        0
  0
XRECORD
  5
B0B
102
{ACAD_REACTORS
330
B01
102
}
330
B01
100
AcDbXrecord
 90
        0
  0
XRECORD
  5
B0C
102
{ACAD_REACTORS
330
B01
102
}
330
B01
100
AcDbXrecord
  1
{672E8864-B6C1-4EDC-8113-900E669F0F10}
  0
XRECORD
  5
B0D
102
{ACAD_REACTORS
330
B01
102
}
330
B01
100
AcDbXrecord
  1
{1D1A831A-2D68-4F9B-A755-DCE720FE8288}
  0
XRECORD
  5
B0E
102
{ACAD_REACTORS
330
B01
102
}
330
B01
100
AcDbXrecord
 40
0.0
  0
XRECORD
  5
B0F
102
{ACAD_REACTORS
330
B01
102
}
330
B01
100
AcDbXrecord
1000
DSTYLE
1002
{
1070
   341
340
6D
1070
   343
340
6D
1070
   344
340
6D
1070
   371
 70
    -1
1070
   372
 70
    -1
1002
}
  0
XRECORD
  5
B10
102
{ACAD_REACTORS
330
B01
102
}
330
B01
100
AcDbXrecord
340
0
  0
XRECORD
  5
B11
102
{ACAD_REACTORS
330
B01
102
}
330
B01
100
AcDbXrecord
 70
     0
  0
XRECORD
  5
B12
102
{ACAD_REACTORS
330
B01
102
}
330
B01
100
AcDbXrecord
340
0
  0
XRECORD
  5
B13
102
{ACAD_REACTORS
330
B01
102
}
330
B01
100
AcDbXrecord
 10
0.0
 20
0.0
 30
0.0
  0
XRECORD
  5
B14
102
{ACAD_REACTORS
330
B01
102
}
330
B01
100
AcDbXrecord
 10
0.0
 20
0.0
 30
0.0
  0
XRECORD
  5
B15
102
{ACAD_REACTORS
330
B01
102
}
330
B01
100
AcDbXrecord
 10
0.0
 20
0.0
 30
0.0
  0
XRECORD
  5
B16
102
{ACAD_REACTORS
330
B01
102
}
330
B01
100
AcDbXrecord
 10
0.0
 20
0.0
 30
0.0
  0
XRECORD
  5
B17
102
{ACAD_REACTORS
330
B01
102
}
330
B01
100
AcDbXrecord
 10
0.0
 20
0.0
 30
0.0
  0
XRECORD
  5
B18
102
{ACAD_REACTORS
330
B01
102
}
330
B01
100
AcDbXrecord
 10
0.0
 20
0.0
 30
0.0
  0
XRECORD
  5
B19
102
{ACAD_REACTORS
330
B01
102
}
330
B01
100
AcDbXrecord
340
0
  0
XRECORD
  5
B1A
102
{ACAD_REACTORS
330
B01
102
}
330
B01
100
AcDbXrecord
 70
     0
  0
XRECORD
  5
B1B
102
{ACAD_REACTORS
330
B01
102
}
330
B01
100
AcDbXrecord
340
0
  0
XRECORD
  5
B1C
102
{ACAD_REACTORS
330
B01
102
}
330
B01
100
AcDbXrecord
 10
0.0
 20
0.0
 30
0.0
  0
XRECORD
  5
B1D
102
{ACAD_REACTORS
330
B01
102
}
330
B01
100
AcDbXrecord
 10
0.0
 20
0.0
 30
0.0
  0
XRECORD
  5
B1E
102
{ACAD_REACTORS
330
B01
102
}
330
B01
100
AcDbXrecord
 10
0.0
 20
0.0
 30
0.0
  0
XRECORD
  5
B1F
102
{ACAD_REACTORS
330
B01
102
}
330
B01
100
AcDbXrecord
 10
0.0
 20
0.0
 30
0.0
  0
XRECORD
  5
B20
102
{ACAD_REACTORS
330
B01
102
}
330
B01
100
AcDbXrecord
 10
0.0
 20
0.0
 30
0.0
  0
XRECORD
  5
B21
102
{ACAD_REACTORS
330
B01
102
}
330
B01
100
AcDbXrecord
 10
0.0
 20
0.0
 30
0.0
  0
ENDSEC
  0
EOF
