  0
SECTION
  2
HEADER
  9
$ACADVER
  1
AC1014
  9
$ACADMAINTVER
 70
     9
  9
$DWGCODEPAGE
  3
ANSI_932
  9
$INSBASE
 10
0.0
 20
0.0
 30
0.0
  9
$EXTMIN
 10
-0.0256336331046896
 20
-0.0181266884808338
 30
-0.0000000100021362
  9
$EXTMAX
 10
797.6000995211149
 20
551.6452344430783
 30
0.0000000100021363
  9
$LIMMIN
 10
0.0
 20
0.0
  9
$LIMMAX
 10
840.0
 20
594.0
  9
$ORTHOMODE
 70
     0
  9
$REGENMODE
 70
     1
  9
$FILLMODE
 70
     1
  9
$QTEXTMODE
 70
     0
  9
$MIRRTEXT
 70
     1
  9
$DRAGMODE
 70
     2
  9
$LTSCALE
 40
2.0
  9
$OSMODE
 70
    35
  9
$ATTMODE
 70
     1
  9
$TEXTSIZE
 40
6.0
  9
$TRACEWID
 40
1.0
  9
$TEXTSTYLE
  7
STANDARD
  9
$CLAYER
  8
SEIHIN
  9
$CELTYPE
  6
BYLAYER
  9
$CECOLOR
 62
   256
  9
$CELTSCALE
 40
1.0
  9
$DELOBJ
 70
     1
  9
$DISPSILH
 70
     0
  9
$DIMSCALE
 40
1.0
  9
$DIMASZ
 40
7.0
  9
$DIMEXO
 40
6.0
  9
$DIMDLI
 40
14.0
  9
$DIMRND
 40
0.0
  9
$DIMDLE
 40
0.0
  9
$DIMEXE
 40
3.0
  9
$DIMTP
 40
0.0
  9
$DIMTM
 40
0.0
  9
$DIMTXT
 40
6.0
  9
$DIMCEN
 40
150.0
  9
$DIMTSZ
 40
0.0
  9
$DIMTOL
 70
     0
  9
$DIMLIM
 70
     0
  9
$DIMTIH
 70
     0
  9
$DIMTOH
 70
     0
  9
$DIMSE1
 70
     0
  9
$DIMSE2
 70
     0
  9
$DIMTAD
 70
     3
  9
$DIMZIN
 70
     0
  9
$DIMBLK
  1

  9
$DIMASO
 70
     1
  9
$DIMSHO
 70
     1
  9
$DIMPOST
  1

  9
$DIMAPOST
  1

  9
$DIMALT
 70
     0
  9
$DIMALTD
 70
     2
  9
$DIMALTF
 40
25.4
  9
$DIMLFAC
 40
1.0
  9
$DIMTOFL
 70
     1
  9
$DIMTVP
 40
0.0
  9
$DIMTIX
 70
     0
  9
$DIMSOXD
 70
     0
  9
$DIMSAH
 70
     1
  9
$DIMBLK1
  1
OPEN
  9
$DIMBLK2
  1
OPEN
  9
$DIMSTYLE
  2
STANDARD
  9
$DIMCLRD
 70
   256
  9
$DIMCLRE
 70
   256
  9
$DIMCLRT
 70
   256
  9
$DIMTFAC
 40
1.0
  9
$DIMGAP
 40
2.0
  9
$DIMJUST
 70
     0
  9
$DIMSD1
 70
     0
  9
$DIMSD2
 70
     0
  9
$DIMTOLJ
 70
     1
  9
$DIMTZIN
 70
     0
  9
$DIMALTZ
 70
     0
  9
$DIMALTTZ
 70
     0
  9
$DIMFIT
 70
     3
  9
$DIMUPT
 70
     0
  9
$DIMUNIT
 70
     2
  9
$DIMDEC
 70
     0
  9
$DIMTDEC
 70
     0
  9
$DIMALTU
 70
     2
  9
$DIMALTTD
 70
     2
  9
$DIMTXSTY
  7
STANDARD
  9
$DIMAUNIT
 70
     0
  9
$LUNITS
 70
     2
  9
$LUPREC
 70
     4
  9
$SKETCHINC
 40
1.0
  9
$FILLETRAD
 40
20.0
  9
$AUNITS
 70
     0
  9
$AUPREC
 70
     0
  9
$MENU
  1
.
  9
$ELEVATION
 40
0.0
  9
$PELEVATION
 40
0.0
  9
$THICKNESS
 40
0.0
  9
$LIMCHECK
 70
     0
  9
$BLIPMODE
 70
     0
  9
$CHAMFERA
 40
1.0
  9
$CHAMFERB
 40
1.0
  9
$CHAMFERC
 40
40.0
  9
$CHAMFERD
 40
0.0
  9
$SKPOLY
 70
     0
  9
$TDCREATE
 40
2451200.399707291
  9
$TDUPDATE
 40
2453802.431292315
  9
$TDINDWG
 40
0.0220918403
  9
$TDUSRTIMER
 40
0.0220918403
  9
$USRTIMER
 70
     1
  9
$ANGBASE
 50
0.0
  9
$ANGDIR
 70
     0
  9
$PDMODE
 70
     0
  9
$PDSIZE
 40
0.0
  9
$PLINEWID
 40
0.0
  9
$COORDS
 70
     1
  9
$SPLFRAME
 70
     0
  9
$SPLINETYPE
 70
     6
  9
$SPLINESEGS
 70
     8
  9
$ATTDIA
 70
     0
  9
$ATTREQ
 70
     1
  9
$HANDLING
 70
 10241
  9
$HANDSEED
  5
AE5
  9
$SURFTAB1
 70
     6
  9
$SURFTAB2
 70
     6
  9
$SURFTYPE
 70
     6
  9
$SURFU
 70
     6
  9
$SURFV
 70
     6
  9
$UCSNAME
  2

  9
$UCSORG
 10
0.0
 20
0.0
 30
0.0
  9
$UCSXDIR
 10
1.0
 20
0.0
 30
0.0
  9
$UCSYDIR
 10
0.0
 20
1.0
 30
0.0
  9
$PUCSNAME
  2

  9
$PUCSORG
 10
0.0
 20
0.0
 30
0.0
  9
$PUCSXDIR
 10
1.0
 20
0.0
 30
0.0
  9
$PUCSYDIR
 10
0.0
 20
1.0
 30
0.0
  9
$USERI1
 70
     0
  9
$USERI2
 70
     0
  9
$USERI3
 70
     0
  9
$USERI4
 70
     0
  9
$USERI5
 70
     0
  9
$USERR1
 40
0.0
  9
$USERR2
 40
0.0
  9
$USERR3
 40
0.0
  9
$USERR4
 40
0.0
  9
$USERR5
 40
0.0
  9
$WORLDVIEW
 70
     1
  9
$SHADEDGE
 70
     3
  9
$SHADEDIF
 70
    70
  9
$TILEMODE
 70
     1
  9
$MAXACTVP
 70
    16
  9
$PINSBASE
 10
0.0
 20
0.0
 30
0.0
  9
$PLIMCHECK
 70
     0
  9
$PEXTMIN
 10
0.0
 20
0.0
 30
0.0
  9
$PEXTMAX
 10
420.0
 20
297.0
 30
0.0
  9
$PLIMMIN
 10
0.0
 20
0.0
  9
$PLIMMAX
 10
420.0
 20
297.0
  9
$UNITMODE
 70
     0
  9
$VISRETAIN
 70
     0
  9
$PLINEGEN
 70
     0
  9
$PSLTSCALE
 70
     1
  9
$TREEDEPTH
 70
  3020
  9
$PICKSTYLE
 70
     1
  9
$CMLSTYLE
  2
STANDARD
  9
$CMLJUST
 70
     0
  9
$CMLSCALE
 40
1.0
  9
$PROXYGRAPHICS
 70
     1
  9
$MEASUREMENT
 70
     1
  0
ENDSEC
  0
SECTION
  2
CLASSES
  0
CLASS
  1
ACDBDICTIONARYWDFLT
  2
AcDbDictionaryWithDefault
  3
AutoCAD 2000
 90
        0
280
     0
281
     0
  0
CLASS
  1
ACDBPLACEHOLDER
  2
AcDbPlaceHolder
  3
AutoCAD 2000
 90
        0
280
     0
281
     0
  0
CLASS
  1
LAYOUT
  2
AcDbLayout
  3
AutoCAD 2000
 90
        0
280
     0
281
     0
  0
CLASS
  1
LONG_TRANSACTION
  2
AcDbLongTransaction
  3
AutoCAD 2000
 90
        0
280
     0
281
     0
  0
CLASS
  1
LWPOLYLINE
  2
AcDbPolyline
  3
AutoCAD 2000
 90
        0
280
     0
281
     1
  0
CLASS
  1
HATCH
  2
AcDbHatch
  3
AutoCAD 2000
 90
        0
280
     0
281
     1
  0
CLASS
  1
XRECORD
  2
AcDbXrecord
  3
AutoCAD 2000
 90
        0
280
     0
281
     0
  0
CLASS
  1
LONG_TRANSACTION
  2
AcDbLongTransaction
  3
AutoCAD 2000
 90
        0
280
     0
281
     0
  0
CLASS
  1
LWPOLYLINE
  2
AcDbPolyline
  3
AutoCAD 2000
 90
        0
280
     0
281
     1
  0
CLASS
  1
HATCH
  2
AcDbHatch
  3
AutoCAD 2000
 90
        0
280
     0
281
     1
  0
CLASS
  1
XRECORD
  2
AcDbXrecord
  3
AutoCAD 2000
 90
        0
280
     0
281
     0
  0
ENDSEC
  0
SECTION
  2
TABLES
  0
TABLE
  2
VPORT
  5
8
330
0
100
AcDbSymbolTable
 70
     2
  0
VPORT
  5
AC1
330
8
100
AcDbSymbolTableRecord
100
AcDbViewportTableRecord
  2
*ACTIVE
 70
     0
 10
0.0
 20
0.0
 11
1.0
 21
1.0
 12
429.0770273167082
 22
265.5884786115878
 13
0.0
 23
0.0
 14
5.0
 24
5.0
 15
0.0
 25
0.0
 16
0.0
 26
0.0
 36
1.0
 17
0.0
 27
0.0
 37
0.0
 40
632.7749927762545
 41
1.795454545454545
 42
50.0
 43
0.0
 44
0.0
 50
0.0
 51
0.0
 71
     0
 72
   100
 73
     1
 74
     0
 75
     0
 76
     0
 77
     0
 78
     0
  0
ENDTAB
  0
TABLE
  2
LTYPE
  5
5
330
0
100
AcDbSymbolTable
 70
     3
  0
LTYPE
  5
14
330
5
100
AcDbSymbolTableRecord
100
AcDbLinetypeTableRecord
  2
BYBLOCK
 70
     0
  3

 72
    65
 73
     0
 40
0.0
  0
LTYPE
  5
15
330
5
100
AcDbSymbolTableRecord
100
AcDbLinetypeTableRecord
  2
BYLAYER
 70
     0
  3

 72
    65
 73
     0
 40
0.0
  0
LTYPE
  5
16
330
5
100
AcDbSymbolTableRecord
100
AcDbLinetypeTableRecord
  2
CONTINUOUS
 70
     0
  3
Solid line
 72
    65
 73
     0
 40
0.0
  0
LTYPE
  5
115
330
5
100
AcDbSymbolTableRecord
100
AcDbLinetypeTableRecord
  2
PHANTOM
 70
     0
  3
______  __  __  ______  __  __  ______  __  __ 
 72
    65
 73
     6
 40
2.5
 49
1.25
 74
     0
 49
-0.25
 74
     0
 49
0.25
 74
     0
 49
-0.25
 74
     0
 49
0.25
 74
     0
 49
-0.25
 74
     0
  0
LTYPE
  5
135
330
5
100
AcDbSymbolTableRecord
100
AcDbLinetypeTableRecord
  2
CENTER
 70
     0
  3
____ _ ____ _ ____ _ ____ _ ____ _ ____ _ ____ 
 72
    65
 73
     4
 40
2.0
 49
1.25
 74
     0
 49
-0.25
 74
     0
 49
0.25
 74
     0
 49
-0.25
 74
     0
  0
ENDTAB
  0
TABLE
  2
LAYER
  5
2
330
0
100
AcDbSymbolTable
 70
     9
  0
LAYER
  5
F
330
2
100
AcDbSymbolTableRecord
100
AcDbLayerTableRecord
  2
0
 70
     0
 62
     7
  6
CONTINUOUS
  0
LAYER
  5
62
330
2
100
AcDbSymbolTableRecord
100
AcDbLayerTableRecord
  2
VIEWPORT
 70
     0
 62
     7
  6
CONTINUOUS
  0
LAYER
  5
65
330
2
100
AcDbSymbolTableRecord
100
AcDbLayerTableRecord
  2
ZUWAKU
 70
     0
 62
     7
  6
CONTINUOUS
  0
LAYER
  5
143
330
2
100
AcDbSymbolTableRecord
100
AcDbLayerTableRecord
  2
SEIHIN
 70
     0
 62
     3
  6
CONTINUOUS
  0
LAYER
  5
144
330
2
100
AcDbSymbolTableRecord
100
AcDbLayerTableRecord
  2
SUNPOU
 70
     0
 62
     4
  6
CONTINUOUS
  0
LAYER
  5
145
330
2
100
AcDbSymbolTableRecord
100
AcDbLayerTableRecord
  2
CENTER_L
 70
     0
 62
     1
  6
CENTER
  0
LAYER
  5
487
330
2
100
AcDbSymbolTableRecord
100
AcDbLayerTableRecord
  2
NOKOTOI
 70
     0
 62
     8
  6
PHANTOM
  0
LAYER
  5
5C6
330
2
100
AcDbSymbolTableRecord
100
AcDbLayerTableRecord
  2
DEFPOINTS
 70
     0
 62
     7
  6
CONTINUOUS
  0
LAYER
  5
8B0
330
2
100
AcDbSymbolTableRecord
100
AcDbLayerTableRecord
  2
MOJI
 70
     0
 62
     2
  6
CONTINUOUS
  0
ENDTAB
  0
TABLE
  2
STYLE
  5
3
330
0
100
AcDbSymbolTable
 70
     2
  0
STYLE
  5
10
330
3
100
AcDbSymbolTableRecord
100
AcDbTextStyleTableRecord
  2
STANDARD
 70
     0
 40
0.0
 41
1.0
 50
0.0
 71
     0
 42
6.0
  3
TXT
  4
bigfont.shx
  0
STYLE
  5
8B1
330
3
100
AcDbSymbolTableRecord
100
AcDbTextStyleTableRecord
  2
ｽﾀｲﾙ1
 70
     0
 40
0.0
 41
1.0
 50
0.0
 71
     0
 42
2.5
  3
MS PGothic.ttf
  4

1001
ACAD
1000
MS PGothic
1071
    32818
  0
ENDTAB
  0
TABLE
  2
VIEW
  5
6
330
0
100
AcDbSymbolTable
 70
     0
  0
ENDTAB
  0
TABLE
  2
UCS
  5
7
330
0
100
AcDbSymbolTable
 70
     0
  0
ENDTAB
  0
TABLE
  2
APPID
  5
9
330
0
100
AcDbSymbolTable
 70
     1
  0
APPID
  5
11
330
9
100
AcDbSymbolTableRecord
100
AcDbRegAppTableRecord
  2
ACAD
 70
     0
  0
ENDTAB
  0
TABLE
  2
DIMSTYLE
  5
A
330
0
100
AcDbSymbolTable
 70
     1
  0
DIMSTYLE
105
1D
102
{ACAD_REACTORS
330
5CB
330
626
330
633
330
64D
330
65C
330
685
330
692
330
69F
330
6AC
330
6BB
330
6CA
330
6D9
330
6E6
330
6FC
330
74A
330
757
102
}
330
A
100
AcDbSymbolTableRecord
100
AcDbDimStyleTableRecord
  2
STANDARD
 70
     0
  3

  4

  5

  6

  7

 40
1.0
 41
0.18
 42
0.0625
 43
0.38
 44
0.18
 45
0.0
 46
0.0
 47
0.0
 48
0.0
140
0.18
141
0.09
142
0.0
143
25.4
144
1.0
145
0.0
146
1.0
147
0.09
 71
     0
 72
     0
 73
     1
 74
     1
 75
     0
 76
     0
 77
     0
 78
     0
170
     0
171
     2
172
     0
173
     0
174
     0
175
     0
176
     0
177
     0
178
     0
270
     2
271
     4
272
     4
273
     2
274
     2
340
10
275
     0
280
     0
281
     0
282
     0
283
     1
284
     0
285
     0
286
     0
287
     3
288
     0
  0
ENDTAB
  0
TABLE
  2
BLOCK_RECORD
  5
1
330
0
100
AcDbSymbolTable
 70
    17
  0
BLOCK_RECORD
  5
1A
102
{ACAD_XDICTIONARY
360
8A2
102
}
330
1
100
AcDbSymbolTableRecord
100
AcDbBlockTableRecord
  2
*MODEL_SPACE
  0
BLOCK_RECORD
  5
17
102
{ACAD_XDICTIONARY
360
8A0
102
}
330
1
100
AcDbSymbolTableRecord
100
AcDbBlockTableRecord
  2
*PAPER_SPACE
  0
BLOCK_RECORD
  5
6D
330
1
100
AcDbSymbolTableRecord
100
AcDbBlockTableRecord
  2
_OPEN
  0
BLOCK_RECORD
  5
5BC
330
1
100
AcDbSymbolTableRecord
100
AcDbBlockTableRecord
  2
*D1
  0
BLOCK_RECORD
  5
61A
330
1
100
AcDbSymbolTableRecord
100
AcDbBlockTableRecord
  2
*D2
  0
BLOCK_RECORD
  5
627
330
1
100
AcDbSymbolTableRecord
100
AcDbBlockTableRecord
  2
*D3
  0
BLOCK_RECORD
  5
641
330
1
100
AcDbSymbolTableRecord
100
AcDbBlockTableRecord
  2
*D4
  0
BLOCK_RECORD
  5
64E
330
1
100
AcDbSymbolTableRecord
100
AcDbBlockTableRecord
  2
*D5
  0
BLOCK_RECORD
  5
677
330
1
100
AcDbSymbolTableRecord
100
AcDbBlockTableRecord
  2
*D6
  0
BLOCK_RECORD
  5
686
330
1
100
AcDbSymbolTableRecord
100
AcDbBlockTableRecord
  2
*D7
  0
BLOCK_RECORD
  5
693
330
1
100
AcDbSymbolTableRecord
100
AcDbBlockTableRecord
  2
*D8
  0
BLOCK_RECORD
  5
6A0
330
1
100
AcDbSymbolTableRecord
100
AcDbBlockTableRecord
  2
*D9
  0
BLOCK_RECORD
  5
6AD
330
1
100
AcDbSymbolTableRecord
100
AcDbBlockTableRecord
  2
*D10
  0
BLOCK_RECORD
  5
6BC
330
1
100
AcDbSymbolTableRecord
100
AcDbBlockTableRecord
  2
*D11
  0
BLOCK_RECORD
  5
6CB
330
1
100
AcDbSymbolTableRecord
100
AcDbBlockTableRecord
  2
*D12
  0
BLOCK_RECORD
  5
6DA
330
1
100
AcDbSymbolTableRecord
100
AcDbBlockTableRecord
  2
*D13
  0
BLOCK_RECORD
  5
6EE
330
1
100
AcDbSymbolTableRecord
100
AcDbBlockTableRecord
  2
*D14
  0
BLOCK_RECORD
  5
73E
330
1
100
AcDbSymbolTableRecord
100
AcDbBlockTableRecord
  2
*D15
  0
BLOCK_RECORD
  5
74B
330
1
100
AcDbSymbolTableRecord
100
AcDbBlockTableRecord
  2
*D16
  0
ENDTAB
  0
ENDSEC
  0
SECTION
  2
BLOCKS
  0
BLOCK
  5
1B
330
1A
100
AcDbEntity
  8
0
100
AcDbBlockBegin
  2
*MODEL_SPACE
 70
     0
 10
0.0
 20
0.0
 30
0.0
  3
*MODEL_SPACE
  1

  0
ENDBLK
  5
1C
330
1A
100
AcDbEntity
  8
0
100
AcDbBlockEnd
  0
BLOCK
  5
18
330
17
100
AcDbEntity
 67
     1
  8
0
100
AcDbBlockBegin
  2
*PAPER_SPACE
 70
     0
 10
0.0
 20
0.0
 30
0.0
  3
*PAPER_SPACE
  1

  0
ENDBLK
  5
19
330
17
100
AcDbEntity
 67
     1
  8
0
100
AcDbBlockEnd
  0
BLOCK
  5
6E
330
6D
100
AcDbEntity
  8
0
100
AcDbBlockBegin
  2
_OPEN
 70
     0
 10
0.0
 20
0.0
 30
0.0
  3
_OPEN
  1

  0
LINE
  5
6F
330
6D
100
AcDbEntity
  8
0
  6
BYBLOCK
 62
     0
100
AcDbLine
 10
-1.0
 20
0.1666666666666666
 30
0.0
 11
0.0
 21
0.0
 31
0.0
  0
LINE
  5
70
330
6D
100
AcDbEntity
  8
0
  6
BYBLOCK
 62
     0
100
AcDbLine
 10
0.0
 20
0.0
 30
0.0
 11
-1.0
 21
-0.1666666666666666
 31
0.0
  0
LINE
  5
71
330
6D
100
AcDbEntity
  8
0
  6
BYBLOCK
 62
     0
100
AcDbLine
 10
0.0
 20
0.0
 30
0.0
 11
-1.0
 21
0.0
 31
0.0
  0
ENDBLK
  5
72
330
6D
100
AcDbEntity
  8
0
100
AcDbBlockEnd
  0
BLOCK
  5
60D
330
5BC
100
AcDbEntity
  8
0
100
AcDbBlockBegin
  2
*D1
 70
     1
 10
0.0
 20
0.0
 30
0.0
  3
*D1
  1

  0
LINE
  5
A4E
330
5BC
100
AcDbEntity
  8
SUNPOU
 62
     4
100
AcDbLine
 10
402.1550328572102
 20
285.0686901194123
 30
0.0
 11
402.1550328572102
 21
263.5517119091166
 31
0.0
  0
LINE
  5
A4F
330
5BC
100
AcDbEntity
  8
SUNPOU
 62
     4
100
AcDbLine
 10
403.1550328572099
 20
285.0686901194123
 30
0.0
 11
403.1550328572099
 21
263.5517119091166
 31
0.0
  0
LINE
  5
A50
330
5BC
100
AcDbEntity
  8
SUNPOU
 62
     4
100
AcDbLine
 10
395.1550328572102
 20
266.5517119091166
 30
0.0
 11
388.1550328572101
 21
266.5517119091166
 31
0.0
  0
LINE
  5
A51
330
5BC
100
AcDbEntity
  8
SUNPOU
 62
     4
100
AcDbLine
 10
410.1550328572099
 20
266.5517119091166
 30
0.0
 11
436.1550328572099
 21
266.5517119091166
 31
0.0
  0
LINE
  5
A52
330
5BC
100
AcDbEntity
  8
SUNPOU
 62
     4
100
AcDbLine
 10
402.1550328572102
 20
266.5517119091166
 30
0.0
 11
403.1550328572099
 21
266.5517119091166
 31
0.0
  0
INSERT
  5
A53
330
5BC
100
AcDbEntity
  8
SUNPOU
 62
     4
100
AcDbBlockReference
  2
_OPEN
 10
402.1550328572102
 20
266.5517119091166
 30
0.0
 41
7.0
 42
7.0
 43
7.0
  0
INSERT
  5
A54
330
5BC
100
AcDbEntity
  8
SUNPOU
 62
     4
100
AcDbBlockReference
  2
_OPEN
 10
403.1550328572099
 20
266.5517119091166
 30
0.0
 41
7.0
 42
7.0
 43
7.0
 50
180.0
  0
MTEXT
  5
A55
330
5BC
100
AcDbEntity
  8
SUNPOU
 62
     4
100
AcDbMText
 10
426.6550328572099
 20
271.5517119091166
 30
0.0
 40
6.0
 41
0.0
 71
     5
 72
     1
  1
\A1;t1.0
1001
ACAD
1000
MTEXTBEGIN
1070
    73
1070
     1
1070
    44
1040
1.0
1070
    74
1070
     0
1000
MTEXTEND
  0
POINT
  5
A56
330
5BC
100
AcDbEntity
  8
DEFPOINTS
 62
     0
100
AcDbPoint
 10
402.1550328572102
 20
291.0686901194122
 30
0.0
  0
POINT
  5
A57
330
5BC
100
AcDbEntity
  8
DEFPOINTS
 62
     0
100
AcDbPoint
 10
403.1550328572099
 20
291.0686901194122
 30
0.0
  0
POINT
  5
A58
330
5BC
100
AcDbEntity
  8
DEFPOINTS
 62
     0
100
AcDbPoint
 10
403.1550328572099
 20
266.5517119091166
 30
0.0
  0
ENDBLK
  5
619
330
5BC
100
AcDbEntity
  8
0
100
AcDbBlockEnd
  0
BLOCK
  5
61B
330
61A
100
AcDbEntity
  8
0
100
AcDbBlockBegin
  2
*D2
 70
     1
 10
0.0
 20
0.0
 30
0.0
  3
*D2
  1

  0
LINE
  5
A81
330
61A
100
AcDbEntity
  8
SUNPOU
 62
     4
100
AcDbLine
 10
409.1550328572099
 20
326.0686901194123
 30
0.0
 11
444.0842680144948
 21
326.0686901194123
 31
0.0
  0
LINE
  5
A82
330
61A
100
AcDbEntity
  8
SUNPOU
 62
     4
100
AcDbLine
 10
409.1550328572099
 20
291.0686901194122
 30
0.0
 11
444.0842680144948
 21
291.0686901194122
 31
0.0
  0
LINE
  5
A83
330
61A
100
AcDbEntity
  8
SUNPOU
 62
     4
100
AcDbLine
 10
441.0842680144948
 20
319.0686901194122
 30
0.0
 11
441.0842680144948
 21
298.0686901194122
 31
0.0
  0
INSERT
  5
A84
330
61A
100
AcDbEntity
  8
SUNPOU
 62
     4
100
AcDbBlockReference
  2
_OPEN
 10
441.0842680144948
 20
326.0686901194123
 30
0.0
 41
7.0
 42
7.0
 43
7.0
 50
90.0
  0
INSERT
  5
A85
330
61A
100
AcDbEntity
  8
SUNPOU
 62
     4
100
AcDbBlockReference
  2
_OPEN
 10
441.0842680144948
 20
291.0686901194122
 30
0.0
 41
7.0
 42
7.0
 43
7.0
 50
270.0
  0
MTEXT
  5
A86
330
61A
100
AcDbEntity
  8
SUNPOU
 62
     4
100
AcDbMText
 10
436.0842680144948
 20
308.5686901194124
 30
0.0
 40
6.0
 41
0.0
 71
     5
 72
     1
  1
\A1;35
 11
0.0000000000000001
 21
1.0
 31
0.0
1001
ACAD
1000
MTEXTBEGIN
1070
    73
1070
     1
1070
    44
1040
1.0
1070
    74
1070
     0
1000
MTEXTEND
  0
POINT
  5
A87
330
61A
100
AcDbEntity
  8
DEFPOINTS
 62
     0
100
AcDbPoint
 10
403.1550328572099
 20
326.0686901194123
 30
0.0
  0
POINT
  5
A88
330
61A
100
AcDbEntity
  8
DEFPOINTS
 62
     0
100
AcDbPoint
 10
403.1550328572099
 20
291.0686901194122
 30
0.0
  0
POINT
  5
A89
330
61A
100
AcDbEntity
  8
DEFPOINTS
 62
     0
100
AcDbPoint
 10
441.0842680144948
 20
291.0686901194122
 30
0.0
  0
ENDBLK
  5
625
330
61A
100
AcDbEntity
  8
0
100
AcDbBlockEnd
  0
BLOCK
  5
628
330
627
100
AcDbEntity
  8
0
100
AcDbBlockBegin
  2
*D3
 70
     1
 10
0.0
 20
0.0
 30
0.0
  3
*D3
  1

  0
LINE
  5
A45
330
627
100
AcDbEntity
  8
SUNPOU
 62
     4
100
AcDbLine
 10
404.1550187252499
 20
340.6121172008954
 30
0.0
 11
460.2455694001729
 21
340.6121172008954
 31
0.0
  0
LINE
  5
A46
330
627
100
AcDbEntity
  8
SUNPOU
 62
     4
100
AcDbLine
 10
409.1550328572099
 20
291.0686901194122
 30
0.0
 11
460.2455694001729
 21
291.0686901194122
 31
0.0
  0
LINE
  5
A47
330
627
100
AcDbEntity
  8
SUNPOU
 62
     4
100
AcDbLine
 10
457.245569400173
 20
333.6121172008954
 30
0.0
 11
457.245569400173
 21
298.0686901194122
 31
0.0
  0
INSERT
  5
A48
330
627
100
AcDbEntity
  8
SUNPOU
 62
     4
100
AcDbBlockReference
  2
_OPEN
 10
457.245569400173
 20
340.6121172008954
 30
0.0
 41
7.0
 42
7.0
 43
7.0
 50
90.0
  0
INSERT
  5
A49
330
627
100
AcDbEntity
  8
SUNPOU
 62
     4
100
AcDbBlockReference
  2
_OPEN
 10
457.245569400173
 20
291.0686901194122
 30
0.0
 41
7.0
 42
7.0
 43
7.0
 50
270.0
  0
MTEXT
  5
A4A
330
627
100
AcDbEntity
  8
SUNPOU
 62
     4
100
AcDbMText
 10
452.2455694001729
 20
315.840403660154
 30
0.0
 40
6.0
 41
0.0
 71
     5
 72
     1
  1
\A1;50
 11
0.0000000000000001
 21
1.0
 31
0.0
1001
ACAD
1000
MTEXTBEGIN
1070
    73
1070
     1
1070
    44
1040
1.0
1070
    74
1070
     0
1000
MTEXTEND
  0
POINT
  5
A4B
330
627
100
AcDbEntity
  8
DEFPOINTS
 62
     0
100
AcDbPoint
 10
398.1550187252499
 20
340.6121172008954
 30
0.0
  0
POINT
  5
A4C
330
627
100
AcDbEntity
  8
DEFPOINTS
 62
     0
100
AcDbPoint
 10
403.1550328572099
 20
291.0686901194122
 30
0.0
  0
POINT
  5
A4D
330
627
100
AcDbEntity
  8
DEFPOINTS
 62
     0
100
AcDbPoint
 10
457.245569400173
 20
291.0686901194122
 30
0.0
  0
ENDBLK
  5
632
330
627
100
AcDbEntity
  8
0
100
AcDbBlockEnd
  0
BLOCK
  5
763
330
641
100
AcDbEntity
  8
0
100
AcDbBlockBegin
  2
*D4
 70
     1
 10
0.0
 20
0.0
 30
0.0
  3
*D4
  1

  0
LINE
  5
A3C
330
641
100
AcDbEntity
  8
SUNPOU
 62
     4
100
AcDbLine
 10
273.1550328572101
 20
314.1072901194123
 30
0.0
 11
273.1550328572101
 21
376.4028632476891
 31
0.0
  0
LINE
  5
A3D
330
641
100
AcDbEntity
  8
SUNPOU
 62
     4
100
AcDbLine
 10
403.1550328572099
 20
341.6120901194123
 30
0.0
 11
403.1550328572099
 21
376.4028632476891
 31
0.0
  0
LINE
  5
A3E
330
641
100
AcDbEntity
  8
SUNPOU
 62
     4
100
AcDbLine
 10
280.1550328572101
 20
373.402863247689
 30
0.0
 11
396.1550328572099
 21
373.402863247689
 31
0.0
  0
INSERT
  5
A3F
330
641
100
AcDbEntity
  8
SUNPOU
 62
     4
100
AcDbBlockReference
  2
_OPEN
 10
273.1550328572101
 20
373.402863247689
 30
0.0
 41
7.0
 42
7.0
 43
7.0
 50
180.0
  0
INSERT
  5
A40
330
641
100
AcDbEntity
  8
SUNPOU
 62
     4
100
AcDbBlockReference
  2
_OPEN
 10
403.1550328572099
 20
373.402863247689
 30
0.0
 41
7.0
 42
7.0
 43
7.0
  0
MTEXT
  5
A41
330
641
100
AcDbEntity
  8
SUNPOU
 62
     4
100
AcDbMText
 10
338.15503285721
 20
378.4028632476891
 30
0.0
 40
6.0
 41
0.0
 71
     5
 72
     1
  1
\A1;130
1001
ACAD
1000
MTEXTBEGIN
1070
    73
1070
     1
1070
    44
1040
1.0
1070
    74
1070
     0
1000
MTEXTEND
  0
POINT
  5
A42
330
641
100
AcDbEntity
  8
DEFPOINTS
 62
     0
100
AcDbPoint
 10
273.1550328572101
 20
308.1072901194123
 30
0.0
  0
POINT
  5
A43
330
641
100
AcDbEntity
  8
DEFPOINTS
 62
     0
100
AcDbPoint
 10
403.1550328572099
 20
335.6120901194123
 30
0.0
  0
POINT
  5
A44
330
641
100
AcDbEntity
  8
DEFPOINTS
 62
     0
100
AcDbPoint
 10
403.1550328572099
 20
373.402863247689
 30
0.0
  0
ENDBLK
  5
76D
330
641
100
AcDbEntity
  8
0
100
AcDbBlockEnd
  0
BLOCK
  5
76E
330
64E
100
AcDbEntity
  8
0
100
AcDbBlockBegin
  2
*D5
 70
     1
 10
0.0
 20
0.0
 30
0.0
  3
*D5
  1

  0
LINE
  5
A31
330
64E
100
AcDbEntity
  8
SUNPOU
 62
     4
100
AcDbLine
 10
403.1550328572099
 20
341.6120901194123
 30
0.0
 11
403.1550328572099
 21
376.4028632476891
 31
0.0
  0
LINE
  5
A32
330
64E
100
AcDbEntity
  8
SUNPOU
 62
     4
100
AcDbLine
 10
418.1550328572101
 20
341.6120901194123
 30
0.0
 11
418.1550328572101
 21
376.4028632476891
 31
0.0
  0
LINE
  5
A33
330
64E
100
AcDbEntity
  8
SUNPOU
 62
     4
100
AcDbLine
 10
396.1550328572099
 20
373.402863247689
 30
0.0
 11
389.1550328572099
 21
373.402863247689
 31
0.0
  0
LINE
  5
A34
330
64E
100
AcDbEntity
  8
SUNPOU
 62
     4
100
AcDbLine
 10
425.1550328572101
 20
373.402863247689
 30
0.0
 11
432.1550328572102
 21
373.402863247689
 31
0.0
  0
LINE
  5
A35
330
64E
100
AcDbEntity
  8
SUNPOU
 62
     4
100
AcDbLine
 10
403.1550328572099
 20
373.402863247689
 30
0.0
 11
418.1550328572101
 21
373.402863247689
 31
0.0
  0
INSERT
  5
A36
330
64E
100
AcDbEntity
  8
SUNPOU
 62
     4
100
AcDbBlockReference
  2
_OPEN
 10
403.1550328572099
 20
373.402863247689
 30
0.0
 41
7.0
 42
7.0
 43
7.0
  0
INSERT
  5
A37
330
64E
100
AcDbEntity
  8
SUNPOU
 62
     4
100
AcDbBlockReference
  2
_OPEN
 10
418.1550328572101
 20
373.402863247689
 30
0.0
 41
7.0
 42
7.0
 43
7.0
 50
180.0
  0
MTEXT
  5
A38
330
64E
100
AcDbEntity
  8
SUNPOU
 62
     4
100
AcDbMText
 10
410.65503285721
 20
378.4028632476891
 30
0.0
 40
6.0
 41
0.0
 71
     5
 72
     1
  1
\A1;15
1001
ACAD
1000
MTEXTBEGIN
1070
    73
1070
     1
1070
    44
1040
1.0
1070
    74
1070
     0
1000
MTEXTEND
  0
POINT
  5
A39
330
64E
100
AcDbEntity
  8
DEFPOINTS
 62
     0
100
AcDbPoint
 10
403.1550328572099
 20
335.6120901194123
 30
0.0
  0
POINT
  5
A3A
330
64E
100
AcDbEntity
  8
DEFPOINTS
 62
     0
100
AcDbPoint
 10
418.1550328572101
 20
335.6120901194123
 30
0.0
  0
POINT
  5
A3B
330
64E
100
AcDbEntity
  8
DEFPOINTS
 62
     0
100
AcDbPoint
 10
418.1550328572101
 20
373.402863247689
 30
0.0
  0
ENDBLK
  5
77A
330
64E
100
AcDbEntity
  8
0
100
AcDbBlockEnd
  0
BLOCK
  5
7B4
330
677
100
AcDbEntity
  8
0
100
AcDbBlockBegin
  2
*D6
 70
     1
 10
0.0
 20
0.0
 30
0.0
  3
*D6
  1

  0
LINE
  5
A62
330
677
100
AcDbEntity
  8
SUNPOU
 62
     4
100
AcDbLine
 10
237.0574328572101
 20
456.3695728123277
 30
0.0
 11
211.8249744621157
 21
456.3695728123277
 31
0.0
  0
LINE
  5
A63
330
677
100
AcDbEntity
  8
SUNPOU
 62
     4
100
AcDbLine
 10
237.0574328572101
 20
443.7695728123276
 30
0.0
 11
211.8249744621157
 21
443.7695728123276
 31
0.0
  0
LINE
  5
A64
330
677
100
AcDbEntity
  8
SUNPOU
 62
     4
100
AcDbLine
 10
214.8249744621157
 20
463.3695728123277
 30
0.0
 11
214.8249744621157
 21
470.3695728123276
 31
0.0
  0
LINE
  5
A65
330
677
100
AcDbEntity
  8
SUNPOU
 62
     4
100
AcDbLine
 10
214.8249744621157
 20
436.7695728123276
 30
0.0
 11
214.8249744621157
 21
429.7695728123277
 31
0.0
  0
LINE
  5
A66
330
677
100
AcDbEntity
  8
SUNPOU
 62
     4
100
AcDbLine
 10
214.8249744621157
 20
456.3695728123277
 30
0.0
 11
214.8249744621157
 21
443.7695728123276
 31
0.0
  0
INSERT
  5
A67
330
677
100
AcDbEntity
  8
SUNPOU
 62
     4
100
AcDbBlockReference
  2
_OPEN
 10
214.8249744621157
 20
456.3695728123277
 30
0.0
 41
7.0
 42
7.0
 43
7.0
 50
270.0
  0
INSERT
  5
A68
330
677
100
AcDbEntity
  8
SUNPOU
 62
     4
100
AcDbBlockReference
  2
_OPEN
 10
214.8249744621157
 20
443.7695728123276
 30
0.0
 41
7.0
 42
7.0
 43
7.0
 50
90.0
  0
MTEXT
  5
A69
330
677
100
AcDbEntity
  8
SUNPOU
 62
     4
100
AcDbMText
 10
209.8249744621156
 20
450.0695728123277
 30
0.0
 40
6.0
 41
0.0
 71
     5
 72
     1
  1
\A1;13
 11
0.0000000000000001
 21
1.0
 31
0.0
1001
ACAD
1000
MTEXTBEGIN
1070
    73
1070
     1
1070
    44
1040
1.0
1070
    74
1070
     0
1000
MTEXTEND
  0
POINT
  5
A6A
330
677
100
AcDbEntity
  8
DEFPOINTS
 62
     0
100
AcDbPoint
 10
243.0574328572101
 20
456.3695728123277
 30
0.0
  0
POINT
  5
A6B
330
677
100
AcDbEntity
  8
DEFPOINTS
 62
     0
100
AcDbPoint
 10
243.0574328572101
 20
443.7695728123276
 30
0.0
  0
POINT
  5
A6C
330
677
100
AcDbEntity
  8
DEFPOINTS
 62
     0
100
AcDbPoint
 10
214.8249744621157
 20
443.7695728123276
 30
0.0
  0
ENDBLK
  5
7C0
330
677
100
AcDbEntity
  8
0
100
AcDbBlockEnd
  0
BLOCK
  5
687
330
686
100
AcDbEntity
  8
0
100
AcDbBlockBegin
  2
*D7
 70
     1
 10
0.0
 20
0.0
 30
0.0
  3
*D7
  1

  0
LINE
  5
AA0
330
686
100
AcDbEntity
  8
SUNPOU
 62
     4
100
AcDbLine
 10
409.1550328572099
 20
473.3195728123276
 30
0.0
 11
444.0842680144948
 21
473.3195728123276
 31
0.0
  0
LINE
  5
AA1
330
686
100
AcDbEntity
  8
SUNPOU
 62
     4
100
AcDbLine
 10
409.1550328572099
 20
426.8195728123276
 30
0.0
 11
444.0842680144948
 21
426.8195728123276
 31
0.0
  0
LINE
  5
AA2
330
686
100
AcDbEntity
  8
SUNPOU
 62
     4
100
AcDbLine
 10
441.0842680144948
 20
466.3195728123276
 30
0.0
 11
441.0842680144948
 21
433.8195728123276
 31
0.0
  0
INSERT
  5
AA3
330
686
100
AcDbEntity
  8
SUNPOU
 62
     4
100
AcDbBlockReference
  2
_OPEN
 10
441.0842680144948
 20
473.3195728123276
 30
0.0
 41
7.0
 42
7.0
 43
7.0
 50
90.0
  0
INSERT
  5
AA4
330
686
100
AcDbEntity
  8
SUNPOU
 62
     4
100
AcDbBlockReference
  2
_OPEN
 10
441.0842680144948
 20
426.8195728123276
 30
0.0
 41
7.0
 42
7.0
 43
7.0
 50
270.0
  0
MTEXT
  5
AA5
330
686
100
AcDbEntity
  8
SUNPOU
 62
     4
100
AcDbMText
 10
436.0842680144947
 20
450.0695728123277
 30
0.0
 40
6.0
 41
0.0
 71
     5
 72
     1
  1
\A1;47
 11
0.0000000000000001
 21
1.0
 31
0.0
1001
ACAD
1000
MTEXTBEGIN
1070
    73
1070
     1
1070
    44
1040
1.0
1070
    74
1070
     0
1000
MTEXTEND
  0
POINT
  5
AA6
330
686
100
AcDbEntity
  8
DEFPOINTS
 62
     0
100
AcDbPoint
 10
403.1550328572099
 20
473.3195728123276
 30
0.0
  0
POINT
  5
AA7
330
686
100
AcDbEntity
  8
DEFPOINTS
 62
     0
100
AcDbPoint
 10
403.1550328572099
 20
426.8195728123276
 30
0.0
  0
POINT
  5
AA8
330
686
100
AcDbEntity
  8
DEFPOINTS
 62
     0
100
AcDbPoint
 10
441.0842680144948
 20
426.8195728123276
 30
0.0
  0
ENDBLK
  5
691
330
686
100
AcDbEntity
  8
0
100
AcDbBlockEnd
  0
BLOCK
  5
791
330
693
100
AcDbEntity
  8
0
100
AcDbBlockBegin
  2
*D8
 70
     1
 10
0.0
 20
0.0
 30
0.0
  3
*D8
  1

  0
LINE
  5
AB2
330
693
100
AcDbEntity
  8
SUNPOU
 62
     4
100
AcDbLine
 10
579.0905954016242
 20
328.7542901194123
 30
0.0
 11
579.0905954016242
 21
361.9806487088037
 31
0.0
  0
LINE
  5
AB3
330
693
100
AcDbEntity
  8
SUNPOU
 62
     4
100
AcDbLine
 10
615.090595401624
 20
328.7542901194123
 30
0.0
 11
615.090595401624
 21
361.9806487088037
 31
0.0
  0
LINE
  5
AB4
330
693
100
AcDbEntity
  8
SUNPOU
 62
     4
100
AcDbLine
 10
586.0905954016242
 20
358.9806487088037
 30
0.0
 11
608.0905954016239
 21
358.9806487088037
 31
0.0
  0
INSERT
  5
AB5
330
693
100
AcDbEntity
  8
SUNPOU
 62
     4
100
AcDbBlockReference
  2
_OPEN
 10
579.0905954016242
 20
358.9806487088037
 30
0.0
 41
7.0
 42
7.0
 43
7.0
 50
180.0
  0
INSERT
  5
AB6
330
693
100
AcDbEntity
  8
SUNPOU
 62
     4
100
AcDbBlockReference
  2
_OPEN
 10
615.090595401624
 20
358.9806487088037
 30
0.0
 41
7.0
 42
7.0
 43
7.0
  0
MTEXT
  5
AB7
330
693
100
AcDbEntity
  8
SUNPOU
 62
     4
100
AcDbMText
 10
597.0905954016241
 20
363.9806487088037
 30
0.0
 40
6.0
 41
0.0
 71
     5
 72
     1
  1
\A1;36
1001
ACAD
1000
MTEXTBEGIN
1070
    73
1070
     1
1070
    44
1040
1.0
1070
    74
1070
     0
1000
MTEXTEND
  0
POINT
  5
AB8
330
693
100
AcDbEntity
  8
DEFPOINTS
 62
     0
100
AcDbPoint
 10
579.0905954016242
 20
322.7542901194123
 30
0.0
  0
POINT
  5
AB9
330
693
100
AcDbEntity
  8
DEFPOINTS
 62
     0
100
AcDbPoint
 10
615.090595401624
 20
322.7542901194123
 30
0.0
  0
POINT
  5
ABA
330
693
100
AcDbEntity
  8
DEFPOINTS
 62
     0
100
AcDbPoint
 10
615.090595401624
 20
358.9806487088037
 30
0.0
  0
ENDBLK
  5
79B
330
693
100
AcDbEntity
  8
0
100
AcDbBlockEnd
  0
BLOCK
  5
79C
330
6A0
100
AcDbEntity
  8
0
100
AcDbBlockBegin
  2
*D9
 70
     1
 10
0.0
 20
0.0
 30
0.0
  3
*D9
  1

  0
LINE
  5
AA9
330
6A0
100
AcDbEntity
  8
SUNPOU
 62
     4
100
AcDbLine
 10
573.8405954016242
 20
330.0686901194122
 30
0.0
 11
573.8405954016242
 21
375.415513269701
 31
0.0
  0
LINE
  5
AAA
330
6A0
100
AcDbEntity
  8
SUNPOU
 62
     4
100
AcDbLine
 10
620.340595401624
 20
330.0686901194122
 30
0.0
 11
620.340595401624
 21
375.415513269701
 31
0.0
  0
LINE
  5
AAB
330
6A0
100
AcDbEntity
  8
SUNPOU
 62
     4
100
AcDbLine
 10
580.8405954016242
 20
372.415513269701
 30
0.0
 11
613.340595401624
 21
372.415513269701
 31
0.0
  0
INSERT
  5
AAC
330
6A0
100
AcDbEntity
  8
SUNPOU
 62
     4
100
AcDbBlockReference
  2
_OPEN
 10
573.8405954016242
 20
372.415513269701
 30
0.0
 41
7.0
 42
7.0
 43
7.0
 50
180.0
  0
INSERT
  5
AAD
330
6A0
100
AcDbEntity
  8
SUNPOU
 62
     4
100
AcDbBlockReference
  2
_OPEN
 10
620.340595401624
 20
372.415513269701
 30
0.0
 41
7.0
 42
7.0
 43
7.0
  0
MTEXT
  5
AAE
330
6A0
100
AcDbEntity
  8
SUNPOU
 62
     4
100
AcDbMText
 10
597.0905954016241
 20
377.415513269701
 30
0.0
 40
6.0
 41
0.0
 71
     5
 72
     1
  1
\A1;47
1001
ACAD
1000
MTEXTBEGIN
1070
    73
1070
     1
1070
    44
1040
1.0
1070
    74
1070
     0
1000
MTEXTEND
  0
POINT
  5
AAF
330
6A0
100
AcDbEntity
  8
DEFPOINTS
 62
     0
100
AcDbPoint
 10
573.8405954016242
 20
324.0686901194123
 30
0.0
  0
POINT
  5
AB0
330
6A0
100
AcDbEntity
  8
DEFPOINTS
 62
     0
100
AcDbPoint
 10
620.340595401624
 20
324.0686901194123
 30
0.0
  0
POINT
  5
AB1
330
6A0
100
AcDbEntity
  8
DEFPOINTS
 62
     0
100
AcDbPoint
 10
620.340595401624
 20
372.415513269701
 30
0.0
  0
ENDBLK
  5
7A6
330
6A0
100
AcDbEntity
  8
0
100
AcDbBlockEnd
  0
BLOCK
  5
723
330
6AD
100
AcDbEntity
  8
0
100
AcDbBlockBegin
  2
*D10
 70
     1
 10
0.0
 20
0.0
 30
0.0
  3
*D10
  1

  0
LINE
  5
A95
330
6AD
100
AcDbEntity
  8
SUNPOU
 62
     4
100
AcDbLine
 10
569.7254954016242
 20
319.0686901194122
 30
0.0
 11
522.5097019982377
 21
319.0686901194122
 31
0.0
  0
LINE
  5
A96
330
6AD
100
AcDbEntity
  8
SUNPOU
 62
     4
100
AcDbLine
 10
567.8405954016242
 20
326.0686901194123
 30
0.0
 11
522.5097019982377
 21
326.0686901194123
 31
0.0
  0
LINE
  5
A97
330
6AD
100
AcDbEntity
  8
SUNPOU
 62
     4
100
AcDbLine
 10
525.5097019982376
 20
312.0686901194122
 30
0.0
 11
525.5097019982376
 21
305.0686901194122
 31
0.0
  0
LINE
  5
A98
330
6AD
100
AcDbEntity
  8
SUNPOU
 62
     4
100
AcDbLine
 10
525.5097019982376
 20
333.0686901194122
 30
0.0
 11
525.5097019982376
 21
348.0686901194122
 31
0.0
  0
LINE
  5
A99
330
6AD
100
AcDbEntity
  8
SUNPOU
 62
     4
100
AcDbLine
 10
525.5097019982376
 20
319.0686901194122
 30
0.0
 11
525.5097019982376
 21
326.0686901194123
 31
0.0
  0
INSERT
  5
A9A
330
6AD
100
AcDbEntity
  8
SUNPOU
 62
     4
100
AcDbBlockReference
  2
_OPEN
 10
525.5097019982376
 20
319.0686901194122
 30
0.0
 41
7.0
 42
7.0
 43
7.0
 50
90.0
  0
INSERT
  5
A9B
330
6AD
100
AcDbEntity
  8
SUNPOU
 62
     4
100
AcDbBlockReference
  2
_OPEN
 10
525.5097019982376
 20
326.0686901194123
 30
0.0
 41
7.0
 42
7.0
 43
7.0
 50
270.0
  0
MTEXT
  5
A9C
330
6AD
100
AcDbEntity
  8
SUNPOU
 62
     4
100
AcDbMText
 10
520.5097019982376
 20
344.0686901194123
 30
0.0
 40
6.0
 41
0.0
 71
     5
 72
     1
  1
\A1;7
 11
0.0000000000000001
 21
1.0
 31
0.0
1001
ACAD
1000
MTEXTBEGIN
1070
    73
1070
     1
1070
    44
1040
1.0
1070
    74
1070
     0
1000
MTEXTEND
  0
POINT
  5
A9D
330
6AD
100
AcDbEntity
  8
DEFPOINTS
 62
     0
100
AcDbPoint
 10
575.7254954016242
 20
319.0686901194122
 30
0.0
  0
POINT
  5
A9E
330
6AD
100
AcDbEntity
  8
DEFPOINTS
 62
     0
100
AcDbPoint
 10
573.8405954016242
 20
326.0686901194123
 30
0.0
  0
POINT
  5
A9F
330
6AD
100
AcDbEntity
  8
DEFPOINTS
 62
     0
100
AcDbPoint
 10
525.5097019982376
 20
326.0686901194123
 30
0.0
  0
ENDBLK
  5
72F
330
6AD
100
AcDbEntity
  8
0
100
AcDbBlockEnd
  0
BLOCK
  5
6FE
330
6BC
100
AcDbEntity
  8
0
100
AcDbBlockBegin
  2
*D11
 70
     1
 10
0.0
 20
0.0
 30
0.0
  3
*D11
  1

  0
LINE
  5
A76
330
6BC
100
AcDbEntity
  8
SUNPOU
 62
     4
100
AcDbLine
 10
569.9763954016242
 20
298.0686901194122
 30
0.0
 11
522.5097019982377
 21
298.0686901194122
 31
0.0
  0
LINE
  5
A77
330
6BC
100
AcDbEntity
  8
SUNPOU
 62
     4
100
AcDbLine
 10
567.8405954016242
 20
291.0686901194122
 30
0.0
 11
522.5097019982377
 21
291.0686901194122
 31
0.0
  0
LINE
  5
A78
330
6BC
100
AcDbEntity
  8
SUNPOU
 62
     4
100
AcDbLine
 10
525.5097019982376
 20
305.0686901194122
 30
0.0
 11
525.5097019982376
 21
312.0686901194122
 31
0.0
  0
LINE
  5
A79
330
6BC
100
AcDbEntity
  8
SUNPOU
 62
     4
100
AcDbLine
 10
525.5097019982376
 20
284.0686901194122
 30
0.0
 11
525.5097019982376
 21
269.0686901194122
 31
0.0
  0
LINE
  5
A7A
330
6BC
100
AcDbEntity
  8
SUNPOU
 62
     4
100
AcDbLine
 10
525.5097019982376
 20
298.0686901194122
 30
0.0
 11
525.5097019982376
 21
291.0686901194122
 31
0.0
  0
INSERT
  5
A7B
330
6BC
100
AcDbEntity
  8
SUNPOU
 62
     4
100
AcDbBlockReference
  2
_OPEN
 10
525.5097019982376
 20
298.0686901194122
 30
0.0
 41
7.0
 42
7.0
 43
7.0
 50
270.0
  0
INSERT
  5
A7C
330
6BC
100
AcDbEntity
  8
SUNPOU
 62
     4
100
AcDbBlockReference
  2
_OPEN
 10
525.5097019982376
 20
291.0686901194122
 30
0.0
 41
7.0
 42
7.0
 43
7.0
 50
90.0
  0
MTEXT
  5
A7D
330
6BC
100
AcDbEntity
  8
SUNPOU
 62
     4
100
AcDbMText
 10
520.5097019982376
 20
273.0686901194123
 30
0.0
 40
6.0
 41
0.0
 71
     5
 72
     1
  1
\A1;7
 11
0.0000000000000001
 21
1.0
 31
0.0
1001
ACAD
1000
MTEXTBEGIN
1070
    73
1070
     1
1070
    44
1040
1.0
1070
    74
1070
     0
1000
MTEXTEND
  0
POINT
  5
A7E
330
6BC
100
AcDbEntity
  8
DEFPOINTS
 62
     0
100
AcDbPoint
 10
575.9763954016242
 20
298.0686901194122
 30
0.0
  0
POINT
  5
A7F
330
6BC
100
AcDbEntity
  8
DEFPOINTS
 62
     0
100
AcDbPoint
 10
573.8405954016242
 20
291.0686901194122
 30
0.0
  0
POINT
  5
A80
330
6BC
100
AcDbEntity
  8
DEFPOINTS
 62
     0
100
AcDbPoint
 10
525.5097019982376
 20
291.0686901194122
 30
0.0
  0
ENDBLK
  5
70A
330
6BC
100
AcDbEntity
  8
0
100
AcDbBlockEnd
  0
BLOCK
  5
716
330
6CB
100
AcDbEntity
  8
0
100
AcDbBlockBegin
  2
*D12
 70
     1
 10
0.0
 20
0.0
 30
0.0
  3
*D12
  1

  0
LINE
  5
A8A
330
6CB
100
AcDbEntity
  8
SUNPOU
 62
     4
100
AcDbLine
 10
567.8405954016242
 20
326.0686901194123
 30
0.0
 11
506.0762211965047
 21
326.0686901194123
 31
0.0
  0
LINE
  5
A8B
330
6CB
100
AcDbEntity
  8
SUNPOU
 62
     4
100
AcDbLine
 10
568.5252954016242
 20
313.0686901194122
 30
0.0
 11
506.0762211965047
 21
313.0686901194122
 31
0.0
  0
LINE
  5
A8C
330
6CB
100
AcDbEntity
  8
SUNPOU
 62
     4
100
AcDbLine
 10
509.0762211965047
 20
333.0686901194122
 30
0.0
 11
509.0762211965047
 21
340.0686901194122
 31
0.0
  0
LINE
  5
A8D
330
6CB
100
AcDbEntity
  8
SUNPOU
 62
     4
100
AcDbLine
 10
509.0762211965047
 20
306.0686901194122
 30
0.0
 11
509.0762211965047
 21
299.0686901194123
 31
0.0
  0
LINE
  5
A8E
330
6CB
100
AcDbEntity
  8
SUNPOU
 62
     4
100
AcDbLine
 10
509.0762211965047
 20
326.0686901194123
 30
0.0
 11
509.0762211965047
 21
313.0686901194122
 31
0.0
  0
INSERT
  5
A8F
330
6CB
100
AcDbEntity
  8
SUNPOU
 62
     4
100
AcDbBlockReference
  2
_OPEN
 10
509.0762211965047
 20
326.0686901194123
 30
0.0
 41
7.0
 42
7.0
 43
7.0
 50
270.0
  0
INSERT
  5
A90
330
6CB
100
AcDbEntity
  8
SUNPOU
 62
     4
100
AcDbBlockReference
  2
_OPEN
 10
509.0762211965047
 20
313.0686901194122
 30
0.0
 41
7.0
 42
7.0
 43
7.0
 50
90.0
  0
MTEXT
  5
A91
330
6CB
100
AcDbEntity
  8
SUNPOU
 62
     4
100
AcDbMText
 10
504.0762211965047
 20
319.5686901194123
 30
0.0
 40
6.0
 41
0.0
 71
     5
 72
     1
  1
\A1;13
 11
0.0000000000000001
 21
1.0
 31
0.0
1001
ACAD
1000
MTEXTBEGIN
1070
    73
1070
     1
1070
    44
1040
1.0
1070
    74
1070
     0
1000
MTEXTEND
  0
POINT
  5
A92
330
6CB
100
AcDbEntity
  8
DEFPOINTS
 62
     0
100
AcDbPoint
 10
573.8405954016242
 20
326.0686901194123
 30
0.0
  0
POINT
  5
A93
330
6CB
100
AcDbEntity
  8
DEFPOINTS
 62
     0
100
AcDbPoint
 10
574.5252954016242
 20
313.0686901194122
 30
0.0
  0
POINT
  5
A94
330
6CB
100
AcDbEntity
  8
DEFPOINTS
 62
     0
100
AcDbPoint
 10
509.0762211965047
 20
313.0686901194122
 30
0.0
  0
ENDBLK
  5
722
330
6CB
100
AcDbEntity
  8
0
100
AcDbBlockEnd
  0
BLOCK
  5
70B
330
6DA
100
AcDbEntity
  8
0
100
AcDbBlockBegin
  2
*D13
 70
     1
 10
0.0
 20
0.0
 30
0.0
  3
*D13
  1

  0
LINE
  5
A6D
330
6DA
100
AcDbEntity
  8
SUNPOU
 62
     4
100
AcDbLine
 10
567.8405954016242
 20
326.0686901194123
 30
0.0
 11
490.3677480523019
 21
326.0686901194123
 31
0.0
  0
LINE
  5
A6E
330
6DA
100
AcDbEntity
  8
SUNPOU
 62
     4
100
AcDbLine
 10
567.8405954016242
 20
291.0686901194122
 30
0.0
 11
490.3677480523019
 21
291.0686901194122
 31
0.0
  0
LINE
  5
A6F
330
6DA
100
AcDbEntity
  8
SUNPOU
 62
     4
100
AcDbLine
 10
493.3677480523019
 20
319.0686901194122
 30
0.0
 11
493.3677480523019
 21
298.0686901194122
 31
0.0
  0
INSERT
  5
A70
330
6DA
100
AcDbEntity
  8
SUNPOU
 62
     4
100
AcDbBlockReference
  2
_OPEN
 10
493.3677480523019
 20
326.0686901194123
 30
0.0
 41
7.0
 42
7.0
 43
7.0
 50
90.0
  0
INSERT
  5
A71
330
6DA
100
AcDbEntity
  8
SUNPOU
 62
     4
100
AcDbBlockReference
  2
_OPEN
 10
493.3677480523019
 20
291.0686901194122
 30
0.0
 41
7.0
 42
7.0
 43
7.0
 50
270.0
  0
MTEXT
  5
A72
330
6DA
100
AcDbEntity
  8
SUNPOU
 62
     4
100
AcDbMText
 10
488.3677480523019
 20
308.5686901194123
 30
0.0
 40
6.0
 41
0.0
 71
     5
 72
     1
  1
\A1;35
 11
0.0000000000000001
 21
1.0
 31
0.0
1001
ACAD
1000
MTEXTBEGIN
1070
    73
1070
     1
1070
    44
1040
1.0
1070
    74
1070
     0
1000
MTEXTEND
  0
POINT
  5
A73
330
6DA
100
AcDbEntity
  8
DEFPOINTS
 62
     0
100
AcDbPoint
 10
573.8405954016242
 20
326.0686901194123
 30
0.0
  0
POINT
  5
A74
330
6DA
100
AcDbEntity
  8
DEFPOINTS
 62
     0
100
AcDbPoint
 10
573.8405954016242
 20
291.0686901194122
 30
0.0
  0
POINT
  5
A75
330
6DA
100
AcDbEntity
  8
DEFPOINTS
 62
     0
100
AcDbPoint
 10
493.3677480523019
 20
291.0686901194122
 30
0.0
  0
ENDBLK
  5
715
330
6DA
100
AcDbEntity
  8
0
100
AcDbBlockEnd
  0
BLOCK
  5
7A7
330
6EE
100
AcDbEntity
  8
0
100
AcDbBlockBegin
  2
*D14
 70
     1
 10
0.0
 20
0.0
 30
0.0
  3
*D14
  1

  0
LINE
  5
A59
330
6EE
100
AcDbEntity
  8
SUNPOU
 62
     4
100
AcDbLine
 10
391.1550328572102
 20
291.0686901194122
 30
0.0
 11
210.0982744621157
 21
291.0686901194123
 31
0.0
  0
LINE
  5
A5A
330
6EE
100
AcDbEntity
  8
SUNPOU
 62
     4
100
AcDbLine
 10
236.6806328572101
 20
311.9072901194122
 30
0.0
 11
210.0982744621157
 21
311.9072901194122
 31
0.0
  0
LINE
  5
A5B
330
6EE
100
AcDbEntity
  8
SUNPOU
 62
     4
100
AcDbLine
 10
213.0982744621157
 20
298.0686901194123
 30
0.0
 11
213.0982744621157
 21
304.9072901194122
 31
0.0
  0
INSERT
  5
A5C
330
6EE
100
AcDbEntity
  8
SUNPOU
 62
     4
100
AcDbBlockReference
  2
_OPEN
 10
213.0982744621157
 20
291.0686901194123
 30
0.0
 41
7.0
 42
7.0
 43
7.0
 50
270.0
  0
INSERT
  5
A5D
330
6EE
100
AcDbEntity
  8
SUNPOU
 62
     4
100
AcDbBlockReference
  2
_OPEN
 10
213.0982744621157
 20
311.9072901194122
 30
0.0
 41
7.0
 42
7.0
 43
7.0
 50
90.0
  0
MTEXT
  5
A5E
330
6EE
100
AcDbEntity
  8
SUNPOU
 62
     4
100
AcDbMText
 10
208.0982744621157
 20
301.4879901194122
 30
0.0
 40
6.0
 41
0.0
 71
     5
 72
     1
  1
\A1;21
 11
0.0000000000000001
 21
1.0
 31
0.0
1001
ACAD
1000
MTEXTBEGIN
1070
    73
1070
     1
1070
    44
1040
1.0
1070
    74
1070
     0
1000
MTEXTEND
  0
POINT
  5
A5F
330
6EE
100
AcDbEntity
  8
DEFPOINTS
 62
     0
100
AcDbPoint
 10
397.1550328572102
 20
291.0686901194122
 30
0.0
  0
POINT
  5
A60
330
6EE
100
AcDbEntity
  8
DEFPOINTS
 62
     0
100
AcDbPoint
 10
242.6806328572101
 20
311.9072901194122
 30
0.0
  0
POINT
  5
A61
330
6EE
100
AcDbEntity
  8
DEFPOINTS
 62
     0
100
AcDbPoint
 10
213.0982744621157
 20
311.9072901194122
 30
0.0
  0
ENDBLK
  5
7B3
330
6EE
100
AcDbEntity
  8
0
100
AcDbBlockEnd
  0
BLOCK
  5
77B
330
73E
100
AcDbEntity
  8
0
100
AcDbBlockBegin
  2
*D15
 70
     1
 10
0.0
 20
0.0
 30
0.0
  3
*D15
  1

  0
LINE
  5
A28
330
73E
100
AcDbEntity
  8
SUNPOU
 62
     4
100
AcDbLine
 10
359.8765328572102
 20
322.091490119412
 30
0.0
 11
359.8765328572102
 21
361.5295641100804
 31
0.0
  0
LINE
  5
A29
330
73E
100
AcDbEntity
  8
SUNPOU
 62
     4
100
AcDbLine
 10
403.1550328572099
 20
341.6120901194123
 30
0.0
 11
403.1550328572099
 21
361.5295641100804
 31
0.0
  0
LINE
  5
A2A
330
73E
100
AcDbEntity
  8
SUNPOU
 62
     4
100
AcDbLine
 10
366.8765328572102
 20
358.5295641100803
 30
0.0
 11
396.1550328572099
 21
358.5295641100803
 31
0.0
  0
INSERT
  5
A2B
330
73E
100
AcDbEntity
  8
SUNPOU
 62
     4
100
AcDbBlockReference
  2
_OPEN
 10
359.8765328572102
 20
358.5295641100803
 30
0.0
 41
7.0
 42
7.0
 43
7.0
 50
180.0
  0
INSERT
  5
A2C
330
73E
100
AcDbEntity
  8
SUNPOU
 62
     4
100
AcDbBlockReference
  2
_OPEN
 10
403.1550328572099
 20
358.5295641100803
 30
0.0
 41
7.0
 42
7.0
 43
7.0
  0
MTEXT
  5
A2D
330
73E
100
AcDbEntity
  8
SUNPOU
 62
     4
100
AcDbMText
 10
381.51578285721
 20
363.5295641100804
 30
0.0
 40
6.0
 41
0.0
 71
     5
 72
     1
  1
\A1;43
1001
ACAD
1000
MTEXTBEGIN
1070
    73
1070
     1
1070
    44
1040
1.0
1070
    74
1070
     0
1000
MTEXTEND
  0
POINT
  5
A2E
330
73E
100
AcDbEntity
  8
DEFPOINTS
 62
     0
100
AcDbPoint
 10
359.8765328572102
 20
316.091490119412
 30
0.0
  0
POINT
  5
A2F
330
73E
100
AcDbEntity
  8
DEFPOINTS
 62
     0
100
AcDbPoint
 10
403.1550328572099
 20
335.6120901194123
 30
0.0
  0
POINT
  5
A30
330
73E
100
AcDbEntity
  8
DEFPOINTS
 62
     0
100
AcDbPoint
 10
403.1550328572099
 20
358.5295641100803
 30
0.0
  0
ENDBLK
  5
785
330
73E
100
AcDbEntity
  8
0
100
AcDbBlockEnd
  0
BLOCK
  5
786
330
74B
100
AcDbEntity
  8
0
100
AcDbBlockBegin
  2
*D16
 70
     1
 10
0.0
 20
0.0
 30
0.0
  3
*D16
  1

  0
LINE
  5
A1F
330
74B
100
AcDbEntity
  8
SUNPOU
 62
     4
100
AcDbLine
 10
243.0573951360039
 20
313.2072543885612
 30
0.0
 11
243.0573951360039
 21
390.7984916327582
 31
0.0
  0
LINE
  5
A20
330
74B
100
AcDbEntity
  8
SUNPOU
 62
     4
100
AcDbLine
 10
403.1550328572099
 20
341.6120901194123
 30
0.0
 11
403.1550328572099
 21
390.7984916327582
 31
0.0
  0
LINE
  5
A21
330
74B
100
AcDbEntity
  8
SUNPOU
 62
     4
100
AcDbLine
 10
250.0573951360038
 20
387.7984916327582
 30
0.0
 11
396.1550328572099
 21
387.7984916327582
 31
0.0
  0
INSERT
  5
A22
330
74B
100
AcDbEntity
  8
SUNPOU
 62
     4
100
AcDbBlockReference
  2
_OPEN
 10
243.0573951360039
 20
387.7984916327582
 30
0.0
 41
7.0
 42
7.0
 43
7.0
 50
180.0
  0
INSERT
  5
A23
330
74B
100
AcDbEntity
  8
SUNPOU
 62
     4
100
AcDbBlockReference
  2
_OPEN
 10
403.1550328572099
 20
387.7984916327582
 30
0.0
 41
7.0
 42
7.0
 43
7.0
  0
MTEXT
  5
A24
330
74B
100
AcDbEntity
  8
SUNPOU
 62
     4
100
AcDbMText
 10
323.1062139966069
 20
392.7984916327582
 30
0.0
 40
6.0
 41
0.0
 71
     5
 72
     1
  1
\A1;160
1001
ACAD
1000
MTEXTBEGIN
1070
    73
1070
     1
1070
    44
1040
1.0
1070
    74
1070
     0
1000
MTEXTEND
  0
POINT
  5
A25
330
74B
100
AcDbEntity
  8
DEFPOINTS
 62
     0
100
AcDbPoint
 10
243.0573951360039
 20
307.2072543885612
 30
0.0
  0
POINT
  5
A26
330
74B
100
AcDbEntity
  8
DEFPOINTS
 62
     0
100
AcDbPoint
 10
403.1550328572099
 20
335.6120901194123
 30
0.0
  0
POINT
  5
A27
330
74B
100
AcDbEntity
  8
DEFPOINTS
 62
     0
100
AcDbPoint
 10
403.1550328572099
 20
387.7984916327582
 30
0.0
  0
ENDBLK
  5
790
330
74B
100
AcDbEntity
  8
0
100
AcDbBlockEnd
  0
ENDSEC
  0
SECTION
  2
ENTITIES
  0
LINE
  5
2E9
330
1A
100
AcDbEntity
  8
SEIHIN
  6
CONTINUOUS
 62
     3
 48
16.0
100
AcDbLine
 10
402.1550328572102
 20
460.7745728123274
 30
0.0
 11
398.0555328572101
 21
460.3645728123276
 31
0.0
  0
LINE
  5
2EA
330
1A
100
AcDbEntity
  8
SEIHIN
  6
CONTINUOUS
 62
     3
 48
16.0
100
AcDbLine
 10
402.25453285721
 20
459.7794728123274
 30
0.0
 11
398.1550328572101
 21
459.3695728123276
 31
0.0
  0
ARC
  5
2EB
330
1A
100
AcDbEntity
  8
SEIHIN
  6
CONTINUOUS
 62
     3
 48
16.0
100
AcDbCircle
 10
403.3605666960582
 20
450.0696237513166
 30
0.0
 40
4.00523383917212
100
AcDbArc
 50
112.8084310267283
 51
180.0007286938024
  0
ARC
  5
2EC
330
1A
100
AcDbEntity
  8
SEIHIN
  6
CONTINUOUS
 62
     3
 48
16.0
100
AcDbCircle
 10
403.3605666960583
 20
450.0695218733386
 30
0.0
 40
4.005233839172221
100
AcDbArc
 50
179.9992713061958
 51
247.1915689732704
  0
LINE
  5
2ED
330
1A
100
AcDbEntity
  8
SEIHIN
  6
CONTINUOUS
 62
     3
 48
16.0
100
AcDbLine
 10
401.13123285721
 20
446.0695728123276
 30
0.0
 11
391.2122328572101
 21
446.0695728123276
 31
0.0
  0
LINE
  5
2EE
330
1A
100
AcDbEntity
  8
SEIHIN
  6
CONTINUOUS
 62
     3
 48
16.0
100
AcDbLine
 10
401.13123285721
 20
454.0695728123276
 30
0.0
 11
391.2122328572101
 21
454.0695728123276
 31
0.0
  0
LINE
  5
2EF
330
1A
100
AcDbEntity
  8
SEIHIN
  6
CONTINUOUS
 62
     3
 48
16.0
100
AcDbLine
 10
402.25453285721
 20
440.3596728123276
 30
0.0
 11
398.1550328572101
 21
440.7695728123276
 31
0.0
  0
LINE
  5
2F0
330
1A
100
AcDbEntity
  8
SEIHIN
  6
CONTINUOUS
 62
     3
 48
16.0
100
AcDbLine
 10
402.1550328572102
 20
439.3645728123275
 30
0.0
 11
398.0555328572101
 21
439.7745728123275
 31
0.0
  0
LINE
  5
2F2
330
1A
100
AcDbEntity
  8
SEIHIN
  6
CONTINUOUS
 62
     3
 48
16.0
100
AcDbLine
 10
402.1550328572102
 20
441.1195728123277
 30
0.0
 11
273.1550328572101
 21
441.1195728123277
 31
0.0
  0
LINE
  5
2F3
330
1A
100
AcDbEntity
  8
SEIHIN
  6
CONTINUOUS
 62
     3
 48
16.0
100
AcDbLine
 10
402.1550328572102
 20
459.0195728123275
 30
0.0
 11
273.1550328572101
 21
459.0195728123275
 31
0.0
  0
LINE
  5
2F5
330
1A
100
AcDbEntity
  8
SEIHIN
  6
CONTINUOUS
 62
     3
 48
16.0
100
AcDbLine
 10
403.1550328572099
 20
326.0686901194123
 30
0.0
 11
397.1550328572102
 21
326.0686901194123
 31
0.0
  0
LINE
  5
2F6
330
1A
100
AcDbEntity
  8
SEIHIN
  6
CONTINUOUS
 62
     3
 48
16.0
100
AcDbLine
 10
403.1550328572099
 20
291.0686901194122
 30
0.0
 11
397.1550328572102
 21
291.0686901194122
 31
0.0
  0
LINE
  5
2F8
330
1A
100
AcDbEntity
  8
CENTER_L
  6
CENTER
 62
     1
 48
5.0
100
AcDbLine
 10
406.2564328572102
 20
450.0695728123276
 30
0.0
 11
240.4976328572101
 21
450.0695728123276
 31
0.0
  0
LINE
  5
2F9
330
1A
100
AcDbEntity
  8
CENTER_L
  6
CENTER
 62
     1
 48
5.0
100
AcDbLine
 10
393.1900328572101
 20
298.0686901194122
 30
0.0
 11
406.3338328572101
 21
298.0686901194122
 31
0.0
  0
LINE
  5
2FA
330
1A
100
AcDbEntity
  8
CENTER_L
  6
CENTER
 62
     1
 48
5.0
100
AcDbLine
 10
406.2564328572102
 20
468.0695728123276
 30
0.0
 11
394.3434328572101
 21
468.0695728123276
 31
0.0
  0
LINE
  5
2FB
330
1A
100
AcDbEntity
  8
CENTER_L
  6
CENTER
 62
     1
 48
5.0
100
AcDbLine
 10
406.2564328572102
 20
432.0695728123276
 30
0.0
 11
394.3434328572101
 21
432.0695728123276
 31
0.0
  0
LINE
  5
2FC
330
1A
100
AcDbEntity
  8
CENTER_L
  6
CENTER
 62
     1
 48
5.0
100
AcDbLine
 10
406.6176328572101
 20
319.0686901194122
 30
0.0
 11
393.1900328572101
 21
319.0686901194122
 31
0.0
  0
LINE
  5
2FD
330
1A
100
AcDbEntity
  8
CENTER_L
  6
CENTER
 62
     1
 48
5.0
100
AcDbLine
 10
406.53653285721
 20
313.0686901194122
 30
0.0
 11
393.1900328572101
 21
313.0686901194122
 31
0.0
  0
ARC
  5
2FE
330
1A
100
AcDbEntity
  8
SEIHIN
  6
CONTINUOUS
 62
     3
 48
16.0
100
AcDbCircle
 10
398.1550187252499
 20
335.6121030689187
 30
0.0
 40
5.000014131976769
100
AcDbArc
 50
359.9998516100064
 51
95.00006812726812
  0
LINE
  5
305
330
1A
100
AcDbEntity
  8
SEIHIN
  6
CONTINUOUS
 62
     3
 48
16.0
100
AcDbLine
 10
260.71873285721
 20
306.9072901194123
 30
0.0
 11
273.1550328572102
 21
306.9072901194123
 31
0.0
  0
LINE
  5
306
330
1A
100
AcDbEntity
  8
SEIHIN
  6
CONTINUOUS
 62
     3
 48
16.0
100
AcDbLine
 10
258.71873285721
 20
297.9074901194122
 30
0.0
 11
279.3548175608132
 21
297.907405415809
 31
0.0
  0
LINE
  5
307
330
1A
100
AcDbEntity
  8
SEIHIN
  6
CONTINUOUS
 62
     3
 48
16.0
100
AcDbLine
 10
279.7548165480244
 20
297.507406428598
 30
0.0
 11
260.6316328572101
 21
297.5074901194122
 31
0.0
  0
ARC
  5
312
330
1A
100
AcDbEntity
  8
SEIHIN
  6
CONTINUOUS
 62
     3
 48
16.0
100
AcDbCircle
 10
258.7186344049054
 20
299.6073385997115
 30
0.0
 40
0.5000484899911797
100
AcDbArc
 50
217.5777771131719
 51
270.0112807091577
  0
LINE
  5
313
330
1A
100
AcDbEntity
  8
SEIHIN
  6
CONTINUOUS
 62
     3
 48
16.0
100
AcDbLine
 10
257.3712328572101
 20
298.5707901194122
 30
0.0
 11
252.1818328572101
 21
305.3169901194122
 31
0.0
  0
LINE
  5
314
330
1A
100
AcDbEntity
  8
SEIHIN
  6
CONTINUOUS
 62
     3
 48
16.0
100
AcDbLine
 10
258.71873285721
 20
297.9072901194122
 30
0.0
 11
258.71873285721
 21
304.9072901194122
 31
0.0
  0
LINE
  5
315
330
1A
100
AcDbEntity
  8
SEIHIN
  6
CONTINUOUS
 62
     3
 48
16.0
100
AcDbLine
 10
251.1970328572101
 20
303.3169901194123
 30
0.0
 11
255.0769328572101
 21
298.2730901194122
 31
0.0
  0
ARC
  5
316
330
1A
100
AcDbEntity
  8
SEIHIN
  6
CONTINUOUS
 62
     3
 48
16.0
100
AcDbCircle
 10
256.6622169922244
 20
299.4925913294341
 30
0.0
 40
2.000077246001448
100
AcDbArc
 50
217.5697699181803
 51
313.7078331647886
  0
LINE
  5
317
330
1A
100
AcDbEntity
  8
SEIHIN
  6
CONTINUOUS
 62
     3
 48
16.0
100
AcDbLine
 10
260.6316328572101
 20
297.5072901194122
 30
0.0
 11
260.6316328572101
 21
297.9072901194122
 31
0.0
  0
ARC
  5
318
330
1A
100
AcDbEntity
  8
SEIHIN
  6
CONTINUOUS
 62
     3
 48
16.0
100
AcDbCircle
 10
258.7187064269253
 20
299.6073031340184
 30
0.0
 40
1.700013014811743
100
AcDbArc
 50
217.5684553619189
 51
270.0008907836334
  0
LINE
  5
319
330
1A
100
AcDbEntity
  8
SEIHIN
  6
CONTINUOUS
 62
     3
 48
16.0
100
AcDbLine
 10
258.3224328572101
 20
299.3023901194122
 30
0.0
 11
253.13303285721
 21
306.0485901194122
 31
0.0
  0
LINE
  5
31C
330
1A
100
AcDbEntity
  8
SEIHIN
  6
CONTINUOUS
 62
     3
 48
16.0
100
AcDbLine
 10
244.4073328572101
 20
311.9072901194122
 30
0.0
 11
243.1212328572101
 21
307.6401901194123
 31
0.0
  0
LINE
  5
31D
330
1A
100
AcDbEntity
  8
SEIHIN
  6
CONTINUOUS
 62
     3
 48
16.0
100
AcDbLine
 10
245.5563328572101
 20
311.5609901194122
 30
0.0
 11
244.2701328572101
 21
307.2938901194123
 31
0.0
  0
LINE
  5
31F
330
1A
100
AcDbEntity
  8
SEIHIN
  6
CONTINUOUS
 62
     3
 48
16.0
100
AcDbLine
 10
250.40443285721
 20
303.7072901194122
 30
0.0
 11
246.5573328572101
 21
303.7072901194122
 31
0.0
  0
LINE
  5
320
330
1A
100
AcDbEntity
  8
SEIHIN
  6
CONTINUOUS
 62
     3
 48
16.0
100
AcDbLine
 10
244.5573328572101
 20
306.9072901194123
 30
0.0
 11
251.3892328572101
 21
306.9072901194123
 31
0.0
  0
LINE
  5
321
330
1A
100
AcDbEntity
  8
SEIHIN
  6
CONTINUOUS
 62
     3
 48
16.0
100
AcDbLine
 10
244.5573328572101
 20
305.7072901194122
 30
0.0
 11
251.3892328572101
 21
305.7072901194122
 31
0.0
  0
ARC
  5
322
330
1A
100
AcDbEntity
  8
SEIHIN
  6
CONTINUOUS
 62
     3
 48
16.0
100
AcDbCircle
 10
244.5573431350189
 20
307.207276285441
 30
0.0
 40
0.2999861662048333
100
AcDbArc
 50
163.2182955161111
 51
269.9980369925814
  0
ARC
  5
323
330
1A
100
AcDbEntity
  8
SEIHIN
  6
CONTINUOUS
 62
     3
 48
16.0
100
AcDbCircle
 10
246.5573328572101
 20
305.7072901194122
 30
0.0
 40
2.0
100
AcDbArc
 50
180.0
 51
270.0
  0
ARC
  5
324
330
1A
100
AcDbEntity
  8
SEIHIN
  6
CONTINUOUS
 62
     3
 48
16.0
100
AcDbCircle
 10
244.5573594053877
 20
307.2072543885612
 30
0.0
 40
1.499964269383817
100
AcDbArc
 50
163.2240044688655
 51
269.998985910157
  0
ARC
  5
325
330
1A
100
AcDbEntity
  8
SEIHIN
  6
CONTINUOUS
 62
     3
 48
16.0
100
AcDbCircle
 10
251.389206887017
 20
304.7073029070758
 30
0.0
 40
0.9999872126736883
100
AcDbArc
 50
37.5674533748125
 51
89.99851199851674
  0
ARC
  5
326
330
1A
100
AcDbEntity
  8
SEIHIN
  6
CONTINUOUS
 62
     3
 48
16.0
100
AcDbCircle
 10
251.3892471403685
 20
304.7072794444094
 30
0.0
 40
2.200038914490386
100
AcDbArc
 50
37.56935675962112
 51
68.88384407614045
  0
ARC
  5
327
330
1A
100
AcDbEntity
  8
SEIHIN
  6
CONTINUOUS
 62
     3
 48
16.0
100
AcDbCircle
 10
251.3893243366028
 20
304.7072730684082
 30
0.0
 40
2.200017052905966
100
AcDbArc
 50
68.885779347924
 51
90.00238242840453
  0
ARC
  5
328
330
1A
100
AcDbEntity
  8
SEIHIN
  6
CONTINUOUS
 62
     3
 48
16.0
100
AcDbCircle
 10
250.4044068870172
 20
302.7073029070757
 30
0.0
 40
0.9999872126737717
100
AcDbArc
 50
37.56745337482103
 51
89.9985119985263
  0
LINE
  5
329
330
1A
100
AcDbEntity
  8
SEIHIN
  6
CONTINUOUS
 62
     3
 48
16.0
100
AcDbLine
 10
244.4073328572101
 20
311.9072901194122
 30
0.0
 11
245.5563328572101
 21
311.5609901194122
 31
0.0
  0
ARC
  5
32A
330
1A
100
AcDbEntity
  8
SEIHIN
  6
CONTINUOUS
 62
     3
 48
16.0
100
AcDbCircle
 10
260.71873285721
 20
304.9072901194122
 30
0.0
 40
2.000000000000028
100
AcDbArc
 50
90.00000000000081
 51
180.0000000000007
  0
ARC
  5
331
330
1A
100
AcDbEntity
  8
SEIHIN
  6
CONTINUOUS
 62
     3
 48
16.0
100
AcDbCircle
 10
353.0817532767518
 20
315.975943339954
 30
0.0
 40
9.999979580567661
100
AcDbArc
 50
0.0002680270996858
 51
47.16344054364779
  0
LINE
  5
332
330
1A
100
AcDbEntity
  8
SEIHIN
  6
CONTINUOUS
 62
     3
 48
16.0
100
AcDbLine
 10
397.1550328572102
 20
291.0686901194122
 30
0.0
 11
397.1550328572102
 21
326.0686901194123
 31
0.0
  0
ARC
  5
333
330
1A
100
AcDbEntity
  8
SEIHIN
  6
CONTINUOUS
 62
     3
 48
16.0
100
AcDbCircle
 10
349.0690383927603
 20
309.9074108356221
 30
0.0
 40
19.00003449615686
100
AcDbArc
 50
132.8439806163847
 51
144.8341456944893
  0
ARC
  5
334
330
1A
100
AcDbEntity
  8
SEIHIN
  6
CONTINUOUS
 62
     3
 48
16.0
100
AcDbCircle
 10
323.7765352087074
 20
312.0398914165795
 30
0.0
 40
11.00006457981052
100
AcDbArc
 50
95.00043686190805
 51
142.7648802283861
  0
LINE
  5
335
330
1A
100
AcDbEntity
  8
SEIHIN
  6
CONTINUOUS
 62
     3
 48
16.0
100
AcDbLine
 10
293.1550328572102
 20
308.1072901194123
 30
0.0
 11
309.47593285721
 21
329.5819901194123
 31
0.0
  0
LINE
  5
336
330
1A
100
AcDbEntity
  8
SEIHIN
  6
CONTINUOUS
 62
     3
 48
16.0
100
AcDbLine
 10
297.27368393864
 20
297.9073988102609
 30
0.0
 11
343.8817328572101
 21
297.9072901194122
 31
0.0
  0
LINE
  5
337
330
1A
100
AcDbEntity
  8
SEIHIN
  6
CONTINUOUS
 62
     3
 48
16.0
100
AcDbLine
 10
340.8941328572101
 20
315.6667901194122
 30
0.0
 11
329.8755328572101
 21
300.0275901194123
 31
0.0
  0
LINE
  5
338
330
1A
100
AcDbEntity
  8
SEIHIN
  6
CONTINUOUS
 62
     3
 48
16.0
100
AcDbLine
 10
345.4817328572102
 20
297.5072901194122
 30
0.0
 11
296.0950537687897
 21
297.5073982814518
 31
0.0
  0
LINE
  5
339
330
1A
100
AcDbEntity
  8
SEIHIN
  6
CONTINUOUS
 62
     3
 48
16.0
100
AcDbLine
 10
301.9127328572102
 20
301.4511901194123
 30
0.0
 11
315.0187328572101
 21
318.6958901194123
 31
0.0
  0
ARC
  5
33A
330
1A
100
AcDbEntity
  8
SEIHIN
  6
CONTINUOUS
 62
     3
 48
16.0
100
AcDbCircle
 10
293.154916604261
 20
308.107182057736
 30
0.0
 40
10.99999193864251
100
AcDbArc
 50
269.9995637858108
 51
322.7646369216447
  0
LINE
  5
33B
330
1A
100
AcDbEntity
  8
CENTER_L
  6
CENTER
 62
     1
 48
5.0
100
AcDbLine
 10
283.15513285721
 20
319.6234901194122
 30
0.0
 11
283.1550328572101
 21
290.3014901194122
 31
0.0
  0
LINE
  5
33C
330
1A
100
AcDbEntity
  8
SEIHIN
  6
CONTINUOUS
 62
     3
 48
16.0
100
AcDbLine
 10
280.15503285721
 20
297.1071901194122
 30
0.0
 11
273.1550328572101
 21
304.1071901194122
 31
0.0
  0
LINE
  5
33D
330
1A
100
AcDbEntity
  8
SEIHIN
  6
CONTINUOUS
 62
     3
 48
16.0
100
AcDbLine
 10
280.15503285721
 20
297.1071901194122
 30
0.0
 11
293.1549328572102
 21
297.1071901194122
 31
0.0
  0
LINE
  5
33E
330
1A
100
AcDbEntity
  8
SEIHIN
  6
CONTINUOUS
 62
     3
 48
16.0
100
AcDbLine
 10
277.6552328572101
 20
296.7076901194122
 30
0.0
 11
288.6553328572101
 21
296.7076901194122
 31
0.0
  0
ARC
  5
33F
330
1A
100
AcDbEntity
  8
SEIHIN
  6
CONTINUOUS
 62
     3
 48
16.0
100
AcDbCircle
 10
283.1552328572101
 20
304.7546901194122
 30
0.0
 40
9.747010259561672
100
AcDbArc
 50
235.6479976531777
 51
304.3520023468222
  0
LINE
  5
340
330
1A
100
AcDbEntity
  8
SEIHIN
  6
CONTINUOUS
 62
     3
 48
16.0
100
AcDbLine
 10
277.6552328572101
 20
296.7076901194122
 30
0.0
 11
277.6552328572101
 21
297.5075901194122
 31
0.0
  0
LINE
  5
341
330
1A
100
AcDbEntity
  8
SEIHIN
  6
CONTINUOUS
 62
     3
 48
16.0
100
AcDbLine
 10
288.6553328572101
 20
296.7076901194122
 30
0.0
 11
288.6553328572101
 21
297.1071901194122
 31
0.0
  0
LINE
  5
342
330
1A
100
AcDbEntity
  8
SEIHIN
  6
CONTINUOUS
 62
     3
 48
16.0
100
AcDbLine
 10
287.65523285721
 20
310.8076901194122
 30
0.0
 11
283.1552328572101
 21
310.8076901194122
 31
0.0
  0
LINE
  5
343
330
1A
100
AcDbEntity
  8
SEIHIN
  6
CONTINUOUS
 62
     3
 48
16.0
100
AcDbLine
 10
283.1552328572101
 20
313.8076901194123
 30
0.0
 11
286.4052328572101
 21
313.8076901194123
 31
0.0
  0
LINE
  5
344
330
1A
100
AcDbEntity
  8
SEIHIN
  6
CONTINUOUS
 62
     3
 48
16.0
100
AcDbLine
 10
288.6552328572101
 20
309.6076901194122
 30
0.0
 11
283.1552328572101
 21
309.6076901194122
 31
0.0
  0
LINE
  5
345
330
1A
100
AcDbEntity
  8
SEIHIN
  6
CONTINUOUS
 62
     3
 48
16.0
100
AcDbLine
 10
293.1550328572102
 20
308.1072901194123
 30
0.0
 11
273.1550328572101
 21
308.1072901194123
 31
0.0
  0
LINE
  5
346
330
1A
100
AcDbEntity
  8
SEIHIN
  6
CONTINUOUS
 62
     3
 48
16.0
100
AcDbLine
 10
278.6552328572101
 20
310.8076901194122
 30
0.0
 11
279.15523285721
 21
309.6076901194122
 31
0.0
  0
ARC
  5
347
330
1A
100
AcDbEntity
  8
SEIHIN
  6
CONTINUOUS
 62
     3
 48
16.0
100
AcDbCircle
 10
284.2912532281599
 20
319.0682661394695
 30
0.0
 40
10.0000357304778
100
AcDbArc
 50
204.9998628300813
 51
235.695562802508
  0
LINE
  5
348
330
1A
100
AcDbEntity
  8
SEIHIN
  6
CONTINUOUS
 62
     3
 48
16.0
100
AcDbLine
 10
277.6552328572101
 20
309.6076901194122
 30
0.0
 11
283.1552328572101
 21
309.6076901194122
 31
0.0
  0
LINE
  5
349
330
1A
100
AcDbEntity
  8
SEIHIN
  6
CONTINUOUS
 62
     3
 48
16.0
100
AcDbLine
 10
277.6552328572101
 20
309.6076901194122
 30
0.0
 11
277.6552328572101
 21
308.1076901194122
 31
0.0
  0
LINE
  5
34A
330
1A
100
AcDbEntity
  8
SEIHIN
  6
CONTINUOUS
 62
     3
 48
16.0
100
AcDbLine
 10
273.1550328572101
 20
304.1071901194122
 30
0.0
 11
273.1550328572101
 21
308.1071901194122
 31
0.0
  0
LINE
  5
34B
330
1A
100
AcDbEntity
  8
SEIHIN
  6
CONTINUOUS
 62
     3
 48
16.0
100
AcDbLine
 10
277.5055328572102
 20
318.8999901194123
 30
0.0
 11
278.8071328572101
 21
314.0423901194123
 31
0.0
  0
ARC
  5
34C
330
1A
100
AcDbEntity
  8
SEIHIN
  6
CONTINUOUS
 62
     3
 48
16.0
100
AcDbCircle
 10
278.0623191269799
 20
313.2845876667924
 30
0.0
 40
0.4999732692047835
100
AcDbArc
 50
222.8773689717944
 51
337.3801181495844
  0
ARC
  5
34D
330
1A
100
AcDbEntity
  8
SEIHIN
  6
CONTINUOUS
 62
     3
 48
16.0
100
AcDbCircle
 10
277.0225328572101
 20
318.7705901194123
 30
0.0
 40
1.500003483329251
100
AcDbArc
 50
14.99883465683192
 51
104.9988346568316
  0
LINE
  5
34E
330
1A
100
AcDbEntity
  8
SEIHIN
  6
CONTINUOUS
 62
     3
 48
16.0
100
AcDbLine
 10
273.9107328572101
 20
317.6670901194122
 30
0.0
 11
275.2281328572101
 21
314.8420901194123
 31
0.0
  0
LINE
  5
34F
330
1A
100
AcDbEntity
  8
SEIHIN
  6
CONTINUOUS
 62
     3
 48
16.0
100
AcDbLine
 10
276.6343328572101
 20
320.2194901194122
 30
0.0
 11
274.8819328572102
 21
319.7499901194122
 31
0.0
  0
LINE
  5
350
330
1A
100
AcDbEntity
  8
SEIHIN
  6
CONTINUOUS
 62
     3
 48
16.0
100
AcDbLine
 10
275.1407328572101
 20
318.7839901194122
 30
0.0
 11
276.89313285721
 21
319.2535901194123
 31
0.0
  0
LINE
  5
351
330
1A
100
AcDbEntity
  8
SEIHIN
  6
CONTINUOUS
 62
     3
 48
16.0
100
AcDbLine
 10
276.1344328572099
 20
315.2646901194123
 30
0.0
 11
274.8170328572101
 21
318.0897901194123
 31
0.0
  0
ARC
  5
352
330
1A
100
AcDbEntity
  8
SEIHIN
  6
CONTINUOUS
 62
     3
 48
16.0
100
AcDbCircle
 10
275.2702049500233
 20
318.301030275487
 30
0.0
 40
0.4999873490830826
100
AcDbArc
 50
104.9959479424408
 51
204.9919550394033
  0
ARC
  5
353
330
1A
100
AcDbEntity
  8
SEIHIN
  6
CONTINUOUS
 62
     3
 48
16.0
100
AcDbCircle
 10
277.0225328572101
 20
318.7705901194122
 30
0.0
 40
0.5000333588872418
100
AcDbArc
 50
14.99784618189823
 51
104.9978461818982
  0
ARC
  5
354
330
1A
100
AcDbEntity
  8
SEIHIN
  6
CONTINUOUS
 62
     3
 48
16.0
100
AcDbCircle
 10
284.2911703849684
 20
319.068382952061
 30
0.0
 40
9.000024792292828
100
AcDbArc
 50
205.000828865635
 51
222.8781744476676
  0
ARC
  5
355
330
1A
100
AcDbEntity
  8
SEIHIN
  6
CONTINUOUS
 62
     3
 48
16.0
100
AcDbCircle
 10
275.270027431104
 20
318.3009784838143
 30
0.0
 40
1.500013318264716
100
AcDbArc
 50
104.9985194361947
 51
204.9981179307403
  0
LINE
  5
356
330
1A
100
AcDbEntity
  8
SEIHIN
  6
CONTINUOUS
 62
     3
 48
16.0
100
AcDbLine
 10
280.6553328572101
 20
315.1076901194123
 30
0.0
 11
280.6553328572101
 21
313.8076901194123
 31
0.0
  0
LINE
  5
357
330
1A
100
AcDbEntity
  8
SEIHIN
  6
CONTINUOUS
 62
     3
 48
16.0
100
AcDbLine
 10
278.6552328572101
 20
310.8076901194122
 30
0.0
 11
283.1552328572101
 21
310.8076901194122
 31
0.0
  0
LINE
  5
358
330
1A
100
AcDbEntity
  8
SEIHIN
  6
CONTINUOUS
 62
     3
 48
16.0
100
AcDbLine
 10
283.1552328572101
 20
313.8076901194123
 30
0.0
 11
279.9053328572101
 21
313.8076901194123
 31
0.0
  0
LINE
  5
359
330
1A
100
AcDbEntity
  8
SEIHIN
  6
CONTINUOUS
 62
     3
 48
16.0
100
AcDbLine
 10
278.6552328572101
 20
310.8076901194122
 30
0.0
 11
279.9053328572101
 21
313.8076901194123
 31
0.0
  0
LINE
  5
35A
330
1A
100
AcDbEntity
  8
SEIHIN
  6
CONTINUOUS
 62
     3
 48
16.0
100
AcDbLine
 10
278.78563285721
 20
313.7206901194122
 30
0.0
 11
278.52383285721
 21
313.0922901194122
 31
0.0
  0
LINE
  5
35B
330
1A
100
AcDbEntity
  8
SEIHIN
  6
CONTINUOUS
 62
     3
 48
16.0
100
AcDbLine
 10
283.15533285721
 20
315.1076901194123
 30
0.0
 11
285.65523285721
 21
315.1076901194123
 31
0.0
  0
LINE
  5
35C
330
1A
100
AcDbEntity
  8
SEIHIN
  6
CONTINUOUS
 62
     3
 48
16.0
100
AcDbLine
 10
285.65523285721
 20
315.1076901194123
 30
0.0
 11
285.65523285721
 21
313.8076901194123
 31
0.0
  0
LINE
  5
35D
330
1A
100
AcDbEntity
  8
SEIHIN
  6
CONTINUOUS
 62
     3
 48
16.0
100
AcDbLine
 10
279.9053328572101
 20
313.8076901194123
 30
0.0
 11
278.4714328572101
 21
319.1587901194123
 31
0.0
  0
LINE
  5
35E
330
1A
100
AcDbEntity
  8
SEIHIN
  6
CONTINUOUS
 62
     3
 48
16.0
100
AcDbLine
 10
283.1552328572101
 20
315.1076901194123
 30
0.0
 11
280.6553328572101
 21
315.1076901194123
 31
0.0
  0
ARC
  5
35F
330
1A
100
AcDbEntity
  8
SEIHIN
  6
CONTINUOUS
 62
     3
 48
16.0
100
AcDbCircle
 10
278.3241307461597
 20
313.912958413402
 30
0.0
 40
0.5000436038986501
100
AcDbArc
 50
337.3871071408826
 51
15.00129275636688
  0
ARC
  5
360
330
1A
100
AcDbEntity
  8
SEIHIN
  6
CONTINUOUS
 62
     3
 48
16.0
100
AcDbCircle
 10
282.0194641755969
 20
319.0683269859379
 30
0.0
 40
10.00005686168791
100
AcDbArc
 50
304.3039960759001
 51
334.9991767759882
  0
LINE
  5
361
330
1A
100
AcDbEntity
  8
SEIHIN
  6
CONTINUOUS
 62
     3
 48
16.0
100
AcDbLine
 10
287.65523285721
 20
310.8076901194122
 30
0.0
 11
287.1552328572101
 21
309.6076901194122
 31
0.0
  0
LINE
  5
362
330
1A
100
AcDbEntity
  8
SEIHIN
  6
CONTINUOUS
 62
     3
 48
16.0
100
AcDbLine
 10
288.6552328572101
 20
309.6076901194122
 30
0.0
 11
288.6552328572101
 21
308.1072901194123
 31
0.0
  0
LINE
  5
363
330
1A
100
AcDbEntity
  8
SEIHIN
  6
CONTINUOUS
 62
     3
 48
16.0
100
AcDbLine
 10
290.1761328572101
 20
315.2646901194123
 30
0.0
 11
291.4935328572101
 21
318.0896901194123
 31
0.0
  0
LINE
  5
364
330
1A
100
AcDbEntity
  8
SEIHIN
  6
CONTINUOUS
 62
     3
 48
16.0
100
AcDbLine
 10
291.1697328572101
 20
318.7839901194122
 30
0.0
 11
289.4174328572101
 21
319.2534901194122
 31
0.0
  0
LINE
  5
365
330
1A
100
AcDbEntity
  8
SEIHIN
  6
CONTINUOUS
 62
     3
 48
16.0
100
AcDbLine
 10
287.65523285721
 20
310.8076901194122
 30
0.0
 11
286.4052328572101
 21
313.8076901194123
 31
0.0
  0
LINE
  5
366
330
1A
100
AcDbEntity
  8
SEIHIN
  6
CONTINUOUS
 62
     3
 48
16.0
100
AcDbLine
 10
292.3998328572101
 20
317.6670901194122
 30
0.0
 11
291.08243285721
 21
314.8420901194123
 31
0.0
  0
LINE
  5
367
330
1A
100
AcDbEntity
  8
SEIHIN
  6
CONTINUOUS
 62
     3
 48
16.0
100
AcDbLine
 10
289.6762328572102
 20
320.2194901194122
 30
0.0
 11
291.4285328572102
 21
319.7498901194122
 31
0.0
  0
LINE
  5
368
330
1A
100
AcDbEntity
  8
SEIHIN
  6
CONTINUOUS
 62
     3
 48
16.0
100
AcDbLine
 10
286.4052328572101
 20
313.8076901194123
 30
0.0
 11
287.8391328572101
 21
319.1587901194123
 31
0.0
  0
LINE
  5
369
330
1A
100
AcDbEntity
  8
SEIHIN
  6
CONTINUOUS
 62
     3
 48
16.0
100
AcDbLine
 10
287.5249328572101
 20
313.7206901194122
 30
0.0
 11
287.7867328572102
 21
313.0922901194122
 31
0.0
  0
LINE
  5
36A
330
1A
100
AcDbEntity
  8
SEIHIN
  6
CONTINUOUS
 62
     3
 48
16.0
100
AcDbLine
 10
288.80503285721
 20
318.8999901194123
 30
0.0
 11
287.50343285721
 21
314.0423901194123
 31
0.0
  0
ARC
  5
36B
330
1A
100
AcDbEntity
  8
SEIHIN
  6
CONTINUOUS
 62
     3
 48
16.0
100
AcDbCircle
 10
289.2879737083201
 20
318.7705559688612
 30
0.0
 40
0.4999850647767397
100
AcDbArc
 50
74.99365376778482
 51
164.9966195745697
  0
ARC
  5
36C
330
1A
100
AcDbEntity
  8
SEIHIN
  6
CONTINUOUS
 62
     3
 48
16.0
100
AcDbCircle
 10
291.0403132826325
 20
318.3010320961599
 30
0.0
 40
1.49996800286794
100
AcDbArc
 50
334.9988153855766
 51
75.00002814091832
  0
ARC
  5
36D
330
1A
100
AcDbEntity
  8
SEIHIN
  6
CONTINUOUS
 62
     3
 48
16.0
100
AcDbCircle
 10
289.28803285721
 20
318.7705901194123
 30
0.0
 40
1.500003483329324
100
AcDbArc
 50
75.00116534316591
 51
165.0011653431666
  0
ARC
  5
36E
330
1A
100
AcDbEntity
  8
SEIHIN
  6
CONTINUOUS
 62
     3
 48
16.0
100
AcDbCircle
 10
291.0403091180196
 20
318.3010410276998
 30
0.0
 40
0.4999903293583637
100
AcDbArc
 50
334.9942007564507
 51
74.99801644261585
  0
ARC
  5
36F
330
1A
100
AcDbEntity
  8
SEIHIN
  6
CONTINUOUS
 62
     3
 48
16.0
100
AcDbCircle
 10
287.9864354097037
 20
313.9129517906069
 30
0.0
 40
0.4999491535834898
100
AcDbArc
 50
164.9950208123164
 51
202.6165792903737
  0
ARC
  5
370
330
1A
100
AcDbEntity
  8
SEIHIN
  6
CONTINUOUS
 62
     3
 48
16.0
100
AcDbCircle
 10
282.0193730823008
 20
319.0682012957271
 30
0.0
 40
9.00005881402367
100
AcDbArc
 50
317.1227360400137
 51
335.0005481397943
  0
ARC
  5
371
330
1A
100
AcDbEntity
  8
SEIHIN
  6
CONTINUOUS
 62
     3
 48
16.0
100
AcDbCircle
 10
288.2482925669624
 20
313.2845973180256
 30
0.0
 40
0.5000194239278122
100
AcDbArc
 50
202.6188762781277
 51
317.1260325117071
  0
ARC
  5
372
330
1A
100
AcDbEntity
  8
SEIHIN
  6
CONTINUOUS
 62
     3
 48
16.0
100
AcDbCircle
 10
325.7881412228994
 20
302.9072944587412
 30
0.0
 40
5.000004340503328
100
AcDbArc
 50
269.9987582217489
 51
324.8330848798126
  0
LINE
  5
373
330
1A
100
AcDbEntity
  8
SEIHIN
  6
CONTINUOUS
 62
     3
 48
16.0
100
AcDbLine
 10
320.4317328572101
 20
296.9072901194123
 30
0.0
 11
316.28173285721
 21
296.9072901194123
 31
0.0
  0
LINE
  5
374
330
1A
100
AcDbEntity
  8
SEIHIN
  6
CONTINUOUS
 62
     3
 48
16.0
100
AcDbLine
 10
320.4317328572101
 20
296.9072901194123
 30
0.0
 11
320.4317328572101
 21
297.5072901194122
 31
0.0
  0
LINE
  5
375
330
1A
100
AcDbEntity
  8
SEIHIN
  6
CONTINUOUS
 62
     3
 48
16.0
100
AcDbLine
 10
316.28173285721
 20
296.9072901194123
 30
0.0
 11
316.28173285721
 21
297.5072901194122
 31
0.0
  0
ARC
  5
376
330
1A
100
AcDbEntity
  8
SEIHIN
  6
CONTINUOUS
 62
     3
 48
16.0
100
AcDbCircle
 10
318.5260495907521
 20
316.9072987994049
 30
0.0
 40
10.00000868000659
100
AcDbArc
 50
269.9999041239491
 51
324.8330848664222
  0
LINE
  5
377
330
1A
100
AcDbEntity
  8
SEIHIN
  6
CONTINUOUS
 62
     3
 48
16.0
100
AcDbLine
 10
306.0593777162103
 20
306.9072901194123
 30
0.0
 11
318.52603285721
 21
306.9072901194123
 31
0.0
  0
LINE
  5
378
330
1A
100
AcDbEntity
  8
SEIHIN
  6
CONTINUOUS
 62
     3
 48
16.0
100
AcDbLine
 10
333.53673285721
 20
320.8503901194122
 30
0.0
 11
326.7008328572101
 21
311.1477901194123
 31
0.0
  0
LINE
  5
379
330
1A
100
AcDbEntity
  8
SEIHIN
  6
CONTINUOUS
 62
     3
 48
16.0
100
AcDbLine
 10
346.38173285721
 20
305.9072901194122
 30
0.0
 11
346.38173285721
 21
298.4072901194122
 31
0.0
  0
LINE
  5
37A
330
1A
100
AcDbEntity
  8
SEIHIN
  6
CONTINUOUS
 62
     3
 48
16.0
100
AcDbLine
 10
344.78173285721
 20
298.4072901194122
 30
0.0
 11
344.78173285721
 21
305.9072901194122
 31
0.0
  0
LINE
  5
37B
330
1A
100
AcDbEntity
  8
SEIHIN
  6
CONTINUOUS
 62
     3
 48
16.0
100
AcDbLine
 10
361.4192328572102
 20
295.6049901194122
 30
0.0
 11
352.53163285721
 21
301.3323901194123
 31
0.0
  0
LINE
  5
37C
330
1A
100
AcDbEntity
  8
SEIHIN
  6
CONTINUOUS
 62
     3
 48
16.0
100
AcDbLine
 10
351.8816328572102
 20
300.3236901194122
 30
0.0
 11
360.7691328572101
 21
294.5962901194123
 31
0.0
  0
LINE
  5
37D
330
1A
100
AcDbEntity
  8
SEIHIN
  6
CONTINUOUS
 62
     3
 48
16.0
100
AcDbLine
 10
363.0817328572101
 20
315.9759901194123
 30
0.0
 11
363.0817328572101
 21
295.8571901194122
 31
0.0
  0
LINE
  5
37E
330
1A
100
AcDbEntity
  8
SEIHIN
  6
CONTINUOUS
 62
     3
 48
16.0
100
AcDbLine
 10
361.8817328572101
 20
314.9072901194122
 30
0.0
 11
361.8817328572101
 21
295.8571901194122
 31
0.0
  0
LINE
  5
37F
330
1A
100
AcDbEntity
  8
SEIHIN
  6
CONTINUOUS
 62
     3
 48
16.0
100
AcDbLine
 10
344.38173285721
 20
298.4072901194122
 30
0.0
 11
344.38173285721
 21
305.9072901194122
 31
0.0
  0
ARC
  5
380
330
1A
100
AcDbEntity
  8
SEIHIN
  6
CONTINUOUS
 62
     3
 48
16.0
100
AcDbCircle
 10
345.48173285721
 20
298.4072901194122
 30
0.0
 40
0.8999999999999346
100
AcDbArc
 50
270.0000000000045
 51
0.0000000000045235
  0
ARC
  5
381
330
1A
100
AcDbEntity
  8
SEIHIN
  6
CONTINUOUS
 62
     3
 48
16.0
100
AcDbCircle
 10
343.88173285721
 20
298.4072901194122
 30
0.0
 40
0.4999999999999432
100
AcDbArc
 50
270.0000000000065
 51
0.0000000000065138
  0
ARC
  5
382
330
1A
100
AcDbEntity
  8
SEIHIN
  6
CONTINUOUS
 62
     3
 48
16.0
100
AcDbCircle
 10
343.88173285721
 20
298.4072901194122
 30
0.0
 40
0.8999999999999346
100
AcDbArc
 50
270.0000000000045
 51
0.0000000000045235
  0
ARC
  5
383
330
1A
100
AcDbEntity
  8
SEIHIN
  6
CONTINUOUS
 62
     3
 48
16.0
100
AcDbCircle
 10
361.5817015961949
 20
295.8571730754149
 30
0.0
 40
1.500031261111988
100
AcDbArc
 50
237.2004776243535
 51
0.000651019176963
  0
ARC
  5
384
330
1A
100
AcDbEntity
  8
SEIHIN
  6
CONTINUOUS
 62
     3
 48
16.0
100
AcDbCircle
 10
361.5817236158282
 20
295.857185080313
 30
0.0
 40
0.3000092414243152
100
AcDbArc
 50
237.2060685516554
 51
0.0009623674184198
  0
LINE
  5
385
330
1A
100
AcDbEntity
  8
SEIHIN
  6
CONTINUOUS
 62
     3
 48
16.0
100
AcDbLine
 10
356.88173285721
 20
319.9072901194123
 30
0.0
 11
349.0689328572101
 21
319.9072901194123
 31
0.0
  0
LINE
  5
386
330
1A
100
AcDbEntity
  8
SEIHIN
  6
CONTINUOUS
 62
     3
 48
16.0
100
AcDbLine
 10
346.38173285721
 20
305.9072901194122
 30
0.0
 11
344.38173285721
 21
305.9072901194122
 31
0.0
  0
LINE
  5
387
330
1A
100
AcDbEntity
  8
SEIHIN
  6
CONTINUOUS
 62
     3
 48
16.0
100
AcDbLine
 10
351.8816328572102
 20
300.3236901194122
 30
0.0
 11
352.53163285721
 21
301.3322901194122
 31
0.0
  0
ARC
  5
388
330
1A
100
AcDbEntity
  8
SEIHIN
  6
CONTINUOUS
 62
     3
 48
16.0
100
AcDbCircle
 10
349.0689716404844
 20
309.9073102372027
 30
0.0
 40
9.999979882284776
100
AcDbArc
 50
90.00022221223989
 51
144.8338713373228
  0
LINE
  5
389
330
1A
100
AcDbEntity
  8
SEIHIN
  6
CONTINUOUS
 62
     3
 48
16.0
100
AcDbLine
 10
363.8817328572101
 20
314.9072901194122
 30
0.0
 11
363.8817328572101
 21
301.9072901194123
 31
0.0
  0
ARC
  5
38A
330
1A
100
AcDbEntity
  8
SEIHIN
  6
CONTINUOUS
 62
     3
 48
16.0
100
AcDbCircle
 10
363.0816328572101
 20
301.9072901194123
 30
0.0
 40
0.7999999999999972
100
AcDbArc
 50
269.9999999999989
 51
359.9999999999989
  0
ARC
  5
38B
330
1A
100
AcDbEntity
  8
SEIHIN
  6
CONTINUOUS
 62
     3
 48
16.0
100
AcDbCircle
 10
356.8817791728737
 20
314.9071406526964
 30
0.0
 40
6.999953685932207
100
AcDbArc
 50
0.0012234098079293
 51
34.43479296175328
  0
ARC
  5
38C
330
1A
100
AcDbEntity
  8
SEIHIN
  6
CONTINUOUS
 62
     3
 48
16.0
100
AcDbCircle
 10
356.88173285721
 20
314.9072901194122
 30
0.0
 40
5.000000000000085
100
AcDbArc
 50
0.0000000000003257
 51
90.00000000000033
  0
LINE
  5
38D
330
1A
100
AcDbEntity
  8
SEIHIN
  6
CONTINUOUS
 62
     3
 48
16.0
100
AcDbLine
 10
316.56593285721
 20
333.4930901194122
 30
0.0
 11
397.7192328572099
 21
340.5930901194122
 31
0.0
  0
LINE
  5
38E
330
1A
100
AcDbEntity
  8
SEIHIN
  6
CONTINUOUS
 62
     3
 48
16.0
100
AcDbLine
 10
390.5449328572101
 20
328.9233901194122
 30
0.0
 11
322.81773285721
 21
322.9980901194122
 31
0.0
  0
ARC
  5
38F
330
1A
100
AcDbEntity
  8
SEIHIN
  6
CONTINUOUS
 62
     3
 48
16.0
100
AcDbCircle
 10
317.4375265295588
 20
323.5311866288459
 30
0.0
 40
9.999959834171018
100
AcDbArc
 50
95.00022859608661
 51
142.7652011453616
  0
LINE
  5
391
330
1A
100
AcDbEntity
  8
SEIHIN
  6
CONTINUOUS
 62
     3
 48
16.0
100
AcDbLine
 10
359.8808328572101
 20
323.3088901194122
 30
0.0
 11
357.3129328572101
 21
325.6899901194123
 31
0.0
  0
ARC
  5
392
330
1A
100
AcDbEntity
  8
SEIHIN
  6
CONTINUOUS
 62
     3
 48
16.0
100
AcDbCircle
 10
391.1550626044311
 20
321.9500749632584
 30
0.0
 40
6.999955898110234
100
AcDbArc
 50
31.00259114045825
 51
95.00035652508291
  0
LINE
  5
393
330
1A
100
AcDbEntity
  8
SEIHIN
  6
CONTINUOUS
 62
     3
 48
16.0
100
AcDbLine
 10
258.71873285721
 20
457.5695728123276
 30
0.0
 11
273.1550328572101
 21
457.5695728123276
 31
0.0
  0
LINE
  5
394
330
1A
100
AcDbEntity
  8
SEIHIN
  6
CONTINUOUS
 62
     3
 48
16.0
100
AcDbLine
 10
243.0574328572101
 20
456.3695728123277
 30
0.0
 11
273.1550328572101
 21
456.3695728123277
 31
0.0
  0
LINE
  5
395
330
1A
100
AcDbEntity
  8
SEIHIN
  6
CONTINUOUS
 62
     3
 48
16.0
100
AcDbLine
 10
269.13173285721
 20
452.8195728123276
 30
0.0
 11
273.1550328572101
 21
452.8195728123276
 31
0.0
  0
LINE
  5
396
330
1A
100
AcDbEntity
  8
SEIHIN
  6
CONTINUOUS
 62
     3
 48
16.0
100
AcDbLine
 10
269.13173285721
 20
447.3195728123276
 30
0.0
 11
273.1550328572101
 21
447.3195728123276
 31
0.0
  0
LINE
  5
397
330
1A
100
AcDbEntity
  8
SEIHIN
  6
CONTINUOUS
 62
     3
 48
16.0
100
AcDbLine
 10
258.71873285721
 20
442.5695728123276
 30
0.0
 11
273.1550328572101
 21
442.5695728123276
 31
0.0
  0
LINE
  5
398
330
1A
100
AcDbEntity
  8
SEIHIN
  6
CONTINUOUS
 62
     3
 48
16.0
100
AcDbLine
 10
243.0574328572101
 20
443.7695728123276
 30
0.0
 11
273.1550328572101
 21
443.7695728123276
 31
0.0
  0
LINE
  5
3A9
330
1A
100
AcDbEntity
  8
SEIHIN
  6
CONTINUOUS
 62
     3
 48
16.0
100
AcDbLine
 10
258.47253285721
 20
444.7695728123276
 30
0.0
 11
258.47253285721
 21
454.1490728123276
 31
0.0
  0
ARC
  5
3AA
330
1A
100
AcDbEntity
  8
SEIHIN
  6
CONTINUOUS
 62
     3
 48
16.0
100
AcDbCircle
 10
253.4877328572101
 20
450.0695728123276
 30
0.0
 40
2.0
100
AcDbArc
 50
90.0
 51
180.0
  0
ARC
  5
3AB
330
1A
100
AcDbEntity
  8
SEIHIN
  6
CONTINUOUS
 62
     3
 48
16.0
100
AcDbCircle
 10
255.48763285721
 20
450.0695728123276
 30
0.0
 40
2.0
100
AcDbArc
 50
0.0
 51
90.0
  0
ARC
  5
3AC
330
1A
100
AcDbEntity
  8
SEIHIN
  6
CONTINUOUS
 62
     3
 48
16.0
100
AcDbCircle
 10
269.13173285721
 20
450.0695728123276
 30
0.0
 40
2.749999999999957
100
AcDbArc
 50
90.0000000000009
 51
180.0000000000008
  0
LINE
  5
3AE
330
1A
100
AcDbEntity
  8
SEIHIN
  6
CONTINUOUS
 62
     3
 48
16.0
100
AcDbLine
 10
244.4074328572101
 20
443.7695728123276
 30
0.0
 11
244.4074328572101
 21
456.3695728123277
 31
0.0
  0
LINE
  5
3AF
330
1A
100
AcDbEntity
  8
SEIHIN
  6
CONTINUOUS
 62
     3
 48
16.0
100
AcDbLine
 10
245.5564328572102
 20
443.7695728123276
 30
0.0
 11
245.5564328572102
 21
456.3695728123277
 31
0.0
  0
ARC
  5
3B0
330
1A
100
AcDbEntity
  8
SEIHIN
  6
CONTINUOUS
 62
     3
 48
16.0
100
AcDbCircle
 10
255.48763285721
 20
450.0695728123276
 30
0.0
 40
2.0
100
AcDbArc
 50
270.0
 51
0.0
  0
LINE
  5
3B1
330
1A
100
AcDbEntity
  8
SEIHIN
  6
CONTINUOUS
 62
     3
 48
16.0
100
AcDbLine
 10
245.5564328572102
 20
448.0695728123276
 30
0.0
 11
255.48763285721
 21
448.0695728123276
 31
0.0
  0
LINE
  5
3B2
330
1A
100
AcDbEntity
  8
SEIHIN
  6
CONTINUOUS
 62
     3
 48
16.0
100
AcDbLine
 10
243.0574328572101
 20
443.7695728123276
 30
0.0
 11
243.0574328572101
 21
456.3695728123277
 31
0.0
  0
LINE
  5
3B3
330
1A
100
AcDbEntity
  8
SEIHIN
  6
CONTINUOUS
 62
     3
 48
16.0
100
AcDbLine
 10
252.4725328572099
 20
444.7695728123276
 30
0.0
 11
252.4725328572099
 21
447.0695728123275
 31
0.0
  0
ARC
  5
3B4
330
1A
100
AcDbEntity
  8
SEIHIN
  6
CONTINUOUS
 62
     3
 48
16.0
100
AcDbCircle
 10
253.4877328572101
 20
450.0695728123276
 30
0.0
 40
2.0
100
AcDbArc
 50
180.0
 51
270.0
  0
LINE
  5
3B5
330
1A
100
AcDbEntity
  8
SEIHIN
  6
CONTINUOUS
 62
     3
 48
16.0
100
AcDbLine
 10
258.71873285721
 20
442.5695728123276
 30
0.0
 11
258.71873285721
 21
443.7695728123276
 31
0.0
  0
ARC
  5
3B6
330
1A
100
AcDbEntity
  8
SEIHIN
  6
CONTINUOUS
 62
     3
 48
16.0
100
AcDbCircle
 10
269.13173285721
 20
450.0695728123276
 30
0.0
 40
2.749999999999957
100
AcDbArc
 50
179.9999999999991
 51
269.999999999999
  0
LINE
  5
3B7
330
1A
100
AcDbEntity
  8
SEIHIN
  6
CONTINUOUS
 62
     3
 48
16.0
100
AcDbLine
 10
245.5564328572102
 20
452.0695728123276
 30
0.0
 11
255.48763285721
 21
452.0695728123276
 31
0.0
  0
LINE
  5
3B8
330
1A
100
AcDbEntity
  8
SEIHIN
  6
CONTINUOUS
 62
     3
 48
16.0
100
AcDbLine
 10
252.47253285721
 20
455.3695728123277
 30
0.0
 11
252.47253285721
 21
453.0695728123276
 31
0.0
  0
LINE
  5
3B9
330
1A
100
AcDbEntity
  8
SEIHIN
  6
CONTINUOUS
 62
     3
 48
16.0
100
AcDbLine
 10
258.71873285721
 20
457.5695728123276
 30
0.0
 11
258.71873285721
 21
456.3695728123277
 31
0.0
  0
LINE
  5
3BA
330
1A
100
AcDbEntity
  8
SEIHIN
  6
CONTINUOUS
 62
     3
 48
16.0
100
AcDbLine
 10
258.47253285721
 20
455.3695728123277
 30
0.0
 11
258.47253285721
 21
452.0695728123276
 31
0.0
  0
LINE
  5
3BB
330
1A
100
AcDbEntity
  8
SEIHIN
  6
CONTINUOUS
 62
     3
 48
16.0
100
AcDbLine
 10
385.212232857211
 20
454.0695742874016
 30
0.0
 11
312.1551363492476
 21
454.0696685531631
 31
0.0
  0
LINE
  5
3BC
330
1A
100
AcDbEntity
  8
SEIHIN
  6
CONTINUOUS
 62
     3
 48
16.0
100
AcDbLine
 10
385.2122328572101
 20
446.0696728123275
 30
0.0
 11
312.1225833754654
 21
446.0696728123275
 31
0.0
  0
LINE
  5
3BD
330
1A
100
AcDbEntity
  8
SEIHIN
  6
CONTINUOUS
 62
     3
 48
16.0
100
AcDbLine
 10
288.2274328572102
 20
450.8195728123276
 30
0.0
 11
288.2274328572102
 21
449.3195728123276
 31
0.0
  0
LINE
  5
3BE
330
1A
100
AcDbEntity
  8
SEIHIN
  6
CONTINUOUS
 62
     3
 48
16.0
100
AcDbLine
 10
293.1554328572102
 20
450.8195728123276
 30
0.0
 11
293.1554328572102
 21
449.3195728123276
 31
0.0
  0
ARC
  5
3BF
330
1A
100
AcDbEntity
  8
SEIHIN
  6
CONTINUOUS
 62
     3
 48
16.0
100
AcDbCircle
 10
283.1550328572101
 20
450.0695728123276
 30
0.0
 40
2.5
100
AcDbArc
 50
0.0
 51
180.0
  0
ARC
  5
3C0
330
1A
100
AcDbEntity
  8
SEIHIN
  6
CONTINUOUS
 62
     3
 48
16.0
100
AcDbCircle
 10
283.15503285721
 20
450.0695728123276
 30
0.0
 40
3.250000000000014
100
AcDbArc
 50
0.0
 51
180.0
  0
LINE
  5
3C1
330
1A
100
AcDbEntity
  8
SEIHIN
  6
CONTINUOUS
 62
     3
 48
16.0
100
AcDbLine
 10
293.1550328572102
 20
458.0195728123276
 30
0.0
 11
293.1550328572102
 21
450.0695728123276
 31
0.0
  0
LINE
  5
3C2
330
1A
100
AcDbEntity
  8
CENTER_L
  6
CENTER
 62
     1
 48
5.0
100
AcDbLine
 10
283.1550328572101
 20
442.6047728123275
 30
0.0
 11
283.15513285721
 21
457.4761728123275
 31
0.0
  0
LINE
  5
3C3
330
1A
100
AcDbEntity
  8
SEIHIN
  6
CONTINUOUS
 62
     3
 48
16.0
100
AcDbLine
 10
273.15463285721
 20
449.3195728123276
 30
0.0
 11
273.15463285721
 21
450.8195728123276
 31
0.0
  0
LINE
  5
3C4
330
1A
100
AcDbEntity
  8
SEIHIN
  6
CONTINUOUS
 62
     3
 48
16.0
100
AcDbLine
 10
278.08263285721
 20
449.3195728123276
 30
0.0
 11
278.08263285721
 21
450.8195728123276
 31
0.0
  0
ARC
  5
3C6
330
1A
100
AcDbEntity
  8
SEIHIN
  6
CONTINUOUS
 62
     3
 48
16.0
100
AcDbCircle
 10
283.1550328572101
 20
450.0695728123276
 30
0.0
 40
4.499996045553777
100
AcDbArc
 50
196.1276347721288
 51
343.8723652278711
  0
ARC
  5
3C7
330
1A
100
AcDbEntity
  8
SEIHIN
  6
CONTINUOUS
 62
     3
 48
16.0
100
AcDbCircle
 10
283.15503285721
 20
450.0695728123276
 30
0.0
 40
3.250000000000014
100
AcDbArc
 50
180.0
 51
0.0
  0
ARC
  5
3C8
330
1A
100
AcDbEntity
  8
SEIHIN
  6
CONTINUOUS
 62
     3
 48
16.0
100
AcDbCircle
 10
283.15503285721
 20
450.0695728123276
 30
0.0
 40
5.500027928110909
100
AcDbArc
 50
193.1364908880196
 51
346.8635091119803
  0
LINE
  5
3C9
330
1A
100
AcDbEntity
  8
SEIHIN
  6
CONTINUOUS
 62
     3
 48
16.0
100
AcDbLine
 10
280.15503285721
 20
448.8195728123276
 30
0.0
 11
273.65463285721
 21
448.8195728123276
 31
0.0
  0
ARC
  5
3CA
330
1A
100
AcDbEntity
  8
SEIHIN
  6
CONTINUOUS
 62
     3
 48
16.0
100
AcDbCircle
 10
273.65463285721
 20
449.3195728123276
 30
0.0
 40
0.5
100
AcDbArc
 50
180.0
 51
270.0
  0
LINE
  5
3CB
330
1A
100
AcDbEntity
  8
SEIHIN
  6
CONTINUOUS
 62
     3
 48
16.0
100
AcDbLine
 10
273.1550328572101
 20
441.1195728123277
 30
0.0
 11
273.1550328572101
 21
459.0195728123275
 31
0.0
  0
ARC
  5
3CC
330
1A
100
AcDbEntity
  8
SEIHIN
  6
CONTINUOUS
 62
     3
 48
16.0
100
AcDbCircle
 10
283.1550328572101
 20
450.0695728123276
 30
0.0
 40
2.5
100
AcDbArc
 50
180.0
 51
0.0
  0
ARC
  5
3CD
330
1A
100
AcDbEntity
  8
SEIHIN
  6
CONTINUOUS
 62
     3
 48
16.0
100
AcDbCircle
 10
278.58263285721
 20
449.3195728123276
 30
0.0
 40
0.5
100
AcDbArc
 50
180.0
 51
270.0
  0
LINE
  5
3CE
330
1A
100
AcDbEntity
  8
SEIHIN
  6
CONTINUOUS
 62
     3
 48
16.0
100
AcDbLine
 10
286.15503285721
 20
448.8195728123276
 30
0.0
 11
292.6554328572101
 21
448.8195728123276
 31
0.0
  0
ARC
  5
3CF
330
1A
100
AcDbEntity
  8
SEIHIN
  6
CONTINUOUS
 62
     3
 48
16.0
100
AcDbCircle
 10
292.6554328572101
 20
449.3195728123276
 30
0.0
 40
0.5
100
AcDbArc
 50
270.0
 51
0.0
  0
ARC
  5
3D0
330
1A
100
AcDbEntity
  8
SEIHIN
  6
CONTINUOUS
 62
     3
 48
16.0
100
AcDbCircle
 10
287.7274328572102
 20
449.3195728123276
 30
0.0
 40
0.5
100
AcDbArc
 50
270.0
 51
0.0
  0
LINE
  5
3D1
330
1A
100
AcDbEntity
  8
SEIHIN
  6
CONTINUOUS
 62
     3
 48
16.0
100
AcDbLine
 10
293.1550328572102
 20
442.1195728123278
 30
0.0
 11
293.1550328572102
 21
450.0695728123276
 31
0.0
  0
ARC
  5
3D2
330
1A
100
AcDbEntity
  8
SEIHIN
  6
CONTINUOUS
 62
     3
 48
16.0
100
AcDbCircle
 10
283.1550328572101
 20
450.0695728123276
 30
0.0
 40
4.499996045553777
100
AcDbArc
 50
16.12763477212886
 51
163.8723652278711
  0
ARC
  5
3D3
330
1A
100
AcDbEntity
  8
SEIHIN
  6
CONTINUOUS
 62
     3
 48
16.0
100
AcDbCircle
 10
283.15508285721
 20
450.0695728122242
 30
0.0
 40
5.499979236575148
100
AcDbArc
 50
13.13660926862324
 51
166.8633907313767
  0
LINE
  5
3D4
330
1A
100
AcDbEntity
  8
SEIHIN
  6
CONTINUOUS
 62
     3
 48
16.0
100
AcDbLine
 10
280.15503285721
 20
451.3195728123276
 30
0.0
 11
273.65463285721
 21
451.3195728123276
 31
0.0
  0
ARC
  5
3D5
330
1A
100
AcDbEntity
  8
SEIHIN
  6
CONTINUOUS
 62
     3
 48
16.0
100
AcDbCircle
 10
273.65463285721
 20
450.8195728123276
 30
0.0
 40
0.5
100
AcDbArc
 50
90.0
 51
180.0
  0
ARC
  5
3D6
330
1A
100
AcDbEntity
  8
SEIHIN
  6
CONTINUOUS
 62
     3
 48
16.0
100
AcDbCircle
 10
278.58263285721
 20
450.8195728123276
 30
0.0
 40
0.5
100
AcDbArc
 50
90.0
 51
180.0
  0
LINE
  5
3D7
330
1A
100
AcDbEntity
  8
SEIHIN
  6
CONTINUOUS
 62
     3
 48
16.0
100
AcDbLine
 10
286.15503285721
 20
451.3195728123276
 30
0.0
 11
292.6554328572101
 21
451.3195728123276
 31
0.0
  0
ARC
  5
3D8
330
1A
100
AcDbEntity
  8
SEIHIN
  6
CONTINUOUS
 62
     3
 48
16.0
100
AcDbCircle
 10
287.7274328572102
 20
450.8195728123276
 30
0.0
 40
0.5
100
AcDbArc
 50
0.0
 51
90.0
  0
ARC
  5
3D9
330
1A
100
AcDbEntity
  8
SEIHIN
  6
CONTINUOUS
 62
     3
 48
16.0
100
AcDbCircle
 10
292.6554328572101
 20
450.8195728123276
 30
0.0
 40
0.5
100
AcDbArc
 50
0.0
 51
90.0
  0
LINE
  5
3DA
330
1A
100
AcDbEntity
  8
SEIHIN
  6
CONTINUOUS
 62
     3
 48
16.0
100
AcDbLine
 10
312.15513285721
 20
445.5725728123276
 30
0.0
 11
312.15513285721
 21
441.6319728123276
 31
0.0
  0
LINE
  5
3DB
330
1A
100
AcDbEntity
  8
SEIHIN
  6
CONTINUOUS
 62
     3
 48
16.0
100
AcDbLine
 10
312.15513285721
 20
454.5665728123276
 30
0.0
 11
312.15513285721
 21
458.5071728123276
 31
0.0
  0
ARC
  5
3DE
330
1A
100
AcDbEntity
  8
SEIHIN
  6
CONTINUOUS
 62
     3
 48
16.0
100
AcDbCircle
 10
398.1550141693608
 20
440.7695934621686
 30
0.0
 40
0.9999813123639777
100
AcDbArc
 50
180.0011831708455
 51
264.2905900333473
  0
LINE
  5
3DF
330
1A
100
AcDbEntity
  8
SEIHIN
  6
CONTINUOUS
 62
     3
 48
16.0
100
AcDbLine
 10
390.2122328572101
 20
453.0695728123276
 30
0.0
 11
390.2122328572101
 21
447.0695728123276
 31
0.0
  0
LINE
  5
3E0
330
1A
100
AcDbEntity
  8
SEIHIN
  6
CONTINUOUS
 62
     3
 48
16.0
100
AcDbLine
 10
386.2122328572101
 20
447.0696728123275
 30
0.0
 11
386.2122328572102
 21
453.069572997099
 31
0.0
  0
LINE
  5
3E1
330
1A
100
AcDbEntity
  8
SEIHIN
  6
CONTINUOUS
 62
     3
 48
16.0
100
AcDbLine
 10
397.1550328572102
 20
441.1195728123277
 30
0.0
 11
397.1550328572102
 21
440.7695728123276
 31
0.0
  0
LINE
  5
3E2
330
1A
100
AcDbEntity
  8
SEIHIN
  6
CONTINUOUS
 62
     3
 48
16.0
100
AcDbLine
 10
398.1550328572101
 20
441.1195728123277
 30
0.0
 11
398.1550328572101
 21
440.7695728123276
 31
0.0
  0
LINE
  5
3E3
330
1A
100
AcDbEntity
  8
SEIHIN
  6
CONTINUOUS
 62
     3
 48
16.0
100
AcDbLine
 10
398.1550328572101
 20
459.0195728123275
 30
0.0
 11
398.1550328572101
 21
459.3695728123276
 31
0.0
  0
LINE
  5
3E4
330
1A
100
AcDbEntity
  8
SEIHIN
  6
CONTINUOUS
 62
     3
 48
16.0
100
AcDbLine
 10
397.1550328572102
 20
459.0195728123275
 30
0.0
 11
397.1550328572102
 21
459.3695728123276
 31
0.0
  0
ARC
  5
3E5
330
1A
100
AcDbEntity
  8
SEIHIN
  6
CONTINUOUS
 62
     3
 48
16.0
100
AcDbCircle
 10
398.1550141693608
 20
459.3695521624867
 30
0.0
 40
0.999981312363973
100
AcDbArc
 50
95.70940996665262
 51
179.9988168291544
  0
LINE
  5
3E9
330
1A
100
AcDbEntity
  8
SEIHIN
  6
CONTINUOUS
 62
     3
 48
16.0
100
AcDbLine
 10
403.1550328572099
 20
439.3645728123275
 30
0.0
 11
403.1550328572099
 21
426.8195728123276
 31
0.0
  0
LINE
  5
3EA
330
1A
100
AcDbEntity
  8
SEIHIN
  6
CONTINUOUS
 62
     3
 48
16.0
100
AcDbLine
 10
402.1550328572102
 20
439.3645728123275
 30
0.0
 11
402.1550328572102
 21
426.8195728123276
 31
0.0
  0
ARC
  5
3F3
330
1A
100
AcDbEntity
  8
SEIHIN
  6
CONTINUOUS
 62
     3
 48
16.0
100
AcDbCircle
 10
597.0907309851394
 20
341.0689191709129
 30
0.0
 40
3.999929053798598
100
AcDbArc
 50
269.9980578747532
 51
348.4594848685643
  0
LINE
  5
3F4
330
1A
100
AcDbEntity
  8
SEIHIN
  6
CONTINUOUS
 62
     3
 48
16.0
100
AcDbLine
 10
618.3405954016239
 20
291.0686901194122
 30
0.0
 11
597.0905954016242
 21
291.0686901194122
 31
0.0
  0
ARC
  5
3F5
330
1A
100
AcDbEntity
  8
SEIHIN
  6
CONTINUOUS
 62
     3
 48
16.0
100
AcDbCircle
 10
597.0905954016242
 20
300.0686901194122
 30
0.0
 40
4.0
100
AcDbArc
 50
180.0
 51
0.0
  0
LINE
  5
3F6
330
1A
100
AcDbEntity
  8
CENTER_L
  6
CENTER
 62
     1
 48
5.0
100
AcDbLine
 10
597.0905954016242
 20
286.8810901194123
 30
0.0
 11
597.0905954016242
 21
345.1885901194123
 31
0.0
  0
LINE
  5
3FD
330
1A
100
AcDbEntity
  8
SEIHIN
  6
CONTINUOUS
 62
     3
 48
16.0
100
AcDbLine
 10
588.1405954016241
 20
291.0686901194122
 30
0.0
 11
588.1405954016241
 21
340.0686901194122
 31
0.0
  0
LINE
  5
3FE
330
1A
100
AcDbEntity
  8
SEIHIN
  6
CONTINUOUS
 62
     3
 48
16.0
100
AcDbLine
 10
587.0905954016242
 20
326.0686901194123
 30
0.0
 11
587.0905954016242
 21
291.0686901194122
 31
0.0
  0
LINE
  5
3FF
330
1A
100
AcDbEntity
  8
SEIHIN
  6
CONTINUOUS
 62
     3
 48
16.0
100
AcDbLine
 10
593.0905954016242
 20
339.5988901194122
 30
0.0
 11
593.0905954016242
 21
300.0686901194122
 31
0.0
  0
LINE
  5
400
330
1A
100
AcDbEntity
  8
SEIHIN
  6
CONTINUOUS
 62
     3
 48
16.0
100
AcDbLine
 10
573.8405954016242
 20
324.0686901194123
 30
0.0
 11
573.8405954016242
 21
293.0686901194122
 31
0.0
  0
LINE
  5
401
330
1A
100
AcDbEntity
  8
CENTER_L
  6
CENTER
 62
     1
 48
5.0
100
AcDbLine
 10
579.0905954016242
 20
307.5513901194123
 30
0.0
 11
579.0905954016242
 21
322.7542901194123
 31
0.0
  0
LINE
  5
402
330
1A
100
AcDbEntity
  8
SEIHIN
  6
PHANTOM
 62
     6
 48
5.0
100
AcDbLine
 10
418.1550328572101
 20
335.6120901194123
 30
0.0
 11
418.1550328572101
 21
291.0686901194122
 31
0.0
  0
LINE
  5
403
330
1A
100
AcDbEntity
  8
SEIHIN
  6
PHANTOM
 62
     6
 48
5.0
100
AcDbLine
 10
417.15503285721
 20
326.0686901194123
 30
0.0
 11
417.15503285721
 21
291.0686901194122
 31
0.0
  0
LINE
  5
404
330
1A
100
AcDbEntity
  8
SEIHIN
  6
PHANTOM
 62
     6
 48
5.0
100
AcDbLine
 10
412.1550328572102
 20
291.0686901194122
 30
0.0
 11
412.1550328572102
 21
326.0686901194123
 31
0.0
  0
LINE
  5
406
330
1A
100
AcDbEntity
  8
SEIHIN
  6
CONTINUOUS
 62
     3
 48
16.0
100
AcDbLine
 10
403.1550328572099
 20
335.6120901194123
 30
0.0
 11
403.1550328572099
 21
291.0686901194122
 31
0.0
  0
LINE
  5
407
330
1A
100
AcDbEntity
  8
SEIHIN
  6
CONTINUOUS
 62
     3
 48
16.0
100
AcDbLine
 10
402.1550328572102
 20
326.0686901194123
 30
0.0
 11
402.1550328572102
 21
291.0686901194122
 31
0.0
  0
LINE
  5
40A
330
1A
100
AcDbEntity
  8
SEIHIN
  6
PHANTOM
 62
     6
 48
5.0
100
AcDbLine
 10
418.1550328572101
 20
291.0686901194122
 30
0.0
 11
412.1550328572102
 21
291.0686901194122
 31
0.0
  0
LINE
  5
426
330
1A
100
AcDbEntity
  8
CENTER_L
  6
CENTER
 62
     1
 48
5.0
100
AcDbLine
 10
579.0905954016242
 20
294.2067901194122
 30
0.0
 11
579.0905954016242
 21
301.6905901194122
 31
0.0
  0
ARC
  5
427
330
1A
100
AcDbEntity
  8
SEIHIN
  6
CONTINUOUS
 62
     3
 48
16.0
100
AcDbCircle
 10
579.0905954016239
 20
298.0686901194122
 30
0.0
 40
2.100000000000079
100
AcDbArc
 50
0.0
 51
180.0
  0
LINE
  5
428
330
1A
100
AcDbEntity
  8
CENTER_L
  6
CENTER
 62
     1
 48
5.0
100
AcDbLine
 10
575.9763954016242
 20
298.0686901194122
 30
0.0
 11
582.6623954016239
 21
298.0686901194122
 31
0.0
  0
LINE
  5
429
330
1A
100
AcDbEntity
  8
SEIHIN
  6
CONTINUOUS
 62
     3
 48
16.0
100
AcDbLine
 10
575.840595401624
 20
291.0686901194122
 30
0.0
 11
597.0905954016242
 21
291.0686901194122
 31
0.0
  0
ARC
  5
42A
330
1A
100
AcDbEntity
  8
SEIHIN
  6
CONTINUOUS
 62
     3
 48
16.0
100
AcDbCircle
 10
575.840595401624
 20
293.0686901194121
 30
0.0
 40
1.999999999999886
100
AcDbArc
 50
179.9999999999987
 51
269.9999999999983
  0
ARC
  5
42B
330
1A
100
AcDbEntity
  8
SEIHIN
  6
CONTINUOUS
 62
     3
 48
16.0
100
AcDbCircle
 10
579.0905954016239
 20
298.0686901194122
 30
0.0
 40
2.100000000000079
100
AcDbArc
 50
180.0
 51
0.0
  0
LINE
  5
42C
330
1A
100
AcDbEntity
  8
CENTER_L
  6
CENTER
 62
     1
 48
5.0
100
AcDbLine
 10
582.917395401624
 20
319.0686901194122
 30
0.0
 11
575.7254954016242
 21
319.0686901194122
 31
0.0
  0
LINE
  5
42D
330
1A
100
AcDbEntity
  8
CENTER_L
  6
CENTER
 62
     1
 48
5.0
100
AcDbLine
 10
583.8673954016241
 20
313.0686901194122
 30
0.0
 11
574.5252954016242
 21
313.0686901194122
 31
0.0
  0
ARC
  5
42E
330
1A
100
AcDbEntity
  8
SEIHIN
  6
CONTINUOUS
 62
     3
 48
16.0
100
AcDbCircle
 10
579.0905954016239
 20
313.0686901194124
 30
0.0
 40
3.249999999999781
100
AcDbArc
 50
112.6198649480404
 51
67.3801350519596
  0
LINE
  5
42F
330
1A
100
AcDbEntity
  8
SEIHIN
  6
CONTINUOUS
 62
     3
 48
16.0
100
AcDbLine
 10
580.3405954016239
 20
316.0686901194122
 30
0.0
 11
580.3405954016239
 21
317.3811901194123
 31
0.0
  0
LINE
  5
430
330
1A
100
AcDbEntity
  8
SEIHIN
  6
CONTINUOUS
 62
     3
 48
16.0
100
AcDbLine
 10
577.8405954016242
 20
316.0686901194122
 30
0.0
 11
577.8405954016242
 21
317.3811901194123
 31
0.0
  0
ARC
  5
431
330
1A
100
AcDbEntity
  8
SEIHIN
  6
CONTINUOUS
 62
     3
 48
16.0
100
AcDbCircle
 10
579.0905954016239
 20
319.0686901194121
 30
0.0
 40
2.100037202051286
100
AcDbArc
 50
306.5288553669851
 51
233.4711446330148
  0
LINE
  5
432
330
1A
100
AcDbEntity
  8
SEIHIN
  6
CONTINUOUS
 62
     3
 48
16.0
100
AcDbLine
 10
587.0905954016242
 20
321.0686901194122
 30
0.0
 11
588.1405954016241
 21
321.0686901194122
 31
0.0
  0
ARC
  5
437
330
1A
100
AcDbEntity
  8
SEIHIN
  6
PHANTOM
 62
     6
 48
5.0
100
AcDbCircle
 10
413.15501872525
 20
335.6121030689186
 30
0.0
 40
5.000014131976854
100
AcDbArc
 50
359.9998516100073
 51
95.00006812726901
  0
LINE
  5
438
330
1A
100
AcDbEntity
  8
SEIHIN
  6
PHANTOM
 62
     6
 48
5.0
100
AcDbLine
 10
418.1550328572101
 20
326.0686901194123
 30
0.0
 11
412.1550328572102
 21
326.0686901194123
 31
0.0
  0
ARC
  5
439
330
1A
100
AcDbEntity
  8
SEIHIN
  6
PHANTOM
 62
     6
 48
5.0
100
AcDbCircle
 10
406.1550494189423
 20
321.9500789142195
 30
0.0
 40
6.999965164931858
100
AcDbArc
 50
31.00250783130436
 51
80.83548144089402
  0
LINE
  5
43A
330
1A
100
AcDbEntity
  8
SEIHIN
  6
PHANTOM
 62
     6
 48
5.0
100
AcDbLine
 10
407.26993285721
 20
340.1163901194123
 30
0.0
 11
412.71923285721
 21
340.5930901194122
 31
0.0
  0
LINE
  5
444
330
1A
100
AcDbEntity
  8
SEIHIN
  6
CONTINUOUS
 62
     3
 48
16.0
100
AcDbLine
 10
402.1550328572102
 20
426.8195728123276
 30
0.0
 11
403.1550328572099
 21
426.8195728123276
 31
0.0
  0
LINE
  5
448
330
1A
100
AcDbEntity
  8
SEIHIN
  6
CONTINUOUS
 62
     3
 48
16.0
100
AcDbLine
 10
575.840595401624
 20
326.0686901194123
 30
0.0
 11
587.0905954016242
 21
326.0686901194123
 31
0.0
  0
ARC
  5
449
330
1A
100
AcDbEntity
  8
SEIHIN
  6
CONTINUOUS
 62
     3
 48
16.0
100
AcDbCircle
 10
575.840595401624
 20
324.0686901194123
 30
0.0
 40
1.999999999999914
100
AcDbArc
 50
90.00000000000245
 51
180.0000000000024
  0
LINE
  5
44A
330
1A
100
AcDbEntity
  8
SEIHIN
  6
CONTINUOUS
 62
     3
 48
16.0
100
AcDbLine
 10
589.140595401624
 20
341.0686901194122
 30
0.0
 11
592.1915954016241
 21
341.0686901194122
 31
0.0
  0
ARC
  5
44B
330
1A
100
AcDbEntity
  8
SEIHIN
  6
CONTINUOUS
 62
     3
 48
16.0
100
AcDbCircle
 10
589.140595401624
 20
340.0686901194123
 30
0.0
 40
0.9999999999998721
100
AcDbArc
 50
90.00000000000325
 51
180.0000000000024
  0
ARC
  5
44C
330
1A
100
AcDbEntity
  8
SEIHIN
  6
CONTINUOUS
 62
     3
 48
16.0
100
AcDbCircle
 10
592.1915978633543
 20
340.0686881094162
 30
0.0
 40
1.000002009998991
100
AcDbArc
 50
11.53705306385175
 51
90.00014104646671
  0
ARC
  5
44D
330
1A
100
AcDbEntity
  8
SEIHIN
  6
CONTINUOUS
 62
     3
 48
16.0
100
AcDbCircle
 10
597.0904598181087
 20
341.0689191709129
 30
0.0
 40
3.99992905379859
100
AcDbArc
 50
191.5405151314356
 51
270.0019421252467
  0
LINE
  5
454
330
1A
100
AcDbEntity
  8
SEIHIN
  6
CONTINUOUS
 62
     3
 48
16.0
100
AcDbLine
 10
607.090595401624
 20
326.0686901194123
 30
0.0
 11
607.090595401624
 21
291.0686901194122
 31
0.0
  0
LINE
  5
455
330
1A
100
AcDbEntity
  8
SEIHIN
  6
CONTINUOUS
 62
     3
 48
16.0
100
AcDbLine
 10
606.040595401624
 20
291.0686901194122
 30
0.0
 11
606.040595401624
 21
340.0686901194122
 31
0.0
  0
LINE
  5
456
330
1A
100
AcDbEntity
  8
SEIHIN
  6
CONTINUOUS
 62
     3
 48
16.0
100
AcDbLine
 10
601.0905954016242
 20
339.5988901194122
 30
0.0
 11
601.0905954016242
 21
300.0686901194122
 31
0.0
  0
LINE
  5
457
330
1A
100
AcDbEntity
  8
SEIHIN
  6
CONTINUOUS
 62
     3
 48
16.0
100
AcDbLine
 10
620.340595401624
 20
324.0686901194123
 30
0.0
 11
620.340595401624
 21
293.0686901194122
 31
0.0
  0
LINE
  5
458
330
1A
100
AcDbEntity
  8
CENTER_L
  6
CENTER
 62
     1
 48
5.0
100
AcDbLine
 10
615.090595401624
 20
307.5513901194123
 30
0.0
 11
615.090595401624
 21
322.7542901194123
 31
0.0
  0
LINE
  5
45C
330
1A
100
AcDbEntity
  8
CENTER_L
  6
CENTER
 62
     1
 48
5.0
100
AcDbLine
 10
615.090595401624
 20
294.2067901194122
 30
0.0
 11
615.090595401624
 21
301.3828901194123
 31
0.0
  0
ARC
  5
45D
330
1A
100
AcDbEntity
  8
SEIHIN
  6
CONTINUOUS
 62
     3
 48
16.0
100
AcDbCircle
 10
615.090595401624
 20
298.0686901194122
 30
0.0
 40
2.100000000000022
100
AcDbArc
 50
0.0
 51
180.0
  0
ARC
  5
45E
330
1A
100
AcDbEntity
  8
SEIHIN
  6
CONTINUOUS
 62
     3
 48
16.0
100
AcDbCircle
 10
615.090595401624
 20
298.0686901194122
 30
0.0
 40
2.100000000000022
100
AcDbArc
 50
180.0
 51
0.0
  0
LINE
  5
45F
330
1A
100
AcDbEntity
  8
CENTER_L
  6
CENTER
 62
     1
 48
5.0
100
AcDbLine
 10
618.3405954016239
 20
298.0686901194122
 30
0.0
 11
611.518795401624
 21
298.0686901194122
 31
0.0
  0
ARC
  5
460
330
1A
100
AcDbEntity
  8
SEIHIN
  6
CONTINUOUS
 62
     3
 48
16.0
100
AcDbCircle
 10
618.3405954016239
 20
293.0686901194123
 30
0.0
 40
1.999999999999957
100
AcDbArc
 50
269.9999999999983
 51
359.9999999999987
  0
LINE
  5
461
330
1A
100
AcDbEntity
  8
CENTER_L
  6
CENTER
 62
     1
 48
5.0
100
AcDbLine
 10
611.2637954016242
 20
319.0686901194122
 30
0.0
 11
618.3405954016239
 21
319.0686901194122
 31
0.0
  0
LINE
  5
462
330
1A
100
AcDbEntity
  8
CENTER_L
  6
CENTER
 62
     1
 48
5.0
100
AcDbLine
 10
610.3137954016239
 20
313.0686901194122
 30
0.0
 11
619.499695401624
 21
313.0686901194122
 31
0.0
  0
ARC
  5
463
330
1A
100
AcDbEntity
  8
SEIHIN
  6
CONTINUOUS
 62
     3
 48
16.0
100
AcDbCircle
 10
615.090595401624
 20
313.0686901194122
 30
0.0
 40
3.250000000000003
100
AcDbArc
 50
112.6198649480404
 51
67.3801350519596
  0
ARC
  5
464
330
1A
100
AcDbEntity
  8
SEIHIN
  6
CONTINUOUS
 62
     3
 48
16.0
100
AcDbCircle
 10
615.090595401624
 20
319.0686901194122
 30
0.0
 40
2.100037202051429
100
AcDbArc
 50
306.5288553669851
 51
233.4711446330148
  0
LINE
  5
465
330
1A
100
AcDbEntity
  8
SEIHIN
  6
CONTINUOUS
 62
     3
 48
16.0
100
AcDbLine
 10
606.040595401624
 20
321.0686901194122
 30
0.0
 11
607.090595401624
 21
321.0686901194122
 31
0.0
  0
LINE
  5
466
330
1A
100
AcDbEntity
  8
SEIHIN
  6
CONTINUOUS
 62
     3
 48
16.0
100
AcDbLine
 10
613.8405954016239
 20
316.0686901194122
 30
0.0
 11
613.8405954016239
 21
317.3811901194123
 31
0.0
  0
LINE
  5
469
330
1A
100
AcDbEntity
  8
SEIHIN
  6
CONTINUOUS
 62
     3
 48
16.0
100
AcDbLine
 10
616.340595401624
 20
316.0686901194122
 30
0.0
 11
616.340595401624
 21
317.3811901194123
 31
0.0
  0
LINE
  5
46F
330
1A
100
AcDbEntity
  8
SEIHIN
  6
CONTINUOUS
 62
     3
 48
16.0
100
AcDbLine
 10
618.3405954016239
 20
326.0686901194123
 30
0.0
 11
607.090595401624
 21
326.0686901194123
 31
0.0
  0
LINE
  5
470
330
1A
100
AcDbEntity
  8
SEIHIN
  6
CONTINUOUS
 62
     3
 48
16.0
100
AcDbLine
 10
605.040595401624
 20
341.0686901194122
 30
0.0
 11
601.9895954016241
 21
341.0686901194122
 31
0.0
  0
ARC
  5
471
330
1A
100
AcDbEntity
  8
SEIHIN
  6
CONTINUOUS
 62
     3
 48
16.0
100
AcDbCircle
 10
605.040595401624
 20
340.0686901194122
 30
0.0
 40
1.0
100
AcDbArc
 50
0.0000000000056996
 51
90.00000000000651
  0
ARC
  5
472
330
1A
100
AcDbEntity
  8
SEIHIN
  6
CONTINUOUS
 62
     3
 48
16.0
100
AcDbCircle
 10
601.9895929398939
 20
340.0686881094162
 30
0.0
 40
1.000002009998997
100
AcDbArc
 50
89.99985895353493
 51
168.4629469361486
  0
ARC
  5
473
330
1A
100
AcDbEntity
  8
SEIHIN
  6
CONTINUOUS
 62
     3
 48
16.0
100
AcDbCircle
 10
618.3405954016239
 20
324.0686901194123
 30
0.0
 40
2.0
100
AcDbArc
 50
0.0
 51
90.0
  0
ARC
  5
47A
330
1A
100
AcDbEntity
  8
SEIHIN
  6
CONTINUOUS
 62
     3
 48
16.0
100
AcDbCircle
 10
402.1550515450592
 20
439.3645521624866
 30
0.0
 40
0.9999813123638924
100
AcDbArc
 50
0.0011831708471467
 51
84.29059003334851
  0
LINE
  5
47B
330
1A
100
AcDbEntity
  8
SEIHIN
  6
CONTINUOUS
 62
     3
 48
16.0
100
AcDbLine
 10
403.1550328572099
 20
458.0195728123277
 30
0.0
 11
403.1550328572099
 21
442.1195728123277
 31
0.0
  0
ARC
  5
47C
330
1A
100
AcDbEntity
  8
SEIHIN
  6
CONTINUOUS
 62
     3
 48
16.0
100
AcDbCircle
 10
400.9550730568082
 20
444.3495122974594
 30
0.0
 40
2.199959801234027
100
AcDbArc
 50
0.001576049953194
 51
67.19318873749968
  0
ARC
  5
47D
330
1A
100
AcDbEntity
  8
SEIHIN
  6
CONTINUOUS
 62
     3
 48
16.0
100
AcDbCircle
 10
402.15503285721
 20
442.1195728123276
 30
0.0
 40
0.9999999999999147
100
AcDbArc
 50
270.0000000000049
 51
0.0000000000048853
  0
LINE
  5
47F
330
1A
100
AcDbEntity
  8
SEIHIN
  6
CONTINUOUS
 62
     3
 48
16.0
100
AcDbLine
 10
403.1550328572099
 20
460.7745728123274
 30
0.0
 11
403.1550328572099
 21
473.3195728123276
 31
0.0
  0
LINE
  5
480
330
1A
100
AcDbEntity
  8
SEIHIN
  6
CONTINUOUS
 62
     3
 48
16.0
100
AcDbLine
 10
402.1550328572102
 20
460.7745728123274
 30
0.0
 11
402.1550328572102
 21
473.3195728123276
 31
0.0
  0
ARC
  5
481
330
1A
100
AcDbEntity
  8
SEIHIN
  6
CONTINUOUS
 62
     3
 48
16.0
100
AcDbCircle
 10
402.1550515450592
 20
460.7745934621684
 30
0.0
 40
0.9999813123638855
100
AcDbArc
 50
275.7094099666514
 51
359.9988168291528
  0
ARC
  5
482
330
1A
100
AcDbEntity
  8
SEIHIN
  6
CONTINUOUS
 62
     3
 48
16.0
100
AcDbCircle
 10
400.955053673316
 20
455.789604149486
 30
0.0
 40
2.199979184117061
100
AcDbArc
 50
292.8099719296115
 51
359.9991838618588
  0
ARC
  5
483
330
1A
100
AcDbEntity
  8
SEIHIN
  6
CONTINUOUS
 62
     3
 48
16.0
100
AcDbCircle
 10
402.15503285721
 20
458.0195728123277
 30
0.0
 40
0.9999999999998578
100
AcDbArc
 50
359.9999999999983
 51
89.99999999999836
  0
LINE
  5
484
330
1A
100
AcDbEntity
  8
SEIHIN
  6
CONTINUOUS
 62
     3
 48
16.0
100
AcDbLine
 10
402.1550328572102
 20
473.3195728123276
 30
0.0
 11
403.1550328572099
 21
473.3195728123276
 31
0.0
  0
ARC
  5
531
330
1A
100
AcDbEntity
  8
SEIHIN
  6
CONTINUOUS
 62
     3
 48
16.0
100
AcDbCircle
 10
391.1549626044308
 20
173.065927659728
 30
0.0
 40
6.999955898110234
100
AcDbArc
 50
31.00259114045825
 51
95.00035652508291
  0
LINE
  5
532
330
1A
100
AcDbEntity
  8
SEIHIN
  6
CONTINUOUS
 62
     3
 48
16.0
100
AcDbLine
 10
316.5658328572097
 20
184.6089428158817
 30
0.0
 11
397.7191328572097
 21
191.7089428158818
 31
0.0
  0
LINE
  5
533
330
1A
100
AcDbEntity
  8
CENTER_L
  6
CENTER
 62
     1
 48
5.0
100
AcDbLine
 10
406.5364328572097
 20
164.1845428158818
 30
0.0
 11
393.1899328572098
 21
164.1845428158818
 31
0.0
  0
LINE
  5
534
330
1A
100
AcDbEntity
  8
CENTER_L
  6
CENTER
 62
     1
 48
5.0
100
AcDbLine
 10
406.6175328572098
 20
170.1845428158818
 30
0.0
 11
393.1899328572098
 21
170.1845428158818
 31
0.0
  0
LINE
  5
535
330
1A
100
AcDbEntity
  8
CENTER_L
  6
CENTER
 62
     1
 48
5.0
100
AcDbLine
 10
393.1899328572098
 20
149.1845428158818
 30
0.0
 11
406.3337328572099
 21
149.1845428158818
 31
0.0
  0
LINE
  5
536
330
1A
100
AcDbEntity
  8
SEIHIN
  6
CONTINUOUS
 62
     3
 48
16.0
100
AcDbLine
 10
279.754716548024
 20
148.6232591250675
 30
0.0
 11
260.6315328572097
 21
148.6233428158818
 31
0.0
  0
LINE
  5
537
330
1A
100
AcDbEntity
  8
SEIHIN
  6
CONTINUOUS
 62
     3
 48
16.0
100
AcDbLine
 10
258.7186328572097
 20
149.0233428158818
 30
0.0
 11
279.3547175608129
 21
149.0232581122787
 31
0.0
  0
LINE
  5
538
330
1A
100
AcDbEntity
  8
SEIHIN
  6
CONTINUOUS
 62
     3
 48
16.0
100
AcDbLine
 10
260.7186328572097
 20
158.0231428158819
 30
0.0
 11
273.1549328572098
 21
158.0231428158818
 31
0.0
  0
LINE
  5
539
330
1A
100
AcDbEntity
  8
SEIHIN
  6
CONTINUOUS
 62
     3
 48
16.0
100
AcDbLine
 10
258.3223328572098
 20
150.4182428158818
 30
0.0
 11
253.1329328572097
 21
157.1644428158817
 31
0.0
  0
LINE
  5
53A
330
1A
100
AcDbEntity
  8
SEIHIN
  6
CONTINUOUS
 62
     3
 48
16.0
100
AcDbLine
 10
251.1969328572098
 20
154.4328428158818
 30
0.0
 11
255.0768328572098
 21
149.3889428158818
 31
0.0
  0
LINE
  5
53B
330
1A
100
AcDbEntity
  8
SEIHIN
  6
CONTINUOUS
 62
     3
 48
16.0
100
AcDbLine
 10
258.7186328572097
 20
149.0231428158817
 30
0.0
 11
258.7186328572097
 21
156.0231428158817
 31
0.0
  0
LINE
  5
53C
330
1A
100
AcDbEntity
  8
SEIHIN
  6
CONTINUOUS
 62
     3
 48
16.0
100
AcDbLine
 10
257.3711328572097
 20
149.6866428158817
 30
0.0
 11
252.1817328572097
 21
156.4328428158818
 31
0.0
  0
ARC
  5
53D
330
1A
100
AcDbEntity
  8
SEIHIN
  6
CONTINUOUS
 62
     3
 48
16.0
100
AcDbCircle
 10
258.718606426925
 20
150.723155830488
 30
0.0
 40
1.700013014811743
100
AcDbArc
 50
217.5684553619189
 51
270.0008907836334
  0
ARC
  5
53E
330
1A
100
AcDbEntity
  8
SEIHIN
  6
CONTINUOUS
 62
     3
 48
16.0
100
AcDbCircle
 10
256.6621169922241
 20
150.6084440259037
 30
0.0
 40
2.000077246001448
100
AcDbArc
 50
217.5697699181803
 51
313.7078331647886
  0
ARC
  5
53F
330
1A
100
AcDbEntity
  8
SEIHIN
  6
CONTINUOUS
 62
     3
 48
16.0
100
AcDbCircle
 10
258.718534404905
 20
150.7231912961811
 30
0.0
 40
0.5000484899911797
100
AcDbArc
 50
217.5777771131719
 51
270.0112807091577
  0
LINE
  5
540
330
1A
100
AcDbEntity
  8
SEIHIN
  6
CONTINUOUS
 62
     3
 48
16.0
100
AcDbLine
 10
260.6315328572097
 20
148.6231428158817
 30
0.0
 11
260.6315328572097
 21
149.0231428158817
 31
0.0
  0
ARC
  5
541
330
1A
100
AcDbEntity
  8
SEIHIN
  6
CONTINUOUS
 62
     3
 48
16.0
100
AcDbCircle
 10
251.3892243366025
 20
155.8231257648778
 30
0.0
 40
2.200017052905966
100
AcDbArc
 50
68.885779347924
 51
90.00238242840453
  0
ARC
  5
542
330
1A
100
AcDbEntity
  8
SEIHIN
  6
CONTINUOUS
 62
     3
 48
16.0
100
AcDbCircle
 10
251.3891068870167
 20
155.8231556035453
 30
0.0
 40
0.9999872126736883
100
AcDbArc
 50
37.5674533748125
 51
89.99851199851674
  0
ARC
  5
543
330
1A
100
AcDbEntity
  8
SEIHIN
  6
CONTINUOUS
 62
     3
 48
16.0
100
AcDbCircle
 10
244.5572594053874
 20
158.3231070850307
 30
0.0
 40
1.499964269383817
100
AcDbArc
 50
163.2240044688655
 51
269.998985910157
  0
LINE
  5
544
330
1A
100
AcDbEntity
  8
SEIHIN
  6
CONTINUOUS
 62
     3
 48
16.0
100
AcDbLine
 10
244.4072328572098
 20
163.0231428158817
 30
0.0
 11
243.1211328572099
 21
158.7560428158818
 31
0.0
  0
LINE
  5
545
330
1A
100
AcDbEntity
  8
SEIHIN
  6
CONTINUOUS
 62
     3
 48
16.0
100
AcDbLine
 10
244.4072328572098
 20
163.0231428158817
 30
0.0
 11
245.5562328572097
 21
162.6768428158817
 31
0.0
  0
ARC
  5
546
330
1A
100
AcDbEntity
  8
SEIHIN
  6
CONTINUOUS
 62
     3
 48
16.0
100
AcDbCircle
 10
250.4043068870168
 20
153.8231556035453
 30
0.0
 40
0.9999872126737717
100
AcDbArc
 50
37.56745337482103
 51
89.9985119985263
  0
ARC
  5
547
330
1A
100
AcDbEntity
  8
SEIHIN
  6
CONTINUOUS
 62
     3
 48
16.0
100
AcDbCircle
 10
246.5572328572099
 20
156.8231428158818
 30
0.0
 40
2.0
100
AcDbArc
 50
180.0
 51
270.0
  0
ARC
  5
548
330
1A
100
AcDbEntity
  8
SEIHIN
  6
CONTINUOUS
 62
     3
 48
16.0
100
AcDbCircle
 10
244.5572431350186
 20
158.3231289819106
 30
0.0
 40
0.2999861662048333
100
AcDbArc
 50
163.2182955161111
 51
269.9980369925814
  0
LINE
  5
549
330
1A
100
AcDbEntity
  8
SEIHIN
  6
CONTINUOUS
 62
     3
 48
16.0
100
AcDbLine
 10
244.5572328572099
 20
156.8231428158818
 30
0.0
 11
251.3891328572098
 21
156.8231428158818
 31
0.0
  0
LINE
  5
54A
330
1A
100
AcDbEntity
  8
SEIHIN
  6
CONTINUOUS
 62
     3
 48
16.0
100
AcDbLine
 10
244.5572328572099
 20
158.0231428158819
 30
0.0
 11
251.3891328572098
 21
158.0231428158819
 31
0.0
  0
LINE
  5
54B
330
1A
100
AcDbEntity
  8
SEIHIN
  6
CONTINUOUS
 62
     3
 48
16.0
100
AcDbLine
 10
250.4043328572097
 20
154.8231428158818
 30
0.0
 11
246.5572328572099
 21
154.8231428158818
 31
0.0
  0
LINE
  5
54C
330
1A
100
AcDbEntity
  8
SEIHIN
  6
CONTINUOUS
 62
     3
 48
16.0
100
AcDbLine
 10
245.5562328572097
 20
162.6768428158817
 30
0.0
 11
244.2700328572097
 21
158.4097428158818
 31
0.0
  0
ARC
  5
54D
330
1A
100
AcDbEntity
  8
SEIHIN
  6
CONTINUOUS
 62
     3
 48
16.0
100
AcDbCircle
 10
260.7186328572097
 20
156.0231428158818
 30
0.0
 40
2.000000000000028
100
AcDbArc
 50
90.00000000000081
 51
180.0000000000007
  0
ARC
  5
54E
330
1A
100
AcDbEntity
  8
SEIHIN
  6
CONTINUOUS
 62
     3
 48
16.0
100
AcDbCircle
 10
251.3891471403681
 20
155.823132140879
 30
0.0
 40
2.200038914490386
100
AcDbArc
 50
37.56935675962112
 51
68.88384407614045
  0
LINE
  5
54F
330
1A
100
AcDbEntity
  8
SEIHIN
  6
CONTINUOUS
 62
     3
 48
16.0
100
AcDbLine
 10
390.5448328572099
 20
180.0392428158818
 30
0.0
 11
322.8176328572097
 21
174.1139428158818
 31
0.0
  0
LINE
  5
550
330
1A
100
AcDbEntity
  8
SEIHIN
  6
CONTINUOUS
 62
     3
 48
16.0
100
AcDbLine
 10
345.4816328572098
 20
148.6231428158817
 30
0.0
 11
296.0949537687846
 21
148.6232509779214
 31
0.0
  0
LINE
  5
551
330
1A
100
AcDbEntity
  8
SEIHIN
  6
CONTINUOUS
 62
     3
 48
16.0
100
AcDbLine
 10
340.8940328572098
 20
166.7826428158817
 30
0.0
 11
329.8754328572098
 21
151.1434428158818
 31
0.0
  0
LINE
  5
552
330
1A
100
AcDbEntity
  8
SEIHIN
  6
CONTINUOUS
 62
     3
 48
16.0
100
AcDbLine
 10
297.273583938636
 20
149.0232515067304
 30
0.0
 11
343.8816328572098
 21
149.0231428158817
 31
0.0
  0
ARC
  5
553
330
1A
100
AcDbEntity
  8
SEIHIN
  6
CONTINUOUS
 62
     3
 48
16.0
100
AcDbCircle
 10
349.06893839276
 20
161.0232635320916
 30
0.0
 40
19.00003449615686
100
AcDbArc
 50
132.8439806163847
 51
144.8341456944893
  0
LINE
  5
554
330
1A
100
AcDbEntity
  8
SEIHIN
  6
CONTINUOUS
 62
     3
 48
16.0
100
AcDbLine
 10
293.1549328572098
 20
159.2231428158818
 30
0.0
 11
309.4758328572097
 21
180.6978428158818
 31
0.0
  0
ARC
  5
555
330
1A
100
AcDbEntity
  8
SEIHIN
  6
CONTINUOUS
 62
     3
 48
16.0
100
AcDbCircle
 10
293.1548166042606
 20
159.2230347542056
 30
0.0
 40
10.99999193864251
100
AcDbArc
 50
269.9995637858108
 51
322.7646369216447
  0
LINE
  5
556
330
1A
100
AcDbEntity
  8
SEIHIN
  6
CONTINUOUS
 62
     3
 48
16.0
100
AcDbLine
 10
280.1549328572097
 20
148.2230428158818
 30
0.0
 11
273.1549328572098
 21
155.2230428158818
 31
0.0
  0
LINE
  5
557
330
1A
100
AcDbEntity
  8
CENTER_L
  6
CENTER
 62
     1
 48
5.0
100
AcDbLine
 10
283.1550328572097
 20
170.7393428158818
 30
0.0
 11
283.1549328572098
 21
141.4173428158818
 31
0.0
  0
ARC
  5
558
330
1A
100
AcDbEntity
  8
SEIHIN
  6
CONTINUOUS
 62
     3
 48
16.0
100
AcDbCircle
 10
283.1551328572098
 20
155.8705428158818
 30
0.0
 40
9.747010259561672
100
AcDbArc
 50
235.6479976531777
 51
304.3520023468222
  0
LINE
  5
559
330
1A
100
AcDbEntity
  8
SEIHIN
  6
CONTINUOUS
 62
     3
 48
16.0
100
AcDbLine
 10
277.6551328572098
 20
147.8235428158818
 30
0.0
 11
288.6552328572097
 21
147.8235428158818
 31
0.0
  0
LINE
  5
55A
330
1A
100
AcDbEntity
  8
SEIHIN
  6
CONTINUOUS
 62
     3
 48
16.0
100
AcDbLine
 10
280.1549328572097
 20
148.2230428158818
 30
0.0
 11
293.1548328572099
 21
148.2230428158818
 31
0.0
  0
LINE
  5
55B
330
1A
100
AcDbEntity
  8
SEIHIN
  6
CONTINUOUS
 62
     3
 48
16.0
100
AcDbLine
 10
277.6551328572098
 20
147.8235428158818
 30
0.0
 11
277.6551328572098
 21
148.6234428158818
 31
0.0
  0
LINE
  5
55C
330
1A
100
AcDbEntity
  8
SEIHIN
  6
CONTINUOUS
 62
     3
 48
16.0
100
AcDbLine
 10
288.6552328572097
 20
147.8235428158818
 30
0.0
 11
288.6552328572097
 21
148.2230428158818
 31
0.0
  0
LINE
  5
55D
330
1A
100
AcDbEntity
  8
SEIHIN
  6
CONTINUOUS
 62
     3
 48
16.0
100
AcDbLine
 10
283.1551328572098
 20
166.2235428158818
 30
0.0
 11
280.6552328572097
 21
166.2235428158818
 31
0.0
  0
LINE
  5
55E
330
1A
100
AcDbEntity
  8
SEIHIN
  6
CONTINUOUS
 62
     3
 48
16.0
100
AcDbLine
 10
283.1551328572098
 20
164.9235428158818
 30
0.0
 11
279.9052328572098
 21
164.9235428158818
 31
0.0
  0
LINE
  5
55F
330
1A
100
AcDbEntity
  8
SEIHIN
  6
CONTINUOUS
 62
     3
 48
16.0
100
AcDbLine
 10
278.6551328572098
 20
161.9235428158817
 30
0.0
 11
283.1551328572098
 21
161.9235428158817
 31
0.0
  0
LINE
  5
560
330
1A
100
AcDbEntity
  8
SEIHIN
  6
CONTINUOUS
 62
     3
 48
16.0
100
AcDbLine
 10
277.6551328572098
 20
160.7235428158818
 30
0.0
 11
283.1551328572098
 21
160.7235428158818
 31
0.0
  0
LINE
  5
561
330
1A
100
AcDbEntity
  8
SEIHIN
  6
CONTINUOUS
 62
     3
 48
16.0
100
AcDbLine
 10
293.1549328572098
 20
159.2231428158818
 30
0.0
 11
273.1549328572098
 21
159.2231428158818
 31
0.0
  0
LINE
  5
562
330
1A
100
AcDbEntity
  8
SEIHIN
  6
CONTINUOUS
 62
     3
 48
16.0
100
AcDbLine
 10
279.9052328572098
 20
164.9235428158818
 30
0.0
 11
278.4713328572097
 21
170.2746428158818
 31
0.0
  0
LINE
  5
563
330
1A
100
AcDbEntity
  8
SEIHIN
  6
CONTINUOUS
 62
     3
 48
16.0
100
AcDbLine
 10
280.6552328572097
 20
166.2235428158818
 30
0.0
 11
280.6552328572097
 21
164.9235428158818
 31
0.0
  0
ARC
  5
564
330
1A
100
AcDbEntity
  8
SEIHIN
  6
CONTINUOUS
 62
     3
 48
16.0
100
AcDbCircle
 10
284.2910703849681
 20
170.1842356485306
 30
0.0
 40
9.000024792292828
100
AcDbArc
 50
205.000828865635
 51
222.8781744476676
  0
LINE
  5
565
330
1A
100
AcDbEntity
  8
SEIHIN
  6
CONTINUOUS
 62
     3
 48
16.0
100
AcDbLine
 10
277.5054328572098
 20
170.0158428158819
 30
0.0
 11
278.8070328572099
 21
165.1582428158818
 31
0.0
  0
ARC
  5
566
330
1A
100
AcDbEntity
  8
SEIHIN
  6
CONTINUOUS
 62
     3
 48
16.0
100
AcDbCircle
 10
284.2911532281596
 20
170.1841188359391
 30
0.0
 40
10.0000357304778
100
AcDbArc
 50
204.9998628300813
 51
235.695562802508
  0
ARC
  5
567
330
1A
100
AcDbEntity
  8
SEIHIN
  6
CONTINUOUS
 62
     3
 48
16.0
100
AcDbCircle
 10
278.3240307461594
 20
165.0288111098716
 30
0.0
 40
0.5000436038986501
100
AcDbArc
 50
337.3871071408826
 51
15.00129275636688
  0
LINE
  5
568
330
1A
100
AcDbEntity
  8
SEIHIN
  6
CONTINUOUS
 62
     3
 48
16.0
100
AcDbLine
 10
278.7855328572097
 20
164.8365428158817
 30
0.0
 11
278.5237328572097
 21
164.2081428158818
 31
0.0
  0
LINE
  5
569
330
1A
100
AcDbEntity
  8
SEIHIN
  6
CONTINUOUS
 62
     3
 48
16.0
100
AcDbLine
 10
278.6551328572098
 20
161.9235428158817
 30
0.0
 11
279.9052328572098
 21
164.9235428158818
 31
0.0
  0
ARC
  5
56A
330
1A
100
AcDbEntity
  8
SEIHIN
  6
CONTINUOUS
 62
     3
 48
16.0
100
AcDbCircle
 10
278.0622191269796
 20
164.4004403632619
 30
0.0
 40
0.4999732692047835
100
AcDbArc
 50
222.8773689717944
 51
337.3801181495844
  0
LINE
  5
56B
330
1A
100
AcDbEntity
  8
SEIHIN
  6
CONTINUOUS
 62
     3
 48
16.0
100
AcDbLine
 10
273.1549328572098
 20
155.2230428158818
 30
0.0
 11
273.1549328572098
 21
159.2230428158817
 31
0.0
  0
LINE
  5
56C
330
1A
100
AcDbEntity
  8
SEIHIN
  6
CONTINUOUS
 62
     3
 48
16.0
100
AcDbLine
 10
277.6551328572098
 20
160.7235428158818
 30
0.0
 11
277.6551328572098
 21
159.2235428158818
 31
0.0
  0
LINE
  5
56D
330
1A
100
AcDbEntity
  8
SEIHIN
  6
CONTINUOUS
 62
     3
 48
16.0
100
AcDbLine
 10
278.6551328572098
 20
161.9235428158817
 30
0.0
 11
279.1551328572097
 21
160.7235428158818
 31
0.0
  0
ARC
  5
56E
330
1A
100
AcDbEntity
  8
SEIHIN
  6
CONTINUOUS
 62
     3
 48
16.0
100
AcDbCircle
 10
275.2699274311037
 20
169.4168311802838
 30
0.0
 40
1.500013318264716
100
AcDbArc
 50
104.9985194361947
 51
204.9981179307403
  0
ARC
  5
56F
330
1A
100
AcDbEntity
  8
SEIHIN
  6
CONTINUOUS
 62
     3
 48
16.0
100
AcDbCircle
 10
277.0224328572098
 20
169.8864428158818
 30
0.0
 40
0.5000333588872418
100
AcDbArc
 50
14.99784618189823
 51
104.9978461818982
  0
ARC
  5
570
330
1A
100
AcDbEntity
  8
SEIHIN
  6
CONTINUOUS
 62
     3
 48
16.0
100
AcDbCircle
 10
275.270104950023
 20
169.4168829719566
 30
0.0
 40
0.4999873490830826
100
AcDbArc
 50
104.9959479424408
 51
204.9919550394033
  0
LINE
  5
571
330
1A
100
AcDbEntity
  8
SEIHIN
  6
CONTINUOUS
 62
     3
 48
16.0
100
AcDbLine
 10
276.1343328572097
 20
166.3805428158818
 30
0.0
 11
274.8169328572097
 21
169.2056428158819
 31
0.0
  0
LINE
  5
572
330
1A
100
AcDbEntity
  8
SEIHIN
  6
CONTINUOUS
 62
     3
 48
16.0
100
AcDbLine
 10
275.1406328572098
 20
169.8998428158818
 30
0.0
 11
276.8930328572098
 21
170.3694428158818
 31
0.0
  0
LINE
  5
573
330
1A
100
AcDbEntity
  8
SEIHIN
  6
CONTINUOUS
 62
     3
 48
16.0
100
AcDbLine
 10
276.6342328572098
 20
171.3353428158818
 30
0.0
 11
274.8818328572098
 21
170.8658428158818
 31
0.0
  0
LINE
  5
574
330
1A
100
AcDbEntity
  8
SEIHIN
  6
CONTINUOUS
 62
     3
 48
16.0
100
AcDbLine
 10
273.9106328572098
 20
168.7829428158818
 30
0.0
 11
275.2280328572098
 21
165.9579428158818
 31
0.0
  0
ARC
  5
575
330
1A
100
AcDbEntity
  8
SEIHIN
  6
CONTINUOUS
 62
     3
 48
16.0
100
AcDbCircle
 10
277.0224328572098
 20
169.8864428158818
 30
0.0
 40
1.500003483329251
100
AcDbArc
 50
14.99883465683192
 51
104.9988346568316
  0
ARC
  5
576
330
1A
100
AcDbEntity
  8
SEIHIN
  6
CONTINUOUS
 62
     3
 48
16.0
100
AcDbCircle
 10
282.0192730823005
 20
170.1840539921967
 30
0.0
 40
9.00005881402367
100
AcDbArc
 50
317.1227360400137
 51
335.0005481397943
  0
LINE
  5
577
330
1A
100
AcDbEntity
  8
SEIHIN
  6
CONTINUOUS
 62
     3
 48
16.0
100
AcDbLine
 10
288.8049328572097
 20
170.0158428158819
 30
0.0
 11
287.5033328572097
 21
165.1582428158818
 31
0.0
  0
LINE
  5
578
330
1A
100
AcDbEntity
  8
SEIHIN
  6
CONTINUOUS
 62
     3
 48
16.0
100
AcDbLine
 10
286.4051328572098
 20
164.9235428158818
 30
0.0
 11
287.8390328572098
 21
170.2746428158818
 31
0.0
  0
ARC
  5
579
330
1A
100
AcDbEntity
  8
SEIHIN
  6
CONTINUOUS
 62
     3
 48
16.0
100
AcDbCircle
 10
282.0193641755966
 20
170.1841796824074
 30
0.0
 40
10.00005686168791
100
AcDbArc
 50
304.3039960759001
 51
334.9991767759882
  0
LINE
  5
57A
330
1A
100
AcDbEntity
  8
SEIHIN
  6
CONTINUOUS
 62
     3
 48
16.0
100
AcDbLine
 10
285.6551328572097
 20
166.2235428158818
 30
0.0
 11
285.6551328572097
 21
164.9235428158818
 31
0.0
  0
ARC
  5
57B
330
1A
100
AcDbEntity
  8
SEIHIN
  6
CONTINUOUS
 62
     3
 48
16.0
100
AcDbCircle
 10
288.2481925669621
 20
164.4004500144951
 30
0.0
 40
0.5000194239278122
100
AcDbArc
 50
202.6188762781277
 51
317.1260325117071
  0
ARC
  5
57C
330
1A
100
AcDbEntity
  8
SEIHIN
  6
CONTINUOUS
 62
     3
 48
16.0
100
AcDbCircle
 10
287.9863354097034
 20
165.0288044870765
 30
0.0
 40
0.4999491535834898
100
AcDbArc
 50
164.9950208123164
 51
202.6165792903737
  0
LINE
  5
57D
330
1A
100
AcDbEntity
  8
SEIHIN
  6
CONTINUOUS
 62
     3
 48
16.0
100
AcDbLine
 10
287.5248328572098
 20
164.8365428158817
 30
0.0
 11
287.7866328572098
 21
164.2081428158818
 31
0.0
  0
LINE
  5
57E
330
1A
100
AcDbEntity
  8
SEIHIN
  6
CONTINUOUS
 62
     3
 48
16.0
100
AcDbLine
 10
287.6551328572097
 20
161.9235428158817
 30
0.0
 11
286.4051328572098
 21
164.9235428158818
 31
0.0
  0
LINE
  5
57F
330
1A
100
AcDbEntity
  8
SEIHIN
  6
CONTINUOUS
 62
     3
 48
16.0
100
AcDbLine
 10
288.6551328572098
 20
160.7235428158818
 30
0.0
 11
288.6551328572098
 21
159.2231428158818
 31
0.0
  0
LINE
  5
580
330
1A
100
AcDbEntity
  8
SEIHIN
  6
CONTINUOUS
 62
     3
 48
16.0
100
AcDbLine
 10
287.6551328572097
 20
161.9235428158817
 30
0.0
 11
287.1551328572098
 21
160.7235428158818
 31
0.0
  0
LINE
  5
581
330
1A
100
AcDbEntity
  8
SEIHIN
  6
CONTINUOUS
 62
     3
 48
16.0
100
AcDbLine
 10
288.6551328572098
 20
160.7235428158818
 30
0.0
 11
283.1551328572098
 21
160.7235428158818
 31
0.0
  0
LINE
  5
582
330
1A
100
AcDbEntity
  8
SEIHIN
  6
CONTINUOUS
 62
     3
 48
16.0
100
AcDbLine
 10
283.1551328572098
 20
164.9235428158818
 30
0.0
 11
286.4051328572098
 21
164.9235428158818
 31
0.0
  0
LINE
  5
583
330
1A
100
AcDbEntity
  8
SEIHIN
  6
CONTINUOUS
 62
     3
 48
16.0
100
AcDbLine
 10
287.6551328572097
 20
161.9235428158817
 30
0.0
 11
283.1551328572098
 21
161.9235428158817
 31
0.0
  0
ARC
  5
584
330
1A
100
AcDbEntity
  8
SEIHIN
  6
CONTINUOUS
 62
     3
 48
16.0
100
AcDbCircle
 10
289.2879328572098
 20
169.8864428158818
 30
0.0
 40
1.500003483329324
100
AcDbArc
 50
75.00116534316591
 51
165.0011653431666
  0
ARC
  5
585
330
1A
100
AcDbEntity
  8
SEIHIN
  6
CONTINUOUS
 62
     3
 48
16.0
100
AcDbCircle
 10
289.2878737083198
 20
169.8864086653308
 30
0.0
 40
0.4999850647767397
100
AcDbArc
 50
74.99365376778482
 51
164.9966195745697
  0
LINE
  5
586
330
1A
100
AcDbEntity
  8
SEIHIN
  6
CONTINUOUS
 62
     3
 48
16.0
100
AcDbLine
 10
283.1552328572097
 20
166.2235428158818
 30
0.0
 11
285.6551328572097
 21
166.2235428158818
 31
0.0
  0
ARC
  5
587
330
1A
100
AcDbEntity
  8
SEIHIN
  6
CONTINUOUS
 62
     3
 48
16.0
100
AcDbCircle
 10
291.0402091180192
 20
169.4168937241694
 30
0.0
 40
0.4999903293583637
100
AcDbArc
 50
334.9942007564507
 51
74.99801644261585
  0
ARC
  5
588
330
1A
100
AcDbEntity
  8
SEIHIN
  6
CONTINUOUS
 62
     3
 48
16.0
100
AcDbCircle
 10
291.0402132826322
 20
169.4168847926295
 30
0.0
 40
1.49996800286794
100
AcDbArc
 50
334.9988153855766
 51
75.00002814091832
  0
LINE
  5
589
330
1A
100
AcDbEntity
  8
SEIHIN
  6
CONTINUOUS
 62
     3
 48
16.0
100
AcDbLine
 10
289.6761328572099
 20
171.3353428158818
 30
0.0
 11
291.4284328572098
 21
170.8657428158817
 31
0.0
  0
LINE
  5
58A
330
1A
100
AcDbEntity
  8
SEIHIN
  6
CONTINUOUS
 62
     3
 48
16.0
100
AcDbLine
 10
292.3997328572098
 20
168.7829428158818
 30
0.0
 11
291.0823328572098
 21
165.9579428158818
 31
0.0
  0
LINE
  5
58B
330
1A
100
AcDbEntity
  8
SEIHIN
  6
CONTINUOUS
 62
     3
 48
16.0
100
AcDbLine
 10
291.1696328572098
 20
169.8998428158818
 30
0.0
 11
289.4173328572098
 21
170.3693428158818
 31
0.0
  0
LINE
  5
58C
330
1A
100
AcDbEntity
  8
SEIHIN
  6
CONTINUOUS
 62
     3
 48
16.0
100
AcDbLine
 10
290.1760328572098
 20
166.3805428158818
 30
0.0
 11
291.4934328572098
 21
169.2055428158818
 31
0.0
  0
LINE
  5
58D
330
1A
100
AcDbEntity
  8
SEIHIN
  6
CONTINUOUS
 62
     3
 48
16.0
100
AcDbLine
 10
301.9126328572098
 20
152.5670428158819
 30
0.0
 11
315.0186328572098
 21
169.8117428158818
 31
0.0
  0
LINE
  5
58E
330
1A
100
AcDbEntity
  8
SEIHIN
  6
CONTINUOUS
 62
     3
 48
16.0
100
AcDbLine
 10
320.4316328572098
 20
148.0231428158818
 30
0.0
 11
316.2816328572097
 21
148.0231428158818
 31
0.0
  0
LINE
  5
58F
330
1A
100
AcDbEntity
  8
SEIHIN
  6
CONTINUOUS
 62
     3
 48
16.0
100
AcDbLine
 10
316.2816328572097
 20
148.0231428158818
 30
0.0
 11
316.2816328572097
 21
148.6231428158817
 31
0.0
  0
LINE
  5
590
330
1A
100
AcDbEntity
  8
SEIHIN
  6
CONTINUOUS
 62
     3
 48
16.0
100
AcDbLine
 10
320.4316328572098
 20
148.0231428158818
 30
0.0
 11
320.4316328572098
 21
148.6231428158817
 31
0.0
  0
ARC
  5
591
330
1A
100
AcDbEntity
  8
SEIHIN
  6
CONTINUOUS
 62
     3
 48
16.0
100
AcDbCircle
 10
325.7880412228991
 20
154.0231471552108
 30
0.0
 40
5.000004340503328
100
AcDbArc
 50
269.9987582217489
 51
324.8330848798126
  0
LINE
  5
592
330
1A
100
AcDbEntity
  8
SEIHIN
  6
CONTINUOUS
 62
     3
 48
16.0
100
AcDbLine
 10
306.0592777162099
 20
158.0231428158818
 30
0.0
 11
318.5259328572096
 21
158.0231428158819
 31
0.0
  0
LINE
  5
593
330
1A
100
AcDbEntity
  8
SEIHIN
  6
CONTINUOUS
 62
     3
 48
16.0
100
AcDbLine
 10
333.5366328572097
 20
171.9662428158818
 30
0.0
 11
326.7007328572097
 21
162.2636428158819
 31
0.0
  0
ARC
  5
594
330
1A
100
AcDbEntity
  8
SEIHIN
  6
CONTINUOUS
 62
     3
 48
16.0
100
AcDbCircle
 10
318.5259495907518
 20
168.0231514958744
 30
0.0
 40
10.00000868000659
100
AcDbArc
 50
269.9999041239491
 51
324.8330848664222
  0
ARC
  5
595
330
1A
100
AcDbEntity
  8
SEIHIN
  6
CONTINUOUS
 62
     3
 48
16.0
100
AcDbCircle
 10
323.7764352087071
 20
163.1557441130491
 30
0.0
 40
11.00006457981052
100
AcDbArc
 50
95.00043686190805
 51
142.7648802283861
  0
ARC
  5
596
330
1A
100
AcDbEntity
  8
SEIHIN
  6
CONTINUOUS
 62
     3
 48
16.0
100
AcDbCircle
 10
317.4374265295585
 20
174.6470393253155
 30
0.0
 40
9.999959834171018
100
AcDbArc
 50
95.00022859608661
 51
142.7652011453616
  0
LINE
  5
597
330
1A
100
AcDbEntity
  8
SEIHIN
  6
CONTINUOUS
 62
     3
 48
16.0
100
AcDbLine
 10
363.8816328572098
 20
166.0231428158818
 30
0.0
 11
363.8816328572098
 21
153.0231428158819
 31
0.0
  0
LINE
  5
598
330
1A
100
AcDbEntity
  8
SEIHIN
  6
CONTINUOUS
 62
     3
 48
16.0
100
AcDbLine
 10
344.3816328572097
 20
149.5231428158817
 30
0.0
 11
344.3816328572097
 21
157.0231428158817
 31
0.0
  0
LINE
  5
599
330
1A
100
AcDbEntity
  8
SEIHIN
  6
CONTINUOUS
 62
     3
 48
16.0
100
AcDbLine
 10
361.8816328572098
 20
166.0231428158818
 30
0.0
 11
361.8816328572098
 21
146.9730428158818
 31
0.0
  0
LINE
  5
59A
330
1A
100
AcDbEntity
  8
SEIHIN
  6
CONTINUOUS
 62
     3
 48
16.0
100
AcDbLine
 10
363.0816328572098
 20
167.0918428158818
 30
0.0
 11
363.0816328572098
 21
146.9730428158818
 31
0.0
  0
LINE
  5
59B
330
1A
100
AcDbEntity
  8
SEIHIN
  6
CONTINUOUS
 62
     3
 48
16.0
100
AcDbLine
 10
344.7816328572097
 20
149.5231428158817
 30
0.0
 11
344.7816328572097
 21
157.0231428158817
 31
0.0
  0
LINE
  5
59C
330
1A
100
AcDbEntity
  8
SEIHIN
  6
CONTINUOUS
 62
     3
 48
16.0
100
AcDbLine
 10
346.3816328572097
 20
157.0231428158817
 30
0.0
 11
346.3816328572097
 21
149.5231428158817
 31
0.0
  0
ARC
  5
59D
330
1A
100
AcDbEntity
  8
SEIHIN
  6
CONTINUOUS
 62
     3
 48
16.0
100
AcDbCircle
 10
343.8816328572097
 20
149.5231428158817
 30
0.0
 40
0.8999999999999346
100
AcDbArc
 50
270.0000000000045
 51
0.0000000000045235
  0
ARC
  5
59E
330
1A
100
AcDbEntity
  8
SEIHIN
  6
CONTINUOUS
 62
     3
 48
16.0
100
AcDbCircle
 10
343.8816328572097
 20
149.5231428158817
 30
0.0
 40
0.4999999999999432
100
AcDbArc
 50
270.0000000000065
 51
0.0000000000065138
  0
ARC
  5
59F
330
1A
100
AcDbEntity
  8
SEIHIN
  6
CONTINUOUS
 62
     3
 48
16.0
100
AcDbCircle
 10
345.4816328572097
 20
149.5231428158817
 30
0.0
 40
0.8999999999999346
100
AcDbArc
 50
270.0000000000045
 51
0.0000000000045235
  0
LINE
  5
5A0
330
1A
100
AcDbEntity
  8
SEIHIN
  6
CONTINUOUS
 62
     3
 48
16.0
100
AcDbLine
 10
351.8815328572098
 20
151.4395428158818
 30
0.0
 11
360.7690328572098
 21
145.7121428158818
 31
0.0
  0
LINE
  5
5A1
330
1A
100
AcDbEntity
  8
SEIHIN
  6
CONTINUOUS
 62
     3
 48
16.0
100
AcDbLine
 10
361.4191328572098
 20
146.7208428158818
 30
0.0
 11
352.5315328572097
 21
152.4482428158818
 31
0.0
  0
LINE
  5
5A2
330
1A
100
AcDbEntity
  8
SEIHIN
  6
CONTINUOUS
 62
     3
 48
16.0
100
AcDbLine
 10
351.8815328572098
 20
151.4395428158818
 30
0.0
 11
352.5315328572097
 21
152.4481428158818
 31
0.0
  0
ARC
  5
5A3
330
1A
100
AcDbEntity
  8
SEIHIN
  6
CONTINUOUS
 62
     3
 48
16.0
100
AcDbCircle
 10
363.0815328572098
 20
153.0231428158819
 30
0.0
 40
0.7999999999999972
100
AcDbArc
 50
269.9999999999989
 51
359.9999999999989
  0
ARC
  5
5A4
330
1A
100
AcDbEntity
  8
SEIHIN
  6
CONTINUOUS
 62
     3
 48
16.0
100
AcDbCircle
 10
361.5816236158278
 20
146.9730377767826
 30
0.0
 40
0.3000092414243152
100
AcDbArc
 50
237.2060685516554
 51
0.0009623674184198
  0
ARC
  5
5A5
330
1A
100
AcDbEntity
  8
SEIHIN
  6
CONTINUOUS
 62
     3
 48
16.0
100
AcDbCircle
 10
361.5816015961947
 20
146.9730257718845
 30
0.0
 40
1.500031261111988
100
AcDbArc
 50
237.2004776243535
 51
0.000651019176963
  0
LINE
  5
5A6
330
1A
100
AcDbEntity
  8
SEIHIN
  6
CONTINUOUS
 62
     3
 48
16.0
100
AcDbLine
 10
356.8816328572097
 20
171.0231428158818
 30
0.0
 11
349.0688328572098
 21
171.0231428158818
 31
0.0
  0
LINE
  5
5A7
330
1A
100
AcDbEntity
  8
SEIHIN
  6
CONTINUOUS
 62
     3
 48
16.0
100
AcDbLine
 10
346.3816328572097
 20
157.0231428158817
 30
0.0
 11
344.3816328572097
 21
157.0231428158817
 31
0.0
  0
ARC
  5
5A8
330
1A
100
AcDbEntity
  8
SEIHIN
  6
CONTINUOUS
 62
     3
 48
16.0
100
AcDbCircle
 10
349.068871640484
 20
161.0231629336723
 30
0.0
 40
9.999979882284776
100
AcDbArc
 50
90.00022221223989
 51
144.8338713373228
  0
LINE
  5
5A9
330
1A
100
AcDbEntity
  8
SEIHIN
  6
CONTINUOUS
 62
     3
 48
16.0
100
AcDbLine
 10
359.8807328572098
 20
174.4247428158818
 30
0.0
 11
357.3128328572098
 21
176.8058428158818
 31
0.0
  0
ARC
  5
5AA
330
1A
100
AcDbEntity
  8
SEIHIN
  6
CONTINUOUS
 62
     3
 48
16.0
100
AcDbCircle
 10
356.8816328572097
 20
166.0231428158818
 30
0.0
 40
5.000000000000085
100
AcDbArc
 50
0.0000000000003257
 51
90.00000000000033
  0
ARC
  5
5AB
330
1A
100
AcDbEntity
  8
SEIHIN
  6
CONTINUOUS
 62
     3
 48
16.0
100
AcDbCircle
 10
356.8816791728734
 20
166.0229933491659
 30
0.0
 40
6.999953685932207
100
AcDbArc
 50
0.0012234098079293
 51
34.43479296175328
  0
ARC
  5
5AC
330
1A
100
AcDbEntity
  8
SEIHIN
  6
CONTINUOUS
 62
     3
 48
16.0
100
AcDbCircle
 10
353.0816532767516
 20
167.0917960364236
 30
0.0
 40
9.999979580567661
100
AcDbArc
 50
0.0002680270996858
 51
47.16344054364779
  0
ARC
  5
5AD
330
1A
100
AcDbEntity
  8
SEIHIN
  6
PHANTOM
 62
     6
 48
5.0
100
AcDbCircle
 10
406.1549494189419
 20
173.0659316106891
 30
0.0
 40
6.999965164931858
100
AcDbArc
 50
31.00250783130436
 51
80.83548144089402
  0
LINE
  5
5AE
330
1A
100
AcDbEntity
  8
SEIHIN
  6
CONTINUOUS
 62
     3
 48
16.0
100
AcDbLine
 10
402.1549328572098
 20
177.1845428158818
 30
0.0
 11
402.1549328572098
 21
142.1845428158818
 31
0.0
  0
LINE
  5
5AF
330
1A
100
AcDbEntity
  8
SEIHIN
  6
CONTINUOUS
 62
     3
 48
16.0
100
AcDbLine
 10
403.1549328572096
 20
186.7279428158818
 30
0.0
 11
403.1549328572096
 21
142.1845428158818
 31
0.0
  0
LINE
  5
5B0
330
1A
100
AcDbEntity
  8
SEIHIN
  6
PHANTOM
 62
     6
 48
5.0
100
AcDbLine
 10
412.1549328572099
 20
142.1845428158818
 30
0.0
 11
412.1549328572099
 21
177.1845428158818
 31
0.0
  0
LINE
  5
5B1
330
1A
100
AcDbEntity
  8
SEIHIN
  6
PHANTOM
 62
     6
 48
5.0
100
AcDbLine
 10
417.1549328572096
 20
177.1845428158818
 30
0.0
 11
417.1549328572096
 21
142.1845428158818
 31
0.0
  0
LINE
  5
5B2
330
1A
100
AcDbEntity
  8
SEIHIN
  6
PHANTOM
 62
     6
 48
5.0
100
AcDbLine
 10
418.1549328572098
 20
186.7279428158818
 30
0.0
 11
418.1549328572098
 21
142.1845428158818
 31
0.0
  0
LINE
  5
5B3
330
1A
100
AcDbEntity
  8
SEIHIN
  6
CONTINUOUS
 62
     3
 48
16.0
100
AcDbLine
 10
397.1549328572098
 20
142.1845428158818
 30
0.0
 11
397.1549328572098
 21
177.1845428158818
 31
0.0
  0
LINE
  5
5B4
330
1A
100
AcDbEntity
  8
SEIHIN
  6
PHANTOM
 62
     6
 48
5.0
100
AcDbLine
 10
418.1549328572098
 20
142.1845428158818
 30
0.0
 11
412.1549328572099
 21
142.1845428158818
 31
0.0
  0
LINE
  5
5B5
330
1A
100
AcDbEntity
  8
SEIHIN
  6
CONTINUOUS
 62
     3
 48
16.0
100
AcDbLine
 10
403.1549328572096
 20
142.1845428158818
 30
0.0
 11
397.1549328572098
 21
142.1845428158818
 31
0.0
  0
LINE
  5
5B6
330
1A
100
AcDbEntity
  8
SEIHIN
  6
PHANTOM
 62
     6
 48
5.0
100
AcDbLine
 10
407.2698328572096
 20
191.2322428158818
 30
0.0
 11
412.7191328572096
 21
191.7089428158818
 31
0.0
  0
LINE
  5
5B7
330
1A
100
AcDbEntity
  8
SEIHIN
  6
PHANTOM
 62
     6
 48
5.0
100
AcDbLine
 10
418.1549328572098
 20
177.1845428158818
 30
0.0
 11
412.1549328572099
 21
177.1845428158818
 31
0.0
  0
ARC
  5
5B8
330
1A
100
AcDbEntity
  8
SEIHIN
  6
CONTINUOUS
 62
     3
 48
16.0
100
AcDbCircle
 10
398.1549187252496
 20
186.7279557653882
 30
0.0
 40
5.000014131976769
100
AcDbArc
 50
359.9998516100064
 51
95.00006812726812
  0
LINE
  5
5B9
330
1A
100
AcDbEntity
  8
SEIHIN
  6
CONTINUOUS
 62
     3
 48
16.0
100
AcDbLine
 10
403.1549328572096
 20
177.1845428158818
 30
0.0
 11
397.1549328572098
 21
177.1845428158818
 31
0.0
  0
ARC
  5
5BA
330
1A
100
AcDbEntity
  8
SEIHIN
  6
PHANTOM
 62
     6
 48
5.0
100
AcDbCircle
 10
413.1549187252497
 20
186.7279557653882
 30
0.0
 40
5.000014131976854
100
AcDbArc
 50
359.9998516100073
 51
95.00006812726901
  0
DIMENSION
  5
5CB
330
1A
100
AcDbEntity
  8
SUNPOU
100
AcDbDimension
  2
*D1
 10
403.1550328572099
 20
266.5517119091166
 30
0.0
 11
426.6550328572099
 21
271.5517119091166
 31
0.0
 70
    32
  1
t<>
  3
STANDARD
100
AcDbAlignedDimension
 13
402.1550328572102
 23
291.0686901194122
 33
0.0
 14
403.1550328572099
 24
291.0686901194122
 34
0.0
100
AcDbRotatedDimension
1001
ACAD
1000
DSTYLE
1002
{
1070
   140
1040
6.0
1070
    74
1070
     0
1070
   172
1070
     1
1070
    73
1070
     0
1070
   272
1070
     2
1070
    77
1070
     3
1070
   173
1070
     1
1070
   147
1040
2.0
1070
    42
1040
6.0
1070
    44
1040
3.0
1070
    43
1040
14.0
1070
   271
1070
     1
1070
   178
1070
     4
1070
   177
1070
     4
1070
   176
1070
     4
1070
   141
1040
150.0
1070
     7
1000
_OPEN
1070
     6
1000
_OPEN
1070
    41
1040
7.0
1002
}
  0
DIMENSION
  5
626
330
1A
100
AcDbEntity
  8
SUNPOU
100
AcDbDimension
  2
*D2
 10
441.0842680144948
 20
291.0686901194122
 30
0.0
 11
436.0842680144948
 21
308.5686901194124
 31
0.0
 70
    32
  3
STANDARD
100
AcDbAlignedDimension
 13
403.1550328572099
 23
326.0686901194123
 33
0.0
 14
403.1550328572099
 24
291.0686901194122
 34
0.0
 50
90.0
100
AcDbRotatedDimension
1001
ACAD
1000
DSTYLE
1002
{
1070
   140
1040
6.0
1070
    74
1070
     0
1070
   172
1070
     1
1070
    73
1070
     0
1070
   272
1070
     2
1070
    77
1070
     3
1070
   173
1070
     1
1070
   147
1040
2.0
1070
    42
1040
6.0
1070
    44
1040
3.0
1070
    43
1040
14.0
1070
   271
1070
     0
1070
   178
1070
     4
1070
   177
1070
     4
1070
   176
1070
     4
1070
   141
1040
150.0
1070
     7
1000
_OPEN
1070
     6
1000
_OPEN
1070
    41
1040
7.0
1002
}
  0
DIMENSION
  5
633
330
1A
100
AcDbEntity
  8
SUNPOU
100
AcDbDimension
  2
*D3
 10
457.245569400173
 20
291.0686901194122
 30
0.0
 11
452.2455694001729
 21
315.840403660154
 31
0.0
 70
    32
  3
STANDARD
100
AcDbAlignedDimension
 13
398.1550187252499
 23
340.6121172008954
 33
0.0
 14
403.1550328572099
 24
291.0686901194122
 34
0.0
 50
90.0
100
AcDbRotatedDimension
1001
ACAD
1000
DSTYLE
1002
{
1070
   140
1040
6.0
1070
    74
1070
     0
1070
   172
1070
     1
1070
    73
1070
     0
1070
   272
1070
     2
1070
    77
1070
     3
1070
   173
1070
     1
1070
   147
1040
2.0
1070
    42
1040
6.0
1070
    44
1040
3.0
1070
    43
1040
14.0
1070
   271
1070
     0
1070
   178
1070
     4
1070
   177
1070
     4
1070
   176
1070
     4
1070
   141
1040
150.0
1070
     7
1000
_OPEN
1070
     6
1000
_OPEN
1070
    41
1040
7.0
1002
}
  0
DIMENSION
  5
64D
330
1A
100
AcDbEntity
  8
SUNPOU
100
AcDbDimension
  2
*D4
 10
403.1550328572099
 20
373.402863247689
 30
0.0
 11
338.15503285721
 21
378.4028632476891
 31
0.0
 70
    32
  3
STANDARD
100
AcDbAlignedDimension
 13
273.1550328572101
 23
308.1072901194123
 33
0.0
 14
403.1550328572099
 24
335.6120901194123
 34
0.0
100
AcDbRotatedDimension
1001
ACAD
1000
DSTYLE
1002
{
1070
   140
1040
6.0
1070
    74
1070
     0
1070
   172
1070
     1
1070
    73
1070
     0
1070
   272
1070
     2
1070
    77
1070
     3
1070
   173
1070
     1
1070
   147
1040
2.0
1070
    42
1040
6.0
1070
    44
1040
3.0
1070
    43
1040
14.0
1070
   271
1070
     0
1070
   178
1070
     4
1070
   177
1070
     4
1070
   176
1070
     4
1070
   141
1040
150.0
1070
     7
1000
_OPEN
1070
     6
1000
_OPEN
1070
    41
1040
7.0
1002
}
  0
DIMENSION
  5
65C
330
1A
100
AcDbEntity
  8
SUNPOU
100
AcDbDimension
  2
*D5
 10
418.1550328572101
 20
373.402863247689
 30
0.0
 11
410.65503285721
 21
378.4028632476891
 31
0.0
 70
    32
  3
STANDARD
100
AcDbAlignedDimension
 13
403.1550328572099
 23
335.6120901194123
 33
0.0
 14
418.1550328572101
 24
335.6120901194123
 34
0.0
100
AcDbRotatedDimension
1001
ACAD
1000
DSTYLE
1002
{
1070
   140
1040
6.0
1070
    74
1070
     0
1070
   172
1070
     1
1070
    73
1070
     0
1070
   272
1070
     2
1070
    77
1070
     3
1070
   173
1070
     1
1070
   147
1040
2.0
1070
    42
1040
6.0
1070
    44
1040
3.0
1070
    43
1040
14.0
1070
   271
1070
     0
1070
   178
1070
     4
1070
   177
1070
     4
1070
   176
1070
     4
1070
   141
1040
150.0
1070
     7
1000
_OPEN
1070
     6
1000
_OPEN
1070
    41
1040
7.0
1002
}
  0
DIMENSION
  5
685
330
1A
100
AcDbEntity
  8
SUNPOU
100
AcDbDimension
  2
*D6
 10
214.8249744621157
 20
443.7695728123276
 30
0.0
 11
209.8249744621156
 21
450.0695728123277
 31
0.0
 70
    32
  3
STANDARD
100
AcDbAlignedDimension
 13
243.0574328572101
 23
456.3695728123277
 33
0.0
 14
243.0574328572101
 24
443.7695728123276
 34
0.0
 50
90.0
100
AcDbRotatedDimension
1001
ACAD
1000
DSTYLE
1002
{
1070
   140
1040
6.0
1070
    74
1070
     0
1070
   172
1070
     1
1070
    73
1070
     0
1070
   272
1070
     2
1070
    77
1070
     3
1070
   173
1070
     1
1070
   147
1040
2.0
1070
    42
1040
6.0
1070
    44
1040
3.0
1070
    43
1040
14.0
1070
   271
1070
     0
1070
   178
1070
     4
1070
   177
1070
     4
1070
   176
1070
     4
1070
   141
1040
150.0
1070
     7
1000
_OPEN
1070
     6
1000
_OPEN
1070
    41
1040
7.0
1002
}
  0
DIMENSION
  5
692
330
1A
100
AcDbEntity
  8
SUNPOU
100
AcDbDimension
  2
*D7
 10
441.0842680144948
 20
426.8195728123276
 30
0.0
 11
436.0842680144947
 21
450.0695728123277
 31
0.0
 70
    32
  3
STANDARD
100
AcDbAlignedDimension
 13
403.1550328572099
 23
473.3195728123276
 33
0.0
 14
403.1550328572099
 24
426.8195728123276
 34
0.0
 50
90.0
100
AcDbRotatedDimension
1001
ACAD
1000
DSTYLE
1002
{
1070
   140
1040
6.0
1070
    74
1070
     0
1070
   172
1070
     1
1070
    73
1070
     0
1070
   272
1070
     2
1070
    77
1070
     3
1070
   173
1070
     1
1070
   147
1040
2.0
1070
    42
1040
6.0
1070
    44
1040
3.0
1070
    43
1040
14.0
1070
   271
1070
     0
1070
   178
1070
     4
1070
   177
1070
     4
1070
   176
1070
     4
1070
   141
1040
150.0
1070
     7
1000
_OPEN
1070
     6
1000
_OPEN
1070
    41
1040
7.0
1002
}
  0
DIMENSION
  5
69F
330
1A
100
AcDbEntity
  8
SUNPOU
100
AcDbDimension
  2
*D8
 10
615.090595401624
 20
358.9806487088037
 30
0.0
 11
597.0905954016241
 21
363.9806487088037
 31
0.0
 70
    32
  3
STANDARD
100
AcDbAlignedDimension
 13
579.0905954016242
 23
322.7542901194123
 33
0.0
 14
615.090595401624
 24
322.7542901194123
 34
0.0
100
AcDbRotatedDimension
1001
ACAD
1000
DSTYLE
1002
{
1070
   140
1040
6.0
1070
    74
1070
     0
1070
   172
1070
     1
1070
    73
1070
     0
1070
   272
1070
     2
1070
    77
1070
     3
1070
   173
1070
     1
1070
   147
1040
2.0
1070
    42
1040
6.0
1070
    44
1040
3.0
1070
    43
1040
14.0
1070
   271
1070
     0
1070
   178
1070
     4
1070
   177
1070
     4
1070
   176
1070
     4
1070
   141
1040
150.0
1070
     7
1000
_OPEN
1070
     6
1000
_OPEN
1070
    41
1040
7.0
1002
}
  0
DIMENSION
  5
6AC
330
1A
100
AcDbEntity
  8
SUNPOU
100
AcDbDimension
  2
*D9
 10
620.340595401624
 20
372.415513269701
 30
0.0
 11
597.0905954016241
 21
377.415513269701
 31
0.0
 70
    32
  3
STANDARD
100
AcDbAlignedDimension
 13
573.8405954016242
 23
324.0686901194123
 33
0.0
 14
620.340595401624
 24
324.0686901194123
 34
0.0
100
AcDbRotatedDimension
1001
ACAD
1000
DSTYLE
1002
{
1070
   140
1040
6.0
1070
    74
1070
     0
1070
   172
1070
     1
1070
    73
1070
     0
1070
   272
1070
     2
1070
    77
1070
     3
1070
   173
1070
     1
1070
   147
1040
2.0
1070
    42
1040
6.0
1070
    44
1040
3.0
1070
    43
1040
14.0
1070
   271
1070
     0
1070
   178
1070
     4
1070
   177
1070
     4
1070
   176
1070
     4
1070
   141
1040
150.0
1070
     7
1000
_OPEN
1070
     6
1000
_OPEN
1070
    41
1040
7.0
1002
}
  0
DIMENSION
  5
6BB
330
1A
100
AcDbEntity
  8
SUNPOU
100
AcDbDimension
  2
*D10
 10
525.5097019982376
 20
326.0686901194123
 30
0.0
 11
520.5097019982376
 21
344.0686901194123
 31
0.0
 70
    32
  3
STANDARD
100
AcDbAlignedDimension
 13
575.7254954016242
 23
319.0686901194122
 33
0.0
 14
573.8405954016242
 24
326.0686901194123
 34
0.0
 50
90.0
100
AcDbRotatedDimension
1001
ACAD
1000
DSTYLE
1002
{
1070
   140
1040
6.0
1070
    74
1070
     0
1070
   172
1070
     1
1070
    73
1070
     0
1070
   272
1070
     2
1070
    77
1070
     3
1070
   173
1070
     1
1070
   147
1040
2.0
1070
    42
1040
6.0
1070
    44
1040
3.0
1070
    43
1040
14.0
1070
   271
1070
     0
1070
   178
1070
     4
1070
   177
1070
     4
1070
   176
1070
     4
1070
   141
1040
150.0
1070
     7
1000
_OPEN
1070
     6
1000
_OPEN
1070
    41
1040
7.0
1002
}
  0
DIMENSION
  5
6CA
330
1A
100
AcDbEntity
  8
SUNPOU
100
AcDbDimension
  2
*D11
 10
525.5097019982376
 20
291.0686901194122
 30
0.0
 11
520.5097019982376
 21
273.0686901194123
 31
0.0
 70
    32
  3
STANDARD
100
AcDbAlignedDimension
 13
575.9763954016242
 23
298.0686901194122
 33
0.0
 14
573.8405954016242
 24
291.0686901194122
 34
0.0
 50
90.0
100
AcDbRotatedDimension
1001
ACAD
1000
DSTYLE
1002
{
1070
   140
1040
6.0
1070
    74
1070
     0
1070
   172
1070
     1
1070
    73
1070
     0
1070
   272
1070
     2
1070
    77
1070
     3
1070
   173
1070
     1
1070
   147
1040
2.0
1070
    42
1040
6.0
1070
    44
1040
3.0
1070
    43
1040
14.0
1070
   271
1070
     0
1070
   178
1070
     4
1070
   177
1070
     4
1070
   176
1070
     4
1070
   141
1040
150.0
1070
     7
1000
_OPEN
1070
     6
1000
_OPEN
1070
    41
1040
7.0
1002
}
  0
DIMENSION
  5
6D9
330
1A
100
AcDbEntity
  8
SUNPOU
100
AcDbDimension
  2
*D12
 10
509.0762211965047
 20
313.0686901194122
 30
0.0
 11
504.0762211965047
 21
319.5686901194123
 31
0.0
 70
    32
  3
STANDARD
100
AcDbAlignedDimension
 13
573.8405954016242
 23
326.0686901194123
 33
0.0
 14
574.5252954016242
 24
313.0686901194122
 34
0.0
 50
90.0
100
AcDbRotatedDimension
1001
ACAD
1000
DSTYLE
1002
{
1070
   140
1040
6.0
1070
    74
1070
     0
1070
   172
1070
     1
1070
    73
1070
     0
1070
   272
1070
     2
1070
    77
1070
     3
1070
   173
1070
     1
1070
   147
1040
2.0
1070
    42
1040
6.0
1070
    44
1040
3.0
1070
    43
1040
14.0
1070
   271
1070
     0
1070
   178
1070
     4
1070
   177
1070
     4
1070
   176
1070
     4
1070
   141
1040
150.0
1070
     7
1000
_OPEN
1070
     6
1000
_OPEN
1070
    41
1040
7.0
1002
}
  0
DIMENSION
  5
6E6
330
1A
100
AcDbEntity
  8
SUNPOU
100
AcDbDimension
  2
*D13
 10
493.3677480523019
 20
291.0686901194122
 30
0.0
 11
488.3677480523019
 21
308.5686901194123
 31
0.0
 70
    32
  3
STANDARD
100
AcDbAlignedDimension
 13
573.8405954016242
 23
326.0686901194123
 33
0.0
 14
573.8405954016242
 24
291.0686901194122
 34
0.0
 50
90.0
100
AcDbRotatedDimension
1001
ACAD
1000
DSTYLE
1002
{
1070
   140
1040
6.0
1070
    74
1070
     0
1070
   172
1070
     1
1070
    73
1070
     0
1070
   272
1070
     2
1070
    77
1070
     3
1070
   173
1070
     1
1070
   147
1040
2.0
1070
    42
1040
6.0
1070
    44
1040
3.0
1070
    43
1040
14.0
1070
   271
1070
     0
1070
   178
1070
     4
1070
   177
1070
     4
1070
   176
1070
     4
1070
   141
1040
150.0
1070
     7
1000
_OPEN
1070
     6
1000
_OPEN
1070
    41
1040
7.0
1002
}
  0
ELLIPSE
  5
6E8
330
1A
100
AcDbEntity
  8
SEIHIN
100
AcDbEllipse
 10
312.1551328572099
 20
450.0695728123276
 30
0.0
 11
0.0000000000000691
 21
-4.000095740839981
 31
0.0
210
0.0
220
0.0
230
1.0
 40
0.8225427457040987
 41
3.141592653589772
 42
6.283185307179596
  0
DIMENSION
  5
6FC
330
1A
100
AcDbEntity
  8
SUNPOU
100
AcDbDimension
  2
*D14
 10
213.0982744621157
 20
311.9072901194122
 30
0.0
 11
208.0982744621157
 21
301.4879901194122
 31
0.0
 70
    32
  3
STANDARD
100
AcDbAlignedDimension
 13
397.1550328572102
 23
291.0686901194122
 33
0.0
 14
242.6806328572101
 24
311.9072901194122
 34
0.0
 50
90.0
100
AcDbRotatedDimension
1001
ACAD
1000
DSTYLE
1002
{
1070
   140
1040
6.0
1070
    74
1070
     0
1070
   172
1070
     1
1070
    73
1070
     0
1070
   272
1070
     2
1070
    77
1070
     3
1070
   173
1070
     1
1070
   147
1040
2.0
1070
    42
1040
6.0
1070
    44
1040
3.0
1070
    43
1040
14.0
1070
   271
1070
     0
1070
   178
1070
     4
1070
   177
1070
     4
1070
   176
1070
     4
1070
   141
1040
150.0
1070
     7
1000
_OPEN
1070
     6
1000
_OPEN
1070
    41
1040
7.0
1002
}
  0
TEXT
  5
6FD
330
1A
100
AcDbEntity
  8
SUNPOU
100
AcDbText
 10
418.420076123578
 20
381.7894019681032
 30
0.0
 40
6.0
  1
スライド巾
100
AcDbText
  0
LEADER
  5
730
330
1A
100
AcDbEntity
  8
SUNPOU
 62
     4
100
AcDbLeader
  3
STANDARD
 73
     0
 40
6.0
 41
31.19999999999999
 76
     3
 10
576.9120679514998
 20
310.6569442478384
 30
0.0
 10
569.4048001320843
 20
301.7995619983275
 30
0.0
 10
567.6109571693509
 20
301.7995619983275
 30
0.0
1001
ACAD
1000
DSTYLE
1002
{
1070
     6
1000
OPEN
1070
    41
1040
7.0
1070
    42
1040
6.0
1070
    43
1040
14.0
1070
    44
1040
3.0
1070
    73
1070
     0
1070
    74
1070
     0
1070
    77
1070
     3
1070
   140
1040
6.0
1070
   141
1040
150.0
1070
   147
1040
2.0
1070
   172
1070
     1
1070
   173
1070
     1
1070
   176
1070
     4
1070
   177
1070
     4
1070
   178
1070
     4
1070
   271
1070
     0
1070
   272
1070
     2
1070
   341
1005
6D
1070
   343
1005
6D
1070
   344
1005
6D
1002
}
  0
MTEXT
  5
731
330
1A
100
AcDbEntity
  8
SUNPOU
 62
     4
100
AcDbMText
 10
565.610957169351
 20
303.7995619983275
 30
0.0
 40
6.0
 41
0.0
 71
     9
 72
     5
  1
2-φ6.5
1001
ACAD
1000
MTEXTBEGIN
1070
    73
1070
     1
1070
    44
1040
1.0
1070
    74
1070
     0
1000
MTEXTEND
1000
MTEXTBEGIN
1070
    73
1070
     1
1070
    44
1040
1.0
1070
    74
1070
     0
1000
MTEXTEND
  0
LEADER
  5
732
330
1A
100
AcDbEntity
  8
SUNPOU
 62
     4
100
AcDbLeader
  3
STANDARD
 73
     0
 40
6.0
 41
31.19999999999999
 76
     3
 10
577.4427000014914
 20
320.370456995708
 30
0.0
 10
567.2848016070111
 20
333.733846623249
 30
0.0
 10
565.3278808631076
 20
333.733846623249
 30
0.0
1001
ACAD
1000
DSTYLE
1002
{
1070
     6
1000
OPEN
1070
    41
1040
7.0
1070
    42
1040
6.0
1070
    43
1040
14.0
1070
    44
1040
3.0
1070
    73
1070
     0
1070
    74
1070
     0
1070
    77
1070
     3
1070
   140
1040
6.0
1070
   141
1040
150.0
1070
   147
1040
2.0
1070
   172
1070
     1
1070
   173
1070
     1
1070
   176
1070
     4
1070
   177
1070
     4
1070
   178
1070
     4
1070
   271
1070
     0
1070
   272
1070
     2
1070
   341
1005
6D
1070
   343
1005
6D
1070
   344
1005
6D
1002
}
  0
MTEXT
  5
733
330
1A
100
AcDbEntity
  8
SUNPOU
 62
     4
100
AcDbMText
 10
563.3278808631075
 20
335.733846623249
 30
0.0
 40
6.0
 41
0.0
 71
     9
 72
     5
  1
4-φ4.2
1001
ACAD
1000
MTEXTBEGIN
1070
    73
1070
     1
1070
    44
1040
1.0
1070
    74
1070
     0
1000
MTEXTEND
1000
MTEXTBEGIN
1070
    73
1070
     1
1070
    44
1040
1.0
1070
    74
1070
     0
1000
MTEXTEND
  0
DIMENSION
  5
74A
330
1A
100
AcDbEntity
  8
SUNPOU
100
AcDbDimension
  2
*D15
 10
403.1550328572099
 20
358.5295641100803
 30
0.0
 11
381.51578285721
 21
363.5295641100804
 31
0.0
 70
    32
  3
STANDARD
100
AcDbAlignedDimension
 13
359.8765328572102
 23
316.091490119412
 33
0.0
 14
403.1550328572099
 24
335.6120901194123
 34
0.0
100
AcDbRotatedDimension
1001
ACAD
1000
DSTYLE
1002
{
1070
   140
1040
6.0
1070
    74
1070
     0
1070
   172
1070
     1
1070
    73
1070
     0
1070
   272
1070
     2
1070
    77
1070
     3
1070
   173
1070
     1
1070
   147
1040
2.0
1070
    42
1040
6.0
1070
    44
1040
3.0
1070
    43
1040
14.0
1070
   271
1070
     0
1070
   178
1070
     4
1070
   177
1070
     4
1070
   176
1070
     4
1070
   141
1040
150.0
1070
     7
1000
_OPEN
1070
     6
1000
_OPEN
1070
    41
1040
7.0
1002
}
  0
DIMENSION
  5
757
330
1A
100
AcDbEntity
  8
SUNPOU
100
AcDbDimension
  2
*D16
 10
403.1550328572099
 20
387.7984916327582
 30
0.0
 11
323.1062139966069
 21
392.7984916327582
 31
0.0
 70
    32
  3
STANDARD
100
AcDbAlignedDimension
 13
243.0573951360039
 23
307.2072543885612
 33
0.0
 14
403.1550328572099
 24
335.6120901194123
 34
0.0
100
AcDbRotatedDimension
1001
ACAD
1000
DSTYLE
1002
{
1070
   140
1040
6.0
1070
    74
1070
     0
1070
   172
1070
     1
1070
    73
1070
     0
1070
   272
1070
     2
1070
    77
1070
     3
1070
   173
1070
     1
1070
   147
1040
2.0
1070
    42
1040
6.0
1070
    44
1040
3.0
1070
    43
1040
14.0
1070
   271
1070
     0
1070
   178
1070
     4
1070
   177
1070
     4
1070
   176
1070
     4
1070
   141
1040
150.0
1070
     7
1000
_OPEN
1070
     6
1000
_OPEN
1070
    41
1040
7.0
1002
}
  0
LINE
  5
75D
330
1A
100
AcDbEntity
  8
CENTER_L
  6
CENTER
 62
     1
 48
5.0
100
AcDbLine
 10
408.1900328572103
 20
298.0686901194122
 30
0.0
 11
421.3338328572104
 21
298.0686901194122
 31
0.0
  0
LINE
  5
75E
330
1A
100
AcDbEntity
  8
CENTER_L
  6
CENTER
 62
     1
 48
5.0
100
AcDbLine
 10
421.6176328572103
 20
319.0686901194122
 30
0.0
 11
408.1900328572103
 21
319.0686901194122
 31
0.0
  0
LINE
  5
75F
330
1A
100
AcDbEntity
  8
CENTER_L
  6
CENTER
 62
     1
 48
5.0
100
AcDbLine
 10
421.5365328572103
 20
313.0686901194122
 30
0.0
 11
408.1900328572103
 21
313.0686901194122
 31
0.0
  0
LINE
  5
760
330
1A
100
AcDbEntity
  8
CENTER_L
  6
CENTER
 62
     1
 48
5.0
100
AcDbLine
 10
421.5364328572099
 20
164.1845428158818
 30
0.0
 11
408.1899328572101
 21
164.1845428158818
 31
0.0
  0
LINE
  5
761
330
1A
100
AcDbEntity
  8
CENTER_L
  6
CENTER
 62
     1
 48
5.0
100
AcDbLine
 10
408.1899328572101
 20
149.1845428158818
 30
0.0
 11
421.3337328572101
 21
149.1845428158818
 31
0.0
  0
LINE
  5
762
330
1A
100
AcDbEntity
  8
CENTER_L
  6
CENTER
 62
     1
 48
5.0
100
AcDbLine
 10
421.61753285721
 20
170.1845428158818
 30
0.0
 11
408.1899328572101
 21
170.1845428158818
 31
0.0
  0
LINE
  5
7C6
330
1A
100
AcDbEntity
  8
NOKOTOI
  6
PHANTOM
 62
     8
 48
3.5
100
AcDbLine
 10
359.8765328572102
 20
316.091490119412
 30
0.0
 11
359.4864328572101
 21
303.607090119412
 31
0.0
  0
LINE
  5
7C7
330
1A
100
AcDbEntity
  8
NOKOTOI
  6
PHANTOM
 62
     8
 48
3.5
100
AcDbLine
 10
358.6771328572098
 20
316.1289901194119
 30
0.0
 11
358.5278328572102
 21
311.3499901194122
 31
0.0
  0
LINE
  5
7C8
330
1A
100
AcDbEntity
  8
NOKOTOI
  6
PHANTOM
 62
     8
 48
3.5
100
AcDbLine
 10
353.9640328572103
 20
313.3539901194121
 30
0.0
 11
352.9682328572101
 21
314.4539901194122
 31
0.0
  0
LINE
  5
7C9
330
1A
100
AcDbEntity
  8
NOKOTOI
  6
PHANTOM
 62
     8
 48
3.5
100
AcDbLine
 10
351.4161328572102
 20
309.127690119412
 30
0.0
 11
351.1003328572099
 21
315.127690119412
 31
0.0
  0
ARC
  5
7CA
330
1A
100
AcDbEntity
  8
NOKOTOI
  6
PHANTOM
 62
     8
 48
3.5
100
AcDbCircle
 10
354.426014990859
 20
308.153998847792
 30
0.0
 40
5.199991271650611
100
AcDbArc
 50
37.92532860473096
 51
89.99980314072548
  0
LINE
  5
7CB
330
1A
100
AcDbEntity
  8
NOKOTOI
  6
PHANTOM
 62
     8
 48
3.5
100
AcDbLine
 10
245.9180328572105
 20
313.3539901194121
 30
0.0
 11
246.9138328572102
 21
314.4539901194122
 31
0.0
  0
LINE
  5
7CC
330
1A
100
AcDbEntity
  8
NOKOTOI
  6
PHANTOM
 62
     8
 48
3.5
100
AcDbLine
 10
248.4660328572102
 20
309.127790119412
 30
0.0
 11
248.7818328572101
 21
315.127690119412
 31
0.0
  0
LINE
  5
7CD
330
1A
100
AcDbEntity
  8
NOKOTOI
  6
PHANTOM
 62
     8
 48
3.5
100
AcDbLine
 10
240.0055328572101
 20
316.091490119412
 30
0.0
 11
240.3957328572099
 21
303.6071901194119
 31
0.0
  0
LINE
  5
7CE
330
1A
100
AcDbEntity
  8
NOKOTOI
  6
PHANTOM
 62
     8
 48
3.5
100
AcDbLine
 10
241.2049328572105
 20
316.1289901194119
 30
0.0
 11
241.3543328572099
 21
311.3500901194122
 31
0.0
  0
ARC
  5
7CF
330
1A
100
AcDbEntity
  8
NOKOTOI
  6
PHANTOM
 62
     8
 48
3.5
100
AcDbCircle
 10
245.4562530698793
 20
308.1540488477921
 30
0.0
 40
5.2000412730095
100
AcDbArc
 50
90.00132454306161
 51
142.0757990790561
  0
LINE
  5
7D0
330
1A
100
AcDbEntity
  8
NOKOTOI
  6
PHANTOM
 62
     8
 48
3.5
100
AcDbLine
 10
250.0720328572096
 20
154.0197428158816
 30
0.0
 11
253.0650328572099
 21
124.0899428158815
 31
0.0
  0
LINE
  5
7D1
330
1A
100
AcDbEntity
  8
NOKOTOI
  6
PHANTOM
 62
     8
 48
3.5
100
AcDbLine
 10
249.0310328572094
 20
152.3694428158816
 30
0.0
 11
251.8998328572096
 21
123.6820428158816
 31
0.0
  0
ARC
  5
7D2
330
1A
100
AcDbEntity
  8
NOKOTOI
  6
PHANTOM
 62
     8
 48
3.5
100
AcDbCircle
 10
308.1274267752418
 20
157.2699371912253
 30
0.0
 40
41.79999437547816
100
AcDbArc
 50
270.0001454078912
 51
355.525704787475
  0
ARC
  5
7D3
330
1A
100
AcDbEntity
  8
NOKOTOI
  6
PHANTOM
 62
     8
 48
3.5
100
AcDbCircle
 10
308.127449083667
 20
157.2699572922517
 30
0.0
 40
43.00001447645168
100
AcDbArc
 50
270.0001116248559
 51
353.4750892928819
  0
TEXT
  5
7D4
330
1A
100
AcDbEntity
  8
SUNPOU
 62
     4
100
AcDbText
 10
268.7243320725914
 20
92.07845475508356
 30
0.0
 40
8.0
  1
軒樋の差し替え
100
AcDbText
  0
LINE
  5
7D5
330
1A
100
AcDbEntity
  8
NOKOTOI
  6
PHANTOM
 62
     8
 48
3.5
100
AcDbLine
 10
267.5478328572097
 20
115.4698428158817
 30
0.0
 11
287.4559328572093
 21
115.4698428158817
 31
0.0
  0
LINE
  5
7D6
330
1A
100
AcDbEntity
  8
NOKOTOI
  6
PHANTOM
 62
     8
 48
3.5
100
AcDbLine
 10
267.2980328572096
 20
114.2698428158816
 30
0.0
 11
287.4559328572093
 21
114.2698428158816
 31
0.0
  0
LINE
  5
7D7
330
1A
100
AcDbEntity
  8
NOKOTOI
  6
PHANTOM
 62
     8
 48
3.5
100
AcDbLine
 10
308.1274328572098
 20
115.4699428158816
 30
0.0
 11
263.5478328572097
 21
115.4698428158817
 31
0.0
  0
LINE
  5
7D8
330
1A
100
AcDbEntity
  8
NOKOTOI
  6
PHANTOM
 62
     8
 48
3.5
100
AcDbLine
 10
263.2980328572096
 20
114.2698428158816
 30
0.0
 11
308.1274328572098
 21
114.2699428158816
 31
0.0
  0
LINE
  5
7D9
330
1A
100
AcDbEntity
  8
NOKOTOI
  6
PHANTOM
 62
     8
 48
3.5
100
AcDbLine
 10
253.2459328572093
 20
123.7526428158816
 30
0.0
 11
263.2312328572096
 21
115.5828428158815
 31
0.0
  0
LINE
  5
7DA
330
1A
100
AcDbEntity
  8
NOKOTOI
  6
PHANTOM
 62
     8
 48
3.5
100
AcDbLine
 10
252.2616328572097
 20
123.0075428158817
 30
0.0
 11
262.6647328572097
 21
114.4958428158817
 31
0.0
  0
ARC
  5
7DB
330
1A
100
AcDbEntity
  8
NOKOTOI
  6
PHANTOM
 62
     8
 48
3.5
100
AcDbCircle
 10
252.8948554300785
 20
123.781500744209
 30
0.0
 40
0.9999908507640039
100
AcDbArc
 50
185.7137670522468
 51
230.7112907769303
  0
ARC
  5
7DC
330
1A
100
AcDbEntity
  8
NOKOTOI
  6
PHANTOM
 62
     8
 48
3.5
100
AcDbCircle
 10
253.5625502830879
 20
124.1396103294936
 30
0.0
 40
0.4999904508696396
100
AcDbArc
 50
185.7009889250754
 51
230.7099153622041
  0
ARC
  5
7DD
330
1A
100
AcDbEntity
  8
NOKOTOI
  6
PHANTOM
 62
     8
 48
3.5
100
AcDbCircle
 10
263.547826469461
 20
115.9698450958712
 30
0.0
 40
0.5000022800304047
100
AcDbArc
 50
230.7145501403941
 51
270.0007319787213
  0
ARC
  5
7DE
330
1A
100
AcDbEntity
  8
NOKOTOI
  6
PHANTOM
 62
     8
 48
3.5
100
AcDbCircle
 10
263.2980397897871
 20
115.2698403408755
 30
0.0
 40
0.9999975250179316
100
AcDbArc
 50
230.7053583247701
 51
269.9996027915957
  0
ARC
  5
7DF
330
1A
100
AcDbEntity
  8
NOKOTOI
  6
PHANTOM
 62
     8
 48
3.5
100
AcDbCircle
 10
291.7546389391781
 20
306.1539844947557
 30
0.0
 40
41.79999437547816
100
AcDbArc
 50
184.474295212525
 51
269.9998545921086
  0
ARC
  5
7E0
330
1A
100
AcDbEntity
  8
NOKOTOI
  6
PHANTOM
 62
     8
 48
3.5
100
AcDbCircle
 10
291.7546166307528
 20
306.1540045957821
 30
0.0
 40
43.00001447645168
100
AcDbArc
 50
186.524910707118
 51
269.999888375144
  0
ARC
  5
7E1
330
1A
100
AcDbEntity
  8
NOKOTOI
  6
PHANTOM
 62
     8
 48
3.5
100
AcDbCircle
 10
242.0045440942038
 20
167.2699544096987
 30
0.0
 40
1.999988406214315
100
AcDbArc
 50
90.0003219180439
 51
181.791127346407
  0
ARC
  5
7E2
330
1A
100
AcDbEntity
  8
NOKOTOI
  6
PHANTOM
 62
     8
 48
3.5
100
AcDbCircle
 10
241.8949156440315
 20
154.7699594990294
 30
0.0
 40
1.500016683246579
100
AcDbArc
 50
181.7923576755889
 51
270.0006574876651
  0
LINE
  5
7E3
330
1A
100
AcDbEntity
  8
NOKOTOI
  6
PHANTOM
 62
     8
 48
3.5
100
AcDbLine
 10
240.0055328572097
 20
167.2074428158816
 30
0.0
 11
240.3956328572097
 21
154.7230428158815
 31
0.0
  0
LINE
  5
7E4
330
1A
100
AcDbEntity
  8
NOKOTOI
  6
PHANTOM
 62
     8
 48
3.5
100
AcDbLine
 10
247.3025328572097
 20
160.9699428158816
 30
0.0
 11
247.4836328572099
 21
164.4113428158815
 31
0.0
  0
LINE
  5
7E5
330
1A
100
AcDbEntity
  8
NOKOTOI
  6
PHANTOM
 62
     8
 48
3.5
100
AcDbLine
 10
245.2225328572097
 20
160.3406428158816
 30
0.0
 11
245.5563328572096
 21
162.6768428158817
 31
0.0
  0
LINE
  5
7E6
330
1A
100
AcDbEntity
  8
NOKOTOI
  6
PHANTOM
 62
     8
 48
3.5
100
AcDbLine
 10
246.5246328572101
 20
160.9699428158816
 30
0.0
 11
246.9286328572096
 21
163.7983428158815
 31
0.0
  0
ARC
  5
7E7
330
1A
100
AcDbEntity
  8
NOKOTOI
  6
PHANTOM
 62
     8
 48
3.5
100
AcDbCircle
 10
245.4560637841458
 20
159.2699785605454
 30
0.0
 40
3.99998565374706
100
AcDbArc
 50
96.47577619531674
 51
181.7913033408985
  0
ARC
  5
7E8
330
1A
100
AcDbEntity
  8
NOKOTOI
  6
PHANTOM
 62
     8
 48
3.5
100
AcDbCircle
 10
245.4560507235608
 20
159.2699515442615
 30
0.0
 40
5.199991271650611
100
AcDbArc
 50
90.00019685927453
 51
142.074671395269
  0
LINE
  5
7E9
330
1A
100
AcDbEntity
  8
NOKOTOI
  6
PHANTOM
 62
     8
 48
3.5
100
AcDbLine
 10
248.4659328572096
 20
160.2436428158816
 30
0.0
 11
248.7817328572099
 21
166.2436428158816
 31
0.0
  0
LINE
  5
7EA
330
1A
100
AcDbEntity
  8
NOKOTOI
  6
PHANTOM
 62
     8
 48
3.5
100
AcDbLine
 10
241.2049328572101
 20
167.2449428158815
 30
0.0
 11
241.3542328572097
 21
162.4659428158817
 31
0.0
  0
ARC
  5
7EB
330
1A
100
AcDbEntity
  8
NOKOTOI
  6
PHANTOM
 62
     8
 48
3.5
100
AcDbCircle
 10
248.0360122073688
 20
152.2699615037308
 30
0.0
 40
0.9999813123640345
100
AcDbArc
 50
5.709409966648967
 51
89.99881682915043
  0
LINE
  5
7EC
330
1A
100
AcDbEntity
  8
NOKOTOI
  6
PHANTOM
 62
     8
 48
3.5
100
AcDbLine
 10
249.57453285721
 20
154.4699428158816
 30
0.0
 11
243.5426328572097
 21
154.4699428158816
 31
0.0
  0
LINE
  5
7ED
330
1A
100
AcDbEntity
  8
NOKOTOI
  6
PHANTOM
 62
     8
 48
3.5
100
AcDbLine
 10
241.5435328572097
 20
156.4073428158816
 30
0.0
 11
241.45803285721
 21
159.1449428158816
 31
0.0
  0
ARC
  5
7EE
330
1A
100
AcDbEntity
  8
NOKOTOI
  6
PHANTOM
 62
     8
 48
3.5
100
AcDbCircle
 10
243.5425948693854
 20
156.4698796364538
 30
0.0
 40
2.000036820932882
100
AcDbArc
 50
181.7889408725803
 51
270.001088250966
  0
ARC
  5
7EF
330
1A
100
AcDbEntity
  8
NOKOTOI
  6
PHANTOM
 62
     8
 48
3.5
100
AcDbCircle
 10
245.7175226707735
 20
160.2699545606057
 30
0.0
 40
0.5000117448278309
100
AcDbArc
 50
171.8726853912841
 51
270.0011672521981
  0
ARC
  5
7F0
330
1A
100
AcDbEntity
  8
NOKOTOI
  6
PHANTOM
 62
     8
 48
3.5
100
AcDbCircle
 10
247.966628735803
 20
160.2699389058511
 30
0.0
 40
0.4999960899864752
100
AcDbArc
 50
270.0004722821405
 51
356.9852756208263
  0
LINE
  5
7F1
330
1A
100
AcDbEntity
  8
NOKOTOI
  6
PHANTOM
 62
     8
 48
3.5
100
AcDbLine
 10
247.9666328572097
 20
159.7699428158816
 30
0.0
 11
245.7175328572101
 21
159.7699428158816
 31
0.0
  0
LINE
  5
7F2
330
1A
100
AcDbEntity
  8
NOKOTOI
  6
PHANTOM
 62
     8
 48
3.5
100
AcDbLine
 10
247.3025328572097
 20
160.9699428158816
 30
0.0
 11
246.5246328572101
 21
160.9699428158816
 31
0.0
  0
LINE
  5
7F3
330
1A
100
AcDbEntity
  8
NOKOTOI
  6
PHANTOM
 62
     8
 48
3.5
100
AcDbLine
 10
241.8949328572097
 20
153.2699428158816
 30
0.0
 11
248.0360328572095
 21
153.2699428158816
 31
0.0
  0
ARC
  5
7F4
330
1A
100
AcDbEntity
  8
NOKOTOI
  6
PHANTOM
 62
     8
 48
3.5
100
AcDbCircle
 10
249.5745197862051
 20
153.9699546461615
 30
0.0
 40
0.499988169890889
100
AcDbArc
 50
5.703393862284335
 51
89.99850213773372
  0
ARC
  5
7F5
330
1A
100
AcDbEntity
  8
NOKOTOI
  6
PHANTOM
 62
     8
 48
3.5
100
AcDbCircle
 10
248.2824291477144
 20
166.2699467259123
 30
0.0
 40
0.4999960899831856
100
AcDbArc
 50
356.9843782585345
 51
89.99957491984867
  0
ARC
  5
7F6
330
1A
100
AcDbEntity
  8
NOKOTOI
  6
PHANTOM
 62
     8
 48
3.5
100
AcDbCircle
 10
242.0044888908567
 20
167.2698974534086
 30
0.0
 40
0.7999453636812564
100
AcDbArc
 50
89.99685092684627
 51
181.7876563552118
  0
LINE
  5
7F7
330
1A
100
AcDbEntity
  8
NOKOTOI
  6
PHANTOM
 62
     8
 48
3.5
100
AcDbLine
 10
244.4772328572097
 20
168.0699428158818
 30
0.0
 11
243.9772328572097
 21
165.5699428158817
 31
0.0
  0
LINE
  5
7F8
330
1A
100
AcDbEntity
  8
NOKOTOI
  6
PHANTOM
 62
     8
 48
3.5
100
AcDbLine
 10
242.0045328572094
 20
168.0698428158815
 30
0.0
 11
244.4772328572097
 21
168.0699428158818
 31
0.0
  0
LINE
  5
7F9
330
1A
100
AcDbEntity
  8
NOKOTOI
  6
PHANTOM
 62
     8
 48
3.5
100
AcDbLine
 10
245.5606328572097
 20
167.3679428158818
 30
0.0
 11
245.8214328572097
 21
168.6719428158816
 31
0.0
  0
ARC
  5
7FA
330
1A
100
AcDbEntity
  8
NOKOTOI
  6
PHANTOM
 62
     8
 48
3.5
100
AcDbCircle
 10
246.0509336402182
 20
167.2699418608798
 30
0.0
 40
0.4999990449987399
100
AcDbArc
 50
168.6967198015449
 51
269.9999102736945
  0
ARC
  5
7FB
330
1A
100
AcDbEntity
  8
NOKOTOI
  6
PHANTOM
 62
     8
 48
3.5
100
AcDbCircle
 10
245.3311401117651
 20
168.7699339660381
 30
0.0
 40
0.500008849895925
100
AcDbArc
 50
348.6864043304882
 51
90.00083129614507
  0
LINE
  5
7FC
330
1A
100
AcDbEntity
  8
NOKOTOI
  6
PHANTOM
 62
     8
 48
3.5
100
AcDbLine
 10
248.2824328572095
 20
166.7699428158816
 30
0.0
 11
246.0509328572096
 21
166.7699428158816
 31
0.0
  0
LINE
  5
7FD
330
1A
100
AcDbEntity
  8
NOKOTOI
  6
PHANTOM
 62
     8
 48
3.5
100
AcDbLine
 10
243.9772328572097
 20
165.5699428158817
 30
0.0
 11
246.9138328572097
 21
165.5699428158817
 31
0.0
  0
LINE
  5
7FE
330
1A
100
AcDbEntity
  8
NOKOTOI
  6
PHANTOM
 62
     8
 48
3.5
100
AcDbLine
 10
242.0045328572094
 20
169.2698428158816
 30
0.0
 11
245.3311328572098
 21
169.2699428158816
 31
0.0
  0
LINE
  5
7FF
330
1A
100
AcDbEntity
  8
NOKOTOI
  6
PHANTOM
 62
     8
 48
3.5
100
AcDbLine
 10
246.9286328572096
 20
163.7983428158815
 30
0.0
 11
247.4836328572099
 21
164.4113428158815
 31
0.0
  0
ARC
  5
800
330
1A
100
AcDbEntity
  8
NOKOTOI
  6
PHANTOM
 62
     8
 48
3.5
100
AcDbCircle
 10
245.06130348471
 20
162.7475730483765
 30
0.0
 40
0.4999578477751074
100
AcDbArc
 50
351.8669438287075
 51
96.47390928779223
  0
LINE
  5
801
330
1A
100
AcDbEntity
  8
NOKOTOI
  6
PHANTOM
 62
     8
 48
3.5
100
AcDbLine
 10
245.9180328572096
 20
164.4699428158816
 30
0.0
 11
245.4560328572096
 21
164.4699428158816
 31
0.0
  0
LINE
  5
802
330
1A
100
AcDbEntity
  8
NOKOTOI
  6
PHANTOM
 62
     8
 48
3.5
100
AcDbLine
 10
245.9180328572096
 20
164.4699428158816
 30
0.0
 11
246.9138328572097
 21
165.5699428158817
 31
0.0
  0
ARC
  5
803
330
1A
100
AcDbEntity
  8
NOKOTOI
  6
PHANTOM
 62
     8
 48
3.5
100
AcDbCircle
 10
241.894968816361
 20
303.6539552652688
 30
0.0
 40
1.499965146287778
100
AcDbArc
 50
181.7866280217767
 51
269.9986264296976
  0
ARC
  5
804
330
1A
100
AcDbEntity
  8
NOKOTOI
  6
PHANTOM
 62
     8
 48
3.5
100
AcDbCircle
 10
248.0396244330476
 20
301.1539976344685
 30
0.0
 40
0.9999924849789756
100
AcDbArc
 50
6.528264606674428
 51
89.99951732740891
  0
LINE
  5
805
330
1A
100
AcDbEntity
  8
NOKOTOI
  6
PHANTOM
 62
     8
 48
3.5
100
AcDbLine
 10
249.5835328572105
 20
303.3539901194121
 30
0.0
 11
243.5426328572101
 21
303.3539901194121
 31
0.0
  0
LINE
  5
806
330
1A
100
AcDbEntity
  8
NOKOTOI
  6
PHANTOM
 62
     8
 48
3.5
100
AcDbLine
 10
245.2226328572099
 20
309.2247901194122
 30
0.0
 11
245.5563328572101
 21
311.5609901194122
 31
0.0
  0
LINE
  5
807
330
1A
100
AcDbEntity
  8
NOKOTOI
  6
PHANTOM
 62
     8
 48
3.5
100
AcDbLine
 10
247.9666328572101
 20
308.653990119412
 30
0.0
 11
245.7175328572101
 21
308.653990119412
 31
0.0
  0
ARC
  5
808
330
1A
100
AcDbEntity
  8
NOKOTOI
  6
PHANTOM
 62
     8
 48
3.5
100
AcDbCircle
 10
245.7175594578078
 20
309.15395944253
 30
0.0
 40
0.4999693238254178
100
AcDbArc
 50
171.8555038770532
 51
269.9969516090348
  0
ARC
  5
809
330
1A
100
AcDbEntity
  8
NOKOTOI
  6
PHANTOM
 62
     8
 48
3.5
100
AcDbCircle
 10
247.9666259702152
 20
309.1539835843265
 30
0.0
 40
0.499993464961963
100
AcDbArc
 50
270.0007892017873
 51
356.9970361317427
  0
LINE
  5
80A
330
1A
100
AcDbEntity
  8
NOKOTOI
  6
PHANTOM
 62
     8
 48
3.5
100
AcDbLine
 10
247.3025328572101
 20
309.8539901194121
 30
0.0
 11
246.5246328572106
 21
309.8539901194121
 31
0.0
  0
LINE
  5
80B
330
1A
100
AcDbEntity
  8
NOKOTOI
  6
PHANTOM
 62
     8
 48
3.5
100
AcDbLine
 10
246.9287328572103
 20
312.682390119412
 30
0.0
 11
247.4837328572101
 21
313.2954901194122
 31
0.0
  0
LINE
  5
80C
330
1A
100
AcDbEntity
  8
NOKOTOI
  6
PHANTOM
 62
     8
 48
3.5
100
AcDbLine
 10
246.5246328572106
 20
309.8539901194121
 30
0.0
 11
246.9287328572103
 21
312.682390119412
 31
0.0
  0
ARC
  5
80D
330
1A
100
AcDbEntity
  8
NOKOTOI
  6
PHANTOM
 62
     8
 48
3.5
100
AcDbCircle
 10
245.0613470756255
 20
311.631675485111
 30
0.0
 40
0.5000073448410256
100
AcDbArc
 50
351.8729478641243
 51
96.47829282996843
  0
LINE
  5
80E
330
1A
100
AcDbEntity
  8
NOKOTOI
  6
PHANTOM
 62
     8
 48
3.5
100
AcDbLine
 10
245.9180328572105
 20
313.3539901194121
 30
0.0
 11
245.4561328572102
 21
313.3539901194121
 31
0.0
  0
LINE
  5
80F
330
1A
100
AcDbEntity
  8
NOKOTOI
  6
PHANTOM
 62
     8
 48
3.5
100
AcDbLine
 10
247.3025328572101
 20
309.8539901194121
 30
0.0
 11
247.4837328572101
 21
313.2954901194122
 31
0.0
  0
LINE
  5
810
330
1A
100
AcDbEntity
  8
NOKOTOI
  6
PHANTOM
 62
     8
 48
3.5
100
AcDbLine
 10
241.8949328572101
 20
302.153990119412
 30
0.0
 11
248.03963285721
 21
302.153990119412
 31
0.0
  0
LINE
  5
811
330
1A
100
AcDbEntity
  8
NOKOTOI
  6
PHANTOM
 62
     8
 48
3.5
100
AcDbLine
 10
241.5436328572099
 20
305.2915901194121
 30
0.0
 11
241.4581328572102
 21
308.029090119412
 31
0.0
  0
ARC
  5
812
330
1A
100
AcDbEntity
  8
NOKOTOI
  6
PHANTOM
 62
     8
 48
3.5
100
AcDbCircle
 10
245.4561707386568
 20
308.1540339019374
 30
0.0
 40
3.999989731271038
100
AcDbArc
 50
96.47731142013144
 51
181.7899836067308
  0
ARC
  5
813
330
1A
100
AcDbEntity
  8
NOKOTOI
  6
PHANTOM
 62
     8
 48
3.5
100
AcDbCircle
 10
243.5426464293485
 20
305.3539769643256
 30
0.0
 40
1.999986844959662
100
AcDbArc
 50
181.7875531852363
 51
269.9996111843223
  0
ARC
  5
814
330
1A
100
AcDbEntity
  8
NOKOTOI
  6
PHANTOM
 62
     8
 48
3.5
100
AcDbCircle
 10
249.5835454269184
 20
302.8539784946823
 30
0.0
 40
0.5000116248877111
100
AcDbArc
 50
4.474846808342897
 51
90.00144034898337
  0
LINE
  5
815
330
1A
100
AcDbEntity
  8
NOKOTOI
  6
PHANTOM
 62
     8
 48
3.5
100
AcDbLine
 10
357.87753285721
 20
169.2699428158816
 30
0.0
 11
354.5509328572096
 21
169.2699428158816
 31
0.0
  0
LINE
  5
816
330
1A
100
AcDbEntity
  8
NOKOTOI
  6
PHANTOM
 62
     8
 48
3.5
100
AcDbLine
 10
355.9047328572095
 20
165.5699428158817
 30
0.0
 11
352.9682328572097
 21
165.5699428158817
 31
0.0
  0
ARC
  5
817
330
1A
100
AcDbEntity
  8
NOKOTOI
  6
PHANTOM
 62
     8
 48
3.5
100
AcDbCircle
 10
354.425894975763
 20
159.269986598407
 30
0.0
 40
3.999989731271038
100
AcDbArc
 50
358.2100163932691
 51
83.52268857986855
  0
LINE
  5
818
330
1A
100
AcDbEntity
  8
NOKOTOI
  6
PHANTOM
 62
     8
 48
3.5
100
AcDbLine
 10
357.9871328572097
 20
153.2699428158816
 30
0.0
 11
351.8424328572099
 21
153.2699428158816
 31
0.0
  0
LINE
  5
819
330
1A
100
AcDbEntity
  8
NOKOTOI
  6
PHANTOM
 62
     8
 48
3.5
100
AcDbLine
 10
350.2985328572093
 20
154.4699428158816
 30
0.0
 11
356.3394328572097
 21
154.4699428158816
 31
0.0
  0
ARC
  5
81A
330
1A
100
AcDbEntity
  8
NOKOTOI
  6
PHANTOM
 62
     8
 48
3.5
100
AcDbCircle
 10
354.4258126445405
 20
159.2700015442616
 30
0.0
 40
5.2000412730095
100
AcDbArc
 50
37.92420092094385
 51
89.99867545693838
  0
LINE
  5
81B
330
1A
100
AcDbEntity
  8
NOKOTOI
  6
PHANTOM
 62
     8
 48
3.5
100
AcDbLine
 10
352.5795328572097
 20
160.9699428158816
 30
0.0
 11
352.3983328572097
 21
164.4114428158817
 31
0.0
  0
LINE
  5
81C
330
1A
100
AcDbEntity
  8
NOKOTOI
  6
PHANTOM
 62
     8
 48
3.5
100
AcDbLine
 10
354.6594328572099
 20
160.3407428158818
 30
0.0
 11
354.3257328572098
 21
162.6769428158817
 31
0.0
  0
LINE
  5
81D
330
1A
100
AcDbEntity
  8
NOKOTOI
  6
PHANTOM
 62
     8
 48
3.5
100
AcDbLine
 10
353.3574328572093
 20
160.9699428158816
 30
0.0
 11
352.9533328572096
 21
163.7983428158815
 31
0.0
  0
LINE
  5
81E
330
1A
100
AcDbEntity
  8
NOKOTOI
  6
PHANTOM
 62
     8
 48
3.5
100
AcDbLine
 10
351.4160328572096
 20
160.2437428158816
 30
0.0
 11
351.1002328572097
 21
166.2436428158816
 31
0.0
  0
ARC
  5
81F
330
1A
100
AcDbEntity
  8
NOKOTOI
  6
PHANTOM
 62
     8
 48
3.5
100
AcDbCircle
 10
350.2985202875014
 20
153.9699311911519
 30
0.0
 40
0.5000116248877111
100
AcDbArc
 50
89.99855965101662
 51
175.5251531916571
  0
LINE
  5
820
330
1A
100
AcDbEntity
  8
NOKOTOI
  6
PHANTOM
 62
     8
 48
3.5
100
AcDbLine
 10
351.9154328572097
 20
159.7699428158816
 30
0.0
 11
354.1645328572097
 21
159.7699428158816
 31
0.0
  0
ARC
  5
821
330
1A
100
AcDbEntity
  8
NOKOTOI
  6
PHANTOM
 62
     8
 48
3.5
100
AcDbCircle
 10
354.164506256612
 20
160.2699121389995
 30
0.0
 40
0.4999693238254178
100
AcDbArc
 50
270.0030483909652
 51
8.144496122946778
  0
ARC
  5
822
330
1A
100
AcDbEntity
  8
NOKOTOI
  6
PHANTOM
 62
     8
 48
3.5
100
AcDbCircle
 10
351.9154397442047
 20
160.2699362807961
 30
0.0
 40
0.499993464961963
100
AcDbArc
 50
183.0029638682573
 51
269.9992107982126
  0
LINE
  5
823
330
1A
100
AcDbEntity
  8
NOKOTOI
  6
PHANTOM
 62
     8
 48
3.5
100
AcDbLine
 10
352.5795328572097
 20
160.9699428158816
 30
0.0
 11
353.3574328572093
 21
160.9699428158816
 31
0.0
  0
ARC
  5
824
330
1A
100
AcDbEntity
  8
NOKOTOI
  6
PHANTOM
 62
     8
 48
3.5
100
AcDbCircle
 10
351.8424412813723
 20
152.2699503309381
 30
0.0
 40
0.9999924849789756
100
AcDbArc
 50
90.00048267259112
 51
173.4717353933255
  0
LINE
  5
825
330
1A
100
AcDbEntity
  8
NOKOTOI
  6
PHANTOM
 62
     8
 48
3.5
100
AcDbLine
 10
351.5996328572099
 20
166.7699428158816
 30
0.0
 11
353.8311328572098
 21
166.7699428158816
 31
0.0
  0
LINE
  5
826
330
1A
100
AcDbEntity
  8
NOKOTOI
  6
PHANTOM
 62
     8
 48
3.5
100
AcDbLine
 10
354.3214328572097
 20
167.3680428158815
 30
0.0
 11
354.0606328572097
 21
168.6719428158816
 31
0.0
  0
ARC
  5
827
330
1A
100
AcDbEntity
  8
NOKOTOI
  6
PHANTOM
 62
     8
 48
3.5
100
AcDbCircle
 10
353.8311401117652
 20
167.269951665725
 30
0.0
 40
0.5000088498959383
100
AcDbArc
 50
269.9991687038565
 51
11.31359566951149
  0
ARC
  5
828
330
1A
100
AcDbEntity
  8
NOKOTOI
  6
PHANTOM
 62
     8
 48
3.5
100
AcDbCircle
 10
354.5509336402182
 20
168.7699437708833
 30
0.0
 40
0.4999990449987349
100
AcDbArc
 50
90.00008972630549
 51
191.3032801984551
  0
ARC
  5
829
330
1A
100
AcDbEntity
  8
NOKOTOI
  6
PHANTOM
 62
     8
 48
3.5
100
AcDbCircle
 10
351.5996390583676
 20
166.2699493509669
 30
0.0
 40
0.4999934649531607
100
AcDbArc
 50
90.00071060961996
 51
183.0044636796616
  0
LINE
  5
82A
330
1A
100
AcDbEntity
  8
NOKOTOI
  6
PHANTOM
 62
     8
 48
3.5
100
AcDbLine
 10
352.9533328572096
 20
163.7983428158815
 30
0.0
 11
352.3983328572097
 21
164.4114428158817
 31
0.0
  0
ARC
  5
82B
330
1A
100
AcDbEntity
  8
NOKOTOI
  6
PHANTOM
 62
     8
 48
3.5
100
AcDbCircle
 10
354.8207186387943
 20
162.7476281815806
 30
0.0
 40
0.5000073448410256
100
AcDbArc
 50
83.5217071700316
 51
188.1270521358757
  0
LINE
  5
82C
330
1A
100
AcDbEntity
  8
NOKOTOI
  6
PHANTOM
 62
     8
 48
3.5
100
AcDbLine
 10
353.9640328572094
 20
164.4699428158816
 30
0.0
 11
354.4259328572096
 21
164.4699428158816
 31
0.0
  0
LINE
  5
82D
330
1A
100
AcDbEntity
  8
NOKOTOI
  6
PHANTOM
 62
     8
 48
3.5
100
AcDbLine
 10
353.9640328572094
 20
164.4699428158816
 30
0.0
 11
352.9682328572097
 21
165.5699428158817
 31
0.0
  0
LINE
  5
82E
330
1A
100
AcDbEntity
  8
NOKOTOI
  6
PHANTOM
 62
     8
 48
3.5
100
AcDbLine
 10
359.8765328572097
 20
167.2074428158816
 30
0.0
 11
359.4863328572099
 21
154.7231428158815
 31
0.0
  0
LINE
  5
82F
330
1A
100
AcDbEntity
  8
NOKOTOI
  6
PHANTOM
 62
     8
 48
3.5
100
AcDbLine
 10
358.6771328572093
 20
167.2449428158815
 30
0.0
 11
358.52773285721
 21
162.4660428158817
 31
0.0
  0
LINE
  5
830
330
1A
100
AcDbEntity
  8
NOKOTOI
  6
PHANTOM
 62
     8
 48
3.5
100
AcDbLine
 10
358.33843285721
 20
156.4075428158816
 30
0.0
 11
358.4239328572097
 21
159.1450428158815
 31
0.0
  0
ARC
  5
831
330
1A
100
AcDbEntity
  8
NOKOTOI
  6
PHANTOM
 62
     8
 48
3.5
100
AcDbCircle
 10
356.3394192850713
 20
156.4699296607952
 30
0.0
 40
1.999986844959662
100
AcDbArc
 50
270.0003888156776
 51
358.2124468147636
  0
ARC
  5
832
330
1A
100
AcDbEntity
  8
NOKOTOI
  6
PHANTOM
 62
     8
 48
3.5
100
AcDbCircle
 10
357.9870968980589
 20
154.7699079617383
 30
0.0
 40
1.499965146287778
100
AcDbArc
 50
270.0013735703023
 51
358.2133719782232
  0
LINE
  5
833
330
1A
100
AcDbEntity
  8
NOKOTOI
  6
PHANTOM
 62
     8
 48
3.5
100
AcDbLine
 10
357.87753285721
 20
168.0699428158818
 30
0.0
 11
355.4047328572095
 21
168.0699428158818
 31
0.0
  0
LINE
  5
834
330
1A
100
AcDbEntity
  8
NOKOTOI
  6
PHANTOM
 62
     8
 48
3.5
100
AcDbLine
 10
355.4047328572095
 20
168.0699428158818
 30
0.0
 11
355.9047328572095
 21
165.5699428158817
 31
0.0
  0
ARC
  5
835
330
1A
100
AcDbEntity
  8
NOKOTOI
  6
PHANTOM
 62
     8
 48
3.5
100
AcDbCircle
 10
357.8775283624116
 20
167.2699474534085
 30
0.0
 40
0.7999953624857498
100
AcDbArc
 50
358.20887265358
 51
89.99967808194661
  0
ARC
  5
836
330
1A
100
AcDbEntity
  8
NOKOTOI
  6
PHANTOM
 62
     8
 48
3.5
100
AcDbCircle
 10
357.8775201063598
 20
167.269955970968
 30
0.0
 40
1.999986844954076
100
AcDbArc
 50
358.21169271173
 51
89.99963471264475
  0
LINE
  5
837
330
1A
100
AcDbEntity
  8
NOKOTOI
  6
PHANTOM
 62
     8
 48
3.5
100
AcDbLine
 10
346.6361328572105
 20
272.6366901194121
 30
0.0
 11
336.6508328572102
 21
264.4668901194119
 31
0.0
  0
LINE
  5
838
330
1A
100
AcDbEntity
  8
NOKOTOI
  6
PHANTOM
 62
     8
 48
3.5
100
AcDbLine
 10
347.6204328572102
 20
271.8915901194122
 30
0.0
 11
337.2173328572102
 21
263.3798901194122
 31
0.0
  0
LINE
  5
839
330
1A
100
AcDbEntity
  8
NOKOTOI
  6
PHANTOM
 62
     8
 48
3.5
100
AcDbLine
 10
291.7546328572101
 20
264.3539901194121
 30
0.0
 11
336.3342328572101
 21
264.3538901194121
 31
0.0
  0
LINE
  5
83A
330
1A
100
AcDbEntity
  8
NOKOTOI
  6
PHANTOM
 62
     8
 48
3.5
100
AcDbLine
 10
336.5840328572102
 20
263.1538901194121
 30
0.0
 11
291.7546328572101
 21
263.153990119412
 31
0.0
  0
LINE
  5
83B
330
1A
100
AcDbEntity
  8
NOKOTOI
  6
PHANTOM
 62
     8
 48
3.5
100
AcDbLine
 10
332.3342328572101
 20
264.3538901194121
 30
0.0
 11
312.4261328572105
 21
264.3538901194121
 31
0.0
  0
LINE
  5
83C
330
1A
100
AcDbEntity
  8
NOKOTOI
  6
PHANTOM
 62
     8
 48
3.5
100
AcDbLine
 10
332.5840328572102
 20
263.1538901194121
 30
0.0
 11
312.4261328572105
 21
263.1538901194121
 31
0.0
  0
ARC
  5
83D
330
1A
100
AcDbEntity
  8
NOKOTOI
  6
PHANTOM
 62
     8
 48
3.5
100
AcDbCircle
 10
336.3342392449589
 20
264.8538923994016
 30
0.0
 40
0.5000022800304047
100
AcDbArc
 50
269.9992680212786
 51
309.2854498596058
  0
ARC
  5
83E
330
1A
100
AcDbEntity
  8
NOKOTOI
  6
PHANTOM
 62
     8
 48
3.5
100
AcDbCircle
 10
336.5840259246327
 20
264.1538876444059
 30
0.0
 40
0.9999975250179316
100
AcDbArc
 50
270.0003972084043
 51
309.2946416752298
  0
LINE
  5
83F
330
1A
100
AcDbEntity
  8
NOKOTOI
  6
PHANTOM
 62
     8
 48
3.5
100
AcDbLine
 10
349.8100328572103
 20
302.9037901194121
 30
0.0
 11
346.8170328572099
 21
272.973990119412
 31
0.0
  0
LINE
  5
840
330
1A
100
AcDbEntity
  8
NOKOTOI
  6
PHANTOM
 62
     8
 48
3.5
100
AcDbLine
 10
350.8510328572104
 20
301.2534901194121
 30
0.0
 11
347.9822328572103
 21
272.5660901194121
 31
0.0
  0
ARC
  5
841
330
1A
100
AcDbEntity
  8
NOKOTOI
  6
PHANTOM
 62
     8
 48
3.5
100
AcDbCircle
 10
346.3195154313319
 20
273.0236576330241
 30
0.0
 40
0.4999904508696396
100
AcDbArc
 50
309.2900846377958
 51
354.2990110749245
  0
ARC
  5
842
330
1A
100
AcDbEntity
  8
NOKOTOI
  6
PHANTOM
 62
     8
 48
3.5
100
AcDbCircle
 10
346.9872102843413
 20
272.6655480477394
 30
0.0
 40
0.9999908507640039
100
AcDbArc
 50
309.2887092230696
 51
354.2862329477531
  0
ARC
  5
843
330
1A
100
AcDbEntity
  8
NOKOTOI
  6
PHANTOM
 62
     8
 48
3.5
100
AcDbCircle
 10
354.426001930274
 20
308.1540258640758
 30
0.0
 40
3.99998565374706
100
AcDbArc
 50
358.2086966591014
 51
83.52422380468325
  0
LINE
  5
844
330
1A
100
AcDbEntity
  8
NOKOTOI
  6
PHANTOM
 62
     8
 48
3.5
100
AcDbLine
 10
350.3075328572098
 20
303.3539901194121
 30
0.0
 11
356.3394328572102
 21
303.3539901194121
 31
0.0
  0
LINE
  5
845
330
1A
100
AcDbEntity
  8
NOKOTOI
  6
PHANTOM
 62
     8
 48
3.5
100
AcDbLine
 10
357.9871328572102
 20
302.153990119412
 30
0.0
 11
351.8460328572103
 21
302.153990119412
 31
0.0
  0
ARC
  5
846
330
1A
100
AcDbEntity
  8
NOKOTOI
  6
PHANTOM
 62
     8
 48
3.5
100
AcDbCircle
 10
351.8460535070511
 20
301.1540088072612
 30
0.0
 40
0.9999813123640345
100
AcDbArc
 50
90.00118317084957
 51
174.290590033351
  0
LINE
  5
847
330
1A
100
AcDbEntity
  8
NOKOTOI
  6
PHANTOM
 62
     8
 48
3.5
100
AcDbLine
 10
354.6595328572101
 20
309.224690119412
 30
0.0
 11
354.3257328572102
 21
311.5608901194122
 31
0.0
  0
ARC
  5
848
330
1A
100
AcDbEntity
  8
NOKOTOI
  6
PHANTOM
 62
     8
 48
3.5
100
AcDbCircle
 10
354.1645430436464
 20
309.1540018641361
 30
0.0
 40
0.5000117448278309
100
AcDbArc
 50
269.9988327478018
 51
8.127314608715803
  0
ARC
  5
849
330
1A
100
AcDbEntity
  8
NOKOTOI
  6
PHANTOM
 62
     8
 48
3.5
100
AcDbCircle
 10
351.9154369786168
 20
309.1539862093815
 30
0.0
 40
0.4999960899864752
100
AcDbArc
 50
183.0147243791737
 51
269.9995277178594
  0
LINE
  5
84A
330
1A
100
AcDbEntity
  8
NOKOTOI
  6
PHANTOM
 62
     8
 48
3.5
100
AcDbLine
 10
351.9154328572102
 20
308.653990119412
 30
0.0
 11
354.1645328572097
 21
308.653990119412
 31
0.0
  0
ARC
  5
84B
330
1A
100
AcDbEntity
  8
NOKOTOI
  6
PHANTOM
 62
     8
 48
3.5
100
AcDbCircle
 10
354.8207622297098
 20
311.6316203519069
 30
0.0
 40
0.4999578477751074
100
AcDbArc
 50
83.52609071220776
 51
188.1330561712924
  0
LINE
  5
84C
330
1A
100
AcDbEntity
  8
NOKOTOI
  6
PHANTOM
 62
     8
 48
3.5
100
AcDbLine
 10
353.9640328572103
 20
313.3539901194121
 30
0.0
 11
354.4260328572103
 21
313.3539901194121
 31
0.0
  0
LINE
  5
84D
330
1A
100
AcDbEntity
  8
NOKOTOI
  6
PHANTOM
 62
     8
 48
3.5
100
AcDbLine
 10
352.9534328572102
 20
312.682390119412
 30
0.0
 11
352.3984328572099
 21
313.295390119412
 31
0.0
  0
LINE
  5
84E
330
1A
100
AcDbEntity
  8
NOKOTOI
  6
PHANTOM
 62
     8
 48
3.5
100
AcDbLine
 10
352.5795328572101
 20
309.8539901194121
 30
0.0
 11
353.3574328572098
 21
309.8539901194121
 31
0.0
  0
LINE
  5
84F
330
1A
100
AcDbEntity
  8
NOKOTOI
  6
PHANTOM
 62
     8
 48
3.5
100
AcDbLine
 10
352.5795328572101
 20
309.8539901194121
 30
0.0
 11
352.3984328572099
 21
313.295390119412
 31
0.0
  0
LINE
  5
850
330
1A
100
AcDbEntity
  8
NOKOTOI
  6
PHANTOM
 62
     8
 48
3.5
100
AcDbLine
 10
353.3574328572098
 20
309.8539901194121
 30
0.0
 11
352.9534328572102
 21
312.682390119412
 31
0.0
  0
ARC
  5
851
330
1A
100
AcDbEntity
  8
NOKOTOI
  6
PHANTOM
 62
     8
 48
3.5
100
AcDbCircle
 10
350.3075459282148
 20
302.8540019496919
 30
0.0
 40
0.499988169890889
100
AcDbArc
 50
90.00149786226627
 51
174.2966061377156
  0
LINE
  5
852
330
1A
100
AcDbEntity
  8
NOKOTOI
  6
PHANTOM
 62
     8
 48
3.5
100
AcDbLine
 10
358.3385328572102
 20
305.2913901194121
 30
0.0
 11
358.4240328572099
 21
308.028990119412
 31
0.0
  0
ARC
  5
853
330
1A
100
AcDbEntity
  8
NOKOTOI
  6
PHANTOM
 62
     8
 48
3.5
100
AcDbCircle
 10
356.3394708450345
 20
305.3539269399843
 30
0.0
 40
2.000036820932882
100
AcDbArc
 50
269.9989117490339
 51
358.2110591274196
  0
ARC
  5
854
330
1A
100
AcDbEntity
  8
NOKOTOI
  6
PHANTOM
 62
     8
 48
3.5
100
AcDbCircle
 10
357.9871500703883
 20
303.6540068025598
 30
0.0
 40
1.500016683246579
100
AcDbArc
 50
269.9993425123348
 51
358.207642324411
  0
ARC
  5
855
330
1A
100
AcDbEntity
  8
NOKOTOI
  6
PHANTOM
 62
     8
 48
3.5
100
AcDbCircle
 10
242.00454560806
 20
316.1540032744984
 30
0.0
 40
1.999986844954076
100
AcDbArc
 50
90.00036528735526
 51
181.7883072882699
  0
ARC
  5
856
330
1A
100
AcDbEntity
  8
NOKOTOI
  6
PHANTOM
 62
     8
 48
3.5
100
AcDbCircle
 10
248.2824266560522
 20
315.1539966544973
 30
0.0
 40
0.4999934649531607
100
AcDbArc
 50
356.9955363203384
 51
89.99928939038005
  0
LINE
  5
857
330
1A
100
AcDbEntity
  8
NOKOTOI
  6
PHANTOM
 62
     8
 48
3.5
100
AcDbLine
 10
248.2824328572099
 20
315.653990119412
 30
0.0
 11
246.0509328572101
 21
315.653990119412
 31
0.0
  0
LINE
  5
858
330
1A
100
AcDbEntity
  8
NOKOTOI
  6
PHANTOM
 62
     8
 48
3.5
100
AcDbLine
 10
245.5606328572101
 20
316.2520901194119
 30
0.0
 11
245.8214328572101
 21
317.5559901194121
 31
0.0
  0
LINE
  5
859
330
1A
100
AcDbEntity
  8
NOKOTOI
  6
PHANTOM
 62
     8
 48
3.5
100
AcDbLine
 10
242.0045328572099
 20
316.9539901194122
 30
0.0
 11
244.4773328572103
 21
316.9539901194122
 31
0.0
  0
ARC
  5
85A
330
1A
100
AcDbEntity
  8
NOKOTOI
  6
PHANTOM
 62
     8
 48
3.5
100
AcDbCircle
 10
246.0509256026547
 20
316.1539989692554
 30
0.0
 40
0.5000088498959383
100
AcDbArc
 50
168.6864043304884
 51
270.0008312961434
  0
LINE
  5
85B
330
1A
100
AcDbEntity
  8
NOKOTOI
  6
PHANTOM
 62
     8
 48
3.5
100
AcDbLine
 10
242.0045328572099
 20
318.1539901194121
 30
0.0
 11
245.3311328572102
 21
318.1539901194121
 31
0.0
  0
ARC
  5
85C
330
1A
100
AcDbEntity
  8
NOKOTOI
  6
PHANTOM
 62
     8
 48
3.5
100
AcDbCircle
 10
245.3311320742017
 20
317.6539910744137
 30
0.0
 40
0.4999990449987349
100
AcDbArc
 50
348.6967198015448
 51
89.99991027369452
  0
LINE
  5
85D
330
1A
100
AcDbEntity
  8
NOKOTOI
  6
PHANTOM
 62
     8
 48
3.5
100
AcDbLine
 10
243.9773328572103
 20
314.4539901194122
 30
0.0
 11
246.9138328572102
 21
314.4539901194122
 31
0.0
  0
LINE
  5
85E
330
1A
100
AcDbEntity
  8
NOKOTOI
  6
PHANTOM
 62
     8
 48
3.5
100
AcDbLine
 10
244.4773328572103
 20
316.9539901194122
 30
0.0
 11
243.9773328572103
 21
314.4539901194122
 31
0.0
  0
ARC
  5
85F
330
1A
100
AcDbEntity
  8
NOKOTOI
  6
PHANTOM
 62
     8
 48
3.5
100
AcDbCircle
 10
242.0045373520082
 20
316.1539947569389
 30
0.0
 40
0.7999953624857498
100
AcDbArc
 50
90.00032191805336
 51
181.7911273464199
  0
LINE
  5
860
330
1A
100
AcDbEntity
  8
NOKOTOI
  6
PHANTOM
 62
     8
 48
3.5
100
AcDbLine
 10
355.9048328572101
 20
314.4539901194122
 30
0.0
 11
352.9682328572101
 21
314.4539901194122
 31
0.0
  0
LINE
  5
861
330
1A
100
AcDbEntity
  8
NOKOTOI
  6
PHANTOM
 62
     8
 48
3.5
100
AcDbLine
 10
357.8775328572104
 20
318.153890119412
 30
0.0
 11
354.5509328572101
 21
318.1539901194121
 31
0.0
  0
LINE
  5
862
330
1A
100
AcDbEntity
  8
NOKOTOI
  6
PHANTOM
 62
     8
 48
3.5
100
AcDbLine
 10
354.3214328572101
 20
316.2519901194122
 30
0.0
 11
354.0606328572101
 21
317.5559901194121
 31
0.0
  0
ARC
  5
863
330
1A
100
AcDbEntity
  8
NOKOTOI
  6
PHANTOM
 62
     8
 48
3.5
100
AcDbCircle
 10
353.8311320742017
 20
316.1539891644103
 30
0.0
 40
0.4999990449987399
100
AcDbArc
 50
270.0000897263054
 51
11.30328019845509
  0
ARC
  5
864
330
1A
100
AcDbEntity
  8
NOKOTOI
  6
PHANTOM
 62
     8
 48
3.5
100
AcDbCircle
 10
354.5509256026547
 20
317.6539812695686
 30
0.0
 40
0.500008849895925
100
AcDbArc
 50
89.99916870385492
 51
191.3135956695117
  0
ARC
  5
865
330
1A
100
AcDbEntity
  8
NOKOTOI
  6
PHANTOM
 62
     8
 48
3.5
100
AcDbCircle
 10
351.5996365667055
 20
315.1539940294428
 30
0.0
 40
0.4999960899831856
100
AcDbArc
 50
90.00042508015132
 51
183.0156217414654
  0
LINE
  5
866
330
1A
100
AcDbEntity
  8
NOKOTOI
  6
PHANTOM
 62
     8
 48
3.5
100
AcDbLine
 10
351.5996328572104
 20
315.653990119412
 30
0.0
 11
353.8311328572102
 21
315.653990119412
 31
0.0
  0
ARC
  5
867
330
1A
100
AcDbEntity
  8
NOKOTOI
  6
PHANTOM
 62
     8
 48
3.5
100
AcDbCircle
 10
357.877521620216
 20
316.1540017132292
 30
0.0
 40
1.999988406214315
100
AcDbArc
 50
358.2088726535929
 51
89.99967808195611
  0
ARC
  5
868
330
1A
100
AcDbEntity
  8
NOKOTOI
  6
PHANTOM
 62
     8
 48
3.5
100
AcDbCircle
 10
357.8775768235631
 20
316.1539447569391
 30
0.0
 40
0.7999453636812564
100
AcDbArc
 50
358.212343644788
 51
90.00314907315372
  0
LINE
  5
869
330
1A
100
AcDbEntity
  8
NOKOTOI
  6
PHANTOM
 62
     8
 48
3.5
100
AcDbLine
 10
355.4048328572101
 20
316.9539901194122
 30
0.0
 11
355.9048328572101
 21
314.4539901194122
 31
0.0
  0
LINE
  5
86A
330
1A
100
AcDbEntity
  8
NOKOTOI
  6
PHANTOM
 62
     8
 48
3.5
100
AcDbLine
 10
357.8775328572104
 20
316.953890119412
 30
0.0
 11
355.4048328572101
 21
316.9539901194122
 31
0.0
  0
LINE
  5
96B
330
1A
100
AcDbEntity
  8
ZUWAKU
100
AcDbLine
 10
208.6466004668659
 20
15.19999936995179
 30
0.0
 11
447.4243631477893
 21
15.19999936995178
 31
0.0
  0
LINE
  5
96C
330
1A
100
AcDbEntity
  8
ZUWAKU
100
AcDbLine
 10
208.6466004668659
 20
15.59999936995178
 30
0.0
 11
447.4243631477893
 21
15.59999936995179
 31
0.0
  0
LINE
  5
96D
330
1A
100
AcDbEntity
  8
ZUWAKU
100
AcDbLine
 10
208.6466004668659
 20
15.39999936995178
 30
0.0
 11
447.4243631477893
 21
15.39999936995178
 31
0.0
  0
LINE
  5
96E
330
1A
100
AcDbEntity
  8
ZUWAKU
100
AcDbLine
 10
-0.0000008232020718
 20
30.79999936995176
 30
0.0
 11
797.3999991767978
 21
30.79999936995176
 31
0.0
  0
LINE
  5
96F
330
1A
100
AcDbEntity
  8
ZUWAKU
100
AcDbLine
 10
-0.0000008232020718
 20
30.59999936995176
 30
0.0
 11
797.3999991767978
 21
30.59999936995176
 31
0.0
  0
LINE
  5
970
330
1A
100
AcDbEntity
  8
ZUWAKU
100
AcDbLine
 10
-0.0000008232020718
 20
30.39999936995176
 30
0.0
 11
797.3999991767978
 21
30.39999936995176
 31
0.0
  0
LINE
  5
971
330
1A
100
AcDbEntity
  8
ZUWAKU
100
AcDbLine
 10
-0.0000008232020718
 20
30.19999936995175
 30
0.0
 11
797.3999991767978
 21
30.19999936995175
 31
0.0
  0
LINE
  5
972
330
1A
100
AcDbEntity
  8
ZUWAKU
100
AcDbLine
 10
-0.0000008232020718
 20
29.99999936995175
 30
0.0
 11
797.3999991767978
 21
29.99999936995175
 31
0.0
  0
LWPOLYLINE
  5
973
330
1A
100
AcDbEntity
  8
ZUWAKU
100
AcDbPolyline
 90
        4
 70
     1
 43
0.0
 10
0.1999991767978599
 20
551.3999993699518
 10
0.1999991767978599
 20
0.1999993699517972
 10
797.3999991767978
 20
0.1999993699518203
 10
797.399999176798
 20
551.3999993699518
  0
LWPOLYLINE
  5
974
330
1A
100
AcDbEntity
  8
ZUWAKU
100
AcDbPolyline
 90
        4
 70
     1
 43
0.0
 10
0.5999991767978372
 20
550.9999993699518
 10
0.5999991767978372
 20
0.5999993699517745
 10
796.9999991767982
 20
0.5999993699518207
 10
796.9999991767979
 20
550.9999993699518
  0
LWPOLYLINE
  5
975
330
1A
100
AcDbEntity
  8
ZUWAKU
100
AcDbPolyline
 90
        4
 70
     1
 43
0.0
 10
-0.0000008232020718
 20
551.5999993699518
 10
-0.0000008232020718
 20
-0.0000006300482482
 10
797.599999176798
 20
-0.0000006300481807
 10
797.599999176798
 20
551.5999993699518
  0
LWPOLYLINE
  5
976
330
1A
100
AcDbEntity
  8
ZUWAKU
100
AcDbPolyline
 90
        4
 70
     1
 43
0.0
 10
0.3999991767979054
 20
551.1999993699517
 10
0.3999991767979054
 20
0.3999993699518427
 10
797.199999176798
 20
0.3999993699518196
 10
797.199999176798
 20
551.1999993699517
  0
LWPOLYLINE
  5
977
330
1A
100
AcDbEntity
  8
ZUWAKU
100
AcDbPolyline
 90
        4
 70
     1
 43
0.0
 10
0.7999991767978827
 20
550.7999993699518
 10
0.7999991767978827
 20
0.79999936995182
 10
796.7999991767978
 20
0.79999936995182
 10
796.7999991767978
 20
550.7999993699518
  0
TEXT
  5
978
330
1A
100
AcDbEntity
  8
MOJI
100
AcDbText
 10
92.95778876496706
 20
12.74117750022651
 30
0.0
 40
6.0
  1
新・丸トップＲＶ１０５
 41
0.9
  7
ｽﾀｲﾙ1
100
AcDbText
  0
HATCH
  5
979
330
1A
100
AcDbEntity
  8
ZUWAKU
100
AcDbHatch
 10
0.0
 20
0.0
 30
0.0
210
0.0
220
0.0
230
1.0
  2
ANSI37
 70
     0
 71
     0
 91
        8
 92
        7
 72
     1
 73
     1
 93
       24
 10
14.50226183791778
 20
17.64484785093533
 42
-0.1989123673796348
 10
14.09221133157905
 20
18.63479734459638
 42
0.0
 10
14.09221133157905
 20
19.92499936995176
 42
-0.4142135623730912
 10
14.61721133157903
 20
20.44999936995175
 42
0.0
 10
17.59221133157893
 20
20.44999936995175
 42
0.4142135623731546
 10
18.11721133157902
 20
20.97499936995174
 42
0.0
 10
18.11721133157902
 20
22.72499936995175
 42
0.4142135623731586
 10
17.59221133157893
 20
23.24999936995176
 42
0.0
 10
14.09221133157905
 20
23.24999936995176
 42
0.4142135623730928
 10
11.29221133157909
 20
20.44999936995178
 42
0.0
 10
11.29221133157909
 20
18.63479734459651
 42
0.1989123673796619
 10
12.52236285059552
 20
15.6649488636129
 42
0.0
 10
15.4321608252402
 20
12.75515088896824
 42
-0.1989123673796613
 10
15.84221133157905
 20
11.76520139530706
 42
0.0
 10
15.84221133157905
 20
10.47499936995174
 42
-0.4142135623730911
 10
15.31721133157907
 20
9.949999369951754
 42
0.0
 10
12.34221133157916
 20
9.949999369951754
 42
0.4142135623731526
 10
11.81721133157907
 20
9.424999369951766
 42
0.0
 10
11.81721133157907
 20
7.674999369951745
 42
0.4142135623731526
 10
12.34221133157916
 20
7.149999369951757
 42
0.0
 10
15.84221133157905
 20
7.149999369951757
 42
0.4142135623731044
 10
18.64221133157911
 20
9.949999369951733
 42
0.0
 10
18.64221133157911
 20
11.765201395307
 42
0.1989123673796604
 10
17.41205981256257
 20
14.73504987629054
 42
0.0
 97
        0
 92
        7
 72
     1
 73
     1
 93
       16
 10
23.54221133157909
 20
19.04999936995176
 42
-0.4142135623730935
 10
24.94221133157907
 20
20.44999936995175
 42
0.0
 10
26.86721133157902
 20
20.44999936995175
 42
0.4142135623731546
 10
27.39221133157911
 20
20.97499936995174
 42
0.0
 10
27.39221133157911
 20
22.72499936995175
 42
0.4142135623730951
 10
26.86721133157914
 20
23.24999936995176
 42
0.0
 10
24.94221133157896
 20
23.24999936995171
 42
0.4142135623730892
 10
20.74221133157903
 20
19.04999936995169
 42
0.0
 10
20.74221133157903
 20
11.34999936995178
 42
0.4142135623730969
 10
24.94221133157907
 20
7.149999369951757
 42
0.0
 10
26.86721133157902
 20
7.149999369951757
 42
0.4142135623731526
 10
27.39221133157911
 20
7.674999369951745
 42
0.0
 10
27.39221133157911
 20
9.424999369951766
 42
0.4142135623730891
 10
26.86721133157914
 20
9.949999369951754
 42
0.0
 10
24.94221133157907
 20
9.949999369951754
 42
-0.4142135623730928
 10
23.54221133157909
 20
11.34999936995174
 42
0.0
 97
        0
 92
        7
 72
     1
 73
     1
 93
        2
 10
24.24221133157903
 20
15.19999936995175
 42
1.0
 10
27.74221133157903
 20
15.19999936995175
 42
1.0
 97
        0
 92
        7
 72
     1
 73
     1
 93
       26
 10
37.31485781375704
 20
19.20504656351518
 42
0.0
 10
38.37649744689485
 20
22.56690540178477
 42
0.5069206636600134
 10
37.8758665476995
 20
23.24999936995176
 42
0.0
 10
36.17697716809027
 20
23.24999936995176
 42
0.3272098845218764
 10
35.67634626889491
 20
22.88309333811872
 42
0.0
 10
33.80807639426314
 20
16.96690540178483
 42
-0.3272098845219541
 10
33.30744549506766
 20
16.59999936995175
 42
0.0
 10
33.16721133157921
 20
16.59999936995175
 42
-0.4142135623731526
 10
32.64221133157912
 20
17.12499936995174
 42
0.0
 10
32.64221133157912
 20
22.72499936995175
 42
0.4142135623730951
 10
32.11721133157914
 20
23.24999936995176
 42
0.0
 10
30.36721133157902
 20
23.24999936995176
 42
0.4142135623730871
 10
29.84221133157905
 20
22.72499936995177
 42
0.0
 10
29.84221133157905
 20
7.674999369951745
 42
0.4142135623730891
 10
30.36721133157902
 20
7.149999369951757
 42
0.0
 10
32.11721133157903
 20
7.149999369951757
 42
0.4142135623731526
 10
32.64221133157912
 20
7.674999369951745
 42
0.0
 10
32.64221133157912
 20
13.27499936995176
 42
-0.4142135623731526
 10
33.16721133157921
 20
13.79999936995175
 42
0.0
 10
33.30744549506778
 20
13.79999936995175
 42
-0.3272098845218915
 10
33.80807639426314
 20
13.43309333811868
 42
0.0
 10
35.67634626889491
 20
7.516905401784828
 42
0.3272098845218902
 10
36.17697716809027
 20
7.149999369951757
 42
0.0
 10
37.8758665476995
 20
7.149999369951757
 42
0.5069206636600335
 10
38.37649744689485
 20
7.833093338118764
 42
0.0
 10
36.0501060684212
 20
15.19999936995189
 42
0.0
 97
        0
 92
        7
 72
     1
 73
     1
 93
        8
 10
43.49221133157903
 20
22.72499936995176
 42
0.4142135623731546
 10
42.96721133157894
 20
23.24999936995176
 42
0.0
 10
41.21721133157916
 20
23.24999936995176
 42
0.4142135623731507
 10
40.69221133157907
 20
22.72499936995177
 42
0.0
 10
40.69221133157907
 20
7.674999369951745
 42
0.4142135623731526
 10
41.21721133157916
 20
7.149999369951757
 42
0.0
 10
42.96721133157894
 20
7.149999369951757
 42
0.4142135623731526
 10
43.49221133157903
 20
7.674999369951745
 42
0.0
 97
        0
 92
        7
 72
     1
 73
     1
 93
       24
 10
48.39221133157912
 20
19.92499936995176
 42
-0.4142135623731546
 10
48.91721133157921
 20
20.44999936995175
 42
0.0
 10
51.89221133157912
 20
20.44999936995175
 42
0.4142135623730911
 10
52.41721133157909
 20
20.97499936995174
 42
0.0
 10
52.41721133157909
 20
22.72499936995175
 42
0.4142135623730952
 10
51.89221133157912
 20
23.24999936995176
 42
0.0
 10
48.39221133157912
 20
23.24999936995176
 42
0.4142135623731048
 10
45.59221133157905
 20
20.44999936995178
 42
0.0
 10
45.59221133157905
 20
18.63479734459651
 42
0.1989123673796613
 10
46.82236285059559
 20
15.66494886361296
 42
0.0
 10
49.73216082524027
 20
12.75515088896829
 42
-0.1989123673796402
 10
50.14221133157912
 20
11.76520139530722
 42
0.0
 10
50.14221133157912
 20
10.47499936995174
 42
-0.4142135623730911
 10
49.61721133157914
 20
9.949999369951754
 42
0.0
 10
46.64221133157911
 20
9.949999369951754
 42
0.4142135623731526
 10
46.11721133157902
 20
9.424999369951766
 42
0.0
 10
46.11721133157902
 20
7.674999369951745
 42
0.4142135623730891
 10
46.64221133157901
 20
7.149999369951757
 42
0.0
 10
50.14221133157912
 20
7.149999369951757
 42
0.4142135623730925
 10
52.94221133157908
 20
9.949999369951733
 42
0.0
 10
52.94221133157908
 20
11.765201395307
 42
0.1989123673796675
 10
51.71205981256253
 20
14.73504987629065
 42
0.0
 10
48.80226183791797
 20
17.64484785093517
 42
-0.1989123673796652
 10
48.39221133157912
 20
18.63479734459634
 42
0.0
 97
        0
 92
        7
 72
     1
 73
     1
 93
       16
 10
57.84221133157905
 20
22.72499936995174
 42
0.414213562373103
 10
57.31721133157908
 20
23.24999936995176
 42
0.0
 10
55.56721133157907
 20
23.24999936995176
 42
0.4142135623730871
 10
55.04221133157909
 20
22.72499936995177
 42
0.0
 10
55.04221133157909
 20
9.949999369951733
 42
0.4142135623730926
 10
57.84221133157905
 20
7.149999369951757
 42
0.0
 10
61.34221133157905
 20
7.149999369951757
 42
0.4142135623731044
 10
64.14221133157912
 20
9.949999369951733
 42
0.0
 10
64.14221133157912
 20
22.72499936995175
 42
0.4142135623730951
 10
63.61721133157914
 20
23.24999936995176
 42
0.0
 10
61.86721133157902
 20
23.24999936995176
 42
0.4142135623730871
 10
61.34221133157905
 20
22.72499936995177
 42
0.0
 10
61.34221133157905
 20
10.99999936995173
 42
-0.414213562373088
 10
60.2922113315791
 20
9.949999369951754
 42
0.0
 10
58.89221133157912
 20
9.949999369951754
 42
-0.4142135623731197
 10
57.84221133157905
 20
10.99999936995173
 42
0.0
 97
        0
 92
        7
 72
     1
 73
     1
 93
        8
 10
69.0422113315791
 20
22.72499936995177
 42
0.4142135623730871
 10
68.51721133157912
 20
23.24999936995176
 42
0.0
 10
66.76721133157911
 20
23.24999936995176
 42
0.4142135623731507
 10
66.24221133157902
 20
22.72499936995177
 42
0.0
 10
66.24221133157902
 20
7.674999369951745
 42
0.4142135623730891
 10
66.76721133157901
 20
7.149999369951757
 42
0.0
 10
68.51721133157912
 20
7.149999369951757
 42
0.4142135623730891
 10
69.0422113315791
 20
7.674999369951745
 42
0.0
 97
        0
 75
     0
 76
     1
 52
0.0
 41
0.2
 77
     0
 78
     2
 53
45.0
 43
-900.942305157881
 44
-13.20000063004818
 45
-0.4490128060534576
 46
0.4490128060534577
 79
     0
 53
135.0
 43
-900.942305157881
 44
-13.20000063004818
 45
-0.4490128060534577
 46
-0.4490128060534576
 79
     0
 47
0.057451373970553
 98
        8
 10
16.07985413982123
 20
15.1671730158373
 10
22.40451418323709
 20
18.84406155240276
 10
25.16436706245758
 20
15.51188101602247
 10
30.91405915843506
 20
16.20129701639325
 10
41.83847119575466
 20
16.66090928393487
 10
46.89820007192747
 20
19.41857568635896
 10
56.55768514919827
 20
18.72915728504676
 10
67.82707879642067
 20
19.18876955258838
  0
LINE
  5
97A
330
1A
100
AcDbEntity
  8
ZUWAKU
100
AcDbLine
 10
24.94221133157907
 20
23.24999936995171
 30
0.0
 11
26.86721133157902
 21
23.24999936995176
 31
0.0
  0
LINE
  5
97B
330
1A
100
AcDbEntity
  8
ZUWAKU
100
AcDbLine
 10
26.86721133157902
 20
20.44999936995175
 30
0.0
 11
24.94221133157907
 21
20.44999936995175
 31
0.0
  0
LINE
  5
97C
330
1A
100
AcDbEntity
  8
ZUWAKU
100
AcDbLine
 10
24.94221133157907
 20
9.949999369951754
 30
0.0
 11
26.86721133157902
 21
9.949999369951754
 31
0.0
  0
LINE
  5
97D
330
1A
100
AcDbEntity
  8
ZUWAKU
100
AcDbLine
 10
26.86721133157902
 20
7.149999369951757
 30
0.0
 11
24.94221133157907
 21
7.149999369951757
 31
0.0
  0
CIRCLE
  5
97E
330
1A
100
AcDbEntity
  8
ZUWAKU
100
AcDbCircle
 10
25.99221133157902
 20
15.19999936995175
 30
0.0
 40
1.75
  0
ARC
  5
97F
330
1A
100
AcDbEntity
  8
ZUWAKU
100
AcDbCircle
 10
15.49221133157902
 20
18.63479734459645
 30
0.0
 40
1.399999999999999
100
AcDbArc
 50
180.0000000000016
 51
224.9999999999988
  0
LINE
  5
980
330
1A
100
AcDbEntity
  8
ZUWAKU
100
AcDbLine
 10
23.54221133157909
 20
19.04999936995175
 30
0.0
 11
23.54221133157909
 21
11.34999936995175
 31
0.0
  0
LINE
  5
981
330
1A
100
AcDbEntity
  8
ZUWAKU
100
AcDbLine
 10
20.74221133157903
 20
11.34999936995175
 30
0.0
 11
20.74221133157903
 21
19.04999936995171
 31
0.0
  0
ARC
  5
982
330
1A
100
AcDbEntity
  8
ZUWAKU
100
AcDbCircle
 10
15.49221133157902
 20
18.63479734459645
 30
0.0
 40
4.199999999999999
100
AcDbArc
 50
180.0
 51
225.0
  0
ARC
  5
983
330
1A
100
AcDbEntity
  8
ZUWAKU
100
AcDbCircle
 10
15.84221133157905
 20
9.949999369951754
 30
0.0
 40
2.799999999999999
100
AcDbArc
 50
270.0
 51
0.0
  0
ARC
  5
984
330
1A
100
AcDbEntity
  8
ZUWAKU
100
AcDbCircle
 10
24.94221133157907
 20
11.34999936995175
 30
0.0
 40
4.199999999999999
100
AcDbArc
 50
180.0
 51
270.0
  0
ARC
  5
985
330
1A
100
AcDbEntity
  8
ZUWAKU
100
AcDbCircle
 10
14.44221133157907
 20
11.76520139530705
 30
0.0
 40
4.199999999999999
100
AcDbArc
 50
0.0
 51
45.0
  0
LINE
  5
986
330
1A
100
AcDbEntity
  8
ZUWAKU
100
AcDbLine
 10
17.41205981256257
 20
14.73504987629058
 30
0.0
 11
14.5022618379179
 21
17.64484785093525
 31
0.0
  0
LINE
  5
987
330
1A
100
AcDbEntity
  8
ZUWAKU
100
AcDbLine
 10
15.84221133157905
 20
10.47499936995176
 30
0.0
 11
15.84221133157905
 21
11.7652013953071
 31
0.0
  0
ARC
  5
988
330
1A
100
AcDbEntity
  8
ZUWAKU
100
AcDbCircle
 10
15.31721133157907
 20
10.47499936995176
 30
0.0
 40
0.525
100
AcDbArc
 50
270.0
 51
0.0
  0
ARC
  5
989
330
1A
100
AcDbEntity
  8
ZUWAKU
100
AcDbCircle
 10
14.44221133157907
 20
11.7652013953071
 30
0.0
 40
1.399999999999999
100
AcDbArc
 50
0.0
 51
45.0
  0
LINE
  5
98A
330
1A
100
AcDbEntity
  8
ZUWAKU
100
AcDbLine
 10
11.81721133157907
 20
7.674999369951756
 30
0.0
 11
11.81721133157907
 21
9.424999369951756
 31
0.0
  0
ARC
  5
98B
330
1A
100
AcDbEntity
  8
ZUWAKU
100
AcDbCircle
 10
12.34221133157905
 20
7.674999369951756
 30
0.0
 40
0.525
100
AcDbArc
 50
180.0
 51
270.0
  0
ARC
  5
98C
330
1A
100
AcDbEntity
  8
ZUWAKU
100
AcDbCircle
 10
12.34221133157905
 20
9.424999369951756
 30
0.0
 40
0.525
100
AcDbArc
 50
90.0
 51
180.0
  0
LINE
  5
98D
330
1A
100
AcDbEntity
  8
ZUWAKU
100
AcDbLine
 10
12.34221133157905
 20
7.149999369951757
 30
0.0
 11
15.84221133157905
 21
7.149999369951757
 31
0.0
  0
LINE
  5
98E
330
1A
100
AcDbEntity
  8
ZUWAKU
100
AcDbLine
 10
12.34221133157905
 20
9.949999369951754
 30
0.0
 11
15.31721133157907
 21
9.949999369951754
 31
0.0
  0
LINE
  5
98F
330
1A
100
AcDbEntity
  8
ZUWAKU
100
AcDbLine
 10
12.52236285059552
 20
15.66494886361293
 30
0.0
 11
15.4321608252402
 21
12.75515088896827
 31
0.0
  0
LINE
  5
990
330
1A
100
AcDbEntity
  8
ZUWAKU
100
AcDbLine
 10
18.64221133157911
 20
9.949999369951754
 30
0.0
 11
18.64221133157911
 21
11.7652013953071
 31
0.0
  0
ARC
  5
991
330
1A
100
AcDbEntity
  8
ZUWAKU
100
AcDbCircle
 10
24.94221133157907
 20
11.34999936995175
 30
0.0
 40
1.399999999999999
100
AcDbArc
 50
180.0
 51
270.0
  0
ARC
  5
992
330
1A
100
AcDbEntity
  8
ZUWAKU
100
AcDbCircle
 10
17.59221133157905
 20
22.72499936995175
 30
0.0
 40
0.525
100
AcDbArc
 50
0.0
 51
90.0
  0
ARC
  5
993
330
1A
100
AcDbEntity
  8
ZUWAKU
100
AcDbCircle
 10
17.59221133157905
 20
20.97499936995175
 30
0.0
 40
0.525
100
AcDbArc
 50
270.0
 51
0.0
  0
LINE
  5
994
330
1A
100
AcDbEntity
  8
ZUWAKU
100
AcDbLine
 10
14.09221133157905
 20
23.24999936995176
 30
0.0
 11
17.59221133157905
 21
23.24999936995176
 31
0.0
  0
ARC
  5
995
330
1A
100
AcDbEntity
  8
ZUWAKU
100
AcDbCircle
 10
14.61721133157903
 20
19.92499936995175
 30
0.0
 40
0.525
100
AcDbArc
 50
90.0
 51
180.0
  0
LINE
  5
996
330
1A
100
AcDbEntity
  8
ZUWAKU
100
AcDbLine
 10
14.09221133157905
 20
19.92499936995175
 30
0.0
 11
14.09221133157905
 21
18.63479734459641
 31
0.0
  0
LINE
  5
997
330
1A
100
AcDbEntity
  8
ZUWAKU
100
AcDbLine
 10
17.59221133157905
 20
20.44999936995175
 30
0.0
 11
14.61721133157903
 21
20.44999936995175
 31
0.0
  0
LINE
  5
998
330
1A
100
AcDbEntity
  8
ZUWAKU
100
AcDbLine
 10
11.29221133157909
 20
20.44999936995175
 30
0.0
 11
11.29221133157909
 21
18.63479734459641
 31
0.0
  0
ARC
  5
999
330
1A
100
AcDbEntity
  8
ZUWAKU
100
AcDbCircle
 10
14.09221133157905
 20
20.44999936995175
 30
0.0
 40
2.799999999999999
100
AcDbArc
 50
90.0
 51
180.0
  0
LINE
  5
99A
330
1A
100
AcDbEntity
  8
ZUWAKU
100
AcDbLine
 10
18.11721133157902
 20
22.72499936995175
 30
0.0
 11
18.11721133157902
 21
20.97499936995175
 31
0.0
  0
ARC
  5
99B
330
1A
100
AcDbEntity
  8
ZUWAKU
100
AcDbCircle
 10
24.94221133157907
 20
19.04999936995175
 30
0.0
 40
1.399999999999999
100
AcDbArc
 50
90.0
 51
180.0
  0
ARC
  5
99C
330
1A
100
AcDbEntity
  8
ZUWAKU
100
AcDbCircle
 10
24.94221133157907
 20
19.04999936995171
 30
0.0
 40
4.199999999999999
100
AcDbArc
 50
90.0
 51
180.0
  0
LINE
  5
99D
330
1A
100
AcDbEntity
  8
ZUWAKU
100
AcDbLine
 10
79.32662872478613
 20
29.99999936995175
 30
0.0
 11
79.32662872478636
 21
0.79999936995182
 31
0.0
  0
LINE
  5
99E
330
1A
100
AcDbEntity
  8
ZUWAKU
100
AcDbLine
 10
79.52662872478618
 20
29.99999936995175
 30
0.0
 11
79.5266287247864
 21
0.79999936995182
 31
0.0
  0
LINE
  5
99F
330
1A
100
AcDbEntity
  8
ZUWAKU
100
AcDbLine
 10
79.12662872478631
 20
29.99999936995175
 30
0.0
 11
79.12662872478631
 21
0.79999936995182
 31
0.0
  0
LINE
  5
9A0
330
1A
100
AcDbEntity
  8
ZUWAKU
100
AcDbLine
 10
64.14221133157912
 20
9.949999369951754
 30
0.0
 11
64.14221133157912
 21
22.72499936995175
 31
0.0
  0
LINE
  5
9A1
330
1A
100
AcDbEntity
  8
ZUWAKU
100
AcDbLine
 10
61.34221133157905
 20
22.72499936995175
 30
0.0
 11
61.34221133157905
 21
10.99999936995175
 31
0.0
  0
LINE
  5
9A2
330
1A
100
AcDbEntity
  8
ZUWAKU
100
AcDbLine
 10
69.0422113315791
 20
7.674999369951756
 30
0.0
 11
69.0422113315791
 21
22.72499936995175
 31
0.0
  0
LINE
  5
9A3
330
1A
100
AcDbEntity
  8
ZUWAKU
100
AcDbLine
 10
66.24221133157902
 20
22.72499936995175
 30
0.0
 11
66.24221133157902
 21
7.674999369951756
 31
0.0
  0
ARC
  5
9A4
330
1A
100
AcDbEntity
  8
ZUWAKU
100
AcDbCircle
 10
49.7922113315791
 20
18.63479734459645
 30
0.0
 40
1.399999999999999
100
AcDbArc
 50
180.0000000000016
 51
224.9999999999988
  0
ARC
  5
9A5
330
1A
100
AcDbEntity
  8
ZUWAKU
100
AcDbCircle
 10
49.7922113315791
 20
18.63479734459645
 30
0.0
 40
4.199999999999999
100
AcDbArc
 50
180.0
 51
225.0
  0
LINE
  5
9A6
330
1A
100
AcDbEntity
  8
ZUWAKU
100
AcDbLine
 10
37.31485781375704
 20
19.20504656351518
 30
0.0
 11
36.0501060684212
 21
15.19999936995177
 31
0.0
  0
LINE
  5
9A7
330
1A
100
AcDbEntity
  8
ZUWAKU
100
AcDbLine
 10
40.69221133157907
 20
22.72499936995175
 30
0.0
 11
40.69221133157907
 21
7.674999369951756
 31
0.0
  0
LINE
  5
9A8
330
1A
100
AcDbEntity
  8
ZUWAKU
100
AcDbLine
 10
43.49221133157903
 20
7.674999369951756
 30
0.0
 11
43.49221133157903
 21
22.72499936995175
 31
0.0
  0
LINE
  5
9A9
330
1A
100
AcDbEntity
  8
ZUWAKU
100
AcDbLine
 10
55.04221133157909
 20
22.72499936995175
 30
0.0
 11
55.04221133157909
 21
9.949999369951754
 31
0.0
  0
LINE
  5
9AA
330
1A
100
AcDbEntity
  8
ZUWAKU
100
AcDbLine
 10
57.84221133157905
 20
10.99999936995175
 30
0.0
 11
57.84221133157905
 21
22.72499936995175
 31
0.0
  0
LINE
  5
9AB
330
1A
100
AcDbEntity
  8
ZUWAKU
100
AcDbLine
 10
32.64221133157912
 20
17.12499936995175
 30
0.0
 11
32.64221133157912
 21
22.72499936995175
 31
0.0
  0
LINE
  5
9AC
330
1A
100
AcDbEntity
  8
ZUWAKU
100
AcDbLine
 10
29.84221133157905
 20
22.72499936995175
 30
0.0
 11
29.84221133157905
 21
7.674999369951756
 31
0.0
  0
LINE
  5
9AD
330
1A
100
AcDbEntity
  8
ZUWAKU
100
AcDbLine
 10
35.67634626889491
 20
22.88309333811872
 30
0.0
 11
33.80807639426314
 21
16.96690540178478
 31
0.0
  0
LINE
  5
9AE
330
1A
100
AcDbEntity
  8
ZUWAKU
100
AcDbLine
 10
60.2922113315791
 20
9.949999369951754
 30
0.0
 11
58.89221133157912
 21
9.949999369951754
 31
0.0
  0
LINE
  5
9AF
330
1A
100
AcDbEntity
  8
ZUWAKU
100
AcDbLine
 10
57.84221133157905
 20
7.149999369951757
 30
0.0
 11
61.34221133157905
 21
7.149999369951757
 31
0.0
  0
LINE
  5
9B0
330
1A
100
AcDbEntity
  8
ZUWAKU
100
AcDbLine
 10
41.21721133157905
 20
7.149999369951757
 30
0.0
 11
42.96721133157904
 21
7.149999369951757
 31
0.0
  0
LINE
  5
9B1
330
1A
100
AcDbEntity
  8
ZUWAKU
100
AcDbLine
 10
35.67634626889491
 20
7.516905401784782
 30
0.0
 11
33.80807639426314
 21
13.43309333811872
 31
0.0
  0
ARC
  5
9B2
330
1A
100
AcDbEntity
  8
ZUWAKU
100
AcDbCircle
 10
33.30744549506778
 20
17.12499936995175
 30
0.0
 40
0.525
100
AcDbArc
 50
270.0
 51
342.4744316262769
  0
LINE
  5
9B3
330
1A
100
AcDbEntity
  8
ZUWAKU
100
AcDbLine
 10
33.30744549506778
 20
16.59999936995175
 30
0.0
 11
33.16721133157909
 21
16.59999936995175
 31
0.0
  0
LINE
  5
9B4
330
1A
100
AcDbEntity
  8
ZUWAKU
100
AcDbLine
 10
33.16721133157909
 20
13.79999936995175
 30
0.0
 11
33.30744549506778
 21
13.79999936995175
 31
0.0
  0
ARC
  5
9B5
330
1A
100
AcDbEntity
  8
ZUWAKU
100
AcDbCircle
 10
33.16721133157909
 20
17.12499936995175
 30
0.0
 40
0.525
100
AcDbArc
 50
180.0
 51
270.0
  0
LINE
  5
9B6
330
1A
100
AcDbEntity
  8
ZUWAKU
100
AcDbLine
 10
30.36721133157902
 20
7.149999369951757
 30
0.0
 11
32.11721133157903
 21
7.149999369951757
 31
0.0
  0
ARC
  5
9B7
330
1A
100
AcDbEntity
  8
ZUWAKU
100
AcDbCircle
 10
32.11721133157903
 20
7.674999369951756
 30
0.0
 40
0.525
100
AcDbArc
 50
270.0
 51
0.0
  0
LINE
  5
9B8
330
1A
100
AcDbEntity
  8
ZUWAKU
100
AcDbLine
 10
32.64221133157912
 20
7.674999369951756
 30
0.0
 11
32.64221133157912
 21
13.27499936995175
 31
0.0
  0
LINE
  5
9B9
330
1A
100
AcDbEntity
  8
ZUWAKU
100
AcDbLine
 10
27.39221133157911
 20
9.424999369951756
 30
0.0
 11
27.39221133157911
 21
7.674999369951756
 31
0.0
  0
ARC
  5
9BA
330
1A
100
AcDbEntity
  8
ZUWAKU
100
AcDbCircle
 10
26.86721133157902
 20
7.674999369951756
 30
0.0
 40
0.525
100
AcDbArc
 50
270.0
 51
0.0
  0
ARC
  5
9BB
330
1A
100
AcDbEntity
  8
ZUWAKU
100
AcDbCircle
 10
26.86721133157902
 20
9.424999369951756
 30
0.0
 40
0.525
100
AcDbArc
 50
0.0
 51
90.0
  0
ARC
  5
9BC
330
1A
100
AcDbEntity
  8
ZUWAKU
100
AcDbCircle
 10
30.36721133157902
 20
7.674999369951756
 30
0.0
 40
0.525
100
AcDbArc
 50
180.0
 51
270.0
  0
ARC
  5
9BD
330
1A
100
AcDbEntity
  8
ZUWAKU
100
AcDbCircle
 10
33.30744549506778
 20
13.27499936995175
 30
0.0
 40
0.525
100
AcDbArc
 50
17.52556837372303
 51
90.0
  0
ARC
  5
9BE
330
1A
100
AcDbEntity
  8
ZUWAKU
100
AcDbCircle
 10
33.16721133157909
 20
13.27499936995175
 30
0.0
 40
0.525
100
AcDbArc
 50
90.0
 51
180.0
  0
ARC
  5
9BF
330
1A
100
AcDbEntity
  8
ZUWAKU
100
AcDbCircle
 10
41.21721133157905
 20
7.674999369951756
 30
0.0
 40
0.525
100
AcDbArc
 50
180.0
 51
270.0
  0
LINE
  5
9C0
330
1A
100
AcDbEntity
  8
ZUWAKU
100
AcDbLine
 10
36.17697716809038
 20
7.149999369951757
 30
0.0
 11
37.87586654769938
 21
7.149999369951757
 31
0.0
  0
ARC
  5
9C1
330
1A
100
AcDbEntity
  8
ZUWAKU
100
AcDbCircle
 10
37.87586654769938
 20
7.674999369951756
 30
0.0
 40
0.525
100
AcDbArc
 50
270.0
 51
17.52556837372303
  0
LINE
  5
9C2
330
1A
100
AcDbEntity
  8
ZUWAKU
100
AcDbLine
 10
38.37649744689485
 20
7.833093338118729
 30
0.0
 11
36.0501060684212
 21
15.19999936995177
 31
0.0
  0
ARC
  5
9C3
330
1A
100
AcDbEntity
  8
ZUWAKU
100
AcDbCircle
 10
36.17697716809038
 20
7.674999369951756
 30
0.0
 40
0.525
100
AcDbArc
 50
197.525568373723
 51
270.0
  0
ARC
  5
9C4
330
1A
100
AcDbEntity
  8
ZUWAKU
100
AcDbCircle
 10
57.84221133157905
 20
9.949999369951754
 30
0.0
 40
2.799999999999999
100
AcDbArc
 50
180.0
 51
270.0
  0
ARC
  5
9C5
330
1A
100
AcDbEntity
  8
ZUWAKU
100
AcDbCircle
 10
50.14221133157912
 20
9.949999369951754
 30
0.0
 40
2.799999999999999
100
AcDbArc
 50
270.0
 51
0.0
  0
LINE
  5
9C6
330
1A
100
AcDbEntity
  8
ZUWAKU
100
AcDbLine
 10
51.71205981256264
 20
14.73504987629058
 30
0.0
 11
48.80226183791785
 21
17.64484785093525
 31
0.0
  0
LINE
  5
9C7
330
1A
100
AcDbEntity
  8
ZUWAKU
100
AcDbLine
 10
50.14221133157912
 20
10.47499936995176
 30
0.0
 11
50.14221133157912
 21
11.7652013953071
 31
0.0
  0
ARC
  5
9C8
330
1A
100
AcDbEntity
  8
ZUWAKU
100
AcDbCircle
 10
48.74221133157902
 20
11.7652013953071
 30
0.0
 40
1.399999999999999
100
AcDbArc
 50
0.0
 51
45.0
  0
ARC
  5
9C9
330
1A
100
AcDbEntity
  8
ZUWAKU
100
AcDbCircle
 10
49.61721133157903
 20
10.47499936995176
 30
0.0
 40
0.525
100
AcDbArc
 50
270.0
 51
0.0
  0
LINE
  5
9CA
330
1A
100
AcDbEntity
  8
ZUWAKU
100
AcDbLine
 10
46.11721133157902
 20
7.674999369951756
 30
0.0
 11
46.11721133157902
 21
9.424999369951756
 31
0.0
  0
ARC
  5
9CB
330
1A
100
AcDbEntity
  8
ZUWAKU
100
AcDbCircle
 10
46.64221133157911
 20
7.674999369951756
 30
0.0
 40
0.525
100
AcDbArc
 50
180.0
 51
270.0
  0
ARC
  5
9CC
330
1A
100
AcDbEntity
  8
ZUWAKU
100
AcDbCircle
 10
42.96721133157904
 20
7.674999369951756
 30
0.0
 40
0.525
100
AcDbArc
 50
270.0
 51
0.0
  0
ARC
  5
9CD
330
1A
100
AcDbEntity
  8
ZUWAKU
100
AcDbCircle
 10
46.64221133157911
 20
9.424999369951756
 30
0.0
 40
0.525
100
AcDbArc
 50
90.0
 51
180.0
  0
LINE
  5
9CE
330
1A
100
AcDbEntity
  8
ZUWAKU
100
AcDbLine
 10
46.64221133157911
 20
9.949999369951754
 30
0.0
 11
49.61721133157903
 21
9.949999369951754
 31
0.0
  0
LINE
  5
9CF
330
1A
100
AcDbEntity
  8
ZUWAKU
100
AcDbLine
 10
46.64221133157911
 20
7.149999369951757
 30
0.0
 11
50.14221133157912
 21
7.149999369951757
 31
0.0
  0
LINE
  5
9D0
330
1A
100
AcDbEntity
  8
ZUWAKU
100
AcDbLine
 10
46.82236285059559
 20
15.66494886361293
 30
0.0
 11
49.73216082524027
 21
12.75515088896827
 31
0.0
  0
LINE
  5
9D1
330
1A
100
AcDbEntity
  8
ZUWAKU
100
AcDbLine
 10
52.94221133157908
 20
9.949999369951754
 30
0.0
 11
52.94221133157908
 21
11.7652013953071
 31
0.0
  0
ARC
  5
9D2
330
1A
100
AcDbEntity
  8
ZUWAKU
100
AcDbCircle
 10
48.74221133157902
 20
11.76520139530705
 30
0.0
 40
4.199999999999999
100
AcDbArc
 50
0.0
 51
45.0
  0
ARC
  5
9D3
330
1A
100
AcDbEntity
  8
ZUWAKU
100
AcDbCircle
 10
58.89221133157912
 20
10.99999936995175
 30
0.0
 40
1.049999999999999
100
AcDbArc
 50
180.0
 51
270.0
  0
ARC
  5
9D4
330
1A
100
AcDbEntity
  8
ZUWAKU
100
AcDbCircle
 10
61.34221133157905
 20
9.949999369951754
 30
0.0
 40
2.799999999999999
100
AcDbArc
 50
270.0
 51
0.0
  0
LINE
  5
9D5
330
1A
100
AcDbEntity
  8
ZUWAKU
100
AcDbLine
 10
66.76721133157911
 20
7.149999369951757
 30
0.0
 11
68.51721133157912
 21
7.149999369951757
 31
0.0
  0
ARC
  5
9D6
330
1A
100
AcDbEntity
  8
ZUWAKU
100
AcDbCircle
 10
66.76721133157911
 20
7.674999369951756
 30
0.0
 40
0.525
100
AcDbArc
 50
180.0
 51
270.0
  0
ARC
  5
9D7
330
1A
100
AcDbEntity
  8
ZUWAKU
100
AcDbCircle
 10
60.2922113315791
 20
10.99999936995175
 30
0.0
 40
1.049999999999999
100
AcDbArc
 50
270.0
 51
0.0
  0
ARC
  5
9D8
330
1A
100
AcDbEntity
  8
ZUWAKU
100
AcDbCircle
 10
68.51721133157912
 20
7.674999369951756
 30
0.0
 40
0.525
100
AcDbArc
 50
270.0
 51
0.0
  0
LINE
  5
9D9
330
1A
100
AcDbEntity
  8
ZUWAKU
100
AcDbLine
 10
42.96721133157904
 20
23.24999936995176
 30
0.0
 11
41.21721133157905
 21
23.24999936995176
 31
0.0
  0
ARC
  5
9DA
330
1A
100
AcDbEntity
  8
ZUWAKU
100
AcDbCircle
 10
32.11721133157903
 20
22.72499936995175
 30
0.0
 40
0.525
100
AcDbArc
 50
0.0
 51
90.0
  0
LINE
  5
9DB
330
1A
100
AcDbEntity
  8
ZUWAKU
100
AcDbLine
 10
32.11721133157903
 20
23.24999936995176
 30
0.0
 11
30.36721133157902
 21
23.24999936995176
 31
0.0
  0
ARC
  5
9DC
330
1A
100
AcDbEntity
  8
ZUWAKU
100
AcDbCircle
 10
26.86721133157902
 20
22.72499936995175
 30
0.0
 40
0.525
100
AcDbArc
 50
0.0
 51
90.0
  0
ARC
  5
9DD
330
1A
100
AcDbEntity
  8
ZUWAKU
100
AcDbCircle
 10
30.36721133157902
 20
22.72499936995175
 30
0.0
 40
0.525
100
AcDbArc
 50
90.0
 51
180.0
  0
ARC
  5
9DE
330
1A
100
AcDbEntity
  8
ZUWAKU
100
AcDbCircle
 10
26.86721133157902
 20
20.97499936995175
 30
0.0
 40
0.525
100
AcDbArc
 50
270.0
 51
0.0
  0
LINE
  5
9DF
330
1A
100
AcDbEntity
  8
ZUWAKU
100
AcDbLine
 10
27.39221133157911
 20
22.72499936995175
 30
0.0
 11
27.39221133157911
 21
20.97499936995175
 31
0.0
  0
ARC
  5
9E0
330
1A
100
AcDbEntity
  8
ZUWAKU
100
AcDbCircle
 10
41.21721133157905
 20
22.72499936995175
 30
0.0
 40
0.525
100
AcDbArc
 50
90.0
 51
180.0
  0
LINE
  5
9E1
330
1A
100
AcDbEntity
  8
ZUWAKU
100
AcDbLine
 10
36.17697716809038
 20
23.24999936995176
 30
0.0
 11
37.87586654769938
 21
23.24999936995176
 31
0.0
  0
ARC
  5
9E2
330
1A
100
AcDbEntity
  8
ZUWAKU
100
AcDbCircle
 10
37.87586654769938
 20
22.72499936995175
 30
0.0
 40
0.525
100
AcDbArc
 50
342.4744316262769
 51
90.0
  0
LINE
  5
9E3
330
1A
100
AcDbEntity
  8
ZUWAKU
100
AcDbLine
 10
38.37649744689485
 20
22.56690540178478
 30
0.0
 11
37.31485781375704
 21
19.20504656351518
 31
0.0
  0
ARC
  5
9E4
330
1A
100
AcDbEntity
  8
ZUWAKU
100
AcDbCircle
 10
36.17697716809038
 20
22.72499936995175
 30
0.0
 40
0.525
100
AcDbArc
 50
90.0
 51
162.4744316262769
  0
LINE
  5
9E5
330
1A
100
AcDbEntity
  8
ZUWAKU
100
AcDbLine
 10
48.39221133157912
 20
23.24999936995176
 30
0.0
 11
51.89221133157912
 21
23.24999936995176
 31
0.0
  0
LINE
  5
9E6
330
1A
100
AcDbEntity
  8
ZUWAKU
100
AcDbLine
 10
51.89221133157912
 20
20.44999936995175
 30
0.0
 11
48.9172113315791
 21
20.44999936995175
 31
0.0
  0
ARC
  5
9E7
330
1A
100
AcDbEntity
  8
ZUWAKU
100
AcDbCircle
 10
48.9172113315791
 20
19.92499936995175
 30
0.0
 40
0.525
100
AcDbArc
 50
90.0
 51
180.0
  0
LINE
  5
9E8
330
1A
100
AcDbEntity
  8
ZUWAKU
100
AcDbLine
 10
48.39221133157912
 20
19.92499936995175
 30
0.0
 11
48.39221133157912
 21
18.63479734459641
 31
0.0
  0
ARC
  5
9E9
330
1A
100
AcDbEntity
  8
ZUWAKU
100
AcDbCircle
 10
42.96721133157904
 20
22.72499936995175
 30
0.0
 40
0.525
100
AcDbArc
 50
0.0
 51
90.0
  0
LINE
  5
9EA
330
1A
100
AcDbEntity
  8
ZUWAKU
100
AcDbLine
 10
45.59221133157905
 20
20.44999936995175
 30
0.0
 11
45.59221133157905
 21
18.63479734459641
 31
0.0
  0
ARC
  5
9EB
330
1A
100
AcDbEntity
  8
ZUWAKU
100
AcDbCircle
 10
48.39221133157912
 20
20.44999936995175
 30
0.0
 40
2.799999999999999
100
AcDbArc
 50
90.0
 51
180.0
  0
ARC
  5
9EC
330
1A
100
AcDbEntity
  8
ZUWAKU
100
AcDbCircle
 10
57.31721133157908
 20
22.72499936995175
 30
0.0
 40
0.525
100
AcDbArc
 50
0.0
 51
90.0
  0
ARC
  5
9ED
330
1A
100
AcDbEntity
  8
ZUWAKU
100
AcDbCircle
 10
55.56721133157907
 20
22.72499936995175
 30
0.0
 40
0.525
100
AcDbArc
 50
90.0
 51
180.0
  0
LINE
  5
9EE
330
1A
100
AcDbEntity
  8
ZUWAKU
100
AcDbLine
 10
57.31721133157908
 20
23.24999936995176
 30
0.0
 11
55.56721133157907
 21
23.24999936995176
 31
0.0
  0
ARC
  5
9EF
330
1A
100
AcDbEntity
  8
ZUWAKU
100
AcDbCircle
 10
51.89221133157912
 20
22.72499936995175
 30
0.0
 40
0.525
100
AcDbArc
 50
0.0
 51
90.0
  0
ARC
  5
9F0
330
1A
100
AcDbEntity
  8
ZUWAKU
100
AcDbCircle
 10
51.89221133157912
 20
20.97499936995175
 30
0.0
 40
0.525
100
AcDbArc
 50
270.0
 51
0.0
  0
LINE
  5
9F1
330
1A
100
AcDbEntity
  8
ZUWAKU
100
AcDbLine
 10
52.41721133157909
 20
22.72499936995175
 30
0.0
 11
52.41721133157909
 21
20.97499936995175
 31
0.0
  0
LINE
  5
9F2
330
1A
100
AcDbEntity
  8
ZUWAKU
100
AcDbLine
 10
68.51721133157912
 20
23.24999936995176
 30
0.0
 11
66.76721133157911
 21
23.24999936995176
 31
0.0
  0
ARC
  5
9F3
330
1A
100
AcDbEntity
  8
ZUWAKU
100
AcDbCircle
 10
66.76721133157911
 20
22.72499936995175
 30
0.0
 40
0.525
100
AcDbArc
 50
90.0
 51
180.0
  0
ARC
  5
9F4
330
1A
100
AcDbEntity
  8
ZUWAKU
100
AcDbCircle
 10
63.61721133157903
 20
22.72499936995175
 30
0.0
 40
0.525
100
AcDbArc
 50
0.0
 51
90.0
  0
LINE
  5
9F5
330
1A
100
AcDbEntity
  8
ZUWAKU
100
AcDbLine
 10
63.61721133157903
 20
23.24999936995176
 30
0.0
 11
61.86721133157902
 21
23.24999936995176
 31
0.0
  0
ARC
  5
9F6
330
1A
100
AcDbEntity
  8
ZUWAKU
100
AcDbCircle
 10
61.86721133157902
 20
22.72499936995175
 30
0.0
 40
0.525
100
AcDbArc
 50
90.0
 51
180.0
  0
ARC
  5
9F7
330
1A
100
AcDbEntity
  8
ZUWAKU
100
AcDbCircle
 10
68.51721133157912
 20
22.72499936995175
 30
0.0
 40
0.525
100
AcDbArc
 50
0.0
 51
90.0
  0
TEXT
  5
9F8
330
1A
100
AcDbEntity
  8
MOJI
100
AcDbText
 10
239.827201857649
 20
3.204920427359173
 30
0.0
 40
5.599999999999999
  1
ＲＶ１０５－０－４５～６０
 41
0.9
  7
ｽﾀｲﾙ1
100
AcDbText
  0
TEXT
  5
9F9
330
1A
100
AcDbEntity
  8
MOJI
100
AcDbText
 10
239.827201857649
 20
18.00492042735913
 30
0.0
 40
5.599999999999999
  1
ステンレス金具正面打（吊）自在式
 41
0.9
  7
ｽﾀｲﾙ1
100
AcDbText
  0
LINE
  5
9FA
330
1A
100
AcDbEntity
  8
ZUWAKU
100
AcDbLine
 10
208.2466004668658
 20
29.99999936995175
 30
0.0
 11
208.2466004668658
 21
0.79999936995182
 31
0.0
  0
LINE
  5
9FB
330
1A
100
AcDbEntity
  8
ZUWAKU
100
AcDbLine
 10
208.6466004668657
 20
29.99999936995175
 30
0.0
 11
208.6466004668659
 21
0.79999936995182
 31
0.0
  0
LINE
  5
9FC
330
1A
100
AcDbEntity
  8
ZUWAKU
100
AcDbLine
 10
208.4466004668656
 20
29.99999936995175
 30
0.0
 11
208.4466004668659
 21
0.79999936995182
 31
0.0
  0
TEXT
  5
9FD
330
1A
100
AcDbEntity
  8
ZUWAKU
100
AcDbText
 10
209.7240454890754
 20
9.655355908337369
 30
0.0
 40
4.0
  1
サイズ
 41
0.9
  7
ｽﾀｲﾙ1
100
AcDbText
  0
TEXT
  5
9FE
330
1A
100
AcDbEntity
  8
ZUWAKU
100
AcDbText
 10
209.7240454890752
 20
24.05535590833733
 30
0.0
 40
4.0
  1
品名
 41
0.9
  7
ｽﾀｲﾙ1
100
AcDbText
  0
LINE
  5
9FF
330
1A
100
AcDbEntity
  8
ZUWAKU
100
AcDbLine
 10
648.8172016870021
 20
15.19999936995178
 30
0.0
 11
697.2490097253391
 21
15.19999936995178
 31
0.0
  0
LINE
  5
A00
330
1A
100
AcDbEntity
  8
ZUWAKU
100
AcDbLine
 10
648.8172016870024
 20
15.39999936995179
 30
0.0
 11
697.2490097253391
 21
15.39999936995178
 31
0.0
  0
LINE
  5
A01
330
1A
100
AcDbEntity
  8
ZUWAKU
100
AcDbLine
 10
648.8172016870021
 20
15.59999936995178
 30
0.0
 11
697.2490097253391
 21
15.59999936995178
 31
0.0
  0
TEXT
  5
A02
330
1A
100
AcDbEntity
  8
ZUWAKU
100
AcDbText
 10
658.2039368641003
 20
18.00492042735913
 30
0.0
 40
5.599999999999999
  1
　　．　　．　　
 41
0.9
  7
ｽﾀｲﾙ1
100
AcDbText
  0
LINE
  5
A03
330
1A
100
AcDbEntity
  8
ZUWAKU
100
AcDbLine
 10
505.1991786749388
 20
15.19999936995179
 30
0.0
 11
552.5269549429103
 21
15.19999936995179
 31
0.0
  0
LINE
  5
A04
330
1A
100
AcDbEntity
  8
ZUWAKU
100
AcDbLine
 10
505.1991786749388
 20
15.39999936995178
 30
0.0
 11
552.5269549429103
 21
15.39999936995178
 31
0.0
  0
LINE
  5
A05
330
1A
100
AcDbEntity
  8
ZUWAKU
100
AcDbLine
 10
505.1991786749388
 20
15.59999936995178
 30
0.0
 11
552.5269549429103
 21
15.59999936995178
 31
0.0
  0
TEXT
  5
A06
330
1A
100
AcDbEntity
  8
MOJI
100
AcDbText
 10
464.5946251800369
 20
11.94261709161173
 30
0.0
 40
5.599999999999999
  1
ＬＧ５６Ｇ
 41
0.9
  7
ｽﾀｲﾙ1
100
AcDbText
  0
LINE
  5
A07
330
1A
100
AcDbEntity
  8
ZUWAKU
100
AcDbLine
 10
447.6243631477891
 20
29.99999936995175
 30
0.0
 11
447.6243631477894
 21
0.79999936995182
 31
0.0
  0
LINE
  5
A08
330
1A
100
AcDbEntity
  8
ZUWAKU
100
AcDbLine
 10
447.8243631477892
 20
29.99999936995175
 30
0.0
 11
447.8243631477893
 21
0.79999936995182
 31
0.0
  0
LINE
  5
A09
330
1A
100
AcDbEntity
  8
ZUWAKU
100
AcDbLine
 10
447.4243631477893
 20
29.99999936995175
 30
0.0
 11
447.4243631477893
 21
0.79999936995182
 31
0.0
  0
TEXT
  5
A0A
330
1A
100
AcDbEntity
  8
MOJI
100
AcDbText
 10
528.0409071491107
 20
18.00492042735913
 30
0.0
 40
5.599999999999999
  1
Ａ３
 41
0.9
  7
ｽﾀｲﾙ1
100
AcDbText
  0
LINE
  5
A0B
330
1A
100
AcDbEntity
  8
ZUWAKU
100
AcDbLine
 10
504.9991786749387
 20
29.99999936995175
 30
0.0
 11
504.999178674939
 21
0.79999936995182
 31
0.0
  0
LINE
  5
A0C
330
1A
100
AcDbEntity
  8
ZUWAKU
100
AcDbLine
 10
505.1991786749388
 20
29.99999936995175
 30
0.0
 11
505.199178674939
 21
0.79999936995182
 31
0.0
  0
LINE
  5
A0D
330
1A
100
AcDbEntity
  8
ZUWAKU
100
AcDbLine
 10
504.7991786749389
 20
29.99999936995175
 30
0.0
 11
504.7991786749389
 21
0.79999936995182
 31
0.0
  0
TEXT
  5
A0E
330
1A
100
AcDbEntity
  8
ZUWAKU
100
AcDbText
 10
506.6766236971487
 20
9.655355908337369
 30
0.0
 40
4.0
  1
縮尺
 41
0.9
  7
ｽﾀｲﾙ1
100
AcDbText
  0
TEXT
  5
A0F
330
1A
100
AcDbEntity
  8
MOJI
100
AcDbText
 10
528.0409071491107
 20
3.204920427359173
 30
0.0
 40
5.599999999999999
  1
１/２
 41
0.9
  7
ｽﾀｲﾙ1
100
AcDbText
  0
TEXT
  5
A10
330
1A
100
AcDbEntity
  8
ZUWAKU
100
AcDbText
 10
449.3018081699988
 20
24.05535590833733
 30
0.0
 40
4.0
  1
品番
 41
0.9
  7
ｽﾀｲﾙ1
100
AcDbText
  0
TEXT
  5
A11
330
1A
100
AcDbEntity
  8
ZUWAKU
100
AcDbText
 10
506.6766236971484
 20
24.05535590833733
 30
0.0
 40
4.0
  1
用紙
 41
0.9
  7
ｽﾀｲﾙ1
100
AcDbText
  0
LINE
  5
A12
330
1A
100
AcDbEntity
  8
ZUWAKU
100
AcDbLine
 10
648.6172016870023
 20
29.99999936995175
 30
0.0
 11
648.6172016870025
 21
0.79999936995182
 31
0.0
  0
LINE
  5
A13
330
1A
100
AcDbEntity
  8
ZUWAKU
100
AcDbLine
 10
648.8172016870024
 20
29.99999936995175
 30
0.0
 11
648.8172016870025
 21
0.79999936995182
 31
0.0
  0
LINE
  5
A14
330
1A
100
AcDbEntity
  8
ZUWAKU
100
AcDbLine
 10
648.4172016870025
 20
29.99999936995175
 30
0.0
 11
648.4172016870025
 21
0.79999936995182
 31
0.0
  0
LINE
  5
A15
330
1A
100
AcDbEntity
  8
ZUWAKU
100
AcDbLine
 10
552.7269549429101
 20
29.99999936995175
 30
0.0
 11
552.7269549429104
 21
0.79999936995182
 31
0.0
  0
LINE
  5
A16
330
1A
100
AcDbEntity
  8
ZUWAKU
100
AcDbLine
 10
552.9269549429102
 20
29.99999936995175
 30
0.0
 11
552.9269549429105
 21
0.79999936995182
 31
0.0
  0
LINE
  5
A17
330
1A
100
AcDbEntity
  8
ZUWAKU
100
AcDbLine
 10
552.5269549429103
 20
29.99999936995175
 30
0.0
 11
552.5269549429103
 21
0.79999936995182
 31
0.0
  0
TEXT
  5
A18
330
1A
100
AcDbEntity
  8
ZUWAKU
100
AcDbText
 10
650.294646709212
 20
24.05535590833733
 30
0.0
 40
4.0
  1
DATE
 41
0.9
  7
ｽﾀｲﾙ1
100
AcDbText
  0
LINE
  5
A19
330
1A
100
AcDbEntity
  8
ZUWAKU
100
AcDbLine
 10
697.2490097253391
 20
29.99999936995175
 30
0.0
 11
697.2490097253391
 21
0.79999936995182
 31
0.0
  0
LINE
  5
A1A
330
1A
100
AcDbEntity
  8
ZUWAKU
100
AcDbLine
 10
697.4490097253392
 20
29.99999936995175
 30
0.0
 11
697.4490097253392
 21
0.79999936995182
 31
0.0
  0
LINE
  5
A1B
330
1A
100
AcDbEntity
  8
ZUWAKU
100
AcDbLine
 10
697.649009725339
 20
29.99999936995175
 30
0.0
 11
697.6490097253392
 21
0.79999936995182
 31
0.0
  0
LINE
  5
A1C
330
1A
100
AcDbEntity
  8
ZUWAKU
100
AcDbLine
 10
697.849009725339
 20
29.99999936995175
 30
0.0
 11
697.8490097253393
 21
0.79999936995182
 31
0.0
  0
TEXT
  5
A1D
330
1A
100
AcDbEntity
  8
ZUWAKU
100
AcDbText
 10
708.5280833690417
 20
17.55383870563855
 30
0.0
 40
6.0
  1
積水化学工業株式会社
 41
0.9
  7
ｽﾀｲﾙ1
100
AcDbText
  0
TEXT
  5
A1E
330
1A
100
AcDbEntity
  8
ZUWAKU
100
AcDbText
 10
708.5280833690417
 20
6.648839683805817
 30
0.0
 40
6.0
  1
建材事業部
 41
0.9
  7
ｽﾀｲﾙ1
100
AcDbText
  0
VIEWPORT
  5
22
330
17
100
AcDbEntity
 67
     1
  8
0
100
AcDbViewport
 10
313.6808219178082
 20
148.5
 30
0.0
 40
627.3616438356165
 41
297.0
 68
     2
 69
     1
1001
ACAD
1000
MVIEW
1002
{
1070
    16
1010
0.0
1020
0.0
1030
0.0
1010
0.0
1020
0.0
1030
1.0
1040
0.0
1040
297.0
1040
313.6808219178082
1040
148.5
1040
50.0
1040
0.0
1040
0.0
1070
     0
1070
   100
1070
     1
1070
     0
1070
     0
1070
     0
1070
     0
1070
     0
1040
0.0
1040
0.0
1040
0.0
1040
1.0
1040
1.0
1040
10.0
1040
10.0
1070
     0
1002
{
1002
}
1002
}
  0
VIEWPORT
  5
64
330
17
100
AcDbEntity
 67
     1
  8
VIEWPORT
100
AcDbViewport
 10
210.0
 20
148.5
 30
0.0
 40
420.0
 41
297.0
 68
     1
 69
     2
1001
ACAD
1000
MVIEW
1002
{
1070
    16
1010
0.0
1020
0.0
1030
0.0
1010
0.0
1020
0.0
1030
1.0
1040
0.0
1040
605.8799999999998
1040
420.0
1040
297.0
1040
50.0
1040
0.0
1040
0.0
1070
     0
1070
   100
1070
     1
1070
     0
1070
     0
1070
     0
1070
     0
1070
     0
1040
0.0
1040
0.0
1040
0.0
1040
10.0
1040
10.0
1040
0.0
1040
0.0
1070
     0
1002
{
1002
}
1002
}
  0
ENDSEC
  0
SECTION
  2
OBJECTS
  0
DICTIONARY
  5
C
330
0
100
AcDbDictionary
  3
ACAD_GROUP
350
D
  3
ACAD_LAYOUT
350
873
  3
ACAD_MLINESTYLE
350
E
  3
ACAD_PLOTSETTINGS
350
874
  3
ACAD_PLOTSTYLENAME
350
871
  3
ACDBHEADERROUNDTRIPXREC
350
AC2
  0
DICTIONARY
  5
8A2
330
1A
100
AcDbDictionary
280
     1
  3
ACAD_LAYOUTSELFREF
360
AE4
  0
DICTIONARY
  5
8A0
330
17
100
AcDbDictionary
280
     1
  3
ACAD_LAYOUTSELFREF
360
AE3
  0
DICTIONARY
  5
D
102
{ACAD_REACTORS
330
C
102
}
330
C
100
AcDbDictionary
  0
DICTIONARY
  5
873
102
{ACAD_REACTORS
330
C
102
}
330
C
100
AcDbDictionary
  0
DICTIONARY
  5
E
102
{ACAD_REACTORS
330
C
102
}
330
C
100
AcDbDictionary
  3
STANDARD
350
13
  0
DICTIONARY
  5
874
102
{ACAD_REACTORS
330
C
102
}
330
C
100
AcDbDictionary
  0
ACDBDICTIONARYWDFLT
  5
871
102
{ACAD_REACTORS
330
C
102
}
330
C
100
AcDbDictionary
281
     1
  3
Normal
350
872
100
AcDbDictionaryWithDefault
340
872
1001
ACAD
1000
TREAT_AS_HARD
1070
     0
  0
DICTIONARY
  5
AC2
102
{ACAD_REACTORS
330
C
102
}
330
C
100
AcDbDictionary
  3
TSTACKALIGN
350
AC3
  3
TSTACKSIZE
350
AC4
  3
HYPERLINKBASE
350
AC5
  3
STYLESHEET
350
AC6
  3
LAYOUTDICT
350
AC7
  3
PLOTSETDICT
350
AC8
  3
PLOTSTYLNAMDICT
350
AC9
  3
LWETCUNION
350
ACA
  3
INSUNITS
350
ACB
  3
CEPSNTYPE
350
ACC
  3
FINGERPRINTGUID
350
ACD
  3
VERSIONGUID
350
ACE
  3
PSVPSCALE
350
ACF
  3
DIMSTYLEDATA
350
AD0
  3
PUCSORTHOREF
350
AD1
  3
PUCSORTHOVIEW
350
AD2
  3
PUCSBASE
350
AD3
  3
PUCSORGTOP
350
AD4
  3
PUCSORGBOTTOM
350
AD5
  3
PUCSORGLEFT
350
AD6
  3
PUCSORGRIGHT
350
AD7
  3
PUCSORGFRONT
350
AD8
  3
PUCSORGBACK
350
AD9
  3
UCSORTHOREF
350
ADA
  3
UCSORTHOVIEW
350
ADB
  3
UCSBASE
350
ADC
  3
UCSORGTOP
350
ADD
  3
UCSORGBOTTOM
350
ADE
  3
UCSORGLEFT
350
ADF
  3
UCSORGRIGHT
350
AE0
  3
UCSORGFRONT
350
AE1
  3
UCSORGBACK
350
AE2
  0
XRECORD
  5
AE4
102
{ACAD_REACTORS
330
8A2
102
}
330
8A2
100
AcDbXrecord
340
1A
  0
XRECORD
  5
AE3
102
{ACAD_REACTORS
330
8A0
102
}
330
8A0
100
AcDbXrecord
340
17
  0
MLINESTYLE
  5
13
102
{ACAD_REACTORS
330
E
102
}
330
E
100
AcDbMlineStyle
  2
STANDARD
 70
     0
  3

 62
     0
 51
90.0
 52
90.0
 71
     2
 49
0.5
 62
   256
  6
BYLAYER
 49
-0.5
 62
   256
  6
BYLAYER
  0
ACDBPLACEHOLDER
  5
872
102
{ACAD_REACTORS
330
871
102
}
330
871
100
AcDbPlaceHolder
280
     0
  0
XRECORD
  5
AC3
102
{ACAD_REACTORS
330
AC2
102
}
330
AC2
100
AcDbXrecord
 90
        1
  0
XRECORD
  5
AC4
102
{ACAD_REACTORS
330
AC2
102
}
330
AC2
100
AcDbXrecord
 90
       70
  0
XRECORD
  5
AC5
102
{ACAD_REACTORS
330
AC2
102
}
330
AC2
100
AcDbXrecord
  1

  0
XRECORD
  5
AC6
102
{ACAD_REACTORS
330
AC2
102
}
330
AC2
100
AcDbXrecord
  1
systemprinter.ctb
  0
XRECORD
  5
AC7
102
{ACAD_REACTORS
330
AC2
102
}
330
AC2
100
AcDbXrecord
340
873
  0
XRECORD
  5
AC8
102
{ACAD_REACTORS
330
AC2
102
}
330
AC2
100
AcDbXrecord
340
874
  0
XRECORD
  5
AC9
102
{ACAD_REACTORS
330
AC2
102
}
330
AC2
100
AcDbXrecord
340
871
  0
XRECORD
  5
ACA
102
{ACAD_REACTORS
330
AC2
102
}
330
AC2
100
AcDbXrecord
 90
    10781
  0
XRECORD
  5
ACB
102
{ACAD_REACTORS
330
AC2
102
}
330
AC2
100
AcDbXrecord
 90
        0
  0
XRECORD
  5
ACC
102
{ACAD_REACTORS
330
AC2
102
}
330
AC2
100
AcDbXrecord
 90
        0
  0
XRECORD
  5
ACD
102
{ACAD_REACTORS
330
AC2
102
}
330
AC2
100
AcDbXrecord
  1
{7F5C21F7-CDA6-403F-BCD2-DB18E7C139E9}
  0
XRECORD
  5
ACE
102
{ACAD_REACTORS
330
AC2
102
}
330
AC2
100
AcDbXrecord
  1
{97638B1B-A4E9-47AD-9935-BB176574ADB4}
  0
XRECORD
  5
ACF
102
{ACAD_REACTORS
330
AC2
102
}
330
AC2
100
AcDbXrecord
 40
0.0
  0
XRECORD
  5
AD0
102
{ACAD_REACTORS
330
AC2
102
}
330
AC2
100
AcDbXrecord
1000
DSTYLE
1002
{
1070
   341
340
6D
1070
   343
340
6D
1070
   344
340
6D
1070
   371
 70
    -1
1070
   372
 70
    -1
1002
}
  0
XRECORD
  5
AD1
102
{ACAD_REACTORS
330
AC2
102
}
330
AC2
100
AcDbXrecord
340
0
  0
XRECORD
  5
AD2
102
{ACAD_REACTORS
330
AC2
102
}
330
AC2
100
AcDbXrecord
 70
     0
  0
XRECORD
  5
AD3
102
{ACAD_REACTORS
330
AC2
102
}
330
AC2
100
AcDbXrecord
340
0
  0
XRECORD
  5
AD4
102
{ACAD_REACTORS
330
AC2
102
}
330
AC2
100
AcDbXrecord
 10
0.0
 20
0.0
 30
0.0
  0
XRECORD
  5
AD5
102
{ACAD_REACTORS
330
AC2
102
}
330
AC2
100
AcDbXrecord
 10
0.0
 20
0.0
 30
0.0
  0
XRECORD
  5
AD6
102
{ACAD_REACTORS
330
AC2
102
}
330
AC2
100
AcDbXrecord
 10
0.0
 20
0.0
 30
0.0
  0
XRECORD
  5
AD7
102
{ACAD_REACTORS
330
AC2
102
}
330
AC2
100
AcDbXrecord
 10
0.0
 20
0.0
 30
0.0
  0
XRECORD
  5
AD8
102
{ACAD_REACTORS
330
AC2
102
}
330
AC2
100
AcDbXrecord
 10
0.0
 20
0.0
 30
0.0
  0
XRECORD
  5
AD9
102
{ACAD_REACTORS
330
AC2
102
}
330
AC2
100
AcDbXrecord
 10
0.0
 20
0.0
 30
0.0
  0
XRECORD
  5
ADA
102
{ACAD_REACTORS
330
AC2
102
}
330
AC2
100
AcDbXrecord
340
0
  0
XRECORD
  5
ADB
102
{ACAD_REACTORS
330
AC2
102
}
330
AC2
100
AcDbXrecord
 70
     0
  0
XRECORD
  5
ADC
102
{ACAD_REACTORS
330
AC2
102
}
330
AC2
100
AcDbXrecord
340
0
  0
XRECORD
  5
ADD
102
{ACAD_REACTORS
330
AC2
102
}
330
AC2
100
AcDbXrecord
 10
0.0
 20
0.0
 30
0.0
  0
XRECORD
  5
ADE
102
{ACAD_REACTORS
330
AC2
102
}
330
AC2
100
AcDbXrecord
 10
0.0
 20
0.0
 30
0.0
  0
XRECORD
  5
ADF
102
{ACAD_REACTORS
330
AC2
102
}
330
AC2
100
AcDbXrecord
 10
0.0
 20
0.0
 30
0.0
  0
XRECORD
  5
AE0
102
{ACAD_REACTORS
330
AC2
102
}
330
AC2
100
AcDbXrecord
 10
0.0
 20
0.0
 30
0.0
  0
XRECORD
  5
AE1
102
{ACAD_REACTORS
330
AC2
102
}
330
AC2
100
AcDbXrecord
 10
0.0
 20
0.0
 30
0.0
  0
XRECORD
  5
AE2
102
{ACAD_REACTORS
330
AC2
102
}
330
AC2
100
AcDbXrecord
 10
0.0
 20
0.0
 30
0.0
  0
ENDSEC
  0
EOF
