  0
SECTION
  2
HEADER
  9
$ACADVER
  1
AC1014
  9
$ACADMAINTVER
 70
     9
  9
$DWGCODEPAGE
  3
ANSI_932
  9
$INSBASE
 10
0.0
 20
0.0
 30
0.0
  9
$EXTMIN
 10
-0.0256336331046896
 20
-0.0181266884808338
 30
-0.0000000100021362
  9
$EXTMAX
 10
797.6000995211149
 20
551.6452344430783
 30
0.0000000100021363
  9
$LIMMIN
 10
0.0
 20
0.0
  9
$LIMMAX
 10
840.0
 20
594.0
  9
$ORTHOMODE
 70
     0
  9
$REGENMODE
 70
     1
  9
$FILLMODE
 70
     1
  9
$QTEXTMODE
 70
     0
  9
$MIRRTEXT
 70
     1
  9
$DRAGMODE
 70
     2
  9
$LTSCALE
 40
2.0
  9
$OSMODE
 70
    35
  9
$ATTMODE
 70
     1
  9
$TEXTSIZE
 40
6.0
  9
$TRACEWID
 40
1.0
  9
$TEXTSTYLE
  7
STANDARD
  9
$CLAYER
  8
SUNPOU
  9
$CELTYPE
  6
BYLAYER
  9
$CECOLOR
 62
   256
  9
$CELTSCALE
 40
1.0
  9
$DELOBJ
 70
     1
  9
$DISPSILH
 70
     0
  9
$DIMSCALE
 40
1.0
  9
$DIMASZ
 40
7.0
  9
$DIMEXO
 40
6.0
  9
$DIMDLI
 40
14.0
  9
$DIMRND
 40
0.0
  9
$DIMDLE
 40
0.0
  9
$DIMEXE
 40
3.0
  9
$DIMTP
 40
0.0
  9
$DIMTM
 40
0.0
  9
$DIMTXT
 40
6.0
  9
$DIMCEN
 40
150.0
  9
$DIMTSZ
 40
0.0
  9
$DIMTOL
 70
     0
  9
$DIMLIM
 70
     0
  9
$DIMTIH
 70
     0
  9
$DIMTOH
 70
     0
  9
$DIMSE1
 70
     0
  9
$DIMSE2
 70
     0
  9
$DIMTAD
 70
     3
  9
$DIMZIN
 70
     0
  9
$DIMBLK
  1

  9
$DIMASO
 70
     1
  9
$DIMSHO
 70
     1
  9
$DIMPOST
  1

  9
$DIMAPOST
  1

  9
$DIMALT
 70
     0
  9
$DIMALTD
 70
     2
  9
$DIMALTF
 40
25.4
  9
$DIMLFAC
 40
1.0
  9
$DIMTOFL
 70
     1
  9
$DIMTVP
 40
0.0
  9
$DIMTIX
 70
     0
  9
$DIMSOXD
 70
     0
  9
$DIMSAH
 70
     1
  9
$DIMBLK1
  1
OPEN
  9
$DIMBLK2
  1
OPEN
  9
$DIMSTYLE
  2
STANDARD
  9
$DIMCLRD
 70
   256
  9
$DIMCLRE
 70
   256
  9
$DIMCLRT
 70
   256
  9
$DIMTFAC
 40
1.0
  9
$DIMGAP
 40
2.0
  9
$DIMJUST
 70
     0
  9
$DIMSD1
 70
     0
  9
$DIMSD2
 70
     0
  9
$DIMTOLJ
 70
     1
  9
$DIMTZIN
 70
     0
  9
$DIMALTZ
 70
     0
  9
$DIMALTTZ
 70
     0
  9
$DIMFIT
 70
     3
  9
$DIMUPT
 70
     0
  9
$DIMUNIT
 70
     2
  9
$DIMDEC
 70
     0
  9
$DIMTDEC
 70
     0
  9
$DIMALTU
 70
     2
  9
$DIMALTTD
 70
     2
  9
$DIMTXSTY
  7
STANDARD
  9
$DIMAUNIT
 70
     0
  9
$LUNITS
 70
     2
  9
$LUPREC
 70
     4
  9
$SKETCHINC
 40
1.0
  9
$FILLETRAD
 40
20.0
  9
$AUNITS
 70
     0
  9
$AUPREC
 70
     0
  9
$MENU
  1
.
  9
$ELEVATION
 40
0.0
  9
$PELEVATION
 40
0.0
  9
$THICKNESS
 40
0.0
  9
$LIMCHECK
 70
     0
  9
$BLIPMODE
 70
     0
  9
$CHAMFERA
 40
1.0
  9
$CHAMFERB
 40
1.0
  9
$CHAMFERC
 40
40.0
  9
$CHAMFERD
 40
0.0
  9
$SKPOLY
 70
     0
  9
$TDCREATE
 40
2451200.594780092
  9
$TDUPDATE
 40
2453802.432569976
  9
$TDINDWG
 40
0.0301259144
  9
$TDUSRTIMER
 40
0.0301259144
  9
$USRTIMER
 70
     1
  9
$ANGBASE
 50
0.0
  9
$ANGDIR
 70
     0
  9
$PDMODE
 70
     0
  9
$PDSIZE
 40
0.0
  9
$PLINEWID
 40
0.0
  9
$COORDS
 70
     1
  9
$SPLFRAME
 70
     0
  9
$SPLINETYPE
 70
     6
  9
$SPLINESEGS
 70
     8
  9
$ATTDIA
 70
     0
  9
$ATTREQ
 70
     1
  9
$HANDLING
 70
 10241
  9
$HANDSEED
  5
C4A
  9
$SURFTAB1
 70
     6
  9
$SURFTAB2
 70
     6
  9
$SURFTYPE
 70
     6
  9
$SURFU
 70
     6
  9
$SURFV
 70
     6
  9
$UCSNAME
  2

  9
$UCSORG
 10
0.0
 20
0.0
 30
0.0
  9
$UCSXDIR
 10
1.0
 20
0.0
 30
0.0
  9
$UCSYDIR
 10
0.0
 20
1.0
 30
0.0
  9
$PUCSNAME
  2

  9
$PUCSORG
 10
0.0
 20
0.0
 30
0.0
  9
$PUCSXDIR
 10
1.0
 20
0.0
 30
0.0
  9
$PUCSYDIR
 10
0.0
 20
1.0
 30
0.0
  9
$USERI1
 70
     0
  9
$USERI2
 70
     0
  9
$USERI3
 70
     0
  9
$USERI4
 70
     0
  9
$USERI5
 70
     0
  9
$USERR1
 40
0.0
  9
$USERR2
 40
0.0
  9
$USERR3
 40
0.0
  9
$USERR4
 40
0.0
  9
$USERR5
 40
0.0
  9
$WORLDVIEW
 70
     1
  9
$SHADEDGE
 70
     3
  9
$SHADEDIF
 70
    70
  9
$TILEMODE
 70
     1
  9
$MAXACTVP
 70
    16
  9
$PINSBASE
 10
0.0
 20
0.0
 30
0.0
  9
$PLIMCHECK
 70
     0
  9
$PEXTMIN
 10
0.0
 20
0.0
 30
0.0
  9
$PEXTMAX
 10
420.0
 20
297.0
 30
0.0
  9
$PLIMMIN
 10
0.0
 20
0.0
  9
$PLIMMAX
 10
420.0
 20
297.0
  9
$UNITMODE
 70
     0
  9
$VISRETAIN
 70
     0
  9
$PLINEGEN
 70
     0
  9
$PSLTSCALE
 70
     1
  9
$TREEDEPTH
 70
  3020
  9
$PICKSTYLE
 70
     1
  9
$CMLSTYLE
  2
STANDARD
  9
$CMLJUST
 70
     0
  9
$CMLSCALE
 40
1.0
  9
$PROXYGRAPHICS
 70
     1
  9
$MEASUREMENT
 70
     1
  0
ENDSEC
  0
SECTION
  2
CLASSES
  0
CLASS
  1
ACDBDICTIONARYWDFLT
  2
AcDbDictionaryWithDefault
  3
AutoCAD 2000
 90
        0
280
     0
281
     0
  0
CLASS
  1
ACDBPLACEHOLDER
  2
AcDbPlaceHolder
  3
AutoCAD 2000
 90
        0
280
     0
281
     0
  0
CLASS
  1
LAYOUT
  2
AcDbLayout
  3
AutoCAD 2000
 90
        0
280
     0
281
     0
  0
CLASS
  1
LONG_TRANSACTION
  2
AcDbLongTransaction
  3
AutoCAD 2000
 90
        0
280
     0
281
     0
  0
CLASS
  1
LWPOLYLINE
  2
AcDbPolyline
  3
AutoCAD 2000
 90
        0
280
     0
281
     1
  0
CLASS
  1
HATCH
  2
AcDbHatch
  3
AutoCAD 2000
 90
        0
280
     0
281
     1
  0
CLASS
  1
XRECORD
  2
AcDbXrecord
  3
AutoCAD 2000
 90
        0
280
     0
281
     0
  0
CLASS
  1
LONG_TRANSACTION
  2
AcDbLongTransaction
  3
AutoCAD 2000
 90
        0
280
     0
281
     0
  0
CLASS
  1
LWPOLYLINE
  2
AcDbPolyline
  3
AutoCAD 2000
 90
        0
280
     0
281
     1
  0
CLASS
  1
HATCH
  2
AcDbHatch
  3
AutoCAD 2000
 90
        0
280
     0
281
     1
  0
CLASS
  1
XRECORD
  2
AcDbXrecord
  3
AutoCAD 2000
 90
        0
280
     0
281
     0
  0
CLASS
  1
LONG_TRANSACTION
  2
AcDbLongTransaction
  3
AutoCAD 2000
 90
        0
280
     0
281
     0
  0
CLASS
  1
LWPOLYLINE
  2
AcDbPolyline
  3
AutoCAD 2000
 90
        0
280
     0
281
     1
  0
CLASS
  1
HATCH
  2
AcDbHatch
  3
AutoCAD 2000
 90
        0
280
     0
281
     1
  0
CLASS
  1
XRECORD
  2
AcDbXrecord
  3
AutoCAD 2000
 90
        0
280
     0
281
     0
  0
ENDSEC
  0
SECTION
  2
TABLES
  0
TABLE
  2
VPORT
  5
8
330
0
100
AcDbSymbolTable
 70
     2
  0
VPORT
  5
C26
330
8
100
AcDbSymbolTableRecord
100
AcDbViewportTableRecord
  2
*ACTIVE
 70
     0
 10
0.0
 20
0.0
 11
1.0
 21
1.0
 12
424.9653506498328
 22
279.4302724322901
 13
0.0
 23
0.0
 14
5.0
 24
5.0
 15
0.0
 25
0.0
 16
0.0
 26
0.0
 36
1.0
 17
0.0
 27
0.0
 37
0.0
 40
622.0383271274045
 41
1.795454545454545
 42
50.0
 43
0.0
 44
0.0
 50
0.0
 51
0.0
 71
     0
 72
   100
 73
     1
 74
     0
 75
     0
 76
     0
 77
     0
 78
     0
  0
ENDTAB
  0
TABLE
  2
LTYPE
  5
5
330
0
100
AcDbSymbolTable
 70
     3
  0
LTYPE
  5
14
330
5
100
AcDbSymbolTableRecord
100
AcDbLinetypeTableRecord
  2
BYBLOCK
 70
     0
  3

 72
    65
 73
     0
 40
0.0
  0
LTYPE
  5
15
330
5
100
AcDbSymbolTableRecord
100
AcDbLinetypeTableRecord
  2
BYLAYER
 70
     0
  3

 72
    65
 73
     0
 40
0.0
  0
LTYPE
  5
16
330
5
100
AcDbSymbolTableRecord
100
AcDbLinetypeTableRecord
  2
CONTINUOUS
 70
     0
  3
Solid line
 72
    65
 73
     0
 40
0.0
  0
LTYPE
  5
115
330
5
100
AcDbSymbolTableRecord
100
AcDbLinetypeTableRecord
  2
PHANTOM
 70
     0
  3
______  __  __  ______  __  __  ______  __  __ 
 72
    65
 73
     6
 40
2.5
 49
1.25
 74
     0
 49
-0.25
 74
     0
 49
0.25
 74
     0
 49
-0.25
 74
     0
 49
0.25
 74
     0
 49
-0.25
 74
     0
  0
LTYPE
  5
135
330
5
100
AcDbSymbolTableRecord
100
AcDbLinetypeTableRecord
  2
CENTER
 70
     0
  3
____ _ ____ _ ____ _ ____ _ ____ _ ____ _ ____ 
 72
    65
 73
     4
 40
2.0
 49
1.25
 74
     0
 49
-0.25
 74
     0
 49
0.25
 74
     0
 49
-0.25
 74
     0
  0
ENDTAB
  0
TABLE
  2
LAYER
  5
2
330
0
100
AcDbSymbolTable
 70
     9
  0
LAYER
  5
F
330
2
100
AcDbSymbolTableRecord
100
AcDbLayerTableRecord
  2
0
 70
     0
 62
     7
  6
CONTINUOUS
  0
LAYER
  5
62
330
2
100
AcDbSymbolTableRecord
100
AcDbLayerTableRecord
  2
VIEWPORT
 70
     0
 62
     7
  6
CONTINUOUS
  0
LAYER
  5
65
330
2
100
AcDbSymbolTableRecord
100
AcDbLayerTableRecord
  2
ZUWAKU
 70
     0
 62
     7
  6
CONTINUOUS
  0
LAYER
  5
151
330
2
100
AcDbSymbolTableRecord
100
AcDbLayerTableRecord
  2
SEIHIN
 70
     0
 62
     3
  6
CONTINUOUS
  0
LAYER
  5
152
330
2
100
AcDbSymbolTableRecord
100
AcDbLayerTableRecord
  2
SUNPOU
 70
     0
 62
     4
  6
CONTINUOUS
  0
LAYER
  5
153
330
2
100
AcDbSymbolTableRecord
100
AcDbLayerTableRecord
  2
CENTER_L
 70
     0
 62
     1
  6
CENTER
  0
LAYER
  5
154
330
2
100
AcDbSymbolTableRecord
100
AcDbLayerTableRecord
  2
NOKOTOI
 70
     0
 62
     8
  6
PHANTOM
  0
LAYER
  5
155
330
2
100
AcDbSymbolTableRecord
100
AcDbLayerTableRecord
  2
DEFPOINTS
 70
     0
 62
     7
  6
CONTINUOUS
  0
LAYER
  5
975
330
2
100
AcDbSymbolTableRecord
100
AcDbLayerTableRecord
  2
MOJI
 70
     0
 62
     2
  6
CONTINUOUS
  0
ENDTAB
  0
TABLE
  2
STYLE
  5
3
330
0
100
AcDbSymbolTable
 70
     2
  0
STYLE
  5
10
330
3
100
AcDbSymbolTableRecord
100
AcDbTextStyleTableRecord
  2
STANDARD
 70
     0
 40
0.0
 41
1.0
 50
0.0
 71
     0
 42
6.0
  3
TXT
  4
bigfont.shx
  0
STYLE
  5
976
330
3
100
AcDbSymbolTableRecord
100
AcDbTextStyleTableRecord
  2
ｽﾀｲﾙ1
 70
     0
 40
0.0
 41
1.0
 50
0.0
 71
     0
 42
2.5
  3
MS PGothic.ttf
  4

1001
ACAD
1000
MS PGothic
1071
    32818
  0
ENDTAB
  0
TABLE
  2
VIEW
  5
6
330
0
100
AcDbSymbolTable
 70
     0
  0
ENDTAB
  0
TABLE
  2
UCS
  5
7
330
0
100
AcDbSymbolTable
 70
     0
  0
ENDTAB
  0
TABLE
  2
APPID
  5
9
330
0
100
AcDbSymbolTable
 70
     1
  0
APPID
  5
11
330
9
100
AcDbSymbolTableRecord
100
AcDbRegAppTableRecord
  2
ACAD
 70
     0
  0
ENDTAB
  0
TABLE
  2
DIMSTYLE
  5
A
330
0
100
AcDbSymbolTable
 70
     1
  0
DIMSTYLE
105
1D
102
{ACAD_REACTORS
330
3E0
330
6A9
330
6B6
330
6C5
330
6E1
330
6F0
330
6FE
330
753
330
760
330
76D
330
77A
330
787
330
795
330
7A4
330
7BB
330
7D0
102
}
330
A
100
AcDbSymbolTableRecord
100
AcDbDimStyleTableRecord
  2
STANDARD
 70
     0
  3

  4

  5

  6

  7

 40
1.0
 41
0.18
 42
0.0625
 43
0.38
 44
0.18
 45
0.0
 46
0.0
 47
0.0
 48
0.0
140
0.18
141
0.09
142
0.0
143
25.4
144
1.0
145
0.0
146
1.0
147
0.09
 71
     0
 72
     0
 73
     1
 74
     1
 75
     0
 76
     0
 77
     0
 78
     0
170
     0
171
     2
172
     0
173
     0
174
     0
175
     0
176
     0
177
     0
178
     0
270
     2
271
     4
272
     4
273
     2
274
     2
340
10
275
     0
280
     0
281
     0
282
     0
283
     1
284
     0
285
     0
286
     0
287
     3
288
     0
  0
ENDTAB
  0
TABLE
  2
BLOCK_RECORD
  5
1
330
0
100
AcDbSymbolTable
 70
    17
  0
BLOCK_RECORD
  5
1A
102
{ACAD_XDICTIONARY
360
891
102
}
330
1
100
AcDbSymbolTableRecord
100
AcDbBlockTableRecord
  2
*MODEL_SPACE
  0
BLOCK_RECORD
  5
17
102
{ACAD_XDICTIONARY
360
88F
102
}
330
1
100
AcDbSymbolTableRecord
100
AcDbBlockTableRecord
  2
*PAPER_SPACE
  0
BLOCK_RECORD
  5
6D
330
1
100
AcDbSymbolTableRecord
100
AcDbBlockTableRecord
  2
_OPEN
  0
BLOCK_RECORD
  5
666
330
1
100
AcDbSymbolTableRecord
100
AcDbBlockTableRecord
  2
*D1
  0
BLOCK_RECORD
  5
69D
330
1
100
AcDbSymbolTableRecord
100
AcDbBlockTableRecord
  2
*D2
  0
BLOCK_RECORD
  5
6AA
330
1
100
AcDbSymbolTableRecord
100
AcDbBlockTableRecord
  2
*D3
  0
BLOCK_RECORD
  5
6B7
330
1
100
AcDbSymbolTableRecord
100
AcDbBlockTableRecord
  2
*D4
  0
BLOCK_RECORD
  5
6D3
330
1
100
AcDbSymbolTableRecord
100
AcDbBlockTableRecord
  2
*D5
  0
BLOCK_RECORD
  5
6E2
330
1
100
AcDbSymbolTableRecord
100
AcDbBlockTableRecord
  2
*D6
  0
BLOCK_RECORD
  5
6F2
330
1
100
AcDbSymbolTableRecord
100
AcDbBlockTableRecord
  2
*D7
  0
BLOCK_RECORD
  5
747
330
1
100
AcDbSymbolTableRecord
100
AcDbBlockTableRecord
  2
*D8
  0
BLOCK_RECORD
  5
754
330
1
100
AcDbSymbolTableRecord
100
AcDbBlockTableRecord
  2
*D9
  0
BLOCK_RECORD
  5
761
330
1
100
AcDbSymbolTableRecord
100
AcDbBlockTableRecord
  2
*D10
  0
BLOCK_RECORD
  5
76E
330
1
100
AcDbSymbolTableRecord
100
AcDbBlockTableRecord
  2
*D11
  0
BLOCK_RECORD
  5
77B
330
1
100
AcDbSymbolTableRecord
100
AcDbBlockTableRecord
  2
*D12
  0
BLOCK_RECORD
  5
789
330
1
100
AcDbSymbolTableRecord
100
AcDbBlockTableRecord
  2
*D13
  0
BLOCK_RECORD
  5
796
330
1
100
AcDbSymbolTableRecord
100
AcDbBlockTableRecord
  2
*D14
  0
BLOCK_RECORD
  5
7AD
330
1
100
AcDbSymbolTableRecord
100
AcDbBlockTableRecord
  2
*D15
  0
BLOCK_RECORD
  5
7C2
330
1
100
AcDbSymbolTableRecord
100
AcDbBlockTableRecord
  2
*D16
  0
ENDTAB
  0
ENDSEC
  0
SECTION
  2
BLOCKS
  0
BLOCK
  5
1B
330
1A
100
AcDbEntity
  8
0
100
AcDbBlockBegin
  2
*MODEL_SPACE
 70
     0
 10
0.0
 20
0.0
 30
0.0
  3
*MODEL_SPACE
  1

  0
ENDBLK
  5
1C
330
1A
100
AcDbEntity
  8
0
100
AcDbBlockEnd
  0
BLOCK
  5
18
330
17
100
AcDbEntity
 67
     1
  8
0
100
AcDbBlockBegin
  2
*PAPER_SPACE
 70
     0
 10
0.0
 20
0.0
 30
0.0
  3
*PAPER_SPACE
  1

  0
ENDBLK
  5
19
330
17
100
AcDbEntity
 67
     1
  8
0
100
AcDbBlockEnd
  0
BLOCK
  5
6E
330
6D
100
AcDbEntity
  8
0
100
AcDbBlockBegin
  2
_OPEN
 70
     0
 10
0.0
 20
0.0
 30
0.0
  3
_OPEN
  1

  0
LINE
  5
6F
330
6D
100
AcDbEntity
  8
0
  6
BYBLOCK
 62
     0
100
AcDbLine
 10
-1.0
 20
0.1666666666666666
 30
0.0
 11
0.0
 21
0.0
 31
0.0
  0
LINE
  5
70
330
6D
100
AcDbEntity
  8
0
  6
BYBLOCK
 62
     0
100
AcDbLine
 10
0.0
 20
0.0
 30
0.0
 11
-1.0
 21
-0.1666666666666666
 31
0.0
  0
LINE
  5
71
330
6D
100
AcDbEntity
  8
0
  6
BYBLOCK
 62
     0
100
AcDbLine
 10
0.0
 20
0.0
 30
0.0
 11
-1.0
 21
0.0
 31
0.0
  0
ENDBLK
  5
72
330
6D
100
AcDbEntity
  8
0
100
AcDbBlockEnd
  0
BLOCK
  5
7F7
330
666
100
AcDbEntity
  8
0
100
AcDbBlockBegin
  2
*D1
 70
     1
 10
0.0
 20
0.0
 30
0.0
  3
*D1
  1

  0
LINE
  5
BD0
330
666
100
AcDbEntity
  8
SUNPOU
  6
CONTINUOUS
 62
     4
100
AcDbLine
 10
476.0335201905505
 20
269.3952787720821
 30
0.0
 11
487.5033038978473
 21
240.7130967838685
 31
0.0
  0
LINE
  5
BD1
330
666
100
AcDbEntity
  8
SUNPOU
  6
CONTINUOUS
 62
     4
100
AcDbLine
 10
476.9620201905503
 20
269.766578772082
 30
0.0
 11
488.431803897847
 21
241.0843967838685
 31
0.0
  0
LINE
  5
BD2
330
666
100
AcDbEntity
  8
SUNPOU
  6
CONTINUOUS
 62
     4
100
AcDbLine
 10
479.8898123069925
 20
240.8994990263006
 30
0.0
 11
473.3902341165967
 21
238.3003677585631
 31
0.0
  0
LINE
  5
BD3
330
666
100
AcDbEntity
  8
SUNPOU
  6
CONTINUOUS
 62
     4
100
AcDbLine
 10
493.817468687784
 20
246.4690615617756
 30
0.0
 11
517.9587591092542
 21
256.1229776990864
 31
0.0
  0
LINE
  5
BD4
330
666
100
AcDbEntity
  8
SUNPOU
  6
CONTINUOUS
 62
     4
100
AcDbLine
 10
486.3893904973884
 20
243.4986302940381
 30
0.0
 11
487.3178904973881
 21
243.8699302940381
 31
0.0
  0
INSERT
  5
BD5
330
666
100
AcDbEntity
  8
SUNPOU
  6
CONTINUOUS
 62
     4
100
AcDbBlockReference
  2
_OPEN
 10
486.3893904973884
 20
243.4986302940381
 30
0.0
 41
7.0
 42
7.0
 43
7.0
 50
21.79608964277226
  0
INSERT
  5
BD6
330
666
100
AcDbEntity
  8
SUNPOU
  6
CONTINUOUS
 62
     4
100
AcDbBlockReference
  2
_OPEN
 10
487.3178904973881
 20
243.8699302940381
 30
0.0
 41
7.0
 42
7.0
 43
7.0
 50
201.7960896427722
  0
MTEXT
  5
BD7
330
666
100
AcDbEntity
  8
SUNPOU
  6
CONTINUOUS
 62
     4
100
AcDbMText
 10
507.2813806596188
 20
257.2381411145824
 30
0.0
 40
6.0
 41
0.0
 71
     5
 72
     1
  1
\A1;t1.0
 11
0.9285111700565476
 21
0.3713044668196452
 31
0.0
1001
ACAD
1000
MTEXTBEGIN
1070
    73
1070
     1
1070
    44
1040
1.0
1070
    74
1070
     0
1000
MTEXTEND
  0
POINT
  5
BD8
330
666
100
AcDbEntity
  8
DEFPOINTS
  6
CONTINUOUS
 62
     0
100
AcDbPoint
 10
473.8056933896325
 20
274.9663457924214
 30
0.0
  0
POINT
  5
BD9
330
666
100
AcDbEntity
  8
DEFPOINTS
  6
CONTINUOUS
 62
     0
100
AcDbPoint
 10
474.7341933896324
 20
275.3376457924213
 30
0.0
  0
POINT
  5
BDA
330
666
100
AcDbEntity
  8
DEFPOINTS
  6
CONTINUOUS
 62
     0
100
AcDbPoint
 10
487.3178904973881
 20
243.8699302940381
 30
0.0
  0
ENDBLK
  5
803
330
666
100
AcDbEntity
  8
0
100
AcDbBlockEnd
  0
BLOCK
  5
73C
330
69D
100
AcDbEntity
  8
0
100
AcDbBlockBegin
  2
*D2
 70
     1
 10
0.0
 20
0.0
 30
0.0
  3
*D2
  1

  0
LINE
  5
BEF
330
69D
100
AcDbEntity
  8
SUNPOU
 62
     4
100
AcDbLine
 10
619.1053662551652
 20
373.6701110600674
 30
0.0
 11
606.0739427655922
 21
406.250994098106
 31
0.0
  0
LINE
  5
BF0
330
69D
100
AcDbEntity
  8
SUNPOU
 62
     4
100
AcDbLine
 10
652.530834520796
 20
387.0393904013782
 30
0.0
 11
639.4994268447927
 21
419.6202339026717
 31
0.0
  0
LINE
  5
BF1
330
69D
100
AcDbEntity
  8
SUNPOU
 62
     4
100
AcDbLine
 10
613.6874470604092
 20
406.0651114663149
 30
0.0
 11
634.1141295632769
 21
414.2352015731773
 31
0.0
  0
INSERT
  5
BF2
330
69D
100
AcDbEntity
  8
SUNPOU
 62
     4
100
AcDbBlockReference
  2
_OPEN
 10
607.1880462722427
 20
403.4655366174633
 30
0.0
 41
7.0
 42
7.0
 43
7.0
 50
201.7999999999997
  0
INSERT
  5
BF3
330
69D
100
AcDbEntity
  8
SUNPOU
 62
     4
100
AcDbBlockReference
  2
_OPEN
 10
640.6135303514433
 20
416.834776422029
 30
0.0
 41
7.0
 42
7.0
 43
7.0
 50
21.79999999999976
  0
MTEXT
  5
BF4
330
69D
100
AcDbEntity
  8
SUNPOU
 62
     4
100
AcDbMText
 10
622.0439491340918
 20
414.7925856541507
 30
0.0
 40
6.0
 41
0.0
 71
     5
 72
     1
  1
\A1;36
 11
0.928485826880915
 21
0.371367835550231
 31
0.0
1001
ACAD
1000
MTEXTBEGIN
1070
    73
1070
     1
1070
    44
1040
1.0
1070
    74
1070
     0
1000
MTEXTEND
  0
POINT
  5
BF5
330
69D
100
AcDbEntity
  8
DEFPOINTS
 62
     0
100
AcDbPoint
 10
621.3335732684665
 20
368.0991960987819
 30
0.0
  0
POINT
  5
BF6
330
69D
100
AcDbEntity
  8
DEFPOINTS
 62
     0
100
AcDbPoint
 10
654.7590415340973
 20
381.4684754400928
 30
0.0
  0
POINT
  5
BF7
330
69D
100
AcDbEntity
  8
DEFPOINTS
 62
     0
100
AcDbPoint
 10
640.6135303514433
 20
416.834776422029
 30
0.0
  0
ENDBLK
  5
746
330
69D
100
AcDbEntity
  8
0
100
AcDbBlockEnd
  0
BLOCK
  5
731
330
6AA
100
AcDbEntity
  8
0
100
AcDbBlockBegin
  2
*D3
 70
     1
 10
0.0
 20
0.0
 30
0.0
  3
*D3
  1

  0
LINE
  5
BF8
330
6AA
100
AcDbEntity
  8
SUNPOU
 62
     4
100
AcDbLine
 10
612.9999268485396
 20
374.7977886095712
 30
0.0
 11
595.3596636712923
 21
418.9015929098445
 31
0.0
  0
LINE
  5
BF9
330
6AA
100
AcDbEntity
  8
SUNPOU
 62
     4
100
AcDbLine
 10
656.1745084442588
 20
392.0664346234709
 30
0.0
 11
638.5342609221489
 21
436.170199783108
 31
0.0
  0
LINE
  5
BFA
330
6AA
100
AcDbEntity
  8
SUNPOU
 62
     4
100
AcDbLine
 10
602.9731679661095
 20
418.7157102780534
 30
0.0
 11
633.1489636406332
 21
430.7851674536137
 31
0.0
  0
INSERT
  5
BFB
330
6AA
100
AcDbEntity
  8
SUNPOU
 62
     4
100
AcDbBlockReference
  2
_OPEN
 10
596.473767177943
 20
416.1161354292017
 30
0.0
 41
7.0
 42
7.0
 43
7.0
 50
201.7999999999997
  0
INSERT
  5
BFC
330
6AA
100
AcDbEntity
  8
SUNPOU
 62
     4
100
AcDbBlockReference
  2
_OPEN
 10
639.6483644287997
 20
433.3847423024653
 30
0.0
 41
7.0
 42
7.0
 43
7.0
 50
21.79999999999976
  0
MTEXT
  5
BFD
330
6AA
100
AcDbEntity
  8
SUNPOU
 62
     4
100
AcDbMText
 10
616.2042266256202
 20
429.3928680002381
 30
0.0
 40
6.0
 41
0.0
 71
     5
 72
     1
  1
\A1;47
 11
0.928485826880915
 21
0.371367835550231
 31
0.0
1001
ACAD
1000
MTEXTBEGIN
1070
    73
1070
     1
1070
    44
1040
1.0
1070
    74
1070
     0
1000
MTEXTEND
  0
POINT
  5
BFE
330
6AA
100
AcDbEntity
  8
DEFPOINTS
 62
     0
100
AcDbPoint
 10
615.228133861841
 20
369.2268736482858
 30
0.0
  0
POINT
  5
BFF
330
6AA
100
AcDbEntity
  8
DEFPOINTS
 62
     0
100
AcDbPoint
 10
658.4027154575602
 20
386.4955196621854
 30
0.0
  0
POINT
  5
C00
330
6AA
100
AcDbEntity
  8
DEFPOINTS
 62
     0
100
AcDbPoint
 10
639.6483644287997
 20
433.3847423024653
 30
0.0
  0
ENDBLK
  5
73B
330
6AA
100
AcDbEntity
  8
0
100
AcDbBlockEnd
  0
BLOCK
  5
724
330
6B7
100
AcDbEntity
  8
0
100
AcDbBlockBegin
  2
*D4
 70
     1
 10
0.0
 20
0.0
 30
0.0
  3
*D4
  1

  0
LINE
  5
C0A
330
6B7
100
AcDbEntity
  8
SUNPOU
 62
     4
100
AcDbLine
 10
614.1137583071812
 20
361.2419890854804
 30
0.0
 11
585.0765147548729
 21
349.6279202691681
 31
0.0
  0
LINE
  5
C0B
330
6B7
100
AcDbEntity
  8
SUNPOU
 62
     4
100
AcDbLine
 10
609.6572189005556
 20
366.9986666349843
 30
0.0
 11
582.4769365978318
 21
356.1273293283985
 31
0.0
  0
LINE
  5
C0C
330
6B7
100
AcDbEntity
  8
SUNPOU
 62
     4
100
AcDbLine
 10
590.4615470843673
 20
344.2426229876524
 30
0.0
 11
593.061121933219
 21
337.743222199486
 31
0.0
  0
LINE
  5
C0D
330
6B7
100
AcDbEntity
  8
SUNPOU
 62
     4
100
AcDbLine
 10
582.6628192296229
 20
363.7408336232156
 30
0.0
 11
577.0923016963695
 21
377.6681210264293
 31
0.0
  0
LINE
  5
C0E
330
6B7
100
AcDbEntity
  8
SUNPOU
 62
     4
100
AcDbLine
 10
587.8619722355157
 20
350.7420237758188
 30
0.0
 11
585.2623940784745
 21
357.2414328350491
 31
0.0
  0
INSERT
  5
C0F
330
6B7
100
AcDbEntity
  8
SUNPOU
 62
     4
100
AcDbBlockReference
  2
_OPEN
 10
587.8619722355157
 20
350.7420237758188
 30
0.0
 41
7.0
 42
7.0
 43
7.0
 50
111.7999999999996
  0
INSERT
  5
C10
330
6B7
100
AcDbEntity
  8
SUNPOU
 62
     4
100
AcDbBlockReference
  2
_OPEN
 10
585.2623940784745
 20
357.2414328350491
 30
0.0
 41
7.0
 42
7.0
 43
7.0
 50
291.7999999999996
  0
MTEXT
  5
C11
330
6B7
100
AcDbEntity
  8
SUNPOU
 62
     4
100
AcDbMText
 10
583.220202172975
 20
375.8110168966569
 30
0.0
 40
6.0
 41
0.0
 71
     5
 72
     1
  1
\A1;7
 11
0.3713678355502294
 21
-0.9284858268809157
 31
0.0
1001
ACAD
1000
MTEXTBEGIN
1070
    73
1070
     1
1070
    44
1040
1.0
1070
    74
1070
     0
1000
MTEXTEND
  0
POINT
  5
C12
330
6B7
100
AcDbEntity
  8
DEFPOINTS
 62
     0
100
AcDbPoint
 10
619.6846732684666
 20
363.4701960987817
 30
0.0
  0
POINT
  5
C13
330
6B7
100
AcDbEntity
  8
DEFPOINTS
 62
     0
100
AcDbPoint
 10
615.228133861841
 20
369.2268736482857
 30
0.0
  0
POINT
  5
C14
330
6B7
100
AcDbEntity
  8
DEFPOINTS
 62
     0
100
AcDbPoint
 10
585.2623940784745
 20
357.2414328350491
 30
0.0
  0
ENDBLK
  5
730
330
6B7
100
AcDbEntity
  8
0
100
AcDbBlockEnd
  0
BLOCK
  5
717
330
6D3
100
AcDbEntity
  8
0
100
AcDbBlockBegin
  2
*D5
 70
     1
 10
0.0
 20
0.0
 30
0.0
  3
*D5
  1

  0
LINE
  5
C15
330
6D3
100
AcDbEntity
  8
SUNPOU
 62
     4
100
AcDbLine
 10
615.2656583071813
 20
355.2408890854805
 30
0.0
 11
574.2063539664338
 21
338.8183390144204
 31
0.0
  0
LINE
  5
C16
330
6D3
100
AcDbEntity
  8
SUNPOU
 62
     4
100
AcDbLine
 10
609.6572189005556
 20
366.9986666349843
 30
0.0
 11
569.3786746710316
 21
350.8883983287014
 31
0.0
  0
LINE
  5
C17
330
6D3
100
AcDbEntity
  8
SUNPOU
 62
     4
100
AcDbLine
 10
579.5913862959282
 20
333.4330417329047
 30
0.0
 11
582.1909611447798
 21
326.9336409447383
 31
0.0
  0
LINE
  5
C18
330
6D3
100
AcDbEntity
  8
SUNPOU
 62
     4
100
AcDbLine
 10
569.5645573028228
 20
358.5019026235185
 30
0.0
 11
566.9649824539711
 21
365.001303411685
 31
0.0
  0
LINE
  5
C19
330
6D3
100
AcDbEntity
  8
SUNPOU
 62
     4
100
AcDbLine
 10
576.9918114470766
 20
339.9324425210711
 30
0.0
 11
572.1641321516743
 21
352.0025018353521
 31
0.0
  0
INSERT
  5
C1A
330
6D3
100
AcDbEntity
  8
SUNPOU
 62
     4
100
AcDbBlockReference
  2
_OPEN
 10
576.9918114470766
 20
339.9324425210711
 30
0.0
 41
7.0
 42
7.0
 43
7.0
 50
111.7999999999996
  0
INSERT
  5
C1B
330
6D3
100
AcDbEntity
  8
SUNPOU
 62
     4
100
AcDbBlockReference
  2
_OPEN
 10
572.1641321516743
 20
352.0025018353521
 30
0.0
 41
7.0
 42
7.0
 43
7.0
 50
291.7999999999996
  0
MTEXT
  5
C1C
330
6D3
100
AcDbEntity
  8
SUNPOU
 62
     4
100
AcDbMText
 10
579.22040093378
 20
347.8243113559628
 30
0.0
 40
6.0
 41
0.0
 71
     5
 72
     1
  1
\A1;13
 11
0.3713678355502294
 21
-0.9284858268809157
 31
0.0
1001
ACAD
1000
MTEXTBEGIN
1070
    73
1070
     1
1070
    44
1040
1.0
1070
    74
1070
     0
1000
MTEXTEND
  0
POINT
  5
C1D
330
6D3
100
AcDbEntity
  8
DEFPOINTS
 62
     0
100
AcDbPoint
 10
620.8365732684667
 20
357.4690960987819
 30
0.0
  0
POINT
  5
C1E
330
6D3
100
AcDbEntity
  8
DEFPOINTS
 62
     0
100
AcDbPoint
 10
615.228133861841
 20
369.2268736482857
 30
0.0
  0
POINT
  5
C1F
330
6D3
100
AcDbEntity
  8
DEFPOINTS
 62
     0
100
AcDbPoint
 10
572.1641321516743
 20
352.0025018353521
 30
0.0
  0
ENDBLK
  5
723
330
6D3
100
AcDbEntity
  8
0
100
AcDbBlockEnd
  0
BLOCK
  5
70A
330
6E2
100
AcDbEntity
  8
0
100
AcDbBlockBegin
  2
*D6
 70
     1
 10
0.0
 20
0.0
 30
0.0
  3
*D6
  1

  0
LINE
  5
BB3
330
6E2
100
AcDbEntity
  8
SUNPOU
 62
     4
100
AcDbLine
 10
621.9124583071813
 20
341.7437890854806
 30
0.0
 11
592.8752351008099
 21
330.1297284069625
 31
0.0
  0
LINE
  5
BB4
330
6E2
100
AcDbEntity
  8
SUNPOU
 62
     4
100
AcDbLine
 10
622.6551176255202
 20
334.5016617532353
 30
0.0
 11
595.4748145427609
 21
323.6303161352283
 31
0.0
  0
LINE
  5
BB5
330
6E2
100
AcDbEntity
  8
SUNPOU
 62
     4
100
AcDbLine
 10
593.0611177326011
 20
337.7432327017795
 30
0.0
 11
590.4615428837495
 21
344.2426334899459
 31
0.0
  0
LINE
  5
BB6
330
6E2
100
AcDbEntity
  8
SUNPOU
 62
     4
100
AcDbLine
 10
600.8598468722554
 20
318.2450188537126
 30
0.0
 11
606.4303644055088
 21
304.3177314504989
 31
0.0
  0
LINE
  5
BB7
330
6E2
100
AcDbEntity
  8
SUNPOU
 62
     4
100
AcDbLine
 10
595.6606925814527
 20
331.2438319136131
 30
0.0
 11
598.2602720234037
 21
324.744419641879
 31
0.0
  0
INSERT
  5
BB8
330
6E2
100
AcDbEntity
  8
SUNPOU
 62
     4
100
AcDbBlockReference
  2
_OPEN
 10
595.6606925814527
 20
331.2438319136131
 30
0.0
 41
7.0
 42
7.0
 43
7.0
 50
291.7999999999996
  0
INSERT
  5
BB9
330
6E2
100
AcDbEntity
  8
SUNPOU
 62
     4
100
AcDbBlockReference
  2
_OPEN
 10
598.2602720234037
 20
324.744419641879
 30
0.0
 41
7.0
 42
7.0
 43
7.0
 50
111.7999999999996
  0
MTEXT
  5
BBA
330
6E2
100
AcDbEntity
  8
SUNPOU
 62
     4
100
AcDbMText
 10
609.5873221977123
 20
309.8885139357737
 30
0.0
 40
6.0
 41
0.0
 71
     5
 72
     1
  1
\A1;7
 11
0.3713678355502294
 21
-0.9284858268809157
 31
0.0
1001
ACAD
1000
MTEXTBEGIN
1070
    73
1070
     1
1070
    44
1040
1.0
1070
    74
1070
     0
1000
MTEXTEND
  0
POINT
  5
BBB
330
6E2
100
AcDbEntity
  8
DEFPOINTS
 62
     0
100
AcDbPoint
 10
627.4833732684669
 20
343.971996098782
 30
0.0
  0
POINT
  5
BBC
330
6E2
100
AcDbEntity
  8
DEFPOINTS
 62
     0
100
AcDbPoint
 10
628.2260325868056
 20
336.7298687665367
 30
0.0
  0
POINT
  5
BBD
330
6E2
100
AcDbEntity
  8
DEFPOINTS
 62
     0
100
AcDbPoint
 10
598.2602720234037
 20
324.744419641879
 30
0.0
  0
ENDBLK
  5
716
330
6E2
100
AcDbEntity
  8
0
100
AcDbBlockEnd
  0
BLOCK
  5
6FF
330
6F2
100
AcDbEntity
  8
0
100
AcDbBlockBegin
  2
*D7
 70
     1
 10
0.0
 20
0.0
 30
0.0
  3
*D7
  1

  0
LINE
  5
C01
330
6F2
100
AcDbEntity
  8
SUNPOU
 62
     4
100
AcDbLine
 10
609.6572189005556
 20
366.9986666349843
 30
0.0
 11
555.886215291243
 21
345.4917995965981
 31
0.0
  0
LINE
  5
C02
330
6F2
100
AcDbEntity
  8
SUNPOU
 62
     4
100
AcDbLine
 10
622.6551176255202
 20
334.5016617532353
 30
0.0
 11
568.8840932361723
 21
312.994786403428
 31
0.0
  0
LINE
  5
C03
330
6F2
100
AcDbEntity
  8
SUNPOU
 62
     4
100
AcDbLine
 10
561.2712476207374
 20
340.1065023150824
 30
0.0
 11
569.0699758679635
 21
320.6082906982451
 31
0.0
  0
INSERT
  5
C04
330
6F2
100
AcDbEntity
  8
SUNPOU
 62
     4
100
AcDbBlockReference
  2
_OPEN
 10
558.6716727718858
 20
346.6059031032488
 30
0.0
 41
7.0
 42
7.0
 43
7.0
 50
111.7999999999996
  0
INSERT
  5
C05
330
6F2
100
AcDbEntity
  8
SUNPOU
 62
     4
100
AcDbBlockReference
  2
_OPEN
 10
571.6695507168151
 20
314.1088899100787
 30
0.0
 41
7.0
 42
7.0
 43
7.0
 50
291.7999999999996
  0
MTEXT
  5
C06
330
6F2
100
AcDbEntity
  8
SUNPOU
 62
     4
100
AcDbMText
 10
569.813040878755
 20
332.2142356844149
 30
0.0
 40
6.0
 41
0.0
 71
     5
 72
     1
  1
\A1;35
 11
0.3713678355502294
 21
-0.9284858268809157
 31
0.0
1001
ACAD
1000
MTEXTBEGIN
1070
    73
1070
     1
1070
    44
1040
1.0
1070
    74
1070
     0
1000
MTEXTEND
  0
POINT
  5
C07
330
6F2
100
AcDbEntity
  8
DEFPOINTS
 62
     0
100
AcDbPoint
 10
615.228133861841
 20
369.2268736482857
 30
0.0
  0
POINT
  5
C08
330
6F2
100
AcDbEntity
  8
DEFPOINTS
 62
     0
100
AcDbPoint
 10
628.2260325868056
 20
336.7298687665367
 30
0.0
  0
POINT
  5
C09
330
6F2
100
AcDbEntity
  8
DEFPOINTS
 62
     0
100
AcDbPoint
 10
571.6695507168151
 20
314.1088899100787
 30
0.0
  0
ENDBLK
  5
709
330
6F2
100
AcDbEntity
  8
0
100
AcDbBlockEnd
  0
BLOCK
  5
748
330
747
100
AcDbEntity
  8
0
100
AcDbBlockBegin
  2
*D8
 70
     1
 10
0.0
 20
0.0
 30
0.0
  3
*D8
  1

  0
LINE
  5
BBE
330
747
100
AcDbEntity
  8
SUNPOU
 62
     4
100
AcDbLine
 10
467.307312646337
 20
310.0628420663788
 30
0.0
 11
494.2887045682035
 21
320.8545685618103
 31
0.0
  0
LINE
  5
BBF
330
747
100
AcDbEntity
  8
SUNPOU
 62
     4
100
AcDbLine
 10
480.3051126463369
 20
277.5658420663788
 30
0.0
 11
507.2865045682035
 21
288.3575685618103
 31
0.0
  0
LINE
  5
BC0
330
747
100
AcDbEntity
  8
SUNPOU
 62
     4
100
AcDbLine
 10
494.1028072594682
 20
313.2410646253428
 30
0.0
 11
501.9014826202341
 21
293.7428762243202
 31
0.0
  0
INSERT
  5
BC1
330
747
100
AcDbEntity
  8
SUNPOU
 62
     4
100
AcDbBlockReference
  2
_OPEN
 10
491.5032449398512
 20
319.7404704248315
 30
0.0
 41
7.0
 42
7.0
 43
7.0
 50
111.7998895479735
  0
INSERT
  5
BC2
330
747
100
AcDbEntity
  8
SUNPOU
 62
     4
100
AcDbBlockReference
  2
_OPEN
 10
504.5010449398512
 20
287.2434704248316
 30
0.0
 41
7.0
 42
7.0
 43
7.0
 50
291.7998895479735
  0
MTEXT
  5
BC3
330
747
100
AcDbEntity
  8
SUNPOU
 62
     4
100
AcDbMText
 10
502.6445776537716
 20
305.3488006531295
 30
0.0
 40
6.0
 41
0.0
 71
     5
 72
     1
  1
\A1;35
 11
0.3713660456595742
 21
-0.9284865427841003
 31
0.0
1001
ACAD
1000
MTEXTBEGIN
1070
    73
1070
     1
1070
    44
1040
1.0
1070
    74
1070
     0
1000
MTEXTEND
  0
POINT
  5
BC4
330
747
100
AcDbEntity
  8
DEFPOINTS
 62
     0
100
AcDbPoint
 10
461.7363933896324
 20
307.8346457924213
 30
0.0
  0
POINT
  5
BC5
330
747
100
AcDbEntity
  8
DEFPOINTS
 62
     0
100
AcDbPoint
 10
474.7341933896324
 20
275.3376457924214
 30
0.0
  0
POINT
  5
BC6
330
747
100
AcDbEntity
  8
DEFPOINTS
 62
     0
100
AcDbPoint
 10
504.5010449398512
 20
287.2434704248316
 30
0.0
  0
ENDBLK
  5
752
330
747
100
AcDbEntity
  8
0
100
AcDbBlockEnd
  0
BLOCK
  5
755
330
754
100
AcDbEntity
  8
0
100
AcDbBlockBegin
  2
*D9
 70
     1
 10
0.0
 20
0.0
 30
0.0
  3
*D9
  1

  0
LINE
  5
BC7
330
754
100
AcDbEntity
  8
SUNPOU
 62
     4
100
AcDbLine
 10
461.73683602604
 20
323.9901523640568
 30
0.0
 11
503.9660531946488
 21
340.8805225347163
 31
0.0
  0
LINE
  5
BC8
330
754
100
AcDbEntity
  8
SUNPOU
 62
     4
100
AcDbLine
 10
480.3051134294626
 20
277.5658401084131
 30
0.0
 11
522.5343305980714
 21
294.4562102790726
 31
0.0
  0
LINE
  5
BC9
330
754
100
AcDbEntity
  8
SUNPOU
 62
     4
100
AcDbLine
 10
503.7801532100574
 20
333.2670186635851
 30
0.0
 11
517.1493105428324
 21
299.841519834212
 31
0.0
  0
INSERT
  5
BCA
330
754
100
AcDbEntity
  8
SUNPOU
 62
     4
100
AcDbBlockReference
  2
_OPEN
 10
501.1805931747336
 20
339.7664253767204
 30
0.0
 41
7.0
 42
7.0
 43
7.0
 50
111.7998694106937
  0
INSERT
  5
BCB
330
754
100
AcDbEntity
  8
SUNPOU
 62
     4
100
AcDbBlockReference
  2
_OPEN
 10
519.7488705781562
 20
293.3421131210767
 30
0.0
 41
7.0
 42
7.0
 43
7.0
 50
291.7998694106937
  0
MTEXT
  5
BCC
330
754
100
AcDbEntity
  8
SUNPOU
 62
     4
100
AcDbMText
 10
515.1071652429701
 20
318.4110978455584
 30
0.0
 40
6.0
 41
0.0
 71
     5
 72
     1
  1
\A1;50
 11
0.3713657193319666
 21
-0.928486673305035
 31
0.0
1001
ACAD
1000
MTEXTBEGIN
1070
    73
1070
     1
1070
    44
1040
1.0
1070
    74
1070
     0
1000
MTEXTEND
  0
POINT
  5
BCD
330
754
100
AcDbEntity
  8
DEFPOINTS
 62
     0
100
AcDbPoint
 10
456.1659159862097
 20
321.761958048065
 30
0.0
  0
POINT
  5
BCE
330
754
100
AcDbEntity
  8
DEFPOINTS
 62
     0
100
AcDbPoint
 10
474.7341933896323
 20
275.3376457924213
 30
0.0
  0
POINT
  5
BCF
330
754
100
AcDbEntity
  8
DEFPOINTS
 62
     0
100
AcDbPoint
 10
519.7488705781562
 20
293.3421131210767
 30
0.0
  0
ENDBLK
  5
75F
330
754
100
AcDbEntity
  8
0
100
AcDbBlockEnd
  0
BLOCK
  5
827
330
761
100
AcDbEntity
  8
0
100
AcDbBlockBegin
  2
*D10
 70
     1
 10
0.0
 20
0.0
 30
0.0
  3
*D10
  1

  0
LINE
  5
B82
330
761
100
AcDbEntity
  8
SUNPOU
 62
     4
100
AcDbLine
 10
411.1659307018799
 20
302.7251086045581
 30
0.0
 11
411.1659307018799
 21
344.9737234032877
 31
0.0
  0
LINE
  5
B83
330
761
100
AcDbEntity
  8
SUNPOU
 62
     4
100
AcDbLine
 10
456.1659159862098
 20
327.7619580480651
 30
0.0
 11
456.1659159862098
 21
344.9737234032877
 31
0.0
  0
LINE
  5
B84
330
761
100
AcDbEntity
  8
SUNPOU
 62
     4
100
AcDbLine
 10
418.1659307018799
 20
341.9737234032877
 30
0.0
 11
449.1659159862098
 21
341.9737234032877
 31
0.0
  0
INSERT
  5
B85
330
761
100
AcDbEntity
  8
SUNPOU
 62
     4
100
AcDbBlockReference
  2
_OPEN
 10
411.1659307018799
 20
341.9737234032877
 30
0.0
 41
7.0
 42
7.0
 43
7.0
 50
180.0
  0
INSERT
  5
B86
330
761
100
AcDbEntity
  8
SUNPOU
 62
     4
100
AcDbBlockReference
  2
_OPEN
 10
456.1659159862098
 20
341.9737234032877
 30
0.0
 41
7.0
 42
7.0
 43
7.0
  0
MTEXT
  5
B87
330
761
100
AcDbEntity
  8
SUNPOU
 62
     4
100
AcDbMText
 10
433.6659233440449
 20
346.9737234032877
 30
0.0
 40
6.0
 41
0.0
 71
     5
 72
     1
  1
\A1;45
1001
ACAD
1000
MTEXTBEGIN
1070
    73
1070
     1
1070
    44
1040
1.0
1070
    74
1070
     0
1000
MTEXTEND
  0
POINT
  5
B88
330
761
100
AcDbEntity
  8
DEFPOINTS
 62
     0
100
AcDbPoint
 10
411.1659307018799
 20
296.7251086045581
 30
0.0
  0
POINT
  5
B89
330
761
100
AcDbEntity
  8
DEFPOINTS
 62
     0
100
AcDbPoint
 10
456.1659159862098
 20
321.7619580480651
 30
0.0
  0
POINT
  5
B8A
330
761
100
AcDbEntity
  8
DEFPOINTS
 62
     0
100
AcDbPoint
 10
456.1659159862098
 20
341.9737234032877
 30
0.0
  0
ENDBLK
  5
831
330
761
100
AcDbEntity
  8
0
100
AcDbBlockEnd
  0
BLOCK
  5
81C
330
76E
100
AcDbEntity
  8
0
100
AcDbBlockBegin
  2
*D11
 70
     1
 10
0.0
 20
0.0
 30
0.0
  3
*D11
  1

  0
LINE
  5
B8B
330
76E
100
AcDbEntity
  8
SUNPOU
 62
     4
100
AcDbLine
 10
456.1659159862098
 20
327.7619580480651
 30
0.0
 11
456.1659159862098
 21
360.1832459274303
 31
0.0
  0
LINE
  5
B8C
330
76E
100
AcDbEntity
  8
SUNPOU
 62
     4
100
AcDbLine
 10
326.1659933896324
 20
294.8007457924213
 30
0.0
 11
326.1659933896324
 21
360.1832459274303
 31
0.0
  0
LINE
  5
B8D
330
76E
100
AcDbEntity
  8
SUNPOU
 62
     4
100
AcDbLine
 10
449.1659159862098
 20
357.1832459274303
 30
0.0
 11
333.1659933896324
 21
357.1832459274303
 31
0.0
  0
INSERT
  5
B8E
330
76E
100
AcDbEntity
  8
SUNPOU
 62
     4
100
AcDbBlockReference
  2
_OPEN
 10
456.1659159862098
 20
357.1832459274303
 30
0.0
 41
7.0
 42
7.0
 43
7.0
  0
INSERT
  5
B8F
330
76E
100
AcDbEntity
  8
SUNPOU
 62
     4
100
AcDbBlockReference
  2
_OPEN
 10
326.1659933896324
 20
357.1832459274303
 30
0.0
 41
7.0
 42
7.0
 43
7.0
 50
180.0
  0
MTEXT
  5
B90
330
76E
100
AcDbEntity
  8
SUNPOU
 62
     4
100
AcDbMText
 10
391.1659546879211
 20
362.1832459274303
 30
0.0
 40
6.0
 41
0.0
 71
     5
 72
     1
  1
\A1;130
1001
ACAD
1000
MTEXTBEGIN
1070
    73
1070
     1
1070
    44
1040
1.0
1070
    74
1070
     0
1000
MTEXTEND
  0
POINT
  5
B91
330
76E
100
AcDbEntity
  8
DEFPOINTS
 62
     0
100
AcDbPoint
 10
456.1659159862098
 20
321.7619580480651
 30
0.0
  0
POINT
  5
B92
330
76E
100
AcDbEntity
  8
DEFPOINTS
 62
     0
100
AcDbPoint
 10
326.1659933896324
 20
288.8007457924213
 30
0.0
  0
POINT
  5
B93
330
76E
100
AcDbEntity
  8
DEFPOINTS
 62
     0
100
AcDbPoint
 10
326.1659933896324
 20
357.1832459274303
 30
0.0
  0
ENDBLK
  5
826
330
76E
100
AcDbEntity
  8
0
100
AcDbBlockEnd
  0
BLOCK
  5
811
330
77B
100
AcDbEntity
  8
0
100
AcDbBlockBegin
  2
*D12
 70
     1
 10
0.0
 20
0.0
 30
0.0
  3
*D12
  1

  0
LINE
  5
B94
330
77B
100
AcDbEntity
  8
SUNPOU
 62
     4
100
AcDbLine
 10
294.1320933896323
 20
294.3336457924214
 30
0.0
 11
294.1320933896323
 21
374.0448523998427
 31
0.0
  0
LINE
  5
B95
330
77B
100
AcDbEntity
  8
SUNPOU
 62
     4
100
AcDbLine
 10
456.1659159862098
 20
327.7619580480651
 30
0.0
 11
456.1659159862098
 21
374.0448523998427
 31
0.0
  0
LINE
  5
B96
330
77B
100
AcDbEntity
  8
SUNPOU
 62
     4
100
AcDbLine
 10
301.1320933896323
 20
371.0448523998427
 30
0.0
 11
449.1659159862098
 21
371.0448523998427
 31
0.0
  0
INSERT
  5
B97
330
77B
100
AcDbEntity
  8
SUNPOU
 62
     4
100
AcDbBlockReference
  2
_OPEN
 10
294.1320933896323
 20
371.0448523998427
 30
0.0
 41
7.0
 42
7.0
 43
7.0
 50
180.0
  0
INSERT
  5
B98
330
77B
100
AcDbEntity
  8
SUNPOU
 62
     4
100
AcDbBlockReference
  2
_OPEN
 10
456.1659159862098
 20
371.0448523998427
 30
0.0
 41
7.0
 42
7.0
 43
7.0
  0
MTEXT
  5
B99
330
77B
100
AcDbEntity
  8
SUNPOU
 62
     4
100
AcDbMText
 10
375.1490046879211
 20
376.0448523998427
 30
0.0
 40
6.0
 41
0.0
 71
     5
 72
     1
  1
\A1;162
1001
ACAD
1000
MTEXTBEGIN
1070
    73
1070
     1
1070
    44
1040
1.0
1070
    74
1070
     0
1000
MTEXTEND
  0
POINT
  5
B9A
330
77B
100
AcDbEntity
  8
DEFPOINTS
 62
     0
100
AcDbPoint
 10
294.1320933896323
 20
288.3336457924214
 30
0.0
  0
POINT
  5
B9B
330
77B
100
AcDbEntity
  8
DEFPOINTS
 62
     0
100
AcDbPoint
 10
456.1659159862098
 20
321.7619580480651
 30
0.0
  0
POINT
  5
B9C
330
77B
100
AcDbEntity
  8
DEFPOINTS
 62
     0
100
AcDbPoint
 10
456.1659159862098
 20
371.0448523998427
 30
0.0
  0
ENDBLK
  5
81B
330
77B
100
AcDbEntity
  8
0
100
AcDbBlockEnd
  0
BLOCK
  5
78A
330
789
100
AcDbEntity
  8
0
100
AcDbBlockBegin
  2
*D13
 70
     1
 10
0.0
 20
0.0
 30
0.0
  3
*D13
  1

  0
LINE
  5
BE6
330
789
100
AcDbEntity
  8
SUNPOU
 62
     4
100
AcDbLine
 10
479.9941933896325
 20
469.7567974172712
 30
0.0
 11
507.6543853528123
 21
469.7567974172712
 31
0.0
  0
LINE
  5
BE7
330
789
100
AcDbEntity
  8
SUNPOU
 62
     4
100
AcDbLine
 10
479.9941933896325
 20
422.7567974172713
 30
0.0
 11
507.6543853528123
 21
422.7567974172713
 31
0.0
  0
LINE
  5
BE8
330
789
100
AcDbEntity
  8
SUNPOU
 62
     4
100
AcDbLine
 10
504.6543853528123
 20
462.7567974172713
 30
0.0
 11
504.6543853528123
 21
429.7567974172713
 31
0.0
  0
INSERT
  5
BE9
330
789
100
AcDbEntity
  8
SUNPOU
 62
     4
100
AcDbBlockReference
  2
_OPEN
 10
504.6543853528123
 20
469.7567974172712
 30
0.0
 41
7.0
 42
7.0
 43
7.0
 50
90.0
  0
INSERT
  5
BEA
330
789
100
AcDbEntity
  8
SUNPOU
 62
     4
100
AcDbBlockReference
  2
_OPEN
 10
504.6543853528123
 20
422.7567974172713
 30
0.0
 41
7.0
 42
7.0
 43
7.0
 50
270.0
  0
MTEXT
  5
BEB
330
789
100
AcDbEntity
  8
SUNPOU
 62
     4
100
AcDbMText
 10
499.6543853528122
 20
446.2567974172714
 30
0.0
 40
6.0
 41
0.0
 71
     5
 72
     1
  1
\A1;47
 11
0.0000000000000001
 21
1.0
 31
0.0
1001
ACAD
1000
MTEXTBEGIN
1070
    73
1070
     1
1070
    44
1040
1.0
1070
    74
1070
     0
1000
MTEXTEND
  0
POINT
  5
BEC
330
789
100
AcDbEntity
  8
DEFPOINTS
 62
     0
100
AcDbPoint
 10
473.9941933896324
 20
469.7567974172712
 30
0.0
  0
POINT
  5
BED
330
789
100
AcDbEntity
  8
DEFPOINTS
 62
     0
100
AcDbPoint
 10
473.9941933896324
 20
422.7567974172713
 30
0.0
  0
POINT
  5
BEE
330
789
100
AcDbEntity
  8
DEFPOINTS
 62
     0
100
AcDbPoint
 10
504.6543853528123
 20
422.7567974172713
 30
0.0
  0
ENDBLK
  5
794
330
789
100
AcDbEntity
  8
0
100
AcDbBlockEnd
  0
BLOCK
  5
845
330
796
100
AcDbEntity
  8
0
100
AcDbBlockBegin
  2
*D14
 70
     1
 10
0.0
 20
0.0
 30
0.0
  3
*D14
  1

  0
LINE
  5
BA8
330
796
100
AcDbEntity
  8
SUNPOU
 62
     4
100
AcDbLine
 10
288.6714933896326
 20
452.5567974172715
 30
0.0
 11
267.6821634085863
 21
452.5567974172715
 31
0.0
  0
LINE
  5
BA9
330
796
100
AcDbEntity
  8
SUNPOU
 62
     4
100
AcDbLine
 10
288.6714933896326
 20
439.9567974172714
 30
0.0
 11
267.6821634085863
 21
439.9567974172714
 31
0.0
  0
LINE
  5
BAA
330
796
100
AcDbEntity
  8
SUNPOU
 62
     4
100
AcDbLine
 10
270.6821634085863
 20
459.5567974172715
 30
0.0
 11
270.6821634085863
 21
466.5567974172716
 31
0.0
  0
LINE
  5
BAB
330
796
100
AcDbEntity
  8
SUNPOU
 62
     4
100
AcDbLine
 10
270.6821634085863
 20
432.9567974172714
 30
0.0
 11
270.6821634085863
 21
425.9567974172714
 31
0.0
  0
LINE
  5
BAC
330
796
100
AcDbEntity
  8
SUNPOU
 62
     4
100
AcDbLine
 10
270.6821634085863
 20
452.5567974172715
 30
0.0
 11
270.6821634085863
 21
439.9567974172714
 31
0.0
  0
INSERT
  5
BAD
330
796
100
AcDbEntity
  8
SUNPOU
 62
     4
100
AcDbBlockReference
  2
_OPEN
 10
270.6821634085863
 20
452.5567974172715
 30
0.0
 41
7.0
 42
7.0
 43
7.0
 50
270.0
  0
INSERT
  5
BAE
330
796
100
AcDbEntity
  8
SUNPOU
 62
     4
100
AcDbBlockReference
  2
_OPEN
 10
270.6821634085863
 20
439.9567974172714
 30
0.0
 41
7.0
 42
7.0
 43
7.0
 50
90.0
  0
MTEXT
  5
BAF
330
796
100
AcDbEntity
  8
SUNPOU
 62
     4
100
AcDbMText
 10
265.6821634085862
 20
446.2567974172715
 30
0.0
 40
6.0
 41
0.0
 71
     5
 72
     1
  1
\A1;13
 11
0.0000000000000001
 21
1.0
 31
0.0
1001
ACAD
1000
MTEXTBEGIN
1070
    73
1070
     1
1070
    44
1040
1.0
1070
    74
1070
     0
1000
MTEXTEND
  0
POINT
  5
BB0
330
796
100
AcDbEntity
  8
DEFPOINTS
 62
     0
100
AcDbPoint
 10
294.6714933896326
 20
452.5567974172715
 30
0.0
  0
POINT
  5
BB1
330
796
100
AcDbEntity
  8
DEFPOINTS
 62
     0
100
AcDbPoint
 10
294.6714933896326
 20
439.9567974172714
 30
0.0
  0
POINT
  5
BB2
330
796
100
AcDbEntity
  8
DEFPOINTS
 62
     0
100
AcDbPoint
 10
270.6821634085863
 20
439.9567974172714
 30
0.0
  0
ENDBLK
  5
851
330
796
100
AcDbEntity
  8
0
100
AcDbBlockEnd
  0
BLOCK
  5
804
330
7AD
100
AcDbEntity
  8
0
100
AcDbBlockBegin
  2
*D15
 70
     1
 10
0.0
 20
0.0
 30
0.0
  3
*D15
  1

  0
LINE
  5
BDB
330
7AD
100
AcDbEntity
  8
SUNPOU
 62
     4
100
AcDbLine
 10
471.1659174941307
 20
327.7619542779687
 30
0.0
 11
471.1659174941307
 21
360.1832459274303
 31
0.0
  0
LINE
  5
BDC
330
7AD
100
AcDbEntity
  8
SUNPOU
 62
     4
100
AcDbLine
 10
456.1659159862098
 20
327.7619580480651
 30
0.0
 11
456.1659159862098
 21
360.1832459274303
 31
0.0
  0
LINE
  5
BDD
330
7AD
100
AcDbEntity
  8
SUNPOU
 62
     4
100
AcDbLine
 10
478.1659174941307
 20
357.1832459274303
 30
0.0
 11
485.1659174941308
 21
357.1832459274303
 31
0.0
  0
LINE
  5
BDE
330
7AD
100
AcDbEntity
  8
SUNPOU
 62
     4
100
AcDbLine
 10
449.1659159862098
 20
357.1832459274303
 30
0.0
 11
442.1659159862098
 21
357.1832459274303
 31
0.0
  0
LINE
  5
BDF
330
7AD
100
AcDbEntity
  8
SUNPOU
 62
     4
100
AcDbLine
 10
471.1659174941307
 20
357.1832459274303
 30
0.0
 11
456.1659159862098
 21
357.1832459274303
 31
0.0
  0
INSERT
  5
BE0
330
7AD
100
AcDbEntity
  8
SUNPOU
 62
     4
100
AcDbBlockReference
  2
_OPEN
 10
471.1659174941307
 20
357.1832459274303
 30
0.0
 41
7.0
 42
7.0
 43
7.0
 50
180.0
  0
INSERT
  5
BE1
330
7AD
100
AcDbEntity
  8
SUNPOU
 62
     4
100
AcDbBlockReference
  2
_OPEN
 10
456.1659159862098
 20
357.1832459274303
 30
0.0
 41
7.0
 42
7.0
 43
7.0
  0
MTEXT
  5
BE2
330
7AD
100
AcDbEntity
  8
SUNPOU
 62
     4
100
AcDbMText
 10
463.6659167401703
 20
362.1832459274303
 30
0.0
 40
6.0
 41
0.0
 71
     5
 72
     1
  1
\A1;15
1001
ACAD
1000
MTEXTBEGIN
1070
    73
1070
     1
1070
    44
1040
1.0
1070
    74
1070
     0
1000
MTEXTEND
  0
POINT
  5
BE3
330
7AD
100
AcDbEntity
  8
DEFPOINTS
 62
     0
100
AcDbPoint
 10
471.1659174941307
 20
321.7619542779687
 30
0.0
  0
POINT
  5
BE4
330
7AD
100
AcDbEntity
  8
DEFPOINTS
 62
     0
100
AcDbPoint
 10
456.1659159862098
 20
321.7619580480651
 30
0.0
  0
POINT
  5
BE5
330
7AD
100
AcDbEntity
  8
DEFPOINTS
 62
     0
100
AcDbPoint
 10
456.1659159862098
 20
357.1832459274303
 30
0.0
  0
ENDBLK
  5
810
330
7AD
100
AcDbEntity
  8
0
100
AcDbBlockEnd
  0
BLOCK
  5
838
330
7C2
100
AcDbEntity
  8
0
100
AcDbBlockBegin
  2
*D16
 70
     1
 10
0.0
 20
0.0
 30
0.0
  3
*D16
  1

  0
LINE
  5
B9D
330
7C2
100
AcDbEntity
  8
SUNPOU
 62
     4
100
AcDbLine
 10
289.4182933896324
 20
292.6007457924214
 30
0.0
 11
267.6821634085863
 21
292.6007457924214
 31
0.0
  0
LINE
  5
B9E
330
7C2
100
AcDbEntity
  8
SUNPOU
 62
     4
100
AcDbLine
 10
468.7341933896324
 20
275.3376457924214
 30
0.0
 11
267.6821634085863
 21
275.3376457924214
 31
0.0
  0
LINE
  5
B9F
330
7C2
100
AcDbEntity
  8
SUNPOU
 62
     4
100
AcDbLine
 10
270.6821634085863
 20
299.6007457924214
 30
0.0
 11
270.6821634085863
 21
306.6007457924214
 31
0.0
  0
LINE
  5
BA0
330
7C2
100
AcDbEntity
  8
SUNPOU
 62
     4
100
AcDbLine
 10
270.6821634085863
 20
268.3376457924214
 30
0.0
 11
270.6821634085863
 21
261.3376457924214
 31
0.0
  0
LINE
  5
BA1
330
7C2
100
AcDbEntity
  8
SUNPOU
 62
     4
100
AcDbLine
 10
270.6821634085863
 20
292.6007457924214
 30
0.0
 11
270.6821634085863
 21
275.3376457924214
 31
0.0
  0
INSERT
  5
BA2
330
7C2
100
AcDbEntity
  8
SUNPOU
 62
     4
100
AcDbBlockReference
  2
_OPEN
 10
270.6821634085863
 20
292.6007457924214
 30
0.0
 41
7.0
 42
7.0
 43
7.0
 50
270.0
  0
INSERT
  5
BA3
330
7C2
100
AcDbEntity
  8
SUNPOU
 62
     4
100
AcDbBlockReference
  2
_OPEN
 10
270.6821634085863
 20
275.3376457924214
 30
0.0
 41
7.0
 42
7.0
 43
7.0
 50
90.0
  0
MTEXT
  5
BA4
330
7C2
100
AcDbEntity
  8
SUNPOU
 62
     4
100
AcDbMText
 10
265.6821634085862
 20
283.9691957924214
 30
0.0
 40
6.0
 41
0.0
 71
     5
 72
     1
  1
\A1;17
 11
0.0000000000000001
 21
1.0
 31
0.0
1001
ACAD
1000
MTEXTBEGIN
1070
    73
1070
     1
1070
    44
1040
1.0
1070
    74
1070
     0
1000
MTEXTEND
  0
POINT
  5
BA5
330
7C2
100
AcDbEntity
  8
DEFPOINTS
 62
     0
100
AcDbPoint
 10
295.4182933896325
 20
292.6007457924214
 30
0.0
  0
POINT
  5
BA6
330
7C2
100
AcDbEntity
  8
DEFPOINTS
 62
     0
100
AcDbPoint
 10
474.7341933896325
 20
275.3376457924214
 30
0.0
  0
POINT
  5
BA7
330
7C2
100
AcDbEntity
  8
DEFPOINTS
 62
     0
100
AcDbPoint
 10
270.6821634085863
 20
275.3376457924214
 30
0.0
  0
ENDBLK
  5
844
330
7C2
100
AcDbEntity
  8
0
100
AcDbBlockEnd
  0
ENDSEC
  0
SECTION
  2
ENTITIES
  0
DIMENSION
  5
3E0
330
1A
100
AcDbEntity
  8
SUNPOU
  6
CONTINUOUS
 62
     4
100
AcDbDimension
  2
*D1
 10
487.3178904973881
 20
243.8699302940381
 30
0.0
 11
507.2813806596188
 21
257.2381411145824
 31
0.0
 70
    33
  1
t<>
  3
STANDARD
100
AcDbAlignedDimension
 13
473.8056933896324
 23
274.9663457924213
 33
0.0
 14
474.7341933896324
 24
275.3376457924213
 34
0.0
1001
ACAD
1000
DSTYLE
1002
{
1070
   140
1040
6.0
1070
    74
1070
     0
1070
   172
1070
     1
1070
    73
1070
     0
1070
   272
1070
     2
1070
    77
1070
     3
1070
   173
1070
     1
1070
   147
1040
2.0
1070
    42
1040
6.0
1070
    44
1040
3.0
1070
    43
1040
14.0
1070
   271
1070
     1
1070
   178
1070
     4
1070
   177
1070
     4
1070
   176
1070
     4
1070
   141
1040
150.0
1070
     7
1000
_OPEN
1070
     6
1000
_OPEN
1070
    41
1040
7.0
1002
}
  0
LINE
  5
3E2
330
1A
100
AcDbEntity
  8
CENTER_L
  6
CENTER
 62
     1
 48
5.0
100
AcDbLine
 10
481.2301933896327
 20
446.2567974172714
 30
0.0
 11
292.3266933896325
 21
446.2567974172714
 31
0.0
  0
LINE
  5
3E3
330
1A
100
AcDbEntity
  8
SEIHIN
  6
PHANTOM
 62
     6
 48
5.0
100
AcDbLine
 10
484.1632933896325
 20
114.8681081409994
 30
0.0
 11
471.1654933896325
 21
147.3652081409995
 31
0.0
  0
LINE
  5
3E4
330
1A
100
AcDbEntity
  8
SEIHIN
  6
PHANTOM
 62
     6
 48
5.0
100
AcDbLine
 10
472.5448933896324
 20
160.0729081409995
 30
0.0
 11
489.7341933896324
 21
117.0963081409995
 31
0.0
  0
LINE
  5
3E5
330
1A
100
AcDbEntity
  8
SEIHIN
  6
PHANTOM
 62
     6
 48
5.0
100
AcDbLine
 10
488.8056933896325
 20
116.7250081409995
 30
0.0
 11
475.8078933896324
 21
149.2220081409994
 31
0.0
  0
LINE
  5
3E6
330
1A
100
AcDbEntity
  8
SEIHIN
  6
PHANTOM
 62
     6
 48
5.0
100
AcDbLine
 10
488.8056933896325
 20
274.9663457924214
 30
0.0
 11
475.8078933896324
 21
307.4633457924213
 31
0.0
  0
LINE
  5
3E7
330
1A
100
AcDbEntity
  8
SEIHIN
  6
PHANTOM
 62
     6
 48
5.0
100
AcDbLine
 10
472.5448933896324
 20
318.3142457924214
 30
0.0
 11
489.7341933896324
 21
275.3376457924214
 31
0.0
  0
LINE
  5
3E8
330
1A
100
AcDbEntity
  8
SEIHIN
  6
PHANTOM
 62
     6
 48
5.0
100
AcDbLine
 10
484.1632933896325
 20
273.1094457924213
 30
0.0
 11
471.1654933896325
 21
305.6065457924214
 31
0.0
  0
LINE
  5
3EE
330
1A
100
AcDbEntity
  8
NOKOTOI
  6
PHANTOM
 62
     8
 48
5.0
100
AcDbLine
 10
314.5874307018802
 20
85.54617095313631
 30
0.0
 11
359.4168307018803
 21
85.54627095313628
 31
0.0
  0
LINE
  5
3EF
330
1A
100
AcDbEntity
  8
NOKOTOI
  6
PHANTOM
 62
     8
 48
5.0
100
AcDbLine
 10
359.4168307018803
 20
86.74627095313633
 30
0.0
 11
314.8372307018803
 21
86.74617095313635
 31
0.0
  0
LINE
  5
3F0
330
1A
100
AcDbEntity
  8
SEIHIN
  6
CONTINUOUS
 62
     3
100
AcDbLine
 10
346.1659933896325
 20
130.5594081409994
 30
0.0
 11
362.4868933896324
 21
152.0341081409996
 31
0.0
  0
ARC
  5
3F1
330
1A
100
AcDbEntity
  8
SEIHIN
  6
CONTINUOUS
 62
     3
100
AcDbCircle
 10
346.165816143253
 20
130.5591698254319
 30
0.0
 40
10.9999616844559
100
AcDbArc
 50
269.9998814826396
 51
322.7653693155637
  0
ARC
  5
3F2
330
1A
100
AcDbEntity
  8
NOKOTOI
  6
PHANTOM
 62
     8
 48
5.0
100
AcDbCircle
 10
359.4168469283376
 20
128.5462854295063
 30
0.0
 40
43.00001447645168
100
AcDbArc
 50
270.0001116248559
 51
353.4750892928819
  0
ARC
  5
3F3
330
1A
100
AcDbEntity
  8
NOKOTOI
  6
PHANTOM
 62
     8
 48
5.0
100
AcDbCircle
 10
359.4168246199124
 20
128.5462653284799
 30
0.0
 40
41.79999437547816
100
AcDbArc
 50
270.0001454078912
 51
355.525704787475
  0
LINE
  5
3F5
330
1A
100
AcDbEntity
  8
SEIHIN
  6
CONTINUOUS
 62
     3
100
AcDbLine
 10
311.7296933896325
 20
129.3594081409995
 30
0.0
 11
326.1659933896324
 21
129.3594081409995
 31
0.0
  0
LINE
  5
3F6
330
1A
100
AcDbEntity
  8
SEIHIN
  6
CONTINUOUS
 62
     3
100
AcDbLine
 10
309.7295933896324
 20
120.3596081409995
 30
0.0
 11
332.3656863021586
 21
120.3595152284734
 31
0.0
  0
LINE
  5
3F7
330
1A
100
AcDbEntity
  8
SEIHIN
  6
CONTINUOUS
 62
     3
100
AcDbLine
 10
332.7656858328592
 20
119.9595156977727
 30
0.0
 11
311.6425933896324
 21
119.9596081409995
 31
0.0
  0
LINE
  5
3F8
330
1A
100
AcDbEntity
  8
SEIHIN
  6
CONTINUOUS
 62
     3
100
AcDbLine
 10
309.7295933896324
 20
120.3594081409994
 30
0.0
 11
309.7296933896325
 21
127.3594081409995
 31
0.0
  0
LINE
  5
3F9
330
1A
100
AcDbEntity
  8
SEIHIN
  6
CONTINUOUS
 62
     3
100
AcDbLine
 10
308.3821933896325
 20
121.0229081409995
 30
0.0
 11
303.1927933896324
 21
127.7691081409995
 31
0.0
  0
ARC
  5
3FA
330
1A
100
AcDbEntity
  8
SEIHIN
  6
CONTINUOUS
 62
     3
100
AcDbCircle
 10
301.4153674194395
 20
125.1594209286631
 30
0.0
 40
0.9999872126736152
100
AcDbArc
 50
37.56745337482073
 51
89.99851199852507
  0
LINE
  5
3FB
330
1A
100
AcDbEntity
  8
SEIHIN
  6
CONTINUOUS
 62
     3
100
AcDbLine
 10
309.3332933896324
 20
121.7545081409995
 30
0.0
 11
304.1439933896325
 21
128.5007081409995
 31
0.0
  0
ARC
  5
3FC
330
1A
100
AcDbEntity
  8
SEIHIN
  6
CONTINUOUS
 62
     3
100
AcDbCircle
 10
297.5682933896324
 20
128.1594081409995
 30
0.0
 40
2.0
100
AcDbArc
 50
180.0
 51
270.0
  0
ARC
  5
3FD
330
1A
100
AcDbEntity
  8
NOKOTOI
  6
PHANTOM
 62
     8
 48
5.0
100
AcDbCircle
 10
407.6288171297419
 20
127.7462577980498
 30
0.0
 40
1.999986844959662
100
AcDbArc
 50
270.0003888156776
 51
358.2124468147636
  0
LINE
  5
3FE
330
1A
100
AcDbEntity
  8
NOKOTOI
  6
PHANTOM
 62
     8
 48
5.0
100
AcDbLine
 10
411.1659307018803
 20
138.4837709531362
 30
0.0
 11
410.7757307018805
 21
125.9994709531362
 31
0.0
  0
LINE
  5
3FF
330
1A
100
AcDbEntity
  8
NOKOTOI
  6
PHANTOM
 62
     8
 48
5.0
100
AcDbLine
 10
401.5879307018799
 20
125.7462709531363
 30
0.0
 11
407.6288307018804
 21
125.7462709531363
 31
0.0
  0
ARC
  5
400
330
1A
100
AcDbEntity
  8
NOKOTOI
  6
PHANTOM
 62
     8
 48
5.0
100
AcDbCircle
 10
403.1318391260429
 20
123.5462784681927
 30
0.0
 40
0.9999924849789756
100
AcDbArc
 50
90.00048267259112
 51
173.4717353933255
  0
ARC
  5
401
330
1A
100
AcDbEntity
  8
NOKOTOI
  6
PHANTOM
 62
     8
 48
5.0
100
AcDbCircle
 10
409.2764947427294
 20
126.046236098993
 30
0.0
 40
1.499965146287778
100
AcDbArc
 50
270.0013735703023
 51
358.2133719782232
  0
LINE
  5
402
330
1A
100
AcDbEntity
  8
NOKOTOI
  6
PHANTOM
 62
     8
 48
5.0
100
AcDbLine
 10
409.2765307018803
 20
124.5462709531362
 30
0.0
 11
403.1318307018805
 21
124.5462709531362
 31
0.0
  0
ARC
  5
403
330
1A
100
AcDbEntity
  8
SEIHIN
  6
CONTINUOUS
 62
     3
100
AcDbCircle
 10
307.6731236367525
 20
121.9446134624953
 30
0.0
 40
1.999976068475972
100
AcDbArc
 50
217.5685338776674
 51
313.7087763789515
  0
LINE
  5
404
330
1A
100
AcDbEntity
  8
SEIHIN
  6
CONTINUOUS
 62
     3
100
AcDbLine
 10
302.2079933896324
 20
125.7691081409995
 30
0.0
 11
306.0878933896324
 21
120.7252081409995
 31
0.0
  0
ARC
  5
405
330
1A
100
AcDbEntity
  8
NOKOTOI
  6
PHANTOM
 62
     8
 48
5.0
100
AcDbCircle
 10
401.587918132172
 20
125.2462593284066
 30
0.0
 40
0.5000116248877111
100
AcDbArc
 50
89.99855965101662
 51
175.5251531916571
  0
ARC
  5
406
330
1A
100
AcDbEntity
  8
SEIHIN
  6
CONTINUOUS
 62
     3
100
AcDbCircle
 10
309.7296754148771
 20
122.0594169908428
 30
0.0
 40
0.5000088501664889
100
AcDbArc
 50
217.5755423139518
 51
270.0020597187759
  0
LINE
  5
407
330
1A
100
AcDbEntity
  8
SEIHIN
  6
CONTINUOUS
 62
     3
100
AcDbLine
 10
311.6425933896324
 20
119.9594081409994
 30
0.0
 11
311.6425933896324
 21
120.3594081409994
 31
0.0
  0
ARC
  5
408
330
1A
100
AcDbEntity
  8
SEIHIN
  6
CONTINUOUS
 62
     3
100
AcDbCircle
 10
309.7296474455108
 20
122.0593815244063
 30
0.0
 40
1.699973384266265
100
AcDbArc
 50
217.5677976318758
 51
269.9981781045996
  0
ARC
  5
409
330
1A
100
AcDbEntity
  8
NOKOTOI
  6
PHANTOM
 62
     8
 48
5.0
100
AcDbCircle
 10
402.8890369030382
 20
137.5462774882215
 30
0.0
 40
0.4999934649531607
100
AcDbArc
 50
90.00071060961996
 51
183.0044636796616
  0
LINE
  5
40A
330
1A
100
AcDbEntity
  8
NOKOTOI
  6
PHANTOM
 62
     8
 48
5.0
100
AcDbLine
 10
402.7054307018802
 20
131.5200709531362
 30
0.0
 11
402.3896307018803
 21
137.5199709531363
 31
0.0
  0
LINE
  5
40B
330
1A
100
AcDbEntity
  8
SEIHIN
  6
CONTINUOUS
 62
     3
100
AcDbLine
 10
301.4153933896325
 20
126.1594081409995
 30
0.0
 11
297.5682933896324
 21
126.1594081409995
 31
0.0
  0
LINE
  5
40C
330
1A
100
AcDbEntity
  8
SEIHIN
  6
CONTINUOUS
 62
     3
100
AcDbLine
 10
295.5682933896324
 20
128.1594081409995
 30
0.0
 11
302.4001933896324
 21
128.1594081409995
 31
0.0
  0
LINE
  5
40D
330
1A
100
AcDbEntity
  8
SEIHIN
  6
CONTINUOUS
 62
     3
100
AcDbLine
 10
295.5682933896324
 20
129.3594081409995
 30
0.0
 11
302.4001933896324
 21
129.3594081409995
 31
0.0
  0
LINE
  5
40E
330
1A
100
AcDbEntity
  8
NOKOTOI
  6
PHANTOM
 62
     8
 48
5.0
100
AcDbLine
 10
406.6941307018801
 20
139.3462709531364
 30
0.0
 11
407.1941307018801
 21
136.8462709531364
 31
0.0
  0
LINE
  5
40F
330
1A
100
AcDbEntity
  8
NOKOTOI
  6
PHANTOM
 62
     8
 48
5.0
100
AcDbLine
 10
409.9665307018799
 20
138.5212709531361
 30
0.0
 11
409.8171307018806
 21
133.7423709531364
 31
0.0
  0
LINE
  5
410
330
1A
100
AcDbEntity
  8
NOKOTOI
  6
PHANTOM
 62
     8
 48
5.0
100
AcDbLine
 10
407.1941307018801
 20
136.8462709531364
 30
0.0
 11
404.2576307018803
 21
136.8462709531364
 31
0.0
  0
LINE
  5
411
330
1A
100
AcDbEntity
  8
NOKOTOI
  6
PHANTOM
 62
     8
 48
5.0
100
AcDbLine
 10
405.25343070188
 20
135.7462709531363
 30
0.0
 11
405.7153307018802
 21
135.7462709531363
 31
0.0
  0
ARC
  5
412
330
1A
100
AcDbEntity
  8
NOKOTOI
  6
PHANTOM
 62
     8
 48
5.0
100
AcDbCircle
 10
406.1101164834649
 20
134.0239563188353
 30
0.0
 40
0.5000073448410256
100
AcDbArc
 50
83.5217071700316
 51
188.1270521358757
  0
LINE
  5
413
330
1A
100
AcDbEntity
  8
NOKOTOI
  6
PHANTOM
 62
     8
 48
5.0
100
AcDbLine
 10
405.25343070188
 20
135.7462709531363
 30
0.0
 11
404.2576307018803
 21
136.8462709531364
 31
0.0
  0
LINE
  5
414
330
1A
100
AcDbEntity
  8
NOKOTOI
  6
PHANTOM
 62
     8
 48
5.0
100
AcDbLine
 10
404.2427307018802
 20
135.0746709531362
 30
0.0
 11
403.6877307018803
 21
135.6877709531364
 31
0.0
  0
LINE
  5
415
330
1A
100
AcDbEntity
  8
NOKOTOI
  6
PHANTOM
 62
     8
 48
5.0
100
AcDbLine
 10
403.8689307018803
 20
132.2462709531363
 30
0.0
 11
404.6468307018799
 21
132.2462709531363
 31
0.0
  0
LINE
  5
416
330
1A
100
AcDbEntity
  8
NOKOTOI
  6
PHANTOM
 62
     8
 48
5.0
100
AcDbLine
 10
403.8689307018803
 20
132.2462709531363
 30
0.0
 11
403.6877307018803
 21
135.6877709531364
 31
0.0
  0
LINE
  5
417
330
1A
100
AcDbEntity
  8
NOKOTOI
  6
PHANTOM
 62
     8
 48
5.0
100
AcDbLine
 10
404.6468307018799
 20
132.2462709531363
 30
0.0
 11
404.2427307018802
 21
135.0746709531362
 31
0.0
  0
LINE
  5
418
330
1A
100
AcDbEntity
  8
SEIHIN
  6
CONTINUOUS
 62
     3
100
AcDbLine
 10
296.5672933896324
 20
134.0131081409995
 30
0.0
 11
295.4182933896325
 21
134.3594081409995
 31
0.0
  0
ARC
  5
419
330
1A
100
AcDbEntity
  8
NOKOTOI
  6
PHANTOM
 62
     8
 48
5.0
100
AcDbCircle
 10
403.2048375888753
 20
131.5462644180507
 30
0.0
 40
0.499993464961963
100
AcDbArc
 50
183.0029638682573
 51
269.9992107982126
  0
ARC
  5
41A
330
1A
100
AcDbEntity
  8
NOKOTOI
  6
PHANTOM
 62
     8
 48
5.0
100
AcDbCircle
 10
405.4539041012827
 20
131.5462402762542
 30
0.0
 40
0.4999693238254178
100
AcDbArc
 50
270.0030483909652
 51
8.144496122946778
  0
LINE
  5
41B
330
1A
100
AcDbEntity
  8
NOKOTOI
  6
PHANTOM
 62
     8
 48
5.0
100
AcDbLine
 10
403.2048307018803
 20
131.0462709531362
 30
0.0
 11
405.4539307018804
 21
131.0462709531362
 31
0.0
  0
LINE
  5
41C
330
1A
100
AcDbEntity
  8
SEIHIN
  6
CONTINUOUS
 62
     3
100
AcDbLine
 10
295.4182933896325
 20
134.3594081409995
 30
0.0
 11
294.1320933896324
 21
130.0923081409995
 31
0.0
  0
LINE
  5
41D
330
1A
100
AcDbEntity
  8
NOKOTOI
  6
PHANTOM
 62
     8
 48
5.0
100
AcDbLine
 10
405.9488307018805
 20
131.6170709531364
 30
0.0
 11
405.6151307018803
 21
133.9532709531364
 31
0.0
  0
LINE
  5
41E
330
1A
100
AcDbEntity
  8
SEIHIN
  6
CONTINUOUS
 62
     3
100
AcDbLine
 10
296.5671933896325
 20
134.0131081409995
 30
0.0
 11
295.2810933896324
 21
129.7459081409995
 31
0.0
  0
ARC
  5
41F
330
1A
100
AcDbEntity
  8
NOKOTOI
  6
PHANTOM
 62
     8
 48
5.0
100
AcDbCircle
 10
405.7152104892111
 20
130.5463296815163
 30
0.0
 40
5.2000412730095
100
AcDbArc
 50
37.92420092094385
 51
89.99867545693838
  0
ARC
  5
420
330
1A
100
AcDbEntity
  8
NOKOTOI
  6
PHANTOM
 62
     8
 48
5.0
100
AcDbCircle
 10
405.7152928204336
 20
130.5463147356616
 30
0.0
 40
3.999989731271038
100
AcDbArc
 50
358.2100163932691
 51
83.52268857986855
  0
ARC
  5
421
330
1A
100
AcDbEntity
  8
SEIHIN
  6
CONTINUOUS
 62
     3
100
AcDbCircle
 10
295.568284368213
 20
129.6594202825679
 30
0.0
 40
1.500012141595575
100
AcDbArc
 50
163.2264655542263
 51
270.000344590047
  0
LINE
  5
422
330
1A
100
AcDbEntity
  8
NOKOTOI
  6
PHANTOM
 62
     8
 48
5.0
100
AcDbLine
 10
409.6278307018805
 20
127.6838709531363
 30
0.0
 11
409.7133307018802
 21
130.4213709531362
 31
0.0
  0
ARC
  5
423
330
1A
100
AcDbEntity
  8
SEIHIN
  6
CONTINUOUS
 62
     3
100
AcDbCircle
 10
295.5683036674413
 20
129.6593943070282
 30
0.0
 40
0.2999861662047845
100
AcDbArc
 50
163.2182955161044
 51
269.998036992576
  0
ARC
  5
424
330
1A
100
AcDbEntity
  8
NOKOTOI
  6
PHANTOM
 62
     8
 48
5.0
100
AcDbCircle
 10
409.1669179510303
 20
138.5462841082227
 30
0.0
 40
1.999986844954076
100
AcDbArc
 50
358.21169271173
 51
89.99963471264475
  0
ARC
  5
425
330
1A
100
AcDbEntity
  8
NOKOTOI
  6
PHANTOM
 62
     8
 48
5.0
100
AcDbCircle
 10
405.1205379564358
 20
138.5462798029797
 30
0.0
 40
0.5000088498959383
100
AcDbArc
 50
269.9991687038565
 51
11.31359566951149
  0
LINE
  5
426
330
1A
100
AcDbEntity
  8
NOKOTOI
  6
PHANTOM
 62
     8
 48
5.0
100
AcDbLine
 10
405.6108307018803
 20
138.6443709531362
 30
0.0
 11
405.3500307018802
 21
139.9482709531363
 31
0.0
  0
LINE
  5
427
330
1A
100
AcDbEntity
  8
NOKOTOI
  6
PHANTOM
 62
     8
 48
5.0
100
AcDbLine
 10
409.1669307018805
 20
139.3462709531364
 30
0.0
 11
406.6941307018801
 21
139.3462709531364
 31
0.0
  0
LINE
  5
428
330
1A
100
AcDbEntity
  8
NOKOTOI
  6
PHANTOM
 62
     8
 48
5.0
100
AcDbLine
 10
402.8890307018805
 20
138.0462709531362
 30
0.0
 11
405.1205307018803
 21
138.0462709531362
 31
0.0
  0
LINE
  5
429
330
1A
100
AcDbEntity
  8
NOKOTOI
  6
PHANTOM
 62
     8
 48
5.0
100
AcDbLine
 10
409.1669307018805
 20
140.5462709531362
 30
0.0
 11
405.8403307018802
 21
140.5462709531362
 31
0.0
  0
ARC
  5
42A
330
1A
100
AcDbEntity
  8
NOKOTOI
  6
PHANTOM
 62
     8
 48
5.0
100
AcDbCircle
 10
405.8403314848887
 20
140.046271908138
 30
0.0
 40
0.4999990449987349
100
AcDbArc
 50
90.00008972630549
 51
191.3032801984551
  0
ARC
  5
42B
330
1A
100
AcDbEntity
  8
NOKOTOI
  6
PHANTOM
 62
     8
 48
5.0
100
AcDbCircle
 10
409.1669262070822
 20
138.5462755906631
 30
0.0
 40
0.7999953624857498
100
AcDbArc
 50
358.20887265358
 51
89.99967808194661
  0
ARC
  5
42C
330
1A
100
AcDbEntity
  8
SEIHIN
  6
CONTINUOUS
 62
     3
100
AcDbCircle
 10
302.4001674194396
 20
127.1594209286629
 30
0.0
 40
0.9999872126737603
100
AcDbArc
 50
37.56745337482487
 51
89.99851199852916
  0
ARC
  5
42D
330
1A
100
AcDbEntity
  8
SEIHIN
  6
CONTINUOUS
 62
     3
100
AcDbCircle
 10
302.4002556238625
 20
127.159361625596
 30
0.0
 40
2.199961788340272
100
AcDbArc
 50
37.56879376349933
 51
68.88440707227092
  0
ARC
  5
42E
330
1A
100
AcDbEntity
  8
SEIHIN
  6
CONTINUOUS
 62
     3
100
AcDbCircle
 10
302.4000346381753
 20
127.1594377323064
 30
0.0
 40
2.199970414420935
100
AcDbArc
 50
68.87832412633047
 51
89.99586549508761
  0
ARC
  5
42F
330
1A
100
AcDbEntity
  8
SEIHIN
  6
CONTINUOUS
 62
     3
100
AcDbCircle
 10
311.7296933896325
 20
127.3594081409995
 30
0.0
 40
2.0
100
AcDbArc
 50
90.0
 51
180.0
  0
LINE
  5
430
330
1A
100
AcDbEntity
  8
SEIHIN
  6
CONTINUOUS
 62
     3
100
AcDbLine
 10
333.1659933896325
 20
119.5592081409995
 30
0.0
 11
326.1659933896324
 21
126.5592081409994
 31
0.0
  0
LINE
  5
431
330
1A
100
AcDbEntity
  8
CENTER_L
  6
CONTINUOUS
 62
     1
100
AcDbLine
 10
336.1659933896325
 20
139.9038081409995
 30
0.0
 11
336.1658933896324
 21
114.5265081409995
 31
0.0
  0
LINE
  5
432
330
1A
100
AcDbEntity
  8
SEIHIN
  6
CONTINUOUS
 62
     3
100
AcDbLine
 10
330.6661933896325
 20
119.1597081409994
 30
0.0
 11
341.6661933896325
 21
119.1598081409995
 31
0.0
  0
ARC
  5
433
330
1A
100
AcDbEntity
  8
SEIHIN
  6
CONTINUOUS
 62
     3
100
AcDbCircle
 10
336.1661933896324
 20
127.2067081409994
 30
0.0
 40
9.747010259561651
100
AcDbArc
 50
235.6479976531776
 51
304.3520023468224
  0
LINE
  5
434
330
1A
100
AcDbEntity
  8
SEIHIN
  6
CONTINUOUS
 62
     3
100
AcDbLine
 10
330.6661933896325
 20
119.1597081409994
 30
0.0
 11
330.6661933896325
 21
119.9596081409995
 31
0.0
  0
LINE
  5
435
330
1A
100
AcDbEntity
  8
SEIHIN
  6
CONTINUOUS
 62
     3
100
AcDbLine
 10
333.1659933896325
 20
119.5592081409995
 30
0.0
 11
346.1658933896324
 21
119.5592081409995
 31
0.0
  0
LINE
  5
436
330
1A
100
AcDbEntity
  8
SEIHIN
  6
CONTINUOUS
 62
     3
100
AcDbLine
 10
341.6661933896325
 20
119.1598081409995
 30
0.0
 11
341.6661933896325
 21
119.5593081409995
 31
0.0
  0
ARC
  5
437
330
1A
100
AcDbEntity
  8
SEIHIN
  6
CONTINUOUS
 62
     3
100
AcDbCircle
 10
330.0335525395429
 20
141.2226739898591
 30
0.0
 40
1.499955187663901
100
AcDbArc
 50
15.00067946834683
 51
105.0016680705982
  0
ARC
  5
438
330
1A
100
AcDbEntity
  8
SEIHIN
  6
CONTINUOUS
 62
     3
100
AcDbCircle
 10
331.0732367715408
 20
135.7365980313304
 30
0.0
 40
0.5000099135294415
100
AcDbArc
 50
222.8722729487933
 51
337.3828182613812
  0
ARC
  5
439
330
1A
100
AcDbEntity
  8
SEIHIN
  6
CONTINUOUS
 62
     3
100
AcDbCircle
 10
337.3021235762551
 20
141.5202726063527
 30
0.0
 40
9.999949112462923
100
AcDbArc
 50
205.0000212034001
 51
235.6951561184302
  0
LINE
  5
43A
330
1A
100
AcDbEntity
  8
SEIHIN
  6
CONTINUOUS
 62
     3
100
AcDbLine
 10
330.5164933896324
 20
141.3521081409994
 30
0.0
 11
331.8179933896323
 21
136.4945081409995
 31
0.0
  0
LINE
  5
43B
330
1A
100
AcDbEntity
  8
SEIHIN
  6
CONTINUOUS
 62
     3
100
AcDbLine
 10
346.1659933896325
 20
130.5594081409994
 30
0.0
 11
326.1659933896324
 21
130.5594081409994
 31
0.0
  0
LINE
  5
43C
330
1A
100
AcDbEntity
  8
SEIHIN
  6
CONTINUOUS
 62
     3
100
AcDbLine
 10
330.6661933896325
 20
132.0598081409995
 30
0.0
 11
336.1661933896324
 21
132.0598081409995
 31
0.0
  0
LINE
  5
43D
330
1A
100
AcDbEntity
  8
SEIHIN
  6
CONTINUOUS
 62
     3
100
AcDbLine
 10
326.9216933896324
 20
140.1192081409995
 30
0.0
 11
328.2390933896325
 21
137.2941081409995
 31
0.0
  0
LINE
  5
43E
330
1A
100
AcDbEntity
  8
SEIHIN
  6
CONTINUOUS
 62
     3
100
AcDbLine
 10
329.1453933896324
 20
137.7167081409995
 30
0.0
 11
327.8279933896324
 21
140.5418081409995
 31
0.0
  0
ARC
  5
43F
330
1A
100
AcDbEntity
  8
SEIHIN
  6
CONTINUOUS
 62
     3
100
AcDbCircle
 10
337.3021937478145
 20
141.5201590112599
 30
0.0
 40
8.999979478072326
100
AcDbArc
 50
204.9992637640242
 51
222.8763402962061
  0
LINE
  5
440
330
1A
100
AcDbEntity
  8
SEIHIN
  6
CONTINUOUS
 62
     3
100
AcDbLine
 10
330.6661933896325
 20
132.0598081409995
 30
0.0
 11
330.6661933896325
 21
130.5598081409995
 31
0.0
  0
LINE
  5
441
330
1A
100
AcDbEntity
  8
SEIHIN
  6
CONTINUOUS
 62
     3
100
AcDbLine
 10
326.1659933896324
 20
126.5592081409994
 30
0.0
 11
326.1659933896324
 21
130.5592081409994
 31
0.0
  0
LINE
  5
442
330
1A
100
AcDbEntity
  8
SEIHIN
  6
CONTINUOUS
 62
     3
100
AcDbLine
 10
329.6451933896324
 20
142.6715081409994
 30
0.0
 11
327.8928933896325
 21
142.2020081409995
 31
0.0
  0
LINE
  5
443
330
1A
100
AcDbEntity
  8
SEIHIN
  6
CONTINUOUS
 62
     3
100
AcDbLine
 10
328.1516933896323
 20
141.2361081409995
 30
0.0
 11
329.9040933896324
 21
141.7056081409995
 31
0.0
  0
ARC
  5
444
330
1A
100
AcDbEntity
  8
SEIHIN
  6
CONTINUOUS
 62
     3
100
AcDbCircle
 10
330.0335525385224
 20
141.2226739904484
 30
0.0
 40
0.4999850647767359
100
AcDbArc
 50
15.0033804254307
 51
105.0063462322123
  0
ARC
  5
445
330
1A
100
AcDbEntity
  8
SEIHIN
  6
CONTINUOUS
 62
     3
100
AcDbCircle
 10
328.2811921289777
 20
140.7531054378453
 30
0.0
 40
0.5000356437279977
100
AcDbArc
 50
104.9976264979352
 51
204.9965994016779
  0
ARC
  5
446
330
1A
100
AcDbEntity
  8
SEIHIN
  6
CONTINUOUS
 62
     3
100
AcDbCircle
 10
328.2809879635264
 20
140.7529965054016
 30
0.0
 40
1.500013318264763
100
AcDbArc
 50
104.9985194361924
 51
204.9981179307406
  0
LINE
  5
447
330
1A
100
AcDbEntity
  8
SEIHIN
  6
CONTINUOUS
 62
     3
100
AcDbLine
 10
343.1870933896324
 20
137.7167081409995
 30
0.0
 11
344.5043933896325
 21
140.5418081409995
 31
0.0
  0
LINE
  5
448
330
1A
100
AcDbEntity
  8
SEIHIN
  6
CONTINUOUS
 62
     3
100
AcDbLine
 10
345.4107933896324
 20
140.1192081409995
 30
0.0
 11
344.0933933896324
 21
137.2941081409995
 31
0.0
  0
LINE
  5
449
330
1A
100
AcDbEntity
  8
SEIHIN
  6
CONTINUOUS
 62
     3
100
AcDbLine
 10
341.8159933896323
 20
141.3520081409994
 30
0.0
 11
340.5143933896324
 21
136.4945081409995
 31
0.0
  0
LINE
  5
44A
330
1A
100
AcDbEntity
  8
SEIHIN
  6
CONTINUOUS
 62
     3
100
AcDbLine
 10
339.4161933896325
 20
136.2598081409994
 30
0.0
 11
340.8499933896325
 21
141.6109081409995
 31
0.0
  0
LINE
  5
44B
330
1A
100
AcDbEntity
  8
SEIHIN
  6
CONTINUOUS
 62
     3
100
AcDbLine
 10
332.9161933896325
 20
136.2598081409994
 30
0.0
 11
331.4823933896324
 21
141.6109081409995
 31
0.0
  0
LINE
  5
44C
330
1A
100
AcDbEntity
  8
SEIHIN
  6
CONTINUOUS
 62
     3
100
AcDbLine
 10
336.1661933896324
 20
136.2598081409994
 30
0.0
 11
339.4161933896325
 21
136.2598081409994
 31
0.0
  0
LINE
  5
44D
330
1A
100
AcDbEntity
  8
SEIHIN
  6
CONTINUOUS
 62
     3
100
AcDbLine
 10
340.6661933896324
 20
133.2598081409995
 30
0.0
 11
336.1661933896324
 21
133.2598081409995
 31
0.0
  0
LINE
  5
44E
330
1A
100
AcDbEntity
  8
SEIHIN
  6
CONTINUOUS
 62
     3
100
AcDbLine
 10
341.6661933896325
 20
132.0597081409994
 30
0.0
 11
336.1661933896324
 21
132.0598081409995
 31
0.0
  0
LINE
  5
44F
330
1A
100
AcDbEntity
  8
SEIHIN
  6
CONTINUOUS
 62
     3
100
AcDbLine
 10
336.1661933896324
 20
136.2598081409994
 30
0.0
 11
332.9161933896325
 21
136.2598081409994
 31
0.0
  0
LINE
  5
450
330
1A
100
AcDbEntity
  8
SEIHIN
  6
CONTINUOUS
 62
     3
100
AcDbLine
 10
336.1661933896324
 20
137.5597081409995
 30
0.0
 11
333.6661933896323
 21
137.5597081409995
 31
0.0
  0
LINE
  5
451
330
1A
100
AcDbEntity
  8
SEIHIN
  6
CONTINUOUS
 62
     3
100
AcDbLine
 10
333.6661933896323
 20
137.5597081409995
 30
0.0
 11
333.6661933896323
 21
136.2598081409994
 31
0.0
  0
LINE
  5
452
330
1A
100
AcDbEntity
  8
SEIHIN
  6
CONTINUOUS
 62
     3
100
AcDbLine
 10
338.6661933896324
 20
137.5598081409995
 30
0.0
 11
338.6661933896324
 21
136.2598081409994
 31
0.0
  0
LINE
  5
453
330
1A
100
AcDbEntity
  8
SEIHIN
  6
CONTINUOUS
 62
     3
100
AcDbLine
 10
336.1661933896324
 20
137.5597081409995
 30
0.0
 11
338.6661933896324
 21
137.5598081409995
 31
0.0
  0
ARC
  5
454
330
1A
100
AcDbEntity
  8
SEIHIN
  6
CONTINUOUS
 62
     3
100
AcDbCircle
 10
331.335100793248
 20
136.3652192719359
 30
0.0
 40
0.4999974598195006
100
AcDbArc
 50
337.3671721304245
 51
14.98576480169959
  0
LINE
  5
455
330
1A
100
AcDbEntity
  8
SEIHIN
  6
CONTINUOUS
 62
     3
100
AcDbLine
 10
331.7965933896325
 20
136.1728081409994
 30
0.0
 11
331.5347933896325
 21
135.5443081409995
 31
0.0
  0
LINE
  5
456
330
1A
100
AcDbEntity
  8
SEIHIN
  6
CONTINUOUS
 62
     3
100
AcDbLine
 10
331.6661933896323
 20
133.2598081409995
 30
0.0
 11
336.1661933896324
 21
133.2598081409995
 31
0.0
  0
LINE
  5
457
330
1A
100
AcDbEntity
  8
SEIHIN
  6
CONTINUOUS
 62
     3
100
AcDbLine
 10
331.6661933896323
 20
133.2598081409995
 30
0.0
 11
332.1661933896324
 21
132.0598081409995
 31
0.0
  0
LINE
  5
458
330
1A
100
AcDbEntity
  8
SEIHIN
  6
CONTINUOUS
 62
     3
100
AcDbLine
 10
331.6661933896323
 20
133.2598081409995
 30
0.0
 11
332.9161933896325
 21
136.2598081409994
 31
0.0
  0
ARC
  5
459
330
1A
100
AcDbEntity
  8
SEIHIN
  6
CONTINUOUS
 62
     3
100
AcDbCircle
 10
335.0304321331898
 20
141.5203537481878
 30
0.0
 40
9.999920933090301
100
AcDbArc
 50
304.3037823193786
 51
334.9993905325116
  0
ARC
  5
45A
330
1A
100
AcDbEntity
  8
SEIHIN
  6
CONTINUOUS
 62
     3
100
AcDbCircle
 10
335.0304246909166
 20
141.520354653539
 30
0.0
 40
8.999942836094264
100
AcDbArc
 50
317.1217434871924
 51
334.9992531995025
  0
ARC
  5
45B
330
1A
100
AcDbEntity
  8
SEIHIN
  6
CONTINUOUS
 62
     3
100
AcDbCircle
 10
340.9973955006829
 20
136.3650764349893
 30
0.0
 40
0.5000436038986758
100
AcDbArc
 50
164.9987072436322
 51
202.6128928591178
  0
ARC
  5
45C
330
1A
100
AcDbEntity
  8
SEIHIN
  6
CONTINUOUS
 62
     3
100
AcDbCircle
 10
341.2592071198625
 20
135.7366056883796
 30
0.0
 40
0.4999732692047842
100
AcDbArc
 50
202.6198818504083
 51
317.1226310282012
  0
LINE
  5
45D
330
1A
100
AcDbEntity
  8
SEIHIN
  6
CONTINUOUS
 62
     3
100
AcDbLine
 10
340.5357933896325
 20
136.1728081409994
 30
0.0
 11
340.7976933896324
 21
135.5443081409995
 31
0.0
  0
LINE
  5
45E
330
1A
100
AcDbEntity
  8
SEIHIN
  6
CONTINUOUS
 62
     3
100
AcDbLine
 10
341.6661933896325
 20
132.0597081409994
 30
0.0
 11
341.6661933896325
 21
130.5594081409994
 31
0.0
  0
LINE
  5
45F
330
1A
100
AcDbEntity
  8
SEIHIN
  6
CONTINUOUS
 62
     3
100
AcDbLine
 10
340.6661933896324
 20
133.2598081409995
 30
0.0
 11
340.1661933896324
 21
132.0598081409995
 31
0.0
  0
LINE
  5
460
330
1A
100
AcDbEntity
  8
SEIHIN
  6
CONTINUOUS
 62
     3
100
AcDbLine
 10
340.6661933896324
 20
133.2598081409995
 30
0.0
 11
339.4161933896325
 21
136.2598081409994
 31
0.0
  0
ARC
  5
461
330
1A
100
AcDbEntity
  8
SEIHIN
  6
CONTINUOUS
 62
     3
100
AcDbCircle
 10
342.29896839168
 20
141.2226514349646
 30
0.0
 40
0.4999980099950316
100
AcDbArc
 50
74.99810297410987
 51
165.0062046620936
  0
ARC
  5
462
330
1A
100
AcDbEntity
  8
SEIHIN
  6
CONTINUOUS
 62
     3
100
AcDbCircle
 10
342.2989525417419
 20
141.2226422883308
 30
0.0
 40
1.499981071547203
100
AcDbArc
 50
74.99932064192377
 51
164.9983318191334
  0
LINE
  5
463
330
1A
100
AcDbEntity
  8
SEIHIN
  6
CONTINUOUS
 62
     3
100
AcDbLine
 10
344.1806933896324
 20
141.2360081409995
 30
0.0
 11
342.4283933896325
 21
141.7056081409995
 31
0.0
  0
LINE
  5
464
330
1A
100
AcDbEntity
  8
SEIHIN
  6
CONTINUOUS
 62
     3
100
AcDbLine
 10
342.6871933896324
 20
142.6715081409994
 30
0.0
 11
344.4394933896325
 21
142.2020081409995
 31
0.0
  0
ARC
  5
465
330
1A
100
AcDbEntity
  8
SEIHIN
  6
CONTINUOUS
 62
     3
100
AcDbCircle
 10
344.051296294459
 20
140.7531019112276
 30
0.0
 40
0.4999420316314813
100
AcDbArc
 50
334.9988444911285
 51
74.99969437051221
  0
ARC
  5
466
330
1A
100
AcDbEntity
  8
SEIHIN
  6
CONTINUOUS
 62
     3
100
AcDbCircle
 10
344.0512738150549
 20
140.7531501177472
 30
0.0
 40
1.499968002867869
100
AcDbArc
 50
334.9988153855749
 51
75.0000281409186
  0
LINE
  5
467
330
1A
100
AcDbEntity
  8
SEIHIN
  6
PHANTOM
 62
     6
 48
5.0
100
AcDbLine
 10
476.7363933896325
 20
149.5933081409995
 30
0.0
 11
471.1654933896325
 21
147.3651081409995
 31
0.0
  0
LINE
  5
468
330
1A
100
AcDbEntity
  8
SEIHIN
  6
CONTINUOUS
 62
     3
100
AcDbLine
 10
461.7363933896324
 20
149.5933081409995
 30
0.0
 11
456.1654933896325
 21
147.3651081409995
 31
0.0
  0
ARC
  5
469
330
1A
100
AcDbEntity
  8
SEIHIN
  6
PHANTOM
 62
     6
 48
5.0
100
AcDbCircle
 10
465.6612307513842
 20
144.9703825749149
 30
0.0
 40
6.999940094806225
100
AcDbArc
 50
23.26908562337421
 51
87.96504191328031
  0
ARC
  5
46A
330
1A
100
AcDbEntity
  8
SEIHIN
  6
CONTINUOUS
 62
     3
100
AcDbCircle
 10
450.6612896927093
 20
144.970348893143
 30
0.0
 40
6.999996907048849
100
AcDbArc
 50
21.79987259441627
 51
95.00005236637898
  0
LINE
  5
46B
330
1A
100
AcDbEntity
  8
SEIHIN
  6
CONTINUOUS
 62
     3
100
AcDbLine
 10
457.5448933896324
 20
160.0729081409995
 30
0.0
 11
474.7341933896325
 21
117.0963081409995
 31
0.0
  0
LINE
  5
46C
330
1A
100
AcDbEntity
  8
SEIHIN
  6
CONTINUOUS
 62
     3
100
AcDbLine
 10
450.0511933896325
 20
151.9437081409995
 30
0.0
 11
375.8285933896324
 21
145.4504081409995
 31
0.0
  0
ARC
  5
46D
330
1A
100
AcDbEntity
  8
SEIHIN
  6
CONTINUOUS
 62
     3
100
AcDbCircle
 10
407.8927114325361
 20
137.3593499153984
 30
0.0
 40
6.999981957338497
100
AcDbArc
 50
0.0004765842577514
 51
34.43472123321579
  0
ARC
  5
46E
330
1A
100
AcDbEntity
  8
SEIHIN
  6
CONTINUOUS
 62
     3
100
AcDbCircle
 10
404.0927138091742
 20
138.4280613615412
 30
0.0
 40
9.999979580567696
100
AcDbArc
 50
0.0002680270994542
 51
47.1634405436477
  0
ARC
  5
46F
330
1A
100
AcDbEntity
  8
SEIHIN
  6
CONTINUOUS
 62
     3
100
AcDbCircle
 10
414.0926433896323
 20
124.3593581409994
 30
0.0
 40
0.7999500015625789
100
AcDbArc
 50
270.0035812100488
 51
0.0035812100487936
  0
LINE
  5
470
330
1A
100
AcDbEntity
  8
NOKOTOI
  6
PHANTOM
 62
     8
 48
5.0
100
AcDbLine
 10
300.32043070188
 20
123.6457709531363
 30
0.0
 11
303.1892307018801
 21
94.9583709531363
 31
0.0
  0
LINE
  5
471
330
1A
100
AcDbEntity
  8
NOKOTOI
  6
PHANTOM
 62
     8
 48
5.0
100
AcDbLine
 10
301.3614307018801
 20
125.2960709531363
 30
0.0
 11
304.3544307018805
 21
95.36627095313622
 31
0.0
  0
LINE
  5
472
330
1A
100
AcDbEntity
  8
NOKOTOI
  6
PHANTOM
 62
     8
 48
5.0
100
AcDbLine
 10
318.5874307018802
 20
85.54617095313631
 30
0.0
 11
338.7453307018799
 21
85.54617095313631
 31
0.0
  0
LINE
  5
473
330
1A
100
AcDbEntity
  8
NOKOTOI
  6
PHANTOM
 62
     8
 48
5.0
100
AcDbLine
 10
318.8372307018803
 20
86.74617095313635
 30
0.0
 11
338.7453307018799
 21
86.74617095313635
 31
0.0
  0
LINE
  5
474
330
1A
100
AcDbEntity
  8
NOKOTOI
  6
PHANTOM
 62
     8
 48
5.0
100
AcDbLine
 10
303.5510307018803
 20
94.28387095313643
 30
0.0
 11
313.9541307018803
 21
85.77217095313642
 31
0.0
  0
LINE
  5
475
330
1A
100
AcDbEntity
  8
NOKOTOI
  6
PHANTOM
 62
     8
 48
5.0
100
AcDbLine
 10
304.5353307018799
 20
95.02897095313631
 30
0.0
 11
314.5206307018802
 21
86.85917095313618
 31
0.0
  0
ARC
  5
476
330
1A
100
AcDbEntity
  8
NOKOTOI
  6
PHANTOM
 62
     8
 48
5.0
100
AcDbCircle
 10
314.8372243141316
 20
87.24617323312589
 30
0.0
 40
0.5000022800304047
100
AcDbArc
 50
230.7145501403941
 51
270.0007319787213
  0
ARC
  5
477
330
1A
100
AcDbEntity
  8
NOKOTOI
  6
PHANTOM
 62
     8
 48
5.0
100
AcDbCircle
 10
314.5874376344577
 20
86.5461684781302
 30
0.0
 40
0.9999975250179316
100
AcDbArc
 50
230.7053583247701
 51
269.9996027915957
  0
ARC
  5
478
330
1A
100
AcDbEntity
  8
NOKOTOI
  6
PHANTOM
 62
     8
 48
5.0
100
AcDbCircle
 10
304.8519481277585
 20
95.41593846674834
 30
0.0
 40
0.4999904508696396
100
AcDbArc
 50
185.7009889250754
 51
230.7099153622041
  0
ARC
  5
479
330
1A
100
AcDbEntity
  8
NOKOTOI
  6
PHANTOM
 62
     8
 48
5.0
100
AcDbCircle
 10
304.1842532747491
 20
95.0578288814637
 30
0.0
 40
0.9999908507640039
100
AcDbArc
 50
185.7137670522468
 51
230.7112907769303
  0
LINE
  5
47A
330
1A
100
AcDbEntity
  8
SEIHIN
  6
CONTINUOUS
 62
     3
100
AcDbLine
 10
384.5476933896323
 20
143.3025081409994
 30
0.0
 11
377.7116933896323
 21
133.5998081409995
 31
0.0
  0
LINE
  5
47B
330
1A
100
AcDbEntity
  8
SEIHIN
  6
CONTINUOUS
 62
     3
100
AcDbLine
 10
350.2848136813413
 20
120.3595121674159
 30
0.0
 11
394.8926933896325
 21
120.3594081409994
 31
0.0
  0
LINE
  5
47C
330
1A
100
AcDbEntity
  8
SEIHIN
  6
CONTINUOUS
 62
     3
100
AcDbLine
 10
396.4926933896323
 20
119.9594081409994
 30
0.0
 11
349.1062938925799
 21
119.9595119222156
 31
0.0
  0
LINE
  5
47D
330
1A
100
AcDbEntity
  8
SEIHIN
  6
CONTINUOUS
 62
     3
100
AcDbLine
 10
391.9050933896325
 20
138.1189081409995
 30
0.0
 11
380.8864933896323
 21
122.4796081409995
 31
0.0
  0
LINE
  5
47E
330
1A
100
AcDbEntity
  8
SEIHIN
  6
CONTINUOUS
 62
     3
100
AcDbLine
 10
354.9235933896324
 20
123.9033081409994
 30
0.0
 11
368.0296933896325
 21
141.1479081409995
 31
0.0
  0
LINE
  5
47F
330
1A
100
AcDbEntity
  8
SEIHIN
  6
CONTINUOUS
 62
     3
100
AcDbLine
 10
371.4426933896325
 20
119.3594081409995
 30
0.0
 11
367.2926933896325
 21
119.3594081409995
 31
0.0
  0
LINE
  5
480
330
1A
100
AcDbEntity
  8
SEIHIN
  6
CONTINUOUS
 62
     3
100
AcDbLine
 10
367.2926933896325
 20
119.3594081409995
 30
0.0
 11
367.2926933896325
 21
119.9594081409994
 31
0.0
  0
LINE
  5
481
330
1A
100
AcDbEntity
  8
SEIHIN
  6
CONTINUOUS
 62
     3
100
AcDbLine
 10
371.4426933896325
 20
119.3594081409995
 30
0.0
 11
371.4426933896325
 21
119.9594081409994
 31
0.0
  0
ARC
  5
482
330
1A
100
AcDbEntity
  8
SEIHIN
  6
CONTINUOUS
 62
     3
100
AcDbCircle
 10
376.7991017553215
 20
125.3594124803283
 30
0.0
 40
5.000004340503171
100
AcDbArc
 50
269.998758221752
 51
324.8330848798147
  0
LINE
  5
483
330
1A
100
AcDbEntity
  8
SEIHIN
  6
CONTINUOUS
 62
     3
100
AcDbLine
 10
359.0702939341507
 20
129.3594081409995
 30
0.0
 11
369.5368933896324
 21
129.3594081409995
 31
0.0
  0
ARC
  5
484
330
1A
100
AcDbEntity
  8
SEIHIN
  6
CONTINUOUS
 62
     3
100
AcDbCircle
 10
369.5369101231745
 20
139.3594168209918
 30
0.0
 40
10.00000868000633
100
AcDbArc
 50
269.9999041239499
 51
324.8330848664228
  0
ARC
  5
485
330
1A
100
AcDbEntity
  8
SEIHIN
  6
CONTINUOUS
 62
     3
100
AcDbCircle
 10
376.7873646842901
 20
134.491992306399
 30
0.0
 40
10.99997060431174
100
AcDbArc
 50
94.99979444444129
 51
142.7643961275752
  0
ARC
  5
486
330
1A
100
AcDbEntity
  8
NOKOTOI
  6
PHANTOM
 62
     8
 48
5.0
100
AcDbCircle
 10
294.8319927140559
 20
127.7462077737085
 30
0.0
 40
2.000036820932882
100
AcDbArc
 50
181.7889408725803
 51
270.001088250966
  0
LINE
  5
487
330
1A
100
AcDbEntity
  8
SEIHIN
  6
CONTINUOUS
 62
     3
100
AcDbLine
 10
397.3926933896325
 20
128.3594081409995
 30
0.0
 11
397.3926933896325
 21
120.8594081409995
 31
0.0
  0
LINE
  5
488
330
1A
100
AcDbEntity
  8
SEIHIN
  6
CONTINUOUS
 62
     3
100
AcDbLine
 10
395.7926933896324
 20
120.8594081409995
 30
0.0
 11
395.7926933896324
 21
128.3594081409995
 31
0.0
  0
LINE
  5
489
330
1A
100
AcDbEntity
  8
SEIHIN
  6
CONTINUOUS
 62
     3
100
AcDbLine
 10
395.3926933896325
 20
120.8594081409995
 30
0.0
 11
395.3926933896325
 21
128.3594081409995
 31
0.0
  0
LINE
  5
48A
330
1A
100
AcDbEntity
  8
NOKOTOI
  6
PHANTOM
 62
     8
 48
5.0
100
AcDbLine
 10
291.2949307018802
 20
138.4837709531362
 30
0.0
 11
291.6850307018803
 21
125.9993709531362
 31
0.0
  0
LINE
  5
48B
330
1A
100
AcDbEntity
  8
SEIHIN
  6
CONTINUOUS
 62
     3
100
AcDbLine
 10
414.0926933896325
 20
118.3093081409995
 30
0.0
 11
414.0926933896325
 21
138.4281081409994
 31
0.0
  0
LINE
  5
48C
330
1A
100
AcDbEntity
  8
SEIHIN
  6
CONTINUOUS
 62
     3
100
AcDbLine
 10
412.8926933896325
 20
137.3594081409995
 30
0.0
 11
412.8925933896323
 21
118.3093081409995
 31
0.0
  0
ARC
  5
48D
330
1A
100
AcDbEntity
  8
SEIHIN
  6
CONTINUOUS
 62
     3
100
AcDbCircle
 10
394.8926933896324
 20
120.8594081409995
 30
0.0
 40
0.5000000000000427
100
AcDbArc
 50
270.0000000000049
 51
0.0000000000048853
  0
ARC
  5
48E
330
1A
100
AcDbEntity
  8
SEIHIN
  6
CONTINUOUS
 62
     3
100
AcDbCircle
 10
396.4926933896323
 20
120.8594081409995
 30
0.0
 40
0.9000000000001193
100
AcDbArc
 50
269.9999999999982
 51
359.9999999999981
  0
ARC
  5
48F
330
1A
100
AcDbEntity
  8
SEIHIN
  6
CONTINUOUS
 62
     3
100
AcDbCircle
 10
394.8926933896324
 20
120.8594081409994
 30
0.0
 40
0.8999999999999772
100
AcDbArc
 50
270.0000000000072
 51
0.0000000000072375
  0
LINE
  5
490
330
1A
100
AcDbEntity
  8
NOKOTOI
  6
PHANTOM
 62
     8
 48
5.0
100
AcDbLine
 10
300.8639307018806
 20
125.7462709531363
 30
0.0
 11
294.8320307018803
 21
125.7462709531363
 31
0.0
  0
LINE
  5
491
330
1A
100
AcDbEntity
  8
NOKOTOI
  6
PHANTOM
 62
     8
 48
5.0
100
AcDbLine
 10
293.1843307018803
 20
124.5462709531362
 30
0.0
 11
299.3254307018801
 21
124.5462709531362
 31
0.0
  0
LINE
  5
492
330
1A
100
AcDbEntity
  8
SEIHIN
  6
CONTINUOUS
 62
     3
100
AcDbLine
 10
403.5425933896325
 20
123.7845081409995
 30
0.0
 11
412.4300933896324
 21
118.0571081409995
 31
0.0
  0
LINE
  5
493
330
1A
100
AcDbEntity
  8
SEIHIN
  6
CONTINUOUS
 62
     3
100
AcDbLine
 10
402.8924933896324
 20
122.7758081409995
 30
0.0
 11
411.7800933896324
 21
117.0484081409995
 31
0.0
  0
ARC
  5
494
330
1A
100
AcDbEntity
  8
NOKOTOI
  6
PHANTOM
 62
     8
 48
5.0
100
AcDbCircle
 10
300.8639176308756
 20
125.2462827834161
 30
0.0
 40
0.499988169890889
100
AcDbArc
 50
5.703393862284335
 51
89.99850213773372
  0
ARC
  5
495
330
1A
100
AcDbEntity
  8
NOKOTOI
  6
PHANTOM
 62
     8
 48
5.0
100
AcDbCircle
 10
299.3254100520394
 20
123.5462896409854
 30
0.0
 40
0.9999813123640345
100
AcDbArc
 50
5.709409966648967
 51
89.99881682915043
  0
LINE
  5
496
330
1A
100
AcDbEntity
  8
SEIHIN
  6
CONTINUOUS
 62
     3
100
AcDbLine
 10
402.8924933896324
 20
122.7758081409995
 30
0.0
 11
403.5425933896325
 21
123.7845081409995
 31
0.0
  0
ARC
  5
497
330
1A
100
AcDbEntity
  8
NOKOTOI
  6
PHANTOM
 62
     8
 48
5.0
100
AcDbCircle
 10
293.1843134887021
 20
126.046287636284
 30
0.0
 40
1.500016683246579
100
AcDbArc
 50
181.7923576755889
 51
270.0006574876651
  0
ARC
  5
498
330
1A
100
AcDbEntity
  8
SEIHIN
  6
CONTINUOUS
 62
     3
100
AcDbCircle
 10
412.5926070606984
 20
118.3092610836322
 30
0.0
 40
0.2999863326247858
100
AcDbArc
 50
237.1980432144553
 51
0.0089877046255219
  0
ARC
  5
499
330
1A
100
AcDbEntity
  8
SEIHIN
  6
CONTINUOUS
 62
     3
100
AcDbCircle
 10
412.5926621286173
 20
118.3092910970021
 30
0.0
 40
1.500031261111988
100
AcDbArc
 50
237.2004776243535
 51
0.000651019176963
  0
ARC
  5
49A
330
1A
100
AcDbEntity
  8
SEIHIN
  6
CONTINUOUS
 62
     3
100
AcDbCircle
 10
400.0799321729066
 20
132.3594282587901
 30
0.0
 40
9.999979882284605
100
AcDbArc
 50
90.00022221224
 51
144.8338713373227
  0
LINE
  5
49B
330
1A
100
AcDbEntity
  8
SEIHIN
  6
CONTINUOUS
 62
     3
100
AcDbLine
 10
397.3926933896325
 20
128.3594081409995
 30
0.0
 11
395.3926933896325
 21
128.3594081409995
 31
0.0
  0
ARC
  5
49C
330
1A
100
AcDbEntity
  8
SEIHIN
  6
CONTINUOUS
 62
     3
100
AcDbCircle
 10
400.07981821556
 20
132.3593221552098
 30
0.0
 40
19.00000581915131
100
AcDbArc
 50
132.842083766882
 51
144.8333222780726
  0
LINE
  5
49D
330
1A
100
AcDbEntity
  8
NOKOTOI
  6
PHANTOM
 62
     8
 48
5.0
100
AcDbLine
 10
292.4943307018807
 20
138.5212709531361
 30
0.0
 11
292.6436307018803
 21
133.7422709531364
 31
0.0
  0
ARC
  5
49E
330
1A
100
AcDbEntity
  8
NOKOTOI
  6
PHANTOM
 62
     8
 48
5.0
100
AcDbCircle
 10
299.571826992385
 20
137.546274863167
 30
0.0
 40
0.4999960899831856
100
AcDbArc
 50
356.9843782585345
 51
89.99957491984867
  0
LINE
  5
49F
330
1A
100
AcDbEntity
  8
NOKOTOI
  6
PHANTOM
 62
     8
 48
5.0
100
AcDbLine
 10
295.7666307018803
 20
139.3462709531364
 30
0.0
 11
295.2666307018803
 21
136.8462709531364
 31
0.0
  0
ARC
  5
4A0
330
1A
100
AcDbEntity
  8
SEIHIN
  6
CONTINUOUS
 62
     3
100
AcDbCircle
 10
407.8926933896325
 20
137.3594081409995
 30
0.0
 40
5.0
100
AcDbArc
 50
0.0
 51
90.0
  0
LINE
  5
4A1
330
1A
100
AcDbEntity
  8
NOKOTOI
  6
PHANTOM
 62
     8
 48
5.0
100
AcDbLine
 10
295.2666307018803
 20
136.8462709531364
 30
0.0
 11
298.2032307018803
 21
136.8462709531364
 31
0.0
  0
ARC
  5
4A2
330
1A
100
AcDbEntity
  8
NOKOTOI
  6
PHANTOM
 62
     8
 48
5.0
100
AcDbCircle
 10
296.7454485682314
 20
130.5462796815162
 30
0.0
 40
5.199991271650611
100
AcDbArc
 50
90.00019685927453
 51
142.074671395269
  0
ARC
  5
4A3
330
1A
100
AcDbEntity
  8
NOKOTOI
  6
PHANTOM
 62
     8
 48
5.0
100
AcDbCircle
 10
296.7454616288164
 20
130.5463066978001
 30
0.0
 40
3.99998565374706
100
AcDbArc
 50
96.47577619531674
 51
181.7913033408985
  0
LINE
  5
4A4
330
1A
100
AcDbEntity
  8
NOKOTOI
  6
PHANTOM
 62
     8
 48
5.0
100
AcDbLine
 10
297.2074307018802
 20
135.7462709531363
 30
0.0
 11
298.2032307018803
 21
136.8462709531364
 31
0.0
  0
LINE
  5
4A5
330
1A
100
AcDbEntity
  8
NOKOTOI
  6
PHANTOM
 62
     8
 48
5.0
100
AcDbLine
 10
298.2180307018802
 20
135.0746709531362
 30
0.0
 11
298.7730307018805
 21
135.6876709531362
 31
0.0
  0
LINE
  5
4A6
330
1A
100
AcDbEntity
  8
NOKOTOI
  6
PHANTOM
 62
     8
 48
5.0
100
AcDbLine
 10
297.2074307018802
 20
135.7462709531363
 30
0.0
 11
296.7454307018801
 21
135.7462709531363
 31
0.0
  0
ARC
  5
4A7
330
1A
100
AcDbEntity
  8
NOKOTOI
  6
PHANTOM
 62
     8
 48
5.0
100
AcDbCircle
 10
296.3507013293806
 20
134.0239011856311
 30
0.0
 40
0.4999578477751074
100
AcDbArc
 50
351.8669438287075
 51
96.47390928779223
  0
LINE
  5
4A8
330
1A
100
AcDbEntity
  8
NOKOTOI
  6
PHANTOM
 62
     8
 48
5.0
100
AcDbLine
 10
298.5919307018803
 20
132.2462709531363
 30
0.0
 11
297.8140307018806
 21
132.2462709531363
 31
0.0
  0
LINE
  5
4A9
330
1A
100
AcDbEntity
  8
NOKOTOI
  6
PHANTOM
 62
     8
 48
5.0
100
AcDbLine
 10
297.8140307018806
 20
132.2462709531363
 30
0.0
 11
298.2180307018802
 21
135.0746709531362
 31
0.0
  0
LINE
  5
4AA
330
1A
100
AcDbEntity
  8
NOKOTOI
  6
PHANTOM
 62
     8
 48
5.0
100
AcDbLine
 10
298.5919307018803
 20
132.2462709531363
 30
0.0
 11
298.7730307018805
 21
135.6876709531362
 31
0.0
  0
LINE
  5
4AB
330
1A
100
AcDbEntity
  8
NOKOTOI
  6
PHANTOM
 62
     8
 48
5.0
100
AcDbLine
 10
299.2560307018802
 20
131.0462709531362
 30
0.0
 11
297.0069307018807
 21
131.0462709531362
 31
0.0
  0
ARC
  5
4AC
330
1A
100
AcDbEntity
  8
NOKOTOI
  6
PHANTOM
 62
     8
 48
5.0
100
AcDbCircle
 10
299.2560265804736
 20
131.5462670431057
 30
0.0
 40
0.4999960899864752
100
AcDbArc
 50
270.0004722821405
 51
356.9852756208263
  0
ARC
  5
4AD
330
1A
100
AcDbEntity
  8
NOKOTOI
  6
PHANTOM
 62
     8
 48
5.0
100
AcDbCircle
 10
297.0069205154441
 20
131.5462826978604
 30
0.0
 40
0.5000117448278309
100
AcDbArc
 50
171.8726853912841
 51
270.0011672521981
  0
LINE
  5
4AE
330
1A
100
AcDbEntity
  8
NOKOTOI
  6
PHANTOM
 62
     8
 48
5.0
100
AcDbLine
 10
296.5119307018803
 20
131.6169709531362
 30
0.0
 11
296.8457307018802
 21
133.9531709531364
 31
0.0
  0
LINE
  5
4AF
330
1A
100
AcDbEntity
  8
NOKOTOI
  6
PHANTOM
 62
     8
 48
5.0
100
AcDbLine
 10
299.7553307018802
 20
131.5199709531363
 30
0.0
 11
300.0711307018805
 21
137.5199709531363
 31
0.0
  0
LINE
  5
4B0
330
1A
100
AcDbEntity
  8
NOKOTOI
  6
PHANTOM
 62
     8
 48
5.0
100
AcDbLine
 10
292.8329307018803
 20
127.6836709531363
 30
0.0
 11
292.7474307018806
 21
130.4212709531362
 31
0.0
  0
LINE
  5
4B1
330
1A
100
AcDbEntity
  8
SEIHIN
  6
CONTINUOUS
 62
     3
100
AcDbLine
 10
407.8926933896325
 20
142.3594081409995
 30
0.0
 11
400.0798933896324
 21
142.3594081409995
 31
0.0
  0
LINE
  5
4B2
330
1A
100
AcDbEntity
  8
NOKOTOI
  6
PHANTOM
 62
     8
 48
5.0
100
AcDbLine
 10
293.29393070188
 20
140.5461709531363
 30
0.0
 11
296.6205307018804
 21
140.5462709531362
 31
0.0
  0
ARC
  5
4B3
330
1A
100
AcDbEntity
  8
NOKOTOI
  6
PHANTOM
 62
     8
 48
5.0
100
AcDbCircle
 10
297.3403314848888
 20
138.5462699981345
 30
0.0
 40
0.4999990449987399
100
AcDbArc
 50
168.6967198015449
 51
269.9999102736945
  0
LINE
  5
4B4
330
1A
100
AcDbEntity
  8
NOKOTOI
  6
PHANTOM
 62
     8
 48
5.0
100
AcDbLine
 10
296.8500307018803
 20
138.6442709531364
 30
0.0
 11
297.1108307018803
 21
139.9482709531363
 31
0.0
  0
LINE
  5
4B5
330
1A
100
AcDbEntity
  8
NOKOTOI
  6
PHANTOM
 62
     8
 48
5.0
100
AcDbLine
 10
299.5718307018801
 20
138.0462709531362
 30
0.0
 11
297.3403307018802
 21
138.0462709531362
 31
0.0
  0
ARC
  5
4B6
330
1A
100
AcDbEntity
  8
NOKOTOI
  6
PHANTOM
 62
     8
 48
5.0
100
AcDbCircle
 10
296.6205379564357
 20
140.0462621032928
 30
0.0
 40
0.500008849895925
100
AcDbArc
 50
348.6864043304882
 51
90.00083129614507
  0
LINE
  5
4B7
330
1A
100
AcDbEntity
  8
SEIHIN
  6
CONTINUOUS
 62
     3
100
AcDbLine
 10
410.8917933896325
 20
145.7610081409994
 30
0.0
 11
408.3237933896326
 21
148.1422081409995
 31
0.0
  0
ARC
  5
4B8
330
1A
100
AcDbEntity
  8
NOKOTOI
  6
PHANTOM
 62
     8
 48
5.0
100
AcDbCircle
 10
293.2938867355273
 20
138.5462255906633
 30
0.0
 40
0.7999453636812564
100
AcDbArc
 50
89.99685092684627
 51
181.7876563552118
  0
LINE
  5
4B9
330
1A
100
AcDbEntity
  8
NOKOTOI
  6
PHANTOM
 62
     8
 48
5.0
100
AcDbLine
 10
293.29393070188
 20
139.3461709531362
 30
0.0
 11
295.7666307018803
 21
139.3462709531364
 31
0.0
  0
ARC
  5
4BA
330
1A
100
AcDbEntity
  8
NOKOTOI
  6
PHANTOM
 62
     8
 48
5.0
100
AcDbCircle
 10
293.2939419388744
 20
138.5462825469534
 30
0.0
 40
1.999988406214315
100
AcDbArc
 50
90.0003219180439
 51
181.791127346407
  0
LINE
  5
4BB
330
1A
100
AcDbEntity
  8
SEIHIN
  6
CONTINUOUS
 62
     3
100
AcDbLine
 10
414.8925933896323
 20
124.3594081409995
 30
0.0
 11
414.8926933896325
 21
137.3594081409995
 31
0.0
  0
LINE
  5
4BC
330
1A
100
AcDbEntity
  8
SEIHIN
  6
CONTINUOUS
 62
     3
100
AcDbLine
 10
473.8056933896324
 20
116.7250081409995
 30
0.0
 11
460.8078933896323
 21
149.2220081409994
 31
0.0
  0
LINE
  5
4BD
330
1A
100
AcDbEntity
  8
SEIHIN
  6
CONTINUOUS
 62
     3
100
AcDbLine
 10
469.1632933896325
 20
114.8681081409994
 30
0.0
 11
456.1654933896325
 21
147.3652081409995
 31
0.0
  0
LINE
  5
4BE
330
1A
100
AcDbEntity
  8
CENTER_L
  6
CENTER
 62
     1
 48
5.0
100
AcDbLine
 10
463.5461784999968
 20
120.1605817129649
 30
0.0
 11
477.7055310430413
 21
125.8239650522264
 31
0.0
  0
LINE
  5
4BF
330
1A
100
AcDbEntity
  8
SEIHIN
  6
CONTINUOUS
 62
     3
100
AcDbLine
 10
474.7341933896325
 20
117.0963081409995
 30
0.0
 11
469.1632933896325
 21
114.8681081409994
 31
0.0
  0
LINE
  5
4C0
330
1A
100
AcDbEntity
  8
CENTER_L
  6
CENTER
 62
     1
 48
5.0
100
AcDbLine
 10
472.1349328476295
 20
139.7515461872894
 30
0.0
 11
456.8993784999967
 21
133.6576817129649
 31
0.0
  0
LINE
  5
4C1
330
1A
100
AcDbEntity
  8
CENTER_L
  6
CENTER
 62
     1
 48
5.0
100
AcDbLine
 10
469.9068209702832
 20
145.3222601144394
 30
0.0
 11
455.7474784999969
 21
139.6587817129648
 31
0.0
  0
LINE
  5
4C2
330
1A
100
AcDbEntity
  8
SEIHIN
  6
CONTINUOUS
 62
     3
100
AcDbLine
 10
369.5768933896323
 20
155.9455081409994
 30
0.0
 11
452.4667933896325
 21
163.1970081409995
 31
0.0
  0
ARC
  5
4C3
330
1A
100
AcDbEntity
  8
SEIHIN
  6
CONTINUOUS
 62
     3
100
AcDbCircle
 10
370.4484776374064
 20
145.9832994515917
 30
0.0
 40
9.99995547641171
100
AcDbArc
 50
94.99960142639892
 51
142.7651447559166
  0
LINE
  5
4C4
330
1A
100
AcDbEntity
  8
SEIHIN
  6
PHANTOM
 62
     6
 48
5.0
100
AcDbLine
 10
461.6221933896325
 20
162.6857081409995
 30
0.0
 11
467.4667933896325
 21
163.1970081409995
 31
0.0
  0
ARC
  5
4C5
330
1A
100
AcDbEntity
  8
SEIHIN
  6
CONTINUOUS
 62
     3
100
AcDbCircle
 10
452.902476238363
 20
158.2160186925626
 30
0.0
 40
5.000007543006034
100
AcDbArc
 50
21.80058585728636
 51
94.9988897121201
  0
ARC
  5
4C6
330
1A
100
AcDbEntity
  8
SEIHIN
  6
PHANTOM
 62
     6
 48
5.0
100
AcDbCircle
 10
467.902476238363
 20
158.2160186925626
 30
0.0
 40
5.000007543006034
100
AcDbArc
 50
21.80058585728636
 51
94.9988897121201
  0
ARC
  5
4C7
330
1A
100
AcDbEntity
  8
SEIHIN
  6
CONTINUOUS
 62
     3
100
AcDbCircle
 10
346.165816143253
 20
288.8005074768538
 30
0.0
 40
10.9999616844559
100
AcDbArc
 50
269.9998814826396
 51
322.7653693155637
  0
LINE
  5
4C8
330
1A
100
AcDbEntity
  8
SEIHIN
  6
CONTINUOUS
 62
     3
100
AcDbLine
 10
346.1659933896325
 20
288.8007457924213
 30
0.0
 11
362.4868933896324
 21
310.2754457924214
 31
0.0
  0
LINE
  5
4C9
330
1A
100
AcDbEntity
  8
NOKOTOI
  6
PHANTOM
 62
     8
 48
5.0
100
AcDbLine
 10
343.0440307018798
 20
244.9876086045581
 30
0.0
 11
387.6236307018798
 21
244.9875086045582
 31
0.0
  0
LINE
  5
4CA
330
1A
100
AcDbEntity
  8
NOKOTOI
  6
PHANTOM
 62
     8
 48
5.0
100
AcDbLine
 10
387.8734307018799
 20
243.7875086045581
 30
0.0
 11
343.0440307018798
 21
243.7876086045581
 31
0.0
  0
LINE
  5
4CB
330
1A
100
AcDbEntity
  8
SEIHIN
  6
CONTINUOUS
 62
     3
100
AcDbLine
 10
333.1659933896325
 20
277.8005457924214
 30
0.0
 11
326.1659933896324
 21
284.8005457924213
 31
0.0
  0
LINE
  5
4CC
330
1A
100
AcDbEntity
  8
CENTER_L
  6
CENTER
 62
     1
 48
5.0
100
AcDbLine
 10
336.1659933896325
 20
298.1451457924214
 30
0.0
 11
336.1658933896324
 21
272.7678457924214
 31
0.0
  0
LINE
  5
4CD
330
1A
100
AcDbEntity
  8
SEIHIN
  6
CONTINUOUS
 62
     3
100
AcDbLine
 10
311.6425933896324
 20
278.2007457924213
 30
0.0
 11
311.6425933896324
 21
278.6007457924213
 31
0.0
  0
ARC
  5
4CE
330
1A
100
AcDbEntity
  8
SEIHIN
  6
CONTINUOUS
 62
     3
100
AcDbCircle
 10
307.6731236367525
 20
280.1859511139172
 30
0.0
 40
1.999976068475972
100
AcDbArc
 50
217.5685338776674
 51
313.7087763789515
  0
ARC
  5
4CF
330
1A
100
AcDbEntity
  8
NOKOTOI
  6
PHANTOM
 62
     8
 48
5.0
100
AcDbCircle
 10
343.0440367838477
 20
286.7876029799018
 30
0.0
 40
41.79999437547816
100
AcDbArc
 50
184.474295212525
 51
269.9998545921086
  0
ARC
  5
4D0
330
1A
100
AcDbEntity
  8
NOKOTOI
  6
PHANTOM
 62
     8
 48
5.0
100
AcDbCircle
 10
343.0440144754224
 20
286.7876230809282
 30
0.0
 40
43.00001447645168
100
AcDbArc
 50
186.524910707118
 51
269.999888375144
  0
LINE
  5
4D1
330
1A
100
AcDbEntity
  8
SEIHIN
  6
CONTINUOUS
 62
     3
100
AcDbLine
 10
332.7656858328594
 20
278.2008533491946
 30
0.0
 11
311.6425933896324
 21
278.2009457924214
 31
0.0
  0
ARC
  5
4D2
330
1A
100
AcDbEntity
  8
SEIHIN
  6
CONTINUOUS
 62
     3
100
AcDbCircle
 10
336.1661933896324
 20
285.4480457924213
 30
0.0
 40
9.747010259561651
100
AcDbArc
 50
235.6479976531776
 51
304.3520023468224
  0
LINE
  5
4D3
330
1A
100
AcDbEntity
  8
SEIHIN
  6
CONTINUOUS
 62
     3
100
AcDbLine
 10
330.6661933896325
 20
277.4010457924213
 30
0.0
 11
341.6661933896325
 21
277.4011457924213
 31
0.0
  0
LINE
  5
4D4
330
1A
100
AcDbEntity
  8
SEIHIN
  6
CONTINUOUS
 62
     3
100
AcDbLine
 10
330.6661933896325
 20
277.4010457924213
 30
0.0
 11
330.6661933896325
 21
278.2009457924214
 31
0.0
  0
LINE
  5
4D5
330
1A
100
AcDbEntity
  8
SEIHIN
  6
CONTINUOUS
 62
     3
100
AcDbLine
 10
333.1659933896325
 20
277.8005457924214
 30
0.0
 11
346.1658933896324
 21
277.8005457924214
 31
0.0
  0
LINE
  5
4D6
330
1A
100
AcDbEntity
  8
SEIHIN
  6
CONTINUOUS
 62
     3
100
AcDbLine
 10
341.6661933896325
 20
277.4011457924213
 30
0.0
 11
341.6661933896325
 21
277.8006457924214
 31
0.0
  0
LINE
  5
4D7
330
1A
100
AcDbEntity
  8
SEIHIN
  6
CONTINUOUS
 62
     3
100
AcDbLine
 10
309.7295933896324
 20
278.6009457924214
 30
0.0
 11
332.3656863021587
 21
278.6008528798952
 31
0.0
  0
LINE
  5
4D8
330
1A
100
AcDbEntity
  8
SEIHIN
  6
CONTINUOUS
 62
     3
100
AcDbLine
 10
311.7296933896325
 20
287.6007457924214
 30
0.0
 11
326.1659933896324
 21
287.6007457924214
 31
0.0
  0
ARC
  5
4DA
330
1A
100
AcDbEntity
  8
NOKOTOI
  6
PHANTOM
 62
     8
 48
5.0
100
AcDbCircle
 10
299.5718245007219
 20
295.7876151396434
 30
0.0
 40
0.4999934649531607
100
AcDbArc
 50
356.9955363203384
 51
89.99928939038005
  0
ARC
  5
4DB
330
1A
100
AcDbEntity
  8
NOKOTOI
  6
PHANTOM
 62
     8
 48
5.0
100
AcDbCircle
 10
299.3290222777172
 20
281.7876161196146
 30
0.0
 40
0.9999924849789756
100
AcDbArc
 50
6.528264606674428
 51
89.99951732740891
  0
LINE
  5
4DC
330
1A
100
AcDbEntity
  8
NOKOTOI
  6
PHANTOM
 62
     8
 48
5.0
100
AcDbLine
 10
300.8729307018802
 20
283.9876086045581
 30
0.0
 11
294.8320307018798
 21
283.9876086045581
 31
0.0
  0
LINE
  5
4DD
330
1A
100
AcDbEntity
  8
NOKOTOI
  6
PHANTOM
 62
     8
 48
5.0
100
AcDbLine
 10
299.7554307018799
 20
289.7614086045581
 30
0.0
 11
300.0712307018797
 21
295.7613086045581
 31
0.0
  0
LINE
  5
4DE
330
1A
100
AcDbEntity
  8
SEIHIN
  6
CONTINUOUS
 62
     3
100
AcDbLine
 10
295.5682933896324
 20
287.6007457924214
 30
0.0
 11
302.4001933896324
 21
287.6007457924214
 31
0.0
  0
LINE
  5
4DF
330
1A
100
AcDbEntity
  8
SEIHIN
  6
CONTINUOUS
 62
     3
100
AcDbLine
 10
295.5682933896324
 20
286.4007457924214
 30
0.0
 11
302.4001933896324
 21
286.4007457924214
 31
0.0
  0
LINE
  5
4E0
330
1A
100
AcDbEntity
  8
SEIHIN
  6
CONTINUOUS
 62
     3
100
AcDbLine
 10
301.4153933896325
 20
284.4007457924213
 30
0.0
 11
297.5682933896324
 21
284.4007457924213
 31
0.0
  0
LINE
  5
4E1
330
1A
100
AcDbEntity
  8
SEIHIN
  6
CONTINUOUS
 62
     3
100
AcDbLine
 10
296.5671933896325
 20
292.2544457924214
 30
0.0
 11
295.2810933896324
 21
287.9872457924213
 31
0.0
  0
LINE
  5
4E2
330
1A
100
AcDbEntity
  8
NOKOTOI
  6
PHANTOM
 62
     8
 48
5.0
100
AcDbLine
 10
296.5120307018796
 20
289.8584086045583
 30
0.0
 11
296.8457307018798
 21
292.1946086045583
 31
0.0
  0
LINE
  5
4E3
330
1A
100
AcDbEntity
  8
SEIHIN
  6
CONTINUOUS
 62
     3
100
AcDbLine
 10
295.4182933896325
 20
292.6007457924214
 30
0.0
 11
294.1320933896324
 21
288.3336457924214
 31
0.0
  0
LINE
  5
4E4
330
1A
100
AcDbEntity
  8
NOKOTOI
  6
PHANTOM
 62
     8
 48
5.0
100
AcDbLine
 10
291.2949307018798
 20
296.7251086045581
 30
0.0
 11
291.6851307018796
 21
284.240808604558
 31
0.0
  0
ARC
  5
4E5
330
1A
100
AcDbEntity
  8
NOKOTOI
  6
PHANTOM
 62
     8
 48
5.0
100
AcDbCircle
 10
296.7455685833265
 20
288.7876523870835
 30
0.0
 40
3.999989731271038
100
AcDbArc
 50
96.47731142013144
 51
181.7899836067308
  0
ARC
  5
4E6
330
1A
100
AcDbEntity
  8
NOKOTOI
  6
PHANTOM
 62
     8
 48
5.0
100
AcDbCircle
 10
293.1843666610307
 20
284.2875737504149
 30
0.0
 40
1.499965146287778
100
AcDbArc
 50
181.7866280217767
 51
269.9986264296976
  0
ARC
  5
4E7
330
1A
100
AcDbEntity
  8
SEIHIN
  6
CONTINUOUS
 62
     3
100
AcDbCircle
 10
295.5683036674413
 20
287.9007319584501
 30
0.0
 40
0.2999861662047845
100
AcDbArc
 50
163.2182955161044
 51
269.998036992576
  0
LINE
  5
4E8
330
1A
100
AcDbEntity
  8
NOKOTOI
  6
PHANTOM
 62
     8
 48
5.0
100
AcDbLine
 10
299.2560307018798
 20
289.2876086045581
 30
0.0
 11
297.0069307018798
 21
289.2876086045581
 31
0.0
  0
ARC
  5
4E9
330
1A
100
AcDbEntity
  8
NOKOTOI
  6
PHANTOM
 62
     8
 48
5.0
100
AcDbCircle
 10
297.0069573024775
 20
289.7875779276761
 30
0.0
 40
0.4999693238254178
100
AcDbArc
 50
171.8555038770532
 51
269.9969516090348
  0
ARC
  5
4EA
330
1A
100
AcDbEntity
  8
NOKOTOI
  6
PHANTOM
 62
     8
 48
5.0
100
AcDbCircle
 10
299.2560238148848
 20
289.7876020694726
 30
0.0
 40
0.499993464961963
100
AcDbArc
 50
270.0007892017873
 51
356.9970361317427
  0
ARC
  5
4EB
330
1A
100
AcDbEntity
  8
SEIHIN
  6
CONTINUOUS
 62
     3
100
AcDbCircle
 10
297.5682933896324
 20
286.4007457924214
 30
0.0
 40
2.0
100
AcDbArc
 50
180.0
 51
270.0
  0
LINE
  5
4EC
330
1A
100
AcDbEntity
  8
NOKOTOI
  6
PHANTOM
 62
     8
 48
5.0
100
AcDbLine
 10
292.8330307018796
 20
285.9252086045581
 30
0.0
 11
292.7475307018799
 21
288.6627086045581
 31
0.0
  0
ARC
  5
4ED
330
1A
100
AcDbEntity
  8
SEIHIN
  6
CONTINUOUS
 62
     3
100
AcDbCircle
 10
295.568284368213
 20
287.9007579339898
 30
0.0
 40
1.500012141595575
100
AcDbArc
 50
163.2264655542263
 51
270.000344590047
  0
LINE
  5
4EE
330
1A
100
AcDbEntity
  8
NOKOTOI
  6
PHANTOM
 62
     8
 48
5.0
100
AcDbLine
 10
293.1843307018798
 20
282.7876086045581
 30
0.0
 11
299.3290307018796
 21
282.7876086045581
 31
0.0
  0
ARC
  5
4EF
330
1A
100
AcDbEntity
  8
NOKOTOI
  6
PHANTOM
 62
     8
 48
5.0
100
AcDbCircle
 10
294.8320442740182
 20
285.9875954494717
 30
0.0
 40
1.999986844959662
100
AcDbArc
 50
181.7875531852363
 51
269.9996111843223
  0
ARC
  5
4F0
330
1A
100
AcDbEntity
  8
NOKOTOI
  6
PHANTOM
 62
     8
 48
5.0
100
AcDbCircle
 10
293.2939434527297
 20
296.7876217596446
 30
0.0
 40
1.999986844954076
100
AcDbArc
 50
90.00036528735526
 51
181.7883072882699
  0
ARC
  5
4F1
330
1A
100
AcDbEntity
  8
NOKOTOI
  6
PHANTOM
 62
     8
 48
5.0
100
AcDbCircle
 10
296.6205299188714
 20
298.2876095595599
 30
0.0
 40
0.4999990449987349
100
AcDbArc
 50
348.6967198015448
 51
89.99991027369452
  0
LINE
  5
4F2
330
1A
100
AcDbEntity
  8
NOKOTOI
  6
PHANTOM
 62
     8
 48
5.0
100
AcDbLine
 10
293.2939307018796
 20
298.7876086045581
 30
0.0
 11
296.6205307018799
 21
298.7876086045581
 31
0.0
  0
LINE
  5
4F3
330
1A
100
AcDbEntity
  8
NOKOTOI
  6
PHANTOM
 62
     8
 48
5.0
100
AcDbLine
 10
299.5718307018796
 20
296.2876086045581
 30
0.0
 11
297.3403307018798
 21
296.2876086045581
 31
0.0
  0
ARC
  5
4F4
330
1A
100
AcDbEntity
  8
NOKOTOI
  6
PHANTOM
 62
     8
 48
5.0
100
AcDbCircle
 10
297.3403234473244
 20
296.7876174544016
 30
0.0
 40
0.5000088498959383
100
AcDbArc
 50
168.6864043304884
 51
270.0008312961434
  0
LINE
  5
4F5
330
1A
100
AcDbEntity
  8
NOKOTOI
  6
PHANTOM
 62
     8
 48
5.0
100
AcDbLine
 10
298.2181307018799
 20
293.316008604558
 30
0.0
 11
298.7731307018798
 21
293.9291086045583
 31
0.0
  0
LINE
  5
4F6
330
1A
100
AcDbEntity
  8
NOKOTOI
  6
PHANTOM
 62
     8
 48
5.0
100
AcDbLine
 10
297.2074307018802
 20
293.9876086045582
 30
0.0
 11
298.2032307018798
 21
295.0876086045583
 31
0.0
  0
LINE
  5
4F7
330
1A
100
AcDbEntity
  8
NOKOTOI
  6
PHANTOM
 62
     8
 48
5.0
100
AcDbLine
 10
297.2074307018802
 20
293.9876086045582
 30
0.0
 11
296.7455307018799
 21
293.9876086045582
 31
0.0
  0
LINE
  5
4F8
330
1A
100
AcDbEntity
  8
NOKOTOI
  6
PHANTOM
 62
     8
 48
5.0
100
AcDbLine
 10
295.2667307018801
 20
295.0876086045583
 30
0.0
 11
298.2032307018798
 21
295.0876086045583
 31
0.0
  0
LINE
  5
4F9
330
1A
100
AcDbEntity
  8
NOKOTOI
  6
PHANTOM
 62
     8
 48
5.0
100
AcDbLine
 10
295.76673070188
 20
297.5876086045583
 30
0.0
 11
295.2667307018801
 21
295.0876086045583
 31
0.0
  0
LINE
  5
4FA
330
1A
100
AcDbEntity
  8
NOKOTOI
  6
PHANTOM
 62
     8
 48
5.0
100
AcDbLine
 10
293.2939307018796
 20
297.5876086045583
 30
0.0
 11
295.76673070188
 21
297.5876086045583
 31
0.0
  0
LINE
  5
4FB
330
1A
100
AcDbEntity
  8
NOKOTOI
  6
PHANTOM
 62
     8
 48
5.0
100
AcDbLine
 10
296.8500307018798
 20
296.885708604558
 30
0.0
 11
297.1108307018798
 21
298.1896086045582
 31
0.0
  0
ARC
  5
4FC
330
1A
100
AcDbEntity
  8
NOKOTOI
  6
PHANTOM
 62
     8
 48
5.0
100
AcDbCircle
 10
293.2939351966779
 20
296.787613242085
 30
0.0
 40
0.7999953624857498
100
AcDbArc
 50
90.00032191805336
 51
181.7911273464199
  0
LINE
  5
4FD
330
1A
100
AcDbEntity
  8
SEIHIN
  6
CONTINUOUS
 62
     3
100
AcDbLine
 10
296.5672933896324
 20
292.2544457924214
 30
0.0
 11
295.4182933896325
 21
292.6007457924214
 31
0.0
  0
LINE
  5
4FE
330
1A
100
AcDbEntity
  8
NOKOTOI
  6
PHANTOM
 62
     8
 48
5.0
100
AcDbLine
 10
298.5919307018798
 20
290.4876086045582
 30
0.0
 11
297.8140307018802
 21
290.4876086045582
 31
0.0
  0
ARC
  5
4FF
330
1A
100
AcDbEntity
  8
NOKOTOI
  6
PHANTOM
 62
     8
 48
5.0
100
AcDbCircle
 10
296.3507449202952
 20
292.2652939702572
 30
0.0
 40
0.5000073448410256
100
AcDbArc
 50
351.8729478641243
 51
96.47829282996843
  0
ARC
  5
500
330
1A
100
AcDbEntity
  8
NOKOTOI
  6
PHANTOM
 62
     8
 48
5.0
100
AcDbCircle
 10
296.745650914549
 20
288.7876673329382
 30
0.0
 40
5.2000412730095
100
AcDbArc
 50
90.00132454306161
 51
142.0757990790561
  0
LINE
  5
501
330
1A
100
AcDbEntity
  8
NOKOTOI
  6
PHANTOM
 62
     8
 48
5.0
100
AcDbLine
 10
292.4943307018802
 20
296.762608604558
 30
0.0
 11
292.6437307018795
 21
291.9837086045582
 31
0.0
  0
LINE
  5
502
330
1A
100
AcDbEntity
  8
NOKOTOI
  6
PHANTOM
 62
     8
 48
5.0
100
AcDbLine
 10
297.8140307018802
 20
290.4876086045582
 30
0.0
 11
298.2181307018799
 21
293.316008604558
 31
0.0
  0
LINE
  5
503
330
1A
100
AcDbEntity
  8
NOKOTOI
  6
PHANTOM
 62
     8
 48
5.0
100
AcDbLine
 10
298.5919307018798
 20
290.4876086045582
 30
0.0
 11
298.7731307018798
 21
293.9291086045583
 31
0.0
  0
LINE
  5
504
330
1A
100
AcDbEntity
  8
SEIHIN
  6
CONTINUOUS
 62
     3
100
AcDbLine
 10
309.3332933896324
 20
279.9958457924213
 30
0.0
 11
304.1439933896325
 21
286.7420457924214
 31
0.0
  0
LINE
  5
505
330
1A
100
AcDbEntity
  8
SEIHIN
  6
CONTINUOUS
 62
     3
100
AcDbLine
 10
308.3821933896325
 20
279.2642457924214
 30
0.0
 11
303.1927933896324
 21
286.0104457924214
 31
0.0
  0
ARC
  5
506
330
1A
100
AcDbEntity
  8
SEIHIN
  6
CONTINUOUS
 62
     3
100
AcDbCircle
 10
302.4002556238625
 20
285.4006992770178
 30
0.0
 40
2.199961788340272
100
AcDbArc
 50
37.56879376349933
 51
68.88440707227092
  0
ARC
  5
507
330
1A
100
AcDbEntity
  8
SEIHIN
  6
CONTINUOUS
 62
     3
100
AcDbCircle
 10
302.4000346381753
 20
285.4007753837283
 30
0.0
 40
2.199970414420935
100
AcDbArc
 50
68.87832412633047
 51
89.99586549508761
  0
ARC
  5
508
330
1A
100
AcDbEntity
  8
SEIHIN
  6
CONTINUOUS
 62
     3
100
AcDbCircle
 10
301.4153674194395
 20
283.4007585800849
 30
0.0
 40
0.9999872126736152
100
AcDbArc
 50
37.56745337482073
 51
89.99851199852507
  0
ARC
  5
509
330
1A
100
AcDbEntity
  8
SEIHIN
  6
CONTINUOUS
 62
     3
100
AcDbCircle
 10
302.4001674194396
 20
285.4007585800848
 30
0.0
 40
0.9999872126737603
100
AcDbArc
 50
37.56745337482487
 51
89.99851199852916
  0
ARC
  5
50A
330
1A
100
AcDbEntity
  8
NOKOTOI
  6
PHANTOM
 62
     8
 48
5.0
100
AcDbCircle
 10
300.8729432715881
 20
283.4875969798284
 30
0.0
 40
0.5000116248877111
100
AcDbArc
 50
4.474846808342897
 51
90.00144034898337
  0
LINE
  5
50B
330
1A
100
AcDbEntity
  8
SEIHIN
  6
CONTINUOUS
 62
     3
100
AcDbLine
 10
302.2079933896324
 20
284.0104457924214
 30
0.0
 11
306.0878933896324
 21
278.9665457924214
 31
0.0
  0
ARC
  5
50C
330
1A
100
AcDbEntity
  8
SEIHIN
  6
CONTINUOUS
 62
     3
100
AcDbCircle
 10
311.7296933896325
 20
285.6007457924214
 30
0.0
 40
2.0
100
AcDbArc
 50
90.0
 51
180.0
  0
ARC
  5
50D
330
1A
100
AcDbEntity
  8
SEIHIN
  6
CONTINUOUS
 62
     3
100
AcDbCircle
 10
309.7296754148771
 20
280.3007546422647
 30
0.0
 40
0.5000088501664889
100
AcDbArc
 50
217.5755423139518
 51
270.0020597187759
  0
ARC
  5
50E
330
1A
100
AcDbEntity
  8
SEIHIN
  6
CONTINUOUS
 62
     3
100
AcDbCircle
 10
309.7296474455108
 20
280.3007191758282
 30
0.0
 40
1.699973384266265
100
AcDbArc
 50
217.5677976318758
 51
269.9981781045996
  0
LINE
  5
50F
330
1A
100
AcDbEntity
  8
SEIHIN
  6
CONTINUOUS
 62
     3
100
AcDbLine
 10
309.7295933896324
 20
278.6007457924213
 30
0.0
 11
309.7296933896325
 21
285.6007457924214
 31
0.0
  0
ARC
  5
510
330
1A
100
AcDbEntity
  8
SEIHIN
  6
CONTINUOUS
 62
     3
100
AcDbCircle
 10
330.0335525395429
 20
299.464011641281
 30
0.0
 40
1.499955187663901
100
AcDbArc
 50
15.00067946834683
 51
105.0016680705982
  0
ARC
  5
511
330
1A
100
AcDbEntity
  8
SEIHIN
  6
CONTINUOUS
 62
     3
100
AcDbCircle
 10
331.0732367715408
 20
293.9779356827523
 30
0.0
 40
0.5000099135294415
100
AcDbArc
 50
222.8722729487933
 51
337.3828182613812
  0
LINE
  5
512
330
1A
100
AcDbEntity
  8
SEIHIN
  6
CONTINUOUS
 62
     3
100
AcDbLine
 10
330.5164933896324
 20
299.5934457924213
 30
0.0
 11
331.8179933896323
 21
294.7358457924213
 31
0.0
  0
ARC
  5
513
330
1A
100
AcDbEntity
  8
SEIHIN
  6
CONTINUOUS
 62
     3
100
AcDbCircle
 10
337.3021235762551
 20
299.7616102577745
 30
0.0
 40
9.999949112462923
100
AcDbArc
 50
205.0000212034001
 51
235.6951561184302
  0
LINE
  5
514
330
1A
100
AcDbEntity
  8
SEIHIN
  6
CONTINUOUS
 62
     3
100
AcDbLine
 10
330.6661933896325
 20
290.3011457924214
 30
0.0
 11
336.1661933896324
 21
290.3011457924214
 31
0.0
  0
LINE
  5
515
330
1A
100
AcDbEntity
  8
SEIHIN
  6
CONTINUOUS
 62
     3
100
AcDbLine
 10
346.1659933896325
 20
288.8007457924213
 30
0.0
 11
326.1659933896324
 21
288.8007457924213
 31
0.0
  0
LINE
  5
516
330
1A
100
AcDbEntity
  8
SEIHIN
  6
CONTINUOUS
 62
     3
100
AcDbLine
 10
330.6661933896325
 20
290.3011457924214
 30
0.0
 11
330.6661933896325
 21
288.8011457924213
 31
0.0
  0
LINE
  5
517
330
1A
100
AcDbEntity
  8
SEIHIN
  6
CONTINUOUS
 62
     3
100
AcDbLine
 10
326.1659933896324
 20
284.8005457924213
 30
0.0
 11
326.1659933896324
 21
288.8005457924213
 31
0.0
  0
ARC
  5
518
330
1A
100
AcDbEntity
  8
SEIHIN
  6
CONTINUOUS
 62
     3
100
AcDbCircle
 10
328.2809879635264
 20
298.9943341568235
 30
0.0
 40
1.500013318264763
100
AcDbArc
 50
104.9985194361924
 51
204.9981179307406
  0
ARC
  5
519
330
1A
100
AcDbEntity
  8
SEIHIN
  6
CONTINUOUS
 62
     3
100
AcDbCircle
 10
328.2811921289777
 20
298.9944430892671
 30
0.0
 40
0.5000356437279977
100
AcDbArc
 50
104.9976264979352
 51
204.9965994016779
  0
ARC
  5
51A
330
1A
100
AcDbEntity
  8
SEIHIN
  6
CONTINUOUS
 62
     3
100
AcDbCircle
 10
330.0335525385224
 20
299.4640116418703
 30
0.0
 40
0.4999850647767359
100
AcDbArc
 50
15.0033804254307
 51
105.0063462322123
  0
LINE
  5
51B
330
1A
100
AcDbEntity
  8
SEIHIN
  6
CONTINUOUS
 62
     3
100
AcDbLine
 10
328.1516933896323
 20
299.4774457924214
 30
0.0
 11
329.9040933896324
 21
299.9469457924213
 31
0.0
  0
LINE
  5
51C
330
1A
100
AcDbEntity
  8
SEIHIN
  6
CONTINUOUS
 62
     3
100
AcDbLine
 10
329.6451933896324
 20
300.9128457924213
 30
0.0
 11
327.8928933896325
 21
300.4433457924213
 31
0.0
  0
ARC
  5
51D
330
1A
100
AcDbEntity
  8
SEIHIN
  6
CONTINUOUS
 62
     3
100
AcDbCircle
 10
337.3021937478145
 20
299.7614966626818
 30
0.0
 40
8.999979478072326
100
AcDbArc
 50
204.9992637640242
 51
222.8763402962061
  0
LINE
  5
51E
330
1A
100
AcDbEntity
  8
SEIHIN
  6
CONTINUOUS
 62
     3
100
AcDbLine
 10
329.1453933896324
 20
295.9580457924214
 30
0.0
 11
327.8279933896324
 21
298.7831457924214
 31
0.0
  0
LINE
  5
51F
330
1A
100
AcDbEntity
  8
SEIHIN
  6
CONTINUOUS
 62
     3
100
AcDbLine
 10
326.9216933896324
 20
298.3605457924214
 30
0.0
 11
328.2390933896325
 21
295.5354457924214
 31
0.0
  0
LINE
  5
520
330
1A
100
AcDbEntity
  8
SEIHIN
  6
CONTINUOUS
 62
     3
100
AcDbLine
 10
341.6661933896325
 20
290.3010457924213
 30
0.0
 11
341.6661933896325
 21
288.8007457924213
 31
0.0
  0
LINE
  5
521
330
1A
100
AcDbEntity
  8
SEIHIN
  6
CONTINUOUS
 62
     3
100
AcDbLine
 10
336.1661933896324
 20
294.5011457924213
 30
0.0
 11
339.4161933896325
 21
294.5011457924213
 31
0.0
  0
LINE
  5
522
330
1A
100
AcDbEntity
  8
SEIHIN
  6
CONTINUOUS
 62
     3
100
AcDbLine
 10
341.6661933896325
 20
290.3010457924213
 30
0.0
 11
336.1661933896324
 21
290.3011457924214
 31
0.0
  0
LINE
  5
523
330
1A
100
AcDbEntity
  8
SEIHIN
  6
CONTINUOUS
 62
     3
100
AcDbLine
 10
340.6661933896324
 20
291.5011457924214
 30
0.0
 11
336.1661933896324
 21
291.5011457924214
 31
0.0
  0
LINE
  5
524
330
1A
100
AcDbEntity
  8
SEIHIN
  6
CONTINUOUS
 62
     3
100
AcDbLine
 10
336.1661933896324
 20
295.8010457924213
 30
0.0
 11
338.6661933896324
 21
295.8011457924214
 31
0.0
  0
LINE
  5
525
330
1A
100
AcDbEntity
  8
SEIHIN
  6
CONTINUOUS
 62
     3
100
AcDbLine
 10
338.6661933896324
 20
295.8011457924214
 30
0.0
 11
338.6661933896324
 21
294.5011457924213
 31
0.0
  0
LINE
  5
526
330
1A
100
AcDbEntity
  8
SEIHIN
  6
CONTINUOUS
 62
     3
100
AcDbLine
 10
333.6661933896323
 20
295.8010457924213
 30
0.0
 11
333.6661933896323
 21
294.5011457924213
 31
0.0
  0
LINE
  5
527
330
1A
100
AcDbEntity
  8
SEIHIN
  6
CONTINUOUS
 62
     3
100
AcDbLine
 10
336.1661933896324
 20
295.8010457924213
 30
0.0
 11
333.6661933896323
 21
295.8010457924213
 31
0.0
  0
LINE
  5
528
330
1A
100
AcDbEntity
  8
SEIHIN
  6
CONTINUOUS
 62
     3
100
AcDbLine
 10
336.1661933896324
 20
294.5011457924213
 30
0.0
 11
332.9161933896325
 21
294.5011457924213
 31
0.0
  0
LINE
  5
529
330
1A
100
AcDbEntity
  8
SEIHIN
  6
CONTINUOUS
 62
     3
100
AcDbLine
 10
331.7965933896325
 20
294.4141457924213
 30
0.0
 11
331.5347933896325
 21
293.7856457924214
 31
0.0
  0
ARC
  5
52A
330
1A
100
AcDbEntity
  8
SEIHIN
  6
CONTINUOUS
 62
     3
100
AcDbCircle
 10
331.335100793248
 20
294.6065569233578
 30
0.0
 40
0.4999974598195006
100
AcDbArc
 50
337.3671721304245
 51
14.98576480169959
  0
LINE
  5
52B
330
1A
100
AcDbEntity
  8
SEIHIN
  6
CONTINUOUS
 62
     3
100
AcDbLine
 10
331.6661933896323
 20
291.5011457924214
 30
0.0
 11
332.9161933896325
 21
294.5011457924213
 31
0.0
  0
LINE
  5
52C
330
1A
100
AcDbEntity
  8
SEIHIN
  6
CONTINUOUS
 62
     3
100
AcDbLine
 10
331.6661933896323
 20
291.5011457924214
 30
0.0
 11
332.1661933896324
 21
290.3011457924214
 31
0.0
  0
LINE
  5
52D
330
1A
100
AcDbEntity
  8
SEIHIN
  6
CONTINUOUS
 62
     3
100
AcDbLine
 10
331.6661933896323
 20
291.5011457924214
 30
0.0
 11
336.1661933896324
 21
291.5011457924214
 31
0.0
  0
LINE
  5
52E
330
1A
100
AcDbEntity
  8
SEIHIN
  6
CONTINUOUS
 62
     3
100
AcDbLine
 10
332.9161933896325
 20
294.5011457924213
 30
0.0
 11
331.4823933896324
 21
299.8522457924213
 31
0.0
  0
ARC
  5
52F
330
1A
100
AcDbEntity
  8
SEIHIN
  6
CONTINUOUS
 62
     3
100
AcDbCircle
 10
344.0512738150549
 20
298.9944877691691
 30
0.0
 40
1.499968002867869
100
AcDbArc
 50
334.9988153855749
 51
75.0000281409186
  0
ARC
  5
530
330
1A
100
AcDbEntity
  8
SEIHIN
  6
CONTINUOUS
 62
     3
100
AcDbCircle
 10
344.051296294459
 20
298.9944395626494
 30
0.0
 40
0.4999420316314813
100
AcDbArc
 50
334.9988444911285
 51
74.99969437051221
  0
LINE
  5
531
330
1A
100
AcDbEntity
  8
SEIHIN
  6
CONTINUOUS
 62
     3
100
AcDbLine
 10
342.6871933896324
 20
300.9128457924213
 30
0.0
 11
344.4394933896325
 21
300.4433457924213
 31
0.0
  0
LINE
  5
532
330
1A
100
AcDbEntity
  8
SEIHIN
  6
CONTINUOUS
 62
     3
100
AcDbLine
 10
344.1806933896324
 20
299.4773457924214
 30
0.0
 11
342.4283933896325
 21
299.9469457924213
 31
0.0
  0
LINE
  5
533
330
1A
100
AcDbEntity
  8
SEIHIN
  6
CONTINUOUS
 62
     3
100
AcDbLine
 10
345.4107933896324
 20
298.3605457924214
 30
0.0
 11
344.0933933896324
 21
295.5354457924214
 31
0.0
  0
LINE
  5
534
330
1A
100
AcDbEntity
  8
SEIHIN
  6
CONTINUOUS
 62
     3
100
AcDbLine
 10
343.1870933896324
 20
295.9580457924214
 30
0.0
 11
344.5043933896325
 21
298.7831457924214
 31
0.0
  0
LINE
  5
535
330
1A
100
AcDbEntity
  8
SEIHIN
  6
CONTINUOUS
 62
     3
100
AcDbLine
 10
340.5357933896325
 20
294.4141457924213
 30
0.0
 11
340.7976933896324
 21
293.7856457924214
 31
0.0
  0
ARC
  5
536
330
1A
100
AcDbEntity
  8
SEIHIN
  6
CONTINUOUS
 62
     3
100
AcDbCircle
 10
341.2592071198625
 20
293.9779433398015
 30
0.0
 40
0.4999732692047842
100
AcDbArc
 50
202.6198818504083
 51
317.1226310282012
  0
ARC
  5
537
330
1A
100
AcDbEntity
  8
SEIHIN
  6
CONTINUOUS
 62
     3
100
AcDbCircle
 10
340.9973955006829
 20
294.6064140864111
 30
0.0
 40
0.5000436038986758
100
AcDbArc
 50
164.9987072436322
 51
202.6128928591178
  0
LINE
  5
538
330
1A
100
AcDbEntity
  8
SEIHIN
  6
CONTINUOUS
 62
     3
100
AcDbLine
 10
341.8159933896323
 20
299.5933457924213
 30
0.0
 11
340.5143933896324
 21
294.7358457924213
 31
0.0
  0
ARC
  5
539
330
1A
100
AcDbEntity
  8
SEIHIN
  6
CONTINUOUS
 62
     3
100
AcDbCircle
 10
335.0304246909166
 20
299.7616923049609
 30
0.0
 40
8.999942836094264
100
AcDbArc
 50
317.1217434871924
 51
334.9992531995025
  0
ARC
  5
53A
330
1A
100
AcDbEntity
  8
SEIHIN
  6
CONTINUOUS
 62
     3
100
AcDbCircle
 10
342.2989525417419
 20
299.4639799397526
 30
0.0
 40
1.499981071547203
100
AcDbArc
 50
74.99932064192377
 51
164.9983318191334
  0
ARC
  5
53B
330
1A
100
AcDbEntity
  8
SEIHIN
  6
CONTINUOUS
 62
     3
100
AcDbCircle
 10
342.29896839168
 20
299.4639890863865
 30
0.0
 40
0.4999980099950316
100
AcDbArc
 50
74.99810297410987
 51
165.0062046620936
  0
LINE
  5
53C
330
1A
100
AcDbEntity
  8
SEIHIN
  6
CONTINUOUS
 62
     3
100
AcDbLine
 10
339.4161933896325
 20
294.5011457924213
 30
0.0
 11
340.8499933896325
 21
299.8522457924213
 31
0.0
  0
LINE
  5
53D
330
1A
100
AcDbEntity
  8
SEIHIN
  6
CONTINUOUS
 62
     3
100
AcDbLine
 10
340.6661933896324
 20
291.5011457924214
 30
0.0
 11
340.1661933896324
 21
290.3011457924214
 31
0.0
  0
LINE
  5
53E
330
1A
100
AcDbEntity
  8
SEIHIN
  6
CONTINUOUS
 62
     3
100
AcDbLine
 10
340.6661933896324
 20
291.5011457924214
 30
0.0
 11
339.4161933896325
 21
294.5011457924213
 31
0.0
  0
ARC
  5
53F
330
1A
100
AcDbEntity
  8
SEIHIN
  6
CONTINUOUS
 62
     3
100
AcDbCircle
 10
335.0304321331898
 20
299.7616913996096
 30
0.0
 40
9.999920933090301
100
AcDbArc
 50
304.3037823193786
 51
334.9993905325116
  0
ARC
  5
540
330
1A
100
AcDbEntity
  8
SEIHIN
  6
CONTINUOUS
 62
     3
100
AcDbCircle
 10
404.0927138091742
 20
296.6693990129631
 30
0.0
 40
9.999979580567696
100
AcDbArc
 50
0.0002680270994542
 51
47.1634405436477
  0
ARC
  5
541
330
1A
100
AcDbEntity
  8
SEIHIN
  6
CONTINUOUS
 62
     3
100
AcDbCircle
 10
407.8927114325361
 20
295.6006875668202
 30
0.0
 40
6.999981957338497
100
AcDbArc
 50
0.0004765842577514
 51
34.43472123321579
  0
ARC
  5
542
330
1A
100
AcDbEntity
  8
SEIHIN
  6
CONTINUOUS
 62
     3
100
AcDbCircle
 10
414.0926433896323
 20
282.6006957924213
 30
0.0
 40
0.7999500015625789
100
AcDbArc
 50
270.0035812100488
 51
0.0035812100487936
  0
LINE
  5
543
330
1A
100
AcDbEntity
  8
SEIHIN
  6
CONTINUOUS
 62
     3
100
AcDbLine
 10
450.0511933896325
 20
310.1850457924214
 30
0.0
 11
375.8285933896324
 21
303.6917457924214
 31
0.0
  0
LINE
  5
544
330
1A
100
AcDbEntity
  8
SEIHIN
  6
CONTINUOUS
 62
     3
100
AcDbLine
 10
369.5768933896323
 20
314.1868457924213
 30
0.0
 11
452.4667933896325
 21
321.4383457924214
 31
0.0
  0
LINE
  5
545
330
1A
100
AcDbEntity
  8
SEIHIN
  6
CONTINUOUS
 62
     3
100
AcDbLine
 10
402.8924933896324
 20
281.0171457924214
 30
0.0
 11
411.7800933896324
 21
275.2897457924214
 31
0.0
  0
ARC
  5
546
330
1A
100
AcDbEntity
  8
SEIHIN
  6
CONTINUOUS
 62
     3
100
AcDbCircle
 10
394.8926933896324
 20
279.1007457924213
 30
0.0
 40
0.8999999999999772
100
AcDbArc
 50
270.0000000000072
 51
0.0000000000072375
  0
ARC
  5
547
330
1A
100
AcDbEntity
  8
SEIHIN
  6
CONTINUOUS
 62
     3
100
AcDbCircle
 10
396.4926933896323
 20
279.1007457924214
 30
0.0
 40
0.9000000000001193
100
AcDbArc
 50
269.9999999999982
 51
359.9999999999981
  0
LINE
  5
548
330
1A
100
AcDbEntity
  8
SEIHIN
  6
CONTINUOUS
 62
     3
100
AcDbLine
 10
412.8926933896325
 20
295.6007457924214
 30
0.0
 11
412.8925933896323
 21
276.5506457924213
 31
0.0
  0
LINE
  5
549
330
1A
100
AcDbEntity
  8
SEIHIN
  6
CONTINUOUS
 62
     3
100
AcDbLine
 10
414.0926933896325
 20
276.5506457924213
 30
0.0
 11
414.0926933896325
 21
296.6694457924213
 31
0.0
  0
LINE
  5
54A
330
1A
100
AcDbEntity
  8
SEIHIN
  6
CONTINUOUS
 62
     3
100
AcDbLine
 10
403.5425933896325
 20
282.0258457924214
 30
0.0
 11
412.4300933896324
 21
276.2984457924214
 31
0.0
  0
ARC
  5
54B
330
1A
100
AcDbEntity
  8
SEIHIN
  6
CONTINUOUS
 62
     3
100
AcDbCircle
 10
376.7991017553215
 20
283.6007501317502
 30
0.0
 40
5.000004340503171
100
AcDbArc
 50
269.998758221752
 51
324.8330848798147
  0
LINE
  5
54C
330
1A
100
AcDbEntity
  8
NOKOTOI
  6
PHANTOM
 62
     8
 48
5.0
100
AcDbLine
 10
401.0994307018799
 20
283.5374086045582
 30
0.0
 11
398.1064307018796
 21
253.607608604558
 31
0.0
  0
LINE
  5
54D
330
1A
100
AcDbEntity
  8
NOKOTOI
  6
PHANTOM
 62
     8
 48
5.0
100
AcDbLine
 10
402.1404307018801
 20
281.8871086045581
 30
0.0
 11
399.2716307018799
 21
253.1997086045581
 31
0.0
  0
LINE
  5
54E
330
1A
100
AcDbEntity
  8
SEIHIN
  6
CONTINUOUS
 62
     3
100
AcDbLine
 10
396.4926933896323
 20
278.2007457924213
 30
0.0
 11
349.1062938925799
 21
278.2008495736375
 31
0.0
  0
LINE
  5
54F
330
1A
100
AcDbEntity
  8
NOKOTOI
  6
PHANTOM
 62
     8
 48
5.0
100
AcDbLine
 10
383.6236307018798
 20
244.9875086045582
 30
0.0
 11
363.7155307018801
 21
244.9875086045582
 31
0.0
  0
LINE
  5
550
330
1A
100
AcDbEntity
  8
NOKOTOI
  6
PHANTOM
 62
     8
 48
5.0
100
AcDbLine
 10
383.8734307018798
 20
243.7875086045581
 30
0.0
 11
363.7155307018801
 21
243.7875086045581
 31
0.0
  0
LINE
  5
551
330
1A
100
AcDbEntity
  8
SEIHIN
  6
CONTINUOUS
 62
     3
100
AcDbLine
 10
371.4426933896325
 20
277.6007457924214
 30
0.0
 11
371.4426933896325
 21
278.2007457924213
 31
0.0
  0
LINE
  5
552
330
1A
100
AcDbEntity
  8
SEIHIN
  6
CONTINUOUS
 62
     3
100
AcDbLine
 10
367.2926933896325
 20
277.6007457924214
 30
0.0
 11
367.2926933896325
 21
278.2007457924213
 31
0.0
  0
LINE
  5
553
330
1A
100
AcDbEntity
  8
SEIHIN
  6
CONTINUOUS
 62
     3
100
AcDbLine
 10
371.4426933896325
 20
277.6007457924214
 30
0.0
 11
367.2926933896325
 21
277.6007457924214
 31
0.0
  0
LINE
  5
554
330
1A
100
AcDbEntity
  8
NOKOTOI
  6
PHANTOM
 62
     8
 48
5.0
100
AcDbLine
 10
398.9098307018798
 20
252.5252086045583
 30
0.0
 11
388.5067307018798
 21
244.0135086045582
 31
0.0
  0
LINE
  5
555
330
1A
100
AcDbEntity
  8
NOKOTOI
  6
PHANTOM
 62
     8
 48
5.0
100
AcDbLine
 10
397.9255307018802
 20
253.2703086045581
 30
0.0
 11
387.9402307018799
 21
245.100508604558
 31
0.0
  0
ARC
  5
556
330
1A
100
AcDbEntity
  8
NOKOTOI
  6
PHANTOM
 62
     8
 48
5.0
100
AcDbCircle
 10
387.8734237693024
 20
244.787506129552
 30
0.0
 40
0.9999975250179316
100
AcDbArc
 50
270.0003972084043
 51
309.2946416752298
  0
ARC
  5
557
330
1A
100
AcDbEntity
  8
NOKOTOI
  6
PHANTOM
 62
     8
 48
5.0
100
AcDbCircle
 10
387.6236370896285
 20
245.4875108845477
 30
0.0
 40
0.5000022800304047
100
AcDbArc
 50
269.9992680212786
 51
309.2854498596058
  0
ARC
  5
558
330
1A
100
AcDbEntity
  8
NOKOTOI
  6
PHANTOM
 62
     8
 48
5.0
100
AcDbCircle
 10
397.6089132760016
 20
253.6572761181702
 30
0.0
 40
0.4999904508696396
100
AcDbArc
 50
309.2900846377958
 51
354.2990110749245
  0
ARC
  5
559
330
1A
100
AcDbEntity
  8
NOKOTOI
  6
PHANTOM
 62
     8
 48
5.0
100
AcDbCircle
 10
398.276608129011
 20
253.2991665328856
 30
0.0
 40
0.9999908507640039
100
AcDbArc
 50
309.2887092230696
 51
354.2862329477531
  0
ARC
  5
55A
330
1A
100
AcDbEntity
  8
SEIHIN
  6
CONTINUOUS
 62
     3
100
AcDbCircle
 10
412.5926070606984
 20
276.5505987350541
 30
0.0
 40
0.2999863326247858
100
AcDbArc
 50
237.1980432144553
 51
0.0089877046255219
  0
ARC
  5
55B
330
1A
100
AcDbEntity
  8
SEIHIN
  6
CONTINUOUS
 62
     3
100
AcDbCircle
 10
412.5926621286173
 20
276.550628748424
 30
0.0
 40
1.500031261111988
100
AcDbArc
 50
237.2004776243535
 51
0.000651019176963
  0
LINE
  5
55C
330
1A
100
AcDbEntity
  8
SEIHIN
  6
CONTINUOUS
 62
     3
100
AcDbLine
 10
350.2848136813413
 20
278.6008498188378
 30
0.0
 11
394.8926933896325
 21
278.6007457924213
 31
0.0
  0
LINE
  5
55D
330
1A
100
AcDbEntity
  8
SEIHIN
  6
CONTINUOUS
 62
     3
100
AcDbLine
 10
391.9050933896325
 20
296.3602457924214
 30
0.0
 11
380.8864933896323
 21
280.7209457924214
 31
0.0
  0
LINE
  5
55E
330
1A
100
AcDbEntity
  8
SEIHIN
  6
CONTINUOUS
 62
     3
100
AcDbLine
 10
384.5476933896323
 20
301.5438457924213
 30
0.0
 11
377.7116933896323
 21
291.8411457924214
 31
0.0
  0
ARC
  5
55F
330
1A
100
AcDbEntity
  8
SEIHIN
  6
CONTINUOUS
 62
     3
100
AcDbCircle
 10
376.7873646842901
 20
292.7333299578209
 30
0.0
 40
10.99997060431174
100
AcDbArc
 50
94.99979444444129
 51
142.7643961275752
  0
LINE
  5
560
330
1A
100
AcDbEntity
  8
SEIHIN
  6
CONTINUOUS
 62
     3
100
AcDbLine
 10
359.0702939341508
 20
287.6007457924214
 30
0.0
 11
369.5368933896324
 21
287.6007457924214
 31
0.0
  0
LINE
  5
561
330
1A
100
AcDbEntity
  8
SEIHIN
  6
CONTINUOUS
 62
     3
100
AcDbLine
 10
354.9235933896324
 20
282.1446457924213
 30
0.0
 11
368.0296933896325
 21
299.3892457924214
 31
0.0
  0
ARC
  5
562
330
1A
100
AcDbEntity
  8
SEIHIN
  6
CONTINUOUS
 62
     3
100
AcDbCircle
 10
369.5369101231745
 20
297.6007544724137
 30
0.0
 40
10.00000868000633
100
AcDbArc
 50
269.9999041239499
 51
324.8330848664228
  0
ARC
  5
563
330
1A
100
AcDbEntity
  8
SEIHIN
  6
CONTINUOUS
 62
     3
100
AcDbCircle
 10
370.4484776374064
 20
304.2246371030135
 30
0.0
 40
9.99995547641171
100
AcDbArc
 50
94.99960142639892
 51
142.7651447559166
  0
ARC
  5
564
330
1A
100
AcDbEntity
  8
SEIHIN
  6
CONTINUOUS
 62
     3
100
AcDbCircle
 10
407.8926933896325
 20
295.6007457924214
 30
0.0
 40
5.0
100
AcDbArc
 50
0.0
 51
90.0
  0
ARC
  5
565
330
1A
100
AcDbEntity
  8
SEIHIN
  6
CONTINUOUS
 62
     3
100
AcDbCircle
 10
400.07981821556
 20
290.6006598066317
 30
0.0
 40
19.00000581915131
100
AcDbArc
 50
132.842083766882
 51
144.8333222780726
  0
ARC
  5
566
330
1A
100
AcDbEntity
  8
SEIHIN
  6
CONTINUOUS
 62
     3
100
AcDbCircle
 10
400.0799321729066
 20
290.600765910212
 30
0.0
 40
9.999979882284605
100
AcDbArc
 50
90.00022221224
 51
144.8338713373227
  0
LINE
  5
567
330
1A
100
AcDbEntity
  8
SEIHIN
  6
CONTINUOUS
 62
     3
100
AcDbLine
 10
397.3926933896325
 20
286.6007457924214
 30
0.0
 11
395.3926933896325
 21
286.6007457924214
 31
0.0
  0
ARC
  5
568
330
1A
100
AcDbEntity
  8
SEIHIN
  6
CONTINUOUS
 62
     3
100
AcDbCircle
 10
394.8926933896324
 20
279.1007457924213
 30
0.0
 40
0.5000000000000427
100
AcDbArc
 50
270.0000000000049
 51
0.0000000000048853
  0
LINE
  5
569
330
1A
100
AcDbEntity
  8
SEIHIN
  6
CONTINUOUS
 62
     3
100
AcDbLine
 10
395.3926933896325
 20
279.1007457924214
 30
0.0
 11
395.3926933896325
 21
286.6007457924214
 31
0.0
  0
LINE
  5
56A
330
1A
100
AcDbEntity
  8
SEIHIN
  6
CONTINUOUS
 62
     3
100
AcDbLine
 10
395.7926933896324
 20
279.1007457924214
 30
0.0
 11
395.7926933896324
 21
286.6007457924214
 31
0.0
  0
LINE
  5
56B
330
1A
100
AcDbEntity
  8
SEIHIN
  6
CONTINUOUS
 62
     3
100
AcDbLine
 10
397.3926933896325
 20
286.6007457924214
 30
0.0
 11
397.3926933896325
 21
279.1007457924214
 31
0.0
  0
LINE
  5
56C
330
1A
100
AcDbEntity
  8
NOKOTOI
  6
PHANTOM
 62
     8
 48
5.0
100
AcDbLine
 10
405.9489307018798
 20
289.8583086045581
 30
0.0
 11
405.6151307018799
 21
292.1945086045583
 31
0.0
  0
LINE
  5
56D
330
1A
100
AcDbEntity
  8
NOKOTOI
  6
PHANTOM
 62
     8
 48
5.0
100
AcDbLine
 10
411.1659307018799
 20
296.7251086045581
 30
0.0
 11
410.7758307018798
 21
284.2407086045581
 31
0.0
  0
LINE
  5
56E
330
1A
100
AcDbEntity
  8
NOKOTOI
  6
PHANTOM
 62
     8
 48
5.0
100
AcDbLine
 10
402.7055307018799
 20
289.7613086045581
 30
0.0
 11
402.3897307018796
 21
295.7613086045581
 31
0.0
  0
ARC
  5
56F
330
1A
100
AcDbEntity
  8
NOKOTOI
  6
PHANTOM
 62
     8
 48
5.0
100
AcDbCircle
 10
405.7153997749437
 20
288.7876443492219
 30
0.0
 40
3.99998565374706
100
AcDbArc
 50
358.2086966591014
 51
83.52422380468325
  0
LINE
  5
570
330
1A
100
AcDbEntity
  8
NOKOTOI
  6
PHANTOM
 62
     8
 48
5.0
100
AcDbLine
 10
409.2765307018798
 20
282.7876086045581
 30
0.0
 11
403.13543070188
 21
282.7876086045581
 31
0.0
  0
LINE
  5
571
330
1A
100
AcDbEntity
  8
NOKOTOI
  6
PHANTOM
 62
     8
 48
5.0
100
AcDbLine
 10
401.5969307018795
 20
283.9876086045581
 30
0.0
 11
407.6288307018798
 21
283.9876086045581
 31
0.0
  0
ARC
  5
572
330
1A
100
AcDbEntity
  8
NOKOTOI
  6
PHANTOM
 62
     8
 48
5.0
100
AcDbCircle
 10
405.4539408883161
 20
289.7876203492823
 30
0.0
 40
0.5000117448278309
100
AcDbArc
 50
269.9988327478018
 51
8.127314608715803
  0
ARC
  5
573
330
1A
100
AcDbEntity
  8
NOKOTOI
  6
PHANTOM
 62
     8
 48
5.0
100
AcDbCircle
 10
403.2048348232865
 20
289.7876046945276
 30
0.0
 40
0.4999960899864752
100
AcDbArc
 50
183.0147243791737
 51
269.9995277178594
  0
LINE
  5
574
330
1A
100
AcDbEntity
  8
NOKOTOI
  6
PHANTOM
 62
     8
 48
5.0
100
AcDbLine
 10
403.2048307018799
 20
289.2876086045581
 30
0.0
 11
405.4539307018794
 21
289.2876086045581
 31
0.0
  0
ARC
  5
575
330
1A
100
AcDbEntity
  8
NOKOTOI
  6
PHANTOM
 62
     8
 48
5.0
100
AcDbCircle
 10
403.1354513517207
 20
281.7876272924073
 30
0.0
 40
0.9999813123640345
100
AcDbArc
 50
90.00118317084957
 51
174.290590033351
  0
ARC
  5
576
330
1A
100
AcDbEntity
  8
NOKOTOI
  6
PHANTOM
 62
     8
 48
5.0
100
AcDbCircle
 10
401.5969437728845
 20
283.487620434838
 30
0.0
 40
0.499988169890889
100
AcDbArc
 50
90.00149786226627
 51
174.2966061377156
  0
LINE
  5
577
330
1A
100
AcDbEntity
  8
SEIHIN
  6
CONTINUOUS
 62
     3
100
AcDbLine
 10
402.8924933896324
 20
281.0171457924214
 30
0.0
 11
403.5425933896325
 21
282.0258457924214
 31
0.0
  0
LINE
  5
578
330
1A
100
AcDbEntity
  8
NOKOTOI
  6
PHANTOM
 62
     8
 48
5.0
100
AcDbLine
 10
409.6279307018798
 20
285.9250086045582
 30
0.0
 11
409.7134307018795
 21
288.6626086045581
 31
0.0
  0
ARC
  5
579
330
1A
100
AcDbEntity
  8
NOKOTOI
  6
PHANTOM
 62
     8
 48
5.0
100
AcDbCircle
 10
409.276547915058
 20
284.2876252877059
 30
0.0
 40
1.500016683246579
100
AcDbArc
 50
269.9993425123348
 51
358.207642324411
  0
ARC
  5
57A
330
1A
100
AcDbEntity
  8
NOKOTOI
  6
PHANTOM
 62
     8
 48
5.0
100
AcDbCircle
 10
407.6288686897042
 20
285.9875454251304
 30
0.0
 40
2.000036820932882
100
AcDbArc
 50
269.9989117490339
 51
358.2110591274196
  0
LINE
  5
57B
330
1A
100
AcDbEntity
  8
NOKOTOI
  6
PHANTOM
 62
     8
 48
5.0
100
AcDbLine
 10
407.1942307018798
 20
295.0876086045583
 30
0.0
 11
404.2576307018798
 21
295.0876086045583
 31
0.0
  0
LINE
  5
57C
330
1A
100
AcDbEntity
  8
NOKOTOI
  6
PHANTOM
 62
     8
 48
5.0
100
AcDbLine
 10
409.1669307018801
 20
298.7875086045582
 30
0.0
 11
405.8403307018798
 21
298.7876086045581
 31
0.0
  0
LINE
  5
57D
330
1A
100
AcDbEntity
  8
SEIHIN
  6
CONTINUOUS
 62
     3
100
AcDbLine
 10
407.8926933896325
 20
300.6007457924214
 30
0.0
 11
400.0798933896324
 21
300.6007457924214
 31
0.0
  0
ARC
  5
57E
330
1A
100
AcDbEntity
  8
NOKOTOI
  6
PHANTOM
 62
     8
 48
5.0
100
AcDbCircle
 10
405.7154128355286
 20
288.7876173329381
 30
0.0
 40
5.199991271650611
100
AcDbArc
 50
37.92532860473096
 51
89.99980314072548
  0
ARC
  5
57F
330
1A
100
AcDbEntity
  8
NOKOTOI
  6
PHANTOM
 62
     8
 48
5.0
100
AcDbCircle
 10
405.8403234473244
 20
298.2875997547147
 30
0.0
 40
0.500008849895925
100
AcDbArc
 50
89.99916870385492
 51
191.3135956695117
  0
ARC
  5
580
330
1A
100
AcDbEntity
  8
NOKOTOI
  6
PHANTOM
 62
     8
 48
5.0
100
AcDbCircle
 10
405.1205299188714
 20
296.7876076495564
 30
0.0
 40
0.4999990449987399
100
AcDbArc
 50
270.0000897263054
 51
11.30328019845509
  0
LINE
  5
581
330
1A
100
AcDbEntity
  8
NOKOTOI
  6
PHANTOM
 62
     8
 48
5.0
100
AcDbLine
 10
402.8890307018801
 20
296.2876086045581
 30
0.0
 11
405.1205307018799
 21
296.2876086045581
 31
0.0
  0
LINE
  5
582
330
1A
100
AcDbEntity
  8
NOKOTOI
  6
PHANTOM
 62
     8
 48
5.0
100
AcDbLine
 10
405.25343070188
 20
293.9876086045582
 30
0.0
 11
405.71543070188
 21
293.9876086045582
 31
0.0
  0
LINE
  5
583
330
1A
100
AcDbEntity
  8
NOKOTOI
  6
PHANTOM
 62
     8
 48
5.0
100
AcDbLine
 10
404.2428307018799
 20
293.316008604558
 30
0.0
 11
403.6878307018796
 21
293.9290086045581
 31
0.0
  0
LINE
  5
584
330
1A
100
AcDbEntity
  8
NOKOTOI
  6
PHANTOM
 62
     8
 48
5.0
100
AcDbLine
 10
405.25343070188
 20
293.9876086045582
 30
0.0
 11
404.2576307018798
 21
295.0876086045583
 31
0.0
  0
ARC
  5
585
330
1A
100
AcDbEntity
  8
NOKOTOI
  6
PHANTOM
 62
     8
 48
5.0
100
AcDbCircle
 10
402.8890344113752
 20
295.7876125145888
 30
0.0
 40
0.4999960899831856
100
AcDbArc
 50
90.00042508015132
 51
183.0156217414654
  0
LINE
  5
586
330
1A
100
AcDbEntity
  8
NOKOTOI
  6
PHANTOM
 62
     8
 48
5.0
100
AcDbLine
 10
405.6108307018798
 20
296.8856086045583
 30
0.0
 11
405.3500307018798
 21
298.1896086045582
 31
0.0
  0
LINE
  5
587
330
1A
100
AcDbEntity
  8
NOKOTOI
  6
PHANTOM
 62
     8
 48
5.0
100
AcDbLine
 10
403.8689307018798
 20
290.4876086045582
 30
0.0
 11
404.6468307018795
 21
290.4876086045582
 31
0.0
  0
ARC
  5
588
330
1A
100
AcDbEntity
  8
NOKOTOI
  6
PHANTOM
 62
     8
 48
5.0
100
AcDbCircle
 10
406.1101600743795
 20
292.265238837053
 30
0.0
 40
0.4999578477751074
100
AcDbArc
 50
83.52609071220776
 51
188.1330561712924
  0
LINE
  5
589
330
1A
100
AcDbEntity
  8
NOKOTOI
  6
PHANTOM
 62
     8
 48
5.0
100
AcDbLine
 10
403.8689307018798
 20
290.4876086045582
 30
0.0
 11
403.6878307018796
 21
293.9290086045581
 31
0.0
  0
LINE
  5
58A
330
1A
100
AcDbEntity
  8
NOKOTOI
  6
PHANTOM
 62
     8
 48
5.0
100
AcDbLine
 10
404.6468307018795
 20
290.4876086045582
 30
0.0
 11
404.2428307018799
 21
293.316008604558
 31
0.0
  0
ARC
  5
58B
330
1A
100
AcDbEntity
  8
NOKOTOI
  6
PHANTOM
 62
     8
 48
5.0
100
AcDbCircle
 10
409.1669746682327
 20
296.7875632420851
 30
0.0
 40
0.7999453636812564
100
AcDbArc
 50
358.212343644788
 51
90.00314907315372
  0
ARC
  5
58C
330
1A
100
AcDbEntity
  8
NOKOTOI
  6
PHANTOM
 62
     8
 48
5.0
100
AcDbCircle
 10
409.1669194648857
 20
296.7876201983752
 30
0.0
 40
1.999988406214315
100
AcDbArc
 50
358.2088726535929
 51
89.99967808195611
  0
LINE
  5
58D
330
1A
100
AcDbEntity
  8
NOKOTOI
  6
PHANTOM
 62
     8
 48
5.0
100
AcDbLine
 10
406.6942307018798
 20
297.5876086045583
 30
0.0
 11
407.1942307018798
 21
295.0876086045583
 31
0.0
  0
LINE
  5
58E
330
1A
100
AcDbEntity
  8
NOKOTOI
  6
PHANTOM
 62
     8
 48
5.0
100
AcDbLine
 10
409.1669307018801
 20
297.5875086045581
 30
0.0
 11
406.6942307018798
 21
297.5876086045583
 31
0.0
  0
LINE
  5
58F
330
1A
100
AcDbEntity
  8
NOKOTOI
  6
PHANTOM
 62
     8
 48
5.0
100
AcDbLine
 10
409.9665307018795
 20
296.762608604558
 30
0.0
 11
409.8172307018798
 21
291.9836086045583
 31
0.0
  0
LINE
  5
590
330
1A
100
AcDbEntity
  8
SEIHIN
  6
CONTINUOUS
 62
     3
100
AcDbLine
 10
410.8917933896325
 20
304.0023457924213
 30
0.0
 11
408.3237933896326
 21
306.3835457924213
 31
0.0
  0
LINE
  5
591
330
1A
100
AcDbEntity
  8
SEIHIN
  6
CONTINUOUS
 62
     3
100
AcDbLine
 10
469.1632933896325
 20
273.1094457924213
 30
0.0
 11
456.1654933896325
 21
305.6065457924214
 31
0.0
  0
LINE
  5
592
330
1A
100
AcDbEntity
  8
SEIHIN
  6
CONTINUOUS
 62
     3
100
AcDbLine
 10
473.8056933896324
 20
274.9663457924214
 30
0.0
 11
460.8078933896323
 21
307.4633457924213
 31
0.0
  0
LINE
  5
593
330
1A
100
AcDbEntity
  8
SEIHIN
  6
CONTINUOUS
 62
     3
100
AcDbLine
 10
457.5448933896324
 20
318.3142457924214
 30
0.0
 11
474.7341933896325
 21
275.3376457924214
 31
0.0
  0
LINE
  5
594
330
1A
100
AcDbEntity
  8
SEIHIN
  6
CONTINUOUS
 62
     3
100
AcDbLine
 10
474.7341933896325
 20
275.3376457924214
 30
0.0
 11
469.1632933896325
 21
273.1094457924213
 31
0.0
  0
LINE
  5
595
330
1A
100
AcDbEntity
  8
SEIHIN
  6
CONTINUOUS
 62
     3
100
AcDbLine
 10
414.8925933896323
 20
282.6007457924214
 30
0.0
 11
414.8926933896325
 21
295.6007457924214
 31
0.0
  0
LINE
  5
596
330
1A
100
AcDbEntity
  8
CENTER_L
  6
CENTER
 62
     1
 48
5.0
100
AcDbLine
 10
469.9068209702832
 20
303.5635977658612
 30
0.0
 11
455.7474784999969
 21
297.9001193643867
 31
0.0
  0
LINE
  5
597
330
1A
100
AcDbEntity
  8
CENTER_L
  6
CENTER
 62
     1
 48
5.0
100
AcDbLine
 10
472.1349328476295
 20
297.9928838387113
 30
0.0
 11
456.8993784999967
 21
291.8990193643868
 31
0.0
  0
LINE
  5
598
330
1A
100
AcDbEntity
  8
CENTER_L
  6
CENTER
 62
     1
 48
5.0
100
AcDbLine
 10
463.5461784999968
 20
278.4019193643867
 30
0.0
 11
477.7055310430413
 21
284.0653027036482
 31
0.0
  0
LINE
  5
599
330
1A
100
AcDbEntity
  8
SEIHIN
  6
PHANTOM
 62
     6
 48
5.0
100
AcDbLine
 10
461.6221933896325
 20
320.9270457924214
 30
0.0
 11
467.4667933896325
 21
321.4383457924214
 31
0.0
  0
ARC
  5
59A
330
1A
100
AcDbEntity
  8
SEIHIN
  6
CONTINUOUS
 62
     3
100
AcDbCircle
 10
450.6612896927093
 20
303.2116865445649
 30
0.0
 40
6.999996907048849
100
AcDbArc
 50
21.79987259441627
 51
95.00005236637898
  0
LINE
  5
59B
330
1A
100
AcDbEntity
  8
SEIHIN
  6
CONTINUOUS
 62
     3
100
AcDbLine
 10
461.7363933896324
 20
307.8346457924213
 30
0.0
 11
456.1654933896325
 21
305.6064457924213
 31
0.0
  0
ARC
  5
59C
330
1A
100
AcDbEntity
  8
SEIHIN
  6
CONTINUOUS
 62
     3
100
AcDbCircle
 10
452.902476238363
 20
316.4573563439845
 30
0.0
 40
5.000007543006034
100
AcDbArc
 50
21.80058585728636
 51
94.9988897121201
  0
ARC
  5
59D
330
1A
100
AcDbEntity
  8
SEIHIN
  6
PHANTOM
 62
     6
 48
5.0
100
AcDbCircle
 10
465.6612307513842
 20
303.2117202263368
 30
0.0
 40
6.999940094806225
100
AcDbArc
 50
23.26908562337421
 51
87.96504191328031
  0
LINE
  5
59E
330
1A
100
AcDbEntity
  8
SEIHIN
  6
PHANTOM
 62
     6
 48
5.0
100
AcDbLine
 10
476.7363933896325
 20
307.8346457924213
 30
0.0
 11
471.1654933896325
 21
305.6064457924213
 31
0.0
  0
ARC
  5
59F
330
1A
100
AcDbEntity
  8
SEIHIN
  6
PHANTOM
 62
     6
 48
5.0
100
AcDbCircle
 10
467.902476238363
 20
316.4573563439845
 30
0.0
 40
5.000007543006034
100
AcDbArc
 50
21.80058585728636
 51
94.9988897121201
  0
LINE
  5
5A0
330
1A
100
AcDbEntity
  8
SEIHIN
  6
CONTINUOUS
 62
     3
100
AcDbLine
 10
473.7341933896326
 20
455.2067974172714
 30
0.0
 11
326.7657933896326
 21
455.2067974172714
 31
0.0
  0
LINE
  5
5A1
330
1A
100
AcDbEntity
  8
SEIHIN
  6
CONTINUOUS
 62
     3
100
AcDbLine
 10
473.7341933896326
 20
437.3067974172713
 30
0.0
 11
326.7657933896326
 21
437.3067974172713
 31
0.0
  0
LINE
  5
5A2
330
1A
100
AcDbEntity
  8
SEIHIN
  6
CONTINUOUS
 62
     3
100
AcDbLine
 10
294.6714933896326
 20
452.5567974172715
 30
0.0
 11
326.7658933896326
 21
452.5567974172715
 31
0.0
  0
LINE
  5
5A3
330
1A
100
AcDbEntity
  8
SEIHIN
  6
CONTINUOUS
 62
     3
100
AcDbLine
 10
310.3327933896325
 20
453.7567974172714
 30
0.0
 11
326.7658933896326
 21
453.7567974172714
 31
0.0
  0
LINE
  5
5A4
330
1A
100
AcDbEntity
  8
SEIHIN
  6
CONTINUOUS
 62
     3
100
AcDbLine
 10
310.3327933896325
 20
438.7567974172713
 30
0.0
 11
326.7658933896326
 21
438.7567974172713
 31
0.0
  0
LINE
  5
5A5
330
1A
100
AcDbEntity
  8
SEIHIN
  6
CONTINUOUS
 62
     3
100
AcDbLine
 10
294.6714933896326
 20
439.9567974172714
 30
0.0
 11
326.7658933896326
 21
439.9567974172714
 31
0.0
  0
LINE
  5
5A6
330
1A
100
AcDbEntity
  8
SEIHIN
  6
CONTINUOUS
 62
     3
100
AcDbLine
 10
310.0865933896326
 20
439.9567974172714
 30
0.0
 11
310.0865933896326
 21
451.5567974172715
 31
0.0
  0
LINE
  5
5A7
330
1A
100
AcDbEntity
  8
SEIHIN
  6
CONTINUOUS
 62
     3
100
AcDbLine
 10
304.0865933896326
 20
439.9567974172714
 30
0.0
 11
304.0865933896326
 21
444.2567974172716
 31
0.0
  0
LINE
  5
5A8
330
1A
100
AcDbEntity
  8
SEIHIN
  6
CONTINUOUS
 62
     3
100
AcDbLine
 10
294.6714933896326
 20
439.9567974172714
 30
0.0
 11
294.6714933896326
 21
452.5567974172715
 31
0.0
  0
LINE
  5
5A9
330
1A
100
AcDbEntity
  8
SEIHIN
  6
CONTINUOUS
 62
     3
100
AcDbLine
 10
296.0215933896326
 20
439.9567974172714
 30
0.0
 11
296.0215933896326
 21
452.5567974172715
 31
0.0
  0
LINE
  5
5AA
330
1A
100
AcDbEntity
  8
SEIHIN
  6
CONTINUOUS
 62
     3
100
AcDbLine
 10
297.1704933896326
 20
439.9567974172714
 30
0.0
 11
297.1704933896326
 21
452.5567974172715
 31
0.0
  0
LINE
  5
5AB
330
1A
100
AcDbEntity
  8
SEIHIN
  6
CONTINUOUS
 62
     3
100
AcDbLine
 10
310.3327933896325
 20
438.7567974172713
 30
0.0
 11
310.3327933896325
 21
439.9567974172714
 31
0.0
  0
LINE
  5
5AC
330
1A
100
AcDbEntity
  8
SEIHIN
  6
CONTINUOUS
 62
     3
100
AcDbLine
 10
297.1704933896326
 20
444.2567974172715
 30
0.0
 11
308.0865933896326
 21
444.2567974172715
 31
0.0
  0
LINE
  5
5AD
330
1A
100
AcDbEntity
  8
SEIHIN
  6
CONTINUOUS
 62
     3
100
AcDbLine
 10
297.1704933896326
 20
448.2567974172714
 30
0.0
 11
308.0865933896326
 21
448.2567974172714
 31
0.0
  0
ARC
  5
5B1
330
1A
100
AcDbEntity
  8
SEIHIN
  6
CONTINUOUS
 62
     3
100
AcDbCircle
 10
308.0865933896326
 20
446.2567974172714
 30
0.0
 40
2.0
100
AcDbArc
 50
0.0
 51
90.0
  0
ARC
  5
5B2
330
1A
100
AcDbEntity
  8
SEIHIN
  6
CONTINUOUS
 62
     3
100
AcDbCircle
 10
308.0865933896326
 20
446.2567974172714
 30
0.0
 40
2.0
100
AcDbArc
 50
270.0
 51
0.0
  0
ARC
  5
5B3
330
1A
100
AcDbEntity
  8
SEIHIN
  6
CONTINUOUS
 62
     3
100
AcDbCircle
 10
305.1017933896326
 20
446.2567974172714
 30
0.0
 40
2.0
100
AcDbArc
 50
90.0
 51
180.0
  0
ARC
  5
5B4
330
1A
100
AcDbEntity
  8
SEIHIN
  6
CONTINUOUS
 62
     3
100
AcDbCircle
 10
305.1017933896326
 20
446.2567974172714
 30
0.0
 40
2.0
100
AcDbArc
 50
180.0
 51
270.0
  0
LINE
  5
5B5
330
1A
100
AcDbEntity
  8
SEIHIN
  6
CONTINUOUS
 62
     3
100
AcDbLine
 10
310.3327933896325
 20
453.7568974172716
 30
0.0
 11
310.3327933896325
 21
452.5567974172715
 31
0.0
  0
LINE
  5
5B6
330
1A
100
AcDbEntity
  8
SEIHIN
  6
CONTINUOUS
 62
     3
100
AcDbLine
 10
326.7658933896326
 20
437.3067974172713
 30
0.0
 11
326.7658933896326
 21
446.2567974172714
 31
0.0
  0
LINE
  5
5B7
330
1A
100
AcDbEntity
  8
CENTER_L
  6
CENTER
 62
     1
 48
5.0
100
AcDbLine
 10
336.7657933896326
 20
438.7919974172715
 30
0.0
 11
336.7658933896326
 21
453.6633974172714
 31
0.0
  0
ARC
  5
5B8
330
1A
100
AcDbEntity
  8
SEIHIN
  6
CONTINUOUS
 62
     3
100
AcDbCircle
 10
336.765855058213
 20
446.2567974168528
 30
0.0
 40
5.499967873232482
100
AcDbArc
 50
193.1355671506123
 51
346.8633631099411
  0
LINE
  5
5B9
330
1A
100
AcDbEntity
  8
SEIHIN
  6
CONTINUOUS
 62
     3
100
AcDbLine
 10
346.7657933896326
 20
438.3067974172713
 30
0.0
 11
346.7657933896326
 21
454.2067974172715
 31
0.0
  0
LINE
  5
5BA
330
1A
100
AcDbEntity
  8
SEIHIN
  6
CONTINUOUS
 62
     3
100
AcDbLine
 10
333.7657933896326
 20
447.5067974172714
 30
0.0
 11
327.2654933896325
 21
447.5068974172716
 31
0.0
  0
LINE
  5
5BB
330
1A
100
AcDbEntity
  8
SEIHIN
  6
CONTINUOUS
 62
     3
100
AcDbLine
 10
333.7657933896326
 20
445.0067974172713
 30
0.0
 11
327.2654933896325
 21
445.0068974172715
 31
0.0
  0
LINE
  5
5BC
330
1A
100
AcDbEntity
  8
SEIHIN
  6
CONTINUOUS
 62
     3
100
AcDbLine
 10
326.7658933896326
 20
455.2067974172714
 30
0.0
 11
326.7658933896326
 21
446.2567974172714
 31
0.0
  0
LINE
  5
5BD
330
1A
100
AcDbEntity
  8
SEIHIN
  6
CONTINUOUS
 62
     3
100
AcDbLine
 10
320.7458933896326
 20
449.0067974172713
 30
0.0
 11
326.7658933896326
 21
449.0067974172713
 31
0.0
  0
LINE
  5
5BE
330
1A
100
AcDbEntity
  8
SEIHIN
  6
CONTINUOUS
 62
     3
100
AcDbLine
 10
320.7458933896326
 20
443.5067974172714
 30
0.0
 11
326.7658933896326
 21
443.5067974172714
 31
0.0
  0
ARC
  5
5BF
330
1A
100
AcDbEntity
  8
SEIHIN
  6
CONTINUOUS
 62
     3
100
AcDbCircle
 10
320.7458933896325
 20
446.2567974172714
 30
0.0
 40
2.749999999999957
100
AcDbArc
 50
89.99999999999735
 51
179.9999999999973
  0
ARC
  5
5C0
330
1A
100
AcDbEntity
  8
SEIHIN
  6
CONTINUOUS
 62
     3
100
AcDbCircle
 10
320.7458933896326
 20
446.2567974172714
 30
0.0
 40
2.750000000000127
100
AcDbArc
 50
179.9999999999991
 51
269.999999999999
  0
LINE
  5
5C1
330
1A
100
AcDbEntity
  8
SEIHIN
  6
CONTINUOUS
 62
     3
100
AcDbLine
 10
326.7654933896325
 20
445.5068974172716
 30
0.0
 11
326.7654933896325
 21
447.0068974172716
 31
0.0
  0
ARC
  5
5C2
330
1A
100
AcDbEntity
  8
SEIHIN
  6
CONTINUOUS
 62
     3
100
AcDbCircle
 10
327.2654933896325
 20
445.5068974172716
 30
0.0
 40
0.5
100
AcDbArc
 50
180.0
 51
270.0
  0
ARC
  5
5C3
330
1A
100
AcDbEntity
  8
SEIHIN
  6
CONTINUOUS
 62
     3
100
AcDbCircle
 10
327.2654933896325
 20
447.0068974172716
 30
0.0
 40
0.5
100
AcDbArc
 50
90.0
 51
180.0
  0
ARC
  5
5C5
330
1A
100
AcDbEntity
  8
SEIHIN
  6
CONTINUOUS
 62
     3
100
AcDbCircle
 10
336.7657933896326
 20
446.2567974172714
 30
0.0
 40
3.250000000000042
100
AcDbArc
 50
0.0
 51
180.0
  0
ARC
  5
5C6
330
1A
100
AcDbEntity
  8
SEIHIN
  6
CONTINUOUS
 62
     3
100
AcDbCircle
 10
336.7657933896326
 20
446.2567974172714
 30
0.0
 40
2.5
100
AcDbArc
 50
0.0
 51
180.0
  0
ARC
  5
5C7
330
1A
100
AcDbEntity
  8
SEIHIN
  6
CONTINUOUS
 62
     3
100
AcDbCircle
 10
336.7658433896326
 20
446.256797417117
 30
0.0
 40
4.500044077882539
100
AcDbArc
 50
16.12745793676747
 51
163.8725420632325
  0
ARC
  5
5C8
330
1A
100
AcDbEntity
  8
SEIHIN
  6
CONTINUOUS
 62
     3
100
AcDbCircle
 10
336.7658433896326
 20
446.2567974171681
 30
0.0
 40
5.499979236575161
100
AcDbArc
 50
13.13660926862321
 51
166.8633907313767
  0
ARC
  5
5C9
330
1A
100
AcDbEntity
  8
SEIHIN
  6
CONTINUOUS
 62
     3
100
AcDbCircle
 10
336.7658433896326
 20
446.2567974174256
 30
0.0
 40
4.500044077882539
100
AcDbArc
 50
196.1274579367674
 51
343.8725420632325
  0
ARC
  5
5CA
330
1A
100
AcDbEntity
  8
SEIHIN
  6
CONTINUOUS
 62
     3
100
AcDbCircle
 10
336.7657933896326
 20
446.2567974172714
 30
0.0
 40
3.250000000000042
100
AcDbArc
 50
180.0
 51
0.0
  0
ARC
  5
5CB
330
1A
100
AcDbEntity
  8
SEIHIN
  6
CONTINUOUS
 62
     3
100
AcDbCircle
 10
336.7657933896326
 20
446.2567974172714
 30
0.0
 40
2.5
100
AcDbArc
 50
180.0
 51
0.0
  0
LINE
  5
5CC
330
1A
100
AcDbEntity
  8
SEIHIN
  6
CONTINUOUS
 62
     3
100
AcDbLine
 10
331.6933933896324
 20
445.5067974172713
 30
0.0
 11
331.6933933896324
 21
447.0067974172714
 31
0.0
  0
ARC
  5
5CD
330
1A
100
AcDbEntity
  8
SEIHIN
  6
CONTINUOUS
 62
     3
100
AcDbCircle
 10
332.1933933896325
 20
447.0067974172714
 30
0.0
 40
0.5
100
AcDbArc
 50
90.0
 51
180.0
  0
ARC
  5
5CE
330
1A
100
AcDbEntity
  8
SEIHIN
  6
CONTINUOUS
 62
     3
100
AcDbCircle
 10
332.1933933896325
 20
445.5067974172713
 30
0.0
 40
0.5
100
AcDbArc
 50
180.0
 51
270.0
  0
LINE
  5
5CF
330
1A
100
AcDbEntity
  8
SEIHIN
  6
CONTINUOUS
 62
     3
100
AcDbLine
 10
341.8382933896326
 20
447.0067974172714
 30
0.0
 11
341.8382933896326
 21
445.5067974172713
 31
0.0
  0
ARC
  5
5D0
330
1A
100
AcDbEntity
  8
SEIHIN
  6
CONTINUOUS
 62
     3
100
AcDbCircle
 10
341.3382933896325
 20
447.0067974172714
 30
0.0
 40
0.5
100
AcDbArc
 50
0.0
 51
90.0
  0
ARC
  5
5D1
330
1A
100
AcDbEntity
  8
SEIHIN
  6
CONTINUOUS
 62
     3
100
AcDbCircle
 10
341.3382933896325
 20
445.5067974172713
 30
0.0
 40
0.5
100
AcDbArc
 50
270.0
 51
0.0
  0
LINE
  5
5D2
330
1A
100
AcDbEntity
  8
SEIHIN
  6
CONTINUOUS
 62
     3
100
AcDbLine
 10
346.7661933896326
 20
447.0067974172714
 30
0.0
 11
346.7661933896326
 21
445.5067974172713
 31
0.0
  0
ARC
  5
5D3
330
1A
100
AcDbEntity
  8
SEIHIN
  6
CONTINUOUS
 62
     3
100
AcDbCircle
 10
346.2661933896326
 20
445.5067974172713
 30
0.0
 40
0.5
100
AcDbArc
 50
270.0
 51
0.0
  0
ARC
  5
5D4
330
1A
100
AcDbEntity
  8
SEIHIN
  6
CONTINUOUS
 62
     3
100
AcDbCircle
 10
346.2661933896326
 20
447.0067974172714
 30
0.0
 40
0.5
100
AcDbArc
 50
0.0
 51
90.0
  0
LINE
  5
5D5
330
1A
100
AcDbEntity
  8
SEIHIN
  6
CONTINUOUS
 62
     3
100
AcDbLine
 10
339.7657933896325
 20
447.5067974172714
 30
0.0
 11
346.2661933896326
 21
447.5067974172714
 31
0.0
  0
LINE
  5
5D6
330
1A
100
AcDbEntity
  8
SEIHIN
  6
CONTINUOUS
 62
     3
100
AcDbLine
 10
339.7657933896325
 20
445.0067974172713
 30
0.0
 11
346.2661933896326
 21
445.0067974172713
 31
0.0
  0
LINE
  5
5D7
330
1A
100
AcDbEntity
  8
SEIHIN
  6
CONTINUOUS
 62
     3
100
AcDbLine
 10
438.2229933896327
 20
450.2567974172714
 30
0.0
 11
365.7659933896326
 21
450.2567974172714
 31
0.0
  0
LINE
  5
5D8
330
1A
100
AcDbEntity
  8
SEIHIN
  6
CONTINUOUS
 62
     3
100
AcDbLine
 10
438.2229933896326
 20
442.2567974172714
 30
0.0
 11
365.7659933896326
 21
442.2567974172714
 31
0.0
  0
LINE
  5
5D9
330
1A
100
AcDbEntity
  8
SEIHIN
  6
CONTINUOUS
 62
     3
100
AcDbLine
 10
365.7659933896326
 20
438.3067974172713
 30
0.0
 11
365.7659933896326
 21
441.7955974172715
 31
0.0
  0
LINE
  5
5DA
330
1A
100
AcDbEntity
  8
SEIHIN
  6
CONTINUOUS
 62
     3
100
AcDbLine
 10
365.7659933896326
 20
454.2067974172714
 30
0.0
 11
365.7659933896326
 21
450.7180974172715
 31
0.0
  0
ELLIPSE
  5
5DB
330
1A
100
AcDbEntity
  8
SEIHIN
  6
CONTINUOUS
 62
     3
100
AcDbEllipse
 10
471.2061464818152
 20
464.2567974172711
 30
0.0
 11
0.0000000000001641
 21
2.100000000000023
 31
0.0
210
0.0
220
0.0
230
1.0
 40
0.3713660456637693
 41
-2.503981914239607
 42
-0.6376107393498554
  0
ELLIPSE
  5
5DC
330
1A
100
AcDbEntity
  8
SEIHIN
  6
CONTINUOUS
 62
     3
100
AcDbEllipse
 10
464.3359257428606
 20
464.2567974172712
 30
0.0
 11
-0.0000000000000487
 21
2.099999999999106
 31
0.0
210
0.0
220
0.0
230
1.0
 40
0.3713657193551517
 41
-1.347517163204156
 42
4.489109816794168
  0
ELLIPSE
  5
5DD
330
1A
100
AcDbEntity
  8
SEIHIN
  6
CONTINUOUS
 62
     3
100
AcDbEllipse
 10
472.1346223727183
 20
464.2567974172712
 30
0.0
 11
0.0
 21
-2.1
 31
0.0
210
0.0
220
0.0
230
1.0
 40
0.3713657193368038
 41
0.0
 42
6.283185307179586
  0
ELLIPSE
  5
5DE
330
1A
100
AcDbEntity
  8
SEIHIN
  6
CONTINUOUS
 62
     3
100
AcDbEllipse
 10
465.635547451018
 20
464.2567974172712
 30
0.0
 11
0.0
 21
3.250000000000002
 31
0.0
210
0.0
220
0.0
230
1.0
 40
0.3713660456669805
 41
-2.746772137857147
 42
-0.3948205157326451
  0
LINE
  5
5DF
330
1A
100
AcDbEntity
  8
CENTER_L
  6
CENTER
 62
     1
 48
5.0
100
AcDbLine
 10
466.564027656978
 20
460.2593157706674
 30
0.0
 11
466.564027656978
 21
468.3074517348956
 31
0.0
  0
LINE
  5
5E0
330
1A
100
AcDbEntity
  8
CENTER_L
  6
CENTER
 62
     1
 48
5.0
100
AcDbLine
 10
464.3359257428607
 20
461.4187361435113
 30
0.0
 11
464.3359257428607
 21
467.2502809402658
 31
0.0
  0
ELLIPSE
  5
5E1
330
1A
100
AcDbEntity
  8
SEIHIN
  6
CONTINUOUS
 62
     3
100
AcDbEllipse
 10
466.564027656978
 20
464.2567974172712
 30
0.0
 11
0.0000000000000115
 21
3.249999999998905
 31
0.0
210
0.0
220
0.0
230
1.0
 40
0.371365719340337
 41
1.71436595705665
 42
7.710412003712763
  0
LINE
  5
5E2
330
1A
100
AcDbEntity
  8
CENTER_L
  6
CENTER
 62
     1
 48
5.0
100
AcDbLine
 10
472.1346933896326
 20
467.2545974172712
 30
0.0
 11
472.1346933896326
 21
461.4329974172712
 31
0.0
  0
LINE
  5
5E3
330
1A
100
AcDbEntity
  8
SEIHIN
  6
CONTINUOUS
 62
     3
100
AcDbLine
 10
461.7363933896326
 20
467.7567974172713
 30
0.0
 11
461.7363933896326
 21
456.4987974172714
 31
0.0
  0
LINE
  5
5E4
330
1A
100
AcDbEntity
  8
SEIHIN
  6
CONTINUOUS
 62
     3
100
AcDbLine
 10
461.3663933896326
 20
467.7567974172713
 30
0.0
 11
461.3663933896326
 21
457.0186974172714
 31
0.0
  0
LINE
  5
5E5
330
1A
100
AcDbEntity
  8
SEIHIN
  6
CONTINUOUS
 62
     3
100
AcDbLine
 10
474.7341933896325
 20
467.7567974172713
 30
0.0
 11
474.7341933896325
 21
456.4395974172715
 31
0.0
  0
LINE
  5
5E6
330
1A
100
AcDbEntity
  8
SEIHIN
  6
CONTINUOUS
 62
     3
100
AcDbLine
 10
471.9947933896326
 20
450.2567974172714
 30
0.0
 11
444.2229933896326
 21
450.2567974172714
 31
0.0
  0
LINE
  5
5E7
330
1A
100
AcDbEntity
  8
SEIHIN
  6
CONTINUOUS
 62
     3
100
AcDbLine
 10
471.9950933896324
 20
442.2567974172714
 30
0.0
 11
444.2229933896326
 21
442.2567974172714
 31
0.0
  0
LINE
  5
5E8
330
1A
100
AcDbEntity
  8
SEIHIN
  6
CONTINUOUS
 62
     3
100
AcDbLine
 10
439.2229933896326
 20
449.2567974172714
 30
0.0
 11
439.2229933896326
 21
446.2567974172714
 31
0.0
  0
LINE
  5
5E9
330
1A
100
AcDbEntity
  8
SEIHIN
  6
CONTINUOUS
 62
     3
100
AcDbLine
 10
443.2229933896326
 20
446.2567974172714
 30
0.0
 11
443.2229933896326
 21
449.2567974172714
 31
0.0
  0
LINE
  5
5EA
330
1A
100
AcDbEntity
  8
SEIHIN
  6
CONTINUOUS
 62
     3
100
AcDbLine
 10
439.2229933896325
 20
443.2567974172714
 30
0.0
 11
439.2229933896326
 21
446.2567974172714
 31
0.0
  0
LINE
  5
5EB
330
1A
100
AcDbEntity
  8
SEIHIN
  6
CONTINUOUS
 62
     3
100
AcDbLine
 10
443.2229933896326
 20
446.2567974172714
 30
0.0
 11
443.2229933896326
 21
443.2567974172714
 31
0.0
  0
LINE
  5
5EC
330
1A
100
AcDbEntity
  8
SEIHIN
  6
CONTINUOUS
 62
     3
100
AcDbLine
 10
456.1658933896326
 20
438.3067974172716
 30
0.0
 11
456.1658933896326
 21
441.7846974172714
 31
0.0
  0
LINE
  5
5ED
330
1A
100
AcDbEntity
  8
SEIHIN
  6
CONTINUOUS
 62
     3
100
AcDbLine
 10
474.7341933896325
 20
446.2567974172714
 30
0.0
 11
474.7341933896325
 21
438.3067974172716
 31
0.0
  0
ELLIPSE
  5
5EE
330
1A
100
AcDbEntity
  8
SEIHIN
  6
CONTINUOUS
 62
     3
100
AcDbEllipse
 10
462.4803933896326
 20
424.7567974172714
 30
0.0
 11
-0.0000000000000269
 21
2.0
 31
0.0
210
0.0
220
0.0
230
1.0
 40
0.3720000000000141
 41
1.570796326794891
 42
3.141592653589757
  0
LINE
  5
5EF
330
1A
100
AcDbEntity
  8
SEIHIN
  6
CONTINUOUS
 62
     3
100
AcDbLine
 10
461.7363933896326
 20
436.4567974172715
 30
0.0
 11
474.1878933896326
 21
436.4567974172715
 31
0.0
  0
LINE
  5
5F0
330
1A
100
AcDbEntity
  8
SEIHIN
  6
CONTINUOUS
 62
     3
100
AcDbLine
 10
473.9941933896324
 20
422.7567974172713
 30
0.0
 11
462.1034933896326
 21
422.7567974172713
 31
0.0
  0
LINE
  5
5F1
330
1A
100
AcDbEntity
  8
SEIHIN
  6
CONTINUOUS
 62
     3
100
AcDbLine
 10
458.6971933896326
 20
436.9567974172715
 30
0.0
 11
472.5767933896326
 21
436.9567974172714
 31
0.0
  0
LINE
  5
5F2
330
1A
100
AcDbEntity
  8
SEIHIN
  6
CONTINUOUS
 62
     3
100
AcDbLine
 10
461.3663933896326
 20
424.7567974172714
 30
0.0
 11
461.3663933896326
 21
435.4949974172713
 31
0.0
  0
LINE
  5
5F3
330
1A
100
AcDbEntity
  8
SEIHIN
  6
CONTINUOUS
 62
     3
100
AcDbLine
 10
461.7363933896326
 20
424.7567974172714
 30
0.0
 11
461.7363933896326
 21
436.0148974172715
 31
0.0
  0
ELLIPSE
  5
5F4
330
1A
100
AcDbEntity
  8
SEIHIN
  6
CONTINUOUS
 62
     3
100
AcDbEllipse
 10
462.1103933896326
 20
424.7567974172714
 30
0.0
 11
-0.0000000000000269
 21
2.0
 31
0.0
210
0.0
220
0.0
230
1.0
 40
0.3720000000000141
 41
1.570796326794891
 42
3.141592653589757
  0
ARC
  5
5F5
330
1A
100
AcDbEntity
  8
SEIHIN
  6
CONTINUOUS
 62
     3
100
AcDbCircle
 10
457.7688139872834
 20
436.9479739040381
 30
0.0
 40
1.000059523284271
100
AcDbArc
 50
179.4944734625137
 51
262.9397336661846
  0
ARC
  5
5F7
330
1A
100
AcDbEntity
  8
SEIHIN
  6
CONTINUOUS
 62
     3
100
AcDbCircle
 10
461.236395044638
 20
436.014895544478
 30
0.0
 40
0.4999983449980165
100
AcDbArc
 50
0.0002146070295975
 51
82.93489466527958
  0
LINE
  5
5FA
330
1A
100
AcDbEntity
  8
SEIHIN
  6
CONTINUOUS
 62
     3
100
AcDbLine
 10
461.2978933896326
 20
436.5110974172715
 30
0.0
 11
457.6971933896326
 21
436.9567974172714
 31
0.0
  0
LINE
  5
5FB
330
1A
100
AcDbEntity
  8
SEIHIN
  6
CONTINUOUS
 62
     3
100
AcDbLine
 10
457.6458933896325
 20
435.9554974172714
 30
0.0
 11
461.3663933896326
 21
435.4949974172713
 31
0.0
  0
ELLIPSE
  5
5FC
330
1A
100
AcDbEntity
  8
SEIHIN
  6
CONTINUOUS
 62
     3
100
AcDbEllipse
 10
471.2061464818152
 20
428.2567974172714
 30
0.0
 11
0.0000000000000205
 21
2.099999999999987
 31
0.0
210
0.0
220
0.0
230
1.0
 40
0.3713660456637756
 41
-2.5039819142397
 42
-0.6376107393500396
  0
LINE
  5
5FD
330
1A
100
AcDbEntity
  8
CENTER_L
  6
CENTER
 62
     1
 48
5.0
100
AcDbLine
 10
472.1346933896326
 20
425.2589974172715
 30
0.0
 11
472.1346933896326
 21
431.0806974172715
 31
0.0
  0
ELLIPSE
  5
5FE
330
1A
100
AcDbEntity
  8
SEIHIN
  6
CONTINUOUS
 62
     3
100
AcDbEllipse
 10
465.635547451018
 20
428.2567974172714
 30
0.0
 11
0.0
 21
3.250000000000002
 31
0.0
210
0.0
220
0.0
230
1.0
 40
0.3713660456669805
 41
-2.746772137857147
 42
-0.3948205157326451
  0
ELLIPSE
  5
5FF
330
1A
100
AcDbEntity
  8
SEIHIN
  6
CONTINUOUS
 62
     3
100
AcDbEllipse
 10
466.564027656978
 20
428.2567974172714
 30
0.0
 11
0.0000000000000866
 21
3.24999999999851
 31
0.0
210
0.0
220
0.0
230
1.0
 40
0.371365719340382
 41
1.714365957056712
 42
7.710412003712824
  0
ELLIPSE
  5
600
330
1A
100
AcDbEntity
  8
SEIHIN
  6
CONTINUOUS
 62
     3
100
AcDbEllipse
 10
464.3359257428607
 20
428.2567974172714
 30
0.0
 11
0.0000000000000616
 21
2.100000000000501
 31
0.0
210
0.0
220
0.0
230
1.0
 40
0.371365719354905
 41
-1.347517163204343
 42
4.48910981679431
  0
LINE
  5
601
330
1A
100
AcDbEntity
  8
CENTER_L
  6
CENTER
 62
     1
 48
5.0
100
AcDbLine
 10
464.3359257428607
 20
425.1560250380079
 30
0.0
 11
464.3359257428607
 21
431.2518726322132
 31
0.0
  0
ELLIPSE
  5
602
330
1A
100
AcDbEntity
  8
SEIHIN
  6
CONTINUOUS
 62
     3
100
AcDbEllipse
 10
463.4074452395573
 20
428.2567974172714
 30
0.0
 11
0.0000000000001679
 21
2.099999999999807
 31
0.0
210
0.0
220
0.0
230
1.0
 40
0.3713660456812251
 41
-1.347517163204249
 42
-0.6376144195822163
  0
ELLIPSE
  5
603
330
1A
100
AcDbEntity
  8
SEIHIN
  6
CONTINUOUS
 62
     3
100
AcDbEllipse
 10
472.1346223727183
 20
428.2567974172714
 30
0.0
 11
0.0
 21
-2.1
 31
0.0
210
0.0
220
0.0
230
1.0
 40
0.3713657193368038
 41
0.0
 42
6.283185307179586
  0
LINE
  5
604
330
1A
100
AcDbEntity
  8
CENTER_L
  6
CENTER
 62
     1
 48
5.0
100
AcDbLine
 10
466.564027656978
 20
424.2923551793644
 30
0.0
 11
466.564027656978
 21
432.4506215026828
 31
0.0
  0
LINE
  5
605
330
1A
100
AcDbEntity
  8
SEIHIN
  6
CONTINUOUS
 62
     3
100
AcDbLine
 10
474.7341933896325
 20
424.7567974172714
 30
0.0
 11
474.7341933896325
 21
436.0740974172713
 31
0.0
  0
LINE
  5
606
330
1A
100
AcDbEntity
  8
CENTER_L
  6
CENTER
 62
     1
 48
5.0
100
AcDbLine
 10
473.8276933896326
 20
428.2567974172714
 30
0.0
 11
462.4633933896325
 21
428.2567974172714
 31
0.0
  0
LINE
  5
607
330
1A
100
AcDbEntity
  8
SEIHIN
  6
CONTINUOUS
 62
     3
100
AcDbLine
 10
465.3695065709008
 20
427.7917974172715
 30
0.0
 11
464.1233933896325
 21
427.7917974172715
 31
0.0
  0
ELLIPSE
  5
608
330
1A
100
AcDbEntity
  8
SEIHIN
  6
CONTINUOUS
 62
     3
100
AcDbEllipse
 10
463.4074452395573
 20
428.2567974172714
 30
0.0
 11
-0.0000000000002235
 21
2.099999999999682
 31
0.0
210
0.0
220
0.0
230
1.0
 40
0.3713660456812337
 41
-2.503978234007712
 42
-1.794075490385456
  0
LINE
  5
609
330
1A
100
AcDbEntity
  8
SEIHIN
  6
CONTINUOUS
 62
     3
100
AcDbLine
 10
465.3695065709008
 20
428.7217974172715
 30
0.0
 11
464.1233933896325
 21
428.7217974172715
 31
0.0
  0
ELLIPSE
  5
60A
330
1A
100
AcDbEntity
  8
SEIHIN
  6
CONTINUOUS
 62
     3
100
AcDbEllipse
 10
473.9901933896324
 20
424.7567974172714
 30
0.0
 11
0.0000000000000266
 21
2.0
 31
0.0
210
0.0
220
0.0
230
1.0
 40
0.3720000000000141
 41
-3.141592653589757
 42
-1.570796326794891
  0
LINE
  5
60B
330
1A
100
AcDbEntity
  8
SEIHIN
  6
CONTINUOUS
 62
     3
100
AcDbLine
 10
472.8763933896326
 20
436.9567974172714
 30
0.0
 11
474.3639933896325
 21
436.5569974172714
 31
0.0
  0
LINE
  5
60C
330
1A
100
AcDbEntity
  8
SEIHIN
  6
CONTINUOUS
 62
     3
100
AcDbLine
 10
472.8763933896326
 20
436.9567974172714
 30
0.0
 11
472.8763933896326
 21
437.3067974172713
 31
0.0
  0
ARC
  5
60D
330
1A
100
AcDbEntity
  8
SEIHIN
  6
CONTINUOUS
 62
     3
100
AcDbCircle
 10
474.2341731654503
 20
436.0741237954197
 30
0.0
 40
0.5000202248778729
100
AcDbArc
 50
359.9969774091067
 51
74.95189438700416
  0
ARC
  5
60E
330
1A
100
AcDbEntity
  8
SEIHIN
  6
CONTINUOUS
 62
     3
100
AcDbCircle
 10
473.7341933896324
 20
438.3067974172713
 30
0.0
 40
1.000000000000028
100
AcDbArc
 50
270.0000000000081
 51
0.0000000000081422
  0
LINE
  5
60F
330
1A
100
AcDbEntity
  8
SEIHIN
  6
CONTINUOUS
 62
     3
100
AcDbLine
 10
461.7363933896326
 20
456.0567974172713
 30
0.0
 11
474.1878933896326
 21
456.0567974172713
 31
0.0
  0
LINE
  5
610
330
1A
100
AcDbEntity
  8
SEIHIN
  6
CONTINUOUS
 62
     3
100
AcDbLine
 10
458.6971933896327
 20
455.5567974172714
 30
0.0
 11
472.5767933896326
 21
455.5567974172713
 31
0.0
  0
LINE
  5
611
330
1A
100
AcDbEntity
  8
SEIHIN
  6
CONTINUOUS
 62
     3
100
AcDbLine
 10
456.1658933896326
 20
454.2067974172714
 30
0.0
 11
456.1658933896326
 21
450.7289974172713
 31
0.0
  0
ARC
  5
614
330
1A
100
AcDbEntity
  8
SEIHIN
  6
CONTINUOUS
 62
     3
100
AcDbCircle
 10
459.1658933899658
 20
446.2568474172715
 30
0.0
 40
4.999955445273678
100
AcDbArc
 50
131.8102590897474
 51
228.1897409102525
  0
ARC
  5
615
330
1A
100
AcDbEntity
  8
SEIHIN
  6
CONTINUOUS
 62
     3
100
AcDbCircle
 10
457.7687644231036
 20
455.5656643468058
 30
0.0
 40
1.000010345056686
100
AcDbArc
 50
97.05775383014481
 51
180.5080390411498
  0
ARC
  5
616
330
1A
100
AcDbEntity
  8
SEIHIN
  6
CONTINUOUS
 62
     3
100
AcDbCircle
 10
461.2363454242339
 20
456.4987431412838
 30
0.0
 40
0.5000479683443228
100
AcDbArc
 50
277.0701297000588
 51
0.006218973440129
  0
LINE
  5
617
330
1A
100
AcDbEntity
  8
SEIHIN
  6
CONTINUOUS
 62
     3
100
AcDbLine
 10
457.6458933896325
 20
456.5580974172715
 30
0.0
 11
461.3663933896326
 21
457.0186974172714
 31
0.0
  0
LINE
  5
618
330
1A
100
AcDbEntity
  8
SEIHIN
  6
CONTINUOUS
 62
     3
100
AcDbLine
 10
461.2978933896326
 20
456.0024974172714
 30
0.0
 11
457.6971933896326
 21
455.5567974172713
 31
0.0
  0
LINE
  5
61C
330
1A
100
AcDbEntity
  8
SEIHIN
  6
CONTINUOUS
 62
     3
100
AcDbLine
 10
474.7341933896325
 20
446.2567974172714
 30
0.0
 11
474.7341933896325
 21
454.2067974172714
 31
0.0
  0
ARC
  5
61D
330
1A
100
AcDbEntity
  8
SEIHIN
  6
CONTINUOUS
 62
     3
100
AcDbCircle
 10
467.3523933900023
 20
446.2565813493697
 30
0.0
 40
6.128044940275564
100
AcDbArc
 50
319.2544079509474
 51
40.74845690964926
  0
ELLIPSE
  5
61E
330
1A
100
AcDbEntity
  8
SEIHIN
  6
CONTINUOUS
 62
     3
100
AcDbEllipse
 10
463.4074452395573
 20
464.2567974172712
 30
0.0
 11
0.0000000000001753
 21
2.100000000000269
 31
0.0
210
0.0
220
0.0
230
1.0
 40
0.3713660456811847
 41
-2.50397823400731
 42
-1.794075490385266
  0
LINE
  5
61F
330
1A
100
AcDbEntity
  8
SEIHIN
  6
CONTINUOUS
 62
     3
100
AcDbLine
 10
465.3695065709007
 20
463.7917974172714
 30
0.0
 11
464.1233933896325
 21
463.7917974172714
 31
0.0
  0
LINE
  5
620
330
1A
100
AcDbEntity
  8
SEIHIN
  6
CONTINUOUS
 62
     3
100
AcDbLine
 10
472.8763933896326
 20
455.5567974172713
 30
0.0
 11
474.3639933896325
 21
455.9566974172715
 31
0.0
  0
ARC
  5
621
330
1A
100
AcDbEntity
  8
SEIHIN
  6
CONTINUOUS
 62
     3
100
AcDbCircle
 10
474.2341731654504
 20
456.4395710391232
 30
0.0
 40
0.5000202248777576
100
AcDbArc
 50
285.0481056129858
 51
0.0030225908834201
  0
ARC
  5
622
330
1A
100
AcDbEntity
  8
SEIHIN
  6
CONTINUOUS
 62
     3
100
AcDbCircle
 10
473.7341933896326
 20
454.2067974172714
 30
0.0
 40
0.9999999999998863
100
AcDbArc
 50
0.0
 51
90.0
  0
LINE
  5
623
330
1A
100
AcDbEntity
  8
SEIHIN
  6
CONTINUOUS
 62
     3
100
AcDbLine
 10
472.8763933896326
 20
455.5567974172713
 30
0.0
 11
472.8763933896326
 21
455.2067974172714
 31
0.0
  0
ELLIPSE
  5
624
330
1A
100
AcDbEntity
  8
SEIHIN
  6
CONTINUOUS
 62
     3
100
AcDbEllipse
 10
462.4803933896326
 20
467.7567974172712
 30
0.0
 11
0.0000000000000266
 21
2.0
 31
0.0
210
0.0
220
0.0
230
1.0
 40
0.3720000000000141
 41
0.0000000000000358
 42
1.570796326794901
  0
LINE
  5
625
330
1A
100
AcDbEntity
  8
SEIHIN
  6
CONTINUOUS
 62
     3
100
AcDbLine
 10
473.9941933896324
 20
469.7567974172712
 30
0.0
 11
462.1034933896326
 21
469.7567974172712
 31
0.0
  0
ELLIPSE
  5
626
330
1A
100
AcDbEntity
  8
SEIHIN
  6
CONTINUOUS
 62
     3
100
AcDbEllipse
 10
462.1103933896326
 20
467.7567974172712
 30
0.0
 11
0.0000000000000266
 21
2.0
 31
0.0
210
0.0
220
0.0
230
1.0
 40
0.3720000000000141
 41
0.0000000000000358
 42
1.570796326794901
  0
LINE
  5
627
330
1A
100
AcDbEntity
  8
CENTER_L
  6
CENTER
 62
     1
 48
5.0
100
AcDbLine
 10
473.8276933896326
 20
464.2567974172712
 30
0.0
 11
462.4633933896325
 21
464.2567974172712
 31
0.0
  0
LINE
  5
628
330
1A
100
AcDbEntity
  8
SEIHIN
  6
CONTINUOUS
 62
     3
100
AcDbLine
 10
465.3695065709007
 20
464.7217974172715
 30
0.0
 11
464.1233933896325
 21
464.7217974172715
 31
0.0
  0
ELLIPSE
  5
629
330
1A
100
AcDbEntity
  8
SEIHIN
  6
CONTINUOUS
 62
     3
100
AcDbEllipse
 10
463.4074452395573
 20
464.2567974172712
 30
0.0
 11
-0.0000000000001971
 21
2.100000000000328
 31
0.0
210
0.0
220
0.0
230
1.0
 40
0.3713660456811668
 41
-1.347517163204314
 42
-0.6376144195826163
  0
ELLIPSE
  5
62A
330
1A
100
AcDbEntity
  8
SEIHIN
  6
CONTINUOUS
 62
     3
100
AcDbEllipse
 10
473.9901933896324
 20
467.7567974172712
 30
0.0
 11
-0.0000000000000269
 21
2.0
 31
0.0
210
0.0
220
0.0
230
1.0
 40
0.3720000000000141
 41
-1.570796326794901
 42
-0.0000000000000362
  0
LINE
  5
62B
330
1A
100
AcDbEntity
  8
SUNPOU
  6
CONTINUOUS
 62
     4
100
AcDbLine
 10
493.0768334044966
 20
233.7909470429984
 30
0.0
 11
493.0768334044966
 21
218.7909470429983
 31
0.0
  0
LINE
  5
62C
330
1A
100
AcDbEntity
  8
SUNPOU
  6
CONTINUOUS
 62
     4
100
AcDbLine
 10
488.8073334044966
 20
244.4655470429984
 30
0.0
 11
499.0763334044965
 21
218.7909470429983
 31
0.0
  0
LINE
  5
631
330
1A
100
AcDbEntity
  8
SEIHIN
  6
PHANTOM
 62
     6
 48
5.0
100
AcDbLine
 10
489.7341933896324
 20
117.0963081409995
 30
0.0
 11
484.1632933896325
 21
114.8681081409994
 31
0.0
  0
TEXT
  5
632
330
1A
100
AcDbEntity
  8
SUNPOU
  6
CONTINUOUS
 62
     4
100
AcDbText
 10
494.0367665936402
 20
209.5331868528584
 30
0.0
 40
6.0
  1
4
100
AcDbText
  0
LINE
  5
633
330
1A
100
AcDbEntity
  8
SUNPOU
  6
CONTINUOUS
 62
     4
100
AcDbLine
 10
493.0768334044966
 20
218.7909470429983
 30
0.0
 11
499.0763334044965
 21
218.7909470429983
 31
0.0
  0
TEXT
  5
634
330
1A
100
AcDbEntity
  8
SUNPOU
  6
CONTINUOUS
 62
     4
100
AcDbText
 10
483.1631761302015
 20
222.337228972661
 30
0.0
 40
6.0
  1
10
100
AcDbText
  0
LINE
  5
635
330
1A
100
AcDbEntity
  8
CENTER_L
  6
CENTER
 62
     1
 48
5.0
100
AcDbLine
 10
652.5745732684665
 20
376.6251960987818
 30
0.0
 11
659.1453732684666
 21
379.253396098782
 31
0.0
  0
LINE
  5
636
330
1A
100
AcDbEntity
  8
SEIHIN
  6
CONTINUOUS
 62
     3
100
AcDbLine
 10
669.5436732684667
 20
353.2557960987819
 30
0.0
 11
649.8132732684669
 21
345.3641960987819
 31
0.0
  0
LINE
  5
637
330
1A
100
AcDbEntity
  8
SEIHIN
  6
CONTINUOUS
 62
     3
100
AcDbLine
 10
658.1232732684671
 20
348.687996098782
 30
0.0
 11
639.9262732684668
 21
394.183696098782
 31
0.0
  0
LINE
  5
638
330
1A
100
AcDbEntity
  8
SEIHIN
  6
CONTINUOUS
 62
     3
100
AcDbLine
 10
645.4503331896501
 20
381.3149386138967
 30
0.0
 11
658.44833318965
 21
348.8179386138968
 31
0.0
  0
LINE
  5
639
330
1A
100
AcDbEntity
  8
SEIHIN
  6
CONTINUOUS
 62
     3
100
AcDbLine
 10
656.5457732684667
 20
385.7527960987821
 30
0.0
 11
645.4503331896501
 21
381.3149386138967
 31
0.0
  0
LINE
  5
63A
330
1A
100
AcDbEntity
  8
CENTER_L
  6
CENTER
 62
     1
 48
5.0
100
AcDbLine
 10
631.9350732684668
 20
341.5932960987821
 30
0.0
 11
628.6441073491135
 21
349.8213783099577
 31
0.0
  0
LINE
  5
63B
330
1A
100
AcDbEntity
  8
SEIHIN
  6
CONTINUOUS
 62
     3
100
AcDbLine
 10
630.0829732684668
 20
337.472596098782
 30
0.0
 11
649.8132732684669
 21
345.3641960987819
 31
0.0
  0
LINE
  5
63C
330
1A
100
AcDbEntity
  8
SEIHIN
  6
CONTINUOUS
 62
     3
100
AcDbLine
 10
615.9708732684667
 20
367.3698960987821
 30
0.0
 11
627.483273268467
 21
338.586896098782
 31
0.0
  0
LINE
  5
63D
330
1A
100
AcDbEntity
  8
SEIHIN
  6
CONTINUOUS
 62
     3
100
AcDbLine
 10
628.1805133472835
 20
374.407453583667
 30
0.0
 11
641.1784133472833
 21
341.910453583667
 31
0.0
  0
LINE
  5
63E
330
1A
100
AcDbEntity
  8
SEIHIN
  6
CONTINUOUS
 62
     3
100
AcDbLine
 10
641.5033732684668
 20
342.0404960987819
 30
0.0
 11
623.3063732684668
 21
387.536296098782
 31
0.0
  0
LINE
  5
63F
330
1A
100
AcDbEntity
  8
CENTER_L
  6
CENTER
 62
     1
 48
5.0
100
AcDbLine
 10
651.3684732684666
 20
341.475996098782
 30
0.0
 11
628.7548732684667
 21
398.013996098782
 31
0.0
  0
LINE
  5
640
330
1A
100
AcDbEntity
  8
SEIHIN
  6
PHANTOM
 62
     6
 48
5.0
100
AcDbLine
 10
489.7341933896324
 20
275.3376457924214
 30
0.0
 11
484.1632933896325
 21
273.1094457924213
 31
0.0
  0
ARC
  5
641
330
1A
100
AcDbEntity
  8
SEIHIN
  6
CONTINUOUS
 62
     3
100
AcDbCircle
 10
629.3402129242634
 20
339.3296219632361
 30
0.0
 40
1.999966648471886
100
AcDbArc
 50
201.8000795760823
 51
291.8011434509513
  0
ARC
  5
642
330
1A
100
AcDbEntity
  8
SEIHIN
  6
CONTINUOUS
 62
     3
100
AcDbCircle
 10
624.2347732684667
 20
387.9075960987819
 30
0.0
 40
0.9999879699276904
100
AcDbArc
 50
111.7960896427661
 51
201.7960896427638
  0
ARC
  5
643
330
1A
100
AcDbEntity
  8
SEIHIN
  6
CONTINUOUS
 62
     3
100
AcDbCircle
 10
631.2447928087379
 20
391.7885899640696
 30
0.0
 40
3.999864631469977
100
AcDbArc
 50
213.3390314722182
 51
291.8009162411602
  0
ARC
  5
644
330
1A
100
AcDbEntity
  8
SEIHIN
  6
CONTINUOUS
 62
     3
100
AcDbCircle
 10
631.2449634922122
 20
391.7886784405699
 30
0.0
 40
3.999883395810608
100
AcDbArc
 50
291.798175491947
 51
10.2611247758092
  0
LINE
  5
645
330
1A
100
AcDbEntity
  8
SEIHIN
  6
CONTINUOUS
 62
     3
100
AcDbLine
 10
628.0767732684669
 20
388.9383960987819
 30
0.0
 11
642.7570732684669
 21
352.2350960987819
 31
0.0
  0
LINE
  5
646
330
1A
100
AcDbEntity
  8
SEIHIN
  6
CONTINUOUS
 62
     3
100
AcDbLine
 10
635.5047732684668
 20
391.909296098782
 30
0.0
 11
650.1848732684668
 21
355.2060960987819
 31
0.0
  0
LINE
  5
647
330
1A
100
AcDbEntity
  8
SEIHIN
  6
CONTINUOUS
 62
     3
100
AcDbLine
 10
617.0850732684666
 20
369.9695960987818
 30
0.0
 11
628.1805133472835
 21
374.407453583667
 31
0.0
  0
LINE
  5
648
330
1A
100
AcDbEntity
  8
CENTER_L
  6
CENTER
 62
     1
 48
5.0
100
AcDbLine
 10
626.2554732684665
 20
366.0983960987819
 30
0.0
 11
619.6846732684668
 21
363.4701960987818
 31
0.0
  0
ARC
  5
649
330
1A
100
AcDbEntity
  8
SEIHIN
  6
CONTINUOUS
 62
     3
100
AcDbCircle
 10
617.8277629238873
 20
368.1126719617394
 30
0.0
 40
1.999938792813307
100
AcDbArc
 50
111.7992815254526
 51
201.801941501584
  0
ARC
  5
64A
330
1A
100
AcDbEntity
  8
SEIHIN
  6
CONTINUOUS
 62
     3
100
AcDbCircle
 10
622.7023025790693
 20
364.6772078224236
 30
0.0
 40
2.100021221390584
100
AcDbArc
 50
328.3285323621055
 51
255.270881923339
  0
ARC
  5
64B
330
1A
100
AcDbEntity
  8
SEIHIN
  6
CONTINUOUS
 62
     3
100
AcDbCircle
 10
630.5009732684666
 20
345.1789960987819
 30
0.0
 40
2.100000000000079
100
AcDbArc
 50
179.9999999999999
 51
359.9999999999999
  0
LINE
  5
64C
330
1A
100
AcDbEntity
  8
CENTER_L
  6
CENTER
 62
     1
 48
5.0
100
AcDbLine
 10
627.4833732684668
 20
343.9719960987819
 30
0.0
 11
633.8172732684665
 21
346.5053960987818
 31
0.0
  0
ARC
  5
64D
330
1A
100
AcDbEntity
  8
SEIHIN
  6
CONTINUOUS
 62
     3
100
AcDbCircle
 10
630.5009732684666
 20
345.1789960987819
 30
0.0
 40
2.100000000000079
100
AcDbArc
 50
359.9999999999999
 51
179.9999999999999
  0
LINE
  5
64E
330
1A
100
AcDbEntity
  8
CENTER_L
  6
CENTER
 62
     1
 48
5.0
100
AcDbLine
 10
629.3655732684669
 20
360.8804960987819
 30
0.0
 11
620.8365732684667
 21
357.4690960987819
 31
0.0
  0
LINE
  5
64F
330
1A
100
AcDbEntity
  8
SEIHIN
  6
CONTINUOUS
 62
     3
100
AcDbLine
 10
624.9768732684668
 20
362.356196098782
 30
0.0
 11
624.4895732684669
 21
363.574596098782
 31
0.0
  0
LINE
  5
650
330
1A
100
AcDbEntity
  8
SEIHIN
  6
CONTINUOUS
 62
     3
100
AcDbLine
 10
622.6556732684667
 20
361.427796098782
 30
0.0
 11
622.1683732684667
 21
362.646196098782
 31
0.0
  0
ARC
  5
651
330
1A
100
AcDbEntity
  8
SEIHIN
  6
CONTINUOUS
 62
     3
100
AcDbCircle
 10
624.9303767150431
 20
359.1064974772895
 30
0.0
 40
3.250031239851502
100
AcDbArc
 50
134.4191439934986
 51
89.18027029194639
  0
ARC
  5
652
330
1A
100
AcDbEntity
  8
SEIHIN
  6
CONTINUOUS
 62
     3
100
AcDbCircle
 10
646.4709732684667
 20
353.7205960987821
 30
0.0
 40
3.99997043239075
100
AcDbArc
 50
201.8006115135167
 51
21.80061151351622
  0
LINE
  5
653
330
1A
100
AcDbEntity
  8
SEIHIN
  6
CONTINUOUS
 62
     3
100
AcDbLine
 10
630.3622732684665
 20
369.8949960987818
 30
0.0
 11
630.0373133472833
 21
369.765053583667
 31
0.0
  0
LINE
  5
654
330
1A
100
AcDbEntity
  8
SEIHIN
  6
CONTINUOUS
 62
     3
100
AcDbLine
 10
646.9822732684668
 20
376.542496098782
 30
0.0
 11
647.3072331896501
 21
376.6725386138967
 31
0.0
  0
LINE
  5
655
330
1A
100
AcDbEntity
  8
SEIHIN
  6
CONTINUOUS
 62
     3
100
AcDbLine
 10
638.6264732684669
 20
394.7408960987818
 30
0.0
 11
635.7935732684667
 21
393.607796098782
 31
0.0
  0
ARC
  5
656
330
1A
100
AcDbEntity
  8
SEIHIN
  6
CONTINUOUS
 62
     3
100
AcDbCircle
 10
627.0676367269194
 20
389.0407075705711
 30
0.0
 40
1.000000882646251
100
AcDbArc
 50
33.33875559623236
 51
111.7997096676328
  0
LINE
  5
657
330
1A
100
AcDbEntity
  8
SEIHIN
  6
CONTINUOUS
 62
     3
100
AcDbLine
 10
623.8634732684666
 20
388.8360960987821
 30
0.0
 11
626.6962732684669
 21
389.969196098782
 31
0.0
  0
ARC
  5
658
330
1A
100
AcDbEntity
  8
SEIHIN
  6
CONTINUOUS
 62
     3
100
AcDbCircle
 10
636.1649875517014
 20
392.6793218986107
 30
0.0
 40
1.000006455066197
100
AcDbArc
 50
111.8027183120993
 51
190.2605449896932
  0
ARC
  5
659
330
1A
100
AcDbEntity
  8
SEIHIN
  6
CONTINUOUS
 62
     3
100
AcDbCircle
 10
638.9977732684668
 20
393.8123960987819
 30
0.0
 40
0.9999879699276165
100
AcDbArc
 50
21.7960896427773
 51
111.7960896427742
  0
LINE
  5
65A
330
1A
100
AcDbEntity
  8
CENTER_L
  6
CENTER
 62
     1
 48
5.0
100
AcDbLine
 10
665.3606732684668
 20
354.9625960987819
 30
0.0
 11
662.0696369066922
 21
363.1907457741063
 31
0.0
  0
LINE
  5
65B
330
1A
100
AcDbEntity
  8
SEIHIN
  6
CONTINUOUS
 62
     3
100
AcDbLine
 10
659.1454732684667
 20
384.6384960987819
 30
0.0
 11
670.6578732684667
 21
355.8554960987819
 31
0.0
  0
LINE
  5
65C
330
1A
100
AcDbEntity
  8
CENTER_L
  6
CENTER
 62
     1
 48
5.0
100
AcDbLine
 10
666.9440732684667
 20
359.755196098782
 30
0.0
 11
660.6101732684668
 21
357.2217960987819
 31
0.0
  0
ARC
  5
65D
330
1A
100
AcDbEntity
  8
SEIHIN
  6
CONTINUOUS
 62
     3
100
AcDbCircle
 10
663.9264732684668
 20
358.5481960987818
 30
0.0
 40
2.099999999999965
100
AcDbArc
 50
359.9999999999999
 51
179.9999999999999
  0
ARC
  5
65E
330
1A
100
AcDbEntity
  8
SEIHIN
  6
CONTINUOUS
 62
     3
100
AcDbCircle
 10
663.9264732684668
 20
358.5481960987818
 30
0.0
 40
2.099999999999965
100
AcDbArc
 50
179.9999999999999
 51
359.9999999999999
  0
ARC
  5
65F
330
1A
100
AcDbEntity
  8
SEIHIN
  6
CONTINUOUS
 62
     3
100
AcDbCircle
 10
668.8010094758196
 20
355.1127805793551
 30
0.0
 40
1.999985217445266
100
AcDbArc
 50
291.7979516151842
 51
21.79954761271785
  0
LINE
  5
660
330
1A
100
AcDbEntity
  8
SEIHIN
  6
CONTINUOUS
 62
     3
100
AcDbLine
 10
658.4023732684666
 20
375.7254960987818
 30
0.0
 11
657.9150732684667
 21
376.9437960987819
 31
0.0
  0
ARC
  5
661
330
1A
100
AcDbEntity
  8
SEIHIN
  6
CONTINUOUS
 62
     3
100
AcDbCircle
 10
656.1277827480946
 20
378.046399890186
 30
0.0
 40
2.1000339342569
100
AcDbArc
 50
328.3290006280917
 51
255.2687115033845
  0
ARC
  5
662
330
1A
100
AcDbEntity
  8
SEIHIN
  6
CONTINUOUS
 62
     3
100
AcDbCircle
 10
658.3559629241641
 20
372.4758319589811
 30
0.0
 40
3.249995529468414
100
AcDbArc
 50
134.4218888690546
 51
89.18178126281301
  0
LINE
  5
663
330
1A
100
AcDbEntity
  8
CENTER_L
  6
CENTER
 62
     1
 48
5.0
100
AcDbLine
 10
653.9206732684667
 20
370.701796098782
 30
0.0
 11
662.4495732684668
 21
374.1131960987818
 31
0.0
  0
LINE
  5
664
330
1A
100
AcDbEntity
  8
SEIHIN
  6
CONTINUOUS
 62
     3
100
AcDbLine
 10
656.0811732684669
 20
374.796996098782
 30
0.0
 11
655.5938732684668
 21
376.0153960987819
 31
0.0
  0
ARC
  5
665
330
1A
100
AcDbEntity
  8
SEIHIN
  6
CONTINUOUS
 62
     3
100
AcDbCircle
 10
657.2886094751472
 20
383.8957805810364
 30
0.0
 40
1.999985217445266
100
AcDbArc
 50
21.79954756084974
 51
111.8032714118541
  0
LINE
  5
686
330
1A
100
AcDbEntity
  8
SEIHIN
  6
CONTINUOUS
 62
     3
100
AcDbLine
 10
304.0865933896326
 20
448.2567974172714
 30
0.0
 11
304.0865933896326
 21
451.5567974172715
 31
0.0
  0
ELLIPSE
  5
689
330
1A
100
AcDbEntity
  8
SEIHIN
 62
     3
100
AcDbEllipse
 10
365.7659933896326
 20
446.2567974172714
 30
0.0
 11
0.0
 21
3.999999999999886
 31
0.0
210
0.0
220
0.0
230
1.0
 40
0.8643500000000262
 41
0.0000000000000164
 42
3.141592653589793
  0
LINE
  5
690
330
1A
100
AcDbEntity
  8
SEIHIN
100
AcDbLine
 10
456.7687933896326
 20
455.5567974172715
 30
0.0
 11
456.7687881396327
 21
455.2067974172714
 31
0.0
  0
LINE
  5
691
330
1A
100
AcDbEntity
  8
SEIHIN
  6
CONTINUOUS
 62
     3
100
AcDbLine
 10
457.6971933896326
 20
455.5567974172713
 30
0.0
 11
457.6971933896326
 21
455.2067974172714
 31
0.0
  0
LINE
  5
693
330
1A
100
AcDbEntity
  8
SEIHIN
  6
CONTINUOUS
 62
     3
100
AcDbLine
 10
457.6971933896326
 20
436.9567974172714
 30
0.0
 11
457.6971933896326
 21
437.3067974172713
 31
0.0
  0
LINE
  5
695
330
1A
100
AcDbEntity
  8
SEIHIN
100
AcDbLine
 10
456.7686986396328
 20
437.3067974172714
 30
0.0
 11
456.7686933896326
 21
436.9567974172714
 31
0.0
  0
LINE
  5
69B
330
1A
100
AcDbEntity
  8
CENTER_L
  6
CENTER
 62
     1
 48
5.0
100
AcDbLine
 10
626.7872818671198
 20
354.4638185819172
 30
0.0
 11
621.3335732684667
 21
368.099196098782
 31
0.0
  0
LINE
  5
69C
330
1A
100
AcDbEntity
  8
CENTER_L
  6
CENTER
 62
     1
 48
5.0
100
AcDbLine
 10
660.2127153576312
 20
367.8333649254702
 30
0.0
 11
654.7590732684665
 21
381.4683960987819
 31
0.0
  0
DIMENSION
  5
6A9
330
1A
100
AcDbEntity
  8
SUNPOU
100
AcDbDimension
  2
*D2
 10
640.6135303514433
 20
416.834776422029
 30
0.0
 11
622.0439491340918
 21
414.7925856541507
 31
0.0
 70
    32
  3
STANDARD
100
AcDbAlignedDimension
 13
621.3335732684667
 23
368.099196098782
 33
0.0
 14
654.7590415340973
 24
381.4684754400928
 34
0.0
 50
21.79999999999976
100
AcDbRotatedDimension
1001
ACAD
1000
DSTYLE
1002
{
1070
   140
1040
6.0
1070
    74
1070
     0
1070
   172
1070
     1
1070
    73
1070
     0
1070
   272
1070
     2
1070
    77
1070
     3
1070
   173
1070
     1
1070
   147
1040
2.0
1070
    42
1040
6.0
1070
    44
1040
3.0
1070
    43
1040
14.0
1070
   271
1070
     0
1070
   178
1070
     4
1070
   177
1070
     4
1070
   176
1070
     4
1070
   141
1040
150.0
1070
     7
1000
_OPEN
1070
     6
1000
_OPEN
1070
    41
1040
7.0
1002
}
  0
DIMENSION
  5
6B6
330
1A
100
AcDbEntity
  8
SUNPOU
100
AcDbDimension
  2
*D3
 10
639.6483644287997
 20
433.3847423024653
 30
0.0
 11
616.2042266256202
 21
429.3928680002381
 31
0.0
 70
    32
  3
STANDARD
100
AcDbAlignedDimension
 13
615.228133861841
 23
369.2268736482858
 33
0.0
 14
658.4027154575601
 24
386.4955196621854
 34
0.0
 50
21.79999999999976
100
AcDbRotatedDimension
1001
ACAD
1000
DSTYLE
1002
{
1070
   140
1040
6.0
1070
    74
1070
     0
1070
   172
1070
     1
1070
    73
1070
     0
1070
   272
1070
     2
1070
    77
1070
     3
1070
   173
1070
     1
1070
   147
1040
2.0
1070
    42
1040
6.0
1070
    44
1040
3.0
1070
    43
1040
14.0
1070
   271
1070
     0
1070
   178
1070
     4
1070
   177
1070
     4
1070
   176
1070
     4
1070
   141
1040
150.0
1070
     7
1000
_OPEN
1070
     6
1000
_OPEN
1070
    41
1040
7.0
1002
}
  0
DIMENSION
  5
6C5
330
1A
100
AcDbEntity
  8
SUNPOU
100
AcDbDimension
  2
*D4
 10
585.2623940784745
 20
357.2414328350491
 30
0.0
 11
583.220202172975
 21
375.8110168966569
 31
0.0
 70
    32
  3
STANDARD
100
AcDbAlignedDimension
 13
619.6846732684668
 23
363.4701960987818
 33
0.0
 14
615.228133861841
 24
369.2268736482858
 34
0.0
 50
111.7999999999996
100
AcDbRotatedDimension
1001
ACAD
1000
DSTYLE
1002
{
1070
   140
1040
6.0
1070
    74
1070
     0
1070
   172
1070
     1
1070
    73
1070
     0
1070
   272
1070
     2
1070
    77
1070
     3
1070
   173
1070
     1
1070
   147
1040
2.0
1070
    42
1040
6.0
1070
    44
1040
3.0
1070
    43
1040
14.0
1070
   271
1070
     0
1070
   178
1070
     4
1070
   177
1070
     4
1070
   176
1070
     4
1070
   141
1040
150.0
1070
     7
1000
_OPEN
1070
     6
1000
_OPEN
1070
    41
1040
7.0
1002
}
  0
DIMENSION
  5
6E1
330
1A
100
AcDbEntity
  8
SUNPOU
100
AcDbDimension
  2
*D5
 10
572.1641321516743
 20
352.0025018353521
 30
0.0
 11
579.22040093378
 21
347.8243113559628
 31
0.0
 70
    32
  3
STANDARD
100
AcDbAlignedDimension
 13
620.8365732684667
 23
357.4690960987819
 33
0.0
 14
615.228133861841
 24
369.2268736482858
 34
0.0
 50
111.7999999999996
100
AcDbRotatedDimension
1001
ACAD
1000
DSTYLE
1002
{
1070
   140
1040
6.0
1070
    74
1070
     0
1070
   172
1070
     1
1070
    73
1070
     0
1070
   272
1070
     2
1070
    77
1070
     3
1070
   173
1070
     1
1070
   147
1040
2.0
1070
    42
1040
6.0
1070
    44
1040
3.0
1070
    43
1040
14.0
1070
   271
1070
     0
1070
   178
1070
     4
1070
   177
1070
     4
1070
   176
1070
     4
1070
   141
1040
150.0
1070
     7
1000
_OPEN
1070
     6
1000
_OPEN
1070
    41
1040
7.0
1002
}
  0
DIMENSION
  5
6F0
330
1A
100
AcDbEntity
  8
SUNPOU
100
AcDbDimension
  2
*D6
 10
598.2602720234037
 20
324.744419641879
 30
0.0
 11
609.5873221977123
 21
309.8885139357737
 31
0.0
 70
    32
  3
STANDARD
100
AcDbAlignedDimension
 13
627.4833732684668
 23
343.9719960987819
 33
0.0
 14
628.2260325868056
 24
336.7298687665367
 34
0.0
 50
111.7999999999996
100
AcDbRotatedDimension
1001
ACAD
1000
DSTYLE
1002
{
1070
   140
1040
6.0
1070
    74
1070
     0
1070
   172
1070
     1
1070
    73
1070
     0
1070
   272
1070
     2
1070
    77
1070
     3
1070
   173
1070
     1
1070
   147
1040
2.0
1070
    42
1040
6.0
1070
    44
1040
3.0
1070
    43
1040
14.0
1070
   271
1070
     0
1070
   178
1070
     4
1070
   177
1070
     4
1070
   176
1070
     4
1070
   141
1040
150.0
1070
     7
1000
_OPEN
1070
     6
1000
_OPEN
1070
    41
1040
7.0
1002
}
  0
DIMENSION
  5
6FE
330
1A
100
AcDbEntity
  8
SUNPOU
100
AcDbDimension
  2
*D7
 10
571.6695507168151
 20
314.1088899100787
 30
0.0
 11
569.813040878755
 21
332.2142356844149
 31
0.0
 70
    32
  3
STANDARD
100
AcDbAlignedDimension
 13
615.228133861841
 23
369.2268736482858
 33
0.0
 14
628.2260325868056
 24
336.7298687665367
 34
0.0
 50
111.7999999999996
100
AcDbRotatedDimension
1001
ACAD
1000
DSTYLE
1002
{
1070
   140
1040
6.0
1070
    74
1070
     0
1070
   172
1070
     1
1070
    73
1070
     0
1070
   272
1070
     2
1070
    77
1070
     3
1070
   173
1070
     1
1070
   147
1040
2.0
1070
    42
1040
6.0
1070
    44
1040
3.0
1070
    43
1040
14.0
1070
   271
1070
     0
1070
   178
1070
     4
1070
   177
1070
     4
1070
   176
1070
     4
1070
   141
1040
150.0
1070
     7
1000
_OPEN
1070
     6
1000
_OPEN
1070
    41
1040
7.0
1002
}
  0
DIMENSION
  5
753
330
1A
100
AcDbEntity
  8
SUNPOU
100
AcDbDimension
  2
*D8
 10
504.5010449398512
 20
287.2434704248316
 30
0.0
 11
502.6445776537716
 21
305.3488006531295
 31
0.0
 70
    33
  3
STANDARD
100
AcDbAlignedDimension
 13
461.7363933896324
 23
307.8346457924213
 33
0.0
 14
474.7341933896324
 24
275.3376457924214
 34
0.0
1001
ACAD
1000
DSTYLE
1002
{
1070
   140
1040
6.0
1070
    74
1070
     0
1070
   172
1070
     1
1070
    73
1070
     0
1070
   272
1070
     2
1070
    77
1070
     3
1070
   173
1070
     1
1070
   147
1040
2.0
1070
    42
1040
6.0
1070
    44
1040
3.0
1070
    43
1040
14.0
1070
   271
1070
     0
1070
   178
1070
     4
1070
   177
1070
     4
1070
   176
1070
     4
1070
   141
1040
150.0
1070
     7
1000
_OPEN
1070
     6
1000
_OPEN
1070
    41
1040
7.0
1002
}
  0
DIMENSION
  5
760
330
1A
100
AcDbEntity
  8
SUNPOU
100
AcDbDimension
  2
*D9
 10
519.7488705781562
 20
293.3421131210767
 30
0.0
 11
515.1071652429701
 21
318.4110978455584
 31
0.0
 70
    33
  3
STANDARD
100
AcDbAlignedDimension
 13
456.1659159862098
 23
321.7619580480651
 33
0.0
 14
474.7341933896325
 24
275.3376457924214
 34
0.0
1001
ACAD
1000
DSTYLE
1002
{
1070
   140
1040
6.0
1070
    74
1070
     0
1070
   172
1070
     1
1070
    73
1070
     0
1070
   272
1070
     2
1070
    77
1070
     3
1070
   173
1070
     1
1070
   147
1040
2.0
1070
    42
1040
6.0
1070
    44
1040
3.0
1070
    43
1040
14.0
1070
   271
1070
     0
1070
   178
1070
     4
1070
   177
1070
     4
1070
   176
1070
     4
1070
   141
1040
150.0
1070
     7
1000
_OPEN
1070
     6
1000
_OPEN
1070
    41
1040
7.0
1002
}
  0
DIMENSION
  5
76D
330
1A
100
AcDbEntity
  8
SUNPOU
100
AcDbDimension
  2
*D10
 10
456.1659159862098
 20
341.9737234032877
 30
0.0
 11
433.6659233440449
 21
346.9737234032877
 31
0.0
 70
    32
  3
STANDARD
100
AcDbAlignedDimension
 13
411.1659307018799
 23
296.7251086045581
 33
0.0
 14
456.1659159862098
 24
321.7619580480651
 34
0.0
100
AcDbRotatedDimension
1001
ACAD
1000
DSTYLE
1002
{
1070
   140
1040
6.0
1070
    74
1070
     0
1070
   172
1070
     1
1070
    73
1070
     0
1070
   272
1070
     2
1070
    77
1070
     3
1070
   173
1070
     1
1070
   147
1040
2.0
1070
    42
1040
6.0
1070
    44
1040
3.0
1070
    43
1040
14.0
1070
   271
1070
     0
1070
   178
1070
     4
1070
   177
1070
     4
1070
   176
1070
     4
1070
   141
1040
150.0
1070
     7
1000
_OPEN
1070
     6
1000
_OPEN
1070
    41
1040
7.0
1002
}
  0
DIMENSION
  5
77A
330
1A
100
AcDbEntity
  8
SUNPOU
100
AcDbDimension
  2
*D11
 10
326.1659933896324
 20
357.1832459274303
 30
0.0
 11
391.1659546879211
 21
362.1832459274303
 31
0.0
 70
    32
  3
STANDARD
100
AcDbAlignedDimension
 13
456.1659159862098
 23
321.7619580480651
 33
0.0
 14
326.1659933896324
 24
288.8007457924213
 34
0.0
100
AcDbRotatedDimension
1001
ACAD
1000
DSTYLE
1002
{
1070
   140
1040
6.0
1070
    74
1070
     0
1070
   172
1070
     1
1070
    73
1070
     0
1070
   272
1070
     2
1070
    77
1070
     3
1070
   173
1070
     1
1070
   147
1040
2.0
1070
    42
1040
6.0
1070
    44
1040
3.0
1070
    43
1040
14.0
1070
   271
1070
     0
1070
   178
1070
     4
1070
   177
1070
     4
1070
   176
1070
     4
1070
   141
1040
150.0
1070
     7
1000
_OPEN
1070
     6
1000
_OPEN
1070
    41
1040
7.0
1002
}
  0
DIMENSION
  5
787
330
1A
100
AcDbEntity
  8
SUNPOU
100
AcDbDimension
  2
*D12
 10
456.1659159862098
 20
371.0448523998427
 30
0.0
 11
375.1490046879211
 21
376.0448523998427
 31
0.0
 70
    32
  3
STANDARD
100
AcDbAlignedDimension
 13
294.1320933896323
 23
288.3336457924214
 33
0.0
 14
456.1659159862098
 24
321.7619580480651
 34
0.0
100
AcDbRotatedDimension
1001
ACAD
1000
DSTYLE
1002
{
1070
   140
1040
6.0
1070
    74
1070
     0
1070
   172
1070
     1
1070
    73
1070
     0
1070
   272
1070
     2
1070
    77
1070
     3
1070
   173
1070
     1
1070
   147
1040
2.0
1070
    42
1040
6.0
1070
    44
1040
3.0
1070
    43
1040
14.0
1070
   271
1070
     0
1070
   178
1070
     4
1070
   177
1070
     4
1070
   176
1070
     4
1070
   141
1040
150.0
1070
     7
1000
_OPEN
1070
     6
1000
_OPEN
1070
    41
1040
7.0
1002
}
  0
DIMENSION
  5
795
330
1A
100
AcDbEntity
  8
SUNPOU
100
AcDbDimension
  2
*D13
 10
504.6543853528123
 20
422.7567974172713
 30
0.0
 11
499.6543853528122
 21
446.2567974172714
 31
0.0
 70
    32
  3
STANDARD
100
AcDbAlignedDimension
 13
473.9941933896324
 23
469.7567974172712
 33
0.0
 14
473.9941933896324
 24
422.7567974172713
 34
0.0
 50
90.0
100
AcDbRotatedDimension
1001
ACAD
1000
DSTYLE
1002
{
1070
   140
1040
6.0
1070
    74
1070
     0
1070
   172
1070
     1
1070
    73
1070
     0
1070
   272
1070
     2
1070
    77
1070
     3
1070
   173
1070
     1
1070
   147
1040
2.0
1070
    42
1040
6.0
1070
    44
1040
3.0
1070
    43
1040
14.0
1070
   271
1070
     0
1070
   178
1070
     4
1070
   177
1070
     4
1070
   176
1070
     4
1070
   141
1040
150.0
1070
     7
1000
_OPEN
1070
     6
1000
_OPEN
1070
    41
1040
7.0
1002
}
  0
DIMENSION
  5
7A4
330
1A
100
AcDbEntity
  8
SUNPOU
100
AcDbDimension
  2
*D14
 10
270.6821634085863
 20
439.9567974172714
 30
0.0
 11
265.6821634085862
 21
446.2567974172715
 31
0.0
 70
    32
  3
STANDARD
100
AcDbAlignedDimension
 13
294.6714933896326
 23
452.5567974172715
 33
0.0
 14
294.6714933896326
 24
439.9567974172714
 34
0.0
 50
90.0
100
AcDbRotatedDimension
1001
ACAD
1000
DSTYLE
1002
{
1070
   140
1040
6.0
1070
    74
1070
     0
1070
   172
1070
     1
1070
    73
1070
     0
1070
   272
1070
     2
1070
    77
1070
     3
1070
   173
1070
     1
1070
   147
1040
2.0
1070
    42
1040
6.0
1070
    44
1040
3.0
1070
    43
1040
14.0
1070
   271
1070
     0
1070
   178
1070
     4
1070
   177
1070
     4
1070
   176
1070
     4
1070
   141
1040
150.0
1070
     7
1000
_OPEN
1070
     6
1000
_OPEN
1070
    41
1040
7.0
1002
}
  0
TEXT
  5
7A7
330
1A
100
AcDbEntity
  8
SUNPOU
 62
     4
100
AcDbText
 10
320.20412594574
 20
63.51640050042419
 30
0.0
 40
8.0
  1
軒樋の差し替え
100
AcDbText
  0
LEADER
  5
7A8
330
1A
100
AcDbEntity
  8
SUNPOU
 62
     4
100
AcDbLeader
  3
STANDARD
 74
     0
 40
6.0
 41
31.19999999999999
 76
     3
 10
630.8556444238243
 20
343.109163165534
 30
0.0
 10
651.7417533938765
 20
318.3743301040071
 30
0.0
 10
655.3115651518446
 20
318.3743301040071
 30
0.0
1001
ACAD
1000
DSTYLE
1002
{
1070
     6
1000
OPEN
1070
    41
1040
7.0
1070
    42
1040
6.0
1070
    43
1040
14.0
1070
    44
1040
3.0
1070
    73
1070
     0
1070
    74
1070
     0
1070
    77
1070
     3
1070
   140
1040
6.0
1070
   141
1040
150.0
1070
   147
1040
2.0
1070
   172
1070
     1
1070
   173
1070
     1
1070
   176
1070
     4
1070
   177
1070
     4
1070
   178
1070
     4
1070
   271
1070
     0
1070
   272
1070
     2
1070
   341
1005
6D
1070
   343
1005
6D
1070
   344
1005
6D
1002
}
  0
MTEXT
  5
7A9
330
1A
100
AcDbEntity
  8
SUNPOU
 62
     4
100
AcDbMText
 10
657.3115651518446
 20
320.3743301040071
 30
0.0
 40
6.0
 41
0.0
 71
     7
 72
     5
  1
2-φ6.5
1001
ACAD
1000
MTEXTBEGIN
1070
    73
1070
     1
1070
    44
1040
1.0
1070
    74
1070
     0
1000
MTEXTEND
1000
MTEXTBEGIN
1070
    73
1070
     1
1070
    44
1040
1.0
1070
    74
1070
     0
1000
MTEXTEND
1000
MTEXTBEGIN
1070
    73
1070
     1
1070
    44
1040
1.0
1070
    74
1070
     0
1000
MTEXTEND
  0
LEADER
  5
7AA
330
1A
100
AcDbEntity
  8
SUNPOU
 62
     4
100
AcDbLeader
  3
STANDARD
 40
6.0
 41
31.19999999999999
 76
     3
 10
620.8660533692154
 20
365.6961670804913
 30
0.0
 10
596.4096938796132
 20
390.0034804566621
 30
0.0
 10
592.8398846476725
 20
390.0034804566621
 30
0.0
1001
ACAD
1000
DSTYLE
1002
{
1070
     6
1000
OPEN
1070
    41
1040
7.0
1070
    42
1040
6.0
1070
    43
1040
14.0
1070
    44
1040
3.0
1070
    73
1070
     0
1070
    74
1070
     0
1070
    77
1070
     3
1070
   140
1040
6.0
1070
   141
1040
150.0
1070
   147
1040
2.0
1070
   172
1070
     1
1070
   173
1070
     1
1070
   176
1070
     4
1070
   177
1070
     4
1070
   178
1070
     4
1070
   271
1070
     0
1070
   272
1070
     2
1070
   341
1005
6D
1070
   343
1005
6D
1070
   344
1005
6D
1002
}
  0
MTEXT
  5
7AB
330
1A
100
AcDbEntity
  8
SUNPOU
 62
     4
100
AcDbMText
 10
590.8398846476725
 20
392.0034804566621
 30
0.0
 40
6.0
 41
0.0
 71
     9
 72
     5
  1
4-φ4.2
1001
ACAD
1000
MTEXTBEGIN
1070
    73
1070
     1
1070
    44
1040
1.0
1070
    74
1070
     0
1000
MTEXTEND
1000
MTEXTBEGIN
1070
    73
1070
     1
1070
    44
1040
1.0
1070
    74
1070
     0
1000
MTEXTEND
1000
MTEXTBEGIN
1070
    73
1070
     1
1070
    44
1040
1.0
1070
    74
1070
     0
1000
MTEXTEND
  0
DIMENSION
  5
7BB
330
1A
100
AcDbEntity
  8
SUNPOU
100
AcDbDimension
  2
*D15
 10
456.1659159862098
 20
357.1832459274303
 30
0.0
 11
463.6659167401703
 21
362.1832459274303
 31
0.0
 70
    32
  3
STANDARD
100
AcDbAlignedDimension
 13
471.1659174941307
 23
321.7619542779687
 33
0.0
 14
456.1659159862098
 24
321.7619580480651
 34
0.0
100
AcDbRotatedDimension
1001
ACAD
1000
DSTYLE
1002
{
1070
   140
1040
6.0
1070
    74
1070
     0
1070
   172
1070
     1
1070
    73
1070
     0
1070
   272
1070
     2
1070
    77
1070
     3
1070
   173
1070
     1
1070
   147
1040
2.0
1070
    42
1040
6.0
1070
    44
1040
3.0
1070
    43
1040
14.0
1070
   271
1070
     0
1070
   178
1070
     4
1070
   177
1070
     4
1070
   176
1070
     4
1070
   141
1040
150.0
1070
     7
1000
_OPEN
1070
     6
1000
_OPEN
1070
    41
1040
7.0
1002
}
  0
TEXT
  5
7BC
330
1A
100
AcDbEntity
  8
SUNPOU
100
AcDbText
 10
474.1686766234265
 20
365.8151418639815
 30
0.0
 40
6.0
  1
スライド巾
100
AcDbText
  0
DIMENSION
  5
7D0
330
1A
100
AcDbEntity
  8
SUNPOU
100
AcDbDimension
  2
*D16
 10
270.6821634085863
 20
275.3376457924214
 30
0.0
 11
265.6821634085862
 21
283.9691957924214
 31
0.0
 70
    32
  3
STANDARD
100
AcDbAlignedDimension
 13
295.4182933896325
 23
292.6007457924214
 33
0.0
 14
474.7341933896325
 24
275.3376457924214
 34
0.0
 50
90.0
100
AcDbRotatedDimension
1001
ACAD
1000
DSTYLE
1002
{
1070
   140
1040
6.0
1070
    74
1070
     0
1070
   172
1070
     1
1070
    73
1070
     0
1070
   272
1070
     2
1070
    77
1070
     3
1070
   173
1070
     1
1070
   147
1040
2.0
1070
    42
1040
6.0
1070
    44
1040
3.0
1070
    43
1040
14.0
1070
   271
1070
     0
1070
   178
1070
     4
1070
   177
1070
     4
1070
   176
1070
     4
1070
   141
1040
150.0
1070
     7
1000
_OPEN
1070
     6
1000
_OPEN
1070
    41
1040
7.0
1002
}
  0
LINE
  5
832
330
1A
100
AcDbEntity
  8
CENTER_L
  6
CENTER
 62
     1
 48
5.0
100
AcDbLine
 10
484.9068209702832
 20
303.5635977658612
 30
0.0
 11
470.7474784999969
 21
297.9001193643867
 31
0.0
  0
LINE
  5
833
330
1A
100
AcDbEntity
  8
CENTER_L
  6
CENTER
 62
     1
 48
5.0
100
AcDbLine
 10
487.1349328476295
 20
297.9928838387113
 30
0.0
 11
471.8993784999967
 21
291.8990193643868
 31
0.0
  0
LINE
  5
834
330
1A
100
AcDbEntity
  8
CENTER_L
  6
CENTER
 62
     1
 48
5.0
100
AcDbLine
 10
478.5461784999968
 20
278.4019193643867
 30
0.0
 11
492.7055310430414
 21
284.0653027036482
 31
0.0
  0
LINE
  5
835
330
1A
100
AcDbEntity
  8
CENTER_L
  6
CENTER
 62
     1
 48
5.0
100
AcDbLine
 10
484.9068209702832
 20
145.3222601144394
 30
0.0
 11
470.7474784999969
 21
139.6587817129648
 31
0.0
  0
LINE
  5
836
330
1A
100
AcDbEntity
  8
CENTER_L
  6
CENTER
 62
     1
 48
5.0
100
AcDbLine
 10
487.1349328476295
 20
139.7515461872894
 30
0.0
 11
471.8993784999967
 21
133.6576817129649
 31
0.0
  0
LINE
  5
837
330
1A
100
AcDbEntity
  8
CENTER_L
  6
CENTER
 62
     1
 48
5.0
100
AcDbLine
 10
478.5461784999968
 20
120.1605817129649
 30
0.0
 11
492.7055310430414
 21
125.8239650522264
 31
0.0
  0
LINE
  5
A30
330
1A
100
AcDbEntity
  8
ZUWAKU
100
AcDbLine
 10
208.6466004668659
 20
15.19999936995179
 30
0.0
 11
447.4243631477893
 21
15.19999936995178
 31
0.0
  0
LINE
  5
A31
330
1A
100
AcDbEntity
  8
ZUWAKU
100
AcDbLine
 10
208.6466004668659
 20
15.59999936995178
 30
0.0
 11
447.4243631477893
 21
15.59999936995179
 31
0.0
  0
LINE
  5
A32
330
1A
100
AcDbEntity
  8
ZUWAKU
100
AcDbLine
 10
208.6466004668659
 20
15.39999936995178
 30
0.0
 11
447.4243631477893
 21
15.39999936995178
 31
0.0
  0
LINE
  5
A33
330
1A
100
AcDbEntity
  8
ZUWAKU
100
AcDbLine
 10
-0.0000008232020718
 20
30.79999936995176
 30
0.0
 11
797.3999991767978
 21
30.79999936995176
 31
0.0
  0
LINE
  5
A34
330
1A
100
AcDbEntity
  8
ZUWAKU
100
AcDbLine
 10
-0.0000008232020718
 20
30.59999936995176
 30
0.0
 11
797.3999991767978
 21
30.59999936995176
 31
0.0
  0
LINE
  5
A35
330
1A
100
AcDbEntity
  8
ZUWAKU
100
AcDbLine
 10
-0.0000008232020718
 20
30.39999936995176
 30
0.0
 11
797.3999991767978
 21
30.39999936995176
 31
0.0
  0
LINE
  5
A36
330
1A
100
AcDbEntity
  8
ZUWAKU
100
AcDbLine
 10
-0.0000008232020718
 20
30.19999936995175
 30
0.0
 11
797.3999991767978
 21
30.19999936995175
 31
0.0
  0
LINE
  5
A37
330
1A
100
AcDbEntity
  8
ZUWAKU
100
AcDbLine
 10
-0.0000008232020718
 20
29.99999936995175
 30
0.0
 11
797.3999991767978
 21
29.99999936995175
 31
0.0
  0
LWPOLYLINE
  5
A38
330
1A
100
AcDbEntity
  8
ZUWAKU
100
AcDbPolyline
 90
        4
 70
     1
 43
0.0
 10
0.1999991767978599
 20
551.3999993699518
 10
0.1999991767978599
 20
0.1999993699517972
 10
797.3999991767978
 20
0.1999993699518203
 10
797.399999176798
 20
551.3999993699518
  0
LWPOLYLINE
  5
A39
330
1A
100
AcDbEntity
  8
ZUWAKU
100
AcDbPolyline
 90
        4
 70
     1
 43
0.0
 10
0.5999991767978372
 20
550.9999993699518
 10
0.5999991767978372
 20
0.5999993699517745
 10
796.9999991767982
 20
0.5999993699518207
 10
796.9999991767979
 20
550.9999993699518
  0
LWPOLYLINE
  5
A3A
330
1A
100
AcDbEntity
  8
ZUWAKU
100
AcDbPolyline
 90
        4
 70
     1
 43
0.0
 10
-0.0000008232020718
 20
551.5999993699518
 10
-0.0000008232020718
 20
-0.0000006300482482
 10
797.599999176798
 20
-0.0000006300481807
 10
797.599999176798
 20
551.5999993699518
  0
LWPOLYLINE
  5
A3B
330
1A
100
AcDbEntity
  8
ZUWAKU
100
AcDbPolyline
 90
        4
 70
     1
 43
0.0
 10
0.3999991767979054
 20
551.1999993699517
 10
0.3999991767979054
 20
0.3999993699518427
 10
797.199999176798
 20
0.3999993699518196
 10
797.199999176798
 20
551.1999993699517
  0
LWPOLYLINE
  5
A3C
330
1A
100
AcDbEntity
  8
ZUWAKU
100
AcDbPolyline
 90
        4
 70
     1
 43
0.0
 10
0.7999991767978827
 20
550.7999993699518
 10
0.7999991767978827
 20
0.79999936995182
 10
796.7999991767978
 20
0.79999936995182
 10
796.7999991767978
 20
550.7999993699518
  0
TEXT
  5
A3D
330
1A
100
AcDbEntity
  8
MOJI
100
AcDbText
 10
92.95778876496706
 20
12.74117750022651
 30
0.0
 40
6.0
  1
新・丸トップＲＶ１０５
 41
0.9
  7
ｽﾀｲﾙ1
100
AcDbText
  0
HATCH
  5
A3E
330
1A
100
AcDbEntity
  8
ZUWAKU
100
AcDbHatch
 10
0.0
 20
0.0
 30
0.0
210
0.0
220
0.0
230
1.0
  2
ANSI37
 70
     0
 71
     0
 91
        8
 92
        7
 72
     1
 73
     1
 93
       24
 10
14.50226183791778
 20
17.64484785093533
 42
-0.1989123673796348
 10
14.09221133157905
 20
18.63479734459638
 42
0.0
 10
14.09221133157905
 20
19.92499936995176
 42
-0.4142135623730912
 10
14.61721133157903
 20
20.44999936995175
 42
0.0
 10
17.59221133157893
 20
20.44999936995175
 42
0.4142135623731546
 10
18.11721133157902
 20
20.97499936995174
 42
0.0
 10
18.11721133157902
 20
22.72499936995175
 42
0.4142135623731586
 10
17.59221133157893
 20
23.24999936995176
 42
0.0
 10
14.09221133157905
 20
23.24999936995176
 42
0.4142135623730928
 10
11.29221133157909
 20
20.44999936995178
 42
0.0
 10
11.29221133157909
 20
18.63479734459651
 42
0.1989123673796619
 10
12.52236285059552
 20
15.6649488636129
 42
0.0
 10
15.4321608252402
 20
12.75515088896824
 42
-0.1989123673796613
 10
15.84221133157905
 20
11.76520139530706
 42
0.0
 10
15.84221133157905
 20
10.47499936995174
 42
-0.4142135623730911
 10
15.31721133157907
 20
9.949999369951754
 42
0.0
 10
12.34221133157916
 20
9.949999369951754
 42
0.4142135623731526
 10
11.81721133157907
 20
9.424999369951766
 42
0.0
 10
11.81721133157907
 20
7.674999369951745
 42
0.4142135623731526
 10
12.34221133157916
 20
7.149999369951757
 42
0.0
 10
15.84221133157905
 20
7.149999369951757
 42
0.4142135623731044
 10
18.64221133157911
 20
9.949999369951733
 42
0.0
 10
18.64221133157911
 20
11.765201395307
 42
0.1989123673796604
 10
17.41205981256257
 20
14.73504987629054
 42
0.0
 97
        0
 92
        7
 72
     1
 73
     1
 93
       16
 10
23.54221133157909
 20
19.04999936995176
 42
-0.4142135623730935
 10
24.94221133157907
 20
20.44999936995175
 42
0.0
 10
26.86721133157902
 20
20.44999936995175
 42
0.4142135623731546
 10
27.39221133157911
 20
20.97499936995174
 42
0.0
 10
27.39221133157911
 20
22.72499936995175
 42
0.4142135623730951
 10
26.86721133157914
 20
23.24999936995176
 42
0.0
 10
24.94221133157896
 20
23.24999936995171
 42
0.4142135623730892
 10
20.74221133157903
 20
19.04999936995169
 42
0.0
 10
20.74221133157903
 20
11.34999936995178
 42
0.4142135623730969
 10
24.94221133157907
 20
7.149999369951757
 42
0.0
 10
26.86721133157902
 20
7.149999369951757
 42
0.4142135623731526
 10
27.39221133157911
 20
7.674999369951745
 42
0.0
 10
27.39221133157911
 20
9.424999369951766
 42
0.4142135623730891
 10
26.86721133157914
 20
9.949999369951754
 42
0.0
 10
24.94221133157907
 20
9.949999369951754
 42
-0.4142135623730928
 10
23.54221133157909
 20
11.34999936995174
 42
0.0
 97
        0
 92
        7
 72
     1
 73
     1
 93
        2
 10
24.24221133157903
 20
15.19999936995175
 42
1.0
 10
27.74221133157903
 20
15.19999936995175
 42
1.0
 97
        0
 92
        7
 72
     1
 73
     1
 93
       26
 10
37.31485781375704
 20
19.20504656351518
 42
0.0
 10
38.37649744689485
 20
22.56690540178477
 42
0.5069206636600134
 10
37.8758665476995
 20
23.24999936995176
 42
0.0
 10
36.17697716809027
 20
23.24999936995176
 42
0.3272098845218764
 10
35.67634626889491
 20
22.88309333811872
 42
0.0
 10
33.80807639426314
 20
16.96690540178483
 42
-0.3272098845219541
 10
33.30744549506766
 20
16.59999936995175
 42
0.0
 10
33.16721133157921
 20
16.59999936995175
 42
-0.4142135623731526
 10
32.64221133157912
 20
17.12499936995174
 42
0.0
 10
32.64221133157912
 20
22.72499936995175
 42
0.4142135623730951
 10
32.11721133157914
 20
23.24999936995176
 42
0.0
 10
30.36721133157902
 20
23.24999936995176
 42
0.4142135623730871
 10
29.84221133157905
 20
22.72499936995177
 42
0.0
 10
29.84221133157905
 20
7.674999369951745
 42
0.4142135623730891
 10
30.36721133157902
 20
7.149999369951757
 42
0.0
 10
32.11721133157903
 20
7.149999369951757
 42
0.4142135623731526
 10
32.64221133157912
 20
7.674999369951745
 42
0.0
 10
32.64221133157912
 20
13.27499936995176
 42
-0.4142135623731526
 10
33.16721133157921
 20
13.79999936995175
 42
0.0
 10
33.30744549506778
 20
13.79999936995175
 42
-0.3272098845218915
 10
33.80807639426314
 20
13.43309333811868
 42
0.0
 10
35.67634626889491
 20
7.516905401784828
 42
0.3272098845218902
 10
36.17697716809027
 20
7.149999369951757
 42
0.0
 10
37.8758665476995
 20
7.149999369951757
 42
0.5069206636600335
 10
38.37649744689485
 20
7.833093338118764
 42
0.0
 10
36.0501060684212
 20
15.19999936995189
 42
0.0
 97
        0
 92
        7
 72
     1
 73
     1
 93
        8
 10
43.49221133157903
 20
22.72499936995176
 42
0.4142135623731546
 10
42.96721133157894
 20
23.24999936995176
 42
0.0
 10
41.21721133157916
 20
23.24999936995176
 42
0.4142135623731507
 10
40.69221133157907
 20
22.72499936995177
 42
0.0
 10
40.69221133157907
 20
7.674999369951745
 42
0.4142135623731526
 10
41.21721133157916
 20
7.149999369951757
 42
0.0
 10
42.96721133157894
 20
7.149999369951757
 42
0.4142135623731526
 10
43.49221133157903
 20
7.674999369951745
 42
0.0
 97
        0
 92
        7
 72
     1
 73
     1
 93
       24
 10
48.39221133157912
 20
19.92499936995176
 42
-0.4142135623731546
 10
48.91721133157921
 20
20.44999936995175
 42
0.0
 10
51.89221133157912
 20
20.44999936995175
 42
0.4142135623730911
 10
52.41721133157909
 20
20.97499936995174
 42
0.0
 10
52.41721133157909
 20
22.72499936995175
 42
0.4142135623730952
 10
51.89221133157912
 20
23.24999936995176
 42
0.0
 10
48.39221133157912
 20
23.24999936995176
 42
0.4142135623731048
 10
45.59221133157905
 20
20.44999936995178
 42
0.0
 10
45.59221133157905
 20
18.63479734459651
 42
0.1989123673796613
 10
46.82236285059559
 20
15.66494886361296
 42
0.0
 10
49.73216082524027
 20
12.75515088896829
 42
-0.1989123673796402
 10
50.14221133157912
 20
11.76520139530722
 42
0.0
 10
50.14221133157912
 20
10.47499936995174
 42
-0.4142135623730911
 10
49.61721133157914
 20
9.949999369951754
 42
0.0
 10
46.64221133157911
 20
9.949999369951754
 42
0.4142135623731526
 10
46.11721133157902
 20
9.424999369951766
 42
0.0
 10
46.11721133157902
 20
7.674999369951745
 42
0.4142135623730891
 10
46.64221133157901
 20
7.149999369951757
 42
0.0
 10
50.14221133157912
 20
7.149999369951757
 42
0.4142135623730925
 10
52.94221133157908
 20
9.949999369951733
 42
0.0
 10
52.94221133157908
 20
11.765201395307
 42
0.1989123673796675
 10
51.71205981256253
 20
14.73504987629065
 42
0.0
 10
48.80226183791797
 20
17.64484785093517
 42
-0.1989123673796652
 10
48.39221133157912
 20
18.63479734459634
 42
0.0
 97
        0
 92
        7
 72
     1
 73
     1
 93
       16
 10
57.84221133157905
 20
22.72499936995174
 42
0.414213562373103
 10
57.31721133157908
 20
23.24999936995176
 42
0.0
 10
55.56721133157907
 20
23.24999936995176
 42
0.4142135623730871
 10
55.04221133157909
 20
22.72499936995177
 42
0.0
 10
55.04221133157909
 20
9.949999369951733
 42
0.4142135623730926
 10
57.84221133157905
 20
7.149999369951757
 42
0.0
 10
61.34221133157905
 20
7.149999369951757
 42
0.4142135623731044
 10
64.14221133157912
 20
9.949999369951733
 42
0.0
 10
64.14221133157912
 20
22.72499936995175
 42
0.4142135623730951
 10
63.61721133157914
 20
23.24999936995176
 42
0.0
 10
61.86721133157902
 20
23.24999936995176
 42
0.4142135623730871
 10
61.34221133157905
 20
22.72499936995177
 42
0.0
 10
61.34221133157905
 20
10.99999936995173
 42
-0.414213562373088
 10
60.2922113315791
 20
9.949999369951754
 42
0.0
 10
58.89221133157912
 20
9.949999369951754
 42
-0.4142135623731197
 10
57.84221133157905
 20
10.99999936995173
 42
0.0
 97
        0
 92
        7
 72
     1
 73
     1
 93
        8
 10
69.0422113315791
 20
22.72499936995177
 42
0.4142135623730871
 10
68.51721133157912
 20
23.24999936995176
 42
0.0
 10
66.76721133157911
 20
23.24999936995176
 42
0.4142135623731507
 10
66.24221133157902
 20
22.72499936995177
 42
0.0
 10
66.24221133157902
 20
7.674999369951745
 42
0.4142135623730891
 10
66.76721133157901
 20
7.149999369951757
 42
0.0
 10
68.51721133157912
 20
7.149999369951757
 42
0.4142135623730891
 10
69.0422113315791
 20
7.674999369951745
 42
0.0
 97
        0
 75
     0
 76
     1
 52
0.0
 41
0.2
 77
     0
 78
     2
 53
45.0
 43
-900.942305157881
 44
-13.20000063004818
 45
-0.4490128060534576
 46
0.4490128060534577
 79
     0
 53
135.0
 43
-900.942305157881
 44
-13.20000063004818
 45
-0.4490128060534577
 46
-0.4490128060534576
 79
     0
 47
0.057451373970553
 98
        8
 10
16.07985413982123
 20
15.1671730158373
 10
22.40451418323709
 20
18.84406155240276
 10
25.16436706245758
 20
15.51188101602247
 10
30.91405915843506
 20
16.20129701639325
 10
41.83847119575466
 20
16.66090928393487
 10
46.89820007192747
 20
19.41857568635896
 10
56.55768514919827
 20
18.72915728504676
 10
67.82707879642067
 20
19.18876955258838
  0
LINE
  5
A3F
330
1A
100
AcDbEntity
  8
ZUWAKU
100
AcDbLine
 10
24.94221133157907
 20
23.24999936995171
 30
0.0
 11
26.86721133157902
 21
23.24999936995176
 31
0.0
  0
LINE
  5
A40
330
1A
100
AcDbEntity
  8
ZUWAKU
100
AcDbLine
 10
26.86721133157902
 20
20.44999936995175
 30
0.0
 11
24.94221133157907
 21
20.44999936995175
 31
0.0
  0
LINE
  5
A41
330
1A
100
AcDbEntity
  8
ZUWAKU
100
AcDbLine
 10
24.94221133157907
 20
9.949999369951754
 30
0.0
 11
26.86721133157902
 21
9.949999369951754
 31
0.0
  0
LINE
  5
A42
330
1A
100
AcDbEntity
  8
ZUWAKU
100
AcDbLine
 10
26.86721133157902
 20
7.149999369951757
 30
0.0
 11
24.94221133157907
 21
7.149999369951757
 31
0.0
  0
CIRCLE
  5
A43
330
1A
100
AcDbEntity
  8
ZUWAKU
100
AcDbCircle
 10
25.99221133157902
 20
15.19999936995175
 30
0.0
 40
1.75
  0
ARC
  5
A44
330
1A
100
AcDbEntity
  8
ZUWAKU
100
AcDbCircle
 10
15.49221133157902
 20
18.63479734459645
 30
0.0
 40
1.399999999999999
100
AcDbArc
 50
180.0000000000016
 51
224.9999999999988
  0
LINE
  5
A45
330
1A
100
AcDbEntity
  8
ZUWAKU
100
AcDbLine
 10
23.54221133157909
 20
19.04999936995175
 30
0.0
 11
23.54221133157909
 21
11.34999936995175
 31
0.0
  0
LINE
  5
A46
330
1A
100
AcDbEntity
  8
ZUWAKU
100
AcDbLine
 10
20.74221133157903
 20
11.34999936995175
 30
0.0
 11
20.74221133157903
 21
19.04999936995171
 31
0.0
  0
ARC
  5
A47
330
1A
100
AcDbEntity
  8
ZUWAKU
100
AcDbCircle
 10
15.49221133157902
 20
18.63479734459645
 30
0.0
 40
4.199999999999999
100
AcDbArc
 50
180.0
 51
225.0
  0
ARC
  5
A48
330
1A
100
AcDbEntity
  8
ZUWAKU
100
AcDbCircle
 10
15.84221133157905
 20
9.949999369951754
 30
0.0
 40
2.799999999999999
100
AcDbArc
 50
270.0
 51
0.0
  0
ARC
  5
A49
330
1A
100
AcDbEntity
  8
ZUWAKU
100
AcDbCircle
 10
24.94221133157907
 20
11.34999936995175
 30
0.0
 40
4.199999999999999
100
AcDbArc
 50
180.0
 51
270.0
  0
ARC
  5
A4A
330
1A
100
AcDbEntity
  8
ZUWAKU
100
AcDbCircle
 10
14.44221133157907
 20
11.76520139530705
 30
0.0
 40
4.199999999999999
100
AcDbArc
 50
0.0
 51
45.0
  0
LINE
  5
A4B
330
1A
100
AcDbEntity
  8
ZUWAKU
100
AcDbLine
 10
17.41205981256257
 20
14.73504987629058
 30
0.0
 11
14.5022618379179
 21
17.64484785093525
 31
0.0
  0
LINE
  5
A4C
330
1A
100
AcDbEntity
  8
ZUWAKU
100
AcDbLine
 10
15.84221133157905
 20
10.47499936995176
 30
0.0
 11
15.84221133157905
 21
11.7652013953071
 31
0.0
  0
ARC
  5
A4D
330
1A
100
AcDbEntity
  8
ZUWAKU
100
AcDbCircle
 10
15.31721133157907
 20
10.47499936995176
 30
0.0
 40
0.525
100
AcDbArc
 50
270.0
 51
0.0
  0
ARC
  5
A4E
330
1A
100
AcDbEntity
  8
ZUWAKU
100
AcDbCircle
 10
14.44221133157907
 20
11.7652013953071
 30
0.0
 40
1.399999999999999
100
AcDbArc
 50
0.0
 51
45.0
  0
LINE
  5
A4F
330
1A
100
AcDbEntity
  8
ZUWAKU
100
AcDbLine
 10
11.81721133157907
 20
7.674999369951756
 30
0.0
 11
11.81721133157907
 21
9.424999369951756
 31
0.0
  0
ARC
  5
A50
330
1A
100
AcDbEntity
  8
ZUWAKU
100
AcDbCircle
 10
12.34221133157905
 20
7.674999369951756
 30
0.0
 40
0.525
100
AcDbArc
 50
180.0
 51
270.0
  0
ARC
  5
A51
330
1A
100
AcDbEntity
  8
ZUWAKU
100
AcDbCircle
 10
12.34221133157905
 20
9.424999369951756
 30
0.0
 40
0.525
100
AcDbArc
 50
90.0
 51
180.0
  0
LINE
  5
A52
330
1A
100
AcDbEntity
  8
ZUWAKU
100
AcDbLine
 10
12.34221133157905
 20
7.149999369951757
 30
0.0
 11
15.84221133157905
 21
7.149999369951757
 31
0.0
  0
LINE
  5
A53
330
1A
100
AcDbEntity
  8
ZUWAKU
100
AcDbLine
 10
12.34221133157905
 20
9.949999369951754
 30
0.0
 11
15.31721133157907
 21
9.949999369951754
 31
0.0
  0
LINE
  5
A54
330
1A
100
AcDbEntity
  8
ZUWAKU
100
AcDbLine
 10
12.52236285059552
 20
15.66494886361293
 30
0.0
 11
15.4321608252402
 21
12.75515088896827
 31
0.0
  0
LINE
  5
A55
330
1A
100
AcDbEntity
  8
ZUWAKU
100
AcDbLine
 10
18.64221133157911
 20
9.949999369951754
 30
0.0
 11
18.64221133157911
 21
11.7652013953071
 31
0.0
  0
ARC
  5
A56
330
1A
100
AcDbEntity
  8
ZUWAKU
100
AcDbCircle
 10
24.94221133157907
 20
11.34999936995175
 30
0.0
 40
1.399999999999999
100
AcDbArc
 50
180.0
 51
270.0
  0
ARC
  5
A57
330
1A
100
AcDbEntity
  8
ZUWAKU
100
AcDbCircle
 10
17.59221133157905
 20
22.72499936995175
 30
0.0
 40
0.525
100
AcDbArc
 50
0.0
 51
90.0
  0
ARC
  5
A58
330
1A
100
AcDbEntity
  8
ZUWAKU
100
AcDbCircle
 10
17.59221133157905
 20
20.97499936995175
 30
0.0
 40
0.525
100
AcDbArc
 50
270.0
 51
0.0
  0
LINE
  5
A59
330
1A
100
AcDbEntity
  8
ZUWAKU
100
AcDbLine
 10
14.09221133157905
 20
23.24999936995176
 30
0.0
 11
17.59221133157905
 21
23.24999936995176
 31
0.0
  0
ARC
  5
A5A
330
1A
100
AcDbEntity
  8
ZUWAKU
100
AcDbCircle
 10
14.61721133157903
 20
19.92499936995175
 30
0.0
 40
0.525
100
AcDbArc
 50
90.0
 51
180.0
  0
LINE
  5
A5B
330
1A
100
AcDbEntity
  8
ZUWAKU
100
AcDbLine
 10
14.09221133157905
 20
19.92499936995175
 30
0.0
 11
14.09221133157905
 21
18.63479734459641
 31
0.0
  0
LINE
  5
A5C
330
1A
100
AcDbEntity
  8
ZUWAKU
100
AcDbLine
 10
17.59221133157905
 20
20.44999936995175
 30
0.0
 11
14.61721133157903
 21
20.44999936995175
 31
0.0
  0
LINE
  5
A5D
330
1A
100
AcDbEntity
  8
ZUWAKU
100
AcDbLine
 10
11.29221133157909
 20
20.44999936995175
 30
0.0
 11
11.29221133157909
 21
18.63479734459641
 31
0.0
  0
ARC
  5
A5E
330
1A
100
AcDbEntity
  8
ZUWAKU
100
AcDbCircle
 10
14.09221133157905
 20
20.44999936995175
 30
0.0
 40
2.799999999999999
100
AcDbArc
 50
90.0
 51
180.0
  0
LINE
  5
A5F
330
1A
100
AcDbEntity
  8
ZUWAKU
100
AcDbLine
 10
18.11721133157902
 20
22.72499936995175
 30
0.0
 11
18.11721133157902
 21
20.97499936995175
 31
0.0
  0
ARC
  5
A60
330
1A
100
AcDbEntity
  8
ZUWAKU
100
AcDbCircle
 10
24.94221133157907
 20
19.04999936995175
 30
0.0
 40
1.399999999999999
100
AcDbArc
 50
90.0
 51
180.0
  0
ARC
  5
A61
330
1A
100
AcDbEntity
  8
ZUWAKU
100
AcDbCircle
 10
24.94221133157907
 20
19.04999936995171
 30
0.0
 40
4.199999999999999
100
AcDbArc
 50
90.0
 51
180.0
  0
LINE
  5
A62
330
1A
100
AcDbEntity
  8
ZUWAKU
100
AcDbLine
 10
79.32662872478613
 20
29.99999936995175
 30
0.0
 11
79.32662872478636
 21
0.79999936995182
 31
0.0
  0
LINE
  5
A63
330
1A
100
AcDbEntity
  8
ZUWAKU
100
AcDbLine
 10
79.52662872478618
 20
29.99999936995175
 30
0.0
 11
79.5266287247864
 21
0.79999936995182
 31
0.0
  0
LINE
  5
A64
330
1A
100
AcDbEntity
  8
ZUWAKU
100
AcDbLine
 10
79.12662872478631
 20
29.99999936995175
 30
0.0
 11
79.12662872478631
 21
0.79999936995182
 31
0.0
  0
LINE
  5
A65
330
1A
100
AcDbEntity
  8
ZUWAKU
100
AcDbLine
 10
64.14221133157912
 20
9.949999369951754
 30
0.0
 11
64.14221133157912
 21
22.72499936995175
 31
0.0
  0
LINE
  5
A66
330
1A
100
AcDbEntity
  8
ZUWAKU
100
AcDbLine
 10
61.34221133157905
 20
22.72499936995175
 30
0.0
 11
61.34221133157905
 21
10.99999936995175
 31
0.0
  0
LINE
  5
A67
330
1A
100
AcDbEntity
  8
ZUWAKU
100
AcDbLine
 10
69.0422113315791
 20
7.674999369951756
 30
0.0
 11
69.0422113315791
 21
22.72499936995175
 31
0.0
  0
LINE
  5
A68
330
1A
100
AcDbEntity
  8
ZUWAKU
100
AcDbLine
 10
66.24221133157902
 20
22.72499936995175
 30
0.0
 11
66.24221133157902
 21
7.674999369951756
 31
0.0
  0
ARC
  5
A69
330
1A
100
AcDbEntity
  8
ZUWAKU
100
AcDbCircle
 10
49.7922113315791
 20
18.63479734459645
 30
0.0
 40
1.399999999999999
100
AcDbArc
 50
180.0000000000016
 51
224.9999999999988
  0
ARC
  5
A6A
330
1A
100
AcDbEntity
  8
ZUWAKU
100
AcDbCircle
 10
49.7922113315791
 20
18.63479734459645
 30
0.0
 40
4.199999999999999
100
AcDbArc
 50
180.0
 51
225.0
  0
LINE
  5
A6B
330
1A
100
AcDbEntity
  8
ZUWAKU
100
AcDbLine
 10
37.31485781375704
 20
19.20504656351518
 30
0.0
 11
36.0501060684212
 21
15.19999936995177
 31
0.0
  0
LINE
  5
A6C
330
1A
100
AcDbEntity
  8
ZUWAKU
100
AcDbLine
 10
40.69221133157907
 20
22.72499936995175
 30
0.0
 11
40.69221133157907
 21
7.674999369951756
 31
0.0
  0
LINE
  5
A6D
330
1A
100
AcDbEntity
  8
ZUWAKU
100
AcDbLine
 10
43.49221133157903
 20
7.674999369951756
 30
0.0
 11
43.49221133157903
 21
22.72499936995175
 31
0.0
  0
LINE
  5
A6E
330
1A
100
AcDbEntity
  8
ZUWAKU
100
AcDbLine
 10
55.04221133157909
 20
22.72499936995175
 30
0.0
 11
55.04221133157909
 21
9.949999369951754
 31
0.0
  0
LINE
  5
A6F
330
1A
100
AcDbEntity
  8
ZUWAKU
100
AcDbLine
 10
57.84221133157905
 20
10.99999936995175
 30
0.0
 11
57.84221133157905
 21
22.72499936995175
 31
0.0
  0
LINE
  5
A70
330
1A
100
AcDbEntity
  8
ZUWAKU
100
AcDbLine
 10
32.64221133157912
 20
17.12499936995175
 30
0.0
 11
32.64221133157912
 21
22.72499936995175
 31
0.0
  0
LINE
  5
A71
330
1A
100
AcDbEntity
  8
ZUWAKU
100
AcDbLine
 10
29.84221133157905
 20
22.72499936995175
 30
0.0
 11
29.84221133157905
 21
7.674999369951756
 31
0.0
  0
LINE
  5
A72
330
1A
100
AcDbEntity
  8
ZUWAKU
100
AcDbLine
 10
35.67634626889491
 20
22.88309333811872
 30
0.0
 11
33.80807639426314
 21
16.96690540178478
 31
0.0
  0
LINE
  5
A73
330
1A
100
AcDbEntity
  8
ZUWAKU
100
AcDbLine
 10
60.2922113315791
 20
9.949999369951754
 30
0.0
 11
58.89221133157912
 21
9.949999369951754
 31
0.0
  0
LINE
  5
A74
330
1A
100
AcDbEntity
  8
ZUWAKU
100
AcDbLine
 10
57.84221133157905
 20
7.149999369951757
 30
0.0
 11
61.34221133157905
 21
7.149999369951757
 31
0.0
  0
LINE
  5
A75
330
1A
100
AcDbEntity
  8
ZUWAKU
100
AcDbLine
 10
41.21721133157905
 20
7.149999369951757
 30
0.0
 11
42.96721133157904
 21
7.149999369951757
 31
0.0
  0
LINE
  5
A76
330
1A
100
AcDbEntity
  8
ZUWAKU
100
AcDbLine
 10
35.67634626889491
 20
7.516905401784782
 30
0.0
 11
33.80807639426314
 21
13.43309333811872
 31
0.0
  0
ARC
  5
A77
330
1A
100
AcDbEntity
  8
ZUWAKU
100
AcDbCircle
 10
33.30744549506778
 20
17.12499936995175
 30
0.0
 40
0.525
100
AcDbArc
 50
270.0
 51
342.4744316262769
  0
LINE
  5
A78
330
1A
100
AcDbEntity
  8
ZUWAKU
100
AcDbLine
 10
33.30744549506778
 20
16.59999936995175
 30
0.0
 11
33.16721133157909
 21
16.59999936995175
 31
0.0
  0
LINE
  5
A79
330
1A
100
AcDbEntity
  8
ZUWAKU
100
AcDbLine
 10
33.16721133157909
 20
13.79999936995175
 30
0.0
 11
33.30744549506778
 21
13.79999936995175
 31
0.0
  0
ARC
  5
A7A
330
1A
100
AcDbEntity
  8
ZUWAKU
100
AcDbCircle
 10
33.16721133157909
 20
17.12499936995175
 30
0.0
 40
0.525
100
AcDbArc
 50
180.0
 51
270.0
  0
LINE
  5
A7B
330
1A
100
AcDbEntity
  8
ZUWAKU
100
AcDbLine
 10
30.36721133157902
 20
7.149999369951757
 30
0.0
 11
32.11721133157903
 21
7.149999369951757
 31
0.0
  0
ARC
  5
A7C
330
1A
100
AcDbEntity
  8
ZUWAKU
100
AcDbCircle
 10
32.11721133157903
 20
7.674999369951756
 30
0.0
 40
0.525
100
AcDbArc
 50
270.0
 51
0.0
  0
LINE
  5
A7D
330
1A
100
AcDbEntity
  8
ZUWAKU
100
AcDbLine
 10
32.64221133157912
 20
7.674999369951756
 30
0.0
 11
32.64221133157912
 21
13.27499936995175
 31
0.0
  0
LINE
  5
A7E
330
1A
100
AcDbEntity
  8
ZUWAKU
100
AcDbLine
 10
27.39221133157911
 20
9.424999369951756
 30
0.0
 11
27.39221133157911
 21
7.674999369951756
 31
0.0
  0
ARC
  5
A7F
330
1A
100
AcDbEntity
  8
ZUWAKU
100
AcDbCircle
 10
26.86721133157902
 20
7.674999369951756
 30
0.0
 40
0.525
100
AcDbArc
 50
270.0
 51
0.0
  0
ARC
  5
A80
330
1A
100
AcDbEntity
  8
ZUWAKU
100
AcDbCircle
 10
26.86721133157902
 20
9.424999369951756
 30
0.0
 40
0.525
100
AcDbArc
 50
0.0
 51
90.0
  0
ARC
  5
A81
330
1A
100
AcDbEntity
  8
ZUWAKU
100
AcDbCircle
 10
30.36721133157902
 20
7.674999369951756
 30
0.0
 40
0.525
100
AcDbArc
 50
180.0
 51
270.0
  0
ARC
  5
A82
330
1A
100
AcDbEntity
  8
ZUWAKU
100
AcDbCircle
 10
33.30744549506778
 20
13.27499936995175
 30
0.0
 40
0.525
100
AcDbArc
 50
17.52556837372303
 51
90.0
  0
ARC
  5
A83
330
1A
100
AcDbEntity
  8
ZUWAKU
100
AcDbCircle
 10
33.16721133157909
 20
13.27499936995175
 30
0.0
 40
0.525
100
AcDbArc
 50
90.0
 51
180.0
  0
ARC
  5
A84
330
1A
100
AcDbEntity
  8
ZUWAKU
100
AcDbCircle
 10
41.21721133157905
 20
7.674999369951756
 30
0.0
 40
0.525
100
AcDbArc
 50
180.0
 51
270.0
  0
LINE
  5
A85
330
1A
100
AcDbEntity
  8
ZUWAKU
100
AcDbLine
 10
36.17697716809038
 20
7.149999369951757
 30
0.0
 11
37.87586654769938
 21
7.149999369951757
 31
0.0
  0
ARC
  5
A86
330
1A
100
AcDbEntity
  8
ZUWAKU
100
AcDbCircle
 10
37.87586654769938
 20
7.674999369951756
 30
0.0
 40
0.525
100
AcDbArc
 50
270.0
 51
17.52556837372303
  0
LINE
  5
A87
330
1A
100
AcDbEntity
  8
ZUWAKU
100
AcDbLine
 10
38.37649744689485
 20
7.833093338118729
 30
0.0
 11
36.0501060684212
 21
15.19999936995177
 31
0.0
  0
ARC
  5
A88
330
1A
100
AcDbEntity
  8
ZUWAKU
100
AcDbCircle
 10
36.17697716809038
 20
7.674999369951756
 30
0.0
 40
0.525
100
AcDbArc
 50
197.525568373723
 51
270.0
  0
ARC
  5
A89
330
1A
100
AcDbEntity
  8
ZUWAKU
100
AcDbCircle
 10
57.84221133157905
 20
9.949999369951754
 30
0.0
 40
2.799999999999999
100
AcDbArc
 50
180.0
 51
270.0
  0
ARC
  5
A8A
330
1A
100
AcDbEntity
  8
ZUWAKU
100
AcDbCircle
 10
50.14221133157912
 20
9.949999369951754
 30
0.0
 40
2.799999999999999
100
AcDbArc
 50
270.0
 51
0.0
  0
LINE
  5
A8B
330
1A
100
AcDbEntity
  8
ZUWAKU
100
AcDbLine
 10
51.71205981256264
 20
14.73504987629058
 30
0.0
 11
48.80226183791785
 21
17.64484785093525
 31
0.0
  0
LINE
  5
A8C
330
1A
100
AcDbEntity
  8
ZUWAKU
100
AcDbLine
 10
50.14221133157912
 20
10.47499936995176
 30
0.0
 11
50.14221133157912
 21
11.7652013953071
 31
0.0
  0
ARC
  5
A8D
330
1A
100
AcDbEntity
  8
ZUWAKU
100
AcDbCircle
 10
48.74221133157902
 20
11.7652013953071
 30
0.0
 40
1.399999999999999
100
AcDbArc
 50
0.0
 51
45.0
  0
ARC
  5
A8E
330
1A
100
AcDbEntity
  8
ZUWAKU
100
AcDbCircle
 10
49.61721133157903
 20
10.47499936995176
 30
0.0
 40
0.525
100
AcDbArc
 50
270.0
 51
0.0
  0
LINE
  5
A8F
330
1A
100
AcDbEntity
  8
ZUWAKU
100
AcDbLine
 10
46.11721133157902
 20
7.674999369951756
 30
0.0
 11
46.11721133157902
 21
9.424999369951756
 31
0.0
  0
ARC
  5
A90
330
1A
100
AcDbEntity
  8
ZUWAKU
100
AcDbCircle
 10
46.64221133157911
 20
7.674999369951756
 30
0.0
 40
0.525
100
AcDbArc
 50
180.0
 51
270.0
  0
ARC
  5
A91
330
1A
100
AcDbEntity
  8
ZUWAKU
100
AcDbCircle
 10
42.96721133157904
 20
7.674999369951756
 30
0.0
 40
0.525
100
AcDbArc
 50
270.0
 51
0.0
  0
ARC
  5
A92
330
1A
100
AcDbEntity
  8
ZUWAKU
100
AcDbCircle
 10
46.64221133157911
 20
9.424999369951756
 30
0.0
 40
0.525
100
AcDbArc
 50
90.0
 51
180.0
  0
LINE
  5
A93
330
1A
100
AcDbEntity
  8
ZUWAKU
100
AcDbLine
 10
46.64221133157911
 20
9.949999369951754
 30
0.0
 11
49.61721133157903
 21
9.949999369951754
 31
0.0
  0
LINE
  5
A94
330
1A
100
AcDbEntity
  8
ZUWAKU
100
AcDbLine
 10
46.64221133157911
 20
7.149999369951757
 30
0.0
 11
50.14221133157912
 21
7.149999369951757
 31
0.0
  0
LINE
  5
A95
330
1A
100
AcDbEntity
  8
ZUWAKU
100
AcDbLine
 10
46.82236285059559
 20
15.66494886361293
 30
0.0
 11
49.73216082524027
 21
12.75515088896827
 31
0.0
  0
LINE
  5
A96
330
1A
100
AcDbEntity
  8
ZUWAKU
100
AcDbLine
 10
52.94221133157908
 20
9.949999369951754
 30
0.0
 11
52.94221133157908
 21
11.7652013953071
 31
0.0
  0
ARC
  5
A97
330
1A
100
AcDbEntity
  8
ZUWAKU
100
AcDbCircle
 10
48.74221133157902
 20
11.76520139530705
 30
0.0
 40
4.199999999999999
100
AcDbArc
 50
0.0
 51
45.0
  0
ARC
  5
A98
330
1A
100
AcDbEntity
  8
ZUWAKU
100
AcDbCircle
 10
58.89221133157912
 20
10.99999936995175
 30
0.0
 40
1.049999999999999
100
AcDbArc
 50
180.0
 51
270.0
  0
ARC
  5
A99
330
1A
100
AcDbEntity
  8
ZUWAKU
100
AcDbCircle
 10
61.34221133157905
 20
9.949999369951754
 30
0.0
 40
2.799999999999999
100
AcDbArc
 50
270.0
 51
0.0
  0
LINE
  5
A9A
330
1A
100
AcDbEntity
  8
ZUWAKU
100
AcDbLine
 10
66.76721133157911
 20
7.149999369951757
 30
0.0
 11
68.51721133157912
 21
7.149999369951757
 31
0.0
  0
ARC
  5
A9B
330
1A
100
AcDbEntity
  8
ZUWAKU
100
AcDbCircle
 10
66.76721133157911
 20
7.674999369951756
 30
0.0
 40
0.525
100
AcDbArc
 50
180.0
 51
270.0
  0
ARC
  5
A9C
330
1A
100
AcDbEntity
  8
ZUWAKU
100
AcDbCircle
 10
60.2922113315791
 20
10.99999936995175
 30
0.0
 40
1.049999999999999
100
AcDbArc
 50
270.0
 51
0.0
  0
ARC
  5
A9D
330
1A
100
AcDbEntity
  8
ZUWAKU
100
AcDbCircle
 10
68.51721133157912
 20
7.674999369951756
 30
0.0
 40
0.525
100
AcDbArc
 50
270.0
 51
0.0
  0
LINE
  5
A9E
330
1A
100
AcDbEntity
  8
ZUWAKU
100
AcDbLine
 10
42.96721133157904
 20
23.24999936995176
 30
0.0
 11
41.21721133157905
 21
23.24999936995176
 31
0.0
  0
ARC
  5
A9F
330
1A
100
AcDbEntity
  8
ZUWAKU
100
AcDbCircle
 10
32.11721133157903
 20
22.72499936995175
 30
0.0
 40
0.525
100
AcDbArc
 50
0.0
 51
90.0
  0
LINE
  5
AA0
330
1A
100
AcDbEntity
  8
ZUWAKU
100
AcDbLine
 10
32.11721133157903
 20
23.24999936995176
 30
0.0
 11
30.36721133157902
 21
23.24999936995176
 31
0.0
  0
ARC
  5
AA1
330
1A
100
AcDbEntity
  8
ZUWAKU
100
AcDbCircle
 10
26.86721133157902
 20
22.72499936995175
 30
0.0
 40
0.525
100
AcDbArc
 50
0.0
 51
90.0
  0
ARC
  5
AA2
330
1A
100
AcDbEntity
  8
ZUWAKU
100
AcDbCircle
 10
30.36721133157902
 20
22.72499936995175
 30
0.0
 40
0.525
100
AcDbArc
 50
90.0
 51
180.0
  0
ARC
  5
AA3
330
1A
100
AcDbEntity
  8
ZUWAKU
100
AcDbCircle
 10
26.86721133157902
 20
20.97499936995175
 30
0.0
 40
0.525
100
AcDbArc
 50
270.0
 51
0.0
  0
LINE
  5
AA4
330
1A
100
AcDbEntity
  8
ZUWAKU
100
AcDbLine
 10
27.39221133157911
 20
22.72499936995175
 30
0.0
 11
27.39221133157911
 21
20.97499936995175
 31
0.0
  0
ARC
  5
AA5
330
1A
100
AcDbEntity
  8
ZUWAKU
100
AcDbCircle
 10
41.21721133157905
 20
22.72499936995175
 30
0.0
 40
0.525
100
AcDbArc
 50
90.0
 51
180.0
  0
LINE
  5
AA6
330
1A
100
AcDbEntity
  8
ZUWAKU
100
AcDbLine
 10
36.17697716809038
 20
23.24999936995176
 30
0.0
 11
37.87586654769938
 21
23.24999936995176
 31
0.0
  0
ARC
  5
AA7
330
1A
100
AcDbEntity
  8
ZUWAKU
100
AcDbCircle
 10
37.87586654769938
 20
22.72499936995175
 30
0.0
 40
0.525
100
AcDbArc
 50
342.4744316262769
 51
90.0
  0
LINE
  5
AA8
330
1A
100
AcDbEntity
  8
ZUWAKU
100
AcDbLine
 10
38.37649744689485
 20
22.56690540178478
 30
0.0
 11
37.31485781375704
 21
19.20504656351518
 31
0.0
  0
ARC
  5
AA9
330
1A
100
AcDbEntity
  8
ZUWAKU
100
AcDbCircle
 10
36.17697716809038
 20
22.72499936995175
 30
0.0
 40
0.525
100
AcDbArc
 50
90.0
 51
162.4744316262769
  0
LINE
  5
AAA
330
1A
100
AcDbEntity
  8
ZUWAKU
100
AcDbLine
 10
48.39221133157912
 20
23.24999936995176
 30
0.0
 11
51.89221133157912
 21
23.24999936995176
 31
0.0
  0
LINE
  5
AAB
330
1A
100
AcDbEntity
  8
ZUWAKU
100
AcDbLine
 10
51.89221133157912
 20
20.44999936995175
 30
0.0
 11
48.9172113315791
 21
20.44999936995175
 31
0.0
  0
ARC
  5
AAC
330
1A
100
AcDbEntity
  8
ZUWAKU
100
AcDbCircle
 10
48.9172113315791
 20
19.92499936995175
 30
0.0
 40
0.525
100
AcDbArc
 50
90.0
 51
180.0
  0
LINE
  5
AAD
330
1A
100
AcDbEntity
  8
ZUWAKU
100
AcDbLine
 10
48.39221133157912
 20
19.92499936995175
 30
0.0
 11
48.39221133157912
 21
18.63479734459641
 31
0.0
  0
ARC
  5
AAE
330
1A
100
AcDbEntity
  8
ZUWAKU
100
AcDbCircle
 10
42.96721133157904
 20
22.72499936995175
 30
0.0
 40
0.525
100
AcDbArc
 50
0.0
 51
90.0
  0
LINE
  5
AAF
330
1A
100
AcDbEntity
  8
ZUWAKU
100
AcDbLine
 10
45.59221133157905
 20
20.44999936995175
 30
0.0
 11
45.59221133157905
 21
18.63479734459641
 31
0.0
  0
ARC
  5
AB0
330
1A
100
AcDbEntity
  8
ZUWAKU
100
AcDbCircle
 10
48.39221133157912
 20
20.44999936995175
 30
0.0
 40
2.799999999999999
100
AcDbArc
 50
90.0
 51
180.0
  0
ARC
  5
AB1
330
1A
100
AcDbEntity
  8
ZUWAKU
100
AcDbCircle
 10
57.31721133157908
 20
22.72499936995175
 30
0.0
 40
0.525
100
AcDbArc
 50
0.0
 51
90.0
  0
ARC
  5
AB2
330
1A
100
AcDbEntity
  8
ZUWAKU
100
AcDbCircle
 10
55.56721133157907
 20
22.72499936995175
 30
0.0
 40
0.525
100
AcDbArc
 50
90.0
 51
180.0
  0
LINE
  5
AB3
330
1A
100
AcDbEntity
  8
ZUWAKU
100
AcDbLine
 10
57.31721133157908
 20
23.24999936995176
 30
0.0
 11
55.56721133157907
 21
23.24999936995176
 31
0.0
  0
ARC
  5
AB4
330
1A
100
AcDbEntity
  8
ZUWAKU
100
AcDbCircle
 10
51.89221133157912
 20
22.72499936995175
 30
0.0
 40
0.525
100
AcDbArc
 50
0.0
 51
90.0
  0
ARC
  5
AB5
330
1A
100
AcDbEntity
  8
ZUWAKU
100
AcDbCircle
 10
51.89221133157912
 20
20.97499936995175
 30
0.0
 40
0.525
100
AcDbArc
 50
270.0
 51
0.0
  0
LINE
  5
AB6
330
1A
100
AcDbEntity
  8
ZUWAKU
100
AcDbLine
 10
52.41721133157909
 20
22.72499936995175
 30
0.0
 11
52.41721133157909
 21
20.97499936995175
 31
0.0
  0
LINE
  5
AB7
330
1A
100
AcDbEntity
  8
ZUWAKU
100
AcDbLine
 10
68.51721133157912
 20
23.24999936995176
 30
0.0
 11
66.76721133157911
 21
23.24999936995176
 31
0.0
  0
ARC
  5
AB8
330
1A
100
AcDbEntity
  8
ZUWAKU
100
AcDbCircle
 10
66.76721133157911
 20
22.72499936995175
 30
0.0
 40
0.525
100
AcDbArc
 50
90.0
 51
180.0
  0
ARC
  5
AB9
330
1A
100
AcDbEntity
  8
ZUWAKU
100
AcDbCircle
 10
63.61721133157903
 20
22.72499936995175
 30
0.0
 40
0.525
100
AcDbArc
 50
0.0
 51
90.0
  0
LINE
  5
ABA
330
1A
100
AcDbEntity
  8
ZUWAKU
100
AcDbLine
 10
63.61721133157903
 20
23.24999936995176
 30
0.0
 11
61.86721133157902
 21
23.24999936995176
 31
0.0
  0
ARC
  5
ABB
330
1A
100
AcDbEntity
  8
ZUWAKU
100
AcDbCircle
 10
61.86721133157902
 20
22.72499936995175
 30
0.0
 40
0.525
100
AcDbArc
 50
90.0
 51
180.0
  0
ARC
  5
ABC
330
1A
100
AcDbEntity
  8
ZUWAKU
100
AcDbCircle
 10
68.51721133157912
 20
22.72499936995175
 30
0.0
 40
0.525
100
AcDbArc
 50
0.0
 51
90.0
  0
TEXT
  5
ABD
330
1A
100
AcDbEntity
  8
MOJI
100
AcDbText
 10
239.827201857649
 20
3.204920427359173
 30
0.0
 40
5.599999999999999
  1
ＲＶ１０５－４－４５～６０
 41
0.9
  7
ｽﾀｲﾙ1
100
AcDbText
  0
TEXT
  5
ABE
330
1A
100
AcDbEntity
  8
MOJI
100
AcDbText
 10
239.827201857649
 20
18.00492042735913
 30
0.0
 40
5.599999999999999
  1
ステンレス金具正面打（吊）自在式
 41
0.9
  7
ｽﾀｲﾙ1
100
AcDbText
  0
LINE
  5
ABF
330
1A
100
AcDbEntity
  8
ZUWAKU
100
AcDbLine
 10
208.2466004668658
 20
29.99999936995175
 30
0.0
 11
208.2466004668658
 21
0.79999936995182
 31
0.0
  0
LINE
  5
AC0
330
1A
100
AcDbEntity
  8
ZUWAKU
100
AcDbLine
 10
208.6466004668657
 20
29.99999936995175
 30
0.0
 11
208.6466004668659
 21
0.79999936995182
 31
0.0
  0
LINE
  5
AC1
330
1A
100
AcDbEntity
  8
ZUWAKU
100
AcDbLine
 10
208.4466004668656
 20
29.99999936995175
 30
0.0
 11
208.4466004668659
 21
0.79999936995182
 31
0.0
  0
TEXT
  5
AC2
330
1A
100
AcDbEntity
  8
ZUWAKU
100
AcDbText
 10
209.7240454890754
 20
9.655355908337369
 30
0.0
 40
4.0
  1
サイズ
 41
0.9
  7
ｽﾀｲﾙ1
100
AcDbText
  0
TEXT
  5
AC3
330
1A
100
AcDbEntity
  8
ZUWAKU
100
AcDbText
 10
209.7240454890752
 20
24.05535590833733
 30
0.0
 40
4.0
  1
品名
 41
0.9
  7
ｽﾀｲﾙ1
100
AcDbText
  0
LINE
  5
AC4
330
1A
100
AcDbEntity
  8
ZUWAKU
100
AcDbLine
 10
648.8172016870021
 20
15.19999936995178
 30
0.0
 11
697.2490097253391
 21
15.19999936995178
 31
0.0
  0
LINE
  5
AC5
330
1A
100
AcDbEntity
  8
ZUWAKU
100
AcDbLine
 10
648.8172016870024
 20
15.39999936995179
 30
0.0
 11
697.2490097253391
 21
15.39999936995178
 31
0.0
  0
LINE
  5
AC6
330
1A
100
AcDbEntity
  8
ZUWAKU
100
AcDbLine
 10
648.8172016870021
 20
15.59999936995178
 30
0.0
 11
697.2490097253391
 21
15.59999936995178
 31
0.0
  0
TEXT
  5
AC7
330
1A
100
AcDbEntity
  8
ZUWAKU
100
AcDbText
 10
658.2039368641003
 20
18.00492042735913
 30
0.0
 40
5.599999999999999
  1
　　．　　．　　
 41
0.9
  7
ｽﾀｲﾙ1
100
AcDbText
  0
LINE
  5
AC8
330
1A
100
AcDbEntity
  8
ZUWAKU
100
AcDbLine
 10
505.1991786749388
 20
15.19999936995179
 30
0.0
 11
552.5269549429103
 21
15.19999936995179
 31
0.0
  0
LINE
  5
AC9
330
1A
100
AcDbEntity
  8
ZUWAKU
100
AcDbLine
 10
505.1991786749388
 20
15.39999936995178
 30
0.0
 11
552.5269549429103
 21
15.39999936995178
 31
0.0
  0
LINE
  5
ACA
330
1A
100
AcDbEntity
  8
ZUWAKU
100
AcDbLine
 10
505.1991786749388
 20
15.59999936995178
 30
0.0
 11
552.5269549429103
 21
15.59999936995178
 31
0.0
  0
TEXT
  5
ACB
330
1A
100
AcDbEntity
  8
MOJI
100
AcDbText
 10
464.5946251800369
 20
11.94261709161173
 30
0.0
 40
5.599999999999999
  1
ＬＧ５７Ｇ
 41
0.9
  7
ｽﾀｲﾙ1
100
AcDbText
  0
LINE
  5
ACC
330
1A
100
AcDbEntity
  8
ZUWAKU
100
AcDbLine
 10
447.6243631477891
 20
29.99999936995175
 30
0.0
 11
447.6243631477894
 21
0.79999936995182
 31
0.0
  0
LINE
  5
ACD
330
1A
100
AcDbEntity
  8
ZUWAKU
100
AcDbLine
 10
447.8243631477892
 20
29.99999936995175
 30
0.0
 11
447.8243631477893
 21
0.79999936995182
 31
0.0
  0
LINE
  5
ACE
330
1A
100
AcDbEntity
  8
ZUWAKU
100
AcDbLine
 10
447.4243631477893
 20
29.99999936995175
 30
0.0
 11
447.4243631477893
 21
0.79999936995182
 31
0.0
  0
TEXT
  5
ACF
330
1A
100
AcDbEntity
  8
MOJI
100
AcDbText
 10
528.0409071491107
 20
18.00492042735913
 30
0.0
 40
5.599999999999999
  1
Ａ３
 41
0.9
  7
ｽﾀｲﾙ1
100
AcDbText
  0
LINE
  5
AD0
330
1A
100
AcDbEntity
  8
ZUWAKU
100
AcDbLine
 10
504.9991786749387
 20
29.99999936995175
 30
0.0
 11
504.999178674939
 21
0.79999936995182
 31
0.0
  0
LINE
  5
AD1
330
1A
100
AcDbEntity
  8
ZUWAKU
100
AcDbLine
 10
505.1991786749388
 20
29.99999936995175
 30
0.0
 11
505.199178674939
 21
0.79999936995182
 31
0.0
  0
LINE
  5
AD2
330
1A
100
AcDbEntity
  8
ZUWAKU
100
AcDbLine
 10
504.7991786749389
 20
29.99999936995175
 30
0.0
 11
504.7991786749389
 21
0.79999936995182
 31
0.0
  0
TEXT
  5
AD3
330
1A
100
AcDbEntity
  8
ZUWAKU
100
AcDbText
 10
506.6766236971487
 20
9.655355908337369
 30
0.0
 40
4.0
  1
縮尺
 41
0.9
  7
ｽﾀｲﾙ1
100
AcDbText
  0
TEXT
  5
AD4
330
1A
100
AcDbEntity
  8
MOJI
100
AcDbText
 10
528.0409071491107
 20
3.204920427359173
 30
0.0
 40
5.599999999999999
  1
１/２
 41
0.9
  7
ｽﾀｲﾙ1
100
AcDbText
  0
TEXT
  5
AD5
330
1A
100
AcDbEntity
  8
ZUWAKU
100
AcDbText
 10
449.3018081699988
 20
24.05535590833733
 30
0.0
 40
4.0
  1
品番
 41
0.9
  7
ｽﾀｲﾙ1
100
AcDbText
  0
TEXT
  5
AD6
330
1A
100
AcDbEntity
  8
ZUWAKU
100
AcDbText
 10
506.6766236971484
 20
24.05535590833733
 30
0.0
 40
4.0
  1
用紙
 41
0.9
  7
ｽﾀｲﾙ1
100
AcDbText
  0
LINE
  5
AD7
330
1A
100
AcDbEntity
  8
ZUWAKU
100
AcDbLine
 10
648.6172016870023
 20
29.99999936995175
 30
0.0
 11
648.6172016870025
 21
0.79999936995182
 31
0.0
  0
LINE
  5
AD8
330
1A
100
AcDbEntity
  8
ZUWAKU
100
AcDbLine
 10
648.8172016870024
 20
29.99999936995175
 30
0.0
 11
648.8172016870025
 21
0.79999936995182
 31
0.0
  0
LINE
  5
AD9
330
1A
100
AcDbEntity
  8
ZUWAKU
100
AcDbLine
 10
648.4172016870025
 20
29.99999936995175
 30
0.0
 11
648.4172016870025
 21
0.79999936995182
 31
0.0
  0
LINE
  5
ADA
330
1A
100
AcDbEntity
  8
ZUWAKU
100
AcDbLine
 10
552.7269549429101
 20
29.99999936995175
 30
0.0
 11
552.7269549429104
 21
0.79999936995182
 31
0.0
  0
LINE
  5
ADB
330
1A
100
AcDbEntity
  8
ZUWAKU
100
AcDbLine
 10
552.9269549429102
 20
29.99999936995175
 30
0.0
 11
552.9269549429105
 21
0.79999936995182
 31
0.0
  0
LINE
  5
ADC
330
1A
100
AcDbEntity
  8
ZUWAKU
100
AcDbLine
 10
552.5269549429103
 20
29.99999936995175
 30
0.0
 11
552.5269549429103
 21
0.79999936995182
 31
0.0
  0
TEXT
  5
ADD
330
1A
100
AcDbEntity
  8
ZUWAKU
100
AcDbText
 10
650.294646709212
 20
24.05535590833733
 30
0.0
 40
4.0
  1
DATE
 41
0.9
  7
ｽﾀｲﾙ1
100
AcDbText
  0
LINE
  5
ADE
330
1A
100
AcDbEntity
  8
ZUWAKU
100
AcDbLine
 10
697.2490097253391
 20
29.99999936995175
 30
0.0
 11
697.2490097253391
 21
0.79999936995182
 31
0.0
  0
LINE
  5
ADF
330
1A
100
AcDbEntity
  8
ZUWAKU
100
AcDbLine
 10
697.4490097253392
 20
29.99999936995175
 30
0.0
 11
697.4490097253392
 21
0.79999936995182
 31
0.0
  0
LINE
  5
AE0
330
1A
100
AcDbEntity
  8
ZUWAKU
100
AcDbLine
 10
697.649009725339
 20
29.99999936995175
 30
0.0
 11
697.6490097253392
 21
0.79999936995182
 31
0.0
  0
LINE
  5
AE1
330
1A
100
AcDbEntity
  8
ZUWAKU
100
AcDbLine
 10
697.849009725339
 20
29.99999936995175
 30
0.0
 11
697.8490097253393
 21
0.79999936995182
 31
0.0
  0
TEXT
  5
AE2
330
1A
100
AcDbEntity
  8
ZUWAKU
100
AcDbText
 10
708.5280833690417
 20
17.55383870563855
 30
0.0
 40
6.0
  1
積水化学工業株式会社
 41
0.9
  7
ｽﾀｲﾙ1
100
AcDbText
  0
TEXT
  5
AE3
330
1A
100
AcDbEntity
  8
ZUWAKU
100
AcDbText
 10
708.5280833690417
 20
6.648839683805817
 30
0.0
 40
6.0
  1
建材事業部
 41
0.9
  7
ｽﾀｲﾙ1
100
AcDbText
  0
VIEWPORT
  5
22
330
17
100
AcDbEntity
 67
     1
  8
0
100
AcDbViewport
 10
313.6808219178082
 20
148.5
 30
0.0
 40
627.3616438356165
 41
297.0
 68
     2
 69
     1
1001
ACAD
1000
MVIEW
1002
{
1070
    16
1010
0.0
1020
0.0
1030
0.0
1010
0.0
1020
0.0
1030
1.0
1040
0.0
1040
297.0
1040
313.6808219178082
1040
148.5
1040
50.0
1040
0.0
1040
0.0
1070
     0
1070
   100
1070
     1
1070
     0
1070
     0
1070
     0
1070
     0
1070
     0
1040
0.0
1040
0.0
1040
0.0
1040
1.0
1040
1.0
1040
10.0
1040
10.0
1070
     0
1002
{
1002
}
1002
}
  0
VIEWPORT
  5
64
330
17
100
AcDbEntity
 67
     1
  8
VIEWPORT
100
AcDbViewport
 10
210.0
 20
148.5
 30
0.0
 40
420.0
 41
297.0
 68
     1
 69
     2
1001
ACAD
1000
MVIEW
1002
{
1070
    16
1010
0.0
1020
0.0
1030
0.0
1010
0.0
1020
0.0
1030
1.0
1040
0.0
1040
605.8799999999998
1040
420.0
1040
297.0
1040
50.0
1040
0.0
1040
0.0
1070
     0
1070
   100
1070
     1
1070
     0
1070
     0
1070
     0
1070
     0
1070
     0
1040
0.0
1040
0.0
1040
0.0
1040
10.0
1040
10.0
1040
0.0
1040
0.0
1070
     0
1002
{
1002
}
1002
}
  0
ENDSEC
  0
SECTION
  2
OBJECTS
  0
DICTIONARY
  5
C
330
0
100
AcDbDictionary
  3
ACAD_GROUP
350
D
  3
ACAD_LAYOUT
350
862
  3
ACAD_MLINESTYLE
350
E
  3
ACAD_PLOTSETTINGS
350
863
  3
ACAD_PLOTSTYLENAME
350
860
  3
ACDBHEADERROUNDTRIPXREC
350
C27
  0
DICTIONARY
  5
891
330
1A
100
AcDbDictionary
280
     1
  3
ACAD_LAYOUTSELFREF
360
C49
  0
DICTIONARY
  5
88F
330
17
100
AcDbDictionary
280
     1
  3
ACAD_LAYOUTSELFREF
360
C48
  0
DICTIONARY
  5
D
102
{ACAD_REACTORS
330
C
102
}
330
C
100
AcDbDictionary
  0
DICTIONARY
  5
862
102
{ACAD_REACTORS
330
C
102
}
330
C
100
AcDbDictionary
  0
DICTIONARY
  5
E
102
{ACAD_REACTORS
330
C
102
}
330
C
100
AcDbDictionary
  3
STANDARD
350
13
  0
DICTIONARY
  5
863
102
{ACAD_REACTORS
330
C
102
}
330
C
100
AcDbDictionary
  0
ACDBDICTIONARYWDFLT
  5
860
102
{ACAD_REACTORS
330
C
102
}
330
C
100
AcDbDictionary
281
     1
  3
Normal
350
861
100
AcDbDictionaryWithDefault
340
861
1001
ACAD
1000
TREAT_AS_HARD
1070
     0
1000
TREAT_AS_HARD
1070
     0
  0
DICTIONARY
  5
C27
102
{ACAD_REACTORS
330
C
102
}
330
C
100
AcDbDictionary
  3
TSTACKALIGN
350
C28
  3
TSTACKSIZE
350
C29
  3
HYPERLINKBASE
350
C2A
  3
STYLESHEET
350
C2B
  3
LAYOUTDICT
350
C2C
  3
PLOTSETDICT
350
C2D
  3
PLOTSTYLNAMDICT
350
C2E
  3
LWETCUNION
350
C2F
  3
INSUNITS
350
C30
  3
CEPSNTYPE
350
C31
  3
FINGERPRINTGUID
350
C32
  3
VERSIONGUID
350
C33
  3
PSVPSCALE
350
C34
  3
DIMSTYLEDATA
350
C35
  3
PUCSORTHOREF
350
C36
  3
PUCSORTHOVIEW
350
C37
  3
PUCSBASE
350
C38
  3
PUCSORGTOP
350
C39
  3
PUCSORGBOTTOM
350
C3A
  3
PUCSORGLEFT
350
C3B
  3
PUCSORGRIGHT
350
C3C
  3
PUCSORGFRONT
350
C3D
  3
PUCSORGBACK
350
C3E
  3
UCSORTHOREF
350
C3F
  3
UCSORTHOVIEW
350
C40
  3
UCSBASE
350
C41
  3
UCSORGTOP
350
C42
  3
UCSORGBOTTOM
350
C43
  3
UCSORGLEFT
350
C44
  3
UCSORGRIGHT
350
C45
  3
UCSORGFRONT
350
C46
  3
UCSORGBACK
350
C47
  0
XRECORD
  5
C49
102
{ACAD_REACTORS
330
891
102
}
330
891
100
AcDbXrecord
340
1A
  0
XRECORD
  5
C48
102
{ACAD_REACTORS
330
88F
102
}
330
88F
100
AcDbXrecord
340
17
  0
MLINESTYLE
  5
13
102
{ACAD_REACTORS
330
E
102
}
330
E
100
AcDbMlineStyle
  2
STANDARD
 70
     0
  3

 62
     0
 51
90.0
 52
90.0
 71
     2
 49
0.5
 62
   256
  6
BYLAYER
 49
-0.5
 62
   256
  6
BYLAYER
  0
ACDBPLACEHOLDER
  5
861
102
{ACAD_REACTORS
330
860
102
}
330
860
100
AcDbPlaceHolder
280
     0
  0
XRECORD
  5
C28
102
{ACAD_REACTORS
330
C27
102
}
330
C27
100
AcDbXrecord
 90
        1
  0
XRECORD
  5
C29
102
{ACAD_REACTORS
330
C27
102
}
330
C27
100
AcDbXrecord
 90
       70
  0
XRECORD
  5
C2A
102
{ACAD_REACTORS
330
C27
102
}
330
C27
100
AcDbXrecord
  1

  0
XRECORD
  5
C2B
102
{ACAD_REACTORS
330
C27
102
}
330
C27
100
AcDbXrecord
  1
systemprinter.ctb
  0
XRECORD
  5
C2C
102
{ACAD_REACTORS
330
C27
102
}
330
C27
100
AcDbXrecord
340
862
  0
XRECORD
  5
C2D
102
{ACAD_REACTORS
330
C27
102
}
330
C27
100
AcDbXrecord
340
863
  0
XRECORD
  5
C2E
102
{ACAD_REACTORS
330
C27
102
}
330
C27
100
AcDbXrecord
340
860
  0
XRECORD
  5
C2F
102
{ACAD_REACTORS
330
C27
102
}
330
C27
100
AcDbXrecord
 90
    10781
  0
XRECORD
  5
C30
102
{ACAD_REACTORS
330
C27
102
}
330
C27
100
AcDbXrecord
 90
        0
  0
XRECORD
  5
C31
102
{ACAD_REACTORS
330
C27
102
}
330
C27
100
AcDbXrecord
 90
        0
  0
XRECORD
  5
C32
102
{ACAD_REACTORS
330
C27
102
}
330
C27
100
AcDbXrecord
  1
{41A0BC13-7206-4865-8DCD-8235782DE140}
  0
XRECORD
  5
C33
102
{ACAD_REACTORS
330
C27
102
}
330
C27
100
AcDbXrecord
  1
{36A646C5-B0CA-4D84-B4B5-23C846E2BAE9}
  0
XRECORD
  5
C34
102
{ACAD_REACTORS
330
C27
102
}
330
C27
100
AcDbXrecord
 40
0.0
  0
XRECORD
  5
C35
102
{ACAD_REACTORS
330
C27
102
}
330
C27
100
AcDbXrecord
1000
DSTYLE
1002
{
1070
   341
340
6D
1070
   343
340
6D
1070
   344
340
6D
1070
   371
 70
    -1
1070
   372
 70
    -1
1002
}
  0
XRECORD
  5
C36
102
{ACAD_REACTORS
330
C27
102
}
330
C27
100
AcDbXrecord
340
0
  0
XRECORD
  5
C37
102
{ACAD_REACTORS
330
C27
102
}
330
C27
100
AcDbXrecord
 70
     0
  0
XRECORD
  5
C38
102
{ACAD_REACTORS
330
C27
102
}
330
C27
100
AcDbXrecord
340
0
  0
XRECORD
  5
C39
102
{ACAD_REACTORS
330
C27
102
}
330
C27
100
AcDbXrecord
 10
0.0
 20
0.0
 30
0.0
  0
XRECORD
  5
C3A
102
{ACAD_REACTORS
330
C27
102
}
330
C27
100
AcDbXrecord
 10
0.0
 20
0.0
 30
0.0
  0
XRECORD
  5
C3B
102
{ACAD_REACTORS
330
C27
102
}
330
C27
100
AcDbXrecord
 10
0.0
 20
0.0
 30
0.0
  0
XRECORD
  5
C3C
102
{ACAD_REACTORS
330
C27
102
}
330
C27
100
AcDbXrecord
 10
0.0
 20
0.0
 30
0.0
  0
XRECORD
  5
C3D
102
{ACAD_REACTORS
330
C27
102
}
330
C27
100
AcDbXrecord
 10
0.0
 20
0.0
 30
0.0
  0
XRECORD
  5
C3E
102
{ACAD_REACTORS
330
C27
102
}
330
C27
100
AcDbXrecord
 10
0.0
 20
0.0
 30
0.0
  0
XRECORD
  5
C3F
102
{ACAD_REACTORS
330
C27
102
}
330
C27
100
AcDbXrecord
340
0
  0
XRECORD
  5
C40
102
{ACAD_REACTORS
330
C27
102
}
330
C27
100
AcDbXrecord
 70
     0
  0
XRECORD
  5
C41
102
{ACAD_REACTORS
330
C27
102
}
330
C27
100
AcDbXrecord
340
0
  0
XRECORD
  5
C42
102
{ACAD_REACTORS
330
C27
102
}
330
C27
100
AcDbXrecord
 10
0.0
 20
0.0
 30
0.0
  0
XRECORD
  5
C43
102
{ACAD_REACTORS
330
C27
102
}
330
C27
100
AcDbXrecord
 10
0.0
 20
0.0
 30
0.0
  0
XRECORD
  5
C44
102
{ACAD_REACTORS
330
C27
102
}
330
C27
100
AcDbXrecord
 10
0.0
 20
0.0
 30
0.0
  0
XRECORD
  5
C45
102
{ACAD_REACTORS
330
C27
102
}
330
C27
100
AcDbXrecord
 10
0.0
 20
0.0
 30
0.0
  0
XRECORD
  5
C46
102
{ACAD_REACTORS
330
C27
102
}
330
C27
100
AcDbXrecord
 10
0.0
 20
0.0
 30
0.0
  0
XRECORD
  5
C47
102
{ACAD_REACTORS
330
C27
102
}
330
C27
100
AcDbXrecord
 10
0.0
 20
0.0
 30
0.0
  0
ENDSEC
  0
EOF
