  0
SECTION
  2
HEADER
  9
$ACADVER
  1
AC1015
  9
$ACADMAINTVER
 70
     6
  9
$DWGCODEPAGE
  3
ANSI_932
  9
$INSBASE
 10
0.0
 20
0.0
 30
0.0
  9
$EXTMIN
 10
10.05047808566086
 20
13.78258628282265
 30
0.0
  9
$EXTMAX
 10
807.6504780856607
 20
565.3825862828227
 30
0.0
  9
$LIMMIN
 10
0.0
 20
0.0
  9
$LIMMAX
 10
840.0
 20
594.0
  9
$ORTHOMODE
 70
     0
  9
$REGENMODE
 70
     1
  9
$FILLMODE
 70
     1
  9
$QTEXTMODE
 70
     0
  9
$MIRRTEXT
 70
     1
  9
$LTSCALE
 40
2.0
  9
$ATTMODE
 70
     1
  9
$TEXTSIZE
 40
5.0
  9
$TRACEWID
 40
1.0
  9
$TEXTSTYLE
  7
STANDARD
  9
$CLAYER
  8
0
  9
$CELTYPE
  6
BYLAYER
  9
$CECOLOR
 62
   256
  9
$CELTSCALE
 40
2.0
  9
$DISPSILH
 70
     0
  9
$DIMSCALE
 40
1.0
  9
$DIMASZ
 40
7.0
  9
$DIMEXO
 40
6.0
  9
$DIMDLI
 40
14.0
  9
$DIMRND
 40
0.0
  9
$DIMDLE
 40
0.0
  9
$DIMEXE
 40
3.0
  9
$DIMTP
 40
0.0
  9
$DIMTM
 40
0.0
  9
$DIMTXT
 40
6.0
  9
$DIMCEN
 40
150.0
  9
$DIMTSZ
 40
0.0
  9
$DIMTOL
 70
     0
  9
$DIMLIM
 70
     0
  9
$DIMTIH
 70
     0
  9
$DIMTOH
 70
     0
  9
$DIMSE1
 70
     0
  9
$DIMSE2
 70
     0
  9
$DIMTAD
 70
     3
  9
$DIMZIN
 70
     0
  9
$DIMBLK
  1

  9
$DIMASO
 70
     1
  9
$DIMSHO
 70
     1
  9
$DIMPOST
  1

  9
$DIMAPOST
  1

  9
$DIMALT
 70
     0
  9
$DIMALTD
 70
     2
  9
$DIMALTF
 40
25.4
  9
$DIMLFAC
 40
1.0
  9
$DIMTOFL
 70
     1
  9
$DIMTVP
 40
0.0
  9
$DIMTIX
 70
     0
  9
$DIMSOXD
 70
     0
  9
$DIMSAH
 70
     1
  9
$DIMBLK1
  1
OPEN
  9
$DIMBLK2
  1
OPEN
  9
$DIMSTYLE
  2
STANDARD
  9
$DIMCLRD
 70
   256
  9
$DIMCLRE
 70
   256
  9
$DIMCLRT
 70
   256
  9
$DIMTFAC
 40
1.0
  9
$DIMGAP
 40
2.0
  9
$DIMJUST
 70
     0
  9
$DIMSD1
 70
     0
  9
$DIMSD2
 70
     0
  9
$DIMTOLJ
 70
     1
  9
$DIMTZIN
 70
     0
  9
$DIMALTZ
 70
     0
  9
$DIMALTTZ
 70
     0
  9
$DIMUPT
 70
     0
  9
$DIMDEC
 70
     0
  9
$DIMTDEC
 70
     0
  9
$DIMALTU
 70
     2
  9
$DIMALTTD
 70
     2
  9
$DIMTXSTY
  7
STANDARD
  9
$DIMAUNIT
 70
     0
  9
$DIMADEC
 70
     0
  9
$DIMALTRND
 40
0.0
  9
$DIMAZIN
 70
     0
  9
$DIMDSEP
 70
    46
  9
$DIMATFIT
 70
     3
  9
$DIMFRAC
 70
     0
  9
$DIMLDRBLK
  1
OPEN
  9
$DIMLUNIT
 70
     2
  9
$DIMLWD
 70
    -1
  9
$DIMLWE
 70
    -1
  9
$DIMTMOVE
 70
     0
  9
$LUNITS
 70
     2
  9
$LUPREC
 70
     4
  9
$SKETCHINC
 40
1.0
  9
$FILLETRAD
 40
0.5
  9
$AUNITS
 70
     0
  9
$AUPREC
 70
     0
  9
$MENU
  1
.
  9
$ELEVATION
 40
0.0
  9
$PELEVATION
 40
0.0
  9
$THICKNESS
 40
0.0
  9
$LIMCHECK
 70
     0
  9
$CHAMFERA
 40
20.0
  9
$CHAMFERB
 40
20.0
  9
$CHAMFERC
 40
40.0
  9
$CHAMFERD
 40
0.0
  9
$SKPOLY
 70
     0
  9
$TDCREATE
 40
2454866.469916053
  9
$TDUCREATE
 40
2454866.094916053
  9
$TDUPDATE
 40
2456216.589296181
  9
$TDUUPDATE
 40
2456216.214296180
  9
$TDINDWG
 40
0.1602397917
  9
$TDUSRTIMER
 40
0.1602397917
  9
$USRTIMER
 70
     1
  9
$ANGBASE
 50
0.0
  9
$ANGDIR
 70
     0
  9
$PDMODE
 70
     0
  9
$PDSIZE
 40
0.0
  9
$PLINEWID
 40
0.0
  9
$SPLFRAME
 70
     0
  9
$SPLINETYPE
 70
     6
  9
$SPLINESEGS
 70
     8
  9
$HANDSEED
  5
EBA2
  9
$SURFTAB1
 70
     6
  9
$SURFTAB2
 70
     6
  9
$SURFTYPE
 70
     6
  9
$SURFU
 70
     6
  9
$SURFV
 70
     6
  9
$UCSBASE
  2

  9
$UCSNAME
  2

  9
$UCSORG
 10
0.0
 20
0.0
 30
0.0
  9
$UCSXDIR
 10
1.0
 20
0.0
 30
0.0
  9
$UCSYDIR
 10
0.0
 20
1.0
 30
0.0
  9
$UCSORTHOREF
  2

  9
$UCSORTHOVIEW
 70
     0
  9
$UCSORGTOP
 10
0.0
 20
0.0
 30
0.0
  9
$UCSORGBOTTOM
 10
0.0
 20
0.0
 30
0.0
  9
$UCSORGLEFT
 10
0.0
 20
0.0
 30
0.0
  9
$UCSORGRIGHT
 10
0.0
 20
0.0
 30
0.0
  9
$UCSORGFRONT
 10
0.0
 20
0.0
 30
0.0
  9
$UCSORGBACK
 10
0.0
 20
0.0
 30
0.0
  9
$PUCSBASE
  2

  9
$PUCSNAME
  2

  9
$PUCSORG
 10
0.0
 20
0.0
 30
0.0
  9
$PUCSXDIR
 10
1.0
 20
0.0
 30
0.0
  9
$PUCSYDIR
 10
0.0
 20
1.0
 30
0.0
  9
$PUCSORTHOREF
  2

  9
$PUCSORTHOVIEW
 70
     0
  9
$PUCSORGTOP
 10
0.0
 20
0.0
 30
0.0
  9
$PUCSORGBOTTOM
 10
0.0
 20
0.0
 30
0.0
  9
$PUCSORGLEFT
 10
0.0
 20
0.0
 30
0.0
  9
$PUCSORGRIGHT
 10
0.0
 20
0.0
 30
0.0
  9
$PUCSORGFRONT
 10
0.0
 20
0.0
 30
0.0
  9
$PUCSORGBACK
 10
0.0
 20
0.0
 30
0.0
  9
$USERI1
 70
     0
  9
$USERI2
 70
     0
  9
$USERI3
 70
     0
  9
$USERI4
 70
     0
  9
$USERI5
 70
     0
  9
$USERR1
 40
0.0
  9
$USERR2
 40
0.0
  9
$USERR3
 40
0.0
  9
$USERR4
 40
0.0
  9
$USERR5
 40
0.0
  9
$WORLDVIEW
 70
     1
  9
$SHADEDGE
 70
     3
  9
$SHADEDIF
 70
    70
  9
$TILEMODE
 70
     1
  9
$MAXACTVP
 70
    16
  9
$PINSBASE
 10
0.0
 20
0.0
 30
0.0
  9
$PLIMCHECK
 70
     0
  9
$PEXTMIN
 10
0.0
 20
0.0
 30
0.0
  9
$PEXTMAX
 10
420.0
 20
297.0
 30
0.0
  9
$PLIMMIN
 10
0.0
 20
0.0
  9
$PLIMMAX
 10
420.0
 20
297.0
  9
$UNITMODE
 70
     0
  9
$VISRETAIN
 70
     0
  9
$PLINEGEN
 70
     0
  9
$PSLTSCALE
 70
     1
  9
$TREEDEPTH
 70
  3020
  9
$CMLSTYLE
  2
STANDARD
  9
$CMLJUST
 70
     0
  9
$CMLSCALE
 40
1.0
  9
$PROXYGRAPHICS
 70
     1
  9
$MEASUREMENT
 70
     1
  9
$CELWEIGHT
370
    -1
  9
$ENDCAPS
280
     0
  9
$JOINSTYLE
280
     0
  9
$LWDISPLAY
290
     0
  9
$INSUNITS
 70
     0
  9
$HYPERLINKBASE
  1

  9
$STYLESHEET
  1
print.ctb
  9
$XEDIT
290
     1
  9
$CEPSNTYPE
380
     0
  9
$PSTYLEMODE
290
     1
  9
$FINGERPRINTGUID
  2
{8D6CB018-5425-46D7-BA3D-129D74F567FA}
  9
$VERSIONGUID
  2
{C107263D-34C5-47DC-BF04-2C17C532247E}
  9
$EXTNAMES
290
     1
  9
$PSVPSCALE
 40
0.0
  9
$OLESTARTUP
290
     0
  0
ENDSEC
  0
SECTION
  2
CLASSES
  0
CLASS
  1
ACDBDICTIONARYWDFLT
  2
AcDbDictionaryWithDefault
  3
AutoCAD 2000
 90
        0
280
     0
281
     0
  0
CLASS
  1
ACDBPLACEHOLDER
  2
AcDbPlaceHolder
  3
AutoCAD 2000
 90
        0
280
     0
281
     0
  0
CLASS
  1
LAYOUT
  2
AcDbLayout
  3
AutoCAD 2000
 90
        0
280
     0
281
     0
  0
CLASS
  1
LONG_TRANSACTION
  2
AcDbLongTransaction
  3
AutoCAD 2000
 90
    32768
280
     0
281
     0
  0
CLASS
  1
LWPOLYLINE
  2
AcDbPolyline
  3
AutoCAD 2000
 90
    32768
280
     0
281
     1
  0
CLASS
  1
HATCH
  2
AcDbHatch
  3
AutoCAD 2000
 90
    32768
280
     0
281
     1
  0
CLASS
  1
XRECORD
  2
AcDbXrecord
  3
AutoCAD 2000
 90
    32768
280
     0
281
     0
  0
CLASS
  1
LONG_TRANSACTION
  2
AcDbLongTransaction
  3
AutoCAD 2000
 90
    32768
280
     0
281
     0
  0
CLASS
  1
LWPOLYLINE
  2
AcDbPolyline
  3
AutoCAD 2000
 90
    32768
280
     0
281
     1
  0
CLASS
  1
HATCH
  2
AcDbHatch
  3
AutoCAD 2000
 90
    32768
280
     0
281
     1
  0
CLASS
  1
XRECORD
  2
AcDbXrecord
  3
AutoCAD 2000
 90
    32768
280
     0
281
     0
  0
CLASS
  1
LONG_TRANSACTION
  2
AcDbLongTransaction
  3
AutoCAD 2000
 90
    32768
280
     0
281
     0
  0
CLASS
  1
LWPOLYLINE
  2
AcDbPolyline
  3
AutoCAD 2000
 90
    32768
280
     0
281
     1
  0
CLASS
  1
HATCH
  2
AcDbHatch
  3
AutoCAD 2000
 90
    32768
280
     0
281
     1
  0
CLASS
  1
XRECORD
  2
AcDbXrecord
  3
AutoCAD 2000
 90
    32768
280
     0
281
     0
  0
CLASS
  1
LONG_TRANSACTION
  2
AcDbLongTransaction
  3
AutoCAD 2000
 90
    32768
280
     0
281
     0
  0
CLASS
  1
LWPOLYLINE
  2
AcDbPolyline
  3
AutoCAD 2000
 90
    32768
280
     0
281
     1
  0
CLASS
  1
HATCH
  2
AcDbHatch
  3
AutoCAD 2000
 90
    32768
280
     0
281
     1
  0
CLASS
  1
XRECORD
  2
AcDbXrecord
  3
AutoCAD 2000
 90
    32768
280
     0
281
     0
  0
CLASS
  1
DICTIONARYVAR
  2
AcDbDictionaryVar
  3
AutoCAD 2000
 90
        0
280
     0
281
     0
  0
CLASS
  1
LONG_TRANSACTION
  2
AcDbLongTransaction
  3
AutoCAD 2000
 90
    32768
280
     0
281
     0
  0
CLASS
  1
LWPOLYLINE
  2
AcDbPolyline
  3
AutoCAD 2000
 90
    32768
280
     0
281
     1
  0
CLASS
  1
HATCH
  2
AcDbHatch
  3
AutoCAD 2000
 90
    32768
280
     0
281
     1
  0
CLASS
  1
XRECORD
  2
AcDbXrecord
  3
AutoCAD 2000
 90
    32768
280
     0
281
     0
  0
CLASS
  1
LONG_TRANSACTION
  2
AcDbLongTransaction
  3
AutoCAD 2000
 90
    32768
280
     0
281
     0
  0
CLASS
  1
LWPOLYLINE
  2
AcDbPolyline
  3
AutoCAD 2000
 90
    32768
280
     0
281
     1
  0
CLASS
  1
HATCH
  2
AcDbHatch
  3
AutoCAD 2000
 90
    32768
280
     0
281
     1
  0
CLASS
  1
XRECORD
  2
AcDbXrecord
  3
AutoCAD 2000
 90
    32768
280
     0
281
     0
  0
CLASS
  1
LONG_TRANSACTION
  2
AcDbLongTransaction
  3
AutoCAD 2000
 90
    32768
280
     0
281
     0
  0
CLASS
  1
LWPOLYLINE
  2
AcDbPolyline
  3
AutoCAD 2000
 90
    32768
280
     0
281
     1
  0
CLASS
  1
HATCH
  2
AcDbHatch
  3
AutoCAD 2000
 90
    32768
280
     0
281
     1
  0
CLASS
  1
XRECORD
  2
AcDbXrecord
  3
AutoCAD 2000
 90
    32768
280
     0
281
     0
  0
CLASS
  1
LONG_TRANSACTION
  2
AcDbLongTransaction
  3
AutoCAD 2000
 90
    32768
280
     0
281
     0
  0
CLASS
  1
LWPOLYLINE
  2
AcDbPolyline
  3
AutoCAD 2000
 90
    32768
280
     0
281
     1
  0
CLASS
  1
HATCH
  2
AcDbHatch
  3
AutoCAD 2000
 90
    32768
280
     0
281
     1
  0
CLASS
  1
XRECORD
  2
AcDbXrecord
  3
AutoCAD 2000
 90
    32768
280
     0
281
     0
  0
CLASS
  1
LONG_TRANSACTION
  2
AcDbLongTransaction
  3
AutoCAD 2000
 90
    32768
280
     0
281
     0
  0
CLASS
  1
LWPOLYLINE
  2
AcDbPolyline
  3
AutoCAD 2000
 90
    32768
280
     0
281
     1
  0
CLASS
  1
HATCH
  2
AcDbHatch
  3
AutoCAD 2000
 90
    32768
280
     0
281
     1
  0
CLASS
  1
XRECORD
  2
AcDbXrecord
  3
AutoCAD 2000
 90
    32768
280
     0
281
     0
  0
CLASS
  1
LONG_TRANSACTION
  2
AcDbLongTransaction
  3
AutoCAD 2000
 90
    32768
280
     0
281
     0
  0
CLASS
  1
LWPOLYLINE
  2
AcDbPolyline
  3
AutoCAD 2000
 90
    32768
280
     0
281
     1
  0
CLASS
  1
HATCH
  2
AcDbHatch
  3
AutoCAD 2000
 90
    32768
280
     0
281
     1
  0
CLASS
  1
XRECORD
  2
AcDbXrecord
  3
AutoCAD 2000
 90
    32768
280
     0
281
     0
  0
CLASS
  1
LONG_TRANSACTION
  2
AcDbLongTransaction
  3
AutoCAD 2000
 90
    32768
280
     0
281
     0
  0
CLASS
  1
LWPOLYLINE
  2
AcDbPolyline
  3
AutoCAD 2000
 90
    32768
280
     0
281
     1
  0
CLASS
  1
HATCH
  2
AcDbHatch
  3
AutoCAD 2000
 90
    32768
280
     0
281
     1
  0
CLASS
  1
XRECORD
  2
AcDbXrecord
  3
AutoCAD 2000
 90
    32768
280
     0
281
     0
  0
CLASS
  1
LONG_TRANSACTION
  2
AcDbLongTransaction
  3
AutoCAD 2000
 90
    32768
280
     0
281
     0
  0
CLASS
  1
LWPOLYLINE
  2
AcDbPolyline
  3
AutoCAD 2000
 90
    32768
280
     0
281
     1
  0
CLASS
  1
HATCH
  2
AcDbHatch
  3
AutoCAD 2000
 90
    32768
280
     0
281
     1
  0
CLASS
  1
XRECORD
  2
AcDbXrecord
  3
AutoCAD 2000
 90
    32768
280
     0
281
     0
  0
CLASS
  1
LONG_TRANSACTION
  2
AcDbLongTransaction
  3
AutoCAD 2000
 90
    32768
280
     0
281
     0
  0
CLASS
  1
LWPOLYLINE
  2
AcDbPolyline
  3
AutoCAD 2000
 90
    32768
280
     0
281
     1
  0
CLASS
  1
HATCH
  2
AcDbHatch
  3
AutoCAD 2000
 90
    32768
280
     0
281
     1
  0
CLASS
  1
XRECORD
  2
AcDbXrecord
  3
AutoCAD 2000
 90
    32768
280
     0
281
     0
  0
CLASS
  1
LONG_TRANSACTION
  2
AcDbLongTransaction
  3
AutoCAD 2000
 90
    32768
280
     0
281
     0
  0
CLASS
  1
LWPOLYLINE
  2
AcDbPolyline
  3
AutoCAD 2000
 90
    32768
280
     0
281
     1
  0
CLASS
  1
HATCH
  2
AcDbHatch
  3
AutoCAD 2000
 90
    32768
280
     0
281
     1
  0
CLASS
  1
XRECORD
  2
AcDbXrecord
  3
AutoCAD 2000
 90
    32768
280
     0
281
     0
  0
CLASS
  1
LONG_TRANSACTION
  2
AcDbLongTransaction
  3
AutoCAD 2000
 90
    32768
280
     0
281
     0
  0
CLASS
  1
LWPOLYLINE
  2
AcDbPolyline
  3
AutoCAD 2000
 90
    32768
280
     0
281
     1
  0
CLASS
  1
HATCH
  2
AcDbHatch
  3
AutoCAD 2000
 90
    32768
280
     0
281
     1
  0
CLASS
  1
XRECORD
  2
AcDbXrecord
  3
AutoCAD 2000
 90
    32768
280
     0
281
     0
  0
CLASS
  1
LONG_TRANSACTION
  2
AcDbLongTransaction
  3
AutoCAD 2000
 90
    32768
280
     0
281
     0
  0
CLASS
  1
LWPOLYLINE
  2
AcDbPolyline
  3
AutoCAD 2000
 90
    32768
280
     0
281
     1
  0
CLASS
  1
HATCH
  2
AcDbHatch
  3
AutoCAD 2000
 90
    32768
280
     0
281
     1
  0
CLASS
  1
XRECORD
  2
AcDbXrecord
  3
AutoCAD 2000
 90
    32768
280
     0
281
     0
  0
CLASS
  1
LONG_TRANSACTION
  2
AcDbLongTransaction
  3
AutoCAD 2000
 90
    32768
280
     0
281
     0
  0
CLASS
  1
LWPOLYLINE
  2
AcDbPolyline
  3
AutoCAD 2000
 90
    32768
280
     0
281
     1
  0
CLASS
  1
HATCH
  2
AcDbHatch
  3
AutoCAD 2000
 90
    32768
280
     0
281
     1
  0
CLASS
  1
XRECORD
  2
AcDbXrecord
  3
AutoCAD 2000
 90
    32768
280
     0
281
     0
  0
CLASS
  1
LONG_TRANSACTION
  2
AcDbLongTransaction
  3
AutoCAD 2000
 90
    32768
280
     0
281
     0
  0
CLASS
  1
LWPOLYLINE
  2
AcDbPolyline
  3
AutoCAD 2000
 90
    32768
280
     0
281
     1
  0
CLASS
  1
HATCH
  2
AcDbHatch
  3
AutoCAD 2000
 90
    32768
280
     0
281
     1
  0
CLASS
  1
XRECORD
  2
AcDbXrecord
  3
AutoCAD 2000
 90
    32768
280
     0
281
     0
  0
CLASS
  1
LONG_TRANSACTION
  2
AcDbLongTransaction
  3
AutoCAD 2000
 90
    32768
280
     0
281
     0
  0
CLASS
  1
LWPOLYLINE
  2
AcDbPolyline
  3
AutoCAD 2000
 90
    32768
280
     0
281
     1
  0
CLASS
  1
HATCH
  2
AcDbHatch
  3
AutoCAD 2000
 90
    32768
280
     0
281
     1
  0
CLASS
  1
XRECORD
  2
AcDbXrecord
  3
AutoCAD 2000
 90
    32768
280
     0
281
     0
  0
ENDSEC
  0
SECTION
  2
TABLES
  0
TABLE
  2
VPORT
  5
8
330
0
100
AcDbSymbolTable
 70
     2
  0
VPORT
  5
EBA1
330
8
100
AcDbSymbolTableRecord
100
AcDbViewportTableRecord
  2
*Active
 70
     0
 10
0.0
 20
0.0
 11
1.0
 21
1.0
 12
426.4892743403094
 22
297.0
 13
0.0
 23
0.0
 14
5.0
 24
5.0
 15
0.0
 25
0.0
 16
0.0
 26
0.0
 36
1.0
 17
0.0
 27
0.0
 37
0.0
 40
598.540127388535
 41
1.557397959183673
 42
50.0
 43
0.0
 44
0.0
 50
0.0
 51
0.0
 71
     0
 72
   100
 73
     1
 74
     0
 75
     0
 76
     0
 77
     0
 78
     0
281
     0
 65
     1
110
0.0
120
0.0
130
0.0
111
1.0
121
0.0
131
0.0
112
0.0
122
1.0
132
0.0
 79
     0
146
0.0
  0
ENDTAB
  0
TABLE
  2
LTYPE
  5
5
330
0
100
AcDbSymbolTable
 70
     3
  0
LTYPE
  5
14
330
5
100
AcDbSymbolTableRecord
100
AcDbLinetypeTableRecord
  2
BYBLOCK
 70
     0
  3

 72
    65
 73
     0
 40
0.0
  0
LTYPE
  5
15
330
5
100
AcDbSymbolTableRecord
100
AcDbLinetypeTableRecord
  2
BYLAYER
 70
     0
  3

 72
    65
 73
     0
 40
0.0
  0
LTYPE
  5
16
330
5
100
AcDbSymbolTableRecord
100
AcDbLinetypeTableRecord
  2
CONTINUOUS
 70
     0
  3
Solid line
 72
    65
 73
     0
 40
0.0
  0
LTYPE
  5
135
330
5
100
AcDbSymbolTableRecord
100
AcDbLinetypeTableRecord
  2
CENTER
 70
     0
  3
____ _ ____ _ ____ _ ____ _ ____ _ ____ _ ____ 
 72
    65
 73
     4
 40
2.0
 49
1.25
 74
     0
 49
-0.25
 74
     0
 49
0.25
 74
     0
 49
-0.25
 74
     0
  0
LTYPE
  5
1527
330
5
100
AcDbSymbolTableRecord
100
AcDbLinetypeTableRecord
  2
SLDSECTION0
 70
     0
  3

 72
    65
 73
     4
 40
10.16
 49
6.349999999999999
 74
     0
 49
-1.27
 74
     0
 49
1.27
 74
     0
 49
-1.27
 74
     0
  0
ENDTAB
  0
TABLE
  2
LAYER
  5
2
330
0
100
AcDbSymbolTable
 70
     9
  0
LAYER
  5
F
330
2
100
AcDbSymbolTableRecord
100
AcDbLayerTableRecord
  2
0
 70
     0
 62
     7
  6
CONTINUOUS
370
    -3
390
33F
  0
LAYER
  5
62
330
2
100
AcDbSymbolTableRecord
100
AcDbLayerTableRecord
  2
VIEWPORT
 70
     0
 62
     7
  6
CONTINUOUS
370
    -3
390
33F
  0
LAYER
  5
65
330
2
100
AcDbSymbolTableRecord
100
AcDbLayerTableRecord
  2
ZUWAKU
 70
     0
 62
     7
  6
CONTINUOUS
370
    -3
390
33F
  0
LAYER
  5
153
330
2
100
AcDbSymbolTableRecord
100
AcDbLayerTableRecord
  2
SEIHIN
 70
     0
 62
     3
  6
CONTINUOUS
370
    -3
390
33F
  0
LAYER
  5
154
330
2
100
AcDbSymbolTableRecord
100
AcDbLayerTableRecord
  2
SUNPOU
 70
     0
 62
     4
  6
CONTINUOUS
370
    -3
390
33F
  0
LAYER
  5
155
330
2
100
AcDbSymbolTableRecord
100
AcDbLayerTableRecord
  2
CENTER L
 70
     0
 62
     1
  6
CENTER
370
    -3
390
33F
  0
LAYER
  5
24D
330
2
100
AcDbSymbolTableRecord
100
AcDbLayerTableRecord
  2
DEFPOINTS
 70
     0
 62
     7
  6
CONTINUOUS
290
     0
370
    -3
390
33F
  0
LAYER
  5
59A
330
2
100
AcDbSymbolTableRecord
100
AcDbLayerTableRecord
  2
moji
 70
     0
 62
     2
  6
CONTINUOUS
370
    -3
390
33F
  0
LAYER
  5
1528
330
2
100
AcDbSymbolTableRecord
100
AcDbLayerTableRecord
  2
NOKITOI
 70
     0
 62
     9
  6
SLDSECTION0
370
    -3
390
33F
  0
ENDTAB
  0
TABLE
  2
STYLE
  5
3
330
0
100
AcDbSymbolTable
 70
     2
  0
STYLE
  5
10
330
3
100
AcDbSymbolTableRecord
100
AcDbTextStyleTableRecord
  2
STANDARD
 70
     0
 40
0.0
 41
1.0
 50
0.0
 71
     0
 42
5.0
  3
TXT
  4
bigfont.shx
  0
STYLE
  5
59B
330
3
100
AcDbSymbolTableRecord
100
AcDbTextStyleTableRecord
  2
ｽﾀｲﾙ1
 70
     0
 40
0.0
 41
1.0
 50
0.0
 71
     0
 42
2.5
  3
MS PGothic.ttf
  4

1001
ACAD
1000
MS PGothic
1071
    32818
  0
ENDTAB
  0
TABLE
  2
VIEW
  5
6
330
0
100
AcDbSymbolTable
 70
     0
  0
ENDTAB
  0
TABLE
  2
UCS
  5
7
330
0
100
AcDbSymbolTable
 70
     0
  0
ENDTAB
  0
TABLE
  2
APPID
  5
9
330
0
100
AcDbSymbolTable
 70
     1
  0
APPID
  5
11
330
9
100
AcDbSymbolTableRecord
100
AcDbRegAppTableRecord
  2
ACAD
 70
     0
  0
ENDTAB
  0
TABLE
  2
DIMSTYLE
  5
A
330
0
100
AcDbSymbolTable
 70
     1
100
AcDbDimStyleTable
 71
     0
  0
DIMSTYLE
105
1D
102
{ACAD_REACTORS
330
E139
330
E13F
330
E141
330
E14B
330
E150
330
E167
330
E16A
330
E189
330
E1BE
330
E1D7
330
E240
330
E24D
330
E24E
330
E2D1
330
E140
102
}
330
A
100
AcDbSymbolTableRecord
100
AcDbDimStyleTableRecord
  2
STANDARD
 70
     0
340
10
  0
ENDTAB
  0
TABLE
  2
BLOCK_RECORD
  5
1
330
0
100
AcDbSymbolTable
 70
    17
  0
BLOCK_RECORD
  5
1A
102
{ACAD_XDICTIONARY
360
385
102
}
330
1
100
AcDbSymbolTableRecord
100
AcDbBlockTableRecord
  2
*MODEL_SPACE
340
342
  0
BLOCK_RECORD
  5
17
102
{ACAD_XDICTIONARY
360
383
102
}
330
1
100
AcDbSymbolTableRecord
100
AcDbBlockTableRecord
  2
*PAPER_SPACE
340
343
  0
BLOCK_RECORD
  5
6D
330
1
100
AcDbSymbolTableRecord
100
AcDbBlockTableRecord
  2
_OPEN
340
0
102
{BLKREFS
331
E6BC
331
E6BD
331
E686
331
E687
331
EB97
331
EB98
331
E6B3
331
E6B4
331
E68F
331
E690
331
E67D
331
E67E
331
E698
331
E699
331
E6AA
331
E6AB
331
E6A1
331
E6A2
331
E6CE
331
E6CF
331
E6C5
331
E6C6
331
E6D7
331
E6D8
331
E659
331
E65A
331
E662
331
E663
331
E66B
331
E66C
102
}
  0
BLOCK_RECORD
  5
3A4
330
1
100
AcDbSymbolTableRecord
100
AcDbBlockTableRecord
  2
*X1
340
0
102
{BLKREFS
331
6D8
102
}
  0
BLOCK_RECORD
  5
E2DA
330
1
100
AcDbSymbolTableRecord
100
AcDbBlockTableRecord
  2
*D2
340
0
  0
BLOCK_RECORD
  5
E2E6
330
1
100
AcDbSymbolTableRecord
100
AcDbBlockTableRecord
  2
*D3
340
0
  0
BLOCK_RECORD
  5
E2F2
330
1
100
AcDbSymbolTableRecord
100
AcDbBlockTableRecord
  2
*D4
340
0
  0
BLOCK_RECORD
  5
E2FE
330
1
100
AcDbSymbolTableRecord
100
AcDbBlockTableRecord
  2
*D5
340
0
  0
BLOCK_RECORD
  5
E30A
330
1
100
AcDbSymbolTableRecord
100
AcDbBlockTableRecord
  2
*D6
340
0
  0
BLOCK_RECORD
  5
E316
330
1
100
AcDbSymbolTableRecord
100
AcDbBlockTableRecord
  2
*D7
340
0
  0
BLOCK_RECORD
  5
E322
330
1
100
AcDbSymbolTableRecord
100
AcDbBlockTableRecord
  2
*D8
340
0
  0
BLOCK_RECORD
  5
E32E
330
1
100
AcDbSymbolTableRecord
100
AcDbBlockTableRecord
  2
*D9
340
0
  0
BLOCK_RECORD
  5
E33A
330
1
100
AcDbSymbolTableRecord
100
AcDbBlockTableRecord
  2
*D10
340
0
  0
BLOCK_RECORD
  5
E346
330
1
100
AcDbSymbolTableRecord
100
AcDbBlockTableRecord
  2
*D11
340
0
  0
BLOCK_RECORD
  5
E352
330
1
100
AcDbSymbolTableRecord
100
AcDbBlockTableRecord
  2
*D12
340
0
  0
BLOCK_RECORD
  5
E35E
330
1
100
AcDbSymbolTableRecord
100
AcDbBlockTableRecord
  2
*D13
340
0
  0
BLOCK_RECORD
  5
E36A
330
1
100
AcDbSymbolTableRecord
100
AcDbBlockTableRecord
  2
*D14
340
0
  0
BLOCK_RECORD
  5
E376
330
1
100
AcDbSymbolTableRecord
100
AcDbBlockTableRecord
  2
*D15
340
0
  0
BLOCK_RECORD
  5
E382
330
1
100
AcDbSymbolTableRecord
100
AcDbBlockTableRecord
  2
*D16
340
0
  0
ENDTAB
  0
ENDSEC
  0
SECTION
  2
BLOCKS
  0
BLOCK
  5
1B
330
1A
100
AcDbEntity
  8
0
100
AcDbBlockBegin
  2
*MODEL_SPACE
 70
     0
 10
0.0
 20
0.0
 30
0.0
  3
*MODEL_SPACE
  1

  0
ENDBLK
  5
1C
330
1A
100
AcDbEntity
  8
0
100
AcDbBlockEnd
  0
BLOCK
  5
18
330
17
100
AcDbEntity
 67
     1
  8
0
100
AcDbBlockBegin
  2
*PAPER_SPACE
 70
     0
 10
0.0
 20
0.0
 30
0.0
  3
*PAPER_SPACE
  1

  0
ENDBLK
  5
19
330
17
100
AcDbEntity
 67
     1
  8
0
100
AcDbBlockEnd
  0
BLOCK
  5
6E
330
6D
100
AcDbEntity
  8
0
100
AcDbBlockBegin
  2
_OPEN
 70
     0
 10
0.0
 20
0.0
 30
0.0
  3
_OPEN
  1

  0
LINE
  5
6F
330
6D
100
AcDbEntity
  8
0
  6
ByBlock
 62
     0
100
AcDbLine
 10
-1.0
 20
0.1666666666666666
 30
0.0
 11
0.0
 21
0.0
 31
0.0
  0
LINE
  5
70
330
6D
100
AcDbEntity
  8
0
  6
ByBlock
 62
     0
100
AcDbLine
 10
0.0
 20
0.0
 30
0.0
 11
-1.0
 21
-0.1666666666666666
 31
0.0
  0
LINE
  5
71
330
6D
100
AcDbEntity
  8
0
  6
ByBlock
 62
     0
100
AcDbLine
 10
0.0
 20
0.0
 30
0.0
 11
-1.0
 21
0.0
 31
0.0
  0
ENDBLK
  5
72
330
6D
100
AcDbEntity
  8
0
100
AcDbBlockEnd
  0
BLOCK
  5
538
330
3A4
100
AcDbEntity
  8
0
100
AcDbBlockBegin
  2
*X1
 70
     1
 10
0.0
 20
0.0
 30
0.0
  3
*X1
  1

  0
LINE
  5
3A5
330
3A4
100
AcDbEntity
  8
0
 62
     0
100
AcDbLine
 10
66.75047808566091
 20
28.71175535310772
 30
0.0
 11
66.10464715594599
 21
29.35758628282269
 31
0.0
  0
LINE
  5
3A6
330
3A4
100
AcDbEntity
  8
0
 62
     0
100
AcDbLine
 10
66.75047808566091
 20
27.81372974100082
 30
0.0
 11
65.20662154383905
 21
29.35758628282269
 31
0.0
  0
LINE
  5
3A7
330
3A4
100
AcDbEntity
  8
0
 62
     0
100
AcDbLine
 10
66.75047808566086
 20
26.91570412889388
 30
0.0
 11
64.32934413964591
 21
29.33683807490882
 31
0.0
  0
LINE
  5
3A8
330
3A4
100
AcDbEntity
  8
0
 62
     0
100
AcDbLine
 10
66.75047808566091
 20
26.01767851678704
 30
0.0
 11
63.95047808566085
 21
28.81767851678705
 31
0.0
  0
LINE
  5
3A9
330
3A4
100
AcDbEntity
  8
0
 62
     0
100
AcDbLine
 10
66.75047808566091
 20
25.11965290468009
 30
0.0
 11
63.95047808566085
 21
27.91965290468016
 31
0.0
  0
LINE
  5
3AA
330
3A4
100
AcDbEntity
  8
0
 62
     0
100
AcDbLine
 10
66.75047808566086
 20
24.22162729257314
 30
0.0
 11
63.95047808566079
 21
27.02162729257321
 31
0.0
  0
LINE
  5
3AB
330
3A4
100
AcDbEntity
  8
0
 62
     0
100
AcDbLine
 10
61.85047808566082
 20
28.22360168046634
 30
0.0
 11
60.71649348330453
 21
29.35758628282269
 31
0.0
  0
LINE
  5
3AC
330
3A4
100
AcDbEntity
  8
0
 62
     0
100
AcDbLine
 10
66.75047808566091
 20
23.32360168046631
 30
0.0
 11
63.95047808566085
 21
26.12360168046638
 31
0.0
  0
LINE
  5
3AD
330
3A4
100
AcDbEntity
  8
0
 62
     0
100
AcDbLine
 10
61.85047808566082
 20
27.32557606835945
 30
0.0
 11
59.81846787119758
 21
29.35758628282263
 31
0.0
  0
LINE
  5
3AE
330
3A4
100
AcDbEntity
  8
0
 62
     0
100
AcDbLine
 10
66.75047808566086
 20
22.42557606835936
 30
0.0
 11
63.95047808566085
 21
25.22557606835943
 31
0.0
  0
LINE
  5
3AF
330
3A4
100
AcDbEntity
  8
0
 62
     0
100
AcDbLine
 10
61.85047808566082
 20
26.4275504562525
 30
0.0
 11
59.14496712052375
 21
29.13306142138958
 31
0.0
  0
LINE
  5
3B0
330
3A4
100
AcDbEntity
  8
0
 62
     0
100
AcDbLine
 10
66.75047808566086
 20
21.52755045625247
 30
0.0
 11
63.95047808566079
 21
24.32755045625248
 31
0.0
  0
LINE
  5
3B1
330
3A4
100
AcDbEntity
  8
0
 62
     0
100
AcDbLine
 10
61.85047808566094
 20
25.5295248441455
 30
0.0
 11
59.05047808566076
 21
28.32952484414562
 31
0.0
  0
LINE
  5
3B2
330
3A4
100
AcDbEntity
  8
0
 62
     0
100
AcDbLine
 10
66.75047808566091
 20
20.62952484414552
 30
0.0
 11
63.95047808566085
 21
23.42952484414559
 31
0.0
  0
LINE
  5
3B3
330
3A4
100
AcDbEntity
  8
0
 62
     0
100
AcDbLine
 10
61.85047808566088
 20
24.6314992320386
 30
0.0
 11
59.05047808566076
 21
27.43149923203878
 31
0.0
  0
LINE
  5
3B4
330
3A4
100
AcDbEntity
  8
0
 62
     0
100
AcDbLine
 10
66.75047808566086
 20
19.73149923203862
 30
0.0
 11
63.95047808566079
 21
22.53149923203869
 31
0.0
  0
LINE
  5
3B5
330
3A4
100
AcDbEntity
  8
0
 62
     0
100
AcDbLine
 10
61.85047808566088
 20
23.73347361993171
 30
0.0
 11
59.05047808566076
 21
26.53347361993183
 31
0.0
  0
LINE
  5
3B6
330
3A4
100
AcDbEntity
  8
0
 62
     0
100
AcDbLine
 10
66.75047808566086
 20
18.83347361993173
 30
0.0
 11
63.95047808566079
 21
21.6334736199318
 31
0.0
  0
LINE
  5
3B7
330
3A4
100
AcDbEntity
  8
0
 62
     0
100
AcDbLine
 10
61.85047808566082
 20
22.83544800782476
 30
0.0
 11
59.0504780856607
 21
25.63544800782489
 31
0.0
  0
LINE
  5
3B8
330
3A4
100
AcDbEntity
  8
0
 62
     0
100
AcDbLine
 10
66.7504780856608
 20
17.93544800782479
 30
0.0
 11
63.95047808566079
 21
20.73544800782485
 31
0.0
  0
LINE
  5
3B9
330
3A4
100
AcDbEntity
  8
0
 62
     0
100
AcDbLine
 10
61.85047808566088
 20
21.93742239571793
 30
0.0
 11
59.05047808566076
 21
24.73742239571805
 31
0.0
  0
LINE
  5
3BA
330
3A4
100
AcDbEntity
  8
0
 62
     0
100
AcDbLine
 10
55.55047808566081
 20
28.23742239571799
 30
0.0
 11
54.43031419855618
 21
29.35758628282263
 31
0.0
  0
LINE
  5
3BB
330
3A4
100
AcDbEntity
  8
0
 62
     0
100
AcDbLine
 10
66.75047808566086
 20
17.03742239571795
 30
0.0
 11
63.95047808566079
 21
19.83742239571796
 31
0.0
  0
LINE
  5
3BC
330
3A4
100
AcDbEntity
  8
0
 62
     0
100
AcDbLine
 10
61.85047808566088
 20
21.03939678361098
 30
0.0
 11
59.0504780856607
 21
23.8393967836111
 31
0.0
  0
LINE
  5
3BD
330
3A4
100
AcDbEntity
  8
0
 62
     0
100
AcDbLine
 10
55.55047808566076
 20
27.33939678361105
 30
0.0
 11
53.53228858644922
 21
29.35758628282263
 31
0.0
  0
LINE
  5
3BE
330
3A4
100
AcDbEntity
  8
0
 62
     0
100
AcDbLine
 10
66.75047808566086
 20
16.139396783611
 30
0.0
 11
63.95047808566079
 21
18.93939678361107
 31
0.0
  0
LINE
  5
3BF
330
3A4
100
AcDbEntity
  8
0
 62
     0
100
AcDbLine
 10
61.85047808566082
 20
20.14137117150409
 30
0.0
 11
59.05047808566076
 21
22.9413711715041
 31
0.0
  0
LINE
  5
3C0
330
3A4
100
AcDbEntity
  8
0
 62
     0
100
AcDbLine
 10
55.55047808566076
 20
26.44137117150416
 30
0.0
 11
52.85071536233676
 21
29.14113389482816
 31
0.0
  0
LINE
  5
3C1
330
3A4
100
AcDbEntity
  8
0
 62
     0
100
AcDbLine
 10
66.7504780856608
 20
15.24137117150411
 30
0.0
 11
63.95047808566073
 21
18.04137117150412
 31
0.0
  0
LINE
  5
3C2
330
3A4
100
AcDbEntity
  8
0
 62
     0
100
AcDbLine
 10
61.85047808566088
 20
19.24334555939714
 30
0.0
 11
59.05047808566081
 21
22.04334555939721
 31
0.0
  0
LINE
  5
3C3
330
3A4
100
AcDbEntity
  8
0
 62
     0
100
AcDbLine
 10
55.55047808566081
 20
25.54334555939721
 30
0.0
 11
52.7504780856608
 21
28.34334555939722
 31
0.0
  0
LINE
  5
3C4
330
3A4
100
AcDbEntity
  8
0
 62
     0
100
AcDbLine
 10
66.75047808566086
 20
14.34334555939716
 30
0.0
 11
63.95047808566079
 21
17.14334555939723
 31
0.0
  0
LINE
  5
3C5
330
3A4
100
AcDbEntity
  8
0
 62
     0
100
AcDbLine
 10
61.85047808566082
 20
18.34531994729024
 30
0.0
 11
59.05047808566081
 21
21.14531994729031
 31
0.0
  0
LINE
  5
3C6
330
3A4
100
AcDbEntity
  8
0
 62
     0
100
AcDbLine
 10
55.55047808566087
 20
24.64531994729026
 30
0.0
 11
52.7504780856608
 21
27.44531994729033
 31
0.0
  0
LINE
  5
3C7
330
3A4
100
AcDbEntity
  8
0
 62
     0
100
AcDbLine
 10
66.67851273077104
 20
13.51728530218008
 30
0.0
 11
63.95047808566079
 21
16.24531994729034
 31
0.0
  0
LINE
  5
3C8
330
3A4
100
AcDbEntity
  8
0
 62
     0
100
AcDbLine
 10
61.85047808566088
 20
17.44729433518324
 30
0.0
 11
59.05047808566076
 21
20.24729433518337
 31
0.0
  0
LINE
  5
3C9
330
3A4
100
AcDbEntity
  8
0
 62
     0
100
AcDbLine
 10
55.55047808566081
 20
23.74729433518337
 30
0.0
 11
52.75047808566075
 21
26.54729433518338
 31
0.0
  0
LINE
  5
3CA
330
3A4
100
AcDbEntity
  8
0
 62
     0
100
AcDbLine
 10
66.04018613802157
 20
13.25758628282261
 30
0.0
 11
63.95047808566073
 21
15.34729433518345
 31
0.0
  0
LINE
  5
3CB
330
3A4
100
AcDbEntity
  8
0
 62
     0
100
AcDbLine
 10
55.55047808566081
 20
22.84926872307642
 30
0.0
 11
52.75047808566075
 21
25.64926872307649
 31
0.0
  0
LINE
  5
3CC
330
3A4
100
AcDbEntity
  8
0
 62
     0
100
AcDbLine
 10
61.85047808566088
 20
16.54926872307635
 30
0.0
 11
59.05047808566076
 21
19.34926872307647
 31
0.0
  0
LINE
  5
3CD
330
3A4
100
AcDbEntity
  8
0
 62
     0
100
AcDbLine
 10
50.1254780856608
 20
28.27426872307643
 30
0.0
 11
49.04216052591465
 21
29.35758628282252
 31
0.0
  0
LINE
  5
3CE
330
3A4
100
AcDbEntity
  8
0
 62
     0
100
AcDbLine
 10
65.14216052591468
 20
13.2575862828225
 30
0.0
 11
63.95047808566073
 21
14.4492687230765
 31
0.0
  0
LINE
  5
3CF
330
3A4
100
AcDbEntity
  8
0
 62
     0
100
AcDbLine
 10
55.55047808566081
 20
21.95124311096952
 30
0.0
 11
52.75047808566085
 21
24.75124311096954
 31
0.0
  0
LINE
  5
3D0
330
3A4
100
AcDbEntity
  8
0
 62
     0
100
AcDbLine
 10
50.1254780856608
 20
27.37624311096954
 30
0.0
 11
48.14413491380782
 21
29.35758628282258
 31
0.0
  0
LINE
  5
3D1
330
3A4
100
AcDbEntity
  8
0
 62
     0
100
AcDbLine
 10
61.82451978501529
 20
15.6772014116151
 30
0.0
 11
59.05047808566076
 21
18.45124311096958
 31
0.0
  0
LINE
  5
3D2
330
3A4
100
AcDbEntity
  8
0
 62
     0
100
AcDbLine
 10
55.55047808566081
 20
21.05321749886263
 30
0.0
 11
52.75047808566085
 21
23.85321749886259
 31
0.0
  0
LINE
  5
3D3
330
3A4
100
AcDbEntity
  8
0
 62
     0
100
AcDbLine
 10
49.92989753954697
 20
26.67379804497647
 30
0.0
 11
47.24610930170081
 21
29.35758628282263
 31
0.0
  0
LINE
  5
3D4
330
3A4
100
AcDbEntity
  8
0
 62
     0
100
AcDbLine
 10
61.63153448975805
 20
14.97216109476534
 30
0.0
 11
59.05047808566076
 21
17.55321749886269
 31
0.0
  0
LINE
  5
3D5
330
3A4
100
AcDbEntity
  8
0
 62
     0
100
AcDbLine
 10
55.55047808566081
 20
20.15519188675568
 30
0.0
 11
52.7504780856608
 21
22.95519188675569
 31
0.0
  0
LINE
  5
3D6
330
3A4
100
AcDbEntity
  8
0
 62
     0
100
AcDbLine
 10
49.14808368959382
 20
26.55758628282262
 30
0.0
 11
46.34808368959392
 21
29.35758628282252
 31
0.0
  0
LINE
  5
3D7
330
3A4
100
AcDbEntity
  8
0
 62
     0
100
AcDbLine
 10
61.30650261383448
 20
14.39916735858196
 30
0.0
 11
58.97896234650125
 21
16.72670762591525
 31
0.0
  0
LINE
  5
3D8
330
3A4
100
AcDbEntity
  8
0
 62
     0
100
AcDbLine
 10
55.55047808566081
 20
19.25716627464885
 30
0.0
 11
52.75047808566085
 21
22.0571662746488
 31
0.0
  0
LINE
  5
3D9
330
3A4
100
AcDbEntity
  8
0
 62
     0
100
AcDbLine
 10
48.25005807748704
 20
26.55758628282256
 30
0.0
 11
45.5124913483096
 21
29.29515301200007
 31
0.0
  0
LINE
  5
3DA
330
3A4
100
AcDbEntity
  8
0
 62
     0
100
AcDbLine
 10
60.87446081650944
 20
13.93318354380016
 30
0.0
 11
58.57737670803373
 21
16.23026765227587
 31
0.0
  0
LINE
  5
3DB
330
3A4
100
AcDbEntity
  8
0
 62
     0
100
AcDbLine
 10
55.55047808566081
 20
18.3591406625419
 30
0.0
 11
52.7504780856608
 21
21.15914066254185
 31
0.0
  0
LINE
  5
3DC
330
3A4
100
AcDbEntity
  8
0
 62
     0
100
AcDbLine
 10
47.35203246538015
 20
26.55758628282256
 30
0.0
 11
44.8478509237762
 21
29.06176782442645
 31
0.0
  0
LINE
  5
3DD
330
3A4
100
AcDbEntity
  8
0
 62
     0
100
AcDbLine
 10
60.33829847158341
 20
13.5713202766193
 30
0.0
 11
57.85203246538014
 21
16.05758628282257
 31
0.0
  0
LINE
  5
3DE
330
3A4
100
AcDbEntity
  8
0
 62
     0
100
AcDbLine
 10
55.55047808566076
 20
17.46111505043495
 30
0.0
 11
52.7504780856608
 21
20.26111505043496
 31
0.0
  0
LINE
  5
3DF
330
3A4
100
AcDbEntity
  8
0
 62
     0
100
AcDbLine
 10
46.47579668129123
 20
26.53579645480448
 30
0.0
 11
44.30524998656602
 21
28.70634314952969
 31
0.0
  0
LINE
  5
3E0
330
3A4
100
AcDbEntity
  8
0
 62
     0
100
AcDbLine
 10
59.68188591167211
 20
13.32970722442365
 30
0.0
 11
56.95400685327314
 21
16.05758628282262
 31
0.0
  0
LINE
  5
3E1
330
3A4
100
AcDbEntity
  8
0
 62
     0
100
AcDbLine
 10
46.10047808566088
 20
26.01308943832788
 30
0.0
 11
43.86713792752146
 21
28.24642959646729
 31
0.0
  0
LINE
  5
3E2
330
3A4
100
AcDbEntity
  8
0
 62
     0
100
AcDbLine
 10
58.85598124116626
 20
13.25758628282255
 30
0.0
 11
52.7504780856608
 21
19.36308943832801
 31
0.0
  0
LINE
  5
3E3
330
3A4
100
AcDbEntity
  8
0
 62
     0
100
AcDbLine
 10
46.10047808566088
 20
25.1150638262211
 30
0.0
 11
43.53536701516844
 21
27.68017489671354
 31
0.0
  0
LINE
  5
3E4
330
3A4
100
AcDbEntity
  8
0
 62
     0
100
AcDbLine
 10
57.95795562905937
 20
13.25758628282255
 30
0.0
 11
52.7504780856608
 21
18.46506382622118
 31
0.0
  0
LINE
  5
3E5
330
3A4
100
AcDbEntity
  8
0
 62
     0
100
AcDbLine
 10
46.30702236676467
 20
24.01049393301036
 30
0.0
 11
43.33318849580433
 21
26.98432780397064
 31
0.0
  0
LINE
  5
3E6
330
3A4
100
AcDbEntity
  8
0
 62
     0
100
AcDbLine
 10
57.05993001695247
 20
13.25758628282255
 30
0.0
 11
52.7504780856608
 21
17.56703821411423
 31
0.0
  0
LINE
  5
3E7
330
3A4
100
AcDbEntity
  8
0
 62
     0
100
AcDbLine
 10
50.52408178835225
 20
18.89540889931583
 30
0.0
 11
43.30047808566075
 21
26.11901260200733
 31
0.0
  0
LINE
  5
3E8
330
3A4
100
AcDbEntity
  8
0
 62
     0
100
AcDbLine
 10
41.20047808566073
 20
28.21901260200729
 30
0.0
 11
40.06190440484544
 21
29.35758628282263
 31
0.0
  0
LINE
  5
3E9
330
3A4
100
AcDbEntity
  8
0
 62
     0
100
AcDbLine
 10
56.16190440484553
 20
13.25758628282255
 30
0.0
 11
52.75047808566075
 21
16.66901260200728
 31
0.0
  0
LINE
  5
3EA
330
3A4
100
AcDbEntity
  8
0
 62
     0
100
AcDbLine
 10
50.65047808566089
 20
17.87098698990035
 30
0.0
 11
43.30047808566081
 21
25.22098698990044
 31
0.0
  0
LINE
  5
3EB
330
3A4
100
AcDbEntity
  8
0
 62
     0
100
AcDbLine
 10
41.20047808566084
 20
27.32098698990034
 30
0.0
 11
39.16387879273855
 21
29.35758628282269
 31
0.0
  0
LINE
  5
3EC
330
3A4
100
AcDbEntity
  8
0
 62
     0
100
AcDbLine
 10
55.24743091399376
 20
13.2740341615675
 30
0.0
 11
52.76692596440574
 21
15.7545391111555
 31
0.0
  0
LINE
  5
3ED
330
3A4
100
AcDbEntity
  8
0
 62
     0
100
AcDbLine
 10
41.20047808566084
 20
26.42296137779345
 30
0.0
 11
38.49308819788552
 21
29.13035126556872
 31
0.0
  0
LINE
  5
3EE
330
3A4
100
AcDbEntity
  8
0
 62
     0
100
AcDbLine
 10
50.65047808566084
 20
16.97296137779341
 30
0.0
 11
43.3238887535432
 21
24.2995507099111
 31
0.0
  0
LINE
  5
3EF
330
3A4
100
AcDbEntity
  8
0
 62
     0
100
AcDbLine
 10
41.20047808566084
 20
25.5249357656865
 30
0.0
 11
38.40047808566078
 21
28.32493576568657
 31
0.0
  0
LINE
  5
3F0
330
3A4
100
AcDbEntity
  8
0
 62
     0
100
AcDbLine
 10
50.65047808566072
 20
16.07493576568657
 30
0.0
 11
43.64200817138322
 21
23.08340567996413
 31
0.0
  0
LINE
  5
3F1
330
3A4
100
AcDbEntity
  8
0
 62
     0
100
AcDbLine
 10
41.20047808566084
 20
24.62691015357961
 30
0.0
 11
38.40047808566078
 21
27.42691015357962
 31
0.0
  0
LINE
  5
3F2
330
3A4
100
AcDbEntity
  8
0
 62
     0
100
AcDbLine
 10
50.54191626807176
 20
15.2854719711687
 30
0.0
 11
47.84628147903345
 21
17.98110676020701
 31
0.0
  0
LINE
  5
3F3
330
3A4
100
AcDbEntity
  8
0
 62
     0
100
AcDbLine
 10
41.20047808566084
 20
23.72888454147272
 30
0.0
 11
38.40047808566078
 21
26.52888454147279
 31
0.0
  0
LINE
  5
3F4
330
3A4
100
AcDbEntity
  8
0
 62
     0
100
AcDbLine
 10
36.10899118508382
 20
28.82037144204969
 30
0.0
 11
35.57177634431093
 21
29.35758628282263
 31
0.0
  0
LINE
  5
3F5
330
3A4
100
AcDbEntity
  8
0
 62
     0
100
AcDbLine
 10
50.2740405603102
 20
14.65532206682337
 30
0.0
 11
47.85047808566088
 21
17.07888454147268
 31
0.0
  0
LINE
  5
3F6
330
3A4
100
AcDbEntity
  8
0
 62
     0
100
AcDbLine
 10
41.20047808566079
 20
22.83085892936577
 30
0.0
 11
38.40047808566078
 21
25.63085892936584
 31
0.0
  0
LINE
  5
3F7
330
3A4
100
AcDbEntity
  8
0
 62
     0
100
AcDbLine
 10
35.91006352083121
 20
28.12127349419535
 30
0.0
 11
34.67375073220398
 21
29.35758628282263
 31
0.0
  0
LINE
  5
3F8
330
3A4
100
AcDbEntity
  8
0
 62
     0
100
AcDbLine
 10
49.8910537621349
 20
14.14028325289172
 30
0.0
 11
47.75319290277439
 21
16.27814411225222
 31
0.0
  0
LINE
  5
3F9
330
3A4
100
AcDbEntity
  8
0
 62
     0
100
AcDbLine
 10
41.20047808566079
 20
21.93283331725888
 30
0.0
 11
38.40047808566072
 21
24.73283331725889
 31
0.0
  0
LINE
  5
3FA
330
3A4
100
AcDbEntity
  8
0
 62
     0
100
AcDbLine
 10
35.69453737392553
 20
27.43877402899409
 30
0.0
 11
33.78532181045494
 21
29.34798959246473
 31
0.0
  0
LINE
  5
3FB
330
3A4
100
AcDbEntity
  8
0
 62
     0
100
AcDbLine
 10
49.40473479701927
 20
13.72857660590034
 30
0.0
 11
47.07572512009704
 21
16.05758628282262
 31
0.0
  0
LINE
  5
3FC
330
3A4
100
AcDbEntity
  8
0
 62
     0
100
AcDbLine
 10
41.20047808566084
 20
21.03480770515198
 30
0.0
 11
38.40047808566078
 21
23.83480770515205
 31
0.0
  0
LINE
  5
3FD
330
3A4
100
AcDbEntity
  8
0
 62
     0
100
AcDbLine
 10
35.47901122702
 20
26.75627456379283
 30
0.0
 11
33.35101122701996
 21
28.88427456379287
 31
0.0
  0
LINE
  5
3FE
330
3A4
100
AcDbEntity
  8
0
 62
     0
100
AcDbLine
 10
48.8086508485589
 20
13.42663494225388
 30
0.0
 11
46.17769950799015
 21
16.05758628282268
 31
0.0
  0
LINE
  5
3FF
330
3A4
100
AcDbEntity
  8
0
 62
     0
100
AcDbLine
 10
41.20047808566079
 20
20.13678209304509
 30
0.0
 11
38.40047808566072
 21
22.9367820930451
 31
0.0
  0
LINE
  5
400
330
3A4
100
AcDbEntity
  8
0
 62
     0
100
AcDbLine
 10
35.26348508011415
 20
26.07377509859174
 30
0.0
 11
33.13548508011416
 21
28.20177509859172
 31
0.0
  0
LINE
  5
401
330
3A4
100
AcDbEntity
  8
0
 62
     0
100
AcDbLine
 10
48.07097819691143
 20
13.26628198179446
 30
0.0
 11
45.27967389588326
 21
16.05758628282262
 31
0.0
  0
LINE
  5
402
330
3A4
100
AcDbEntity
  8
0
 62
     0
100
AcDbLine
 10
41.20047808566079
 20
19.23875648093815
 30
0.0
 11
38.40047808566078
 21
22.0387564809381
 31
0.0
  0
LINE
  5
403
330
3A4
100
AcDbEntity
  8
0
 62
     0
100
AcDbLine
 10
35.04795893320857
 20
25.39127563339036
 30
0.0
 11
32.91995893320847
 21
27.5192756333904
 31
0.0
  0
LINE
  5
404
330
3A4
100
AcDbEntity
  8
0
 62
     0
100
AcDbLine
 10
47.18164828377638
 20
13.25758628282255
 30
0.0
 11
44.38164828377631
 21
16.05758628282262
 31
0.0
  0
LINE
  5
405
330
3A4
100
AcDbEntity
  8
0
 62
     0
100
AcDbLine
 10
41.20047808566079
 20
18.34073086883125
 30
0.0
 11
38.40047808566083
 21
21.14073086883127
 31
0.0
  0
LINE
  5
406
330
3A4
100
AcDbEntity
  8
0
 62
     0
100
AcDbLine
 10
34.83243278630294
 20
24.70877616818916
 30
0.0
 11
32.70443278630284
 21
26.8367761681892
 31
0.0
  0
LINE
  5
407
330
3A4
100
AcDbEntity
  8
0
 62
     0
100
AcDbLine
 10
46.28362267166949
 20
13.25758628282261
 30
0.0
 11
43.8500109743731
 21
15.691197980119
 31
0.0
  0
LINE
  5
408
330
3A4
100
AcDbEntity
  8
0
 62
     0
100
AcDbLine
 10
34.61690663939731
 20
24.02627670298778
 30
0.0
 11
32.48890663939721
 21
26.15427670298794
 31
0.0
  0
LINE
  5
409
330
3A4
100
AcDbEntity
  8
0
 62
     0
100
AcDbLine
 10
41.20047808566079
 20
17.44270525672436
 30
0.0
 11
38.40047808566083
 21
20.24270525672432
 31
0.0
  0
LINE
  5
40A
330
3A4
100
AcDbEntity
  8
0
 62
     0
100
AcDbLine
 10
30.35047808566082
 20
28.29270525672433
 30
0.0
 11
29.28559705956251
 21
29.35758628282258
 31
0.0
  0
LINE
  5
40B
330
3A4
100
AcDbEntity
  8
0
 62
     0
100
AcDbLine
 10
45.38559705956259
 20
13.25758628282255
 30
0.0
 11
43.82547808566084
 21
14.8177052567243
 31
0.0
  0
LINE
  5
40C
330
3A4
100
AcDbEntity
  8
0
 62
     0
100
AcDbLine
 10
34.40138049249151
 20
23.34377723778669
 30
0.0
 11
32.27338049249158
 21
25.47177723778662
 31
0.0
  0
LINE
  5
40D
330
3A4
100
AcDbEntity
  8
0
 62
     0
100
AcDbLine
 10
41.20047808566079
 20
16.54467964461741
 30
0.0
 11
38.40047808566078
 21
19.34467964461743
 31
0.0
  0
LINE
  5
40E
330
3A4
100
AcDbEntity
  8
0
 62
     0
100
AcDbLine
 10
30.35047808566082
 20
27.39467964461738
 30
0.0
 11
28.38757144745562
 21
29.35758628282258
 31
0.0
  0
LINE
  5
40F
330
3A4
100
AcDbEntity
  8
0
 62
     0
100
AcDbLine
 10
44.48757144745559
 20
13.25758628282261
 30
0.0
 11
43.82547808566079
 21
13.91967964461736
 31
0.0
  0
LINE
  5
410
330
3A4
100
AcDbEntity
  8
0
 62
     0
100
AcDbLine
 10
34.18585434558588
 20
22.66127777258537
 30
0.0
 11
32.05785434558583
 21
24.78927777258542
 31
0.0
  0
LINE
  5
411
330
3A4
100
AcDbEntity
  8
0
 62
     0
100
AcDbLine
 10
30.35047808566076
 20
26.49665403251043
 30
0.0
 11
27.67503315676316
 21
29.17209896140809
 31
0.0
  0
LINE
  5
412
330
3A4
100
AcDbEntity
  8
0
 62
     0
100
AcDbLine
 10
41.20047808566073
 20
15.64665403251052
 30
0.0
 11
38.40047808566078
 21
18.44665403251048
 31
0.0
  0
LINE
  5
413
330
3A4
100
AcDbEntity
  8
0
 62
     0
100
AcDbLine
 10
33.97032819868025
 20
21.97877830738417
 30
0.0
 11
31.84232819868026
 21
24.10677830738416
 31
0.0
  0
LINE
  5
414
330
3A4
100
AcDbEntity
  8
0
 62
     0
100
AcDbLine
 10
30.35047808566082
 20
25.59862842040359
 30
0.0
 11
27.55047808566075
 21
28.39862842040361
 31
0.0
  0
LINE
  5
415
330
3A4
100
AcDbEntity
  8
0
 62
     0
100
AcDbLine
 10
41.20047808566079
 20
14.74862842040363
 30
0.0
 11
38.40047808566078
 21
17.54862842040358
 31
0.0
  0
LINE
  5
416
330
3A4
100
AcDbEntity
  8
0
 62
     0
100
AcDbLine
 10
33.76523968928819
 20
21.28584120466928
 30
0.0
 11
31.62680205177451
 21
23.42427884218295
 31
0.0
  0
LINE
  5
417
330
3A4
100
AcDbEntity
  8
0
 62
     0
100
AcDbLine
 10
30.35047808566082
 20
24.70060280829665
 30
0.0
 11
27.55047808566075
 21
27.50060280829671
 31
0.0
  0
LINE
  5
418
330
3A4
100
AcDbEntity
  8
0
 62
     0
100
AcDbLine
 10
41.20047808566073
 20
13.85060280829668
 30
0.0
 11
38.40047808566078
 21
16.65060280829669
 31
0.0
  0
LINE
  5
419
330
3A4
100
AcDbEntity
  8
0
 62
     0
100
AcDbLine
 10
34.17971304872219
 20
19.97334223312833
 30
0.0
 11
31.33625455608989
 21
22.81680072576063
 31
0.0
  0
LINE
  5
41A
330
3A4
100
AcDbEntity
  8
0
 62
     0
100
AcDbLine
 10
30.35047808566088
 20
23.80257719618964
 30
0.0
 11
27.5504780856607
 21
26.60257719618977
 31
0.0
  0
LINE
  5
41B
330
3A4
100
AcDbEntity
  8
0
 62
     0
100
AcDbLine
 10
40.8614330883284
 20
13.29162219352207
 30
0.0
 11
38.40047808566078
 21
15.75257719618974
 31
0.0
  0
LINE
  5
41C
330
3A4
100
AcDbEntity
  8
0
 62
     0
100
AcDbLine
 10
34.59418640815619
 20
18.6608432615875
 30
0.0
 11
27.55047808566075
 21
25.70455158408293
 31
0.0
  0
LINE
  5
41D
330
3A4
100
AcDbEntity
  8
0
 62
     0
100
AcDbLine
 10
25.10047808566088
 20
28.15455158408281
 30
0.0
 11
23.89744338692111
 21
29.35758628282258
 31
0.0
  0
LINE
  5
41E
330
3A4
100
AcDbEntity
  8
0
 62
     0
100
AcDbLine
 10
39.99744338692113
 20
13.25758628282255
 30
0.0
 11
38.40047808566089
 21
14.8545515840828
 31
0.0
  0
LINE
  5
41F
330
3A4
100
AcDbEntity
  8
0
 62
     0
100
AcDbLine
 10
35.00865976759024
 20
17.34834429004649
 30
0.0
 11
27.55047808566075
 21
24.80652597197599
 31
0.0
  0
LINE
  5
420
330
3A4
100
AcDbEntity
  8
0
 62
     0
100
AcDbLine
 10
25.10047808566088
 20
27.25652597197586
 30
0.0
 11
22.9994177748141
 21
29.35758628282263
 31
0.0
  0
LINE
  5
421
330
3A4
100
AcDbEntity
  8
0
 62
     0
100
AcDbLine
 10
39.09941777481418
 20
13.2575862828225
 30
0.0
 11
38.40047808566083
 21
13.9565259719759
 31
0.0
  0
LINE
  5
422
330
3A4
100
AcDbEntity
  8
0
 62
     0
100
AcDbLine
 10
24.83357139027077
 20
26.62540705525902
 30
0.0
 11
22.13334967205935
 21
29.32562877347038
 31
0.0
  0
LINE
  5
423
330
3A4
100
AcDbEntity
  8
0
 62
     0
100
AcDbLine
 10
35.42313312702418
 20
16.0358453185056
 30
0.0
 11
27.55047808566081
 21
23.90850035986898
 31
0.0
  0
LINE
  5
424
330
3A4
100
AcDbEntity
  8
0
 62
     0
100
AcDbLine
 10
30.68798700800243
 20
19.87296582542046
 30
0.0
 11
27.55047808566081
 21
23.01047474776209
 31
0.0
  0
LINE
  5
425
330
3A4
100
AcDbEntity
  8
0
 62
     0
100
AcDbLine
 10
24.00336655060033
 20
26.55758628282251
 30
0.0
 11
21.39530660247209
 21
29.16564623095081
 31
0.0
  0
LINE
  5
426
330
3A4
100
AcDbEntity
  8
0
 62
     0
100
AcDbLine
 10
35.83760648645824
 20
14.72334634696466
 30
0.0
 11
31.74529879415013
 21
18.81565403927277
 31
0.0
  0
LINE
  5
427
330
3A4
100
AcDbEntity
  8
0
 62
     0
100
AcDbLine
 10
30.35047808566088
 20
19.31244913565512
 30
0.0
 11
27.55047808566081
 21
22.11244913565519
 31
0.0
  0
LINE
  5
428
330
3A4
100
AcDbEntity
  8
0
 62
     0
100
AcDbLine
 10
23.10534093849332
 20
26.55758628282262
 30
0.0
 11
20.75658518664135
 21
28.90634203467459
 31
0.0
  0
LINE
  5
429
330
3A4
100
AcDbEntity
  8
0
 62
     0
100
AcDbLine
 10
36.07264534416884
 20
13.5902818771471
 30
0.0
 11
32.15977215358407
 21
17.50315506773193
 31
0.0
  0
LINE
  5
42A
330
3A4
100
AcDbEntity
  8
0
 62
     0
100
AcDbLine
 10
30.35047808566082
 20
18.41442352354823
 30
0.0
 11
27.55047808566075
 21
21.21442352354824
 31
0.0
  0
LINE
  5
42B
330
3A4
100
AcDbEntity
  8
0
 62
     0
100
AcDbLine
 10
22.26222743594979
 20
26.50267417325926
 30
0.0
 11
20.19783621130682
 21
28.56706539790224
 31
0.0
  0
LINE
  5
42C
330
3A4
100
AcDbEntity
  8
0
 62
     0
100
AcDbLine
 10
35.5073153263865
 20
13.25758628282255
 30
0.0
 11
32.57424551301812
 21
16.19065609619087
 31
0.0
  0
LINE
  5
42D
330
3A4
100
AcDbEntity
  8
0
 62
     0
100
AcDbLine
 10
30.35047808566082
 20
17.51639791144128
 30
0.0
 11
27.55047808566075
 21
20.31639791144135
 31
0.0
  0
LINE
  5
42E
330
3A4
100
AcDbEntity
  8
0
 62
     0
100
AcDbLine
 10
21.6903712431108
 20
26.1765047539913
 30
0.0
 11
19.71018100269503
 21
28.15669499440707
 31
0.0
  0
LINE
  5
42F
330
3A4
100
AcDbEntity
  8
0
 62
     0
100
AcDbLine
 10
34.60928971427955
 20
13.25758628282255
 30
0.0
 11
32.98871887245207
 21
14.87815712465004
 31
0.0
  0
LINE
  5
430
330
3A4
100
AcDbEntity
  8
0
 62
     0
100
AcDbLine
 10
25.43590721845856
 20
21.53294316653671
 30
0.0
 11
23.92583496937481
 21
23.04301541562046
 31
0.0
  0
LINE
  5
431
330
3A4
100
AcDbEntity
  8
0
 62
     0
100
AcDbLine
 10
30.35047808566094
 20
16.61837229933434
 30
0.0
 11
27.55047808566081
 21
19.41837229933446
 31
0.0
  0
LINE
  5
432
330
3A4
100
AcDbEntity
  8
0
 62
     0
100
AcDbLine
 10
21.33424967298185
 20
25.63460071201342
 30
0.0
 11
19.2908149766838
 21
27.67803540831147
 31
0.0
  0
LINE
  5
433
330
3A4
100
AcDbEntity
  8
0
 62
     0
100
AcDbLine
 10
33.66093109796804
 20
13.30791928702723
 30
0.0
 11
33.41057692637673
 21
13.55827345861854
 31
0.0
  0
LINE
  5
434
330
3A4
100
AcDbEntity
  8
0
 62
     0
100
AcDbLine
 10
25.34939355831665
 20
20.72143121457167
 30
0.0
 11
23.11432301740978
 21
22.95650175547854
 31
0.0
  0
LINE
  5
435
330
3A4
100
AcDbEntity
  8
0
 62
     0
100
AcDbLine
 10
21.25047808566091
 20
24.82034668722741
 30
0.0
 11
18.94187595572214
 21
27.12894881716619
 31
0.0
  0
LINE
  5
436
330
3A4
100
AcDbEntity
  8
0
 62
     0
100
AcDbLine
 10
30.35047808566088
 20
15.72034668722739
 30
0.0
 11
27.55047808566075
 21
18.52034668722757
 31
0.0
  0
LINE
  5
437
330
3A4
100
AcDbEntity
  8
0
 62
     0
100
AcDbLine
 10
25.0175379990186
 20
20.15526116176272
 30
0.0
 11
22.54815296460083
 21
22.62464619618049
 31
0.0
  0
LINE
  5
438
330
3A4
100
AcDbEntity
  8
0
 62
     0
100
AcDbLine
 10
21.25047808566091
 20
23.92232107512046
 30
0.0
 11
18.67129624851196
 21
26.50150291226941
 31
0.0
  0
LINE
  5
439
330
3A4
100
AcDbEntity
  8
0
 62
     0
100
AcDbLine
 10
30.35047808566088
 20
14.82232107512049
 30
0.0
 11
27.55047808566081
 21
17.62232107512056
 31
0.0
  0
LINE
  5
43A
330
3A4
100
AcDbEntity
  8
0
 62
     0
100
AcDbLine
 10
21.25047808566091
 20
23.02429546301357
 30
0.0
 11
18.49658237558611
 21
25.77819117308843
 31
0.0
  0
LINE
  5
43B
330
3A4
100
AcDbEntity
  8
0
 62
     0
100
AcDbLine
 10
24.51570455688215
 20
19.75906899179238
 30
0.0
 11
22.15196079463049
 21
22.12281275404405
 31
0.0
  0
LINE
  5
43C
330
3A4
100
AcDbEntity
  8
0
 62
     0
100
AcDbLine
 10
15.82547808566073
 20
28.44929546301375
 30
0.0
 11
14.91718726585185
 21
29.35758628282269
 31
0.0
  0
LINE
  5
43D
330
3A4
100
AcDbEntity
  8
0
 62
     0
100
AcDbLine
 10
30.35047808566094
 20
13.9242954630136
 30
0.0
 11
27.55047808566087
 21
16.72429546301367
 31
0.0
  0
LINE
  5
43E
330
3A4
100
AcDbEntity
  8
0
 62
     0
100
AcDbLine
 10
21.25047808566091
 20
22.12626985090668
 30
0.0
 11
18.45047808566084
 21
24.92626985090675
 31
0.0
  0
LINE
  5
43F
330
3A4
100
AcDbEntity
  8
0
 62
     0
100
AcDbLine
 10
23.81538511445473
 20
19.56136282211287
 30
0.0
 11
21.95425462495097
 21
21.42249331161662
 31
0.0
  0
LINE
  5
440
330
3A4
100
AcDbEntity
  8
0
 62
     0
100
AcDbLine
 10
15.82547808566073
 20
27.55126985090686
 30
0.0
 11
14.0191616537449
 21
29.35758628282263
 31
0.0
  0
LINE
  5
441
330
3A4
100
AcDbEntity
  8
0
 62
     0
100
AcDbLine
 10
30.06257428439022
 20
13.31417365217737
 30
0.0
 11
27.55047808566081
 21
15.82626985090672
 31
0.0
  0
LINE
  5
442
330
3A4
100
AcDbEntity
  8
0
 62
     0
100
AcDbLine
 10
21.25047808566091
 20
21.22824423879973
 30
0.0
 11
18.45047808566084
 21
24.0282442387998
 31
0.0
  0
LINE
  5
443
330
3A4
100
AcDbEntity
  8
0
 62
     0
100
AcDbLine
 10
15.71644411539045
 20
26.76227820907019
 30
0.0
 11
13.12113604163789
 21
29.35758628282269
 31
0.0
  0
LINE
  5
444
330
3A4
100
AcDbEntity
  8
0
 62
     0
100
AcDbLine
 10
29.22113604163809
 20
13.2575862828225
 30
0.0
 11
27.55047808566081
 21
14.92824423879983
 31
0.0
  0
LINE
  5
445
330
3A4
100
AcDbEntity
  8
0
 62
     0
100
AcDbLine
 10
21.25047808566085
 20
20.33021862669284
 30
0.0
 11
18.45047808566079
 21
23.13021862669285
 31
0.0
  0
LINE
  5
446
330
3A4
100
AcDbEntity
  8
0
 62
     0
100
AcDbLine
 10
15.02311042953112
 20
26.55758628282256
 30
0.0
 11
12.223110429531
 21
29.35758628282269
 31
0.0
  0
LINE
  5
447
330
3A4
100
AcDbEntity
  8
0
 62
     0
100
AcDbLine
 10
28.32311042953108
 20
13.25758628282255
 30
0.0
 11
27.55047808566081
 21
14.03021862669288
 31
0.0
  0
LINE
  5
448
330
3A4
100
AcDbEntity
  8
0
 62
     0
100
AcDbLine
 10
21.25047808566091
 20
19.43219301458595
 30
0.0
 11
18.45047808566084
 21
22.23219301458601
 31
0.0
  0
LINE
  5
449
330
3A4
100
AcDbEntity
  8
0
 62
     0
100
AcDbLine
 10
14.12508481742423
 20
26.55758628282256
 30
0.0
 11
11.35995554531933
 21
29.32271555492752
 31
0.0
  0
LINE
  5
44A
330
3A4
100
AcDbEntity
  8
0
 62
     0
100
AcDbLine
 10
25.09787563682391
 20
15.58479546342289
 30
0.0
 11
24.6276872662612
 21
16.05498383398566
 31
0.0
  0
LINE
  5
44B
330
3A4
100
AcDbEntity
  8
0
 62
     0
100
AcDbLine
 10
21.25047808566085
 20
18.53416740247899
 30
0.0
 11
18.45047808566084
 21
21.33416740247906
 31
0.0
  0
LINE
  5
44C
330
3A4
100
AcDbEntity
  8
0
 62
     0
100
AcDbLine
 10
13.22705920531734
 20
26.55758628282256
 30
0.0
 11
10.66682073684086
 21
29.11782475129905
 31
0.0
  0
LINE
  5
44D
330
3A4
100
AcDbEntity
  8
0
 62
     0
100
AcDbLine
 10
25.10047808566082
 20
14.68416740247903
 30
0.0
 11
23.72705920531728
 21
16.05758628282262
 31
0.0
  0
LINE
  5
44E
330
3A4
100
AcDbEntity
  8
0
 62
     0
100
AcDbLine
 10
21.25047808566085
 20
17.6361417903721
 30
0.0
 11
18.4504780856609
 21
20.43614179037206
 31
0.0
  0
LINE
  5
44F
330
3A4
100
AcDbEntity
  8
0
 62
     0
100
AcDbLine
 10
12.32903359321039
 20
26.55758628282251
 30
0.0
 11
10.10257407699362
 21
28.78404579903929
 31
0.0
  0
LINE
  5
450
330
3A4
100
AcDbEntity
  8
0
 62
     0
100
AcDbLine
 10
25.10047808566082
 20
13.78614179037214
 30
0.0
 11
22.82903359321039
 21
16.05758628282251
 31
0.0
  0
LINE
  5
451
330
3A4
100
AcDbEntity
  8
0
 62
     0
100
AcDbLine
 10
11.8187407655958
 20
26.16985349833032
 30
0.0
 11
9.644481264752869
 21
28.34411299917326
 31
0.0
  0
LINE
  5
452
330
3A4
100
AcDbEntity
  8
0
 62
     0
100
AcDbLine
 10
24.71274530116852
 20
13.2758489627576
 30
0.0
 11
18.4504780856609
 21
19.53811617826522
 31
0.0
  0
LINE
  5
453
330
3A4
100
AcDbEntity
  8
0
 62
     0
100
AcDbLine
 10
11.80047808566087
 20
25.29009056615831
 30
0.0
 11
9.291000062283785
 21
27.79956858953539
 31
0.0
  0
LINE
  5
454
330
3A4
100
AcDbEntity
  8
0
 62
     0
100
AcDbLine
 10
23.83298236899662
 20
13.25758628282255
 30
0.0
 11
18.4504780856609
 21
18.64009056615827
 31
0.0
  0
LINE
  5
455
330
3A4
100
AcDbEntity
  8
0
 62
     0
100
AcDbLine
 10
11.86261379379629
 20
24.32992924591587
 30
0.0
 11
9.060119959990061
 21
27.13242307972217
 31
0.0
  0
LINE
  5
456
330
3A4
100
AcDbEntity
  8
0
 62
     0
100
AcDbLine
 10
22.93495675688962
 20
13.25758628282261
 30
0.0
 11
18.45047808566084
 21
17.74206495405133
 31
0.0
  0
LINE
  5
457
330
3A4
100
AcDbEntity
  8
0
 62
     0
100
AcDbLine
 10
16.15485417688353
 20
19.13966325072181
 30
0.0
 11
9.000478085660915
 21
26.29403934194442
 31
0.0
  0
LINE
  5
458
330
3A4
100
AcDbEntity
  8
0
 62
     0
100
AcDbLine
 10
21.98365905772607
 20
13.31085836987927
 30
0.0
 11
18.5037501727175
 21
16.79076725488783
 31
0.0
  0
LINE
  5
459
330
3A4
100
AcDbEntity
  8
0
 62
     0
100
AcDbLine
 10
16.34674869096875
 20
18.04974312452969
 30
0.0
 11
9.000478085660802
 21
25.39601372983764
 31
0.0
  0
LINE
  5
45A
330
3A4
100
AcDbEntity
  8
0
 62
     0
100
AcDbLine
 10
20.60985114512448
 20
13.78664067037391
 30
0.0
 11
18.97953247321209
 21
15.41695934228636
 31
0.0
  0
LINE
  5
45B
330
3A4
100
AcDbEntity
  8
0
 62
     0
100
AcDbLine
 10
16.35047808566088
 20
17.14798811773062
 30
0.0
 11
9.008042533083198
 21
24.49042367030824
 31
0.0
  0
LINE
  5
45C
330
3A4
100
AcDbEntity
  8
0
 62
     0
100
AcDbLine
 10
16.35047808566082
 20
16.24996250562372
 30
0.0
 11
9.231333291407054
 21
23.36910729987744
 31
0.0
  0
LINE
  5
45D
330
3A4
100
AcDbEntity
  8
0
 62
     0
100
AcDbLine
 10
16.27795808952891
 20
15.4244568896488
 30
0.0
 11
13.51456644590985
 21
18.18784853326786
 31
0.0
  0
LINE
  5
45E
330
3A4
100
AcDbEntity
  8
0
 62
     0
100
AcDbLine
 10
16.03602015050006
 20
14.7683692165707
 30
0.0
 11
13.55047808566081
 21
17.25391128140995
 31
0.0
  0
LINE
  5
45F
330
3A4
100
AcDbEntity
  8
0
 62
     0
100
AcDbLine
 10
15.67390090311829
 20
14.23246285184552
 30
0.0
 11
13.51457905336013
 21
16.39178470160368
 31
0.0
  0
LINE
  5
460
330
3A4
100
AcDbEntity
  8
0
 62
     0
100
AcDbLine
 10
15.20767453085142
 20
13.8006636120055
 30
0.0
 11
12.9507518600343
 21
16.05758628282268
 31
0.0
  0
LINE
  5
461
330
3A4
100
AcDbEntity
  8
0
 62
     0
100
AcDbLine
 10
14.6344100831186
 20
13.47590244763142
 30
0.0
 11
12.05272624792735
 21
16.05758628282262
 31
0.0
  0
LINE
  5
462
330
3A4
100
AcDbEntity
  8
0
 62
     0
100
AcDbLine
 10
13.92899749403267
 20
13.28328942461041
 30
0.0
 11
11.15470063582046
 21
16.05758628282262
 31
0.0
  0
LINE
  5
463
330
3A4
100
AcDbEntity
  8
0
 62
     0
100
AcDbLine
 10
13.05667502371363
 20
13.25758628282244
 30
0.0
 11
10.25667502371351
 21
16.05758628282262
 31
0.0
  0
LINE
  5
464
330
3A4
100
AcDbEntity
  8
0
 62
     0
100
AcDbLine
 10
12.15864941160669
 20
13.25758628282255
 30
0.0
 11
9.605325516788809
 21
15.81091017764049
 31
0.0
  0
LINE
  5
465
330
3A4
100
AcDbEntity
  8
0
 62
     0
100
AcDbLine
 10
11.26062379949979
 20
13.25758628282255
 30
0.0
 11
9.525478085660836
 21
14.99273199666151
 31
0.0
  0
LINE
  5
466
330
3A4
100
AcDbEntity
  8
0
 62
     0
100
AcDbLine
 10
10.36259818739284
 20
13.25758628282255
 30
0.0
 11
9.525478085660836
 21
14.09470638455457
 31
0.0
  0
LINE
  5
467
330
3A4
100
AcDbEntity
  8
0
 62
     0
100
AcDbLine
 10
66.34216537032779
 20
13.27071805994012
 30
0.0
 11
66.73734630854358
 21
13.66589899815591
 31
0.0
  0
LINE
  5
468
330
3A4
100
AcDbEntity
  8
0
 62
     0
100
AcDbLine
 10
65.43100798110334
 20
13.2575862828225
 30
0.0
 11
66.75047808566103
 21
14.57705638738019
 31
0.0
  0
LINE
  5
469
330
3A4
100
AcDbEntity
  8
0
 62
     0
100
AcDbLine
 10
64.53298236899644
 20
13.2575862828225
 30
0.0
 11
66.75047808566103
 21
15.47508199948708
 31
0.0
  0
LINE
  5
46A
330
3A4
100
AcDbEntity
  8
0
 62
     0
100
AcDbLine
 10
63.9816756489127
 20
13.6043051748457
 30
0.0
 11
66.75047808566097
 21
16.37310761159403
 31
0.0
  0
LINE
  5
46B
330
3A4
100
AcDbEntity
  8
0
 62
     0
100
AcDbLine
 10
63.9504780856609
 20
14.47113322370086
 30
0.0
 11
66.75047808566097
 21
17.27113322370087
 31
0.0
  0
LINE
  5
46C
330
3A4
100
AcDbEntity
  8
0
 62
     0
100
AcDbLine
 10
63.95047808566096
 20
15.36915883580775
 30
0.0
 11
66.75047808566097
 21
18.16915883580782
 31
0.0
  0
LINE
  5
46D
330
3A4
100
AcDbEntity
  8
0
 62
     0
100
AcDbLine
 10
63.9504780856609
 20
16.2671844479147
 30
0.0
 11
66.75047808566097
 21
19.06718444791477
 31
0.0
  0
LINE
  5
46E
330
3A4
100
AcDbEntity
  8
0
 62
     0
100
AcDbLine
 10
63.9504780856609
 20
17.16521006002159
 30
0.0
 11
66.75047808566097
 21
19.96521006002166
 31
0.0
  0
LINE
  5
46F
330
3A4
100
AcDbEntity
  8
0
 62
     0
100
AcDbLine
 10
60.37704294772618
 20
13.59177492208686
 30
0.0
 11
61.51628944639674
 21
14.73102142075748
 31
0.0
  0
LINE
  5
470
330
3A4
100
AcDbEntity
  8
0
 62
     0
100
AcDbLine
 10
63.9504780856609
 20
18.06323567212848
 30
0.0
 11
66.75047808566097
 21
20.86323567212855
 31
0.0
  0
LINE
  5
471
330
3A4
100
AcDbEntity
  8
0
 62
     0
100
AcDbLine
 10
59.14647478120338
 20
13.25923236767096
 30
0.0
 11
61.8488320008127
 21
15.96158958728023
 31
0.0
  0
LINE
  5
472
330
3A4
100
AcDbEntity
  8
0
 62
     0
100
AcDbLine
 10
63.9504780856609
 20
18.96126128423543
 30
0.0
 11
66.75047808566097
 21
21.76126128423544
 31
0.0
  0
LINE
  5
473
330
3A4
100
AcDbEntity
  8
0
 62
     0
100
AcDbLine
 10
58.24680308424797
 20
13.2575862828225
 30
0.0
 11
61.850478085661
 21
16.86126128423546
 31
0.0
  0
LINE
  5
474
330
3A4
100
AcDbEntity
  8
0
 62
     0
100
AcDbLine
 10
63.9504780856609
 20
19.85928689634232
 30
0.0
 11
66.75047808566091
 21
22.65928689634239
 31
0.0
  0
LINE
  5
475
330
3A4
100
AcDbEntity
  8
0
 62
     0
100
AcDbLine
 10
57.34877747214108
 20
13.2575862828225
 30
0.0
 11
61.85047808566094
 21
17.75928689634241
 31
0.0
  0
LINE
  5
476
330
3A4
100
AcDbEntity
  8
0
 62
     0
100
AcDbLine
 10
63.9504780856609
 20
20.75731250844921
 30
0.0
 11
66.75047808566097
 21
23.55731250844928
 31
0.0
  0
LINE
  5
477
330
3A4
100
AcDbEntity
  8
0
 62
     0
100
AcDbLine
 10
56.45075186003424
 20
13.25758628282255
 30
0.0
 11
61.850478085661
 21
18.6573125084493
 31
0.0
  0
LINE
  5
478
330
3A4
100
AcDbEntity
  8
0
 62
     0
100
AcDbLine
 10
58.94588688357988
 20
16.65074691847513
 30
0.0
 11
61.850478085661
 21
19.5553381205562
 31
0.0
  0
LINE
  5
479
330
3A4
100
AcDbEntity
  8
0
 62
     0
100
AcDbLine
 10
63.9504780856609
 20
21.65533812055611
 30
0.0
 11
66.75047808566097
 21
24.45533812055618
 31
0.0
  0
LINE
  5
47A
330
3A4
100
AcDbEntity
  8
0
 62
     0
100
AcDbLine
 10
55.55272624792724
 20
13.2575862828225
 30
0.0
 11
58.45731745000836
 21
16.16217748490356
 31
0.0
  0
LINE
  5
47B
330
3A4
100
AcDbEntity
  8
0
 62
     0
100
AcDbLine
 10
59.05047808566087
 20
17.65336373266308
 30
0.0
 11
61.85047808566094
 21
20.45336373266315
 31
0.0
  0
LINE
  5
47C
330
3A4
100
AcDbEntity
  8
0
 62
     0
100
AcDbLine
 10
63.95047808566085
 20
22.55336373266306
 30
0.0
 11
66.75047808566091
 21
25.35336373266313
 31
0.0
  0
LINE
  5
47D
330
3A4
100
AcDbEntity
  8
0
 62
     0
100
AcDbLine
 10
54.76665038719755
 20
13.36953603419971
 30
0.0
 11
57.45470063582041
 21
16.05758628282257
 31
0.0
  0
LINE
  5
47E
330
3A4
100
AcDbEntity
  8
0
 62
     0
100
AcDbLine
 10
59.05047808566092
 20
18.55138934477008
 30
0.0
 11
61.85047808566094
 21
21.35138934477004
 31
0.0
  0
LINE
  5
47F
330
3A4
100
AcDbEntity
  8
0
 62
     0
100
AcDbLine
 10
63.95047808566085
 20
23.45138934477
 30
0.0
 11
66.75047808566091
 21
26.25138934477002
 31
0.0
  0
LINE
  5
480
330
3A4
100
AcDbEntity
  8
0
 62
     0
100
AcDbLine
 10
54.1386635199874
 20
13.63957477909656
 30
0.0
 11
56.55755280935784
 21
16.058464068467
 31
0.0
  0
LINE
  5
481
330
3A4
100
AcDbEntity
  8
0
 62
     0
100
AcDbLine
 10
59.05047808566099
 20
19.44941495687698
 30
0.0
 11
61.85047808566094
 21
22.24941495687693
 31
0.0
  0
LINE
  5
482
330
3A4
100
AcDbEntity
  8
0
 62
     0
100
AcDbLine
 10
63.9504780856609
 20
24.34941495687684
 30
0.0
 11
66.75047808566091
 21
27.14941495687691
 31
0.0
  0
LINE
  5
483
330
3A4
100
AcDbEntity
  8
0
 62
     0
100
AcDbLine
 10
53.62540363862234
 20
14.02434050983828
 30
0.0
 11
55.91407422064515
 21
16.31301109186114
 31
0.0
  0
LINE
  5
484
330
3A4
100
AcDbEntity
  8
0
 62
     0
100
AcDbLine
 10
59.05047808566099
 20
20.34744056898387
 30
0.0
 11
61.85047808566094
 21
23.14744056898388
 31
0.0
  0
LINE
  5
485
330
3A4
100
AcDbEntity
  8
0
 62
     0
100
AcDbLine
 10
63.95047808566085
 20
25.24744056898379
 30
0.0
 11
66.75047808566091
 21
28.04744056898385
 31
0.0
  0
LINE
  5
486
330
3A4
100
AcDbEntity
  8
0
 62
     0
100
AcDbLine
 10
53.21543946339722
 20
14.5124019467201
 30
0.0
 11
55.57683594223573
 21
16.87379842555867
 31
0.0
  0
LINE
  5
487
330
3A4
100
AcDbEntity
  8
0
 62
     0
100
AcDbLine
 10
59.05047808566092
 20
21.24546618109082
 30
0.0
 11
61.850478085661
 21
24.04546618109089
 31
0.0
  0
LINE
  5
488
330
3A4
100
AcDbEntity
  8
0
 62
     0
100
AcDbLine
 10
63.95047808566085
 20
26.14546618109068
 30
0.0
 11
66.74032893211045
 21
28.93531702754035
 31
0.0
  0
LINE
  5
489
330
3A4
100
AcDbEntity
  8
0
 62
     0
100
AcDbLine
 10
52.91551458496321
 20
15.11050268039309
 30
0.0
 11
55.55047808566093
 21
17.74546618109076
 31
0.0
  0
LINE
  5
48A
330
3A4
100
AcDbEntity
  8
0
 62
     0
100
AcDbLine
 10
59.05047808566099
 20
22.14349179319765
 30
0.0
 11
61.85047808566105
 21
24.94349179319772
 31
0.0
  0
LINE
  5
48B
330
3A4
100
AcDbEntity
  8
0
 62
     0
100
AcDbLine
 10
63.95047808566085
 20
27.04349179319757
 30
0.0
 11
66.26321458703097
 21
29.3562282945677
 31
0.0
  0
LINE
  5
48C
330
3A4
100
AcDbEntity
  8
0
 62
     0
100
AcDbLine
 10
52.75810105000676
 20
15.85111475754348
 30
0.0
 11
55.55047808566093
 21
18.64349179319765
 31
0.0
  0
LINE
  5
48D
330
3A4
100
AcDbEntity
  8
0
 62
     0
100
AcDbLine
 10
59.05047808566092
 20
23.0415174053046
 30
0.0
 11
61.850478085661
 21
25.84151740530467
 31
0.0
  0
LINE
  5
48E
330
3A4
100
AcDbEntity
  8
0
 62
     0
100
AcDbLine
 10
63.9504780856609
 20
27.94151740530458
 30
0.0
 11
65.3665469631789
 21
29.35758628282258
 31
0.0
  0
LINE
  5
48F
330
3A4
100
AcDbEntity
  8
0
 62
     0
100
AcDbLine
 10
52.75047808566097
 20
16.74151740530459
 30
0.0
 11
55.55047808566098
 21
19.54151740530465
 31
0.0
  0
LINE
  5
490
330
3A4
100
AcDbEntity
  8
0
 62
     0
100
AcDbLine
 10
59.05047808566092
 20
23.93954301741155
 30
0.0
 11
61.850478085661
 21
26.73954301741156
 31
0.0
  0
LINE
  5
491
330
3A4
100
AcDbEntity
  8
0
 62
     0
100
AcDbLine
 10
52.75047808566092
 20
17.63954301741154
 30
0.0
 11
55.55047808566098
 21
20.4395430174116
 31
0.0
  0
LINE
  5
492
330
3A4
100
AcDbEntity
  8
0
 62
     0
100
AcDbLine
 10
63.95052480040835
 20
28.83958973215897
 30
0.0
 11
64.46847463632463
 21
29.3575395680752
 31
0.0
  0
LINE
  5
493
330
3A4
100
AcDbEntity
  8
0
 62
     0
100
AcDbLine
 10
48.42892245494891
 20
13.31798738669948
 30
0.0
 11
50.59007698178408
 21
15.4791419135347
 31
0.0
  0
LINE
  5
494
330
3A4
100
AcDbEntity
  8
0
 62
     0
100
AcDbLine
 10
52.75047808566092
 20
18.53756862951843
 30
0.0
 11
55.55047808566098
 21
21.33756862951849
 31
0.0
  0
LINE
  5
495
330
3A4
100
AcDbEntity
  8
0
 62
     0
100
AcDbLine
 10
59.05047808566092
 20
24.83756862951844
 30
0.0
 11
61.85047808566094
 21
27.63756862951851
 31
0.0
  0
LINE
  5
496
330
3A4
100
AcDbEntity
  8
0
 62
     0
100
AcDbLine
 10
47.47049573896504
 20
13.25758628282261
 30
0.0
 11
50.65047808566089
 21
16.43756862951846
 31
0.0
  0
LINE
  5
497
330
3A4
100
AcDbEntity
  8
0
 62
     0
100
AcDbLine
 10
52.75047808566092
 20
19.43559424162532
 30
0.0
 11
55.55047808566098
 21
22.23559424162539
 31
0.0
  0
LINE
  5
498
330
3A4
100
AcDbEntity
  8
0
 62
     0
100
AcDbLine
 10
59.05047808566092
 20
25.73559424162533
 30
0.0
 11
61.850478085661
 21
28.5355942416254
 31
0.0
  0
LINE
  5
499
330
3A4
100
AcDbEntity
  8
0
 62
     0
100
AcDbLine
 10
46.57247012685814
 20
13.25758628282255
 30
0.0
 11
50.65047808566095
 21
17.3355942416253
 31
0.0
  0
LINE
  5
49A
330
3A4
100
AcDbEntity
  8
0
 62
     0
100
AcDbLine
 10
52.75047808566092
 20
20.33361985373227
 30
0.0
 11
55.55047808566098
 21
23.13361985373228
 31
0.0
  0
LINE
  5
49B
330
3A4
100
AcDbEntity
  8
0
 62
     0
100
AcDbLine
 10
59.05047808566092
 20
26.63361985373223
 30
0.0
 11
61.65674063082684
 21
29.2398823988982
 31
0.0
  0
LINE
  5
49C
330
3A4
100
AcDbEntity
  8
0
 62
     0
100
AcDbLine
 10
45.67444451475125
 20
13.25758628282261
 30
0.0
 11
50.63615948524807
 21
18.21930125331937
 31
0.0
  0
LINE
  5
49D
330
3A4
100
AcDbEntity
  8
0
 62
     0
100
AcDbLine
 10
52.75047808566092
 20
21.23164546583916
 30
0.0
 11
55.55047808566093
 21
24.03164546583923
 31
0.0
  0
LINE
  5
49E
330
3A4
100
AcDbEntity
  8
0
 62
     0
100
AcDbLine
 10
59.05047808566087
 20
27.53164546583917
 30
0.0
 11
60.87641890264433
 21
29.35758628282263
 31
0.0
  0
LINE
  5
49F
330
3A4
100
AcDbEntity
  8
0
 62
     0
100
AcDbLine
 10
44.77641890264431
 20
13.25758628282261
 30
0.0
 11
50.50124711461927
 21
18.98241449479758
 31
0.0
  0
LINE
  5
4A0
330
3A4
100
AcDbEntity
  8
0
 62
     0
100
AcDbLine
 10
52.75047808566092
 20
22.12967107794605
 30
0.0
 11
55.55047808566098
 21
24.92967107794612
 31
0.0
  0
LINE
  5
4A1
330
3A4
100
AcDbEntity
  8
0
 62
     0
100
AcDbLine
 10
47.85047808566105
 20
17.22967107794613
 30
0.0
 11
50.26065965770072
 21
19.63985264998586
 31
0.0
  0
LINE
  5
4A2
330
3A4
100
AcDbEntity
  8
0
 62
     0
100
AcDbLine
 10
59.05047808566092
 20
28.42967107794606
 30
0.0
 11
59.9783932905375
 21
29.35758628282263
 31
0.0
  0
LINE
  5
4A3
330
3A4
100
AcDbEntity
  8
0
 62
     0
100
AcDbLine
 10
44.00664864366854
 20
13.38584163595368
 30
0.0
 11
46.67839329053743
 21
16.05758628282257
 31
0.0
  0
LINE
  5
4A4
330
3A4
100
AcDbEntity
  8
0
 62
     0
100
AcDbLine
 10
47.83060751053364
 20
18.10782611492567
 30
0.0
 11
49.93716035284013
 21
20.21437895723215
 31
0.0
  0
LINE
  5
4A5
330
3A4
100
AcDbEntity
  8
0
 62
     0
100
AcDbLine
 10
52.75047808566092
 20
23.02769669005294
 30
0.0
 11
55.55047808566093
 21
25.82769669005301
 31
0.0
  0
LINE
  5
4A6
330
3A4
100
AcDbEntity
  8
0
 62
     0
100
AcDbLine
 10
43.82547808566096
 20
14.10269669005299
 30
0.0
 11
45.78036767843047
 21
16.05758628282257
 31
0.0
  0
LINE
  5
4A7
330
3A4
100
AcDbEntity
  8
0
 62
     0
100
AcDbLine
 10
47.55622267339475
 20
18.73146688989379
 30
0.0
 11
49.54128923491231
 21
20.71653345141135
 31
0.0
  0
LINE
  5
4A8
330
3A4
100
AcDbEntity
  8
0
 62
     0
100
AcDbLine
 10
52.75047808566085
 20
23.92572230215989
 30
0.0
 11
55.55047808566093
 21
26.72572230215996
 31
0.0
  0
LINE
  5
4A9
330
3A4
100
AcDbEntity
  8
0
 62
     0
100
AcDbLine
 10
43.8254780856609
 20
15.00072230215994
 30
0.0
 11
44.88234206632358
 21
16.05758628282262
 31
0.0
  0
LINE
  5
4AA
330
3A4
100
AcDbEntity
  8
0
 62
     0
100
AcDbLine
 10
52.75047808566092
 20
24.82374791426678
 30
0.0
 11
55.55047808566098
 21
27.6237479142668
 31
0.0
  0
LINE
  5
4AB
330
3A4
100
AcDbEntity
  8
0
 62
     0
100
AcDbLine
 10
47.11494777627769
 20
19.1882176048835
 30
0.0
 11
49.09484676360006
 21
21.16811659220593
 31
0.0
  0
LINE
  5
4AC
330
3A4
100
AcDbEntity
  8
0
 62
     0
100
AcDbLine
 10
46.66593497022421
 20
19.63723041093698
 30
0.0
 11
48.64583395754658
 21
21.6171293982594
 31
0.0
  0
LINE
  5
4AD
330
3A4
100
AcDbEntity
  8
0
 62
     0
100
AcDbLine
 10
52.75047808566085
 20
25.72177352637368
 30
0.0
 11
55.55047808566093
 21
28.52177352637374
 31
0.0
  0
LINE
  5
4AE
330
3A4
100
AcDbEntity
  8
0
 62
     0
100
AcDbLine
 10
40.28629084210973
 20
13.25758628282255
 30
0.0
 11
41.2004780856609
 21
14.17177352637366
 31
0.0
  0
LINE
  5
4AF
330
3A4
100
AcDbEntity
  8
0
 62
     0
100
AcDbLine
 10
46.21692216417073
 20
20.08624321699045
 30
0.0
 11
48.19682115149311
 21
22.06614220431288
 31
0.0
  0
LINE
  5
4B0
330
3A4
100
AcDbEntity
  8
0
 62
     0
100
AcDbLine
 10
52.75047808566085
 20
26.61979913848063
 30
0.0
 11
55.36429717756226
 21
29.23361823038197
 31
0.0
  0
LINE
  5
4B1
330
3A4
100
AcDbEntity
  8
0
 62
     0
100
AcDbLine
 10
39.38826523000278
 20
13.25758628282255
 30
0.0
 11
41.20047808566096
 21
15.06979913848067
 31
0.0
  0
LINE
  5
4B2
330
3A4
100
AcDbEntity
  8
0
 62
     0
100
AcDbLine
 10
45.76790935811726
 20
20.53525602304393
 30
0.0
 11
47.74780834543963
 21
22.51515501036635
 31
0.0
  0
LINE
  5
4B3
330
3A4
100
AcDbEntity
  8
0
 62
     0
100
AcDbLine
 10
52.75047808566085
 20
27.51782475058752
 30
0.0
 11
54.59023961789597
 21
29.35758628282269
 31
0.0
  0
LINE
  5
4B4
330
3A4
100
AcDbEntity
  8
0
 62
     0
100
AcDbLine
 10
38.60185075575788
 20
13.36919742068454
 30
0.0
 11
41.2004780856609
 21
15.96782475058762
 31
0.0
  0
LINE
  5
4B5
330
3A4
100
AcDbEntity
  8
0
 62
     0
100
AcDbLine
 10
45.31889655206384
 20
20.98426882909734
 30
0.0
 11
47.29879553938622
 21
22.96416781641977
 31
0.0
  0
LINE
  5
4B6
330
3A4
100
AcDbEntity
  8
0
 62
     0
100
AcDbLine
 10
52.75047808566085
 20
28.41585036269441
 30
0.0
 11
53.69221400578914
 21
29.35758628282263
 31
0.0
  0
LINE
  5
4B7
330
3A4
100
AcDbEntity
  8
0
 62
     0
100
AcDbLine
 10
38.40047808566095
 20
14.0658503626945
 30
0.0
 11
41.20047808566096
 21
16.86585036269446
 31
0.0
  0
LINE
  5
4B8
330
3A4
100
AcDbEntity
  8
0
 62
     0
100
AcDbLine
 10
44.86988374601037
 20
21.43328163515082
 30
0.0
 11
46.84978273333274
 21
23.41318062247324
 31
0.0
  0
LINE
  5
4B9
330
3A4
100
AcDbEntity
  8
0
 62
     0
100
AcDbLine
 10
38.40047808566095
 20
14.96387597480145
 30
0.0
 11
41.2004780856609
 21
17.7638759748014
 31
0.0
  0
LINE
  5
4BA
330
3A4
100
AcDbEntity
  8
0
 62
     0
100
AcDbLine
 10
44.42289984496904
 20
21.88432334621649
 30
0.0
 11
46.40687337835106
 21
23.86829687959846
 31
0.0
  0
LINE
  5
4BB
330
3A4
100
AcDbEntity
  8
0
 62
     0
100
AcDbLine
 10
38.40047808566095
 20
15.86190158690834
 30
0.0
 11
41.2004780856609
 21
18.66190158690835
 31
0.0
  0
LINE
  5
4BC
330
3A4
100
AcDbEntity
  8
0
 62
     0
100
AcDbLine
 10
49.09616278157511
 20
26.55758628282256
 30
0.0
 11
50.12547808566097
 21
27.58690158690837
 31
0.0
  0
LINE
  5
4BD
330
3A4
100
AcDbEntity
  8
0
 62
     0
100
AcDbLine
 10
35.90782186095072
 20
13.36924536219811
 30
0.0
 11
35.99747422240574
 21
13.45889772365319
 31
0.0
  0
LINE
  5
4BE
330
3A4
100
AcDbEntity
  8
0
 62
     0
100
AcDbLine
 10
44.02489766614706
 20
22.38434677950135
 30
0.0
 11
46.12453194356567
 21
24.48398105691996
 31
0.0
  0
LINE
  5
4BF
330
3A4
100
AcDbEntity
  8
0
 62
     0
100
AcDbLine
 10
38.40047808566095
 20
16.75992719901523
 30
0.0
 11
41.20047808566096
 21
19.55992719901519
 31
0.0
  0
LINE
  5
4C0
330
3A4
100
AcDbEntity
  8
0
 62
     0
100
AcDbLine
 10
48.19813716946834
 20
26.55758628282262
 30
0.0
 11
50.12547808566097
 21
28.48492719901526
 31
0.0
  0
LINE
  5
4C1
330
3A4
100
AcDbEntity
  8
0
 62
     0
100
AcDbLine
 10
34.89813716946827
 20
13.25758628282255
 30
0.0
 11
35.9639162657748
 21
14.32336537912908
 31
0.0
  0
LINE
  5
4C2
330
3A4
100
AcDbEntity
  8
0
 62
     0
100
AcDbLine
 10
43.69906340175037
 20
22.95653812721161
 30
0.0
 11
46.10047808566105
 21
25.35795281112228
 31
0.0
  0
LINE
  5
4C3
330
3A4
100
AcDbEntity
  8
0
 62
     0
100
AcDbLine
 10
38.40047808566095
 20
17.65795281112213
 30
0.0
 11
41.2004780856609
 21
20.45795281112213
 31
0.0
  0
LINE
  5
4C4
330
3A4
100
AcDbEntity
  8
0
 62
     0
100
AcDbLine
 10
47.30011155736133
 20
26.55758628282256
 30
0.0
 11
49.95880915386305
 21
29.21628387932429
 31
0.0
  0
LINE
  5
4C5
330
3A4
100
AcDbEntity
  8
0
 62
     0
100
AcDbLine
 10
34.00011155736126
 20
13.2575862828225
 30
0.0
 11
35.74839011886911
 21
15.00586484433034
 31
0.0
  0
LINE
  5
4C6
330
3A4
100
AcDbEntity
  8
0
 62
     0
100
AcDbLine
 10
38.40047808566089
 20
18.55597842322907
 30
0.0
 11
41.2004780856609
 21
21.35597842322903
 31
0.0
  0
LINE
  5
4C7
330
3A4
100
AcDbEntity
  8
0
 62
     0
100
AcDbLine
 10
43.45568133908028
 20
23.61118167664847
 30
0.0
 11
49.20208594525445
 21
29.35758628282263
 31
0.0
  0
LINE
  5
4C8
330
3A4
100
AcDbEntity
  8
0
 62
     0
100
AcDbLine
 10
33.40809724670629
 20
13.56359758427447
 30
0.0
 11
35.53286397196342
 21
15.6883643095316
 31
0.0
  0
LINE
  5
4C9
330
3A4
100
AcDbEntity
  8
0
 62
     0
100
AcDbLine
 10
38.40047808566089
 20
19.45400403533602
 30
0.0
 11
41.20047808566084
 21
22.25400403533598
 31
0.0
  0
LINE
  5
4CA
330
3A4
100
AcDbEntity
  8
0
 62
     0
100
AcDbLine
 10
43.31697447999459
 20
24.37050042966973
 30
0.0
 11
48.30406033314756
 21
29.35758628282263
 31
0.0
  0
LINE
  5
4CB
330
3A4
100
AcDbEntity
  8
0
 62
     0
100
AcDbLine
 10
33.18933782505769
 20
14.24286377473282
 30
0.0
 11
35.31733782505773
 21
16.37086377473286
 31
0.0
  0
LINE
  5
4CC
330
3A4
100
AcDbEntity
  8
0
 62
     0
100
AcDbLine
 10
38.40047808566095
 20
20.35202964744286
 30
0.0
 11
41.2004780856609
 21
23.15202964744287
 31
0.0
  0
LINE
  5
4CD
330
3A4
100
AcDbEntity
  8
0
 62
     0
100
AcDbLine
 10
43.30047808566092
 20
25.25202964744284
 30
0.0
 11
47.40603472104067
 21
29.35758628282263
 31
0.0
  0
LINE
  5
4CE
330
3A4
100
AcDbEntity
  8
0
 62
     0
100
AcDbLine
 10
32.97381167815206
 20
14.92536323993403
 30
0.0
 11
35.10181167815216
 21
17.05336323993407
 31
0.0
  0
LINE
  5
4CF
330
3A4
100
AcDbEntity
  8
0
 62
     0
100
AcDbLine
 10
38.40047808566089
 20
21.25005525954981
 30
0.0
 11
41.2004780856609
 21
24.05005525954976
 31
0.0
  0
LINE
  5
4D0
330
3A4
100
AcDbEntity
  8
0
 62
     0
100
AcDbLine
 10
43.30047808566098
 20
26.15005525954984
 30
0.0
 11
46.50800910893377
 21
29.35758628282263
 31
0.0
  0
LINE
  5
4D1
330
3A4
100
AcDbEntity
  8
0
 62
     0
100
AcDbLine
 10
32.75828553124631
 20
15.60786270513523
 30
0.0
 11
34.88628553124653
 21
17.73586270513544
 31
0.0
  0
LINE
  5
4D2
330
3A4
100
AcDbEntity
  8
0
 62
     0
100
AcDbLine
 10
38.40047808566089
 20
22.1480808716567
 30
0.0
 11
41.20047808566096
 21
24.94808087165677
 31
0.0
  0
LINE
  5
4D3
330
3A4
100
AcDbEntity
  8
0
 62
     0
100
AcDbLine
 10
32.54275938434068
 20
16.29036217033655
 30
0.0
 11
34.67075938434078
 21
18.41836217033659
 31
0.0
  0
LINE
  5
4D4
330
3A4
100
AcDbEntity
  8
0
 62
     0
100
AcDbLine
 10
43.35379475578213
 20
27.101397541778
 30
0.0
 11
45.55666682670545
 21
29.30426961270132
 31
0.0
  0
LINE
  5
4D5
330
3A4
100
AcDbEntity
  8
0
 62
     0
100
AcDbLine
 10
29.50998349682669
 20
13.25758628282255
 30
0.0
 11
30.35047808566088
 21
14.09808087165674
 31
0.0
  0
LINE
  5
4D6
330
3A4
100
AcDbEntity
  8
0
 62
     0
100
AcDbLine
 10
32.32723323743511
 20
16.97286163553775
 30
0.0
 11
34.45523323743515
 21
19.10086163553785
 31
0.0
  0
LINE
  5
4D7
330
3A4
100
AcDbEntity
  8
0
 62
     0
100
AcDbLine
 10
38.40047808566089
 20
23.04610648376359
 30
0.0
 11
41.20047808566096
 21
25.84610648376366
 31
0.0
  0
LINE
  5
4D8
330
3A4
100
AcDbEntity
  8
0
 62
     0
100
AcDbLine
 10
28.61195788471985
 20
13.2575862828225
 30
0.0
 11
30.35047808566094
 21
14.99610648376363
 31
0.0
  0
LINE
  5
4D9
330
3A4
100
AcDbEntity
  8
0
 62
     0
100
AcDbLine
 10
32.11170709052942
 20
17.65536110073901
 30
0.0
 11
34.23970709052946
 21
19.78336110073911
 31
0.0
  0
LINE
  5
4DA
330
3A4
100
AcDbEntity
  8
0
 62
     0
100
AcDbLine
 10
38.40047808566089
 20
23.94413209587054
 30
0.0
 11
41.20047808566096
 21
26.74413209587055
 31
0.0
  0
LINE
  5
4DB
330
3A4
100
AcDbEntity
  8
0
 62
     0
100
AcDbLine
 10
27.7950820202642
 20
13.33873603047385
 30
0.0
 11
30.35047808566094
 21
15.89413209587053
 31
0.0
  0
LINE
  5
4DC
330
3A4
100
AcDbEntity
  8
0
 62
     0
100
AcDbLine
 10
31.89618094362373
 20
18.33786056594027
 30
0.0
 11
34.02418094362377
 21
20.46586056594037
 31
0.0
  0
LINE
  5
4DD
330
3A4
100
AcDbEntity
  8
0
 62
     0
100
AcDbLine
 10
38.40047808566089
 20
24.84215770797743
 30
0.0
 11
41.2004780856609
 21
27.6421577079775
 31
0.0
  0
LINE
  5
4DE
330
3A4
100
AcDbEntity
  8
0
 62
     0
100
AcDbLine
 10
27.55047808566092
 20
13.99215770797747
 30
0.0
 11
30.35047808566099
 21
16.79215770797753
 31
0.0
  0
LINE
  5
4DF
330
3A4
100
AcDbEntity
  8
0
 62
     0
100
AcDbLine
 10
31.6806547967181
 20
19.02036003114147
 30
0.0
 11
33.80865479671825
 21
21.14836003114163
 31
0.0
  0
LINE
  5
4E0
330
3A4
100
AcDbEntity
  8
0
 62
     0
100
AcDbLine
 10
38.40047808566089
 20
25.74018332008432
 30
0.0
 11
41.20047808566096
 21
28.54018332008439
 31
0.0
  0
LINE
  5
4E1
330
3A4
100
AcDbEntity
  8
0
 62
     0
100
AcDbLine
 10
27.55047808566092
 20
14.89018332008436
 30
0.0
 11
30.35047808566099
 21
17.69018332008442
 31
0.0
  0
LINE
  5
4E2
330
3A4
100
AcDbEntity
  8
0
 62
     0
100
AcDbLine
 10
31.44585600974636
 20
19.68358685627674
 30
0.0
 11
34.07615007767736
 21
22.31388092420769
 31
0.0
  0
LINE
  5
4E3
330
3A4
100
AcDbEntity
  8
0
 62
     0
100
AcDbLine
 10
38.40047808566095
 20
26.63820893219133
 30
0.0
 11
41.00420266316251
 21
29.24193350969284
 31
0.0
  0
LINE
  5
4E4
330
3A4
100
AcDbEntity
  8
0
 62
     0
100
AcDbLine
 10
27.55047808566092
 20
15.7882089321913
 30
0.0
 11
30.35047808566099
 21
18.58820893219132
 31
0.0
  0
LINE
  5
4E5
330
3A4
100
AcDbEntity
  8
0
 62
     0
100
AcDbLine
 10
30.75867063987897
 20
19.8944270985163
 30
0.0
 11
34.49062343711125
 21
23.62637989574858
 31
0.0
  0
LINE
  5
4E6
330
3A4
100
AcDbEntity
  8
0
 62
     0
100
AcDbLine
 10
27.55047808566092
 20
16.6862345442982
 30
0.0
 11
30.36363726996722
 21
19.4993937286045
 31
0.0
  0
LINE
  5
4E7
330
3A4
100
AcDbEntity
  8
0
 62
     0
100
AcDbLine
 10
38.40047808566095
 20
27.53623454429822
 30
0.0
 11
40.2218298241853
 21
29.35758628282263
 31
0.0
  0
LINE
  5
4E8
330
3A4
100
AcDbEntity
  8
0
 62
     0
100
AcDbLine
 10
24.12182982418528
 20
13.25758628282255
 30
0.0
 11
25.10047808566094
 21
14.23623454429827
 31
0.0
  0
LINE
  5
4E9
330
3A4
100
AcDbEntity
  8
0
 62
     0
100
AcDbLine
 10
27.55047808566087
 20
17.58426015640515
 30
0.0
 11
34.90509679654519
 21
24.93887886728947
 31
0.0
  0
LINE
  5
4EA
330
3A4
100
AcDbEntity
  8
0
 62
     0
100
AcDbLine
 10
38.40047808566089
 20
28.43426015640517
 30
0.0
 11
39.3238042120783
 21
29.35758628282258
 31
0.0
  0
LINE
  5
4EB
330
3A4
100
AcDbEntity
  8
0
 62
     0
100
AcDbLine
 10
23.22380421207833
 20
13.25758628282261
 30
0.0
 11
25.10047808566099
 21
15.13426015640527
 31
0.0
  0
LINE
  5
4EC
330
3A4
100
AcDbEntity
  8
0
 62
     0
100
AcDbLine
 10
27.55047808566092
 20
18.48228576851198
 30
0.0
 11
35.3195701559793
 21
26.25137783883042
 31
0.0
  0
LINE
  5
4ED
330
3A4
100
AcDbEntity
  8
0
 62
     0
100
AcDbLine
 10
22.33745922432154
 20
13.26926690717266
 30
0.0
 11
24.95914380205476
 21
15.89095148490582
 31
0.0
  0
LINE
  5
4EE
330
3A4
100
AcDbEntity
  8
0
 62
     0
100
AcDbLine
 10
27.55047808566087
 20
19.38031138061893
 30
0.0
 11
30.87775298786453
 21
22.7075862828226
 31
0.0
  0
LINE
  5
4EF
330
3A4
100
AcDbEntity
  8
0
 62
     0
100
AcDbLine
 10
31.64173582310542
 20
23.47156911806348
 30
0.0
 11
35.73404351541324
 21
27.56387681037131
 31
0.0
  0
LINE
  5
4F0
330
3A4
100
AcDbEntity
  8
0
 62
     0
100
AcDbLine
 10
21.56929870687457
 20
13.39913200183258
 30
0.0
 11
24.2277529878645
 21
16.05758628282257
 31
0.0
  0
LINE
  5
4F1
330
3A4
100
AcDbEntity
  8
0
 62
     0
100
AcDbLine
 10
27.55047808566087
 20
20.27833699272588
 30
0.0
 11
30.3684686563692
 21
23.09632756343416
 31
0.0
  0
LINE
  5
4F2
330
3A4
100
AcDbEntity
  8
0
 62
     0
100
AcDbLine
 10
32.05620918253936
 20
24.78406808960432
 30
0.0
 11
36.10911496721456
 21
28.83697387427957
 31
0.0
  0
LINE
  5
4F3
330
3A4
100
AcDbEntity
  8
0
 62
     0
100
AcDbLine
 10
20.90816445004816
 20
13.63602335711317
 30
0.0
 11
23.32972737575761
 21
16.05758628282257
 31
0.0
  0
LINE
  5
4F4
330
3A4
100
AcDbEntity
  8
0
 62
     0
100
AcDbLine
 10
27.55047808566092
 20
21.17636260483271
 30
0.0
 11
30.35047808566094
 21
23.97636260483278
 31
0.0
  0
LINE
  5
4F5
330
3A4
100
AcDbEntity
  8
0
 62
     0
100
AcDbLine
 10
32.4706825419733
 20
26.09656706114515
 30
0.0
 11
35.71510309464537
 21
29.34098761381722
 31
0.0
  0
LINE
  5
4F6
330
3A4
100
AcDbEntity
  8
0
 62
     0
100
AcDbLine
 10
20.33056116588386
 20
13.95644568505565
 30
0.0
 11
22.44662302437672
 21
16.07250754354856
 31
0.0
  0
LINE
  5
4F7
330
3A4
100
AcDbEntity
  8
0
 62
     0
100
AcDbLine
 10
27.55047808566087
 20
22.07438821693966
 30
0.0
 11
30.35047808566094
 21
24.87438821693973
 31
0.0
  0
LINE
  5
4F8
330
3A4
100
AcDbEntity
  8
0
 62
     0
100
AcDbLine
 10
32.88515590140724
 20
27.40906603268598
 30
0.0
 11
34.83367615154378
 21
29.35758628282258
 31
0.0
  0
LINE
  5
4F9
330
3A4
100
AcDbEntity
  8
0
 62
     0
100
AcDbLine
 10
19.8256061995018
 20
14.34951633078054
 30
0.0
 11
21.81230688335841
 21
16.33621701463715
 31
0.0
  0
LINE
  5
4FA
330
3A4
100
AcDbEntity
  8
0
 62
     0
100
AcDbLine
 10
27.55047808566087
 20
22.97241382904656
 30
0.0
 11
30.35047808566094
 21
25.77241382904662
 31
0.0
  0
LINE
  5
4FB
330
3A4
100
AcDbEntity
  8
0
 62
     0
100
AcDbLine
 10
24.21211221743738
 20
19.63404796082312
 30
0.0
 11
25.37401640766046
 21
20.79595215104621
 31
0.0
  0
LINE
  5
4FC
330
3A4
100
AcDbEntity
  8
0
 62
     0
100
AcDbLine
 10
33.29962926084113
 20
28.72156500422687
 30
0.0
 11
33.93565053943683
 21
29.35758628282258
 31
0.0
  0
LINE
  5
4FD
330
3A4
100
AcDbEntity
  8
0
 62
     0
100
AcDbLine
 10
19.38916912617196
 20
14.8111048695577
 30
0.0
 11
21.40205593208623
 21
16.82399167547197
 31
0.0
  0
LINE
  5
4FE
330
3A4
100
AcDbEntity
  8
0
 62
     0
100
AcDbLine
 10
23.28713937580755
 20
19.60710073130025
 30
0.0
 11
25.40096363718333
 21
21.72092499267597
 31
0.0
  0
LINE
  5
4FF
330
3A4
100
AcDbEntity
  8
0
 62
     0
100
AcDbLine
 10
27.55047808566092
 20
23.87043944115356
 30
0.0
 11
30.35047808566099
 21
26.67043944115363
 31
0.0
  0
LINE
  5
500
330
3A4
100
AcDbEntity
  8
0
 62
     0
100
AcDbLine
 10
19.02214990122899
 20
15.34211125672163
 30
0.0
 11
21.25047808566091
 21
17.57043944115361
 31
0.0
  0
LINE
  5
501
330
3A4
100
AcDbEntity
  8
0
 62
     0
100
AcDbLine
 10
22.67299280638735
 20
19.89097977398682
 30
0.0
 11
25.1170845944967
 21
22.33507156209623
 31
0.0
  0
LINE
  5
502
330
3A4
100
AcDbEntity
  8
0
 62
     0
100
AcDbLine
 10
27.55047808566092
 20
24.76846505326045
 30
0.0
 11
30.35047808566099
 21
27.56846505326052
 31
0.0
  0
LINE
  5
503
330
3A4
100
AcDbEntity
  8
0
 62
     0
100
AcDbLine
 10
18.73083239130426
 20
15.94881935890379
 30
0.0
 11
21.25047808566091
 21
18.46846505326044
 31
0.0
  0
LINE
  5
504
330
3A4
100
AcDbEntity
  8
0
 62
     0
100
AcDbLine
 10
22.23503287939763
 20
20.35104545910411
 30
0.0
 11
24.65701890937947
 21
22.77303148908589
 31
0.0
  0
LINE
  5
505
330
3A4
100
AcDbEntity
  8
0
 62
     0
100
AcDbLine
 10
27.55047808566092
 20
25.6664906653674
 30
0.0
 11
30.35047808566099
 21
28.46649066536741
 31
0.0
  0
LINE
  5
506
330
3A4
100
AcDbEntity
  8
0
 62
     0
100
AcDbLine
 10
18.5296950271296
 20
16.64570760683608
 30
0.0
 11
21.25047808566091
 21
19.36649066536739
 31
0.0
  0
LINE
  5
507
330
3A4
100
AcDbEntity
  8
0
 62
     0
100
AcDbLine
 10
21.97898214698926
 20
20.99302033880263
 30
0.0
 11
24.01504402968089
 21
23.02908222149432
 31
0.0
  0
LINE
  5
508
330
3A4
100
AcDbEntity
  8
0
 62
     0
100
AcDbLine
 10
18.45047808566084
 20
17.46451627747427
 30
0.0
 11
21.25047808566091
 21
20.26451627747428
 31
0.0
  0
LINE
  5
509
330
3A4
100
AcDbEntity
  8
0
 62
     0
100
AcDbLine
 10
27.55047808566092
 20
26.56451627747429
 30
0.0
 11
30.1932279773058
 21
29.20726616911924
 31
0.0
  0
LINE
  5
50A
330
3A4
100
AcDbEntity
  8
0
 62
     0
100
AcDbLine
 10
14.36448132778525
 20
13.37851951959868
 30
0.0
 11
16.22954484888498
 21
15.24358304069841
 31
0.0
  0
LINE
  5
50B
330
3A4
100
AcDbEntity
  8
0
 62
     0
100
AcDbLine
 10
22.09739523047005
 20
22.00945903439031
 30
0.0
 11
22.99860533409327
 21
22.91066913801353
 31
0.0
  0
LINE
  5
50C
330
3A4
100
AcDbEntity
  8
0
 62
     0
100
AcDbLine
 10
18.45047808566084
 20
18.3625418895811
 30
0.0
 11
21.25047808566091
 21
21.16254188958117
 31
0.0
  0
LINE
  5
50D
330
3A4
100
AcDbEntity
  8
0
 62
     0
100
AcDbLine
 10
27.55047808566092
 20
27.46254188958118
 30
0.0
 11
29.44552247890232
 21
29.35758628282258
 31
0.0
  0
LINE
  5
50E
330
3A4
100
AcDbEntity
  8
0
 62
     0
100
AcDbLine
 10
13.34552247890229
 20
13.25758628282255
 30
0.0
 11
16.35047808566105
 21
16.26254188958125
 31
0.0
  0
LINE
  5
50F
330
3A4
100
AcDbEntity
  8
0
 62
     0
100
AcDbLine
 10
18.45047808566084
 20
19.26056750168805
 30
0.0
 11
21.25047808566091
 21
22.06056750168812
 31
0.0
  0
LINE
  5
510
330
3A4
100
AcDbEntity
  8
0
 62
     0
100
AcDbLine
 10
27.55047808566092
 20
28.36056750168808
 30
0.0
 11
28.54749686679543
 21
29.35758628282263
 31
0.0
  0
LINE
  5
511
330
3A4
100
AcDbEntity
  8
0
 62
     0
100
AcDbLine
 10
12.44749686679529
 20
13.2575862828225
 30
0.0
 11
16.35047808566099
 21
17.1605675016882
 31
0.0
  0
LINE
  5
512
330
3A4
100
AcDbEntity
  8
0
 62
     0
100
AcDbLine
 10
18.45047808566084
 20
20.15859311379494
 30
0.0
 11
21.25047808566085
 21
22.95859311379501
 31
0.0
  0
LINE
  5
513
330
3A4
100
AcDbEntity
  8
0
 62
     0
100
AcDbLine
 10
11.54947125468845
 20
13.25758628282261
 30
0.0
 11
16.34653873309974
 21
18.0546537612339
 31
0.0
  0
LINE
  5
514
330
3A4
100
AcDbEntity
  8
0
 62
     0
100
AcDbLine
 10
18.45047808566084
 20
21.05661872590189
 30
0.0
 11
21.25047808566091
 21
23.85661872590196
 31
0.0
  0
LINE
  5
515
330
3A4
100
AcDbEntity
  8
0
 62
     0
100
AcDbLine
 10
23.95144564258163
 20
26.55758628282268
 30
0.0
 11
25.10047808566105
 21
27.7066187259021
 31
0.0
  0
LINE
  5
516
330
3A4
100
AcDbEntity
  8
0
 62
     0
100
AcDbLine
 10
10.6514456425815
 20
13.25758628282255
 30
0.0
 11
16.23687689677842
 21
18.84301753701947
 31
0.0
  0
LINE
  5
517
330
3A4
100
AcDbEntity
  8
0
 62
     0
100
AcDbLine
 10
18.45047808566084
 20
21.95464433800879
 30
0.0
 11
21.25047808566091
 21
24.7546443380088
 31
0.0
  0
LINE
  5
518
330
3A4
100
AcDbEntity
  8
0
 62
     0
100
AcDbLine
 10
13.55047808566092
 20
17.05464433800887
 30
0.0
 11
16.0145381527343
 21
19.51870440508224
 31
0.0
  0
LINE
  5
519
330
3A4
100
AcDbEntity
  8
0
 62
     0
100
AcDbLine
 10
23.05342003047462
 20
26.55758628282256
 30
0.0
 11
25.10047808566105
 21
28.60464433800894
 31
0.0
  0
LINE
  5
51A
330
3A4
100
AcDbEntity
  8
0
 62
     0
100
AcDbLine
 10
9.811145905734576
 20
13.31531215808252
 30
0.0
 11
12.55342003047462
 21
16.05758628282257
 31
0.0
  0
LINE
  5
51B
330
3A4
100
AcDbEntity
  8
0
 62
     0
100
AcDbLine
 10
18.45047808566079
 20
22.85266995011568
 30
0.0
 11
21.41629279144058
 21
25.81848465589547
 31
0.0
  0
LINE
  5
51C
330
3A4
100
AcDbEntity
  8
0
 62
     0
100
AcDbLine
 10
13.54831899405167
 20
17.9505108585065
 30
0.0
 11
15.70610661806227
 21
20.10829848251717
 31
0.0
  0
LINE
  5
51D
330
3A4
100
AcDbEntity
  8
0
 62
     0
100
AcDbLine
 10
21.98957971258812
 20
26.39177157704301
 30
0.0
 11
24.86701067074113
 21
29.26920253519597
 31
0.0
  0
LINE
  5
51E
330
3A4
100
AcDbEntity
  8
0
 62
     0
100
AcDbLine
 10
9.52547808566095
 20
13.92766995011578
 30
0.0
 11
11.65539441836773
 21
16.05758628282257
 31
0.0
  0
LINE
  5
51F
330
3A4
100
AcDbEntity
  8
0
 62
     0
100
AcDbLine
 10
13.32871597455095
 20
18.6289334511128
 30
0.0
 11
15.32386465322338
 21
20.62408212978522
 31
0.0
  0
LINE
  5
520
330
3A4
100
AcDbEntity
  8
0
 62
     0
100
AcDbLine
 10
18.45047808566079
 20
23.75069556222263
 30
0.0
 11
24.05736880626085
 21
29.35758628282269
 31
0.0
  0
LINE
  5
521
330
3A4
100
AcDbEntity
  8
0
 62
     0
100
AcDbLine
 10
9.525478085660893
 20
14.82569556222273
 30
0.0
 11
10.75736880626078
 21
16.05758628282262
 31
0.0
  0
LINE
  5
522
330
3A4
100
AcDbEntity
  8
0
 62
     0
100
AcDbLine
 10
12.90246114624625
 20
19.10070423491492
 30
0.0
 11
14.88236013356862
 21
21.08060322223729
 31
0.0
  0
LINE
  5
523
330
3A4
100
AcDbEntity
  8
0
 62
     0
100
AcDbLine
 10
18.45047808566084
 20
24.64872117432946
 30
0.0
 11
23.15934319415379
 21
29.35758628282247
 31
0.0
  0
LINE
  5
524
330
3A4
100
AcDbEntity
  8
0
 62
     0
100
AcDbLine
 10
9.594430007680671
 20
15.79267309634934
 30
0.0
 11
9.790391272134286
 21
15.98863436080296
 31
0.0
  0
LINE
  5
525
330
3A4
100
AcDbEntity
  8
0
 62
     0
100
AcDbLine
 10
18.47045319981742
 20
25.56672190059299
 30
0.0
 11
22.24134246789043
 21
29.33761116866605
 31
0.0
  0
LINE
  5
526
330
3A4
100
AcDbEntity
  8
0
 62
     0
100
AcDbLine
 10
12.45344834019277
 20
19.5497170409684
 30
0.0
 11
14.43334732751515
 21
21.52961602829077
 31
0.0
  0
LINE
  5
527
330
3A4
100
AcDbEntity
  8
0
 62
     0
100
AcDbLine
 10
18.7699166320832
 20
26.76421094496578
 30
0.0
 11
21.0438534235177
 21
29.03814773640027
 31
0.0
  0
LINE
  5
528
330
3A4
100
AcDbEntity
  8
0
 62
     0
100
AcDbLine
 10
12.0044355341393
 20
19.99872984702187
 30
0.0
 11
13.98433452146167
 21
21.97862883434424
 31
0.0
  0
LINE
  5
529
330
3A4
100
AcDbEntity
  8
0
 62
     0
100
AcDbLine
 10
11.55542272808588
 20
20.44774265307529
 30
0.0
 11
13.5353217154082
 21
22.42764164039755
 31
0.0
  0
LINE
  5
52A
330
3A4
100
AcDbEntity
  8
0
 62
     0
100
AcDbLine
 10
11.10640992203241
 20
20.89675545912876
 30
0.0
 11
13.08630890935472
 21
22.87665444645103
 31
0.0
  0
LINE
  5
52B
330
3A4
100
AcDbEntity
  8
0
 62
     0
100
AcDbLine
 10
10.65739711597893
 20
21.34576826518224
 30
0.0
 11
12.63729610330125
 21
23.3256672525045
 31
0.0
  0
LINE
  5
52C
330
3A4
100
AcDbEntity
  8
0
 62
     0
100
AcDbLine
 10
14.97118952151237
 20
26.55758628282256
 30
0.0
 11
15.82547808566084
 21
27.4118748469711
 31
0.0
  0
LINE
  5
52D
330
3A4
100
AcDbEntity
  8
0
 62
     0
100
AcDbLine
 10
10.20846762395359
 20
21.79486438526385
 30
0.0
 11
12.18853326738605
 21
23.7749300286963
 31
0.0
  0
LINE
  5
52E
330
3A4
100
AcDbEntity
  8
0
 62
     0
100
AcDbLine
 10
14.07316390940548
 20
26.55758628282256
 30
0.0
 11
15.8254780856609
 21
28.30990045907799
 31
0.0
  0
LINE
  5
52F
330
3A4
100
AcDbEntity
  8
0
 62
     0
100
AcDbLine
 10
9.796999699402022
 20
22.28142207281905
 30
0.0
 11
11.85863638609811
 21
24.3430587595152
 31
0.0
  0
LINE
  5
530
330
3A4
100
AcDbEntity
  8
0
 62
     0
100
AcDbLine
 10
13.17513829729853
 20
26.55758628282256
 30
0.0
 11
15.73891918589976
 21
29.12136717142379
 31
0.0
  0
LINE
  5
531
330
3A4
100
AcDbEntity
  8
0
 62
     0
100
AcDbLine
 10
9.456539093139554
 20
22.83898707866353
 30
0.0
 11
11.80047808566098
 21
25.18292607118496
 31
0.0
  0
LINE
  5
532
330
3A4
100
AcDbEntity
  8
0
 62
     0
100
AcDbLine
 10
12.27464603602152
 20
26.55511963365245
 30
0.0
 11
15.0771126851917
 21
29.35758628282263
 31
0.0
  0
LINE
  5
533
330
3A4
100
AcDbEntity
  8
0
 62
     0
100
AcDbLine
 10
9.195845797407457
 20
23.47631939503838
 30
0.0
 11
11.80294473483104
 21
26.08341833246203
 31
0.0
  0
LINE
  5
534
330
3A4
100
AcDbEntity
  8
0
 62
     0
100
AcDbLine
 10
9.034033835159391
 20
24.21253304489721
 30
0.0
 11
14.17908707308481
 21
29.35758628282263
 31
0.0
  0
LINE
  5
535
330
3A4
100
AcDbEntity
  8
0
 62
     0
100
AcDbLine
 10
9.000478085660972
 20
25.07700290750574
 30
0.0
 11
13.2810614609778
 21
29.35758628282258
 31
0.0
  0
LINE
  5
536
330
3A4
100
AcDbEntity
  8
0
 62
     0
100
AcDbLine
 10
9.000478085660972
 20
25.97502851961263
 30
0.0
 11
12.38303584887086
 21
29.35758628282258
 31
0.0
  0
LINE
  5
537
330
3A4
100
AcDbEntity
  8
0
 62
     0
100
AcDbLine
 10
9.020670096099195
 20
26.8932461421578
 30
0.0
 11
11.4648182263258
 21
29.33739427238441
 31
0.0
  0
ENDBLK
  5
539
330
3A4
100
AcDbEntity
  8
0
100
AcDbBlockEnd
  0
BLOCK
  5
E2E4
330
E2DA
100
AcDbEntity
  8
0
 48
0.5
100
AcDbBlockBegin
  2
*D2
 70
     1
 10
0.0
 20
0.0
 30
0.0
  3
*D2
  1

  0
LINE
  5
E6B9
330
E2DA
100
AcDbEntity
  8
SUNPOU
 48
2.0
100
AcDbLine
 10
415.5799552651829
 20
223.1653952744177
 30
0.0
 11
415.5799552651829
 21
252.5621702176836
 31
0.0
  0
LINE
  5
E6BA
330
E2DA
100
AcDbEntity
  8
SUNPOU
 48
2.0
100
AcDbLine
 10
380.8699847143138
 20
224.9593632680712
 30
0.0
 11
380.8699847143138
 21
252.5621702176836
 31
0.0
  0
LINE
  5
E6BB
330
E2DA
100
AcDbEntity
  8
SUNPOU
 48
2.0
100
AcDbLine
 10
408.5799552651828
 20
249.5621702176836
 30
0.0
 11
387.8699847143138
 21
249.5621702176836
 31
0.0
  0
INSERT
  5
E6BC
330
E2DA
100
AcDbEntity
  8
SUNPOU
 48
2.0
100
AcDbBlockReference
  2
_OPEN
 10
415.5799552651829
 20
249.5621702176836
 30
0.0
 41
7.0
 42
7.0
 43
7.0
  0
INSERT
  5
E6BD
330
E2DA
100
AcDbEntity
  8
SUNPOU
 48
2.0
100
AcDbBlockReference
  2
_OPEN
 10
380.8699847143138
 20
249.5621702176836
 30
0.0
 41
7.0
 42
7.0
 43
7.0
 50
180.0
  0
MTEXT
  5
E6BE
330
E2DA
100
AcDbEntity
  8
SUNPOU
 48
2.0
100
AcDbMText
 10
398.2249699897483
 20
254.5621702176836
 30
0.0
 40
6.0
 41
0.0
 71
     5
 72
     5
  1
\A1;35
 73
     1
 44
1.0
1001
ACAD
1000
MTEXTBEGIN
1070
    73
1070
     1
1070
    44
1040
1.0
1070
    74
1070
     0
1000
MTEXTEND
1000
MTEXTBEGIN
1070
    73
1070
     1
1070
    44
1040
1.0
1070
    74
1070
     0
1000
MTEXTEND
1000
MTEXTBEGIN
1070
    73
1070
     1
1070
    44
1040
1.0
1070
    74
1070
     0
1000
MTEXTEND
  0
POINT
  5
E6BF
330
E2DA
100
AcDbEntity
  8
DEFPOINTS
 62
     0
 48
2.0
100
AcDbPoint
 10
415.5799552651829
 20
217.1653952744177
 30
0.0
  0
POINT
  5
E6C0
330
E2DA
100
AcDbEntity
  8
DEFPOINTS
 62
     0
 48
2.0
100
AcDbPoint
 10
380.8699847143138
 20
218.9593632680712
 30
0.0
  0
POINT
  5
E6C1
330
E2DA
100
AcDbEntity
  8
DEFPOINTS
 62
     0
 48
2.0
100
AcDbPoint
 10
380.8699847143138
 20
249.5621702176836
 30
0.0
  0
ENDBLK
  5
E2E5
330
E2DA
100
AcDbEntity
  8
0
 48
0.5
100
AcDbBlockEnd
  0
BLOCK
  5
E2F0
330
E2E6
100
AcDbEntity
  8
0
 48
0.5
100
AcDbBlockBegin
  2
*D3
 70
     1
 10
0.0
 20
0.0
 30
0.0
  3
*D3
  1

  0
LINE
  5
E683
330
E2E6
100
AcDbEntity
  8
SUNPOU
 48
2.0
100
AcDbLine
 10
314.5441782651828
 20
469.4141412744177
 30
0.0
 11
314.5441782651828
 21
475.5683370461559
 31
0.0
  0
LINE
  5
E684
330
E2E6
100
AcDbEntity
  8
SUNPOU
 48
2.0
100
AcDbLine
 10
415.5799552651829
 20
223.1653952744177
 30
0.0
 11
415.5799552651829
 21
475.5683370461559
 31
0.0
  0
LINE
  5
E685
330
E2E6
100
AcDbEntity
  8
SUNPOU
 48
2.0
100
AcDbLine
 10
321.5441782651828
 20
472.5683370461559
 30
0.0
 11
408.5799552651828
 21
472.5683370461559
 31
0.0
  0
INSERT
  5
E686
330
E2E6
100
AcDbEntity
  8
SUNPOU
 48
2.0
100
AcDbBlockReference
  2
_OPEN
 10
314.5441782651828
 20
472.5683370461559
 30
0.0
 41
7.0
 42
7.0
 43
7.0
 50
180.0
  0
INSERT
  5
E687
330
E2E6
100
AcDbEntity
  8
SUNPOU
 48
2.0
100
AcDbBlockReference
  2
_OPEN
 10
415.5799552651829
 20
472.5683370461559
 30
0.0
 41
7.0
 42
7.0
 43
7.0
  0
MTEXT
  5
E688
330
E2E6
100
AcDbEntity
  8
SUNPOU
 48
2.0
100
AcDbMText
 10
365.0620667651828
 20
477.5683370461559
 30
0.0
 40
6.0
 41
0.0
 71
     5
 72
     5
  1
\A1;101
 73
     1
 44
1.0
1001
ACAD
1000
MTEXTBEGIN
1070
    73
1070
     1
1070
    44
1040
1.0
1070
    74
1070
     0
1000
MTEXTEND
1000
MTEXTBEGIN
1070
    73
1070
     1
1070
    44
1040
1.0
1070
    74
1070
     0
1000
MTEXTEND
1000
MTEXTBEGIN
1070
    73
1070
     1
1070
    44
1040
1.0
1070
    74
1070
     0
1000
MTEXTEND
  0
POINT
  5
E689
330
E2E6
100
AcDbEntity
  8
DEFPOINTS
 62
     0
 48
2.0
100
AcDbPoint
 10
314.5441782651828
 20
463.4141412744177
 30
0.0
  0
POINT
  5
E68A
330
E2E6
100
AcDbEntity
  8
DEFPOINTS
 62
     0
 48
2.0
100
AcDbPoint
 10
415.5799552651829
 20
217.1653952744177
 30
0.0
  0
POINT
  5
E68B
330
E2E6
100
AcDbEntity
  8
DEFPOINTS
 62
     0
 48
2.0
100
AcDbPoint
 10
415.5799552651829
 20
472.5683370461559
 30
0.0
  0
ENDBLK
  5
E2F1
330
E2E6
100
AcDbEntity
  8
0
 48
0.5
100
AcDbBlockEnd
  0
BLOCK
  5
E2FC
330
E2F2
100
AcDbEntity
  8
0
 48
0.5
100
AcDbBlockBegin
  2
*D4
 70
     1
 10
0.0
 20
0.0
 30
0.0
  3
*D4
  1

  0
LINE
  5
EB93
330
E2F2
100
AcDbEntity
  8
SUNPOU
 62
     4
 48
2.0
100
AcDbLine
 10
415.5799552651829
 20
204.7563042744176
 30
0.0
 11
415.5799552651829
 21
304.6539926250234
 31
0.0
  0
LINE
  5
EB94
330
E2F2
100
AcDbEntity
  8
SUNPOU
 62
     4
 48
2.0
100
AcDbLine
 10
207.1799552651827
 20
234.7563042744176
 30
0.0
 11
207.1799552651827
 21
304.6539926250234
 31
0.0
  0
LINE
  5
EB95
330
E2F2
100
AcDbEntity
  8
SUNPOU
 62
     4
 48
2.0
100
AcDbLine
 10
408.5799552651828
 20
301.6539926250235
 30
0.0
 11
214.1799552651828
 21
301.6539926250235
 31
0.0
  0
MTEXT
  5
EB96
330
E2F2
100
AcDbEntity
  8
SUNPOU
 62
     4
 48
2.0
100
AcDbMText
 10
359.0347775938935
 20
308.627975645591
 30
0.0
 40
6.0
 41
0.0
 71
     5
 72
     5
  1
\A1;208
 73
     1
 44
1.0
  0
INSERT
  5
EB97
330
E2F2
100
AcDbEntity
  8
SUNPOU
 62
     4
 48
2.0
100
AcDbBlockReference
  2
_OPEN
 10
415.5799552651829
 20
301.6539926250235
 30
0.0
 41
7.0
 42
7.0
 43
7.0
  0
INSERT
  5
EB98
330
E2F2
100
AcDbEntity
  8
SUNPOU
 62
     4
 48
2.0
100
AcDbBlockReference
  2
_OPEN
 10
207.1799552651827
 20
301.6539926250235
 30
0.0
 41
7.0
 42
7.0
 43
7.0
 50
180.0
  0
POINT
  5
EB99
330
E2F2
100
AcDbEntity
  8
DEFPOINTS
 62
     0
 48
2.0
100
AcDbPoint
 10
415.5799552651829
 20
198.7563042744176
 30
0.0
  0
POINT
  5
EB9A
330
E2F2
100
AcDbEntity
  8
DEFPOINTS
 62
     0
 48
2.0
100
AcDbPoint
 10
207.1799552651827
 20
228.7563042744177
 30
0.0
  0
POINT
  5
EB9B
330
E2F2
100
AcDbEntity
  8
DEFPOINTS
 62
     0
 48
2.0
100
AcDbPoint
 10
207.1799552651827
 20
301.6539926250235
 30
0.0
  0
ENDBLK
  5
E2FD
330
E2F2
100
AcDbEntity
  8
0
 48
0.5
100
AcDbBlockEnd
  0
BLOCK
  5
E308
330
E2FE
100
AcDbEntity
  8
0
 48
0.5
100
AcDbBlockBegin
  2
*D5
 70
     1
 10
0.0
 20
0.0
 30
0.0
  3
*D5
  1

  0
LINE
  5
E6B0
330
E2FE
100
AcDbEntity
  8
SUNPOU
 62
     4
 48
2.0
370
    -2
100
AcDbLine
 10
402.9727517848812
 20
222.908949245793
 30
0.0
 11
359.1621814446875
 21
222.908949245793
 31
0.0
  0
LINE
  5
E6B1
330
E2FE
100
AcDbEntity
  8
SUNPOU
 62
     4
 48
2.0
370
    -2
100
AcDbLine
 10
365.9793332651827
 20
196.4563042744177
 30
0.0
 11
359.1621814446875
 21
196.4563042744177
 31
0.0
  0
LINE
  5
E6B2
330
E2FE
100
AcDbEntity
  8
SUNPOU
 62
     4
 48
2.0
370
    -2
100
AcDbLine
 10
362.1621814446875
 20
215.9089492457929
 30
0.0
 11
362.1621814446875
 21
203.4563042744177
 31
0.0
  0
INSERT
  5
E6B3
330
E2FE
100
AcDbEntity
  8
SUNPOU
 62
     4
 48
2.0
370
    -2
100
AcDbBlockReference
  2
_OPEN
 10
362.1621814446875
 20
222.908949245793
 30
0.0
 41
7.0
 42
7.0
 43
7.0
 50
90.0
  0
INSERT
  5
E6B4
330
E2FE
100
AcDbEntity
  8
SUNPOU
 62
     4
 48
2.0
370
    -2
100
AcDbBlockReference
  2
_OPEN
 10
362.1621814446875
 20
196.4563042744177
 30
0.0
 41
7.0
 42
7.0
 43
7.0
 50
270.0
  0
MTEXT
  5
E6B5
330
E2FE
100
AcDbEntity
  8
SUNPOU
 62
     4
 48
2.0
100
AcDbMText
 10
357.1621814446875
 20
209.6826267601054
 30
0.0
 40
6.0
 41
0.0
 71
     5
 72
     5
  1
\A1;27
 11
0.0000000000000001
 21
1.0
 31
0.0
 73
     1
 44
1.0
1001
ACAD
1000
MTEXTBEGIN
1070
    73
1070
     1
1070
    44
1040
1.0
1070
    74
1070
     0
1000
MTEXTEND
1000
MTEXTBEGIN
1070
    73
1070
     1
1070
    44
1040
1.0
1070
    74
1070
     0
1000
MTEXTEND
1000
MTEXTBEGIN
1070
    73
1070
     1
1070
    44
1040
1.0
1070
    74
1070
     0
1000
MTEXTEND
  0
POINT
  5
E6B6
330
E2FE
100
AcDbEntity
  8
DEFPOINTS
 62
     0
 48
2.0
100
AcDbPoint
 10
408.9727517848812
 20
222.908949245793
 30
0.0
  0
POINT
  5
E6B7
330
E2FE
100
AcDbEntity
  8
DEFPOINTS
 62
     0
 48
2.0
100
AcDbPoint
 10
371.9793332651827
 20
196.4563042744177
 30
0.0
  0
POINT
  5
E6B8
330
E2FE
100
AcDbEntity
  8
DEFPOINTS
 62
     0
 48
2.0
100
AcDbPoint
 10
362.1621814446875
 20
196.4563042744177
 30
0.0
  0
ENDBLK
  5
E309
330
E2FE
100
AcDbEntity
  8
0
 48
0.5
100
AcDbBlockEnd
  0
BLOCK
  5
E314
330
E30A
100
AcDbEntity
  8
0
 48
0.5
100
AcDbBlockBegin
  2
*D6
 70
     1
 10
0.0
 20
0.0
 30
0.0
  3
*D6
  1

  0
LINE
  5
E68C
330
E30A
100
AcDbEntity
  8
SUNPOU
 48
2.0
100
AcDbLine
 10
314.5441782651828
 20
469.4141412744177
 30
0.0
 11
314.5441782651828
 21
475.5683370461559
 31
0.0
  0
LINE
  5
E68D
330
E30A
100
AcDbEntity
  8
SUNPOU
 48
2.0
100
AcDbLine
 10
207.1799552651827
 20
253.1653942744176
 30
0.0
 11
207.1799552651827
 21
475.5683370461559
 31
0.0
  0
LINE
  5
E68E
330
E30A
100
AcDbEntity
  8
SUNPOU
 48
2.0
100
AcDbLine
 10
307.5441782651828
 20
472.5683370461559
 30
0.0
 11
214.1799552651828
 21
472.5683370461559
 31
0.0
  0
INSERT
  5
E68F
330
E30A
100
AcDbEntity
  8
SUNPOU
 48
2.0
100
AcDbBlockReference
  2
_OPEN
 10
314.5441782651828
 20
472.5683370461559
 30
0.0
 41
7.0
 42
7.0
 43
7.0
  0
INSERT
  5
E690
330
E30A
100
AcDbEntity
  8
SUNPOU
 48
2.0
100
AcDbBlockReference
  2
_OPEN
 10
207.1799552651827
 20
472.5683370461559
 30
0.0
 41
7.0
 42
7.0
 43
7.0
 50
180.0
  0
MTEXT
  5
E691
330
E30A
100
AcDbEntity
  8
SUNPOU
 48
2.0
100
AcDbMText
 10
260.8620667651828
 20
477.5683370461559
 30
0.0
 40
6.0
 41
0.0
 71
     5
 72
     5
  1
\A1;107
 73
     1
 44
1.0
1001
ACAD
1000
MTEXTBEGIN
1070
    73
1070
     1
1070
    44
1040
1.0
1070
    74
1070
     0
1000
MTEXTEND
1000
MTEXTBEGIN
1070
    73
1070
     1
1070
    44
1040
1.0
1070
    74
1070
     0
1000
MTEXTEND
1000
MTEXTBEGIN
1070
    73
1070
     1
1070
    44
1040
1.0
1070
    74
1070
     0
1000
MTEXTEND
  0
POINT
  5
E692
330
E30A
100
AcDbEntity
  8
DEFPOINTS
 62
     0
 48
2.0
100
AcDbPoint
 10
314.5441782651828
 20
463.4141412744177
 30
0.0
  0
POINT
  5
E693
330
E30A
100
AcDbEntity
  8
DEFPOINTS
 62
     0
 48
2.0
100
AcDbPoint
 10
207.1799552651827
 20
247.1653942744176
 30
0.0
  0
POINT
  5
E694
330
E30A
100
AcDbEntity
  8
DEFPOINTS
 62
     0
 48
2.0
100
AcDbPoint
 10
207.1799552651827
 20
472.5683370461559
 30
0.0
  0
ENDBLK
  5
E315
330
E30A
100
AcDbEntity
  8
0
 48
0.5
100
AcDbBlockEnd
  0
BLOCK
  5
E320
330
E316
100
AcDbEntity
  8
0
 48
0.5
100
AcDbBlockBegin
  2
*D7
 70
     1
 10
0.0
 20
0.0
 30
0.0
  3
*D7
  1

  0
LINE
  5
E67A
330
E316
100
AcDbEntity
  8
SUNPOU
 62
     4
 48
2.0
370
    -2
100
AcDbLine
 10
303.5642882651827
 20
177.4564042744177
 30
0.0
 11
144.35373466924
 21
177.4564042744177
 31
0.0
  0
LINE
  5
E67B
330
E316
100
AcDbEntity
  8
SUNPOU
 62
     4
 48
2.0
370
    -2
100
AcDbLine
 10
303.5441782651828
 20
447.4564042744177
 30
0.0
 11
144.3537346692401
 21
447.4564042744177
 31
0.0
  0
LINE
  5
E67C
330
E316
100
AcDbEntity
  8
SUNPOU
 62
     4
 48
2.0
370
    -2
100
AcDbLine
 10
147.35373466924
 20
184.4564042744177
 30
0.0
 11
147.3537346692401
 21
440.4564042744176
 31
0.0
  0
INSERT
  5
E67D
330
E316
100
AcDbEntity
  8
SUNPOU
 62
     4
 48
2.0
370
    -2
100
AcDbBlockReference
  2
_OPEN
 10
147.35373466924
 20
177.4564042744177
 30
0.0
 41
7.0
 42
7.0
 43
7.0
 50
270.0
  0
INSERT
  5
E67E
330
E316
100
AcDbEntity
  8
SUNPOU
 62
     4
 48
2.0
370
    -2
100
AcDbBlockReference
  2
_OPEN
 10
147.3537346692401
 20
447.4564042744177
 30
0.0
 41
7.0
 42
7.0
 43
7.0
 50
90.0
  0
MTEXT
  5
E67F
330
E316
100
AcDbEntity
  8
SUNPOU
 62
     4
 48
2.0
100
AcDbMText
 10
142.35373466924
 20
312.4564042744177
 30
0.0
 40
6.0
 41
0.0
 71
     5
 72
     5
  1
\A1;270
 11
0.0000000000000001
 21
1.0
 31
0.0
 73
     1
 44
1.0
1001
ACAD
1000
MTEXTBEGIN
1070
    73
1070
     1
1070
    44
1040
1.0
1070
    74
1070
     0
1000
MTEXTEND
1000
MTEXTBEGIN
1070
    73
1070
     1
1070
    44
1040
1.0
1070
    74
1070
     0
1000
MTEXTEND
1000
MTEXTBEGIN
1070
    73
1070
     1
1070
    44
1040
1.0
1070
    74
1070
     0
1000
MTEXTEND
  0
POINT
  5
E680
330
E316
100
AcDbEntity
  8
DEFPOINTS
 62
     0
 48
2.0
100
AcDbPoint
 10
309.5642882651827
 20
177.4564042744177
 30
0.0
  0
POINT
  5
E681
330
E316
100
AcDbEntity
  8
DEFPOINTS
 62
     0
 48
2.0
100
AcDbPoint
 10
309.5441782651828
 20
447.4564042744177
 30
0.0
  0
POINT
  5
E682
330
E316
100
AcDbEntity
  8
DEFPOINTS
 62
     0
 48
2.0
100
AcDbPoint
 10
147.3537346692401
 20
447.4564042744177
 30
0.0
  0
ENDBLK
  5
E321
330
E316
100
AcDbEntity
  8
0
 48
0.5
100
AcDbBlockEnd
  0
BLOCK
  5
E32C
330
E322
100
AcDbEntity
  8
0
 48
0.5
100
AcDbBlockBegin
  2
*D8
 70
     1
 10
0.0
 20
0.0
 30
0.0
  3
*D8
  1

  0
LINE
  5
E695
330
E322
100
AcDbEntity
  8
SUNPOU
 62
     4
 48
2.0
370
    -2
100
AcDbLine
 10
219.7871587790439
 20
252.9089492410764
 30
0.0
 11
275.4731532022574
 21
252.9089492410764
 31
0.0
  0
LINE
  5
E696
330
E322
100
AcDbEntity
  8
SUNPOU
 62
     4
 48
2.0
370
    -2
100
AcDbLine
 10
263.1492422651827
 20
196.4563043154794
 30
0.0
 11
275.4731532022574
 21
196.4563043154794
 31
0.0
  0
LINE
  5
E697
330
E322
100
AcDbEntity
  8
SUNPOU
 62
     4
 48
2.0
370
    -2
100
AcDbLine
 10
272.4731532022574
 20
245.9089492410764
 30
0.0
 11
272.4731532022574
 21
203.4563043154794
 31
0.0
  0
INSERT
  5
E698
330
E322
100
AcDbEntity
  8
SUNPOU
 62
     4
 48
2.0
370
    -2
100
AcDbBlockReference
  2
_OPEN
 10
272.4731532022574
 20
252.9089492410764
 30
0.0
 41
7.0
 42
7.0
 43
7.0
 50
90.0
  0
INSERT
  5
E699
330
E322
100
AcDbEntity
  8
SUNPOU
 62
     4
 48
2.0
370
    -2
100
AcDbBlockReference
  2
_OPEN
 10
272.4731532022574
 20
196.4563043154794
 30
0.0
 41
7.0
 42
7.0
 43
7.0
 50
270.0
  0
MTEXT
  5
E69A
330
E322
100
AcDbEntity
  8
SUNPOU
 62
     4
 48
2.0
100
AcDbMText
 10
267.4731532022573
 20
224.6826267782779
 30
0.0
 40
6.0
 41
0.0
 71
     5
 72
     5
  1
\A1;57
 11
0.0000000000000001
 21
1.0
 31
0.0
 73
     1
 44
1.0
1001
ACAD
1000
MTEXTBEGIN
1070
    73
1070
     1
1070
    44
1040
1.0
1070
    74
1070
     0
1000
MTEXTEND
1000
MTEXTBEGIN
1070
    73
1070
     1
1070
    44
1040
1.0
1070
    74
1070
     0
1000
MTEXTEND
1000
MTEXTBEGIN
1070
    73
1070
     1
1070
    44
1040
1.0
1070
    74
1070
     0
1000
MTEXTEND
  0
POINT
  5
E69B
330
E322
100
AcDbEntity
  8
DEFPOINTS
 62
     0
 48
2.0
100
AcDbPoint
 10
213.7871587790439
 20
252.9089492410764
 30
0.0
  0
POINT
  5
E69C
330
E322
100
AcDbEntity
  8
DEFPOINTS
 62
     0
 48
2.0
100
AcDbPoint
 10
257.1492422651826
 20
196.4563043154794
 30
0.0
  0
POINT
  5
E69D
330
E322
100
AcDbEntity
  8
DEFPOINTS
 62
     0
 48
2.0
100
AcDbPoint
 10
272.4731532022574
 20
196.4563043154794
 30
0.0
  0
ENDBLK
  5
E32D
330
E322
100
AcDbEntity
  8
0
 48
0.5
100
AcDbBlockEnd
  0
BLOCK
  5
E338
330
E32E
100
AcDbEntity
  8
0
 48
0.5
100
AcDbBlockBegin
  2
*D9
 70
     1
 10
0.0
 20
0.0
 30
0.0
  3
*D9
  1

  0
LINE
  5
E6A7
330
E32E
100
AcDbEntity
  8
SUNPOU
 48
2.0
100
AcDbLine
 10
207.7871587790439
 20
252.9089492410764
 30
0.0
 11
181.9480180049472
 21
252.9089492410764
 31
0.0
  0
LINE
  5
E6A8
330
E32E
100
AcDbEntity
  8
SUNPOU
 48
2.0
100
AcDbLine
 10
205.9799552651827
 20
223.9563042744176
 30
0.0
 11
181.9480180049472
 21
223.9563042744177
 31
0.0
  0
LINE
  5
E6A9
330
E32E
100
AcDbEntity
  8
SUNPOU
 48
2.0
100
AcDbLine
 10
184.9480180049472
 20
245.9089492410765
 30
0.0
 11
184.9480180049472
 21
230.9563042744176
 31
0.0
  0
INSERT
  5
E6AA
330
E32E
100
AcDbEntity
  8
SUNPOU
 48
2.0
100
AcDbBlockReference
  2
_OPEN
 10
184.9480180049472
 20
252.9089492410764
 30
0.0
 41
7.0
 42
7.0
 43
7.0
 50
90.0
  0
INSERT
  5
E6AB
330
E32E
100
AcDbEntity
  8
SUNPOU
 48
2.0
100
AcDbBlockReference
  2
_OPEN
 10
184.9480180049472
 20
223.9563042744177
 30
0.0
 41
7.0
 42
7.0
 43
7.0
 50
270.0
  0
MTEXT
  5
E6AC
330
E32E
100
AcDbEntity
  8
SUNPOU
 48
2.0
100
AcDbMText
 10
179.9480180049472
 20
238.4326267577471
 30
0.0
 40
6.0
 41
0.0
 71
     5
 72
     5
  1
\A1;29
 11
0.0000000000000001
 21
1.0
 31
0.0
 73
     1
 44
1.0
1001
ACAD
1000
MTEXTBEGIN
1070
    73
1070
     1
1070
    44
1040
1.0
1070
    74
1070
     0
1000
MTEXTEND
1000
MTEXTBEGIN
1070
    73
1070
     1
1070
    44
1040
1.0
1070
    74
1070
     0
1000
MTEXTEND
1000
MTEXTBEGIN
1070
    73
1070
     1
1070
    44
1040
1.0
1070
    74
1070
     0
1000
MTEXTEND
  0
POINT
  5
E6AD
330
E32E
100
AcDbEntity
  8
DEFPOINTS
 62
     0
 48
2.0
100
AcDbPoint
 10
213.7871587790439
 20
252.9089492410764
 30
0.0
  0
POINT
  5
E6AE
330
E32E
100
AcDbEntity
  8
DEFPOINTS
 62
     0
 48
2.0
100
AcDbPoint
 10
211.9799552651827
 20
223.9563042744176
 30
0.0
  0
POINT
  5
E6AF
330
E32E
100
AcDbEntity
  8
DEFPOINTS
 62
     0
 48
2.0
100
AcDbPoint
 10
184.9480180049472
 20
223.9563042744177
 30
0.0
  0
ENDBLK
  5
E339
330
E32E
100
AcDbEntity
  8
0
 48
0.5
100
AcDbBlockEnd
  0
BLOCK
  5
E344
330
E33A
100
AcDbEntity
  8
0
 48
0.5
100
AcDbBlockBegin
  2
*D10
 70
     1
 10
0.0
 20
0.0
 30
0.0
  3
*D10
  1

  0
LINE
  5
E69E
330
E33A
100
AcDbEntity
  8
SUNPOU
 48
2.0
100
AcDbLine
 10
207.1799551645085
 20
253.16539379765
 30
0.0
 11
207.1799551645085
 21
284.6396106061536
 31
0.0
  0
LINE
  5
E69F
330
E33A
100
AcDbEntity
  8
SUNPOU
 48
2.0
100
AcDbLine
 10
249.0424053703061
 20
253.9541475656643
 30
0.0
 11
249.0424053703061
 21
284.6396106061536
 31
0.0
  0
LINE
  5
E6A0
330
E33A
100
AcDbEntity
  8
SUNPOU
 48
2.0
100
AcDbLine
 10
214.1799551645085
 20
281.6396106061536
 30
0.0
 11
242.0424053703061
 21
281.6396106061536
 31
0.0
  0
INSERT
  5
E6A1
330
E33A
100
AcDbEntity
  8
SUNPOU
 48
2.0
100
AcDbBlockReference
  2
_OPEN
 10
207.1799551645085
 20
281.6396106061536
 30
0.0
 41
7.0
 42
7.0
 43
7.0
 50
180.0
  0
INSERT
  5
E6A2
330
E33A
100
AcDbEntity
  8
SUNPOU
 48
2.0
100
AcDbBlockReference
  2
_OPEN
 10
249.0424053703061
 20
281.6396106061536
 30
0.0
 41
7.0
 42
7.0
 43
7.0
  0
MTEXT
  5
E6A3
330
E33A
100
AcDbEntity
  8
SUNPOU
 48
2.0
100
AcDbMText
 10
228.1111802674073
 20
286.6396106061536
 30
0.0
 40
6.0
 41
0.0
 71
     5
 72
     5
  1
\A1;42
 73
     1
 44
1.0
1001
ACAD
1000
MTEXTBEGIN
1070
    73
1070
     1
1070
    44
1040
1.0
1070
    74
1070
     0
1000
MTEXTEND
1000
MTEXTBEGIN
1070
    73
1070
     1
1070
    44
1040
1.0
1070
    74
1070
     0
1000
MTEXTEND
1000
MTEXTBEGIN
1070
    73
1070
     1
1070
    44
1040
1.0
1070
    74
1070
     0
1000
MTEXTEND
  0
POINT
  5
E6A4
330
E33A
100
AcDbEntity
  8
DEFPOINTS
 62
     0
 48
2.0
100
AcDbPoint
 10
207.1799551645085
 20
247.1653937976501
 30
0.0
  0
POINT
  5
E6A5
330
E33A
100
AcDbEntity
  8
DEFPOINTS
 62
     0
 48
2.0
100
AcDbPoint
 10
249.0424053703061
 20
247.9541475656643
 30
0.0
  0
POINT
  5
E6A6
330
E33A
100
AcDbEntity
  8
DEFPOINTS
 62
     0
 48
2.0
100
AcDbPoint
 10
249.0424053703061
 20
281.6396106061536
 30
0.0
  0
ENDBLK
  5
E345
330
E33A
100
AcDbEntity
  8
0
 48
0.5
100
AcDbBlockEnd
  0
BLOCK
  5
E350
330
E346
100
AcDbEntity
  8
0
 48
0.5
100
AcDbBlockBegin
  2
*D11
 70
     1
 10
0.0
 20
0.0
 30
0.0
  3
*D11
  1

  0
LINE
  5
E6CB
330
E346
100
AcDbEntity
  8
SUNPOU
 62
     4
 48
2.0
370
    -2
100
AcDbLine
 10
282.8799552651828
 20
469.4141412744177
 30
0.0
 11
282.8799552651828
 21
499.7078213477816
 31
0.0
  0
LINE
  5
E6CC
330
E346
100
AcDbEntity
  8
SUNPOU
 62
     4
 48
2.0
370
    -2
100
AcDbLine
 10
340.8799552651826
 20
469.4141412744177
 30
0.0
 11
340.8799552651826
 21
499.7078213477816
 31
0.0
  0
LINE
  5
E6CD
330
E346
100
AcDbEntity
  8
SUNPOU
 62
     4
 48
2.0
370
    -2
100
AcDbLine
 10
289.8799552651828
 20
496.7078213477817
 30
0.0
 11
333.8799552651826
 21
496.7078213477817
 31
0.0
  0
INSERT
  5
E6CE
330
E346
100
AcDbEntity
  8
SUNPOU
 62
     4
 48
2.0
370
    -2
100
AcDbBlockReference
  2
_OPEN
 10
282.8799552651828
 20
496.7078213477817
 30
0.0
 41
7.0
 42
7.0
 43
7.0
 50
180.0
  0
INSERT
  5
E6CF
330
E346
100
AcDbEntity
  8
SUNPOU
 62
     4
 48
2.0
370
    -2
100
AcDbBlockReference
  2
_OPEN
 10
340.8799552651826
 20
496.7078213477817
 30
0.0
 41
7.0
 42
7.0
 43
7.0
  0
MTEXT
  5
E6D0
330
E346
100
AcDbEntity
  8
SUNPOU
 62
     4
 48
2.0
100
AcDbMText
 10
311.8799552651827
 20
501.7078213477817
 30
0.0
 40
6.0
 41
0.0
 71
     5
 72
     5
  1
\A1;58
 73
     1
 44
1.0
1001
ACAD
1000
MTEXTBEGIN
1070
    73
1070
     1
1070
    44
1040
1.0
1070
    74
1070
     0
1000
MTEXTEND
1000
MTEXTBEGIN
1070
    73
1070
     1
1070
    44
1040
1.0
1070
    74
1070
     0
1000
MTEXTEND
1000
MTEXTBEGIN
1070
    73
1070
     1
1070
    44
1040
1.0
1070
    74
1070
     0
1000
MTEXTEND
  0
POINT
  5
E6D1
330
E346
100
AcDbEntity
  8
DEFPOINTS
 62
     0
 48
2.0
100
AcDbPoint
 10
282.8799552651828
 20
463.4141412744177
 30
0.0
  0
POINT
  5
E6D2
330
E346
100
AcDbEntity
  8
DEFPOINTS
 62
     0
 48
2.0
100
AcDbPoint
 10
340.8799552651826
 20
463.4141412744177
 30
0.0
  0
POINT
  5
E6D3
330
E346
100
AcDbEntity
  8
DEFPOINTS
 62
     0
 48
2.0
100
AcDbPoint
 10
340.8799552651826
 20
496.7078213477817
 30
0.0
  0
ENDBLK
  5
E351
330
E346
100
AcDbEntity
  8
0
 48
0.5
100
AcDbBlockEnd
  0
BLOCK
  5
E35C
330
E352
100
AcDbEntity
  8
0
 48
0.5
100
AcDbBlockBegin
  2
*D12
 70
     1
 10
0.0
 20
0.0
 30
0.0
  3
*D12
  1

  0
LINE
  5
E6C2
330
E352
100
AcDbEntity
  8
SUNPOU
 62
     4
 48
2.0
370
    -2
100
AcDbLine
 10
298.0441762651828
 20
439.2353492744176
 30
0.0
 11
298.0441762651828
 21
486.2629608316924
 31
0.0
  0
LINE
  5
E6C3
330
E352
100
AcDbEntity
  8
SUNPOU
 62
     4
 48
2.0
370
    -2
100
AcDbLine
 10
331.0441762651828
 20
439.2353492744176
 30
0.0
 11
331.0441762651828
 21
486.2629608316924
 31
0.0
  0
LINE
  5
E6C4
330
E352
100
AcDbEntity
  8
SUNPOU
 62
     4
 48
2.0
370
    -2
100
AcDbLine
 10
305.0441762651828
 20
483.2629608316925
 30
0.0
 11
324.0441762651828
 21
483.2629608316925
 31
0.0
  0
INSERT
  5
E6C5
330
E352
100
AcDbEntity
  8
SUNPOU
 62
     4
 48
2.0
370
    -2
100
AcDbBlockReference
  2
_OPEN
 10
298.0441762651828
 20
483.2629608316925
 30
0.0
 41
7.0
 42
7.0
 43
7.0
 50
180.0
  0
INSERT
  5
E6C6
330
E352
100
AcDbEntity
  8
SUNPOU
 62
     4
 48
2.0
370
    -2
100
AcDbBlockReference
  2
_OPEN
 10
331.0441762651828
 20
483.2629608316925
 30
0.0
 41
7.0
 42
7.0
 43
7.0
  0
MTEXT
  5
E6C7
330
E352
100
AcDbEntity
  8
SUNPOU
 62
     4
 48
2.0
100
AcDbMText
 10
314.5441762651828
 20
488.2629608316925
 30
0.0
 40
6.0
 41
0.0
 71
     5
 72
     5
  1
\A1;33
 73
     1
 44
1.0
1001
ACAD
1000
MTEXTBEGIN
1070
    73
1070
     1
1070
    44
1040
1.0
1070
    74
1070
     0
1000
MTEXTEND
1000
MTEXTBEGIN
1070
    73
1070
     1
1070
    44
1040
1.0
1070
    74
1070
     0
1000
MTEXTEND
1000
MTEXTBEGIN
1070
    73
1070
     1
1070
    44
1040
1.0
1070
    74
1070
     0
1000
MTEXTEND
  0
POINT
  5
E6C8
330
E352
100
AcDbEntity
  8
DEFPOINTS
 62
     0
 48
2.0
100
AcDbPoint
 10
298.0441762651828
 20
433.2353492744177
 30
0.0
  0
POINT
  5
E6C9
330
E352
100
AcDbEntity
  8
DEFPOINTS
 62
     0
 48
2.0
100
AcDbPoint
 10
331.0441762651828
 20
433.2353492744177
 30
0.0
  0
POINT
  5
E6CA
330
E352
100
AcDbEntity
  8
DEFPOINTS
 62
     0
 48
2.0
100
AcDbPoint
 10
331.0441762651828
 20
483.2629608316925
 30
0.0
  0
ENDBLK
  5
E35D
330
E352
100
AcDbEntity
  8
0
 48
0.5
100
AcDbBlockEnd
  0
BLOCK
  5
E368
330
E35E
100
AcDbEntity
  8
0
 48
0.5
100
AcDbBlockBegin
  2
*D13
 70
     1
 10
0.0
 20
0.0
 30
0.0
  3
*D13
  1

  0
LINE
  5
E6D4
330
E35E
100
AcDbEntity
  8
SUNPOU
 62
     4
 48
2.0
370
    -2
100
AcDbLine
 10
477.5542942651827
 20
187.9595102744177
 30
0.0
 11
477.5542942651827
 21
124.2211701544081
 31
0.0
  0
LINE
  5
E6D5
330
E35E
100
AcDbEntity
  8
SUNPOU
 62
     4
 48
2.0
370
    -2
100
AcDbLine
 10
507.5542942651828
 20
187.9595102744177
 30
0.0
 11
507.5542942651828
 21
124.2211701544081
 31
0.0
  0
LINE
  5
E6D6
330
E35E
100
AcDbEntity
  8
SUNPOU
 62
     4
 48
2.0
370
    -2
100
AcDbLine
 10
484.5542942651827
 20
127.2211701544081
 30
0.0
 11
500.5542942651827
 21
127.2211701544081
 31
0.0
  0
INSERT
  5
E6D7
330
E35E
100
AcDbEntity
  8
SUNPOU
 62
     4
 48
2.0
370
    -2
100
AcDbBlockReference
  2
_OPEN
 10
477.5542942651827
 20
127.2211701544081
 30
0.0
 41
7.0
 42
7.0
 43
7.0
 50
180.0
  0
INSERT
  5
E6D8
330
E35E
100
AcDbEntity
  8
SUNPOU
 62
     4
 48
2.0
370
    -2
100
AcDbBlockReference
  2
_OPEN
 10
507.5542942651828
 20
127.2211701544081
 30
0.0
 41
7.0
 42
7.0
 43
7.0
  0
MTEXT
  5
E6D9
330
E35E
100
AcDbEntity
  8
SUNPOU
 62
     4
 48
2.0
100
AcDbMText
 10
492.5542942651827
 20
132.2211701544081
 30
0.0
 40
6.0
 41
0.0
 71
     5
 72
     5
  1
\A1;30
 73
     1
 44
1.0
1001
ACAD
1000
MTEXTBEGIN
1070
    73
1070
     1
1070
    44
1040
1.0
1070
    74
1070
     0
1000
MTEXTEND
1000
MTEXTBEGIN
1070
    73
1070
     1
1070
    44
1040
1.0
1070
    74
1070
     0
1000
MTEXTEND
1000
MTEXTBEGIN
1070
    73
1070
     1
1070
    44
1040
1.0
1070
    74
1070
     0
1000
MTEXTEND
  0
POINT
  5
E6DA
330
E35E
100
AcDbEntity
  8
DEFPOINTS
 62
     0
 48
2.0
100
AcDbPoint
 10
477.5542942651827
 20
193.9595102744177
 30
0.0
  0
POINT
  5
E6DB
330
E35E
100
AcDbEntity
  8
DEFPOINTS
 62
     0
 48
2.0
100
AcDbPoint
 10
507.5542942651828
 20
193.9595102744177
 30
0.0
  0
POINT
  5
E6DC
330
E35E
100
AcDbEntity
  8
DEFPOINTS
 62
     0
 48
2.0
100
AcDbPoint
 10
507.5542942651828
 20
127.2211701544081
 30
0.0
  0
ENDBLK
  5
E369
330
E35E
100
AcDbEntity
  8
0
 48
0.5
100
AcDbBlockEnd
  0
BLOCK
  5
E374
330
E36A
100
AcDbEntity
  8
0
 48
0.5
100
AcDbBlockBegin
  2
*D14
 70
     1
 10
0.0
 20
0.0
 30
0.0
  3
*D14
  1

  0
LINE
  5
E656
330
E36A
100
AcDbEntity
  8
SUNPOU
 48
2.0
100
AcDbLine
 10
414.9727517848812
 20
222.908949245793
 30
0.0
 11
442.819435369292
 21
222.908949245793
 31
0.0
  0
LINE
  5
E657
330
E36A
100
AcDbEntity
  8
SUNPOU
 48
2.0
100
AcDbLine
 10
416.7799552651826
 20
193.9563042744176
 30
0.0
 11
442.819435369292
 21
193.9563042744176
 31
0.0
  0
LINE
  5
E658
330
E36A
100
AcDbEntity
  8
SUNPOU
 48
2.0
100
AcDbLine
 10
439.819435369292
 20
215.9089492457929
 30
0.0
 11
439.819435369292
 21
200.9563042744176
 31
0.0
  0
INSERT
  5
E659
330
E36A
100
AcDbEntity
  8
SUNPOU
 48
2.0
100
AcDbBlockReference
  2
_OPEN
 10
439.819435369292
 20
222.908949245793
 30
0.0
 41
7.0
 42
7.0
 43
7.0
 50
90.0
  0
INSERT
  5
E65A
330
E36A
100
AcDbEntity
  8
SUNPOU
 48
2.0
100
AcDbBlockReference
  2
_OPEN
 10
439.819435369292
 20
193.9563042744176
 30
0.0
 41
7.0
 42
7.0
 43
7.0
 50
270.0
  0
MTEXT
  5
E65B
330
E36A
100
AcDbEntity
  8
SUNPOU
 48
2.0
100
AcDbMText
 10
434.8194353692919
 20
208.4326267601054
 30
0.0
 40
6.0
 41
0.0
 71
     5
 72
     5
  1
\A1;29
 11
0.0000000000000001
 21
1.0
 31
0.0
 73
     1
 44
1.0
1001
ACAD
1000
MTEXTBEGIN
1070
    73
1070
     1
1070
    44
1040
1.0
1070
    74
1070
     0
1000
MTEXTEND
1000
MTEXTBEGIN
1070
    73
1070
     1
1070
    44
1040
1.0
1070
    74
1070
     0
1000
MTEXTEND
1000
MTEXTBEGIN
1070
    73
1070
     1
1070
    44
1040
1.0
1070
    74
1070
     0
1000
MTEXTEND
  0
POINT
  5
E65C
330
E36A
100
AcDbEntity
  8
DEFPOINTS
 62
     0
 48
2.0
100
AcDbPoint
 10
408.9727517848812
 20
222.908949245793
 30
0.0
  0
POINT
  5
E65D
330
E36A
100
AcDbEntity
  8
DEFPOINTS
 62
     0
 48
2.0
100
AcDbPoint
 10
410.7799552651827
 20
193.9563042744176
 30
0.0
  0
POINT
  5
E65E
330
E36A
100
AcDbEntity
  8
DEFPOINTS
 62
     0
 48
2.0
100
AcDbPoint
 10
439.819435369292
 20
193.9563042744176
 30
0.0
  0
ENDBLK
  5
E375
330
E36A
100
AcDbEntity
  8
0
 48
0.5
100
AcDbBlockEnd
  0
BLOCK
  5
E380
330
E376
100
AcDbEntity
  8
0
 48
0.5
100
AcDbBlockBegin
  2
*D15
 70
     1
 10
0.0
 20
0.0
 30
0.0
  3
*D15
  1

  0
LINE
  5
E65F
330
E376
100
AcDbEntity
  8
SUNPOU
 62
     4
 48
2.0
370
    -2
100
AcDbLine
 10
409.9799552651827
 20
157.9563042744177
 30
0.0
 11
442.819435369292
 21
157.9563042744177
 31
0.0
  0
LINE
  5
E660
330
E376
100
AcDbEntity
  8
SUNPOU
 62
     4
 48
2.0
370
    -2
100
AcDbLine
 10
409.9799552651827
 20
193.9563042744177
 30
0.0
 11
442.819435369292
 21
193.9563042744177
 31
0.0
  0
LINE
  5
E661
330
E376
100
AcDbEntity
  8
SUNPOU
 62
     4
 48
2.0
370
    -2
100
AcDbLine
 10
439.819435369292
 20
164.9563042744176
 30
0.0
 11
439.819435369292
 21
186.9563042744177
 31
0.0
  0
INSERT
  5
E662
330
E376
100
AcDbEntity
  8
SUNPOU
 62
     4
 48
2.0
370
    -2
100
AcDbBlockReference
  2
_OPEN
 10
439.819435369292
 20
157.9563042744177
 30
0.0
 41
7.0
 42
7.0
 43
7.0
 50
270.0
  0
INSERT
  5
E663
330
E376
100
AcDbEntity
  8
SUNPOU
 62
     4
 48
2.0
370
    -2
100
AcDbBlockReference
  2
_OPEN
 10
439.819435369292
 20
193.9563042744177
 30
0.0
 41
7.0
 42
7.0
 43
7.0
 50
90.0
  0
MTEXT
  5
E664
330
E376
100
AcDbEntity
  8
SUNPOU
 62
     4
 48
2.0
100
AcDbMText
 10
434.8194353692919
 20
175.9563042744177
 30
0.0
 40
6.0
 41
0.0
 71
     5
 72
     5
  1
\A1;36
 11
0.0000000000000001
 21
1.0
 31
0.0
 73
     1
 44
1.0
1001
ACAD
1000
MTEXTBEGIN
1070
    73
1070
     1
1070
    44
1040
1.0
1070
    74
1070
     0
1000
MTEXTEND
1000
MTEXTBEGIN
1070
    73
1070
     1
1070
    44
1040
1.0
1070
    74
1070
     0
1000
MTEXTEND
1000
MTEXTBEGIN
1070
    73
1070
     1
1070
    44
1040
1.0
1070
    74
1070
     0
1000
MTEXTEND
  0
POINT
  5
E665
330
E376
100
AcDbEntity
  8
DEFPOINTS
 62
     0
 48
2.0
100
AcDbPoint
 10
403.9799552651827
 20
157.9563042744177
 30
0.0
  0
POINT
  5
E666
330
E376
100
AcDbEntity
  8
DEFPOINTS
 62
     0
 48
2.0
100
AcDbPoint
 10
403.9799552651827
 20
193.9563042744177
 30
0.0
  0
POINT
  5
E667
330
E376
100
AcDbEntity
  8
DEFPOINTS
 62
     0
 48
2.0
100
AcDbPoint
 10
439.819435369292
 20
193.9563042744177
 30
0.0
  0
ENDBLK
  5
E381
330
E376
100
AcDbEntity
  8
0
 48
0.5
100
AcDbBlockEnd
  0
BLOCK
  5
E38C
330
E382
100
AcDbEntity
  8
0
 48
0.5
100
AcDbBlockBegin
  2
*D16
 70
     1
 10
0.0
 20
0.0
 30
0.0
  3
*D16
  1

  0
LINE
  5
E668
330
E382
100
AcDbEntity
  8
SUNPOU
 48
2.0
100
AcDbLine
 10
420.8043403015286
 20
552.0204468713238
 30
0.0
 11
461.242148120285
 21
552.0204468713238
 31
0.0
  0
LINE
  5
E669
330
E382
100
AcDbEntity
  8
SUNPOU
 48
2.0
100
AcDbLine
 10
420.8043403015286
 20
522.0204468713238
 30
0.0
 11
461.242148120285
 21
522.0204468713238
 31
0.0
  0
LINE
  5
E66A
330
E382
100
AcDbEntity
  8
SUNPOU
 48
2.0
100
AcDbLine
 10
458.242148120285
 20
545.0204468713239
 30
0.0
 11
458.242148120285
 21
529.0204468713239
 31
0.0
  0
INSERT
  5
E66B
330
E382
100
AcDbEntity
  8
SUNPOU
 48
2.0
100
AcDbBlockReference
  2
_OPEN
 10
458.242148120285
 20
552.0204468713238
 30
0.0
 41
7.0
 42
7.0
 43
7.0
 50
90.0
  0
INSERT
  5
E66C
330
E382
100
AcDbEntity
  8
SUNPOU
 48
2.0
100
AcDbBlockReference
  2
_OPEN
 10
458.242148120285
 20
522.0204468713238
 30
0.0
 41
7.0
 42
7.0
 43
7.0
 50
270.0
  0
MTEXT
  5
E66D
330
E382
100
AcDbEntity
  8
SUNPOU
 48
2.0
100
AcDbMText
 10
453.242148120285
 20
537.0204468713239
 30
0.0
 40
6.0
 41
0.0
 71
     5
 72
     5
  1
\A1;30
 11
0.0000000000000001
 21
1.0
 31
0.0
 73
     1
 44
1.0
1001
ACAD
1000
MTEXTBEGIN
1070
    73
1070
     1
1070
    44
1040
1.0
1070
    74
1070
     0
1000
MTEXTEND
1000
MTEXTBEGIN
1070
    73
1070
     1
1070
    44
1040
1.0
1070
    74
1070
     0
1000
MTEXTEND
1000
MTEXTBEGIN
1070
    73
1070
     1
1070
    44
1040
1.0
1070
    74
1070
     0
1000
MTEXTEND
  0
POINT
  5
E66E
330
E382
100
AcDbEntity
  8
DEFPOINTS
 62
     0
 48
2.0
100
AcDbPoint
 10
414.8043403015285
 20
552.0204468713238
 30
0.0
  0
POINT
  5
E66F
330
E382
100
AcDbEntity
  8
DEFPOINTS
 62
     0
 48
2.0
100
AcDbPoint
 10
414.8043403015285
 20
522.0204468713238
 30
0.0
  0
POINT
  5
E670
330
E382
100
AcDbEntity
  8
DEFPOINTS
 62
     0
 48
2.0
100
AcDbPoint
 10
458.242148120285
 20
522.0204468713238
 30
0.0
  0
ENDBLK
  5
E38D
330
E382
100
AcDbEntity
  8
0
 48
0.5
100
AcDbBlockEnd
  0
ENDSEC
  0
SECTION
  2
ENTITIES
  0
LWPOLYLINE
  5
6C0
330
1A
100
AcDbEntity
  8
ZUWAKU
100
AcDbPolyline
 90
        4
 70
     1
 43
0.0
 10
10.85047808566059
 20
564.5825862828226
 10
10.85047808566059
 20
14.58258628282271
 10
806.8504780856606
 20
14.58258628282271
 10
806.8504780856606
 20
564.5825862828226
  0
LWPOLYLINE
  5
6C1
330
1A
100
AcDbEntity
  8
ZUWAKU
100
AcDbPolyline
 90
        4
 70
     1
 43
0.0
 10
10.45047808566073
 20
564.9825862828227
 10
10.45047808566073
 20
14.18258628282274
 10
807.2504780856606
 20
14.18258628282272
 10
807.2504780856606
 20
564.9825862828227
  0
LWPOLYLINE
  5
6C2
330
1A
100
AcDbEntity
  8
ZUWAKU
100
AcDbPolyline
 90
        4
 70
     1
 43
0.0
 10
10.05047808566086
 20
565.3825862828226
 10
10.05047808566086
 20
13.78258628282265
 10
807.6504780856607
 20
13.78258628282271
 10
807.6504780856607
 20
565.3825862828227
  0
LWPOLYLINE
  5
6C3
330
1A
100
AcDbEntity
  8
ZUWAKU
100
AcDbPolyline
 90
        4
 70
     1
 43
0.0
 10
10.65047808566077
 20
564.7825862828227
 10
10.65047808566077
 20
14.38258628282267
 10
807.0504780856609
 20
14.38258628282271
 10
807.0504780856609
 20
564.7825862828227
  0
LWPOLYLINE
  5
6C4
330
1A
100
AcDbEntity
  8
ZUWAKU
100
AcDbPolyline
 90
        4
 70
     1
 43
0.0
 10
10.25047808566068
 20
565.1825862828227
 10
10.25047808566068
 20
13.98258628282269
 10
807.4504780856605
 20
13.98258628282271
 10
807.450478085661
 20
565.1825862828227
  0
LINE
  5
6C5
330
1A
100
AcDbEntity
  8
ZUWAKU
100
AcDbLine
 10
10.05047808566086
 20
43.78258628282265
 30
0.0
 11
807.4504780856605
 21
43.78258628282265
 31
0.0
  0
LINE
  5
6C6
330
1A
100
AcDbEntity
  8
ZUWAKU
100
AcDbLine
 10
10.05047808566086
 20
43.98258628282265
 30
0.0
 11
807.4504780856605
 21
43.98258628282265
 31
0.0
  0
LINE
  5
6C7
330
1A
100
AcDbEntity
  8
ZUWAKU
100
AcDbLine
 10
10.05047808566086
 20
44.18258628282266
 30
0.0
 11
807.4504780856605
 21
44.18258628282266
 31
0.0
  0
LINE
  5
6C8
330
1A
100
AcDbEntity
  8
ZUWAKU
100
AcDbLine
 10
10.05047808566086
 20
44.38258628282265
 30
0.0
 11
807.4504780856605
 21
44.38258628282265
 31
0.0
  0
LINE
  5
6C9
330
1A
100
AcDbEntity
  8
ZUWAKU
100
AcDbLine
 10
10.05047808566086
 20
44.58258628282266
 30
0.0
 11
807.4504780856605
 21
44.58258628282266
 31
0.0
  0
LINE
  5
6CA
330
1A
100
AcDbEntity
  8
ZUWAKU
100
AcDbLine
 10
218.6970793757286
 20
29.18258628282268
 30
0.0
 11
457.474842056652
 21
29.18258628282268
 31
0.0
  0
LINE
  5
6CB
330
1A
100
AcDbEntity
  8
ZUWAKU
100
AcDbLine
 10
218.6970793757286
 20
29.38258628282268
 30
0.0
 11
457.474842056652
 21
29.38258628282268
 31
0.0
  0
LINE
  5
6CC
330
1A
100
AcDbEntity
  8
ZUWAKU
100
AcDbLine
 10
218.6970793757286
 20
28.98258628282269
 30
0.0
 11
457.474842056652
 21
28.98258628282268
 31
0.0
  0
LINE
  5
6D2
330
1A
100
AcDbEntity
  8
ZUWAKU
100
AcDbLine
 10
22.57284175945824
 20
29.44753577648383
 30
0.0
 11
25.48263973410303
 21
26.53773780183917
 31
0.0
  0
LINE
  5
6D3
330
1A
100
AcDbEntity
  8
ZUWAKU
100
AcDbLine
 10
27.46253872142551
 20
28.51763678916148
 30
0.0
 11
24.55274074678072
 21
31.42743476380615
 31
0.0
  0
ARC
  5
6D4
330
1A
100
AcDbEntity
  8
ZUWAKU
100
AcDbCircle
 10
24.66769024044197
 20
33.70758628282265
 30
0.0
 40
0.525
100
AcDbArc
 50
90.0
 51
180.0
  0
LINE
  5
6D5
330
1A
100
AcDbEntity
  8
ZUWAKU
100
AcDbLine
 10
24.14269024044187
 20
37.03258628282265
 30
0.0
 11
27.64269024044188
 21
37.03258628282265
 31
0.0
  0
LINE
  5
6D6
330
1A
100
AcDbEntity
  8
ZUWAKU
100
AcDbLine
 10
22.39269024044188
 20
23.73258628282265
 30
0.0
 11
25.36769024044179
 21
23.73258628282265
 31
0.0
  0
LINE
  5
6D7
330
1A
100
AcDbEntity
  8
ZUWAKU
100
AcDbLine
 10
22.39269024044188
 20
20.93258628282265
 30
0.0
 11
25.89269024044188
 21
20.93258628282265
 31
0.0
  0
INSERT
  5
6D8
330
1A
100
AcDbEntity
  8
ZUWAKU
  6
Continuous
100
AcDbBlockReference
  2
*X1
 10
12.342212154781
 20
7.675000000000004
 30
0.0
1001
ACAD
1000
HATCH
1002
{
1070
    19
1000
ANSI37
1040
0.2
1040
0.0
1000
R14_HATCH_DATA
1000
4E4
1011
13.34221215478101
1021
7.675000000000004
1031
0.0
1011
12.342212154781
1021
8.675000000000004
1031
0.0
1011
12.342212154781
1021
7.675000000000004
1031
1.0
1040
0.0
1010
0.0
1020
0.0
1030
1.0
1000
ANSI37
1070
     0
1070
     0
1071
        8
1071
        7
1070
     1
1070
     1
1071
       24
1040
12.2105285919996
1040
23.75243476380622
1040
-0.1989123673796348
1040
11.80047808566087
1040
24.74238425746728
1040
0.0
1040
11.80047808566087
1040
26.03258628282265
1040
-0.4142135623730912
1040
12.32547808566084
1040
26.55758628282264
1040
0.0
1040
15.30047808566075
1040
26.55758628282264
1040
0.4142135623731546
1040
15.82547808566084
1040
27.08258628282264
1040
0.0
1040
15.82547808566084
1040
28.83258628282265
1040
0.4142135623731586
1040
15.30047808566075
1040
29.35758628282265
1040
0.0
1040
11.80047808566087
1040
29.35758628282265
1040
0.4142135623730928
1040
9.000478085660915
1040
26.55758628282267
1040
0.0
1040
9.000478085660915
1040
24.7423842574674
1040
0.1989123673796619
1040
10.23062960467734
1040
21.7725357764838
1040
0.0
1040
13.14042757932202
1040
18.86273780183914
1040
-0.1989123673796613
1040
13.55047808566087
1040
17.87278830817795
1040
0.0
1040
13.55047808566087
1040
16.58258628282264
1040
-0.4142135623730911
1040
13.02547808566089
1040
16.05758628282264
1040
0.0
1040
10.05047808566098
1040
16.05758628282264
1040
0.4142135623731526
1040
9.525478085660893
1040
15.53258628282265
1040
0.0
1040
9.525478085660893
1040
13.78258628282263
1040
0.4142135623731526
1040
10.05047808566098
1040
13.25758628282265
1040
0.0
1040
13.55047808566087
1040
13.25758628282265
1040
0.4142135623731044
1040
16.35047808566094
1040
16.05758628282262
1040
0.0
1040
16.35047808566094
1040
17.87278830817789
1040
0.1989123673796604
1040
15.12032656664439
1040
20.84263678916144
1040
0.0
1071
        0
1071
        7
1070
     1
1070
     1
1071
       16
1040
21.25047808566091
1040
25.15758628282265
1040
-0.4142135623730935
1040
22.65047808566089
1040
26.55758628282264
1040
0.0
1040
24.57547808566085
1040
26.55758628282264
1040
0.4142135623731546
1040
25.10047808566094
1040
27.08258628282264
1040
0.0
1040
25.10047808566094
1040
28.83258628282265
1040
0.4142135623730951
1040
24.57547808566096
1040
29.35758628282265
1040
0.0
1040
22.65047808566078
1040
29.35758628282261
1040
0.4142135623730892
1040
18.45047808566084
1040
25.15758628282258
1040
0.0
1040
18.45047808566084
1040
17.45758628282267
1040
0.4142135623730969
1040
22.65047808566089
1040
13.25758628282265
1040
0.0
1040
24.57547808566085
1040
13.25758628282265
1040
0.4142135623731526
1040
25.10047808566094
1040
13.78258628282263
1040
0.0
1040
25.10047808566094
1040
15.53258628282265
1040
0.4142135623730891
1040
24.57547808566096
1040
16.05758628282264
1040
0.0
1040
22.65047808566089
1040
16.05758628282264
1040
-0.4142135623730928
1040
21.25047808566091
1040
17.45758628282263
1040
0.0
1071
        0
1071
        7
1070
     1
1070
     1
1071
        2
1040
21.95047808566084
1040
21.30758628282265
1040
1.0
1040
25.45047808566085
1040
21.30758628282265
1040
1.0
1071
        0
1071
        7
1070
     1
1070
     1
1071
       26
1040
35.02312456783886
1040
25.31263347638607
1040
0.0
1040
36.08476420097668
1040
28.67449231465566
1040
0.5069206636600134
1040
35.58413330178132
1040
29.35758628282265
1040
0.0
1040
33.88524392217209
1040
29.35758628282265
1040
0.3272098845218764
1040
33.38461302297673
1040
28.99068025098962
1040
0.0
1040
31.51634314834495
1040
23.07449231465573
1040
-0.3272098845219541
1040
31.01571224914948
1040
22.70758628282264
1040
0.0
1040
30.87547808566103
1040
22.70758628282264
1040
-0.4142135623731526
1040
30.35047808566094
1040
23.23258628282263
1040
0.0
1040
30.35047808566094
1040
28.83258628282265
1040
0.4142135623730951
1040
29.82547808566096
1040
29.35758628282265
1040
0.0
1040
28.07547808566084
1040
29.35758628282265
1040
0.4142135623730871
1040
27.55047808566087
1040
28.83258628282266
1040
0.0
1040
27.55047808566087
1040
13.78258628282263
1040
0.4142135623730891
1040
28.07547808566084
1040
13.25758628282265
1040
0.0
1040
29.82547808566085
1040
13.25758628282265
1040
0.4142135623731526
1040
30.35047808566094
1040
13.78258628282263
1040
0.0
1040
30.35047808566094
1040
19.38258628282266
1040
-0.4142135623731526
1040
30.87547808566103
1040
19.90758628282264
1040
0.0
1040
31.0157122491496
1040
19.90758628282264
1040
-0.3272098845218915
1040
31.51634314834495
1040
19.54068025098957
1040
0.0
1040
33.38461302297673
1040
13.62449231465572
1040
0.3272098845218902
1040
33.88524392217209
1040
13.25758628282265
1040
0.0
1040
35.58413330178132
1040
13.25758628282265
1040
0.5069206636600335
1040
36.08476420097668
1040
13.94068025098965
1040
0.0
1040
33.75837282250301
1040
21.30758628282279
1040
0.0
1071
        0
1071
        7
1070
     1
1070
     1
1071
        8
1040
41.20047808566084
1040
28.83258628282266
1040
0.4142135623731546
1040
40.67547808566075
1040
29.35758628282265
1040
0.0
1040
38.92547808566098
1040
29.35758628282265
1040
0.4142135623731507
1040
38.40047808566089
1040
28.83258628282266
1040
0.0
1040
38.40047808566089
1040
13.78258628282263
1040
0.4142135623731526
1040
38.92547808566098
1040
13.25758628282265
1040
0.0
1040
40.67547808566075
1040
13.25758628282265
1040
0.4142135623731526
1040
41.20047808566084
1040
13.78258628282263
1040
0.0
1071
        0
1071
        7
1070
     1
1070
     1
1071
       24
1040
46.10047808566093
1040
26.03258628282265
1040
-0.4142135623731546
1040
46.62547808566102
1040
26.55758628282264
1040
0.0
1040
49.60047808566094
1040
26.55758628282264
1040
0.4142135623730911
1040
50.12547808566091
1040
27.08258628282264
1040
0.0
1040
50.12547808566091
1040
28.83258628282265
1040
0.4142135623730952
1040
49.60047808566094
1040
29.35758628282265
1040
0.0
1040
46.10047808566093
1040
29.35758628282265
1040
0.4142135623731048
1040
43.30047808566087
1040
26.55758628282267
1040
0.0
1040
43.30047808566087
1040
24.7423842574674
1040
0.1989123673796613
1040
44.53062960467741
1040
21.77253577648385
1040
0.0
1040
47.44042757932208
1040
18.86273780183918
1040
-0.1989123673796402
1040
47.85047808566093
1040
17.87278830817811
1040
0.0
1040
47.85047808566093
1040
16.58258628282264
1040
-0.4142135623730911
1040
47.32547808566096
1040
16.05758628282264
1040
0.0
1040
44.35047808566094
1040
16.05758628282264
1040
0.4142135623731526
1040
43.82547808566084
1040
15.53258628282265
1040
0.0
1040
43.82547808566084
1040
13.78258628282263
1040
0.4142135623730891
1040
44.35047808566082
1040
13.25758628282265
1040
0.0
1040
47.85047808566093
1040
13.25758628282265
1040
0.4142135623730925
1040
50.65047808566089
1040
16.05758628282262
1040
0.0
1040
50.65047808566089
1040
17.87278830817789
1040
0.1989123673796675
1040
49.42032656664435
1040
20.84263678916155
1040
0.0
1040
46.51052859199978
1040
23.75243476380607
1040
-0.1989123673796652
1040
46.10047808566093
1040
24.74238425746723
1040
0.0
1071
        0
1071
        7
1070
     1
1070
     1
1071
       16
1040
55.55047808566087
1040
28.83258628282264
1040
0.414213562373103
1040
55.02547808566089
1040
29.35758628282265
1040
0.0
1040
53.27547808566089
1040
29.35758628282265
1040
0.4142135623730871
1040
52.75047808566092
1040
28.83258628282266
1040
0.0
1040
52.75047808566092
1040
16.05758628282262
1040
0.4142135623730926
1040
55.55047808566087
1040
13.25758628282265
1040
0.0
1040
59.05047808566087
1040
13.25758628282265
1040
0.4142135623731044
1040
61.85047808566094
1040
16.05758628282262
1040
0.0
1040
61.85047808566094
1040
28.83258628282265
1040
0.4142135623730951
1040
61.32547808566096
1040
29.35758628282265
1040
0.0
1040
59.57547808566085
1040
29.35758628282265
1040
0.4142135623730871
1040
59.05047808566087
1040
28.83258628282266
1040
0.0
1040
59.05047808566087
1040
17.10758628282262
1040
-0.414213562373088
1040
58.00047808566091
1040
16.05758628282264
1040
0.0
1040
56.60047808566094
1040
16.05758628282264
1040
-0.4142135623731197
1040
55.55047808566087
1040
17.10758628282262
1040
0.0
1071
        0
1071
        7
1070
     1
1070
     1
1071
        8
1040
66.75047808566091
1040
28.83258628282266
1040
0.4142135623730871
1040
66.22547808566094
1040
29.35758628282265
1040
0.0
1040
64.47547808566094
1040
29.35758628282265
1040
0.4142135623731507
1040
63.95047808566085
1040
28.83258628282266
1040
0.0
1040
63.95047808566085
1040
13.78258628282263
1040
0.4142135623730891
1040
64.47547808566082
1040
13.25758628282265
1040
0.0
1040
66.22547808566094
1040
13.25758628282265
1040
0.4142135623730891
1040
66.75047808566091
1040
13.78258628282263
1040
0.0
1071
        0
1070
     0
1070
     1
1040
0.0
1040
0.2
1070
     0
1070
     2
1040
0.7853981633974483
1040
-903.2340384037992
1040
-7.092413717177286
1040
-0.4490128060534576
1040
0.4490128060534577
1070
     0
1040
2.356194490192344
1040
-903.2340384037992
1040
-7.092413717177286
1040
-0.4490128060534577
1040
-0.4490128060534576
1070
     0
1040
0.057451373970553
1071
        8
1040
13.78812089390305
1040
21.2747599287082
1040
0.0
1040
20.11278093731891
1040
24.95164846527365
1040
0.0
1040
22.8726338165394
1040
21.61946792889336
1040
0.0
1040
28.62232591251688
1040
22.30888392926414
1040
0.0
1040
39.54673794983648
1040
22.76849619680576
1040
0.0
1040
44.6064668260093
1040
25.52616259922985
1040
0.0
1040
54.2659519032801
1040
24.83674419791766
1040
0.0
1040
65.53534555050248
1040
25.29635646545927
1040
0.0
1002
}
  0
ARC
  5
6D9
330
1A
100
AcDbEntity
  8
ZUWAKU
100
AcDbCircle
 10
22.39269024044188
 20
23.20758628282265
 30
0.0
 40
0.525
100
AcDbArc
 50
90.0
 51
180.0
  0
ARC
  5
6DA
330
1A
100
AcDbEntity
  8
ZUWAKU
100
AcDbCircle
 10
22.39269024044188
 20
21.45758628282265
 30
0.0
 40
0.525
100
AcDbArc
 50
180.0
 51
270.0
  0
LINE
  5
6DB
330
1A
100
AcDbEntity
  8
ZUWAKU
100
AcDbLine
 10
21.86769024044179
 20
21.45758628282265
 30
0.0
 11
21.86769024044179
 21
23.20758628282265
 31
0.0
  0
ARC
  5
6DC
330
1A
100
AcDbEntity
  8
ZUWAKU
100
AcDbCircle
 10
25.54269024044197
 20
32.41738425746735
 30
0.0
 40
4.199999999999999
100
AcDbArc
 50
180.0
 51
224.9999999999996
  0
ARC
  5
6DD
330
1A
100
AcDbEntity
  8
ZUWAKU
100
AcDbCircle
 10
25.54269024044197
 20
32.41738425746735
 30
0.0
 40
1.399999999999999
100
AcDbArc
 50
180.0000000000016
 51
224.9999999999993
  0
ARC
  5
6DE
330
1A
100
AcDbEntity
  8
ZUWAKU
100
AcDbCircle
 10
24.14269024044187
 20
34.23258628282265
 30
0.0
 40
2.799999999999999
100
AcDbArc
 50
90.0
 51
180.0
  0
LINE
  5
6DF
330
1A
100
AcDbEntity
  8
ZUWAKU
100
AcDbLine
 10
21.34269024044192
 20
34.23258628282265
 30
0.0
 11
21.34269024044192
 21
32.41738425746731
 31
0.0
  0
LINE
  5
6E0
330
1A
100
AcDbEntity
  8
ZUWAKU
100
AcDbLine
 10
24.14269024044187
 20
33.70758628282265
 30
0.0
 11
24.14269024044187
 21
32.41738425746731
 31
0.0
  0
LINE
  5
6E1
330
1A
100
AcDbEntity
  8
ZUWAKU
100
AcDbLine
 10
89.17710763364903
 20
43.78258628282265
 30
0.0
 11
89.17710763364903
 21
14.58258628282271
 31
0.0
  0
LINE
  5
6E2
330
1A
100
AcDbEntity
  8
ZUWAKU
100
AcDbLine
 10
89.57710763364913
 20
43.78258628282265
 30
0.0
 11
89.57710763364913
 21
14.58258628282271
 31
0.0
  0
LINE
  5
6E3
330
1A
100
AcDbEntity
  8
ZUWAKU
100
AcDbLine
 10
89.37710763364885
 20
43.78258628282265
 30
0.0
 11
89.37710763364931
 21
14.58258628282271
 31
0.0
  0
LINE
  5
6E4
330
1A
100
AcDbEntity
  8
ZUWAKU
100
AcDbLine
 10
56.87284175945842
 20
29.44753577648383
 30
0.0
 11
59.78263973410321
 21
26.53773780183917
 31
0.0
  0
ARC
  5
6E5
330
1A
100
AcDbEntity
  8
ZUWAKU
100
AcDbCircle
 10
58.44269024044206
 20
34.23258628282265
 30
0.0
 40
2.799999999999999
100
AcDbArc
 50
90.0
 51
180.0
  0
LINE
  5
6E6
330
1A
100
AcDbEntity
  8
ZUWAKU
100
AcDbLine
 10
56.69269024044206
 20
20.93258628282265
 30
0.0
 11
60.19269024044206
 21
20.93258628282265
 31
0.0
  0
LINE
  5
6E7
330
1A
100
AcDbEntity
  8
ZUWAKU
100
AcDbLine
 10
56.69269024044206
 20
23.73258628282265
 30
0.0
 11
59.66769024044197
 21
23.73258628282265
 31
0.0
  0
LINE
  5
6E8
330
1A
100
AcDbEntity
  8
ZUWAKU
100
AcDbLine
 10
42.16769024044197
 20
37.03258628282265
 30
0.0
 11
40.41769024044197
 21
37.03258628282265
 31
0.0
  0
LINE
  5
6E9
330
1A
100
AcDbEntity
  8
ZUWAKU
100
AcDbLine
 10
40.41769024044197
 20
20.93258628282265
 30
0.0
 11
42.16769024044197
 21
20.93258628282265
 31
0.0
  0
LINE
  5
6EA
330
1A
100
AcDbEntity
  8
ZUWAKU
100
AcDbLine
 10
39.89269024044188
 20
36.50758628282265
 30
0.0
 11
39.89269024044188
 21
21.45758628282265
 31
0.0
  0
LINE
  5
6EB
330
1A
100
AcDbEntity
  8
ZUWAKU
100
AcDbLine
 10
30.79269024044197
 20
25.13258628282265
 30
0.0
 11
30.79269024044197
 21
32.83258628282261
 31
0.0
  0
LINE
  5
6EC
330
1A
100
AcDbEntity
  8
ZUWAKU
100
AcDbLine
 10
33.59269024044192
 20
32.83258628282265
 30
0.0
 11
33.59269024044192
 21
25.13258628282265
 31
0.0
  0
ARC
  5
6ED
330
1A
100
AcDbEntity
  8
ZUWAKU
100
AcDbCircle
 10
24.49269024044179
 20
25.54778830817795
 30
0.0
 40
4.199999999999999
100
AcDbArc
 50
0.0
 51
44.9999999999996
  0
CIRCLE
  5
6EE
330
1A
100
AcDbEntity
  8
ZUWAKU
100
AcDbCircle
 10
36.04269024044197
 20
28.98258628282265
 30
0.0
 40
1.75
  0
ARC
  5
6EF
330
1A
100
AcDbEntity
  8
ZUWAKU
100
AcDbCircle
 10
34.99269024044179
 20
25.13258628282265
 30
0.0
 40
4.199999999999999
100
AcDbArc
 50
180.0
 51
270.0
  0
LINE
  5
6F0
330
1A
100
AcDbEntity
  8
ZUWAKU
100
AcDbLine
 10
28.69269024044206
 20
23.73258628282265
 30
0.0
 11
28.69269024044206
 21
25.547788308178
 31
0.0
  0
ARC
  5
6F1
330
1A
100
AcDbEntity
  8
ZUWAKU
100
AcDbCircle
 10
25.36769024044179
 20
24.25758628282265
 30
0.0
 40
0.525
100
AcDbArc
 50
270.0
 51
0.0
  0
LINE
  5
6F2
330
1A
100
AcDbEntity
  8
ZUWAKU
100
AcDbLine
 10
25.89269024044188
 20
24.25758628282265
 30
0.0
 11
25.89269024044188
 21
25.547788308178
 31
0.0
  0
ARC
  5
6F3
330
1A
100
AcDbEntity
  8
ZUWAKU
100
AcDbCircle
 10
25.89269024044188
 20
23.73258628282265
 30
0.0
 40
2.799999999999999
100
AcDbArc
 50
270.0
 51
0.0
  0
ARC
  5
6F4
330
1A
100
AcDbEntity
  8
ZUWAKU
100
AcDbCircle
 10
24.49269024044179
 20
25.547788308178
 30
0.0
 40
1.399999999999999
100
AcDbArc
 50
0.0
 51
44.9999999999996
  0
ARC
  5
6F5
330
1A
100
AcDbEntity
  8
ZUWAKU
100
AcDbCircle
 10
40.41769024044197
 20
21.45758628282265
 30
0.0
 40
0.525
100
AcDbArc
 50
180.0
 51
270.0
  0
ARC
  5
6F6
330
1A
100
AcDbEntity
  8
ZUWAKU
100
AcDbCircle
 10
36.91769024044197
 20
23.20758628282265
 30
0.0
 40
0.525
100
AcDbArc
 50
0.0
 51
90.0
  0
ARC
  5
6F7
330
1A
100
AcDbEntity
  8
ZUWAKU
100
AcDbCircle
 10
36.91769024044197
 20
21.45758628282265
 30
0.0
 40
0.525
100
AcDbArc
 50
270.0
 51
0.0
  0
LINE
  5
6F8
330
1A
100
AcDbEntity
  8
ZUWAKU
100
AcDbLine
 10
37.44269024044206
 20
23.20758628282265
 30
0.0
 11
37.44269024044206
 21
21.45758628282265
 31
0.0
  0
ARC
  5
6F9
330
1A
100
AcDbEntity
  8
ZUWAKU
100
AcDbCircle
 10
34.99269024044179
 20
25.13258628282265
 30
0.0
 40
1.399999999999999
100
AcDbArc
 50
180.0
 51
270.0
  0
LINE
  5
6FA
330
1A
100
AcDbEntity
  8
ZUWAKU
100
AcDbLine
 10
36.91769024044197
 20
20.93258628282265
 30
0.0
 11
34.99269024044179
 21
20.93258628282265
 31
0.0
  0
LINE
  5
6FB
330
1A
100
AcDbEntity
  8
ZUWAKU
100
AcDbLine
 10
34.99269024044179
 20
23.73258628282265
 30
0.0
 11
36.91769024044197
 21
23.73258628282265
 31
0.0
  0
ARC
  5
6FC
330
1A
100
AcDbEntity
  8
ZUWAKU
100
AcDbCircle
 10
34.99269024044179
 20
32.83258628282261
 30
0.0
 40
4.199999999999999
100
AcDbArc
 50
90.0
 51
180.0
  0
LINE
  5
6FD
330
1A
100
AcDbEntity
  8
ZUWAKU
100
AcDbLine
 10
28.16769024044197
 20
36.50758628282265
 30
0.0
 11
28.16769024044197
 21
34.75758628282265
 31
0.0
  0
LINE
  5
6FE
330
1A
100
AcDbEntity
  8
ZUWAKU
100
AcDbLine
 10
27.64269024044188
 20
34.23258628282265
 30
0.0
 11
24.66769024044197
 21
34.23258628282265
 31
0.0
  0
ARC
  5
6FF
330
1A
100
AcDbEntity
  8
ZUWAKU
100
AcDbCircle
 10
27.64269024044188
 20
34.75758628282265
 30
0.0
 40
0.525
100
AcDbArc
 50
270.0
 51
0.0
  0
ARC
  5
700
330
1A
100
AcDbEntity
  8
ZUWAKU
100
AcDbCircle
 10
27.64269024044188
 20
36.50758628282265
 30
0.0
 40
0.525
100
AcDbArc
 50
0.0
 51
90.0
  0
LINE
  5
701
330
1A
100
AcDbEntity
  8
ZUWAKU
100
AcDbLine
 10
37.44269024044206
 20
36.50758628282265
 30
0.0
 11
37.44269024044206
 21
34.75758628282265
 31
0.0
  0
ARC
  5
702
330
1A
100
AcDbEntity
  8
ZUWAKU
100
AcDbCircle
 10
36.91769024044197
 20
34.75758628282265
 30
0.0
 40
0.525
100
AcDbArc
 50
270.0
 51
0.0
  0
ARC
  5
703
330
1A
100
AcDbEntity
  8
ZUWAKU
100
AcDbCircle
 10
40.41769024044197
 20
36.50758628282265
 30
0.0
 40
0.525
100
AcDbArc
 50
90.0
 51
180.0
  0
ARC
  5
704
330
1A
100
AcDbEntity
  8
ZUWAKU
100
AcDbCircle
 10
36.91769024044197
 20
36.50758628282265
 30
0.0
 40
0.525
100
AcDbArc
 50
0.0
 51
90.0
  0
ARC
  5
705
330
1A
100
AcDbEntity
  8
ZUWAKU
100
AcDbCircle
 10
34.99269024044179
 20
32.83258628282265
 30
0.0
 40
1.399999999999999
100
AcDbArc
 50
90.0
 51
180.0
  0
LINE
  5
706
330
1A
100
AcDbEntity
  8
ZUWAKU
100
AcDbLine
 10
36.91769024044197
 20
34.23258628282265
 30
0.0
 11
34.99269024044179
 21
34.23258628282265
 31
0.0
  0
LINE
  5
707
330
1A
100
AcDbEntity
  8
ZUWAKU
100
AcDbLine
 10
34.99269024044179
 20
37.03258628282261
 30
0.0
 11
36.91769024044197
 21
37.03258628282265
 31
0.0
  0
ARC
  5
708
330
1A
100
AcDbEntity
  8
ZUWAKU
100
AcDbCircle
 10
43.21769024044215
 20
27.05758628282265
 30
0.0
 40
0.525
100
AcDbArc
 50
90.0
 51
180.0
  0
ARC
  5
709
330
1A
100
AcDbEntity
  8
ZUWAKU
100
AcDbCircle
 10
43.35792440393061
 20
27.05758628282265
 30
0.0
 40
0.525
100
AcDbArc
 50
17.52556837372255
 51
90.0
  0
LINE
  5
70A
330
1A
100
AcDbEntity
  8
ZUWAKU
100
AcDbLine
 10
53.54269024044197
 20
21.45758628282265
 30
0.0
 11
53.54269024044197
 21
36.50758628282265
 31
0.0
  0
LINE
  5
70B
330
1A
100
AcDbEntity
  8
ZUWAKU
100
AcDbLine
 10
50.74269024044179
 20
36.50758628282265
 30
0.0
 11
50.74269024044179
 21
21.45758628282265
 31
0.0
  0
LINE
  5
70C
330
1A
100
AcDbEntity
  8
ZUWAKU
100
AcDbLine
 10
48.42697635575769
 20
21.61568025098962
 30
0.0
 11
46.10058497728414
 21
28.98258628282267
 31
0.0
  0
LINE
  5
70D
330
1A
100
AcDbEntity
  8
ZUWAKU
100
AcDbLine
 10
43.21769024044215
 20
27.58258628282265
 30
0.0
 11
43.35792440393061
 21
27.58258628282265
 31
0.0
  0
ARC
  5
70E
330
1A
100
AcDbEntity
  8
ZUWAKU
100
AcDbCircle
 10
46.22745607695333
 20
21.45758628282265
 30
0.0
 40
0.525
100
AcDbArc
 50
197.5255683737225
 51
270.0
  0
ARC
  5
70F
330
1A
100
AcDbEntity
  8
ZUWAKU
100
AcDbCircle
 10
47.9263454565621
 20
21.45758628282265
 30
0.0
 40
0.525
100
AcDbArc
 50
270.0
 51
17.52556837372255
  0
LINE
  5
710
330
1A
100
AcDbEntity
  8
ZUWAKU
100
AcDbLine
 10
46.22745607695333
 20
20.93258628282265
 30
0.0
 11
47.9263454565621
 21
20.93258628282265
 31
0.0
  0
ARC
  5
711
330
1A
100
AcDbEntity
  8
ZUWAKU
100
AcDbCircle
 10
42.16769024044197
 20
21.45758628282265
 30
0.0
 40
0.525
100
AcDbArc
 50
270.0
 51
0.0
  0
LINE
  5
712
330
1A
100
AcDbEntity
  8
ZUWAKU
100
AcDbLine
 10
45.72682517775774
 20
21.29949231465567
 30
0.0
 11
43.85855530312574
 21
27.21568025098962
 31
0.0
  0
LINE
  5
713
330
1A
100
AcDbEntity
  8
ZUWAKU
100
AcDbLine
 10
42.69269024044206
 20
21.45758628282265
 30
0.0
 11
42.69269024044206
 21
27.05758628282265
 31
0.0
  0
ARC
  5
714
330
1A
100
AcDbEntity
  8
ZUWAKU
100
AcDbCircle
 10
56.69269024044206
 20
23.20758628282265
 30
0.0
 40
0.525
100
AcDbArc
 50
90.0
 51
180.0
  0
ARC
  5
715
330
1A
100
AcDbEntity
  8
ZUWAKU
100
AcDbCircle
 10
53.01769024044188
 20
21.45758628282265
 30
0.0
 40
0.525
100
AcDbArc
 50
270.0
 51
0.0
  0
ARC
  5
716
330
1A
100
AcDbEntity
  8
ZUWAKU
100
AcDbCircle
 10
56.69269024044206
 20
21.45758628282265
 30
0.0
 40
0.525
100
AcDbArc
 50
180.0
 51
270.0
  0
LINE
  5
717
330
1A
100
AcDbEntity
  8
ZUWAKU
100
AcDbLine
 10
56.16769024044197
 20
21.45758628282265
 30
0.0
 11
56.16769024044197
 21
23.20758628282265
 31
0.0
  0
ARC
  5
718
330
1A
100
AcDbEntity
  8
ZUWAKU
100
AcDbCircle
 10
51.26769024044188
 20
21.45758628282265
 30
0.0
 40
0.525
100
AcDbArc
 50
180.0
 51
270.0
  0
LINE
  5
719
330
1A
100
AcDbEntity
  8
ZUWAKU
100
AcDbLine
 10
51.26769024044188
 20
20.93258628282265
 30
0.0
 11
53.01769024044188
 21
20.93258628282265
 31
0.0
  0
LINE
  5
71A
330
1A
100
AcDbEntity
  8
ZUWAKU
100
AcDbLine
 10
47.36533672261976
 20
32.98763347638608
 30
0.0
 11
46.10058497728414
 21
28.98258628282267
 31
0.0
  0
ARC
  5
71B
330
1A
100
AcDbEntity
  8
ZUWAKU
100
AcDbCircle
 10
46.22745607695333
 20
36.50758628282265
 30
0.0
 40
0.525
100
AcDbArc
 50
90.0
 51
162.4744316262773
  0
LINE
  5
71C
330
1A
100
AcDbEntity
  8
ZUWAKU
100
AcDbLine
 10
48.42697635575769
 20
36.34949231465568
 30
0.0
 11
47.36533672261976
 21
32.98763347638608
 31
0.0
  0
ARC
  5
71D
330
1A
100
AcDbEntity
  8
ZUWAKU
100
AcDbCircle
 10
47.9263454565621
 20
36.50758628282265
 30
0.0
 40
0.525
100
AcDbArc
 50
342.4744316262774
 51
90.0
  0
LINE
  5
71E
330
1A
100
AcDbEntity
  8
ZUWAKU
100
AcDbLine
 10
46.22745607695333
 20
37.03258628282265
 30
0.0
 11
47.9263454565621
 21
37.03258628282265
 31
0.0
  0
LINE
  5
71F
330
1A
100
AcDbEntity
  8
ZUWAKU
100
AcDbLine
 10
42.69269024044206
 20
30.90758628282265
 30
0.0
 11
42.69269024044206
 21
36.50758628282265
 31
0.0
  0
ARC
  5
720
330
1A
100
AcDbEntity
  8
ZUWAKU
100
AcDbCircle
 10
43.21769024044215
 20
30.90758628282265
 30
0.0
 40
0.525
100
AcDbArc
 50
180.0
 51
270.0
  0
LINE
  5
721
330
1A
100
AcDbEntity
  8
ZUWAKU
100
AcDbLine
 10
43.35792440393061
 20
30.38258628282265
 30
0.0
 11
43.21769024044215
 21
30.38258628282265
 31
0.0
  0
ARC
  5
722
330
1A
100
AcDbEntity
  8
ZUWAKU
100
AcDbCircle
 10
43.35792440393061
 20
30.90758628282265
 30
0.0
 40
0.525
100
AcDbArc
 50
270.0
 51
342.4744316262774
  0
ARC
  5
723
330
1A
100
AcDbEntity
  8
ZUWAKU
100
AcDbCircle
 10
42.16769024044197
 20
36.50758628282265
 30
0.0
 40
0.525
100
AcDbArc
 50
0.0
 51
90.0
  0
LINE
  5
724
330
1A
100
AcDbEntity
  8
ZUWAKU
100
AcDbLine
 10
45.72682517775774
 20
36.66568025098962
 30
0.0
 11
43.85855530312574
 21
30.74949231465568
 31
0.0
  0
ARC
  5
725
330
1A
100
AcDbEntity
  8
ZUWAKU
100
AcDbCircle
 10
59.84269024044215
 20
32.41738425746735
 30
0.0
 40
4.199999999999999
100
AcDbArc
 50
180.0
 51
224.9999999999996
  0
LINE
  5
726
330
1A
100
AcDbEntity
  8
ZUWAKU
100
AcDbLine
 10
55.64269024044188
 20
34.23258628282265
 30
0.0
 11
55.64269024044188
 21
32.41738425746731
 31
0.0
  0
ARC
  5
727
330
1A
100
AcDbEntity
  8
ZUWAKU
100
AcDbCircle
 10
53.01769024044188
 20
36.50758628282265
 30
0.0
 40
0.525
100
AcDbArc
 50
0.0
 51
90.0
  0
ARC
  5
728
330
1A
100
AcDbEntity
  8
ZUWAKU
100
AcDbCircle
 10
51.26769024044188
 20
36.50758628282265
 30
0.0
 40
0.525
100
AcDbArc
 50
90.0
 51
180.0
  0
LINE
  5
729
330
1A
100
AcDbEntity
  8
ZUWAKU
100
AcDbLine
 10
53.01769024044188
 20
37.03258628282265
 30
0.0
 11
51.26769024044188
 21
37.03258628282265
 31
0.0
  0
ARC
  5
72A
330
1A
100
AcDbEntity
  8
ZUWAKU
100
AcDbCircle
 10
73.66769024044197
 20
36.50758628282265
 30
0.0
 40
0.525
100
AcDbArc
 50
0.0
 51
90.0
  0
ARC
  5
72B
330
1A
100
AcDbEntity
  8
ZUWAKU
100
AcDbCircle
 10
71.39269024044188
 20
23.73258628282265
 30
0.0
 40
2.799999999999999
100
AcDbArc
 50
270.0
 51
0.0
  0
LINE
  5
72C
330
1A
100
AcDbEntity
  8
ZUWAKU
100
AcDbLine
 10
67.89269024044187
 20
24.78258628282265
 30
0.0
 11
67.89269024044187
 21
36.50758628282265
 31
0.0
  0
LINE
  5
72D
330
1A
100
AcDbEntity
  8
ZUWAKU
100
AcDbLine
 10
65.09269024044215
 20
36.50758628282265
 30
0.0
 11
65.09269024044215
 21
23.73258628282265
 31
0.0
  0
LINE
  5
72E
330
1A
100
AcDbEntity
  8
ZUWAKU
100
AcDbLine
 10
71.39269024044188
 20
36.50758628282265
 30
0.0
 11
71.39269024044188
 21
24.78258628282265
 31
0.0
  0
ARC
  5
72F
330
1A
100
AcDbEntity
  8
ZUWAKU
100
AcDbCircle
 10
58.79269024044197
 20
25.54778830817795
 30
0.0
 40
4.199999999999999
100
AcDbArc
 50
0.0
 51
44.9999999999996
  0
ARC
  5
730
330
1A
100
AcDbEntity
  8
ZUWAKU
100
AcDbCircle
 10
67.89269024044187
 20
23.73258628282265
 30
0.0
 40
2.799999999999999
100
AcDbArc
 50
180.0
 51
270.0
  0
LINE
  5
731
330
1A
100
AcDbEntity
  8
ZUWAKU
100
AcDbLine
 10
62.99269024044178
 20
23.73258628282265
 30
0.0
 11
62.99269024044178
 21
25.547788308178
 31
0.0
  0
ARC
  5
732
330
1A
100
AcDbEntity
  8
ZUWAKU
100
AcDbCircle
 10
59.66769024044197
 20
24.25758628282265
 30
0.0
 40
0.525
100
AcDbArc
 50
270.0
 51
0.0
  0
LINE
  5
733
330
1A
100
AcDbEntity
  8
ZUWAKU
100
AcDbLine
 10
60.19269024044206
 20
24.25758628282265
 30
0.0
 11
60.19269024044206
 21
25.547788308178
 31
0.0
  0
ARC
  5
734
330
1A
100
AcDbEntity
  8
ZUWAKU
100
AcDbCircle
 10
60.19269024044206
 20
23.73258628282265
 30
0.0
 40
2.799999999999999
100
AcDbArc
 50
270.0
 51
0.0
  0
ARC
  5
735
330
1A
100
AcDbEntity
  8
ZUWAKU
100
AcDbCircle
 10
58.79269024044197
 20
25.547788308178
 30
0.0
 40
1.399999999999999
100
AcDbArc
 50
0.0
 51
44.9999999999996
  0
ARC
  5
736
330
1A
100
AcDbEntity
  8
ZUWAKU
100
AcDbCircle
 10
70.34269024044215
 20
24.78258628282265
 30
0.0
 40
1.049999999999999
100
AcDbArc
 50
270.0
 51
0.0
  0
ARC
  5
737
330
1A
100
AcDbEntity
  8
ZUWAKU
100
AcDbCircle
 10
68.94269024044206
 20
24.78258628282265
 30
0.0
 40
1.049999999999999
100
AcDbArc
 50
180.0
 51
270.0
  0
LINE
  5
738
330
1A
100
AcDbEntity
  8
ZUWAKU
100
AcDbLine
 10
67.89269024044187
 20
20.93258628282265
 30
0.0
 11
71.39269024044188
 21
20.93258628282265
 31
0.0
  0
LINE
  5
739
330
1A
100
AcDbEntity
  8
ZUWAKU
100
AcDbLine
 10
70.34269024044215
 20
23.73258628282265
 30
0.0
 11
68.94269024044206
 21
23.73258628282265
 31
0.0
  0
LINE
  5
73A
330
1A
100
AcDbEntity
  8
ZUWAKU
100
AcDbLine
 10
67.36769024044178
 20
37.03258628282265
 30
0.0
 11
65.61769024044179
 21
37.03258628282265
 31
0.0
  0
LINE
  5
73B
330
1A
100
AcDbEntity
  8
ZUWAKU
100
AcDbLine
 10
62.46769024044215
 20
36.50758628282265
 30
0.0
 11
62.46769024044215
 21
34.75758628282265
 31
0.0
  0
ARC
  5
73C
330
1A
100
AcDbEntity
  8
ZUWAKU
100
AcDbCircle
 10
61.94269024044206
 20
34.75758628282265
 30
0.0
 40
0.525
100
AcDbArc
 50
270.0
 51
0.0
  0
ARC
  5
73D
330
1A
100
AcDbEntity
  8
ZUWAKU
100
AcDbCircle
 10
61.94269024044206
 20
36.50758628282265
 30
0.0
 40
0.525
100
AcDbArc
 50
0.0
 51
90.0
  0
ARC
  5
73E
330
1A
100
AcDbEntity
  8
ZUWAKU
100
AcDbCircle
 10
65.61769024044179
 20
36.50758628282265
 30
0.0
 40
0.525
100
AcDbArc
 50
90.0
 51
180.0
  0
ARC
  5
73F
330
1A
100
AcDbEntity
  8
ZUWAKU
100
AcDbCircle
 10
59.84269024044215
 20
32.41738425746735
 30
0.0
 40
1.399999999999999
100
AcDbArc
 50
180.0000000000016
 51
224.9999999999993
  0
LINE
  5
740
330
1A
100
AcDbEntity
  8
ZUWAKU
100
AcDbLine
 10
58.44269024044206
 20
33.70758628282265
 30
0.0
 11
58.44269024044206
 21
32.41738425746731
 31
0.0
  0
ARC
  5
741
330
1A
100
AcDbEntity
  8
ZUWAKU
100
AcDbCircle
 10
58.96769024044215
 20
33.70758628282265
 30
0.0
 40
0.525
100
AcDbArc
 50
90.0
 51
180.0
  0
LINE
  5
742
330
1A
100
AcDbEntity
  8
ZUWAKU
100
AcDbLine
 10
61.76253872142524
 20
28.51763678916148
 30
0.0
 11
58.85274074678045
 21
31.42743476380615
 31
0.0
  0
LINE
  5
743
330
1A
100
AcDbEntity
  8
ZUWAKU
100
AcDbLine
 10
61.94269024044206
 20
34.23258628282265
 30
0.0
 11
58.96769024044215
 21
34.23258628282265
 31
0.0
  0
LINE
  5
744
330
1A
100
AcDbEntity
  8
ZUWAKU
100
AcDbLine
 10
58.44269024044206
 20
37.03258628282265
 30
0.0
 11
61.94269024044206
 21
37.03258628282265
 31
0.0
  0
ARC
  5
745
330
1A
100
AcDbEntity
  8
ZUWAKU
100
AcDbCircle
 10
71.91769024044197
 20
36.50758628282265
 30
0.0
 40
0.525
100
AcDbArc
 50
90.0
 51
180.0
  0
LINE
  5
746
330
1A
100
AcDbEntity
  8
ZUWAKU
100
AcDbLine
 10
73.66769024044197
 20
37.03258628282265
 30
0.0
 11
71.91769024044197
 21
37.03258628282265
 31
0.0
  0
ARC
  5
747
330
1A
100
AcDbEntity
  8
ZUWAKU
100
AcDbCircle
 10
67.36769024044178
 20
36.50758628282265
 30
0.0
 40
0.525
100
AcDbArc
 50
0.0
 51
90.0
  0
LINE
  5
748
330
1A
100
AcDbEntity
  8
ZUWAKU
100
AcDbLine
 10
76.29269024044197
 20
36.50758628282265
 30
0.0
 11
76.29269024044197
 21
21.45758628282265
 31
0.0
  0
LINE
  5
749
330
1A
100
AcDbEntity
  8
ZUWAKU
100
AcDbLine
 10
79.09269024044215
 20
21.45758628282265
 30
0.0
 11
79.09269024044215
 21
36.50758628282265
 31
0.0
  0
LINE
  5
74A
330
1A
100
AcDbEntity
  8
ZUWAKU
100
AcDbLine
 10
74.19269024044206
 20
23.73258628282265
 30
0.0
 11
74.19269024044206
 21
36.50758628282265
 31
0.0
  0
ARC
  5
74B
330
1A
100
AcDbEntity
  8
ZUWAKU
100
AcDbCircle
 10
78.56769024044206
 20
21.45758628282265
 30
0.0
 40
0.525
100
AcDbArc
 50
270.0
 51
0.0
  0
ARC
  5
74C
330
1A
100
AcDbEntity
  8
ZUWAKU
100
AcDbCircle
 10
76.81769024044206
 20
21.45758628282265
 30
0.0
 40
0.525
100
AcDbArc
 50
180.0
 51
270.0
  0
LINE
  5
74D
330
1A
100
AcDbEntity
  8
ZUWAKU
100
AcDbLine
 10
76.81769024044206
 20
20.93258628282265
 30
0.0
 11
78.56769024044206
 21
20.93258628282265
 31
0.0
  0
ARC
  5
74E
330
1A
100
AcDbEntity
  8
ZUWAKU
100
AcDbCircle
 10
78.56769024044206
 20
36.50758628282265
 30
0.0
 40
0.525
100
AcDbArc
 50
0.0
 51
90.0
  0
ARC
  5
74F
330
1A
100
AcDbEntity
  8
ZUWAKU
100
AcDbCircle
 10
76.81769024044206
 20
36.50758628282265
 30
0.0
 40
0.525
100
AcDbArc
 50
90.0
 51
180.0
  0
LINE
  5
750
330
1A
100
AcDbEntity
  8
ZUWAKU
100
AcDbLine
 10
78.56769024044206
 20
37.03258628282265
 30
0.0
 11
76.81769024044206
 21
37.03258628282265
 31
0.0
  0
TEXT
  5
751
330
1A
100
AcDbEntity
  8
moji
100
AcDbText
 10
103.0082676738297
 20
26.52376441309741
 30
0.0
 40
6.0
  1
大型　のきとい
 41
0.9
  7
ｽﾀｲﾙ1
100
AcDbText
  0
LINE
  5
757
330
1A
100
AcDbEntity
  8
ZUWAKU
100
AcDbLine
 10
218.4970793757283
 20
43.78258628282265
 30
0.0
 11
218.4970793757288
 21
14.58258628282271
 31
0.0
  0
LINE
  5
758
330
1A
100
AcDbEntity
  8
ZUWAKU
100
AcDbLine
 10
218.6970793757286
 20
43.78258628282265
 30
0.0
 11
218.6970793757286
 21
14.58258628282271
 31
0.0
  0
LINE
  5
759
330
1A
100
AcDbEntity
  8
ZUWAKU
100
AcDbLine
 10
218.2970793757285
 20
43.78258628282265
 30
0.0
 11
218.2970793757285
 21
14.58258628282271
 31
0.0
  0
TEXT
  5
75A
330
1A
100
AcDbEntity
  8
ZUWAKU
100
AcDbText
 10
219.7745243979379
 20
37.83794282120823
 30
0.0
 40
4.0
  1
品名
 41
0.9
  7
ｽﾀｲﾙ1
100
AcDbText
  0
TEXT
  5
75B
330
1A
100
AcDbEntity
  8
ZUWAKU
100
AcDbText
 10
219.7745243979384
 20
23.43794282120826
 30
0.0
 40
4.0
  1
サイズ
 41
0.9
  7
ｽﾀｲﾙ1
100
AcDbText
  0
TEXT
  5
792
330
1A
100
AcDbEntity
  8
ZUWAKU
100
AcDbText
 10
668.254415772963
 20
31.78750734023003
 30
0.0
 40
5.599999999999999
  1
　　．　　．　　
 41
0.9
  7
ｽﾀｲﾙ1
100
AcDbText
  0
LINE
  5
793
330
1A
100
AcDbEntity
  8
ZUWAKU
100
AcDbLine
 10
658.8676805958648
 20
29.38258628282268
 30
0.0
 11
707.2994886342021
 21
29.38258628282268
 31
0.0
  0
LINE
  5
794
330
1A
100
AcDbEntity
  8
ZUWAKU
100
AcDbLine
 10
658.8676805958653
 20
29.18258628282268
 30
0.0
 11
707.2994886342021
 21
29.18258628282268
 31
0.0
  0
LINE
  5
795
330
1A
100
AcDbEntity
  8
ZUWAKU
100
AcDbLine
 10
658.8676805958648
 20
28.98258628282268
 30
0.0
 11
707.2994886342021
 21
28.98258628282268
 31
0.0
  0
LINE
  5
79A
330
1A
100
AcDbEntity
  8
ZUWAKU
100
AcDbLine
 10
515.2496575838017
 20
29.38258628282268
 30
0.0
 11
562.5774338517731
 21
29.38258628282268
 31
0.0
  0
LINE
  5
79B
330
1A
100
AcDbEntity
  8
ZUWAKU
100
AcDbLine
 10
515.2496575838017
 20
29.18258628282268
 30
0.0
 11
562.5774338517731
 21
29.18258628282268
 31
0.0
  0
LINE
  5
79C
330
1A
100
AcDbEntity
  8
ZUWAKU
100
AcDbLine
 10
515.2496575838017
 20
28.98258628282269
 30
0.0
 11
562.5774338517731
 21
28.98258628282269
 31
0.0
  0
TEXT
  5
79D
330
1A
100
AcDbEntity
  8
moji
100
AcDbText
 10
538.0913860579735
 20
16.98750734023007
 30
0.0
 40
5.599999999999999
  1
１/２
 41
0.9
  7
ｽﾀｲﾙ1
100
AcDbText
  0
LINE
  5
79E
330
1A
100
AcDbEntity
  8
ZUWAKU
100
AcDbLine
 10
514.8496575838017
 20
43.78258628282265
 30
0.0
 11
514.8496575838017
 21
14.58258628282271
 31
0.0
  0
LINE
  5
79F
330
1A
100
AcDbEntity
  8
ZUWAKU
100
AcDbLine
 10
515.2496575838017
 20
43.78258628282265
 30
0.0
 11
515.2496575838017
 21
14.58258628282271
 31
0.0
  0
LINE
  5
7A0
330
1A
100
AcDbEntity
  8
ZUWAKU
100
AcDbLine
 10
515.0496575838015
 20
43.78258628282265
 30
0.0
 11
515.0496575838019
 21
14.58258628282271
 31
0.0
  0
LINE
  5
7A1
330
1A
100
AcDbEntity
  8
ZUWAKU
100
AcDbLine
 10
457.474842056652
 20
43.78258628282265
 30
0.0
 11
457.474842056652
 21
14.58258628282271
 31
0.0
  0
LINE
  5
7A2
330
1A
100
AcDbEntity
  8
ZUWAKU
100
AcDbLine
 10
457.8748420566521
 20
43.78258628282265
 30
0.0
 11
457.8748420566521
 21
14.58258628282271
 31
0.0
  0
LINE
  5
7A3
330
1A
100
AcDbEntity
  8
ZUWAKU
100
AcDbLine
 10
457.6748420566518
 20
43.78258628282265
 30
0.0
 11
457.6748420566523
 21
14.58258628282271
 31
0.0
  0
TEXT
  5
7A5
330
1A
100
AcDbEntity
  8
ZUWAKU
100
AcDbText
 10
459.3522870788615
 20
37.83794282120823
 30
0.0
 40
4.0
  1
品番
 41
0.9
  7
ｽﾀｲﾙ1
100
AcDbText
  0
TEXT
  5
7A6
330
1A
100
AcDbEntity
  8
ZUWAKU
100
AcDbText
 10
516.7271026060111
 20
37.83794282120823
 30
0.0
 40
4.0
  1
用紙
 41
0.9
  7
ｽﾀｲﾙ1
100
AcDbText
  0
TEXT
  5
7A7
330
1A
100
AcDbEntity
  8
ZUWAKU
100
AcDbText
 10
516.7271026060116
 20
23.43794282120826
 30
0.0
 40
4.0
  1
縮尺
 41
0.9
  7
ｽﾀｲﾙ1
100
AcDbText
  0
TEXT
  5
7A8
330
1A
100
AcDbEntity
  8
moji
100
AcDbText
 10
538.0913860579735
 20
31.78750734023003
 30
0.0
 40
5.599999999999999
  1
Ａ３
 41
0.9
  7
ｽﾀｲﾙ1
100
AcDbText
  0
LINE
  5
7A9
330
1A
100
AcDbEntity
  8
ZUWAKU
100
AcDbLine
 10
562.9774338517732
 20
43.78258628282265
 30
0.0
 11
562.9774338517732
 21
14.58258628282271
 31
0.0
  0
LINE
  5
7AA
330
1A
100
AcDbEntity
  8
ZUWAKU
100
AcDbLine
 10
658.4676805958651
 20
43.78258628282265
 30
0.0
 11
658.4676805958651
 21
14.58258628282271
 31
0.0
  0
LINE
  5
7AB
330
1A
100
AcDbEntity
  8
ZUWAKU
100
AcDbLine
 10
658.8676805958653
 20
43.78258628282265
 30
0.0
 11
658.8676805958653
 21
14.58258628282271
 31
0.0
  0
LINE
  5
7AC
330
1A
100
AcDbEntity
  8
ZUWAKU
100
AcDbLine
 10
658.667680595865
 20
43.78258628282265
 30
0.0
 11
658.6676805958655
 21
14.58258628282271
 31
0.0
  0
LINE
  5
7AD
330
1A
100
AcDbEntity
  8
ZUWAKU
100
AcDbLine
 10
562.5774338517731
 20
43.78258628282265
 30
0.0
 11
562.5774338517731
 21
14.58258628282271
 31
0.0
  0
LINE
  5
7AE
330
1A
100
AcDbEntity
  8
ZUWAKU
100
AcDbLine
 10
562.7774338517729
 20
43.78258628282265
 30
0.0
 11
562.7774338517733
 21
14.58258628282271
 31
0.0
  0
TEXT
  5
7AF
330
1A
100
AcDbEntity
  8
ZUWAKU
100
AcDbText
 10
660.3451256180747
 20
37.83794282120823
 30
0.0
 40
4.0
  1
DATE
 41
0.9
  7
ｽﾀｲﾙ1
100
AcDbText
  0
LINE
  5
7BB
330
1A
100
AcDbEntity
  8
ZUWAKU
100
AcDbLine
 10
707.899488634202
 20
43.78258628282265
 30
0.0
 11
707.899488634202
 21
14.58258628282271
 31
0.0
  0
LINE
  5
7BC
330
1A
100
AcDbEntity
  8
ZUWAKU
100
AcDbLine
 10
707.6994886342017
 20
43.78258628282265
 30
0.0
 11
707.6994886342022
 21
14.58258628282271
 31
0.0
  0
LINE
  5
7BD
330
1A
100
AcDbEntity
  8
ZUWAKU
100
AcDbLine
 10
707.4994886342019
 20
43.78258628282265
 30
0.0
 11
707.4994886342019
 21
14.58258628282271
 31
0.0
  0
LINE
  5
7BE
330
1A
100
AcDbEntity
  8
ZUWAKU
100
AcDbLine
 10
707.2994886342021
 20
43.78258628282265
 30
0.0
 11
707.2994886342021
 21
14.58258628282271
 31
0.0
  0
TEXT
  5
7BF
330
1A
100
AcDbEntity
  8
ZUWAKU
100
AcDbText
 10
716.8807897863512
 20
26.05681054867966
 30
0.0
 40
6.0
  1
積水化学工業株式会社
 41
0.9
  7
ｽﾀｲﾙ1
100
AcDbText
  0
TEXT
  5
D043
330
1A
100
AcDbEntity
  8
moji
100
AcDbText
 10
249.468893861092
 20
32.80170964146121
 30
0.0
 40
5.599999999999999
  1
亜鉛メッキ金具折版（吊）
 41
0.9
  7
ｽﾀｲﾙ1
100
AcDbText
  0
TEXT
  5
D165
330
1A
100
AcDbEntity
  8
moji
100
AcDbText
 10
471.0711402798688
 20
25.29001877651889
 30
0.0
 40
5.599999999999999
  1
ＬＧ７１
 41
0.9
  7
ｽﾀｲﾙ1
100
AcDbText
  0
TEXT
  5
D47E
330
1A
100
AcDbEntity
  8
moji
100
AcDbText
 10
249.468893861092
 20
18.49289194258493
 30
0.0
 40
5.599999999999999
  1
Ｖ３００－Ｌ２７０（３／８インチ）
 41
0.9
  7
ｽﾀｲﾙ1
100
AcDbText
  0
LINE
  5
E135
330
1A
100
AcDbEntity
  8
SEIHIN
100
AcDbLine
 10
408.9727512651827
 20
222.9089492744177
 30
0.0
 11
384.3210602651827
 21
219.4443802744177
 31
0.0
  0
LINE
  5
E136
330
1A
100
AcDbEntity
  8
SEIHIN
100
AcDbLine
 10
394.2642262651827
 20
194.4563042744177
 30
0.0
 11
377.0176142651828
 21
194.4563042744177
 31
0.0
  0
LINE
  5
E137
330
1A
100
AcDbEntity
  8
SEIHIN
100
AcDbLine
 10
410.3624362651826
 20
220.2767392744177
 30
0.0
 11
384.7107452651828
 21
216.6716292744177
 31
0.0
  0
LINE
  5
E138
330
1A
100
AcDbEntity
  8
SEIHIN
100
AcDbLine
 10
410.6407832651828
 20
218.2962032744177
 30
0.0
 11
384.9890912651826
 21
214.6910932744177
 31
0.0
  0
DIMENSION
  5
E139
330
1A
100
AcDbEntity
  8
SUNPOU
100
AcDbDimension
  2
*D2
 10
380.8699847143138
 20
249.5621702176836
 30
0.0
 11
398.2249699897483
 21
254.5621702176836
 31
0.0
 70
    32
 71
     5
 42
-1.0
  3
STANDARD
100
AcDbAlignedDimension
 13
415.5799552651829
 23
217.1653952744177
 33
0.0
 14
380.8699847143138
 24
218.9593632680712
 34
0.0
100
AcDbRotatedDimension
1001
ACAD
1000
DSTYLE
1002
{
1070
    41
1040
7.0
1070
    42
1040
6.0
1070
    43
1040
14.0
1070
    44
1040
3.0
1070
    73
1070
     0
1070
    74
1070
     0
1070
    77
1070
     3
1070
   140
1040
6.0
1070
   141
1040
150.0
1070
   147
1040
2.0
1070
   172
1070
     1
1070
   173
1070
     1
1070
   176
1070
   256
1070
   177
1070
   256
1070
   178
1070
   256
1070
   271
1070
     0
1070
   272
1070
     0
1070
   341
1005
6D
1070
     6
1000
OPEN
1070
     7
1000
OPEN
1070
   371
1070
    -1
1070
   372
1070
    -1
1002
}
  0
LINE
  5
E13A
330
1A
100
AcDbEntity
  8
NOKITOI
 48
2.0
100
AcDbLine
 10
399.563372005877
 20
198.2075493595349
 30
0.0
 11
387.2691521857609
 21
97.27780908026369
 31
0.0
  0
LINE
  5
E13B
330
1A
100
AcDbEntity
  8
NOKITOI
 48
2.0
100
AcDbLine
 10
400.2873916467503
 20
196.7076493595348
 30
0.0
 11
388.0232916467503
 21
96.02624935953492
 31
0.0
  0
LINE
  5
E13C
330
1A
100
AcDbEntity
  8
NOKITOI
 48
2.0
100
AcDbLine
 10
400.6665916467502
 20
214.7076493595347
 30
0.0
 11
386.3757557102744
 21
97.38663342307638
 31
0.0
  0
LEADER
  5
E13D
330
1A
100
AcDbEntity
  8
SUNPOU
100
AcDbLeader
  3
STANDARD
 76
     3
 10
320.9203092317325
 20
345.2219065805958
 30
0.0
 10
348.8231604342213
 20
369.8876823301315
 30
0.0
 10
398.9025373932886
 20
369.8876823301315
 30
0.0
1001
ACAD
1000
DSTYLE
1002
{
1070
     6
1000
OPEN
1070
    41
1040
7.0
1070
    42
1040
6.0
1070
    43
1040
14.0
1070
    44
1040
3.0
1070
    73
1070
     0
1070
    74
1070
     0
1070
    77
1070
     3
1070
   140
1040
6.0
1070
   141
1040
150.0
1070
   147
1040
2.0
1070
   172
1070
     1
1070
   173
1070
     1
1070
   176
1070
     4
1070
   177
1070
     4
1070
   178
1070
     4
1070
   271
1070
     0
1070
   272
1070
     2
1070
   341
1005
6D
1070
   343
1005
6D
1070
   344
1005
6D
1002
}
  0
LEADER
  5
E13E
330
1A
100
AcDbEntity
  8
SUNPOU
100
AcDbLeader
  3
STANDARD
 76
     3
 10
329.5441892651826
 20
427.0353492744177
 30
0.0
 10
356.6816043716805
 20
402.5172015157649
 30
0.0
 10
440.3497157621875
 20
402.5172015157649
 30
0.0
1001
ACAD
1000
DSTYLE
1002
{
1070
     6
1000
OPEN
1070
    41
1040
7.0
1070
    42
1040
6.0
1070
    43
1040
14.0
1070
    44
1040
3.0
1070
    73
1070
     0
1070
    74
1070
     0
1070
    77
1070
     3
1070
   140
1040
6.0
1070
   141
1040
150.0
1070
   147
1040
2.0
1070
   172
1070
     1
1070
   173
1070
     1
1070
   176
1070
     4
1070
   177
1070
     4
1070
   178
1070
     4
1070
   271
1070
     0
1070
   272
1070
     2
1070
   341
1005
6D
1070
   343
1005
6D
1070
   344
1005
6D
1002
}
  0
DIMENSION
  5
E13F
330
1A
100
AcDbEntity
  8
SUNPOU
100
AcDbDimension
  2
*D3
 10
415.5799552651829
 20
472.5683370461559
 30
0.0
 11
365.0620667651828
 21
477.5683370461559
 31
0.0
 70
    32
 71
     5
 42
-1.0
  3
STANDARD
100
AcDbAlignedDimension
 13
314.5441782651828
 23
463.4141412744177
 33
0.0
 14
415.5799552651829
 24
217.1653952744177
 34
0.0
100
AcDbRotatedDimension
1001
ACAD
1000
DSTYLE
1002
{
1070
    41
1040
7.0
1070
    42
1040
6.0
1070
    43
1040
14.0
1070
    44
1040
3.0
1070
    73
1070
     0
1070
    74
1070
     0
1070
    77
1070
     3
1070
   140
1040
6.0
1070
   141
1040
150.0
1070
   147
1040
2.0
1070
   172
1070
     1
1070
   173
1070
     1
1070
   176
1070
   256
1070
   177
1070
   256
1070
   178
1070
   256
1070
   271
1070
     0
1070
   272
1070
     0
1070
   341
1005
6D
1070
     6
1000
OPEN
1070
     7
1000
OPEN
1070
   371
1070
    -1
1070
   372
1070
    -1
1002
}
  0
DIMENSION
  5
E140
330
1A
100
AcDbEntity
  8
SUNPOU
100
AcDbDimension
  2
*D4
 10
207.1799552651827
 20
301.6539926250235
 30
0.0
 11
359.0347775938935
 21
308.627975645591
 31
0.0
 70
   160
 71
     5
 42
-1.0
  3
STANDARD
100
AcDbAlignedDimension
 13
415.5799552651829
 23
198.7563042744176
 33
0.0
 14
207.1799552651827
 24
228.7563042744177
 34
0.0
100
AcDbRotatedDimension
1001
ACAD
1000
DSTYLE
1002
{
1070
   287
1070
     5
1070
   287
1070
     5
1070
   287
1070
     5
1070
   287
1070
     5
1070
    41
1040
7.0
1070
    42
1040
6.0
1070
    43
1040
14.0
1070
    44
1040
3.0
1070
    73
1070
     0
1070
    74
1070
     0
1070
    77
1070
     3
1070
   140
1040
6.0
1070
   141
1040
150.0
1070
   147
1040
2.0
1070
   172
1070
     1
1070
   173
1070
     1
1070
   176
1070
     4
1070
   177
1070
     4
1070
   178
1070
     4
1070
   271
1070
     0
1070
   272
1070
     2
1070
   279
1070
     2
1070
     6
1000
OPEN
1070
     7
1000
OPEN
1002
}
  0
DIMENSION
  5
E141
330
1A
100
AcDbEntity
  8
SUNPOU
100
AcDbDimension
  2
*D5
 10
362.1621814446875
 20
196.4563042744177
 30
0.0
 11
357.1621814446875
 21
209.6826267601054
 31
0.0
 70
    32
  1
27
 71
     5
 42
-1.0
  3
STANDARD
100
AcDbAlignedDimension
 13
408.9727517848812
 23
222.908949245793
 33
0.0
 14
371.9793332651827
 24
196.4563042744177
 34
0.0
 50
90.0
100
AcDbRotatedDimension
1001
ACAD
1000
DSTYLE
1002
{
1070
   140
1040
6.0
1070
    74
1070
     0
1070
   172
1070
     1
1070
    73
1070
     0
1070
   272
1070
     2
1070
    77
1070
     3
1070
   173
1070
     1
1070
   147
1040
2.0
1070
    42
1040
6.0
1070
    44
1040
3.0
1070
    43
1040
14.0
1070
   271
1070
     0
1070
   178
1070
     4
1070
   177
1070
     4
1070
   176
1070
     4
1070
   141
1040
150.0
1070
     7
1000
_OPEN
1070
     6
1000
_OPEN
1070
    41
1040
7.0
1002
}
  0
LINE
  5
E142
330
1A
100
AcDbEntity
  8
SEIHIN
100
AcDbLine
 10
395.4799552651827
 20
193.9563042744177
 30
0.0
 11
376.7452492651827
 21
193.9563042744177
 31
0.0
  0
TEXT
  5
E143
330
1A
100
AcDbEntity
  8
SUNPOU
100
AcDbText
 10
351.3383599127232
 20
371.5629078348451
 30
0.0
 40
5.0
  1
Ｗ３／８－Ｌ2７０
100
AcDbText
  0
TEXT
  5
E144
330
1A
100
AcDbEntity
  8
SUNPOU
100
AcDbText
 10
359.1968038501825
 20
404.1924270204785
 30
0.0
 40
5.0
  1
パッキン（アスファルト含浸）
100
AcDbText
  0
LINE
  5
E145
330
1A
100
AcDbEntity
  8
CENTER L
 48
5.0
100
AcDbLine
 10
189.3239876613731
 20
537.0204468713239
 30
0.0
 11
435.0043274247139
 21
537.0204468713239
 31
0.0
  0
LINE
  5
E146
330
1A
100
AcDbEntity
  8
SEIHIN
 48
5.0
100
AcDbLine
 10
315.5685633015286
 20
523.720446871324
 30
0.0
 11
414.8043403015285
 21
523.7204468713239
 31
0.0
  0
LINE
  5
E147
330
1A
100
AcDbEntity
  8
SEIHIN
 48
5.0
100
AcDbLine
 10
315.5685633015286
 20
522.020446871324
 30
0.0
 11
414.8043403015285
 21
522.0204468713238
 31
0.0
  0
LINE
  5
E148
330
1A
100
AcDbEntity
  8
SEIHIN
100
AcDbLine
 10
315.5685633015286
 20
550.3204468713238
 30
0.0
 11
414.8043403015285
 21
550.3204468713238
 31
0.0
  0
LINE
  5
E149
330
1A
100
AcDbEntity
  8
SEIHIN
 48
5.0
100
AcDbLine
 10
315.5685633015286
 20
552.0204468713236
 30
0.0
 11
414.8043403015285
 21
552.0204468713236
 31
0.0
  0
DIMENSION
  5
E14B
330
1A
100
AcDbEntity
  8
SUNPOU
100
AcDbDimension
  2
*D6
 10
207.1799552651827
 20
472.5683370461559
 30
0.0
 11
260.8620667651828
 21
477.5683370461559
 31
0.0
 70
    32
 71
     5
 42
-1.0
  3
STANDARD
100
AcDbAlignedDimension
 13
314.5441782651828
 23
463.4141412744177
 33
0.0
 14
207.1799552651827
 24
247.1653942744176
 34
0.0
100
AcDbRotatedDimension
1001
ACAD
1000
DSTYLE
1002
{
1070
    41
1040
7.0
1070
    42
1040
6.0
1070
    43
1040
14.0
1070
    44
1040
3.0
1070
    73
1070
     0
1070
    74
1070
     0
1070
    77
1070
     3
1070
   140
1040
6.0
1070
   141
1040
150.0
1070
   147
1040
2.0
1070
   172
1070
     1
1070
   173
1070
     1
1070
   176
1070
   256
1070
   177
1070
   256
1070
   178
1070
   256
1070
   271
1070
     0
1070
   272
1070
     0
1070
   341
1005
6D
1070
     6
1000
OPEN
1070
     7
1000
OPEN
1070
   371
1070
    -1
1070
   372
1070
    -1
1002
}
  0
LINE
  5
E14C
330
1A
100
AcDbEntity
  8
SEIHIN
100
AcDbLine
 10
318.5642882651827
 20
406.3353492744177
 30
0.0
 11
318.5642882651827
 21
204.4562042744177
 31
0.0
  0
LINE
  5
E14D
330
1A
100
AcDbEntity
  8
SEIHIN
100
AcDbLine
 10
319.5642882651827
 20
406.3353492744177
 30
0.0
 11
319.5642882651827
 21
204.4562042744177
 31
0.0
  0
LINE
  5
E14E
330
1A
100
AcDbEntity
  8
SEIHIN
100
AcDbLine
 10
310.5642882651827
 20
406.3353492744177
 30
0.0
 11
310.5642882651827
 21
204.4562042744177
 31
0.0
  0
LINE
  5
E14F
330
1A
100
AcDbEntity
  8
SEIHIN
100
AcDbLine
 10
309.5642882651827
 20
406.3353492744177
 30
0.0
 11
309.5642882651827
 21
204.4562042744177
 31
0.0
  0
DIMENSION
  5
E150
330
1A
100
AcDbEntity
  8
SUNPOU
100
AcDbDimension
  2
*D7
 10
147.3537346692401
 20
447.4564042744177
 30
0.0
 11
142.35373466924
 21
312.4564042744177
 31
0.0
 70
    32
 71
     5
 42
-1.0
  3
STANDARD
100
AcDbAlignedDimension
 13
309.5642882651827
 23
177.4564042744177
 33
0.0
 14
309.5441782651828
 24
447.4564042744177
 34
0.0
 50
90.0
100
AcDbRotatedDimension
1001
ACAD
1000
DSTYLE
1002
{
1070
   140
1040
6.0
1070
    74
1070
     0
1070
   172
1070
     1
1070
    73
1070
     0
1070
   272
1070
     2
1070
    77
1070
     3
1070
   173
1070
     1
1070
   147
1040
2.0
1070
    42
1040
6.0
1070
    44
1040
3.0
1070
    43
1040
14.0
1070
   271
1070
     0
1070
   178
1070
     4
1070
   177
1070
     4
1070
   176
1070
     4
1070
   141
1040
150.0
1070
     7
1000
_OPEN
1070
     6
1000
_OPEN
1070
    41
1040
7.0
1002
}
  0
LINE
  5
E151
330
1A
100
AcDbEntity
  8
CENTER L
 48
5.0
100
AcDbLine
 10
314.5441782651828
 20
463.4141412744177
 30
0.0
 11
314.5441782651828
 21
160.1781469865971
 31
0.0
  0
LINE
  5
E152
330
1A
100
AcDbEntity
  8
CENTER L
 48
5.0
100
AcDbLine
 10
282.8799552651828
 20
463.4141412744177
 30
0.0
 11
282.8799552651828
 21
160.1781469865971
 31
0.0
  0
LINE
  5
E153
330
1A
100
AcDbEntity
  8
CENTER L
 48
5.0
100
AcDbLine
 10
340.8799552651826
 20
463.4141412744177
 30
0.0
 11
340.8799552651826
 21
160.1781469865971
 31
0.0
  0
LINE
  5
E154
330
1A
100
AcDbEntity
  8
NOKITOI
 48
2.0
100
AcDbLine
 10
221.4550916467503
 20
244.7077493595349
 30
0.0
 11
239.350772738609
 21
97.38696155532835
 31
0.0
  0
LINE
  5
E155
330
1A
100
AcDbEntity
  8
NOKITOI
 48
2.0
100
AcDbLine
 10
222.5528007671332
 20
228.2077493595349
 30
0.0
 11
238.4573403399374
 21
97.27843253154247
 31
0.0
  0
LINE
  5
E156
330
1A
100
AcDbEntity
  8
NOKITOI
 48
2.0
100
AcDbLine
 10
221.8282916467503
 20
226.7077493595348
 30
0.0
 11
237.7024916467503
 21
96.02674935953485
 31
0.0
  0
LINE
  5
E157
330
1A
100
AcDbEntity
  8
NOKITOI
 48
2.0
100
AcDbLine
 10
239.1914916467503
 20
94.70754935953483
 30
0.0
 11
386.5342916467504
 21
94.70754935953483
 31
0.0
  0
LINE
  5
E158
330
1A
100
AcDbEntity
  8
NOKITOI
 48
2.0
100
AcDbLine
 10
385.383092959734
 20
95.60754935953497
 30
0.0
 11
240.3434754037996
 21
95.60754935953491
 31
0.0
  0
LINE
  5
E159
330
1A
100
AcDbEntity
  8
NOKITOI
 48
2.0
100
AcDbLine
 10
385.383092959734
 20
96.50754935953495
 30
0.0
 11
240.3434754037996
 21
96.50754935953495
 31
0.0
  0
ARC
  5
E15D
330
1A
100
AcDbEntity
  8
NOKITOI
 48
2.0
100
AcDbCircle
 10
240.3434754037996
 20
97.50754935953494
 30
0.0
 40
1.9
100
AcDbArc
 50
186.9260276328712
 51
270.0
  0
ARC
  5
E15E
330
1A
100
AcDbEntity
  8
NOKITOI
 48
2.0
100
AcDbCircle
 10
240.3434754037996
 20
97.50754935953494
 30
0.0
 40
1.0
100
AcDbArc
 50
186.9260276328712
 51
270.0
  0
ARC
  5
E15F
330
1A
100
AcDbEntity
  8
NOKITOI
 48
2.0
100
AcDbCircle
 10
239.1915274595751
 20
96.20751763219704
 30
0.0
 40
1.499968273089708
100
AcDbArc
 50
186.9218100777304
 51
269.9986320219204
  0
LINE
  5
E160
330
1A
100
AcDbEntity
  8
CENTER L
 48
5.0
100
AcDbLine
 10
312.8626916467503
 20
87.70754935953481
 30
0.0
 11
312.8626916467503
 21
103.5075493595349
 31
0.0
  0
ARC
  5
E161
330
1A
100
AcDbEntity
  8
NOKITOI
 48
2.0
100
AcDbCircle
 10
385.383092959734
 20
97.50754935953494
 30
0.0
 40
1.9
100
AcDbArc
 50
270.0
 51
353.0550331906539
  0
ARC
  5
E162
330
1A
100
AcDbEntity
  8
NOKITOI
 48
2.0
100
AcDbCircle
 10
385.383092959734
 20
97.50754935953494
 30
0.0
 40
1.0
100
AcDbArc
 50
270.0
 51
353.0550331906539
  0
ARC
  5
E163
330
1A
100
AcDbEntity
  8
NOKITOI
 48
2.0
100
AcDbCircle
 10
386.5342898946917
 20
96.20754780786654
 30
0.0
 40
1.499998448332718
100
AcDbArc
 50
270.0000669237721
 51
353.0579294895353
  0
LINE
  5
E164
330
1A
100
AcDbEntity
  8
SEIHIN
100
AcDbLine
 10
371.9793332651827
 20
196.4563042744177
 30
0.0
 11
257.1492422651826
 21
196.4563042744177
 31
0.0
  0
LINE
  5
E165
330
1A
100
AcDbEntity
  8
SEIHIN
100
AcDbLine
 10
370.9151552651828
 20
192.6563042744177
 30
0.0
 11
258.1590702651827
 21
192.6563042744177
 31
0.0
  0
LINE
  5
E166
330
1A
100
AcDbEntity
  8
SEIHIN
100
AcDbLine
 10
370.9151552651828
 20
190.6563042744177
 30
0.0
 11
258.1590702651827
 21
190.6563042744177
 31
0.0
  0
DIMENSION
  5
E167
330
1A
100
AcDbEntity
  8
SUNPOU
100
AcDbDimension
  2
*D8
 10
272.4731532022574
 20
196.4563043154794
 30
0.0
 11
267.4731532022573
 21
224.6826267782779
 31
0.0
 70
    32
  1
57
 71
     5
 42
-1.0
  3
STANDARD
100
AcDbAlignedDimension
 13
213.7871587790439
 23
252.9089492410764
 33
0.0
 14
257.1492422651826
 24
196.4563043154794
 34
0.0
 50
90.0
100
AcDbRotatedDimension
1001
ACAD
1000
DSTYLE
1002
{
1070
   140
1040
6.0
1070
    74
1070
     0
1070
   172
1070
     1
1070
    73
1070
     0
1070
   272
1070
     2
1070
    77
1070
     3
1070
   173
1070
     1
1070
   147
1040
2.0
1070
    42
1040
6.0
1070
    44
1040
3.0
1070
    43
1040
14.0
1070
   271
1070
     0
1070
   178
1070
     4
1070
   177
1070
     4
1070
   176
1070
     4
1070
   141
1040
150.0
1070
     7
1000
_OPEN
1070
     6
1000
_OPEN
1070
    41
1040
7.0
1002
}
  0
LINE
  5
E168
330
1A
100
AcDbEntity
  8
SEIHIN
100
AcDbLine
 10
256.1589742651828
 20
197.3171302744177
 30
0.0
 11
249.6506772651828
 21
243.6260682744177
 31
0.0
  0
LINE
  5
E169
330
1A
100
AcDbEntity
  8
SEIHIN
100
AcDbLine
 10
253.4057832651827
 20
196.7882732744176
 30
0.0
 11
246.8779272651827
 21
243.2363842744177
 31
0.0
  0
DIMENSION
  5
E16A
330
1A
100
AcDbEntity
  8
SUNPOU
100
AcDbDimension
  2
*D9
 10
184.9480180049472
 20
223.9563042744177
 30
0.0
 11
179.9480180049472
 21
238.4326267577471
 31
0.0
 70
    32
 71
     5
 42
-1.0
  3
STANDARD
100
AcDbAlignedDimension
 13
213.7871587790439
 23
252.9089492410764
 33
0.0
 14
211.9799552651827
 24
223.9563042744176
 34
0.0
 50
90.0
100
AcDbRotatedDimension
1001
ACAD
1000
DSTYLE
1002
{
1070
    41
1040
7.0
1070
    42
1040
6.0
1070
    43
1040
14.0
1070
    44
1040
3.0
1070
    73
1070
     0
1070
    74
1070
     0
1070
    77
1070
     3
1070
   140
1040
6.0
1070
   141
1040
150.0
1070
   147
1040
2.0
1070
   172
1070
     1
1070
   173
1070
     1
1070
   176
1070
   256
1070
   177
1070
   256
1070
   178
1070
   256
1070
   271
1070
     0
1070
   272
1070
     0
1070
   341
1005
6D
1070
     6
1000
OPEN
1070
     7
1000
OPEN
1070
   371
1070
    -1
1070
   372
1070
    -1
1002
}
  0
LINE
  5
E16B
330
1A
100
AcDbEntity
  8
NOKITOI
 48
2.0
100
AcDbLine
 10
211.4549916467503
 20
226.7077493595348
 30
0.0
 11
211.4550916467503
 21
242.7077493595349
 31
0.0
  0
LINE
  5
E16C
330
1A
100
AcDbEntity
  8
SEIHIN
100
AcDbLine
 10
208.9799552651827
 20
226.9563042744177
 30
0.0
 11
208.9799552651827
 21
247.3059352744177
 31
0.0
  0
LINE
  5
E16D
330
1A
100
AcDbEntity
  8
SEIHIN
100
AcDbLine
 10
210.9799552651827
 20
226.9563042744177
 30
0.0
 11
210.9799552651827
 21
247.3059352744177
 31
0.0
  0
LINE
  5
E16E
330
1A
100
AcDbEntity
  8
NOKITOI
 48
2.0
100
AcDbLine
 10
221.6096210240621
 20
228.507749359535
 30
0.0
 11
219.8603916467502
 21
242.9077493595347
 31
0.0
  0
LINE
  5
E16F
330
1A
100
AcDbEntity
  8
NOKITOI
 48
2.0
100
AcDbLine
 10
213.2549916467503
 20
228.5077493595348
 30
0.0
 11
213.2549916467503
 21
242.7077493595349
 31
0.0
  0
LINE
  5
E170
330
1A
100
AcDbEntity
  8
NOKITOI
 48
2.0
100
AcDbLine
 10
212.9549916467504
 20
228.2077493595349
 30
0.0
 11
212.9549916467504
 21
242.7077493595349
 31
0.0
  0
LINE
  5
E171
330
1A
100
AcDbEntity
  8
SEIHIN
100
AcDbLine
 10
207.1799552651827
 20
228.7563042744177
 30
0.0
 11
207.1799552651827
 21
247.1653942744176
 31
0.0
  0
LINE
  5
E172
330
1A
100
AcDbEntity
  8
SEIHIN
100
AcDbLine
 10
251.4252472651827
 20
196.5099272744177
 30
0.0
 11
244.8973912651827
 21
242.9580382744177
 31
0.0
  0
ARC
  5
E173
330
1A
100
AcDbEntity
  8
SEIHIN
100
AcDbCircle
 10
258.1590702651827
 20
197.4563042744177
 30
0.0
 40
4.800000141735933
100
AcDbArc
 50
187.9999948198564
 51
269.9999939044801
  0
ARC
  5
E174
330
1A
100
AcDbEntity
  8
SEIHIN
100
AcDbCircle
 10
258.1590702651827
 20
197.4563042744177
 30
0.0
 40
6.800000059612425
100
AcDbArc
 50
187.9999948198564
 51
269.9999956972797
  0
LINE
  5
E175
330
1A
100
AcDbEntity
  8
SEIHIN
100
AcDbLine
 10
228.4956842651827
 20
224.4563042744177
 30
0.0
 11
245.9023732651827
 21
224.4563042744177
 31
0.0
  0
LINE
  5
E176
330
1A
100
AcDbEntity
  8
SEIHIN
100
AcDbLine
 10
227.2799552651826
 20
223.9563042744177
 30
0.0
 11
245.9023732651827
 21
223.9563042744177
 31
0.0
  0
LINE
  5
E177
330
1A
100
AcDbEntity
  8
NOKITOI
 48
2.0
100
AcDbLine
 10
211.4549916467503
 20
226.7077493595348
 30
0.0
 11
221.8282916467503
 21
226.7077493595348
 31
0.0
  0
LINE
  5
E178
330
1A
100
AcDbEntity
  8
SEIHIN
100
AcDbLine
 10
211.9799552651827
 20
225.9563042744177
 30
0.0
 11
220.7799552651827
 21
225.9563042744177
 31
0.0
  0
LINE
  5
E179
330
1A
100
AcDbEntity
  8
SEIHIN
100
AcDbLine
 10
211.9799552651827
 20
223.9563042744177
 30
0.0
 11
220.7799552651827
 21
223.9563042744177
 31
0.0
  0
ARC
  5
E17A
330
1A
100
AcDbEntity
  8
SEIHIN
100
AcDbCircle
 10
211.9799552651827
 20
226.9563042744177
 30
0.0
 40
1.0
100
AcDbArc
 50
180.000000000026
 51
270.000000000026
  0
LINE
  5
E17B
330
1A
100
AcDbEntity
  8
SEIHIN
100
AcDbLine
 10
211.9799552651827
 20
225.9563042744177
 30
0.0
 11
211.9799552651827
 21
225.9563042744177
 31
0.0
  0
ARC
  5
E17C
330
1A
100
AcDbEntity
  8
SEIHIN
100
AcDbCircle
 10
211.9799552651827
 20
228.7563042744177
 30
0.0
 40
4.799999999999999
100
AcDbArc
 50
180.0
 51
270.0
  0
ARC
  5
E17D
330
1A
100
AcDbEntity
  8
SEIHIN
100
AcDbCircle
 10
211.9799552651827
 20
226.9563042744177
 30
0.0
 40
3.0
100
AcDbArc
 50
179.9999999999959
 51
269.9999999999934
  0
LINE
  5
E17E
330
1A
100
AcDbEntity
  8
NOKITOI
 48
2.0
100
AcDbLine
 10
222.5528007671332
 20
228.2077493595349
 30
0.0
 11
212.9549916467504
 21
228.2077493595349
 31
0.0
  0
LINE
  5
E17F
330
1A
100
AcDbEntity
  8
NOKITOI
 48
2.0
100
AcDbLine
 10
221.6095916467504
 20
228.5077493595348
 30
0.0
 11
213.2549916467503
 21
228.5077493595348
 31
0.0
  0
LINE
  5
E180
330
1A
100
AcDbEntity
  8
SEIHIN
100
AcDbLine
 10
226.9956842651827
 20
225.9563042744177
 30
0.0
 11
226.9956842651827
 21
228.9563042744177
 31
0.0
  0
LINE
  5
E181
330
1A
100
AcDbEntity
  8
SEIHIN
100
AcDbLine
 10
225.2799552651826
 20
225.9563042744177
 30
0.0
 11
225.2799552651826
 21
228.9563042744177
 31
0.0
  0
LINE
  5
E182
330
1A
100
AcDbEntity
  8
SEIHIN
100
AcDbLine
 10
225.2799552651826
 20
228.9563042744177
 30
0.0
 11
226.9956842651827
 21
228.9563042744177
 31
0.0
  0
LINE
  5
E183
330
1A
100
AcDbEntity
  8
SEIHIN
100
AcDbLine
 10
220.7799552651827
 20
225.9563042744177
 30
0.0
 11
220.7799552651827
 21
223.9563042744177
 31
0.0
  0
ARC
  5
E184
330
1A
100
AcDbEntity
  8
SEIHIN
100
AcDbCircle
 10
227.2799552651826
 20
225.9563042744177
 30
0.0
 40
2.0
100
AcDbArc
 50
179.9999999999983
 51
270.0
  0
ARC
  5
E185
330
1A
100
AcDbEntity
  8
SEIHIN
100
AcDbCircle
 10
228.4956842651827
 20
225.9563042744177
 30
0.0
 40
1.5
100
AcDbArc
 50
179.9999999999828
 51
269.9999999999804
  0
ARC
  5
E186
330
1A
100
AcDbEntity
  8
SEIHIN
100
AcDbCircle
 10
257.1492422651826
 20
197.4563042744177
 30
0.0
 40
0.9999999589382483
100
AcDbArc
 50
187.9999948198564
 51
270.0
  0
ARC
  5
E187
330
1A
100
AcDbEntity
  8
SEIHIN
100
AcDbCircle
 10
245.9023732651827
 20
219.4563042744177
 30
0.0
 40
4.999999892672397
100
AcDbArc
 50
70.92725170705041
 51
90.0
  0
ARC
  5
E188
330
1A
100
AcDbEntity
  8
SEIHIN
100
AcDbCircle
 10
245.9023732651827
 20
219.4563042744177
 30
0.0
 40
4.499999720162261
100
AcDbArc
 50
67.62281036786153
 51
89.99999999999349
  0
DIMENSION
  5
E189
330
1A
100
AcDbEntity
  8
SUNPOU
100
AcDbDimension
  2
*D10
 10
249.0424053703061
 20
281.6396106061536
 30
0.0
 11
228.1111802674073
 21
286.6396106061536
 31
0.0
 70
    32
 71
     5
 42
-1.0
  3
STANDARD
100
AcDbAlignedDimension
 13
207.1799551645085
 23
247.1653937976501
 33
0.0
 14
249.0424053703061
 24
247.9541475656643
 34
0.0
100
AcDbRotatedDimension
1001
ACAD
1000
DSTYLE
1002
{
1070
    41
1040
7.0
1070
    42
1040
6.0
1070
    43
1040
14.0
1070
    44
1040
3.0
1070
    73
1070
     0
1070
    74
1070
     0
1070
    77
1070
     3
1070
   140
1040
6.0
1070
   141
1040
150.0
1070
   147
1040
2.0
1070
   172
1070
     1
1070
   173
1070
     1
1070
   176
1070
   256
1070
   177
1070
   256
1070
   178
1070
   256
1070
   271
1070
     0
1070
   272
1070
     0
1070
   341
1005
6D
1070
     6
1000
OPEN
1070
     7
1000
OPEN
1070
   371
1070
    -1
1070
   372
1070
    -1
1002
}
  0
LINE
  5
E18A
330
1A
100
AcDbEntity
  8
SEIHIN
100
AcDbLine
 10
213.7871592651827
 20
252.9089492744176
 30
0.0
 11
244.7143272651827
 21
248.5624192744177
 31
0.0
  0
LINE
  5
E18B
330
1A
100
AcDbEntity
  8
SEIHIN
100
AcDbLine
 10
212.3974752651827
 20
250.2767392744177
 30
0.0
 11
244.3246422651828
 21
245.7896692744176
 31
0.0
  0
LINE
  5
E18C
330
1A
100
AcDbEntity
  8
SEIHIN
100
AcDbLine
 10
212.1191292651827
 20
248.2962032744176
 30
0.0
 11
244.0462962651827
 21
243.8091332744177
 31
0.0
  0
ARC
  5
E18D
330
1A
100
AcDbEntity
  8
SEIHIN
100
AcDbCircle
 10
212.9799552651827
 20
247.1653942744176
 30
0.0
 40
5.800000100674179
100
AcDbArc
 50
82.00000484536419
 51
180.0000047097881
  0
ARC
  5
E18E
330
1A
100
AcDbEntity
  8
NOKITOI
 48
2.0
100
AcDbCircle
 10
213.4550916467503
 20
242.7077493595349
 30
0.0
 40
2.0
100
AcDbArc
 50
90.0
 51
180.0
  0
ARC
  5
E18F
330
1A
100
AcDbEntity
  8
SEIHIN
100
AcDbCircle
 10
211.9799552651827
 20
247.3059352744177
 30
0.0
 40
0.9999999589382483
100
AcDbArc
 50
82.00001261620796
 51
180.0000074360639
  0
ARC
  5
E190
330
1A
100
AcDbEntity
  8
SEIHIN
100
AcDbCircle
 10
211.9799552651827
 20
247.3059352744177
 30
0.0
 40
2.999999876814745
100
AcDbArc
 50
82.00000621250532
 51
180.0000010323642
  0
LINE
  5
E191
330
1A
100
AcDbEntity
  8
NOKITOI
 48
2.0
100
AcDbLine
 10
221.4550916467503
 20
244.7077493595349
 30
0.0
 11
213.4550916467503
 21
244.7077493595349
 31
0.0
  0
LINE
  5
E192
330
1A
100
AcDbEntity
  8
NOKITOI
 48
2.0
100
AcDbLine
 10
219.8603916467502
 20
242.9077493595347
 30
0.0
 11
213.4550916467503
 21
242.9077493595347
 31
0.0
  0
LINE
  5
E193
330
1A
100
AcDbEntity
  8
NOKITOI
 48
2.0
100
AcDbLine
 10
219.8603916467502
 20
243.2077493595347
 30
0.0
 11
213.4550916467503
 21
243.2077493595347
 31
0.0
  0
ARC
  5
E194
330
1A
100
AcDbEntity
  8
NOKITOI
 48
2.0
100
AcDbCircle
 10
213.4550416467502
 20
242.7076993595348
 30
0.0
 40
0.2000500062483002
100
AcDbArc
 50
89.98567963550119
 51
179.9856796354979
  0
ARC
  5
E195
330
1A
100
AcDbEntity
  8
NOKITOI
 48
2.0
100
AcDbCircle
 10
213.4550416467502
 20
242.7076993595348
 30
0.0
 40
0.5000500062483003
100
AcDbArc
 50
89.98567963550119
 51
179.9856796354979
  0
ARC
  5
E196
330
1A
100
AcDbEntity
  8
SEIHIN
100
AcDbCircle
 10
243.9071232651826
 20
242.8188642744177
 30
0.0
 40
5.800000124954006
100
AcDbArc
 50
8.000007927896636
 51
82.00000518014741
  0
ARC
  5
E197
330
1A
100
AcDbEntity
  8
SEIHIN
100
AcDbCircle
 10
243.9071232651826
 20
242.8188642744177
 30
0.0
 40
2.999999948497415
100
AcDbArc
 50
8.00000440411042
 51
82.00000518014741
  0
ARC
  5
E198
330
1A
100
AcDbEntity
  8
SEIHIN
100
AcDbCircle
 10
243.9071232651826
 20
242.8188642744177
 30
0.0
 40
1.00000009710324
100
AcDbArc
 50
7.99998078108442
 51
82.00000518014741
  0
LINE
  5
E199
330
1A
100
AcDbEntity
  8
SEIHIN
100
AcDbLine
 10
324.5642882651827
 20
190.4563042744177
 30
0.0
 11
304.5642882651827
 21
190.4563042744177
 31
0.0
  0
LINE
  5
E19A
330
1A
100
AcDbEntity
  8
SEIHIN
100
AcDbLine
 10
309.5642882651827
 20
177.4564042744177
 30
0.0
 11
319.5642882651827
 21
177.4564042744177
 31
0.0
  0
LINE
  5
E19B
330
1A
100
AcDbEntity
  8
SEIHIN
100
AcDbLine
 10
307.0642882651827
 20
182.4564042744177
 30
0.0
 11
314.5643882651827
 21
182.4564042744177
 31
0.0
  0
ARC
  5
E19C
330
1A
100
AcDbEntity
  8
SEIHIN
100
AcDbCircle
 10
314.5642612651827
 20
189.7059742744177
 30
0.0
 40
7.249670882495079
100
AcDbArc
 50
226.3950018128623
 51
270.0002225484002
  0
ARC
  5
E19D
330
1A
100
AcDbEntity
  8
SEIHIN
100
AcDbCircle
 10
307.0641262651827
 20
185.0188042744177
 30
0.0
 40
2.562635081136893
100
AcDbArc
 50
192.6797294812847
 51
347.32262108092
  0
LINE
  5
E19E
330
1A
100
AcDbEntity
  8
SEIHIN
100
AcDbLine
 10
309.5642882651827
 20
182.4563042744177
 30
0.0
 11
309.5642882651827
 21
177.4564042744177
 31
0.0
  0
LINE
  5
E19F
330
1A
100
AcDbEntity
  8
SEIHIN
100
AcDbLine
 10
310.5642882651827
 20
182.4563042744177
 30
0.0
 11
310.5642882651827
 21
177.4564042744177
 31
0.0
  0
LINE
  5
E1A0
330
1A
100
AcDbEntity
  8
SEIHIN
100
AcDbLine
 10
304.5642882651827
 20
184.4563042744177
 30
0.0
 11
304.5642882651827
 21
190.4563042744177
 31
0.0
  0
LINE
  5
E1A1
330
1A
100
AcDbEntity
  8
SEIHIN
100
AcDbLine
 10
309.5642882651827
 20
184.4564042744177
 30
0.0
 11
309.5642882651827
 21
190.4563042744177
 31
0.0
  0
ARC
  5
E1A2
330
1A
100
AcDbEntity
  8
SEIHIN
100
AcDbCircle
 10
322.0644492651826
 20
185.0188042744177
 30
0.0
 40
2.562656995934785
100
AcDbArc
 50
192.6796051079031
 51
347.3181259813767
  0
ARC
  5
E1A3
330
1A
100
AcDbEntity
  8
SEIHIN
100
AcDbCircle
 10
314.5643142651826
 20
189.7058742744176
 30
0.0
 40
7.249670882495079
100
AcDbArc
 50
269.9997887398042
 51
313.6050094753453
  0
LINE
  5
E1A4
330
1A
100
AcDbEntity
  8
SEIHIN
100
AcDbLine
 10
322.0642882651827
 20
182.4563042744177
 30
0.0
 11
314.5640882651828
 21
182.4563042744177
 31
0.0
  0
LINE
  5
E1A5
330
1A
100
AcDbEntity
  8
SEIHIN
100
AcDbLine
 10
318.5642882651827
 20
182.4563042744177
 30
0.0
 11
318.5642882651827
 21
177.4564042744177
 31
0.0
  0
LINE
  5
E1A6
330
1A
100
AcDbEntity
  8
SEIHIN
100
AcDbLine
 10
319.5642882651827
 20
182.4563042744177
 30
0.0
 11
319.5642882651827
 21
177.4564042744177
 31
0.0
  0
LINE
  5
E1A7
330
1A
100
AcDbEntity
  8
SEIHIN
100
AcDbLine
 10
319.5642882651827
 20
184.4563042744177
 30
0.0
 11
319.5642882651827
 21
190.4563042744177
 31
0.0
  0
LINE
  5
E1A8
330
1A
100
AcDbEntity
  8
SEIHIN
100
AcDbLine
 10
324.5642882651827
 20
184.4563042744177
 30
0.0
 11
324.5642882651827
 21
190.4563042744177
 31
0.0
  0
ARC
  5
E1A9
330
1A
100
AcDbEntity
  8
SEIHIN
100
AcDbCircle
 10
314.5642612651827
 20
197.2067332744177
 30
0.0
 40
7.249670882495079
100
AcDbArc
 50
89.9997887397456
 51
133.6050094752911
  0
LINE
  5
E1AA
330
1A
100
AcDbEntity
  8
SEIHIN
100
AcDbLine
 10
304.5642882651827
 20
196.4563042744177
 30
0.0
 11
324.5642882651827
 21
196.4563042744177
 31
0.0
  0
LINE
  5
E1AB
330
1A
100
AcDbEntity
  8
SEIHIN
100
AcDbLine
 10
304.5642882651827
 20
196.4563042744177
 30
0.0
 11
324.5642882651827
 21
196.4563042744177
 31
0.0
  0
LINE
  5
E1AC
330
1A
100
AcDbEntity
  8
SEIHIN
100
AcDbLine
 10
307.0642882651827
 20
204.4562042744177
 30
0.0
 11
314.5643882651827
 21
204.4562042744177
 31
0.0
  0
ARC
  5
E1AD
330
1A
100
AcDbEntity
  8
SEIHIN
100
AcDbCircle
 10
307.0640762651828
 20
201.8938042744177
 30
0.0
 40
2.562684194030247
100
AcDbArc
 50
12.67714418354249
 51
167.3205326235305
  0
LINE
  5
E1AE
330
1A
100
AcDbEntity
  8
SEIHIN
100
AcDbLine
 10
304.5642882651827
 20
202.4563042744177
 30
0.0
 11
304.5642882651827
 21
196.4563042744177
 31
0.0
  0
LINE
  5
E1AF
330
1A
100
AcDbEntity
  8
SEIHIN
100
AcDbLine
 10
309.5642882651827
 20
202.4563042744177
 30
0.0
 11
309.5642882651827
 21
196.4563042744177
 31
0.0
  0
ARC
  5
E1B0
330
1A
100
AcDbEntity
  8
SEIHIN
100
AcDbCircle
 10
314.5643002651827
 20
197.2066982744177
 30
0.0
 40
7.249704847449203
100
AcDbArc
 50
46.39512430589149
 51
90.00012237830244
  0
LINE
  5
E1B1
330
1A
100
AcDbEntity
  8
SEIHIN
100
AcDbLine
 10
322.0642882651827
 20
204.4563042744177
 30
0.0
 11
314.5640882651828
 21
204.4563042744177
 31
0.0
  0
ARC
  5
E1B2
330
1A
100
AcDbEntity
  8
SEIHIN
100
AcDbCircle
 10
322.0644492651826
 20
201.8939042744177
 30
0.0
 40
2.562635081136893
100
AcDbArc
 50
12.67972948128484
 51
167.32262108092
  0
LINE
  5
E1B3
330
1A
100
AcDbEntity
  8
SEIHIN
100
AcDbLine
 10
319.5642882651827
 20
202.4563042744177
 30
0.0
 11
319.5642882651827
 21
196.4563042744177
 31
0.0
  0
LINE
  5
E1B4
330
1A
100
AcDbEntity
  8
SEIHIN
100
AcDbLine
 10
324.5642882651827
 20
202.4563042744177
 30
0.0
 11
324.5642882651827
 21
196.4563042744177
 31
0.0
  0
LINE
  5
E1B5
330
1A
100
AcDbEntity
  8
SEIHIN
100
AcDbLine
 10
377.3050652651827
 20
195.1305672744177
 30
0.0
 11
384.1885712651828
 21
214.0428452744177
 31
0.0
  0
ARC
  5
E1B6
330
1A
100
AcDbEntity
  8
SEIHIN
100
AcDbCircle
 10
370.9151552651828
 20
197.4563042744177
 30
0.0
 40
4.80000025080384
100
AcDbArc
 50
270.0
 51
339.9999982155703
  0
ARC
  5
E1B7
330
1A
100
AcDbEntity
  8
SEIHIN
100
AcDbCircle
 10
370.9151552651828
 20
197.4563042744177
 30
0.0
 40
6.800000088281947
100
AcDbArc
 50
270.0
 51
340.0000003138576
  0
ARC
  5
E1B8
330
1A
100
AcDbEntity
  8
SEIHIN
100
AcDbCircle
 10
385.1282642651826
 20
213.7008252744176
 30
0.0
 40
5.799999967906939
100
AcDbArc
 50
98.00001476723304
 51
160.0000151479061
  0
LINE
  5
E1B9
330
1A
100
AcDbEntity
  8
SEIHIN
100
AcDbLine
 10
375.4256802651827
 20
195.8146072744177
 30
0.0
 11
382.3091862651827
 21
214.7268852744177
 31
0.0
  0
LINE
  5
E1BA
330
1A
100
AcDbEntity
  8
SEIHIN
100
AcDbLine
 10
372.9190252651828
 20
197.1142832744176
 30
0.0
 11
379.6780472651828
 21
215.6845422744177
 31
0.0
  0
ARC
  5
E1BB
330
1A
100
AcDbEntity
  8
SEIHIN
100
AcDbCircle
 10
371.9793332651827
 20
197.4563042744177
 30
0.0
 40
1.000000153662226
100
AcDbArc
 50
270.0000000000065
 51
340.0000151479185
  0
ARC
  5
E1BC
330
1A
100
AcDbEntity
  8
SEIHIN
100
AcDbCircle
 10
385.1282642651826
 20
213.7008252744176
 30
0.0
 40
3.000000170906156
100
AcDbArc
 50
98.00001841781487
 51
160.0000151479061
  0
ARC
  5
E1BD
330
1A
100
AcDbEntity
  8
SEIHIN
100
AcDbCircle
 10
385.1282642651826
 20
213.7008252744176
 30
0.0
 40
1.00000028237192
100
AcDbArc
 50
98.00002631461735
 51
160.0000151479061
  0
DIMENSION
  5
E1BE
330
1A
100
AcDbEntity
  8
SUNPOU
100
AcDbDimension
  2
*D11
 10
340.8799552651826
 20
496.7078213477817
 30
0.0
 11
311.8799552651827
 21
501.7078213477817
 31
0.0
 70
    32
 71
     5
 42
-1.0
  3
STANDARD
100
AcDbAlignedDimension
 13
282.8799552651828
 23
463.4141412744177
 33
0.0
 14
340.8799552651826
 24
463.4141412744177
 34
0.0
100
AcDbRotatedDimension
1001
ACAD
1000
DSTYLE
1002
{
1070
   140
1040
6.0
1070
    74
1070
     0
1070
   172
1070
     1
1070
    73
1070
     0
1070
   272
1070
     2
1070
    77
1070
     3
1070
   173
1070
     1
1070
   147
1040
2.0
1070
    42
1040
6.0
1070
    44
1040
3.0
1070
    43
1040
14.0
1070
   271
1070
     0
1070
   178
1070
     4
1070
   177
1070
     4
1070
   176
1070
     4
1070
   141
1040
150.0
1070
     7
1000
_OPEN
1070
     6
1000
_OPEN
1070
    41
1040
7.0
1002
}
  0
LINE
  5
E1BF
330
1A
100
AcDbEntity
  8
SEIHIN
100
AcDbLine
 10
299.5441892651827
 20
432.0353492744176
 30
0.0
 11
299.5441892651827
 21
422.0353492744177
 31
0.0
  0
LINE
  5
E1C0
330
1A
100
AcDbEntity
  8
SEIHIN
100
AcDbLine
 10
329.5441892651826
 20
432.0353492744176
 30
0.0
 11
329.5441892651826
 21
422.0353492744177
 31
0.0
  0
LINE
  5
E1C1
330
1A
100
AcDbEntity
  8
SEIHIN
100
AcDbLine
 10
331.0441892651827
 20
416.8353492744177
 30
0.0
 11
298.0441892651827
 21
416.8353492744177
 31
0.0
  0
LINE
  5
E1C2
330
1A
100
AcDbEntity
  8
SEIHIN
100
AcDbLine
 10
329.5441892651826
 20
422.0353492744177
 30
0.0
 11
299.5441892651827
 21
422.0353492744177
 31
0.0
  0
LINE
  5
E1C3
330
1A
100
AcDbEntity
  8
SEIHIN
100
AcDbLine
 10
331.0441892651827
 20
418.0353492744177
 30
0.0
 11
298.0441892651827
 21
418.0353492744177
 31
0.0
  0
LINE
  5
E1C4
330
1A
100
AcDbEntity
  8
SEIHIN
100
AcDbLine
 10
324.5441892651827
 20
414.3353492744177
 30
0.0
 11
304.5441892651826
 21
414.3353492744177
 31
0.0
  0
LINE
  5
E1C5
330
1A
100
AcDbEntity
  8
SEIHIN
100
AcDbLine
 10
307.0441892651826
 20
406.3354492744177
 30
0.0
 11
314.5443892651828
 21
406.3354492744177
 31
0.0
  0
ARC
  5
E1C6
330
1A
100
AcDbEntity
  8
SEIHIN
100
AcDbCircle
 10
314.5441762651828
 20
413.5850542744177
 30
0.0
 40
7.249704847449203
100
AcDbArc
 50
226.3951243058914
 51
270.0001223783024
  0
LINE
  5
E1C7
330
1A
100
AcDbEntity
  8
SEIHIN
100
AcDbLine
 10
303.5441682651826
 20
416.8353492744177
 30
0.0
 11
305.0441662651828
 21
414.3353492744177
 31
0.0
  0
ARC
  5
E1C8
330
1A
100
AcDbEntity
  8
SEIHIN
100
AcDbCircle
 10
307.0440282651827
 20
408.8978492744177
 30
0.0
 40
2.562635081136893
100
AcDbArc
 50
192.6797294812847
 51
347.32262108092
  0
LINE
  5
E1C9
330
1A
100
AcDbEntity
  8
SEIHIN
100
AcDbLine
 10
304.5441892651826
 20
408.3353492744177
 30
0.0
 11
304.5441892651826
 21
414.3353492744177
 31
0.0
  0
LINE
  5
E1CA
330
1A
100
AcDbEntity
  8
SEIHIN
100
AcDbLine
 10
309.5441892651827
 20
408.3354492744176
 30
0.0
 11
309.5441892651827
 21
414.3353492744177
 31
0.0
  0
LINE
  5
E1CB
330
1A
100
AcDbEntity
  8
SEIHIN
100
AcDbLine
 10
298.0441892651827
 20
418.0353492744177
 30
0.0
 11
298.0441892651827
 21
416.8353492744177
 31
0.0
  0
LINE
  5
E1CC
330
1A
100
AcDbEntity
  8
SEIHIN
100
AcDbLine
 10
309.5642882651827
 20
418.0353492744177
 30
0.0
 11
309.5642882651827
 21
422.0353492744177
 31
0.0
  0
LINE
  5
E1CD
330
1A
100
AcDbEntity
  8
SEIHIN
100
AcDbLine
 10
310.5642882651827
 20
418.0353492744177
 30
0.0
 11
310.5642882651827
 21
422.0353492744177
 31
0.0
  0
LINE
  5
E1CE
330
1A
100
AcDbEntity
  8
SEIHIN
100
AcDbLine
 10
324.0441662651828
 20
414.3353492744177
 30
0.0
 11
325.5441682651826
 21
416.8353492744177
 31
0.0
  0
LINE
  5
E1CF
330
1A
100
AcDbEntity
  8
SEIHIN
100
AcDbLine
 10
322.0441892651827
 20
406.3353492744177
 30
0.0
 11
314.5440892651827
 21
406.3353492744177
 31
0.0
  0
ARC
  5
E1D0
330
1A
100
AcDbEntity
  8
SEIHIN
100
AcDbCircle
 10
314.5443062651827
 20
413.5850562744177
 30
0.0
 40
7.249707053624614
100
AcDbArc
 50
269.9990734195281
 51
313.6037477331424
  0
ARC
  5
E1D1
330
1A
100
AcDbEntity
  8
SEIHIN
100
AcDbCircle
 10
322.0443502651828
 20
408.8978492744177
 30
0.0
 40
2.562656995934785
100
AcDbArc
 50
192.6796051079031
 51
347.3181259813767
  0
LINE
  5
E1D2
330
1A
100
AcDbEntity
  8
SEIHIN
100
AcDbLine
 10
319.5441892651826
 20
408.3353492744177
 30
0.0
 11
319.5441892651826
 21
414.3353492744177
 31
0.0
  0
LINE
  5
E1D3
330
1A
100
AcDbEntity
  8
SEIHIN
100
AcDbLine
 10
324.5441892651827
 20
408.3353492744177
 30
0.0
 11
324.5441892651827
 21
414.3353492744177
 31
0.0
  0
LINE
  5
E1D4
330
1A
100
AcDbEntity
  8
SEIHIN
100
AcDbLine
 10
318.5642882651827
 20
418.0353492744177
 30
0.0
 11
318.5642882651827
 21
422.0353492744177
 31
0.0
  0
LINE
  5
E1D5
330
1A
100
AcDbEntity
  8
SEIHIN
100
AcDbLine
 10
319.5642882651827
 20
418.0353492744177
 30
0.0
 11
319.5642882651827
 21
422.0353492744177
 31
0.0
  0
LINE
  5
E1D6
330
1A
100
AcDbEntity
  8
SEIHIN
100
AcDbLine
 10
331.0441892651827
 20
418.0353492744177
 30
0.0
 11
331.0441892651827
 21
416.8353492744177
 31
0.0
  0
DIMENSION
  5
E1D7
330
1A
100
AcDbEntity
  8
SUNPOU
100
AcDbDimension
  2
*D12
 10
331.0441762651828
 20
483.2629608316925
 30
0.0
 11
314.5441762651828
 21
488.2629608316925
 31
0.0
 70
    32
 71
     5
 42
-1.0
  3
STANDARD
100
AcDbAlignedDimension
 13
298.0441762651828
 23
433.2353492744177
 33
0.0
 14
331.0441762651828
 24
433.2353492744177
 34
0.0
100
AcDbRotatedDimension
1001
ACAD
1000
DSTYLE
1002
{
1070
   140
1040
6.0
1070
    74
1070
     0
1070
   172
1070
     1
1070
    73
1070
     0
1070
   272
1070
     2
1070
    77
1070
     3
1070
   173
1070
     1
1070
   147
1040
2.0
1070
    42
1040
6.0
1070
    44
1040
3.0
1070
    43
1040
14.0
1070
   271
1070
     0
1070
   178
1070
     4
1070
   177
1070
     4
1070
   176
1070
     4
1070
   141
1040
150.0
1070
     7
1000
_OPEN
1070
     6
1000
_OPEN
1070
    41
1040
7.0
1002
}
  0
LINE
  5
E1D8
330
1A
100
AcDbEntity
  8
SEIHIN
100
AcDbLine
 10
329.5441892651826
 20
432.0353492744176
 30
0.0
 11
299.5441892651827
 21
432.0353492744176
 31
0.0
  0
LINE
  5
E1D9
330
1A
100
AcDbEntity
  8
SEIHIN
100
AcDbLine
 10
331.0441762651828
 20
432.0353492744176
 30
0.0
 11
298.0441762651828
 21
432.0353492744176
 31
0.0
  0
LINE
  5
E1DA
330
1A
100
AcDbEntity
  8
SEIHIN
100
AcDbLine
 10
331.0441762651828
 20
433.2353492744177
 30
0.0
 11
298.0441762651828
 21
433.2353492744177
 31
0.0
  0
LINE
  5
E1DB
330
1A
100
AcDbEntity
  8
SEIHIN
100
AcDbLine
 10
324.0441532651828
 20
435.7353492744177
 30
0.0
 11
305.0441532651827
 21
435.7353492744177
 31
0.0
  0
LINE
  5
E1DC
330
1A
100
AcDbEntity
  8
SEIHIN
100
AcDbLine
 10
304.5441782651828
 20
435.7353492744177
 30
0.0
 11
324.5441782651828
 21
435.7353492744177
 31
0.0
  0
ARC
  5
E1DD
330
1A
100
AcDbEntity
  8
SEIHIN
100
AcDbCircle
 10
314.5441652651827
 20
436.4857442744177
 30
0.0
 40
7.249704847449203
100
AcDbArc
 50
89.99989775740109
 51
133.6048958298141
  0
LINE
  5
E1DE
330
1A
100
AcDbEntity
  8
SEIHIN
100
AcDbLine
 10
307.0441782651828
 20
443.7353492744177
 30
0.0
 11
314.5443782651828
 21
443.7353492744177
 31
0.0
  0
LINE
  5
E1DF
330
1A
100
AcDbEntity
  8
SEIHIN
100
AcDbLine
 10
309.5441782651828
 20
447.4564042744177
 30
0.0
 11
319.5441782651828
 21
447.4564042744177
 31
0.0
  0
LINE
  5
E1E0
330
1A
100
AcDbEntity
  8
SEIHIN
100
AcDbLine
 10
304.5441782651828
 20
441.7354492744177
 30
0.0
 11
304.5441782651828
 21
435.7353492744177
 31
0.0
  0
LINE
  5
E1E1
330
1A
100
AcDbEntity
  8
SEIHIN
100
AcDbLine
 10
309.5441782651828
 20
441.7353492744177
 30
0.0
 11
309.5441782651828
 21
435.7353492744177
 31
0.0
  0
LINE
  5
E1E2
330
1A
100
AcDbEntity
  8
SEIHIN
100
AcDbLine
 10
298.0441762651828
 20
433.2353492744177
 30
0.0
 11
298.0441762651828
 21
432.0353492744176
 31
0.0
  0
LINE
  5
E1E3
330
1A
100
AcDbEntity
  8
SEIHIN
100
AcDbLine
 10
303.5441552651827
 20
433.2353492744177
 30
0.0
 11
305.0441532651827
 21
435.7353492744177
 31
0.0
  0
ARC
  5
E1E4
330
1A
100
AcDbEntity
  8
SEIHIN
100
AcDbCircle
 10
307.0440282651827
 20
441.1728492744177
 30
0.0
 40
2.562646037603808
100
AcDbArc
 50
12.67966100636817
 51
167.3203672336134
  0
LINE
  5
E1E5
330
1A
100
AcDbEntity
  8
SEIHIN
100
AcDbLine
 10
310.5441782651828
 20
443.7353492744177
 30
0.0
 11
310.5441782651828
 21
447.4564042744177
 31
0.0
  0
LINE
  5
E1E6
330
1A
100
AcDbEntity
  8
SEIHIN
100
AcDbLine
 10
309.5441782651828
 20
443.7353492744177
 30
0.0
 11
309.5441782651828
 21
447.4564042744177
 31
0.0
  0
LINE
  5
E1E7
330
1A
100
AcDbEntity
  8
SEIHIN
100
AcDbLine
 10
324.5441782651828
 20
441.7353492744177
 30
0.0
 11
324.5441782651828
 21
435.7353492744177
 31
0.0
  0
LINE
  5
E1E8
330
1A
100
AcDbEntity
  8
SEIHIN
100
AcDbLine
 10
319.5441782651828
 20
441.7353492744177
 30
0.0
 11
319.5441782651828
 21
435.7353492744177
 31
0.0
  0
LINE
  5
E1E9
330
1A
100
AcDbEntity
  8
SEIHIN
100
AcDbLine
 10
324.0441532651828
 20
435.7353492744177
 30
0.0
 11
325.5441552651827
 21
433.2353492744177
 31
0.0
  0
LINE
  5
E1EA
330
1A
100
AcDbEntity
  8
SEIHIN
100
AcDbLine
 10
322.0441782651828
 20
443.7353492744177
 30
0.0
 11
314.5440782651826
 21
443.7353492744177
 31
0.0
  0
ARC
  5
E1EB
330
1A
100
AcDbEntity
  8
SEIHIN
100
AcDbCircle
 10
314.5442052651828
 20
436.4857782744177
 30
0.0
 40
7.249670882495079
100
AcDbArc
 50
46.39500181286234
 51
90.0002225484002
  0
LINE
  5
E1EC
330
1A
100
AcDbEntity
  8
SEIHIN
100
AcDbLine
 10
318.5441782651828
 20
443.7353492744177
 30
0.0
 11
318.5441782651828
 21
447.4564042744177
 31
0.0
  0
ARC
  5
E1ED
330
1A
100
AcDbEntity
  8
SEIHIN
100
AcDbCircle
 10
322.0443392651827
 20
441.1729492744177
 30
0.0
 40
2.562635081136893
100
AcDbArc
 50
12.67972948128484
 51
167.32262108092
  0
LINE
  5
E1EE
330
1A
100
AcDbEntity
  8
SEIHIN
100
AcDbLine
 10
319.5441782651828
 20
443.7353492744177
 30
0.0
 11
319.5441782651828
 21
447.4564042744177
 31
0.0
  0
TEXT
  5
E1EF
330
1A
100
AcDbEntity
  8
SUNPOU
100
AcDbText
 10
360.6967908501826
 20
422.003135379529
 30
0.0
 40
5.0
  1
座金
100
AcDbText
  0
LEADER
  5
E1F0
330
1A
100
AcDbEntity
  8
SUNPOU
100
AcDbLeader
  3
STANDARD
 76
     3
 10
331.0441762651828
 20
433.2353492744176
 30
0.0
 10
358.1815913716807
 20
420.3279098748153
 30
0.0
 10
374.5602026660078
 20
420.3279098748153
 30
0.0
1001
ACAD
1000
DSTYLE
1002
{
1070
     6
1000
OPEN
1070
    41
1040
7.0
1070
    42
1040
6.0
1070
    43
1040
14.0
1070
    44
1040
3.0
1070
    73
1070
     0
1070
    74
1070
     0
1070
    77
1070
     3
1070
   140
1040
6.0
1070
   141
1040
150.0
1070
   147
1040
2.0
1070
   172
1070
     1
1070
   173
1070
     1
1070
   176
1070
     4
1070
   177
1070
     4
1070
   178
1070
     4
1070
   271
1070
     0
1070
   272
1070
     2
1070
   341
1005
6D
1070
   343
1005
6D
1070
   344
1005
6D
1002
}
  0
LINE
  5
E1F1
330
1A
100
AcDbEntity
  8
SEIHIN
100
AcDbLine
 10
331.0441762651828
 20
433.2353492744177
 30
0.0
 11
331.0441762651828
 21
432.0353492744176
 31
0.0
  0
LINE
  5
E1F2
330
1A
100
AcDbEntity
  8
SEIHIN
 48
5.0
100
AcDbLine
 10
210.0043404022028
 20
523.7204468713239
 30
0.0
 11
315.5685633015286
 21
523.7204468713239
 31
0.0
  0
LINE
  5
E1F3
330
1A
100
AcDbEntity
  8
SEIHIN
 48
5.0
100
AcDbLine
 10
210.0043404022028
 20
522.0204468713238
 30
0.0
 11
315.5685633015286
 21
522.0204468713238
 31
0.0
  0
LINE
  5
E1F4
330
1A
100
AcDbEntity
  8
SEIHIN
 48
5.0
100
AcDbLine
 10
210.0043404022028
 20
552.0204468713236
 30
0.0
 11
315.5685633015286
 21
552.0204468713236
 31
0.0
  0
LINE
  5
E1F5
330
1A
100
AcDbEntity
  8
SEIHIN
100
AcDbLine
 10
210.0043404022028
 20
550.3204468713238
 30
0.0
 11
315.5685633015286
 21
550.3204468713238
 31
0.0
  0
LINE
  5
E1F6
330
1A
100
AcDbEntity
  8
SEIHIN
100
AcDbLine
 10
250.6402817103767
 20
527.5362038713238
 30
0.0
 11
250.6402817103767
 21
546.5046898713238
 31
0.0
  0
LINE
  5
E1F7
330
1A
100
AcDbEntity
  8
SEIHIN
100
AcDbLine
 10
257.304340603684
 20
527.5362038713238
 30
0.0
 11
257.304340603684
 21
546.5046898713238
 31
0.0
  0
LINE
  5
E1F8
330
1A
100
AcDbEntity
  8
SEIHIN
100
AcDbLine
 10
208.2043403015286
 20
525.9161903539554
 30
0.0
 11
208.2043403015286
 21
548.1247033886923
 31
0.0
  0
LINE
  5
E1F9
330
1A
100
AcDbEntity
  8
SEIHIN
100
AcDbLine
 10
210.0043404022028
 20
522.0204468713238
 30
0.0
 11
210.0043404022028
 21
523.7204468713237
 31
0.0
  0
ARC
  5
E1FA
330
1A
100
AcDbEntity
  8
SEIHIN
100
AcDbCircle
 10
210.3697123862575
 20
526.7261975149438
 30
0.0
 40
2.311914329332959
100
AcDbArc
 50
200.5094644027909
 51
242.5600825501391
  0
ARC
  5
E1FB
330
1A
100
AcDbEntity
  8
SEIHIN
100
AcDbCircle
 10
210.3697123862575
 20
526.7261975149438
 30
0.0
 40
2.311914329332959
100
AcDbArc
 50
200.5094644027909
 51
242.5600825501391
  0
ARC
  5
E1FC
330
1A
100
AcDbEntity
  8
SEIHIN
100
AcDbCircle
 10
209.0043404022028
 20
523.7204468713237
 30
0.0
 40
0.9999999039302407
100
AcDbArc
 50
0.0000000000097707
 51
72.5423934141792
  0
LINE
  5
E1FD
330
1A
100
AcDbEntity
  8
SEIHIN
100
AcDbLine
 10
248.1611789957375
 20
522.0204468713238
 30
0.0
 11
248.1611789957375
 21
523.7204468713237
 31
0.0
  0
ARC
  5
E1FE
330
1A
100
AcDbEntity
  8
SEIHIN
100
AcDbCircle
 10
249.1611789957376
 20
523.7204468713237
 30
0.0
 40
0.9999999039302407
100
AcDbArc
 50
107.4576065858208
 51
179.9999999999902
  0
ARC
  5
E1FF
330
1A
100
AcDbEntity
  8
SEIHIN
100
AcDbCircle
 10
247.9239449912408
 20
527.2409505543821
 30
0.0
 40
2.732336160781798
100
AcDbArc
 50
290.0607144337499
 51
6.203439671689642
  0
ARC
  5
E200
330
1A
100
AcDbEntity
  8
SEIHIN
100
AcDbCircle
 10
247.9239449912408
 20
527.2409505543821
 30
0.0
 40
2.732336160781798
100
AcDbArc
 50
290.0607144337499
 51
6.203439671689642
  0
LINE
  5
E201
330
1A
100
AcDbEntity
  8
SEIHIN
100
AcDbLine
 10
255.0108788231182
 20
522.0204468713238
 30
0.0
 11
255.0108788231182
 21
523.7204468713237
 31
0.0
  0
ARC
  5
E202
330
1A
100
AcDbEntity
  8
SEIHIN
100
AcDbCircle
 10
254.7459014766457
 20
527.0862153182374
 30
0.0
 40
2.597710857760671
100
AcDbArc
 50
291.806445312116
 51
9.975389327826606
  0
ARC
  5
E203
330
1A
100
AcDbEntity
  8
SEIHIN
100
AcDbCircle
 10
254.7459014766457
 20
527.0862153182374
 30
0.0
 40
2.597710857760671
100
AcDbArc
 50
291.806445312116
 51
9.975389327826606
  0
ARC
  5
E204
330
1A
100
AcDbEntity
  8
SEIHIN
100
AcDbCircle
 10
256.0108788231182
 20
523.7204468713237
 30
0.0
 40
0.9999999039302407
100
AcDbArc
 50
107.4576065858208
 51
179.9999999999902
  0
ARC
  5
E205
330
1A
100
AcDbEntity
  8
SEIHIN
100
AcDbCircle
 10
209.0043404022028
 20
550.3204468713238
 30
0.0
 40
0.9999999039302407
100
AcDbArc
 50
287.4576065858208
 51
0.0
  0
ARC
  5
E206
330
1A
100
AcDbEntity
  8
SEIHIN
100
AcDbCircle
 10
210.3697123862575
 20
547.3146962277037
 30
0.0
 40
2.311914329333003
100
AcDbArc
 50
117.4399174498608
 51
159.4905355972087
  0
LINE
  5
E207
330
1A
100
AcDbEntity
  8
SEIHIN
100
AcDbLine
 10
210.0043404022028
 20
552.0204468713238
 30
0.0
 11
210.0043404022028
 21
550.3204468713238
 31
0.0
  0
ARC
  5
E208
330
1A
100
AcDbEntity
  8
SEIHIN
100
AcDbCircle
 10
249.1611789957376
 20
550.3204468713238
 30
0.0
 40
0.9999999039302407
100
AcDbArc
 50
180.0
 51
252.5423934141791
  0
LINE
  5
E209
330
1A
100
AcDbEntity
  8
SEIHIN
100
AcDbLine
 10
248.1611789957375
 20
552.0204468713238
 30
0.0
 11
248.1611789957375
 21
550.3204468713238
 31
0.0
  0
ARC
  5
E20A
330
1A
100
AcDbEntity
  8
SEIHIN
100
AcDbCircle
 10
247.9239449912408
 20
546.7999431882653
 30
0.0
 40
2.732336160781833
100
AcDbArc
 50
353.7965603283103
 51
69.93928556625002
  0
LINE
  5
E20B
330
1A
100
AcDbEntity
  8
SEIHIN
100
AcDbLine
 10
255.0108788231182
 20
552.0204468713238
 30
0.0
 11
255.0108788231182
 21
550.3204468713238
 31
0.0
  0
ARC
  5
E20C
330
1A
100
AcDbEntity
  8
SEIHIN
100
AcDbCircle
 10
256.0108788231182
 20
550.3204468713238
 30
0.0
 40
0.9999999039302407
100
AcDbArc
 50
180.0
 51
252.5423934141791
  0
ARC
  5
E20D
330
1A
100
AcDbEntity
  8
SEIHIN
100
AcDbCircle
 10
254.7459014766455
 20
546.9546784244101
 30
0.0
 40
2.597710857760674
100
AcDbArc
 50
350.0246106721719
 51
68.19355468788391
  0
ARC
  5
E20E
330
1A
100
AcDbEntity
  8
SEIHIN
100
AcDbCircle
 10
319.5685633015286
 20
537.0204468713239
 30
0.0
 40
11.0
100
AcDbArc
 50
270.0
 51
90.0
  0
LINE
  5
E20F
330
1A
100
AcDbEntity
  8
CENTER L
 48
5.0
100
AcDbLine
 10
341.5422360858044
 20
537.0204468713239
 30
0.0
 11
289.5948905172533
 21
537.0204468713239
 31
0.0
  0
LINE
  5
E210
330
1A
100
AcDbEntity
  8
SEIHIN
100
AcDbLine
 10
325.5688631476751
 20
537.0204468713236
 30
0.0
 11
320.568713224602
 21
545.6809605835481
 31
0.0
  0
LINE
  5
E211
330
1A
100
AcDbEntity
  8
SEIHIN
100
AcDbLine
 10
310.5684133784557
 20
545.6809605835481
 30
0.0
 11
305.5682634553825
 21
537.0204468713239
 31
0.0
  0
ARC
  5
E212
330
1A
100
AcDbEntity
  8
SEIHIN
100
AcDbCircle
 10
292.5685633015286
 20
537.0204468713239
 30
0.0
 40
5.5
100
AcDbArc
 50
90.0
 51
270.0
  0
ARC
  5
E213
330
1A
100
AcDbEntity
  8
SEIHIN
100
AcDbCircle
 10
313.5685633015286
 20
537.0204468713239
 30
0.0
 40
9.0
100
AcDbArc
 50
90.0
 51
270.0
  0
ARC
  5
E214
330
1A
100
AcDbEntity
  8
SEIHIN
100
AcDbCircle
 10
311.5685633015286
 20
537.0204468713239
 30
0.0
 40
11.0
100
AcDbArc
 50
90.0
 51
270.0
  0
LINE
  5
E215
330
1A
100
AcDbEntity
  8
CENTER L
 48
5.0
100
AcDbLine
 10
292.5685633015286
 20
526.5513750119514
 30
0.0
 11
292.5685633015286
 21
547.4895187306965
 31
0.0
  0
CIRCLE
  5
E216
330
1A
100
AcDbEntity
  8
SEIHIN
100
AcDbCircle
 10
315.5685633015286
 20
537.0204468713239
 30
0.0
 40
5.000299846146333
  0
ARC
  5
E217
330
1A
100
AcDbEntity
  8
SEIHIN
100
AcDbCircle
 10
317.5685633015286
 20
537.0204468713239
 30
0.0
 40
9.0
100
AcDbArc
 50
270.0
 51
90.0
  0
LINE
  5
E218
330
1A
100
AcDbEntity
  8
CENTER L
 48
5.0
100
AcDbLine
 10
315.5685633015289
 20
511.0467740870483
 30
0.0
 11
315.5685633015289
 21
562.9941196555992
 31
0.0
  0
LINE
  5
E219
330
1A
100
AcDbEntity
  8
CENTER L
 48
5.0
100
AcDbLine
 10
315.5685633015286
 20
562.9941196555992
 30
0.0
 11
315.5685633015286
 21
511.0467740870483
 31
0.0
  0
LINE
  5
E21A
330
1A
100
AcDbEntity
  8
SEIHIN
 48
5.0
100
AcDbLine
 10
292.5685633015286
 20
531.5204468713239
 30
0.0
 11
302.0422838598999
 21
531.5204468713239
 31
0.0
  0
CIRCLE
  5
E21B
330
1A
100
AcDbEntity
  8
SEIHIN
 62
     2
100
AcDbCircle
 10
315.5685633015286
 20
537.0204468713239
 30
0.0
 40
4.000299846146333
  0
LINE
  5
E21C
330
1A
100
AcDbEntity
  8
SEIHIN
100
AcDbLine
 10
311.5685633015286
 20
526.0204468713238
 30
0.0
 11
319.5685633015286
 21
526.0204468713238
 31
0.0
  0
LINE
  5
E21D
330
1A
100
AcDbEntity
  8
SEIHIN
100
AcDbLine
 10
310.5684133784557
 20
528.3599331590994
 30
0.0
 11
320.568713224602
 21
528.3599331590994
 31
0.0
  0
LINE
  5
E21E
330
1A
100
AcDbEntity
  8
SEIHIN
100
AcDbLine
 10
305.5682634553825
 20
537.0204468713239
 30
0.0
 11
310.5684133784557
 21
528.3599331590994
 31
0.0
  0
LINE
  5
E21F
330
1A
100
AcDbEntity
  8
SEIHIN
100
AcDbLine
 10
320.568713224602
 20
528.3599331590994
 30
0.0
 11
325.5688631476751
 21
537.0204468713236
 31
0.0
  0
LINE
  5
E220
330
1A
100
AcDbEntity
  8
SEIHIN
100
AcDbLine
 10
313.5685633015286
 20
528.0204468713239
 30
0.0
 11
317.5685633015286
 21
528.0204468713241
 31
0.0
  0
LINE
  5
E221
330
1A
100
AcDbEntity
  8
SEIHIN
 48
5.0
100
AcDbLine
 10
292.5685633015286
 20
542.5204468713238
 30
0.0
 11
302.0422838598999
 21
542.5204468713241
 31
0.0
  0
LINE
  5
E222
330
1A
100
AcDbEntity
  8
SEIHIN
100
AcDbLine
 10
311.5685633015286
 20
548.0204468713238
 30
0.0
 11
319.5685633015286
 21
548.0204468713238
 31
0.0
  0
LINE
  5
E223
330
1A
100
AcDbEntity
  8
SEIHIN
100
AcDbLine
 10
320.568713224602
 20
545.6809605835481
 30
0.0
 11
310.5684133784557
 21
545.6809605835481
 31
0.0
  0
LINE
  5
E224
330
1A
100
AcDbEntity
  8
SEIHIN
100
AcDbLine
 10
313.5685633015286
 20
546.0204468713238
 30
0.0
 11
317.5685633015286
 21
546.0204468713241
 31
0.0
  0
ARC
  5
E225
330
1A
100
AcDbEntity
  8
SEIHIN
100
AcDbCircle
 10
338.5685633015286
 20
537.0204468713239
 30
0.0
 40
5.5
100
AcDbArc
 50
270.0
 51
90.0
  0
LINE
  5
E226
330
1A
100
AcDbEntity
  8
CENTER L
 48
5.0
100
AcDbLine
 10
338.5685633015286
 20
526.5513750119514
 30
0.0
 11
338.5685633015286
 21
547.4895187306965
 31
0.0
  0
LINE
  5
E227
330
1A
100
AcDbEntity
  8
SEIHIN
100
AcDbLine
 10
381.8943697506597
 20
525.5113510751441
 30
0.0
 11
381.8943697506597
 21
548.5295426675036
 31
0.0
  0
LINE
  5
E228
330
1A
100
AcDbEntity
  8
SEIHIN
100
AcDbLine
 10
373.8249068304926
 20
525.5113510751441
 30
0.0
 11
373.8249068304926
 21
548.5295426675036
 31
0.0
  0
TEXT
  5
E229
330
1A
100
AcDbEntity
  8
SUNPOU
100
AcDbText
 10
331.9632290796953
 20
499.5726075984697
 30
0.0
 40
6.0
  1
スライド幅
100
AcDbText
  0
LINE
  5
E22A
330
1A
100
AcDbEntity
  8
SEIHIN
 48
5.0
100
AcDbLine
 10
329.0948427431576
 20
531.5204468713239
 30
0.0
 11
338.5685633015286
 21
531.5204468713239
 31
0.0
  0
LINE
  5
E22B
330
1A
100
AcDbEntity
  8
SEIHIN
100
AcDbLine
 10
375.3005360155193
 20
522.0204468713238
 30
0.0
 11
375.3005360155193
 21
523.7204468713239
 31
0.0
  0
ARC
  5
E22C
330
1A
100
AcDbEntity
  8
SEIHIN
100
AcDbCircle
 10
375.7567854012477
 20
526.5237778033272
 30
0.0
 40
2.181092087025118
100
AcDbArc
 50
207.6573855243859
 51
237.9861556504032
  0
ARC
  5
E22D
330
1A
100
AcDbEntity
  8
SEIHIN
100
AcDbCircle
 10
375.7567854012477
 20
526.5237778033272
 30
0.0
 40
2.181092087025118
100
AcDbArc
 50
207.6573855243859
 51
237.9861556504032
  0
ARC
  5
E22E
330
1A
100
AcDbEntity
  8
SEIHIN
100
AcDbCircle
 10
374.3005360155193
 20
523.7204468713239
 30
0.0
 40
0.9999999039302407
100
AcDbArc
 50
0.0000000000097707
 51
72.5423934141792
  0
LINE
  5
E22F
330
1A
100
AcDbEntity
  8
SEIHIN
100
AcDbLine
 10
383.3699989356869
 20
522.0204468713238
 30
0.0
 11
383.3699989356869
 21
523.7204468713239
 31
0.0
  0
ARC
  5
E230
330
1A
100
AcDbEntity
  8
SEIHIN
100
AcDbCircle
 10
382.3699989356869
 20
523.7204468713239
 30
0.0
 40
0.9999999039302407
100
AcDbArc
 50
0.0000000000097707
 51
72.5423934141792
  0
ARC
  5
E231
330
1A
100
AcDbEntity
  8
SEIHIN
100
AcDbCircle
 10
383.8262483214153
 20
526.5237778033272
 30
0.0
 40
2.181092087025118
100
AcDbArc
 50
207.6573855243859
 51
237.9861556504032
  0
ARC
  5
E232
330
1A
100
AcDbEntity
  8
SEIHIN
100
AcDbCircle
 10
383.8262483214153
 20
526.5237778033272
 30
0.0
 40
2.181092087025118
100
AcDbArc
 50
207.6573855243859
 51
237.9861556504032
  0
LINE
  5
E233
330
1A
100
AcDbEntity
  8
SEIHIN
 48
5.0
100
AcDbLine
 10
329.0948427431576
 20
542.5204468713238
 30
0.0
 11
338.5685633015286
 21
542.5204468713238
 31
0.0
  0
ARC
  5
E234
330
1A
100
AcDbEntity
  8
SEIHIN
100
AcDbCircle
 10
375.7567854012481
 20
547.5171159393205
 30
0.0
 40
2.181092087025164
100
AcDbArc
 50
122.0138443496043
 51
152.3426144756141
  0
ARC
  5
E235
330
1A
100
AcDbEntity
  8
SEIHIN
100
AcDbCircle
 10
374.3005360155193
 20
550.3204468713238
 30
0.0
 40
0.9999999039302407
100
AcDbArc
 50
287.4576065858208
 51
0.0
  0
LINE
  5
E236
330
1A
100
AcDbEntity
  8
SEIHIN
100
AcDbLine
 10
375.3005360155193
 20
552.0204468713238
 30
0.0
 11
375.3005360155193
 21
550.3204468713238
 31
0.0
  0
LINE
  5
E237
330
1A
100
AcDbEntity
  8
SEIHIN
100
AcDbLine
 10
383.3699989356869
 20
552.0204468713238
 30
0.0
 11
383.3699989356869
 21
550.3204468713238
 31
0.0
  0
ARC
  5
E238
330
1A
100
AcDbEntity
  8
SEIHIN
100
AcDbCircle
 10
382.3699989356869
 20
550.3204468713238
 30
0.0
 40
0.9999999039302407
100
AcDbArc
 50
287.4576065858208
 51
0.0
  0
ARC
  5
E239
330
1A
100
AcDbEntity
  8
SEIHIN
100
AcDbCircle
 10
383.8262483214153
 20
547.5171159393205
 30
0.0
 40
2.181092087025164
100
AcDbArc
 50
122.0138443496043
 51
152.3426144756141
  0
LINE
  5
E23A
330
1A
100
AcDbEntity
  8
CENTER L
 48
5.0
100
AcDbLine
 10
492.5533972651829
 20
463.4141412744177
 30
0.0
 11
492.5533972651829
 21
146.6542452744177
 31
0.0
  0
LINE
  5
E23B
330
1A
100
AcDbEntity
  8
SEIHIN
100
AcDbLine
 10
497.5533972651828
 20
406.3352492744177
 30
0.0
 11
497.5533972651828
 21
222.9653942744177
 31
0.0
  0
LINE
  5
E23C
330
1A
100
AcDbEntity
  8
SEIHIN
100
AcDbLine
 10
487.5533972651829
 20
406.3352492744177
 30
0.0
 11
487.5533972651829
 21
222.9653942744177
 31
0.0
  0
LINE
  5
E23D
330
1A
100
AcDbEntity
  8
SEIHIN
100
AcDbLine
 10
488.5533972651828
 20
406.3352492744177
 30
0.0
 11
488.5533972651828
 21
222.9653942744177
 31
0.0
  0
LINE
  5
E23E
330
1A
100
AcDbEntity
  8
SEIHIN
100
AcDbLine
 10
496.5533972651829
 20
406.3352492744177
 30
0.0
 11
496.5533972651829
 21
222.9653942744177
 31
0.0
  0
DIMENSION
  5
E240
330
1A
100
AcDbEntity
  8
SUNPOU
100
AcDbDimension
  2
*D13
 10
507.5542942651828
 20
127.2211701544081
 30
0.0
 11
492.5542942651827
 21
132.2211701544081
 31
0.0
 70
    32
 71
     5
 42
-1.0
  3
STANDARD
100
AcDbAlignedDimension
 13
477.5542942651827
 23
193.9595102744177
 33
0.0
 14
507.5542942651828
 24
193.9595102744177
 34
0.0
100
AcDbRotatedDimension
1001
ACAD
1000
DSTYLE
1002
{
1070
   140
1040
6.0
1070
    74
1070
     0
1070
   172
1070
     1
1070
    73
1070
     0
1070
   272
1070
     2
1070
    77
1070
     3
1070
   173
1070
     1
1070
   147
1040
2.0
1070
    42
1040
6.0
1070
    44
1040
3.0
1070
    43
1040
14.0
1070
   271
1070
     0
1070
   178
1070
     4
1070
   177
1070
     4
1070
   176
1070
     4
1070
   141
1040
150.0
1070
     7
1000
_OPEN
1070
     6
1000
_OPEN
1070
    41
1040
7.0
1002
}
  0
LINE
  5
E244
330
1A
100
AcDbEntity
  8
SEIHIN
100
AcDbLine
 10
477.5533967651827
 20
250.1089492744176
 30
0.0
 11
477.5533967651827
 21
220.1653942744177
 31
0.0
  0
LINE
  5
E245
330
1A
100
AcDbEntity
  8
SEIHIN
100
AcDbLine
 10
480.253396765183
 20
221.2077499393765
 30
0.0
 11
480.253396765183
 21
248.6871042744176
 31
0.0
  0
LINE
  5
E246
330
1A
100
AcDbEntity
  8
SEIHIN
100
AcDbLine
 10
504.8533967651828
 20
221.0029745159122
 30
0.0
 11
504.8533967651828
 21
248.6871042744176
 31
0.0
  0
LINE
  5
E247
330
1A
100
AcDbEntity
  8
SEIHIN
100
AcDbLine
 10
507.5533967651827
 20
250.1089492744176
 30
0.0
 11
507.5533967651828
 21
220.1653942744177
 31
0.0
  0
ARC
  5
E248
330
1A
100
AcDbEntity
  8
SEIHIN
100
AcDbCircle
 10
410.7799552651827
 20
198.7563042744176
 30
0.0
 40
4.799999999999999
100
AcDbArc
 50
269.9999999999934
 51
359.9999999999959
  0
ARC
  5
E249
330
1A
100
AcDbEntity
  8
SEIHIN
100
AcDbCircle
 10
410.7799552651827
 20
196.9563042744177
 30
0.0
 40
3.0
100
AcDbArc
 50
269.9999999999934
 51
359.9999999999959
  0
ARC
  5
E24A
330
1A
100
AcDbEntity
  8
SEIHIN
100
AcDbCircle
 10
395.4799552651827
 20
195.9563042744177
 30
0.0
 40
2.0
100
AcDbArc
 50
269.9999999999934
 51
359.9999999999951
  0
ARC
  5
E24B
330
1A
100
AcDbEntity
  8
SEIHIN
100
AcDbCircle
 10
394.2642272651828
 20
195.9563042744177
 30
0.0
 40
1.5
100
AcDbArc
 50
269.9999906588934
 51
359.999990658891
  0
LINE
  5
E24C
330
1A
100
AcDbEntity
  8
SEIHIN
100
AcDbLine
 10
401.9799552651827
 20
195.9563042744177
 30
0.0
 11
401.9799552651827
 21
157.9563042744177
 31
0.0
  0
DIMENSION
  5
E24D
330
1A
100
AcDbEntity
  8
SUNPOU
100
AcDbDimension
  2
*D14
 10
439.819435369292
 20
193.9563042744176
 30
0.0
 11
434.8194353692919
 21
208.4326267601054
 31
0.0
 70
    32
 71
     5
 42
-1.0
  3
STANDARD
100
AcDbAlignedDimension
 13
408.9727517848812
 23
222.908949245793
 33
0.0
 14
410.7799552651827
 24
193.9563042744176
 34
0.0
 50
90.0
100
AcDbRotatedDimension
1001
ACAD
1000
DSTYLE
1002
{
1070
    41
1040
7.0
1070
    42
1040
6.0
1070
    43
1040
14.0
1070
    44
1040
3.0
1070
    73
1070
     0
1070
    74
1070
     0
1070
    77
1070
     3
1070
   140
1040
6.0
1070
   141
1040
150.0
1070
   147
1040
2.0
1070
   172
1070
     1
1070
   173
1070
     1
1070
   176
1070
   256
1070
   177
1070
   256
1070
   178
1070
   256
1070
   271
1070
     0
1070
   272
1070
     0
1070
   341
1005
6D
1070
     6
1000
OPEN
1070
     7
1000
OPEN
1070
   371
1070
    -1
1070
   372
1070
    -1
1002
}
  0
DIMENSION
  5
E24E
330
1A
100
AcDbEntity
  8
SUNPOU
100
AcDbDimension
  2
*D15
 10
439.819435369292
 20
193.9563042744177
 30
0.0
 11
434.8194353692919
 21
175.9563042744177
 31
0.0
 70
    32
 71
     5
 42
-1.0
  3
STANDARD
100
AcDbAlignedDimension
 13
403.9799552651827
 23
157.9563042744177
 33
0.0
 14
403.9799552651827
 24
193.9563042744177
 34
0.0
 50
90.0
100
AcDbRotatedDimension
1001
ACAD
1000
DSTYLE
1002
{
1070
   140
1040
6.0
1070
    74
1070
     0
1070
   172
1070
     1
1070
    73
1070
     0
1070
   272
1070
     2
1070
    77
1070
     3
1070
   173
1070
     1
1070
   147
1040
2.0
1070
    42
1040
6.0
1070
    44
1040
3.0
1070
    43
1040
14.0
1070
   271
1070
     0
1070
   178
1070
     4
1070
   177
1070
     4
1070
   176
1070
     4
1070
   141
1040
150.0
1070
     7
1000
_OPEN
1070
     6
1000
_OPEN
1070
    41
1040
7.0
1002
}
  0
LINE
  5
E24F
330
1A
100
AcDbEntity
  8
SEIHIN
100
AcDbLine
 10
403.9799552651827
 20
193.9563042744177
 30
0.0
 11
403.9799552651827
 21
157.9563042744177
 31
0.0
  0
LINE
  5
E250
330
1A
100
AcDbEntity
  8
SEIHIN
100
AcDbLine
 10
403.9799552651827
 20
157.9563042744177
 30
0.0
 11
401.9799552651827
 21
157.9563042744177
 31
0.0
  0
LINE
  5
E251
330
1A
100
AcDbEntity
  8
SEIHIN
100
AcDbLine
 10
410.7799552651827
 20
193.9563042744177
 30
0.0
 11
401.9799552651827
 21
193.9563042744177
 31
0.0
  0
ARC
  5
E252
330
1A
100
AcDbEntity
  8
SEIHIN
100
AcDbCircle
 10
410.7799552651827
 20
217.3059352744177
 30
0.0
 40
2.999999946401332
100
AcDbArc
 50
359.9999810872717
 51
97.9999948198526
  0
ARC
  5
E253
330
1A
100
AcDbEntity
  8
SEIHIN
100
AcDbCircle
 10
409.7799552651826
 20
217.1653942744177
 30
0.0
 40
5.800000100674179
100
AcDbArc
 50
359.9999949554322
 51
97.9999948198526
  0
LINE
  5
E254
330
1A
100
AcDbEntity
  8
NOKITOI
 48
2.0
100
AcDbLine
 10
410.6665916467502
 20
196.7076493595348
 30
0.0
 11
400.2873916467503
 21
196.7076493595348
 31
0.0
  0
LINE
  5
E255
330
1A
100
AcDbEntity
  8
SEIHIN
100
AcDbLine
 10
410.7799552651827
 20
195.9563042744177
 30
0.0
 11
401.9799552651827
 21
195.9563042744177
 31
0.0
  0
ARC
  5
E256
330
1A
100
AcDbEntity
  8
NOKITOI
 48
2.0
100
AcDbCircle
 10
408.6665916467502
 20
212.7076493595347
 30
0.0
 40
2.0
100
AcDbArc
 50
0.0
 51
90.0
  0
LINE
  5
E257
330
1A
100
AcDbEntity
  8
NOKITOI
 48
2.0
100
AcDbLine
 10
409.1665916467502
 20
198.2075493595348
 30
0.0
 11
409.1665916467502
 21
212.7076493595347
 31
0.0
  0
LINE
  5
E258
330
1A
100
AcDbEntity
  8
NOKITOI
 48
2.0
100
AcDbLine
 10
408.8665916467503
 20
198.5075493595349
 30
0.0
 11
408.8665916467503
 21
212.7076493595347
 31
0.0
  0
LINE
  5
E259
330
1A
100
AcDbEntity
  8
NOKITOI
 48
2.0
100
AcDbLine
 10
400.5066066612739
 20
198.5075493595348
 30
0.0
 11
402.2606916467505
 21
212.9075493595347
 31
0.0
  0
LINE
  5
E25A
330
1A
100
AcDbEntity
  8
NOKITOI
 48
2.0
100
AcDbLine
 10
408.8665916467503
 20
198.5075493595349
 30
0.0
 11
400.5065916467503
 21
198.5075493595349
 31
0.0
  0
LINE
  5
E25B
330
1A
100
AcDbEntity
  8
NOKITOI
 48
2.0
100
AcDbLine
 10
409.1665916467502
 20
198.2075493595348
 30
0.0
 11
399.563372005877
 21
198.2075493595348
 31
0.0
  0
LINE
  5
E25C
330
1A
100
AcDbEntity
  8
SEIHIN
100
AcDbLine
 10
397.4799552651827
 20
195.9563042744177
 30
0.0
 11
397.4799552651827
 21
198.9563042744177
 31
0.0
  0
LINE
  5
E25D
330
1A
100
AcDbEntity
  8
SEIHIN
100
AcDbLine
 10
395.7642272651828
 20
195.9563042744177
 30
0.0
 11
395.7642272651828
 21
198.9563042744177
 31
0.0
  0
LINE
  5
E25E
330
1A
100
AcDbEntity
  8
SEIHIN
100
AcDbLine
 10
395.7642272651828
 20
198.9563042744177
 30
0.0
 11
397.4799552651827
 21
198.9563042744177
 31
0.0
  0
LINE
  5
E25F
330
1A
100
AcDbEntity
  8
NOKITOI
 48
2.0
100
AcDbLine
 10
400.6665916467502
 20
214.7076493595347
 30
0.0
 11
408.6665916467502
 21
214.7076493595347
 31
0.0
  0
LINE
  5
E260
330
1A
100
AcDbEntity
  8
NOKITOI
 48
2.0
100
AcDbLine
 10
402.2606916467505
 20
212.9075493595347
 30
0.0
 11
408.6665916467502
 21
212.9075493595347
 31
0.0
  0
LINE
  5
E261
330
1A
100
AcDbEntity
  8
NOKITOI
 48
2.0
100
AcDbLine
 10
402.2606916467505
 20
213.2075493595347
 30
0.0
 11
408.6665916467502
 21
213.2075493595347
 31
0.0
  0
ARC
  5
E262
330
1A
100
AcDbEntity
  8
NOKITOI
 48
2.0
100
AcDbCircle
 10
408.6665916467502
 20
212.7076493595348
 30
0.0
 40
0.2000000000000739
100
AcDbArc
 50
359.9999999999755
 51
89.99999999997395
  0
ARC
  5
E263
330
1A
100
AcDbEntity
  8
NOKITOI
 48
2.0
100
AcDbCircle
 10
408.6665916467502
 20
212.7076493595348
 30
0.0
 40
0.5000000000000739
100
AcDbArc
 50
359.9999999999755
 51
89.99999999997395
  0
LINE
  5
E264
330
1A
100
AcDbEntity
  8
NOKITOI
 48
2.0
100
AcDbLine
 10
410.6665916467502
 20
196.7076493595348
 30
0.0
 11
410.6665916467502
 21
212.7076493595347
 31
0.0
  0
LINE
  5
E265
330
1A
100
AcDbEntity
  8
SEIHIN
100
AcDbLine
 10
413.7799552651826
 20
217.3059352744177
 30
0.0
 11
413.7799552651826
 21
196.9563042744177
 31
0.0
  0
LINE
  5
E266
330
1A
100
AcDbEntity
  8
SEIHIN
100
AcDbLine
 10
411.7799552651827
 20
217.3059352744177
 30
0.0
 11
411.7799552651827
 21
196.9563032744177
 31
0.0
  0
LINE
  5
E267
330
1A
100
AcDbEntity
  8
SEIHIN
100
AcDbLine
 10
415.5799552651829
 20
217.1653952744177
 30
0.0
 11
415.5799552651829
 21
198.7563042744176
 31
0.0
  0
ARC
  5
E268
330
1A
100
AcDbEntity
  8
SEIHIN
100
AcDbCircle
 10
410.7799552651827
 20
196.9563042744177
 30
0.0
 40
1.0
100
AcDbArc
 50
269.9999999999934
 51
359.9999999999934
  0
ARC
  5
E269
330
1A
100
AcDbEntity
  8
SEIHIN
100
AcDbCircle
 10
410.7799552651827
 20
217.3059352744177
 30
0.0
 40
0.9999999589382483
100
AcDbArc
 50
0.0
 51
97.9999948198526
  0
LINE
  5
E26A
330
1A
100
AcDbEntity
  8
SEIHIN
100
AcDbLine
 10
504.8542942651827
 20
195.4633162744176
 30
0.0
 11
504.8542942651827
 21
218.7435492744177
 31
0.0
  0
LINE
  5
E26B
330
1A
100
AcDbEntity
  8
SEIHIN
100
AcDbLine
 10
480.2542942651828
 20
195.4633162744176
 30
0.0
 11
480.2542942651828
 21
218.7435492744177
 31
0.0
  0
LINE
  5
E26C
330
1A
100
AcDbEntity
  8
SEIHIN
100
AcDbLine
 10
477.5542942651827
 20
220.1653942744177
 30
0.0
 11
477.5542942651827
 21
193.9595102744177
 31
0.0
  0
LINE
  5
E26D
330
1A
100
AcDbEntity
  8
SEIHIN
100
AcDbLine
 10
507.5542942651828
 20
220.1653942744177
 30
0.0
 11
507.5542942651828
 21
193.9595102744177
 31
0.0
  0
LINE
  5
E26E
330
1A
100
AcDbEntity
  8
SEIHIN
100
AcDbLine
 10
477.5542942651827
 20
193.9595102744177
 30
0.0
 11
507.5542942651828
 21
193.9595102744177
 31
0.0
  0
LINE
  5
E26F
330
1A
100
AcDbEntity
  8
SEIHIN
100
AcDbLine
 10
489.5542942651827
 20
157.9563042744177
 30
0.0
 11
495.5542942651828
 21
157.9563042744177
 31
0.0
  0
LINE
  5
E270
330
1A
100
AcDbEntity
  8
SEIHIN
100
AcDbLine
 10
487.5542942651827
 20
193.9595102744177
 30
0.0
 11
487.5542942651827
 21
159.9563042744177
 31
0.0
  0
ARC
  5
E271
330
1A
100
AcDbEntity
  8
SEIHIN
100
AcDbCircle
 10
489.5542942651827
 20
159.9563042744177
 30
0.0
 40
2.0
100
AcDbArc
 50
180.0000000000007
 51
270.0
  0
ARC
  5
E272
330
1A
100
AcDbEntity
  8
SEIHIN
100
AcDbCircle
 10
485.0689622651827
 20
185.0246732744176
 30
0.0
 40
2.562635081136893
100
AcDbArc
 50
192.6777842206327
 51
347.3206758202684
  0
LINE
  5
E273
330
1A
100
AcDbEntity
  8
SEIHIN
100
AcDbLine
 10
485.0689622651827
 20
182.4620382744176
 30
0.0
 11
487.5542942651827
 21
182.4620382744176
 31
0.0
  0
LINE
  5
E274
330
1A
100
AcDbEntity
  8
SEIHIN
100
AcDbLine
 10
482.5693022651828
 20
192.2108832744177
 30
0.0
 11
487.5542942651827
 21
192.2108832744177
 31
0.0
  0
LINE
  5
E275
330
1A
100
AcDbEntity
  8
SEIHIN
100
AcDbLine
 10
482.5693022651828
 20
190.4622552744177
 30
0.0
 11
487.5542942651827
 21
190.4622552744177
 31
0.0
  0
ARC
  5
E276
330
1A
100
AcDbEntity
  8
SEIHIN
100
AcDbCircle
 10
479.2542942651827
 20
193.6570092744177
 30
0.0
 40
0.999999891250238
100
AcDbArc
 50
269.9999999999934
 51
357.1340153935267
  0
LINE
  5
E277
330
1A
100
AcDbEntity
  8
SEIHIN
100
AcDbLine
 10
477.5542942651827
 20
190.6570092744177
 30
0.0
 11
477.5542942651827
 21
192.6570092744177
 31
0.0
  0
LINE
  5
E278
330
1A
100
AcDbEntity
  8
SEIHIN
100
AcDbLine
 10
477.5542942651827
 20
190.6570092744177
 30
0.0
 11
479.2542942651827
 21
190.6570092744177
 31
0.0
  0
LINE
  5
E279
330
1A
100
AcDbEntity
  8
SEIHIN
100
AcDbLine
 10
479.2542942651827
 20
192.6570092744177
 30
0.0
 11
477.5542942651827
 21
192.6570092744177
 31
0.0
  0
ARC
  5
E27A
330
1A
100
AcDbEntity
  8
SEIHIN
100
AcDbCircle
 10
483.2542942651827
 20
193.4570092744177
 30
0.0
 40
1.000000160982474
100
AcDbArc
 50
149.8344074897753
 51
180.0000000000016
  0
ARC
  5
E27B
330
1A
100
AcDbEntity
  8
SEIHIN
100
AcDbCircle
 10
483.2492912651828
 20
193.4570092744177
 30
0.0
 40
3.000000131152327
100
AcDbArc
 50
170.3574789383338
 51
177.13401539353
  0
LINE
  5
E27C
330
1A
100
AcDbEntity
  8
SEIHIN
100
AcDbLine
 10
482.2542942651828
 20
193.4570092744177
 30
0.0
 11
482.2542942651828
 21
193.6570092744177
 31
0.0
  0
LINE
  5
E27D
330
1A
100
AcDbEntity
  8
SEIHIN
100
AcDbLine
 10
482.5691052651827
 20
184.4622552744177
 30
0.0
 11
482.5693022651828
 21
190.4622552744177
 31
0.0
  0
LINE
  5
E27E
330
1A
100
AcDbEntity
  8
SEIHIN
100
AcDbLine
 10
482.5693022651828
 20
190.4622552744177
 30
0.0
 11
482.5693022651828
 21
193.9595102744177
 31
0.0
  0
ARC
  5
E27F
330
1A
100
AcDbEntity
  8
SEIHIN
100
AcDbCircle
 10
479.2542942651827
 20
193.6570092744177
 30
0.0
 40
3.0
100
AcDbArc
 50
270.0
 51
0.0000000000016284
  0
LINE
  5
E280
330
1A
100
AcDbEntity
  8
SEIHIN
100
AcDbLine
 10
497.5542942651827
 20
193.9595102744177
 30
0.0
 11
497.5542942651827
 21
159.9563042744177
 31
0.0
  0
ARC
  5
E281
330
1A
100
AcDbEntity
  8
SEIHIN
100
AcDbCircle
 10
495.5542942651828
 20
159.9563042744177
 30
0.0
 40
2.0
100
AcDbArc
 50
270.0
 51
0.0000000000016284
  0
ARC
  5
E282
330
1A
100
AcDbEntity
  8
SEIHIN
100
AcDbCircle
 10
500.0692842651829
 20
185.0241792744176
 30
0.0
 40
2.562656995934785
100
AcDbArc
 50
192.6777283217449
 51
347.3162491952186
  0
LINE
  5
E283
330
1A
100
AcDbEntity
  8
SEIHIN
100
AcDbLine
 10
500.1206872651827
 20
182.4620382744176
 30
0.0
 11
497.5542942651827
 21
182.4620382744176
 31
0.0
  0
LINE
  5
E284
330
1A
100
AcDbEntity
  8
SEIHIN
100
AcDbLine
 10
497.5542942651827
 20
192.2108832744177
 30
0.0
 11
502.5693022651826
 21
192.2105542744176
 31
0.0
  0
LINE
  5
E285
330
1A
100
AcDbEntity
  8
SEIHIN
100
AcDbLine
 10
497.5542942651827
 20
190.4622552744177
 30
0.0
 11
502.5693022651826
 21
190.4615972744177
 31
0.0
  0
ARC
  5
E286
330
1A
100
AcDbEntity
  8
SEIHIN
100
AcDbCircle
 10
505.8542942651826
 20
193.6570092744177
 30
0.0
 40
0.999999891250238
100
AcDbArc
 50
182.8659846064764
 51
270.0000000000065
  0
LINE
  5
E287
330
1A
100
AcDbEntity
  8
SEIHIN
100
AcDbLine
 10
507.5542942651828
 20
190.6570092744177
 30
0.0
 11
507.5542942651828
 21
192.6570092744177
 31
0.0
  0
LINE
  5
E288
330
1A
100
AcDbEntity
  8
SEIHIN
100
AcDbLine
 10
505.8542942651826
 20
192.6570092744177
 30
0.0
 11
507.5542942651828
 21
192.6570092744177
 31
0.0
  0
LINE
  5
E289
330
1A
100
AcDbEntity
  8
SEIHIN
100
AcDbLine
 10
507.5542942651828
 20
190.6570092744177
 30
0.0
 11
505.8542942651826
 21
190.6570092744177
 31
0.0
  0
ARC
  5
E28A
330
1A
100
AcDbEntity
  8
SEIHIN
100
AcDbCircle
 10
501.8592972651827
 20
193.4570092744177
 30
0.0
 40
3.000000131152327
100
AcDbArc
 50
2.865984606469946
 51
9.642521061666185
  0
ARC
  5
E28B
330
1A
100
AcDbEntity
  8
SEIHIN
100
AcDbCircle
 10
501.8542942651826
 20
193.4570092744177
 30
0.0
 40
1.000000160982474
100
AcDbArc
 50
359.9999999999983
 51
30.16559251022445
  0
LINE
  5
E28C
330
1A
100
AcDbEntity
  8
SEIHIN
100
AcDbLine
 10
502.8542942651827
 20
193.4570092744177
 30
0.0
 11
502.8542942651827
 21
193.6570092744177
 31
0.0
  0
LINE
  5
E28D
330
1A
100
AcDbEntity
  8
SEIHIN
100
AcDbLine
 10
502.5691052651827
 20
184.4615972744177
 30
0.0
 11
502.5693022651826
 21
190.4615972744177
 31
0.0
  0
LINE
  5
E28E
330
1A
100
AcDbEntity
  8
SEIHIN
100
AcDbLine
 10
502.5693022651826
 20
190.4615972744177
 30
0.0
 11
502.5693022651826
 21
193.9595102744177
 31
0.0
  0
ARC
  5
E28F
330
1A
100
AcDbEntity
  8
SEIHIN
100
AcDbCircle
 10
505.8542942651826
 20
193.6570092744177
 30
0.0
 40
3.0
100
AcDbArc
 50
179.9999999999991
 51
270.0
  0
LINE
  5
E290
330
1A
100
AcDbEntity
  8
SEIHIN
100
AcDbLine
 10
483.0700512651828
 20
222.9653942744177
 30
0.0
 11
502.0385382651827
 21
222.9653942744177
 31
0.0
  0
ARC
  5
E291
330
1A
100
AcDbEntity
  8
SEIHIN
100
AcDbCircle
 10
479.2542942651827
 20
221.1653942744177
 30
0.0
 40
0.9999999039302407
100
AcDbArc
 50
270.0000000000065
 51
342.5423934141818
  0
ARC
  5
E292
330
1A
100
AcDbEntity
  8
SEIHIN
100
AcDbCircle
 10
483.0700512651828
 20
219.9653942744177
 30
0.0
 40
3.000000188760321
100
AcDbArc
 50
89.99999427042402
 51
162.5423934141757
  0
ARC
  5
E293
330
1A
100
AcDbEntity
  8
SEIHIN
100
AcDbCircle
 10
483.0700512651828
 20
219.9653942744177
 30
0.0
 40
3.000000188760321
100
AcDbArc
 50
89.99999427042402
 51
162.5423934141757
  0
LINE
  5
E294
330
1A
100
AcDbEntity
  8
SEIHIN
100
AcDbLine
 10
477.5542942651827
 20
220.1653942744177
 30
0.0
 11
479.2542942651827
 21
220.1653942744177
 31
0.0
  0
ARC
  5
E295
330
1A
100
AcDbEntity
  8
SEIHIN
100
AcDbCircle
 10
502.0385382651827
 20
219.9653942744177
 30
0.0
 40
3.000000188760321
100
AcDbArc
 50
17.45760658582422
 51
90.00000572957597
  0
ARC
  5
E296
330
1A
100
AcDbEntity
  8
SEIHIN
100
AcDbCircle
 10
505.8542942651826
 20
221.1653942744177
 30
0.0
 40
0.9999999039302407
100
AcDbArc
 50
197.4576065858265
 51
270.0
  0
LINE
  5
E297
330
1A
100
AcDbEntity
  8
SEIHIN
100
AcDbLine
 10
507.5542942651828
 20
220.1653942744177
 30
0.0
 11
505.8542942651826
 21
220.1653942744177
 31
0.0
  0
LINE
  5
E298
330
1A
100
AcDbEntity
  8
SEIHIN
100
AcDbLine
 10
483.0691537651828
 20
252.9089492744176
 30
0.0
 11
487.5533972651829
 21
252.9089492744177
 31
0.0
  0
LINE
  5
E299
330
1A
100
AcDbEntity
  8
SEIHIN
100
AcDbLine
 10
483.0691537651828
 20
247.9541475656643
 30
0.0
 11
487.5533972651829
 21
247.9541475656643
 31
0.0
  0
ARC
  5
E29A
330
1A
100
AcDbEntity
  8
SEIHIN
100
AcDbCircle
 10
483.0691537651828
 20
249.9089492744177
 30
0.0
 40
3.000000188760321
100
AcDbArc
 50
89.99999427042402
 51
162.5423934141757
  0
ARC
  5
E29B
330
1A
100
AcDbEntity
  8
SEIHIN
100
AcDbCircle
 10
483.0691537651828
 20
249.9089492744177
 30
0.0
 40
3.000000188760321
100
AcDbArc
 50
89.99999427042402
 51
162.5423934141757
  0
LINE
  5
E29C
330
1A
100
AcDbEntity
  8
SEIHIN
100
AcDbLine
 10
477.5533967651827
 20
250.1089492744176
 30
0.0
 11
479.2533967651829
 21
250.1089492744176
 31
0.0
  0
ARC
  5
E29D
330
1A
100
AcDbEntity
  8
SEIHIN
100
AcDbCircle
 10
479.2533967651829
 20
251.1089492744176
 30
0.0
 40
0.9999999039302407
100
AcDbArc
 50
270.0000000000065
 51
342.5423934141818
  0
ARC
  5
E29E
330
1A
100
AcDbEntity
  8
SEIHIN
100
AcDbCircle
 10
479.2533967651829
 20
246.1541475656642
 30
0.0
 40
0.9999999039302407
100
AcDbArc
 50
270.0000000000065
 51
342.5423934141818
  0
LINE
  5
E29F
330
1A
100
AcDbEntity
  8
SEIHIN
100
AcDbLine
 10
477.5533967651827
 20
245.1541475656643
 30
0.0
 11
479.2533967651829
 21
245.1541475656643
 31
0.0
  0
ARC
  5
E2A0
330
1A
100
AcDbEntity
  8
SEIHIN
100
AcDbCircle
 10
483.0691537651828
 20
244.9541475656643
 30
0.0
 40
3.000000188760321
100
AcDbArc
 50
89.99999427042402
 51
162.5423934141757
  0
ARC
  5
E2A1
330
1A
100
AcDbEntity
  8
SEIHIN
100
AcDbCircle
 10
483.0691537651828
 20
244.9541475656643
 30
0.0
 40
3.000000188760321
100
AcDbArc
 50
89.99999427042402
 51
162.5423934141757
  0
LINE
  5
E2A2
330
1A
100
AcDbEntity
  8
SEIHIN
100
AcDbLine
 10
497.5533972651828
 20
252.9089492744177
 30
0.0
 11
502.0376407651829
 21
252.9089492744176
 31
0.0
  0
LINE
  5
E2A3
330
1A
100
AcDbEntity
  8
SEIHIN
100
AcDbLine
 10
497.5533972651828
 20
247.9541475656643
 30
0.0
 11
502.0376407651829
 21
247.9541475656643
 31
0.0
  0
ARC
  5
E2A4
330
1A
100
AcDbEntity
  8
SEIHIN
100
AcDbCircle
 10
502.0376407651829
 20
249.9089492744177
 30
0.0
 40
3.000000188760321
100
AcDbArc
 50
17.45760658582422
 51
90.00000572957597
  0
LINE
  5
E2A5
330
1A
100
AcDbEntity
  8
SEIHIN
100
AcDbLine
 10
507.5533967651827
 20
250.1089492744176
 30
0.0
 11
505.8533967651828
 21
250.1089492744176
 31
0.0
  0
ARC
  5
E2A6
330
1A
100
AcDbEntity
  8
SEIHIN
100
AcDbCircle
 10
505.8533967651828
 20
251.1089492744176
 30
0.0
 40
0.9999999039302407
100
AcDbArc
 50
197.4576065858265
 51
270.0
  0
ARC
  5
E2A7
330
1A
100
AcDbEntity
  8
SEIHIN
100
AcDbCircle
 10
505.8533967651828
 20
246.1541475656642
 30
0.0
 40
0.9999999039302407
100
AcDbArc
 50
197.4576065858265
 51
270.0
  0
LINE
  5
E2A8
330
1A
100
AcDbEntity
  8
SEIHIN
100
AcDbLine
 10
507.5533967651827
 20
245.1541475656643
 30
0.0
 11
505.8533967651828
 21
245.1541475656643
 31
0.0
  0
ARC
  5
E2A9
330
1A
100
AcDbEntity
  8
SEIHIN
100
AcDbCircle
 10
502.0376407651829
 20
244.9541475656643
 30
0.0
 40
3.000000188760321
100
AcDbArc
 50
17.45760658582422
 51
90.00000572957597
  0
LINE
  5
E2AA
330
1A
100
AcDbEntity
  8
SEIHIN
100
AcDbLine
 10
507.5537262651828
 20
432.0347552744177
 30
0.0
 11
507.5533972651828
 21
422.0347552744177
 31
0.0
  0
LINE
  5
E2AB
330
1A
100
AcDbEntity
  8
SEIHIN
100
AcDbLine
 10
477.5537262651828
 20
432.0357432744177
 30
0.0
 11
477.5533972651828
 21
422.0357432744178
 31
0.0
  0
LINE
  5
E2AC
330
1A
100
AcDbEntity
  8
SEIHIN
100
AcDbLine
 10
503.5533972651828
 20
418.0352492744177
 30
0.0
 11
481.5533972651828
 21
418.0352492744177
 31
0.0
  0
LINE
  5
E2AD
330
1A
100
AcDbEntity
  8
SEIHIN
100
AcDbLine
 10
503.5533972651828
 20
416.8352492744177
 30
0.0
 11
481.5533972651828
 21
416.8352492744177
 31
0.0
  0
LINE
  5
E2AE
330
1A
100
AcDbEntity
  8
SEIHIN
100
AcDbLine
 10
501.2136569774343
 20
414.3349643435165
 30
0.0
 11
483.8926295529313
 21
414.3355342053189
 31
0.0
  0
ARC
  5
E2AF
330
1A
100
AcDbEntity
  8
SEIHIN
100
AcDbCircle
 10
488.2226127180024
 20
412.0231719250933
 30
0.0
 40
5.687779919070464
100
AcDbArc
 50
220.4168415688913
 51
319.5793775127736
  0
LINE
  5
E2B0
330
1A
100
AcDbEntity
  8
SEIHIN
100
AcDbLine
 10
488.2224250512008
 20
406.3353920091189
 30
0.0
 11
496.8829387633982
 21
406.335106257748
 31
0.0
  0
LINE
  5
E2B1
330
1A
100
AcDbEntity
  8
SEIHIN
100
AcDbLine
 10
507.5533972651828
 20
422.0347552744177
 30
0.0
 11
477.5533972651828
 21
422.0357432744178
 31
0.0
  0
LINE
  5
E2B2
330
1A
100
AcDbEntity
  8
SEIHIN
100
AcDbLine
 10
483.5531212651829
 20
416.8357092747242
 30
0.0
 11
485.0531202651827
 21
414.3357092747242
 31
0.0
  0
LINE
  5
E2B3
330
1A
100
AcDbEntity
  8
SEIHIN
100
AcDbLine
 10
483.8922341845973
 20
408.3355355323337
 30
0.0
 11
483.8926295529583
 21
414.3355346163565
 31
0.0
  0
LINE
  5
E2B4
330
1A
100
AcDbEntity
  8
SEIHIN
100
AcDbLine
 10
481.5533972651828
 20
418.0352492744177
 30
0.0
 11
481.5533972651828
 21
416.8352492744177
 31
0.0
  0
LINE
  5
E2B5
330
1A
100
AcDbEntity
  8
SEIHIN
100
AcDbLine
 10
488.5533972651828
 20
418.0352492744177
 30
0.0
 11
488.5533972651828
 21
422.0352492744178
 31
0.0
  0
LINE
  5
E2B6
330
1A
100
AcDbEntity
  8
SEIHIN
100
AcDbLine
 10
487.5533972651829
 20
418.0352492744177
 30
0.0
 11
487.5533972651829
 21
422.0352492744178
 31
0.0
  0
LINE
  5
E2B7
330
1A
100
AcDbEntity
  8
SEIHIN
100
AcDbLine
 10
500.0533962651827
 20
414.3352492744178
 30
0.0
 11
501.5533972651828
 21
416.8352492744177
 31
0.0
  0
ARC
  5
E2B8
330
1A
100
AcDbEntity
  8
SEIHIN
100
AcDbCircle
 10
496.8831264301996
 20
412.0228861737224
 30
0.0
 40
5.687779919070464
100
AcDbArc
 50
220.4168415688913
 51
319.5793775127736
  0
LINE
  5
E2B9
330
1A
100
AcDbEntity
  8
SEIHIN
100
AcDbLine
 10
492.5527478967946
 20
408.3352497809628
 30
0.0
 11
492.5531432651828
 21
414.3352492744177
 31
0.0
  0
LINE
  5
E2BA
330
1A
100
AcDbEntity
  8
SEIHIN
100
AcDbLine
 10
501.213261608992
 20
408.3349640295925
 30
0.0
 11
501.2136569774074
 21
414.3349639340845
 31
0.0
  0
LINE
  5
E2BB
330
1A
100
AcDbEntity
  8
SEIHIN
100
AcDbLine
 10
496.5533972651829
 20
418.0352492744177
 30
0.0
 11
496.5533972651829
 21
422.0352492744178
 31
0.0
  0
LINE
  5
E2BC
330
1A
100
AcDbEntity
  8
SEIHIN
100
AcDbLine
 10
497.5533972651828
 20
418.0352492744177
 30
0.0
 11
497.5533972651828
 21
422.0352492744178
 31
0.0
  0
LINE
  5
E2BD
330
1A
100
AcDbEntity
  8
SEIHIN
100
AcDbLine
 10
503.5533972651828
 20
418.0352492744177
 30
0.0
 11
503.5533972651828
 21
416.8352492744177
 31
0.0
  0
ARC
  5
E2BE
330
1A
100
AcDbEntity
  8
SEIHIN
100
AcDbCircle
 10
488.2230190811323
 20
438.0476119923689
 30
0.0
 40
5.687779919070464
100
AcDbArc
 50
40.41684699691309
 51
139.5793829407963
  0
LINE
  5
E2BF
330
1A
100
AcDbEntity
  8
SEIHIN
100
AcDbLine
 10
488.2232062090918
 20
443.7353919083611
 30
0.0
 11
496.883719921316
 21
443.73510697746
 31
0.0
  0
LINE
  5
E2C0
330
1A
100
AcDbEntity
  8
SEIHIN
100
AcDbLine
 10
503.5533972651828
 20
433.2348870185861
 30
0.0
 11
481.5531082651828
 21
433.2352492744177
 31
0.0
  0
LINE
  5
E2C1
330
1A
100
AcDbEntity
  8
SEIHIN
100
AcDbLine
 10
483.8928835529582
 20
435.7355342197949
 30
0.0
 11
501.2139109774071
 21
435.7349643579926
 31
0.0
  0
LINE
  5
E2C2
330
1A
100
AcDbEntity
  8
SEIHIN
100
AcDbLine
 10
503.5533972651828
 20
432.0348870185862
 30
0.0
 11
481.5531082651828
 21
432.0352492744177
 31
0.0
  0
LINE
  5
E2C3
330
1A
100
AcDbEntity
  8
SEIHIN
100
AcDbLine
 10
507.5537262651828
 20
432.0347552744177
 30
0.0
 11
477.5537262651828
 21
432.0357432744177
 31
0.0
  0
LINE
  5
E2C4
330
1A
100
AcDbEntity
  8
SEIHIN
100
AcDbLine
 10
487.5533972651829
 20
447.4564682744177
 30
0.0
 11
497.5533972651828
 21
447.4564682744177
 31
0.0
  0
LINE
  5
E2C5
330
1A
100
AcDbEntity
  8
SEIHIN
100
AcDbLine
 10
483.8928835529582
 20
441.7355337262761
 30
0.0
 11
483.8928835529582
 21
435.7355346292269
 31
0.0
  0
LINE
  5
E2C6
330
1A
100
AcDbEntity
  8
SEIHIN
100
AcDbLine
 10
481.5531082651828
 20
433.2352492744177
 30
0.0
 11
481.5531082651828
 21
432.0352492744177
 31
0.0
  0
LINE
  5
E2C7
330
1A
100
AcDbEntity
  8
SEIHIN
100
AcDbLine
 10
483.5531082651828
 20
433.2347676074302
 30
0.0
 11
485.0531072651829
 21
435.7347676074302
 31
0.0
  0
LINE
  5
E2C8
330
1A
100
AcDbEntity
  8
SEIHIN
100
AcDbLine
 10
488.5533972651828
 20
443.7354142744176
 30
0.0
 11
488.5533972651828
 21
447.4564682744177
 31
0.0
  0
LINE
  5
E2C9
330
1A
100
AcDbEntity
  8
SEIHIN
100
AcDbLine
 10
487.5533972651829
 20
443.7354142744176
 30
0.0
 11
487.5533972651829
 21
447.4564682744177
 31
0.0
  0
LINE
  5
E2CA
330
1A
100
AcDbEntity
  8
SEIHIN
100
AcDbLine
 10
501.2139109774072
 20
441.7349638644733
 30
0.0
 11
501.2139109774071
 21
435.7349639469549
 31
0.0
  0
LINE
  5
E2CB
330
1A
100
AcDbEntity
  8
SEIHIN
100
AcDbLine
 10
492.5533972651826
 20
441.7352487953749
 30
0.0
 11
492.5533972651829
 21
435.7352492888938
 31
0.0
  0
LINE
  5
E2CC
330
1A
100
AcDbEntity
  8
SEIHIN
100
AcDbLine
 10
500.0531072651829
 20
435.7352492744177
 30
0.0
 11
501.5531082651827
 21
433.2352492744177
 31
0.0
  0
LINE
  5
E2CD
330
1A
100
AcDbEntity
  8
SEIHIN
100
AcDbLine
 10
503.5533972651828
 20
433.2348870185861
 30
0.0
 11
503.5533972651828
 21
432.0348870185862
 31
0.0
  0
ARC
  5
E2CE
330
1A
100
AcDbEntity
  8
SEIHIN
100
AcDbCircle
 10
496.8835327933565
 20
438.0473270614678
 30
0.0
 40
5.687779919070464
100
AcDbArc
 50
40.41684699691309
 51
139.5793829407963
  0
LINE
  5
E2CF
330
1A
100
AcDbEntity
  8
SEIHIN
100
AcDbLine
 10
496.5533972651829
 20
443.7354142744176
 30
0.0
 11
496.5533972651829
 21
447.4564682744177
 31
0.0
  0
LINE
  5
E2D0
330
1A
100
AcDbEntity
  8
SEIHIN
100
AcDbLine
 10
497.5533972651828
 20
443.7354142744176
 30
0.0
 11
497.5533972651828
 21
447.4564682744177
 31
0.0
  0
DIMENSION
  5
E2D1
330
1A
100
AcDbEntity
  8
SUNPOU
100
AcDbDimension
  2
*D16
 10
458.242148120285
 20
522.0204468713238
 30
0.0
 11
453.242148120285
 21
537.0204468713239
 31
0.0
 70
    32
 71
     5
 42
-1.0
  3
STANDARD
100
AcDbAlignedDimension
 13
414.8043403015285
 23
552.0204468713238
 33
0.0
 14
414.8043403015285
 24
522.0204468713238
 34
0.0
 50
90.0
100
AcDbRotatedDimension
1001
ACAD
1000
DSTYLE
1002
{
1070
    41
1040
7.0
1070
    42
1040
6.0
1070
    43
1040
14.0
1070
    44
1040
3.0
1070
    73
1070
     0
1070
    74
1070
     0
1070
    77
1070
     3
1070
   140
1040
6.0
1070
   141
1040
150.0
1070
   147
1040
2.0
1070
   172
1070
     1
1070
   173
1070
     1
1070
   176
1070
   256
1070
   177
1070
   256
1070
   178
1070
   256
1070
   271
1070
     0
1070
   272
1070
     0
1070
   341
1005
6D
1070
     6
1000
OPEN
1070
     7
1000
OPEN
1070
   371
1070
    -1
1070
   372
1070
    -1
1002
}
  0
LINE
  5
E2D2
330
1A
100
AcDbEntity
  8
SEIHIN
100
AcDbLine
 10
416.6043403015287
 20
525.9161902207592
 30
0.0
 11
416.6043403015287
 21
548.1247035218884
 31
0.0
  0
LINE
  5
E2D3
330
1A
100
AcDbEntity
  8
SEIHIN
100
AcDbLine
 10
414.8043403015285
 20
522.0204468713238
 30
0.0
 11
414.8043403015285
 21
523.7204468713239
 31
0.0
  0
ARC
  5
E2D4
330
1A
100
AcDbEntity
  8
SEIHIN
100
AcDbCircle
 10
415.8043403015285
 20
523.7204468713239
 30
0.0
 40
0.9999999039302407
100
AcDbArc
 50
107.4576065858208
 51
179.9999999999902
  0
ARC
  5
E2D5
330
1A
100
AcDbEntity
  8
SEIHIN
100
AcDbCircle
 10
414.4389682925602
 20
526.7261974483458
 30
0.0
 40
2.311914281708262
100
AcDbArc
 50
297.4399187584075
 51
339.4905333935032
  0
ARC
  5
E2D6
330
1A
100
AcDbEntity
  8
SEIHIN
100
AcDbCircle
 10
414.4389682925602
 20
526.7261974483458
 30
0.0
 40
2.311914281708262
100
AcDbArc
 50
297.4399187584075
 51
339.4905333935032
  0
ARC
  5
E2D7
330
1A
100
AcDbEntity
  8
SEIHIN
100
AcDbCircle
 10
415.8043403015285
 20
550.3204468713238
 30
0.0
 40
0.9999999039302407
100
AcDbArc
 50
180.0
 51
252.5423934141791
  0
ARC
  5
E2D8
330
1A
100
AcDbEntity
  8
SEIHIN
100
AcDbCircle
 10
414.4389682925602
 20
547.3146962943017
 30
0.0
 40
2.311914281708274
100
AcDbArc
 50
20.50946660649542
 51
62.56008124159972
  0
LINE
  5
E2D9
330
1A
100
AcDbEntity
  8
SEIHIN
100
AcDbLine
 10
414.8043403015285
 20
552.0204468713238
 30
0.0
 11
414.8043403015285
 21
550.3204468713238
 31
0.0
  0
LINE
  5
E9FD
330
1A
100
AcDbEntity
  8
0
 48
2.0
100
AcDbLine
 10
207.1799552651827
 20
228.7563042744177
 30
0.0
 11
207.1799552651827
 21
67.08925094742539
 31
0.0
  0
LINE
  5
E9FE
330
1A
100
AcDbEntity
  8
SEIHIN
 48
5.0
100
AcDbLine
 10
379.5354663707011
 20
75.29785855825676
 30
0.0
 11
388.9446074288536
 21
78.0892509474254
 31
0.0
  0
LINE
  5
E9FF
330
1A
100
AcDbEntity
  8
SEIHIN
 48
5.0
100
AcDbLine
 10
371.8795401886911
 20
76.0892509474254
 30
0.0
 11
384.8993608037485
 21
78.0892509474254
 31
0.0
  0
LINE
  5
EA00
330
1A
100
AcDbEntity
  8
SEIHIN
 48
5.0
100
AcDbLine
 10
379.5354663708687
 20
58.88064333658338
 30
0.0
 11
388.9446074288909
 21
56.0892509474254
 31
0.0
  0
LINE
  5
EA01
330
1A
100
AcDbEntity
  8
SEIHIN
 48
5.0
100
AcDbLine
 10
371.8795401888425
 20
58.0892509474254
 30
0.0
 11
384.8993608038132
 21
56.0892509474254
 31
0.0
  0
LINE
  5
EA02
330
1A
100
AcDbEntity
  8
SEIHIN
 48
5.0
100
AcDbLine
 10
314.5441783658568
 20
77.38925094742547
 30
0.0
 11
380.3424235884786
 21
77.38925094742547
 31
0.0
  0
LINE
  5
EA03
330
1A
100
AcDbEntity
  8
SEIHIN
 48
5.0
100
AcDbLine
 10
314.5441783658568
 20
56.78925094742544
 30
0.0
 11
380.3424235885732
 21
56.78925094742544
 31
0.0
  0
LINE
  5
EA04
330
1A
100
AcDbEntity
  8
CENTER L
 48
5.0
100
AcDbLine
 10
425.5115059503129
 20
67.08925094742539
 30
0.0
 11
198.3629753495128
 21
67.08925094742539
 31
0.0
  0
LINE
  5
EA05
330
1A
100
AcDbEntity
  8
SEIHIN
 48
5.0
100
AcDbLine
 10
208.9799552651945
 20
52.08925094742539
 30
0.0
 11
403.1799549726194
 21
52.08925094742539
 31
0.0
  0
LINE
  5
EA06
330
1A
100
AcDbEntity
  8
SEIHIN
 48
5.0
100
AcDbLine
 10
403.1799548938945
 20
82.08925094742539
 30
0.0
 11
208.9799552651013
 21
82.08925094742539
 31
0.0
  0
LINE
  5
EA07
330
1A
100
AcDbEntity
  8
SEIHIN
 48
5.0
100
AcDbLine
 10
254.9684135840655
 20
76.02141918670151
 30
0.0
 11
248.4555540808283
 21
75.36569031907487
 31
0.0
  0
LINE
  5
EA08
330
1A
100
AcDbEntity
  8
SEIHIN
 48
5.0
100
AcDbLine
 10
255.6421352218693
 20
76.08925094756393
 30
0.0
 11
238.0727346759324
 21
78.0892509474254
 31
0.0
  0
LINE
  5
EA09
330
1A
100
AcDbEntity
  8
SEIHIN
 48
5.0
100
AcDbLine
 10
244.2220248674357
 20
77.38925094742547
 30
0.0
 11
314.5441783658569
 21
77.38925094742547
 31
0.0
  0
LINE
  5
EA0A
330
1A
100
AcDbEntity
  8
SEIHIN
 48
5.0
100
AcDbLine
 10
254.9684135840655
 20
58.15708270814929
 30
0.0
 11
248.4555540808283
 21
58.81281157577593
 31
0.0
  0
LINE
  5
EA0B
330
1A
100
AcDbEntity
  8
SEIHIN
 48
5.0
100
AcDbLine
 10
255.6421352218693
 20
58.08925094728687
 30
0.0
 11
238.0727346759322
 21
56.0892509474254
 31
0.0
  0
LINE
  5
EA0C
330
1A
100
AcDbEntity
  8
SEIHIN
 48
5.0
100
AcDbLine
 10
244.2220248674368
 20
56.78925094742544
 30
0.0
 11
314.5441783658569
 21
56.78925094742544
 31
0.0
  0
LINE
  5
EA0D
330
1A
100
AcDbEntity
  8
SEIHIN
 48
5.0
100
AcDbLine
 10
247.7818324417305
 20
59.55777109006527
 30
0.0
 11
247.7818324418036
 21
74.62073080478552
 31
0.0
  0
ARC
  5
EA0E
330
1A
100
AcDbEntity
  8
SEIHIN
 48
5.0
100
AcDbCircle
 10
288.5496741595014
 20
67.08925094779971
 30
0.0
 40
64.86971889422495
100
AcDbArc
 50
170.2371436705029
 51
189.7628563301663
  0
LINE
  5
EA0F
330
1A
100
AcDbEntity
  8
SEIHIN
 48
5.0
100
AcDbLine
 10
219.9799552651945
 20
80.0892509474254
 30
0.0
 11
219.9799552652176
 21
54.0892509474254
 31
0.0
  0
LINE
  5
EA10
330
1A
100
AcDbEntity
  8
SEIHIN
 48
5.0
100
AcDbLine
 10
207.1799552651943
 20
56.0892509474254
 30
0.0
 11
207.1799552651711
 21
78.0892509474254
 31
0.0
  0
LINE
  5
EA11
330
1A
100
AcDbEntity
  8
SEIHIN
 48
5.0
100
AcDbLine
 10
217.9799555126944
 20
52.08925094742539
 30
0.0
 11
208.9799552651945
 21
52.08925094742539
 31
0.0
  0
ARC
  5
EA12
330
1A
100
AcDbEntity
  8
SEIHIN
 48
5.0
100
AcDbCircle
 10
208.4799552651945
 20
56.0892509474254
 30
0.0
 40
1.3
100
AcDbArc
 50
180.0
 51
269.9999999958833
  0
LINE
  5
EA13
330
1A
100
AcDbEntity
  8
SEIHIN
 48
5.0
100
AcDbLine
 10
211.1625388368945
 20
54.78925094742544
 30
0.0
 11
208.4799552651012
 21
54.78925094742544
 31
0.0
  0
ARC
  5
EA14
330
1A
100
AcDbEntity
  8
SEIHIN
 48
5.0
100
AcDbCircle
 10
208.4799552651945
 20
54.28925094742544
 30
0.0
 40
0.5
100
AcDbArc
 50
0.0
 51
90.0000000106826
  0
LINE
  5
EA15
330
1A
100
AcDbEntity
  8
SEIHIN
 48
5.0
100
AcDbLine
 10
208.9799552651945
 20
52.08925094742539
 30
0.0
 11
208.9799552651013
 21
54.28925094742544
 31
0.0
  0
LINE
  5
EA16
330
1A
100
AcDbEntity
  8
SEIHIN
 48
5.0
100
AcDbLine
 10
224.6193962826804
 20
56.0892509474254
 30
0.0
 11
238.0727346759321
 21
56.0892509474254
 31
0.0
  0
LINE
  5
EA17
330
1A
100
AcDbEntity
  8
SEIHIN
 48
5.0
100
AcDbLine
 10
219.9799552651945
 20
56.78925094742544
 30
0.0
 11
224.5028910286676
 21
56.78925094742544
 31
0.0
  0
ARC
  5
EA18
330
1A
100
AcDbEntity
  8
SEIHIN
 48
5.0
100
AcDbCircle
 10
217.9799552651945
 20
54.0892509474254
 30
0.0
 40
2.0
100
AcDbArc
 50
270.0000070884994
 51
0.0
  0
LINE
  5
EA19
330
1A
100
AcDbEntity
  8
SEIHIN
 48
5.0
100
AcDbLine
 10
247.1162036423907
 20
58.7563843487498
 30
0.0
 11
232.8289409183474
 21
56.0892509474254
 31
0.0
  0
ARC
  5
EA1A
330
1A
100
AcDbEntity
  8
SEIHIN
 48
5.0
100
AcDbCircle
 10
208.4799552651945
 20
78.0892509474254
 30
0.0
 40
1.3
100
AcDbArc
 50
90.0
 51
180.0
  0
LINE
  5
EA1B
330
1A
100
AcDbEntity
  8
SEIHIN
 48
5.0
100
AcDbLine
 10
208.4799552651945
 20
79.38925094742547
 30
0.0
 11
211.1625388368622
 21
79.38925094742547
 31
0.0
  0
ARC
  5
EA1C
330
1A
100
AcDbEntity
  8
SEIHIN
 48
5.0
100
AcDbCircle
 10
208.4799552651945
 20
79.88925094742547
 30
0.0
 40
0.5
100
AcDbArc
 50
270.0
 51
0.0
  0
LINE
  5
EA1D
330
1A
100
AcDbEntity
  8
SEIHIN
 48
5.0
100
AcDbLine
 10
208.9799552651945
 20
82.08925094742539
 30
0.0
 11
208.9799552651013
 21
79.88925094742547
 31
0.0
  0
LINE
  5
EA1E
330
1A
100
AcDbEntity
  8
SEIHIN
 48
5.0
100
AcDbLine
 10
224.6193962825516
 20
78.0892509474254
 30
0.0
 11
238.0727346759322
 21
78.0892509474254
 31
0.0
  0
LINE
  5
EA1F
330
1A
100
AcDbEntity
  8
SEIHIN
 48
5.0
100
AcDbLine
 10
219.9799552651945
 20
77.38925094742547
 30
0.0
 11
224.5028910285472
 21
77.38925094742547
 31
0.0
  0
ARC
  5
EA20
330
1A
100
AcDbEntity
  8
SEIHIN
 48
5.0
100
AcDbCircle
 10
217.9799552651945
 20
80.0892509474254
 30
0.0
 40
2.0
100
AcDbArc
 50
0.0
 51
89.9999999993356
  0
LINE
  5
EA21
330
1A
100
AcDbEntity
  8
SEIHIN
 48
5.0
100
AcDbLine
 10
247.1162036423907
 20
75.42211754610099
 30
0.0
 11
232.8289409183472
 21
78.0892509474254
 31
0.0
  0
LINE
  5
EA22
330
1A
100
AcDbEntity
  8
SEIHIN
 48
5.0
100
AcDbLine
 10
244.7925168097313
 20
81.5892509474254
 30
0.0
 11
244.7925168097313
 21
77.88925094742547
 31
0.0
  0
LINE
  5
EA23
330
1A
100
AcDbEntity
  8
SEIHIN
100
AcDbLine
 10
306.4941783658569
 20
74.1040567180795
 30
0.0
 11
314.5941783658568
 21
74.1040567180795
 31
0.0
  0
LINE
  5
EA24
330
1A
100
AcDbEntity
  8
SEIHIN
100
AcDbLine
 10
314.5941783658568
 20
60.07444517677152
 30
0.0
 11
306.4941783658569
 21
60.07444517677152
 31
0.0
  0
CIRCLE
  5
EA25
330
1A
100
AcDbEntity
  8
SEIHIN
100
AcDbCircle
 10
310.5441783658569
 20
67.08925094742551
 30
0.0
 40
5.0
  0
CIRCLE
  5
EA26
330
1A
100
AcDbEntity
  8
SEIHIN
100
AcDbCircle
 10
310.5441783658569
 20
67.08925094742551
 30
0.0
 40
8.100000000000022
  0
CIRCLE
  5
EA27
330
1A
100
AcDbEntity
  8
SEIHIN
 62
     2
100
AcDbCircle
 10
310.5441783658569
 20
67.08925094742551
 30
0.0
 40
4.0
  0
LINE
  5
EA28
330
1A
100
AcDbEntity
  8
SEIHIN
100
AcDbLine
 10
302.4441783658569
 20
67.08925094742551
 30
0.0
 11
306.4941783658569
 21
74.1040567180795
 31
0.0
  0
LINE
  5
EA29
330
1A
100
AcDbEntity
  8
SEIHIN
 48
5.0
100
AcDbLine
 10
267.1799552652221
 20
59.58925094742529
 30
0.0
 11
267.1799552652219
 21
74.58925094742529
 31
0.0
  0
LINE
  5
EA2A
330
1A
100
AcDbEntity
  8
SEIHIN
 48
5.0
100
AcDbLine
 10
255.6421352219192
 20
58.76637870099108
 30
0.0
 11
255.6421352218712
 21
75.41212319385971
 31
0.0
  0
LINE
  5
EA2B
330
1A
100
AcDbEntity
  8
CENTER L
 48
5.0
100
AcDbLine
 10
310.5441783658569
 20
85.92598137507753
 30
0.0
 11
310.5441783658569
 21
46.80157599163249
 31
0.0
  0
ARC
  5
EA2C
330
1A
100
AcDbEntity
  8
SEIHIN
100
AcDbCircle
 10
281.5799552651944
 20
67.08925082012735
 30
0.0
 40
5.0
100
AcDbArc
 50
90.0
 51
270.0
  0
CIRCLE
  5
EA2D
330
1A
100
AcDbEntity
  8
SEIHIN
 48
5.0
100
AcDbCircle
 10
262.179955265222
 20
67.08925094742539
 30
0.0
 40
3.0
  0
LINE
  5
EA2E
330
1A
100
AcDbEntity
  8
SEIHIN
 48
5.0
100
AcDbLine
 10
255.6421352218693
 20
58.08925094742551
 30
0.0
 11
265.6799552652219
 21
58.08925094742551
 31
0.0
  0
CIRCLE
  5
EA2F
330
1A
100
AcDbEntity
  8
SEIHIN
 48
5.0
100
AcDbCircle
 10
262.179955265222
 20
67.08925094742539
 30
0.0
 40
2.350000000000022
  0
ARC
  5
EA30
330
1A
100
AcDbEntity
  8
SEIHIN
 48
5.0
100
AcDbCircle
 10
265.6799552652222
 20
59.58925094742529
 30
0.0
 40
1.5
100
AcDbArc
 50
270.0
 51
0.0
  0
LINE
  5
EA31
330
1A
100
AcDbEntity
  8
SEIHIN
100
AcDbLine
 10
281.5799550615945
 20
62.08925082012735
 30
0.0
 11
304.1715808791942
 21
62.08925082012735
 31
0.0
  0
LINE
  5
EA32
330
1A
100
AcDbEntity
  8
SEIHIN
100
AcDbLine
 10
306.4941783658569
 20
60.07444517677152
 30
0.0
 11
302.4441783658569
 21
67.08925094742551
 31
0.0
  0
LINE
  5
EA33
330
1A
100
AcDbEntity
  8
SEIHIN
 48
5.0
100
AcDbLine
 10
255.6421352218693
 20
76.08925094742528
 30
0.0
 11
265.6799552652219
 21
76.08925094742528
 31
0.0
  0
LINE
  5
EA34
330
1A
100
AcDbEntity
  8
SEIHIN
 48
5.0
100
AcDbLine
 10
252.2479202910522
 20
81.5892509474254
 30
0.0
 11
252.2479202910522
 21
77.88925094742547
 31
0.0
  0
ARC
  5
EA35
330
1A
100
AcDbEntity
  8
SEIHIN
 48
5.0
100
AcDbCircle
 10
265.6799552652219
 20
74.58925094742529
 30
0.0
 40
1.5
100
AcDbArc
 50
0.0
 51
90.0
  0
LINE
  5
EA36
330
1A
100
AcDbEntity
  8
SEIHIN
100
AcDbLine
 10
281.5799548070944
 20
72.08925082012735
 30
0.0
 11
304.1715806794356
 21
72.08925082012735
 31
0.0
  0
LINE
  5
EA37
330
1A
100
AcDbEntity
  8
SEIHIN
 48
5.0
100
AcDbLine
 10
371.8795401888391
 20
58.49775041067278
 30
0.0
 11
371.8795401886945
 21
75.68075148417801
 31
0.0
  0
LINE
  5
EA38
330
1A
100
AcDbEntity
  8
SEIHIN
 48
5.0
100
AcDbLine
 10
379.1438375452284
 20
59.40532659562183
 30
0.0
 11
379.1438375450693
 21
74.77317529921936
 31
0.0
  0
LINE
  5
EA39
330
1A
100
AcDbEntity
  8
SEIHIN
 48
5.0
100
AcDbLine
 10
359.9799552652452
 20
59.58925094742539
 30
0.0
 11
359.9799552652454
 21
74.58925094742539
 31
0.0
  0
LINE
  5
EA3A
330
1A
100
AcDbEntity
  8
SEIHIN
100
AcDbLine
 10
314.5941783658568
 20
74.1040567180795
 30
0.0
 11
318.6441783658569
 21
67.08925094742551
 31
0.0
  0
ARC
  5
EA3B
330
1A
100
AcDbEntity
  8
SEIHIN
100
AcDbCircle
 10
339.5799552651944
 20
67.08925097921195
 30
0.0
 40
5.0
100
AcDbArc
 50
270.0000030469001
 51
89.99999695309659
  0
LINE
  5
EA3C
330
1A
100
AcDbEntity
  8
SEIHIN
100
AcDbLine
 10
316.9155122365196
 20
62.08764073584905
 30
0.0
 11
339.4776619537178
 21
62.08764073584905
 31
0.0
  0
LINE
  5
EA3D
330
1A
100
AcDbEntity
  8
SEIHIN
100
AcDbLine
 10
318.6441783658569
 20
67.08925094742551
 30
0.0
 11
314.5941783658568
 21
60.07444517677152
 31
0.0
  0
CIRCLE
  5
EA3E
330
1A
100
AcDbEntity
  8
SEIHIN
 48
5.0
100
AcDbCircle
 10
364.9799552652452
 20
67.08925094742539
 30
0.0
 40
2.350000000000022
  0
CIRCLE
  5
EA3F
330
1A
100
AcDbEntity
  8
SEIHIN
 48
5.0
100
AcDbCircle
 10
364.9799552652452
 20
67.08925094742539
 30
0.0
 40
3.0
  0
LINE
  5
EA40
330
1A
100
AcDbEntity
  8
SEIHIN
 48
5.0
100
AcDbLine
 10
361.4799552652452
 20
58.0892509474254
 30
0.0
 11
371.8795401888425
 21
58.0892509474254
 31
0.0
  0
ARC
  5
EA41
330
1A
100
AcDbEntity
  8
SEIHIN
 48
5.0
100
AcDbCircle
 10
361.4799552652452
 20
59.58925094742539
 30
0.0
 40
1.5
100
AcDbArc
 50
179.9999999999983
 51
270.0
  0
LINE
  5
EA42
330
1A
100
AcDbEntity
  8
SEIHIN
 48
5.0
100
AcDbLine
 10
375.6765667730352
 20
52.5892509474254
 30
0.0
 11
375.6765667730352
 21
56.28925094742533
 31
0.0
  0
LINE
  5
EA43
330
1A
100
AcDbEntity
  8
SEIHIN
 48
5.0
100
AcDbLine
 10
372.2848883339842
 20
58.13989374260507
 30
0.0
 11
378.738489400091
 21
58.94618433719478
 31
0.0
  0
LINE
  5
EA44
330
1A
100
AcDbEntity
  8
SEIHIN
100
AcDbLine
 10
316.9167759274589
 20
72.08925097921195
 30
0.0
 11
339.5799555310868
 21
72.08925097921195
 31
0.0
  0
LINE
  5
EA45
330
1A
100
AcDbEntity
  8
SEIHIN
 48
5.0
100
AcDbLine
 10
361.4799552652454
 20
76.0892509474254
 30
0.0
 11
371.8795401886911
 21
76.0892509474254
 31
0.0
  0
ARC
  5
EA46
330
1A
100
AcDbEntity
  8
SEIHIN
 48
5.0
100
AcDbCircle
 10
361.4799552652454
 20
74.58925094742539
 30
0.0
 40
1.5
100
AcDbArc
 50
90.0
 51
180.0
  0
LINE
  5
EA47
330
1A
100
AcDbEntity
  8
SEIHIN
 48
5.0
100
AcDbLine
 10
375.6765667730352
 20
81.5892509474254
 30
0.0
 11
375.6765667730352
 21
77.88925094742547
 31
0.0
  0
LINE
  5
EA48
330
1A
100
AcDbEntity
  8
SEIHIN
 48
5.0
100
AcDbLine
 10
372.2848883338328
 20
76.03860815224511
 30
0.0
 11
378.7384893999232
 21
75.23231755764706
 31
0.0
  0
ARC
  5
EA49
330
1A
100
AcDbEntity
  8
SEIHIN
 48
5.0
100
AcDbCircle
 10
331.0102363711175
 20
67.08925094742539
 30
0.0
 40
64.86971889422495
100
AcDbArc
 50
350.2371436701689
 51
9.762856329831111
  0
LINE
  5
EA4A
330
1A
100
AcDbEntity
  8
SEIHIN
 48
5.0
100
AcDbLine
 10
402.3799552651944
 20
72.08925094742539
 30
0.0
 11
402.379955265241
 21
62.08925094742539
 31
0.0
  0
LINE
  5
EA4B
330
1A
100
AcDbEntity
  8
SEIHIN
 48
5.0
100
AcDbLine
 10
413.9799552651945
 20
56.0892509474254
 30
0.0
 11
413.9799552653343
 21
78.0892509474254
 31
0.0
  0
LINE
  5
EA4C
330
1A
100
AcDbEntity
  8
SEIHIN
 48
5.0
100
AcDbLine
 10
401.1799552651943
 20
72.08925094742539
 30
0.0
 11
401.1799552652875
 21
62.08925094742539
 31
0.0
  0
LINE
  5
EA4D
330
1A
100
AcDbEntity
  8
SEIHIN
 48
5.0
100
AcDbLine
 10
409.9973716935943
 20
54.78925094742544
 30
0.0
 11
412.6799552652878
 21
54.78925094742544
 31
0.0
  0
ARC
  5
EA4E
330
1A
100
AcDbEntity
  8
SEIHIN
 48
5.0
100
AcDbCircle
 10
412.6799552651945
 20
54.28925094742544
 30
0.0
 40
0.5
100
AcDbArc
 50
90.0
 51
180.0
  0
LINE
  5
EA4F
330
1A
100
AcDbEntity
  8
SEIHIN
 48
5.0
100
AcDbLine
 10
395.0570195020114
 20
56.78925094742544
 30
0.0
 11
401.1799552652875
 21
56.78925094742544
 31
0.0
  0
LINE
  5
EA50
330
1A
100
AcDbEntity
  8
SEIHIN
 48
5.0
100
AcDbLine
 10
384.8993608038135
 20
56.0892509474254
 30
0.0
 11
394.9405142480026
 21
56.0892509474254
 31
0.0
  0
LINE
  5
EA51
330
1A
100
AcDbEntity
  8
SEIHIN
 48
5.0
100
AcDbLine
 10
384.3940776967735
 20
52.5892509474254
 30
0.0
 11
384.3940776967735
 21
56.28925094742533
 31
0.0
  0
ARC
  5
EA52
330
1A
100
AcDbEntity
  8
SEIHIN
 48
5.0
100
AcDbCircle
 10
402.3799552652489
 20
60.78925094742544
 30
0.0
 40
1.30000000000001
100
AcDbArc
 50
270.0
 51
90.00000001061744
  0
LINE
  5
EA53
330
1A
100
AcDbEntity
  8
SEIHIN
 48
5.0
100
AcDbLine
 10
403.1799549724944
 20
52.08925094742539
 30
0.0
 11
412.1799552650545
 21
52.08925094742539
 31
0.0
  0
LINE
  5
EA54
330
1A
100
AcDbEntity
  8
SEIHIN
 48
5.0
100
AcDbLine
 10
402.3799552652489
 20
59.48925094742555
 30
0.0
 11
401.6799552650551
 21
59.48925094742555
 31
0.0
  0
LINE
  5
EA55
330
1A
100
AcDbEntity
  8
SEIHIN
 48
5.0
100
AcDbLine
 10
401.1799552651943
 20
58.98925094742555
 30
0.0
 11
401.1799552652875
 21
54.0892509474254
 31
0.0
  0
ARC
  5
EA56
330
1A
100
AcDbEntity
  8
SEIHIN
 48
5.0
100
AcDbCircle
 10
401.6799552651943
 20
58.98925094742555
 30
0.0
 40
0.5
100
AcDbArc
 50
90.00000001594573
 51
180.0
  0
ARC
  5
EA57
330
1A
100
AcDbEntity
  8
SEIHIN
 48
5.0
100
AcDbCircle
 10
403.1799552651943
 20
54.0892509474254
 30
0.0
 40
2.0
100
AcDbArc
 50
180.0
 51
269.9999916183466
  0
LINE
  5
EA58
330
1A
100
AcDbEntity
  8
SEIHIN
 48
5.0
100
AcDbLine
 10
412.1799552651945
 20
52.08925094742539
 30
0.0
 11
412.1799552652878
 21
54.28925094742544
 31
0.0
  0
LINE
  5
EA59
330
1A
100
AcDbEntity
  8
SEIHIN
 48
5.0
100
AcDbLine
 10
404.1799551041944
 20
62.08925094742539
 30
0.0
 11
401.1799552652875
 21
62.08925094742539
 31
0.0
  0
ARC
  5
EA5A
330
1A
100
AcDbEntity
  8
SEIHIN
 48
5.0
100
AcDbCircle
 10
412.6799552651945
 20
56.0892509474254
 30
0.0
 40
1.3
100
AcDbArc
 50
270.0
 51
0.0
  0
ARC
  5
EA5B
330
1A
100
AcDbEntity
  8
SEIHIN
 48
5.0
100
AcDbCircle
 10
412.6799552651945
 20
79.88925094742547
 30
0.0
 40
0.5
100
AcDbArc
 50
180.0
 51
270.0000000106825
  0
LINE
  5
EA5C
330
1A
100
AcDbEntity
  8
SEIHIN
 48
5.0
100
AcDbLine
 10
412.6799552651945
 20
79.38925094742547
 30
0.0
 11
409.997371693643
 21
79.38925094742547
 31
0.0
  0
LINE
  5
EA5D
330
1A
100
AcDbEntity
  8
SEIHIN
 48
5.0
100
AcDbLine
 10
395.0570195020114
 20
77.38925094742547
 30
0.0
 11
401.1799552652875
 21
77.38925094742547
 31
0.0
  0
LINE
  5
EA5E
330
1A
100
AcDbEntity
  8
SEIHIN
 48
5.0
100
AcDbLine
 10
384.8993608037485
 20
78.0892509474254
 30
0.0
 11
394.9405142480026
 21
78.0892509474254
 31
0.0
  0
LINE
  5
EA5F
330
1A
100
AcDbEntity
  8
SEIHIN
 48
5.0
100
AcDbLine
 10
384.3940776967735
 20
81.5892509474254
 30
0.0
 11
384.3940776967735
 21
77.88925094742547
 31
0.0
  0
LINE
  5
EA60
330
1A
100
AcDbEntity
  8
SEIHIN
 48
5.0
100
AcDbLine
 10
403.1799552651943
 20
82.08925094742539
 30
0.0
 11
412.1799552650545
 21
82.08925094742539
 31
0.0
  0
ARC
  5
EA61
330
1A
100
AcDbEntity
  8
SEIHIN
 48
5.0
100
AcDbCircle
 10
403.1799552651943
 20
80.0892509474254
 30
0.0
 40
2.0
100
AcDbArc
 50
90.00001063699619
 51
180.0
  0
LINE
  5
EA62
330
1A
100
AcDbEntity
  8
SEIHIN
 48
5.0
100
AcDbLine
 10
402.3799552652489
 20
74.68925094742542
 30
0.0
 11
401.6799552650551
 21
74.68925094742542
 31
0.0
  0
ARC
  5
EA63
330
1A
100
AcDbEntity
  8
SEIHIN
 48
5.0
100
AcDbCircle
 10
401.6799552651943
 20
75.18925094742542
 30
0.0
 40
0.5
100
AcDbArc
 50
180.0
 51
269.9999999840542
  0
LINE
  5
EA64
330
1A
100
AcDbEntity
  8
SEIHIN
 48
5.0
100
AcDbLine
 10
404.1799550793945
 20
72.08925094742539
 30
0.0
 11
401.1799552652875
 21
72.08925094742539
 31
0.0
  0
ARC
  5
EA65
330
1A
100
AcDbEntity
  8
SEIHIN
 48
5.0
100
AcDbCircle
 10
402.3799552652489
 20
73.38925094742558
 30
0.0
 40
1.30000000000001
100
AcDbArc
 50
270.0
 51
90.00000001061744
  0
LINE
  5
EA66
330
1A
100
AcDbEntity
  8
SEIHIN
 48
5.0
100
AcDbLine
 10
401.1799552651943
 20
75.18925094742542
 30
0.0
 11
401.1799552652875
 21
80.0892509474254
 31
0.0
  0
LINE
  5
EA67
330
1A
100
AcDbEntity
  8
SEIHIN
 48
5.0
100
AcDbLine
 10
412.1799552651945
 20
82.08925094742539
 30
0.0
 11
412.1799552652878
 21
79.88925094742547
 31
0.0
  0
ARC
  5
EA69
330
1A
100
AcDbEntity
  8
SEIHIN
 48
5.0
100
AcDbCircle
 10
412.6799552651945
 20
78.0892509474254
 30
0.0
 40
1.3
100
AcDbArc
 50
0.0
 51
89.99999999588331
  0
VIEWPORT
  5
22
330
17
100
AcDbEntity
 67
     1
  8
0
100
AcDbViewport
 10
313.6808219178082
 20
148.5
 30
0.0
 40
627.3616438356165
 41
297.0
 68
     2
 69
     1
 12
313.6808219178082
 22
148.5
 13
0.0
 23
0.0
 14
1.0
 24
1.0
 15
10.0
 25
10.0
 16
0.0
 26
0.0
 36
1.0
 17
0.0
 27
0.0
 37
0.0
 42
50.0
 43
0.0
 44
0.0
 45
297.0
 50
0.0
 51
0.0
 72
   100
 90
    32768
  1

281
     0
 71
     1
 74
     0
110
0.0
120
0.0
130
0.0
111
1.0
121
0.0
131
0.0
112
0.0
122
1.0
132
0.0
 79
     0
146
0.0
  0
VIEWPORT
  5
64
330
17
100
AcDbEntity
 67
     1
  8
VIEWPORT
100
AcDbViewport
 10
210.0
 20
148.5
 30
0.0
 40
420.0
 41
297.0
 68
     1
 69
     2
 12
420.0
 22
297.0
 13
0.0
 23
0.0
 14
10.0
 24
10.0
 15
0.0
 25
0.0
 16
0.0
 26
0.0
 36
1.0
 17
0.0
 27
0.0
 37
0.0
 42
50.0
 43
0.0
 44
0.0
 45
605.8799999999998
 50
0.0
 51
0.0
 72
   100
 90
    32768
  1

281
     0
 71
     1
 74
     0
110
0.0
120
0.0
130
0.0
111
1.0
121
0.0
131
0.0
112
0.0
122
1.0
132
0.0
 79
     0
146
0.0
  0
ENDSEC
  0
SECTION
  2
OBJECTS
  0
DICTIONARY
  5
C
330
0
100
AcDbDictionary
281
     1
  3
ACAD_GROUP
350
D
  3
ACAD_LAYOUT
350
340
  3
ACAD_MLINESTYLE
350
E
  3
ACAD_PLOTSETTINGS
350
341
  3
ACAD_PLOTSTYLENAME
350
33E
  3
AcDbVariableDictionary
350
11E9
  0
DICTIONARY
  5
385
330
1A
100
AcDbDictionary
280
     1
281
     1
  3
ACAD_LAYOUTSELFREF
360
EB71
  0
DICTIONARY
  5
383
330
17
100
AcDbDictionary
280
     1
281
     1
  3
ACAD_LAYOUTSELFREF
360
EB70
  0
DICTIONARY
  5
D
102
{ACAD_REACTORS
330
C
102
}
330
C
100
AcDbDictionary
281
     1
  0
DICTIONARY
  5
340
102
{ACAD_REACTORS
330
C
102
}
330
C
100
AcDbDictionary
281
     1
  3
Model
350
342
  3
ﾚｲｱｳﾄ1
350
343
  0
DICTIONARY
  5
E
102
{ACAD_REACTORS
330
C
102
}
330
C
100
AcDbDictionary
281
     1
  3
STANDARD
350
13
  0
DICTIONARY
  5
341
102
{ACAD_REACTORS
330
C
102
}
330
C
100
AcDbDictionary
281
     1
  0
ACDBDICTIONARYWDFLT
  5
33E
102
{ACAD_REACTORS
330
C
102
}
330
C
100
AcDbDictionary
281
     1
  3
Normal
350
33F
100
AcDbDictionaryWithDefault
340
33F
1001
ACAD
1000
TREAT_AS_HARD
1070
     0
1000
TREAT_AS_HARD
1070
     0
1000
TREAT_AS_HARD
1070
     0
1000
TREAT_AS_HARD
1070
     0
1000
TREAT_AS_HARD
1070
     0
1000
TREAT_AS_HARD
1070
     0
1000
TREAT_AS_HARD
1070
     0
1000
TREAT_AS_HARD
1070
     0
1000
TREAT_AS_HARD
1070
     0
1000
TREAT_AS_HARD
1070
     0
1000
TREAT_AS_HARD
1070
     0
1000
TREAT_AS_HARD
1070
     0
1000
TREAT_AS_HARD
1070
     0
1000
TREAT_AS_HARD
1070
     0
1000
TREAT_AS_HARD
1070
     0
1000
TREAT_AS_HARD
1070
     0
1000
TREAT_AS_HARD
1070
     0
1000
TREAT_AS_HARD
1070
     0
1000
TREAT_AS_HARD
1070
     0
  0
DICTIONARY
  5
11E9
102
{ACAD_REACTORS
330
C
102
}
330
C
100
AcDbDictionary
281
     1
  3
SORTENTS
350
11EA
  0
XRECORD
  5
EB71
102
{ACAD_REACTORS
330
385
102
}
330
385
100
AcDbXrecord
280
     1
340
1A
  0
XRECORD
  5
EB70
102
{ACAD_REACTORS
330
383
102
}
330
383
100
AcDbXrecord
280
     1
340
17
  0
LAYOUT
  5
342
102
{ACAD_REACTORS
330
340
102
}
330
340
100
AcDbPlotSettings
  1

  2
Acrobat Distiller
  4
A3
  6

 40
3.174999952316284
 41
3.174999952316284
 42
3.17498779296875
 43
3.17498779296875
 44
297.0318298339843
 45
420.1583251953125
 46
0.0
 47
0.0
 48
0.0
 49
0.0
140
0.0
141
0.0
142
1.0
143
2.0
 70
 11952
 72
     1
 73
     1
 74
     2
  7
print.ctb
 75
    17
147
0.5
148
0.0
149
0.0
100
AcDbLayout
  1
Model
 70
     1
 71
     0
 10
0.0
 20
0.0
 11
12.0
 21
9.0
 12
0.0
 22
0.0
 32
0.0
 14
0.0
 24
0.0
 34
0.0
 15
0.0
 25
0.0
 35
0.0
146
0.0
 13
0.0
 23
0.0
 33
0.0
 16
1.0
 26
0.0
 36
0.0
 17
0.0
 27
1.0
 37
0.0
 76
     0
330
1A
  0
LAYOUT
  5
343
102
{ACAD_REACTORS
330
340
102
}
330
340
100
AcDbPlotSettings
  1

  2
Acrobat Distiller
  4

  6

 40
0.0
 41
0.0
 42
0.0
 43
0.0
 44
0.0
 45
0.0
 46
0.0
 47
0.0
 48
0.0
 49
0.0
140
0.0
141
0.0
142
1.0
143
1.0
 70
   688
 72
     0
 73
     0
 74
     5
  7
print.ctb
 75
    16
147
1.0
148
0.0
149
0.0
100
AcDbLayout
  1
ﾚｲｱｳﾄ1
 70
     1
 71
     1
 10
0.0
 20
0.0
 11
420.0
 21
297.0
 12
0.0
 22
0.0
 32
0.0
 14
0.0
 24
0.0
 34
0.0
 15
420.0
 25
297.0
 35
0.0
146
0.0
 13
0.0
 23
0.0
 33
0.0
 16
1.0
 26
0.0
 36
0.0
 17
0.0
 27
1.0
 37
0.0
 76
     0
330
17
331
64
  0
MLINESTYLE
  5
13
102
{ACAD_REACTORS
330
E
102
}
330
E
100
AcDbMlineStyle
  2
STANDARD
 70
     0
  3

 62
     0
 51
90.0
 52
90.0
 71
     2
 49
0.5
 62
   256
  6
BYLAYER
 49
-0.5
 62
   256
  6
BYLAYER
  0
ACDBPLACEHOLDER
  5
33F
102
{ACAD_REACTORS
330
33E
102
}
330
33E
  0
DICTIONARYVAR
  5
11EA
102
{ACAD_REACTORS
330
11E9
102
}
330
11E9
100
DictionaryVariables
280
     0
  1
96
  0
ENDSEC
  0
EOF
