  0
SECTION
  2
HEADER
  9
$ACADVER
  1
AC1012
  9
$DWGCODEPAGE
  3
dos932
  9
$INSBASE
 10
0.0
 20
0.0
 30
0.0
  9
$EXTMIN
 10
9.98474220045
 20
9.983688930337848
 30
-0.0015258207003583
  9
$EXTMAX
 10
408.829651843791
 20
285.81536932587
 30
0.0000000349246037
  9
$LIMMIN
 10
0.0
 20
0.0
  9
$LIMMAX
 10
420.0
 20
297.0
  9
$ORTHOMODE
 70
     1
  9
$REGENMODE
 70
     1
  9
$FILLMODE
 70
     1
  9
$QTEXTMODE
 70
     0
  9
$MIRRTEXT
 70
     1
  9
$DRAGMODE
 70
     2
  9
$LTSCALE
 40
1.0
  9
$OSMODE
 70
    63
  9
$ATTMODE
 70
     1
  9
$TEXTSIZE
 40
2.5
  9
$TRACEWID
 40
1.0
  9
$TEXTSTYLE
  7
ｽﾀｲﾙ1
  9
$CLAYER
  8
0
  9
$CELTYPE
  6
BYLAYER
  9
$CECOLOR
 62
   256
  9
$CELTSCALE
 40
1.0
  9
$DELOBJ
 70
     1
  9
$DISPSILH
 70
     0
  9
$DIMSCALE
 40
1.0
  9
$DIMASZ
 40
3.0
  9
$DIMEXO
 40
2.0
  9
$DIMDLI
 40
7.0
  9
$DIMRND
 40
0.0
  9
$DIMDLE
 40
0.0
  9
$DIMEXE
 40
1.5
  9
$DIMTP
 40
0.0
  9
$DIMTM
 40
0.0
  9
$DIMTXT
 40
3.0
  9
$DIMCEN
 40
3.0
  9
$DIMTSZ
 40
0.0
  9
$DIMTOL
 70
     0
  9
$DIMLIM
 70
     0
  9
$DIMTIH
 70
     0
  9
$DIMTOH
 70
     0
  9
$DIMSE1
 70
     0
  9
$DIMSE2
 70
     0
  9
$DIMTAD
 70
     3
  9
$DIMZIN
 70
     0
  9
$DIMBLK
  1

  9
$DIMASO
 70
     1
  9
$DIMSHO
 70
     1
  9
$DIMPOST
  1

  9
$DIMAPOST
  1

  9
$DIMALT
 70
     0
  9
$DIMALTD
 70
     2
  9
$DIMALTF
 40
25.4
  9
$DIMLFAC
 40
1.0
  9
$DIMTOFL
 70
     1
  9
$DIMTVP
 40
0.0
  9
$DIMTIX
 70
     0
  9
$DIMSOXD
 70
     0
  9
$DIMSAH
 70
     1
  9
$DIMBLK1
  1
OPEN
  9
$DIMBLK2
  1
OPEN
  9
$DIMSTYLE
  2
STANDARD
  9
$DIMCLRD
 70
   256
  9
$DIMCLRE
 70
   256
  9
$DIMCLRT
 70
   256
  9
$DIMTFAC
 40
1.0
  9
$DIMGAP
 40
1.0
  9
$DIMJUST
 70
     0
  9
$DIMSD1
 70
     0
  9
$DIMSD2
 70
     0
  9
$DIMTOLJ
 70
     1
  9
$DIMTZIN
 70
     0
  9
$DIMALTZ
 70
     0
  9
$DIMALTTZ
 70
     0
  9
$DIMFIT
 70
     3
  9
$DIMUPT
 70
     0
  9
$DIMUNIT
 70
     2
  9
$DIMDEC
 70
     0
  9
$DIMTDEC
 70
     0
  9
$DIMALTU
 70
     2
  9
$DIMALTTD
 70
     2
  9
$DIMTXSTY
  7
STANDARD
  9
$DIMAUNIT
 70
     0
  9
$LUNITS
 70
     2
  9
$LUPREC
 70
     4
  9
$SKETCHINC
 40
1.0
  9
$FILLETRAD
 40
2.0
  9
$AUNITS
 70
     0
  9
$AUPREC
 70
     0
  9
$MENU
  1
.
  9
$ELEVATION
 40
0.0
  9
$PELEVATION
 40
0.0
  9
$THICKNESS
 40
0.0
  9
$LIMCHECK
 70
     0
  9
$BLIPMODE
 70
     0
  9
$CHAMFERA
 40
10.0
  9
$CHAMFERB
 40
10.0
  9
$CHAMFERC
 40
20.0
  9
$CHAMFERD
 40
0.0
  9
$SKPOLY
 70
     0
  9
$TDCREATE
 40
2451084.984058796
  9
$TDUPDATE
 40
2453703.405151366
  9
$TDINDWG
 40
0.1435222917
  9
$TDUSRTIMER
 40
0.1435222917
  9
$USRTIMER
 70
     1
  9
$ANGBASE
 50
0.0
  9
$ANGDIR
 70
     0
  9
$PDMODE
 70
     0
  9
$PDSIZE
 40
0.0
  9
$PLINEWID
 40
0.0
  9
$COORDS
 70
     1
  9
$SPLFRAME
 70
     0
  9
$SPLINETYPE
 70
     6
  9
$SPLINESEGS
 70
     8
  9
$ATTDIA
 70
     0
  9
$ATTREQ
 70
     1
  9
$HANDLING
 70
 10241
  9
$HANDSEED
  5
1E79
  9
$SURFTAB1
 70
     6
  9
$SURFTAB2
 70
     6
  9
$SURFTYPE
 70
     6
  9
$SURFU
 70
     6
  9
$SURFV
 70
     6
  9
$UCSNAME
  2

  9
$UCSORG
 10
0.0
 20
0.0
 30
0.0
  9
$UCSXDIR
 10
1.0
 20
0.0
 30
0.0
  9
$UCSYDIR
 10
0.0
 20
1.0
 30
0.0
  9
$PUCSNAME
  2

  9
$PUCSORG
 10
0.0
 20
0.0
 30
0.0
  9
$PUCSXDIR
 10
1.0
 20
0.0
 30
0.0
  9
$PUCSYDIR
 10
0.0
 20
1.0
 30
0.0
  9
$USERI1
 70
     0
  9
$USERI2
 70
     0
  9
$USERI3
 70
     0
  9
$USERI4
 70
     0
  9
$USERI5
 70
     0
  9
$USERR1
 40
0.0
  9
$USERR2
 40
0.0
  9
$USERR3
 40
0.0
  9
$USERR4
 40
0.0
  9
$USERR5
 40
0.0
  9
$WORLDVIEW
 70
     1
  9
$SHADEDGE
 70
     3
  9
$SHADEDIF
 70
    70
  9
$TILEMODE
 70
     1
  9
$MAXACTVP
 70
    16
  9
$PINSBASE
 10
0.0
 20
0.0
 30
0.0
  9
$PLIMCHECK
 70
     0
  9
$PEXTMIN
 10
0.0
 20
0.0
 30
0.0
  9
$PEXTMAX
 10
420.0
 20
297.0
 30
0.0
  9
$PLIMMIN
 10
0.0
 20
0.0
  9
$PLIMMAX
 10
420.0
 20
297.0
  9
$UNITMODE
 70
     0
  9
$VISRETAIN
 70
     0
  9
$PLINEGEN
 70
     0
  9
$PSLTSCALE
 70
     1
  9
$TREEDEPTH
 70
  3020
  9
$PICKSTYLE
 70
     1
  9
$CMLSTYLE
  2
STANDARD
  9
$CMLJUST
 70
     0
  9
$CMLSCALE
 40
1.0
  9
$SAVEIMAGES
 70
     1
  0
ENDSEC
  0
SECTION
  2
CLASSES
  0
CLASS
  1
ACDBDICTIONARYWDFLT
  2
AcDbDictionaryWithDefault
  3
AutoCAD 2000
 90
    32768
280
     0
281
     0
  0
CLASS
  1
ACDBPLACEHOLDER
  2
AcDbPlaceHolder
  3
AutoCAD 2000
 90
    32768
280
     0
281
     0
  0
CLASS
  1
LAYOUT
  2
AcDbLayout
  3
AutoCAD 2000
 90
    32768
280
     0
281
     0
  0
CLASS
  1
LONG_TRANSACTION
  2
AcDbLongTransaction
  3
AutoCAD 2000
 90
    32768
280
     0
281
     0
  0
CLASS
  1
LWPOLYLINE
  2
AcDbPolyline
  3
AutoCAD 2000
 90
    32768
280
     0
281
     1
  0
CLASS
  1
HATCH
  2
AcDbHatch
  3
AutoCAD 2000
 90
    32768
280
     0
281
     1
  0
CLASS
  1
XRECORD
  2
AcDbXrecord
  3
AutoCAD 2000
 90
    32768
280
     0
281
     0
  0
CLASS
  1
LONG_TRANSACTION
  2
AcDbLongTransaction
  3
AutoCAD 2000
 90
    32768
280
     0
281
     0
  0
CLASS
  1
LWPOLYLINE
  2
AcDbPolyline
  3
AutoCAD 2000
 90
    32768
280
     0
281
     1
  0
CLASS
  1
HATCH
  2
AcDbHatch
  3
AutoCAD 2000
 90
    32768
280
     0
281
     1
  0
CLASS
  1
XRECORD
  2
AcDbXrecord
  3
AutoCAD 2000
 90
    32768
280
     0
281
     0
  0
CLASS
  1
LONG_TRANSACTION
  2
AcDbLongTransaction
  3
AutoCAD 2000
 90
    32768
280
     0
281
     0
  0
CLASS
  1
LWPOLYLINE
  2
AcDbPolyline
  3
AutoCAD 2000
 90
    32768
280
     0
281
     1
  0
CLASS
  1
HATCH
  2
AcDbHatch
  3
AutoCAD 2000
 90
    32768
280
     0
281
     1
  0
CLASS
  1
XRECORD
  2
AcDbXrecord
  3
AutoCAD 2000
 90
    32768
280
     0
281
     0
  0
CLASS
  1
LONG_TRANSACTION
  2
AcDbLongTransaction
  3
AutoCAD 2000
 90
    32768
280
     0
281
     0
  0
CLASS
  1
LWPOLYLINE
  2
AcDbPolyline
  3
AutoCAD 2000
 90
    32768
280
     0
281
     1
  0
CLASS
  1
HATCH
  2
AcDbHatch
  3
AutoCAD 2000
 90
    32768
280
     0
281
     1
  0
CLASS
  1
XRECORD
  2
AcDbXrecord
  3
AutoCAD 2000
 90
    32768
280
     0
281
     0
  0
CLASS
  1
LONG_TRANSACTION
  2
AcDbLongTransaction
  3
AutoCAD 2000
 90
    32768
280
     0
281
     0
  0
CLASS
  1
LWPOLYLINE
  2
AcDbPolyline
  3
AutoCAD 2000
 90
    32768
280
     0
281
     1
  0
CLASS
  1
HATCH
  2
AcDbHatch
  3
AutoCAD 2000
 90
    32768
280
     0
281
     1
  0
CLASS
  1
XRECORD
  2
AcDbXrecord
  3
AutoCAD 2000
 90
    32768
280
     0
281
     0
  0
CLASS
  1
LONG_TRANSACTION
  2
AcDbLongTransaction
  3
AutoCAD 2000
 90
    32768
280
     0
281
     0
  0
CLASS
  1
LWPOLYLINE
  2
AcDbPolyline
  3
AutoCAD 2000
 90
    32768
280
     0
281
     1
  0
CLASS
  1
HATCH
  2
AcDbHatch
  3
AutoCAD 2000
 90
    32768
280
     0
281
     1
  0
CLASS
  1
XRECORD
  2
AcDbXrecord
  3
AutoCAD 2000
 90
    32768
280
     0
281
     0
  0
CLASS
  1
LONG_TRANSACTION
  2
AcDbLongTransaction
  3
AutoCAD 2000
 90
    32768
280
     0
281
     0
  0
CLASS
  1
LWPOLYLINE
  2
AcDbPolyline
  3
AutoCAD 2000
 90
    32768
280
     0
281
     1
  0
CLASS
  1
HATCH
  2
AcDbHatch
  3
AutoCAD 2000
 90
    32768
280
     0
281
     1
  0
CLASS
  1
XRECORD
  2
AcDbXrecord
  3
AutoCAD 2000
 90
    32768
280
     0
281
     0
  0
CLASS
  1
LONG_TRANSACTION
  2
AcDbLongTransaction
  3
AutoCAD 2000
 90
    32768
280
     0
281
     0
  0
CLASS
  1
LWPOLYLINE
  2
AcDbPolyline
  3
AutoCAD 2000
 90
    32768
280
     0
281
     1
  0
CLASS
  1
HATCH
  2
AcDbHatch
  3
AutoCAD 2000
 90
    32768
280
     0
281
     1
  0
CLASS
  1
XRECORD
  2
AcDbXrecord
  3
AutoCAD 2000
 90
    32768
280
     0
281
     0
  0
CLASS
  1
LONG_TRANSACTION
  2
AcDbLongTransaction
  3
AutoCAD 2000
 90
    32768
280
     0
281
     0
  0
CLASS
  1
LWPOLYLINE
  2
AcDbPolyline
  3
AutoCAD 2000
 90
    32768
280
     0
281
     1
  0
CLASS
  1
HATCH
  2
AcDbHatch
  3
AutoCAD 2000
 90
    32768
280
     0
281
     1
  0
CLASS
  1
XRECORD
  2
AcDbXrecord
  3
AutoCAD 2000
 90
    32768
280
     0
281
     0
  0
CLASS
  1
LONG_TRANSACTION
  2
AcDbLongTransaction
  3
AutoCAD 2000
 90
    32768
280
     0
281
     0
  0
CLASS
  1
LWPOLYLINE
  2
AcDbPolyline
  3
AutoCAD 2000
 90
    32768
280
     0
281
     1
  0
CLASS
  1
HATCH
  2
AcDbHatch
  3
AutoCAD 2000
 90
    32768
280
     0
281
     1
  0
CLASS
  1
XRECORD
  2
AcDbXrecord
  3
AutoCAD 2000
 90
    32768
280
     0
281
     0
  0
CLASS
  1
LONG_TRANSACTION
  2
AcDbLongTransaction
  3
AutoCAD 2000
 90
    32768
280
     0
281
     0
  0
CLASS
  1
LWPOLYLINE
  2
AcDbPolyline
  3
AutoCAD 2000
 90
    32768
280
     0
281
     1
  0
CLASS
  1
HATCH
  2
AcDbHatch
  3
AutoCAD 2000
 90
    32768
280
     0
281
     1
  0
CLASS
  1
XRECORD
  2
AcDbXrecord
  3
AutoCAD 2000
 90
    32768
280
     0
281
     0
  0
CLASS
  1
LONG_TRANSACTION
  2
AcDbLongTransaction
  3
AutoCAD 2000
 90
    32768
280
     0
281
     0
  0
CLASS
  1
LWPOLYLINE
  2
AcDbPolyline
  3
AutoCAD 2000
 90
    32768
280
     0
281
     1
  0
CLASS
  1
HATCH
  2
AcDbHatch
  3
AutoCAD 2000
 90
    32768
280
     0
281
     1
  0
CLASS
  1
XRECORD
  2
AcDbXrecord
  3
AutoCAD 2000
 90
    32768
280
     0
281
     0
  0
CLASS
  1
DICTIONARYVAR
  2
AcDbDictionaryVar
  3
AutoCAD 2000
 90
    32768
280
     0
281
     0
  0
CLASS
  1
LONG_TRANSACTION
  2
AcDbLongTransaction
  3
AutoCAD 2000
 90
    32768
280
     0
281
     0
  0
CLASS
  1
LWPOLYLINE
  2
AcDbPolyline
  3
AutoCAD 2000
 90
    32768
280
     0
281
     1
  0
CLASS
  1
HATCH
  2
AcDbHatch
  3
AutoCAD 2000
 90
    32768
280
     0
281
     1
  0
CLASS
  1
XRECORD
  2
AcDbXrecord
  3
AutoCAD 2000
 90
    32768
280
     0
281
     0
  0
CLASS
  1
LONG_TRANSACTION
  2
AcDbLongTransaction
  3
AutoCAD 2000
 90
    32768
280
     0
281
     0
  0
CLASS
  1
LWPOLYLINE
  2
AcDbPolyline
  3
AutoCAD 2000
 90
    32768
280
     0
281
     1
  0
CLASS
  1
HATCH
  2
AcDbHatch
  3
AutoCAD 2000
 90
    32768
280
     0
281
     1
  0
CLASS
  1
XRECORD
  2
AcDbXrecord
  3
AutoCAD 2000
 90
    32768
280
     0
281
     0
  0
CLASS
  1
LONG_TRANSACTION
  2
AcDbLongTransaction
  3
AutoCAD 2000
 90
    32768
280
     0
281
     0
  0
CLASS
  1
LWPOLYLINE
  2
AcDbPolyline
  3
AutoCAD 2000
 90
    32768
280
     0
281
     1
  0
CLASS
  1
HATCH
  2
AcDbHatch
  3
AutoCAD 2000
 90
    32768
280
     0
281
     1
  0
CLASS
  1
XRECORD
  2
AcDbXrecord
  3
AutoCAD 2000
 90
    32768
280
     0
281
     0
  0
CLASS
  1
LONG_TRANSACTION
  2
AcDbLongTransaction
  3
AutoCAD 2000
 90
    32768
280
     0
281
     0
  0
CLASS
  1
LWPOLYLINE
  2
AcDbPolyline
  3
AutoCAD 2000
 90
    32768
280
     0
281
     1
  0
CLASS
  1
HATCH
  2
AcDbHatch
  3
AutoCAD 2000
 90
    32768
280
     0
281
     1
  0
CLASS
  1
XRECORD
  2
AcDbXrecord
  3
AutoCAD 2000
 90
    32768
280
     0
281
     0
  0
CLASS
  1
LONG_TRANSACTION
  2
AcDbLongTransaction
  3
AutoCAD 2000
 90
    32768
280
     0
281
     0
  0
CLASS
  1
LWPOLYLINE
  2
AcDbPolyline
  3
AutoCAD 2000
 90
    32768
280
     0
281
     1
  0
CLASS
  1
HATCH
  2
AcDbHatch
  3
AutoCAD 2000
 90
    32768
280
     0
281
     1
  0
CLASS
  1
XRECORD
  2
AcDbXrecord
  3
AutoCAD 2000
 90
    32768
280
     0
281
     0
  0
ENDSEC
  0
SECTION
  2
TABLES
  0
TABLE
  2
VPORT
  5
8
330
0
100
AcDbSymbolTable
 70
     3
  0
VPORT
  5
1E48
330
8
100
AcDbSymbolTableRecord
100
AcDbViewportTableRecord
  2
*ACTIVE
 70
     0
 10
0.0
 20
0.0
 11
1.0
 21
1.0
 12
198.7463383664683
 22
137.2564547295958
 13
0.0
 23
0.0
 14
5.0
 24
5.0
 15
0.0
 25
0.0
 16
0.0
 26
0.0
 36
1.0
 17
0.0
 27
0.0
 37
0.0
 40
323.1107626452408
 41
1.795454545454545
 42
50.0
 43
0.0
 44
0.0
 50
0.0
 51
0.0
 71
     0
 72
   100
 73
     1
 74
     0
 75
     0
 76
     0
 77
     0
 78
     0
  0
ENDTAB
  0
TABLE
  2
LTYPE
  5
5
330
0
100
AcDbSymbolTable
 70
     2
  0
LTYPE
  5
14
330
5
100
AcDbSymbolTableRecord
100
AcDbLinetypeTableRecord
  2
BYBLOCK
 70
     0
  3

 72
    65
 73
     0
 40
0.0
  0
LTYPE
  5
15
330
5
100
AcDbSymbolTableRecord
100
AcDbLinetypeTableRecord
  2
BYLAYER
 70
     0
  3

 72
    65
 73
     0
 40
0.0
  0
LTYPE
  5
16
330
5
100
AcDbSymbolTableRecord
100
AcDbLinetypeTableRecord
  2
CONTINUOUS
 70
     0
  3
Solid line
 72
    65
 73
     0
 40
0.0
  0
LTYPE
  5
120
330
5
100
AcDbSymbolTableRecord
100
AcDbLinetypeTableRecord
  2
CENTER
 70
     0
  3
____ _ ____ _ ____ _ ____ _ ____ _ ____ _ ____ 
 72
    65
 73
     4
 40
2.0
 49
1.25
 74
     0
 49
-0.25
 74
     0
 49
0.25
 74
     0
 49
-0.25
 74
     0
  0
ENDTAB
  0
TABLE
  2
LAYER
  5
2
330
0
100
AcDbSymbolTable
 70
     8
  0
LAYER
  5
F
330
2
100
AcDbSymbolTableRecord
100
AcDbLayerTableRecord
  2
0
 70
     0
 62
     7
  6
CONTINUOUS
  0
LAYER
  5
62
330
2
100
AcDbSymbolTableRecord
100
AcDbLayerTableRecord
  2
VIEWPORT
 70
     0
 62
     7
  6
CONTINUOUS
  0
LAYER
  5
6B
330
2
100
AcDbSymbolTableRecord
100
AcDbLayerTableRecord
  2
ZUWAKU
 70
     0
 62
     7
  6
CONTINUOUS
  0
LAYER
  5
136
330
2
100
AcDbSymbolTableRecord
100
AcDbLayerTableRecord
  2
SEIHIN
 70
     0
 62
     3
  6
CONTINUOUS
  0
LAYER
  5
163
330
2
100
AcDbSymbolTableRecord
100
AcDbLayerTableRecord
  2
DEFPOINTS
 70
     0
 62
     7
  6
CONTINUOUS
  0
LAYER
  5
90A
330
2
100
AcDbSymbolTableRecord
100
AcDbLayerTableRecord
  2
MOJI
 70
     0
 62
     2
  6
CONTINUOUS
  0
LAYER
  5
AFB
330
2
100
AcDbSymbolTableRecord
100
AcDbLayerTableRecord
  2
SUNPOU
 70
     0
 62
     4
  6
CONTINUOUS
  0
LAYER
  5
1879
330
2
100
AcDbSymbolTableRecord
100
AcDbLayerTableRecord
  2
CENTER_L
 70
     0
 62
     1
  6
CENTER
  0
ENDTAB
  0
TABLE
  2
STYLE
  5
3
330
0
100
AcDbSymbolTable
 70
     2
  0
STYLE
  5
10
330
3
100
AcDbSymbolTableRecord
100
AcDbTextStyleTableRecord
  2
STANDARD
 70
     0
 40
0.0
 41
1.0
 50
0.0
 71
     0
 42
2.5
  3
TXT
  4
bigfont.shx
  0
STYLE
  5
90B
330
3
100
AcDbSymbolTableRecord
100
AcDbTextStyleTableRecord
  2
ｽﾀｲﾙ1
 70
     0
 40
0.0
 41
1.0
 50
0.0
 71
     0
 42
2.5
  3
MS PGothic.ttf
  4

1001
ACAD
1000
MS PGothic
1071
    32818
  0
ENDTAB
  0
TABLE
  2
VIEW
  5
6
330
0
100
AcDbSymbolTable
 70
     0
  0
ENDTAB
  0
TABLE
  2
UCS
  5
7
330
0
100
AcDbSymbolTable
 70
     0
  0
ENDTAB
  0
TABLE
  2
APPID
  5
9
330
0
100
AcDbSymbolTable
 70
     1
  0
APPID
  5
11
330
9
100
AcDbSymbolTableRecord
100
AcDbRegAppTableRecord
  2
ACAD
 70
     0
  0
ENDTAB
  0
TABLE
  2
DIMSTYLE
  5
A
330
0
100
AcDbSymbolTable
 70
     1
  0
DIMSTYLE
105
1D
102
{ACAD_REACTORS
330
10A7
330
10DF
330
10B4
330
10CA
330
1089
330
1722
330
1721
330
174E
330
174D
330
19F0
330
1A09
330
1B36
102
}
330
A
100
AcDbSymbolTableRecord
100
AcDbDimStyleTableRecord
  2
STANDARD
 70
     0
  3

  4

  5

  6

  7

 40
1.0
 41
0.18
 42
0.0625
 43
0.38
 44
0.18
 45
0.0
 46
0.0
 47
0.0
 48
0.0
140
0.18
141
0.09
142
0.0
143
25.4
144
1.0
145
0.0
146
1.0
147
0.09
 71
     0
 72
     0
 73
     1
 74
     1
 75
     0
 76
     0
 77
     0
 78
     0
170
     0
171
     2
172
     0
173
     0
174
     0
175
     0
176
     0
177
     0
178
     0
270
     2
271
     4
272
     4
273
     2
274
     2
340
10
275
     0
280
     0
281
     0
282
     0
283
     1
284
     0
285
     0
286
     0
287
     3
288
     0
  0
ENDTAB
  0
TABLE
  2
BLOCK_RECORD
  5
1
330
0
100
AcDbSymbolTable
 70
    14
  0
BLOCK_RECORD
  5
1A
102
{ACAD_XDICTIONARY
360
40E
102
}
330
1
100
AcDbSymbolTableRecord
100
AcDbBlockTableRecord
  2
*MODEL_SPACE
  0
BLOCK_RECORD
  5
17
102
{ACAD_XDICTIONARY
360
40C
102
}
330
1
100
AcDbSymbolTableRecord
100
AcDbBlockTableRecord
  2
*PAPER_SPACE
  0
BLOCK_RECORD
  5
B2
330
1
100
AcDbSymbolTableRecord
100
AcDbBlockTableRecord
  2
_OPEN
  0
BLOCK_RECORD
  5
108A
330
1
100
AcDbSymbolTableRecord
100
AcDbBlockTableRecord
  2
*D1
  0
BLOCK_RECORD
  5
10A8
330
1
100
AcDbSymbolTableRecord
100
AcDbBlockTableRecord
  2
*D2
  0
BLOCK_RECORD
  5
10B5
330
1
100
AcDbSymbolTableRecord
100
AcDbBlockTableRecord
  2
*D3
  0
BLOCK_RECORD
  5
10CB
330
1
100
AcDbSymbolTableRecord
100
AcDbBlockTableRecord
  2
*D4
  0
BLOCK_RECORD
  5
10E0
330
1
100
AcDbSymbolTableRecord
100
AcDbBlockTableRecord
  2
*D5
  0
BLOCK_RECORD
  5
11A4
330
1
100
AcDbSymbolTableRecord
100
AcDbBlockTableRecord
  2
*X6
  0
BLOCK_RECORD
  5
1723
330
1
100
AcDbSymbolTableRecord
100
AcDbBlockTableRecord
  2
*D7
  0
BLOCK_RECORD
  5
172F
330
1
100
AcDbSymbolTableRecord
100
AcDbBlockTableRecord
  2
*D8
  0
BLOCK_RECORD
  5
174F
330
1
100
AcDbSymbolTableRecord
100
AcDbBlockTableRecord
  2
*D9
  0
BLOCK_RECORD
  5
175B
330
1
100
AcDbSymbolTableRecord
100
AcDbBlockTableRecord
  2
*D10
  0
BLOCK_RECORD
  5
19F1
330
1
100
AcDbSymbolTableRecord
100
AcDbBlockTableRecord
  2
*D11
  0
BLOCK_RECORD
  5
1A0A
330
1
100
AcDbSymbolTableRecord
100
AcDbBlockTableRecord
  2
*D12
  0
BLOCK_RECORD
  5
1B37
330
1
100
AcDbSymbolTableRecord
100
AcDbBlockTableRecord
  2
*D13
  0
ENDTAB
  0
ENDSEC
  0
SECTION
  2
BLOCKS
  0
BLOCK
  5
1B
330
1A
100
AcDbEntity
  8
0
100
AcDbBlockBegin
  2
*MODEL_SPACE
 70
     0
 10
0.0
 20
0.0
 30
0.0
  3
*MODEL_SPACE
  1

  0
ENDBLK
  5
1C
330
1A
100
AcDbEntity
  8
0
100
AcDbBlockEnd
  0
BLOCK
  5
18
330
17
100
AcDbEntity
 67
     1
  8
0
100
AcDbBlockBegin
  2
*PAPER_SPACE
 70
     0
 10
0.0
 20
0.0
 30
0.0
  3
*PAPER_SPACE
  1

  0
ENDBLK
  5
19
330
17
100
AcDbEntity
 67
     1
  8
0
100
AcDbBlockEnd
  0
BLOCK
  5
B3
330
B2
100
AcDbEntity
  8
0
100
AcDbBlockBegin
  2
_OPEN
 70
     0
 10
0.0
 20
0.0
 30
0.0
  3
_OPEN
  1

  0
LINE
  5
B4
330
B2
100
AcDbEntity
  8
0
  6
BYBLOCK
 62
     0
100
AcDbLine
 10
-1.0
 20
0.1666666666666666
 30
0.0
 11
0.0
 21
0.0
 31
0.0
  0
LINE
  5
B5
330
B2
100
AcDbEntity
  8
0
  6
BYBLOCK
 62
     0
100
AcDbLine
 10
0.0
 20
0.0
 30
0.0
 11
-1.0
 21
-0.1666666666666666
 31
0.0
  0
LINE
  5
B6
330
B2
100
AcDbEntity
  8
0
  6
BYBLOCK
 62
     0
100
AcDbLine
 10
0.0
 20
0.0
 30
0.0
 11
-1.0
 21
0.0
 31
0.0
  0
ENDBLK
  5
B7
330
B2
100
AcDbEntity
  8
0
100
AcDbBlockEnd
  0
BLOCK
  5
1096
330
108A
100
AcDbEntity
  8
0
100
AcDbBlockBegin
  2
*D1
 70
     1
 10
0.0
 20
0.0
 30
0.0
  3
*D1
  1

  0
LINE
  5
1E64
330
108A
100
AcDbEntity
  8
SUNPOU
100
AcDbLine
 10
262.4024482389399
 20
171.9629371880504
 30
0.0
 11
236.9141606845123
 21
171.9629371880504
 31
0.0
  0
LINE
  5
1E65
330
108A
100
AcDbEntity
  8
SUNPOU
100
AcDbLine
 10
243.0587755600256
 20
161.9629371880503
 30
0.0
 11
236.9141606845123
 21
161.9629371880503
 31
0.0
  0
LINE
  5
1E66
330
108A
100
AcDbEntity
  8
SUNPOU
100
AcDbLine
 10
238.4141606845123
 20
168.9629371880504
 30
0.0
 11
238.4141606845123
 21
164.9629371880503
 31
0.0
  0
MTEXT
  5
1E67
330
108A
100
AcDbEntity
  8
SUNPOU
100
AcDbMText
 10
235.5965363530015
 20
167.0439251602789
 30
0.0
 40
3.0
 41
0.0
 71
     5
 72
     1
  1
\A1;10
 11
0.0000000000000001
 21
1.0
 31
0.0
  0
INSERT
  5
1E68
330
108A
100
AcDbEntity
  8
SUNPOU
100
AcDbBlockReference
  2
_OPEN
 10
238.4141606845123
 20
171.9629371880504
 30
0.0
 41
3.0
 42
3.0
 43
3.0
 50
90.0
  0
INSERT
  5
1E69
330
108A
100
AcDbEntity
  8
SUNPOU
100
AcDbBlockReference
  2
_OPEN
 10
238.4141606845123
 20
161.9629371880503
 30
0.0
 41
3.0
 42
3.0
 43
3.0
 50
270.0
  0
POINT
  5
1E6A
330
108A
100
AcDbEntity
  8
DEFPOINTS
 62
     0
100
AcDbPoint
 10
264.4024482389399
 20
171.9629371880504
 30
0.0
  0
POINT
  5
1E6B
330
108A
100
AcDbEntity
  8
DEFPOINTS
 62
     0
100
AcDbPoint
 10
245.0587755600256
 20
161.9629371880503
 30
0.0
  0
POINT
  5
1E6C
330
108A
100
AcDbEntity
  8
DEFPOINTS
 62
     0
100
AcDbPoint
 10
238.4141606845123
 20
161.9629371880503
 30
0.0
  0
ENDBLK
  5
1097
330
108A
100
AcDbEntity
  8
0
100
AcDbBlockEnd
  0
BLOCK
  5
10B2
330
10A8
100
AcDbEntity
  8
0
100
AcDbBlockBegin
  2
*D2
 70
     1
 10
0.0
 20
0.0
 30
0.0
  3
*D2
  1

  0
LINE
  5
1E36
330
10A8
100
AcDbEntity
  8
SUNPOU
100
AcDbLine
 10
243.0587755600256
 20
161.9629371880503
 30
0.0
 11
236.9141606845123
 21
161.9629371880503
 31
0.0
  0
LINE
  5
1E37
330
10A8
100
AcDbEntity
  8
SUNPOU
100
AcDbLine
 10
243.4373669170311
 20
141.9629371880503
 30
0.0
 11
236.9141606845123
 21
141.9629371880503
 31
0.0
  0
LINE
  5
1E38
330
10A8
100
AcDbEntity
  8
SUNPOU
100
AcDbLine
 10
238.4141606845123
 20
158.9629371880503
 30
0.0
 11
238.4141606845123
 21
144.9629371880503
 31
0.0
  0
INSERT
  5
1E39
330
10A8
100
AcDbEntity
  8
SUNPOU
100
AcDbBlockReference
  2
_OPEN
 10
238.4141606845123
 20
161.9629371880503
 30
0.0
 41
3.0
 42
3.0
 43
3.0
 50
90.0
  0
INSERT
  5
1E3A
330
10A8
100
AcDbEntity
  8
SUNPOU
100
AcDbBlockReference
  2
_OPEN
 10
238.4141606845123
 20
141.9629371880503
 30
0.0
 41
3.0
 42
3.0
 43
3.0
 50
270.0
  0
MTEXT
  5
1E3B
330
10A8
100
AcDbEntity
  8
SUNPOU
100
AcDbMText
 10
235.9141606845123
 20
151.9629371880504
 30
0.0
 40
3.0
 41
0.0
 71
     5
 72
     1
  1
\A1;20
 11
0.0000000000000001
 21
1.0
 31
0.0
1001
ACAD
1000
MTEXTBEGIN
1070
    73
1070
     1
1070
    44
1040
1.0
1070
    74
1070
     0
1000
MTEXTEND
  0
POINT
  5
1E3C
330
10A8
100
AcDbEntity
  8
DEFPOINTS
 62
     0
100
AcDbPoint
 10
245.0587755600256
 20
161.9629371880503
 30
0.0
  0
POINT
  5
1E3D
330
10A8
100
AcDbEntity
  8
DEFPOINTS
 62
     0
100
AcDbPoint
 10
245.4373669170311
 20
141.9629371880503
 30
0.0
  0
POINT
  5
1E3E
330
10A8
100
AcDbEntity
  8
DEFPOINTS
 62
     0
100
AcDbPoint
 10
238.4141606845123
 20
141.9629371880503
 30
0.0
  0
ENDBLK
  5
10B3
330
10A8
100
AcDbEntity
  8
0
100
AcDbBlockEnd
  0
BLOCK
  5
10BB
330
10B5
100
AcDbEntity
  8
0
100
AcDbBlockBegin
  2
*D3
 70
     1
 10
0.0
 20
0.0
 30
0.0
  3
*D3
  1

  0
LINE
  5
1E6D
330
10B5
100
AcDbEntity
  8
SUNPOU
100
AcDbLine
 10
112.4060341768328
 20
75.78836974335747
 30
0.0
 11
155.3363803092778
 21
118.4174136095815
 31
0.0
  0
MTEXT
  5
1E6E
330
10B5
100
AcDbEntity
  8
SUNPOU
100
AcDbMText
 10
143.074741518183
 20
110.2526803738828
 30
0.0
 40
3.0
 41
0.0
 71
     5
 72
     1
  1
\A1;\U+220567
 11
0.7095924980569429
 21
0.7046122953094898
 31
0.0
  0
INSERT
  5
1E6F
330
10B5
100
AcDbEntity
  8
SUNPOU
100
AcDbBlockReference
  2
_OPEN
 10
110.2772566826619
 20
73.67453285742898
 30
0.0
 41
3.0
 42
3.0
 43
3.0
 50
224.7982304823589
  0
INSERT
  5
1E70
330
10B5
100
AcDbEntity
  8
SUNPOU
100
AcDbBlockReference
  2
_OPEN
 10
157.4651578034486
 20
120.53125049551
 30
0.0
 41
3.0
 42
3.0
 43
3.0
 50
44.79823048235891
  0
POINT
  5
1E71
330
10B5
100
AcDbEntity
  8
DEFPOINTS
 62
     0
100
AcDbPoint
 10
157.4651578034486
 20
120.53125049551
 30
0.0
  0
POINT
  5
1E72
330
10B5
100
AcDbEntity
  8
DEFPOINTS
 62
     0
100
AcDbPoint
 10
110.2772566826619
 20
73.67453285742898
 30
0.0
  0
ENDBLK
  5
10BC
330
10B5
100
AcDbEntity
  8
0
100
AcDbBlockEnd
  0
BLOCK
  5
10D1
330
10CB
100
AcDbEntity
  8
0
100
AcDbBlockBegin
  2
*D4
 70
     1
 10
0.0
 20
0.0
 30
0.0
  3
*D4
  1

  0
LINE
  5
1E73
330
10CB
100
AcDbEntity
  8
SUNPOU
100
AcDbLine
 10
108.9214796172101
 20
86.14508206888194
 30
0.0
 11
158.8209348689004
 21
108.060701284057
 31
0.0
  0
MTEXT
  5
1E74
330
10CB
100
AcDbEntity
  8
SUNPOU
100
AcDbMText
 10
152.6160710197857
 20
108.4075182813638
 30
0.0
 40
3.0
 41
0.0
 71
     5
 72
     1
  1
\A1;(\U+220560.5)
 11
0.9155863348934005
 21
0.4021214534894522
 31
0.0
  0
INSERT
  5
1E75
330
10CB
100
AcDbEntity
  8
SUNPOU
100
AcDbBlockReference
  2
_OPEN
 10
106.1747206125299
 20
84.93871770841357
 30
0.0
 41
3.0
 42
3.0
 43
3.0
 50
203.7108679375862
  0
INSERT
  5
1E76
330
10CB
100
AcDbEntity
  8
SUNPOU
100
AcDbBlockReference
  2
_OPEN
 10
161.5676938735806
 20
109.2670656445254
 30
0.0
 41
3.0
 42
3.0
 43
3.0
 50
23.71086793758624
  0
POINT
  5
1E77
330
10CB
100
AcDbEntity
  8
DEFPOINTS
 62
     0
100
AcDbPoint
 10
161.5676938735806
 20
109.2670656445254
 30
0.0
  0
POINT
  5
1E78
330
10CB
100
AcDbEntity
  8
DEFPOINTS
 62
     0
100
AcDbPoint
 10
106.1747206125299
 20
84.93871770841357
 30
0.0
  0
ENDBLK
  5
10D2
330
10CB
100
AcDbEntity
  8
0
100
AcDbBlockEnd
  0
BLOCK
  5
10EA
330
10E0
100
AcDbEntity
  8
0
100
AcDbBlockBegin
  2
*D5
 70
     1
 10
0.0
 20
0.0
 30
0.0
  3
*D5
  1

  0
LINE
  5
1E10
330
10E0
100
AcDbEntity
  8
SUNPOU
100
AcDbLine
 10
100.6212072430553
 20
234.4440169748243
 30
0.0
 11
100.6212072430553
 21
206.489216458103
 31
0.0
  0
LINE
  5
1E11
330
10E0
100
AcDbEntity
  8
SUNPOU
100
AcDbLine
 10
167.1212072430553
 20
234.4440169748243
 30
0.0
 11
167.1212072430553
 21
206.489216458103
 31
0.0
  0
LINE
  5
1E12
330
10E0
100
AcDbEntity
  8
SUNPOU
100
AcDbLine
 10
103.6212072430553
 20
207.9892164581029
 30
0.0
 11
164.1212072430553
 21
207.9892164581029
 31
0.0
  0
INSERT
  5
1E13
330
10E0
100
AcDbEntity
  8
SUNPOU
100
AcDbBlockReference
  2
_OPEN
 10
100.6212072430553
 20
207.9892164581029
 30
0.0
 41
3.0
 42
3.0
 43
3.0
 50
180.0
  0
INSERT
  5
1E14
330
10E0
100
AcDbEntity
  8
SUNPOU
100
AcDbBlockReference
  2
_OPEN
 10
167.1212072430553
 20
207.9892164581029
 30
0.0
 41
3.0
 42
3.0
 43
3.0
  0
MTEXT
  5
1E15
330
10E0
100
AcDbEntity
  8
SUNPOU
100
AcDbMText
 10
133.8712072430553
 20
210.489216458103
 30
0.0
 40
3.0
 41
0.0
 71
     5
 72
     1
  1
\A1;φ67
1001
ACAD
1000
MTEXTBEGIN
1070
    73
1070
     1
1070
    44
1040
1.0
1070
    74
1070
     0
1000
MTEXTEND
  0
POINT
  5
1E16
330
10E0
100
AcDbEntity
  8
DEFPOINTS
 62
     0
100
AcDbPoint
 10
100.6212072430553
 20
236.4440169748243
 30
0.0
  0
POINT
  5
1E17
330
10E0
100
AcDbEntity
  8
DEFPOINTS
 62
     0
100
AcDbPoint
 10
167.1212072430553
 20
236.4440169748243
 30
0.0
  0
POINT
  5
1E18
330
10E0
100
AcDbEntity
  8
DEFPOINTS
 62
     0
100
AcDbPoint
 10
167.1212072430553
 20
207.9892164581029
 30
0.0
  0
ENDBLK
  5
10EB
330
10E0
100
AcDbEntity
  8
0
100
AcDbBlockEnd
  0
BLOCK
  5
1338
330
11A4
100
AcDbEntity
  8
0
100
AcDbBlockBegin
  2
*X6
 70
     1
 10
0.0
 20
0.0
 30
0.0
  3
*X6
  1

  0
LINE
  5
11A5
330
11A4
100
AcDbEntity
  8
0
 62
     0
100
AcDbLine
 10
34.52110609094657
 20
11.30208440343128
 30
0.0
 11
34.19819062608914
 21
11.62499986828871
 31
0.0
  0
LINE
  5
11A6
330
11A4
100
AcDbEntity
  8
0
 62
     0
100
AcDbLine
 10
34.5211060909466
 20
10.85307159737777
 30
0.0
 11
33.74917782003567
 21
11.62499986828871
 31
0.0
  0
LINE
  5
11A7
330
11A4
100
AcDbEntity
  8
0
 62
     0
100
AcDbLine
 10
34.52110609094657
 20
10.4040587913243
 30
0.0
 11
33.3105391179391
 21
11.61462576433177
 31
0.0
  0
LINE
  5
11A8
330
11A4
100
AcDbEntity
  8
0
 62
     0
100
AcDbLine
 10
34.5211060909466
 20
9.955045985270885
 30
0.0
 11
33.12110609094657
 21
11.35504598527089
 31
0.0
  0
LINE
  5
11A9
330
11A4
100
AcDbEntity
  8
0
 62
     0
100
AcDbLine
 10
34.5211060909466
 20
9.506033179217411
 30
0.0
 11
33.12110609094657
 21
10.90603317921744
 31
0.0
  0
LINE
  5
11AA
330
11A4
100
AcDbEntity
  8
0
 62
     0
100
AcDbLine
 10
34.52110609094657
 20
9.057020373163936
 30
0.0
 11
33.12110609094654
 21
10.45702037316397
 31
0.0
  0
LINE
  5
11AB
330
11A4
100
AcDbEntity
  8
0
 62
     0
100
AcDbLine
 10
32.07110609094661
 20
11.0580075671105
 30
0.0
 11
31.50411378976838
 21
11.62499986828873
 31
0.0
  0
LINE
  5
11AC
330
11A4
100
AcDbEntity
  8
0
 62
     0
100
AcDbLine
 10
34.5211060909466
 20
8.608007567110519
 30
0.0
 11
33.12110609094657
 21
10.00800756711055
 31
0.0
  0
LINE
  5
11AD
330
11A4
100
AcDbEntity
  8
0
 62
     0
100
AcDbLine
 10
32.07110609094658
 20
10.60899476105703
 30
0.0
 11
31.05510098371493
 21
11.62499986828868
 31
0.0
  0
LINE
  5
11AE
330
11A4
100
AcDbEntity
  8
0
 62
     0
100
AcDbLine
 10
34.52110609094657
 20
8.158994761057044
 30
0.0
 11
33.12110609094657
 21
9.558994761057078
 31
0.0
  0
LINE
  5
11AF
330
11A4
100
AcDbEntity
  8
0
 62
     0
100
AcDbLine
 10
32.07110609094658
 20
10.15998195500358
 30
0.0
 11
30.71835060837802
 21
11.51273743757215
 31
0.0
  0
LINE
  5
11B0
330
11A4
100
AcDbEntity
  8
0
 62
     0
100
AcDbLine
 10
34.5211060909466
 20
7.709981955003541
 30
0.0
 11
33.12110609094654
 21
9.109981955003604
 31
0.0
  0
LINE
  5
11B1
330
11A4
100
AcDbEntity
  8
0
 62
     0
100
AcDbLine
 10
32.07110609094661
 20
9.710969148950113
 30
0.0
 11
30.67110609094658
 21
11.11096914895014
 31
0.0
  0
LINE
  5
11B2
330
11A4
100
AcDbEntity
  8
0
 62
     0
100
AcDbLine
 10
34.52110609094663
 20
7.260969148950096
 30
0.0
 11
33.12110609094657
 21
8.660969148950158
 31
0.0
  0
LINE
  5
11B3
330
11A4
100
AcDbEntity
  8
0
 62
     0
100
AcDbLine
 10
32.07110609094658
 20
9.261956342896667
 30
0.0
 11
30.67110609094655
 21
10.6619563428967
 31
0.0
  0
LINE
  5
11B4
330
11A4
100
AcDbEntity
  8
0
 62
     0
100
AcDbLine
 10
34.52110609094663
 20
6.81195634289665
 30
0.0
 11
33.12110609094659
 21
8.211956342896684
 31
0.0
  0
LINE
  5
11B5
330
11A4
100
AcDbEntity
  8
0
 62
     0
100
AcDbLine
 10
32.07110609094658
 20
8.812943536843221
 30
0.0
 11
30.67110609094658
 21
10.21294353684319
 31
0.0
  0
LINE
  5
11B6
330
11A4
100
AcDbEntity
  8
0
 62
     0
100
AcDbLine
 10
34.5211060909466
 20
6.362943536843175
 30
0.0
 11
33.12110609094657
 21
7.762943536843209
 31
0.0
  0
LINE
  5
11B7
330
11A4
100
AcDbEntity
  8
0
 62
     0
100
AcDbLine
 10
32.07110609094661
 20
8.363930730789718
 30
0.0
 11
30.67110609094658
 21
9.763930730789752
 31
0.0
  0
LINE
  5
11B8
330
11A4
100
AcDbEntity
  8
0
 62
     0
100
AcDbLine
 10
34.5211060909466
 20
5.913930730789729
 30
0.0
 11
33.12110609094657
 21
7.313930730789763
 31
0.0
  0
LINE
  5
11B9
330
11A4
100
AcDbEntity
  8
0
 62
     0
100
AcDbLine
 10
32.07110609094661
 20
7.914917924736272
 30
0.0
 11
30.6711060909466
 21
9.314917924736306
 31
0.0
  0
LINE
  5
11BA
330
11A4
100
AcDbEntity
  8
0
 62
     0
100
AcDbLine
 10
28.92110609094663
 20
11.06491792473627
 30
0.0
 11
28.36102414739417
 21
11.62499986828871
 31
0.0
  0
LINE
  5
11BB
330
11A4
100
AcDbEntity
  8
0
 62
     0
100
AcDbLine
 10
34.5211060909466
 20
5.464917924736283
 30
0.0
 11
33.12110609094659
 21
6.864917924736317
 31
0.0
  0
LINE
  5
11BC
330
11A4
100
AcDbEntity
  8
0
 62
     0
100
AcDbLine
 10
32.07110609094661
 20
7.465905118682826
 30
0.0
 11
30.67110609094658
 21
8.865905118682832
 31
0.0
  0
LINE
  5
11BD
330
11A4
100
AcDbEntity
  8
0
 62
     0
100
AcDbLine
 10
28.92110609094661
 20
10.61590511868283
 30
0.0
 11
27.91201134134073
 21
11.62499986828871
 31
0.0
  0
LINE
  5
11BE
330
11A4
100
AcDbEntity
  8
0
 62
     0
100
AcDbLine
 10
34.5211060909466
 20
5.015905118682837
 30
0.0
 11
33.12110609094657
 21
6.415905118682843
 31
0.0
  0
LINE
  5
11BF
330
11A4
100
AcDbEntity
  8
0
 62
     0
100
AcDbLine
 10
32.07110609094661
 20
7.016892312629352
 30
0.0
 11
30.67110609094658
 21
8.416892312629386
 31
0.0
  0
LINE
  5
11C0
330
11A4
100
AcDbEntity
  8
0
 62
     0
100
AcDbLine
 10
28.92110609094661
 20
10.16689231262935
 30
0.0
 11
27.57122472928452
 21
11.51677367429144
 31
0.0
  0
LINE
  5
11C1
330
11A4
100
AcDbEntity
  8
0
 62
     0
100
AcDbLine
 10
34.52110609094663
 20
4.566892312629335
 30
0.0
 11
33.12110609094657
 21
5.966892312629397
 31
0.0
  0
LINE
  5
11C2
330
11A4
100
AcDbEntity
  8
0
 62
     0
100
AcDbLine
 10
32.07110609094661
 20
6.567879506575877
 30
0.0
 11
30.67110609094658
 21
7.967879506575911
 31
0.0
  0
LINE
  5
11C3
330
11A4
100
AcDbEntity
  8
0
 62
     0
100
AcDbLine
 10
28.92110609094661
 20
9.717879506575883
 30
0.0
 11
27.52110609094654
 21
11.11787950657597
 31
0.0
  0
LINE
  5
11C4
330
11A4
100
AcDbEntity
  8
0
 62
     0
100
AcDbLine
 10
34.52110609094666
 20
4.11787950657586
 30
0.0
 11
33.12110609094657
 21
5.517879506575923
 31
0.0
  0
LINE
  5
11C5
330
11A4
100
AcDbEntity
  8
0
 62
     0
100
AcDbLine
 10
32.07110609094661
 20
6.11886670052246
 30
0.0
 11
30.67110609094658
 21
7.518866700522494
 31
0.0
  0
LINE
  5
11C6
330
11A4
100
AcDbEntity
  8
0
 62
     0
100
AcDbLine
 10
28.92110609094661
 20
9.268866700522465
 30
0.0
 11
27.52110609094657
 21
10.6688667005225
 31
0.0
  0
LINE
  5
11C7
330
11A4
100
AcDbEntity
  8
0
 62
     0
100
AcDbLine
 10
34.48512341350166
 20
3.704849377967406
 30
0.0
 11
33.12110609094657
 21
5.068866700522505
 31
0.0
  0
LINE
  5
11C8
330
11A4
100
AcDbEntity
  8
0
 62
     0
100
AcDbLine
 10
32.07110609094658
 20
5.669853894468985
 30
0.0
 11
30.67110609094658
 21
7.069853894469019
 31
0.0
  0
LINE
  5
11C9
330
11A4
100
AcDbEntity
  8
0
 62
     0
100
AcDbLine
 10
28.92110609094661
 20
8.819853894468991
 30
0.0
 11
27.52110609094657
 21
10.21985389446902
 31
0.0
  0
LINE
  5
11CA
330
11A4
100
AcDbEntity
  8
0
 62
     0
100
AcDbLine
 10
34.16596011712693
 20
3.574999868288671
 30
0.0
 11
33.12110609094659
 21
4.619853894469002
 31
0.0
  0
LINE
  5
11CB
330
11A4
100
AcDbEntity
  8
0
 62
     0
100
AcDbLine
 10
28.92110609094658
 20
8.370841088415545
 30
0.0
 11
27.52110609094654
 21
9.770841088415551
 31
0.0
  0
LINE
  5
11CC
330
11A4
100
AcDbEntity
  8
0
 62
     0
100
AcDbLine
 10
32.07110609094658
 20
5.220841088415539
 30
0.0
 11
30.67110609094655
 21
6.620841088415545
 31
0.0
  0
LINE
  5
11CD
330
11A4
100
AcDbEntity
  8
0
 62
     0
100
AcDbLine
 10
26.20860609094657
 20
11.08334108841555
 30
0.0
 11
25.66694731107338
 21
11.62499986828871
 31
0.0
  0
LINE
  5
11CE
330
11A4
100
AcDbEntity
  8
0
 62
     0
100
AcDbLine
 10
33.71694731107345
 20
3.574999868288671
 30
0.0
 11
33.12110609094659
 21
4.170841088415528
 31
0.0
  0
LINE
  5
11CF
330
11A4
100
AcDbEntity
  8
0
 62
     0
100
AcDbLine
 10
28.92110609094661
 20
7.921828282362099
 30
0.0
 11
27.52110609094657
 21
9.321828282362133
 31
0.0
  0
LINE
  5
11D0
330
11A4
100
AcDbEntity
  8
0
 62
     0
100
AcDbLine
 10
26.2086060909466
 20
10.6343282823621
 30
0.0
 11
25.21793450501997
 21
11.62499986828873
 31
0.0
  0
LINE
  5
11D1
330
11A4
100
AcDbEntity
  8
0
 62
     0
100
AcDbLine
 10
32.05812694062379
 20
4.784807432684914
 30
0.0
 11
30.67110609094658
 21
6.171828282362127
 31
0.0
  0
LINE
  5
11D2
330
11A4
100
AcDbEntity
  8
0
 62
     0
100
AcDbLine
 10
28.92110609094658
 20
7.472815476308625
 30
0.0
 11
27.52110609094657
 21
8.872815476308659
 31
0.0
  0
LINE
  5
11D3
330
11A4
100
AcDbEntity
  8
0
 62
     0
100
AcDbLine
 10
26.11081581788963
 20
10.2831057493656
 30
0.0
 11
24.76892169896655
 21
11.62499986828868
 31
0.0
  0
LINE
  5
11D4
330
11A4
100
AcDbEntity
  8
0
 62
     0
100
AcDbLine
 10
31.96163429299517
 20
4.432287274260033
 30
0.0
 11
30.67110609094655
 21
5.722815476308653
 31
0.0
  0
LINE
  5
11D5
330
11A4
100
AcDbEntity
  8
0
 62
     0
100
AcDbLine
 10
28.92110609094658
 20
7.023802670255179
 30
0.0
 11
27.52110609094654
 21
8.423802670255213
 31
0.0
  0
LINE
  5
11D6
330
11A4
100
AcDbEntity
  8
0
 62
     0
100
AcDbLine
 10
25.71990889291305
 20
10.22499986828867
 30
0.0
 11
24.31990889291304
 21
11.62499986828871
 31
0.0
  0
LINE
  5
11D7
330
11A4
100
AcDbEntity
  8
0
 62
     0
100
AcDbLine
 10
31.79911835503338
 20
4.145790406168345
 30
0.0
 11
30.63534822136677
 21
5.30956053983499
 31
0.0
  0
LINE
  5
11D8
330
11A4
100
AcDbEntity
  8
0
 62
     0
100
AcDbLine
 10
28.92110609094661
 20
6.574789864201733
 30
0.0
 11
27.52110609094657
 21
7.974789864201767
 31
0.0
  0
LINE
  5
11D9
330
11A4
100
AcDbEntity
  8
0
 62
     0
100
AcDbLine
 10
25.27089608685963
 20
10.2249998682887
 30
0.0
 11
23.90211272227094
 21
11.59378323287739
 31
0.0
  0
LINE
  5
11DA
330
11A4
100
AcDbEntity
  8
0
 62
     0
100
AcDbLine
 10
31.58309745637086
 20
3.912798498777448
 30
0.0
 11
30.43455540213301
 21
5.061340553015298
 31
0.0
  0
LINE
  5
11DB
330
11A4
100
AcDbEntity
  8
0
 62
     0
100
AcDbLine
 10
28.92110609094658
 20
6.125777058148287
 30
0.0
 11
27.52110609094654
 21
7.525777058148293
 31
0.0
  0
LINE
  5
11DC
330
11A4
100
AcDbEntity
  8
0
 62
     0
100
AcDbLine
 10
24.82188328080616
 20
10.2249998682887
 30
0.0
 11
23.56979251000424
 21
11.47709063909059
 31
0.0
  0
LINE
  5
11DD
330
11A4
100
AcDbEntity
  8
0
 62
     0
100
AcDbLine
 10
31.31501628390785
 20
3.731866865187015
 30
0.0
 11
30.07188328080616
 21
4.974999868288676
 31
0.0
  0
LINE
  5
11DE
330
11A4
100
AcDbEntity
  8
0
 62
     0
100
AcDbLine
 10
28.92110609094658
 20
5.676764252094812
 30
0.0
 11
27.52110609094657
 21
7.07676425209479
 31
0.0
  0
LINE
  5
11DF
330
11A4
100
AcDbEntity
  8
0
 62
     0
100
AcDbLine
 10
24.38376538876176
 20
10.2141049542796
 30
0.0
 11
23.29849204139915
 21
11.2993783016422
 31
0.0
  0
LINE
  5
11E0
330
11A4
100
AcDbEntity
  8
0
 62
     0
100
AcDbLine
 10
30.9868100039522
 20
3.611060339089192
 30
0.0
 11
29.62287047475271
 21
4.974999868288676
 31
0.0
  0
LINE
  5
11E1
330
11A4
100
AcDbEntity
  8
0
 62
     0
100
AcDbLine
 10
24.19610609094658
 20
9.952751446041304
 30
0.0
 11
23.07943601187687
 21
11.06942152511101
 31
0.0
  0
LINE
  5
11E2
330
11A4
100
AcDbEntity
  8
0
 62
     0
100
AcDbLine
 10
30.57385766869922
 20
3.574999868288671
 30
0.0
 11
27.52110609094657
 21
6.627751446041344
 31
0.0
  0
LINE
  5
11E3
330
11A4
100
AcDbEntity
  8
0
 62
     0
100
AcDbLine
 10
24.19610609094661
 20
9.503738639987886
 30
0.0
 11
22.91355055570036
 21
10.78629417523413
 31
0.0
  0
LINE
  5
11E4
330
11A4
100
AcDbEntity
  8
0
 62
     0
100
AcDbLine
 10
30.1248448626458
 20
3.574999868288699
 30
0.0
 11
27.5211060909466
 21
6.178738639987898
 31
0.0
  0
LINE
  5
11E5
330
11A4
100
AcDbEntity
  8
0
 62
     0
100
AcDbLine
 10
24.29937823149848
 20
8.951453693382546
 30
0.0
 11
22.81246129601831
 21
10.43837062886268
 31
0.0
  0
LINE
  5
11E6
330
11A4
100
AcDbEntity
  8
0
 62
     0
100
AcDbLine
 10
29.67583205659233
 20
3.574999868288671
 30
0.0
 11
27.52110609094657
 21
5.729725833934452
 31
0.0
  0
LINE
  5
11E7
330
11A4
100
AcDbEntity
  8
0
 62
     0
100
AcDbLine
 10
26.40790794229224
 20
6.393911176535311
 30
0.0
 11
22.7961060909466
 21
10.00571302788094
 31
0.0
  0
LINE
  5
11E8
330
11A4
100
AcDbEntity
  8
0
 62
     0
100
AcDbLine
 10
21.74610609094651
 20
11.05571302788101
 30
0.0
 11
21.17681925053886
 21
11.62499986828868
 31
0.0
  0
LINE
  5
11E9
330
11A4
100
AcDbEntity
  8
0
 62
     0
100
AcDbLine
 10
29.22681925053888
 20
3.574999868288671
 30
0.0
 11
27.52110609094657
 21
5.280713027880977
 31
0.0
  0
LINE
  5
11EA
330
11A4
100
AcDbEntity
  8
0
 62
     0
100
AcDbLine
 10
26.47110609094659
 20
5.881700221827543
 30
0.0
 11
22.79610609094658
 21
9.556700221827554
 31
0.0
  0
LINE
  5
11EB
330
11A4
100
AcDbEntity
  8
0
 62
     0
100
AcDbLine
 10
21.74610609094656
 20
10.60670022182753
 30
0.0
 11
20.72780644448539
 21
11.62499986828873
 31
0.0
  0
LINE
  5
11EC
330
11A4
100
AcDbEntity
  8
0
 62
     0
100
AcDbLine
 10
28.76958250511302
 20
3.583223807661113
 30
0.0
 11
27.52933003031901
 21
4.823476282455118
 31
0.0
  0
LINE
  5
11ED
330
11A4
100
AcDbEntity
  8
0
 62
     0
100
AcDbLine
 10
21.74610609094656
 20
10.15768741577409
 30
0.0
 11
20.39241114705891
 21
11.51138235966172
 31
0.0
  0
LINE
  5
11EE
330
11A4
100
AcDbEntity
  8
0
 62
     0
100
AcDbLine
 10
26.47110609094656
 20
5.432687415774068
 30
0.0
 11
22.80781142488774
 21
9.095982081832914
 31
0.0
  0
LINE
  5
11EF
330
11A4
100
AcDbEntity
  8
0
 62
     0
100
AcDbLine
 10
21.74610609094656
 20
9.708674609720617
 30
0.0
 11
20.34610609094656
 21
11.10867460972059
 31
0.0
  0
LINE
  5
11F0
330
11A4
100
AcDbEntity
  8
0
 62
     0
100
AcDbLine
 10
26.47110609094659
 20
4.983674609720566
 30
0.0
 11
22.96687113380775
 21
8.487909566859428
 31
0.0
  0
LINE
  5
11F1
330
11A4
100
AcDbEntity
  8
0
 62
     0
100
AcDbLine
 10
21.74610609094656
 20
9.259661803667171
 30
0.0
 11
20.34610609094659
 21
10.65966180366714
 31
0.0
  0
LINE
  5
11F2
330
11A4
100
AcDbEntity
  8
0
 62
     0
100
AcDbLine
 10
26.41682518215202
 20
4.588942712461715
 30
0.0
 11
25.06900778763287
 21
5.936760106980869
 31
0.0
  0
LINE
  5
11F3
330
11A4
100
AcDbEntity
  8
0
 62
     0
100
AcDbLine
 10
21.74610609094656
 20
8.810648997613725
 30
0.0
 11
20.34610609094656
 21
10.2106489976137
 31
0.0
  0
LINE
  5
11F4
330
11A4
100
AcDbEntity
  8
0
 62
     0
100
AcDbLine
 10
19.20036264065805
 20
11.35639244790221
 30
0.0
 11
18.93175522027155
 21
11.62499986828873
 31
0.0
  0
LINE
  5
11F5
330
11A4
100
AcDbEntity
  8
0
 62
     0
100
AcDbLine
 10
26.28288732827124
 20
4.27386776028905
 30
0.0
 11
25.07110609094661
 21
5.485648997613679
 31
0.0
  0
LINE
  5
11F6
330
11A4
100
AcDbEntity
  8
0
 62
     0
100
AcDbLine
 10
21.74610609094654
 20
8.361636191560251
 30
0.0
 11
20.34610609094656
 21
9.761636191560256
 31
0.0
  0
LINE
  5
11F7
330
11A4
100
AcDbEntity
  8
0
 62
     0
100
AcDbLine
 10
19.10089880853175
 20
11.00684347397503
 30
0.0
 11
18.4827424142181
 21
11.62499986828871
 31
0.0
  0
LINE
  5
11F8
330
11A4
100
AcDbEntity
  8
0
 62
     0
100
AcDbLine
 10
26.09139392918359
 20
4.016348353323223
 30
0.0
 11
25.02246349950334
 21
5.085278783003474
 31
0.0
  0
LINE
  5
11F9
330
11A4
100
AcDbEntity
  8
0
 62
     0
100
AcDbLine
 10
21.74610609094654
 20
7.912623385506805
 30
0.0
 11
20.34610609094656
 21
9.312623385506782
 31
0.0
  0
LINE
  5
11FA
330
11A4
100
AcDbEntity
  8
0
 62
     0
100
AcDbLine
 10
18.99313573507896
 20
10.66559374137437
 30
0.0
 11
18.03852795334361
 21
11.62020152310972
 31
0.0
  0
LINE
  5
11FB
330
11A4
100
AcDbEntity
  8
0
 62
     0
100
AcDbLine
 10
25.84823444662578
 20
3.810495029827535
 30
0.0
 11
24.68372960816466
 21
4.974999868288676
 31
0.0
  0
LINE
  5
11FC
330
11A4
100
AcDbEntity
  8
0
 62
     0
100
AcDbLine
 10
21.74610609094659
 20
7.46361057945333
 30
0.0
 11
20.34610609094656
 21
8.863610579453336
 31
0.0
  0
LINE
  5
11FD
330
11A4
100
AcDbEntity
  8
0
 62
     0
100
AcDbLine
 10
18.88537266162609
 20
10.3243440087738
 30
0.0
 11
17.82137266162612
 21
11.3883440087738
 31
0.0
  0
LINE
  5
11FE
330
11A4
100
AcDbEntity
  8
0
 62
     0
100
AcDbLine
 10
25.55019247239559
 20
3.659524198004305
 30
0.0
 11
24.23471680211122
 21
4.974999868288705
 31
0.0
  0
LINE
  5
11FF
330
11A4
100
AcDbEntity
  8
0
 62
     0
100
AcDbLine
 10
21.74610609094659
 20
7.014597773399856
 30
0.0
 11
20.34610609094656
 21
8.41459777339989
 31
0.0
  0
LINE
  5
1200
330
11A4
100
AcDbEntity
  8
0
 62
     0
100
AcDbLine
 10
18.77760958817327
 20
9.983094276173176
 30
0.0
 11
17.71360958817328
 21
11.04709427617317
 31
0.0
  0
LINE
  5
1201
330
11A4
100
AcDbEntity
  8
0
 62
     0
100
AcDbLine
 10
25.18135614657186
 20
3.579347717774595
 30
0.0
 11
23.78570399605777
 21
4.974999868288676
 31
0.0
  0
LINE
  5
1202
330
11A4
100
AcDbEntity
  8
0
 62
     0
100
AcDbLine
 10
21.74610609094656
 20
6.56558496734641
 30
0.0
 11
20.34610609094653
 21
7.965584967346416
 31
0.0
  0
LINE
  5
1203
330
11A4
100
AcDbEntity
  8
0
 62
     0
100
AcDbLine
 10
18.66984651472046
 20
9.641844543572517
 30
0.0
 11
17.60584651472044
 21
10.70584454357254
 31
0.0
  0
LINE
  5
1204
330
11A4
100
AcDbEntity
  8
0
 62
     0
100
AcDbLine
 10
24.73669119000428
 20
3.574999868288671
 30
0.0
 11
23.3366911900043
 21
4.974999868288676
 31
0.0
  0
LINE
  5
1205
330
11A4
100
AcDbEntity
  8
0
 62
     0
100
AcDbLine
 10
21.74610609094659
 20
6.116572161292964
 30
0.0
 11
20.34610609094656
 21
7.516572161292998
 31
0.0
  0
LINE
  5
1206
330
11A4
100
AcDbEntity
  8
0
 62
     0
100
AcDbLine
 10
18.56208344126761
 20
9.300594810971944
 30
0.0
 11
17.49808344126756
 21
10.36459481097196
 31
0.0
  0
LINE
  5
1207
330
11A4
100
AcDbEntity
  8
0
 62
     0
100
AcDbLine
 10
24.28767838395086
 20
3.574999868288699
 30
0.0
 11
23.07087253530269
 21
4.791805716936863
 31
0.0
  0
LINE
  5
1208
330
11A4
100
AcDbEntity
  8
0
 62
     0
100
AcDbLine
 10
18.4543203678148
 20
8.959345078371256
 30
0.0
 11
17.39032036781478
 21
10.0233450783713
 31
0.0
  0
LINE
  5
1209
330
11A4
100
AcDbEntity
  8
0
 62
     0
100
AcDbLine
 10
21.74610609094656
 20
5.66755935523949
 30
0.0
 11
20.34610609094656
 21
7.067559355239524
 31
0.0
  0
LINE
  5
120A
330
11A4
100
AcDbEntity
  8
0
 62
     0
100
AcDbLine
 10
16.32110609094661
 20
11.09255935523947
 30
0.0
 11
15.78866557789737
 21
11.62499986828871
 31
0.0
  0
LINE
  5
120B
330
11A4
100
AcDbEntity
  8
0
 62
     0
100
AcDbLine
 10
23.83866557789744
 20
3.574999868288642
 30
0.0
 11
23.05860609094656
 21
4.355059355239518
 31
0.0
  0
LINE
  5
120C
330
11A4
100
AcDbEntity
  8
0
 62
     0
100
AcDbLine
 10
18.34655729436192
 20
8.618095345770683
 30
0.0
 11
17.28255729436193
 21
9.682095345770676
 31
0.0
  0
LINE
  5
120D
330
11A4
100
AcDbEntity
  8
0
 62
     0
100
AcDbLine
 10
21.74610609094656
 20
5.218546549186044
 30
0.0
 11
20.34610609094653
 21
6.618546549186078
 31
0.0
  0
LINE
  5
120E
330
11A4
100
AcDbEntity
  8
0
 62
     0
100
AcDbLine
 10
16.32110609094658
 20
10.64354654918602
 30
0.0
 11
15.3396527718439
 21
11.62499986828868
 31
0.0
  0
LINE
  5
120F
330
11A4
100
AcDbEntity
  8
0
 62
     0
100
AcDbLine
 10
23.38965277184394
 20
3.574999868288671
 30
0.0
 11
23.05860609094654
 21
3.906046549186044
 31
0.0
  0
LINE
  5
1210
330
11A4
100
AcDbEntity
  8
0
 62
     0
100
AcDbLine
 10
18.23879422090911
 20
8.276845613169996
 30
0.0
 11
17.17479422090906
 21
9.340845613170074
 31
0.0
  0
LINE
  5
1211
330
11A4
100
AcDbEntity
  8
0
 62
     0
100
AcDbLine
 10
16.32110609094658
 20
10.19453374313255
 30
0.0
 11
14.98338362649772
 21
11.53225620758141
 31
0.0
  0
LINE
  5
1212
330
11A4
100
AcDbEntity
  8
0
 62
     0
100
AcDbLine
 10
21.74610609094656
 20
4.769533743132569
 30
0.0
 11
20.34610609094653
 21
6.169533743132603
 31
0.0
  0
LINE
  5
1213
330
11A4
100
AcDbEntity
  8
0
 62
     0
100
AcDbLine
 10
18.13103114745627
 20
7.935595880569451
 30
0.0
 11
17.06703114745624
 21
8.999595880569472
 31
0.0
  0
LINE
  5
1214
330
11A4
100
AcDbEntity
  8
0
 62
     0
100
AcDbLine
 10
16.32110609094658
 20
9.745520937079106
 30
0.0
 11
14.92110609094658
 21
11.14552093707914
 31
0.0
  0
LINE
  5
1215
330
11A4
100
AcDbEntity
  8
0
 62
     0
100
AcDbLine
 10
21.74610609094656
 20
4.320520937079152
 30
0.0
 11
20.34610609094653
 21
5.720520937079157
 31
0.0
  0
LINE
  5
1216
330
11A4
100
AcDbEntity
  8
0
 62
     0
100
AcDbLine
 10
18.02848689276032
 20
7.589127329211919
 30
0.0
 11
16.9592680740034
 21
8.658346147968842
 31
0.0
  0
LINE
  5
1217
330
11A4
100
AcDbEntity
  8
0
 62
     0
100
AcDbLine
 10
16.32110609094658
 20
9.29650813102566
 30
0.0
 11
14.92110609094655
 21
10.69650813102566
 31
0.0
  0
LINE
  5
1218
330
11A4
100
AcDbEntity
  8
0
 62
     0
100
AcDbLine
 10
21.74610609094659
 20
3.871508131025649
 30
0.0
 11
20.34610609094653
 21
5.271508131025711
 31
0.0
  0
LINE
  5
1219
330
11A4
100
AcDbEntity
  8
0
 62
     0
100
AcDbLine
 10
18.23572357247732
 20
6.932877843441445
 30
0.0
 11
16.81399432616109
 21
8.354607089757678
 31
0.0
  0
LINE
  5
121A
330
11A4
100
AcDbEntity
  8
0
 62
     0
100
AcDbLine
 10
16.32110609094658
 20
8.847495324972186
 30
0.0
 11
14.92110609094655
 21
10.24749532497222
 31
0.0
  0
LINE
  5
121B
330
11A4
100
AcDbEntity
  8
0
 62
     0
100
AcDbLine
 10
21.57658359228034
 20
3.5920178236384
 30
0.0
 11
20.34610609094656
 21
4.822495324972209
 31
0.0
  0
LINE
  5
121C
330
11A4
100
AcDbEntity
  8
0
 62
     0
100
AcDbLine
 10
18.44296025219435
 20
6.276628357671
 30
0.0
 11
14.92110609094655
 21
9.798482518918774
 31
0.0
  0
LINE
  5
121D
330
11A4
100
AcDbEntity
  8
0
 62
     0
100
AcDbLine
 10
13.69610609094664
 20
11.02348251891871
 30
0.0
 11
13.09458874157661
 21
11.62499986828873
 31
0.0
  0
LINE
  5
121E
330
11A4
100
AcDbEntity
  8
0
 62
     0
100
AcDbLine
 10
21.14458874157668
 20
3.574999868288671
 30
0.0
 11
20.34610609094659
 21
4.373482518918763
 31
0.0
  0
LINE
  5
121F
330
11A4
100
AcDbEntity
  8
0
 62
     0
100
AcDbLine
 10
18.65019693191129
 20
5.620378871900555
 30
0.0
 11
14.92110609094655
 21
9.349469712865328
 31
0.0
  0
LINE
  5
1220
330
11A4
100
AcDbEntity
  8
0
 62
     0
100
AcDbLine
 10
13.69610609094661
 20
10.57446971286526
 30
0.0
 11
12.64557593552314
 21
11.62499986828871
 31
0.0
  0
LINE
  5
1221
330
11A4
100
AcDbEntity
  8
0
 62
     0
100
AcDbLine
 10
20.69557593552318
 20
3.574999868288699
 30
0.0
 11
20.34610609094656
 21
3.924469712865317
 31
0.0
  0
LINE
  5
1222
330
11A4
100
AcDbEntity
  8
0
 62
     0
100
AcDbLine
 10
13.56265274325153
 20
10.25891025450687
 30
0.0
 11
12.21254188414582
 21
11.60902111361255
 31
0.0
  0
LINE
  5
1223
330
11A4
100
AcDbEntity
  8
0
 62
     0
100
AcDbLine
 10
18.85743361162826
 20
4.964129386130139
 30
0.0
 11
14.92110609094655
 21
8.900456906811854
 31
0.0
  0
LINE
  5
1224
330
11A4
100
AcDbEntity
  8
0
 62
     0
100
AcDbLine
 10
16.48986055211736
 20
6.882689639587596
 30
0.0
 11
14.92110609094661
 21
8.451444100758351
 31
0.0
  0
LINE
  5
1225
330
11A4
100
AcDbEntity
  8
0
 62
     0
100
AcDbLine
 10
13.14755032341625
 20
10.2249998682887
 30
0.0
 11
11.84352034935219
 21
11.52902984235277
 31
0.0
  0
LINE
  5
1226
330
11A4
100
AcDbEntity
  8
0
 62
     0
100
AcDbLine
 10
19.06467029134526
 20
4.307879900359694
 30
0.0
 11
17.01851644519132
 21
6.354033746513607
 31
0.0
  0
LINE
  5
1227
330
11A4
100
AcDbEntity
  8
0
 62
     0
100
AcDbLine
 10
16.32110609094658
 20
6.602431294704928
 30
0.0
 11
14.92110609094658
 21
8.002431294704933
 31
0.0
  0
LINE
  5
1228
330
11A4
100
AcDbEntity
  8
0
 62
     0
100
AcDbLine
 10
12.6985375173628
 20
10.22499986828867
 30
0.0
 11
11.52415964143682
 21
11.39937774421466
 31
0.0
  0
LINE
  5
1229
330
11A4
100
AcDbEntity
  8
0
 62
     0
100
AcDbLine
 10
19.18218972020056
 20
3.741347665450916
 30
0.0
 11
17.22575312490829
 21
5.697784260743219
 31
0.0
  0
LINE
  5
122A
330
11A4
100
AcDbEntity
  8
0
 62
     0
100
AcDbLine
 10
16.32110609094655
 20
6.153418488651482
 30
0.0
 11
14.92110609094658
 21
7.553418488651459
 31
0.0
  0
LINE
  5
122B
330
11A4
100
AcDbEntity
  8
0
 62
     0
100
AcDbLine
 10
12.27698076609104
 20
10.19754381350699
 30
0.0
 11
11.24478515376955
 21
11.22973942582848
 31
0.0
  0
LINE
  5
122C
330
11A4
100
AcDbEntity
  8
0
 62
     0
100
AcDbLine
 10
18.89952471130934
 20
3.574999868288699
 30
0.0
 11
17.43298980462526
 21
5.041534774972774
 31
0.0
  0
LINE
  5
122D
330
11A4
100
AcDbEntity
  8
0
 62
     0
100
AcDbLine
 10
16.32110609094655
 20
5.704405682598007
 30
0.0
 11
14.92110609094655
 21
7.104405682597985
 31
0.0
  0
LINE
  5
122E
330
11A4
100
AcDbEntity
  8
0
 62
     0
100
AcDbLine
 10
11.99105266967154
 20
10.03445910387301
 30
0.0
 11
11.00095754946366
 21
11.0245542240809
 31
0.0
  0
LINE
  5
122F
330
11A4
100
AcDbEntity
  8
0
 62
     0
100
AcDbLine
 10
18.45051190525589
 20
3.574999868288671
 30
0.0
 11
17.64022648434229
 21
4.385285289202272
 31
0.0
  0
LINE
  5
1230
330
11A4
100
AcDbEntity
  8
0
 62
     0
100
AcDbLine
 10
13.86382065734542
 20
7.712678310145719
 30
0.0
 11
13.10878453280355
 21
8.467714434687593
 31
0.0
  0
LINE
  5
1231
330
11A4
100
AcDbEntity
  8
0
 62
     0
100
AcDbLine
 10
16.32110609094661
 20
5.255392876544533
 30
0.0
 11
14.92110609094658
 21
6.655392876544567
 31
0.0
  0
LINE
  5
1232
330
11A4
100
AcDbEntity
  8
0
 62
     0
100
AcDbLine
 10
11.81299188460707
 20
9.763507082884075
 30
0.0
 11
10.79127453645804
 21
10.7852244310331
 31
0.0
  0
LINE
  5
1233
330
11A4
100
AcDbEntity
  8
0
 62
     0
100
AcDbLine
 10
17.97633259710016
 20
3.600166370390979
 30
0.0
 11
17.85115551130451
 21
3.725343456186635
 31
0.0
  0
LINE
  5
1234
330
11A4
100
AcDbEntity
  8
0
 62
     0
100
AcDbLine
 10
13.82056382727447
 20
7.306922334163203
 30
0.0
 11
12.70302855682103
 21
8.424457604616634
 31
0.0
  0
LINE
  5
1235
330
11A4
100
AcDbEntity
  8
0
 62
     0
100
AcDbLine
 10
11.7711060909466
 20
9.35638007049107
 30
0.0
 11
10.61680502597721
 21
10.51068113546046
 31
0.0
  0
LINE
  5
1236
330
11A4
100
AcDbEntity
  8
0
 62
     0
100
AcDbLine
 10
16.32110609094658
 20
4.806380070491059
 30
0.0
 11
14.92110609094658
 21
6.206380070491093
 31
0.0
  0
LINE
  5
1237
330
11A4
100
AcDbEntity
  8
0
 62
     0
100
AcDbLine
 10
13.65463604762544
 20
7.023837307758725
 30
0.0
 11
12.41994353041656
 21
8.25852982496761
 31
0.0
  0
LINE
  5
1238
330
11A4
100
AcDbEntity
  8
0
 62
     0
100
AcDbLine
 10
11.7711060909466
 20
8.907367264437596
 30
0.0
 11
10.48151517237212
 21
10.19695818301207
 31
0.0
  0
LINE
  5
1239
330
11A4
100
AcDbEntity
  8
0
 62
     0
100
AcDbLine
 10
16.32110609094658
 20
4.357367264437613
 30
0.0
 11
14.92110609094655
 21
5.757367264437647
 31
0.0
  0
LINE
  5
123A
330
11A4
100
AcDbEntity
  8
0
 62
     0
100
AcDbLine
 10
11.7711060909466
 20
8.45835445838415
 30
0.0
 11
10.3941582359092
 21
9.835302313421578
 31
0.0
  0
LINE
  5
123B
330
11A4
100
AcDbEntity
  8
0
 62
     0
100
AcDbLine
 10
13.40371932655722
 20
6.825741222773558
 30
0.0
 11
12.22184744543139
 21
8.007613103899387
 31
0.0
  0
LINE
  5
123C
330
11A4
100
AcDbEntity
  8
0
 62
     0
100
AcDbLine
 10
9.058606090946568
 20
11.17085445838421
 30
0.0
 11
8.604460681042041
 21
11.62499986828873
 31
0.0
  0
LINE
  5
123D
330
11A4
100
AcDbEntity
  8
0
 62
     0
100
AcDbLine
 10
16.32110609094661
 20
3.908354458384167
 30
0.0
 11
14.92110609094658
 21
5.308354458384201
 31
0.0
  0
LINE
  5
123E
330
11A4
100
AcDbEntity
  8
0
 62
     0
100
AcDbLine
 10
11.7711060909466
 20
8.009341652330704
 30
0.0
 11
10.37110609094656
 21
9.409341652330738
 31
0.0
  0
LINE
  5
123F
330
11A4
100
AcDbEntity
  8
0
 62
     0
100
AcDbLine
 10
13.0535596053435
 20
6.726888137933798
 30
0.0
 11
12.12299436059163
 21
7.657453382685673
 31
0.0
  0
LINE
  5
1240
330
11A4
100
AcDbEntity
  8
0
 62
     0
100
AcDbLine
 10
9.05860609094654
 20
10.72184165233073
 30
0.0
 11
8.155447874988567
 21
11.62499986828873
 31
0.0
  0
LINE
  5
1241
330
11A4
100
AcDbEntity
  8
0
 62
     0
100
AcDbLine
 10
16.17715419031125
 20
3.60329355296605
 30
0.0
 11
14.92110609094655
 21
4.859341652330726
 31
0.0
  0
LINE
  5
1242
330
11A4
100
AcDbEntity
  8
0
 62
     0
100
AcDbLine
 10
11.7711060909466
 20
7.560328846277229
 30
0.0
 11
10.37110609094656
 21
8.960328846277263
 31
0.0
  0
LINE
  5
1243
330
11A4
100
AcDbEntity
  8
0
 62
     0
100
AcDbLine
 10
9.004089105811374
 20
10.32734583141245
 30
0.0
 11
7.706435068935093
 21
11.62499986828871
 31
0.0
  0
LINE
  5
1244
330
11A4
100
AcDbEntity
  8
0
 62
     0
100
AcDbLine
 10
15.75643506893516
 20
3.574999868288671
 30
0.0
 11
14.92110609094655
 21
4.41032884627728
 31
0.0
  0
LINE
  5
1245
330
11A4
100
AcDbEntity
  8
0
 62
     0
100
AcDbLine
 10
11.77110609094657
 20
7.111316040223783
 30
0.0
 11
10.37110609094654
 21
8.511316040223789
 31
0.0
  0
LINE
  5
1246
330
11A4
100
AcDbEntity
  8
0
 62
     0
100
AcDbLine
 10
8.657422262881681
 20
10.22499986828867
 30
0.0
 11
7.257422262881647
 21
11.62499986828871
 31
0.0
  0
LINE
  5
1247
330
11A4
100
AcDbEntity
  8
0
 62
     0
100
AcDbLine
 10
15.30742226288168
 20
3.574999868288642
 30
0.0
 11
14.92110609094655
 21
3.961316040223806
 31
0.0
  0
LINE
  5
1248
330
11A4
100
AcDbEntity
  8
0
 62
     0
100
AcDbLine
 10
11.77110609094663
 20
6.662303234170309
 30
0.0
 11
10.37110609094656
 21
8.062303234170371
 31
0.0
  0
LINE
  5
1249
330
11A4
100
AcDbEntity
  8
0
 62
     0
100
AcDbLine
 10
8.208409456828235
 20
10.2249998682887
 30
0.0
 11
6.825844820775813
 21
11.60756450434112
 31
0.0
  0
LINE
  5
124A
330
11A4
100
AcDbEntity
  8
0
 62
     0
100
AcDbLine
 10
13.6948048665281
 20
4.73860445858881
 30
0.0
 11
13.45971068124674
 21
4.973698643870193
 31
0.0
  0
LINE
  5
124B
330
11A4
100
AcDbEntity
  8
0
 62
     0
100
AcDbLine
 10
11.77110609094663
 20
6.213290428116835
 30
0.0
 11
10.37110609094656
 21
7.613290428116897
 31
0.0
  0
LINE
  5
124C
330
11A4
100
AcDbEntity
  8
0
 62
     0
100
AcDbLine
 10
7.75939665077476
 20
10.22499986828867
 30
0.0
 11
6.479277416536575
 21
11.50511910252689
 31
0.0
  0
LINE
  5
124D
330
11A4
100
AcDbEntity
  8
0
 62
     0
100
AcDbLine
 10
13.69610609094661
 20
4.288290428116852
 30
0.0
 11
13.00939665077478
 21
4.974999868288676
 31
0.0
  0
LINE
  5
124E
330
11A4
100
AcDbEntity
  8
0
 62
     0
100
AcDbLine
 10
11.7711060909466
 20
5.76427762206336
 30
0.0
 11
10.37110609094659
 21
7.164277622063394
 31
0.0
  0
LINE
  5
124F
330
11A4
100
AcDbEntity
  8
0
 62
     0
100
AcDbLine
 10
7.310383844721258
 20
10.2249998682887
 30
0.0
 11
6.197154086612954
 21
11.338229626397
 31
0.0
  0
LINE
  5
1250
330
11A4
100
AcDbEntity
  8
0
 62
     0
100
AcDbLine
 10
13.69610609094658
 20
3.839277622063377
 30
0.0
 11
12.56038384472128
 21
4.974999868288705
 31
0.0
  0
LINE
  5
1251
330
11A4
100
AcDbEntity
  8
0
 62
     0
100
AcDbLine
 10
7.055237430914047
 20
10.03113347604252
 30
0.0
 11
5.968107680492579
 21
11.11826322646399
 31
0.0
  0
LINE
  5
1252
330
11A4
100
AcDbEntity
  8
0
 62
     0
100
AcDbLine
 10
13.5022396987004
 20
3.584131208256167
 30
0.0
 11
10.37110609094659
 21
6.715264816009977
 31
0.0
  0
LINE
  5
1253
330
11A4
100
AcDbEntity
  8
0
 62
     0
100
AcDbLine
 10
7.04610609094658
 20
9.591252009956519
 30
0.0
 11
5.791367079258037
 21
10.84599102164506
 31
0.0
  0
LINE
  5
1254
330
11A4
100
AcDbEntity
  8
0
 62
     0
100
AcDbLine
 10
13.06235823261445
 20
3.574999868288642
 30
0.0
 11
10.37110609094659
 21
6.266252009956502
 31
0.0
  0
LINE
  5
1255
330
11A4
100
AcDbEntity
  8
0
 62
     0
100
AcDbLine
 10
7.077173945014294
 20
9.111171349835302
 30
0.0
 11
5.675927028111175
 21
10.51241826673845
 31
0.0
  0
LINE
  5
1256
330
11A4
100
AcDbEntity
  8
0
 62
     0
100
AcDbLine
 10
12.61334542656095
 20
3.574999868288671
 30
0.0
 11
10.37110609094656
 21
5.817239203903028
 31
0.0
  0
LINE
  5
1257
330
11A4
100
AcDbEntity
  8
0
 62
     0
100
AcDbLine
 10
9.22329413655791
 20
6.516038352238268
 30
0.0
 11
5.646106090946602
 21
10.09322639784957
 31
0.0
  0
LINE
  5
1258
330
11A4
100
AcDbEntity
  8
0
 62
     0
100
AcDbLine
 10
12.13769657697918
 20
3.601635911816998
 30
0.0
 11
10.39774213447489
 21
5.341590354321283
 31
0.0
  0
LINE
  5
1259
330
11A4
100
AcDbEntity
  8
0
 62
     0
100
AcDbLine
 10
9.31924139360052
 20
5.971078289142212
 30
0.0
 11
5.646106090946574
 21
9.64421359179613
 31
0.0
  0
LINE
  5
125A
330
11A4
100
AcDbEntity
  8
0
 62
     0
100
AcDbLine
 10
11.45079262067838
 20
3.83952706206432
 30
0.0
 11
10.63563328472219
 21
4.654686398020544
 31
0.0
  0
LINE
  5
125B
330
11A4
100
AcDbEntity
  8
0
 62
     0
100
AcDbLine
 10
9.321106090946614
 20
5.520200785742645
 30
0.0
 11
5.649888314657744
 21
9.191418562031486
 31
0.0
  0
LINE
  5
125C
330
11A4
100
AcDbEntity
  8
0
 62
     0
100
AcDbLine
 10
9.321106090946557
 20
5.071187979689227
 30
0.0
 11
5.761533693819671
 21
8.630760376816084
 31
0.0
  0
LINE
  5
125D
330
11A4
100
AcDbEntity
  8
0
 62
     0
100
AcDbLine
 10
9.284846092880599
 20
4.658435171701768
 30
0.0
 11
7.903150271071069
 21
6.040130993511297
 31
0.0
  0
LINE
  5
125E
330
11A4
100
AcDbEntity
  8
0
 62
     0
100
AcDbLine
 10
9.163877123366177
 20
4.330391335162715
 30
0.0
 11
7.92110609094658
 21
5.573162367582312
 31
0.0
  0
LINE
  5
125F
330
11A4
100
AcDbEntity
  8
0
 62
     0
100
AcDbLine
 10
8.982817499675292
 20
4.062438152800126
 30
0.0
 11
7.903156574796213
 21
5.142099077679205
 31
0.0
  0
LINE
  5
1260
330
11A4
100
AcDbEntity
  8
0
 62
     0
100
AcDbLine
 10
8.749704313541855
 20
3.846538532880117
 30
0.0
 11
7.621242978133295
 21
4.974999868288705
 31
0.0
  0
LINE
  5
1261
330
11A4
100
AcDbEntity
  8
0
 62
     0
100
AcDbLine
 10
8.463072089675449
 20
3.684157950693077
 30
0.0
 11
7.172230172079821
 21
4.974999868288676
 31
0.0
  0
LINE
  5
1262
330
11A4
100
AcDbEntity
  8
0
 62
     0
100
AcDbLine
 10
8.11036579513248
 20
3.587851439182571
 30
0.0
 11
6.723217366026375
 21
4.974999868288676
 31
0.0
  0
LINE
  5
1263
330
11A4
100
AcDbEntity
  8
0
 62
     0
100
AcDbLine
 10
7.674204559972906
 20
3.574999868288671
 30
0.0
 11
6.274204559972901
 21
4.974999868288676
 31
0.0
  0
LINE
  5
1264
330
11A4
100
AcDbEntity
  8
0
 62
     0
100
AcDbLine
 10
7.22519175391946
 20
3.574999868288699
 30
0.0
 11
5.948529806510549
 21
4.85166181569761
 31
0.0
  0
LINE
  5
1265
330
11A4
100
AcDbEntity
  8
0
 62
     0
100
AcDbLine
 10
6.776178947865986
 20
3.574999868288671
 30
0.0
 11
5.908606090946591
 21
4.442572725208066
 31
0.0
  0
LINE
  5
1266
330
11A4
100
AcDbEntity
  8
0
 62
     0
100
AcDbLine
 10
6.327166141812483
 20
3.574999868288699
 30
0.0
 11
5.908606090946591
 21
3.99355991915462
 31
0.0
  0
LINE
  5
1267
330
11A4
100
AcDbEntity
  8
0
 62
     0
100
AcDbLine
 10
34.31694973328004
 20
3.581565756847425
 30
0.0
 11
34.51454020238793
 21
3.779156225955318
 31
0.0
  0
LINE
  5
1268
330
11A4
100
AcDbEntity
  8
0
 62
     0
100
AcDbLine
 10
33.86137103866786
 20
3.574999868288642
 30
0.0
 11
34.52110609094666
 21
4.234734920567461
 31
0.0
  0
LINE
  5
1269
330
11A4
100
AcDbEntity
  8
0
 62
     0
100
AcDbLine
 10
33.41235823261439
 20
3.574999868288671
 30
0.0
 11
34.52110609094666
 21
4.683747726620907
 31
0.0
  0
LINE
  5
126A
330
11A4
100
AcDbEntity
  8
0
 62
     0
100
AcDbLine
 10
33.13670487257249
 20
3.748359314300216
 30
0.0
 11
34.52110609094663
 21
5.132760532674382
 31
0.0
  0
LINE
  5
126B
330
11A4
100
AcDbEntity
  8
0
 62
     0
100
AcDbLine
 10
33.12110609094659
 20
4.181773338727793
 30
0.0
 11
34.52110609094663
 21
5.581773338727799
 31
0.0
  0
LINE
  5
126C
330
11A4
100
AcDbEntity
  8
0
 62
     0
100
AcDbLine
 10
33.12110609094662
 20
4.630786144781239
 30
0.0
 11
34.52110609094663
 21
6.030786144781274
 31
0.0
  0
LINE
  5
126D
330
11A4
100
AcDbEntity
  8
0
 62
     0
100
AcDbLine
 10
33.12110609094659
 20
5.079798950834714
 30
0.0
 11
34.52110609094663
 21
6.479798950834748
 31
0.0
  0
LINE
  5
126E
330
11A4
100
AcDbEntity
  8
0
 62
     0
100
AcDbLine
 10
33.12110609094659
 20
5.52881175688816
 30
0.0
 11
34.52110609094663
 21
6.928811756888194
 31
0.0
  0
LINE
  5
126F
330
11A4
100
AcDbEntity
  8
0
 62
     0
100
AcDbLine
 10
31.33438852197923
 20
3.742094187920798
 30
0.0
 11
31.90401177131451
 21
4.311717437256106
 31
0.0
  0
LINE
  5
1270
330
11A4
100
AcDbEntity
  8
0
 62
     0
100
AcDbLine
 10
33.12110609094659
 20
5.977824562941606
 30
0.0
 11
34.52110609094663
 21
7.37782456294164
 31
0.0
  0
LINE
  5
1271
330
11A4
100
AcDbEntity
  8
0
 62
     0
100
AcDbLine
 10
30.71910443871783
 20
3.575822910712844
 30
0.0
 11
32.07028304852249
 21
4.927001520517478
 31
0.0
  0
LINE
  5
1272
330
11A4
100
AcDbEntity
  8
0
 62
     0
100
AcDbLine
 10
33.12110609094659
 20
6.42683736899508
 30
0.0
 11
34.52110609094663
 21
7.826837368995086
 31
0.0
  0
LINE
  5
1273
330
11A4
100
AcDbEntity
  8
0
 62
     0
100
AcDbLine
 10
30.26926859024013
 20
3.574999868288614
 30
0.0
 11
32.07110609094664
 21
5.376837368995097
 31
0.0
  0
LINE
  5
1274
330
11A4
100
AcDbEntity
  8
0
 62
     0
100
AcDbLine
 10
33.12110609094659
 20
6.875850175048526
 30
0.0
 11
34.5211060909466
 21
8.27585017504856
 31
0.0
  0
LINE
  5
1275
330
11A4
100
AcDbEntity
  8
0
 62
     0
100
AcDbLine
 10
29.82025578418668
 20
3.574999868288614
 30
0.0
 11
32.07110609094661
 21
5.825850175048572
 31
0.0
  0
LINE
  5
1276
330
11A4
100
AcDbEntity
  8
0
 62
     0
100
AcDbLine
 10
33.12110609094659
 20
7.324862981101972
 30
0.0
 11
34.52110609094663
 21
8.724862981102006
 31
0.0
  0
LINE
  5
1277
330
11A4
100
AcDbEntity
  8
0
 62
     0
100
AcDbLine
 10
29.37124297813326
 20
3.574999868288642
 30
0.0
 11
32.07110609094664
 21
6.274862981102018
 31
0.0
  0
LINE
  5
1278
330
11A4
100
AcDbEntity
  8
0
 62
     0
100
AcDbLine
 10
30.61881048990608
 20
5.271580186114931
 30
0.0
 11
32.07110609094664
 21
6.723875787155463
 31
0.0
  0
LINE
  5
1279
330
11A4
100
AcDbEntity
  8
0
 62
     0
100
AcDbLine
 10
33.12110609094659
 20
7.773875787155418
 30
0.0
 11
34.52110609094663
 21
9.173875787155452
 31
0.0
  0
LINE
  5
127A
330
11A4
100
AcDbEntity
  8
0
 62
     0
100
AcDbLine
 10
28.92223017207976
 20
3.574999868288614
 30
0.0
 11
30.37452577312032
 21
5.027295469329146
 31
0.0
  0
LINE
  5
127B
330
11A4
100
AcDbEntity
  8
0
 62
     0
100
AcDbLine
 10
30.67110609094658
 20
5.772888593208904
 30
0.0
 11
32.07110609094661
 21
7.172888593208938
 31
0.0
  0
LINE
  5
127C
330
11A4
100
AcDbEntity
  8
0
 62
     0
100
AcDbLine
 10
33.12110609094657
 20
8.222888593208892
 30
0.0
 11
34.5211060909466
 21
9.622888593208926
 31
0.0
  0
LINE
  5
127D
330
11A4
100
AcDbEntity
  8
0
 62
     0
100
AcDbLine
 10
28.52919224171492
 20
3.630974743977219
 30
0.0
 11
29.87321736602635
 21
4.974999868288648
 31
0.0
  0
LINE
  5
127E
330
11A4
100
AcDbEntity
  8
0
 62
     0
100
AcDbLine
 10
30.6711060909466
 20
6.221901399262407
 30
0.0
 11
32.07110609094661
 21
7.621901399262384
 31
0.0
  0
LINE
  5
127F
330
11A4
100
AcDbEntity
  8
0
 62
     0
100
AcDbLine
 10
33.12110609094657
 20
8.671901399262367
 30
0.0
 11
34.5211060909466
 21
10.07190139926237
 31
0.0
  0
LINE
  5
1280
330
11A4
100
AcDbEntity
  8
0
 62
     0
100
AcDbLine
 10
28.21519880810985
 20
3.765994116425645
 30
0.0
 11
29.42464345279507
 21
4.975438761110865
 31
0.0
  0
LINE
  5
1281
330
11A4
100
AcDbEntity
  8
0
 62
     0
100
AcDbLine
 10
30.67110609094664
 20
6.670914205315852
 30
0.0
 11
32.07110609094661
 21
8.07091420531583
 31
0.0
  0
LINE
  5
1282
330
11A4
100
AcDbEntity
  8
0
 62
     0
100
AcDbLine
 10
33.12110609094659
 20
9.120914205315784
 30
0.0
 11
34.5211060909466
 21
10.52091420531581
 31
0.0
  0
LINE
  5
1283
330
11A4
100
AcDbEntity
  8
0
 62
     0
100
AcDbLine
 10
27.95856886742731
 20
3.958376981796504
 30
0.0
 11
29.10290415843872
 21
5.102712272807934
 31
0.0
  0
LINE
  5
1284
330
11A4
100
AcDbEntity
  8
0
 62
     0
100
AcDbLine
 10
30.67110609094664
 20
7.119927011369298
 30
0.0
 11
32.07110609094661
 21
8.519927011369304
 31
0.0
  0
LINE
  5
1285
330
11A4
100
AcDbEntity
  8
0
 62
     0
100
AcDbLine
 10
33.12110609094657
 20
9.569927011369259
 30
0.0
 11
34.5211060909466
 21
10.96992701136929
 31
0.0
  0
LINE
  5
1286
330
11A4
100
AcDbEntity
  8
0
 62
     0
100
AcDbLine
 10
27.75358677981475
 20
4.202407700237415
 30
0.0
 11
28.93428501923401
 21
5.383105939656701
 31
0.0
  0
LINE
  5
1287
330
11A4
100
AcDbEntity
  8
0
 62
     0
100
AcDbLine
 10
30.6711060909466
 20
7.568939817422773
 30
0.0
 11
32.07110609094664
 21
8.968939817422807
 31
0.0
  0
LINE
  5
1288
330
11A4
100
AcDbEntity
  8
0
 62
     0
100
AcDbLine
 10
33.12110609094657
 20
10.0189398174227
 30
0.0
 11
34.51603151417137
 21
11.41386524064753
 31
0.0
  0
LINE
  5
1289
330
11A4
100
AcDbEntity
  8
0
 62
     0
100
AcDbLine
 10
27.60362434059774
 20
4.501458067073912
 30
0.0
 11
28.92110609094661
 21
5.818939817422744
 31
0.0
  0
LINE
  5
128A
330
11A4
100
AcDbEntity
  8
0
 62
     0
100
AcDbLine
 10
30.67110609094664
 20
8.01795262347619
 30
0.0
 11
32.07110609094667
 21
9.417952623476224
 31
0.0
  0
LINE
  5
128B
330
11A4
100
AcDbEntity
  8
0
 62
     0
100
AcDbLine
 10
33.12110609094657
 20
10.46795262347615
 30
0.0
 11
34.27747434163163
 21
11.62432087416121
 31
0.0
  0
LINE
  5
128C
330
11A4
100
AcDbEntity
  8
0
 62
     0
100
AcDbLine
 10
27.52491757311952
 20
4.871764105649106
 30
0.0
 11
28.92110609094661
 21
6.26795262347619
 31
0.0
  0
LINE
  5
128D
330
11A4
100
AcDbEntity
  8
0
 62
     0
100
AcDbLine
 10
30.6711060909466
 20
8.466965429529665
 30
0.0
 11
32.07110609094664
 21
9.866965429529699
 31
0.0
  0
LINE
  5
128E
330
11A4
100
AcDbEntity
  8
0
 62
     0
100
AcDbLine
 10
33.12110609094659
 20
10.91696542952965
 30
0.0
 11
33.82914052970559
 21
11.62499986828865
 31
0.0
  0
LINE
  5
128F
330
11A4
100
AcDbEntity
  8
0
 62
     0
100
AcDbLine
 10
27.52110609094663
 20
5.316965429529659
 30
0.0
 11
28.92110609094663
 21
6.716965429529693
 31
0.0
  0
LINE
  5
1290
330
11A4
100
AcDbEntity
  8
0
 62
     0
100
AcDbLine
 10
30.6711060909466
 20
8.915978235583139
 30
0.0
 11
32.07110609094664
 21
10.31597823558314
 31
0.0
  0
LINE
  5
1291
330
11A4
100
AcDbEntity
  8
0
 62
     0
100
AcDbLine
 10
27.5211060909466
 20
5.765978235583133
 30
0.0
 11
28.92110609094663
 21
7.165978235583168
 31
0.0
  0
LINE
  5
1292
330
11A4
100
AcDbEntity
  8
0
 62
     0
100
AcDbLine
 10
33.12112944832032
 20
11.36600159295684
 30
0.0
 11
33.38010436627846
 21
11.62497651091496
 31
0.0
  0
LINE
  5
1293
330
11A4
100
AcDbEntity
  8
0
 62
     0
100
AcDbLine
 10
25.3603282755906
 20
3.605200420227106
 30
0.0
 11
26.44090553900818
 21
4.685777683644715
 31
0.0
  0
LINE
  5
1294
330
11A4
100
AcDbEntity
  8
0
 62
     0
100
AcDbLine
 10
27.5211060909466
 20
6.214991041636579
 30
0.0
 11
28.92110609094663
 21
7.614991041636613
 31
0.0
  0
LINE
  5
1295
330
11A4
100
AcDbEntity
  8
0
 62
     0
100
AcDbLine
 10
30.6711060909466
 20
9.364991041636585
 30
0.0
 11
32.07110609094661
 21
10.76499104163662
 31
0.0
  0
LINE
  5
1296
330
11A4
100
AcDbEntity
  8
0
 62
     0
100
AcDbLine
 10
24.88111491759866
 20
3.574999868288671
 30
0.0
 11
26.47110609094656
 21
5.16499104163654
 31
0.0
  0
LINE
  5
1297
330
11A4
100
AcDbEntity
  8
0
 62
     0
100
AcDbLine
 10
27.5211060909466
 20
6.664003847690025
 30
0.0
 11
28.92110609094663
 21
8.064003847690059
 31
0.0
  0
LINE
  5
1298
330
11A4
100
AcDbEntity
  8
0
 62
     0
100
AcDbLine
 10
30.6711060909466
 20
9.814003847690031
 30
0.0
 11
32.07110609094664
 21
11.21400384769006
 31
0.0
  0
LINE
  5
1299
330
11A4
100
AcDbEntity
  8
0
 62
     0
100
AcDbLine
 10
24.43210211154521
 20
3.574999868288642
 30
0.0
 11
26.47110609094662
 21
5.614003847690014
 31
0.0
  0
LINE
  5
129A
330
11A4
100
AcDbEntity
  8
0
 62
     0
100
AcDbLine
 10
27.5211060909466
 20
7.1130166537435
 30
0.0
 11
28.92110609094663
 21
8.513016653743505
 31
0.0
  0
LINE
  5
129B
330
11A4
100
AcDbEntity
  8
0
 62
     0
100
AcDbLine
 10
30.6711060909466
 20
10.26301665374347
 30
0.0
 11
31.97423736352956
 21
11.56614792632646
 31
0.0
  0
LINE
  5
129C
330
11A4
100
AcDbEntity
  8
0
 62
     0
100
AcDbLine
 10
23.98308930549177
 20
3.574999868288671
 30
0.0
 11
26.46394679074012
 21
6.055857353537021
 31
0.0
  0
LINE
  5
129D
330
11A4
100
AcDbEntity
  8
0
 62
     0
100
AcDbLine
 10
27.5211060909466
 20
7.562029459796946
 30
0.0
 11
28.92110609094661
 21
8.96202945979698
 31
0.0
  0
LINE
  5
129E
330
11A4
100
AcDbEntity
  8
0
 62
     0
100
AcDbLine
 10
30.67110609094658
 20
10.71202945979695
 30
0.0
 11
31.58407649943831
 21
11.62499986828868
 31
0.0
  0
LINE
  5
129F
330
11A4
100
AcDbEntity
  8
0
 62
     0
100
AcDbLine
 10
23.5340764994383
 20
3.574999868288671
 30
0.0
 11
26.39649060542575
 21
6.437413974276097
 31
0.0
  0
LINE
  5
12A0
330
11A4
100
AcDbEntity
  8
0
 62
     0
100
AcDbLine
 10
27.5211060909466
 20
8.011042265850392
 30
0.0
 11
28.92110609094663
 21
9.411042265850426
 31
0.0
  0
LINE
  5
12A1
330
11A4
100
AcDbEntity
  8
0
 62
     0
100
AcDbLine
 10
25.07110609094661
 20
5.561042265850403
 30
0.0
 11
26.27619687696648
 21
6.766133051870241
 31
0.0
  0
LINE
  5
12A2
330
11A4
100
AcDbEntity
  8
0
 62
     0
100
AcDbLine
 10
30.6711060909466
 20
11.16104226585039
 30
0.0
 11
31.13506369338489
 21
11.62499986828868
 31
0.0
  0
LINE
  5
12A3
330
11A4
100
AcDbEntity
  8
0
 62
     0
100
AcDbLine
 10
23.14919136995041
 20
3.639127544854204
 30
0.0
 11
24.48506369338486
 21
4.974999868288648
 31
0.0
  0
LINE
  5
12A4
330
11A4
100
AcDbEntity
  8
0
 62
     0
100
AcDbLine
 10
25.06117080338296
 20
6.000119784340199
 30
0.0
 11
26.11444722453621
 21
7.053396205493442
 31
0.0
  0
LINE
  5
12A5
330
11A4
100
AcDbEntity
  8
0
 62
     0
100
AcDbLine
 10
27.5211060909466
 20
8.460055071903838
 30
0.0
 11
28.92110609094661
 21
9.860055071903872
 31
0.0
  0
LINE
  5
12A6
330
11A4
100
AcDbEntity
  8
0
 62
     0
100
AcDbLine
 10
23.05860609094662
 20
3.99755507190386
 30
0.0
 11
24.03605088733138
 21
4.974999868288648
 31
0.0
  0
LINE
  5
12A7
330
11A4
100
AcDbEntity
  8
0
 62
     0
100
AcDbLine
 10
24.92397838481352
 20
6.311940171824261
 30
0.0
 11
25.9165116655723
 21
7.304473452583039
 31
0.0
  0
LINE
  5
12A8
330
11A4
100
AcDbEntity
  8
0
 62
     0
100
AcDbLine
 10
27.52110609094657
 20
8.909067877957312
 30
0.0
 11
28.92110609094661
 21
10.30906787795734
 31
0.0
  0
LINE
  5
12A9
330
11A4
100
AcDbEntity
  8
0
 62
     0
100
AcDbLine
 10
23.05860609094659
 20
4.446567877957335
 30
0.0
 11
23.58703808127793
 21
4.974999868288676
 31
0.0
  0
LINE
  5
12AA
330
11A4
100
AcDbEntity
  8
0
 62
     0
100
AcDbLine
 10
27.5211060909466
 20
9.358080684010758
 30
0.0
 11
28.92110609094663
 21
10.75808068401076
 31
0.0
  0
LINE
  5
12AB
330
11A4
100
AcDbEntity
  8
0
 62
     0
100
AcDbLine
 10
24.70334093625499
 20
6.540315529319116
 30
0.0
 11
25.69329042991614
 21
7.530265022980273
 31
0.0
  0
LINE
  5
12AC
330
11A4
100
AcDbEntity
  8
0
 62
     0
100
AcDbLine
 10
24.47883453322825
 20
6.764821932345853
 30
0.0
 11
25.46878402688941
 21
7.75477142600701
 31
0.0
  0
LINE
  5
12AD
330
11A4
100
AcDbEntity
  8
0
 62
     0
100
AcDbLine
 10
27.52110609094657
 20
9.807093490064204
 30
0.0
 11
28.92110609094661
 21
11.20709349006423
 31
0.0
  0
LINE
  5
12AE
330
11A4
100
AcDbEntity
  8
0
 62
     0
100
AcDbLine
 10
21.28901246917101
 20
3.574999868288642
 30
0.0
 11
21.74610609094659
 21
4.032093490064198
 31
0.0
  0
LINE
  5
12AF
330
11A4
100
AcDbEntity
  8
0
 62
     0
100
AcDbLine
 10
24.25432813020151
 20
6.98932833537259
 30
0.0
 11
25.24427762386267
 21
7.979277829033748
 31
0.0
  0
LINE
  5
12B0
330
11A4
100
AcDbEntity
  8
0
 62
     0
100
AcDbLine
 10
27.52110609094657
 20
10.25610629611767
 30
0.0
 11
28.82801563689728
 21
11.56301584206835
 31
0.0
  0
LINE
  5
12B1
330
11A4
100
AcDbEntity
  8
0
 62
     0
100
AcDbLine
 10
20.83999966311754
 20
3.574999868288642
 30
0.0
 11
21.74610609094662
 21
4.481106296117701
 31
0.0
  0
LINE
  5
12B2
330
11A4
100
AcDbEntity
  8
0
 62
     0
100
AcDbLine
 10
24.02982172717477
 20
7.213834738399327
 30
0.0
 11
25.01977122083593
 21
8.203784232060485
 31
0.0
  0
LINE
  5
12B3
330
11A4
100
AcDbEntity
  8
0
 62
     0
100
AcDbLine
 10
27.52110609094657
 20
10.70511910217112
 30
0.0
 11
28.44098685706413
 21
11.62499986828871
 31
0.0
  0
LINE
  5
12B4
330
11A4
100
AcDbEntity
  8
0
 62
     0
100
AcDbLine
 10
20.44679242599508
 20
3.630805437219635
 30
0.0
 11
21.74610609094659
 21
4.930119102171175
 31
0.0
  0
LINE
  5
12B5
330
11A4
100
AcDbEntity
  8
0
 62
     0
100
AcDbLine
 10
23.80531532414806
 20
7.438341141426036
 30
0.0
 11
24.79526481780922
 21
8.428290635087194
 31
0.0
  0
LINE
  5
12B6
330
11A4
100
AcDbEntity
  8
0
 62
     0
100
AcDbLine
 10
27.52110609094657
 20
11.15413190822457
 30
0.0
 11
27.99197405101071
 21
11.62499986828868
 31
0.0
  0
LINE
  5
12B7
330
11A4
100
AcDbEntity
  8
0
 62
     0
100
AcDbLine
 10
20.34610609094662
 20
3.979131908224616
 30
0.0
 11
21.74610609094662
 21
5.379131908224593
 31
0.0
  0
LINE
  5
12B8
330
11A4
100
AcDbEntity
  8
0
 62
     0
100
AcDbLine
 10
23.58080892112133
 20
7.662847544452773
 30
0.0
 11
24.57075841478248
 21
8.652797038113931
 31
0.0
  0
LINE
  5
12B9
330
11A4
100
AcDbEntity
  8
0
 62
     0
100
AcDbLine
 10
20.34610609094662
 20
4.42814471427809
 30
0.0
 11
21.74610609094659
 21
5.828144714278067
 31
0.0
  0
LINE
  5
12BA
330
11A4
100
AcDbEntity
  8
0
 62
     0
100
AcDbLine
 10
23.35731697060066
 20
7.888368399985608
 30
0.0
 11
24.34930373729168
 21
8.880355166676594
 31
0.0
  0
LINE
  5
12BB
330
11A4
100
AcDbEntity
  8
0
 62
     0
100
AcDbLine
 10
20.34610609094662
 20
4.877157520331536
 30
0.0
 11
21.74610609094659
 21
6.277157520331542
 31
0.0
  0
LINE
  5
12BC
330
11A4
100
AcDbEntity
  8
0
 62
     0
100
AcDbLine
 10
25.6939484389037
 20
10.22499986828864
 30
0.0
 11
26.20860609094663
 21
10.73965752033154
 31
0.0
  0
LINE
  5
12BD
330
11A4
100
AcDbEntity
  8
0
 62
     0
100
AcDbLine
 10
19.0997779785915
 20
3.63082940797642
 30
0.0
 11
19.14460415931901
 21
3.675655588703961
 31
0.0
  0
LINE
  5
12BE
330
11A4
100
AcDbEntity
  8
0
 62
     0
100
AcDbLine
 10
23.15831588118967
 20
8.138380116628042
 30
0.0
 11
24.20813301989898
 21
9.188197255337342
 31
0.0
  0
LINE
  5
12BF
330
11A4
100
AcDbEntity
  8
0
 62
     0
100
AcDbLine
 10
20.34610609094662
 20
5.326170326384982
 30
0.0
 11
21.74610609094662
 21
6.726170326384959
 31
0.0
  0
LINE
  5
12C0
330
11A4
100
AcDbEntity
  8
0
 62
     0
100
AcDbLine
 10
25.24493563285031
 20
10.22499986828867
 30
0.0
 11
26.20860609094663
 21
11.18867032638499
 31
0.0
  0
LINE
  5
12C1
330
11A4
100
AcDbEntity
  8
0
 62
     0
100
AcDbLine
 10
18.59493563285028
 20
3.574999868288642
 30
0.0
 11
19.12782518100354
 21
4.107889416441906
 31
0.0
  0
LINE
  5
12C2
330
11A4
100
AcDbEntity
  8
0
 62
     0
100
AcDbLine
 10
22.99539874899133
 20
8.424475790483171
 30
0.0
 11
24.19610609094667
 21
9.625183132438507
 31
0.0
  0
LINE
  5
12C3
330
11A4
100
AcDbEntity
  8
0
 62
     0
100
AcDbLine
 10
20.34610609094662
 20
5.775183132438428
 30
0.0
 11
21.74610609094659
 21
7.175183132438434
 31
0.0
  0
LINE
  5
12C4
330
11A4
100
AcDbEntity
  8
0
 62
     0
100
AcDbLine
 10
24.79592282679681
 20
10.22499986828864
 30
0.0
 11
26.12527162504767
 21
11.55434866653951
 31
0.0
  0
LINE
  5
12C5
330
11A4
100
AcDbEntity
  8
0
 62
     0
100
AcDbLine
 10
18.14592282679677
 20
3.574999868288614
 30
0.0
 11
19.0200621075507
 21
4.449139149042537
 31
0.0
  0
LINE
  5
12C6
330
11A4
100
AcDbEntity
  8
0
 62
     0
100
AcDbLine
 10
20.34610609094659
 20
6.224195938491902
 30
0.0
 11
21.74610609094659
 21
7.62419593849188
 31
0.0
  0
LINE
  5
12C7
330
11A4
100
AcDbEntity
  8
0
 62
     0
100
AcDbLine
 10
22.87370771765628
 20
8.751797565201599
 30
0.0
 11
25.74691002074337
 21
11.62499986828868
 31
0.0
  0
LINE
  5
12C8
330
11A4
100
AcDbEntity
  8
0
 62
     0
100
AcDbLine
 10
17.84991567146929
 20
3.728005519014601
 30
0.0
 11
18.91229903409785
 21
4.790388881643167
 31
0.0
  0
LINE
  5
12C9
330
11A4
100
AcDbEntity
  8
0
 62
     0
100
AcDbLine
 10
20.34610609094659
 20
6.673208744545377
 30
0.0
 11
21.74610609094656
 21
8.073208744545354
 31
0.0
  0
LINE
  5
12CA
330
11A4
100
AcDbEntity
  8
0
 62
     0
100
AcDbLine
 10
22.80435428811344
 20
9.131456941712229
 30
0.0
 11
25.29789721468992
 21
11.62499986828868
 31
0.0
  0
LINE
  5
12CB
330
11A4
100
AcDbEntity
  8
0
 62
     0
100
AcDbLine
 10
17.74053596064499
 20
4.067638614243776
 30
0.0
 11
18.80453596064501
 21
5.131638614243797
 31
0.0
  0
LINE
  5
12CC
330
11A4
100
AcDbEntity
  8
0
 62
     0
100
AcDbLine
 10
20.34610609094662
 20
7.122221550598794
 30
0.0
 11
21.74610609094659
 21
8.5222215505988
 31
0.0
  0
LINE
  5
12CD
330
11A4
100
AcDbEntity
  8
0
 62
     0
100
AcDbLine
 10
22.7961060909466
 20
9.572221550598783
 30
0.0
 11
24.84888440863648
 21
11.62499986828868
 31
0.0
  0
LINE
  5
12CE
330
11A4
100
AcDbEntity
  8
0
 62
     0
100
AcDbLine
 10
17.63277288719217
 20
4.408888346844378
 30
0.0
 11
18.69677288719222
 21
5.472888346844399
 31
0.0
  0
LINE
  5
12CF
330
11A4
100
AcDbEntity
  8
0
 62
     0
100
AcDbLine
 10
20.34610609094659
 20
7.571234356652269
 30
0.0
 11
21.74610609094659
 21
8.971234356652246
 31
0.0
  0
LINE
  5
12D0
330
11A4
100
AcDbEntity
  8
0
 62
     0
100
AcDbLine
 10
22.79610609094663
 20
10.02123435665228
 30
0.0
 11
24.39987160258303
 21
11.62499986828868
 31
0.0
  0
LINE
  5
12D1
330
11A4
100
AcDbEntity
  8
0
 62
     0
100
AcDbLine
 10
17.5250098137393
 20
4.75013807944498
 30
0.0
 11
18.5890098137394
 21
5.814138079445086
 31
0.0
  0
LINE
  5
12D2
330
11A4
100
AcDbEntity
  8
0
 62
     0
100
AcDbLine
 10
20.34610609094659
 20
8.020247162705715
 30
0.0
 11
21.74610609094662
 21
9.420247162705749
 31
0.0
  0
LINE
  5
12D3
330
11A4
100
AcDbEntity
  8
0
 62
     0
100
AcDbLine
 10
17.41724674028648
 20
5.091387812045638
 30
0.0
 11
18.48124674028653
 21
6.15538781204566
 31
0.0
  0
LINE
  5
12D4
330
11A4
100
AcDbEntity
  8
0
 62
     0
100
AcDbLine
 10
22.82276442600721
 20
10.49690549776636
 30
0.0
 11
23.92420046146887
 21
11.59834153322802
 31
0.0
  0
LINE
  5
12D5
330
11A4
100
AcDbEntity
  8
0
 62
     0
100
AcDbLine
 10
15.90085879652949
 20
3.574999868288642
 30
0.0
 11
16.32110609094658
 21
3.995247162705737
 31
0.0
  0
LINE
  5
12D6
330
11A4
100
AcDbEntity
  8
0
 62
     0
100
AcDbLine
 10
17.3094836668337
 20
5.43263754464624
 30
0.0
 11
18.37348366683372
 21
6.49663754464629
 31
0.0
  0
LINE
  5
12D7
330
11A4
100
AcDbEntity
  8
0
 62
     0
100
AcDbLine
 10
20.34610609094659
 20
8.46925996875916
 30
0.0
 11
21.74610609094662
 21
9.869259968759195
 31
0.0
  0
LINE
  5
12D8
330
11A4
100
AcDbEntity
  8
0
 62
     0
100
AcDbLine
 10
15.45184599047607
 20
3.574999868288614
 30
0.0
 11
16.32110609094661
 21
4.444259968759183
 31
0.0
  0
LINE
  5
12D9
330
11A4
100
AcDbEntity
  8
0
 62
     0
100
AcDbLine
 10
17.20172059338085
 20
5.773887277246871
 30
0.0
 11
18.26572059338087
 21
6.83788727724692
 31
0.0
  0
LINE
  5
12DA
330
11A4
100
AcDbEntity
  8
0
 62
     0
100
AcDbLine
 10
20.34610609094659
 20
8.918272774812635
 30
0.0
 11
21.74610609094662
 21
10.31827277481264
 31
0.0
  0
LINE
  5
12DB
330
11A4
100
AcDbEntity
  8
0
 62
     0
100
AcDbLine
 10
15.04340805824824
 20
3.61557474211429
 30
0.0
 11
16.32110609094661
 21
4.893272774812629
 31
0.0
  0
LINE
  5
12DC
330
11A4
100
AcDbEntity
  8
0
 62
     0
100
AcDbLine
 10
17.09395751992801
 20
6.115137009847501
 30
0.0
 11
18.15795751992803
 21
7.179137009847551
 31
0.0
  0
LINE
  5
12DD
330
11A4
100
AcDbEntity
  8
0
 62
     0
100
AcDbLine
 10
20.34610609094659
 20
9.367285580866081
 30
0.0
 11
21.74610609094659
 21
10.76728558086611
 31
0.0
  0
LINE
  5
12DE
330
11A4
100
AcDbEntity
  8
0
 62
     0
100
AcDbLine
 10
14.92110609094661
 20
3.942285580866098
 30
0.0
 11
16.32110609094664
 21
5.342285580866132
 31
0.0
  0
LINE
  5
12DF
330
11A4
100
AcDbEntity
  8
0
 62
     0
100
AcDbLine
 10
16.98619444647519
 20
6.456386742448103
 30
0.0
 11
18.05019444647527
 21
7.520386742448181
 31
0.0
  0
LINE
  5
12E0
330
11A4
100
AcDbEntity
  8
0
 62
     0
100
AcDbLine
 10
20.34610609094659
 20
9.816298386919527
 30
0.0
 11
21.74610609094662
 21
11.21629838691956
 31
0.0
  0
LINE
  5
12E1
330
11A4
100
AcDbEntity
  8
0
 62
     0
100
AcDbLine
 10
14.92110609094661
 20
4.391298386919544
 30
0.0
 11
16.32110609094664
 21
5.791298386919578
 31
0.0
  0
LINE
  5
12E2
330
11A4
100
AcDbEntity
  8
0
 62
     0
100
AcDbLine
 10
16.86879505298932
 20
6.788000155015737
 30
0.0
 11
18.18394208695477
 21
8.103147188981182
 31
0.0
  0
LINE
  5
12E3
330
11A4
100
AcDbEntity
  8
0
 62
     0
100
AcDbLine
 10
20.34610609094662
 20
10.26531119297303
 30
0.0
 11
21.6479683796974
 21
11.56717348172378
 31
0.0
  0
LINE
  5
12E4
330
11A4
100
AcDbEntity
  8
0
 62
     0
100
AcDbLine
 10
14.92110609094661
 20
4.840311192973018
 30
0.0
 11
16.32110609094664
 21
6.240311192973024
 31
0.0
  0
LINE
  5
12E5
330
11A4
100
AcDbEntity
  8
0
 62
     0
100
AcDbLine
 10
16.52520236805563
 20
6.893420276135515
 30
0.0
 11
18.39117876667177
 21
8.759396674751656
 31
0.0
  0
LINE
  5
12E6
330
11A4
100
AcDbEntity
  8
0
 62
     0
100
AcDbLine
 10
14.92110609094661
 20
5.289323999026464
 30
0.0
 11
16.32768568309975
 21
6.695903591179614
 31
0.0
  0
LINE
  5
12E7
330
11A4
100
AcDbEntity
  8
0
 62
     0
100
AcDbLine
 10
20.34610609094662
 20
10.71432399902647
 30
0.0
 11
21.25678196020879
 21
11.62499986828868
 31
0.0
  0
LINE
  5
12E8
330
11A4
100
AcDbEntity
  8
0
 62
     0
100
AcDbLine
 10
13.20678196020878
 20
3.574999868288642
 30
0.0
 11
13.69610609094661
 21
4.064323999026498
 31
0.0
  0
LINE
  5
12E9
330
11A4
100
AcDbEntity
  8
0
 62
     0
100
AcDbLine
 10
14.92110609094658
 20
5.738336805079939
 30
0.0
 11
18.59841544638874
 21
9.415646160522101
 31
0.0
  0
LINE
  5
12EA
330
11A4
100
AcDbEntity
  8
0
 62
     0
100
AcDbLine
 10
20.34610609094659
 20
11.16333680507995
 30
0.0
 11
20.80776915415532
 21
11.62499986828868
 31
0.0
  0
LINE
  5
12EB
330
11A4
100
AcDbEntity
  8
0
 62
     0
100
AcDbLine
 10
12.75776915415531
 20
3.574999868288671
 30
0.0
 11
13.69610609094664
 21
4.513336805080001
 31
0.0
  0
LINE
  5
12EC
330
11A4
100
AcDbEntity
  8
0
 62
     0
100
AcDbLine
 10
14.92110609094661
 20
6.187349611133356
 30
0.0
 11
18.80565212610579
 21
10.07189564629257
 31
0.0
  0
LINE
  5
12ED
330
11A4
100
AcDbEntity
  8
0
 62
     0
100
AcDbLine
 10
12.31459666027691
 20
3.580840180463695
 30
0.0
 11
13.62543894914352
 21
4.891682469330277
 31
0.0
  0
LINE
  5
12EE
330
11A4
100
AcDbEntity
  8
0
 62
     0
100
AcDbLine
 10
14.92110609094658
 20
6.63636241718683
 30
0.0
 11
16.58474354204841
 21
8.299999868288665
 31
0.0
  0
LINE
  5
12EF
330
11A4
100
AcDbEntity
  8
0
 62
     0
100
AcDbLine
 10
16.96673495966876
 20
8.68199128590902
 30
0.0
 11
19.01288880582276
 21
10.72814513206302
 31
0.0
  0
LINE
  5
12F0
330
11A4
100
AcDbEntity
  8
0
 62
     0
100
AcDbLine
 10
11.93051640155343
 20
3.645772727793655
 30
0.0
 11
13.25974354204839
 21
4.974999868288648
 31
0.0
  0
LINE
  5
12F1
330
11A4
100
AcDbEntity
  8
0
 62
     0
100
AcDbLine
 10
14.92110609094658
 20
7.085375223240305
 30
0.0
 11
16.33010137630074
 21
8.494370508594442
 31
0.0
  0
LINE
  5
12F2
330
11A4
100
AcDbEntity
  8
0
 62
     0
100
AcDbLine
 10
17.17397163938574
 20
9.338240771679437
 30
0.0
 11
19.20042453172342
 21
11.36469366401715
 31
0.0
  0
LINE
  5
12F3
330
11A4
100
AcDbEntity
  8
0
 62
     0
100
AcDbLine
 10
11.59994927314022
 20
3.76421840543395
 30
0.0
 11
12.81073073599495
 21
4.974999868288648
 31
0.0
  0
LINE
  5
12F4
330
11A4
100
AcDbEntity
  8
0
 62
     0
100
AcDbLine
 10
14.92110609094661
 20
7.534388029293722
 30
0.0
 11
16.32110609094661
 21
8.934388029293756
 31
0.0
  0
LINE
  5
12F5
330
11A4
100
AcDbEntity
  8
0
 62
     0
100
AcDbLine
 10
17.38120831910279
 20
9.994490257449939
 30
0.0
 11
19.00341859543883
 21
11.61670053378597
 31
0.0
  0
LINE
  5
12F6
330
11A4
100
AcDbEntity
  8
0
 62
     0
100
AcDbLine
 10
11.31114763105807
 20
3.924429569405191
 30
0.0
 11
12.3691785603045
 21
4.982460498651647
 31
0.0
  0
LINE
  5
12F7
330
11A4
100
AcDbEntity
  8
0
 62
     0
100
AcDbLine
 10
14.92110609094658
 20
7.983400835347197
 30
0.0
 11
16.32110609094661
 21
9.383400835347231
 31
0.0
  0
LINE
  5
12F8
330
11A4
100
AcDbEntity
  8
0
 62
     0
100
AcDbLine
 10
17.58844499881976
 20
10.65073974322035
 30
0.0
 11
18.56270512388803
 21
11.62499986828865
 31
0.0
  0
LINE
  5
12F9
330
11A4
100
AcDbEntity
  8
0
 62
     0
100
AcDbLine
 10
11.05867014786704
 20
4.120964892267636
 30
0.0
 11
12.05202048979535
 21
5.114315234195942
 31
0.0
  0
LINE
  5
12FA
330
11A4
100
AcDbEntity
  8
0
 62
     0
100
AcDbLine
 10
14.92110609094658
 20
8.432413641400643
 30
0.0
 11
16.32110609094661
 21
9.832413641400677
 31
0.0
  0
LINE
  5
12FB
330
11A4
100
AcDbEntity
  8
0
 62
     0
100
AcDbLine
 10
13.25192315683483
 20
6.763230707288926
 30
0.0
 11
13.83287525194637
 21
7.344182802400467
 31
0.0
  0
LINE
  5
12FC
330
11A4
100
AcDbEntity
  8
0
 62
     0
100
AcDbLine
 10
17.7956816785367
 20
11.3069892289908
 30
0.0
 11
18.11369231783461
 21
11.62499986828871
 31
0.0
  0
LINE
  5
12FD
330
11A4
100
AcDbEntity
  8
0
 62
     0
100
AcDbLine
 10
10.84045161120212
 20
4.351759161656218
 30
0.0
 11
11.84689501415926
 21
5.35820256461335
 31
0.0
  0
LINE
  5
12FE
330
11A4
100
AcDbEntity
  8
0
 62
     0
100
AcDbLine
 10
12.78943673601992
 20
6.749757092527488
 30
0.0
 11
13.84634886670781
 21
7.806669223215351
 31
0.0
  0
LINE
  5
12FF
330
11A4
100
AcDbEntity
  8
0
 62
     0
100
AcDbLine
 10
14.92110609094661
 20
8.881426447454146
 30
0.0
 11
16.32110609094664
 21
10.28142644745418
 31
0.0
  0
LINE
  5
1300
330
11A4
100
AcDbEntity
  8
0
 62
     0
100
AcDbLine
 10
10.65694199873064
 20
4.617262355238182
 30
0.0
 11
11.7711060909466
 21
5.731426447454168
 31
0.0
  0
LINE
  5
1301
330
11A4
100
AcDbEntity
  8
0
 62
     0
100
AcDbLine
 10
12.48236345130982
 20
6.891696613870777
 30
0.0
 11
13.70440934536449
 21
8.113742507925479
 31
0.0
  0
LINE
  5
1302
330
11A4
100
AcDbEntity
  8
0
 62
     0
100
AcDbLine
 10
14.92110609094661
 20
9.330439253507591
 30
0.0
 11
16.32110609094664
 21
10.73043925350762
 31
0.0
  0
LINE
  5
1303
330
11A4
100
AcDbEntity
  8
0
 62
     0
100
AcDbLine
 10
10.51128324376827
 20
4.920616406329259
 30
0.0
 11
11.7711060909466
 21
6.180439253507586
 31
0.0
  0
LINE
  5
1304
330
11A4
100
AcDbEntity
  8
0
 62
     0
100
AcDbLine
 10
12.26338348781496
 20
7.12172945642942
 30
0.0
 11
13.47437650280588
 21
8.332722471420311
 31
0.0
  0
LINE
  5
1305
330
11A4
100
AcDbEntity
  8
0
 62
     0
100
AcDbLine
 10
14.92110609094661
 20
9.779452059561066
 30
0.0
 11
16.32110609094664
 21
11.17945205956107
 31
0.0
  0
LINE
  5
1306
330
11A4
100
AcDbEntity
  8
0
 62
     0
100
AcDbLine
 10
10.41071456168094
 20
5.269060530295405
 30
0.0
 11
11.7711060909466
 21
6.62945205956106
 31
0.0
  0
LINE
  5
1307
330
11A4
100
AcDbEntity
  8
0
 62
     0
100
AcDbLine
 10
12.13535812161077
 20
7.442716896278682
 30
0.0
 11
13.15338906295659
 21
8.460747837624523
 31
0.0
  0
LINE
  5
1308
330
11A4
100
AcDbEntity
  8
0
 62
     0
100
AcDbLine
 10
10.37110609094656
 20
5.6784648656145
 30
0.0
 11
11.7711060909466
 21
7.078464865614506
 31
0.0
  0
LINE
  5
1309
330
11A4
100
AcDbEntity
  8
0
 62
     0
100
AcDbLine
 10
14.92110609094661
 20
10.22846486561451
 30
0.0
 11
16.24248103676904
 21
11.54983981143698
 31
0.0
  0
LINE
  5
130A
330
11A4
100
AcDbEntity
  8
0
 62
     0
100
AcDbLine
 10
8.328107712008772
 20
3.635466486676705
 30
0.0
 11
9.260639472558636
 21
4.567998247226569
 31
0.0
  0
LINE
  5
130B
330
11A4
100
AcDbEntity
  8
0
 62
     0
100
AcDbLine
 10
12.19456466335117
 20
7.950936244072522
 30
0.0
 11
12.64516971516278
 21
8.401541295884129
 31
0.0
  0
LINE
  5
130C
330
11A4
100
AcDbEntity
  8
0
 62
     0
100
AcDbLine
 10
10.37110609094656
 20
6.127477671667918
 30
0.0
 11
11.7711060909466
 21
7.527477671667952
 31
0.0
  0
LINE
  5
130D
330
11A4
100
AcDbEntity
  8
0
 62
     0
100
AcDbLine
 10
14.92110609094661
 20
10.67747767166795
 30
0.0
 11
15.8686282875673
 21
11.62499986828865
 31
0.0
  0
LINE
  5
130E
330
11A4
100
AcDbEntity
  8
0
 62
     0
100
AcDbLine
 10
7.818628287567293
 20
3.574999868288642
 30
0.0
 11
9.321106090946614
 21
5.077477671667963
 31
0.0
  0
LINE
  5
130F
330
11A4
100
AcDbEntity
  8
0
 62
     0
100
AcDbLine
 10
10.37110609094656
 20
6.576490477721392
 30
0.0
 11
11.7711060909466
 21
7.976490477721426
 31
0.0
  0
LINE
  5
1310
330
11A4
100
AcDbEntity
  8
0
 62
     0
100
AcDbLine
 10
14.92110609094661
 20
11.1264904777214
 30
0.0
 11
15.41961548151386
 21
11.62499986828868
 31
0.0
  0
LINE
  5
1311
330
11A4
100
AcDbEntity
  8
0
 62
     0
100
AcDbLine
 10
7.36961548151379
 20
3.574999868288614
 30
0.0
 11
9.321106090946614
 21
5.526490477721438
 31
0.0
  0
LINE
  5
1312
330
11A4
100
AcDbEntity
  8
0
 62
     0
100
AcDbLine
 10
10.37110609094656
 20
7.025503283774838
 30
0.0
 11
11.77110609094657
 21
8.425503283774872
 31
0.0
  0
LINE
  5
1313
330
11A4
100
AcDbEntity
  8
0
 62
     0
100
AcDbLine
 10
6.920602675460372
 20
3.574999868288671
 30
0.0
 11
9.319136414666019
 21
5.973533607494317
 31
0.0
  0
LINE
  5
1314
330
11A4
100
AcDbEntity
  8
0
 62
     0
100
AcDbLine
 10
10.37110609094656
 20
7.474516089828313
 30
0.0
 11
11.7711060909466
 21
8.874516089828347
 31
0.0
  0
LINE
  5
1315
330
11A4
100
AcDbEntity
  8
0
 62
     0
100
AcDbLine
 10
13.12158986940696
 20
10.2249998682887
 30
0.0
 11
13.69610609094667
 21
10.79951608982841
 31
0.0
  0
LINE
  5
1316
330
11A4
100
AcDbEntity
  8
0
 62
     0
100
AcDbLine
 10
6.471589869406898
 20
3.574999868288642
 30
0.0
 11
9.264305496505357
 21
6.367715495387102
 31
0.0
  0
LINE
  5
1317
330
11A4
100
AcDbEntity
  8
0
 62
     0
100
AcDbLine
 10
10.37110609094656
 20
7.923528895881759
 30
0.0
 11
11.7711060909466
 21
9.323528895881764
 31
0.0
  0
LINE
  5
1318
330
11A4
100
AcDbEntity
  8
0
 62
     0
100
AcDbLine
 10
7.921106090946608
 20
5.473528895881798
 30
0.0
 11
9.153136124483296
 21
6.705558929418486
 31
0.0
  0
LINE
  5
1319
330
11A4
100
AcDbEntity
  8
0
 62
     0
100
AcDbLine
 10
12.67257706335345
 20
10.22499986828864
 30
0.0
 11
13.69610609094667
 21
11.24852889588183
 31
0.0
  0
LINE
  5
131A
330
11A4
100
AcDbEntity
  8
0
 62
     0
100
AcDbLine
 10
6.051440000983433
 20
3.603862805918623
 30
0.0
 11
7.422577063353458
 21
4.974999868288648
 31
0.0
  0
LINE
  5
131B
330
11A4
100
AcDbEntity
  8
0
 62
     0
100
AcDbLine
 10
10.37110609094654
 20
8.372541701935205
 30
0.0
 11
11.85401344383643
 21
9.855449054825101
 31
0.0
  0
LINE
  5
131C
330
11A4
100
AcDbEntity
  8
0
 62
     0
100
AcDbLine
 10
7.920026545141979
 20
5.921462156130615
 30
0.0
 11
8.998920357147284
 21
7.000355968135949
 31
0.0
  0
LINE
  5
131D
330
11A4
100
AcDbEntity
  8
0
 62
     0
100
AcDbLine
 10
12.1406569044102
 20
10.14209251539887
 30
0.0
 11
13.57937238348671
 21
11.58080799447535
 31
0.0
  0
LINE
  5
131E
330
11A4
100
AcDbEntity
  8
0
 62
     0
100
AcDbLine
 10
5.908606090946619
 20
3.910041701935256
 30
0.0
 11
6.973564257300012
 21
4.974999868288648
 31
0.0
  0
LINE
  5
131F
330
11A4
100
AcDbEntity
  8
0
 62
     0
100
AcDbLine
 10
7.810225035391624
 20
6.260673452433763
 30
0.0
 11
8.807799374727835
 21
7.258247791769974
 31
0.0
  0
LINE
  5
1320
330
11A4
100
AcDbEntity
  8
0
 62
     0
100
AcDbLine
 10
10.37110609094654
 20
8.821554507988679
 30
0.0
 11
13.17455145124657
 21
11.62499986828871
 31
0.0
  0
LINE
  5
1321
330
11A4
100
AcDbEntity
  8
0
 62
     0
100
AcDbLine
 10
5.908606090946591
 20
4.35905450798873
 30
0.0
 11
6.524551451246537
 21
4.974999868288676
 31
0.0
  0
LINE
  5
1322
330
11A4
100
AcDbEntity
  8
0
 62
     0
100
AcDbLine
 10
7.597097621239271
 20
6.496558844334828
 30
0.0
 11
8.587047114900457
 21
7.486508337996014
 31
0.0
  0
LINE
  5
1323
330
11A4
100
AcDbEntity
  8
0
 62
     0
100
AcDbLine
 10
10.37110609094656
 20
9.270567314042096
 30
0.0
 11
12.72553864519304
 21
11.62499986828859
 31
0.0
  0
LINE
  5
1324
330
11A4
100
AcDbEntity
  8
0
 62
     0
100
AcDbLine
 10
5.94308205195648
 20
4.842543275052037
 30
0.0
 11
6.041062684183287
 21
4.940523907278844
 31
0.0
  0
LINE
  5
1325
330
11A4
100
AcDbEntity
  8
0
 62
     0
100
AcDbLine
 10
10.38109364802485
 20
9.729567677173861
 30
0.0
 11
12.26653828206136
 21
11.61501231121039
 31
0.0
  0
LINE
  5
1326
330
11A4
100
AcDbEntity
  8
0
 62
     0
100
AcDbLine
 10
7.372591218212534
 20
6.721065247361565
 30
0.0
 11
8.36254071187372
 21
7.711014741022751
 31
0.0
  0
LINE
  5
1327
330
11A4
100
AcDbEntity
  8
0
 62
     0
100
AcDbLine
 10
10.53082536415774
 20
10.32831219936025
 30
0.0
 11
11.66779375987499
 21
11.4652805950775
 31
0.0
  0
LINE
  5
1328
330
11A4
100
AcDbEntity
  8
0
 62
     0
100
AcDbLine
 10
7.148084815185796
 20
6.945571650388302
 30
0.0
 11
8.138034308846982
 21
7.935521144049488
 31
0.0
  0
LINE
  5
1329
330
11A4
100
AcDbEntity
  8
0
 62
     0
100
AcDbLine
 10
6.923578412159088
 20
7.170078053415011
 30
0.0
 11
7.913527905820245
 21
8.16002754707614
 31
0.0
  0
LINE
  5
132A
330
11A4
100
AcDbEntity
  8
0
 62
     0
100
AcDbLine
 10
6.699072009132351
 20
7.394584456441748
 30
0.0
 11
7.689021502793508
 21
8.384533950102877
 31
0.0
  0
LINE
  5
132B
330
11A4
100
AcDbEntity
  8
0
 62
     0
100
AcDbLine
 10
6.474565606105613
 20
7.619090859468485
 30
0.0
 11
7.464515099766771
 21
8.609040353129614
 31
0.0
  0
LINE
  5
132C
330
11A4
100
AcDbEntity
  8
0
 62
     0
100
AcDbLine
 10
8.631461808872359
 20
10.2249998682887
 30
0.0
 11
9.05860609094654
 21
10.65214415036288
 31
0.0
  0
LINE
  5
132D
330
11A4
100
AcDbEntity
  8
0
 62
     0
100
AcDbLine
 10
6.250100860092942
 20
7.843638919509288
 30
0.0
 11
7.240133681809169
 21
8.833671741225515
 31
0.0
  0
LINE
  5
132E
330
11A4
100
AcDbEntity
  8
0
 62
     0
100
AcDbLine
 10
8.182449002818884
 20
10.22499986828864
 30
0.0
 11
9.058606090946597
 21
11.10115695641636
 31
0.0
  0
LINE
  5
132F
330
11A4
100
AcDbEntity
  8
0
 62
     0
100
AcDbLine
 10
6.044366897817155
 20
8.086917763286891
 30
0.0
 11
7.0751852411652
 21
9.117736106634964
 31
0.0
  0
LINE
  5
1330
330
11A4
100
AcDbEntity
  8
0
 62
     0
100
AcDbLine
 10
7.73343619676541
 20
10.22499986828864
 30
0.0
 11
9.015326641066025
 21
11.50689031258926
 31
0.0
  0
LINE
  5
1331
330
11A4
100
AcDbEntity
  8
0
 62
     0
100
AcDbLine
 10
5.874136594685921
 20
8.365700266209131
 30
0.0
 11
7.046106090946636
 21
9.537669762469846
 31
0.0
  0
LINE
  5
1332
330
11A4
100
AcDbEntity
  8
0
 62
     0
100
AcDbLine
 10
7.283190066126906
 20
10.22376654370358
 30
0.0
 11
8.684423390711998
 21
11.62499986828868
 31
0.0
  0
LINE
  5
1333
330
11A4
100
AcDbEntity
  8
0
 62
     0
100
AcDbLine
 10
5.743789946819873
 20
8.684366424396557
 30
0.0
 11
7.047339415531666
 21
9.987915893108379
 31
0.0
  0
LINE
  5
1334
330
11A4
100
AcDbEntity
  8
0
 62
     0
100
AcDbLine
 10
5.66288396569584
 20
9.05247324932597
 30
0.0
 11
8.235410584658552
 21
11.62499986828868
 31
0.0
  0
LINE
  5
1335
330
11A4
100
AcDbEntity
  8
0
 62
     0
100
AcDbLine
 10
5.646106090946631
 20
9.484708180630235
 30
0.0
 11
7.786397778605078
 21
11.62499986828868
 31
0.0
  0
LINE
  5
1336
330
11A4
100
AcDbEntity
  8
0
 62
     0
100
AcDbLine
 10
5.646106090946631
 20
9.933720986683681
 30
0.0
 11
7.337384972551632
 21
11.62499986828868
 31
0.0
  0
LINE
  5
1337
330
11A4
100
AcDbEntity
  8
0
 62
     0
100
AcDbLine
 10
5.656202096165742
 20
10.39282979795626
 30
0.0
 11
6.878276161279046
 21
11.61490386306957
 31
0.0
  0
ENDBLK
  5
1339
330
11A4
100
AcDbEntity
  8
0
100
AcDbBlockEnd
  0
BLOCK
  5
172D
330
1723
100
AcDbEntity
  8
0
100
AcDbBlockBegin
  2
*D7
 70
     1
 10
0.0
 20
0.0
 30
0.0
  3
*D7
  1

  0
LINE
  5
1E24
330
1723
100
AcDbEntity
  8
SUNPOU
100
AcDbLine
 10
168.1212072430553
 20
223.9440169748243
 30
0.0
 11
192.7684561871153
 21
223.9440169748242
 31
0.0
  0
LINE
  5
1E25
330
1723
100
AcDbEntity
  8
SUNPOU
100
AcDbLine
 10
168.1212072430553
 20
248.9440169748242
 30
0.0
 11
192.7684561871153
 21
248.9440169748242
 31
0.0
  0
LINE
  5
1E26
330
1723
100
AcDbEntity
  8
SUNPOU
100
AcDbLine
 10
191.2684561871153
 20
226.9440169748242
 30
0.0
 11
191.2684561871153
 21
245.9440169748242
 31
0.0
  0
INSERT
  5
1E27
330
1723
100
AcDbEntity
  8
SUNPOU
100
AcDbBlockReference
  2
_OPEN
 10
191.2684561871153
 20
223.9440169748243
 30
0.0
 41
3.0
 42
3.0
 43
3.0
 50
270.0
  0
INSERT
  5
1E28
330
1723
100
AcDbEntity
  8
SUNPOU
100
AcDbBlockReference
  2
_OPEN
 10
191.2684561871153
 20
248.9440169748242
 30
0.0
 41
3.0
 42
3.0
 43
3.0
 50
90.0
  0
MTEXT
  5
1E29
330
1723
100
AcDbEntity
  8
SUNPOU
100
AcDbMText
 10
188.7684561871153
 20
236.4440169748243
 30
0.0
 40
3.0
 41
0.0
 71
     5
 72
     1
  1
\A1;25
 11
0.0000000000000001
 21
1.0
 31
0.0
1001
ACAD
1000
MTEXTBEGIN
1070
    73
1070
     1
1070
    44
1040
1.0
1070
    74
1070
     0
1000
MTEXTEND
  0
POINT
  5
1E2A
330
1723
100
AcDbEntity
  8
DEFPOINTS
 62
     0
100
AcDbPoint
 10
166.1212072430553
 20
223.9440169748243
 30
0.0
  0
POINT
  5
1E2B
330
1723
100
AcDbEntity
  8
DEFPOINTS
 62
     0
100
AcDbPoint
 10
166.1212072430553
 20
248.9440169748242
 30
0.0
  0
POINT
  5
1E2C
330
1723
100
AcDbEntity
  8
DEFPOINTS
 62
     0
100
AcDbPoint
 10
191.2684561871153
 20
248.9440169748242
 30
0.0
  0
ENDBLK
  5
172E
330
1723
100
AcDbEntity
  8
0
100
AcDbBlockEnd
  0
BLOCK
  5
1739
330
172F
100
AcDbEntity
  8
0
100
AcDbBlockBegin
  2
*D8
 70
     1
 10
0.0
 20
0.0
 30
0.0
  3
*D8
  1

  0
LINE
  5
1E2D
330
172F
100
AcDbEntity
  8
SUNPOU
100
AcDbLine
 10
168.1212072430553
 20
228.9440169748242
 30
0.0
 11
184.3085148385862
 21
228.9440169748242
 31
0.0
  0
LINE
  5
1E2E
330
172F
100
AcDbEntity
  8
SUNPOU
100
AcDbLine
 10
168.1212072430553
 20
243.9440169748242
 30
0.0
 11
184.3085148385862
 21
243.9440169748242
 31
0.0
  0
LINE
  5
1E2F
330
172F
100
AcDbEntity
  8
SUNPOU
100
AcDbLine
 10
182.8085148385862
 20
231.9440169748243
 30
0.0
 11
182.8085148385862
 21
240.9440169748243
 31
0.0
  0
INSERT
  5
1E30
330
172F
100
AcDbEntity
  8
SUNPOU
100
AcDbBlockReference
  2
_OPEN
 10
182.8085148385862
 20
228.9440169748242
 30
0.0
 41
3.0
 42
3.0
 43
3.0
 50
270.0
  0
INSERT
  5
1E31
330
172F
100
AcDbEntity
  8
SUNPOU
100
AcDbBlockReference
  2
_OPEN
 10
182.8085148385862
 20
243.9440169748242
 30
0.0
 41
3.0
 42
3.0
 43
3.0
 50
90.0
  0
MTEXT
  5
1E32
330
172F
100
AcDbEntity
  8
SUNPOU
100
AcDbMText
 10
180.3085148385862
 20
236.4440169748243
 30
0.0
 40
3.0
 41
0.0
 71
     5
 72
     1
  1
\A1;15
 11
0.0000000000000001
 21
1.0
 31
0.0
1001
ACAD
1000
MTEXTBEGIN
1070
    73
1070
     1
1070
    44
1040
1.0
1070
    74
1070
     0
1000
MTEXTEND
  0
POINT
  5
1E33
330
172F
100
AcDbEntity
  8
DEFPOINTS
 62
     0
100
AcDbPoint
 10
166.1212072430553
 20
228.9440169748242
 30
0.0
  0
POINT
  5
1E34
330
172F
100
AcDbEntity
  8
DEFPOINTS
 62
     0
100
AcDbPoint
 10
166.1212072430553
 20
243.9440169748242
 30
0.0
  0
POINT
  5
1E35
330
172F
100
AcDbEntity
  8
DEFPOINTS
 62
     0
100
AcDbPoint
 10
182.8085148385862
 20
243.9440169748242
 30
0.0
  0
ENDBLK
  5
173A
330
172F
100
AcDbEntity
  8
0
100
AcDbBlockEnd
  0
BLOCK
  5
1759
330
174F
100
AcDbEntity
  8
0
100
AcDbBlockBegin
  2
*D9
 70
     1
 10
0.0
 20
0.0
 30
0.0
  3
*D9
  1

  0
LINE
  5
1DF5
330
174F
100
AcDbEntity
  8
SUNPOU
100
AcDbLine
 10
146.8712072430555
 20
171.9629371880503
 30
0.0
 11
192.7684561871154
 21
171.9629371880503
 31
0.0
  0
LINE
  5
1DF6
330
174F
100
AcDbEntity
  8
SUNPOU
100
AcDbLine
 10
135.8712072430553
 20
57.51488157078518
 30
0.0
 11
192.7684561871153
 21
57.51488157078515
 31
0.0
  0
LINE
  5
1DF7
330
174F
100
AcDbEntity
  8
SUNPOU
100
AcDbLine
 10
191.2684561871153
 20
168.9629371880503
 30
0.0
 11
191.2684561871153
 21
60.51488157078516
 31
0.0
  0
INSERT
  5
1DF8
330
174F
100
AcDbEntity
  8
SUNPOU
100
AcDbBlockReference
  2
_OPEN
 10
191.2684561871153
 20
171.9629371880503
 30
0.0
 41
3.0
 42
3.0
 43
3.0
 50
90.0
  0
INSERT
  5
1DF9
330
174F
100
AcDbEntity
  8
SUNPOU
100
AcDbBlockReference
  2
_OPEN
 10
191.2684561871153
 20
57.51488157078516
 30
0.0
 41
3.0
 42
3.0
 43
3.0
 50
270.0
  0
MTEXT
  5
1DFA
330
174F
100
AcDbEntity
  8
SUNPOU
100
AcDbMText
 10
188.7684561871153
 20
114.7389093794177
 30
0.0
 40
3.0
 41
0.0
 71
     5
 72
     1
  1
\A1;114
 11
0.0000000000000001
 21
1.0
 31
0.0
1001
ACAD
1000
MTEXTBEGIN
1070
    73
1070
     1
1070
    44
1040
1.0
1070
    74
1070
     0
1000
MTEXTEND
  0
POINT
  5
1DFB
330
174F
100
AcDbEntity
  8
DEFPOINTS
 62
     0
100
AcDbPoint
 10
144.8712072430555
 20
171.9629371880503
 30
0.0
  0
POINT
  5
1DFC
330
174F
100
AcDbEntity
  8
DEFPOINTS
 62
     0
100
AcDbPoint
 10
133.8712072430553
 20
57.51488157078518
 30
0.0
  0
POINT
  5
1DFD
330
174F
100
AcDbEntity
  8
DEFPOINTS
 62
     0
100
AcDbPoint
 10
191.2684561871153
 20
57.51488157078516
 30
0.0
  0
ENDBLK
  5
175A
330
174F
100
AcDbEntity
  8
0
100
AcDbBlockEnd
  0
BLOCK
  5
1765
330
175B
100
AcDbEntity
  8
0
100
AcDbBlockBegin
  2
*D10
 70
     1
 10
0.0
 20
0.0
 30
0.0
  3
*D10
  1

  0
LINE
  5
1DFE
330
175B
100
AcDbEntity
  8
SUNPOU
100
AcDbLine
 10
140.8712072430555
 20
171.9629371880503
 30
0.0
 11
184.3085148385862
 21
171.9629371880503
 31
0.0
  0
LINE
  5
1DFF
330
175B
100
AcDbEntity
  8
SUNPOU
100
AcDbLine
 10
141.383084540766
 20
128.9629371880504
 30
0.0
 11
184.3085148385862
 21
128.9629371880504
 31
0.0
  0
LINE
  5
1E00
330
175B
100
AcDbEntity
  8
SUNPOU
100
AcDbLine
 10
182.8085148385862
 20
168.9629371880503
 30
0.0
 11
182.8085148385862
 21
131.9629371880504
 31
0.0
  0
INSERT
  5
1E01
330
175B
100
AcDbEntity
  8
SUNPOU
100
AcDbBlockReference
  2
_OPEN
 10
182.8085148385862
 20
171.9629371880503
 30
0.0
 41
3.0
 42
3.0
 43
3.0
 50
90.0
  0
INSERT
  5
1E02
330
175B
100
AcDbEntity
  8
SUNPOU
100
AcDbBlockReference
  2
_OPEN
 10
182.8085148385862
 20
128.9629371880504
 30
0.0
 41
3.0
 42
3.0
 43
3.0
 50
270.0
  0
MTEXT
  5
1E03
330
175B
100
AcDbEntity
  8
SUNPOU
100
AcDbMText
 10
180.3085148385862
 20
150.4629371880504
 30
0.0
 40
3.0
 41
0.0
 71
     5
 72
     1
  1
\A1;43
 11
0.0000000000000001
 21
1.0
 31
0.0
1001
ACAD
1000
MTEXTBEGIN
1070
    73
1070
     1
1070
    44
1040
1.0
1070
    74
1070
     0
1000
MTEXTEND
  0
POINT
  5
1E04
330
175B
100
AcDbEntity
  8
DEFPOINTS
 62
     0
100
AcDbPoint
 10
138.8712072430555
 20
171.9629371880503
 30
0.0
  0
POINT
  5
1E05
330
175B
100
AcDbEntity
  8
DEFPOINTS
 62
     0
100
AcDbPoint
 10
139.383084540766
 20
128.9629371880504
 30
0.0
  0
POINT
  5
1E06
330
175B
100
AcDbEntity
  8
DEFPOINTS
 62
     0
100
AcDbPoint
 10
182.8085148385862
 20
128.9629371880504
 30
0.0
  0
ENDBLK
  5
1766
330
175B
100
AcDbEntity
  8
0
100
AcDbBlockEnd
  0
BLOCK
  5
19FD
330
19F1
100
AcDbEntity
  8
0
100
AcDbBlockBegin
  2
*D11
 70
     1
 10
0.0
 20
0.0
 30
0.0
  3
*D11
  1

  0
LINE
  5
1E19
330
19F1
100
AcDbEntity
  8
SUNPOU
100
AcDbLine
 10
130.8712072430553
 20
173.9629371880503
 30
0.0
 11
130.8712072430553
 21
189.3212154112718
 31
0.0
  0
LINE
  5
1E1A
330
19F1
100
AcDbEntity
  8
SUNPOU
100
AcDbLine
 10
136.8712072430553
 20
173.9629371880503
 30
0.0
 11
136.8712072430553
 21
189.3212154112718
 31
0.0
  0
LINE
  5
1E1B
330
19F1
100
AcDbEntity
  8
SUNPOU
100
AcDbLine
 10
127.8712072430553
 20
187.8212154112718
 30
0.0
 11
124.8712072430553
 21
187.8212154112718
 31
0.0
  0
LINE
  5
1E1C
330
19F1
100
AcDbEntity
  8
SUNPOU
100
AcDbLine
 10
139.8712072430553
 20
187.8212154112718
 30
0.0
 11
142.8712072430553
 21
187.8212154112718
 31
0.0
  0
LINE
  5
1E1D
330
19F1
100
AcDbEntity
  8
SUNPOU
100
AcDbLine
 10
130.8712072430553
 20
187.8212154112718
 30
0.0
 11
136.8712072430553
 21
187.8212154112718
 31
0.0
  0
INSERT
  5
1E1E
330
19F1
100
AcDbEntity
  8
SUNPOU
100
AcDbBlockReference
  2
_OPEN
 10
130.8712072430553
 20
187.8212154112718
 30
0.0
 41
3.0
 42
3.0
 43
3.0
  0
INSERT
  5
1E1F
330
19F1
100
AcDbEntity
  8
SUNPOU
100
AcDbBlockReference
  2
_OPEN
 10
136.8712072430553
 20
187.8212154112718
 30
0.0
 41
3.0
 42
3.0
 43
3.0
 50
180.0
  0
MTEXT
  5
1E20
330
19F1
100
AcDbEntity
  8
SUNPOU
100
AcDbMText
 10
133.8712072430553
 20
190.3212154112718
 30
0.0
 40
3.0
 41
0.0
 71
     5
 72
     1
  1
\A1;6
1001
ACAD
1000
MTEXTBEGIN
1070
    73
1070
     1
1070
    44
1040
1.0
1070
    74
1070
     0
1000
MTEXTEND
  0
POINT
  5
1E21
330
19F1
100
AcDbEntity
  8
DEFPOINTS
 62
     0
100
AcDbPoint
 10
130.8712072430553
 20
171.9629371880503
 30
0.0
  0
POINT
  5
1E22
330
19F1
100
AcDbEntity
  8
DEFPOINTS
 62
     0
100
AcDbPoint
 10
136.8712072430553
 20
171.9629371880503
 30
0.0
  0
POINT
  5
1E23
330
19F1
100
AcDbEntity
  8
DEFPOINTS
 62
     0
100
AcDbPoint
 10
136.8712072430553
 20
187.8212154112718
 30
0.0
  0
ENDBLK
  5
19FE
330
19F1
100
AcDbEntity
  8
0
100
AcDbBlockEnd
  0
BLOCK
  5
1A14
330
1A0A
100
AcDbEntity
  8
0
100
AcDbBlockBegin
  2
*D12
 70
     1
 10
0.0
 20
0.0
 30
0.0
  3
*D12
  1

  0
LINE
  5
1E3F
330
1A0A
100
AcDbEntity
  8
SUNPOU
100
AcDbLine
 10
251.9024482389399
 20
165.9629371880503
 30
0.0
 11
251.9024482389399
 21
189.3212154112718
 31
0.0
  0
LINE
  5
1E40
330
1A0A
100
AcDbEntity
  8
SUNPOU
100
AcDbLine
 10
276.9024482389399
 20
165.9629371880504
 30
0.0
 11
276.9024482389399
 21
189.3212154112718
 31
0.0
  0
LINE
  5
1E41
330
1A0A
100
AcDbEntity
  8
SUNPOU
100
AcDbLine
 10
254.9024482389399
 20
187.8212154112718
 30
0.0
 11
273.90244823894
 21
187.8212154112718
 31
0.0
  0
INSERT
  5
1E42
330
1A0A
100
AcDbEntity
  8
SUNPOU
100
AcDbBlockReference
  2
_OPEN
 10
251.9024482389399
 20
187.8212154112718
 30
0.0
 41
3.0
 42
3.0
 43
3.0
 50
180.0
  0
INSERT
  5
1E43
330
1A0A
100
AcDbEntity
  8
SUNPOU
100
AcDbBlockReference
  2
_OPEN
 10
276.9024482389399
 20
187.8212154112718
 30
0.0
 41
3.0
 42
3.0
 43
3.0
  0
MTEXT
  5
1E44
330
1A0A
100
AcDbEntity
  8
SUNPOU
100
AcDbMText
 10
264.4024482389399
 20
190.3212154112718
 30
0.0
 40
3.0
 41
0.0
 71
     5
 72
     1
  1
\A1;25
1001
ACAD
1000
MTEXTBEGIN
1070
    73
1070
     1
1070
    44
1040
1.0
1070
    74
1070
     0
1000
MTEXTEND
  0
POINT
  5
1E45
330
1A0A
100
AcDbEntity
  8
DEFPOINTS
 62
     0
100
AcDbPoint
 10
251.9024482389399
 20
163.9629371880503
 30
0.0
  0
POINT
  5
1E46
330
1A0A
100
AcDbEntity
  8
DEFPOINTS
 62
     0
100
AcDbPoint
 10
276.9024482389399
 20
163.9629371880504
 30
0.0
  0
POINT
  5
1E47
330
1A0A
100
AcDbEntity
  8
DEFPOINTS
 62
     0
100
AcDbPoint
 10
276.9024482389399
 20
187.8212154112718
 30
0.0
  0
ENDBLK
  5
1A15
330
1A0A
100
AcDbEntity
  8
0
100
AcDbBlockEnd
  0
BLOCK
  5
1B43
330
1B37
100
AcDbEntity
  8
0
100
AcDbBlockBegin
  2
*D13
 70
     1
 10
0.0
 20
0.0
 30
0.0
  3
*D13
  1

  0
LINE
  5
1E07
330
1B37
100
AcDbEntity
  8
SUNPOU
100
AcDbLine
 10
158.8209348689004
 20
108.0607012840571
 30
0.0
 11
156.0741758642202
 21
106.8543369235888
 31
0.0
  0
LINE
  5
1E08
330
1B37
100
AcDbEntity
  8
SUNPOU
100
AcDbLine
 10
166.1456255480477
 20
111.2776729119726
 30
0.0
 11
175.3014888969817
 21
115.2988874468671
 31
0.0
  0
LINE
  5
1E09
330
1B37
100
AcDbEntity
  8
SUNPOU
100
AcDbLine
 10
161.5676938735806
 20
109.2670656445254
 30
0.0
 11
163.3988665433674
 21
110.0713085515043
 31
0.0
  0
INSERT
  5
1E0A
330
1B37
100
AcDbEntity
  8
SUNPOU
100
AcDbBlockReference
  2
_OPEN
 10
161.5676938735806
 20
109.2670656445254
 30
0.0
 41
3.0
 42
3.0
 43
3.0
 50
23.71086793758565
  0
INSERT
  5
1E0B
330
1B37
100
AcDbEntity
  8
SUNPOU
100
AcDbBlockReference
  2
_OPEN
 10
163.3988665433674
 20
110.0713085515043
 30
0.0
 41
3.0
 42
3.0
 43
3.0
 50
203.7108679375856
  0
MTEXT
  5
1E0C
330
1B37
100
AcDbEntity
  8
SUNPOU
100
AcDbMText
 10
171.0916330911312
 20
116.1804281968875
 30
0.0
 40
3.0
 41
0.0
 71
     5
 72
     1
  1
\A1;t2
 11
0.9155863348934047
 21
0.4021214534894427
 31
0.0
1001
ACAD
1000
MTEXTBEGIN
1070
    73
1070
     1
1070
    44
1040
1.0
1070
    74
1070
     0
1000
MTEXTEND
  0
POINT
  5
1E0D
330
1B37
100
AcDbEntity
  8
DEFPOINTS
 62
     0
100
AcDbPoint
 10
161.5676938735806
 20
109.2670656445254
 30
0.0
  0
POINT
  5
1E0E
330
1B37
100
AcDbEntity
  8
DEFPOINTS
 62
     0
100
AcDbPoint
 10
163.3988665433674
 20
110.0713085515043
 30
0.0
  0
POINT
  5
1E0F
330
1B37
100
AcDbEntity
  8
DEFPOINTS
 62
     0
100
AcDbPoint
 10
163.3988665433674
 20
110.0713085515043
 30
0.0
  0
ENDBLK
  5
1B44
330
1B37
100
AcDbEntity
  8
0
100
AcDbBlockEnd
  0
ENDSEC
  0
SECTION
  2
ENTITIES
  0
LINE
  5
9C6
330
1A
100
AcDbEntity
  8
ZUWAKU
100
AcDbLine
 10
114.323300645034
 20
17.60000000000002
 30
0.0
 11
233.7121819854957
 21
17.60000000000001
 31
0.0
  0
LINE
  5
9C7
330
1A
100
AcDbEntity
  8
ZUWAKU
100
AcDbLine
 10
114.323300645034
 20
17.80000000000002
 30
0.0
 11
233.7121819854957
 21
17.80000000000002
 31
0.0
  0
LINE
  5
9C8
330
1A
100
AcDbEntity
  8
ZUWAKU
100
AcDbLine
 10
114.323300645034
 20
17.70000000000001
 30
0.0
 11
233.7121819854957
 21
17.70000000000001
 31
0.0
  0
LINE
  5
9C9
330
1A
100
AcDbEntity
  8
ZUWAKU
100
AcDbLine
 10
10.0
 20
25.4
 30
0.0
 11
408.6999999999999
 21
25.4
 31
0.0
  0
LINE
  5
9CA
330
1A
100
AcDbEntity
  8
ZUWAKU
100
AcDbLine
 10
10.0
 20
25.3
 30
0.0
 11
408.6999999999999
 21
25.3
 31
0.0
  0
LINE
  5
9CB
330
1A
100
AcDbEntity
  8
ZUWAKU
100
AcDbLine
 10
10.0
 20
25.2
 30
0.0
 11
408.6999999999999
 21
25.2
 31
0.0
  0
LINE
  5
9CC
330
1A
100
AcDbEntity
  8
ZUWAKU
100
AcDbLine
 10
10.0
 20
25.1
 30
0.0
 11
408.6999999999999
 21
25.1
 31
0.0
  0
LINE
  5
9CD
330
1A
100
AcDbEntity
  8
ZUWAKU
100
AcDbLine
 10
10.0
 20
25.0
 30
0.0
 11
408.6999999999999
 21
25.0
 31
0.0
  0
POLYLINE
  5
9CE
330
1A
100
AcDbEntity
  8
ZUWAKU
100
AcDb2dPolyline
 66
     1
 10
0.0
 20
0.0
 30
0.0
 70
     1
  0
VERTEX
  5
1E4B
330
9CE
100
AcDbEntity
  8
ZUWAKU
100
AcDbVertex
100
AcDb2dVertex
 10
10.09999999999996
 20
285.7
 30
0.0
  0
VERTEX
  5
1E4C
330
9CE
100
AcDbEntity
  8
ZUWAKU
100
AcDbVertex
100
AcDb2dVertex
 10
10.09999999999996
 20
10.10000000000002
 30
0.0
  0
VERTEX
  5
1E4D
330
9CE
100
AcDbEntity
  8
ZUWAKU
100
AcDbVertex
100
AcDb2dVertex
 10
408.6999999999999
 20
10.10000000000003
 30
0.0
  0
VERTEX
  5
1E4E
330
9CE
100
AcDbEntity
  8
ZUWAKU
100
AcDbVertex
100
AcDb2dVertex
 10
408.7
 20
285.7
 30
0.0
  0
SEQEND
  5
1E4F
330
9CE
100
AcDbEntity
  8
ZUWAKU
  0
POLYLINE
  5
9CF
330
1A
100
AcDbEntity
  8
ZUWAKU
100
AcDb2dPolyline
 66
     1
 10
0.0
 20
0.0
 30
0.0
 70
     1
  0
VERTEX
  5
1E50
330
9CF
100
AcDbEntity
  8
ZUWAKU
100
AcDbVertex
100
AcDb2dVertex
 10
10.29999999999995
 20
285.5
 30
0.0
  0
VERTEX
  5
1E51
330
9CF
100
AcDbEntity
  8
ZUWAKU
100
AcDbVertex
100
AcDb2dVertex
 10
10.29999999999995
 20
10.30000000000001
 30
0.0
  0
VERTEX
  5
1E52
330
9CF
100
AcDbEntity
  8
ZUWAKU
100
AcDbVertex
100
AcDb2dVertex
 10
408.5
 20
10.30000000000003
 30
0.0
  0
VERTEX
  5
1E53
330
9CF
100
AcDbEntity
  8
ZUWAKU
100
AcDbVertex
100
AcDb2dVertex
 10
408.4999999999999
 20
285.5
 30
0.0
  0
SEQEND
  5
1E54
330
9CF
100
AcDbEntity
  8
ZUWAKU
  0
POLYLINE
  5
9D0
330
1A
100
AcDbEntity
  8
ZUWAKU
100
AcDb2dPolyline
 66
     1
 10
0.0
 20
0.0
 30
0.0
 70
     1
  0
VERTEX
  5
1E55
330
9D0
100
AcDbEntity
  8
ZUWAKU
100
AcDbVertex
100
AcDb2dVertex
 10
10.0
 20
285.8
 30
0.0
  0
VERTEX
  5
1E56
330
9D0
100
AcDbEntity
  8
ZUWAKU
100
AcDbVertex
100
AcDb2dVertex
 10
10.0
 20
10.0
 30
0.0
  0
VERTEX
  5
1E57
330
9D0
100
AcDbEntity
  8
ZUWAKU
100
AcDbVertex
100
AcDb2dVertex
 10
408.8
 20
10.00000000000003
 30
0.0
  0
VERTEX
  5
1E58
330
9D0
100
AcDbEntity
  8
ZUWAKU
100
AcDbVertex
100
AcDb2dVertex
 10
408.8
 20
285.8
 30
0.0
  0
SEQEND
  5
1E59
330
9D0
100
AcDbEntity
  8
ZUWAKU
  0
POLYLINE
  5
9D1
330
1A
100
AcDbEntity
  8
ZUWAKU
100
AcDb2dPolyline
 66
     1
 10
0.0
 20
0.0
 30
0.0
 70
     1
  0
VERTEX
  5
1E5A
330
9D1
100
AcDbEntity
  8
ZUWAKU
100
AcDbVertex
100
AcDb2dVertex
 10
10.19999999999998
 20
285.6
 30
0.0
  0
VERTEX
  5
1E5B
330
9D1
100
AcDbEntity
  8
ZUWAKU
100
AcDbVertex
100
AcDb2dVertex
 10
10.19999999999998
 20
10.20000000000004
 30
0.0
  0
VERTEX
  5
1E5C
330
9D1
100
AcDbEntity
  8
ZUWAKU
100
AcDbVertex
100
AcDb2dVertex
 10
408.6
 20
10.20000000000003
 30
0.0
  0
VERTEX
  5
1E5D
330
9D1
100
AcDbEntity
  8
ZUWAKU
100
AcDbVertex
100
AcDb2dVertex
 10
408.6
 20
285.6
 30
0.0
  0
SEQEND
  5
1E5E
330
9D1
100
AcDbEntity
  8
ZUWAKU
  0
POLYLINE
  5
9D2
330
1A
100
AcDbEntity
  8
ZUWAKU
100
AcDb2dPolyline
 66
     1
 10
0.0
 20
0.0
 30
0.0
 70
     1
  0
VERTEX
  5
1E5F
330
9D2
100
AcDbEntity
  8
ZUWAKU
100
AcDbVertex
100
AcDb2dVertex
 10
10.39999999999997
 20
285.4
 30
0.0
  0
VERTEX
  5
1E60
330
9D2
100
AcDbEntity
  8
ZUWAKU
100
AcDbVertex
100
AcDb2dVertex
 10
10.39999999999997
 20
10.40000000000003
 30
0.0
  0
VERTEX
  5
1E61
330
9D2
100
AcDbEntity
  8
ZUWAKU
100
AcDbVertex
100
AcDb2dVertex
 10
408.3999999999999
 20
10.40000000000003
 30
0.0
  0
VERTEX
  5
1E62
330
9D2
100
AcDbEntity
  8
ZUWAKU
100
AcDbVertex
100
AcDb2dVertex
 10
408.3999999999999
 20
285.4
 30
0.0
  0
SEQEND
  5
1E63
330
9D2
100
AcDbEntity
  8
ZUWAKU
  0
TEXT
  5
9D3
330
1A
100
AcDbEntity
  8
MOJI
100
AcDbText
 10
56.47889479408457
 20
16.37058906513738
 30
0.0
 40
3.0
  1
エスロン厚肉たてとい
 41
0.9
  7
ｽﾀｲﾙ1
100
AcDbText
  0
INSERT
  5
9D4
330
1A
100
AcDbEntity
  8
ZUWAKU
  6
CONTINUOUS
100
AcDbBlockReference
  2
*X6
 10
9.999999986443981
 20
10.00000013171131
 30
0.0
1001
ACAD
1000
HATCH
1002
{
1070
    19
1000
ANSI37
1040
0.1
1040
0.0
1000
R14_HATCH_DATA
1000
9D4
1011
10.99999998644398
1021
10.00000013171131
1031
0.0
1011
9.999999986443981
1021
11.00000013171131
1031
0.0
1011
9.999999986443981
1021
10.00000013171131
1031
1.0
1040
0.0
1010
0.0
1020
0.0
1030
1.0
1000
ANSI37
1070
     0
1070
     0
1071
        8
1071
        7
1070
     1
1070
     1
1071
       24
1040
7.251131344115947
1040
8.822424108780474
1040
-0.1989123673796348
1040
7.04610609094658
1040
9.317398855610999
1040
0.0
1040
7.04610609094658
1040
9.962499868288688
1040
-0.4142135623730912
1040
7.308606090946568
1040
10.22499986828868
1040
0.0
1040
8.796106090946523
1040
10.22499986828868
1040
0.4142135623731546
1040
9.058606090946568
1040
10.48749986828868
1040
0.0
1040
9.058606090946568
1040
11.36249986828868
1040
0.4142135623731586
1040
8.796106090946523
1040
11.62499986828868
1040
0.0
1040
7.04610609094658
1040
11.62499986828868
1040
0.4142135623730928
1040
5.646106090946602
1040
10.22499986828869
1040
0.0
1040
5.646106090946602
1040
9.317398855611063
1040
0.1989123673796619
1040
6.261181850454818
1040
7.832474615119259
1040
0.0
1040
7.716080837777155
1040
6.377575627796931
1040
-0.1989123673796613
1040
7.92110609094658
1040
5.882600880966338
1040
0.0
1040
7.92110609094658
1040
5.237499868288679
1040
-0.4142135623730911
1040
7.658606090946591
1040
4.974999868288684
1040
0.0
1040
6.171106090946636
1040
4.974999868288684
1040
0.4142135623731526
1040
5.908606090946591
1040
4.71249986828869
1040
0.0
1040
5.908606090946591
1040
3.837499868288679
1040
0.4142135623731526
1040
6.171106090946636
1040
3.574999868288685
1040
0.0
1040
7.92110609094658
1040
3.574999868288685
1040
0.4142135623731044
1040
9.321106090946614
1040
4.974999868288673
1040
0.0
1040
9.321106090946614
1040
5.882600880966309
1040
0.1989123673796604
1040
8.706030331438341
1040
7.367525121458079
1040
0.0
1071
        0
1071
        7
1070
     1
1070
     1
1071
       16
1040
11.7711060909466
1040
9.524999868288688
1040
-0.4142135623730935
1040
12.47110609094659
1040
10.22499986828868
1040
0.0
1040
13.43360609094657
1040
10.22499986828868
1040
0.4142135623731546
1040
13.69610609094661
1040
10.48749986828868
1040
0.0
1040
13.69610609094661
1040
11.36249986828868
1040
0.4142135623730951
1040
13.43360609094662
1040
11.62499986828868
1040
0.0
1040
12.47110609094653
1040
11.62499986828866
1040
0.4142135623730892
1040
10.37110609094656
1040
9.524999868288652
1040
0.0
1040
10.37110609094656
1040
5.674999868288697
1040
0.4142135623730969
1040
12.47110609094659
1040
3.574999868288685
1040
0.0
1040
13.43360609094657
1040
3.574999868288685
1040
0.4142135623731526
1040
13.69610609094661
1040
3.837499868288679
1040
0.0
1040
13.69610609094661
1040
4.71249986828869
1040
0.4142135623730891
1040
13.43360609094662
1040
4.974999868288684
1040
0.0
1040
12.47110609094659
1040
4.974999868288684
1040
-0.4142135623730928
1040
11.7711060909466
1040
5.674999868288677
1040
0.0
1071
        0
1071
        7
1070
     1
1070
     1
1071
        2
1040
12.12110609094656
1040
7.599999868288684
1040
1.0
1040
13.87110609094657
1040
7.599999868288684
1040
1.0
1071
        0
1071
        7
1070
     1
1070
     1
1071
       26
1040
18.65742933203557
1040
9.602523465070397
1040
0.0
1040
19.18824914860448
1040
11.28345288420519
1040
0.5069206636600134
1040
18.9379336990068
1040
11.62499986828868
1040
0.0
1040
18.08848900920219
1040
11.62499986828868
1040
0.3272098845218764
1040
17.83817355960451
1040
11.44154685237217
1040
0.0
1040
16.90403862228862
1040
8.483452884205224
1040
-0.3272098845219541
1040
16.65372317269088
1040
8.299999868288683
1040
0.0
1040
16.58360609094666
1040
8.299999868288683
1040
-0.4142135623731526
1040
16.32110609094661
1040
8.562499868288677
1040
0.0
1040
16.32110609094661
1040
11.36249986828868
1040
0.4142135623730951
1040
16.05860609094662
1040
11.62499986828868
1040
0.0
1040
15.18360609094656
1040
11.62499986828868
1040
0.4142135623730871
1040
14.92110609094658
1040
11.36249986828869
1040
0.0
1040
14.92110609094658
1040
3.837499868288679
1040
0.4142135623730891
1040
15.18360609094656
1040
3.574999868288685
1040
0.0
1040
16.05860609094657
1040
3.574999868288685
1040
0.4142135623731526
1040
16.32110609094661
1040
3.837499868288679
1040
0.0
1040
16.32110609094661
1040
6.63749986828869
1040
-0.4142135623731526
1040
16.58360609094666
1040
6.899999868288684
1040
0.0
1040
16.65372317269094
1040
6.899999868288684
1040
-0.3272098845218915
1040
16.90403862228862
1040
6.716546852372147
1040
0.0
1040
17.83817355960451
1040
3.758452884205221
1040
0.3272098845218902
1040
18.08848900920219
1040
3.574999868288685
1040
0.0
1040
18.9379336990068
1040
3.574999868288685
1040
0.5069206636600335
1040
19.18824914860448
1040
3.916546852372189
1040
0.0
1040
18.02505345936765
1040
7.599999868288753
1040
0.0
1071
        0
1071
        7
1070
     1
1070
     1
1071
        8
1040
21.74610609094656
1040
11.36249986828869
1040
0.4142135623731546
1040
21.48360609094652
1040
11.62499986828868
1040
0.0
1040
20.60860609094663
1040
11.62499986828868
1040
0.4142135623731507
1040
20.34610609094659
1040
11.36249986828869
1040
0.0
1040
20.34610609094659
1040
3.837499868288679
1040
0.4142135623731526
1040
20.60860609094663
1040
3.574999868288685
1040
0.0
1040
21.48360609094652
1040
3.574999868288685
1040
0.4142135623731526
1040
21.74610609094656
1040
3.837499868288679
1040
0.0
1071
        0
1071
        7
1070
     1
1070
     1
1071
       24
1040
24.19610609094661
1040
9.962499868288688
1040
-0.4142135623731546
1040
24.45860609094665
1040
10.22499986828868
1040
0.0
1040
25.94610609094661
1040
10.22499986828868
1040
0.4142135623730911
1040
26.2086060909466
1040
10.48749986828868
1040
0.0
1040
26.2086060909466
1040
11.36249986828868
1040
0.4142135623730952
1040
25.94610609094661
1040
11.62499986828868
1040
0.0
1040
24.19610609094661
1040
11.62499986828868
1040
0.4142135623731048
1040
22.79610609094658
1040
10.22499986828869
1040
0.0
1040
22.79610609094658
1040
9.317398855611063
1040
0.1989123673796613
1040
23.41118185045485
1040
7.832474615119288
1040
0.0
1040
24.86608083777719
1040
6.377575627796954
1040
-0.1989123673796402
1040
25.07110609094661
1040
5.882600880966418
1040
0.0
1040
25.07110609094661
1040
5.237499868288679
1040
-0.4142135623730911
1040
24.80860609094662
1040
4.974999868288684
1040
0.0
1040
23.32110609094661
1040
4.974999868288684
1040
0.4142135623731526
1040
23.05860609094656
1040
4.71249986828869
1040
0.0
1040
23.05860609094656
1040
3.837499868288679
1040
0.4142135623730891
1040
23.32110609094655
1040
3.574999868288685
1040
0.0
1040
25.07110609094661
1040
3.574999868288685
1040
0.4142135623730925
1040
26.47110609094659
1040
4.974999868288673
1040
0.0
1040
26.47110609094659
1040
5.882600880966309
1040
0.1989123673796675
1040
25.85603033143831
1040
7.367525121458136
1040
0.0
1040
24.40113134411603
1040
8.822424108780394
1040
-0.1989123673796652
1040
24.19610609094661
1040
9.317398855610978
1040
0.0
1071
        0
1071
        7
1070
     1
1070
     1
1071
       16
1040
28.92110609094658
1040
11.36249986828868
1040
0.414213562373103
1040
28.65860609094659
1040
11.62499986828868
1040
0.0
1040
27.78360609094659
1040
11.62499986828868
1040
0.4142135623730871
1040
27.5211060909466
1040
11.36249986828869
1040
0.0
1040
27.5211060909466
1040
4.974999868288673
1040
0.4142135623730926
1040
28.92110609094658
1040
3.574999868288685
1040
0.0
1040
30.67110609094658
1040
3.574999868288685
1040
0.4142135623731044
1040
32.07110609094661
1040
4.974999868288673
1040
0.0
1040
32.07110609094661
1040
11.36249986828868
1040
0.4142135623730951
1040
31.80860609094662
1040
11.62499986828868
1040
0.0
1040
30.93360609094657
1040
11.62499986828868
1040
0.4142135623730871
1040
30.67110609094658
1040
11.36249986828869
1040
0.0
1040
30.67110609094658
1040
5.499999868288671
1040
-0.414213562373088
1040
30.1461060909466
1040
4.974999868288684
1040
0.0
1040
29.44610609094661
1040
4.974999868288684
1040
-0.4142135623731197
1040
28.92110609094658
1040
5.499999868288671
1040
0.0
1071
        0
1071
        7
1070
     1
1070
     1
1071
        8
1040
34.5211060909466
1040
11.36249986828869
1040
0.4142135623730871
1040
34.25860609094661
1040
11.62499986828868
1040
0.0
1040
33.38360609094661
1040
11.62499986828868
1040
0.4142135623731507
1040
33.12110609094657
1040
11.36249986828869
1040
0.0
1040
33.12110609094657
1040
3.837499868288679
1040
0.4142135623730891
1040
33.38360609094655
1040
3.574999868288685
1040
0.0
1040
34.25860609094661
1040
3.574999868288685
1040
0.4142135623730891
1040
34.5211060909466
1040
3.837499868288679
1040
0.0
1071
        0
1070
     0
1070
     1
1040
0.0
1040
0.1
1070
     0
1070
     2
1040
0.7853981633974483
1040
-450.4711521537834
1040
-6.600000131711283
1040
-0.2245064030267288
1040
0.2245064030267288
1070
     0
1040
2.356194490192344
1040
-450.4711521537834
1040
-6.600000131711283
1040
-0.2245064030267288
1040
-0.2245064030267288
1070
     0
1040
0.057451373970553
1071
        8
1040
8.039927495067672
1040
7.58358669123146
1040
0.0
1040
11.2022575167756
1040
9.422030959514188
1040
0.0
1040
12.58218395638584
1040
7.755940691324042
1040
0.0
1040
15.45703000437458
1040
8.100648691509434
1040
0.0
1040
20.91923602303438
1040
8.330454825280241
1040
0.0
1040
23.44910046112079
1040
9.709288026492288
1040
0.0
1040
28.27884299975619
1040
9.36457882583619
1040
0.0
1040
33.91353982336738
1040
9.594384959606998
1040
0.0
1002
}
  0
LINE
  5
9D5
330
1A
100
AcDbEntity
  8
ZUWAKU
100
AcDbLine
 10
22.47110607739057
 20
21.62499999999998
 30
0.0
 11
23.43360607739055
 21
21.625
 31
0.0
  0
LINE
  5
9D6
330
1A
100
AcDbEntity
  8
ZUWAKU
100
AcDbLine
 10
23.43360607739055
 20
20.225
 30
0.0
 11
22.47110607739057
 21
20.225
 31
0.0
  0
LINE
  5
9D7
330
1A
100
AcDbEntity
  8
ZUWAKU
100
AcDbLine
 10
22.47110607739057
 20
14.975
 30
0.0
 11
23.43360607739055
 21
14.975
 31
0.0
  0
LINE
  5
9D8
330
1A
100
AcDbEntity
  8
ZUWAKU
100
AcDbLine
 10
23.43360607739055
 20
13.575
 30
0.0
 11
22.47110607739057
 21
13.575
 31
0.0
  0
CIRCLE
  5
9D9
330
1A
100
AcDbEntity
  8
ZUWAKU
100
AcDbCircle
 10
22.99610607739055
 20
17.6
 30
0.0
 40
0.875
  0
ARC
  5
9DA
330
1A
100
AcDbEntity
  8
ZUWAKU
100
AcDbCircle
 10
17.74610607739055
 20
19.31739898732235
 30
0.0
 40
0.7
100
AcDbArc
 50
180.0000000000016
 51
224.9999999999988
  0
LINE
  5
9DB
330
1A
100
AcDbEntity
  8
ZUWAKU
100
AcDbLine
 10
21.77110607739058
 20
19.525
 30
0.0
 11
21.77110607739058
 21
15.675
 31
0.0
  0
LINE
  5
9DC
330
1A
100
AcDbEntity
  8
ZUWAKU
100
AcDbLine
 10
20.37110607739055
 20
15.675
 30
0.0
 11
20.37110607739055
 21
19.52499999999998
 31
0.0
  0
ARC
  5
9DD
330
1A
100
AcDbEntity
  8
ZUWAKU
100
AcDbCircle
 10
17.74610607739055
 20
19.31739898732235
 30
0.0
 40
2.099999999999999
100
AcDbArc
 50
180.0
 51
225.0
  0
ARC
  5
9DE
330
1A
100
AcDbEntity
  8
ZUWAKU
100
AcDbCircle
 10
17.92110607739056
 20
14.975
 30
0.0
 40
1.399999999999999
100
AcDbArc
 50
270.0
 51
0.0
  0
ARC
  5
9DF
330
1A
100
AcDbEntity
  8
ZUWAKU
100
AcDbCircle
 10
22.47110607739057
 20
15.675
 30
0.0
 40
2.099999999999999
100
AcDbArc
 50
180.0
 51
270.0
  0
ARC
  5
9E0
330
1A
100
AcDbEntity
  8
ZUWAKU
100
AcDbCircle
 10
17.22110607739057
 20
15.88260101267765
 30
0.0
 40
2.099999999999999
100
AcDbArc
 50
0.0
 51
45.0
  0
LINE
  5
9E1
330
1A
100
AcDbEntity
  8
ZUWAKU
100
AcDbLine
 10
18.70603031788232
 20
17.36752525316941
 30
0.0
 11
17.25113133055998
 21
18.82242424049175
 31
0.0
  0
LINE
  5
9E2
330
1A
100
AcDbEntity
  8
ZUWAKU
100
AcDbLine
 10
17.92110607739056
 20
15.2375
 30
0.0
 11
17.92110607739056
 21
15.88260101267767
 31
0.0
  0
ARC
  5
9E3
330
1A
100
AcDbEntity
  8
ZUWAKU
100
AcDbCircle
 10
17.65860607739057
 20
15.2375
 30
0.0
 40
0.2625
100
AcDbArc
 50
270.0
 51
0.0
  0
ARC
  5
9E4
330
1A
100
AcDbEntity
  8
ZUWAKU
100
AcDbCircle
 10
17.22110607739057
 20
15.88260101267767
 30
0.0
 40
0.7
100
AcDbArc
 50
0.0
 51
45.0
  0
LINE
  5
9E5
330
1A
100
AcDbEntity
  8
ZUWAKU
100
AcDbLine
 10
15.90860607739057
 20
13.8375
 30
0.0
 11
15.90860607739057
 21
14.7125
 31
0.0
  0
ARC
  5
9E6
330
1A
100
AcDbEntity
  8
ZUWAKU
100
AcDbCircle
 10
16.17110607739056
 20
13.8375
 30
0.0
 40
0.2625
100
AcDbArc
 50
180.0
 51
270.0
  0
ARC
  5
9E7
330
1A
100
AcDbEntity
  8
ZUWAKU
100
AcDbCircle
 10
16.17110607739056
 20
14.7125
 30
0.0
 40
0.2625
100
AcDbArc
 50
90.0
 51
180.0
  0
LINE
  5
9E8
330
1A
100
AcDbEntity
  8
ZUWAKU
100
AcDbLine
 10
16.17110607739056
 20
13.575
 30
0.0
 11
17.92110607739056
 21
13.575
 31
0.0
  0
LINE
  5
9E9
330
1A
100
AcDbEntity
  8
ZUWAKU
100
AcDbLine
 10
16.17110607739056
 20
14.975
 30
0.0
 11
17.65860607739057
 21
14.975
 31
0.0
  0
LINE
  5
9EA
330
1A
100
AcDbEntity
  8
ZUWAKU
100
AcDbLine
 10
16.2611818368988
 20
17.83247474683059
 30
0.0
 11
17.71608082422113
 21
16.37757575950826
 31
0.0
  0
LINE
  5
9EB
330
1A
100
AcDbEntity
  8
ZUWAKU
100
AcDbLine
 10
19.32110607739059
 20
14.975
 30
0.0
 11
19.32110607739059
 21
15.88260101267767
 31
0.0
  0
ARC
  5
9EC
330
1A
100
AcDbEntity
  8
ZUWAKU
100
AcDbCircle
 10
22.47110607739057
 20
15.675
 30
0.0
 40
0.7
100
AcDbArc
 50
180.0
 51
270.0
  0
ARC
  5
9ED
330
1A
100
AcDbEntity
  8
ZUWAKU
100
AcDbCircle
 10
18.79610607739056
 20
21.36249999999999
 30
0.0
 40
0.2625
100
AcDbArc
 50
0.0
 51
90.0
  0
ARC
  5
9EE
330
1A
100
AcDbEntity
  8
ZUWAKU
100
AcDbCircle
 10
18.79610607739056
 20
20.4875
 30
0.0
 40
0.2625
100
AcDbArc
 50
270.0
 51
0.0
  0
LINE
  5
9EF
330
1A
100
AcDbEntity
  8
ZUWAKU
100
AcDbLine
 10
17.04610607739056
 20
21.625
 30
0.0
 11
18.79610607739056
 21
21.625
 31
0.0
  0
ARC
  5
9F0
330
1A
100
AcDbEntity
  8
ZUWAKU
100
AcDbCircle
 10
17.30860607739055
 20
19.9625
 30
0.0
 40
0.2625
100
AcDbArc
 50
90.0
 51
180.0
  0
LINE
  5
9F1
330
1A
100
AcDbEntity
  8
ZUWAKU
100
AcDbLine
 10
17.04610607739056
 20
19.9625
 30
0.0
 11
17.04610607739056
 21
19.31739898732233
 31
0.0
  0
LINE
  5
9F2
330
1A
100
AcDbEntity
  8
ZUWAKU
100
AcDbLine
 10
18.79610607739056
 20
20.225
 30
0.0
 11
17.30860607739055
 21
20.225
 31
0.0
  0
LINE
  5
9F3
330
1A
100
AcDbEntity
  8
ZUWAKU
100
AcDbLine
 10
15.64610607739058
 20
20.225
 30
0.0
 11
15.64610607739058
 21
19.31739898732233
 31
0.0
  0
ARC
  5
9F4
330
1A
100
AcDbEntity
  8
ZUWAKU
100
AcDbCircle
 10
17.04610607739056
 20
20.225
 30
0.0
 40
1.399999999999999
100
AcDbArc
 50
90.0
 51
180.0
  0
LINE
  5
9F5
330
1A
100
AcDbEntity
  8
ZUWAKU
100
AcDbLine
 10
19.05860607739055
 20
21.36249999999999
 30
0.0
 11
19.05860607739055
 21
20.4875
 31
0.0
  0
ARC
  5
9F6
330
1A
100
AcDbEntity
  8
ZUWAKU
100
AcDbCircle
 10
22.47110607739057
 20
19.525
 30
0.0
 40
0.7
100
AcDbArc
 50
90.0
 51
180.0
  0
ARC
  5
9F7
330
1A
100
AcDbEntity
  8
ZUWAKU
100
AcDbCircle
 10
22.47110607739057
 20
19.52499999999998
 30
0.0
 40
2.099999999999999
100
AcDbArc
 50
90.0
 51
180.0
  0
LINE
  5
9F8
330
1A
100
AcDbEntity
  8
ZUWAKU
100
AcDbLine
 10
49.6633147739941
 20
25.0
 30
0.0
 11
49.66331477399421
 21
10.40000000000003
 31
0.0
  0
LINE
  5
9F9
330
1A
100
AcDbEntity
  8
ZUWAKU
100
AcDbLine
 10
49.76331477399412
 20
25.0
 30
0.0
 11
49.76331477399424
 21
10.40000000000003
 31
0.0
  0
LINE
  5
9FA
330
1A
100
AcDbEntity
  8
ZUWAKU
100
AcDbLine
 10
49.5633147739942
 20
25.0
 30
0.0
 11
49.5633147739942
 21
10.40000000000003
 31
0.0
  0
LINE
  5
9FB
330
1A
100
AcDbEntity
  8
ZUWAKU
100
AcDbLine
 10
42.0711060773906
 20
14.975
 30
0.0
 11
42.0711060773906
 21
21.36249999999999
 31
0.0
  0
LINE
  5
9FC
330
1A
100
AcDbEntity
  8
ZUWAKU
100
AcDbLine
 10
40.67110607739055
 20
21.36249999999999
 30
0.0
 11
40.67110607739055
 21
15.5
 31
0.0
  0
LINE
  5
9FD
330
1A
100
AcDbEntity
  8
ZUWAKU
100
AcDbLine
 10
44.52110607739058
 20
13.8375
 30
0.0
 11
44.52110607739058
 21
21.36249999999999
 31
0.0
  0
LINE
  5
9FE
330
1A
100
AcDbEntity
  8
ZUWAKU
100
AcDbLine
 10
43.12110607739055
 20
21.36249999999999
 30
0.0
 11
43.12110607739055
 21
13.8375
 31
0.0
  0
ARC
  5
9FF
330
1A
100
AcDbEntity
  8
ZUWAKU
100
AcDbCircle
 10
34.89610607739058
 20
19.31739898732235
 30
0.0
 40
0.7
100
AcDbArc
 50
180.0000000000016
 51
224.9999999999988
  0
ARC
  5
A00
330
1A
100
AcDbEntity
  8
ZUWAKU
100
AcDbCircle
 10
34.89610607739058
 20
19.31739898732235
 30
0.0
 40
2.099999999999999
100
AcDbArc
 50
180.0
 51
225.0
  0
LINE
  5
A01
330
1A
100
AcDbEntity
  8
ZUWAKU
100
AcDbLine
 10
28.65742931847956
 20
19.60252359678171
 30
0.0
 11
28.02505344581163
 21
17.60000000000001
 31
0.0
  0
LINE
  5
A02
330
1A
100
AcDbEntity
  8
ZUWAKU
100
AcDbLine
 10
30.34610607739057
 20
21.36249999999999
 30
0.0
 11
30.34610607739057
 21
13.8375
 31
0.0
  0
LINE
  5
A03
330
1A
100
AcDbEntity
  8
ZUWAKU
100
AcDbLine
 10
31.74610607739055
 20
13.8375
 30
0.0
 11
31.74610607739055
 21
21.36249999999999
 31
0.0
  0
LINE
  5
A04
330
1A
100
AcDbEntity
  8
ZUWAKU
100
AcDbLine
 10
37.52110607739058
 20
21.36249999999999
 30
0.0
 11
37.52110607739058
 21
14.975
 31
0.0
  0
LINE
  5
A05
330
1A
100
AcDbEntity
  8
ZUWAKU
100
AcDbLine
 10
38.92110607739056
 20
15.5
 30
0.0
 11
38.92110607739056
 21
21.36249999999999
 31
0.0
  0
LINE
  5
A06
330
1A
100
AcDbEntity
  8
ZUWAKU
100
AcDbLine
 10
26.32110607739059
 20
18.5625
 30
0.0
 11
26.32110607739059
 21
21.36249999999999
 31
0.0
  0
LINE
  5
A07
330
1A
100
AcDbEntity
  8
ZUWAKU
100
AcDbLine
 10
24.92110607739056
 20
21.36249999999999
 30
0.0
 11
24.92110607739056
 21
13.8375
 31
0.0
  0
LINE
  5
A08
330
1A
100
AcDbEntity
  8
ZUWAKU
100
AcDbLine
 10
27.83817354604849
 20
21.44154698408348
 30
0.0
 11
26.9040386087326
 21
18.48345301591651
 31
0.0
  0
LINE
  5
A09
330
1A
100
AcDbEntity
  8
ZUWAKU
100
AcDbLine
 10
40.14610607739058
 20
14.975
 30
0.0
 11
39.44610607739059
 21
14.975
 31
0.0
  0
LINE
  5
A0A
330
1A
100
AcDbEntity
  8
ZUWAKU
100
AcDbLine
 10
38.92110607739056
 20
13.575
 30
0.0
 11
40.67110607739055
 21
13.575
 31
0.0
  0
LINE
  5
A0B
330
1A
100
AcDbEntity
  8
ZUWAKU
100
AcDbLine
 10
30.60860607739056
 20
13.575
 30
0.0
 11
31.48360607739056
 21
13.575
 31
0.0
  0
LINE
  5
A0C
330
1A
100
AcDbEntity
  8
ZUWAKU
100
AcDbLine
 10
27.83817354604849
 20
13.75845301591651
 30
0.0
 11
26.9040386087326
 21
16.71654698408348
 31
0.0
  0
ARC
  5
A0D
330
1A
100
AcDbEntity
  8
ZUWAKU
100
AcDbCircle
 10
26.65372315913492
 20
18.5625
 30
0.0
 40
0.2625
100
AcDbArc
 50
270.0
 51
342.4744316262769
  0
LINE
  5
A0E
330
1A
100
AcDbEntity
  8
ZUWAKU
100
AcDbLine
 10
26.65372315913492
 20
18.3
 30
0.0
 11
26.58360607739058
 21
18.3
 31
0.0
  0
LINE
  5
A0F
330
1A
100
AcDbEntity
  8
ZUWAKU
100
AcDbLine
 10
26.58360607739058
 20
16.9
 30
0.0
 11
26.65372315913492
 21
16.9
 31
0.0
  0
ARC
  5
A10
330
1A
100
AcDbEntity
  8
ZUWAKU
100
AcDbCircle
 10
26.58360607739058
 20
18.5625
 30
0.0
 40
0.2625
100
AcDbArc
 50
180.0
 51
270.0
  0
LINE
  5
A11
330
1A
100
AcDbEntity
  8
ZUWAKU
100
AcDbLine
 10
25.18360607739055
 20
13.575
 30
0.0
 11
26.05860607739055
 21
13.575
 31
0.0
  0
ARC
  5
A12
330
1A
100
AcDbEntity
  8
ZUWAKU
100
AcDbCircle
 10
26.05860607739055
 20
13.8375
 30
0.0
 40
0.2625
100
AcDbArc
 50
270.0
 51
0.0
  0
LINE
  5
A13
330
1A
100
AcDbEntity
  8
ZUWAKU
100
AcDbLine
 10
26.32110607739059
 20
13.8375
 30
0.0
 11
26.32110607739059
 21
16.6375
 31
0.0
  0
LINE
  5
A14
330
1A
100
AcDbEntity
  8
ZUWAKU
100
AcDbLine
 10
23.69610607739059
 20
14.7125
 30
0.0
 11
23.69610607739059
 21
13.8375
 31
0.0
  0
ARC
  5
A15
330
1A
100
AcDbEntity
  8
ZUWAKU
100
AcDbCircle
 10
23.43360607739055
 20
13.8375
 30
0.0
 40
0.2625
100
AcDbArc
 50
270.0
 51
0.0
  0
ARC
  5
A16
330
1A
100
AcDbEntity
  8
ZUWAKU
100
AcDbCircle
 10
23.43360607739055
 20
14.7125
 30
0.0
 40
0.2625
100
AcDbArc
 50
0.0
 51
90.0
  0
ARC
  5
A17
330
1A
100
AcDbEntity
  8
ZUWAKU
100
AcDbCircle
 10
25.18360607739055
 20
13.8375
 30
0.0
 40
0.2625
100
AcDbArc
 50
180.0
 51
270.0
  0
ARC
  5
A18
330
1A
100
AcDbEntity
  8
ZUWAKU
100
AcDbCircle
 10
26.65372315913492
 20
16.6375
 30
0.0
 40
0.2625
100
AcDbArc
 50
17.52556837372303
 51
90.0
  0
ARC
  5
A19
330
1A
100
AcDbEntity
  8
ZUWAKU
100
AcDbCircle
 10
26.58360607739058
 20
16.6375
 30
0.0
 40
0.2625
100
AcDbArc
 50
90.0
 51
180.0
  0
ARC
  5
A1A
330
1A
100
AcDbEntity
  8
ZUWAKU
100
AcDbCircle
 10
30.60860607739056
 20
13.8375
 30
0.0
 40
0.2625
100
AcDbArc
 50
180.0
 51
270.0
  0
LINE
  5
A1B
330
1A
100
AcDbEntity
  8
ZUWAKU
100
AcDbLine
 10
28.08848899564623
 20
13.575
 30
0.0
 11
28.93793368545073
 21
13.575
 31
0.0
  0
ARC
  5
A1C
330
1A
100
AcDbEntity
  8
ZUWAKU
100
AcDbCircle
 10
28.93793368545073
 20
13.8375
 30
0.0
 40
0.2625
100
AcDbArc
 50
270.0
 51
17.52556837372303
  0
LINE
  5
A1D
330
1A
100
AcDbEntity
  8
ZUWAKU
100
AcDbLine
 10
29.18824913504846
 20
13.91654698408348
 30
0.0
 11
28.02505344581163
 21
17.60000000000001
 31
0.0
  0
ARC
  5
A1E
330
1A
100
AcDbEntity
  8
ZUWAKU
100
AcDbCircle
 10
28.08848899564623
 20
13.8375
 30
0.0
 40
0.2625
100
AcDbArc
 50
197.525568373723
 51
270.0
  0
ARC
  5
A1F
330
1A
100
AcDbEntity
  8
ZUWAKU
100
AcDbCircle
 10
38.92110607739056
 20
14.975
 30
0.0
 40
1.399999999999999
100
AcDbArc
 50
180.0
 51
270.0
  0
ARC
  5
A20
330
1A
100
AcDbEntity
  8
ZUWAKU
100
AcDbCircle
 10
35.07110607739059
 20
14.975
 30
0.0
 40
1.399999999999999
100
AcDbArc
 50
270.0
 51
0.0
  0
LINE
  5
A21
330
1A
100
AcDbEntity
  8
ZUWAKU
100
AcDbLine
 10
35.85603031788235
 20
17.36752525316941
 30
0.0
 11
34.40113133055996
 21
18.82242424049175
 31
0.0
  0
LINE
  5
A22
330
1A
100
AcDbEntity
  8
ZUWAKU
100
AcDbLine
 10
35.07110607739059
 20
15.2375
 30
0.0
 11
35.07110607739059
 21
15.88260101267767
 31
0.0
  0
ARC
  5
A23
330
1A
100
AcDbEntity
  8
ZUWAKU
100
AcDbCircle
 10
34.37110607739055
 20
15.88260101267767
 30
0.0
 40
0.7
100
AcDbArc
 50
0.0
 51
45.0
  0
ARC
  5
A24
330
1A
100
AcDbEntity
  8
ZUWAKU
100
AcDbCircle
 10
34.80860607739055
 20
15.2375
 30
0.0
 40
0.2625
100
AcDbArc
 50
270.0
 51
0.0
  0
LINE
  5
A25
330
1A
100
AcDbEntity
  8
ZUWAKU
100
AcDbLine
 10
33.05860607739055
 20
13.8375
 30
0.0
 11
33.05860607739055
 21
14.7125
 31
0.0
  0
ARC
  5
A26
330
1A
100
AcDbEntity
  8
ZUWAKU
100
AcDbCircle
 10
33.32110607739059
 20
13.8375
 30
0.0
 40
0.2625
100
AcDbArc
 50
180.0
 51
270.0
  0
ARC
  5
A27
330
1A
100
AcDbEntity
  8
ZUWAKU
100
AcDbCircle
 10
31.48360607739056
 20
13.8375
 30
0.0
 40
0.2625
100
AcDbArc
 50
270.0
 51
0.0
  0
ARC
  5
A28
330
1A
100
AcDbEntity
  8
ZUWAKU
100
AcDbCircle
 10
33.32110607739059
 20
14.7125
 30
0.0
 40
0.2625
100
AcDbArc
 50
90.0
 51
180.0
  0
LINE
  5
A29
330
1A
100
AcDbEntity
  8
ZUWAKU
100
AcDbLine
 10
33.32110607739059
 20
14.975
 30
0.0
 11
34.80860607739055
 21
14.975
 31
0.0
  0
LINE
  5
A2A
330
1A
100
AcDbEntity
  8
ZUWAKU
100
AcDbLine
 10
33.32110607739059
 20
13.575
 30
0.0
 11
35.07110607739059
 21
13.575
 31
0.0
  0
LINE
  5
A2B
330
1A
100
AcDbEntity
  8
ZUWAKU
100
AcDbLine
 10
33.41118183689883
 20
17.83247474683059
 30
0.0
 11
34.86608082422117
 21
16.37757575950826
 31
0.0
  0
LINE
  5
A2C
330
1A
100
AcDbEntity
  8
ZUWAKU
100
AcDbLine
 10
36.47110607739057
 20
14.975
 30
0.0
 11
36.47110607739057
 21
15.88260101267767
 31
0.0
  0
ARC
  5
A2D
330
1A
100
AcDbEntity
  8
ZUWAKU
100
AcDbCircle
 10
34.37110607739055
 20
15.88260101267765
 30
0.0
 40
2.099999999999999
100
AcDbArc
 50
0.0
 51
45.0
  0
ARC
  5
A2E
330
1A
100
AcDbEntity
  8
ZUWAKU
100
AcDbCircle
 10
39.44610607739059
 20
15.5
 30
0.0
 40
0.525
100
AcDbArc
 50
180.0
 51
270.0
  0
ARC
  5
A2F
330
1A
100
AcDbEntity
  8
ZUWAKU
100
AcDbCircle
 10
40.67110607739055
 20
14.975
 30
0.0
 40
1.399999999999999
100
AcDbArc
 50
270.0
 51
0.0
  0
LINE
  5
A30
330
1A
100
AcDbEntity
  8
ZUWAKU
100
AcDbLine
 10
43.38360607739059
 20
13.575
 30
0.0
 11
44.2586060773906
 21
13.575
 31
0.0
  0
ARC
  5
A31
330
1A
100
AcDbEntity
  8
ZUWAKU
100
AcDbCircle
 10
43.38360607739059
 20
13.8375
 30
0.0
 40
0.2625
100
AcDbArc
 50
180.0
 51
270.0
  0
ARC
  5
A32
330
1A
100
AcDbEntity
  8
ZUWAKU
100
AcDbCircle
 10
40.14610607739058
 20
15.5
 30
0.0
 40
0.525
100
AcDbArc
 50
270.0
 51
0.0
  0
ARC
  5
A33
330
1A
100
AcDbEntity
  8
ZUWAKU
100
AcDbCircle
 10
44.2586060773906
 20
13.8375
 30
0.0
 40
0.2625
100
AcDbArc
 50
270.0
 51
0.0
  0
LINE
  5
A34
330
1A
100
AcDbEntity
  8
ZUWAKU
100
AcDbLine
 10
31.48360607739056
 20
21.625
 30
0.0
 11
30.60860607739056
 21
21.625
 31
0.0
  0
ARC
  5
A35
330
1A
100
AcDbEntity
  8
ZUWAKU
100
AcDbCircle
 10
26.05860607739055
 20
21.36249999999999
 30
0.0
 40
0.2625
100
AcDbArc
 50
0.0
 51
90.0
  0
LINE
  5
A36
330
1A
100
AcDbEntity
  8
ZUWAKU
100
AcDbLine
 10
26.05860607739055
 20
21.625
 30
0.0
 11
25.18360607739055
 21
21.625
 31
0.0
  0
ARC
  5
A37
330
1A
100
AcDbEntity
  8
ZUWAKU
100
AcDbCircle
 10
23.43360607739055
 20
21.36249999999999
 30
0.0
 40
0.2625
100
AcDbArc
 50
0.0
 51
90.0
  0
ARC
  5
A38
330
1A
100
AcDbEntity
  8
ZUWAKU
100
AcDbCircle
 10
25.18360607739055
 20
21.36249999999999
 30
0.0
 40
0.2625
100
AcDbArc
 50
90.0
 51
180.0
  0
ARC
  5
A39
330
1A
100
AcDbEntity
  8
ZUWAKU
100
AcDbCircle
 10
23.43360607739055
 20
20.4875
 30
0.0
 40
0.2625
100
AcDbArc
 50
270.0
 51
0.0
  0
LINE
  5
A3A
330
1A
100
AcDbEntity
  8
ZUWAKU
100
AcDbLine
 10
23.69610607739059
 20
21.36249999999999
 30
0.0
 11
23.69610607739059
 21
20.4875
 31
0.0
  0
ARC
  5
A3B
330
1A
100
AcDbEntity
  8
ZUWAKU
100
AcDbCircle
 10
30.60860607739056
 20
21.36249999999999
 30
0.0
 40
0.2625
100
AcDbArc
 50
90.0
 51
180.0
  0
LINE
  5
A3C
330
1A
100
AcDbEntity
  8
ZUWAKU
100
AcDbLine
 10
28.08848899564623
 20
21.625
 30
0.0
 11
28.93793368545073
 21
21.625
 31
0.0
  0
ARC
  5
A3D
330
1A
100
AcDbEntity
  8
ZUWAKU
100
AcDbCircle
 10
28.93793368545073
 20
21.36249999999999
 30
0.0
 40
0.2625
100
AcDbArc
 50
342.4744316262769
 51
90.0
  0
LINE
  5
A3E
330
1A
100
AcDbEntity
  8
ZUWAKU
100
AcDbLine
 10
29.18824913504846
 20
21.28345301591652
 30
0.0
 11
28.65742931847956
 21
19.60252359678171
 31
0.0
  0
ARC
  5
A3F
330
1A
100
AcDbEntity
  8
ZUWAKU
100
AcDbCircle
 10
28.08848899564623
 20
21.36249999999999
 30
0.0
 40
0.2625
100
AcDbArc
 50
90.0
 51
162.4744316262769
  0
LINE
  5
A40
330
1A
100
AcDbEntity
  8
ZUWAKU
100
AcDbLine
 10
34.19610607739059
 20
21.625
 30
0.0
 11
35.94610607739059
 21
21.625
 31
0.0
  0
LINE
  5
A41
330
1A
100
AcDbEntity
  8
ZUWAKU
100
AcDbLine
 10
35.94610607739059
 20
20.225
 30
0.0
 11
34.45860607739058
 21
20.225
 31
0.0
  0
ARC
  5
A42
330
1A
100
AcDbEntity
  8
ZUWAKU
100
AcDbCircle
 10
34.45860607739058
 20
19.9625
 30
0.0
 40
0.2625
100
AcDbArc
 50
90.0
 51
180.0
  0
LINE
  5
A43
330
1A
100
AcDbEntity
  8
ZUWAKU
100
AcDbLine
 10
34.19610607739059
 20
19.9625
 30
0.0
 11
34.19610607739059
 21
19.31739898732233
 31
0.0
  0
ARC
  5
A44
330
1A
100
AcDbEntity
  8
ZUWAKU
100
AcDbCircle
 10
31.48360607739056
 20
21.36249999999999
 30
0.0
 40
0.2625
100
AcDbArc
 50
0.0
 51
90.0
  0
LINE
  5
A45
330
1A
100
AcDbEntity
  8
ZUWAKU
100
AcDbLine
 10
32.79610607739056
 20
20.225
 30
0.0
 11
32.79610607739056
 21
19.31739898732233
 31
0.0
  0
ARC
  5
A46
330
1A
100
AcDbEntity
  8
ZUWAKU
100
AcDbCircle
 10
34.19610607739059
 20
20.225
 30
0.0
 40
1.399999999999999
100
AcDbArc
 50
90.0
 51
180.0
  0
ARC
  5
A47
330
1A
100
AcDbEntity
  8
ZUWAKU
100
AcDbCircle
 10
38.65860607739057
 20
21.36249999999999
 30
0.0
 40
0.2625
100
AcDbArc
 50
0.0
 51
90.0
  0
ARC
  5
A48
330
1A
100
AcDbEntity
  8
ZUWAKU
100
AcDbCircle
 10
37.78360607739057
 20
21.36249999999999
 30
0.0
 40
0.2625
100
AcDbArc
 50
90.0
 51
180.0
  0
LINE
  5
A49
330
1A
100
AcDbEntity
  8
ZUWAKU
100
AcDbLine
 10
38.65860607739057
 20
21.625
 30
0.0
 11
37.78360607739057
 21
21.625
 31
0.0
  0
ARC
  5
A4A
330
1A
100
AcDbEntity
  8
ZUWAKU
100
AcDbCircle
 10
35.94610607739059
 20
21.36249999999999
 30
0.0
 40
0.2625
100
AcDbArc
 50
0.0
 51
90.0
  0
ARC
  5
A4B
330
1A
100
AcDbEntity
  8
ZUWAKU
100
AcDbCircle
 10
35.94610607739059
 20
20.4875
 30
0.0
 40
0.2625
100
AcDbArc
 50
270.0
 51
0.0
  0
LINE
  5
A4C
330
1A
100
AcDbEntity
  8
ZUWAKU
100
AcDbLine
 10
36.20860607739058
 20
21.36249999999999
 30
0.0
 11
36.20860607739058
 21
20.4875
 31
0.0
  0
LINE
  5
A4D
330
1A
100
AcDbEntity
  8
ZUWAKU
100
AcDbLine
 10
44.2586060773906
 20
21.625
 30
0.0
 11
43.38360607739059
 21
21.625
 31
0.0
  0
ARC
  5
A4E
330
1A
100
AcDbEntity
  8
ZUWAKU
100
AcDbCircle
 10
43.38360607739059
 20
21.36249999999999
 30
0.0
 40
0.2625
100
AcDbArc
 50
90.0
 51
180.0
  0
ARC
  5
A4F
330
1A
100
AcDbEntity
  8
ZUWAKU
100
AcDbCircle
 10
41.80860607739055
 20
21.36249999999999
 30
0.0
 40
0.2625
100
AcDbArc
 50
0.0
 51
90.0
  0
LINE
  5
A50
330
1A
100
AcDbEntity
  8
ZUWAKU
100
AcDbLine
 10
41.80860607739055
 20
21.625
 30
0.0
 11
40.93360607739055
 21
21.625
 31
0.0
  0
ARC
  5
A51
330
1A
100
AcDbEntity
  8
ZUWAKU
100
AcDbCircle
 10
40.93360607739055
 20
21.36249999999999
 30
0.0
 40
0.2625
100
AcDbArc
 50
90.0
 51
180.0
  0
ARC
  5
A52
330
1A
100
AcDbEntity
  8
ZUWAKU
100
AcDbCircle
 10
44.2586060773906
 20
21.36249999999999
 30
0.0
 40
0.2625
100
AcDbArc
 50
0.0
 51
90.0
  0
TEXT
  5
A53
330
1A
100
AcDbEntity
  8
MOJI
100
AcDbText
 10
129.9136013404255
 20
19.00246052870369
 30
0.0
 40
2.799999999999999
  1
たてバンド
 41
0.9
  7
ｽﾀｲﾙ1
100
AcDbText
  0
TEXT
  5
A54
330
1A
100
AcDbEntity
  8
MOJI
100
AcDbText
 10
129.9136013404255
 20
11.60246052870371
 30
0.0
 40
2.799999999999999
  1
ＶＵ・ＶＰ５０（５０Ａ）
 41
0.9
  7
ｽﾀｲﾙ1
100
AcDbText
  0
LINE
  5
A55
330
1A
100
AcDbEntity
  8
ZUWAKU
100
AcDbLine
 10
114.1233006450339
 20
25.0
 30
0.0
 11
114.1233006450339
 21
10.40000000000003
 31
0.0
  0
LINE
  5
A56
330
1A
100
AcDbEntity
  8
ZUWAKU
100
AcDbLine
 10
114.3233006450339
 20
25.0
 30
0.0
 11
114.323300645034
 21
10.40000000000003
 31
0.0
  0
LINE
  5
A57
330
1A
100
AcDbEntity
  8
ZUWAKU
100
AcDbLine
 10
114.2233006450338
 20
25.0
 30
0.0
 11
114.2233006450339
 21
10.40000000000003
 31
0.0
  0
TEXT
  5
A58
330
1A
100
AcDbEntity
  8
ZUWAKU
100
AcDbText
 10
114.8620231561387
 20
14.8276782691928
 30
0.0
 40
2.0
  1
サイズ
 41
0.9
  7
ｽﾀｲﾙ1
100
AcDbText
  0
TEXT
  5
A59
330
1A
100
AcDbEntity
  8
ZUWAKU
100
AcDbText
 10
114.8620231561386
 20
22.02767826919278
 30
0.0
 40
2.0
  1
品名
 41
0.9
  7
ｽﾀｲﾙ1
100
AcDbText
  0
LINE
  5
A5A
330
1A
100
AcDbEntity
  8
ZUWAKU
100
AcDbLine
 10
334.4086012551021
 20
17.60000000000001
 30
0.0
 11
358.6245052742706
 21
17.60000000000001
 31
0.0
  0
LINE
  5
A5B
330
1A
100
AcDbEntity
  8
ZUWAKU
100
AcDbLine
 10
334.4086012551022
 20
17.70000000000001
 30
0.0
 11
358.6245052742706
 21
17.70000000000001
 31
0.0
  0
LINE
  5
A5C
330
1A
100
AcDbEntity
  8
ZUWAKU
100
AcDbLine
 10
334.4086012551021
 20
17.80000000000002
 30
0.0
 11
358.6245052742706
 21
17.80000000000002
 31
0.0
  0
TEXT
  5
A5D
330
1A
100
AcDbEntity
  8
ZUWAKU
100
AcDbText
 10
339.1019688436512
 20
19.00246052870369
 30
0.0
 40
2.799999999999999
  1
　　．　　．　　
 41
0.9
  7
ｽﾀｲﾙ1
100
AcDbText
  0
LINE
  5
A5E
330
1A
100
AcDbEntity
  8
ZUWAKU
100
AcDbLine
 10
262.5995897490704
 20
17.60000000000002
 30
0.0
 11
286.2634778830562
 21
17.60000000000002
 31
0.0
  0
LINE
  5
A5F
330
1A
100
AcDbEntity
  8
ZUWAKU
100
AcDbLine
 10
262.5995897490704
 20
17.70000000000001
 30
0.0
 11
286.2634778830562
 21
17.70000000000001
 31
0.0
  0
LINE
  5
A60
330
1A
100
AcDbEntity
  8
ZUWAKU
100
AcDbLine
 10
262.5995897490704
 20
17.80000000000002
 30
0.0
 11
286.2634778830562
 21
17.80000000000002
 31
0.0
  0
TEXT
  5
A61
330
1A
100
AcDbEntity
  8
MOJI
100
AcDbText
 10
241.623215995501
 20
15.97130886082999
 30
0.0
 40
2.799999999999999
  1
ＬＧ８０Ｇ
 41
0.9
  7
ｽﾀｲﾙ1
100
AcDbText
  0
LINE
  5
A62
330
1A
100
AcDbEntity
  8
ZUWAKU
100
AcDbLine
 10
233.8121819854956
 20
25.0
 30
0.0
 11
233.8121819854957
 21
10.40000000000003
 31
0.0
  0
LINE
  5
A63
330
1A
100
AcDbEntity
  8
ZUWAKU
100
AcDbLine
 10
233.9121819854956
 20
25.0
 30
0.0
 11
233.9121819854957
 21
10.40000000000003
 31
0.0
  0
LINE
  5
A64
330
1A
100
AcDbEntity
  8
ZUWAKU
100
AcDbLine
 10
233.7121819854957
 20
25.0
 30
0.0
 11
233.7121819854957
 21
10.40000000000003
 31
0.0
  0
TEXT
  5
A65
330
1A
100
AcDbEntity
  8
MOJI
100
AcDbText
 10
274.0204539861564
 20
19.00246052870369
 30
0.0
 40
2.799999999999999
  1
Ａ３
 41
0.9
  7
ｽﾀｲﾙ1
100
AcDbText
  0
LINE
  5
A66
330
1A
100
AcDbEntity
  8
ZUWAKU
100
AcDbLine
 10
262.4995897490704
 20
25.0
 30
0.0
 11
262.4995897490705
 21
10.40000000000003
 31
0.0
  0
LINE
  5
A67
330
1A
100
AcDbEntity
  8
ZUWAKU
100
AcDbLine
 10
262.5995897490704
 20
25.0
 30
0.0
 11
262.5995897490705
 21
10.40000000000003
 31
0.0
  0
LINE
  5
A68
330
1A
100
AcDbEntity
  8
ZUWAKU
100
AcDbLine
 10
262.3995897490705
 20
25.0
 30
0.0
 11
262.3995897490705
 21
10.40000000000003
 31
0.0
  0
TEXT
  5
A6A
330
1A
100
AcDbEntity
  8
ZUWAKU
100
AcDbText
 10
263.3383122601753
 20
14.8276782691928
 30
0.0
 40
2.0
  1
縮尺
 41
0.9
  7
ｽﾀｲﾙ1
100
AcDbText
  0
TEXT
  5
A6B
330
1A
100
AcDbEntity
  8
MOJI
100
AcDbText
 10
274.0204539861564
 20
11.60246052870371
 30
0.0
 40
2.799999999999999
  1
１/１
 41
0.9
  7
ｽﾀｲﾙ1
100
AcDbText
  0
TEXT
  5
A6C
330
1A
100
AcDbEntity
  8
ZUWAKU
100
AcDbText
 10
234.6509044966004
 20
22.02767826919278
 30
0.0
 40
2.0
  1
品番
 41
0.9
  7
ｽﾀｲﾙ1
100
AcDbText
  0
TEXT
  5
A6D
330
1A
100
AcDbEntity
  8
ZUWAKU
100
AcDbText
 10
263.3383122601752
 20
22.02767826919278
 30
0.0
 40
2.0
  1
用紙
 41
0.9
  7
ｽﾀｲﾙ1
100
AcDbText
  0
LINE
  5
A6E
330
1A
100
AcDbEntity
  8
ZUWAKU
100
AcDbLine
 10
334.3086012551022
 20
25.0
 30
0.0
 11
334.3086012551022
 21
10.40000000000003
 31
0.0
  0
LINE
  5
A6F
330
1A
100
AcDbEntity
  8
ZUWAKU
100
AcDbLine
 10
334.4086012551022
 20
25.0
 30
0.0
 11
334.4086012551023
 21
10.40000000000003
 31
0.0
  0
LINE
  5
A70
330
1A
100
AcDbEntity
  8
ZUWAKU
100
AcDbLine
 10
334.2086012551022
 20
25.0
 30
0.0
 11
334.2086012551022
 21
10.40000000000003
 31
0.0
  0
LINE
  5
A71
330
1A
100
AcDbEntity
  8
ZUWAKU
100
AcDbLine
 10
286.3634778830561
 20
25.0
 30
0.0
 11
286.3634778830562
 21
10.40000000000003
 31
0.0
  0
LINE
  5
A72
330
1A
100
AcDbEntity
  8
ZUWAKU
100
AcDbLine
 10
286.4634778830561
 20
25.0
 30
0.0
 11
286.4634778830562
 21
10.40000000000003
 31
0.0
  0
LINE
  5
A73
330
1A
100
AcDbEntity
  8
ZUWAKU
100
AcDbLine
 10
286.2634778830562
 20
25.0
 30
0.0
 11
286.2634778830562
 21
10.40000000000003
 31
0.0
  0
TEXT
  5
A74
330
1A
100
AcDbEntity
  8
ZUWAKU
100
AcDbText
 10
335.147323766207
 20
22.02767826919278
 30
0.0
 40
2.0
  1
DATE
 41
0.9
  7
ｽﾀｲﾙ1
100
AcDbText
  0
LINE
  5
A75
330
1A
100
AcDbEntity
  8
ZUWAKU
100
AcDbLine
 10
358.6245052742706
 20
25.0
 30
0.0
 11
358.6245052742706
 21
10.40000000000003
 31
0.0
  0
LINE
  5
A76
330
1A
100
AcDbEntity
  8
ZUWAKU
100
AcDbLine
 10
358.7245052742706
 20
25.0
 30
0.0
 11
358.7245052742706
 21
10.40000000000003
 31
0.0
  0
LINE
  5
A77
330
1A
100
AcDbEntity
  8
ZUWAKU
100
AcDbLine
 10
358.8245052742705
 20
25.0
 30
0.0
 11
358.8245052742706
 21
10.40000000000003
 31
0.0
  0
LINE
  5
A78
330
1A
100
AcDbEntity
  8
ZUWAKU
100
AcDbLine
 10
358.9245052742705
 20
25.0
 30
0.0
 11
358.9245052742707
 21
10.40000000000003
 31
0.0
  0
TEXT
  5
A79
330
1A
100
AcDbEntity
  8
ZUWAKU
100
AcDbText
 10
364.2640420961218
 20
18.7769196678434
 30
0.0
 40
3.0
  1
積水化学工業株式会社
 41
0.9
  7
ｽﾀｲﾙ1
100
AcDbText
  0
TEXT
  5
A7A
330
1A
100
AcDbEntity
  8
ZUWAKU
100
AcDbText
 10
364.2640420961218
 20
13.32442015692703
 30
0.0
 40
3.0
  1
建材事業部
 41
0.9
  7
ｽﾀｲﾙ1
100
AcDbText
  0
LINE
  5
E41
330
1A
100
AcDbEntity
  8
CENTER_L
  6
CENTER
 48
5.0
100
AcDbLine
 10
285.1823456026554
 20
141.9629371880503
 30
0.0
 11
245.4373669170311
 21
141.9629371880503
 31
0.0
  0
LINE
  5
E42
330
1A
100
AcDbEntity
  8
CENTER_L
  6
CENTER
 48
5.0
100
AcDbLine
 10
121.0525903327691
 20
161.9629371880503
 30
0.0
 11
154.9315084159879
 21
161.9629371880504
 31
0.0
  0
LINE
  5
E43
330
1A
100
AcDbEntity
  8
SEIHIN
  6
CONTINUOUS
 62
     3
 48
5.0
100
AcDbLine
 10
130.8712072430553
 20
171.9629371880503
 30
0.0
 11
130.8712072430553
 21
129.8070580777096
 31
0.0
  0
LINE
  5
E44
330
1A
100
AcDbEntity
  8
SEIHIN
  6
CONTINUOUS
 62
     3
 48
5.0
100
AcDbLine
 10
136.8712072430553
 20
171.9629371880503
 30
0.0
 11
136.8712072430553
 21
129.8070580777096
 31
0.0
  0
LINE
  5
E45
330
1A
100
AcDbEntity
  8
SEIHIN
  6
CONTINUOUS
 62
     3
 48
5.0
100
AcDbLine
 10
128.8712072430553
 20
171.9629371880503
 30
0.0
 11
128.8712072430553
 21
128.9629371880503
 31
0.0
  0
LINE
  5
E46
330
1A
100
AcDbEntity
  8
SEIHIN
  6
CONTINUOUS
 62
     3
 48
5.0
100
AcDbLine
 10
138.8712072430553
 20
171.9629371880503
 30
0.0
 11
138.8712072430553
 21
129.8070580777096
 31
0.0
  0
LINE
  5
E47
330
1A
100
AcDbEntity
  8
CENTER_L
  6
CENTER
 48
5.0
100
AcDbLine
 10
133.8712072430553
 20
177.6903193168031
 30
0.0
 11
133.8712072430553
 21
52.89381697950553
 31
0.0
  0
CIRCLE
  5
E4A
330
1A
100
AcDbEntity
  8
SEIHIN
  6
CONTINUOUS
 62
     3
 48
5.0
100
AcDbCircle
 10
133.8712072430553
 20
62.18388662362729
 30
0.0
 40
2.75
  0
CIRCLE
  5
E4B
330
1A
100
AcDbEntity
  8
SEIHIN
  6
CONTINUOUS
 62
     3
 48
5.0
100
AcDbCircle
 10
133.8712072430553
 20
62.18388662362729
 30
0.0
 40
2.25
  0
ARC
  5
E4E
330
1A
100
AcDbEntity
  8
SEIHIN
  6
CONTINUOUS
 62
     3
 48
5.0
100
AcDbCircle
 10
133.8712072430553
 20
97.10289167646955
 30
0.0
 40
32.25
100
AcDbArc
 50
98.91904419403141
 51
270.0
  0
ARC
  5
E4F
330
1A
100
AcDbEntity
  8
SEIHIN
  6
CONTINUOUS
 62
     3
 48
5.0
100
AcDbCircle
 10
133.8712072430553
 20
97.10289167646955
 30
0.0
 40
33.25
100
AcDbArc
 50
98.64871344417142
 51
259.2778475844628
  0
ARC
  5
E50
330
1A
100
AcDbEntity
  8
SEIHIN
  6
CONTINUOUS
 62
     3
 48
5.0
100
AcDbCircle
 10
133.8712072430553
 20
97.10289167646955
 30
0.0
 40
30.25
100
AcDbArc
 50
100.3960378202171
 51
79.60396217978285
  0
ARC
  5
E51
330
1A
100
AcDbEntity
  8
SEIHIN
  6
CONTINUOUS
 62
     3
 48
5.0
100
AcDbCircle
 10
133.8712072430553
 20
97.10289167646955
 30
0.0
 40
32.25
100
AcDbArc
 50
276.5443587759855
 51
79.60396217978285
  0
ARC
  5
E52
330
1A
100
AcDbEntity
  8
SEIHIN
  6
CONTINUOUS
 62
     3
 48
5.0
100
AcDbCircle
 10
133.8712072430553
 20
97.10289167646955
 30
0.0
 40
33.25
100
AcDbArc
 50
280.7221524155372
 51
81.35128655582857
  0
ARC
  5
E53
330
1A
100
AcDbEntity
  8
SEIHIN
  6
CONTINUOUS
 62
     3
 48
5.0
100
AcDbCircle
 10
127.8712072430553
 20
65.41594641505312
 30
0.0
 40
1.0
100
AcDbArc
 50
259.2778475844628
 51
350.1661898344984
  0
ARC
  5
E54
330
1A
100
AcDbEntity
  8
SEIHIN
  6
CONTINUOUS
 62
     3
 48
5.0
100
AcDbCircle
 10
139.8712072430553
 20
65.41594641505312
 30
0.0
 40
1.0
100
AcDbArc
 50
189.8338101655015
 51
280.7221524155372
  0
ARC
  5
E55
330
1A
100
AcDbEntity
  8
SEIHIN
  6
CONTINUOUS
 62
     3
 48
5.0
100
AcDbCircle
 10
139.8712072430553
 20
129.8070580777096
 30
0.0
 40
1.0
100
AcDbArc
 50
180.0
 51
259.6039621797828
  0
ARC
  5
E56
330
1A
100
AcDbEntity
  8
SEIHIN
  6
CONTINUOUS
 62
     3
 48
5.0
100
AcDbCircle
 10
127.8712072430553
 20
129.8070580777096
 30
0.0
 40
3.0
100
AcDbArc
 50
280.3960378202171
 51
0.0
  0
ARC
  5
E57
330
1A
100
AcDbEntity
  8
SEIHIN
  6
CONTINUOUS
 62
     3
 48
5.0
100
AcDbCircle
 10
139.8712072430553
 20
129.8070580777096
 30
0.0
 40
3.0
100
AcDbArc
 50
180.0
 51
259.6039621797828
  0
LINE
  5
E77
330
1A
100
AcDbEntity
  8
CENTER_L
  6
CENTER
 48
5.0
100
AcDbLine
 10
96.72396344857794
 20
236.4440169748243
 30
0.0
 11
170.237389852607
 21
236.4440169748243
 31
0.0
  0
LINE
  5
E78
330
1A
100
AcDbEntity
  8
SEIHIN
  6
CONTINUOUS
 62
     3
 48
5.0
100
AcDbLine
 10
101.6212072430553
 20
223.9440169748243
 30
0.0
 11
166.1212072430553
 21
223.9440169748242
 31
0.0
  0
LINE
  5
E79
330
1A
100
AcDbEntity
  8
SEIHIN
  6
CONTINUOUS
 62
     3
 48
5.0
100
AcDbLine
 10
101.3187125022021
 20
243.9440169748243
 30
0.0
 11
128.8712072430553
 21
243.9440169748243
 31
0.0
  0
LINE
  5
E7A
330
1A
100
AcDbEntity
  8
SEIHIN
  6
CONTINUOUS
 62
     3
 48
5.0
100
AcDbLine
 10
101.318712502202
 20
228.9440169748243
 30
0.0
 11
128.8712072430553
 21
228.9440169748242
 31
0.0
  0
LINE
  5
E7B
330
1A
100
AcDbEntity
  8
SEIHIN
  6
CONTINUOUS
 62
     3
 48
5.0
100
AcDbLine
 10
101.6212072430553
 20
248.9440169748242
 30
0.0
 11
166.1212072430553
 21
248.9440169748243
 31
0.0
  0
LINE
  5
E7F
330
1A
100
AcDbEntity
  8
SUNPOU
100
AcDbLine
 10
155.2675828161476
 20
180.3386331318557
 30
0.0
 11
172.3888884635787
 21
180.3386331318557
 31
0.0
  0
TEXT
  5
E80
330
1A
100
AcDbEntity
  8
SUNPOU
100
AcDbText
 10
157.2126876883392
 20
181.0901038345629
 30
0.0
 40
3.0
  1
M6×20
100
AcDbText
  0
LINE
  5
E81
330
1A
100
AcDbEntity
  8
SUNPOU
100
AcDbLine
 10
155.2675828161476
 20
180.3386331318557
 30
0.0
 11
148.8712072430553
 21
161.9629371880504
 31
0.0
  0
LINE
  5
E95
330
1A
100
AcDbEntity
  8
SEIHIN
  6
CONTINUOUS
 62
     3
 48
5.0
100
AcDbLine
 10
130.8712072430553
 20
171.9629371880503
 30
0.0
 11
128.8712072430553
 21
171.9629371880503
 31
0.0
  0
LINE
  5
E96
330
1A
100
AcDbEntity
  8
SEIHIN
  6
CONTINUOUS
 62
     3
 48
5.0
100
AcDbLine
 10
138.8712072430553
 20
171.9629371880503
 30
0.0
 11
136.8712072430553
 21
171.9629371880503
 31
0.0
  0
LINE
  5
EA3
330
1A
100
AcDbEntity
  8
SEIHIN
  6
CONTINUOUS
 62
     3
 48
5.0
100
AcDbLine
 10
138.8712072430553
 20
243.9440169748243
 30
0.0
 11
166.1212072430553
 21
243.9440169748243
 31
0.0
  0
LINE
  5
EA4
330
1A
100
AcDbEntity
  8
SEIHIN
  6
CONTINUOUS
 62
     3
 48
5.0
100
AcDbLine
 10
138.8712072430553
 20
228.9440169748242
 30
0.0
 11
166.1212072430553
 21
228.9440169748243
 31
0.0
  0
LINE
  5
EA5
330
1A
100
AcDbEntity
  8
SEIHIN
  6
CONTINUOUS
 62
     3
 48
5.0
100
AcDbLine
 10
130.8712072430553
 20
223.9440169748243
 30
0.0
 11
130.8712072430553
 21
248.9440169748243
 31
0.0
  0
LINE
  5
EA6
330
1A
100
AcDbEntity
  8
SEIHIN
  6
CONTINUOUS
 62
     3
 48
5.0
100
AcDbLine
 10
136.8712072430553
 20
223.9440169748243
 30
0.0
 11
136.8712072430553
 21
248.9440169748243
 31
0.0
  0
LINE
  5
EA7
330
1A
100
AcDbEntity
  8
SEIHIN
  6
CONTINUOUS
 62
     3
 48
5.0
100
AcDbLine
 10
128.8712072430553
 20
223.9440169748243
 30
0.0
 11
128.8712072430553
 21
248.9440169748243
 31
0.0
  0
LINE
  5
EA8
330
1A
100
AcDbEntity
  8
SEIHIN
  6
CONTINUOUS
 62
     3
 48
5.0
100
AcDbLine
 10
138.8712072430553
 20
223.9440169748243
 30
0.0
 11
138.8712072430553
 21
248.9440169748243
 31
0.0
  0
LINE
  5
EAB
330
1A
100
AcDbEntity
  8
SEIHIN
  6
CONTINUOUS
 62
     3
 48
5.0
100
AcDbLine
 10
251.9024482389399
 20
65.01488157078518
 30
0.0
 11
251.9024482389399
 21
163.9629371880503
 31
0.0
  0
LINE
  5
EAC
330
1A
100
AcDbEntity
  8
SEIHIN
  6
CONTINUOUS
 62
     3
 48
5.0
100
AcDbLine
 10
276.9024482389399
 20
65.01488157078518
 30
0.0
 11
276.9024482389399
 21
163.9629371880503
 31
0.0
  0
LINE
  5
EAE
330
1A
100
AcDbEntity
  8
SEIHIN
  6
CONTINUOUS
 62
     3
 48
5.0
100
AcDbLine
 10
276.9024482389399
 20
58.51488157078517
 30
0.0
 11
276.9024482389399
 21
64.01488157078517
 31
0.0
  0
LINE
  5
EB0
330
1A
100
AcDbEntity
  8
SEIHIN
  6
CONTINUOUS
 62
     3
 48
5.0
100
AcDbLine
 10
251.9024482389399
 20
58.51488157078517
 30
0.0
 11
251.9024482389399
 21
65.01488157078518
 31
0.0
  0
LINE
  5
EB1
330
1A
100
AcDbEntity
  8
SEIHIN
  6
CONTINUOUS
 62
     3
 48
5.0
100
AcDbLine
 10
258.90244823894
 20
57.51488157078518
 30
0.0
 11
258.90244823894
 21
64.59402120826519
 31
0.0
  0
LINE
  5
EB2
330
1A
100
AcDbEntity
  8
SEIHIN
  6
CONTINUOUS
 62
     3
 48
5.0
100
AcDbLine
 10
259.40244823894
 20
57.51488157078518
 30
0.0
 11
259.40244823894
 21
64.59402120826519
 31
0.0
  0
LINE
  5
EB3
330
1A
100
AcDbEntity
  8
SEIHIN
  6
CONTINUOUS
 62
     3
 48
5.0
100
AcDbLine
 10
269.90244823894
 20
57.51488157078518
 30
0.0
 11
269.90244823894
 21
64.59402120826519
 31
0.0
  0
LINE
  5
EB4
330
1A
100
AcDbEntity
  8
SEIHIN
  6
CONTINUOUS
 62
     3
 48
5.0
100
AcDbLine
 10
269.40244823894
 20
57.51488157078518
 30
0.0
 11
269.40244823894
 21
64.59402120826519
 31
0.0
  0
LINE
  5
EB5
330
1A
100
AcDbEntity
  8
SEIHIN
  6
CONTINUOUS
 62
     3
 48
5.0
100
AcDbLine
 10
252.90244823894
 20
57.51488157078518
 30
0.0
 11
275.90244823894
 21
57.51488157078518
 31
0.0
  0
ARC
  5
EB6
330
1A
100
AcDbEntity
  8
SEIHIN
  6
CONTINUOUS
 62
     3
 48
5.0
100
AcDbCircle
 10
252.90244823894
 20
58.51488157078517
 30
0.0
 40
1.0
100
AcDbArc
 50
180.0
 51
270.0
  0
ARC
  5
EB7
330
1A
100
AcDbEntity
  8
SEIHIN
  6
CONTINUOUS
 62
     3
 48
5.0
100
AcDbCircle
 10
275.90244823894
 20
58.51488157078517
 30
0.0
 40
1.0
100
AcDbArc
 50
270.0
 51
0.0
  0
LINE
  5
EB8
330
1A
100
AcDbEntity
  8
SEIHIN
  6
CONTINUOUS
 62
     3
 48
5.0
100
AcDbLine
 10
256.6823253395637
 20
128.8274389923886
 30
0.0
 11
251.9024482389399
 21
128.8274389923886
 31
0.0
  0
LINE
  5
EB9
330
1A
100
AcDbEntity
  8
SEIHIN
  6
CONTINUOUS
 62
     3
 48
5.0
100
AcDbLine
 10
251.9024482389399
 20
65.01488157078518
 30
0.0
 11
257.1751267629851
 21
65.01488157078518
 31
0.0
  0
LINE
  5
EBA
330
1A
100
AcDbEntity
  8
CENTER_L
  6
CENTER
 48
5.0
100
AcDbLine
 10
247.9803707232463
 20
62.18388662362736
 30
0.0
 11
282.5630538433838
 21
62.18388662362736
 31
0.0
  0
LINE
  5
EBC
330
1A
100
AcDbEntity
  8
SEIHIN
  6
CONTINUOUS
 62
     3
 48
5.0
100
AcDbLine
 10
272.4024482389399
 20
66.59402120826519
 30
0.0
 11
272.4024482389399
 21
127.8070580777096
 31
0.0
  0
LINE
  5
EBD
330
1A
100
AcDbEntity
  8
SEIHIN
  6
CONTINUOUS
 62
     3
 48
5.0
100
AcDbLine
 10
256.4024482389399
 20
66.59402120826519
 30
0.0
 11
256.4024482389399
 21
127.8070580777096
 31
0.0
  0
ARC
  5
EBE
330
1A
100
AcDbEntity
  8
SEIHIN
  6
CONTINUOUS
 62
     3
 48
5.0
100
AcDbCircle
 10
270.4024482389399
 20
66.59402120826519
 30
0.0
 40
2.0
100
AcDbArc
 50
270.0
 51
0.0
  0
LINE
  5
EBF
330
1A
100
AcDbEntity
  8
SEIHIN
  6
CONTINUOUS
 62
     3
 48
5.0
100
AcDbLine
 10
271.6297697148945
 20
65.01488157078518
 30
0.0
 11
276.9024482389399
 21
65.01488157078518
 31
0.0
  0
LINE
  5
EC0
330
1A
100
AcDbEntity
  8
SEIHIN
  6
CONTINUOUS
 62
     3
 48
5.0
100
AcDbLine
 10
258.4024482389399
 20
64.59402120826519
 30
0.0
 11
270.4024482389399
 21
64.59402120826519
 31
0.0
  0
ARC
  5
EC1
330
1A
100
AcDbEntity
  8
SEIHIN
  6
CONTINUOUS
 62
     3
 48
5.0
100
AcDbCircle
 10
258.4024482389399
 20
66.59402120826519
 30
0.0
 40
2.0
100
AcDbArc
 50
180.0
 51
270.0
  0
ARC
  5
EC6
330
1A
100
AcDbEntity
  8
SEIHIN
  6
CONTINUOUS
 62
     3
 48
5.0
100
AcDbCircle
 10
275.90244823894
 20
64.01488157078517
 30
0.0
 40
1.0
100
AcDbArc
 50
0.0
 51
90.0
  0
ARC
  5
EC9
330
1A
100
AcDbEntity
  8
SEIHIN
  6
CONTINUOUS
 62
     3
 48
5.0
100
AcDbCircle
 10
258.4024482389399
 20
127.8070580777096
 30
0.0
 40
2.0
100
AcDbArc
 50
90.0
 51
180.0
  0
ARC
  5
ECA
330
1A
100
AcDbEntity
  8
SEIHIN
  6
CONTINUOUS
 62
     3
 48
5.0
100
AcDbCircle
 10
270.4024482389399
 20
127.8070580777096
 30
0.0
 40
2.0
100
AcDbArc
 50
0.0
 51
90.0
  0
LINE
  5
ECB
330
1A
100
AcDbEntity
  8
SEIHIN
  6
CONTINUOUS
 62
     3
 48
5.0
100
AcDbLine
 10
272.122571138316
 20
128.8274389923886
 30
0.0
 11
276.9024482389399
 21
128.8274389923886
 31
0.0
  0
LINE
  5
ED2
330
1A
100
AcDbEntity
  8
SEIHIN
  6
CONTINUOUS
 62
     3
 48
5.0
100
AcDbLine
 10
258.4024482389399
 20
129.8070580777096
 30
0.0
 11
270.4024482389399
 21
129.8070580777096
 31
0.0
  0
ARC
  5
EDD
330
1A
100
AcDbEntity
  8
SEIHIN
  6
CONTINUOUS
 62
     3
 48
5.0
100
AcDbCircle
 10
264.4024482389399
 20
158.1973121880504
 30
0.0
 40
13.76562499999998
100
AcDbArc
 50
24.76151385761379
 51
155.2384861423862
  0
LINE
  5
FCB
330
1A
100
AcDbEntity
  8
CENTER_L
  6
CENTER
 48
5.0
100
AcDbLine
 10
133.8712072430553
 20
254.00283496032
 30
0.0
 11
133.8712072430553
 21
218.1096019695835
 31
0.0
  0
LINE
  5
FCC
330
1A
100
AcDbEntity
  8
CENTER_L
  6
CENTER
 48
5.0
100
AcDbLine
 10
284.2068775529749
 20
97.10289167646958
 30
0.0
 11
244.3764058350432
 21
97.10289167646958
 31
0.0
  0
LINE
  5
FCD
330
1A
100
AcDbEntity
  8
CENTER_L
  6
CENTER
 48
5.0
100
AcDbLine
 10
177.0332897013545
 20
97.10289167646958
 30
0.0
 11
93.49179717019138
 21
97.10289167646958
 31
0.0
  0
LINE
  5
102B
330
1A
100
AcDbEntity
  8
CENTER_L
  6
CENTER
 48
5.0
100
AcDbLine
 10
264.4024482389399
 20
177.6903193168031
 30
0.0
 11
264.4024482389399
 21
51.00577947585907
 31
0.0
  0
LINE
  5
102C
330
1A
100
AcDbEntity
  8
CENTER_L
  6
CENTER
 48
5.0
100
AcDbLine
 10
245.0587755600256
 20
161.9629371880503
 30
0.0
 11
284.9024482389399
 21
161.9629371880503
 31
0.0
  0
LINE
  5
102D
330
1A
100
AcDbEntity
  8
CENTER_L
  6
CENTER
 48
5.0
100
AcDbLine
 10
154.6313630434781
 20
141.9629371880503
 30
0.0
 11
121.5298756830645
 21
141.9629371880503
 31
0.0
  0
LINE
  5
102E
330
1A
100
AcDbEntity
  8
SEIHIN
  6
CONTINUOUS
 62
     3
 48
5.0
100
AcDbLine
 10
101.6212072430553
 20
223.9440169748243
 30
0.0
 11
101.6212072430553
 21
227.8215564641125
 31
0.0
  0
LINE
  5
1039
330
1A
100
AcDbEntity
  8
SEIHIN
  6
CONTINUOUS
 62
     3
 48
5.0
100
AcDbLine
 10
101.6212072430553
 20
245.066477485536
 30
0.0
 11
101.6212072430553
 21
248.9440169748242
 31
0.0
  0
DIMENSION
  5
1089
330
1A
100
AcDbEntity
  8
SUNPOU
100
AcDbDimension
  2
*D1
 10
238.4141606845123
 20
161.9629371880503
 30
0.0
 11
235.5965363530015
 21
167.0439251602789
 31
0.0
 70
   160
  3
STANDARD
100
AcDbAlignedDimension
 13
264.4024482389399
 23
171.9629371880504
 33
0.0
 14
245.0587755600256
 24
161.9629371880503
 34
0.0
 50
90.0
100
AcDbRotatedDimension
1001
ACAD
1000
DSTYLE
1002
{
1070
   287
1070
     5
1070
   287
1070
     5
1070
   287
1070
     5
1070
   287
1070
     5
1070
   287
1070
     5
1070
   287
1070
     5
1070
   287
1070
     5
1070
   287
1070
     5
1070
   287
1070
     5
1070
   287
1070
     5
1070
    41
1040
3.0
1070
    42
1040
2.0
1070
    43
1040
7.0
1070
    44
1040
1.5
1070
    73
1070
     0
1070
    74
1070
     0
1070
    77
1070
     3
1070
   140
1040
3.0
1070
   141
1040
3.0
1070
   147
1040
1.0
1070
   173
1070
     1
1070
   176
1070
   256
1070
   177
1070
   256
1070
   178
1070
   256
1070
   271
1070
     0
1070
   272
1070
     0
1070
   279
1070
     2
1070
   341
1005
B2
1070
     6
1000
OPEN
1070
     7
1000
OPEN
1070
   371
1070
    -1
1070
   372
1070
    -1
1002
}
  0
DIMENSION
  5
10A7
330
1A
100
AcDbEntity
  8
SUNPOU
100
AcDbDimension
  2
*D2
 10
238.4141606845123
 20
141.9629371880503
 30
0.0
 11
235.9141606845123
 21
151.9629371880504
 31
0.0
 70
    32
  3
STANDARD
100
AcDbAlignedDimension
 13
245.0587755600256
 23
161.9629371880503
 33
0.0
 14
245.4373669170311
 24
141.9629371880503
 34
0.0
 50
90.0
100
AcDbRotatedDimension
1001
ACAD
1000
DSTYLE
1002
{
1070
    41
1040
3.0
1070
    42
1040
2.0
1070
    43
1040
7.0
1070
    44
1040
1.5
1070
    73
1070
     0
1070
    74
1070
     0
1070
    77
1070
     3
1070
   140
1040
3.0
1070
   141
1040
3.0
1070
   147
1040
1.0
1070
   173
1070
     1
1070
   176
1070
   256
1070
   177
1070
   256
1070
   178
1070
   256
1070
   271
1070
     0
1070
   272
1070
     0
1070
   341
1005
B2
1070
     6
1000
OPEN
1070
     7
1000
OPEN
1070
   371
1070
    -1
1070
   372
1070
    -1
1002
}
  0
DIMENSION
  5
10B4
330
1A
100
AcDbEntity
  8
SUNPOU
100
AcDbDimension
  2
*D3
 10
110.2772566826619
 20
73.67453285742898
 30
0.0
 11
143.074741518183
 21
110.2526803738828
 31
0.0
 70
   163
  3
STANDARD
100
AcDbDiametricDimension
 15
157.4651578034486
 25
120.53125049551
 35
0.0
 40
0.0
1001
ACAD
1000
DSTYLE
1002
{
1070
   287
1070
     5
1070
   287
1070
     5
1070
   287
1070
     5
1070
   287
1070
     5
1070
   287
1070
     5
1070
   287
1070
     5
1070
   287
1070
     5
1070
   287
1070
     5
1070
   287
1070
     5
1070
   287
1070
     5
1070
    41
1040
3.0
1070
    42
1040
2.0
1070
    43
1040
7.0
1070
    44
1040
1.5
1070
    73
1070
     0
1070
    74
1070
     0
1070
    77
1070
     3
1070
   140
1040
3.0
1070
   141
1040
3.0
1070
   147
1040
1.0
1070
   173
1070
     1
1070
   176
1070
   256
1070
   177
1070
   256
1070
   178
1070
   256
1070
   271
1070
     0
1070
   272
1070
     0
1070
   279
1070
     2
1070
   341
1005
B2
1070
     6
1000
OPEN
1070
     7
1000
OPEN
1070
   371
1070
    -1
1070
   372
1070
    -1
1002
}
  0
DIMENSION
  5
10CA
330
1A
100
AcDbEntity
  8
SUNPOU
100
AcDbDimension
  2
*D4
 10
106.1747206125299
 20
84.93871770841357
 30
0.0
 11
152.6160710197857
 21
108.4075182813638
 31
0.0
 70
   163
  1
(<>)
  3
STANDARD
100
AcDbDiametricDimension
 15
161.5676938735806
 25
109.2670656445254
 35
0.0
 40
0.0
1001
ACAD
1000
DSTYLE
1002
{
1070
   287
1070
     5
1070
   287
1070
     5
1070
   287
1070
     5
1070
   287
1070
     5
1070
   287
1070
     5
1070
   287
1070
     5
1070
   287
1070
     5
1070
   287
1070
     5
1070
   287
1070
     5
1070
   287
1070
     5
1070
    41
1040
3.0
1070
    42
1040
2.0
1070
    43
1040
7.0
1070
    44
1040
1.5
1070
    73
1070
     0
1070
    74
1070
     0
1070
    77
1070
     3
1070
   140
1040
3.0
1070
   141
1040
3.0
1070
   147
1040
1.0
1070
   173
1070
     1
1070
   176
1070
   256
1070
   177
1070
   256
1070
   178
1070
   256
1070
   271
1070
     1
1070
   272
1070
     0
1070
   279
1070
     2
1070
   341
1005
B2
1070
     6
1000
OPEN
1070
     7
1000
OPEN
1070
   371
1070
    -1
1070
   372
1070
    -1
1002
}
  0
DIMENSION
  5
10DF
330
1A
100
AcDbEntity
  8
SUNPOU
100
AcDbDimension
  2
*D5
 10
167.1212072430553
 20
207.9892164581029
 30
0.0
 11
133.8712072430553
 21
210.489216458103
 31
0.0
 70
    32
  1
φ<>
  3
STANDARD
100
AcDbAlignedDimension
 13
100.6212072430553
 23
236.4440169748243
 33
0.0
 14
167.1212072430553
 24
236.4440169748243
 34
0.0
100
AcDbRotatedDimension
1001
ACAD
1000
DSTYLE
1002
{
1070
    41
1040
3.0
1070
    42
1040
2.0
1070
    43
1040
7.0
1070
    44
1040
1.5
1070
    73
1070
     0
1070
    74
1070
     0
1070
    77
1070
     3
1070
   140
1040
3.0
1070
   141
1040
3.0
1070
   147
1040
1.0
1070
   173
1070
     1
1070
   176
1070
   256
1070
   177
1070
   256
1070
   178
1070
   256
1070
   271
1070
     0
1070
   272
1070
     0
1070
   341
1005
B2
1070
     6
1000
OPEN
1070
     7
1000
OPEN
1070
   371
1070
    -1
1070
   372
1070
    -1
1002
}
  0
LINE
  5
10F7
330
1A
100
AcDbEntity
  8
CENTER_L
  6
CENTER
 48
5.0
100
AcDbLine
 10
142.242271834335
 20
62.18388662362736
 30
0.0
 11
125.5001426517756
 21
62.18388662362736
 31
0.0
  0
ARC
  5
1109
330
1A
100
AcDbEntity
  8
SEIHIN
  6
CONTINUOUS
 62
     3
 48
5.0
100
AcDbCircle
 10
133.8712072430553
 20
62.18388662362736
 30
0.0
 40
4.66900505284218
100
AcDbArc
 50
141.9279833758465
 51
90.0
  0
ARC
  5
110E
330
1A
100
AcDbEntity
  8
SEIHIN
  6
CONTINUOUS
 62
     3
 48
5.0
100
AcDbCircle
 10
274.5370487194944
 20
62.18388662362734
 30
0.0
 40
4.365399519445553
100
AcDbArc
 50
302.8097870253294
 51
57.19021297467079
  0
ARC
  5
1373
330
1A
100
AcDbEntity
  8
SEIHIN
  6
CONTINUOUS
 62
     3
 48
5.0
100
AcDbCircle
 10
133.8712072430553
 20
62.18388662362736
 30
0.0
 40
5.16900505284218
100
AcDbArc
 50
34.79408732408328
 51
66.47642138376447
  0
CIRCLE
  5
142A
330
1A
100
AcDbEntity
  8
SEIHIN
 62
     4
100
AcDbCircle
 10
264.4024482389399
 20
161.9629371880503
 30
0.0
 40
2.6
  0
CIRCLE
  5
142B
330
1A
100
AcDbEntity
  8
SEIHIN
100
AcDbCircle
 10
264.4024482389399
 20
161.9629371880503
 30
0.0
 40
3.0
  0
CIRCLE
  5
142C
330
1A
100
AcDbEntity
  8
SEIHIN
100
AcDbCircle
 10
264.4024482389399
 20
161.9629371880503
 30
0.0
 40
5.000000000000056
  0
LINE
  5
142D
330
1A
100
AcDbEntity
  8
SEIHIN
100
AcDbLine
 10
259.40244823894
 20
159.0761858421022
 30
0.0
 11
259.40244823894
 21
164.8496885339985
 31
0.0
  0
LINE
  5
142E
330
1A
100
AcDbEntity
  8
SEIHIN
100
AcDbLine
 10
269.40244823894
 20
159.0761858421021
 30
0.0
 11
269.40244823894
 21
164.8496885339985
 31
0.0
  0
LINE
  5
142F
330
1A
100
AcDbEntity
  8
SEIHIN
100
AcDbLine
 10
264.40244823894
 20
156.1894344961541
 30
0.0
 11
269.40244823894
 21
159.0761858421022
 31
0.0
  0
LINE
  5
1430
330
1A
100
AcDbEntity
  8
SEIHIN
100
AcDbLine
 10
264.4024482389399
 20
156.1894344961541
 30
0.0
 11
259.40244823894
 21
159.0761858421022
 31
0.0
  0
LINE
  5
1431
330
1A
100
AcDbEntity
  8
SEIHIN
100
AcDbLine
 10
269.40244823894
 20
164.8496885339985
 30
0.0
 11
264.40244823894
 21
167.7364398799466
 31
0.0
  0
LINE
  5
1432
330
1A
100
AcDbEntity
  8
SEIHIN
100
AcDbLine
 10
259.40244823894
 20
164.8496885339985
 30
0.0
 11
264.40244823894
 21
167.7364398799466
 31
0.0
  0
LINE
  5
1433
330
1A
100
AcDbEntity
  8
SEIHIN
100
AcDbLine
 10
264.4024482389399
 20
136.1894344961541
 30
0.0
 11
259.40244823894
 21
139.0761858421022
 31
0.0
  0
LINE
  5
1434
330
1A
100
AcDbEntity
  8
SEIHIN
100
AcDbLine
 10
264.40244823894
 20
136.1894344961541
 30
0.0
 11
269.40244823894
 21
139.0761858421022
 31
0.0
  0
CIRCLE
  5
1435
330
1A
100
AcDbEntity
  8
SEIHIN
100
AcDbCircle
 10
264.4024482389399
 20
141.9629371880503
 30
0.0
 40
5.000000000000056
  0
LINE
  5
1436
330
1A
100
AcDbEntity
  8
SEIHIN
100
AcDbLine
 10
259.40244823894
 20
144.8496885339985
 30
0.0
 11
264.40244823894
 21
147.7364398799466
 31
0.0
  0
CIRCLE
  5
1437
330
1A
100
AcDbEntity
  8
SEIHIN
100
AcDbCircle
 10
264.4024482389399
 20
141.9629371880503
 30
0.0
 40
3.0
  0
CIRCLE
  5
1438
330
1A
100
AcDbEntity
  8
SEIHIN
 62
     4
100
AcDbCircle
 10
264.4024482389399
 20
141.9629371880503
 30
0.0
 40
2.6
  0
LINE
  5
1439
330
1A
100
AcDbEntity
  8
SEIHIN
100
AcDbLine
 10
259.40244823894
 20
139.0761858421022
 30
0.0
 11
259.40244823894
 21
144.8496885339985
 31
0.0
  0
LINE
  5
143A
330
1A
100
AcDbEntity
  8
SEIHIN
100
AcDbLine
 10
269.40244823894
 20
139.0761858421021
 30
0.0
 11
269.40244823894
 21
144.8496885339985
 31
0.0
  0
LINE
  5
143B
330
1A
100
AcDbEntity
  8
SEIHIN
100
AcDbLine
 10
269.40244823894
 20
144.8496885339985
 30
0.0
 11
264.40244823894
 21
147.7364398799466
 31
0.0
  0
LINE
  5
145A
330
1A
100
AcDbEntity
  8
SEIHIN
100
AcDbLine
 10
130.8712072430553
 20
233.4440169748242
 30
0.0
 11
136.8712072430553
 21
233.4440169748242
 31
0.0
  0
LINE
  5
145B
330
1A
100
AcDbEntity
  8
SEIHIN
100
AcDbLine
 10
130.8712072430553
 20
233.8440169748242
 30
0.0
 11
136.8712072430553
 21
233.8440169748243
 31
0.0
  0
LINE
  5
145D
330
1A
100
AcDbEntity
  8
SEIHIN
100
AcDbLine
 10
130.8712072430553
 20
239.0440169748243
 30
0.0
 11
136.8712072430553
 21
239.0440169748242
 31
0.0
  0
LINE
  5
145E
330
1A
100
AcDbEntity
  8
SEIHIN
100
AcDbLine
 10
130.8712072430553
 20
239.4440169748243
 30
0.0
 11
136.8712072430553
 21
239.4440169748242
 31
0.0
  0
TEXT
  5
1484
330
1A
100
AcDbEntity
  8
SUNPOU
100
AcDbText
 10
157.2126876883392
 20
176.3747528907449
 30
0.0
 40
3.0
  1
7.5下穴
100
AcDbText
  0
LINE
  5
1485
330
1A
100
AcDbEntity
  8
SEIHIN
100
AcDbLine
 10
130.8712072430553
 20
164.9629371880504
 30
0.0
 11
136.8712072430553
 21
164.9629371880504
 31
0.0
  0
LINE
  5
1486
330
1A
100
AcDbEntity
  8
SEIHIN
100
AcDbLine
 10
130.8712072430553
 20
164.5629371880504
 30
0.0
 11
136.8712072430553
 21
164.5629371880503
 31
0.0
  0
LINE
  5
1487
330
1A
100
AcDbEntity
  8
SEIHIN
100
AcDbLine
 10
130.8712072430553
 20
159.3629371880503
 30
0.0
 11
136.8712072430553
 21
159.3629371880504
 31
0.0
  0
LINE
  5
1488
330
1A
100
AcDbEntity
  8
SEIHIN
100
AcDbLine
 10
130.8712072430553
 20
158.9629371880503
 30
0.0
 11
136.8712072430553
 21
158.9629371880503
 31
0.0
  0
LINE
  5
1489
330
1A
100
AcDbEntity
  8
SEIHIN
100
AcDbLine
 10
142.4712072430553
 20
166.2829852571822
 30
0.0
 11
142.4712072430553
 21
157.5329852571822
 31
0.0
  0
ARC
  5
148A
330
1A
100
AcDbEntity
  8
SEIHIN
100
AcDbCircle
 10
133.2241165202308
 20
161.9354612226254
 30
0.0
 40
9.247131542528128
100
AcDbArc
 50
341.2491427195961
 51
18.7508572804041
  0
LINE
  5
148B
330
1A
100
AcDbEntity
  8
SEIHIN
100
AcDbLine
 10
138.8712072430553
 20
166.2829852571822
 30
0.0
 11
138.8712072430553
 21
157.5329852571822
 31
0.0
  0
ARC
  5
148C
330
1A
100
AcDbEntity
  8
SEIHIN
100
AcDbCircle
 10
148.1182979658796
 20
161.9354612226254
 30
0.0
 40
9.247131542528128
100
AcDbArc
 50
161.2491427195959
 51
198.7508572804038
  0
LINE
  5
148D
330
1A
100
AcDbEntity
  8
SEIHIN
100
AcDbLine
 10
138.8712072430552
 20
166.2829852571822
 30
0.0
 11
138.8712072430552
 21
157.5329852571822
 31
0.0
  0
LINE
  5
148E
330
1A
100
AcDbEntity
  8
SEIHIN
100
AcDbLine
 10
147.8712072430554
 20
158.9629371880504
 30
0.0
 11
148.8712072430553
 21
159.9629371880503
 31
0.0
  0
LINE
  5
148F
330
1A
100
AcDbEntity
  8
SEIHIN
100
AcDbLine
 10
147.8712072430553
 20
164.9629371880505
 30
0.0
 11
147.8712072430553
 21
158.9629371880502
 31
0.0
  0
LINE
  5
1490
330
1A
100
AcDbEntity
  8
SEIHIN
100
AcDbLine
 10
139.3619549718665
 20
158.9079852571823
 30
0.0
 11
141.9804595142439
 21
158.9079852571822
 31
0.0
  0
LINE
  5
1491
330
1A
100
AcDbEntity
  8
SEIHIN
100
AcDbLine
 10
139.3619549718665
 20
156.1579852571822
 30
0.0
 11
141.9804595142439
 21
156.1579852571822
 31
0.0
  0
ARC
  5
1492
330
1A
100
AcDbEntity
  8
SEIHIN
100
AcDbCircle
 10
141.042850847496
 20
157.5329852571822
 30
0.0
 40
2.171643604440794
100
AcDbArc
 50
140.7162788968157
 51
219.2837211031842
  0
LINE
  5
1493
330
1A
100
AcDbEntity
  8
SEIHIN
100
AcDbLine
 10
142.4712072430553
 20
158.9629371880503
 30
0.0
 11
147.8712072430553
 21
158.9629371880504
 31
0.0
  0
LINE
  5
1494
330
1A
100
AcDbEntity
  8
SEIHIN
100
AcDbLine
 10
142.4712072430553
 20
159.3629371880504
 30
0.0
 11
148.2712072430553
 21
159.3629371880504
 31
0.0
  0
ARC
  5
1495
330
1A
100
AcDbEntity
  8
SEIHIN
100
AcDbCircle
 10
140.2995636386144
 20
157.5329852571822
 30
0.0
 40
2.171643604440794
100
AcDbArc
 50
320.7162788968157
 51
39.28372110318427
  0
LINE
  5
1496
330
1A
100
AcDbEntity
  8
SEIHIN
100
AcDbLine
 10
147.8712072430554
 20
164.9629371880504
 30
0.0
 11
148.8712072430553
 21
163.9629371880504
 31
0.0
  0
LINE
  5
1497
330
1A
100
AcDbEntity
  8
SEIHIN
100
AcDbLine
 10
139.3619549718665
 20
167.6579852571822
 30
0.0
 11
141.9804595142439
 21
167.6579852571822
 31
0.0
  0
LINE
  5
1498
330
1A
100
AcDbEntity
  8
SEIHIN
100
AcDbLine
 10
139.3619549718665
 20
164.9079852571821
 30
0.0
 11
141.9804595142439
 21
164.9079852571822
 31
0.0
  0
ARC
  5
1499
330
1A
100
AcDbEntity
  8
SEIHIN
100
AcDbCircle
 10
141.042850847496
 20
166.2829852571822
 30
0.0
 40
2.171643604440794
100
AcDbArc
 50
140.7162788968157
 51
219.2837211031842
  0
ARC
  5
149A
330
1A
100
AcDbEntity
  8
SEIHIN
100
AcDbCircle
 10
140.2995636386144
 20
166.2829852571822
 30
0.0
 40
2.171643604440794
100
AcDbArc
 50
320.7162788968157
 51
39.28372110318431
  0
LINE
  5
149B
330
1A
100
AcDbEntity
  8
SEIHIN
100
AcDbLine
 10
142.4712072430553
 20
164.5629371880503
 30
0.0
 11
148.2712072430553
 21
164.5629371880503
 31
0.0
  0
LINE
  5
149C
330
1A
100
AcDbEntity
  8
SEIHIN
100
AcDbLine
 10
142.4712072430553
 20
164.9629371880503
 30
0.0
 11
147.8712072430553
 21
164.9629371880503
 31
0.0
  0
LINE
  5
149D
330
1A
100
AcDbEntity
  8
SEIHIN
100
AcDbLine
 10
148.8712072430553
 20
163.9629371880504
 30
0.0
 11
148.8712072430553
 21
159.9629371880503
 31
0.0
  0
ARC
  5
14AB
330
1A
100
AcDbEntity
  8
SEIHIN
100
AcDbCircle
 10
140.2995636386144
 20
137.5329852571822
 30
0.0
 40
2.171643604440794
100
AcDbArc
 50
320.7162788968157
 51
39.28372110318427
  0
ARC
  5
14AC
330
1A
100
AcDbEntity
  8
SEIHIN
100
AcDbCircle
 10
141.042850847496
 20
137.5329852571822
 30
0.0
 40
2.171643604440794
100
AcDbArc
 50
140.7162788968157
 51
219.2837211031842
  0
LINE
  5
14AD
330
1A
100
AcDbEntity
  8
SEIHIN
100
AcDbLine
 10
138.8712072430552
 20
146.2829852571822
 30
0.0
 11
138.8712072430552
 21
137.5329852571822
 31
0.0
  0
LINE
  5
14AE
330
1A
100
AcDbEntity
  8
SEIHIN
100
AcDbLine
 10
138.8712072430553
 20
146.2829852571822
 30
0.0
 11
138.8712072430553
 21
137.5329852571822
 31
0.0
  0
LINE
  5
14AF
330
1A
100
AcDbEntity
  8
SEIHIN
100
AcDbLine
 10
142.4712072430553
 20
146.2829852571822
 30
0.0
 11
142.4712072430553
 21
137.5329852571822
 31
0.0
  0
LINE
  5
14B1
330
1A
100
AcDbEntity
  8
SEIHIN
100
AcDbLine
 10
139.3619549718665
 20
136.1579852571821
 30
0.0
 11
141.9804595142439
 21
136.1579852571821
 31
0.0
  0
LINE
  5
14B2
330
1A
100
AcDbEntity
  8
SEIHIN
100
AcDbLine
 10
130.8712072430553
 20
138.9629371880503
 30
0.0
 11
136.8712072430553
 21
138.9629371880503
 31
0.0
  0
LINE
  5
14B3
330
1A
100
AcDbEntity
  8
SEIHIN
100
AcDbLine
 10
130.8712072430553
 20
139.3629371880503
 30
0.0
 11
136.8712072430553
 21
139.3629371880503
 31
0.0
  0
LINE
  5
14B4
330
1A
100
AcDbEntity
  8
SEIHIN
100
AcDbLine
 10
130.8712072430553
 20
144.5629371880503
 30
0.0
 11
136.8712072430553
 21
144.5629371880503
 31
0.0
  0
LINE
  5
14B5
330
1A
100
AcDbEntity
  8
SEIHIN
100
AcDbLine
 10
130.8712072430553
 20
144.9629371880504
 30
0.0
 11
136.8712072430553
 21
144.9629371880503
 31
0.0
  0
LINE
  5
14BB
330
1A
100
AcDbEntity
  8
SEIHIN
100
AcDbLine
 10
147.8712072430554
 20
144.9629371880503
 30
0.0
 11
148.8712072430553
 21
143.9629371880503
 31
0.0
  0
LINE
  5
14BC
330
1A
100
AcDbEntity
  8
SEIHIN
100
AcDbLine
 10
147.8712072430554
 20
138.9629371880504
 30
0.0
 11
148.8712072430553
 21
139.9629371880503
 31
0.0
  0
LINE
  5
14BD
330
1A
100
AcDbEntity
  8
SEIHIN
100
AcDbLine
 10
139.3619549718665
 20
144.9079852571821
 30
0.0
 11
141.9804595142439
 21
144.9079852571822
 31
0.0
  0
LINE
  5
14BE
330
1A
100
AcDbEntity
  8
SEIHIN
100
AcDbLine
 10
139.3619549718665
 20
147.6579852571822
 30
0.0
 11
141.9804595142439
 21
147.6579852571822
 31
0.0
  0
LINE
  5
14BF
330
1A
100
AcDbEntity
  8
SEIHIN
100
AcDbLine
 10
139.3619549718665
 20
138.9079852571823
 30
0.0
 11
141.9804595142439
 21
138.9079852571822
 31
0.0
  0
ARC
  5
14C0
330
1A
100
AcDbEntity
  8
SEIHIN
100
AcDbCircle
 10
148.1182979658796
 20
141.9354612226254
 30
0.0
 40
9.247131542528128
100
AcDbArc
 50
161.2491427195959
 51
198.7508572804038
  0
ARC
  5
14C1
330
1A
100
AcDbEntity
  8
SEIHIN
100
AcDbCircle
 10
141.042850847496
 20
146.2829852571822
 30
0.0
 40
2.171643604440794
100
AcDbArc
 50
140.7162788968157
 51
219.2837211031842
  0
LINE
  5
14C2
330
1A
100
AcDbEntity
  8
SEIHIN
100
AcDbLine
 10
147.8712072430553
 20
144.9629371880505
 30
0.0
 11
147.8712072430553
 21
138.9629371880502
 31
0.0
  0
ARC
  5
14C3
330
1A
100
AcDbEntity
  8
SEIHIN
100
AcDbCircle
 10
133.2241165202308
 20
141.9354612226254
 30
0.0
 40
9.247131542528128
100
AcDbArc
 50
341.2491427195961
 51
18.7508572804041
  0
LINE
  5
14C4
330
1A
100
AcDbEntity
  8
SEIHIN
100
AcDbLine
 10
142.4712072430553
 20
139.3629371880504
 30
0.0
 11
148.2712072430553
 21
139.3629371880504
 31
0.0
  0
LINE
  5
14C5
330
1A
100
AcDbEntity
  8
SEIHIN
100
AcDbLine
 10
142.4712072430553
 20
138.9629371880503
 30
0.0
 11
147.8712072430553
 21
138.9629371880504
 31
0.0
  0
LINE
  5
14C6
330
1A
100
AcDbEntity
  8
SEIHIN
100
AcDbLine
 10
142.4712072430553
 20
144.9629371880503
 30
0.0
 11
147.8712072430553
 21
144.9629371880503
 31
0.0
  0
LINE
  5
14C7
330
1A
100
AcDbEntity
  8
SEIHIN
100
AcDbLine
 10
142.4712072430553
 20
144.5629371880503
 30
0.0
 11
148.2712072430553
 21
144.5629371880503
 31
0.0
  0
ARC
  5
14C8
330
1A
100
AcDbEntity
  8
SEIHIN
100
AcDbCircle
 10
140.2995636386144
 20
146.2829852571822
 30
0.0
 40
2.171643604440794
100
AcDbArc
 50
320.7162788968157
 51
39.28372110318431
  0
LINE
  5
14C9
330
1A
100
AcDbEntity
  8
SEIHIN
100
AcDbLine
 10
148.8712072430553
 20
143.9629371880503
 30
0.0
 11
148.8712072430553
 21
139.9629371880502
 31
0.0
  0
DIMENSION
  5
1721
330
1A
100
AcDbEntity
  8
SUNPOU
100
AcDbDimension
  2
*D8
 10
182.8085148385862
 20
243.9440169748242
 30
0.0
 11
180.3085148385862
 21
236.4440169748243
 31
0.0
 70
    32
  3
STANDARD
100
AcDbAlignedDimension
 13
166.1212072430553
 23
228.9440169748242
 33
0.0
 14
166.1212072430553
 24
243.9440169748242
 34
0.0
 50
90.0
100
AcDbRotatedDimension
1001
ACAD
1000
DSTYLE
1002
{
1070
    41
1040
3.0
1070
    42
1040
2.0
1070
    43
1040
7.0
1070
    44
1040
1.5
1070
    73
1070
     0
1070
    74
1070
     0
1070
    77
1070
     3
1070
   140
1040
3.0
1070
   141
1040
3.0
1070
   147
1040
1.0
1070
   173
1070
     1
1070
   176
1070
   256
1070
   177
1070
   256
1070
   178
1070
   256
1070
   271
1070
     0
1070
   272
1070
     0
1070
   341
1005
B2
1070
     6
1000
OPEN
1070
     7
1000
OPEN
1070
   371
1070
    -1
1070
   372
1070
    -1
1002
}
  0
DIMENSION
  5
1722
330
1A
100
AcDbEntity
  8
SUNPOU
100
AcDbDimension
  2
*D7
 10
191.2684561871153
 20
248.9440169748242
 30
0.0
 11
188.7684561871153
 21
236.4440169748243
 31
0.0
 70
    32
  3
STANDARD
100
AcDbAlignedDimension
 13
166.1212072430553
 23
223.9440169748243
 33
0.0
 14
166.1212072430553
 24
248.9440169748242
 34
0.0
 50
90.0
100
AcDbRotatedDimension
1001
ACAD
1000
DSTYLE
1002
{
1070
    41
1040
3.0
1070
    42
1040
2.0
1070
    43
1040
7.0
1070
    44
1040
1.5
1070
    73
1070
     0
1070
    74
1070
     0
1070
    77
1070
     3
1070
   140
1040
3.0
1070
   141
1040
3.0
1070
   147
1040
1.0
1070
   173
1070
     1
1070
   176
1070
   256
1070
   177
1070
   256
1070
   178
1070
   256
1070
   271
1070
     0
1070
   272
1070
     0
1070
   341
1005
B2
1070
     6
1000
OPEN
1070
     7
1000
OPEN
1070
   371
1070
    -1
1070
   372
1070
    -1
1002
}
  0
DIMENSION
  5
174D
330
1A
100
AcDbEntity
  8
SUNPOU
100
AcDbDimension
  2
*D10
 10
182.8085148385862
 20
128.9629371880504
 30
0.0
 11
180.3085148385862
 21
150.4629371880504
 31
0.0
 70
    32
  3
STANDARD
100
AcDbAlignedDimension
 13
138.8712072430555
 23
171.9629371880503
 33
0.0
 14
139.383084540766
 24
128.9629371880504
 34
0.0
 50
90.0
100
AcDbRotatedDimension
1001
ACAD
1000
DSTYLE
1002
{
1070
    41
1040
3.0
1070
    42
1040
2.0
1070
    43
1040
7.0
1070
    44
1040
1.5
1070
    73
1070
     0
1070
    74
1070
     0
1070
    77
1070
     3
1070
   140
1040
3.0
1070
   141
1040
3.0
1070
   147
1040
1.0
1070
   173
1070
     1
1070
   176
1070
   256
1070
   177
1070
   256
1070
   178
1070
   256
1070
   271
1070
     0
1070
   272
1070
     0
1070
   341
1005
B2
1070
     6
1000
OPEN
1070
     7
1000
OPEN
1070
   371
1070
    -1
1070
   372
1070
    -1
1002
}
  0
DIMENSION
  5
174E
330
1A
100
AcDbEntity
  8
SUNPOU
100
AcDbDimension
  2
*D9
 10
191.2684561871153
 20
57.51488157078516
 30
0.0
 11
188.7684561871153
 21
114.7389093794177
 31
0.0
 70
    32
  3
STANDARD
100
AcDbAlignedDimension
 13
144.8712072430555
 23
171.9629371880503
 33
0.0
 14
133.8712072430553
 24
57.51488157078518
 34
0.0
 50
90.0
100
AcDbRotatedDimension
1001
ACAD
1000
DSTYLE
1002
{
1070
    41
1040
3.0
1070
    42
1040
2.0
1070
    43
1040
7.0
1070
    44
1040
1.5
1070
    73
1070
     0
1070
    74
1070
     0
1070
    77
1070
     3
1070
   140
1040
3.0
1070
   141
1040
3.0
1070
   147
1040
1.0
1070
   173
1070
     1
1070
   176
1070
   256
1070
   177
1070
   256
1070
   178
1070
   256
1070
   271
1070
     0
1070
   272
1070
     0
1070
   341
1005
B2
1070
     6
1000
OPEN
1070
     7
1000
OPEN
1070
   371
1070
    -1
1070
   372
1070
    -1
1002
}
  0
LINE
  5
17E8
330
1A
100
AcDbEntity
  8
SEIHIN
100
AcDbLine
 10
130.1955970287781
 20
65.06303541036402
 30
0.0
 11
131.7063074464468
 21
63.87967814107408
 31
0.0
  0
LINE
  5
17EC
330
1A
100
AcDbEntity
  8
SEIHIN
  6
CONTINUOUS
 62
     3
 48
5.0
100
AcDbLine
 10
100.6415881577344
 20
230.4440169748243
 30
0.0
 11
100.6415881577344
 21
242.4440169748243
 31
0.0
  0
LINE
  5
17ED
330
1A
100
AcDbEntity
  8
SEIHIN
  6
CONTINUOUS
 62
     3
 48
5.0
100
AcDbLine
 10
101.6212072430553
 20
227.8215564641125
 30
0.0
 11
101.6212072430553
 21
223.9440169748243
 31
0.0
  0
ARC
  5
17EE
330
1A
100
AcDbEntity
  8
SEIHIN
  6
CONTINUOUS
 62
     3
 48
5.0
100
AcDbCircle
 10
102.6415881577343
 20
230.4440169748243
 30
0.0
 40
2.0
100
AcDbArc
 50
180.0
 51
220.9663086634138
  0
ARC
  5
17EF
330
1A
100
AcDbEntity
  8
SEIHIN
  6
CONTINUOUS
 62
     3
 48
5.0
100
AcDbCircle
 10
102.6415881577344
 20
242.4440169748243
 30
0.0
 40
2.0
100
AcDbArc
 50
139.0336913365864
 51
180.0
  0
LINE
  5
17F0
330
1A
100
AcDbEntity
  8
SEIHIN
  6
CONTINUOUS
 62
     3
 48
5.0
100
AcDbLine
 10
101.6212072430553
 20
245.066477485536
 30
0.0
 11
101.6212072430553
 21
248.9440169748243
 31
0.0
  0
ARC
  5
17F1
330
1A
100
AcDbEntity
  8
SEIHIN
  6
CONTINUOUS
 62
     3
 48
5.0
100
AcDbCircle
 10
99.62120724305533
 20
245.066477485536
 30
0.0
 40
2.0
100
AcDbArc
 50
319.0336913365868
 51
0.0
  0
ARC
  5
17F2
330
1A
100
AcDbEntity
  8
SEIHIN
  6
CONTINUOUS
 62
     3
 48
5.0
100
AcDbCircle
 10
99.62120724305533
 20
227.8215564641125
 30
0.0
 40
2.0
100
AcDbArc
 50
0.0
 51
40.96630866341377
  0
LINE
  5
17F3
330
1A
100
AcDbEntity
  8
SEIHIN
  6
CONTINUOUS
 62
     3
 48
5.0
100
AcDbLine
 10
167.1008263283762
 20
230.4440169748243
 30
0.0
 11
167.1008263283762
 21
242.4440169748243
 31
0.0
  0
ARC
  5
17F4
330
1A
100
AcDbEntity
  8
SEIHIN
  6
CONTINUOUS
 62
     3
 48
5.0
100
AcDbCircle
 10
168.1212072430553
 20
227.8215564641125
 30
0.0
 40
2.0
100
AcDbArc
 50
139.0336913365862
 51
180.0
  0
LINE
  5
17F5
330
1A
100
AcDbEntity
  8
SEIHIN
  6
CONTINUOUS
 62
     3
 48
5.0
100
AcDbLine
 10
166.1212072430553
 20
223.9440169748243
 30
0.0
 11
166.1212072430553
 21
227.8215564641125
 31
0.0
  0
LINE
  5
17F6
330
1A
100
AcDbEntity
  8
SEIHIN
  6
CONTINUOUS
 62
     3
 48
5.0
100
AcDbLine
 10
166.1212072430553
 20
227.8215564641125
 30
0.0
 11
166.1212072430553
 21
223.9440169748243
 31
0.0
  0
ARC
  5
17F7
330
1A
100
AcDbEntity
  8
SEIHIN
  6
CONTINUOUS
 62
     3
 48
5.0
100
AcDbCircle
 10
165.1008263283762
 20
230.4440169748243
 30
0.0
 40
2.0
100
AcDbArc
 50
319.0336913365862
 51
0.000000000000007
  0
LINE
  5
17F8
330
1A
100
AcDbEntity
  8
SEIHIN
  6
CONTINUOUS
 62
     3
 48
5.0
100
AcDbLine
 10
166.1212072430553
 20
245.066477485536
 30
0.0
 11
166.1212072430553
 21
248.9440169748242
 31
0.0
  0
LINE
  5
17F9
330
1A
100
AcDbEntity
  8
SEIHIN
  6
CONTINUOUS
 62
     3
 48
5.0
100
AcDbLine
 10
166.1212072430553
 20
245.066477485536
 30
0.0
 11
166.1212072430553
 21
248.9440169748243
 31
0.0
  0
ARC
  5
17FA
330
1A
100
AcDbEntity
  8
SEIHIN
  6
CONTINUOUS
 62
     3
 48
5.0
100
AcDbCircle
 10
165.1008263283762
 20
242.4440169748243
 30
0.0
 40
2.0
100
AcDbArc
 50
0.000000000000007
 51
40.96630866341351
  0
ARC
  5
17FB
330
1A
100
AcDbEntity
  8
SEIHIN
  6
CONTINUOUS
 62
     3
 48
5.0
100
AcDbCircle
 10
168.1212072430553
 20
245.066477485536
 30
0.0
 40
2.0
100
AcDbArc
 50
180.0
 51
220.9663086634132
  0
LINE
  5
1904
330
1A
100
AcDbEntity
  8
SEIHIN
100
AcDbLine
 10
125.3619549718664
 20
144.9629371880502
 30
0.0
 11
128.8712072430553
 21
144.9629371880503
 31
0.0
  0
LINE
  5
1905
330
1A
100
AcDbEntity
  8
SEIHIN
100
AcDbLine
 10
125.3619549718665
 20
147.7129371880503
 30
0.0
 11
128.8712072430553
 21
147.7129371880503
 31
0.0
  0
LINE
  5
1906
330
1A
100
AcDbEntity
  8
SEIHIN
100
AcDbLine
 10
125.3619549718664
 20
138.9629371880504
 30
0.0
 11
128.8712072430553
 21
138.9629371880503
 31
0.0
  0
LINE
  5
1907
330
1A
100
AcDbEntity
  8
SEIHIN
100
AcDbLine
 10
125.3619549718665
 20
136.2129371880503
 30
0.0
 11
128.8712072430553
 21
136.2129371880503
 31
0.0
  0
ARC
  5
1908
330
1A
100
AcDbEntity
  8
SEIHIN
100
AcDbCircle
 10
127.042850847496
 20
137.5879371880503
 30
0.0
 40
2.171643604440794
100
AcDbArc
 50
140.716278896814
 51
219.2837211031859
  0
LINE
  5
1909
330
1A
100
AcDbEntity
  8
SEIHIN
100
AcDbLine
 10
124.8712072430553
 20
146.3379371880503
 30
0.0
 11
124.8712072430553
 21
137.5879371880503
 31
0.0
  0
ARC
  5
190A
330
1A
100
AcDbEntity
  8
SEIHIN
100
AcDbCircle
 10
127.042850847496
 20
146.3379371880503
 30
0.0
 40
2.171643604440794
100
AcDbArc
 50
140.716278896814
 51
219.2837211031859
  0
ARC
  5
190B
330
1A
100
AcDbEntity
  8
SEIHIN
100
AcDbCircle
 10
134.1182979658796
 20
141.9904131534936
 30
0.0
 40
9.247131542528128
100
AcDbArc
 50
161.2491427195949
 51
198.7508572804042
  0
LINE
  5
1911
330
1A
100
AcDbEntity
  8
SEIHIN
100
AcDbLine
 10
128.8712072430553
 20
147.7129371880503
 30
0.0
 11
128.8712072430553
 21
136.2129371880503
 31
0.0
  0
LINE
  5
1920
330
1A
100
AcDbEntity
  8
SEIHIN
100
AcDbLine
 10
125.3619549718665
 20
167.7129371880503
 30
0.0
 11
128.8712072430553
 21
167.7129371880503
 31
0.0
  0
LINE
  5
1921
330
1A
100
AcDbEntity
  8
SEIHIN
100
AcDbLine
 10
125.3619549718664
 20
164.9629371880502
 30
0.0
 11
128.8712072430553
 21
164.9629371880503
 31
0.0
  0
LINE
  5
1922
330
1A
100
AcDbEntity
  8
SEIHIN
100
AcDbLine
 10
125.3619549718665
 20
156.2129371880503
 30
0.0
 11
128.8712072430553
 21
156.2129371880503
 31
0.0
  0
LINE
  5
1923
330
1A
100
AcDbEntity
  8
SEIHIN
100
AcDbLine
 10
125.3619549718664
 20
158.9629371880505
 30
0.0
 11
128.8712072430553
 21
158.9629371880503
 31
0.0
  0
LINE
  5
1924
330
1A
100
AcDbEntity
  8
SEIHIN
100
AcDbLine
 10
124.8712072430553
 20
166.3379371880503
 30
0.0
 11
124.8712072430553
 21
157.5879371880503
 31
0.0
  0
ARC
  5
1925
330
1A
100
AcDbEntity
  8
SEIHIN
100
AcDbCircle
 10
134.1182979658796
 20
161.9904131534936
 30
0.0
 40
9.247131542528128
100
AcDbArc
 50
161.2491427195949
 51
198.7508572804042
  0
ARC
  5
1926
330
1A
100
AcDbEntity
  8
SEIHIN
100
AcDbCircle
 10
127.042850847496
 20
157.5879371880503
 30
0.0
 40
2.171643604440794
100
AcDbArc
 50
140.716278896814
 51
219.2837211031859
  0
ARC
  5
1927
330
1A
100
AcDbEntity
  8
SEIHIN
100
AcDbCircle
 10
127.042850847496
 20
166.3379371880503
 30
0.0
 40
2.171643604440794
100
AcDbArc
 50
140.716278896814
 51
219.2837211031859
  0
LINE
  5
192D
330
1A
100
AcDbEntity
  8
SEIHIN
100
AcDbLine
 10
128.8712072430553
 20
167.7129371880503
 30
0.0
 11
128.8712072430553
 21
156.2129371880503
 31
0.0
  0
LINE
  5
1949
330
1A
100
AcDbEntity
  8
SEIHIN
100
AcDbLine
 10
142.4712072430553
 20
233.8440169748243
 30
0.0
 11
148.2712072430554
 21
233.8440169748243
 31
0.0
  0
LINE
  5
194A
330
1A
100
AcDbEntity
  8
SEIHIN
100
AcDbLine
 10
142.4712072430553
 20
233.4440169748242
 30
0.0
 11
147.8712072430553
 21
233.4440169748243
 31
0.0
  0
LINE
  5
194B
330
1A
100
AcDbEntity
  8
SEIHIN
100
AcDbLine
 10
142.4712072430553
 20
239.4440169748242
 30
0.0
 11
147.8712072430553
 21
239.4440169748242
 31
0.0
  0
LINE
  5
194C
330
1A
100
AcDbEntity
  8
SEIHIN
100
AcDbLine
 10
142.4712072430553
 20
239.0440169748242
 30
0.0
 11
148.2712072430554
 21
239.0440169748242
 31
0.0
  0
LINE
  5
194D
330
1A
100
AcDbEntity
  8
SEIHIN
100
AcDbLine
 10
125.3619549718665
 20
241.4714929402491
 30
0.0
 11
128.8712072430553
 21
241.4714929402491
 31
0.0
  0
LINE
  5
194E
330
1A
100
AcDbEntity
  8
SEIHIN
100
AcDbLine
 10
125.3619549718665
 20
231.4714929402491
 30
0.0
 11
128.8712072430553
 21
231.4714929402491
 31
0.0
  0
LINE
  5
194F
330
1A
100
AcDbEntity
  8
SEIHIN
100
AcDbLine
 10
125.3619549718665
 20
236.4714929402492
 30
0.0
 11
128.8712072430553
 21
236.4714929402492
 31
0.0
  0
ARC
  5
1950
330
1A
100
AcDbEntity
  8
SEIHIN
100
AcDbCircle
 10
131.4844149588161
 20
233.9714929402492
 30
0.0
 40
6.613207715760863
100
AcDbArc
 50
157.7882053649489
 51
202.211794635051
  0
LINE
  5
1951
330
1A
100
AcDbEntity
  8
SEIHIN
100
AcDbLine
 10
124.8712072430553
 20
233.9714929402492
 30
0.0
 11
124.8712072430553
 21
238.9714929402491
 31
0.0
  0
ARC
  5
1952
330
1A
100
AcDbEntity
  8
SEIHIN
100
AcDbCircle
 10
131.4844149588161
 20
238.9714929402491
 30
0.0
 40
6.613207715760863
100
AcDbArc
 50
157.7882053649489
 51
202.211794635051
  0
LINE
  5
1957
330
1A
100
AcDbEntity
  8
SEIHIN
100
AcDbLine
 10
128.8712072430553
 20
236.4714929402492
 30
0.0
 11
128.8712072430553
 21
231.4714929402491
 31
0.0
  0
LINE
  5
1958
330
1A
100
AcDbEntity
  8
SEIHIN
100
AcDbLine
 10
128.8712072430553
 20
236.4714929402492
 30
0.0
 11
128.8712072430553
 21
241.4714929402491
 31
0.0
  0
LINE
  5
1959
330
1A
100
AcDbEntity
  8
SEIHIN
100
AcDbLine
 10
139.3619549718665
 20
241.4714929402491
 30
0.0
 11
141.991607045733
 21
241.4714929402491
 31
0.0
  0
ARC
  5
195A
330
1A
100
AcDbEntity
  8
SEIHIN
100
AcDbCircle
 10
145.4844149588161
 20
233.9714929402492
 30
0.0
 40
6.613207715760863
100
AcDbArc
 50
157.7882053649489
 51
202.211794635051
  0
ARC
  5
195B
330
1A
100
AcDbEntity
  8
SEIHIN
100
AcDbCircle
 10
135.8579995272945
 20
233.998968905674
 30
0.0
 40
6.613207715760863
100
AcDbArc
 50
337.7882053649489
 51
22.21179463505107
  0
LINE
  5
195C
330
1A
100
AcDbEntity
  8
SEIHIN
100
AcDbLine
 10
139.3619549718665
 20
231.4714929402491
 30
0.0
 11
141.9691681173432
 21
231.4714929402491
 31
0.0
  0
LINE
  5
195D
330
1A
100
AcDbEntity
  8
SEIHIN
100
AcDbLine
 10
139.3619549718665
 20
236.4714929402492
 30
0.0
 11
141.9916070457331
 21
236.4714929402492
 31
0.0
  0
ARC
  5
195E
330
1A
100
AcDbEntity
  8
SEIHIN
100
AcDbCircle
 10
135.8579995272945
 20
238.998968905674
 30
0.0
 40
6.613207715760863
100
AcDbArc
 50
337.7882053649489
 51
22.21179463505107
  0
LINE
  5
195F
330
1A
100
AcDbEntity
  8
SEIHIN
100
AcDbLine
 10
138.8712072430553
 20
233.9714929402492
 30
0.0
 11
138.8712072430553
 21
238.9714929402491
 31
0.0
  0
ARC
  5
1960
330
1A
100
AcDbEntity
  8
SEIHIN
100
AcDbCircle
 10
145.4844149588161
 20
238.9714929402491
 30
0.0
 40
6.613207715760863
100
AcDbArc
 50
157.7882053649489
 51
202.211794635051
  0
LINE
  5
1961
330
1A
100
AcDbEntity
  8
SEIHIN
100
AcDbLine
 10
142.4712072430553
 20
238.998968905674
 30
0.0
 11
142.4712072430553
 21
233.998968905674
 31
0.0
  0
LINE
  5
1962
330
1A
100
AcDbEntity
  8
SEIHIN
100
AcDbLine
 10
147.8712072430555
 20
239.4440169748242
 30
0.0
 11
148.8712072430553
 21
238.4440169748242
 31
0.0
  0
LINE
  5
1963
330
1A
100
AcDbEntity
  8
SEIHIN
100
AcDbLine
 10
147.8712072430554
 20
233.4440169748243
 30
0.0
 11
148.8712072430553
 21
234.4440169748242
 31
0.0
  0
LINE
  5
1964
330
1A
100
AcDbEntity
  8
SEIHIN
100
AcDbLine
 10
148.8712072430553
 20
238.4440169748242
 30
0.0
 11
148.8712072430553
 21
234.4440169748241
 31
0.0
  0
LINE
  5
1965
330
1A
100
AcDbEntity
  8
SEIHIN
100
AcDbLine
 10
147.8712072430553
 20
239.4440169748244
 30
0.0
 11
147.8712072430553
 21
233.4440169748241
 31
0.0
  0
DIMENSION
  5
19F0
330
1A
100
AcDbEntity
  8
SUNPOU
100
AcDbDimension
  2
*D11
 10
136.8712072430553
 20
187.8212154112718
 30
0.0
 11
133.8712072430553
 21
190.3212154112718
 31
0.0
 70
    32
  3
STANDARD
100
AcDbAlignedDimension
 13
130.8712072430553
 23
171.9629371880503
 33
0.0
 14
136.8712072430553
 24
171.9629371880503
 34
0.0
100
AcDbRotatedDimension
1001
ACAD
1000
DSTYLE
1002
{
1070
    41
1040
3.0
1070
    42
1040
2.0
1070
    43
1040
7.0
1070
    44
1040
1.5
1070
    73
1070
     0
1070
    74
1070
     0
1070
    77
1070
     3
1070
   140
1040
3.0
1070
   141
1040
3.0
1070
   147
1040
1.0
1070
   172
1070
     1
1070
   173
1070
     1
1070
   176
1070
   256
1070
   177
1070
   256
1070
   178
1070
   256
1070
   271
1070
     0
1070
   272
1070
     0
1070
   341
1005
B2
1070
     6
1000
OPEN
1070
     7
1000
OPEN
1070
   371
1070
    -1
1070
   372
1070
    -1
1002
}
  0
DIMENSION
  5
1A09
330
1A
100
AcDbEntity
  8
SUNPOU
100
AcDbDimension
  2
*D12
 10
276.9024482389399
 20
187.8212154112718
 30
0.0
 11
264.4024482389399
 21
190.3212154112718
 31
0.0
 70
    32
  3
STANDARD
100
AcDbAlignedDimension
 13
251.9024482389399
 23
163.9629371880503
 33
0.0
 14
276.9024482389399
 24
163.9629371880504
 34
0.0
100
AcDbRotatedDimension
1001
ACAD
1000
DSTYLE
1002
{
1070
    41
1040
3.0
1070
    42
1040
2.0
1070
    43
1040
7.0
1070
    44
1040
1.5
1070
    73
1070
     0
1070
    74
1070
     0
1070
    77
1070
     3
1070
   140
1040
3.0
1070
   141
1040
3.0
1070
   147
1040
1.0
1070
   172
1070
     1
1070
   173
1070
     1
1070
   176
1070
   256
1070
   177
1070
   256
1070
   178
1070
   256
1070
   271
1070
     0
1070
   272
1070
     0
1070
   341
1005
B2
1070
     6
1000
OPEN
1070
     7
1000
OPEN
1070
   371
1070
    -1
1070
   372
1070
    -1
1002
}
  0
TEXT
  5
1B24
330
1A
100
AcDbEntity
  8
SUNPOU
100
AcDbText
 10
345.8198895064802
 20
52.79427841438394
 30
0.0
 40
2.239999999999999
  1
品　名
 41
0.9
  7
ｽﾀｲﾙ1
100
AcDbText
  0
LINE
  5
1B25
330
1A
100
AcDbEntity
  8
SUNPOU
100
AcDbLine
 10
343.4059739461293
 20
56.73024483386905
 30
0.0
 11
391.4059739461292
 21
56.73024483386906
 31
0.0
  0
LINE
  5
1B26
330
1A
100
AcDbEntity
  8
SUNPOU
100
AcDbLine
 10
343.4059739461293
 20
56.73024483386905
 30
0.0
 11
343.4059739461293
 21
39.93024483386905
 31
0.0
  0
LINE
  5
1B28
330
1A
100
AcDbEntity
  8
SUNPOU
100
AcDbLine
 10
343.4059739461293
 20
51.13024483386904
 30
0.0
 11
391.4059739461292
 21
51.13024483386904
 31
0.0
  0
LINE
  5
1B29
330
1A
100
AcDbEntity
  8
SUNPOU
100
AcDbLine
 10
343.4059739461293
 20
45.53024483386905
 30
0.0
 11
391.4059739461292
 21
45.53024483386905
 31
0.0
  0
LINE
  5
1B2A
330
1A
100
AcDbEntity
  8
SUNPOU
100
AcDbLine
 10
343.4059739461293
 20
39.93024483386905
 30
0.0
 11
391.4059739461292
 21
39.93024483386905
 31
0.0
  0
TEXT
  5
1B2C
330
1A
100
AcDbEntity
  8
SUNPOU
100
AcDbText
 10
345.8198895064802
 20
47.19427841438394
 30
0.0
 40
2.239999999999999
  1
本　体
 41
0.9
  7
ｽﾀｲﾙ1
100
AcDbText
  0
LINE
  5
1B2D
330
1A
100
AcDbEntity
  8
SUNPOU
100
AcDbLine
 10
375.4059739461292
 20
56.73024483386905
 30
0.0
 11
375.4059739461292
 21
39.93024483386905
 31
0.0
  0
TEXT
  5
1B2E
330
1A
100
AcDbEntity
  8
SUNPOU
100
AcDbText
 10
377.8198895064802
 20
52.79427841438394
 30
0.0
 40
2.239999999999999
  1
材　質
 41
0.9
  7
ｽﾀｲﾙ1
100
AcDbText
  0
TEXT
  5
1B2F
330
1A
100
AcDbEntity
  8
SUNPOU
100
AcDbText
 10
377.8198895064802
 20
47.19427841438394
 30
0.0
 40
2.239999999999999
  1
ＳＵＳ３０４
 41
0.9
  7
ｽﾀｲﾙ1
100
AcDbText
  0
TEXT
  5
1B30
330
1A
100
AcDbEntity
  8
SUNPOU
100
AcDbText
 10
345.8198895064802
 20
41.59427841438393
 30
0.0
 40
2.239999999999999
  1
ボルト・ナット・リベット
 41
0.9
  7
ｽﾀｲﾙ1
100
AcDbText
  0
LINE
  5
1B31
330
1A
100
AcDbEntity
  8
SUNPOU
100
AcDbLine
 10
391.4059739461293
 20
56.73024483386905
 30
0.0
 11
391.4059739461292
 21
39.93024483386905
 31
0.0
  0
TEXT
  5
1B32
330
1A
100
AcDbEntity
  8
SUNPOU
100
AcDbText
 10
377.8198895064802
 20
41.59427841438393
 30
0.0
 40
2.239999999999999
  1
ＳＵＳ
 41
0.9
  7
ｽﾀｲﾙ1
100
AcDbText
  0
DIMENSION
  5
1B36
330
1A
100
AcDbEntity
  8
SUNPOU
100
AcDbDimension
  2
*D13
 10
163.3988665433674
 20
110.0713085515043
 30
0.0
 11
171.0916330911312
 21
116.1804281968875
 31
0.0
 70
    33
  1
t<>
  3
STANDARD
100
AcDbAlignedDimension
 13
161.5676938735806
 23
109.2670656445254
 33
0.0
 14
163.3988665433674
 24
110.0713085515043
 34
0.0
1001
ACAD
1000
DSTYLE
1002
{
1070
    41
1040
3.0
1070
    42
1040
0.0
1070
    43
1040
7.0
1070
    44
1040
0.0
1070
    73
1070
     0
1070
    74
1070
     0
1070
    77
1070
     3
1070
   140
1040
3.0
1070
   141
1040
3.0
1070
   147
1040
1.0
1070
   172
1070
     1
1070
   173
1070
     1
1070
   176
1070
   256
1070
   177
1070
   256
1070
   178
1070
   256
1070
   271
1070
     0
1070
   272
1070
     0
1070
   341
1005
B2
1070
     6
1000
OPEN
1070
     7
1000
OPEN
1070
   371
1070
    -1
1070
   372
1070
    -1
1002
}
  0
LINE
  5
1BFA
330
1A
100
AcDbEntity
  8
SEIHIN
  6
CONTINUOUS
 62
     3
 48
5.0
100
AcDbLine
 10
258.90244823894
 20
59.93388662362736
 30
0.0
 11
259.40244823894
 21
59.93388662362736
 31
0.0
  0
LINE
  5
1C02
330
1A
100
AcDbEntity
  8
SEIHIN
  6
CONTINUOUS
 62
     3
 48
5.0
100
AcDbLine
 10
269.40244823894
 20
59.93388662362736
 30
0.0
 11
269.90244823894
 21
59.93388662362736
 31
0.0
  0
VIEWPORT
  5
22
330
17
100
AcDbEntity
 67
     1
  8
0
100
AcDbViewport
 10
313.6808219178082
 20
148.5
 30
0.0
 40
627.3616438356165
 41
297.0
 68
     2
 69
     1
1001
ACAD
1000
MVIEW
1002
{
1070
    16
1010
0.0
1020
0.0
1030
0.0
1010
0.0
1020
0.0
1030
1.0
1040
0.0
1040
297.0
1040
313.6808219178082
1040
148.5
1040
50.0
1040
0.0
1040
0.0
1070
     0
1070
   100
1070
     1
1070
     0
1070
     0
1070
     0
1070
     0
1070
     0
1040
0.0
1040
0.0
1040
0.0
1040
1.0
1040
1.0
1040
10.0
1040
10.0
1070
     0
1002
{
1002
}
1002
}
  0
VIEWPORT
  5
64
330
17
100
AcDbEntity
 67
     1
  8
VIEWPORT
100
AcDbViewport
 10
210.0
 20
148.5
 30
0.0
 40
420.0
 41
297.0
 68
     1
 69
     2
1001
ACAD
1000
MVIEW
1002
{
1070
    16
1010
0.0
1020
0.0
1030
0.0
1010
0.0
1020
0.0
1030
1.0
1040
0.0
1040
302.9399999999998
1040
210.0
1040
148.5
1040
50.0
1040
0.0
1040
0.0
1070
     0
1070
   100
1070
     1
1070
     0
1070
     0
1070
     0
1070
     0
1070
     0
1040
0.0
1040
0.0
1040
0.0
1040
5.0
1040
5.0
1040
0.0
1040
0.0
1070
     0
1002
{
1002
}
1002
}
  0
ENDSEC
  0
SECTION
  2
OBJECTS
  0
DICTIONARY
  5
C
330
0
100
AcDbDictionary
  3
ACAD_GROUP
350
D
  3
ACAD_LAYOUT
350
3B1
  3
ACAD_MLINESTYLE
350
E
  3
ACAD_PLOTSETTINGS
350
3B2
  3
ACADDIM
350
1112
1001
ACAD
1000
TREAT_AS_HARD
1070
     0
  0
DICTIONARY
  5
40E
330
1A
100
AcDbDictionary
  3
ACAD_LAYOUTSELFREF
350
1E4A
1001
ACAD
1000
TREAT_AS_HARD
1070
     1
  0
DICTIONARY
  5
40C
330
17
100
AcDbDictionary
  3
ACAD_LAYOUTSELFREF
350
1E49
1001
ACAD
1000
TREAT_AS_HARD
1070
     1
  0
DICTIONARY
  5
D
102
{ACAD_REACTORS
330
C
102
}
330
C
100
AcDbDictionary
1001
ACAD
1000
TREAT_AS_HARD
1070
     0
  0
DICTIONARY
  5
3B1
102
{ACAD_REACTORS
330
C
102
}
330
C
100
AcDbDictionary
1001
ACAD
1000
TREAT_AS_HARD
1070
     0
  0
DICTIONARY
  5
E
102
{ACAD_REACTORS
330
C
102
}
330
C
100
AcDbDictionary
  3
STANDARD
350
13
1001
ACAD
1000
TREAT_AS_HARD
1070
     0
  0
DICTIONARY
  5
3B2
102
{ACAD_REACTORS
330
C
102
}
330
C
100
AcDbDictionary
1001
ACAD
1000
TREAT_AS_HARD
1070
     0
  0
XRECORD
  5
1112
102
{ACAD_REACTORS
330
C
102
}
330
C
100
AcDbXrecord
 90
   990106
  3

 60
     0
 61
     0
 62
     1
 63
     3
 64
     0
 65
     0
 66
     0
 67
     3
 68
     1
 69
     0
 70
     0
 71
     0
 72
     0
 40
0.0
170
     0
  0
XRECORD
  5
1E4A
102
{ACAD_REACTORS
330
40E
102
}
330
40E
100
AcDbXrecord
340
1A
  0
XRECORD
  5
1E49
102
{ACAD_REACTORS
330
40C
102
}
330
40C
100
AcDbXrecord
340
17
  0
MLINESTYLE
  5
13
102
{ACAD_REACTORS
330
E
102
}
330
E
100
AcDbMlineStyle
  2
STANDARD
 70
     0
  3

 62
     0
 51
90.0
 52
90.0
 71
     2
 49
0.5
 62
   256
  6
BYLAYER
 49
-0.5
 62
   256
  6
BYLAYER
  0
ENDSEC
  0
EOF
