  0
SECTION
  2
HEADER
  9
$ACADVER
  1
AC1012
  9
$DWGCODEPAGE
  3
dos932
  9
$INSBASE
 10
0.0
 20
0.0
 30
0.0
  9
$EXTMIN
 10
3.639084558048125
 20
0.4582219250247022
 30
-0.0000000100019834
  9
$EXTMAX
 10
281.6687171043231
 20
196.8685917822512
 30
0.0000000100019837
  9
$LIMMIN
 10
0.0
 20
0.0
  9
$LIMMAX
 10
297.0
 20
210.0
  9
$ORTHOMODE
 70
     1
  9
$REGENMODE
 70
     1
  9
$FILLMODE
 70
     1
  9
$QTEXTMODE
 70
     0
  9
$MIRRTEXT
 70
     1
  9
$DRAGMODE
 70
     2
  9
$LTSCALE
 40
1.0
  9
$OSMODE
 70
  2367
  9
$ATTMODE
 70
     1
  9
$TEXTSIZE
 40
1.767676767676767
  9
$TRACEWID
 40
1.0
  9
$TEXTSTYLE
  7
STANDARD
  9
$CLAYER
  8
SUNPOU
  9
$CELTYPE
  6
BYLAYER
  9
$CECOLOR
 62
   256
  9
$CELTSCALE
 40
5.0
  9
$DELOBJ
 70
     1
  9
$DISPSILH
 70
     0
  9
$DIMSCALE
 40
1.0
  9
$DIMASZ
 40
2.5
  9
$DIMEXO
 40
2.5
  9
$DIMDLI
 40
4.879999999999999
  9
$DIMRND
 40
0.0
  9
$DIMDLE
 40
0.0
  9
$DIMEXE
 40
1.05
  9
$DIMTP
 40
0.0
  9
$DIMTM
 40
0.0
  9
$DIMTXT
 40
2.5
  9
$DIMCEN
 40
150.0
  9
$DIMTSZ
 40
0.0
  9
$DIMTOL
 70
     0
  9
$DIMLIM
 70
     0
  9
$DIMTIH
 70
     0
  9
$DIMTOH
 70
     0
  9
$DIMSE1
 70
     0
  9
$DIMSE2
 70
     0
  9
$DIMTAD
 70
     3
  9
$DIMZIN
 70
     0
  9
$DIMBLK
  1

  9
$DIMASO
 70
     1
  9
$DIMSHO
 70
     1
  9
$DIMPOST
  1

  9
$DIMAPOST
  1

  9
$DIMALT
 70
     0
  9
$DIMALTD
 70
     2
  9
$DIMALTF
 40
25.4
  9
$DIMLFAC
 40
1.0
  9
$DIMTOFL
 70
     1
  9
$DIMTVP
 40
0.0
  9
$DIMTIX
 70
     0
  9
$DIMSOXD
 70
     0
  9
$DIMSAH
 70
     1
  9
$DIMBLK1
  1
OPEN
  9
$DIMBLK2
  1
OPEN
  9
$DIMSTYLE
  2
STANDARD
  9
$DIMCLRD
 70
   256
  9
$DIMCLRE
 70
   256
  9
$DIMCLRT
 70
   256
  9
$DIMTFAC
 40
1.0
  9
$DIMGAP
 40
1.0
  9
$DIMJUST
 70
     0
  9
$DIMSD1
 70
     0
  9
$DIMSD2
 70
     0
  9
$DIMTOLJ
 70
     1
  9
$DIMTZIN
 70
     0
  9
$DIMALTZ
 70
     0
  9
$DIMALTTZ
 70
     0
  9
$DIMFIT
 70
     3
  9
$DIMUPT
 70
     0
  9
$DIMUNIT
 70
     2
  9
$DIMDEC
 70
     0
  9
$DIMTDEC
 70
     0
  9
$DIMALTU
 70
     2
  9
$DIMALTTD
 70
     2
  9
$DIMTXSTY
  7
STANDARD
  9
$DIMAUNIT
 70
     0
  9
$LUNITS
 70
     2
  9
$LUPREC
 70
     4
  9
$SKETCHINC
 40
1.0
  9
$FILLETRAD
 40
7.07070707070707
  9
$AUNITS
 70
     0
  9
$AUPREC
 70
     0
  9
$MENU
  1
.
  9
$ELEVATION
 40
0.0
  9
$PELEVATION
 40
0.0
  9
$THICKNESS
 40
0.0
  9
$LIMCHECK
 70
     0
  9
$BLIPMODE
 70
     0
  9
$CHAMFERA
 40
7.07070707070707
  9
$CHAMFERB
 40
7.07070707070707
  9
$CHAMFERC
 40
14.14141414141414
  9
$CHAMFERD
 40
0.0
  9
$SKPOLY
 70
     0
  9
$TDCREATE
 40
2451292.640519675
  9
$TDUPDATE
 40
2454302.679349861
  9
$TDINDWG
 40
0.0363869329
  9
$TDUSRTIMER
 40
0.0363869329
  9
$USRTIMER
 70
     1
  9
$ANGBASE
 50
0.0
  9
$ANGDIR
 70
     0
  9
$PDMODE
 70
     0
  9
$PDSIZE
 40
0.0
  9
$PLINEWID
 40
0.0
  9
$COORDS
 70
     1
  9
$SPLFRAME
 70
     0
  9
$SPLINETYPE
 70
     6
  9
$SPLINESEGS
 70
     8
  9
$ATTDIA
 70
     0
  9
$ATTREQ
 70
     1
  9
$HANDLING
 70
 10241
  9
$HANDSEED
  5
C92
  9
$SURFTAB1
 70
     6
  9
$SURFTAB2
 70
     6
  9
$SURFTYPE
 70
     6
  9
$SURFU
 70
     6
  9
$SURFV
 70
     6
  9
$UCSNAME
  2

  9
$UCSORG
 10
0.0
 20
0.0
 30
0.0
  9
$UCSXDIR
 10
1.0
 20
0.0
 30
0.0
  9
$UCSYDIR
 10
0.0
 20
1.0
 30
0.0
  9
$PUCSNAME
  2

  9
$PUCSORG
 10
0.0
 20
0.0
 30
0.0
  9
$PUCSXDIR
 10
1.0
 20
0.0
 30
0.0
  9
$PUCSYDIR
 10
0.0
 20
1.0
 30
0.0
  9
$USERI1
 70
     0
  9
$USERI2
 70
     0
  9
$USERI3
 70
     0
  9
$USERI4
 70
     0
  9
$USERI5
 70
     0
  9
$USERR1
 40
0.0
  9
$USERR2
 40
0.0
  9
$USERR3
 40
0.0
  9
$USERR4
 40
0.0
  9
$USERR5
 40
0.0
  9
$WORLDVIEW
 70
     1
  9
$SHADEDGE
 70
     3
  9
$SHADEDIF
 70
    70
  9
$TILEMODE
 70
     1
  9
$MAXACTVP
 70
    16
  9
$PINSBASE
 10
0.0
 20
0.0
 30
0.0
  9
$PLIMCHECK
 70
     0
  9
$PEXTMIN
 10
0.0
 20
0.0
 30
0.0
  9
$PEXTMAX
 10
420.0
 20
297.0
 30
0.0
  9
$PLIMMIN
 10
0.0
 20
0.0
  9
$PLIMMAX
 10
420.0
 20
297.0
  9
$UNITMODE
 70
     0
  9
$VISRETAIN
 70
     0
  9
$PLINEGEN
 70
     0
  9
$PSLTSCALE
 70
     1
  9
$TREEDEPTH
 70
  3020
  9
$PICKSTYLE
 70
     1
  9
$CMLSTYLE
  2
STANDARD
  9
$CMLJUST
 70
     0
  9
$CMLSCALE
 40
1.0
  9
$SAVEIMAGES
 70
     1
  0
ENDSEC
  0
SECTION
  2
CLASSES
  0
CLASS
  1
ACDBDICTIONARYWDFLT
  2
AcDbDictionaryWithDefault
  3
AutoCAD 2000
 90
    32768
280
     0
281
     0
  0
CLASS
  1
ACDBPLACEHOLDER
  2
AcDbPlaceHolder
  3
AutoCAD 2000
 90
    32768
280
     0
281
     0
  0
CLASS
  1
LAYOUT
  2
AcDbLayout
  3
AutoCAD 2000
 90
    32768
280
     0
281
     0
  0
CLASS
  1
LONG_TRANSACTION
  2
AcDbLongTransaction
  3
AutoCAD 2000
 90
    32768
280
     0
281
     0
  0
CLASS
  1
LWPOLYLINE
  2
AcDbPolyline
  3
AutoCAD 2000
 90
    32768
280
     0
281
     1
  0
CLASS
  1
HATCH
  2
AcDbHatch
  3
AutoCAD 2000
 90
    32768
280
     0
281
     1
  0
CLASS
  1
XRECORD
  2
AcDbXrecord
  3
AutoCAD 2000
 90
    32768
280
     0
281
     0
  0
CLASS
  1
LONG_TRANSACTION
  2
AcDbLongTransaction
  3
AutoCAD 2000
 90
    32768
280
     0
281
     0
  0
CLASS
  1
LWPOLYLINE
  2
AcDbPolyline
  3
AutoCAD 2000
 90
    32768
280
     0
281
     1
  0
CLASS
  1
HATCH
  2
AcDbHatch
  3
AutoCAD 2000
 90
    32768
280
     0
281
     1
  0
CLASS
  1
XRECORD
  2
AcDbXrecord
  3
AutoCAD 2000
 90
    32768
280
     0
281
     0
  0
ENDSEC
  0
SECTION
  2
TABLES
  0
TABLE
  2
VPORT
  5
8
330
0
100
AcDbSymbolTable
 70
     3
  0
VPORT
  5
C89
330
8
100
AcDbSymbolTableRecord
100
AcDbViewportTableRecord
  2
*ACTIVE
 70
     0
 10
0.0
 20
0.0
 11
1.0
 21
1.0
 12
154.1150217274837
 22
105.0
 13
0.0
 23
0.0
 14
5.0
 24
5.0
 15
0.0
 25
0.0
 16
0.0
 26
0.0
 36
1.0
 17
0.0
 27
0.0
 37
0.0
 40
211.6050955414012
 41
1.588785046728971
 42
50.0
 43
0.0
 44
0.0
 50
0.0
 51
0.0
 71
     0
 72
   100
 73
     1
 74
     0
 75
     0
 76
     0
 77
     0
 78
     0
  0
ENDTAB
  0
TABLE
  2
LTYPE
  5
5
330
0
100
AcDbSymbolTable
 70
     2
  0
LTYPE
  5
14
330
5
100
AcDbSymbolTableRecord
100
AcDbLinetypeTableRecord
  2
BYBLOCK
 70
     0
  3

 72
    65
 73
     0
 40
0.0
  0
LTYPE
  5
15
330
5
100
AcDbSymbolTableRecord
100
AcDbLinetypeTableRecord
  2
BYLAYER
 70
     0
  3

 72
    65
 73
     0
 40
0.0
  0
LTYPE
  5
16
330
5
100
AcDbSymbolTableRecord
100
AcDbLinetypeTableRecord
  2
CONTINUOUS
 70
     0
  3
Solid line
 72
    65
 73
     0
 40
0.0
  0
LTYPE
  5
FE
330
5
100
AcDbSymbolTableRecord
100
AcDbLinetypeTableRecord
  2
CENTER
 70
     0
  3
____ _ ____ _ ____ _ ____ _ ____ _ ____ _ ____ 
 72
    65
 73
     4
 40
2.0
 49
1.25
 74
     0
 49
-0.25
 74
     0
 49
0.25
 74
     0
 49
-0.25
 74
     0
  0
ENDTAB
  0
TABLE
  2
LAYER
  5
2
330
0
100
AcDbSymbolTable
 70
     7
  0
LAYER
  5
F
330
2
100
AcDbSymbolTableRecord
100
AcDbLayerTableRecord
  2
0
 70
     0
 62
     7
  6
CONTINUOUS
  0
LAYER
  5
62
330
2
100
AcDbSymbolTableRecord
100
AcDbLayerTableRecord
  2
VIEWPORT
 70
     0
 62
     7
  6
CONTINUOUS
  0
LAYER
  5
72
330
2
100
AcDbSymbolTableRecord
100
AcDbLayerTableRecord
  2
ZUAKU
 70
     0
 62
     7
  6
CONTINUOUS
  0
LAYER
  5
199
330
2
100
AcDbSymbolTableRecord
100
AcDbLayerTableRecord
  2
DEFPOINTS
 70
     0
 62
     7
  6
CONTINUOUS
  0
LAYER
  5
19A
330
2
100
AcDbSymbolTableRecord
100
AcDbLayerTableRecord
  2
SEIHIN
 70
     0
 62
     3
  6
CONTINUOUS
  0
LAYER
  5
19B
330
2
100
AcDbSymbolTableRecord
100
AcDbLayerTableRecord
  2
SUNPOU
 70
     0
 62
     4
  6
CONTINUOUS
  0
LAYER
  5
19C
330
2
100
AcDbSymbolTableRecord
100
AcDbLayerTableRecord
  2
CENTER_L
 70
     0
 62
     1
  6
CENTER
  0
ENDTAB
  0
TABLE
  2
STYLE
  5
3
330
0
100
AcDbSymbolTable
 70
     1
  0
STYLE
  5
10
330
3
100
AcDbSymbolTableRecord
100
AcDbTextStyleTableRecord
  2
STANDARD
 70
     0
 40
0.0
 41
1.0
 50
0.0
 71
     0
 42
1.767676767676767
  3
TXT
  4
a:\program files\autocad lt\ms\bigfont.shx
  0
ENDTAB
  0
TABLE
  2
VIEW
  5
6
330
0
100
AcDbSymbolTable
 70
     0
  0
ENDTAB
  0
TABLE
  2
UCS
  5
7
330
0
100
AcDbSymbolTable
 70
     0
  0
ENDTAB
  0
TABLE
  2
APPID
  5
9
330
0
100
AcDbSymbolTable
 70
     1
  0
APPID
  5
11
330
9
100
AcDbSymbolTableRecord
100
AcDbRegAppTableRecord
  2
ACAD
 70
     0
  0
ENDTAB
  0
TABLE
  2
DIMSTYLE
  5
A
330
0
100
AcDbSymbolTable
 70
     1
  0
DIMSTYLE
105
1D
102
{ACAD_REACTORS
330
5FC
330
581
330
57E
330
580
330
57F
330
626
330
582
330
583
330
584
330
5F5
330
B9D
102
}
330
A
100
AcDbSymbolTableRecord
100
AcDbDimStyleTableRecord
  2
STANDARD
 70
     0
  3

  4

  5

  6

  7

 40
1.0
 41
0.18
 42
0.0625
 43
0.38
 44
0.18
 45
0.0
 46
0.0
 47
0.0
 48
0.0
140
0.18
141
0.09
142
0.0
143
25.4
144
1.0
145
0.0
146
1.0
147
0.09
 71
     0
 72
     0
 73
     1
 74
     1
 75
     0
 76
     0
 77
     0
 78
     0
170
     0
171
     2
172
     0
173
     0
174
     0
175
     0
176
     0
177
     0
178
     0
270
     2
271
     4
272
     4
273
     2
274
     2
340
10
275
     0
280
     0
281
     0
282
     0
283
     1
284
     0
285
     0
286
     0
287
     3
288
     0
  0
ENDTAB
  0
TABLE
  2
BLOCK_RECORD
  5
1
330
0
100
AcDbSymbolTable
 70
    12
  0
BLOCK_RECORD
  5
1A
102
{ACAD_XDICTIONARY
360
C03
102
}
330
1
100
AcDbSymbolTableRecord
100
AcDbBlockTableRecord
  2
*MODEL_SPACE
  0
BLOCK_RECORD
  5
17
102
{ACAD_XDICTIONARY
360
C01
102
}
330
1
100
AcDbSymbolTableRecord
100
AcDbBlockTableRecord
  2
*PAPER_SPACE
  0
BLOCK_RECORD
  5
66
330
1
100
AcDbSymbolTableRecord
100
AcDbBlockTableRecord
  2
_OPEN
  0
BLOCK_RECORD
  5
680
330
1
100
AcDbSymbolTableRecord
100
AcDbBlockTableRecord
  2
*D1
  0
BLOCK_RECORD
  5
68D
330
1
100
AcDbSymbolTableRecord
100
AcDbBlockTableRecord
  2
*D2
  0
BLOCK_RECORD
  5
69A
330
1
100
AcDbSymbolTableRecord
100
AcDbBlockTableRecord
  2
*D3
  0
BLOCK_RECORD
  5
6A7
330
1
100
AcDbSymbolTableRecord
100
AcDbBlockTableRecord
  2
*D4
  0
BLOCK_RECORD
  5
6B4
330
1
100
AcDbSymbolTableRecord
100
AcDbBlockTableRecord
  2
*D5
  0
BLOCK_RECORD
  5
6C1
330
1
100
AcDbSymbolTableRecord
100
AcDbBlockTableRecord
  2
*D6
  0
BLOCK_RECORD
  5
6CE
330
1
100
AcDbSymbolTableRecord
100
AcDbBlockTableRecord
  2
*D7
  0
BLOCK_RECORD
  5
6DB
330
1
100
AcDbSymbolTableRecord
100
AcDbBlockTableRecord
  2
*D8
  0
BLOCK_RECORD
  5
6E7
330
1
100
AcDbSymbolTableRecord
100
AcDbBlockTableRecord
  2
*D9
  0
BLOCK_RECORD
  5
6F0
330
1
100
AcDbSymbolTableRecord
100
AcDbBlockTableRecord
  2
*D10
  0
BLOCK_RECORD
  5
B9E
330
1
100
AcDbSymbolTableRecord
100
AcDbBlockTableRecord
  2
*D11
  0
ENDTAB
  0
ENDSEC
  0
SECTION
  2
BLOCKS
  0
BLOCK
  5
1B
330
1A
100
AcDbEntity
  8
0
100
AcDbBlockBegin
  2
*MODEL_SPACE
 70
     0
 10
0.0
 20
0.0
 30
0.0
  3
*MODEL_SPACE
  1

  0
ENDBLK
  5
1C
330
1A
100
AcDbEntity
  8
0
100
AcDbBlockEnd
  0
BLOCK
  5
18
330
17
100
AcDbEntity
 67
     1
  8
0
100
AcDbBlockBegin
  2
*PAPER_SPACE
 70
     0
 10
0.0
 20
0.0
 30
0.0
  3
*PAPER_SPACE
  1

  0
ENDBLK
  5
19
330
17
100
AcDbEntity
 67
     1
  8
0
100
AcDbBlockEnd
  0
BLOCK
  5
67
330
66
100
AcDbEntity
  8
0
100
AcDbBlockBegin
  2
_OPEN
 70
     0
 10
0.0
 20
0.0
 30
0.0
  3
_OPEN
  1

  0
LINE
  5
68
330
66
100
AcDbEntity
  8
0
  6
BYBLOCK
 62
     0
100
AcDbLine
 10
-1.0
 20
0.1666666666666666
 30
0.0
 11
0.0
 21
0.0
 31
0.0
  0
LINE
  5
69
330
66
100
AcDbEntity
  8
0
  6
BYBLOCK
 62
     0
100
AcDbLine
 10
0.0
 20
0.0
 30
0.0
 11
-1.0
 21
-0.1666666666666666
 31
0.0
  0
LINE
  5
6A
330
66
100
AcDbEntity
  8
0
  6
BYBLOCK
 62
     0
100
AcDbLine
 10
0.0
 20
0.0
 30
0.0
 11
-1.0
 21
0.0
 31
0.0
  0
ENDBLK
  5
6B
330
66
100
AcDbEntity
  8
0
100
AcDbBlockEnd
  0
BLOCK
  5
68B
330
680
100
AcDbEntity
  8
0
 48
5.0
100
AcDbBlockBegin
  2
*D1
 70
     1
 10
0.0
 20
0.0
 30
0.0
  3
*D1
  1

  0
LINE
  5
C3A
330
680
100
AcDbEntity
  8
SUNPOU
 48
5.0
100
AcDbLine
 10
213.1880608226441
 20
129.7914380908881
 30
0.0
 11
213.1880608226441
 21
99.3612104082085
 31
0.0
  0
LINE
  5
C3B
330
680
100
AcDbEntity
  8
SUNPOU
 48
5.0
100
AcDbLine
 10
208.1880608226166
 20
129.7914380914389
 30
0.0
 11
208.1880608226166
 21
99.3612104082085
 31
0.0
  0
LINE
  5
C3C
330
680
100
AcDbEntity
  8
SUNPOU
 48
5.0
100
AcDbLine
 10
215.6880608226441
 20
100.4112104082084
 30
0.0
 11
218.1880608226441
 21
100.4112104082084
 31
0.0
  0
LINE
  5
C3D
330
680
100
AcDbEntity
  8
SUNPOU
 48
5.0
100
AcDbLine
 10
205.6880608226166
 20
100.4112104082084
 30
0.0
 11
203.1880608226166
 21
100.4112104082084
 31
0.0
  0
LINE
  5
C3E
330
680
100
AcDbEntity
  8
SUNPOU
 48
5.0
100
AcDbLine
 10
213.1880608226441
 20
100.4112104082084
 30
0.0
 11
208.1880608226166
 21
100.4112104082084
 31
0.0
  0
INSERT
  5
C3F
330
680
100
AcDbEntity
  8
SUNPOU
 48
5.0
100
AcDbBlockReference
  2
_OPEN
 10
213.1880608226441
 20
100.4112104082084
 30
0.0
 41
2.5
 42
2.5
 43
2.5
 50
180.0
  0
INSERT
  5
C40
330
680
100
AcDbEntity
  8
SUNPOU
 48
5.0
100
AcDbBlockReference
  2
_OPEN
 10
208.1880608226166
 20
100.4112104082084
 30
0.0
 41
2.5
 42
2.5
 43
2.5
  0
MTEXT
  5
C41
330
680
100
AcDbEntity
  8
SUNPOU
 48
5.0
100
AcDbMText
 10
210.6880608226304
 20
102.6612104082084
 30
0.0
 40
2.5
 41
0.0
 71
     5
 72
     1
  1
\A1;5
1001
ACAD
1000
MTEXTBEGIN
1070
    73
1070
     1
1070
    44
1040
1.0
1070
    74
1070
     0
1000
MTEXTEND
  0
POINT
  5
C42
330
680
100
AcDbEntity
  8
DEFPOINTS
 62
     0
 48
5.0
100
AcDbPoint
 10
213.1880608226441
 20
132.2914380908881
 30
0.0
  0
POINT
  5
C43
330
680
100
AcDbEntity
  8
DEFPOINTS
 62
     0
 48
5.0
100
AcDbPoint
 10
208.1880608226166
 20
132.2914380914389
 30
0.0
  0
POINT
  5
C44
330
680
100
AcDbEntity
  8
DEFPOINTS
 62
     0
 48
5.0
100
AcDbPoint
 10
208.1880608226166
 20
100.4112104082084
 30
0.0
  0
ENDBLK
  5
68C
330
680
100
AcDbEntity
  8
0
 48
5.0
100
AcDbBlockEnd
  0
BLOCK
  5
698
330
68D
100
AcDbEntity
  8
0
 48
5.0
100
AcDbBlockBegin
  2
*D2
 70
     1
 10
0.0
 20
0.0
 30
0.0
  3
*D2
  1

  0
LINE
  5
C2F
330
68D
100
AcDbEntity
  8
SUNPOU
 48
5.0
100
AcDbLine
 10
203.1880608225891
 20
129.7914380919897
 30
0.0
 11
203.1880608225891
 21
99.3612104082085
 31
0.0
  0
LINE
  5
C30
330
68D
100
AcDbEntity
  8
SUNPOU
 48
5.0
100
AcDbLine
 10
208.1880608226166
 20
129.7914380914389
 30
0.0
 11
208.1880608226166
 21
99.3612104082085
 31
0.0
  0
LINE
  5
C31
330
68D
100
AcDbEntity
  8
SUNPOU
 48
5.0
100
AcDbLine
 10
200.6880608225891
 20
100.4112104082084
 30
0.0
 11
198.1880608225891
 21
100.4112104082084
 31
0.0
  0
LINE
  5
C32
330
68D
100
AcDbEntity
  8
SUNPOU
 48
5.0
100
AcDbLine
 10
210.6880608226166
 20
100.4112104082084
 30
0.0
 11
213.1880608226166
 21
100.4112104082084
 31
0.0
  0
LINE
  5
C33
330
68D
100
AcDbEntity
  8
SUNPOU
 48
5.0
100
AcDbLine
 10
203.1880608225891
 20
100.4112104082084
 30
0.0
 11
208.1880608226166
 21
100.4112104082084
 31
0.0
  0
INSERT
  5
C34
330
68D
100
AcDbEntity
  8
SUNPOU
 48
5.0
100
AcDbBlockReference
  2
_OPEN
 10
203.1880608225891
 20
100.4112104082084
 30
0.0
 41
2.5
 42
2.5
 43
2.5
  0
INSERT
  5
C35
330
68D
100
AcDbEntity
  8
SUNPOU
 48
5.0
100
AcDbBlockReference
  2
_OPEN
 10
208.1880608226166
 20
100.4112104082084
 30
0.0
 41
2.5
 42
2.5
 43
2.5
 50
180.0
  0
MTEXT
  5
C36
330
68D
100
AcDbEntity
  8
SUNPOU
 48
5.0
100
AcDbMText
 10
205.6880608226029
 20
102.6612104082084
 30
0.0
 40
2.5
 41
0.0
 71
     5
 72
     1
  1
\A1;5
1001
ACAD
1000
MTEXTBEGIN
1070
    73
1070
     1
1070
    44
1040
1.0
1070
    74
1070
     0
1000
MTEXTEND
  0
POINT
  5
C37
330
68D
100
AcDbEntity
  8
DEFPOINTS
 62
     0
 48
5.0
100
AcDbPoint
 10
203.1880608225891
 20
132.2914380919897
 30
0.0
  0
POINT
  5
C38
330
68D
100
AcDbEntity
  8
DEFPOINTS
 62
     0
 48
5.0
100
AcDbPoint
 10
208.1880608226166
 20
132.2914380914389
 30
0.0
  0
POINT
  5
C39
330
68D
100
AcDbEntity
  8
DEFPOINTS
 62
     0
 48
5.0
100
AcDbPoint
 10
208.1880608226166
 20
100.4112104082084
 30
0.0
  0
ENDBLK
  5
699
330
68D
100
AcDbEntity
  8
0
 48
5.0
100
AcDbBlockEnd
  0
BLOCK
  5
6A5
330
69A
100
AcDbEntity
  8
0
 48
5.0
100
AcDbBlockBegin
  2
*D3
 70
     1
 10
0.0
 20
0.0
 30
0.0
  3
*D3
  1

  0
LINE
  5
C80
330
69A
100
AcDbEntity
  8
SUNPOU
 48
5.0
100
AcDbLine
 10
115.2880608226679
 20
131.7414380919898
 30
0.0
 11
115.2880608226679
 21
83.74186781823427
 31
0.0
  0
LINE
  5
C81
330
69A
100
AcDbEntity
  8
SUNPOU
 48
5.0
100
AcDbLine
 10
243.1880608226129
 20
131.7414380919897
 30
0.0
 11
243.1880608226129
 21
83.74186781823427
 31
0.0
  0
LINE
  5
C82
330
69A
100
AcDbEntity
  8
SUNPOU
 48
5.0
100
AcDbLine
 10
117.7880608226679
 20
84.79186781823427
 30
0.0
 11
240.688060822613
 21
84.79186781823427
 31
0.0
  0
INSERT
  5
C83
330
69A
100
AcDbEntity
  8
SUNPOU
 48
5.0
100
AcDbBlockReference
  2
_OPEN
 10
115.2880608226679
 20
84.79186781823427
 30
0.0
 41
2.5
 42
2.5
 43
2.5
 50
180.0
  0
INSERT
  5
C84
330
69A
100
AcDbEntity
  8
SUNPOU
 48
5.0
100
AcDbBlockReference
  2
_OPEN
 10
243.1880608226129
 20
84.79186781823427
 30
0.0
 41
2.5
 42
2.5
 43
2.5
  0
MTEXT
  5
C85
330
69A
100
AcDbEntity
  8
SUNPOU
 48
5.0
100
AcDbMText
 10
179.2380608226405
 20
87.04186781823427
 30
0.0
 40
2.5
 41
0.0
 71
     5
 72
     1
  1
\A1;128
1001
ACAD
1000
MTEXTBEGIN
1070
    73
1070
     1
1070
    44
1040
1.0
1070
    74
1070
     0
1000
MTEXTEND
  0
POINT
  5
C86
330
69A
100
AcDbEntity
  8
DEFPOINTS
 62
     0
 48
5.0
100
AcDbPoint
 10
115.2880608226679
 20
134.2414380919898
 30
0.0
  0
POINT
  5
C87
330
69A
100
AcDbEntity
  8
DEFPOINTS
 62
     0
 48
5.0
100
AcDbPoint
 10
243.1880608226129
 20
134.2414380919897
 30
0.0
  0
POINT
  5
C88
330
69A
100
AcDbEntity
  8
DEFPOINTS
 62
     0
 48
5.0
100
AcDbPoint
 10
243.1880608226129
 20
84.79186781823427
 30
0.0
  0
ENDBLK
  5
6A6
330
69A
100
AcDbEntity
  8
0
 48
5.0
100
AcDbBlockEnd
  0
BLOCK
  5
6B2
330
6A7
100
AcDbEntity
  8
0
 48
5.0
100
AcDbBlockBegin
  2
*D4
 70
     1
 10
0.0
 20
0.0
 30
0.0
  3
*D4
  1

  0
LINE
  5
C1D
330
6A7
100
AcDbEntity
  8
SUNPOU
 48
5.0
100
AcDbLine
 10
163.188060822664
 20
125.289425463903
 30
0.0
 11
163.188060822664
 21
91.08392482589101
 31
0.0
  0
LINE
  5
C1E
330
6A7
100
AcDbEntity
  8
SUNPOU
 48
5.0
100
AcDbLine
 10
243.1880608226129
 20
131.7414380919897
 30
0.0
 11
243.1880608226129
 21
91.08392482589101
 31
0.0
  0
LINE
  5
C1F
330
6A7
100
AcDbEntity
  8
SUNPOU
 48
5.0
100
AcDbLine
 10
165.688060822664
 20
92.13392482589101
 30
0.0
 11
240.688060822613
 21
92.13392482589101
 31
0.0
  0
INSERT
  5
C20
330
6A7
100
AcDbEntity
  8
SUNPOU
 48
5.0
100
AcDbBlockReference
  2
_OPEN
 10
163.188060822664
 20
92.13392482589101
 30
0.0
 41
2.5
 42
2.5
 43
2.5
 50
180.0
  0
INSERT
  5
C21
330
6A7
100
AcDbEntity
  8
SUNPOU
 48
5.0
100
AcDbBlockReference
  2
_OPEN
 10
243.1880608226129
 20
92.13392482589101
 30
0.0
 41
2.5
 42
2.5
 43
2.5
  0
MTEXT
  5
C22
330
6A7
100
AcDbEntity
  8
SUNPOU
 48
5.0
100
AcDbMText
 10
203.1880608226385
 20
94.38392482589101
 30
0.0
 40
2.5
 41
0.0
 71
     5
 72
     1
  1
\A1;80
1001
ACAD
1000
MTEXTBEGIN
1070
    73
1070
     1
1070
    44
1040
1.0
1070
    74
1070
     0
1000
MTEXTEND
  0
POINT
  5
C23
330
6A7
100
AcDbEntity
  8
DEFPOINTS
 62
     0
 48
5.0
100
AcDbPoint
 10
163.188060822664
 20
127.7894254639029
 30
0.0
  0
POINT
  5
C24
330
6A7
100
AcDbEntity
  8
DEFPOINTS
 62
     0
 48
5.0
100
AcDbPoint
 10
243.1880608226129
 20
134.2414380919897
 30
0.0
  0
POINT
  5
C25
330
6A7
100
AcDbEntity
  8
DEFPOINTS
 62
     0
 48
5.0
100
AcDbPoint
 10
243.1880608226129
 20
92.13392482589101
 30
0.0
  0
ENDBLK
  5
6B3
330
6A7
100
AcDbEntity
  8
0
 48
5.0
100
AcDbBlockEnd
  0
BLOCK
  5
6BF
330
6B4
100
AcDbEntity
  8
0
 48
5.0
100
AcDbBlockBegin
  2
*D5
 70
     1
 10
0.0
 20
0.0
 30
0.0
  3
*D5
  1

  0
LINE
  5
C14
330
6B4
100
AcDbEntity
  8
SUNPOU
 48
5.0
100
AcDbLine
 10
163.188060822664
 20
125.289425463903
 30
0.0
 11
163.188060822664
 21
99.3612104082085
 31
0.0
  0
LINE
  5
C15
330
6B4
100
AcDbEntity
  8
SUNPOU
 48
5.0
100
AcDbLine
 10
203.1880608225891
 20
129.7914380919897
 30
0.0
 11
203.1880608225891
 21
99.3612104082085
 31
0.0
  0
LINE
  5
C16
330
6B4
100
AcDbEntity
  8
SUNPOU
 48
5.0
100
AcDbLine
 10
165.688060822664
 20
100.4112104082084
 30
0.0
 11
200.6880608225891
 21
100.4112104082084
 31
0.0
  0
INSERT
  5
C17
330
6B4
100
AcDbEntity
  8
SUNPOU
 48
5.0
100
AcDbBlockReference
  2
_OPEN
 10
163.188060822664
 20
100.4112104082084
 30
0.0
 41
2.5
 42
2.5
 43
2.5
 50
180.0
  0
INSERT
  5
C18
330
6B4
100
AcDbEntity
  8
SUNPOU
 48
5.0
100
AcDbBlockReference
  2
_OPEN
 10
203.1880608225891
 20
100.4112104082084
 30
0.0
 41
2.5
 42
2.5
 43
2.5
  0
MTEXT
  5
C19
330
6B4
100
AcDbEntity
  8
SUNPOU
 48
5.0
100
AcDbMText
 10
183.1880608226265
 20
102.6612104082084
 30
0.0
 40
2.5
 41
0.0
 71
     5
 72
     1
  1
\A1;40
1001
ACAD
1000
MTEXTBEGIN
1070
    73
1070
     1
1070
    44
1040
1.0
1070
    74
1070
     0
1000
MTEXTEND
  0
POINT
  5
C1A
330
6B4
100
AcDbEntity
  8
DEFPOINTS
 62
     0
 48
5.0
100
AcDbPoint
 10
163.188060822664
 20
127.7894254639029
 30
0.0
  0
POINT
  5
C1B
330
6B4
100
AcDbEntity
  8
DEFPOINTS
 62
     0
 48
5.0
100
AcDbPoint
 10
203.1880608225891
 20
132.2914380919897
 30
0.0
  0
POINT
  5
C1C
330
6B4
100
AcDbEntity
  8
DEFPOINTS
 62
     0
 48
5.0
100
AcDbPoint
 10
203.1880608225891
 20
100.4112104082084
 30
0.0
  0
ENDBLK
  5
6C0
330
6B4
100
AcDbEntity
  8
0
 48
5.0
100
AcDbBlockEnd
  0
BLOCK
  5
6CC
330
6C1
100
AcDbEntity
  8
0
 48
5.0
100
AcDbBlockBegin
  2
*D6
 70
     1
 10
0.0
 20
0.0
 30
0.0
  3
*D6
  1

  0
LINE
  5
C0B
330
6C1
100
AcDbEntity
  8
SUNPOU
 48
5.0
100
AcDbLine
 10
115.288060822668
 20
131.7414380919897
 30
0.0
 11
115.288060822668
 21
91.08392482589101
 31
0.0
  0
LINE
  5
C0C
330
6C1
100
AcDbEntity
  8
SUNPOU
 48
5.0
100
AcDbLine
 10
163.188060822664
 20
125.289425463903
 30
0.0
 11
163.188060822664
 21
91.08392482589101
 31
0.0
  0
LINE
  5
C0D
330
6C1
100
AcDbEntity
  8
SUNPOU
 48
5.0
100
AcDbLine
 10
117.7880608226679
 20
92.13392482589101
 30
0.0
 11
160.688060822664
 21
92.13392482589101
 31
0.0
  0
INSERT
  5
C0E
330
6C1
100
AcDbEntity
  8
SUNPOU
 48
5.0
100
AcDbBlockReference
  2
_OPEN
 10
115.288060822668
 20
92.13392482589101
 30
0.0
 41
2.5
 42
2.5
 43
2.5
 50
180.0
  0
INSERT
  5
C0F
330
6C1
100
AcDbEntity
  8
SUNPOU
 48
5.0
100
AcDbBlockReference
  2
_OPEN
 10
163.188060822664
 20
92.13392482589101
 30
0.0
 41
2.5
 42
2.5
 43
2.5
  0
MTEXT
  5
C10
330
6C1
100
AcDbEntity
  8
SUNPOU
 48
5.0
100
AcDbMText
 10
139.238060822666
 20
94.38392482589101
 30
0.0
 40
2.5
 41
0.0
 71
     5
 72
     1
  1
\A1;48
1001
ACAD
1000
MTEXTBEGIN
1070
    73
1070
     1
1070
    44
1040
1.0
1070
    74
1070
     0
1000
MTEXTEND
  0
POINT
  5
C11
330
6C1
100
AcDbEntity
  8
DEFPOINTS
 62
     0
 48
5.0
100
AcDbPoint
 10
115.288060822668
 20
134.2414380919897
 30
0.0
  0
POINT
  5
C12
330
6C1
100
AcDbEntity
  8
DEFPOINTS
 62
     0
 48
5.0
100
AcDbPoint
 10
163.188060822664
 20
127.7894254639029
 30
0.0
  0
POINT
  5
C13
330
6C1
100
AcDbEntity
  8
DEFPOINTS
 62
     0
 48
5.0
100
AcDbPoint
 10
163.188060822664
 20
92.13392482589101
 30
0.0
  0
ENDBLK
  5
6CD
330
6C1
100
AcDbEntity
  8
0
 48
5.0
100
AcDbBlockEnd
  0
BLOCK
  5
6D9
330
6CE
100
AcDbEntity
  8
0
 48
5.0
100
AcDbBlockBegin
  2
*D7
 70
     1
 10
0.0
 20
0.0
 30
0.0
  3
*D7
  1

  0
LINE
  5
C45
330
6CE
100
AcDbEntity
  8
SUNPOU
 48
5.0
100
AcDbLine
 10
113.7880608226479
 20
65.27947600828901
 30
0.0
 11
97.66738617073357
 21
65.27947600828901
 31
0.0
  0
LINE
  5
C46
330
6CE
100
AcDbEntity
  8
SUNPOU
 48
5.0
100
AcDbLine
 10
113.7880608226479
 20
52.27947600828901
 30
0.0
 11
97.66738617073357
 21
52.27947600828901
 31
0.0
  0
LINE
  5
C47
330
6CE
100
AcDbEntity
  8
SUNPOU
 48
5.0
100
AcDbLine
 10
98.71738617073356
 20
62.77947600828902
 30
0.0
 11
98.71738617073356
 21
54.77947600828901
 31
0.0
  0
INSERT
  5
C48
330
6CE
100
AcDbEntity
  8
SUNPOU
 48
5.0
100
AcDbBlockReference
  2
_OPEN
 10
98.71738617073356
 20
65.27947600828901
 30
0.0
 41
2.5
 42
2.5
 43
2.5
 50
90.0
  0
INSERT
  5
C49
330
6CE
100
AcDbEntity
  8
SUNPOU
 48
5.0
100
AcDbBlockReference
  2
_OPEN
 10
98.71738617073356
 20
52.27947600828901
 30
0.0
 41
2.5
 42
2.5
 43
2.5
 50
270.0
  0
MTEXT
  5
C4A
330
6CE
100
AcDbEntity
  8
SUNPOU
 48
5.0
100
AcDbMText
 10
96.46738617073355
 20
58.77947600828903
 30
0.0
 40
2.5
 41
0.0
 71
     5
 72
     1
  1
\A1;13
 11
0.0000000000000001
 21
1.0
 31
0.0
1001
ACAD
1000
MTEXTBEGIN
1070
    73
1070
     1
1070
    44
1040
1.0
1070
    74
1070
     0
1000
MTEXTEND
  0
POINT
  5
C4B
330
6CE
100
AcDbEntity
  8
DEFPOINTS
 62
     0
 48
5.0
100
AcDbPoint
 10
116.2880608226479
 20
65.27947600828901
 30
0.0
  0
POINT
  5
C4C
330
6CE
100
AcDbEntity
  8
DEFPOINTS
 62
     0
 48
5.0
100
AcDbPoint
 10
116.2880608226479
 20
52.27947600828901
 30
0.0
  0
POINT
  5
C4D
330
6CE
100
AcDbEntity
  8
DEFPOINTS
 62
     0
 48
5.0
100
AcDbPoint
 10
98.71738617073356
 20
52.27947600828901
 30
0.0
  0
ENDBLK
  5
6DA
330
6CE
100
AcDbEntity
  8
0
 48
5.0
100
AcDbBlockEnd
  0
BLOCK
  5
6E5
330
6DB
100
AcDbEntity
  8
0
 48
5.0
100
AcDbBlockBegin
  2
*D8
 70
     1
 10
0.0
 20
0.0
 30
0.0
  3
*D8
  1

  0
LINE
  5
C54
330
6DB
100
AcDbEntity
  8
SUNPOU
 48
5.0
100
AcDbLine
 10
121.5415799573444
 20
121.2604217110882
 30
0.0
 11
122.5520639194365
 21
120.2205072134709
 31
0.0
  0
LINE
  5
C55
330
6DB
100
AcDbEntity
  8
SUNPOU
 48
5.0
100
AcDbLine
 10
120.8243975451946
 20
120.5635362199902
 30
0.0
 11
121.8348815072866
 21
119.5236217223729
 31
0.0
  0
LINE
  5
C56
330
6DB
100
AcDbEntity
  8
SUNPOU
 48
5.0
100
AcDbLine
 10
125.0767497154641
 20
121.2096794084585
 30
0.0
 11
126.8697057458388
 21
122.9518931362034
 31
0.0
  0
LINE
  5
C57
330
6DB
100
AcDbEntity
  8
SUNPOU
 48
5.0
100
AcDbLine
 10
120.7736552425648
 20
117.0283664618706
 30
0.0
 11
116.9486823777652
 21
113.3116438426812
 31
0.0
  0
LINE
  5
C58
330
6DB
100
AcDbEntity
  8
SUNPOU
 48
5.0
100
AcDbLine
 10
123.2837936850894
 20
119.4674656807135
 30
0.0
 11
122.5666112729395
 21
118.7705801896155
 31
0.0
  0
INSERT
  5
C59
330
6DB
100
AcDbEntity
  8
SUNPOU
 48
5.0
100
AcDbBlockReference
  2
_OPEN
 10
123.2837936850894
 20
119.4674656807135
 30
0.0
 41
2.5
 42
2.5
 43
2.5
 50
224.1776575534077
  0
INSERT
  5
C5A
330
6DB
100
AcDbEntity
  8
SUNPOU
 48
5.0
100
AcDbBlockReference
  2
_OPEN
 10
122.5666112729395
 20
118.7705801896155
 30
0.0
 41
2.5
 42
2.5
 43
2.5
 50
44.1776575534077
  0
MTEXT
  5
C5B
330
6DB
100
AcDbEntity
  8
SUNPOU
 48
5.0
100
AcDbMText
 10
116.3966984400071
 20
115.9125587157406
 30
0.0
 40
2.5
 41
0.0
 71
     5
 72
     1
  1
\A1;1
 11
0.7171824121498868
 21
0.6968854910979782
 31
0.0
1001
ACAD
1000
MTEXTBEGIN
1070
    73
1070
     1
1070
    44
1040
1.0
1070
    74
1070
     0
1000
MTEXTEND
  0
POINT
  5
C5C
330
6DB
100
AcDbEntity
  8
DEFPOINTS
 62
     0
 48
5.0
100
AcDbPoint
 10
123.2837936850894
 20
119.4674656807135
 30
0.0
  0
POINT
  5
C5D
330
6DB
100
AcDbEntity
  8
DEFPOINTS
 62
     0
 48
5.0
100
AcDbPoint
 10
122.5666112729395
 20
118.7705801896155
 30
0.0
  0
POINT
  5
C5E
330
6DB
100
AcDbEntity
  8
DEFPOINTS
 62
     0
 48
5.0
100
AcDbPoint
 10
122.5666112729395
 20
118.7705801896155
 30
0.0
  0
ENDBLK
  5
6E6
330
6DB
100
AcDbEntity
  8
0
 48
5.0
100
AcDbBlockEnd
  0
BLOCK
  5
6EE
330
6E7
100
AcDbEntity
  8
0
 48
5.0
100
AcDbBlockBegin
  2
*D9
 70
     1
 10
0.0
 20
0.0
 30
0.0
  3
*D9
  1

  0
LINE
  5
C8C
330
6E7
100
AcDbEntity
  8
SUNPOU
 48
5.0
100
AcDbLine
 10
125.0767497154642
 20
121.2096794084583
 30
0.0
 11
151.8993719298717
 21
147.2731967755209
 31
0.0
  0
MTEXT
  5
C8D
330
6E7
100
AcDbEntity
  8
SUNPOU
 48
5.0
100
AcDbMText
 10
142.939425831859
 20
141.82095395445
 30
0.0
 40
2.5
 41
0.0
 71
     5
 72
     1
  1
\A1;\U+220542
 11
0.7171824121499326
 21
0.696885491097931
 31
0.0
  0
INSERT
  5
C8E
330
6E7
100
AcDbEntity
  8
SUNPOU
 48
5.0
100
AcDbBlockReference
  2
_OPEN
 10
123.2837936850893
 20
119.4674656807135
 30
0.0
 41
2.5
 42
2.5
 43
2.5
 50
224.1776575534039
  0
INSERT
  5
C8F
330
6E7
100
AcDbEntity
  8
SUNPOU
 48
5.0
100
AcDbBlockReference
  2
_OPEN
 10
153.6923279602465
 20
149.0154105032658
 30
0.0
 41
2.5
 42
2.5
 43
2.5
 50
44.17765755340393
  0
POINT
  5
C90
330
6E7
100
AcDbEntity
  8
DEFPOINTS
 62
     0
 48
5.0
100
AcDbPoint
 10
153.6923279602465
 20
149.0154105032658
 30
0.0
  0
POINT
  5
C91
330
6E7
100
AcDbEntity
  8
DEFPOINTS
 62
     0
 48
5.0
100
AcDbPoint
 10
123.2837936850893
 20
119.4674656807135
 30
0.0
  0
ENDBLK
  5
6EF
330
6E7
100
AcDbEntity
  8
0
 48
5.0
100
AcDbBlockEnd
  0
BLOCK
  5
6FB
330
6F0
100
AcDbEntity
  8
0
 48
5.0
100
AcDbBlockBegin
  2
*D10
 70
     1
 10
0.0
 20
0.0
 30
0.0
  3
*D10
  1

  0
LINE
  5
C5F
330
6F0
100
AcDbEntity
  8
SUNPOU
 48
5.0
100
AcDbLine
 10
193.3544821805902
 20
136.4914380919896
 30
0.0
 11
193.9457377557263
 21
136.4914380919896
 31
0.0
  0
LINE
  5
C60
330
6F0
100
AcDbEntity
  8
SUNPOU
 48
5.0
100
AcDbLine
 10
193.3544821907766
 20
131.9914380919896
 30
0.0
 11
193.9457377557263
 21
131.9914380919896
 31
0.0
  0
LINE
  5
C61
330
6F0
100
AcDbEntity
  8
SUNPOU
 48
5.0
100
AcDbLine
 10
192.8957377557263
 20
138.9914380919897
 30
0.0
 11
192.8957377557263
 21
141.4914380919896
 31
0.0
  0
LINE
  5
C62
330
6F0
100
AcDbEntity
  8
SUNPOU
 48
5.0
100
AcDbLine
 10
192.8957377557263
 20
129.4914380919896
 30
0.0
 11
192.8957377557263
 21
117.4914380919897
 31
0.0
  0
LINE
  5
C63
330
6F0
100
AcDbEntity
  8
SUNPOU
 48
5.0
100
AcDbLine
 10
192.8957377557263
 20
136.4914380919896
 30
0.0
 11
192.8957377557263
 21
131.9914380919896
 31
0.0
  0
INSERT
  5
C64
330
6F0
100
AcDbEntity
  8
SUNPOU
 48
5.0
100
AcDbBlockReference
  2
_OPEN
 10
192.8957377557263
 20
136.4914380919896
 30
0.0
 41
2.5
 42
2.5
 43
2.5
 50
270.0
  0
INSERT
  5
C65
330
6F0
100
AcDbEntity
  8
SUNPOU
 48
5.0
100
AcDbBlockReference
  2
_OPEN
 10
192.8957377557263
 20
131.9914380919896
 30
0.0
 41
2.5
 42
2.5
 43
2.5
 50
90.0
  0
MTEXT
  5
C66
330
6F0
100
AcDbEntity
  8
SUNPOU
 48
5.0
100
AcDbMText
 10
190.6457377557263
 20
122.2414380919897
 30
0.0
 40
2.5
 41
0.0
 71
     5
 72
     1
  1
\A1;φ4.5
 11
0.0000000000000001
 21
1.0
 31
0.0
1001
ACAD
1000
MTEXTBEGIN
1070
    73
1070
     1
1070
    44
1040
1.0
1070
    74
1070
     0
1000
MTEXTEND
  0
POINT
  5
C67
330
6F0
100
AcDbEntity
  8
DEFPOINTS
 62
     0
 48
5.0
100
AcDbPoint
 10
190.8544821805902
 20
136.4914380919897
 30
0.0
  0
POINT
  5
C68
330
6F0
100
AcDbEntity
  8
DEFPOINTS
 62
     0
 48
5.0
100
AcDbPoint
 10
190.8544821907765
 20
131.9914380919897
 30
0.0
  0
POINT
  5
C69
330
6F0
100
AcDbEntity
  8
DEFPOINTS
 62
     0
 48
5.0
100
AcDbPoint
 10
192.8957377557263
 20
131.9914380919896
 30
0.0
  0
ENDBLK
  5
6FC
330
6F0
100
AcDbEntity
  8
0
 48
5.0
100
AcDbBlockEnd
  0
BLOCK
  5
BA8
330
B9E
100
AcDbEntity
  8
0
 48
5.0
100
AcDbBlockBegin
  2
*D11
 70
     1
 10
0.0
 20
0.0
 30
0.0
  3
*D11
  1

  0
LINE
  5
C6A
330
B9E
100
AcDbEntity
  8
SUNPOU
 48
5.0
100
AcDbLine
 10
135.9880608226679
 20
162.4414380919897
 30
0.0
 11
97.66738617073357
 21
162.4414380919897
 31
0.0
  0
LINE
  5
C6B
330
B9E
100
AcDbEntity
  8
SUNPOU
 48
5.0
100
AcDbLine
 10
136.8902519076687
 20
108.664914999815
 30
0.0
 11
97.66738617073357
 21
108.664914999815
 31
0.0
  0
LINE
  5
C6C
330
B9E
100
AcDbEntity
  8
SUNPOU
 48
5.0
100
AcDbLine
 10
98.71738617073356
 20
159.9414380919897
 30
0.0
 11
98.71738617073356
 21
111.164914999815
 31
0.0
  0
INSERT
  5
C6D
330
B9E
100
AcDbEntity
  8
SUNPOU
 48
5.0
100
AcDbBlockReference
  2
_OPEN
 10
98.71738617073358
 20
162.4414380919897
 30
0.0
 41
2.5
 42
2.5
 43
2.5
 50
90.0
  0
INSERT
  5
C6E
330
B9E
100
AcDbEntity
  8
SUNPOU
 48
5.0
100
AcDbBlockReference
  2
_OPEN
 10
98.71738617073356
 20
108.664914999815
 30
0.0
 41
2.5
 42
2.5
 43
2.5
 50
270.0
  0
MTEXT
  5
C6F
330
B9E
100
AcDbEntity
  8
SUNPOU
 48
5.0
100
AcDbMText
 10
96.46738617073355
 20
135.5531765459024
 30
0.0
 40
2.5
 41
0.0
 71
     5
 72
     1
  1
\A1;54
 11
0.0000000000000001
 21
1.0
 31
0.0
1001
ACAD
1000
MTEXTBEGIN
1070
    73
1070
     1
1070
    44
1040
1.0
1070
    74
1070
     0
1000
MTEXTEND
  0
POINT
  5
C70
330
B9E
100
AcDbEntity
  8
DEFPOINTS
 62
     0
 48
5.0
100
AcDbPoint
 10
138.488060822668
 20
162.4414380919897
 30
0.0
  0
POINT
  5
C71
330
B9E
100
AcDbEntity
  8
DEFPOINTS
 62
     0
 48
5.0
100
AcDbPoint
 10
139.3902519076686
 20
108.664914999815
 30
0.0
  0
POINT
  5
C72
330
B9E
100
AcDbEntity
  8
DEFPOINTS
 62
     0
 48
5.0
100
AcDbPoint
 10
98.71738617073356
 20
108.664914999815
 30
0.0
  0
ENDBLK
  5
BA9
330
B9E
100
AcDbEntity
  8
0
 48
5.0
100
AcDbBlockEnd
  0
ENDSEC
  0
SECTION
  2
ENTITIES
  0
TEXT
  5
E8
330
1A
100
AcDbEntity
  8
ZUAKU
 48
5.0
100
AcDbText
 10
274.9826160772294
 20
0.4703224256725025
 30
0.0
 40
4.0
  1
A4
100
AcDbText
  0
LINE
  5
E9
330
1A
100
AcDbEntity
  8
ZUAKU
 48
5.0
100
AcDbLine
 10
3.643342134233761
 20
9.100402493792682
 30
0.0
 11
281.4473421342337
 21
9.100402493792643
 31
0.0
  0
LINE
  5
EA
330
1A
100
AcDbEntity
  8
ZUAKU
 48
5.0
100
AcDbLine
 10
281.4473421342337
 20
196.8624024937926
 30
0.0
 11
3.643342134233761
 21
196.8624024937926
 31
0.0
  0
LINE
  5
EB
330
1A
100
AcDbEntity
  8
ZUAKU
 48
5.0
100
AcDbLine
 10
281.4473421342337
 20
4.912402493792683
 30
0.0
 11
3.643342134233761
 21
4.912402493792683
 31
0.0
  0
LINE
  5
EC
330
1A
100
AcDbEntity
  8
ZUAKU
 48
5.0
100
AcDbLine
 10
3.643342134233761
 20
196.8624024937926
 30
0.0
 11
3.643342134233761
 21
4.912402493792683
 31
0.0
  0
LINE
  5
ED
330
1A
100
AcDbEntity
  8
ZUAKU
 48
5.0
100
AcDbLine
 10
15.68645863812407
 20
4.912402493792683
 30
0.0
 11
15.68645863812408
 21
9.100402493792682
 31
0.0
  0
TEXT
  5
EE
330
1A
100
AcDbEntity
  8
ZUAKU
 48
5.0
100
AcDbText
 10
5.739536445959569
 20
5.51978686176494
 30
0.0
 40
2.791999999999999
  1
品 種
100
AcDbText
  0
LINE
  5
EF
330
1A
100
AcDbEntity
  8
ZUAKU
 48
5.0
100
AcDbLine
 10
96.49561599102019
 20
4.912402493792683
 30
0.0
 11
96.49561599102019
 21
9.100402493792667
 31
0.0
  0
LINE
  5
F0
330
1A
100
AcDbEntity
  8
ZUAKU
 48
5.0
100
AcDbLine
 10
73.25605985458754
 20
4.912402493792683
 30
0.0
 11
73.25605985458754
 21
9.100402493792675
 31
0.0
  0
TEXT
  5
F1
330
1A
100
AcDbEntity
  8
ZUAKU
 48
5.0
100
AcDbText
 10
98.66301218633946
 20
5.561483415666402
 30
0.0
 40
2.791999999999999
  1
ステンレス金具　デンデン　ＵＴ４２－Ｌ８０
100
AcDbText
  0
TEXT
  5
F2
330
1A
100
AcDbEntity
  8
ZUAKU
 48
5.0
100
AcDbText
 10
75.32989850029551
 20
5.750349703493141
 30
0.0
 40
2.791999999999999
  1
品名・ｻ ｲ ｽﾞ
100
AcDbText
  0
TEXT
  5
F3
330
1A
100
AcDbEntity
  8
ZUAKU
 48
5.0
100
AcDbText
 10
17.70855172478562
 20
5.722248482930323
 30
0.0
 40
2.791999999999999
  1
丸トップ　たて樋
100
AcDbText
  0
LINE
  5
F4
330
1A
100
AcDbEntity
  8
ZUAKU
 48
5.0
100
AcDbLine
 10
268.4200899719926
 20
4.912402493792587
 30
0.0
 11
268.4200899719926
 21
9.100402493792643
 31
0.0
  0
LINE
  5
F5
330
1A
100
AcDbEntity
  8
ZUAKU
 48
5.0
100
AcDbLine
 10
256.2360784652935
 20
4.912402493792604
 30
0.0
 11
256.2360784652935
 21
9.100402493792646
 31
0.0
  0
TEXT
  5
F6
330
1A
100
AcDbEntity
  8
ZUAKU
 48
5.0
100
AcDbText
 10
258.2894767684142
 20
5.421834748867453
 30
0.0
 40
2.791999999999999
  1
尺 度
100
AcDbText
  0
TEXT
  5
F7
330
1A
100
AcDbEntity
  8
ZUAKU
 48
5.0
100
AcDbText
 10
272.2640998806188
 20
5.530936212172116
 30
0.0
 40
2.791999999999999
  1
1/1
100
AcDbText
  0
TEXT
  5
F8
330
1A
100
AcDbEntity
  8
ZUAKU
 48
5.0
100
AcDbText
 10
228.4700827877275
 20
5.652384947102577
 30
0.0
 40
2.791999999999999
  1
ＬＧ９６
100
AcDbText
  0
TEXT
  5
F9
330
1A
100
AcDbEntity
  8
ZUAKU
 48
5.0
100
AcDbText
 10
216.6331040469077
 20
5.564796155042357
 30
0.0
 40
2.791999999999999
  1
品 番
100
AcDbText
  0
LINE
  5
FA
330
1A
100
AcDbEntity
  8
ZUAKU
 48
5.0
100
AcDbLine
 10
214.5386761663132
 20
4.912402493792569
 30
0.0
 11
214.5386761663132
 21
9.100402493792653
 31
0.0
  0
LINE
  5
FB
330
1A
100
AcDbEntity
  8
ZUAKU
 48
5.0
100
AcDbLine
 10
226.5532300815867
 20
4.912402493792569
 30
0.0
 11
226.5532300815867
 21
9.10040249379265
 31
0.0
  0
TEXT
  5
FC
330
1A
100
AcDbEntity
  8
ZUAKU
 48
5.0
100
AcDbText
 10
206.9929326095543
 20
0.5310030333123353
 30
0.0
 40
4.0
  1
積水化学工業株式会社  建材
100
AcDbText
  0
LINE
  5
FD
330
1A
100
AcDbEntity
  8
ZUAKU
 48
5.0
100
AcDbLine
 10
281.4473421342337
 20
196.8624024937926
 30
0.0
 11
281.4473421342337
 21
4.912402493792683
 31
0.0
  0
LINE
  5
57D
330
1A
100
AcDbEntity
  8
CENTER_L
 48
10.0
100
AcDbLine
 10
138.4880608226814
 20
102.3430406137287
 30
0.0
 11
138.488060822645
 21
166.1398355702508
 31
0.0
  0
DIMENSION
  5
57E
330
1A
100
AcDbEntity
  8
SUNPOU
 48
10.0
100
AcDbDimension
  2
*D6
 10
163.188060822664
 20
92.13392482589101
 30
0.0
 11
139.238060822666
 21
94.38392482589101
 31
0.0
 70
    32
  3
STANDARD
100
AcDbAlignedDimension
 13
115.288060822668
 23
134.2414380919897
 33
0.0
 14
163.188060822664
 24
127.7894254639029
 34
0.0
100
AcDbRotatedDimension
1001
ACAD
1000
DSTYLE
1002
{
1070
    41
1040
2.5
1070
    42
1040
2.5
1070
    43
1040
4.879999999999999
1070
    44
1040
1.05
1070
    73
1070
     0
1070
    74
1070
     0
1070
    77
1070
     3
1070
   140
1040
2.5
1070
   141
1040
150.0
1070
   147
1040
1.0
1070
   172
1070
     1
1070
   173
1070
     1
1070
   176
1070
   256
1070
   177
1070
   256
1070
   178
1070
   256
1070
   271
1070
     0
1070
   272
1070
     0
1070
   341
1005
66
1070
     6
1000
OPEN
1070
     7
1000
OPEN
1070
   371
1070
    -1
1070
   372
1070
    -1
1002
}
  0
DIMENSION
  5
57F
330
1A
100
AcDbEntity
  8
SUNPOU
 48
10.0
100
AcDbDimension
  2
*D5
 10
203.1880608225891
 20
100.4112104082084
 30
0.0
 11
183.1880608226265
 21
102.6612104082084
 31
0.0
 70
    32
  3
STANDARD
100
AcDbAlignedDimension
 13
163.188060822664
 23
127.7894254639029
 33
0.0
 14
203.1880608225891
 24
132.2914380919897
 34
0.0
100
AcDbRotatedDimension
1001
ACAD
1000
DSTYLE
1002
{
1070
    41
1040
2.5
1070
    42
1040
2.5
1070
    43
1040
4.879999999999999
1070
    44
1040
1.05
1070
    73
1070
     0
1070
    74
1070
     0
1070
    77
1070
     3
1070
   140
1040
2.5
1070
   141
1040
150.0
1070
   147
1040
1.0
1070
   172
1070
     1
1070
   173
1070
     1
1070
   176
1070
   256
1070
   177
1070
   256
1070
   178
1070
   256
1070
   271
1070
     0
1070
   272
1070
     0
1070
   341
1005
66
1070
     6
1000
OPEN
1070
     7
1000
OPEN
1070
   371
1070
    -1
1070
   372
1070
    -1
1002
}
  0
DIMENSION
  5
580
330
1A
100
AcDbEntity
  8
SUNPOU
 48
10.0
100
AcDbDimension
  2
*D4
 10
243.1880608226129
 20
92.13392482589101
 30
0.0
 11
203.1880608226385
 21
94.38392482589101
 31
0.0
 70
    32
  3
STANDARD
100
AcDbAlignedDimension
 13
163.188060822664
 23
127.7894254639029
 33
0.0
 14
243.1880608226129
 24
134.2414380919897
 34
0.0
100
AcDbRotatedDimension
1001
ACAD
1000
DSTYLE
1002
{
1070
    41
1040
2.5
1070
    42
1040
2.5
1070
    43
1040
4.879999999999999
1070
    44
1040
1.05
1070
    73
1070
     0
1070
    74
1070
     0
1070
    77
1070
     3
1070
   140
1040
2.5
1070
   141
1040
150.0
1070
   147
1040
1.0
1070
   172
1070
     1
1070
   173
1070
     1
1070
   176
1070
   256
1070
   177
1070
   256
1070
   178
1070
   256
1070
   271
1070
     0
1070
   272
1070
     0
1070
   341
1005
66
1070
     6
1000
OPEN
1070
     7
1000
OPEN
1070
   371
1070
    -1
1070
   372
1070
    -1
1002
}
  0
DIMENSION
  5
581
330
1A
100
AcDbEntity
  8
SUNPOU
 48
10.0
100
AcDbDimension
  2
*D3
 10
243.1880608226129
 20
84.79186781823427
 30
0.0
 11
179.2380608226405
 21
87.04186781823427
 31
0.0
 70
    32
  3
STANDARD
100
AcDbAlignedDimension
 13
115.2880608226679
 23
134.2414380919898
 33
0.0
 14
243.1880608226129
 24
134.2414380919897
 34
0.0
100
AcDbRotatedDimension
1001
ACAD
1000
DSTYLE
1002
{
1070
    41
1040
2.5
1070
    42
1040
2.5
1070
    43
1040
4.879999999999999
1070
    44
1040
1.05
1070
    73
1070
     0
1070
    74
1070
     0
1070
    77
1070
     3
1070
   140
1040
2.5
1070
   141
1040
150.0
1070
   147
1040
1.0
1070
   172
1070
     1
1070
   173
1070
     1
1070
   176
1070
   256
1070
   177
1070
   256
1070
   178
1070
   256
1070
   271
1070
     0
1070
   272
1070
     0
1070
   341
1005
66
1070
     6
1000
OPEN
1070
     7
1000
OPEN
1070
   371
1070
    -1
1070
   372
1070
    -1
1002
}
  0
DIMENSION
  5
582
330
1A
100
AcDbEntity
  8
SUNPOU
 48
10.0
100
AcDbDimension
  2
*D2
 10
208.1880608226166
 20
100.4112104082084
 30
0.0
 11
205.6880608226029
 21
102.6612104082084
 31
0.0
 70
    32
  3
STANDARD
100
AcDbAlignedDimension
 13
203.1880608225891
 23
132.2914380919897
 33
0.0
 14
208.1880608226166
 24
132.2914380914389
 34
0.0
100
AcDbRotatedDimension
1001
ACAD
1000
DSTYLE
1002
{
1070
    41
1040
2.5
1070
    42
1040
2.5
1070
    43
1040
4.879999999999999
1070
    44
1040
1.05
1070
    73
1070
     0
1070
    74
1070
     0
1070
    77
1070
     3
1070
   140
1040
2.5
1070
   141
1040
150.0
1070
   147
1040
1.0
1070
   172
1070
     1
1070
   173
1070
     1
1070
   176
1070
   256
1070
   177
1070
   256
1070
   178
1070
   256
1070
   271
1070
     0
1070
   272
1070
     0
1070
   341
1005
66
1070
     6
1000
OPEN
1070
     7
1000
OPEN
1070
   371
1070
    -1
1070
   372
1070
    -1
1002
}
  0
DIMENSION
  5
583
330
1A
100
AcDbEntity
  8
SUNPOU
 48
10.0
100
AcDbDimension
  2
*D1
 10
208.1880608226166
 20
100.4112104082084
 30
0.0
 11
210.6880608226304
 21
102.6612104082084
 31
0.0
 70
    32
  3
STANDARD
100
AcDbAlignedDimension
 13
213.1880608226441
 23
132.2914380908881
 33
0.0
 14
208.1880608226166
 24
132.2914380914389
 34
0.0
100
AcDbRotatedDimension
1001
ACAD
1000
DSTYLE
1002
{
1070
    41
1040
2.5
1070
    42
1040
2.5
1070
    43
1040
4.879999999999999
1070
    44
1040
1.05
1070
    73
1070
     0
1070
    74
1070
     0
1070
    77
1070
     3
1070
   140
1040
2.5
1070
   141
1040
150.0
1070
   147
1040
1.0
1070
   172
1070
     1
1070
   173
1070
     1
1070
   176
1070
   256
1070
   177
1070
   256
1070
   178
1070
   256
1070
   271
1070
     0
1070
   272
1070
     0
1070
   341
1005
66
1070
     6
1000
OPEN
1070
     7
1000
OPEN
1070
   371
1070
    -1
1070
   372
1070
    -1
1002
}
  0
DIMENSION
  5
584
330
1A
100
AcDbEntity
  8
SUNPOU
 48
10.0
100
AcDbDimension
  2
*D7
 10
98.71738617073356
 20
52.27947600828901
 30
0.0
 11
96.46738617073355
 21
58.77947600828903
 31
0.0
 70
    32
  3
STANDARD
100
AcDbAlignedDimension
 13
116.2880608226479
 23
65.27947600828901
 33
0.0
 14
116.2880608226479
 24
52.27947600828901
 34
0.0
 50
90.0
100
AcDbRotatedDimension
1001
ACAD
1000
DSTYLE
1002
{
1070
    41
1040
2.5
1070
    42
1040
2.5
1070
    43
1040
4.879999999999999
1070
    44
1040
1.05
1070
    73
1070
     0
1070
    74
1070
     0
1070
    77
1070
     3
1070
   140
1040
2.5
1070
   141
1040
150.0
1070
   147
1040
1.0
1070
   172
1070
     1
1070
   173
1070
     1
1070
   176
1070
   256
1070
   177
1070
   256
1070
   178
1070
   256
1070
   271
1070
     0
1070
   272
1070
     0
1070
   341
1005
66
1070
     6
1000
OPEN
1070
     7
1000
OPEN
1070
   371
1070
    -1
1070
   372
1070
    -1
1002
}
  0
LINE
  5
587
330
1A
100
AcDbEntity
  8
CENTER_L
 48
10.0
100
AcDbLine
 10
250.3403576759726
 20
58.77947600828901
 30
0.0
 11
108.2880608226679
 21
58.77947600828901
 31
0.0
  0
LINE
  5
588
330
1A
100
AcDbEntity
  8
SEIHIN
 48
10.0
100
AcDbLine
 10
158.9167884698486
 20
61.77947600828901
 30
0.0
 11
146.1701096727703
 21
61.77947600828901
 31
0.0
  0
LINE
  5
589
330
1A
100
AcDbEntity
  8
SEIHIN
 48
10.0
100
AcDbLine
 10
158.9167884698726
 20
55.77947600831977
 30
0.0
 11
146.1387366394516
 21
55.77947600831978
 31
0.0
  0
LINE
  5
58A
330
1A
100
AcDbEntity
  8
SEIHIN
 48
10.0
100
AcDbLine
 10
163.188060822688
 20
65.27947600828901
 30
0.0
 11
116.2880608226479
 21
65.27947600828901
 31
0.0
  0
LINE
  5
58B
330
1A
100
AcDbEntity
  8
SEIHIN
 48
10.0
100
AcDbLine
 10
163.1880608226639
 20
52.27947600828904
 30
0.0
 11
116.2880608226479
 21
52.27947600828901
 31
0.0
  0
ARC
  5
58C
330
1A
100
AcDbEntity
  8
SEIHIN
 48
10.0
100
AcDbCircle
 10
123.7144532292713
 20
58.77947600830808
 30
0.0
 40
5.000000000023594
100
AcDbArc
 50
323.1301023539886
 51
36.86989764566921
  0
LINE
  5
58D
330
1A
100
AcDbEntity
  8
SEIHIN
 48
10.0
100
AcDbLine
 10
116.2880608226635
 20
55.77947600828901
 30
0.0
 11
116.2880608226479
 21
52.27947600828901
 31
0.0
  0
LINE
  5
58E
330
1A
100
AcDbEntity
  8
SEIHIN
 48
10.0
100
AcDbLine
 10
127.7144532292993
 20
61.77947600831004
 30
0.0
 11
116.2880608226524
 21
61.77947600831004
 31
0.0
  0
LINE
  5
58F
330
1A
100
AcDbEntity
  8
SEIHIN
 48
10.0
100
AcDbLine
 10
127.7144532292904
 20
55.77947600828901
 30
0.0
 11
116.2880608226435
 21
55.77947600828901
 31
0.0
  0
LINE
  5
590
330
1A
100
AcDbEntity
  8
SEIHIN
 48
10.0
100
AcDbLine
 10
116.288060822668
 20
65.27947600828901
 30
0.0
 11
116.2880608226524
 21
61.77947600831004
 31
0.0
  0
ARC
  5
591
330
1A
100
AcDbEntity
  8
SEIHIN
 48
10.0
100
AcDbCircle
 10
120.2880608227106
 20
58.77947600828985
 30
0.0
 40
5.000000000042694
100
AcDbArc
 50
143.1301023542335
 51
216.8698976453506
  0
LINE
  5
592
330
1A
100
AcDbEntity
  8
SEIHIN
 48
10.0
100
AcDbLine
 10
142.5017815155508
 20
63.62374280266812
 30
0.0
 11
142.5017815154935
 21
53.63184249114175
 31
0.0
  0
ARC
  5
593
330
1A
100
AcDbEntity
  8
SEIHIN
 48
10.0
100
AcDbCircle
 10
143.7228960772382
 20
54.27947600828901
 30
0.0
 40
2.0
100
AcDbArc
 50
270.0
 51
359.9999999990775
  0
ARC
  5
594
330
1A
100
AcDbEntity
  8
SEIHIN
 48
10.0
100
AcDbCircle
 10
144.1701096727381
 20
54.27947600828902
 30
0.0
 40
2.0
100
AcDbArc
 50
270.0
 51
359.9999999990775
  0
LINE
  5
595
330
1A
100
AcDbEntity
  8
SEIHIN
 48
10.0
100
AcDbLine
 10
129.888060822668
 20
65.27947600828901
 30
0.0
 11
129.8880608226248
 21
52.27947600828901
 31
0.0
  0
ARC
  5
596
330
1A
100
AcDbEntity
  8
SEIHIN
 48
10.0
100
AcDbCircle
 10
160.0067268292569
 20
58.77947600828895
 30
0.0
 40
20.95292745600858
100
AcDbArc
 50
167.857504219637
 51
192.1424957803618
  0
LINE
  5
597
330
1A
100
AcDbEntity
  8
SEIHIN
 48
10.0
100
AcDbLine
 10
139.5537993732484
 20
63.07947600828903
 30
0.0
 11
139.5537993731633
 21
54.479476008289
 31
0.0
  0
LINE
  5
598
330
1A
100
AcDbEntity
  8
SEIHIN
 48
10.0
100
AcDbLine
 10
139.3537993732484
 20
54.279476008289
 30
0.0
 11
133.454104928773
 21
54.279476008289
 31
0.0
  0
ARC
  5
599
330
1A
100
AcDbEntity
  8
SEIHIN
 48
10.0
100
AcDbCircle
 10
139.3537993732484
 20
54.479476008289
 30
0.0
 40
0.2
100
AcDbArc
 50
269.9999999890568
 51
0.0
  0
LINE
  5
59A
330
1A
100
AcDbEntity
  8
SEIHIN
 48
10.0
100
AcDbLine
 10
139.3537993732484
 20
63.27947600828901
 30
0.0
 11
133.454104928773
 21
63.27947600828901
 31
0.0
  0
ARC
  5
59B
330
1A
100
AcDbEntity
  8
SEIHIN
 48
10.0
100
AcDbCircle
 10
139.3537993732484
 20
63.07947600828903
 30
0.0
 40
0.2
100
AcDbArc
 50
0.0
 51
90.0
  0
LINE
  5
59C
330
1A
100
AcDbEntity
  8
SEIHIN
 48
10.0
100
AcDbLine
 10
145.722896077383
 20
63.2794760083372
 30
0.0
 11
145.7228960772382
 21
54.27947600825682
 31
0.0
  0
LINE
  5
59D
330
1A
100
AcDbEntity
  8
SEIHIN
 48
10.0
100
AcDbLine
 10
146.170109672883
 20
63.2794760083228
 30
0.0
 11
146.1701096727381
 21
54.27947600828901
 31
0.0
  0
ARC
  5
59E
330
1A
100
AcDbEntity
  8
SEIHIN
 48
10.0
100
AcDbCircle
 10
144.170109672883
 20
63.27947600835499
 30
0.0
 40
2.0
100
AcDbArc
 50
359.9999999990779
 51
89.9999999981566
  0
ARC
  5
59F
330
1A
100
AcDbEntity
  8
SEIHIN
 48
10.0
100
AcDbCircle
 10
143.722896077383
 20
63.27947600836939
 30
0.0
 40
2.0
100
AcDbArc
 50
359.9999999990779
 51
89.9999999981566
  0
LINE
  5
5A2
330
1A
100
AcDbEntity
  8
SEIHIN
 48
10.0
100
AcDbLine
 10
163.1880608226639
 20
52.27947600828901
 30
0.0
 11
163.1880608226134
 21
65.27947600828901
 31
0.0
  0
LINE
  5
5A3
330
1A
100
AcDbEntity
  8
SEIHIN
 48
10.0
100
AcDbLine
 10
158.916788469934
 20
52.27947600823288
 30
0.0
 11
158.9167884698726
 21
55.77947600823286
 31
0.0
  0
LINE
  5
5A4
330
1A
100
AcDbEntity
  8
SEIHIN
 48
10.0
100
AcDbLine
 10
158.9167884698486
 20
65.27947600828901
 30
0.0
 11
158.9167884698331
 21
61.77947600828901
 31
0.0
  0
ARC
  5
5A5
330
1A
100
AcDbEntity
  8
SEIHIN
 48
10.0
100
AcDbCircle
 10
154.9624926938929
 20
58.84121805300079
 30
0.0
 40
5.001071828325394
100
AcDbArc
 50
322.2500079298525
 51
35.98161642201853
  0
LINE
  5
5A6
330
1A
100
AcDbEntity
  8
SEIHIN
 48
10.0
100
AcDbLine
 10
164.2466394508022
 20
63.22089738015478
 30
0.0
 11
166.3794821678388
 21
61.08805466310271
 31
0.0
  0
LINE
  5
5A7
330
1A
100
AcDbEntity
  8
SEIHIN
 48
10.0
100
AcDbLine
 10
164.188060822668
 20
54.69904732230947
 30
0.0
 11
164.188060822613
 21
63.07708618977489
 31
0.0
  0
LINE
  5
5A8
330
1A
100
AcDbEntity
  8
SEIHIN
 48
10.0
100
AcDbLine
 10
166.438060822668
 20
61.02947600828901
 30
0.0
 11
166.438060822613
 21
56.52947600828901
 31
0.0
  0
LINE
  5
5A9
330
1A
100
AcDbEntity
  8
SEIHIN
 48
10.0
100
AcDbLine
 10
164.2466394520992
 20
54.33805463772017
 30
0.0
 11
166.3794821626002
 21
56.47089734820292
 31
0.0
  0
ARC
  5
5AA
330
1A
100
AcDbEntity
  8
SEIHIN
 48
10.0
100
AcDbCircle
 10
164.1052181101935
 20
54.47947600828905
 30
0.0
 40
0.2
100
AcDbArc
 50
270.0000019090574
 51
314.9999941990092
  0
ARC
  5
5AB
330
1A
100
AcDbEntity
  8
SEIHIN
 48
10.0
100
AcDbCircle
 10
163.388060822668
 20
54.47947600828905
 30
0.0
 40
0.2
100
AcDbArc
 50
180.0000048672725
 51
270.0000023388363
  0
LINE
  5
5AC
330
1A
100
AcDbEntity
  8
SEIHIN
 48
10.0
100
AcDbLine
 10
164.1052181168573
 20
54.279476008289
 30
0.0
 11
163.3880608308321
 21
54.279476008289
 31
0.0
  0
ARC
  5
5AD
330
1A
100
AcDbEntity
  8
SEIHIN
 48
10.0
100
AcDbCircle
 10
166.5209035351426
 20
56.32947600828902
 30
0.0
 40
0.2
100
AcDbArc
 50
89.99999319828253
 51
135.0000066132942
  0
ARC
  5
5AE
330
1A
100
AcDbEntity
  8
SEIHIN
 48
10.0
100
AcDbCircle
 10
166.5209035351426
 20
61.229476008289
 30
0.0
 40
0.2
100
AcDbArc
 50
224.9999955227671
 51
270.0000009653741
  0
ARC
  5
5AF
330
1A
100
AcDbEntity
  8
SEIHIN
 48
10.0
100
AcDbCircle
 10
164.1052181101935
 20
63.07947600828902
 30
0.0
 40
0.2
100
AcDbArc
 50
45.00000632310916
 51
89.99999730017012
  0
ARC
  5
5B0
330
1A
100
AcDbEntity
  8
SEIHIN
 48
10.0
100
AcDbCircle
 10
163.388060822668
 20
63.07947600828902
 30
0.0
 40
0.2
100
AcDbArc
 50
89.99999766116358
 51
180.0000048672725
  0
LINE
  5
5B1
330
1A
100
AcDbEntity
  8
SEIHIN
 48
10.0
100
AcDbLine
 10
164.1052181196176
 20
63.27947600828901
 30
0.0
 11
163.3880608308321
 21
63.27947600828901
 31
0.0
  0
LINE
  5
5EE
330
1A
100
AcDbEntity
  8
SEIHIN
 48
10.0
100
AcDbLine
 10
203.6880608226368
 20
136.1914380919897
 30
0.0
 11
202.6880608226368
 21
136.1914380919897
 31
0.0
  0
LINE
  5
5EF
330
1A
100
AcDbEntity
  8
SEIHIN
 48
10.0
100
AcDbLine
 10
203.6880608225891
 20
132.2914380919897
 30
0.0
 11
202.6880608225891
 21
132.2914380919897
 31
0.0
  0
LINE
  5
5F0
330
1A
100
AcDbEntity
  8
CENTER_L
 48
10.0
100
AcDbLine
 10
250.3403576759726
 20
134.2414380919897
 30
0.0
 11
108.2880608226679
 21
134.2414380919897
 31
0.0
  0
ARC
  5
5F1
330
1A
100
AcDbEntity
  8
SEIHIN
 48
10.0
100
AcDbCircle
 10
138.488060822668
 20
134.2414380919897
 30
0.0
 40
22.2
100
AcDbArc
 50
24.83508156862799
 51
85.11104683230708
  0
ARC
  5
5F2
330
1A
100
AcDbEntity
  8
SEIHIN
 48
10.0
100
AcDbCircle
 10
138.488060822668
 20
134.2414380919897
 30
0.0
 40
21.2
100
AcDbArc
 50
24.83508156862809
 51
90.00000000002279
  0
ARC
  5
5F3
330
1A
100
AcDbEntity
  8
SEIHIN
 48
10.0
100
AcDbCircle
 10
138.488060822668
 20
134.2414380919897
 30
0.0
 40
22.2
100
AcDbArc
 50
273.5833216984719
 51
335.1649184312727
  0
ARC
  5
5F4
330
1A
100
AcDbEntity
  8
SEIHIN
 48
10.0
100
AcDbCircle
 10
138.488060822668
 20
134.2414380919897
 30
0.0
 40
21.2
100
AcDbArc
 50
273.5833216984719
 51
335.164918431259
  0
DIMENSION
  5
5F5
330
1A
100
AcDbEntity
  8
SUNPOU
 48
10.0
100
AcDbDimension
  2
*D9
 10
123.2837936850893
 20
119.4674656807135
 30
0.0
 11
142.939425831859
 21
141.82095395445
 31
0.0
 70
   163
  3
STANDARD
100
AcDbDiametricDimension
 15
153.6923279602465
 25
149.0154105032658
 35
0.0
 40
0.0
1001
ACAD
1000
DSTYLE
1002
{
1070
   287
1070
     5
1070
   287
1070
     5
1070
    41
1040
2.5
1070
    42
1040
2.5
1070
    43
1040
4.879999999999999
1070
    44
1040
1.05
1070
    73
1070
     0
1070
    74
1070
     0
1070
    77
1070
     3
1070
   140
1040
2.5
1070
   141
1040
150.0
1070
   147
1040
1.0
1070
   172
1070
     1
1070
   173
1070
     1
1070
   176
1070
   256
1070
   177
1070
   256
1070
   178
1070
   256
1070
   271
1070
     0
1070
   272
1070
     0
1070
   279
1070
     2
1070
   341
1005
66
1070
     6
1000
OPEN
1070
     7
1000
OPEN
1070
   371
1070
    -1
1070
   372
1070
    -1
1002
}
  0
ARC
  5
5F6
330
1A
100
AcDbEntity
  8
SEIHIN
 48
10.0
100
AcDbCircle
 10
138.488060822668
 20
134.2414380919897
 30
0.0
 40
23.19999999999999
100
AcDbArc
 50
21.92960551015968
 51
56.44269023818985
  0
ARC
  5
5F7
330
1A
100
AcDbEntity
  8
SEIHIN
 48
10.0
100
AcDbCircle
 10
138.488060822668
 20
134.2414380919897
 30
0.0
 40
23.19999999999999
100
AcDbArc
 50
303.5573097619196
 51
338.070394489782
  0
ARC
  5
5F8
330
1A
100
AcDbEntity
  8
SEIHIN
 48
10.0
100
AcDbCircle
 10
138.488060822668
 20
134.2414380919897
 30
0.0
 40
22.2
100
AcDbArc
 50
95.99613630657662
 51
246.3667308169688
  0
ARC
  5
5F9
330
1A
100
AcDbEntity
  8
SEIHIN
 48
10.0
100
AcDbCircle
 10
138.488060822668
 20
134.2414380919897
 30
0.0
 40
21.2
100
AcDbArc
 50
90.0
 51
246.3667308170754
  0
ARC
  5
5FA
330
1A
100
AcDbEntity
  8
SEIHIN
 48
10.0
100
AcDbCircle
 10
138.488060822668
 20
134.2414380919897
 30
0.0
 40
23.19999999999999
100
AcDbArc
 50
123.5573097619196
 51
229.2509456224899
  0
ARC
  5
5FB
330
1A
100
AcDbEntity
  8
SEIHIN
 48
10.0
100
AcDbCircle
 10
129.8717971312527
 20
124.2414380919897
 30
0.0
 40
10.0
100
AcDbArc
 50
229.2509456225286
 51
263.3540146480414
  0
DIMENSION
  5
5FC
330
1A
100
AcDbEntity
  8
SUNPOU
 48
10.0
100
AcDbDimension
  2
*D8
 10
122.5666112729395
 20
118.7705801896155
 30
0.0
 11
117.9646907949776
 21
114.2988982884034
 31
0.0
 70
   161
  3
STANDARD
100
AcDbAlignedDimension
 13
123.2837936850894
 23
119.4674656807135
 33
0.0
 14
122.5666112729395
 24
118.7705801896155
 34
0.0
1001
ACAD
1000
DSTYLE
1002
{
1070
    41
1040
2.5
1070
    42
1040
2.5
1070
    43
1040
4.879999999999999
1070
    44
1040
1.05
1070
    73
1070
     0
1070
    74
1070
     0
1070
    77
1070
     3
1070
   140
1040
2.5
1070
   141
1040
150.0
1070
   147
1040
1.0
1070
   172
1070
     1
1070
   173
1070
     1
1070
   176
1070
   256
1070
   177
1070
   256
1070
   178
1070
   256
1070
   271
1070
     0
1070
   272
1070
     0
1070
   341
1005
66
1070
     6
1000
OPEN
1070
     7
1000
OPEN
1070
   371
1070
    -1
1070
   372
1070
    -1
1002
}
  0
ARC
  5
5FD
330
1A
100
AcDbEntity
  8
SEIHIN
 48
10.0
100
AcDbCircle
 10
138.1740483821047
 20
142.0554074164255
 30
0.0
 40
30.4
100
AcDbArc
 50
256.8820690766697
 51
278.025091519569
  0
ARC
  5
5FE
330
1A
100
AcDbEntity
  8
SEIHIN
 48
10.0
100
AcDbCircle
 10
138.1740483821047
 20
142.0554074164255
 30
0.0
 40
31.4
100
AcDbArc
 50
256.8820690766697
 51
277.9590469955979
  0
ARC
  5
5FF
330
1A
100
AcDbEntity
  8
SEIHIN
 48
10.0
100
AcDbCircle
 10
131.388060822668
 20
112.9356482683287
 30
0.0
 40
1.5
100
AcDbArc
 50
180.0
 51
256.8820690746231
  0
LINE
  5
600
330
1A
100
AcDbEntity
  8
SEIHIN
 48
10.0
100
AcDbLine
 10
133.3138951168575
 20
111.033819606671
 30
0.0
 11
139.390251907586
 21
108.6649149998473
 31
0.0
  0
LINE
  5
601
330
1A
100
AcDbEntity
  8
SEIHIN
 48
10.0
100
AcDbLine
 10
136.9245293868738
 20
110.680278695087
 30
0.0
 11
139.6259760652396
 21
109.627103297094
 31
0.0
  0
LINE
  5
602
330
1A
100
AcDbEntity
  8
SEIHIN
 48
10.0
100
AcDbLine
 10
139.6880608226257
 20
110.6919291920648
 30
0.0
 11
139.6880608226134
 21
110.3414380919898
 31
0.0
  0
ARC
  5
603
330
1A
100
AcDbEntity
  8
SEIHIN
 48
10.0
100
AcDbCircle
 10
139.4628976840154
 20
108.8512549879898
 30
0.0
 40
0.2
100
AcDbArc
 50
248.701374341998
 51
358.7376178356509
  0
LINE
  5
604
330
1A
100
AcDbEntity
  8
SEIHIN
 48
10.0
100
AcDbLine
 10
139.7035244042133
 20
110.6926794882335
 30
0.0
 11
139.6628491418162
 21
108.8468487994635
 31
0.0
  0
LINE
  5
605
330
1A
100
AcDbEntity
  8
SEIHIN
 48
10.0
100
AcDbLine
 10
138.6880608226246
 20
110.6596148446335
 30
0.0
 11
138.6880608226134
 21
110.3414380919898
 31
0.0
  0
LINE
  5
606
330
1A
100
AcDbEntity
  8
SEIHIN
 48
10.0
100
AcDbLine
 10
138.6880608226679
 20
110.3414380919898
 30
0.0
 11
139.6880608226134
 21
110.3414380919898
 31
0.0
  0
ARC
  5
607
330
1A
100
AcDbEntity
  8
SEIHIN
 48
10.0
100
AcDbCircle
 10
131.388060822668
 20
112.9356482683287
 30
0.0
 40
0.5
100
AcDbArc
 50
180.0
 51
256.8820690714161
  0
LINE
  5
608
330
1A
100
AcDbEntity
  8
SEIHIN
 48
10.0
100
AcDbLine
 10
130.888060822668
 20
113.4452846015002
 30
0.0
 11
130.8880608226248
 21
112.9356482683287
 31
0.0
  0
LINE
  5
609
330
1A
100
AcDbEntity
  8
SEIHIN
 48
10.0
100
AcDbLine
 10
129.888060822668
 20
113.4452846015002
 30
0.0
 11
129.8880608226248
 21
112.9356482683287
 31
0.0
  0
ARC
  5
60A
330
1A
100
AcDbEntity
  8
SEIHIN
 48
10.0
100
AcDbCircle
 10
129.388060822668
 20
113.4452846015002
 30
0.0
 40
1.5
100
AcDbArc
 50
0.0
 51
66.36673081708917
  0
ARC
  5
60B
330
1A
100
AcDbEntity
  8
SEIHIN
 48
10.0
100
AcDbCircle
 10
129.388060822668
 20
113.4452846015002
 30
0.0
 40
0.5
100
AcDbArc
 50
0.0
 51
66.36673081708917
  0
ARC
  5
60C
330
1A
100
AcDbEntity
  8
SEIHIN
 48
10.0
100
AcDbCircle
 10
139.8880608226679
 20
111.8852309002499
 30
0.0
 40
0.2
100
AcDbArc
 50
93.58332169846873
 51
180.0
  0
LINE
  5
60D
330
1A
100
AcDbEntity
  8
SEIHIN
 48
10.0
100
AcDbLine
 10
139.8755608226679
 20
112.0848398930333
 30
0.0
 11
139.8755608226134
 21
113.0868914471193
 31
0.0
  0
LINE
  5
60E
330
1A
100
AcDbEntity
  8
SEIHIN
 48
10.0
100
AcDbLine
 10
139.6880608226679
 20
111.8852309002499
 30
0.0
 11
139.6880608226612
 21
111.6931320351264
 31
0.0
  0
LINE
  5
60F
330
1A
100
AcDbEntity
  8
SEIHIN
 48
10.0
100
AcDbLine
 10
138.6880608226679
 20
111.8852309002499
 30
0.0
 11
138.68806082266
 21
111.6597532663508
 31
0.0
  0
ARC
  5
610
330
1A
100
AcDbEntity
  8
SEIHIN
 48
10.0
100
AcDbCircle
 10
139.8880608226679
 20
111.8852309002499
 30
0.0
 40
1.199999999999999
100
AcDbArc
 50
93.58332169846873
 51
180.0
  0
LINE
  5
611
330
1A
100
AcDbEntity
  8
SEIHIN
 48
10.0
100
AcDbLine
 10
143.4064553471992
 20
111.6848482841179
 30
0.0
 11
146.2985611280387
 21
109.6487549369441
 31
0.0
  0
LINE
  5
612
330
1A
100
AcDbEntity
  8
SEIHIN
 48
10.0
100
AcDbLine
 10
146.2985611281393
 20
109.6487549369342
 30
0.0
 11
145.7228960771539
 21
108.8310693315466
 31
0.0
  0
ARC
  5
613
330
1A
100
AcDbEntity
  8
SEIHIN
 48
10.0
100
AcDbCircle
 10
142.5429577710163
 20
110.4583198759975
 30
0.0
 40
0.5
100
AcDbArc
 50
54.85378059353141
 51
94.77497994350462
  0
LINE
  5
614
330
1A
100
AcDbEntity
  8
SEIHIN
 48
10.0
100
AcDbLine
 10
142.8307902964106
 20
110.8671626787043
 30
0.0
 11
145.7228960771539
 21
108.8310693315466
 31
0.0
  0
ARC
  5
615
330
1A
100
AcDbEntity
  8
SEIHIN
 48
10.0
100
AcDbCircle
 10
145.7846353614498
 20
123.2414380919897
 30
0.0
 40
10.0
100
AcDbArc
 50
269.4542407363264
 51
303.5573097616655
  0
ARC
  5
616
330
1A
100
AcDbEntity
  8
SEIHIN
 48
10.0
100
AcDbCircle
 10
142.5429577710163
 20
110.4583198759975
 30
0.0
 40
1.5
100
AcDbArc
 50
54.85378057997658
 51
94.77497994350791
  0
ARC
  5
617
330
1A
100
AcDbEntity
  8
SEIHIN
 48
10.0
100
AcDbCircle
 10
131.1914862838861
 20
145.2414380919897
 30
0.0
 40
10.0
100
AcDbArc
 50
89.45424073655775
 51
123.5573097619196
  0
LINE
  5
618
330
1A
100
AcDbEntity
  8
CENTER_L
 48
10.0
100
AcDbLine
 10
146.1965971337784
 20
158.9414380919896
 30
0.0
 11
130.7795245115199
 21
158.9414380919896
 31
0.0
  0
ARC
  5
619
330
1A
100
AcDbEntity
  8
SEIHIN
 48
10.0
100
AcDbCircle
 10
138.488060822668
 20
158.9414380919897
 30
0.0
 40
3.5
100
AcDbArc
 50
0.0000000000260551
 51
269.9999999998664
  0
CIRCLE
  5
61A
330
1A
100
AcDbEntity
  8
SEIHIN
 48
10.0
100
AcDbCircle
 10
138.488060822668
 20
158.9414380919897
 30
0.0
 40
3.2
  0
LINE
  5
61B
330
1A
100
AcDbEntity
  8
SEIHIN
 48
10.0
100
AcDbLine
 10
135.9880608226677
 20
156.3002231899954
 30
0.0
 11
136.1006734352633
 21
155.3065842216168
 31
0.0
  0
ARC
  5
61C
330
1A
100
AcDbEntity
  8
SEIHIN
 48
10.0
100
AcDbCircle
 10
145.7846353614498
 20
145.2414380919897
 30
0.0
 40
10.0
100
AcDbArc
 50
56.44269023833444
 51
90.54575926367022
  0
LINE
  5
61D
330
1A
100
AcDbEntity
  8
SEIHIN
 48
10.0
100
AcDbLine
 10
141.9880608226679
 20
156.3002231899959
 30
0.0
 11
141.98806082266
 21
158.9414380919913
 31
0.0
  0
LINE
  5
61E
330
1A
100
AcDbEntity
  8
SEIHIN
 48
10.0
100
AcDbLine
 10
140.9880608226679
 20
156.3002231899954
 30
0.0
 11
140.9880608226599
 21
156.9439396564455
 31
0.0
  0
LINE
  5
61F
330
1A
100
AcDbEntity
  8
SEIHIN
 48
10.0
100
AcDbLine
 10
140.9880608226679
 20
156.3002231899954
 30
0.0
 11
141.9880608226598
 21
156.3002231899959
 31
0.0
  0
LINE
  5
620
330
1A
100
AcDbEntity
  8
SEIHIN
 48
10.0
100
AcDbLine
 10
140.988060822668
 20
156.3002231899954
 30
0.0
 11
140.8754482099976
 21
155.3065842216168
 31
0.0
  0
LINE
  5
621
330
1A
100
AcDbEntity
  8
SEIHIN
 48
10.0
100
AcDbLine
 10
202.6880608226405
 20
136.4914380919958
 30
0.0
 11
202.6880608225854
 21
131.9914380919958
 31
0.0
  0
LINE
  5
622
330
1A
100
AcDbEntity
  8
SEIHIN
 48
10.0
100
AcDbLine
 10
166.438060822668
 20
136.4914380919897
 30
0.0
 11
166.438060822613
 21
131.9914380919897
 31
0.0
  0
LINE
  5
623
330
1A
100
AcDbEntity
  8
SEIHIN
 48
10.0
100
AcDbLine
 10
164.188060822668
 20
130.16100940601
 30
0.0
 11
164.188060822613
 21
138.5390482734756
 31
0.0
  0
LINE
  5
624
330
1A
100
AcDbEntity
  8
SEIHIN
 48
10.0
100
AcDbLine
 10
162.188060822664
 20
127.7894254639049
 30
0.0
 11
162.1880608226133
 21
140.693450720064
 31
0.0
  0
LINE
  5
625
330
1A
100
AcDbEntity
  8
SEIHIN
 48
10.0
100
AcDbLine
 10
163.188060822664
 20
127.7894254639029
 30
0.0
 11
163.1880608226133
 21
140.6934507200622
 31
0.0
  0
DIMENSION
  5
626
330
1A
100
AcDbEntity
  8
SUNPOU
 48
10.0
100
AcDbDimension
  2
*D10
 10
192.8957377557263
 20
131.9914380919896
 30
0.0
 11
190.6457377557263
 21
122.2414380919897
 31
0.0
 70
    32
  1
φ<>
  3
STANDARD
100
AcDbAlignedDimension
 13
190.8544821805902
 23
136.4914380919897
 33
0.0
 14
190.8544821907765
 24
131.9914380919897
 34
0.0
 50
90.0
100
AcDbRotatedDimension
1001
ACAD
1000
DSTYLE
1002
{
1070
    41
1040
2.5
1070
    42
1040
2.5
1070
    43
1040
4.879999999999999
1070
    44
1040
1.05
1070
    73
1070
     0
1070
    74
1070
     0
1070
    77
1070
     3
1070
   140
1040
2.5
1070
   141
1040
150.0
1070
   147
1040
1.0
1070
   172
1070
     1
1070
   173
1070
     1
1070
   176
1070
   256
1070
   177
1070
   256
1070
   178
1070
   256
1070
   271
1070
     1
1070
   272
1070
     0
1070
   341
1005
66
1070
     6
1000
OPEN
1070
     7
1000
OPEN
1070
   371
1070
    -1
1070
   372
1070
    -1
1002
}
  0
LINE
  5
627
330
1A
100
AcDbEntity
  8
SEIHIN
 48
10.0
100
AcDbLine
 10
160.4880608226689
 20
131.4914380919897
 30
0.0
 11
160.4880608226588
 21
136.9914380919897
 31
0.0
  0
LINE
  5
628
330
1A
100
AcDbEntity
  8
SEIHIN
 48
10.0
100
AcDbLine
 10
202.6880608225853
 20
131.9914380919897
 30
0.0
 11
166.5209035588851
 21
131.9914380919897
 31
0.0
  0
ARC
  5
629
330
1A
100
AcDbEntity
  8
SEIHIN
 48
10.0
100
AcDbCircle
 10
161.688060822664
 20
127.7894254639058
 30
0.0
 40
1.5
100
AcDbArc
 50
290.1192149021928
 51
359.9999999998958
  0
LINE
  5
62A
330
1A
100
AcDbEntity
  8
SEIHIN
 48
10.0
100
AcDbLine
 10
162.2040227422073
 20
126.3809570412631
 30
0.0
 11
158.9167884698331
 21
125.1767499196208
 31
0.0
  0
LINE
  5
62B
330
1A
100
AcDbEntity
  8
SEIHIN
 48
10.0
100
AcDbLine
 10
161.8600481291784
 20
127.3199359896916
 30
0.0
 11
158.5728138567143
 21
126.1157288680493
 31
0.0
  0
ARC
  5
62C
330
1A
100
AcDbEntity
  8
SEIHIN
 48
10.0
100
AcDbCircle
 10
159.088775776363
 20
124.7072604454066
 30
0.0
 40
0.5
100
AcDbArc
 50
110.1192149033512
 51
155.1649184357479
  0
ARC
  5
62D
330
1A
100
AcDbEntity
  8
SEIHIN
 48
10.0
100
AcDbCircle
 10
159.088775776363
 20
124.7072604454066
 30
0.0
 40
1.5
100
AcDbArc
 50
110.1192149033512
 51
155.1649184329542
  0
ARC
  5
62E
330
1A
100
AcDbEntity
  8
SEIHIN
 48
10.0
100
AcDbCircle
 10
161.688060822664
 20
127.7894254639058
 30
0.0
 40
0.5
100
AcDbArc
 50
290.1192149027163
 51
359.9999999998958
  0
LINE
  5
630
330
1A
100
AcDbEntity
  8
SEIHIN
 48
10.0
100
AcDbLine
 10
162.1880608226709
 20
131.4914380919897
 30
0.0
 11
160.4880608226689
 21
131.4914380919897
 31
0.0
  0
LINE
  5
631
330
1A
100
AcDbEntity
  8
SEIHIN
 48
10.0
100
AcDbLine
 10
164.2466394520992
 20
129.8000167214209
 30
0.0
 11
166.3794821626002
 21
131.9328594319036
 31
0.0
  0
ARC
  5
632
330
1A
100
AcDbEntity
  8
SEIHIN
 48
10.0
100
AcDbCircle
 10
164.1052181101935
 20
129.9414380919897
 30
0.0
 40
0.2
100
AcDbArc
 50
270.0000019090574
 51
314.9999941990196
  0
ARC
  5
633
330
1A
100
AcDbEntity
  8
SEIHIN
 48
10.0
100
AcDbCircle
 10
163.388060822668
 20
129.9414380919897
 30
0.0
 40
0.2
100
AcDbArc
 50
180.0000048672563
 51
270.0000023388363
  0
LINE
  5
634
330
1A
100
AcDbEntity
  8
SEIHIN
 48
10.0
100
AcDbLine
 10
164.1052181168573
 20
129.7414380919897
 30
0.0
 11
163.3880608308321
 21
129.7414380919897
 31
0.0
  0
ARC
  5
635
330
1A
100
AcDbEntity
  8
SEIHIN
 48
10.0
100
AcDbCircle
 10
166.5209035351426
 20
131.7914380919897
 30
0.0
 40
0.2
100
AcDbArc
 50
89.99999319828253
 51
135.0000066132815
  0
LINE
  5
636
330
1A
100
AcDbEntity
  8
SEIHIN
 48
10.0
100
AcDbLine
 10
202.6880608226405
 20
136.4914380919897
 30
0.0
 11
166.5209035385124
 21
136.4914380919897
 31
0.0
  0
ARC
  5
637
330
1A
100
AcDbEntity
  8
SEIHIN
 48
10.0
100
AcDbCircle
 10
161.6880608226879
 20
140.6934507200649
 30
0.0
 40
1.5
100
AcDbArc
 50
359.9999999998958
 51
69.88078509664884
  0
LINE
  5
638
330
1A
100
AcDbEntity
  8
SEIHIN
 48
10.0
100
AcDbLine
 10
162.1880608226811
 20
136.9914380919897
 30
0.0
 11
160.4880608226588
 21
136.9914380919897
 31
0.0
  0
LINE
  5
63A
330
1A
100
AcDbEntity
  8
SEIHIN
 48
10.0
100
AcDbLine
 10
161.8600481292023
 20
141.1629401942791
 30
0.0
 11
158.5728138567139
 21
142.3671473159301
 31
0.0
  0
LINE
  5
63B
330
1A
100
AcDbEntity
  8
SEIHIN
 48
10.0
100
AcDbLine
 10
162.2040227422311
 20
142.1019191427075
 30
0.0
 11
158.9167884698332
 21
143.3061262643585
 31
0.0
  0
ARC
  5
63C
330
1A
100
AcDbEntity
  8
SEIHIN
 48
10.0
100
AcDbCircle
 10
159.088775776363
 20
143.7756157385726
 30
0.0
 40
0.5
100
AcDbArc
 50
204.8350815686311
 51
249.8807850949839
  0
ARC
  5
63D
330
1A
100
AcDbEntity
  8
SEIHIN
 48
10.0
100
AcDbCircle
 10
159.088775776363
 20
143.7756157385726
 30
0.0
 40
1.5
100
AcDbArc
 50
204.8350815686311
 51
249.8807850928473
  0
ARC
  5
63E
330
1A
100
AcDbEntity
  8
SEIHIN
 48
10.0
100
AcDbCircle
 10
161.6880608226879
 20
140.6934507200649
 30
0.0
 40
0.5
100
AcDbArc
 50
359.9999999998958
 51
69.88078509664884
  0
LINE
  5
63F
330
1A
100
AcDbEntity
  8
SEIHIN
 48
10.0
100
AcDbLine
 10
164.2466394508022
 20
138.6828594638555
 30
0.0
 11
166.3794821678388
 21
136.5500167468034
 31
0.0
  0
ARC
  5
640
330
1A
100
AcDbEntity
  8
SEIHIN
 48
10.0
100
AcDbCircle
 10
164.1052181101935
 20
138.5414380919897
 30
0.0
 40
0.2
100
AcDbArc
 50
45.00000632311953
 51
89.99999730017012
  0
ARC
  5
641
330
1A
100
AcDbEntity
  8
SEIHIN
 48
10.0
100
AcDbCircle
 10
163.388060822668
 20
138.5414380919897
 30
0.0
 40
0.2
100
AcDbArc
 50
89.99999766116358
 51
180.0000048672563
  0
LINE
  5
642
330
1A
100
AcDbEntity
  8
SEIHIN
 48
10.0
100
AcDbLine
 10
164.1052181196176
 20
138.7414380919897
 30
0.0
 11
163.3880608308321
 21
138.7414380919897
 31
0.0
  0
ARC
  5
643
330
1A
100
AcDbEntity
  8
SEIHIN
 48
10.0
100
AcDbCircle
 10
166.5209035351426
 20
136.6914380919897
 30
0.0
 40
0.2
100
AcDbArc
 50
224.9999955227671
 51
270.0000009653741
  0
ARC
  5
644
330
1A
100
AcDbEntity
  8
SEIHIN
 48
10.0
100
AcDbCircle
 10
236.8016290642036
 20
135.3664380919897
 30
0.0
 40
1.281440980727792
100
AcDbArc
 50
118.6077857102318
 51
241.3922142919274
  0
LINE
  5
645
330
1A
100
AcDbEntity
  8
SEIHIN
 48
10.0
100
AcDbLine
 10
234.988060822613
 20
136.4914380919897
 30
0.0
 11
234.9880608226046
 21
131.9914380919897
 31
0.0
  0
LINE
  5
646
330
1A
100
AcDbEntity
  8
SEIHIN
 48
10.0
100
AcDbLine
 10
234.988060822613
 20
136.4914380919897
 30
0.0
 11
234.9880608226046
 21
131.9914380919897
 31
0.0
  0
LINE
  5
647
330
1A
100
AcDbEntity
  8
SEIHIN
 48
10.0
100
AcDbLine
 10
230.788060822613
 20
136.5914380919897
 30
0.0
 11
230.7880608226514
 21
131.8914380919897
 31
0.0
  0
LINE
  5
648
330
1A
100
AcDbEntity
  8
SEIHIN
 48
10.0
100
AcDbLine
 10
232.188060822613
 20
136.5914380919897
 30
0.0
 11
232.1880608225579
 21
131.8914380919897
 31
0.0
  0
LINE
  5
649
330
1A
100
AcDbEntity
  8
SEIHIN
 48
10.0
100
AcDbLine
 10
233.588060822613
 20
136.5914380919897
 30
0.0
 11
233.5880608225816
 21
131.8914380919897
 31
0.0
  0
LINE
  5
64A
330
1A
100
AcDbEntity
  8
SEIHIN
 48
10.0
100
AcDbLine
 10
229.388060822613
 20
136.5914380919897
 30
0.0
 11
229.3880608226277
 21
131.8914380919897
 31
0.0
  0
LINE
  5
64B
330
1A
100
AcDbEntity
  8
SEIHIN
 48
10.0
100
AcDbLine
 10
236.1880608226129
 20
136.4914380919897
 30
0.0
 11
243.1880608226129
 21
134.2414380919897
 31
0.0
  0
LINE
  5
64C
330
1A
100
AcDbEntity
  8
SEIHIN
 48
10.0
100
AcDbLine
 10
223.7880608226129
 20
136.5914380919897
 30
0.0
 11
223.7880608226514
 21
131.8914380919897
 31
0.0
  0
LINE
  5
64D
330
1A
100
AcDbEntity
  8
SEIHIN
 48
10.0
100
AcDbLine
 10
225.1880608226129
 20
136.5914380919897
 30
0.0
 11
225.188060822558
 21
131.8914380919897
 31
0.0
  0
LINE
  5
64E
330
1A
100
AcDbEntity
  8
SEIHIN
 48
10.0
100
AcDbLine
 10
226.588060822613
 20
136.5914380919897
 30
0.0
 11
226.5880608225816
 21
131.8914380919897
 31
0.0
  0
LINE
  5
64F
330
1A
100
AcDbEntity
  8
SEIHIN
 48
10.0
100
AcDbLine
 10
227.988060822613
 20
136.5914380919897
 30
0.0
 11
227.9880608226046
 21
131.8914380919897
 31
0.0
  0
LINE
  5
650
330
1A
100
AcDbEntity
  8
SEIHIN
 48
10.0
100
AcDbLine
 10
219.588060822613
 20
136.5914380919897
 30
0.0
 11
219.5880608225816
 21
131.8914380919897
 31
0.0
  0
LINE
  5
651
330
1A
100
AcDbEntity
  8
SEIHIN
 48
10.0
100
AcDbLine
 10
220.988060822613
 20
136.5914380919897
 30
0.0
 11
220.9880608226046
 21
131.8914380919897
 31
0.0
  0
LINE
  5
652
330
1A
100
AcDbEntity
  8
SEIHIN
 48
10.0
100
AcDbLine
 10
222.388060822613
 20
136.5914380919897
 30
0.0
 11
222.3880608226278
 21
131.8914380919897
 31
0.0
  0
LINE
  5
653
330
1A
100
AcDbEntity
  8
SEIHIN
 48
10.0
100
AcDbLine
 10
218.1880608226129
 20
136.5914380919897
 30
0.0
 11
218.188060822558
 21
131.8914380919897
 31
0.0
  0
LINE
  5
654
330
1A
100
AcDbEntity
  8
SEIHIN
 48
10.0
100
AcDbLine
 10
212.6880608226956
 20
136.4914380908942
 30
0.0
 11
212.6880608226405
 21
131.9914380908942
 31
0.0
  0
LINE
  5
655
330
1A
100
AcDbEntity
  8
SEIHIN
 48
10.0
100
AcDbLine
 10
213.6880608226956
 20
136.4914380908819
 30
0.0
 11
213.6880608226405
 21
131.9914380908819
 31
0.0
  0
LINE
  5
656
330
1A
100
AcDbEntity
  8
SEIHIN
 48
10.0
100
AcDbLine
 10
208.688060822668
 20
136.4914380914328
 30
0.0
 11
208.688060822613
 21
131.9914380914328
 31
0.0
  0
LINE
  5
657
330
1A
100
AcDbEntity
  8
SEIHIN
 48
10.0
100
AcDbLine
 10
207.688060822668
 20
136.491438091445
 30
0.0
 11
207.6880608226129
 21
131.991438091445
 31
0.0
  0
LINE
  5
658
330
1A
100
AcDbEntity
  8
SEIHIN
 48
10.0
100
AcDbLine
 10
203.6880608226405
 20
136.4914380919836
 30
0.0
 11
203.6880608225854
 21
131.9914380919836
 31
0.0
  0
LINE
  5
659
330
1A
100
AcDbEntity
  8
SEIHIN
 48
10.0
100
AcDbLine
 10
223.7880608226129
 20
131.8914380919897
 30
0.0
 11
225.188060822558
 21
132.0914380919897
 31
0.0
  0
LINE
  5
65A
330
1A
100
AcDbEntity
  8
SEIHIN
 48
10.0
100
AcDbLine
 10
218.1880608226129
 20
131.9914380919897
 30
0.0
 11
213.6880608226405
 21
131.9914380919897
 31
0.0
  0
LINE
  5
65B
330
1A
100
AcDbEntity
  8
SEIHIN
 48
10.0
100
AcDbLine
 10
212.6880608226405
 20
131.9914380919897
 30
0.0
 11
208.688060822613
 21
131.9914380919897
 31
0.0
  0
LINE
  5
65C
330
1A
100
AcDbEntity
  8
SEIHIN
 48
10.0
100
AcDbLine
 10
207.6880608226129
 20
131.9914380919897
 30
0.0
 11
203.6880608225853
 21
131.9914380919897
 31
0.0
  0
LINE
  5
65D
330
1A
100
AcDbEntity
  8
SEIHIN
 48
10.0
100
AcDbLine
 10
208.6880608226166
 20
132.2914380914389
 30
0.0
 11
207.6880608226166
 21
132.2914380914389
 31
0.0
  0
LINE
  5
65E
330
1A
100
AcDbEntity
  8
SEIHIN
 48
10.0
100
AcDbLine
 10
213.6880608226441
 20
132.2914380908881
 30
0.0
 11
212.6880608226441
 21
132.2914380908881
 31
0.0
  0
LINE
  5
65F
330
1A
100
AcDbEntity
  8
SEIHIN
 48
10.0
100
AcDbLine
 10
218.1880608226129
 20
131.8914380919897
 30
0.0
 11
219.5880608225816
 21
132.0914380919897
 31
0.0
  0
LINE
  5
660
330
1A
100
AcDbEntity
  8
SEIHIN
 48
10.0
100
AcDbLine
 10
220.988060822613
 20
131.8914380919897
 30
0.0
 11
222.3880608226278
 21
132.0914380919897
 31
0.0
  0
LINE
  5
661
330
1A
100
AcDbEntity
  8
SEIHIN
 48
10.0
100
AcDbLine
 10
219.588060822613
 20
131.8914380919897
 30
0.0
 11
220.9880608226046
 21
132.0914380919897
 31
0.0
  0
LINE
  5
662
330
1A
100
AcDbEntity
  8
SEIHIN
 48
10.0
100
AcDbLine
 10
222.388060822613
 20
131.8914380919897
 30
0.0
 11
223.7880608226514
 21
132.0914380919897
 31
0.0
  0
LINE
  5
663
330
1A
100
AcDbEntity
  8
SEIHIN
 48
10.0
100
AcDbLine
 10
236.1880608226129
 20
131.9914380919897
 30
0.0
 11
234.9880608226046
 21
131.9914380919897
 31
0.0
  0
ARC
  5
664
330
1A
100
AcDbEntity
  8
SEIHIN
 48
10.0
100
AcDbCircle
 10
236.8016290642036
 20
133.1164380919897
 30
0.0
 40
1.281440980727792
100
AcDbArc
 50
118.6077857080725
 51
241.3922142897682
  0
LINE
  5
665
330
1A
100
AcDbEntity
  8
SEIHIN
 48
10.0
100
AcDbLine
 10
229.388060822613
 20
131.8914380919897
 30
0.0
 11
230.7880608226514
 21
132.0914380919897
 31
0.0
  0
LINE
  5
666
330
1A
100
AcDbEntity
  8
SEIHIN
 48
10.0
100
AcDbLine
 10
226.588060822613
 20
131.8914380919897
 30
0.0
 11
227.9880608226046
 21
132.0914380919897
 31
0.0
  0
LINE
  5
667
330
1A
100
AcDbEntity
  8
SEIHIN
 48
10.0
100
AcDbLine
 10
225.1880608226129
 20
131.8914380919897
 30
0.0
 11
226.5880608225816
 21
132.0914380919897
 31
0.0
  0
LINE
  5
668
330
1A
100
AcDbEntity
  8
SEIHIN
 48
10.0
100
AcDbLine
 10
227.988060822613
 20
131.8914380919897
 30
0.0
 11
229.3880608226277
 21
132.0914380919897
 31
0.0
  0
LINE
  5
669
330
1A
100
AcDbEntity
  8
SEIHIN
 48
10.0
100
AcDbLine
 10
232.188060822613
 20
131.8914380919897
 30
0.0
 11
233.5880608225816
 21
132.0914380919897
 31
0.0
  0
LINE
  5
66A
330
1A
100
AcDbEntity
  8
SEIHIN
 48
10.0
100
AcDbLine
 10
230.788060822613
 20
131.8914380919897
 30
0.0
 11
232.1880608225579
 21
132.0914380919897
 31
0.0
  0
LINE
  5
66B
330
1A
100
AcDbEntity
  8
SEIHIN
 48
10.0
100
AcDbLine
 10
233.5880608226248
 20
131.8914380919897
 30
0.0
 11
234.9880608225935
 21
132.0914380919897
 31
0.0
  0
LINE
  5
66C
330
1A
100
AcDbEntity
  8
SEIHIN
 48
10.0
100
AcDbLine
 10
236.1880608226129
 20
131.9914380919897
 30
0.0
 11
243.1880608226129
 21
134.2414380919897
 31
0.0
  0
LINE
  5
66D
330
1A
100
AcDbEntity
  8
SEIHIN
 48
10.0
100
AcDbLine
 10
236.1880608226129
 20
134.2414380919897
 30
0.0
 11
243.1880608226129
 21
134.2414380919897
 31
0.0
  0
LINE
  5
66E
330
1A
100
AcDbEntity
  8
SEIHIN
 48
10.0
100
AcDbLine
 10
223.7880608226129
 20
136.5914380919897
 30
0.0
 11
225.188060822558
 21
136.3914380919897
 31
0.0
  0
LINE
  5
66F
330
1A
100
AcDbEntity
  8
SEIHIN
 48
10.0
100
AcDbLine
 10
218.1880608226129
 20
136.4914380919897
 30
0.0
 11
213.6880608226956
 21
136.4914380919897
 31
0.0
  0
LINE
  5
670
330
1A
100
AcDbEntity
  8
SEIHIN
 48
10.0
100
AcDbLine
 10
212.6880608226956
 20
136.4914380919897
 30
0.0
 11
208.688060822668
 21
136.4914380919897
 31
0.0
  0
LINE
  5
671
330
1A
100
AcDbEntity
  8
SEIHIN
 48
10.0
100
AcDbLine
 10
207.688060822668
 20
136.4914380919897
 30
0.0
 11
203.6880608226405
 21
136.4914380919897
 31
0.0
  0
LINE
  5
672
330
1A
100
AcDbEntity
  8
SEIHIN
 48
10.0
100
AcDbLine
 10
208.6880608226644
 20
136.1914380914389
 30
0.0
 11
207.6880608226644
 21
136.1914380914389
 31
0.0
  0
LINE
  5
673
330
1A
100
AcDbEntity
  8
SEIHIN
 48
10.0
100
AcDbLine
 10
213.6880608226919
 20
136.1914380908881
 30
0.0
 11
212.6880608226918
 21
136.1914380908881
 31
0.0
  0
LINE
  5
674
330
1A
100
AcDbEntity
  8
SEIHIN
 48
10.0
100
AcDbLine
 10
218.1880608226129
 20
136.5914380919897
 30
0.0
 11
219.5880608225816
 21
136.3914380919897
 31
0.0
  0
LINE
  5
675
330
1A
100
AcDbEntity
  8
SEIHIN
 48
10.0
100
AcDbLine
 10
220.988060822613
 20
136.5914380919897
 30
0.0
 11
222.3880608226278
 21
136.3914380919897
 31
0.0
  0
LINE
  5
676
330
1A
100
AcDbEntity
  8
SEIHIN
 48
10.0
100
AcDbLine
 10
219.588060822613
 20
136.5914380919897
 30
0.0
 11
220.9880608226046
 21
136.3914380919897
 31
0.0
  0
LINE
  5
677
330
1A
100
AcDbEntity
  8
SEIHIN
 48
10.0
100
AcDbLine
 10
222.388060822613
 20
136.5914380919897
 30
0.0
 11
223.7880608226514
 21
136.3914380919897
 31
0.0
  0
LINE
  5
678
330
1A
100
AcDbEntity
  8
SEIHIN
 48
10.0
100
AcDbLine
 10
236.1880608226129
 20
136.4914380919897
 30
0.0
 11
234.9880608226048
 21
136.4914380919897
 31
0.0
  0
LINE
  5
679
330
1A
100
AcDbEntity
  8
SEIHIN
 48
10.0
100
AcDbLine
 10
229.388060822613
 20
136.5914380919897
 30
0.0
 11
230.7880608226514
 21
136.3914380919897
 31
0.0
  0
LINE
  5
67A
330
1A
100
AcDbEntity
  8
SEIHIN
 48
10.0
100
AcDbLine
 10
226.588060822613
 20
136.5914380919897
 30
0.0
 11
227.9880608226046
 21
136.3914380919897
 31
0.0
  0
LINE
  5
67B
330
1A
100
AcDbEntity
  8
SEIHIN
 48
10.0
100
AcDbLine
 10
225.1880608226129
 20
136.5914380919897
 30
0.0
 11
226.5880608225816
 21
136.3914380919897
 31
0.0
  0
LINE
  5
67C
330
1A
100
AcDbEntity
  8
SEIHIN
 48
10.0
100
AcDbLine
 10
227.988060822613
 20
136.5914380919897
 30
0.0
 11
229.3880608226277
 21
136.3914380919897
 31
0.0
  0
LINE
  5
67D
330
1A
100
AcDbEntity
  8
SEIHIN
 48
10.0
100
AcDbLine
 10
232.188060822613
 20
136.5914380919897
 30
0.0
 11
233.5880608225816
 21
136.3914380919897
 31
0.0
  0
LINE
  5
67E
330
1A
100
AcDbEntity
  8
SEIHIN
 48
10.0
100
AcDbLine
 10
230.788060822613
 20
136.5914380919897
 30
0.0
 11
232.1880608225579
 21
136.3914380919897
 31
0.0
  0
LINE
  5
67F
330
1A
100
AcDbEntity
  8
SEIHIN
 48
10.0
100
AcDbLine
 10
233.5880608226248
 20
136.5914380919897
 30
0.0
 11
234.9880608225935
 21
136.3914380919897
 31
0.0
  0
LINE
  5
903
330
1A
100
AcDbEntity
  8
SEIHIN
 48
10.0
100
AcDbLine
 10
80.90885949341299
 20
162.1414380919897
 30
0.0
 11
80.60885949341297
 21
162.1414380919897
 31
0.0
  0
LINE
  5
905
330
1A
100
AcDbEntity
  8
SEIHIN
 48
10.0
100
AcDbLine
 10
80.90885949341302
 20
155.7414380919897
 30
0.0
 11
80.60885949341297
 21
155.7414380919897
 31
0.0
  0
LINE
  5
906
330
1A
100
AcDbEntity
  8
SEIHIN
 48
10.0
100
AcDbLine
 10
80.60885949341303
 20
156.4414380919897
 30
0.0
 11
67.60885949341298
 21
156.4414380919897
 31
0.0
  0
LINE
  5
99C
330
1A
100
AcDbEntity
  8
CENTER_L
 48
10.0
100
AcDbLine
 10
138.4880608226814
 20
47.196139501906
 30
0.0
 11
138.488060822645
 21
70.94458890190566
 31
0.0
  0
LINE
  5
99D
330
1A
100
AcDbEntity
  8
SEIHIN
 48
10.0
100
AcDbLine
 10
135.2880608226679
 20
65.57947600828899
 30
0.0
 11
135.2880608226679
 21
65.27947600828901
 31
0.0
  0
LINE
  5
99E
330
1A
100
AcDbEntity
  8
SEIHIN
 48
10.0
100
AcDbLine
 10
141.6880608226679
 20
65.57947600828907
 30
0.0
 11
141.6880608226679
 21
65.27947600828901
 31
0.0
  0
LINE
  5
9A1
330
1A
100
AcDbEntity
  8
CENTER_L
 48
10.0
100
AcDbLine
 10
74.10885949341298
 20
101.8310693315465
 30
0.0
 11
74.10885949341298
 21
166.7948466448915
 31
0.0
  0
LINE
  5
9A6
330
1A
100
AcDbEntity
  8
SEIHIN
 48
10.0
100
AcDbLine
 10
77.10885949340729
 20
121.1215192353842
 30
0.0
 11
77.10885949340729
 21
148.4281013197922
 31
0.0
  0
LINE
  5
9A8
330
1A
100
AcDbEntity
  8
SEIHIN
 48
10.0
100
AcDbLine
 10
77.5502808496503
 20
108.6849019326828
 30
0.0
 11
70.66743813717568
 21
108.6849019326828
 31
0.0
  0
LINE
  5
9AA
330
1A
100
AcDbEntity
  8
SEIHIN
 48
10.0
100
AcDbLine
 10
80.60885949341297
 20
111.4747907859948
 30
0.0
 11
67.60885949341275
 21
111.4747907859948
 31
0.0
  0
LINE
  5
9AD
330
1A
100
AcDbEntity
  8
SEIHIN
 48
10.0
100
AcDbLine
 10
71.10885949341867
 20
121.1215192353842
 30
0.0
 11
71.10885949341867
 21
148.4281013197922
 31
0.0
  0
ELLIPSE
  5
9AE
330
1A
100
AcDbEntity
  8
SEIHIN
 48
10.0
100
AcDbEllipse
 10
74.10885949341298
 20
121.1215192353842
 30
0.0
 11
0.0
 21
-6.812883119300849
 31
0.0
210
0.0
220
0.0
230
1.0
 40
0.4403422086451677
 41
4.712388980384689
 42
7.853981633974482
  0
LINE
  5
9AF
330
1A
100
AcDbEntity
  8
SEIHIN
 48
10.0
100
AcDbLine
 10
78.28566771535361
 20
111.033819606671
 30
0.0
 11
69.93205127147234
 21
111.033819606671
 31
0.0
  0
LINE
  5
9B0
330
1A
100
AcDbEntity
  8
SEIHIN
 48
10.0
100
AcDbLine
 10
80.60885949341297
 20
110.6554074164255
 30
0.0
 11
78.38918018850922
 21
110.6554074164255
 31
0.0
  0
LINE
  5
9B1
330
1A
100
AcDbEntity
  8
SEIHIN
 48
10.0
100
AcDbLine
 10
80.60885949341297
 20
108.8310693315465
 30
0.0
 11
80.60885949341297
 21
162.4414380919897
 31
0.0
  0
LINE
  5
9B2
330
1A
100
AcDbEntity
  8
SEIHIN
 48
10.0
100
AcDbLine
 10
67.60885949341275
 20
108.8310693315465
 30
0.0
 11
67.608859493413
 21
162.4414380919897
 31
0.0
  0
LINE
  5
9B4
330
1A
100
AcDbEntity
  8
SEIHIN
 48
10.0
100
AcDbLine
 10
67.60885949341292
 20
110.655407416426
 30
0.0
 11
69.8285387983166
 21
110.6554074164258
 31
0.0
  0
LINE
  5
9B5
330
1A
100
AcDbEntity
  8
SEIHIN
 48
10.0
100
AcDbLine
 10
80.60885949341297
 20
113.7189447334913
 30
0.0
 11
67.60885949341278
 21
113.7189447334913
 31
0.0
  0
LINE
  5
9B6
330
1A
100
AcDbEntity
  8
CENTER_L
 48
10.0
100
AcDbLine
 10
87.60885949341298
 20
134.2414380919897
 30
0.0
 11
60.60885949341287
 21
134.2414380919897
 31
0.0
  0
ELLIPSE
  5
9B7
330
1A
100
AcDbEntity
  8
SEIHIN
 48
10.0
100
AcDbEllipse
 10
74.10885949341298
 20
148.4281013197922
 30
0.0
 11
0.0
 21
6.812883119300849
 31
0.0
210
0.0
220
0.0
230
-1.0
 40
0.4403422086451677
 41
4.712388980384689
 42
7.853981633974482
  0
LINE
  5
9B8
330
1A
100
AcDbEntity
  8
SEIHIN
 48
10.0
100
AcDbLine
 10
80.60885949341297
 20
162.4414380919897
 30
0.0
 11
67.608859493413
 21
162.4414380919897
 31
0.0
  0
ARC
  5
9BA
330
1A
100
AcDbEntity
  8
SEIHIN
 48
10.0
100
AcDbCircle
 10
77.24219282674642
 20
158.9414380919897
 30
0.0
 40
4.86666666666662
100
AcDbArc
 50
318.8879095608323
 51
41.11209043916818
  0
LINE
  5
9BB
330
1A
100
AcDbEntity
  8
SEIHIN
 48
10.0
100
AcDbLine
 10
71.60885949341298
 20
162.4414380919897
 30
0.0
 11
71.60885949341298
 21
156.4414380919897
 31
0.0
  0
LINE
  5
9BC
330
1A
100
AcDbEntity
  8
SEIHIN
 48
10.0
100
AcDbLine
 10
76.60885949341298
 20
162.4414380919897
 30
0.0
 11
76.60885949341298
 21
156.4414380919897
 31
0.0
  0
LINE
  5
9BD
330
1A
100
AcDbEntity
  8
SEIHIN
 48
10.0
100
AcDbLine
 10
71.90885949341296
 20
162.4414380919897
 30
0.0
 11
71.90885949341296
 21
156.4414380919897
 31
0.0
  0
LINE
  5
9BE
330
1A
100
AcDbEntity
  8
SEIHIN
 48
10.0
100
AcDbLine
 10
76.30885949341297
 20
162.4414380919897
 30
0.0
 11
76.30885949341297
 21
156.4414380919897
 31
0.0
  0
LINE
  5
9C2
330
1A
100
AcDbEntity
  8
SEIHIN
 48
10.0
100
AcDbLine
 10
69.77108919397366
 20
110.7903518074306
 30
0.0
 11
70.66743813717565
 21
108.6849019326828
 31
0.0
  0
LINE
  5
9C3
330
1A
100
AcDbEntity
  8
SEIHIN
 48
10.0
100
AcDbLine
 10
78.44662979285229
 20
110.7903518074305
 30
0.0
 11
77.5502808496503
 21
108.6849019326828
 31
0.0
  0
LINE
  5
9C6
330
1A
100
AcDbEntity
  8
SEIHIN
 48
10.0
100
AcDbLine
 10
80.60885949341297
 20
108.8310693315465
 30
0.0
 11
77.61250840257068
 21
108.8310693315465
 31
0.0
  0
LINE
  5
9C7
330
1A
100
AcDbEntity
  8
SEIHIN
 48
10.0
100
AcDbLine
 10
70.60521058425528
 20
108.8310693315465
 30
0.0
 11
67.60885949341275
 21
108.8310693315465
 31
0.0
  0
LINE
  5
A2C
330
1A
100
AcDbEntity
  8
SEIHIN
 48
10.0
100
AcDbLine
 10
141.6880608226679
 20
65.579476008289
 30
0.0
 11
135.2880608226679
 21
65.579476008289
 31
0.0
  0
ARC
  5
A2D
330
1A
100
AcDbEntity
  8
SEIHIN
 48
10.0
100
AcDbCircle
 10
138.488060822668
 20
61.91280934162238
 30
0.0
 40
4.866666666666649
100
AcDbArc
 50
48.8879095608331
 51
131.1120904391673
  0
LINE
  5
A2E
330
1A
100
AcDbEntity
  8
SEIHIN
 48
10.0
100
AcDbLine
 10
141.6880608226882
 20
52.27947600828902
 30
0.0
 11
135.2880608226883
 21
52.27947600828902
 31
0.0
  0
LINE
  5
A2F
330
1A
100
AcDbEntity
  8
SEIHIN
 48
10.0
100
AcDbLine
 10
135.2880608226883
 20
52.27947600828901
 30
0.0
 11
135.2880608226883
 21
51.97947600828904
 31
0.0
  0
LINE
  5
A30
330
1A
100
AcDbEntity
  8
SEIHIN
 48
10.0
100
AcDbLine
 10
141.6880608226882
 20
52.27947600828908
 30
0.0
 11
141.6880608226882
 21
51.97947600828903
 31
0.0
  0
LINE
  5
A31
330
1A
100
AcDbEntity
  8
SEIHIN
 48
10.0
100
AcDbLine
 10
141.6880608226882
 20
51.97947600828903
 30
0.0
 11
135.2880608226882
 21
51.97947600828903
 31
0.0
  0
LINE
  5
A58
330
1A
100
AcDbEntity
  8
CENTER_L
 48
10.0
100
AcDbLine
 10
250.3403576759726
 20
58.77947600829611
 30
0.0
 11
108.2880608226679
 21
58.77947600829611
 31
0.0
  0
LINE
  5
A5E
330
1A
100
AcDbEntity
  8
SEIHIN
 48
10.0
100
AcDbLine
 10
236.1880608226129
 20
61.02947600829612
 30
0.0
 11
243.1880608226129
 21
58.77947600829611
 31
0.0
  0
LINE
  5
A5F
330
1A
100
AcDbEntity
  8
SEIHIN
 48
10.0
100
AcDbLine
 10
236.1880608226129
 20
56.52947600829612
 30
0.0
 11
243.1880608226129
 21
58.77947600829611
 31
0.0
  0
LINE
  5
A60
330
1A
100
AcDbEntity
  8
SEIHIN
 48
10.0
100
AcDbLine
 10
236.1880608226129
 20
58.77947600829611
 30
0.0
 11
243.1880608226129
 21
58.77947600829611
 31
0.0
  0
LINE
  5
A61
330
1A
100
AcDbEntity
  8
SEIHIN
 48
10.0
100
AcDbLine
 10
202.6880608225853
 20
56.52947600829612
 30
0.0
 11
166.5209035588851
 21
56.52947600829612
 31
0.0
  0
LINE
  5
A62
330
1A
100
AcDbEntity
  8
SEIHIN
 48
10.0
100
AcDbLine
 10
202.6880608226405
 20
61.02947600829612
 30
0.0
 11
166.5209035385124
 21
61.02947600829612
 31
0.0
  0
LINE
  5
A64
330
1A
100
AcDbEntity
  8
SEIHIN
 48
10.0
100
AcDbLine
 10
218.1880608226129
 20
61.02947600829612
 30
0.0
 11
213.6880608226956
 21
61.02947600829614
 31
0.0
  0
LINE
  5
A65
330
1A
100
AcDbEntity
  8
SEIHIN
 48
10.0
100
AcDbLine
 10
218.1880608226129
 20
56.52947600829612
 30
0.0
 11
213.6880608226405
 21
56.52947600829612
 31
0.0
  0
LINE
  5
A66
330
1A
100
AcDbEntity
  8
SEIHIN
 48
10.0
100
AcDbLine
 10
207.6880608226129
 20
56.52947600829612
 30
0.0
 11
203.6880608225853
 21
56.52947600829612
 31
0.0
  0
LINE
  5
A67
330
1A
100
AcDbEntity
  8
SEIHIN
 48
10.0
100
AcDbLine
 10
207.688060822668
 20
61.02947600829614
 30
0.0
 11
203.6880608226405
 21
61.02947600829612
 31
0.0
  0
LINE
  5
A68
330
1A
100
AcDbEntity
  8
SEIHIN
 48
10.0
100
AcDbLine
 10
202.6880608226405
 20
61.02947600830223
 30
0.0
 11
202.6880608225854
 21
56.52947600830223
 31
0.0
  0
LINE
  5
A69
330
1A
100
AcDbEntity
  8
SEIHIN
 48
10.0
100
AcDbLine
 10
203.6880608226405
 20
61.02947600829001
 30
0.0
 11
203.6880608225854
 21
56.52947600829
 31
0.0
  0
LINE
  5
A6A
330
1A
100
AcDbEntity
  8
SEIHIN
 48
10.0
100
AcDbLine
 10
203.6880608225891
 20
56.82947600829615
 30
0.0
 11
202.6880608225891
 21
56.82947600829615
 31
0.0
  0
LINE
  5
A6B
330
1A
100
AcDbEntity
  8
SEIHIN
 48
10.0
100
AcDbLine
 10
203.6880608226368
 20
60.72947600829613
 30
0.0
 11
202.6880608226368
 21
60.72947600829613
 31
0.0
  0
LINE
  5
A6C
330
1A
100
AcDbEntity
  8
SEIHIN
 48
10.0
100
AcDbLine
 10
212.6880608226405
 20
56.52947600829612
 30
0.0
 11
208.688060822613
 21
56.52947600829612
 31
0.0
  0
LINE
  5
A6D
330
1A
100
AcDbEntity
  8
SEIHIN
 48
10.0
100
AcDbLine
 10
212.6880608226956
 20
61.02947600829614
 30
0.0
 11
208.688060822668
 21
61.02947600829614
 31
0.0
  0
LINE
  5
A6E
330
1A
100
AcDbEntity
  8
SEIHIN
 48
10.0
100
AcDbLine
 10
208.688060822668
 20
61.02947600773919
 30
0.0
 11
208.688060822613
 21
56.52947600773919
 31
0.0
  0
LINE
  5
A6F
330
1A
100
AcDbEntity
  8
SEIHIN
 48
10.0
100
AcDbLine
 10
207.688060822668
 20
61.02947600775141
 30
0.0
 11
207.6880608226129
 21
56.52947600775141
 31
0.0
  0
LINE
  5
A70
330
1A
100
AcDbEntity
  8
SEIHIN
 48
10.0
100
AcDbLine
 10
208.6880608226166
 20
56.82947600774534
 30
0.0
 11
207.6880608226166
 21
56.82947600774534
 31
0.0
  0
LINE
  5
A71
330
1A
100
AcDbEntity
  8
SEIHIN
 48
10.0
100
AcDbLine
 10
208.6880608226644
 20
60.72947600774532
 30
0.0
 11
207.6880608226644
 21
60.72947600774532
 31
0.0
  0
LINE
  5
A72
330
1A
100
AcDbEntity
  8
SEIHIN
 48
10.0
100
AcDbLine
 10
212.6880608226956
 20
61.0294760072006
 30
0.0
 11
212.6880608226405
 21
56.5294760072006
 31
0.0
  0
LINE
  5
A73
330
1A
100
AcDbEntity
  8
SEIHIN
 48
10.0
100
AcDbLine
 10
213.6880608226956
 20
61.02947600718838
 30
0.0
 11
213.6880608226405
 21
56.52947600718838
 31
0.0
  0
LINE
  5
A74
330
1A
100
AcDbEntity
  8
SEIHIN
 48
10.0
100
AcDbLine
 10
213.6880608226441
 20
56.82947600719453
 30
0.0
 11
212.6880608226441
 21
56.82947600719453
 31
0.0
  0
LINE
  5
A75
330
1A
100
AcDbEntity
  8
SEIHIN
 48
10.0
100
AcDbLine
 10
213.6880608226919
 20
60.72947600719451
 30
0.0
 11
212.6880608226918
 21
60.72947600719451
 31
0.0
  0
LINE
  5
A76
330
1A
100
AcDbEntity
  8
SEIHIN
 48
10.0
100
AcDbLine
 10
229.388060822613
 20
61.12947600829613
 30
0.0
 11
230.7880608226514
 21
60.92947600829612
 31
0.0
  0
LINE
  5
A77
330
1A
100
AcDbEntity
  8
SEIHIN
 48
10.0
100
AcDbLine
 10
229.388060822613
 20
56.42947600829609
 30
0.0
 11
230.7880608226514
 21
56.6294760082961
 31
0.0
  0
LINE
  5
A78
330
1A
100
AcDbEntity
  8
SEIHIN
 48
10.0
100
AcDbLine
 10
223.7880608226129
 20
61.12947600829613
 30
0.0
 11
225.188060822558
 21
60.92947600829612
 31
0.0
  0
LINE
  5
A79
330
1A
100
AcDbEntity
  8
SEIHIN
 48
10.0
100
AcDbLine
 10
223.7880608226129
 20
56.42947600829609
 30
0.0
 11
225.188060822558
 21
56.6294760082961
 31
0.0
  0
LINE
  5
A7A
330
1A
100
AcDbEntity
  8
SEIHIN
 48
10.0
100
AcDbLine
 10
223.7880608226129
 20
61.12947600829613
 30
0.0
 11
223.7880608226514
 21
56.42947600829609
 31
0.0
  0
LINE
  5
A7B
330
1A
100
AcDbEntity
  8
SEIHIN
 48
10.0
100
AcDbLine
 10
222.388060822613
 20
61.12947600829613
 30
0.0
 11
222.3880608226278
 21
56.42947600829609
 31
0.0
  0
LINE
  5
A7C
330
1A
100
AcDbEntity
  8
SEIHIN
 48
10.0
100
AcDbLine
 10
219.588060822613
 20
61.12947600829613
 30
0.0
 11
219.5880608225816
 21
56.42947600829609
 31
0.0
  0
LINE
  5
A7D
330
1A
100
AcDbEntity
  8
SEIHIN
 48
10.0
100
AcDbLine
 10
220.988060822613
 20
61.12947600829613
 30
0.0
 11
220.9880608226046
 21
56.42947600829609
 31
0.0
  0
LINE
  5
A7E
330
1A
100
AcDbEntity
  8
SEIHIN
 48
10.0
100
AcDbLine
 10
218.1880608226129
 20
61.12947600829613
 30
0.0
 11
218.188060822558
 21
56.42947600829609
 31
0.0
  0
LINE
  5
A7F
330
1A
100
AcDbEntity
  8
SEIHIN
 48
10.0
100
AcDbLine
 10
220.988060822613
 20
56.42947600829609
 30
0.0
 11
222.3880608226278
 21
56.6294760082961
 31
0.0
  0
LINE
  5
A80
330
1A
100
AcDbEntity
  8
SEIHIN
 48
10.0
100
AcDbLine
 10
219.588060822613
 20
56.42947600829609
 30
0.0
 11
220.9880608226046
 21
56.6294760082961
 31
0.0
  0
LINE
  5
A81
330
1A
100
AcDbEntity
  8
SEIHIN
 48
10.0
100
AcDbLine
 10
218.1880608226129
 20
56.42947600829609
 30
0.0
 11
219.5880608225816
 21
56.6294760082961
 31
0.0
  0
LINE
  5
A82
330
1A
100
AcDbEntity
  8
SEIHIN
 48
10.0
100
AcDbLine
 10
222.388060822613
 20
56.42947600829609
 30
0.0
 11
223.7880608226514
 21
56.6294760082961
 31
0.0
  0
LINE
  5
A83
330
1A
100
AcDbEntity
  8
SEIHIN
 48
10.0
100
AcDbLine
 10
220.988060822613
 20
61.12947600829613
 30
0.0
 11
222.3880608226278
 21
60.92947600829612
 31
0.0
  0
LINE
  5
A84
330
1A
100
AcDbEntity
  8
SEIHIN
 48
10.0
100
AcDbLine
 10
219.588060822613
 20
61.12947600829613
 30
0.0
 11
220.9880608226046
 21
60.92947600829612
 31
0.0
  0
LINE
  5
A85
330
1A
100
AcDbEntity
  8
SEIHIN
 48
10.0
100
AcDbLine
 10
218.1880608226129
 20
61.12947600829613
 30
0.0
 11
219.5880608225816
 21
60.92947600829612
 31
0.0
  0
LINE
  5
A86
330
1A
100
AcDbEntity
  8
SEIHIN
 48
10.0
100
AcDbLine
 10
222.388060822613
 20
61.12947600829613
 30
0.0
 11
223.7880608226514
 21
60.92947600829612
 31
0.0
  0
LINE
  5
A87
330
1A
100
AcDbEntity
  8
SEIHIN
 48
10.0
100
AcDbLine
 10
229.388060822613
 20
61.12947600829613
 30
0.0
 11
229.3880608226277
 21
56.42947600829609
 31
0.0
  0
LINE
  5
A88
330
1A
100
AcDbEntity
  8
SEIHIN
 48
10.0
100
AcDbLine
 10
227.988060822613
 20
61.12947600829613
 30
0.0
 11
227.9880608226046
 21
56.42947600829609
 31
0.0
  0
LINE
  5
A89
330
1A
100
AcDbEntity
  8
SEIHIN
 48
10.0
100
AcDbLine
 10
225.1880608226129
 20
61.12947600829613
 30
0.0
 11
225.188060822558
 21
56.42947600829609
 31
0.0
  0
LINE
  5
A8A
330
1A
100
AcDbEntity
  8
SEIHIN
 48
10.0
100
AcDbLine
 10
226.588060822613
 20
61.12947600829613
 30
0.0
 11
226.5880608225816
 21
56.42947600829609
 31
0.0
  0
LINE
  5
A8B
330
1A
100
AcDbEntity
  8
SEIHIN
 48
10.0
100
AcDbLine
 10
226.588060822613
 20
56.42947600829609
 30
0.0
 11
227.9880608226046
 21
56.6294760082961
 31
0.0
  0
LINE
  5
A8C
330
1A
100
AcDbEntity
  8
SEIHIN
 48
10.0
100
AcDbLine
 10
225.1880608226129
 20
56.42947600829609
 30
0.0
 11
226.5880608225816
 21
56.6294760082961
 31
0.0
  0
LINE
  5
A8D
330
1A
100
AcDbEntity
  8
SEIHIN
 48
10.0
100
AcDbLine
 10
227.988060822613
 20
56.42947600829609
 30
0.0
 11
229.3880608226277
 21
56.6294760082961
 31
0.0
  0
LINE
  5
A8E
330
1A
100
AcDbEntity
  8
SEIHIN
 48
10.0
100
AcDbLine
 10
226.588060822613
 20
61.12947600829613
 30
0.0
 11
227.9880608226046
 21
60.92947600829612
 31
0.0
  0
LINE
  5
A8F
330
1A
100
AcDbEntity
  8
SEIHIN
 48
10.0
100
AcDbLine
 10
225.1880608226129
 20
61.12947600829613
 30
0.0
 11
226.5880608225816
 21
60.92947600829612
 31
0.0
  0
LINE
  5
A90
330
1A
100
AcDbEntity
  8
SEIHIN
 48
10.0
100
AcDbLine
 10
227.988060822613
 20
61.12947600829613
 30
0.0
 11
229.3880608226277
 21
60.92947600829612
 31
0.0
  0
LINE
  5
A91
330
1A
100
AcDbEntity
  8
SEIHIN
 48
10.0
100
AcDbLine
 10
236.1880608226129
 20
61.02947600829612
 30
0.0
 11
234.9880608226048
 21
61.02947600829612
 31
0.0
  0
LINE
  5
A92
330
1A
100
AcDbEntity
  8
SEIHIN
 48
10.0
100
AcDbLine
 10
236.1880608226129
 20
56.52947600829612
 30
0.0
 11
234.9880608226046
 21
56.52947600829612
 31
0.0
  0
LINE
  5
A93
330
1A
100
AcDbEntity
  8
SEIHIN
 48
10.0
100
AcDbLine
 10
234.988060822613
 20
61.02947600829612
 30
0.0
 11
234.9880608226046
 21
56.52947600829612
 31
0.0
  0
LINE
  5
A94
330
1A
100
AcDbEntity
  8
SEIHIN
 48
10.0
100
AcDbLine
 10
234.988060822613
 20
61.02947600829612
 30
0.0
 11
234.9880608226046
 21
56.52947600829612
 31
0.0
  0
LINE
  5
A95
330
1A
100
AcDbEntity
  8
SEIHIN
 48
10.0
100
AcDbLine
 10
233.588060822613
 20
61.12947600829613
 30
0.0
 11
233.5880608225816
 21
56.42947600829609
 31
0.0
  0
LINE
  5
A96
330
1A
100
AcDbEntity
  8
SEIHIN
 48
10.0
100
AcDbLine
 10
230.788060822613
 20
61.12947600829613
 30
0.0
 11
230.7880608226514
 21
56.42947600829609
 31
0.0
  0
LINE
  5
A97
330
1A
100
AcDbEntity
  8
SEIHIN
 48
10.0
100
AcDbLine
 10
232.188060822613
 20
61.12947600829613
 30
0.0
 11
232.1880608225579
 21
56.42947600829609
 31
0.0
  0
LINE
  5
A98
330
1A
100
AcDbEntity
  8
SEIHIN
 48
10.0
100
AcDbLine
 10
232.188060822613
 20
56.42947600829609
 30
0.0
 11
233.5880608225816
 21
56.6294760082961
 31
0.0
  0
LINE
  5
A99
330
1A
100
AcDbEntity
  8
SEIHIN
 48
10.0
100
AcDbLine
 10
230.788060822613
 20
56.42947600829609
 30
0.0
 11
232.1880608225579
 21
56.6294760082961
 31
0.0
  0
LINE
  5
A9A
330
1A
100
AcDbEntity
  8
SEIHIN
 48
10.0
100
AcDbLine
 10
233.5880608226248
 20
56.42947600829612
 30
0.0
 11
234.9880608225935
 21
56.62947600829614
 31
0.0
  0
LINE
  5
A9B
330
1A
100
AcDbEntity
  8
SEIHIN
 48
10.0
100
AcDbLine
 10
232.188060822613
 20
61.12947600829613
 30
0.0
 11
233.5880608225816
 21
60.92947600829612
 31
0.0
  0
LINE
  5
A9C
330
1A
100
AcDbEntity
  8
SEIHIN
 48
10.0
100
AcDbLine
 10
230.788060822613
 20
61.12947600829613
 30
0.0
 11
232.1880608225579
 21
60.92947600829612
 31
0.0
  0
LINE
  5
A9D
330
1A
100
AcDbEntity
  8
SEIHIN
 48
10.0
100
AcDbLine
 10
233.5880608226248
 20
61.12947600829613
 30
0.0
 11
234.9880608225935
 21
60.92947600829612
 31
0.0
  0
ARC
  5
A9E
330
1A
100
AcDbEntity
  8
SEIHIN
 48
10.0
100
AcDbCircle
 10
236.8016290642036
 20
57.65447600829611
 30
0.0
 40
1.281440980727792
100
AcDbArc
 50
118.6077857080725
 51
241.3922142897682
  0
ARC
  5
A9F
330
1A
100
AcDbEntity
  8
SEIHIN
 48
10.0
100
AcDbCircle
 10
236.8016290642036
 20
59.90447600829611
 30
0.0
 40
1.281440980727792
100
AcDbArc
 50
118.6077857102318
 51
241.3922142919274
  0
DIMENSION
  5
B9D
330
1A
100
AcDbEntity
  8
SUNPOU
 48
5.0
100
AcDbDimension
  2
*D11
 10
98.71738617073356
 20
108.664914999815
 30
0.0
 11
96.46738617073355
 21
135.5531765459024
 31
0.0
 70
    32
  3
STANDARD
100
AcDbAlignedDimension
 13
138.488060822668
 23
162.4414380919897
 33
0.0
 14
139.3902519076686
 24
108.664914999815
 34
0.0
 50
90.0
100
AcDbRotatedDimension
1001
ACAD
1000
DSTYLE
1002
{
1070
    41
1040
2.5
1070
    42
1040
2.5
1070
    43
1040
4.879999999999999
1070
    44
1040
1.05
1070
    73
1070
     0
1070
    74
1070
     0
1070
    77
1070
     3
1070
   140
1040
2.5
1070
   141
1040
150.0
1070
   147
1040
1.0
1070
   172
1070
     1
1070
   173
1070
     1
1070
   176
1070
   256
1070
   177
1070
   256
1070
   178
1070
   256
1070
   271
1070
     0
1070
   272
1070
     0
1070
   341
1005
66
1070
     6
1000
OPEN
1070
     7
1000
OPEN
1070
   371
1070
    -1
1070
   372
1070
    -1
1002
}
  0
LINE
  5
BB4
330
1A
100
AcDbEntity
  8
SEIHIN
 48
10.0
100
AcDbLine
 10
80.60885949341303
 20
156.6414380919897
 30
0.0
 11
76.60885949341298
 21
156.6414380919896
 31
0.0
  0
LINE
  5
BB5
330
1A
100
AcDbEntity
  8
SEIHIN
 48
10.0
100
AcDbLine
 10
71.60885949341298
 20
156.6414380919897
 30
0.0
 11
67.60885949341298
 21
156.6414380919896
 31
0.0
  0
LINE
  5
BB6
330
1A
100
AcDbEntity
  8
SEIHIN
 48
10.0
100
AcDbLine
 10
76.60885949341298
 20
161.4414380919896
 30
0.0
 11
76.30885949341297
 21
161.4414380919896
 31
0.0
  0
LINE
  5
BB8
330
1A
100
AcDbEntity
  8
SEIHIN
 48
10.0
100
AcDbLine
 10
71.90885949341296
 20
161.4414380919897
 30
0.0
 11
71.60885949341298
 21
161.4414380919897
 31
0.0
  0
LINE
  5
BBE
330
1A
100
AcDbEntity
  8
CENTER_L
 48
10.0
100
AcDbLine
 10
85.96143504461958
 20
158.9414380919896
 30
0.0
 11
61.16518454168653
 21
158.9414380919896
 31
0.0
  0
LINE
  5
BBF
330
1A
100
AcDbEntity
  8
SEIHIN
 48
10.0
100
AcDbLine
 10
71.90885949341296
 20
156.4414380919895
 30
0.0
 11
71.60885949341298
 21
156.4414380919895
 31
0.0
  0
LINE
  5
BC0
330
1A
100
AcDbEntity
  8
SEIHIN
 48
10.0
100
AcDbLine
 10
76.60885949341298
 20
156.4414380919896
 30
0.0
 11
76.30885949341297
 21
156.4414380919896
 31
0.0
  0
LINE
  5
BC1
330
1A
100
AcDbEntity
  8
SEIHIN
 48
10.0
100
AcDbLine
 10
67.60885949341299
 20
155.7414380919896
 30
0.0
 11
67.60885949341299
 21
162.1414380919896
 31
0.0
  0
LINE
  5
BC2
330
1A
100
AcDbEntity
  8
SEIHIN
 48
10.0
100
AcDbLine
 10
67.30885949341298
 20
155.7414380919897
 30
0.0
 11
67.30885949341298
 21
162.1414380919897
 31
0.0
  0
LINE
  5
BC3
330
1A
100
AcDbEntity
  8
SEIHIN
 48
10.0
100
AcDbLine
 10
67.60885949341299
 20
162.1414380919896
 30
0.0
 11
67.30885949341301
 21
162.1414380919896
 31
0.0
  0
LINE
  5
BC4
330
1A
100
AcDbEntity
  8
SEIHIN
 48
10.0
100
AcDbLine
 10
67.60885949341305
 20
155.7414380919897
 30
0.0
 11
67.30885949341298
 21
155.7414380919896
 31
0.0
  0
VIEWPORT
  5
22
330
17
100
AcDbEntity
 67
     1
  8
0
100
AcDbViewport
 10
313.6808219178082
 20
148.5
 30
0.0
 40
627.3616438356165
 41
297.0
 68
     2
 69
     1
1001
ACAD
1000
MVIEW
1002
{
1070
    16
1010
0.0
1020
0.0
1030
0.0
1010
0.0
1020
0.0
1030
1.0
1040
0.0
1040
297.0
1040
313.6808219178082
1040
148.5
1040
50.0
1040
0.0
1040
0.0
1070
     0
1070
   100
1070
     1
1070
     0
1070
     0
1070
     0
1070
     0
1070
     0
1040
0.0
1040
0.0
1040
0.0
1040
1.0
1040
1.0
1040
10.0
1040
10.0
1070
     0
1002
{
1002
}
1002
}
  0
VIEWPORT
  5
64
330
17
100
AcDbEntity
 67
     1
  8
VIEWPORT
100
AcDbViewport
 10
210.0
 20
148.5
 30
0.0
 40
420.0
 41
297.0
 68
     1
 69
     2
1001
ACAD
1000
MVIEW
1002
{
1070
    16
1010
0.0
1020
0.0
1030
0.0
1010
0.0
1020
0.0
1030
1.0
1040
0.0
1040
214.1999999999999
1040
148.5
1040
105.0
1040
50.0
1040
0.0
1040
0.0
1070
     0
1070
   100
1070
     1
1070
     0
1070
     0
1070
     0
1070
     0
1070
     0
1040
0.0
1040
0.0
1040
0.0
1040
4.0
1040
4.0
1040
0.0
1040
0.0
1070
     0
1002
{
1002
}
1002
}
  0
ENDSEC
  0
SECTION
  2
OBJECTS
  0
DICTIONARY
  5
C
330
0
100
AcDbDictionary
  3
ACAD_GROUP
350
D
  3
ACAD_LAYOUT
350
116
  3
ACAD_MLINESTYLE
350
E
  3
ACAD_PLOTSETTINGS
350
117
1001
ACAD
1000
TREAT_AS_HARD
1070
     0
  0
DICTIONARY
  5
C03
330
1A
100
AcDbDictionary
  3
ACAD_LAYOUTSELFREF
350
C8B
1001
ACAD
1000
TREAT_AS_HARD
1070
     1
  0
DICTIONARY
  5
C01
330
17
100
AcDbDictionary
  3
ACAD_LAYOUTSELFREF
350
C8A
1001
ACAD
1000
TREAT_AS_HARD
1070
     1
  0
DICTIONARY
  5
D
102
{ACAD_REACTORS
330
C
102
}
330
C
100
AcDbDictionary
1001
ACAD
1000
TREAT_AS_HARD
1070
     0
  0
DICTIONARY
  5
116
102
{ACAD_REACTORS
330
C
102
}
330
C
100
AcDbDictionary
1001
ACAD
1000
TREAT_AS_HARD
1070
     0
  0
DICTIONARY
  5
E
102
{ACAD_REACTORS
330
C
102
}
330
C
100
AcDbDictionary
  3
STANDARD
350
13
1001
ACAD
1000
TREAT_AS_HARD
1070
     0
  0
DICTIONARY
  5
117
102
{ACAD_REACTORS
330
C
102
}
330
C
100
AcDbDictionary
1001
ACAD
1000
TREAT_AS_HARD
1070
     0
  0
XRECORD
  5
C8B
102
{ACAD_REACTORS
330
C03
102
}
330
C03
100
AcDbXrecord
340
1A
  0
XRECORD
  5
C8A
102
{ACAD_REACTORS
330
C01
102
}
330
C01
100
AcDbXrecord
340
17
  0
MLINESTYLE
  5
13
102
{ACAD_REACTORS
330
E
102
}
330
E
100
AcDbMlineStyle
  2
STANDARD
 70
     0
  3

 62
     0
 51
90.0
 52
90.0
 71
     2
 49
0.5
 62
   256
  6
BYLAYER
 49
-0.5
 62
   256
  6
BYLAYER
  0
ENDSEC
  0
EOF
