  0
SECTION
  2
HEADER
  9
$ACADVER
  1
AC1014
  9
$ACADMAINTVER
 70
     9
  9
$DWGCODEPAGE
  3
ANSI_932
  9
$INSBASE
 10
0.0
 20
0.0
 30
0.0
  9
$EXTMIN
 10
-0.0128099507776369
 20
-0.0090584651927657
 30
-0.0000000000112498
  9
$EXTMAX
 10
797.6616026615272
 20
551.6426495160594
 30
0.0000000000002956
  9
$LIMMIN
 10
0.0
 20
0.0
  9
$LIMMAX
 10
840.0
 20
594.0
  9
$ORTHOMODE
 70
     0
  9
$REGENMODE
 70
     1
  9
$FILLMODE
 70
     1
  9
$QTEXTMODE
 70
     0
  9
$MIRRTEXT
 70
     1
  9
$DRAGMODE
 70
     2
  9
$LTSCALE
 40
2.0
  9
$OSMODE
 70
    35
  9
$ATTMODE
 70
     1
  9
$TEXTSIZE
 40
5.0
  9
$TRACEWID
 40
1.0
  9
$TEXTSTYLE
  7
STANDARD
  9
$CLAYER
  8
SEIHIN
  9
$CELTYPE
  6
BYLAYER
  9
$CECOLOR
 62
   256
  9
$CELTSCALE
 40
1.0
  9
$DELOBJ
 70
     1
  9
$DISPSILH
 70
     0
  9
$DIMSCALE
 40
1.0
  9
$DIMASZ
 40
7.0
  9
$DIMEXO
 40
6.0
  9
$DIMDLI
 40
14.0
  9
$DIMRND
 40
0.0
  9
$DIMDLE
 40
0.0
  9
$DIMEXE
 40
3.0
  9
$DIMTP
 40
0.0
  9
$DIMTM
 40
0.0
  9
$DIMTXT
 40
6.0
  9
$DIMCEN
 40
150.0
  9
$DIMTSZ
 40
0.0
  9
$DIMTOL
 70
     0
  9
$DIMLIM
 70
     0
  9
$DIMTIH
 70
     0
  9
$DIMTOH
 70
     0
  9
$DIMSE1
 70
     0
  9
$DIMSE2
 70
     0
  9
$DIMTAD
 70
     3
  9
$DIMZIN
 70
     0
  9
$DIMBLK
  1

  9
$DIMASO
 70
     1
  9
$DIMSHO
 70
     1
  9
$DIMPOST
  1

  9
$DIMAPOST
  1

  9
$DIMALT
 70
     0
  9
$DIMALTD
 70
     2
  9
$DIMALTF
 40
25.4
  9
$DIMLFAC
 40
1.0
  9
$DIMTOFL
 70
     1
  9
$DIMTVP
 40
0.0
  9
$DIMTIX
 70
     0
  9
$DIMSOXD
 70
     0
  9
$DIMSAH
 70
     1
  9
$DIMBLK1
  1
OPEN
  9
$DIMBLK2
  1
OPEN
  9
$DIMSTYLE
  2
STANDARD
  9
$DIMCLRD
 70
   256
  9
$DIMCLRE
 70
   256
  9
$DIMCLRT
 70
   256
  9
$DIMTFAC
 40
1.0
  9
$DIMGAP
 40
2.0
  9
$DIMJUST
 70
     0
  9
$DIMSD1
 70
     0
  9
$DIMSD2
 70
     0
  9
$DIMTOLJ
 70
     1
  9
$DIMTZIN
 70
     0
  9
$DIMALTZ
 70
     0
  9
$DIMALTTZ
 70
     0
  9
$DIMFIT
 70
     3
  9
$DIMUPT
 70
     0
  9
$DIMUNIT
 70
     2
  9
$DIMDEC
 70
     0
  9
$DIMTDEC
 70
     0
  9
$DIMALTU
 70
     2
  9
$DIMALTTD
 70
     2
  9
$DIMTXSTY
  7
STANDARD
  9
$DIMAUNIT
 70
     0
  9
$LUNITS
 70
     2
  9
$LUPREC
 70
     4
  9
$SKETCHINC
 40
1.0
  9
$FILLETRAD
 40
5.0
  9
$AUNITS
 70
     0
  9
$AUPREC
 70
     0
  9
$MENU
  1
.
  9
$ELEVATION
 40
0.0
  9
$PELEVATION
 40
0.0
  9
$THICKNESS
 40
0.0
  9
$LIMCHECK
 70
     0
  9
$BLIPMODE
 70
     0
  9
$CHAMFERA
 40
20.0
  9
$CHAMFERB
 40
20.0
  9
$CHAMFERC
 40
40.0
  9
$CHAMFERD
 40
0.0
  9
$SKPOLY
 70
     0
  9
$TDCREATE
 40
2451030.171642130
  9
$TDUPDATE
 40
2453502.428107269
  9
$TDINDWG
 40
0.0376540509
  9
$TDUSRTIMER
 40
0.0376540509
  9
$USRTIMER
 70
     1
  9
$ANGBASE
 50
0.0
  9
$ANGDIR
 70
     0
  9
$PDMODE
 70
     0
  9
$PDSIZE
 40
0.0
  9
$PLINEWID
 40
0.0
  9
$COORDS
 70
     1
  9
$SPLFRAME
 70
     0
  9
$SPLINETYPE
 70
     6
  9
$SPLINESEGS
 70
     8
  9
$ATTDIA
 70
     0
  9
$ATTREQ
 70
     1
  9
$HANDLING
 70
 10241
  9
$HANDSEED
  5
C5C
  9
$SURFTAB1
 70
     6
  9
$SURFTAB2
 70
     6
  9
$SURFTYPE
 70
     6
  9
$SURFU
 70
     6
  9
$SURFV
 70
     6
  9
$UCSNAME
  2

  9
$UCSORG
 10
0.0
 20
0.0
 30
0.0
  9
$UCSXDIR
 10
1.0
 20
0.0
 30
0.0
  9
$UCSYDIR
 10
0.0
 20
1.0
 30
0.0
  9
$PUCSNAME
  2

  9
$PUCSORG
 10
0.0
 20
0.0
 30
0.0
  9
$PUCSXDIR
 10
1.0
 20
0.0
 30
0.0
  9
$PUCSYDIR
 10
0.0
 20
1.0
 30
0.0
  9
$USERI1
 70
     0
  9
$USERI2
 70
     0
  9
$USERI3
 70
     0
  9
$USERI4
 70
     0
  9
$USERI5
 70
     0
  9
$USERR1
 40
0.0
  9
$USERR2
 40
0.0
  9
$USERR3
 40
0.0
  9
$USERR4
 40
0.0
  9
$USERR5
 40
0.0
  9
$WORLDVIEW
 70
     1
  9
$SHADEDGE
 70
     3
  9
$SHADEDIF
 70
    70
  9
$TILEMODE
 70
     1
  9
$MAXACTVP
 70
    16
  9
$PINSBASE
 10
0.0
 20
0.0
 30
0.0
  9
$PLIMCHECK
 70
     0
  9
$PEXTMIN
 10
0.0
 20
0.0
 30
0.0
  9
$PEXTMAX
 10
420.0
 20
297.0
 30
0.0
  9
$PLIMMIN
 10
0.0
 20
0.0
  9
$PLIMMAX
 10
420.0
 20
297.0
  9
$UNITMODE
 70
     0
  9
$VISRETAIN
 70
     0
  9
$PLINEGEN
 70
     0
  9
$PSLTSCALE
 70
     1
  9
$TREEDEPTH
 70
  3020
  9
$PICKSTYLE
 70
     1
  9
$CMLSTYLE
  2
STANDARD
  9
$CMLJUST
 70
     0
  9
$CMLSCALE
 40
1.0
  9
$PROXYGRAPHICS
 70
     1
  9
$MEASUREMENT
 70
     1
  0
ENDSEC
  0
SECTION
  2
CLASSES
  0
CLASS
  1
ACDBDICTIONARYWDFLT
  2
AcDbDictionaryWithDefault
  3
AutoCAD 2000
 90
        0
280
     0
281
     0
  0
CLASS
  1
ACDBPLACEHOLDER
  2
AcDbPlaceHolder
  3
AutoCAD 2000
 90
        0
280
     0
281
     0
  0
CLASS
  1
LAYOUT
  2
AcDbLayout
  3
AutoCAD 2000
 90
        0
280
     0
281
     0
  0
CLASS
  1
LONG_TRANSACTION
  2
AcDbLongTransaction
  3
AutoCAD 2000
 90
        0
280
     0
281
     0
  0
CLASS
  1
LWPOLYLINE
  2
AcDbPolyline
  3
AutoCAD 2000
 90
        0
280
     0
281
     1
  0
CLASS
  1
HATCH
  2
AcDbHatch
  3
AutoCAD 2000
 90
        0
280
     0
281
     1
  0
CLASS
  1
XRECORD
  2
AcDbXrecord
  3
AutoCAD 2000
 90
        0
280
     0
281
     0
  0
CLASS
  1
LONG_TRANSACTION
  2
AcDbLongTransaction
  3
AutoCAD 2000
 90
        0
280
     0
281
     0
  0
CLASS
  1
LWPOLYLINE
  2
AcDbPolyline
  3
AutoCAD 2000
 90
        0
280
     0
281
     1
  0
CLASS
  1
HATCH
  2
AcDbHatch
  3
AutoCAD 2000
 90
        0
280
     0
281
     1
  0
CLASS
  1
XRECORD
  2
AcDbXrecord
  3
AutoCAD 2000
 90
        0
280
     0
281
     0
  0
CLASS
  1
LONG_TRANSACTION
  2
AcDbLongTransaction
  3
AutoCAD 2000
 90
        0
280
     0
281
     0
  0
CLASS
  1
LWPOLYLINE
  2
AcDbPolyline
  3
AutoCAD 2000
 90
        0
280
     0
281
     1
  0
CLASS
  1
HATCH
  2
AcDbHatch
  3
AutoCAD 2000
 90
        0
280
     0
281
     1
  0
CLASS
  1
XRECORD
  2
AcDbXrecord
  3
AutoCAD 2000
 90
        0
280
     0
281
     0
  0
ENDSEC
  0
SECTION
  2
TABLES
  0
TABLE
  2
VPORT
  5
8
330
0
100
AcDbSymbolTable
 70
     2
  0
VPORT
  5
C30
330
8
100
AcDbSymbolTableRecord
100
AcDbViewportTableRecord
  2
*ACTIVE
 70
     0
 10
0.0
 20
0.0
 11
1.0
 21
1.0
 12
419.9935950246111
 22
296.9954707674035
 13
0.0
 23
0.0
 14
5.0
 24
5.0
 15
0.0
 25
0.0
 16
0.0
 26
0.0
 36
1.0
 17
0.0
 27
0.0
 37
0.0
 40
600.5848044998627
 41
1.752310536044362
 42
50.0
 43
0.0
 44
0.0
 50
0.0
 51
0.0
 71
     0
 72
   100
 73
     1
 74
     0
 75
     0
 76
     0
 77
     0
 78
     0
  0
ENDTAB
  0
TABLE
  2
LTYPE
  5
5
330
0
100
AcDbSymbolTable
 70
     3
  0
LTYPE
  5
14
330
5
100
AcDbSymbolTableRecord
100
AcDbLinetypeTableRecord
  2
BYBLOCK
 70
     0
  3

 72
    65
 73
     0
 40
0.0
  0
LTYPE
  5
15
330
5
100
AcDbSymbolTableRecord
100
AcDbLinetypeTableRecord
  2
BYLAYER
 70
     0
  3

 72
    65
 73
     0
 40
0.0
  0
LTYPE
  5
16
330
5
100
AcDbSymbolTableRecord
100
AcDbLinetypeTableRecord
  2
CONTINUOUS
 70
     0
  3
Solid line
 72
    65
 73
     0
 40
0.0
  0
LTYPE
  5
115
330
5
100
AcDbSymbolTableRecord
100
AcDbLinetypeTableRecord
  2
PHANTOM
 70
     0
  3
______  __  __  ______  __  __  ______  __  __ 
 72
    65
 73
     6
 40
2.5
 49
1.25
 74
     0
 49
-0.25
 74
     0
 49
0.25
 74
     0
 49
-0.25
 74
     0
 49
0.25
 74
     0
 49
-0.25
 74
     0
  0
LTYPE
  5
135
330
5
100
AcDbSymbolTableRecord
100
AcDbLinetypeTableRecord
  2
CENTER
 70
     0
  3
____ _ ____ _ ____ _ ____ _ ____ _ ____ _ ____ 
 72
    65
 73
     4
 40
2.0
 49
1.25
 74
     0
 49
-0.25
 74
     0
 49
0.25
 74
     0
 49
-0.25
 74
     0
  0
ENDTAB
  0
TABLE
  2
LAYER
  5
2
330
0
100
AcDbSymbolTable
 70
     9
  0
LAYER
  5
F
330
2
100
AcDbSymbolTableRecord
100
AcDbLayerTableRecord
  2
0
 70
     0
 62
     7
  6
CONTINUOUS
  0
LAYER
  5
62
330
2
100
AcDbSymbolTableRecord
100
AcDbLayerTableRecord
  2
VIEWPORT
 70
     0
 62
     7
  6
CONTINUOUS
  0
LAYER
  5
65
330
2
100
AcDbSymbolTableRecord
100
AcDbLayerTableRecord
  2
ZUWAKU
 70
     0
 62
     7
  6
CONTINUOUS
  0
LAYER
  5
144
330
2
100
AcDbSymbolTableRecord
100
AcDbLayerTableRecord
  2
SEIHIN
 70
     0
 62
     3
  6
CONTINUOUS
  0
LAYER
  5
145
330
2
100
AcDbSymbolTableRecord
100
AcDbLayerTableRecord
  2
SUNPOU
 70
     0
 62
     4
  6
CONTINUOUS
  0
LAYER
  5
146
330
2
100
AcDbSymbolTableRecord
100
AcDbLayerTableRecord
  2
CENTER_L
 70
     0
 62
     1
  6
CENTER
  0
LAYER
  5
382
330
2
100
AcDbSymbolTableRecord
100
AcDbLayerTableRecord
  2
DEFPOINTS
 70
     0
 62
     7
  6
CONTINUOUS
  0
LAYER
  5
6CC
330
2
100
AcDbSymbolTableRecord
100
AcDbLayerTableRecord
  2
S120
 70
     0
 62
     8
  6
PHANTOM
  0
LAYER
  5
93B
330
2
100
AcDbSymbolTableRecord
100
AcDbLayerTableRecord
  2
MOJI
 70
     0
 62
     2
  6
CONTINUOUS
  0
ENDTAB
  0
TABLE
  2
STYLE
  5
3
330
0
100
AcDbSymbolTable
 70
     2
  0
STYLE
  5
10
330
3
100
AcDbSymbolTableRecord
100
AcDbTextStyleTableRecord
  2
STANDARD
 70
     0
 40
0.0
 41
1.0
 50
0.0
 71
     0
 42
5.0
  3
TXT
  4
bigfont.shx
  0
STYLE
  5
93C
330
3
100
AcDbSymbolTableRecord
100
AcDbTextStyleTableRecord
  2
ｽﾀｲﾙ1
 70
     0
 40
0.0
 41
1.0
 50
0.0
 71
     0
 42
2.5
  3
MS PGothic.ttf
  4

1001
ACAD
1000
MS PGothic
1071
    32818
  0
ENDTAB
  0
TABLE
  2
VIEW
  5
6
330
0
100
AcDbSymbolTable
 70
     0
  0
ENDTAB
  0
TABLE
  2
UCS
  5
7
330
0
100
AcDbSymbolTable
 70
     0
  0
ENDTAB
  0
TABLE
  2
APPID
  5
9
330
0
100
AcDbSymbolTable
 70
     1
  0
APPID
  5
11
330
9
100
AcDbSymbolTableRecord
100
AcDbRegAppTableRecord
  2
ACAD
 70
     0
  0
ENDTAB
  0
TABLE
  2
DIMSTYLE
  5
A
330
0
100
AcDbSymbolTable
 70
     1
  0
DIMSTYLE
105
1D
102
{ACAD_REACTORS
330
387
330
394
330
3A1
330
3AE
330
3D9
330
3E6
330
3F3
330
402
330
40E
330
455
330
47D
330
4E9
330
4F8
330
507
102
}
330
A
100
AcDbSymbolTableRecord
100
AcDbDimStyleTableRecord
  2
STANDARD
 70
     0
  3

  4

  5

  6

  7

 40
1.0
 41
0.18
 42
0.0625
 43
0.38
 44
0.18
 45
0.0
 46
0.0
 47
0.0
 48
0.0
140
0.18
141
0.09
142
0.0
143
25.4
144
1.0
145
0.0
146
1.0
147
0.09
 71
     0
 72
     0
 73
     1
 74
     1
 75
     0
 76
     0
 77
     0
 78
     0
170
     0
171
     2
172
     0
173
     0
174
     0
175
     0
176
     0
177
     0
178
     0
270
     2
271
     4
272
     4
273
     2
274
     2
340
10
275
     0
280
     0
281
     0
282
     0
283
     1
284
     0
285
     0
286
     0
287
     3
288
     0
  0
ENDTAB
  0
TABLE
  2
BLOCK_RECORD
  5
1
330
0
100
AcDbSymbolTable
 70
    15
  0
BLOCK_RECORD
  5
1A
102
{ACAD_XDICTIONARY
360
8DE
102
}
330
1
100
AcDbSymbolTableRecord
100
AcDbBlockTableRecord
  2
*MODEL_SPACE
  0
BLOCK_RECORD
  5
17
102
{ACAD_XDICTIONARY
360
8DC
102
}
330
1
100
AcDbSymbolTableRecord
100
AcDbBlockTableRecord
  2
*PAPER_SPACE
  0
BLOCK_RECORD
  5
6D
330
1
100
AcDbSymbolTableRecord
100
AcDbBlockTableRecord
  2
_OPEN
  0
BLOCK_RECORD
  5
37A
330
1
100
AcDbSymbolTableRecord
100
AcDbBlockTableRecord
  2
*D1
  0
BLOCK_RECORD
  5
388
330
1
100
AcDbSymbolTableRecord
100
AcDbBlockTableRecord
  2
*D2
  0
BLOCK_RECORD
  5
395
330
1
100
AcDbSymbolTableRecord
100
AcDbBlockTableRecord
  2
*D3
  0
BLOCK_RECORD
  5
3A2
330
1
100
AcDbSymbolTableRecord
100
AcDbBlockTableRecord
  2
*D4
  0
BLOCK_RECORD
  5
3CB
330
1
100
AcDbSymbolTableRecord
100
AcDbBlockTableRecord
  2
*D5
  0
BLOCK_RECORD
  5
3DA
330
1
100
AcDbSymbolTableRecord
100
AcDbBlockTableRecord
  2
*D6
  0
BLOCK_RECORD
  5
3E7
330
1
100
AcDbSymbolTableRecord
100
AcDbBlockTableRecord
  2
*D7
  0
BLOCK_RECORD
  5
3F4
330
1
100
AcDbSymbolTableRecord
100
AcDbBlockTableRecord
  2
*D8
  0
BLOCK_RECORD
  5
403
330
1
100
AcDbSymbolTableRecord
100
AcDbBlockTableRecord
  2
*D9
  0
BLOCK_RECORD
  5
449
330
1
100
AcDbSymbolTableRecord
100
AcDbBlockTableRecord
  2
*D10
  0
BLOCK_RECORD
  5
46F
330
1
100
AcDbSymbolTableRecord
100
AcDbBlockTableRecord
  2
*D11
  0
BLOCK_RECORD
  5
4DD
330
1
100
AcDbSymbolTableRecord
100
AcDbBlockTableRecord
  2
*D12
  0
BLOCK_RECORD
  5
4EA
330
1
100
AcDbSymbolTableRecord
100
AcDbBlockTableRecord
  2
*D13
  0
BLOCK_RECORD
  5
4F9
330
1
100
AcDbSymbolTableRecord
100
AcDbBlockTableRecord
  2
*D14
  0
ENDTAB
  0
ENDSEC
  0
SECTION
  2
BLOCKS
  0
BLOCK
  5
1B
330
1A
100
AcDbEntity
  8
0
100
AcDbBlockBegin
  2
*MODEL_SPACE
 70
     0
 10
0.0
 20
0.0
 30
0.0
  3
*MODEL_SPACE
  1

  0
ENDBLK
  5
1C
330
1A
100
AcDbEntity
  8
0
100
AcDbBlockEnd
  0
BLOCK
  5
18
330
17
100
AcDbEntity
 67
     1
  8
0
100
AcDbBlockBegin
  2
*PAPER_SPACE
 70
     0
 10
0.0
 20
0.0
 30
0.0
  3
*PAPER_SPACE
  1

  0
ENDBLK
  5
19
330
17
100
AcDbEntity
 67
     1
  8
0
100
AcDbBlockEnd
  0
BLOCK
  5
6E
330
6D
100
AcDbEntity
  8
0
100
AcDbBlockBegin
  2
_OPEN
 70
     0
 10
0.0
 20
0.0
 30
0.0
  3
_OPEN
  1

  0
LINE
  5
6F
330
6D
100
AcDbEntity
  8
0
  6
BYBLOCK
 62
     0
100
AcDbLine
 10
-1.0
 20
0.1666666666666666
 30
0.0
 11
0.0
 21
0.0
 31
0.0
  0
LINE
  5
70
330
6D
100
AcDbEntity
  8
0
  6
BYBLOCK
 62
     0
100
AcDbLine
 10
0.0
 20
0.0
 30
0.0
 11
-1.0
 21
-0.1666666666666666
 31
0.0
  0
LINE
  5
71
330
6D
100
AcDbEntity
  8
0
  6
BYBLOCK
 62
     0
100
AcDbLine
 10
0.0
 20
0.0
 30
0.0
 11
-1.0
 21
0.0
 31
0.0
  0
ENDBLK
  5
72
330
6D
100
AcDbEntity
  8
0
100
AcDbBlockEnd
  0
BLOCK
  5
61E
330
37A
100
AcDbEntity
  8
0
100
AcDbBlockBegin
  2
*D1
 70
     1
 10
0.0
 20
0.0
 30
0.0
  3
*D1
  1

  0
LINE
  5
61F
330
37A
100
AcDbEntity
  8
0
  6
BYBLOCK
 62
     4
100
AcDbLine
 10
369.3680112888047
 20
454.7066031292344
 30
0.0
 11
405.3695146875274
 21
454.7066031292344
 31
0.0
  0
LINE
  5
620
330
37A
100
AcDbEntity
  8
0
  6
BYBLOCK
 62
     4
100
AcDbLine
 10
369.3680112888047
 20
374.7066031292344
 30
0.0
 11
405.3695146875274
 21
374.7066031292344
 31
0.0
  0
LINE
  5
621
330
37A
100
AcDbEntity
  8
0
  6
BYBLOCK
 62
     4
100
AcDbLine
 10
402.3695146875274
 20
447.7066031292344
 30
0.0
 11
402.3695146875274
 21
381.7066031292343
 31
0.0
  0
INSERT
  5
622
330
37A
100
AcDbEntity
  8
0
  6
BYBLOCK
 62
     4
100
AcDbBlockReference
  2
_OPEN
 10
402.3695146875274
 20
454.7066031292344
 30
0.0
 41
7.0
 42
7.0
 43
7.0
 50
90.0
  0
INSERT
  5
623
330
37A
100
AcDbEntity
  8
0
  6
BYBLOCK
 62
     4
100
AcDbBlockReference
  2
_OPEN
 10
402.3695146875274
 20
374.7066031292344
 30
0.0
 41
7.0
 42
7.0
 43
7.0
 50
270.0
  0
MTEXT
  5
624
330
37A
100
AcDbEntity
  8
0
  6
BYBLOCK
 62
     4
100
AcDbMText
 10
397.3695146875275
 20
414.7066031292344
 30
0.0
 40
6.0
 41
0.0
 71
     5
 72
     5
  1
\A1;80
 11
0.0
 21
1.0
 31
0.0
1001
ACAD
1000
MTEXTBEGIN
1070
    73
1070
     1
1070
    44
1040
1.0
1070
    74
1070
     0
1000
MTEXTEND
1000
MTEXTBEGIN
1070
    73
1070
     1
1070
    44
1040
1.0
1070
    74
1070
     0
1000
MTEXTEND
1000
MTEXTBEGIN
1070
    73
1070
     1
1070
    44
1040
1.0
1070
    74
1070
     0
1000
MTEXTEND
  0
POINT
  5
625
330
37A
100
AcDbEntity
  8
DEFPOINTS
  6
BYBLOCK
 62
     0
100
AcDbPoint
 10
363.3680112888047
 20
454.7066031292344
 30
0.0
  0
POINT
  5
626
330
37A
100
AcDbEntity
  8
DEFPOINTS
  6
BYBLOCK
 62
     0
100
AcDbPoint
 10
363.3680112888047
 20
374.7066031292344
 30
0.0
  0
POINT
  5
627
330
37A
100
AcDbEntity
  8
DEFPOINTS
  6
BYBLOCK
 62
     0
100
AcDbPoint
 10
402.3695146875274
 20
374.7066031292344
 30
0.0
  0
ENDBLK
  5
628
330
37A
100
AcDbEntity
  8
0
100
AcDbBlockEnd
  0
BLOCK
  5
608
330
388
100
AcDbEntity
  8
0
100
AcDbBlockBegin
  2
*D2
 70
     1
 10
0.0
 20
0.0
 30
0.0
  3
*D2
  1

  0
LINE
  5
609
330
388
100
AcDbEntity
  8
0
  6
BYBLOCK
 62
     4
100
AcDbLine
 10
202.7262112888048
 20
429.7066031292344
 30
0.0
 11
178.0732683172855
 21
429.7066031292344
 31
0.0
  0
LINE
  5
60A
330
388
100
AcDbEntity
  8
0
  6
BYBLOCK
 62
     4
100
AcDbLine
 10
202.7262112888048
 20
399.7066031292344
 30
0.0
 11
178.0732683172855
 21
399.7066031292344
 31
0.0
  0
LINE
  5
60B
330
388
100
AcDbEntity
  8
0
  6
BYBLOCK
 62
     4
100
AcDbLine
 10
181.0732683172855
 20
422.7066031292344
 30
0.0
 11
181.0732683172855
 21
406.7066031292344
 31
0.0
  0
INSERT
  5
60C
330
388
100
AcDbEntity
  8
0
  6
BYBLOCK
 62
     4
100
AcDbBlockReference
  2
_OPEN
 10
181.0732683172855
 20
429.7066031292344
 30
0.0
 41
7.0
 42
7.0
 43
7.0
 50
90.0
  0
INSERT
  5
60D
330
388
100
AcDbEntity
  8
0
  6
BYBLOCK
 62
     4
100
AcDbBlockReference
  2
_OPEN
 10
181.0732683172855
 20
399.7066031292344
 30
0.0
 41
7.0
 42
7.0
 43
7.0
 50
270.0
  0
MTEXT
  5
60E
330
388
100
AcDbEntity
  8
0
  6
BYBLOCK
 62
     4
100
AcDbMText
 10
176.0732683172855
 20
414.7066031292344
 30
0.0
 40
6.0
 41
0.0
 71
     5
 72
     5
  1
\A1;30
 11
0.0
 21
1.0
 31
0.0
1001
ACAD
1000
MTEXTBEGIN
1070
    73
1070
     1
1070
    44
1040
1.0
1070
    74
1070
     0
1000
MTEXTEND
1000
MTEXTBEGIN
1070
    73
1070
     1
1070
    44
1040
1.0
1070
    74
1070
     0
1000
MTEXTEND
1000
MTEXTBEGIN
1070
    73
1070
     1
1070
    44
1040
1.0
1070
    74
1070
     0
1000
MTEXTEND
  0
POINT
  5
60F
330
388
100
AcDbEntity
  8
DEFPOINTS
  6
BYBLOCK
 62
     0
100
AcDbPoint
 10
208.7262112888047
 20
429.7066031292344
 30
0.0
  0
POINT
  5
610
330
388
100
AcDbEntity
  8
DEFPOINTS
  6
BYBLOCK
 62
     0
100
AcDbPoint
 10
208.7262112888047
 20
399.7066031292344
 30
0.0
  0
POINT
  5
611
330
388
100
AcDbEntity
  8
DEFPOINTS
  6
BYBLOCK
 62
     0
100
AcDbPoint
 10
181.0732683172855
 20
399.7066031292344
 30
0.0
  0
ENDBLK
  5
612
330
388
100
AcDbEntity
  8
0
100
AcDbBlockEnd
  0
BLOCK
  5
613
330
395
100
AcDbEntity
  8
0
100
AcDbBlockBegin
  2
*D3
 70
     1
 10
0.0
 20
0.0
 30
0.0
  3
*D3
  1

  0
LINE
  5
614
330
395
100
AcDbEntity
  8
0
  6
BYBLOCK
 62
     4
100
AcDbLine
 10
369.3679112888048
 20
251.6167520020086
 30
0.0
 11
405.3695146875274
 21
251.6167520020086
 31
0.0
  0
LINE
  5
615
330
395
100
AcDbEntity
  8
0
  6
BYBLOCK
 62
     4
100
AcDbLine
 10
364.3679112888048
 20
178.6166520020087
 30
0.0
 11
405.3695146875274
 21
178.6166520020087
 31
0.0
  0
LINE
  5
616
330
395
100
AcDbEntity
  8
0
  6
BYBLOCK
 62
     4
100
AcDbLine
 10
402.3695146875274
 20
244.6167520020086
 30
0.0
 11
402.3695146875274
 21
185.6166520020087
 31
0.0
  0
INSERT
  5
617
330
395
100
AcDbEntity
  8
0
  6
BYBLOCK
 62
     4
100
AcDbBlockReference
  2
_OPEN
 10
402.3695146875274
 20
251.6167520020086
 30
0.0
 41
7.0
 42
7.0
 43
7.0
 50
90.0
  0
INSERT
  5
618
330
395
100
AcDbEntity
  8
0
  6
BYBLOCK
 62
     4
100
AcDbBlockReference
  2
_OPEN
 10
402.3695146875274
 20
178.6166520020087
 30
0.0
 41
7.0
 42
7.0
 43
7.0
 50
270.0
  0
MTEXT
  5
619
330
395
100
AcDbEntity
  8
0
  6
BYBLOCK
 62
     4
100
AcDbMText
 10
397.3695146875275
 20
215.1167020020086
 30
0.0
 40
6.0
 41
0.0
 71
     5
 72
     5
  1
\A1;73
 11
0.0
 21
1.0
 31
0.0
1001
ACAD
1000
MTEXTBEGIN
1070
    73
1070
     1
1070
    44
1040
1.0
1070
    74
1070
     0
1000
MTEXTEND
1000
MTEXTBEGIN
1070
    73
1070
     1
1070
    44
1040
1.0
1070
    74
1070
     0
1000
MTEXTEND
1000
MTEXTBEGIN
1070
    73
1070
     1
1070
    44
1040
1.0
1070
    74
1070
     0
1000
MTEXTEND
  0
POINT
  5
61A
330
395
100
AcDbEntity
  8
DEFPOINTS
  6
BYBLOCK
 62
     0
100
AcDbPoint
 10
363.3679112888048
 20
251.6167520020086
 30
0.0
  0
POINT
  5
61B
330
395
100
AcDbEntity
  8
DEFPOINTS
  6
BYBLOCK
 62
     0
100
AcDbPoint
 10
358.3679112888048
 20
178.6166520020087
 30
0.0
  0
POINT
  5
61C
330
395
100
AcDbEntity
  8
DEFPOINTS
  6
BYBLOCK
 62
     0
100
AcDbPoint
 10
402.3695146875274
 20
178.6166520020087
 30
0.0
  0
ENDBLK
  5
61D
330
395
100
AcDbEntity
  8
0
100
AcDbBlockEnd
  0
BLOCK
  5
5FD
330
3A2
100
AcDbEntity
  8
0
100
AcDbBlockBegin
  2
*D4
 70
     1
 10
0.0
 20
0.0
 30
0.0
  3
*D4
  1

  0
LINE
  5
5FE
330
3A2
100
AcDbEntity
  8
0
  6
BYBLOCK
 62
     4
100
AcDbLine
 10
210.1422112888047
 20
255.6294520020087
 30
0.0
 11
178.0732683172855
 21
255.6294520020087
 31
0.0
  0
LINE
  5
5FF
330
3A2
100
AcDbEntity
  8
0
  6
BYBLOCK
 62
     4
100
AcDbLine
 10
350.3679112888048
 20
179.1166520020087
 30
0.0
 11
178.0732683172855
 21
179.1166520020087
 31
0.0
  0
LINE
  5
600
330
3A2
100
AcDbEntity
  8
0
  6
BYBLOCK
 62
     4
100
AcDbLine
 10
181.0732683172855
 20
248.6294520020087
 30
0.0
 11
181.0732683172855
 21
186.1166520020086
 31
0.0
  0
INSERT
  5
601
330
3A2
100
AcDbEntity
  8
0
  6
BYBLOCK
 62
     4
100
AcDbBlockReference
  2
_OPEN
 10
181.0732683172855
 20
255.6294520020087
 30
0.0
 41
7.0
 42
7.0
 43
7.0
 50
90.0
  0
INSERT
  5
602
330
3A2
100
AcDbEntity
  8
0
  6
BYBLOCK
 62
     4
100
AcDbBlockReference
  2
_OPEN
 10
181.0732683172855
 20
179.1166520020087
 30
0.0
 41
7.0
 42
7.0
 43
7.0
 50
270.0
  0
MTEXT
  5
603
330
3A2
100
AcDbEntity
  8
0
  6
BYBLOCK
 62
     4
100
AcDbMText
 10
176.0732683172855
 20
217.3730520020086
 30
0.0
 40
6.0
 41
0.0
 71
     5
 72
     5
  1
\A1;77
 11
0.0
 21
1.0
 31
0.0
1001
ACAD
1000
MTEXTBEGIN
1070
    73
1070
     1
1070
    44
1040
1.0
1070
    74
1070
     0
1000
MTEXTEND
1000
MTEXTBEGIN
1070
    73
1070
     1
1070
    44
1040
1.0
1070
    74
1070
     0
1000
MTEXTEND
1000
MTEXTBEGIN
1070
    73
1070
     1
1070
    44
1040
1.0
1070
    74
1070
     0
1000
MTEXTEND
  0
POINT
  5
604
330
3A2
100
AcDbEntity
  8
DEFPOINTS
  6
BYBLOCK
 62
     0
100
AcDbPoint
 10
216.1422112888047
 20
255.6294520020087
 30
0.0
  0
POINT
  5
605
330
3A2
100
AcDbEntity
  8
DEFPOINTS
  6
BYBLOCK
 62
     0
100
AcDbPoint
 10
356.3679112888048
 20
179.1166520020087
 30
0.0
  0
POINT
  5
606
330
3A2
100
AcDbEntity
  8
DEFPOINTS
  6
BYBLOCK
 62
     0
100
AcDbPoint
 10
181.0732683172855
 20
179.1166520020087
 30
0.0
  0
ENDBLK
  5
607
330
3A2
100
AcDbEntity
  8
0
100
AcDbBlockEnd
  0
BLOCK
  5
6B4
330
3CB
100
AcDbEntity
  8
0
100
AcDbBlockBegin
  2
*D5
 70
     1
 10
0.0
 20
0.0
 30
0.0
  3
*D5
  1

  0
LINE
  5
6B5
330
3CB
100
AcDbEntity
  8
0
  6
BYBLOCK
 62
     4
100
AcDbLine
 10
357.5500104497909
 20
162.4865610296323
 30
0.0
 11
357.5500104497909
 21
130.5738453398268
 31
0.0
  0
LINE
  5
6B6
330
3CB
100
AcDbEntity
  8
0
  6
BYBLOCK
 62
     4
100
AcDbLine
 10
364.550010449791
 20
165.9865610296324
 30
0.0
 11
364.550010449791
 21
130.5738453398268
 31
0.0
  0
LINE
  5
6B7
330
3CB
100
AcDbEntity
  8
0
  6
BYBLOCK
 62
     4
100
AcDbLine
 10
350.5500104497909
 20
133.5738453398269
 30
0.0
 11
343.550010449791
 21
133.5738453398269
 31
0.0
  0
LINE
  5
6B8
330
3CB
100
AcDbEntity
  8
0
  6
BYBLOCK
 62
     4
100
AcDbLine
 10
371.5500104497909
 20
133.5738453398269
 30
0.0
 11
399.550010449791
 21
133.5738453398269
 31
0.0
  0
LINE
  5
6B9
330
3CB
100
AcDbEntity
  8
0
  6
BYBLOCK
 62
     4
100
AcDbLine
 10
357.5500104497909
 20
133.5738453398269
 30
0.0
 11
364.550010449791
 21
133.5738453398269
 31
0.0
  0
INSERT
  5
6BA
330
3CB
100
AcDbEntity
  8
0
  6
BYBLOCK
 62
     4
100
AcDbBlockReference
  2
_OPEN
 10
357.5500104497909
 20
133.5738453398269
 30
0.0
 41
7.0
 42
7.0
 43
7.0
  0
INSERT
  5
6BB
330
3CB
100
AcDbEntity
  8
0
  6
BYBLOCK
 62
     4
100
AcDbBlockReference
  2
_OPEN
 10
364.550010449791
 20
133.5738453398269
 30
0.0
 41
7.0
 42
7.0
 43
7.0
 50
180.0
  0
MTEXT
  5
6BC
330
3CB
100
AcDbEntity
  8
0
  6
BYBLOCK
 62
     4
100
AcDbMText
 10
389.050010449791
 20
138.5738453398269
 30
0.0
 40
6.0
 41
0.0
 71
     5
 72
     5
  1
\A1;t7.0
1001
ACAD
1000
MTEXTBEGIN
1070
    73
1070
     1
1070
    44
1040
1.0
1070
    74
1070
     0
1000
MTEXTEND
1000
MTEXTBEGIN
1070
    73
1070
     1
1070
    44
1040
1.0
1070
    74
1070
     0
1000
MTEXTEND
1000
MTEXTBEGIN
1070
    73
1070
     1
1070
    44
1040
1.0
1070
    74
1070
     0
1000
MTEXTEND
  0
POINT
  5
6BD
330
3CB
100
AcDbEntity
  8
DEFPOINTS
  6
BYBLOCK
 62
     0
100
AcDbPoint
 10
357.5500104497909
 20
168.4865610296323
 30
0.0
  0
POINT
  5
6BE
330
3CB
100
AcDbEntity
  8
DEFPOINTS
  6
BYBLOCK
 62
     0
100
AcDbPoint
 10
364.550010449791
 20
171.9865610296324
 30
0.0
  0
POINT
  5
6BF
330
3CB
100
AcDbEntity
  8
DEFPOINTS
  6
BYBLOCK
 62
     0
100
AcDbPoint
 10
364.550010449791
 20
133.5738453398269
 30
0.0
  0
ENDBLK
  5
6C0
330
3CB
100
AcDbEntity
  8
0
100
AcDbBlockEnd
  0
BLOCK
  5
629
330
3DA
100
AcDbEntity
  8
0
100
AcDbBlockBegin
  2
*D6
 70
     1
 10
0.0
 20
0.0
 30
0.0
  3
*D6
  1

  0
LINE
  5
62A
330
3DA
100
AcDbEntity
  8
0
  6
BYBLOCK
 62
     4
100
AcDbLine
 10
535.0567600504275
 20
248.2684520020087
 30
0.0
 11
535.0567600504275
 21
280.5540705704888
 31
0.0
  0
LINE
  5
62B
330
3DA
100
AcDbEntity
  8
0
  6
BYBLOCK
 62
     4
100
AcDbLine
 10
599.0569600504275
 20
248.2684520020087
 30
0.0
 11
599.0569600504275
 21
280.5540705704888
 31
0.0
  0
LINE
  5
62C
330
3DA
100
AcDbEntity
  8
0
  6
BYBLOCK
 62
     4
100
AcDbLine
 10
542.0567600504275
 20
277.5540705704888
 30
0.0
 11
592.0569600504275
 21
277.5540705704888
 31
0.0
  0
INSERT
  5
62D
330
3DA
100
AcDbEntity
  8
0
  6
BYBLOCK
 62
     4
100
AcDbBlockReference
  2
_OPEN
 10
535.0567600504275
 20
277.5540705704888
 30
0.0
 41
7.0
 42
7.0
 43
7.0
 50
180.0
  0
INSERT
  5
62E
330
3DA
100
AcDbEntity
  8
0
  6
BYBLOCK
 62
     4
100
AcDbBlockReference
  2
_OPEN
 10
599.0569600504275
 20
277.5540705704888
 30
0.0
 41
7.0
 42
7.0
 43
7.0
  0
MTEXT
  5
62F
330
3DA
100
AcDbEntity
  8
0
  6
BYBLOCK
 62
     4
100
AcDbMText
 10
567.0568600504275
 20
282.5540705704888
 30
0.0
 40
6.0
 41
0.0
 71
     5
 72
     5
  1
\A1;64
1001
ACAD
1000
MTEXTBEGIN
1070
    73
1070
     1
1070
    44
1040
1.0
1070
    74
1070
     0
1000
MTEXTEND
1000
MTEXTBEGIN
1070
    73
1070
     1
1070
    44
1040
1.0
1070
    74
1070
     0
1000
MTEXTEND
1000
MTEXTBEGIN
1070
    73
1070
     1
1070
    44
1040
1.0
1070
    74
1070
     0
1000
MTEXTEND
  0
POINT
  5
630
330
3DA
100
AcDbEntity
  8
DEFPOINTS
  6
BYBLOCK
 62
     0
100
AcDbPoint
 10
535.0567600504275
 20
242.2684520020087
 30
0.0
  0
POINT
  5
631
330
3DA
100
AcDbEntity
  8
DEFPOINTS
  6
BYBLOCK
 62
     0
100
AcDbPoint
 10
599.0569600504275
 20
242.2684520020087
 30
0.0
  0
POINT
  5
632
330
3DA
100
AcDbEntity
  8
DEFPOINTS
  6
BYBLOCK
 62
     0
100
AcDbPoint
 10
599.0569600504275
 20
277.5540705704888
 30
0.0
  0
ENDBLK
  5
633
330
3DA
100
AcDbEntity
  8
0
100
AcDbBlockEnd
  0
BLOCK
  5
3E8
330
3E7
100
AcDbEntity
  8
0
100
AcDbBlockBegin
  2
*D7
 70
     1
 10
0.0
 20
0.0
 30
0.0
  3
*D7
  1

  0
LINE
  5
3E9
330
3E7
100
AcDbEntity
  8
0
  6
BYBLOCK
 62
     4
100
AcDbLine
 10
527.2306338500554
 20
238.1402493170868
 30
0.0
 11
527.2306338500554
 21
286.3521647092652
 31
0.0
  0
LINE
  5
3EA
330
3E7
100
AcDbEntity
  8
0
  6
BYBLOCK
 62
     4
100
AcDbLine
 10
607.0569600504275
 20
237.4491886882395
 30
0.0
 11
607.0569600504275
 21
286.3521647092652
 31
0.0
  0
LINE
  5
3EB
330
3E7
100
AcDbEntity
  8
0
  6
BYBLOCK
 62
     4
100
AcDbLine
 10
534.2306338500553
 20
283.3521647092652
 30
0.0
 11
600.0569600504275
 21
283.3521647092652
 31
0.0
  0
INSERT
  5
3EC
330
3E7
100
AcDbEntity
  8
0
  6
BYBLOCK
 62
     4
100
AcDbBlockReference
  2
_OPEN
 10
527.2306338500554
 20
283.3521647092652
 30
0.0
 41
7.0
 42
7.0
 43
7.0
 50
180.0
  0
INSERT
  5
3ED
330
3E7
100
AcDbEntity
  8
0
  6
BYBLOCK
 62
     4
100
AcDbBlockReference
  2
_OPEN
 10
607.0569600504275
 20
283.3521647092652
 30
0.0
 41
7.0
 42
7.0
 43
7.0
  0
MTEXT
  5
3EE
330
3E7
100
AcDbEntity
  8
0
  6
BYBLOCK
 62
     4
100
AcDbMText
 10
567.1437969502415
 20
288.3521647092652
 30
0.0
 40
6.0
 41
0.0
 71
     5
 72
     5
  1
\A1;80
1001
ACAD
1000
MTEXTBEGIN
1070
    73
1070
     1
1070
    44
1040
1.0
1070
    74
1070
     0
1000
MTEXTEND
1000
MTEXTBEGIN
1070
    73
1070
     1
1070
    44
1040
1.0
1070
    74
1070
     0
1000
MTEXTEND
1000
MTEXTBEGIN
1070
    73
1070
     1
1070
    44
1040
1.0
1070
    74
1070
     0
1000
MTEXTEND
  0
POINT
  5
3EF
330
3E7
100
AcDbEntity
  8
DEFPOINTS
  6
BYBLOCK
 62
     0
100
AcDbPoint
 10
527.2306338500554
 20
232.1402493170868
 30
0.0
  0
POINT
  5
3F0
330
3E7
100
AcDbEntity
  8
DEFPOINTS
  6
BYBLOCK
 62
     0
100
AcDbPoint
 10
607.0569600504275
 20
231.4491886882395
 30
0.0
  0
POINT
  5
3F1
330
3E7
100
AcDbEntity
  8
DEFPOINTS
  6
BYBLOCK
 62
     0
100
AcDbPoint
 10
607.0569600504275
 20
283.3521647092652
 30
0.0
  0
ENDBLK
  5
3F2
330
3E7
100
AcDbEntity
  8
0
100
AcDbBlockEnd
  0
BLOCK
  5
3F5
330
3F4
100
AcDbEntity
  8
0
100
AcDbBlockBegin
  2
*D8
 70
     1
 10
0.0
 20
0.0
 30
0.0
  3
*D8
  1

  0
LINE
  5
3F6
330
3F4
100
AcDbEntity
  8
0
  6
BYBLOCK
 62
     4
100
AcDbLine
 10
561.0567600504275
 20
237.6745886882394
 30
0.0
 11
493.8284871633709
 21
237.6745886882394
 31
0.0
  0
LINE
  5
3F7
330
3F4
100
AcDbEntity
  8
0
  6
BYBLOCK
 62
     4
100
AcDbLine
 10
523.6273600504273
 20
222.6746886882395
 30
0.0
 11
493.8284871633709
 21
222.6746886882395
 31
0.0
  0
LINE
  5
3F8
330
3F4
100
AcDbEntity
  8
0
  6
BYBLOCK
 62
     4
100
AcDbLine
 10
496.8284871633709
 20
244.6745886882394
 30
0.0
 11
496.8284871633709
 21
251.6745886882394
 31
0.0
  0
LINE
  5
3F9
330
3F4
100
AcDbEntity
  8
0
  6
BYBLOCK
 62
     4
100
AcDbLine
 10
496.8284871633709
 20
215.6746886882395
 30
0.0
 11
496.8284871633709
 21
208.6746886882395
 31
0.0
  0
LINE
  5
3FA
330
3F4
100
AcDbEntity
  8
0
  6
BYBLOCK
 62
     4
100
AcDbLine
 10
496.8284871633709
 20
237.6745886882394
 30
0.0
 11
496.8284871633709
 21
222.6746886882395
 31
0.0
  0
INSERT
  5
3FB
330
3F4
100
AcDbEntity
  8
0
  6
BYBLOCK
 62
     4
100
AcDbBlockReference
  2
_OPEN
 10
496.8284871633709
 20
237.6745886882394
 30
0.0
 41
7.0
 42
7.0
 43
7.0
 50
270.0
  0
INSERT
  5
3FC
330
3F4
100
AcDbEntity
  8
0
  6
BYBLOCK
 62
     4
100
AcDbBlockReference
  2
_OPEN
 10
496.8284871633709
 20
222.6746886882395
 30
0.0
 41
7.0
 42
7.0
 43
7.0
 50
90.0
  0
MTEXT
  5
3FD
330
3F4
100
AcDbEntity
  8
0
  6
BYBLOCK
 62
     4
100
AcDbMText
 10
491.8284871633709
 20
230.1746386882395
 30
0.0
 40
6.0
 41
0.0
 71
     5
 72
     5
  1
\A1;15
 11
0.0
 21
1.0
 31
0.0
1001
ACAD
1000
MTEXTBEGIN
1070
    73
1070
     1
1070
    44
1040
1.0
1070
    74
1070
     0
1000
MTEXTEND
1000
MTEXTBEGIN
1070
    73
1070
     1
1070
    44
1040
1.0
1070
    74
1070
     0
1000
MTEXTEND
1000
MTEXTBEGIN
1070
    73
1070
     1
1070
    44
1040
1.0
1070
    74
1070
     0
1000
MTEXTEND
  0
POINT
  5
3FE
330
3F4
100
AcDbEntity
  8
DEFPOINTS
  6
BYBLOCK
 62
     0
100
AcDbPoint
 10
567.0567600504275
 20
237.6745886882394
 30
0.0
  0
POINT
  5
3FF
330
3F4
100
AcDbEntity
  8
DEFPOINTS
  6
BYBLOCK
 62
     0
100
AcDbPoint
 10
529.6273600504273
 20
222.6746886882395
 30
0.0
  0
POINT
  5
400
330
3F4
100
AcDbEntity
  8
DEFPOINTS
  6
BYBLOCK
 62
     0
100
AcDbPoint
 10
496.8284871633709
 20
222.6746886882395
 30
0.0
  0
ENDBLK
  5
401
330
3F4
100
AcDbEntity
  8
0
100
AcDbBlockEnd
  0
BLOCK
  5
404
330
403
100
AcDbEntity
  8
0
100
AcDbBlockBegin
  2
*D9
 70
     1
 10
0.0
 20
0.0
 30
0.0
  3
*D9
  1

  0
LINE
  5
C54
330
403
100
AcDbEntity
  8
SUNPOU
 62
     4
100
AcDbLine
 10
556.0137592114135
 20
175.9865610296324
 30
0.0
 11
495.010586324357
 21
175.9865610296324
 31
0.0
  0
LINE
  5
C55
330
403
100
AcDbEntity
  8
SUNPOU
 62
     4
100
AcDbLine
 10
498.010586324357
 20
218.9867610296324
 30
0.0
 11
498.010586324357
 21
182.9865610296324
 31
0.0
  0
INSERT
  5
C56
330
403
100
AcDbEntity
  8
SUNPOU
 62
     4
100
AcDbBlockReference
  2
_OPEN
 10
498.010586324357
 20
225.9867610296324
 30
0.0
 41
7.0
 42
7.0
 43
7.0
 50
90.0
  0
INSERT
  5
C57
330
403
100
AcDbEntity
  8
SUNPOU
 62
     4
100
AcDbBlockReference
  2
_OPEN
 10
498.010586324357
 20
175.9865610296324
 30
0.0
 41
7.0
 42
7.0
 43
7.0
 50
270.0
  0
MTEXT
  5
C58
330
403
100
AcDbEntity
  8
SUNPOU
 62
     4
100
AcDbMText
 10
493.010586324357
 20
200.9866610296325
 30
0.0
 40
6.0
 41
0.0
 71
     5
 72
     1
  1
\A1;50
 11
0.0000000000000001
 21
1.0
 31
0.0
  0
POINT
  5
C59
330
403
100
AcDbEntity
  8
DEFPOINTS
 62
     0
100
AcDbPoint
 10
530.8094592114135
 20
225.9867610296324
 30
0.0
  0
POINT
  5
C5A
330
403
100
AcDbEntity
  8
DEFPOINTS
 62
     0
100
AcDbPoint
 10
562.0137592114136
 20
175.9865610296324
 30
0.0
  0
POINT
  5
C5B
330
403
100
AcDbEntity
  8
DEFPOINTS
 62
     0
100
AcDbPoint
 10
498.010586324357
 20
175.9865610296324
 30
0.0
  0
ENDBLK
  5
40D
330
403
100
AcDbEntity
  8
0
100
AcDbBlockEnd
  0
BLOCK
  5
456
330
449
100
AcDbEntity
  8
0
100
AcDbBlockBegin
  2
*D10
 70
     1
 10
0.0
 20
0.0
 30
0.0
  3
*D10
  1

  0
LINE
  5
457
330
449
100
AcDbEntity
  8
0
  6
BYBLOCK
 62
     4
100
AcDbLine
 10
587.0567656363991
 20
158.6744886882395
 30
0.0
 11
587.0567656363991
 21
133.8978757323513
 31
0.0
  0
LINE
  5
458
330
449
100
AcDbEntity
  8
0
  6
BYBLOCK
 62
     4
100
AcDbLine
 10
547.0567656363721
 20
158.6744886882395
 30
0.0
 11
547.0567656363721
 21
133.8978757323513
 31
0.0
  0
LINE
  5
459
330
449
100
AcDbEntity
  8
0
  6
BYBLOCK
 62
     4
100
AcDbLine
 10
580.056765636399
 20
136.8978757323513
 30
0.0
 11
554.056765636372
 21
136.8978757323513
 31
0.0
  0
INSERT
  5
45A
330
449
100
AcDbEntity
  8
0
  6
BYBLOCK
 62
     4
100
AcDbBlockReference
  2
_OPEN
 10
587.0567656363991
 20
136.8978757323513
 30
0.0
 41
7.0
 42
7.0
 43
7.0
  0
INSERT
  5
45B
330
449
100
AcDbEntity
  8
0
  6
BYBLOCK
 62
     4
100
AcDbBlockReference
  2
_OPEN
 10
547.0567656363721
 20
136.8978757323513
 30
0.0
 41
7.0
 42
7.0
 43
7.0
 50
180.0
  0
MTEXT
  5
45C
330
449
100
AcDbEntity
  8
0
  6
BYBLOCK
 62
     4
100
AcDbMText
 10
567.0567656363855
 20
141.8978757323514
 30
0.0
 40
6.0
 41
0.0
 71
     5
 72
     5
  1
\A1;40
1001
ACAD
1000
MTEXTBEGIN
1070
    73
1070
     1
1070
    44
1040
1.0
1070
    74
1070
     0
1000
MTEXTEND
1000
MTEXTBEGIN
1070
    73
1070
     1
1070
    44
1040
1.0
1070
    74
1070
     0
1000
MTEXTEND
1000
MTEXTBEGIN
1070
    73
1070
     1
1070
    44
1040
1.0
1070
    74
1070
     0
1000
MTEXTEND
  0
POINT
  5
45D
330
449
100
AcDbEntity
  8
DEFPOINTS
  6
BYBLOCK
 62
     0
100
AcDbPoint
 10
587.0567656363991
 20
164.6744886882395
 30
0.0
  0
POINT
  5
45E
330
449
100
AcDbEntity
  8
DEFPOINTS
  6
BYBLOCK
 62
     0
100
AcDbPoint
 10
547.0567656363721
 20
164.6744886882395
 30
0.0
  0
POINT
  5
45F
330
449
100
AcDbEntity
  8
DEFPOINTS
  6
BYBLOCK
 62
     0
100
AcDbPoint
 10
547.0567656363721
 20
136.8978757323513
 30
0.0
  0
ENDBLK
  5
460
330
449
100
AcDbEntity
  8
0
100
AcDbBlockEnd
  0
BLOCK
  5
470
330
46F
100
AcDbEntity
  8
0
100
AcDbBlockBegin
  2
*D11
 70
     1
 10
0.0
 20
0.0
 30
0.0
  3
*D11
  1

  0
LINE
  5
471
330
46F
100
AcDbEntity
  8
0
  6
BYBLOCK
 62
     4
100
AcDbLine
 10
554.8316600504274
 20
189.8671425024729
 30
0.0
 11
493.8284871633709
 21
189.8671425024729
 31
0.0
  0
LINE
  5
472
330
46F
100
AcDbEntity
  8
0
  6
BYBLOCK
 62
     4
100
AcDbLine
 10
561.0567600504275
 20
181.8671425024729
 30
0.0
 11
493.8284871633709
 21
181.8671425024729
 31
0.0
  0
LINE
  5
473
330
46F
100
AcDbEntity
  8
0
  6
BYBLOCK
 62
     4
100
AcDbLine
 10
496.8284871633709
 20
196.8671425024729
 30
0.0
 11
496.8284871633709
 21
203.8671425024729
 31
0.0
  0
LINE
  5
474
330
46F
100
AcDbEntity
  8
0
  6
BYBLOCK
 62
     4
100
AcDbLine
 10
496.8284871633709
 20
174.8671425024729
 30
0.0
 11
496.8284871633709
 21
159.8671425024729
 31
0.0
  0
LINE
  5
475
330
46F
100
AcDbEntity
  8
0
  6
BYBLOCK
 62
     4
100
AcDbLine
 10
496.8284871633709
 20
189.8671425024729
 30
0.0
 11
496.8284871633709
 21
181.8671425024729
 31
0.0
  0
INSERT
  5
476
330
46F
100
AcDbEntity
  8
0
  6
BYBLOCK
 62
     4
100
AcDbBlockReference
  2
_OPEN
 10
496.8284871633709
 20
189.8671425024729
 30
0.0
 41
7.0
 42
7.0
 43
7.0
 50
270.0
  0
INSERT
  5
477
330
46F
100
AcDbEntity
  8
0
  6
BYBLOCK
 62
     4
100
AcDbBlockReference
  2
_OPEN
 10
496.8284871633709
 20
181.8671425024729
 30
0.0
 41
7.0
 42
7.0
 43
7.0
 50
90.0
  0
MTEXT
  5
478
330
46F
100
AcDbEntity
  8
0
  6
BYBLOCK
 62
     4
100
AcDbMText
 10
491.8284871633709
 20
163.8671425024729
 30
0.0
 40
6.0
 41
0.0
 71
     5
 72
     5
  1
\A1;8
 11
0.0
 21
1.0
 31
0.0
1001
ACAD
1000
MTEXTBEGIN
1070
    73
1070
     1
1070
    44
1040
1.0
1070
    74
1070
     0
1000
MTEXTEND
1000
MTEXTBEGIN
1070
    73
1070
     1
1070
    44
1040
1.0
1070
    74
1070
     0
1000
MTEXTEND
1000
MTEXTBEGIN
1070
    73
1070
     1
1070
    44
1040
1.0
1070
    74
1070
     0
1000
MTEXTEND
  0
POINT
  5
479
330
46F
100
AcDbEntity
  8
DEFPOINTS
  6
BYBLOCK
 62
     0
100
AcDbPoint
 10
560.8316600504274
 20
189.8671425024729
 30
0.0
  0
POINT
  5
47A
330
46F
100
AcDbEntity
  8
DEFPOINTS
  6
BYBLOCK
 62
     0
100
AcDbPoint
 10
567.0567600504275
 20
181.8671425024729
 30
0.0
  0
POINT
  5
47B
330
46F
100
AcDbEntity
  8
DEFPOINTS
  6
BYBLOCK
 62
     0
100
AcDbPoint
 10
496.8284871633709
 20
181.8671425024729
 30
0.0
  0
ENDBLK
  5
47C
330
46F
100
AcDbEntity
  8
0
100
AcDbBlockEnd
  0
BLOCK
  5
64E
330
4DD
100
AcDbEntity
  8
0
100
AcDbBlockBegin
  2
*D12
 70
     1
 10
0.0
 20
0.0
 30
0.0
  3
*D12
  1

  0
LINE
  5
64F
330
4DD
100
AcDbEntity
  8
0
  6
BYBLOCK
 62
     4
100
AcDbLine
 10
208.7262043440656
 20
254.8808589531125
 30
0.0
 11
208.7262043440656
 21
321.5049894095225
 31
0.0
  0
LINE
  5
650
330
4DD
100
AcDbEntity
  8
0
  6
BYBLOCK
 62
     4
100
AcDbLine
 10
363.3679112888048
 20
257.6167520020086
 30
0.0
 11
363.3679112888048
 21
321.5049894095225
 31
0.0
  0
LINE
  5
651
330
4DD
100
AcDbEntity
  8
0
  6
BYBLOCK
 62
     4
100
AcDbLine
 10
215.7262043440656
 20
318.5049894095225
 30
0.0
 11
356.3679112888048
 21
318.5049894095225
 31
0.0
  0
INSERT
  5
652
330
4DD
100
AcDbEntity
  8
0
  6
BYBLOCK
 62
     4
100
AcDbBlockReference
  2
_OPEN
 10
208.7262043440656
 20
318.5049894095225
 30
0.0
 41
7.0
 42
7.0
 43
7.0
 50
180.0
  0
INSERT
  5
653
330
4DD
100
AcDbEntity
  8
0
  6
BYBLOCK
 62
     4
100
AcDbBlockReference
  2
_OPEN
 10
363.3679112888048
 20
318.5049894095225
 30
0.0
 41
7.0
 42
7.0
 43
7.0
  0
MTEXT
  5
654
330
4DD
100
AcDbEntity
  8
0
  6
BYBLOCK
 62
     4
100
AcDbMText
 10
286.0470578164352
 20
323.5049894095225
 30
0.0
 40
6.0
 41
0.0
 71
     5
 72
     5
  1
\A1;155
1001
ACAD
1000
MTEXTBEGIN
1070
    73
1070
     1
1070
    44
1040
1.0
1070
    74
1070
     0
1000
MTEXTEND
1000
MTEXTBEGIN
1070
    73
1070
     1
1070
    44
1040
1.0
1070
    74
1070
     0
1000
MTEXTEND
1000
MTEXTBEGIN
1070
    73
1070
     1
1070
    44
1040
1.0
1070
    74
1070
     0
1000
MTEXTEND
  0
POINT
  5
655
330
4DD
100
AcDbEntity
  8
DEFPOINTS
  6
BYBLOCK
 62
     0
100
AcDbPoint
 10
208.7262043440656
 20
248.8808589531125
 30
0.0
  0
POINT
  5
656
330
4DD
100
AcDbEntity
  8
DEFPOINTS
  6
BYBLOCK
 62
     0
100
AcDbPoint
 10
363.3679112888048
 20
251.6167520020086
 30
0.0
  0
POINT
  5
657
330
4DD
100
AcDbEntity
  8
DEFPOINTS
  6
BYBLOCK
 62
     0
100
AcDbPoint
 10
363.3679112888048
 20
318.5049894095225
 30
0.0
  0
ENDBLK
  5
658
330
4DD
100
AcDbEntity
  8
0
100
AcDbBlockEnd
  0
BLOCK
  5
4EB
330
4EA
100
AcDbEntity
  8
0
100
AcDbBlockBegin
  2
*D13
 70
     1
 10
0.0
 20
0.0
 30
0.0
  3
*D13
  1

  0
LINE
  5
4EC
330
4EA
100
AcDbEntity
  8
0
  6
BYBLOCK
 62
     4
100
AcDbLine
 10
341.6979112888048
 20
268.6361349545145
 30
0.0
 11
341.6979112888048
 21
343.7135306811355
 31
0.0
  0
LINE
  5
4ED
330
4EA
100
AcDbEntity
  8
0
  6
BYBLOCK
 62
     4
100
AcDbLine
 10
363.3679112888048
 20
301.0526349545144
 30
0.0
 11
363.3679112888048
 21
343.7135306811355
 31
0.0
  0
LINE
  5
4EE
330
4EA
100
AcDbEntity
  8
0
  6
BYBLOCK
 62
     4
100
AcDbLine
 10
334.6979112888048
 20
340.7135306811355
 30
0.0
 11
327.6979112888048
 21
340.7135306811355
 31
0.0
  0
LINE
  5
4EF
330
4EA
100
AcDbEntity
  8
0
  6
BYBLOCK
 62
     4
100
AcDbLine
 10
370.3679112888048
 20
340.7135306811355
 30
0.0
 11
377.3679112888048
 21
340.7135306811355
 31
0.0
  0
LINE
  5
4F0
330
4EA
100
AcDbEntity
  8
0
  6
BYBLOCK
 62
     4
100
AcDbLine
 10
341.6979112888048
 20
340.7135306811355
 30
0.0
 11
363.3679112888048
 21
340.7135306811355
 31
0.0
  0
INSERT
  5
4F1
330
4EA
100
AcDbEntity
  8
0
  6
BYBLOCK
 62
     4
100
AcDbBlockReference
  2
_OPEN
 10
341.6979112888048
 20
340.7135306811355
 30
0.0
 41
7.0
 42
7.0
 43
7.0
  0
INSERT
  5
4F2
330
4EA
100
AcDbEntity
  8
0
  6
BYBLOCK
 62
     4
100
AcDbBlockReference
  2
_OPEN
 10
363.3679112888048
 20
340.7135306811355
 30
0.0
 41
7.0
 42
7.0
 43
7.0
 50
180.0
  0
MTEXT
  5
4F3
330
4EA
100
AcDbEntity
  8
0
  6
BYBLOCK
 62
     4
100
AcDbMText
 10
352.5329112888048
 20
345.7135306811355
 30
0.0
 40
6.0
 41
0.0
 71
     5
 72
     5
  1
\A1;22
1001
ACAD
1000
MTEXTBEGIN
1070
    73
1070
     1
1070
    44
1040
1.0
1070
    74
1070
     0
1000
MTEXTEND
1000
MTEXTBEGIN
1070
    73
1070
     1
1070
    44
1040
1.0
1070
    74
1070
     0
1000
MTEXTEND
1000
MTEXTBEGIN
1070
    73
1070
     1
1070
    44
1040
1.0
1070
    74
1070
     0
1000
MTEXTEND
  0
POINT
  5
4F4
330
4EA
100
AcDbEntity
  8
DEFPOINTS
  6
BYBLOCK
 62
     0
100
AcDbPoint
 10
341.6979112888048
 20
262.6361349545144
 30
0.0
  0
POINT
  5
4F5
330
4EA
100
AcDbEntity
  8
DEFPOINTS
  6
BYBLOCK
 62
     0
100
AcDbPoint
 10
363.3679112888048
 20
295.0526349545144
 30
0.0
  0
POINT
  5
4F6
330
4EA
100
AcDbEntity
  8
DEFPOINTS
  6
BYBLOCK
 62
     0
100
AcDbPoint
 10
363.3679112888048
 20
340.7135306811355
 30
0.0
  0
ENDBLK
  5
4F7
330
4EA
100
AcDbEntity
  8
0
100
AcDbBlockEnd
  0
BLOCK
  5
641
330
4F9
100
AcDbEntity
  8
0
100
AcDbBlockBegin
  2
*D14
 70
     1
 10
0.0
 20
0.0
 30
0.0
  3
*D14
  1

  0
LINE
  5
642
330
4F9
100
AcDbEntity
  8
0
  6
BYBLOCK
 62
     4
100
AcDbLine
 10
353.3678112888048
 20
257.6167520020086
 30
0.0
 11
353.3678112888048
 21
280.9976246670641
 31
0.0
  0
LINE
  5
643
330
4F9
100
AcDbEntity
  8
0
  6
BYBLOCK
 62
     4
100
AcDbLine
 10
363.3679112888048
 20
257.6167520020086
 30
0.0
 11
363.3679112888048
 21
280.9976246670641
 31
0.0
  0
LINE
  5
644
330
4F9
100
AcDbEntity
  8
0
  6
BYBLOCK
 62
     4
100
AcDbLine
 10
346.3678112888048
 20
277.9976246670642
 30
0.0
 11
339.3678112888048
 21
277.9976246670642
 31
0.0
  0
LINE
  5
645
330
4F9
100
AcDbEntity
  8
0
  6
BYBLOCK
 62
     4
100
AcDbLine
 10
370.3679112888048
 20
277.9976246670642
 30
0.0
 11
387.185812185542
 21
277.9976246670642
 31
0.0
  0
LINE
  5
646
330
4F9
100
AcDbEntity
  8
0
  6
BYBLOCK
 62
     4
100
AcDbLine
 10
353.3678112888048
 20
277.9976246670642
 30
0.0
 11
363.3679112888048
 21
277.9976246670642
 31
0.0
  0
INSERT
  5
647
330
4F9
100
AcDbEntity
  8
0
  6
BYBLOCK
 62
     4
100
AcDbBlockReference
  2
_OPEN
 10
353.3678112888048
 20
277.9976246670642
 30
0.0
 41
7.0
 42
7.0
 43
7.0
  0
INSERT
  5
648
330
4F9
100
AcDbEntity
  8
0
  6
BYBLOCK
 62
     4
100
AcDbBlockReference
  2
_OPEN
 10
363.3679112888048
 20
277.9976246670642
 30
0.0
 41
7.0
 42
7.0
 43
7.0
 50
180.0
  0
MTEXT
  5
649
330
4F9
100
AcDbEntity
  8
0
  6
BYBLOCK
 62
     4
100
AcDbMText
 10
381.6858121855421
 20
282.9976246670641
 30
0.0
 40
6.0
 41
0.0
 71
     5
 72
     5
  1
\A1;10
1001
ACAD
1000
MTEXTBEGIN
1070
    73
1070
     1
1070
    44
1040
1.0
1070
    74
1070
     0
1000
MTEXTEND
1000
MTEXTBEGIN
1070
    73
1070
     1
1070
    44
1040
1.0
1070
    74
1070
     0
1000
MTEXTEND
1000
MTEXTBEGIN
1070
    73
1070
     1
1070
    44
1040
1.0
1070
    74
1070
     0
1000
MTEXTEND
  0
POINT
  5
64A
330
4F9
100
AcDbEntity
  8
DEFPOINTS
  6
BYBLOCK
 62
     0
100
AcDbPoint
 10
353.3678112888048
 20
251.6167520020086
 30
0.0
  0
POINT
  5
64B
330
4F9
100
AcDbEntity
  8
DEFPOINTS
  6
BYBLOCK
 62
     0
100
AcDbPoint
 10
363.3679112888048
 20
251.6167520020086
 30
0.0
  0
POINT
  5
64C
330
4F9
100
AcDbEntity
  8
DEFPOINTS
  6
BYBLOCK
 62
     0
100
AcDbPoint
 10
363.3679112888048
 20
277.9976246670642
 30
0.0
  0
ENDBLK
  5
64D
330
4F9
100
AcDbEntity
  8
0
100
AcDbBlockEnd
  0
ENDSEC
  0
SECTION
  2
ENTITIES
  0
LINE
  5
263
330
1A
100
AcDbEntity
  8
CENTER_L
  6
CENTER
 62
     1
 48
5.0
100
AcDbLine
 10
372.197110449791
 20
175.9868610296323
 30
0.0
 11
351.7532104497908
 21
175.9869610296324
 31
0.0
  0
LINE
  5
264
330
1A
100
AcDbEntity
  8
CENTER_L
  6
CENTER
 62
     1
 48
5.0
100
AcDbLine
 10
351.2269104497909
 20
225.9867610296324
 30
0.0
 11
371.754610449791
 21
225.9867610296324
 31
0.0
  0
LINE
  5
265
330
1A
100
AcDbEntity
  8
CENTER_L
  6
CENTER
 62
     1
 48
5.0
100
AcDbLine
 10
348.030210449791
 20
372.076512156858
 30
0.0
 11
370.899110449791
 21
372.076512156858
 31
0.0
  0
LINE
  5
266
330
1A
100
AcDbEntity
  8
CENTER_L
  6
CENTER
 62
     1
 48
5.0
100
AcDbLine
 10
201.9254104497909
 20
404.0765121568581
 30
0.0
 11
370.899110449791
 21
404.0765121568581
 31
0.0
  0
LINE
  5
267
330
1A
100
AcDbEntity
  8
CENTER_L
  6
CENTER
 62
     1
 48
5.0
100
AcDbLine
 10
348.030210449791
 20
436.0765121568578
 30
0.0
 11
370.899110449791
 21
436.0765121568578
 31
0.0
  0
ARC
  5
272
330
1A
100
AcDbEntity
  8
SEIHIN
  6
CONTINUOUS
 62
     3
 48
5.0
100
AcDbCircle
 10
249.4303420798161
 20
196.9868403113566
 30
0.0
 40
6.999979281795713
100
AcDbArc
 50
203.5485994316517
 51
269.9997411039546
  0
LINE
  5
273
330
1A
100
AcDbEntity
  8
SEIHIN
  6
CONTINUOUS
 62
     3
 48
5.0
100
AcDbLine
 10
247.5969104497909
 20
196.1877610296324
 30
0.0
 11
232.816910449791
 21
230.1011610296324
 31
0.0
  0
LINE
  5
274
330
1A
100
AcDbEntity
  8
SEIHIN
  6
CONTINUOUS
 62
     3
 48
5.0
100
AcDbLine
 10
248.581210449791
 20
209.5303610296324
 30
0.0
 11
234.5716104497909
 21
231.0463610296324
 31
0.0
  0
LINE
  5
275
330
1A
100
AcDbEntity
  8
SEIHIN
  6
CONTINUOUS
 62
     3
 48
5.0
100
AcDbLine
 10
237.8170104497909
 20
235.2253610296323
 30
0.0
 11
252.7713104497909
 21
212.2585610296323
 31
0.0
  0
ARC
  5
27A
330
1A
100
AcDbEntity
  8
SEIHIN
  6
CONTINUOUS
 62
     3
 48
5.0
100
AcDbCircle
 10
216.7586073060322
 20
227.5006798765961
 30
0.0
 40
3.999981153037404
100
AcDbArc
 50
288.9399687355503
 51
89.99995496876113
  0
LINE
  5
27B
330
1A
100
AcDbEntity
  8
SEIHIN
  6
CONTINUOUS
 62
     3
 48
5.0
100
AcDbLine
 10
243.0133104497909
 20
194.1901610296324
 30
0.0
 11
227.2762104497908
 21
230.2997610296323
 31
0.0
  0
ARC
  5
27C
330
1A
100
AcDbEntity
  8
SEIHIN
  6
CONTINUOUS
 62
     3
 48
5.0
100
AcDbCircle
 10
231.8195849100213
 20
186.1585487320502
 30
0.0
 40
40.00008168967609
100
AcDbArc
 50
110.2484181381008
 51
121.1737991237468
  0
LINE
  5
27D
330
1A
100
AcDbEntity
  8
SEIHIN
  6
CONTINUOUS
 62
     3
 48
5.0
100
AcDbLine
 10
230.6209104497909
 20
215.3539610296324
 30
0.0
 11
212.3548104497909
 21
215.7442610296324
 31
0.0
  0
ARC
  5
27E
330
1A
100
AcDbEntity
  8
SEIHIN
  6
CONTINUOUS
 62
     3
 48
5.0
100
AcDbCircle
 10
212.4082264538616
 20
218.243601193403
 30
0.0
 40
2.500010880328439
100
AcDbArc
 50
121.1716793253715
 51
268.775707526985
  0
ARC
  5
27F
330
1A
100
AcDbEntity
  8
SEIHIN
  6
CONTINUOUS
 62
     3
 48
5.0
100
AcDbCircle
 10
230.5140995462463
 20
210.3551678353193
 30
0.0
 40
4.999986748488317
100
AcDbArc
 50
23.5481558982806
 51
92.50909281426892
  0
ARC
  5
281
330
1A
100
AcDbEntity
  8
SEIHIN
  6
CONTINUOUS
 62
     3
 48
5.0
100
AcDbCircle
 10
216.6583104568965
 20
238.2507679807362
 30
0.0
 40
6.750006951844736
100
AcDbArc
 50
89.88371088848806
 51
269.9991511141976
  0
LINE
  5
284
330
1A
100
AcDbEntity
  8
SEIHIN
  6
CONTINUOUS
 62
     3
 48
5.0
100
AcDbLine
 10
218.1174104497909
 20
237.4970610296323
 30
0.0
 11
233.6270104497909
 21
237.4970610296323
 31
0.0
  0
ARC
  5
285
330
1A
100
AcDbEntity
  8
SEIHIN
  6
CONTINUOUS
 62
     3
 48
5.0
100
AcDbCircle
 10
218.1174026420744
 20
239.4971722958189
 30
0.0
 40
2.000011266201798
100
AcDbArc
 50
159.4458549258134
 51
270.0002236733434
  0
LINE
  5
286
330
1A
100
AcDbEntity
  8
SEIHIN
  6
CONTINUOUS
 62
     3
 48
5.0
100
AcDbLine
 10
225.4427104497909
 20
231.5006610296323
 30
0.0
 11
216.6583104497909
 21
231.5006610296323
 31
0.0
  0
ARC
  5
287
330
1A
100
AcDbEntity
  8
SEIHIN
  6
CONTINUOUS
 62
     3
 48
5.0
100
AcDbCircle
 10
225.4427644666479
 20
229.5006256477583
 30
0.0
 40
2.000035382603481
100
AcDbArc
 50
23.55071372502913
 51
90.0015474415901
  0
ARC
  5
288
330
1A
100
AcDbEntity
  8
SEIHIN
  6
CONTINUOUS
 62
     3
 48
5.0
100
AcDbCircle
 10
217.3232262368006
 20
244.4993381990979
 30
0.0
 40
0.5000237991645134
100
AcDbArc
 50
339.443086845314
 51
89.88722279420597
  0
LINE
  5
289
330
1A
100
AcDbEntity
  8
SEIHIN
  6
CONTINUOUS
 62
     3
 48
5.0
100
AcDbLine
 10
216.2447104497909
 20
240.1993610296323
 30
0.0
 11
217.7914104497909
 21
244.3237610296323
 31
0.0
  0
LINE
  5
28A
330
1A
100
AcDbEntity
  8
SEIHIN
  6
CONTINUOUS
 62
     3
 48
5.0
100
AcDbLine
 10
217.3243104497909
 20
244.9993610296323
 30
0.0
 11
216.6583104497909
 21
245.0007610296323
 31
0.0
  0
ARC
  5
28B
330
1A
100
AcDbEntity
  8
SEIHIN
  6
CONTINUOUS
 62
     3
 48
5.0
100
AcDbCircle
 10
233.6269847094086
 20
232.4970749851713
 30
0.0
 40
4.999986044527281
100
AcDbArc
 50
33.0696905636906
 51
89.99970503612274
  0
ARC
  5
28C
330
1A
100
AcDbEntity
  8
SEIHIN
  6
CONTINUOUS
 62
     3
 48
5.0
100
AcDbCircle
 10
233.7336310673574
 20
230.5006721355952
 30
0.0
 40
0.9999929072044089
100
AcDbArc
 50
33.07201745557859
 51
203.5477960158727
  0
LINE
  5
28E
330
1A
100
AcDbEntity
  8
SEIHIN
  6
CONTINUOUS
 62
     3
 48
5.0
100
AcDbLine
 10
357.5500104497909
 20
197.9866610296324
 30
0.0
 11
357.5500104497909
 21
168.4865610296324
 31
0.0
  0
LINE
  5
28F
330
1A
100
AcDbEntity
  8
SEIHIN
  6
CONTINUOUS
 62
     3
 48
5.0
100
AcDbLine
 10
364.550010449791
 20
240.9866610296322
 30
0.0
 11
364.550010449791
 21
171.9865610296324
 31
0.0
  0
LINE
  5
29E
330
1A
100
AcDbEntity
  8
SEIHIN
  6
CONTINUOUS
 62
     3
 48
5.0
100
AcDbLine
 10
364.550010449791
 20
171.9865610296324
 30
0.0
 11
359.5500104497909
 21
168.9865610296324
 31
0.0
  0
ARC
  5
29F
330
1A
100
AcDbEntity
  8
SEIHIN
  6
CONTINUOUS
 62
     3
 48
5.0
100
AcDbCircle
 10
358.0500104497909
 20
168.4865610296323
 30
0.0
 40
0.4999999999999148
100
AcDbArc
 50
179.9999999999902
 51
269.9999999999902
  0
LINE
  5
2A0
330
1A
100
AcDbEntity
  8
SEIHIN
  6
CONTINUOUS
 62
     3
 48
5.0
100
AcDbLine
 10
359.5500104497909
 20
168.9865610296324
 30
0.0
 11
359.5500104497909
 21
167.9865610296324
 31
0.0
  0
LINE
  5
2A1
330
1A
100
AcDbEntity
  8
SEIHIN
  6
CONTINUOUS
 62
     3
 48
5.0
100
AcDbLine
 10
359.5500104497909
 20
167.9865610296324
 30
0.0
 11
358.0500104497908
 21
167.9865610296324
 31
0.0
  0
ARC
  5
2A2
330
1A
100
AcDbEntity
  8
SEIHIN
  6
CONTINUOUS
 62
     3
 48
5.0
100
AcDbCircle
 10
341.3270135632868
 20
200.9866632312041
 30
0.0
 40
34.99999779842847
100
AcDbArc
 50
90.0000050968625
 51
160.5287240364473
  0
ARC
  5
2A3
330
1A
100
AcDbEntity
  8
SEIHIN
  6
CONTINUOUS
 62
     3
 48
5.0
100
AcDbCircle
 10
341.3270166292043
 20
200.9866654693204
 30
0.0
 40
39.99999556031232
100
AcDbArc
 50
90.00000885135886
 51
161.3918014132555
  0
LINE
  5
2A4
330
1A
100
AcDbEntity
  8
SEIHIN
  6
CONTINUOUS
 62
     3
 48
5.0
100
AcDbLine
 10
315.1853104497908
 20
189.9866610296324
 30
0.0
 11
249.4303104497908
 21
189.9868610296324
 31
0.0
  0
LINE
  5
2A5
330
1A
100
AcDbEntity
  8
SEIHIN
  6
CONTINUOUS
 62
     3
 48
5.0
100
AcDbLine
 10
318.786810449791
 20
204.9866610296323
 30
0.0
 11
256.9613104497909
 21
204.9868610296323
 31
0.0
  0
LINE
  5
2A6
330
1A
100
AcDbEntity
  8
SEIHIN
  6
CONTINUOUS
 62
     3
 48
5.0
100
AcDbLine
 10
316.7667104497908
 20
194.9866610296324
 30
0.0
 11
249.4303104497908
 21
194.9868610296323
 31
0.0
  0
LINE
  5
2A7
330
1A
100
AcDbEntity
  8
SEIHIN
  6
CONTINUOUS
 62
     3
 48
5.0
100
AcDbLine
 10
298.558510449791
 20
209.9867610296324
 30
0.0
 11
256.9613104497909
 21
209.9868610296323
 31
0.0
  0
ARC
  5
2A8
330
1A
100
AcDbEntity
  8
SEIHIN
  6
CONTINUOUS
 62
     3
 48
5.0
100
AcDbCircle
 10
256.9613349686992
 20
214.9868477361146
 30
0.0
 40
9.999986706512396
100
AcDbArc
 50
213.0690522590686
 51
269.999859516817
  0
ARC
  5
2A9
330
1A
100
AcDbEntity
  8
SEIHIN
  6
CONTINUOUS
 62
     3
 48
5.0
100
AcDbCircle
 10
249.4303264097701
 20
196.9868505758276
 30
0.0
 40
1.999989546259032
100
AcDbArc
 50
203.5498536592237
 51
269.999542777882
  0
ARC
  5
2AA
330
1A
100
AcDbEntity
  8
SEIHIN
  6
CONTINUOUS
 62
     3
 48
5.0
100
AcDbCircle
 10
256.9613589076686
 20
214.986888975007
 30
0.0
 40
5.000027945609476
100
AcDbArc
 50
213.0699508830839
 51
269.9994447167282
  0
ARC
  5
2AB
330
1A
100
AcDbEntity
  8
SEIHIN
  6
CONTINUOUS
 62
     3
 48
5.0
100
AcDbCircle
 10
298.5585729394055
 20
214.9868059262292
 30
0.0
 40
5.000044896987306
100
AcDbArc
 50
269.9992839281949
 51
341.3911249356785
  0
LINE
  5
2AC
330
1A
100
AcDbEntity
  8
SEIHIN
  6
CONTINUOUS
 62
     3
 48
5.0
100
AcDbLine
 10
303.4178104497908
 20
213.7497610296323
 30
0.0
 11
303.297210449791
 21
213.3912610296323
 31
0.0
  0
ARC
  5
2AD
330
1A
100
AcDbEntity
  8
SEIHIN
  6
CONTINUOUS
 62
     3
 48
5.0
100
AcDbCircle
 10
350.4397129946072
 20
228.0601640087066
 30
0.0
 40
5.000022294950296
100
AcDbArc
 50
274.9990429419424
 51
3.990960826640746
  0
LINE
  5
2AE
330
1A
100
AcDbEntity
  8
SEIHIN
  6
CONTINUOUS
 62
     3
 48
5.0
100
AcDbLine
 10
357.550210449791
 20
197.9866610296324
 30
0.0
 11
354.5499104497909
 21
240.9866610296322
 31
0.0
  0
LINE
  5
2AF
330
1A
100
AcDbEntity
  8
SEIHIN
  6
CONTINUOUS
 62
     3
 48
5.0
100
AcDbLine
 10
333.4756104497908
 20
221.5569610296323
 30
0.0
 11
350.8755104497909
 21
223.0791610296324
 31
0.0
  0
LINE
  5
2B0
330
1A
100
AcDbEntity
  8
SEIHIN
  6
CONTINUOUS
 62
     3
 48
5.0
100
AcDbLine
 10
353.496310449791
 20
215.9866610296323
 30
0.0
 11
334.142310449791
 21
215.9866610296323
 31
0.0
  0
ARC
  5
2B1
330
1A
100
AcDbEntity
  8
SEIHIN
  6
CONTINUOUS
 62
     3
 48
5.0
100
AcDbCircle
 10
318.7868301615705
 20
202.9866335937588
 30
0.0
 40
2.000027435970762
100
AcDbArc
 50
341.3925885231577
 51
90.00056469314122
  0
LINE
  5
2B2
330
1A
100
AcDbEntity
  8
SEIHIN
  6
CONTINUOUS
 62
     3
 48
5.0
100
AcDbLine
 10
324.752410449791
 20
198.7675610296324
 30
0.0
 11
329.403710449791
 21
212.5821610296323
 31
0.0
  0
LINE
  5
2B3
330
1A
100
AcDbEntity
  8
SEIHIN
  6
CONTINUOUS
 62
     3
 48
5.0
100
AcDbLine
 10
329.501910449791
 20
192.3979610296323
 30
0.0
 11
316.953010449791
 21
190.1441610296324
 31
0.0
  0
ARC
  5
2B4
330
1A
100
AcDbEntity
  8
SEIHIN
  6
CONTINUOUS
 62
     3
 48
5.0
100
AcDbCircle
 10
315.1851896515435
 20
199.9866502681214
 30
0.0
 40
9.999989239218647
100
AcDbArc
 50
270.0006921237189
 51
280.182391924411
  0
ARC
  5
2B5
330
1A
100
AcDbEntity
  8
SEIHIN
  6
CONTINUOUS
 62
     3
 48
5.0
100
AcDbCircle
 10
316.7666826816053
 20
196.9866410794334
 30
0.0
 40
1.999980049993766
100
AcDbArc
 50
270.0007955078551
 51
341.391905190552
  0
LINE
  5
2B6
330
1A
100
AcDbEntity
  8
SEIHIN
  6
CONTINUOUS
 62
     3
 48
5.0
100
AcDbLine
 10
318.6621104497908
 20
196.3484610296324
 30
0.0
 11
320.6823104497909
 21
202.3484610296323
 31
0.0
  0
ARC
  5
2B7
330
1A
100
AcDbEntity
  8
SEIHIN
  6
CONTINUOUS
 62
     3
 48
5.0
100
AcDbCircle
 10
328.6180901972024
 20
197.3192468378851
 30
0.0
 40
5.000019224502622
100
AcDbArc
 50
280.1812917555703
 51
329.8599584897899
  0
LINE
  5
2B8
330
1A
100
AcDbEntity
  8
SEIHIN
  6
CONTINUOUS
 62
     3
 48
5.0
100
AcDbLine
 10
325.8235104497909
 20
197.4560610296323
 30
0.0
 11
334.152810449791
 21
198.4920610296324
 31
0.0
  0
ARC
  5
2B9
330
1A
100
AcDbEntity
  8
SEIHIN
  6
CONTINUOUS
 62
     3
 48
5.0
100
AcDbCircle
 10
325.7001338388608
 20
198.4484323922192
 30
0.0
 40
1.000011354639157
100
AcDbArc
 50
161.3899823084003
 51
277.0869358810439
  0
ARC
  5
2BA
330
1A
100
AcDbEntity
  8
SEIHIN
  6
CONTINUOUS
 62
     3
 48
5.0
100
AcDbCircle
 10
334.2144948800894
 20
197.9958845735436
 30
0.0
 40
0.4999960445024053
100
AcDbArc
 50
329.8642099641926
 51
97.08662563350289
  0
LINE
  5
2BB
330
1A
100
AcDbEntity
  8
SEIHIN
  6
CONTINUOUS
 62
     3
 48
5.0
100
AcDbLine
 10
334.6469104497909
 20
197.7447610296324
 30
0.0
 11
332.942110449791
 21
194.8086610296324
 31
0.0
  0
ARC
  5
2BC
330
1A
100
AcDbEntity
  8
SEIHIN
  6
CONTINUOUS
 62
     3
 48
5.0
100
AcDbCircle
 10
321.817148636458
 20
211.986688465506
 30
0.0
 40
2.000027436238176
100
AcDbArc
 50
269.998906047581
 51
341.3909298775974
  0
LINE
  5
2BD
330
1A
100
AcDbEntity
  8
SEIHIN
  6
CONTINUOUS
 62
     3
 48
5.0
100
AcDbLine
 10
321.817110449791
 20
209.9866610296323
 30
0.0
 11
310.214310449791
 21
209.9866610296323
 31
0.0
  0
ARC
  5
2BE
330
1A
100
AcDbEntity
  8
SEIHIN
  6
CONTINUOUS
 62
     3
 48
5.0
100
AcDbCircle
 10
310.2143125489756
 20
211.986658060878
 30
0.0
 40
1.999997031246695
100
AcDbArc
 50
160.5276462272101
 51
269.9999398626997
  0
ARC
  5
2BF
330
1A
100
AcDbEntity
  8
SEIHIN
  6
CONTINUOUS
 62
     3
 48
5.0
100
AcDbCircle
 10
334.3470804139657
 20
211.5949373975156
 30
0.0
 40
9.999969117481567
100
AcDbArc
 50
94.99951243722074
 51
161.3912921132889
  0
ARC
  5
2C0
330
1A
100
AcDbEntity
  8
SEIHIN
  6
CONTINUOUS
 62
     3
 48
5.0
100
AcDbCircle
 10
334.1423139148424
 20
210.9866635191335
 30
0.0
 40
4.999997510499923
100
AcDbArc
 50
90.00003970658438
 51
161.391515058606
  0
LINE
  5
2C1
330
1A
100
AcDbEntity
  8
SEIHIN
  6
CONTINUOUS
 62
     3
 48
5.0
100
AcDbLine
 10
324.8699104497909
 20
214.7859610296322
 30
0.0
 11
323.7126104497909
 21
211.3484610296324
 31
0.0
  0
LINE
  5
2C2
330
1A
100
AcDbEntity
  8
SEIHIN
  6
CONTINUOUS
 62
     3
 48
5.0
100
AcDbLine
 10
346.9919104497908
 20
205.9866610296324
 30
0.0
 11
347.5500104497908
 21
197.9866610296324
 31
0.0
  0
LINE
  5
2C3
330
1A
100
AcDbEntity
  8
SEIHIN
  6
CONTINUOUS
 62
     3
 48
5.0
100
AcDbLine
 10
347.5500104497908
 20
187.9865610296324
 30
0.0
 11
356.0500104497908
 21
187.9865610296324
 31
0.0
  0
LINE
  5
2C4
330
1A
100
AcDbEntity
  8
SEIHIN
  6
CONTINUOUS
 62
     3
 48
5.0
100
AcDbLine
 10
345.0500104497909
 20
193.9004610296324
 30
0.0
 11
345.0500104497909
 21
192.0727610296323
 31
0.0
  0
ARC
  5
2C5
330
1A
100
AcDbEntity
  8
SEIHIN
  6
CONTINUOUS
 62
     3
 48
5.0
100
AcDbCircle
 10
348.0500009097605
 20
192.0727873786183
 30
0.0
 40
2.999990460085292
100
AcDbArc
 50
180.0005032301637
 51
219.8075415263291
  0
LINE
  5
2C6
330
1A
100
AcDbEntity
  8
SEIHIN
  6
CONTINUOUS
 62
     3
 48
5.0
100
AcDbLine
 10
345.7454104497908
 20
190.1521610296324
 30
0.0
 11
347.5500104497908
 21
187.9866610296324
 31
0.0
  0
ARC
  5
2C7
330
1A
100
AcDbEntity
  8
SEIHIN
  6
CONTINUOUS
 62
     3
 48
5.0
100
AcDbCircle
 10
348.0499689000487
 20
193.90034626717
 30
0.0
 40
2.999958452452892
100
AcDbArc
 50
140.1922370758
 51
179.9978081680652
  0
LINE
  5
2C8
330
1A
100
AcDbEntity
  8
SEIHIN
  6
CONTINUOUS
 62
     3
 48
5.0
100
AcDbLine
 10
347.5500104497908
 20
197.9866610296324
 30
0.0
 11
345.7454104497908
 21
195.8210610296324
 31
0.0
  0
ARC
  5
2C9
330
1A
100
AcDbEntity
  8
SEIHIN
  6
CONTINUOUS
 62
     3
 48
5.0
100
AcDbCircle
 10
356.0500104497908
 20
186.4865610296322
 30
0.0
 40
1.500000000000127
100
AcDbArc
 50
0.0000000000016284
 51
90.00000000000161
  0
ARC
  5
2CA
330
1A
100
AcDbEntity
  8
SEIHIN
  6
CONTINUOUS
 62
     3
 48
5.0
100
AcDbCircle
 10
340.050010449791
 20
212.9866610296323
 30
0.0
 40
2.999999999999957
100
AcDbArc
 50
0.0000000000008142
 51
90.00000000000081
  0
LINE
  5
2CB
330
1A
100
AcDbEntity
  8
SEIHIN
  6
CONTINUOUS
 62
     3
 48
5.0
100
AcDbLine
 10
344.2332104497909
 20
208.0862610296323
 30
0.0
 11
346.9919104497908
 21
205.9866610296324
 31
0.0
  0
ARC
  5
2CC
330
1A
100
AcDbEntity
  8
SEIHIN
  6
CONTINUOUS
 62
     3
 48
5.0
100
AcDbCircle
 10
346.0499676225129
 20
210.473547443324
 30
0.0
 40
2.999957173966506
100
AcDbArc
 50
180.0016504035005
 51
232.7283756207101
  0
LINE
  5
2CD
330
1A
100
AcDbEntity
  8
SEIHIN
  6
CONTINUOUS
 62
     3
 48
5.0
100
AcDbLine
 10
343.0500104497909
 20
212.9866610296323
 30
0.0
 11
343.0500104497909
 21
210.4734610296324
 31
0.0
  0
ARC
  5
2CE
330
1A
100
AcDbEntity
  8
SEIHIN
  6
CONTINUOUS
 62
     3
 48
5.0
100
AcDbCircle
 10
353.4962971124521
 20
212.9866734688505
 30
0.0
 40
2.999987560811364
100
AcDbArc
 50
3.99079129695852
 51
89.99974527453582
  0
LINE
  5
2CF
330
1A
100
AcDbEntity
  8
SEIHIN
  6
CONTINUOUS
 62
     3
 48
5.0
100
AcDbLine
 10
364.550010449791
 20
210.9868610296323
 30
0.0
 11
356.6431104497908
 21
210.9868610296323
 31
0.0
  0
ARC
  5
2D2
330
1A
100
AcDbEntity
  8
SEIHIN
  6
CONTINUOUS
 62
     3
 48
5.0
100
AcDbCircle
 10
350.235523874234
 20
230.9866485091636
 30
0.0
 40
5.000012520486782
100
AcDbArc
 50
3.99114668416717
 51
90.00015383240244
  0
LINE
  5
2D3
330
1A
100
AcDbEntity
  8
SEIHIN
  6
CONTINUOUS
 62
     3
 48
5.0
100
AcDbLine
 10
341.3270104497908
 20
240.9866610296322
 30
0.0
 11
364.550010449791
 21
240.9866610296322
 31
0.0
  0
LINE
  5
2D4
330
1A
100
AcDbEntity
  8
SEIHIN
  6
CONTINUOUS
 62
     3
 48
5.0
100
AcDbLine
 10
350.2355104497908
 20
235.9866610296323
 30
0.0
 11
341.3270104497908
 21
235.9866610296323
 31
0.0
  0
ARC
  5
2D5
330
1A
100
AcDbEntity
  8
SEIHIN
  6
CONTINUOUS
 62
     3
 48
5.0
100
AcDbCircle
 10
355.0860543998795
 20
240.4867081440718
 30
0.0
 40
0.4999528874922151
100
AcDbArc
 50
90.00503678376579
 51
183.9853140464666
  0
LINE
  5
2DB
330
1A
100
AcDbEntity
  8
SEIHIN
  6
CONTINUOUS
 62
     3
 48
5.0
100
AcDbLine
 10
349.550010449791
 20
419.076512156858
 30
0.0
 11
209.9083104497909
 21
419.076512156858
 31
0.0
  0
LINE
  5
2DC
330
1A
100
AcDbEntity
  8
SEIHIN
  6
CONTINUOUS
 62
     3
 48
5.0
100
AcDbLine
 10
349.550010449791
 20
389.076512156858
 30
0.0
 11
209.9083104497909
 21
389.076512156858
 31
0.0
  0
LINE
  5
2DE
330
1A
100
AcDbEntity
  8
SEIHIN
  6
CONTINUOUS
 62
     3
 48
5.0
100
AcDbLine
 10
209.9083104497909
 20
404.0765121568581
 30
0.0
 11
209.9083104497909
 21
419.076512156858
 31
0.0
  0
LINE
  5
2DF
330
1A
100
AcDbEntity
  8
SEIHIN
  6
CONTINUOUS
 62
     3
 48
5.0
100
AcDbLine
 10
218.0442104497909
 20
404.0765121568581
 30
0.0
 11
218.0442104497909
 21
419.076512156858
 31
0.0
  0
LINE
  5
2E0
330
1A
100
AcDbEntity
  8
SEIHIN
  6
CONTINUOUS
 62
     3
 48
5.0
100
AcDbLine
 10
231.8000104497909
 20
404.076412156858
 30
0.0
 11
231.8000104497909
 21
419.076512156858
 31
0.0
  0
LINE
  5
2E7
330
1A
100
AcDbEntity
  8
SEIHIN
  6
CONTINUOUS
 62
     3
 48
5.0
100
AcDbLine
 10
209.9083104497909
 20
404.0765121568581
 30
0.0
 11
209.9083104497909
 21
389.076412156858
 31
0.0
  0
LINE
  5
2E8
330
1A
100
AcDbEntity
  8
SEIHIN
  6
CONTINUOUS
 62
     3
 48
5.0
100
AcDbLine
 10
218.0442104497909
 20
404.0765121568581
 30
0.0
 11
218.0442104497909
 21
389.076412156858
 31
0.0
  0
LINE
  5
2E9
330
1A
100
AcDbEntity
  8
SEIHIN
  6
CONTINUOUS
 62
     3
 48
5.0
100
AcDbLine
 10
231.8000104497909
 20
404.0765121568581
 30
0.0
 11
231.8000104497909
 21
389.076412156858
 31
0.0
  0
LINE
  5
2ED
330
1A
100
AcDbEntity
  8
SEIHIN
  6
CONTINUOUS
 62
     3
 48
5.0
100
AcDbLine
 10
254.3198104497909
 20
404.076412156858
 30
0.0
 11
254.3198104497909
 21
419.076512156858
 31
0.0
  0
LINE
  5
2EE
330
1A
100
AcDbEntity
  8
SEIHIN
  6
CONTINUOUS
 62
     3
 48
5.0
100
AcDbLine
 10
364.5501104497908
 20
404.076412156858
 30
0.0
 11
364.5501104497908
 21
444.076512156858
 31
0.0
  0
LINE
  5
2EF
330
1A
100
AcDbEntity
  8
SEIHIN
  6
CONTINUOUS
 62
     3
 48
5.0
100
AcDbLine
 10
302.1509104497909
 20
404.076412156858
 30
0.0
 11
302.1509104497909
 21
419.076512156858
 31
0.0
  0
LINE
  5
2F1
330
1A
100
AcDbEntity
  8
SEIHIN
  6
CONTINUOUS
 62
     3
 48
5.0
100
AcDbLine
 10
254.3198104497909
 20
404.0765121568581
 30
0.0
 11
254.3198104497909
 21
389.076412156858
 31
0.0
  0
LINE
  5
2F2
330
1A
100
AcDbEntity
  8
SEIHIN
  6
CONTINUOUS
 62
     3
 48
5.0
100
AcDbLine
 10
302.1509104497909
 20
404.0765121568581
 30
0.0
 11
302.1509104497909
 21
389.076412156858
 31
0.0
  0
LINE
  5
2F5
330
1A
100
AcDbEntity
  8
SEIHIN
  6
CONTINUOUS
 62
     3
 48
5.0
100
AcDbLine
 10
364.5501104497908
 20
404.0766121568578
 30
0.0
 11
364.5501104497908
 21
364.076512156858
 31
0.0
  0
LINE
  5
2F6
330
1A
100
AcDbEntity
  8
SEIHIN
  6
CONTINUOUS
 62
     3
 48
5.0
100
AcDbLine
 10
354.5500104497909
 20
384.076512156858
 30
0.0
 11
354.5501104497908
 21
364.576512156858
 31
0.0
  0
LINE
  5
2F7
330
1A
100
AcDbEntity
  8
SEIHIN
  6
CONTINUOUS
 62
     3
 48
5.0
100
AcDbLine
 10
364.550010449791
 20
364.076512156858
 30
0.0
 11
355.0501104497908
 21
364.076512156858
 31
0.0
  0
ARC
  5
2F8
330
1A
100
AcDbEntity
  8
SEIHIN
  6
CONTINUOUS
 62
     3
 48
5.0
100
AcDbCircle
 10
355.0501104497908
 20
364.576512156858
 30
0.0
 40
0.5
100
AcDbArc
 50
180.0
 51
270.0
  0
ARC
  5
2F9
330
1A
100
AcDbEntity
  8
SEIHIN
  6
CONTINUOUS
 62
     3
 48
5.0
100
AcDbCircle
 10
349.550010449791
 20
384.076512156858
 30
0.0
 40
5.0
100
AcDbArc
 50
0.0
 51
90.0
  0
LINE
  5
2FA
330
1A
100
AcDbEntity
  8
SEIHIN
  6
CONTINUOUS
 62
     3
 48
5.0
100
AcDbLine
 10
354.5500104497909
 20
424.076512156858
 30
0.0
 11
354.5501104497908
 21
443.576512156858
 31
0.0
  0
ARC
  5
2FB
330
1A
100
AcDbEntity
  8
SEIHIN
  6
CONTINUOUS
 62
     3
 48
5.0
100
AcDbCircle
 10
349.550010449791
 20
424.076512156858
 30
0.0
 40
5.0
100
AcDbArc
 50
270.0
 51
0.0
  0
LINE
  5
2FC
330
1A
100
AcDbEntity
  8
SEIHIN
  6
CONTINUOUS
 62
     3
 48
5.0
100
AcDbLine
 10
364.550010449791
 20
444.076512156858
 30
0.0
 11
355.0501104497908
 21
444.076512156858
 31
0.0
  0
ARC
  5
2FD
330
1A
100
AcDbEntity
  8
SEIHIN
  6
CONTINUOUS
 62
     3
 48
5.0
100
AcDbCircle
 10
355.0501104497908
 20
443.576512156858
 30
0.0
 40
0.5
100
AcDbArc
 50
90.0
 51
180.0
  0
ARC
  5
301
330
1A
100
AcDbEntity
  8
CENTER_L
  6
CENTER
 62
     1
 48
5.0
100
AcDbCircle
 10
568.2388592114136
 20
175.9865610296324
 30
0.0
 40
2.099999999999852
100
AcDbArc
 50
180.0
 51
0.0
  0
LINE
  5
302
330
1A
100
AcDbEntity
  8
CENTER_L
  6
CENTER
 62
     1
 48
5.0
100
AcDbLine
 10
568.2388592114136
 20
175.9865610296324
 30
0.0
 11
574.5226592114136
 21
175.9865610296324
 31
0.0
  0
ARC
  5
305
330
1A
100
AcDbEntity
  8
SEIHIN
  6
CONTINUOUS
 62
     3
 48
5.0
100
AcDbCircle
 10
568.2388592114136
 20
175.9865610296324
 30
0.0
 40
2.099999999999852
100
AcDbArc
 50
0.0
 51
180.0
  0
LINE
  5
306
330
1A
100
AcDbEntity
  8
SEIHIN
  6
CONTINUOUS
 62
     3
 48
5.0
100
AcDbLine
 10
590.5644592114137
 20
172.9865610296324
 30
0.0
 11
545.9132592114135
 21
172.9865610296324
 31
0.0
  0
LINE
  5
307
330
1A
100
AcDbEntity
  8
SEIHIN
  6
CONTINUOUS
 62
     3
 48
5.0
100
AcDbLine
 10
587.2889592114136
 20
168.9865610296324
 30
0.0
 11
550.0606592114136
 21
168.9865610296324
 31
0.0
  0
LINE
  5
308
330
1A
100
AcDbEntity
  8
SEIHIN
  6
CONTINUOUS
 62
     3
 48
5.0
100
AcDbLine
 10
546.7388592114134
 20
220.9866610296324
 30
0.0
 11
589.7390592114136
 21
220.9866610296324
 31
0.0
  0
LINE
  5
309
330
1A
100
AcDbEntity
  8
SEIHIN
  6
CONTINUOUS
 62
     3
 48
5.0
100
AcDbLine
 10
546.7388592114134
 20
235.9866610296323
 30
0.0
 11
589.7390592114136
 21
235.9866610296323
 31
0.0
  0
LINE
  5
30A
330
1A
100
AcDbEntity
  8
SEIHIN
  6
CONTINUOUS
 62
     3
 48
5.0
100
AcDbLine
 10
568.2388592114136
 20
244.9978610296323
 30
0.0
 11
583.2389592114136
 21
244.9978610296323
 31
0.0
  0
LINE
  5
30B
330
1A
100
AcDbEntity
  8
SEIHIN
  6
CONTINUOUS
 62
     3
 48
5.0
100
AcDbLine
 10
568.2388592114136
 20
167.9865610296324
 30
0.0
 11
585.5036538161937
 21
168.5894643333226
 31
0.0
  0
LINE
  5
30C
330
1A
100
AcDbEntity
  8
SEIHIN
  6
CONTINUOUS
 62
     3
 48
5.0
100
AcDbLine
 10
568.2388592114136
 20
240.9866610296322
 30
0.0
 11
603.4135592114137
 21
239.7582610296323
 31
0.0
  0
LINE
  5
30F
330
1A
100
AcDbEntity
  8
CENTER_L
  6
CENTER
 62
     1
 48
5.0
100
AcDbLine
 10
568.2388592114136
 20
163.1788610296323
 30
0.0
 11
568.2389592114136
 21
249.2464610296323
 31
0.0
  0
LINE
  5
311
330
1A
100
AcDbEntity
  8
SEIHIN
  6
CONTINUOUS
 62
     3
 48
5.0
100
AcDbLine
 10
546.4707603859945
 20
171.7880585042755
 30
0.0
 11
528.2388592114137
 21
210.9867610296324
 31
0.0
  0
LINE
  5
322
330
1A
100
AcDbEntity
  8
SEIHIN
  6
CONTINUOUS
 62
     3
 48
5.0
100
AcDbLine
 10
568.2388592114136
 20
167.9865610296324
 30
0.0
 11
550.7426705963855
 21
168.9035604329303
 31
0.0
  0
LINE
  5
324
330
1A
100
AcDbEntity
  8
CENTER_L
  6
CENTER
 62
     1
 48
5.0
100
AcDbLine
 10
568.2388592114136
 20
175.9865610296324
 30
0.0
 11
562.0137592114136
 21
175.9865610296324
 31
0.0
  0
LINE
  5
334
330
1A
100
AcDbEntity
  8
CENTER_L
  6
CENTER
 62
     1
 48
5.0
100
AcDbLine
 10
536.2388592114136
 20
231.6383610296323
 30
0.0
 11
536.2388592114136
 21
219.7018610296323
 31
0.0
  0
ARC
  5
335
330
1A
100
AcDbEntity
  8
SEIHIN
  6
CONTINUOUS
 62
     3
 48
5.0
100
AcDbCircle
 10
536.2388592114134
 20
225.9867610296324
 30
0.0
 40
2.100000000000051
100
AcDbArc
 50
0.0
 51
180.0
  0
LINE
  5
336
330
1A
100
AcDbEntity
  8
SEIHIN
  6
CONTINUOUS
 62
     3
 48
5.0
100
AcDbLine
 10
544.2388592114136
 20
223.4866610296323
 30
0.0
 11
544.2388592114136
 21
233.4866610296324
 31
0.0
  0
LINE
  5
337
330
1A
100
AcDbEntity
  8
SEIHIN
  6
CONTINUOUS
 62
     3
 48
5.0
100
AcDbLine
 10
528.2389592114136
 20
234.1455610296323
 30
0.0
 11
528.2388592114137
 21
210.9867610296324
 31
0.0
  0
LINE
  5
338
330
1A
100
AcDbEntity
  8
CENTER_L
  6
CENTER
 62
     1
 48
5.0
100
AcDbLine
 10
530.8094592114135
 20
225.9867610296324
 30
0.0
 11
542.9309592114136
 21
225.9867610296324
 31
0.0
  0
LINE
  5
339
330
1A
100
AcDbEntity
  8
SEIHIN
  6
CONTINUOUS
 62
     3
 48
5.0
100
AcDbLine
 10
546.1040592114134
 20
184.4322610296323
 30
0.0
 11
533.0808592114136
 21
212.4323610296323
 31
0.0
  0
LINE
  5
33A
330
1A
100
AcDbEntity
  8
SEIHIN
  6
CONTINUOUS
 62
     3
 48
5.0
100
AcDbLine
 10
535.3476592114136
 20
215.9866610296323
 30
0.0
 11
563.2388592114134
 21
215.9866610296323
 31
0.0
  0
ARC
  5
33B
330
1A
100
AcDbEntity
  8
SEIHIN
  6
CONTINUOUS
 62
     3
 48
5.0
100
AcDbCircle
 10
535.3476636292255
 20
213.4866679566515
 30
0.0
 40
2.499993072984749
100
AcDbArc
 50
90.00010124906939
 51
204.9434749149171
  0
ARC
  5
33C
330
1A
100
AcDbEntity
  8
SEIHIN
  6
CONTINUOUS
 62
     3
 48
5.0
100
AcDbCircle
 10
536.2388592114134
 20
225.9867610296324
 30
0.0
 40
2.100000000000051
100
AcDbArc
 50
180.0
 51
0.0
  0
LINE
  5
33D
330
1A
100
AcDbEntity
  8
SEIHIN
  6
CONTINUOUS
 62
     3
 48
5.0
100
AcDbLine
 10
565.7387592114137
 20
185.4865610296324
 30
0.0
 11
565.7388592114137
 21
213.4866610296323
 31
0.0
  0
LINE
  5
33E
330
1A
100
AcDbEntity
  8
SEIHIN
  6
CONTINUOUS
 62
     3
 48
5.0
100
AcDbLine
 10
548.3708592114137
 20
182.9866610296324
 30
0.0
 11
563.2387592114136
 21
182.9865610296324
 31
0.0
  0
ARC
  5
33F
330
1A
100
AcDbEntity
  8
SEIHIN
  6
CONTINUOUS
 62
     3
 48
5.0
100
AcDbCircle
 10
548.3708370081224
 20
185.4866751895522
 30
0.0
 40
2.500014160018386
100
AcDbArc
 50
204.9459605620602
 51
270.0005088590679
  0
ARC
  5
340
330
1A
100
AcDbEntity
  8
SEIHIN
  6
CONTINUOUS
 62
     3
 48
5.0
100
AcDbCircle
 10
563.2387592114136
 20
185.4865610296324
 30
0.0
 40
2.5
100
AcDbArc
 50
270.0
 51
0.0
  0
LINE
  5
341
330
1A
100
AcDbEntity
  8
SEIHIN
  6
CONTINUOUS
 62
     3
 48
5.0
100
AcDbLine
 10
553.2388592114137
 20
220.9866610296324
 30
0.0
 11
564.7389592114136
 21
220.9866610296324
 31
0.0
  0
ARC
  5
342
330
1A
100
AcDbEntity
  8
SEIHIN
  6
CONTINUOUS
 62
     3
 48
5.0
100
AcDbCircle
 10
546.7388592114136
 20
223.4866610296323
 30
0.0
 40
2.499999999999943
100
AcDbArc
 50
179.9999999999986
 51
269.9999999999986
  0
ARC
  5
343
330
1A
100
AcDbEntity
  8
SEIHIN
  6
CONTINUOUS
 62
     3
 48
5.0
100
AcDbCircle
 10
563.2388592114137
 20
213.4866610296323
 30
0.0
 40
2.5
100
AcDbArc
 50
0.0000000000022798
 51
90.00000000000261
  0
LINE
  5
346
330
1A
100
AcDbEntity
  8
SEIHIN
  6
CONTINUOUS
 62
     3
 48
5.0
100
AcDbLine
 10
568.2390592114136
 20
240.9866610296322
 30
0.0
 11
532.9772592114136
 21
239.1387610296323
 31
0.0
  0
ARC
  5
348
330
1A
100
AcDbEntity
  8
SEIHIN
  6
CONTINUOUS
 62
     3
 48
5.0
100
AcDbCircle
 10
533.2389858677715
 20
234.1455891196707
 30
0.0
 40
5.00002665643675
100
AcDbArc
 50
93.00052187557652
 51
180.000321886412
  0
LINE
  5
349
330
1A
100
AcDbEntity
  8
SEIHIN
  6
CONTINUOUS
 62
     3
 48
5.0
100
AcDbLine
 10
553.2388592114137
 20
235.9866610296323
 30
0.0
 11
564.7389592114136
 21
235.9866610296323
 31
0.0
  0
LINE
  5
34A
330
1A
100
AcDbEntity
  8
SEIHIN
  6
CONTINUOUS
 62
     3
 48
5.0
100
AcDbLine
 10
568.2390592114136
 20
244.9978610296323
 30
0.0
 11
553.2389592114136
 21
244.9978610296323
 31
0.0
  0
ARC
  5
34B
330
1A
100
AcDbEntity
  8
SEIHIN
  6
CONTINUOUS
 62
     3
 48
5.0
100
AcDbCircle
 10
546.7388592114136
 20
233.4866610296324
 30
0.0
 40
2.499999999999943
100
AcDbArc
 50
90.00000000000129
 51
180.0000000000012
  0
LINE
  5
34C
330
1A
100
AcDbEntity
  8
SEIHIN
  6
CONTINUOUS
 62
     3
 48
5.0
100
AcDbLine
 10
553.2389592114136
 20
244.9978610296323
 30
0.0
 11
553.2389592114136
 21
240.2005610296323
 31
0.0
  0
LINE
  5
34D
330
1A
100
AcDbEntity
  8
SEIHIN
  6
CONTINUOUS
 62
     3
 48
5.0
100
AcDbLine
 10
589.8627579525773
 20
171.4777583231444
 30
0.0
 11
608.2390592114136
 21
210.9866610296323
 31
0.0
  0
LINE
  5
354
330
1A
100
AcDbEntity
  8
CENTER_L
  6
CENTER
 62
     1
 48
5.0
100
AcDbLine
 10
600.2390592114136
 20
231.6383610296323
 30
0.0
 11
600.2390592114136
 21
219.7017610296323
 31
0.0
  0
ARC
  5
355
330
1A
100
AcDbEntity
  8
SEIHIN
  6
CONTINUOUS
 62
     3
 48
5.0
100
AcDbCircle
 10
600.2390592114136
 20
225.9866610296323
 30
0.0
 40
2.099900000000104
100
AcDbArc
 50
0.0
 51
180.0
  0
LINE
  5
356
330
1A
100
AcDbEntity
  8
SEIHIN
  6
CONTINUOUS
 62
     3
 48
5.0
100
AcDbLine
 10
592.2390592114136
 20
223.4866610296323
 30
0.0
 11
592.2390592114136
 21
233.4866610296324
 31
0.0
  0
LINE
  5
357
330
1A
100
AcDbEntity
  8
SEIHIN
  6
CONTINUOUS
 62
     3
 48
5.0
100
AcDbLine
 10
608.2390592114136
 20
234.7612610296323
 30
0.0
 11
608.2390592114136
 21
210.9866610296323
 31
0.0
  0
LINE
  5
358
330
1A
100
AcDbEntity
  8
CENTER_L
  6
CENTER
 62
     1
 48
5.0
100
AcDbLine
 10
606.3360592114136
 20
225.9866610296323
 30
0.0
 11
593.5469592114136
 21
225.9866610296323
 31
0.0
  0
LINE
  5
359
330
1A
100
AcDbEntity
  8
SEIHIN
  6
CONTINUOUS
 62
     3
 48
5.0
100
AcDbLine
 10
601.1302592114136
 20
215.9866610296323
 30
0.0
 11
573.2388592114136
 21
215.9866610296323
 31
0.0
  0
LINE
  5
35A
330
1A
100
AcDbEntity
  8
SEIHIN
  6
CONTINUOUS
 62
     3
 48
5.0
100
AcDbLine
 10
603.3970592114137
 20
212.4323610296323
 30
0.0
 11
590.3737592114135
 21
184.4322610296323
 31
0.0
  0
ARC
  5
35B
330
1A
100
AcDbEntity
  8
SEIHIN
  6
CONTINUOUS
 62
     3
 48
5.0
100
AcDbCircle
 10
600.2390592114136
 20
225.9866610296323
 30
0.0
 40
2.099900000000104
100
AcDbArc
 50
180.0
 51
0.0
  0
LINE
  5
35C
330
1A
100
AcDbEntity
  8
SEIHIN
  6
CONTINUOUS
 62
     3
 48
5.0
100
AcDbLine
 10
570.7388592114137
 20
185.4865610296324
 30
0.0
 11
570.7388592114137
 21
213.4866610296323
 31
0.0
  0
LINE
  5
35D
330
1A
100
AcDbEntity
  8
SEIHIN
  6
CONTINUOUS
 62
     3
 48
5.0
100
AcDbLine
 10
588.1068592114136
 20
182.9865610296324
 30
0.0
 11
573.2388592114136
 21
182.9865610296324
 31
0.0
  0
ARC
  5
35E
330
1A
100
AcDbEntity
  8
SEIHIN
  6
CONTINUOUS
 62
     3
 48
5.0
100
AcDbCircle
 10
573.2388592114136
 20
185.4865610296324
 30
0.0
 40
2.5
100
AcDbArc
 50
180.0
 51
270.0
  0
ARC
  5
35F
330
1A
100
AcDbEntity
  8
SEIHIN
  6
CONTINUOUS
 62
     3
 48
5.0
100
AcDbCircle
 10
588.1068483500196
 20
185.4865541026129
 30
0.0
 40
2.499993073004166
100
AcDbArc
 50
270.0002489255067
 51
335.0568752596588
  0
ARC
  5
360
330
1A
100
AcDbEntity
  8
SEIHIN
  6
CONTINUOUS
 62
     3
 48
5.0
100
AcDbCircle
 10
573.2388592114134
 20
213.4866610296323
 30
0.0
 40
2.499999999999957
100
AcDbArc
 50
89.9999999999987
 51
179.999999999999
  0
LINE
  5
361
330
1A
100
AcDbEntity
  8
SEIHIN
  6
CONTINUOUS
 62
     3
 48
5.0
100
AcDbLine
 10
583.2389592114136
 20
220.9866610296324
 30
0.0
 11
571.7388592114136
 21
220.9866610296324
 31
0.0
  0
ARC
  5
362
330
1A
100
AcDbEntity
  8
SEIHIN
  6
CONTINUOUS
 62
     3
 48
5.0
100
AcDbCircle
 10
589.7390592114136
 20
223.4866610296325
 30
0.0
 40
2.500000000000056
100
AcDbArc
 50
269.9999999999986
 51
359.9999999999987
  0
ARC
  5
363
330
1A
100
AcDbEntity
  8
SEIHIN
  6
CONTINUOUS
 62
     3
 48
5.0
100
AcDbCircle
 10
601.1302547936018
 20
213.4866679566515
 30
0.0
 40
2.499993072984726
100
AcDbArc
 50
335.0565250850825
 51
89.99989875093126
  0
LINE
  5
365
330
1A
100
AcDbEntity
  8
SEIHIN
  6
CONTINUOUS
 62
     3
 48
5.0
100
AcDbLine
 10
583.2389592114136
 20
235.9866610296323
 30
0.0
 11
571.7388592114136
 21
235.9866610296323
 31
0.0
  0
LINE
  5
366
330
1A
100
AcDbEntity
  8
SEIHIN
  6
CONTINUOUS
 62
     3
 48
5.0
100
AcDbLine
 10
583.2389592114136
 20
244.9978610296323
 30
0.0
 11
583.2389592114136
 21
240.4628610296324
 31
0.0
  0
ARC
  5
367
330
1A
100
AcDbEntity
  8
SEIHIN
  6
CONTINUOUS
 62
     3
 48
5.0
100
AcDbCircle
 10
589.7390592114136
 20
233.4866610296324
 30
0.0
 40
2.500000000000056
100
AcDbArc
 50
0.0000000000012977
 51
90.00000000000129
  0
ARC
  5
36B
330
1A
100
AcDbEntity
  8
SEIHIN
  6
CONTINUOUS
 62
     3
 48
5.0
100
AcDbCircle
 10
603.2390362490191
 20
234.7612848078923
 30
0.0
 40
5.000022962451036
100
AcDbArc
 50
359.9997275224635
 51
87.99971704554076
  0
DIMENSION
  5
387
330
1A
100
AcDbEntity
  8
SUNPOU
 48
5.0
100
AcDbDimension
  2
*D1
 10
403.5516138485136
 20
364.076512156858
 30
0.0
 11
398.5516138485136
 21
404.076512156858
 31
0.0
 12
1.182099160986126
 22
-10.63009097237636
 32
0.0
 70
    32
  3
STANDARD
100
AcDbAlignedDimension
 13
364.5501104497908
 23
444.076512156858
 33
0.0
 14
364.5501104497908
 24
364.076512156858
 34
0.0
 50
90.0
100
AcDbRotatedDimension
1001
ACAD
1000
DSTYLE
1002
{
1070
   140
1040
6.0
1070
    74
1070
     0
1070
   172
1070
     1
1070
    73
1070
     0
1070
   272
1070
     2
1070
    77
1070
     3
1070
   173
1070
     1
1070
   147
1040
2.0
1070
    42
1040
6.0
1070
    44
1040
3.0
1070
    43
1040
14.0
1070
   271
1070
     0
1070
   178
1070
     4
1070
   177
1070
     4
1070
   176
1070
     4
1070
   141
1040
150.0
1070
     7
1000
_OPEN
1070
     6
1000
_OPEN
1070
    41
1040
7.0
1002
}
  0
DIMENSION
  5
394
330
1A
100
AcDbEntity
  8
SUNPOU
 48
5.0
100
AcDbDimension
  2
*D2
 10
182.2553674782716
 20
389.076512156858
 30
0.0
 11
177.2553674782716
 21
404.076512156858
 31
0.0
 12
1.182099160986126
 22
-10.63009097237636
 32
0.0
 70
    32
  3
STANDARD
100
AcDbAlignedDimension
 13
209.9083104497909
 23
419.076512156858
 33
0.0
 14
209.9083104497909
 24
389.076512156858
 34
0.0
 50
90.0
100
AcDbRotatedDimension
1001
ACAD
1000
DSTYLE
1002
{
1070
   140
1040
6.0
1070
    74
1070
     0
1070
   172
1070
     1
1070
    73
1070
     0
1070
   272
1070
     2
1070
    77
1070
     3
1070
   173
1070
     1
1070
   147
1040
2.0
1070
    42
1040
6.0
1070
    44
1040
3.0
1070
    43
1040
14.0
1070
   271
1070
     0
1070
   178
1070
     4
1070
   177
1070
     4
1070
   176
1070
     4
1070
   141
1040
150.0
1070
     7
1000
_OPEN
1070
     6
1000
_OPEN
1070
    41
1040
7.0
1002
}
  0
DIMENSION
  5
3A1
330
1A
100
AcDbEntity
  8
SUNPOU
 48
5.0
100
AcDbDimension
  2
*D3
 10
403.5516138485136
 20
167.9865610296324
 30
0.0
 11
398.5516138485136
 21
204.4866110296323
 31
0.0
 12
1.182099160986126
 22
-10.63009097237636
 32
0.0
 70
    32
  3
STANDARD
100
AcDbAlignedDimension
 13
364.550010449791
 23
240.9866610296322
 33
0.0
 14
359.5500104497909
 24
167.9865610296324
 34
0.0
 50
90.0
100
AcDbRotatedDimension
1001
ACAD
1000
DSTYLE
1002
{
1070
   140
1040
6.0
1070
    74
1070
     0
1070
   172
1070
     1
1070
    73
1070
     0
1070
   272
1070
     2
1070
    77
1070
     3
1070
   173
1070
     1
1070
   147
1040
2.0
1070
    42
1040
6.0
1070
    44
1040
3.0
1070
    43
1040
14.0
1070
   271
1070
     0
1070
   178
1070
     4
1070
   177
1070
     4
1070
   176
1070
     4
1070
   141
1040
150.0
1070
     7
1000
_OPEN
1070
     6
1000
_OPEN
1070
    41
1040
7.0
1002
}
  0
DIMENSION
  5
3AE
330
1A
100
AcDbEntity
  8
SUNPOU
 48
5.0
100
AcDbDimension
  2
*D4
 10
182.2553674782716
 20
168.4865610296323
 30
0.0
 11
177.2553674782716
 21
206.7429610296323
 31
0.0
 12
1.182099160986126
 22
-10.63009097237636
 32
0.0
 70
    32
  3
STANDARD
100
AcDbAlignedDimension
 13
217.3243104497909
 23
244.9993610296323
 33
0.0
 14
357.5500104497909
 24
168.4865610296323
 34
0.0
 50
90.0
100
AcDbRotatedDimension
1001
ACAD
1000
DSTYLE
1002
{
1070
   140
1040
6.0
1070
    74
1070
     0
1070
   172
1070
     1
1070
    73
1070
     0
1070
   272
1070
     2
1070
    77
1070
     3
1070
   173
1070
     1
1070
   147
1040
2.0
1070
    42
1040
6.0
1070
    44
1040
3.0
1070
    43
1040
14.0
1070
   271
1070
     0
1070
   178
1070
     4
1070
   177
1070
     4
1070
   176
1070
     4
1070
   141
1040
150.0
1070
     7
1000
_OPEN
1070
     6
1000
_OPEN
1070
    41
1040
7.0
1002
}
  0
DIMENSION
  5
3D9
330
1A
100
AcDbEntity
  8
SUNPOU
 48
5.0
100
AcDbDimension
  2
*D5
 10
364.550010449791
 20
133.5738453398269
 30
0.0
 11
389.050010449791
 21
138.5738453398269
 31
0.0
 70
    32
  1
t<>
  3
STANDARD
100
AcDbAlignedDimension
 13
357.5500104497909
 23
168.4865610296323
 33
0.0
 14
364.550010449791
 24
171.9865610296324
 34
0.0
100
AcDbRotatedDimension
1001
ACAD
1000
DSTYLE
1002
{
1070
   140
1040
6.0
1070
    74
1070
     0
1070
   172
1070
     1
1070
    73
1070
     0
1070
   272
1070
     2
1070
    77
1070
     3
1070
   173
1070
     1
1070
   147
1040
2.0
1070
    42
1040
6.0
1070
    44
1040
3.0
1070
    43
1040
14.0
1070
   271
1070
     1
1070
   178
1070
     4
1070
   177
1070
     4
1070
   176
1070
     4
1070
   141
1040
150.0
1070
     7
1000
_OPEN
1070
     6
1000
_OPEN
1070
    41
1040
7.0
1002
}
  0
DIMENSION
  5
3E6
330
1A
100
AcDbEntity
  8
SUNPOU
 48
5.0
100
AcDbDimension
  2
*D6
 10
600.2390592114136
 20
266.9239795981125
 30
0.0
 11
568.2389592114136
 21
271.9239795981124
 31
0.0
 12
1.182099160986126
 22
-10.63009097237636
 32
0.0
 70
    32
  3
STANDARD
100
AcDbAlignedDimension
 13
536.2388592114136
 23
231.6383610296323
 33
0.0
 14
600.2390592114136
 24
231.6383610296323
 34
0.0
100
AcDbRotatedDimension
1001
ACAD
1000
DSTYLE
1002
{
1070
   140
1040
6.0
1070
    74
1070
     0
1070
   172
1070
     1
1070
    73
1070
     0
1070
   272
1070
     2
1070
    77
1070
     3
1070
   173
1070
     1
1070
   147
1040
2.0
1070
    42
1040
6.0
1070
    44
1040
3.0
1070
    43
1040
14.0
1070
   271
1070
     0
1070
   178
1070
     4
1070
   177
1070
     4
1070
   176
1070
     4
1070
   141
1040
150.0
1070
     7
1000
_OPEN
1070
     6
1000
_OPEN
1070
    41
1040
7.0
1002
}
  0
DIMENSION
  5
3F3
330
1A
100
AcDbEntity
  8
SUNPOU
 48
5.0
100
AcDbDimension
  2
*D7
 10
608.2390592114136
 20
286.6642370506581
 30
0.0
 11
568.3258961112276
 21
291.6642370506581
 31
0.0
 12
1.182099160986126
 22
3.312072341392877
 32
0.0
 70
    32
  3
STANDARD
100
AcDbAlignedDimension
 13
528.4127330110415
 23
235.4523216584797
 33
0.0
 14
608.2390592114136
 24
234.7612610296323
 34
0.0
100
AcDbRotatedDimension
1001
ACAD
1000
DSTYLE
1002
{
1070
   140
1040
6.0
1070
    74
1070
     0
1070
   172
1070
     1
1070
    73
1070
     0
1070
   272
1070
     2
1070
    77
1070
     3
1070
   173
1070
     1
1070
   147
1040
2.0
1070
    42
1040
6.0
1070
    44
1040
3.0
1070
    43
1040
14.0
1070
   271
1070
     0
1070
   178
1070
     4
1070
   177
1070
     4
1070
   176
1070
     4
1070
   141
1040
150.0
1070
     7
1000
_OPEN
1070
     6
1000
_OPEN
1070
    41
1040
7.0
1002
}
  0
DIMENSION
  5
402
330
1A
100
AcDbEntity
  8
SUNPOU
 48
5.0
100
AcDbDimension
  2
*D8
 10
498.010586324357
 20
225.9867610296324
 30
0.0
 11
493.0105863243571
 21
233.4867110296323
 31
0.0
 12
1.182099160986126
 22
3.312072341392877
 32
0.0
 70
    32
  3
STANDARD
100
AcDbAlignedDimension
 13
568.2388592114136
 23
240.9866610296322
 33
0.0
 14
530.8094592114135
 24
225.9867610296324
 34
0.0
 50
90.0
100
AcDbRotatedDimension
1001
ACAD
1000
DSTYLE
1002
{
1070
   140
1040
6.0
1070
    74
1070
     0
1070
   172
1070
     1
1070
    73
1070
     0
1070
   272
1070
     2
1070
    77
1070
     3
1070
   173
1070
     1
1070
   147
1040
2.0
1070
    42
1040
6.0
1070
    44
1040
3.0
1070
    43
1040
14.0
1070
   271
1070
     0
1070
   178
1070
     4
1070
   177
1070
     4
1070
   176
1070
     4
1070
   141
1040
150.0
1070
     7
1000
_OPEN
1070
     6
1000
_OPEN
1070
    41
1040
7.0
1002
}
  0
DIMENSION
  5
40E
330
1A
100
AcDbEntity
  8
SUNPOU
 48
5.0
100
AcDbDimension
  2
*D9
 10
498.010586324357
 20
175.9865610296324
 30
0.0
 11
493.010586324357
 21
200.9866610296325
 31
0.0
 70
    32
  3
STANDARD
100
AcDbAlignedDimension
 13
530.8094592114135
 23
225.9867610296324
 33
0.0
 14
562.0137592114136
 24
175.9865610296324
 34
0.0
 50
90.0
100
AcDbRotatedDimension
1001
ACAD
1000
DSTYLE
1002
{
1070
   287
1070
     4
1070
   287
1070
     4
1070
   287
1070
     4
1070
    41
1040
7.0
1070
    42
1040
6.0
1070
    43
1040
14.0
1070
    44
1040
3.0
1070
    73
1070
     0
1070
    74
1070
     0
1070
    75
1070
     1
1070
    77
1070
     3
1070
   140
1040
6.0
1070
   141
1040
150.0
1070
   147
1040
2.0
1070
   172
1070
     1
1070
   173
1070
     1
1070
   176
1070
     4
1070
   177
1070
     4
1070
   178
1070
     4
1070
   271
1070
     0
1070
   272
1070
     2
1070
   279
1070
     1
1070
     6
1000
OPEN
1070
     7
1000
OPEN
1002
}
  0
ARC
  5
445
330
1A
100
AcDbEntity
  8
SEIHIN
  6
CONTINUOUS
 62
     3
 48
5.0
100
AcDbCircle
 10
585.329155352426
 20
173.5864184341868
 30
0.0
 40
5.0
100
AcDbArc
 50
272.0000112397445
 51
335.0560143276219
  0
ARC
  5
446
330
1A
100
AcDbEntity
  8
SEIHIN
  6
CONTINUOUS
 62
     3
 48
5.0
100
AcDbCircle
 10
551.0043683110308
 20
173.8967071668196
 30
0.0
 40
5.0
100
AcDbArc
 50
204.9438409860643
 51
266.9997942159842
  0
DIMENSION
  5
455
330
1A
100
AcDbEntity
  8
SEIHIN
 62
     4
 48
5.0
100
AcDbDimension
  2
*D10
 10
548.2388647973582
 20
140.2099480737442
 30
0.0
 11
568.2388647973716
 21
145.2099480737442
 31
0.0
 12
1.182099160986126
 22
3.312072341392877
 32
0.0
 70
    32
  3
STANDARD
100
AcDbAlignedDimension
 13
588.2388647973852
 23
167.9865610296324
 33
0.0
 14
548.2388647973582
 24
167.9865610296324
 34
0.0
100
AcDbRotatedDimension
1001
ACAD
1000
DSTYLE
1002
{
1070
   140
1040
6.0
1070
    74
1070
     0
1070
   172
1070
     1
1070
    73
1070
     0
1070
   272
1070
     2
1070
    77
1070
     3
1070
   173
1070
     1
1070
   147
1040
2.0
1070
    42
1040
6.0
1070
    44
1040
3.0
1070
    43
1040
14.0
1070
   271
1070
     0
1070
   178
1070
     4
1070
   177
1070
     4
1070
   176
1070
     4
1070
   141
1040
150.0
1070
     7
1000
_OPEN
1070
     6
1000
_OPEN
1070
    41
1040
7.0
1002
}
  0
DIMENSION
  5
47D
330
1A
100
AcDbEntity
  8
SUNPOU
 48
5.0
100
AcDbDimension
  2
*D11
 10
498.010586324357
 20
167.9865610296324
 30
0.0
 11
493.0105863243571
 21
149.9865610296324
 31
0.0
 12
1.182099160986126
 22
-13.8805814728405
 32
0.0
 70
    32
  3
STANDARD
100
AcDbAlignedDimension
 13
562.0137592114136
 23
175.9865610296324
 33
0.0
 14
568.2388592114136
 24
167.9865610296324
 34
0.0
 50
90.0
100
AcDbRotatedDimension
1001
ACAD
1000
DSTYLE
1002
{
1070
   140
1040
6.0
1070
    74
1070
     0
1070
   172
1070
     1
1070
    73
1070
     0
1070
   272
1070
     2
1070
    77
1070
     3
1070
   173
1070
     1
1070
   147
1040
2.0
1070
    42
1040
6.0
1070
    44
1040
3.0
1070
    43
1040
14.0
1070
   271
1070
     0
1070
   178
1070
     4
1070
   177
1070
     4
1070
   176
1070
     4
1070
   141
1040
150.0
1070
     7
1000
_OPEN
1070
     6
1000
_OPEN
1070
    41
1040
7.0
1002
}
  0
DIMENSION
  5
4E9
330
1A
100
AcDbEntity
  8
SUNPOU
 48
5.0
100
AcDbDimension
  2
*D12
 10
364.550010449791
 20
307.8748984371461
 30
0.0
 11
287.2291569774213
 21
312.8748984371461
 31
0.0
 12
1.182099160986126
 22
-10.63009097237636
 32
0.0
 70
    32
  3
STANDARD
100
AcDbAlignedDimension
 13
209.9083035050517
 23
238.2507679807362
 33
0.0
 14
364.550010449791
 24
240.9866610296322
 34
0.0
100
AcDbRotatedDimension
1001
ACAD
1000
DSTYLE
1002
{
1070
   140
1040
6.0
1070
    74
1070
     0
1070
   172
1070
     1
1070
    73
1070
     0
1070
   272
1070
     2
1070
    77
1070
     3
1070
   173
1070
     1
1070
   147
1040
2.0
1070
    42
1040
6.0
1070
    44
1040
3.0
1070
    43
1040
14.0
1070
   271
1070
     0
1070
   178
1070
     4
1070
   177
1070
     4
1070
   176
1070
     4
1070
   141
1040
150.0
1070
     7
1000
_OPEN
1070
     6
1000
_OPEN
1070
    41
1040
7.0
1002
}
  0
DIMENSION
  5
4F8
330
1A
100
AcDbEntity
  8
SUNPOU
 48
5.0
100
AcDbDimension
  2
*D13
 10
364.550010449791
 20
286.6475567562533
 30
0.0
 11
353.7150104497909
 21
291.6475567562534
 31
0.0
 12
1.182099160986126
 22
-54.0659739248822
 32
0.0
 70
    32
  3
STANDARD
100
AcDbAlignedDimension
 13
342.8800104497909
 23
208.5701610296323
 33
0.0
 14
364.550010449791
 24
240.9866610296322
 34
0.0
100
AcDbRotatedDimension
1001
ACAD
1000
DSTYLE
1002
{
1070
   140
1040
6.0
1070
    74
1070
     0
1070
   172
1070
     1
1070
    73
1070
     0
1070
   272
1070
     2
1070
    77
1070
     3
1070
   173
1070
     1
1070
   147
1040
2.0
1070
    42
1040
6.0
1070
    44
1040
3.0
1070
    43
1040
14.0
1070
   271
1070
     0
1070
   178
1070
     4
1070
   177
1070
     4
1070
   176
1070
     4
1070
   141
1040
150.0
1070
     7
1000
_OPEN
1070
     6
1000
_OPEN
1070
    41
1040
7.0
1002
}
  0
DIMENSION
  5
507
330
1A
100
AcDbEntity
  8
SUNPOU
 48
5.0
100
AcDbDimension
  2
*D14
 10
364.550010449791
 20
267.3675336946878
 30
0.0
 11
382.8679113465282
 21
267.3675336946878
 31
0.0
 12
1.182099160986126
 22
-10.63009097237636
 32
0.0
 70
   160
  3
STANDARD
100
AcDbAlignedDimension
 13
354.5499104497909
 23
240.9866610296322
 33
0.0
 14
364.550010449791
 24
240.9866610296322
 34
0.0
100
AcDbRotatedDimension
1001
ACAD
1000
DSTYLE
1002
{
1070
   140
1040
6.0
1070
    74
1070
     0
1070
   172
1070
     1
1070
    73
1070
     0
1070
   272
1070
     2
1070
    77
1070
     3
1070
   173
1070
     1
1070
   147
1040
2.0
1070
    42
1040
6.0
1070
    44
1040
3.0
1070
    43
1040
14.0
1070
   271
1070
     0
1070
   178
1070
     4
1070
   177
1070
     4
1070
   176
1070
     4
1070
   141
1040
150.0
1070
     7
1000
_OPEN
1070
     6
1000
_OPEN
1070
    41
1040
7.0
1002
}
  0
POINT
  5
895
330
1A
100
AcDbEntity
  8
S120
  6
PHANTOM
 62
     8
 48
5.0
100
AcDbPoint
 10
213.3208555634707
 20
253.8259960951837
 30
0.0
  0
LINE
  5
B6C
330
1A
100
AcDbEntity
  8
ZUWAKU
100
AcDbLine
 10
208.6466015554762
 20
15.19999954755268
 30
0.0
 11
447.4243642363996
 21
15.19999954755267
 31
0.0
  0
LINE
  5
B6D
330
1A
100
AcDbEntity
  8
ZUWAKU
100
AcDbLine
 10
208.6466015554762
 20
15.59999954755267
 30
0.0
 11
447.4243642363996
 21
15.59999954755268
 31
0.0
  0
LINE
  5
B6E
330
1A
100
AcDbEntity
  8
ZUWAKU
100
AcDbLine
 10
208.6466015554762
 20
15.39999954755267
 30
0.0
 11
447.4243642363996
 21
15.39999954755267
 31
0.0
  0
LINE
  5
B6F
330
1A
100
AcDbEntity
  8
ZUWAKU
100
AcDbLine
 10
0.0000002654082891
 20
30.79999954755265
 30
0.0
 11
797.4000002654081
 21
30.79999954755265
 31
0.0
  0
LINE
  5
B70
330
1A
100
AcDbEntity
  8
ZUWAKU
100
AcDbLine
 10
0.0000002654082891
 20
30.59999954755266
 30
0.0
 11
797.4000002654081
 21
30.59999954755266
 31
0.0
  0
LINE
  5
B71
330
1A
100
AcDbEntity
  8
ZUWAKU
100
AcDbLine
 10
0.0000002654082891
 20
30.39999954755265
 30
0.0
 11
797.4000002654081
 21
30.39999954755265
 31
0.0
  0
LINE
  5
B72
330
1A
100
AcDbEntity
  8
ZUWAKU
100
AcDbLine
 10
0.0000002654082891
 20
30.19999954755264
 30
0.0
 11
797.4000002654081
 21
30.19999954755264
 31
0.0
  0
LINE
  5
B73
330
1A
100
AcDbEntity
  8
ZUWAKU
100
AcDbLine
 10
0.0000002654082891
 20
29.99999954755264
 30
0.0
 11
797.4000002654081
 21
29.99999954755264
 31
0.0
  0
LWPOLYLINE
  5
B74
330
1A
100
AcDbEntity
  8
ZUWAKU
100
AcDbPolyline
 90
        4
 70
     1
 43
0.0
 10
0.2000002654082209
 20
551.3999995475526
 10
0.2000002654082209
 20
0.199999547552693
 10
797.4000002654081
 20
0.199999547552716
 10
797.4000002654084
 20
551.3999995475526
  0
LWPOLYLINE
  5
B75
330
1A
100
AcDbEntity
  8
ZUWAKU
100
AcDbPolyline
 90
        4
 70
     1
 43
0.0
 10
0.6000002654081982
 20
550.9999995475527
 10
0.6000002654081982
 20
0.5999995475526704
 10
797.0000002654085
 20
0.5999995475527166
 10
797.0000002654082
 20
550.9999995475527
  0
LWPOLYLINE
  5
B76
330
1A
100
AcDbEntity
  8
ZUWAKU
100
AcDbPolyline
 90
        4
 70
     1
 43
0.0
 10
0.0000002654082891
 20
551.5999995475526
 10
0.0000002654082891
 20
-0.0000004524473525
 10
797.6000002654083
 20
-0.000000452447285
 10
797.6000002654083
 20
551.5999995475527
  0
LWPOLYLINE
  5
B77
330
1A
100
AcDbEntity
  8
ZUWAKU
100
AcDbPolyline
 90
        4
 70
     1
 43
0.0
 10
0.4000002654082664
 20
551.1999995475526
 10
0.4000002654082664
 20
0.3999995475527384
 10
797.2000002654083
 20
0.3999995475527153
 10
797.2000002654083
 20
551.1999995475526
  0
LWPOLYLINE
  5
B78
330
1A
100
AcDbEntity
  8
ZUWAKU
100
AcDbPolyline
 90
        4
 70
     1
 43
0.0
 10
0.8000002654082436
 20
550.7999995475525
 10
0.8000002654082436
 20
0.7999995475527158
 10
796.8000002654081
 20
0.7999995475527158
 10
796.8000002654081
 20
550.7999995475525
  0
TEXT
  5
B79
330
1A
100
AcDbEntity
  8
MOJI
100
AcDbText
 10
129.5810009082394
 20
8.55422296308302
 30
0.0
 40
5.799999999999999
  1
Ｓ１２０Ｈ・Ｍ１２０Ｈ
 41
0.9
  7
ｽﾀｲﾙ1
100
AcDbText
  0
TEXT
  5
B7A
330
1A
100
AcDbEntity
  8
MOJI
100
AcDbText
 10
81.66226421957366
 20
17.85856749647905
 30
0.0
 40
5.799999999999999
  1
アートフェイスＴ１２０・Ｈ１２０・
 41
0.9
  7
ｽﾀｲﾙ1
100
AcDbText
  0
HATCH
  5
B7B
330
1A
100
AcDbEntity
  8
ZUWAKU
100
AcDbHatch
 10
0.0
 20
0.0
 30
0.0
210
0.0
220
0.0
230
1.0
  2
ANSI37
 70
     0
 71
     0
 91
        8
 92
        7
 72
     1
 73
     1
 93
       24
 10
14.50226292652814
 20
17.64484802853622
 42
-0.1989123673796348
 10
14.09221242018941
 20
18.63479752219727
 42
0.0
 10
14.09221242018941
 20
19.92499954755265
 42
-0.4142135623730912
 10
14.61721242018938
 20
20.44999954755264
 42
0.0
 10
17.59221242018928
 20
20.44999954755264
 42
0.4142135623731546
 10
18.11721242018939
 20
20.97499954755263
 42
0.0
 10
18.11721242018939
 20
22.72499954755266
 42
0.4142135623731586
 10
17.59221242018928
 20
23.24999954755264
 42
0.0
 10
14.09221242018941
 20
23.24999954755264
 42
0.4142135623730928
 10
11.29221242018945
 20
20.44999954755267
 42
0.0
 10
11.29221242018945
 20
18.6347975221974
 42
0.1989123673796619
 10
12.52236393920588
 20
15.66494904121379
 42
0.0
 10
15.43216191385055
 20
12.75515106656914
 42
-0.1989123673796613
 10
15.84221242018941
 20
11.76520157290795
 42
0.0
 10
15.84221242018941
 20
10.47499954755263
 42
-0.4142135623730911
 10
15.31721242018942
 20
9.949999547552648
 42
0.0
 10
12.34221242018952
 20
9.949999547552648
 42
0.4142135623731526
 10
11.81721242018942
 20
9.42499954755266
 42
0.0
 10
11.81721242018942
 20
7.67499954755264
 42
0.4142135623731526
 10
12.34221242018952
 20
7.149999547552652
 42
0.0
 10
15.84221242018941
 20
7.149999547552652
 42
0.4142135623731045
 10
18.64221242018948
 20
9.949999547552629
 42
0.0
 10
18.64221242018948
 20
11.76520157290789
 42
0.1989123673796604
 10
17.41206090117293
 20
14.73505005389143
 42
0.0
 97
        0
 92
        7
 72
     1
 73
     1
 93
       16
 10
23.54221242018945
 20
19.04999954755265
 42
-0.4142135623730935
 10
24.94221242018943
 20
20.44999954755264
 42
0.0
 10
26.86721242018939
 20
20.44999954755264
 42
0.4142135623731546
 10
27.39221242018948
 20
20.97499954755263
 42
0.0
 10
27.39221242018948
 20
22.72499954755266
 42
0.4142135623730951
 10
26.8672124201895
 20
23.24999954755264
 42
0.0
 10
24.94221242018932
 20
23.2499995475526
 42
0.4142135623730893
 10
20.74221242018937
 20
19.04999954755258
 42
0.0
 10
20.74221242018937
 20
11.34999954755267
 42
0.4142135623730969
 10
24.94221242018943
 20
7.149999547552652
 42
0.0
 10
26.86721242018939
 20
7.149999547552652
 42
0.4142135623731526
 10
27.39221242018948
 20
7.67499954755264
 42
0.0
 10
27.39221242018948
 20
9.42499954755266
 42
0.4142135623730891
 10
26.8672124201895
 20
9.949999547552648
 42
0.0
 10
24.94221242018943
 20
9.949999547552648
 42
-0.4142135623730928
 10
23.54221242018945
 20
11.34999954755263
 42
0.0
 97
        0
 92
        7
 72
     1
 73
     1
 93
        2
 10
24.24221242018939
 20
15.19999954755264
 42
1.0
 10
27.74221242018939
 20
15.19999954755264
 42
1.0
 97
        0
 92
        7
 72
     1
 73
     1
 93
       26
 10
37.3148589023674
 20
19.20504674111607
 42
0.0
 10
38.37649853550523
 20
22.56690557938566
 42
0.5069206636600134
 10
37.87586763630986
 20
23.24999954755264
 42
0.0
 10
36.17697825670063
 20
23.24999954755264
 42
0.3272098845218764
 10
35.67634735750527
 20
22.88309351571961
 42
0.0
 10
33.80807748287348
 20
16.96690557938572
 42
-0.3272098845219541
 10
33.30744658367802
 20
16.59999954755264
 42
0.0
 10
33.16721242018957
 20
16.59999954755264
 42
-0.4142135623731526
 10
32.64221242018948
 20
17.12499954755263
 42
0.0
 10
32.64221242018948
 20
22.72499954755266
 42
0.4142135623730951
 10
32.1172124201895
 20
23.24999954755264
 42
0.0
 10
30.36721242018938
 20
23.24999954755264
 42
0.4142135623730871
 10
29.84221242018941
 20
22.72499954755266
 42
0.0
 10
29.84221242018941
 20
7.67499954755264
 42
0.4142135623730891
 10
30.36721242018938
 20
7.149999547552652
 42
0.0
 10
32.11721242018938
 20
7.149999547552652
 42
0.4142135623731526
 10
32.64221242018948
 20
7.67499954755264
 42
0.0
 10
32.64221242018948
 20
13.27499954755265
 42
-0.4142135623731526
 10
33.16721242018957
 20
13.79999954755264
 42
0.0
 10
33.30744658367814
 20
13.79999954755264
 42
-0.3272098845218915
 10
33.80807748287348
 20
13.43309351571957
 42
0.0
 10
35.67634735750527
 20
7.516905579385723
 42
0.3272098845218902
 10
36.17697825670063
 20
7.149999547552652
 42
0.0
 10
37.87586763630986
 20
7.149999547552652
 42
0.5069206636600336
 10
38.37649853550523
 20
7.83309351571966
 42
0.0
 10
36.05010715703156
 20
15.19999954755278
 42
0.0
 97
        0
 92
        7
 72
     1
 73
     1
 93
        8
 10
43.49221242018937
 20
22.72499954755266
 42
0.4142135623731546
 10
42.96721242018929
 20
23.24999954755264
 42
0.0
 10
41.21721242018953
 20
23.24999954755264
 42
0.4142135623731507
 10
40.69221242018943
 20
22.72499954755266
 42
0.0
 10
40.69221242018943
 20
7.67499954755264
 42
0.4142135623731526
 10
41.21721242018953
 20
7.149999547552652
 42
0.0
 10
42.96721242018929
 20
7.149999547552652
 42
0.4142135623731526
 10
43.49221242018937
 20
7.67499954755264
 42
0.0
 97
        0
 92
        7
 72
     1
 73
     1
 93
       24
 10
48.39221242018947
 20
19.92499954755265
 42
-0.4142135623731546
 10
48.91721242018957
 20
20.44999954755264
 42
0.0
 10
51.89221242018948
 20
20.44999954755264
 42
0.4142135623730911
 10
52.41721242018945
 20
20.97499954755263
 42
0.0
 10
52.41721242018945
 20
22.72499954755266
 42
0.4142135623730952
 10
51.89221242018948
 20
23.24999954755264
 42
0.0
 10
48.39221242018947
 20
23.24999954755264
 42
0.4142135623731048
 10
45.59221242018941
 20
20.44999954755267
 42
0.0
 10
45.59221242018941
 20
18.6347975221974
 42
0.1989123673796613
 10
46.82236393920595
 20
15.66494904121385
 42
0.0
 10
49.73216191385063
 20
12.75515106656918
 42
-0.1989123673796402
 10
50.14221242018948
 20
11.76520157290811
 42
0.0
 10
50.14221242018948
 20
10.47499954755263
 42
-0.4142135623730911
 10
49.6172124201895
 20
9.949999547552648
 42
0.0
 10
46.64221242018948
 20
9.949999547552648
 42
0.4142135623731526
 10
46.11721242018939
 20
9.42499954755266
 42
0.0
 10
46.11721242018939
 20
7.67499954755264
 42
0.4142135623730891
 10
46.64221242018936
 20
7.149999547552652
 42
0.0
 10
50.14221242018948
 20
7.149999547552652
 42
0.4142135623730925
 10
52.94221242018942
 20
9.949999547552629
 42
0.0
 10
52.94221242018942
 20
11.76520157290789
 42
0.1989123673796675
 10
51.71206090117289
 20
14.73505005389155
 42
0.0
 10
48.80226292652832
 20
17.64484802853606
 42
-0.1989123673796652
 10
48.39221242018947
 20
18.63479752219723
 42
0.0
 97
        0
 92
        7
 72
     1
 73
     1
 93
       16
 10
57.84221242018941
 20
22.72499954755263
 42
0.414213562373103
 10
57.31721242018942
 20
23.24999954755264
 42
0.0
 10
55.56721242018943
 20
23.24999954755264
 42
0.4142135623730871
 10
55.04221242018945
 20
22.72499954755266
 42
0.0
 10
55.04221242018945
 20
9.949999547552629
 42
0.4142135623730927
 10
57.84221242018941
 20
7.149999547552652
 42
0.0
 10
61.34221242018941
 20
7.149999547552652
 42
0.4142135623731045
 10
64.14221242018948
 20
9.949999547552629
 42
0.0
 10
64.14221242018948
 20
22.72499954755266
 42
0.4142135623730951
 10
63.6172124201895
 20
23.24999954755264
 42
0.0
 10
61.86721242018939
 20
23.24999954755264
 42
0.4142135623730871
 10
61.34221242018941
 20
22.72499954755266
 42
0.0
 10
61.34221242018941
 20
10.99999954755262
 42
-0.4142135623730879
 10
60.29221242018945
 20
9.949999547552648
 42
0.0
 10
58.89221242018948
 20
9.949999547552648
 42
-0.4142135623731197
 10
57.84221242018941
 20
10.99999954755262
 42
0.0
 97
        0
 92
        7
 72
     1
 73
     1
 93
        8
 10
69.04221242018945
 20
22.72499954755266
 42
0.4142135623730871
 10
68.51721242018948
 20
23.24999954755264
 42
0.0
 10
66.76721242018948
 20
23.24999954755264
 42
0.4142135623731507
 10
66.24221242018939
 20
22.72499954755266
 42
0.0
 10
66.24221242018939
 20
7.67499954755264
 42
0.4142135623730891
 10
66.76721242018937
 20
7.149999547552652
 42
0.0
 10
68.51721242018948
 20
7.149999547552652
 42
0.4142135623730891
 10
69.04221242018945
 20
7.67499954755264
 42
0.0
 97
        0
 75
     0
 76
     1
 52
0.0
 41
0.2
 77
     0
 78
     2
 53
45.0
 43
-900.9423040692707
 44
-13.20000045244727
 45
-0.4490128060534576
 46
0.4490128060534577
 79
     0
 53
135.0
 43
-900.9423040692707
 44
-13.20000045244727
 45
-0.4490128060534577
 46
-0.4490128060534576
 79
     0
 47
0.057451373970553
 98
        8
 10
16.07985522843159
 20
15.16717319343819
 10
22.40451527184746
 20
18.84406173000365
 10
25.16436815106794
 20
15.51188119362336
 10
30.91406024704542
 20
16.20129719399414
 10
41.83847228436501
 20
16.66090946153576
 10
46.89820116053783
 20
19.41857586395985
 10
56.55768623780863
 20
18.72915746264765
 10
67.82707988503102
 20
19.18876973018927
  0
LINE
  5
B7C
330
1A
100
AcDbEntity
  8
ZUWAKU
100
AcDbLine
 10
24.94221242018943
 20
23.2499995475526
 30
0.0
 11
26.86721242018939
 21
23.24999954755264
 31
0.0
  0
LINE
  5
B7D
330
1A
100
AcDbEntity
  8
ZUWAKU
100
AcDbLine
 10
26.86721242018939
 20
20.44999954755264
 30
0.0
 11
24.94221242018943
 21
20.44999954755264
 31
0.0
  0
LINE
  5
B7E
330
1A
100
AcDbEntity
  8
ZUWAKU
100
AcDbLine
 10
24.94221242018943
 20
9.949999547552648
 30
0.0
 11
26.86721242018939
 21
9.949999547552648
 31
0.0
  0
LINE
  5
B7F
330
1A
100
AcDbEntity
  8
ZUWAKU
100
AcDbLine
 10
26.86721242018939
 20
7.149999547552652
 30
0.0
 11
24.94221242018943
 21
7.149999547552652
 31
0.0
  0
CIRCLE
  5
B80
330
1A
100
AcDbEntity
  8
ZUWAKU
100
AcDbCircle
 10
25.99221242018938
 20
15.19999954755264
 30
0.0
 40
1.75
  0
ARC
  5
B81
330
1A
100
AcDbEntity
  8
ZUWAKU
100
AcDbCircle
 10
15.49221242018939
 20
18.63479752219734
 30
0.0
 40
1.399999999999999
100
AcDbArc
 50
180.0000000000015
 51
224.9999999999988
  0
LINE
  5
B82
330
1A
100
AcDbEntity
  8
ZUWAKU
100
AcDbLine
 10
23.54221242018945
 20
19.04999954755264
 30
0.0
 11
23.54221242018945
 21
11.34999954755265
 31
0.0
  0
LINE
  5
B83
330
1A
100
AcDbEntity
  8
ZUWAKU
100
AcDbLine
 10
20.74221242018937
 20
11.34999954755265
 30
0.0
 11
20.74221242018937
 21
19.0499995475526
 31
0.0
  0
ARC
  5
B84
330
1A
100
AcDbEntity
  8
ZUWAKU
100
AcDbCircle
 10
15.49221242018939
 20
18.63479752219734
 30
0.0
 40
4.199999999999998
100
AcDbArc
 50
180.0
 51
225.0
  0
ARC
  5
B85
330
1A
100
AcDbEntity
  8
ZUWAKU
100
AcDbCircle
 10
15.84221242018941
 20
9.949999547552648
 30
0.0
 40
2.799999999999998
100
AcDbArc
 50
270.0
 51
0.0
  0
ARC
  5
B86
330
1A
100
AcDbEntity
  8
ZUWAKU
100
AcDbCircle
 10
24.94221242018943
 20
11.34999954755265
 30
0.0
 40
4.199999999999998
100
AcDbArc
 50
180.0
 51
270.0
  0
ARC
  5
B87
330
1A
100
AcDbEntity
  8
ZUWAKU
100
AcDbCircle
 10
14.44221242018943
 20
11.76520157290795
 30
0.0
 40
4.199999999999998
100
AcDbArc
 50
0.0
 51
45.0
  0
LINE
  5
B88
330
1A
100
AcDbEntity
  8
ZUWAKU
100
AcDbLine
 10
17.41206090117293
 20
14.73505005389147
 30
0.0
 11
14.50226292652825
 21
17.64484802853614
 31
0.0
  0
LINE
  5
B89
330
1A
100
AcDbEntity
  8
ZUWAKU
100
AcDbLine
 10
15.84221242018941
 20
10.47499954755265
 30
0.0
 11
15.84221242018941
 21
11.76520157290799
 31
0.0
  0
ARC
  5
B8A
330
1A
100
AcDbEntity
  8
ZUWAKU
100
AcDbCircle
 10
15.31721242018942
 20
10.47499954755265
 30
0.0
 40
0.525
100
AcDbArc
 50
270.0
 51
0.0
  0
ARC
  5
B8B
330
1A
100
AcDbEntity
  8
ZUWAKU
100
AcDbCircle
 10
14.44221242018943
 20
11.76520157290799
 30
0.0
 40
1.399999999999999
100
AcDbArc
 50
0.0
 51
45.0
  0
LINE
  5
B8C
330
1A
100
AcDbEntity
  8
ZUWAKU
100
AcDbLine
 10
11.81721242018942
 20
7.67499954755265
 30
0.0
 11
11.81721242018942
 21
9.42499954755265
 31
0.0
  0
ARC
  5
B8D
330
1A
100
AcDbEntity
  8
ZUWAKU
100
AcDbCircle
 10
12.34221242018941
 20
7.67499954755265
 30
0.0
 40
0.525
100
AcDbArc
 50
180.0
 51
270.0
  0
ARC
  5
B8E
330
1A
100
AcDbEntity
  8
ZUWAKU
100
AcDbCircle
 10
12.34221242018941
 20
9.42499954755265
 30
0.0
 40
0.525
100
AcDbArc
 50
90.0
 51
180.0
  0
LINE
  5
B8F
330
1A
100
AcDbEntity
  8
ZUWAKU
100
AcDbLine
 10
12.34221242018941
 20
7.149999547552652
 30
0.0
 11
15.84221242018941
 21
7.149999547552652
 31
0.0
  0
LINE
  5
B90
330
1A
100
AcDbEntity
  8
ZUWAKU
100
AcDbLine
 10
12.34221242018941
 20
9.949999547552648
 30
0.0
 11
15.31721242018942
 21
9.949999547552648
 31
0.0
  0
LINE
  5
B91
330
1A
100
AcDbEntity
  8
ZUWAKU
100
AcDbLine
 10
12.52236393920588
 20
15.66494904121382
 30
0.0
 11
15.43216191385055
 21
12.75515106656916
 31
0.0
  0
LINE
  5
B92
330
1A
100
AcDbEntity
  8
ZUWAKU
100
AcDbLine
 10
18.64221242018948
 20
9.949999547552648
 30
0.0
 11
18.64221242018948
 21
11.76520157290799
 31
0.0
  0
ARC
  5
B93
330
1A
100
AcDbEntity
  8
ZUWAKU
100
AcDbCircle
 10
24.94221242018943
 20
11.34999954755265
 30
0.0
 40
1.399999999999999
100
AcDbArc
 50
180.0
 51
270.0
  0
ARC
  5
B94
330
1A
100
AcDbEntity
  8
ZUWAKU
100
AcDbCircle
 10
17.59221242018941
 20
22.72499954755264
 30
0.0
 40
0.525
100
AcDbArc
 50
0.0
 51
90.0
  0
ARC
  5
B95
330
1A
100
AcDbEntity
  8
ZUWAKU
100
AcDbCircle
 10
17.59221242018941
 20
20.97499954755264
 30
0.0
 40
0.525
100
AcDbArc
 50
270.0
 51
0.0
  0
LINE
  5
B96
330
1A
100
AcDbEntity
  8
ZUWAKU
100
AcDbLine
 10
14.09221242018941
 20
23.24999954755264
 30
0.0
 11
17.59221242018941
 21
23.24999954755264
 31
0.0
  0
ARC
  5
B97
330
1A
100
AcDbEntity
  8
ZUWAKU
100
AcDbCircle
 10
14.61721242018938
 20
19.92499954755264
 30
0.0
 40
0.525
100
AcDbArc
 50
90.0
 51
180.0
  0
LINE
  5
B98
330
1A
100
AcDbEntity
  8
ZUWAKU
100
AcDbLine
 10
14.09221242018941
 20
19.92499954755264
 30
0.0
 11
14.09221242018941
 21
18.6347975221973
 31
0.0
  0
LINE
  5
B99
330
1A
100
AcDbEntity
  8
ZUWAKU
100
AcDbLine
 10
17.59221242018941
 20
20.44999954755264
 30
0.0
 11
14.61721242018938
 21
20.44999954755264
 31
0.0
  0
LINE
  5
B9A
330
1A
100
AcDbEntity
  8
ZUWAKU
100
AcDbLine
 10
11.29221242018945
 20
20.44999954755264
 30
0.0
 11
11.29221242018945
 21
18.6347975221973
 31
0.0
  0
ARC
  5
B9B
330
1A
100
AcDbEntity
  8
ZUWAKU
100
AcDbCircle
 10
14.09221242018941
 20
20.44999954755264
 30
0.0
 40
2.799999999999998
100
AcDbArc
 50
90.0
 51
180.0
  0
LINE
  5
B9C
330
1A
100
AcDbEntity
  8
ZUWAKU
100
AcDbLine
 10
18.11721242018939
 20
22.72499954755264
 30
0.0
 11
18.11721242018939
 21
20.97499954755264
 31
0.0
  0
ARC
  5
B9D
330
1A
100
AcDbEntity
  8
ZUWAKU
100
AcDbCircle
 10
24.94221242018943
 20
19.04999954755264
 30
0.0
 40
1.399999999999999
100
AcDbArc
 50
90.0
 51
180.0
  0
ARC
  5
B9E
330
1A
100
AcDbEntity
  8
ZUWAKU
100
AcDbCircle
 10
24.94221242018943
 20
19.0499995475526
 30
0.0
 40
4.199999999999998
100
AcDbArc
 50
90.0
 51
180.0
  0
LINE
  5
B9F
330
1A
100
AcDbEntity
  8
ZUWAKU
100
AcDbLine
 10
79.3266298133965
 20
29.99999954755264
 30
0.0
 11
79.32662981339672
 21
0.7999995475527158
 31
0.0
  0
LINE
  5
BA0
330
1A
100
AcDbEntity
  8
ZUWAKU
100
AcDbLine
 10
79.52662981339654
 20
29.99999954755264
 30
0.0
 11
79.52662981339675
 21
0.7999995475527158
 31
0.0
  0
LINE
  5
BA1
330
1A
100
AcDbEntity
  8
ZUWAKU
100
AcDbLine
 10
79.12662981339668
 20
29.99999954755264
 30
0.0
 11
79.12662981339668
 21
0.7999995475527158
 31
0.0
  0
LINE
  5
BA2
330
1A
100
AcDbEntity
  8
ZUWAKU
100
AcDbLine
 10
64.14221242018948
 20
9.949999547552648
 30
0.0
 11
64.14221242018948
 21
22.72499954755264
 31
0.0
  0
LINE
  5
BA3
330
1A
100
AcDbEntity
  8
ZUWAKU
100
AcDbLine
 10
61.34221242018941
 20
22.72499954755264
 30
0.0
 11
61.34221242018941
 21
10.99999954755264
 31
0.0
  0
LINE
  5
BA4
330
1A
100
AcDbEntity
  8
ZUWAKU
100
AcDbLine
 10
69.04221242018945
 20
7.67499954755265
 30
0.0
 11
69.04221242018945
 21
22.72499954755264
 31
0.0
  0
LINE
  5
BA5
330
1A
100
AcDbEntity
  8
ZUWAKU
100
AcDbLine
 10
66.24221242018939
 20
22.72499954755264
 30
0.0
 11
66.24221242018939
 21
7.67499954755265
 31
0.0
  0
ARC
  5
BA6
330
1A
100
AcDbEntity
  8
ZUWAKU
100
AcDbCircle
 10
49.79221242018945
 20
18.63479752219734
 30
0.0
 40
1.399999999999999
100
AcDbArc
 50
180.0000000000015
 51
224.9999999999988
  0
ARC
  5
BA7
330
1A
100
AcDbEntity
  8
ZUWAKU
100
AcDbCircle
 10
49.79221242018945
 20
18.63479752219734
 30
0.0
 40
4.199999999999998
100
AcDbArc
 50
180.0
 51
225.0
  0
LINE
  5
BA8
330
1A
100
AcDbEntity
  8
ZUWAKU
100
AcDbLine
 10
37.3148589023674
 20
19.20504674111607
 30
0.0
 11
36.05010715703156
 21
15.19999954755266
 31
0.0
  0
LINE
  5
BA9
330
1A
100
AcDbEntity
  8
ZUWAKU
100
AcDbLine
 10
40.69221242018943
 20
22.72499954755264
 30
0.0
 11
40.69221242018943
 21
7.67499954755265
 31
0.0
  0
LINE
  5
BAA
330
1A
100
AcDbEntity
  8
ZUWAKU
100
AcDbLine
 10
43.49221242018937
 20
7.67499954755265
 30
0.0
 11
43.49221242018937
 21
22.72499954755264
 31
0.0
  0
LINE
  5
BAB
330
1A
100
AcDbEntity
  8
ZUWAKU
100
AcDbLine
 10
55.04221242018945
 20
22.72499954755264
 30
0.0
 11
55.04221242018945
 21
9.949999547552648
 31
0.0
  0
LINE
  5
BAC
330
1A
100
AcDbEntity
  8
ZUWAKU
100
AcDbLine
 10
57.84221242018941
 20
10.99999954755264
 30
0.0
 11
57.84221242018941
 21
22.72499954755264
 31
0.0
  0
LINE
  5
BAD
330
1A
100
AcDbEntity
  8
ZUWAKU
100
AcDbLine
 10
32.64221242018948
 20
17.12499954755265
 30
0.0
 11
32.64221242018948
 21
22.72499954755264
 31
0.0
  0
LINE
  5
BAE
330
1A
100
AcDbEntity
  8
ZUWAKU
100
AcDbLine
 10
29.84221242018941
 20
22.72499954755264
 30
0.0
 11
29.84221242018941
 21
7.67499954755265
 31
0.0
  0
LINE
  5
BAF
330
1A
100
AcDbEntity
  8
ZUWAKU
100
AcDbLine
 10
35.67634735750527
 20
22.88309351571961
 30
0.0
 11
33.80807748287348
 21
16.96690557938567
 31
0.0
  0
LINE
  5
BB0
330
1A
100
AcDbEntity
  8
ZUWAKU
100
AcDbLine
 10
60.29221242018945
 20
9.949999547552648
 30
0.0
 11
58.89221242018948
 21
9.949999547552648
 31
0.0
  0
LINE
  5
BB1
330
1A
100
AcDbEntity
  8
ZUWAKU
100
AcDbLine
 10
57.84221242018941
 20
7.149999547552652
 30
0.0
 11
61.34221242018941
 21
7.149999547552652
 31
0.0
  0
LINE
  5
BB2
330
1A
100
AcDbEntity
  8
ZUWAKU
100
AcDbLine
 10
41.21721242018941
 20
7.149999547552652
 30
0.0
 11
42.96721242018941
 21
7.149999547552652
 31
0.0
  0
LINE
  5
BB3
330
1A
100
AcDbEntity
  8
ZUWAKU
100
AcDbLine
 10
35.67634735750527
 20
7.516905579385677
 30
0.0
 11
33.80807748287348
 21
13.43309351571961
 31
0.0
  0
ARC
  5
BB4
330
1A
100
AcDbEntity
  8
ZUWAKU
100
AcDbCircle
 10
33.30744658367814
 20
17.12499954755265
 30
0.0
 40
0.525
100
AcDbArc
 50
270.0
 51
342.4744316262769
  0
LINE
  5
BB5
330
1A
100
AcDbEntity
  8
ZUWAKU
100
AcDbLine
 10
33.30744658367814
 20
16.59999954755264
 30
0.0
 11
33.16721242018945
 21
16.59999954755264
 31
0.0
  0
LINE
  5
BB6
330
1A
100
AcDbEntity
  8
ZUWAKU
100
AcDbLine
 10
33.16721242018945
 20
13.79999954755264
 30
0.0
 11
33.30744658367814
 21
13.79999954755264
 31
0.0
  0
ARC
  5
BB7
330
1A
100
AcDbEntity
  8
ZUWAKU
100
AcDbCircle
 10
33.16721242018945
 20
17.12499954755265
 30
0.0
 40
0.525
100
AcDbArc
 50
180.0
 51
270.0
  0
LINE
  5
BB8
330
1A
100
AcDbEntity
  8
ZUWAKU
100
AcDbLine
 10
30.36721242018938
 20
7.149999547552652
 30
0.0
 11
32.11721242018938
 21
7.149999547552652
 31
0.0
  0
ARC
  5
BB9
330
1A
100
AcDbEntity
  8
ZUWAKU
100
AcDbCircle
 10
32.11721242018938
 20
7.67499954755265
 30
0.0
 40
0.525
100
AcDbArc
 50
270.0
 51
0.0
  0
LINE
  5
BBA
330
1A
100
AcDbEntity
  8
ZUWAKU
100
AcDbLine
 10
32.64221242018948
 20
7.67499954755265
 30
0.0
 11
32.64221242018948
 21
13.27499954755264
 31
0.0
  0
LINE
  5
BBB
330
1A
100
AcDbEntity
  8
ZUWAKU
100
AcDbLine
 10
27.39221242018948
 20
9.42499954755265
 30
0.0
 11
27.39221242018948
 21
7.67499954755265
 31
0.0
  0
ARC
  5
BBC
330
1A
100
AcDbEntity
  8
ZUWAKU
100
AcDbCircle
 10
26.86721242018939
 20
7.67499954755265
 30
0.0
 40
0.525
100
AcDbArc
 50
270.0
 51
0.0
  0
ARC
  5
BBD
330
1A
100
AcDbEntity
  8
ZUWAKU
100
AcDbCircle
 10
26.86721242018939
 20
9.42499954755265
 30
0.0
 40
0.525
100
AcDbArc
 50
0.0
 51
90.0
  0
ARC
  5
BBE
330
1A
100
AcDbEntity
  8
ZUWAKU
100
AcDbCircle
 10
30.36721242018938
 20
7.67499954755265
 30
0.0
 40
0.525
100
AcDbArc
 50
180.0
 51
270.0
  0
ARC
  5
BBF
330
1A
100
AcDbEntity
  8
ZUWAKU
100
AcDbCircle
 10
33.30744658367814
 20
13.27499954755264
 30
0.0
 40
0.525
100
AcDbArc
 50
17.52556837372303
 51
90.0
  0
ARC
  5
BC0
330
1A
100
AcDbEntity
  8
ZUWAKU
100
AcDbCircle
 10
33.16721242018945
 20
13.27499954755264
 30
0.0
 40
0.525
100
AcDbArc
 50
90.0
 51
180.0
  0
ARC
  5
BC1
330
1A
100
AcDbEntity
  8
ZUWAKU
100
AcDbCircle
 10
41.21721242018941
 20
7.67499954755265
 30
0.0
 40
0.525
100
AcDbArc
 50
180.0
 51
270.0
  0
LINE
  5
BC2
330
1A
100
AcDbEntity
  8
ZUWAKU
100
AcDbLine
 10
36.17697825670074
 20
7.149999547552652
 30
0.0
 11
37.87586763630975
 21
7.149999547552652
 31
0.0
  0
ARC
  5
BC3
330
1A
100
AcDbEntity
  8
ZUWAKU
100
AcDbCircle
 10
37.87586763630975
 20
7.67499954755265
 30
0.0
 40
0.525
100
AcDbArc
 50
270.0
 51
17.52556837372303
  0
LINE
  5
BC4
330
1A
100
AcDbEntity
  8
ZUWAKU
100
AcDbLine
 10
38.37649853550523
 20
7.833093515719625
 30
0.0
 11
36.05010715703156
 21
15.19999954755266
 31
0.0
  0
ARC
  5
BC5
330
1A
100
AcDbEntity
  8
ZUWAKU
100
AcDbCircle
 10
36.17697825670074
 20
7.67499954755265
 30
0.0
 40
0.525
100
AcDbArc
 50
197.5255683737229
 51
270.0
  0
ARC
  5
BC6
330
1A
100
AcDbEntity
  8
ZUWAKU
100
AcDbCircle
 10
57.84221242018941
 20
9.949999547552648
 30
0.0
 40
2.799999999999998
100
AcDbArc
 50
180.0
 51
270.0
  0
ARC
  5
BC7
330
1A
100
AcDbEntity
  8
ZUWAKU
100
AcDbCircle
 10
50.14221242018948
 20
9.949999547552648
 30
0.0
 40
2.799999999999998
100
AcDbArc
 50
270.0
 51
0.0
  0
LINE
  5
BC8
330
1A
100
AcDbEntity
  8
ZUWAKU
100
AcDbLine
 10
51.712060901173
 20
14.73505005389147
 30
0.0
 11
48.80226292652822
 21
17.64484802853614
 31
0.0
  0
LINE
  5
BC9
330
1A
100
AcDbEntity
  8
ZUWAKU
100
AcDbLine
 10
50.14221242018948
 20
10.47499954755265
 30
0.0
 11
50.14221242018948
 21
11.76520157290799
 31
0.0
  0
ARC
  5
BCA
330
1A
100
AcDbEntity
  8
ZUWAKU
100
AcDbCircle
 10
48.74221242018939
 20
11.76520157290799
 30
0.0
 40
1.399999999999999
100
AcDbArc
 50
0.0
 51
45.0
  0
ARC
  5
BCB
330
1A
100
AcDbEntity
  8
ZUWAKU
100
AcDbCircle
 10
49.61721242018938
 20
10.47499954755265
 30
0.0
 40
0.525
100
AcDbArc
 50
270.0
 51
0.0
  0
LINE
  5
BCC
330
1A
100
AcDbEntity
  8
ZUWAKU
100
AcDbLine
 10
46.11721242018939
 20
7.67499954755265
 30
0.0
 11
46.11721242018939
 21
9.42499954755265
 31
0.0
  0
ARC
  5
BCD
330
1A
100
AcDbEntity
  8
ZUWAKU
100
AcDbCircle
 10
46.64221242018948
 20
7.67499954755265
 30
0.0
 40
0.525
100
AcDbArc
 50
180.0
 51
270.0
  0
ARC
  5
BCE
330
1A
100
AcDbEntity
  8
ZUWAKU
100
AcDbCircle
 10
42.96721242018941
 20
7.67499954755265
 30
0.0
 40
0.525
100
AcDbArc
 50
270.0
 51
0.0
  0
ARC
  5
BCF
330
1A
100
AcDbEntity
  8
ZUWAKU
100
AcDbCircle
 10
46.64221242018948
 20
9.42499954755265
 30
0.0
 40
0.525
100
AcDbArc
 50
90.0
 51
180.0
  0
LINE
  5
BD0
330
1A
100
AcDbEntity
  8
ZUWAKU
100
AcDbLine
 10
46.64221242018948
 20
9.949999547552648
 30
0.0
 11
49.61721242018938
 21
9.949999547552648
 31
0.0
  0
LINE
  5
BD1
330
1A
100
AcDbEntity
  8
ZUWAKU
100
AcDbLine
 10
46.64221242018948
 20
7.149999547552652
 30
0.0
 11
50.14221242018948
 21
7.149999547552652
 31
0.0
  0
LINE
  5
BD2
330
1A
100
AcDbEntity
  8
ZUWAKU
100
AcDbLine
 10
46.82236393920595
 20
15.66494904121382
 30
0.0
 11
49.73216191385063
 21
12.75515106656916
 31
0.0
  0
LINE
  5
BD3
330
1A
100
AcDbEntity
  8
ZUWAKU
100
AcDbLine
 10
52.94221242018942
 20
9.949999547552648
 30
0.0
 11
52.94221242018942
 21
11.76520157290799
 31
0.0
  0
ARC
  5
BD4
330
1A
100
AcDbEntity
  8
ZUWAKU
100
AcDbCircle
 10
48.74221242018939
 20
11.76520157290795
 30
0.0
 40
4.199999999999998
100
AcDbArc
 50
0.0
 51
45.0
  0
ARC
  5
BD5
330
1A
100
AcDbEntity
  8
ZUWAKU
100
AcDbCircle
 10
58.89221242018948
 20
10.99999954755264
 30
0.0
 40
1.049999999999998
100
AcDbArc
 50
180.0
 51
270.0
  0
ARC
  5
BD6
330
1A
100
AcDbEntity
  8
ZUWAKU
100
AcDbCircle
 10
61.34221242018941
 20
9.949999547552648
 30
0.0
 40
2.799999999999998
100
AcDbArc
 50
270.0
 51
0.0
  0
LINE
  5
BD7
330
1A
100
AcDbEntity
  8
ZUWAKU
100
AcDbLine
 10
66.76721242018948
 20
7.149999547552652
 30
0.0
 11
68.51721242018948
 21
7.149999547552652
 31
0.0
  0
ARC
  5
BD8
330
1A
100
AcDbEntity
  8
ZUWAKU
100
AcDbCircle
 10
66.76721242018948
 20
7.67499954755265
 30
0.0
 40
0.525
100
AcDbArc
 50
180.0
 51
270.0
  0
ARC
  5
BD9
330
1A
100
AcDbEntity
  8
ZUWAKU
100
AcDbCircle
 10
60.29221242018945
 20
10.99999954755264
 30
0.0
 40
1.049999999999998
100
AcDbArc
 50
270.0
 51
0.0
  0
ARC
  5
BDA
330
1A
100
AcDbEntity
  8
ZUWAKU
100
AcDbCircle
 10
68.51721242018948
 20
7.67499954755265
 30
0.0
 40
0.525
100
AcDbArc
 50
270.0
 51
0.0
  0
LINE
  5
BDB
330
1A
100
AcDbEntity
  8
ZUWAKU
100
AcDbLine
 10
42.96721242018941
 20
23.24999954755264
 30
0.0
 11
41.21721242018941
 21
23.24999954755264
 31
0.0
  0
ARC
  5
BDC
330
1A
100
AcDbEntity
  8
ZUWAKU
100
AcDbCircle
 10
32.11721242018938
 20
22.72499954755264
 30
0.0
 40
0.525
100
AcDbArc
 50
0.0
 51
90.0
  0
LINE
  5
BDD
330
1A
100
AcDbEntity
  8
ZUWAKU
100
AcDbLine
 10
32.11721242018938
 20
23.24999954755264
 30
0.0
 11
30.36721242018938
 21
23.24999954755264
 31
0.0
  0
ARC
  5
BDE
330
1A
100
AcDbEntity
  8
ZUWAKU
100
AcDbCircle
 10
26.86721242018939
 20
22.72499954755264
 30
0.0
 40
0.525
100
AcDbArc
 50
0.0
 51
90.0
  0
ARC
  5
BDF
330
1A
100
AcDbEntity
  8
ZUWAKU
100
AcDbCircle
 10
30.36721242018938
 20
22.72499954755264
 30
0.0
 40
0.525
100
AcDbArc
 50
90.0
 51
180.0
  0
ARC
  5
BE0
330
1A
100
AcDbEntity
  8
ZUWAKU
100
AcDbCircle
 10
26.86721242018939
 20
20.97499954755264
 30
0.0
 40
0.525
100
AcDbArc
 50
270.0
 51
0.0
  0
LINE
  5
BE1
330
1A
100
AcDbEntity
  8
ZUWAKU
100
AcDbLine
 10
27.39221242018948
 20
22.72499954755264
 30
0.0
 11
27.39221242018948
 21
20.97499954755264
 31
0.0
  0
ARC
  5
BE2
330
1A
100
AcDbEntity
  8
ZUWAKU
100
AcDbCircle
 10
41.21721242018941
 20
22.72499954755264
 30
0.0
 40
0.525
100
AcDbArc
 50
90.0
 51
180.0
  0
LINE
  5
BE3
330
1A
100
AcDbEntity
  8
ZUWAKU
100
AcDbLine
 10
36.17697825670074
 20
23.24999954755264
 30
0.0
 11
37.87586763630975
 21
23.24999954755264
 31
0.0
  0
ARC
  5
BE4
330
1A
100
AcDbEntity
  8
ZUWAKU
100
AcDbCircle
 10
37.87586763630975
 20
22.72499954755264
 30
0.0
 40
0.525
100
AcDbArc
 50
342.4744316262769
 51
90.0
  0
LINE
  5
BE5
330
1A
100
AcDbEntity
  8
ZUWAKU
100
AcDbLine
 10
38.37649853550523
 20
22.56690557938568
 30
0.0
 11
37.3148589023674
 21
19.20504674111607
 31
0.0
  0
ARC
  5
BE6
330
1A
100
AcDbEntity
  8
ZUWAKU
100
AcDbCircle
 10
36.17697825670074
 20
22.72499954755264
 30
0.0
 40
0.525
100
AcDbArc
 50
90.0
 51
162.4744316262769
  0
LINE
  5
BE7
330
1A
100
AcDbEntity
  8
ZUWAKU
100
AcDbLine
 10
48.39221242018947
 20
23.24999954755264
 30
0.0
 11
51.89221242018948
 21
23.24999954755264
 31
0.0
  0
LINE
  5
BE8
330
1A
100
AcDbEntity
  8
ZUWAKU
100
AcDbLine
 10
51.89221242018948
 20
20.44999954755264
 30
0.0
 11
48.91721242018945
 21
20.44999954755264
 31
0.0
  0
ARC
  5
BE9
330
1A
100
AcDbEntity
  8
ZUWAKU
100
AcDbCircle
 10
48.91721242018945
 20
19.92499954755264
 30
0.0
 40
0.525
100
AcDbArc
 50
90.0
 51
180.0
  0
LINE
  5
BEA
330
1A
100
AcDbEntity
  8
ZUWAKU
100
AcDbLine
 10
48.39221242018947
 20
19.92499954755264
 30
0.0
 11
48.39221242018947
 21
18.6347975221973
 31
0.0
  0
ARC
  5
BEB
330
1A
100
AcDbEntity
  8
ZUWAKU
100
AcDbCircle
 10
42.96721242018941
 20
22.72499954755264
 30
0.0
 40
0.525
100
AcDbArc
 50
0.0
 51
90.0
  0
LINE
  5
BEC
330
1A
100
AcDbEntity
  8
ZUWAKU
100
AcDbLine
 10
45.59221242018941
 20
20.44999954755264
 30
0.0
 11
45.59221242018941
 21
18.6347975221973
 31
0.0
  0
ARC
  5
BED
330
1A
100
AcDbEntity
  8
ZUWAKU
100
AcDbCircle
 10
48.39221242018947
 20
20.44999954755264
 30
0.0
 40
2.799999999999998
100
AcDbArc
 50
90.0
 51
180.0
  0
ARC
  5
BEE
330
1A
100
AcDbEntity
  8
ZUWAKU
100
AcDbCircle
 10
57.31721242018942
 20
22.72499954755264
 30
0.0
 40
0.525
100
AcDbArc
 50
0.0
 51
90.0
  0
ARC
  5
BEF
330
1A
100
AcDbEntity
  8
ZUWAKU
100
AcDbCircle
 10
55.56721242018943
 20
22.72499954755264
 30
0.0
 40
0.525
100
AcDbArc
 50
90.0
 51
180.0
  0
LINE
  5
BF0
330
1A
100
AcDbEntity
  8
ZUWAKU
100
AcDbLine
 10
57.31721242018942
 20
23.24999954755264
 30
0.0
 11
55.56721242018943
 21
23.24999954755264
 31
0.0
  0
ARC
  5
BF1
330
1A
100
AcDbEntity
  8
ZUWAKU
100
AcDbCircle
 10
51.89221242018948
 20
22.72499954755264
 30
0.0
 40
0.525
100
AcDbArc
 50
0.0
 51
90.0
  0
ARC
  5
BF2
330
1A
100
AcDbEntity
  8
ZUWAKU
100
AcDbCircle
 10
51.89221242018948
 20
20.97499954755264
 30
0.0
 40
0.525
100
AcDbArc
 50
270.0
 51
0.0
  0
LINE
  5
BF3
330
1A
100
AcDbEntity
  8
ZUWAKU
100
AcDbLine
 10
52.41721242018945
 20
22.72499954755264
 30
0.0
 11
52.41721242018945
 21
20.97499954755264
 31
0.0
  0
LINE
  5
BF4
330
1A
100
AcDbEntity
  8
ZUWAKU
100
AcDbLine
 10
68.51721242018948
 20
23.24999954755264
 30
0.0
 11
66.76721242018948
 21
23.24999954755264
 31
0.0
  0
ARC
  5
BF5
330
1A
100
AcDbEntity
  8
ZUWAKU
100
AcDbCircle
 10
66.76721242018948
 20
22.72499954755264
 30
0.0
 40
0.525
100
AcDbArc
 50
90.0
 51
180.0
  0
ARC
  5
BF6
330
1A
100
AcDbEntity
  8
ZUWAKU
100
AcDbCircle
 10
63.61721242018939
 20
22.72499954755264
 30
0.0
 40
0.525
100
AcDbArc
 50
0.0
 51
90.0
  0
LINE
  5
BF7
330
1A
100
AcDbEntity
  8
ZUWAKU
100
AcDbLine
 10
63.61721242018939
 20
23.24999954755264
 30
0.0
 11
61.86721242018939
 21
23.24999954755264
 31
0.0
  0
ARC
  5
BF8
330
1A
100
AcDbEntity
  8
ZUWAKU
100
AcDbCircle
 10
61.86721242018939
 20
22.72499954755264
 30
0.0
 40
0.525
100
AcDbArc
 50
90.0
 51
180.0
  0
ARC
  5
BF9
330
1A
100
AcDbEntity
  8
ZUWAKU
100
AcDbCircle
 10
68.51721242018948
 20
22.72499954755264
 30
0.0
 40
0.525
100
AcDbArc
 50
0.0
 51
90.0
  0
TEXT
  5
BFA
330
1A
100
AcDbEntity
  8
MOJI
100
AcDbText
 10
239.8272029462592
 20
18.00492060496003
 30
0.0
 40
5.599999999999998
  1
ブラケット正面打（吊）固定式
 41
0.9
  7
ｽﾀｲﾙ1
100
AcDbText
  0
TEXT
  5
BFB
330
1A
100
AcDbEntity
  8
MOJI
100
AcDbText
 10
239.8272029462592
 20
3.204920604960068
 30
0.0
 40
5.599999999999998
  1
１２０－０－２０
 41
0.9
  7
ｽﾀｲﾙ1
100
AcDbText
  0
LINE
  5
BFC
330
1A
100
AcDbEntity
  8
ZUWAKU
100
AcDbLine
 10
208.2466015554762
 20
29.99999954755264
 30
0.0
 11
208.2466015554762
 21
0.7999995475527158
 31
0.0
  0
LINE
  5
BFD
330
1A
100
AcDbEntity
  8
ZUWAKU
100
AcDbLine
 10
208.646601555476
 20
29.99999954755264
 30
0.0
 11
208.6466015554762
 21
0.7999995475527158
 31
0.0
  0
LINE
  5
BFE
330
1A
100
AcDbEntity
  8
ZUWAKU
100
AcDbLine
 10
208.4466015554759
 20
29.99999954755264
 30
0.0
 11
208.4466015554762
 21
0.7999995475527158
 31
0.0
  0
TEXT
  5
BFF
330
1A
100
AcDbEntity
  8
ZUWAKU
100
AcDbText
 10
209.7240465776857
 20
9.655356085938265
 30
0.0
 40
4.0
  1
サイズ
 41
0.9
  7
ｽﾀｲﾙ1
100
AcDbText
  0
TEXT
  5
C00
330
1A
100
AcDbEntity
  8
ZUWAKU
100
AcDbText
 10
209.7240465776855
 20
24.05535608593822
 30
0.0
 40
4.0
  1
品名
 41
0.9
  7
ｽﾀｲﾙ1
100
AcDbText
  0
TEXT
  5
C01
330
1A
100
AcDbEntity
  8
ZUWAKU
100
AcDbText
 10
654.5120762650951
 20
18.00492060496003
 30
0.0
 40
5.599999999999998
  1
　　．　．　　
 41
0.9
  7
ｽﾀｲﾙ1
100
AcDbText
  0
LINE
  5
C02
330
1A
100
AcDbEntity
  8
ZUWAKU
100
AcDbLine
 10
648.8172027756125
 20
15.19999954755267
 30
0.0
 11
697.2490108139496
 21
15.19999954755267
 31
0.0
  0
LINE
  5
C03
330
1A
100
AcDbEntity
  8
ZUWAKU
100
AcDbLine
 10
648.8172027756125
 20
15.39999954755268
 30
0.0
 11
697.2490108139496
 21
15.39999954755267
 31
0.0
  0
LINE
  5
C04
330
1A
100
AcDbEntity
  8
ZUWAKU
100
AcDbLine
 10
648.8172027756125
 20
15.59999954755267
 30
0.0
 11
697.2490108139496
 21
15.59999954755267
 31
0.0
  0
LINE
  5
C05
330
1A
100
AcDbEntity
  8
ZUWAKU
100
AcDbLine
 10
505.1991797635491
 20
15.19999954755268
 30
0.0
 11
552.5269560315207
 21
15.19999954755268
 31
0.0
  0
LINE
  5
C06
330
1A
100
AcDbEntity
  8
ZUWAKU
100
AcDbLine
 10
505.1991797635491
 20
15.39999954755267
 30
0.0
 11
552.5269560315207
 21
15.39999954755267
 31
0.0
  0
LINE
  5
C07
330
1A
100
AcDbEntity
  8
ZUWAKU
100
AcDbLine
 10
505.1991797635491
 20
15.59999954755267
 30
0.0
 11
552.5269560315207
 21
15.59999954755267
 31
0.0
  0
LINE
  5
C08
330
1A
100
AcDbEntity
  8
ZUWAKU
100
AcDbLine
 10
447.6243642363995
 20
29.99999954755264
 30
0.0
 11
447.6243642363995
 21
0.7999995475527158
 31
0.0
  0
LINE
  5
C09
330
1A
100
AcDbEntity
  8
ZUWAKU
100
AcDbLine
 10
447.8243642363994
 20
29.99999954755264
 30
0.0
 11
447.8243642363998
 21
0.7999995475527158
 31
0.0
  0
LINE
  5
C0A
330
1A
100
AcDbEntity
  8
ZUWAKU
100
AcDbLine
 10
447.4243642363996
 20
29.99999954755264
 30
0.0
 11
447.4243642363996
 21
0.7999995475527158
 31
0.0
  0
TEXT
  5
C0B
330
1A
100
AcDbEntity
  8
MOJI
100
AcDbText
 10
528.0409082377211
 20
18.00492060496003
 30
0.0
 40
5.599999999999998
  1
Ａ３
 41
0.9
  7
ｽﾀｲﾙ1
100
AcDbText
  0
LINE
  5
C0C
330
1A
100
AcDbEntity
  8
ZUWAKU
100
AcDbLine
 10
504.9991797635491
 20
29.99999954755264
 30
0.0
 11
504.9991797635492
 21
0.7999995475527158
 31
0.0
  0
LINE
  5
C0D
330
1A
100
AcDbEntity
  8
ZUWAKU
100
AcDbLine
 10
505.1991797635491
 20
29.99999954755264
 30
0.0
 11
505.1991797635493
 21
0.7999995475527158
 31
0.0
  0
LINE
  5
C0E
330
1A
100
AcDbEntity
  8
ZUWAKU
100
AcDbLine
 10
504.7991797635492
 20
29.99999954755264
 30
0.0
 11
504.7991797635492
 21
0.7999995475527158
 31
0.0
  0
TEXT
  5
C0F
330
1A
100
AcDbEntity
  8
MOJI
100
AcDbText
 10
463.2464322564103
 20
11.94261726921262
 30
0.0
 40
5.599999999999998
  1
ＬＨ０６Ｔ
 41
0.9
  7
ｽﾀｲﾙ1
100
AcDbText
  0
TEXT
  5
C10
330
1A
100
AcDbEntity
  8
ZUWAKU
100
AcDbText
 10
506.6766247857589
 20
9.655356085938265
 30
0.0
 40
4.0
  1
縮尺
 41
0.9
  7
ｽﾀｲﾙ1
100
AcDbText
  0
TEXT
  5
C11
330
1A
100
AcDbEntity
  8
MOJI
100
AcDbText
 10
528.0409082377211
 20
3.204920604960068
 30
0.0
 40
5.599999999999998
  1
１/２
 41
0.9
  7
ｽﾀｲﾙ1
100
AcDbText
  0
TEXT
  5
C12
330
1A
100
AcDbEntity
  8
ZUWAKU
100
AcDbText
 10
449.3018092586091
 20
24.05535608593822
 30
0.0
 40
4.0
  1
品番
 41
0.9
  7
ｽﾀｲﾙ1
100
AcDbText
  0
TEXT
  5
C13
330
1A
100
AcDbEntity
  8
ZUWAKU
100
AcDbText
 10
506.6766247857587
 20
24.05535608593822
 30
0.0
 40
4.0
  1
用紙
 41
0.9
  7
ｽﾀｲﾙ1
100
AcDbText
  0
LINE
  5
C14
330
1A
100
AcDbEntity
  8
ZUWAKU
100
AcDbLine
 10
648.6172027756124
 20
29.99999954755264
 30
0.0
 11
648.6172027756128
 21
0.7999995475527158
 31
0.0
  0
LINE
  5
C15
330
1A
100
AcDbEntity
  8
ZUWAKU
100
AcDbLine
 10
648.8172027756125
 20
29.99999954755264
 30
0.0
 11
648.817202775613
 21
0.7999995475527158
 31
0.0
  0
LINE
  5
C16
330
1A
100
AcDbEntity
  8
ZUWAKU
100
AcDbLine
 10
648.4172027756128
 20
29.99999954755264
 30
0.0
 11
648.4172027756128
 21
0.7999995475527158
 31
0.0
  0
LINE
  5
C17
330
1A
100
AcDbEntity
  8
ZUWAKU
100
AcDbLine
 10
552.7269560315207
 20
29.99999954755264
 30
0.0
 11
552.7269560315207
 21
0.7999995475527158
 31
0.0
  0
LINE
  5
C18
330
1A
100
AcDbEntity
  8
ZUWAKU
100
AcDbLine
 10
552.9269560315206
 20
29.99999954755264
 30
0.0
 11
552.9269560315206
 21
0.7999995475527158
 31
0.0
  0
LINE
  5
C19
330
1A
100
AcDbEntity
  8
ZUWAKU
100
AcDbLine
 10
552.5269560315207
 20
29.99999954755264
 30
0.0
 11
552.5269560315207
 21
0.7999995475527158
 31
0.0
  0
TEXT
  5
C1A
330
1A
100
AcDbEntity
  8
ZUWAKU
100
AcDbText
 10
650.2946477978222
 20
24.05535608593822
 30
0.0
 40
4.0
  1
DATE
 41
0.9
  7
ｽﾀｲﾙ1
100
AcDbText
  0
LINE
  5
C1B
330
1A
100
AcDbEntity
  8
ZUWAKU
100
AcDbLine
 10
697.2490108139496
 20
29.99999954755264
 30
0.0
 11
697.2490108139496
 21
0.7999995475527158
 31
0.0
  0
LINE
  5
C1C
330
1A
100
AcDbEntity
  8
ZUWAKU
100
AcDbLine
 10
697.4490108139495
 20
29.99999954755264
 30
0.0
 11
697.4490108139495
 21
0.7999995475527158
 31
0.0
  0
LINE
  5
C1D
330
1A
100
AcDbEntity
  8
ZUWAKU
100
AcDbLine
 10
697.6490108139493
 20
29.99999954755264
 30
0.0
 11
697.6490108139496
 21
0.7999995475527158
 31
0.0
  0
LINE
  5
C1E
330
1A
100
AcDbEntity
  8
ZUWAKU
100
AcDbLine
 10
697.8490108139496
 20
29.99999954755264
 30
0.0
 11
697.8490108139496
 21
0.7999995475527158
 31
0.0
  0
TEXT
  5
C1F
330
1A
100
AcDbEntity
  8
ZUWAKU
100
AcDbText
 10
708.5280844576519
 20
17.55383888323944
 30
0.0
 40
6.0
  1
積水化学工業株式会社
 41
0.9
  7
ｽﾀｲﾙ1
100
AcDbText
  0
TEXT
  5
C20
330
1A
100
AcDbEntity
  8
ZUWAKU
100
AcDbText
 10
708.5280844576519
 20
6.648839861406712
 30
0.0
 40
6.0
  1
建材事業部
 41
0.9
  7
ｽﾀｲﾙ1
100
AcDbText
  0
TEXT
  5
C29
330
1A
100
AcDbEntity
  8
SEIHIN
 62
     4
100
AcDbText
 10
625.026212594123
 20
256.6597963747351
 30
0.0
 40
6.0
  1
3-φ4.2
100
AcDbText
1001
ACAD
1000
MTEXTBEGIN
1070
    73
1070
     1
1070
    44
1040
1.0
1070
    74
1070
     0
1000
MTEXTEND
1000
MTEXTBEGIN
1070
    73
1070
     1
1070
    44
1040
1.0
1070
    74
1070
     0
1000
MTEXTEND
  0
LINE
  5
C2A
330
1A
100
AcDbEntity
  8
SUNPOU
  6
CONTINUOUS
 62
     4
100
AcDbLine
 10
605.2644308843591
 20
233.55174389215
 30
0.0
 11
620.351393917334
 21
254.6597963747351
 31
0.0
1001
ACAD
1000
DSTYLE
1002
{
1070
     6
1000
OPEN
1070
    41
1040
7.0
1070
    42
1040
6.0
1070
    43
1040
14.0
1070
    44
1040
3.0
1070
    73
1070
     0
1070
    74
1070
     0
1070
    77
1070
     3
1070
   140
1040
6.0
1070
   141
1040
150.0
1070
   147
1040
2.0
1070
   172
1070
     1
1070
   173
1070
     1
1070
   176
1070
     4
1070
   177
1070
     4
1070
   178
1070
     4
1070
   271
1070
     0
1070
   272
1070
     2
1070
   341
1005
6D
1070
   343
1005
6D
1070
   344
1005
6D
1002
}
  0
LINE
  5
C2B
330
1A
100
AcDbEntity
  8
SUNPOU
  6
CONTINUOUS
 62
     4
100
AcDbLine
 10
620.351393917334
 20
254.6597963747351
 30
0.0
 11
623.026212594123
 21
254.6597963747351
 31
0.0
1001
ACAD
1000
DSTYLE
1002
{
1070
     6
1000
OPEN
1070
    41
1040
7.0
1070
    42
1040
6.0
1070
    43
1040
14.0
1070
    44
1040
3.0
1070
    73
1070
     0
1070
    74
1070
     0
1070
    77
1070
     3
1070
   140
1040
6.0
1070
   141
1040
150.0
1070
   147
1040
2.0
1070
   172
1070
     1
1070
   173
1070
     1
1070
   176
1070
     4
1070
   177
1070
     4
1070
   178
1070
     4
1070
   271
1070
     0
1070
   272
1070
     2
1070
   341
1005
6D
1070
   343
1005
6D
1070
   344
1005
6D
1002
}
  0
LINE
  5
C2C
330
1A
100
AcDbEntity
  8
SUNPOU
  6
CONTINUOUS
 62
     4
100
AcDbLine
 10
623.026212594123
 20
254.6597963747351
 30
0.0
 11
656.2262125941231
 21
254.6597963747351
 31
0.0
1001
ACAD
1000
DSTYLE
1002
{
1070
     6
1000
OPEN
1070
    41
1040
7.0
1070
    42
1040
6.0
1070
    43
1040
14.0
1070
    44
1040
3.0
1070
    73
1070
     0
1070
    74
1070
     0
1070
    77
1070
     3
1070
   140
1040
6.0
1070
   141
1040
150.0
1070
   147
1040
2.0
1070
   172
1070
     1
1070
   173
1070
     1
1070
   176
1070
     4
1070
   177
1070
     4
1070
   178
1070
     4
1070
   271
1070
     0
1070
   272
1070
     2
1070
   341
1005
6D
1070
   343
1005
6D
1070
   344
1005
6D
1002
}
  0
LINE
  5
C2D
330
1A
100
AcDbEntity
  8
0
  6
BYBLOCK
 62
     0
100
AcDbLine
 10
606.2135785001348
 20
232.8733414197353
 30
0.0
 11
601.194016049871
 21
227.8568581974956
 31
0.0
  0
LINE
  5
C2E
330
1A
100
AcDbEntity
  8
0
  6
BYBLOCK
 62
     0
100
AcDbLine
 10
601.194016049871
 20
227.8568581974956
 30
0.0
 11
604.3152832685835
 21
234.2301463645647
 31
0.0
  0
LINE
  5
C2F
330
1A
100
AcDbEntity
  8
0
  6
BYBLOCK
 62
     0
100
AcDbLine
 10
601.194016049871
 20
227.8568581974956
 30
0.0
 11
605.2644308843591
 21
233.55174389215
 31
0.0
  0
VIEWPORT
  5
22
330
17
100
AcDbEntity
 67
     1
  8
0
100
AcDbViewport
 10
313.6808219178082
 20
148.5
 30
0.0
 40
627.3616438356165
 41
297.0
 68
     2
 69
     1
1001
ACAD
1000
MVIEW
1002
{
1070
    16
1010
0.0
1020
0.0
1030
0.0
1010
0.0
1020
0.0
1030
1.0
1040
0.0
1040
297.0
1040
313.6808219178082
1040
148.5
1040
50.0
1040
0.0
1040
0.0
1070
     0
1070
   100
1070
     1
1070
     0
1070
     0
1070
     0
1070
     0
1070
     0
1040
0.0
1040
0.0
1040
0.0
1040
1.0
1040
1.0
1040
10.0
1040
10.0
1070
     0
1002
{
1002
}
1002
}
  0
VIEWPORT
  5
64
330
17
100
AcDbEntity
 67
     1
  8
VIEWPORT
100
AcDbViewport
 10
210.0
 20
148.5
 30
0.0
 40
420.0
 41
297.0
 68
     1
 69
     2
1001
ACAD
1000
MVIEW
1002
{
1070
    16
1010
0.0
1020
0.0
1030
0.0
1010
0.0
1020
0.0
1030
1.0
1040
0.0
1040
605.8799999999998
1040
420.0
1040
297.0
1040
50.0
1040
0.0
1040
0.0
1070
     0
1070
   100
1070
     1
1070
     0
1070
     0
1070
     0
1070
     0
1070
     0
1040
0.0
1040
0.0
1040
0.0
1040
10.0
1040
10.0
1040
0.0
1040
0.0
1070
     0
1002
{
1002
}
1002
}
  0
ENDSEC
  0
SECTION
  2
OBJECTS
  0
DICTIONARY
  5
C
330
0
100
AcDbDictionary
  3
ACAD_GROUP
350
D
  3
ACAD_LAYOUT
350
8AF
  3
ACAD_MLINESTYLE
350
E
  3
ACAD_PLOTSETTINGS
350
8B0
  3
ACAD_PLOTSTYLENAME
350
8AD
  3
ACDBHEADERROUNDTRIPXREC
350
C31
  0
DICTIONARY
  5
8DE
330
1A
100
AcDbDictionary
280
     1
  3
ACAD_LAYOUTSELFREF
360
C53
  0
DICTIONARY
  5
8DC
330
17
100
AcDbDictionary
280
     1
  3
ACAD_LAYOUTSELFREF
360
C52
  0
DICTIONARY
  5
D
102
{ACAD_REACTORS
330
C
102
}
330
C
100
AcDbDictionary
  0
DICTIONARY
  5
8AF
102
{ACAD_REACTORS
330
C
102
}
330
C
100
AcDbDictionary
  0
DICTIONARY
  5
E
102
{ACAD_REACTORS
330
C
102
}
330
C
100
AcDbDictionary
  3
STANDARD
350
13
  0
DICTIONARY
  5
8B0
102
{ACAD_REACTORS
330
C
102
}
330
C
100
AcDbDictionary
  0
ACDBDICTIONARYWDFLT
  5
8AD
102
{ACAD_REACTORS
330
C
102
}
330
C
100
AcDbDictionary
281
     1
  3
Normal
350
8AE
100
AcDbDictionaryWithDefault
340
8AE
1001
ACAD
1000
TREAT_AS_HARD
1070
     0
1000
TREAT_AS_HARD
1070
     0
  0
DICTIONARY
  5
C31
102
{ACAD_REACTORS
330
C
102
}
330
C
100
AcDbDictionary
  3
TSTACKALIGN
350
C32
  3
TSTACKSIZE
350
C33
  3
HYPERLINKBASE
350
C34
  3
STYLESHEET
350
C35
  3
LAYOUTDICT
350
C36
  3
PLOTSETDICT
350
C37
  3
PLOTSTYLNAMDICT
350
C38
  3
LWETCUNION
350
C39
  3
INSUNITS
350
C3A
  3
CEPSNTYPE
350
C3B
  3
FINGERPRINTGUID
350
C3C
  3
VERSIONGUID
350
C3D
  3
PSVPSCALE
350
C3E
  3
DIMSTYLEDATA
350
C3F
  3
PUCSORTHOREF
350
C40
  3
PUCSORTHOVIEW
350
C41
  3
PUCSBASE
350
C42
  3
PUCSORGTOP
350
C43
  3
PUCSORGBOTTOM
350
C44
  3
PUCSORGLEFT
350
C45
  3
PUCSORGRIGHT
350
C46
  3
PUCSORGFRONT
350
C47
  3
PUCSORGBACK
350
C48
  3
UCSORTHOREF
350
C49
  3
UCSORTHOVIEW
350
C4A
  3
UCSBASE
350
C4B
  3
UCSORGTOP
350
C4C
  3
UCSORGBOTTOM
350
C4D
  3
UCSORGLEFT
350
C4E
  3
UCSORGRIGHT
350
C4F
  3
UCSORGFRONT
350
C50
  3
UCSORGBACK
350
C51
  0
XRECORD
  5
C53
102
{ACAD_REACTORS
330
8DE
102
}
330
8DE
100
AcDbXrecord
340
1A
  0
XRECORD
  5
C52
102
{ACAD_REACTORS
330
8DC
102
}
330
8DC
100
AcDbXrecord
340
17
  0
MLINESTYLE
  5
13
102
{ACAD_REACTORS
330
E
102
}
330
E
100
AcDbMlineStyle
  2
STANDARD
 70
     0
  3

 62
     0
 51
90.0
 52
90.0
 71
     2
 49
0.5
 62
   256
  6
BYLAYER
 49
-0.5
 62
   256
  6
BYLAYER
  0
ACDBPLACEHOLDER
  5
8AE
102
{ACAD_REACTORS
330
8AD
102
}
330
8AD
100
AcDbPlaceHolder
280
     0
  0
XRECORD
  5
C32
102
{ACAD_REACTORS
330
C31
102
}
330
C31
100
AcDbXrecord
 90
        1
  0
XRECORD
  5
C33
102
{ACAD_REACTORS
330
C31
102
}
330
C31
100
AcDbXrecord
 90
       70
  0
XRECORD
  5
C34
102
{ACAD_REACTORS
330
C31
102
}
330
C31
100
AcDbXrecord
  1

  0
XRECORD
  5
C35
102
{ACAD_REACTORS
330
C31
102
}
330
C31
100
AcDbXrecord
  1
print.ctb
  0
XRECORD
  5
C36
102
{ACAD_REACTORS
330
C31
102
}
330
C31
100
AcDbXrecord
340
8AF
  0
XRECORD
  5
C37
102
{ACAD_REACTORS
330
C31
102
}
330
C31
100
AcDbXrecord
340
8B0
  0
XRECORD
  5
C38
102
{ACAD_REACTORS
330
C31
102
}
330
C31
100
AcDbXrecord
340
8AD
  0
XRECORD
  5
C39
102
{ACAD_REACTORS
330
C31
102
}
330
C31
100
AcDbXrecord
 90
    14877
  0
XRECORD
  5
C3A
102
{ACAD_REACTORS
330
C31
102
}
330
C31
100
AcDbXrecord
 90
        0
  0
XRECORD
  5
C3B
102
{ACAD_REACTORS
330
C31
102
}
330
C31
100
AcDbXrecord
 90
        0
  0
XRECORD
  5
C3C
102
{ACAD_REACTORS
330
C31
102
}
330
C31
100
AcDbXrecord
  1
{E2BB68F4-24D6-4796-A29F-B56E53FC25D3}
  0
XRECORD
  5
C3D
102
{ACAD_REACTORS
330
C31
102
}
330
C31
100
AcDbXrecord
  1
{8CFCC930-A0BF-422D-AC29-5F798C5AEF3B}
  0
XRECORD
  5
C3E
102
{ACAD_REACTORS
330
C31
102
}
330
C31
100
AcDbXrecord
 40
0.0
  0
XRECORD
  5
C3F
102
{ACAD_REACTORS
330
C31
102
}
330
C31
100
AcDbXrecord
1000
DSTYLE
1002
{
1070
   341
340
6D
1070
   343
340
6D
1070
   344
340
6D
1070
   371
 70
    -1
1070
   372
 70
    -1
1002
}
  0
XRECORD
  5
C40
102
{ACAD_REACTORS
330
C31
102
}
330
C31
100
AcDbXrecord
340
0
  0
XRECORD
  5
C41
102
{ACAD_REACTORS
330
C31
102
}
330
C31
100
AcDbXrecord
 70
     0
  0
XRECORD
  5
C42
102
{ACAD_REACTORS
330
C31
102
}
330
C31
100
AcDbXrecord
340
0
  0
XRECORD
  5
C43
102
{ACAD_REACTORS
330
C31
102
}
330
C31
100
AcDbXrecord
 10
0.0
 20
0.0
 30
0.0
  0
XRECORD
  5
C44
102
{ACAD_REACTORS
330
C31
102
}
330
C31
100
AcDbXrecord
 10
0.0
 20
0.0
 30
0.0
  0
XRECORD
  5
C45
102
{ACAD_REACTORS
330
C31
102
}
330
C31
100
AcDbXrecord
 10
0.0
 20
0.0
 30
0.0
  0
XRECORD
  5
C46
102
{ACAD_REACTORS
330
C31
102
}
330
C31
100
AcDbXrecord
 10
0.0
 20
0.0
 30
0.0
  0
XRECORD
  5
C47
102
{ACAD_REACTORS
330
C31
102
}
330
C31
100
AcDbXrecord
 10
0.0
 20
0.0
 30
0.0
  0
XRECORD
  5
C48
102
{ACAD_REACTORS
330
C31
102
}
330
C31
100
AcDbXrecord
 10
0.0
 20
0.0
 30
0.0
  0
XRECORD
  5
C49
102
{ACAD_REACTORS
330
C31
102
}
330
C31
100
AcDbXrecord
340
0
  0
XRECORD
  5
C4A
102
{ACAD_REACTORS
330
C31
102
}
330
C31
100
AcDbXrecord
 70
     0
  0
XRECORD
  5
C4B
102
{ACAD_REACTORS
330
C31
102
}
330
C31
100
AcDbXrecord
340
0
  0
XRECORD
  5
C4C
102
{ACAD_REACTORS
330
C31
102
}
330
C31
100
AcDbXrecord
 10
0.0
 20
0.0
 30
0.0
  0
XRECORD
  5
C4D
102
{ACAD_REACTORS
330
C31
102
}
330
C31
100
AcDbXrecord
 10
0.0
 20
0.0
 30
0.0
  0
XRECORD
  5
C4E
102
{ACAD_REACTORS
330
C31
102
}
330
C31
100
AcDbXrecord
 10
0.0
 20
0.0
 30
0.0
  0
XRECORD
  5
C4F
102
{ACAD_REACTORS
330
C31
102
}
330
C31
100
AcDbXrecord
 10
0.0
 20
0.0
 30
0.0
  0
XRECORD
  5
C50
102
{ACAD_REACTORS
330
C31
102
}
330
C31
100
AcDbXrecord
 10
0.0
 20
0.0
 30
0.0
  0
XRECORD
  5
C51
102
{ACAD_REACTORS
330
C31
102
}
330
C31
100
AcDbXrecord
 10
0.0
 20
0.0
 30
0.0
  0
ENDSEC
  0
EOF
