  0
SECTION
  2
HEADER
  9
$ACADVER
  1
AC1014
  9
$ACADMAINTVER
 70
     9
  9
$DWGCODEPAGE
  3
ANSI_932
  9
$INSBASE
 10
0.0
 20
0.0
 30
0.0
  9
$EXTMIN
 10
-0.0128099507776369
 20
-0.0090584651927657
 30
-0.0000000100018307
  9
$EXTMAX
 10
797.6616026615272
 20
551.6426495160594
 30
0.0000000100018311
  9
$LIMMIN
 10
0.0
 20
0.0
  9
$LIMMAX
 10
840.0
 20
594.0
  9
$ORTHOMODE
 70
     0
  9
$REGENMODE
 70
     1
  9
$FILLMODE
 70
     1
  9
$QTEXTMODE
 70
     0
  9
$MIRRTEXT
 70
     1
  9
$DRAGMODE
 70
     2
  9
$LTSCALE
 40
2.0
  9
$OSMODE
 70
    35
  9
$ATTMODE
 70
     1
  9
$TEXTSIZE
 40
5.0
  9
$TRACEWID
 40
1.0
  9
$TEXTSTYLE
  7
STANDARD
  9
$CLAYER
  8
SUNPOU
  9
$CELTYPE
  6
BYLAYER
  9
$CECOLOR
 62
   256
  9
$CELTSCALE
 40
1.0
  9
$DELOBJ
 70
     1
  9
$DISPSILH
 70
     0
  9
$DIMSCALE
 40
1.0
  9
$DIMASZ
 40
7.0
  9
$DIMEXO
 40
6.0
  9
$DIMDLI
 40
14.0
  9
$DIMRND
 40
0.0
  9
$DIMDLE
 40
0.0
  9
$DIMEXE
 40
3.0
  9
$DIMTP
 40
0.0
  9
$DIMTM
 40
0.0
  9
$DIMTXT
 40
6.0
  9
$DIMCEN
 40
150.0
  9
$DIMTSZ
 40
0.0
  9
$DIMTOL
 70
     0
  9
$DIMLIM
 70
     0
  9
$DIMTIH
 70
     0
  9
$DIMTOH
 70
     0
  9
$DIMSE1
 70
     0
  9
$DIMSE2
 70
     0
  9
$DIMTAD
 70
     3
  9
$DIMZIN
 70
     0
  9
$DIMBLK
  1

  9
$DIMASO
 70
     1
  9
$DIMSHO
 70
     1
  9
$DIMPOST
  1

  9
$DIMAPOST
  1

  9
$DIMALT
 70
     0
  9
$DIMALTD
 70
     2
  9
$DIMALTF
 40
25.4
  9
$DIMLFAC
 40
1.0
  9
$DIMTOFL
 70
     1
  9
$DIMTVP
 40
0.0
  9
$DIMTIX
 70
     0
  9
$DIMSOXD
 70
     0
  9
$DIMSAH
 70
     1
  9
$DIMBLK1
  1
OPEN
  9
$DIMBLK2
  1
OPEN
  9
$DIMSTYLE
  2
STANDARD
  9
$DIMCLRD
 70
   256
  9
$DIMCLRE
 70
   256
  9
$DIMCLRT
 70
   256
  9
$DIMTFAC
 40
1.0
  9
$DIMGAP
 40
2.0
  9
$DIMJUST
 70
     0
  9
$DIMSD1
 70
     0
  9
$DIMSD2
 70
     0
  9
$DIMTOLJ
 70
     1
  9
$DIMTZIN
 70
     0
  9
$DIMALTZ
 70
     0
  9
$DIMALTTZ
 70
     0
  9
$DIMFIT
 70
     3
  9
$DIMUPT
 70
     1
  9
$DIMUNIT
 70
     2
  9
$DIMDEC
 70
     0
  9
$DIMTDEC
 70
     0
  9
$DIMALTU
 70
     2
  9
$DIMALTTD
 70
     2
  9
$DIMTXSTY
  7
STANDARD
  9
$DIMAUNIT
 70
     0
  9
$LUNITS
 70
     2
  9
$LUPREC
 70
     4
  9
$SKETCHINC
 40
1.0
  9
$FILLETRAD
 40
5.0
  9
$AUNITS
 70
     0
  9
$AUPREC
 70
     0
  9
$MENU
  1
.
  9
$ELEVATION
 40
0.0
  9
$PELEVATION
 40
0.0
  9
$THICKNESS
 40
0.0
  9
$LIMCHECK
 70
     0
  9
$BLIPMODE
 70
     0
  9
$CHAMFERA
 40
20.0
  9
$CHAMFERB
 40
20.0
  9
$CHAMFERC
 40
40.0
  9
$CHAMFERD
 40
0.0
  9
$SKPOLY
 70
     0
  9
$TDCREATE
 40
2451030.341856828
  9
$TDUPDATE
 40
2453502.428583078
  9
$TDINDWG
 40
0.0555068056
  9
$TDUSRTIMER
 40
0.0555068056
  9
$USRTIMER
 70
     1
  9
$ANGBASE
 50
0.0
  9
$ANGDIR
 70
     0
  9
$PDMODE
 70
     0
  9
$PDSIZE
 40
0.0
  9
$PLINEWID
 40
0.0
  9
$COORDS
 70
     1
  9
$SPLFRAME
 70
     0
  9
$SPLINETYPE
 70
     6
  9
$SPLINESEGS
 70
     8
  9
$ATTDIA
 70
     0
  9
$ATTREQ
 70
     1
  9
$HANDLING
 70
 10241
  9
$HANDSEED
  5
D70
  9
$SURFTAB1
 70
     6
  9
$SURFTAB2
 70
     6
  9
$SURFTYPE
 70
     6
  9
$SURFU
 70
     6
  9
$SURFV
 70
     6
  9
$UCSNAME
  2

  9
$UCSORG
 10
0.0
 20
0.0
 30
0.0
  9
$UCSXDIR
 10
1.0
 20
0.0
 30
0.0
  9
$UCSYDIR
 10
0.0
 20
1.0
 30
0.0
  9
$PUCSNAME
  2

  9
$PUCSORG
 10
0.0
 20
0.0
 30
0.0
  9
$PUCSXDIR
 10
1.0
 20
0.0
 30
0.0
  9
$PUCSYDIR
 10
0.0
 20
1.0
 30
0.0
  9
$USERI1
 70
     0
  9
$USERI2
 70
     0
  9
$USERI3
 70
     0
  9
$USERI4
 70
     0
  9
$USERI5
 70
     0
  9
$USERR1
 40
0.0
  9
$USERR2
 40
0.0
  9
$USERR3
 40
0.0
  9
$USERR4
 40
0.0
  9
$USERR5
 40
0.0
  9
$WORLDVIEW
 70
     1
  9
$SHADEDGE
 70
     3
  9
$SHADEDIF
 70
    70
  9
$TILEMODE
 70
     1
  9
$MAXACTVP
 70
    16
  9
$PINSBASE
 10
0.0
 20
0.0
 30
0.0
  9
$PLIMCHECK
 70
     0
  9
$PEXTMIN
 10
0.0
 20
0.0
 30
0.0
  9
$PEXTMAX
 10
420.0
 20
297.0
 30
0.0
  9
$PLIMMIN
 10
0.0
 20
0.0
  9
$PLIMMAX
 10
420.0
 20
297.0
  9
$UNITMODE
 70
     0
  9
$VISRETAIN
 70
     0
  9
$PLINEGEN
 70
     0
  9
$PSLTSCALE
 70
     1
  9
$TREEDEPTH
 70
  3020
  9
$PICKSTYLE
 70
     1
  9
$CMLSTYLE
  2
STANDARD
  9
$CMLJUST
 70
     0
  9
$CMLSCALE
 40
1.0
  9
$PROXYGRAPHICS
 70
     1
  9
$MEASUREMENT
 70
     1
  0
ENDSEC
  0
SECTION
  2
CLASSES
  0
CLASS
  1
ACDBDICTIONARYWDFLT
  2
AcDbDictionaryWithDefault
  3
AutoCAD 2000
 90
        0
280
     0
281
     0
  0
CLASS
  1
ACDBPLACEHOLDER
  2
AcDbPlaceHolder
  3
AutoCAD 2000
 90
        0
280
     0
281
     0
  0
CLASS
  1
LAYOUT
  2
AcDbLayout
  3
AutoCAD 2000
 90
        0
280
     0
281
     0
  0
CLASS
  1
LONG_TRANSACTION
  2
AcDbLongTransaction
  3
AutoCAD 2000
 90
        0
280
     0
281
     0
  0
CLASS
  1
LWPOLYLINE
  2
AcDbPolyline
  3
AutoCAD 2000
 90
        0
280
     0
281
     1
  0
CLASS
  1
HATCH
  2
AcDbHatch
  3
AutoCAD 2000
 90
        0
280
     0
281
     1
  0
CLASS
  1
XRECORD
  2
AcDbXrecord
  3
AutoCAD 2000
 90
        0
280
     0
281
     0
  0
CLASS
  1
LONG_TRANSACTION
  2
AcDbLongTransaction
  3
AutoCAD 2000
 90
        0
280
     0
281
     0
  0
CLASS
  1
LWPOLYLINE
  2
AcDbPolyline
  3
AutoCAD 2000
 90
        0
280
     0
281
     1
  0
CLASS
  1
HATCH
  2
AcDbHatch
  3
AutoCAD 2000
 90
        0
280
     0
281
     1
  0
CLASS
  1
XRECORD
  2
AcDbXrecord
  3
AutoCAD 2000
 90
        0
280
     0
281
     0
  0
CLASS
  1
LONG_TRANSACTION
  2
AcDbLongTransaction
  3
AutoCAD 2000
 90
        0
280
     0
281
     0
  0
CLASS
  1
LWPOLYLINE
  2
AcDbPolyline
  3
AutoCAD 2000
 90
        0
280
     0
281
     1
  0
CLASS
  1
HATCH
  2
AcDbHatch
  3
AutoCAD 2000
 90
        0
280
     0
281
     1
  0
CLASS
  1
XRECORD
  2
AcDbXrecord
  3
AutoCAD 2000
 90
        0
280
     0
281
     0
  0
ENDSEC
  0
SECTION
  2
TABLES
  0
TABLE
  2
VPORT
  5
8
330
0
100
AcDbSymbolTable
 70
     2
  0
VPORT
  5
D4C
330
8
100
AcDbSymbolTableRecord
100
AcDbViewportTableRecord
  2
*ACTIVE
 70
     0
 10
0.0
 20
0.0
 11
1.0
 21
1.0
 12
431.0949769204378
 22
264.8014610920777
 13
0.0
 23
0.0
 14
5.0
 24
5.0
 15
0.0
 25
0.0
 16
0.0
 26
0.0
 36
1.0
 17
0.0
 27
0.0
 37
0.0
 40
600.5848046661822
 41
1.752310536044362
 42
50.0
 43
0.0
 44
0.0
 50
0.0
 51
0.0
 71
     0
 72
   100
 73
     1
 74
     0
 75
     0
 76
     0
 77
     0
 78
     0
  0
ENDTAB
  0
TABLE
  2
LTYPE
  5
5
330
0
100
AcDbSymbolTable
 70
     2
  0
LTYPE
  5
14
330
5
100
AcDbSymbolTableRecord
100
AcDbLinetypeTableRecord
  2
BYBLOCK
 70
     0
  3

 72
    65
 73
     0
 40
0.0
  0
LTYPE
  5
15
330
5
100
AcDbSymbolTableRecord
100
AcDbLinetypeTableRecord
  2
BYLAYER
 70
     0
  3

 72
    65
 73
     0
 40
0.0
  0
LTYPE
  5
16
330
5
100
AcDbSymbolTableRecord
100
AcDbLinetypeTableRecord
  2
CONTINUOUS
 70
     0
  3
Solid line
 72
    65
 73
     0
 40
0.0
  0
LTYPE
  5
135
330
5
100
AcDbSymbolTableRecord
100
AcDbLinetypeTableRecord
  2
CENTER
 70
     0
  3
____ _ ____ _ ____ _ ____ _ ____ _ ____ _ ____ 
 72
    65
 73
     4
 40
2.0
 49
1.25
 74
     0
 49
-0.25
 74
     0
 49
0.25
 74
     0
 49
-0.25
 74
     0
  0
ENDTAB
  0
TABLE
  2
LAYER
  5
2
330
0
100
AcDbSymbolTable
 70
     8
  0
LAYER
  5
F
330
2
100
AcDbSymbolTableRecord
100
AcDbLayerTableRecord
  2
0
 70
     0
 62
     7
  6
CONTINUOUS
  0
LAYER
  5
62
330
2
100
AcDbSymbolTableRecord
100
AcDbLayerTableRecord
  2
VIEWPORT
 70
     0
 62
     7
  6
CONTINUOUS
  0
LAYER
  5
65
330
2
100
AcDbSymbolTableRecord
100
AcDbLayerTableRecord
  2
ZUWAKU
 70
     0
 62
     7
  6
CONTINUOUS
  0
LAYER
  5
143
330
2
100
AcDbSymbolTableRecord
100
AcDbLayerTableRecord
  2
SEIHIN
 70
     0
 62
     3
  6
CONTINUOUS
  0
LAYER
  5
144
330
2
100
AcDbSymbolTableRecord
100
AcDbLayerTableRecord
  2
SUNPOU
 70
     0
 62
     4
  6
CONTINUOUS
  0
LAYER
  5
145
330
2
100
AcDbSymbolTableRecord
100
AcDbLayerTableRecord
  2
CENTER_L
 70
     0
 62
     1
  6
CENTER
  0
LAYER
  5
3C7
330
2
100
AcDbSymbolTableRecord
100
AcDbLayerTableRecord
  2
DEFPOINTS
 70
     0
 62
     7
  6
CONTINUOUS
  0
LAYER
  5
A58
330
2
100
AcDbSymbolTableRecord
100
AcDbLayerTableRecord
  2
MOJI
 70
     0
 62
     2
  6
CONTINUOUS
  0
ENDTAB
  0
TABLE
  2
STYLE
  5
3
330
0
100
AcDbSymbolTable
 70
     2
  0
STYLE
  5
10
330
3
100
AcDbSymbolTableRecord
100
AcDbTextStyleTableRecord
  2
STANDARD
 70
     0
 40
0.0
 41
1.0
 50
0.0
 71
     0
 42
5.0
  3
TXT
  4
bigfont.shx
  0
STYLE
  5
A59
330
3
100
AcDbSymbolTableRecord
100
AcDbTextStyleTableRecord
  2
ｽﾀｲﾙ1
 70
     0
 40
0.0
 41
1.0
 50
0.0
 71
     0
 42
2.5
  3
MS PGothic.ttf
  4

1001
ACAD
1000
MS PGothic
1071
    32818
  0
ENDTAB
  0
TABLE
  2
VIEW
  5
6
330
0
100
AcDbSymbolTable
 70
     0
  0
ENDTAB
  0
TABLE
  2
UCS
  5
7
330
0
100
AcDbSymbolTable
 70
     0
  0
ENDTAB
  0
TABLE
  2
APPID
  5
9
330
0
100
AcDbSymbolTable
 70
     1
  0
APPID
  5
11
330
9
100
AcDbSymbolTableRecord
100
AcDbRegAppTableRecord
  2
ACAD
 70
     0
  0
ENDTAB
  0
TABLE
  2
DIMSTYLE
  5
A
330
0
100
AcDbSymbolTable
 70
     1
  0
DIMSTYLE
105
1D
102
{ACAD_REACTORS
330
3CC
330
3D9
330
3E6
330
401
330
411
330
426
330
433
330
440
330
453
330
460
330
4A0
330
5D9
330
6B9
330
6C6
102
}
330
A
100
AcDbSymbolTableRecord
100
AcDbDimStyleTableRecord
  2
STANDARD
 70
     0
  3

  4

  5

  6

  7

 40
1.0
 41
0.18
 42
0.0625
 43
0.38
 44
0.18
 45
0.0
 46
0.0
 47
0.0
 48
0.0
140
0.18
141
0.09
142
0.0
143
25.4
144
1.0
145
0.0
146
1.0
147
0.09
 71
     0
 72
     0
 73
     1
 74
     1
 75
     0
 76
     0
 77
     0
 78
     0
170
     0
171
     2
172
     0
173
     0
174
     0
175
     0
176
     0
177
     0
178
     0
270
     2
271
     4
272
     4
273
     2
274
     2
340
10
275
     0
280
     0
281
     0
282
     0
283
     1
284
     0
285
     0
286
     0
287
     3
288
     0
  0
ENDTAB
  0
TABLE
  2
BLOCK_RECORD
  5
1
330
0
100
AcDbSymbolTable
 70
    15
  0
BLOCK_RECORD
  5
1A
102
{ACAD_XDICTIONARY
360
A12
102
}
330
1
100
AcDbSymbolTableRecord
100
AcDbBlockTableRecord
  2
*MODEL_SPACE
  0
BLOCK_RECORD
  5
17
102
{ACAD_XDICTIONARY
360
A10
102
}
330
1
100
AcDbSymbolTableRecord
100
AcDbBlockTableRecord
  2
*PAPER_SPACE
  0
BLOCK_RECORD
  5
6D
330
1
100
AcDbSymbolTableRecord
100
AcDbBlockTableRecord
  2
_OPEN
  0
BLOCK_RECORD
  5
3BF
330
1
100
AcDbSymbolTableRecord
100
AcDbBlockTableRecord
  2
*D1
  0
BLOCK_RECORD
  5
3CD
330
1
100
AcDbSymbolTableRecord
100
AcDbBlockTableRecord
  2
*D2
  0
BLOCK_RECORD
  5
3DA
330
1
100
AcDbSymbolTableRecord
100
AcDbBlockTableRecord
  2
*D3
  0
BLOCK_RECORD
  5
3F5
330
1
100
AcDbSymbolTableRecord
100
AcDbBlockTableRecord
  2
*D4
  0
BLOCK_RECORD
  5
403
330
1
100
AcDbSymbolTableRecord
100
AcDbBlockTableRecord
  2
*D5
  0
BLOCK_RECORD
  5
418
330
1
100
AcDbSymbolTableRecord
100
AcDbBlockTableRecord
  2
*D6
  0
BLOCK_RECORD
  5
427
330
1
100
AcDbSymbolTableRecord
100
AcDbBlockTableRecord
  2
*D7
  0
BLOCK_RECORD
  5
434
330
1
100
AcDbSymbolTableRecord
100
AcDbBlockTableRecord
  2
*D8
  0
BLOCK_RECORD
  5
445
330
1
100
AcDbSymbolTableRecord
100
AcDbBlockTableRecord
  2
*D9
  0
BLOCK_RECORD
  5
454
330
1
100
AcDbSymbolTableRecord
100
AcDbBlockTableRecord
  2
*D10
  0
BLOCK_RECORD
  5
492
330
1
100
AcDbSymbolTableRecord
100
AcDbBlockTableRecord
  2
*D11
  0
BLOCK_RECORD
  5
5CD
330
1
100
AcDbSymbolTableRecord
100
AcDbBlockTableRecord
  2
*D12
  0
BLOCK_RECORD
  5
6AB
330
1
100
AcDbSymbolTableRecord
100
AcDbBlockTableRecord
  2
*D13
  0
BLOCK_RECORD
  5
6BA
330
1
100
AcDbSymbolTableRecord
100
AcDbBlockTableRecord
  2
*D14
  0
ENDTAB
  0
ENDSEC
  0
SECTION
  2
BLOCKS
  0
BLOCK
  5
1B
330
1A
100
AcDbEntity
  8
0
100
AcDbBlockBegin
  2
*MODEL_SPACE
 70
     0
 10
0.0
 20
0.0
 30
0.0
  3
*MODEL_SPACE
  1

  0
ENDBLK
  5
1C
330
1A
100
AcDbEntity
  8
0
100
AcDbBlockEnd
  0
BLOCK
  5
18
330
17
100
AcDbEntity
 67
     1
  8
0
100
AcDbBlockBegin
  2
*PAPER_SPACE
 70
     0
 10
0.0
 20
0.0
 30
0.0
  3
*PAPER_SPACE
  1

  0
ENDBLK
  5
19
330
17
100
AcDbEntity
 67
     1
  8
0
100
AcDbBlockEnd
  0
BLOCK
  5
6E
330
6D
100
AcDbEntity
  8
0
100
AcDbBlockBegin
  2
_OPEN
 70
     0
 10
0.0
 20
0.0
 30
0.0
  3
_OPEN
  1

  0
LINE
  5
6F
330
6D
100
AcDbEntity
  8
0
  6
BYBLOCK
 62
     0
100
AcDbLine
 10
-1.0
 20
0.1666666666666666
 30
0.0
 11
0.0
 21
0.0
 31
0.0
  0
LINE
  5
70
330
6D
100
AcDbEntity
  8
0
  6
BYBLOCK
 62
     0
100
AcDbLine
 10
0.0
 20
0.0
 30
0.0
 11
-1.0
 21
-0.1666666666666666
 31
0.0
  0
LINE
  5
71
330
6D
100
AcDbEntity
  8
0
  6
BYBLOCK
 62
     0
100
AcDbLine
 10
0.0
 20
0.0
 30
0.0
 11
-1.0
 21
0.0
 31
0.0
  0
ENDBLK
  5
72
330
6D
100
AcDbEntity
  8
0
100
AcDbBlockEnd
  0
BLOCK
  5
3C0
330
3BF
100
AcDbEntity
  8
0
100
AcDbBlockBegin
  2
*D1
 70
     1
 10
0.0
 20
0.0
 30
0.0
  3
*D1
  1

  0
LINE
  5
3C1
330
3BF
100
AcDbEntity
  8
0
  6
BYBLOCK
 62
     4
100
AcDbLine
 10
383.5030395284862
 20
446.6744513965565
 30
0.0
 11
435.1901157363559
 21
446.6744513965565
 31
0.0
  0
LINE
  5
3C2
330
3BF
100
AcDbEntity
  8
0
  6
BYBLOCK
 62
     4
100
AcDbLine
 10
383.5030395284862
 20
366.6744513965565
 30
0.0
 11
435.1901157363559
 21
366.6744513965565
 31
0.0
  0
LINE
  5
3C3
330
3BF
100
AcDbEntity
  8
0
  6
BYBLOCK
 62
     4
100
AcDbLine
 10
432.1901157363559
 20
439.6744513965565
 30
0.0
 11
432.1901157363559
 21
373.6744513965565
 31
0.0
  0
INSERT
  5
3C4
330
3BF
100
AcDbEntity
  8
0
  6
BYBLOCK
 62
     4
100
AcDbBlockReference
  2
_OPEN
 10
432.1901157363559
 20
446.6744513965565
 30
0.0
 41
7.0
 42
7.0
 43
7.0
 50
90.0
  0
INSERT
  5
3C5
330
3BF
100
AcDbEntity
  8
0
  6
BYBLOCK
 62
     4
100
AcDbBlockReference
  2
_OPEN
 10
432.1901157363559
 20
366.6744513965565
 30
0.0
 41
7.0
 42
7.0
 43
7.0
 50
270.0
  0
MTEXT
  5
3C6
330
3BF
100
AcDbEntity
  8
0
  6
BYBLOCK
 62
     4
100
AcDbMText
 10
427.1901157363559
 20
406.6744513965565
 30
0.0
 40
6.0
 41
0.0
 71
     5
 72
     5
  1
\A1;80
 11
0.0
 21
1.0
 31
0.0
1001
ACAD
1000
MTEXTBEGIN
1070
    73
1070
     1
1070
    44
1040
1.0
1070
    74
1070
     0
1000
MTEXTEND
1000
MTEXTBEGIN
1070
    73
1070
     1
1070
    44
1040
1.0
1070
    74
1070
     0
1000
MTEXTEND
1000
MTEXTBEGIN
1070
    73
1070
     1
1070
    44
1040
1.0
1070
    74
1070
     0
1000
MTEXTEND
  0
POINT
  5
3C8
330
3BF
100
AcDbEntity
  8
DEFPOINTS
  6
BYBLOCK
 62
     0
100
AcDbPoint
 10
377.5030395284862
 20
446.6744513965565
 30
0.0
  0
POINT
  5
3C9
330
3BF
100
AcDbEntity
  8
DEFPOINTS
  6
BYBLOCK
 62
     0
100
AcDbPoint
 10
377.5030395284862
 20
366.6744513965565
 30
0.0
  0
POINT
  5
3CA
330
3BF
100
AcDbEntity
  8
DEFPOINTS
  6
BYBLOCK
 62
     0
100
AcDbPoint
 10
432.1901157363559
 20
366.6744513965565
 30
0.0
  0
ENDBLK
  5
3CB
330
3BF
100
AcDbEntity
  8
0
100
AcDbBlockEnd
  0
BLOCK
  5
3CE
330
3CD
100
AcDbEntity
  8
0
100
AcDbBlockBegin
  2
*D2
 70
     1
 10
0.0
 20
0.0
 30
0.0
  3
*D2
  1

  0
LINE
  5
3CF
330
3CD
100
AcDbEntity
  8
0
  6
BYBLOCK
 62
     4
100
AcDbLine
 10
226.8612395284862
 20
421.6744513965565
 30
0.0
 11
188.9775998658087
 21
421.6744513965565
 31
0.0
  0
LINE
  5
3D0
330
3CD
100
AcDbEntity
  8
0
  6
BYBLOCK
 62
     4
100
AcDbLine
 10
226.8612395284862
 20
391.6743513965563
 30
0.0
 11
188.9775998658087
 21
391.6743513965563
 31
0.0
  0
LINE
  5
3D1
330
3CD
100
AcDbEntity
  8
0
  6
BYBLOCK
 62
     4
100
AcDbLine
 10
191.9775998658087
 20
414.6744513965565
 30
0.0
 11
191.9775998658087
 21
398.6743513965563
 31
0.0
  0
INSERT
  5
3D2
330
3CD
100
AcDbEntity
  8
0
  6
BYBLOCK
 62
     4
100
AcDbBlockReference
  2
_OPEN
 10
191.9775998658087
 20
421.6744513965565
 30
0.0
 41
7.0
 42
7.0
 43
7.0
 50
90.0
  0
INSERT
  5
3D3
330
3CD
100
AcDbEntity
  8
0
  6
BYBLOCK
 62
     4
100
AcDbBlockReference
  2
_OPEN
 10
191.9775998658087
 20
391.6743513965563
 30
0.0
 41
7.0
 42
7.0
 43
7.0
 50
270.0
  0
MTEXT
  5
3D4
330
3CD
100
AcDbEntity
  8
0
  6
BYBLOCK
 62
     4
100
AcDbMText
 10
186.9775998658087
 20
406.6744013965564
 30
0.0
 40
6.0
 41
0.0
 71
     5
 72
     5
  1
\A1;30
 11
0.0
 21
1.0
 31
0.0
1001
ACAD
1000
MTEXTBEGIN
1070
    73
1070
     1
1070
    44
1040
1.0
1070
    74
1070
     0
1000
MTEXTEND
1000
MTEXTBEGIN
1070
    73
1070
     1
1070
    44
1040
1.0
1070
    74
1070
     0
1000
MTEXTEND
1000
MTEXTBEGIN
1070
    73
1070
     1
1070
    44
1040
1.0
1070
    74
1070
     0
1000
MTEXTEND
  0
POINT
  5
3D5
330
3CD
100
AcDbEntity
  8
DEFPOINTS
  6
BYBLOCK
 62
     0
100
AcDbPoint
 10
232.8612395284862
 20
421.6744513965565
 30
0.0
  0
POINT
  5
3D6
330
3CD
100
AcDbEntity
  8
DEFPOINTS
  6
BYBLOCK
 62
     0
100
AcDbPoint
 10
232.8612395284862
 20
391.6743513965563
 30
0.0
  0
POINT
  5
3D7
330
3CD
100
AcDbEntity
  8
DEFPOINTS
  6
BYBLOCK
 62
     0
100
AcDbPoint
 10
191.9775998658087
 20
391.6743513965563
 30
0.0
  0
ENDBLK
  5
3D8
330
3CD
100
AcDbEntity
  8
0
100
AcDbBlockEnd
  0
BLOCK
  5
3DB
330
3DA
100
AcDbEntity
  8
0
100
AcDbBlockBegin
  2
*D3
 70
     1
 10
0.0
 20
0.0
 30
0.0
  3
*D3
  1

  0
LINE
  5
3DC
330
3DA
100
AcDbEntity
  8
0
  6
BYBLOCK
 62
     4
100
AcDbLine
 10
234.2772395285098
 20
268.6013174906237
 30
0.0
 11
188.9775998658087
 21
268.6013174906237
 31
0.0
  0
LINE
  5
3DD
330
3DA
100
AcDbEntity
  8
0
  6
BYBLOCK
 62
     4
100
AcDbLine
 10
381.2522820017639
 20
194.3999011172682
 30
0.0
 11
188.9775998658087
 21
194.3999011172682
 31
0.0
  0
LINE
  5
3DE
330
3DA
100
AcDbEntity
  8
0
  6
BYBLOCK
 62
     4
100
AcDbLine
 10
191.9775998658087
 20
261.6013174906238
 30
0.0
 11
191.9775998658087
 21
201.3999011172682
 31
0.0
  0
INSERT
  5
3DF
330
3DA
100
AcDbEntity
  8
0
  6
BYBLOCK
 62
     4
100
AcDbBlockReference
  2
_OPEN
 10
191.9775998658087
 20
268.6013174906237
 30
0.0
 41
7.0
 42
7.0
 43
7.0
 50
90.0
  0
INSERT
  5
3E0
330
3DA
100
AcDbEntity
  8
0
  6
BYBLOCK
 62
     4
100
AcDbBlockReference
  2
_OPEN
 10
191.9775998658087
 20
194.3999011172682
 30
0.0
 41
7.0
 42
7.0
 43
7.0
 50
270.0
  0
MTEXT
  5
3E1
330
3DA
100
AcDbEntity
  8
0
  6
BYBLOCK
 62
     4
100
AcDbMText
 10
186.9775998658087
 20
231.500609303946
 30
0.0
 40
6.0
 41
0.0
 71
     5
 72
     5
  1
\A1;74
 11
0.0
 21
1.0
 31
0.0
1001
ACAD
1000
MTEXTBEGIN
1070
    73
1070
     1
1070
    44
1040
1.0
1070
    74
1070
     0
1000
MTEXTEND
1000
MTEXTBEGIN
1070
    73
1070
     1
1070
    44
1040
1.0
1070
    74
1070
     0
1000
MTEXTEND
1000
MTEXTBEGIN
1070
    73
1070
     1
1070
    44
1040
1.0
1070
    74
1070
     0
1000
MTEXTEND
  0
POINT
  5
3E2
330
3DA
100
AcDbEntity
  8
DEFPOINTS
  6
BYBLOCK
 62
     0
100
AcDbPoint
 10
240.2772395285098
 20
268.6013174906237
 30
0.0
  0
POINT
  5
3E3
330
3DA
100
AcDbEntity
  8
DEFPOINTS
  6
BYBLOCK
 62
     0
100
AcDbPoint
 10
387.2522820017639
 20
194.3999011172682
 30
0.0
  0
POINT
  5
3E4
330
3DA
100
AcDbEntity
  8
DEFPOINTS
  6
BYBLOCK
 62
     0
100
AcDbPoint
 10
191.9775998658087
 20
194.3999011172682
 30
0.0
  0
ENDBLK
  5
3E5
330
3DA
100
AcDbEntity
  8
0
100
AcDbBlockEnd
  0
BLOCK
  5
3F6
330
3F5
100
AcDbEntity
  8
0
100
AcDbBlockBegin
  2
*D4
 70
     1
 10
0.0
 20
0.0
 30
0.0
  3
*D4
  1

  0
LINE
  5
3F7
330
3F5
100
AcDbEntity
  8
0
  6
BYBLOCK
 62
     4
100
AcDbLine
 10
372.1312548444405
 20
266.8169236171899
 30
0.0
 11
404.0871479794011
 21
279.5983630799824
 31
0.0
  0
LINE
  5
3F8
330
3F5
100
AcDbEntity
  8
0
  6
BYBLOCK
 62
     4
100
AcDbLine
 10
399.2411927774556
 20
199.0372121062324
 30
0.0
 11
431.1970859124163
 21
211.8186515690249
 31
0.0
  0
LINE
  5
3F9
330
3F5
100
AcDbEntity
  8
0
  6
BYBLOCK
 62
     4
100
AcDbLine
 10
403.9012641357511
 20
271.9848588147529
 30
0.0
 11
425.8120544401119
 21
217.2039497076884
 31
0.0
  0
INSERT
  5
3FA
330
3F5
100
AcDbEntity
  8
0
  6
BYBLOCK
 62
     4
100
AcDbBlockReference
  2
_OPEN
 10
401.3016903214239
 20
278.4842600166994
 30
0.0
 41
7.0
 42
7.0
 43
7.0
 50
111.7999908801002
  0
INSERT
  5
3FB
330
3F5
100
AcDbEntity
  8
0
  6
BYBLOCK
 62
     4
100
AcDbBlockReference
  2
_OPEN
 10
428.4116282544391
 20
210.7045485057418
 30
0.0
 41
7.0
 42
7.0
 43
7.0
 50
291.7999908801002
  0
MTEXT
  5
3FC
330
3F5
100
AcDbEntity
  8
0
  6
BYBLOCK
 62
     4
100
AcDbMText
 10
419.4990887178934
 20
246.4512427000257
 30
0.0
 40
6.0
 41
0.0
 71
     5
 72
     5
  1
\A1;73
 11
0.3713676877610254
 21
-0.9284858859923662
 31
0.0
1001
ACAD
1000
MTEXTBEGIN
1070
    73
1070
     1
1070
    44
1040
1.0
1070
    74
1070
     0
1000
MTEXTEND
1000
MTEXTBEGIN
1070
    73
1070
     1
1070
    44
1040
1.0
1070
    74
1070
     0
1000
MTEXTEND
1000
MTEXTBEGIN
1070
    73
1070
     1
1070
    44
1040
1.0
1070
    74
1070
     0
1000
MTEXTEND
  0
POINT
  5
3FD
330
3F5
100
AcDbEntity
  8
DEFPOINTS
  6
BYBLOCK
 62
     0
100
AcDbPoint
 10
366.5603395284863
 20
264.5887174906238
 30
0.0
  0
POINT
  5
3FE
330
3F5
100
AcDbEntity
  8
DEFPOINTS
  6
BYBLOCK
 62
     0
100
AcDbPoint
 10
393.6702774615014
 20
196.8090059796662
 30
0.0
  0
POINT
  5
3FF
330
3F5
100
AcDbEntity
  8
DEFPOINTS
  6
BYBLOCK
 62
     0
100
AcDbPoint
 10
428.4116282544391
 20
210.7045485057418
 30
0.0
  0
ENDBLK
  5
400
330
3F5
100
AcDbEntity
  8
0
100
AcDbBlockEnd
  0
BLOCK
  5
404
330
403
100
AcDbEntity
  8
0
100
AcDbBlockBegin
  2
*D5
 70
     1
 10
0.0
 20
0.0
 30
0.0
  3
*D5
  1

  0
LINE
  5
405
330
403
100
AcDbEntity
  8
0
  6
BYBLOCK
 62
     4
100
AcDbLine
 10
353.9789643681837
 20
269.1559327834577
 30
0.0
 11
344.172814012409
 21
293.7037835416447
 31
0.0
  0
LINE
  5
406
330
403
100
AcDbEntity
  8
0
  6
BYBLOCK
 62
     4
100
AcDbLine
 10
363.2543874790196
 20
272.8611937667619
 30
0.0
 11
353.4482371232449
 21
297.4090445249489
 31
0.0
  0
LINE
  5
407
330
403
100
AcDbEntity
  8
0
  6
BYBLOCK
 62
     4
100
AcDbLine
 10
361.0616604701393
 20
297.2198754445914
 30
0.0
 11
367.5621827923003
 21
299.816644502303
 31
0.0
  0
LINE
  5
408
330
403
100
AcDbEntity
  8
0
  6
BYBLOCK
 62
     4
100
AcDbLine
 10
338.7851927149815
 20
288.3210763458643
 30
0.0
 11
326.7127941166827
 21
283.4985052386858
 31
0.0
  0
LINE
  5
409
330
403
100
AcDbEntity
  8
0
  6
BYBLOCK
 62
     4
100
AcDbLine
 10
354.5611381479784
 20
294.62310638688
 30
0.0
 11
345.2857150371424
 21
290.9178454035758
 31
0.0
  0
INSERT
  5
40A
330
403
100
AcDbEntity
  8
0
  6
BYBLOCK
 62
     4
100
AcDbBlockReference
  2
_OPEN
 10
354.5611381479784
 20
294.62310638688
 30
0.0
 41
7.0
 42
7.0
 43
7.0
 50
201.7752675478669
  0
INSERT
  5
40B
330
403
100
AcDbEntity
  8
0
  6
BYBLOCK
 62
     4
100
AcDbBlockReference
  2
_OPEN
 10
345.2857150371424
 20
290.9178454035758
 30
0.0
 41
7.0
 42
7.0
 43
7.0
 50
21.77526754786696
  0
MTEXT
  5
40C
330
403
100
AcDbEntity
  8
0
  6
BYBLOCK
 62
     4
100
AcDbMText
 10
329.9655123285866
 20
290.1820540141454
 30
0.0
 40
6.0
 41
0.0
 71
     5
 72
     5
  1
\A1;10
 11
0.9286460460229861
 21
0.3709670082444988
 31
0.0
1001
ACAD
1000
MTEXTBEGIN
1070
    73
1070
     1
1070
    44
1040
1.0
1070
    74
1070
     0
1000
MTEXTEND
1000
MTEXTBEGIN
1070
    73
1070
     1
1070
    44
1040
1.0
1070
    74
1070
     0
1000
MTEXTEND
1000
MTEXTBEGIN
1070
    73
1070
     1
1070
    44
1040
1.0
1070
    74
1070
     0
1000
MTEXTEND
  0
POINT
  5
40D
330
403
100
AcDbEntity
  8
DEFPOINTS
  6
BYBLOCK
 62
     0
100
AcDbPoint
 10
356.2047664176506
 20
263.5840565073198
 30
0.0
  0
POINT
  5
40E
330
403
100
AcDbEntity
  8
DEFPOINTS
  6
BYBLOCK
 62
     0
100
AcDbPoint
 10
365.4801895284866
 20
267.289317490624
 30
0.0
  0
POINT
  5
40F
330
403
100
AcDbEntity
  8
DEFPOINTS
  6
BYBLOCK
 62
     0
100
AcDbPoint
 10
354.5611381479784
 20
294.62310638688
 30
0.0
  0
ENDBLK
  5
410
330
403
100
AcDbEntity
  8
0
100
AcDbBlockEnd
  0
BLOCK
  5
7D8
330
418
100
AcDbEntity
  8
0
100
AcDbBlockBegin
  2
*D6
 70
     1
 10
0.0
 20
0.0
 30
0.0
  3
*D6
  1

  0
LINE
  5
7D9
330
418
100
AcDbEntity
  8
0
  6
BYBLOCK
 62
     4
100
AcDbLine
 10
415.2066132996563
 20
176.9542924143215
 30
0.0
 11
427.1352373924425
 21
147.1284490139205
 31
0.0
  0
LINE
  5
7DA
330
418
100
AcDbEntity
  8
0
  6
BYBLOCK
 62
     4
100
AcDbLine
 10
421.7079999965819
 20
179.5544736379788
 30
0.0
 11
433.636624089368
 21
149.7286302375778
 31
0.0
  0
LINE
  5
7DB
330
418
100
AcDbEntity
  8
0
  6
BYBLOCK
 62
     4
100
AcDbLine
 10
419.5217377322022
 20
147.3145213749021
 30
0.0
 11
413.0222721644025
 21
144.7151084925408
 31
0.0
  0
LINE
  5
7DC
330
418
100
AcDbEntity
  8
0
  6
BYBLOCK
 62
     4
100
AcDbLine
 10
439.0220555647273
 20
155.1135283632818
 30
0.0
 11
460.377442430355
 21
163.6544564053258
 31
0.0
  0
LINE
  5
7DD
330
418
100
AcDbEntity
  8
0
  6
BYBLOCK
 62
     4
100
AcDbLine
 10
426.021203300002
 20
149.9139342572633
 30
0.0
 11
432.5225899969275
 21
152.5141154809206
 31
0.0
  0
INSERT
  5
7DE
330
418
100
AcDbEntity
  8
0
  6
BYBLOCK
 62
     4
100
AcDbBlockReference
  2
_OPEN
 10
426.021203300002
 20
149.9139342572633
 30
0.0
 41
7.0
 42
7.0
 43
7.0
 50
21.79857218374745
  0
INSERT
  5
7DF
330
418
100
AcDbEntity
  8
0
  6
BYBLOCK
 62
     4
100
AcDbBlockReference
  2
_OPEN
 10
432.5225899969275
 20
152.5141154809206
 30
0.0
 41
7.0
 42
7.0
 43
7.0
 50
201.7985721837474
  0
MTEXT
  5
7E0
330
418
100
AcDbEntity
  8
0
  6
BYBLOCK
 62
     4
100
AcDbMText
 10
448.7715205912546
 20
164.3978124873552
 30
0.0
 40
6.0
 41
0.0
 71
     5
 72
     5
  1
\A1;t7.0
 11
0.9284950811142509
 21
0.3713446974801722
 31
0.0
1001
ACAD
1000
MTEXTBEGIN
1070
    73
1070
     1
1070
    44
1040
1.0
1070
    74
1070
     0
1000
MTEXTEND
1000
MTEXTBEGIN
1070
    73
1070
     1
1070
    44
1040
1.0
1070
    74
1070
     0
1000
MTEXTEND
1000
MTEXTBEGIN
1070
    73
1070
     1
1070
    44
1040
1.0
1070
    74
1070
     0
1000
MTEXTEND
  0
POINT
  5
7E1
330
418
100
AcDbEntity
  8
DEFPOINTS
  6
BYBLOCK
 62
     0
100
AcDbPoint
 10
412.9785451147752
 20
182.525262901007
 30
0.0
  0
POINT
  5
7E2
330
418
100
AcDbEntity
  8
DEFPOINTS
  6
BYBLOCK
 62
     0
100
AcDbPoint
 10
419.4799318117008
 20
185.1254441246643
 30
0.0
  0
POINT
  5
7E3
330
418
100
AcDbEntity
  8
DEFPOINTS
  6
BYBLOCK
 62
     0
100
AcDbPoint
 10
432.5225899969275
 20
152.5141154809206
 30
0.0
  0
ENDBLK
  5
7E4
330
418
100
AcDbEntity
  8
0
100
AcDbBlockEnd
  0
BLOCK
  5
428
330
427
100
AcDbEntity
  8
0
100
AcDbBlockBegin
  2
*D7
 70
     1
 10
0.0
 20
0.0
 30
0.0
  3
*D7
  1

  0
LINE
  5
429
330
427
100
AcDbEntity
  8
0
  6
BYBLOCK
 62
     4
100
AcDbLine
 10
544.0722393286742
 20
331.9130351771058
 30
0.0
 11
529.0464168261382
 21
369.4804047251317
 31
0.0
  0
LINE
  5
42A
330
427
100
AcDbEntity
  8
0
  6
BYBLOCK
 62
     4
100
AcDbLine
 10
484.6490393286748
 20
308.1455351771059
 30
0.0
 11
469.6232168261386
 21
345.712904725132
 31
0.0
  0
LINE
  5
42B
330
427
100
AcDbEntity
  8
0
  6
BYBLOCK
 62
     4
100
AcDbLine
 10
523.6611129584818
 20
364.0953789821102
 30
0.0
 11
477.2367208936069
 21
345.5270127816715
 31
0.0
  0
INSERT
  5
42C
330
427
100
AcDbEntity
  8
0
  6
BYBLOCK
 62
     4
100
AcDbBlockReference
  2
_OPEN
 10
530.1605169260442
 20
366.6949458818907
 30
0.0
 41
7.0
 42
7.0
 43
7.0
 50
21.79992992459929
  0
INSERT
  5
42D
330
427
100
AcDbEntity
  8
0
  6
BYBLOCK
 62
     4
100
AcDbBlockReference
  2
_OPEN
 10
470.7373169260446
 20
342.9274458818909
 30
0.0
 41
7.0
 42
7.0
 43
7.0
 50
201.7999299245992
  0
MTEXT
  5
42E
330
427
100
AcDbEntity
  8
0
  6
BYBLOCK
 62
     4
100
AcDbMText
 10
498.1544493845654
 20
359.2785867798042
 30
0.0
 40
6.0
 41
0.0
 71
     5
 72
     5
  1
\A1;64
 11
0.9284862810803385
 21
0.3713666999686465
 31
0.0
1001
ACAD
1000
MTEXTBEGIN
1070
    73
1070
     1
1070
    44
1040
1.0
1070
    74
1070
     0
1000
MTEXTEND
1000
MTEXTBEGIN
1070
    73
1070
     1
1070
    44
1040
1.0
1070
    74
1070
     0
1000
MTEXTEND
1000
MTEXTBEGIN
1070
    73
1070
     1
1070
    44
1040
1.0
1070
    74
1070
     0
1000
MTEXTEND
  0
POINT
  5
42F
330
427
100
AcDbEntity
  8
DEFPOINTS
  6
BYBLOCK
 62
     0
100
AcDbPoint
 10
546.3004395284862
 20
326.3421174906238
 30
0.0
  0
POINT
  5
430
330
427
100
AcDbEntity
  8
DEFPOINTS
  6
BYBLOCK
 62
     0
100
AcDbPoint
 10
486.8772395284866
 20
302.5746174906239
 30
0.0
  0
POINT
  5
431
330
427
100
AcDbEntity
  8
DEFPOINTS
  6
BYBLOCK
 62
     0
100
AcDbPoint
 10
470.7373169260446
 20
342.9274458818909
 30
0.0
  0
ENDBLK
  5
432
330
427
100
AcDbEntity
  8
0
100
AcDbBlockEnd
  0
BLOCK
  5
435
330
434
100
AcDbEntity
  8
0
100
AcDbBlockBegin
  2
*D8
 70
     1
 10
0.0
 20
0.0
 30
0.0
  3
*D8
  1

  0
LINE
  5
436
330
434
100
AcDbEntity
  8
0
  6
BYBLOCK
 62
     4
100
AcDbLine
 10
550.340338412393
 20
337.7836348106205
 30
0.0
 11
531.0608981209411
 21
385.9858222450396
 31
0.0
  0
LINE
  5
437
330
434
100
AcDbEntity
  8
0
  6
BYBLOCK
 62
     4
100
AcDbLine
 10
476.0614527982997
 20
308.0742913900365
 30
0.0
 11
456.7820125068475
 21
356.2764788244557
 31
0.0
  0
LINE
  5
438
330
434
100
AcDbEntity
  8
0
  6
BYBLOCK
 62
     4
100
AcDbLine
 10
525.675595138991
 20
380.6007956162659
 30
0.0
 11
464.3955166048906
 21
356.0905881332324
 31
0.0
  0
INSERT
  5
439
330
434
100
AcDbEntity
  8
0
  6
BYBLOCK
 62
     4
100
AcDbBlockReference
  2
_OPEN
 10
532.1749986789875
 20
383.2003635850411
 30
0.0
 41
7.0
 42
7.0
 43
7.0
 50
21.79993934836857
  0
INSERT
  5
43A
330
434
100
AcDbEntity
  8
0
  6
BYBLOCK
 62
     4
100
AcDbBlockReference
  2
_OPEN
 10
457.8961130648941
 20
353.4910201644572
 30
0.0
 41
7.0
 42
7.0
 43
7.0
 50
201.7999393483686
  0
MTEXT
  5
43B
330
434
100
AcDbEntity
  8
0
  6
BYBLOCK
 62
     4
100
AcDbMText
 10
491.9585886356634
 20
372.5001061014456
 30
0.0
 40
6.0
 41
0.0
 71
     5
 72
     5
  1
\A1;80
 11
0.9284862199994899
 21
0.371366852682168
 31
0.0
1001
ACAD
1000
MTEXTBEGIN
1070
    73
1070
     1
1070
    44
1040
1.0
1070
    74
1070
     0
1000
MTEXTEND
1000
MTEXTBEGIN
1070
    73
1070
     1
1070
    44
1040
1.0
1070
    74
1070
     0
1000
MTEXTEND
1000
MTEXTBEGIN
1070
    73
1070
     1
1070
    44
1040
1.0
1070
    74
1070
     0
1000
MTEXTEND
  0
POINT
  5
43C
330
434
100
AcDbEntity
  8
DEFPOINTS
  6
BYBLOCK
 62
     0
100
AcDbPoint
 10
552.5685395284861
 20
332.2127174906236
 30
0.0
  0
POINT
  5
43D
330
434
100
AcDbEntity
  8
DEFPOINTS
  6
BYBLOCK
 62
     0
100
AcDbPoint
 10
478.2896539143926
 20
302.5033740700395
 30
0.0
  0
POINT
  5
43E
330
434
100
AcDbEntity
  8
DEFPOINTS
  6
BYBLOCK
 62
     0
100
AcDbPoint
 10
457.8961130648941
 20
353.4910201644572
 30
0.0
  0
ENDBLK
  5
43F
330
434
100
AcDbEntity
  8
0
100
AcDbBlockEnd
  0
BLOCK
  5
446
330
445
100
AcDbEntity
  8
0
100
AcDbBlockBegin
  2
*D9
 70
     1
 10
0.0
 20
0.0
 30
0.0
  3
*D9
  1

  0
LINE
  5
447
330
445
100
AcDbEntity
  8
0
  6
BYBLOCK
 62
     4
100
AcDbLine
 10
471.1853634224314
 20
304.1089409947638
 30
0.0
 11
446.1306031116409
 21
294.0878120584528
 31
0.0
  0
LINE
  5
448
330
445
100
AcDbEntity
  8
0
  6
BYBLOCK
 62
     4
100
AcDbLine
 10
475.9773540469126
 20
292.1280377181985
 30
0.0
 11
450.9225937361221
 21
282.1069087818875
 31
0.0
  0
LINE
  5
449
330
445
100
AcDbEntity
  8
0
  6
BYBLOCK
 62
     4
100
AcDbLine
 10
446.3165015209325
 20
301.7013159680481
 30
0.0
 11
443.7169401408253
 21
308.2007221433118
 31
0.0
  0
LINE
  5
44A
330
445
100
AcDbEntity
  8
0
  6
BYBLOCK
 62
     4
100
AcDbLine
 10
456.307614905628
 20
276.7216003409555
 30
0.0
 11
458.9071762857352
 21
270.2221941656918
 31
0.0
  0
LINE
  5
44B
330
445
100
AcDbEntity
  8
0
  6
BYBLOCK
 62
     4
100
AcDbLine
 10
448.9160629010396
 20
295.2019097927844
 30
0.0
 11
453.7080535255208
 21
283.2210065162191
 31
0.0
  0
INSERT
  5
44C
330
445
100
AcDbEntity
  8
0
  6
BYBLOCK
 62
     4
100
AcDbBlockReference
  2
_OPEN
 10
448.9160629010396
 20
295.2019097927844
 30
0.0
 41
7.0
 42
7.0
 43
7.0
 50
291.799881265686
  0
INSERT
  5
44D
330
445
100
AcDbEntity
  8
0
  6
BYBLOCK
 62
     4
100
AcDbBlockReference
  2
_OPEN
 10
453.7080535255208
 20
283.2210065162191
 30
0.0
 41
7.0
 42
7.0
 43
7.0
 50
111.799881265686
  0
MTEXT
  5
44E
330
445
100
AcDbEntity
  8
0
  6
BYBLOCK
 62
     4
100
AcDbMText
 10
455.9544911956113
 20
291.0682877117212
 30
0.0
 40
6.0
 41
0.0
 71
     5
 72
     5
  1
\A1;13
 11
0.3713659114438821
 21
-0.9284865964662358
 31
0.0
1001
ACAD
1000
MTEXTBEGIN
1070
    73
1070
     1
1070
    44
1040
1.0
1070
    74
1070
     0
1000
MTEXTEND
1000
MTEXTBEGIN
1070
    73
1070
     1
1070
    44
1040
1.0
1070
    74
1070
     0
1000
MTEXTEND
1000
MTEXTBEGIN
1070
    73
1070
     1
1070
    44
1040
1.0
1070
    74
1070
     0
1000
MTEXTEND
  0
POINT
  5
44F
330
445
100
AcDbEntity
  8
DEFPOINTS
  6
BYBLOCK
 62
     0
100
AcDbPoint
 10
476.7562830012288
 20
306.3371364634271
 30
0.0
  0
POINT
  5
450
330
445
100
AcDbEntity
  8
DEFPOINTS
  6
BYBLOCK
 62
     0
100
AcDbPoint
 10
481.5482736257099
 20
294.3562331868617
 30
0.0
  0
POINT
  5
451
330
445
100
AcDbEntity
  8
DEFPOINTS
  6
BYBLOCK
 62
     0
100
AcDbPoint
 10
453.7080535255208
 20
283.2210065162191
 30
0.0
  0
ENDBLK
  5
452
330
445
100
AcDbEntity
  8
0
100
AcDbBlockEnd
  0
BLOCK
  5
455
330
454
100
AcDbEntity
  8
0
100
AcDbBlockBegin
  2
*D10
 70
     1
 10
0.0
 20
0.0
 30
0.0
  3
*D10
  1

  0
LINE
  5
456
330
454
100
AcDbEntity
  8
0
  6
BYBLOCK
 62
     4
100
AcDbLine
 10
475.97735502901
 20
292.1280352627668
 30
0.0
 11
450.9642666196065
 21
282.1235610092656
 31
0.0
  0
LINE
  5
457
330
454
100
AcDbEntity
  8
0
  6
BYBLOCK
 62
     4
100
AcDbLine
 10
494.54591406138
 20
245.7031060817698
 30
0.0
 11
469.5328256519765
 21
235.6986318282687
 31
0.0
  0
LINE
  5
458
330
454
100
AcDbEntity
  8
0
  6
BYBLOCK
 62
     4
100
AcDbLine
 10
456.349290162734
 20
276.7382549418297
 30
0.0
 11
469.7187207055491
 21
243.3121358197996
 31
0.0
  0
INSERT
  5
459
330
454
100
AcDbEntity
  8
0
  6
BYBLOCK
 62
     4
100
AcDbBlockReference
  2
_OPEN
 10
453.7497259179566
 20
283.2376599713132
 30
0.0
 41
7.0
 42
7.0
 43
7.0
 50
111.7999065193057
  0
INSERT
  5
45A
330
454
100
AcDbEntity
  8
0
  6
BYBLOCK
 62
     4
100
AcDbBlockReference
  2
_OPEN
 10
472.3182849503266
 20
236.8127307903161
 30
0.0
 41
7.0
 42
7.0
 43
7.0
 50
291.7999065193057
  0
MTEXT
  5
45B
330
454
100
AcDbEntity
  8
0
  6
BYBLOCK
 62
     4
100
AcDbMText
 10
465.0734339720545
 20
268.3900311209208
 30
0.0
 40
6.0
 41
0.0
 71
     5
 72
     5
  1
\A1;50
 11
0.3713663206824949
 21
-0.9284864327833478
 31
0.0
1001
ACAD
1000
MTEXTBEGIN
1070
    73
1070
     1
1070
    44
1040
1.0
1070
    74
1070
     0
1000
MTEXTEND
1000
MTEXTBEGIN
1070
    73
1070
     1
1070
    44
1040
1.0
1070
    74
1070
     0
1000
MTEXTEND
1000
MTEXTBEGIN
1070
    73
1070
     1
1070
    44
1040
1.0
1070
    74
1070
     0
1000
MTEXTEND
  0
POINT
  5
45C
330
454
100
AcDbEntity
  8
DEFPOINTS
  6
BYBLOCK
 62
     0
100
AcDbPoint
 10
481.54827362571
 20
294.3562331868617
 30
0.0
  0
POINT
  5
45D
330
454
100
AcDbEntity
  8
DEFPOINTS
  6
BYBLOCK
 62
     0
100
AcDbPoint
 10
500.11683265808
 20
247.9313040058648
 30
0.0
  0
POINT
  5
45E
330
454
100
AcDbEntity
  8
DEFPOINTS
  6
BYBLOCK
 62
     0
100
AcDbPoint
 10
472.3182849503266
 20
236.8127307903161
 30
0.0
  0
ENDBLK
  5
45F
330
454
100
AcDbEntity
  8
0
100
AcDbBlockEnd
  0
BLOCK
  5
69A
330
492
100
AcDbEntity
  8
0
100
AcDbBlockBegin
  2
*D11
 70
     1
 10
0.0
 20
0.0
 30
0.0
  3
*D11
  1

  0
LINE
  5
69B
330
492
100
AcDbEntity
  8
0
  6
BYBLOCK
 62
     4
100
AcDbLine
 10
541.4821086559337
 20
267.1598403547478
 30
0.0
 11
479.4025533695753
 21
242.329913737472
 31
0.0
  0
LINE
  5
69C
330
492
100
AcDbEntity
  8
0
  6
BYBLOCK
 62
     4
100
AcDbLine
 10
544.4530368496956
 20
259.7319528744796
 30
0.0
 11
482.3734815633373
 21
234.9020262572037
 31
0.0
  0
LINE
  5
69D
330
492
100
AcDbEntity
  8
0
  6
BYBLOCK
 62
     4
100
AcDbLine
 10
479.5884491115131
 20
249.9434177121954
 30
0.0
 11
476.9888854543711
 21
256.4428229767151
 31
0.0
  0
LINE
  5
69E
330
492
100
AcDbEntity
  8
0
  6
BYBLOCK
 62
     4
100
AcDbLine
 10
487.7585046195592
 20
229.5167197028878
 30
0.0
 11
491.4721669869051
 21
220.2318550392882
 31
0.0
  0
LINE
  5
69F
330
492
100
AcDbEntity
  8
0
  6
BYBLOCK
 62
     4
100
AcDbLine
 10
482.1880127686553
 20
243.4440124476757
 30
0.0
 11
485.1589409624171
 21
236.0161249674074
 31
0.0
  0
INSERT
  5
6A0
330
492
100
AcDbEntity
  8
0
  6
BYBLOCK
 62
     4
100
AcDbBlockReference
  2
_OPEN
 10
482.1880127686553
 20
243.4440124476757
 30
0.0
 41
7.0
 42
7.0
 43
7.0
 50
291.7999013389813
  0
INSERT
  5
6A1
330
492
100
AcDbEntity
  8
0
  6
BYBLOCK
 62
     4
100
AcDbBlockReference
  2
_OPEN
 10
485.1589409624171
 20
236.0161249674074
 30
0.0
 41
7.0
 42
7.0
 43
7.0
 50
111.7999013389813
  0
MTEXT
  5
6A2
330
492
100
AcDbEntity
  8
0
  6
BYBLOCK
 62
     4
100
AcDbMText
 10
494.6291343717665
 20
225.802632088401
 30
0.0
 40
6.0
 41
0.0
 71
     5
 72
     5
  1
\A1;8
 11
0.3713662367345835
 21
-0.9284864663599536
 31
0.0
1001
ACAD
1000
MTEXTBEGIN
1070
    73
1070
     1
1070
    44
1040
1.0
1070
    74
1070
     0
1000
MTEXTEND
1000
MTEXTBEGIN
1070
    73
1070
     1
1070
    44
1040
1.0
1070
    74
1070
     0
1000
MTEXTEND
1000
MTEXTBEGIN
1070
    73
1070
     1
1070
    44
1040
1.0
1070
    74
1070
     0
1000
MTEXTEND
  0
POINT
  5
6A3
330
492
100
AcDbEntity
  8
DEFPOINTS
  6
BYBLOCK
 62
     0
100
AcDbPoint
 10
547.0530274540935
 20
269.3880377751554
 30
0.0
  0
POINT
  5
6A4
330
492
100
AcDbEntity
  8
DEFPOINTS
  6
BYBLOCK
 62
     0
100
AcDbPoint
 10
550.0239556478554
 20
261.9601502948871
 30
0.0
  0
POINT
  5
6A5
330
492
100
AcDbEntity
  8
DEFPOINTS
  6
BYBLOCK
 62
     0
100
AcDbPoint
 10
485.1589409624171
 20
236.0161249674074
 30
0.0
  0
ENDBLK
  5
6A6
330
492
100
AcDbEntity
  8
0
100
AcDbBlockEnd
  0
BLOCK
  5
5DA
330
5CD
100
AcDbEntity
  8
0
100
AcDbBlockBegin
  2
*D12
 70
     1
 10
0.0
 20
0.0
 30
0.0
  3
*D12
  1

  0
LINE
  5
5DB
330
5CD
100
AcDbEntity
  8
0
  6
BYBLOCK
 62
     4
100
AcDbLine
 10
561.0506043054807
 20
257.1508642008339
 30
0.0
 11
569.9635033463834
 21
234.8669155891427
 31
0.0
  0
LINE
  5
5DC
330
5CD
100
AcDbEntity
  8
0
  6
BYBLOCK
 62
     4
100
AcDbLine
 10
523.9111456510827
 20
242.2962147314502
 30
0.0
 11
532.8240446919852
 21
220.0122661197592
 31
0.0
  0
LINE
  5
5DD
330
5CD
100
AcDbEntity
  8
0
  6
BYBLOCK
 62
     4
100
AcDbLine
 10
562.3499993716599
 20
235.0528113310804
 30
0.0
 11
538.2093512463011
 21
225.3972891759811
 31
0.0
  0
INSERT
  5
5DE
330
5CD
100
AcDbEntity
  8
0
  6
BYBLOCK
 62
     4
100
AcDbBlockReference
  2
_OPEN
 10
568.8494046361796
 20
237.6523749882226
 30
0.0
 41
7.0
 42
7.0
 43
7.0
 50
21.79990133898165
  0
INSERT
  5
5DF
330
5CD
100
AcDbEntity
  8
0
  6
BYBLOCK
 62
     4
100
AcDbBlockReference
  2
_OPEN
 10
531.7099459817815
 20
222.797725518839
 30
0.0
 41
7.0
 42
7.0
 43
7.0
 50
201.7999013389816
  0
MTEXT
  5
5E0
330
5CD
100
AcDbEntity
  8
0
  6
BYBLOCK
 62
     4
100
AcDbMText
 10
548.3971593079742
 20
234.8572094426409
 30
0.0
 40
6.0
 41
0.0
 71
     5
 72
     5
  1
\A1;40
 11
0.9284864663599517
 21
0.3713662367345884
 31
0.0
1001
ACAD
1000
MTEXTBEGIN
1070
    73
1070
     1
1070
    44
1040
1.0
1070
    74
1070
     0
1000
MTEXTEND
1000
MTEXTBEGIN
1070
    73
1070
     1
1070
    44
1040
1.0
1070
    74
1070
     0
1000
MTEXTEND
1000
MTEXTBEGIN
1070
    73
1070
     1
1070
    44
1040
1.0
1070
    74
1070
     0
1000
MTEXTEND
  0
POINT
  5
5E1
330
5CD
100
AcDbEntity
  8
DEFPOINTS
  6
BYBLOCK
 62
     0
100
AcDbPoint
 10
558.8224068850733
 20
262.7217829989936
 30
0.0
  0
POINT
  5
5E2
330
5CD
100
AcDbEntity
  8
DEFPOINTS
  6
BYBLOCK
 62
     0
100
AcDbPoint
 10
521.6829482306751
 20
247.8671335296099
 30
0.0
  0
POINT
  5
5E3
330
5CD
100
AcDbEntity
  8
DEFPOINTS
  6
BYBLOCK
 62
     0
100
AcDbPoint
 10
531.7099459817815
 20
222.797725518839
 30
0.0
  0
ENDBLK
  5
5E4
330
5CD
100
AcDbEntity
  8
0
100
AcDbBlockEnd
  0
BLOCK
  5
6AC
330
6AB
100
AcDbEntity
  8
0
100
AcDbBlockBegin
  2
*D13
 70
     1
 10
0.0
 20
0.0
 30
0.0
  3
*D13
  1

  0
LINE
  5
6AD
330
6AB
100
AcDbEntity
  8
0
  6
BYBLOCK
 62
     4
100
AcDbLine
 10
375.6298765095115
 20
244.7737573966499
 30
0.0
 11
375.6298765095115
 21
312.7601229122194
 31
0.0
  0
LINE
  5
6AE
330
6AB
100
AcDbEntity
  8
0
  6
BYBLOCK
 62
     4
100
AcDbLine
 10
376.3572765095116
 20
277.1902573966499
 30
0.0
 11
376.3572765095116
 21
312.7601229122194
 31
0.0
  0
LINE
  5
6AF
330
6AB
100
AcDbEntity
  8
0
  6
BYBLOCK
 62
     4
100
AcDbLine
 10
368.6298765095116
 20
309.7601229122194
 30
0.0
 11
361.6298765095115
 21
309.7601229122194
 31
0.0
  0
LINE
  5
6B0
330
6AB
100
AcDbEntity
  8
0
  6
BYBLOCK
 62
     4
100
AcDbLine
 10
383.3572765095116
 20
309.7601229122194
 30
0.0
 11
395.4918095860871
 21
309.7601229122194
 31
0.0
  0
LINE
  5
6B1
330
6AB
100
AcDbEntity
  8
0
  6
BYBLOCK
 62
     4
100
AcDbLine
 10
375.6298765095115
 20
309.7601229122194
 30
0.0
 11
376.3572765095116
 21
309.7601229122194
 31
0.0
  0
INSERT
  5
6B2
330
6AB
100
AcDbEntity
  8
0
  6
BYBLOCK
 62
     4
100
AcDbBlockReference
  2
_OPEN
 10
375.6298765095115
 20
309.7601229122194
 30
0.0
 41
7.0
 42
7.0
 43
7.0
  0
INSERT
  5
6B3
330
6AB
100
AcDbEntity
  8
0
  6
BYBLOCK
 62
     4
100
AcDbBlockReference
  2
_OPEN
 10
376.3572765095116
 20
309.7601229122194
 30
0.0
 41
7.0
 42
7.0
 43
7.0
 50
180.0
  0
MTEXT
  5
6B4
330
6AB
100
AcDbEntity
  8
0
  6
BYBLOCK
 62
     4
100
AcDbMText
 10
392.4918095860871
 20
314.7601229122194
 30
0.0
 40
6.0
 41
0.0
 71
     5
 72
     5
  1
\A1;1
1001
ACAD
1000
MTEXTBEGIN
1070
    73
1070
     1
1070
    44
1040
1.0
1070
    74
1070
     0
1000
MTEXTEND
1000
MTEXTBEGIN
1070
    73
1070
     1
1070
    44
1040
1.0
1070
    74
1070
     0
1000
MTEXTEND
1000
MTEXTBEGIN
1070
    73
1070
     1
1070
    44
1040
1.0
1070
    74
1070
     0
1000
MTEXTEND
  0
POINT
  5
6B5
330
6AB
100
AcDbEntity
  8
DEFPOINTS
  6
BYBLOCK
 62
     0
100
AcDbPoint
 10
375.6298765095115
 20
238.7737573966499
 30
0.0
  0
POINT
  5
6B6
330
6AB
100
AcDbEntity
  8
DEFPOINTS
  6
BYBLOCK
 62
     0
100
AcDbPoint
 10
376.3572765095116
 20
271.1902573966499
 30
0.0
  0
POINT
  5
6B7
330
6AB
100
AcDbEntity
  8
DEFPOINTS
  6
BYBLOCK
 62
     0
100
AcDbPoint
 10
376.3572765095116
 20
309.7601229122194
 30
0.0
  0
ENDBLK
  5
6B8
330
6AB
100
AcDbEntity
  8
0
100
AcDbBlockEnd
  0
BLOCK
  5
6BB
330
6BA
100
AcDbEntity
  8
0
100
AcDbBlockBegin
  2
*D14
 70
     1
 10
0.0
 20
0.0
 30
0.0
  3
*D14
  1

  0
LINE
  5
6BC
330
6BA
100
AcDbEntity
  8
0
  6
BYBLOCK
 62
     4
100
AcDbLine
 10
242.6581694633957
 20
274.4542644499758
 30
0.0
 11
242.6581694633957
 21
326.8633267028787
 31
0.0
  0
LINE
  5
6BD
330
6BA
100
AcDbEntity
  8
0
  6
BYBLOCK
 62
     4
100
AcDbLine
 10
376.3572765095116
 20
277.1902573966499
 30
0.0
 11
376.3572765095116
 21
326.8633267028787
 31
0.0
  0
LINE
  5
6BE
330
6BA
100
AcDbEntity
  8
0
  6
BYBLOCK
 62
     4
100
AcDbLine
 10
249.6581694633956
 20
323.8633267028788
 30
0.0
 11
369.3572765095116
 21
323.8633267028788
 31
0.0
  0
INSERT
  5
6BF
330
6BA
100
AcDbEntity
  8
0
  6
BYBLOCK
 62
     4
100
AcDbBlockReference
  2
_OPEN
 10
242.6581694633957
 20
323.8633267028788
 30
0.0
 41
7.0
 42
7.0
 43
7.0
 50
180.0
  0
INSERT
  5
6C0
330
6BA
100
AcDbEntity
  8
0
  6
BYBLOCK
 62
     4
100
AcDbBlockReference
  2
_OPEN
 10
376.3572765095116
 20
323.8633267028788
 30
0.0
 41
7.0
 42
7.0
 43
7.0
  0
MTEXT
  5
6C1
330
6BA
100
AcDbEntity
  8
0
  6
BYBLOCK
 62
     4
100
AcDbMText
 10
314.7633371805459
 20
328.8633267028787
 30
0.0
 40
6.0
 41
0.0
 71
     5
 72
     5
  1
\A1;134
1001
ACAD
1000
MTEXTBEGIN
1070
    73
1070
     1
1070
    44
1040
1.0
1070
    74
1070
     0
1000
MTEXTEND
1000
MTEXTBEGIN
1070
    73
1070
     1
1070
    44
1040
1.0
1070
    74
1070
     0
1000
MTEXTEND
1000
MTEXTBEGIN
1070
    73
1070
     1
1070
    44
1040
1.0
1070
    74
1070
     0
1000
MTEXTEND
  0
POINT
  5
6C2
330
6BA
100
AcDbEntity
  8
DEFPOINTS
  6
BYBLOCK
 62
     0
100
AcDbPoint
 10
242.6581694633957
 20
268.4542644499758
 30
0.0
  0
POINT
  5
6C3
330
6BA
100
AcDbEntity
  8
DEFPOINTS
  6
BYBLOCK
 62
     0
100
AcDbPoint
 10
376.3572765095116
 20
271.1902573966499
 30
0.0
  0
POINT
  5
6C4
330
6BA
100
AcDbEntity
  8
DEFPOINTS
  6
BYBLOCK
 62
     0
100
AcDbPoint
 10
376.3572765095116
 20
323.8633267028788
 30
0.0
  0
ENDBLK
  5
6C5
330
6BA
100
AcDbEntity
  8
0
100
AcDbBlockEnd
  0
ENDSEC
  0
SECTION
  2
ENTITIES
  0
LINE
  5
285
330
1A
100
AcDbEntity
  8
CENTER_L
  6
CENTER
 62
     1
 48
5.0
100
AcDbLine
 10
424.8054938786856
 20
195.8037556356218
 30
0.0
 11
404.7170938786853
 21
187.7691556356219
 31
0.0
  0
LINE
  5
286
330
1A
100
AcDbEntity
  8
CENTER_L
  6
CENTER
 62
     1
 48
5.0
100
AcDbLine
 10
254.1653938786854
 20
394.9908895415546
 30
0.0
 11
420.7773938786854
 21
394.9908895415546
 31
0.0
  0
LINE
  5
28A
330
1A
100
AcDbEntity
  8
SEIHIN
  6
CONTINUOUS
 62
     3
 48
5.0
100
AcDbLine
 10
403.4594938786855
 20
429.5692895415545
 30
0.0
 11
413.4961938786853
 21
416.9980895415545
 31
0.0
  0
LINE
  5
28B
330
1A
100
AcDbEntity
  8
SEIHIN
  6
CONTINUOUS
 62
     3
 48
5.0
100
AcDbLine
 10
411.6388938786853
 20
416.9981895415546
 30
0.0
 11
401.7685938786855
 21
429.3611895415546
 31
0.0
  0
LINE
  5
28C
330
1A
100
AcDbEntity
  8
SEIHIN
  6
CONTINUOUS
 62
     3
 48
5.0
100
AcDbLine
 10
412.9331938786855
 20
397.4908895415546
 30
0.0
 11
402.6780938786854
 21
397.4908895415546
 31
0.0
  0
LINE
  5
28D
330
1A
100
AcDbEntity
  8
SEIHIN
  6
CONTINUOUS
 62
     3
 48
5.0
100
AcDbLine
 10
403.5109938786854
 20
434.9908895415546
 30
0.0
 11
417.9941938786853
 21
416.8514895415546
 31
0.0
  0
LINE
  5
28E
330
1A
100
AcDbEntity
  8
SEIHIN
  6
CONTINUOUS
 62
     3
 48
5.0
100
AcDbLine
 10
412.9331938786855
 20
392.4908895415546
 30
0.0
 11
402.6780938786854
 21
392.4908895415546
 31
0.0
  0
LINE
  5
28F
330
1A
100
AcDbEntity
  8
SEIHIN
  6
CONTINUOUS
 62
     3
 48
5.0
100
AcDbLine
 10
411.6388938786853
 20
372.9834895415546
 30
0.0
 11
401.7685938786855
 21
360.6205895415544
 31
0.0
  0
LINE
  5
290
330
1A
100
AcDbEntity
  8
SEIHIN
  6
CONTINUOUS
 62
     3
 48
5.0
100
AcDbLine
 10
403.4594938786855
 20
360.4123895415546
 30
0.0
 11
413.4961938786853
 21
372.9836895415546
 31
0.0
  0
LINE
  5
291
330
1A
100
AcDbEntity
  8
SEIHIN
  6
CONTINUOUS
 62
     3
 48
5.0
100
AcDbLine
 10
401.8392938786855
 20
210.3807556356218
 30
0.0
 11
412.7947534876977
 21
182.9901066022087
 31
0.0
  0
LINE
  5
292
330
1A
100
AcDbEntity
  8
SEIHIN
  6
CONTINUOUS
 62
     3
 48
5.0
100
AcDbLine
 10
403.5109938786854
 20
354.9908895415546
 30
0.0
 11
417.9941938786853
 21
373.1301895415546
 31
0.0
  0
LINE
  5
293
330
1A
100
AcDbEntity
  8
SEIHIN
  6
CONTINUOUS
 62
     3
 48
5.0
100
AcDbLine
 10
392.3699938786855
 20
252.9051556356218
 30
0.0
 11
417.9943511228755
 21
188.8396625328224
 31
0.0
  0
ARC
  5
298
330
1A
100
AcDbEntity
  8
SEIHIN
  6
CONTINUOUS
 62
     3
 48
5.0
100
AcDbCircle
 10
282.4963144962519
 20
242.4191667415848
 30
0.0
 40
0.999992907204419
100
AcDbArc
 50
33.07201745557743
 51
203.5477960158731
  0
ARC
  5
299
330
1A
100
AcDbEntity
  8
SEIHIN
  6
CONTINUOUS
 62
     3
 48
5.0
100
AcDbCircle
 10
279.2767829751409
 20
222.2735624413087
 30
0.0
 40
4.999986748488283
100
AcDbArc
 50
23.54815589828065
 51
92.50909281426963
  0
ARC
  5
29A
330
1A
100
AcDbEntity
  8
SEIHIN
  6
CONTINUOUS
 62
     3
 48
5.0
100
AcDbCircle
 10
282.3897454210587
 20
244.4155276907781
 30
0.0
 40
5.000027945109438
100
AcDbArc
 50
33.06995087955439
 51
90.00059062878881
  0
LINE
  5
29B
330
1A
100
AcDbEntity
  8
SEIHIN
  6
CONTINUOUS
 62
     3
 48
5.0
100
AcDbLine
 10
296.3594938786854
 20
208.1062556356219
 30
0.0
 11
281.5795938786854
 21
242.0196556356219
 31
0.0
  0
LINE
  5
29C
330
1A
100
AcDbEntity
  8
SEIHIN
  6
CONTINUOUS
 62
     3
 48
5.0
100
AcDbLine
 10
291.7758938786855
 20
206.1086556356217
 30
0.0
 11
276.0387938786855
 21
242.2182556356219
 31
0.0
  0
ARC
  5
2A4
330
1A
100
AcDbEntity
  8
SEIHIN
  6
CONTINUOUS
 62
     3
 48
5.0
100
AcDbCircle
 10
265.5212907349268
 20
239.4191744825856
 30
0.0
 40
3.999981153037472
100
AcDbArc
 50
288.9399687355499
 51
89.99995496876117
  0
LINE
  5
2A5
330
1A
100
AcDbEntity
  8
SEIHIN
  6
CONTINUOUS
 62
     3
 48
5.0
100
AcDbLine
 10
279.3835938786855
 20
227.2724556356219
 30
0.0
 11
261.1174938786855
 21
227.6626556356219
 31
0.0
  0
ARC
  5
2A6
330
1A
100
AcDbEntity
  8
SEIHIN
  6
CONTINUOUS
 62
     3
 48
5.0
100
AcDbCircle
 10
261.17088946869
 20
230.1620721226687
 30
0.0
 40
2.499986772915792
100
AcDbArc
 50
121.174145362017
 51
268.7761636845151
  0
ARC
  5
2A7
330
1A
100
AcDbEntity
  8
SEIHIN
  6
CONTINUOUS
 62
     3
 48
5.0
100
AcDbCircle
 10
280.5819693144736
 20
198.0769475065174
 30
0.0
 40
40.00000889863676
100
AcDbArc
 50
110.2481527409064
 51
121.173361596861
  0
ARC
  5
2A8
330
1A
100
AcDbEntity
  8
SEIHIN
  6
CONTINUOUS
 62
     3
 48
5.0
100
AcDbCircle
 10
265.4208938858956
 20
250.1691626889478
 30
0.0
 40
6.750007053325964
100
AcDbArc
 50
89.88286206388549
 51
269.9999999387987
  0
LINE
  5
2A9
330
1A
100
AcDbEntity
  8
SEIHIN
  6
CONTINUOUS
 62
     3
 48
5.0
100
AcDbLine
 10
266.8799938786855
 20
249.4155556356218
 30
0.0
 11
282.3896938786855
 21
249.4155556356218
 31
0.0
  0
LINE
  5
2AA
330
1A
100
AcDbEntity
  8
SEIHIN
  6
CONTINUOUS
 62
     3
 48
5.0
100
AcDbLine
 10
274.2053938786856
 20
243.4191556356219
 30
0.0
 11
265.4208938786855
 21
243.4191556356219
 31
0.0
  0
ARC
  5
2AB
330
1A
100
AcDbEntity
  8
SEIHIN
  6
CONTINUOUS
 62
     3
 48
5.0
100
AcDbCircle
 10
266.8800063480073
 20
251.4155376417099
 30
0.0
 40
1.999982006126951
100
AcDbArc
 50
159.441585732119
 51
269.9996427770319
  0
ARC
  5
2AC
330
1A
100
AcDbEntity
  8
SEIHIN
  6
CONTINUOUS
 62
     3
 48
5.0
100
AcDbCircle
 10
266.0858650877767
 20
256.4177972666604
 30
0.0
 40
0.4999594274592354
100
AcDbArc
 50
339.4446700216872
 51
89.8820995956148
  0
LINE
  5
2AD
330
1A
100
AcDbEntity
  8
SEIHIN
  6
CONTINUOUS
 62
     3
 48
5.0
100
AcDbLine
 10
266.0868938786856
 20
256.9177556356219
 30
0.0
 11
265.4208938786855
 21
256.9192556356219
 31
0.0
  0
LINE
  5
2AE
330
1A
100
AcDbEntity
  8
SEIHIN
  6
CONTINUOUS
 62
     3
 48
5.0
100
AcDbLine
 10
265.0073938786855
 20
252.1178556356218
 30
0.0
 11
266.5539938786855
 21
256.2422556356219
 31
0.0
  0
LINE
  5
2AF
330
1A
100
AcDbEntity
  8
SEIHIN
  6
CONTINUOUS
 62
     3
 48
5.0
100
AcDbLine
 10
266.0868938786856
 20
256.9177556356219
 30
0.0
 11
265.4208938786855
 21
256.9191556356219
 31
0.0
  0
ARC
  5
2B0
330
1A
100
AcDbEntity
  8
SEIHIN
  6
CONTINUOUS
 62
     3
 48
5.0
100
AcDbCircle
 10
274.2053779187063
 20
241.4191660894266
 30
0.0
 40
1.999989546258967
100
AcDbArc
 50
23.54985365922521
 51
89.99954277788267
  0
LINE
  5
2B1
330
1A
100
AcDbEntity
  8
SEIHIN
  6
CONTINUOUS
 62
     3
 48
5.0
100
AcDbLine
 10
367.5494938786854
 20
216.9051556356218
 30
0.0
 11
305.7239938786855
 21
216.9052556356218
 31
0.0
  0
LINE
  5
2B2
330
1A
100
AcDbEntity
  8
SEIHIN
  6
CONTINUOUS
 62
     3
 48
5.0
100
AcDbLine
 10
365.5292938786855
 20
206.9051556356218
 30
0.0
 11
298.1929938786854
 21
206.9052556356218
 31
0.0
  0
LINE
  5
2B3
330
1A
100
AcDbEntity
  8
SEIHIN
  6
CONTINUOUS
 62
     3
 48
5.0
100
AcDbLine
 10
363.9479938786854
 20
201.9051556356219
 30
0.0
 11
298.1929938786854
 21
201.9052556356218
 31
0.0
  0
LINE
  5
2B4
330
1A
100
AcDbEntity
  8
SEIHIN
  6
CONTINUOUS
 62
     3
 48
5.0
100
AcDbLine
 10
347.3228171800531
 20
221.9051556317194
 30
0.0
 11
305.7239938786855
 21
221.9052556356218
 31
0.0
  0
ARC
  5
2B5
330
1A
100
AcDbEntity
  8
SEIHIN
  6
CONTINUOUS
 62
     3
 48
5.0
100
AcDbCircle
 10
305.7240687172046
 20
226.9052150597074
 30
0.0
 40
9.999959424365519
100
AcDbArc
 50
213.0682837978478
 51
269.9995712051313
  0
ARC
  5
2B6
330
1A
100
AcDbEntity
  8
SEIHIN
  6
CONTINUOUS
 62
     3
 48
5.0
100
AcDbCircle
 10
298.1930560050131
 20
208.9052149410994
 30
0.0
 40
6.999959305753179
100
AcDbArc
 50
203.5475994598132
 51
269.9994914861334
  0
ARC
  5
2B7
330
1A
100
AcDbEntity
  8
SEIHIN
  6
CONTINUOUS
 62
     3
 48
5.0
100
AcDbCircle
 10
298.1930403350038
 20
208.9052252051587
 30
0.0
 40
1.999969570076433
100
AcDbArc
 50
203.5463537261799
 51
269.9986691042643
  0
LINE
  5
2B8
330
1A
100
AcDbEntity
  8
SEIHIN
  6
CONTINUOUS
 62
     3
 48
5.0
100
AcDbLine
 10
301.5339938786855
 20
224.1770556356218
 30
0.0
 11
286.5797938786855
 21
247.1438556356218
 31
0.0
  0
LINE
  5
2B9
330
1A
100
AcDbEntity
  8
SEIHIN
  6
CONTINUOUS
 62
     3
 48
5.0
100
AcDbLine
 10
297.3438938786854
 20
221.4487556356218
 30
0.0
 11
283.3342938786855
 21
242.9648556356219
 31
0.0
  0
ARC
  5
2BA
330
1A
100
AcDbEntity
  8
SEIHIN
  6
CONTINUOUS
 62
     3
 48
5.0
100
AcDbCircle
 10
305.7240699394825
 20
226.9052143972817
 30
0.0
 40
4.999958762238455
100
AcDbArc
 50
213.0681536293832
 51
269.999128400281
  0
ARC
  5
2BB
330
1A
100
AcDbEntity
  8
SEIHIN
  6
CONTINUOUS
 62
     3
 48
5.0
100
AcDbCircle
 10
367.549513590465
 20
214.9051281997481
 30
0.0
 40
2.000027435970795
100
AcDbArc
 50
341.3925885231613
 51
90.00056469314408
  0
LINE
  5
2BC
330
1A
100
AcDbEntity
  8
SEIHIN
  6
CONTINUOUS
 62
     3
 48
5.0
100
AcDbLine
 10
396.3126938786856
 20
209.9050556356218
 30
0.0
 11
396.3126938786856
 21
217.9051556356219
 31
0.0
  0
LINE
  5
2BD
330
1A
100
AcDbEntity
  8
SEIHIN
  6
CONTINUOUS
 62
     3
 48
5.0
100
AcDbLine
 10
401.8392938786855
 20
210.3807556356218
 30
0.0
 11
382.2126101847585
 21
251.4854214853962
 31
0.0
  0
LINE
  5
2BE
330
1A
100
AcDbEntity
  8
SEIHIN
  6
CONTINUOUS
 62
     3
 48
5.0
100
AcDbLine
 10
373.5150938786854
 20
210.6859556356218
 30
0.0
 11
378.1663938786855
 21
224.5005556356218
 31
0.0
  0
LINE
  5
2BF
330
1A
100
AcDbEntity
  8
SEIHIN
  6
CONTINUOUS
 62
     3
 48
5.0
100
AcDbLine
 10
374.5861938786854
 20
209.3745556356219
 30
0.0
 11
382.9153938786855
 21
210.4105556356218
 31
0.0
  0
LINE
  5
2C0
330
1A
100
AcDbEntity
  8
SEIHIN
  6
CONTINUOUS
 62
     3
 48
5.0
100
AcDbLine
 10
378.2645938786854
 20
204.3164556356218
 30
0.0
 11
365.7156938786854
 21
202.0626556356218
 31
0.0
  0
ARC
  5
2C1
330
1A
100
AcDbEntity
  8
SEIHIN
  6
CONTINUOUS
 62
     3
 48
5.0
100
AcDbCircle
 10
363.9478730804384
 20
211.9051448741106
 30
0.0
 40
9.999989239218328
100
AcDbArc
 50
270.0006921237167
 51
280.1823919244085
  0
LINE
  5
2C2
330
1A
100
AcDbEntity
  8
SEIHIN
  6
CONTINUOUS
 62
     3
 48
5.0
100
AcDbLine
 10
367.4247938786856
 20
208.2669556356218
 30
0.0
 11
369.4449938786855
 21
214.2669556356219
 31
0.0
  0
ARC
  5
2C3
330
1A
100
AcDbEntity
  8
SEIHIN
  6
CONTINUOUS
 62
     3
 48
5.0
100
AcDbCircle
 10
365.5293320653526
 20
208.9051830714955
 30
0.0
 40
2.000027436238201
100
AcDbArc
 50
269.9989060475801
 51
341.390929877597
  0
ARC
  5
2C4
330
1A
100
AcDbEntity
  8
SEIHIN
  6
CONTINUOUS
 62
     3
 48
5.0
100
AcDbCircle
 10
374.4627801960414
 20
210.3668723883441
 30
0.0
 40
0.9999617366664807
100
AcDbArc
 50
161.391769219766
 51
277.0894298321688
  0
ARC
  5
2C5
330
1A
100
AcDbEntity
  8
SEIHIN
  6
CONTINUOUS
 62
     3
 48
5.0
100
AcDbCircle
 10
377.3807033923934
 20
209.2376623025208
 30
0.0
 40
4.999953744794928
100
AcDbArc
 50
280.1822442156421
 51
329.8605715074681
  0
ARC
  5
2C6
330
1A
100
AcDbEntity
  8
SEIHIN
  6
CONTINUOUS
 62
     3
 48
5.0
100
AcDbCircle
 10
382.9771243157787
 20
209.9143096023881
 30
0.0
 40
0.4999715323469062
100
AcDbArc
 50
329.8585478332318
 51
97.09228776445684
  0
LINE
  5
2C7
330
1A
100
AcDbEntity
  8
SEIHIN
  6
CONTINUOUS
 62
     3
 48
5.0
100
AcDbLine
 10
383.4094938786855
 20
209.6632556356218
 30
0.0
 11
381.7047938786854
 21
206.7271556356219
 31
0.0
  0
LINE
  5
2C8
330
1A
100
AcDbEntity
  8
SEIHIN
  6
CONTINUOUS
 62
     3
 48
5.0
100
AcDbLine
 10
393.8126938786855
 20
205.8189556356219
 30
0.0
 11
393.8126938786855
 21
203.9912556356219
 31
0.0
  0
LINE
  5
2C9
330
1A
100
AcDbEntity
  8
SEIHIN
  6
CONTINUOUS
 62
     3
 48
5.0
100
AcDbLine
 10
396.3126938786856
 20
199.9050556356218
 30
0.0
 11
402.1910938786856
 21
199.9050556356218
 31
0.0
  0
ARC
  5
2CA
330
1A
100
AcDbEntity
  8
SEIHIN
  6
CONTINUOUS
 62
     3
 48
5.0
100
AcDbCircle
 10
396.8126843386552
 20
203.9912819846079
 30
0.0
 40
2.999990460085321
100
AcDbArc
 50
180.0005032301645
 51
219.807541526329
  0
LINE
  5
2CB
330
1A
100
AcDbEntity
  8
SEIHIN
  6
CONTINUOUS
 62
     3
 48
5.0
100
AcDbLine
 10
394.5080938786854
 20
202.0706556356218
 30
0.0
 11
396.3126938786856
 21
199.9050556356218
 31
0.0
  0
ARC
  5
2CC
330
1A
100
AcDbEntity
  8
SEIHIN
  6
CONTINUOUS
 62
     3
 48
5.0
100
AcDbCircle
 10
402.1911278228342
 20
201.9050621718501
 30
0.0
 40
2.000006536516387
100
AcDbArc
 50
269.9990275749483
 51
291.7977771888954
  0
ARC
  5
2CD
330
1A
100
AcDbEntity
  8
SEIHIN
  6
CONTINUOUS
 62
     3
 48
5.0
100
AcDbCircle
 10
404.4387335332816
 20
198.4959814972745
 30
0.0
 40
2.000003786246552
100
AcDbArc
 50
21.80114350281483
 51
111.8000795242174
  0
LINE
  5
2CE
330
1A
100
AcDbEntity
  8
SEIHIN
  6
CONTINUOUS
 62
     3
 48
5.0
100
AcDbLine
 10
403.6960938786855
 20
200.3529556356219
 30
0.0
 11
402.9337938786854
 21
200.0480556356218
 31
0.0
  0
ARC
  5
2CF
330
1A
100
AcDbEntity
  8
SEIHIN
  6
CONTINUOUS
 62
     3
 48
5.0
100
AcDbCircle
 10
396.8126523289433
 20
205.8188408731595
 30
0.0
 40
2.999958452452851
100
AcDbArc
 50
140.1922370757997
 51
179.9978081680639
  0
LINE
  5
2D0
330
1A
100
AcDbEntity
  8
SEIHIN
  6
CONTINUOUS
 62
     3
 48
5.0
100
AcDbLine
 10
396.3126938786856
 20
209.9050556356218
 30
0.0
 11
394.5079938786855
 21
207.7394556356218
 31
0.0
  0
ARC
  5
2D1
330
1A
100
AcDbEntity
  8
SEIHIN
  6
CONTINUOUS
 62
     3
 48
5.0
100
AcDbCircle
 10
390.0897238665978
 20
212.9051842907244
 30
0.0
 40
35.00001431801159
100
AcDbArc
 50
106.8674083596807
 51
160.5287795294871
  0
ARC
  5
2D2
330
1A
100
AcDbEntity
  8
SEIHIN
  6
CONTINUOUS
 62
     3
 48
5.0
100
AcDbCircle
 10
383.1097638428602
 20
223.5134320035051
 30
0.0
 40
9.99996911748151
100
AcDbArc
 50
94.99951243721998
 51
161.3912921132882
  0
ARC
  5
2D3
330
1A
100
AcDbEntity
  8
SEIHIN
  6
CONTINUOUS
 62
     3
 48
5.0
100
AcDbCircle
 10
390.0896576367675
 20
212.9051295965763
 30
0.0
 40
40.000026039062
100
AcDbArc
 50
89.9999480873102
 51
161.8737720127039
  0
LINE
  5
2D4
330
1A
100
AcDbEntity
  8
SEIHIN
  6
CONTINUOUS
 62
     3
 48
5.0
100
AcDbLine
 10
370.5797938786854
 20
221.9051556356219
 30
0.0
 11
358.9769938786854
 21
221.9051556356219
 31
0.0
  0
LINE
  5
2D6
330
1A
100
AcDbEntity
  8
SEIHIN
  6
CONTINUOUS
 62
     3
 48
5.0
100
AcDbLine
 10
352.1806938786856
 20
225.6689556356219
 30
0.0
 11
352.0597938786855
 21
225.3097556356218
 31
0.0
  0
ARC
  5
2D7
330
1A
100
AcDbEntity
  8
SEIHIN
  6
CONTINUOUS
 62
     3
 48
5.0
100
AcDbCircle
 10
358.97699597787
 20
223.9051526668674
 30
0.0
 40
1.999997031246675
100
AcDbArc
 50
160.5276462272093
 51
269.9999398626989
  0
ARC
  5
2D8
330
1A
100
AcDbEntity
  8
SEIHIN
  6
CONTINUOUS
 62
     3
 48
5.0
100
AcDbCircle
 10
370.5797661104998
 20
223.9051356854229
 30
0.0
 40
1.999980049993775
100
AcDbArc
 50
270.000795507853
 51
341.3919051905501
  0
LINE
  5
2D9
330
1A
100
AcDbEntity
  8
SEIHIN
  6
CONTINUOUS
 62
     3
 48
5.0
100
AcDbLine
 10
373.6325938786854
 20
226.7044556356219
 30
0.0
 11
372.4751938786854
 21
223.2669556356217
 31
0.0
  0
LINE
  5
2DA
330
1A
100
AcDbEntity
  8
CENTER_L
  6
CENTER
 62
     1
 48
5.0
100
AcDbLine
 10
384.8086938786855
 20
233.6569556356219
 30
0.0
 11
406.8865938786854
 21
242.4874556356218
 31
0.0
  0
ARC
  5
2DB
330
1A
100
AcDbEntity
  8
SEIHIN
  6
CONTINUOUS
 62
     3
 48
5.0
100
AcDbCircle
 10
382.8492754036493
 20
238.5479232961299
 30
0.0
 40
4.999988942439334
100
AcDbArc
 50
274.9993181631075
 51
25.52389128485846
  0
ARC
  5
2DC
330
1A
100
AcDbEntity
  8
SEIHIN
  6
CONTINUOUS
 62
     3
 48
5.0
100
AcDbCircle
 10
391.579660395696
 20
224.9051767524373
 30
0.0
 40
2.999978883371337
100
AcDbArc
 50
25.52231920805273
 51
89.99936051750399
  0
ARC
  5
2DD
330
1A
100
AcDbEntity
  8
SEIHIN
  6
CONTINUOUS
 62
     3
 48
5.0
100
AcDbCircle
 10
388.8126938786856
 20
224.9051556356219
 30
0.0
 40
3.0
100
AcDbArc
 50
0.0
 51
90.0
  0
ARC
  5
2DE
330
1A
100
AcDbEntity
  8
SEIHIN
  6
CONTINUOUS
 62
     3
 48
5.0
100
AcDbCircle
 10
394.8126810727976
 20
222.3919788138625
 30
0.0
 40
2.999987194201576
100
AcDbArc
 50
180.0004426736792
 51
237.8414024554118
  0
ARC
  5
2DF
330
1A
100
AcDbEntity
  8
SEIHIN
  6
CONTINUOUS
 62
     3
 48
5.0
100
AcDbCircle
 10
382.9050195498385
 20
222.9051740796899
 30
0.0
 40
4.999981555997834
100
AcDbArc
 50
90.00029417083149
 51
161.3928555390699
  0
LINE
  5
2E0
330
1A
100
AcDbEntity
  8
SEIHIN
  6
CONTINUOUS
 62
     3
 48
5.0
100
AcDbLine
 10
391.8126938786855
 20
224.9051556356219
 30
0.0
 11
391.8126938786855
 21
222.3919556356217
 31
0.0
  0
LINE
  5
2E1
330
1A
100
AcDbEntity
  8
SEIHIN
  6
CONTINUOUS
 62
     3
 48
5.0
100
AcDbLine
 10
391.5796938786856
 20
227.9051556356218
 30
0.0
 11
382.9049938786854
 21
227.9051556356218
 31
0.0
  0
LINE
  5
2E2
330
1A
100
AcDbEntity
  8
SEIHIN
  6
CONTINUOUS
 62
     3
 48
5.0
100
AcDbLine
 10
383.2849938786854
 20
233.5669556356218
 30
0.0
 11
382.2382938786854
 21
233.4753556356218
 31
0.0
  0
LINE
  5
2E3
330
1A
100
AcDbEntity
  8
SEIHIN
  6
CONTINUOUS
 62
     3
 48
5.0
100
AcDbLine
 10
403.5110938786855
 20
225.0504556356219
 30
0.0
 11
396.2260938786854
 21
222.1366556356219
 31
0.0
  0
LINE
  5
2E4
330
1A
100
AcDbEntity
  8
SEIHIN
  6
CONTINUOUS
 62
     3
 48
5.0
100
AcDbLine
 10
396.3127938786854
 20
217.9051556356219
 30
0.0
 11
393.2158938786855
 21
219.8522556356218
 31
0.0
  0
LINE
  5
2E6
330
1A
100
AcDbEntity
  8
SEIHIN
  6
CONTINUOUS
 62
     3
 48
5.0
100
AcDbLine
 10
390.0896938786855
 20
252.9051556356218
 30
0.0
 11
392.3699938786855
 21
252.9051556356218
 31
0.0
  0
ARC
  5
2E7
330
1A
100
AcDbEntity
  8
SEIHIN
  6
CONTINUOUS
 62
     3
 48
5.0
100
AcDbCircle
 10
381.384958410934
 20
241.6145712820356
 30
0.0
 40
4.999983600495596
100
AcDbArc
 50
25.52331116660514
 51
106.8671675068982
  0
ARC
  5
2E8
330
1A
100
AcDbEntity
  8
SEIHIN
  6
CONTINUOUS
 62
     3
 48
5.0
100
AcDbCircle
 10
382.6637920325188
 20
251.7008519835567
 30
0.0
 40
0.5000184496553512
100
AcDbArc
 50
100.8354693853444
 51
205.5295658693894
  0
LINE
  5
2EA
330
1A
100
AcDbEntity
  8
SEIHIN
  6
CONTINUOUS
 62
     3
 48
5.0
100
AcDbLine
 10
376.9356938786855
 20
409.9908895415546
 30
0.0
 11
258.6708938786855
 21
409.9908895415546
 31
0.0
  0
LINE
  5
2EB
330
1A
100
AcDbEntity
  8
SEIHIN
  6
CONTINUOUS
 62
     3
 48
5.0
100
AcDbLine
 10
376.9356938786855
 20
379.9908895415546
 30
0.0
 11
258.6708938786855
 21
379.9908895415546
 31
0.0
  0
LINE
  5
2EC
330
1A
100
AcDbEntity
  8
SEIHIN
  6
CONTINUOUS
 62
     3
 48
5.0
100
AcDbLine
 10
280.5625938786854
 20
394.9908895415546
 30
0.0
 11
280.5625938786854
 21
379.9907895415544
 31
0.0
  0
LINE
  5
2ED
330
1A
100
AcDbEntity
  8
SEIHIN
  6
CONTINUOUS
 62
     3
 48
5.0
100
AcDbLine
 10
266.8067938786854
 20
394.9908895415546
 30
0.0
 11
266.8067938786854
 21
379.9907895415544
 31
0.0
  0
LINE
  5
2EE
330
1A
100
AcDbEntity
  8
SEIHIN
  6
CONTINUOUS
 62
     3
 48
5.0
100
AcDbLine
 10
258.6708938786855
 20
394.9908895415546
 30
0.0
 11
258.6708938786855
 21
379.9907895415544
 31
0.0
  0
LINE
  5
2F1
330
1A
100
AcDbEntity
  8
SEIHIN
  6
CONTINUOUS
 62
     3
 48
5.0
100
AcDbLine
 10
258.6708938786855
 20
394.9908895415546
 30
0.0
 11
258.6708938786855
 21
409.9908895415546
 31
0.0
  0
LINE
  5
2F2
330
1A
100
AcDbEntity
  8
SEIHIN
  6
CONTINUOUS
 62
     3
 48
5.0
100
AcDbLine
 10
266.8067938786854
 20
394.9908895415546
 30
0.0
 11
266.8067938786854
 21
409.9908895415546
 31
0.0
  0
LINE
  5
2F3
330
1A
100
AcDbEntity
  8
SEIHIN
  6
CONTINUOUS
 62
     3
 48
5.0
100
AcDbLine
 10
280.5625938786854
 20
394.9907895415544
 30
0.0
 11
280.5625938786854
 21
409.9908895415546
 31
0.0
  0
LINE
  5
2F4
330
1A
100
AcDbEntity
  8
SEIHIN
  6
CONTINUOUS
 62
     3
 48
5.0
100
AcDbLine
 10
398.8928938786855
 20
394.9908895415546
 30
0.0
 11
398.8928938786855
 21
371.9908895415546
 31
0.0
  0
LINE
  5
2F5
330
1A
100
AcDbEntity
  8
SEIHIN
  6
CONTINUOUS
 62
     3
 48
5.0
100
AcDbLine
 10
303.0823938786854
 20
394.9908895415546
 30
0.0
 11
303.0823938786854
 21
379.9907895415544
 31
0.0
  0
LINE
  5
2F6
330
1A
100
AcDbEntity
  8
SEIHIN
  6
CONTINUOUS
 62
     3
 48
5.0
100
AcDbLine
 10
399.8211938786855
 20
394.9908895415546
 30
0.0
 11
399.8211938786855
 21
371.9908895415546
 31
0.0
  0
LINE
  5
2F7
330
1A
100
AcDbEntity
  8
SEIHIN
  6
CONTINUOUS
 62
     3
 48
5.0
100
AcDbLine
 10
401.6780938786855
 20
391.4908895415546
 30
0.0
 11
401.6780938786855
 21
361.0362895415546
 31
0.0
  0
LINE
  5
2F8
330
1A
100
AcDbEntity
  8
SEIHIN
  6
CONTINUOUS
 62
     3
 48
5.0
100
AcDbLine
 10
392.5424938786854
 20
394.9908895415546
 30
0.0
 11
392.5424938786854
 21
359.9908895415546
 31
0.0
  0
LINE
  5
2F9
330
1A
100
AcDbEntity
  8
SEIHIN
  6
CONTINUOUS
 62
     3
 48
5.0
100
AcDbLine
 10
406.4214938786855
 20
392.4908895415546
 30
0.0
 11
406.4214938786855
 21
366.4484895415546
 31
0.0
  0
LINE
  5
2FA
330
1A
100
AcDbEntity
  8
SEIHIN
  6
CONTINUOUS
 62
     3
 48
5.0
100
AcDbLine
 10
350.9134938786855
 20
394.9908895415546
 30
0.0
 11
350.9134938786855
 21
379.9908895415546
 31
0.0
  0
LINE
  5
2FB
330
1A
100
AcDbEntity
  8
SEIHIN
  6
CONTINUOUS
 62
     3
 48
5.0
100
AcDbLine
 10
394.2506938786855
 20
394.9908895415546
 30
0.0
 11
394.2506938786855
 21
371.9908895415546
 31
0.0
  0
LINE
  5
305
330
1A
100
AcDbEntity
  8
CENTER_L
  6
CENTER
 62
     1
 48
5.0
100
AcDbLine
 10
397.9641938786855
 20
366.6876895415546
 30
0.0
 11
397.9641938786855
 21
359.8631895415546
 31
0.0
  0
LINE
  5
306
330
1A
100
AcDbEntity
  8
SEIHIN
  6
CONTINUOUS
 62
     3
 48
5.0
100
AcDbLine
 10
381.9356938786855
 20
374.9908895415546
 30
0.0
 11
381.9356938786855
 21
359.9908895415546
 31
0.0
  0
ARC
  5
307
330
1A
100
AcDbEntity
  8
SEIHIN
  6
CONTINUOUS
 62
     3
 48
5.0
100
AcDbCircle
 10
397.5424938786853
 20
359.9908895415546
 30
0.0
 40
5.0
100
AcDbArc
 50
180.0
 51
270.0
  0
LINE
  5
308
330
1A
100
AcDbEntity
  8
SEIHIN
  6
CONTINUOUS
 62
     3
 48
5.0
100
AcDbLine
 10
403.3126938786855
 20
354.9908895415546
 30
0.0
 11
386.9356938786855
 21
354.9908895415546
 31
0.0
  0
ARC
  5
309
330
1A
100
AcDbEntity
  8
SEIHIN
  6
CONTINUOUS
 62
     3
 48
5.0
100
AcDbCircle
 10
386.9356938786855
 20
359.9908895415546
 30
0.0
 40
5.0
100
AcDbArc
 50
180.0
 51
270.0
  0
LINE
  5
30A
330
1A
100
AcDbEntity
  8
CENTER_L
  6
CENTER
 62
     1
 48
5.0
100
AcDbLine
 10
395.1144938786853
 20
362.9908895415546
 30
0.0
 11
401.0967938786853
 21
362.9908895415546
 31
0.0
  0
ARC
  5
30B
330
1A
100
AcDbEntity
  8
SEIHIN
  6
CONTINUOUS
 62
     3
 48
5.0
100
AcDbCircle
 10
402.6781234403116
 20
361.036279187447
 30
0.0
 40
1.00002956167968
100
AcDbArc
 50
179.9994067708714
 51
321.393283935141
  0
ARC
  5
30C
330
1A
100
AcDbEntity
  8
SEIHIN
  6
CONTINUOUS
 62
     3
 48
5.0
100
AcDbCircle
 10
376.9356938786855
 20
374.9908895415546
 30
0.0
 40
5.0
100
AcDbArc
 50
0.0
 51
90.0
  0
ARC
  5
30D
330
1A
100
AcDbEntity
  8
SEIHIN
  6
CONTINUOUS
 62
     3
 48
5.0
100
AcDbCircle
 10
398.8211938786854
 20
371.9908895415547
 30
0.0
 40
1.000000000000085
100
AcDbArc
 50
269.9999999999951
 51
359.9999999999951
  0
ARC
  5
30E
330
1A
100
AcDbEntity
  8
SEIHIN
  6
CONTINUOUS
 62
     3
 48
5.0
100
AcDbCircle
 10
395.2506938786855
 20
371.9908895415546
 30
0.0
 40
1.0
100
AcDbArc
 50
180.0
 51
270.0
  0
ARC
  5
30F
330
1A
100
AcDbEntity
  8
SEIHIN
  6
CONTINUOUS
 62
     3
 48
5.0
100
AcDbCircle
 10
397.8928938786855
 20
371.9908895415546
 30
0.0
 40
1.0
100
AcDbArc
 50
270.0
 51
0.0
  0
LINE
  5
310
330
1A
100
AcDbEntity
  8
SEIHIN
  6
CONTINUOUS
 62
     3
 48
5.0
100
AcDbLine
 10
398.8211938786853
 20
370.9908895415546
 30
0.0
 11
395.2506938786855
 21
370.9908895415546
 31
0.0
  0
LINE
  5
311
330
1A
100
AcDbEntity
  8
SEIHIN
  6
CONTINUOUS
 62
     3
 48
5.0
100
AcDbLine
 10
303.0823938786854
 20
394.9907895415544
 30
0.0
 11
303.0823938786854
 21
409.9908895415546
 31
0.0
  0
ARC
  5
312
330
1A
100
AcDbEntity
  8
SEIHIN
  6
CONTINUOUS
 62
     3
 48
5.0
100
AcDbCircle
 10
397.5424938786853
 20
429.9908895415546
 30
0.0
 40
5.0
100
AcDbArc
 50
90.0
 51
180.0
  0
ARC
  5
313
330
1A
100
AcDbEntity
  8
SEIHIN
  6
CONTINUOUS
 62
     3
 48
5.0
100
AcDbCircle
 10
386.9356938786855
 20
429.9908895415546
 30
0.0
 40
5.0
100
AcDbArc
 50
90.0
 51
180.0
  0
LINE
  5
314
330
1A
100
AcDbEntity
  8
SEIHIN
  6
CONTINUOUS
 62
     3
 48
5.0
100
AcDbLine
 10
350.9134938786855
 20
394.9907895415544
 30
0.0
 11
350.9134938786855
 21
409.9908895415546
 31
0.0
  0
LINE
  5
315
330
1A
100
AcDbEntity
  8
SEIHIN
  6
CONTINUOUS
 62
     3
 48
5.0
100
AcDbLine
 10
406.4214938786855
 20
397.4908895415546
 30
0.0
 11
406.4214938786855
 21
423.5331895415544
 31
0.0
  0
LINE
  5
316
330
1A
100
AcDbEntity
  8
SEIHIN
  6
CONTINUOUS
 62
     3
 48
5.0
100
AcDbLine
 10
392.5424938786854
 20
394.9908895415546
 30
0.0
 11
392.5424938786854
 21
429.9908895415546
 31
0.0
  0
LINE
  5
317
330
1A
100
AcDbEntity
  8
SEIHIN
  6
CONTINUOUS
 62
     3
 48
5.0
100
AcDbLine
 10
401.6780938786855
 20
398.4908895415546
 30
0.0
 11
401.6780938786855
 21
428.9453895415546
 31
0.0
  0
LINE
  5
318
330
1A
100
AcDbEntity
  8
SEIHIN
  6
CONTINUOUS
 62
     3
 48
5.0
100
AcDbLine
 10
399.8211938786855
 20
394.9907895415544
 30
0.0
 11
399.8211938786855
 21
417.9908895415546
 31
0.0
  0
LINE
  5
319
330
1A
100
AcDbEntity
  8
SEIHIN
  6
CONTINUOUS
 62
     3
 48
5.0
100
AcDbLine
 10
398.8928938786855
 20
394.9907895415544
 30
0.0
 11
398.8928938786855
 21
417.9908895415546
 31
0.0
  0
LINE
  5
31A
330
1A
100
AcDbEntity
  8
SEIHIN
  6
CONTINUOUS
 62
     3
 48
5.0
100
AcDbLine
 10
394.2506938786855
 20
394.9907895415544
 30
0.0
 11
394.2506938786855
 21
417.9908895415546
 31
0.0
  0
ARC
  5
31B
330
1A
100
AcDbEntity
  8
SEIHIN
  6
CONTINUOUS
 62
     3
 48
5.0
100
AcDbCircle
 10
402.6780938786854
 20
398.4908895415545
 30
0.0
 40
0.9999999999999431
100
AcDbArc
 50
179.9999999999967
 51
269.9999999999967
  0
ARC
  5
31C
330
1A
100
AcDbEntity
  8
SEIHIN
  6
CONTINUOUS
 62
     3
 48
5.0
100
AcDbCircle
 10
402.6780938786854
 20
391.4908895415547
 30
0.0
 40
0.9999999999999431
100
AcDbArc
 50
90.00000000000325
 51
180.0000000000032
  0
LINE
  5
31D
330
1A
100
AcDbEntity
  8
SEIHIN
  6
CONTINUOUS
 62
     3
 48
5.0
100
AcDbLine
 10
381.9356938786855
 20
414.9908895415546
 30
0.0
 11
381.9356938786855
 21
429.9908895415546
 31
0.0
  0
ARC
  5
31E
330
1A
100
AcDbEntity
  8
SEIHIN
  6
CONTINUOUS
 62
     3
 48
5.0
100
AcDbCircle
 10
376.9356938786855
 20
414.9908895415546
 30
0.0
 40
5.0
100
AcDbArc
 50
270.0
 51
0.0
  0
ARC
  5
31F
330
1A
100
AcDbEntity
  8
SEIHIN
  6
CONTINUOUS
 62
     3
 48
5.0
100
AcDbCircle
 10
398.8211938786854
 20
417.9908895415545
 30
0.0
 40
1.000000000000085
100
AcDbArc
 50
0.0000000000048853
 51
90.00000000000488
  0
ARC
  5
320
330
1A
100
AcDbEntity
  8
SEIHIN
  6
CONTINUOUS
 62
     3
 48
5.0
100
AcDbCircle
 10
395.2506938786855
 20
417.9908895415546
 30
0.0
 40
1.0
100
AcDbArc
 50
90.0
 51
180.0
  0
ARC
  5
321
330
1A
100
AcDbEntity
  8
SEIHIN
  6
CONTINUOUS
 62
     3
 48
5.0
100
AcDbCircle
 10
397.8928938786855
 20
417.9908895415546
 30
0.0
 40
1.0
100
AcDbArc
 50
0.0
 51
90.0
  0
LINE
  5
322
330
1A
100
AcDbEntity
  8
SEIHIN
  6
CONTINUOUS
 62
     3
 48
5.0
100
AcDbLine
 10
398.8211938786853
 20
418.9908895415546
 30
0.0
 11
395.2506938786855
 21
418.9908895415546
 31
0.0
  0
LINE
  5
323
330
1A
100
AcDbEntity
  8
CENTER_L
  6
CENTER
 62
     1
 48
5.0
100
AcDbLine
 10
395.1144938786853
 20
426.9908895415546
 30
0.0
 11
401.0967938786853
 21
426.9908895415546
 31
0.0
  0
LINE
  5
324
330
1A
100
AcDbEntity
  8
CENTER_L
  6
CENTER
 62
     1
 48
5.0
100
AcDbLine
 10
397.9641938786855
 20
423.2939895415546
 30
0.0
 11
397.9641938786855
 21
430.1184895415546
 31
0.0
  0
ARC
  5
325
330
1A
100
AcDbEntity
  8
SEIHIN
  6
CONTINUOUS
 62
     3
 48
5.0
100
AcDbCircle
 10
402.6781234403115
 20
428.9453998956621
 30
0.0
 40
1.000029561679641
100
AcDbArc
 50
38.60671606485234
 51
180.0005932291252
  0
LINE
  5
326
330
1A
100
AcDbEntity
  8
SEIHIN
  6
CONTINUOUS
 62
     3
 48
5.0
100
AcDbLine
 10
403.3126938786855
 20
434.9908895415546
 30
0.0
 11
386.9356938786855
 21
434.9908895415546
 31
0.0
  0
LINE
  5
327
330
1A
100
AcDbEntity
  8
CENTER_L
  6
CENTER
 62
     1
 48
5.0
100
AcDbLine
 10
567.8220938786855
 20
239.2111556356218
 30
0.0
 11
535.8594938786855
 21
319.1237556356217
 31
0.0
  0
ARC
  5
32C
330
1A
100
AcDbEntity
  8
SEIHIN
  6
CONTINUOUS
 62
     3
 48
5.0
100
AcDbCircle
 10
564.1802542238971
 20
261.7804297707353
 30
0.0
 40
2.500025624868579
100
AcDbArc
 50
201.7986431661039
 51
291.7977920891237
  0
LINE
  5
32D
330
1A
100
AcDbEntity
  8
SEIHIN
  6
CONTINUOUS
 62
     3
 48
5.0
100
AcDbLine
 10
557.2163938786855
 20
258.9951556356218
 30
0.0
 11
546.8181938786853
 21
284.9928556356218
 31
0.0
  0
LINE
  5
32E
330
1A
100
AcDbEntity
  8
SEIHIN
  6
CONTINUOUS
 62
     3
 48
5.0
100
AcDbLine
 10
539.3774938786854
 20
250.7245556356218
 30
0.0
 11
516.8871938786856
 21
271.8858556356219
 31
0.0
  0
LINE
  5
32F
330
1A
100
AcDbEntity
  8
SEIHIN
  6
CONTINUOUS
 62
     3
 48
5.0
100
AcDbLine
 10
578.9132938786853
 20
264.9806556356217
 30
0.0
 11
565.1085938786855
 21
259.4591556356217
 31
0.0
  0
LINE
  5
330
330
1A
100
AcDbEntity
  8
SEIHIN
  6
CONTINUOUS
 62
     3
 48
5.0
100
AcDbLine
 10
544.4134938786853
 20
239.1207556356218
 30
0.0
 11
512.9283938786856
 21
268.7454556356219
 31
0.0
  0
LINE
  5
331
330
1A
100
AcDbEntity
  8
SEIHIN
  6
CONTINUOUS
 62
     3
 48
5.0
100
AcDbLine
 10
584.8174938786853
 20
254.9469556356219
 30
0.0
 11
587.2073938786854
 21
298.4547556356218
 31
0.0
  0
TEXT
  5
339
330
1A
100
AcDbEntity
  8
SUNPOU
  6
CONTINUOUS
 62
     4
 48
5.0
100
AcDbText
 10
439.9190598470958
 20
109.1923522837458
 30
0.0
 40
6.0
  1
4
100
AcDbText
  0
TEXT
  5
340
330
1A
100
AcDbEntity
  8
SUNPOU
  6
CONTINUOUS
 62
     4
 48
5.0
100
AcDbText
 10
428.0718002641967
 20
123.4084019353056
 30
0.0
 40
6.0
  1
10
100
AcDbText
  0
LINE
  5
34B
330
1A
100
AcDbEntity
  8
SEIHIN
  6
CONTINUOUS
 62
     3
 48
5.0
100
AcDbLine
 10
414.8372938786855
 20
183.2686556356218
 30
0.0
 11
413.4445478939156
 21
182.7116372443554
 31
0.0
  0
ARC
  5
34C
330
1A
100
AcDbEntity
  8
SEIHIN
  6
CONTINUOUS
 62
     3
 48
5.0
100
AcDbCircle
 10
413.2589180104371
 20
183.1758452918511
 30
0.0
 40
0.4999475622502746
100
AcDbArc
 50
201.7907691866502
 51
291.8014100989027
  0
LINE
  5
34D
330
1A
100
AcDbEntity
  8
SEIHIN
  6
CONTINUOUS
 62
     3
 48
5.0
100
AcDbLine
 10
417.9943511228754
 20
188.8396625328225
 30
0.0
 11
414.4659938786856
 21
184.1971556356218
 31
0.0
  0
LINE
  5
34E
330
1A
100
AcDbEntity
  8
SEIHIN
  6
CONTINUOUS
 62
     3
 48
5.0
100
AcDbLine
 10
414.8372938786855
 20
183.2686556356218
 30
0.0
 11
414.4659938786856
 21
184.1971556356218
 31
0.0
  0
LINE
  5
35B
330
1A
100
AcDbEntity
  8
CENTER_L
  6
CENTER
 62
     1
 48
5.0
100
AcDbLine
 10
556.6306226864123
 20
248.5289753993788
 30
0.0
 11
569.4985024110423
 21
253.6759508416668
 31
0.0
  0
ARC
  5
35D
330
1A
100
AcDbEntity
  8
SEIHIN
  6
CONTINUOUS
 62
     3
 48
5.0
100
AcDbCircle
 10
563.0657938786855
 20
251.1029556356218
 30
0.0
 40
2.09989999999999
100
AcDbArc
 50
180.0
 51
0.0
  0
ARC
  5
35E
330
1A
100
AcDbEntity
  8
SEIHIN
  6
CONTINUOUS
 62
     3
 48
5.0
100
AcDbCircle
 10
563.0657938786855
 20
251.1029556356218
 30
0.0
 40
2.09989999999999
100
AcDbArc
 50
0.0
 51
180.0
  0
LINE
  5
35F
330
1A
100
AcDbEntity
  8
SEIHIN
  6
CONTINUOUS
 62
     3
 48
5.0
100
AcDbLine
 10
584.9087938786856
 20
256.6084556356219
 30
0.0
 11
543.4508938786855
 21
240.0265556356218
 31
0.0
  0
LINE
  5
360
330
1A
100
AcDbEntity
  8
SEIHIN
  6
CONTINUOUS
 62
     3
 48
5.0
100
AcDbLine
 10
583.3529938786855
 20
251.6781556356217
 30
0.0
 11
548.7870938786854
 21
237.8527556356219
 31
0.0
  0
LINE
  5
361
330
1A
100
AcDbEntity
  8
SEIHIN
  6
CONTINUOUS
 62
     3
 48
5.0
100
AcDbLine
 10
566.0366938786856
 20
243.6750556356219
 30
0.0
 11
549.4510938786854
 21
238.0289556356219
 31
0.0
  0
ARC
  5
362
330
1A
100
AcDbEntity
  8
SEIHIN
  6
CONTINUOUS
 62
     3
 48
5.0
100
AcDbCircle
 10
547.8398632937433
 20
242.7622622643424
 30
0.0
 40
5.000057789212047
100
AcDbArc
 50
226.7434727928472
 51
288.7998000926792
  0
LINE
  5
366
330
1A
100
AcDbEntity
  8
SEIHIN
  6
CONTINUOUS
 62
     3
 48
5.0
100
AcDbLine
 10
542.0189938786855
 20
250.2240556356218
 30
0.0
 11
555.8236938786856
 21
255.7455556356217
 31
0.0
  0
ARC
  5
367
330
1A
100
AcDbEntity
  8
SEIHIN
  6
CONTINUOUS
 62
     3
 48
5.0
100
AcDbCircle
 10
541.0906369839467
 20
252.5452474688839
 30
0.0
 40
2.499955609768269
100
AcDbArc
 50
226.7432016124385
 51
291.7988593820434
  0
ARC
  5
368
330
1A
100
AcDbEntity
  8
SEIHIN
  6
CONTINUOUS
 62
     3
 48
5.0
100
AcDbCircle
 10
554.8952680141833
 20
258.0666952913065
 30
0.0
 40
2.500025624868601
100
AcDbArc
 50
291.7999200107551
 51
21.80077108773573
  0
LINE
  5
36D
330
1A
100
AcDbEntity
  8
SEIHIN
  6
CONTINUOUS
 62
     3
 48
5.0
100
AcDbLine
 10
566.0366938786856
 20
243.6750556356219
 30
0.0
 11
581.8427938786856
 21
250.6464556356218
 31
0.0
  0
ARC
  5
36E
330
1A
100
AcDbEntity
  8
SEIHIN
  6
CONTINUOUS
 62
     3
 48
5.0
100
AcDbCircle
 10
579.825115006587
 20
255.2212861794466
 30
0.0
 40
5.000010253552092
100
AcDbArc
 50
293.7993519066864
 51
356.8548306559889
  0
LINE
  5
371
330
1A
100
AcDbEntity
  8
SEIHIN
  6
CONTINUOUS
 62
     3
 48
5.0
100
AcDbLine
 10
552.4901938786856
 20
270.8117556356218
 30
0.0
 11
528.3081938786856
 21
261.1396556356217
 31
0.0
  0
LINE
  5
372
330
1A
100
AcDbEntity
  8
SEIHIN
  6
CONTINUOUS
 62
     3
 48
5.0
100
AcDbLine
 10
526.3916938786853
 20
284.9004556356217
 30
0.0
 11
566.3166938786855
 21
300.8693556356218
 31
0.0
  0
LINE
  5
373
330
1A
100
AcDbEntity
  8
SEIHIN
  6
CONTINUOUS
 62
     3
 48
5.0
100
AcDbLine
 10
520.8211938786853
 20
298.8278556356219
 30
0.0
 11
560.7461938786855
 21
314.7966556356219
 31
0.0
  0
LINE
  5
374
330
1A
100
AcDbEntity
  8
SEIHIN
  6
CONTINUOUS
 62
     3
 48
5.0
100
AcDbLine
 10
517.6719938786854
 20
276.0277556356217
 30
0.0
 11
543.5685938786855
 21
286.3856556356219
 31
0.0
  0
LINE
  5
375
330
1A
100
AcDbEntity
  8
SEIHIN
  6
CONTINUOUS
 62
     3
 48
5.0
100
AcDbLine
 10
538.9268938786853
 20
311.4546556356219
 30
0.0
 11
506.8731649262473
 21
296.6437884641269
 31
0.0
  0
LINE
  5
377
330
1A
100
AcDbEntity
  8
SEIHIN
  6
CONTINUOUS
 62
     3
 48
5.0
100
AcDbLine
 10
417.9941938786853
 20
394.9908895415546
 30
0.0
 11
417.9941938786853
 21
373.1301895415546
 31
0.0
  0
LINE
  5
378
330
1A
100
AcDbEntity
  8
SEIHIN
  6
CONTINUOUS
 62
     3
 48
5.0
100
AcDbLine
 10
413.9331938786855
 20
391.4908895415546
 30
0.0
 11
413.9331938786855
 21
374.2314895415546
 31
0.0
  0
LINE
  5
379
330
1A
100
AcDbEntity
  8
SEIHIN
  6
CONTINUOUS
 62
     3
 48
5.0
100
AcDbLine
 10
412.0758938786854
 20
391.4908895415546
 30
0.0
 11
412.0758938786854
 21
374.2312895415544
 31
0.0
  0
ARC
  5
37A
330
1A
100
AcDbEntity
  8
SEIHIN
  6
CONTINUOUS
 62
     3
 48
5.0
100
AcDbCircle
 10
410.0758971486909
 20
374.2312988787944
 30
0.0
 40
1.999996730016361
100
AcDbArc
 50
321.3980870867074
 51
359.9997325073404
  0
ARC
  5
37B
330
1A
100
AcDbEntity
  8
SEIHIN
  6
CONTINUOUS
 62
     3
 48
5.0
100
AcDbCircle
 10
411.9331971486907
 20
374.2314988787945
 30
0.0
 40
1.999996730016529
100
AcDbArc
 50
321.3980870867092
 51
359.9997325073421
  0
LINE
  5
389
330
1A
100
AcDbEntity
  8
CENTER_L
  6
CENTER
 62
     1
 48
5.0
100
AcDbLine
 10
512.6868938786856
 20
290.8910556356218
 30
0.0
 11
517.1197938786856
 21
279.8082556356217
 31
0.0
  0
LINE
  5
38A
330
1A
100
AcDbEntity
  8
SEIHIN
  6
CONTINUOUS
 62
     3
 48
5.0
100
AcDbLine
 10
504.3279901632058
 20
290.2480649250123
 30
0.0
 11
512.9283938786856
 21
268.7454556356219
 31
0.0
  0
ARC
  5
38B
330
1A
100
AcDbEntity
  8
SEIHIN
  6
CONTINUOUS
 62
     3
 48
5.0
100
AcDbCircle
 10
518.6003915220555
 20
273.7065431979684
 30
0.0
 40
2.499989872965874
100
AcDbArc
 50
111.7995511374362
 51
226.7422242279931
  0
LINE
  5
38C
330
1A
100
AcDbEntity
  8
CENTER_L
  6
CENTER
 62
     1
 48
5.0
100
AcDbLine
 10
508.2543639538691
 20
283.0312179875392
 30
0.0
 11
520.9991938786854
 21
288.1287556356217
 31
0.0
  0
ARC
  5
38E
330
1A
100
AcDbEntity
  8
SEIHIN
  6
CONTINUOUS
 62
     3
 48
5.0
100
AcDbCircle
 10
514.7857938786855
 20
285.6435556356219
 30
0.0
 40
2.099999999999994
100
AcDbArc
 50
180.0
 51
0.0
  0
ARC
  5
38F
330
1A
100
AcDbEntity
  8
SEIHIN
  6
CONTINUOUS
 62
     3
 48
5.0
100
AcDbCircle
 10
514.7857938786855
 20
285.6435556356219
 30
0.0
 40
2.099999999999994
100
AcDbArc
 50
0.0
 51
180.0
  0
LINE
  5
390
330
1A
100
AcDbEntity
  8
SEIHIN
  6
CONTINUOUS
 62
     3
 48
5.0
100
AcDbLine
 10
523.1420938786855
 20
286.2932556356219
 30
0.0
 11
519.4283938786855
 21
295.5781556356218
 31
0.0
  0
ARC
  5
391
330
1A
100
AcDbEntity
  8
SEIHIN
  6
CONTINUOUS
 62
     3
 48
5.0
100
AcDbCircle
 10
525.4632938786856
 20
287.2217556356217
 30
0.0
 40
2.500072048961726
100
AcDbArc
 50
201.798856065742
 51
291.7988560657409
  0
ARC
  5
392
330
1A
100
AcDbEntity
  8
SEIHIN
  6
CONTINUOUS
 62
     3
 48
5.0
100
AcDbCircle
 10
521.7496197431876
 20
296.5066159799373
 30
0.0
 40
2.500025624868609
100
AcDbArc
 50
111.7999200107565
 51
201.8007710877372
  0
LINE
  5
398
330
1A
100
AcDbEntity
  8
SEIHIN
  6
CONTINUOUS
 62
     3
 48
5.0
100
AcDbLine
 10
412.0758938786854
 20
398.4908895415546
 30
0.0
 11
412.0758938786854
 21
415.7503895415546
 31
0.0
  0
LINE
  5
399
330
1A
100
AcDbEntity
  8
SEIHIN
  6
CONTINUOUS
 62
     3
 48
5.0
100
AcDbLine
 10
413.9331938786855
 20
398.4908895415546
 30
0.0
 11
413.9331938786855
 21
415.7502895415546
 31
0.0
  0
LINE
  5
39A
330
1A
100
AcDbEntity
  8
SEIHIN
  6
CONTINUOUS
 62
     3
 48
5.0
100
AcDbLine
 10
417.9941938786853
 20
394.9908895415546
 30
0.0
 11
417.9941938786853
 21
416.8514895415546
 31
0.0
  0
LINE
  5
39B
330
1A
100
AcDbEntity
  8
CENTER_L
  6
CENTER
 62
     1
 48
5.0
100
AcDbLine
 10
416.5325938786855
 20
400.0032397537985
 30
0.0
 11
416.5325938786855
 21
389.8653353126926
 31
0.0
  0
ARC
  5
39C
330
1A
100
AcDbEntity
  8
SEIHIN
  6
CONTINUOUS
 62
     3
 48
5.0
100
AcDbCircle
 10
411.0758938786855
 20
398.4908895415547
 30
0.0
 40
1.000000000000085
100
AcDbArc
 50
269.9999999999951
 51
359.9999999999951
  0
ARC
  5
39D
330
1A
100
AcDbEntity
  8
SEIHIN
  6
CONTINUOUS
 62
     3
 48
5.0
100
AcDbCircle
 10
412.9331938786855
 20
398.4908895415546
 30
0.0
 40
1.0
100
AcDbArc
 50
270.0
 51
0.0
  0
ARC
  5
39E
330
1A
100
AcDbEntity
  8
SEIHIN
  6
CONTINUOUS
 62
     3
 48
5.0
100
AcDbCircle
 10
412.9331938786855
 20
391.4908895415546
 30
0.0
 40
1.0
100
AcDbArc
 50
0.0
 51
90.0
  0
ARC
  5
39F
330
1A
100
AcDbEntity
  8
SEIHIN
  6
CONTINUOUS
 62
     3
 48
5.0
100
AcDbCircle
 10
411.0758938786855
 20
391.4908895415545
 30
0.0
 40
1.000000000000085
100
AcDbArc
 50
0.0000000000048853
 51
90.00000000000488
  0
ARC
  5
3A0
330
1A
100
AcDbEntity
  8
SEIHIN
  6
CONTINUOUS
 62
     3
 48
5.0
100
AcDbCircle
 10
411.9331971486907
 20
415.7502802043146
 30
0.0
 40
1.99999673001653
100
AcDbArc
 50
0.0002674926575107
 51
38.60191291329043
  0
ARC
  5
3A1
330
1A
100
AcDbEntity
  8
SEIHIN
  6
CONTINUOUS
 62
     3
 48
5.0
100
AcDbCircle
 10
410.0758971486907
 20
415.7503802043146
 30
0.0
 40
1.99999673001653
100
AcDbArc
 50
0.0002674926575107
 51
38.60191291329043
  0
LINE
  5
3A5
330
1A
100
AcDbEntity
  8
CENTER_L
  6
CENTER
 62
     1
 48
5.0
100
AcDbLine
 10
572.1100938786853
 20
314.6585556356218
 30
0.0
 11
576.5428938786856
 21
303.5756556356218
 31
0.0
  0
LINE
  5
3A7
330
1A
100
AcDbEntity
  8
SEIHIN
  6
CONTINUOUS
 62
     3
 48
5.0
100
AcDbLine
 10
567.7094938786856
 20
304.1189556356219
 30
0.0
 11
563.9957938786856
 21
313.4038556356217
 31
0.0
  0
LINE
  5
3A8
330
1A
100
AcDbEntity
  8
SEIHIN
  6
CONTINUOUS
 62
     3
 48
5.0
100
AcDbLine
 10
578.3781938786853
 20
320.5291556356217
 30
0.0
 11
587.2073938786854
 21
298.4547556356218
 31
0.0
  0
LINE
  5
3A9
330
1A
100
AcDbEntity
  8
SEIHIN
  6
CONTINUOUS
 62
     3
 48
5.0
100
AcDbLine
 10
557.1325938786856
 20
272.6685556356219
 30
0.0
 11
581.3146938786854
 21
282.3407556356219
 31
0.0
  0
LINE
  5
3AA
330
1A
100
AcDbEntity
  8
SEIHIN
  6
CONTINUOUS
 62
     3
 48
5.0
100
AcDbLine
 10
578.7500938786856
 20
300.4572556356218
 30
0.0
 11
552.8533938786856
 21
290.0992556356218
 31
0.0
  0
LINE
  5
3AB
330
1A
100
AcDbEntity
  8
SEIHIN
  6
CONTINUOUS
 62
     3
 48
5.0
100
AcDbLine
 10
561.8589938786856
 20
260.8519556356219
 30
0.0
 11
551.4605938786854
 21
286.8496556356219
 31
0.0
  0
ARC
  5
3AC
330
1A
100
AcDbEntity
  8
SEIHIN
  6
CONTINUOUS
 62
     3
 48
5.0
100
AcDbCircle
 10
544.4969938786855
 20
284.0644556356219
 30
0.0
 40
2.499979199913374
100
AcDbArc
 50
21.79970714272279
 51
111.7997071427229
  0
ARC
  5
3AD
330
1A
100
AcDbEntity
  8
SEIHIN
  6
CONTINUOUS
 62
     3
 48
5.0
100
AcDbCircle
 10
553.7818938786854
 20
287.7780556356218
 30
0.0
 40
2.500072048961833
100
AcDbArc
 50
111.7988560657426
 51
201.7988560657415
  0
LINE
  5
3AE
330
1A
100
AcDbEntity
  8
SEIHIN
  6
CONTINUOUS
 62
     3
 48
5.0
100
AcDbLine
 10
582.1747938786854
 20
297.9988556356218
 30
0.0
 11
580.4810938786856
 21
267.1647556356218
 31
0.0
  0
ARC
  5
3AF
330
1A
100
AcDbEntity
  8
SEIHIN
  6
CONTINUOUS
 62
     3
 48
5.0
100
AcDbCircle
 10
577.9848846441935
 20
267.3018427712093
 30
0.0
 40
2.499970684849472
100
AcDbArc
 50
291.8000131397009
 51
356.8565807552822
  0
ARC
  5
3B0
330
1A
100
AcDbEntity
  8
SEIHIN
  6
CONTINUOUS
 62
     3
 48
5.0
100
AcDbCircle
 10
579.67848904676
 20
298.1359591041806
 30
0.0
 40
2.500067034098203
100
AcDbArc
 50
356.856327141993
 51
111.7987827666212
  0
ARC
  5
3B1
330
1A
100
AcDbEntity
  8
SEIHIN
  6
CONTINUOUS
 62
     3
 48
5.0
100
AcDbCircle
 10
565.3882680141833
 20
303.1904952913065
 30
0.0
 40
2.50002562486872
100
AcDbArc
 50
291.799920010754
 51
21.80077108773567
  0
ARC
  5
3B3
330
1A
100
AcDbEntity
  8
SEIHIN
  6
CONTINUOUS
 62
     3
 48
5.0
100
AcDbCircle
 10
561.6745938786855
 20
312.4754556356218
 30
0.0
 40
2.499979199913474
100
AcDbArc
 50
21.79970714272152
 51
111.799707142722
  0
LINE
  5
3B4
330
1A
100
AcDbEntity
  8
SEIHIN
  6
CONTINUOUS
 62
     3
 48
5.0
100
AcDbLine
 10
538.9267938786856
 20
311.4546556356219
 30
0.0
 11
572.0420938786856
 21
323.3767556356217
 31
0.0
  0
LINE
  5
3B7
330
1A
100
AcDbEntity
  8
CENTER_L
  6
CENTER
 62
     1
 48
5.0
100
AcDbLine
 10
579.8698938786856
 20
311.6753556356218
 30
0.0
 11
567.9954938786854
 21
306.9259556356219
 31
0.0
  0
ARC
  5
3BA
330
1A
100
AcDbEntity
  8
SEIHIN
  6
CONTINUOUS
 62
     3
 48
5.0
100
AcDbCircle
 10
574.2088938786856
 20
309.4111556356217
 30
0.0
 40
2.099999999999909
100
AcDbArc
 50
180.0
 51
0.0
  0
ARC
  5
3BB
330
1A
100
AcDbEntity
  8
SEIHIN
  6
CONTINUOUS
 62
     3
 48
5.0
100
AcDbCircle
 10
574.2088938786856
 20
309.4111556356217
 30
0.0
 40
2.099999999999909
100
AcDbArc
 50
0.0
 51
180.0
  0
ARC
  5
3BC
330
1A
100
AcDbEntity
  8
SEIHIN
  6
CONTINUOUS
 62
     3
 48
5.0
100
AcDbCircle
 10
573.7358275867579
 20
318.6723404864043
 30
0.0
 40
5.000025576939355
100
AcDbArc
 50
21.79958622045465
 51
109.8004316646362
  0
DIMENSION
  5
3CC
330
1A
100
AcDbEntity
  8
SUNPOU
 48
5.0
100
AcDbDimension
  2
*D1
 10
457.9997700865551
 20
354.9908895415546
 30
0.0
 11
452.9997700865551
 21
394.9908895415546
 31
0.0
 12
25.80965435019925
 22
-11.68356185500192
 32
0.0
 70
    32
  3
STANDARD
100
AcDbAlignedDimension
 13
403.3126938786855
 23
434.9908895415546
 33
0.0
 14
403.3126938786855
 24
354.9908895415546
 34
0.0
 50
90.0
100
AcDbRotatedDimension
1001
ACAD
1000
DSTYLE
1002
{
1070
   140
1040
6.0
1070
    74
1070
     0
1070
   172
1070
     1
1070
    73
1070
     0
1070
   272
1070
     2
1070
    77
1070
     3
1070
   173
1070
     1
1070
   147
1040
2.0
1070
    42
1040
6.0
1070
    44
1040
3.0
1070
    43
1040
14.0
1070
   271
1070
     0
1070
   178
1070
     4
1070
   177
1070
     4
1070
   176
1070
     4
1070
   141
1040
150.0
1070
     7
1000
_OPEN
1070
     6
1000
_OPEN
1070
    41
1040
7.0
1002
}
  0
DIMENSION
  5
3D9
330
1A
100
AcDbEntity
  8
SUNPOU
 48
5.0
100
AcDbDimension
  2
*D2
 10
217.787254216008
 20
379.9907895415544
 30
0.0
 11
212.787254216008
 21
394.9908395415545
 31
0.0
 12
25.80965435019925
 22
-11.68356185500192
 32
0.0
 70
    32
  3
STANDARD
100
AcDbAlignedDimension
 13
258.6708938786855
 23
409.9908895415546
 33
0.0
 14
258.6708938786855
 24
379.9907895415544
 34
0.0
 50
90.0
100
AcDbRotatedDimension
1001
ACAD
1000
DSTYLE
1002
{
1070
   140
1040
6.0
1070
    74
1070
     0
1070
   172
1070
     1
1070
    73
1070
     0
1070
   272
1070
     2
1070
    77
1070
     3
1070
   173
1070
     1
1070
   147
1040
2.0
1070
    42
1040
6.0
1070
    44
1040
3.0
1070
    43
1040
14.0
1070
   271
1070
     0
1070
   178
1070
     4
1070
   177
1070
     4
1070
   176
1070
     4
1070
   141
1040
150.0
1070
     7
1000
_OPEN
1070
     6
1000
_OPEN
1070
    41
1040
7.0
1002
}
  0
DIMENSION
  5
3E6
330
1A
100
AcDbEntity
  8
SUNPOU
 48
5.0
100
AcDbDimension
  2
*D3
 10
217.787254216008
 20
182.7163392622663
 30
0.0
 11
212.787254216008
 21
219.817047448944
 31
0.0
 12
25.80965435019925
 22
-11.68356185500192
 32
0.0
 70
    32
  3
STANDARD
100
AcDbAlignedDimension
 13
266.086893878709
 23
256.9177556356218
 33
0.0
 14
413.0619363519631
 24
182.7163392622663
 34
0.0
 50
90.0
100
AcDbRotatedDimension
1001
ACAD
1000
DSTYLE
1002
{
1070
   140
1040
6.0
1070
    74
1070
     0
1070
   172
1070
     1
1070
    73
1070
     0
1070
   272
1070
     2
1070
    77
1070
     3
1070
   173
1070
     1
1070
   147
1040
2.0
1070
    42
1040
6.0
1070
    44
1040
3.0
1070
    43
1040
14.0
1070
   271
1070
     0
1070
   178
1070
     4
1070
   177
1070
     4
1070
   176
1070
     4
1070
   141
1040
150.0
1070
     7
1000
_OPEN
1070
     6
1000
_OPEN
1070
    41
1040
7.0
1002
}
  0
DIMENSION
  5
401
330
1A
100
AcDbEntity
  8
SUNPOU
 48
5.0
100
AcDbDimension
  2
*D4
 10
454.2212826046384
 20
199.0209866507399
 30
0.0
 11
445.3087430680926
 21
234.7676808450238
 31
0.0
 12
25.80965435019925
 22
-11.68356185500192
 32
0.0
 70
    33
  3
STANDARD
100
AcDbAlignedDimension
 13
392.3699938786855
 23
252.9051556356218
 33
0.0
 14
419.4799318117007
 24
185.1254441246643
 34
0.0
1001
ACAD
1000
DSTYLE
1002
{
1070
   140
1040
6.0
1070
    74
1070
     0
1070
   172
1070
     1
1070
    73
1070
     0
1070
   272
1070
     2
1070
    77
1070
     3
1070
   173
1070
     1
1070
   147
1040
2.0
1070
    42
1040
6.0
1070
    44
1040
3.0
1070
    43
1040
14.0
1070
   271
1070
     0
1070
   178
1070
     4
1070
   177
1070
     4
1070
   176
1070
     4
1070
   141
1040
150.0
1070
     7
1000
_OPEN
1070
     6
1000
_OPEN
1070
    41
1040
7.0
1002
}
  0
DIMENSION
  5
411
330
1A
100
AcDbEntity
  8
SUNPOU
 48
5.0
100
AcDbDimension
  2
*D5
 10
380.3707924981777
 20
282.939544531878
 30
0.0
 11
357.6300017200084
 21
273.8552619290286
 31
0.0
 12
25.80965435019925
 22
-11.68356185500192
 32
0.0
 70
   161
  3
STANDARD
100
AcDbAlignedDimension
 13
382.0144207678498
 23
251.9004946523178
 33
0.0
 14
391.2898438786858
 24
255.605755635622
 34
0.0
1001
ACAD
1000
DSTYLE
1002
{
1070
   288
1070
     1
1070
   140
1040
6.0
1070
    74
1070
     0
1070
   172
1070
     1
1070
    73
1070
     0
1070
   272
1070
     2
1070
    77
1070
     3
1070
   173
1070
     1
1070
   147
1040
2.0
1070
    42
1040
6.0
1070
    44
1040
3.0
1070
    43
1040
14.0
1070
   271
1070
     0
1070
   178
1070
     4
1070
   177
1070
     4
1070
   176
1070
     4
1070
   141
1040
150.0
1070
     7
1000
_OPEN
1070
     6
1000
_OPEN
1070
    41
1040
7.0
1002
}
  0
ARC
  5
412
330
1A
100
AcDbEntity
  8
SEIHIN
  6
CONTINUOUS
 62
     3
 48
5.0
100
AcDbCircle
 10
382.663814223889
 20
251.7008626956423
 30
0.0
 40
0.5
100
AcDbArc
 50
100.8358509516542
 51
205.5235738037126
  0
ARC
  5
415
330
1A
100
AcDbEntity
  8
SEIHIN
  6
CONTINUOUS
 62
     3
 48
5.0
100
AcDbCircle
 10
347.3228292000929
 20
226.905155631705
 30
0.0
 40
5.0
100
AcDbArc
 50
269.9998622604903
 51
341.8737720127039
  0
DIMENSION
  5
426
330
1A
100
AcDbEntity
  8
SUNPOU
  6
CONTINUOUS
 62
     4
 48
5.0
100
AcDbDimension
  2
*D6
 10
432.5225899969275
 20
152.5141154809206
 30
0.0
 11
450.6282440786555
 21
159.7553370817839
 31
0.0
 70
   161
  1
t<>
  3
STANDARD
100
AcDbAlignedDimension
 13
412.9785451147752
 23
182.525262901007
 33
0.0
 14
419.4799318117007
 24
185.1254441246643
 34
0.0
1001
ACAD
1000
DSTYLE
1002
{
1070
   288
1070
     1
1070
   140
1040
6.0
1070
    74
1070
     0
1070
   172
1070
     1
1070
    73
1070
     0
1070
   272
1070
     2
1070
    77
1070
     3
1070
   173
1070
     1
1070
   147
1040
2.0
1070
    42
1040
6.0
1070
    44
1040
3.0
1070
    43
1040
14.0
1070
   271
1070
     1
1070
   178
1070
     4
1070
   177
1070
     4
1070
   176
1070
     4
1070
   141
1040
150.0
1070
     7
1000
_OPEN
1070
     6
1000
_OPEN
1070
    41
1040
7.0
1002
}
  0
DIMENSION
  5
433
330
1A
100
AcDbEntity
  8
SUNPOU
  6
CONTINUOUS
 62
     4
 48
5.0
100
AcDbDimension
  2
*D7
 10
496.5469712762438
 20
331.243884026889
 30
0.0
 11
525.820937234608
 21
342.9525935194007
 31
0.0
 12
25.80965435019925
 22
-11.68356185500192
 32
0.0
 70
   161
  3
STANDARD
100
AcDbAlignedDimension
 13
572.1100938786853
 23
314.6585556356218
 33
0.0
 14
512.6868938786858
 24
290.8910556356219
 34
0.0
1001
ACAD
1000
DSTYLE
1002
{
1070
   288
1070
     1
1070
   140
1040
6.0
1070
    74
1070
     0
1070
   172
1070
     1
1070
    73
1070
     0
1070
   272
1070
     2
1070
    77
1070
     3
1070
   173
1070
     1
1070
   147
1040
2.0
1070
    42
1040
6.0
1070
    44
1040
3.0
1070
    43
1040
14.0
1070
   271
1070
     0
1070
   178
1070
     4
1070
   177
1070
     4
1070
   176
1070
     4
1070
   141
1040
150.0
1070
     7
1000
_OPEN
1070
     6
1000
_OPEN
1070
    41
1040
7.0
1002
}
  0
DIMENSION
  5
440
330
1A
100
AcDbEntity
  8
SUNPOU
  6
CONTINUOUS
 62
     4
 48
5.0
100
AcDbDimension
  2
*D8
 10
483.7057674150933
 20
341.8074583094553
 30
0.0
 11
519.6250772492735
 21
356.1741131464462
 31
0.0
 12
25.80965435019925
 22
-11.68356185500192
 32
0.0
 70
   161
  3
STANDARD
100
AcDbAlignedDimension
 13
578.3781938786853
 23
320.5291556356217
 33
0.0
 14
504.0993082645919
 24
290.8198122150376
 34
0.0
1001
ACAD
1000
DSTYLE
1002
{
1070
   288
1070
     1
1070
   140
1040
6.0
1070
    74
1070
     0
1070
   172
1070
     1
1070
    73
1070
     0
1070
   272
1070
     2
1070
    77
1070
     3
1070
   173
1070
     1
1070
   147
1040
2.0
1070
    42
1040
6.0
1070
    44
1040
3.0
1070
    43
1040
14.0
1070
   271
1070
     0
1070
   178
1070
     4
1070
   177
1070
     4
1070
   176
1070
     4
1070
   141
1040
150.0
1070
     7
1000
_OPEN
1070
     6
1000
_OPEN
1070
    41
1040
7.0
1002
}
  0
DIMENSION
  5
453
330
1A
100
AcDbEntity
  8
SUNPOU
  6
CONTINUOUS
 62
     4
 48
5.0
100
AcDbDimension
  2
*D9
 10
479.5177078757201
 20
271.5374446612172
 30
0.0
 11
477.1217125634795
 21
277.5278962994998
 31
0.0
 12
25.80965435019925
 22
-11.68356185500192
 32
0.0
 70
   161
  3
STANDARD
100
AcDbAlignedDimension
 13
502.565937351428
 23
294.6535746084252
 33
0.0
 14
507.3579279759092
 24
282.6726713318598
 34
0.0
1001
ACAD
1000
DSTYLE
1002
{
1070
   288
1070
     1
1070
   140
1040
6.0
1070
    74
1070
     0
1070
   172
1070
     1
1070
    73
1070
     0
1070
   272
1070
     2
1070
    77
1070
     3
1070
   173
1070
     1
1070
   147
1040
2.0
1070
    42
1040
6.0
1070
    44
1040
3.0
1070
    43
1040
14.0
1070
   271
1070
     0
1070
   178
1070
     4
1070
   177
1070
     4
1070
   176
1070
     4
1070
   141
1040
150.0
1070
     7
1000
_OPEN
1070
     6
1000
_OPEN
1070
    41
1040
7.0
1002
}
  0
DIMENSION
  5
460
330
1A
100
AcDbEntity
  8
SUNPOU
  6
CONTINUOUS
 62
     4
 48
5.0
100
AcDbDimension
  2
*D10
 10
498.1279393005259
 20
225.1291689353142
 30
0.0
 11
486.240656158337
 21
254.8496376625064
 31
0.0
 12
25.80965435019925
 22
-11.68356185500192
 32
0.0
 70
   161
  3
STANDARD
100
AcDbAlignedDimension
 13
507.3579279759093
 23
282.6726713318598
 33
0.0
 14
525.9264870082793
 24
236.2477421508629
 34
0.0
1001
ACAD
1000
DSTYLE
1002
{
1070
   288
1070
     1
1070
   140
1040
6.0
1070
    74
1070
     0
1070
   172
1070
     1
1070
    73
1070
     0
1070
   272
1070
     2
1070
    77
1070
     3
1070
   173
1070
     1
1070
   147
1040
2.0
1070
    42
1040
6.0
1070
    44
1040
3.0
1070
    43
1040
14.0
1070
   271
1070
     0
1070
   178
1070
     4
1070
   177
1070
     4
1070
   176
1070
     4
1070
   141
1040
150.0
1070
     7
1000
_OPEN
1070
     6
1000
_OPEN
1070
    41
1040
7.0
1002
}
  0
ARC
  5
473
330
1A
100
AcDbEntity
  8
SEIHIN
  6
CONTINUOUS
 62
     3
 48
5.0
100
AcDbCircle
 10
508.9704212632033
 20
292.1048991884232
 30
0.0
 40
5.0
100
AcDbArc
 50
114.7999485565524
 51
201.7999393483687
  0
ELLIPSE
  5
47A
330
1A
100
AcDbEntity
  8
SEIHIN
 48
5.0
100
AcDbEllipse
 10
397.9641938786855
 20
362.9908895415546
 30
0.0
 11
0.0
 21
-2.149999999999977
 31
0.0
210
0.0
220
0.0
230
1.0
 40
0.3713854860695674
 41
0.0
 42
6.283185307179586
  0
ELLIPSE
  5
47B
330
1A
100
AcDbEntity
  8
SEIHIN
 48
5.0
100
AcDbEllipse
 10
398.1056438786854
 20
426.9908895415546
 30
0.0
 11
0.0
 21
-2.149999999999977
 31
0.0
210
0.0
220
0.0
230
1.0
 40
0.3713854860695674
 41
0.0
 42
6.283185307179586
  0
ELLIPSE
  5
47C
330
1A
100
AcDbEntity
  8
SEIHIN
 48
5.0
100
AcDbEllipse
 10
416.6740438786853
 20
394.9908895415546
 30
0.0
 11
0.0
 21
-2.149999999999977
 31
0.0
210
0.0
220
0.0
230
1.0
 40
0.3713854860695674
 41
0.0
 42
6.283185307179586
  0
DIMENSION
  5
4A0
330
1A
100
AcDbEntity
  8
SUNPOU
  6
CONTINUOUS
 62
     4
 48
5.0
100
AcDbDimension
  2
*D11
 10
501.171658331591
 20
217.7310232063794
 30
0.0
 11
505.9994194091407
 21
205.6606991437
 31
0.0
 12
16.01271736917396
 22
-18.28510176102804
 32
0.0
 70
   161
  3
STANDARD
100
AcDbAlignedDimension
 13
563.0657448232674
 23
251.1029360141272
 33
0.0
 14
566.0366730170293
 24
243.675048533859
 34
0.0
1001
ACAD
1000
DSTYLE
1002
{
1070
   288
1070
     1
1070
   140
1040
6.0
1070
    74
1070
     0
1070
   172
1070
     1
1070
    73
1070
     0
1070
   272
1070
     2
1070
    77
1070
     3
1070
   173
1070
     1
1070
   147
1040
2.0
1070
    42
1040
6.0
1070
    44
1040
3.0
1070
    43
1040
14.0
1070
   271
1070
     0
1070
   178
1070
     4
1070
   177
1070
     4
1070
   176
1070
     4
1070
   141
1040
150.0
1070
     7
1000
_OPEN
1070
     6
1000
_OPEN
1070
    41
1040
7.0
1002
}
  0
DIMENSION
  5
5D9
330
1A
100
AcDbEntity
  8
SUNPOU
 62
     4
100
AcDbDimension
  2
*D12
 10
557.5196003319807
 20
211.1141636638371
 30
0.0
 11
576.0636448418464
 21
218.5312152558392
 31
0.0
 12
25.80965435019925
 22
-11.68356185500192
 32
0.0
 70
   161
  3
STANDARD
100
AcDbAlignedDimension
 13
584.6320612352724
 23
251.0382211439917
 33
0.0
 14
547.4926025808744
 24
236.183571674608
 34
0.0
1001
ACAD
1000
DSTYLE
1002
{
1070
   288
1070
     1
1070
   140
1040
6.0
1070
    74
1070
     0
1070
   172
1070
     1
1070
    73
1070
     0
1070
   272
1070
     2
1070
    77
1070
     3
1070
   173
1070
     1
1070
   147
1040
2.0
1070
    42
1040
6.0
1070
    44
1040
3.0
1070
    43
1040
14.0
1070
   271
1070
     0
1070
   178
1070
     4
1070
   177
1070
     4
1070
   176
1070
     4
1070
   141
1040
150.0
1070
     7
1000
_OPEN
1070
     6
1000
_OPEN
1070
    41
1040
7.0
1002
}
  0
DIMENSION
  5
6B9
330
1A
100
AcDbEntity
  8
SUNPOU
100
AcDbDimension
  2
*D13
 10
392.3699938786855
 20
291.4750211511914
 30
0.0
 11
408.5045269552611
 21
291.4750211511914
 31
0.0
 12
16.01271736917396
 22
-18.28510176102804
 32
0.0
 70
   160
  3
STANDARD
100
AcDbAlignedDimension
 13
391.6425938786855
 23
220.4886556356218
 33
0.0
 14
392.3699938786855
 24
252.9051556356218
 34
0.0
100
AcDbRotatedDimension
1001
ACAD
1000
DSTYLE
1002
{
1070
   288
1070
     1
1070
   140
1040
6.0
1070
    74
1070
     0
1070
   172
1070
     1
1070
    73
1070
     0
1070
   272
1070
     2
1070
    77
1070
     3
1070
   173
1070
     1
1070
   147
1040
2.0
1070
    42
1040
6.0
1070
    44
1040
3.0
1070
    43
1040
14.0
1070
   271
1070
     0
1070
   178
1070
     4
1070
   177
1070
     4
1070
   176
1070
     4
1070
   141
1040
150.0
1070
     7
1000
_OPEN
1070
     6
1000
_OPEN
1070
    41
1040
7.0
1002
}
  0
DIMENSION
  5
6C6
330
1A
100
AcDbEntity
  8
SUNPOU
100
AcDbDimension
  2
*D14
 10
392.3699938786855
 20
305.5782249418507
 30
0.0
 11
330.7760545497199
 21
305.5782249418507
 31
0.0
 12
16.01271736917396
 22
-18.28510176102804
 32
0.0
 70
   160
  3
STANDARD
100
AcDbAlignedDimension
 13
258.6708868325696
 23
250.1691626889478
 33
0.0
 14
392.3699938786855
 24
252.9051556356218
 34
0.0
100
AcDbRotatedDimension
1001
ACAD
1000
DSTYLE
1002
{
1070
   288
1070
     1
1070
   140
1040
6.0
1070
    74
1070
     0
1070
   172
1070
     1
1070
    73
1070
     0
1070
   272
1070
     2
1070
    77
1070
     3
1070
   173
1070
     1
1070
   147
1040
2.0
1070
    42
1040
6.0
1070
    44
1040
3.0
1070
    43
1040
14.0
1070
   271
1070
     0
1070
   178
1070
     4
1070
   177
1070
     4
1070
   176
1070
     4
1070
   141
1040
150.0
1070
     7
1000
_OPEN
1070
     6
1000
_OPEN
1070
    41
1040
7.0
1002
}
  0
LINE
  5
9D3
330
1A
100
AcDbEntity
  8
SUNPOU
  6
CONTINUOUS
 62
     4
100
AcDbLine
 10
419.4799318117008
 20
185.1254441246642
 30
0.0
 11
446.0430088162216
 21
118.7129831054465
 31
0.0
  0
LINE
  5
9D8
330
1A
100
AcDbEntity
  8
SUNPOU
  6
CONTINUOUS
100
AcDbLine
 10
446.0430088162216
 20
118.7129831054465
 30
0.0
 11
438.0430088162216
 21
118.7129831054465
 31
0.0
  0
LINE
  5
9D9
330
1A
100
AcDbEntity
  8
SUNPOU
  6
CONTINUOUS
100
AcDbLine
 10
438.0430088162216
 20
118.7129831054465
 30
0.0
 11
438.0430088162217
 21
138.7144192366341
 31
0.0
  0
LINE
  5
C88
330
1A
100
AcDbEntity
  8
ZUWAKU
100
AcDbLine
 10
208.6466015554762
 20
15.19999954755268
 30
0.0
 11
447.4243642363996
 21
15.19999954755267
 31
0.0
  0
LINE
  5
C89
330
1A
100
AcDbEntity
  8
ZUWAKU
100
AcDbLine
 10
208.6466015554762
 20
15.59999954755267
 30
0.0
 11
447.4243642363996
 21
15.59999954755268
 31
0.0
  0
LINE
  5
C8A
330
1A
100
AcDbEntity
  8
ZUWAKU
100
AcDbLine
 10
208.6466015554762
 20
15.39999954755267
 30
0.0
 11
447.4243642363996
 21
15.39999954755267
 31
0.0
  0
LINE
  5
C8B
330
1A
100
AcDbEntity
  8
ZUWAKU
100
AcDbLine
 10
0.0000002654082891
 20
30.79999954755265
 30
0.0
 11
797.4000002654081
 21
30.79999954755265
 31
0.0
  0
LINE
  5
C8C
330
1A
100
AcDbEntity
  8
ZUWAKU
100
AcDbLine
 10
0.0000002654082891
 20
30.59999954755266
 30
0.0
 11
797.4000002654081
 21
30.59999954755266
 31
0.0
  0
LINE
  5
C8D
330
1A
100
AcDbEntity
  8
ZUWAKU
100
AcDbLine
 10
0.0000002654082891
 20
30.39999954755265
 30
0.0
 11
797.4000002654081
 21
30.39999954755265
 31
0.0
  0
LINE
  5
C8E
330
1A
100
AcDbEntity
  8
ZUWAKU
100
AcDbLine
 10
0.0000002654082891
 20
30.19999954755264
 30
0.0
 11
797.4000002654081
 21
30.19999954755264
 31
0.0
  0
LINE
  5
C8F
330
1A
100
AcDbEntity
  8
ZUWAKU
100
AcDbLine
 10
0.0000002654082891
 20
29.99999954755264
 30
0.0
 11
797.4000002654081
 21
29.99999954755264
 31
0.0
  0
LWPOLYLINE
  5
C90
330
1A
100
AcDbEntity
  8
ZUWAKU
100
AcDbPolyline
 90
        4
 70
     1
 43
0.0
 10
0.2000002654082209
 20
551.3999995475526
 10
0.2000002654082209
 20
0.199999547552693
 10
797.4000002654081
 20
0.199999547552716
 10
797.4000002654084
 20
551.3999995475526
  0
LWPOLYLINE
  5
C91
330
1A
100
AcDbEntity
  8
ZUWAKU
100
AcDbPolyline
 90
        4
 70
     1
 43
0.0
 10
0.6000002654081982
 20
550.9999995475527
 10
0.6000002654081982
 20
0.5999995475526704
 10
797.0000002654085
 20
0.5999995475527166
 10
797.0000002654082
 20
550.9999995475527
  0
LWPOLYLINE
  5
C92
330
1A
100
AcDbEntity
  8
ZUWAKU
100
AcDbPolyline
 90
        4
 70
     1
 43
0.0
 10
0.0000002654082891
 20
551.5999995475526
 10
0.0000002654082891
 20
-0.0000004524473525
 10
797.6000002654083
 20
-0.000000452447285
 10
797.6000002654083
 20
551.5999995475527
  0
LWPOLYLINE
  5
C93
330
1A
100
AcDbEntity
  8
ZUWAKU
100
AcDbPolyline
 90
        4
 70
     1
 43
0.0
 10
0.4000002654082664
 20
551.1999995475526
 10
0.4000002654082664
 20
0.3999995475527384
 10
797.2000002654083
 20
0.3999995475527153
 10
797.2000002654083
 20
551.1999995475526
  0
LWPOLYLINE
  5
C94
330
1A
100
AcDbEntity
  8
ZUWAKU
100
AcDbPolyline
 90
        4
 70
     1
 43
0.0
 10
0.8000002654082436
 20
550.7999995475525
 10
0.8000002654082436
 20
0.7999995475527158
 10
796.8000002654081
 20
0.7999995475527158
 10
796.8000002654081
 20
550.7999995475525
  0
TEXT
  5
C95
330
1A
100
AcDbEntity
  8
MOJI
100
AcDbText
 10
129.5810009082394
 20
8.55422296308302
 30
0.0
 40
5.799999999999999
  1
Ｓ１２０Ｈ・Ｍ１２０Ｈ
 41
0.9
  7
ｽﾀｲﾙ1
100
AcDbText
  0
TEXT
  5
C96
330
1A
100
AcDbEntity
  8
MOJI
100
AcDbText
 10
81.66226421957366
 20
17.85856749647905
 30
0.0
 40
5.799999999999999
  1
アートフェイスＴ１２０・Ｈ１２０・
 41
0.9
  7
ｽﾀｲﾙ1
100
AcDbText
  0
HATCH
  5
C97
330
1A
100
AcDbEntity
  8
ZUWAKU
100
AcDbHatch
 10
0.0
 20
0.0
 30
0.0
210
0.0
220
0.0
230
1.0
  2
ANSI37
 70
     0
 71
     0
 91
        8
 92
        7
 72
     1
 73
     1
 93
       24
 10
14.50226292652814
 20
17.64484802853622
 42
-0.1989123673796348
 10
14.09221242018941
 20
18.63479752219727
 42
0.0
 10
14.09221242018941
 20
19.92499954755265
 42
-0.4142135623730912
 10
14.61721242018938
 20
20.44999954755264
 42
0.0
 10
17.59221242018928
 20
20.44999954755264
 42
0.4142135623731546
 10
18.11721242018939
 20
20.97499954755263
 42
0.0
 10
18.11721242018939
 20
22.72499954755266
 42
0.4142135623731586
 10
17.59221242018928
 20
23.24999954755264
 42
0.0
 10
14.09221242018941
 20
23.24999954755264
 42
0.4142135623730928
 10
11.29221242018945
 20
20.44999954755267
 42
0.0
 10
11.29221242018945
 20
18.6347975221974
 42
0.1989123673796619
 10
12.52236393920588
 20
15.66494904121379
 42
0.0
 10
15.43216191385055
 20
12.75515106656914
 42
-0.1989123673796613
 10
15.84221242018941
 20
11.76520157290795
 42
0.0
 10
15.84221242018941
 20
10.47499954755263
 42
-0.4142135623730911
 10
15.31721242018942
 20
9.949999547552648
 42
0.0
 10
12.34221242018952
 20
9.949999547552648
 42
0.4142135623731526
 10
11.81721242018942
 20
9.42499954755266
 42
0.0
 10
11.81721242018942
 20
7.67499954755264
 42
0.4142135623731526
 10
12.34221242018952
 20
7.149999547552652
 42
0.0
 10
15.84221242018941
 20
7.149999547552652
 42
0.4142135623731045
 10
18.64221242018948
 20
9.949999547552629
 42
0.0
 10
18.64221242018948
 20
11.76520157290789
 42
0.1989123673796604
 10
17.41206090117293
 20
14.73505005389143
 42
0.0
 97
        0
 92
        7
 72
     1
 73
     1
 93
       16
 10
23.54221242018945
 20
19.04999954755265
 42
-0.4142135623730935
 10
24.94221242018943
 20
20.44999954755264
 42
0.0
 10
26.86721242018939
 20
20.44999954755264
 42
0.4142135623731546
 10
27.39221242018948
 20
20.97499954755263
 42
0.0
 10
27.39221242018948
 20
22.72499954755266
 42
0.4142135623730951
 10
26.8672124201895
 20
23.24999954755264
 42
0.0
 10
24.94221242018932
 20
23.2499995475526
 42
0.4142135623730893
 10
20.74221242018937
 20
19.04999954755258
 42
0.0
 10
20.74221242018937
 20
11.34999954755267
 42
0.4142135623730969
 10
24.94221242018943
 20
7.149999547552652
 42
0.0
 10
26.86721242018939
 20
7.149999547552652
 42
0.4142135623731526
 10
27.39221242018948
 20
7.67499954755264
 42
0.0
 10
27.39221242018948
 20
9.42499954755266
 42
0.4142135623730891
 10
26.8672124201895
 20
9.949999547552648
 42
0.0
 10
24.94221242018943
 20
9.949999547552648
 42
-0.4142135623730928
 10
23.54221242018945
 20
11.34999954755263
 42
0.0
 97
        0
 92
        7
 72
     1
 73
     1
 93
        2
 10
24.24221242018939
 20
15.19999954755264
 42
1.0
 10
27.74221242018939
 20
15.19999954755264
 42
1.0
 97
        0
 92
        7
 72
     1
 73
     1
 93
       26
 10
37.3148589023674
 20
19.20504674111607
 42
0.0
 10
38.37649853550523
 20
22.56690557938566
 42
0.5069206636600134
 10
37.87586763630986
 20
23.24999954755264
 42
0.0
 10
36.17697825670063
 20
23.24999954755264
 42
0.3272098845218764
 10
35.67634735750527
 20
22.88309351571961
 42
0.0
 10
33.80807748287348
 20
16.96690557938572
 42
-0.3272098845219541
 10
33.30744658367802
 20
16.59999954755264
 42
0.0
 10
33.16721242018957
 20
16.59999954755264
 42
-0.4142135623731526
 10
32.64221242018948
 20
17.12499954755263
 42
0.0
 10
32.64221242018948
 20
22.72499954755266
 42
0.4142135623730951
 10
32.1172124201895
 20
23.24999954755264
 42
0.0
 10
30.36721242018938
 20
23.24999954755264
 42
0.4142135623730871
 10
29.84221242018941
 20
22.72499954755266
 42
0.0
 10
29.84221242018941
 20
7.67499954755264
 42
0.4142135623730891
 10
30.36721242018938
 20
7.149999547552652
 42
0.0
 10
32.11721242018938
 20
7.149999547552652
 42
0.4142135623731526
 10
32.64221242018948
 20
7.67499954755264
 42
0.0
 10
32.64221242018948
 20
13.27499954755265
 42
-0.4142135623731526
 10
33.16721242018957
 20
13.79999954755264
 42
0.0
 10
33.30744658367814
 20
13.79999954755264
 42
-0.3272098845218915
 10
33.80807748287348
 20
13.43309351571957
 42
0.0
 10
35.67634735750527
 20
7.516905579385723
 42
0.3272098845218902
 10
36.17697825670063
 20
7.149999547552652
 42
0.0
 10
37.87586763630986
 20
7.149999547552652
 42
0.5069206636600336
 10
38.37649853550523
 20
7.83309351571966
 42
0.0
 10
36.05010715703156
 20
15.19999954755278
 42
0.0
 97
        0
 92
        7
 72
     1
 73
     1
 93
        8
 10
43.49221242018937
 20
22.72499954755266
 42
0.4142135623731546
 10
42.96721242018929
 20
23.24999954755264
 42
0.0
 10
41.21721242018953
 20
23.24999954755264
 42
0.4142135623731507
 10
40.69221242018943
 20
22.72499954755266
 42
0.0
 10
40.69221242018943
 20
7.67499954755264
 42
0.4142135623731526
 10
41.21721242018953
 20
7.149999547552652
 42
0.0
 10
42.96721242018929
 20
7.149999547552652
 42
0.4142135623731526
 10
43.49221242018937
 20
7.67499954755264
 42
0.0
 97
        0
 92
        7
 72
     1
 73
     1
 93
       24
 10
48.39221242018947
 20
19.92499954755265
 42
-0.4142135623731546
 10
48.91721242018957
 20
20.44999954755264
 42
0.0
 10
51.89221242018948
 20
20.44999954755264
 42
0.4142135623730911
 10
52.41721242018945
 20
20.97499954755263
 42
0.0
 10
52.41721242018945
 20
22.72499954755266
 42
0.4142135623730952
 10
51.89221242018948
 20
23.24999954755264
 42
0.0
 10
48.39221242018947
 20
23.24999954755264
 42
0.4142135623731048
 10
45.59221242018941
 20
20.44999954755267
 42
0.0
 10
45.59221242018941
 20
18.6347975221974
 42
0.1989123673796613
 10
46.82236393920595
 20
15.66494904121385
 42
0.0
 10
49.73216191385063
 20
12.75515106656918
 42
-0.1989123673796402
 10
50.14221242018948
 20
11.76520157290811
 42
0.0
 10
50.14221242018948
 20
10.47499954755263
 42
-0.4142135623730911
 10
49.6172124201895
 20
9.949999547552648
 42
0.0
 10
46.64221242018948
 20
9.949999547552648
 42
0.4142135623731526
 10
46.11721242018939
 20
9.42499954755266
 42
0.0
 10
46.11721242018939
 20
7.67499954755264
 42
0.4142135623730891
 10
46.64221242018936
 20
7.149999547552652
 42
0.0
 10
50.14221242018948
 20
7.149999547552652
 42
0.4142135623730925
 10
52.94221242018942
 20
9.949999547552629
 42
0.0
 10
52.94221242018942
 20
11.76520157290789
 42
0.1989123673796675
 10
51.71206090117289
 20
14.73505005389155
 42
0.0
 10
48.80226292652832
 20
17.64484802853606
 42
-0.1989123673796652
 10
48.39221242018947
 20
18.63479752219723
 42
0.0
 97
        0
 92
        7
 72
     1
 73
     1
 93
       16
 10
57.84221242018941
 20
22.72499954755263
 42
0.414213562373103
 10
57.31721242018942
 20
23.24999954755264
 42
0.0
 10
55.56721242018943
 20
23.24999954755264
 42
0.4142135623730871
 10
55.04221242018945
 20
22.72499954755266
 42
0.0
 10
55.04221242018945
 20
9.949999547552629
 42
0.4142135623730927
 10
57.84221242018941
 20
7.149999547552652
 42
0.0
 10
61.34221242018941
 20
7.149999547552652
 42
0.4142135623731045
 10
64.14221242018948
 20
9.949999547552629
 42
0.0
 10
64.14221242018948
 20
22.72499954755266
 42
0.4142135623730951
 10
63.6172124201895
 20
23.24999954755264
 42
0.0
 10
61.86721242018939
 20
23.24999954755264
 42
0.4142135623730871
 10
61.34221242018941
 20
22.72499954755266
 42
0.0
 10
61.34221242018941
 20
10.99999954755262
 42
-0.4142135623730879
 10
60.29221242018945
 20
9.949999547552648
 42
0.0
 10
58.89221242018948
 20
9.949999547552648
 42
-0.4142135623731197
 10
57.84221242018941
 20
10.99999954755262
 42
0.0
 97
        0
 92
        7
 72
     1
 73
     1
 93
        8
 10
69.04221242018945
 20
22.72499954755266
 42
0.4142135623730871
 10
68.51721242018948
 20
23.24999954755264
 42
0.0
 10
66.76721242018948
 20
23.24999954755264
 42
0.4142135623731507
 10
66.24221242018939
 20
22.72499954755266
 42
0.0
 10
66.24221242018939
 20
7.67499954755264
 42
0.4142135623730891
 10
66.76721242018937
 20
7.149999547552652
 42
0.0
 10
68.51721242018948
 20
7.149999547552652
 42
0.4142135623730891
 10
69.04221242018945
 20
7.67499954755264
 42
0.0
 97
        0
 75
     0
 76
     1
 52
0.0
 41
0.2
 77
     0
 78
     2
 53
45.0
 43
-900.9423040692707
 44
-13.20000045244727
 45
-0.4490128060534576
 46
0.4490128060534577
 79
     0
 53
135.0
 43
-900.9423040692707
 44
-13.20000045244727
 45
-0.4490128060534577
 46
-0.4490128060534576
 79
     0
 47
0.057451373970553
 98
        8
 10
16.07985522843159
 20
15.16717319343819
 10
22.40451527184746
 20
18.84406173000365
 10
25.16436815106794
 20
15.51188119362336
 10
30.91406024704542
 20
16.20129719399414
 10
41.83847228436501
 20
16.66090946153576
 10
46.89820116053783
 20
19.41857586395985
 10
56.55768623780863
 20
18.72915746264765
 10
67.82707988503102
 20
19.18876973018927
  0
LINE
  5
C98
330
1A
100
AcDbEntity
  8
ZUWAKU
100
AcDbLine
 10
24.94221242018943
 20
23.2499995475526
 30
0.0
 11
26.86721242018939
 21
23.24999954755264
 31
0.0
  0
LINE
  5
C99
330
1A
100
AcDbEntity
  8
ZUWAKU
100
AcDbLine
 10
26.86721242018939
 20
20.44999954755264
 30
0.0
 11
24.94221242018943
 21
20.44999954755264
 31
0.0
  0
LINE
  5
C9A
330
1A
100
AcDbEntity
  8
ZUWAKU
100
AcDbLine
 10
24.94221242018943
 20
9.949999547552648
 30
0.0
 11
26.86721242018939
 21
9.949999547552648
 31
0.0
  0
LINE
  5
C9B
330
1A
100
AcDbEntity
  8
ZUWAKU
100
AcDbLine
 10
26.86721242018939
 20
7.149999547552652
 30
0.0
 11
24.94221242018943
 21
7.149999547552652
 31
0.0
  0
CIRCLE
  5
C9C
330
1A
100
AcDbEntity
  8
ZUWAKU
100
AcDbCircle
 10
25.99221242018938
 20
15.19999954755264
 30
0.0
 40
1.75
  0
ARC
  5
C9D
330
1A
100
AcDbEntity
  8
ZUWAKU
100
AcDbCircle
 10
15.49221242018939
 20
18.63479752219734
 30
0.0
 40
1.399999999999999
100
AcDbArc
 50
180.0000000000015
 51
224.9999999999988
  0
LINE
  5
C9E
330
1A
100
AcDbEntity
  8
ZUWAKU
100
AcDbLine
 10
23.54221242018945
 20
19.04999954755264
 30
0.0
 11
23.54221242018945
 21
11.34999954755265
 31
0.0
  0
LINE
  5
C9F
330
1A
100
AcDbEntity
  8
ZUWAKU
100
AcDbLine
 10
20.74221242018937
 20
11.34999954755265
 30
0.0
 11
20.74221242018937
 21
19.0499995475526
 31
0.0
  0
ARC
  5
CA0
330
1A
100
AcDbEntity
  8
ZUWAKU
100
AcDbCircle
 10
15.49221242018939
 20
18.63479752219734
 30
0.0
 40
4.199999999999998
100
AcDbArc
 50
180.0
 51
225.0
  0
ARC
  5
CA1
330
1A
100
AcDbEntity
  8
ZUWAKU
100
AcDbCircle
 10
15.84221242018941
 20
9.949999547552648
 30
0.0
 40
2.799999999999998
100
AcDbArc
 50
270.0
 51
0.0
  0
ARC
  5
CA2
330
1A
100
AcDbEntity
  8
ZUWAKU
100
AcDbCircle
 10
24.94221242018943
 20
11.34999954755265
 30
0.0
 40
4.199999999999998
100
AcDbArc
 50
180.0
 51
270.0
  0
ARC
  5
CA3
330
1A
100
AcDbEntity
  8
ZUWAKU
100
AcDbCircle
 10
14.44221242018943
 20
11.76520157290795
 30
0.0
 40
4.199999999999998
100
AcDbArc
 50
0.0
 51
45.0
  0
LINE
  5
CA4
330
1A
100
AcDbEntity
  8
ZUWAKU
100
AcDbLine
 10
17.41206090117293
 20
14.73505005389147
 30
0.0
 11
14.50226292652825
 21
17.64484802853614
 31
0.0
  0
LINE
  5
CA5
330
1A
100
AcDbEntity
  8
ZUWAKU
100
AcDbLine
 10
15.84221242018941
 20
10.47499954755265
 30
0.0
 11
15.84221242018941
 21
11.76520157290799
 31
0.0
  0
ARC
  5
CA6
330
1A
100
AcDbEntity
  8
ZUWAKU
100
AcDbCircle
 10
15.31721242018942
 20
10.47499954755265
 30
0.0
 40
0.525
100
AcDbArc
 50
270.0
 51
0.0
  0
ARC
  5
CA7
330
1A
100
AcDbEntity
  8
ZUWAKU
100
AcDbCircle
 10
14.44221242018943
 20
11.76520157290799
 30
0.0
 40
1.399999999999999
100
AcDbArc
 50
0.0
 51
45.0
  0
LINE
  5
CA8
330
1A
100
AcDbEntity
  8
ZUWAKU
100
AcDbLine
 10
11.81721242018942
 20
7.67499954755265
 30
0.0
 11
11.81721242018942
 21
9.42499954755265
 31
0.0
  0
ARC
  5
CA9
330
1A
100
AcDbEntity
  8
ZUWAKU
100
AcDbCircle
 10
12.34221242018941
 20
7.67499954755265
 30
0.0
 40
0.525
100
AcDbArc
 50
180.0
 51
270.0
  0
ARC
  5
CAA
330
1A
100
AcDbEntity
  8
ZUWAKU
100
AcDbCircle
 10
12.34221242018941
 20
9.42499954755265
 30
0.0
 40
0.525
100
AcDbArc
 50
90.0
 51
180.0
  0
LINE
  5
CAB
330
1A
100
AcDbEntity
  8
ZUWAKU
100
AcDbLine
 10
12.34221242018941
 20
7.149999547552652
 30
0.0
 11
15.84221242018941
 21
7.149999547552652
 31
0.0
  0
LINE
  5
CAC
330
1A
100
AcDbEntity
  8
ZUWAKU
100
AcDbLine
 10
12.34221242018941
 20
9.949999547552648
 30
0.0
 11
15.31721242018942
 21
9.949999547552648
 31
0.0
  0
LINE
  5
CAD
330
1A
100
AcDbEntity
  8
ZUWAKU
100
AcDbLine
 10
12.52236393920588
 20
15.66494904121382
 30
0.0
 11
15.43216191385055
 21
12.75515106656916
 31
0.0
  0
LINE
  5
CAE
330
1A
100
AcDbEntity
  8
ZUWAKU
100
AcDbLine
 10
18.64221242018948
 20
9.949999547552648
 30
0.0
 11
18.64221242018948
 21
11.76520157290799
 31
0.0
  0
ARC
  5
CAF
330
1A
100
AcDbEntity
  8
ZUWAKU
100
AcDbCircle
 10
24.94221242018943
 20
11.34999954755265
 30
0.0
 40
1.399999999999999
100
AcDbArc
 50
180.0
 51
270.0
  0
ARC
  5
CB0
330
1A
100
AcDbEntity
  8
ZUWAKU
100
AcDbCircle
 10
17.59221242018941
 20
22.72499954755264
 30
0.0
 40
0.525
100
AcDbArc
 50
0.0
 51
90.0
  0
ARC
  5
CB1
330
1A
100
AcDbEntity
  8
ZUWAKU
100
AcDbCircle
 10
17.59221242018941
 20
20.97499954755264
 30
0.0
 40
0.525
100
AcDbArc
 50
270.0
 51
0.0
  0
LINE
  5
CB2
330
1A
100
AcDbEntity
  8
ZUWAKU
100
AcDbLine
 10
14.09221242018941
 20
23.24999954755264
 30
0.0
 11
17.59221242018941
 21
23.24999954755264
 31
0.0
  0
ARC
  5
CB3
330
1A
100
AcDbEntity
  8
ZUWAKU
100
AcDbCircle
 10
14.61721242018938
 20
19.92499954755264
 30
0.0
 40
0.525
100
AcDbArc
 50
90.0
 51
180.0
  0
LINE
  5
CB4
330
1A
100
AcDbEntity
  8
ZUWAKU
100
AcDbLine
 10
14.09221242018941
 20
19.92499954755264
 30
0.0
 11
14.09221242018941
 21
18.6347975221973
 31
0.0
  0
LINE
  5
CB5
330
1A
100
AcDbEntity
  8
ZUWAKU
100
AcDbLine
 10
17.59221242018941
 20
20.44999954755264
 30
0.0
 11
14.61721242018938
 21
20.44999954755264
 31
0.0
  0
LINE
  5
CB6
330
1A
100
AcDbEntity
  8
ZUWAKU
100
AcDbLine
 10
11.29221242018945
 20
20.44999954755264
 30
0.0
 11
11.29221242018945
 21
18.6347975221973
 31
0.0
  0
ARC
  5
CB7
330
1A
100
AcDbEntity
  8
ZUWAKU
100
AcDbCircle
 10
14.09221242018941
 20
20.44999954755264
 30
0.0
 40
2.799999999999998
100
AcDbArc
 50
90.0
 51
180.0
  0
LINE
  5
CB8
330
1A
100
AcDbEntity
  8
ZUWAKU
100
AcDbLine
 10
18.11721242018939
 20
22.72499954755264
 30
0.0
 11
18.11721242018939
 21
20.97499954755264
 31
0.0
  0
ARC
  5
CB9
330
1A
100
AcDbEntity
  8
ZUWAKU
100
AcDbCircle
 10
24.94221242018943
 20
19.04999954755264
 30
0.0
 40
1.399999999999999
100
AcDbArc
 50
90.0
 51
180.0
  0
ARC
  5
CBA
330
1A
100
AcDbEntity
  8
ZUWAKU
100
AcDbCircle
 10
24.94221242018943
 20
19.0499995475526
 30
0.0
 40
4.199999999999998
100
AcDbArc
 50
90.0
 51
180.0
  0
LINE
  5
CBB
330
1A
100
AcDbEntity
  8
ZUWAKU
100
AcDbLine
 10
79.3266298133965
 20
29.99999954755264
 30
0.0
 11
79.32662981339672
 21
0.7999995475527158
 31
0.0
  0
LINE
  5
CBC
330
1A
100
AcDbEntity
  8
ZUWAKU
100
AcDbLine
 10
79.52662981339654
 20
29.99999954755264
 30
0.0
 11
79.52662981339675
 21
0.7999995475527158
 31
0.0
  0
LINE
  5
CBD
330
1A
100
AcDbEntity
  8
ZUWAKU
100
AcDbLine
 10
79.12662981339668
 20
29.99999954755264
 30
0.0
 11
79.12662981339668
 21
0.7999995475527158
 31
0.0
  0
LINE
  5
CBE
330
1A
100
AcDbEntity
  8
ZUWAKU
100
AcDbLine
 10
64.14221242018948
 20
9.949999547552648
 30
0.0
 11
64.14221242018948
 21
22.72499954755264
 31
0.0
  0
LINE
  5
CBF
330
1A
100
AcDbEntity
  8
ZUWAKU
100
AcDbLine
 10
61.34221242018941
 20
22.72499954755264
 30
0.0
 11
61.34221242018941
 21
10.99999954755264
 31
0.0
  0
LINE
  5
CC0
330
1A
100
AcDbEntity
  8
ZUWAKU
100
AcDbLine
 10
69.04221242018945
 20
7.67499954755265
 30
0.0
 11
69.04221242018945
 21
22.72499954755264
 31
0.0
  0
LINE
  5
CC1
330
1A
100
AcDbEntity
  8
ZUWAKU
100
AcDbLine
 10
66.24221242018939
 20
22.72499954755264
 30
0.0
 11
66.24221242018939
 21
7.67499954755265
 31
0.0
  0
ARC
  5
CC2
330
1A
100
AcDbEntity
  8
ZUWAKU
100
AcDbCircle
 10
49.79221242018945
 20
18.63479752219734
 30
0.0
 40
1.399999999999999
100
AcDbArc
 50
180.0000000000015
 51
224.9999999999988
  0
ARC
  5
CC3
330
1A
100
AcDbEntity
  8
ZUWAKU
100
AcDbCircle
 10
49.79221242018945
 20
18.63479752219734
 30
0.0
 40
4.199999999999998
100
AcDbArc
 50
180.0
 51
225.0
  0
LINE
  5
CC4
330
1A
100
AcDbEntity
  8
ZUWAKU
100
AcDbLine
 10
37.3148589023674
 20
19.20504674111607
 30
0.0
 11
36.05010715703156
 21
15.19999954755266
 31
0.0
  0
LINE
  5
CC5
330
1A
100
AcDbEntity
  8
ZUWAKU
100
AcDbLine
 10
40.69221242018943
 20
22.72499954755264
 30
0.0
 11
40.69221242018943
 21
7.67499954755265
 31
0.0
  0
LINE
  5
CC6
330
1A
100
AcDbEntity
  8
ZUWAKU
100
AcDbLine
 10
43.49221242018937
 20
7.67499954755265
 30
0.0
 11
43.49221242018937
 21
22.72499954755264
 31
0.0
  0
LINE
  5
CC7
330
1A
100
AcDbEntity
  8
ZUWAKU
100
AcDbLine
 10
55.04221242018945
 20
22.72499954755264
 30
0.0
 11
55.04221242018945
 21
9.949999547552648
 31
0.0
  0
LINE
  5
CC8
330
1A
100
AcDbEntity
  8
ZUWAKU
100
AcDbLine
 10
57.84221242018941
 20
10.99999954755264
 30
0.0
 11
57.84221242018941
 21
22.72499954755264
 31
0.0
  0
LINE
  5
CC9
330
1A
100
AcDbEntity
  8
ZUWAKU
100
AcDbLine
 10
32.64221242018948
 20
17.12499954755265
 30
0.0
 11
32.64221242018948
 21
22.72499954755264
 31
0.0
  0
LINE
  5
CCA
330
1A
100
AcDbEntity
  8
ZUWAKU
100
AcDbLine
 10
29.84221242018941
 20
22.72499954755264
 30
0.0
 11
29.84221242018941
 21
7.67499954755265
 31
0.0
  0
LINE
  5
CCB
330
1A
100
AcDbEntity
  8
ZUWAKU
100
AcDbLine
 10
35.67634735750527
 20
22.88309351571961
 30
0.0
 11
33.80807748287348
 21
16.96690557938567
 31
0.0
  0
LINE
  5
CCC
330
1A
100
AcDbEntity
  8
ZUWAKU
100
AcDbLine
 10
60.29221242018945
 20
9.949999547552648
 30
0.0
 11
58.89221242018948
 21
9.949999547552648
 31
0.0
  0
LINE
  5
CCD
330
1A
100
AcDbEntity
  8
ZUWAKU
100
AcDbLine
 10
57.84221242018941
 20
7.149999547552652
 30
0.0
 11
61.34221242018941
 21
7.149999547552652
 31
0.0
  0
LINE
  5
CCE
330
1A
100
AcDbEntity
  8
ZUWAKU
100
AcDbLine
 10
41.21721242018941
 20
7.149999547552652
 30
0.0
 11
42.96721242018941
 21
7.149999547552652
 31
0.0
  0
LINE
  5
CCF
330
1A
100
AcDbEntity
  8
ZUWAKU
100
AcDbLine
 10
35.67634735750527
 20
7.516905579385677
 30
0.0
 11
33.80807748287348
 21
13.43309351571961
 31
0.0
  0
ARC
  5
CD0
330
1A
100
AcDbEntity
  8
ZUWAKU
100
AcDbCircle
 10
33.30744658367814
 20
17.12499954755265
 30
0.0
 40
0.525
100
AcDbArc
 50
270.0
 51
342.4744316262769
  0
LINE
  5
CD1
330
1A
100
AcDbEntity
  8
ZUWAKU
100
AcDbLine
 10
33.30744658367814
 20
16.59999954755264
 30
0.0
 11
33.16721242018945
 21
16.59999954755264
 31
0.0
  0
LINE
  5
CD2
330
1A
100
AcDbEntity
  8
ZUWAKU
100
AcDbLine
 10
33.16721242018945
 20
13.79999954755264
 30
0.0
 11
33.30744658367814
 21
13.79999954755264
 31
0.0
  0
ARC
  5
CD3
330
1A
100
AcDbEntity
  8
ZUWAKU
100
AcDbCircle
 10
33.16721242018945
 20
17.12499954755265
 30
0.0
 40
0.525
100
AcDbArc
 50
180.0
 51
270.0
  0
LINE
  5
CD4
330
1A
100
AcDbEntity
  8
ZUWAKU
100
AcDbLine
 10
30.36721242018938
 20
7.149999547552652
 30
0.0
 11
32.11721242018938
 21
7.149999547552652
 31
0.0
  0
ARC
  5
CD5
330
1A
100
AcDbEntity
  8
ZUWAKU
100
AcDbCircle
 10
32.11721242018938
 20
7.67499954755265
 30
0.0
 40
0.525
100
AcDbArc
 50
270.0
 51
0.0
  0
LINE
  5
CD6
330
1A
100
AcDbEntity
  8
ZUWAKU
100
AcDbLine
 10
32.64221242018948
 20
7.67499954755265
 30
0.0
 11
32.64221242018948
 21
13.27499954755264
 31
0.0
  0
LINE
  5
CD7
330
1A
100
AcDbEntity
  8
ZUWAKU
100
AcDbLine
 10
27.39221242018948
 20
9.42499954755265
 30
0.0
 11
27.39221242018948
 21
7.67499954755265
 31
0.0
  0
ARC
  5
CD8
330
1A
100
AcDbEntity
  8
ZUWAKU
100
AcDbCircle
 10
26.86721242018939
 20
7.67499954755265
 30
0.0
 40
0.525
100
AcDbArc
 50
270.0
 51
0.0
  0
ARC
  5
CD9
330
1A
100
AcDbEntity
  8
ZUWAKU
100
AcDbCircle
 10
26.86721242018939
 20
9.42499954755265
 30
0.0
 40
0.525
100
AcDbArc
 50
0.0
 51
90.0
  0
ARC
  5
CDA
330
1A
100
AcDbEntity
  8
ZUWAKU
100
AcDbCircle
 10
30.36721242018938
 20
7.67499954755265
 30
0.0
 40
0.525
100
AcDbArc
 50
180.0
 51
270.0
  0
ARC
  5
CDB
330
1A
100
AcDbEntity
  8
ZUWAKU
100
AcDbCircle
 10
33.30744658367814
 20
13.27499954755264
 30
0.0
 40
0.525
100
AcDbArc
 50
17.52556837372303
 51
90.0
  0
ARC
  5
CDC
330
1A
100
AcDbEntity
  8
ZUWAKU
100
AcDbCircle
 10
33.16721242018945
 20
13.27499954755264
 30
0.0
 40
0.525
100
AcDbArc
 50
90.0
 51
180.0
  0
ARC
  5
CDD
330
1A
100
AcDbEntity
  8
ZUWAKU
100
AcDbCircle
 10
41.21721242018941
 20
7.67499954755265
 30
0.0
 40
0.525
100
AcDbArc
 50
180.0
 51
270.0
  0
LINE
  5
CDE
330
1A
100
AcDbEntity
  8
ZUWAKU
100
AcDbLine
 10
36.17697825670074
 20
7.149999547552652
 30
0.0
 11
37.87586763630975
 21
7.149999547552652
 31
0.0
  0
ARC
  5
CDF
330
1A
100
AcDbEntity
  8
ZUWAKU
100
AcDbCircle
 10
37.87586763630975
 20
7.67499954755265
 30
0.0
 40
0.525
100
AcDbArc
 50
270.0
 51
17.52556837372303
  0
LINE
  5
CE0
330
1A
100
AcDbEntity
  8
ZUWAKU
100
AcDbLine
 10
38.37649853550523
 20
7.833093515719625
 30
0.0
 11
36.05010715703156
 21
15.19999954755266
 31
0.0
  0
ARC
  5
CE1
330
1A
100
AcDbEntity
  8
ZUWAKU
100
AcDbCircle
 10
36.17697825670074
 20
7.67499954755265
 30
0.0
 40
0.525
100
AcDbArc
 50
197.5255683737229
 51
270.0
  0
ARC
  5
CE2
330
1A
100
AcDbEntity
  8
ZUWAKU
100
AcDbCircle
 10
57.84221242018941
 20
9.949999547552648
 30
0.0
 40
2.799999999999998
100
AcDbArc
 50
180.0
 51
270.0
  0
ARC
  5
CE3
330
1A
100
AcDbEntity
  8
ZUWAKU
100
AcDbCircle
 10
50.14221242018948
 20
9.949999547552648
 30
0.0
 40
2.799999999999998
100
AcDbArc
 50
270.0
 51
0.0
  0
LINE
  5
CE4
330
1A
100
AcDbEntity
  8
ZUWAKU
100
AcDbLine
 10
51.712060901173
 20
14.73505005389147
 30
0.0
 11
48.80226292652822
 21
17.64484802853614
 31
0.0
  0
LINE
  5
CE5
330
1A
100
AcDbEntity
  8
ZUWAKU
100
AcDbLine
 10
50.14221242018948
 20
10.47499954755265
 30
0.0
 11
50.14221242018948
 21
11.76520157290799
 31
0.0
  0
ARC
  5
CE6
330
1A
100
AcDbEntity
  8
ZUWAKU
100
AcDbCircle
 10
48.74221242018939
 20
11.76520157290799
 30
0.0
 40
1.399999999999999
100
AcDbArc
 50
0.0
 51
45.0
  0
ARC
  5
CE7
330
1A
100
AcDbEntity
  8
ZUWAKU
100
AcDbCircle
 10
49.61721242018938
 20
10.47499954755265
 30
0.0
 40
0.525
100
AcDbArc
 50
270.0
 51
0.0
  0
LINE
  5
CE8
330
1A
100
AcDbEntity
  8
ZUWAKU
100
AcDbLine
 10
46.11721242018939
 20
7.67499954755265
 30
0.0
 11
46.11721242018939
 21
9.42499954755265
 31
0.0
  0
ARC
  5
CE9
330
1A
100
AcDbEntity
  8
ZUWAKU
100
AcDbCircle
 10
46.64221242018948
 20
7.67499954755265
 30
0.0
 40
0.525
100
AcDbArc
 50
180.0
 51
270.0
  0
ARC
  5
CEA
330
1A
100
AcDbEntity
  8
ZUWAKU
100
AcDbCircle
 10
42.96721242018941
 20
7.67499954755265
 30
0.0
 40
0.525
100
AcDbArc
 50
270.0
 51
0.0
  0
ARC
  5
CEB
330
1A
100
AcDbEntity
  8
ZUWAKU
100
AcDbCircle
 10
46.64221242018948
 20
9.42499954755265
 30
0.0
 40
0.525
100
AcDbArc
 50
90.0
 51
180.0
  0
LINE
  5
CEC
330
1A
100
AcDbEntity
  8
ZUWAKU
100
AcDbLine
 10
46.64221242018948
 20
9.949999547552648
 30
0.0
 11
49.61721242018938
 21
9.949999547552648
 31
0.0
  0
LINE
  5
CED
330
1A
100
AcDbEntity
  8
ZUWAKU
100
AcDbLine
 10
46.64221242018948
 20
7.149999547552652
 30
0.0
 11
50.14221242018948
 21
7.149999547552652
 31
0.0
  0
LINE
  5
CEE
330
1A
100
AcDbEntity
  8
ZUWAKU
100
AcDbLine
 10
46.82236393920595
 20
15.66494904121382
 30
0.0
 11
49.73216191385063
 21
12.75515106656916
 31
0.0
  0
LINE
  5
CEF
330
1A
100
AcDbEntity
  8
ZUWAKU
100
AcDbLine
 10
52.94221242018942
 20
9.949999547552648
 30
0.0
 11
52.94221242018942
 21
11.76520157290799
 31
0.0
  0
ARC
  5
CF0
330
1A
100
AcDbEntity
  8
ZUWAKU
100
AcDbCircle
 10
48.74221242018939
 20
11.76520157290795
 30
0.0
 40
4.199999999999998
100
AcDbArc
 50
0.0
 51
45.0
  0
ARC
  5
CF1
330
1A
100
AcDbEntity
  8
ZUWAKU
100
AcDbCircle
 10
58.89221242018948
 20
10.99999954755264
 30
0.0
 40
1.049999999999998
100
AcDbArc
 50
180.0
 51
270.0
  0
ARC
  5
CF2
330
1A
100
AcDbEntity
  8
ZUWAKU
100
AcDbCircle
 10
61.34221242018941
 20
9.949999547552648
 30
0.0
 40
2.799999999999998
100
AcDbArc
 50
270.0
 51
0.0
  0
LINE
  5
CF3
330
1A
100
AcDbEntity
  8
ZUWAKU
100
AcDbLine
 10
66.76721242018948
 20
7.149999547552652
 30
0.0
 11
68.51721242018948
 21
7.149999547552652
 31
0.0
  0
ARC
  5
CF4
330
1A
100
AcDbEntity
  8
ZUWAKU
100
AcDbCircle
 10
66.76721242018948
 20
7.67499954755265
 30
0.0
 40
0.525
100
AcDbArc
 50
180.0
 51
270.0
  0
ARC
  5
CF5
330
1A
100
AcDbEntity
  8
ZUWAKU
100
AcDbCircle
 10
60.29221242018945
 20
10.99999954755264
 30
0.0
 40
1.049999999999998
100
AcDbArc
 50
270.0
 51
0.0
  0
ARC
  5
CF6
330
1A
100
AcDbEntity
  8
ZUWAKU
100
AcDbCircle
 10
68.51721242018948
 20
7.67499954755265
 30
0.0
 40
0.525
100
AcDbArc
 50
270.0
 51
0.0
  0
LINE
  5
CF7
330
1A
100
AcDbEntity
  8
ZUWAKU
100
AcDbLine
 10
42.96721242018941
 20
23.24999954755264
 30
0.0
 11
41.21721242018941
 21
23.24999954755264
 31
0.0
  0
ARC
  5
CF8
330
1A
100
AcDbEntity
  8
ZUWAKU
100
AcDbCircle
 10
32.11721242018938
 20
22.72499954755264
 30
0.0
 40
0.525
100
AcDbArc
 50
0.0
 51
90.0
  0
LINE
  5
CF9
330
1A
100
AcDbEntity
  8
ZUWAKU
100
AcDbLine
 10
32.11721242018938
 20
23.24999954755264
 30
0.0
 11
30.36721242018938
 21
23.24999954755264
 31
0.0
  0
ARC
  5
CFA
330
1A
100
AcDbEntity
  8
ZUWAKU
100
AcDbCircle
 10
26.86721242018939
 20
22.72499954755264
 30
0.0
 40
0.525
100
AcDbArc
 50
0.0
 51
90.0
  0
ARC
  5
CFB
330
1A
100
AcDbEntity
  8
ZUWAKU
100
AcDbCircle
 10
30.36721242018938
 20
22.72499954755264
 30
0.0
 40
0.525
100
AcDbArc
 50
90.0
 51
180.0
  0
ARC
  5
CFC
330
1A
100
AcDbEntity
  8
ZUWAKU
100
AcDbCircle
 10
26.86721242018939
 20
20.97499954755264
 30
0.0
 40
0.525
100
AcDbArc
 50
270.0
 51
0.0
  0
LINE
  5
CFD
330
1A
100
AcDbEntity
  8
ZUWAKU
100
AcDbLine
 10
27.39221242018948
 20
22.72499954755264
 30
0.0
 11
27.39221242018948
 21
20.97499954755264
 31
0.0
  0
ARC
  5
CFE
330
1A
100
AcDbEntity
  8
ZUWAKU
100
AcDbCircle
 10
41.21721242018941
 20
22.72499954755264
 30
0.0
 40
0.525
100
AcDbArc
 50
90.0
 51
180.0
  0
LINE
  5
CFF
330
1A
100
AcDbEntity
  8
ZUWAKU
100
AcDbLine
 10
36.17697825670074
 20
23.24999954755264
 30
0.0
 11
37.87586763630975
 21
23.24999954755264
 31
0.0
  0
ARC
  5
D00
330
1A
100
AcDbEntity
  8
ZUWAKU
100
AcDbCircle
 10
37.87586763630975
 20
22.72499954755264
 30
0.0
 40
0.525
100
AcDbArc
 50
342.4744316262769
 51
90.0
  0
LINE
  5
D01
330
1A
100
AcDbEntity
  8
ZUWAKU
100
AcDbLine
 10
38.37649853550523
 20
22.56690557938568
 30
0.0
 11
37.3148589023674
 21
19.20504674111607
 31
0.0
  0
ARC
  5
D02
330
1A
100
AcDbEntity
  8
ZUWAKU
100
AcDbCircle
 10
36.17697825670074
 20
22.72499954755264
 30
0.0
 40
0.525
100
AcDbArc
 50
90.0
 51
162.4744316262769
  0
LINE
  5
D03
330
1A
100
AcDbEntity
  8
ZUWAKU
100
AcDbLine
 10
48.39221242018947
 20
23.24999954755264
 30
0.0
 11
51.89221242018948
 21
23.24999954755264
 31
0.0
  0
LINE
  5
D04
330
1A
100
AcDbEntity
  8
ZUWAKU
100
AcDbLine
 10
51.89221242018948
 20
20.44999954755264
 30
0.0
 11
48.91721242018945
 21
20.44999954755264
 31
0.0
  0
ARC
  5
D05
330
1A
100
AcDbEntity
  8
ZUWAKU
100
AcDbCircle
 10
48.91721242018945
 20
19.92499954755264
 30
0.0
 40
0.525
100
AcDbArc
 50
90.0
 51
180.0
  0
LINE
  5
D06
330
1A
100
AcDbEntity
  8
ZUWAKU
100
AcDbLine
 10
48.39221242018947
 20
19.92499954755264
 30
0.0
 11
48.39221242018947
 21
18.6347975221973
 31
0.0
  0
ARC
  5
D07
330
1A
100
AcDbEntity
  8
ZUWAKU
100
AcDbCircle
 10
42.96721242018941
 20
22.72499954755264
 30
0.0
 40
0.525
100
AcDbArc
 50
0.0
 51
90.0
  0
LINE
  5
D08
330
1A
100
AcDbEntity
  8
ZUWAKU
100
AcDbLine
 10
45.59221242018941
 20
20.44999954755264
 30
0.0
 11
45.59221242018941
 21
18.6347975221973
 31
0.0
  0
ARC
  5
D09
330
1A
100
AcDbEntity
  8
ZUWAKU
100
AcDbCircle
 10
48.39221242018947
 20
20.44999954755264
 30
0.0
 40
2.799999999999998
100
AcDbArc
 50
90.0
 51
180.0
  0
ARC
  5
D0A
330
1A
100
AcDbEntity
  8
ZUWAKU
100
AcDbCircle
 10
57.31721242018942
 20
22.72499954755264
 30
0.0
 40
0.525
100
AcDbArc
 50
0.0
 51
90.0
  0
ARC
  5
D0B
330
1A
100
AcDbEntity
  8
ZUWAKU
100
AcDbCircle
 10
55.56721242018943
 20
22.72499954755264
 30
0.0
 40
0.525
100
AcDbArc
 50
90.0
 51
180.0
  0
LINE
  5
D0C
330
1A
100
AcDbEntity
  8
ZUWAKU
100
AcDbLine
 10
57.31721242018942
 20
23.24999954755264
 30
0.0
 11
55.56721242018943
 21
23.24999954755264
 31
0.0
  0
ARC
  5
D0D
330
1A
100
AcDbEntity
  8
ZUWAKU
100
AcDbCircle
 10
51.89221242018948
 20
22.72499954755264
 30
0.0
 40
0.525
100
AcDbArc
 50
0.0
 51
90.0
  0
ARC
  5
D0E
330
1A
100
AcDbEntity
  8
ZUWAKU
100
AcDbCircle
 10
51.89221242018948
 20
20.97499954755264
 30
0.0
 40
0.525
100
AcDbArc
 50
270.0
 51
0.0
  0
LINE
  5
D0F
330
1A
100
AcDbEntity
  8
ZUWAKU
100
AcDbLine
 10
52.41721242018945
 20
22.72499954755264
 30
0.0
 11
52.41721242018945
 21
20.97499954755264
 31
0.0
  0
LINE
  5
D10
330
1A
100
AcDbEntity
  8
ZUWAKU
100
AcDbLine
 10
68.51721242018948
 20
23.24999954755264
 30
0.0
 11
66.76721242018948
 21
23.24999954755264
 31
0.0
  0
ARC
  5
D11
330
1A
100
AcDbEntity
  8
ZUWAKU
100
AcDbCircle
 10
66.76721242018948
 20
22.72499954755264
 30
0.0
 40
0.525
100
AcDbArc
 50
90.0
 51
180.0
  0
ARC
  5
D12
330
1A
100
AcDbEntity
  8
ZUWAKU
100
AcDbCircle
 10
63.61721242018939
 20
22.72499954755264
 30
0.0
 40
0.525
100
AcDbArc
 50
0.0
 51
90.0
  0
LINE
  5
D13
330
1A
100
AcDbEntity
  8
ZUWAKU
100
AcDbLine
 10
63.61721242018939
 20
23.24999954755264
 30
0.0
 11
61.86721242018939
 21
23.24999954755264
 31
0.0
  0
ARC
  5
D14
330
1A
100
AcDbEntity
  8
ZUWAKU
100
AcDbCircle
 10
61.86721242018939
 20
22.72499954755264
 30
0.0
 40
0.525
100
AcDbArc
 50
90.0
 51
180.0
  0
ARC
  5
D15
330
1A
100
AcDbEntity
  8
ZUWAKU
100
AcDbCircle
 10
68.51721242018948
 20
22.72499954755264
 30
0.0
 40
0.525
100
AcDbArc
 50
0.0
 51
90.0
  0
TEXT
  5
D16
330
1A
100
AcDbEntity
  8
MOJI
100
AcDbText
 10
239.8272029462592
 20
18.00492060496003
 30
0.0
 40
5.599999999999998
  1
ブラケット正面打（吊）固定式
 41
0.9
  7
ｽﾀｲﾙ1
100
AcDbText
  0
TEXT
  5
D17
330
1A
100
AcDbEntity
  8
MOJI
100
AcDbText
 10
239.8272029462592
 20
3.204920604960068
 30
0.0
 40
5.599999999999998
  1
１２０－４－１０
 41
0.9
  7
ｽﾀｲﾙ1
100
AcDbText
  0
LINE
  5
D18
330
1A
100
AcDbEntity
  8
ZUWAKU
100
AcDbLine
 10
208.2466015554762
 20
29.99999954755264
 30
0.0
 11
208.2466015554762
 21
0.7999995475527158
 31
0.0
  0
LINE
  5
D19
330
1A
100
AcDbEntity
  8
ZUWAKU
100
AcDbLine
 10
208.646601555476
 20
29.99999954755264
 30
0.0
 11
208.6466015554762
 21
0.7999995475527158
 31
0.0
  0
LINE
  5
D1A
330
1A
100
AcDbEntity
  8
ZUWAKU
100
AcDbLine
 10
208.4466015554759
 20
29.99999954755264
 30
0.0
 11
208.4466015554762
 21
0.7999995475527158
 31
0.0
  0
TEXT
  5
D1B
330
1A
100
AcDbEntity
  8
ZUWAKU
100
AcDbText
 10
209.7240465776857
 20
9.655356085938265
 30
0.0
 40
4.0
  1
サイズ
 41
0.9
  7
ｽﾀｲﾙ1
100
AcDbText
  0
TEXT
  5
D1C
330
1A
100
AcDbEntity
  8
ZUWAKU
100
AcDbText
 10
209.7240465776855
 20
24.05535608593822
 30
0.0
 40
4.0
  1
品名
 41
0.9
  7
ｽﾀｲﾙ1
100
AcDbText
  0
TEXT
  5
D1D
330
1A
100
AcDbEntity
  8
ZUWAKU
100
AcDbText
 10
654.5120762650951
 20
18.00492060496003
 30
0.0
 40
5.599999999999998
  1
　　．　．　　
 41
0.9
  7
ｽﾀｲﾙ1
100
AcDbText
  0
LINE
  5
D1E
330
1A
100
AcDbEntity
  8
ZUWAKU
100
AcDbLine
 10
648.8172027756125
 20
15.19999954755267
 30
0.0
 11
697.2490108139496
 21
15.19999954755267
 31
0.0
  0
LINE
  5
D1F
330
1A
100
AcDbEntity
  8
ZUWAKU
100
AcDbLine
 10
648.8172027756125
 20
15.39999954755268
 30
0.0
 11
697.2490108139496
 21
15.39999954755267
 31
0.0
  0
LINE
  5
D20
330
1A
100
AcDbEntity
  8
ZUWAKU
100
AcDbLine
 10
648.8172027756125
 20
15.59999954755267
 30
0.0
 11
697.2490108139496
 21
15.59999954755267
 31
0.0
  0
LINE
  5
D21
330
1A
100
AcDbEntity
  8
ZUWAKU
100
AcDbLine
 10
505.1991797635491
 20
15.19999954755268
 30
0.0
 11
552.5269560315207
 21
15.19999954755268
 31
0.0
  0
LINE
  5
D22
330
1A
100
AcDbEntity
  8
ZUWAKU
100
AcDbLine
 10
505.1991797635491
 20
15.39999954755267
 30
0.0
 11
552.5269560315207
 21
15.39999954755267
 31
0.0
  0
LINE
  5
D23
330
1A
100
AcDbEntity
  8
ZUWAKU
100
AcDbLine
 10
505.1991797635491
 20
15.59999954755267
 30
0.0
 11
552.5269560315207
 21
15.59999954755267
 31
0.0
  0
LINE
  5
D24
330
1A
100
AcDbEntity
  8
ZUWAKU
100
AcDbLine
 10
447.6243642363995
 20
29.99999954755264
 30
0.0
 11
447.6243642363995
 21
0.7999995475527158
 31
0.0
  0
LINE
  5
D25
330
1A
100
AcDbEntity
  8
ZUWAKU
100
AcDbLine
 10
447.8243642363994
 20
29.99999954755264
 30
0.0
 11
447.8243642363998
 21
0.7999995475527158
 31
0.0
  0
LINE
  5
D26
330
1A
100
AcDbEntity
  8
ZUWAKU
100
AcDbLine
 10
447.4243642363996
 20
29.99999954755264
 30
0.0
 11
447.4243642363996
 21
0.7999995475527158
 31
0.0
  0
TEXT
  5
D27
330
1A
100
AcDbEntity
  8
MOJI
100
AcDbText
 10
528.0409082377211
 20
18.00492060496003
 30
0.0
 40
5.599999999999998
  1
Ａ３
 41
0.9
  7
ｽﾀｲﾙ1
100
AcDbText
  0
LINE
  5
D28
330
1A
100
AcDbEntity
  8
ZUWAKU
100
AcDbLine
 10
504.9991797635491
 20
29.99999954755264
 30
0.0
 11
504.9991797635492
 21
0.7999995475527158
 31
0.0
  0
LINE
  5
D29
330
1A
100
AcDbEntity
  8
ZUWAKU
100
AcDbLine
 10
505.1991797635491
 20
29.99999954755264
 30
0.0
 11
505.1991797635493
 21
0.7999995475527158
 31
0.0
  0
LINE
  5
D2A
330
1A
100
AcDbEntity
  8
ZUWAKU
100
AcDbLine
 10
504.7991797635492
 20
29.99999954755264
 30
0.0
 11
504.7991797635492
 21
0.7999995475527158
 31
0.0
  0
TEXT
  5
D2B
330
1A
100
AcDbEntity
  8
MOJI
100
AcDbText
 10
463.2464322564103
 20
11.94261726921262
 30
0.0
 40
5.599999999999998
  1
ＬＨ０７Ｔ
 41
0.9
  7
ｽﾀｲﾙ1
100
AcDbText
  0
TEXT
  5
D2C
330
1A
100
AcDbEntity
  8
ZUWAKU
100
AcDbText
 10
506.6766247857589
 20
9.655356085938265
 30
0.0
 40
4.0
  1
縮尺
 41
0.9
  7
ｽﾀｲﾙ1
100
AcDbText
  0
TEXT
  5
D2D
330
1A
100
AcDbEntity
  8
MOJI
100
AcDbText
 10
528.0409082377211
 20
3.204920604960068
 30
0.0
 40
5.599999999999998
  1
１/２
 41
0.9
  7
ｽﾀｲﾙ1
100
AcDbText
  0
TEXT
  5
D2E
330
1A
100
AcDbEntity
  8
ZUWAKU
100
AcDbText
 10
449.3018092586091
 20
24.05535608593822
 30
0.0
 40
4.0
  1
品番
 41
0.9
  7
ｽﾀｲﾙ1
100
AcDbText
  0
TEXT
  5
D2F
330
1A
100
AcDbEntity
  8
ZUWAKU
100
AcDbText
 10
506.6766247857587
 20
24.05535608593822
 30
0.0
 40
4.0
  1
用紙
 41
0.9
  7
ｽﾀｲﾙ1
100
AcDbText
  0
LINE
  5
D30
330
1A
100
AcDbEntity
  8
ZUWAKU
100
AcDbLine
 10
648.6172027756124
 20
29.99999954755264
 30
0.0
 11
648.6172027756128
 21
0.7999995475527158
 31
0.0
  0
LINE
  5
D31
330
1A
100
AcDbEntity
  8
ZUWAKU
100
AcDbLine
 10
648.8172027756125
 20
29.99999954755264
 30
0.0
 11
648.817202775613
 21
0.7999995475527158
 31
0.0
  0
LINE
  5
D32
330
1A
100
AcDbEntity
  8
ZUWAKU
100
AcDbLine
 10
648.4172027756128
 20
29.99999954755264
 30
0.0
 11
648.4172027756128
 21
0.7999995475527158
 31
0.0
  0
LINE
  5
D33
330
1A
100
AcDbEntity
  8
ZUWAKU
100
AcDbLine
 10
552.7269560315207
 20
29.99999954755264
 30
0.0
 11
552.7269560315207
 21
0.7999995475527158
 31
0.0
  0
LINE
  5
D34
330
1A
100
AcDbEntity
  8
ZUWAKU
100
AcDbLine
 10
552.9269560315206
 20
29.99999954755264
 30
0.0
 11
552.9269560315206
 21
0.7999995475527158
 31
0.0
  0
LINE
  5
D35
330
1A
100
AcDbEntity
  8
ZUWAKU
100
AcDbLine
 10
552.5269560315207
 20
29.99999954755264
 30
0.0
 11
552.5269560315207
 21
0.7999995475527158
 31
0.0
  0
TEXT
  5
D36
330
1A
100
AcDbEntity
  8
ZUWAKU
100
AcDbText
 10
650.2946477978222
 20
24.05535608593822
 30
0.0
 40
4.0
  1
DATE
 41
0.9
  7
ｽﾀｲﾙ1
100
AcDbText
  0
LINE
  5
D37
330
1A
100
AcDbEntity
  8
ZUWAKU
100
AcDbLine
 10
697.2490108139496
 20
29.99999954755264
 30
0.0
 11
697.2490108139496
 21
0.7999995475527158
 31
0.0
  0
LINE
  5
D38
330
1A
100
AcDbEntity
  8
ZUWAKU
100
AcDbLine
 10
697.4490108139495
 20
29.99999954755264
 30
0.0
 11
697.4490108139495
 21
0.7999995475527158
 31
0.0
  0
LINE
  5
D39
330
1A
100
AcDbEntity
  8
ZUWAKU
100
AcDbLine
 10
697.6490108139493
 20
29.99999954755264
 30
0.0
 11
697.6490108139496
 21
0.7999995475527158
 31
0.0
  0
LINE
  5
D3A
330
1A
100
AcDbEntity
  8
ZUWAKU
100
AcDbLine
 10
697.8490108139496
 20
29.99999954755264
 30
0.0
 11
697.8490108139496
 21
0.7999995475527158
 31
0.0
  0
TEXT
  5
D3B
330
1A
100
AcDbEntity
  8
ZUWAKU
100
AcDbText
 10
708.5280844576519
 20
17.55383888323944
 30
0.0
 40
6.0
  1
積水化学工業株式会社
 41
0.9
  7
ｽﾀｲﾙ1
100
AcDbText
  0
TEXT
  5
D3C
330
1A
100
AcDbEntity
  8
ZUWAKU
100
AcDbText
 10
708.5280844576519
 20
6.648839861406712
 30
0.0
 40
6.0
  1
建材事業部
 41
0.9
  7
ｽﾀｲﾙ1
100
AcDbText
  0
TEXT
  5
D45
330
1A
100
AcDbEntity
  8
SUNPOU
 62
     4
100
AcDbText
 10
602.3358804799568
 20
347.1046726517679
 30
0.0
 40
6.0
  1
3-φ4.2
100
AcDbText
1001
ACAD
1000
MTEXTBEGIN
1070
    73
1070
     1
1070
    44
1040
1.0
1070
    74
1070
     0
1000
MTEXTEND
1000
MTEXTBEGIN
1070
    73
1070
     1
1070
    44
1040
1.0
1070
    74
1070
     0
1000
MTEXTEND
  0
LINE
  5
D46
330
1A
100
AcDbEntity
  8
0
  6
BYBLOCK
 62
     0
100
AcDbLine
 10
579.2521526759093
 20
316.5038154292923
 30
0.0
 11
574.2088938786856
 21
311.5111556356216
 31
0.0
  0
LINE
  5
D47
330
1A
100
AcDbEntity
  8
0
  6
BYBLOCK
 62
     0
100
AcDbLine
 10
574.2088938786856
 20
311.5111556356216
 30
0.0
 11
577.3603030781122
 21
317.8695934287341
 31
0.0
  0
LINE
  5
D48
330
1A
100
AcDbEntity
  8
0
  6
BYBLOCK
 62
     0
100
AcDbLine
 10
574.2088938786856
 20
311.5111556356216
 30
0.0
 11
578.3062278770107
 21
317.1867044290132
 31
0.0
  0
LINE
  5
D49
330
1A
100
AcDbEntity
  8
SUNPOU
  6
CONTINUOUS
 62
     4
100
AcDbLine
 10
578.3062278770107
 20
317.1867044290132
 30
0.0
 11
598.4609731760815
 21
345.1046726517679
 31
0.0
1001
ACAD
1000
DSTYLE
1002
{
1070
     6
1000
OPEN
1070
    41
1040
7.0
1070
    42
1040
6.0
1070
    43
1040
14.0
1070
    44
1040
3.0
1070
    73
1070
     0
1070
    74
1070
     0
1070
    77
1070
     3
1070
   140
1040
6.0
1070
   141
1040
150.0
1070
   147
1040
2.0
1070
   172
1070
     1
1070
   173
1070
     1
1070
   176
1070
     4
1070
   177
1070
     4
1070
   178
1070
     4
1070
   271
1070
     0
1070
   272
1070
     2
1070
   288
1070
     1
1070
   341
1005
6D
1070
   343
1005
6D
1070
   344
1005
6D
1002
}
  0
LINE
  5
D4A
330
1A
100
AcDbEntity
  8
SUNPOU
  6
CONTINUOUS
 62
     4
100
AcDbLine
 10
598.4609731760815
 20
345.1046726517679
 30
0.0
 11
600.3358804799567
 21
345.1046726517679
 31
0.0
1001
ACAD
1000
DSTYLE
1002
{
1070
     6
1000
OPEN
1070
    41
1040
7.0
1070
    42
1040
6.0
1070
    43
1040
14.0
1070
    44
1040
3.0
1070
    73
1070
     0
1070
    74
1070
     0
1070
    77
1070
     3
1070
   140
1040
6.0
1070
   141
1040
150.0
1070
   147
1040
2.0
1070
   172
1070
     1
1070
   173
1070
     1
1070
   176
1070
     4
1070
   177
1070
     4
1070
   178
1070
     4
1070
   271
1070
     0
1070
   272
1070
     2
1070
   288
1070
     1
1070
   341
1005
6D
1070
   343
1005
6D
1070
   344
1005
6D
1002
}
  0
LINE
  5
D4B
330
1A
100
AcDbEntity
  8
SUNPOU
  6
CONTINUOUS
 62
     4
100
AcDbLine
 10
600.3358804799567
 20
345.1046726517679
 30
0.0
 11
633.5358804799568
 21
345.1046726517679
 31
0.0
1001
ACAD
1000
DSTYLE
1002
{
1070
     6
1000
OPEN
1070
    41
1040
7.0
1070
    42
1040
6.0
1070
    43
1040
14.0
1070
    44
1040
3.0
1070
    73
1070
     0
1070
    74
1070
     0
1070
    77
1070
     3
1070
   140
1040
6.0
1070
   141
1040
150.0
1070
   147
1040
2.0
1070
   172
1070
     1
1070
   173
1070
     1
1070
   176
1070
     4
1070
   177
1070
     4
1070
   178
1070
     4
1070
   271
1070
     0
1070
   272
1070
     2
1070
   288
1070
     1
1070
   341
1005
6D
1070
   343
1005
6D
1070
   344
1005
6D
1002
}
  0
VIEWPORT
  5
22
330
17
100
AcDbEntity
 67
     1
  8
0
100
AcDbViewport
 10
313.6808219178082
 20
148.5
 30
0.0
 40
627.3616438356165
 41
297.0
 68
     2
 69
     1
1001
ACAD
1000
MVIEW
1002
{
1070
    16
1010
0.0
1020
0.0
1030
0.0
1010
0.0
1020
0.0
1030
1.0
1040
0.0
1040
297.0
1040
313.6808219178082
1040
148.5
1040
50.0
1040
0.0
1040
0.0
1070
     0
1070
   100
1070
     1
1070
     0
1070
     0
1070
     0
1070
     0
1070
     0
1040
0.0
1040
0.0
1040
0.0
1040
1.0
1040
1.0
1040
10.0
1040
10.0
1070
     0
1002
{
1002
}
1002
}
  0
VIEWPORT
  5
64
330
17
100
AcDbEntity
 67
     1
  8
VIEWPORT
100
AcDbViewport
 10
210.0
 20
148.5
 30
0.0
 40
420.0
 41
297.0
 68
     1
 69
     2
1001
ACAD
1000
MVIEW
1002
{
1070
    16
1010
0.0
1020
0.0
1030
0.0
1010
0.0
1020
0.0
1030
1.0
1040
0.0
1040
605.8799999999998
1040
420.0
1040
297.0
1040
50.0
1040
0.0
1040
0.0
1070
     0
1070
   100
1070
     1
1070
     0
1070
     0
1070
     0
1070
     0
1070
     0
1040
0.0
1040
0.0
1040
0.0
1040
10.0
1040
10.0
1040
0.0
1040
0.0
1070
     0
1002
{
1002
}
1002
}
  0
ENDSEC
  0
SECTION
  2
OBJECTS
  0
DICTIONARY
  5
C
330
0
100
AcDbDictionary
  3
ACAD_GROUP
350
D
  3
ACAD_LAYOUT
350
9E3
  3
ACAD_MLINESTYLE
350
E
  3
ACAD_PLOTSETTINGS
350
9E4
  3
ACAD_PLOTSTYLENAME
350
9E1
  3
ACDBHEADERROUNDTRIPXREC
350
D4D
  0
DICTIONARY
  5
A12
330
1A
100
AcDbDictionary
280
     1
  3
ACAD_LAYOUTSELFREF
360
D6F
  0
DICTIONARY
  5
A10
330
17
100
AcDbDictionary
280
     1
  3
ACAD_LAYOUTSELFREF
360
D6E
  0
DICTIONARY
  5
D
102
{ACAD_REACTORS
330
C
102
}
330
C
100
AcDbDictionary
  0
DICTIONARY
  5
9E3
102
{ACAD_REACTORS
330
C
102
}
330
C
100
AcDbDictionary
  0
DICTIONARY
  5
E
102
{ACAD_REACTORS
330
C
102
}
330
C
100
AcDbDictionary
  3
STANDARD
350
13
  0
DICTIONARY
  5
9E4
102
{ACAD_REACTORS
330
C
102
}
330
C
100
AcDbDictionary
  0
ACDBDICTIONARYWDFLT
  5
9E1
102
{ACAD_REACTORS
330
C
102
}
330
C
100
AcDbDictionary
281
     1
  3
Normal
350
9E2
100
AcDbDictionaryWithDefault
340
9E2
1001
ACAD
1000
TREAT_AS_HARD
1070
     0
1000
TREAT_AS_HARD
1070
     0
  0
DICTIONARY
  5
D4D
102
{ACAD_REACTORS
330
C
102
}
330
C
100
AcDbDictionary
  3
TSTACKALIGN
350
D4E
  3
TSTACKSIZE
350
D4F
  3
HYPERLINKBASE
350
D50
  3
STYLESHEET
350
D51
  3
LAYOUTDICT
350
D52
  3
PLOTSETDICT
350
D53
  3
PLOTSTYLNAMDICT
350
D54
  3
LWETCUNION
350
D55
  3
INSUNITS
350
D56
  3
CEPSNTYPE
350
D57
  3
FINGERPRINTGUID
350
D58
  3
VERSIONGUID
350
D59
  3
PSVPSCALE
350
D5A
  3
DIMSTYLEDATA
350
D5B
  3
PUCSORTHOREF
350
D5C
  3
PUCSORTHOVIEW
350
D5D
  3
PUCSBASE
350
D5E
  3
PUCSORGTOP
350
D5F
  3
PUCSORGBOTTOM
350
D60
  3
PUCSORGLEFT
350
D61
  3
PUCSORGRIGHT
350
D62
  3
PUCSORGFRONT
350
D63
  3
PUCSORGBACK
350
D64
  3
UCSORTHOREF
350
D65
  3
UCSORTHOVIEW
350
D66
  3
UCSBASE
350
D67
  3
UCSORGTOP
350
D68
  3
UCSORGBOTTOM
350
D69
  3
UCSORGLEFT
350
D6A
  3
UCSORGRIGHT
350
D6B
  3
UCSORGFRONT
350
D6C
  3
UCSORGBACK
350
D6D
  0
XRECORD
  5
D6F
102
{ACAD_REACTORS
330
A12
102
}
330
A12
100
AcDbXrecord
340
1A
  0
XRECORD
  5
D6E
102
{ACAD_REACTORS
330
A10
102
}
330
A10
100
AcDbXrecord
340
17
  0
MLINESTYLE
  5
13
102
{ACAD_REACTORS
330
E
102
}
330
E
100
AcDbMlineStyle
  2
STANDARD
 70
     0
  3

 62
     0
 51
90.0
 52
90.0
 71
     2
 49
0.5
 62
   256
  6
BYLAYER
 49
-0.5
 62
   256
  6
BYLAYER
  0
ACDBPLACEHOLDER
  5
9E2
102
{ACAD_REACTORS
330
9E1
102
}
330
9E1
100
AcDbPlaceHolder
280
     0
  0
XRECORD
  5
D4E
102
{ACAD_REACTORS
330
D4D
102
}
330
D4D
100
AcDbXrecord
 90
        1
  0
XRECORD
  5
D4F
102
{ACAD_REACTORS
330
D4D
102
}
330
D4D
100
AcDbXrecord
 90
       70
  0
XRECORD
  5
D50
102
{ACAD_REACTORS
330
D4D
102
}
330
D4D
100
AcDbXrecord
  1

  0
XRECORD
  5
D51
102
{ACAD_REACTORS
330
D4D
102
}
330
D4D
100
AcDbXrecord
  1
print.ctb
  0
XRECORD
  5
D52
102
{ACAD_REACTORS
330
D4D
102
}
330
D4D
100
AcDbXrecord
340
9E3
  0
XRECORD
  5
D53
102
{ACAD_REACTORS
330
D4D
102
}
330
D4D
100
AcDbXrecord
340
9E4
  0
XRECORD
  5
D54
102
{ACAD_REACTORS
330
D4D
102
}
330
D4D
100
AcDbXrecord
340
9E1
  0
XRECORD
  5
D55
102
{ACAD_REACTORS
330
D4D
102
}
330
D4D
100
AcDbXrecord
 90
    14877
  0
XRECORD
  5
D56
102
{ACAD_REACTORS
330
D4D
102
}
330
D4D
100
AcDbXrecord
 90
        0
  0
XRECORD
  5
D57
102
{ACAD_REACTORS
330
D4D
102
}
330
D4D
100
AcDbXrecord
 90
        0
  0
XRECORD
  5
D58
102
{ACAD_REACTORS
330
D4D
102
}
330
D4D
100
AcDbXrecord
  1
{55082112-EEAD-4808-9ADA-D24F3CE984AE}
  0
XRECORD
  5
D59
102
{ACAD_REACTORS
330
D4D
102
}
330
D4D
100
AcDbXrecord
  1
{5EF5BEAA-FB11-4EF7-8F98-F968A051E8E8}
  0
XRECORD
  5
D5A
102
{ACAD_REACTORS
330
D4D
102
}
330
D4D
100
AcDbXrecord
 40
0.0
  0
XRECORD
  5
D5B
102
{ACAD_REACTORS
330
D4D
102
}
330
D4D
100
AcDbXrecord
1000
DSTYLE
1002
{
1070
   341
340
6D
1070
   343
340
6D
1070
   344
340
6D
1070
   371
 70
    -1
1070
   372
 70
    -1
1002
}
  0
XRECORD
  5
D5C
102
{ACAD_REACTORS
330
D4D
102
}
330
D4D
100
AcDbXrecord
340
0
  0
XRECORD
  5
D5D
102
{ACAD_REACTORS
330
D4D
102
}
330
D4D
100
AcDbXrecord
 70
     0
  0
XRECORD
  5
D5E
102
{ACAD_REACTORS
330
D4D
102
}
330
D4D
100
AcDbXrecord
340
0
  0
XRECORD
  5
D5F
102
{ACAD_REACTORS
330
D4D
102
}
330
D4D
100
AcDbXrecord
 10
0.0
 20
0.0
 30
0.0
  0
XRECORD
  5
D60
102
{ACAD_REACTORS
330
D4D
102
}
330
D4D
100
AcDbXrecord
 10
0.0
 20
0.0
 30
0.0
  0
XRECORD
  5
D61
102
{ACAD_REACTORS
330
D4D
102
}
330
D4D
100
AcDbXrecord
 10
0.0
 20
0.0
 30
0.0
  0
XRECORD
  5
D62
102
{ACAD_REACTORS
330
D4D
102
}
330
D4D
100
AcDbXrecord
 10
0.0
 20
0.0
 30
0.0
  0
XRECORD
  5
D63
102
{ACAD_REACTORS
330
D4D
102
}
330
D4D
100
AcDbXrecord
 10
0.0
 20
0.0
 30
0.0
  0
XRECORD
  5
D64
102
{ACAD_REACTORS
330
D4D
102
}
330
D4D
100
AcDbXrecord
 10
0.0
 20
0.0
 30
0.0
  0
XRECORD
  5
D65
102
{ACAD_REACTORS
330
D4D
102
}
330
D4D
100
AcDbXrecord
340
0
  0
XRECORD
  5
D66
102
{ACAD_REACTORS
330
D4D
102
}
330
D4D
100
AcDbXrecord
 70
     0
  0
XRECORD
  5
D67
102
{ACAD_REACTORS
330
D4D
102
}
330
D4D
100
AcDbXrecord
340
0
  0
XRECORD
  5
D68
102
{ACAD_REACTORS
330
D4D
102
}
330
D4D
100
AcDbXrecord
 10
0.0
 20
0.0
 30
0.0
  0
XRECORD
  5
D69
102
{ACAD_REACTORS
330
D4D
102
}
330
D4D
100
AcDbXrecord
 10
0.0
 20
0.0
 30
0.0
  0
XRECORD
  5
D6A
102
{ACAD_REACTORS
330
D4D
102
}
330
D4D
100
AcDbXrecord
 10
0.0
 20
0.0
 30
0.0
  0
XRECORD
  5
D6B
102
{ACAD_REACTORS
330
D4D
102
}
330
D4D
100
AcDbXrecord
 10
0.0
 20
0.0
 30
0.0
  0
XRECORD
  5
D6C
102
{ACAD_REACTORS
330
D4D
102
}
330
D4D
100
AcDbXrecord
 10
0.0
 20
0.0
 30
0.0
  0
XRECORD
  5
D6D
102
{ACAD_REACTORS
330
D4D
102
}
330
D4D
100
AcDbXrecord
 10
0.0
 20
0.0
 30
0.0
  0
ENDSEC
  0
EOF
