  0
SECTION
  2
HEADER
  9
$ACADVER
  1
AC1014
  9
$ACADMAINTVER
 70
     9
  9
$DWGCODEPAGE
  3
ANSI_932
  9
$INSBASE
 10
0.0
 20
0.0
 30
0.0
  9
$EXTMIN
 10
-0.05126640194635
 20
-0.0362526699479986
 30
-0.0000000100019834
  9
$EXTMAX
 10
797.6628945888771
 20
551.6439420217511
 30
0.0000000100019837
  9
$LIMMIN
 10
0.0
 20
0.0
  9
$LIMMAX
 10
840.0
 20
594.0
  9
$ORTHOMODE
 70
     0
  9
$REGENMODE
 70
     1
  9
$FILLMODE
 70
     1
  9
$QTEXTMODE
 70
     0
  9
$MIRRTEXT
 70
     1
  9
$DRAGMODE
 70
     2
  9
$LTSCALE
 40
2.0
  9
$OSMODE
 70
    35
  9
$ATTMODE
 70
     1
  9
$TEXTSIZE
 40
5.0
  9
$TRACEWID
 40
1.0
  9
$TEXTSTYLE
  7
STANDARD
  9
$CLAYER
  8
SUNPOU
  9
$CELTYPE
  6
BYLAYER
  9
$CECOLOR
 62
   256
  9
$CELTSCALE
 40
1.0
  9
$DELOBJ
 70
     1
  9
$DISPSILH
 70
     0
  9
$DIMSCALE
 40
1.0
  9
$DIMASZ
 40
7.0
  9
$DIMEXO
 40
6.0
  9
$DIMDLI
 40
14.0
  9
$DIMRND
 40
0.0
  9
$DIMDLE
 40
0.0
  9
$DIMEXE
 40
3.0
  9
$DIMTP
 40
0.0
  9
$DIMTM
 40
0.0
  9
$DIMTXT
 40
6.0
  9
$DIMCEN
 40
150.0
  9
$DIMTSZ
 40
0.0
  9
$DIMTOL
 70
     0
  9
$DIMLIM
 70
     0
  9
$DIMTIH
 70
     0
  9
$DIMTOH
 70
     0
  9
$DIMSE1
 70
     0
  9
$DIMSE2
 70
     0
  9
$DIMTAD
 70
     3
  9
$DIMZIN
 70
     0
  9
$DIMBLK
  1

  9
$DIMASO
 70
     1
  9
$DIMSHO
 70
     1
  9
$DIMPOST
  1

  9
$DIMAPOST
  1

  9
$DIMALT
 70
     0
  9
$DIMALTD
 70
     2
  9
$DIMALTF
 40
25.4
  9
$DIMLFAC
 40
1.0
  9
$DIMTOFL
 70
     1
  9
$DIMTVP
 40
0.0
  9
$DIMTIX
 70
     0
  9
$DIMSOXD
 70
     0
  9
$DIMSAH
 70
     1
  9
$DIMBLK1
  1
OPEN
  9
$DIMBLK2
  1
OPEN
  9
$DIMSTYLE
  2
STANDARD
  9
$DIMCLRD
 70
   256
  9
$DIMCLRE
 70
   256
  9
$DIMCLRT
 70
   256
  9
$DIMTFAC
 40
1.0
  9
$DIMGAP
 40
2.0
  9
$DIMJUST
 70
     0
  9
$DIMSD1
 70
     0
  9
$DIMSD2
 70
     0
  9
$DIMTOLJ
 70
     1
  9
$DIMTZIN
 70
     0
  9
$DIMALTZ
 70
     0
  9
$DIMALTTZ
 70
     0
  9
$DIMFIT
 70
     3
  9
$DIMUPT
 70
     0
  9
$DIMUNIT
 70
     2
  9
$DIMDEC
 70
     0
  9
$DIMTDEC
 70
     0
  9
$DIMALTU
 70
     2
  9
$DIMALTTD
 70
     2
  9
$DIMTXSTY
  7
STANDARD
  9
$DIMAUNIT
 70
     0
  9
$LUNITS
 70
     2
  9
$LUPREC
 70
     4
  9
$SKETCHINC
 40
1.0
  9
$FILLETRAD
 40
3.0
  9
$AUNITS
 70
     0
  9
$AUPREC
 70
     0
  9
$MENU
  1
.
  9
$ELEVATION
 40
0.0
  9
$PELEVATION
 40
0.0
  9
$THICKNESS
 40
0.0
  9
$LIMCHECK
 70
     0
  9
$BLIPMODE
 70
     0
  9
$CHAMFERA
 40
20.0
  9
$CHAMFERB
 40
20.0
  9
$CHAMFERC
 40
40.0
  9
$CHAMFERD
 40
0.0
  9
$SKPOLY
 70
     0
  9
$TDCREATE
 40
2451030.372450000
  9
$TDUPDATE
 40
2453502.436119965
  9
$TDINDWG
 40
0.0706504745
  9
$TDUSRTIMER
 40
0.0706504745
  9
$USRTIMER
 70
     1
  9
$ANGBASE
 50
0.0
  9
$ANGDIR
 70
     0
  9
$PDMODE
 70
     0
  9
$PDSIZE
 40
0.0
  9
$PLINEWID
 40
0.0
  9
$COORDS
 70
     1
  9
$SPLFRAME
 70
     0
  9
$SPLINETYPE
 70
     6
  9
$SPLINESEGS
 70
     8
  9
$ATTDIA
 70
     0
  9
$ATTREQ
 70
     1
  9
$HANDLING
 70
 10241
  9
$HANDSEED
  5
BD1
  9
$SURFTAB1
 70
     6
  9
$SURFTAB2
 70
     6
  9
$SURFTYPE
 70
     6
  9
$SURFU
 70
     6
  9
$SURFV
 70
     6
  9
$UCSNAME
  2

  9
$UCSORG
 10
0.0
 20
0.0
 30
0.0
  9
$UCSXDIR
 10
1.0
 20
0.0
 30
0.0
  9
$UCSYDIR
 10
0.0
 20
1.0
 30
0.0
  9
$PUCSNAME
  2

  9
$PUCSORG
 10
0.0
 20
0.0
 30
0.0
  9
$PUCSXDIR
 10
1.0
 20
0.0
 30
0.0
  9
$PUCSYDIR
 10
0.0
 20
1.0
 30
0.0
  9
$USERI1
 70
     0
  9
$USERI2
 70
     0
  9
$USERI3
 70
     0
  9
$USERI4
 70
     0
  9
$USERI5
 70
     0
  9
$USERR1
 40
0.0
  9
$USERR2
 40
0.0
  9
$USERR3
 40
0.0
  9
$USERR4
 40
0.0
  9
$USERR5
 40
0.0
  9
$WORLDVIEW
 70
     1
  9
$SHADEDGE
 70
     3
  9
$SHADEDIF
 70
    70
  9
$TILEMODE
 70
     1
  9
$MAXACTVP
 70
    16
  9
$PINSBASE
 10
0.0
 20
0.0
 30
0.0
  9
$PLIMCHECK
 70
     0
  9
$PEXTMIN
 10
0.0
 20
0.0
 30
0.0
  9
$PEXTMAX
 10
420.0
 20
297.0
 30
0.0
  9
$PLIMMIN
 10
0.0
 20
0.0
  9
$PLIMMAX
 10
420.0
 20
297.0
  9
$UNITMODE
 70
     0
  9
$VISRETAIN
 70
     0
  9
$PLINEGEN
 70
     0
  9
$PSLTSCALE
 70
     1
  9
$TREEDEPTH
 70
  3020
  9
$PICKSTYLE
 70
     1
  9
$CMLSTYLE
  2
STANDARD
  9
$CMLJUST
 70
     0
  9
$CMLSCALE
 40
1.0
  9
$PROXYGRAPHICS
 70
     1
  9
$MEASUREMENT
 70
     1
  0
ENDSEC
  0
SECTION
  2
CLASSES
  0
CLASS
  1
ACDBDICTIONARYWDFLT
  2
AcDbDictionaryWithDefault
  3
AutoCAD 2000
 90
        0
280
     0
281
     0
  0
CLASS
  1
ACDBPLACEHOLDER
  2
AcDbPlaceHolder
  3
AutoCAD 2000
 90
        0
280
     0
281
     0
  0
CLASS
  1
LAYOUT
  2
AcDbLayout
  3
AutoCAD 2000
 90
        0
280
     0
281
     0
  0
CLASS
  1
LONG_TRANSACTION
  2
AcDbLongTransaction
  3
AutoCAD 2000
 90
        0
280
     0
281
     0
  0
CLASS
  1
LWPOLYLINE
  2
AcDbPolyline
  3
AutoCAD 2000
 90
        0
280
     0
281
     1
  0
CLASS
  1
HATCH
  2
AcDbHatch
  3
AutoCAD 2000
 90
        0
280
     0
281
     1
  0
CLASS
  1
XRECORD
  2
AcDbXrecord
  3
AutoCAD 2000
 90
        0
280
     0
281
     0
  0
CLASS
  1
LONG_TRANSACTION
  2
AcDbLongTransaction
  3
AutoCAD 2000
 90
        0
280
     0
281
     0
  0
CLASS
  1
LWPOLYLINE
  2
AcDbPolyline
  3
AutoCAD 2000
 90
        0
280
     0
281
     1
  0
CLASS
  1
HATCH
  2
AcDbHatch
  3
AutoCAD 2000
 90
        0
280
     0
281
     1
  0
CLASS
  1
XRECORD
  2
AcDbXrecord
  3
AutoCAD 2000
 90
        0
280
     0
281
     0
  0
ENDSEC
  0
SECTION
  2
TABLES
  0
TABLE
  2
VPORT
  5
8
330
0
100
AcDbSymbolTable
 70
     2
  0
VPORT
  5
BAD
330
8
100
AcDbSymbolTableRecord
100
AcDbViewportTableRecord
  2
*ACTIVE
 70
     0
 10
0.0
 20
0.0
 11
1.0
 21
1.0
 12
419.9743667990268
 22
296.981873665026
 13
0.0
 23
0.0
 14
5.0
 24
5.0
 15
0.0
 25
0.0
 16
0.0
 26
0.0
 36
1.0
 17
0.0
 27
0.0
 37
0.0
 40
600.6122997474752
 41
1.752310536044362
 42
50.0
 43
0.0
 44
0.0
 50
0.0
 51
0.0
 71
     0
 72
   100
 73
     1
 74
     0
 75
     0
 76
     0
 77
     0
 78
     0
  0
ENDTAB
  0
TABLE
  2
LTYPE
  5
5
330
0
100
AcDbSymbolTable
 70
     2
  0
LTYPE
  5
14
330
5
100
AcDbSymbolTableRecord
100
AcDbLinetypeTableRecord
  2
BYBLOCK
 70
     0
  3

 72
    65
 73
     0
 40
0.0
  0
LTYPE
  5
15
330
5
100
AcDbSymbolTableRecord
100
AcDbLinetypeTableRecord
  2
BYLAYER
 70
     0
  3

 72
    65
 73
     0
 40
0.0
  0
LTYPE
  5
16
330
5
100
AcDbSymbolTableRecord
100
AcDbLinetypeTableRecord
  2
CONTINUOUS
 70
     0
  3
Solid line
 72
    65
 73
     0
 40
0.0
  0
LTYPE
  5
135
330
5
100
AcDbSymbolTableRecord
100
AcDbLinetypeTableRecord
  2
CENTER
 70
     0
  3
____ _ ____ _ ____ _ ____ _ ____ _ ____ _ ____ 
 72
    65
 73
     4
 40
2.0
 49
1.25
 74
     0
 49
-0.25
 74
     0
 49
0.25
 74
     0
 49
-0.25
 74
     0
  0
ENDTAB
  0
TABLE
  2
LAYER
  5
2
330
0
100
AcDbSymbolTable
 70
     8
  0
LAYER
  5
F
330
2
100
AcDbSymbolTableRecord
100
AcDbLayerTableRecord
  2
0
 70
     0
 62
     7
  6
CONTINUOUS
  0
LAYER
  5
62
330
2
100
AcDbSymbolTableRecord
100
AcDbLayerTableRecord
  2
VIEWPORT
 70
     0
 62
     7
  6
CONTINUOUS
  0
LAYER
  5
144
330
2
100
AcDbSymbolTableRecord
100
AcDbLayerTableRecord
  2
SEIHIN
 70
     0
 62
     3
  6
CONTINUOUS
  0
LAYER
  5
145
330
2
100
AcDbSymbolTableRecord
100
AcDbLayerTableRecord
  2
SUNPOU
 70
     0
 62
     4
  6
CONTINUOUS
  0
LAYER
  5
146
330
2
100
AcDbSymbolTableRecord
100
AcDbLayerTableRecord
  2
CENTER_L
 70
     0
 62
     1
  6
CENTER
  0
LAYER
  5
3D2
330
2
100
AcDbSymbolTableRecord
100
AcDbLayerTableRecord
  2
DEFPOINTS
 70
     0
 62
     7
  6
CONTINUOUS
  0
LAYER
  5
9AD
330
2
100
AcDbSymbolTableRecord
100
AcDbLayerTableRecord
  2
ZUWAKU
 70
     0
 62
     7
  6
CONTINUOUS
  0
LAYER
  5
9AE
330
2
100
AcDbSymbolTableRecord
100
AcDbLayerTableRecord
  2
MOJI
 70
     0
 62
     2
  6
CONTINUOUS
  0
ENDTAB
  0
TABLE
  2
STYLE
  5
3
330
0
100
AcDbSymbolTable
 70
     2
  0
STYLE
  5
10
330
3
100
AcDbSymbolTableRecord
100
AcDbTextStyleTableRecord
  2
STANDARD
 70
     0
 40
0.0
 41
1.0
 50
0.0
 71
     0
 42
5.0
  3
TXT
  4
bigfont.shx
  0
STYLE
  5
9AF
330
3
100
AcDbSymbolTableRecord
100
AcDbTextStyleTableRecord
  2
ｽﾀｲﾙ1
 70
     0
 40
0.0
 41
1.0
 50
0.0
 71
     0
 42
2.5
  3
MS PGothic.ttf
  4

1001
ACAD
1000
MS PGothic
1071
    32818
  0
ENDTAB
  0
TABLE
  2
VIEW
  5
6
330
0
100
AcDbSymbolTable
 70
     0
  0
ENDTAB
  0
TABLE
  2
UCS
  5
7
330
0
100
AcDbSymbolTable
 70
     0
  0
ENDTAB
  0
TABLE
  2
APPID
  5
9
330
0
100
AcDbSymbolTable
 70
     1
  0
APPID
  5
11
330
9
100
AcDbSymbolTableRecord
100
AcDbRegAppTableRecord
  2
ACAD
 70
     0
  0
ENDTAB
  0
TABLE
  2
DIMSTYLE
  5
A
330
0
100
AcDbSymbolTable
 70
     1
  0
DIMSTYLE
105
1D
102
{ACAD_REACTORS
330
3D7
330
3E4
330
3F3
330
40D
330
420
330
430
330
442
330
44F
330
588
330
5DF
330
5EC
330
5FB
330
643
102
}
330
A
100
AcDbSymbolTableRecord
100
AcDbDimStyleTableRecord
  2
STANDARD
 70
     0
  3

  4

  5

  6

  7

 40
1.0
 41
0.18
 42
0.0625
 43
0.38
 44
0.18
 45
0.0
 46
0.0
 47
0.0
 48
0.0
140
0.18
141
0.09
142
0.0
143
25.4
144
1.0
145
0.0
146
1.0
147
0.09
 71
     0
 72
     0
 73
     1
 74
     1
 75
     0
 76
     0
 77
     0
 78
     0
170
     0
171
     2
172
     0
173
     0
174
     0
175
     0
176
     0
177
     0
178
     0
270
     2
271
     4
272
     4
273
     2
274
     2
340
10
275
     0
280
     0
281
     0
282
     0
283
     1
284
     0
285
     0
286
     0
287
     3
288
     0
  0
ENDTAB
  0
TABLE
  2
BLOCK_RECORD
  5
1
330
0
100
AcDbSymbolTable
 70
    14
  0
BLOCK_RECORD
  5
1A
102
{ACAD_XDICTIONARY
360
998
102
}
330
1
100
AcDbSymbolTableRecord
100
AcDbBlockTableRecord
  2
*MODEL_SPACE
  0
BLOCK_RECORD
  5
17
102
{ACAD_XDICTIONARY
360
996
102
}
330
1
100
AcDbSymbolTableRecord
100
AcDbBlockTableRecord
  2
*PAPER_SPACE
  0
BLOCK_RECORD
  5
6D
330
1
100
AcDbSymbolTableRecord
100
AcDbBlockTableRecord
  2
_OPEN
  0
BLOCK_RECORD
  5
3CA
330
1
100
AcDbSymbolTableRecord
100
AcDbBlockTableRecord
  2
*D1
  0
BLOCK_RECORD
  5
3D8
330
1
100
AcDbSymbolTableRecord
100
AcDbBlockTableRecord
  2
*D2
  0
BLOCK_RECORD
  5
3E7
330
1
100
AcDbSymbolTableRecord
100
AcDbBlockTableRecord
  2
*D3
  0
BLOCK_RECORD
  5
401
330
1
100
AcDbSymbolTableRecord
100
AcDbBlockTableRecord
  2
*D4
  0
BLOCK_RECORD
  5
412
330
1
100
AcDbSymbolTableRecord
100
AcDbBlockTableRecord
  2
*D5
  0
BLOCK_RECORD
  5
422
330
1
100
AcDbSymbolTableRecord
100
AcDbBlockTableRecord
  2
*D6
  0
BLOCK_RECORD
  5
436
330
1
100
AcDbSymbolTableRecord
100
AcDbBlockTableRecord
  2
*D7
  0
BLOCK_RECORD
  5
443
330
1
100
AcDbSymbolTableRecord
100
AcDbBlockTableRecord
  2
*D8
  0
BLOCK_RECORD
  5
57A
330
1
100
AcDbSymbolTableRecord
100
AcDbBlockTableRecord
  2
*D9
  0
BLOCK_RECORD
  5
5D1
330
1
100
AcDbSymbolTableRecord
100
AcDbBlockTableRecord
  2
*D10
  0
BLOCK_RECORD
  5
5E0
330
1
100
AcDbSymbolTableRecord
100
AcDbBlockTableRecord
  2
*D11
  0
BLOCK_RECORD
  5
5ED
330
1
100
AcDbSymbolTableRecord
100
AcDbBlockTableRecord
  2
*D12
  0
BLOCK_RECORD
  5
637
330
1
100
AcDbSymbolTableRecord
100
AcDbBlockTableRecord
  2
*D13
  0
ENDTAB
  0
ENDSEC
  0
SECTION
  2
BLOCKS
  0
BLOCK
  5
1B
330
1A
100
AcDbEntity
  8
0
100
AcDbBlockBegin
  2
*MODEL_SPACE
 70
     0
 10
0.0
 20
0.0
 30
0.0
  3
*MODEL_SPACE
  1

  0
ENDBLK
  5
1C
330
1A
100
AcDbEntity
  8
0
100
AcDbBlockEnd
  0
BLOCK
  5
18
330
17
100
AcDbEntity
 67
     1
  8
0
100
AcDbBlockBegin
  2
*PAPER_SPACE
 70
     0
 10
0.0
 20
0.0
 30
0.0
  3
*PAPER_SPACE
  1

  0
ENDBLK
  5
19
330
17
100
AcDbEntity
 67
     1
  8
0
100
AcDbBlockEnd
  0
BLOCK
  5
6E
330
6D
100
AcDbEntity
  8
0
100
AcDbBlockBegin
  2
_OPEN
 70
     0
 10
0.0
 20
0.0
 30
0.0
  3
_OPEN
  1

  0
LINE
  5
6F
330
6D
100
AcDbEntity
  8
0
  6
BYBLOCK
 62
     0
100
AcDbLine
 10
-1.0
 20
0.1666666666666666
 30
0.0
 11
0.0
 21
0.0
 31
0.0
  0
LINE
  5
70
330
6D
100
AcDbEntity
  8
0
  6
BYBLOCK
 62
     0
100
AcDbLine
 10
0.0
 20
0.0
 30
0.0
 11
-1.0
 21
-0.1666666666666666
 31
0.0
  0
LINE
  5
71
330
6D
100
AcDbEntity
  8
0
  6
BYBLOCK
 62
     0
100
AcDbLine
 10
0.0
 20
0.0
 30
0.0
 11
-1.0
 21
0.0
 31
0.0
  0
ENDBLK
  5
72
330
6D
100
AcDbEntity
  8
0
100
AcDbBlockEnd
  0
BLOCK
  5
3CB
330
3CA
100
AcDbEntity
  8
0
100
AcDbBlockBegin
  2
*D1
 70
     1
 10
0.0
 20
0.0
 30
0.0
  3
*D1
  1

  0
LINE
  5
A7E
330
3CA
100
AcDbEntity
  8
SUNPOU
 62
     4
100
AcDbLine
 10
413.6609390321515
 20
434.0951878068564
 30
0.0
 11
471.0246681571656
 21
434.0951878068564
 31
0.0
  0
LINE
  5
A7F
330
3CA
100
AcDbEntity
  8
SUNPOU
 62
     4
100
AcDbLine
 10
413.6609390321515
 20
354.0951878068564
 30
0.0
 11
471.0246681571655
 21
354.0951878068564
 31
0.0
  0
LINE
  5
A80
330
3CA
100
AcDbEntity
  8
SUNPOU
 62
     4
100
AcDbLine
 10
468.0246681571656
 20
427.0951878068564
 30
0.0
 11
468.0246681571656
 21
361.0951878068564
 31
0.0
  0
INSERT
  5
A81
330
3CA
100
AcDbEntity
  8
SUNPOU
 62
     4
100
AcDbBlockReference
  2
_OPEN
 10
468.0246681571656
 20
434.0951878068564
 30
0.0
 41
7.0
 42
7.0
 43
7.0
 50
90.0
  0
INSERT
  5
A82
330
3CA
100
AcDbEntity
  8
SUNPOU
 62
     4
100
AcDbBlockReference
  2
_OPEN
 10
468.0246681571656
 20
354.0951878068564
 30
0.0
 41
7.0
 42
7.0
 43
7.0
 50
270.0
  0
MTEXT
  5
A83
330
3CA
100
AcDbEntity
  8
SUNPOU
 62
     4
100
AcDbMText
 10
463.0246681571655
 20
394.0951878068565
 30
0.0
 40
6.0
 41
0.0
 71
     5
 72
     1
  1
\A1;80
 11
0.0000000000000001
 21
1.0
 31
0.0
1001
ACAD
1000
MTEXTBEGIN
1070
    73
1070
     1
1070
    44
1040
1.0
1070
    74
1070
     0
1000
MTEXTEND
  0
POINT
  5
A84
330
3CA
100
AcDbEntity
  8
DEFPOINTS
 62
     0
100
AcDbPoint
 10
407.6609390321515
 20
434.0951878068564
 30
0.0
  0
POINT
  5
A85
330
3CA
100
AcDbEntity
  8
DEFPOINTS
 62
     0
100
AcDbPoint
 10
407.6609390321515
 20
354.0951878068564
 30
0.0
  0
POINT
  5
A86
330
3CA
100
AcDbEntity
  8
DEFPOINTS
 62
     0
100
AcDbPoint
 10
468.0246681571656
 20
354.0951878068564
 30
0.0
  0
ENDBLK
  5
3D6
330
3CA
100
AcDbEntity
  8
0
100
AcDbBlockEnd
  0
BLOCK
  5
3D9
330
3D8
100
AcDbEntity
  8
0
100
AcDbBlockBegin
  2
*D2
 70
     1
 10
0.0
 20
0.0
 30
0.0
  3
*D2
  1

  0
LINE
  5
AAF
330
3D8
100
AcDbEntity
  8
SUNPOU
 62
     4
100
AcDbLine
 10
257.3366390321516
 20
409.0952878068566
 30
0.0
 11
221.7993597939652
 21
409.0952878068566
 31
0.0
  0
LINE
  5
AB0
330
3D8
100
AcDbEntity
  8
SUNPOU
 62
     4
100
AcDbLine
 10
257.3366390321516
 20
379.0951878068564
 30
0.0
 11
221.7993597939652
 21
379.0951878068564
 31
0.0
  0
LINE
  5
AB1
330
3D8
100
AcDbEntity
  8
SUNPOU
 62
     4
100
AcDbLine
 10
224.7993597939652
 20
402.0952878068566
 30
0.0
 11
224.7993597939652
 21
386.0951878068564
 31
0.0
  0
INSERT
  5
AB2
330
3D8
100
AcDbEntity
  8
SUNPOU
 62
     4
100
AcDbBlockReference
  2
_OPEN
 10
224.7993597939652
 20
409.0952878068566
 30
0.0
 41
7.0
 42
7.0
 43
7.0
 50
90.0
  0
INSERT
  5
AB3
330
3D8
100
AcDbEntity
  8
SUNPOU
 62
     4
100
AcDbBlockReference
  2
_OPEN
 10
224.7993597939652
 20
379.0951878068564
 30
0.0
 41
7.0
 42
7.0
 43
7.0
 50
270.0
  0
MTEXT
  5
AB4
330
3D8
100
AcDbEntity
  8
SUNPOU
 62
     4
100
AcDbMText
 10
219.7993597939651
 20
394.0952378068566
 30
0.0
 40
6.0
 41
0.0
 71
     5
 72
     1
  1
\A1;30
 11
0.0000000000000001
 21
1.0
 31
0.0
1001
ACAD
1000
MTEXTBEGIN
1070
    73
1070
     1
1070
    44
1040
1.0
1070
    74
1070
     0
1000
MTEXTEND
  0
POINT
  5
AB5
330
3D8
100
AcDbEntity
  8
DEFPOINTS
 62
     0
100
AcDbPoint
 10
263.3366390321516
 20
409.0952878068566
 30
0.0
  0
POINT
  5
AB6
330
3D8
100
AcDbEntity
  8
DEFPOINTS
 62
     0
100
AcDbPoint
 10
263.3366390321516
 20
379.0951878068564
 30
0.0
  0
POINT
  5
AB7
330
3D8
100
AcDbEntity
  8
DEFPOINTS
 62
     0
100
AcDbPoint
 10
224.7993597939652
 20
379.0951878068564
 30
0.0
  0
ENDBLK
  5
3E3
330
3D8
100
AcDbEntity
  8
0
100
AcDbBlockEnd
  0
BLOCK
  5
3E8
330
3E7
100
AcDbEntity
  8
0
100
AcDbBlockBegin
  2
*D3
 70
     1
 10
0.0
 20
0.0
 30
0.0
  3
*D3
  1

  0
LINE
  5
A75
330
3E7
100
AcDbEntity
  8
SUNPOU
 62
     4
100
AcDbLine
 10
399.5947633726032
 20
244.6255785944249
 30
0.0
 11
438.9500222006863
 21
264.3340161958736
 31
0.0
  0
LINE
  5
A76
330
3E7
100
AcDbEntity
  8
SUNPOU
 62
     4
100
AcDbLine
 10
432.2804584903427
 20
179.3563767760176
 30
0.0
 11
471.6357173184257
 21
199.0648143774663
 31
0.0
  0
LINE
  5
A77
330
3E7
100
AcDbEntity
  8
SUNPOU
 62
     4
100
AcDbLine
 10
439.4019954265854
 20
256.7316665457279
 30
0.0
 11
465.8188618987345
 21
203.9805231795019
 31
0.0
  0
INSERT
  5
A78
330
3E7
100
AcDbEntity
  8
SUNPOU
 62
     4
100
AcDbBlockReference
  2
_OPEN
 10
436.2675811037902
 20
262.9906957718186
 30
0.0
 41
7.0
 42
7.0
 43
7.0
 50
116.6009218866915
  0
INSERT
  5
A79
330
3E7
100
AcDbEntity
  8
SUNPOU
 62
     4
100
AcDbBlockReference
  2
_OPEN
 10
468.9532762215297
 20
197.7214939534112
 30
0.0
 41
7.0
 42
7.0
 43
7.0
 50
296.6009218866915
  0
MTEXT
  5
A7A
330
3E7
100
AcDbEntity
  8
SUNPOU
 62
     4
100
AcDbMText
 10
457.0811638241534
 20
232.59496223604
 30
0.0
 40
6.0
 41
0.0
 71
     5
 72
     1
  1
\A1;73
 11
0.4477734746850135
 21
-0.8941470322986649
 31
0.0
1001
ACAD
1000
MTEXTBEGIN
1070
    73
1070
     1
1070
    44
1040
1.0
1070
    74
1070
     0
1000
MTEXTEND
  0
POINT
  5
A7B
330
3E7
100
AcDbEntity
  8
DEFPOINTS
 62
     0
100
AcDbPoint
 10
394.2298811788113
 20
241.9389377463148
 30
0.0
  0
POINT
  5
A7C
330
3E7
100
AcDbEntity
  8
DEFPOINTS
 62
     0
100
AcDbPoint
 10
426.9155762965507
 20
176.6697359279075
 30
0.0
  0
POINT
  5
A7D
330
3E7
100
AcDbEntity
  8
DEFPOINTS
 62
     0
100
AcDbPoint
 10
468.9532762215297
 20
197.7214939534112
 30
0.0
  0
ENDBLK
  5
3F2
330
3E7
100
AcDbEntity
  8
0
100
AcDbBlockEnd
  0
BLOCK
  5
402
330
401
100
AcDbEntity
  8
0
100
AcDbBlockBegin
  2
*D4
 70
     1
 10
0.0
 20
0.0
 30
0.0
  3
*D4
  1

  0
LINE
  5
A90
330
401
100
AcDbEntity
  8
SUNPOU
 62
     4
100
AcDbLine
 10
264.7527390321515
 20
245.9550166402785
 30
0.0
 11
222.3826931272985
 21
245.9550166402785
 31
0.0
  0
LINE
  5
A91
330
401
100
AcDbEntity
  8
SUNPOU
 62
     4
100
AcDbLine
 10
414.7207657261776
 20
173.7312775005922
 30
0.0
 11
222.3826931272985
 21
173.7312775005923
 31
0.0
  0
LINE
  5
A92
330
401
100
AcDbEntity
  8
SUNPOU
 62
     4
100
AcDbLine
 10
225.3826931272985
 20
238.9550166402786
 30
0.0
 11
225.3826931272985
 21
180.7312775005923
 31
0.0
  0
INSERT
  5
A93
330
401
100
AcDbEntity
  8
SUNPOU
 62
     4
100
AcDbBlockReference
  2
_OPEN
 10
225.3826931272985
 20
245.9550166402785
 30
0.0
 41
7.0
 42
7.0
 43
7.0
 50
90.0
  0
INSERT
  5
A94
330
401
100
AcDbEntity
  8
SUNPOU
 62
     4
100
AcDbBlockReference
  2
_OPEN
 10
225.3826931272985
 20
173.7312775005923
 30
0.0
 41
7.0
 42
7.0
 43
7.0
 50
270.0
  0
MTEXT
  5
A95
330
401
100
AcDbEntity
  8
SUNPOU
 62
     4
100
AcDbMText
 10
220.3826931272984
 20
209.8431470704355
 30
0.0
 40
6.0
 41
0.0
 71
     5
 72
     1
  1
\A1;72
 11
0.0000000000000001
 21
1.0
 31
0.0
1001
ACAD
1000
MTEXTBEGIN
1070
    73
1070
     1
1070
    44
1040
1.0
1070
    74
1070
     0
1000
MTEXTEND
  0
POINT
  5
A96
330
401
100
AcDbEntity
  8
DEFPOINTS
 62
     0
100
AcDbPoint
 10
270.7527390321515
 20
245.9550166402785
 30
0.0
  0
POINT
  5
A97
330
401
100
AcDbEntity
  8
DEFPOINTS
 62
     0
100
AcDbPoint
 10
420.7207657261776
 20
173.7312775005922
 30
0.0
  0
POINT
  5
A98
330
401
100
AcDbEntity
  8
DEFPOINTS
 62
     0
100
AcDbPoint
 10
225.3826931272985
 20
173.7312775005923
 30
0.0
  0
ENDBLK
  5
40C
330
401
100
AcDbEntity
  8
0
100
AcDbBlockEnd
  0
BLOCK
  5
413
330
412
100
AcDbEntity
  8
0
100
AcDbBlockBegin
  2
*D5
 70
     1
 10
0.0
 20
0.0
 30
0.0
  3
*D5
  1

  0
LINE
  5
A99
330
412
100
AcDbEntity
  8
SUNPOU
 62
     4
100
AcDbLine
 10
390.1207397029575
 20
250.1444854223624
 30
0.0
 11
377.6615726962942
 21
275.0242053049125
 31
0.0
  0
LINE
  5
A9A
330
412
100
AcDbEntity
  8
SUNPOU
 62
     4
100
AcDbLine
 10
381.1866199356412
 20
245.6704925171369
 30
0.0
 11
368.7274529289779
 21
270.5502123996871
 31
0.0
  0
LINE
  5
A9B
330
412
100
AcDbEntity
  8
SUNPOU
 62
     4
100
AcDbLine
 10
385.2639248058578
 20
275.4761371606318
 30
0.0
 11
391.5229710885908
 21
278.6105174232367
 31
0.0
  0
LINE
  5
A9C
330
412
100
AcDbEntity
  8
SUNPOU
 62
     4
100
AcDbLine
 10
363.8117124730757
 20
264.7333837301967
 30
0.0
 11
347.7170220317625
 21
256.6735487692126
 31
0.0
  0
LINE
  5
A9D
330
412
100
AcDbEntity
  8
SUNPOU
 62
     4
100
AcDbLine
 10
379.0048785231249
 20
272.3417568980269
 30
0.0
 11
370.0707587558086
 21
267.8677639928015
 31
0.0
  0
INSERT
  5
A9E
330
412
100
AcDbEntity
  8
SUNPOU
 62
     4
100
AcDbBlockReference
  2
_OPEN
 10
379.0048785231249
 20
272.3417568980269
 30
0.0
 41
7.0
 42
7.0
 43
7.0
 50
206.6006100967289
  0
INSERT
  5
A9F
330
412
100
AcDbEntity
  8
SUNPOU
 62
     4
100
AcDbBlockReference
  2
_OPEN
 10
370.0707587558086
 20
267.8677639928015
 30
0.0
 41
7.0
 42
7.0
 43
7.0
 50
26.60061009672896
  0
MTEXT
  5
AA0
330
412
100
AcDbEntity
  8
SUNPOU
 62
     4
100
AcDbMText
 10
350.3960010663348
 20
263.6070234632114
 30
0.0
 40
6.0
 41
0.0
 71
     5
 72
     1
  1
\A1;10
 11
0.894149468961846
 21
0.4477686089435577
 31
0.0
1001
ACAD
1000
MTEXTBEGIN
1070
    73
1070
     1
1070
    44
1040
1.0
1070
    74
1070
     0
1000
MTEXTEND
  0
POINT
  5
AA1
330
412
100
AcDbEntity
  8
DEFPOINTS
 62
     0
100
AcDbPoint
 10
392.8073513566188
 20
244.7795886085913
 30
0.0
  0
POINT
  5
AA2
330
412
100
AcDbEntity
  8
DEFPOINTS
 62
     0
100
AcDbPoint
 10
383.8732315893025
 20
240.3055957033659
 30
0.0
  0
POINT
  5
AA3
330
412
100
AcDbEntity
  8
DEFPOINTS
 62
     0
100
AcDbPoint
 10
370.0707587558086
 20
267.8677639928015
 30
0.0
  0
ENDBLK
  5
41F
330
412
100
AcDbEntity
  8
0
100
AcDbBlockEnd
  0
BLOCK
  5
763
330
422
100
AcDbEntity
  8
0
100
AcDbBlockBegin
  2
*D6
 70
     1
 10
0.0
 20
0.0
 30
0.0
  3
*D6
  1

  0
LINE
  5
A6A
330
422
100
AcDbEntity
  8
SUNPOU
 62
     4
100
AcDbLine
 10
429.6010797653801
 20
171.3042841541089
 30
0.0
 11
444.0756244782003
 21
142.4004478829965
 31
0.0
  0
LINE
  5
A6B
330
422
100
AcDbEntity
  8
SUNPOU
 62
     4
100
AcDbLine
 10
423.3420510361721
 20
168.1698700801441
 30
0.0
 11
437.8165957489922
 21
139.2660338090317
 31
0.0
  0
LINE
  5
A6C
330
422
100
AcDbEntity
  8
SUNPOU
 62
     4
100
AcDbLine
 10
430.2142460988465
 20
138.8140605831327
 30
0.0
 11
423.9552168727559
 21
135.6796462603377
 31
0.0
  0
LINE
  5
A6D
330
422
100
AcDbEntity
  8
SUNPOU
 62
     4
100
AcDbLine
 10
448.991333280236
 20
148.2173033026876
 30
0.0
 11
474.0274501845987
 21
160.7549605938679
 31
0.0
  0
LINE
  5
A6E
330
422
100
AcDbEntity
  8
SUNPOU
 62
     4
100
AcDbLine
 10
436.4732753249373
 20
141.9484749059278
 30
0.0
 11
442.7323040541453
 21
145.0828889798926
 31
0.0
  0
INSERT
  5
A6F
330
422
100
AcDbEntity
  8
SUNPOU
 62
     4
100
AcDbBlockReference
  2
_OPEN
 10
436.4732753249373
 20
141.9484749059278
 30
0.0
 41
7.0
 42
7.0
 43
7.0
 50
26.60092188669124
  0
INSERT
  5
A70
330
422
100
AcDbEntity
  8
SUNPOU
 62
     4
100
AcDbBlockReference
  2
_OPEN
 10
442.7323040541453
 20
145.0828889798926
 30
0.0
 41
7.0
 42
7.0
 43
7.0
 50
206.6009218866912
  0
MTEXT
  5
A71
330
422
100
AcDbEntity
  8
SUNPOU
 62
     4
100
AcDbMText
 10
462.4000389720377
 20
160.5240742711686
 30
0.0
 40
6.0
 41
0.0
 71
     5
 72
     1
  1
\A1;t7.0
 11
0.8941470322986672
 21
0.4477734746850086
 31
0.0
1001
ACAD
1000
MTEXTBEGIN
1070
    73
1070
     1
1070
    44
1040
1.0
1070
    74
1070
     0
1000
MTEXTEND
  0
POINT
  5
A72
330
422
100
AcDbEntity
  8
DEFPOINTS
 62
     0
100
AcDbPoint
 10
426.9144389172701
 20
176.669166347901
 30
0.0
  0
POINT
  5
A73
330
422
100
AcDbEntity
  8
DEFPOINTS
 62
     0
100
AcDbPoint
 10
420.655410188062
 20
173.5347522739361
 30
0.0
  0
POINT
  5
A74
330
422
100
AcDbEntity
  8
DEFPOINTS
 62
     0
100
AcDbPoint
 10
436.4732753249373
 20
141.9484749059278
 30
0.0
  0
ENDBLK
  5
76F
330
422
100
AcDbEntity
  8
0
100
AcDbBlockEnd
  0
BLOCK
  5
614
330
436
100
AcDbEntity
  8
0
100
AcDbBlockBegin
  2
*D7
 70
     1
 10
0.0
 20
0.0
 30
0.0
  3
*D7
  1

  0
LINE
  5
AE0
330
436
100
AcDbEntity
  8
SUNPOU
 62
     4
100
AcDbLine
 10
571.3079806266791
 20
326.8725401191352
 30
0.0
 11
556.373512596107
 21
356.6959297831181
 31
0.0
  0
LINE
  5
AE1
330
436
100
AcDbEntity
  8
SUNPOU
 62
     4
100
AcDbLine
 10
514.0820198166523
 20
298.2158618587078
 30
0.0
 11
499.1475517860803
 21
328.0392515226908
 31
0.0
  0
LINE
  5
AE2
330
436
100
AcDbEntity
  8
SUNPOU
 62
     4
100
AcDbLine
 10
551.4577144068439
 20
350.8791499039722
 30
0.0
 11
506.7499083808157
 21
328.4911079229801
 31
0.0
  0
INSERT
  5
AE3
330
436
100
AcDbEntity
  8
SUNPOU
 62
     4
100
AcDbBlockReference
  2
_OPEN
 10
557.7167917988432
 20
354.0134680436898
 30
0.0
 41
7.0
 42
7.0
 43
7.0
 50
26.60004142056905
  0
INSERT
  5
AE4
330
436
100
AcDbEntity
  8
SUNPOU
 62
     4
100
AcDbBlockReference
  2
_OPEN
 10
500.4908309888164
 20
325.3567897832625
 30
0.0
 41
7.0
 42
7.0
 43
7.0
 50
206.6000414205691
  0
MTEXT
  5
AE5
330
436
100
AcDbEntity
  8
SUNPOU
 62
     4
100
AcDbMText
 10
527.937585739349
 20
344.6930040064129
 30
0.0
 40
6.0
 41
0.0
 71
     5
 72
     1
  1
\A1;64
 11
0.8941539131427578
 21
0.4477597342453802
 31
0.0
1001
ACAD
1000
MTEXTBEGIN
1070
    73
1070
     1
1070
    44
1040
1.0
1070
    74
1070
     0
1000
MTEXTEND
  0
POINT
  5
AE6
330
436
100
AcDbEntity
  8
DEFPOINTS
 62
     0
100
AcDbPoint
 10
573.9945390321515
 20
321.5076166402786
 30
0.0
  0
POINT
  5
AE7
330
436
100
AcDbEntity
  8
DEFPOINTS
 62
     0
100
AcDbPoint
 10
516.7685782221247
 20
292.8509383798513
 30
0.0
  0
POINT
  5
AE8
330
436
100
AcDbEntity
  8
DEFPOINTS
 62
     0
100
AcDbPoint
 10
500.4908309888164
 20
325.3567897832625
 30
0.0
  0
ENDBLK
  5
61E
330
436
100
AcDbEntity
  8
0
100
AcDbBlockEnd
  0
BLOCK
  5
61F
330
443
100
AcDbEntity
  8
0
100
AcDbBlockBegin
  2
*D8
 70
     1
 10
0.0
 20
0.0
 30
0.0
  3
*D8
  1

  0
LINE
  5
AD7
330
443
100
AcDbEntity
  8
SUNPOU
 62
     4
100
AcDbLine
 10
577.0216743824191
 20
333.226206825158
 30
0.0
 11
556.3357716622498
 21
373.7529178470611
 31
0.0
  0
LINE
  5
AD8
330
443
100
AcDbEntity
  8
SUNPOU
 62
     4
100
AcDbLine
 10
505.764974380149
 20
296.8549068296908
 30
0.0
 11
485.0790716599798
 21
337.3816178515939
 31
0.0
  0
LINE
  5
AD9
330
443
100
AcDbEntity
  8
SUNPOU
 62
     4
100
AcDbLine
 10
551.4648820971409
 20
367.8984806542548
 30
0.0
 11
492.6777258789836
 21
337.8919648512092
 31
0.0
  0
INSERT
  5
ADA
330
443
100
AcDbEntity
  8
SUNPOU
 62
     4
100
AcDbBlockReference
  2
_OPEN
 10
557.6996539891972
 20
371.0808727504656
 30
0.0
 41
7.0
 42
7.0
 43
7.0
 50
27.04096577547744
  0
INSERT
  5
ADB
330
443
100
AcDbEntity
  8
SUNPOU
 62
     4
100
AcDbBlockReference
  2
_OPEN
 10
486.4429539869273
 20
334.7095727549984
 30
0.0
 41
7.0
 42
7.0
 43
7.0
 50
207.0409657754774
  0
MTEXT
  5
ADC
330
443
100
AcDbEntity
  8
SUNPOU
 62
     4
100
AcDbMText
 10
520.2040521729275
 20
357.5558058638643
 30
0.0
 40
6.0
 41
0.0
 71
     5
 72
     1
  1
\A1;80
 11
0.8906816988651852
 21
0.4546274423158239
 31
0.0
1001
ACAD
1000
MTEXTBEGIN
1070
    73
1070
     1
1070
    44
1040
1.0
1070
    74
1070
     0
1000
MTEXTEND
  0
POINT
  5
ADD
330
443
100
AcDbEntity
  8
DEFPOINTS
 62
     0
100
AcDbPoint
 10
579.749439036314
 20
327.8821166319669
 30
0.0
  0
POINT
  5
ADE
330
443
100
AcDbEntity
  8
DEFPOINTS
 62
     0
100
AcDbPoint
 10
508.492739034044
 20
291.5108166364997
 30
0.0
  0
POINT
  5
ADF
330
443
100
AcDbEntity
  8
DEFPOINTS
 62
     0
100
AcDbPoint
 10
486.4429539869273
 20
334.7095727549984
 30
0.0
  0
ENDBLK
  5
629
330
443
100
AcDbEntity
  8
0
100
AcDbBlockEnd
  0
BLOCK
  5
589
330
57A
100
AcDbEntity
  8
0
100
AcDbBlockBegin
  2
*D9
 70
     1
 10
0.0
 20
0.0
 30
0.0
  3
*D9
  1

  0
LINE
  5
AA4
330
57A
100
AcDbEntity
  8
SUNPOU
 62
     4
100
AcDbLine
 10
394.2298811788113
 20
247.9389377463149
 30
0.0
 11
394.2298811788113
 21
286.1632604676387
 31
0.0
  0
LINE
  5
AA5
330
57A
100
AcDbEntity
  8
SUNPOU
 62
     4
100
AcDbLine
 10
396.3084390321975
 20
215.5259166404009
 30
0.0
 11
396.3084390321975
 21
286.1632604676387
 31
0.0
  0
LINE
  5
AA6
330
57A
100
AcDbEntity
  8
SUNPOU
 62
     4
100
AcDbLine
 10
387.2298811788112
 20
283.1632604676387
 30
0.0
 11
380.2298811788113
 21
283.1632604676387
 31
0.0
  0
LINE
  5
AA7
330
57A
100
AcDbEntity
  8
SUNPOU
 62
     4
100
AcDbLine
 10
403.3084390321975
 20
283.1632604676387
 30
0.0
 11
418.3084390321974
 21
283.1632604676387
 31
0.0
  0
LINE
  5
AA8
330
57A
100
AcDbEntity
  8
SUNPOU
 62
     4
100
AcDbLine
 10
394.2298811788113
 20
283.1632604676387
 30
0.0
 11
396.3084390321975
 21
283.1632604676387
 31
0.0
  0
INSERT
  5
AA9
330
57A
100
AcDbEntity
  8
SUNPOU
 62
     4
100
AcDbBlockReference
  2
_OPEN
 10
394.2298811788113
 20
283.1632604676387
 30
0.0
 41
7.0
 42
7.0
 43
7.0
  0
INSERT
  5
AAA
330
57A
100
AcDbEntity
  8
SUNPOU
 62
     4
100
AcDbBlockReference
  2
_OPEN
 10
396.3084390321975
 20
283.1632604676387
 30
0.0
 41
7.0
 42
7.0
 43
7.0
 50
180.0
  0
MTEXT
  5
AAB
330
57A
100
AcDbEntity
  8
SUNPOU
 62
     4
100
AcDbMText
 10
414.3084390321974
 20
288.1632604676387
 30
0.0
 40
6.0
 41
0.0
 71
     5
 72
     1
  1
\A1;2
1001
ACAD
1000
MTEXTBEGIN
1070
    73
1070
     1
1070
    44
1040
1.0
1070
    74
1070
     0
1000
MTEXTEND
  0
POINT
  5
AAC
330
57A
100
AcDbEntity
  8
DEFPOINTS
 62
     0
100
AcDbPoint
 10
394.2298811788113
 20
241.9389377463148
 30
0.0
  0
POINT
  5
AAD
330
57A
100
AcDbEntity
  8
DEFPOINTS
 62
     0
100
AcDbPoint
 10
396.3084390321975
 20
209.5259166404009
 30
0.0
  0
POINT
  5
AAE
330
57A
100
AcDbEntity
  8
DEFPOINTS
 62
     0
100
AcDbPoint
 10
396.3084390321975
 20
283.1632604676387
 30
0.0
  0
ENDBLK
  5
595
330
57A
100
AcDbEntity
  8
0
100
AcDbBlockEnd
  0
BLOCK
  5
62A
330
5D1
100
AcDbEntity
  8
0
100
AcDbBlockBegin
  2
*D10
 70
     1
 10
0.0
 20
0.0
 30
0.0
  3
*D10
  1

  0
LINE
  5
AB8
330
5D1
100
AcDbEntity
  8
SUNPOU
 62
     4
100
AcDbLine
 10
535.837844923889
 20
312.837614378027
 30
0.0
 11
480.8390775529655
 21
285.1159534863705
 31
0.0
  0
LINE
  5
AB9
330
5D1
100
AcDbEntity
  8
SUNPOU
 62
     4
100
AcDbLine
 10
508.5861928914668
 20
282.4152977237068
 30
0.0
 11
487.5457973187285
 21
271.810065298041
 31
0.0
  0
LINE
  5
ABA
330
5D1
100
AcDbEntity
  8
SUNPOU
 62
     4
100
AcDbLine
 10
480.3673252959369
 20
292.7171014133607
 30
0.0
 11
477.2166362086749
 21
298.9679540172387
 31
0.0
  0
LINE
  5
ABB
330
5D1
100
AcDbEntity
  8
SUNPOU
 62
     4
100
AcDbLine
 10
493.3754232362239
 20
266.9095080172754
 30
0.0
 11
496.5261123234859
 21
260.6586554133974
 31
0.0
  0
LINE
  5
ABC
330
5D1
100
AcDbEntity
  8
SUNPOU
 62
     4
100
AcDbLine
 10
483.518014383199
 20
286.4662488094828
 30
0.0
 11
490.2247341489618
 21
273.1603606211534
 31
0.0
  0
INSERT
  5
ABD
330
5D1
100
AcDbEntity
  8
SUNPOU
 62
     4
100
AcDbBlockReference
  2
_OPEN
 10
483.518014383199
 20
286.4662488094828
 30
0.0
 41
7.0
 42
7.0
 43
7.0
 50
296.75
  0
INSERT
  5
ABE
330
5D1
100
AcDbEntity
  8
SUNPOU
 62
     4
100
AcDbBlockReference
  2
_OPEN
 10
490.2247341489618
 20
273.1603606211534
 30
0.0
 41
7.0
 42
7.0
 43
7.0
 50
116.75
  0
MTEXT
  5
ABF
330
5D1
100
AcDbEntity
  8
SUNPOU
 62
     4
100
AcDbMText
 10
491.3362689831362
 20
282.0637969205053
 30
0.0
 40
6.0
 41
0.0
 71
     5
 72
     1
  1
\A1;15
 11
0.4500984410374353
 21
-0.8929789434111368
 31
0.0
1001
ACAD
1000
MTEXTBEGIN
1070
    73
1070
     1
1070
    44
1040
1.0
1070
    74
1070
     0
1000
MTEXTEND
  0
POINT
  5
AC0
330
5D1
100
AcDbEntity
  8
DEFPOINTS
 62
     0
100
AcDbPoint
 10
541.1957185843558
 20
315.5382050242516
 30
0.0
  0
POINT
  5
AC1
330
5D1
100
AcDbEntity
  8
DEFPOINTS
 62
     0
100
AcDbPoint
 10
513.9440665519336
 20
285.1158883699314
 30
0.0
  0
POINT
  5
AC2
330
5D1
100
AcDbEntity
  8
DEFPOINTS
 62
     0
100
AcDbPoint
 10
490.2247341489618
 20
273.1603606211534
 30
0.0
  0
ENDBLK
  5
636
330
5D1
100
AcDbEntity
  8
0
100
AcDbBlockEnd
  0
BLOCK
  5
609
330
5E0
100
AcDbEntity
  8
0
100
AcDbBlockBegin
  2
*D11
 70
     1
 10
0.0
 20
0.0
 30
0.0
  3
*D11
  1

  0
LINE
  5
ACE
330
5E0
100
AcDbEntity
  8
SUNPOU
 62
     4
100
AcDbLine
 10
508.5861928914668
 20
282.4152977237068
 30
0.0
 11
487.5457973187283
 21
271.810065298041
 31
0.0
  0
LINE
  5
ACF
330
5E0
100
AcDbEntity
  8
SUNPOU
 62
     4
100
AcDbLine
 10
559.38923940656
 20
251.9367132728288
 30
0.0
 11
510.0881253308618
 21
227.0869060622417
 31
0.0
  0
LINE
  5
AD0
330
5E0
100
AcDbEntity
  8
SUNPOU
 62
     4
100
AcDbLine
 10
493.3754232362238
 20
266.9095080172753
 30
0.0
 11
509.6163730738332
 21
234.6880539892319
 31
0.0
  0
INSERT
  5
AD1
330
5E0
100
AcDbEntity
  8
SUNPOU
 62
     4
100
AcDbBlockReference
  2
_OPEN
 10
490.2247341489617
 20
273.1603606211533
 30
0.0
 41
7.0
 42
7.0
 43
7.0
 50
116.75
  0
INSERT
  5
AD2
330
5E0
100
AcDbEntity
  8
SUNPOU
 62
     4
100
AcDbBlockReference
  2
_OPEN
 10
512.7670621610953
 20
228.437201385354
 30
0.0
 41
7.0
 42
7.0
 43
7.0
 50
296.75
  0
MTEXT
  5
AD3
330
5E0
100
AcDbEntity
  8
SUNPOU
 62
     4
100
AcDbMText
 10
505.9607928720842
 20
253.0492732084408
 30
0.0
 40
6.0
 41
0.0
 71
     5
 72
     1
  1
\A1;50
 11
0.4500984410374353
 21
-0.8929789434111368
 31
0.0
1001
ACAD
1000
MTEXTBEGIN
1070
    73
1070
     1
1070
    44
1040
1.0
1070
    74
1070
     0
1000
MTEXTEND
  0
POINT
  5
AD4
330
5E0
100
AcDbEntity
  8
DEFPOINTS
 62
     0
100
AcDbPoint
 10
513.9440665519336
 20
285.1158883699314
 30
0.0
  0
POINT
  5
AD5
330
5E0
100
AcDbEntity
  8
DEFPOINTS
 62
     0
100
AcDbPoint
 10
564.7471130670269
 20
254.6373039190534
 30
0.0
  0
POINT
  5
AD6
330
5E0
100
AcDbEntity
  8
DEFPOINTS
 62
     0
100
AcDbPoint
 10
512.7670621610953
 20
228.437201385354
 30
0.0
  0
ENDBLK
  5
613
330
5E0
100
AcDbEntity
  8
0
100
AcDbBlockEnd
  0
BLOCK
  5
5FC
330
5ED
100
AcDbEntity
  8
0
100
AcDbBlockBegin
  2
*D12
 70
     1
 10
0.0
 20
0.0
 30
0.0
  3
*D12
  1

  0
LINE
  5
AC3
330
5ED
100
AcDbEntity
  8
SUNPOU
 62
     4
100
AcDbLine
 10
559.38923940656
 20
251.9367132728288
 30
0.0
 11
510.0881253308618
 21
227.0869060622417
 31
0.0
  0
LINE
  5
AC4
330
5ED
100
AcDbEntity
  8
SUNPOU
 62
     4
100
AcDbLine
 10
568.5242863073987
 20
247.5641374087407
 30
0.0
 11
513.6962443074089
 21
219.9285291881687
 31
0.0
  0
LINE
  5
AC5
330
5ED
100
AcDbEntity
  8
SUNPOU
 62
     4
100
AcDbLine
 10
509.6163730738332
 20
234.6880539892319
 30
0.0
 11
506.4656839865712
 21
240.9389065931099
 31
0.0
  0
LINE
  5
AC6
330
5ED
100
AcDbEntity
  8
SUNPOU
 62
     4
100
AcDbLine
 10
519.5258702249043
 20
215.027971907403
 30
0.0
 11
522.6765593121664
 21
208.7771193035251
 31
0.0
  0
LINE
  5
AC7
330
5ED
100
AcDbEntity
  8
SUNPOU
 62
     4
100
AcDbLine
 10
512.7670621610953
 20
228.437201385354
 30
0.0
 11
516.3751811376423
 21
221.278824511281
 31
0.0
  0
INSERT
  5
AC8
330
5ED
100
AcDbEntity
  8
SUNPOU
 62
     4
100
AcDbBlockReference
  2
_OPEN
 10
512.7670621610953
 20
228.437201385354
 30
0.0
 41
7.0
 42
7.0
 43
7.0
 50
296.75
  0
INSERT
  5
AC9
330
5ED
100
AcDbEntity
  8
SUNPOU
 62
     4
100
AcDbBlockReference
  2
_OPEN
 10
516.3751811376423
 20
221.278824511281
 30
0.0
 41
7.0
 42
7.0
 43
7.0
 50
116.75
  0
MTEXT
  5
ACA
330
5ED
100
AcDbEntity
  8
SUNPOU
 62
     4
100
AcDbMText
 10
519.0360163664244
 20
227.1085051535047
 30
0.0
 40
6.0
 41
0.0
 71
     5
 72
     1
  1
\A1;8
 11
0.4500984410374353
 21
-0.8929789434111368
 31
0.0
1001
ACAD
1000
MTEXTBEGIN
1070
    73
1070
     1
1070
    44
1040
1.0
1070
    74
1070
     0
1000
MTEXTEND
  0
POINT
  5
ACB
330
5ED
100
AcDbEntity
  8
DEFPOINTS
 62
     0
100
AcDbPoint
 10
564.7471130670269
 20
254.6373039190534
 30
0.0
  0
POINT
  5
ACC
330
5ED
100
AcDbEntity
  8
DEFPOINTS
 62
     0
100
AcDbPoint
 10
573.8821599678657
 20
250.2647280549653
 30
0.0
  0
POINT
  5
ACD
330
5ED
100
AcDbEntity
  8
DEFPOINTS
 62
     0
100
AcDbPoint
 10
516.3751811376423
 20
221.278824511281
 30
0.0
  0
ENDBLK
  5
608
330
5ED
100
AcDbEntity
  8
0
100
AcDbBlockEnd
  0
BLOCK
  5
646
330
637
100
AcDbEntity
  8
0
100
AcDbBlockBegin
  2
*D13
 70
     1
 10
0.0
 20
0.0
 30
0.0
  3
*D13
  1

  0
LINE
  5
A87
330
637
100
AcDbEntity
  8
SUNPOU
 62
     4
100
AcDbLine
 10
263.3367320877317
 20
245.2064235917528
 30
0.0
 11
263.3367320877317
 21
300.0126321996867
 31
0.0
  0
LINE
  5
A88
330
637
100
AcDbEntity
  8
SUNPOU
 62
     4
100
AcDbLine
 10
394.2298390321516
 20
247.9389166402785
 30
0.0
 11
394.2298390321516
 21
300.0126321996867
 31
0.0
  0
LINE
  5
A89
330
637
100
AcDbEntity
  8
SUNPOU
 62
     4
100
AcDbLine
 10
270.3367320877317
 20
297.0126321996867
 30
0.0
 11
387.2298390321516
 21
297.0126321996867
 31
0.0
  0
INSERT
  5
A8A
330
637
100
AcDbEntity
  8
SUNPOU
 62
     4
100
AcDbBlockReference
  2
_OPEN
 10
263.3367320877317
 20
297.0126321996867
 30
0.0
 41
7.0
 42
7.0
 43
7.0
 50
180.0
  0
INSERT
  5
A8B
330
637
100
AcDbEntity
  8
SUNPOU
 62
     4
100
AcDbBlockReference
  2
_OPEN
 10
394.2298390321516
 20
297.0126321996867
 30
0.0
 41
7.0
 42
7.0
 43
7.0
  0
MTEXT
  5
A8C
330
637
100
AcDbEntity
  8
SUNPOU
 62
     4
100
AcDbMText
 10
328.7832855599416
 20
302.0126321996867
 30
0.0
 40
6.0
 41
0.0
 71
     5
 72
     1
  1
\A1;131
1001
ACAD
1000
MTEXTBEGIN
1070
    73
1070
     1
1070
    44
1040
1.0
1070
    74
1070
     0
1000
MTEXTEND
  0
POINT
  5
A8D
330
637
100
AcDbEntity
  8
DEFPOINTS
 62
     0
100
AcDbPoint
 10
263.3367320877317
 20
239.2064235917528
 30
0.0
  0
POINT
  5
A8E
330
637
100
AcDbEntity
  8
DEFPOINTS
 62
     0
100
AcDbPoint
 10
394.2298390321516
 20
241.9389166402785
 30
0.0
  0
POINT
  5
A8F
330
637
100
AcDbEntity
  8
DEFPOINTS
 62
     0
100
AcDbPoint
 10
394.2298390321516
 20
297.0126321996867
 30
0.0
  0
ENDBLK
  5
650
330
637
100
AcDbEntity
  8
0
100
AcDbBlockEnd
  0
ENDSEC
  0
SECTION
  2
ENTITIES
  0
LINE
  5
28B
330
1A
100
AcDbEntity
  8
CENTER_L
  6
CENTER
 62
     1
 48
5.0
100
AcDbLine
 10
431.2650390321516
 20
187.7946166402785
 30
0.0
 11
412.1157390321516
 21
178.2055166402785
 31
0.0
  0
LINE
  5
28C
330
1A
100
AcDbEntity
  8
SEIHIN
  6
CENTER
 62
     3
 48
5.0
100
AcDbLine
 10
408.4221390321516
 20
394.0951878068563
 30
0.0
 11
417.1982390321516
 21
394.0951878068563
 31
0.0
  0
LINE
  5
292
330
1A
100
AcDbEntity
  8
SEIHIN
  6
CONTINUOUS
 62
     3
 48
5.0
100
AcDbLine
 10
407.1425390321516
 20
429.1178878068566
 30
0.0
 11
419.6391390321516
 21
416.1359878068566
 31
0.0
  0
LINE
  5
293
330
1A
100
AcDbEntity
  8
SEIHIN
  6
CONTINUOUS
 62
     3
 48
5.0
100
AcDbLine
 10
425.1235390321515
 20
415.9556878068563
 30
0.0
 11
407.6609390321515
 21
434.0951878068564
 31
0.0
  0
LINE
  5
294
330
1A
100
AcDbEntity
  8
SEIHIN
  6
CONTINUOUS
 62
     3
 48
5.0
100
AcDbLine
 10
425.1235390321515
 20
372.2347878068566
 30
0.0
 11
407.6609390321515
 21
354.0951878068564
 31
0.0
  0
LINE
  5
295
330
1A
100
AcDbEntity
  8
SEIHIN
  6
CONTINUOUS
 62
     3
 48
5.0
100
AcDbLine
 10
407.1425390321516
 20
359.0724878068565
 30
0.0
 11
419.6391390321516
 21
372.0544878068566
 31
0.0
  0
LINE
  5
297
330
1A
100
AcDbEntity
  8
SEIHIN
  6
CONTINUOUS
 62
     3
 48
5.0
100
AcDbLine
 10
420.4315278411321
 20
173.9818389884282
 30
0.0
 11
407.2227390321514
 21
200.3594166402785
 31
0.0
  0
LINE
  5
29C
330
1A
100
AcDbEntity
  8
SEIHIN
  6
CONTINUOUS
 62
     3
 48
5.0
100
AcDbLine
 10
291.2455390321515
 20
236.1810166402785
 30
0.0
 11
306.1997390321516
 21
213.2143166402785
 31
0.0
  0
LINE
  5
29D
330
1A
100
AcDbEntity
  8
SEIHIN
  6
CONTINUOUS
 62
     3
 48
5.0
100
AcDbLine
 10
302.0096390321515
 20
210.4860166402784
 30
0.0
 11
288.0001390321515
 21
232.0021166402785
 31
0.0
  0
LINE
  5
29E
330
1A
100
AcDbEntity
  8
SEIHIN
  6
CONTINUOUS
 62
     3
 48
5.0
100
AcDbLine
 10
301.0253390321514
 20
197.1435166402785
 30
0.0
 11
286.2453390321515
 21
231.0569166402785
 31
0.0
  0
LINE
  5
29F
330
1A
100
AcDbEntity
  8
SEIHIN
  6
CONTINUOUS
 62
     3
 48
5.0
100
AcDbLine
 10
296.4417390321516
 20
195.1459166402784
 30
0.0
 11
280.7046390321516
 21
231.2555166402785
 31
0.0
  0
ARC
  5
2A5
330
1A
100
AcDbEntity
  8
SEIHIN
  6
CONTINUOUS
 62
     3
 48
5.0
100
AcDbCircle
 10
265.8366415861344
 20
219.1993070913976
 30
0.0
 40
2.499960891677601
100
AcDbArc
 50
121.1720121221854
 51
268.7759913710839
  0
ARC
  5
2A8
330
1A
100
AcDbEntity
  8
SEIHIN
  6
CONTINUOUS
 62
     3
 48
5.0
100
AcDbCircle
 10
270.0867390392061
 20
239.2064235917528
 30
0.0
 40
6.750006951474322
100
AcDbArc
 50
89.88371088804758
 51
269.99999994012
  0
ARC
  5
2A9
330
1A
100
AcDbEntity
  8
SEIHIN
  6
CONTINUOUS
 62
     3
 48
5.0
100
AcDbCircle
 10
278.8712230721723
 20
230.4564270940832
 30
0.0
 40
1.99998954625904
100
AcDbArc
 50
23.54985365922474
 51
89.99954277788223
  0
LINE
  5
2AA
330
1A
100
AcDbEntity
  8
SEIHIN
  6
CONTINUOUS
 62
     3
 48
5.0
100
AcDbLine
 10
284.0493390321515
 20
216.3097166402785
 30
0.0
 11
265.7832390321515
 21
216.6999166402785
 31
0.0
  0
ARC
  5
2AB
330
1A
100
AcDbEntity
  8
SEIHIN
  6
CONTINUOUS
 62
     3
 48
5.0
100
AcDbCircle
 10
285.2478144679401
 20
187.1142085111743
 30
0.0
 40
40.00000889863678
100
AcDbArc
 50
110.2481527409071
 51
121.1733615968618
  0
ARC
  5
2AC
330
1A
100
AcDbEntity
  8
SEIHIN
  6
CONTINUOUS
 62
     3
 48
5.0
100
AcDbCircle
 10
270.1870358883928
 20
228.4564354872423
 30
0.0
 40
3.999981153037484
100
AcDbArc
 50
288.9399687355508
 51
89.99995496876184
  0
LINE
  5
2AD
330
1A
100
AcDbEntity
  8
SEIHIN
  6
CONTINUOUS
 62
     3
 48
5.0
100
AcDbLine
 10
278.8712390321516
 20
232.4564166402785
 30
0.0
 11
270.0867390321516
 21
232.4564166402785
 31
0.0
  0
ARC
  5
2AE
330
1A
100
AcDbEntity
  8
SEIHIN
  6
CONTINUOUS
 62
     3
 48
5.0
100
AcDbCircle
 10
283.9426281286069
 20
211.3108234459655
 30
0.0
 40
4.999986748488279
100
AcDbArc
 50
23.54815589827964
 51
92.50909281426798
  0
ARC
  5
2AF
330
1A
100
AcDbEntity
  8
SEIHIN
  6
CONTINUOUS
 62
     3
 48
5.0
100
AcDbCircle
 10
287.1620966668763
 20
231.4564476840629
 30
0.0
 40
1.000034807281
100
AcDbArc
 50
33.06909106761414
 51
203.5479958950401
  0
LINE
  5
2B0
330
1A
100
AcDbEntity
  8
SEIHIN
  6
CONTINUOUS
 62
     3
 48
5.0
100
AcDbLine
 10
271.5458390321515
 20
238.4528166402784
 30
0.0
 11
287.0555390321516
 21
238.4528166402784
 31
0.0
  0
LINE
  5
2B1
330
1A
100
AcDbEntity
  8
SEIHIN
  6
CONTINUOUS
 62
     3
 48
5.0
100
AcDbLine
 10
269.6731390321516
 20
241.1550166402785
 30
0.0
 11
271.2198390321516
 21
245.2795166402785
 31
0.0
  0
ARC
  5
2B2
330
1A
100
AcDbEntity
  8
SEIHIN
  6
CONTINUOUS
 62
     3
 48
5.0
100
AcDbCircle
 10
271.5458312244351
 20
240.452827906465
 30
0.0
 40
2.000011266201781
100
AcDbArc
 50
159.4458549258109
 51
270.0002236733406
  0
ARC
  5
2B3
330
1A
100
AcDbEntity
  8
SEIHIN
  6
CONTINUOUS
 62
     3
 48
5.0
100
AcDbCircle
 10
270.7516426647117
 20
245.4550113880684
 30
0.0
 40
0.5000062449467598
100
AcDbArc
 50
339.4524192104356
 51
89.88582605215837
  0
LINE
  5
2B4
330
1A
100
AcDbEntity
  8
SEIHIN
  6
CONTINUOUS
 62
     3
 48
5.0
100
AcDbLine
 10
270.7526390321516
 20
245.9550166402785
 30
0.0
 11
270.0867390321516
 21
245.9564166402785
 31
0.0
  0
LINE
  5
2B5
330
1A
100
AcDbEntity
  8
SEIHIN
  6
CONTINUOUS
 62
     3
 48
5.0
100
AcDbLine
 10
270.7527390321515
 20
245.9550166402785
 30
0.0
 11
270.0867390321516
 21
245.9564166402785
 31
0.0
  0
ARC
  5
2B6
330
1A
100
AcDbEntity
  8
SEIHIN
  6
CONTINUOUS
 62
     3
 48
5.0
100
AcDbCircle
 10
287.0554629713548
 20
233.4528578786186
 30
0.0
 40
4.999958762238385
100
AcDbArc
 50
33.06815362938478
 51
89.99912840028256
  0
ARC
  5
2B7
330
1A
100
AcDbEntity
  8
SEIHIN
  6
CONTINUOUS
 62
     3
 48
5.0
100
AcDbCircle
 10
394.7553903195828
 20
201.9423811545582
 30
0.0
 40
39.99998818770082
100
AcDbArc
 50
90.75281865011154
 51
161.8737435802407
  0
LINE
  5
2B9
330
1A
100
AcDbEntity
  8
SEIHIN
  6
CONTINUOUS
 62
     3
 48
5.0
100
AcDbLine
 10
372.2152390321514
 20
205.9424166402784
 30
0.0
 11
310.3897390321516
 21
205.9425166402785
 31
0.0
  0
LINE
  5
2BA
330
1A
100
AcDbEntity
  8
SEIHIN
  6
CONTINUOUS
 62
     3
 48
5.0
100
AcDbLine
 10
370.1950390321516
 20
195.9424166402785
 30
0.0
 11
302.8588390321516
 21
195.9425166402784
 31
0.0
  0
LINE
  5
2BB
330
1A
100
AcDbEntity
  8
SEIHIN
  6
CONTINUOUS
 62
     3
 48
5.0
100
AcDbLine
 10
368.6137390321514
 20
190.9424166402784
 30
0.0
 11
302.8588390321516
 21
190.9425166402785
 31
0.0
  0
ARC
  5
2BC
330
1A
100
AcDbEntity
  8
SEIHIN
  6
CONTINUOUS
 62
     3
 48
5.0
100
AcDbCircle
 10
310.389837811146
 20
215.9425173023028
 30
0.0
 40
5.000000663000053
100
AcDbArc
 50
213.0684139534136
 51
269.9988680762525
  0
LINE
  5
2BD
330
1A
100
AcDbEntity
  8
SEIHIN
  6
CONTINUOUS
 62
     3
 48
5.0
100
AcDbLine
 10
351.9885927831693
 20
210.9424166363029
 30
0.0
 11
310.3897390321516
 21
210.9425166402785
 31
0.0
  0
ARC
  5
2BE
330
1A
100
AcDbEntity
  8
SEIHIN
  6
CONTINUOUS
 62
     3
 48
5.0
100
AcDbCircle
 10
310.3898365887731
 20
215.9425179650529
 30
0.0
 40
10.00000132525022
100
AcDbArc
 50
213.0684139611726
 51
269.9994410418066
  0
ARC
  5
2BF
330
1A
100
AcDbEntity
  8
SEIHIN
  6
CONTINUOUS
 62
     3
 48
5.0
100
AcDbCircle
 10
302.8588311829909
 20
197.9425217818153
 30
0.0
 40
7.000005142143375
100
AcDbArc
 50
203.5478452102748
 51
269.9992457356728
  0
ARC
  5
2C0
330
1A
100
AcDbEntity
  8
SEIHIN
  6
CONTINUOUS
 62
     3
 48
5.0
100
AcDbCircle
 10
302.8588155130699
 20
197.9425320464098
 30
0.0
 40
2.000015406269726
100
AcDbArc
 50
203.5472138883934
 51
270.0006737668698
  0
LINE
  5
2C1
330
1A
100
AcDbEntity
  8
SEIHIN
  6
CONTINUOUS
 62
     3
 48
5.0
100
AcDbLine
 10
356.8465390321516
 20
214.7063166402785
 30
0.0
 11
356.7256390321515
 21
214.3470166402785
 31
0.0
  0
ARC
  5
2C2
330
1A
100
AcDbEntity
  8
SEIHIN
  6
CONTINUOUS
 62
     3
 48
5.0
100
AcDbCircle
 10
399.4785262262635
 20
211.4292398185192
 30
0.0
 40
2.999987194201519
100
AcDbArc
 50
180.000442673681
 51
237.8414024554137
  0
ARC
  5
2C3
330
1A
100
AcDbEntity
  8
SEIHIN
  6
CONTINUOUS
 62
     3
 48
5.0
100
AcDbCircle
 10
375.2455112639661
 20
212.9423966900794
 30
0.0
 40
1.999980049993735
100
AcDbArc
 50
270.0007955078538
 51
341.3919051905509
  0
ARC
  5
2C4
330
1A
100
AcDbEntity
  8
SEIHIN
  6
CONTINUOUS
 62
     3
 48
5.0
100
AcDbCircle
 10
363.6427411313362
 20
212.9424136715241
 30
0.0
 40
1.999997031246733
100
AcDbArc
 50
160.5276462272132
 51
269.9999398627026
  0
LINE
  5
2C5
330
1A
100
AcDbEntity
  8
SEIHIN
  6
CONTINUOUS
 62
     3
 48
5.0
100
AcDbLine
 10
407.2226390321515
 20
200.3593166402784
 30
0.0
 11
384.1372135618716
 21
239.8539740692974
 31
0.0
  0
LINE
  5
2C6
330
1A
100
AcDbEntity
  8
SEIHIN
  6
CONTINUOUS
 62
     3
 48
5.0
100
AcDbLine
 10
378.1808390321514
 20
199.7232166402784
 30
0.0
 11
382.8322390321516
 21
213.5378166402785
 31
0.0
  0
ARC
  5
2C7
330
1A
100
AcDbEntity
  8
SEIHIN
  6
CONTINUOUS
 62
     3
 48
5.0
100
AcDbCircle
 10
387.6429656696594
 20
198.951576362249
 30
0.0
 40
0.4999777080917435
100
AcDbArc
 50
329.858196121946
 51
97.10330909065987
  0
ARC
  5
2C8
330
1A
100
AcDbEntity
  8
SEIHIN
  6
CONTINUOUS
 62
     3
 48
5.0
100
AcDbCircle
 10
372.2152587439311
 20
203.9423892044047
 30
0.0
 40
2.000027435970838
100
AcDbArc
 50
341.3925885231614
 51
90.00056469314449
  0
LINE
  5
2C9
330
1A
100
AcDbEntity
  8
SEIHIN
  6
CONTINUOUS
 62
     3
 48
5.0
100
AcDbLine
 10
372.0905390321514
 20
197.3042166402784
 30
0.0
 11
374.1107390321516
 21
203.3042166402784
 31
0.0
  0
LINE
  5
2CA
330
1A
100
AcDbEntity
  8
SEIHIN
  6
CONTINUOUS
 62
     3
 48
5.0
100
AcDbLine
 10
375.2455390321516
 20
210.9424166402785
 30
0.0
 11
363.6427390321516
 21
210.9424166402785
 31
0.0
  0
LINE
  5
2CB
330
1A
100
AcDbEntity
  8
SEIHIN
  6
CONTINUOUS
 62
     3
 48
5.0
100
AcDbLine
 10
382.9303390321516
 20
193.3537166402785
 30
0.0
 11
370.3814390321514
 21
191.0999166402784
 31
0.0
  0
ARC
  5
2CC
330
1A
100
AcDbEntity
  8
SEIHIN
  6
CONTINUOUS
 62
     3
 48
5.0
100
AcDbCircle
 10
370.1950772188185
 20
197.942444076152
 30
0.0
 40
2.000027436238066
100
AcDbArc
 50
269.9989060475818
 51
341.3909298775982
  0
ARC
  5
2CD
330
1A
100
AcDbEntity
  8
SEIHIN
  6
CONTINUOUS
 62
     3
 48
5.0
100
AcDbCircle
 10
368.613618233904
 20
200.9424058787668
 30
0.0
 40
9.99998923921805
100
AcDbArc
 50
270.0006921237195
 51
280.1823919244113
  0
LINE
  5
2CE
330
1A
100
AcDbEntity
  8
SEIHIN
  6
CONTINUOUS
 62
     3
 48
5.0
100
AcDbLine
 10
379.2520390321516
 20
198.4118166402785
 30
0.0
 11
387.5811390321516
 21
199.4478166402785
 31
0.0
  0
ARC
  5
2CF
330
1A
100
AcDbEntity
  8
SEIHIN
  6
CONTINUOUS
 62
     3
 48
5.0
100
AcDbCircle
 10
379.1285299612336
 20
199.404127745382
 30
0.0
 40
0.9999679094405383
100
AcDbArc
 50
161.3915468594611
 51
277.0948935052571
  0
ARC
  5
2D0
330
1A
100
AcDbEntity
  8
SEIHIN
  6
CONTINUOUS
 62
     3
 48
5.0
100
AcDbCircle
 10
382.0465657764465
 20
198.2749353814228
 30
0.0
 40
4.999944906265488
100
AcDbArc
 50
280.1808975352581
 51
329.8603527101013
  0
LINE
  5
2D1
330
1A
100
AcDbEntity
  8
SEIHIN
  6
CONTINUOUS
 62
     3
 48
5.0
100
AcDbLine
 10
388.0753390321515
 20
198.7005166402784
 30
0.0
 11
386.3705390321516
 21
195.7644166402785
 31
0.0
  0
LINE
  5
2D2
330
1A
100
AcDbEntity
  8
SEIHIN
  6
CONTINUOUS
 62
     3
 48
5.0
100
AcDbLine
 10
399.1738390321514
 20
191.1079166402785
 30
0.0
 11
400.9785390321516
 21
188.9423166402785
 31
0.0
  0
LINE
  5
2D3
330
1A
100
AcDbEntity
  8
SEIHIN
  6
CONTINUOUS
 62
     3
 48
5.0
100
AcDbLine
 10
407.1793390321516
 20
189.1540166402784
 30
0.0
 11
409.9119390321516
 21
190.5223166402785
 31
0.0
  0
LINE
  5
2D4
330
1A
100
AcDbEntity
  8
SEIHIN
  6
CONTINUOUS
 62
     3
 48
5.0
100
AcDbLine
 10
400.9785390321516
 20
188.9423166402785
 30
0.0
 11
406.2838390321515
 21
188.9423166402785
 31
0.0
  0
ARC
  5
2D5
330
1A
100
AcDbEntity
  8
SEIHIN
  6
CONTINUOUS
 62
     3
 48
5.0
100
AcDbCircle
 10
406.2838057919947
 20
190.9423087827476
 30
0.0
 40
1.999992142745317
100
AcDbArc
 50
270.0009522640925
 51
296.6005953746901
  0
LINE
  5
2D6
330
1A
100
AcDbEntity
  8
SEIHIN
  6
CONTINUOUS
 62
     3
 48
5.0
100
AcDbLine
 10
400.9785390321516
 20
198.9423166402784
 30
0.0
 11
400.9785390321516
 21
206.9424166402785
 31
0.0
  0
ARC
  5
2D7
330
1A
100
AcDbEntity
  8
SEIHIN
  6
CONTINUOUS
 62
     3
 48
5.0
100
AcDbCircle
 10
401.4785294921211
 20
193.0285429892649
 30
0.0
 40
2.999990460085378
100
AcDbArc
 50
180.0005032301738
 51
219.8075415263387
  0
ARC
  5
2D8
330
1A
100
AcDbEntity
  8
SEIHIN
  6
CONTINUOUS
 62
     3
 48
5.0
100
AcDbCircle
 10
401.4784974824094
 20
194.8561018778157
 30
0.0
 40
2.999958452452965
100
AcDbArc
 50
140.1922370757903
 51
179.9978081680553
  0
LINE
  5
2D9
330
1A
100
AcDbEntity
  8
SEIHIN
  6
CONTINUOUS
 62
     3
 48
5.0
100
AcDbLine
 10
398.4785390321515
 20
194.8562166402785
 30
0.0
 11
398.4785390321515
 21
193.0285166402784
 31
0.0
  0
LINE
  5
2DA
330
1A
100
AcDbEntity
  8
SEIHIN
  6
CONTINUOUS
 62
     3
 48
5.0
100
AcDbLine
 10
400.9785390321516
 20
198.9423166402784
 30
0.0
 11
399.1738390321514
 21
196.7767166402784
 31
0.0
  0
LINE
  5
2DB
330
1A
100
AcDbEntity
  8
SEIHIN
  6
CONTINUOUS
 62
     3
 48
5.0
100
AcDbLine
 10
400.9786390321515
 20
206.9424166402785
 30
0.0
 11
397.8817390321514
 21
208.8895166402785
 31
0.0
  0
ARC
  5
2DC
330
1A
100
AcDbEntity
  8
SEIHIN
  6
CONTINUOUS
 62
     3
 48
5.0
100
AcDbCircle
 10
410.8074390321515
 20
188.7340166402784
 30
0.0
 40
1.999984284938264
100
AcDbArc
 50
26.59964311059569
 51
116.5996431105945
  0
ARC
  5
2DF
330
1A
100
AcDbEntity
  8
SEIHIN
  6
CONTINUOUS
 62
     3
 48
5.0
100
AcDbCircle
 10
385.6275393571245
 20
227.3961173149208
 30
0.0
 40
4.99999262899454
100
AcDbArc
 50
278.2539093530254
 51
30.30617078161731
  0
ARC
  5
2E0
330
1A
100
AcDbEntity
  8
SEIHIN
  6
CONTINUOUS
 62
     3
 48
5.0
100
AcDbCircle
 10
384.1110785199787
 20
229.9905026911775
 30
0.0
 40
5.000016661001184
100
AcDbArc
 50
30.3075312285205
 51
110.7815988747577
  0
LINE
  5
2E1
330
1A
100
AcDbEntity
  8
SEIHIN
  6
CONTINUOUS
 62
     3
 48
5.0
100
AcDbLine
 10
395.8081390321515
 20
216.9424166402785
 30
0.0
 11
387.5707390321516
 21
216.9424166402785
 31
0.0
  0
ARC
  5
2E2
330
1A
100
AcDbEntity
  8
SEIHIN
  6
CONTINUOUS
 62
     3
 48
5.0
100
AcDbCircle
 10
394.7553947959564
 20
201.9423713805647
 30
0.0
 40
35.0000023109656
100
AcDbArc
 50
110.7818088284266
 51
160.5284706073123
  0
ARC
  5
2E3
330
1A
100
AcDbEntity
  8
SEIHIN
  6
CONTINUOUS
 62
     3
 48
5.0
100
AcDbCircle
 10
387.7756008888683
 20
212.5506848404201
 30
0.0
 40
9.99996404024116
100
AcDbArc
 50
98.24386777775613
 51
161.3912329388625
  0
LINE
  5
2E4
330
1A
100
AcDbEntity
  8
SEIHIN
  6
CONTINUOUS
 62
     3
 48
5.0
100
AcDbLine
 10
378.2983390321517
 20
215.7417166402785
 30
0.0
 11
377.1409390321516
 21
212.3042166402784
 31
0.0
  0
ARC
  5
2E5
330
1A
100
AcDbEntity
  8
SEIHIN
  6
CONTINUOUS
 62
     3
 48
5.0
100
AcDbCircle
 10
387.5707647033046
 20
211.9424350843464
 30
0.0
 40
4.999981555997978
100
AcDbArc
 50
90.00029417083018
 51
161.3928555390687
  0
LINE
  5
2EA
330
1A
100
AcDbEntity
  8
CENTER_L
  6
CENTER
 62
     1
 48
5.0
100
AcDbLine
 10
390.5947390321516
 20
223.3472166402786
 30
0.0
 11
408.2085390321514
 21
232.1675166402784
 31
0.0
  0
LINE
  5
2EB
330
1A
100
AcDbEntity
  8
SEIHIN
  6
CONTINUOUS
 62
     3
 48
5.0
100
AcDbLine
 10
407.6610390321515
 20
215.1178166402785
 30
0.0
 11
400.6485390321516
 21
211.6062166402785
 31
0.0
  0
ARC
  5
2EC
330
1A
100
AcDbEntity
  8
SEIHIN
  6
CONTINUOUS
 62
     3
 48
5.0
100
AcDbCircle
 10
393.4785390321515
 20
213.9424166402785
 30
0.0
 40
2.999999999999957
100
AcDbArc
 50
359.9999999999975
 51
89.99999999999756
  0
ARC
  5
2ED
330
1A
100
AcDbEntity
  8
SEIHIN
  6
CONTINUOUS
 62
     3
 48
5.0
100
AcDbCircle
 10
395.8081380460067
 20
213.9424172061118
 30
0.0
 40
2.999999434166884
100
AcDbArc
 50
30.30700903811428
 51
89.99998116601897
  0
LINE
  5
2EE
330
1A
100
AcDbEntity
  8
SEIHIN
  6
CONTINUOUS
 62
     3
 48
5.0
100
AcDbLine
 10
396.4785390321515
 20
213.9424166402784
 30
0.0
 11
396.4785390321515
 21
211.4292166402784
 31
0.0
  0
LINE
  5
2F6
330
1A
100
AcDbEntity
  8
SEIHIN
  6
CONTINUOUS
 62
     3
 48
5.0
100
AcDbLine
 10
378.8090390321515
 20
409.0951878068564
 30
0.0
 11
263.3366390321516
 21
409.0951878068564
 31
0.0
  0
LINE
  5
2F7
330
1A
100
AcDbEntity
  8
SEIHIN
  6
CONTINUOUS
 62
     3
 48
5.0
100
AcDbLine
 10
378.8090390321515
 20
379.0951878068564
 30
0.0
 11
263.3366390321516
 21
379.0951878068564
 31
0.0
  0
LINE
  5
2F9
330
1A
100
AcDbEntity
  8
SEIHIN
  6
CONTINUOUS
 62
     3
 48
5.0
100
AcDbLine
 10
285.2284390321516
 20
394.0952878068563
 30
0.0
 11
285.2284390321516
 21
379.0951878068564
 31
0.0
  0
LINE
  5
2FA
330
1A
100
AcDbEntity
  8
SEIHIN
  6
CONTINUOUS
 62
     3
 48
5.0
100
AcDbLine
 10
271.4725390321516
 20
394.0951878068564
 30
0.0
 11
271.4726390321516
 21
379.0951878068564
 31
0.0
  0
LINE
  5
2FB
330
1A
100
AcDbEntity
  8
SEIHIN
  6
CONTINUOUS
 62
     3
 48
5.0
100
AcDbLine
 10
263.3366390321516
 20
394.0951878068564
 30
0.0
 11
263.3366390321516
 21
379.0951878068564
 31
0.0
  0
LINE
  5
305
330
1A
100
AcDbEntity
  8
SEIHIN
  6
CONTINUOUS
 62
     3
 48
5.0
100
AcDbLine
 10
263.3366390321516
 20
394.0951878068564
 30
0.0
 11
263.3366390321516
 21
409.0952878068566
 31
0.0
  0
LINE
  5
306
330
1A
100
AcDbEntity
  8
SEIHIN
  6
CONTINUOUS
 62
     3
 48
5.0
100
AcDbLine
 10
271.4725390321516
 20
394.0951878068564
 30
0.0
 11
271.4726390321516
 21
409.0952878068566
 31
0.0
  0
LINE
  5
307
330
1A
100
AcDbEntity
  8
SEIHIN
  6
CONTINUOUS
 62
     3
 48
5.0
100
AcDbLine
 10
285.2284390321516
 20
394.0951878068564
 30
0.0
 11
285.2284390321516
 21
409.0952878068566
 31
0.0
  0
LINE
  5
308
330
1A
100
AcDbEntity
  8
SEIHIN
  6
CONTINUOUS
 62
     3
 48
5.0
100
AcDbLine
 10
394.2211390321514
 20
394.0952878068563
 30
0.0
 11
394.2211390321514
 21
359.0951878068564
 31
0.0
  0
LINE
  5
309
330
1A
100
AcDbEntity
  8
SEIHIN
  6
CONTINUOUS
 62
     3
 48
5.0
100
AcDbLine
 10
402.2892390321516
 20
417.0951878068564
 30
0.0
 11
402.2892390321516
 21
371.0951878068564
 31
0.0
  0
LINE
  5
30A
330
1A
100
AcDbEntity
  8
SEIHIN
  6
CONTINUOUS
 62
     3
 48
5.0
100
AcDbLine
 10
403.1833390321517
 20
417.0951878068563
 30
0.0
 11
403.1833390321517
 21
371.0951878068564
 31
0.0
  0
LINE
  5
30B
330
1A
100
AcDbEntity
  8
SEIHIN
  6
CONTINUOUS
 62
     3
 48
5.0
100
AcDbLine
 10
411.6219390321516
 20
394.0952878068563
 30
0.0
 11
411.6219390321516
 21
365.5836878068565
 31
0.0
  0
LINE
  5
30C
330
1A
100
AcDbEntity
  8
SEIHIN
  6
CONTINUOUS
 62
     3
 48
5.0
100
AcDbLine
 10
405.4221390321516
 20
388.5951878068564
 30
0.0
 11
405.4221390321516
 21
359.7659878068566
 31
0.0
  0
LINE
  5
30D
330
1A
100
AcDbEntity
  8
SEIHIN
  6
CONTINUOUS
 62
     3
 48
5.0
100
AcDbLine
 10
418.4098390321514
 20
388.5951878068564
 30
0.0
 11
418.4098390321514
 21
373.4413878068565
 31
0.0
  0
LINE
  5
30E
330
1A
100
AcDbEntity
  8
SEIHIN
  6
CONTINUOUS
 62
     3
 48
5.0
100
AcDbLine
 10
355.5792390321517
 20
394.0952878068563
 30
0.0
 11
355.5792390321517
 21
379.0951878068564
 31
0.0
  0
LINE
  5
30F
330
1A
100
AcDbEntity
  8
SEIHIN
  6
CONTINUOUS
 62
     3
 48
5.0
100
AcDbLine
 10
396.4669390321517
 20
394.0952878068563
 30
0.0
 11
396.4669390321517
 21
371.0951878068564
 31
0.0
  0
LINE
  5
310
330
1A
100
AcDbEntity
  8
SEIHIN
  6
CONTINUOUS
 62
     3
 48
5.0
100
AcDbLine
 10
307.7482390321516
 20
394.0952878068563
 30
0.0
 11
307.7482390321516
 21
379.0951878068564
 31
0.0
  0
ARC
  5
314
330
1A
100
AcDbEntity
  8
SEIHIN
  6
CONTINUOUS
 62
     3
 48
5.0
100
AcDbCircle
 10
388.8090390321515
 20
359.0951878068565
 30
0.0
 40
5.000000000000056
100
AcDbArc
 50
180.0000000000006
 51
270.0000000000006
  0
LINE
  5
315
330
1A
100
AcDbEntity
  8
SEIHIN
  6
CONTINUOUS
 62
     3
 48
5.0
100
AcDbLine
 10
383.8090390321515
 20
374.0951878068564
 30
0.0
 11
383.8090390321515
 21
359.0951878068564
 31
0.0
  0
ARC
  5
316
330
1A
100
AcDbEntity
  8
SEIHIN
  6
CONTINUOUS
 62
     3
 48
5.0
100
AcDbCircle
 10
378.8090390321515
 20
374.0951878068564
 30
0.0
 40
5.0
100
AcDbArc
 50
0.0
 51
90.0
  0
LINE
  5
317
330
1A
100
AcDbEntity
  8
SEIHIN
  6
CONTINUOUS
 62
     3
 48
5.0
100
AcDbLine
 10
417.8506390321516
 20
372.0543878068564
 30
0.0
 11
405.5503390321517
 21
359.2761878068565
 31
0.0
  0
LINE
  5
318
330
1A
100
AcDbEntity
  8
SEIHIN
  6
CONTINUOUS
 62
     3
 48
5.0
100
AcDbLine
 10
407.9784390321516
 20
354.0951878068564
 30
0.0
 11
388.8090390321516
 21
354.0951878068564
 31
0.0
  0
LINE
  5
319
330
1A
100
AcDbEntity
  8
CENTER_L
  6
CENTER
 62
     1
 48
5.0
100
AcDbLine
 10
400.9444390321515
 20
366.1565878068564
 30
0.0
 11
400.9444390321515
 21
357.9390878068565
 31
0.0
  0
ARC
  5
31A
330
1A
100
AcDbEntity
  8
SEIHIN
  6
CONTINUOUS
 62
     3
 48
5.0
100
AcDbCircle
 10
399.2211390321515
 20
359.0951878068565
 30
0.0
 40
5.000000000000085
100
AcDbArc
 50
180.0000000000009
 51
270.0000000000009
  0
LINE
  5
31B
330
1A
100
AcDbEntity
  8
CENTER_L
  6
CENTER
 62
     1
 48
5.0
100
AcDbLine
 10
398.1086390321515
 20
362.0951878068566
 30
0.0
 11
403.7476390321514
 21
362.0951878068566
 31
0.0
  0
ARC
  5
31C
330
1A
100
AcDbEntity
  8
SEIHIN
  6
CONTINUOUS
 62
     3
 48
5.0
100
AcDbCircle
 10
406.4221186342356
 20
359.7659960295317
 30
0.0
 40
0.9999796021177324
100
AcDbArc
 50
180.0004711341892
 51
316.0904142339306
  0
ARC
  5
31D
330
1A
100
AcDbEntity
  8
SEIHIN
  6
CONTINUOUS
 62
     3
 48
5.0
100
AcDbCircle
 10
397.4669390321516
 20
371.0951878068565
 30
0.0
 40
0.9999999999999147
100
AcDbArc
 50
180.0000000000048
 51
270.0000000000049
  0
ARC
  5
31E
330
1A
100
AcDbEntity
  8
SEIHIN
  6
CONTINUOUS
 62
     3
 48
5.0
100
AcDbCircle
 10
401.2892390321517
 20
371.0951878068565
 30
0.0
 40
0.9999999999999147
100
AcDbArc
 50
269.9999999999951
 51
359.9999999999951
  0
ARC
  5
31F
330
1A
100
AcDbEntity
  8
SEIHIN
  6
CONTINUOUS
 62
     3
 48
5.0
100
AcDbCircle
 10
402.1833390321517
 20
371.0951878068566
 30
0.0
 40
1.0
100
AcDbArc
 50
269.9999999999902
 51
359.9999999999902
  0
LINE
  5
320
330
1A
100
AcDbEntity
  8
SEIHIN
  6
CONTINUOUS
 62
     3
 48
5.0
100
AcDbLine
 10
402.1833390321514
 20
370.0951878068566
 30
0.0
 11
397.4669390321516
 21
370.0951878068566
 31
0.0
  0
ARC
  5
321
330
1A
100
AcDbEntity
  8
SEIHIN
  6
CONTINUOUS
 62
     3
 48
5.0
100
AcDbCircle
 10
416.4098798279834
 20
373.4414890087097
 30
0.0
 40
1.99995920672852
100
AcDbArc
 50
316.0870438210739
 51
359.9971007213312
  0
LINE
  5
322
330
1A
100
AcDbEntity
  8
SEIHIN
  6
CONTINUOUS
 62
     3
 48
5.0
100
AcDbLine
 10
307.7482390321516
 20
394.0951878068564
 30
0.0
 11
307.7482390321516
 21
409.0952878068566
 31
0.0
  0
LINE
  5
323
330
1A
100
AcDbEntity
  8
SEIHIN
  6
CONTINUOUS
 62
     3
 48
5.0
100
AcDbLine
 10
355.5792390321517
 20
394.0951878068564
 30
0.0
 11
355.5792390321517
 21
409.0952878068566
 31
0.0
  0
ARC
  5
324
330
1A
100
AcDbEntity
  8
SEIHIN
  6
CONTINUOUS
 62
     3
 48
5.0
100
AcDbCircle
 10
388.8090390321515
 20
429.0951878068564
 30
0.0
 40
5.000000000000056
100
AcDbArc
 50
89.99999999999934
 51
179.9999999999993
  0
ARC
  5
325
330
1A
100
AcDbEntity
  8
SEIHIN
  6
CONTINUOUS
 62
     3
 48
5.0
100
AcDbCircle
 10
378.8090390321515
 20
414.0951878068563
 30
0.0
 40
5.0
100
AcDbArc
 50
270.0
 51
0.0
  0
LINE
  5
326
330
1A
100
AcDbEntity
  8
SEIHIN
  6
CONTINUOUS
 62
     3
 48
5.0
100
AcDbLine
 10
383.8090390321515
 20
414.0951878068563
 30
0.0
 11
383.8090390321515
 21
429.0951878068564
 31
0.0
  0
LINE
  5
328
330
1A
100
AcDbEntity
  8
SEIHIN
  6
CONTINUOUS
 62
     3
 48
5.0
100
AcDbLine
 10
405.4221390321516
 20
399.5951878068564
 30
0.0
 11
405.4221390321516
 21
428.4244878068566
 31
0.0
  0
LINE
  5
329
330
1A
100
AcDbEntity
  8
SEIHIN
  6
CONTINUOUS
 62
     3
 48
5.0
100
AcDbLine
 10
411.6219390321515
 20
396.5951878068565
 30
0.0
 11
411.6219390321516
 21
422.6067878068565
 31
0.0
  0
LINE
  5
32C
330
1A
100
AcDbEntity
  8
SEIHIN
  6
CONTINUOUS
 62
     3
 48
5.0
100
AcDbLine
 10
394.2211390321514
 20
394.0951878068564
 30
0.0
 11
394.2211390321514
 21
429.0951878068564
 31
0.0
  0
LINE
  5
32D
330
1A
100
AcDbEntity
  8
SEIHIN
  6
CONTINUOUS
 62
     3
 48
5.0
100
AcDbLine
 10
396.4669390321517
 20
394.0951878068564
 30
0.0
 11
396.4669390321517
 21
417.0951878068564
 31
0.0
  0
LINE
  5
32E
330
1A
100
AcDbEntity
  8
SEIHIN
  6
CONTINUOUS
 62
     3
 48
5.0
100
AcDbLine
 10
407.9784390321516
 20
434.0951878068564
 30
0.0
 11
388.8090390321516
 21
434.0951878068564
 31
0.0
  0
LINE
  5
32F
330
1A
100
AcDbEntity
  8
CENTER_L
  6
CENTER
 62
     1
 48
5.0
100
AcDbLine
 10
400.9444390321515
 20
422.0338878068565
 30
0.0
 11
400.9444390321515
 21
430.2512878068565
 31
0.0
  0
ARC
  5
330
330
1A
100
AcDbEntity
  8
SEIHIN
  6
CONTINUOUS
 62
     3
 48
5.0
100
AcDbCircle
 10
402.1833390321516
 20
417.0951878068563
 30
0.0
 40
1.000000000000085
100
AcDbArc
 50
0.0000000000048853
 51
90.00000000000488
  0
ARC
  5
331
330
1A
100
AcDbEntity
  8
SEIHIN
  6
CONTINUOUS
 62
     3
 48
5.0
100
AcDbCircle
 10
401.2892390321516
 20
417.0951878068564
 30
0.0
 40
1.0
100
AcDbArc
 50
0.0
 51
90.0
  0
ARC
  5
332
330
1A
100
AcDbEntity
  8
SEIHIN
  6
CONTINUOUS
 62
     3
 48
5.0
100
AcDbCircle
 10
397.4669390321516
 20
417.0951878068564
 30
0.0
 40
1.0
100
AcDbArc
 50
90.0
 51
180.0
  0
LINE
  5
333
330
1A
100
AcDbEntity
  8
SEIHIN
  6
CONTINUOUS
 62
     3
 48
5.0
100
AcDbLine
 10
402.1833390321514
 20
418.0951878068563
 30
0.0
 11
397.4669390321516
 21
418.0951878068563
 31
0.0
  0
ARC
  5
334
330
1A
100
AcDbEntity
  8
SEIHIN
  6
CONTINUOUS
 62
     3
 48
5.0
100
AcDbCircle
 10
399.2211390321515
 20
429.0951878068563
 30
0.0
 40
5.000000000000085
100
AcDbArc
 50
89.99999999999902
 51
179.999999999999
  0
LINE
  5
335
330
1A
100
AcDbEntity
  8
CENTER_L
  6
CENTER
 62
     1
 48
5.0
100
AcDbLine
 10
398.1086390321515
 20
426.0951878068564
 30
0.0
 11
403.7476390321514
 21
426.0951878068564
 31
0.0
  0
LINE
  5
336
330
1A
100
AcDbEntity
  8
SEIHIN
  6
CONTINUOUS
 62
     3
 48
5.0
100
AcDbLine
 10
417.8506390321516
 20
416.1360878068566
 30
0.0
 11
405.5503390321517
 21
428.9142878068566
 31
0.0
  0
ARC
  5
337
330
1A
100
AcDbEntity
  8
SEIHIN
  6
CONTINUOUS
 62
     3
 48
5.0
100
AcDbCircle
 10
416.4098451509203
 20
414.7489726288706
 30
0.0
 40
1.999993881288826
100
AcDbArc
 50
0.0004348185991228
 51
43.91255560966039
  0
ARC
  5
338
330
1A
100
AcDbEntity
  8
SEIHIN
  6
CONTINUOUS
 62
     3
 48
5.0
100
AcDbCircle
 10
406.4221186342356
 20
428.4243795841814
 30
0.0
 40
0.9999796021177312
100
AcDbArc
 50
43.90958576606933
 51
179.9995288658107
  0
LINE
  5
339
330
1A
100
AcDbEntity
  8
CENTER_L
  6
CENTER
 62
     1
 48
5.0
100
AcDbLine
 10
576.0348390321515
 20
245.9659166402786
 30
0.0
 11
537.4973390321515
 21
322.9237166402783
 31
0.0
  0
ARC
  5
33D
330
1A
100
AcDbEntity
  8
SEIHIN
  6
CONTINUOUS
 62
     3
 48
5.0
100
AcDbCircle
 10
570.3000390321517
 20
257.4180166402784
 30
0.0
 40
2.100000000000022
100
AcDbArc
 50
179.9999999999999
 51
0.0
  0
LINE
  5
33E
330
1A
100
AcDbEntity
  8
SEIHIN
  6
CONTINUOUS
 62
     3
 48
5.0
100
AcDbLine
 10
591.6058390321516
 20
264.7320166402785
 30
0.0
 11
551.6808390321517
 21
244.7390166402785
 31
0.0
  0
LINE
  5
33F
330
1A
100
AcDbEntity
  8
SEIHIN
  6
CONTINUOUS
 62
     3
 48
5.0
100
AcDbLine
 10
590.4681390321514
 20
259.6887166402785
 30
0.0
 11
557.1802390321515
 21
243.0195166402783
 31
0.0
  0
LINE
  5
340
330
1A
100
AcDbEntity
  8
SEIHIN
  6
CONTINUOUS
 62
     3
 48
5.0
100
AcDbLine
 10
549.4006390321516
 20
254.7810166402785
 30
0.0
 11
562.6949390321516
 21
261.4383166402785
 31
0.0
  0
LINE
  5
341
330
1A
100
AcDbEntity
  8
SEIHIN
  6
CONTINUOUS
 62
     3
 48
5.0
100
AcDbLine
 10
546.7265390321514
 20
255.0587166402785
 30
0.0
 11
522.5444390321516
 21
274.2638166402783
 31
0.0
  0
LINE
  5
342
330
1A
100
AcDbEntity
  8
SEIHIN
  6
CONTINUOUS
 62
     3
 48
5.0
100
AcDbLine
 10
552.7159390321515
 20
243.9170166402785
 30
0.0
 11
518.8622390321515
 21
270.8032166402783
 31
0.0
  0
LINE
  5
343
330
1A
100
AcDbEntity
  8
SEIHIN
  6
CONTINUOUS
 62
     3
 48
5.0
100
AcDbLine
 10
573.8821390321516
 20
250.2647166402784
 30
0.0
 11
589.0494390321514
 21
258.5343166402785
 31
0.0
  0
TEXT
  5
349
330
1A
100
AcDbEntity
  8
SUNPOU
  6
CONTINUOUS
 62
     4
 48
5.0
100
AcDbText
 10
448.7271093663456
 20
108.5429368931821
 30
0.0
 40
6.0
  1
5
100
AcDbText
  0
LINE
  5
34B
330
1A
100
AcDbEntity
  8
SUNPOU
  6
CONTINUOUS
 62
     4
 48
5.0
100
AcDbLine
 10
428.4428639407881
 20
173.6169668418252
 30
0.0
 11
455.7862878612945
 21
119.0130410760261
 31
0.0
  0
TEXT
  5
351
330
1A
100
AcDbEntity
  8
SUNPOU
  6
CONTINUOUS
 62
     4
 48
5.0
100
AcDbText
 10
435.6175928972269
 20
124.4250175224869
 30
0.0
 40
6.0
  1
10
100
AcDbText
  0
LINE
  5
35D
330
1A
100
AcDbEntity
  8
SEIHIN
  6
CONTINUOUS
 62
     3
 48
5.0
100
AcDbLine
 10
421.9959390321516
 20
175.3244166402784
 30
0.0
 11
425.1234390321516
 21
180.2457166402784
 31
0.0
  0
LINE
  5
35F
330
1A
100
AcDbEntity
  8
SEIHIN
  6
CONTINUOUS
 62
     3
 48
5.0
100
AcDbLine
 10
422.4437390321514
 20
174.4303166402784
 30
0.0
 11
421.9959390321516
 21
175.3244166402784
 31
0.0
  0
LINE
  5
360
330
1A
100
AcDbEntity
  8
SEIHIN
  6
CONTINUOUS
 62
     3
 48
5.0
100
AcDbLine
 10
422.4437390321514
 20
174.4303166402784
 30
0.0
 11
421.1024924985457
 21
173.7586434153303
 31
0.0
  0
LINE
  5
36F
330
1A
100
AcDbEntity
  8
SEIHIN
  6
CONTINUOUS
 62
     3
 48
5.0
100
AcDbLine
 10
573.8821390321516
 20
250.2647166402784
 30
0.0
 11
557.8272390321516
 21
243.2506166402784
 31
0.0
  0
ARC
  5
370
330
1A
100
AcDbEntity
  8
SEIHIN
  6
CONTINUOUS
 62
     3
 48
5.0
100
AcDbCircle
 10
555.8255125623452
 20
247.8324200914765
 30
0.0
 40
4.99998317250507
100
AcDbArc
 50
231.5437551925267
 51
293.599850487946
  0
ARC
  5
371
330
1A
100
AcDbEntity
  8
SEIHIN
  6
CONTINUOUS
 62
     3
 48
5.0
100
AcDbCircle
 10
548.28125331054
 20
257.0164151576213
 30
0.0
 40
2.500006185009743
100
AcDbArc
 50
231.5432156860699
 51
296.5996214948169
  0
LINE
  5
376
330
1A
100
AcDbEntity
  8
SEIHIN
  6
CONTINUOUS
 62
     3
 48
5.0
100
AcDbLine
 10
558.1423390321515
 20
276.1131166402785
 30
0.0
 11
534.8821390321516
 21
264.4654166402785
 31
0.0
  0
LINE
  5
377
330
1A
100
AcDbEntity
  8
SEIHIN
  6
CONTINUOUS
 62
     3
 48
5.0
100
AcDbLine
 10
530.9265390321514
 20
288.0282166402784
 30
0.0
 11
569.3752390321515
 21
307.2818166402784
 31
0.0
  0
LINE
  5
378
330
1A
100
AcDbEntity
  8
SEIHIN
  6
CONTINUOUS
 62
     3
 48
5.0
100
AcDbLine
 10
524.2101390321517
 20
301.4405166402785
 30
0.0
 11
562.6589390321517
 21
320.6942166402785
 31
0.0
  0
LINE
  5
379
330
1A
100
AcDbEntity
  8
SEIHIN
  6
CONTINUOUS
 62
     3
 48
5.0
100
AcDbLine
 10
522.9798390321516
 20
278.4570166402784
 30
0.0
 11
547.9188390321515
 21
290.9455166402785
 31
0.0
  0
LINE
  5
37A
330
1A
100
AcDbEntity
  8
SEIHIN
  6
CONTINUOUS
 62
     3
 48
5.0
100
AcDbLine
 10
541.1957390321515
 20
315.5381166402785
 30
0.0
 11
573.1972390321516
 21
330.1894166402786
 31
0.0
  0
LINE
  5
37C
330
1A
100
AcDbEntity
  8
SEIHIN
  6
CONTINUOUS
 62
     3
 48
5.0
100
AcDbLine
 10
425.1235390321515
 20
394.0952878068563
 30
0.0
 11
425.1235390321515
 21
372.2347878068566
 31
0.0
  0
LINE
  5
37D
330
1A
100
AcDbEntity
  8
SEIHIN
  6
CONTINUOUS
 62
     3
 48
5.0
100
AcDbLine
 10
420.1982390321516
 20
388.5951878068564
 30
0.0
 11
420.1982390321516
 21
373.4414878068565
 31
0.0
  0
ARC
  5
383
330
1A
100
AcDbEntity
  8
SEIHIN
  6
CONTINUOUS
 62
     3
 48
5.0
100
AcDbCircle
 10
418.198243805913
 20
373.4414996496756
 30
0.0
 40
1.99999522627367
100
AcDbArc
 50
316.0915906488515
 51
359.999660727416
  0
ARC
  5
386
330
1A
100
AcDbEntity
  8
SEIHIN
  6
CONTINUOUS
 62
     3
 48
5.0
100
AcDbCircle
 10
525.3295390321516
 20
299.2051166402784
 30
0.0
 40
2.500013903961378
100
AcDbArc
 50
116.5998988795413
 51
206.5998988795413
  0
LINE
  5
387
330
1A
100
AcDbEntity
  8
SEIHIN
  6
CONTINUOUS
 62
     3
 48
5.0
100
AcDbLine
 10
541.1957390321515
 20
315.5382166402783
 30
0.0
 11
510.4744506208978
 21
298.0860024307879
 31
0.0
  0
LINE
  5
38A
330
1A
100
AcDbEntity
  8
SEIHIN
  6
CONTINUOUS
 62
     3
 48
5.0
100
AcDbLine
 10
508.4927390321516
 20
291.5108166402784
 30
0.0
 11
518.8622390321515
 21
270.8032166402783
 31
0.0
  0
ARC
  5
393
330
1A
100
AcDbEntity
  8
SEIHIN
  6
CONTINUOUS
 62
     3
 48
5.0
100
AcDbCircle
 10
512.9634373623345
 20
293.7496111441354
 30
0.0
 40
4.99993443857039
100
AcDbArc
 50
119.600281783631
 51
206.6003642307414
  0
ARC
  5
394
330
1A
100
AcDbEntity
  8
SEIHIN
  6
CONTINUOUS
 62
     3
 48
5.0
100
AcDbCircle
 10
524.0992410445139
 20
276.2216360194532
 30
0.0
 40
2.499952702520491
100
AcDbArc
 50
116.5980896974404
 51
231.5455279003789
  0
ARC
  5
395
330
1A
100
AcDbEntity
  8
SEIHIN
  6
CONTINUOUS
 62
     3
 48
5.0
100
AcDbCircle
 10
529.8071390321515
 20
290.2636166402783
 30
0.0
 40
2.500013903961225
100
AcDbArc
 50
206.5998988795431
 51
296.5998988795443
  0
LINE
  5
396
330
1A
100
AcDbEntity
  8
CENTER_L
  6
CENTER
 62
     1
 48
5.0
100
AcDbLine
 10
513.9440665519336
 20
285.1158883699314
 30
0.0
 11
524.6541963340592
 21
290.4792106167682
 31
0.0
  0
LINE
  5
397
330
1A
100
AcDbEntity
  8
CENTER_L
  6
CENTER
 62
     1
 48
5.0
100
AcDbLine
 10
516.7685390321515
 20
292.8510166402785
 30
0.0
 11
521.9807609538841
 21
282.4424687717654
 31
0.0
  0
ARC
  5
398
330
1A
100
AcDbEntity
  8
SEIHIN
  6
CONTINUOUS
 62
     3
 48
5.0
100
AcDbCircle
 10
519.2991390321517
 20
287.7975166402785
 30
0.0
 40
2.099999999999909
100
AcDbArc
 50
0.0
 51
179.9999999999999
  0
ARC
  5
399
330
1A
100
AcDbEntity
  8
SEIHIN
  6
CONTINUOUS
 62
     3
 48
5.0
100
AcDbCircle
 10
519.2991390321517
 20
287.7975166402785
 30
0.0
 40
2.099999999999909
100
AcDbArc
 50
179.9999999999999
 51
0.0
  0
LINE
  5
39A
330
1A
100
AcDbEntity
  8
SEIHIN
  6
CONTINUOUS
 62
     3
 48
5.0
100
AcDbLine
 10
527.5717390321515
 20
289.1442166402784
 30
0.0
 11
523.0941390321515
 21
298.0857166402785
 31
0.0
  0
LINE
  5
3A0
330
1A
100
AcDbEntity
  8
SEIHIN
  6
CONTINUOUS
 62
     3
 48
5.0
100
AcDbLine
 10
420.1982390321516
 20
394.0950878068565
 30
0.0
 11
420.1982390321516
 21
394.0952878068563
 31
0.0
  0
LINE
  5
3A1
330
1A
100
AcDbEntity
  8
SEIHIN
  6
CONTINUOUS
 62
     3
 48
5.0
100
AcDbLine
 10
425.1235390321515
 20
394.0950878068565
 30
0.0
 11
425.1235390321515
 21
415.9556878068563
 31
0.0
  0
LINE
  5
3A2
330
1A
100
AcDbEntity
  8
CENTER_L
  6
CENTER
 62
     1
 48
5.0
100
AcDbLine
 10
423.3325390321514
 20
389.3300844668268
 30
0.0
 11
423.3325390321514
 21
397.9667878068564
 31
0.0
  0
ARC
  5
3A3
330
1A
100
AcDbEntity
  8
SEIHIN
  6
CONTINUOUS
 62
     3
 48
5.0
100
AcDbCircle
 10
418.198243805913
 20
414.7489759640375
 30
0.0
 40
1.999995226273673
100
AcDbArc
 50
0.000339272584321
 51
43.90840935114876
  0
LINE
  5
3AB
330
1A
100
AcDbEntity
  8
SEIHIN
  6
CONTINUOUS
 62
     3
 48
5.0
100
AcDbLine
 10
581.7996390321516
 20
307.9116166402784
 30
0.0
 11
556.8604390321516
 21
295.4230166402784
 31
0.0
  0
LINE
  5
3AC
330
1A
100
AcDbEntity
  8
SEIHIN
  6
CONTINUOUS
 62
     3
 48
5.0
100
AcDbLine
 10
585.4179390321515
 20
305.7485166402784
 30
0.0
 11
586.3104390321516
 21
274.8808166402785
 31
0.0
  0
LINE
  5
3AD
330
1A
100
AcDbEntity
  8
SEIHIN
  6
CONTINUOUS
 62
     3
 48
5.0
100
AcDbLine
 10
591.6539390321515
 20
263.0687166402785
 30
0.0
 11
590.3947390321516
 21
306.6239166402783
 31
0.0
  0
LINE
  5
3AE
330
1A
100
AcDbEntity
  8
CENTER_L
  6
CENTER
 62
     1
 48
5.0
100
AcDbLine
 10
564.7471130670267
 20
254.6373039190533
 30
0.0
 11
575.9186390321517
 21
260.2316166402784
 31
0.0
  0
LINE
  5
3AF
330
1A
100
AcDbEntity
  8
SEIHIN
  6
CONTINUOUS
 62
     3
 48
5.0
100
AcDbLine
 10
562.6130390321515
 20
278.3519166402785
 30
0.0
 11
585.8732390321515
 21
289.9997166402783
 31
0.0
  0
LINE
  5
3B0
330
1A
100
AcDbEntity
  8
SEIHIN
  6
CONTINUOUS
 62
     3
 48
5.0
100
AcDbLine
 10
584.9307390321514
 20
272.5731166402785
 30
0.0
 11
571.6365390321515
 21
265.9159166402784
 31
0.0
  0
LINE
  5
3B1
330
1A
100
AcDbEntity
  8
SEIHIN
  6
CONTINUOUS
 62
     3
 48
5.0
100
AcDbLine
 10
563.8109390321515
 20
264.7930166402785
 30
0.0
 11
551.2736390321514
 21
289.8295166402785
 31
0.0
  0
LINE
  5
3B2
330
1A
100
AcDbEntity
  8
SEIHIN
  6
CONTINUOUS
 62
     3
 48
5.0
100
AcDbLine
 10
568.2817390321514
 20
267.0318166402785
 30
0.0
 11
555.7444390321515
 21
292.0682166402783
 31
0.0
  0
ARC
  5
3B3
330
1A
100
AcDbEntity
  8
SEIHIN
  6
CONTINUOUS
 62
     3
 48
5.0
100
AcDbCircle
 10
570.5170790388871
 20
268.1512365969023
 30
0.0
 40
2.499969196810293
100
AcDbArc
 50
206.6009234954073
 51
296.6019497110277
  0
ARC
  5
3B4
330
1A
100
AcDbEntity
  8
SEIHIN
  6
CONTINUOUS
 62
     3
 48
5.0
100
AcDbCircle
 10
561.5755589891327
 20
263.6736766346174
 30
0.0
 40
2.499969196810227
100
AcDbArc
 50
296.5999004425965
 51
26.59887422697728
  0
ARC
  5
3B5
330
1A
100
AcDbEntity
  8
SEIHIN
  6
CONTINUOUS
 62
     3
 48
5.0
100
AcDbCircle
 10
570.3000390321517
 20
257.4180166402784
 30
0.0
 40
2.100000000000022
100
AcDbArc
 50
0.0
 51
179.9999999999999
  0
ARC
  5
3B6
330
1A
100
AcDbEntity
  8
SEIHIN
  6
CONTINUOUS
 62
     3
 48
5.0
100
AcDbCircle
 10
549.0383390321516
 20
288.7100166402783
 30
0.0
 40
2.500013903961429
100
AcDbArc
 50
26.59989887954231
 51
116.5998988795442
  0
ARC
  5
3B7
330
1A
100
AcDbEntity
  8
SEIHIN
  6
CONTINUOUS
 62
     3
 48
5.0
100
AcDbCircle
 10
557.9798490264027
 20
293.187646682135
 30
0.0
 40
2.499991516985533
100
AcDbArc
 50
116.6004119736256
 51
206.5983626959474
  0
ARC
  5
3B8
330
1A
100
AcDbEntity
  8
SEIHIN
  6
CONTINUOUS
 62
     3
 48
5.0
100
AcDbCircle
 10
586.6560532759983
 20
262.924241438907
 30
0.0
 40
4.999973511466922
100
AcDbArc
 50
298.5992057554996
 51
1.655803095732766
  0
ARC
  5
3B9
330
1A
100
AcDbEntity
  8
SEIHIN
  6
CONTINUOUS
 62
     3
 48
5.0
100
AcDbCircle
 10
583.8113541823971
 20
274.8085419831401
 30
0.0
 40
2.500029780896201
100
AcDbArc
 50
296.5993283550248
 51
1.65662420780718
  0
LINE
  5
3BA
330
1A
100
AcDbEntity
  8
CENTER_L
  6
CENTER
 62
     1
 48
5.0
100
AcDbLine
 10
573.9945390321515
 20
321.5076166402785
 30
0.0
 11
579.3392390321513
 21
310.8345166402783
 31
0.0
  0
LINE
  5
3BB
330
1A
100
AcDbEntity
  8
CENTER_L
  6
CENTER
 62
     1
 48
5.0
100
AcDbLine
 10
581.9768390321514
 20
319.1841166402785
 30
0.0
 11
570.5413390321515
 21
313.4577166402785
 31
0.0
  0
ARC
  5
3BC
330
1A
100
AcDbEntity
  8
SEIHIN
  6
CONTINUOUS
 62
     3
 48
5.0
100
AcDbCircle
 10
575.2787370124117
 20
325.6432821352132
 30
0.0
 40
4.99995564884104
100
AcDbArc
 50
26.6007551642556
 51
114.6001573064914
  0
ARC
  5
3BD
330
1A
100
AcDbEntity
  8
SEIHIN
  6
CONTINUOUS
 62
     3
 48
5.0
100
AcDbCircle
 10
576.5251390321516
 20
316.4541166402784
 30
0.0
 40
2.100000000000022
100
AcDbArc
 50
179.9999999999999
 51
0.0
  0
ARC
  5
3BE
330
1A
100
AcDbEntity
  8
SEIHIN
  6
CONTINUOUS
 62
     3
 48
5.0
100
AcDbCircle
 10
576.5251390321516
 20
316.4541166402784
 30
0.0
 40
2.100000000000022
100
AcDbArc
 50
0.0
 51
179.9999999999999
  0
ARC
  5
3BF
330
1A
100
AcDbEntity
  8
SEIHIN
  6
CONTINUOUS
 62
     3
 48
5.0
100
AcDbCircle
 10
568.2559490260452
 20
309.5172466810605
 30
0.0
 40
2.499991516985661
100
AcDbArc
 50
296.5973365444868
 51
26.59938582216293
  0
LINE
  5
3C0
330
1A
100
AcDbEntity
  8
SEIHIN
  6
CONTINUOUS
 62
     3
 48
5.0
100
AcDbLine
 10
570.4913390321515
 20
310.6366166402786
 30
0.0
 11
566.0137390321517
 21
319.5782166402786
 31
0.0
  0
ARC
  5
3C1
330
1A
100
AcDbEntity
  8
SEIHIN
  6
CONTINUOUS
 62
     3
 48
5.0
100
AcDbCircle
 10
563.7783390321518
 20
318.4588166402785
 30
0.0
 40
2.500013903961378
100
AcDbArc
 50
26.59989887954431
 51
116.5998988795442
  0
LINE
  5
3C2
330
1A
100
AcDbEntity
  8
SEIHIN
  6
CONTINUOUS
 62
     3
 48
5.0
100
AcDbLine
 10
579.7494390321516
 20
327.8821166402785
 30
0.0
 11
590.3947390321516
 21
306.6239166402783
 31
0.0
  0
ARC
  5
3C4
330
1A
100
AcDbEntity
  8
SEIHIN
  6
CONTINUOUS
 62
     3
 48
5.0
100
AcDbCircle
 10
582.9190551951549
 20
305.6762069778548
 30
0.0
 40
2.500029780792653
100
AcDbArc
 50
1.657426795982699
 51
116.6001309432024
  0
DIMENSION
  5
3D7
330
1A
100
AcDbEntity
  8
SUNPOU
 48
5.0
100
AcDbDimension
  2
*D1
 10
468.0246681571656
 20
354.0951878068564
 30
0.0
 11
463.0246681571655
 21
394.0951878068565
 31
0.0
 70
    32
  3
STANDARD
100
AcDbAlignedDimension
 13
407.6609390321515
 23
434.0951878068564
 33
0.0
 14
407.6609390321515
 24
354.0951878068564
 34
0.0
 50
90.0
100
AcDbRotatedDimension
1001
ACAD
1000
DSTYLE
1002
{
1070
   140
1040
6.0
1070
    74
1070
     0
1070
   172
1070
     1
1070
    73
1070
     0
1070
   272
1070
     2
1070
    77
1070
     3
1070
   173
1070
     1
1070
   147
1040
2.0
1070
    42
1040
6.0
1070
    44
1040
3.0
1070
    43
1040
14.0
1070
   271
1070
     0
1070
   178
1070
     4
1070
   177
1070
     4
1070
   176
1070
     4
1070
   141
1040
150.0
1070
     7
1000
_OPEN
1070
     6
1000
_OPEN
1070
    41
1040
7.0
1002
}
  0
DIMENSION
  5
3E4
330
1A
100
AcDbEntity
  8
SUNPOU
 48
5.0
100
AcDbDimension
  2
*D2
 10
224.7993597939652
 20
379.0951878068564
 30
0.0
 11
219.7993597939651
 21
394.0952378068566
 31
0.0
 70
    32
  3
STANDARD
100
AcDbAlignedDimension
 13
263.3366390321516
 23
409.0952878068566
 33
0.0
 14
263.3366390321516
 24
379.0951878068564
 34
0.0
 50
90.0
100
AcDbRotatedDimension
1001
ACAD
1000
DSTYLE
1002
{
1070
   140
1040
6.0
1070
    74
1070
     0
1070
   172
1070
     1
1070
    73
1070
     0
1070
   272
1070
     2
1070
    77
1070
     3
1070
   173
1070
     1
1070
   147
1040
2.0
1070
    42
1040
6.0
1070
    44
1040
3.0
1070
    43
1040
14.0
1070
   271
1070
     0
1070
   178
1070
     4
1070
   177
1070
     4
1070
   176
1070
     4
1070
   141
1040
150.0
1070
     7
1000
_OPEN
1070
     6
1000
_OPEN
1070
    41
1040
7.0
1002
}
  0
DIMENSION
  5
3F3
330
1A
100
AcDbEntity
  8
SUNPOU
 48
5.0
100
AcDbDimension
  2
*D3
 10
468.9532762215297
 20
197.7214939534112
 30
0.0
 11
457.0811638241534
 21
232.59496223604
 31
0.0
 70
    33
  3
STANDARD
100
AcDbAlignedDimension
 13
394.2298811788113
 23
241.9389377463148
 33
0.0
 14
426.9155762965507
 24
176.6697359279075
 34
0.0
1001
ACAD
1000
DSTYLE
1002
{
1070
   140
1040
6.0
1070
    74
1070
     0
1070
   172
1070
     1
1070
    73
1070
     0
1070
   272
1070
     2
1070
    77
1070
     3
1070
   173
1070
     1
1070
   147
1040
2.0
1070
    42
1040
6.0
1070
    44
1040
3.0
1070
    43
1040
14.0
1070
   271
1070
     0
1070
   178
1070
     4
1070
   177
1070
     4
1070
   176
1070
     4
1070
   141
1040
150.0
1070
     7
1000
_OPEN
1070
     6
1000
_OPEN
1070
    41
1040
7.0
1002
}
  0
DIMENSION
  5
40D
330
1A
100
AcDbEntity
  8
SUNPOU
 48
5.0
100
AcDbDimension
  2
*D4
 10
225.3826931272985
 20
173.7312775005923
 30
0.0
 11
220.3826931272984
 21
209.8431470704355
 31
0.0
 70
    32
  3
STANDARD
100
AcDbAlignedDimension
 13
270.7527390321515
 23
245.9550166402785
 33
0.0
 14
420.7207657261776
 24
173.7312775005922
 34
0.0
 50
90.0
100
AcDbRotatedDimension
1001
ACAD
1000
DSTYLE
1002
{
1070
   140
1040
6.0
1070
    74
1070
     0
1070
   172
1070
     1
1070
    73
1070
     0
1070
   272
1070
     2
1070
    77
1070
     3
1070
   173
1070
     1
1070
   147
1040
2.0
1070
    42
1040
6.0
1070
    44
1040
3.0
1070
    43
1040
14.0
1070
   271
1070
     0
1070
   178
1070
     4
1070
   177
1070
     4
1070
   176
1070
     4
1070
   141
1040
150.0
1070
     7
1000
_OPEN
1070
     6
1000
_OPEN
1070
    41
1040
7.0
1002
}
  0
ARC
  5
40E
330
1A
100
AcDbEntity
  8
SEIHIN
  6
CONTINUOUS
 62
     3
 48
5.0
100
AcDbCircle
 10
384.5688798580467
 20
240.1062917435623
 30
0.0
 40
0.5
100
AcDbArc
 50
104.9446865401703
 51
210.3071489788719
  0
ARC
  5
410
330
1A
100
AcDbEntity
  8
SEIHIN
  6
CONTINUOUS
 62
     3
 48
5.0
100
AcDbCircle
 10
351.9886048032091
 20
215.9424166362884
 30
0.0
 40
5.0
100
AcDbArc
 50
269.9998622604903
 51
341.8737435802408
  0
DIMENSION
  5
420
330
1A
100
AcDbEntity
  8
SUNPOU
 48
5.0
100
AcDbDimension
  2
*D5
 10
370.0707587558086
 20
267.8677639928015
 30
0.0
 11
352.6348441110526
 21
259.1362761184022
 31
0.0
 70
   161
  3
STANDARD
100
AcDbAlignedDimension
 13
392.8073513566188
 23
244.7795886085913
 33
0.0
 14
383.8732315893024
 24
240.3055957033659
 34
0.0
1001
ACAD
1000
DSTYLE
1002
{
1070
   288
1070
     1
1070
   140
1040
6.0
1070
    74
1070
     0
1070
   172
1070
     1
1070
    73
1070
     0
1070
   272
1070
     2
1070
    77
1070
     3
1070
   173
1070
     1
1070
   147
1040
2.0
1070
    42
1040
6.0
1070
    44
1040
3.0
1070
    43
1040
14.0
1070
   271
1070
     0
1070
   178
1070
     4
1070
   177
1070
     4
1070
   176
1070
     4
1070
   141
1040
150.0
1070
     7
1000
_OPEN
1070
     6
1000
_OPEN
1070
    41
1040
7.0
1002
}
  0
DIMENSION
  5
430
330
1A
100
AcDbEntity
  8
SUNPOU
 48
5.0
100
AcDbDimension
  2
*D6
 10
436.4732753249373
 20
141.9484749059278
 30
0.0
 11
464.6389063454627
 21
156.0533391096753
 31
0.0
 70
   161
  1
t<>
  3
STANDARD
100
AcDbAlignedDimension
 13
426.9144389172701
 23
176.669166347901
 33
0.0
 14
420.655410188062
 24
173.5347522739361
 34
0.0
1001
ACAD
1000
DSTYLE
1002
{
1070
   288
1070
     1
1070
   140
1040
6.0
1070
    74
1070
     0
1070
   172
1070
     1
1070
    73
1070
     0
1070
   272
1070
     2
1070
    77
1070
     3
1070
   173
1070
     1
1070
   147
1040
2.0
1070
    42
1040
6.0
1070
    44
1040
3.0
1070
    43
1040
14.0
1070
   271
1070
     1
1070
   178
1070
     4
1070
   177
1070
     4
1070
   176
1070
     4
1070
   141
1040
150.0
1070
     7
1000
_OPEN
1070
     6
1000
_OPEN
1070
    41
1040
7.0
1002
}
  0
LINE
  5
431
330
1A
100
AcDbEntity
  8
SEIHIN
  6
CONTINUOUS
 62
     3
 48
5.0
100
AcDbLine
 10
425.1234390321516
 20
180.2457166402784
 30
0.0
 11
394.2298390321516
 21
241.9389166402785
 31
0.0
  0
ARC
  5
433
330
1A
100
AcDbEntity
  8
SEIHIN
  6
CONTINUOUS
 62
     3
 48
5.0
100
AcDbCircle
 10
420.8786057612031
 20
174.2057169314796
 30
0.0
 40
0.5
100
AcDbArc
 50
206.5997948387668
 51
296.6009218866905
  0
DIMENSION
  5
442
330
1A
100
AcDbEntity
  8
SUNPOU
 48
5.0
100
AcDbDimension
  2
*D7
 10
500.4908309888164
 20
325.3567897832625
 30
0.0
 11
530.176384410576
 21
340.2222344406991
 31
0.0
 70
   161
  3
STANDARD
100
AcDbAlignedDimension
 13
573.9945390321513
 23
321.5076166402785
 33
0.0
 14
516.7685782221247
 24
292.8509383798512
 34
0.0
1001
ACAD
1000
DSTYLE
1002
{
1070
   288
1070
     1
1070
   140
1040
6.0
1070
    74
1070
     0
1070
   172
1070
     1
1070
    73
1070
     0
1070
   272
1070
     2
1070
    77
1070
     3
1070
   173
1070
     1
1070
   147
1040
2.0
1070
    42
1040
6.0
1070
    44
1040
3.0
1070
    43
1040
14.0
1070
   271
1070
     0
1070
   178
1070
     4
1070
   177
1070
     4
1070
   176
1070
     4
1070
   141
1040
150.0
1070
     7
1000
_OPEN
1070
     6
1000
_OPEN
1070
    41
1040
7.0
1002
}
  0
DIMENSION
  5
44F
330
1A
100
AcDbEntity
  8
SUNPOU
 48
5.0
100
AcDbDimension
  2
*D8
 10
486.4429539869273
 20
334.7095727549984
 30
0.0
 11
522.4771893845066
 21
353.1023973695384
 31
0.0
 70
   161
  3
STANDARD
100
AcDbAlignedDimension
 13
579.749439036314
 23
327.8821166319669
 33
0.0
 14
508.492739034044
 24
291.5108166364998
 34
0.0
1001
ACAD
1000
DSTYLE
1002
{
1070
   288
1070
     1
1070
   140
1040
6.0
1070
    74
1070
     0
1070
   172
1070
     1
1070
    73
1070
     0
1070
   272
1070
     2
1070
    77
1070
     3
1070
   173
1070
     1
1070
   147
1040
2.0
1070
    42
1040
6.0
1070
    44
1040
3.0
1070
    43
1040
14.0
1070
   271
1070
     0
1070
   178
1070
     4
1070
   177
1070
     4
1070
   176
1070
     4
1070
   141
1040
150.0
1070
     7
1000
_OPEN
1070
     6
1000
_OPEN
1070
    41
1040
7.0
1002
}
  0
LINE
  5
49B
330
1A
100
AcDbEntity
  8
SEIHIN
  6
CENTER
 62
     3
 48
5.0
100
AcDbLine
 10
408.4221390321516
 20
396.5951878068564
 30
0.0
 11
417.1982390321516
 21
396.5951878068564
 31
0.0
  0
LINE
  5
49C
330
1A
100
AcDbEntity
  8
CENTER_L
  6
CENTER
 62
     1
 48
5.0
100
AcDbLine
 10
259.057117014056
 20
394.0951878068564
 30
0.0
 11
432.193217014056
 21
394.0951878068564
 31
0.0
  0
LINE
  5
49E
330
1A
100
AcDbEntity
  8
SEIHIN
  6
CONTINUOUS
 62
     3
 48
5.0
100
AcDbLine
 10
420.1982390321516
 20
399.5951878068564
 30
0.0
 11
420.1982390321516
 21
414.7489878068565
 31
0.0
  0
LINE
  5
49F
330
1A
100
AcDbEntity
  8
SEIHIN
  6
CONTINUOUS
 62
     3
 48
5.0
100
AcDbLine
 10
418.4098390321514
 20
399.5951878068564
 30
0.0
 11
418.4098390321514
 21
414.7489878068565
 31
0.0
  0
ARC
  5
4A2
330
1A
100
AcDbEntity
  8
SEIHIN
 48
5.0
100
AcDbCircle
 10
417.1982390321516
 20
399.5951878068564
 30
0.0
 40
3.0
100
AcDbArc
 50
270.0
 51
0.0
  0
ARC
  5
4A3
330
1A
100
AcDbEntity
  8
SEIHIN
 48
5.0
100
AcDbCircle
 10
415.4098390321514
 20
399.5951878068564
 30
0.0
 40
3.0
100
AcDbArc
 50
270.0
 51
0.0
  0
ARC
  5
4AA
330
1A
100
AcDbEntity
  8
SEIHIN
 62
     3
 48
5.0
100
AcDbCircle
 10
408.4221390321516
 20
399.5951878068564
 30
0.0
 40
3.0
100
AcDbArc
 50
180.0
 51
270.0000000000002
  0
LINE
  5
4AE
330
1A
100
AcDbEntity
  8
SEIHIN
  6
CONTINUOUS
 62
     3
 48
5.0
100
AcDbLine
 10
408.4221390321516
 20
391.5951878068564
 30
0.0
 11
417.1982390321516
 21
391.5951878068564
 31
0.0
  0
ARC
  5
4AF
330
1A
100
AcDbEntity
  8
SEIHIN
  6
CONTINUOUS
 62
     3
 48
5.0
100
AcDbCircle
 10
415.4098390321514
 20
388.5951878068564
 30
0.0
 40
3.0
100
AcDbArc
 50
0.0
 51
90.0
  0
ARC
  5
4B0
330
1A
100
AcDbEntity
  8
SEIHIN
  6
CONTINUOUS
 62
     3
 48
5.0
100
AcDbCircle
 10
417.1982390321516
 20
388.5951878068564
 30
0.0
 40
3.0
100
AcDbArc
 50
0.0
 51
90.0
  0
ARC
  5
4B1
330
1A
100
AcDbEntity
  8
SEIHIN
  6
CONTINUOUS
 62
     3
 48
5.0
100
AcDbCircle
 10
408.4221390321516
 20
388.5951878068564
 30
0.0
 40
3.0
100
AcDbArc
 50
90.00000000000003
 51
180.0
  0
ELLIPSE
  5
4B8
330
1A
100
AcDbEntity
  8
SEIHIN
 48
5.0
100
AcDbEllipse
 10
400.9281390321515
 20
362.0951878068566
 30
0.0
 11
0.0
 21
2.149999999999977
 31
0.0
210
0.0
220
0.0
230
1.0
 40
0.6636381314231836
 41
0.0
 42
6.283185307179586
  0
ELLIPSE
  5
4B9
330
1A
100
AcDbEntity
  8
SEIHIN
 48
5.0
100
AcDbEllipse
 10
400.9118390321514
 20
426.1425378068564
 30
0.0
 11
0.0
 21
2.149999999999977
 31
0.0
210
0.0
220
0.0
230
1.0
 40
0.6636381314231836
 41
0.0
 42
6.283185307179586
  0
ELLIPSE
  5
4BA
330
1A
100
AcDbEntity
  8
SEIHIN
 48
5.0
100
AcDbEllipse
 10
423.2999390321513
 20
394.0951378068563
 30
0.0
 11
0.0
 21
2.149999999999977
 31
0.0
210
0.0
220
0.0
230
1.0
 40
0.6636381314231836
 41
0.0
 42
6.283185307179586
  0
DIMENSION
  5
588
330
1A
100
AcDbEntity
  8
SUNPOU
 62
     4
 48
5.0
100
AcDbDimension
  2
*D9
 10
396.3084390321975
 20
283.1632604676387
 30
0.0
 11
414.3084390321974
 21
283.1632604676387
 31
0.0
 70
   160
  3
STANDARD
100
AcDbAlignedDimension
 13
394.2298811788113
 23
241.9389377463148
 33
0.0
 14
396.3084390321975
 24
209.5259166404009
 34
0.0
100
AcDbRotatedDimension
1001
ACAD
1000
DSTYLE
1002
{
1070
   288
1070
     1
1070
   140
1040
6.0
1070
    74
1070
     0
1070
   172
1070
     1
1070
    73
1070
     0
1070
   272
1070
     2
1070
    77
1070
     3
1070
   173
1070
     1
1070
   147
1040
2.0
1070
    42
1040
6.0
1070
    44
1040
3.0
1070
    43
1040
14.0
1070
   271
1070
     0
1070
   178
1070
     4
1070
   177
1070
     4
1070
   176
1070
     4
1070
   141
1040
150.0
1070
     7
1000
_OPEN
1070
     6
1000
_OPEN
1070
    41
1040
7.0
1002
}
  0
DIMENSION
  5
5DF
330
1A
100
AcDbEntity
  8
SUNPOU
 62
     4
 48
5.0
100
AcDbDimension
  2
*D10
 10
490.2247341489618
 20
273.1603606211534
 30
0.0
 11
486.8713742660804
 21
279.8133047153181
 31
0.0
 70
   160
  3
STANDARD
100
AcDbAlignedDimension
 13
541.1957185843558
 23
315.5382050242516
 33
0.0
 14
513.9440665519336
 24
285.1158883699314
 34
0.0
 50
116.7499999999999
100
AcDbRotatedDimension
1001
ACAD
1000
DSTYLE
1002
{
1070
   288
1070
     1
1070
   140
1040
6.0
1070
    74
1070
     0
1070
   172
1070
     1
1070
    73
1070
     0
1070
   272
1070
     2
1070
    77
1070
     3
1070
   173
1070
     1
1070
   147
1040
2.0
1070
    42
1040
6.0
1070
    44
1040
3.0
1070
    43
1040
14.0
1070
   271
1070
     0
1070
   178
1070
     4
1070
   177
1070
     4
1070
   176
1070
     4
1070
   141
1040
150.0
1070
     7
1000
_OPEN
1070
     6
1000
_OPEN
1070
    41
1040
7.0
1002
}
  0
DIMENSION
  5
5EC
330
1A
100
AcDbEntity
  8
SUNPOU
 62
     4
 48
5.0
100
AcDbDimension
  2
*D11
 10
512.7670621610953
 20
228.437201385354
 30
0.0
 11
505.9607928720842
 21
253.0492732084408
 31
0.0
 70
    32
  3
STANDARD
100
AcDbAlignedDimension
 13
513.9440665519336
 23
285.1158883699314
 33
0.0
 14
564.7471130670267
 24
254.6373039190533
 34
0.0
 50
116.7499999999999
100
AcDbRotatedDimension
1001
ACAD
1000
DSTYLE
1002
{
1070
   140
1040
6.0
1070
    74
1070
     0
1070
   172
1070
     1
1070
    73
1070
     0
1070
   272
1070
     2
1070
    77
1070
     3
1070
   173
1070
     1
1070
   147
1040
2.0
1070
    42
1040
6.0
1070
    44
1040
3.0
1070
    43
1040
14.0
1070
   271
1070
     0
1070
   178
1070
     4
1070
   177
1070
     4
1070
   176
1070
     4
1070
   141
1040
150.0
1070
     7
1000
_OPEN
1070
     6
1000
_OPEN
1070
    41
1040
7.0
1002
}
  0
DIMENSION
  5
5FB
330
1A
100
AcDbEntity
  8
SUNPOU
 62
     4
 48
5.0
100
AcDbDimension
  2
*D12
 10
516.3751811376423
 20
221.278824511281
 30
0.0
 11
519.0360163664244
 21
227.1085051535047
 31
0.0
 70
    32
  3
STANDARD
100
AcDbAlignedDimension
 13
564.7471130670267
 23
254.6373039190533
 33
0.0
 14
573.8821599678656
 24
250.2647280549652
 34
0.0
 50
116.7499999999999
100
AcDbRotatedDimension
1001
ACAD
1000
DSTYLE
1002
{
1070
   140
1040
6.0
1070
    74
1070
     0
1070
   172
1070
     1
1070
    73
1070
     0
1070
   272
1070
     2
1070
    77
1070
     3
1070
   173
1070
     1
1070
   147
1040
2.0
1070
    42
1040
6.0
1070
    44
1040
3.0
1070
    43
1040
14.0
1070
   271
1070
     0
1070
   178
1070
     4
1070
   177
1070
     4
1070
   176
1070
     4
1070
   141
1040
150.0
1070
     7
1000
_OPEN
1070
     6
1000
_OPEN
1070
    41
1040
7.0
1002
}
  0
DIMENSION
  5
643
330
1A
100
AcDbEntity
  8
SUNPOU
 62
     4
100
AcDbDimension
  2
*D13
 10
394.2298390321516
 20
297.0126321996867
 30
0.0
 11
328.7832855599416
 21
302.0126321996867
 31
0.0
 70
    32
  3
STANDARD
100
AcDbAlignedDimension
 13
263.3367320877317
 23
239.2064235917528
 33
0.0
 14
394.2298390321516
 24
241.9389166402785
 34
0.0
100
AcDbRotatedDimension
1001
ACAD
1000
DSTYLE
1002
{
1070
   140
1040
6.0
1070
    74
1070
     0
1070
   172
1070
     1
1070
    73
1070
     0
1070
   272
1070
     2
1070
    77
1070
     3
1070
   173
1070
     1
1070
   147
1040
2.0
1070
    42
1040
6.0
1070
    44
1040
3.0
1070
    43
1040
14.0
1070
   271
1070
     0
1070
   178
1070
     4
1070
   177
1070
     4
1070
   176
1070
     4
1070
   141
1040
150.0
1070
     7
1000
_OPEN
1070
     6
1000
_OPEN
1070
    41
1040
7.0
1002
}
  0
MTEXT
  5
72E
330
1A
100
AcDbEntity
  8
SUNPOU
  6
CONTINUOUS
 62
     4
100
AcDbMText
 10
598.9358139512823
 20
346.3504614255209
 30
0.0
 40
6.0
 41
0.0
 71
     7
 72
     5
  1
3-φ4.2
1001
ACAD
1000
MTEXTBEGIN
1070
    73
1070
     1
1070
    44
1040
1.0
1070
    74
1070
     0
1000
MTEXTEND
1000
MTEXTBEGIN
1070
    73
1070
     1
1070
    44
1040
1.0
1070
    74
1070
     0
1000
MTEXTEND
  0
LINE
  5
95F
330
1A
100
AcDbEntity
  8
SUNPOU
  6
CONTINUOUS
100
AcDbLine
 10
455.7862878612945
 20
119.0130410760261
 30
0.0
 11
445.7862878612945
 21
119.0130410760261
 31
0.0
  0
LINE
  5
960
330
1A
100
AcDbEntity
  8
SUNPOU
  6
CONTINUOUS
100
AcDbLine
 10
445.7862878612945
 20
119.0130410760261
 30
0.0
 11
445.7862878612944
 21
138.9827149268741
 31
0.0
  0
LINE
  5
AEA
330
1A
100
AcDbEntity
  8
ZUWAKU
100
AcDbLine
 10
208.6466024889079
 20
15.19999935047882
 30
0.0
 11
447.4243651698313
 21
15.19999935047881
 31
0.0
  0
LINE
  5
AEB
330
1A
100
AcDbEntity
  8
ZUWAKU
100
AcDbLine
 10
208.6466024889079
 20
15.59999935047881
 30
0.0
 11
447.4243651698313
 21
15.59999935047882
 31
0.0
  0
LINE
  5
AEC
330
1A
100
AcDbEntity
  8
ZUWAKU
100
AcDbLine
 10
208.6466024889079
 20
15.39999935047881
 30
0.0
 11
447.4243651698313
 21
15.39999935047881
 31
0.0
  0
LINE
  5
AED
330
1A
100
AcDbEntity
  8
ZUWAKU
100
AcDbLine
 10
0.0000011988399819
 20
30.79999935047879
 30
0.0
 11
797.4000011988398
 21
30.79999935047879
 31
0.0
  0
LINE
  5
AEE
330
1A
100
AcDbEntity
  8
ZUWAKU
100
AcDbLine
 10
0.0000011988399819
 20
30.5999993504788
 30
0.0
 11
797.4000011988398
 21
30.5999993504788
 31
0.0
  0
LINE
  5
AEF
330
1A
100
AcDbEntity
  8
ZUWAKU
100
AcDbLine
 10
0.0000011988399819
 20
30.39999935047879
 30
0.0
 11
797.4000011988398
 21
30.39999935047879
 31
0.0
  0
LINE
  5
AF0
330
1A
100
AcDbEntity
  8
ZUWAKU
100
AcDbLine
 10
0.0000011988399819
 20
30.19999935047878
 30
0.0
 11
797.4000011988398
 21
30.19999935047878
 31
0.0
  0
LINE
  5
AF1
330
1A
100
AcDbEntity
  8
ZUWAKU
100
AcDbLine
 10
0.0000011988399819
 20
29.99999935047878
 30
0.0
 11
797.4000011988398
 21
29.99999935047878
 31
0.0
  0
LWPOLYLINE
  5
AF2
330
1A
100
AcDbEntity
  8
ZUWAKU
100
AcDbPolyline
 90
        4
 70
     1
 43
0.0
 10
0.2000011988399137
 20
551.3999993504787
 10
0.2000011988399137
 20
0.1999993504788336
 10
797.4000011988398
 20
0.1999993504788566
 10
797.40000119884
 20
551.3999993504787
  0
LWPOLYLINE
  5
AF3
330
1A
100
AcDbEntity
  8
ZUWAKU
100
AcDbPolyline
 90
        4
 70
     1
 43
0.0
 10
0.600001198839891
 20
550.9999993504789
 10
0.600001198839891
 20
0.5999993504788109
 10
797.0000011988402
 20
0.5999993504788571
 10
797.00000119884
 20
550.9999993504789
  0
LWPOLYLINE
  5
AF4
330
1A
100
AcDbEntity
  8
ZUWAKU
100
AcDbPolyline
 90
        4
 70
     1
 43
0.0
 10
0.0000011988399819
 20
551.5999993504788
 10
0.0000011988399819
 20
-0.0000006495212119
 10
797.60000119884
 20
-0.0000006495211444
 10
797.60000119884
 20
551.5999993504789
  0
LWPOLYLINE
  5
AF5
330
1A
100
AcDbEntity
  8
ZUWAKU
100
AcDbPolyline
 90
        4
 70
     1
 43
0.0
 10
0.4000011988399593
 20
551.1999993504787
 10
0.4000011988399593
 20
0.399999350478879
 10
797.20000119884
 20
0.3999993504788559
 10
797.20000119884
 20
551.1999993504787
  0
LWPOLYLINE
  5
AF6
330
1A
100
AcDbEntity
  8
ZUWAKU
100
AcDbPolyline
 90
        4
 70
     1
 43
0.0
 10
0.8000011988399364
 20
550.7999993504787
 10
0.8000011988399364
 20
0.7999993504788563
 10
796.8000011988398
 20
0.7999993504788563
 10
796.8000011988398
 20
550.7999993504787
  0
TEXT
  5
AF7
330
1A
100
AcDbEntity
  8
MOJI
100
AcDbText
 10
129.5810018416712
 20
8.554222766009161
 30
0.0
 40
5.799999999999999
  1
Ｓ１２０Ｈ・Ｍ１２０Ｈ
 41
0.9
  7
ｽﾀｲﾙ1
100
AcDbText
  0
TEXT
  5
AF8
330
1A
100
AcDbEntity
  8
MOJI
100
AcDbText
 10
81.66226515300536
 20
17.85856729940519
 30
0.0
 40
5.799999999999999
  1
アートフェイスＴ１２０・Ｈ１２０・
 41
0.9
  7
ｽﾀｲﾙ1
100
AcDbText
  0
HATCH
  5
AF9
330
1A
100
AcDbEntity
  8
ZUWAKU
100
AcDbHatch
 10
0.0
 20
0.0
 30
0.0
210
0.0
220
0.0
230
1.0
  2
ANSI37
 70
     0
 71
     0
 91
        8
 92
        7
 72
     1
 73
     1
 93
       24
 10
14.50226385995983
 20
17.64484783146236
 42
-0.1989123673796348
 10
14.0922133536211
 20
18.63479732512341
 42
0.0
 10
14.0922133536211
 20
19.92499935047879
 42
-0.4142135623730912
 10
14.61721335362107
 20
20.44999935047878
 42
0.0
 10
17.59221335362098
 20
20.44999935047878
 42
0.4142135623731546
 10
18.11721335362108
 20
20.97499935047877
 42
0.0
 10
18.11721335362108
 20
22.7249993504788
 42
0.4142135623731586
 10
17.59221335362098
 20
23.24999935047878
 42
0.0
 10
14.0922133536211
 20
23.24999935047878
 42
0.4142135623730928
 10
11.29221335362114
 20
20.44999935047881
 42
0.0
 10
11.29221335362114
 20
18.63479732512354
 42
0.1989123673796619
 10
12.52236487263757
 20
15.66494884413993
 42
0.0
 10
15.43216284728225
 20
12.75515086949528
 42
-0.1989123673796613
 10
15.8422133536211
 20
11.76520137583409
 42
0.0
 10
15.8422133536211
 20
10.47499935047877
 42
-0.4142135623730911
 10
15.31721335362112
 20
9.949999350478789
 42
0.0
 10
12.34221335362121
 20
9.949999350478789
 42
0.4142135623731526
 10
11.81721335362112
 20
9.424999350478801
 42
0.0
 10
11.81721335362112
 20
7.67499935047878
 42
0.4142135623731526
 10
12.34221335362121
 20
7.149999350478792
 42
0.0
 10
15.8422133536211
 20
7.149999350478792
 42
0.4142135623731045
 10
18.64221335362117
 20
9.949999350478769
 42
0.0
 10
18.64221335362117
 20
11.76520137583403
 42
0.1989123673796604
 10
17.41206183460462
 20
14.73504985681757
 42
0.0
 97
        0
 92
        7
 72
     1
 73
     1
 93
       16
 10
23.54221335362114
 20
19.04999935047879
 42
-0.4142135623730935
 10
24.94221335362112
 20
20.44999935047878
 42
0.0
 10
26.86721335362108
 20
20.44999935047878
 42
0.4142135623731546
 10
27.39221335362117
 20
20.97499935047877
 42
0.0
 10
27.39221335362117
 20
22.7249993504788
 42
0.4142135623730951
 10
26.86721335362119
 20
23.24999935047878
 42
0.0
 10
24.94221335362101
 20
23.24999935047874
 42
0.4142135623730893
 10
20.74221335362107
 20
19.04999935047873
 42
0.0
 10
20.74221335362107
 20
11.34999935047881
 42
0.4142135623730969
 10
24.94221335362112
 20
7.149999350478792
 42
0.0
 10
26.86721335362108
 20
7.149999350478792
 42
0.4142135623731526
 10
27.39221335362117
 20
7.67499935047878
 42
0.0
 10
27.39221335362117
 20
9.424999350478801
 42
0.4142135623730891
 10
26.86721335362119
 20
9.949999350478789
 42
0.0
 10
24.94221335362112
 20
9.949999350478789
 42
-0.4142135623730928
 10
23.54221335362114
 20
11.34999935047877
 42
0.0
 97
        0
 92
        7
 72
     1
 73
     1
 93
        2
 10
24.24221335362108
 20
15.19999935047878
 42
1.0
 10
27.74221335362108
 20
15.19999935047878
 42
1.0
 97
        0
 92
        7
 72
     1
 73
     1
 93
       26
 10
37.3148598357991
 20
19.20504654404221
 42
0.0
 10
38.37649946893692
 20
22.5669053823118
 42
0.5069206636600134
 10
37.87586856974155
 20
23.24999935047878
 42
0.0
 10
36.17697919013232
 20
23.24999935047878
 42
0.3272098845218764
 10
35.67634829093696
 20
22.88309331864575
 42
0.0
 10
33.80807841630518
 20
16.96690538231186
 42
-0.3272098845219541
 10
33.30744751710971
 20
16.59999935047878
 42
0.0
 10
33.16721335362126
 20
16.59999935047878
 42
-0.4142135623731526
 10
32.64221335362117
 20
17.12499935047877
 42
0.0
 10
32.64221335362117
 20
22.7249993504788
 42
0.4142135623730951
 10
32.11721335362119
 20
23.24999935047878
 42
0.0
 10
30.36721335362107
 20
23.24999935047878
 42
0.4142135623730871
 10
29.8422133536211
 20
22.7249993504788
 42
0.0
 10
29.8422133536211
 20
7.67499935047878
 42
0.4142135623730891
 10
30.36721335362107
 20
7.149999350478792
 42
0.0
 10
32.11721335362108
 20
7.149999350478792
 42
0.4142135623731526
 10
32.64221335362117
 20
7.67499935047878
 42
0.0
 10
32.64221335362117
 20
13.27499935047879
 42
-0.4142135623731526
 10
33.16721335362126
 20
13.79999935047878
 42
0.0
 10
33.30744751710983
 20
13.79999935047878
 42
-0.3272098845218915
 10
33.80807841630518
 20
13.43309331864571
 42
0.0
 10
35.67634829093696
 20
7.516905382311864
 42
0.3272098845218902
 10
36.17697919013232
 20
7.149999350478792
 42
0.0
 10
37.87586856974155
 20
7.149999350478792
 42
0.5069206636600336
 10
38.37649946893692
 20
7.833093318645801
 42
0.0
 10
36.05010809046325
 20
15.19999935047892
 42
0.0
 97
        0
 92
        7
 72
     1
 73
     1
 93
        8
 10
43.49221335362106
 20
22.7249993504788
 42
0.4142135623731546
 10
42.96721335362098
 20
23.24999935047878
 42
0.0
 10
41.21721335362122
 20
23.24999935047878
 42
0.4142135623731507
 10
40.69221335362112
 20
22.7249993504788
 42
0.0
 10
40.69221335362112
 20
7.67499935047878
 42
0.4142135623731526
 10
41.21721335362122
 20
7.149999350478792
 42
0.0
 10
42.96721335362098
 20
7.149999350478792
 42
0.4142135623731526
 10
43.49221335362106
 20
7.67499935047878
 42
0.0
 97
        0
 92
        7
 72
     1
 73
     1
 93
       24
 10
48.39221335362116
 20
19.92499935047879
 42
-0.4142135623731546
 10
48.91721335362126
 20
20.44999935047878
 42
0.0
 10
51.89221335362117
 20
20.44999935047878
 42
0.4142135623730911
 10
52.41721335362115
 20
20.97499935047877
 42
0.0
 10
52.41721335362115
 20
22.7249993504788
 42
0.4142135623730952
 10
51.89221335362117
 20
23.24999935047878
 42
0.0
 10
48.39221335362116
 20
23.24999935047878
 42
0.4142135623731048
 10
45.5922133536211
 20
20.44999935047881
 42
0.0
 10
45.5922133536211
 20
18.63479732512354
 42
0.1989123673796613
 10
46.82236487263764
 20
15.66494884413999
 42
0.0
 10
49.73216284728231
 20
12.75515086949532
 42
-0.1989123673796402
 10
50.14221335362117
 20
11.76520137583425
 42
0.0
 10
50.14221335362117
 20
10.47499935047877
 42
-0.4142135623730911
 10
49.6172133536212
 20
9.949999350478789
 42
0.0
 10
46.64221335362117
 20
9.949999350478789
 42
0.4142135623731526
 10
46.11721335362108
 20
9.424999350478801
 42
0.0
 10
46.11721335362108
 20
7.67499935047878
 42
0.4142135623730891
 10
46.64221335362106
 20
7.149999350478792
 42
0.0
 10
50.14221335362117
 20
7.149999350478792
 42
0.4142135623730925
 10
52.94221335362112
 20
9.949999350478769
 42
0.0
 10
52.94221335362112
 20
11.76520137583403
 42
0.1989123673796675
 10
51.71206183460459
 20
14.73504985681769
 42
0.0
 10
48.80226385996
 20
17.6448478314622
 42
-0.1989123673796652
 10
48.39221335362116
 20
18.63479732512337
 42
0.0
 97
        0
 92
        7
 72
     1
 73
     1
 93
       16
 10
57.84221335362111
 20
22.72499935047877
 42
0.414213562373103
 10
57.31721335362112
 20
23.24999935047878
 42
0.0
 10
55.56721335362112
 20
23.24999935047878
 42
0.4142135623730871
 10
55.04221335362114
 20
22.7249993504788
 42
0.0
 10
55.04221335362114
 20
9.949999350478769
 42
0.4142135623730927
 10
57.84221335362111
 20
7.149999350478792
 42
0.0
 10
61.3422133536211
 20
7.149999350478792
 42
0.4142135623731045
 10
64.14221335362118
 20
9.949999350478769
 42
0.0
 10
64.14221335362118
 20
22.7249993504788
 42
0.4142135623730951
 10
63.61721335362119
 20
23.24999935047878
 42
0.0
 10
61.86721335362108
 20
23.24999935047878
 42
0.4142135623730871
 10
61.3422133536211
 20
22.7249993504788
 42
0.0
 10
61.3422133536211
 20
10.99999935047876
 42
-0.4142135623730879
 10
60.29221335362114
 20
9.949999350478789
 42
0.0
 10
58.89221335362117
 20
9.949999350478789
 42
-0.4142135623731197
 10
57.84221335362111
 20
10.99999935047876
 42
0.0
 97
        0
 92
        7
 72
     1
 73
     1
 93
        8
 10
69.04221335362115
 20
22.7249993504788
 42
0.4142135623730871
 10
68.51721335362118
 20
23.24999935047878
 42
0.0
 10
66.76721335362117
 20
23.24999935047878
 42
0.4142135623731507
 10
66.24221335362108
 20
22.7249993504788
 42
0.0
 10
66.24221335362108
 20
7.67499935047878
 42
0.4142135623730891
 10
66.76721335362106
 20
7.149999350478792
 42
0.0
 10
68.51721335362118
 20
7.149999350478792
 42
0.4142135623730891
 10
69.04221335362115
 20
7.67499935047878
 42
0.0
 97
        0
 75
     0
 76
     1
 52
0.0
 41
0.2
 77
     0
 78
     2
 53
45.0
 43
-900.9423031358391
 44
-13.20000064952113
 45
-0.4490128060534576
 46
0.4490128060534577
 79
     0
 53
135.0
 43
-900.9423031358391
 44
-13.20000064952113
 45
-0.4490128060534577
 46
-0.4490128060534576
 79
     0
 47
0.057451373970553
 98
        8
 10
16.07985616186328
 20
15.16717299636433
 10
22.40451620527915
 20
18.84406153292979
 10
25.16436908449963
 20
15.5118809965495
 10
30.91406118047711
 20
16.20129699692028
 10
41.83847321779671
 20
16.6609092644619
 10
46.89820209396953
 20
19.41857566688599
 10
56.55768717124033
 20
18.72915726557379
 10
67.82708081846272
 20
19.18876953311541
  0
LINE
  5
AFA
330
1A
100
AcDbEntity
  8
ZUWAKU
100
AcDbLine
 10
24.94221335362112
 20
23.24999935047874
 30
0.0
 11
26.86721335362108
 21
23.24999935047878
 31
0.0
  0
LINE
  5
AFB
330
1A
100
AcDbEntity
  8
ZUWAKU
100
AcDbLine
 10
26.86721335362108
 20
20.44999935047878
 30
0.0
 11
24.94221335362112
 21
20.44999935047878
 31
0.0
  0
LINE
  5
AFC
330
1A
100
AcDbEntity
  8
ZUWAKU
100
AcDbLine
 10
24.94221335362112
 20
9.949999350478789
 30
0.0
 11
26.86721335362108
 21
9.949999350478789
 31
0.0
  0
LINE
  5
AFD
330
1A
100
AcDbEntity
  8
ZUWAKU
100
AcDbLine
 10
26.86721335362108
 20
7.149999350478792
 30
0.0
 11
24.94221335362112
 21
7.149999350478792
 31
0.0
  0
CIRCLE
  5
AFE
330
1A
100
AcDbEntity
  8
ZUWAKU
100
AcDbCircle
 10
25.99221335362107
 20
15.19999935047878
 30
0.0
 40
1.75
  0
ARC
  5
AFF
330
1A
100
AcDbEntity
  8
ZUWAKU
100
AcDbCircle
 10
15.49221335362108
 20
18.63479732512348
 30
0.0
 40
1.399999999999999
100
AcDbArc
 50
180.0000000000015
 51
224.9999999999988
  0
LINE
  5
B00
330
1A
100
AcDbEntity
  8
ZUWAKU
100
AcDbLine
 10
23.54221335362114
 20
19.04999935047878
 30
0.0
 11
23.54221335362114
 21
11.34999935047879
 31
0.0
  0
LINE
  5
B01
330
1A
100
AcDbEntity
  8
ZUWAKU
100
AcDbLine
 10
20.74221335362107
 20
11.34999935047879
 30
0.0
 11
20.74221335362107
 21
19.04999935047874
 31
0.0
  0
ARC
  5
B02
330
1A
100
AcDbEntity
  8
ZUWAKU
100
AcDbCircle
 10
15.49221335362108
 20
18.63479732512348
 30
0.0
 40
4.199999999999998
100
AcDbArc
 50
180.0
 51
225.0
  0
ARC
  5
B03
330
1A
100
AcDbEntity
  8
ZUWAKU
100
AcDbCircle
 10
15.8422133536211
 20
9.949999350478789
 30
0.0
 40
2.799999999999998
100
AcDbArc
 50
270.0
 51
0.0
  0
ARC
  5
B04
330
1A
100
AcDbEntity
  8
ZUWAKU
100
AcDbCircle
 10
24.94221335362112
 20
11.34999935047879
 30
0.0
 40
4.199999999999998
100
AcDbArc
 50
180.0
 51
270.0
  0
ARC
  5
B05
330
1A
100
AcDbEntity
  8
ZUWAKU
100
AcDbCircle
 10
14.44221335362112
 20
11.76520137583409
 30
0.0
 40
4.199999999999998
100
AcDbArc
 50
0.0
 51
45.0
  0
LINE
  5
B06
330
1A
100
AcDbEntity
  8
ZUWAKU
100
AcDbLine
 10
17.41206183460462
 20
14.73504985681761
 30
0.0
 11
14.50226385995994
 21
17.64484783146228
 31
0.0
  0
LINE
  5
B07
330
1A
100
AcDbEntity
  8
ZUWAKU
100
AcDbLine
 10
15.8422133536211
 20
10.47499935047879
 30
0.0
 11
15.8422133536211
 21
11.76520137583413
 31
0.0
  0
ARC
  5
B08
330
1A
100
AcDbEntity
  8
ZUWAKU
100
AcDbCircle
 10
15.31721335362112
 20
10.47499935047879
 30
0.0
 40
0.525
100
AcDbArc
 50
270.0
 51
0.0
  0
ARC
  5
B09
330
1A
100
AcDbEntity
  8
ZUWAKU
100
AcDbCircle
 10
14.44221335362112
 20
11.76520137583413
 30
0.0
 40
1.399999999999999
100
AcDbArc
 50
0.0
 51
45.0
  0
LINE
  5
B0A
330
1A
100
AcDbEntity
  8
ZUWAKU
100
AcDbLine
 10
11.81721335362112
 20
7.674999350478791
 30
0.0
 11
11.81721335362112
 21
9.42499935047879
 31
0.0
  0
ARC
  5
B0B
330
1A
100
AcDbEntity
  8
ZUWAKU
100
AcDbCircle
 10
12.3422133536211
 20
7.674999350478791
 30
0.0
 40
0.525
100
AcDbArc
 50
180.0
 51
270.0
  0
ARC
  5
B0C
330
1A
100
AcDbEntity
  8
ZUWAKU
100
AcDbCircle
 10
12.3422133536211
 20
9.42499935047879
 30
0.0
 40
0.525
100
AcDbArc
 50
90.0
 51
180.0
  0
LINE
  5
B0D
330
1A
100
AcDbEntity
  8
ZUWAKU
100
AcDbLine
 10
12.3422133536211
 20
7.149999350478792
 30
0.0
 11
15.8422133536211
 21
7.149999350478792
 31
0.0
  0
LINE
  5
B0E
330
1A
100
AcDbEntity
  8
ZUWAKU
100
AcDbLine
 10
12.3422133536211
 20
9.949999350478789
 30
0.0
 11
15.31721335362112
 21
9.949999350478789
 31
0.0
  0
LINE
  5
B0F
330
1A
100
AcDbEntity
  8
ZUWAKU
100
AcDbLine
 10
12.52236487263757
 20
15.66494884413996
 30
0.0
 11
15.43216284728225
 21
12.7551508694953
 31
0.0
  0
LINE
  5
B10
330
1A
100
AcDbEntity
  8
ZUWAKU
100
AcDbLine
 10
18.64221335362117
 20
9.949999350478789
 30
0.0
 11
18.64221335362117
 21
11.76520137583413
 31
0.0
  0
ARC
  5
B11
330
1A
100
AcDbEntity
  8
ZUWAKU
100
AcDbCircle
 10
24.94221335362112
 20
11.34999935047879
 30
0.0
 40
1.399999999999999
100
AcDbArc
 50
180.0
 51
270.0
  0
ARC
  5
B12
330
1A
100
AcDbEntity
  8
ZUWAKU
100
AcDbCircle
 10
17.5922133536211
 20
22.72499935047878
 30
0.0
 40
0.525
100
AcDbArc
 50
0.0
 51
90.0
  0
ARC
  5
B13
330
1A
100
AcDbEntity
  8
ZUWAKU
100
AcDbCircle
 10
17.5922133536211
 20
20.97499935047878
 30
0.0
 40
0.525
100
AcDbArc
 50
270.0
 51
0.0
  0
LINE
  5
B14
330
1A
100
AcDbEntity
  8
ZUWAKU
100
AcDbLine
 10
14.0922133536211
 20
23.24999935047878
 30
0.0
 11
17.5922133536211
 21
23.24999935047878
 31
0.0
  0
ARC
  5
B15
330
1A
100
AcDbEntity
  8
ZUWAKU
100
AcDbCircle
 10
14.61721335362107
 20
19.92499935047878
 30
0.0
 40
0.525
100
AcDbArc
 50
90.0
 51
180.0
  0
LINE
  5
B16
330
1A
100
AcDbEntity
  8
ZUWAKU
100
AcDbLine
 10
14.0922133536211
 20
19.92499935047878
 30
0.0
 11
14.0922133536211
 21
18.63479732512344
 31
0.0
  0
LINE
  5
B17
330
1A
100
AcDbEntity
  8
ZUWAKU
100
AcDbLine
 10
17.5922133536211
 20
20.44999935047878
 30
0.0
 11
14.61721335362107
 21
20.44999935047878
 31
0.0
  0
LINE
  5
B18
330
1A
100
AcDbEntity
  8
ZUWAKU
100
AcDbLine
 10
11.29221335362114
 20
20.44999935047878
 30
0.0
 11
11.29221335362114
 21
18.63479732512344
 31
0.0
  0
ARC
  5
B19
330
1A
100
AcDbEntity
  8
ZUWAKU
100
AcDbCircle
 10
14.0922133536211
 20
20.44999935047878
 30
0.0
 40
2.799999999999998
100
AcDbArc
 50
90.0
 51
180.0
  0
LINE
  5
B1A
330
1A
100
AcDbEntity
  8
ZUWAKU
100
AcDbLine
 10
18.11721335362108
 20
22.72499935047878
 30
0.0
 11
18.11721335362108
 21
20.97499935047878
 31
0.0
  0
ARC
  5
B1B
330
1A
100
AcDbEntity
  8
ZUWAKU
100
AcDbCircle
 10
24.94221335362112
 20
19.04999935047878
 30
0.0
 40
1.399999999999999
100
AcDbArc
 50
90.0
 51
180.0
  0
ARC
  5
B1C
330
1A
100
AcDbEntity
  8
ZUWAKU
100
AcDbCircle
 10
24.94221335362112
 20
19.04999935047874
 30
0.0
 40
4.199999999999998
100
AcDbArc
 50
90.0
 51
180.0
  0
LINE
  5
B1D
330
1A
100
AcDbEntity
  8
ZUWAKU
100
AcDbLine
 10
79.32663074682818
 20
29.99999935047878
 30
0.0
 11
79.32663074682841
 21
0.7999993504788563
 31
0.0
  0
LINE
  5
B1E
330
1A
100
AcDbEntity
  8
ZUWAKU
100
AcDbLine
 10
79.52663074682823
 20
29.99999935047878
 30
0.0
 11
79.52663074682845
 21
0.7999993504788563
 31
0.0
  0
LINE
  5
B1F
330
1A
100
AcDbEntity
  8
ZUWAKU
100
AcDbLine
 10
79.12663074682837
 20
29.99999935047878
 30
0.0
 11
79.12663074682837
 21
0.7999993504788563
 31
0.0
  0
LINE
  5
B20
330
1A
100
AcDbEntity
  8
ZUWAKU
100
AcDbLine
 10
64.14221335362118
 20
9.949999350478789
 30
0.0
 11
64.14221335362118
 21
22.72499935047878
 31
0.0
  0
LINE
  5
B21
330
1A
100
AcDbEntity
  8
ZUWAKU
100
AcDbLine
 10
61.3422133536211
 20
22.72499935047878
 30
0.0
 11
61.3422133536211
 21
10.99999935047878
 31
0.0
  0
LINE
  5
B22
330
1A
100
AcDbEntity
  8
ZUWAKU
100
AcDbLine
 10
69.04221335362115
 20
7.674999350478791
 30
0.0
 11
69.04221335362115
 21
22.72499935047878
 31
0.0
  0
LINE
  5
B23
330
1A
100
AcDbEntity
  8
ZUWAKU
100
AcDbLine
 10
66.24221335362108
 20
22.72499935047878
 30
0.0
 11
66.24221335362108
 21
7.674999350478791
 31
0.0
  0
ARC
  5
B24
330
1A
100
AcDbEntity
  8
ZUWAKU
100
AcDbCircle
 10
49.79221335362114
 20
18.63479732512348
 30
0.0
 40
1.399999999999999
100
AcDbArc
 50
180.0000000000015
 51
224.9999999999988
  0
ARC
  5
B25
330
1A
100
AcDbEntity
  8
ZUWAKU
100
AcDbCircle
 10
49.79221335362114
 20
18.63479732512348
 30
0.0
 40
4.199999999999998
100
AcDbArc
 50
180.0
 51
225.0
  0
LINE
  5
B26
330
1A
100
AcDbEntity
  8
ZUWAKU
100
AcDbLine
 10
37.3148598357991
 20
19.20504654404221
 30
0.0
 11
36.05010809046325
 21
15.1999993504788
 31
0.0
  0
LINE
  5
B27
330
1A
100
AcDbEntity
  8
ZUWAKU
100
AcDbLine
 10
40.69221335362112
 20
22.72499935047878
 30
0.0
 11
40.69221335362112
 21
7.674999350478791
 31
0.0
  0
LINE
  5
B28
330
1A
100
AcDbEntity
  8
ZUWAKU
100
AcDbLine
 10
43.49221335362106
 20
7.674999350478791
 30
0.0
 11
43.49221335362106
 21
22.72499935047878
 31
0.0
  0
LINE
  5
B29
330
1A
100
AcDbEntity
  8
ZUWAKU
100
AcDbLine
 10
55.04221335362114
 20
22.72499935047878
 30
0.0
 11
55.04221335362114
 21
9.949999350478789
 31
0.0
  0
LINE
  5
B2A
330
1A
100
AcDbEntity
  8
ZUWAKU
100
AcDbLine
 10
57.84221335362111
 20
10.99999935047878
 30
0.0
 11
57.84221335362111
 21
22.72499935047878
 31
0.0
  0
LINE
  5
B2B
330
1A
100
AcDbEntity
  8
ZUWAKU
100
AcDbLine
 10
32.64221335362117
 20
17.12499935047879
 30
0.0
 11
32.64221335362117
 21
22.72499935047878
 31
0.0
  0
LINE
  5
B2C
330
1A
100
AcDbEntity
  8
ZUWAKU
100
AcDbLine
 10
29.8422133536211
 20
22.72499935047878
 30
0.0
 11
29.8422133536211
 21
7.674999350478791
 31
0.0
  0
LINE
  5
B2D
330
1A
100
AcDbEntity
  8
ZUWAKU
100
AcDbLine
 10
35.67634829093696
 20
22.88309331864575
 30
0.0
 11
33.80807841630518
 21
16.96690538231181
 31
0.0
  0
LINE
  5
B2E
330
1A
100
AcDbEntity
  8
ZUWAKU
100
AcDbLine
 10
60.29221335362114
 20
9.949999350478789
 30
0.0
 11
58.89221335362117
 21
9.949999350478789
 31
0.0
  0
LINE
  5
B2F
330
1A
100
AcDbEntity
  8
ZUWAKU
100
AcDbLine
 10
57.84221335362111
 20
7.149999350478792
 30
0.0
 11
61.3422133536211
 21
7.149999350478792
 31
0.0
  0
LINE
  5
B30
330
1A
100
AcDbEntity
  8
ZUWAKU
100
AcDbLine
 10
41.2172133536211
 20
7.149999350478792
 30
0.0
 11
42.9672133536211
 21
7.149999350478792
 31
0.0
  0
LINE
  5
B31
330
1A
100
AcDbEntity
  8
ZUWAKU
100
AcDbLine
 10
35.67634829093696
 20
7.516905382311818
 30
0.0
 11
33.80807841630518
 21
13.43309331864575
 31
0.0
  0
ARC
  5
B32
330
1A
100
AcDbEntity
  8
ZUWAKU
100
AcDbCircle
 10
33.30744751710983
 20
17.12499935047879
 30
0.0
 40
0.525
100
AcDbArc
 50
270.0
 51
342.4744316262769
  0
LINE
  5
B33
330
1A
100
AcDbEntity
  8
ZUWAKU
100
AcDbLine
 10
33.30744751710983
 20
16.59999935047878
 30
0.0
 11
33.16721335362114
 21
16.59999935047878
 31
0.0
  0
LINE
  5
B34
330
1A
100
AcDbEntity
  8
ZUWAKU
100
AcDbLine
 10
33.16721335362114
 20
13.79999935047878
 30
0.0
 11
33.30744751710983
 21
13.79999935047878
 31
0.0
  0
ARC
  5
B35
330
1A
100
AcDbEntity
  8
ZUWAKU
100
AcDbCircle
 10
33.16721335362114
 20
17.12499935047879
 30
0.0
 40
0.525
100
AcDbArc
 50
180.0
 51
270.0
  0
LINE
  5
B36
330
1A
100
AcDbEntity
  8
ZUWAKU
100
AcDbLine
 10
30.36721335362107
 20
7.149999350478792
 30
0.0
 11
32.11721335362108
 21
7.149999350478792
 31
0.0
  0
ARC
  5
B37
330
1A
100
AcDbEntity
  8
ZUWAKU
100
AcDbCircle
 10
32.11721335362108
 20
7.674999350478791
 30
0.0
 40
0.525
100
AcDbArc
 50
270.0
 51
0.0
  0
LINE
  5
B38
330
1A
100
AcDbEntity
  8
ZUWAKU
100
AcDbLine
 10
32.64221335362117
 20
7.674999350478791
 30
0.0
 11
32.64221335362117
 21
13.27499935047878
 31
0.0
  0
LINE
  5
B39
330
1A
100
AcDbEntity
  8
ZUWAKU
100
AcDbLine
 10
27.39221335362117
 20
9.42499935047879
 30
0.0
 11
27.39221335362117
 21
7.674999350478791
 31
0.0
  0
ARC
  5
B3A
330
1A
100
AcDbEntity
  8
ZUWAKU
100
AcDbCircle
 10
26.86721335362108
 20
7.674999350478791
 30
0.0
 40
0.525
100
AcDbArc
 50
270.0
 51
0.0
  0
ARC
  5
B3B
330
1A
100
AcDbEntity
  8
ZUWAKU
100
AcDbCircle
 10
26.86721335362108
 20
9.42499935047879
 30
0.0
 40
0.525
100
AcDbArc
 50
0.0
 51
90.0
  0
ARC
  5
B3C
330
1A
100
AcDbEntity
  8
ZUWAKU
100
AcDbCircle
 10
30.36721335362107
 20
7.674999350478791
 30
0.0
 40
0.525
100
AcDbArc
 50
180.0
 51
270.0
  0
ARC
  5
B3D
330
1A
100
AcDbEntity
  8
ZUWAKU
100
AcDbCircle
 10
33.30744751710983
 20
13.27499935047878
 30
0.0
 40
0.525
100
AcDbArc
 50
17.52556837372303
 51
90.0
  0
ARC
  5
B3E
330
1A
100
AcDbEntity
  8
ZUWAKU
100
AcDbCircle
 10
33.16721335362114
 20
13.27499935047878
 30
0.0
 40
0.525
100
AcDbArc
 50
90.0
 51
180.0
  0
ARC
  5
B3F
330
1A
100
AcDbEntity
  8
ZUWAKU
100
AcDbCircle
 10
41.2172133536211
 20
7.674999350478791
 30
0.0
 40
0.525
100
AcDbArc
 50
180.0
 51
270.0
  0
LINE
  5
B40
330
1A
100
AcDbEntity
  8
ZUWAKU
100
AcDbLine
 10
36.17697919013243
 20
7.149999350478792
 30
0.0
 11
37.87586856974144
 21
7.149999350478792
 31
0.0
  0
ARC
  5
B41
330
1A
100
AcDbEntity
  8
ZUWAKU
100
AcDbCircle
 10
37.87586856974144
 20
7.674999350478791
 30
0.0
 40
0.525
100
AcDbArc
 50
270.0
 51
17.52556837372303
  0
LINE
  5
B42
330
1A
100
AcDbEntity
  8
ZUWAKU
100
AcDbLine
 10
38.37649946893692
 20
7.833093318645765
 30
0.0
 11
36.05010809046325
 21
15.1999993504788
 31
0.0
  0
ARC
  5
B43
330
1A
100
AcDbEntity
  8
ZUWAKU
100
AcDbCircle
 10
36.17697919013243
 20
7.674999350478791
 30
0.0
 40
0.525
100
AcDbArc
 50
197.5255683737229
 51
270.0
  0
ARC
  5
B44
330
1A
100
AcDbEntity
  8
ZUWAKU
100
AcDbCircle
 10
57.84221335362111
 20
9.949999350478789
 30
0.0
 40
2.799999999999998
100
AcDbArc
 50
180.0
 51
270.0
  0
ARC
  5
B45
330
1A
100
AcDbEntity
  8
ZUWAKU
100
AcDbCircle
 10
50.14221335362117
 20
9.949999350478789
 30
0.0
 40
2.799999999999998
100
AcDbArc
 50
270.0
 51
0.0
  0
LINE
  5
B46
330
1A
100
AcDbEntity
  8
ZUWAKU
100
AcDbLine
 10
51.71206183460469
 20
14.73504985681761
 30
0.0
 11
48.80226385995992
 21
17.64484783146228
 31
0.0
  0
LINE
  5
B47
330
1A
100
AcDbEntity
  8
ZUWAKU
100
AcDbLine
 10
50.14221335362117
 20
10.47499935047879
 30
0.0
 11
50.14221335362117
 21
11.76520137583413
 31
0.0
  0
ARC
  5
B48
330
1A
100
AcDbEntity
  8
ZUWAKU
100
AcDbCircle
 10
48.74221335362108
 20
11.76520137583413
 30
0.0
 40
1.399999999999999
100
AcDbArc
 50
0.0
 51
45.0
  0
ARC
  5
B49
330
1A
100
AcDbEntity
  8
ZUWAKU
100
AcDbCircle
 10
49.61721335362108
 20
10.47499935047879
 30
0.0
 40
0.525
100
AcDbArc
 50
270.0
 51
0.0
  0
LINE
  5
B4A
330
1A
100
AcDbEntity
  8
ZUWAKU
100
AcDbLine
 10
46.11721335362108
 20
7.674999350478791
 30
0.0
 11
46.11721335362108
 21
9.42499935047879
 31
0.0
  0
ARC
  5
B4B
330
1A
100
AcDbEntity
  8
ZUWAKU
100
AcDbCircle
 10
46.64221335362117
 20
7.674999350478791
 30
0.0
 40
0.525
100
AcDbArc
 50
180.0
 51
270.0
  0
ARC
  5
B4C
330
1A
100
AcDbEntity
  8
ZUWAKU
100
AcDbCircle
 10
42.9672133536211
 20
7.674999350478791
 30
0.0
 40
0.525
100
AcDbArc
 50
270.0
 51
0.0
  0
ARC
  5
B4D
330
1A
100
AcDbEntity
  8
ZUWAKU
100
AcDbCircle
 10
46.64221335362117
 20
9.42499935047879
 30
0.0
 40
0.525
100
AcDbArc
 50
90.0
 51
180.0
  0
LINE
  5
B4E
330
1A
100
AcDbEntity
  8
ZUWAKU
100
AcDbLine
 10
46.64221335362117
 20
9.949999350478789
 30
0.0
 11
49.61721335362108
 21
9.949999350478789
 31
0.0
  0
LINE
  5
B4F
330
1A
100
AcDbEntity
  8
ZUWAKU
100
AcDbLine
 10
46.64221335362117
 20
7.149999350478792
 30
0.0
 11
50.14221335362117
 21
7.149999350478792
 31
0.0
  0
LINE
  5
B50
330
1A
100
AcDbEntity
  8
ZUWAKU
100
AcDbLine
 10
46.82236487263764
 20
15.66494884413996
 30
0.0
 11
49.73216284728231
 21
12.7551508694953
 31
0.0
  0
LINE
  5
B51
330
1A
100
AcDbEntity
  8
ZUWAKU
100
AcDbLine
 10
52.94221335362112
 20
9.949999350478789
 30
0.0
 11
52.94221335362112
 21
11.76520137583413
 31
0.0
  0
ARC
  5
B52
330
1A
100
AcDbEntity
  8
ZUWAKU
100
AcDbCircle
 10
48.74221335362108
 20
11.76520137583409
 30
0.0
 40
4.199999999999998
100
AcDbArc
 50
0.0
 51
45.0
  0
ARC
  5
B53
330
1A
100
AcDbEntity
  8
ZUWAKU
100
AcDbCircle
 10
58.89221335362117
 20
10.99999935047878
 30
0.0
 40
1.049999999999998
100
AcDbArc
 50
180.0
 51
270.0
  0
ARC
  5
B54
330
1A
100
AcDbEntity
  8
ZUWAKU
100
AcDbCircle
 10
61.3422133536211
 20
9.949999350478789
 30
0.0
 40
2.799999999999998
100
AcDbArc
 50
270.0
 51
0.0
  0
LINE
  5
B55
330
1A
100
AcDbEntity
  8
ZUWAKU
100
AcDbLine
 10
66.76721335362117
 20
7.149999350478792
 30
0.0
 11
68.51721335362118
 21
7.149999350478792
 31
0.0
  0
ARC
  5
B56
330
1A
100
AcDbEntity
  8
ZUWAKU
100
AcDbCircle
 10
66.76721335362117
 20
7.674999350478791
 30
0.0
 40
0.525
100
AcDbArc
 50
180.0
 51
270.0
  0
ARC
  5
B57
330
1A
100
AcDbEntity
  8
ZUWAKU
100
AcDbCircle
 10
60.29221335362114
 20
10.99999935047878
 30
0.0
 40
1.049999999999998
100
AcDbArc
 50
270.0
 51
0.0
  0
ARC
  5
B58
330
1A
100
AcDbEntity
  8
ZUWAKU
100
AcDbCircle
 10
68.51721335362118
 20
7.674999350478791
 30
0.0
 40
0.525
100
AcDbArc
 50
270.0
 51
0.0
  0
LINE
  5
B59
330
1A
100
AcDbEntity
  8
ZUWAKU
100
AcDbLine
 10
42.9672133536211
 20
23.24999935047878
 30
0.0
 11
41.2172133536211
 21
23.24999935047878
 31
0.0
  0
ARC
  5
B5A
330
1A
100
AcDbEntity
  8
ZUWAKU
100
AcDbCircle
 10
32.11721335362108
 20
22.72499935047878
 30
0.0
 40
0.525
100
AcDbArc
 50
0.0
 51
90.0
  0
LINE
  5
B5B
330
1A
100
AcDbEntity
  8
ZUWAKU
100
AcDbLine
 10
32.11721335362108
 20
23.24999935047878
 30
0.0
 11
30.36721335362107
 21
23.24999935047878
 31
0.0
  0
ARC
  5
B5C
330
1A
100
AcDbEntity
  8
ZUWAKU
100
AcDbCircle
 10
26.86721335362108
 20
22.72499935047878
 30
0.0
 40
0.525
100
AcDbArc
 50
0.0
 51
90.0
  0
ARC
  5
B5D
330
1A
100
AcDbEntity
  8
ZUWAKU
100
AcDbCircle
 10
30.36721335362107
 20
22.72499935047878
 30
0.0
 40
0.525
100
AcDbArc
 50
90.0
 51
180.0
  0
ARC
  5
B5E
330
1A
100
AcDbEntity
  8
ZUWAKU
100
AcDbCircle
 10
26.86721335362108
 20
20.97499935047878
 30
0.0
 40
0.525
100
AcDbArc
 50
270.0
 51
0.0
  0
LINE
  5
B5F
330
1A
100
AcDbEntity
  8
ZUWAKU
100
AcDbLine
 10
27.39221335362117
 20
22.72499935047878
 30
0.0
 11
27.39221335362117
 21
20.97499935047878
 31
0.0
  0
ARC
  5
B60
330
1A
100
AcDbEntity
  8
ZUWAKU
100
AcDbCircle
 10
41.2172133536211
 20
22.72499935047878
 30
0.0
 40
0.525
100
AcDbArc
 50
90.0
 51
180.0
  0
LINE
  5
B61
330
1A
100
AcDbEntity
  8
ZUWAKU
100
AcDbLine
 10
36.17697919013243
 20
23.24999935047878
 30
0.0
 11
37.87586856974144
 21
23.24999935047878
 31
0.0
  0
ARC
  5
B62
330
1A
100
AcDbEntity
  8
ZUWAKU
100
AcDbCircle
 10
37.87586856974144
 20
22.72499935047878
 30
0.0
 40
0.525
100
AcDbArc
 50
342.4744316262769
 51
90.0
  0
LINE
  5
B63
330
1A
100
AcDbEntity
  8
ZUWAKU
100
AcDbLine
 10
38.37649946893692
 20
22.56690538231182
 30
0.0
 11
37.3148598357991
 21
19.20504654404221
 31
0.0
  0
ARC
  5
B64
330
1A
100
AcDbEntity
  8
ZUWAKU
100
AcDbCircle
 10
36.17697919013243
 20
22.72499935047878
 30
0.0
 40
0.525
100
AcDbArc
 50
90.0
 51
162.4744316262769
  0
LINE
  5
B65
330
1A
100
AcDbEntity
  8
ZUWAKU
100
AcDbLine
 10
48.39221335362116
 20
23.24999935047878
 30
0.0
 11
51.89221335362117
 21
23.24999935047878
 31
0.0
  0
LINE
  5
B66
330
1A
100
AcDbEntity
  8
ZUWAKU
100
AcDbLine
 10
51.89221335362117
 20
20.44999935047878
 30
0.0
 11
48.91721335362114
 21
20.44999935047878
 31
0.0
  0
ARC
  5
B67
330
1A
100
AcDbEntity
  8
ZUWAKU
100
AcDbCircle
 10
48.91721335362114
 20
19.92499935047878
 30
0.0
 40
0.525
100
AcDbArc
 50
90.0
 51
180.0
  0
LINE
  5
B68
330
1A
100
AcDbEntity
  8
ZUWAKU
100
AcDbLine
 10
48.39221335362116
 20
19.92499935047878
 30
0.0
 11
48.39221335362116
 21
18.63479732512344
 31
0.0
  0
ARC
  5
B69
330
1A
100
AcDbEntity
  8
ZUWAKU
100
AcDbCircle
 10
42.9672133536211
 20
22.72499935047878
 30
0.0
 40
0.525
100
AcDbArc
 50
0.0
 51
90.0
  0
LINE
  5
B6A
330
1A
100
AcDbEntity
  8
ZUWAKU
100
AcDbLine
 10
45.5922133536211
 20
20.44999935047878
 30
0.0
 11
45.5922133536211
 21
18.63479732512344
 31
0.0
  0
ARC
  5
B6B
330
1A
100
AcDbEntity
  8
ZUWAKU
100
AcDbCircle
 10
48.39221335362116
 20
20.44999935047878
 30
0.0
 40
2.799999999999998
100
AcDbArc
 50
90.0
 51
180.0
  0
ARC
  5
B6C
330
1A
100
AcDbEntity
  8
ZUWAKU
100
AcDbCircle
 10
57.31721335362112
 20
22.72499935047878
 30
0.0
 40
0.525
100
AcDbArc
 50
0.0
 51
90.0
  0
ARC
  5
B6D
330
1A
100
AcDbEntity
  8
ZUWAKU
100
AcDbCircle
 10
55.56721335362112
 20
22.72499935047878
 30
0.0
 40
0.525
100
AcDbArc
 50
90.0
 51
180.0
  0
LINE
  5
B6E
330
1A
100
AcDbEntity
  8
ZUWAKU
100
AcDbLine
 10
57.31721335362112
 20
23.24999935047878
 30
0.0
 11
55.56721335362112
 21
23.24999935047878
 31
0.0
  0
ARC
  5
B6F
330
1A
100
AcDbEntity
  8
ZUWAKU
100
AcDbCircle
 10
51.89221335362117
 20
22.72499935047878
 30
0.0
 40
0.525
100
AcDbArc
 50
0.0
 51
90.0
  0
ARC
  5
B70
330
1A
100
AcDbEntity
  8
ZUWAKU
100
AcDbCircle
 10
51.89221335362117
 20
20.97499935047878
 30
0.0
 40
0.525
100
AcDbArc
 50
270.0
 51
0.0
  0
LINE
  5
B71
330
1A
100
AcDbEntity
  8
ZUWAKU
100
AcDbLine
 10
52.41721335362115
 20
22.72499935047878
 30
0.0
 11
52.41721335362115
 21
20.97499935047878
 31
0.0
  0
LINE
  5
B72
330
1A
100
AcDbEntity
  8
ZUWAKU
100
AcDbLine
 10
68.51721335362118
 20
23.24999935047878
 30
0.0
 11
66.76721335362117
 21
23.24999935047878
 31
0.0
  0
ARC
  5
B73
330
1A
100
AcDbEntity
  8
ZUWAKU
100
AcDbCircle
 10
66.76721335362117
 20
22.72499935047878
 30
0.0
 40
0.525
100
AcDbArc
 50
90.0
 51
180.0
  0
ARC
  5
B74
330
1A
100
AcDbEntity
  8
ZUWAKU
100
AcDbCircle
 10
63.61721335362108
 20
22.72499935047878
 30
0.0
 40
0.525
100
AcDbArc
 50
0.0
 51
90.0
  0
LINE
  5
B75
330
1A
100
AcDbEntity
  8
ZUWAKU
100
AcDbLine
 10
63.61721335362108
 20
23.24999935047878
 30
0.0
 11
61.86721335362108
 21
23.24999935047878
 31
0.0
  0
ARC
  5
B76
330
1A
100
AcDbEntity
  8
ZUWAKU
100
AcDbCircle
 10
61.86721335362108
 20
22.72499935047878
 30
0.0
 40
0.525
100
AcDbArc
 50
90.0
 51
180.0
  0
ARC
  5
B77
330
1A
100
AcDbEntity
  8
ZUWAKU
100
AcDbCircle
 10
68.51721335362118
 20
22.72499935047878
 30
0.0
 40
0.525
100
AcDbArc
 50
0.0
 51
90.0
  0
TEXT
  5
B78
330
1A
100
AcDbEntity
  8
MOJI
100
AcDbText
 10
239.8272038796909
 20
18.00492040788617
 30
0.0
 40
5.599999999999998
  1
ブラケット正面打（吊）固定式
 41
0.9
  7
ｽﾀｲﾙ1
100
AcDbText
  0
TEXT
  5
B79
330
1A
100
AcDbEntity
  8
MOJI
100
AcDbText
 10
239.8272038796909
 20
3.204920407886209
 30
0.0
 40
5.599999999999998
  1
１２０－５－１０
 41
0.9
  7
ｽﾀｲﾙ1
100
AcDbText
  0
LINE
  5
B7A
330
1A
100
AcDbEntity
  8
ZUWAKU
100
AcDbLine
 10
208.2466024889078
 20
29.99999935047878
 30
0.0
 11
208.2466024889078
 21
0.7999993504788563
 31
0.0
  0
LINE
  5
B7B
330
1A
100
AcDbEntity
  8
ZUWAKU
100
AcDbLine
 10
208.6466024889077
 20
29.99999935047878
 30
0.0
 11
208.6466024889079
 21
0.7999993504788563
 31
0.0
  0
LINE
  5
B7C
330
1A
100
AcDbEntity
  8
ZUWAKU
100
AcDbLine
 10
208.4466024889076
 20
29.99999935047878
 30
0.0
 11
208.4466024889079
 21
0.7999993504788563
 31
0.0
  0
TEXT
  5
B7D
330
1A
100
AcDbEntity
  8
ZUWAKU
100
AcDbText
 10
209.7240475111174
 20
9.655355888864406
 30
0.0
 40
4.0
  1
サイズ
 41
0.9
  7
ｽﾀｲﾙ1
100
AcDbText
  0
TEXT
  5
B7E
330
1A
100
AcDbEntity
  8
ZUWAKU
100
AcDbText
 10
209.7240475111172
 20
24.05535588886436
 30
0.0
 40
4.0
  1
品名
 41
0.9
  7
ｽﾀｲﾙ1
100
AcDbText
  0
LINE
  5
B7F
330
1A
100
AcDbEntity
  8
ZUWAKU
100
AcDbLine
 10
648.8172037090442
 20
15.19999935047881
 30
0.0
 11
697.2490117473812
 21
15.19999935047881
 31
0.0
  0
LINE
  5
B80
330
1A
100
AcDbEntity
  8
ZUWAKU
100
AcDbLine
 10
648.8172037090443
 20
15.39999935047882
 30
0.0
 11
697.2490117473812
 21
15.39999935047881
 31
0.0
  0
LINE
  5
B81
330
1A
100
AcDbEntity
  8
ZUWAKU
100
AcDbLine
 10
648.8172037090442
 20
15.59999935047881
 30
0.0
 11
697.2490117473812
 21
15.59999935047881
 31
0.0
  0
TEXT
  5
B82
330
1A
100
AcDbEntity
  8
ZUWAKU
100
AcDbText
 10
654.5120771985268
 20
18.00492040788617
 30
0.0
 40
5.599999999999998
  1
　　．　．　　
 41
0.9
  7
ｽﾀｲﾙ1
100
AcDbText
  0
LINE
  5
B83
330
1A
100
AcDbEntity
  8
ZUWAKU
100
AcDbLine
 10
505.1991806969807
 20
15.19999935047882
 30
0.0
 11
552.5269569649524
 21
15.19999935047882
 31
0.0
  0
LINE
  5
B84
330
1A
100
AcDbEntity
  8
ZUWAKU
100
AcDbLine
 10
505.1991806969807
 20
15.39999935047881
 30
0.0
 11
552.5269569649524
 21
15.39999935047881
 31
0.0
  0
LINE
  5
B85
330
1A
100
AcDbEntity
  8
ZUWAKU
100
AcDbLine
 10
505.1991806969807
 20
15.59999935047881
 30
0.0
 11
552.5269569649524
 21
15.59999935047881
 31
0.0
  0
LINE
  5
B86
330
1A
100
AcDbEntity
  8
ZUWAKU
100
AcDbLine
 10
447.6243651698311
 20
29.99999935047878
 30
0.0
 11
447.6243651698313
 21
0.7999993504788563
 31
0.0
  0
LINE
  5
B87
330
1A
100
AcDbEntity
  8
ZUWAKU
100
AcDbLine
 10
447.8243651698311
 20
29.99999935047878
 30
0.0
 11
447.8243651698314
 21
0.7999993504788563
 31
0.0
  0
LINE
  5
B88
330
1A
100
AcDbEntity
  8
ZUWAKU
100
AcDbLine
 10
447.4243651698313
 20
29.99999935047878
 30
0.0
 11
447.4243651698313
 21
0.7999993504788563
 31
0.0
  0
TEXT
  5
B89
330
1A
100
AcDbEntity
  8
MOJI
100
AcDbText
 10
528.0409091711528
 20
18.00492040788617
 30
0.0
 40
5.599999999999998
  1
Ａ３
 41
0.9
  7
ｽﾀｲﾙ1
100
AcDbText
  0
LINE
  5
B8A
330
1A
100
AcDbEntity
  8
ZUWAKU
100
AcDbLine
 10
504.9991806969808
 20
29.99999935047878
 30
0.0
 11
504.9991806969809
 21
0.7999993504788563
 31
0.0
  0
LINE
  5
B8B
330
1A
100
AcDbEntity
  8
ZUWAKU
100
AcDbLine
 10
505.1991806969807
 20
29.99999935047878
 30
0.0
 11
505.1991806969811
 21
0.7999993504788563
 31
0.0
  0
LINE
  5
B8C
330
1A
100
AcDbEntity
  8
ZUWAKU
100
AcDbLine
 10
504.7991806969809
 20
29.99999935047878
 30
0.0
 11
504.7991806969809
 21
0.7999993504788563
 31
0.0
  0
TEXT
  5
B8D
330
1A
100
AcDbEntity
  8
MOJI
100
AcDbText
 10
463.2464331898419
 20
11.94261707213876
 30
0.0
 40
5.599999999999998
  1
ＬＨ０８Ｔ
 41
0.9
  7
ｽﾀｲﾙ1
100
AcDbText
  0
TEXT
  5
B8E
330
1A
100
AcDbEntity
  8
ZUWAKU
100
AcDbText
 10
506.6766257191907
 20
9.655355888864406
 30
0.0
 40
4.0
  1
縮尺
 41
0.9
  7
ｽﾀｲﾙ1
100
AcDbText
  0
TEXT
  5
B8F
330
1A
100
AcDbEntity
  8
MOJI
100
AcDbText
 10
528.0409091711528
 20
3.204920407886209
 30
0.0
 40
5.599999999999998
  1
１/２
 41
0.9
  7
ｽﾀｲﾙ1
100
AcDbText
  0
TEXT
  5
B90
330
1A
100
AcDbEntity
  8
ZUWAKU
100
AcDbText
 10
449.3018101920409
 20
24.05535588886436
 30
0.0
 40
4.0
  1
品番
 41
0.9
  7
ｽﾀｲﾙ1
100
AcDbText
  0
TEXT
  5
B91
330
1A
100
AcDbEntity
  8
ZUWAKU
100
AcDbText
 10
506.6766257191904
 20
24.05535588886436
 30
0.0
 40
4.0
  1
用紙
 41
0.9
  7
ｽﾀｲﾙ1
100
AcDbText
  0
LINE
  5
B92
330
1A
100
AcDbEntity
  8
ZUWAKU
100
AcDbLine
 10
648.6172037090441
 20
29.99999935047878
 30
0.0
 11
648.6172037090446
 21
0.7999993504788563
 31
0.0
  0
LINE
  5
B93
330
1A
100
AcDbEntity
  8
ZUWAKU
100
AcDbLine
 10
648.8172037090443
 20
29.99999935047878
 30
0.0
 11
648.8172037090447
 21
0.7999993504788563
 31
0.0
  0
LINE
  5
B94
330
1A
100
AcDbEntity
  8
ZUWAKU
100
AcDbLine
 10
648.4172037090445
 20
29.99999935047878
 30
0.0
 11
648.4172037090445
 21
0.7999993504788563
 31
0.0
  0
LINE
  5
B95
330
1A
100
AcDbEntity
  8
ZUWAKU
100
AcDbLine
 10
552.7269569649523
 20
29.99999935047878
 30
0.0
 11
552.7269569649523
 21
0.7999993504788563
 31
0.0
  0
LINE
  5
B96
330
1A
100
AcDbEntity
  8
ZUWAKU
100
AcDbLine
 10
552.9269569649523
 20
29.99999935047878
 30
0.0
 11
552.9269569649524
 21
0.7999993504788563
 31
0.0
  0
LINE
  5
B97
330
1A
100
AcDbEntity
  8
ZUWAKU
100
AcDbLine
 10
552.5269569649524
 20
29.99999935047878
 30
0.0
 11
552.5269569649524
 21
0.7999993504788563
 31
0.0
  0
TEXT
  5
B98
330
1A
100
AcDbEntity
  8
ZUWAKU
100
AcDbText
 10
650.2946487312539
 20
24.05535588886436
 30
0.0
 40
4.0
  1
DATE
 41
0.9
  7
ｽﾀｲﾙ1
100
AcDbText
  0
LINE
  5
B99
330
1A
100
AcDbEntity
  8
ZUWAKU
100
AcDbLine
 10
697.2490117473812
 20
29.99999935047878
 30
0.0
 11
697.2490117473812
 21
0.7999993504788563
 31
0.0
  0
LINE
  5
B9A
330
1A
100
AcDbEntity
  8
ZUWAKU
100
AcDbLine
 10
697.4490117473813
 20
29.99999935047878
 30
0.0
 11
697.4490117473813
 21
0.7999993504788563
 31
0.0
  0
LINE
  5
B9B
330
1A
100
AcDbEntity
  8
ZUWAKU
100
AcDbLine
 10
697.6490117473811
 20
29.99999935047878
 30
0.0
 11
697.6490117473813
 21
0.7999993504788563
 31
0.0
  0
LINE
  5
B9C
330
1A
100
AcDbEntity
  8
ZUWAKU
100
AcDbLine
 10
697.8490117473812
 20
29.99999935047878
 30
0.0
 11
697.8490117473812
 21
0.7999993504788563
 31
0.0
  0
TEXT
  5
B9D
330
1A
100
AcDbEntity
  8
ZUWAKU
100
AcDbText
 10
708.5280853910837
 20
17.55383868616558
 30
0.0
 40
6.0
  1
積水化学工業株式会社
 41
0.9
  7
ｽﾀｲﾙ1
100
AcDbText
  0
TEXT
  5
B9E
330
1A
100
AcDbEntity
  8
ZUWAKU
100
AcDbText
 10
708.5280853910837
 20
6.648839664332853
 30
0.0
 40
6.0
  1
建材事業部
 41
0.9
  7
ｽﾀｲﾙ1
100
AcDbText
  0
LINE
  5
BA7
330
1A
100
AcDbEntity
  8
SUNPOU
  6
CONTINUOUS
 62
     4
100
AcDbLine
 10
581.6723499401895
 20
323.4395368862027
 30
0.0
 11
576.5251390321516
 21
318.5541166402785
 31
0.0
  0
LINE
  5
BA8
330
1A
100
AcDbEntity
  8
SUNPOU
  6
CONTINUOUS
 62
     4
100
AcDbLine
 10
576.5251390321516
 20
318.5541166402785
 30
0.0
 11
579.809661703239
 21
324.844825816057
 31
0.0
  0
LINE
  5
BA9
330
1A
100
AcDbEntity
  8
SUNPOU
  6
CONTINUOUS
 62
     4
100
AcDbLine
 10
576.5251390321516
 20
318.5541166402785
 30
0.0
 11
580.7410058217143
 21
324.1421813511298
 31
0.0
  0
LINE
  5
BAA
330
1A
100
AcDbEntity
  8
SUNPOU
  6
CONTINUOUS
 62
     4
100
AcDbLine
 10
580.7410058217143
 20
324.1421813511298
 30
0.0
 11
595.9869668561968
 21
344.3504614255209
 31
0.0
1001
ACAD
1000
DSTYLE
1002
{
1070
     6
1000
OPEN
1070
    41
1040
7.0
1070
    42
1040
6.0
1070
    43
1040
14.0
1070
    44
1040
3.0
1070
    73
1070
     0
1070
    74
1070
     0
1070
    77
1070
     3
1070
   140
1040
6.0
1070
   141
1040
150.0
1070
   147
1040
2.0
1070
   172
1070
     1
1070
   173
1070
     1
1070
   176
1070
     4
1070
   177
1070
     4
1070
   178
1070
     4
1070
   271
1070
     0
1070
   272
1070
     2
1070
   341
1005
6D
1070
   343
1005
6D
1070
   344
1005
6D
1002
}
  0
LINE
  5
BAB
330
1A
100
AcDbEntity
  8
SUNPOU
  6
CONTINUOUS
 62
     4
100
AcDbLine
 10
595.9869668561968
 20
344.3504614255209
 30
0.0
 11
596.9358139512824
 21
344.3504614255209
 31
0.0
1001
ACAD
1000
DSTYLE
1002
{
1070
     6
1000
OPEN
1070
    41
1040
7.0
1070
    42
1040
6.0
1070
    43
1040
14.0
1070
    44
1040
3.0
1070
    73
1070
     0
1070
    74
1070
     0
1070
    77
1070
     3
1070
   140
1040
6.0
1070
   141
1040
150.0
1070
   147
1040
2.0
1070
   172
1070
     1
1070
   173
1070
     1
1070
   176
1070
     4
1070
   177
1070
     4
1070
   178
1070
     4
1070
   271
1070
     0
1070
   272
1070
     2
1070
   341
1005
6D
1070
   343
1005
6D
1070
   344
1005
6D
1002
}
  0
LINE
  5
BAC
330
1A
100
AcDbEntity
  8
SUNPOU
  6
CONTINUOUS
 62
     4
100
AcDbLine
 10
596.9358139512824
 20
344.3504614255209
 30
0.0
 11
630.1358139512824
 21
344.3504614255209
 31
0.0
1001
ACAD
1000
DSTYLE
1002
{
1070
     6
1000
OPEN
1070
    41
1040
7.0
1070
    42
1040
6.0
1070
    43
1040
14.0
1070
    44
1040
3.0
1070
    73
1070
     0
1070
    74
1070
     0
1070
    77
1070
     3
1070
   140
1040
6.0
1070
   141
1040
150.0
1070
   147
1040
2.0
1070
   172
1070
     1
1070
   173
1070
     1
1070
   176
1070
     4
1070
   177
1070
     4
1070
   178
1070
     4
1070
   271
1070
     0
1070
   272
1070
     2
1070
   341
1005
6D
1070
   343
1005
6D
1070
   344
1005
6D
1002
}
  0
VIEWPORT
  5
22
330
17
100
AcDbEntity
 67
     1
  8
0
100
AcDbViewport
 10
313.6808219178082
 20
148.5
 30
0.0
 40
627.3616438356165
 41
297.0
 68
     2
 69
     1
1001
ACAD
1000
MVIEW
1002
{
1070
    16
1010
0.0
1020
0.0
1030
0.0
1010
0.0
1020
0.0
1030
1.0
1040
0.0
1040
297.0
1040
313.6808219178082
1040
148.5
1040
50.0
1040
0.0
1040
0.0
1070
     0
1070
   100
1070
     1
1070
     0
1070
     0
1070
     0
1070
     0
1070
     0
1040
0.0
1040
0.0
1040
0.0
1040
1.0
1040
1.0
1040
10.0
1040
10.0
1070
     0
1002
{
1002
}
1002
}
  0
VIEWPORT
  5
64
330
17
100
AcDbEntity
 67
     1
  8
VIEWPORT
100
AcDbViewport
 10
210.0
 20
148.5
 30
0.0
 40
420.0
 41
297.0
 68
     1
 69
     2
1001
ACAD
1000
MVIEW
1002
{
1070
    16
1010
0.0
1020
0.0
1030
0.0
1010
0.0
1020
0.0
1030
1.0
1040
0.0
1040
605.8799999999998
1040
420.0
1040
297.0
1040
50.0
1040
0.0
1040
0.0
1070
     0
1070
   100
1070
     1
1070
     0
1070
     0
1070
     0
1070
     0
1070
     0
1040
0.0
1040
0.0
1040
0.0
1040
10.0
1040
10.0
1040
0.0
1040
0.0
1070
     0
1002
{
1002
}
1002
}
  0
ENDSEC
  0
SECTION
  2
OBJECTS
  0
DICTIONARY
  5
C
330
0
100
AcDbDictionary
  3
ACAD_GROUP
350
D
  3
ACAD_LAYOUT
350
969
  3
ACAD_MLINESTYLE
350
E
  3
ACAD_PLOTSETTINGS
350
96A
  3
ACAD_PLOTSTYLENAME
350
967
  3
ACDBHEADERROUNDTRIPXREC
350
BAE
  0
DICTIONARY
  5
998
330
1A
100
AcDbDictionary
280
     1
  3
ACAD_LAYOUTSELFREF
360
BD0
  0
DICTIONARY
  5
996
330
17
100
AcDbDictionary
280
     1
  3
ACAD_LAYOUTSELFREF
360
BCF
  0
DICTIONARY
  5
D
102
{ACAD_REACTORS
330
C
102
}
330
C
100
AcDbDictionary
  0
DICTIONARY
  5
969
102
{ACAD_REACTORS
330
C
102
}
330
C
100
AcDbDictionary
  0
DICTIONARY
  5
E
102
{ACAD_REACTORS
330
C
102
}
330
C
100
AcDbDictionary
  3
STANDARD
350
13
  0
DICTIONARY
  5
96A
102
{ACAD_REACTORS
330
C
102
}
330
C
100
AcDbDictionary
  0
ACDBDICTIONARYWDFLT
  5
967
102
{ACAD_REACTORS
330
C
102
}
330
C
100
AcDbDictionary
281
     1
  3
Normal
350
968
100
AcDbDictionaryWithDefault
340
968
1001
ACAD
1000
TREAT_AS_HARD
1070
     0
  0
DICTIONARY
  5
BAE
102
{ACAD_REACTORS
330
C
102
}
330
C
100
AcDbDictionary
  3
TSTACKALIGN
350
BAF
  3
TSTACKSIZE
350
BB0
  3
HYPERLINKBASE
350
BB1
  3
STYLESHEET
350
BB2
  3
LAYOUTDICT
350
BB3
  3
PLOTSETDICT
350
BB4
  3
PLOTSTYLNAMDICT
350
BB5
  3
LWETCUNION
350
BB6
  3
INSUNITS
350
BB7
  3
CEPSNTYPE
350
BB8
  3
FINGERPRINTGUID
350
BB9
  3
VERSIONGUID
350
BBA
  3
PSVPSCALE
350
BBB
  3
DIMSTYLEDATA
350
BBC
  3
PUCSORTHOREF
350
BBD
  3
PUCSORTHOVIEW
350
BBE
  3
PUCSBASE
350
BBF
  3
PUCSORGTOP
350
BC0
  3
PUCSORGBOTTOM
350
BC1
  3
PUCSORGLEFT
350
BC2
  3
PUCSORGRIGHT
350
BC3
  3
PUCSORGFRONT
350
BC4
  3
PUCSORGBACK
350
BC5
  3
UCSORTHOREF
350
BC6
  3
UCSORTHOVIEW
350
BC7
  3
UCSBASE
350
BC8
  3
UCSORGTOP
350
BC9
  3
UCSORGBOTTOM
350
BCA
  3
UCSORGLEFT
350
BCB
  3
UCSORGRIGHT
350
BCC
  3
UCSORGFRONT
350
BCD
  3
UCSORGBACK
350
BCE
  0
XRECORD
  5
BD0
102
{ACAD_REACTORS
330
998
102
}
330
998
100
AcDbXrecord
340
1A
  0
XRECORD
  5
BCF
102
{ACAD_REACTORS
330
996
102
}
330
996
100
AcDbXrecord
340
17
  0
MLINESTYLE
  5
13
102
{ACAD_REACTORS
330
E
102
}
330
E
100
AcDbMlineStyle
  2
STANDARD
 70
     0
  3

 62
     0
 51
90.0
 52
90.0
 71
     2
 49
0.5
 62
   256
  6
BYLAYER
 49
-0.5
 62
   256
  6
BYLAYER
  0
ACDBPLACEHOLDER
  5
968
102
{ACAD_REACTORS
330
967
102
}
330
967
100
AcDbPlaceHolder
280
     0
  0
XRECORD
  5
BAF
102
{ACAD_REACTORS
330
BAE
102
}
330
BAE
100
AcDbXrecord
 90
        1
  0
XRECORD
  5
BB0
102
{ACAD_REACTORS
330
BAE
102
}
330
BAE
100
AcDbXrecord
 90
       70
  0
XRECORD
  5
BB1
102
{ACAD_REACTORS
330
BAE
102
}
330
BAE
100
AcDbXrecord
  1

  0
XRECORD
  5
BB2
102
{ACAD_REACTORS
330
BAE
102
}
330
BAE
100
AcDbXrecord
  1
print.ctb
  0
XRECORD
  5
BB3
102
{ACAD_REACTORS
330
BAE
102
}
330
BAE
100
AcDbXrecord
340
969
  0
XRECORD
  5
BB4
102
{ACAD_REACTORS
330
BAE
102
}
330
BAE
100
AcDbXrecord
340
96A
  0
XRECORD
  5
BB5
102
{ACAD_REACTORS
330
BAE
102
}
330
BAE
100
AcDbXrecord
340
967
  0
XRECORD
  5
BB6
102
{ACAD_REACTORS
330
BAE
102
}
330
BAE
100
AcDbXrecord
 90
    14877
  0
XRECORD
  5
BB7
102
{ACAD_REACTORS
330
BAE
102
}
330
BAE
100
AcDbXrecord
 90
        0
  0
XRECORD
  5
BB8
102
{ACAD_REACTORS
330
BAE
102
}
330
BAE
100
AcDbXrecord
 90
        0
  0
XRECORD
  5
BB9
102
{ACAD_REACTORS
330
BAE
102
}
330
BAE
100
AcDbXrecord
  1
{463FED0D-AC13-439B-B28D-8AD6133C3711}
  0
XRECORD
  5
BBA
102
{ACAD_REACTORS
330
BAE
102
}
330
BAE
100
AcDbXrecord
  1
{43DA8790-27D5-424D-9FB6-010D3075F0A7}
  0
XRECORD
  5
BBB
102
{ACAD_REACTORS
330
BAE
102
}
330
BAE
100
AcDbXrecord
 40
0.0
  0
XRECORD
  5
BBC
102
{ACAD_REACTORS
330
BAE
102
}
330
BAE
100
AcDbXrecord
1000
DSTYLE
1002
{
1070
   341
340
6D
1070
   343
340
6D
1070
   344
340
6D
1070
   371
 70
    -1
1070
   372
 70
    -1
1002
}
  0
XRECORD
  5
BBD
102
{ACAD_REACTORS
330
BAE
102
}
330
BAE
100
AcDbXrecord
340
0
  0
XRECORD
  5
BBE
102
{ACAD_REACTORS
330
BAE
102
}
330
BAE
100
AcDbXrecord
 70
     0
  0
XRECORD
  5
BBF
102
{ACAD_REACTORS
330
BAE
102
}
330
BAE
100
AcDbXrecord
340
0
  0
XRECORD
  5
BC0
102
{ACAD_REACTORS
330
BAE
102
}
330
BAE
100
AcDbXrecord
 10
0.0
 20
0.0
 30
0.0
  0
XRECORD
  5
BC1
102
{ACAD_REACTORS
330
BAE
102
}
330
BAE
100
AcDbXrecord
 10
0.0
 20
0.0
 30
0.0
  0
XRECORD
  5
BC2
102
{ACAD_REACTORS
330
BAE
102
}
330
BAE
100
AcDbXrecord
 10
0.0
 20
0.0
 30
0.0
  0
XRECORD
  5
BC3
102
{ACAD_REACTORS
330
BAE
102
}
330
BAE
100
AcDbXrecord
 10
0.0
 20
0.0
 30
0.0
  0
XRECORD
  5
BC4
102
{ACAD_REACTORS
330
BAE
102
}
330
BAE
100
AcDbXrecord
 10
0.0
 20
0.0
 30
0.0
  0
XRECORD
  5
BC5
102
{ACAD_REACTORS
330
BAE
102
}
330
BAE
100
AcDbXrecord
 10
0.0
 20
0.0
 30
0.0
  0
XRECORD
  5
BC6
102
{ACAD_REACTORS
330
BAE
102
}
330
BAE
100
AcDbXrecord
340
0
  0
XRECORD
  5
BC7
102
{ACAD_REACTORS
330
BAE
102
}
330
BAE
100
AcDbXrecord
 70
     0
  0
XRECORD
  5
BC8
102
{ACAD_REACTORS
330
BAE
102
}
330
BAE
100
AcDbXrecord
340
0
  0
XRECORD
  5
BC9
102
{ACAD_REACTORS
330
BAE
102
}
330
BAE
100
AcDbXrecord
 10
0.0
 20
0.0
 30
0.0
  0
XRECORD
  5
BCA
102
{ACAD_REACTORS
330
BAE
102
}
330
BAE
100
AcDbXrecord
 10
0.0
 20
0.0
 30
0.0
  0
XRECORD
  5
BCB
102
{ACAD_REACTORS
330
BAE
102
}
330
BAE
100
AcDbXrecord
 10
0.0
 20
0.0
 30
0.0
  0
XRECORD
  5
BCC
102
{ACAD_REACTORS
330
BAE
102
}
330
BAE
100
AcDbXrecord
 10
0.0
 20
0.0
 30
0.0
  0
XRECORD
  5
BCD
102
{ACAD_REACTORS
330
BAE
102
}
330
BAE
100
AcDbXrecord
 10
0.0
 20
0.0
 30
0.0
  0
XRECORD
  5
BCE
102
{ACAD_REACTORS
330
BAE
102
}
330
BAE
100
AcDbXrecord
 10
0.0
 20
0.0
 30
0.0
  0
ENDSEC
  0
EOF
