  0
SECTION
  2
HEADER
  9
$ACADVER
  1
AC1014
  9
$ACADMAINTVER
 70
     9
  9
$DWGCODEPAGE
  3
ANSI_932
  9
$INSBASE
 10
0.0
 20
0.0
 30
0.0
  9
$EXTMIN
 10
-0.0256339491650124
 20
-0.0181268221883784
 30
-0.0015258207003583
  9
$EXTMAX
 10
797.6000995051625
 20
551.6452344335443
 30
0.0000000349246037
  9
$LIMMIN
 10
0.0
 20
0.0
  9
$LIMMAX
 10
840.0
 20
594.0
  9
$ORTHOMODE
 70
     0
  9
$REGENMODE
 70
     1
  9
$FILLMODE
 70
     1
  9
$QTEXTMODE
 70
     0
  9
$MIRRTEXT
 70
     1
  9
$DRAGMODE
 70
     2
  9
$LTSCALE
 40
2.0
  9
$OSMODE
 70
    35
  9
$ATTMODE
 70
     1
  9
$TEXTSIZE
 40
5.0
  9
$TRACEWID
 40
1.0
  9
$TEXTSTYLE
  7
STANDARD
  9
$CLAYER
  8
SEIHIN
  9
$CELTYPE
  6
BYLAYER
  9
$CECOLOR
 62
   256
  9
$CELTSCALE
 40
1.0
  9
$DELOBJ
 70
     1
  9
$DISPSILH
 70
     0
  9
$DIMSCALE
 40
1.0
  9
$DIMASZ
 40
7.0
  9
$DIMEXO
 40
6.0
  9
$DIMDLI
 40
14.0
  9
$DIMRND
 40
0.0
  9
$DIMDLE
 40
0.0
  9
$DIMEXE
 40
3.0
  9
$DIMTP
 40
0.0
  9
$DIMTM
 40
0.0
  9
$DIMTXT
 40
6.0
  9
$DIMCEN
 40
150.0
  9
$DIMTSZ
 40
0.0
  9
$DIMTOL
 70
     0
  9
$DIMLIM
 70
     0
  9
$DIMTIH
 70
     0
  9
$DIMTOH
 70
     0
  9
$DIMSE1
 70
     0
  9
$DIMSE2
 70
     0
  9
$DIMTAD
 70
     3
  9
$DIMZIN
 70
     0
  9
$DIMBLK
  1

  9
$DIMASO
 70
     1
  9
$DIMSHO
 70
     1
  9
$DIMPOST
  1

  9
$DIMAPOST
  1

  9
$DIMALT
 70
     0
  9
$DIMALTD
 70
     2
  9
$DIMALTF
 40
25.4
  9
$DIMLFAC
 40
1.0
  9
$DIMTOFL
 70
     1
  9
$DIMTVP
 40
0.0
  9
$DIMTIX
 70
     0
  9
$DIMSOXD
 70
     0
  9
$DIMSAH
 70
     1
  9
$DIMBLK1
  1
OPEN
  9
$DIMBLK2
  1
OPEN
  9
$DIMSTYLE
  2
STANDARD
  9
$DIMCLRD
 70
   256
  9
$DIMCLRE
 70
   256
  9
$DIMCLRT
 70
   256
  9
$DIMTFAC
 40
1.0
  9
$DIMGAP
 40
2.0
  9
$DIMJUST
 70
     0
  9
$DIMSD1
 70
     0
  9
$DIMSD2
 70
     0
  9
$DIMTOLJ
 70
     1
  9
$DIMTZIN
 70
     0
  9
$DIMALTZ
 70
     0
  9
$DIMALTTZ
 70
     0
  9
$DIMFIT
 70
     3
  9
$DIMUPT
 70
     0
  9
$DIMUNIT
 70
     2
  9
$DIMDEC
 70
     0
  9
$DIMTDEC
 70
     0
  9
$DIMALTU
 70
     2
  9
$DIMALTTD
 70
     2
  9
$DIMTXSTY
  7
STANDARD
  9
$DIMAUNIT
 70
     0
  9
$LUNITS
 70
     2
  9
$LUPREC
 70
     4
  9
$SKETCHINC
 40
1.0
  9
$FILLETRAD
 40
20.0
  9
$AUNITS
 70
     0
  9
$AUPREC
 70
     0
  9
$MENU
  1
.
  9
$ELEVATION
 40
0.0
  9
$PELEVATION
 40
0.0
  9
$THICKNESS
 40
0.0
  9
$LIMCHECK
 70
     0
  9
$BLIPMODE
 70
     0
  9
$CHAMFERA
 40
20.0
  9
$CHAMFERB
 40
20.0
  9
$CHAMFERC
 40
40.0
  9
$CHAMFERD
 40
0.0
  9
$SKPOLY
 70
     0
  9
$TDCREATE
 40
2451190.410874884
  9
$TDUPDATE
 40
2453802.476310937
  9
$TDINDWG
 40
0.0245807523
  9
$TDUSRTIMER
 40
0.0245807523
  9
$USRTIMER
 70
     1
  9
$ANGBASE
 50
0.0
  9
$ANGDIR
 70
     0
  9
$PDMODE
 70
     0
  9
$PDSIZE
 40
0.0
  9
$PLINEWID
 40
0.0
  9
$COORDS
 70
     1
  9
$SPLFRAME
 70
     0
  9
$SPLINETYPE
 70
     6
  9
$SPLINESEGS
 70
     8
  9
$ATTDIA
 70
     0
  9
$ATTREQ
 70
     1
  9
$HANDLING
 70
 10241
  9
$HANDSEED
  5
83E
  9
$SURFTAB1
 70
     6
  9
$SURFTAB2
 70
     6
  9
$SURFTYPE
 70
     6
  9
$SURFU
 70
     6
  9
$SURFV
 70
     6
  9
$UCSNAME
  2

  9
$UCSORG
 10
0.0
 20
0.0
 30
0.0
  9
$UCSXDIR
 10
1.0
 20
0.0
 30
0.0
  9
$UCSYDIR
 10
0.0
 20
1.0
 30
0.0
  9
$PUCSNAME
  2

  9
$PUCSORG
 10
0.0
 20
0.0
 30
0.0
  9
$PUCSXDIR
 10
1.0
 20
0.0
 30
0.0
  9
$PUCSYDIR
 10
0.0
 20
1.0
 30
0.0
  9
$USERI1
 70
     0
  9
$USERI2
 70
     0
  9
$USERI3
 70
     0
  9
$USERI4
 70
     0
  9
$USERI5
 70
     0
  9
$USERR1
 40
0.0
  9
$USERR2
 40
0.0
  9
$USERR3
 40
0.0
  9
$USERR4
 40
0.0
  9
$USERR5
 40
0.0
  9
$WORLDVIEW
 70
     1
  9
$SHADEDGE
 70
     3
  9
$SHADEDIF
 70
    70
  9
$TILEMODE
 70
     1
  9
$MAXACTVP
 70
    16
  9
$PINSBASE
 10
0.0
 20
0.0
 30
0.0
  9
$PLIMCHECK
 70
     0
  9
$PEXTMIN
 10
0.0
 20
0.0
 30
0.0
  9
$PEXTMAX
 10
420.0
 20
297.0
 30
0.0
  9
$PLIMMIN
 10
0.0
 20
0.0
  9
$PLIMMAX
 10
420.0
 20
297.0
  9
$UNITMODE
 70
     0
  9
$VISRETAIN
 70
     0
  9
$PLINEGEN
 70
     0
  9
$PSLTSCALE
 70
     1
  9
$TREEDEPTH
 70
  3020
  9
$PICKSTYLE
 70
     1
  9
$CMLSTYLE
  2
STANDARD
  9
$CMLJUST
 70
     0
  9
$CMLSCALE
 40
1.0
  9
$PROXYGRAPHICS
 70
     1
  9
$MEASUREMENT
 70
     1
  0
ENDSEC
  0
SECTION
  2
CLASSES
  0
CLASS
  1
ACDBDICTIONARYWDFLT
  2
AcDbDictionaryWithDefault
  3
AutoCAD 2000
 90
        0
280
     0
281
     0
  0
CLASS
  1
ACDBPLACEHOLDER
  2
AcDbPlaceHolder
  3
AutoCAD 2000
 90
        0
280
     0
281
     0
  0
CLASS
  1
LAYOUT
  2
AcDbLayout
  3
AutoCAD 2000
 90
        0
280
     0
281
     0
  0
CLASS
  1
LONG_TRANSACTION
  2
AcDbLongTransaction
  3
AutoCAD 2000
 90
        0
280
     0
281
     0
  0
CLASS
  1
LWPOLYLINE
  2
AcDbPolyline
  3
AutoCAD 2000
 90
        0
280
     0
281
     1
  0
CLASS
  1
HATCH
  2
AcDbHatch
  3
AutoCAD 2000
 90
        0
280
     0
281
     1
  0
CLASS
  1
XRECORD
  2
AcDbXrecord
  3
AutoCAD 2000
 90
        0
280
     0
281
     0
  0
CLASS
  1
LONG_TRANSACTION
  2
AcDbLongTransaction
  3
AutoCAD 2000
 90
        0
280
     0
281
     0
  0
CLASS
  1
LWPOLYLINE
  2
AcDbPolyline
  3
AutoCAD 2000
 90
        0
280
     0
281
     1
  0
CLASS
  1
HATCH
  2
AcDbHatch
  3
AutoCAD 2000
 90
        0
280
     0
281
     1
  0
CLASS
  1
XRECORD
  2
AcDbXrecord
  3
AutoCAD 2000
 90
        0
280
     0
281
     0
  0
CLASS
  1
LONG_TRANSACTION
  2
AcDbLongTransaction
  3
AutoCAD 2000
 90
        0
280
     0
281
     0
  0
CLASS
  1
LWPOLYLINE
  2
AcDbPolyline
  3
AutoCAD 2000
 90
        0
280
     0
281
     1
  0
CLASS
  1
HATCH
  2
AcDbHatch
  3
AutoCAD 2000
 90
        0
280
     0
281
     1
  0
CLASS
  1
XRECORD
  2
AcDbXrecord
  3
AutoCAD 2000
 90
        0
280
     0
281
     0
  0
ENDSEC
  0
SECTION
  2
TABLES
  0
TABLE
  2
VPORT
  5
8
330
0
100
AcDbSymbolTable
 70
     2
  0
VPORT
  5
81A
330
8
100
AcDbSymbolTableRecord
100
AcDbViewportTableRecord
  2
*ACTIVE
 70
     0
 10
0.0
 20
0.0
 11
1.0
 21
1.0
 12
442.7807609120198
 22
281.0703875145573
 13
0.0
 23
0.0
 14
5.0
 24
5.0
 15
0.0
 25
0.0
 16
0.0
 26
0.0
 36
1.0
 17
0.0
 27
0.0
 37
0.0
 40
600.7739427443554
 41
1.795454545454545
 42
50.0
 43
0.0
 44
0.0
 50
0.0
 51
0.0
 71
     0
 72
   100
 73
     1
 74
     0
 75
     0
 76
     0
 77
     0
 78
     0
  0
ENDTAB
  0
TABLE
  2
LTYPE
  5
5
330
0
100
AcDbSymbolTable
 70
     3
  0
LTYPE
  5
14
330
5
100
AcDbSymbolTableRecord
100
AcDbLinetypeTableRecord
  2
BYBLOCK
 70
     0
  3

 72
    65
 73
     0
 40
0.0
  0
LTYPE
  5
15
330
5
100
AcDbSymbolTableRecord
100
AcDbLinetypeTableRecord
  2
BYLAYER
 70
     0
  3

 72
    65
 73
     0
 40
0.0
  0
LTYPE
  5
16
330
5
100
AcDbSymbolTableRecord
100
AcDbLinetypeTableRecord
  2
CONTINUOUS
 70
     0
  3
Solid line
 72
    65
 73
     0
 40
0.0
  0
LTYPE
  5
115
330
5
100
AcDbSymbolTableRecord
100
AcDbLinetypeTableRecord
  2
PHANTOM
 70
     0
  3
______  __  __  ______  __  __  ______  __  __ 
 72
    65
 73
     6
 40
2.5
 49
1.25
 74
     0
 49
-0.25
 74
     0
 49
0.25
 74
     0
 49
-0.25
 74
     0
 49
0.25
 74
     0
 49
-0.25
 74
     0
  0
LTYPE
  5
135
330
5
100
AcDbSymbolTableRecord
100
AcDbLinetypeTableRecord
  2
CENTER
 70
     0
  3
____ _ ____ _ ____ _ ____ _ ____ _ ____ _ ____ 
 72
    65
 73
     4
 40
2.0
 49
1.25
 74
     0
 49
-0.25
 74
     0
 49
0.25
 74
     0
 49
-0.25
 74
     0
  0
ENDTAB
  0
TABLE
  2
LAYER
  5
2
330
0
100
AcDbSymbolTable
 70
     9
  0
LAYER
  5
F
330
2
100
AcDbSymbolTableRecord
100
AcDbLayerTableRecord
  2
0
 70
     0
 62
     7
  6
CONTINUOUS
  0
LAYER
  5
62
330
2
100
AcDbSymbolTableRecord
100
AcDbLayerTableRecord
  2
VIEWPORT
 70
     0
 62
     7
  6
CONTINUOUS
  0
LAYER
  5
65
330
2
100
AcDbSymbolTableRecord
100
AcDbLayerTableRecord
  2
ZUWAKU
 70
     0
 62
     7
  6
CONTINUOUS
  0
LAYER
  5
14F
330
2
100
AcDbSymbolTableRecord
100
AcDbLayerTableRecord
  2
SEIHIN
 70
     0
 62
     3
  6
CONTINUOUS
  0
LAYER
  5
150
330
2
100
AcDbSymbolTableRecord
100
AcDbLayerTableRecord
  2
SUNPOU
 70
     0
 62
     4
  6
CONTINUOUS
  0
LAYER
  5
151
330
2
100
AcDbSymbolTableRecord
100
AcDbLayerTableRecord
  2
CENTER_L
 70
     0
 62
     1
  6
CENTER
  0
LAYER
  5
152
330
2
100
AcDbSymbolTableRecord
100
AcDbLayerTableRecord
  2
NOKITOI
 70
     0
 62
     8
  6
PHANTOM
  0
LAYER
  5
153
330
2
100
AcDbSymbolTableRecord
100
AcDbLayerTableRecord
  2
DEFPOINTS
 70
     0
 62
     7
  6
CONTINUOUS
  0
LAYER
  5
6A3
330
2
100
AcDbSymbolTableRecord
100
AcDbLayerTableRecord
  2
MOJI
 70
     0
 62
     2
  6
CONTINUOUS
  0
ENDTAB
  0
TABLE
  2
STYLE
  5
3
330
0
100
AcDbSymbolTable
 70
     2
  0
STYLE
  5
10
330
3
100
AcDbSymbolTableRecord
100
AcDbTextStyleTableRecord
  2
STANDARD
 70
     0
 40
0.0
 41
1.0
 50
0.0
 71
     0
 42
5.0
  3
TXT
  4
bigfont.shx
  0
STYLE
  5
6A4
330
3
100
AcDbSymbolTableRecord
100
AcDbTextStyleTableRecord
  2
ｽﾀｲﾙ1
 70
     0
 40
0.0
 41
1.0
 50
0.0
 71
     0
 42
2.5
  3
MS PGothic.ttf
  4

1001
ACAD
1000
MS PGothic
1071
    32818
  0
ENDTAB
  0
TABLE
  2
VIEW
  5
6
330
0
100
AcDbSymbolTable
 70
     0
  0
ENDTAB
  0
TABLE
  2
UCS
  5
7
330
0
100
AcDbSymbolTable
 70
     0
  0
ENDTAB
  0
TABLE
  2
APPID
  5
9
330
0
100
AcDbSymbolTable
 70
     1
  0
APPID
  5
11
330
9
100
AcDbSymbolTableRecord
100
AcDbRegAppTableRecord
  2
ACAD
 70
     0
  0
ENDTAB
  0
TABLE
  2
DIMSTYLE
  5
A
330
0
100
AcDbSymbolTable
 70
     1
  0
DIMSTYLE
105
1D
102
{ACAD_REACTORS
330
256
330
379
330
388
330
397
330
3A4
330
3B1
330
3BE
330
437
330
446
330
455
330
57B
330
595
330
5C5
330
625
102
}
330
A
100
AcDbSymbolTableRecord
100
AcDbDimStyleTableRecord
  2
STANDARD
 70
     0
  3

  4

  5

  6

  7

 40
1.0
 41
0.18
 42
0.0625
 43
0.38
 44
0.18
 45
0.0
 46
0.0
 47
0.0
 48
0.0
140
0.18
141
0.09
142
0.0
143
25.4
144
1.0
145
0.0
146
1.0
147
0.09
 71
     0
 72
     0
 73
     1
 74
     1
 75
     0
 76
     0
 77
     0
 78
     0
170
     0
171
     2
172
     0
173
     0
174
     0
175
     0
176
     0
177
     0
178
     0
270
     2
271
     4
272
     4
273
     2
274
     2
340
10
275
     0
280
     0
281
     0
282
     0
283
     1
284
     0
285
     0
286
     0
287
     3
288
     0
  0
ENDTAB
  0
TABLE
  2
BLOCK_RECORD
  5
1
330
0
100
AcDbSymbolTable
 70
    15
  0
BLOCK_RECORD
  5
1A
102
{ACAD_XDICTIONARY
360
658
102
}
330
1
100
AcDbSymbolTableRecord
100
AcDbBlockTableRecord
  2
*MODEL_SPACE
  0
BLOCK_RECORD
  5
17
102
{ACAD_XDICTIONARY
360
656
102
}
330
1
100
AcDbSymbolTableRecord
100
AcDbBlockTableRecord
  2
*PAPER_SPACE
  0
BLOCK_RECORD
  5
6D
330
1
100
AcDbSymbolTableRecord
100
AcDbBlockTableRecord
  2
_OPEN
  0
BLOCK_RECORD
  5
354
330
1
100
AcDbSymbolTableRecord
100
AcDbBlockTableRecord
  2
*D1
  0
BLOCK_RECORD
  5
36B
330
1
100
AcDbSymbolTableRecord
100
AcDbBlockTableRecord
  2
*D2
  0
BLOCK_RECORD
  5
37A
330
1
100
AcDbSymbolTableRecord
100
AcDbBlockTableRecord
  2
*D3
  0
BLOCK_RECORD
  5
389
330
1
100
AcDbSymbolTableRecord
100
AcDbBlockTableRecord
  2
*D4
  0
BLOCK_RECORD
  5
398
330
1
100
AcDbSymbolTableRecord
100
AcDbBlockTableRecord
  2
*D5
  0
BLOCK_RECORD
  5
3A5
330
1
100
AcDbSymbolTableRecord
100
AcDbBlockTableRecord
  2
*D6
  0
BLOCK_RECORD
  5
3B2
330
1
100
AcDbSymbolTableRecord
100
AcDbBlockTableRecord
  2
*D7
  0
BLOCK_RECORD
  5
42B
330
1
100
AcDbSymbolTableRecord
100
AcDbBlockTableRecord
  2
*D8
  0
BLOCK_RECORD
  5
438
330
1
100
AcDbSymbolTableRecord
100
AcDbBlockTableRecord
  2
*D9
  0
BLOCK_RECORD
  5
447
330
1
100
AcDbSymbolTableRecord
100
AcDbBlockTableRecord
  2
*D10
  0
BLOCK_RECORD
  5
56F
330
1
100
AcDbSymbolTableRecord
100
AcDbBlockTableRecord
  2
*D11
  0
BLOCK_RECORD
  5
587
330
1
100
AcDbSymbolTableRecord
100
AcDbBlockTableRecord
  2
*D12
  0
BLOCK_RECORD
  5
5B7
330
1
100
AcDbSymbolTableRecord
100
AcDbBlockTableRecord
  2
*D13
  0
BLOCK_RECORD
  5
626
330
1
100
AcDbSymbolTableRecord
100
AcDbBlockTableRecord
  2
*D14
  0
ENDTAB
  0
ENDSEC
  0
SECTION
  2
BLOCKS
  0
BLOCK
  5
1B
330
1A
100
AcDbEntity
  8
0
100
AcDbBlockBegin
  2
*MODEL_SPACE
 70
     0
 10
0.0
 20
0.0
 30
0.0
  3
*MODEL_SPACE
  1

  0
ENDBLK
  5
1C
330
1A
100
AcDbEntity
  8
0
100
AcDbBlockEnd
  0
BLOCK
  5
18
330
17
100
AcDbEntity
 67
     1
  8
0
100
AcDbBlockBegin
  2
*PAPER_SPACE
 70
     0
 10
0.0
 20
0.0
 30
0.0
  3
*PAPER_SPACE
  1

  0
ENDBLK
  5
19
330
17
100
AcDbEntity
 67
     1
  8
0
100
AcDbBlockEnd
  0
BLOCK
  5
6E
330
6D
100
AcDbEntity
  8
0
100
AcDbBlockBegin
  2
_OPEN
 70
     0
 10
0.0
 20
0.0
 30
0.0
  3
_OPEN
  1

  0
LINE
  5
6F
330
6D
100
AcDbEntity
  8
0
  6
BYBLOCK
 62
     0
100
AcDbLine
 10
-1.0
 20
0.1666666666666666
 30
0.0
 11
0.0
 21
0.0
 31
0.0
  0
LINE
  5
70
330
6D
100
AcDbEntity
  8
0
  6
BYBLOCK
 62
     0
100
AcDbLine
 10
0.0
 20
0.0
 30
0.0
 11
-1.0
 21
-0.1666666666666666
 31
0.0
  0
LINE
  5
71
330
6D
100
AcDbEntity
  8
0
  6
BYBLOCK
 62
     0
100
AcDbLine
 10
0.0
 20
0.0
 30
0.0
 11
-1.0
 21
0.0
 31
0.0
  0
ENDBLK
  5
72
330
6D
100
AcDbEntity
  8
0
100
AcDbBlockEnd
  0
BLOCK
  5
360
330
354
100
AcDbEntity
  8
0
100
AcDbBlockBegin
  2
*D1
 70
     1
 10
0.0
 20
0.0
 30
0.0
  3
*D1
  1

  0
LINE
  5
361
330
354
100
AcDbEntity
  8
0
  6
BYBLOCK
 62
     4
100
AcDbLine
 10
412.4856611422182
 20
241.1170478711068
 30
0.0
 11
441.1538745466629
 21
241.1170478711068
 31
0.0
  0
LINE
  5
362
330
354
100
AcDbEntity
  8
0
  6
BYBLOCK
 62
     4
100
AcDbLine
 10
412.4856611422182
 20
191.4956478711068
 30
0.0
 11
441.1538745466629
 21
191.4956478711068
 31
0.0
  0
LINE
  5
363
330
354
100
AcDbEntity
  8
0
  6
BYBLOCK
 62
     4
100
AcDbLine
 10
438.1538745466628
 20
234.1170478711068
 30
0.0
 11
438.1538745466628
 21
198.4956478711068
 31
0.0
  0
INSERT
  5
364
330
354
100
AcDbEntity
  8
0
  6
BYBLOCK
 62
     4
100
AcDbBlockReference
  2
_OPEN
 10
438.1538745466628
 20
241.1170478711068
 30
0.0
 41
7.0
 42
7.0
 43
7.0
 50
90.0
  0
INSERT
  5
365
330
354
100
AcDbEntity
  8
0
  6
BYBLOCK
 62
     4
100
AcDbBlockReference
  2
_OPEN
 10
438.1538745466628
 20
191.4956478711068
 30
0.0
 41
7.0
 42
7.0
 43
7.0
 50
270.0
  0
MTEXT
  5
366
330
354
100
AcDbEntity
  8
0
  6
BYBLOCK
 62
     4
100
AcDbMText
 10
433.1538745466628
 20
216.3063478711068
 30
0.0
 40
6.0
 41
0.0
 71
     5
 72
     5
  1
\A1;50
 11
0.0
 21
1.0
 31
0.0
1001
ACAD
1000
MTEXTBEGIN
1070
    73
1070
     1
1070
    44
1040
1.0
1070
    74
1070
     0
1000
MTEXTEND
1000
MTEXTBEGIN
1070
    73
1070
     1
1070
    44
1040
1.0
1070
    74
1070
     0
1000
MTEXTEND
1000
MTEXTBEGIN
1070
    73
1070
     1
1070
    44
1040
1.0
1070
    74
1070
     0
1000
MTEXTEND
  0
POINT
  5
367
330
354
100
AcDbEntity
  8
DEFPOINTS
  6
BYBLOCK
 62
     0
100
AcDbPoint
 10
406.4856611422182
 20
241.1170478711068
 30
0.0
  0
POINT
  5
368
330
354
100
AcDbEntity
  8
DEFPOINTS
  6
BYBLOCK
 62
     0
100
AcDbPoint
 10
406.4856611422182
 20
191.4956478711068
 30
0.0
  0
POINT
  5
369
330
354
100
AcDbEntity
  8
DEFPOINTS
  6
BYBLOCK
 62
     0
100
AcDbPoint
 10
438.1538745466628
 20
191.4956478711068
 30
0.0
  0
ENDBLK
  5
36A
330
354
100
AcDbEntity
  8
0
100
AcDbBlockEnd
  0
BLOCK
  5
41C
330
36B
100
AcDbEntity
  8
0
100
AcDbBlockBegin
  2
*D2
 70
     1
 10
0.0
 20
0.0
 30
0.0
  3
*D2
  1

  0
LINE
  5
41D
330
36B
100
AcDbEntity
  8
0
  6
BYBLOCK
 62
     4
100
AcDbLine
 10
553.8164088214241
 20
231.1170478711068
 30
0.0
 11
502.4804948881833
 21
231.1170478711068
 31
0.0
  0
LINE
  5
41E
330
36B
100
AcDbEntity
  8
0
  6
BYBLOCK
 62
     4
100
AcDbLine
 10
581.5185088214239
 20
241.1169478711069
 30
0.0
 11
502.4804948881833
 21
241.1169478711069
 31
0.0
  0
LINE
  5
41F
330
36B
100
AcDbEntity
  8
0
  6
BYBLOCK
 62
     4
100
AcDbLine
 10
505.4804948881833
 20
224.1170478711068
 30
0.0
 11
505.4804948881833
 21
217.1170478711068
 31
0.0
  0
LINE
  5
420
330
36B
100
AcDbEntity
  8
0
  6
BYBLOCK
 62
     4
100
AcDbLine
 10
505.4804948881833
 20
248.1169478711068
 30
0.0
 11
505.4804948881833
 21
266.1169478711069
 31
0.0
  0
LINE
  5
421
330
36B
100
AcDbEntity
  8
0
  6
BYBLOCK
 62
     4
100
AcDbLine
 10
505.4804948881833
 20
231.1170478711068
 30
0.0
 11
505.4804948881833
 21
241.1169478711069
 31
0.0
  0
INSERT
  5
422
330
36B
100
AcDbEntity
  8
0
  6
BYBLOCK
 62
     4
100
AcDbBlockReference
  2
_OPEN
 10
505.4804948881833
 20
231.1170478711068
 30
0.0
 41
7.0
 42
7.0
 43
7.0
 50
90.0
  0
INSERT
  5
423
330
36B
100
AcDbEntity
  8
0
  6
BYBLOCK
 62
     4
100
AcDbBlockReference
  2
_OPEN
 10
505.4804948881833
 20
241.1169478711069
 30
0.0
 41
7.0
 42
7.0
 43
7.0
 50
270.0
  0
MTEXT
  5
424
330
36B
100
AcDbEntity
  8
0
  6
BYBLOCK
 62
     4
100
AcDbMText
 10
500.4804948881833
 20
260.6169478711068
 30
0.0
 40
6.0
 41
0.0
 71
     5
 72
     5
  1
\A1;10
 11
0.0
 21
1.0
 31
0.0
1001
ACAD
1000
MTEXTBEGIN
1070
    73
1070
     1
1070
    44
1040
1.0
1070
    74
1070
     0
1000
MTEXTEND
1000
MTEXTBEGIN
1070
    73
1070
     1
1070
    44
1040
1.0
1070
    74
1070
     0
1000
MTEXTEND
1000
MTEXTBEGIN
1070
    73
1070
     1
1070
    44
1040
1.0
1070
    74
1070
     0
1000
MTEXTEND
  0
POINT
  5
425
330
36B
100
AcDbEntity
  8
DEFPOINTS
  6
BYBLOCK
 62
     0
100
AcDbPoint
 10
559.8164088214241
 20
231.1170478711068
 30
0.0
  0
POINT
  5
426
330
36B
100
AcDbEntity
  8
DEFPOINTS
  6
BYBLOCK
 62
     0
100
AcDbPoint
 10
587.518508821424
 20
241.1169478711069
 30
0.0
  0
POINT
  5
427
330
36B
100
AcDbEntity
  8
DEFPOINTS
  6
BYBLOCK
 62
     0
100
AcDbPoint
 10
505.4804948881833
 20
241.1169478711069
 30
0.0
  0
ENDBLK
  5
428
330
36B
100
AcDbEntity
  8
0
100
AcDbBlockEnd
  0
BLOCK
  5
40F
330
37A
100
AcDbEntity
  8
0
100
AcDbBlockBegin
  2
*D3
 70
     1
 10
0.0
 20
0.0
 30
0.0
  3
*D3
  1

  0
LINE
  5
410
330
37A
100
AcDbEntity
  8
0
  6
BYBLOCK
 62
     4
100
AcDbLine
 10
552.5326088214241
 20
226.1170478711068
 30
0.0
 11
486.2226184358264
 21
226.1170478711068
 31
0.0
  0
LINE
  5
411
330
37A
100
AcDbEntity
  8
0
  6
BYBLOCK
 62
     4
100
AcDbLine
 10
581.5185088214239
 20
241.1169478711069
 30
0.0
 11
486.2226184358264
 21
241.1169478711069
 31
0.0
  0
LINE
  5
412
330
37A
100
AcDbEntity
  8
0
  6
BYBLOCK
 62
     4
100
AcDbLine
 10
489.2226184358264
 20
219.1170478711068
 30
0.0
 11
489.2226184358264
 21
212.1170478711068
 31
0.0
  0
LINE
  5
413
330
37A
100
AcDbEntity
  8
0
  6
BYBLOCK
 62
     4
100
AcDbLine
 10
489.2226184358264
 20
248.1169478711068
 30
0.0
 11
489.2226184358264
 21
255.1169478711069
 31
0.0
  0
LINE
  5
414
330
37A
100
AcDbEntity
  8
0
  6
BYBLOCK
 62
     4
100
AcDbLine
 10
489.2226184358264
 20
226.1170478711068
 30
0.0
 11
489.2226184358264
 21
241.1169478711069
 31
0.0
  0
INSERT
  5
415
330
37A
100
AcDbEntity
  8
0
  6
BYBLOCK
 62
     4
100
AcDbBlockReference
  2
_OPEN
 10
489.2226184358264
 20
226.1170478711068
 30
0.0
 41
7.0
 42
7.0
 43
7.0
 50
90.0
  0
INSERT
  5
416
330
37A
100
AcDbEntity
  8
0
  6
BYBLOCK
 62
     4
100
AcDbBlockReference
  2
_OPEN
 10
489.2226184358264
 20
241.1169478711069
 30
0.0
 41
7.0
 42
7.0
 43
7.0
 50
270.0
  0
MTEXT
  5
417
330
37A
100
AcDbEntity
  8
0
  6
BYBLOCK
 62
     4
100
AcDbMText
 10
484.2226184358264
 20
233.6169978711068
 30
0.0
 40
6.0
 41
0.0
 71
     5
 72
     5
  1
\A1;15
 11
0.0
 21
1.0
 31
0.0
1001
ACAD
1000
MTEXTBEGIN
1070
    73
1070
     1
1070
    44
1040
1.0
1070
    74
1070
     0
1000
MTEXTEND
1000
MTEXTBEGIN
1070
    73
1070
     1
1070
    44
1040
1.0
1070
    74
1070
     0
1000
MTEXTEND
1000
MTEXTBEGIN
1070
    73
1070
     1
1070
    44
1040
1.0
1070
    74
1070
     0
1000
MTEXTEND
  0
POINT
  5
418
330
37A
100
AcDbEntity
  8
DEFPOINTS
  6
BYBLOCK
 62
     0
100
AcDbPoint
 10
558.5326088214242
 20
226.1170478711068
 30
0.0
  0
POINT
  5
419
330
37A
100
AcDbEntity
  8
DEFPOINTS
  6
BYBLOCK
 62
     0
100
AcDbPoint
 10
587.518508821424
 20
241.1169478711069
 30
0.0
  0
POINT
  5
41A
330
37A
100
AcDbEntity
  8
DEFPOINTS
  6
BYBLOCK
 62
     0
100
AcDbPoint
 10
489.2226184358264
 20
241.1169478711069
 30
0.0
  0
ENDBLK
  5
41B
330
37A
100
AcDbEntity
  8
0
100
AcDbBlockEnd
  0
BLOCK
  5
402
330
389
100
AcDbEntity
  8
0
100
AcDbBlockBegin
  2
*D4
 70
     1
 10
0.0
 20
0.0
 30
0.0
  3
*D4
  1

  0
LINE
  5
403
330
389
100
AcDbEntity
  8
0
  6
BYBLOCK
 62
     4
100
AcDbLine
 10
553.8163088214239
 20
201.1169478711069
 30
0.0
 11
502.4804948881833
 21
201.1169478711069
 31
0.0
  0
LINE
  5
404
330
389
100
AcDbEntity
  8
0
  6
BYBLOCK
 62
     4
100
AcDbLine
 10
581.518408821424
 20
191.1169478711069
 30
0.0
 11
502.4804948881833
 21
191.1169478711069
 31
0.0
  0
LINE
  5
405
330
389
100
AcDbEntity
  8
0
  6
BYBLOCK
 62
     4
100
AcDbLine
 10
505.4804948881833
 20
208.1169478711069
 30
0.0
 11
505.4804948881833
 21
215.1169478711068
 31
0.0
  0
LINE
  5
406
330
389
100
AcDbEntity
  8
0
  6
BYBLOCK
 62
     4
100
AcDbLine
 10
505.4804948881833
 20
184.1169478711069
 30
0.0
 11
505.4804948881833
 21
166.1169478711069
 31
0.0
  0
LINE
  5
407
330
389
100
AcDbEntity
  8
0
  6
BYBLOCK
 62
     4
100
AcDbLine
 10
505.4804948881833
 20
201.1169478711069
 30
0.0
 11
505.4804948881833
 21
191.1169478711069
 31
0.0
  0
INSERT
  5
408
330
389
100
AcDbEntity
  8
0
  6
BYBLOCK
 62
     4
100
AcDbBlockReference
  2
_OPEN
 10
505.4804948881833
 20
201.1169478711069
 30
0.0
 41
7.0
 42
7.0
 43
7.0
 50
270.0
  0
INSERT
  5
409
330
389
100
AcDbEntity
  8
0
  6
BYBLOCK
 62
     4
100
AcDbBlockReference
  2
_OPEN
 10
505.4804948881833
 20
191.1169478711069
 30
0.0
 41
7.0
 42
7.0
 43
7.0
 50
90.0
  0
MTEXT
  5
40A
330
389
100
AcDbEntity
  8
0
  6
BYBLOCK
 62
     4
100
AcDbMText
 10
500.4804948881833
 20
171.6169478711069
 30
0.0
 40
6.0
 41
0.0
 71
     5
 72
     5
  1
\A1;10
 11
0.0
 21
1.0
 31
0.0
1001
ACAD
1000
MTEXTBEGIN
1070
    73
1070
     1
1070
    44
1040
1.0
1070
    74
1070
     0
1000
MTEXTEND
1000
MTEXTBEGIN
1070
    73
1070
     1
1070
    44
1040
1.0
1070
    74
1070
     0
1000
MTEXTEND
1000
MTEXTBEGIN
1070
    73
1070
     1
1070
    44
1040
1.0
1070
    74
1070
     0
1000
MTEXTEND
  0
POINT
  5
40B
330
389
100
AcDbEntity
  8
DEFPOINTS
  6
BYBLOCK
 62
     0
100
AcDbPoint
 10
559.8163088214239
 20
201.1169478711069
 30
0.0
  0
POINT
  5
40C
330
389
100
AcDbEntity
  8
DEFPOINTS
  6
BYBLOCK
 62
     0
100
AcDbPoint
 10
587.518408821424
 20
191.1169478711069
 30
0.0
  0
POINT
  5
40D
330
389
100
AcDbEntity
  8
DEFPOINTS
  6
BYBLOCK
 62
     0
100
AcDbPoint
 10
505.4804948881833
 20
191.1169478711069
 30
0.0
  0
ENDBLK
  5
40E
330
389
100
AcDbEntity
  8
0
100
AcDbBlockEnd
  0
BLOCK
  5
3F7
330
398
100
AcDbEntity
  8
0
100
AcDbBlockBegin
  2
*D5
 70
     1
 10
0.0
 20
0.0
 30
0.0
  3
*D5
  1

  0
LINE
  5
3F8
330
398
100
AcDbEntity
  8
0
  6
BYBLOCK
 62
     4
100
AcDbLine
 10
581.5185088214239
 20
241.1169478711069
 30
0.0
 11
469.2257477140911
 21
241.1169478711069
 31
0.0
  0
LINE
  5
3F9
330
398
100
AcDbEntity
  8
0
  6
BYBLOCK
 62
     4
100
AcDbLine
 10
581.518408821424
 20
191.1169478711069
 30
0.0
 11
469.2257477140911
 21
191.1169478711069
 31
0.0
  0
LINE
  5
3FA
330
398
100
AcDbEntity
  8
0
  6
BYBLOCK
 62
     4
100
AcDbLine
 10
472.225747714091
 20
234.1169478711069
 30
0.0
 11
472.225747714091
 21
198.1169478711068
 31
0.0
  0
INSERT
  5
3FB
330
398
100
AcDbEntity
  8
0
  6
BYBLOCK
 62
     4
100
AcDbBlockReference
  2
_OPEN
 10
472.225747714091
 20
241.1169478711069
 30
0.0
 41
7.0
 42
7.0
 43
7.0
 50
90.0
  0
INSERT
  5
3FC
330
398
100
AcDbEntity
  8
0
  6
BYBLOCK
 62
     4
100
AcDbBlockReference
  2
_OPEN
 10
472.225747714091
 20
191.1169478711069
 30
0.0
 41
7.0
 42
7.0
 43
7.0
 50
270.0
  0
MTEXT
  5
3FD
330
398
100
AcDbEntity
  8
0
  6
BYBLOCK
 62
     4
100
AcDbMText
 10
467.225747714091
 20
216.1169478711069
 30
0.0
 40
6.0
 41
0.0
 71
     5
 72
     5
  1
\A1;50
 11
0.0
 21
1.0
 31
0.0
1001
ACAD
1000
MTEXTBEGIN
1070
    73
1070
     1
1070
    44
1040
1.0
1070
    74
1070
     0
1000
MTEXTEND
1000
MTEXTBEGIN
1070
    73
1070
     1
1070
    44
1040
1.0
1070
    74
1070
     0
1000
MTEXTEND
1000
MTEXTBEGIN
1070
    73
1070
     1
1070
    44
1040
1.0
1070
    74
1070
     0
1000
MTEXTEND
  0
POINT
  5
3FE
330
398
100
AcDbEntity
  8
DEFPOINTS
  6
BYBLOCK
 62
     0
100
AcDbPoint
 10
587.518508821424
 20
241.1169478711069
 30
0.0
  0
POINT
  5
3FF
330
398
100
AcDbEntity
  8
DEFPOINTS
  6
BYBLOCK
 62
     0
100
AcDbPoint
 10
587.518408821424
 20
191.1169478711069
 30
0.0
  0
POINT
  5
400
330
398
100
AcDbEntity
  8
DEFPOINTS
  6
BYBLOCK
 62
     0
100
AcDbPoint
 10
472.225747714091
 20
191.1169478711069
 30
0.0
  0
ENDBLK
  5
401
330
398
100
AcDbEntity
  8
0
100
AcDbBlockEnd
  0
BLOCK
  5
3A6
330
3A5
100
AcDbEntity
  8
0
100
AcDbBlockBegin
  2
*D6
 70
     1
 10
0.0
 20
0.0
 30
0.0
  3
*D6
  1

  0
LINE
  5
3A7
330
3A5
100
AcDbEntity
  8
0
  6
BYBLOCK
 62
     4
100
AcDbLine
 10
529.3196200014029
 20
240.9019478711068
 30
0.0
 11
529.3196200014029
 21
262.4922215327115
 31
0.0
  0
LINE
  5
3A8
330
3A5
100
AcDbEntity
  8
0
  6
BYBLOCK
 62
     4
100
AcDbLine
 10
576.3196200014029
 20
240.9018478711069
 30
0.0
 11
576.3196200014029
 21
262.4922215327115
 31
0.0
  0
LINE
  5
3A9
330
3A5
100
AcDbEntity
  8
0
  6
BYBLOCK
 62
     4
100
AcDbLine
 10
536.3196200014028
 20
259.4922215327114
 30
0.0
 11
569.3196200014029
 21
259.4922215327114
 31
0.0
  0
INSERT
  5
3AA
330
3A5
100
AcDbEntity
  8
0
  6
BYBLOCK
 62
     4
100
AcDbBlockReference
  2
_OPEN
 10
529.3196200014029
 20
259.4922215327114
 30
0.0
 41
7.0
 42
7.0
 43
7.0
 50
180.0
  0
INSERT
  5
3AB
330
3A5
100
AcDbEntity
  8
0
  6
BYBLOCK
 62
     4
100
AcDbBlockReference
  2
_OPEN
 10
576.3196200014029
 20
259.4922215327114
 30
0.0
 41
7.0
 42
7.0
 43
7.0
  0
MTEXT
  5
3AC
330
3A5
100
AcDbEntity
  8
0
  6
BYBLOCK
 62
     4
100
AcDbMText
 10
552.8196200014028
 20
264.4922215327115
 30
0.0
 40
6.0
 41
0.0
 71
     5
 72
     5
  1
\A1;47
1001
ACAD
1000
MTEXTBEGIN
1070
    73
1070
     1
1070
    44
1040
1.0
1070
    74
1070
     0
1000
MTEXTEND
1000
MTEXTBEGIN
1070
    73
1070
     1
1070
    44
1040
1.0
1070
    74
1070
     0
1000
MTEXTEND
1000
MTEXTBEGIN
1070
    73
1070
     1
1070
    44
1040
1.0
1070
    74
1070
     0
1000
MTEXTEND
  0
POINT
  5
3AD
330
3A5
100
AcDbEntity
  8
DEFPOINTS
  6
BYBLOCK
 62
     0
100
AcDbPoint
 10
529.3196200014029
 20
234.9019478711068
 30
0.0
  0
POINT
  5
3AE
330
3A5
100
AcDbEntity
  8
DEFPOINTS
  6
BYBLOCK
 62
     0
100
AcDbPoint
 10
576.3196200014029
 20
234.9018478711069
 30
0.0
  0
POINT
  5
3AF
330
3A5
100
AcDbEntity
  8
DEFPOINTS
  6
BYBLOCK
 62
     0
100
AcDbPoint
 10
576.3196200014029
 20
259.4922215327114
 30
0.0
  0
ENDBLK
  5
3B0
330
3A5
100
AcDbEntity
  8
0
100
AcDbBlockEnd
  0
BLOCK
  5
3B3
330
3B2
100
AcDbEntity
  8
0
100
AcDbBlockBegin
  2
*D7
 70
     1
 10
0.0
 20
0.0
 30
0.0
  3
*D7
  1

  0
LINE
  5
3B4
330
3B2
100
AcDbEntity
  8
0
  6
BYBLOCK
 62
     4
100
AcDbLine
 10
521.3196200014029
 20
235.9764478711068
 30
0.0
 11
521.3196200014029
 21
278.7354622735683
 31
0.0
  0
LINE
  5
3B5
330
3B2
100
AcDbEntity
  8
0
  6
BYBLOCK
 62
     4
100
AcDbLine
 10
584.319620001403
 20
236.3599478711067
 30
0.0
 11
584.319620001403
 21
278.7354622735683
 31
0.0
  0
LINE
  5
3B6
330
3B2
100
AcDbEntity
  8
0
  6
BYBLOCK
 62
     4
100
AcDbLine
 10
528.3196200014028
 20
275.7354622735683
 30
0.0
 11
577.3196200014029
 21
275.7354622735683
 31
0.0
  0
INSERT
  5
3B7
330
3B2
100
AcDbEntity
  8
0
  6
BYBLOCK
 62
     4
100
AcDbBlockReference
  2
_OPEN
 10
521.3196200014029
 20
275.7354622735683
 30
0.0
 41
7.0
 42
7.0
 43
7.0
 50
180.0
  0
INSERT
  5
3B8
330
3B2
100
AcDbEntity
  8
0
  6
BYBLOCK
 62
     4
100
AcDbBlockReference
  2
_OPEN
 10
584.319620001403
 20
275.7354622735683
 30
0.0
 41
7.0
 42
7.0
 43
7.0
  0
MTEXT
  5
3B9
330
3B2
100
AcDbEntity
  8
0
  6
BYBLOCK
 62
     4
100
AcDbMText
 10
552.8196200014028
 20
280.7354622735683
 30
0.0
 40
6.0
 41
0.0
 71
     5
 72
     5
  1
\A1;63
1001
ACAD
1000
MTEXTBEGIN
1070
    73
1070
     1
1070
    44
1040
1.0
1070
    74
1070
     0
1000
MTEXTEND
1000
MTEXTBEGIN
1070
    73
1070
     1
1070
    44
1040
1.0
1070
    74
1070
     0
1000
MTEXTEND
1000
MTEXTBEGIN
1070
    73
1070
     1
1070
    44
1040
1.0
1070
    74
1070
     0
1000
MTEXTEND
  0
POINT
  5
3BA
330
3B2
100
AcDbEntity
  8
DEFPOINTS
  6
BYBLOCK
 62
     0
100
AcDbPoint
 10
521.3196200014029
 20
229.9764478711068
 30
0.0
  0
POINT
  5
3BB
330
3B2
100
AcDbEntity
  8
DEFPOINTS
  6
BYBLOCK
 62
     0
100
AcDbPoint
 10
584.319620001403
 20
230.3599478711067
 30
0.0
  0
POINT
  5
3BC
330
3B2
100
AcDbEntity
  8
DEFPOINTS
  6
BYBLOCK
 62
     0
100
AcDbPoint
 10
584.319620001403
 20
275.7354622735683
 30
0.0
  0
ENDBLK
  5
3BD
330
3B2
100
AcDbEntity
  8
0
100
AcDbBlockEnd
  0
BLOCK
  5
42C
330
42B
100
AcDbEntity
  8
0
100
AcDbBlockBegin
  2
*D8
 70
     1
 10
0.0
 20
0.0
 30
0.0
  3
*D8
  1

  0
LINE
  5
42D
330
42B
100
AcDbEntity
  8
0
  6
BYBLOCK
 62
     4
100
AcDbLine
 10
412.4856611422182
 20
369.7513478711068
 30
0.0
 11
441.1538745466629
 21
369.7513478711068
 31
0.0
  0
LINE
  5
42E
330
42B
100
AcDbEntity
  8
0
  6
BYBLOCK
 62
     4
100
AcDbLine
 10
412.4856611422182
 20
306.7513478711068
 30
0.0
 11
441.1538745466629
 21
306.7513478711068
 31
0.0
  0
LINE
  5
42F
330
42B
100
AcDbEntity
  8
0
  6
BYBLOCK
 62
     4
100
AcDbLine
 10
438.1538745466628
 20
362.7513478711068
 30
0.0
 11
438.1538745466628
 21
313.7513478711068
 31
0.0
  0
INSERT
  5
430
330
42B
100
AcDbEntity
  8
0
  6
BYBLOCK
 62
     4
100
AcDbBlockReference
  2
_OPEN
 10
438.1538745466628
 20
369.7513478711068
 30
0.0
 41
7.0
 42
7.0
 43
7.0
 50
90.0
  0
INSERT
  5
431
330
42B
100
AcDbEntity
  8
0
  6
BYBLOCK
 62
     4
100
AcDbBlockReference
  2
_OPEN
 10
438.1538745466628
 20
306.7513478711068
 30
0.0
 41
7.0
 42
7.0
 43
7.0
 50
270.0
  0
MTEXT
  5
432
330
42B
100
AcDbEntity
  8
0
  6
BYBLOCK
 62
     4
100
AcDbMText
 10
433.1538745466628
 20
338.2513478711068
 30
0.0
 40
6.0
 41
0.0
 71
     5
 72
     5
  1
\A1;63
 11
0.0
 21
1.0
 31
0.0
1001
ACAD
1000
MTEXTBEGIN
1070
    73
1070
     1
1070
    44
1040
1.0
1070
    74
1070
     0
1000
MTEXTEND
1000
MTEXTBEGIN
1070
    73
1070
     1
1070
    44
1040
1.0
1070
    74
1070
     0
1000
MTEXTEND
1000
MTEXTBEGIN
1070
    73
1070
     1
1070
    44
1040
1.0
1070
    74
1070
     0
1000
MTEXTEND
  0
POINT
  5
433
330
42B
100
AcDbEntity
  8
DEFPOINTS
  6
BYBLOCK
 62
     0
100
AcDbPoint
 10
406.4856611422182
 20
369.7513478711068
 30
0.0
  0
POINT
  5
434
330
42B
100
AcDbEntity
  8
DEFPOINTS
  6
BYBLOCK
 62
     0
100
AcDbPoint
 10
406.4856611422182
 20
306.7513478711068
 30
0.0
  0
POINT
  5
435
330
42B
100
AcDbEntity
  8
DEFPOINTS
  6
BYBLOCK
 62
     0
100
AcDbPoint
 10
438.1538745466628
 20
306.7513478711068
 30
0.0
  0
ENDBLK
  5
436
330
42B
100
AcDbEntity
  8
0
100
AcDbBlockEnd
  0
BLOCK
  5
439
330
438
100
AcDbEntity
  8
0
100
AcDbBlockBegin
  2
*D9
 70
     1
 10
0.0
 20
0.0
 30
0.0
  3
*D9
  1

  0
LINE
  5
43A
330
438
100
AcDbEntity
  8
0
  6
BYBLOCK
 62
     4
100
AcDbLine
 10
275.1856611422182
 20
348.2513478711068
 30
0.0
 11
242.5534260192812
 21
348.2513478711068
 31
0.0
  0
LINE
  5
43B
330
438
100
AcDbEntity
  8
0
  6
BYBLOCK
 62
     4
100
AcDbLine
 10
275.1856611422182
 20
328.2513478711068
 30
0.0
 11
242.5534260192812
 21
328.2513478711068
 31
0.0
  0
LINE
  5
43C
330
438
100
AcDbEntity
  8
0
  6
BYBLOCK
 62
     4
100
AcDbLine
 10
245.5534260192812
 20
355.2513478711068
 30
0.0
 11
245.5534260192812
 21
362.2513478711068
 31
0.0
  0
LINE
  5
43D
330
438
100
AcDbEntity
  8
0
  6
BYBLOCK
 62
     4
100
AcDbLine
 10
245.5534260192812
 20
321.2513478711068
 30
0.0
 11
245.5534260192812
 21
314.2513478711068
 31
0.0
  0
LINE
  5
43E
330
438
100
AcDbEntity
  8
0
  6
BYBLOCK
 62
     4
100
AcDbLine
 10
245.5534260192812
 20
348.2513478711068
 30
0.0
 11
245.5534260192812
 21
328.2513478711068
 31
0.0
  0
INSERT
  5
43F
330
438
100
AcDbEntity
  8
0
  6
BYBLOCK
 62
     4
100
AcDbBlockReference
  2
_OPEN
 10
245.5534260192812
 20
348.2513478711068
 30
0.0
 41
7.0
 42
7.0
 43
7.0
 50
270.0
  0
INSERT
  5
440
330
438
100
AcDbEntity
  8
0
  6
BYBLOCK
 62
     4
100
AcDbBlockReference
  2
_OPEN
 10
245.5534260192812
 20
328.2513478711068
 30
0.0
 41
7.0
 42
7.0
 43
7.0
 50
90.0
  0
MTEXT
  5
441
330
438
100
AcDbEntity
  8
0
  6
BYBLOCK
 62
     4
100
AcDbMText
 10
240.5534260192812
 20
338.2513478711068
 30
0.0
 40
6.0
 41
0.0
 71
     5
 72
     5
  1
\A1;20
 11
0.0
 21
1.0
 31
0.0
1001
ACAD
1000
MTEXTBEGIN
1070
    73
1070
     1
1070
    44
1040
1.0
1070
    74
1070
     0
1000
MTEXTEND
1000
MTEXTBEGIN
1070
    73
1070
     1
1070
    44
1040
1.0
1070
    74
1070
     0
1000
MTEXTEND
1000
MTEXTBEGIN
1070
    73
1070
     1
1070
    44
1040
1.0
1070
    74
1070
     0
1000
MTEXTEND
  0
POINT
  5
442
330
438
100
AcDbEntity
  8
DEFPOINTS
  6
BYBLOCK
 62
     0
100
AcDbPoint
 10
281.1856611422182
 20
348.2513478711068
 30
0.0
  0
POINT
  5
443
330
438
100
AcDbEntity
  8
DEFPOINTS
  6
BYBLOCK
 62
     0
100
AcDbPoint
 10
281.1856611422182
 20
328.2513478711068
 30
0.0
  0
POINT
  5
444
330
438
100
AcDbEntity
  8
DEFPOINTS
  6
BYBLOCK
 62
     0
100
AcDbPoint
 10
245.5534260192812
 20
328.2513478711068
 30
0.0
  0
ENDBLK
  5
445
330
438
100
AcDbEntity
  8
0
100
AcDbBlockEnd
  0
BLOCK
  5
448
330
447
100
AcDbEntity
  8
0
100
AcDbBlockBegin
  2
*D10
 70
     1
 10
0.0
 20
0.0
 30
0.0
  3
*D10
  1

  0
LINE
  5
449
330
447
100
AcDbEntity
  8
0
  6
BYBLOCK
 62
     4
100
AcDbLine
 10
274.5227611422181
 20
215.6170478711068
 30
0.0
 11
242.5534260192812
 21
215.6170478711068
 31
0.0
  0
LINE
  5
44A
330
447
100
AcDbEntity
  8
0
  6
BYBLOCK
 62
     4
100
AcDbLine
 10
393.6695611422182
 20
241.1170478711068
 30
0.0
 11
242.5534260192812
 21
241.1170478711068
 31
0.0
  0
LINE
  5
44B
330
447
100
AcDbEntity
  8
0
  6
BYBLOCK
 62
     4
100
AcDbLine
 10
245.5534260192812
 20
208.6170478711068
 30
0.0
 11
245.5534260192812
 21
201.6170478711068
 31
0.0
  0
LINE
  5
44C
330
447
100
AcDbEntity
  8
0
  6
BYBLOCK
 62
     4
100
AcDbLine
 10
245.5534260192812
 20
248.1170478711068
 30
0.0
 11
245.5534260192812
 21
255.1170478711068
 31
0.0
  0
LINE
  5
44D
330
447
100
AcDbEntity
  8
0
  6
BYBLOCK
 62
     4
100
AcDbLine
 10
245.5534260192812
 20
215.6170478711068
 30
0.0
 11
245.5534260192812
 21
241.1170478711068
 31
0.0
  0
INSERT
  5
44E
330
447
100
AcDbEntity
  8
0
  6
BYBLOCK
 62
     4
100
AcDbBlockReference
  2
_OPEN
 10
245.5534260192812
 20
215.6170478711068
 30
0.0
 41
7.0
 42
7.0
 43
7.0
 50
90.0
  0
INSERT
  5
44F
330
447
100
AcDbEntity
  8
0
  6
BYBLOCK
 62
     4
100
AcDbBlockReference
  2
_OPEN
 10
245.5534260192812
 20
241.1170478711068
 30
0.0
 41
7.0
 42
7.0
 43
7.0
 50
270.0
  0
MTEXT
  5
450
330
447
100
AcDbEntity
  8
0
  6
BYBLOCK
 62
     4
100
AcDbMText
 10
240.5534260192812
 20
228.3670478711068
 30
0.0
 40
6.0
 41
0.0
 71
     5
 72
     5
  1
\A1;26
 11
0.0
 21
1.0
 31
0.0
1001
ACAD
1000
MTEXTBEGIN
1070
    73
1070
     1
1070
    44
1040
1.0
1070
    74
1070
     0
1000
MTEXTEND
1000
MTEXTBEGIN
1070
    73
1070
     1
1070
    44
1040
1.0
1070
    74
1070
     0
1000
MTEXTEND
1000
MTEXTBEGIN
1070
    73
1070
     1
1070
    44
1040
1.0
1070
    74
1070
     0
1000
MTEXTEND
  0
POINT
  5
451
330
447
100
AcDbEntity
  8
DEFPOINTS
  6
BYBLOCK
 62
     0
100
AcDbPoint
 10
280.5227611422181
 20
215.6170478711068
 30
0.0
  0
POINT
  5
452
330
447
100
AcDbEntity
  8
DEFPOINTS
  6
BYBLOCK
 62
     0
100
AcDbPoint
 10
399.6695611422182
 20
241.1170478711068
 30
0.0
  0
POINT
  5
453
330
447
100
AcDbEntity
  8
DEFPOINTS
  6
BYBLOCK
 62
     0
100
AcDbPoint
 10
245.5534260192812
 20
241.1170478711068
 30
0.0
  0
ENDBLK
  5
454
330
447
100
AcDbEntity
  8
0
100
AcDbBlockEnd
  0
BLOCK
  5
60F
330
56F
100
AcDbEntity
  8
0
100
AcDbBlockBegin
  2
*D11
 70
     1
 10
0.0
 20
0.0
 30
0.0
  3
*D11
  1

  0
LINE
  5
610
330
56F
100
AcDbEntity
  8
0
  6
BYBLOCK
 62
     4
100
AcDbLine
 10
276.2678081440827
 20
293.8381284659588
 30
0.0
 11
276.2678081440827
 21
353.5725970786316
 31
0.0
  0
LINE
  5
611
330
56F
100
AcDbEntity
  8
0
  6
BYBLOCK
 62
     4
100
AcDbLine
 10
405.2679081440827
 20
324.1381284659589
 30
0.0
 11
405.2679081440827
 21
353.5725970786316
 31
0.0
  0
LINE
  5
612
330
56F
100
AcDbEntity
  8
0
  6
BYBLOCK
 62
     4
100
AcDbLine
 10
283.2678081440827
 20
350.5725970786315
 30
0.0
 11
398.2679081440828
 21
350.5725970786315
 31
0.0
  0
INSERT
  5
613
330
56F
100
AcDbEntity
  8
0
  6
BYBLOCK
 62
     4
100
AcDbBlockReference
  2
_OPEN
 10
276.2678081440827
 20
350.5725970786315
 30
0.0
 41
7.0
 42
7.0
 43
7.0
 50
180.0
  0
INSERT
  5
614
330
56F
100
AcDbEntity
  8
0
  6
BYBLOCK
 62
     4
100
AcDbBlockReference
  2
_OPEN
 10
405.2679081440827
 20
350.5725970786315
 30
0.0
 41
7.0
 42
7.0
 43
7.0
  0
MTEXT
  5
615
330
56F
100
AcDbEntity
  8
0
  6
BYBLOCK
 62
     4
100
AcDbMText
 10
340.7678581440827
 20
355.5725970786316
 30
0.0
 40
6.0
 41
0.0
 71
     5
 72
     5
  1
\A1;129
1001
ACAD
1000
MTEXTBEGIN
1070
    73
1070
     1
1070
    44
1040
1.0
1070
    74
1070
     0
1000
MTEXTEND
1000
MTEXTBEGIN
1070
    73
1070
     1
1070
    44
1040
1.0
1070
    74
1070
     0
1000
MTEXTEND
1000
MTEXTBEGIN
1070
    73
1070
     1
1070
    44
1040
1.0
1070
    74
1070
     0
1000
MTEXTEND
  0
POINT
  5
616
330
56F
100
AcDbEntity
  8
DEFPOINTS
  6
BYBLOCK
 62
     0
100
AcDbPoint
 10
276.2678081440827
 20
287.8381284659588
 30
0.0
  0
POINT
  5
617
330
56F
100
AcDbEntity
  8
DEFPOINTS
  6
BYBLOCK
 62
     0
100
AcDbPoint
 10
405.2679081440827
 20
318.1381284659589
 30
0.0
  0
POINT
  5
618
330
56F
100
AcDbEntity
  8
DEFPOINTS
  6
BYBLOCK
 62
     0
100
AcDbPoint
 10
405.2679081440827
 20
350.5725970786315
 30
0.0
  0
ENDBLK
  5
619
330
56F
100
AcDbEntity
  8
0
100
AcDbBlockEnd
  0
BLOCK
  5
602
330
587
100
AcDbEntity
  8
0
100
AcDbBlockBegin
  2
*D12
 70
     1
 10
0.0
 20
0.0
 30
0.0
  3
*D12
  1

  0
LINE
  5
603
330
587
100
AcDbEntity
  8
0
  6
BYBLOCK
 62
     4
100
AcDbLine
 10
394.0064556459494
 20
302.7038267138006
 30
0.0
 11
394.0064556459494
 21
338.941825383896
 31
0.0
  0
LINE
  5
604
330
587
100
AcDbEntity
  8
0
  6
BYBLOCK
 62
     4
100
AcDbLine
 10
405.2679081440827
 20
324.1381284659589
 30
0.0
 11
405.2679081440827
 21
338.941825383896
 31
0.0
  0
LINE
  5
605
330
587
100
AcDbEntity
  8
0
  6
BYBLOCK
 62
     4
100
AcDbLine
 10
387.0064556459494
 20
335.941825383896
 30
0.0
 11
380.0064556459494
 21
335.941825383896
 31
0.0
  0
LINE
  5
606
330
587
100
AcDbEntity
  8
0
  6
BYBLOCK
 62
     4
100
AcDbLine
 10
412.2679081440828
 20
335.941825383896
 30
0.0
 11
419.2679081440828
 21
335.941825383896
 31
0.0
  0
LINE
  5
607
330
587
100
AcDbEntity
  8
0
  6
BYBLOCK
 62
     4
100
AcDbLine
 10
394.0064556459494
 20
335.941825383896
 30
0.0
 11
405.2679081440827
 21
335.941825383896
 31
0.0
  0
INSERT
  5
608
330
587
100
AcDbEntity
  8
0
  6
BYBLOCK
 62
     4
100
AcDbBlockReference
  2
_OPEN
 10
394.0064556459494
 20
335.941825383896
 30
0.0
 41
7.0
 42
7.0
 43
7.0
  0
INSERT
  5
609
330
587
100
AcDbEntity
  8
0
  6
BYBLOCK
 62
     4
100
AcDbBlockReference
  2
_OPEN
 10
405.2679081440827
 20
335.941825383896
 30
0.0
 41
7.0
 42
7.0
 43
7.0
 50
180.0
  0
MTEXT
  5
60A
330
587
100
AcDbEntity
  8
0
  6
BYBLOCK
 62
     4
100
AcDbMText
 10
399.6371818950161
 20
340.941825383896
 30
0.0
 40
6.0
 41
0.0
 71
     5
 72
     5
  1
\A1;11
1001
ACAD
1000
MTEXTBEGIN
1070
    73
1070
     1
1070
    44
1040
1.0
1070
    74
1070
     0
1000
MTEXTEND
1000
MTEXTBEGIN
1070
    73
1070
     1
1070
    44
1040
1.0
1070
    74
1070
     0
1000
MTEXTEND
1000
MTEXTBEGIN
1070
    73
1070
     1
1070
    44
1040
1.0
1070
    74
1070
     0
1000
MTEXTEND
  0
POINT
  5
60B
330
587
100
AcDbEntity
  8
DEFPOINTS
  6
BYBLOCK
 62
     0
100
AcDbPoint
 10
394.0064556459494
 20
296.7038267138006
 30
0.0
  0
POINT
  5
60C
330
587
100
AcDbEntity
  8
DEFPOINTS
  6
BYBLOCK
 62
     0
100
AcDbPoint
 10
405.2679081440827
 20
318.1381284659589
 30
0.0
  0
POINT
  5
60D
330
587
100
AcDbEntity
  8
DEFPOINTS
  6
BYBLOCK
 62
     0
100
AcDbPoint
 10
405.2679081440827
 20
335.941825383896
 30
0.0
  0
ENDBLK
  5
60E
330
587
100
AcDbEntity
  8
0
100
AcDbBlockEnd
  0
BLOCK
  5
5ED
330
5B7
100
AcDbEntity
  8
0
100
AcDbBlockBegin
  2
*D13
 70
     1
 10
0.0
 20
0.0
 30
0.0
  3
*D13
  1

  0
LINE
  5
5EE
330
5B7
100
AcDbEntity
  8
0
  6
BYBLOCK
 62
     4
100
AcDbLine
 10
399.2679081440828
 20
264.5167284659588
 30
0.0
 11
399.2679081440828
 21
246.5096105531108
 31
0.0
  0
LINE
  5
5EF
330
5B7
100
AcDbEntity
  8
0
  6
BYBLOCK
 62
     4
100
AcDbLine
 10
405.2679081440827
 20
262.5167284659588
 30
0.0
 11
405.2679081440827
 21
246.5096105531108
 31
0.0
  0
LINE
  5
5F0
330
5B7
100
AcDbEntity
  8
0
  6
BYBLOCK
 62
     4
100
AcDbLine
 10
392.2679081440828
 20
249.5096105531108
 30
0.0
 11
385.2679081440827
 21
249.5096105531108
 31
0.0
  0
LINE
  5
5F1
330
5B7
100
AcDbEntity
  8
0
  6
BYBLOCK
 62
     4
100
AcDbLine
 10
412.2679081440828
 20
249.5096105531108
 30
0.0
 11
440.2679081440828
 21
249.5096105531108
 31
0.0
  0
LINE
  5
5F2
330
5B7
100
AcDbEntity
  8
0
  6
BYBLOCK
 62
     4
100
AcDbLine
 10
399.2679081440828
 20
249.5096105531108
 30
0.0
 11
405.2679081440827
 21
249.5096105531108
 31
0.0
  0
INSERT
  5
5F3
330
5B7
100
AcDbEntity
  8
0
  6
BYBLOCK
 62
     4
100
AcDbBlockReference
  2
_OPEN
 10
399.2679081440828
 20
249.5096105531108
 30
0.0
 41
7.0
 42
7.0
 43
7.0
  0
INSERT
  5
5F4
330
5B7
100
AcDbEntity
  8
0
  6
BYBLOCK
 62
     4
100
AcDbBlockReference
  2
_OPEN
 10
405.2679081440827
 20
249.5096105531108
 30
0.0
 41
7.0
 42
7.0
 43
7.0
 50
180.0
  0
MTEXT
  5
5F5
330
5B7
100
AcDbEntity
  8
0
  6
BYBLOCK
 62
     4
100
AcDbMText
 10
429.7679081440827
 20
254.5096105531108
 30
0.0
 40
6.0
 41
0.0
 71
     5
 72
     5
  1
\A1;t6.0
1001
ACAD
1000
MTEXTBEGIN
1070
    73
1070
     1
1070
    44
1040
1.0
1070
    74
1070
     0
1000
MTEXTEND
1000
MTEXTBEGIN
1070
    73
1070
     1
1070
    44
1040
1.0
1070
    74
1070
     0
1000
MTEXTEND
1000
MTEXTBEGIN
1070
    73
1070
     1
1070
    44
1040
1.0
1070
    74
1070
     0
1000
MTEXTEND
  0
POINT
  5
5F6
330
5B7
100
AcDbEntity
  8
DEFPOINTS
  6
BYBLOCK
 62
     0
100
AcDbPoint
 10
399.2679081440828
 20
270.5167284659588
 30
0.0
  0
POINT
  5
5F7
330
5B7
100
AcDbEntity
  8
DEFPOINTS
  6
BYBLOCK
 62
     0
100
AcDbPoint
 10
405.2679081440827
 20
268.5167284659588
 30
0.0
  0
POINT
  5
5F8
330
5B7
100
AcDbEntity
  8
DEFPOINTS
  6
BYBLOCK
 62
     0
100
AcDbPoint
 10
405.2679081440827
 20
249.5096105531108
 30
0.0
  0
ENDBLK
  5
5F9
330
5B7
100
AcDbEntity
  8
0
100
AcDbBlockEnd
  0
BLOCK
  5
630
330
626
100
AcDbEntity
  8
0
100
AcDbBlockBegin
  2
*D14
 70
     1
 10
0.0
 20
0.0
 30
0.0
  3
*D14
  1

  0
LINE
  5
662
330
626
100
AcDbEntity
  8
SUNPOU
 62
     4
100
AcDbLine
 10
274.1354556459493
 20
302.7038267138006
 30
0.0
 11
274.1354556459493
 21
371.5058367607407
 31
0.0
  0
LINE
  5
663
330
626
100
AcDbEntity
  8
SUNPOU
 62
     4
100
AcDbLine
 10
405.2679081440827
 20
324.1381284659589
 30
0.0
 11
405.2679081440827
 21
371.5058367607407
 31
0.0
  0
LINE
  5
664
330
626
100
AcDbEntity
  8
SUNPOU
 62
     4
100
AcDbLine
 10
281.1354556459493
 20
368.5058367607407
 30
0.0
 11
398.2679081440828
 21
368.5058367607407
 31
0.0
  0
INSERT
  5
665
330
626
100
AcDbEntity
  8
SUNPOU
 62
     4
100
AcDbBlockReference
  2
_OPEN
 10
274.1354556459493
 20
368.5058367607407
 30
0.0
 41
7.0
 42
7.0
 43
7.0
 50
180.0
  0
INSERT
  5
666
330
626
100
AcDbEntity
  8
SUNPOU
 62
     4
100
AcDbBlockReference
  2
_OPEN
 10
405.2679081440827
 20
368.5058367607407
 30
0.0
 41
7.0
 42
7.0
 43
7.0
  0
MTEXT
  5
667
330
626
100
AcDbEntity
  8
SUNPOU
 62
     4
100
AcDbMText
 10
339.7016818950161
 20
373.5058367607407
 30
0.0
 40
6.0
 41
0.0
 71
     5
 72
     5
  1
\A1;131
1001
ACAD
1000
MTEXTBEGIN
1070
    73
1070
     1
1070
    44
1040
1.0
1070
    74
1070
     0
1000
MTEXTEND
1000
MTEXTBEGIN
1070
    73
1070
     1
1070
    44
1040
1.0
1070
    74
1070
     0
1000
MTEXTEND
  0
POINT
  5
668
330
626
100
AcDbEntity
  8
DEFPOINTS
 62
     0
100
AcDbPoint
 10
274.1354556459493
 20
296.7038267138006
 30
0.0
  0
POINT
  5
669
330
626
100
AcDbEntity
  8
DEFPOINTS
 62
     0
100
AcDbPoint
 10
405.2679081440827
 20
318.1381284659589
 30
0.0
  0
POINT
  5
66A
330
626
100
AcDbEntity
  8
DEFPOINTS
 62
     0
100
AcDbPoint
 10
405.2679081440827
 20
368.5058367607407
 30
0.0
  0
ENDBLK
  5
631
330
626
100
AcDbEntity
  8
0
100
AcDbBlockEnd
  0
ENDSEC
  0
SECTION
  2
ENTITIES
  0
DIMENSION
  5
256
330
1A
100
AcDbEntity
  8
SUNPOU
100
AcDbDimension
  2
*D1
 10
436.9361215485274
 20
268.5167284659588
 30
0.0
 11
431.9361215485274
 21
293.3274284659588
 31
0.0
 12
-1.217752998135438
 22
77.02108059485204
 32
0.0
 70
    32
  3
STANDARD
100
AcDbAlignedDimension
 13
405.2679081440827
 23
318.1381284659589
 33
0.0
 14
405.2679081440827
 24
268.5167284659588
 34
0.0
 50
90.0
100
AcDbRotatedDimension
1001
ACAD
1000
DSTYLE
1002
{
1070
   140
1040
6.0
1070
    74
1070
     0
1070
   172
1070
     1
1070
    73
1070
     0
1070
   272
1070
     2
1070
    77
1070
     3
1070
   173
1070
     1
1070
   147
1040
2.0
1070
    42
1040
6.0
1070
    44
1040
3.0
1070
    43
1040
14.0
1070
   271
1070
     0
1070
   178
1070
     4
1070
   177
1070
     4
1070
   176
1070
     4
1070
   141
1040
150.0
1070
     7
1000
_OPEN
1070
     6
1000
_OPEN
1070
    41
1040
7.0
1002
}
  0
LINE
  5
258
330
1A
100
AcDbEntity
  8
SEIHIN
  6
CONTINUOUS
 62
     3
 48
16.0
100
AcDbLine
 10
407.9357657241507
 20
392.6572815363213
 30
0.0
 11
407.9357657241507
 21
424.1571815363212
 31
0.0
  0
LINE
  5
259
330
1A
100
AcDbEntity
  8
SEIHIN
  6
CONTINUOUS
 62
     3
 48
16.0
100
AcDbLine
 10
403.9357657241507
 20
392.6572815363213
 30
0.0
 11
403.9357657241507
 21
409.1572815363212
 31
0.0
  0
LINE
  5
25A
330
1A
100
AcDbEntity
  8
SEIHIN
  6
CONTINUOUS
 62
     3
 48
16.0
100
AcDbLine
 10
401.9357657241506
 20
394.6572815363213
 30
0.0
 11
401.9357657241506
 21
409.1572815363212
 31
0.0
  0
ARC
  5
260
330
1A
100
AcDbEntity
  8
NOKITOI
  6
PHANTOM
 62
     8
 48
5.0
100
AcDbCircle
 10
325.8845394194919
 20
286.7663411901706
 30
0.0
 40
43.00001447645168
100
AcDbArc
 50
186.524910707118
 51
269.999888375144
  0
ARC
  5
261
330
1A
100
AcDbEntity
  8
NOKITOI
  6
PHANTOM
 62
     8
 48
5.0
100
AcDbCircle
 10
325.8845617279171
 20
286.7663210891441
 30
0.0
 40
41.79999437547816
100
AcDbArc
 50
184.474295212525
 51
269.9998545921086
  0
LINE
  5
262
330
1A
100
AcDbEntity
  8
SEIHIN
  6
CONTINUOUS
 62
     3
 48
16.0
100
AcDbLine
 10
282.9679081440827
 20
289.1381284659588
 30
0.0
 11
349.1657081440826
 21
289.1381284659588
 31
0.0
  0
LINE
  5
263
330
1A
100
AcDbEntity
  8
SEIHIN
  6
CONTINUOUS
 62
     3
 48
16.0
100
AcDbLine
 10
284.2678081440827
 20
284.8381284659589
 30
0.0
 11
361.7679081440828
 21
275.6381284659588
 31
0.0
  0
ARC
  5
264
330
1A
100
AcDbEntity
  8
NOKITOI
  6
PHANTOM
 62
     8
 48
5.0
100
AcDbCircle
 10
276.0248916051002
 20
284.2662918596573
 30
0.0
 40
1.499965146287778
100
AcDbArc
 50
181.7866280217767
 51
269.9986264296976
  0
LINE
  5
265
330
1A
100
AcDbEntity
  8
NOKITOI
  6
PHANTOM
 62
     8
 48
5.0
100
AcDbLine
 10
276.0248556459493
 20
282.7663267138006
 30
0.0
 11
282.1695556459493
 21
282.7663267138006
 31
0.0
  0
ARC
  5
266
330
1A
100
AcDbEntity
  8
NOKITOI
  6
PHANTOM
 62
     8
 48
5.0
100
AcDbCircle
 10
282.1695472217867
 20
281.766334228857
 30
0.0
 40
0.9999924849789756
100
AcDbArc
 50
6.528264606674428
 51
89.99951732740891
  0
LINE
  5
267
330
1A
100
AcDbEntity
  8
NOKITOI
  6
PHANTOM
 62
     8
 48
5.0
100
AcDbLine
 10
282.5959556459494
 20
289.7401267138004
 30
0.0
 11
282.9117556459492
 21
295.7400267138006
 31
0.0
  0
LINE
  5
268
330
1A
100
AcDbEntity
  8
NOKITOI
  6
PHANTOM
 62
     8
 48
5.0
100
AcDbLine
 10
275.3348556459493
 20
296.7413267138005
 30
0.0
 11
275.4842556459492
 21
291.9624267138006
 31
0.0
  0
LINE
  5
269
330
1A
100
AcDbEntity
  8
NOKITOI
  6
PHANTOM
 62
     8
 48
5.0
100
AcDbLine
 10
280.0479556459494
 20
293.9663267138005
 30
0.0
 11
281.0437556459493
 21
295.0663267138006
 31
0.0
  0
LINE
  5
26A
330
1A
100
AcDbEntity
  8
NOKITOI
  6
PHANTOM
 62
     8
 48
5.0
100
AcDbLine
 10
274.1354556459493
 20
296.7038267138006
 30
0.0
 11
274.5256556459493
 21
284.2195267138005
 31
0.0
  0
LINE
  5
26B
330
1A
100
AcDbEntity
  8
NOKITOI
  6
PHANTOM
 62
     8
 48
5.0
100
AcDbLine
 10
280.6545556459493
 20
290.4663267138006
 30
0.0
 11
281.0586556459492
 21
293.2947267138004
 31
0.0
  0
LINE
  5
26C
330
1A
100
AcDbEntity
  8
NOKITOI
  6
PHANTOM
 62
     8
 48
5.0
100
AcDbLine
 10
281.4324556459494
 20
290.4663267138006
 30
0.0
 11
280.6545556459493
 21
290.4663267138006
 31
0.0
  0
LINE
  5
26D
330
1A
100
AcDbEntity
  8
NOKITOI
  6
PHANTOM
 62
     8
 48
5.0
100
AcDbLine
 10
282.0965556459492
 20
289.2663267138006
 30
0.0
 11
279.8474556459492
 21
289.2663267138006
 31
0.0
  0
LINE
  5
26E
330
1A
100
AcDbEntity
  8
NOKITOI
  6
PHANTOM
 62
     8
 48
5.0
100
AcDbLine
 10
283.7134556459493
 20
283.9663267138005
 30
0.0
 11
277.6725556459493
 21
283.9663267138005
 31
0.0
  0
ARC
  5
26F
330
1A
100
AcDbEntity
  8
SEIHIN
  6
CONTINUOUS
 62
     3
 48
16.0
100
AcDbCircle
 10
280.9679208683247
 20
292.8879291452437
 30
0.0
 40
4.249771082082475
100
AcDbArc
 50
248.0389576229232
 51
298.0724105654601
  0
LINE
  5
270
330
1A
100
AcDbEntity
  8
SEIHIN
  6
CONTINUOUS
 62
     3
 48
16.0
100
AcDbLine
 10
279.2678081440827
 20
284.8381284659589
 30
0.0
 11
284.2678081440827
 21
284.8381284659589
 31
0.0
  0
LINE
  5
271
330
1A
100
AcDbEntity
  8
NOKITOI
  6
PHANTOM
 62
     8
 48
5.0
100
AcDbLine
 10
279.3525556459493
 20
289.8371267138006
 30
0.0
 11
279.6862556459493
 21
292.1733267138006
 31
0.0
  0
ARC
  5
272
330
1A
100
AcDbEntity
  8
NOKITOI
  6
PHANTOM
 62
     8
 48
5.0
100
AcDbCircle
 10
279.5860935273959
 20
288.7663704963259
 30
0.0
 40
3.999989731271038
100
AcDbArc
 50
96.47731142013144
 51
181.7899836067308
  0
LINE
  5
273
330
1A
100
AcDbEntity
  8
NOKITOI
  6
PHANTOM
 62
     8
 48
5.0
100
AcDbLine
 10
275.6735556459492
 20
285.9039267138006
 30
0.0
 11
275.5880556459493
 21
288.6414267138004
 31
0.0
  0
ARC
  5
274
330
1A
100
AcDbEntity
  8
NOKITOI
  6
PHANTOM
 62
     8
 48
5.0
100
AcDbCircle
 10
279.8474822465467
 20
289.7662960369184
 30
0.0
 40
0.4999693238254178
100
AcDbArc
 50
171.8555038770532
 51
269.9969516090348
  0
ARC
  5
275
330
1A
100
AcDbEntity
  8
NOKITOI
  6
PHANTOM
 62
     8
 48
5.0
100
AcDbCircle
 10
279.1912698643646
 20
292.2440120794996
 30
0.0
 40
0.5000073448410256
100
AcDbArc
 50
351.8729478641243
 51
96.47829282996843
  0
LINE
  5
276
330
1A
100
AcDbEntity
  8
NOKITOI
  6
PHANTOM
 62
     8
 48
5.0
100
AcDbLine
 10
280.0479556459494
 20
293.9663267138005
 30
0.0
 11
279.5860556459492
 21
293.9663267138005
 31
0.0
  0
ARC
  5
277
330
1A
100
AcDbEntity
  8
NOKITOI
  6
PHANTOM
 62
     8
 48
5.0
100
AcDbCircle
 10
279.5861758586184
 20
288.7663854421806
 30
0.0
 40
5.2000412730095
100
AcDbArc
 50
90.00132454306161
 51
142.0757990790561
  0
ARC
  5
278
330
1A
100
AcDbEntity
  8
NOKITOI
  6
PHANTOM
 62
     8
 48
5.0
100
AcDbCircle
 10
277.6725692180875
 20
285.966313558714
 30
0.0
 40
1.999986844959662
100
AcDbArc
 50
181.7875531852363
 51
269.9996111843223
  0
LINE
  5
279
330
1A
100
AcDbEntity
  8
SEIHIN
  6
CONTINUOUS
 62
     3
 48
16.0
100
AcDbLine
 10
276.2678081440827
 20
289.1381284659588
 30
0.0
 11
276.2678081440827
 21
287.8381284659588
 31
0.0
  0
LINE
  5
27A
330
1A
100
AcDbEntity
  8
SEIHIN
  6
CONTINUOUS
 62
     3
 48
16.0
100
AcDbLine
 10
278.9678081440827
 20
292.6381284659588
 30
0.0
 11
279.3050081440827
 21
292.6381284659588
 31
0.0
  0
LINE
  5
27B
330
1A
100
AcDbEntity
  8
SEIHIN
  6
CONTINUOUS
 62
     3
 48
16.0
100
AcDbLine
 10
279.7858081440827
 20
292.0008284659589
 30
0.0
 11
279.0848081440827
 21
289.5476284659588
 31
0.0
  0
LINE
  5
27C
330
1A
100
AcDbEntity
  8
SEIHIN
  6
CONTINUOUS
 62
     3
 48
16.0
100
AcDbLine
 10
279.0848081440827
 20
289.5476284659588
 30
0.0
 11
276.2810081440828
 21
289.5476284659588
 31
0.0
  0
ARC
  5
27E
330
1A
100
AcDbEntity
  8
SEIHIN
  6
CONTINUOUS
 62
     3
 48
16.0
100
AcDbCircle
 10
279.7665749988168
 20
289.2304855003966
 30
0.0
 40
3.499985617912767
100
AcDbArc
 50
103.190619234147
 51
181.5120869528075
  0
ARC
  5
27F
330
1A
100
AcDbEntity
  8
SEIHIN
  6
CONTINUOUS
 62
     3
 48
16.0
100
AcDbCircle
 10
279.3049793929999
 20
292.138166578864
 30
0.0
 40
0.4999618879215084
100
AcDbArc
 50
344.0560320448883
 51
89.99670511744914
  0
ARC
  5
280
330
1A
100
AcDbEntity
  8
SEIHIN
  6
CONTINUOUS
 62
     3
 48
16.0
100
AcDbCircle
 10
279.5655882238891
 20
289.4102692286391
 30
0.0
 40
0.5000170449251701
100
AcDbArc
 50
164.0553202355212
 51
248.0407286048614
  0
ARC
  5
281
330
1A
100
AcDbEntity
  8
SEIHIN
  6
CONTINUOUS
 62
     3
 48
16.0
100
AcDbCircle
 10
279.2678081440827
 20
287.8381284659588
 30
0.0
 40
3.0
100
AcDbArc
 50
180.0
 51
270.0
  0
LINE
  5
282
330
1A
100
AcDbEntity
  8
NOKITOI
  6
PHANTOM
 62
     8
 48
5.0
100
AcDbLine
 10
281.4324556459494
 20
290.4663267138006
 30
0.0
 11
281.6136556459492
 21
293.9078267138006
 31
0.0
  0
LINE
  5
283
330
1A
100
AcDbEntity
  8
NOKITOI
  6
PHANTOM
 62
     8
 48
5.0
100
AcDbLine
 10
281.0586556459492
 20
293.2947267138004
 30
0.0
 11
281.6136556459492
 21
293.9078267138006
 31
0.0
  0
ARC
  5
284
330
1A
100
AcDbEntity
  8
NOKITOI
  6
PHANTOM
 62
     8
 48
5.0
100
AcDbCircle
 10
282.0965487589544
 20
289.7663201787151
 30
0.0
 40
0.499993464961963
100
AcDbArc
 50
270.0007892017873
 51
356.9970361317427
  0
ARC
  5
285
330
1A
100
AcDbEntity
  8
NOKITOI
  6
PHANTOM
 62
     8
 48
5.0
100
AcDbCircle
 10
283.7134682156577
 20
283.4663150890708
 30
0.0
 40
0.5000116248877111
100
AcDbArc
 50
4.474846808342897
 51
90.00144034898337
  0
LINE
  5
286
330
1A
100
AcDbEntity
  8
NOKITOI
  6
PHANTOM
 62
     8
 48
5.0
100
AcDbLine
 10
278.1072556459494
 20
295.0663267138006
 30
0.0
 11
281.0437556459493
 21
295.0663267138006
 31
0.0
  0
LINE
  5
287
330
1A
100
AcDbEntity
  8
NOKITOI
  6
PHANTOM
 62
     8
 48
5.0
100
AcDbLine
 10
282.4123556459492
 20
296.2663267138005
 30
0.0
 11
280.1808556459493
 21
296.2663267138005
 31
0.0
  0
LINE
  5
288
330
1A
100
AcDbEntity
  8
NOKITOI
  6
PHANTOM
 62
     8
 48
5.0
100
AcDbLine
 10
276.1344556459492
 20
298.7663267138005
 30
0.0
 11
279.4610556459494
 21
298.7663267138005
 31
0.0
  0
LINE
  5
289
330
1A
100
AcDbEntity
  8
NOKITOI
  6
PHANTOM
 62
     8
 48
5.0
100
AcDbLine
 10
278.6072556459493
 20
297.5663267138006
 30
0.0
 11
278.1072556459494
 21
295.0663267138006
 31
0.0
  0
ARC
  5
28A
330
1A
100
AcDbEntity
  8
NOKITOI
  6
PHANTOM
 62
     8
 48
5.0
100
AcDbCircle
 10
276.1344683967995
 20
296.766339868887
 30
0.0
 40
1.999986844954076
100
AcDbArc
 50
90.00036528735526
 51
181.7883072882699
  0
LINE
  5
28B
330
1A
100
AcDbEntity
  8
NOKITOI
  6
PHANTOM
 62
     8
 48
5.0
100
AcDbLine
 10
276.1344556459492
 20
297.5663267138006
 30
0.0
 11
278.6072556459493
 21
297.5663267138006
 31
0.0
  0
ARC
  5
28C
330
1A
100
AcDbEntity
  8
NOKITOI
  6
PHANTOM
 62
     8
 48
5.0
100
AcDbCircle
 10
276.1344601407471
 20
296.7663313513274
 30
0.0
 40
0.7999953624857498
100
AcDbArc
 50
90.00032191805336
 51
181.7911273464199
  0
ARC
  5
28D
330
1A
100
AcDbEntity
  8
NOKITOI
  6
PHANTOM
 62
     8
 48
5.0
100
AcDbCircle
 10
280.1808483913936
 20
296.7663355636438
 30
0.0
 40
0.5000088498959383
100
AcDbArc
 50
168.6864043304884
 51
270.0008312961434
  0
LINE
  5
28E
330
1A
100
AcDbEntity
  8
NOKITOI
  6
PHANTOM
 62
     8
 48
5.0
100
AcDbLine
 10
279.6905556459494
 20
296.8644267138005
 30
0.0
 11
279.9513556459491
 21
298.1683267138005
 31
0.0
  0
ARC
  5
28F
330
1A
100
AcDbEntity
  8
NOKITOI
  6
PHANTOM
 62
     8
 48
5.0
100
AcDbCircle
 10
279.4610548629411
 20
298.2663276688023
 30
0.0
 40
0.4999990449987349
100
AcDbArc
 50
348.6967198015448
 51
89.99991027369452
  0
ARC
  5
290
330
1A
100
AcDbEntity
  8
NOKITOI
  6
PHANTOM
 62
     8
 48
5.0
100
AcDbCircle
 10
282.4123494447915
 20
295.7663332488858
 30
0.0
 40
0.4999934649531607
100
AcDbArc
 50
356.9955363203384
 51
89.99928939038005
  0
LINE
  5
291
330
1A
100
AcDbEntity
  8
SEIHIN
  6
CONTINUOUS
 62
     3
 48
16.0
100
AcDbLine
 10
405.2679081440827
 20
318.1381284659589
 30
0.0
 11
405.2679081440827
 21
268.5167284659588
 31
0.0
  0
LINE
  5
292
330
1A
100
AcDbEntity
  8
SEIHIN
  6
CONTINUOUS
 62
     3
 48
16.0
100
AcDbLine
 10
401.2679081440827
 20
268.5167284659588
 30
0.0
 11
401.2679081440827
 21
318.1381284659589
 31
0.0
  0
LINE
  5
293
330
1A
100
AcDbEntity
  8
SEIHIN
  6
CONTINUOUS
 62
     3
 48
16.0
100
AcDbLine
 10
399.2679081440828
 20
316.1381284659589
 30
0.0
 11
399.2679081440828
 21
299.1381284659589
 31
0.0
  0
LINE
  5
294
330
1A
100
AcDbEntity
  8
SEIHIN
  6
CONTINUOUS
 62
     3
 48
16.0
100
AcDbLine
 10
384.2392081440828
 20
311.5461284659588
 30
0.0
 11
367.6189081440828
 21
289.5355284659588
 31
0.0
  0
LINE
  5
295
330
1A
100
AcDbEntity
  8
SEIHIN
  6
CONTINUOUS
 62
     3
 48
16.0
100
AcDbLine
 10
383.3657081440828
 20
306.2407284659589
 30
0.0
 11
389.6357081440827
 21
314.5442284659588
 31
0.0
  0
ARC
  5
296
330
1A
100
AcDbEntity
  8
SEIHIN
  6
CONTINUOUS
 62
     3
 48
16.0
100
AcDbCircle
 10
398.4517425125582
 20
268.1380957837301
 30
0.0
 40
50.00003268227185
100
AcDbArc
 50
89.99992479186202
 51
142.9433574101588
  0
ARC
  5
297
330
1A
100
AcDbEntity
  8
SEIHIN
  6
CONTINUOUS
 62
     3
 48
16.0
100
AcDbCircle
 10
396.2679081440828
 20
307.6381284659588
 30
0.0
 40
3.000000000000028
100
AcDbArc
 50
270.0000000000005
 51
0.0000000000005428
  0
ARC
  5
298
330
1A
100
AcDbEntity
  8
SEIHIN
  6
CONTINUOUS
 62
     3
 48
16.0
100
AcDbCircle
 10
398.4518228757849
 20
268.1381391253345
 30
0.0
 40
47.50003672962011
100
AcDbArc
 50
108.832855256775
 51
142.943712806635
  0
LINE
  5
299
330
1A
100
AcDbEntity
  8
NOKITOI
  6
PHANTOM
 62
     8
 48
5.0
100
AcDbLine
 10
366.4641556459493
 20
244.9662267138005
 30
0.0
 11
346.5560556459494
 21
244.9662267138005
 31
0.0
  0
LINE
  5
29A
330
1A
100
AcDbEntity
  8
NOKITOI
  6
PHANTOM
 62
     8
 48
5.0
100
AcDbLine
 10
366.7139556459494
 20
243.7662267138005
 30
0.0
 11
346.5560556459494
 21
243.7662267138005
 31
0.0
  0
LINE
  5
29B
330
1A
100
AcDbEntity
  8
NOKITOI
  6
PHANTOM
 62
     8
 48
5.0
100
AcDbLine
 10
370.7139556459494
 20
243.7662267138005
 30
0.0
 11
325.8845556459492
 21
243.7663267138006
 31
0.0
  0
LINE
  5
29C
330
1A
100
AcDbEntity
  8
NOKITOI
  6
PHANTOM
 62
     8
 48
5.0
100
AcDbLine
 10
325.8845556459492
 20
244.9663267138006
 30
0.0
 11
370.4641556459493
 21
244.9662267138005
 31
0.0
  0
LINE
  5
29D
330
1A
100
AcDbEntity
  8
SEIHIN
  6
CONTINUOUS
 62
     3
 48
16.0
100
AcDbLine
 10
358.5497081440826
 20
298.2683284659588
 30
0.0
 11
353.1559081440826
 21
291.1251284659589
 31
0.0
  0
LINE
  5
29E
330
1A
100
AcDbEntity
  8
SEIHIN
  6
CONTINUOUS
 62
     3
 48
16.0
100
AcDbLine
 10
363.4229081440827
 20
286.6381284659588
 30
0.0
 11
307.2194081440828
 21
286.6381284659588
 31
0.0
  0
LINE
  5
29F
330
1A
100
AcDbEntity
  8
SEIHIN
  6
CONTINUOUS
 62
     3
 48
16.0
100
AcDbLine
 10
358.6815081440826
 20
278.5221284659589
 30
0.0
 11
307.1016081440827
 21
284.6451284659588
 31
0.0
  0
ARC
  5
2A0
330
1A
100
AcDbEntity
  8
SEIHIN
  6
CONTINUOUS
 62
     3
 48
16.0
100
AcDbCircle
 10
307.2194088922906
 20
285.6381411136188
 30
0.0
 40
0.9999873523403152
100
AcDbArc
 50
90.00004286968826
 51
263.2289497309804
  0
LINE
  5
2A1
330
1A
100
AcDbEntity
  8
SEIHIN
  6
CONTINUOUS
 62
     3
 48
16.0
100
AcDbLine
 10
345.1657081440826
 20
289.1381284659588
 30
0.0
 11
333.3651081440827
 21
289.1381284659588
 31
0.0
  0
ARC
  5
2A2
330
1A
100
AcDbEntity
  8
SEIHIN
  6
CONTINUOUS
 62
     3
 48
16.0
100
AcDbCircle
 10
349.1656945929558
 20
294.1381217179497
 30
0.0
 40
4.999993252009281
100
AcDbArc
 50
270.000155284684
 51
322.9437017475617
  0
LINE
  5
2A3
330
1A
100
AcDbEntity
  8
NOKITOI
  6
PHANTOM
 62
     8
 48
5.0
100
AcDbLine
 10
384.9809556459493
 20
281.8658267138005
 30
0.0
 11
382.1121556459492
 21
253.1784267138005
 31
0.0
  0
LINE
  5
2A4
330
1A
100
AcDbEntity
  8
NOKITOI
  6
PHANTOM
 62
     8
 48
5.0
100
AcDbLine
 10
383.9399556459491
 20
283.5161267138006
 30
0.0
 11
380.9469556459493
 21
253.5863267138005
 31
0.0
  0
ARC
  5
2A5
330
1A
100
AcDbEntity
  8
NOKITOI
  6
PHANTOM
 62
     8
 48
5.0
100
AcDbCircle
 10
370.713948713372
 20
244.7662242387944
 30
0.0
 40
0.9999975250179316
100
AcDbArc
 50
270.0003972084043
 51
309.2946416752298
  0
LINE
  5
2A6
330
1A
100
AcDbEntity
  8
NOKITOI
  6
PHANTOM
 62
     8
 48
5.0
100
AcDbLine
 10
380.7660556459493
 20
253.2490267138005
 30
0.0
 11
370.7807556459493
 21
245.0792267138004
 31
0.0
  0
ARC
  5
2A7
330
1A
100
AcDbEntity
  8
NOKITOI
  6
PHANTOM
 62
     8
 48
5.0
100
AcDbCircle
 10
370.4641620336978
 20
245.4662289937902
 30
0.0
 40
0.5000022800304047
100
AcDbArc
 50
269.9992680212786
 51
309.2854498596058
  0
LINE
  5
2A8
330
1A
100
AcDbEntity
  8
NOKITOI
  6
PHANTOM
 62
     8
 48
5.0
100
AcDbLine
 10
381.7503556459493
 20
252.5039267138006
 30
0.0
 11
371.3472556459493
 21
243.9922267138006
 31
0.0
  0
ARC
  5
2A9
330
1A
100
AcDbEntity
  8
NOKITOI
  6
PHANTOM
 62
     8
 48
5.0
100
AcDbCircle
 10
380.4494382200712
 20
253.6359942274126
 30
0.0
 40
0.4999904508696396
100
AcDbArc
 50
309.2900846377958
 51
354.2990110749245
  0
ARC
  5
2AA
330
1A
100
AcDbEntity
  8
NOKITOI
  6
PHANTOM
 62
     8
 48
5.0
100
AcDbCircle
 10
381.1171330730802
 20
253.2778846421279
 30
0.0
 40
0.9999908507640039
100
AcDbArc
 50
309.2887092230696
 51
354.2862329477531
  0
LINE
  5
2AB
330
1A
100
AcDbEntity
  8
NOKITOI
  6
PHANTOM
 62
     8
 48
5.0
100
AcDbLine
 10
390.0347556459492
 20
295.0663267138006
 30
0.0
 11
387.0981556459493
 21
295.0663267138006
 31
0.0
  0
LINE
  5
2AC
330
1A
100
AcDbEntity
  8
NOKITOI
  6
PHANTOM
 62
     8
 48
5.0
100
AcDbLine
 10
385.7295556459493
 20
296.2663267138005
 30
0.0
 11
387.9610556459493
 21
296.2663267138005
 31
0.0
  0
LINE
  5
2AD
330
1A
100
AcDbEntity
  8
NOKITOI
  6
PHANTOM
 62
     8
 48
5.0
100
AcDbLine
 10
387.4873556459492
 20
290.4663267138006
 30
0.0
 11
387.0833556459492
 21
293.2947267138004
 31
0.0
  0
LINE
  5
2AE
330
1A
100
AcDbEntity
  8
NOKITOI
  6
PHANTOM
 62
     8
 48
5.0
100
AcDbLine
 10
386.7094556459493
 20
290.4663267138006
 30
0.0
 11
387.4873556459492
 21
290.4663267138006
 31
0.0
  0
LINE
  5
2AF
330
1A
100
AcDbEntity
  8
NOKITOI
  6
PHANTOM
 62
     8
 48
5.0
100
AcDbLine
 10
386.0453556459493
 20
289.2663267138006
 30
0.0
 11
388.2944556459491
 21
289.2663267138006
 31
0.0
  0
LINE
  5
2B0
330
1A
100
AcDbEntity
  8
NOKITOI
  6
PHANTOM
 62
     8
 48
5.0
100
AcDbLine
 10
388.0939556459494
 20
293.9663267138005
 30
0.0
 11
387.0981556459493
 21
295.0663267138006
 31
0.0
  0
LINE
  5
2B1
330
1A
100
AcDbEntity
  8
NOKITOI
  6
PHANTOM
 62
     8
 48
5.0
100
AcDbLine
 10
384.4374556459492
 20
283.9663267138005
 30
0.0
 11
390.4693556459493
 21
283.9663267138005
 31
0.0
  0
LINE
  5
2B2
330
1A
100
AcDbEntity
  8
NOKITOI
  6
PHANTOM
 62
     8
 48
5.0
100
AcDbLine
 10
392.1170556459491
 20
282.7663267138006
 30
0.0
 11
385.9759556459493
 21
282.7663267138006
 31
0.0
  0
LINE
  5
2B3
330
1A
100
AcDbEntity
  8
SEIHIN
  6
CONTINUOUS
 62
     3
 48
16.0
100
AcDbLine
 10
396.2679081440828
 20
304.6381284659588
 30
0.0
 11
384.1638081440826
 21
304.6381284659588
 31
0.0
  0
ARC
  5
2B4
330
1A
100
AcDbEntity
  8
SEIHIN
  6
CONTINUOUS
 62
     3
 48
16.0
100
AcDbCircle
 10
390.2272018421742
 20
282.1381253278343
 30
0.0
 40
20.00000313812547
100
AcDbArc
 50
89.9999819463648
 51
142.9432997870773
  0
LINE
  5
2B5
330
1A
100
AcDbEntity
  8
SEIHIN
  6
CONTINUOUS
 62
     3
 48
16.0
100
AcDbLine
 10
387.3001081440828
 20
282.5405284659589
 30
0.0
 11
397.9131081440826
 21
278.5131284659588
 31
0.0
  0
LINE
  5
2B6
330
1A
100
AcDbEntity
  8
SEIHIN
  6
CONTINUOUS
 62
     3
 48
16.0
100
AcDbLine
 10
398.8167081440828
 20
271.4343284659589
 30
0.0
 11
385.9447081440826
 21
279.8842284659589
 31
0.0
  0
ARC
  5
2B7
330
1A
100
AcDbEntity
  8
SEIHIN
  6
CONTINUOUS
 62
     3
 48
16.0
100
AcDbCircle
 10
377.4264289106943
 20
281.9353627145614
 30
0.0
 40
2.000053422885224
100
AcDbArc
 50
92.68007828282756
 51
204.8602159645713
  0
LINE
  5
2B8
330
1A
100
AcDbEntity
  8
SEIHIN
  6
CONTINUOUS
 62
     3
 48
16.0
100
AcDbLine
 10
378.1651081440827
 20
286.6653284659589
 30
0.0
 11
379.7232081440826
 21
281.1653284659588
 31
0.0
  0
LINE
  5
2B9
330
1A
100
AcDbEntity
  8
SEIHIN
  6
CONTINUOUS
 62
     3
 48
16.0
100
AcDbLine
 10
364.2210081440828
 20
285.0355284659589
 30
0.0
 11
359.5974081440828
 21
278.9125284659589
 31
0.0
  0
LINE
  5
2BA
330
1A
100
AcDbEntity
  8
SEIHIN
  6
CONTINUOUS
 62
     3
 48
16.0
100
AcDbLine
 10
363.4284081440826
 20
279.8371284659588
 30
0.0
 11
374.2663081440828
 21
294.1902284659589
 31
0.0
  0
LINE
  5
2BB
330
1A
100
AcDbEntity
  8
SEIHIN
  6
CONTINUOUS
 62
     3
 48
16.0
100
AcDbLine
 10
361.7679081440828
 20
275.6381284659588
 30
0.0
 11
379.2672081440828
 21
280.3606284659589
 31
0.0
  0
LINE
  5
2BC
330
1A
100
AcDbEntity
  8
SEIHIN
  6
CONTINUOUS
 62
     3
 48
16.0
100
AcDbLine
 10
364.4522081440828
 20
278.2604284659589
 30
0.0
 11
375.4754081440826
 21
280.8156284659588
 31
0.0
  0
ARC
  5
2BD
330
1A
100
AcDbEntity
  8
SEIHIN
  6
CONTINUOUS
 62
     3
 48
16.0
100
AcDbCircle
 10
358.7993995281979
 20
279.5151247935431
 30
0.0
 40
0.9999700420734848
100
AcDbArc
 50
263.2293722774602
 51
322.9426307700332
  0
ARC
  5
2BE
330
1A
100
AcDbEntity
  8
SEIHIN
  6
CONTINUOUS
 62
     3
 48
16.0
100
AcDbCircle
 10
364.2263973808436
 20
279.2345450420963
 30
0.0
 40
0.9999468009350749
100
AcDbArc
 50
142.9425516661898
 51
283.0512651047669
  0
ARC
  5
2BF
330
1A
100
AcDbEntity
  8
SEIHIN
  6
CONTINUOUS
 62
     3
 48
16.0
100
AcDbCircle
 10
375.4301863546599
 20
281.0104838976487
 30
0.0
 40
0.2000341208335173
100
AcDbArc
 50
283.0658282482734
 51
24.84413134547105
  0
ARC
  5
2C0
330
1A
100
AcDbEntity
  8
NOKITOI
  6
PHANTOM
 62
     8
 48
5.0
100
AcDbCircle
 10
385.9759762957904
 20
281.7663454016498
 30
0.0
 40
0.9999813123640345
100
AcDbArc
 50
90.00118317084957
 51
174.290590033351
  0
ARC
  5
2C1
330
1A
100
AcDbEntity
  8
SEIHIN
  6
CONTINUOUS
 62
     3
 48
16.0
100
AcDbCircle
 10
386.7679081440827
 20
281.1381284659589
 30
0.0
 40
1.499987533281556
100
AcDbArc
 50
69.2186319444789
 51
249.2186319444764
  0
ARC
  5
2C2
330
1A
100
AcDbEntity
  8
SEIHIN
  6
CONTINUOUS
 62
     3
 48
16.0
100
AcDbCircle
 10
379.0978274358542
 20
280.9881625133705
 30
0.0
 40
0.6499913883897915
100
AcDbArc
 50
285.1050235239369
 51
15.8170526569315
  0
LINE
  5
2C3
330
1A
100
AcDbEntity
  8
SEIHIN
  6
CONTINUOUS
 62
     3
 48
16.0
100
AcDbLine
 10
355.9983081440827
 20
290.7407284659589
 30
0.0
 11
360.5448081440826
 21
296.7617284659589
 31
0.0
  0
LINE
  5
2C4
330
1A
100
AcDbEntity
  8
SEIHIN
  6
CONTINUOUS
 62
     3
 48
16.0
100
AcDbLine
 10
356.7964081440828
 20
289.1381284659588
 30
0.0
 11
366.8209081440828
 21
289.1381284659588
 31
0.0
  0
ARC
  5
2C5
330
1A
100
AcDbEntity
  8
SEIHIN
  6
CONTINUOUS
 62
     3
 48
16.0
100
AcDbCircle
 10
356.7963968935159
 20
290.1381510579485
 30
0.0
 40
1.000022592052932
100
AcDbArc
 50
142.9462625565139
 51
270.0006445954393
  0
ARC
  5
2C6
330
1A
100
AcDbEntity
  8
SEIHIN
  6
CONTINUOUS
 62
     3
 48
16.0
100
AcDbCircle
 10
363.4229193946497
 20
285.6381058739692
 30
0.0
 40
1.000022592052864
100
AcDbArc
 50
322.9462625565163
 51
90.000644595441
  0
ARC
  5
2C7
330
1A
100
AcDbEntity
  8
SEIHIN
  6
CONTINUOUS
 62
     3
 48
16.0
100
AcDbCircle
 10
366.8208733810666
 20
290.1381111556592
 30
0.0
 40
0.999982690304597
100
AcDbArc
 50
270.0019918085895
 51
322.9441571624548
  0
LINE
  5
2C8
330
1A
100
AcDbEntity
  8
NOKITOI
  6
PHANTOM
 62
     8
 48
5.0
100
AcDbLine
 10
385.5460556459492
 20
289.7400267138006
 30
0.0
 11
385.2302556459493
 21
295.7400267138006
 31
0.0
  0
ARC
  5
2C9
330
1A
100
AcDbEntity
  8
SEIHIN
  6
CONTINUOUS
 62
     3
 48
16.0
100
AcDbCircle
 10
377.5397081440826
 20
286.4881284659589
 30
0.0
 40
0.6500192304848588
100
AcDbArc
 50
15.8194766355497
 51
195.8194766355497
  0
ARC
  5
2CA
330
1A
100
AcDbEntity
  8
SEIHIN
  6
CONTINUOUS
 62
     3
 48
16.0
100
AcDbCircle
 10
377.3235365415025
 20
284.1329679400926
 30
0.0
 40
0.1999592069951468
100
AcDbArc
 50
272.6862981385502
 51
15.83442237780823
  0
LINE
  5
2CB
330
1A
100
AcDbEntity
  8
SEIHIN
  6
CONTINUOUS
 62
     3
 48
16.0
100
AcDbLine
 10
376.9143081440826
 20
286.3109284659589
 30
0.0
 11
377.5159081440828
 21
284.1874284659589
 31
0.0
  0
ARC
  5
2CC
330
1A
100
AcDbEntity
  8
NOKITOI
  6
PHANTOM
 62
     8
 48
5.0
100
AcDbCircle
 10
386.0453597673562
 20
289.76632280377
 30
0.0
 40
0.4999960899864752
100
AcDbArc
 50
183.0147243791737
 51
269.9995277178594
  0
LINE
  5
2CD
330
1A
100
AcDbEntity
  8
NOKITOI
  6
PHANTOM
 62
     8
 48
5.0
100
AcDbLine
 10
386.7094556459493
 20
290.4663267138006
 30
0.0
 11
386.5283556459492
 21
293.9077267138004
 31
0.0
  0
LINE
  5
2CE
330
1A
100
AcDbEntity
  8
NOKITOI
  6
PHANTOM
 62
     8
 48
5.0
100
AcDbLine
 10
387.0833556459492
 20
293.2947267138004
 30
0.0
 11
386.5283556459492
 21
293.9077267138004
 31
0.0
  0
ARC
  5
2CF
330
1A
100
AcDbEntity
  8
NOKITOI
  6
PHANTOM
 62
     8
 48
5.0
100
AcDbCircle
 10
384.4374687169541
 20
283.4663385440805
 30
0.0
 40
0.499988169890889
100
AcDbArc
 50
90.00149786226627
 51
174.2966061377156
  0
ARC
  5
2D0
330
1A
100
AcDbEntity
  8
NOKITOI
  6
PHANTOM
 62
     8
 48
5.0
100
AcDbCircle
 10
385.7295593554444
 20
295.7663306238312
 30
0.0
 40
0.4999960899831856
100
AcDbArc
 50
90.00042508015132
 51
183.0156217414654
  0
ARC
  5
2D1
330
1A
100
AcDbEntity
  8
SEIHIN
  6
CONTINUOUS
 62
     3
 48
16.0
100
AcDbCircle
 10
384.1637968935157
 20
305.6381510579484
 30
0.0
 40
1.00002259205287
100
AcDbArc
 50
142.9462625565065
 51
270.0006445954337
  0
ARC
  5
2D2
330
1A
100
AcDbEntity
  8
NOKITOI
  6
PHANTOM
 62
     8
 48
5.0
100
AcDbCircle
 10
392.1170728591274
 20
284.2663433969483
 30
0.0
 40
1.500016683246579
100
AcDbArc
 50
269.9993425123348
 51
358.207642324411
  0
LINE
  5
2D3
330
1A
100
AcDbEntity
  8
SEIHIN
  6
CONTINUOUS
 62
     3
 48
16.0
100
AcDbLine
 10
399.2679081440828
 20
299.1381284659589
 30
0.0
 11
399.2679081440828
 21
274.1001284659589
 31
0.0
  0
LINE
  5
2D4
330
1A
100
AcDbEntity
  8
SEIHIN
  6
CONTINUOUS
 62
     3
 48
16.0
100
AcDbLine
 10
401.2678081440826
 20
268.5167284659588
 30
0.0
 11
405.2678081440827
 21
268.5167284659588
 31
0.0
  0
LINE
  5
2D5
330
1A
100
AcDbEntity
  8
CENTER_L
  6
CENTER
 62
     1
 48
5.0
100
AcDbLine
 10
412.2679081440828
 20
278.1380284659589
 30
0.0
 11
395.2679081440828
 21
278.1380284659589
 31
0.0
  0
LINE
  5
2D6
330
1A
100
AcDbEntity
  8
SEIHIN
  6
CONTINUOUS
 62
     3
 48
16.0
100
AcDbLine
 10
399.2679081440828
 20
274.1001284659589
 30
0.0
 11
399.2679081440828
 21
270.5167284659588
 31
0.0
  0
ARC
  5
2D7
330
1A
100
AcDbEntity
  8
SEIHIN
  6
CONTINUOUS
 62
     3
 48
16.0
100
AcDbCircle
 10
398.267916221648
 20
270.5983135023287
 30
0.0
 40
0.9999919225467436
100
AcDbArc
 50
0.0008573597815524
 51
56.72237666564693
  0
LINE
  5
2D8
330
1A
100
AcDbEntity
  8
SEIHIN
  6
CONTINUOUS
 62
     3
 48
16.0
100
AcDbLine
 10
401.2678081440826
 20
268.5167284659588
 30
0.0
 11
399.2678081440826
 21
270.5168284659588
 31
0.0
  0
LINE
  5
2D9
330
1A
100
AcDbEntity
  8
SEIHIN
  6
CONTINUOUS
 62
     3
 48
16.0
100
AcDbLine
 10
397.9131081440826
 20
278.5131284659588
 30
0.0
 11
399.2679081440828
 21
277.9990284659589
 31
0.0
  0
ARC
  5
2DA
330
1A
100
AcDbEntity
  8
SEIHIN
  6
CONTINUOUS
 62
     3
 48
16.0
100
AcDbCircle
 10
398.2679278819722
 20
279.4480420867816
 30
0.0
 40
0.9999802622032669
100
AcDbArc
 50
249.2171738629473
 51
359.9992195689353
  0
LINE
  5
2DB
330
1A
100
AcDbEntity
  8
CENTER_L
  6
CENTER
 62
     1
 48
5.0
100
AcDbLine
 10
412.2679081440828
 20
303.1381284659588
 30
0.0
 11
395.2679081440828
 21
303.1381284659588
 31
0.0
  0
LINE
  5
2DC
330
1A
100
AcDbEntity
  8
NOKITOI
  6
PHANTOM
 62
     8
 48
5.0
100
AcDbLine
 10
392.8070556459492
 20
296.7413267138005
 30
0.0
 11
392.6577556459493
 21
291.9623267138006
 31
0.0
  0
LINE
  5
2DD
330
1A
100
AcDbEntity
  8
NOKITOI
  6
PHANTOM
 62
     8
 48
5.0
100
AcDbLine
 10
394.0064556459494
 20
296.7038267138006
 30
0.0
 11
393.6163556459493
 21
284.2194267138005
 31
0.0
  0
LINE
  5
2DE
330
1A
100
AcDbEntity
  8
NOKITOI
  6
PHANTOM
 62
     8
 48
5.0
100
AcDbLine
 10
392.4684556459494
 20
285.9037267138006
 30
0.0
 11
392.5539556459493
 21
288.6413267138004
 31
0.0
  0
LINE
  5
2DF
330
1A
100
AcDbEntity
  8
NOKITOI
  6
PHANTOM
 62
     8
 48
5.0
100
AcDbLine
 10
388.7894556459492
 20
289.8370267138004
 30
0.0
 11
388.4556556459492
 21
292.1732267138006
 31
0.0
  0
ARC
  5
2E0
330
1A
100
AcDbEntity
  8
NOKITOI
  6
PHANTOM
 62
     8
 48
5.0
100
AcDbCircle
 10
388.2944658323855
 20
289.7663384585247
 30
0.0
 40
0.5000117448278309
100
AcDbArc
 50
269.9988327478018
 51
8.127314608715803
  0
LINE
  5
2E1
330
1A
100
AcDbEntity
  8
NOKITOI
  6
PHANTOM
 62
     8
 48
5.0
100
AcDbLine
 10
388.0939556459494
 20
293.9663267138005
 30
0.0
 11
388.5559556459493
 21
293.9663267138005
 31
0.0
  0
ARC
  5
2E2
330
1A
100
AcDbEntity
  8
NOKITOI
  6
PHANTOM
 62
     8
 48
5.0
100
AcDbCircle
 10
388.9506850184492
 20
292.2439569462955
 30
0.0
 40
0.4999578477751074
100
AcDbArc
 50
83.52609071220776
 51
188.1330561712924
  0
ARC
  5
2E3
330
1A
100
AcDbEntity
  8
NOKITOI
  6
PHANTOM
 62
     8
 48
5.0
100
AcDbCircle
 10
388.5559247190131
 20
288.7663624584644
 30
0.0
 40
3.99998565374706
100
AcDbArc
 50
358.2086966591014
 51
83.52422380468325
  0
ARC
  5
2E4
330
1A
100
AcDbEntity
  8
NOKITOI
  6
PHANTOM
 62
     8
 48
5.0
100
AcDbCircle
 10
388.5559377795983
 20
288.7663354421805
 30
0.0
 40
5.199991271650611
100
AcDbArc
 50
37.92532860473096
 51
89.99980314072548
  0
ARC
  5
2E5
330
1A
100
AcDbEntity
  8
NOKITOI
  6
PHANTOM
 62
     8
 48
5.0
100
AcDbCircle
 10
390.4693936337736
 20
285.9662635343727
 30
0.0
 40
2.000036820932882
100
AcDbArc
 50
269.9989117490339
 51
358.2110591274196
  0
LINE
  5
2E6
330
1A
100
AcDbEntity
  8
SEIHIN
  6
CONTINUOUS
 62
     3
 48
16.0
100
AcDbLine
 10
396.2679081440828
 20
302.1381284659588
 30
0.0
 11
390.2272081440827
 21
302.1381284659588
 31
0.0
  0
ARC
  5
2E7
330
1A
100
AcDbEntity
  8
NOKITOI
  6
PHANTOM
 62
     8
 48
5.0
100
AcDbCircle
 10
392.0074444089548
 20
296.7663383076177
 30
0.0
 40
1.999988406214315
100
AcDbArc
 50
358.2088726535929
 51
89.99967808195611
  0
ARC
  5
2E8
330
1A
100
AcDbEntity
  8
NOKITOI
  6
PHANTOM
 62
     8
 48
5.0
100
AcDbCircle
 10
392.0074996123024
 20
296.7662813513275
 30
0.0
 40
0.7999453636812564
100
AcDbArc
 50
358.212343644788
 51
90.00314907315372
  0
ARC
  5
2E9
330
1A
100
AcDbEntity
  8
NOKITOI
  6
PHANTOM
 62
     8
 48
5.0
100
AcDbCircle
 10
387.9610548629411
 20
296.7663257587987
 30
0.0
 40
0.4999990449987399
100
AcDbArc
 50
270.0000897263054
 51
11.30328019845509
  0
LINE
  5
2EA
330
1A
100
AcDbEntity
  8
NOKITOI
  6
PHANTOM
 62
     8
 48
5.0
100
AcDbLine
 10
389.5347556459492
 20
297.5663267138006
 30
0.0
 11
390.0347556459492
 21
295.0663267138006
 31
0.0
  0
LINE
  5
2EB
330
1A
100
AcDbEntity
  8
NOKITOI
  6
PHANTOM
 62
     8
 48
5.0
100
AcDbLine
 10
388.4513556459492
 20
296.8643267138006
 30
0.0
 11
388.1905556459493
 21
298.1683267138005
 31
0.0
  0
ARC
  5
2EC
330
1A
100
AcDbEntity
  8
NOKITOI
  6
PHANTOM
 62
     8
 48
5.0
100
AcDbCircle
 10
388.6808483913935
 20
298.2663178639571
 30
0.0
 40
0.500008849895925
100
AcDbArc
 50
89.99916870385492
 51
191.3135956695117
  0
LINE
  5
2ED
330
1A
100
AcDbEntity
  8
NOKITOI
  6
PHANTOM
 62
     8
 48
5.0
100
AcDbLine
 10
392.0074556459494
 20
297.5662267138004
 30
0.0
 11
389.5347556459492
 21
297.5663267138006
 31
0.0
  0
LINE
  5
2EE
330
1A
100
AcDbEntity
  8
NOKITOI
  6
PHANTOM
 62
     8
 48
5.0
100
AcDbLine
 10
392.0074556459494
 20
298.7662267138005
 30
0.0
 11
388.6808556459494
 21
298.7663267138005
 31
0.0
  0
ARC
  5
2EF
330
1A
100
AcDbEntity
  8
SEIHIN
  6
CONTINUOUS
 62
     3
 48
16.0
100
AcDbCircle
 10
396.2679081440828
 20
299.1381284659588
 30
0.0
 40
2.999999999999971
100
AcDbArc
 50
0.0000000000005428
 51
90.00000000000055
  0
ARC
  5
2F0
330
1A
100
AcDbEntity
  8
SEIHIN
  6
CONTINUOUS
 62
     3
 48
16.0
100
AcDbCircle
 10
383.4411124791279
 20
312.1487224748364
 30
0.0
 40
1.000038114251048
100
AcDbArc
 50
322.945742237677
 51
108.831859461373
  0
LINE
  5
2F1
330
1A
100
AcDbEntity
  8
SEIHIN
  6
CONTINUOUS
 62
     3
 48
16.0
100
AcDbLine
 10
398.4518081440828
 20
318.1381284659589
 30
0.0
 11
405.2679081440827
 21
318.1381284659589
 31
0.0
  0
LINE
  5
2F2
330
1A
100
AcDbEntity
  8
CENTER_L
  6
CENTER
 62
     1
 48
5.0
100
AcDbLine
 10
412.2679081440828
 20
308.1381284659588
 30
0.0
 11
395.2679081440828
 21
308.1381284659588
 31
0.0
  0
ARC
  5
2F3
330
1A
100
AcDbEntity
  8
SEIHIN
  6
CONTINUOUS
 62
     3
 48
16.0
100
AcDbCircle
 10
398.4523909344009
 20
268.1381935380843
 30
0.0
 40
47.49999833759196
100
AcDbArc
 50
92.81366944868286
 51
99.92981795215914
  0
ARC
  5
2F4
330
1A
100
AcDbEntity
  8
SEIHIN
  6
CONTINUOUS
 62
     3
 48
16.0
100
AcDbCircle
 10
390.4337245968264
 20
313.9415773951385
 30
0.0
 40
1.000009285962046
100
AcDbArc
 50
99.92243683737013
 51
142.9403983020209
  0
ARC
  5
2F5
330
1A
100
AcDbEntity
  8
SEIHIN
  6
CONTINUOUS
 62
     3
 48
16.0
100
AcDbCircle
 10
396.2678989566109
 20
312.5845372128785
 30
0.0
 40
3.000009187484612
100
AcDbArc
 50
359.9998329466532
 51
92.81417005475415
  0
LINE
  5
2F6
330
1A
100
AcDbEntity
  8
SEIHIN
  6
CONTINUOUS
 62
     3
 48
16.0
100
AcDbLine
 10
401.2679081440827
 20
318.1381284659589
 30
0.0
 11
399.2679081440828
 21
316.1381284659589
 31
0.0
  0
LINE
  5
2F7
330
1A
100
AcDbEntity
  8
SEIHIN
  6
CONTINUOUS
 62
     3
 48
16.0
100
AcDbLine
 10
403.9357657241507
 20
392.6572815363213
 30
0.0
 11
407.9357657241507
 21
392.6572815363213
 31
0.0
  0
LINE
  5
2F8
330
1A
100
AcDbEntity
  8
CENTER_L
  6
CENTER
 62
     1
 48
5.0
100
AcDbLine
 10
415.2385657241505
 20
400.6570815363212
 30
0.0
 11
397.9357657241507
 21
400.6570815363212
 31
0.0
  0
LINE
  5
2F9
330
1A
100
AcDbEntity
  8
SEIHIN
  6
CONTINUOUS
 62
     3
 48
16.0
100
AcDbLine
 10
401.9357657241506
 20
394.6572815363213
 30
0.0
 11
403.9357657241507
 21
392.6572815363213
 31
0.0
  0
LINE
  5
2FA
330
1A
100
AcDbEntity
  8
SEIHIN
  6
CONTINUOUS
 62
     3
 48
16.0
100
AcDbLine
 10
282.6357657241507
 20
414.1572815363213
 30
0.0
 11
398.9357657241507
 21
414.1572815363213
 31
0.0
  0
LINE
  5
2FB
330
1A
100
AcDbEntity
  8
SEIHIN
  6
CONTINUOUS
 62
     3
 48
16.0
100
AcDbLine
 10
282.6357657241507
 20
434.1572815363213
 30
0.0
 11
398.9357657241507
 21
434.1572815363213
 31
0.0
  0
LINE
  5
2FC
330
1A
100
AcDbEntity
  8
CENTER_L
  6
CENTER
 62
     1
 48
5.0
100
AcDbLine
 10
271.9357657241507
 20
424.1572815363213
 30
0.0
 11
415.0961657241505
 21
424.1572815363213
 31
0.0
  0
LINE
  5
2FD
330
1A
100
AcDbEntity
  8
SEIHIN
  6
CONTINUOUS
 62
     3
 48
16.0
100
AcDbLine
 10
282.6357657241507
 20
436.1572815363213
 30
0.0
 11
282.6357657241507
 21
424.1572815363213
 31
0.0
  0
LINE
  5
2FE
330
1A
100
AcDbEntity
  8
SEIHIN
  6
CONTINUOUS
 62
     3
 48
16.0
100
AcDbLine
 10
278.9357657241507
 20
436.1572815363213
 30
0.0
 11
278.9357657241507
 21
424.1572815363213
 31
0.0
  0
LINE
  5
2FF
330
1A
100
AcDbEntity
  8
SEIHIN
  6
CONTINUOUS
 62
     3
 48
16.0
100
AcDbLine
 10
285.6356657241506
 20
434.1572815363213
 30
0.0
 11
285.6356657241506
 21
424.1572815363213
 31
0.0
  0
LINE
  5
300
330
1A
100
AcDbEntity
  8
SEIHIN
  6
CONTINUOUS
 62
     3
 48
16.0
100
AcDbLine
 10
278.9357657241507
 20
412.1571815363211
 30
0.0
 11
278.9357657241507
 21
424.1571815363212
 31
0.0
  0
LINE
  5
301
330
1A
100
AcDbEntity
  8
SEIHIN
  6
CONTINUOUS
 62
     3
 48
16.0
100
AcDbLine
 10
282.6357657241507
 20
412.1572815363212
 30
0.0
 11
282.6357657241507
 21
424.1572815363213
 31
0.0
  0
LINE
  5
302
330
1A
100
AcDbEntity
  8
SEIHIN
  6
CONTINUOUS
 62
     3
 48
16.0
100
AcDbLine
 10
285.6356657241506
 20
414.1572815363213
 30
0.0
 11
285.6356657241506
 21
424.1572815363213
 31
0.0
  0
LINE
  5
303
330
1A
100
AcDbEntity
  8
SEIHIN
  6
CONTINUOUS
 62
     3
 48
16.0
100
AcDbLine
 10
278.9357657241507
 20
412.1572815363212
 30
0.0
 11
282.6357657241507
 21
412.1572815363212
 31
0.0
  0
LINE
  5
304
330
1A
100
AcDbEntity
  8
SEIHIN
  6
CONTINUOUS
 62
     3
 48
16.0
100
AcDbLine
 10
278.9357657241507
 20
436.1572815363213
 30
0.0
 11
282.6357657241507
 21
436.1572815363213
 31
0.0
  0
LINE
  5
305
330
1A
100
AcDbEntity
  8
SEIHIN
  6
CONTINUOUS
 62
     3
 48
16.0
100
AcDbLine
 10
354.3234657241507
 20
432.6572815363213
 30
0.0
 11
354.3234657241506
 21
424.1572815363213
 31
0.0
  0
LINE
  5
306
330
1A
100
AcDbEntity
  8
SEIHIN
  6
CONTINUOUS
 62
     3
 48
16.0
100
AcDbLine
 10
354.3234657241507
 20
415.6572815363213
 30
0.0
 11
354.3234657241506
 21
424.1571815363212
 31
0.0
  0
LINE
  5
307
330
1A
100
AcDbEntity
  8
SEIHIN
  6
CONTINUOUS
 62
     3
 48
16.0
100
AcDbLine
 10
407.9357657241507
 20
455.6572815363213
 30
0.0
 11
407.9357657241507
 21
424.1572815363213
 31
0.0
  0
LINE
  5
308
330
1A
100
AcDbEntity
  8
SEIHIN
  6
CONTINUOUS
 62
     3
 48
16.0
100
AcDbLine
 10
403.9357657241507
 20
455.6572815363213
 30
0.0
 11
403.9357657241507
 21
439.1572815363213
 31
0.0
  0
LINE
  5
309
330
1A
100
AcDbEntity
  8
SEIHIN
  6
CONTINUOUS
 62
     3
 48
16.0
100
AcDbLine
 10
401.9357657241506
 20
453.6572815363212
 30
0.0
 11
403.9357657241507
 21
455.6572815363213
 31
0.0
  0
ARC
  5
30A
330
1A
100
AcDbEntity
  8
SEIHIN
  6
CONTINUOUS
 62
     3
 48
16.0
100
AcDbCircle
 10
396.9357657241507
 20
409.1572815363212
 30
0.0
 40
5.0
100
AcDbArc
 50
0.0
 51
90.0
  0
ARC
  5
30B
330
1A
100
AcDbEntity
  8
SEIHIN
  6
CONTINUOUS
 62
     3
 48
16.0
100
AcDbCircle
 10
398.9357657241507
 20
409.1572815363212
 30
0.0
 40
5.0
100
AcDbArc
 50
0.0
 51
90.0
  0
LINE
  5
30C
330
1A
100
AcDbEntity
  8
CENTER_L
  6
CENTER
 62
     1
 48
5.0
100
AcDbLine
 10
414.9537657241505
 20
447.6570815363213
 30
0.0
 11
397.9357657241507
 21
447.6570815363213
 31
0.0
  0
LINE
  5
30D
330
1A
100
AcDbEntity
  8
SEIHIN
  6
CONTINUOUS
 62
     3
 48
16.0
100
AcDbLine
 10
401.9357657241506
 20
453.6572815363212
 30
0.0
 11
401.9357657241506
 21
439.1572815363213
 31
0.0
  0
ARC
  5
30E
330
1A
100
AcDbEntity
  8
SEIHIN
  6
CONTINUOUS
 62
     3
 48
16.0
100
AcDbCircle
 10
396.9357657241507
 20
439.1572815363213
 30
0.0
 40
5.0
100
AcDbArc
 50
270.0
 51
0.0
  0
ARC
  5
30F
330
1A
100
AcDbEntity
  8
SEIHIN
  6
CONTINUOUS
 62
     3
 48
16.0
100
AcDbCircle
 10
398.9357657241507
 20
439.1572815363213
 30
0.0
 40
5.0
100
AcDbArc
 50
270.0
 51
0.0
  0
LINE
  5
310
330
1A
100
AcDbEntity
  8
SEIHIN
  6
CONTINUOUS
 62
     3
 48
16.0
100
AcDbLine
 10
403.9357657241507
 20
455.6572815363213
 30
0.0
 11
407.9357657241507
 21
455.6572815363213
 31
0.0
  0
ARC
  5
315
330
1A
100
AcDbEntity
  8
SEIHIN
  6
CONTINUOUS
 62
     3
 48
16.0
100
AcDbCircle
 10
607.8007098984995
 20
307.3810760224787
 30
0.0
 40
10.00004592490224
100
AcDbArc
 50
359.999727522463
 51
87.99971704553948
  0
ARC
  5
316
330
1A
100
AcDbEntity
  8
SEIHIN
  6
CONTINUOUS
 62
     3
 48
16.0
100
AcDbCircle
 10
607.8007616127919
 20
278.8949344611083
 30
0.0
 40
9.999994210498517
100
AcDbArc
 50
271.9994235138698
 51
359.9999656503039
  0
LINE
  5
317
330
1A
100
AcDbEntity
  8
CENTER_L
  6
CENTER
 62
     1
 48
5.0
100
AcDbLine
 10
609.8007558232888
 20
311.9229284659589
 30
0.0
 11
609.8007558232888
 21
297.9074284659589
 31
0.0
  0
LINE
  5
318
330
1A
100
AcDbEntity
  8
SEIHIN
  6
CONTINUOUS
 62
     3
 48
16.0
100
AcDbLine
 10
601.3007558232885
 20
311.1380284659589
 30
0.0
 11
601.3007558232885
 21
302.1380284659589
 31
0.0
  0
ARC
  5
319
330
1A
100
AcDbEntity
  8
SEIHIN
  6
CONTINUOUS
 62
     3
 48
16.0
100
AcDbCircle
 10
609.8007058232886
 20
308.1380284670273
 30
0.0
 40
2.099963789337212
100
AcDbArc
 50
296.1697079573589
 51
243.8302920426409
  0
LINE
  5
31A
330
1A
100
AcDbEntity
  8
SEIHIN
  6
CONTINUOUS
 62
     3
 48
16.0
100
AcDbLine
 10
554.8007558232886
 20
306.9975284659588
 30
0.0
 11
554.8007558232886
 21
279.2785284659588
 31
0.0
  0
LINE
  5
31B
330
1A
100
AcDbEntity
  8
CENTER_L
  6
CENTER
 62
     1
 48
5.0
100
AcDbLine
 10
562.8007558232886
 20
311.9230284659588
 30
0.0
 11
562.8007558232886
 21
297.7245284659588
 31
0.0
  0
LINE
  5
31C
330
1A
100
AcDbEntity
  8
CENTER_L
  6
CENTER
 62
     1
 48
5.0
100
AcDbLine
 10
586.3007558232886
 20
322.2485284659589
 30
0.0
 11
586.3006558232886
 21
263.8489284659588
 31
0.0
  0
LINE
  5
31D
330
1A
100
AcDbEntity
  8
SEIHIN
  6
CONTINUOUS
 62
     3
 48
16.0
100
AcDbLine
 10
571.3007558232886
 20
311.1381284659588
 30
0.0
 11
571.3007558232886
 21
302.1381284659588
 31
0.0
  0
ARC
  5
31E
330
1A
100
AcDbEntity
  8
SEIHIN
  6
CONTINUOUS
 62
     3
 48
16.0
100
AcDbCircle
 10
562.8008058232888
 20
308.1381284670272
 30
0.0
 40
2.099963789337121
100
AcDbArc
 50
296.1697079573593
 51
243.8302920426406
  0
LINE
  5
31F
330
1A
100
AcDbEntity
  8
SEIHIN
  6
CONTINUOUS
 62
     3
 48
16.0
100
AcDbLine
 10
586.3007558232886
 20
300.1381284659588
 30
0.0
 11
573.3007558232887
 21
300.1381284659588
 31
0.0
  0
LINE
  5
320
330
1A
100
AcDbEntity
  8
SEIHIN
  6
CONTINUOUS
 62
     3
 48
16.0
100
AcDbLine
 10
586.3006558232886
 20
268.1380284659589
 30
0.0
 11
564.2774558232888
 21
269.2922284659588
 31
0.0
  0
LINE
  5
321
330
1A
100
AcDbEntity
  8
SEIHIN
  6
CONTINUOUS
 62
     3
 48
16.0
100
AcDbLine
 10
583.8007558232885
 20
293.1381284659589
 30
0.0
 11
583.8007558232885
 21
275.1380284659589
 31
0.0
  0
ARC
  5
322
330
1A
100
AcDbEntity
  8
SEIHIN
  6
CONTINUOUS
 62
     3
 48
16.0
100
AcDbCircle
 10
562.8007558232886
 20
278.138028465959
 30
0.0
 40
6.999999999999943
100
AcDbArc
 50
359.9999999999995
 51
89.99999999999953
  0
ARC
  5
323
330
1A
100
AcDbEntity
  8
SEIHIN
  6
CONTINUOUS
 62
     3
 48
16.0
100
AcDbCircle
 10
564.8007565877885
 20
279.2785276603487
 30
0.0
 40
10.00000076449996
100
AcDbArc
 50
179.9999953841949
 51
267.0003375791286
  0
LINE
  5
324
330
1A
100
AcDbEntity
  8
CENTER_L
  6
CENTER
 62
     1
 48
5.0
100
AcDbLine
 10
566.7468558232886
 20
278.1380284659589
 30
0.0
 11
558.5985558232884
 21
278.1380284659589
 31
0.0
  0
LINE
  5
325
330
1A
100
AcDbEntity
  8
CENTER_L
  6
CENTER
 62
     1
 48
5.0
100
AcDbLine
 10
562.8006558232887
 20
281.8096284659588
 30
0.0
 11
562.8006558232887
 21
273.9772284659588
 31
0.0
  0
ARC
  5
326
330
1A
100
AcDbEntity
  8
SEIHIN
  6
CONTINUOUS
 62
     3
 48
16.0
100
AcDbCircle
 10
562.8007558232885
 20
278.1380284659589
 30
0.0
 40
2.150000000000005
100
AcDbArc
 50
0.0
 51
180.0
  0
ARC
  5
327
330
1A
100
AcDbEntity
  8
SEIHIN
  6
CONTINUOUS
 62
     3
 48
16.0
100
AcDbCircle
 10
562.8007558232885
 20
278.1380284659589
 30
0.0
 40
2.150000000000005
100
AcDbArc
 50
180.0
 51
0.0
  0
LINE
  5
328
330
1A
100
AcDbEntity
  8
SEIHIN
  6
CONTINUOUS
 62
     3
 48
16.0
100
AcDbLine
 10
581.8007558232885
 20
273.1380284659589
 30
0.0
 11
571.8007558232886
 21
273.1380284659589
 31
0.0
  0
LINE
  5
329
330
1A
100
AcDbEntity
  8
SEIHIN
  6
CONTINUOUS
 62
     3
 48
16.0
100
AcDbLine
 10
569.8007558232887
 20
278.1380284659589
 30
0.0
 11
569.8007558232887
 21
275.1380284659589
 31
0.0
  0
ARC
  5
32A
330
1A
100
AcDbEntity
  8
SEIHIN
  6
CONTINUOUS
 62
     3
 48
16.0
100
AcDbCircle
 10
571.8007558232886
 20
275.1380284659589
 30
0.0
 40
2.000000000000056
100
AcDbArc
 50
180.0000000000016
 51
270.0000000000016
  0
ARC
  5
32B
330
1A
100
AcDbEntity
  8
SEIHIN
  6
CONTINUOUS
 62
     3
 48
16.0
100
AcDbCircle
 10
581.8007558232885
 20
275.1380284659589
 30
0.0
 40
2.000000000000056
100
AcDbArc
 50
269.9999999999983
 51
359.9999999999983
  0
LINE
  5
32C
330
1A
100
AcDbEntity
  8
SEIHIN
  6
CONTINUOUS
 62
     3
 48
16.0
100
AcDbLine
 10
561.8007558232886
 20
295.1381284659589
 30
0.0
 11
581.8007558232885
 21
295.1381284659589
 31
0.0
  0
LINE
  5
32D
330
1A
100
AcDbEntity
  8
CENTER_L
  6
CENTER
 62
     1
 48
5.0
100
AcDbLine
 10
568.9645558232887
 20
303.1381284659588
 30
0.0
 11
557.3148558232888
 21
303.1381284659588
 31
0.0
  0
ARC
  5
32E
330
1A
100
AcDbEntity
  8
SEIHIN
  6
CONTINUOUS
 62
     3
 48
16.0
100
AcDbCircle
 10
561.8007558232886
 20
293.1381284659589
 30
0.0
 40
2.0
100
AcDbArc
 50
90.0
 51
180.0
  0
ARC
  5
32F
330
1A
100
AcDbEntity
  8
SEIHIN
  6
CONTINUOUS
 62
     3
 48
16.0
100
AcDbCircle
 10
561.8007558232886
 20
287.1380284659589
 30
0.0
 40
2.0
100
AcDbArc
 50
180.0
 51
270.0
  0
LINE
  5
330
330
1A
100
AcDbEntity
  8
SEIHIN
  6
CONTINUOUS
 62
     3
 48
16.0
100
AcDbLine
 10
559.8007558232885
 20
293.1381284659589
 30
0.0
 11
559.8007558232885
 21
287.1380284659589
 31
0.0
  0
LINE
  5
331
330
1A
100
AcDbEntity
  8
SEIHIN
  6
CONTINUOUS
 62
     3
 48
16.0
100
AcDbLine
 10
562.8007558232886
 20
285.1380284659589
 30
0.0
 11
561.8007558232886
 21
285.1380284659589
 31
0.0
  0
ARC
  5
332
330
1A
100
AcDbEntity
  8
SEIHIN
  6
CONTINUOUS
 62
     3
 48
16.0
100
AcDbCircle
 10
562.8008058232888
 20
303.1381284652216
 30
0.0
 40
3.250053525265921
100
AcDbArc
 50
106.556728840644
 51
73.44327115935591
  0
ARC
  5
333
330
1A
100
AcDbEntity
  8
SEIHIN
  6
CONTINUOUS
 62
     3
 48
16.0
100
AcDbCircle
 10
581.8007558232885
 20
293.1381284659588
 30
0.0
 40
2.000000000000056
100
AcDbArc
 50
0.0000000000016284
 51
90.00000000000161
  0
ARC
  5
334
330
1A
100
AcDbEntity
  8
SEIHIN
  6
CONTINUOUS
 62
     3
 48
16.0
100
AcDbCircle
 10
573.3007558232887
 20
302.1381284659588
 30
0.0
 40
1.999999999999943
100
AcDbArc
 50
179.9999999999983
 51
269.9999999999983
  0
ARC
  5
335
330
1A
100
AcDbEntity
  8
SEIHIN
  6
CONTINUOUS
 62
     3
 48
16.0
100
AcDbCircle
 10
609.8005558232886
 20
278.1379284659589
 30
0.0
 40
6.999999999999914
100
AcDbArc
 50
90.0000000000009
 51
180.0000000000006
  0
LINE
  5
336
330
1A
100
AcDbEntity
  8
SEIHIN
  6
CONTINUOUS
 62
     3
 48
16.0
100
AcDbLine
 10
588.8006558232886
 20
293.1381284659589
 30
0.0
 11
588.8006558232886
 21
275.1380284659589
 31
0.0
  0
ARC
  5
337
330
1A
100
AcDbEntity
  8
SEIHIN
  6
CONTINUOUS
 62
     3
 48
16.0
100
AcDbCircle
 10
600.8005558232886
 20
275.1379284659589
 30
0.0
 40
2.0
100
AcDbArc
 50
270.0
 51
0.0
  0
LINE
  5
338
330
1A
100
AcDbEntity
  8
SEIHIN
  6
CONTINUOUS
 62
     3
 48
16.0
100
AcDbLine
 10
586.3006558232886
 20
268.1380284659589
 30
0.0
 11
608.1497558232887
 21
268.9010284659588
 31
0.0
  0
LINE
  5
339
330
1A
100
AcDbEntity
  8
SEIHIN
  6
CONTINUOUS
 62
     3
 48
16.0
100
AcDbLine
 10
590.8006558232886
 20
273.1380284659589
 30
0.0
 11
600.8005558232886
 21
273.1379284659589
 31
0.0
  0
ARC
  5
33A
330
1A
100
AcDbEntity
  8
SEIHIN
  6
CONTINUOUS
 62
     3
 48
16.0
100
AcDbCircle
 10
590.8006558232886
 20
275.1380284659589
 30
0.0
 40
2.000000000000085
100
AcDbArc
 50
180.0000000000024
 51
270.0000000000024
  0
ARC
  5
33B
330
1A
100
AcDbEntity
  8
SEIHIN
  6
CONTINUOUS
 62
     3
 48
16.0
100
AcDbCircle
 10
609.8005558232886
 20
278.1379284659589
 30
0.0
 40
2.14999999999992
100
AcDbArc
 50
0.0
 51
180.0
  0
ARC
  5
33C
330
1A
100
AcDbEntity
  8
SEIHIN
  6
CONTINUOUS
 62
     3
 48
16.0
100
AcDbCircle
 10
609.8005558232886
 20
278.1379284659589
 30
0.0
 40
2.14999999999992
100
AcDbArc
 50
180.0
 51
0.0
  0
LINE
  5
33D
330
1A
100
AcDbEntity
  8
CENTER_L
  6
CENTER
 62
     1
 48
5.0
100
AcDbLine
 10
605.8544558232887
 20
278.1379284659589
 30
0.0
 11
614.0026558232888
 21
278.1379284659589
 31
0.0
  0
LINE
  5
33E
330
1A
100
AcDbEntity
  8
SEIHIN
  6
CONTINUOUS
 62
     3
 48
16.0
100
AcDbLine
 10
602.8005558232885
 20
278.1379284659589
 30
0.0
 11
602.8005558232885
 21
275.1379284659589
 31
0.0
  0
LINE
  5
33F
330
1A
100
AcDbEntity
  8
CENTER_L
  6
CENTER
 62
     1
 48
5.0
100
AcDbLine
 10
609.8008558232887
 20
281.8097284659589
 30
0.0
 11
609.8008558232887
 21
273.6276284659589
 31
0.0
  0
ARC
  5
340
330
1A
100
AcDbEntity
  8
SEIHIN
  6
CONTINUOUS
 62
     3
 48
16.0
100
AcDbCircle
 10
599.3007558232886
 20
302.1380284659589
 30
0.0
 40
2.0
100
AcDbArc
 50
270.0
 51
0.0
  0
LINE
  5
341
330
1A
100
AcDbEntity
  8
SEIHIN
  6
CONTINUOUS
 62
     3
 48
16.0
100
AcDbLine
 10
610.8007558232888
 20
295.1380284659588
 30
0.0
 11
590.8007558232886
 21
295.1381284659589
 31
0.0
  0
ARC
  5
342
330
1A
100
AcDbEntity
  8
SEIHIN
  6
CONTINUOUS
 62
     3
 48
16.0
100
AcDbCircle
 10
590.8006558232886
 20
293.1381284659588
 30
0.0
 40
2.000000000000085
100
AcDbArc
 50
89.99999999999756
 51
179.9999999999975
  0
LINE
  5
343
330
1A
100
AcDbEntity
  8
SEIHIN
  6
CONTINUOUS
 62
     3
 48
16.0
100
AcDbLine
 10
586.3007558232886
 20
300.1381284659588
 30
0.0
 11
599.3007558232886
 21
300.1380284659589
 31
0.0
  0
ARC
  5
344
330
1A
100
AcDbEntity
  8
SEIHIN
  6
CONTINUOUS
 62
     3
 48
16.0
100
AcDbCircle
 10
610.8007558232888
 20
293.1380284659588
 30
0.0
 40
1.999999999999943
100
AcDbArc
 50
0.0000000000012213
 51
90.00000000000161
  0
LINE
  5
345
330
1A
100
AcDbEntity
  8
SEIHIN
  6
CONTINUOUS
 62
     3
 48
16.0
100
AcDbLine
 10
612.8007558232887
 20
293.1380284659589
 30
0.0
 11
612.8007558232887
 21
287.1379284659589
 31
0.0
  0
LINE
  5
346
330
1A
100
AcDbEntity
  8
SEIHIN
  6
CONTINUOUS
 62
     3
 48
16.0
100
AcDbLine
 10
609.8006558232886
 20
285.1379284659589
 30
0.0
 11
610.8006558232886
 21
285.1379284659589
 31
0.0
  0
ARC
  5
347
330
1A
100
AcDbEntity
  8
SEIHIN
  6
CONTINUOUS
 62
     3
 48
16.0
100
AcDbCircle
 10
610.8007558232888
 20
287.1379284659589
 30
0.0
 40
2.0
100
AcDbArc
 50
270.0
 51
0.0
  0
LINE
  5
348
330
1A
100
AcDbEntity
  8
CENTER_L
  6
CENTER
 62
     1
 48
5.0
100
AcDbLine
 10
603.6369558232885
 20
303.1380284659589
 30
0.0
 11
615.2866558232886
 21
303.1380284659589
 31
0.0
  0
ARC
  5
349
330
1A
100
AcDbEntity
  8
SEIHIN
  6
CONTINUOUS
 62
     3
 48
16.0
100
AcDbCircle
 10
609.8007058232886
 20
303.1380284652215
 30
0.0
 40
3.250053525266003
100
AcDbArc
 50
106.5567288406441
 51
73.4432711593558
  0
LINE
  5
34A
330
1A
100
AcDbEntity
  8
SEIHIN
  6
CONTINUOUS
 62
     3
 48
16.0
100
AcDbLine
 10
573.3007558232887
 20
313.1381284659588
 30
0.0
 11
586.3007558232886
 21
313.1381284659588
 31
0.0
  0
LINE
  5
34B
330
1A
100
AcDbEntity
  8
SEIHIN
  6
CONTINUOUS
 62
     3
 48
16.0
100
AcDbLine
 10
586.3007558232886
 20
318.1380284659589
 30
0.0
 11
564.2774558232888
 21
316.9838284659588
 31
0.0
  0
ARC
  5
34C
330
1A
100
AcDbEntity
  8
SEIHIN
  6
CONTINUOUS
 62
     3
 48
16.0
100
AcDbCircle
 10
564.8007565877885
 20
306.9975292715688
 30
0.0
 40
10.00000076449997
100
AcDbArc
 50
92.99966242087135
 51
180.000004615805
  0
LINE
  5
34D
330
1A
100
AcDbEntity
  8
CENTER_L
  6
CENTER
 62
     1
 48
5.0
100
AcDbLine
 10
566.7469558232888
 20
308.1381284659588
 30
0.0
 11
558.5986558232887
 21
308.1381284659588
 31
0.0
  0
ARC
  5
34E
330
1A
100
AcDbEntity
  8
SEIHIN
  6
CONTINUOUS
 62
     3
 48
16.0
100
AcDbCircle
 10
573.3007558232887
 20
311.1381284659589
 30
0.0
 40
1.999999999999943
100
AcDbArc
 50
90.00000000000161
 51
180.0000000000016
  0
ARC
  5
34F
330
1A
100
AcDbEntity
  8
SEIHIN
  6
CONTINUOUS
 62
     3
 48
16.0
100
AcDbCircle
 10
599.3007558232886
 20
311.1380284659589
 30
0.0
 40
2.0
100
AcDbArc
 50
0.0
 51
90.0
  0
LINE
  5
350
330
1A
100
AcDbEntity
  8
SEIHIN
  6
CONTINUOUS
 62
     3
 48
16.0
100
AcDbLine
 10
586.3007558232886
 20
318.1380284659589
 30
0.0
 11
608.1497558232887
 21
317.3750284659589
 31
0.0
  0
LINE
  5
351
330
1A
100
AcDbEntity
  8
SEIHIN
  6
CONTINUOUS
 62
     3
 48
16.0
100
AcDbLine
 10
599.3007558232886
 20
313.1380284659589
 30
0.0
 11
586.3007558232886
 21
313.1381284659588
 31
0.0
  0
LINE
  5
352
330
1A
100
AcDbEntity
  8
CENTER_L
  6
CENTER
 62
     1
 48
5.0
100
AcDbLine
 10
605.8545558232887
 20
308.1380284659589
 30
0.0
 11
614.0028558232887
 21
308.1380284659589
 31
0.0
  0
LINE
  5
353
330
1A
100
AcDbEntity
  8
SEIHIN
  6
CONTINUOUS
 62
     3
 48
16.0
100
AcDbLine
 10
617.8007558232888
 20
307.3810284659588
 30
0.0
 11
617.8007558232888
 21
278.8949284659589
 31
0.0
  0
DIMENSION
  5
379
330
1A
100
AcDbEntity
  8
SUNPOU
100
AcDbDimension
  2
*D2
 10
504.2627418900479
 20
318.1380284659589
 30
0.0
 11
499.2627418900479
 21
337.6380284659589
 31
0.0
 12
-1.217752998135438
 22
77.02108059485204
 32
0.0
 70
    32
  3
STANDARD
100
AcDbAlignedDimension
 13
558.5986558232887
 23
308.1381284659588
 33
0.0
 14
586.3007558232886
 24
318.1380284659589
 34
0.0
 50
90.0
100
AcDbRotatedDimension
1001
ACAD
1000
DSTYLE
1002
{
1070
   140
1040
6.0
1070
    74
1070
     0
1070
   172
1070
     1
1070
    73
1070
     0
1070
   272
1070
     2
1070
    77
1070
     3
1070
   173
1070
     1
1070
   147
1040
2.0
1070
    42
1040
6.0
1070
    44
1040
3.0
1070
    43
1040
14.0
1070
   271
1070
     0
1070
   178
1070
     4
1070
   177
1070
     4
1070
   176
1070
     4
1070
   141
1040
150.0
1070
     7
1000
_OPEN
1070
     6
1000
_OPEN
1070
    41
1040
7.0
1002
}
  0
DIMENSION
  5
388
330
1A
100
AcDbEntity
  8
SUNPOU
100
AcDbDimension
  2
*D3
 10
488.004865437691
 20
318.1380284659589
 30
0.0
 11
483.004865437691
 21
310.6380784659588
 31
0.0
 12
-1.217752998135438
 22
77.02108059485204
 32
0.0
 70
    32
  3
STANDARD
100
AcDbAlignedDimension
 13
557.3148558232888
 23
303.1381284659588
 33
0.0
 14
586.3007558232886
 24
318.1380284659589
 34
0.0
 50
90.0
100
AcDbRotatedDimension
1001
ACAD
1000
DSTYLE
1002
{
1070
   140
1040
6.0
1070
    74
1070
     0
1070
   172
1070
     1
1070
    73
1070
     0
1070
   272
1070
     2
1070
    77
1070
     3
1070
   173
1070
     1
1070
   147
1040
2.0
1070
    42
1040
6.0
1070
    44
1040
3.0
1070
    43
1040
14.0
1070
   271
1070
     0
1070
   178
1070
     4
1070
   177
1070
     4
1070
   176
1070
     4
1070
   141
1040
150.0
1070
     7
1000
_OPEN
1070
     6
1000
_OPEN
1070
    41
1040
7.0
1002
}
  0
DIMENSION
  5
397
330
1A
100
AcDbEntity
  8
SUNPOU
100
AcDbDimension
  2
*D4
 10
504.2627418900479
 20
268.1380284659589
 30
0.0
 11
499.2627418900479
 21
248.6380284659589
 31
0.0
 12
-1.217752998135438
 22
77.02108059485204
 32
0.0
 70
    32
  3
STANDARD
100
AcDbAlignedDimension
 13
558.5985558232884
 23
278.1380284659589
 33
0.0
 14
586.3006558232886
 24
268.1380284659589
 34
0.0
 50
90.0
100
AcDbRotatedDimension
1001
ACAD
1000
DSTYLE
1002
{
1070
   140
1040
6.0
1070
    74
1070
     0
1070
   172
1070
     1
1070
    73
1070
     0
1070
   272
1070
     2
1070
    77
1070
     3
1070
   173
1070
     1
1070
   147
1040
2.0
1070
    42
1040
6.0
1070
    44
1040
3.0
1070
    43
1040
14.0
1070
   271
1070
     0
1070
   178
1070
     4
1070
   177
1070
     4
1070
   176
1070
     4
1070
   141
1040
150.0
1070
     7
1000
_OPEN
1070
     6
1000
_OPEN
1070
    41
1040
7.0
1002
}
  0
DIMENSION
  5
3A4
330
1A
100
AcDbEntity
  8
SUNPOU
100
AcDbDimension
  2
*D5
 10
471.0079947159556
 20
268.1380284659589
 30
0.0
 11
466.0079947159556
 21
293.1380284659589
 31
0.0
 12
-1.217752998135438
 22
77.02108059485204
 32
0.0
 70
    32
  3
STANDARD
100
AcDbAlignedDimension
 13
586.3007558232886
 23
318.1380284659589
 33
0.0
 14
586.3006558232886
 24
268.1380284659589
 34
0.0
 50
90.0
100
AcDbRotatedDimension
1001
ACAD
1000
DSTYLE
1002
{
1070
   140
1040
6.0
1070
    74
1070
     0
1070
   172
1070
     1
1070
    73
1070
     0
1070
   272
1070
     2
1070
    77
1070
     3
1070
   173
1070
     1
1070
   147
1040
2.0
1070
    42
1040
6.0
1070
    44
1040
3.0
1070
    43
1040
14.0
1070
   271
1070
     0
1070
   178
1070
     4
1070
   177
1070
     4
1070
   176
1070
     4
1070
   141
1040
150.0
1070
     7
1000
_OPEN
1070
     6
1000
_OPEN
1070
    41
1040
7.0
1002
}
  0
DIMENSION
  5
3B1
330
1A
100
AcDbEntity
  8
SUNPOU
100
AcDbDimension
  2
*D6
 10
609.8007558232888
 20
336.5133021275635
 30
0.0
 11
551.6018670032674
 21
341.5133021275635
 31
0.0
 12
33.4811358218858
 22
77.02108059485204
 32
0.0
 70
    32
  3
STANDARD
100
AcDbAlignedDimension
 13
562.8007558232886
 23
311.9230284659588
 33
0.0
 14
609.8007558232888
 24
311.9229284659589
 34
0.0
100
AcDbRotatedDimension
1001
ACAD
1000
DSTYLE
1002
{
1070
   140
1040
6.0
1070
    74
1070
     0
1070
   172
1070
     1
1070
    73
1070
     0
1070
   272
1070
     2
1070
    77
1070
     3
1070
   173
1070
     1
1070
   147
1040
2.0
1070
    42
1040
6.0
1070
    44
1040
3.0
1070
    43
1040
14.0
1070
   271
1070
     0
1070
   178
1070
     4
1070
   177
1070
     4
1070
   176
1070
     4
1070
   141
1040
150.0
1070
     7
1000
_OPEN
1070
     6
1000
_OPEN
1070
    41
1040
7.0
1002
}
  0
DIMENSION
  5
3BE
330
1A
100
AcDbEntity
  8
SUNPOU
100
AcDbDimension
  2
*D7
 10
617.8007558232888
 20
352.7565428684204
 30
0.0
 11
551.6018670032674
 21
357.7565428684204
 31
0.0
 12
33.4811358218858
 22
77.02108059485204
 32
0.0
 70
    32
  3
STANDARD
100
AcDbAlignedDimension
 13
554.8007558232886
 23
306.9975284659588
 33
0.0
 14
617.8007558232888
 24
307.3810284659588
 34
0.0
100
AcDbRotatedDimension
1001
ACAD
1000
DSTYLE
1002
{
1070
   140
1040
6.0
1070
    74
1070
     0
1070
   172
1070
     1
1070
    73
1070
     0
1070
   272
1070
     2
1070
    77
1070
     3
1070
   173
1070
     1
1070
   147
1040
2.0
1070
    42
1040
6.0
1070
    44
1040
3.0
1070
    43
1040
14.0
1070
   271
1070
     0
1070
   178
1070
     4
1070
   177
1070
     4
1070
   176
1070
     4
1070
   141
1040
150.0
1070
     7
1000
_OPEN
1070
     6
1000
_OPEN
1070
    41
1040
7.0
1002
}
  0
LEADER
  5
3F5
330
1A
100
AcDbEntity
  8
SUNPOU
 62
     4
100
AcDbLeader
  3
STANDARD
 73
     0
 40
6.0
 41
31.19999999999999
 76
     3
 10
561.3436564109839
 20
309.6502671864399
 30
0.0
 10
546.3505138663808
 20
331.0684779139162
 30
0.0
 10
544.5143096695601
 20
331.0684779139162
 30
0.0
1001
ACAD
1000
DSTYLE
1002
{
1070
     6
1000
OPEN
1070
    41
1040
7.0
1070
    42
1040
6.0
1070
    43
1040
14.0
1070
    44
1040
3.0
1070
    73
1070
     0
1070
    74
1070
     0
1070
    77
1070
     3
1070
   140
1040
6.0
1070
   141
1040
150.0
1070
   147
1040
2.0
1070
   172
1070
     1
1070
   173
1070
     1
1070
   176
1070
     4
1070
   177
1070
     4
1070
   178
1070
     4
1070
   271
1070
     0
1070
   272
1070
     2
1070
   341
1005
6D
1070
   343
1005
6D
1070
   344
1005
6D
1002
}
  0
MTEXT
  5
3F6
330
1A
100
AcDbEntity
  8
SUNPOU
 62
     4
100
AcDbMText
 10
542.5143096695601
 20
333.0684779139162
 30
0.0
 40
6.0
 41
0.0
 71
     9
 72
     5
  1
4-φ4.2
1001
ACAD
1000
MTEXTBEGIN
1070
    73
1070
     1
1070
    44
1040
1.0
1070
    74
1070
     0
1000
MTEXTEND
1000
MTEXTBEGIN
1070
    73
1070
     1
1070
    44
1040
1.0
1070
    74
1070
     0
1000
MTEXTEND
1000
MTEXTBEGIN
1070
    73
1070
     1
1070
    44
1040
1.0
1070
    74
1070
     0
1000
MTEXTEND
  0
LEADER
  5
429
330
1A
100
AcDbEntity
  8
SUNPOU
 62
     4
100
AcDbLeader
  3
STANDARD
 73
     0
 40
6.0
 41
31.19999999999999
 76
     3
 10
560.6966267674052
 20
300.6611790475155
 30
0.0
 10
548.6457703438827
 20
287.5743401616391
 30
0.0
 10
545.8914640486514
 20
287.5743401616391
 30
0.0
1001
ACAD
1000
DSTYLE
1002
{
1070
     6
1000
OPEN
1070
    41
1040
7.0
1070
    42
1040
6.0
1070
    43
1040
14.0
1070
    44
1040
3.0
1070
    73
1070
     0
1070
    74
1070
     0
1070
    77
1070
     3
1070
   140
1040
6.0
1070
   141
1040
150.0
1070
   147
1040
2.0
1070
   172
1070
     1
1070
   173
1070
     1
1070
   176
1070
     4
1070
   177
1070
     4
1070
   178
1070
     4
1070
   271
1070
     0
1070
   272
1070
     2
1070
   341
1005
6D
1070
   343
1005
6D
1070
   344
1005
6D
1002
}
  0
MTEXT
  5
42A
330
1A
100
AcDbEntity
  8
SUNPOU
 62
     4
100
AcDbMText
 10
543.8914640486514
 20
289.5743401616391
 30
0.0
 40
6.0
 41
0.0
 71
     9
 72
     5
  1
2-φ6.5
1001
ACAD
1000
MTEXTBEGIN
1070
    73
1070
     1
1070
    44
1040
1.0
1070
    74
1070
     0
1000
MTEXTEND
1000
MTEXTBEGIN
1070
    73
1070
     1
1070
    44
1040
1.0
1070
    74
1070
     0
1000
MTEXTEND
1000
MTEXTBEGIN
1070
    73
1070
     1
1070
    44
1040
1.0
1070
    74
1070
     0
1000
MTEXTEND
  0
DIMENSION
  5
437
330
1A
100
AcDbEntity
  8
SUNPOU
100
AcDbDimension
  2
*D8
 10
439.6039791285954
 20
392.6572815363213
 30
0.0
 11
431.9361215485274
 21
415.2724284659589
 31
0.0
 12
1.450104581932464
 22
85.90593366521444
 32
0.0
 70
    32
  3
STANDARD
100
AcDbAlignedDimension
 13
407.9357657241507
 23
455.6572815363213
 33
0.0
 14
407.9357657241507
 24
392.6572815363213
 34
0.0
 50
90.0
100
AcDbRotatedDimension
1001
ACAD
1000
DSTYLE
1002
{
1070
   140
1040
6.0
1070
    74
1070
     0
1070
   172
1070
     1
1070
    73
1070
     0
1070
   272
1070
     2
1070
    77
1070
     3
1070
   173
1070
     1
1070
   147
1040
2.0
1070
    42
1040
6.0
1070
    44
1040
3.0
1070
    43
1040
14.0
1070
   271
1070
     0
1070
   178
1070
     4
1070
   177
1070
     4
1070
   176
1070
     4
1070
   141
1040
150.0
1070
     7
1000
_OPEN
1070
     6
1000
_OPEN
1070
    41
1040
7.0
1002
}
  0
DIMENSION
  5
446
330
1A
100
AcDbEntity
  8
SUNPOU
100
AcDbDimension
  2
*D9
 10
247.0035306012137
 20
414.1572815363213
 30
0.0
 11
239.3356730211457
 21
415.2724284659589
 31
0.0
 12
1.450104581932464
 22
85.90593366521444
 32
0.0
 70
    32
  3
STANDARD
100
AcDbAlignedDimension
 13
282.6357657241507
 23
434.1572815363213
 33
0.0
 14
282.6357657241507
 24
414.1572815363213
 34
0.0
 50
90.0
100
AcDbRotatedDimension
1001
ACAD
1000
DSTYLE
1002
{
1070
   140
1040
6.0
1070
    74
1070
     0
1070
   172
1070
     1
1070
    73
1070
     0
1070
   272
1070
     2
1070
    77
1070
     3
1070
   173
1070
     1
1070
   147
1040
2.0
1070
    42
1040
6.0
1070
    44
1040
3.0
1070
    43
1040
14.0
1070
   271
1070
     0
1070
   178
1070
     4
1070
   177
1070
     4
1070
   176
1070
     4
1070
   141
1040
150.0
1070
     7
1000
_OPEN
1070
     6
1000
_OPEN
1070
    41
1040
7.0
1002
}
  0
DIMENSION
  5
455
330
1A
100
AcDbEntity
  8
SUNPOU
100
AcDbDimension
  2
*D10
 10
244.3356730211458
 20
318.1381284659589
 30
0.0
 11
239.3356730211457
 21
305.3881284659588
 31
0.0
 12
-1.217752998135438
 22
77.02108059485204
 32
0.0
 70
    32
  3
STANDARD
100
AcDbAlignedDimension
 13
279.3050081440827
 23
292.6381284659588
 33
0.0
 14
398.4518081440828
 24
318.1381284659589
 34
0.0
 50
90.0
100
AcDbRotatedDimension
1001
ACAD
1000
DSTYLE
1002
{
1070
   140
1040
6.0
1070
    74
1070
     0
1070
   172
1070
     1
1070
    73
1070
     0
1070
   272
1070
     2
1070
    77
1070
     3
1070
   173
1070
     1
1070
   147
1040
2.0
1070
    42
1040
6.0
1070
    44
1040
3.0
1070
    43
1040
14.0
1070
   271
1070
     0
1070
   178
1070
     4
1070
   177
1070
     4
1070
   176
1070
     4
1070
   141
1040
150.0
1070
     7
1000
_OPEN
1070
     6
1000
_OPEN
1070
    41
1040
7.0
1002
}
  0
LINE
  5
459
330
1A
100
AcDbEntity
  8
SEIHIN
  6
CONTINUOUS
 62
     3
 48
16.0
100
AcDbLine
 10
401.2678081440826
 20
138.5937655088247
 30
0.0
 11
399.2678081440826
 21
140.5938655088247
 31
0.0
  0
LINE
  5
45A
330
1A
100
AcDbEntity
  8
SEIHIN
  6
CONTINUOUS
 62
     3
 48
16.0
100
AcDbLine
 10
405.2679081440827
 20
188.2151655088247
 30
0.0
 11
405.2679081440827
 21
138.5937655088247
 31
0.0
  0
LINE
  5
45B
330
1A
100
AcDbEntity
  8
SEIHIN
  6
CONTINUOUS
 62
     3
 48
16.0
100
AcDbLine
 10
401.2679081440827
 20
138.5937655088247
 30
0.0
 11
401.2679081440827
 21
188.2151655088247
 31
0.0
  0
LINE
  5
45C
330
1A
100
AcDbEntity
  8
NOKITOI
  6
PHANTOM
 62
     8
 48
5.0
100
AcDbLine
 10
283.161056107639
 20
151.9428637566663
 30
0.0
 11
286.029856107639
 21
123.2554637566664
 31
0.0
  0
LINE
  5
45D
330
1A
100
AcDbEntity
  8
NOKITOI
  6
PHANTOM
 62
     8
 48
5.0
100
AcDbLine
 10
284.2020561076391
 20
153.5931637566665
 30
0.0
 11
287.195056107639
 21
123.6633637566664
 31
0.0
  0
ARC
  5
45E
330
1A
100
AcDbEntity
  8
NOKITOI
  6
PHANTOM
 62
     8
 48
5.0
100
AcDbCircle
 10
342.2574723340964
 20
156.8433782330365
 30
0.0
 40
43.00001447645168
100
AcDbArc
 50
270.0001116248559
 51
353.4750892928819
  0
ARC
  5
45F
330
1A
100
AcDbEntity
  8
NOKITOI
  6
PHANTOM
 62
     8
 48
5.0
100
AcDbCircle
 10
342.2574500256712
 20
156.84335813201
 30
0.0
 40
41.79999437547816
100
AcDbArc
 50
270.0001454078912
 51
355.525704787475
  0
LINE
  5
460
330
1A
100
AcDbEntity
  8
NOKITOI
  6
PHANTOM
 62
     8
 48
5.0
100
AcDbLine
 10
301.677856107639
 20
115.0432637566664
 30
0.0
 11
321.5859561076389
 21
115.0432637566664
 31
0.0
  0
LINE
  5
461
330
1A
100
AcDbEntity
  8
NOKITOI
  6
PHANTOM
 62
     8
 48
5.0
100
AcDbLine
 10
301.4280561076389
 20
113.8432637566663
 30
0.0
 11
321.5859561076389
 21
113.8432637566663
 31
0.0
  0
LINE
  5
462
330
1A
100
AcDbEntity
  8
NOKITOI
  6
PHANTOM
 62
     8
 48
5.0
100
AcDbLine
 10
297.4280561076389
 20
113.8432637566663
 30
0.0
 11
342.2574561076391
 21
113.8433637566664
 31
0.0
  0
LINE
  5
463
330
1A
100
AcDbEntity
  8
NOKITOI
  6
PHANTOM
 62
     8
 48
5.0
100
AcDbLine
 10
342.2574561076391
 20
115.0433637566665
 30
0.0
 11
297.677856107639
 21
115.0432637566664
 31
0.0
  0
LINE
  5
464
330
1A
100
AcDbEntity
  8
NOKITOI
  6
PHANTOM
 62
     8
 48
5.0
100
AcDbLine
 10
287.3759561076389
 20
123.3260637566663
 30
0.0
 11
297.3612561076389
 21
115.1562637566663
 31
0.0
  0
LINE
  5
465
330
1A
100
AcDbEntity
  8
NOKITOI
  6
PHANTOM
 62
     8
 48
5.0
100
AcDbLine
 10
286.391656107639
 20
122.5809637566665
 30
0.0
 11
296.7947561076389
 21
114.0692637566664
 31
0.0
  0
ARC
  5
466
330
1A
100
AcDbEntity
  8
NOKITOI
  6
PHANTOM
 62
     8
 48
5.0
100
AcDbCircle
 10
297.4280630402162
 20
114.8432612816602
 30
0.0
 40
0.9999975250179316
100
AcDbArc
 50
230.7053583247701
 51
269.9996027915957
  0
ARC
  5
467
330
1A
100
AcDbEntity
  8
NOKITOI
  6
PHANTOM
 62
     8
 48
5.0
100
AcDbCircle
 10
297.6778497198905
 20
115.543266036656
 30
0.0
 40
0.5000022800304047
100
AcDbArc
 50
230.7145501403941
 51
270.0007319787213
  0
ARC
  5
468
330
1A
100
AcDbEntity
  8
NOKITOI
  6
PHANTOM
 62
     8
 48
5.0
100
AcDbCircle
 10
287.6925735335171
 20
123.7130312702785
 30
0.0
 40
0.4999904508696396
100
AcDbArc
 50
185.7009889250754
 51
230.7099153622041
  0
ARC
  5
469
330
1A
100
AcDbEntity
  8
NOKITOI
  6
PHANTOM
 62
     8
 48
5.0
100
AcDbCircle
 10
287.0248786805081
 20
123.3549216849937
 30
0.0
 40
0.9999908507640039
100
AcDbArc
 50
185.7137670522468
 51
230.7112907769303
  0
LINE
  5
46A
330
1A
100
AcDbEntity
  8
SEIHIN
  6
CONTINUOUS
 62
     3
 48
16.0
100
AcDbLine
 10
401.2678081440826
 20
138.5937655088247
 30
0.0
 11
405.2678081440827
 21
138.5937655088247
 31
0.0
  0
LINE
  5
46B
330
1A
100
AcDbEntity
  8
SEIHIN
  6
CONTINUOUS
 62
     3
 48
16.0
100
AcDbLine
 10
282.9679081440827
 20
159.2151655088247
 30
0.0
 11
349.1657081440826
 21
159.2151655088247
 31
0.0
  0
LINE
  5
46C
330
1A
100
AcDbEntity
  8
SEIHIN
  6
CONTINUOUS
 62
     3
 48
16.0
100
AcDbLine
 10
284.2678081440827
 20
154.9151655088247
 30
0.0
 11
361.7679081440828
 21
145.7151655088247
 31
0.0
  0
ARC
  5
46E
330
1A
100
AcDbEntity
  8
SEIHIN
  6
CONTINUOUS
 62
     3
 48
16.0
100
AcDbCircle
 10
279.3049793929999
 20
162.2152036217298
 30
0.0
 40
0.4999618879215084
100
AcDbArc
 50
344.0560320448883
 51
89.99670511744914
  0
LINE
  5
46F
330
1A
100
AcDbEntity
  8
NOKITOI
  6
PHANTOM
 62
     8
 48
5.0
100
AcDbLine
 10
385.5460561076389
 20
159.8171637566663
 30
0.0
 11
385.230256107639
 21
165.8170637566664
 31
0.0
  0
LINE
  5
470
330
1A
100
AcDbEntity
  8
NOKITOI
  6
PHANTOM
 62
     8
 48
5.0
100
AcDbLine
 10
392.807156107639
 20
166.8183637566663
 30
0.0
 11
392.6577561076391
 21
162.0394637566664
 31
0.0
  0
LINE
  5
471
330
1A
100
AcDbEntity
  8
NOKITOI
  6
PHANTOM
 62
     8
 48
5.0
100
AcDbLine
 10
394.0065561076389
 20
166.7808637566664
 30
0.0
 11
393.616356107639
 21
154.2965637566663
 31
0.0
  0
LINE
  5
472
330
1A
100
AcDbEntity
  8
NOKITOI
  6
PHANTOM
 62
     8
 48
5.0
100
AcDbLine
 10
387.4874561076389
 20
160.5433637566665
 30
0.0
 11
387.0833561076391
 21
163.3717637566663
 31
0.0
  0
ARC
  5
473
330
1A
100
AcDbEntity
  8
NOKITOI
  6
PHANTOM
 62
     8
 48
5.0
100
AcDbCircle
 10
388.5559182261923
 20
158.8434075391918
 30
0.0
 40
3.999989731271038
100
AcDbArc
 50
358.2100163932691
 51
83.52268857986855
  0
ARC
  5
474
330
1A
100
AcDbEntity
  8
NOKITOI
  6
PHANTOM
 62
     8
 48
5.0
100
AcDbCircle
 10
388.9507418892236
 20
162.3210491223654
 30
0.0
 40
0.5000073448410256
100
AcDbArc
 50
83.5217071700316
 51
188.1270521358757
  0
ARC
  5
475
330
1A
100
AcDbEntity
  8
NOKITOI
  6
PHANTOM
 62
     8
 48
5.0
100
AcDbCircle
 10
388.5558358949699
 20
158.8434224850465
 30
0.0
 40
5.2000412730095
100
AcDbArc
 50
37.92420092094385
 51
89.99867545693838
  0
ARC
  5
476
330
1A
100
AcDbEntity
  8
SEIHIN
  6
CONTINUOUS
 62
     3
 48
16.0
100
AcDbCircle
 10
279.7665749988168
 20
159.3075225432625
 30
0.0
 40
3.499985617912767
100
AcDbArc
 50
103.190619234147
 51
181.5120869528075
  0
LINE
  5
477
330
1A
100
AcDbEntity
  8
NOKITOI
  6
PHANTOM
 62
     8
 48
5.0
100
AcDbLine
 10
386.7095561076389
 20
160.5433637566665
 30
0.0
 11
386.528356107639
 21
163.9848637566665
 31
0.0
  0
LINE
  5
478
330
1A
100
AcDbEntity
  8
NOKITOI
  6
PHANTOM
 62
     8
 48
5.0
100
AcDbLine
 10
392.1171561076389
 20
152.8433637566664
 30
0.0
 11
385.972456107639
 21
152.8433637566664
 31
0.0
  0
LINE
  5
479
330
1A
100
AcDbEntity
  8
NOKITOI
  6
PHANTOM
 62
     8
 48
5.0
100
AcDbLine
 10
384.4285561076389
 20
154.0433637566664
 30
0.0
 11
390.4694561076389
 21
154.0433637566664
 31
0.0
  0
LINE
  5
47A
330
1A
100
AcDbEntity
  8
SEIHIN
  6
CONTINUOUS
 62
     3
 48
16.0
100
AcDbLine
 10
279.2678081440827
 20
154.9151655088247
 30
0.0
 11
284.2678081440827
 21
154.9151655088247
 31
0.0
  0
ARC
  5
47B
330
1A
100
AcDbEntity
  8
NOKITOI
  6
PHANTOM
 62
     8
 48
5.0
100
AcDbCircle
 10
388.2945295070415
 20
159.8433330797843
 30
0.0
 40
0.4999693238254178
100
AcDbArc
 50
270.0030483909652
 51
8.144496122946778
  0
LINE
  5
47C
330
1A
100
AcDbEntity
  8
SEIHIN
  6
CONTINUOUS
 62
     3
 48
16.0
100
AcDbLine
 10
279.7858081440827
 20
162.0778655088248
 30
0.0
 11
279.0848081440827
 21
159.6246655088247
 31
0.0
  0
ARC
  5
47D
330
1A
100
AcDbEntity
  8
SEIHIN
  6
CONTINUOUS
 62
     3
 48
16.0
100
AcDbCircle
 10
279.5655882238891
 20
159.487306271505
 30
0.0
 40
0.5000170449251701
100
AcDbArc
 50
164.0553202355212
 51
248.0407286048614
  0
ARC
  5
47E
330
1A
100
AcDbEntity
  8
NOKITOI
  6
PHANTOM
 62
     8
 48
5.0
100
AcDbCircle
 10
392.1171201484881
 20
154.3433289025232
 30
0.0
 40
1.499965146287778
100
AcDbArc
 50
270.0013735703023
 51
358.2133719782232
  0
LINE
  5
47F
330
1A
100
AcDbEntity
  8
NOKITOI
  6
PHANTOM
 62
     8
 48
5.0
100
AcDbLine
 10
392.4684561076391
 20
155.9809637566664
 30
0.0
 11
392.553956107639
 21
158.7184637566663
 31
0.0
  0
ARC
  5
480
330
1A
100
AcDbEntity
  8
NOKITOI
  6
PHANTOM
 62
     8
 48
5.0
100
AcDbCircle
 10
390.4694425355007
 20
156.0433506015799
 30
0.0
 40
1.999986844959662
100
AcDbArc
 50
270.0003888156776
 51
358.2124468147636
  0
LINE
  5
481
330
1A
100
AcDbEntity
  8
SEIHIN
  6
CONTINUOUS
 62
     3
 48
16.0
100
AcDbLine
 10
276.2678081440827
 20
159.2151655088247
 30
0.0
 11
276.2678081440827
 21
157.9151655088247
 31
0.0
  0
LINE
  5
482
330
1A
100
AcDbEntity
  8
SEIHIN
  6
CONTINUOUS
 62
     3
 48
16.0
100
AcDbLine
 10
279.0848081440827
 20
159.6246655088247
 30
0.0
 11
276.2810081440828
 21
159.6246655088247
 31
0.0
  0
ARC
  5
484
330
1A
100
AcDbEntity
  8
SEIHIN
  6
CONTINUOUS
 62
     3
 48
16.0
100
AcDbCircle
 10
279.2678081440827
 20
157.9151655088247
 30
0.0
 40
3.0
100
AcDbArc
 50
180.0
 51
270.0
  0
ARC
  5
485
330
1A
100
AcDbEntity
  8
NOKITOI
  6
PHANTOM
 62
     8
 48
5.0
100
AcDbCircle
 10
385.9724645318016
 20
151.8433712717229
 30
0.0
 40
0.9999924849789756
100
AcDbArc
 50
90.00048267259112
 51
173.4717353933255
  0
LINE
  5
486
330
1A
100
AcDbEntity
  8
NOKITOI
  6
PHANTOM
 62
     8
 48
5.0
100
AcDbLine
 10
386.7095561076389
 20
160.5433637566665
 30
0.0
 11
387.4874561076389
 21
160.5433637566665
 31
0.0
  0
LINE
  5
487
330
1A
100
AcDbEntity
  8
NOKITOI
  6
PHANTOM
 62
     8
 48
5.0
100
AcDbLine
 10
386.0454561076391
 20
159.3433637566664
 30
0.0
 11
388.294556107639
 21
159.3433637566664
 31
0.0
  0
ARC
  5
488
330
1A
100
AcDbEntity
  8
SEIHIN
  6
CONTINUOUS
 62
     3
 48
16.0
100
AcDbCircle
 10
280.9679208683247
 20
162.9649661881096
 30
0.0
 40
4.249771082082475
100
AcDbArc
 50
248.0389576229232
 51
298.0724105654601
  0
LINE
  5
489
330
1A
100
AcDbEntity
  8
NOKITOI
  6
PHANTOM
 62
     8
 48
5.0
100
AcDbLine
 10
388.789456107639
 20
159.9141637566665
 30
0.0
 11
388.4557561076389
 21
162.2503637566665
 31
0.0
  0
ARC
  5
48A
330
1A
100
AcDbEntity
  8
NOKITOI
  6
PHANTOM
 62
     8
 48
5.0
100
AcDbCircle
 10
386.0454629946339
 20
159.8433572215809
 30
0.0
 40
0.499993464961963
100
AcDbArc
 50
183.0029638682573
 51
269.9992107982126
  0
ARC
  5
48B
330
1A
100
AcDbEntity
  8
NOKITOI
  6
PHANTOM
 62
     8
 48
5.0
100
AcDbCircle
 10
384.4285435379306
 20
153.5433521319366
 30
0.0
 40
0.5000116248877111
100
AcDbArc
 50
89.99855965101662
 51
175.5251531916571
  0
LINE
  5
48C
330
1A
100
AcDbEntity
  8
NOKITOI
  6
PHANTOM
 62
     8
 48
5.0
100
AcDbLine
 10
390.0347561076389
 20
165.1433637566665
 30
0.0
 11
387.098256107639
 21
165.1433637566665
 31
0.0
  0
LINE
  5
48D
330
1A
100
AcDbEntity
  8
NOKITOI
  6
PHANTOM
 62
     8
 48
5.0
100
AcDbLine
 10
392.007556107639
 20
168.8433637566663
 30
0.0
 11
388.6809561076389
 21
168.8433637566663
 31
0.0
  0
LINE
  5
48E
330
1A
100
AcDbEntity
  8
NOKITOI
  6
PHANTOM
 62
     8
 48
5.0
100
AcDbLine
 10
389.5347561076389
 20
167.6433637566665
 30
0.0
 11
390.0347561076389
 21
165.1433637566665
 31
0.0
  0
ARC
  5
48F
330
1A
100
AcDbEntity
  8
NOKITOI
  6
PHANTOM
 62
     8
 48
5.0
100
AcDbCircle
 10
392.0075433567888
 20
166.8433769117529
 30
0.0
 40
1.999986844954076
100
AcDbArc
 50
358.21169271173
 51
89.99963471264475
  0
LINE
  5
490
330
1A
100
AcDbEntity
  8
NOKITOI
  6
PHANTOM
 62
     8
 48
5.0
100
AcDbLine
 10
392.007556107639
 20
167.6433637566665
 30
0.0
 11
389.5347561076389
 21
167.6433637566665
 31
0.0
  0
ARC
  5
491
330
1A
100
AcDbEntity
  8
NOKITOI
  6
PHANTOM
 62
     8
 48
5.0
100
AcDbCircle
 10
392.0075516128412
 20
166.8433683941933
 30
0.0
 40
0.7999953624857498
100
AcDbArc
 50
358.20887265358
 51
89.99967808194661
  0
LINE
  5
492
330
1A
100
AcDbEntity
  8
SEIHIN
  6
CONTINUOUS
 62
     3
 48
16.0
100
AcDbLine
 10
278.9678081440827
 20
162.7151655088247
 30
0.0
 11
279.3050081440827
 21
162.7151655088247
 31
0.0
  0
LINE
  5
493
330
1A
100
AcDbEntity
  8
NOKITOI
  6
PHANTOM
 62
     8
 48
5.0
100
AcDbLine
 10
388.0940561076389
 20
164.0433637566663
 30
0.0
 11
387.098256107639
 21
165.1433637566665
 31
0.0
  0
LINE
  5
494
330
1A
100
AcDbEntity
  8
NOKITOI
  6
PHANTOM
 62
     8
 48
5.0
100
AcDbLine
 10
388.0940561076389
 20
164.0433637566663
 30
0.0
 11
388.555956107639
 21
164.0433637566663
 31
0.0
  0
LINE
  5
495
330
1A
100
AcDbEntity
  8
NOKITOI
  6
PHANTOM
 62
     8
 48
5.0
100
AcDbLine
 10
387.0833561076391
 20
163.3717637566663
 30
0.0
 11
386.528356107639
 21
163.9848637566665
 31
0.0
  0
LINE
  5
496
330
1A
100
AcDbEntity
  8
NOKITOI
  6
PHANTOM
 62
     8
 48
5.0
100
AcDbLine
 10
385.7296561076391
 20
166.3433637566664
 30
0.0
 11
387.9611561076389
 21
166.3433637566664
 31
0.0
  0
ARC
  5
497
330
1A
100
AcDbEntity
  8
NOKITOI
  6
PHANTOM
 62
     8
 48
5.0
100
AcDbCircle
 10
387.9611633621947
 20
166.8433726065097
 30
0.0
 40
0.5000088498959383
100
AcDbArc
 50
269.9991687038565
 51
11.31359566951149
  0
LINE
  5
498
330
1A
100
AcDbEntity
  8
NOKITOI
  6
PHANTOM
 62
     8
 48
5.0
100
AcDbLine
 10
388.4514561076389
 20
166.9414637566664
 30
0.0
 11
388.1906561076391
 21
168.2453637566663
 31
0.0
  0
ARC
  5
499
330
1A
100
AcDbEntity
  8
NOKITOI
  6
PHANTOM
 62
     8
 48
5.0
100
AcDbCircle
 10
388.6809568906472
 20
168.3433647116681
 30
0.0
 40
0.4999990449987349
100
AcDbArc
 50
90.00008972630549
 51
191.3032801984551
  0
ARC
  5
49A
330
1A
100
AcDbEntity
  8
NOKITOI
  6
PHANTOM
 62
     8
 48
5.0
100
AcDbCircle
 10
385.7296623087968
 20
165.8433702917517
 30
0.0
 40
0.4999934649531607
100
AcDbArc
 50
90.00071060961996
 51
183.0044636796616
  0
LINE
  5
49B
330
1A
100
AcDbEntity
  8
SEIHIN
  6
CONTINUOUS
 62
     3
 48
16.0
100
AcDbLine
 10
358.5497081440826
 20
168.3453655088247
 30
0.0
 11
353.1559081440826
 21
161.2021655088248
 31
0.0
  0
LINE
  5
49C
330
1A
100
AcDbEntity
  8
SEIHIN
  6
CONTINUOUS
 62
     3
 48
16.0
100
AcDbLine
 10
363.4229081440827
 20
156.7151655088247
 30
0.0
 11
307.2194081440828
 21
156.7151655088247
 31
0.0
  0
ARC
  5
49D
330
1A
100
AcDbEntity
  8
SEIHIN
  6
CONTINUOUS
 62
     3
 48
16.0
100
AcDbCircle
 10
349.1656945929558
 20
164.2151587608156
 30
0.0
 40
4.999993252009281
100
AcDbArc
 50
270.000155284684
 51
322.9437017475617
  0
LINE
  5
49E
330
1A
100
AcDbEntity
  8
SEIHIN
  6
CONTINUOUS
 62
     3
 48
16.0
100
AcDbLine
 10
358.6815081440826
 20
148.5991655088247
 30
0.0
 11
307.1016081440827
 21
154.7221655088247
 31
0.0
  0
ARC
  5
49F
330
1A
100
AcDbEntity
  8
SEIHIN
  6
CONTINUOUS
 62
     3
 48
16.0
100
AcDbCircle
 10
307.2194088922906
 20
155.7151781564846
 30
0.0
 40
0.9999873523403152
100
AcDbArc
 50
90.00004286968826
 51
263.2289497309804
  0
LINE
  5
4A0
330
1A
100
AcDbEntity
  8
SEIHIN
  6
CONTINUOUS
 62
     3
 48
16.0
100
AcDbLine
 10
345.1657081440826
 20
159.2151655088247
 30
0.0
 11
333.3651081440827
 21
159.2151655088247
 31
0.0
  0
ARC
  5
4A1
330
1A
100
AcDbEntity
  8
SEIHIN
  6
CONTINUOUS
 62
     3
 48
16.0
100
AcDbCircle
 10
398.4523909344009
 20
138.2152305809501
 30
0.0
 40
47.49999833759196
100
AcDbArc
 50
92.81366944868286
 51
99.92981795215914
  0
ARC
  5
4A2
330
1A
100
AcDbEntity
  8
SEIHIN
  6
CONTINUOUS
 62
     3
 48
16.0
100
AcDbCircle
 10
396.2678989566109
 20
182.6615742557443
 30
0.0
 40
3.000009187484612
100
AcDbArc
 50
359.9998329466532
 51
92.81417005475415
  0
LINE
  5
4A3
330
1A
100
AcDbEntity
  8
SEIHIN
  6
CONTINUOUS
 62
     3
 48
16.0
100
AcDbLine
 10
399.2679081440828
 20
186.2151655088247
 30
0.0
 11
399.2679081440828
 21
169.2151655088247
 31
0.0
  0
ARC
  5
4A4
330
1A
100
AcDbEntity
  8
SEIHIN
  6
CONTINUOUS
 62
     3
 48
16.0
100
AcDbCircle
 10
398.4517425125582
 20
138.215132826596
 30
0.0
 40
50.00003268227185
100
AcDbArc
 50
89.99992479186202
 51
142.9433574101588
  0
LINE
  5
4A5
330
1A
100
AcDbEntity
  8
SEIHIN
  6
CONTINUOUS
 62
     3
 48
16.0
100
AcDbLine
 10
383.3657081440828
 20
176.3177655088247
 30
0.0
 11
389.6357081440827
 21
184.6212655088247
 31
0.0
  0
LINE
  5
4A6
330
1A
100
AcDbEntity
  8
NOKITOI
  6
PHANTOM
 62
     8
 48
5.0
100
AcDbLine
 10
282.412456107639
 20
166.3433637566664
 30
0.0
 11
280.180956107639
 21
166.3433637566664
 31
0.0
  0
LINE
  5
4A7
330
1A
100
AcDbEntity
  8
NOKITOI
  6
PHANTOM
 62
     8
 48
5.0
100
AcDbLine
 10
283.7045561076391
 20
154.0433637566664
 30
0.0
 11
277.6726561076389
 21
154.0433637566664
 31
0.0
  0
LINE
  5
4A8
330
1A
100
AcDbEntity
  8
SEIHIN
  6
CONTINUOUS
 62
     3
 48
16.0
100
AcDbLine
 10
396.2679081440828
 20
174.7151655088247
 30
0.0
 11
384.1638081440826
 21
174.7151655088247
 31
0.0
  0
ARC
  5
4A9
330
1A
100
AcDbEntity
  8
SEIHIN
  6
CONTINUOUS
 62
     3
 48
16.0
100
AcDbCircle
 10
390.2272018421742
 20
152.2151623707002
 30
0.0
 40
20.00000313812547
100
AcDbArc
 50
89.9999819463648
 51
142.9432997870773
  0
ARC
  5
4AA
330
1A
100
AcDbEntity
  8
NOKITOI
  6
PHANTOM
 62
     8
 48
5.0
100
AcDbCircle
 10
282.1660354577979
 20
151.8433824445156
 30
0.0
 40
0.9999813123640345
100
AcDbArc
 50
5.709409966648967
 51
89.99881682915043
  0
ARC
  5
4AB
330
1A
100
AcDbEntity
  8
NOKITOI
  6
PHANTOM
 62
     8
 48
5.0
100
AcDbCircle
 10
282.096651986232
 20
159.8433598466359
 30
0.0
 40
0.4999960899864752
100
AcDbArc
 50
270.0004722821405
 51
356.9852756208263
  0
LINE
  5
4AC
330
1A
100
AcDbEntity
  8
SEIHIN
  6
CONTINUOUS
 62
     3
 48
16.0
100
AcDbLine
 10
398.8167081440828
 20
141.5113655088247
 30
0.0
 11
385.9447081440826
 21
149.9612655088248
 31
0.0
  0
ARC
  5
4AD
330
1A
100
AcDbEntity
  8
SEIHIN
  6
CONTINUOUS
 62
     3
 48
16.0
100
AcDbCircle
 10
386.7679081440827
 20
151.2151655088247
 30
0.0
 40
1.499987533281556
100
AcDbArc
 50
69.2186319444789
 51
236.9558806761672
  0
LINE
  5
4AE
330
1A
100
AcDbEntity
  8
NOKITOI
  6
PHANTOM
 62
     8
 48
5.0
100
AcDbLine
 10
282.5959561076391
 20
159.8170637566664
 30
0.0
 11
282.9117561076389
 21
165.8170637566664
 31
0.0
  0
LINE
  5
4AF
330
1A
100
AcDbEntity
  8
SEIHIN
  6
CONTINUOUS
 62
     3
 48
16.0
100
AcDbLine
 10
355.9983081440827
 20
160.8177655088247
 30
0.0
 11
360.5448081440826
 21
166.8387655088247
 31
0.0
  0
LINE
  5
4B0
330
1A
100
AcDbEntity
  8
SEIHIN
  6
CONTINUOUS
 62
     3
 48
16.0
100
AcDbLine
 10
384.2392081440828
 20
181.6231655088246
 30
0.0
 11
367.6189081440828
 21
159.6125655088247
 31
0.0
  0
LINE
  5
4B1
330
1A
100
AcDbEntity
  8
SEIHIN
  6
CONTINUOUS
 62
     3
 48
16.0
100
AcDbLine
 10
363.4284081440826
 20
149.9141655088246
 30
0.0
 11
374.2663081440828
 21
164.2672655088247
 31
0.0
  0
LINE
  5
4B2
330
1A
100
AcDbEntity
  8
SEIHIN
  6
CONTINUOUS
 62
     3
 48
16.0
100
AcDbLine
 10
361.7679081440828
 20
145.7151655088247
 30
0.0
 11
379.2672081440828
 21
150.4376655088248
 31
0.0
  0
LINE
  5
4B3
330
1A
100
AcDbEntity
  8
SEIHIN
  6
CONTINUOUS
 62
     3
 48
16.0
100
AcDbLine
 10
364.4522081440828
 20
148.3374655088247
 30
0.0
 11
375.4754081440826
 21
150.8926655088246
 31
0.0
  0
LINE
  5
4B4
330
1A
100
AcDbEntity
  8
SEIHIN
  6
CONTINUOUS
 62
     3
 48
16.0
100
AcDbLine
 10
364.2210081440828
 20
155.1125655088247
 30
0.0
 11
359.5974081440828
 21
148.9895655088248
 31
0.0
  0
ARC
  5
4B5
330
1A
100
AcDbEntity
  8
SEIHIN
  6
CONTINUOUS
 62
     3
 48
16.0
100
AcDbCircle
 10
358.7993995281979
 20
149.592161836409
 30
0.0
 40
0.9999700420734848
100
AcDbArc
 50
263.2293722774602
 51
322.9426307700332
  0
ARC
  5
4B6
330
1A
100
AcDbEntity
  8
SEIHIN
  6
CONTINUOUS
 62
     3
 48
16.0
100
AcDbCircle
 10
364.2263973808436
 20
149.3115820849622
 30
0.0
 40
0.9999468009350749
100
AcDbArc
 50
142.9425516661898
 51
283.0512651047669
  0
LINE
  5
4B7
330
1A
100
AcDbEntity
  8
SEIHIN
  6
CONTINUOUS
 62
     3
 48
16.0
100
AcDbLine
 10
356.7964081440828
 20
159.2151655088247
 30
0.0
 11
366.8209081440828
 21
159.2151655088247
 31
0.0
  0
ARC
  5
4B8
330
1A
100
AcDbEntity
  8
SEIHIN
  6
CONTINUOUS
 62
     3
 48
16.0
100
AcDbCircle
 10
356.7963968935159
 20
160.2151881008143
 30
0.0
 40
1.000022592052932
100
AcDbArc
 50
142.9462625565139
 51
270.0006445954393
  0
ARC
  5
4B9
330
1A
100
AcDbEntity
  8
SEIHIN
  6
CONTINUOUS
 62
     3
 48
16.0
100
AcDbCircle
 10
363.4229193946497
 20
155.7151429168351
 30
0.0
 40
1.000022592052864
100
AcDbArc
 50
322.9462625565163
 51
90.000644595441
  0
ARC
  5
4BA
330
1A
100
AcDbEntity
  8
SEIHIN
  6
CONTINUOUS
 62
     3
 48
16.0
100
AcDbCircle
 10
366.8208733810666
 20
160.215148198525
 30
0.0
 40
0.999982690304597
100
AcDbArc
 50
270.0019918085895
 51
322.9441571624548
  0
ARC
  5
4BB
330
1A
100
AcDbEntity
  8
SEIHIN
  6
CONTINUOUS
 62
     3
 48
16.0
100
AcDbCircle
 10
379.0978274358542
 20
151.0651995562364
 30
0.0
 40
0.6499913883897915
100
AcDbArc
 50
285.1050235239369
 51
15.8170526569315
  0
ARC
  5
4BC
330
1A
100
AcDbEntity
  8
SEIHIN
  6
CONTINUOUS
 62
     3
 48
16.0
100
AcDbCircle
 10
377.5397081440826
 20
156.5651655088247
 30
0.0
 40
0.6500192304848588
100
AcDbArc
 50
15.8194766355497
 51
195.8194766355497
  0
ARC
  5
4BD
330
1A
100
AcDbEntity
  8
SEIHIN
  6
CONTINUOUS
 62
     3
 48
16.0
100
AcDbCircle
 10
377.3235365415025
 20
154.2100049829584
 30
0.0
 40
0.1999592069951468
100
AcDbArc
 50
272.6862981385502
 51
15.83442237780823
  0
LINE
  5
4BE
330
1A
100
AcDbEntity
  8
SEIHIN
  6
CONTINUOUS
 62
     3
 48
16.0
100
AcDbLine
 10
376.9143081440826
 20
156.3879655088247
 30
0.0
 11
377.5159081440828
 21
154.2644655088247
 31
0.0
  0
ARC
  5
4BF
330
1A
100
AcDbEntity
  8
SEIHIN
  6
CONTINUOUS
 62
     3
 48
16.0
100
AcDbCircle
 10
375.4301863546599
 20
151.0875209405146
 30
0.0
 40
0.2000341208335173
100
AcDbArc
 50
283.0658282482734
 51
24.84413134547105
  0
ARC
  5
4C0
330
1A
100
AcDbEntity
  8
SEIHIN
  6
CONTINUOUS
 62
     3
 48
16.0
100
AcDbCircle
 10
377.4264289106943
 20
152.0123997574272
 30
0.0
 40
2.000053422885224
100
AcDbArc
 50
92.68007828282756
 51
204.8602159645713
  0
ARC
  5
4C1
330
1A
100
AcDbEntity
  8
NOKITOI
  6
PHANTOM
 62
     8
 48
5.0
100
AcDbCircle
 10
283.7045430366342
 20
153.5433755869463
 30
0.0
 40
0.499988169890889
100
AcDbArc
 50
5.703393862284335
 51
89.99850213773372
  0
LINE
  5
4C2
330
1A
100
AcDbEntity
  8
SEIHIN
  6
CONTINUOUS
 62
     3
 48
16.0
100
AcDbLine
 10
378.1651081440827
 20
156.7423655088247
 30
0.0
 11
379.7232081440826
 21
151.2423655088247
 31
0.0
  0
ARC
  5
4C3
330
1A
100
AcDbEntity
  8
SEIHIN
  6
CONTINUOUS
 62
     3
 48
16.0
100
AcDbCircle
 10
398.4518228757849
 20
138.2151761682004
 30
0.0
 40
47.50003672962011
100
AcDbArc
 50
108.832855256775
 51
142.943712806635
  0
ARC
  5
4C4
330
1A
100
AcDbEntity
  8
NOKITOI
  6
PHANTOM
 62
     8
 48
5.0
100
AcDbCircle
 10
282.4124523981438
 20
165.843367666697
 30
0.0
 40
0.4999960899831856
100
AcDbArc
 50
356.9843782585345
 51
89.99957491984867
  0
ARC
  5
4C5
330
1A
100
AcDbEntity
  8
SEIHIN
  6
CONTINUOUS
 62
     3
 48
16.0
100
AcDbCircle
 10
383.4411124791279
 20
182.2257595177022
 30
0.0
 40
1.000038114251048
100
AcDbArc
 50
322.945742237677
 51
108.831859461373
  0
ARC
  5
4C6
330
1A
100
AcDbEntity
  8
SEIHIN
  6
CONTINUOUS
 62
     3
 48
16.0
100
AcDbCircle
 10
384.1637968935157
 20
175.7151881008143
 30
0.0
 40
1.00002259205287
100
AcDbArc
 50
142.9462625565065
 51
270.0006445954337
  0
LINE
  5
4C7
330
1A
100
AcDbEntity
  8
NOKITOI
  6
PHANTOM
 62
     8
 48
5.0
100
AcDbLine
 10
280.6546561076391
 20
160.5433637566665
 30
0.0
 11
281.0586561076391
 21
163.3717637566663
 31
0.0
  0
LINE
  5
4C8
330
1A
100
AcDbEntity
  8
NOKITOI
  6
PHANTOM
 62
     8
 48
5.0
100
AcDbLine
 10
281.4325561076389
 20
160.5433637566665
 30
0.0
 11
281.613656107639
 21
163.9847637566663
 31
0.0
  0
LINE
  5
4C9
330
1A
100
AcDbEntity
  8
NOKITOI
  6
PHANTOM
 62
     8
 48
5.0
100
AcDbLine
 10
275.3349561076391
 20
166.8183637566663
 30
0.0
 11
275.4842561076389
 21
162.0393637566665
 31
0.0
  0
LINE
  5
4CA
330
1A
100
AcDbEntity
  8
NOKITOI
  6
PHANTOM
 62
     8
 48
5.0
100
AcDbLine
 10
274.1355561076389
 20
166.7808637566664
 30
0.0
 11
274.525656107639
 21
154.2964637566664
 31
0.0
  0
ARC
  5
4CB
330
1A
100
AcDbEntity
  8
NOKITOI
  6
PHANTOM
 62
     8
 48
5.0
100
AcDbCircle
 10
279.191326735139
 20
162.3209939891613
 30
0.0
 40
0.4999578477751074
100
AcDbArc
 50
351.8669438287075
 51
96.47390928779223
  0
ARC
  5
4CC
330
1A
100
AcDbEntity
  8
NOKITOI
  6
PHANTOM
 62
     8
 48
5.0
100
AcDbCircle
 10
279.5860870345752
 20
158.8433995013302
 30
0.0
 40
3.99998565374706
100
AcDbArc
 50
96.47577619531674
 51
181.7913033408985
  0
ARC
  5
4CD
330
1A
100
AcDbEntity
  8
NOKITOI
  6
PHANTOM
 62
     8
 48
5.0
100
AcDbCircle
 10
279.58607397399
 20
158.8433724850464
 30
0.0
 40
5.199991271650611
100
AcDbArc
 50
90.00019685927453
 51
142.074671395269
  0
LINE
  5
4CE
330
1A
100
AcDbEntity
  8
SEIHIN
  6
CONTINUOUS
 62
     3
 48
16.0
100
AcDbLine
 10
399.2679081440828
 20
169.2151655088247
 30
0.0
 11
399.2679081440828
 21
144.1771655088247
 31
0.0
  0
LINE
  5
4CF
330
1A
100
AcDbEntity
  8
CENTER_L
  6
CENTER
 62
     1
 48
5.0
100
AcDbLine
 10
410.8833081440826
 20
148.2150655088248
 30
0.0
 11
395.2679081440828
 21
148.2150655088248
 31
0.0
  0
LINE
  5
4D0
330
1A
100
AcDbEntity
  8
SEIHIN
  6
CONTINUOUS
 62
     3
 48
16.0
100
AcDbLine
 10
387.3001081440828
 20
152.6175655088247
 30
0.0
 11
397.9131081440826
 21
148.5901655088247
 31
0.0
  0
LINE
  5
4D1
330
1A
100
AcDbEntity
  8
SEIHIN
  6
CONTINUOUS
 62
     3
 48
16.0
100
AcDbLine
 10
399.2679081440828
 20
144.1771655088247
 30
0.0
 11
399.2679081440828
 21
140.5937655088247
 31
0.0
  0
ARC
  5
4D2
330
1A
100
AcDbEntity
  8
SEIHIN
  6
CONTINUOUS
 62
     3
 48
16.0
100
AcDbCircle
 10
398.267916221648
 20
140.6753505451946
 30
0.0
 40
0.9999919225467436
100
AcDbArc
 50
0.0008573597815524
 51
56.72237666564693
  0
LINE
  5
4D3
330
1A
100
AcDbEntity
  8
SEIHIN
  6
CONTINUOUS
 62
     3
 48
16.0
100
AcDbLine
 10
397.9131081440826
 20
148.5901655088247
 30
0.0
 11
397.913199362402
 21
148.59013089461
 31
0.0
  0
ARC
  5
4D4
330
1A
100
AcDbEntity
  8
SEIHIN
  6
CONTINUOUS
 62
     3
 48
16.0
100
AcDbCircle
 10
398.2679278819722
 20
149.5250791296475
 30
0.0
 40
0.9999802622032669
100
AcDbArc
 50
249.2171738629473
 51
359.9992195689353
  0
LINE
  5
4D5
330
1A
100
AcDbEntity
  8
NOKITOI
  6
PHANTOM
 62
     8
 48
5.0
100
AcDbLine
 10
281.4325561076389
 20
160.5433637566665
 30
0.0
 11
280.6546561076391
 21
160.5433637566665
 31
0.0
  0
LINE
  5
4D6
330
1A
100
AcDbEntity
  8
NOKITOI
  6
PHANTOM
 62
     8
 48
5.0
100
AcDbLine
 10
282.096656107639
 20
159.3433637566664
 30
0.0
 11
279.8475561076391
 21
159.3433637566664
 31
0.0
  0
LINE
  5
4D7
330
1A
100
AcDbEntity
  8
NOKITOI
  6
PHANTOM
 62
     8
 48
5.0
100
AcDbLine
 10
276.0249561076391
 20
152.8433637566664
 30
0.0
 11
282.166056107639
 21
152.8433637566664
 31
0.0
  0
ARC
  5
4D8
330
1A
100
AcDbEntity
  8
NOKITOI
  6
PHANTOM
 62
     8
 48
5.0
100
AcDbCircle
 10
276.0249388944609
 20
154.3433804398142
 30
0.0
 40
1.500016683246579
100
AcDbArc
 50
181.7923576755889
 51
270.0006574876651
  0
LINE
  5
4D9
330
1A
100
AcDbEntity
  8
NOKITOI
  6
PHANTOM
 62
     8
 48
5.0
100
AcDbLine
 10
275.6735561076389
 20
155.9807637566665
 30
0.0
 11
275.588056107639
 21
158.7183637566663
 31
0.0
  0
LINE
  5
4DA
330
1A
100
AcDbEntity
  8
NOKITOI
  6
PHANTOM
 62
     8
 48
5.0
100
AcDbLine
 10
279.3525561076391
 20
159.9140637566663
 30
0.0
 11
279.6863561076391
 21
162.2502637566665
 31
0.0
  0
ARC
  5
4DB
330
1A
100
AcDbEntity
  8
NOKITOI
  6
PHANTOM
 62
     8
 48
5.0
100
AcDbCircle
 10
279.8475459212028
 20
159.8433755013906
 30
0.0
 40
0.5000117448278309
100
AcDbArc
 50
171.8726853912841
 51
270.0011672521981
  0
ARC
  5
4DC
330
1A
100
AcDbEntity
  8
NOKITOI
  6
PHANTOM
 62
     8
 48
5.0
100
AcDbCircle
 10
277.6726181198146
 20
156.0433005772386
 30
0.0
 40
2.000036820932882
100
AcDbArc
 50
181.7889408725803
 51
270.001088250966
  0
LINE
  5
4DD
330
1A
100
AcDbEntity
  8
CENTER_L
  6
CENTER
 62
     1
 48
5.0
100
AcDbLine
 10
411.2059081440827
 20
178.2151655088247
 30
0.0
 11
395.2679081440828
 21
178.2151655088247
 31
0.0
  0
LINE
  5
4DE
330
1A
100
AcDbEntity
  8
CENTER_L
  6
CENTER
 62
     1
 48
5.0
100
AcDbLine
 10
411.1521081440828
 20
173.2151655088247
 30
0.0
 11
395.2679081440828
 21
173.2151655088247
 31
0.0
  0
LINE
  5
4DF
330
1A
100
AcDbEntity
  8
SEIHIN
  6
CONTINUOUS
 62
     3
 48
16.0
100
AcDbLine
 10
396.2679081440828
 20
172.2151655088247
 30
0.0
 11
390.2272081440827
 21
172.2151655088247
 31
0.0
  0
ARC
  5
4E0
330
1A
100
AcDbEntity
  8
NOKITOI
  6
PHANTOM
 62
     8
 48
5.0
100
AcDbCircle
 10
276.1345673446334
 20
166.8433753504835
 30
0.0
 40
1.999988406214315
100
AcDbArc
 50
90.0003219180439
 51
181.791127346407
  0
LINE
  5
4E1
330
1A
100
AcDbEntity
  8
NOKITOI
  6
PHANTOM
 62
     8
 48
5.0
100
AcDbLine
 10
278.1072561076391
 20
165.1433637566665
 30
0.0
 11
281.0438561076389
 21
165.1433637566665
 31
0.0
  0
LINE
  5
4E2
330
1A
100
AcDbEntity
  8
NOKITOI
  6
PHANTOM
 62
     8
 48
5.0
100
AcDbLine
 10
280.0480561076389
 20
164.0433637566663
 30
0.0
 11
281.0438561076389
 21
165.1433637566665
 31
0.0
  0
LINE
  5
4E3
330
1A
100
AcDbEntity
  8
NOKITOI
  6
PHANTOM
 62
     8
 48
5.0
100
AcDbLine
 10
281.0586561076391
 20
163.3717637566663
 30
0.0
 11
281.613656107639
 21
163.9847637566663
 31
0.0
  0
LINE
  5
4E4
330
1A
100
AcDbEntity
  8
NOKITOI
  6
PHANTOM
 62
     8
 48
5.0
100
AcDbLine
 10
280.0480561076389
 20
164.0433637566663
 30
0.0
 11
279.5860561076389
 21
164.0433637566663
 31
0.0
  0
ARC
  5
4E5
330
1A
100
AcDbEntity
  8
NOKITOI
  6
PHANTOM
 62
     8
 48
5.0
100
AcDbCircle
 10
276.1345121412859
 20
166.8433183941933
 30
0.0
 40
0.7999453636812564
100
AcDbArc
 50
89.99685092684627
 51
181.7876563552118
  0
ARC
  5
4E6
330
1A
100
AcDbEntity
  8
NOKITOI
  6
PHANTOM
 62
     8
 48
5.0
100
AcDbCircle
 10
280.1809568906472
 20
166.8433628016646
 30
0.0
 40
0.4999990449987399
100
AcDbArc
 50
168.6967198015449
 51
269.9999102736945
  0
LINE
  5
4E7
330
1A
100
AcDbEntity
  8
NOKITOI
  6
PHANTOM
 62
     8
 48
5.0
100
AcDbLine
 10
278.6072561076391
 20
167.6433637566665
 30
0.0
 11
278.1072561076391
 21
165.1433637566665
 31
0.0
  0
LINE
  5
4E8
330
1A
100
AcDbEntity
  8
NOKITOI
  6
PHANTOM
 62
     8
 48
5.0
100
AcDbLine
 10
279.6906561076391
 20
166.9413637566665
 30
0.0
 11
279.951456107639
 21
168.2453637566663
 31
0.0
  0
ARC
  5
4E9
330
1A
100
AcDbEntity
  8
NOKITOI
  6
PHANTOM
 62
     8
 48
5.0
100
AcDbCircle
 10
279.4611633621947
 20
168.343354906823
 30
0.0
 40
0.500008849895925
100
AcDbArc
 50
348.6864043304882
 51
90.00083129614507
  0
LINE
  5
4EA
330
1A
100
AcDbEntity
  8
NOKITOI
  6
PHANTOM
 62
     8
 48
5.0
100
AcDbLine
 10
276.1345561076389
 20
167.6432637566663
 30
0.0
 11
278.6072561076391
 21
167.6433637566665
 31
0.0
  0
LINE
  5
4EB
330
1A
100
AcDbEntity
  8
NOKITOI
  6
PHANTOM
 62
     8
 48
5.0
100
AcDbLine
 10
276.1345561076389
 20
168.8432637566663
 30
0.0
 11
279.4611561076389
 21
168.8433637566663
 31
0.0
  0
ARC
  5
4EC
330
1A
100
AcDbEntity
  8
SEIHIN
  6
CONTINUOUS
 62
     3
 48
16.0
100
AcDbCircle
 10
396.2679081440828
 20
169.2151655088247
 30
0.0
 40
2.999999999999971
100
AcDbArc
 50
0.0000000000005428
 51
90.00000000000055
  0
ARC
  5
4ED
330
1A
100
AcDbEntity
  8
SEIHIN
  6
CONTINUOUS
 62
     3
 48
16.0
100
AcDbCircle
 10
390.4337245968264
 20
184.0186144380044
 30
0.0
 40
1.000009285962046
100
AcDbArc
 50
99.92243683737013
 51
142.9403983020209
  0
ARC
  5
4EE
330
1A
100
AcDbEntity
  8
SEIHIN
  6
CONTINUOUS
 62
     3
 48
16.0
100
AcDbCircle
 10
396.2679081440828
 20
177.7151655088247
 30
0.0
 40
3.000000000000028
100
AcDbArc
 50
270.0000000000005
 51
0.0000000000005428
  0
LINE
  5
4EF
330
1A
100
AcDbEntity
  8
SEIHIN
  6
CONTINUOUS
 62
     3
 48
16.0
100
AcDbLine
 10
398.4518081440828
 20
188.2151655088247
 30
0.0
 11
405.2679081440827
 21
188.2151655088247
 31
0.0
  0
LINE
  5
4F0
330
1A
100
AcDbEntity
  8
SEIHIN
  6
CONTINUOUS
 62
     3
 48
16.0
100
AcDbLine
 10
401.2679081440827
 20
188.2151655088247
 30
0.0
 11
399.2679081440828
 21
186.2151655088247
 31
0.0
  0
TEXT
  5
562
330
1A
100
AcDbEntity
  8
SUNPOU
 62
     4
100
AcDbText
 10
299.4386054850065
 20
84.22370424352619
 30
0.0
 40
8.0
  1
軒樋の差し替え
100
AcDbText
  0
DIMENSION
  5
57B
330
1A
100
AcDbEntity
  8
SUNPOU
100
AcDbDimension
  2
*D11
 10
405.2679081440827
 20
350.5725970786315
 30
0.0
 11
340.7678581440827
 21
355.5725970786316
 31
0.0
 70
    32
  3
STANDARD
100
AcDbAlignedDimension
 13
276.2678081440827
 23
287.8381284659588
 33
0.0
 14
405.2679081440827
 24
318.1381284659589
 34
0.0
100
AcDbRotatedDimension
1001
ACAD
1000
DSTYLE
1002
{
1070
   140
1040
6.0
1070
    74
1070
     0
1070
   172
1070
     1
1070
    73
1070
     0
1070
   272
1070
     2
1070
    77
1070
     3
1070
   173
1070
     1
1070
   147
1040
2.0
1070
    42
1040
6.0
1070
    44
1040
3.0
1070
    43
1040
14.0
1070
   271
1070
     0
1070
   178
1070
     4
1070
   177
1070
     4
1070
   176
1070
     4
1070
   141
1040
150.0
1070
     7
1000
_OPEN
1070
     6
1000
_OPEN
1070
    41
1040
7.0
1002
}
  0
DIMENSION
  5
595
330
1A
100
AcDbEntity
  8
SUNPOU
100
AcDbDimension
  2
*D12
 10
405.2679081440827
 20
335.941825383896
 30
0.0
 11
399.6371818950161
 21
340.941825383896
 31
0.0
 70
    32
  3
STANDARD
100
AcDbAlignedDimension
 13
394.0064556459494
 23
296.7038267138006
 33
0.0
 14
405.2679081440827
 24
318.1381284659589
 34
0.0
100
AcDbRotatedDimension
1001
ACAD
1000
DSTYLE
1002
{
1070
   140
1040
6.0
1070
    74
1070
     0
1070
   172
1070
     1
1070
    73
1070
     0
1070
   272
1070
     2
1070
    77
1070
     3
1070
   173
1070
     1
1070
   147
1040
2.0
1070
    42
1040
6.0
1070
    44
1040
3.0
1070
    43
1040
14.0
1070
   271
1070
     0
1070
   178
1070
     4
1070
   177
1070
     4
1070
   176
1070
     4
1070
   141
1040
150.0
1070
     7
1000
_OPEN
1070
     6
1000
_OPEN
1070
    41
1040
7.0
1002
}
  0
DIMENSION
  5
5C5
330
1A
100
AcDbEntity
  8
SUNPOU
  6
CONTINUOUS
100
AcDbDimension
  2
*D13
 10
405.2679081440827
 20
249.5096105531108
 30
0.0
 11
429.7679081440827
 21
254.5096105531108
 31
0.0
 70
    32
  1
t<>
  3
STANDARD
100
AcDbAlignedDimension
 13
399.2679081440828
 23
270.5167284659588
 33
0.0
 14
405.2679081440827
 24
268.5167284659588
 34
0.0
100
AcDbRotatedDimension
1001
ACAD
1000
DSTYLE
1002
{
1070
   140
1040
6.0
1070
    74
1070
     0
1070
   172
1070
     1
1070
    73
1070
     0
1070
   272
1070
     2
1070
    77
1070
     3
1070
   173
1070
     1
1070
   147
1040
2.0
1070
    42
1040
6.0
1070
    44
1040
3.0
1070
    43
1040
14.0
1070
   271
1070
     1
1070
   178
1070
     4
1070
   177
1070
     4
1070
   176
1070
     4
1070
   141
1040
150.0
1070
     7
1000
_OPEN
1070
     6
1000
_OPEN
1070
    41
1040
7.0
1002
}
  0
DIMENSION
  5
625
330
1A
100
AcDbEntity
  8
SUNPOU
100
AcDbDimension
  2
*D14
 10
405.2679081440827
 20
368.5058367607407
 30
0.0
 11
339.7016818950161
 21
373.5058367607407
 31
0.0
 70
    32
  3
STANDARD
100
AcDbAlignedDimension
 13
274.1354556459493
 23
296.7038267138006
 33
0.0
 14
405.2679081440827
 24
318.1381284659589
 34
0.0
100
AcDbRotatedDimension
1001
ACAD
1000
DSTYLE
1002
{
1070
    41
1040
7.0
1070
    42
1040
6.0
1070
    43
1040
14.0
1070
    44
1040
3.0
1070
    73
1070
     0
1070
    74
1070
     0
1070
    77
1070
     3
1070
   140
1040
6.0
1070
   141
1040
150.0
1070
   147
1040
2.0
1070
   172
1070
     1
1070
   173
1070
     1
1070
   176
1070
     4
1070
   177
1070
     4
1070
   178
1070
     4
1070
   271
1070
     0
1070
   272
1070
     2
1070
   341
1005
6D
1070
     6
1000
OPEN
1070
     7
1000
OPEN
1002
}
  0
LWPOLYLINE
  5
75F
330
1A
100
AcDbEntity
  8
ZUWAKU
100
AcDbPolyline
 90
        4
 70
     1
 43
0.0
 10
0.7999988607471096
 20
550.7999992362486
 10
0.7999988607471096
 20
0.7999992362485955
 10
796.7999988607471
 20
0.7999992362485955
 10
796.7999988607471
 20
550.7999992362486
  0
LWPOLYLINE
  5
760
330
1A
100
AcDbEntity
  8
ZUWAKU
100
AcDbPolyline
 90
        4
 70
     1
 43
0.0
 10
0.3999988607471323
 20
551.1999992362485
 10
0.3999988607471323
 20
0.3999992362486182
 10
797.1999988607472
 20
0.3999992362485951
 10
797.1999988607472
 20
551.1999992362485
  0
LWPOLYLINE
  5
761
330
1A
100
AcDbEntity
  8
ZUWAKU
100
AcDbPolyline
 90
        4
 70
     1
 43
0.0
 10
-0.000001139252845
 20
551.5999992362485
 10
-0.000001139252845
 20
-0.0000007637514727
 10
797.5999988607473
 20
-0.0000007637514052
 10
797.5999988607473
 20
551.5999992362487
  0
LWPOLYLINE
  5
762
330
1A
100
AcDbEntity
  8
ZUWAKU
100
AcDbPolyline
 90
        4
 70
     1
 43
0.0
 10
0.5999988607470641
 20
550.9999992362486
 10
0.5999988607470641
 20
0.59999923624855
 10
796.9999988607473
 20
0.5999992362485962
 10
796.9999988607471
 20
550.9999992362486
  0
LWPOLYLINE
  5
763
330
1A
100
AcDbEntity
  8
ZUWAKU
100
AcDbPolyline
 90
        4
 70
     1
 43
0.0
 10
0.1999988607470868
 20
551.3999992362486
 10
0.1999988607470868
 20
0.1999992362485727
 10
797.399998860747
 20
0.1999992362485958
 10
797.3999988607472
 20
551.3999992362486
  0
LINE
  5
764
330
1A
100
AcDbEntity
  8
ZUWAKU
100
AcDbLine
 10
-0.000001139252845
 20
29.99999923624852
 30
0.0
 11
797.399998860747
 21
29.99999923624852
 31
0.0
  0
LINE
  5
765
330
1A
100
AcDbEntity
  8
ZUWAKU
100
AcDbLine
 10
-0.000001139252845
 20
30.19999923624853
 30
0.0
 11
797.399998860747
 21
30.19999923624853
 31
0.0
  0
LINE
  5
766
330
1A
100
AcDbEntity
  8
ZUWAKU
100
AcDbLine
 10
-0.000001139252845
 20
30.39999923624853
 30
0.0
 11
797.399998860747
 21
30.39999923624853
 31
0.0
  0
LINE
  5
767
330
1A
100
AcDbEntity
  8
ZUWAKU
100
AcDbLine
 10
-0.000001139252845
 20
30.59999923624853
 30
0.0
 11
797.399998860747
 21
30.59999923624853
 31
0.0
  0
LINE
  5
768
330
1A
100
AcDbEntity
  8
ZUWAKU
100
AcDbLine
 10
-0.000001139252845
 20
30.79999923624853
 30
0.0
 11
797.399998860747
 21
30.79999923624853
 31
0.0
  0
LINE
  5
769
330
1A
100
AcDbEntity
  8
ZUWAKU
100
AcDbLine
 10
208.6466001508151
 20
15.39999923624856
 30
0.0
 11
447.4243628317386
 21
15.39999923624856
 31
0.0
  0
LINE
  5
76A
330
1A
100
AcDbEntity
  8
ZUWAKU
100
AcDbLine
 10
208.6466001508151
 20
15.59999923624856
 30
0.0
 11
447.4243628317386
 21
15.59999923624856
 31
0.0
  0
LINE
  5
76B
330
1A
100
AcDbEntity
  8
ZUWAKU
100
AcDbLine
 10
208.6466001508151
 20
15.19999923624856
 30
0.0
 11
447.4243628317386
 21
15.19999923624856
 31
0.0
  0
TEXT
  5
76C
330
1A
100
AcDbEntity
  8
MOJI
100
AcDbText
 10
92.95778844891628
 20
12.74117736652328
 30
0.0
 40
6.0
  1
新・丸トップＲＶ１０５
 41
0.9
  7
ｽﾀｲﾙ1
100
AcDbText
  0
CIRCLE
  5
76D
330
1A
100
AcDbEntity
  8
ZUWAKU
100
AcDbCircle
 10
25.99221101552825
 20
15.19999923624853
 30
0.0
 40
1.75
  0
LINE
  5
76E
330
1A
100
AcDbEntity
  8
ZUWAKU
100
AcDbLine
 10
26.86721101552825
 20
7.149999236248532
 30
0.0
 11
24.9422110155283
 21
7.149999236248532
 31
0.0
  0
LINE
  5
76F
330
1A
100
AcDbEntity
  8
ZUWAKU
100
AcDbLine
 10
24.9422110155283
 20
9.94999923624853
 30
0.0
 11
26.86721101552825
 21
9.94999923624853
 31
0.0
  0
LINE
  5
770
330
1A
100
AcDbEntity
  8
ZUWAKU
100
AcDbLine
 10
26.86721101552825
 20
20.44999923624853
 30
0.0
 11
24.9422110155283
 21
20.44999923624853
 31
0.0
  0
LINE
  5
771
330
1A
100
AcDbEntity
  8
ZUWAKU
100
AcDbLine
 10
24.9422110155283
 20
23.24999923624849
 30
0.0
 11
26.86721101552825
 21
23.24999923624853
 31
0.0
  0
HATCH
  5
772
330
1A
100
AcDbEntity
  8
ZUWAKU
100
AcDbHatch
 10
0.0
 20
0.0
 30
0.0
210
0.0
220
0.0
230
1.0
  2
ANSI37
 70
     0
 71
     0
 91
        8
 92
        7
 72
     1
 73
     1
 93
       24
 10
14.50226152186701
 20
17.64484771723211
 42
-0.1989123673796348
 10
14.09221101552827
 20
18.63479721089316
 42
0.0
 10
14.09221101552827
 20
19.92499923624853
 42
-0.4142135623730912
 10
14.61721101552825
 20
20.44999923624853
 42
0.0
 10
17.59221101552816
 20
20.44999923624853
 42
0.4142135623731546
 10
18.11721101552825
 20
20.97499923624852
 42
0.0
 10
18.11721101552825
 20
22.72499923624853
 42
0.4142135623731586
 10
17.59221101552816
 20
23.24999923624853
 42
0.0
 10
14.09221101552827
 20
23.24999923624853
 42
0.4142135623730928
 10
11.29221101552832
 20
20.44999923624855
 42
0.0
 10
11.29221101552832
 20
18.63479721089328
 42
0.1989123673796619
 10
12.52236253454475
 20
15.66494872990968
 42
0.0
 10
15.43216050918942
 20
12.75515075526502
 42
-0.1989123673796613
 10
15.84221101552827
 20
11.76520126160383
 42
0.0
 10
15.84221101552827
 20
10.47499923624852
 42
-0.4142135623730911
 10
15.3172110155283
 20
9.94999923624853
 42
0.0
 10
12.34221101552839
 20
9.94999923624853
 42
0.4142135623731526
 10
11.8172110155283
 20
9.424999236248542
 42
0.0
 10
11.8172110155283
 20
7.67499923624852
 42
0.4142135623731526
 10
12.34221101552839
 20
7.149999236248532
 42
0.0
 10
15.84221101552827
 20
7.149999236248532
 42
0.4142135623731044
 10
18.64221101552834
 20
9.949999236248508
 42
0.0
 10
18.64221101552834
 20
11.76520126160378
 42
0.1989123673796604
 10
17.4120594965118
 20
14.73504974258732
 42
0.0
 97
        0
 92
        7
 72
     1
 73
     1
 93
       16
 10
23.54221101552832
 20
19.04999923624854
 42
-0.4142135623730935
 10
24.9422110155283
 20
20.44999923624853
 42
0.0
 10
26.86721101552825
 20
20.44999923624853
 42
0.4142135623731546
 10
27.39221101552834
 20
20.97499923624852
 42
0.0
 10
27.39221101552834
 20
22.72499923624853
 42
0.4142135623730951
 10
26.86721101552837
 20
23.24999923624853
 42
0.0
 10
24.94221101552819
 20
23.24999923624849
 42
0.4142135623730892
 10
20.74221101552825
 20
19.04999923624846
 42
0.0
 10
20.74221101552825
 20
11.34999923624855
 42
0.4142135623730969
 10
24.9422110155283
 20
7.149999236248532
 42
0.0
 10
26.86721101552825
 20
7.149999236248532
 42
0.4142135623731526
 10
27.39221101552834
 20
7.67499923624852
 42
0.0
 10
27.39221101552834
 20
9.424999236248542
 42
0.4142135623730891
 10
26.86721101552837
 20
9.94999923624853
 42
0.0
 10
24.9422110155283
 20
9.94999923624853
 42
-0.4142135623730928
 10
23.54221101552832
 20
11.34999923624851
 42
0.0
 97
        0
 92
        7
 72
     1
 73
     1
 93
        2
 10
24.24221101552825
 20
15.19999923624853
 42
1.0
 10
27.74221101552825
 20
15.19999923624853
 42
1.0
 97
        0
 92
        7
 72
     1
 73
     1
 93
       26
 10
37.31485749770627
 20
19.20504642981195
 42
0.0
 10
38.37649713084408
 20
22.56690526808154
 42
0.5069206636600134
 10
37.87586623164873
 20
23.24999923624853
 42
0.0
 10
36.1769768520395
 20
23.24999923624853
 42
0.3272098845218764
 10
35.67634595284414
 20
22.8830932044155
 42
0.0
 10
33.80807607821236
 20
16.96690526808161
 42
-0.3272098845219541
 10
33.30744517901689
 20
16.59999923624853
 42
0.0
 10
33.16721101552843
 20
16.59999923624853
 42
-0.4142135623731526
 10
32.64221101552834
 20
17.12499923624851
 42
0.0
 10
32.64221101552834
 20
22.72499923624853
 42
0.4142135623730951
 10
32.11721101552837
 20
23.24999923624853
 42
0.0
 10
30.36721101552825
 20
23.24999923624853
 42
0.4142135623730871
 10
29.84221101552828
 20
22.72499923624855
 42
0.0
 10
29.84221101552828
 20
7.67499923624852
 42
0.4142135623730891
 10
30.36721101552825
 20
7.149999236248532
 42
0.0
 10
32.11721101552825
 20
7.149999236248532
 42
0.4142135623731526
 10
32.64221101552834
 20
7.67499923624852
 42
0.0
 10
32.64221101552834
 20
13.27499923624854
 42
-0.4142135623731526
 10
33.16721101552843
 20
13.79999923624853
 42
0.0
 10
33.30744517901701
 20
13.79999923624853
 42
-0.3272098845218915
 10
33.80807607821236
 20
13.43309320441545
 42
0.0
 10
35.67634595284414
 20
7.516905268081604
 42
0.3272098845218902
 10
36.1769768520395
 20
7.149999236248532
 42
0.0
 10
37.87586623164873
 20
7.149999236248532
 42
0.5069206636600335
 10
38.37649713084408
 20
7.83309320441554
 42
0.0
 10
36.05010575237042
 20
15.19999923624866
 42
0.0
 97
        0
 92
        7
 72
     1
 73
     1
 93
        8
 10
43.49221101552825
 20
22.72499923624854
 42
0.4142135623731546
 10
42.96721101552816
 20
23.24999923624853
 42
0.0
 10
41.21721101552838
 20
23.24999923624853
 42
0.4142135623731507
 10
40.69221101552829
 20
22.72499923624855
 42
0.0
 10
40.69221101552829
 20
7.67499923624852
 42
0.4142135623731526
 10
41.21721101552838
 20
7.149999236248532
 42
0.0
 10
42.96721101552816
 20
7.149999236248532
 42
0.4142135623731526
 10
43.49221101552825
 20
7.67499923624852
 42
0.0
 97
        0
 92
        7
 72
     1
 73
     1
 93
       24
 10
48.39221101552834
 20
19.92499923624853
 42
-0.4142135623731546
 10
48.91721101552843
 20
20.44999923624853
 42
0.0
 10
51.89221101552835
 20
20.44999923624853
 42
0.4142135623730911
 10
52.41721101552832
 20
20.97499923624852
 42
0.0
 10
52.41721101552832
 20
22.72499923624853
 42
0.4142135623730952
 10
51.89221101552835
 20
23.24999923624853
 42
0.0
 10
48.39221101552834
 20
23.24999923624853
 42
0.4142135623731048
 10
45.59221101552828
 20
20.44999923624855
 42
0.0
 10
45.59221101552828
 20
18.63479721089328
 42
0.1989123673796613
 10
46.82236253454482
 20
15.66494872990974
 42
0.0
 10
49.73216050918949
 20
12.75515075526507
 42
-0.1989123673796402
 10
50.14221101552834
 20
11.76520126160399
 42
0.0
 10
50.14221101552834
 20
10.47499923624852
 42
-0.4142135623730911
 10
49.61721101552837
 20
9.94999923624853
 42
0.0
 10
46.64221101552834
 20
9.94999923624853
 42
0.4142135623731526
 10
46.11721101552825
 20
9.424999236248542
 42
0.0
 10
46.11721101552825
 20
7.67499923624852
 42
0.4142135623730891
 10
46.64221101552823
 20
7.149999236248532
 42
0.0
 10
50.14221101552834
 20
7.149999236248532
 42
0.4142135623730925
 10
52.9422110155283
 20
9.949999236248508
 42
0.0
 10
52.9422110155283
 20
11.76520126160378
 42
0.1989123673796675
 10
51.71205949651175
 20
14.73504974258743
 42
0.0
 10
48.80226152186719
 20
17.64484771723195
 42
-0.1989123673796652
 10
48.39221101552834
 20
18.63479721089311
 42
0.0
 97
        0
 92
        7
 72
     1
 73
     1
 93
       16
 10
57.84221101552827
 20
22.72499923624852
 42
0.414213562373103
 10
57.3172110155283
 20
23.24999923624853
 42
0.0
 10
55.5672110155283
 20
23.24999923624853
 42
0.4142135623730871
 10
55.04221101552833
 20
22.72499923624855
 42
0.0
 10
55.04221101552833
 20
9.949999236248508
 42
0.4142135623730926
 10
57.84221101552827
 20
7.149999236248532
 42
0.0
 10
61.34221101552828
 20
7.149999236248532
 42
0.4142135623731044
 10
64.14221101552834
 20
9.949999236248508
 42
0.0
 10
64.14221101552834
 20
22.72499923624853
 42
0.4142135623730951
 10
63.61721101552837
 20
23.24999923624853
 42
0.0
 10
61.86721101552826
 20
23.24999923624853
 42
0.4142135623730871
 10
61.34221101552828
 20
22.72499923624855
 42
0.0
 10
61.34221101552828
 20
10.9999992362485
 42
-0.414213562373088
 10
60.29221101552832
 20
9.94999923624853
 42
0.0
 10
58.89221101552834
 20
9.94999923624853
 42
-0.4142135623731197
 10
57.84221101552827
 20
10.9999992362485
 42
0.0
 97
        0
 92
        7
 72
     1
 73
     1
 93
        8
 10
69.04221101552832
 20
22.72499923624855
 42
0.4142135623730871
 10
68.51721101552834
 20
23.24999923624853
 42
0.0
 10
66.76721101552835
 20
23.24999923624853
 42
0.4142135623731507
 10
66.24221101552826
 20
22.72499923624855
 42
0.0
 10
66.24221101552826
 20
7.67499923624852
 42
0.4142135623730891
 10
66.76721101552823
 20
7.149999236248532
 42
0.0
 10
68.51721101552834
 20
7.149999236248532
 42
0.4142135623730891
 10
69.04221101552832
 20
7.67499923624852
 42
0.0
 97
        0
 75
     0
 76
     1
 52
0.0
 41
0.2
 77
     0
 78
     2
 53
45.0
 43
-900.9423054739318
 44
-13.2000007637514
 45
-0.4490128060534576
 46
0.4490128060534577
 79
     0
 53
135.0
 43
-900.9423054739318
 44
-13.2000007637514
 45
-0.4490128060534577
 46
-0.4490128060534576
 79
     0
 47
0.057451373970553
 98
        8
 10
16.07985382377046
 20
15.16717288213408
 10
22.40451386718632
 20
18.84406141869954
 10
25.16436674640681
 20
15.51188088231924
 10
30.91405884238429
 20
16.20129688269003
 10
41.83847087970389
 20
16.66090915023164
 10
46.8981997558767
 20
19.41857555265573
 10
56.55768483314751
 20
18.72915715134354
 10
67.82707848036989
 20
19.18876941888515
  0
ARC
  5
773
330
1A
100
AcDbEntity
  8
ZUWAKU
100
AcDbCircle
 10
15.49221101552825
 20
18.63479721089323
 30
0.0
 40
4.199999999999999
100
AcDbArc
 50
180.0
 51
225.0
  0
LINE
  5
774
330
1A
100
AcDbEntity
  8
ZUWAKU
100
AcDbLine
 10
20.74221101552825
 20
11.34999923624853
 30
0.0
 11
20.74221101552825
 21
19.04999923624848
 31
0.0
  0
LINE
  5
775
330
1A
100
AcDbEntity
  8
ZUWAKU
100
AcDbLine
 10
23.54221101552832
 20
19.04999923624853
 30
0.0
 11
23.54221101552832
 21
11.34999923624853
 31
0.0
  0
ARC
  5
776
330
1A
100
AcDbEntity
  8
ZUWAKU
100
AcDbCircle
 10
15.49221101552825
 20
18.63479721089323
 30
0.0
 40
1.399999999999999
100
AcDbArc
 50
180.0000000000016
 51
224.9999999999988
  0
ARC
  5
777
330
1A
100
AcDbEntity
  8
ZUWAKU
100
AcDbCircle
 10
24.9422110155283
 20
11.34999923624853
 30
0.0
 40
4.199999999999999
100
AcDbArc
 50
180.0
 51
270.0
  0
ARC
  5
778
330
1A
100
AcDbEntity
  8
ZUWAKU
100
AcDbCircle
 10
15.84221101552827
 20
9.94999923624853
 30
0.0
 40
2.799999999999999
100
AcDbArc
 50
270.0
 51
0.0
  0
ARC
  5
779
330
1A
100
AcDbEntity
  8
ZUWAKU
100
AcDbCircle
 10
14.4422110155283
 20
11.76520126160383
 30
0.0
 40
4.199999999999999
100
AcDbArc
 50
0.0
 51
45.0
  0
LINE
  5
77A
330
1A
100
AcDbEntity
  8
ZUWAKU
100
AcDbLine
 10
12.52236253454475
 20
15.66494872990971
 30
0.0
 11
15.43216050918942
 21
12.75515075526505
 31
0.0
  0
LINE
  5
77B
330
1A
100
AcDbEntity
  8
ZUWAKU
100
AcDbLine
 10
12.34221101552827
 20
9.94999923624853
 30
0.0
 11
15.3172110155283
 21
9.94999923624853
 31
0.0
  0
LINE
  5
77C
330
1A
100
AcDbEntity
  8
ZUWAKU
100
AcDbLine
 10
12.34221101552827
 20
7.149999236248532
 30
0.0
 11
15.84221101552827
 21
7.149999236248532
 31
0.0
  0
ARC
  5
77D
330
1A
100
AcDbEntity
  8
ZUWAKU
100
AcDbCircle
 10
12.34221101552827
 20
9.424999236248531
 30
0.0
 40
0.525
100
AcDbArc
 50
90.0
 51
180.0
  0
ARC
  5
77E
330
1A
100
AcDbEntity
  8
ZUWAKU
100
AcDbCircle
 10
12.34221101552827
 20
7.674999236248531
 30
0.0
 40
0.525
100
AcDbArc
 50
180.0
 51
270.0
  0
LINE
  5
77F
330
1A
100
AcDbEntity
  8
ZUWAKU
100
AcDbLine
 10
11.8172110155283
 20
7.674999236248531
 30
0.0
 11
11.8172110155283
 21
9.424999236248531
 31
0.0
  0
ARC
  5
780
330
1A
100
AcDbEntity
  8
ZUWAKU
100
AcDbCircle
 10
14.4422110155283
 20
11.76520126160387
 30
0.0
 40
1.399999999999999
100
AcDbArc
 50
0.0
 51
45.0
  0
ARC
  5
781
330
1A
100
AcDbEntity
  8
ZUWAKU
100
AcDbCircle
 10
15.3172110155283
 20
10.47499923624853
 30
0.0
 40
0.525
100
AcDbArc
 50
270.0
 51
0.0
  0
LINE
  5
782
330
1A
100
AcDbEntity
  8
ZUWAKU
100
AcDbLine
 10
15.84221101552827
 20
10.47499923624853
 30
0.0
 11
15.84221101552827
 21
11.76520126160387
 31
0.0
  0
LINE
  5
783
330
1A
100
AcDbEntity
  8
ZUWAKU
100
AcDbLine
 10
17.4120594965118
 20
14.73504974258735
 30
0.0
 11
14.50226152186712
 21
17.64484771723203
 31
0.0
  0
ARC
  5
784
330
1A
100
AcDbEntity
  8
ZUWAKU
100
AcDbCircle
 10
24.9422110155283
 20
11.34999923624853
 30
0.0
 40
1.399999999999999
100
AcDbArc
 50
180.0
 51
270.0
  0
LINE
  5
785
330
1A
100
AcDbEntity
  8
ZUWAKU
100
AcDbLine
 10
18.64221101552834
 20
9.94999923624853
 30
0.0
 11
18.64221101552834
 21
11.76520126160387
 31
0.0
  0
ARC
  5
786
330
1A
100
AcDbEntity
  8
ZUWAKU
100
AcDbCircle
 10
17.59221101552827
 20
20.97499923624853
 30
0.0
 40
0.525
100
AcDbArc
 50
270.0
 51
0.0
  0
ARC
  5
787
330
1A
100
AcDbEntity
  8
ZUWAKU
100
AcDbCircle
 10
17.59221101552827
 20
22.72499923624852
 30
0.0
 40
0.525
100
AcDbArc
 50
0.0
 51
90.0
  0
ARC
  5
788
330
1A
100
AcDbEntity
  8
ZUWAKU
100
AcDbCircle
 10
14.09221101552827
 20
20.44999923624853
 30
0.0
 40
2.799999999999999
100
AcDbArc
 50
90.0
 51
180.0
  0
LINE
  5
789
330
1A
100
AcDbEntity
  8
ZUWAKU
100
AcDbLine
 10
11.29221101552832
 20
20.44999923624853
 30
0.0
 11
11.29221101552832
 21
18.63479721089318
 31
0.0
  0
LINE
  5
78A
330
1A
100
AcDbEntity
  8
ZUWAKU
100
AcDbLine
 10
17.59221101552827
 20
20.44999923624853
 30
0.0
 11
14.61721101552825
 21
20.44999923624853
 31
0.0
  0
LINE
  5
78B
330
1A
100
AcDbEntity
  8
ZUWAKU
100
AcDbLine
 10
14.09221101552827
 20
19.92499923624853
 30
0.0
 11
14.09221101552827
 21
18.63479721089318
 31
0.0
  0
ARC
  5
78C
330
1A
100
AcDbEntity
  8
ZUWAKU
100
AcDbCircle
 10
14.61721101552825
 20
19.92499923624853
 30
0.0
 40
0.525
100
AcDbArc
 50
90.0
 51
180.0
  0
LINE
  5
78D
330
1A
100
AcDbEntity
  8
ZUWAKU
100
AcDbLine
 10
14.09221101552827
 20
23.24999923624853
 30
0.0
 11
17.59221101552827
 21
23.24999923624853
 31
0.0
  0
ARC
  5
78E
330
1A
100
AcDbEntity
  8
ZUWAKU
100
AcDbCircle
 10
24.9422110155283
 20
19.04999923624848
 30
0.0
 40
4.199999999999999
100
AcDbArc
 50
90.0
 51
180.0
  0
ARC
  5
78F
330
1A
100
AcDbEntity
  8
ZUWAKU
100
AcDbCircle
 10
24.9422110155283
 20
19.04999923624853
 30
0.0
 40
1.399999999999999
100
AcDbArc
 50
90.0
 51
180.0
  0
LINE
  5
790
330
1A
100
AcDbEntity
  8
ZUWAKU
100
AcDbLine
 10
18.11721101552825
 20
22.72499923624852
 30
0.0
 11
18.11721101552825
 21
20.97499923624853
 31
0.0
  0
LINE
  5
791
330
1A
100
AcDbEntity
  8
ZUWAKU
100
AcDbLine
 10
35.67634595284414
 20
22.8830932044155
 30
0.0
 11
33.80807607821236
 21
16.96690526808156
 31
0.0
  0
LINE
  5
792
330
1A
100
AcDbEntity
  8
ZUWAKU
100
AcDbLine
 10
29.84221101552828
 20
22.72499923624852
 30
0.0
 11
29.84221101552828
 21
7.674999236248531
 31
0.0
  0
LINE
  5
793
330
1A
100
AcDbEntity
  8
ZUWAKU
100
AcDbLine
 10
32.64221101552834
 20
17.12499923624853
 30
0.0
 11
32.64221101552834
 21
22.72499923624852
 31
0.0
  0
LINE
  5
794
330
1A
100
AcDbEntity
  8
ZUWAKU
100
AcDbLine
 10
57.84221101552827
 20
10.99999923624852
 30
0.0
 11
57.84221101552827
 21
22.72499923624852
 31
0.0
  0
LINE
  5
795
330
1A
100
AcDbEntity
  8
ZUWAKU
100
AcDbLine
 10
55.04221101552833
 20
22.72499923624852
 30
0.0
 11
55.04221101552833
 21
9.94999923624853
 31
0.0
  0
LINE
  5
796
330
1A
100
AcDbEntity
  8
ZUWAKU
100
AcDbLine
 10
43.49221101552825
 20
7.674999236248531
 30
0.0
 11
43.49221101552825
 21
22.72499923624852
 31
0.0
  0
LINE
  5
797
330
1A
100
AcDbEntity
  8
ZUWAKU
100
AcDbLine
 10
40.69221101552829
 20
22.72499923624852
 30
0.0
 11
40.69221101552829
 21
7.674999236248531
 31
0.0
  0
LINE
  5
798
330
1A
100
AcDbEntity
  8
ZUWAKU
100
AcDbLine
 10
37.31485749770627
 20
19.20504642981195
 30
0.0
 11
36.05010575237042
 21
15.19999923624855
 31
0.0
  0
ARC
  5
799
330
1A
100
AcDbEntity
  8
ZUWAKU
100
AcDbCircle
 10
49.79221101552832
 20
18.63479721089323
 30
0.0
 40
4.199999999999999
100
AcDbArc
 50
180.0
 51
225.0
  0
ARC
  5
79A
330
1A
100
AcDbEntity
  8
ZUWAKU
100
AcDbCircle
 10
49.79221101552832
 20
18.63479721089323
 30
0.0
 40
1.399999999999999
100
AcDbArc
 50
180.0000000000016
 51
224.9999999999988
  0
LINE
  5
79B
330
1A
100
AcDbEntity
  8
ZUWAKU
100
AcDbLine
 10
66.24221101552826
 20
22.72499923624852
 30
0.0
 11
66.24221101552826
 21
7.674999236248531
 31
0.0
  0
LINE
  5
79C
330
1A
100
AcDbEntity
  8
ZUWAKU
100
AcDbLine
 10
69.04221101552832
 20
7.674999236248531
 30
0.0
 11
69.04221101552832
 21
22.72499923624852
 31
0.0
  0
LINE
  5
79D
330
1A
100
AcDbEntity
  8
ZUWAKU
100
AcDbLine
 10
61.34221101552828
 20
22.72499923624852
 30
0.0
 11
61.34221101552828
 21
10.99999923624852
 31
0.0
  0
LINE
  5
79E
330
1A
100
AcDbEntity
  8
ZUWAKU
100
AcDbLine
 10
64.14221101552834
 20
9.94999923624853
 30
0.0
 11
64.14221101552834
 21
22.72499923624852
 31
0.0
  0
LINE
  5
79F
330
1A
100
AcDbEntity
  8
ZUWAKU
100
AcDbLine
 10
79.12662840873554
 20
29.99999923624852
 30
0.0
 11
79.12662840873554
 21
0.7999992362485955
 31
0.0
  0
LINE
  5
7A0
330
1A
100
AcDbEntity
  8
ZUWAKU
100
AcDbLine
 10
79.5266284087354
 20
29.99999923624852
 30
0.0
 11
79.52662840873563
 21
0.7999992362485955
 31
0.0
  0
LINE
  5
7A1
330
1A
100
AcDbEntity
  8
ZUWAKU
100
AcDbLine
 10
79.32662840873536
 20
29.99999923624852
 30
0.0
 11
79.32662840873558
 21
0.7999992362485955
 31
0.0
  0
LINE
  5
7A2
330
1A
100
AcDbEntity
  8
ZUWAKU
100
AcDbLine
 10
57.84221101552827
 20
7.149999236248532
 30
0.0
 11
61.34221101552828
 21
7.149999236248532
 31
0.0
  0
LINE
  5
7A3
330
1A
100
AcDbEntity
  8
ZUWAKU
100
AcDbLine
 10
60.29221101552832
 20
9.94999923624853
 30
0.0
 11
58.89221101552834
 21
9.94999923624853
 31
0.0
  0
LINE
  5
7A4
330
1A
100
AcDbEntity
  8
ZUWAKU
100
AcDbLine
 10
41.21721101552828
 20
7.149999236248532
 30
0.0
 11
42.96721101552828
 21
7.149999236248532
 31
0.0
  0
LINE
  5
7A5
330
1A
100
AcDbEntity
  8
ZUWAKU
100
AcDbLine
 10
35.67634595284414
 20
7.516905268081558
 30
0.0
 11
33.80807607821236
 21
13.4330932044155
 31
0.0
  0
ARC
  5
7A6
330
1A
100
AcDbEntity
  8
ZUWAKU
100
AcDbCircle
 10
33.16721101552832
 20
13.27499923624853
 30
0.0
 40
0.525
100
AcDbArc
 50
90.0
 51
180.0
  0
ARC
  5
7A7
330
1A
100
AcDbEntity
  8
ZUWAKU
100
AcDbCircle
 10
33.30744517901701
 20
13.27499923624853
 30
0.0
 40
0.525
100
AcDbArc
 50
17.52556837372303
 51
90.0
  0
ARC
  5
7A8
330
1A
100
AcDbEntity
  8
ZUWAKU
100
AcDbCircle
 10
30.36721101552825
 20
7.674999236248531
 30
0.0
 40
0.525
100
AcDbArc
 50
180.0
 51
270.0
  0
ARC
  5
7A9
330
1A
100
AcDbEntity
  8
ZUWAKU
100
AcDbCircle
 10
26.86721101552825
 20
9.424999236248531
 30
0.0
 40
0.525
100
AcDbArc
 50
0.0
 51
90.0
  0
ARC
  5
7AA
330
1A
100
AcDbEntity
  8
ZUWAKU
100
AcDbCircle
 10
26.86721101552825
 20
7.674999236248531
 30
0.0
 40
0.525
100
AcDbArc
 50
270.0
 51
0.0
  0
LINE
  5
7AB
330
1A
100
AcDbEntity
  8
ZUWAKU
100
AcDbLine
 10
27.39221101552834
 20
9.424999236248531
 30
0.0
 11
27.39221101552834
 21
7.674999236248531
 31
0.0
  0
LINE
  5
7AC
330
1A
100
AcDbEntity
  8
ZUWAKU
100
AcDbLine
 10
32.64221101552834
 20
7.674999236248531
 30
0.0
 11
32.64221101552834
 21
13.27499923624853
 31
0.0
  0
ARC
  5
7AD
330
1A
100
AcDbEntity
  8
ZUWAKU
100
AcDbCircle
 10
32.11721101552825
 20
7.674999236248531
 30
0.0
 40
0.525
100
AcDbArc
 50
270.0
 51
0.0
  0
LINE
  5
7AE
330
1A
100
AcDbEntity
  8
ZUWAKU
100
AcDbLine
 10
30.36721101552825
 20
7.149999236248532
 30
0.0
 11
32.11721101552825
 21
7.149999236248532
 31
0.0
  0
ARC
  5
7AF
330
1A
100
AcDbEntity
  8
ZUWAKU
100
AcDbCircle
 10
33.16721101552832
 20
17.12499923624853
 30
0.0
 40
0.525
100
AcDbArc
 50
180.0
 51
270.0
  0
LINE
  5
7B0
330
1A
100
AcDbEntity
  8
ZUWAKU
100
AcDbLine
 10
33.16721101552832
 20
13.79999923624853
 30
0.0
 11
33.30744517901701
 21
13.79999923624853
 31
0.0
  0
LINE
  5
7B1
330
1A
100
AcDbEntity
  8
ZUWAKU
100
AcDbLine
 10
33.30744517901701
 20
16.59999923624853
 30
0.0
 11
33.16721101552832
 21
16.59999923624853
 31
0.0
  0
ARC
  5
7B2
330
1A
100
AcDbEntity
  8
ZUWAKU
100
AcDbCircle
 10
33.30744517901701
 20
17.12499923624853
 30
0.0
 40
0.525
100
AcDbArc
 50
270.0
 51
342.4744316262769
  0
ARC
  5
7B3
330
1A
100
AcDbEntity
  8
ZUWAKU
100
AcDbCircle
 10
36.17697685203961
 20
7.674999236248531
 30
0.0
 40
0.525
100
AcDbArc
 50
197.525568373723
 51
270.0
  0
LINE
  5
7B4
330
1A
100
AcDbEntity
  8
ZUWAKU
100
AcDbLine
 10
38.37649713084408
 20
7.833093204415504
 30
0.0
 11
36.05010575237042
 21
15.19999923624855
 31
0.0
  0
ARC
  5
7B5
330
1A
100
AcDbEntity
  8
ZUWAKU
100
AcDbCircle
 10
37.87586623164861
 20
7.674999236248531
 30
0.0
 40
0.525
100
AcDbArc
 50
270.0
 51
17.52556837372303
  0
LINE
  5
7B6
330
1A
100
AcDbEntity
  8
ZUWAKU
100
AcDbLine
 10
36.17697685203961
 20
7.149999236248532
 30
0.0
 11
37.87586623164861
 21
7.149999236248532
 31
0.0
  0
ARC
  5
7B7
330
1A
100
AcDbEntity
  8
ZUWAKU
100
AcDbCircle
 10
41.21721101552828
 20
7.674999236248531
 30
0.0
 40
0.525
100
AcDbArc
 50
180.0
 51
270.0
  0
ARC
  5
7B8
330
1A
100
AcDbEntity
  8
ZUWAKU
100
AcDbCircle
 10
50.14221101552834
 20
9.94999923624853
 30
0.0
 40
2.799999999999999
100
AcDbArc
 50
270.0
 51
0.0
  0
ARC
  5
7B9
330
1A
100
AcDbEntity
  8
ZUWAKU
100
AcDbCircle
 10
57.84221101552827
 20
9.94999923624853
 30
0.0
 40
2.799999999999999
100
AcDbArc
 50
180.0
 51
270.0
  0
LINE
  5
7BA
330
1A
100
AcDbEntity
  8
ZUWAKU
100
AcDbLine
 10
51.71205949651187
 20
14.73504974258735
 30
0.0
 11
48.80226152186708
 21
17.64484771723203
 31
0.0
  0
LINE
  5
7BB
330
1A
100
AcDbEntity
  8
ZUWAKU
100
AcDbLine
 10
46.82236253454482
 20
15.66494872990971
 30
0.0
 11
49.73216050918949
 21
12.75515075526505
 31
0.0
  0
LINE
  5
7BC
330
1A
100
AcDbEntity
  8
ZUWAKU
100
AcDbLine
 10
46.64221101552834
 20
7.149999236248532
 30
0.0
 11
50.14221101552834
 21
7.149999236248532
 31
0.0
  0
LINE
  5
7BD
330
1A
100
AcDbEntity
  8
ZUWAKU
100
AcDbLine
 10
46.64221101552834
 20
9.94999923624853
 30
0.0
 11
49.61721101552825
 21
9.94999923624853
 31
0.0
  0
ARC
  5
7BE
330
1A
100
AcDbEntity
  8
ZUWAKU
100
AcDbCircle
 10
46.64221101552834
 20
9.424999236248531
 30
0.0
 40
0.525
100
AcDbArc
 50
90.0
 51
180.0
  0
ARC
  5
7BF
330
1A
100
AcDbEntity
  8
ZUWAKU
100
AcDbCircle
 10
42.96721101552828
 20
7.674999236248531
 30
0.0
 40
0.525
100
AcDbArc
 50
270.0
 51
0.0
  0
ARC
  5
7C0
330
1A
100
AcDbEntity
  8
ZUWAKU
100
AcDbCircle
 10
46.64221101552834
 20
7.674999236248531
 30
0.0
 40
0.525
100
AcDbArc
 50
180.0
 51
270.0
  0
LINE
  5
7C1
330
1A
100
AcDbEntity
  8
ZUWAKU
100
AcDbLine
 10
46.11721101552825
 20
7.674999236248531
 30
0.0
 11
46.11721101552825
 21
9.424999236248531
 31
0.0
  0
ARC
  5
7C2
330
1A
100
AcDbEntity
  8
ZUWAKU
100
AcDbCircle
 10
49.61721101552825
 20
10.47499923624853
 30
0.0
 40
0.525
100
AcDbArc
 50
270.0
 51
0.0
  0
ARC
  5
7C3
330
1A
100
AcDbEntity
  8
ZUWAKU
100
AcDbCircle
 10
48.74221101552826
 20
11.76520126160387
 30
0.0
 40
1.399999999999999
100
AcDbArc
 50
0.0
 51
45.0
  0
LINE
  5
7C4
330
1A
100
AcDbEntity
  8
ZUWAKU
100
AcDbLine
 10
50.14221101552834
 20
10.47499923624853
 30
0.0
 11
50.14221101552834
 21
11.76520126160387
 31
0.0
  0
ARC
  5
7C5
330
1A
100
AcDbEntity
  8
ZUWAKU
100
AcDbCircle
 10
58.89221101552834
 20
10.99999923624852
 30
0.0
 40
1.049999999999999
100
AcDbArc
 50
180.0
 51
270.0
  0
ARC
  5
7C6
330
1A
100
AcDbEntity
  8
ZUWAKU
100
AcDbCircle
 10
48.74221101552826
 20
11.76520126160383
 30
0.0
 40
4.199999999999999
100
AcDbArc
 50
0.0
 51
45.0
  0
LINE
  5
7C7
330
1A
100
AcDbEntity
  8
ZUWAKU
100
AcDbLine
 10
52.9422110155283
 20
9.94999923624853
 30
0.0
 11
52.9422110155283
 21
11.76520126160387
 31
0.0
  0
ARC
  5
7C8
330
1A
100
AcDbEntity
  8
ZUWAKU
100
AcDbCircle
 10
61.34221101552828
 20
9.94999923624853
 30
0.0
 40
2.799999999999999
100
AcDbArc
 50
270.0
 51
0.0
  0
LINE
  5
7C9
330
1A
100
AcDbEntity
  8
ZUWAKU
100
AcDbLine
 10
66.76721101552835
 20
7.149999236248532
 30
0.0
 11
68.51721101552834
 21
7.149999236248532
 31
0.0
  0
ARC
  5
7CA
330
1A
100
AcDbEntity
  8
ZUWAKU
100
AcDbCircle
 10
60.29221101552832
 20
10.99999923624852
 30
0.0
 40
1.049999999999999
100
AcDbArc
 50
270.0
 51
0.0
  0
ARC
  5
7CB
330
1A
100
AcDbEntity
  8
ZUWAKU
100
AcDbCircle
 10
66.76721101552835
 20
7.674999236248531
 30
0.0
 40
0.525
100
AcDbArc
 50
180.0
 51
270.0
  0
ARC
  5
7CC
330
1A
100
AcDbEntity
  8
ZUWAKU
100
AcDbCircle
 10
68.51721101552834
 20
7.674999236248531
 30
0.0
 40
0.525
100
AcDbArc
 50
270.0
 51
0.0
  0
LINE
  5
7CD
330
1A
100
AcDbEntity
  8
ZUWAKU
100
AcDbLine
 10
42.96721101552828
 20
23.24999923624853
 30
0.0
 11
41.21721101552828
 21
23.24999923624853
 31
0.0
  0
LINE
  5
7CE
330
1A
100
AcDbEntity
  8
ZUWAKU
100
AcDbLine
 10
27.39221101552834
 20
22.72499923624852
 30
0.0
 11
27.39221101552834
 21
20.97499923624853
 31
0.0
  0
ARC
  5
7CF
330
1A
100
AcDbEntity
  8
ZUWAKU
100
AcDbCircle
 10
26.86721101552825
 20
20.97499923624853
 30
0.0
 40
0.525
100
AcDbArc
 50
270.0
 51
0.0
  0
ARC
  5
7D0
330
1A
100
AcDbEntity
  8
ZUWAKU
100
AcDbCircle
 10
30.36721101552825
 20
22.72499923624852
 30
0.0
 40
0.525
100
AcDbArc
 50
90.0
 51
180.0
  0
ARC
  5
7D1
330
1A
100
AcDbEntity
  8
ZUWAKU
100
AcDbCircle
 10
26.86721101552825
 20
22.72499923624852
 30
0.0
 40
0.525
100
AcDbArc
 50
0.0
 51
90.0
  0
LINE
  5
7D2
330
1A
100
AcDbEntity
  8
ZUWAKU
100
AcDbLine
 10
32.11721101552825
 20
23.24999923624853
 30
0.0
 11
30.36721101552825
 21
23.24999923624853
 31
0.0
  0
ARC
  5
7D3
330
1A
100
AcDbEntity
  8
ZUWAKU
100
AcDbCircle
 10
32.11721101552825
 20
22.72499923624852
 30
0.0
 40
0.525
100
AcDbArc
 50
0.0
 51
90.0
  0
ARC
  5
7D4
330
1A
100
AcDbEntity
  8
ZUWAKU
100
AcDbCircle
 10
36.17697685203961
 20
22.72499923624852
 30
0.0
 40
0.525
100
AcDbArc
 50
90.0
 51
162.4744316262769
  0
LINE
  5
7D5
330
1A
100
AcDbEntity
  8
ZUWAKU
100
AcDbLine
 10
38.37649713084408
 20
22.56690526808156
 30
0.0
 11
37.31485749770627
 21
19.20504642981195
 31
0.0
  0
ARC
  5
7D6
330
1A
100
AcDbEntity
  8
ZUWAKU
100
AcDbCircle
 10
37.87586623164861
 20
22.72499923624852
 30
0.0
 40
0.525
100
AcDbArc
 50
342.4744316262769
 51
90.0
  0
LINE
  5
7D7
330
1A
100
AcDbEntity
  8
ZUWAKU
100
AcDbLine
 10
36.17697685203961
 20
23.24999923624853
 30
0.0
 11
37.87586623164861
 21
23.24999923624853
 31
0.0
  0
ARC
  5
7D8
330
1A
100
AcDbEntity
  8
ZUWAKU
100
AcDbCircle
 10
41.21721101552828
 20
22.72499923624852
 30
0.0
 40
0.525
100
AcDbArc
 50
90.0
 51
180.0
  0
LINE
  5
7D9
330
1A
100
AcDbEntity
  8
ZUWAKU
100
AcDbLine
 10
51.89221101552835
 20
20.44999923624853
 30
0.0
 11
48.91721101552832
 21
20.44999923624853
 31
0.0
  0
LINE
  5
7DA
330
1A
100
AcDbEntity
  8
ZUWAKU
100
AcDbLine
 10
48.39221101552834
 20
23.24999923624853
 30
0.0
 11
51.89221101552835
 21
23.24999923624853
 31
0.0
  0
ARC
  5
7DB
330
1A
100
AcDbEntity
  8
ZUWAKU
100
AcDbCircle
 10
48.39221101552834
 20
20.44999923624853
 30
0.0
 40
2.799999999999999
100
AcDbArc
 50
90.0
 51
180.0
  0
LINE
  5
7DC
330
1A
100
AcDbEntity
  8
ZUWAKU
100
AcDbLine
 10
45.59221101552828
 20
20.44999923624853
 30
0.0
 11
45.59221101552828
 21
18.63479721089318
 31
0.0
  0
ARC
  5
7DD
330
1A
100
AcDbEntity
  8
ZUWAKU
100
AcDbCircle
 10
42.96721101552828
 20
22.72499923624852
 30
0.0
 40
0.525
100
AcDbArc
 50
0.0
 51
90.0
  0
LINE
  5
7DE
330
1A
100
AcDbEntity
  8
ZUWAKU
100
AcDbLine
 10
48.39221101552834
 20
19.92499923624853
 30
0.0
 11
48.39221101552834
 21
18.63479721089318
 31
0.0
  0
ARC
  5
7DF
330
1A
100
AcDbEntity
  8
ZUWAKU
100
AcDbCircle
 10
48.91721101552832
 20
19.92499923624853
 30
0.0
 40
0.525
100
AcDbArc
 50
90.0
 51
180.0
  0
LINE
  5
7E0
330
1A
100
AcDbEntity
  8
ZUWAKU
100
AcDbLine
 10
52.41721101552832
 20
22.72499923624852
 30
0.0
 11
52.41721101552832
 21
20.97499923624853
 31
0.0
  0
ARC
  5
7E1
330
1A
100
AcDbEntity
  8
ZUWAKU
100
AcDbCircle
 10
51.89221101552835
 20
20.97499923624853
 30
0.0
 40
0.525
100
AcDbArc
 50
270.0
 51
0.0
  0
ARC
  5
7E2
330
1A
100
AcDbEntity
  8
ZUWAKU
100
AcDbCircle
 10
51.89221101552835
 20
22.72499923624852
 30
0.0
 40
0.525
100
AcDbArc
 50
0.0
 51
90.0
  0
LINE
  5
7E3
330
1A
100
AcDbEntity
  8
ZUWAKU
100
AcDbLine
 10
57.3172110155283
 20
23.24999923624853
 30
0.0
 11
55.5672110155283
 21
23.24999923624853
 31
0.0
  0
ARC
  5
7E4
330
1A
100
AcDbEntity
  8
ZUWAKU
100
AcDbCircle
 10
55.5672110155283
 20
22.72499923624852
 30
0.0
 40
0.525
100
AcDbArc
 50
90.0
 51
180.0
  0
ARC
  5
7E5
330
1A
100
AcDbEntity
  8
ZUWAKU
100
AcDbCircle
 10
57.3172110155283
 20
22.72499923624852
 30
0.0
 40
0.525
100
AcDbArc
 50
0.0
 51
90.0
  0
LINE
  5
7E6
330
1A
100
AcDbEntity
  8
ZUWAKU
100
AcDbLine
 10
68.51721101552834
 20
23.24999923624853
 30
0.0
 11
66.76721101552835
 21
23.24999923624853
 31
0.0
  0
ARC
  5
7E7
330
1A
100
AcDbEntity
  8
ZUWAKU
100
AcDbCircle
 10
61.86721101552826
 20
22.72499923624852
 30
0.0
 40
0.525
100
AcDbArc
 50
90.0
 51
180.0
  0
LINE
  5
7E8
330
1A
100
AcDbEntity
  8
ZUWAKU
100
AcDbLine
 10
63.61721101552825
 20
23.24999923624853
 30
0.0
 11
61.86721101552826
 21
23.24999923624853
 31
0.0
  0
ARC
  5
7E9
330
1A
100
AcDbEntity
  8
ZUWAKU
100
AcDbCircle
 10
63.61721101552825
 20
22.72499923624852
 30
0.0
 40
0.525
100
AcDbArc
 50
0.0
 51
90.0
  0
ARC
  5
7EA
330
1A
100
AcDbEntity
  8
ZUWAKU
100
AcDbCircle
 10
66.76721101552835
 20
22.72499923624852
 30
0.0
 40
0.525
100
AcDbArc
 50
90.0
 51
180.0
  0
ARC
  5
7EB
330
1A
100
AcDbEntity
  8
ZUWAKU
100
AcDbCircle
 10
68.51721101552834
 20
22.72499923624852
 30
0.0
 40
0.525
100
AcDbArc
 50
0.0
 51
90.0
  0
TEXT
  5
7EC
330
1A
100
AcDbEntity
  8
MOJI
100
AcDbText
 10
239.8272015415982
 20
18.00492029365591
 30
0.0
 40
5.599999999999999
  1
ブラケット正面打（吊）固定式
 41
0.9
  7
ｽﾀｲﾙ1
100
AcDbText
  0
TEXT
  5
7ED
330
1A
100
AcDbEntity
  8
MOJI
100
AcDbText
 10
239.8272015415982
 20
3.204920293655948
 30
0.0
 40
5.599999999999999
  1
ＲＶ１０５－０－１０
 41
0.9
  7
ｽﾀｲﾙ1
100
AcDbText
  0
LINE
  5
7EE
330
1A
100
AcDbEntity
  8
ZUWAKU
100
AcDbLine
 10
208.4466001508149
 20
29.99999923624852
 30
0.0
 11
208.4466001508151
 21
0.7999992362485955
 31
0.0
  0
LINE
  5
7EF
330
1A
100
AcDbEntity
  8
ZUWAKU
100
AcDbLine
 10
208.6466001508149
 20
29.99999923624852
 30
0.0
 11
208.6466001508151
 21
0.7999992362485955
 31
0.0
  0
LINE
  5
7F0
330
1A
100
AcDbEntity
  8
ZUWAKU
100
AcDbLine
 10
208.2466001508151
 20
29.99999923624852
 30
0.0
 11
208.2466001508151
 21
0.7999992362485955
 31
0.0
  0
TEXT
  5
7F1
330
1A
100
AcDbEntity
  8
ZUWAKU
100
AcDbText
 10
209.7240451730247
 20
9.655355774634145
 30
0.0
 40
4.0
  1
サイズ
 41
0.9
  7
ｽﾀｲﾙ1
100
AcDbText
  0
TEXT
  5
7F2
330
1A
100
AcDbEntity
  8
ZUWAKU
100
AcDbText
 10
209.7240451730244
 20
24.0553557746341
 30
0.0
 40
4.0
  1
品名
 41
0.9
  7
ｽﾀｲﾙ1
100
AcDbText
  0
TEXT
  5
7F3
330
1A
100
AcDbEntity
  8
ZUWAKU
100
AcDbText
 10
658.2039365480495
 20
18.00492029365591
 30
0.0
 40
5.599999999999999
  1
　　．　　．　　
 41
0.9
  7
ｽﾀｲﾙ1
100
AcDbText
  0
LINE
  5
7F4
330
1A
100
AcDbEntity
  8
ZUWAKU
100
AcDbLine
 10
648.8172013709514
 20
15.59999923624856
 30
0.0
 11
697.2490094092884
 21
15.59999923624856
 31
0.0
  0
LINE
  5
7F5
330
1A
100
AcDbEntity
  8
ZUWAKU
100
AcDbLine
 10
648.8172013709515
 20
15.39999923624856
 30
0.0
 11
697.2490094092884
 21
15.39999923624856
 31
0.0
  0
LINE
  5
7F6
330
1A
100
AcDbEntity
  8
ZUWAKU
100
AcDbLine
 10
648.8172013709514
 20
15.19999923624856
 30
0.0
 11
697.2490094092884
 21
15.19999923624856
 31
0.0
  0
LINE
  5
7F7
330
1A
100
AcDbEntity
  8
ZUWAKU
100
AcDbLine
 10
505.1991783588881
 20
15.59999923624856
 30
0.0
 11
552.5269546268596
 21
15.59999923624856
 31
0.0
  0
LINE
  5
7F8
330
1A
100
AcDbEntity
  8
ZUWAKU
100
AcDbLine
 10
505.1991783588881
 20
15.39999923624856
 30
0.0
 11
552.5269546268596
 21
15.39999923624856
 31
0.0
  0
LINE
  5
7F9
330
1A
100
AcDbEntity
  8
ZUWAKU
100
AcDbLine
 10
505.1991783588881
 20
15.19999923624856
 30
0.0
 11
552.5269546268596
 21
15.19999923624856
 31
0.0
  0
LINE
  5
7FA
330
1A
100
AcDbEntity
  8
ZUWAKU
100
AcDbLine
 10
504.7991783588882
 20
29.99999923624852
 30
0.0
 11
504.7991783588882
 21
0.7999992362485955
 31
0.0
  0
LINE
  5
7FB
330
1A
100
AcDbEntity
  8
ZUWAKU
100
AcDbLine
 10
505.1991783588881
 20
29.99999923624852
 30
0.0
 11
505.1991783588882
 21
0.7999992362485955
 31
0.0
  0
LINE
  5
7FC
330
1A
100
AcDbEntity
  8
ZUWAKU
100
AcDbLine
 10
504.999178358888
 20
29.99999923624852
 30
0.0
 11
504.9991783588882
 21
0.7999992362485955
 31
0.0
  0
TEXT
  5
7FD
330
1A
100
AcDbEntity
  8
MOJI
100
AcDbText
 10
528.04090683306
 20
18.00492029365591
 30
0.0
 40
5.599999999999999
  1
Ａ３
 41
0.9
  7
ｽﾀｲﾙ1
100
AcDbText
  0
LINE
  5
7FE
330
1A
100
AcDbEntity
  8
ZUWAKU
100
AcDbLine
 10
447.4243628317386
 20
29.99999923624852
 30
0.0
 11
447.4243628317386
 21
0.7999992362485955
 31
0.0
  0
LINE
  5
7FF
330
1A
100
AcDbEntity
  8
ZUWAKU
100
AcDbLine
 10
447.8243628317384
 20
29.99999923624852
 30
0.0
 11
447.8243628317386
 21
0.7999992362485955
 31
0.0
  0
LINE
  5
800
330
1A
100
AcDbEntity
  8
ZUWAKU
100
AcDbLine
 10
447.6243628317384
 20
29.99999923624852
 30
0.0
 11
447.6243628317385
 21
0.7999992362485955
 31
0.0
  0
TEXT
  5
801
330
1A
100
AcDbEntity
  8
MOJI
100
AcDbText
 10
464.5946248639861
 20
11.94261695790851
 30
0.0
 40
5.599999999999999
  1
ＬＨ５３□
 41
0.9
  7
ｽﾀｲﾙ1
100
AcDbText
  0
TEXT
  5
802
330
1A
100
AcDbEntity
  8
ZUWAKU
100
AcDbText
 10
462.6937605162543
 20
2.614070147388019
 30
0.0
 40
3.0
  1
□には色品番が入ります
 41
0.9
  7
ｽﾀｲﾙ1
100
AcDbText
  0
TEXT
  5
803
330
1A
100
AcDbEntity
  8
ZUWAKU
100
AcDbText
 10
506.6766233810978
 20
9.655355774634145
 30
0.0
 40
4.0
  1
縮尺
 41
0.9
  7
ｽﾀｲﾙ1
100
AcDbText
  0
TEXT
  5
804
330
1A
100
AcDbEntity
  8
MOJI
100
AcDbText
 10
528.04090683306
 20
3.204920293655948
 30
0.0
 40
5.599999999999999
  1
１/２
 41
0.9
  7
ｽﾀｲﾙ1
100
AcDbText
  0
TEXT
  5
805
330
1A
100
AcDbEntity
  8
ZUWAKU
100
AcDbText
 10
449.301807853948
 20
24.0553557746341
 30
0.0
 40
4.0
  1
品番
 41
0.9
  7
ｽﾀｲﾙ1
100
AcDbText
  0
TEXT
  5
806
330
1A
100
AcDbEntity
  8
ZUWAKU
100
AcDbText
 10
506.6766233810977
 20
24.0553557746341
 30
0.0
 40
4.0
  1
用紙
 41
0.9
  7
ｽﾀｲﾙ1
100
AcDbText
  0
LINE
  5
807
330
1A
100
AcDbEntity
  8
ZUWAKU
100
AcDbLine
 10
552.5269546268596
 20
29.99999923624852
 30
0.0
 11
552.5269546268596
 21
0.7999992362485955
 31
0.0
  0
LINE
  5
808
330
1A
100
AcDbEntity
  8
ZUWAKU
100
AcDbLine
 10
552.9269546268595
 20
29.99999923624852
 30
0.0
 11
552.9269546268596
 21
0.7999992362485955
 31
0.0
  0
LINE
  5
809
330
1A
100
AcDbEntity
  8
ZUWAKU
100
AcDbLine
 10
552.7269546268594
 20
29.99999923624852
 30
0.0
 11
552.7269546268597
 21
0.7999992362485955
 31
0.0
  0
LINE
  5
80A
330
1A
100
AcDbEntity
  8
ZUWAKU
100
AcDbLine
 10
648.4172013709517
 20
29.99999923624852
 30
0.0
 11
648.4172013709517
 21
0.7999992362485955
 31
0.0
  0
LINE
  5
80B
330
1A
100
AcDbEntity
  8
ZUWAKU
100
AcDbLine
 10
648.8172013709515
 20
29.99999923624852
 30
0.0
 11
648.8172013709518
 21
0.7999992362485955
 31
0.0
  0
LINE
  5
80C
330
1A
100
AcDbEntity
  8
ZUWAKU
100
AcDbLine
 10
648.6172013709515
 20
29.99999923624852
 30
0.0
 11
648.6172013709517
 21
0.7999992362485955
 31
0.0
  0
TEXT
  5
80D
330
1A
100
AcDbEntity
  8
ZUWAKU
100
AcDbText
 10
650.2946463931611
 20
24.0553557746341
 30
0.0
 40
4.0
  1
DATE
 41
0.9
  7
ｽﾀｲﾙ1
100
AcDbText
  0
TEXT
  5
80E
330
1A
100
AcDbEntity
  8
ZUWAKU
100
AcDbText
 10
708.5280830529909
 20
17.55383857193533
 30
0.0
 40
6.0
  1
積水化学工業株式会社
 41
0.9
  7
ｽﾀｲﾙ1
100
AcDbText
  0
LINE
  5
80F
330
1A
100
AcDbEntity
  8
ZUWAKU
100
AcDbLine
 10
697.8490094092883
 20
29.99999923624852
 30
0.0
 11
697.8490094092885
 21
0.7999992362485955
 31
0.0
  0
LINE
  5
810
330
1A
100
AcDbEntity
  8
ZUWAKU
100
AcDbLine
 10
697.6490094092882
 20
29.99999923624852
 30
0.0
 11
697.6490094092885
 21
0.7999992362485955
 31
0.0
  0
LINE
  5
811
330
1A
100
AcDbEntity
  8
ZUWAKU
100
AcDbLine
 10
697.4490094092884
 20
29.99999923624852
 30
0.0
 11
697.4490094092884
 21
0.7999992362485955
 31
0.0
  0
LINE
  5
812
330
1A
100
AcDbEntity
  8
ZUWAKU
100
AcDbLine
 10
697.2490094092884
 20
29.99999923624852
 30
0.0
 11
697.2490094092884
 21
0.7999992362485955
 31
0.0
  0
TEXT
  5
813
330
1A
100
AcDbEntity
  8
ZUWAKU
100
AcDbText
 10
708.5280830529909
 20
6.648839550102593
 30
0.0
 40
6.0
  1
建材事業部
 41
0.9
  7
ｽﾀｲﾙ1
100
AcDbText
  0
VIEWPORT
  5
22
330
17
100
AcDbEntity
 67
     1
  8
0
100
AcDbViewport
 10
313.6808219178082
 20
148.5
 30
0.0
 40
627.3616438356165
 41
297.0
 68
     2
 69
     1
1001
ACAD
1000
MVIEW
1002
{
1070
    16
1010
0.0
1020
0.0
1030
0.0
1010
0.0
1020
0.0
1030
1.0
1040
0.0
1040
297.0
1040
313.6808219178082
1040
148.5
1040
50.0
1040
0.0
1040
0.0
1070
     0
1070
   100
1070
     1
1070
     0
1070
     0
1070
     0
1070
     0
1070
     0
1040
0.0
1040
0.0
1040
0.0
1040
1.0
1040
1.0
1040
10.0
1040
10.0
1070
     0
1002
{
1002
}
1002
}
  0
VIEWPORT
  5
64
330
17
100
AcDbEntity
 67
     1
  8
VIEWPORT
100
AcDbViewport
 10
210.0
 20
148.5
 30
0.0
 40
420.0
 41
297.0
 68
     1
 69
     2
1001
ACAD
1000
MVIEW
1002
{
1070
    16
1010
0.0
1020
0.0
1030
0.0
1010
0.0
1020
0.0
1030
1.0
1040
0.0
1040
605.8799999999998
1040
420.0
1040
297.0
1040
50.0
1040
0.0
1040
0.0
1070
     0
1070
   100
1070
     1
1070
     0
1070
     0
1070
     0
1070
     0
1070
     0
1040
0.0
1040
0.0
1040
0.0
1040
10.0
1040
10.0
1040
0.0
1040
0.0
1070
     0
1002
{
1002
}
1002
}
  0
ENDSEC
  0
SECTION
  2
OBJECTS
  0
DICTIONARY
  5
C
330
0
100
AcDbDictionary
  3
ACAD_GROUP
350
D
  3
ACAD_LAYOUT
350
61E
  3
ACAD_MLINESTYLE
350
E
  3
ACAD_PLOTSETTINGS
350
61F
  3
ACAD_PLOTSTYLENAME
350
61C
  3
ACDBHEADERROUNDTRIPXREC
350
81B
  0
DICTIONARY
  5
658
330
1A
100
AcDbDictionary
280
     1
  3
ACAD_LAYOUTSELFREF
360
83D
  0
DICTIONARY
  5
656
330
17
100
AcDbDictionary
280
     1
  3
ACAD_LAYOUTSELFREF
360
83C
  0
DICTIONARY
  5
D
102
{ACAD_REACTORS
330
C
102
}
330
C
100
AcDbDictionary
  0
DICTIONARY
  5
61E
102
{ACAD_REACTORS
330
C
102
}
330
C
100
AcDbDictionary
  0
DICTIONARY
  5
E
102
{ACAD_REACTORS
330
C
102
}
330
C
100
AcDbDictionary
  3
STANDARD
350
13
  0
DICTIONARY
  5
61F
102
{ACAD_REACTORS
330
C
102
}
330
C
100
AcDbDictionary
  0
ACDBDICTIONARYWDFLT
  5
61C
102
{ACAD_REACTORS
330
C
102
}
330
C
100
AcDbDictionary
281
     1
  3
Normal
350
61D
100
AcDbDictionaryWithDefault
340
61D
1001
ACAD
1000
TREAT_AS_HARD
1070
     0
1000
TREAT_AS_HARD
1070
     0
  0
DICTIONARY
  5
81B
102
{ACAD_REACTORS
330
C
102
}
330
C
100
AcDbDictionary
  3
TSTACKALIGN
350
81C
  3
TSTACKSIZE
350
81D
  3
HYPERLINKBASE
350
81E
  3
STYLESHEET
350
81F
  3
LAYOUTDICT
350
820
  3
PLOTSETDICT
350
821
  3
PLOTSTYLNAMDICT
350
822
  3
LWETCUNION
350
823
  3
INSUNITS
350
824
  3
CEPSNTYPE
350
825
  3
FINGERPRINTGUID
350
826
  3
VERSIONGUID
350
827
  3
PSVPSCALE
350
828
  3
DIMSTYLEDATA
350
829
  3
PUCSORTHOREF
350
82A
  3
PUCSORTHOVIEW
350
82B
  3
PUCSBASE
350
82C
  3
PUCSORGTOP
350
82D
  3
PUCSORGBOTTOM
350
82E
  3
PUCSORGLEFT
350
82F
  3
PUCSORGRIGHT
350
830
  3
PUCSORGFRONT
350
831
  3
PUCSORGBACK
350
832
  3
UCSORTHOREF
350
833
  3
UCSORTHOVIEW
350
834
  3
UCSBASE
350
835
  3
UCSORGTOP
350
836
  3
UCSORGBOTTOM
350
837
  3
UCSORGLEFT
350
838
  3
UCSORGRIGHT
350
839
  3
UCSORGFRONT
350
83A
  3
UCSORGBACK
350
83B
  0
XRECORD
  5
83D
102
{ACAD_REACTORS
330
658
102
}
330
658
100
AcDbXrecord
340
1A
  0
XRECORD
  5
83C
102
{ACAD_REACTORS
330
656
102
}
330
656
100
AcDbXrecord
340
17
  0
MLINESTYLE
  5
13
102
{ACAD_REACTORS
330
E
102
}
330
E
100
AcDbMlineStyle
  2
STANDARD
 70
     0
  3

 62
     0
 51
90.0
 52
90.0
 71
     2
 49
0.5
 62
   256
  6
BYLAYER
 49
-0.5
 62
   256
  6
BYLAYER
  0
ACDBPLACEHOLDER
  5
61D
102
{ACAD_REACTORS
330
61C
102
}
330
61C
100
AcDbPlaceHolder
280
     0
  0
XRECORD
  5
81C
102
{ACAD_REACTORS
330
81B
102
}
330
81B
100
AcDbXrecord
 90
        1
  0
XRECORD
  5
81D
102
{ACAD_REACTORS
330
81B
102
}
330
81B
100
AcDbXrecord
 90
       70
  0
XRECORD
  5
81E
102
{ACAD_REACTORS
330
81B
102
}
330
81B
100
AcDbXrecord
  1

  0
XRECORD
  5
81F
102
{ACAD_REACTORS
330
81B
102
}
330
81B
100
AcDbXrecord
  1
systemprinter.ctb
  0
XRECORD
  5
820
102
{ACAD_REACTORS
330
81B
102
}
330
81B
100
AcDbXrecord
340
61E
  0
XRECORD
  5
821
102
{ACAD_REACTORS
330
81B
102
}
330
81B
100
AcDbXrecord
340
61F
  0
XRECORD
  5
822
102
{ACAD_REACTORS
330
81B
102
}
330
81B
100
AcDbXrecord
340
61C
  0
XRECORD
  5
823
102
{ACAD_REACTORS
330
81B
102
}
330
81B
100
AcDbXrecord
 90
    10781
  0
XRECORD
  5
824
102
{ACAD_REACTORS
330
81B
102
}
330
81B
100
AcDbXrecord
 90
        0
  0
XRECORD
  5
825
102
{ACAD_REACTORS
330
81B
102
}
330
81B
100
AcDbXrecord
 90
        0
  0
XRECORD
  5
826
102
{ACAD_REACTORS
330
81B
102
}
330
81B
100
AcDbXrecord
  1
{3436A72D-AB26-4D72-94A3-B18D7D84E7C5}
  0
XRECORD
  5
827
102
{ACAD_REACTORS
330
81B
102
}
330
81B
100
AcDbXrecord
  1
{AC5FFC20-F793-498D-8525-14258AAE5F4B}
  0
XRECORD
  5
828
102
{ACAD_REACTORS
330
81B
102
}
330
81B
100
AcDbXrecord
 40
0.0
  0
XRECORD
  5
829
102
{ACAD_REACTORS
330
81B
102
}
330
81B
100
AcDbXrecord
1000
DSTYLE
1002
{
1070
   341
340
6D
1070
   343
340
6D
1070
   344
340
6D
1070
   371
 70
    -1
1070
   372
 70
    -1
1002
}
  0
XRECORD
  5
82A
102
{ACAD_REACTORS
330
81B
102
}
330
81B
100
AcDbXrecord
340
0
  0
XRECORD
  5
82B
102
{ACAD_REACTORS
330
81B
102
}
330
81B
100
AcDbXrecord
 70
     0
  0
XRECORD
  5
82C
102
{ACAD_REACTORS
330
81B
102
}
330
81B
100
AcDbXrecord
340
0
  0
XRECORD
  5
82D
102
{ACAD_REACTORS
330
81B
102
}
330
81B
100
AcDbXrecord
 10
0.0
 20
0.0
 30
0.0
  0
XRECORD
  5
82E
102
{ACAD_REACTORS
330
81B
102
}
330
81B
100
AcDbXrecord
 10
0.0
 20
0.0
 30
0.0
  0
XRECORD
  5
82F
102
{ACAD_REACTORS
330
81B
102
}
330
81B
100
AcDbXrecord
 10
0.0
 20
0.0
 30
0.0
  0
XRECORD
  5
830
102
{ACAD_REACTORS
330
81B
102
}
330
81B
100
AcDbXrecord
 10
0.0
 20
0.0
 30
0.0
  0
XRECORD
  5
831
102
{ACAD_REACTORS
330
81B
102
}
330
81B
100
AcDbXrecord
 10
0.0
 20
0.0
 30
0.0
  0
XRECORD
  5
832
102
{ACAD_REACTORS
330
81B
102
}
330
81B
100
AcDbXrecord
 10
0.0
 20
0.0
 30
0.0
  0
XRECORD
  5
833
102
{ACAD_REACTORS
330
81B
102
}
330
81B
100
AcDbXrecord
340
0
  0
XRECORD
  5
834
102
{ACAD_REACTORS
330
81B
102
}
330
81B
100
AcDbXrecord
 70
     0
  0
XRECORD
  5
835
102
{ACAD_REACTORS
330
81B
102
}
330
81B
100
AcDbXrecord
340
0
  0
XRECORD
  5
836
102
{ACAD_REACTORS
330
81B
102
}
330
81B
100
AcDbXrecord
 10
0.0
 20
0.0
 30
0.0
  0
XRECORD
  5
837
102
{ACAD_REACTORS
330
81B
102
}
330
81B
100
AcDbXrecord
 10
0.0
 20
0.0
 30
0.0
  0
XRECORD
  5
838
102
{ACAD_REACTORS
330
81B
102
}
330
81B
100
AcDbXrecord
 10
0.0
 20
0.0
 30
0.0
  0
XRECORD
  5
839
102
{ACAD_REACTORS
330
81B
102
}
330
81B
100
AcDbXrecord
 10
0.0
 20
0.0
 30
0.0
  0
XRECORD
  5
83A
102
{ACAD_REACTORS
330
81B
102
}
330
81B
100
AcDbXrecord
 10
0.0
 20
0.0
 30
0.0
  0
XRECORD
  5
83B
102
{ACAD_REACTORS
330
81B
102
}
330
81B
100
AcDbXrecord
 10
0.0
 20
0.0
 30
0.0
  0
ENDSEC
  0
EOF
