  0
SECTION
  2
HEADER
  9
$ACADVER
  1
AC1014
  9
$ACADMAINTVER
 70
     9
  9
$DWGCODEPAGE
  3
ANSI_932
  9
$INSBASE
 10
0.0
 20
0.0
 30
0.0
  9
$EXTMIN
 10
-0.0256328098773793
 20
-0.0181260584133725
 30
-0.0015258207003583
  9
$EXTMAX
 10
797.6000995626677
 20
551.6452344880035
 30
0.0000000349246037
  9
$LIMMIN
 10
0.0
 20
0.0
  9
$LIMMAX
 10
840.0
 20
594.0
  9
$ORTHOMODE
 70
     0
  9
$REGENMODE
 70
     1
  9
$FILLMODE
 70
     1
  9
$QTEXTMODE
 70
     0
  9
$MIRRTEXT
 70
     1
  9
$DRAGMODE
 70
     2
  9
$LTSCALE
 40
2.0
  9
$OSMODE
 70
    35
  9
$ATTMODE
 70
     1
  9
$TEXTSIZE
 40
5.0
  9
$TRACEWID
 40
1.0
  9
$TEXTSTYLE
  7
STANDARD
  9
$CLAYER
  8
NOKITOI
  9
$CELTYPE
  6
BYLAYER
  9
$CECOLOR
 62
   256
  9
$CELTSCALE
 40
1.0
  9
$DELOBJ
 70
     1
  9
$DISPSILH
 70
     0
  9
$DIMSCALE
 40
1.0
  9
$DIMASZ
 40
7.0
  9
$DIMEXO
 40
6.0
  9
$DIMDLI
 40
14.0
  9
$DIMRND
 40
0.0
  9
$DIMDLE
 40
0.0
  9
$DIMEXE
 40
3.0
  9
$DIMTP
 40
0.0
  9
$DIMTM
 40
0.0
  9
$DIMTXT
 40
6.0
  9
$DIMCEN
 40
150.0
  9
$DIMTSZ
 40
0.0
  9
$DIMTOL
 70
     0
  9
$DIMLIM
 70
     0
  9
$DIMTIH
 70
     0
  9
$DIMTOH
 70
     0
  9
$DIMSE1
 70
     0
  9
$DIMSE2
 70
     0
  9
$DIMTAD
 70
     3
  9
$DIMZIN
 70
     0
  9
$DIMBLK
  1

  9
$DIMASO
 70
     1
  9
$DIMSHO
 70
     1
  9
$DIMPOST
  1

  9
$DIMAPOST
  1

  9
$DIMALT
 70
     0
  9
$DIMALTD
 70
     2
  9
$DIMALTF
 40
25.4
  9
$DIMLFAC
 40
1.0
  9
$DIMTOFL
 70
     1
  9
$DIMTVP
 40
0.0
  9
$DIMTIX
 70
     0
  9
$DIMSOXD
 70
     0
  9
$DIMSAH
 70
     1
  9
$DIMBLK1
  1
OPEN
  9
$DIMBLK2
  1
OPEN
  9
$DIMSTYLE
  2
STANDARD
  9
$DIMCLRD
 70
   256
  9
$DIMCLRE
 70
   256
  9
$DIMCLRT
 70
   256
  9
$DIMTFAC
 40
1.0
  9
$DIMGAP
 40
2.0
  9
$DIMJUST
 70
     0
  9
$DIMSD1
 70
     0
  9
$DIMSD2
 70
     0
  9
$DIMTOLJ
 70
     1
  9
$DIMTZIN
 70
     0
  9
$DIMALTZ
 70
     0
  9
$DIMALTTZ
 70
     0
  9
$DIMFIT
 70
     3
  9
$DIMUPT
 70
     0
  9
$DIMUNIT
 70
     2
  9
$DIMDEC
 70
     0
  9
$DIMTDEC
 70
     0
  9
$DIMALTU
 70
     2
  9
$DIMALTTD
 70
     2
  9
$DIMTXSTY
  7
STANDARD
  9
$DIMAUNIT
 70
     0
  9
$LUNITS
 70
     2
  9
$LUPREC
 70
     4
  9
$SKETCHINC
 40
1.0
  9
$FILLETRAD
 40
20.0
  9
$AUNITS
 70
     0
  9
$AUPREC
 70
     0
  9
$MENU
  1
.
  9
$ELEVATION
 40
0.0
  9
$PELEVATION
 40
0.0
  9
$THICKNESS
 40
0.0
  9
$LIMCHECK
 70
     0
  9
$BLIPMODE
 70
     0
  9
$CHAMFERA
 40
20.0
  9
$CHAMFERB
 40
20.0
  9
$CHAMFERC
 40
40.0
  9
$CHAMFERD
 40
0.0
  9
$SKPOLY
 70
     0
  9
$TDCREATE
 40
2451190.476876736
  9
$TDUPDATE
 40
2453802.477730937
  9
$TDINDWG
 40
0.0148179051
  9
$TDUSRTIMER
 40
0.0148179051
  9
$USRTIMER
 70
     1
  9
$ANGBASE
 50
0.0
  9
$ANGDIR
 70
     0
  9
$PDMODE
 70
     0
  9
$PDSIZE
 40
0.0
  9
$PLINEWID
 40
0.0
  9
$COORDS
 70
     1
  9
$SPLFRAME
 70
     0
  9
$SPLINETYPE
 70
     6
  9
$SPLINESEGS
 70
     8
  9
$ATTDIA
 70
     0
  9
$ATTREQ
 70
     1
  9
$HANDLING
 70
 10241
  9
$HANDSEED
  5
842
  9
$SURFTAB1
 70
     6
  9
$SURFTAB2
 70
     6
  9
$SURFTYPE
 70
     6
  9
$SURFU
 70
     6
  9
$SURFV
 70
     6
  9
$UCSNAME
  2

  9
$UCSORG
 10
0.0
 20
0.0
 30
0.0
  9
$UCSXDIR
 10
1.0
 20
0.0
 30
0.0
  9
$UCSYDIR
 10
0.0
 20
1.0
 30
0.0
  9
$PUCSNAME
  2

  9
$PUCSORG
 10
0.0
 20
0.0
 30
0.0
  9
$PUCSXDIR
 10
1.0
 20
0.0
 30
0.0
  9
$PUCSYDIR
 10
0.0
 20
1.0
 30
0.0
  9
$USERI1
 70
     0
  9
$USERI2
 70
     0
  9
$USERI3
 70
     0
  9
$USERI4
 70
     0
  9
$USERI5
 70
     0
  9
$USERR1
 40
0.0
  9
$USERR2
 40
0.0
  9
$USERR3
 40
0.0
  9
$USERR4
 40
0.0
  9
$USERR5
 40
0.0
  9
$WORLDVIEW
 70
     1
  9
$SHADEDGE
 70
     3
  9
$SHADEDIF
 70
    70
  9
$TILEMODE
 70
     1
  9
$MAXACTVP
 70
    16
  9
$PINSBASE
 10
0.0
 20
0.0
 30
0.0
  9
$PLIMCHECK
 70
     0
  9
$PEXTMIN
 10
0.0
 20
0.0
 30
0.0
  9
$PEXTMAX
 10
420.0
 20
297.0
 30
0.0
  9
$PLIMMIN
 10
0.0
 20
0.0
  9
$PLIMMAX
 10
420.0
 20
297.0
  9
$UNITMODE
 70
     0
  9
$VISRETAIN
 70
     0
  9
$PLINEGEN
 70
     0
  9
$PSLTSCALE
 70
     1
  9
$TREEDEPTH
 70
  3020
  9
$PICKSTYLE
 70
     1
  9
$CMLSTYLE
  2
STANDARD
  9
$CMLJUST
 70
     0
  9
$CMLSCALE
 40
1.0
  9
$PROXYGRAPHICS
 70
     1
  9
$MEASUREMENT
 70
     1
  0
ENDSEC
  0
SECTION
  2
CLASSES
  0
CLASS
  1
ACDBDICTIONARYWDFLT
  2
AcDbDictionaryWithDefault
  3
AutoCAD 2000
 90
        0
280
     0
281
     0
  0
CLASS
  1
ACDBPLACEHOLDER
  2
AcDbPlaceHolder
  3
AutoCAD 2000
 90
        0
280
     0
281
     0
  0
CLASS
  1
LAYOUT
  2
AcDbLayout
  3
AutoCAD 2000
 90
        0
280
     0
281
     0
  0
CLASS
  1
LONG_TRANSACTION
  2
AcDbLongTransaction
  3
AutoCAD 2000
 90
        0
280
     0
281
     0
  0
CLASS
  1
LWPOLYLINE
  2
AcDbPolyline
  3
AutoCAD 2000
 90
        0
280
     0
281
     1
  0
CLASS
  1
HATCH
  2
AcDbHatch
  3
AutoCAD 2000
 90
        0
280
     0
281
     1
  0
CLASS
  1
XRECORD
  2
AcDbXrecord
  3
AutoCAD 2000
 90
        0
280
     0
281
     0
  0
CLASS
  1
LONG_TRANSACTION
  2
AcDbLongTransaction
  3
AutoCAD 2000
 90
        0
280
     0
281
     0
  0
CLASS
  1
LWPOLYLINE
  2
AcDbPolyline
  3
AutoCAD 2000
 90
        0
280
     0
281
     1
  0
CLASS
  1
HATCH
  2
AcDbHatch
  3
AutoCAD 2000
 90
        0
280
     0
281
     1
  0
CLASS
  1
XRECORD
  2
AcDbXrecord
  3
AutoCAD 2000
 90
        0
280
     0
281
     0
  0
ENDSEC
  0
SECTION
  2
TABLES
  0
TABLE
  2
VPORT
  5
8
330
0
100
AcDbSymbolTable
 70
     2
  0
VPORT
  5
81E
330
8
100
AcDbSymbolTableRecord
100
AcDbViewportTableRecord
  2
*ACTIVE
 70
     0
 10
0.0
 20
0.0
 11
1.0
 21
1.0
 12
432.9345868837956
 22
290.7573966714791
 13
0.0
 23
0.0
 14
5.0
 24
5.0
 15
0.0
 25
0.0
 16
0.0
 26
0.0
 36
1.0
 17
0.0
 27
0.0
 37
0.0
 40
633.5055139561043
 41
1.795454545454545
 42
50.0
 43
0.0
 44
0.0
 50
0.0
 51
0.0
 71
     0
 72
   100
 73
     1
 74
     0
 75
     0
 76
     0
 77
     0
 78
     0
  0
ENDTAB
  0
TABLE
  2
LTYPE
  5
5
330
0
100
AcDbSymbolTable
 70
     3
  0
LTYPE
  5
14
330
5
100
AcDbSymbolTableRecord
100
AcDbLinetypeTableRecord
  2
BYBLOCK
 70
     0
  3

 72
    65
 73
     0
 40
0.0
  0
LTYPE
  5
15
330
5
100
AcDbSymbolTableRecord
100
AcDbLinetypeTableRecord
  2
BYLAYER
 70
     0
  3

 72
    65
 73
     0
 40
0.0
  0
LTYPE
  5
16
330
5
100
AcDbSymbolTableRecord
100
AcDbLinetypeTableRecord
  2
CONTINUOUS
 70
     0
  3
Solid line
 72
    65
 73
     0
 40
0.0
  0
LTYPE
  5
115
330
5
100
AcDbSymbolTableRecord
100
AcDbLinetypeTableRecord
  2
PHANTOM
 70
     0
  3
______  __  __  ______  __  __  ______  __  __ 
 72
    65
 73
     6
 40
2.5
 49
1.25
 74
     0
 49
-0.25
 74
     0
 49
0.25
 74
     0
 49
-0.25
 74
     0
 49
0.25
 74
     0
 49
-0.25
 74
     0
  0
LTYPE
  5
135
330
5
100
AcDbSymbolTableRecord
100
AcDbLinetypeTableRecord
  2
CENTER
 70
     0
  3
____ _ ____ _ ____ _ ____ _ ____ _ ____ _ ____ 
 72
    65
 73
     4
 40
2.0
 49
1.25
 74
     0
 49
-0.25
 74
     0
 49
0.25
 74
     0
 49
-0.25
 74
     0
  0
ENDTAB
  0
TABLE
  2
LAYER
  5
2
330
0
100
AcDbSymbolTable
 70
     9
  0
LAYER
  5
F
330
2
100
AcDbSymbolTableRecord
100
AcDbLayerTableRecord
  2
0
 70
     0
 62
     7
  6
CONTINUOUS
  0
LAYER
  5
62
330
2
100
AcDbSymbolTableRecord
100
AcDbLayerTableRecord
  2
VIEWPORT
 70
     0
 62
     7
  6
CONTINUOUS
  0
LAYER
  5
65
330
2
100
AcDbSymbolTableRecord
100
AcDbLayerTableRecord
  2
ZUWAKU
 70
     0
 62
     7
  6
CONTINUOUS
  0
LAYER
  5
191
330
2
100
AcDbSymbolTableRecord
100
AcDbLayerTableRecord
  2
SEIHIN
 70
     0
 62
     3
  6
CONTINUOUS
  0
LAYER
  5
192
330
2
100
AcDbSymbolTableRecord
100
AcDbLayerTableRecord
  2
SUNPOU
 70
     0
 62
     4
  6
CONTINUOUS
  0
LAYER
  5
193
330
2
100
AcDbSymbolTableRecord
100
AcDbLayerTableRecord
  2
CENTER_L
 70
     0
 62
     1
  6
CENTER
  0
LAYER
  5
194
330
2
100
AcDbSymbolTableRecord
100
AcDbLayerTableRecord
  2
NOKITOI
 70
     0
 62
     8
  6
PHANTOM
  0
LAYER
  5
195
330
2
100
AcDbSymbolTableRecord
100
AcDbLayerTableRecord
  2
DEFPOINTS
 70
     0
 62
     7
  6
CONTINUOUS
  0
LAYER
  5
6A6
330
2
100
AcDbSymbolTableRecord
100
AcDbLayerTableRecord
  2
MOJI
 70
     0
 62
     2
  6
CONTINUOUS
  0
ENDTAB
  0
TABLE
  2
STYLE
  5
3
330
0
100
AcDbSymbolTable
 70
     2
  0
STYLE
  5
10
330
3
100
AcDbSymbolTableRecord
100
AcDbTextStyleTableRecord
  2
STANDARD
 70
     0
 40
0.0
 41
1.0
 50
0.0
 71
     0
 42
5.0
  3
TXT
  4
bigfont.shx
  0
STYLE
  5
6A7
330
3
100
AcDbSymbolTableRecord
100
AcDbTextStyleTableRecord
  2
ｽﾀｲﾙ1
 70
     0
 40
0.0
 41
1.0
 50
0.0
 71
     0
 42
2.5
  3
MS PGothic.ttf
  4

1001
ACAD
1000
MS PGothic
1071
    32818
  0
ENDTAB
  0
TABLE
  2
VIEW
  5
6
330
0
100
AcDbSymbolTable
 70
     0
  0
ENDTAB
  0
TABLE
  2
UCS
  5
7
330
0
100
AcDbSymbolTable
 70
     0
  0
ENDTAB
  0
TABLE
  2
APPID
  5
9
330
0
100
AcDbSymbolTable
 70
     1
  0
APPID
  5
11
330
9
100
AcDbSymbolTableRecord
100
AcDbRegAppTableRecord
  2
ACAD
 70
     0
  0
ENDTAB
  0
TABLE
  2
DIMSTYLE
  5
A
330
0
100
AcDbSymbolTable
 70
     1
  0
DIMSTYLE
105
1D
102
{ACAD_REACTORS
330
36B
330
370
330
371
330
372
330
373
330
374
330
460
330
46D
330
4AC
330
4BB
330
4C8
330
4EB
330
5E0
102
}
330
A
100
AcDbSymbolTableRecord
100
AcDbDimStyleTableRecord
  2
STANDARD
 70
     0
  3

  4

  5

  6

  7

 40
1.0
 41
0.18
 42
0.0625
 43
0.38
 44
0.18
 45
0.0
 46
0.0
 47
0.0
 48
0.0
140
0.18
141
0.09
142
0.0
143
25.4
144
1.0
145
0.0
146
1.0
147
0.09
 71
     0
 72
     0
 73
     1
 74
     1
 75
     0
 76
     0
 77
     0
 78
     0
170
     0
171
     2
172
     0
173
     0
174
     0
175
     0
176
     0
177
     0
178
     0
270
     2
271
     4
272
     4
273
     2
274
     2
340
10
275
     0
280
     0
281
     0
282
     0
283
     1
284
     0
285
     0
286
     0
287
     3
288
     0
  0
ENDTAB
  0
TABLE
  2
BLOCK_RECORD
  5
1
330
0
100
AcDbSymbolTable
 70
    14
  0
BLOCK_RECORD
  5
1A
102
{ACAD_XDICTIONARY
360
698
102
}
330
1
100
AcDbSymbolTableRecord
100
AcDbBlockTableRecord
  2
*MODEL_SPACE
  0
BLOCK_RECORD
  5
17
102
{ACAD_XDICTIONARY
360
696
102
}
330
1
100
AcDbSymbolTableRecord
100
AcDbBlockTableRecord
  2
*PAPER_SPACE
  0
BLOCK_RECORD
  5
6D
330
1
100
AcDbSymbolTableRecord
100
AcDbBlockTableRecord
  2
_OPEN
  0
BLOCK_RECORD
  5
3B4
330
1
100
AcDbSymbolTableRecord
100
AcDbBlockTableRecord
  2
*D1
  0
BLOCK_RECORD
  5
3C2
330
1
100
AcDbSymbolTableRecord
100
AcDbBlockTableRecord
  2
*D2
  0
BLOCK_RECORD
  5
3CE
330
1
100
AcDbSymbolTableRecord
100
AcDbBlockTableRecord
  2
*D3
  0
BLOCK_RECORD
  5
3DC
330
1
100
AcDbSymbolTableRecord
100
AcDbBlockTableRecord
  2
*D4
  0
BLOCK_RECORD
  5
3EA
330
1
100
AcDbSymbolTableRecord
100
AcDbBlockTableRecord
  2
*D5
  0
BLOCK_RECORD
  5
3F6
330
1
100
AcDbSymbolTableRecord
100
AcDbBlockTableRecord
  2
*D6
  0
BLOCK_RECORD
  5
452
330
1
100
AcDbSymbolTableRecord
100
AcDbBlockTableRecord
  2
*D7
  0
BLOCK_RECORD
  5
461
330
1
100
AcDbSymbolTableRecord
100
AcDbBlockTableRecord
  2
*D8
  0
BLOCK_RECORD
  5
4A0
330
1
100
AcDbSymbolTableRecord
100
AcDbBlockTableRecord
  2
*D9
  0
BLOCK_RECORD
  5
4AD
330
1
100
AcDbSymbolTableRecord
100
AcDbBlockTableRecord
  2
*D10
  0
BLOCK_RECORD
  5
4BC
330
1
100
AcDbSymbolTableRecord
100
AcDbBlockTableRecord
  2
*D11
  0
BLOCK_RECORD
  5
4DF
330
1
100
AcDbSymbolTableRecord
100
AcDbBlockTableRecord
  2
*D12
  0
BLOCK_RECORD
  5
5D2
330
1
100
AcDbSymbolTableRecord
100
AcDbBlockTableRecord
  2
*D13
  0
ENDTAB
  0
ENDSEC
  0
SECTION
  2
BLOCKS
  0
BLOCK
  5
1B
330
1A
100
AcDbEntity
  8
0
100
AcDbBlockBegin
  2
*MODEL_SPACE
 70
     0
 10
0.0
 20
0.0
 30
0.0
  3
*MODEL_SPACE
  1

  0
ENDBLK
  5
1C
330
1A
100
AcDbEntity
  8
0
100
AcDbBlockEnd
  0
BLOCK
  5
18
330
17
100
AcDbEntity
 67
     1
  8
0
100
AcDbBlockBegin
  2
*PAPER_SPACE
 70
     0
 10
0.0
 20
0.0
 30
0.0
  3
*PAPER_SPACE
  1

  0
ENDBLK
  5
19
330
17
100
AcDbEntity
 67
     1
  8
0
100
AcDbBlockEnd
  0
BLOCK
  5
6E
330
6D
100
AcDbEntity
  8
0
100
AcDbBlockBegin
  2
_OPEN
 70
     0
 10
0.0
 20
0.0
 30
0.0
  3
_OPEN
  1

  0
LINE
  5
6F
330
6D
100
AcDbEntity
  8
0
  6
BYBLOCK
 62
     0
100
AcDbLine
 10
-1.0
 20
0.1666666666666666
 30
0.0
 11
0.0
 21
0.0
 31
0.0
  0
LINE
  5
70
330
6D
100
AcDbEntity
  8
0
  6
BYBLOCK
 62
     0
100
AcDbLine
 10
0.0
 20
0.0
 30
0.0
 11
-1.0
 21
-0.1666666666666666
 31
0.0
  0
LINE
  5
71
330
6D
100
AcDbEntity
  8
0
  6
BYBLOCK
 62
     0
100
AcDbLine
 10
0.0
 20
0.0
 30
0.0
 11
-1.0
 21
0.0
 31
0.0
  0
ENDBLK
  5
72
330
6D
100
AcDbEntity
  8
0
100
AcDbBlockEnd
  0
BLOCK
  5
479
330
3B4
100
AcDbEntity
  8
0
100
AcDbBlockBegin
  2
*D1
 70
     1
 10
0.0
 20
0.0
 30
0.0
  3
*D1
  1

  0
LINE
  5
47A
330
3B4
100
AcDbEntity
  8
0
  6
BYBLOCK
 62
     4
100
AcDbLine
 10
527.5400866943879
 20
287.252206537352
 30
0.0
 11
473.3881363691843
 21
287.252206537352
 31
0.0
  0
LINE
  5
47B
330
3B4
100
AcDbEntity
  8
0
  6
BYBLOCK
 62
     4
100
AcDbLine
 10
557.2652866943878
 20
277.2522065373519
 30
0.0
 11
473.3881363691843
 21
277.2522065373519
 31
0.0
  0
LINE
  5
47C
330
3B4
100
AcDbEntity
  8
0
  6
BYBLOCK
 62
     4
100
AcDbLine
 10
476.3881363691844
 20
294.252206537352
 30
0.0
 11
476.3881363691844
 21
301.252206537352
 31
0.0
  0
LINE
  5
47D
330
3B4
100
AcDbEntity
  8
0
  6
BYBLOCK
 62
     4
100
AcDbLine
 10
476.3881363691844
 20
270.252206537352
 30
0.0
 11
476.3881363691844
 21
252.2522065373519
 31
0.0
  0
LINE
  5
47E
330
3B4
100
AcDbEntity
  8
0
  6
BYBLOCK
 62
     4
100
AcDbLine
 10
476.3881363691844
 20
287.252206537352
 30
0.0
 11
476.3881363691844
 21
277.2522065373519
 31
0.0
  0
INSERT
  5
47F
330
3B4
100
AcDbEntity
  8
0
  6
BYBLOCK
 62
     4
100
AcDbBlockReference
  2
_OPEN
 10
476.3881363691844
 20
287.252206537352
 30
0.0
 41
7.0
 42
7.0
 43
7.0
 50
270.0
  0
INSERT
  5
480
330
3B4
100
AcDbEntity
  8
0
  6
BYBLOCK
 62
     4
100
AcDbBlockReference
  2
_OPEN
 10
476.3881363691844
 20
277.2522065373519
 30
0.0
 41
7.0
 42
7.0
 43
7.0
 50
90.0
  0
MTEXT
  5
481
330
3B4
100
AcDbEntity
  8
0
  6
BYBLOCK
 62
     4
100
AcDbMText
 10
471.3881363691844
 20
257.752206537352
 30
0.0
 40
6.0
 41
0.0
 71
     5
 72
     5
  1
\A1;10
 11
0.0
 21
1.0
 31
0.0
1001
ACAD
1000
MTEXTBEGIN
1070
    73
1070
     1
1070
    44
1040
1.0
1070
    74
1070
     0
1000
MTEXTEND
1000
MTEXTBEGIN
1070
    73
1070
     1
1070
    44
1040
1.0
1070
    74
1070
     0
1000
MTEXTEND
  0
POINT
  5
482
330
3B4
100
AcDbEntity
  8
DEFPOINTS
  6
BYBLOCK
 62
     0
100
AcDbPoint
 10
533.5400866943879
 20
287.252206537352
 30
0.0
  0
POINT
  5
483
330
3B4
100
AcDbEntity
  8
DEFPOINTS
  6
BYBLOCK
 62
     0
100
AcDbPoint
 10
563.2652866943877
 20
277.2522065373519
 30
0.0
  0
POINT
  5
484
330
3B4
100
AcDbEntity
  8
DEFPOINTS
  6
BYBLOCK
 62
     0
100
AcDbPoint
 10
476.3881363691844
 20
277.2522065373519
 30
0.0
  0
ENDBLK
  5
485
330
3B4
100
AcDbEntity
  8
0
100
AcDbBlockEnd
  0
BLOCK
  5
46E
330
3C2
100
AcDbEntity
  8
0
100
AcDbBlockBegin
  2
*D2
 70
     1
 10
0.0
 20
0.0
 30
0.0
  3
*D2
  1

  0
LINE
  5
46F
330
3C2
100
AcDbEntity
  8
0
  6
BYBLOCK
 62
     4
100
AcDbLine
 10
557.2653866943877
 20
327.2522065373519
 30
0.0
 11
438.556056894617
 21
327.2522065373519
 31
0.0
  0
LINE
  5
470
330
3C2
100
AcDbEntity
  8
0
  6
BYBLOCK
 62
     4
100
AcDbLine
 10
557.2652866943878
 20
277.2522065373519
 30
0.0
 11
438.556056894617
 21
277.2522065373519
 31
0.0
  0
LINE
  5
471
330
3C2
100
AcDbEntity
  8
0
  6
BYBLOCK
 62
     4
100
AcDbLine
 10
441.5560568946171
 20
320.252206537352
 30
0.0
 11
441.5560568946171
 21
284.2522065373519
 31
0.0
  0
INSERT
  5
472
330
3C2
100
AcDbEntity
  8
0
  6
BYBLOCK
 62
     4
100
AcDbBlockReference
  2
_OPEN
 10
441.5560568946171
 20
327.2522065373519
 30
0.0
 41
7.0
 42
7.0
 43
7.0
 50
90.0
  0
INSERT
  5
473
330
3C2
100
AcDbEntity
  8
0
  6
BYBLOCK
 62
     4
100
AcDbBlockReference
  2
_OPEN
 10
441.5560568946171
 20
277.2522065373519
 30
0.0
 41
7.0
 42
7.0
 43
7.0
 50
270.0
  0
MTEXT
  5
474
330
3C2
100
AcDbEntity
  8
0
  6
BYBLOCK
 62
     4
100
AcDbMText
 10
436.5560568946171
 20
302.2522065373519
 30
0.0
 40
6.0
 41
0.0
 71
     5
 72
     5
  1
\A1;50
 11
0.0
 21
1.0
 31
0.0
1001
ACAD
1000
MTEXTBEGIN
1070
    73
1070
     1
1070
    44
1040
1.0
1070
    74
1070
     0
1000
MTEXTEND
1000
MTEXTBEGIN
1070
    73
1070
     1
1070
    44
1040
1.0
1070
    74
1070
     0
1000
MTEXTEND
  0
POINT
  5
475
330
3C2
100
AcDbEntity
  8
DEFPOINTS
  6
BYBLOCK
 62
     0
100
AcDbPoint
 10
563.2653866943877
 20
327.2522065373519
 30
0.0
  0
POINT
  5
476
330
3C2
100
AcDbEntity
  8
DEFPOINTS
  6
BYBLOCK
 62
     0
100
AcDbPoint
 10
563.2652866943877
 20
277.2522065373519
 30
0.0
  0
POINT
  5
477
330
3C2
100
AcDbEntity
  8
DEFPOINTS
  6
BYBLOCK
 62
     0
100
AcDbPoint
 10
441.5560568946171
 20
277.2522065373519
 30
0.0
  0
ENDBLK
  5
478
330
3C2
100
AcDbEntity
  8
0
100
AcDbBlockEnd
  0
BLOCK
  5
493
330
3CE
100
AcDbEntity
  8
0
100
AcDbBlockBegin
  2
*D3
 70
     1
 10
0.0
 20
0.0
 30
0.0
  3
*D3
  1

  0
LINE
  5
494
330
3CE
100
AcDbEntity
  8
0
  6
BYBLOCK
 62
     4
100
AcDbLine
 10
557.2653866943877
 20
327.2522065373519
 30
0.0
 11
455.3022497034276
 21
327.2522065373519
 31
0.0
  0
LINE
  5
495
330
3CE
100
AcDbEntity
  8
0
  6
BYBLOCK
 62
     4
100
AcDbLine
 10
527.0936866943877
 20
312.2524065373519
 30
0.0
 11
455.3022497034276
 21
312.2524065373519
 31
0.0
  0
LINE
  5
496
330
3CE
100
AcDbEntity
  8
0
  6
BYBLOCK
 62
     4
100
AcDbLine
 10
458.3022497034276
 20
334.2522065373519
 30
0.0
 11
458.3022497034276
 21
341.2522065373519
 31
0.0
  0
LINE
  5
497
330
3CE
100
AcDbEntity
  8
0
  6
BYBLOCK
 62
     4
100
AcDbLine
 10
458.3022497034276
 20
305.2524065373519
 30
0.0
 11
458.3022497034276
 21
298.2524065373519
 31
0.0
  0
LINE
  5
498
330
3CE
100
AcDbEntity
  8
0
  6
BYBLOCK
 62
     4
100
AcDbLine
 10
458.3022497034276
 20
327.2522065373519
 30
0.0
 11
458.3022497034276
 21
312.2524065373519
 31
0.0
  0
INSERT
  5
499
330
3CE
100
AcDbEntity
  8
0
  6
BYBLOCK
 62
     4
100
AcDbBlockReference
  2
_OPEN
 10
458.3022497034276
 20
327.2522065373519
 30
0.0
 41
7.0
 42
7.0
 43
7.0
 50
270.0
  0
INSERT
  5
49A
330
3CE
100
AcDbEntity
  8
0
  6
BYBLOCK
 62
     4
100
AcDbBlockReference
  2
_OPEN
 10
458.3022497034276
 20
312.2524065373519
 30
0.0
 41
7.0
 42
7.0
 43
7.0
 50
90.0
  0
MTEXT
  5
49B
330
3CE
100
AcDbEntity
  8
0
  6
BYBLOCK
 62
     4
100
AcDbMText
 10
453.3022497034275
 20
319.7523065373519
 30
0.0
 40
6.0
 41
0.0
 71
     5
 72
     5
  1
\A1;15
 11
0.0
 21
1.0
 31
0.0
1001
ACAD
1000
MTEXTBEGIN
1070
    73
1070
     1
1070
    44
1040
1.0
1070
    74
1070
     0
1000
MTEXTEND
1000
MTEXTBEGIN
1070
    73
1070
     1
1070
    44
1040
1.0
1070
    74
1070
     0
1000
MTEXTEND
  0
POINT
  5
49C
330
3CE
100
AcDbEntity
  8
DEFPOINTS
  6
BYBLOCK
 62
     0
100
AcDbPoint
 10
563.2653866943877
 20
327.2522065373519
 30
0.0
  0
POINT
  5
49D
330
3CE
100
AcDbEntity
  8
DEFPOINTS
  6
BYBLOCK
 62
     0
100
AcDbPoint
 10
533.0936866943877
 20
312.2524065373519
 30
0.0
  0
POINT
  5
49E
330
3CE
100
AcDbEntity
  8
DEFPOINTS
  6
BYBLOCK
 62
     0
100
AcDbPoint
 10
458.3022497034276
 20
312.2524065373519
 30
0.0
  0
ENDBLK
  5
49F
330
3CE
100
AcDbEntity
  8
0
100
AcDbBlockEnd
  0
BLOCK
  5
486
330
3DC
100
AcDbEntity
  8
0
100
AcDbBlockBegin
  2
*D4
 70
     1
 10
0.0
 20
0.0
 30
0.0
  3
*D4
  1

  0
LINE
  5
487
330
3DC
100
AcDbEntity
  8
0
  6
BYBLOCK
 62
     4
100
AcDbLine
 10
530.2722866943879
 20
317.252406537352
 30
0.0
 11
473.3881363691843
 21
317.252406537352
 31
0.0
  0
LINE
  5
488
330
3DC
100
AcDbEntity
  8
0
  6
BYBLOCK
 62
     4
100
AcDbLine
 10
557.2653866943877
 20
327.2522065373519
 30
0.0
 11
473.3881363691843
 21
327.2522065373519
 31
0.0
  0
LINE
  5
489
330
3DC
100
AcDbEntity
  8
0
  6
BYBLOCK
 62
     4
100
AcDbLine
 10
476.3881363691844
 20
310.252406537352
 30
0.0
 11
476.3881363691844
 21
303.252406537352
 31
0.0
  0
LINE
  5
48A
330
3DC
100
AcDbEntity
  8
0
  6
BYBLOCK
 62
     4
100
AcDbLine
 10
476.3881363691844
 20
334.2522065373519
 30
0.0
 11
476.3881363691844
 21
352.2522065373519
 31
0.0
  0
LINE
  5
48B
330
3DC
100
AcDbEntity
  8
0
  6
BYBLOCK
 62
     4
100
AcDbLine
 10
476.3881363691844
 20
317.252406537352
 30
0.0
 11
476.3881363691844
 21
327.2522065373519
 31
0.0
  0
INSERT
  5
48C
330
3DC
100
AcDbEntity
  8
0
  6
BYBLOCK
 62
     4
100
AcDbBlockReference
  2
_OPEN
 10
476.3881363691844
 20
317.252406537352
 30
0.0
 41
7.0
 42
7.0
 43
7.0
 50
90.0
  0
INSERT
  5
48D
330
3DC
100
AcDbEntity
  8
0
  6
BYBLOCK
 62
     4
100
AcDbBlockReference
  2
_OPEN
 10
476.3881363691844
 20
327.2522065373519
 30
0.0
 41
7.0
 42
7.0
 43
7.0
 50
270.0
  0
MTEXT
  5
48E
330
3DC
100
AcDbEntity
  8
0
  6
BYBLOCK
 62
     4
100
AcDbMText
 10
471.3881363691844
 20
346.7522065373519
 30
0.0
 40
6.0
 41
0.0
 71
     5
 72
     5
  1
\A1;10
 11
0.0
 21
1.0
 31
0.0
1001
ACAD
1000
MTEXTBEGIN
1070
    73
1070
     1
1070
    44
1040
1.0
1070
    74
1070
     0
1000
MTEXTEND
1000
MTEXTBEGIN
1070
    73
1070
     1
1070
    44
1040
1.0
1070
    74
1070
     0
1000
MTEXTEND
  0
POINT
  5
48F
330
3DC
100
AcDbEntity
  8
DEFPOINTS
  6
BYBLOCK
 62
     0
100
AcDbPoint
 10
536.272286694388
 20
317.252406537352
 30
0.0
  0
POINT
  5
490
330
3DC
100
AcDbEntity
  8
DEFPOINTS
  6
BYBLOCK
 62
     0
100
AcDbPoint
 10
563.2653866943877
 20
327.2522065373519
 30
0.0
  0
POINT
  5
491
330
3DC
100
AcDbEntity
  8
DEFPOINTS
  6
BYBLOCK
 62
     0
100
AcDbPoint
 10
476.3881363691844
 20
327.2522065373519
 30
0.0
  0
ENDBLK
  5
492
330
3DC
100
AcDbEntity
  8
0
100
AcDbBlockEnd
  0
BLOCK
  5
434
330
3EA
100
AcDbEntity
  8
0
100
AcDbBlockBegin
  2
*D5
 70
     1
 10
0.0
 20
0.0
 30
0.0
  3
*D5
  1

  0
LINE
  5
435
330
3EA
100
AcDbEntity
  8
0
  6
BYBLOCK
 62
     4
100
AcDbLine
 10
571.6055748330591
 20
373.8344603044299
 30
0.0
 11
571.6055748330591
 21
415.7671654543391
 31
0.0
  0
LINE
  5
436
330
3EA
100
AcDbEntity
  8
0
  6
BYBLOCK
 62
     4
100
AcDbLine
 10
634.6055748330591
 20
374.2179603044299
 30
0.0
 11
634.6055748330591
 21
415.7671654543391
 31
0.0
  0
LINE
  5
437
330
3EA
100
AcDbEntity
  8
0
  6
BYBLOCK
 62
     4
100
AcDbLine
 10
578.6055748330591
 20
412.7671654543392
 30
0.0
 11
627.6055748330592
 21
412.7671654543392
 31
0.0
  0
INSERT
  5
438
330
3EA
100
AcDbEntity
  8
0
  6
BYBLOCK
 62
     4
100
AcDbBlockReference
  2
_OPEN
 10
571.6055748330591
 20
412.7671654543392
 30
0.0
 41
7.0
 42
7.0
 43
7.0
 50
180.0
  0
INSERT
  5
439
330
3EA
100
AcDbEntity
  8
0
  6
BYBLOCK
 62
     4
100
AcDbBlockReference
  2
_OPEN
 10
634.6055748330591
 20
412.7671654543392
 30
0.0
 41
7.0
 42
7.0
 43
7.0
  0
MTEXT
  5
43A
330
3EA
100
AcDbEntity
  8
0
  6
BYBLOCK
 62
     4
100
AcDbMText
 10
603.1055748330591
 20
417.7671654543392
 30
0.0
 40
6.0
 41
0.0
 71
     5
 72
     5
  1
\A1;63
1001
ACAD
1000
MTEXTBEGIN
1070
    73
1070
     1
1070
    44
1040
1.0
1070
    74
1070
     0
1000
MTEXTEND
1000
MTEXTBEGIN
1070
    73
1070
     1
1070
    44
1040
1.0
1070
    74
1070
     0
1000
MTEXTEND
  0
POINT
  5
43B
330
3EA
100
AcDbEntity
  8
DEFPOINTS
  6
BYBLOCK
 62
     0
100
AcDbPoint
 10
571.6055748330591
 20
367.8344603044298
 30
0.0
  0
POINT
  5
43C
330
3EA
100
AcDbEntity
  8
DEFPOINTS
  6
BYBLOCK
 62
     0
100
AcDbPoint
 10
634.6055748330591
 20
368.2179603044299
 30
0.0
  0
POINT
  5
43D
330
3EA
100
AcDbEntity
  8
DEFPOINTS
  6
BYBLOCK
 62
     0
100
AcDbPoint
 10
634.6055748330591
 20
412.7671654543392
 30
0.0
  0
ENDBLK
  5
43E
330
3EA
100
AcDbEntity
  8
0
100
AcDbBlockEnd
  0
BLOCK
  5
43F
330
3F6
100
AcDbEntity
  8
0
100
AcDbBlockBegin
  2
*D6
 70
     1
 10
0.0
 20
0.0
 30
0.0
  3
*D6
  1

  0
LINE
  5
440
330
3F6
100
AcDbEntity
  8
0
  6
BYBLOCK
 62
     4
100
AcDbLine
 10
579.6055748330591
 20
378.7598603044299
 30
0.0
 11
579.6055748330591
 21
400.8207015142525
 31
0.0
  0
LINE
  5
441
330
3F6
100
AcDbEntity
  8
0
  6
BYBLOCK
 62
     4
100
AcDbLine
 10
626.6055748330592
 20
378.7597603044298
 30
0.0
 11
626.6055748330592
 21
400.8207015142525
 31
0.0
  0
LINE
  5
442
330
3F6
100
AcDbEntity
  8
0
  6
BYBLOCK
 62
     4
100
AcDbLine
 10
586.6055748330591
 20
397.8207015142525
 30
0.0
 11
619.6055748330592
 21
397.8207015142525
 31
0.0
  0
INSERT
  5
443
330
3F6
100
AcDbEntity
  8
0
  6
BYBLOCK
 62
     4
100
AcDbBlockReference
  2
_OPEN
 10
579.6055748330591
 20
397.8207015142525
 30
0.0
 41
7.0
 42
7.0
 43
7.0
 50
180.0
  0
INSERT
  5
444
330
3F6
100
AcDbEntity
  8
0
  6
BYBLOCK
 62
     4
100
AcDbBlockReference
  2
_OPEN
 10
626.6055748330592
 20
397.8207015142525
 30
0.0
 41
7.0
 42
7.0
 43
7.0
  0
MTEXT
  5
445
330
3F6
100
AcDbEntity
  8
0
  6
BYBLOCK
 62
     4
100
AcDbMText
 10
603.1055748330591
 20
402.8207015142525
 30
0.0
 40
6.0
 41
0.0
 71
     5
 72
     5
  1
\A1;47
1001
ACAD
1000
MTEXTBEGIN
1070
    73
1070
     1
1070
    44
1040
1.0
1070
    74
1070
     0
1000
MTEXTEND
1000
MTEXTBEGIN
1070
    73
1070
     1
1070
    44
1040
1.0
1070
    74
1070
     0
1000
MTEXTEND
  0
POINT
  5
446
330
3F6
100
AcDbEntity
  8
DEFPOINTS
  6
BYBLOCK
 62
     0
100
AcDbPoint
 10
579.6055748330591
 20
372.7598603044299
 30
0.0
  0
POINT
  5
447
330
3F6
100
AcDbEntity
  8
DEFPOINTS
  6
BYBLOCK
 62
     0
100
AcDbPoint
 10
626.6055748330592
 20
372.7597603044298
 30
0.0
  0
POINT
  5
448
330
3F6
100
AcDbEntity
  8
DEFPOINTS
  6
BYBLOCK
 62
     0
100
AcDbPoint
 10
626.6055748330592
 20
397.8207015142525
 30
0.0
  0
ENDBLK
  5
449
330
3F6
100
AcDbEntity
  8
0
100
AcDbBlockEnd
  0
BLOCK
  5
453
330
452
100
AcDbEntity
  8
0
100
AcDbBlockBegin
  2
*D7
 70
     1
 10
0.0
 20
0.0
 30
0.0
  3
*D7
  1

  0
LINE
  5
454
330
452
100
AcDbEntity
  8
0
  6
BYBLOCK
 62
     4
100
AcDbLine
 10
213.4850940735256
 20
453.620704871518
 30
0.0
 11
183.2459587343423
 21
453.620704871518
 31
0.0
  0
LINE
  5
455
330
452
100
AcDbEntity
  8
0
  6
BYBLOCK
 62
     4
100
AcDbLine
 10
213.4850940735256
 20
433.620704871518
 30
0.0
 11
183.2459587343423
 21
433.620704871518
 31
0.0
  0
LINE
  5
456
330
452
100
AcDbEntity
  8
0
  6
BYBLOCK
 62
     4
100
AcDbLine
 10
186.2459587343423
 20
460.6207048715179
 30
0.0
 11
186.2459587343423
 21
467.620704871518
 31
0.0
  0
LINE
  5
457
330
452
100
AcDbEntity
  8
0
  6
BYBLOCK
 62
     4
100
AcDbLine
 10
186.2459587343423
 20
426.6207048715179
 30
0.0
 11
186.2459587343423
 21
419.6207048715179
 31
0.0
  0
LINE
  5
458
330
452
100
AcDbEntity
  8
0
  6
BYBLOCK
 62
     4
100
AcDbLine
 10
186.2459587343423
 20
453.620704871518
 30
0.0
 11
186.2459587343423
 21
433.620704871518
 31
0.0
  0
INSERT
  5
459
330
452
100
AcDbEntity
  8
0
  6
BYBLOCK
 62
     4
100
AcDbBlockReference
  2
_OPEN
 10
186.2459587343423
 20
453.620704871518
 30
0.0
 41
7.0
 42
7.0
 43
7.0
 50
270.0
  0
INSERT
  5
45A
330
452
100
AcDbEntity
  8
0
  6
BYBLOCK
 62
     4
100
AcDbBlockReference
  2
_OPEN
 10
186.2459587343423
 20
433.620704871518
 30
0.0
 41
7.0
 42
7.0
 43
7.0
 50
90.0
  0
MTEXT
  5
45B
330
452
100
AcDbEntity
  8
0
  6
BYBLOCK
 62
     4
100
AcDbMText
 10
181.2459587343423
 20
443.6207048715179
 30
0.0
 40
6.0
 41
0.0
 71
     5
 72
     5
  1
\A1;20
 11
0.0
 21
1.0
 31
0.0
1001
ACAD
1000
MTEXTBEGIN
1070
    73
1070
     1
1070
    44
1040
1.0
1070
    74
1070
     0
1000
MTEXTEND
1000
MTEXTBEGIN
1070
    73
1070
     1
1070
    44
1040
1.0
1070
    74
1070
     0
1000
MTEXTEND
  0
POINT
  5
45C
330
452
100
AcDbEntity
  8
DEFPOINTS
  6
BYBLOCK
 62
     0
100
AcDbPoint
 10
219.4850940735256
 20
453.620704871518
 30
0.0
  0
POINT
  5
45D
330
452
100
AcDbEntity
  8
DEFPOINTS
  6
BYBLOCK
 62
     0
100
AcDbPoint
 10
219.4850940735256
 20
433.620704871518
 30
0.0
  0
POINT
  5
45E
330
452
100
AcDbEntity
  8
DEFPOINTS
  6
BYBLOCK
 62
     0
100
AcDbPoint
 10
186.2459587343423
 20
433.620704871518
 30
0.0
  0
ENDBLK
  5
45F
330
452
100
AcDbEntity
  8
0
100
AcDbBlockEnd
  0
BLOCK
  5
462
330
461
100
AcDbEntity
  8
0
100
AcDbBlockBegin
  2
*D8
 70
     1
 10
0.0
 20
0.0
 30
0.0
  3
*D8
  1

  0
LINE
  5
463
330
461
100
AcDbEntity
  8
0
  6
BYBLOCK
 62
     4
100
AcDbLine
 10
370.7851940735256
 20
475.120704871518
 30
0.0
 11
404.9674877466769
 21
475.120704871518
 31
0.0
  0
LINE
  5
464
330
461
100
AcDbEntity
  8
0
  6
BYBLOCK
 62
     4
100
AcDbLine
 10
370.7851940735256
 20
412.120704871518
 30
0.0
 11
404.9674877466769
 21
412.120704871518
 31
0.0
  0
LINE
  5
465
330
461
100
AcDbEntity
  8
0
  6
BYBLOCK
 62
     4
100
AcDbLine
 10
401.9674877466768
 20
468.120704871518
 30
0.0
 11
401.9674877466768
 21
419.1207048715179
 31
0.0
  0
INSERT
  5
466
330
461
100
AcDbEntity
  8
0
  6
BYBLOCK
 62
     4
100
AcDbBlockReference
  2
_OPEN
 10
401.9674877466768
 20
475.120704871518
 30
0.0
 41
7.0
 42
7.0
 43
7.0
 50
90.0
  0
INSERT
  5
467
330
461
100
AcDbEntity
  8
0
  6
BYBLOCK
 62
     4
100
AcDbBlockReference
  2
_OPEN
 10
401.9674877466768
 20
412.120704871518
 30
0.0
 41
7.0
 42
7.0
 43
7.0
 50
270.0
  0
MTEXT
  5
468
330
461
100
AcDbEntity
  8
0
  6
BYBLOCK
 62
     4
100
AcDbMText
 10
396.9674877466768
 20
443.6207048715179
 30
0.0
 40
6.0
 41
0.0
 71
     5
 72
     5
  1
\A1;63
 11
0.0
 21
1.0
 31
0.0
1001
ACAD
1000
MTEXTBEGIN
1070
    73
1070
     1
1070
    44
1040
1.0
1070
    74
1070
     0
1000
MTEXTEND
1000
MTEXTBEGIN
1070
    73
1070
     1
1070
    44
1040
1.0
1070
    74
1070
     0
1000
MTEXTEND
  0
POINT
  5
469
330
461
100
AcDbEntity
  8
DEFPOINTS
  6
BYBLOCK
 62
     0
100
AcDbPoint
 10
364.7851940735256
 20
475.120704871518
 30
0.0
  0
POINT
  5
46A
330
461
100
AcDbEntity
  8
DEFPOINTS
  6
BYBLOCK
 62
     0
100
AcDbPoint
 10
364.7851940735256
 20
412.120704871518
 30
0.0
  0
POINT
  5
46B
330
461
100
AcDbEntity
  8
DEFPOINTS
  6
BYBLOCK
 62
     0
100
AcDbPoint
 10
401.9674877466768
 20
412.120704871518
 30
0.0
  0
ENDBLK
  5
46C
330
461
100
AcDbEntity
  8
0
100
AcDbBlockEnd
  0
BLOCK
  5
4A1
330
4A0
100
AcDbEntity
  8
0
100
AcDbBlockBegin
  2
*D9
 70
     1
 10
0.0
 20
0.0
 30
0.0
  3
*D9
  1

  0
LINE
  5
4A2
330
4A0
100
AcDbEntity
  8
0
  6
BYBLOCK
 62
     4
100
AcDbLine
 10
370.7851940735256
 20
327.252306537352
 30
0.0
 11
404.9674877466769
 21
327.252306537352
 31
0.0
  0
LINE
  5
4A3
330
4A0
100
AcDbEntity
  8
0
  6
BYBLOCK
 62
     4
100
AcDbLine
 10
370.7850940735254
 20
277.631006537352
 30
0.0
 11
404.9674877466769
 21
277.631006537352
 31
0.0
  0
LINE
  5
4A4
330
4A0
100
AcDbEntity
  8
0
  6
BYBLOCK
 62
     4
100
AcDbLine
 10
401.9674877466768
 20
320.252306537352
 30
0.0
 11
401.9674877466768
 21
284.631006537352
 31
0.0
  0
INSERT
  5
4A5
330
4A0
100
AcDbEntity
  8
0
  6
BYBLOCK
 62
     4
100
AcDbBlockReference
  2
_OPEN
 10
401.9674877466768
 20
327.252306537352
 30
0.0
 41
7.0
 42
7.0
 43
7.0
 50
90.0
  0
INSERT
  5
4A6
330
4A0
100
AcDbEntity
  8
0
  6
BYBLOCK
 62
     4
100
AcDbBlockReference
  2
_OPEN
 10
401.9674877466768
 20
277.631006537352
 30
0.0
 41
7.0
 42
7.0
 43
7.0
 50
270.0
  0
MTEXT
  5
4A7
330
4A0
100
AcDbEntity
  8
0
  6
BYBLOCK
 62
     4
100
AcDbMText
 10
396.9674877466768
 20
302.441656537352
 30
0.0
 40
6.0
 41
0.0
 71
     5
 72
     5
  1
\A1;50
 11
0.0
 21
1.0
 31
0.0
1001
ACAD
1000
MTEXTBEGIN
1070
    73
1070
     1
1070
    44
1040
1.0
1070
    74
1070
     0
1000
MTEXTEND
1000
MTEXTBEGIN
1070
    73
1070
     1
1070
    44
1040
1.0
1070
    74
1070
     0
1000
MTEXTEND
  0
POINT
  5
4A8
330
4A0
100
AcDbEntity
  8
DEFPOINTS
  6
BYBLOCK
 62
     0
100
AcDbPoint
 10
364.7851940735256
 20
327.252306537352
 30
0.0
  0
POINT
  5
4A9
330
4A0
100
AcDbEntity
  8
DEFPOINTS
  6
BYBLOCK
 62
     0
100
AcDbPoint
 10
364.7850940735254
 20
277.631006537352
 30
0.0
  0
POINT
  5
4AA
330
4A0
100
AcDbEntity
  8
DEFPOINTS
  6
BYBLOCK
 62
     0
100
AcDbPoint
 10
401.9674877466768
 20
277.631006537352
 30
0.0
  0
ENDBLK
  5
4AB
330
4A0
100
AcDbEntity
  8
0
100
AcDbBlockEnd
  0
BLOCK
  5
4AE
330
4AD
100
AcDbEntity
  8
0
100
AcDbBlockBegin
  2
*D10
 70
     1
 10
0.0
 20
0.0
 30
0.0
  3
*D10
  1

  0
LINE
  5
4AF
330
4AD
100
AcDbEntity
  8
0
  6
BYBLOCK
 62
     4
100
AcDbLine
 10
212.8222940735255
 20
301.752306537352
 30
0.0
 11
183.2459587343423
 21
301.752306537352
 31
0.0
  0
LINE
  5
4B0
330
4AD
100
AcDbEntity
  8
0
  6
BYBLOCK
 62
     4
100
AcDbLine
 10
331.9690940735254
 20
327.252306537352
 30
0.0
 11
183.2459587343423
 21
327.252306537352
 31
0.0
  0
LINE
  5
4B1
330
4AD
100
AcDbEntity
  8
0
  6
BYBLOCK
 62
     4
100
AcDbLine
 10
186.2459587343423
 20
294.752306537352
 30
0.0
 11
186.2459587343423
 21
287.7523065373519
 31
0.0
  0
LINE
  5
4B2
330
4AD
100
AcDbEntity
  8
0
  6
BYBLOCK
 62
     4
100
AcDbLine
 10
186.2459587343423
 20
334.252306537352
 30
0.0
 11
186.2459587343423
 21
341.252306537352
 31
0.0
  0
LINE
  5
4B3
330
4AD
100
AcDbEntity
  8
0
  6
BYBLOCK
 62
     4
100
AcDbLine
 10
186.2459587343423
 20
301.752306537352
 30
0.0
 11
186.2459587343423
 21
327.252306537352
 31
0.0
  0
INSERT
  5
4B4
330
4AD
100
AcDbEntity
  8
0
  6
BYBLOCK
 62
     4
100
AcDbBlockReference
  2
_OPEN
 10
186.2459587343423
 20
301.752306537352
 30
0.0
 41
7.0
 42
7.0
 43
7.0
 50
90.0
  0
INSERT
  5
4B5
330
4AD
100
AcDbEntity
  8
0
  6
BYBLOCK
 62
     4
100
AcDbBlockReference
  2
_OPEN
 10
186.2459587343423
 20
327.252306537352
 30
0.0
 41
7.0
 42
7.0
 43
7.0
 50
270.0
  0
MTEXT
  5
4B6
330
4AD
100
AcDbEntity
  8
0
  6
BYBLOCK
 62
     4
100
AcDbMText
 10
181.2459587343423
 20
314.502306537352
 30
0.0
 40
6.0
 41
0.0
 71
     5
 72
     5
  1
\A1;26
 11
0.0
 21
1.0
 31
0.0
1001
ACAD
1000
MTEXTBEGIN
1070
    73
1070
     1
1070
    44
1040
1.0
1070
    74
1070
     0
1000
MTEXTEND
1000
MTEXTBEGIN
1070
    73
1070
     1
1070
    44
1040
1.0
1070
    74
1070
     0
1000
MTEXTEND
  0
POINT
  5
4B7
330
4AD
100
AcDbEntity
  8
DEFPOINTS
  6
BYBLOCK
 62
     0
100
AcDbPoint
 10
218.8222940735255
 20
301.752306537352
 30
0.0
  0
POINT
  5
4B8
330
4AD
100
AcDbEntity
  8
DEFPOINTS
  6
BYBLOCK
 62
     0
100
AcDbPoint
 10
337.9690940735254
 20
327.252306537352
 30
0.0
  0
POINT
  5
4B9
330
4AD
100
AcDbEntity
  8
DEFPOINTS
  6
BYBLOCK
 62
     0
100
AcDbPoint
 10
186.2459587343423
 20
327.252306537352
 30
0.0
  0
ENDBLK
  5
4BA
330
4AD
100
AcDbEntity
  8
0
100
AcDbBlockEnd
  0
BLOCK
  5
615
330
4BC
100
AcDbEntity
  8
0
100
AcDbBlockBegin
  2
*D11
 70
     1
 10
0.0
 20
0.0
 30
0.0
  3
*D11
  1

  0
LINE
  5
616
330
4BC
100
AcDbEntity
  8
0
  6
BYBLOCK
 62
     4
100
AcDbLine
 10
232.9161476346178
 20
302.9523065373519
 30
0.0
 11
232.9161476346178
 21
366.5042186575579
 31
0.0
  0
LINE
  5
617
330
4BC
100
AcDbEntity
  8
0
  6
BYBLOCK
 62
     4
100
AcDbLine
 10
381.916247634618
 20
333.252306537352
 30
0.0
 11
381.916247634618
 21
366.5042186575579
 31
0.0
  0
LINE
  5
618
330
4BC
100
AcDbEntity
  8
0
  6
BYBLOCK
 62
     4
100
AcDbLine
 10
239.9161476346179
 20
363.5042186575578
 30
0.0
 11
374.9162476346179
 21
363.5042186575578
 31
0.0
  0
INSERT
  5
619
330
4BC
100
AcDbEntity
  8
0
  6
BYBLOCK
 62
     4
100
AcDbBlockReference
  2
_OPEN
 10
232.9161476346178
 20
363.5042186575578
 30
0.0
 41
7.0
 42
7.0
 43
7.0
 50
180.0
  0
INSERT
  5
61A
330
4BC
100
AcDbEntity
  8
0
  6
BYBLOCK
 62
     4
100
AcDbBlockReference
  2
_OPEN
 10
381.916247634618
 20
363.5042186575578
 30
0.0
 41
7.0
 42
7.0
 43
7.0
  0
MTEXT
  5
61B
330
4BC
100
AcDbEntity
  8
0
  6
BYBLOCK
 62
     4
100
AcDbMText
 10
307.4161976346179
 20
368.5042186575579
 30
0.0
 40
6.0
 41
0.0
 71
     5
 72
     5
  1
\A1;149
1001
ACAD
1000
MTEXTBEGIN
1070
    73
1070
     1
1070
    44
1040
1.0
1070
    74
1070
     0
1000
MTEXTEND
1000
MTEXTBEGIN
1070
    73
1070
     1
1070
    44
1040
1.0
1070
    74
1070
     0
1000
MTEXTEND
  0
POINT
  5
61C
330
4BC
100
AcDbEntity
  8
DEFPOINTS
  6
BYBLOCK
 62
     0
100
AcDbPoint
 10
232.9161476346178
 20
296.9523065373519
 30
0.0
  0
POINT
  5
61D
330
4BC
100
AcDbEntity
  8
DEFPOINTS
  6
BYBLOCK
 62
     0
100
AcDbPoint
 10
381.916247634618
 20
327.252306537352
 30
0.0
  0
POINT
  5
61E
330
4BC
100
AcDbEntity
  8
DEFPOINTS
  6
BYBLOCK
 62
     0
100
AcDbPoint
 10
381.916247634618
 20
363.5042186575578
 30
0.0
  0
ENDBLK
  5
61F
330
4BC
100
AcDbEntity
  8
0
100
AcDbBlockEnd
  0
BLOCK
  5
620
330
4DF
100
AcDbEntity
  8
0
100
AcDbBlockBegin
  2
*D12
 70
     1
 10
0.0
 20
0.0
 30
0.0
  3
*D12
  1

  0
LINE
  5
621
330
4DF
100
AcDbEntity
  8
0
  6
BYBLOCK
 62
     4
100
AcDbLine
 10
350.719312633234
 20
311.7937156723121
 30
0.0
 11
350.719312633234
 21
348.9155439544722
 31
0.0
  0
LINE
  5
622
330
4DF
100
AcDbEntity
  8
0
  6
BYBLOCK
 62
     4
100
AcDbLine
 10
381.916247634618
 20
333.252306537352
 30
0.0
 11
381.916247634618
 21
348.9155439544722
 31
0.0
  0
LINE
  5
623
330
4DF
100
AcDbEntity
  8
0
  6
BYBLOCK
 62
     4
100
AcDbLine
 10
357.719312633234
 20
345.9155439544722
 30
0.0
 11
374.9162476346179
 21
345.9155439544722
 31
0.0
  0
INSERT
  5
624
330
4DF
100
AcDbEntity
  8
0
  6
BYBLOCK
 62
     4
100
AcDbBlockReference
  2
_OPEN
 10
350.719312633234
 20
345.9155439544722
 30
0.0
 41
7.0
 42
7.0
 43
7.0
 50
180.0
  0
INSERT
  5
625
330
4DF
100
AcDbEntity
  8
0
  6
BYBLOCK
 62
     4
100
AcDbBlockReference
  2
_OPEN
 10
381.916247634618
 20
345.9155439544722
 30
0.0
 41
7.0
 42
7.0
 43
7.0
  0
MTEXT
  5
626
330
4DF
100
AcDbEntity
  8
0
  6
BYBLOCK
 62
     4
100
AcDbMText
 10
366.317780133926
 20
350.9155439544722
 30
0.0
 40
6.0
 41
0.0
 71
     5
 72
     5
  1
\A1;31
1001
ACAD
1000
MTEXTBEGIN
1070
    73
1070
     1
1070
    44
1040
1.0
1070
    74
1070
     0
1000
MTEXTEND
1000
MTEXTBEGIN
1070
    73
1070
     1
1070
    44
1040
1.0
1070
    74
1070
     0
1000
MTEXTEND
  0
POINT
  5
627
330
4DF
100
AcDbEntity
  8
DEFPOINTS
  6
BYBLOCK
 62
     0
100
AcDbPoint
 10
350.719312633234
 20
305.7937156723121
 30
0.0
  0
POINT
  5
628
330
4DF
100
AcDbEntity
  8
DEFPOINTS
  6
BYBLOCK
 62
     0
100
AcDbPoint
 10
381.916247634618
 20
327.252306537352
 30
0.0
  0
POINT
  5
629
330
4DF
100
AcDbEntity
  8
DEFPOINTS
  6
BYBLOCK
 62
     0
100
AcDbPoint
 10
381.916247634618
 20
345.9155439544722
 30
0.0
  0
ENDBLK
  5
62A
330
4DF
100
AcDbEntity
  8
0
100
AcDbBlockEnd
  0
BLOCK
  5
608
330
5D2
100
AcDbEntity
  8
0
100
AcDbBlockBegin
  2
*D13
 70
     1
 10
0.0
 20
0.0
 30
0.0
  3
*D13
  1

  0
LINE
  5
609
330
5D2
100
AcDbEntity
  8
0
  6
BYBLOCK
 62
     4
100
AcDbLine
 10
375.9162476346177
 20
273.631006537352
 30
0.0
 11
375.9162476346177
 21
254.1719815341684
 31
0.0
  0
LINE
  5
60A
330
5D2
100
AcDbEntity
  8
0
  6
BYBLOCK
 62
     4
100
AcDbLine
 10
381.9161476346177
 20
271.631006537352
 30
0.0
 11
381.9161476346177
 21
254.1719815341684
 31
0.0
  0
LINE
  5
60B
330
5D2
100
AcDbEntity
  8
0
  6
BYBLOCK
 62
     4
100
AcDbLine
 10
368.9162476346177
 20
257.1719815341684
 30
0.0
 11
361.9162476346177
 21
257.1719815341684
 31
0.0
  0
LINE
  5
60C
330
5D2
100
AcDbEntity
  8
0
  6
BYBLOCK
 62
     4
100
AcDbLine
 10
388.9161476346178
 20
257.1719815341684
 30
0.0
 11
416.9161476346178
 21
257.1719815341684
 31
0.0
  0
LINE
  5
60D
330
5D2
100
AcDbEntity
  8
0
  6
BYBLOCK
 62
     4
100
AcDbLine
 10
375.9162476346177
 20
257.1719815341684
 30
0.0
 11
381.9161476346177
 21
257.1719815341684
 31
0.0
  0
INSERT
  5
60E
330
5D2
100
AcDbEntity
  8
0
  6
BYBLOCK
 62
     4
100
AcDbBlockReference
  2
_OPEN
 10
375.9162476346177
 20
257.1719815341684
 30
0.0
 41
7.0
 42
7.0
 43
7.0
  0
INSERT
  5
60F
330
5D2
100
AcDbEntity
  8
0
  6
BYBLOCK
 62
     4
100
AcDbBlockReference
  2
_OPEN
 10
381.9161476346177
 20
257.1719815341684
 30
0.0
 41
7.0
 42
7.0
 43
7.0
 50
180.0
  0
MTEXT
  5
610
330
5D2
100
AcDbEntity
  8
0
  6
BYBLOCK
 62
     4
100
AcDbMText
 10
406.4161476346177
 20
262.1719815341684
 30
0.0
 40
6.0
 41
0.0
 71
     5
 72
     5
  1
\A1;t6.0
1001
ACAD
1000
MTEXTBEGIN
1070
    73
1070
     1
1070
    44
1040
1.0
1070
    74
1070
     0
1000
MTEXTEND
1000
MTEXTBEGIN
1070
    73
1070
     1
1070
    44
1040
1.0
1070
    74
1070
     0
1000
MTEXTEND
  0
POINT
  5
611
330
5D2
100
AcDbEntity
  8
DEFPOINTS
  6
BYBLOCK
 62
     0
100
AcDbPoint
 10
375.9162476346177
 20
279.631006537352
 30
0.0
  0
POINT
  5
612
330
5D2
100
AcDbEntity
  8
DEFPOINTS
  6
BYBLOCK
 62
     0
100
AcDbPoint
 10
381.9161476346177
 20
277.631006537352
 30
0.0
  0
POINT
  5
613
330
5D2
100
AcDbEntity
  8
DEFPOINTS
  6
BYBLOCK
 62
     0
100
AcDbPoint
 10
381.9161476346177
 20
257.1719815341684
 30
0.0
  0
ENDBLK
  5
614
330
5D2
100
AcDbEntity
  8
0
100
AcDbBlockEnd
  0
ENDSEC
  0
SECTION
  2
ENTITIES
  0
LINE
  5
2AA
330
1A
100
AcDbEntity
  8
NOKITOI
  6
PHANTOM
 62
     8
 48
5.0
100
AcDbLine
 10
341.6938126332339
 20
290.955715672312
 30
0.0
 11
338.8250126332339
 21
262.2683156723121
 31
0.0
  0
LINE
  5
2AB
330
1A
100
AcDbEntity
  8
NOKITOI
  6
PHANTOM
 62
     8
 48
5.0
100
AcDbLine
 10
340.6528126332338
 20
292.6060156723122
 30
0.0
 11
337.6598126332339
 21
262.676215672312
 31
0.0
  0
ARC
  5
2AC
330
1A
100
AcDbEntity
  8
NOKITOI
  6
PHANTOM
 62
     8
 48
5.0
100
AcDbCircle
 10
282.5973964067765
 20
295.8562301486822
 30
0.0
 40
43.00001447645168
100
AcDbArc
 50
186.524910707118
 51
269.999888375144
  0
ARC
  5
2AD
330
1A
100
AcDbEntity
  8
NOKITOI
  6
PHANTOM
 62
     8
 48
5.0
100
AcDbCircle
 10
282.5974187152016
 20
295.8562100476557
 30
0.0
 40
41.79999437547816
100
AcDbArc
 50
184.474295212525
 51
269.9998545921086
  0
LINE
  5
2B3
330
1A
100
AcDbEntity
  8
NOKITOI
  6
PHANTOM
 62
     8
 48
5.0
100
AcDbLine
 10
327.426812633234
 20
252.856115672312
 30
0.0
 11
282.5974126332338
 21
252.8562156723121
 31
0.0
  0
ARC
  5
2B4
330
1A
100
AcDbEntity
  8
NOKITOI
  6
PHANTOM
 62
     8
 48
5.0
100
AcDbCircle
 10
327.1770190209824
 20
254.5561179523017
 30
0.0
 40
0.5000022800304047
100
AcDbArc
 50
269.9992680212786
 51
309.2854498596058
  0
LINE
  5
2B5
330
1A
100
AcDbEntity
  8
NOKITOI
  6
PHANTOM
 62
     8
 48
5.0
100
AcDbLine
 10
282.5974126332338
 20
254.0562156723122
 30
0.0
 11
327.1770126332339
 21
254.056115672312
 31
0.0
  0
LINE
  5
2B6
330
1A
100
AcDbEntity
  8
NOKITOI
  6
PHANTOM
 62
     8
 48
5.0
100
AcDbLine
 10
323.1770126332339
 20
254.056115672312
 30
0.0
 11
303.2689126332339
 21
254.056115672312
 31
0.0
  0
LINE
  5
2B7
330
1A
100
AcDbEntity
  8
NOKITOI
  6
PHANTOM
 62
     8
 48
5.0
100
AcDbLine
 10
323.426812633234
 20
252.856115672312
 30
0.0
 11
303.2689126332339
 21
252.856115672312
 31
0.0
  0
LINE
  5
2B8
330
1A
100
AcDbEntity
  8
NOKITOI
  6
PHANTOM
 62
     8
 48
5.0
100
AcDbLine
 10
338.463212633234
 20
261.5938156723121
 30
0.0
 11
328.060112633234
 21
253.0821156723121
 31
0.0
  0
LINE
  5
2B9
330
1A
100
AcDbEntity
  8
NOKITOI
  6
PHANTOM
 62
     8
 48
5.0
100
AcDbLine
 10
337.478912633234
 20
262.338915672312
 30
0.0
 11
327.4936126332339
 21
254.169115672312
 31
0.0
  0
ARC
  5
2BA
330
1A
100
AcDbEntity
  8
NOKITOI
  6
PHANTOM
 62
     8
 48
5.0
100
AcDbCircle
 10
327.4268057006567
 20
253.8561131973059
 30
0.0
 40
0.9999975250179316
100
AcDbArc
 50
270.0003972084043
 51
309.2946416752298
  0
ARC
  5
2BB
330
1A
100
AcDbEntity
  8
NOKITOI
  6
PHANTOM
 62
     8
 48
5.0
100
AcDbCircle
 10
337.1622952073558
 20
262.7258831859242
 30
0.0
 40
0.4999904508696396
100
AcDbArc
 50
309.2900846377958
 51
354.2990110749245
  0
ARC
  5
2BC
330
1A
100
AcDbEntity
  8
NOKITOI
  6
PHANTOM
 62
     8
 48
5.0
100
AcDbCircle
 10
337.8299900603648
 20
262.3677736006394
 30
0.0
 40
0.9999908507640039
100
AcDbArc
 50
309.2887092230696
 51
354.2862329477531
  0
ARC
  5
2BD
330
1A
100
AcDbEntity
  8
SEIHIN
  6
CONTINUOUS
 62
     3
 48
16.0
100
AcDbCircle
 10
372.9162476346179
 20
458.620704871518
 30
0.0
 40
5.0
100
AcDbArc
 50
270.0
 51
0.0
  0
ARC
  5
2BE
330
1A
100
AcDbEntity
  8
SEIHIN
  6
CONTINUOUS
 62
     3
 48
16.0
100
AcDbCircle
 10
370.9162476346179
 20
458.620704871518
 30
0.0
 40
4.999999999999914
100
AcDbArc
 50
270.0000000000009
 51
0.0000000000009771
  0
LINE
  5
2BF
330
1A
100
AcDbEntity
  8
SEIHIN
  6
CONTINUOUS
 62
     3
 48
16.0
100
AcDbLine
 10
381.916247634618
 20
475.120704871518
 30
0.0
 11
381.916247634618
 21
443.6208048715179
 31
0.0
  0
LINE
  5
2C0
330
1A
100
AcDbEntity
  8
SEIHIN
  6
CONTINUOUS
 62
     3
 48
16.0
100
AcDbLine
 10
239.6161476346178
 20
298.252306537352
 30
0.0
 11
305.8140476346178
 21
298.252306537352
 31
0.0
  0
LINE
  5
2C1
330
1A
100
AcDbEntity
  8
SEIHIN
  6
CONTINUOUS
 62
     3
 48
16.0
100
AcDbLine
 10
240.9161476346179
 20
293.9523065373519
 30
0.0
 11
318.4162476346179
 21
284.7523065373519
 31
0.0
  0
LINE
  5
2C2
330
1A
100
AcDbEntity
  8
SEIHIN
  6
CONTINUOUS
 62
     3
 48
16.0
100
AcDbLine
 10
236.6161476346179
 20
453.620704871518
 30
0.0
 11
372.9162476346179
 21
453.620704871518
 31
0.0
  0
LINE
  5
2C3
330
1A
100
AcDbEntity
  8
SEIHIN
  6
CONTINUOUS
 62
     3
 48
16.0
100
AcDbLine
 10
236.6161476346179
 20
433.620704871518
 30
0.0
 11
372.9162476346179
 21
433.620704871518
 31
0.0
  0
LINE
  5
2C4
330
1A
100
AcDbEntity
  8
CENTER_L
  6
CENTER
 62
     1
 48
5.0
100
AcDbLine
 10
226.5285476346178
 20
443.6207048715179
 30
0.0
 11
386.4935476346177
 21
443.6207048715179
 31
0.0
  0
ARC
  5
2C5
330
1A
100
AcDbEntity
  8
NOKITOI
  6
PHANTOM
 62
     8
 48
5.0
100
AcDbCircle
 10
234.3854262053721
 20
295.0562025172256
 30
0.0
 40
1.999986844959662
100
AcDbArc
 50
181.7875531852363
 51
269.9996111843223
  0
ARC
  5
2C6
330
1A
100
AcDbEntity
  8
SEIHIN
  6
CONTINUOUS
 62
     3
 48
16.0
100
AcDbCircle
 10
235.9161476346179
 20
296.9523065373519
 30
0.0
 40
3.0
100
AcDbArc
 50
179.9999999999983
 51
269.9999999999983
  0
LINE
  5
2C7
330
1A
100
AcDbEntity
  8
NOKITOI
  6
PHANTOM
 62
     8
 48
5.0
100
AcDbLine
 10
230.8483126332339
 20
305.7937156723121
 30
0.0
 11
231.2385126332338
 21
293.309415672312
 31
0.0
  0
LINE
  5
2C8
330
1A
100
AcDbEntity
  8
NOKITOI
  6
PHANTOM
 62
     8
 48
5.0
100
AcDbLine
 10
240.4263126332339
 20
293.056215672312
 30
0.0
 11
234.3854126332339
 21
293.056215672312
 31
0.0
  0
LINE
  5
2C9
330
1A
100
AcDbEntity
  8
SEIHIN
  6
CONTINUOUS
 62
     3
 48
16.0
100
AcDbLine
 10
235.9161476346179
 20
293.9523065373519
 30
0.0
 11
240.9161476346179
 21
293.9523065373519
 31
0.0
  0
LINE
  5
2CA
330
1A
100
AcDbEntity
  8
NOKITOI
  6
PHANTOM
 62
     8
 48
5.0
100
AcDbLine
 10
232.7377126332339
 20
291.8562156723121
 30
0.0
 11
238.8824126332339
 21
291.8562156723121
 31
0.0
  0
ARC
  5
2CB
330
1A
100
AcDbEntity
  8
NOKITOI
  6
PHANTOM
 62
     8
 48
5.0
100
AcDbCircle
 10
232.7377485923848
 20
293.3561808181689
 30
0.0
 40
1.499965146287778
100
AcDbArc
 50
181.7866280217767
 51
269.9986264296976
  0
ARC
  5
2CC
330
1A
100
AcDbEntity
  8
NOKITOI
  6
PHANTOM
 62
     8
 48
5.0
100
AcDbCircle
 10
238.8824042090713
 20
290.8562231873686
 30
0.0
 40
0.9999924849789756
100
AcDbArc
 50
6.528264606674428
 51
89.99951732740891
  0
ARC
  5
2CD
330
1A
100
AcDbEntity
  8
NOKITOI
  6
PHANTOM
 62
     8
 48
5.0
100
AcDbCircle
 10
240.4263252029422
 20
292.5562040475823
 30
0.0
 40
0.5000116248877111
100
AcDbArc
 50
4.474846808342897
 51
90.00144034898337
  0
ARC
  5
2CE
330
1A
100
AcDbEntity
  8
NOKITOI
  6
PHANTOM
 62
     8
 48
5.0
100
AcDbCircle
 10
232.8473253840841
 20
305.8562288273985
 30
0.0
 40
1.999986844954076
100
AcDbArc
 50
90.00036528735526
 51
181.7883072882699
  0
ARC
  5
2CF
330
1A
100
AcDbEntity
  8
NOKITOI
  6
PHANTOM
 62
     8
 48
5.0
100
AcDbCircle
 10
232.8473171280317
 20
305.856220309839
 30
0.0
 40
0.7999953624857498
100
AcDbArc
 50
90.00032191805336
 51
181.7911273464199
  0
LINE
  5
2D0
330
1A
100
AcDbEntity
  8
NOKITOI
  6
PHANTOM
 62
     8
 48
5.0
100
AcDbLine
 10
236.4034126332339
 20
305.954315672312
 30
0.0
 11
236.6642126332337
 21
307.258215672312
 31
0.0
  0
LINE
  5
2D1
330
1A
100
AcDbEntity
  8
NOKITOI
  6
PHANTOM
 62
     8
 48
5.0
100
AcDbLine
 10
235.320112633234
 20
306.6562156723122
 30
0.0
 11
234.8201126332339
 21
304.1562156723122
 31
0.0
  0
LINE
  5
2D2
330
1A
100
AcDbEntity
  8
NOKITOI
  6
PHANTOM
 62
     8
 48
5.0
100
AcDbLine
 10
239.1252126332338
 20
305.3562156723121
 30
0.0
 11
236.8937126332339
 21
305.3562156723121
 31
0.0
  0
LINE
  5
2D3
330
1A
100
AcDbEntity
  8
NOKITOI
  6
PHANTOM
 62
     8
 48
5.0
100
AcDbLine
 10
234.8201126332339
 20
304.1562156723122
 30
0.0
 11
237.7566126332339
 21
304.1562156723122
 31
0.0
  0
LINE
  5
2D4
330
1A
100
AcDbEntity
  8
NOKITOI
  6
PHANTOM
 62
     8
 48
5.0
100
AcDbLine
 10
236.7608126332339
 20
303.056215672312
 30
0.0
 11
237.7566126332339
 21
304.1562156723122
 31
0.0
  0
ARC
  5
2D5
330
1A
100
AcDbEntity
  8
SEIHIN
  6
CONTINUOUS
 62
     3
 48
16.0
100
AcDbCircle
 10
237.6162603588598
 20
302.0021072166368
 30
0.0
 40
4.249771082082443
100
AcDbArc
 50
248.0389576229232
 51
298.0724105654601
  0
LINE
  5
2D6
330
1A
100
AcDbEntity
  8
NOKITOI
  6
PHANTOM
 62
     8
 48
5.0
100
AcDbLine
 10
238.8094126332338
 20
298.3562156723121
 30
0.0
 11
236.5603126332338
 21
298.3562156723121
 31
0.0
  0
LINE
  5
2D7
330
1A
100
AcDbEntity
  8
NOKITOI
  6
PHANTOM
 62
     8
 48
5.0
100
AcDbLine
 10
236.0654126332339
 20
298.9270156723122
 30
0.0
 11
236.3991126332339
 21
301.2632156723122
 31
0.0
  0
LINE
  5
2D8
330
1A
100
AcDbEntity
  8
SEIHIN
  6
CONTINUOUS
 62
     3
 48
16.0
100
AcDbLine
 10
236.4340476346178
 20
301.115006537352
 30
0.0
 11
235.7331476346179
 21
298.661806537352
 31
0.0
  0
LINE
  5
2D9
330
1A
100
AcDbEntity
  8
SEIHIN
  6
CONTINUOUS
 62
     3
 48
16.0
100
AcDbLine
 10
235.7331476346179
 20
298.661806537352
 30
0.0
 11
232.9292476346179
 21
298.661806537352
 31
0.0
  0
ARC
  5
2DA
330
1A
100
AcDbEntity
  8
NOKITOI
  6
PHANTOM
 62
     8
 48
5.0
100
AcDbCircle
 10
236.8937053786781
 20
305.8562245221554
 30
0.0
 40
0.5000088498959383
100
AcDbArc
 50
168.6864043304884
 51
270.0008312961434
  0
ARC
  5
2DB
330
1A
100
AcDbEntity
  8
NOKITOI
  6
PHANTOM
 62
     8
 48
5.0
100
AcDbCircle
 10
235.9041268516492
 20
301.3339010380111
 30
0.0
 40
0.5000073448410256
100
AcDbArc
 50
351.8729478641243
 51
96.47829282996843
  0
ARC
  5
2DC
330
1A
100
AcDbEntity
  8
NOKITOI
  6
PHANTOM
 62
     8
 48
5.0
100
AcDbCircle
 10
236.2990328459029
 20
297.8562744006922
 30
0.0
 40
5.2000412730095
100
AcDbArc
 50
90.00132454306161
 51
142.0757990790561
  0
LINE
  5
2DD
330
1A
100
AcDbEntity
  8
NOKITOI
  6
PHANTOM
 62
     8
 48
5.0
100
AcDbLine
 10
236.7608126332339
 20
303.056215672312
 30
0.0
 11
236.2989126332338
 21
303.056215672312
 31
0.0
  0
LINE
  5
2DE
330
1A
100
AcDbEntity
  8
NOKITOI
  6
PHANTOM
 62
     8
 48
5.0
100
AcDbLine
 10
232.0477126332339
 20
305.831215672312
 30
0.0
 11
232.1971126332338
 21
301.0523156723121
 31
0.0
  0
LINE
  5
2DF
330
1A
100
AcDbEntity
  8
SEIHIN
  6
CONTINUOUS
 62
     3
 48
16.0
100
AcDbLine
 10
235.6161476346178
 20
301.7523065373519
 30
0.0
 11
235.9533476346178
 21
301.7523065373519
 31
0.0
  0
ARC
  5
2E0
330
1A
100
AcDbEntity
  8
SEIHIN
  6
CONTINUOUS
 62
     3
 48
16.0
100
AcDbCircle
 10
235.953318883535
 20
301.2523446502572
 30
0.0
 40
0.4999618879214663
100
AcDbArc
 50
344.0560320448818
 51
89.99670511744254
  0
LINE
  5
2E1
330
1A
100
AcDbEntity
  8
NOKITOI
  6
PHANTOM
 62
     8
 48
5.0
100
AcDbLine
 10
232.3864126332338
 20
294.9938156723121
 30
0.0
 11
232.3009126332339
 21
297.731315672312
 31
0.0
  0
LINE
  5
2E2
330
1A
100
AcDbEntity
  8
SEIHIN
  6
CONTINUOUS
 62
     3
 48
16.0
100
AcDbLine
 10
232.9161476346178
 20
298.252306537352
 30
0.0
 11
232.9161476346178
 21
296.952306537352
 31
0.0
  0
ARC
  5
2E4
330
1A
100
AcDbEntity
  8
NOKITOI
  6
PHANTOM
 62
     8
 48
5.0
100
AcDbCircle
 10
236.2989505146805
 20
297.8562594548375
 30
0.0
 40
3.999989731271038
100
AcDbArc
 50
96.47731142013144
 51
181.7899836067308
  0
ARC
  5
2E5
330
1A
100
AcDbEntity
  8
SEIHIN
  6
CONTINUOUS
 62
     3
 48
16.0
100
AcDbCircle
 10
236.4149255263522
 20
298.344677878014
 30
0.0
 40
3.499997028607962
100
AcDbArc
 50
103.1924424199628
 51
181.5123162998229
  0
ARC
  5
2E6
330
1A
100
AcDbEntity
  8
NOKITOI
  6
PHANTOM
 62
     8
 48
5.0
100
AcDbCircle
 10
236.5603392338313
 20
298.8561849954299
 30
0.0
 40
0.4999693238254178
100
AcDbArc
 50
171.8555038770532
 51
269.9969516090348
  0
ARC
  5
2E7
330
1A
100
AcDbEntity
  8
SEIHIN
  6
CONTINUOUS
 62
     3
 48
16.0
100
AcDbCircle
 10
236.2139277144242
 20
298.5244473000323
 30
0.0
 40
0.5000170449251699
100
AcDbArc
 50
164.0553202355162
 51
248.0407286048561
  0
ARC
  5
2E8
330
1A
100
AcDbEntity
  8
NOKITOI
  6
PHANTOM
 62
     8
 48
5.0
100
AcDbCircle
 10
239.125206432076
 20
304.8562222073974
 30
0.0
 40
0.4999934649531607
100
AcDbArc
 50
356.9955363203384
 51
89.99928939038005
  0
LINE
  5
2E9
330
1A
100
AcDbEntity
  8
NOKITOI
  6
PHANTOM
 62
     8
 48
5.0
100
AcDbLine
 10
239.3088126332339
 20
298.830015672312
 30
0.0
 11
239.6246126332338
 21
304.8299156723121
 31
0.0
  0
LINE
  5
2EA
330
1A
100
AcDbEntity
  8
NOKITOI
  6
PHANTOM
 62
     8
 48
5.0
100
AcDbLine
 10
238.1453126332339
 20
299.5562156723122
 30
0.0
 11
238.3265126332338
 21
302.9977156723122
 31
0.0
  0
LINE
  5
2EB
330
1A
100
AcDbEntity
  8
NOKITOI
  6
PHANTOM
 62
     8
 48
5.0
100
AcDbLine
 10
237.7715126332337
 20
302.384615672312
 30
0.0
 11
238.3265126332338
 21
302.9977156723122
 31
0.0
  0
LINE
  5
2EC
330
1A
100
AcDbEntity
  8
NOKITOI
  6
PHANTOM
 62
     8
 48
5.0
100
AcDbLine
 10
237.3674126332339
 20
299.5562156723122
 30
0.0
 11
237.7715126332337
 21
302.384615672312
 31
0.0
  0
LINE
  5
2ED
330
1A
100
AcDbEntity
  8
NOKITOI
  6
PHANTOM
 62
     8
 48
5.0
100
AcDbLine
 10
238.1453126332339
 20
299.5562156723122
 30
0.0
 11
237.3674126332339
 21
299.5562156723122
 31
0.0
  0
ARC
  5
2EE
330
1A
100
AcDbEntity
  8
NOKITOI
  6
PHANTOM
 62
     8
 48
5.0
100
AcDbCircle
 10
238.809405746239
 20
298.8562091372266
 30
0.0
 40
0.499993464961963
100
AcDbArc
 50
270.0007892017873
 51
356.9970361317427
  0
LINE
  5
2EF
330
1A
100
AcDbEntity
  8
NOKITOI
  6
PHANTOM
 62
     8
 48
5.0
100
AcDbLine
 10
232.8473126332338
 20
307.856215672312
 30
0.0
 11
236.1739126332339
 21
307.856215672312
 31
0.0
  0
LINE
  5
2F0
330
1A
100
AcDbEntity
  8
NOKITOI
  6
PHANTOM
 62
     8
 48
5.0
100
AcDbLine
 10
232.8473126332338
 20
306.6562156723122
 30
0.0
 11
235.320112633234
 21
306.6562156723122
 31
0.0
  0
ARC
  5
2F1
330
1A
100
AcDbEntity
  8
NOKITOI
  6
PHANTOM
 62
     8
 48
5.0
100
AcDbCircle
 10
236.1739118502257
 20
307.3562166273138
 30
0.0
 40
0.4999990449987349
100
AcDbArc
 50
348.6967198015448
 51
89.99991027369452
  0
LINE
  5
2F2
330
1A
100
AcDbEntity
  8
SEIHIN
  6
CONTINUOUS
 62
     3
 48
16.0
100
AcDbLine
 10
236.6161476346179
 20
431.6207048715179
 30
0.0
 11
236.6161476346179
 21
443.6207048715179
 31
0.0
  0
LINE
  5
2F3
330
1A
100
AcDbEntity
  8
SEIHIN
  6
CONTINUOUS
 62
     3
 48
16.0
100
AcDbLine
 10
232.916247634618
 20
431.6207048715179
 30
0.0
 11
232.916247634618
 21
443.6207048715179
 31
0.0
  0
LINE
  5
2F4
330
1A
100
AcDbEntity
  8
SEIHIN
  6
CONTINUOUS
 62
     3
 48
16.0
100
AcDbLine
 10
239.6161476346178
 20
433.620704871518
 30
0.0
 11
239.6161476346178
 21
443.6207048715179
 31
0.0
  0
LINE
  5
2F5
330
1A
100
AcDbEntity
  8
SEIHIN
  6
CONTINUOUS
 62
     3
 48
16.0
100
AcDbLine
 10
232.916247634618
 20
431.6207048715179
 30
0.0
 11
236.6161476346179
 21
431.6207048715179
 31
0.0
  0
LINE
  5
2F6
330
1A
100
AcDbEntity
  8
SEIHIN
  6
CONTINUOUS
 62
     3
 48
16.0
100
AcDbLine
 10
232.916247634618
 20
455.620704871518
 30
0.0
 11
232.916247634618
 21
443.6207048715179
 31
0.0
  0
LINE
  5
2F7
330
1A
100
AcDbEntity
  8
SEIHIN
  6
CONTINUOUS
 62
     3
 48
16.0
100
AcDbLine
 10
236.6161476346179
 20
455.620704871518
 30
0.0
 11
236.6161476346179
 21
443.6207048715179
 31
0.0
  0
LINE
  5
2F8
330
1A
100
AcDbEntity
  8
SEIHIN
  6
CONTINUOUS
 62
     3
 48
16.0
100
AcDbLine
 10
239.6161476346178
 20
453.620704871518
 30
0.0
 11
239.6161476346178
 21
443.6207048715179
 31
0.0
  0
LINE
  5
2F9
330
1A
100
AcDbEntity
  8
SEIHIN
  6
CONTINUOUS
 62
     3
 48
16.0
100
AcDbLine
 10
232.916247634618
 20
455.620704871518
 30
0.0
 11
236.6161476346179
 21
455.620704871518
 31
0.0
  0
LINE
  5
2FA
330
1A
100
AcDbEntity
  8
SEIHIN
  6
CONTINUOUS
 62
     3
 48
16.0
100
AcDbLine
 10
340.8875476346179
 20
320.6603065373519
 30
0.0
 11
324.267247634618
 21
298.649706537352
 31
0.0
  0
ARC
  5
2FB
330
1A
100
AcDbEntity
  8
SEIHIN
  6
CONTINUOUS
 62
     3
 48
16.0
100
AcDbCircle
 10
355.1000820030934
 20
277.2522738551235
 30
0.0
 40
50.00003268227157
100
AcDbArc
 50
89.99992479186218
 51
142.943357410159
  0
ARC
  5
2FC
330
1A
100
AcDbEntity
  8
SEIHIN
  6
CONTINUOUS
 62
     3
 48
16.0
100
AcDbCircle
 10
355.1002069505983
 20
277.2523494565358
 30
0.0
 40
47.50005287012275
100
AcDbArc
 50
108.8330328826591
 51
142.9437762676093
  0
LINE
  5
2FD
330
1A
100
AcDbEntity
  8
SEIHIN
  6
CONTINUOUS
 62
     3
 48
16.0
100
AcDbLine
 10
320.0766476346178
 20
288.951406537352
 30
0.0
 11
330.9146476346179
 21
303.304406537352
 31
0.0
  0
LINE
  5
2FE
330
1A
100
AcDbEntity
  8
SEIHIN
  6
CONTINUOUS
 62
     3
 48
16.0
100
AcDbLine
 10
321.100547634618
 20
287.374606537352
 30
0.0
 11
332.123647634618
 21
289.929906537352
 31
0.0
  0
LINE
  5
2FF
330
1A
100
AcDbEntity
  8
SEIHIN
  6
CONTINUOUS
 62
     3
 48
16.0
100
AcDbLine
 10
318.4162476346179
 20
284.7523065373519
 30
0.0
 11
335.9155476346179
 21
289.474806537352
 31
0.0
  0
LINE
  5
300
330
1A
100
AcDbEntity
  8
SEIHIN
  6
CONTINUOUS
 62
     3
 48
16.0
100
AcDbLine
 10
301.8140476346178
 20
298.252306537352
 30
0.0
 11
286.9960476346178
 21
298.252306537352
 31
0.0
  0
LINE
  5
301
330
1A
100
AcDbEntity
  8
SEIHIN
  6
CONTINUOUS
 62
     3
 48
16.0
100
AcDbLine
 10
320.0712476346178
 20
295.7523065373519
 30
0.0
 11
263.867747634618
 21
295.7523065373519
 31
0.0
  0
LINE
  5
302
330
1A
100
AcDbEntity
  8
SEIHIN
  6
CONTINUOUS
 62
     3
 48
16.0
100
AcDbLine
 10
315.3298476346179
 20
287.636306537352
 30
0.0
 11
263.7498476346179
 21
293.7593065373519
 31
0.0
  0
ARC
  5
303
330
1A
100
AcDbEntity
  8
SEIHIN
  6
CONTINUOUS
 62
     3
 48
16.0
100
AcDbCircle
 10
263.8677483828256
 20
294.7523191850119
 30
0.0
 40
0.9999873523402868
100
AcDbArc
 50
90.00004286968644
 51
263.2289497309789
  0
ARC
  5
304
330
1A
100
AcDbEntity
  8
SEIHIN
  6
CONTINUOUS
 62
     3
 48
16.0
100
AcDbCircle
 10
320.0712390149263
 20
294.7523238476516
 30
0.0
 40
0.9999826897374756
100
AcDbArc
 50
322.9416714733756
 51
89.99950611951003
  0
LINE
  5
305
330
1A
100
AcDbEntity
  8
SEIHIN
  6
CONTINUOUS
 62
     3
 48
16.0
100
AcDbLine
 10
320.8692476346178
 20
294.149706537352
 30
0.0
 11
316.2457476346178
 21
288.0267065373519
 31
0.0
  0
ARC
  5
306
330
1A
100
AcDbEntity
  8
SEIHIN
  6
CONTINUOUS
 62
     3
 48
16.0
100
AcDbCircle
 10
315.4477390187331
 20
288.629302864936
 30
0.0
 40
0.9999700420732398
100
AcDbArc
 50
263.2293722774609
 51
322.942630770034
  0
ARC
  5
307
330
1A
100
AcDbEntity
  8
SEIHIN
  6
CONTINUOUS
 62
     3
 48
16.0
100
AcDbCircle
 10
320.8747419729807
 20
288.3488152563079
 30
0.0
 40
1.000035411831589
100
AcDbArc
 50
142.9458211668778
 51
283.049788199843
  0
LINE
  5
308
330
1A
100
AcDbEntity
  8
SEIHIN
  6
CONTINUOUS
 62
     3
 48
16.0
100
AcDbLine
 10
315.1980476346179
 20
307.3825065373519
 30
0.0
 11
309.8042476346179
 21
300.239306537352
 31
0.0
  0
ARC
  5
309
330
1A
100
AcDbEntity
  8
SEIHIN
  6
CONTINUOUS
 62
     3
 48
16.0
100
AcDbCircle
 10
305.8140340834911
 20
303.252299789343
 30
0.0
 40
4.99999325200937
100
AcDbArc
 50
270.0001552846829
 51
322.9437017475605
  0
LINE
  5
30A
330
1A
100
AcDbEntity
  8
SEIHIN
  6
CONTINUOUS
 62
     3
 48
16.0
100
AcDbLine
 10
313.444747634618
 20
298.252306537352
 30
0.0
 11
323.4692476346178
 21
298.252306537352
 31
0.0
  0
LINE
  5
30B
330
1A
100
AcDbEntity
  8
SEIHIN
  6
CONTINUOUS
 62
     3
 48
16.0
100
AcDbLine
 10
312.6466476346178
 20
299.854906537352
 30
0.0
 11
317.1931476346179
 21
305.8760065373519
 31
0.0
  0
ARC
  5
30C
330
1A
100
AcDbEntity
  8
SEIHIN
  6
CONTINUOUS
 62
     3
 48
16.0
100
AcDbCircle
 10
313.4447363840509
 20
299.2523291293416
 30
0.0
 40
1.000022592052937
100
AcDbArc
 50
142.9462625565182
 51
270.000644595443
  0
ARC
  5
30D
330
1A
100
AcDbEntity
  8
SEIHIN
  6
CONTINUOUS
 62
     3
 48
16.0
100
AcDbCircle
 10
323.4692128716017
 20
299.2522892270524
 30
0.0
 40
0.9999826903047107
100
AcDbArc
 50
270.0019918085855
 51
322.944157162451
  0
LINE
  5
30E
330
1A
100
AcDbEntity
  8
SEIHIN
  6
CONTINUOUS
 62
     3
 48
16.0
100
AcDbLine
 10
375.9162476346177
 20
325.2523065373519
 30
0.0
 11
375.9162476346177
 21
308.2523065373519
 31
0.0
  0
LINE
  5
30F
330
1A
100
AcDbEntity
  8
SEIHIN
  6
CONTINUOUS
 62
     3
 48
16.0
100
AcDbLine
 10
340.014047634618
 20
315.3549065373519
 30
0.0
 11
346.284047634618
 21
323.6585065373519
 31
0.0
  0
LINE
  5
310
330
1A
100
AcDbEntity
  8
SEIHIN
  6
CONTINUOUS
 62
     3
 48
16.0
100
AcDbLine
 10
381.916247634618
 20
327.252306537352
 30
0.0
 11
381.9161476346177
 21
277.631006537352
 31
0.0
  0
LINE
  5
311
330
1A
100
AcDbEntity
  8
SEIHIN
  6
CONTINUOUS
 62
     3
 48
16.0
100
AcDbLine
 10
377.916247634618
 20
277.631006537352
 30
0.0
 11
377.916247634618
 21
327.252306537352
 31
0.0
  0
LINE
  5
312
330
1A
100
AcDbEntity
  8
SEIHIN
  6
CONTINUOUS
 62
     3
 48
16.0
100
AcDbLine
 10
372.9162476346179
 20
313.7523065373519
 30
0.0
 11
340.8121476346179
 21
313.7523065373519
 31
0.0
  0
LINE
  5
313
330
1A
100
AcDbEntity
  8
SEIHIN
  6
CONTINUOUS
 62
     3
 48
16.0
100
AcDbLine
 10
372.9162476346179
 20
311.2523065373519
 30
0.0
 11
346.8755476346177
 21
311.2523065373519
 31
0.0
  0
LINE
  5
314
330
1A
100
AcDbEntity
  8
SEIHIN
  6
CONTINUOUS
 62
     3
 48
16.0
100
AcDbLine
 10
374.9162476346179
 20
284.2523065373519
 30
0.0
 11
351.0032476346177
 21
284.252406537352
 31
0.0
  0
ARC
  5
315
330
1A
100
AcDbEntity
  8
SEIHIN
  6
CONTINUOUS
 62
     3
 48
16.0
100
AcDbCircle
 10
364.9015014432983
 20
310.2310203722495
 30
0.0
 40
30.00001383494588
100
AcDbArc
 50
236.6530029607297
 51
269.9998972330376
  0
LINE
  5
316
330
1A
100
AcDbEntity
  8
SEIHIN
  6
CONTINUOUS
 62
     3
 48
16.0
100
AcDbLine
 10
374.9162476346179
 20
287.2523065373519
 30
0.0
 11
355.7327476346179
 21
287.2524065373519
 31
0.0
  0
ARC
  5
317
330
1A
100
AcDbEntity
  8
SEIHIN
  6
CONTINUOUS
 62
     3
 48
16.0
100
AcDbCircle
 10
355.9162476346177
 20
307.2524065373519
 30
0.0
 40
20.00000000024996
100
AcDbArc
 50
269.9997135211024
 51
359.9997135211025
  0
ARC
  5
318
330
1A
100
AcDbEntity
  8
NOKITOI
  6
PHANTOM
 62
     8
 48
5.0
100
AcDbCircle
 10
347.1822506210583
 20
295.0561524928843
 30
0.0
 40
2.000036820932882
100
AcDbArc
 50
269.9989117490339
 51
358.2110591274196
  0
LINE
  5
319
330
1A
100
AcDbEntity
  8
SEIHIN
  6
CONTINUOUS
 62
     3
 48
16.0
100
AcDbLine
 10
333.5626476346179
 20
295.4252065373519
 30
0.0
 11
334.1642476346178
 21
293.301706537352
 31
0.0
  0
LINE
  5
31A
330
1A
100
AcDbEntity
  8
SEIHIN
  6
CONTINUOUS
 62
     3
 48
16.0
100
AcDbLine
 10
334.813447634618
 20
295.779506537352
 30
0.0
 11
336.3715476346178
 21
290.279506537352
 31
0.0
  0
LINE
  5
31B
330
1A
100
AcDbEntity
  8
NOKITOI
  6
PHANTOM
 62
     8
 48
5.0
100
AcDbLine
 10
350.719312633234
 20
305.7937156723121
 30
0.0
 11
350.3292126332339
 21
293.3093156723121
 31
0.0
  0
LINE
  5
31C
330
1A
100
AcDbEntity
  8
SEIHIN
  6
CONTINUOUS
 62
     3
 48
16.0
100
AcDbLine
 10
348.8044476346179
 20
284.911006537352
 30
0.0
 11
342.5916476346179
 21
288.999306537352
 31
0.0
  0
LINE
  5
31D
330
1A
100
AcDbEntity
  8
NOKITOI
  6
PHANTOM
 62
     8
 48
5.0
100
AcDbLine
 10
341.1503126332338
 20
293.056215672312
 30
0.0
 11
347.182212633234
 21
293.056215672312
 31
0.0
  0
LINE
  5
31E
330
1A
100
AcDbEntity
  8
NOKITOI
  6
PHANTOM
 62
     8
 48
5.0
100
AcDbLine
 10
348.8299126332337
 20
291.8562156723121
 30
0.0
 11
342.6888126332339
 21
291.8562156723121
 31
0.0
  0
ARC
  5
31F
330
1A
100
AcDbEntity
  8
SEIHIN
  6
CONTINUOUS
 62
     3
 48
16.0
100
AcDbCircle
 10
343.4162600309739
 20
290.2523308009045
 30
0.0
 40
1.500018469644739
100
AcDbArc
 50
69.22367221078951
 51
236.6511769916156
  0
ARC
  5
320
330
1A
100
AcDbEntity
  8
SEIHIN
  6
CONTINUOUS
 62
     3
 48
16.0
100
AcDbCircle
 10
333.9718286248892
 20
293.2471801267358
 30
0.0
 40
0.199995511848599
100
AcDbArc
 50
272.6994066054555
 51
15.82131391095373
  0
ARC
  5
321
330
1A
100
AcDbEntity
  8
SEIHIN
  6
CONTINUOUS
 62
     3
 48
16.0
100
AcDbCircle
 10
332.0785441270639
 20
290.1246993632672
 30
0.0
 40
0.2000438451613521
100
AcDbArc
 50
283.0304061942815
 51
24.86260318475294
  0
ARC
  5
322
330
1A
100
AcDbEntity
  8
SEIHIN
  6
CONTINUOUS
 62
     3
 48
16.0
100
AcDbCircle
 10
334.0747371983524
 20
291.0495893256632
 30
0.0
 40
2.000003477458785
100
AcDbArc
 50
92.67925038682612
 51
204.8592541446026
  0
ARC
  5
323
330
1A
100
AcDbEntity
  8
SEIHIN
  6
CONTINUOUS
 62
     3
 48
16.0
100
AcDbCircle
 10
335.7461669263893
 20
290.1023405847636
 30
0.0
 40
0.6499913883897915
100
AcDbArc
 50
285.1050235239369
 51
15.8170526569315
  0
ARC
  5
324
330
1A
100
AcDbEntity
  8
NOKITOI
  6
PHANTOM
 62
     8
 48
5.0
100
AcDbCircle
 10
342.688833283075
 20
290.8562343601613
 30
0.0
 40
0.9999813123640345
100
AcDbArc
 50
90.00118317084957
 51
174.290590033351
  0
ARC
  5
325
330
1A
100
AcDbEntity
  8
NOKITOI
  6
PHANTOM
 62
     8
 48
5.0
100
AcDbCircle
 10
341.1503257042386
 20
292.556227502592
 30
0.0
 40
0.499988169890889
100
AcDbArc
 50
90.00149786226627
 51
174.2966061377156
  0
LINE
  5
326
330
1A
100
AcDbEntity
  8
SEIHIN
  6
CONTINUOUS
 62
     3
 48
16.0
100
AcDbLine
 10
343.948347634618
 20
291.654806537352
 30
0.0
 11
355.3779476346179
 21
287.317406537352
 31
0.0
  0
ARC
  5
327
330
1A
100
AcDbEntity
  8
NOKITOI
  6
PHANTOM
 62
     8
 48
5.0
100
AcDbCircle
 10
348.829929846412
 20
293.3562323554599
 30
0.0
 40
1.500016683246579
100
AcDbArc
 50
269.9993425123348
 51
358.207642324411
  0
ARC
  5
328
330
1A
100
AcDbEntity
  8
SEIHIN
  6
CONTINUOUS
 62
     3
 48
16.0
100
AcDbCircle
 10
351.0031759136406
 20
288.2524280178613
 30
0.0
 40
4.000021481152314
100
AcDbArc
 50
236.6549981031843
 51
270.0010273218055
  0
ARC
  5
329
330
1A
100
AcDbEntity
  8
SEIHIN
  6
CONTINUOUS
 62
     3
 48
16.0
100
AcDbCircle
 10
355.7326003279736
 20
288.2524335466224
 30
0.0
 40
1.000027020119825
100
AcDbArc
 50
249.228426939713
 51
270.0084398209995
  0
ARC
  5
32A
330
1A
100
AcDbEntity
  8
SEIHIN
  6
CONTINUOUS
 62
     3
 48
16.0
100
AcDbCircle
 10
346.8755413327093
 20
291.2523033992274
 30
0.0
 40
20.00000313812548
100
AcDbArc
 50
89.9999819463648
 51
142.9432997870773
  0
LINE
  5
32B
330
1A
100
AcDbEntity
  8
NOKITOI
  6
PHANTOM
 62
     8
 48
5.0
100
AcDbLine
 10
342.4424126332339
 20
305.3562156723121
 30
0.0
 11
344.6739126332339
 21
305.3562156723121
 31
0.0
  0
LINE
  5
32C
330
1A
100
AcDbEntity
  8
NOKITOI
  6
PHANTOM
 62
     8
 48
5.0
100
AcDbLine
 10
343.7962126332338
 20
302.384615672312
 30
0.0
 11
343.2412126332339
 21
302.997615672312
 31
0.0
  0
LINE
  5
32D
330
1A
100
AcDbEntity
  8
NOKITOI
  6
PHANTOM
 62
     8
 48
5.0
100
AcDbLine
 10
343.422312633234
 20
299.5562156723122
 30
0.0
 11
344.2002126332338
 21
299.5562156723122
 31
0.0
  0
LINE
  5
32E
330
1A
100
AcDbEntity
  8
NOKITOI
  6
PHANTOM
 62
     8
 48
5.0
100
AcDbLine
 10
342.7582126332339
 20
298.3562156723121
 30
0.0
 11
345.0073126332338
 21
298.3562156723121
 31
0.0
  0
ARC
  5
32F
330
1A
100
AcDbEntity
  8
SEIHIN
  6
CONTINUOUS
 62
     3
 48
16.0
100
AcDbCircle
 10
334.1880607455883
 20
295.6023102511486
 30
0.0
 40
0.6500056036791899
100
AcDbArc
 50
15.81947672445109
 51
195.8109957391682
  0
LINE
  5
330
330
1A
100
AcDbEntity
  8
NOKITOI
  6
PHANTOM
 62
     8
 48
5.0
100
AcDbLine
 10
342.2589126332338
 20
298.8299156723121
 30
0.0
 11
341.943112633234
 21
304.8299156723121
 31
0.0
  0
ARC
  5
331
330
1A
100
AcDbEntity
  8
NOKITOI
  6
PHANTOM
 62
     8
 48
5.0
100
AcDbCircle
 10
342.442416342729
 20
304.8562195823427
 30
0.0
 40
0.4999960899831856
100
AcDbArc
 50
90.00042508015132
 51
183.0156217414654
  0
LINE
  5
332
330
1A
100
AcDbEntity
  8
NOKITOI
  6
PHANTOM
 62
     8
 48
5.0
100
AcDbLine
 10
343.422312633234
 20
299.5562156723122
 30
0.0
 11
343.2412126332339
 21
302.997615672312
 31
0.0
  0
ARC
  5
333
330
1A
100
AcDbEntity
  8
NOKITOI
  6
PHANTOM
 62
     8
 48
5.0
100
AcDbCircle
 10
342.7582167546408
 20
298.8562117622816
 30
0.0
 40
0.4999960899864752
100
AcDbArc
 50
183.0147243791737
 51
269.9995277178594
  0
ARC
  5
334
330
1A
100
AcDbEntity
  8
SEIHIN
  6
CONTINUOUS
 62
     3
 48
16.0
100
AcDbCircle
 10
340.8121363840509
 20
314.7523291293415
 30
0.0
 40
1.000022592052875
100
AcDbArc
 50
142.9462625565128
 51
270.0006445954393
  0
LINE
  5
335
330
1A
100
AcDbEntity
  8
NOKITOI
  6
PHANTOM
 62
     8
 48
5.0
100
AcDbLine
 10
346.2476126332338
 20
306.6562156723122
 30
0.0
 11
346.7476126332338
 21
304.1562156723122
 31
0.0
  0
LINE
  5
336
330
1A
100
AcDbEntity
  8
NOKITOI
  6
PHANTOM
 62
     8
 48
5.0
100
AcDbLine
 10
345.1642126332338
 20
305.9542156723122
 30
0.0
 11
344.9034126332339
 21
307.258215672312
 31
0.0
  0
ARC
  5
337
330
1A
100
AcDbEntity
  8
NOKITOI
  6
PHANTOM
 62
     8
 48
5.0
100
AcDbCircle
 10
348.7203013962395
 20
305.8562272661292
 30
0.0
 40
1.999988406214315
100
AcDbArc
 50
358.2088726535929
 51
89.99967808195611
  0
ARC
  5
338
330
1A
100
AcDbEntity
  8
NOKITOI
  6
PHANTOM
 62
     8
 48
5.0
100
AcDbCircle
 10
348.720356599587
 20
305.856170309839
 30
0.0
 40
0.7999453636812564
100
AcDbArc
 50
358.212343644788
 51
90.00314907315372
  0
LINE
  5
339
330
1A
100
AcDbEntity
  8
NOKITOI
  6
PHANTOM
 62
     8
 48
5.0
100
AcDbLine
 10
345.5023126332338
 20
298.926915672312
 30
0.0
 11
345.1685126332338
 21
301.2631156723122
 31
0.0
  0
ARC
  5
33A
330
1A
100
AcDbEntity
  8
NOKITOI
  6
PHANTOM
 62
     8
 48
5.0
100
AcDbCircle
 10
345.2687947668829
 20
297.8562244006921
 30
0.0
 40
5.199991271650611
100
AcDbArc
 50
37.92532860473096
 51
89.99980314072548
  0
LINE
  5
33B
330
1A
100
AcDbEntity
  8
NOKITOI
  6
PHANTOM
 62
     8
 48
5.0
100
AcDbLine
 10
346.7476126332338
 20
304.1562156723122
 30
0.0
 11
343.811012633234
 21
304.1562156723122
 31
0.0
  0
ARC
  5
33C
330
1A
100
AcDbEntity
  8
NOKITOI
  6
PHANTOM
 62
     8
 48
5.0
100
AcDbCircle
 10
344.6739118502257
 20
305.8562147173103
 30
0.0
 40
0.4999990449987399
100
AcDbArc
 50
270.0000897263054
 51
11.30328019845509
  0
LINE
  5
33D
330
1A
100
AcDbEntity
  8
NOKITOI
  6
PHANTOM
 62
     8
 48
5.0
100
AcDbLine
 10
344.806812633234
 20
303.056215672312
 30
0.0
 11
345.268812633234
 21
303.056215672312
 31
0.0
  0
ARC
  5
33E
330
1A
100
AcDbEntity
  8
NOKITOI
  6
PHANTOM
 62
     8
 48
5.0
100
AcDbCircle
 10
345.6635420057339
 20
301.333845904807
 30
0.0
 40
0.4999578477751074
100
AcDbArc
 50
83.52609071220776
 51
188.1330561712924
  0
LINE
  5
33F
330
1A
100
AcDbEntity
  8
NOKITOI
  6
PHANTOM
 62
     8
 48
5.0
100
AcDbLine
 10
344.2002126332338
 20
299.5562156723122
 30
0.0
 11
343.7962126332338
 21
302.384615672312
 31
0.0
  0
LINE
  5
340
330
1A
100
AcDbEntity
  8
NOKITOI
  6
PHANTOM
 62
     8
 48
5.0
100
AcDbLine
 10
344.806812633234
 20
303.056215672312
 30
0.0
 11
343.811012633234
 21
304.1562156723122
 31
0.0
  0
LINE
  5
341
330
1A
100
AcDbEntity
  8
NOKITOI
  6
PHANTOM
 62
     8
 48
5.0
100
AcDbLine
 10
349.5199126332338
 20
305.831215672312
 30
0.0
 11
349.370612633234
 21
301.0522156723121
 31
0.0
  0
LINE
  5
342
330
1A
100
AcDbEntity
  8
NOKITOI
  6
PHANTOM
 62
     8
 48
5.0
100
AcDbLine
 10
349.181312633234
 20
294.9936156723122
 30
0.0
 11
349.2668126332339
 21
297.731215672312
 31
0.0
  0
ARC
  5
343
330
1A
100
AcDbEntity
  8
NOKITOI
  6
PHANTOM
 62
     8
 48
5.0
100
AcDbCircle
 10
345.2687817062977
 20
297.8562514169759
 30
0.0
 40
3.99998565374706
100
AcDbArc
 50
358.2086966591014
 51
83.52422380468325
  0
ARC
  5
344
330
1A
100
AcDbEntity
  8
NOKITOI
  6
PHANTOM
 62
     8
 48
5.0
100
AcDbCircle
 10
345.00732281967
 20
298.8562274170362
 30
0.0
 40
0.5000117448278309
100
AcDbArc
 50
269.9988327478018
 51
8.127314608715803
  0
LINE
  5
345
330
1A
100
AcDbEntity
  8
NOKITOI
  6
PHANTOM
 62
     8
 48
5.0
100
AcDbLine
 10
348.720312633234
 20
306.656115672312
 30
0.0
 11
346.2476126332338
 21
306.6562156723122
 31
0.0
  0
LINE
  5
346
330
1A
100
AcDbEntity
  8
NOKITOI
  6
PHANTOM
 62
     8
 48
5.0
100
AcDbLine
 10
348.720312633234
 20
307.856115672312
 30
0.0
 11
345.393712633234
 21
307.856215672312
 31
0.0
  0
ARC
  5
347
330
1A
100
AcDbEntity
  8
NOKITOI
  6
PHANTOM
 62
     8
 48
5.0
100
AcDbCircle
 10
345.3937053786781
 20
307.3562068224687
 30
0.0
 40
0.500008849895925
100
AcDbArc
 50
89.99916870385492
 51
191.3135956695117
  0
LINE
  5
348
330
1A
100
AcDbEntity
  8
SEIHIN
  6
CONTINUOUS
 62
     3
 48
16.0
100
AcDbLine
 10
375.9162476346177
 20
308.2523065373519
 30
0.0
 11
375.9162476346177
 21
288.252306537352
 31
0.0
  0
LINE
  5
349
330
1A
100
AcDbEntity
  8
CENTER_L
  6
CENTER
 62
     1
 48
5.0
100
AcDbLine
 10
388.499547634618
 20
287.252206537352
 30
0.0
 11
372.865047634618
 21
287.252206537352
 31
0.0
  0
LINE
  5
34A
330
1A
100
AcDbEntity
  8
SEIHIN
  6
CONTINUOUS
 62
     3
 48
16.0
100
AcDbLine
 10
377.9161476346178
 20
277.631006537352
 30
0.0
 11
375.9161476346178
 21
279.631006537352
 31
0.0
  0
LINE
  5
34B
330
1A
100
AcDbEntity
  8
SEIHIN
  6
CONTINUOUS
 62
     3
 48
16.0
100
AcDbLine
 10
375.9162476346177
 20
288.252306537352
 30
0.0
 11
375.9162476346177
 21
279.631006537352
 31
0.0
  0
LINE
  5
34C
330
1A
100
AcDbEntity
  8
SEIHIN
  6
CONTINUOUS
 62
     3
 48
16.0
100
AcDbLine
 10
375.416247634618
 20
280.2310065373519
 30
0.0
 11
364.9014476346178
 21
280.2310065373519
 31
0.0
  0
ARC
  5
34D
330
1A
100
AcDbEntity
  8
SEIHIN
  6
CONTINUOUS
 62
     3
 48
16.0
100
AcDbCircle
 10
375.4162476346178
 20
279.731006537352
 30
0.0
 40
0.4999999999998864
100
AcDbArc
 50
359.9999999999934
 51
89.99999999999349
  0
ARC
  5
34E
330
1A
100
AcDbEntity
  8
SEIHIN
  6
CONTINUOUS
 62
     3
 48
16.0
100
AcDbCircle
 10
374.9162476346179
 20
288.2523065373518
 30
0.0
 40
0.9999999999999431
100
AcDbArc
 50
270.0000000000065
 51
0.0000000000065138
  0
ARC
  5
34F
330
1A
100
AcDbEntity
  8
SEIHIN
  6
CONTINUOUS
 62
     3
 48
16.0
100
AcDbCircle
 10
374.9162476346179
 20
283.252306537352
 30
0.0
 40
0.9999999999999147
100
AcDbArc
 50
359.9999999999951
 51
89.99999999999511
  0
LINE
  5
350
330
1A
100
AcDbEntity
  8
SEIHIN
  6
CONTINUOUS
 62
     3
 48
16.0
100
AcDbLine
 10
377.9161476346178
 20
277.631006537352
 30
0.0
 11
381.9161476346177
 21
277.631006537352
 31
0.0
  0
LINE
  5
351
330
1A
100
AcDbEntity
  8
CENTER_L
  6
CENTER
 62
     1
 48
5.0
100
AcDbLine
 10
388.9540476346178
 20
317.252406537352
 30
0.0
 11
372.865047634618
 21
317.252406537352
 31
0.0
  0
LINE
  5
352
330
1A
100
AcDbEntity
  8
CENTER_L
  6
CENTER
 62
     1
 48
5.0
100
AcDbLine
 10
388.8782476346179
 20
312.2524065373519
 30
0.0
 11
372.865047634618
 21
312.2524065373519
 31
0.0
  0
ARC
  5
353
330
1A
100
AcDbEntity
  8
SEIHIN
  6
CONTINUOUS
 62
     3
 48
16.0
100
AcDbCircle
 10
372.9162476346179
 20
308.252306537352
 30
0.0
 40
2.999999999999914
100
AcDbArc
 50
359.9999999999983
 51
89.99999999999836
  0
ARC
  5
354
330
1A
100
AcDbEntity
  8
SEIHIN
  6
CONTINUOUS
 62
     3
 48
16.0
100
AcDbCircle
 10
372.9162476346179
 20
316.7523065373519
 30
0.0
 40
2.999999999999943
100
AcDbArc
 50
270.0000000000021
 51
0.0000000000021713
  0
LINE
  5
355
330
1A
100
AcDbEntity
  8
SEIHIN
  6
CONTINUOUS
 62
     3
 48
16.0
100
AcDbLine
 10
355.1001476346177
 20
327.252306537352
 30
0.0
 11
381.916247634618
 21
327.252306537352
 31
0.0
  0
LINE
  5
356
330
1A
100
AcDbEntity
  8
SEIHIN
  6
CONTINUOUS
 62
     3
 48
16.0
100
AcDbLine
 10
355.1001476346177
 20
324.7523065373519
 30
0.0
 11
372.9162476346179
 21
324.7523065373519
 31
0.0
  0
ARC
  5
357
330
1A
100
AcDbEntity
  8
SEIHIN
  6
CONTINUOUS
 62
     3
 48
16.0
100
AcDbCircle
 10
340.0894519696631
 20
321.2629005462295
 30
0.0
 40
1.000038114251048
100
AcDbArc
 50
322.945742237677
 51
108.831859461373
  0
ARC
  5
358
330
1A
100
AcDbEntity
  8
SEIHIN
  6
CONTINUOUS
 62
     3
 48
16.0
100
AcDbCircle
 10
355.0997997199482
 20
277.252276315688
 30
0.0
 40
47.50003022293806
100
AcDbArc
 50
89.99958033622075
 51
99.92867150708121
  0
ARC
  5
359
330
1A
100
AcDbEntity
  8
SEIHIN
  6
CONTINUOUS
 62
     3
 48
16.0
100
AcDbCircle
 10
347.0820640873617
 20
323.0558554665316
 30
0.0
 40
1.000009285962146
100
AcDbArc
 50
99.92243683737903
 51
142.94039830203
  0
ARC
  5
35A
330
1A
100
AcDbEntity
  8
SEIHIN
  6
CONTINUOUS
 62
     3
 48
16.0
100
AcDbCircle
 10
372.9162476346179
 20
321.752306537352
 30
0.0
 40
2.999999999999914
100
AcDbArc
 50
359.9999999999983
 51
89.99999999999836
  0
LINE
  5
35B
330
1A
100
AcDbEntity
  8
SEIHIN
  6
CONTINUOUS
 62
     3
 48
16.0
100
AcDbLine
 10
377.916247634618
 20
327.252306537352
 30
0.0
 11
375.9162476346177
 21
325.2523065373519
 31
0.0
  0
LINE
  5
35C
330
1A
100
AcDbEntity
  8
SEIHIN
  6
CONTINUOUS
 62
     3
 48
16.0
100
AcDbLine
 10
308.3039476346178
 20
435.1207048715179
 30
0.0
 11
308.3039476346178
 21
443.6207048715179
 31
0.0
  0
LINE
  5
35D
330
1A
100
AcDbEntity
  8
SEIHIN
  6
CONTINUOUS
 62
     3
 48
16.0
100
AcDbLine
 10
308.3039476346178
 20
452.1207048715179
 30
0.0
 11
308.3039476346178
 21
443.6207048715179
 31
0.0
  0
ARC
  5
35E
330
1A
100
AcDbEntity
  8
SEIHIN
  6
CONTINUOUS
 62
     3
 48
16.0
100
AcDbCircle
 10
372.9162476346179
 20
428.620704871518
 30
0.0
 40
5.0
100
AcDbArc
 50
0.0
 51
90.0
  0
ARC
  5
35F
330
1A
100
AcDbEntity
  8
SEIHIN
  6
CONTINUOUS
 62
     3
 48
16.0
100
AcDbCircle
 10
370.9162476346179
 20
428.6207048715181
 30
0.0
 40
4.999999999999914
100
AcDbArc
 50
359.999999999999
 51
89.99999999999902
  0
LINE
  5
360
330
1A
100
AcDbEntity
  8
SEIHIN
  6
CONTINUOUS
 62
     3
 48
16.0
100
AcDbLine
 10
381.916247634618
 20
412.120704871518
 30
0.0
 11
381.916247634618
 21
443.620604871518
 31
0.0
  0
LINE
  5
361
330
1A
100
AcDbEntity
  8
SEIHIN
  6
CONTINUOUS
 62
     3
 48
16.0
100
AcDbLine
 10
375.9162476346177
 20
414.1207048715179
 30
0.0
 11
377.916247634618
 21
412.120704871518
 31
0.0
  0
LINE
  5
362
330
1A
100
AcDbEntity
  8
CENTER_L
  6
CENTER
 62
     1
 48
5.0
100
AcDbLine
 10
390.5453476346179
 20
420.120504871518
 30
0.0
 11
371.3915476346179
 21
420.1206048715179
 31
0.0
  0
LINE
  5
363
330
1A
100
AcDbEntity
  8
SEIHIN
  6
CONTINUOUS
 62
     3
 48
16.0
100
AcDbLine
 10
375.9162476346177
 20
414.1207048715179
 30
0.0
 11
375.9162476346177
 21
428.620704871518
 31
0.0
  0
LINE
  5
364
330
1A
100
AcDbEntity
  8
SEIHIN
  6
CONTINUOUS
 62
     3
 48
16.0
100
AcDbLine
 10
377.916247634618
 20
412.120704871518
 30
0.0
 11
377.916247634618
 21
428.620704871518
 31
0.0
  0
LINE
  5
365
330
1A
100
AcDbEntity
  8
SEIHIN
  6
CONTINUOUS
 62
     3
 48
16.0
100
AcDbLine
 10
377.916247634618
 20
412.120704871518
 30
0.0
 11
381.916247634618
 21
412.120704871518
 31
0.0
  0
LINE
  5
366
330
1A
100
AcDbEntity
  8
SEIHIN
  6
CONTINUOUS
 62
     3
 48
16.0
100
AcDbLine
 10
375.9162476346177
 20
473.1207048715179
 30
0.0
 11
377.916247634618
 21
475.120704871518
 31
0.0
  0
LINE
  5
367
330
1A
100
AcDbEntity
  8
CENTER_L
  6
CENTER
 62
     1
 48
5.0
100
AcDbLine
 10
390.5454476346179
 20
467.120504871518
 30
0.0
 11
371.3916476346178
 21
467.1206048715179
 31
0.0
  0
LINE
  5
368
330
1A
100
AcDbEntity
  8
SEIHIN
  6
CONTINUOUS
 62
     3
 48
16.0
100
AcDbLine
 10
375.9162476346177
 20
473.1207048715179
 30
0.0
 11
375.9162476346177
 21
458.620704871518
 31
0.0
  0
LINE
  5
369
330
1A
100
AcDbEntity
  8
SEIHIN
  6
CONTINUOUS
 62
     3
 48
16.0
100
AcDbLine
 10
377.916247634618
 20
475.120704871518
 30
0.0
 11
377.916247634618
 21
458.620704871518
 31
0.0
  0
LINE
  5
36A
330
1A
100
AcDbEntity
  8
SEIHIN
  6
CONTINUOUS
 62
     3
 48
16.0
100
AcDbLine
 10
377.916247634618
 20
475.120704871518
 30
0.0
 11
381.916247634618
 21
475.120704871518
 31
0.0
  0
DIMENSION
  5
36B
330
1A
100
AcDbEntity
  8
SUNPOU
100
AcDbDimension
  2
*D1
 10
493.5191899302767
 20
277.2522065373519
 30
0.0
 11
488.5191899302767
 21
257.752206537352
 31
0.0
 12
17.13105356109235
 22
0.0
 32
0.0
 70
    32
  3
STANDARD
100
AcDbAlignedDimension
 13
550.6711402554802
 23
287.252206537352
 33
0.0
 14
580.3963402554801
 24
277.2522065373519
 34
0.0
 50
90.0
100
AcDbRotatedDimension
1001
ACAD
1000
DSTYLE
1002
{
1070
   140
1040
6.0
1070
    74
1070
     0
1070
   172
1070
     1
1070
    73
1070
     0
1070
   272
1070
     2
1070
    77
1070
     3
1070
   173
1070
     1
1070
   147
1040
2.0
1070
    42
1040
6.0
1070
    44
1040
3.0
1070
    43
1040
14.0
1070
   271
1070
     0
1070
   178
1070
     4
1070
   177
1070
     4
1070
   176
1070
     4
1070
   141
1040
150.0
1070
     7
1000
_OPEN
1070
     6
1000
_OPEN
1070
    41
1040
7.0
1002
}
  0
DIMENSION
  5
370
330
1A
100
AcDbEntity
  8
SUNPOU
100
AcDbDimension
  2
*D2
 10
458.6871104557094
 20
277.2522065373519
 30
0.0
 11
453.6871104557094
 21
302.2522065373519
 31
0.0
 12
17.13105356109235
 22
0.0
 32
0.0
 70
    32
  3
STANDARD
100
AcDbAlignedDimension
 13
580.3964402554801
 23
327.2522065373519
 33
0.0
 14
580.3963402554801
 24
277.2522065373519
 34
0.0
 50
90.0
100
AcDbRotatedDimension
1001
ACAD
1000
DSTYLE
1002
{
1070
   140
1040
6.0
1070
    74
1070
     0
1070
   172
1070
     1
1070
    73
1070
     0
1070
   272
1070
     2
1070
    77
1070
     3
1070
   173
1070
     1
1070
   147
1040
2.0
1070
    42
1040
6.0
1070
    44
1040
3.0
1070
    43
1040
14.0
1070
   271
1070
     0
1070
   178
1070
     4
1070
   177
1070
     4
1070
   176
1070
     4
1070
   141
1040
150.0
1070
     7
1000
_OPEN
1070
     6
1000
_OPEN
1070
    41
1040
7.0
1002
}
  0
DIMENSION
  5
371
330
1A
100
AcDbEntity
  8
SUNPOU
100
AcDbDimension
  2
*D3
 10
475.4333032645199
 20
312.2524065373519
 30
0.0
 11
470.4333032645199
 21
319.7523065373519
 31
0.0
 12
17.13105356109235
 22
0.0
 32
0.0
 70
    32
  3
STANDARD
100
AcDbAlignedDimension
 13
580.3964402554801
 23
327.2522065373519
 33
0.0
 14
550.2247402554801
 24
312.2524065373519
 34
0.0
 50
90.0
100
AcDbRotatedDimension
1001
ACAD
1000
DSTYLE
1002
{
1070
   140
1040
6.0
1070
    74
1070
     0
1070
   172
1070
     1
1070
    73
1070
     0
1070
   272
1070
     2
1070
    77
1070
     3
1070
   173
1070
     1
1070
   147
1040
2.0
1070
    42
1040
6.0
1070
    44
1040
3.0
1070
    43
1040
14.0
1070
   271
1070
     0
1070
   178
1070
     4
1070
   177
1070
     4
1070
   176
1070
     4
1070
   141
1040
150.0
1070
     7
1000
_OPEN
1070
     6
1000
_OPEN
1070
    41
1040
7.0
1002
}
  0
DIMENSION
  5
372
330
1A
100
AcDbEntity
  8
SUNPOU
100
AcDbDimension
  2
*D4
 10
493.5191899302767
 20
327.2522065373519
 30
0.0
 11
488.5191899302767
 21
346.7522065373519
 31
0.0
 12
17.13105356109235
 22
0.0
 32
0.0
 70
    32
  3
STANDARD
100
AcDbAlignedDimension
 13
553.4033402554803
 23
317.252406537352
 33
0.0
 14
580.3964402554801
 24
327.2522065373519
 34
0.0
 50
90.0
100
AcDbRotatedDimension
1001
ACAD
1000
DSTYLE
1002
{
1070
   140
1040
6.0
1070
    74
1070
     0
1070
   172
1070
     1
1070
    73
1070
     0
1070
   272
1070
     2
1070
    77
1070
     3
1070
   173
1070
     1
1070
   147
1040
2.0
1070
    42
1040
6.0
1070
    44
1040
3.0
1070
    43
1040
14.0
1070
   271
1070
     0
1070
   178
1070
     4
1070
   177
1070
     4
1070
   176
1070
     4
1070
   141
1040
150.0
1070
     7
1000
_OPEN
1070
     6
1000
_OPEN
1070
    41
1040
7.0
1002
}
  0
DIMENSION
  5
373
330
1A
100
AcDbEntity
  8
SUNPOU
100
AcDbDimension
  2
*D5
 10
611.8964402554803
 20
361.0445116872613
 30
0.0
 11
574.0944624698467
 21
366.0445116872613
 31
0.0
 12
-22.70913457757888
 22
-51.72265376707787
 32
0.0
 70
    32
  3
STANDARD
100
AcDbAlignedDimension
 13
548.8964402554802
 23
316.111806537352
 33
0.0
 14
611.8964402554803
 24
316.495306537352
 34
0.0
100
AcDbRotatedDimension
1001
ACAD
1000
DSTYLE
1002
{
1070
   140
1040
6.0
1070
    74
1070
     0
1070
   172
1070
     1
1070
    73
1070
     0
1070
   272
1070
     2
1070
    77
1070
     3
1070
   173
1070
     1
1070
   147
1040
2.0
1070
    42
1040
6.0
1070
    44
1040
3.0
1070
    43
1040
14.0
1070
   271
1070
     0
1070
   178
1070
     4
1070
   177
1070
     4
1070
   176
1070
     4
1070
   141
1040
150.0
1070
     7
1000
_OPEN
1070
     6
1000
_OPEN
1070
    41
1040
7.0
1002
}
  0
DIMENSION
  5
374
330
1A
100
AcDbEntity
  8
SUNPOU
100
AcDbDimension
  2
*D6
 10
603.8964402554803
 20
346.0980477471746
 30
0.0
 11
574.0944624698467
 21
351.0980477471746
 31
0.0
 12
-22.70913457757888
 22
-51.72265376707787
 32
0.0
 70
    32
  3
STANDARD
100
AcDbAlignedDimension
 13
556.8964402554802
 23
321.037206537352
 33
0.0
 14
603.8964402554803
 24
321.0371065373519
 34
0.0
100
AcDbRotatedDimension
1001
ACAD
1000
DSTYLE
1002
{
1070
   140
1040
6.0
1070
    74
1070
     0
1070
   172
1070
     1
1070
    73
1070
     0
1070
   272
1070
     2
1070
    77
1070
     3
1070
   173
1070
     1
1070
   147
1040
2.0
1070
    42
1040
6.0
1070
    44
1040
3.0
1070
    43
1040
14.0
1070
   271
1070
     0
1070
   178
1070
     4
1070
   177
1070
     4
1070
   176
1070
     4
1070
   141
1040
150.0
1070
     7
1000
_OPEN
1070
     6
1000
_OPEN
1070
    41
1040
7.0
1002
}
  0
LINE
  5
375
330
1A
100
AcDbEntity
  8
SEIHIN
  6
CONTINUOUS
 62
     3
 48
16.0
100
AcDbLine
 10
580.3964402554801
 20
327.2522065373519
 30
0.0
 11
602.2454402554802
 21
326.489206537352
 31
0.0
  0
LINE
  5
376
330
1A
100
AcDbEntity
  8
SEIHIN
  6
CONTINUOUS
 62
     3
 48
16.0
100
AcDbLine
 10
604.8964402554803
 20
304.252206537352
 30
0.0
 11
584.8964402554803
 21
304.252306537352
 31
0.0
  0
ARC
  5
377
330
1A
100
AcDbEntity
  8
SEIHIN
  6
CONTINUOUS
 62
     3
 48
16.0
100
AcDbCircle
 10
594.8962402554801
 20
284.2521065373519
 30
0.0
 40
1.999999999999943
100
AcDbArc
 50
270.0000000000016
 51
0.0000000000016284
  0
LINE
  5
378
330
1A
100
AcDbEntity
  8
SEIHIN
  6
CONTINUOUS
 62
     3
 48
16.0
100
AcDbLine
 10
580.3963402554801
 20
277.2522065373519
 30
0.0
 11
602.2454402554802
 21
278.0152065373519
 31
0.0
  0
ARC
  5
379
330
1A
100
AcDbEntity
  8
SEIHIN
  6
CONTINUOUS
 62
     3
 48
16.0
100
AcDbCircle
 10
603.8962402554801
 20
287.252106537352
 30
0.0
 40
7.000000000000042
100
AcDbArc
 50
90.00000000000021
 51
180.0000000000003
  0
LINE
  5
37A
330
1A
100
AcDbEntity
  8
SEIHIN
  6
CONTINUOUS
 62
     3
 48
16.0
100
AcDbLine
 10
595.3964402554803
 20
320.2523065373519
 30
0.0
 11
595.3964402554803
 21
311.2523065373519
 31
0.0
  0
LINE
  5
37B
330
1A
100
AcDbEntity
  8
CENTER_L
  6
CENTER
 62
     1
 48
5.0
100
AcDbLine
 10
580.3964402554801
 20
331.362806537352
 30
0.0
 11
580.3963402554801
 21
272.8111065373519
 31
0.0
  0
LINE
  5
37C
330
1A
100
AcDbEntity
  8
SEIHIN
  6
CONTINUOUS
 62
     3
 48
16.0
100
AcDbLine
 10
565.3964402554802
 20
320.2524065373519
 30
0.0
 11
565.3964402554802
 21
311.252406537352
 31
0.0
  0
LINE
  5
37D
330
1A
100
AcDbEntity
  8
CENTER_L
  6
CENTER
 62
     1
 48
5.0
100
AcDbLine
 10
556.8964402554802
 20
321.037206537352
 30
0.0
 11
556.8963402554802
 21
306.4690065373519
 31
0.0
  0
ARC
  5
37E
330
1A
100
AcDbEntity
  8
SEIHIN
  6
CONTINUOUS
 62
     3
 48
16.0
100
AcDbCircle
 10
556.8964402554802
 20
317.2524065373519
 30
0.0
 40
2.10003148785915
100
AcDbArc
 50
296.1672803646627
 51
243.8327196353372
  0
ARC
  5
37F
330
1A
100
AcDbEntity
  8
SEIHIN
  6
CONTINUOUS
 62
     3
 48
16.0
100
AcDbCircle
 10
558.8964410199801
 20
316.111807342962
 30
0.0
 40
10.00000076449997
100
AcDbArc
 50
92.99966242087167
 51
180.000004615805
  0
ARC
  5
380
330
1A
100
AcDbEntity
  8
SEIHIN
  6
CONTINUOUS
 62
     3
 48
16.0
100
AcDbCircle
 10
556.8962402554802
 20
287.252206537352
 30
0.0
 40
7.0
100
AcDbArc
 50
0.0
 51
90.0
  0
LINE
  5
381
330
1A
100
AcDbEntity
  8
SEIHIN
  6
CONTINUOUS
 62
     3
 48
16.0
100
AcDbLine
 10
555.8964402554802
 20
304.252306537352
 30
0.0
 11
575.8964402554803
 21
304.252306537352
 31
0.0
  0
LINE
  5
382
330
1A
100
AcDbEntity
  8
SEIHIN
  6
CONTINUOUS
 62
     3
 48
16.0
100
AcDbLine
 10
580.3963402554801
 20
277.2522065373519
 30
0.0
 11
558.3730402554802
 21
278.4064065373519
 31
0.0
  0
ARC
  5
383
330
1A
100
AcDbEntity
  8
SEIHIN
  6
CONTINUOUS
 62
     3
 48
16.0
100
AcDbCircle
 10
555.8964402554802
 20
296.252106537352
 30
0.0
 40
2.0
100
AcDbArc
 50
180.0
 51
270.0
  0
LINE
  5
384
330
1A
100
AcDbEntity
  8
SEIHIN
  6
CONTINUOUS
 62
     3
 48
16.0
100
AcDbLine
 10
548.8964402554802
 20
316.111806537352
 30
0.0
 11
548.8964402554802
 21
288.3927065373519
 31
0.0
  0
ARC
  5
385
330
1A
100
AcDbEntity
  8
SEIHIN
  6
CONTINUOUS
 62
     3
 48
16.0
100
AcDbCircle
 10
558.8964436367291
 20
288.3927029742448
 30
0.0
 40
10.00000338124949
100
AcDbArc
 50
179.9999795849066
 51
266.9997496074712
  0
ARC
  5
386
330
1A
100
AcDbEntity
  8
SEIHIN
  6
CONTINUOUS
 62
     3
 48
16.0
100
AcDbCircle
 10
556.8962402554801
 20
287.252206537352
 30
0.0
 40
2.14999999999992
100
AcDbArc
 50
0.0
 51
180.0
  0
ARC
  5
387
330
1A
100
AcDbEntity
  8
SEIHIN
  6
CONTINUOUS
 62
     3
 48
16.0
100
AcDbCircle
 10
556.8962402554801
 20
287.252206537352
 30
0.0
 40
2.14999999999992
100
AcDbArc
 50
180.0
 51
0.0
  0
LINE
  5
388
330
1A
100
AcDbEntity
  8
CENTER_L
  6
CENTER
 62
     1
 48
5.0
100
AcDbLine
 10
560.8424402554801
 20
287.252206537352
 30
0.0
 11
550.6711402554802
 21
287.252206537352
 31
0.0
  0
LINE
  5
389
330
1A
100
AcDbEntity
  8
SEIHIN
  6
CONTINUOUS
 62
     3
 48
16.0
100
AcDbLine
 10
556.8963402554802
 20
294.252106537352
 30
0.0
 11
555.8964402554802
 21
294.252106537352
 31
0.0
  0
LINE
  5
38A
330
1A
100
AcDbEntity
  8
CENTER_L
  6
CENTER
 62
     1
 48
5.0
100
AcDbLine
 10
556.8963402554802
 20
290.578706537352
 30
0.0
 11
556.8963402554802
 21
282.969506537352
 31
0.0
  0
ARC
  5
38B
330
1A
100
AcDbEntity
  8
SEIHIN
  6
CONTINUOUS
 62
     3
 48
16.0
100
AcDbCircle
 10
555.8964402554802
 20
302.252306537352
 30
0.0
 40
2.0
100
AcDbArc
 50
90.0
 51
180.0
  0
LINE
  5
38C
330
1A
100
AcDbEntity
  8
SEIHIN
  6
CONTINUOUS
 62
     3
 48
16.0
100
AcDbLine
 10
553.8964402554802
 20
302.252306537352
 30
0.0
 11
553.8964402554802
 21
296.252106537352
 31
0.0
  0
ARC
  5
38D
330
1A
100
AcDbEntity
  8
SEIHIN
  6
CONTINUOUS
 62
     3
 48
16.0
100
AcDbCircle
 10
556.8964402554802
 20
312.2524065373519
 30
0.0
 40
3.249943422584476
100
AcDbArc
 50
106.5563862898507
 51
73.44361371014923
  0
LINE
  5
38E
330
1A
100
AcDbEntity
  8
CENTER_L
  6
CENTER
 62
     1
 48
5.0
100
AcDbLine
 10
563.06024025548
 20
312.2524065373519
 30
0.0
 11
550.2247402554801
 21
312.2524065373519
 31
0.0
  0
LINE
  5
38F
330
1A
100
AcDbEntity
  8
CENTER_L
  6
CENTER
 62
     1
 48
5.0
100
AcDbLine
 10
560.84264025548
 20
317.252406537352
 30
0.0
 11
553.4033402554803
 21
317.252406537352
 31
0.0
  0
LINE
  5
390
330
1A
100
AcDbEntity
  8
SEIHIN
  6
CONTINUOUS
 62
     3
 48
16.0
100
AcDbLine
 10
577.8964402554803
 20
302.252306537352
 30
0.0
 11
577.8963402554802
 21
284.252206537352
 31
0.0
  0
LINE
  5
391
330
1A
100
AcDbEntity
  8
SEIHIN
  6
CONTINUOUS
 62
     3
 48
16.0
100
AcDbLine
 10
582.8963402554803
 20
302.252306537352
 30
0.0
 11
582.8963402554803
 21
284.252206537352
 31
0.0
  0
ARC
  5
392
330
1A
100
AcDbEntity
  8
SEIHIN
  6
CONTINUOUS
 62
     3
 48
16.0
100
AcDbCircle
 10
575.8963402554801
 20
284.252206537352
 30
0.0
 40
2.000000000000085
100
AcDbArc
 50
269.9999999999975
 51
359.9999999999975
  0
ARC
  5
393
330
1A
100
AcDbEntity
  8
SEIHIN
  6
CONTINUOUS
 62
     3
 48
16.0
100
AcDbCircle
 10
565.8964402554802
 20
284.252206537352
 30
0.0
 40
2.0
100
AcDbArc
 50
180.0
 51
270.0
  0
LINE
  5
394
330
1A
100
AcDbEntity
  8
SEIHIN
  6
CONTINUOUS
 62
     3
 48
16.0
100
AcDbLine
 10
575.8963402554801
 20
282.252206537352
 30
0.0
 11
565.8964402554802
 21
282.252206537352
 31
0.0
  0
LINE
  5
395
330
1A
100
AcDbEntity
  8
SEIHIN
  6
CONTINUOUS
 62
     3
 48
16.0
100
AcDbLine
 10
563.8964402554802
 20
287.252206537352
 30
0.0
 11
563.8964402554802
 21
284.252206537352
 31
0.0
  0
ARC
  5
396
330
1A
100
AcDbEntity
  8
SEIHIN
  6
CONTINUOUS
 62
     3
 48
16.0
100
AcDbCircle
 10
584.8963402554804
 20
284.2522065373519
 30
0.0
 40
1.999999999999943
100
AcDbArc
 50
179.9999999999983
 51
269.9999999999983
  0
LINE
  5
397
330
1A
100
AcDbEntity
  8
SEIHIN
  6
CONTINUOUS
 62
     3
 48
16.0
100
AcDbLine
 10
584.8963402554804
 20
282.252206537352
 30
0.0
 11
594.8962402554801
 21
282.2521065373519
 31
0.0
  0
LINE
  5
398
330
1A
100
AcDbEntity
  8
SEIHIN
  6
CONTINUOUS
 62
     3
 48
16.0
100
AcDbLine
 10
580.3964402554801
 20
309.2523065373519
 30
0.0
 11
567.3964402554802
 21
309.2523065373519
 31
0.0
  0
ARC
  5
399
330
1A
100
AcDbEntity
  8
SEIHIN
  6
CONTINUOUS
 62
     3
 48
16.0
100
AcDbCircle
 10
575.8964402554803
 20
302.252306537352
 30
0.0
 40
2.0
100
AcDbArc
 50
0.0
 51
90.0
  0
ARC
  5
39A
330
1A
100
AcDbEntity
  8
SEIHIN
  6
CONTINUOUS
 62
     3
 48
16.0
100
AcDbCircle
 10
567.3964402554802
 20
311.252406537352
 30
0.0
 40
2.0
100
AcDbArc
 50
180.0
 51
270.0
  0
ARC
  5
39B
330
1A
100
AcDbEntity
  8
SEIHIN
  6
CONTINUOUS
 62
     3
 48
16.0
100
AcDbCircle
 10
584.8963402554804
 20
302.252306537352
 30
0.0
 40
1.999999999999943
100
AcDbArc
 50
90.00000000000161
 51
180.0000000000016
  0
LINE
  5
39C
330
1A
100
AcDbEntity
  8
SEIHIN
  6
CONTINUOUS
 62
     3
 48
16.0
100
AcDbLine
 10
580.3964402554801
 20
309.2523065373519
 30
0.0
 11
593.3964402554803
 21
309.2523065373519
 31
0.0
  0
ARC
  5
39D
330
1A
100
AcDbEntity
  8
SEIHIN
  6
CONTINUOUS
 62
     3
 48
16.0
100
AcDbCircle
 10
593.3964402554803
 20
311.2523065373519
 30
0.0
 40
2.0
100
AcDbArc
 50
270.0
 51
0.0
  0
LINE
  5
39E
330
1A
100
AcDbEntity
  8
SEIHIN
  6
CONTINUOUS
 62
     3
 48
16.0
100
AcDbLine
 10
580.3964402554801
 20
327.2522065373519
 30
0.0
 11
558.3731402554803
 21
326.098106537352
 31
0.0
  0
LINE
  5
39F
330
1A
100
AcDbEntity
  8
SEIHIN
  6
CONTINUOUS
 62
     3
 48
16.0
100
AcDbLine
 10
567.3964402554802
 20
322.2524065373519
 30
0.0
 11
580.3964402554801
 21
322.2524065373519
 31
0.0
  0
ARC
  5
3A0
330
1A
100
AcDbEntity
  8
SEIHIN
  6
CONTINUOUS
 62
     3
 48
16.0
100
AcDbCircle
 10
567.3964402554802
 20
320.2524065373519
 30
0.0
 40
2.0
100
AcDbArc
 50
90.0
 51
180.0
  0
LINE
  5
3A1
330
1A
100
AcDbEntity
  8
SEIHIN
  6
CONTINUOUS
 62
     3
 48
16.0
100
AcDbLine
 10
593.3964402554803
 20
322.2523065373519
 30
0.0
 11
580.3963402554801
 21
322.2524065373519
 31
0.0
  0
ARC
  5
3A2
330
1A
100
AcDbEntity
  8
SEIHIN
  6
CONTINUOUS
 62
     3
 48
16.0
100
AcDbCircle
 10
593.3964402554803
 20
320.2523065373519
 30
0.0
 40
2.0
100
AcDbArc
 50
0.0
 51
90.0
  0
ARC
  5
3A3
330
1A
100
AcDbEntity
  8
SEIHIN
  6
CONTINUOUS
 62
     3
 48
16.0
100
AcDbCircle
 10
601.8964443002318
 20
316.4953023488868
 30
0.0
 40
9.999995955249257
100
AcDbArc
 50
0.0000239981473501
 51
87.99999352516476
  0
ARC
  5
3A4
330
1A
100
AcDbEntity
  8
SEIHIN
  6
CONTINUOUS
 62
     3
 48
16.0
100
AcDbCircle
 10
603.8963902554802
 20
317.2523065384204
 30
0.0
 40
2.100053538966922
100
AcDbArc
 50
296.1685046909569
 51
243.831495309043
  0
LINE
  5
3A5
330
1A
100
AcDbEntity
  8
CENTER_L
  6
CENTER
 62
     1
 48
5.0
100
AcDbLine
 10
603.8964402554803
 20
321.0371065373519
 30
0.0
 11
603.8964402554803
 21
305.9942065373519
 31
0.0
  0
LINE
  5
3A6
330
1A
100
AcDbEntity
  8
SEIHIN
  6
CONTINUOUS
 62
     3
 48
16.0
100
AcDbLine
 10
611.8964402554803
 20
316.495306537352
 30
0.0
 11
611.8964402554803
 21
288.0091065373519
 31
0.0
  0
ARC
  5
3A7
330
1A
100
AcDbEntity
  8
SEIHIN
  6
CONTINUOUS
 62
     3
 48
16.0
100
AcDbCircle
 10
604.8964402554803
 20
296.252106537352
 30
0.0
 40
2.0
100
AcDbArc
 50
270.0
 51
0.0
  0
ARC
  5
3A8
330
1A
100
AcDbEntity
  8
SEIHIN
  6
CONTINUOUS
 62
     3
 48
16.0
100
AcDbCircle
 10
601.8964443002318
 20
288.009110725817
 30
0.0
 40
9.999995955249238
100
AcDbArc
 50
272.0000064748352
 51
359.9999760018526
  0
LINE
  5
3A9
330
1A
100
AcDbEntity
  8
CENTER_L
  6
CENTER
 62
     1
 48
5.0
100
AcDbLine
 10
603.8965402554802
 20
291.0179065373519
 30
0.0
 11
603.8965402554802
 21
282.717906537352
 31
0.0
  0
ARC
  5
3AA
330
1A
100
AcDbEntity
  8
SEIHIN
  6
CONTINUOUS
 62
     3
 48
16.0
100
AcDbCircle
 10
603.8962402554801
 20
287.2521065373519
 30
0.0
 40
2.15000000000009
100
AcDbArc
 50
0.0
 51
180.0
  0
LINE
  5
3AB
330
1A
100
AcDbEntity
  8
SEIHIN
  6
CONTINUOUS
 62
     3
 48
16.0
100
AcDbLine
 10
603.8962402554801
 20
294.252106537352
 30
0.0
 11
604.8963402554804
 21
294.252106537352
 31
0.0
  0
ARC
  5
3AC
330
1A
100
AcDbEntity
  8
SEIHIN
  6
CONTINUOUS
 62
     3
 48
16.0
100
AcDbCircle
 10
603.8962402554801
 20
287.2521065373519
 30
0.0
 40
2.15000000000009
100
AcDbArc
 50
180.0
 51
0.0
  0
LINE
  5
3AD
330
1A
100
AcDbEntity
  8
CENTER_L
  6
CENTER
 62
     1
 48
5.0
100
AcDbLine
 10
599.9500402554801
 20
287.2521065373519
 30
0.0
 11
608.0983402554803
 21
287.2521065373519
 31
0.0
  0
LINE
  5
3AE
330
1A
100
AcDbEntity
  8
SEIHIN
  6
CONTINUOUS
 62
     3
 48
16.0
100
AcDbLine
 10
596.8962402554801
 20
287.2521065373519
 30
0.0
 11
596.8962402554801
 21
284.2521065373519
 31
0.0
  0
ARC
  5
3AF
330
1A
100
AcDbEntity
  8
SEIHIN
  6
CONTINUOUS
 62
     3
 48
16.0
100
AcDbCircle
 10
604.8964402554802
 20
302.2522065373519
 30
0.0
 40
2.000000000000056
100
AcDbArc
 50
359.9999999999987
 51
89.99999999999836
  0
LINE
  5
3B0
330
1A
100
AcDbEntity
  8
SEIHIN
  6
CONTINUOUS
 62
     3
 48
16.0
100
AcDbLine
 10
606.8964402554803
 20
302.2522065373519
 30
0.0
 11
606.8964402554803
 21
296.252106537352
 31
0.0
  0
ARC
  5
3B1
330
1A
100
AcDbEntity
  8
SEIHIN
  6
CONTINUOUS
 62
     3
 48
16.0
100
AcDbCircle
 10
603.8963902554802
 20
312.2523065366146
 30
0.0
 40
3.249957671584982
100
AcDbArc
 50
106.5572312245814
 51
73.44276877541858
  0
LINE
  5
3B2
330
1A
100
AcDbEntity
  8
CENTER_L
  6
CENTER
 62
     1
 48
5.0
100
AcDbLine
 10
599.9502402554802
 20
317.252306537352
 30
0.0
 11
608.0985402554802
 21
317.252306537352
 31
0.0
  0
LINE
  5
3B3
330
1A
100
AcDbEntity
  8
CENTER_L
  6
CENTER
 62
     1
 48
5.0
100
AcDbLine
 10
597.73264025548
 20
312.2523065373519
 30
0.0
 11
609.3823402554802
 21
312.2523065373519
 31
0.0
  0
LEADER
  5
44B
330
1A
100
AcDbEntity
  8
ZUWAKU
 62
     4
100
AcDbLeader
  3
STANDARD
 73
     0
 40
6.0
 41
31.19999999999999
 76
     3
 10
555.4419608046023
 20
318.7672074407626
 30
0.0
 10
538.6625811755666
 20
343.1554679016319
 30
0.0
 10
535.776011743666
 20
343.1554679016319
 30
0.0
1001
ACAD
1000
DSTYLE
1002
{
1070
     6
1000
OPEN
1070
    41
1040
7.0
1070
    42
1040
6.0
1070
    43
1040
14.0
1070
    44
1040
3.0
1070
    73
1070
     0
1070
    74
1070
     0
1070
    77
1070
     3
1070
   140
1040
6.0
1070
   141
1040
150.0
1070
   147
1040
2.0
1070
   172
1070
     1
1070
   173
1070
     1
1070
   176
1070
     4
1070
   177
1070
     4
1070
   178
1070
     4
1070
   271
1070
     0
1070
   272
1070
     2
1070
   341
1005
6D
1070
   343
1005
6D
1070
   344
1005
6D
1002
}
  0
MTEXT
  5
44C
330
1A
100
AcDbEntity
  8
ZUWAKU
 62
     4
100
AcDbMText
 10
533.7760117436659
 20
345.1554679016319
 30
0.0
 40
6.0
 41
0.0
 71
     9
 72
     5
  1
4-φ4.2
1001
ACAD
1000
MTEXTBEGIN
1070
    73
1070
     1
1070
    44
1040
1.0
1070
    74
1070
     0
1000
MTEXTEND
1000
MTEXTBEGIN
1070
    73
1070
     1
1070
    44
1040
1.0
1070
    74
1070
     0
1000
MTEXTEND
  0
LEADER
  5
44F
330
1A
100
AcDbEntity
  8
ZUWAKU
 62
     4
100
AcDbLeader
  3
STANDARD
 73
     0
 40
6.0
 41
31.19999999999999
 76
     3
 10
554.8189828171152
 20
309.7531460783796
 30
0.0
 10
538.6625811755666
 20
293.767456844017
 30
0.0
 10
536.1368319753937
 20
293.767456844017
 30
0.0
1001
ACAD
1000
DSTYLE
1002
{
1070
     6
1000
OPEN
1070
    41
1040
7.0
1070
    42
1040
6.0
1070
    43
1040
14.0
1070
    44
1040
3.0
1070
    73
1070
     0
1070
    74
1070
     0
1070
    77
1070
     3
1070
   140
1040
6.0
1070
   141
1040
150.0
1070
   147
1040
2.0
1070
   172
1070
     1
1070
   173
1070
     1
1070
   176
1070
     4
1070
   177
1070
     4
1070
   178
1070
     4
1070
   271
1070
     0
1070
   272
1070
     2
1070
   341
1005
6D
1070
   343
1005
6D
1070
   344
1005
6D
1002
}
  0
MTEXT
  5
450
330
1A
100
AcDbEntity
  8
ZUWAKU
 62
     4
100
AcDbMText
 10
534.1368319753938
 20
295.767456844017
 30
0.0
 40
6.0
 41
0.0
 71
     9
 72
     5
  1
2-φ6.5
1001
ACAD
1000
MTEXTBEGIN
1070
    73
1070
     1
1070
    44
1040
1.0
1070
    74
1070
     0
1000
MTEXTEND
1000
MTEXTBEGIN
1070
    73
1070
     1
1070
    44
1040
1.0
1070
    74
1070
     0
1000
MTEXTEND
  0
DIMENSION
  5
460
330
1A
100
AcDbEntity
  8
SUNPOU
100
AcDbDimension
  2
*D7
 10
203.3770122954347
 20
433.620704871518
 30
0.0
 11
198.3770122954347
 21
443.6207048715179
 31
0.0
 12
17.13105356109235
 22
0.0
 32
0.0
 70
    32
  3
STANDARD
100
AcDbAlignedDimension
 13
236.6161476346179
 23
453.620704871518
 33
0.0
 14
236.6161476346179
 24
433.620704871518
 34
0.0
 50
90.0
100
AcDbRotatedDimension
1001
ACAD
1000
DSTYLE
1002
{
1070
   140
1040
6.0
1070
    74
1070
     0
1070
   172
1070
     1
1070
    73
1070
     0
1070
   272
1070
     2
1070
    77
1070
     3
1070
   173
1070
     1
1070
   147
1040
2.0
1070
    42
1040
6.0
1070
    44
1040
3.0
1070
    43
1040
14.0
1070
   271
1070
     0
1070
   178
1070
     4
1070
   177
1070
     4
1070
   176
1070
     4
1070
   141
1040
150.0
1070
     7
1000
_OPEN
1070
     6
1000
_OPEN
1070
    41
1040
7.0
1002
}
  0
DIMENSION
  5
46D
330
1A
100
AcDbEntity
  8
SUNPOU
100
AcDbDimension
  2
*D8
 10
419.0985413077692
 20
412.120704871518
 30
0.0
 11
414.0985413077691
 21
443.6207048715179
 31
0.0
 12
17.13105356109235
 22
0.0
 32
0.0
 70
    32
  3
STANDARD
100
AcDbAlignedDimension
 13
381.916247634618
 23
475.120704871518
 33
0.0
 14
381.916247634618
 24
412.120704871518
 34
0.0
 50
90.0
100
AcDbRotatedDimension
1001
ACAD
1000
DSTYLE
1002
{
1070
   140
1040
6.0
1070
    74
1070
     0
1070
   172
1070
     1
1070
    73
1070
     0
1070
   272
1070
     2
1070
    77
1070
     3
1070
   173
1070
     1
1070
   147
1040
2.0
1070
    42
1040
6.0
1070
    44
1040
3.0
1070
    43
1040
14.0
1070
   271
1070
     0
1070
   178
1070
     4
1070
   177
1070
     4
1070
   176
1070
     4
1070
   141
1040
150.0
1070
     7
1000
_OPEN
1070
     6
1000
_OPEN
1070
    41
1040
7.0
1002
}
  0
DIMENSION
  5
4AC
330
1A
100
AcDbEntity
  8
SUNPOU
100
AcDbDimension
  2
*D9
 10
419.0985413077692
 20
277.631006537352
 30
0.0
 11
414.0985413077691
 21
302.441656537352
 31
0.0
 12
17.13105356109235
 22
0.0
 32
0.0
 70
    32
  3
STANDARD
100
AcDbAlignedDimension
 13
381.916247634618
 23
327.252306537352
 33
0.0
 14
381.9161476346177
 24
277.631006537352
 34
0.0
 50
90.0
100
AcDbRotatedDimension
1001
ACAD
1000
DSTYLE
1002
{
1070
   140
1040
6.0
1070
    74
1070
     0
1070
   172
1070
     1
1070
    73
1070
     0
1070
   272
1070
     2
1070
    77
1070
     3
1070
   173
1070
     1
1070
   147
1040
2.0
1070
    42
1040
6.0
1070
    44
1040
3.0
1070
    43
1040
14.0
1070
   271
1070
     0
1070
   178
1070
     4
1070
   177
1070
     4
1070
   176
1070
     4
1070
   141
1040
150.0
1070
     7
1000
_OPEN
1070
     6
1000
_OPEN
1070
    41
1040
7.0
1002
}
  0
DIMENSION
  5
4BB
330
1A
100
AcDbEntity
  8
SUNPOU
100
AcDbDimension
  2
*D10
 10
203.3770122954347
 20
327.252306537352
 30
0.0
 11
198.3770122954347
 21
314.502306537352
 31
0.0
 12
17.13105356109235
 22
0.0
 32
0.0
 70
    32
  3
STANDARD
100
AcDbAlignedDimension
 13
235.9533476346178
 23
301.752306537352
 33
0.0
 14
355.1001476346177
 24
327.252306537352
 34
0.0
 50
90.0
100
AcDbRotatedDimension
1001
ACAD
1000
DSTYLE
1002
{
1070
   140
1040
6.0
1070
    74
1070
     0
1070
   172
1070
     1
1070
    73
1070
     0
1070
   272
1070
     2
1070
    77
1070
     3
1070
   173
1070
     1
1070
   147
1040
2.0
1070
    42
1040
6.0
1070
    44
1040
3.0
1070
    43
1040
14.0
1070
   271
1070
     0
1070
   178
1070
     4
1070
   177
1070
     4
1070
   176
1070
     4
1070
   141
1040
150.0
1070
     7
1000
_OPEN
1070
     6
1000
_OPEN
1070
    41
1040
7.0
1002
}
  0
DIMENSION
  5
4C8
330
1A
100
AcDbEntity
  8
SUNPOU
100
AcDbDimension
  2
*D11
 10
381.916247634618
 20
363.5042186575578
 30
0.0
 11
307.4161976346179
 21
368.5042186575579
 31
0.0
 70
    32
  3
STANDARD
100
AcDbAlignedDimension
 13
232.9161476346178
 23
296.9523065373519
 33
0.0
 14
381.916247634618
 24
327.252306537352
 34
0.0
100
AcDbRotatedDimension
1001
ACAD
1000
DSTYLE
1002
{
1070
   140
1040
6.0
1070
    74
1070
     0
1070
   172
1070
     1
1070
    73
1070
     0
1070
   272
1070
     2
1070
    77
1070
     3
1070
   173
1070
     1
1070
   147
1040
2.0
1070
    42
1040
6.0
1070
    44
1040
3.0
1070
    43
1040
14.0
1070
   271
1070
     0
1070
   178
1070
     4
1070
   177
1070
     4
1070
   176
1070
     4
1070
   141
1040
150.0
1070
     7
1000
_OPEN
1070
     6
1000
_OPEN
1070
    41
1040
7.0
1002
}
  0
DIMENSION
  5
4EB
330
1A
100
AcDbEntity
  8
SUNPOU
100
AcDbDimension
  2
*D12
 10
381.916247634618
 20
345.9155439544722
 30
0.0
 11
366.317780133926
 21
350.9155439544722
 31
0.0
 70
    32
  3
STANDARD
100
AcDbAlignedDimension
 13
350.719312633234
 23
305.7937156723121
 33
0.0
 14
381.916247634618
 24
327.252306537352
 34
0.0
100
AcDbRotatedDimension
1001
ACAD
1000
DSTYLE
1002
{
1070
   140
1040
6.0
1070
    74
1070
     0
1070
   172
1070
     1
1070
    73
1070
     0
1070
   272
1070
     2
1070
    77
1070
     3
1070
   173
1070
     1
1070
   147
1040
2.0
1070
    42
1040
6.0
1070
    44
1040
3.0
1070
    43
1040
14.0
1070
   271
1070
     0
1070
   178
1070
     4
1070
   177
1070
     4
1070
   176
1070
     4
1070
   141
1040
150.0
1070
     7
1000
_OPEN
1070
     6
1000
_OPEN
1070
    41
1040
7.0
1002
}
  0
LINE
  5
4F4
330
1A
100
AcDbEntity
  8
SEIHIN
  6
CONTINUOUS
 62
     3
 48
16.0
100
AcDbLine
 10
375.9162476346177
 20
172.5459199473424
 30
0.0
 11
375.9162476346177
 21
152.5459199473425
 31
0.0
  0
LINE
  5
4F5
330
1A
100
AcDbEntity
  8
SEIHIN
  6
CONTINUOUS
 62
     3
 48
16.0
100
AcDbLine
 10
377.916247634618
 20
141.9246199473425
 30
0.0
 11
377.916247634618
 21
191.5459199473424
 31
0.0
  0
LINE
  5
4F6
330
1A
100
AcDbEntity
  8
SEIHIN
  6
CONTINUOUS
 62
     3
 48
16.0
100
AcDbLine
 10
381.916247634618
 20
191.5459199473424
 30
0.0
 11
381.9161476346177
 21
141.9246199473425
 31
0.0
  0
LINE
  5
4F7
330
1A
100
AcDbEntity
  8
NOKITOI
  6
PHANTOM
 62
     8
 48
5.0
100
AcDbLine
 10
232.3864130949235
 20
159.2872290823027
 30
0.0
 11
232.3009130949236
 21
162.0248290823025
 31
0.0
  0
LINE
  5
4F8
330
1A
100
AcDbEntity
  8
SEIHIN
  6
CONTINUOUS
 62
     3
 48
16.0
100
AcDbLine
 10
320.0766476346178
 20
153.2450199473425
 30
0.0
 11
330.9146476346179
 21
167.5980199473425
 31
0.0
  0
LINE
  5
4F9
330
1A
100
AcDbEntity
  8
NOKITOI
  6
PHANTOM
 62
     8
 48
5.0
100
AcDbLine
 10
230.8484130949235
 20
170.0873290823026
 30
0.0
 11
231.2385130949236
 21
157.6029290823025
 31
0.0
  0
ARC
  5
4FA
330
1A
100
AcDbEntity
  8
SEIHIN
  6
CONTINUOUS
 62
     3
 48
16.0
100
AcDbCircle
 10
355.9162476346177
 20
171.5460199473424
 30
0.0
 40
20.00000000024996
100
AcDbArc
 50
269.9997135211024
 51
359.9997135211025
  0
LINE
  5
4FB
330
1A
100
AcDbEntity
  8
SEIHIN
  6
CONTINUOUS
 62
     3
 48
16.0
100
AcDbLine
 10
232.9161476346178
 20
162.5459199473425
 30
0.0
 11
232.9161476346178
 21
161.2459199473424
 31
0.0
  0
LINE
  5
4FC
330
1A
100
AcDbEntity
  8
NOKITOI
  6
PHANTOM
 62
     8
 48
5.0
100
AcDbLine
 10
349.1813130949237
 20
159.2874290823026
 30
0.0
 11
349.2668130949236
 21
162.0249290823025
 31
0.0
  0
LINE
  5
4FD
330
1A
100
AcDbEntity
  8
NOKITOI
  6
PHANTOM
 62
     8
 48
5.0
100
AcDbLine
 10
350.7194130949236
 20
170.0873290823026
 30
0.0
 11
350.3292130949237
 21
157.6030290823025
 31
0.0
  0
LINE
  5
4FE
330
1A
100
AcDbEntity
  8
SEIHIN
  6
CONTINUOUS
 62
     3
 48
16.0
100
AcDbLine
 10
240.9161476346179
 20
158.2459199473424
 30
0.0
 11
318.4162476346179
 21
149.0459199473424
 31
0.0
  0
LINE
  5
4FF
330
1A
100
AcDbEntity
  8
SEIHIN
  6
CONTINUOUS
 62
     3
 48
16.0
100
AcDbLine
 10
315.3298476346179
 20
151.9299199473425
 30
0.0
 11
263.7498476346179
 21
158.0529199473424
 31
0.0
  0
LINE
  5
500
330
1A
100
AcDbEntity
  8
SEIHIN
  6
CONTINUOUS
 62
     3
 48
16.0
100
AcDbLine
 10
320.0712476346178
 20
160.0459199473424
 30
0.0
 11
263.867747634618
 21
160.0459199473424
 31
0.0
  0
LINE
  5
501
330
1A
100
AcDbEntity
  8
NOKITOI
  6
PHANTOM
 62
     8
 48
5.0
100
AcDbLine
 10
298.9703130949237
 20
118.3498290823026
 30
0.0
 11
254.3907130949236
 21
118.3497290823025
 31
0.0
  0
LINE
  5
502
330
1A
100
AcDbEntity
  8
NOKITOI
  6
PHANTOM
 62
     8
 48
5.0
100
AcDbLine
 10
254.1409130949235
 20
117.1497290823025
 30
0.0
 11
298.9703130949237
 21
117.1498290823026
 31
0.0
  0
LINE
  5
503
330
1A
100
AcDbEntity
  8
NOKITOI
  6
PHANTOM
 62
     8
 48
5.0
100
AcDbLine
 10
258.1409130949235
 20
117.1497290823025
 30
0.0
 11
278.2988130949236
 21
117.1497290823025
 31
0.0
  0
LINE
  5
504
330
1A
100
AcDbEntity
  8
NOKITOI
  6
PHANTOM
 62
     8
 48
5.0
100
AcDbLine
 10
258.3907130949236
 20
118.3497290823025
 30
0.0
 11
278.2988130949236
 21
118.3497290823025
 31
0.0
  0
LINE
  5
505
330
1A
100
AcDbEntity
  8
NOKITOI
  6
PHANTOM
 62
     8
 48
5.0
100
AcDbLine
 10
341.1414130949236
 20
157.3498290823025
 30
0.0
 11
347.1823130949236
 21
157.3498290823025
 31
0.0
  0
LINE
  5
506
330
1A
100
AcDbEntity
  8
SEIHIN
  6
CONTINUOUS
 62
     3
 48
16.0
100
AcDbLine
 10
235.9161476346179
 20
158.2459199473424
 30
0.0
 11
240.9161476346179
 21
158.2459199473424
 31
0.0
  0
ARC
  5
507
330
1A
100
AcDbEntity
  8
NOKITOI
  6
PHANTOM
 62
     8
 48
5.0
100
AcDbCircle
 10
298.9703293213811
 20
160.1498435586727
 30
0.0
 40
43.00001447645168
100
AcDbArc
 50
270.0001116248559
 51
353.4750892928819
  0
ARC
  5
508
330
1A
100
AcDbEntity
  8
NOKITOI
  6
PHANTOM
 62
     8
 48
5.0
100
AcDbCircle
 10
298.9703070129559
 20
160.1498234576462
 30
0.0
 40
41.79999437547816
100
AcDbArc
 50
270.0001454078912
 51
355.525704787475
  0
ARC
  5
509
330
1A
100
AcDbEntity
  8
NOKITOI
  6
PHANTOM
 62
     8
 48
5.0
100
AcDbCircle
 10
347.1822995227854
 20
159.3498159272161
 30
0.0
 40
1.999986844959662
100
AcDbArc
 50
270.0003888156776
 51
358.2124468147636
  0
ARC
  5
50A
330
1A
100
AcDbEntity
  8
NOKITOI
  6
PHANTOM
 62
     8
 48
5.0
100
AcDbCircle
 10
348.8299771357727
 20
157.6497942281594
 30
0.0
 40
1.499965146287778
100
AcDbArc
 50
270.0013735703023
 51
358.2133719782232
  0
ARC
  5
50B
330
1A
100
AcDbEntity
  8
SEIHIN
  6
CONTINUOUS
 62
     3
 48
16.0
100
AcDbCircle
 10
235.9161476346179
 20
161.2459199473424
 30
0.0
 40
3.0
100
AcDbArc
 50
179.9999999999983
 51
269.9999999999983
  0
ARC
  5
50C
330
1A
100
AcDbEntity
  8
NOKITOI
  6
PHANTOM
 62
     8
 48
5.0
100
AcDbCircle
 10
342.6853215190863
 20
155.1498365973591
 30
0.0
 40
0.9999924849789756
100
AcDbArc
 50
90.00048267259112
 51
173.4717353933255
  0
LINE
  5
50D
330
1A
100
AcDbEntity
  8
NOKITOI
  6
PHANTOM
 62
     8
 48
5.0
100
AcDbLine
 10
348.8300130949236
 20
156.1498290823026
 30
0.0
 11
342.6853130949236
 21
156.1498290823026
 31
0.0
  0
ARC
  5
50E
330
1A
100
AcDbEntity
  8
NOKITOI
  6
PHANTOM
 62
     8
 48
5.0
100
AcDbCircle
 10
341.1414005252153
 20
156.8498174575728
 30
0.0
 40
0.5000116248877111
100
AcDbArc
 50
89.99855965101662
 51
175.5251531916571
  0
ARC
  5
50F
330
1A
100
AcDbEntity
  8
SEIHIN
  6
CONTINUOUS
 62
     3
 48
16.0
100
AcDbCircle
 10
263.8677483828256
 20
159.0459325950024
 30
0.0
 40
0.9999873523402868
100
AcDbArc
 50
90.00004286968644
 51
263.2289497309789
  0
LINE
  5
510
330
1A
100
AcDbEntity
  8
SEIHIN
  6
CONTINUOUS
 62
     3
 48
16.0
100
AcDbLine
 10
374.9162476346179
 20
151.5459199473424
 30
0.0
 11
355.7327476346179
 21
151.5460199473424
 31
0.0
  0
LINE
  5
511
330
1A
100
AcDbEntity
  8
SEIHIN
  6
CONTINUOUS
 62
     3
 48
16.0
100
AcDbLine
 10
374.9162476346179
 20
148.5459199473424
 30
0.0
 11
351.0032476346177
 21
148.5460199473425
 31
0.0
  0
LINE
  5
512
330
1A
100
AcDbEntity
  8
SEIHIN
  6
CONTINUOUS
 62
     3
 48
16.0
100
AcDbLine
 10
375.416247634618
 20
144.5246199473424
 30
0.0
 11
364.9014476346178
 21
144.5246199473424
 31
0.0
  0
ARC
  5
513
330
1A
100
AcDbEntity
  8
NOKITOI
  6
PHANTOM
 62
     8
 48
5.0
100
AcDbCircle
 10
243.7377356677927
 20
126.6613870106299
 30
0.0
 40
0.9999908507640039
100
AcDbArc
 50
185.7137670522468
 51
230.7112907769303
  0
LINE
  5
514
330
1A
100
AcDbEntity
  8
NOKITOI
  6
PHANTOM
 62
     8
 48
5.0
100
AcDbLine
 10
240.9149130949237
 20
156.8996290823026
 30
0.0
 11
243.9079130949236
 21
126.9698290823025
 31
0.0
  0
LINE
  5
515
330
1A
100
AcDbEntity
  8
NOKITOI
  6
PHANTOM
 62
     8
 48
5.0
100
AcDbLine
 10
244.0888130949236
 20
126.6325290823025
 30
0.0
 11
254.0741130949236
 21
118.4627290823025
 31
0.0
  0
LINE
  5
516
330
1A
100
AcDbEntity
  8
NOKITOI
  6
PHANTOM
 62
     8
 48
5.0
100
AcDbLine
 10
243.1045130949236
 20
125.8874290823026
 30
0.0
 11
253.5076130949236
 21
117.3757290823026
 31
0.0
  0
ARC
  5
517
330
1A
100
AcDbEntity
  8
NOKITOI
  6
PHANTOM
 62
     8
 48
5.0
100
AcDbCircle
 10
254.1409200275008
 20
118.1497266072964
 30
0.0
 40
0.9999975250179316
100
AcDbArc
 50
230.7053583247701
 51
269.9996027915957
  0
ARC
  5
518
330
1A
100
AcDbEntity
  8
NOKITOI
  6
PHANTOM
 62
     8
 48
5.0
100
AcDbCircle
 10
254.3907067071751
 20
118.8497313622922
 30
0.0
 40
0.5000022800304047
100
AcDbArc
 50
230.7145501403941
 51
270.0007319787213
  0
ARC
  5
519
330
1A
100
AcDbEntity
  8
NOKITOI
  6
PHANTOM
 62
     8
 48
5.0
100
AcDbCircle
 10
244.4054305208018
 20
127.0194965959146
 30
0.0
 40
0.4999904508696396
100
AcDbArc
 50
185.7009889250754
 51
230.7099153622041
  0
LINE
  5
51A
330
1A
100
AcDbEntity
  8
SEIHIN
  6
CONTINUOUS
 62
     3
 48
16.0
100
AcDbLine
 10
318.4162476346179
 20
149.0459199473424
 30
0.0
 11
335.9155476346179
 21
153.7684199473425
 31
0.0
  0
LINE
  5
51B
330
1A
100
AcDbEntity
  8
SEIHIN
  6
CONTINUOUS
 62
     3
 48
16.0
100
AcDbLine
 10
321.100547634618
 20
151.6682199473425
 30
0.0
 11
332.123647634618
 21
154.2235199473425
 31
0.0
  0
ARC
  5
51C
330
1A
100
AcDbEntity
  8
SEIHIN
  6
CONTINUOUS
 62
     3
 48
16.0
100
AcDbCircle
 10
320.0712390149263
 20
159.045937257642
 30
0.0
 40
0.9999826897374756
100
AcDbArc
 50
322.9416714733756
 51
89.99950611951003
  0
ARC
  5
51D
330
1A
100
AcDbEntity
  8
SEIHIN
  6
CONTINUOUS
 62
     3
 48
16.0
100
AcDbCircle
 10
320.8747419729807
 20
152.6424286662984
 30
0.0
 40
1.000035411831589
100
AcDbArc
 50
142.9458211668778
 51
283.049788199843
  0
ARC
  5
51E
330
1A
100
AcDbEntity
  8
SEIHIN
  6
CONTINUOUS
 62
     3
 48
16.0
100
AcDbCircle
 10
315.4477390187331
 20
152.9229162749265
 30
0.0
 40
0.9999700420732398
100
AcDbArc
 50
263.2293722774609
 51
322.942630770034
  0
LINE
  5
51F
330
1A
100
AcDbEntity
  8
SEIHIN
  6
CONTINUOUS
 62
     3
 48
16.0
100
AcDbLine
 10
320.8692476346178
 20
158.4433199473425
 30
0.0
 11
316.2457476346178
 21
152.3203199473424
 31
0.0
  0
ARC
  5
520
330
1A
100
AcDbEntity
  8
SEIHIN
  6
CONTINUOUS
 62
     3
 48
16.0
100
AcDbCircle
 10
334.1880607455883
 20
159.8959236611391
 30
0.0
 40
0.6500056036791899
100
AcDbArc
 50
15.81947672445109
 51
195.8109957391682
  0
LINE
  5
521
330
1A
100
AcDbEntity
  8
SEIHIN
  6
CONTINUOUS
 62
     3
 48
16.0
100
AcDbLine
 10
333.5626476346179
 20
159.7188199473424
 30
0.0
 11
334.1642476346178
 21
157.5953199473425
 31
0.0
  0
ARC
  5
522
330
1A
100
AcDbEntity
  8
SEIHIN
  6
CONTINUOUS
 62
     3
 48
16.0
100
AcDbCircle
 10
333.9718286248892
 20
157.5407935367263
 30
0.0
 40
0.199995511848599
100
AcDbArc
 50
272.6994066054555
 51
15.82131391095373
  0
ARC
  5
523
330
1A
100
AcDbEntity
  8
SEIHIN
  6
CONTINUOUS
 62
     3
 48
16.0
100
AcDbCircle
 10
335.7461669263893
 20
154.3959539947541
 30
0.0
 40
0.6499913883897915
100
AcDbArc
 50
285.1050235239369
 51
15.8170526569315
  0
ARC
  5
524
330
1A
100
AcDbEntity
  8
SEIHIN
  6
CONTINUOUS
 62
     3
 48
16.0
100
AcDbCircle
 10
332.0785441270639
 20
154.4183127732577
 30
0.0
 40
0.2000438451613521
100
AcDbArc
 50
283.0304061942815
 51
24.86260318475294
  0
ARC
  5
525
330
1A
100
AcDbEntity
  8
SEIHIN
  6
CONTINUOUS
 62
     3
 48
16.0
100
AcDbCircle
 10
334.0747371983524
 20
155.3432027356537
 30
0.0
 40
2.000003477458785
100
AcDbArc
 50
92.67925038682612
 51
204.8592541446026
  0
LINE
  5
526
330
1A
100
AcDbEntity
  8
SEIHIN
  6
CONTINUOUS
 62
     3
 48
16.0
100
AcDbLine
 10
334.813447634618
 20
160.0731199473425
 30
0.0
 11
336.3715476346178
 21
154.5731199473425
 31
0.0
  0
LINE
  5
527
330
1A
100
AcDbEntity
  8
NOKITOI
  6
PHANTOM
 62
     8
 48
5.0
100
AcDbLine
 10
239.8739130949236
 20
155.2493290823025
 30
0.0
 11
242.7427130949237
 21
126.5619290823026
 31
0.0
  0
LINE
  5
528
330
1A
100
AcDbEntity
  8
SEIHIN
  6
CONTINUOUS
 62
     3
 48
16.0
100
AcDbLine
 10
343.948347634618
 20
155.9484199473424
 30
0.0
 11
355.3779476346179
 21
151.6110199473424
 31
0.0
  0
ARC
  5
529
330
1A
100
AcDbEntity
  8
SEIHIN
  6
CONTINUOUS
 62
     3
 48
16.0
100
AcDbCircle
 10
364.9015014432983
 20
174.52463378224
 30
0.0
 40
30.00001383494588
100
AcDbArc
 50
236.6530029607297
 51
269.9998972330376
  0
LINE
  5
52A
330
1A
100
AcDbEntity
  8
SEIHIN
  6
CONTINUOUS
 62
     3
 48
16.0
100
AcDbLine
 10
348.8044476346179
 20
149.2046199473425
 30
0.0
 11
342.5916476346179
 21
153.2929199473425
 31
0.0
  0
ARC
  5
52B
330
1A
100
AcDbEntity
  8
SEIHIN
  6
CONTINUOUS
 62
     3
 48
16.0
100
AcDbCircle
 10
351.0031759136406
 20
152.5460414278518
 30
0.0
 40
4.000021481152314
100
AcDbArc
 50
236.6549981031843
 51
270.0010273218055
  0
LINE
  5
52C
330
1A
100
AcDbEntity
  8
NOKITOI
  6
PHANTOM
 62
     8
 48
5.0
100
AcDbLine
 10
240.4174130949237
 20
157.3498290823025
 30
0.0
 11
234.3855130949235
 21
157.3498290823025
 31
0.0
  0
LINE
  5
52D
330
1A
100
AcDbEntity
  8
NOKITOI
  6
PHANTOM
 62
     8
 48
5.0
100
AcDbLine
 10
232.7378130949238
 20
156.1498290823026
 30
0.0
 11
238.8789130949236
 21
156.1498290823026
 31
0.0
  0
ARC
  5
52E
330
1A
100
AcDbEntity
  8
NOKITOI
  6
PHANTOM
 62
     8
 48
5.0
100
AcDbCircle
 10
238.8788924450825
 20
155.1498477701518
 30
0.0
 40
0.9999813123640345
100
AcDbArc
 50
5.709409966648967
 51
89.99881682915043
  0
ARC
  5
52F
330
1A
100
AcDbEntity
  8
SEIHIN
  6
CONTINUOUS
 62
     3
 48
16.0
100
AcDbCircle
 10
343.4162600309739
 20
154.545944210895
 30
0.0
 40
1.500018469644739
100
AcDbArc
 50
69.22367221078951
 51
236.6511769916156
  0
ARC
  5
530
330
1A
100
AcDbEntity
  8
NOKITOI
  6
PHANTOM
 62
     8
 48
5.0
100
AcDbCircle
 10
240.4174000239189
 20
156.8498409125825
 30
0.0
 40
0.499988169890889
100
AcDbArc
 50
5.703393862284335
 51
89.99850213773372
  0
ARC
  5
531
330
1A
100
AcDbEntity
  8
NOKITOI
  6
PHANTOM
 62
     8
 48
5.0
100
AcDbCircle
 10
234.3854751070992
 20
159.3497659028747
 30
0.0
 40
2.000036820932882
100
AcDbArc
 50
181.7889408725803
 51
270.001088250966
  0
ARC
  5
532
330
1A
100
AcDbEntity
  8
NOKITOI
  6
PHANTOM
 62
     8
 48
5.0
100
AcDbCircle
 10
232.7377958817455
 20
157.6498457654504
 30
0.0
 40
1.500016683246579
100
AcDbArc
 50
181.7923576755889
 51
270.0006574876651
  0
ARC
  5
533
330
1A
100
AcDbEntity
  8
SEIHIN
  6
CONTINUOUS
 62
     3
 48
16.0
100
AcDbCircle
 10
355.7326003279736
 20
152.5460469566129
 30
0.0
 40
1.000027020119825
100
AcDbArc
 50
249.228426939713
 51
270.0084398209995
  0
LINE
  5
534
330
1A
100
AcDbEntity
  8
CENTER_L
  6
CENTER
 62
     1
 48
5.0
100
AcDbLine
 10
388.499547634618
 20
151.5458199473425
 30
0.0
 11
372.865047634618
 21
151.5458199473425
 31
0.0
  0
LINE
  5
535
330
1A
100
AcDbEntity
  8
SEIHIN
  6
CONTINUOUS
 62
     3
 48
16.0
100
AcDbLine
 10
375.9162476346177
 20
152.5459199473425
 30
0.0
 11
375.9162476346177
 21
143.9246199473425
 31
0.0
  0
LINE
  5
536
330
1A
100
AcDbEntity
  8
SEIHIN
  6
CONTINUOUS
 62
     3
 48
16.0
100
AcDbLine
 10
377.9161476346178
 20
141.9246199473425
 30
0.0
 11
381.9161476346177
 21
141.9246199473425
 31
0.0
  0
ARC
  5
537
330
1A
100
AcDbEntity
  8
SEIHIN
  6
CONTINUOUS
 62
     3
 48
16.0
100
AcDbCircle
 10
374.9162476346179
 20
147.5459199473425
 30
0.0
 40
0.9999999999999147
100
AcDbArc
 50
359.9999999999951
 51
89.99999999999511
  0
ARC
  5
538
330
1A
100
AcDbEntity
  8
SEIHIN
  6
CONTINUOUS
 62
     3
 48
16.0
100
AcDbCircle
 10
375.4162476346178
 20
144.0246199473425
 30
0.0
 40
0.4999999999998864
100
AcDbArc
 50
359.9999999999934
 51
89.99999999999349
  0
LINE
  5
539
330
1A
100
AcDbEntity
  8
SEIHIN
  6
CONTINUOUS
 62
     3
 48
16.0
100
AcDbLine
 10
377.9161476346178
 20
141.9246199473425
 30
0.0
 11
375.9161476346178
 21
143.9246199473425
 31
0.0
  0
ARC
  5
53A
330
1A
100
AcDbEntity
  8
SEIHIN
  6
CONTINUOUS
 62
     3
 48
16.0
100
AcDbCircle
 10
374.9162476346179
 20
152.5459199473423
 30
0.0
 40
0.9999999999999431
100
AcDbArc
 50
270.0000000000065
 51
0.0000000000065138
  0
ARC
  5
53B
330
1A
100
AcDbEntity
  8
SEIHIN
  6
CONTINUOUS
 62
     3
 48
16.0
100
AcDbCircle
 10
305.8140340834911
 20
167.5459131993335
 30
0.0
 40
4.99999325200937
100
AcDbArc
 50
270.0001552846829
 51
322.9437017475605
  0
LINE
  5
53C
330
1A
100
AcDbEntity
  8
SEIHIN
  6
CONTINUOUS
 62
     3
 48
16.0
100
AcDbLine
 10
239.6161476346178
 20
162.5459199473425
 30
0.0
 11
305.8140476346178
 21
162.5459199473425
 31
0.0
  0
ARC
  5
53D
330
1A
100
AcDbEntity
  8
NOKITOI
  6
PHANTOM
 62
     8
 48
5.0
100
AcDbCircle
 10
348.7204086001259
 20
170.1498337198295
 30
0.0
 40
0.7999953624857498
100
AcDbArc
 50
358.20887265358
 51
89.99967808194661
  0
ARC
  5
53E
330
1A
100
AcDbEntity
  8
NOKITOI
  6
PHANTOM
 62
     8
 48
5.0
100
AcDbCircle
 10
348.7204003440735
 20
170.149842237389
 30
0.0
 40
1.999986844954076
100
AcDbArc
 50
358.21169271173
 51
89.99963471264475
  0
ARC
  5
53F
330
1A
100
AcDbEntity
  8
NOKITOI
  6
PHANTOM
 62
     8
 48
5.0
100
AcDbCircle
 10
345.2686928822546
 20
162.1498878106826
 30
0.0
 40
5.2000412730095
100
AcDbArc
 50
37.92420092094385
 51
89.99867545693838
  0
ARC
  5
540
330
1A
100
AcDbEntity
  8
NOKITOI
  6
PHANTOM
 62
     8
 48
5.0
100
AcDbCircle
 10
345.268775213477
 20
162.149872864828
 30
0.0
 40
3.999989731271038
100
AcDbArc
 50
358.2100163932691
 51
83.52268857986855
  0
LINE
  5
541
330
1A
100
AcDbEntity
  8
NOKITOI
  6
PHANTOM
 62
     8
 48
5.0
100
AcDbLine
 10
349.5200130949236
 20
170.1248290823025
 30
0.0
 11
349.3706130949238
 21
165.3459290823026
 31
0.0
  0
LINE
  5
542
330
1A
100
AcDbEntity
  8
NOKITOI
  6
PHANTOM
 62
     8
 48
5.0
100
AcDbLine
 10
346.7476130949236
 20
168.4498290823027
 30
0.0
 11
343.8111130949237
 21
168.4498290823027
 31
0.0
  0
LINE
  5
543
330
1A
100
AcDbEntity
  8
NOKITOI
  6
PHANTOM
 62
     8
 48
5.0
100
AcDbLine
 10
346.2476130949236
 20
170.9498290823026
 30
0.0
 11
346.7476130949236
 21
168.4498290823027
 31
0.0
  0
ARC
  5
544
330
1A
100
AcDbEntity
  8
NOKITOI
  6
PHANTOM
 62
     8
 48
5.0
100
AcDbCircle
 10
345.3938138779318
 20
171.6498300373043
 30
0.0
 40
0.4999990449987349
100
AcDbArc
 50
90.00008972630549
 51
191.3032801984551
  0
ARC
  5
545
330
1A
100
AcDbEntity
  8
NOKITOI
  6
PHANTOM
 62
     8
 48
5.0
100
AcDbCircle
 10
342.4425192960815
 20
169.1498356173879
 30
0.0
 40
0.4999934649531607
100
AcDbArc
 50
90.00071060961996
 51
183.0044636796616
  0
ARC
  5
546
330
1A
100
AcDbEntity
  8
NOKITOI
  6
PHANTOM
 62
     8
 48
5.0
100
AcDbCircle
 10
344.6740203494794
 20
170.1498379321459
 30
0.0
 40
0.5000088498959383
100
AcDbArc
 50
269.9991687038565
 51
11.31359566951149
  0
LINE
  5
547
330
1A
100
AcDbEntity
  8
NOKITOI
  6
PHANTOM
 62
     8
 48
5.0
100
AcDbLine
 10
342.4425130949238
 20
169.6498290823026
 30
0.0
 11
344.6740130949236
 21
169.6498290823026
 31
0.0
  0
LINE
  5
548
330
1A
100
AcDbEntity
  8
NOKITOI
  6
PHANTOM
 62
     8
 48
5.0
100
AcDbLine
 10
345.1643130949236
 20
170.2479290823025
 30
0.0
 11
344.9035130949238
 21
171.5518290823025
 31
0.0
  0
LINE
  5
549
330
1A
100
AcDbEntity
  8
NOKITOI
  6
PHANTOM
 62
     8
 48
5.0
100
AcDbLine
 10
348.7204130949237
 20
170.9498290823026
 30
0.0
 11
346.2476130949236
 21
170.9498290823026
 31
0.0
  0
LINE
  5
54A
330
1A
100
AcDbEntity
  8
NOKITOI
  6
PHANTOM
 62
     8
 48
5.0
100
AcDbLine
 10
348.7204130949237
 20
172.1498290823025
 30
0.0
 11
345.3938130949236
 21
172.1498290823025
 31
0.0
  0
ARC
  5
54B
330
1A
100
AcDbEntity
  8
NOKITOI
  6
PHANTOM
 62
     8
 48
5.0
100
AcDbCircle
 10
342.7583199819185
 20
163.1498225472171
 30
0.0
 40
0.499993464961963
100
AcDbArc
 50
183.0029638682573
 51
269.9992107982126
  0
LINE
  5
54C
330
1A
100
AcDbEntity
  8
NOKITOI
  6
PHANTOM
 62
     8
 48
5.0
100
AcDbLine
 10
343.4224130949236
 20
163.8498290823026
 30
0.0
 11
344.2003130949236
 21
163.8498290823026
 31
0.0
  0
LINE
  5
54D
330
1A
100
AcDbEntity
  8
NOKITOI
  6
PHANTOM
 62
     8
 48
5.0
100
AcDbLine
 10
344.2003130949236
 20
163.8498290823026
 30
0.0
 11
343.7962130949238
 21
166.6782290823025
 31
0.0
  0
LINE
  5
54E
330
1A
100
AcDbEntity
  8
NOKITOI
  6
PHANTOM
 62
     8
 48
5.0
100
AcDbLine
 10
343.7962130949238
 20
166.6782290823025
 30
0.0
 11
343.2412130949237
 21
167.2913290823027
 31
0.0
  0
LINE
  5
54F
330
1A
100
AcDbEntity
  8
NOKITOI
  6
PHANTOM
 62
     8
 48
5.0
100
AcDbLine
 10
343.4224130949236
 20
163.8498290823026
 30
0.0
 11
343.2412130949237
 21
167.2913290823027
 31
0.0
  0
ARC
  5
550
330
1A
100
AcDbEntity
  8
SEIHIN
  6
CONTINUOUS
 62
     3
 48
16.0
100
AcDbCircle
 10
236.2139277144242
 20
162.8180607100228
 30
0.0
 40
0.5000170449251699
100
AcDbArc
 50
164.0553202355162
 51
248.0407286048561
  0
ARC
  5
551
330
1A
100
AcDbEntity
  8
NOKITOI
  6
PHANTOM
 62
     8
 48
5.0
100
AcDbCircle
 10
345.0073864943262
 20
163.1497984054204
 30
0.0
 40
0.4999693238254178
100
AcDbArc
 50
270.0030483909652
 51
8.144496122946778
  0
ARC
  5
552
330
1A
100
AcDbEntity
  8
SEIHIN
  6
CONTINUOUS
 62
     3
 48
16.0
100
AcDbCircle
 10
235.953318883535
 20
165.5459580602476
 30
0.0
 40
0.4999618879214663
100
AcDbArc
 50
344.0560320448818
 51
89.99670511744254
  0
LINE
  5
553
330
1A
100
AcDbEntity
  8
SEIHIN
  6
CONTINUOUS
 62
     3
 48
16.0
100
AcDbLine
 10
235.6161476346178
 20
166.0459199473424
 30
0.0
 11
235.9533476346178
 21
166.0459199473424
 31
0.0
  0
LINE
  5
554
330
1A
100
AcDbEntity
  8
NOKITOI
  6
PHANTOM
 62
     8
 48
5.0
100
AcDbLine
 10
344.8069130949236
 20
167.3498290823025
 30
0.0
 11
345.2688130949237
 21
167.3498290823025
 31
0.0
  0
ARC
  5
555
330
1A
100
AcDbEntity
  8
NOKITOI
  6
PHANTOM
 62
     8
 48
5.0
100
AcDbCircle
 10
345.6635988765083
 20
165.6275144480016
 30
0.0
 40
0.5000073448410256
100
AcDbArc
 50
83.5217071700316
 51
188.1270521358757
  0
LINE
  5
556
330
1A
100
AcDbEntity
  8
SEIHIN
  6
CONTINUOUS
 62
     3
 48
16.0
100
AcDbLine
 10
236.4340476346178
 20
165.4086199473425
 30
0.0
 11
235.7331476346179
 21
162.9554199473425
 31
0.0
  0
LINE
  5
557
330
1A
100
AcDbEntity
  8
NOKITOI
  6
PHANTOM
 62
     8
 48
5.0
100
AcDbLine
 10
345.5023130949236
 20
163.2206290823027
 30
0.0
 11
345.1686130949236
 21
165.5568290823026
 31
0.0
  0
LINE
  5
558
330
1A
100
AcDbEntity
  8
NOKITOI
  6
PHANTOM
 62
     8
 48
5.0
100
AcDbLine
 10
342.7583130949237
 20
162.6498290823026
 30
0.0
 11
345.0074130949237
 21
162.6498290823026
 31
0.0
  0
ARC
  5
559
330
1A
100
AcDbEntity
  8
SEIHIN
  6
CONTINUOUS
 62
     3
 48
16.0
100
AcDbCircle
 10
237.6162603588598
 20
166.2957206266273
 30
0.0
 40
4.249771082082443
100
AcDbArc
 50
248.0389576229232
 51
298.0724105654601
  0
ARC
  5
55A
330
1A
100
AcDbEntity
  8
SEIHIN
  6
CONTINUOUS
 62
     3
 48
16.0
100
AcDbCircle
 10
236.4149255263522
 20
162.6382912880045
 30
0.0
 40
3.499997028607962
100
AcDbArc
 50
103.1924424199628
 51
181.5123162998229
  0
LINE
  5
55B
330
1A
100
AcDbEntity
  8
SEIHIN
  6
CONTINUOUS
 62
     3
 48
16.0
100
AcDbLine
 10
235.7331476346179
 20
162.9554199473425
 30
0.0
 11
232.9292476346179
 21
162.9554199473425
 31
0.0
  0
LINE
  5
55C
330
1A
100
AcDbEntity
  8
NOKITOI
  6
PHANTOM
 62
     8
 48
5.0
100
AcDbLine
 10
342.2589130949236
 20
163.1236290823025
 30
0.0
 11
341.9431130949238
 21
169.1235290823026
 31
0.0
  0
LINE
  5
55D
330
1A
100
AcDbEntity
  8
NOKITOI
  6
PHANTOM
 62
     8
 48
5.0
100
AcDbLine
 10
344.8069130949236
 20
167.3498290823025
 30
0.0
 11
343.8111130949237
 21
168.4498290823027
 31
0.0
  0
LINE
  5
55E
330
1A
100
AcDbEntity
  8
SEIHIN
  6
CONTINUOUS
 62
     3
 48
16.0
100
AcDbLine
 10
301.8140476346178
 20
162.5459199473425
 30
0.0
 11
286.9960476346178
 21
162.5459199473425
 31
0.0
  0
LINE
  5
560
330
1A
100
AcDbEntity
  8
SEIHIN
  6
CONTINUOUS
 62
     3
 48
16.0
100
AcDbLine
 10
355.1001476346177
 20
189.0459199473424
 30
0.0
 11
372.9162476346179
 21
189.0459199473424
 31
0.0
  0
LINE
  5
561
330
1A
100
AcDbEntity
  8
SEIHIN
  6
CONTINUOUS
 62
     3
 48
16.0
100
AcDbLine
 10
372.9162476346179
 20
175.5459199473424
 30
0.0
 11
346.8755476346177
 21
175.5459199473424
 31
0.0
  0
LINE
  5
562
330
1A
100
AcDbEntity
  8
SEIHIN
  6
CONTINUOUS
 62
     3
 48
16.0
100
AcDbLine
 10
372.9162476346179
 20
178.0459199473424
 30
0.0
 11
340.8121476346179
 21
178.0459199473424
 31
0.0
  0
LINE
  5
563
330
1A
100
AcDbEntity
  8
SEIHIN
  6
CONTINUOUS
 62
     3
 48
16.0
100
AcDbLine
 10
355.1001476346177
 20
191.5459199473424
 30
0.0
 11
381.916247634618
 21
191.5459199473424
 31
0.0
  0
ARC
  5
564
330
1A
100
AcDbEntity
  8
SEIHIN
  6
CONTINUOUS
 62
     3
 48
16.0
100
AcDbCircle
 10
355.1002069505983
 20
141.5459628665263
 30
0.0
 40
47.50005287012275
100
AcDbArc
 50
108.8330328826591
 51
142.9437762676093
  0
ARC
  5
565
330
1A
100
AcDbEntity
  8
SEIHIN
  6
CONTINUOUS
 62
     3
 48
16.0
100
AcDbCircle
 10
355.1000820030934
 20
141.545887265114
 30
0.0
 40
50.00003268227157
100
AcDbArc
 50
89.99992479186218
 51
142.943357410159
  0
LINE
  5
566
330
1A
100
AcDbEntity
  8
SEIHIN
  6
CONTINUOUS
 62
     3
 48
16.0
100
AcDbLine
 10
340.8875476346179
 20
184.9539199473424
 30
0.0
 11
324.267247634618
 21
162.9433199473425
 31
0.0
  0
ARC
  5
567
330
1A
100
AcDbEntity
  8
SEIHIN
  6
CONTINUOUS
 62
     3
 48
16.0
100
AcDbCircle
 10
346.8755413327093
 20
155.5459168092179
 30
0.0
 40
20.00000313812548
100
AcDbArc
 50
89.9999819463648
 51
142.9432997870773
  0
LINE
  5
568
330
1A
100
AcDbEntity
  8
SEIHIN
  6
CONTINUOUS
 62
     3
 48
16.0
100
AcDbLine
 10
313.444747634618
 20
162.5459199473425
 30
0.0
 11
323.4692476346178
 21
162.5459199473425
 31
0.0
  0
LINE
  5
569
330
1A
100
AcDbEntity
  8
SEIHIN
  6
CONTINUOUS
 62
     3
 48
16.0
100
AcDbLine
 10
312.6466476346178
 20
164.1485199473424
 30
0.0
 11
317.1931476346179
 21
170.1696199473424
 31
0.0
  0
LINE
  5
56A
330
1A
100
AcDbEntity
  8
SEIHIN
  6
CONTINUOUS
 62
     3
 48
16.0
100
AcDbLine
 10
315.1980476346179
 20
171.6761199473424
 30
0.0
 11
309.8042476346179
 21
164.5329199473425
 31
0.0
  0
ARC
  5
56B
330
1A
100
AcDbEntity
  8
SEIHIN
  6
CONTINUOUS
 62
     3
 48
16.0
100
AcDbCircle
 10
313.4447363840509
 20
163.5459425393321
 30
0.0
 40
1.000022592052937
100
AcDbArc
 50
142.9462625565182
 51
270.000644595443
  0
ARC
  5
56C
330
1A
100
AcDbEntity
  8
SEIHIN
  6
CONTINUOUS
 62
     3
 48
16.0
100
AcDbCircle
 10
323.4692128716017
 20
163.5459026370429
 30
0.0
 40
0.9999826903047107
100
AcDbArc
 50
270.0019918085855
 51
322.944157162451
  0
LINE
  5
56D
330
1A
100
AcDbEntity
  8
SEIHIN
  6
CONTINUOUS
 62
     3
 48
16.0
100
AcDbLine
 10
340.014047634618
 20
179.6485199473424
 30
0.0
 11
346.284047634618
 21
187.9521199473424
 31
0.0
  0
LINE
  5
56E
330
1A
100
AcDbEntity
  8
NOKITOI
  6
PHANTOM
 62
     8
 48
5.0
100
AcDbLine
 10
232.8474130949235
 20
172.1497290823025
 30
0.0
 11
236.1740130949235
 21
172.1498290823025
 31
0.0
  0
LINE
  5
56F
330
1A
100
AcDbEntity
  8
NOKITOI
  6
PHANTOM
 62
     8
 48
5.0
100
AcDbLine
 10
232.8474130949235
 20
170.9497290823025
 30
0.0
 11
235.3201130949237
 21
170.9498290823026
 31
0.0
  0
ARC
  5
570
330
1A
100
AcDbEntity
  8
NOKITOI
  6
PHANTOM
 62
     8
 48
5.0
100
AcDbCircle
 10
236.2989309612746
 20
162.1498378106825
 30
0.0
 40
5.199991271650611
100
AcDbArc
 50
90.00019685927453
 51
142.074671395269
  0
ARC
  5
571
330
1A
100
AcDbEntity
  8
NOKITOI
  6
PHANTOM
 62
     8
 48
5.0
100
AcDbCircle
 10
236.2989440218598
 20
162.1498648269664
 30
0.0
 40
3.99998565374706
100
AcDbArc
 50
96.47577619531674
 51
181.7913033408985
  0
ARC
  5
572
330
1A
100
AcDbEntity
  8
NOKITOI
  6
PHANTOM
 62
     8
 48
5.0
100
AcDbCircle
 10
236.1740203494794
 20
171.6498202324592
 30
0.0
 40
0.500008849895925
100
AcDbArc
 50
348.6864043304882
 51
90.00083129614507
  0
ARC
  5
573
330
1A
100
AcDbEntity
  8
NOKITOI
  6
PHANTOM
 62
     8
 48
5.0
100
AcDbCircle
 10
236.8938138779318
 20
170.1498281273007
 30
0.0
 40
0.4999990449987399
100
AcDbArc
 50
168.6967198015449
 51
269.9999102736945
  0
LINE
  5
574
330
1A
100
AcDbEntity
  8
NOKITOI
  6
PHANTOM
 62
     8
 48
5.0
100
AcDbLine
 10
234.8201130949237
 20
168.4498290823027
 30
0.0
 11
237.7567130949236
 21
168.4498290823027
 31
0.0
  0
LINE
  5
575
330
1A
100
AcDbEntity
  8
NOKITOI
  6
PHANTOM
 62
     8
 48
5.0
100
AcDbLine
 10
236.4035130949237
 20
170.2478290823027
 30
0.0
 11
236.6643130949236
 21
171.5518290823025
 31
0.0
  0
LINE
  5
576
330
1A
100
AcDbEntity
  8
NOKITOI
  6
PHANTOM
 62
     8
 48
5.0
100
AcDbLine
 10
235.3201130949237
 20
170.9498290823026
 30
0.0
 11
234.8201130949237
 21
168.4498290823027
 31
0.0
  0
ARC
  5
577
330
1A
100
AcDbEntity
  8
NOKITOI
  6
PHANTOM
 62
     8
 48
5.0
100
AcDbCircle
 10
239.1253093854285
 20
169.1498329923332
 30
0.0
 40
0.4999960899831856
100
AcDbArc
 50
356.9843782585345
 51
89.99957491984867
  0
LINE
  5
578
330
1A
100
AcDbEntity
  8
NOKITOI
  6
PHANTOM
 62
     8
 48
5.0
100
AcDbLine
 10
239.1253130949236
 20
169.6498290823026
 30
0.0
 11
236.8938130949236
 21
169.6498290823026
 31
0.0
  0
ARC
  5
579
330
1A
100
AcDbEntity
  8
NOKITOI
  6
PHANTOM
 62
     8
 48
5.0
100
AcDbCircle
 10
236.5604029084875
 20
163.1498408270267
 30
0.0
 40
0.5000117448278309
100
AcDbArc
 50
171.8726853912841
 51
270.0011672521981
  0
LINE
  5
57A
330
1A
100
AcDbEntity
  8
NOKITOI
  6
PHANTOM
 62
     8
 48
5.0
100
AcDbLine
 10
237.3675130949237
 20
163.8498290823026
 30
0.0
 11
237.7715130949237
 21
166.6782290823025
 31
0.0
  0
ARC
  5
57B
330
1A
100
AcDbEntity
  8
NOKITOI
  6
PHANTOM
 62
     8
 48
5.0
100
AcDbCircle
 10
235.9041837224236
 20
165.6274593147975
 30
0.0
 40
0.4999578477751074
100
AcDbArc
 50
351.8669438287075
 51
96.47390928779223
  0
LINE
  5
57C
330
1A
100
AcDbEntity
  8
NOKITOI
  6
PHANTOM
 62
     8
 48
5.0
100
AcDbLine
 10
236.7609130949235
 20
167.3498290823025
 30
0.0
 11
236.2989130949236
 21
167.3498290823025
 31
0.0
  0
LINE
  5
57D
330
1A
100
AcDbEntity
  8
NOKITOI
  6
PHANTOM
 62
     8
 48
5.0
100
AcDbLine
 10
236.0654130949237
 20
163.2205290823025
 30
0.0
 11
236.3992130949237
 21
165.5567290823027
 31
0.0
  0
ARC
  5
57E
330
1A
100
AcDbEntity
  8
NOKITOI
  6
PHANTOM
 62
     8
 48
5.0
100
AcDbCircle
 10
238.8095089735167
 20
163.1498251722721
 30
0.0
 40
0.4999960899864752
100
AcDbArc
 50
270.0004722821405
 51
356.9852756208263
  0
LINE
  5
57F
330
1A
100
AcDbEntity
  8
NOKITOI
  6
PHANTOM
 62
     8
 48
5.0
100
AcDbLine
 10
238.1454130949236
 20
163.8498290823026
 30
0.0
 11
238.3265130949236
 21
167.2912290823024
 31
0.0
  0
LINE
  5
580
330
1A
100
AcDbEntity
  8
NOKITOI
  6
PHANTOM
 62
     8
 48
5.0
100
AcDbLine
 10
238.8095130949236
 20
162.6498290823026
 30
0.0
 11
236.5604130949237
 21
162.6498290823026
 31
0.0
  0
LINE
  5
581
330
1A
100
AcDbEntity
  8
NOKITOI
  6
PHANTOM
 62
     8
 48
5.0
100
AcDbLine
 10
238.1454130949236
 20
163.8498290823026
 30
0.0
 11
237.3675130949237
 21
163.8498290823026
 31
0.0
  0
LINE
  5
582
330
1A
100
AcDbEntity
  8
NOKITOI
  6
PHANTOM
 62
     8
 48
5.0
100
AcDbLine
 10
237.7715130949237
 20
166.6782290823025
 30
0.0
 11
238.3265130949236
 21
167.2912290823024
 31
0.0
  0
LINE
  5
583
330
1A
100
AcDbEntity
  8
NOKITOI
  6
PHANTOM
 62
     8
 48
5.0
100
AcDbLine
 10
236.7609130949235
 20
167.3498290823025
 30
0.0
 11
237.7567130949236
 21
168.4498290823027
 31
0.0
  0
LINE
  5
584
330
1A
100
AcDbEntity
  8
NOKITOI
  6
PHANTOM
 62
     8
 48
5.0
100
AcDbLine
 10
239.3088130949237
 20
163.1235290823026
 30
0.0
 11
239.6246130949235
 21
169.1235290823026
 31
0.0
  0
ARC
  5
585
330
1A
100
AcDbEntity
  8
NOKITOI
  6
PHANTOM
 62
     8
 48
5.0
100
AcDbCircle
 10
232.8474243319181
 20
170.1498406761197
 30
0.0
 40
1.999988406214315
100
AcDbArc
 50
90.0003219180439
 51
181.791127346407
  0
ARC
  5
586
330
1A
100
AcDbEntity
  8
NOKITOI
  6
PHANTOM
 62
     8
 48
5.0
100
AcDbCircle
 10
232.8473691285705
 20
170.1497837198295
 30
0.0
 40
0.7999453636812564
100
AcDbArc
 50
89.99685092684627
 51
181.7876563552118
  0
LINE
  5
587
330
1A
100
AcDbEntity
  8
NOKITOI
  6
PHANTOM
 62
     8
 48
5.0
100
AcDbLine
 10
232.0478130949237
 20
170.1248290823025
 30
0.0
 11
232.1971130949235
 21
165.3458290823026
 31
0.0
  0
ARC
  5
588
330
1A
100
AcDbEntity
  8
SEIHIN
  6
CONTINUOUS
 62
     3
 48
16.0
100
AcDbCircle
 10
340.8121363840509
 20
179.045942539332
 30
0.0
 40
1.000022592052875
100
AcDbArc
 50
142.9462625565128
 51
270.0006445954393
  0
ARC
  5
589
330
1A
100
AcDbEntity
  8
SEIHIN
  6
CONTINUOUS
 62
     3
 48
16.0
100
AcDbCircle
 10
355.0997997199482
 20
141.5458897256785
 30
0.0
 40
47.50003022293806
100
AcDbArc
 50
89.99958033622075
 51
99.92867150708121
  0
ARC
  5
58A
330
1A
100
AcDbEntity
  8
SEIHIN
  6
CONTINUOUS
 62
     3
 48
16.0
100
AcDbCircle
 10
347.0820640873617
 20
187.3494688765221
 30
0.0
 40
1.000009285962146
100
AcDbArc
 50
99.92243683737903
 51
142.94039830203
  0
ARC
  5
58B
330
1A
100
AcDbEntity
  8
SEIHIN
  6
CONTINUOUS
 62
     3
 48
16.0
100
AcDbCircle
 10
340.0894519696631
 20
185.55651395622
 30
0.0
 40
1.000038114251048
100
AcDbArc
 50
322.945742237677
 51
108.831859461373
  0
LINE
  5
58C
330
1A
100
AcDbEntity
  8
SEIHIN
  6
CONTINUOUS
 62
     3
 48
16.0
100
AcDbLine
 10
375.9162476346177
 20
189.5459199473425
 30
0.0
 11
375.9162476346177
 21
172.5459199473424
 31
0.0
  0
LINE
  5
58D
330
1A
100
AcDbEntity
  8
CENTER_L
  6
CENTER
 62
     1
 48
5.0
100
AcDbLine
 10
388.8782476346179
 20
176.5460199473424
 30
0.0
 11
372.865047634618
 21
176.5460199473424
 31
0.0
  0
LINE
  5
58E
330
1A
100
AcDbEntity
  8
CENTER_L
  6
CENTER
 62
     1
 48
5.0
100
AcDbLine
 10
388.9540476346178
 20
181.5460199473425
 30
0.0
 11
372.865047634618
 21
181.5460199473425
 31
0.0
  0
ARC
  5
58F
330
1A
100
AcDbEntity
  8
SEIHIN
  6
CONTINUOUS
 62
     3
 48
16.0
100
AcDbCircle
 10
372.9162476346179
 20
172.5459199473425
 30
0.0
 40
2.999999999999914
100
AcDbArc
 50
359.9999999999983
 51
89.99999999999836
  0
ARC
  5
590
330
1A
100
AcDbEntity
  8
SEIHIN
  6
CONTINUOUS
 62
     3
 48
16.0
100
AcDbCircle
 10
372.9162476346179
 20
181.0459199473423
 30
0.0
 40
2.999999999999943
100
AcDbArc
 50
270.0000000000021
 51
0.0000000000021713
  0
LINE
  5
591
330
1A
100
AcDbEntity
  8
SEIHIN
  6
CONTINUOUS
 62
     3
 48
16.0
100
AcDbLine
 10
377.916247634618
 20
191.5459199473424
 30
0.0
 11
375.9162476346177
 21
189.5459199473425
 31
0.0
  0
ARC
  5
592
330
1A
100
AcDbEntity
  8
SEIHIN
  6
CONTINUOUS
 62
     3
 48
16.0
100
AcDbCircle
 10
372.9162476346179
 20
186.0459199473425
 30
0.0
 40
2.999999999999914
100
AcDbArc
 50
359.9999999999983
 51
89.99999999999836
  0
TEXT
  5
5C7
330
1A
100
AcDbEntity
  8
SUNPOU
 62
     4
100
AcDbText
 10
265.9861469149855
 20
89.4794901556369
 30
0.0
 40
8.0
  1
軒樋の差し替え
100
AcDbText
  0
DIMENSION
  5
5E0
330
1A
100
AcDbEntity
  8
SUNPOU
  6
CONTINUOUS
100
AcDbDimension
  2
*D13
 10
381.9161476346177
 20
257.1719815341684
 30
0.0
 11
406.4161476346177
 21
262.1719815341684
 31
0.0
 70
    32
  1
t<>
  3
STANDARD
100
AcDbAlignedDimension
 13
375.9162476346177
 23
279.631006537352
 33
0.0
 14
381.9161476346177
 24
277.631006537352
 34
0.0
100
AcDbRotatedDimension
1001
ACAD
1000
DSTYLE
1002
{
1070
   140
1040
6.0
1070
    74
1070
     0
1070
   172
1070
     1
1070
    73
1070
     0
1070
   272
1070
     2
1070
    77
1070
     3
1070
   173
1070
     1
1070
   147
1040
2.0
1070
    42
1040
6.0
1070
    44
1040
3.0
1070
    43
1040
14.0
1070
   271
1070
     1
1070
   178
1070
     4
1070
   177
1070
     4
1070
   176
1070
     4
1070
   141
1040
150.0
1070
     7
1000
_OPEN
1070
     6
1000
_OPEN
1070
    41
1040
7.0
1002
}
  0
LINE
  5
762
330
1A
100
AcDbEntity
  8
ZUWAKU
100
AcDbLine
 10
208.6466021508235
 20
15.20000025521687
 30
0.0
 11
447.4243648317469
 21
15.20000025521686
 31
0.0
  0
LINE
  5
763
330
1A
100
AcDbEntity
  8
ZUWAKU
100
AcDbLine
 10
208.6466021508235
 20
15.60000025521686
 30
0.0
 11
447.4243648317469
 21
15.60000025521687
 31
0.0
  0
LINE
  5
764
330
1A
100
AcDbEntity
  8
ZUWAKU
100
AcDbLine
 10
208.6466021508235
 20
15.40000025521686
 30
0.0
 11
447.4243648317469
 21
15.40000025521686
 31
0.0
  0
LINE
  5
765
330
1A
100
AcDbEntity
  8
ZUWAKU
100
AcDbLine
 10
0.0000008607555628
 20
30.80000025521684
 30
0.0
 11
797.4000008607554
 21
30.80000025521684
 31
0.0
  0
LINE
  5
766
330
1A
100
AcDbEntity
  8
ZUWAKU
100
AcDbLine
 10
0.0000008607555628
 20
30.60000025521684
 30
0.0
 11
797.4000008607554
 21
30.60000025521684
 31
0.0
  0
LINE
  5
767
330
1A
100
AcDbEntity
  8
ZUWAKU
100
AcDbLine
 10
0.0000008607555628
 20
30.40000025521683
 30
0.0
 11
797.4000008607554
 21
30.40000025521683
 31
0.0
  0
LINE
  5
768
330
1A
100
AcDbEntity
  8
ZUWAKU
100
AcDbLine
 10
0.0000008607555628
 20
30.20000025521683
 30
0.0
 11
797.4000008607554
 21
30.20000025521683
 31
0.0
  0
LINE
  5
769
330
1A
100
AcDbEntity
  8
ZUWAKU
100
AcDbLine
 10
0.0000008607555628
 20
30.00000025521683
 30
0.0
 11
797.4000008607554
 21
30.00000025521683
 31
0.0
  0
LWPOLYLINE
  5
76A
330
1A
100
AcDbEntity
  8
ZUWAKU
100
AcDbPolyline
 90
        4
 70
     1
 43
0.0
 10
0.2000008607554946
 20
551.4000002552169
 10
0.2000008607554946
 20
0.200000255216878
 10
797.4000008607554
 20
0.2000002552169011
 10
797.4000008607556
 20
551.4000002552169
  0
LWPOLYLINE
  5
76B
330
1A
100
AcDbEntity
  8
ZUWAKU
100
AcDbPolyline
 90
        4
 70
     1
 43
0.0
 10
0.6000008607554719
 20
551.0000002552169
 10
0.6000008607554719
 20
0.6000002552168553
 10
797.0000008607557
 20
0.6000002552169015
 10
797.0000008607556
 20
551.0000002552169
  0
LWPOLYLINE
  5
76C
330
1A
100
AcDbEntity
  8
ZUWAKU
100
AcDbPolyline
 90
        4
 70
     1
 43
0.0
 10
0.0000008607555628
 20
551.6000002552168
 10
0.0000008607555628
 20
0.0000002552168326
 10
797.6000008607557
 20
0.0000002552169001
 10
797.6000008607557
 20
551.600000255217
  0
LWPOLYLINE
  5
76D
330
1A
100
AcDbEntity
  8
ZUWAKU
100
AcDbPolyline
 90
        4
 70
     1
 43
0.0
 10
0.4000008607555401
 20
551.2000002552168
 10
0.4000008607555401
 20
0.4000002552169235
 10
797.2000008607555
 20
0.4000002552169005
 10
797.2000008607555
 20
551.2000002552168
  0
LWPOLYLINE
  5
76E
330
1A
100
AcDbEntity
  8
ZUWAKU
100
AcDbPolyline
 90
        4
 70
     1
 43
0.0
 10
0.8000008607555173
 20
550.8000002552169
 10
0.8000008607555173
 20
0.8000002552169007
 10
796.8000008607555
 20
0.8000002552169007
 10
796.8000008607555
 20
550.8000002552169
  0
TEXT
  5
76F
330
1A
100
AcDbEntity
  8
MOJI
100
AcDbText
 10
92.95779044892469
 20
12.74117838549159
 30
0.0
 40
6.0
  1
新・丸トップＲＶ１０５
 41
0.9
  7
ｽﾀｲﾙ1
100
AcDbText
  0
HATCH
  5
770
330
1A
100
AcDbEntity
  8
ZUWAKU
100
AcDbHatch
 10
0.0
 20
0.0
 30
0.0
210
0.0
220
0.0
230
1.0
  2
ANSI37
 70
     0
 71
     0
 91
        8
 92
        7
 72
     1
 73
     1
 93
       24
 10
14.50226352187542
 20
17.64484873620041
 42
-0.1989123673796348
 10
14.09221301553668
 20
18.63479822986146
 42
0.0
 10
14.09221301553668
 20
19.92500025521684
 42
-0.4142135623730912
 10
14.61721301553666
 20
20.45000025521683
 42
0.0
 10
17.59221301553657
 20
20.45000025521683
 42
0.4142135623731546
 10
18.11721301553666
 20
20.97500025521682
 42
0.0
 10
18.11721301553666
 20
22.72500025521684
 42
0.4142135623731586
 10
17.59221301553657
 20
23.25000025521684
 42
0.0
 10
14.09221301553668
 20
23.25000025521684
 42
0.4142135623730928
 10
11.29221301553673
 20
20.45000025521686
 42
0.0
 10
11.29221301553673
 20
18.63479822986159
 42
0.1989123673796619
 10
12.52236453455316
 20
15.66494974887798
 42
0.0
 10
15.43216250919783
 20
12.75515177423333
 42
-0.1989123673796613
 10
15.84221301553668
 20
11.76520228057214
 42
0.0
 10
15.84221301553668
 20
10.47500025521682
 42
-0.4142135623730911
 10
15.31721301553671
 20
9.950000255216835
 42
0.0
 10
12.3422130155368
 20
9.950000255216835
 42
0.4142135623731526
 10
11.8172130155367
 20
9.425000255216847
 42
0.0
 10
11.8172130155367
 20
7.675000255216826
 42
0.4142135623731526
 10
12.3422130155368
 20
7.150000255216838
 42
0.0
 10
15.84221301553668
 20
7.150000255216838
 42
0.4142135623731044
 10
18.64221301553675
 20
9.950000255216814
 42
0.0
 10
18.64221301553675
 20
11.76520228057208
 42
0.1989123673796604
 10
17.41206149652021
 20
14.73505076155562
 42
0.0
 97
        0
 92
        7
 72
     1
 73
     1
 93
       16
 10
23.54221301553673
 20
19.05000025521684
 42
-0.4142135623730935
 10
24.9422130155367
 20
20.45000025521683
 42
0.0
 10
26.86721301553666
 20
20.45000025521683
 42
0.4142135623731546
 10
27.39221301553675
 20
20.97500025521682
 42
0.0
 10
27.39221301553675
 20
22.72500025521684
 42
0.4142135623730951
 10
26.86721301553677
 20
23.25000025521684
 42
0.0
 10
24.94221301553659
 20
23.25000025521679
 42
0.4142135623730892
 10
20.74221301553666
 20
19.05000025521677
 42
0.0
 10
20.74221301553666
 20
11.35000025521686
 42
0.4142135623730969
 10
24.9422130155367
 20
7.150000255216838
 42
0.0
 10
26.86721301553666
 20
7.150000255216838
 42
0.4142135623731526
 10
27.39221301553675
 20
7.675000255216826
 42
0.0
 10
27.39221301553675
 20
9.425000255216847
 42
0.4142135623730891
 10
26.86721301553677
 20
9.950000255216835
 42
0.0
 10
24.9422130155367
 20
9.950000255216835
 42
-0.4142135623730928
 10
23.54221301553673
 20
11.35000025521682
 42
0.0
 97
        0
 92
        7
 72
     1
 73
     1
 93
        2
 10
24.24221301553666
 20
15.20000025521683
 42
1.0
 10
27.74221301553666
 20
15.20000025521683
 42
1.0
 97
        0
 92
        7
 72
     1
 73
     1
 93
       26
 10
37.31485949771467
 20
19.20504744878026
 42
0.0
 10
38.37649913085249
 20
22.56690628704985
 42
0.5069206636600134
 10
37.87586823165713
 20
23.25000025521684
 42
0.0
 10
36.1769788520479
 20
23.25000025521684
 42
0.3272098845218764
 10
35.67634795285255
 20
22.8830942233838
 42
0.0
 10
33.80807807822077
 20
16.96690628704991
 42
-0.3272098845219541
 10
33.3074471790253
 20
16.60000025521683
 42
0.0
 10
33.16721301553684
 20
16.60000025521683
 42
-0.4142135623731526
 10
32.64221301553675
 20
17.12500025521682
 42
0.0
 10
32.64221301553675
 20
22.72500025521684
 42
0.4142135623730951
 10
32.11721301553677
 20
23.25000025521684
 42
0.0
 10
30.36721301553666
 20
23.25000025521684
 42
0.4142135623730871
 10
29.84221301553668
 20
22.72500025521685
 42
0.0
 10
29.84221301553668
 20
7.675000255216826
 42
0.4142135623730891
 10
30.36721301553666
 20
7.150000255216838
 42
0.0
 10
32.11721301553666
 20
7.150000255216838
 42
0.4142135623731526
 10
32.64221301553675
 20
7.675000255216826
 42
0.0
 10
32.64221301553675
 20
13.27500025521684
 42
-0.4142135623731526
 10
33.16721301553684
 20
13.80000025521683
 42
0.0
 10
33.30744717902542
 20
13.80000025521683
 42
-0.3272098845218915
 10
33.80807807822077
 20
13.43309422338376
 42
0.0
 10
35.67634795285255
 20
7.516906287049909
 42
0.3272098845218902
 10
36.1769788520479
 20
7.150000255216838
 42
0.0
 10
37.87586823165713
 20
7.150000255216838
 42
0.5069206636600335
 10
38.37649913085249
 20
7.833094223383845
 42
0.0
 10
36.05010775237883
 20
15.20000025521697
 42
0.0
 97
        0
 92
        7
 72
     1
 73
     1
 93
        8
 10
43.49221301553666
 20
22.72500025521684
 42
0.4142135623731546
 10
42.96721301553657
 20
23.25000025521684
 42
0.0
 10
41.21721301553679
 20
23.25000025521684
 42
0.4142135623731507
 10
40.6922130155367
 20
22.72500025521685
 42
0.0
 10
40.6922130155367
 20
7.675000255216826
 42
0.4142135623731526
 10
41.21721301553679
 20
7.150000255216838
 42
0.0
 10
42.96721301553657
 20
7.150000255216838
 42
0.4142135623731526
 10
43.49221301553666
 20
7.675000255216826
 42
0.0
 97
        0
 92
        7
 72
     1
 73
     1
 93
       24
 10
48.39221301553675
 20
19.92500025521684
 42
-0.4142135623731546
 10
48.91721301553684
 20
20.45000025521683
 42
0.0
 10
51.89221301553676
 20
20.45000025521683
 42
0.4142135623730911
 10
52.41721301553673
 20
20.97500025521682
 42
0.0
 10
52.41721301553673
 20
22.72500025521684
 42
0.4142135623730952
 10
51.89221301553676
 20
23.25000025521684
 42
0.0
 10
48.39221301553675
 20
23.25000025521684
 42
0.4142135623731048
 10
45.59221301553669
 20
20.45000025521686
 42
0.0
 10
45.59221301553669
 20
18.63479822986159
 42
0.1989123673796613
 10
46.82236453455323
 20
15.66494974887804
 42
0.0
 10
49.7321625091979
 20
12.75515177423337
 42
-0.1989123673796402
 10
50.14221301553675
 20
11.7652022805723
 42
0.0
 10
50.14221301553675
 20
10.47500025521682
 42
-0.4142135623730911
 10
49.61721301553677
 20
9.950000255216835
 42
0.0
 10
46.64221301553675
 20
9.950000255216835
 42
0.4142135623731526
 10
46.11721301553666
 20
9.425000255216847
 42
0.0
 10
46.11721301553666
 20
7.675000255216826
 42
0.4142135623730891
 10
46.64221301553664
 20
7.150000255216838
 42
0.0
 10
50.14221301553675
 20
7.150000255216838
 42
0.4142135623730925
 10
52.94221301553671
 20
9.950000255216814
 42
0.0
 10
52.94221301553671
 20
11.76520228057208
 42
0.1989123673796675
 10
51.71206149652016
 20
14.73505076155574
 42
0.0
 10
48.8022635218756
 20
17.64484873620025
 42
-0.1989123673796652
 10
48.39221301553675
 20
18.63479822986142
 42
0.0
 97
        0
 92
        7
 72
     1
 73
     1
 93
       16
 10
57.84221301553668
 20
22.72500025521682
 42
0.414213562373103
 10
57.31721301553671
 20
23.25000025521684
 42
0.0
 10
55.56721301553671
 20
23.25000025521684
 42
0.4142135623730871
 10
55.04221301553673
 20
22.72500025521685
 42
0.0
 10
55.04221301553673
 20
9.950000255216814
 42
0.4142135623730926
 10
57.84221301553668
 20
7.150000255216838
 42
0.0
 10
61.34221301553669
 20
7.150000255216838
 42
0.4142135623731044
 10
64.14221301553675
 20
9.950000255216814
 42
0.0
 10
64.14221301553675
 20
22.72500025521684
 42
0.4142135623730951
 10
63.61721301553678
 20
23.25000025521684
 42
0.0
 10
61.86721301553666
 20
23.25000025521684
 42
0.4142135623730871
 10
61.34221301553669
 20
22.72500025521685
 42
0.0
 10
61.34221301553669
 20
11.00000025521681
 42
-0.414213562373088
 10
60.29221301553673
 20
9.950000255216835
 42
0.0
 10
58.89221301553675
 20
9.950000255216835
 42
-0.4142135623731197
 10
57.84221301553668
 20
11.00000025521681
 42
0.0
 97
        0
 92
        7
 72
     1
 73
     1
 93
        8
 10
69.04221301553673
 20
22.72500025521685
 42
0.4142135623730871
 10
68.51721301553675
 20
23.25000025521684
 42
0.0
 10
66.76721301553675
 20
23.25000025521684
 42
0.4142135623731507
 10
66.24221301553666
 20
22.72500025521685
 42
0.0
 10
66.24221301553666
 20
7.675000255216826
 42
0.4142135623730891
 10
66.76721301553664
 20
7.150000255216838
 42
0.0
 10
68.51721301553675
 20
7.150000255216838
 42
0.4142135623730891
 10
69.04221301553673
 20
7.675000255216826
 42
0.0
 97
        0
 75
     0
 76
     1
 52
0.0
 41
0.2
 77
     0
 78
     2
 53
45.0
 43
-900.9423034739233
 44
-13.19999974478309
 45
-0.4490128060534576
 46
0.4490128060534577
 79
     0
 53
135.0
 43
-900.9423034739233
 44
-13.19999974478309
 45
-0.4490128060534577
 46
-0.4490128060534576
 79
     0
 47
0.057451373970553
 98
        8
 10
16.07985582377887
 20
15.16717390110238
 10
22.40451586719473
 20
18.84406243766784
 10
25.16436874641522
 20
15.51188190128755
 10
30.9140608423927
 20
16.20129790165833
 10
41.8384728797123
 20
16.66091016919995
 10
46.8982017558851
 20
19.41857657162404
 10
56.55768683315591
 20
18.72915817031184
 10
67.8270804803783
 20
19.18877043785346
  0
LINE
  5
771
330
1A
100
AcDbEntity
  8
ZUWAKU
100
AcDbLine
 10
24.9422130155367
 20
23.25000025521679
 30
0.0
 11
26.86721301553666
 21
23.25000025521684
 31
0.0
  0
LINE
  5
772
330
1A
100
AcDbEntity
  8
ZUWAKU
100
AcDbLine
 10
26.86721301553666
 20
20.45000025521683
 30
0.0
 11
24.9422130155367
 21
20.45000025521683
 31
0.0
  0
LINE
  5
773
330
1A
100
AcDbEntity
  8
ZUWAKU
100
AcDbLine
 10
24.9422130155367
 20
9.950000255216835
 30
0.0
 11
26.86721301553666
 21
9.950000255216835
 31
0.0
  0
LINE
  5
774
330
1A
100
AcDbEntity
  8
ZUWAKU
100
AcDbLine
 10
26.86721301553666
 20
7.150000255216838
 30
0.0
 11
24.9422130155367
 21
7.150000255216838
 31
0.0
  0
CIRCLE
  5
775
330
1A
100
AcDbEntity
  8
ZUWAKU
100
AcDbCircle
 10
25.99221301553666
 20
15.20000025521683
 30
0.0
 40
1.75
  0
ARC
  5
776
330
1A
100
AcDbEntity
  8
ZUWAKU
100
AcDbCircle
 10
15.49221301553666
 20
18.63479822986153
 30
0.0
 40
1.399999999999999
100
AcDbArc
 50
180.0000000000016
 51
224.9999999999988
  0
LINE
  5
777
330
1A
100
AcDbEntity
  8
ZUWAKU
100
AcDbLine
 10
23.54221301553673
 20
19.05000025521683
 30
0.0
 11
23.54221301553673
 21
11.35000025521684
 31
0.0
  0
LINE
  5
778
330
1A
100
AcDbEntity
  8
ZUWAKU
100
AcDbLine
 10
20.74221301553666
 20
11.35000025521684
 30
0.0
 11
20.74221301553666
 21
19.05000025521679
 31
0.0
  0
ARC
  5
779
330
1A
100
AcDbEntity
  8
ZUWAKU
100
AcDbCircle
 10
15.49221301553666
 20
18.63479822986153
 30
0.0
 40
4.199999999999999
100
AcDbArc
 50
180.0
 51
225.0
  0
ARC
  5
77A
330
1A
100
AcDbEntity
  8
ZUWAKU
100
AcDbCircle
 10
15.84221301553668
 20
9.950000255216835
 30
0.0
 40
2.799999999999999
100
AcDbArc
 50
270.0
 51
0.0
  0
ARC
  5
77B
330
1A
100
AcDbEntity
  8
ZUWAKU
100
AcDbCircle
 10
24.9422130155367
 20
11.35000025521684
 30
0.0
 40
4.199999999999999
100
AcDbArc
 50
180.0
 51
270.0
  0
ARC
  5
77C
330
1A
100
AcDbEntity
  8
ZUWAKU
100
AcDbCircle
 10
14.4422130155367
 20
11.76520228057214
 30
0.0
 40
4.199999999999999
100
AcDbArc
 50
0.0
 51
45.0
  0
LINE
  5
77D
330
1A
100
AcDbEntity
  8
ZUWAKU
100
AcDbLine
 10
17.41206149652021
 20
14.73505076155566
 30
0.0
 11
14.50226352187553
 21
17.64484873620033
 31
0.0
  0
LINE
  5
77E
330
1A
100
AcDbEntity
  8
ZUWAKU
100
AcDbLine
 10
15.84221301553668
 20
10.47500025521684
 30
0.0
 11
15.84221301553668
 21
11.76520228057218
 31
0.0
  0
ARC
  5
77F
330
1A
100
AcDbEntity
  8
ZUWAKU
100
AcDbCircle
 10
15.31721301553671
 20
10.47500025521684
 30
0.0
 40
0.525
100
AcDbArc
 50
270.0
 51
0.0
  0
ARC
  5
780
330
1A
100
AcDbEntity
  8
ZUWAKU
100
AcDbCircle
 10
14.4422130155367
 20
11.76520228057218
 30
0.0
 40
1.399999999999999
100
AcDbArc
 50
0.0
 51
45.0
  0
LINE
  5
781
330
1A
100
AcDbEntity
  8
ZUWAKU
100
AcDbLine
 10
11.8172130155367
 20
7.675000255216836
 30
0.0
 11
11.8172130155367
 21
9.425000255216836
 31
0.0
  0
ARC
  5
782
330
1A
100
AcDbEntity
  8
ZUWAKU
100
AcDbCircle
 10
12.34221301553668
 20
7.675000255216836
 30
0.0
 40
0.525
100
AcDbArc
 50
180.0
 51
270.0
  0
ARC
  5
783
330
1A
100
AcDbEntity
  8
ZUWAKU
100
AcDbCircle
 10
12.34221301553668
 20
9.425000255216836
 30
0.0
 40
0.525
100
AcDbArc
 50
90.0
 51
180.0
  0
LINE
  5
784
330
1A
100
AcDbEntity
  8
ZUWAKU
100
AcDbLine
 10
12.34221301553668
 20
7.150000255216838
 30
0.0
 11
15.84221301553668
 21
7.150000255216838
 31
0.0
  0
LINE
  5
785
330
1A
100
AcDbEntity
  8
ZUWAKU
100
AcDbLine
 10
12.34221301553668
 20
9.950000255216835
 30
0.0
 11
15.31721301553671
 21
9.950000255216835
 31
0.0
  0
LINE
  5
786
330
1A
100
AcDbEntity
  8
ZUWAKU
100
AcDbLine
 10
12.52236453455316
 20
15.66494974887801
 30
0.0
 11
15.43216250919783
 21
12.75515177423335
 31
0.0
  0
LINE
  5
787
330
1A
100
AcDbEntity
  8
ZUWAKU
100
AcDbLine
 10
18.64221301553675
 20
9.950000255216835
 30
0.0
 11
18.64221301553675
 21
11.76520228057218
 31
0.0
  0
ARC
  5
788
330
1A
100
AcDbEntity
  8
ZUWAKU
100
AcDbCircle
 10
24.9422130155367
 20
11.35000025521684
 30
0.0
 40
1.399999999999999
100
AcDbArc
 50
180.0
 51
270.0
  0
ARC
  5
789
330
1A
100
AcDbEntity
  8
ZUWAKU
100
AcDbCircle
 10
17.59221301553668
 20
22.72500025521683
 30
0.0
 40
0.525
100
AcDbArc
 50
0.0
 51
90.0
  0
ARC
  5
78A
330
1A
100
AcDbEntity
  8
ZUWAKU
100
AcDbCircle
 10
17.59221301553668
 20
20.97500025521683
 30
0.0
 40
0.525
100
AcDbArc
 50
270.0
 51
0.0
  0
LINE
  5
78B
330
1A
100
AcDbEntity
  8
ZUWAKU
100
AcDbLine
 10
14.09221301553668
 20
23.25000025521684
 30
0.0
 11
17.59221301553668
 21
23.25000025521684
 31
0.0
  0
ARC
  5
78C
330
1A
100
AcDbEntity
  8
ZUWAKU
100
AcDbCircle
 10
14.61721301553666
 20
19.92500025521683
 30
0.0
 40
0.525
100
AcDbArc
 50
90.0
 51
180.0
  0
LINE
  5
78D
330
1A
100
AcDbEntity
  8
ZUWAKU
100
AcDbLine
 10
14.09221301553668
 20
19.92500025521683
 30
0.0
 11
14.09221301553668
 21
18.63479822986149
 31
0.0
  0
LINE
  5
78E
330
1A
100
AcDbEntity
  8
ZUWAKU
100
AcDbLine
 10
17.59221301553668
 20
20.45000025521683
 30
0.0
 11
14.61721301553666
 21
20.45000025521683
 31
0.0
  0
LINE
  5
78F
330
1A
100
AcDbEntity
  8
ZUWAKU
100
AcDbLine
 10
11.29221301553673
 20
20.45000025521683
 30
0.0
 11
11.29221301553673
 21
18.63479822986149
 31
0.0
  0
ARC
  5
790
330
1A
100
AcDbEntity
  8
ZUWAKU
100
AcDbCircle
 10
14.09221301553668
 20
20.45000025521683
 30
0.0
 40
2.799999999999999
100
AcDbArc
 50
90.0
 51
180.0
  0
LINE
  5
791
330
1A
100
AcDbEntity
  8
ZUWAKU
100
AcDbLine
 10
18.11721301553666
 20
22.72500025521683
 30
0.0
 11
18.11721301553666
 21
20.97500025521683
 31
0.0
  0
ARC
  5
792
330
1A
100
AcDbEntity
  8
ZUWAKU
100
AcDbCircle
 10
24.9422130155367
 20
19.05000025521683
 30
0.0
 40
1.399999999999999
100
AcDbArc
 50
90.0
 51
180.0
  0
ARC
  5
793
330
1A
100
AcDbEntity
  8
ZUWAKU
100
AcDbCircle
 10
24.9422130155367
 20
19.05000025521679
 30
0.0
 40
4.199999999999999
100
AcDbArc
 50
90.0
 51
180.0
  0
LINE
  5
794
330
1A
100
AcDbEntity
  8
ZUWAKU
100
AcDbLine
 10
79.32663040874377
 20
30.00000025521683
 30
0.0
 11
79.32663040874399
 21
0.8000002552169007
 31
0.0
  0
LINE
  5
795
330
1A
100
AcDbEntity
  8
ZUWAKU
100
AcDbLine
 10
79.52663040874381
 20
30.00000025521683
 30
0.0
 11
79.52663040874404
 21
0.8000002552169007
 31
0.0
  0
LINE
  5
796
330
1A
100
AcDbEntity
  8
ZUWAKU
100
AcDbLine
 10
79.12663040874395
 20
30.00000025521683
 30
0.0
 11
79.12663040874395
 21
0.8000002552169007
 31
0.0
  0
LINE
  5
797
330
1A
100
AcDbEntity
  8
ZUWAKU
100
AcDbLine
 10
64.14221301553675
 20
9.950000255216835
 30
0.0
 11
64.14221301553675
 21
22.72500025521683
 31
0.0
  0
LINE
  5
798
330
1A
100
AcDbEntity
  8
ZUWAKU
100
AcDbLine
 10
61.34221301553669
 20
22.72500025521683
 30
0.0
 11
61.34221301553669
 21
11.00000025521683
 31
0.0
  0
LINE
  5
799
330
1A
100
AcDbEntity
  8
ZUWAKU
100
AcDbLine
 10
69.04221301553673
 20
7.675000255216836
 30
0.0
 11
69.04221301553673
 21
22.72500025521683
 31
0.0
  0
LINE
  5
79A
330
1A
100
AcDbEntity
  8
ZUWAKU
100
AcDbLine
 10
66.24221301553666
 20
22.72500025521683
 30
0.0
 11
66.24221301553666
 21
7.675000255216836
 31
0.0
  0
ARC
  5
79B
330
1A
100
AcDbEntity
  8
ZUWAKU
100
AcDbCircle
 10
49.79221301553673
 20
18.63479822986153
 30
0.0
 40
1.399999999999999
100
AcDbArc
 50
180.0000000000016
 51
224.9999999999988
  0
ARC
  5
79C
330
1A
100
AcDbEntity
  8
ZUWAKU
100
AcDbCircle
 10
49.79221301553673
 20
18.63479822986153
 30
0.0
 40
4.199999999999999
100
AcDbArc
 50
180.0
 51
225.0
  0
LINE
  5
79D
330
1A
100
AcDbEntity
  8
ZUWAKU
100
AcDbLine
 10
37.31485949771467
 20
19.20504744878026
 30
0.0
 11
36.05010775237883
 21
15.20000025521685
 31
0.0
  0
LINE
  5
79E
330
1A
100
AcDbEntity
  8
ZUWAKU
100
AcDbLine
 10
40.6922130155367
 20
22.72500025521683
 30
0.0
 11
40.6922130155367
 21
7.675000255216836
 31
0.0
  0
LINE
  5
79F
330
1A
100
AcDbEntity
  8
ZUWAKU
100
AcDbLine
 10
43.49221301553666
 20
7.675000255216836
 30
0.0
 11
43.49221301553666
 21
22.72500025521683
 31
0.0
  0
LINE
  5
7A0
330
1A
100
AcDbEntity
  8
ZUWAKU
100
AcDbLine
 10
55.04221301553673
 20
22.72500025521683
 30
0.0
 11
55.04221301553673
 21
9.950000255216835
 31
0.0
  0
LINE
  5
7A1
330
1A
100
AcDbEntity
  8
ZUWAKU
100
AcDbLine
 10
57.84221301553668
 20
11.00000025521683
 30
0.0
 11
57.84221301553668
 21
22.72500025521683
 31
0.0
  0
LINE
  5
7A2
330
1A
100
AcDbEntity
  8
ZUWAKU
100
AcDbLine
 10
32.64221301553675
 20
17.12500025521683
 30
0.0
 11
32.64221301553675
 21
22.72500025521683
 31
0.0
  0
LINE
  5
7A3
330
1A
100
AcDbEntity
  8
ZUWAKU
100
AcDbLine
 10
29.84221301553668
 20
22.72500025521683
 30
0.0
 11
29.84221301553668
 21
7.675000255216836
 31
0.0
  0
LINE
  5
7A4
330
1A
100
AcDbEntity
  8
ZUWAKU
100
AcDbLine
 10
35.67634795285255
 20
22.8830942233838
 30
0.0
 11
33.80807807822077
 21
16.96690628704986
 31
0.0
  0
LINE
  5
7A5
330
1A
100
AcDbEntity
  8
ZUWAKU
100
AcDbLine
 10
60.29221301553673
 20
9.950000255216835
 30
0.0
 11
58.89221301553675
 21
9.950000255216835
 31
0.0
  0
LINE
  5
7A6
330
1A
100
AcDbEntity
  8
ZUWAKU
100
AcDbLine
 10
57.84221301553668
 20
7.150000255216838
 30
0.0
 11
61.34221301553669
 21
7.150000255216838
 31
0.0
  0
LINE
  5
7A7
330
1A
100
AcDbEntity
  8
ZUWAKU
100
AcDbLine
 10
41.21721301553669
 20
7.150000255216838
 30
0.0
 11
42.96721301553668
 21
7.150000255216838
 31
0.0
  0
LINE
  5
7A8
330
1A
100
AcDbEntity
  8
ZUWAKU
100
AcDbLine
 10
35.67634795285255
 20
7.516906287049863
 30
0.0
 11
33.80807807822077
 21
13.4330942233838
 31
0.0
  0
ARC
  5
7A9
330
1A
100
AcDbEntity
  8
ZUWAKU
100
AcDbCircle
 10
33.30744717902542
 20
17.12500025521683
 30
0.0
 40
0.525
100
AcDbArc
 50
270.0
 51
342.4744316262769
  0
LINE
  5
7AA
330
1A
100
AcDbEntity
  8
ZUWAKU
100
AcDbLine
 10
33.30744717902542
 20
16.60000025521683
 30
0.0
 11
33.16721301553673
 21
16.60000025521683
 31
0.0
  0
LINE
  5
7AB
330
1A
100
AcDbEntity
  8
ZUWAKU
100
AcDbLine
 10
33.16721301553673
 20
13.80000025521683
 30
0.0
 11
33.30744717902542
 21
13.80000025521683
 31
0.0
  0
ARC
  5
7AC
330
1A
100
AcDbEntity
  8
ZUWAKU
100
AcDbCircle
 10
33.16721301553673
 20
17.12500025521683
 30
0.0
 40
0.525
100
AcDbArc
 50
180.0
 51
270.0
  0
LINE
  5
7AD
330
1A
100
AcDbEntity
  8
ZUWAKU
100
AcDbLine
 10
30.36721301553666
 20
7.150000255216838
 30
0.0
 11
32.11721301553666
 21
7.150000255216838
 31
0.0
  0
ARC
  5
7AE
330
1A
100
AcDbEntity
  8
ZUWAKU
100
AcDbCircle
 10
32.11721301553666
 20
7.675000255216836
 30
0.0
 40
0.525
100
AcDbArc
 50
270.0
 51
0.0
  0
LINE
  5
7AF
330
1A
100
AcDbEntity
  8
ZUWAKU
100
AcDbLine
 10
32.64221301553675
 20
7.675000255216836
 30
0.0
 11
32.64221301553675
 21
13.27500025521684
 31
0.0
  0
LINE
  5
7B0
330
1A
100
AcDbEntity
  8
ZUWAKU
100
AcDbLine
 10
27.39221301553675
 20
9.425000255216836
 30
0.0
 11
27.39221301553675
 21
7.675000255216836
 31
0.0
  0
ARC
  5
7B1
330
1A
100
AcDbEntity
  8
ZUWAKU
100
AcDbCircle
 10
26.86721301553666
 20
7.675000255216836
 30
0.0
 40
0.525
100
AcDbArc
 50
270.0
 51
0.0
  0
ARC
  5
7B2
330
1A
100
AcDbEntity
  8
ZUWAKU
100
AcDbCircle
 10
26.86721301553666
 20
9.425000255216836
 30
0.0
 40
0.525
100
AcDbArc
 50
0.0
 51
90.0
  0
ARC
  5
7B3
330
1A
100
AcDbEntity
  8
ZUWAKU
100
AcDbCircle
 10
30.36721301553666
 20
7.675000255216836
 30
0.0
 40
0.525
100
AcDbArc
 50
180.0
 51
270.0
  0
ARC
  5
7B4
330
1A
100
AcDbEntity
  8
ZUWAKU
100
AcDbCircle
 10
33.30744717902542
 20
13.27500025521684
 30
0.0
 40
0.525
100
AcDbArc
 50
17.52556837372303
 51
90.0
  0
ARC
  5
7B5
330
1A
100
AcDbEntity
  8
ZUWAKU
100
AcDbCircle
 10
33.16721301553673
 20
13.27500025521684
 30
0.0
 40
0.525
100
AcDbArc
 50
90.0
 51
180.0
  0
ARC
  5
7B6
330
1A
100
AcDbEntity
  8
ZUWAKU
100
AcDbCircle
 10
41.21721301553669
 20
7.675000255216836
 30
0.0
 40
0.525
100
AcDbArc
 50
180.0
 51
270.0
  0
LINE
  5
7B7
330
1A
100
AcDbEntity
  8
ZUWAKU
100
AcDbLine
 10
36.17697885204802
 20
7.150000255216838
 30
0.0
 11
37.87586823165702
 21
7.150000255216838
 31
0.0
  0
ARC
  5
7B8
330
1A
100
AcDbEntity
  8
ZUWAKU
100
AcDbCircle
 10
37.87586823165702
 20
7.675000255216836
 30
0.0
 40
0.525
100
AcDbArc
 50
270.0
 51
17.52556837372303
  0
LINE
  5
7B9
330
1A
100
AcDbEntity
  8
ZUWAKU
100
AcDbLine
 10
38.37649913085249
 20
7.83309422338381
 30
0.0
 11
36.05010775237883
 21
15.20000025521685
 31
0.0
  0
ARC
  5
7BA
330
1A
100
AcDbEntity
  8
ZUWAKU
100
AcDbCircle
 10
36.17697885204802
 20
7.675000255216836
 30
0.0
 40
0.525
100
AcDbArc
 50
197.525568373723
 51
270.0
  0
ARC
  5
7BB
330
1A
100
AcDbEntity
  8
ZUWAKU
100
AcDbCircle
 10
57.84221301553668
 20
9.950000255216835
 30
0.0
 40
2.799999999999999
100
AcDbArc
 50
180.0
 51
270.0
  0
ARC
  5
7BC
330
1A
100
AcDbEntity
  8
ZUWAKU
100
AcDbCircle
 10
50.14221301553675
 20
9.950000255216835
 30
0.0
 40
2.799999999999999
100
AcDbArc
 50
270.0
 51
0.0
  0
LINE
  5
7BD
330
1A
100
AcDbEntity
  8
ZUWAKU
100
AcDbLine
 10
51.71206149652028
 20
14.73505076155566
 30
0.0
 11
48.80226352187548
 21
17.64484873620033
 31
0.0
  0
LINE
  5
7BE
330
1A
100
AcDbEntity
  8
ZUWAKU
100
AcDbLine
 10
50.14221301553675
 20
10.47500025521684
 30
0.0
 11
50.14221301553675
 21
11.76520228057218
 31
0.0
  0
ARC
  5
7BF
330
1A
100
AcDbEntity
  8
ZUWAKU
100
AcDbCircle
 10
48.74221301553666
 20
11.76520228057218
 30
0.0
 40
1.399999999999999
100
AcDbArc
 50
0.0
 51
45.0
  0
ARC
  5
7C0
330
1A
100
AcDbEntity
  8
ZUWAKU
100
AcDbCircle
 10
49.61721301553666
 20
10.47500025521684
 30
0.0
 40
0.525
100
AcDbArc
 50
270.0
 51
0.0
  0
LINE
  5
7C1
330
1A
100
AcDbEntity
  8
ZUWAKU
100
AcDbLine
 10
46.11721301553666
 20
7.675000255216836
 30
0.0
 11
46.11721301553666
 21
9.425000255216836
 31
0.0
  0
ARC
  5
7C2
330
1A
100
AcDbEntity
  8
ZUWAKU
100
AcDbCircle
 10
46.64221301553675
 20
7.675000255216836
 30
0.0
 40
0.525
100
AcDbArc
 50
180.0
 51
270.0
  0
ARC
  5
7C3
330
1A
100
AcDbEntity
  8
ZUWAKU
100
AcDbCircle
 10
42.96721301553668
 20
7.675000255216836
 30
0.0
 40
0.525
100
AcDbArc
 50
270.0
 51
0.0
  0
ARC
  5
7C4
330
1A
100
AcDbEntity
  8
ZUWAKU
100
AcDbCircle
 10
46.64221301553675
 20
9.425000255216836
 30
0.0
 40
0.525
100
AcDbArc
 50
90.0
 51
180.0
  0
LINE
  5
7C5
330
1A
100
AcDbEntity
  8
ZUWAKU
100
AcDbLine
 10
46.64221301553675
 20
9.950000255216835
 30
0.0
 11
49.61721301553666
 21
9.950000255216835
 31
0.0
  0
LINE
  5
7C6
330
1A
100
AcDbEntity
  8
ZUWAKU
100
AcDbLine
 10
46.64221301553675
 20
7.150000255216838
 30
0.0
 11
50.14221301553675
 21
7.150000255216838
 31
0.0
  0
LINE
  5
7C7
330
1A
100
AcDbEntity
  8
ZUWAKU
100
AcDbLine
 10
46.82236453455323
 20
15.66494974887801
 30
0.0
 11
49.7321625091979
 21
12.75515177423335
 31
0.0
  0
LINE
  5
7C8
330
1A
100
AcDbEntity
  8
ZUWAKU
100
AcDbLine
 10
52.94221301553671
 20
9.950000255216835
 30
0.0
 11
52.94221301553671
 21
11.76520228057218
 31
0.0
  0
ARC
  5
7C9
330
1A
100
AcDbEntity
  8
ZUWAKU
100
AcDbCircle
 10
48.74221301553666
 20
11.76520228057214
 30
0.0
 40
4.199999999999999
100
AcDbArc
 50
0.0
 51
45.0
  0
ARC
  5
7CA
330
1A
100
AcDbEntity
  8
ZUWAKU
100
AcDbCircle
 10
58.89221301553675
 20
11.00000025521683
 30
0.0
 40
1.049999999999999
100
AcDbArc
 50
180.0
 51
270.0
  0
ARC
  5
7CB
330
1A
100
AcDbEntity
  8
ZUWAKU
100
AcDbCircle
 10
61.34221301553669
 20
9.950000255216835
 30
0.0
 40
2.799999999999999
100
AcDbArc
 50
270.0
 51
0.0
  0
LINE
  5
7CC
330
1A
100
AcDbEntity
  8
ZUWAKU
100
AcDbLine
 10
66.76721301553675
 20
7.150000255216838
 30
0.0
 11
68.51721301553675
 21
7.150000255216838
 31
0.0
  0
ARC
  5
7CD
330
1A
100
AcDbEntity
  8
ZUWAKU
100
AcDbCircle
 10
66.76721301553675
 20
7.675000255216836
 30
0.0
 40
0.525
100
AcDbArc
 50
180.0
 51
270.0
  0
ARC
  5
7CE
330
1A
100
AcDbEntity
  8
ZUWAKU
100
AcDbCircle
 10
60.29221301553673
 20
11.00000025521683
 30
0.0
 40
1.049999999999999
100
AcDbArc
 50
270.0
 51
0.0
  0
ARC
  5
7CF
330
1A
100
AcDbEntity
  8
ZUWAKU
100
AcDbCircle
 10
68.51721301553675
 20
7.675000255216836
 30
0.0
 40
0.525
100
AcDbArc
 50
270.0
 51
0.0
  0
LINE
  5
7D0
330
1A
100
AcDbEntity
  8
ZUWAKU
100
AcDbLine
 10
42.96721301553668
 20
23.25000025521684
 30
0.0
 11
41.21721301553669
 21
23.25000025521684
 31
0.0
  0
ARC
  5
7D1
330
1A
100
AcDbEntity
  8
ZUWAKU
100
AcDbCircle
 10
32.11721301553666
 20
22.72500025521683
 30
0.0
 40
0.525
100
AcDbArc
 50
0.0
 51
90.0
  0
LINE
  5
7D2
330
1A
100
AcDbEntity
  8
ZUWAKU
100
AcDbLine
 10
32.11721301553666
 20
23.25000025521684
 30
0.0
 11
30.36721301553666
 21
23.25000025521684
 31
0.0
  0
ARC
  5
7D3
330
1A
100
AcDbEntity
  8
ZUWAKU
100
AcDbCircle
 10
26.86721301553666
 20
22.72500025521683
 30
0.0
 40
0.525
100
AcDbArc
 50
0.0
 51
90.0
  0
ARC
  5
7D4
330
1A
100
AcDbEntity
  8
ZUWAKU
100
AcDbCircle
 10
30.36721301553666
 20
22.72500025521683
 30
0.0
 40
0.525
100
AcDbArc
 50
90.0
 51
180.0
  0
ARC
  5
7D5
330
1A
100
AcDbEntity
  8
ZUWAKU
100
AcDbCircle
 10
26.86721301553666
 20
20.97500025521683
 30
0.0
 40
0.525
100
AcDbArc
 50
270.0
 51
0.0
  0
LINE
  5
7D6
330
1A
100
AcDbEntity
  8
ZUWAKU
100
AcDbLine
 10
27.39221301553675
 20
22.72500025521683
 30
0.0
 11
27.39221301553675
 21
20.97500025521683
 31
0.0
  0
ARC
  5
7D7
330
1A
100
AcDbEntity
  8
ZUWAKU
100
AcDbCircle
 10
41.21721301553669
 20
22.72500025521683
 30
0.0
 40
0.525
100
AcDbArc
 50
90.0
 51
180.0
  0
LINE
  5
7D8
330
1A
100
AcDbEntity
  8
ZUWAKU
100
AcDbLine
 10
36.17697885204802
 20
23.25000025521684
 30
0.0
 11
37.87586823165702
 21
23.25000025521684
 31
0.0
  0
ARC
  5
7D9
330
1A
100
AcDbEntity
  8
ZUWAKU
100
AcDbCircle
 10
37.87586823165702
 20
22.72500025521683
 30
0.0
 40
0.525
100
AcDbArc
 50
342.4744316262769
 51
90.0
  0
LINE
  5
7DA
330
1A
100
AcDbEntity
  8
ZUWAKU
100
AcDbLine
 10
38.37649913085249
 20
22.56690628704987
 30
0.0
 11
37.31485949771467
 21
19.20504744878026
 31
0.0
  0
ARC
  5
7DB
330
1A
100
AcDbEntity
  8
ZUWAKU
100
AcDbCircle
 10
36.17697885204802
 20
22.72500025521683
 30
0.0
 40
0.525
100
AcDbArc
 50
90.0
 51
162.4744316262769
  0
LINE
  5
7DC
330
1A
100
AcDbEntity
  8
ZUWAKU
100
AcDbLine
 10
48.39221301553675
 20
23.25000025521684
 30
0.0
 11
51.89221301553676
 21
23.25000025521684
 31
0.0
  0
LINE
  5
7DD
330
1A
100
AcDbEntity
  8
ZUWAKU
100
AcDbLine
 10
51.89221301553676
 20
20.45000025521683
 30
0.0
 11
48.91721301553673
 21
20.45000025521683
 31
0.0
  0
ARC
  5
7DE
330
1A
100
AcDbEntity
  8
ZUWAKU
100
AcDbCircle
 10
48.91721301553673
 20
19.92500025521683
 30
0.0
 40
0.525
100
AcDbArc
 50
90.0
 51
180.0
  0
LINE
  5
7DF
330
1A
100
AcDbEntity
  8
ZUWAKU
100
AcDbLine
 10
48.39221301553675
 20
19.92500025521683
 30
0.0
 11
48.39221301553675
 21
18.63479822986149
 31
0.0
  0
ARC
  5
7E0
330
1A
100
AcDbEntity
  8
ZUWAKU
100
AcDbCircle
 10
42.96721301553668
 20
22.72500025521683
 30
0.0
 40
0.525
100
AcDbArc
 50
0.0
 51
90.0
  0
LINE
  5
7E1
330
1A
100
AcDbEntity
  8
ZUWAKU
100
AcDbLine
 10
45.59221301553669
 20
20.45000025521683
 30
0.0
 11
45.59221301553669
 21
18.63479822986149
 31
0.0
  0
ARC
  5
7E2
330
1A
100
AcDbEntity
  8
ZUWAKU
100
AcDbCircle
 10
48.39221301553675
 20
20.45000025521683
 30
0.0
 40
2.799999999999999
100
AcDbArc
 50
90.0
 51
180.0
  0
ARC
  5
7E3
330
1A
100
AcDbEntity
  8
ZUWAKU
100
AcDbCircle
 10
57.31721301553671
 20
22.72500025521683
 30
0.0
 40
0.525
100
AcDbArc
 50
0.0
 51
90.0
  0
ARC
  5
7E4
330
1A
100
AcDbEntity
  8
ZUWAKU
100
AcDbCircle
 10
55.56721301553671
 20
22.72500025521683
 30
0.0
 40
0.525
100
AcDbArc
 50
90.0
 51
180.0
  0
LINE
  5
7E5
330
1A
100
AcDbEntity
  8
ZUWAKU
100
AcDbLine
 10
57.31721301553671
 20
23.25000025521684
 30
0.0
 11
55.56721301553671
 21
23.25000025521684
 31
0.0
  0
ARC
  5
7E6
330
1A
100
AcDbEntity
  8
ZUWAKU
100
AcDbCircle
 10
51.89221301553676
 20
22.72500025521683
 30
0.0
 40
0.525
100
AcDbArc
 50
0.0
 51
90.0
  0
ARC
  5
7E7
330
1A
100
AcDbEntity
  8
ZUWAKU
100
AcDbCircle
 10
51.89221301553676
 20
20.97500025521683
 30
0.0
 40
0.525
100
AcDbArc
 50
270.0
 51
0.0
  0
LINE
  5
7E8
330
1A
100
AcDbEntity
  8
ZUWAKU
100
AcDbLine
 10
52.41721301553673
 20
22.72500025521683
 30
0.0
 11
52.41721301553673
 21
20.97500025521683
 31
0.0
  0
LINE
  5
7E9
330
1A
100
AcDbEntity
  8
ZUWAKU
100
AcDbLine
 10
68.51721301553675
 20
23.25000025521684
 30
0.0
 11
66.76721301553675
 21
23.25000025521684
 31
0.0
  0
ARC
  5
7EA
330
1A
100
AcDbEntity
  8
ZUWAKU
100
AcDbCircle
 10
66.76721301553675
 20
22.72500025521683
 30
0.0
 40
0.525
100
AcDbArc
 50
90.0
 51
180.0
  0
ARC
  5
7EB
330
1A
100
AcDbEntity
  8
ZUWAKU
100
AcDbCircle
 10
63.61721301553666
 20
22.72500025521683
 30
0.0
 40
0.525
100
AcDbArc
 50
0.0
 51
90.0
  0
LINE
  5
7EC
330
1A
100
AcDbEntity
  8
ZUWAKU
100
AcDbLine
 10
63.61721301553666
 20
23.25000025521684
 30
0.0
 11
61.86721301553666
 21
23.25000025521684
 31
0.0
  0
ARC
  5
7ED
330
1A
100
AcDbEntity
  8
ZUWAKU
100
AcDbCircle
 10
61.86721301553666
 20
22.72500025521683
 30
0.0
 40
0.525
100
AcDbArc
 50
90.0
 51
180.0
  0
ARC
  5
7EE
330
1A
100
AcDbEntity
  8
ZUWAKU
100
AcDbCircle
 10
68.51721301553675
 20
22.72500025521683
 30
0.0
 40
0.525
100
AcDbArc
 50
0.0
 51
90.0
  0
TEXT
  5
7EF
330
1A
100
AcDbEntity
  8
MOJI
100
AcDbText
 10
239.8272035416066
 20
3.204921312624254
 30
0.0
 40
5.599999999999999
  1
ＲＶ１０５－０－３０
 41
0.9
  7
ｽﾀｲﾙ1
100
AcDbText
  0
TEXT
  5
7F0
330
1A
100
AcDbEntity
  8
MOJI
100
AcDbText
 10
239.8272035416066
 20
18.00492131262421
 30
0.0
 40
5.599999999999999
  1
ブラケット正面打（吊）固定式
 41
0.9
  7
ｽﾀｲﾙ1
100
AcDbText
  0
LINE
  5
7F1
330
1A
100
AcDbEntity
  8
ZUWAKU
100
AcDbLine
 10
208.2466021508234
 20
30.00000025521683
 30
0.0
 11
208.2466021508234
 21
0.8000002552169007
 31
0.0
  0
LINE
  5
7F2
330
1A
100
AcDbEntity
  8
ZUWAKU
100
AcDbLine
 10
208.6466021508233
 20
30.00000025521683
 30
0.0
 11
208.6466021508235
 21
0.8000002552169007
 31
0.0
  0
LINE
  5
7F3
330
1A
100
AcDbEntity
  8
ZUWAKU
100
AcDbLine
 10
208.4466021508233
 20
30.00000025521683
 30
0.0
 11
208.4466021508235
 21
0.8000002552169007
 31
0.0
  0
TEXT
  5
7F4
330
1A
100
AcDbEntity
  8
ZUWAKU
100
AcDbText
 10
209.7240471730331
 20
9.65535679360245
 30
0.0
 40
4.0
  1
サイズ
 41
0.9
  7
ｽﾀｲﾙ1
100
AcDbText
  0
TEXT
  5
7F5
330
1A
100
AcDbEntity
  8
ZUWAKU
100
AcDbText
 10
209.7240471730328
 20
24.05535679360241
 30
0.0
 40
4.0
  1
品名
 41
0.9
  7
ｽﾀｲﾙ1
100
AcDbText
  0
LINE
  5
7F6
330
1A
100
AcDbEntity
  8
ZUWAKU
100
AcDbLine
 10
648.8172033709597
 20
15.20000025521686
 30
0.0
 11
697.2490114092968
 21
15.20000025521686
 31
0.0
  0
LINE
  5
7F7
330
1A
100
AcDbEntity
  8
ZUWAKU
100
AcDbLine
 10
648.81720337096
 20
15.40000025521687
 30
0.0
 11
697.2490114092968
 21
15.40000025521686
 31
0.0
  0
LINE
  5
7F8
330
1A
100
AcDbEntity
  8
ZUWAKU
100
AcDbLine
 10
648.8172033709597
 20
15.60000025521686
 30
0.0
 11
697.2490114092968
 21
15.60000025521686
 31
0.0
  0
TEXT
  5
7F9
330
1A
100
AcDbEntity
  8
ZUWAKU
100
AcDbText
 10
658.2039385480579
 20
18.00492131262421
 30
0.0
 40
5.599999999999999
  1
　　．　　．　　
 41
0.9
  7
ｽﾀｲﾙ1
100
AcDbText
  0
LINE
  5
7FA
330
1A
100
AcDbEntity
  8
ZUWAKU
100
AcDbLine
 10
505.1991803588964
 20
15.20000025521687
 30
0.0
 11
552.526956626868
 21
15.20000025521687
 31
0.0
  0
LINE
  5
7FB
330
1A
100
AcDbEntity
  8
ZUWAKU
100
AcDbLine
 10
505.1991803588964
 20
15.40000025521686
 30
0.0
 11
552.526956626868
 21
15.40000025521686
 31
0.0
  0
LINE
  5
7FC
330
1A
100
AcDbEntity
  8
ZUWAKU
100
AcDbLine
 10
505.1991803588964
 20
15.60000025521686
 30
0.0
 11
552.526956626868
 21
15.60000025521686
 31
0.0
  0
TEXT
  5
7FD
330
1A
100
AcDbEntity
  8
MOJI
100
AcDbText
 10
464.5946268639945
 20
11.94261797687681
 30
0.0
 40
5.599999999999999
  1
ＬＨ５５□
 41
0.9
  7
ｽﾀｲﾙ1
100
AcDbText
  0
LINE
  5
7FE
330
1A
100
AcDbEntity
  8
ZUWAKU
100
AcDbLine
 10
447.6243648317468
 20
30.00000025521683
 30
0.0
 11
447.624364831747
 21
0.8000002552169007
 31
0.0
  0
LINE
  5
7FF
330
1A
100
AcDbEntity
  8
ZUWAKU
100
AcDbLine
 10
447.8243648317468
 20
30.00000025521683
 30
0.0
 11
447.824364831747
 21
0.8000002552169007
 31
0.0
  0
LINE
  5
800
330
1A
100
AcDbEntity
  8
ZUWAKU
100
AcDbLine
 10
447.4243648317469
 20
30.00000025521683
 30
0.0
 11
447.4243648317469
 21
0.8000002552169007
 31
0.0
  0
TEXT
  5
801
330
1A
100
AcDbEntity
  8
MOJI
100
AcDbText
 10
528.0409088330684
 20
18.00492131262421
 30
0.0
 40
5.599999999999999
  1
Ａ３
 41
0.9
  7
ｽﾀｲﾙ1
100
AcDbText
  0
LINE
  5
802
330
1A
100
AcDbEntity
  8
ZUWAKU
100
AcDbLine
 10
504.9991803588964
 20
30.00000025521683
 30
0.0
 11
504.9991803588966
 21
0.8000002552169007
 31
0.0
  0
LINE
  5
803
330
1A
100
AcDbEntity
  8
ZUWAKU
100
AcDbLine
 10
505.1991803588964
 20
30.00000025521683
 30
0.0
 11
505.1991803588967
 21
0.8000002552169007
 31
0.0
  0
LINE
  5
804
330
1A
100
AcDbEntity
  8
ZUWAKU
100
AcDbLine
 10
504.7991803588965
 20
30.00000025521683
 30
0.0
 11
504.7991803588965
 21
0.8000002552169007
 31
0.0
  0
TEXT
  5
805
330
1A
100
AcDbEntity
  8
ZUWAKU
100
AcDbText
 10
462.6937625162627
 20
2.614071166356325
 30
0.0
 40
3.0
  1
□には色品番が入ります
 41
0.9
  7
ｽﾀｲﾙ1
100
AcDbText
  0
TEXT
  5
806
330
1A
100
AcDbEntity
  8
ZUWAKU
100
AcDbText
 10
506.6766253811063
 20
9.65535679360245
 30
0.0
 40
4.0
  1
縮尺
 41
0.9
  7
ｽﾀｲﾙ1
100
AcDbText
  0
TEXT
  5
807
330
1A
100
AcDbEntity
  8
MOJI
100
AcDbText
 10
528.0409088330684
 20
3.204921312624254
 30
0.0
 40
5.599999999999999
  1
１/２
 41
0.9
  7
ｽﾀｲﾙ1
100
AcDbText
  0
TEXT
  5
808
330
1A
100
AcDbEntity
  8
ZUWAKU
100
AcDbText
 10
449.3018098539564
 20
24.05535679360241
 30
0.0
 40
4.0
  1
品番
 41
0.9
  7
ｽﾀｲﾙ1
100
AcDbText
  0
TEXT
  5
809
330
1A
100
AcDbEntity
  8
ZUWAKU
100
AcDbText
 10
506.676625381106
 20
24.05535679360241
 30
0.0
 40
4.0
  1
用紙
 41
0.9
  7
ｽﾀｲﾙ1
100
AcDbText
  0
LINE
  5
80A
330
1A
100
AcDbEntity
  8
ZUWAKU
100
AcDbLine
 10
648.6172033709599
 20
30.00000025521683
 30
0.0
 11
648.6172033709602
 21
0.8000002552169007
 31
0.0
  0
LINE
  5
80B
330
1A
100
AcDbEntity
  8
ZUWAKU
100
AcDbLine
 10
648.81720337096
 20
30.00000025521683
 30
0.0
 11
648.8172033709602
 21
0.8000002552169007
 31
0.0
  0
LINE
  5
80C
330
1A
100
AcDbEntity
  8
ZUWAKU
100
AcDbLine
 10
648.4172033709601
 20
30.00000025521683
 30
0.0
 11
648.4172033709601
 21
0.8000002552169007
 31
0.0
  0
LINE
  5
80D
330
1A
100
AcDbEntity
  8
ZUWAKU
100
AcDbLine
 10
552.7269566268678
 20
30.00000025521683
 30
0.0
 11
552.726956626868
 21
0.8000002552169007
 31
0.0
  0
LINE
  5
80E
330
1A
100
AcDbEntity
  8
ZUWAKU
100
AcDbLine
 10
552.9269566268679
 20
30.00000025521683
 30
0.0
 11
552.9269566268681
 21
0.8000002552169007
 31
0.0
  0
LINE
  5
80F
330
1A
100
AcDbEntity
  8
ZUWAKU
100
AcDbLine
 10
552.526956626868
 20
30.00000025521683
 30
0.0
 11
552.526956626868
 21
0.8000002552169007
 31
0.0
  0
TEXT
  5
810
330
1A
100
AcDbEntity
  8
ZUWAKU
100
AcDbText
 10
650.2946483931696
 20
24.05535679360241
 30
0.0
 40
4.0
  1
DATE
 41
0.9
  7
ｽﾀｲﾙ1
100
AcDbText
  0
LINE
  5
811
330
1A
100
AcDbEntity
  8
ZUWAKU
100
AcDbLine
 10
697.2490114092968
 20
30.00000025521683
 30
0.0
 11
697.2490114092968
 21
0.8000002552169007
 31
0.0
  0
LINE
  5
812
330
1A
100
AcDbEntity
  8
ZUWAKU
100
AcDbLine
 10
697.4490114092969
 20
30.00000025521683
 30
0.0
 11
697.4490114092969
 21
0.8000002552169007
 31
0.0
  0
LINE
  5
813
330
1A
100
AcDbEntity
  8
ZUWAKU
100
AcDbLine
 10
697.6490114092967
 20
30.00000025521683
 30
0.0
 11
697.6490114092968
 21
0.8000002552169007
 31
0.0
  0
LINE
  5
814
330
1A
100
AcDbEntity
  8
ZUWAKU
100
AcDbLine
 10
697.8490114092967
 20
30.00000025521683
 30
0.0
 11
697.8490114092969
 21
0.8000002552169007
 31
0.0
  0
TEXT
  5
815
330
1A
100
AcDbEntity
  8
ZUWAKU
100
AcDbText
 10
708.5280850529994
 20
17.55383959090363
 30
0.0
 40
6.0
  1
積水化学工業株式会社
 41
0.9
  7
ｽﾀｲﾙ1
100
AcDbText
  0
TEXT
  5
816
330
1A
100
AcDbEntity
  8
ZUWAKU
100
AcDbText
 10
708.5280850529994
 20
6.648840569070898
 30
0.0
 40
6.0
  1
建材事業部
 41
0.9
  7
ｽﾀｲﾙ1
100
AcDbText
  0
VIEWPORT
  5
22
330
17
100
AcDbEntity
 67
     1
  8
0
100
AcDbViewport
 10
313.6808219178082
 20
148.5
 30
0.0
 40
627.3616438356165
 41
297.0
 68
     2
 69
     1
1001
ACAD
1000
MVIEW
1002
{
1070
    16
1010
0.0
1020
0.0
1030
0.0
1010
0.0
1020
0.0
1030
1.0
1040
0.0
1040
297.0
1040
313.6808219178082
1040
148.5
1040
50.0
1040
0.0
1040
0.0
1070
     0
1070
   100
1070
     1
1070
     0
1070
     0
1070
     0
1070
     0
1070
     0
1040
0.0
1040
0.0
1040
0.0
1040
1.0
1040
1.0
1040
10.0
1040
10.0
1070
     0
1002
{
1002
}
1002
}
  0
VIEWPORT
  5
64
330
17
100
AcDbEntity
 67
     1
  8
VIEWPORT
100
AcDbViewport
 10
210.0
 20
148.5
 30
0.0
 40
420.0
 41
297.0
 68
     1
 69
     2
1001
ACAD
1000
MVIEW
1002
{
1070
    16
1010
0.0
1020
0.0
1030
0.0
1010
0.0
1020
0.0
1030
1.0
1040
0.0
1040
605.8799999999998
1040
420.0
1040
297.0
1040
50.0
1040
0.0
1040
0.0
1070
     0
1070
   100
1070
     1
1070
     0
1070
     0
1070
     0
1070
     0
1070
     0
1040
0.0
1040
0.0
1040
0.0
1040
10.0
1040
10.0
1040
0.0
1040
0.0
1070
     0
1002
{
1002
}
1002
}
  0
ENDSEC
  0
SECTION
  2
OBJECTS
  0
DICTIONARY
  5
C
330
0
100
AcDbDictionary
  3
ACAD_GROUP
350
D
  3
ACAD_LAYOUT
350
637
  3
ACAD_MLINESTYLE
350
E
  3
ACAD_PLOTSETTINGS
350
638
  3
ACAD_PLOTSTYLENAME
350
635
  3
ACDBHEADERROUNDTRIPXREC
350
81F
  0
DICTIONARY
  5
698
330
1A
100
AcDbDictionary
280
     1
  3
ACAD_LAYOUTSELFREF
360
841
  0
DICTIONARY
  5
696
330
17
100
AcDbDictionary
280
     1
  3
ACAD_LAYOUTSELFREF
360
840
  0
DICTIONARY
  5
D
102
{ACAD_REACTORS
330
C
102
}
330
C
100
AcDbDictionary
  0
DICTIONARY
  5
637
102
{ACAD_REACTORS
330
C
102
}
330
C
100
AcDbDictionary
  0
DICTIONARY
  5
E
102
{ACAD_REACTORS
330
C
102
}
330
C
100
AcDbDictionary
  3
STANDARD
350
13
  0
DICTIONARY
  5
638
102
{ACAD_REACTORS
330
C
102
}
330
C
100
AcDbDictionary
  0
ACDBDICTIONARYWDFLT
  5
635
102
{ACAD_REACTORS
330
C
102
}
330
C
100
AcDbDictionary
281
     1
  3
Normal
350
636
100
AcDbDictionaryWithDefault
340
636
1001
ACAD
1000
TREAT_AS_HARD
1070
     0
  0
DICTIONARY
  5
81F
102
{ACAD_REACTORS
330
C
102
}
330
C
100
AcDbDictionary
  3
TSTACKALIGN
350
820
  3
TSTACKSIZE
350
821
  3
HYPERLINKBASE
350
822
  3
STYLESHEET
350
823
  3
LAYOUTDICT
350
824
  3
PLOTSETDICT
350
825
  3
PLOTSTYLNAMDICT
350
826
  3
LWETCUNION
350
827
  3
INSUNITS
350
828
  3
CEPSNTYPE
350
829
  3
FINGERPRINTGUID
350
82A
  3
VERSIONGUID
350
82B
  3
PSVPSCALE
350
82C
  3
DIMSTYLEDATA
350
82D
  3
PUCSORTHOREF
350
82E
  3
PUCSORTHOVIEW
350
82F
  3
PUCSBASE
350
830
  3
PUCSORGTOP
350
831
  3
PUCSORGBOTTOM
350
832
  3
PUCSORGLEFT
350
833
  3
PUCSORGRIGHT
350
834
  3
PUCSORGFRONT
350
835
  3
PUCSORGBACK
350
836
  3
UCSORTHOREF
350
837
  3
UCSORTHOVIEW
350
838
  3
UCSBASE
350
839
  3
UCSORGTOP
350
83A
  3
UCSORGBOTTOM
350
83B
  3
UCSORGLEFT
350
83C
  3
UCSORGRIGHT
350
83D
  3
UCSORGFRONT
350
83E
  3
UCSORGBACK
350
83F
  0
XRECORD
  5
841
102
{ACAD_REACTORS
330
698
102
}
330
698
100
AcDbXrecord
340
1A
  0
XRECORD
  5
840
102
{ACAD_REACTORS
330
696
102
}
330
696
100
AcDbXrecord
340
17
  0
MLINESTYLE
  5
13
102
{ACAD_REACTORS
330
E
102
}
330
E
100
AcDbMlineStyle
  2
STANDARD
 70
     0
  3

 62
     0
 51
90.0
 52
90.0
 71
     2
 49
0.5
 62
   256
  6
BYLAYER
 49
-0.5
 62
   256
  6
BYLAYER
  0
ACDBPLACEHOLDER
  5
636
102
{ACAD_REACTORS
330
635
102
}
330
635
100
AcDbPlaceHolder
280
     0
  0
XRECORD
  5
820
102
{ACAD_REACTORS
330
81F
102
}
330
81F
100
AcDbXrecord
 90
        1
  0
XRECORD
  5
821
102
{ACAD_REACTORS
330
81F
102
}
330
81F
100
AcDbXrecord
 90
       70
  0
XRECORD
  5
822
102
{ACAD_REACTORS
330
81F
102
}
330
81F
100
AcDbXrecord
  1

  0
XRECORD
  5
823
102
{ACAD_REACTORS
330
81F
102
}
330
81F
100
AcDbXrecord
  1
systemprinter.ctb
  0
XRECORD
  5
824
102
{ACAD_REACTORS
330
81F
102
}
330
81F
100
AcDbXrecord
340
637
  0
XRECORD
  5
825
102
{ACAD_REACTORS
330
81F
102
}
330
81F
100
AcDbXrecord
340
638
  0
XRECORD
  5
826
102
{ACAD_REACTORS
330
81F
102
}
330
81F
100
AcDbXrecord
340
635
  0
XRECORD
  5
827
102
{ACAD_REACTORS
330
81F
102
}
330
81F
100
AcDbXrecord
 90
    10781
  0
XRECORD
  5
828
102
{ACAD_REACTORS
330
81F
102
}
330
81F
100
AcDbXrecord
 90
        0
  0
XRECORD
  5
829
102
{ACAD_REACTORS
330
81F
102
}
330
81F
100
AcDbXrecord
 90
        0
  0
XRECORD
  5
82A
102
{ACAD_REACTORS
330
81F
102
}
330
81F
100
AcDbXrecord
  1
{D73F152D-1E22-416A-9876-539923FC3490}
  0
XRECORD
  5
82B
102
{ACAD_REACTORS
330
81F
102
}
330
81F
100
AcDbXrecord
  1
{2EF4AA6B-F47D-4AAA-B1B6-1336F41C529D}
  0
XRECORD
  5
82C
102
{ACAD_REACTORS
330
81F
102
}
330
81F
100
AcDbXrecord
 40
0.0
  0
XRECORD
  5
82D
102
{ACAD_REACTORS
330
81F
102
}
330
81F
100
AcDbXrecord
1000
DSTYLE
1002
{
1070
   341
340
6D
1070
   343
340
6D
1070
   344
340
6D
1070
   371
 70
    -1
1070
   372
 70
    -1
1002
}
  0
XRECORD
  5
82E
102
{ACAD_REACTORS
330
81F
102
}
330
81F
100
AcDbXrecord
340
0
  0
XRECORD
  5
82F
102
{ACAD_REACTORS
330
81F
102
}
330
81F
100
AcDbXrecord
 70
     0
  0
XRECORD
  5
830
102
{ACAD_REACTORS
330
81F
102
}
330
81F
100
AcDbXrecord
340
0
  0
XRECORD
  5
831
102
{ACAD_REACTORS
330
81F
102
}
330
81F
100
AcDbXrecord
 10
0.0
 20
0.0
 30
0.0
  0
XRECORD
  5
832
102
{ACAD_REACTORS
330
81F
102
}
330
81F
100
AcDbXrecord
 10
0.0
 20
0.0
 30
0.0
  0
XRECORD
  5
833
102
{ACAD_REACTORS
330
81F
102
}
330
81F
100
AcDbXrecord
 10
0.0
 20
0.0
 30
0.0
  0
XRECORD
  5
834
102
{ACAD_REACTORS
330
81F
102
}
330
81F
100
AcDbXrecord
 10
0.0
 20
0.0
 30
0.0
  0
XRECORD
  5
835
102
{ACAD_REACTORS
330
81F
102
}
330
81F
100
AcDbXrecord
 10
0.0
 20
0.0
 30
0.0
  0
XRECORD
  5
836
102
{ACAD_REACTORS
330
81F
102
}
330
81F
100
AcDbXrecord
 10
0.0
 20
0.0
 30
0.0
  0
XRECORD
  5
837
102
{ACAD_REACTORS
330
81F
102
}
330
81F
100
AcDbXrecord
340
0
  0
XRECORD
  5
838
102
{ACAD_REACTORS
330
81F
102
}
330
81F
100
AcDbXrecord
 70
     0
  0
XRECORD
  5
839
102
{ACAD_REACTORS
330
81F
102
}
330
81F
100
AcDbXrecord
340
0
  0
XRECORD
  5
83A
102
{ACAD_REACTORS
330
81F
102
}
330
81F
100
AcDbXrecord
 10
0.0
 20
0.0
 30
0.0
  0
XRECORD
  5
83B
102
{ACAD_REACTORS
330
81F
102
}
330
81F
100
AcDbXrecord
 10
0.0
 20
0.0
 30
0.0
  0
XRECORD
  5
83C
102
{ACAD_REACTORS
330
81F
102
}
330
81F
100
AcDbXrecord
 10
0.0
 20
0.0
 30
0.0
  0
XRECORD
  5
83D
102
{ACAD_REACTORS
330
81F
102
}
330
81F
100
AcDbXrecord
 10
0.0
 20
0.0
 30
0.0
  0
XRECORD
  5
83E
102
{ACAD_REACTORS
330
81F
102
}
330
81F
100
AcDbXrecord
 10
0.0
 20
0.0
 30
0.0
  0
XRECORD
  5
83F
102
{ACAD_REACTORS
330
81F
102
}
330
81F
100
AcDbXrecord
 10
0.0
 20
0.0
 30
0.0
  0
ENDSEC
  0
EOF
