  0
SECTION
  2
HEADER
  9
$ACADVER
  1
AC1014
  9
$ACADMAINTVER
 70
     9
  9
$DWGCODEPAGE
  3
ANSI_932
  9
$INSBASE
 10
0.0
 20
0.0
 30
0.0
  9
$EXTMIN
 10
-0.0256328098773793
 20
-0.0181260584133725
 30
-0.0015258207003583
  9
$EXTMAX
 10
797.6000995626677
 20
551.6452344880035
 30
0.0000000349246037
  9
$LIMMIN
 10
0.0
 20
0.0
  9
$LIMMAX
 10
840.0
 20
594.0
  9
$ORTHOMODE
 70
     0
  9
$REGENMODE
 70
     1
  9
$FILLMODE
 70
     1
  9
$QTEXTMODE
 70
     0
  9
$MIRRTEXT
 70
     1
  9
$DRAGMODE
 70
     2
  9
$LTSCALE
 40
2.0
  9
$OSMODE
 70
    35
  9
$ATTMODE
 70
     1
  9
$TEXTSIZE
 40
5.0
  9
$TRACEWID
 40
1.0
  9
$TEXTSTYLE
  7
STANDARD
  9
$CLAYER
  8
SUNPOU
  9
$CELTYPE
  6
BYLAYER
  9
$CECOLOR
 62
   256
  9
$CELTSCALE
 40
1.0
  9
$DELOBJ
 70
     1
  9
$DISPSILH
 70
     0
  9
$DIMSCALE
 40
1.0
  9
$DIMASZ
 40
7.0
  9
$DIMEXO
 40
6.0
  9
$DIMDLI
 40
14.0
  9
$DIMRND
 40
0.0
  9
$DIMDLE
 40
0.0
  9
$DIMEXE
 40
3.0
  9
$DIMTP
 40
0.0
  9
$DIMTM
 40
0.0
  9
$DIMTXT
 40
6.0
  9
$DIMCEN
 40
150.0
  9
$DIMTSZ
 40
0.0
  9
$DIMTOL
 70
     0
  9
$DIMLIM
 70
     0
  9
$DIMTIH
 70
     0
  9
$DIMTOH
 70
     0
  9
$DIMSE1
 70
     0
  9
$DIMSE2
 70
     0
  9
$DIMTAD
 70
     3
  9
$DIMZIN
 70
     0
  9
$DIMBLK
  1

  9
$DIMASO
 70
     1
  9
$DIMSHO
 70
     1
  9
$DIMPOST
  1

  9
$DIMAPOST
  1

  9
$DIMALT
 70
     0
  9
$DIMALTD
 70
     2
  9
$DIMALTF
 40
25.4
  9
$DIMLFAC
 40
1.0
  9
$DIMTOFL
 70
     1
  9
$DIMTVP
 40
0.0
  9
$DIMTIX
 70
     0
  9
$DIMSOXD
 70
     0
  9
$DIMSAH
 70
     1
  9
$DIMBLK1
  1
OPEN
  9
$DIMBLK2
  1
OPEN
  9
$DIMSTYLE
  2
STANDARD
  9
$DIMCLRD
 70
   256
  9
$DIMCLRE
 70
   256
  9
$DIMCLRT
 70
   256
  9
$DIMTFAC
 40
1.0
  9
$DIMGAP
 40
2.0
  9
$DIMJUST
 70
     0
  9
$DIMSD1
 70
     0
  9
$DIMSD2
 70
     0
  9
$DIMTOLJ
 70
     1
  9
$DIMTZIN
 70
     0
  9
$DIMALTZ
 70
     0
  9
$DIMALTTZ
 70
     0
  9
$DIMFIT
 70
     3
  9
$DIMUPT
 70
     0
  9
$DIMUNIT
 70
     2
  9
$DIMDEC
 70
     0
  9
$DIMTDEC
 70
     0
  9
$DIMALTU
 70
     2
  9
$DIMALTTD
 70
     2
  9
$DIMTXSTY
  7
STANDARD
  9
$DIMAUNIT
 70
     0
  9
$LUNITS
 70
     2
  9
$LUPREC
 70
     4
  9
$SKETCHINC
 40
1.0
  9
$FILLETRAD
 40
20.0
  9
$AUNITS
 70
     0
  9
$AUPREC
 70
     0
  9
$MENU
  1
.
  9
$ELEVATION
 40
0.0
  9
$PELEVATION
 40
0.0
  9
$THICKNESS
 40
0.0
  9
$LIMCHECK
 70
     0
  9
$BLIPMODE
 70
     0
  9
$CHAMFERA
 40
20.0
  9
$CHAMFERB
 40
20.0
  9
$CHAMFERC
 40
40.0
  9
$CHAMFERD
 40
0.0
  9
$SKPOLY
 70
     0
  9
$TDCREATE
 40
2451190.428851273
  9
$TDUPDATE
 40
2453802.481782766
  9
$TDINDWG
 40
0.0298103241
  9
$TDUSRTIMER
 40
0.0298103241
  9
$USRTIMER
 70
     1
  9
$ANGBASE
 50
0.0
  9
$ANGDIR
 70
     0
  9
$PDMODE
 70
     0
  9
$PDSIZE
 40
0.0
  9
$PLINEWID
 40
0.0
  9
$COORDS
 70
     1
  9
$SPLFRAME
 70
     0
  9
$SPLINETYPE
 70
     6
  9
$SPLINESEGS
 70
     8
  9
$ATTDIA
 70
     0
  9
$ATTREQ
 70
     1
  9
$HANDLING
 70
 10241
  9
$HANDSEED
  5
A13
  9
$SURFTAB1
 70
     6
  9
$SURFTAB2
 70
     6
  9
$SURFTYPE
 70
     6
  9
$SURFU
 70
     6
  9
$SURFV
 70
     6
  9
$UCSNAME
  2

  9
$UCSORG
 10
0.0
 20
0.0
 30
0.0
  9
$UCSXDIR
 10
1.0
 20
0.0
 30
0.0
  9
$UCSYDIR
 10
0.0
 20
1.0
 30
0.0
  9
$PUCSNAME
  2

  9
$PUCSORG
 10
0.0
 20
0.0
 30
0.0
  9
$PUCSXDIR
 10
1.0
 20
0.0
 30
0.0
  9
$PUCSYDIR
 10
0.0
 20
1.0
 30
0.0
  9
$USERI1
 70
     0
  9
$USERI2
 70
     0
  9
$USERI3
 70
     0
  9
$USERI4
 70
     0
  9
$USERI5
 70
     0
  9
$USERR1
 40
0.0
  9
$USERR2
 40
0.0
  9
$USERR3
 40
0.0
  9
$USERR4
 40
0.0
  9
$USERR5
 40
0.0
  9
$WORLDVIEW
 70
     1
  9
$SHADEDGE
 70
     3
  9
$SHADEDIF
 70
    70
  9
$TILEMODE
 70
     1
  9
$MAXACTVP
 70
    16
  9
$PINSBASE
 10
0.0
 20
0.0
 30
0.0
  9
$PLIMCHECK
 70
     0
  9
$PEXTMIN
 10
0.0
 20
0.0
 30
0.0
  9
$PEXTMAX
 10
420.0
 20
297.0
 30
0.0
  9
$PLIMMIN
 10
0.0
 20
0.0
  9
$PLIMMAX
 10
420.0
 20
297.0
  9
$UNITMODE
 70
     0
  9
$VISRETAIN
 70
     0
  9
$PLINEGEN
 70
     0
  9
$PSLTSCALE
 70
     1
  9
$TREEDEPTH
 70
  3020
  9
$PICKSTYLE
 70
     1
  9
$CMLSTYLE
  2
STANDARD
  9
$CMLJUST
 70
     0
  9
$CMLSCALE
 40
1.0
  9
$PROXYGRAPHICS
 70
     1
  9
$MEASUREMENT
 70
     1
  0
ENDSEC
  0
SECTION
  2
CLASSES
  0
CLASS
  1
ACDBDICTIONARYWDFLT
  2
AcDbDictionaryWithDefault
  3
AutoCAD 2000
 90
        0
280
     0
281
     0
  0
CLASS
  1
ACDBPLACEHOLDER
  2
AcDbPlaceHolder
  3
AutoCAD 2000
 90
        0
280
     0
281
     0
  0
CLASS
  1
LAYOUT
  2
AcDbLayout
  3
AutoCAD 2000
 90
        0
280
     0
281
     0
  0
CLASS
  1
LONG_TRANSACTION
  2
AcDbLongTransaction
  3
AutoCAD 2000
 90
        0
280
     0
281
     0
  0
CLASS
  1
LWPOLYLINE
  2
AcDbPolyline
  3
AutoCAD 2000
 90
        0
280
     0
281
     1
  0
CLASS
  1
HATCH
  2
AcDbHatch
  3
AutoCAD 2000
 90
        0
280
     0
281
     1
  0
CLASS
  1
XRECORD
  2
AcDbXrecord
  3
AutoCAD 2000
 90
        0
280
     0
281
     0
  0
CLASS
  1
LONG_TRANSACTION
  2
AcDbLongTransaction
  3
AutoCAD 2000
 90
        0
280
     0
281
     0
  0
CLASS
  1
LWPOLYLINE
  2
AcDbPolyline
  3
AutoCAD 2000
 90
        0
280
     0
281
     1
  0
CLASS
  1
HATCH
  2
AcDbHatch
  3
AutoCAD 2000
 90
        0
280
     0
281
     1
  0
CLASS
  1
XRECORD
  2
AcDbXrecord
  3
AutoCAD 2000
 90
        0
280
     0
281
     0
  0
CLASS
  1
LONG_TRANSACTION
  2
AcDbLongTransaction
  3
AutoCAD 2000
 90
        0
280
     0
281
     0
  0
CLASS
  1
LWPOLYLINE
  2
AcDbPolyline
  3
AutoCAD 2000
 90
        0
280
     0
281
     1
  0
CLASS
  1
HATCH
  2
AcDbHatch
  3
AutoCAD 2000
 90
        0
280
     0
281
     1
  0
CLASS
  1
XRECORD
  2
AcDbXrecord
  3
AutoCAD 2000
 90
        0
280
     0
281
     0
  0
ENDSEC
  0
SECTION
  2
TABLES
  0
TABLE
  2
VPORT
  5
8
330
0
100
AcDbSymbolTable
 70
     2
  0
VPORT
  5
9EF
330
8
100
AcDbSymbolTableRecord
100
AcDbViewportTableRecord
  2
*ACTIVE
 70
     0
 10
0.0
 20
0.0
 11
1.0
 21
1.0
 12
441.5994770062363
 22
276.4469712792838
 13
0.0
 23
0.0
 14
5.0
 24
5.0
 15
0.0
 25
0.0
 16
0.0
 26
0.0
 36
1.0
 17
0.0
 27
0.0
 37
0.0
 40
630.2515401556292
 41
1.795454545454545
 42
50.0
 43
0.0
 44
0.0
 50
0.0
 51
0.0
 71
     0
 72
   100
 73
     1
 74
     0
 75
     0
 76
     0
 77
     0
 78
     0
  0
ENDTAB
  0
TABLE
  2
LTYPE
  5
5
330
0
100
AcDbSymbolTable
 70
     3
  0
LTYPE
  5
14
330
5
100
AcDbSymbolTableRecord
100
AcDbLinetypeTableRecord
  2
BYBLOCK
 70
     0
  3

 72
    65
 73
     0
 40
0.0
  0
LTYPE
  5
15
330
5
100
AcDbSymbolTableRecord
100
AcDbLinetypeTableRecord
  2
BYLAYER
 70
     0
  3

 72
    65
 73
     0
 40
0.0
  0
LTYPE
  5
16
330
5
100
AcDbSymbolTableRecord
100
AcDbLinetypeTableRecord
  2
CONTINUOUS
 70
     0
  3
Solid line
 72
    65
 73
     0
 40
0.0
  0
LTYPE
  5
115
330
5
100
AcDbSymbolTableRecord
100
AcDbLinetypeTableRecord
  2
PHANTOM
 70
     0
  3
______  __  __  ______  __  __  ______  __  __ 
 72
    65
 73
     6
 40
2.5
 49
1.25
 74
     0
 49
-0.25
 74
     0
 49
0.25
 74
     0
 49
-0.25
 74
     0
 49
0.25
 74
     0
 49
-0.25
 74
     0
  0
LTYPE
  5
135
330
5
100
AcDbSymbolTableRecord
100
AcDbLinetypeTableRecord
  2
CENTER
 70
     0
  3
____ _ ____ _ ____ _ ____ _ ____ _ ____ _ ____ 
 72
    65
 73
     4
 40
2.0
 49
1.25
 74
     0
 49
-0.25
 74
     0
 49
0.25
 74
     0
 49
-0.25
 74
     0
  0
ENDTAB
  0
TABLE
  2
LAYER
  5
2
330
0
100
AcDbSymbolTable
 70
     9
  0
LAYER
  5
F
330
2
100
AcDbSymbolTableRecord
100
AcDbLayerTableRecord
  2
0
 70
     0
 62
     7
  6
CONTINUOUS
  0
LAYER
  5
62
330
2
100
AcDbSymbolTableRecord
100
AcDbLayerTableRecord
  2
VIEWPORT
 70
     0
 62
     7
  6
CONTINUOUS
  0
LAYER
  5
65
330
2
100
AcDbSymbolTableRecord
100
AcDbLayerTableRecord
  2
ZUWAKU
 70
     0
 62
     7
  6
CONTINUOUS
  0
LAYER
  5
14F
330
2
100
AcDbSymbolTableRecord
100
AcDbLayerTableRecord
  2
SEIHIN
 70
     0
 62
     3
  6
CONTINUOUS
  0
LAYER
  5
150
330
2
100
AcDbSymbolTableRecord
100
AcDbLayerTableRecord
  2
SUNPOU
 70
     0
 62
     4
  6
CONTINUOUS
  0
LAYER
  5
151
330
2
100
AcDbSymbolTableRecord
100
AcDbLayerTableRecord
  2
CENTER_L
 70
     0
 62
     1
  6
CENTER
  0
LAYER
  5
152
330
2
100
AcDbSymbolTableRecord
100
AcDbLayerTableRecord
  2
NOITOI
 70
     0
 62
     8
  6
PHANTOM
  0
LAYER
  5
153
330
2
100
AcDbSymbolTableRecord
100
AcDbLayerTableRecord
  2
DEFPOINTS
 70
     0
 62
     7
  6
CONTINUOUS
  0
LAYER
  5
878
330
2
100
AcDbSymbolTableRecord
100
AcDbLayerTableRecord
  2
MOJI
 70
     0
 62
     2
  6
CONTINUOUS
  0
ENDTAB
  0
TABLE
  2
STYLE
  5
3
330
0
100
AcDbSymbolTable
 70
     2
  0
STYLE
  5
10
330
3
100
AcDbSymbolTableRecord
100
AcDbTextStyleTableRecord
  2
STANDARD
 70
     0
 40
0.0
 41
1.0
 50
0.0
 71
     0
 42
5.0
  3
TXT
  4
bigfont.shx
  0
STYLE
  5
879
330
3
100
AcDbSymbolTableRecord
100
AcDbTextStyleTableRecord
  2
ｽﾀｲﾙ1
 70
     0
 40
0.0
 41
1.0
 50
0.0
 71
     0
 42
2.5
  3
MS PGothic.ttf
  4

1001
ACAD
1000
MS PGothic
1071
    32818
  0
ENDTAB
  0
TABLE
  2
VIEW
  5
6
330
0
100
AcDbSymbolTable
 70
     0
  0
ENDTAB
  0
TABLE
  2
UCS
  5
7
330
0
100
AcDbSymbolTable
 70
     0
  0
ENDTAB
  0
TABLE
  2
APPID
  5
9
330
0
100
AcDbSymbolTable
 70
     1
  0
APPID
  5
11
330
9
100
AcDbSymbolTableRecord
100
AcDbRegAppTableRecord
  2
ACAD
 70
     0
  0
ENDTAB
  0
TABLE
  2
DIMSTYLE
  5
A
330
0
100
AcDbSymbolTable
 70
     1
  0
DIMSTYLE
105
1D
102
{ACAD_REACTORS
330
2CB
330
455
330
491
330
4A0
330
4AF
330
4BE
330
4CC
330
4D9
330
51E
330
52B
330
539
330
68E
330
69D
330
6C5
330
6EC
330
766
102
}
330
A
100
AcDbSymbolTableRecord
100
AcDbDimStyleTableRecord
  2
STANDARD
 70
     0
  3

  4

  5

  6

  7

 40
1.0
 41
0.18
 42
0.0625
 43
0.38
 44
0.18
 45
0.0
 46
0.0
 47
0.0
 48
0.0
140
0.18
141
0.09
142
0.0
143
25.4
144
1.0
145
0.0
146
1.0
147
0.09
 71
     0
 72
     0
 73
     1
 74
     1
 75
     0
 76
     0
 77
     0
 78
     0
170
     0
171
     2
172
     0
173
     0
174
     0
175
     0
176
     0
177
     0
178
     0
270
     2
271
     4
272
     4
273
     2
274
     2
340
10
275
     0
280
     0
281
     0
282
     0
283
     1
284
     0
285
     0
286
     0
287
     3
288
     0
  0
ENDTAB
  0
TABLE
  2
BLOCK_RECORD
  5
1
330
0
100
AcDbSymbolTable
 70
    17
  0
BLOCK_RECORD
  5
1A
102
{ACAD_XDICTIONARY
360
836
102
}
330
1
100
AcDbSymbolTableRecord
100
AcDbBlockTableRecord
  2
*MODEL_SPACE
  0
BLOCK_RECORD
  5
17
102
{ACAD_XDICTIONARY
360
834
102
}
330
1
100
AcDbSymbolTableRecord
100
AcDbBlockTableRecord
  2
*PAPER_SPACE
  0
BLOCK_RECORD
  5
6D
330
1
100
AcDbSymbolTableRecord
100
AcDbBlockTableRecord
  2
_OPEN
  0
BLOCK_RECORD
  5
432
330
1
100
AcDbSymbolTableRecord
100
AcDbBlockTableRecord
  2
*D1
  0
BLOCK_RECORD
  5
449
330
1
100
AcDbSymbolTableRecord
100
AcDbBlockTableRecord
  2
*D2
  0
BLOCK_RECORD
  5
483
330
1
100
AcDbSymbolTableRecord
100
AcDbBlockTableRecord
  2
*D3
  0
BLOCK_RECORD
  5
492
330
1
100
AcDbSymbolTableRecord
100
AcDbBlockTableRecord
  2
*D4
  0
BLOCK_RECORD
  5
4A1
330
1
100
AcDbSymbolTableRecord
100
AcDbBlockTableRecord
  2
*D5
  0
BLOCK_RECORD
  5
4B2
330
1
100
AcDbSymbolTableRecord
100
AcDbBlockTableRecord
  2
*D6
  0
BLOCK_RECORD
  5
4C0
330
1
100
AcDbSymbolTableRecord
100
AcDbBlockTableRecord
  2
*D7
  0
BLOCK_RECORD
  5
4CD
330
1
100
AcDbSymbolTableRecord
100
AcDbBlockTableRecord
  2
*D8
  0
BLOCK_RECORD
  5
512
330
1
100
AcDbSymbolTableRecord
100
AcDbBlockTableRecord
  2
*D9
  0
BLOCK_RECORD
  5
51F
330
1
100
AcDbSymbolTableRecord
100
AcDbBlockTableRecord
  2
*D10
  0
BLOCK_RECORD
  5
52D
330
1
100
AcDbSymbolTableRecord
100
AcDbBlockTableRecord
  2
*D11
  0
BLOCK_RECORD
  5
682
330
1
100
AcDbSymbolTableRecord
100
AcDbBlockTableRecord
  2
*D12
  0
BLOCK_RECORD
  5
68F
330
1
100
AcDbSymbolTableRecord
100
AcDbBlockTableRecord
  2
*D13
  0
BLOCK_RECORD
  5
6B7
330
1
100
AcDbSymbolTableRecord
100
AcDbBlockTableRecord
  2
*D14
  0
BLOCK_RECORD
  5
6DE
330
1
100
AcDbSymbolTableRecord
100
AcDbBlockTableRecord
  2
*D15
  0
BLOCK_RECORD
  5
758
330
1
100
AcDbSymbolTableRecord
100
AcDbBlockTableRecord
  2
*D16
  0
ENDTAB
  0
ENDSEC
  0
SECTION
  2
BLOCKS
  0
BLOCK
  5
1B
330
1A
100
AcDbEntity
  8
0
100
AcDbBlockBegin
  2
*MODEL_SPACE
 70
     0
 10
0.0
 20
0.0
 30
0.0
  3
*MODEL_SPACE
  1

  0
ENDBLK
  5
1C
330
1A
100
AcDbEntity
  8
0
100
AcDbBlockEnd
  0
BLOCK
  5
18
330
17
100
AcDbEntity
 67
     1
  8
0
100
AcDbBlockBegin
  2
*PAPER_SPACE
 70
     0
 10
0.0
 20
0.0
 30
0.0
  3
*PAPER_SPACE
  1

  0
ENDBLK
  5
19
330
17
100
AcDbEntity
 67
     1
  8
0
100
AcDbBlockEnd
  0
BLOCK
  5
6E
330
6D
100
AcDbEntity
  8
0
100
AcDbBlockBegin
  2
_OPEN
 70
     0
 10
0.0
 20
0.0
 30
0.0
  3
_OPEN
  1

  0
LINE
  5
6F
330
6D
100
AcDbEntity
  8
0
  6
BYBLOCK
 62
     0
100
AcDbLine
 10
-1.0
 20
0.1666666666666666
 30
0.0
 11
0.0
 21
0.0
 31
0.0
  0
LINE
  5
70
330
6D
100
AcDbEntity
  8
0
  6
BYBLOCK
 62
     0
100
AcDbLine
 10
0.0
 20
0.0
 30
0.0
 11
-1.0
 21
-0.1666666666666666
 31
0.0
  0
LINE
  5
71
330
6D
100
AcDbEntity
  8
0
  6
BYBLOCK
 62
     0
100
AcDbLine
 10
0.0
 20
0.0
 30
0.0
 11
-1.0
 21
0.0
 31
0.0
  0
ENDBLK
  5
72
330
6D
100
AcDbEntity
  8
0
100
AcDbBlockEnd
  0
BLOCK
  5
43E
330
432
100
AcDbEntity
  8
0
100
AcDbBlockBegin
  2
*D1
 70
     1
 10
0.0
 20
0.0
 30
0.0
  3
*D1
  1

  0
LINE
  5
43F
330
432
100
AcDbEntity
  8
0
  6
BYBLOCK
 62
     4
100
AcDbLine
 10
397.2101035578542
 20
358.0718576882139
 30
0.0
 11
414.3883851996353
 21
358.0718576882139
 31
0.0
  0
LINE
  5
440
330
432
100
AcDbEntity
  8
0
  6
BYBLOCK
 62
     4
100
AcDbLine
 10
397.2101035578542
 20
308.0718576882138
 30
0.0
 11
414.3883851996353
 21
308.0718576882138
 31
0.0
  0
LINE
  5
441
330
432
100
AcDbEntity
  8
0
  6
BYBLOCK
 62
     4
100
AcDbLine
 10
411.3883851996352
 20
351.071857688214
 30
0.0
 11
411.3883851996352
 21
315.0718576882138
 31
0.0
  0
INSERT
  5
442
330
432
100
AcDbEntity
  8
0
  6
BYBLOCK
 62
     4
100
AcDbBlockReference
  2
_OPEN
 10
411.3883851996352
 20
358.0718576882139
 30
0.0
 41
7.0
 42
7.0
 43
7.0
 50
90.0
  0
INSERT
  5
443
330
432
100
AcDbEntity
  8
0
  6
BYBLOCK
 62
     4
100
AcDbBlockReference
  2
_OPEN
 10
411.3883851996352
 20
308.0718576882138
 30
0.0
 41
7.0
 42
7.0
 43
7.0
 50
270.0
  0
MTEXT
  5
444
330
432
100
AcDbEntity
  8
0
  6
BYBLOCK
 62
     4
100
AcDbMText
 10
406.3883851996353
 20
333.0718576882139
 30
0.0
 40
6.0
 41
0.0
 71
     5
 72
     5
  1
\A1;50
 11
0.0
 21
1.0
 31
0.0
1001
ACAD
1000
MTEXTBEGIN
1070
    73
1070
     1
1070
    44
1040
1.0
1070
    74
1070
     0
1000
MTEXTEND
1000
MTEXTBEGIN
1070
    73
1070
     1
1070
    44
1040
1.0
1070
    74
1070
     0
1000
MTEXTEND
1000
MTEXTBEGIN
1070
    73
1070
     1
1070
    44
1040
1.0
1070
    74
1070
     0
1000
MTEXTEND
  0
POINT
  5
445
330
432
100
AcDbEntity
  8
DEFPOINTS
  6
BYBLOCK
 62
     0
100
AcDbPoint
 10
391.2101035578542
 20
358.0718576882139
 30
0.0
  0
POINT
  5
446
330
432
100
AcDbEntity
  8
DEFPOINTS
  6
BYBLOCK
 62
     0
100
AcDbPoint
 10
391.2101035578542
 20
308.0718576882138
 30
0.0
  0
POINT
  5
447
330
432
100
AcDbEntity
  8
DEFPOINTS
  6
BYBLOCK
 62
     0
100
AcDbPoint
 10
411.3883851996352
 20
308.0718576882138
 30
0.0
  0
ENDBLK
  5
448
330
432
100
AcDbEntity
  8
0
100
AcDbBlockEnd
  0
BLOCK
  5
6AC
330
449
100
AcDbEntity
  8
0
100
AcDbBlockBegin
  2
*D2
 70
     1
 10
0.0
 20
0.0
 30
0.0
  3
*D2
  1

  0
LINE
  5
6AD
330
449
100
AcDbEntity
  8
0
  6
BYBLOCK
 62
     4
100
AcDbLine
 10
397.2101035578542
 20
476.005742384902
 30
0.0
 11
440.8120492193179
 21
476.005742384902
 31
0.0
  0
LINE
  5
6AE
330
449
100
AcDbEntity
  8
0
  6
BYBLOCK
 62
     4
100
AcDbLine
 10
397.2101035578542
 20
413.005742384902
 30
0.0
 11
440.8120492193179
 21
413.005742384902
 31
0.0
  0
LINE
  5
6AF
330
449
100
AcDbEntity
  8
0
  6
BYBLOCK
 62
     4
100
AcDbLine
 10
437.8120492193179
 20
469.0057423849021
 30
0.0
 11
437.8120492193179
 21
420.005742384902
 31
0.0
  0
INSERT
  5
6B0
330
449
100
AcDbEntity
  8
0
  6
BYBLOCK
 62
     4
100
AcDbBlockReference
  2
_OPEN
 10
437.8120492193179
 20
476.005742384902
 30
0.0
 41
7.0
 42
7.0
 43
7.0
 50
90.0
  0
INSERT
  5
6B1
330
449
100
AcDbEntity
  8
0
  6
BYBLOCK
 62
     4
100
AcDbBlockReference
  2
_OPEN
 10
437.8120492193179
 20
413.005742384902
 30
0.0
 41
7.0
 42
7.0
 43
7.0
 50
270.0
  0
MTEXT
  5
6B2
330
449
100
AcDbEntity
  8
0
  6
BYBLOCK
 62
     4
100
AcDbMText
 10
432.8120492193179
 20
444.5057423849021
 30
0.0
 40
6.0
 41
0.0
 71
     5
 72
     5
  1
\A1;63
 11
0.0
 21
1.0
 31
0.0
1001
ACAD
1000
MTEXTBEGIN
1070
    73
1070
     1
1070
    44
1040
1.0
1070
    74
1070
     0
1000
MTEXTEND
1000
MTEXTBEGIN
1070
    73
1070
     1
1070
    44
1040
1.0
1070
    74
1070
     0
1000
MTEXTEND
1000
MTEXTBEGIN
1070
    73
1070
     1
1070
    44
1040
1.0
1070
    74
1070
     0
1000
MTEXTEND
  0
POINT
  5
6B3
330
449
100
AcDbEntity
  8
DEFPOINTS
  6
BYBLOCK
 62
     0
100
AcDbPoint
 10
391.2101035578542
 20
476.005742384902
 30
0.0
  0
POINT
  5
6B4
330
449
100
AcDbEntity
  8
DEFPOINTS
  6
BYBLOCK
 62
     0
100
AcDbPoint
 10
391.2101035578542
 20
413.005742384902
 30
0.0
  0
POINT
  5
6B5
330
449
100
AcDbEntity
  8
DEFPOINTS
  6
BYBLOCK
 62
     0
100
AcDbPoint
 10
437.8120492193179
 20
413.005742384902
 30
0.0
  0
ENDBLK
  5
6B6
330
449
100
AcDbEntity
  8
0
100
AcDbBlockEnd
  0
BLOCK
  5
4DC
330
483
100
AcDbEntity
  8
0
100
AcDbBlockBegin
  2
*D3
 70
     1
 10
0.0
 20
0.0
 30
0.0
  3
*D3
  1

  0
LINE
  5
4DD
330
483
100
AcDbEntity
  8
0
  6
BYBLOCK
 62
     4
100
AcDbLine
 10
582.2821752924589
 20
318.0719576882139
 30
0.0
 11
524.8987324709323
 21
318.0719576882139
 31
0.0
  0
LINE
  5
4DE
330
483
100
AcDbEntity
  8
0
  6
BYBLOCK
 62
     4
100
AcDbLine
 10
588.5996752924588
 20
308.0718576882138
 30
0.0
 11
524.8987324709323
 21
308.0718576882138
 31
0.0
  0
LINE
  5
4DF
330
483
100
AcDbEntity
  8
0
  6
BYBLOCK
 62
     4
100
AcDbLine
 10
527.8987324709324
 20
325.0719576882139
 30
0.0
 11
527.8987324709324
 21
332.0719576882139
 31
0.0
  0
LINE
  5
4E0
330
483
100
AcDbEntity
  8
0
  6
BYBLOCK
 62
     4
100
AcDbLine
 10
527.8987324709324
 20
301.0718576882138
 30
0.0
 11
527.8987324709324
 21
283.0718576882138
 31
0.0
  0
LINE
  5
4E1
330
483
100
AcDbEntity
  8
0
  6
BYBLOCK
 62
     4
100
AcDbLine
 10
527.8987324709324
 20
318.0719576882139
 30
0.0
 11
527.8987324709324
 21
308.0718576882138
 31
0.0
  0
INSERT
  5
4E2
330
483
100
AcDbEntity
  8
0
  6
BYBLOCK
 62
     4
100
AcDbBlockReference
  2
_OPEN
 10
527.8987324709324
 20
318.0719576882139
 30
0.0
 41
7.0
 42
7.0
 43
7.0
 50
270.0
  0
INSERT
  5
4E3
330
483
100
AcDbEntity
  8
0
  6
BYBLOCK
 62
     4
100
AcDbBlockReference
  2
_OPEN
 10
527.8987324709324
 20
308.0718576882138
 30
0.0
 41
7.0
 42
7.0
 43
7.0
 50
90.0
  0
MTEXT
  5
4E4
330
483
100
AcDbEntity
  8
0
  6
BYBLOCK
 62
     4
100
AcDbMText
 10
522.8987324709323
 20
288.5718576882138
 30
0.0
 40
6.0
 41
0.0
 71
     5
 72
     5
  1
\A1;10
 11
0.0
 21
1.0
 31
0.0
1001
ACAD
1000
MTEXTBEGIN
1070
    73
1070
     1
1070
    44
1040
1.0
1070
    74
1070
     0
1000
MTEXTEND
1000
MTEXTBEGIN
1070
    73
1070
     1
1070
    44
1040
1.0
1070
    74
1070
     0
1000
MTEXTEND
1000
MTEXTBEGIN
1070
    73
1070
     1
1070
    44
1040
1.0
1070
    74
1070
     0
1000
MTEXTEND
  0
POINT
  5
4E5
330
483
100
AcDbEntity
  8
DEFPOINTS
  6
BYBLOCK
 62
     0
100
AcDbPoint
 10
588.282175292459
 20
318.0719576882139
 30
0.0
  0
POINT
  5
4E6
330
483
100
AcDbEntity
  8
DEFPOINTS
  6
BYBLOCK
 62
     0
100
AcDbPoint
 10
594.5996752924588
 20
308.0718576882138
 30
0.0
  0
POINT
  5
4E7
330
483
100
AcDbEntity
  8
DEFPOINTS
  6
BYBLOCK
 62
     0
100
AcDbPoint
 10
527.8987324709324
 20
308.0718576882138
 30
0.0
  0
ENDBLK
  5
4E8
330
483
100
AcDbEntity
  8
0
100
AcDbBlockEnd
  0
BLOCK
  5
4F4
330
492
100
AcDbEntity
  8
0
100
AcDbBlockBegin
  2
*D4
 70
     1
 10
0.0
 20
0.0
 30
0.0
  3
*D4
  1

  0
LINE
  5
4F5
330
492
100
AcDbEntity
  8
0
  6
BYBLOCK
 62
     4
100
AcDbLine
 10
582.1777752924588
 20
348.0719576882139
 30
0.0
 11
524.8987324709323
 21
348.0719576882139
 31
0.0
  0
LINE
  5
4F6
330
492
100
AcDbEntity
  8
0
  6
BYBLOCK
 62
     4
100
AcDbLine
 10
588.5998752924589
 20
358.0718576882139
 30
0.0
 11
524.8987324709323
 21
358.0718576882139
 31
0.0
  0
LINE
  5
4F7
330
492
100
AcDbEntity
  8
0
  6
BYBLOCK
 62
     4
100
AcDbLine
 10
527.8987324709324
 20
341.0719576882139
 30
0.0
 11
527.8987324709324
 21
334.0719576882139
 31
0.0
  0
LINE
  5
4F8
330
492
100
AcDbEntity
  8
0
  6
BYBLOCK
 62
     4
100
AcDbLine
 10
527.8987324709324
 20
365.0718576882139
 30
0.0
 11
527.8987324709324
 21
383.0718576882139
 31
0.0
  0
LINE
  5
4F9
330
492
100
AcDbEntity
  8
0
  6
BYBLOCK
 62
     4
100
AcDbLine
 10
527.8987324709324
 20
348.0719576882139
 30
0.0
 11
527.8987324709324
 21
358.0718576882139
 31
0.0
  0
INSERT
  5
4FA
330
492
100
AcDbEntity
  8
0
  6
BYBLOCK
 62
     4
100
AcDbBlockReference
  2
_OPEN
 10
527.8987324709324
 20
348.0719576882139
 30
0.0
 41
7.0
 42
7.0
 43
7.0
 50
90.0
  0
INSERT
  5
4FB
330
492
100
AcDbEntity
  8
0
  6
BYBLOCK
 62
     4
100
AcDbBlockReference
  2
_OPEN
 10
527.8987324709324
 20
358.0718576882139
 30
0.0
 41
7.0
 42
7.0
 43
7.0
 50
270.0
  0
MTEXT
  5
4FC
330
492
100
AcDbEntity
  8
0
  6
BYBLOCK
 62
     4
100
AcDbMText
 10
522.8987324709323
 20
377.5718576882139
 30
0.0
 40
6.0
 41
0.0
 71
     5
 72
     5
  1
\A1;10
 11
0.0
 21
1.0
 31
0.0
1001
ACAD
1000
MTEXTBEGIN
1070
    73
1070
     1
1070
    44
1040
1.0
1070
    74
1070
     0
1000
MTEXTEND
1000
MTEXTBEGIN
1070
    73
1070
     1
1070
    44
1040
1.0
1070
    74
1070
     0
1000
MTEXTEND
1000
MTEXTBEGIN
1070
    73
1070
     1
1070
    44
1040
1.0
1070
    74
1070
     0
1000
MTEXTEND
  0
POINT
  5
4FD
330
492
100
AcDbEntity
  8
DEFPOINTS
  6
BYBLOCK
 62
     0
100
AcDbPoint
 10
588.1777752924588
 20
348.0719576882139
 30
0.0
  0
POINT
  5
4FE
330
492
100
AcDbEntity
  8
DEFPOINTS
  6
BYBLOCK
 62
     0
100
AcDbPoint
 10
594.5998752924589
 20
358.0718576882139
 30
0.0
  0
POINT
  5
4FF
330
492
100
AcDbEntity
  8
DEFPOINTS
  6
BYBLOCK
 62
     0
100
AcDbPoint
 10
527.8987324709324
 20
358.0718576882139
 30
0.0
  0
ENDBLK
  5
500
330
492
100
AcDbEntity
  8
0
100
AcDbBlockEnd
  0
BLOCK
  5
501
330
4A1
100
AcDbEntity
  8
0
100
AcDbBlockBegin
  2
*D5
 70
     1
 10
0.0
 20
0.0
 30
0.0
  3
*D5
  1

  0
LINE
  5
502
330
4A1
100
AcDbEntity
  8
0
  6
BYBLOCK
 62
     4
100
AcDbLine
 10
588.5997752924587
 20
358.0718576882139
 30
0.0
 11
506.4024626050523
 21
358.0718576882139
 31
0.0
  0
LINE
  5
503
330
4A1
100
AcDbEntity
  8
0
  6
BYBLOCK
 62
     4
100
AcDbLine
 10
581.3840752924587
 20
343.0719576882139
 30
0.0
 11
506.4024626050523
 21
343.0719576882139
 31
0.0
  0
LINE
  5
504
330
4A1
100
AcDbEntity
  8
0
  6
BYBLOCK
 62
     4
100
AcDbLine
 10
509.4024626050522
 20
365.0718576882139
 30
0.0
 11
509.4024626050522
 21
372.071857688214
 31
0.0
  0
LINE
  5
505
330
4A1
100
AcDbEntity
  8
0
  6
BYBLOCK
 62
     4
100
AcDbLine
 10
509.4024626050522
 20
336.0719576882139
 30
0.0
 11
509.4024626050522
 21
329.0719576882139
 31
0.0
  0
LINE
  5
506
330
4A1
100
AcDbEntity
  8
0
  6
BYBLOCK
 62
     4
100
AcDbLine
 10
509.4024626050522
 20
358.0718576882139
 30
0.0
 11
509.4024626050522
 21
343.0719576882139
 31
0.0
  0
INSERT
  5
507
330
4A1
100
AcDbEntity
  8
0
  6
BYBLOCK
 62
     4
100
AcDbBlockReference
  2
_OPEN
 10
509.4024626050522
 20
358.0718576882139
 30
0.0
 41
7.0
 42
7.0
 43
7.0
 50
270.0
  0
INSERT
  5
508
330
4A1
100
AcDbEntity
  8
0
  6
BYBLOCK
 62
     4
100
AcDbBlockReference
  2
_OPEN
 10
509.4024626050522
 20
343.0719576882139
 30
0.0
 41
7.0
 42
7.0
 43
7.0
 50
90.0
  0
MTEXT
  5
509
330
4A1
100
AcDbEntity
  8
0
  6
BYBLOCK
 62
     4
100
AcDbMText
 10
504.4024626050522
 20
350.5719076882139
 30
0.0
 40
6.0
 41
0.0
 71
     5
 72
     5
  1
\A1;15
 11
0.0
 21
1.0
 31
0.0
1001
ACAD
1000
MTEXTBEGIN
1070
    73
1070
     1
1070
    44
1040
1.0
1070
    74
1070
     0
1000
MTEXTEND
1000
MTEXTBEGIN
1070
    73
1070
     1
1070
    44
1040
1.0
1070
    74
1070
     0
1000
MTEXTEND
1000
MTEXTBEGIN
1070
    73
1070
     1
1070
    44
1040
1.0
1070
    74
1070
     0
1000
MTEXTEND
  0
POINT
  5
50A
330
4A1
100
AcDbEntity
  8
DEFPOINTS
  6
BYBLOCK
 62
     0
100
AcDbPoint
 10
594.5997752924587
 20
358.0718576882139
 30
0.0
  0
POINT
  5
50B
330
4A1
100
AcDbEntity
  8
DEFPOINTS
  6
BYBLOCK
 62
     0
100
AcDbPoint
 10
587.3840752924587
 20
343.0719576882139
 30
0.0
  0
POINT
  5
50C
330
4A1
100
AcDbEntity
  8
DEFPOINTS
  6
BYBLOCK
 62
     0
100
AcDbPoint
 10
509.4024626050522
 20
343.0719576882139
 30
0.0
  0
ENDBLK
  5
50D
330
4A1
100
AcDbEntity
  8
0
100
AcDbBlockEnd
  0
BLOCK
  5
4E9
330
4B2
100
AcDbEntity
  8
0
100
AcDbBlockBegin
  2
*D6
 70
     1
 10
0.0
 20
0.0
 30
0.0
  3
*D6
  1

  0
LINE
  5
4EA
330
4B2
100
AcDbEntity
  8
0
  6
BYBLOCK
 62
     4
100
AcDbLine
 10
588.5998752924589
 20
358.0718576882139
 30
0.0
 11
487.3777276693449
 21
358.0718576882139
 31
0.0
  0
LINE
  5
4EB
330
4B2
100
AcDbEntity
  8
0
  6
BYBLOCK
 62
     4
100
AcDbLine
 10
588.5996752924589
 20
308.0718576882138
 30
0.0
 11
487.3777276693449
 21
308.0718576882138
 31
0.0
  0
LINE
  5
4EC
330
4B2
100
AcDbEntity
  8
0
  6
BYBLOCK
 62
     4
100
AcDbLine
 10
490.3777276693449
 20
351.0718576882139
 30
0.0
 11
490.3777276693449
 21
315.0718576882138
 31
0.0
  0
INSERT
  5
4ED
330
4B2
100
AcDbEntity
  8
0
  6
BYBLOCK
 62
     4
100
AcDbBlockReference
  2
_OPEN
 10
490.3777276693449
 20
358.0718576882139
 30
0.0
 41
7.0
 42
7.0
 43
7.0
 50
90.0
  0
INSERT
  5
4EE
330
4B2
100
AcDbEntity
  8
0
  6
BYBLOCK
 62
     4
100
AcDbBlockReference
  2
_OPEN
 10
490.3777276693449
 20
308.0718576882138
 30
0.0
 41
7.0
 42
7.0
 43
7.0
 50
270.0
  0
MTEXT
  5
4EF
330
4B2
100
AcDbEntity
  8
0
  6
BYBLOCK
 62
     4
100
AcDbMText
 10
485.3777276693449
 20
333.0718576882138
 30
0.0
 40
6.0
 41
0.0
 71
     5
 72
     5
  1
\A1;50
 11
0.0
 21
1.0
 31
0.0
1001
ACAD
1000
MTEXTBEGIN
1070
    73
1070
     1
1070
    44
1040
1.0
1070
    74
1070
     0
1000
MTEXTEND
1000
MTEXTBEGIN
1070
    73
1070
     1
1070
    44
1040
1.0
1070
    74
1070
     0
1000
MTEXTEND
1000
MTEXTBEGIN
1070
    73
1070
     1
1070
    44
1040
1.0
1070
    74
1070
     0
1000
MTEXTEND
  0
POINT
  5
4F0
330
4B2
100
AcDbEntity
  8
DEFPOINTS
  6
BYBLOCK
 62
     0
100
AcDbPoint
 10
594.5998752924589
 20
358.0718576882139
 30
0.0
  0
POINT
  5
4F1
330
4B2
100
AcDbEntity
  8
DEFPOINTS
  6
BYBLOCK
 62
     0
100
AcDbPoint
 10
594.599675292459
 20
308.0718576882138
 30
0.0
  0
POINT
  5
4F2
330
4B2
100
AcDbEntity
  8
DEFPOINTS
  6
BYBLOCK
 62
     0
100
AcDbPoint
 10
490.3777276693449
 20
308.0718576882138
 30
0.0
  0
ENDBLK
  5
4F3
330
4B2
100
AcDbEntity
  8
0
100
AcDbBlockEnd
  0
BLOCK
  5
7F8
330
4C0
100
AcDbEntity
  8
0
100
AcDbBlockBegin
  2
*D7
 70
     1
 10
0.0
 20
0.0
 30
0.0
  3
*D7
  1

  0
LINE
  5
7F9
330
4C0
100
AcDbEntity
  8
0
  6
BYBLOCK
 62
     4
100
AcDbLine
 10
592.5997752924587
 20
317.8019359716274
 30
0.0
 11
592.5997752924587
 21
339.5236313202003
 31
0.0
  0
LINE
  5
7FA
330
4C0
100
AcDbEntity
  8
0
  6
BYBLOCK
 62
     4
100
AcDbLine
 10
639.5996752900612
 20
317.8022716732091
 30
0.0
 11
639.5996752900612
 21
339.5236313202003
 31
0.0
  0
LINE
  5
7FB
330
4C0
100
AcDbEntity
  8
0
  6
BYBLOCK
 62
     4
100
AcDbLine
 10
599.5997752924587
 20
336.5236313202003
 30
0.0
 11
632.5996752900612
 21
336.5236313202003
 31
0.0
  0
INSERT
  5
7FC
330
4C0
100
AcDbEntity
  8
0
  6
BYBLOCK
 62
     4
100
AcDbBlockReference
  2
_OPEN
 10
592.5997752924587
 20
336.5236313202003
 30
0.0
 41
7.0
 42
7.0
 43
7.0
 50
180.0
  0
INSERT
  5
7FD
330
4C0
100
AcDbEntity
  8
0
  6
BYBLOCK
 62
     4
100
AcDbBlockReference
  2
_OPEN
 10
639.5996752900612
 20
336.5236313202003
 30
0.0
 41
7.0
 42
7.0
 43
7.0
  0
MTEXT
  5
7FE
330
4C0
100
AcDbEntity
  8
0
  6
BYBLOCK
 62
     4
100
AcDbMText
 10
616.09972529126
 20
341.5236313202003
 30
0.0
 40
6.0
 41
0.0
 71
     5
 72
     5
  1
\A1;47
1001
ACAD
1000
MTEXTBEGIN
1070
    73
1070
     1
1070
    44
1040
1.0
1070
    74
1070
     0
1000
MTEXTEND
1000
MTEXTBEGIN
1070
    73
1070
     1
1070
    44
1040
1.0
1070
    74
1070
     0
1000
MTEXTEND
1000
MTEXTBEGIN
1070
    73
1070
     1
1070
    44
1040
1.0
1070
    74
1070
     0
1000
MTEXTEND
  0
POINT
  5
7FF
330
4C0
100
AcDbEntity
  8
DEFPOINTS
  6
BYBLOCK
 62
     0
100
AcDbPoint
 10
592.5997752924587
 20
311.8019359716274
 30
0.0
  0
POINT
  5
800
330
4C0
100
AcDbEntity
  8
DEFPOINTS
  6
BYBLOCK
 62
     0
100
AcDbPoint
 10
639.5996752900612
 20
311.8022716732091
 30
0.0
  0
POINT
  5
801
330
4C0
100
AcDbEntity
  8
DEFPOINTS
  6
BYBLOCK
 62
     0
100
AcDbPoint
 10
639.5996752900612
 20
336.5236313202003
 30
0.0
  0
ENDBLK
  5
802
330
4C0
100
AcDbEntity
  8
0
100
AcDbBlockEnd
  0
BLOCK
  5
7ED
330
4CD
100
AcDbEntity
  8
0
100
AcDbBlockBegin
  2
*D8
 70
     1
 10
0.0
 20
0.0
 30
0.0
  3
*D8
  1

  0
LINE
  5
7EE
330
4CD
100
AcDbEntity
  8
0
  6
BYBLOCK
 62
     4
100
AcDbLine
 10
584.5997752924587
 20
314.0170359716274
 30
0.0
 11
584.5997752924587
 21
355.7152979776949
 31
0.0
  0
LINE
  5
7EF
330
4CD
100
AcDbEntity
  8
0
  6
BYBLOCK
 62
     4
100
AcDbLine
 10
647.5996752924589
 20
314.0170359716274
 30
0.0
 11
647.5996752924589
 21
355.7152979776949
 31
0.0
  0
LINE
  5
7F0
330
4CD
100
AcDbEntity
  8
0
  6
BYBLOCK
 62
     4
100
AcDbLine
 10
591.5997752924587
 20
352.7152979776949
 30
0.0
 11
640.599675292459
 21
352.7152979776949
 31
0.0
  0
INSERT
  5
7F1
330
4CD
100
AcDbEntity
  8
0
  6
BYBLOCK
 62
     4
100
AcDbBlockReference
  2
_OPEN
 10
584.5997752924587
 20
352.7152979776949
 30
0.0
 41
7.0
 42
7.0
 43
7.0
 50
180.0
  0
INSERT
  5
7F2
330
4CD
100
AcDbEntity
  8
0
  6
BYBLOCK
 62
     4
100
AcDbBlockReference
  2
_OPEN
 10
647.5996752924589
 20
352.7152979776949
 30
0.0
 41
7.0
 42
7.0
 43
7.0
  0
MTEXT
  5
7F3
330
4CD
100
AcDbEntity
  8
0
  6
BYBLOCK
 62
     4
100
AcDbMText
 10
616.0997252924588
 20
357.7152979776949
 30
0.0
 40
6.0
 41
0.0
 71
     5
 72
     5
  1
\A1;63
1001
ACAD
1000
MTEXTBEGIN
1070
    73
1070
     1
1070
    44
1040
1.0
1070
    74
1070
     0
1000
MTEXTEND
1000
MTEXTBEGIN
1070
    73
1070
     1
1070
    44
1040
1.0
1070
    74
1070
     0
1000
MTEXTEND
1000
MTEXTBEGIN
1070
    73
1070
     1
1070
    44
1040
1.0
1070
    74
1070
     0
1000
MTEXTEND
  0
POINT
  5
7F4
330
4CD
100
AcDbEntity
  8
DEFPOINTS
  6
BYBLOCK
 62
     0
100
AcDbPoint
 10
584.5997752924587
 20
308.0170359716274
 30
0.0
  0
POINT
  5
7F5
330
4CD
100
AcDbEntity
  8
DEFPOINTS
  6
BYBLOCK
 62
     0
100
AcDbPoint
 10
647.5996752924589
 20
308.0170359716274
 30
0.0
  0
POINT
  5
7F6
330
4CD
100
AcDbEntity
  8
DEFPOINTS
  6
BYBLOCK
 62
     0
100
AcDbPoint
 10
647.5996752924589
 20
352.7152979776949
 30
0.0
  0
ENDBLK
  5
7F7
330
4CD
100
AcDbEntity
  8
0
100
AcDbBlockEnd
  0
BLOCK
  5
79B
330
512
100
AcDbEntity
  8
0
100
AcDbBlockBegin
  2
*D9
 70
     1
 10
0.0
 20
0.0
 30
0.0
  3
*D9
  1

  0
LINE
  5
79C
330
512
100
AcDbEntity
  8
0
  6
BYBLOCK
 62
     4
100
AcDbLine
 10
259.2472214329292
 20
287.9125359719468
 30
0.0
 11
231.8291329231815
 21
287.9125359719468
 31
0.0
  0
LINE
  5
79D
330
512
100
AcDbEntity
  8
0
  6
BYBLOCK
 62
     4
100
AcDbLine
 10
385.2101035578542
 20
318.0170359716274
 30
0.0
 11
231.8291329231815
 21
318.0170359716274
 31
0.0
  0
LINE
  5
79E
330
512
100
AcDbEntity
  8
0
  6
BYBLOCK
 62
     4
100
AcDbLine
 10
234.8291329231815
 20
294.9125359719469
 30
0.0
 11
234.8291329231815
 21
311.0170359716274
 31
0.0
  0
INSERT
  5
79F
330
512
100
AcDbEntity
  8
0
  6
BYBLOCK
 62
     4
100
AcDbBlockReference
  2
_OPEN
 10
234.8291329231815
 20
287.9125359719468
 30
0.0
 41
7.0
 42
7.0
 43
7.0
 50
270.0
  0
INSERT
  5
7A0
330
512
100
AcDbEntity
  8
0
  6
BYBLOCK
 62
     4
100
AcDbBlockReference
  2
_OPEN
 10
234.8291329231815
 20
318.0170359716274
 30
0.0
 41
7.0
 42
7.0
 43
7.0
 50
90.0
  0
MTEXT
  5
7A1
330
512
100
AcDbEntity
  8
0
  6
BYBLOCK
 62
     4
100
AcDbMText
 10
229.8291329231815
 20
302.9647859717872
 30
0.0
 40
6.0
 41
0.0
 71
     5
 72
     5
  1
\A1;30
 11
0.0
 21
1.0
 31
0.0
1001
ACAD
1000
MTEXTBEGIN
1070
    73
1070
     1
1070
    44
1040
1.0
1070
    74
1070
     0
1000
MTEXTEND
1000
MTEXTBEGIN
1070
    73
1070
     1
1070
    44
1040
1.0
1070
    74
1070
     0
1000
MTEXTEND
1000
MTEXTBEGIN
1070
    73
1070
     1
1070
    44
1040
1.0
1070
    74
1070
     0
1000
MTEXTEND
  0
POINT
  5
7A2
330
512
100
AcDbEntity
  8
DEFPOINTS
  6
BYBLOCK
 62
     0
100
AcDbPoint
 10
265.2472214329292
 20
287.9125359719468
 30
0.0
  0
POINT
  5
7A3
330
512
100
AcDbEntity
  8
DEFPOINTS
  6
BYBLOCK
 62
     0
100
AcDbPoint
 10
391.2101035578542
 20
318.0170359716274
 30
0.0
  0
POINT
  5
7A4
330
512
100
AcDbEntity
  8
DEFPOINTS
  6
BYBLOCK
 62
     0
100
AcDbPoint
 10
234.8291329231815
 20
318.0170359716274
 30
0.0
  0
ENDBLK
  5
7A5
330
512
100
AcDbEntity
  8
0
100
AcDbBlockEnd
  0
BLOCK
  5
7E2
330
51F
100
AcDbEntity
  8
0
100
AcDbBlockBegin
  2
*D10
 70
     1
 10
0.0
 20
0.0
 30
0.0
  3
*D10
  1

  0
LINE
  5
7E3
330
51F
100
AcDbEntity
  8
0
  6
BYBLOCK
 62
     4
100
AcDbLine
 10
262.2087847946756
 20
290.5048930060652
 30
0.0
 11
262.2087847946756
 21
368.2989336208709
 31
0.0
  0
LINE
  5
7E4
330
51F
100
AcDbEntity
  8
0
  6
BYBLOCK
 62
     4
100
AcDbLine
 10
391.2101035578542
 20
324.0170359716274
 30
0.0
 11
391.2101035578542
 21
368.2989336208709
 31
0.0
  0
LINE
  5
7E5
330
51F
100
AcDbEntity
  8
0
  6
BYBLOCK
 62
     4
100
AcDbLine
 10
269.2087847946757
 20
365.2989336208709
 30
0.0
 11
384.2101035578542
 21
365.2989336208709
 31
0.0
  0
INSERT
  5
7E6
330
51F
100
AcDbEntity
  8
0
  6
BYBLOCK
 62
     4
100
AcDbBlockReference
  2
_OPEN
 10
262.2087847946756
 20
365.2989336208709
 30
0.0
 41
7.0
 42
7.0
 43
7.0
 50
180.0
  0
INSERT
  5
7E7
330
51F
100
AcDbEntity
  8
0
  6
BYBLOCK
 62
     4
100
AcDbBlockReference
  2
_OPEN
 10
391.2101035578542
 20
365.2989336208709
 30
0.0
 41
7.0
 42
7.0
 43
7.0
  0
MTEXT
  5
7E8
330
51F
100
AcDbEntity
  8
0
  6
BYBLOCK
 62
     4
100
AcDbMText
 10
326.7094441762649
 20
370.2989336208709
 30
0.0
 40
6.0
 41
0.0
 71
     5
 72
     5
  1
\A1;129
1001
ACAD
1000
MTEXTBEGIN
1070
    73
1070
     1
1070
    44
1040
1.0
1070
    74
1070
     0
1000
MTEXTEND
1000
MTEXTBEGIN
1070
    73
1070
     1
1070
    44
1040
1.0
1070
    74
1070
     0
1000
MTEXTEND
1000
MTEXTBEGIN
1070
    73
1070
     1
1070
    44
1040
1.0
1070
    74
1070
     0
1000
MTEXTEND
  0
POINT
  5
7E9
330
51F
100
AcDbEntity
  8
DEFPOINTS
  6
BYBLOCK
 62
     0
100
AcDbPoint
 10
262.2087847946756
 20
284.5048930060652
 30
0.0
  0
POINT
  5
7EA
330
51F
100
AcDbEntity
  8
DEFPOINTS
  6
BYBLOCK
 62
     0
100
AcDbPoint
 10
391.2101035578542
 20
318.0170359716274
 30
0.0
  0
POINT
  5
7EB
330
51F
100
AcDbEntity
  8
DEFPOINTS
  6
BYBLOCK
 62
     0
100
AcDbPoint
 10
391.2101035578542
 20
365.2989336208709
 30
0.0
  0
ENDBLK
  5
7EC
330
51F
100
AcDbEntity
  8
0
100
AcDbBlockEnd
  0
BLOCK
  5
7D7
330
52D
100
AcDbEntity
  8
0
100
AcDbBlockBegin
  2
*D11
 70
     1
 10
0.0
 20
0.0
 30
0.0
  3
*D11
  1

  0
LINE
  5
7D8
330
52D
100
AcDbEntity
  8
0
  6
BYBLOCK
 62
     4
100
AcDbLine
 10
281.2101035578543
 20
294.4125359716273
 30
0.0
 11
281.2101035578543
 21
354.4294177274768
 31
0.0
  0
LINE
  5
7D9
330
52D
100
AcDbEntity
  8
0
  6
BYBLOCK
 62
     4
100
AcDbLine
 10
391.2101035578542
 20
324.0170359716274
 30
0.0
 11
391.2101035578542
 21
354.4294177274768
 31
0.0
  0
LINE
  5
7DA
330
52D
100
AcDbEntity
  8
0
  6
BYBLOCK
 62
     4
100
AcDbLine
 10
288.2101035578543
 20
351.4294177274769
 30
0.0
 11
384.2101035578542
 21
351.4294177274769
 31
0.0
  0
INSERT
  5
7DB
330
52D
100
AcDbEntity
  8
0
  6
BYBLOCK
 62
     4
100
AcDbBlockReference
  2
_OPEN
 10
281.2101035578543
 20
351.4294177274769
 30
0.0
 41
7.0
 42
7.0
 43
7.0
 50
180.0
  0
INSERT
  5
7DC
330
52D
100
AcDbEntity
  8
0
  6
BYBLOCK
 62
     4
100
AcDbBlockReference
  2
_OPEN
 10
391.2101035578542
 20
351.4294177274769
 30
0.0
 41
7.0
 42
7.0
 43
7.0
  0
MTEXT
  5
7DD
330
52D
100
AcDbEntity
  8
0
  6
BYBLOCK
 62
     4
100
AcDbMText
 10
336.2101035578543
 20
356.4294177274768
 30
0.0
 40
6.0
 41
0.0
 71
     5
 72
     5
  1
\A1;110
1001
ACAD
1000
MTEXTBEGIN
1070
    73
1070
     1
1070
    44
1040
1.0
1070
    74
1070
     0
1000
MTEXTEND
1000
MTEXTBEGIN
1070
    73
1070
     1
1070
    44
1040
1.0
1070
    74
1070
     0
1000
MTEXTEND
1000
MTEXTBEGIN
1070
    73
1070
     1
1070
    44
1040
1.0
1070
    74
1070
     0
1000
MTEXTEND
  0
POINT
  5
7DE
330
52D
100
AcDbEntity
  8
DEFPOINTS
  6
BYBLOCK
 62
     0
100
AcDbPoint
 10
281.2101035578543
 20
288.4125359716273
 30
0.0
  0
POINT
  5
7DF
330
52D
100
AcDbEntity
  8
DEFPOINTS
  6
BYBLOCK
 62
     0
100
AcDbPoint
 10
391.2101035578542
 20
318.0170359716274
 30
0.0
  0
POINT
  5
7E0
330
52D
100
AcDbEntity
  8
DEFPOINTS
  6
BYBLOCK
 62
     0
100
AcDbPoint
 10
391.2101035578542
 20
351.4294177274769
 30
0.0
  0
ENDBLK
  5
7E1
330
52D
100
AcDbEntity
  8
0
100
AcDbBlockEnd
  0
BLOCK
  5
7BF
330
682
100
AcDbEntity
  8
0
100
AcDbBlockBegin
  2
*D12
 70
     1
 10
0.0
 20
0.0
 30
0.0
  3
*D12
  1

  0
LINE
  5
7C0
330
682
100
AcDbEntity
  8
0
  6
BYBLOCK
 62
     4
100
AcDbLine
 10
391.2101035578542
 20
324.0170359716274
 30
0.0
 11
391.2101035578542
 21
368.2989336208709
 31
0.0
  0
LINE
  5
7C1
330
682
100
AcDbEntity
  8
0
  6
BYBLOCK
 62
     4
100
AcDbLine
 10
426.2101035578543
 20
324.0170359716274
 30
0.0
 11
426.2101035578543
 21
368.2989336208709
 31
0.0
  0
LINE
  5
7C2
330
682
100
AcDbEntity
  8
0
  6
BYBLOCK
 62
     4
100
AcDbLine
 10
398.2101035578542
 20
365.2989336208709
 30
0.0
 11
419.2101035578542
 21
365.2989336208709
 31
0.0
  0
INSERT
  5
7C3
330
682
100
AcDbEntity
  8
0
  6
BYBLOCK
 62
     4
100
AcDbBlockReference
  2
_OPEN
 10
391.2101035578542
 20
365.2989336208709
 30
0.0
 41
7.0
 42
7.0
 43
7.0
 50
180.0
  0
INSERT
  5
7C4
330
682
100
AcDbEntity
  8
0
  6
BYBLOCK
 62
     4
100
AcDbBlockReference
  2
_OPEN
 10
426.2101035578543
 20
365.2989336208709
 30
0.0
 41
7.0
 42
7.0
 43
7.0
  0
MTEXT
  5
7C5
330
682
100
AcDbEntity
  8
0
  6
BYBLOCK
 62
     4
100
AcDbMText
 10
408.7101035578542
 20
370.2989336208709
 30
0.0
 40
6.0
 41
0.0
 71
     5
 72
     5
  1
\A1;35
1001
ACAD
1000
MTEXTBEGIN
1070
    73
1070
     1
1070
    44
1040
1.0
1070
    74
1070
     0
1000
MTEXTEND
1000
MTEXTBEGIN
1070
    73
1070
     1
1070
    44
1040
1.0
1070
    74
1070
     0
1000
MTEXTEND
1000
MTEXTBEGIN
1070
    73
1070
     1
1070
    44
1040
1.0
1070
    74
1070
     0
1000
MTEXTEND
  0
POINT
  5
7C6
330
682
100
AcDbEntity
  8
DEFPOINTS
  6
BYBLOCK
 62
     0
100
AcDbPoint
 10
391.2101035578542
 20
318.0170359716274
 30
0.0
  0
POINT
  5
7C7
330
682
100
AcDbEntity
  8
DEFPOINTS
  6
BYBLOCK
 62
     0
100
AcDbPoint
 10
426.2101035578543
 20
318.0170359716274
 30
0.0
  0
POINT
  5
7C8
330
682
100
AcDbEntity
  8
DEFPOINTS
  6
BYBLOCK
 62
     0
100
AcDbPoint
 10
426.2101035578543
 20
365.2989336208709
 30
0.0
  0
ENDBLK
  5
7C9
330
682
100
AcDbEntity
  8
0
100
AcDbBlockEnd
  0
BLOCK
  5
7A6
330
68F
100
AcDbEntity
  8
0
100
AcDbBlockBegin
  2
*D13
 70
     1
 10
0.0
 20
0.0
 30
0.0
  3
*D13
  1

  0
LINE
  5
7A7
330
68F
100
AcDbEntity
  8
0
  6
BYBLOCK
 62
     4
100
AcDbLine
 10
259.9101035578543
 20
452.0057423849022
 30
0.0
 11
231.8291329231815
 21
452.0057423849022
 31
0.0
  0
LINE
  5
7A8
330
68F
100
AcDbEntity
  8
0
  6
BYBLOCK
 62
     4
100
AcDbLine
 10
259.9101035578543
 20
437.005742384902
 30
0.0
 11
231.8291329231815
 21
437.005742384902
 31
0.0
  0
LINE
  5
7A9
330
68F
100
AcDbEntity
  8
0
  6
BYBLOCK
 62
     4
100
AcDbLine
 10
234.8291329231815
 20
459.0057423849022
 30
0.0
 11
234.8291329231815
 21
466.0057423849021
 31
0.0
  0
LINE
  5
7AA
330
68F
100
AcDbEntity
  8
0
  6
BYBLOCK
 62
     4
100
AcDbLine
 10
234.8291329231815
 20
430.005742384902
 30
0.0
 11
234.8291329231815
 21
423.0057423849021
 31
0.0
  0
LINE
  5
7AB
330
68F
100
AcDbEntity
  8
0
  6
BYBLOCK
 62
     4
100
AcDbLine
 10
234.8291329231815
 20
452.0057423849022
 30
0.0
 11
234.8291329231815
 21
437.005742384902
 31
0.0
  0
INSERT
  5
7AC
330
68F
100
AcDbEntity
  8
0
  6
BYBLOCK
 62
     4
100
AcDbBlockReference
  2
_OPEN
 10
234.8291329231815
 20
452.0057423849022
 30
0.0
 41
7.0
 42
7.0
 43
7.0
 50
270.0
  0
INSERT
  5
7AD
330
68F
100
AcDbEntity
  8
0
  6
BYBLOCK
 62
     4
100
AcDbBlockReference
  2
_OPEN
 10
234.8291329231815
 20
437.005742384902
 30
0.0
 41
7.0
 42
7.0
 43
7.0
 50
90.0
  0
MTEXT
  5
7AE
330
68F
100
AcDbEntity
  8
0
  6
BYBLOCK
 62
     4
100
AcDbMText
 10
229.8291329231815
 20
444.5057423849021
 30
0.0
 40
6.0
 41
0.0
 71
     5
 72
     5
  1
\A1;15
 11
0.0
 21
1.0
 31
0.0
1001
ACAD
1000
MTEXTBEGIN
1070
    73
1070
     1
1070
    44
1040
1.0
1070
    74
1070
     0
1000
MTEXTEND
1000
MTEXTBEGIN
1070
    73
1070
     1
1070
    44
1040
1.0
1070
    74
1070
     0
1000
MTEXTEND
1000
MTEXTBEGIN
1070
    73
1070
     1
1070
    44
1040
1.0
1070
    74
1070
     0
1000
MTEXTEND
  0
POINT
  5
7AF
330
68F
100
AcDbEntity
  8
DEFPOINTS
  6
BYBLOCK
 62
     0
100
AcDbPoint
 10
265.9101035578543
 20
452.0057423849022
 30
0.0
  0
POINT
  5
7B0
330
68F
100
AcDbEntity
  8
DEFPOINTS
  6
BYBLOCK
 62
     0
100
AcDbPoint
 10
265.9101035578543
 20
437.005742384902
 30
0.0
  0
POINT
  5
7B1
330
68F
100
AcDbEntity
  8
DEFPOINTS
  6
BYBLOCK
 62
     0
100
AcDbPoint
 10
234.8291329231815
 20
437.005742384902
 30
0.0
  0
ENDBLK
  5
7B2
330
68F
100
AcDbEntity
  8
0
100
AcDbBlockEnd
  0
BLOCK
  5
6C6
330
6B7
100
AcDbEntity
  8
0
100
AcDbBlockBegin
  2
*D14
 70
     1
 10
0.0
 20
0.0
 30
0.0
  3
*D14
  1

  0
LINE
  5
6C7
330
6B7
100
AcDbEntity
  8
0
  6
BYBLOCK
 62
     4
100
AcDbLine
 10
390.2101035578544
 20
457.0057423849021
 30
0.0
 11
422.235507265425
 21
457.0057423849021
 31
0.0
  0
LINE
  5
6C8
330
6B7
100
AcDbEntity
  8
0
  6
BYBLOCK
 62
     4
100
AcDbLine
 10
390.2101035578544
 20
432.0057423849021
 30
0.0
 11
422.235507265425
 21
432.0057423849021
 31
0.0
  0
LINE
  5
6C9
330
6B7
100
AcDbEntity
  8
0
  6
BYBLOCK
 62
     4
100
AcDbLine
 10
419.2355072654249
 20
464.0057423849021
 30
0.0
 11
419.2355072654249
 21
471.005742384902
 31
0.0
  0
LINE
  5
6CA
330
6B7
100
AcDbEntity
  8
0
  6
BYBLOCK
 62
     4
100
AcDbLine
 10
419.2355072654249
 20
425.005742384902
 30
0.0
 11
419.2355072654249
 21
418.005742384902
 31
0.0
  0
LINE
  5
6CB
330
6B7
100
AcDbEntity
  8
0
  6
BYBLOCK
 62
     4
100
AcDbLine
 10
419.2355072654249
 20
457.0057423849021
 30
0.0
 11
419.2355072654249
 21
432.0057423849021
 31
0.0
  0
INSERT
  5
6CC
330
6B7
100
AcDbEntity
  8
0
  6
BYBLOCK
 62
     4
100
AcDbBlockReference
  2
_OPEN
 10
419.2355072654249
 20
457.0057423849021
 30
0.0
 41
7.0
 42
7.0
 43
7.0
 50
270.0
  0
INSERT
  5
6CD
330
6B7
100
AcDbEntity
  8
0
  6
BYBLOCK
 62
     4
100
AcDbBlockReference
  2
_OPEN
 10
419.2355072654249
 20
432.0057423849021
 30
0.0
 41
7.0
 42
7.0
 43
7.0
 50
90.0
  0
MTEXT
  5
6CE
330
6B7
100
AcDbEntity
  8
0
  6
BYBLOCK
 62
     4
100
AcDbMText
 10
414.2355072654249
 20
444.5057423849021
 30
0.0
 40
6.0
 41
0.0
 71
     5
 72
     5
  1
\A1;25
 11
0.0
 21
1.0
 31
0.0
1001
ACAD
1000
MTEXTBEGIN
1070
    73
1070
     1
1070
    44
1040
1.0
1070
    74
1070
     0
1000
MTEXTEND
1000
MTEXTBEGIN
1070
    73
1070
     1
1070
    44
1040
1.0
1070
    74
1070
     0
1000
MTEXTEND
1000
MTEXTBEGIN
1070
    73
1070
     1
1070
    44
1040
1.0
1070
    74
1070
     0
1000
MTEXTEND
  0
POINT
  5
6CF
330
6B7
100
AcDbEntity
  8
DEFPOINTS
  6
BYBLOCK
 62
     0
100
AcDbPoint
 10
384.2101035578544
 20
457.0057423849021
 30
0.0
  0
POINT
  5
6D0
330
6B7
100
AcDbEntity
  8
DEFPOINTS
  6
BYBLOCK
 62
     0
100
AcDbPoint
 10
384.2101035578544
 20
432.0057423849021
 30
0.0
  0
POINT
  5
6D1
330
6B7
100
AcDbEntity
  8
DEFPOINTS
  6
BYBLOCK
 62
     0
100
AcDbPoint
 10
419.2355072654249
 20
432.0057423849021
 30
0.0
  0
ENDBLK
  5
6D2
330
6B7
100
AcDbEntity
  8
0
100
AcDbBlockEnd
  0
BLOCK
  5
7CA
330
6DE
100
AcDbEntity
  8
0
100
AcDbBlockBegin
  2
*D15
 70
     1
 10
0.0
 20
0.0
 30
0.0
  3
*D15
  1

  0
LINE
  5
7CB
330
6DE
100
AcDbEntity
  8
0
  6
BYBLOCK
 62
     4
100
AcDbLine
 10
380.1560323370856
 20
297.9270939882659
 30
0.0
 11
380.1560323370856
 21
339.3141088694487
 31
0.0
  0
LINE
  5
7CC
330
6DE
100
AcDbEntity
  8
0
  6
BYBLOCK
 62
     4
100
AcDbLine
 10
391.2101035578542
 20
324.0170359716274
 30
0.0
 11
391.2101035578542
 21
339.3141088694487
 31
0.0
  0
LINE
  5
7CD
330
6DE
100
AcDbEntity
  8
0
  6
BYBLOCK
 62
     4
100
AcDbLine
 10
373.1560323370856
 20
336.3141088694487
 30
0.0
 11
366.1560323370856
 21
336.3141088694487
 31
0.0
  0
LINE
  5
7CE
330
6DE
100
AcDbEntity
  8
0
  6
BYBLOCK
 62
     4
100
AcDbLine
 10
398.2101035578542
 20
336.3141088694487
 30
0.0
 11
405.2101035578543
 21
336.3141088694487
 31
0.0
  0
LINE
  5
7CF
330
6DE
100
AcDbEntity
  8
0
  6
BYBLOCK
 62
     4
100
AcDbLine
 10
380.1560323370856
 20
336.3141088694487
 30
0.0
 11
391.2101035578542
 21
336.3141088694487
 31
0.0
  0
INSERT
  5
7D0
330
6DE
100
AcDbEntity
  8
0
  6
BYBLOCK
 62
     4
100
AcDbBlockReference
  2
_OPEN
 10
380.1560323370856
 20
336.3141088694487
 30
0.0
 41
7.0
 42
7.0
 43
7.0
  0
INSERT
  5
7D1
330
6DE
100
AcDbEntity
  8
0
  6
BYBLOCK
 62
     4
100
AcDbBlockReference
  2
_OPEN
 10
391.2101035578542
 20
336.3141088694487
 30
0.0
 41
7.0
 42
7.0
 43
7.0
 50
180.0
  0
MTEXT
  5
7D2
330
6DE
100
AcDbEntity
  8
0
  6
BYBLOCK
 62
     4
100
AcDbMText
 10
385.6830679474699
 20
341.3141088694487
 30
0.0
 40
6.0
 41
0.0
 71
     5
 72
     5
  1
\A1;11
1001
ACAD
1000
MTEXTBEGIN
1070
    73
1070
     1
1070
    44
1040
1.0
1070
    74
1070
     0
1000
MTEXTEND
1000
MTEXTBEGIN
1070
    73
1070
     1
1070
    44
1040
1.0
1070
    74
1070
     0
1000
MTEXTEND
1000
MTEXTBEGIN
1070
    73
1070
     1
1070
    44
1040
1.0
1070
    74
1070
     0
1000
MTEXTEND
  0
POINT
  5
7D3
330
6DE
100
AcDbEntity
  8
DEFPOINTS
  6
BYBLOCK
 62
     0
100
AcDbPoint
 10
380.1560323370856
 20
291.9270939882659
 30
0.0
  0
POINT
  5
7D4
330
6DE
100
AcDbEntity
  8
DEFPOINTS
  6
BYBLOCK
 62
     0
100
AcDbPoint
 10
391.2101035578542
 20
318.0170359716274
 30
0.0
  0
POINT
  5
7D5
330
6DE
100
AcDbEntity
  8
DEFPOINTS
  6
BYBLOCK
 62
     0
100
AcDbPoint
 10
391.2101035578542
 20
336.3141088694487
 30
0.0
  0
ENDBLK
  5
7D6
330
6DE
100
AcDbEntity
  8
0
100
AcDbBlockEnd
  0
BLOCK
  5
78E
330
758
100
AcDbEntity
  8
0
100
AcDbBlockBegin
  2
*D16
 70
     1
 10
0.0
 20
0.0
 30
0.0
  3
*D16
  1

  0
LINE
  5
78F
330
758
100
AcDbEntity
  8
0
  6
BYBLOCK
 62
     4
100
AcDbLine
 10
385.2101035578542
 20
263.9125359716274
 30
0.0
 11
385.2101035578542
 21
241.9658395870217
 31
0.0
  0
LINE
  5
790
330
758
100
AcDbEntity
  8
0
  6
BYBLOCK
 62
     4
100
AcDbLine
 10
391.2101035578542
 20
262.0170359716273
 30
0.0
 11
391.2101035578542
 21
241.9658395870217
 31
0.0
  0
LINE
  5
791
330
758
100
AcDbEntity
  8
0
  6
BYBLOCK
 62
     4
100
AcDbLine
 10
378.2101035578542
 20
244.9658395870217
 30
0.0
 11
371.2101035578542
 21
244.9658395870217
 31
0.0
  0
LINE
  5
792
330
758
100
AcDbEntity
  8
0
  6
BYBLOCK
 62
     4
100
AcDbLine
 10
398.2101035578542
 20
244.9658395870217
 30
0.0
 11
426.2101035578543
 21
244.9658395870217
 31
0.0
  0
LINE
  5
793
330
758
100
AcDbEntity
  8
0
  6
BYBLOCK
 62
     4
100
AcDbLine
 10
385.2101035578542
 20
244.9658395870217
 30
0.0
 11
391.2101035578542
 21
244.9658395870217
 31
0.0
  0
INSERT
  5
794
330
758
100
AcDbEntity
  8
0
  6
BYBLOCK
 62
     4
100
AcDbBlockReference
  2
_OPEN
 10
385.2101035578542
 20
244.9658395870217
 30
0.0
 41
7.0
 42
7.0
 43
7.0
  0
INSERT
  5
795
330
758
100
AcDbEntity
  8
0
  6
BYBLOCK
 62
     4
100
AcDbBlockReference
  2
_OPEN
 10
391.2101035578542
 20
244.9658395870217
 30
0.0
 41
7.0
 42
7.0
 43
7.0
 50
180.0
  0
MTEXT
  5
796
330
758
100
AcDbEntity
  8
0
  6
BYBLOCK
 62
     4
100
AcDbMText
 10
415.7101035578542
 20
249.9658395870217
 30
0.0
 40
6.0
 41
0.0
 71
     5
 72
     5
  1
\A1;t6.0
1001
ACAD
1000
MTEXTBEGIN
1070
    73
1070
     1
1070
    44
1040
1.0
1070
    74
1070
     0
1000
MTEXTEND
1000
MTEXTBEGIN
1070
    73
1070
     1
1070
    44
1040
1.0
1070
    74
1070
     0
1000
MTEXTEND
1000
MTEXTBEGIN
1070
    73
1070
     1
1070
    44
1040
1.0
1070
    74
1070
     0
1000
MTEXTEND
  0
POINT
  5
797
330
758
100
AcDbEntity
  8
DEFPOINTS
  6
BYBLOCK
 62
     0
100
AcDbPoint
 10
385.2101035578542
 20
269.9125359716274
 30
0.0
  0
POINT
  5
798
330
758
100
AcDbEntity
  8
DEFPOINTS
  6
BYBLOCK
 62
     0
100
AcDbPoint
 10
391.2101035578542
 20
268.0170359716273
 30
0.0
  0
POINT
  5
799
330
758
100
AcDbEntity
  8
DEFPOINTS
  6
BYBLOCK
 62
     0
100
AcDbPoint
 10
391.2101035578542
 20
244.9658395870217
 30
0.0
  0
ENDBLK
  5
79A
330
758
100
AcDbEntity
  8
0
100
AcDbBlockEnd
  0
ENDSEC
  0
SECTION
  2
ENTITIES
  0
LINE
  5
2C5
330
1A
100
AcDbEntity
  8
SEIHIN
  6
PHANTOM
 62
     6
 48
5.0
100
AcDbLine
 10
420.2101035578544
 20
270.0170359716274
 30
0.0
 11
422.2101035578544
 21
268.0170359716273
 31
0.0
  0
LINE
  5
2C6
330
1A
100
AcDbEntity
  8
SEIHIN
  6
PHANTOM
 62
     6
 48
5.0
100
AcDbLine
 10
422.2101035578544
 20
318.0170359716274
 30
0.0
 11
420.2101035578544
 21
316.0170359716274
 31
0.0
  0
ARC
  5
2C7
330
1A
100
AcDbEntity
  8
SEIHIN
  6
PHANTOM
 62
     6
 48
5.0
100
AcDbCircle
 10
415.2101035578543
 20
295.0171359716273
 30
0.0
 40
5.000000000000042
100
AcDbArc
 50
359.9999999999994
 51
89.99999999999952
  0
LINE
  5
2C8
330
1A
100
AcDbEntity
  8
SEIHIN
  6
PHANTOM
 62
     6
 48
5.0
100
AcDbLine
 10
420.2101035578544
 20
318.0170359716274
 30
0.0
 11
426.2101035578543
 21
318.0170359716274
 31
0.0
  0
LINE
  5
2CA
330
1A
100
AcDbEntity
  8
SEIHIN
  6
PHANTOM
 62
     6
 48
5.0
100
AcDbLine
 10
420.2101035578544
 20
316.0170359716274
 30
0.0
 11
420.2101035578544
 21
270.0170359716274
 31
0.0
  0
DIMENSION
  5
2CB
330
1A
100
AcDbEntity
  8
SUNPOU
100
AcDbDimension
  2
*D1
 10
411.3883851996352
 20
268.0170359716273
 30
0.0
 11
406.3883851996353
 21
293.0170359716274
 31
0.0
 12
0.0
 22
-40.0548217165865
 32
0.0
 70
    32
  3
STANDARD
100
AcDbAlignedDimension
 13
391.2101035578542
 23
318.0170359716274
 33
0.0
 14
391.2101035578542
 24
268.0170359716273
 34
0.0
 50
90.0
100
AcDbRotatedDimension
1001
ACAD
1000
DSTYLE
1002
{
1070
   140
1040
6.0
1070
    74
1070
     0
1070
   172
1070
     1
1070
    73
1070
     0
1070
   272
1070
     2
1070
    77
1070
     3
1070
   173
1070
     1
1070
   147
1040
2.0
1070
    42
1040
6.0
1070
    44
1040
3.0
1070
    43
1040
14.0
1070
   271
1070
     0
1070
   178
1070
     4
1070
   177
1070
     4
1070
   176
1070
     4
1070
   141
1040
150.0
1070
     7
1000
_OPEN
1070
     6
1000
_OPEN
1070
    41
1040
7.0
1002
}
  0
ARC
  5
2CC
330
1A
100
AcDbEntity
  8
NOITOI
  6
PHANTOM
 62
     8
 48
5.0
100
AcDbCircle
 10
378.2666495502636
 20
279.4896106714137
 30
0.0
 40
1.500016683246579
100
AcDbArc
 50
269.9993425123348
 51
358.207642324411
  0
ARC
  5
2CD
330
1A
100
AcDbEntity
  8
SEIHIN
  6
CONTINUOUS
 62
     3
 48
16.0
100
AcDbCircle
 10
372.7101099381109
 20
276.4125464551363
 30
0.0
 40
1.4999754680859
100
AcDbArc
 50
69.21871772088341
 51
228.1321216051506
  0
LINE
  5
2CE
330
1A
100
AcDbEntity
  8
SEIHIN
  6
CONTINUOUS
 62
     3
 48
16.0
100
AcDbLine
 10
364.1074035578544
 20
281.9397359716273
 30
0.0
 11
365.6655035578543
 21
276.4397359716274
 31
0.0
  0
LINE
  5
2CF
330
1A
100
AcDbEntity
  8
NOITOI
  6
PHANTOM
 62
     8
 48
5.0
100
AcDbLine
 10
370.0895323370853
 20
278.7393939882659
 30
0.0
 11
367.0965323370855
 21
248.8095939882658
 31
0.0
  0
LINE
  5
2D0
330
1A
100
AcDbEntity
  8
SEIHIN
  6
CONTINUOUS
 62
     3
 48
16.0
100
AcDbLine
 10
350.1632035578544
 20
280.3099359716274
 30
0.0
 11
345.2551035578544
 21
273.8099359716274
 31
0.0
  0
LINE
  5
2D1
330
1A
100
AcDbEntity
  8
SEIHIN
  6
CONTINUOUS
 62
     3
 48
16.0
100
AcDbLine
 10
349.3706035578544
 20
275.1115359716274
 30
0.0
 11
360.2086035578544
 21
289.4646359716274
 31
0.0
  0
LINE
  5
2D2
330
1A
100
AcDbEntity
  8
SEIHIN
  6
CONTINUOUS
 62
     3
 48
16.0
100
AcDbLine
 10
332.1102035578543
 20
281.9125359716273
 30
0.0
 11
332.1102035578543
 21
275.9124359716274
 31
0.0
  0
ARC
  5
2D3
330
1A
100
AcDbEntity
  8
SEIHIN
  6
CONTINUOUS
 62
     3
 48
16.0
100
AcDbCircle
 10
303.9571112178655
 20
285.4125397860702
 30
0.0
 40
9.000003814446076
100
AcDbArc
 50
269.9999512348755
 51
322.9436511488669
  0
ARC
  5
2D4
330
1A
100
AcDbEntity
  8
SEIHIN
  6
CONTINUOUS
 62
     3
 48
16.0
100
AcDbCircle
 10
363.3686526657736
 20
277.2098169630532
 30
0.0
 40
2.000008056636982
100
AcDbArc
 50
92.6809519242588
 51
204.8622939936202
  0
LINE
  5
2D5
330
1A
100
AcDbEntity
  8
SEIHIN
  6
CONTINUOUS
 62
     3
 48
16.0
100
AcDbLine
 10
391.2101035578542
 20
318.0170359716274
 30
0.0
 11
391.2101035578542
 21
268.0170359716273
 31
0.0
  0
LINE
  5
2D6
330
1A
100
AcDbEntity
  8
SEIHIN
  6
CONTINUOUS
 62
     3
 48
16.0
100
AcDbLine
 10
387.2101035578542
 20
318.0170359716274
 30
0.0
 11
387.2101035578542
 21
268.0170359716273
 31
0.0
  0
LINE
  5
2D7
330
1A
100
AcDbEntity
  8
SEIHIN
  6
CONTINUOUS
 62
     3
 48
16.0
100
AcDbLine
 10
385.2101035578542
 20
316.0170359716274
 30
0.0
 11
385.2101035578542
 21
269.9125359716274
 31
0.0
  0
LINE
  5
2D8
330
1A
100
AcDbEntity
  8
SEIHIN
  6
CONTINUOUS
 62
     3
 48
16.0
100
AcDbLine
 10
381.2101035578542
 20
294.4125359716273
 30
0.0
 11
381.2101035578542
 21
274.7224359716274
 31
0.0
  0
LINE
  5
2D9
330
1A
100
AcDbEntity
  8
SEIHIN
  6
CONTINUOUS
 62
     3
 48
16.0
100
AcDbLine
 10
281.2101035578543
 20
280.4125359716274
 30
0.0
 11
285.2101035578543
 21
276.4125359716274
 31
0.0
  0
LINE
  5
2DA
330
1A
100
AcDbEntity
  8
SEIHIN
  6
CONTINUOUS
 62
     3
 48
16.0
100
AcDbLine
 10
277.3100035578544
 20
281.9126359716274
 30
0.0
 11
277.3100035578544
 21
276.7775359716274
 31
0.0
  0
LINE
  5
2DB
330
1A
100
AcDbEntity
  8
SEIHIN
  6
CONTINUOUS
 62
     3
 48
16.0
100
AcDbLine
 10
277.9237035578544
 20
276.1901359716274
 30
0.0
 11
273.7446035578543
 21
280.1901359716274
 31
0.0
  0
LINE
  5
2DC
330
1A
100
AcDbEntity
  8
SEIHIN
  6
CONTINUOUS
 62
     3
 48
16.0
100
AcDbLine
 10
270.5000035578543
 20
279.8349359716274
 30
0.0
 11
276.1951035578543
 21
274.3840359716273
 31
0.0
  0
ARC
  5
2DD
330
1A
100
AcDbEntity
  8
NOITOI
  6
PHANTOM
 62
     8
 48
5.0
100
AcDbCircle
 10
262.1744682962364
 20
279.4895591341227
 30
0.0
 40
1.499965146287778
100
AcDbArc
 50
181.7866280217767
 51
269.9986264296976
  0
LINE
  5
2DE
330
1A
100
AcDbEntity
  8
CENTER_L
  6
CENTER
 62
     1
 48
5.0
100
AcDbLine
 10
291.2101035578544
 20
297.6791359716274
 30
0.0
 11
291.2100035578544
 21
269.0178359716274
 31
0.0
  0
ARC
  5
2DF
330
1A
100
AcDbEntity
  8
NOITOI
  6
PHANTOM
 62
     8
 48
5.0
100
AcDbCircle
 10
312.0341384190532
 20
281.9895883636095
 30
0.0
 40
41.79999437547816
100
AcDbArc
 50
184.474295212525
 51
269.9998545921086
  0
ARC
  5
2E5
330
1A
100
AcDbEntity
  8
SEIHIN
  6
CONTINUOUS
 62
     3
 48
16.0
100
AcDbCircle
 10
291.2100767119452
 20
280.6594359714156
 30
0.0
 40
9.746968980505872
100
AcDbArc
 50
235.6473109321945
 51
304.3516473263605
  0
LINE
  5
2E6
330
1A
100
AcDbEntity
  8
SEIHIN
  6
CONTINUOUS
 62
     3
 48
16.0
100
AcDbLine
 10
296.7100035578544
 20
272.6124359716274
 30
0.0
 11
285.7100035578544
 21
272.6125359716273
 31
0.0
  0
LINE
  5
2E7
330
1A
100
AcDbEntity
  8
SEIHIN
  6
CONTINUOUS
 62
     3
 48
16.0
100
AcDbLine
 10
278.6152035578544
 20
275.9125359716274
 30
0.0
 11
334.7959035578544
 21
275.9125359716274
 31
0.0
  0
LINE
  5
2E8
330
1A
100
AcDbEntity
  8
SEIHIN
  6
CONTINUOUS
 62
     3
 48
16.0
100
AcDbLine
 10
278.6152035578544
 20
273.4125359716273
 30
0.0
 11
334.7959035578544
 21
273.4125359716273
 31
0.0
  0
LINE
  5
2E9
330
1A
100
AcDbEntity
  8
SEIHIN
  6
CONTINUOUS
 62
     3
 48
16.0
100
AcDbLine
 10
285.2101035578543
 20
276.4125359716274
 30
0.0
 11
303.9571035578544
 21
276.4125359716274
 31
0.0
  0
ARC
  5
2EA
330
1A
100
AcDbEntity
  8
NOITOI
  6
PHANTOM
 62
     8
 48
5.0
100
AcDbCircle
 10
312.0341161106281
 20
281.989608464636
 30
0.0
 40
43.00001447645168
100
AcDbArc
 50
186.524910707118
 51
269.999888375144
  0
LINE
  5
2EB
330
1A
100
AcDbEntity
  8
NOITOI
  6
PHANTOM
 62
     8
 48
5.0
100
AcDbLine
 10
262.1744323370855
 20
277.9895939882659
 30
0.0
 11
268.3191323370855
 21
277.9895939882659
 31
0.0
  0
ARC
  5
2EC
330
1A
100
AcDbEntity
  8
NOITOI
  6
PHANTOM
 62
     8
 48
5.0
100
AcDbCircle
 10
268.3191239129229
 20
276.9896015033224
 30
0.0
 40
0.9999924849789756
100
AcDbArc
 50
6.528264606674428
 51
89.99951732740891
  0
ARC
  5
2ED
330
1A
100
AcDbEntity
  8
SEIHIN
  6
CONTINUOUS
 62
     3
 48
16.0
100
AcDbCircle
 10
278.6151823796533
 20
276.9125444740551
 30
0.0
 40
1.000008502651959
100
AcDbArc
 50
226.2531815870632
 51
270.0012134112234
  0
ARC
  5
2EE
330
1A
100
AcDbEntity
  8
SEIHIN
  6
CONTINUOUS
 62
     3
 48
16.0
100
AcDbCircle
 10
278.6151686373914
 20
276.9125499901428
 30
0.0
 40
3.500014018689605
100
AcDbArc
 50
226.2554456348519
 51
270.0005716534665
  0
LINE
  5
2EF
330
1A
100
AcDbEntity
  8
SEIHIN
  6
CONTINUOUS
 62
     3
 48
16.0
100
AcDbLine
 10
285.7100035578544
 20
272.6125359716273
 30
0.0
 11
285.7100035578544
 21
273.4125359716273
 31
0.0
  0
LINE
  5
2F0
330
1A
100
AcDbEntity
  8
NOITOI
  6
PHANTOM
 62
     8
 48
5.0
100
AcDbLine
 10
312.0341323370854
 20
240.1895939882659
 30
0.0
 11
356.6137323370855
 21
240.1894939882658
 31
0.0
  0
LINE
  5
2F1
330
1A
100
AcDbEntity
  8
NOITOI
  6
PHANTOM
 62
     8
 48
5.0
100
AcDbLine
 10
356.8635323370855
 20
238.9894939882658
 30
0.0
 11
312.0341323370854
 21
238.9895939882659
 31
0.0
  0
LINE
  5
2F2
330
1A
100
AcDbEntity
  8
SEIHIN
  6
CONTINUOUS
 62
     3
 48
16.0
100
AcDbLine
 10
350.3945035578544
 20
273.5348359716273
 30
0.0
 11
361.4177035578544
 21
276.0900359716274
 31
0.0
  0
LINE
  5
2F3
330
1A
100
AcDbEntity
  8
SEIHIN
  6
CONTINUOUS
 62
     3
 48
16.0
100
AcDbLine
 10
347.7101035578543
 20
270.9125359716273
 30
0.0
 11
365.2095035578543
 21
275.6350359716273
 31
0.0
  0
LINE
  5
2F4
330
1A
100
AcDbEntity
  8
SEIHIN
  6
CONTINUOUS
 62
     3
 48
16.0
100
AcDbLine
 10
296.7100035578544
 20
272.6124359716274
 30
0.0
 11
296.7100035578544
 21
273.4124359716274
 31
0.0
  0
LINE
  5
2F5
330
1A
100
AcDbEntity
  8
NOITOI
  6
PHANTOM
 62
     8
 48
5.0
100
AcDbLine
 10
352.8635323370855
 20
238.9894939882658
 30
0.0
 11
332.7056323370856
 21
238.9894939882658
 31
0.0
  0
LINE
  5
2F6
330
1A
100
AcDbEntity
  8
NOITOI
  6
PHANTOM
 62
     8
 48
5.0
100
AcDbLine
 10
352.6137323370855
 20
240.1894939882658
 30
0.0
 11
332.7056323370856
 21
240.1894939882658
 31
0.0
  0
ARC
  5
2F7
330
1A
100
AcDbEntity
  8
SEIHIN
  6
CONTINUOUS
 62
     3
 48
16.0
100
AcDbCircle
 10
339.1598587192488
 20
274.4125545443858
 30
0.0
 40
3.500018573045696
100
AcDbArc
 50
225.0007340140632
 51
270.0007340140632
  0
ARC
  5
2F8
330
1A
100
AcDbEntity
  8
SEIHIN
  6
CONTINUOUS
 62
     3
 48
16.0
100
AcDbCircle
 10
339.1599151340638
 20
274.4125311766041
 30
0.0
 40
0.9999952050438634
100
AcDbArc
 50
224.9993367288661
 51
269.9993367288651
  0
LINE
  5
2F9
330
1A
100
AcDbEntity
  8
SEIHIN
  6
CONTINUOUS
 62
     3
 48
16.0
100
AcDbLine
 10
338.4527035578543
 20
273.7054359716273
 30
0.0
 11
337.2708035578543
 21
274.8874359716273
 31
0.0
  0
ARC
  5
2FA
330
1A
100
AcDbEntity
  8
SEIHIN
  6
CONTINUOUS
 62
     3
 48
16.0
100
AcDbCircle
 10
334.7958919816448
 20
272.4125407666505
 30
0.0
 40
0.9999952050438183
100
AcDbArc
 50
44.99933672887221
 51
89.99933672887117
  0
ARC
  5
2FB
330
1A
100
AcDbEntity
  8
SEIHIN
  6
CONTINUOUS
 62
     3
 48
16.0
100
AcDbCircle
 10
334.7959483964599
 20
272.412517398869
 30
0.0
 40
3.500018573045681
100
AcDbArc
 50
45.00073401406382
 51
90.00073401406385
  0
LINE
  5
2FC
330
1A
100
AcDbEntity
  8
SEIHIN
  6
CONTINUOUS
 62
     3
 48
16.0
100
AcDbLine
 10
336.6850035578544
 20
271.9376359716274
 30
0.0
 11
335.5030035578542
 21
273.1196359716274
 31
0.0
  0
LINE
  5
2FD
330
1A
100
AcDbEntity
  8
SEIHIN
  6
CONTINUOUS
 62
     3
 48
16.0
100
AcDbLine
 10
347.7101035578543
 20
270.9125359716273
 30
0.0
 11
339.1599035578543
 21
270.9125359716273
 31
0.0
  0
LINE
  5
2FE
330
1A
100
AcDbEntity
  8
SEIHIN
  6
CONTINUOUS
 62
     3
 48
16.0
100
AcDbLine
 10
339.1599035578543
 20
273.4125359716273
 30
0.0
 11
344.4570035578543
 21
273.4125359716273
 31
0.0
  0
ARC
  5
2FF
330
1A
100
AcDbEntity
  8
SEIHIN
  6
CONTINUOUS
 62
     3
 48
16.0
100
AcDbCircle
 10
344.4570489242787
 20
274.4125585636171
 30
0.0
 40
1.000022593018801
100
AcDbArc
 50
269.9974007540733
 51
322.9430187151496
  0
ARC
  5
300
330
1A
100
AcDbEntity
  8
SEIHIN
  6
CONTINUOUS
 62
     3
 48
16.0
100
AcDbCircle
 10
350.1686696757287
 20
274.5089881490177
 30
0.0
 40
0.9999867034268168
100
AcDbArc
 50
142.9468340484985
 51
283.0520948798645
  0
LINE
  5
301
330
1A
100
AcDbEntity
  8
SEIHIN
  6
CONTINUOUS
 62
     3
 48
16.0
100
AcDbLine
 10
387.2101035578542
 20
268.0170359716273
 30
0.0
 11
391.2101035578542
 21
268.0170359716273
 31
0.0
  0
LINE
  5
302
330
1A
100
AcDbEntity
  8
CENTER_L
  6
CENTER
 62
     1
 48
5.0
100
AcDbLine
 10
383.0953035578544
 20
278.0171359716274
 30
0.0
 11
397.5780035578544
 21
278.0171359716274
 31
0.0
  0
LINE
  5
303
330
1A
100
AcDbEntity
  8
NOITOI
  6
PHANTOM
 62
     8
 48
5.0
100
AcDbLine
 10
371.1305323370855
 20
277.0890939882658
 30
0.0
 11
368.2617323370854
 21
248.4016939882659
 31
0.0
  0
LINE
  5
304
330
1A
100
AcDbEntity
  8
NOITOI
  6
PHANTOM
 62
     8
 48
5.0
100
AcDbLine
 10
366.9156323370855
 20
248.4722939882658
 30
0.0
 11
356.9303323370855
 21
240.3024939882658
 31
0.0
  0
LINE
  5
305
330
1A
100
AcDbEntity
  8
NOITOI
  6
PHANTOM
 62
     8
 48
5.0
100
AcDbLine
 10
367.8999323370855
 20
247.7271939882659
 30
0.0
 11
357.4968323370855
 21
239.2154939882659
 31
0.0
  0
ARC
  5
306
330
1A
100
AcDbEntity
  8
NOITOI
  6
PHANTOM
 62
     8
 48
5.0
100
AcDbCircle
 10
356.8635254045082
 20
239.9894915132597
 30
0.0
 40
0.9999975250179316
100
AcDbArc
 50
270.0003972084043
 51
309.2946416752298
  0
ARC
  5
307
330
1A
100
AcDbEntity
  8
NOITOI
  6
PHANTOM
 62
     8
 48
5.0
100
AcDbCircle
 10
356.613738724834
 20
240.6894962682555
 30
0.0
 40
0.5000022800304047
100
AcDbArc
 50
269.9992680212786
 51
309.2854498596058
  0
ARC
  5
308
330
1A
100
AcDbEntity
  8
NOITOI
  6
PHANTOM
 62
     8
 48
5.0
100
AcDbCircle
 10
366.5990149112074
 20
248.859261501878
 30
0.0
 40
0.4999904508696396
100
AcDbArc
 50
309.2900846377958
 51
354.2990110749245
  0
ARC
  5
309
330
1A
100
AcDbEntity
  8
NOITOI
  6
PHANTOM
 62
     8
 48
5.0
100
AcDbCircle
 10
367.2667097642163
 20
248.5011519165932
 30
0.0
 40
0.9999908507640039
100
AcDbArc
 50
309.2887092230696
 51
354.2862329477531
  0
ARC
  5
30A
330
1A
100
AcDbEntity
  8
NOITOI
  6
PHANTOM
 62
     8
 48
5.0
100
AcDbCircle
 10
372.1255529869265
 20
276.9896126761151
 30
0.0
 40
0.9999813123640345
100
AcDbArc
 50
90.00118317084957
 51
174.290590033351
  0
ARC
  5
30B
330
1A
100
AcDbEntity
  8
SEIHIN
  6
CONTINUOUS
 62
     3
 48
16.0
100
AcDbCircle
 10
361.372495561836
 20
276.2848196003749
 30
0.0
 40
0.1999610585390248
100
AcDbArc
 50
283.0666294599982
 51
24.87650068601265
  0
ARC
  5
30C
330
1A
100
AcDbEntity
  8
SEIHIN
  6
CONTINUOUS
 62
     3
 48
16.0
100
AcDbCircle
 10
365.0401228496257
 20
276.2625700190391
 30
0.0
 40
0.6499913883899075
100
AcDbArc
 50
285.1050235239315
 51
15.81705265692447
  0
ARC
  5
30D
330
1A
100
AcDbEntity
  8
SEIHIN
  6
CONTINUOUS
 62
     3
 48
16.0
100
AcDbCircle
 10
382.2101029203544
 20
269.912535686905
 30
0.0
 40
3.000000637499872
100
AcDbArc
 50
228.1333159372109
 51
0.0000054377959314
  0
ARC
  5
30E
330
1A
100
AcDbEntity
  8
SEIHIN
  6
CONTINUOUS
 62
     3
 48
16.0
100
AcDbCircle
 10
380.2101232957438
 20
274.7224495924502
 30
0.0
 40
0.9999802622031468
100
AcDbArc
 50
249.2171738629517
 51
359.9992195689401
  0
LINE
  5
30F
330
1A
100
AcDbEntity
  8
SEIHIN
  6
CONTINUOUS
 62
     3
 48
16.0
100
AcDbLine
 10
380.2079035578543
 20
267.6784359716273
 30
0.0
 11
371.7090035578542
 21
275.2955359716275
 31
0.0
  0
LINE
  5
310
330
1A
100
AcDbEntity
  8
SEIHIN
  6
CONTINUOUS
 62
     3
 48
16.0
100
AcDbLine
 10
373.2423035578543
 20
277.8149359716274
 30
0.0
 11
379.8553035578543
 21
273.7875359716274
 31
0.0
  0
LINE
  5
311
330
1A
100
AcDbEntity
  8
NOITOI
  6
PHANTOM
 62
     8
 48
5.0
100
AcDbLine
 10
378.2666323370853
 20
277.9895939882659
 30
0.0
 11
372.1255323370855
 21
277.9895939882659
 31
0.0
  0
LINE
  5
312
330
1A
100
AcDbEntity
  8
SEIHIN
  6
CONTINUOUS
 62
     3
 48
16.0
100
AcDbLine
 10
385.2101035578542
 20
270.0170359716274
 30
0.0
 11
387.2101035578542
 21
268.0170359716273
 31
0.0
  0
LINE
  5
313
330
1A
100
AcDbEntity
  8
CENTER_L
  6
CENTER
 62
     1
 48
5.0
100
AcDbLine
 10
255.2101035578543
 20
444.5057423849021
 30
0.0
 11
397.7511035578542
 21
444.5057423849021
 31
0.0
  0
ARC
  5
314
330
1A
100
AcDbEntity
  8
SEIHIN
  6
CONTINUOUS
 62
     3
 48
16.0
100
AcDbCircle
 10
291.209517012081
 20
444.5052306557862
 30
0.0
 40
5.499988270900564
100
AcDbArc
 50
187.8373732426364
 51
269.999859841446
  0
ARC
  5
315
330
1A
100
AcDbEntity
  8
SEIHIN
  6
CONTINUOUS
 62
     3
 48
16.0
100
AcDbCircle
 10
291.2094801296595
 20
444.5052621853705
 30
0.0
 40
4.500019800529353
100
AcDbArc
 50
189.5942812954961
 51
270.0002982957296
  0
ARC
  5
316
330
1A
100
AcDbEntity
  8
SEIHIN
  6
CONTINUOUS
 62
     3
 48
16.0
100
AcDbCircle
 10
291.209517012081
 20
444.505254114018
 30
0.0
 40
5.499988270900558
100
AcDbArc
 50
90.0001401585539
 51
172.1626267573635
  0
ARC
  5
317
330
1A
100
AcDbEntity
  8
SEIHIN
  6
CONTINUOUS
 62
     3
 48
16.0
100
AcDbCircle
 10
291.2094801296595
 20
444.5052225844336
 30
0.0
 40
4.500019800529408
100
AcDbArc
 50
89.99970170427115
 51
170.4057187045046
  0
ARC
  5
318
330
1A
100
AcDbEntity
  8
SEIHIN
  6
CONTINUOUS
 62
     3
 48
16.0
100
AcDbCircle
 10
291.2095035578544
 20
444.5052423849021
 30
0.0
 40
3.25
100
AcDbArc
 50
90.0
 51
270.0
  0
ARC
  5
319
330
1A
100
AcDbEntity
  8
SEIHIN
  6
CONTINUOUS
 62
     3
 48
16.0
100
AcDbCircle
 10
291.2095035578544
 20
444.5052423849022
 30
0.0
 40
2.499999999999943
100
AcDbArc
 50
90.0
 51
270.0
  0
LINE
  5
31A
330
1A
100
AcDbEntity
  8
SEIHIN
  6
CONTINUOUS
 62
     3
 48
16.0
100
AcDbLine
 10
384.2101035578544
 20
457.0057423849021
 30
0.0
 11
281.2102035578544
 21
457.0057423849021
 31
0.0
  0
LINE
  5
31B
330
1A
100
AcDbEntity
  8
SEIHIN
  6
CONTINUOUS
 62
     3
 48
16.0
100
AcDbLine
 10
384.2101035578544
 20
432.0057423849021
 30
0.0
 11
281.2102035578544
 21
432.0057423849021
 31
0.0
  0
LINE
  5
31C
330
1A
100
AcDbEntity
  8
SEIHIN
  6
CONTINUOUS
 62
     3
 48
16.0
100
AcDbLine
 10
291.2101035578544
 20
294.1125359716273
 30
0.0
 11
287.9601035578544
 21
294.1125359716273
 31
0.0
  0
LINE
  5
31D
330
1A
100
AcDbEntity
  8
SEIHIN
  6
CONTINUOUS
 62
     3
 48
16.0
100
AcDbLine
 10
291.2100035578544
 20
295.4125359716274
 30
0.0
 11
288.7101035578544
 21
295.4125359716274
 31
0.0
  0
LINE
  5
31E
330
1A
100
AcDbEntity
  8
SEIHIN
  6
CONTINUOUS
 62
     3
 48
16.0
100
AcDbLine
 10
285.7101035578543
 20
289.9125359716274
 30
0.0
 11
291.2101035578544
 21
289.9125359716274
 31
0.0
  0
LINE
  5
31F
330
1A
100
AcDbEntity
  8
SEIHIN
  6
CONTINUOUS
 62
     3
 48
16.0
100
AcDbLine
 10
286.7101035578544
 20
291.1125359716273
 30
0.0
 11
291.2101035578544
 21
291.1125359716273
 31
0.0
  0
LINE
  5
320
330
1A
100
AcDbEntity
  8
SEIHIN
  6
CONTINUOUS
 62
     3
 48
16.0
100
AcDbLine
 10
298.2223035578544
 20
288.4125359716273
 30
0.0
 11
281.2101035578543
 21
288.4125359716273
 31
0.0
  0
ARC
  5
321
330
1A
100
AcDbEntity
  8
SEIHIN
  6
CONTINUOUS
 62
     3
 48
16.0
100
AcDbCircle
 10
274.4361001443786
 20
280.9125274691996
 30
0.0
 40
1.000008502433501
100
AcDbArc
 50
89.99980442390286
 51
226.2517725997427
  0
LINE
  5
322
330
1A
100
AcDbEntity
  8
SEIHIN
  6
CONTINUOUS
 62
     3
 48
16.0
100
AcDbLine
 10
268.9101035578544
 20
284.4125359716273
 30
0.0
 11
281.2101035578543
 21
284.4125359716273
 31
0.0
  0
LINE
  5
323
330
1A
100
AcDbEntity
  8
NOITOI
  6
PHANTOM
 62
     8
 48
5.0
100
AcDbLine
 10
268.7455323370855
 20
284.9633939882658
 30
0.0
 11
269.0613323370854
 21
290.9632939882659
 31
0.0
  0
LINE
  5
324
330
1A
100
AcDbEntity
  8
NOITOI
  6
PHANTOM
 62
     8
 48
5.0
100
AcDbLine
 10
266.1975323370855
 20
289.1895939882658
 30
0.0
 11
267.1933323370855
 21
290.289593988266
 31
0.0
  0
LINE
  5
325
330
1A
100
AcDbEntity
  8
NOITOI
  6
PHANTOM
 62
     8
 48
5.0
100
AcDbLine
 10
261.4844323370855
 20
291.9645939882658
 30
0.0
 11
261.6338323370854
 21
287.1856939882659
 31
0.0
  0
LINE
  5
326
330
1A
100
AcDbEntity
  8
NOITOI
  6
PHANTOM
 62
     8
 48
5.0
100
AcDbLine
 10
260.2850323370855
 20
291.9270939882659
 30
0.0
 11
260.6752323370855
 21
279.4427939882658
 31
0.0
  0
ARC
  5
327
330
1A
100
AcDbEntity
  8
SEIHIN
  6
CONTINUOUS
 62
     3
 48
16.0
100
AcDbCircle
 10
265.5078151865529
 20
284.6846121741706
 30
0.0
 40
0.4999689691105136
100
AcDbArc
 50
164.0460514396623
 51
248.0346087936123
  0
LINE
  5
328
330
1A
100
AcDbEntity
  8
SEIHIN
  6
CONTINUOUS
 62
     3
 48
16.0
100
AcDbLine
 10
265.7280035578543
 20
287.2751359716275
 30
0.0
 11
265.0270035578544
 21
284.8220359716274
 31
0.0
  0
LINE
  5
329
330
1A
100
AcDbEntity
  8
SEIHIN
  6
CONTINUOUS
 62
     3
 48
16.0
100
AcDbLine
 10
264.9100035578544
 20
287.9125359716274
 30
0.0
 11
265.2472035578544
 21
287.9125359716274
 31
0.0
  0
LINE
  5
32A
330
1A
100
AcDbEntity
  8
NOITOI
  6
PHANTOM
 62
     8
 48
5.0
100
AcDbLine
 10
269.8630323370855
 20
279.1895939882658
 30
0.0
 11
263.8221323370856
 21
279.1895939882658
 31
0.0
  0
ARC
  5
32B
330
1A
100
AcDbEntity
  8
SEIHIN
  6
CONTINUOUS
 62
     3
 48
16.0
100
AcDbCircle
 10
265.2100035578544
 20
283.1125359716273
 30
0.0
 40
3.000000000000042
100
AcDbArc
 50
180.0000000000007
 51
270.0000000000008
  0
ARC
  5
32C
330
1A
100
AcDbEntity
  8
NOITOI
  6
PHANTOM
 62
     8
 48
5.0
100
AcDbCircle
 10
265.7356702185321
 20
283.9896377707913
 30
0.0
 40
3.999989731271038
100
AcDbArc
 50
96.47731142013144
 51
181.7899836067308
  0
ARC
  5
32D
330
1A
100
AcDbEntity
  8
NOITOI
  6
PHANTOM
 62
     8
 48
5.0
100
AcDbCircle
 10
265.7357525497545
 20
283.9896527166459
 30
0.0
 40
5.2000412730095
100
AcDbArc
 50
90.00132454306161
 51
142.0757990790561
  0
LINE
  5
32F
330
1A
100
AcDbEntity
  8
SEIHIN
  6
CONTINUOUS
 62
     3
 48
16.0
100
AcDbLine
 10
262.2100035578543
 20
284.4125359716273
 30
0.0
 11
262.2100035578543
 21
283.1125359716273
 31
0.0
  0
LINE
  5
330
330
1A
100
AcDbEntity
  8
NOITOI
  6
PHANTOM
 62
     8
 48
5.0
100
AcDbLine
 10
261.8231323370854
 20
281.1271939882659
 30
0.0
 11
261.7376323370855
 21
283.8646939882658
 31
0.0
  0
ARC
  5
331
330
1A
100
AcDbEntity
  8
SEIHIN
  6
CONTINUOUS
 62
     3
 48
16.0
100
AcDbCircle
 10
265.7087704125885
 20
284.5048930060652
 30
0.0
 40
3.499985617912851
100
AcDbArc
 50
103.190619234148
 51
181.5120869528077
  0
LINE
  5
332
330
1A
100
AcDbEntity
  8
SEIHIN
  6
CONTINUOUS
 62
     3
 48
16.0
100
AcDbLine
 10
265.0270035578544
 20
284.8220359716274
 30
0.0
 11
262.2232035578544
 21
284.8220359716274
 31
0.0
  0
ARC
  5
333
330
1A
100
AcDbEntity
  8
NOITOI
  6
PHANTOM
 62
     8
 48
5.0
100
AcDbCircle
 10
263.8221459092237
 20
281.1895808331794
 30
0.0
 40
1.999986844959662
100
AcDbArc
 50
181.7875531852363
 51
269.9996111843223
  0
ARC
  5
334
330
1A
100
AcDbEntity
  8
SEIHIN
  6
CONTINUOUS
 62
     3
 48
16.0
100
AcDbCircle
 10
265.2472214329292
 20
287.4125122727507
 30
0.0
 40
0.5000236991961878
100
AcDbArc
 50
344.0535045608409
 51
90.00204823560354
  0
ARC
  5
335
330
1A
100
AcDbEntity
  8
SEIHIN
  6
CONTINUOUS
 62
     3
 48
16.0
100
AcDbCircle
 10
266.9101718431474
 20
288.1623396177551
 30
0.0
 40
4.249794612449446
100
AcDbArc
 50
248.0382778609677
 51
298.0729203837752
  0
LINE
  5
336
330
1A
100
AcDbEntity
  8
NOITOI
  6
PHANTOM
 62
     8
 48
5.0
100
AcDbLine
 10
267.5820323370856
 20
285.6895939882659
 30
0.0
 11
266.8041323370855
 21
285.6895939882659
 31
0.0
  0
LINE
  5
337
330
1A
100
AcDbEntity
  8
NOITOI
  6
PHANTOM
 62
     8
 48
5.0
100
AcDbLine
 10
268.2461323370854
 20
284.4895939882659
 30
0.0
 11
265.9970323370854
 21
284.4895939882659
 31
0.0
  0
LINE
  5
338
330
1A
100
AcDbEntity
  8
NOITOI
  6
PHANTOM
 62
     8
 48
5.0
100
AcDbLine
 10
266.8041323370855
 20
285.6895939882659
 30
0.0
 11
267.2082323370854
 21
288.5179939882658
 31
0.0
  0
LINE
  5
339
330
1A
100
AcDbEntity
  8
NOITOI
  6
PHANTOM
 62
     8
 48
5.0
100
AcDbLine
 10
266.1975323370855
 20
289.1895939882658
 30
0.0
 11
265.7356323370854
 21
289.1895939882658
 31
0.0
  0
ARC
  5
33A
330
1A
100
AcDbEntity
  8
NOITOI
  6
PHANTOM
 62
     8
 48
5.0
100
AcDbCircle
 10
265.9970589376829
 20
284.9895633113837
 30
0.0
 40
0.4999693238254178
100
AcDbArc
 50
171.8555038770532
 51
269.9969516090348
  0
LINE
  5
33B
330
1A
100
AcDbEntity
  8
NOITOI
  6
PHANTOM
 62
     8
 48
5.0
100
AcDbLine
 10
265.5021323370855
 20
285.060393988266
 30
0.0
 11
265.8358323370855
 21
287.3965939882659
 31
0.0
  0
LINE
  5
33C
330
1A
100
AcDbEntity
  8
NOITOI
  6
PHANTOM
 62
     8
 48
5.0
100
AcDbLine
 10
267.2082323370854
 20
288.5179939882658
 30
0.0
 11
267.7632323370854
 21
289.1310939882659
 31
0.0
  0
ARC
  5
33D
330
1A
100
AcDbEntity
  8
NOITOI
  6
PHANTOM
 62
     8
 48
5.0
100
AcDbCircle
 10
268.2461254500906
 20
284.9895874531804
 30
0.0
 40
0.499993464961963
100
AcDbArc
 50
270.0007892017873
 51
356.9970361317427
  0
LINE
  5
33E
330
1A
100
AcDbEntity
  8
NOITOI
  6
PHANTOM
 62
     8
 48
5.0
100
AcDbLine
 10
267.5820323370856
 20
285.6895939882659
 30
0.0
 11
267.7632323370854
 21
289.1310939882659
 31
0.0
  0
ARC
  5
33F
330
1A
100
AcDbEntity
  8
NOITOI
  6
PHANTOM
 62
     8
 48
5.0
100
AcDbCircle
 10
265.3408465555008
 20
287.4672793539649
 30
0.0
 40
0.5000073448410256
100
AcDbArc
 50
351.8729478641243
 51
96.47829282996843
  0
ARC
  5
340
330
1A
100
AcDbEntity
  8
SEIHIN
  6
CONTINUOUS
 62
     3
 48
16.0
100
AcDbCircle
 10
269.8085386131345
 20
279.1125620423071
 30
0.0
 40
0.9999739314291876
100
AcDbArc
 50
46.25238621304171
 51
89.99627884464459
  0
LINE
  5
341
330
1A
100
AcDbEntity
  8
SEIHIN
  6
CONTINUOUS
 62
     3
 48
16.0
100
AcDbLine
 10
265.2100035578544
 20
280.1125359716273
 30
0.0
 11
269.8086035578544
 21
280.1125359716273
 31
0.0
  0
ARC
  5
342
330
1A
100
AcDbEntity
  8
NOITOI
  6
PHANTOM
 62
     8
 48
5.0
100
AcDbCircle
 10
269.8630449067938
 20
278.6895823635361
 30
0.0
 40
0.5000116248877111
100
AcDbArc
 50
4.474846808342897
 51
90.00144034898337
  0
LINE
  5
343
330
1A
100
AcDbEntity
  8
NOITOI
  6
PHANTOM
 62
     8
 48
5.0
100
AcDbLine
 10
262.2840323370855
 20
293.9895939882658
 30
0.0
 11
265.6106323370855
 21
293.9895939882658
 31
0.0
  0
LINE
  5
344
330
1A
100
AcDbEntity
  8
NOITOI
  6
PHANTOM
 62
     8
 48
5.0
100
AcDbLine
 10
264.2568323370856
 20
290.289593988266
 30
0.0
 11
267.1933323370855
 21
290.289593988266
 31
0.0
  0
LINE
  5
345
330
1A
100
AcDbEntity
  8
NOITOI
  6
PHANTOM
 62
     8
 48
5.0
100
AcDbLine
 10
264.7568323370856
 20
292.789593988266
 30
0.0
 11
264.2568323370856
 21
290.289593988266
 31
0.0
  0
ARC
  5
346
330
1A
100
AcDbEntity
  8
NOITOI
  6
PHANTOM
 62
     8
 48
5.0
100
AcDbCircle
 10
262.2840368318833
 20
291.9895986257928
 30
0.0
 40
0.7999953624857498
100
AcDbArc
 50
90.00032191805336
 51
181.7911273464199
  0
LINE
  5
347
330
1A
100
AcDbEntity
  8
NOITOI
  6
PHANTOM
 62
     8
 48
5.0
100
AcDbLine
 10
262.2840323370855
 20
292.789593988266
 30
0.0
 11
264.7568323370856
 21
292.789593988266
 31
0.0
  0
ARC
  5
348
330
1A
100
AcDbEntity
  8
NOITOI
  6
PHANTOM
 62
     8
 48
5.0
100
AcDbCircle
 10
262.2840450879357
 20
291.9896071433523
 30
0.0
 40
1.999986844954076
100
AcDbArc
 50
90.00036528735526
 51
181.7883072882699
  0
LINE
  5
349
330
1A
100
AcDbEntity
  8
NOITOI
  6
PHANTOM
 62
     8
 48
5.0
100
AcDbLine
 10
268.5619323370854
 20
291.4895939882659
 30
0.0
 11
266.3304323370855
 21
291.4895939882659
 31
0.0
  0
LINE
  5
34A
330
1A
100
AcDbEntity
  8
NOITOI
  6
PHANTOM
 62
     8
 48
5.0
100
AcDbLine
 10
265.8401323370856
 20
292.0876939882658
 30
0.0
 11
266.1009323370854
 21
293.3915939882658
 31
0.0
  0
ARC
  5
34B
330
1A
100
AcDbEntity
  8
NOITOI
  6
PHANTOM
 62
     8
 48
5.0
100
AcDbCircle
 10
266.3304250825297
 20
291.9896028381092
 30
0.0
 40
0.5000088498959383
100
AcDbArc
 50
168.6864043304884
 51
270.0008312961434
  0
ARC
  5
34C
330
1A
100
AcDbEntity
  8
NOITOI
  6
PHANTOM
 62
     8
 48
5.0
100
AcDbCircle
 10
268.5619261359277
 20
290.9896005233512
 30
0.0
 40
0.4999934649531607
100
AcDbArc
 50
356.9955363203384
 51
89.99928939038005
  0
ARC
  5
34D
330
1A
100
AcDbEntity
  8
NOITOI
  6
PHANTOM
 62
     8
 48
5.0
100
AcDbCircle
 10
265.6106315540773
 20
293.4895949432676
 30
0.0
 40
0.4999990449987349
100
AcDbArc
 50
348.6967198015448
 51
89.99991027369452
  0
LINE
  5
34E
330
1A
100
AcDbEntity
  8
SEIHIN
  6
CONTINUOUS
 62
     3
 48
16.0
100
AcDbLine
 10
286.7101035578544
 20
291.1125359716273
 30
0.0
 11
287.2101035578543
 21
289.9125359716274
 31
0.0
  0
LINE
  5
34F
330
1A
100
AcDbEntity
  8
SEIHIN
  6
CONTINUOUS
 62
     3
 48
16.0
100
AcDbLine
 10
281.2101035578543
 20
280.4125359716274
 30
0.0
 11
281.2101035578543
 21
288.4125359716273
 31
0.0
  0
LINE
  5
350
330
1A
100
AcDbEntity
  8
SEIHIN
  6
CONTINUOUS
 62
     3
 48
16.0
100
AcDbLine
 10
281.2101035578543
 20
281.9125359716273
 30
0.0
 11
274.4361035578544
 21
281.9125359716273
 31
0.0
  0
LINE
  5
351
330
1A
100
AcDbEntity
  8
SEIHIN
  6
CONTINUOUS
 62
     3
 48
16.0
100
AcDbLine
 10
285.7101035578543
 20
289.9125359716274
 30
0.0
 11
285.7101035578543
 21
288.4125359716273
 31
0.0
  0
LINE
  5
352
330
1A
100
AcDbEntity
  8
SEIHIN
  6
CONTINUOUS
 62
     3
 48
16.0
100
AcDbLine
 10
288.7101035578544
 20
295.4125359716274
 30
0.0
 11
288.7101035578544
 21
294.1125359716273
 31
0.0
  0
ARC
  5
353
330
1A
100
AcDbEntity
  8
SEIHIN
  6
CONTINUOUS
 62
     3
 48
16.0
100
AcDbCircle
 10
283.3250114731107
 20
298.6059529468558
 30
0.0
 40
1.499989134940355
100
AcDbArc
 50
104.9992945073461
 51
205.0039691602898
  0
ARC
  5
354
330
1A
100
AcDbEntity
  8
SEIHIN
  6
CONTINUOUS
 62
     3
 48
16.0
100
AcDbCircle
 10
283.3250006530278
 20
298.6059297418555
 30
0.0
 40
0.4999420316314277
100
AcDbArc
 50
105.0003056294816
 51
205.0011555088683
  0
LINE
  5
355
330
1A
100
AcDbEntity
  8
SEIHIN
  6
CONTINUOUS
 62
     3
 48
16.0
100
AcDbLine
 10
285.5603035578544
 20
299.2048359716274
 30
0.0
 11
286.8619035578543
 21
294.3472359716274
 31
0.0
  0
ARC
  5
356
330
1A
100
AcDbEntity
  8
SEIHIN
  6
CONTINUOUS
 62
     3
 48
16.0
100
AcDbCircle
 10
286.3789014468039
 20
294.2178042656168
 30
0.0
 40
0.5000436038986905
100
AcDbArc
 50
337.3871071409136
 51
15.00129275639684
  0
LINE
  5
357
330
1A
100
AcDbEntity
  8
SEIHIN
  6
CONTINUOUS
 62
     3
 48
16.0
100
AcDbLine
 10
284.1892035578544
 20
295.5695359716274
 30
0.0
 11
282.8718035578543
 21
298.3946359716274
 31
0.0
  0
LINE
  5
358
330
1A
100
AcDbEntity
  8
SEIHIN
  6
CONTINUOUS
 62
     3
 48
16.0
100
AcDbLine
 10
281.9655035578544
 20
297.9719359716274
 30
0.0
 11
283.2829035578543
 21
295.1469359716273
 31
0.0
  0
ARC
  5
359
330
1A
100
AcDbEntity
  8
SEIHIN
  6
CONTINUOUS
 62
     3
 48
16.0
100
AcDbCircle
 10
285.0773035578544
 20
299.0754359716273
 30
0.0
 40
1.500003483329287
100
AcDbArc
 50
14.99883465683398
 51
104.998834656836
  0
ARC
  5
35A
330
1A
100
AcDbEntity
  8
SEIHIN
  6
CONTINUOUS
 62
     3
 48
16.0
100
AcDbCircle
 10
285.0773035578544
 20
299.0754359716273
 30
0.0
 40
0.5000333588872379
100
AcDbArc
 50
14.99784618189456
 51
104.9978461818978
  0
LINE
  5
35B
330
1A
100
AcDbEntity
  8
SEIHIN
  6
CONTINUOUS
 62
     3
 48
16.0
100
AcDbLine
 10
283.1956035578544
 20
299.0888359716273
 30
0.0
 11
284.9480035578544
 21
299.5584359716274
 31
0.0
  0
LINE
  5
35C
330
1A
100
AcDbEntity
  8
SEIHIN
  6
CONTINUOUS
 62
     3
 48
16.0
100
AcDbLine
 10
284.6891035578543
 20
300.5243359716273
 30
0.0
 11
282.9368035578543
 21
300.0548359716274
 31
0.0
  0
LINE
  5
35D
330
1A
100
AcDbEntity
  8
SEIHIN
  6
CONTINUOUS
 62
     3
 48
16.0
100
AcDbLine
 10
287.9601035578544
 20
294.1125359716273
 30
0.0
 11
286.5263035578543
 21
299.4636359716274
 31
0.0
  0
ARC
  5
35E
330
1A
100
AcDbEntity
  8
SEIHIN
  6
CONTINUOUS
 62
     3
 48
16.0
100
AcDbCircle
 10
286.1170469397626
 20
293.5894258619582
 30
0.0
 40
0.5000099135293789
100
AcDbArc
 50
222.8722729487866
 51
337.3828182613747
  0
ARC
  5
35F
330
1A
100
AcDbEntity
  8
SEIHIN
  6
CONTINUOUS
 62
     3
 48
16.0
100
AcDbCircle
 10
292.3458947683954
 20
299.3731976340244
 30
0.0
 40
8.9999696413992
100
AcDbArc
 50
205.000773641598
 51
222.8782296717031
  0
ARC
  5
360
330
1A
100
AcDbEntity
  8
SEIHIN
  6
CONTINUOUS
 62
     3
 48
16.0
100
AcDbCircle
 10
292.3460435163462
 20
299.3729889328481
 30
0.0
 40
10.00000147691266
100
AcDbArc
 50
204.9991763848219
 51
235.694599428103
  0
LINE
  5
361
330
1A
100
AcDbEntity
  8
SEIHIN
  6
CONTINUOUS
 62
     3
 48
16.0
100
AcDbLine
 10
286.8405035578544
 20
294.0255359716274
 30
0.0
 11
286.5786035578543
 21
293.3971359716273
 31
0.0
  0
LINE
  5
362
330
1A
100
AcDbEntity
  8
SEIHIN
  6
CONTINUOUS
 62
     3
 48
16.0
100
AcDbLine
 10
286.7101035578544
 20
291.1125359716273
 30
0.0
 11
287.9601035578544
 21
294.1125359716273
 31
0.0
  0
LINE
  5
363
330
1A
100
AcDbEntity
  8
SEIHIN
  6
CONTINUOUS
 62
     3
 48
16.0
100
AcDbLine
 10
268.9101035578544
 20
437.0058423849022
 30
0.0
 11
268.9101035578544
 21
444.5057423849021
 31
0.0
  0
LINE
  5
364
330
1A
100
AcDbEntity
  8
SEIHIN
  6
CONTINUOUS
 62
     3
 48
16.0
100
AcDbLine
 10
265.9102035578544
 20
432.505742384902
 30
0.0
 11
265.9102035578544
 21
444.5057423849021
 31
0.0
  0
LINE
  5
365
330
1A
100
AcDbEntity
  8
SEIHIN
  6
CONTINUOUS
 62
     3
 48
16.0
100
AcDbLine
 10
281.2102035578544
 20
432.0057423849021
 30
0.0
 11
281.2102035578544
 21
444.5057423849021
 31
0.0
  0
LINE
  5
366
330
1A
100
AcDbEntity
  8
SEIHIN
  6
CONTINUOUS
 62
     3
 48
16.0
100
AcDbLine
 10
262.2101035578543
 20
432.505742384902
 30
0.0
 11
262.2101035578543
 21
444.5057423849021
 31
0.0
  0
LINE
  5
367
330
1A
100
AcDbEntity
  8
SEIHIN
  6
CONTINUOUS
 62
     3
 48
16.0
100
AcDbLine
 10
281.2102035578544
 20
437.005742384902
 30
0.0
 11
265.9101035578543
 21
437.005742384902
 31
0.0
  0
LINE
  5
368
330
1A
100
AcDbEntity
  8
SEIHIN
  6
CONTINUOUS
 62
     3
 48
16.0
100
AcDbLine
 10
262.2101035578543
 20
432.505742384902
 30
0.0
 11
265.9102035578544
 21
432.505742384902
 31
0.0
  0
LINE
  5
369
330
1A
100
AcDbEntity
  8
SEIHIN
  6
CONTINUOUS
 62
     3
 48
16.0
100
AcDbLine
 10
281.2102035578544
 20
452.0057423849022
 30
0.0
 11
265.9101035578543
 21
452.0057423849022
 31
0.0
  0
LINE
  5
36A
330
1A
100
AcDbEntity
  8
SEIHIN
  6
CONTINUOUS
 62
     3
 48
16.0
100
AcDbLine
 10
265.9102035578544
 20
456.5057423849021
 30
0.0
 11
265.9102035578544
 21
444.5057423849021
 31
0.0
  0
LINE
  5
36B
330
1A
100
AcDbEntity
  8
SEIHIN
  6
CONTINUOUS
 62
     3
 48
16.0
100
AcDbLine
 10
262.2101035578543
 20
456.5057423849021
 30
0.0
 11
262.2101035578543
 21
444.5057423849021
 31
0.0
  0
LINE
  5
36C
330
1A
100
AcDbEntity
  8
SEIHIN
  6
CONTINUOUS
 62
     3
 48
16.0
100
AcDbLine
 10
268.9101035578544
 20
452.0056423849021
 30
0.0
 11
268.9101035578544
 21
444.5057423849021
 31
0.0
  0
LINE
  5
36D
330
1A
100
AcDbEntity
  8
SEIHIN
  6
CONTINUOUS
 62
     3
 48
16.0
100
AcDbLine
 10
262.2101035578543
 20
456.5057423849021
 30
0.0
 11
265.9102035578544
 21
456.5057423849021
 31
0.0
  0
LINE
  5
36E
330
1A
100
AcDbEntity
  8
SEIHIN
  6
CONTINUOUS
 62
     3
 48
16.0
100
AcDbLine
 10
281.2102035578544
 20
457.0056423849022
 30
0.0
 11
281.2102035578544
 21
444.5057423849021
 31
0.0
  0
LINE
  5
36F
330
1A
100
AcDbEntity
  8
SEIHIN
  6
CONTINUOUS
 62
     3
 48
16.0
100
AcDbLine
 10
281.8245035578543
 20
444.0052423849022
 30
0.0
 11
281.8245035578543
 21
445.0052423849021
 31
0.0
  0
ARC
  5
370
330
1A
100
AcDbEntity
  8
SEIHIN
  6
CONTINUOUS
 62
     3
 48
16.0
100
AcDbCircle
 10
282.0745035578544
 20
444.0052423849022
 30
0.0
 40
0.2500000000000568
100
AcDbArc
 50
179.9999999999869
 51
269.999999999987
  0
ARC
  5
371
330
1A
100
AcDbEntity
  8
SEIHIN
  6
CONTINUOUS
 62
     3
 48
16.0
100
AcDbCircle
 10
282.0745035578543
 20
445.0052423849021
 30
0.0
 40
0.25
100
AcDbArc
 50
90.0
 51
180.0
  0
LINE
  5
372
330
1A
100
AcDbEntity
  8
SEIHIN
  6
CONTINUOUS
 62
     3
 48
16.0
100
AcDbLine
 10
282.0745035578543
 20
443.755242384902
 30
0.0
 11
288.0473035578543
 21
443.755242384902
 31
0.0
  0
LINE
  5
373
330
1A
100
AcDbEntity
  8
SEIHIN
  6
CONTINUOUS
 62
     3
 48
16.0
100
AcDbLine
 10
282.0745035578543
 20
445.255242384902
 30
0.0
 11
288.0473035578543
 21
445.255242384902
 31
0.0
  0
ARC
  5
374
330
1A
100
AcDbEntity
  8
SEIHIN
  6
CONTINUOUS
 62
     3
 48
16.0
100
AcDbCircle
 10
374.1774591161321
 20
281.4124887001252
 30
0.0
 40
24.50000311038991
100
AcDbArc
 50
130.5910228712702
 51
142.943237165125
  0
LINE
  5
375
330
1A
100
AcDbEntity
  8
SEIHIN
  6
CONTINUOUS
 62
     3
 48
16.0
100
AcDbLine
 10
334.2302035578544
 20
300.0171359716274
 30
0.0
 11
380.2101035578544
 21
300.0171359716274
 31
0.0
  0
LINE
  5
376
330
1A
100
AcDbEntity
  8
SEIHIN
  6
CONTINUOUS
 62
     3
 48
16.0
100
AcDbLine
 10
385.2101035578542
 20
318.0170359716274
 30
0.0
 11
332.0495035578544
 21
313.3661359716274
 31
0.0
  0
LINE
  5
377
330
1A
100
AcDbEntity
  8
SEIHIN
  6
CONTINUOUS
 62
     3
 48
16.0
100
AcDbLine
 10
358.2135035578544
 20
290.9711359716274
 30
0.0
 11
353.5612035578543
 21
284.8099359716274
 31
0.0
  0
ARC
  5
378
330
1A
100
AcDbEntity
  8
SEIHIN
  6
CONTINUOUS
 62
     3
 48
16.0
100
AcDbCircle
 10
334.2300383375261
 20
284.0171034944447
 30
0.0
 40
16.00003247803575
100
AcDbArc
 50
89.99940834948198
 51
142.9431566083074
  0
ARC
  5
379
330
1A
100
AcDbEntity
  8
SEIHIN
  6
CONTINUOUS
 62
     3
 48
16.0
100
AcDbCircle
 10
334.5770446906409
 20
284.4764587453489
 30
0.0
 40
29.00003300716188
100
AcDbArc
 50
95.00004306917714
 51
142.9435212941017
  0
LINE
  5
37A
330
1A
100
AcDbEntity
  8
SEIHIN
  6
CONTINUOUS
 62
     3
 48
16.0
100
AcDbLine
 10
314.4796035578543
 20
284.4125359716273
 30
0.0
 11
340.1202035578544
 21
284.4125359716273
 31
0.0
  0
LINE
  5
37B
330
1A
100
AcDbEntity
  8
SEIHIN
  6
CONTINUOUS
 62
     3
 48
16.0
100
AcDbLine
 10
349.3652035578544
 20
281.9125359716273
 30
0.0
 11
312.5918035578544
 21
281.9125359716273
 31
0.0
  0
LINE
  5
37C
330
1A
100
AcDbEntity
  8
SEIHIN
  6
CONTINUOUS
 62
     3
 48
16.0
100
AcDbLine
 10
311.4337035578543
 20
301.9519359716274
 30
0.0
 11
303.0106035578544
 21
290.7969359716273
 31
0.0
  0
ARC
  5
37D
330
1A
100
AcDbEntity
  8
SEIHIN
  6
CONTINUOUS
 62
     3
 48
16.0
100
AcDbCircle
 10
298.2223353744203
 20
294.4125518153355
 30
0.0
 40
6.000015843792516
100
AcDbArc
 50
269.9996961749786
 51
322.9435879013318
  0
LINE
  5
37E
330
1A
100
AcDbEntity
  8
SEIHIN
  6
CONTINUOUS
 62
     3
 48
16.0
100
AcDbLine
 10
295.7101035578543
 20
291.1125359716273
 30
0.0
 11
295.2101035578544
 21
289.9125359716274
 31
0.0
  0
LINE
  5
37F
330
1A
100
AcDbEntity
  8
SEIHIN
  6
CONTINUOUS
 62
     3
 48
16.0
100
AcDbLine
 10
296.7101035578544
 20
289.9125359716274
 30
0.0
 11
296.7101035578544
 21
288.4125359716273
 31
0.0
  0
LINE
  5
380
330
1A
100
AcDbEntity
  8
SEIHIN
  6
CONTINUOUS
 62
     3
 48
16.0
100
AcDbLine
 10
296.7101035578544
 20
289.9125359716274
 30
0.0
 11
291.2101035578544
 21
289.9125359716274
 31
0.0
  0
LINE
  5
381
330
1A
100
AcDbEntity
  8
SEIHIN
  6
CONTINUOUS
 62
     3
 48
16.0
100
AcDbLine
 10
299.2246035578543
 20
299.0888359716273
 30
0.0
 11
297.4722035578543
 21
299.5583359716274
 31
0.0
  0
LINE
  5
382
330
1A
100
AcDbEntity
  8
SEIHIN
  6
CONTINUOUS
 62
     3
 48
16.0
100
AcDbLine
 10
297.7311035578543
 20
300.5242359716274
 30
0.0
 11
299.4834035578544
 21
300.0547359716273
 31
0.0
  0
ARC
  5
383
330
1A
100
AcDbEntity
  8
SEIHIN
  6
CONTINUOUS
 62
     3
 48
16.0
100
AcDbCircle
 10
290.0742842176108
 20
299.3731309218997
 30
0.0
 40
9.999994428414844
100
AcDbArc
 50
304.3038978962831
 51
334.9992749556042
  0
ARC
  5
384
330
1A
100
AcDbEntity
  8
SEIHIN
  6
CONTINUOUS
 62
     3
 48
16.0
100
AcDbCircle
 10
290.0740272765637
 20
299.3727740192085
 30
0.0
 40
8.999958350728695
100
AcDbArc
 50
317.1245149340529
 51
335.0021684436565
  0
LINE
  5
385
330
1A
100
AcDbEntity
  8
SEIHIN
  6
CONTINUOUS
 62
     3
 48
16.0
100
AcDbLine
 10
296.8598035578543
 20
299.2048359716274
 30
0.0
 11
295.5582035578543
 21
294.3472359716274
 31
0.0
  0
ARC
  5
386
330
1A
100
AcDbEntity
  8
SEIHIN
  6
CONTINUOUS
 62
     3
 48
16.0
100
AcDbCircle
 10
296.0411961542389
 20
294.2179471025639
 30
0.0
 40
0.4999974598195062
100
AcDbArc
 50
165.0142351983105
 51
202.6328278695855
  0
ARC
  5
387
330
1A
100
AcDbEntity
  8
SEIHIN
  6
CONTINUOUS
 62
     3
 48
16.0
100
AcDbCircle
 10
297.3428035578543
 20
299.0754359716274
 30
0.0
 40
1.50000348332921
100
AcDbArc
 50
75.00116534316727
 51
165.0011653431672
  0
ARC
  5
388
330
1A
100
AcDbEntity
  8
SEIHIN
  6
CONTINUOUS
 62
     3
 48
16.0
100
AcDbCircle
 10
297.3427444089644
 20
299.0754018210764
 30
0.0
 40
0.4999850647767063
100
AcDbArc
 50
74.99365376779476
 51
164.9966195745732
  0
ARC
  5
389
330
1A
100
AcDbEntity
  8
SEIHIN
  6
CONTINUOUS
 62
     3
 48
16.0
100
AcDbCircle
 10
296.3030632676067
 20
293.5893431702408
 30
0.0
 40
0.500019423927903
100
AcDbArc
 50
202.6188762781304
 51
317.1260325117122
  0
LINE
  5
38A
330
1A
100
AcDbEntity
  8
SEIHIN
  6
CONTINUOUS
 62
     3
 48
16.0
100
AcDbLine
 10
295.5797035578544
 20
294.0255359716274
 30
0.0
 11
295.8415035578543
 21
293.3970359716273
 31
0.0
  0
LINE
  5
38B
330
1A
100
AcDbEntity
  8
SEIHIN
  6
CONTINUOUS
 62
     3
 48
16.0
100
AcDbLine
 10
291.2101035578544
 20
295.4125359716274
 30
0.0
 11
293.7100035578544
 21
295.4125359716274
 31
0.0
  0
LINE
  5
38C
330
1A
100
AcDbEntity
  8
SEIHIN
  6
CONTINUOUS
 62
     3
 48
16.0
100
AcDbLine
 10
291.2101035578544
 20
294.1125359716273
 30
0.0
 11
294.4601035578544
 21
294.1125359716273
 31
0.0
  0
LINE
  5
38D
330
1A
100
AcDbEntity
  8
SEIHIN
  6
CONTINUOUS
 62
     3
 48
16.0
100
AcDbLine
 10
293.7101035578543
 20
295.4125359716274
 30
0.0
 11
293.7101035578543
 21
294.1125359716273
 31
0.0
  0
LINE
  5
38E
330
1A
100
AcDbEntity
  8
SEIHIN
  6
CONTINUOUS
 62
     3
 48
16.0
100
AcDbLine
 10
294.4601035578544
 20
294.1125359716273
 30
0.0
 11
295.8939035578544
 21
299.4636359716274
 31
0.0
  0
LINE
  5
38F
330
1A
100
AcDbEntity
  8
SEIHIN
  6
CONTINUOUS
 62
     3
 48
16.0
100
AcDbLine
 10
295.7101035578543
 20
291.1125359716273
 30
0.0
 11
294.4601035578544
 21
294.1125359716273
 31
0.0
  0
LINE
  5
390
330
1A
100
AcDbEntity
  8
SEIHIN
  6
CONTINUOUS
 62
     3
 48
16.0
100
AcDbLine
 10
295.7101035578543
 20
291.1125359716273
 30
0.0
 11
291.2101035578544
 21
291.1125359716273
 31
0.0
  0
ARC
  5
391
330
1A
100
AcDbEntity
  8
SEIHIN
  6
CONTINUOUS
 62
     3
 48
16.0
100
AcDbCircle
 10
299.0951018439501
 20
298.6058396471872
 30
0.0
 40
1.500026259769189
100
AcDbArc
 50
335.0014672723533
 51
74.99737625414335
  0
ARC
  5
392
330
1A
100
AcDbEntity
  8
SEIHIN
  6
CONTINUOUS
 62
     3
 48
16.0
100
AcDbCircle
 10
299.0951048185091
 20
298.6058332684731
 30
0.0
 40
0.5000356437279638
100
AcDbArc
 50
335.003400598327
 51
75.00237350206521
  0
LINE
  5
393
330
1A
100
AcDbEntity
  8
SEIHIN
  6
CONTINUOUS
 62
     3
 48
16.0
100
AcDbLine
 10
298.2309035578544
 20
295.5694359716273
 30
0.0
 11
299.5483035578544
 21
298.3945359716274
 31
0.0
  0
LINE
  5
394
330
1A
100
AcDbEntity
  8
SEIHIN
  6
CONTINUOUS
 62
     3
 48
16.0
100
AcDbLine
 10
300.4546035578544
 20
297.9719359716274
 30
0.0
 11
299.1372035578543
 21
295.1468359716274
 31
0.0
  0
LINE
  5
395
330
1A
100
AcDbEntity
  8
SEIHIN
  6
CONTINUOUS
 62
     3
 48
16.0
100
AcDbLine
 10
311.1395035578544
 20
279.9891359716274
 30
0.0
 11
321.4614035578544
 21
293.6588359716273
 31
0.0
  0
LINE
  5
396
330
1A
100
AcDbEntity
  8
SEIHIN
  6
CONTINUOUS
 62
     3
 48
16.0
100
AcDbLine
 10
352.6304035578543
 20
297.6828359716274
 30
0.0
 11
344.1104035578544
 21
286.3995359716274
 31
0.0
  0
LINE
  5
397
330
1A
100
AcDbEntity
  8
SEIHIN
  6
CONTINUOUS
 62
     3
 48
16.0
100
AcDbLine
 10
354.6255035578543
 20
296.1763359716274
 30
0.0
 11
346.9528035578544
 21
286.0151359716273
 31
0.0
  0
ARC
  5
398
330
1A
100
AcDbEntity
  8
SEIHIN
  6
CONTINUOUS
 62
     3
 48
16.0
100
AcDbCircle
 10
347.7508923072875
 20
285.4125585636169
 30
0.0
 40
1.000022592052892
100
AcDbArc
 50
142.9462625565129
 51
270.0006445954385
  0
ARC
  5
399
330
1A
100
AcDbEntity
  8
SEIHIN
  6
CONTINUOUS
 62
     3
 48
16.0
100
AcDbCircle
 10
340.1201900067277
 20
289.4125292236182
 30
0.0
 40
4.999993252009278
100
AcDbArc
 50
270.0001552846836
 51
322.943701747561
  0
ARC
  5
39A
330
1A
100
AcDbEntity
  8
SEIHIN
  6
CONTINUOUS
 62
     3
 48
16.0
100
AcDbCircle
 10
352.763168794838
 20
285.4125186613275
 30
0.0
 40
0.9999826903045047
100
AcDbArc
 50
270.0019918085993
 51
322.9441571624629
  0
LINE
  5
39B
330
1A
100
AcDbEntity
  8
SEIHIN
  6
CONTINUOUS
 62
     3
 48
16.0
100
AcDbLine
 10
347.7509035578544
 20
284.4125359716273
 30
0.0
 11
352.7632035578544
 21
284.4125359716273
 31
0.0
  0
ARC
  5
39C
330
1A
100
AcDbEntity
  8
SEIHIN
  6
CONTINUOUS
 62
     3
 48
16.0
100
AcDbCircle
 10
349.3651949381629
 20
280.9125532819269
 30
0.0
 40
0.9999826897374614
100
AcDbArc
 50
322.941671473376
 51
89.99950611951044
  0
ARC
  5
39D
330
1A
100
AcDbEntity
  8
SEIHIN
  6
CONTINUOUS
 62
     3
 48
16.0
100
AcDbCircle
 10
374.1773397437971
 20
281.4123428508695
 30
0.0
 40
26.99998898877035
100
AcDbArc
 50
136.4437251412633
 51
142.9428661594519
  0
LINE
  5
39E
330
1A
100
AcDbEntity
  8
SEIHIN
  6
CONTINUOUS
 62
     3
 48
16.0
100
AcDbLine
 10
385.2101035578542
 20
318.0170359716274
 30
0.0
 11
391.2101035578542
 21
318.0170359716274
 31
0.0
  0
LINE
  5
39F
330
1A
100
AcDbEntity
  8
CENTER_L
  6
CENTER
 62
     1
 48
5.0
100
AcDbLine
 10
398.3780035578543
 20
308.0171359716274
 30
0.0
 11
382.7156035578543
 21
308.0171359716274
 31
0.0
  0
LINE
  5
3A0
330
1A
100
AcDbEntity
  8
CENTER_L
  6
CENTER
 62
     1
 48
5.0
100
AcDbLine
 10
398.2447035578544
 20
303.0171359716274
 30
0.0
 11
382.7789035578544
 21
303.0171359716274
 31
0.0
  0
ARC
  5
3A1
330
1A
100
AcDbEntity
  8
SEIHIN
  6
CONTINUOUS
 62
     3
 48
16.0
100
AcDbCircle
 10
376.1694239015241
 20
277.4124963054751
 30
0.0
 40
22.5000396662933
100
AcDbArc
 50
89.99979715717822
 51
142.9432938517093
  0
LINE
  5
3A2
330
1A
100
AcDbEntity
  8
NOITOI
  6
PHANTOM
 62
     8
 48
5.0
100
AcDbLine
 10
371.6956323370854
 20
284.9632939882659
 30
0.0
 11
371.3798323370856
 21
290.9632939882659
 31
0.0
  0
ARC
  5
3A3
330
1A
100
AcDbEntity
  8
NOITOI
  6
PHANTOM
 62
     8
 48
5.0
100
AcDbCircle
 10
372.1949364584924
 20
284.9895900782354
 30
0.0
 40
0.4999960899864752
100
AcDbArc
 50
183.0147243791737
 51
269.9995277178594
  0
ARC
  5
3A4
330
1A
100
AcDbEntity
  8
NOITOI
  6
PHANTOM
 62
     8
 48
5.0
100
AcDbCircle
 10
371.8791360465806
 20
290.9895978982965
 30
0.0
 40
0.4999960899831856
100
AcDbArc
 50
90.00042508015132
 51
183.0156217414654
  0
LINE
  5
3A5
330
1A
100
AcDbEntity
  8
NOITOI
  6
PHANTOM
 62
     8
 48
5.0
100
AcDbLine
 10
370.5870323370854
 20
279.1895939882658
 30
0.0
 11
376.6189323370856
 21
279.1895939882658
 31
0.0
  0
ARC
  5
3A6
330
1A
100
AcDbEntity
  8
SEIHIN
  6
CONTINUOUS
 62
     3
 48
16.0
100
AcDbCircle
 10
376.1694171259406
 20
277.41249293147
 30
0.0
 40
20.00004304034414
100
AcDbArc
 50
89.99975239133894
 51
142.9432428648704
  0
ARC
  5
3A7
330
1A
100
AcDbEntity
  8
SEIHIN
  6
CONTINUOUS
 62
     3
 48
16.0
100
AcDbCircle
 10
363.265833702921
 20
279.4073778530207
 30
0.0
 40
0.1999568688318512
100
AcDbArc
 50
272.6571430058525
 51
15.83389541389283
  0
ARC
  5
3A8
330
1A
100
AcDbEntity
  8
SEIHIN
  6
CONTINUOUS
 62
     3
 48
16.0
100
AcDbCircle
 10
363.4820035578544
 20
281.7625359716273
 30
0.0
 40
0.65001923048482
100
AcDbArc
 50
15.81947663554677
 51
195.8194766355467
  0
LINE
  5
3A9
330
1A
100
AcDbEntity
  8
SEIHIN
  6
CONTINUOUS
 62
     3
 48
16.0
100
AcDbLine
 10
362.8566035578543
 20
281.5853359716273
 30
0.0
 11
363.4582035578544
 21
279.4618359716273
 31
0.0
  0
ARC
  5
3AA
330
1A
100
AcDbEntity
  8
NOITOI
  6
PHANTOM
 62
     8
 48
5.0
100
AcDbCircle
 10
370.5870454080902
 20
278.6896058185458
 30
0.0
 40
0.499988169890889
100
AcDbArc
 50
90.00149786226627
 51
174.2966061377156
  0
LINE
  5
3AB
330
1A
100
AcDbEntity
  8
NOITOI
  6
PHANTOM
 62
     8
 48
5.0
100
AcDbLine
 10
378.9566323370854
 20
291.9645939882658
 30
0.0
 11
378.8073323370856
 21
287.1855939882659
 31
0.0
  0
LINE
  5
3AC
330
1A
100
AcDbEntity
  8
NOITOI
  6
PHANTOM
 62
     8
 48
5.0
100
AcDbLine
 10
380.1560323370856
 20
291.9270939882659
 30
0.0
 11
379.7659323370855
 21
279.4426939882658
 31
0.0
  0
LINE
  5
3AD
330
1A
100
AcDbEntity
  8
NOITOI
  6
PHANTOM
 62
     8
 48
5.0
100
AcDbLine
 10
374.2435323370855
 20
289.1895939882658
 30
0.0
 11
373.2477323370855
 21
290.289593988266
 31
0.0
  0
LINE
  5
3AE
330
1A
100
AcDbEntity
  8
NOITOI
  6
PHANTOM
 62
     8
 48
5.0
100
AcDbLine
 10
378.6180323370856
 20
281.1269939882659
 30
0.0
 11
378.7035323370854
 21
283.8645939882658
 31
0.0
  0
LINE
  5
3AF
330
1A
100
AcDbEntity
  8
NOITOI
  6
PHANTOM
 62
     8
 48
5.0
100
AcDbLine
 10
372.1949323370854
 20
284.4895939882659
 30
0.0
 11
374.4440323370854
 21
284.4895939882659
 31
0.0
  0
LINE
  5
3B0
330
1A
100
AcDbEntity
  8
NOITOI
  6
PHANTOM
 62
     8
 48
5.0
100
AcDbLine
 10
372.8590323370855
 20
285.6895939882659
 30
0.0
 11
373.6369323370853
 21
285.6895939882659
 31
0.0
  0
LINE
  5
3B1
330
1A
100
AcDbEntity
  8
NOITOI
  6
PHANTOM
 62
     8
 48
5.0
100
AcDbLine
 10
373.6369323370853
 20
285.6895939882659
 30
0.0
 11
373.2329323370854
 21
288.5179939882658
 31
0.0
  0
LINE
  5
3B2
330
1A
100
AcDbEntity
  8
NOITOI
  6
PHANTOM
 62
     8
 48
5.0
100
AcDbLine
 10
373.2329323370854
 20
288.5179939882658
 30
0.0
 11
372.6779323370854
 21
289.1309939882658
 31
0.0
  0
LINE
  5
3B3
330
1A
100
AcDbEntity
  8
NOITOI
  6
PHANTOM
 62
     8
 48
5.0
100
AcDbLine
 10
372.8590323370855
 20
285.6895939882659
 30
0.0
 11
372.6779323370854
 21
289.1309939882658
 31
0.0
  0
ARC
  5
3B4
330
1A
100
AcDbEntity
  8
NOITOI
  6
PHANTOM
 62
     8
 48
5.0
100
AcDbCircle
 10
375.1002617095855
 20
287.4672242207608
 30
0.0
 40
0.4999578477751074
100
AcDbArc
 50
83.52609071220776
 51
188.1330561712924
  0
LINE
  5
3B5
330
1A
100
AcDbEntity
  8
NOITOI
  6
PHANTOM
 62
     8
 48
5.0
100
AcDbLine
 10
374.2435323370855
 20
289.1895939882658
 30
0.0
 11
374.7055323370855
 21
289.1895939882658
 31
0.0
  0
ARC
  5
3B6
330
1A
100
AcDbEntity
  8
NOITOI
  6
PHANTOM
 62
     8
 48
5.0
100
AcDbCircle
 10
374.4440425235217
 20
284.98960573299
 30
0.0
 40
0.5000117448278309
100
AcDbArc
 50
269.9988327478018
 51
8.127314608715803
  0
LINE
  5
3B7
330
1A
100
AcDbEntity
  8
NOITOI
  6
PHANTOM
 62
     8
 48
5.0
100
AcDbLine
 10
374.9390323370854
 20
285.0602939882658
 30
0.0
 11
374.6052323370854
 21
287.396493988266
 31
0.0
  0
ARC
  5
3B8
330
1A
100
AcDbEntity
  8
NOITOI
  6
PHANTOM
 62
     8
 48
5.0
100
AcDbCircle
 10
376.6189703249098
 20
281.189530808838
 30
0.0
 40
2.000036820932882
100
AcDbArc
 50
269.9989117490339
 51
358.2110591274196
  0
ARC
  5
3B9
330
1A
100
AcDbEntity
  8
NOITOI
  6
PHANTOM
 62
     8
 48
5.0
100
AcDbCircle
 10
374.7055144707345
 20
283.9896027166458
 30
0.0
 40
5.199991271650611
100
AcDbArc
 50
37.92532860473096
 51
89.99980314072548
  0
ARC
  5
3BA
330
1A
100
AcDbEntity
  8
NOITOI
  6
PHANTOM
 62
     8
 48
5.0
100
AcDbCircle
 10
374.7055014101493
 20
283.9896297329297
 30
0.0
 40
3.99998565374706
100
AcDbArc
 50
358.2086966591014
 51
83.52422380468325
  0
ARC
  5
3BB
330
1A
100
AcDbEntity
  8
SEIHIN
  6
CONTINUOUS
 62
     3
 48
16.0
100
AcDbCircle
 10
378.2101035578543
 20
294.4125359716274
 30
0.0
 40
2.999999999999957
100
AcDbArc
 50
359.9999999999975
 51
89.99999999999756
  0
LINE
  5
3BC
330
1A
100
AcDbEntity
  8
SEIHIN
  6
CONTINUOUS
 62
     3
 48
16.0
100
AcDbLine
 10
381.2101035578542
 20
299.9125359716274
 30
0.0
 11
376.1695035578544
 21
299.9125359716274
 31
0.0
  0
ARC
  5
3BD
330
1A
100
AcDbEntity
  8
NOITOI
  6
PHANTOM
 62
     8
 48
5.0
100
AcDbCircle
 10
378.157021100091
 20
291.989605582083
 30
0.0
 40
1.999988406214315
100
AcDbArc
 50
358.2088726535929
 51
89.99967808195611
  0
LINE
  5
3BE
330
1A
100
AcDbEntity
  8
SEIHIN
  6
CONTINUOUS
 62
     3
 48
16.0
100
AcDbLine
 10
378.2101035578544
 20
297.4125359716274
 30
0.0
 11
376.1695035578544
 21
297.4125359716274
 31
0.0
  0
LINE
  5
3BF
330
1A
100
AcDbEntity
  8
NOITOI
  6
PHANTOM
 62
     8
 48
5.0
100
AcDbLine
 10
378.1570323370855
 20
293.9894939882658
 30
0.0
 11
374.8304323370855
 21
293.9895939882658
 31
0.0
  0
ARC
  5
3C0
330
1A
100
AcDbEntity
  8
NOITOI
  6
PHANTOM
 62
     8
 48
5.0
100
AcDbCircle
 10
378.1570763034386
 20
291.9895486257928
 30
0.0
 40
0.7999453636812564
100
AcDbArc
 50
358.212343644788
 51
90.00314907315372
  0
LINE
  5
3C1
330
1A
100
AcDbEntity
  8
NOITOI
  6
PHANTOM
 62
     8
 48
5.0
100
AcDbLine
 10
375.6843323370854
 20
292.789593988266
 30
0.0
 11
376.1843323370854
 21
290.289593988266
 31
0.0
  0
LINE
  5
3C2
330
1A
100
AcDbEntity
  8
NOITOI
  6
PHANTOM
 62
     8
 48
5.0
100
AcDbLine
 10
376.1843323370854
 20
290.289593988266
 30
0.0
 11
373.2477323370855
 21
290.289593988266
 31
0.0
  0
LINE
  5
3C3
330
1A
100
AcDbEntity
  8
NOITOI
  6
PHANTOM
 62
     8
 48
5.0
100
AcDbLine
 10
374.6009323370854
 20
292.087593988266
 30
0.0
 11
374.3401323370855
 21
293.3915939882658
 31
0.0
  0
ARC
  5
3C4
330
1A
100
AcDbEntity
  8
NOITOI
  6
PHANTOM
 62
     8
 48
5.0
100
AcDbCircle
 10
374.1106315540773
 20
291.9895930332641
 30
0.0
 40
0.4999990449987399
100
AcDbArc
 50
270.0000897263054
 51
11.30328019845509
  0
LINE
  5
3C5
330
1A
100
AcDbEntity
  8
NOITOI
  6
PHANTOM
 62
     8
 48
5.0
100
AcDbLine
 10
371.8791323370855
 20
291.4895939882659
 30
0.0
 11
374.1106323370855
 21
291.4895939882659
 31
0.0
  0
LINE
  5
3C6
330
1A
100
AcDbEntity
  8
NOITOI
  6
PHANTOM
 62
     8
 48
5.0
100
AcDbLine
 10
378.1570323370855
 20
292.7894939882658
 30
0.0
 11
375.6843323370854
 21
292.789593988266
 31
0.0
  0
ARC
  5
3C7
330
1A
100
AcDbEntity
  8
NOITOI
  6
PHANTOM
 62
     8
 48
5.0
100
AcDbCircle
 10
374.8304250825297
 20
293.4895851384225
 30
0.0
 40
0.500008849895925
100
AcDbArc
 50
89.99916870385492
 51
191.3135956695117
  0
ARC
  5
3C8
330
1A
100
AcDbEntity
  8
SEIHIN
  6
CONTINUOUS
 62
     3
 48
16.0
100
AcDbCircle
 10
380.2101035578543
 20
295.0171359716274
 30
0.0
 40
4.999999999999957
100
AcDbArc
 50
359.9999999999985
 51
89.99999999999854
  0
LINE
  5
3C9
330
1A
100
AcDbEntity
  8
SEIHIN
  6
CONTINUOUS
 62
     3
 48
16.0
100
AcDbLine
 10
387.2101035578542
 20
318.0170359716274
 30
0.0
 11
385.2101035578542
 21
316.0170359716274
 31
0.0
  0
LINE
  5
3CA
330
1A
100
AcDbEntity
  8
SEIHIN
  6
PHANTOM
 62
     6
 48
5.0
100
AcDbLine
 10
414.9650035578544
 20
300.0171359716274
 30
0.0
 11
415.2101035578544
 21
300.0171359716274
 31
0.0
  0
LINE
  5
3CB
330
1A
100
AcDbEntity
  8
SEIHIN
  6
PHANTOM
 62
     6
 48
5.0
100
AcDbLine
 10
420.2101035578544
 20
318.0170359716274
 30
0.0
 11
415.4604035578542
 21
317.6015359716274
 31
0.0
  0
LINE
  5
3CC
330
1A
100
AcDbEntity
  8
SEIHIN
  6
CONTINUOUS
 62
     3
 48
16.0
100
AcDbLine
 10
301.2102035578543
 20
433.505742384902
 30
0.0
 11
301.2102035578543
 21
444.5057423849021
 31
0.0
  0
LINE
  5
3CD
330
1A
100
AcDbEntity
  8
SEIHIN
  6
CONTINUOUS
 62
     3
 48
16.0
100
AcDbLine
 10
321.3244035578544
 20
433.505742384902
 30
0.0
 11
321.3244035578544
 21
444.5057423849021
 31
0.0
  0
ARC
  5
3CE
330
1A
100
AcDbEntity
  8
SEIHIN
  6
CONTINUOUS
 62
     3
 48
16.0
100
AcDbCircle
 10
291.2096035578544
 20
444.5052423849021
 30
0.0
 40
3.25
100
AcDbArc
 50
270.0
 51
90.0
  0
ARC
  5
3CF
330
1A
100
AcDbEntity
  8
SEIHIN
  6
CONTINUOUS
 62
     3
 48
16.0
100
AcDbCircle
 10
291.2096035578544
 20
444.5052423849022
 30
0.0
 40
2.499999999999943
100
AcDbArc
 50
270.0
 51
90.0
  0
LINE
  5
3D0
330
1A
100
AcDbEntity
  8
CENTER_L
  6
CENTER
 62
     1
 48
5.0
100
AcDbLine
 10
291.2102035578543
 20
437.0409423849022
 30
0.0
 11
291.2102035578543
 21
451.9123423849022
 31
0.0
  0
ARC
  5
3D1
330
1A
100
AcDbEntity
  8
SEIHIN
  6
CONTINUOUS
 62
     3
 48
16.0
100
AcDbCircle
 10
291.2095686526765
 20
444.5052128847087
 30
0.0
 40
4.499970499941926
100
AcDbArc
 50
270.0004444294419
 51
350.4062492221699
  0
ARC
  5
3D2
330
1A
100
AcDbEntity
  8
SEIHIN
  6
CONTINUOUS
 62
     3
 48
16.0
100
AcDbCircle
 10
291.2095901036277
 20
444.5052306557861
 30
0.0
 40
5.499988270900473
100
AcDbArc
 50
270.0001401585548
 51
352.1626267573643
  0
LINE
  5
3D3
330
1A
100
AcDbEntity
  8
SEIHIN
  6
CONTINUOUS
 62
     3
 48
16.0
100
AcDbLine
 10
301.2102035578543
 20
455.5057423849021
 30
0.0
 11
301.2102035578543
 21
444.5057423849021
 31
0.0
  0
LINE
  5
3D4
330
1A
100
AcDbEntity
  8
SEIHIN
  6
CONTINUOUS
 62
     3
 48
16.0
100
AcDbLine
 10
300.3446035578543
 20
443.755242384902
 30
0.0
 11
294.3718035578544
 21
443.755242384902
 31
0.0
  0
LINE
  5
3D5
330
1A
100
AcDbEntity
  8
SEIHIN
  6
CONTINUOUS
 62
     3
 48
16.0
100
AcDbLine
 10
300.3446035578543
 20
445.255242384902
 30
0.0
 11
294.3718035578544
 21
445.255242384902
 31
0.0
  0
ARC
  5
3D6
330
1A
100
AcDbEntity
  8
SEIHIN
  6
CONTINUOUS
 62
     3
 48
16.0
100
AcDbCircle
 10
291.2095686526764
 20
444.5052718850954
 30
0.0
 40
4.499970499941989
100
AcDbArc
 50
9.593750777829161
 51
89.99955557055715
  0
ARC
  5
3D7
330
1A
100
AcDbEntity
  8
SEIHIN
  6
CONTINUOUS
 62
     3
 48
16.0
100
AcDbCircle
 10
291.2095901036277
 20
444.505254114018
 30
0.0
 40
5.499988270900469
100
AcDbArc
 50
7.837373242635719
 51
89.99985984144521
  0
LINE
  5
3D8
330
1A
100
AcDbEntity
  8
SEIHIN
  6
CONTINUOUS
 62
     3
 48
16.0
100
AcDbLine
 10
300.5946035578543
 20
444.0052423849022
 30
0.0
 11
300.5946035578543
 21
445.0052423849021
 31
0.0
  0
ARC
  5
3D9
330
1A
100
AcDbEntity
  8
SEIHIN
  6
CONTINUOUS
 62
     3
 48
16.0
100
AcDbCircle
 10
300.3446035578543
 20
444.0052423849022
 30
0.0
 40
0.2500000000000568
100
AcDbArc
 50
270.000000000013
 51
0.0000000000130276
  0
ARC
  5
3DA
330
1A
100
AcDbEntity
  8
SEIHIN
  6
CONTINUOUS
 62
     3
 48
16.0
100
AcDbCircle
 10
300.3446035578543
 20
445.0052423849021
 30
0.0
 40
0.25
100
AcDbArc
 50
0.0
 51
90.0
  0
LINE
  5
3DB
330
1A
100
AcDbEntity
  8
SEIHIN
  6
CONTINUOUS
 62
     3
 48
16.0
100
AcDbLine
 10
321.3244035578544
 20
455.505742384902
 30
0.0
 11
321.3244035578544
 21
444.5057423849021
 31
0.0
  0
LINE
  5
3DC
330
1A
100
AcDbEntity
  8
SEIHIN
  6
CONTINUOUS
 62
     3
 48
16.0
100
AcDbLine
 10
391.2101035578542
 20
413.005742384902
 30
0.0
 11
391.2101035578542
 21
444.5056423849022
 31
0.0
  0
LINE
  5
3DD
330
1A
100
AcDbEntity
  8
SEIHIN
  6
CONTINUOUS
 62
     3
 48
16.0
100
AcDbLine
 10
387.2101035578542
 20
413.005742384902
 30
0.0
 11
391.2101035578542
 21
413.005742384902
 31
0.0
  0
LINE
  5
3DE
330
1A
100
AcDbEntity
  8
CENTER_L
  6
CENTER
 62
     1
 48
5.0
100
AcDbLine
 10
381.3443035578544
 20
421.005742384902
 30
0.0
 11
397.7511035578542
 21
421.005742384902
 31
0.0
  0
LINE
  5
3DF
330
1A
100
AcDbEntity
  8
SEIHIN
  6
CONTINUOUS
 62
     3
 48
16.0
100
AcDbLine
 10
385.2101035578542
 20
415.0057423849021
 30
0.0
 11
385.2101035578542
 21
429.005742384902
 31
0.0
  0
LINE
  5
3E0
330
1A
100
AcDbEntity
  8
SEIHIN
  6
CONTINUOUS
 62
     3
 48
16.0
100
AcDbLine
 10
387.2101035578542
 20
429.005742384902
 30
0.0
 11
387.2101035578542
 21
413.005742384902
 31
0.0
  0
LINE
  5
3E1
330
1A
100
AcDbEntity
  8
SEIHIN
  6
CONTINUOUS
 62
     3
 48
16.0
100
AcDbLine
 10
387.2101035578542
 20
413.005742384902
 30
0.0
 11
385.2101035578542
 21
415.0057423849021
 31
0.0
  0
ARC
  5
3E2
330
1A
100
AcDbEntity
  8
SEIHIN
  6
CONTINUOUS
 62
     3
 48
16.0
100
AcDbCircle
 10
382.2101035578544
 20
429.0057423849021
 30
0.0
 40
2.999999999999914
100
AcDbArc
 50
359.9999999999983
 51
89.99999999999836
  0
ARC
  5
3E3
330
1A
100
AcDbEntity
  8
SEIHIN
  6
CONTINUOUS
 62
     3
 48
16.0
100
AcDbCircle
 10
384.2101035578544
 20
429.0057423849021
 30
0.0
 40
2.999999999999914
100
AcDbArc
 50
359.9999999999983
 51
89.99999999999836
  0
LINE
  5
3E4
330
1A
100
AcDbEntity
  8
SEIHIN
  6
CONTINUOUS
 62
     3
 48
16.0
100
AcDbLine
 10
387.2101035578542
 20
476.005742384902
 30
0.0
 11
391.2101035578542
 21
476.005742384902
 31
0.0
  0
LINE
  5
3E5
330
1A
100
AcDbEntity
  8
CENTER_L
  6
CENTER
 62
     1
 48
5.0
100
AcDbLine
 10
380.7568035578542
 20
468.005742384902
 30
0.0
 11
397.7511035578542
 21
468.005742384902
 31
0.0
  0
LINE
  5
3E6
330
1A
100
AcDbEntity
  8
SEIHIN
  6
CONTINUOUS
 62
     3
 48
16.0
100
AcDbLine
 10
385.2101035578542
 20
474.005742384902
 30
0.0
 11
385.2101035578542
 21
460.0057423849021
 31
0.0
  0
LINE
  5
3E7
330
1A
100
AcDbEntity
  8
SEIHIN
  6
CONTINUOUS
 62
     3
 48
16.0
100
AcDbLine
 10
387.2101035578542
 20
460.0057423849021
 30
0.0
 11
387.2101035578542
 21
476.005742384902
 31
0.0
  0
ARC
  5
3E8
330
1A
100
AcDbEntity
  8
SEIHIN
  6
CONTINUOUS
 62
     3
 48
16.0
100
AcDbCircle
 10
382.2101035578544
 20
460.0057423849019
 30
0.0
 40
2.999999999999914
100
AcDbArc
 50
270.0000000000016
 51
0.0000000000016284
  0
ARC
  5
3E9
330
1A
100
AcDbEntity
  8
SEIHIN
  6
CONTINUOUS
 62
     3
 48
16.0
100
AcDbCircle
 10
384.2101035578544
 20
460.0057423849019
 30
0.0
 40
2.999999999999914
100
AcDbArc
 50
270.0000000000016
 51
0.0000000000016284
  0
LINE
  5
3EA
330
1A
100
AcDbEntity
  8
SEIHIN
  6
CONTINUOUS
 62
     3
 48
16.0
100
AcDbLine
 10
387.2101035578542
 20
476.005742384902
 30
0.0
 11
385.2101035578542
 21
474.005742384902
 31
0.0
  0
LINE
  5
3EB
330
1A
100
AcDbEntity
  8
SEIHIN
  6
CONTINUOUS
 62
     3
 48
16.0
100
AcDbLine
 10
391.2101035578542
 20
476.005742384902
 30
0.0
 11
391.2101035578542
 21
444.5057423849021
 31
0.0
  0
LINE
  5
3EC
330
1A
100
AcDbEntity
  8
SEIHIN
  6
PHANTOM
 62
     6
 48
5.0
100
AcDbLine
 10
426.2101035578543
 20
318.0170359716274
 30
0.0
 11
426.2101035578543
 21
268.0170359716273
 31
0.0
  0
LINE
  5
3ED
330
1A
100
AcDbEntity
  8
SEIHIN
  6
PHANTOM
 62
     6
 48
5.0
100
AcDbLine
 10
422.2101035578544
 20
318.0170359716274
 30
0.0
 11
422.2101035578544
 21
268.0170359716273
 31
0.0
  0
LINE
  5
3EE
330
1A
100
AcDbEntity
  8
CENTER_L
  6
CENTER
 62
     1
 48
5.0
100
AcDbLine
 10
639.5998752924588
 20
281.9124359716273
 30
0.0
 11
639.5998752924588
 21
272.1493359716274
 31
0.0
  0
LINE
  5
3EF
330
1A
100
AcDbEntity
  8
SEIHIN
  6
CONTINUOUS
 62
     3
 48
16.0
100
AcDbLine
 10
647.5996752924589
 20
308.0170359716274
 30
0.0
 11
647.5996752924589
 21
278.0170359716275
 31
0.0
  0
LINE
  5
3F0
330
1A
100
AcDbEntity
  8
SEIHIN
  6
CONTINUOUS
 62
     3
 48
16.0
100
AcDbLine
 10
613.5997752924587
 20
293.0171359716273
 30
0.0
 11
613.5997752924587
 21
275.0170359716274
 31
0.0
  0
LINE
  5
3F1
330
1A
100
AcDbEntity
  8
SEIHIN
  6
CONTINUOUS
 62
     3
 48
16.0
100
AcDbLine
 10
618.5996752924589
 20
293.0171359716273
 30
0.0
 11
618.599575292459
 21
275.0170359716274
 31
0.0
  0
LINE
  5
3F2
330
1A
100
AcDbEntity
  8
CENTER_L
  6
CENTER
 62
     1
 48
5.0
100
AcDbLine
 10
592.5997752924587
 20
281.9124359716273
 30
0.0
 11
592.5997752924587
 21
272.5598359716274
 31
0.0
  0
ARC
  5
3F3
330
1A
100
AcDbEntity
  8
SEIHIN
  6
CONTINUOUS
 62
     3
 48
16.0
100
AcDbCircle
 10
592.5994752924587
 20
278.0170359716275
 30
0.0
 40
2.15000000000009
100
AcDbArc
 50
0.0
 51
180.0
  0
ARC
  5
3F4
330
1A
100
AcDbEntity
  8
SEIHIN
  6
CONTINUOUS
 62
     3
 48
16.0
100
AcDbCircle
 10
592.5994752924587
 20
278.0170359716275
 30
0.0
 40
6.999999999999914
100
AcDbArc
 50
359.9999999999992
 51
89.9999999999993
  0
LINE
  5
3F5
330
1A
100
AcDbEntity
  8
CENTER_L
  6
CENTER
 62
     1
 48
5.0
100
AcDbLine
 10
616.0996729070213
 20
325.0170359716274
 30
0.0
 11
616.0995796632603
 21
261.0170359716273
 31
0.0
  0
LINE
  5
3F6
330
1A
100
AcDbEntity
  8
SEIHIN
  6
CONTINUOUS
 62
     3
 48
16.0
100
AcDbLine
 10
584.5997752924588
 20
308.0170359716274
 30
0.0
 11
584.5996752924587
 21
278.0170359716275
 31
0.0
  0
ARC
  5
3F7
330
1A
100
AcDbEntity
  8
SEIHIN
  6
CONTINUOUS
 62
     3
 48
16.0
100
AcDbCircle
 10
639.5998752924589
 20
278.0170359716275
 30
0.0
 40
6.999999999999943
100
AcDbArc
 50
90.00000000000047
 51
180.0000000000004
  0
ARC
  5
3F8
330
1A
100
AcDbEntity
  8
SEIHIN
  6
CONTINUOUS
 62
     3
 48
16.0
100
AcDbCircle
 10
639.5998752924589
 20
278.0170359716275
 30
0.0
 40
2.14999999999992
100
AcDbArc
 50
0.0
 51
180.0
  0
ARC
  5
3FD
330
1A
100
AcDbEntity
  8
SEIHIN
  6
CONTINUOUS
 62
     3
 48
16.0
100
AcDbCircle
 10
630.5996752924589
 20
275.0170359716274
 30
0.0
 40
2.000000000000056
100
AcDbArc
 50
269.9999999999983
 51
359.9999999999983
  0
LINE
  5
3FE
330
1A
100
AcDbEntity
  8
SEIHIN
  6
CONTINUOUS
 62
     3
 48
16.0
100
AcDbLine
 10
616.099675292459
 20
268.0170359716273
 30
0.0
 11
637.599675292459
 21
268.0170359716273
 31
0.0
  0
LINE
  5
3FF
330
1A
100
AcDbEntity
  8
SEIHIN
  6
PHANTOM
 62
     6
 48
5.0
100
AcDbLine
 10
422.2101035578544
 20
268.0170359716273
 30
0.0
 11
426.2101035578543
 21
268.0170359716273
 31
0.0
  0
ARC
  5
400
330
1A
100
AcDbEntity
  8
SEIHIN
  6
CONTINUOUS
 62
     3
 48
16.0
100
AcDbCircle
 10
601.5996752924588
 20
275.0170359716273
 30
0.0
 40
1.999999999999914
100
AcDbArc
 50
179.9999999999975
 51
269.9999999999975
  0
LINE
  5
401
330
1A
100
AcDbEntity
  8
SEIHIN
  6
CONTINUOUS
 62
     3
 48
16.0
100
AcDbLine
 10
616.099675292459
 20
268.0170359716273
 30
0.0
 11
594.599675292459
 21
268.0170359716273
 31
0.0
  0
ARC
  5
402
330
1A
100
AcDbEntity
  8
SEIHIN
  6
CONTINUOUS
 62
     3
 48
16.0
100
AcDbCircle
 10
594.5996752924588
 20
278.0170359716275
 30
0.0
 40
10.00000000000011
100
AcDbArc
 50
180.0000000000002
 51
270.0000000000002
  0
ARC
  5
403
330
1A
100
AcDbEntity
  8
SEIHIN
  6
CONTINUOUS
 62
     3
 48
16.0
100
AcDbCircle
 10
592.5994752924587
 20
278.0170359716275
 30
0.0
 40
2.15000000000009
100
AcDbArc
 50
180.0
 51
0.0
  0
LINE
  5
404
330
1A
100
AcDbEntity
  8
CENTER_L
  6
CENTER
 62
     1
 48
5.0
100
AcDbLine
 10
588.282175292459
 20
278.0171359716274
 30
0.0
 11
596.5459752924589
 21
278.0171359716274
 31
0.0
  0
LINE
  5
405
330
1A
100
AcDbEntity
  8
SEIHIN
  6
CONTINUOUS
 62
     3
 48
16.0
100
AcDbLine
 10
611.5997752924587
 20
273.0170359716274
 30
0.0
 11
601.5996752924587
 21
273.0170359716274
 31
0.0
  0
LINE
  5
406
330
1A
100
AcDbEntity
  8
SEIHIN
  6
CONTINUOUS
 62
     3
 48
16.0
100
AcDbLine
 10
599.599675292459
 20
275.0170359716274
 30
0.0
 11
599.5994752924588
 21
278.0170359716275
 31
0.0
  0
ARC
  5
407
330
1A
100
AcDbEntity
  8
SEIHIN
  6
CONTINUOUS
 62
     3
 48
16.0
100
AcDbCircle
 10
611.5997752924587
 20
275.0170359716274
 30
0.0
 40
2.0
100
AcDbArc
 50
270.0
 51
0.0
  0
LINE
  5
408
330
1A
100
AcDbEntity
  8
SEIHIN
  6
CONTINUOUS
 62
     3
 48
16.0
100
AcDbLine
 10
620.5995752924588
 20
273.0170359716274
 30
0.0
 11
630.5996752924589
 21
273.0170359716274
 31
0.0
  0
ARC
  5
409
330
1A
100
AcDbEntity
  8
SEIHIN
  6
CONTINUOUS
 62
     3
 48
16.0
100
AcDbCircle
 10
620.5995752924589
 20
275.0170359716273
 30
0.0
 40
1.999999999999914
100
AcDbArc
 50
179.9999999999975
 51
269.9999999999975
  0
ARC
  5
40A
330
1A
100
AcDbEntity
  8
SEIHIN
  6
CONTINUOUS
 62
     3
 48
16.0
100
AcDbCircle
 10
637.599675292709
 20
278.0170359718773
 30
0.0
 40
10.00000000025003
100
AcDbArc
 50
269.9999999985676
 51
359.9994270407727
  0
ARC
  5
40B
330
1A
100
AcDbEntity
  8
SEIHIN
  6
CONTINUOUS
 62
     3
 48
16.0
100
AcDbCircle
 10
639.5998752924589
 20
278.0170359716275
 30
0.0
 40
2.14999999999992
100
AcDbArc
 50
180.0
 51
0.0
  0
LINE
  5
40C
330
1A
100
AcDbEntity
  8
CENTER_L
  6
CENTER
 62
     1
 48
5.0
100
AcDbLine
 10
635.653575292459
 20
278.0170359716275
 30
0.0
 11
643.8017752924589
 21
278.0170359716275
 31
0.0
  0
LINE
  5
40D
330
1A
100
AcDbEntity
  8
SEIHIN
  6
CONTINUOUS
 62
     3
 48
16.0
100
AcDbLine
 10
632.5996752924591
 20
275.0170359716274
 30
0.0
 11
632.5998752924589
 21
278.0170359716275
 31
0.0
  0
LINE
  5
40E
330
1A
100
AcDbEntity
  8
SEIHIN
  6
CONTINUOUS
 62
     3
 48
16.0
100
AcDbLine
 10
616.099675292459
 20
318.0170359716274
 30
0.0
 11
637.599675292459
 21
318.0170359716274
 31
0.0
  0
LINE
  5
40F
330
1A
100
AcDbEntity
  8
SEIHIN
  6
CONTINUOUS
 62
     3
 48
16.0
100
AcDbLine
 10
640.599675292459
 20
295.0170359716274
 30
0.0
 11
620.599675292459
 21
295.0171359716273
 31
0.0
  0
LINE
  5
410
330
1A
100
AcDbEntity
  8
SEIHIN
  6
CONTINUOUS
 62
     3
 48
16.0
100
AcDbLine
 10
591.599675292459
 20
295.0171359716273
 30
0.0
 11
611.599675292459
 21
295.0171359716273
 31
0.0
  0
LINE
  5
411
330
1A
100
AcDbEntity
  8
SEIHIN
  6
CONTINUOUS
 62
     3
 48
16.0
100
AcDbLine
 10
616.099675292459
 20
318.0170359716274
 30
0.0
 11
594.5997752924587
 21
318.0170359716274
 31
0.0
  0
LINE
  5
412
330
1A
100
AcDbEntity
  8
CENTER_L
  6
CENTER
 62
     1
 48
5.0
100
AcDbLine
 10
592.5997752924587
 20
311.8019359716274
 30
0.0
 11
592.5997752924587
 21
297.4901359716274
 31
0.0
  0
ARC
  5
413
330
1A
100
AcDbEntity
  8
SEIHIN
  6
CONTINUOUS
 62
     3
 48
16.0
100
AcDbCircle
 10
592.5998252924589
 20
303.0171359708901
 30
0.0
 40
3.249957671584954
100
AcDbArc
 50
106.5572312245815
 51
73.44276877541843
  0
LINE
  5
414
330
1A
100
AcDbEntity
  8
SEIHIN
  6
CONTINUOUS
 62
     3
 48
16.0
100
AcDbLine
 10
589.5996752924588
 20
287.0170359716274
 30
0.0
 11
589.5996752924588
 21
293.0170359716274
 31
0.0
  0
ARC
  5
415
330
1A
100
AcDbEntity
  8
SEIHIN
  6
CONTINUOUS
 62
     3
 48
16.0
100
AcDbCircle
 10
591.599675292459
 20
287.0170359716274
 30
0.0
 40
2.0
100
AcDbArc
 50
180.0
 51
270.0
  0
LINE
  5
416
330
1A
100
AcDbEntity
  8
SEIHIN
  6
CONTINUOUS
 62
     3
 48
16.0
100
AcDbLine
 10
592.5994752924589
 20
285.0170359716274
 30
0.0
 11
591.599675292459
 21
285.0170359716274
 31
0.0
  0
ARC
  5
417
330
1A
100
AcDbEntity
  8
SEIHIN
  6
CONTINUOUS
 62
     3
 48
16.0
100
AcDbCircle
 10
591.599675292459
 20
293.0170359716274
 30
0.0
 40
2.0
100
AcDbArc
 50
90.0
 51
180.0
  0
ARC
  5
418
330
1A
100
AcDbEntity
  8
SEIHIN
  6
CONTINUOUS
 62
     3
 48
16.0
100
AcDbCircle
 10
594.5997752927088
 20
308.0170359718773
 30
0.0
 40
10.00000000025005
100
AcDbArc
 50
89.99942704363675
 51
180.000000001432
  0
ARC
  5
419
330
1A
100
AcDbEntity
  8
SEIHIN
  6
CONTINUOUS
 62
     3
 48
16.0
100
AcDbCircle
 10
592.5997752924589
 20
308.0171359716274
 30
0.0
 40
2.10003148785918
100
AcDbArc
 50
296.1672803646623
 51
243.8327196353376
  0
LINE
  5
41A
330
1A
100
AcDbEntity
  8
CENTER_L
  6
CENTER
 62
     1
 48
5.0
100
AcDbLine
 10
596.5459752924589
 20
308.0171359716274
 30
0.0
 11
588.1777752924588
 21
308.0171359716274
 31
0.0
  0
LINE
  5
41B
330
1A
100
AcDbEntity
  8
CENTER_L
  6
CENTER
 62
     1
 48
5.0
100
AcDbLine
 10
598.763575292459
 20
303.0171359716274
 30
0.0
 11
587.3840752924587
 21
303.0171359716274
 31
0.0
  0
ARC
  5
41C
330
1A
100
AcDbEntity
  8
SEIHIN
  6
CONTINUOUS
 62
     3
 48
16.0
100
AcDbCircle
 10
629.099675292459
 20
302.0170359716274
 30
0.0
 40
2.0
100
AcDbArc
 50
270.0
 51
0.0
  0
ARC
  5
41D
330
1A
100
AcDbEntity
  8
SEIHIN
  6
CONTINUOUS
 62
     3
 48
16.0
100
AcDbCircle
 10
603.0997752924587
 20
302.0171359716274
 30
0.0
 40
2.0
100
AcDbArc
 50
180.0
 51
270.0
  0
LINE
  5
41E
330
1A
100
AcDbEntity
  8
SEIHIN
  6
CONTINUOUS
 62
     3
 48
16.0
100
AcDbLine
 10
616.099675292459
 20
300.0171359716274
 30
0.0
 11
603.0997752924587
 21
300.0171359716274
 31
0.0
  0
ARC
  5
41F
330
1A
100
AcDbEntity
  8
SEIHIN
  6
CONTINUOUS
 62
     3
 48
16.0
100
AcDbCircle
 10
611.5997752924587
 20
293.0171359716273
 30
0.0
 40
2.0
100
AcDbArc
 50
0.0
 51
90.0
  0
LINE
  5
420
330
1A
100
AcDbEntity
  8
SEIHIN
  6
CONTINUOUS
 62
     3
 48
16.0
100
AcDbLine
 10
616.099675292459
 20
300.0171359716274
 30
0.0
 11
629.099675292459
 21
300.0170359716274
 31
0.0
  0
ARC
  5
421
330
1A
100
AcDbEntity
  8
SEIHIN
  6
CONTINUOUS
 62
     3
 48
16.0
100
AcDbCircle
 10
620.599675292459
 20
293.0171359716273
 30
0.0
 40
2.000000000000028
100
AcDbArc
 50
89.9999999999992
 51
179.9999999999991
  0
LINE
  5
422
330
1A
100
AcDbEntity
  8
SEIHIN
  6
CONTINUOUS
 62
     3
 48
16.0
100
AcDbLine
 10
603.0997752924587
 20
313.0171359716274
 30
0.0
 11
616.0997752924587
 21
313.0171359716274
 31
0.0
  0
ARC
  5
423
330
1A
100
AcDbEntity
  8
SEIHIN
  6
CONTINUOUS
 62
     3
 48
16.0
100
AcDbCircle
 10
603.0997752924587
 20
311.0171359716274
 30
0.0
 40
2.0
100
AcDbArc
 50
90.0
 51
180.0
  0
LINE
  5
424
330
1A
100
AcDbEntity
  8
SEIHIN
  6
CONTINUOUS
 62
     3
 48
16.0
100
AcDbLine
 10
601.0997752924587
 20
311.0171359716274
 30
0.0
 11
601.0997752924587
 21
302.0171359716274
 31
0.0
  0
ARC
  5
425
330
1A
100
AcDbEntity
  8
SEIHIN
  6
CONTINUOUS
 62
     3
 48
16.0
100
AcDbCircle
 10
629.099675292459
 20
311.0170359716273
 30
0.0
 40
2.0
100
AcDbArc
 50
0.0
 51
90.0
  0
LINE
  5
426
330
1A
100
AcDbEntity
  8
SEIHIN
  6
CONTINUOUS
 62
     3
 48
16.0
100
AcDbLine
 10
629.099675292459
 20
313.0170359716273
 30
0.0
 11
616.099675292459
 21
313.0171359716274
 31
0.0
  0
LINE
  5
427
330
1A
100
AcDbEntity
  8
SEIHIN
  6
CONTINUOUS
 62
     3
 48
16.0
100
AcDbLine
 10
631.0996752924589
 20
311.0170359716273
 30
0.0
 11
631.0996752924589
 21
302.0170359716274
 31
0.0
  0
LINE
  5
428
330
1A
100
AcDbEntity
  8
CENTER_L
  6
CENTER
 62
     1
 48
5.0
100
AcDbLine
 10
639.5996752924589
 20
311.8019359716274
 30
0.0
 11
639.5997752924588
 21
297.8014359716274
 31
0.0
  0
ARC
  5
429
330
1A
100
AcDbEntity
  8
SEIHIN
  6
CONTINUOUS
 62
     3
 48
16.0
100
AcDbCircle
 10
639.599725292459
 20
303.0170359708898
 30
0.0
 40
3.250053525266203
100
AcDbArc
 50
106.5567288406441
 51
73.44327115935581
  0
LINE
  5
42A
330
1A
100
AcDbEntity
  8
SEIHIN
  6
CONTINUOUS
 62
     3
 48
16.0
100
AcDbLine
 10
642.5996752924589
 20
287.0170359716274
 30
0.0
 11
642.5996752924589
 21
293.0170359716274
 31
0.0
  0
LINE
  5
42B
330
1A
100
AcDbEntity
  8
SEIHIN
  6
CONTINUOUS
 62
     3
 48
16.0
100
AcDbLine
 10
639.5998752924588
 20
285.0170359716274
 30
0.0
 11
640.599675292459
 21
285.0170359716274
 31
0.0
  0
ARC
  5
42C
330
1A
100
AcDbEntity
  8
SEIHIN
  6
CONTINUOUS
 62
     3
 48
16.0
100
AcDbCircle
 10
640.599675292459
 20
287.0170359716274
 30
0.0
 40
2.0
100
AcDbArc
 50
270.0
 51
0.0
  0
ARC
  5
42D
330
1A
100
AcDbEntity
  8
SEIHIN
  6
CONTINUOUS
 62
     3
 48
16.0
100
AcDbCircle
 10
640.599675292459
 20
293.0170359716274
 30
0.0
 40
2.0
100
AcDbArc
 50
0.0
 51
90.0
  0
ARC
  5
42E
330
1A
100
AcDbEntity
  8
SEIHIN
  6
CONTINUOUS
 62
     3
 48
16.0
100
AcDbCircle
 10
637.599675292459
 20
308.0170359716274
 30
0.0
 40
10.0
100
AcDbArc
 50
0.0
 51
90.0
  0
LINE
  5
42F
330
1A
100
AcDbEntity
  8
CENTER_L
  6
CENTER
 62
     1
 48
5.0
100
AcDbLine
 10
633.4359752924589
 20
303.0170359716273
 30
0.0
 11
645.0855752924589
 21
303.0170359716273
 31
0.0
  0
ARC
  5
430
330
1A
100
AcDbEntity
  8
SEIHIN
  6
CONTINUOUS
 62
     3
 48
16.0
100
AcDbCircle
 10
639.599725292459
 20
308.017035972696
 30
0.0
 40
2.099963789337341
100
AcDbArc
 50
296.1697079573589
 51
243.8302920426409
  0
LINE
  5
431
330
1A
100
AcDbEntity
  8
CENTER_L
  6
CENTER
 62
     1
 48
5.0
100
AcDbLine
 10
635.653575292459
 20
308.0170359716274
 30
0.0
 11
643.8017752924589
 21
308.0170359716274
 31
0.0
  0
DIMENSION
  5
455
330
1A
100
AcDbEntity
  8
SUNPOU
 62
     4
100
AcDbDimension
  2
*D2
 10
437.8120492193179
 20
413.005742384902
 30
0.0
 11
432.8120492193179
 21
444.5057423849021
 31
0.0
 70
    32
  3
STANDARD
100
AcDbAlignedDimension
 13
391.2101035578542
 23
476.005742384902
 33
0.0
 14
391.2101035578542
 24
413.005742384902
 34
0.0
 50
90.0
100
AcDbRotatedDimension
1001
ACAD
1000
DSTYLE
1002
{
1070
   140
1040
6.0
1070
    74
1070
     0
1070
   172
1070
     1
1070
    73
1070
     0
1070
   272
1070
     2
1070
    77
1070
     3
1070
   173
1070
     1
1070
   147
1040
2.0
1070
    42
1040
6.0
1070
    44
1040
3.0
1070
    43
1040
14.0
1070
   271
1070
     0
1070
   178
1070
     4
1070
   177
1070
     4
1070
   176
1070
     4
1070
   141
1040
150.0
1070
     7
1000
_OPEN
1070
     6
1000
_OPEN
1070
    41
1040
7.0
1002
}
  0
DIMENSION
  5
491
330
1A
100
AcDbEntity
  8
SUNPOU
 62
     4
100
AcDbDimension
  2
*D3
 10
527.8987324709324
 20
268.0170359716273
 30
0.0
 11
522.8987324709323
 21
248.5170359716273
 31
0.0
 12
0.0
 22
-40.0548217165865
 32
0.0
 70
    32
  3
STANDARD
100
AcDbAlignedDimension
 13
588.282175292459
 23
278.0171359716274
 33
0.0
 14
594.5996752924588
 24
268.0170359716273
 34
0.0
 50
90.0
100
AcDbRotatedDimension
1001
ACAD
1000
DSTYLE
1002
{
1070
   140
1040
6.0
1070
    74
1070
     0
1070
   172
1070
     1
1070
    73
1070
     0
1070
   272
1070
     2
1070
    77
1070
     3
1070
   173
1070
     1
1070
   147
1040
2.0
1070
    42
1040
6.0
1070
    44
1040
3.0
1070
    43
1040
14.0
1070
   271
1070
     0
1070
   178
1070
     4
1070
   177
1070
     4
1070
   176
1070
     4
1070
   141
1040
150.0
1070
     7
1000
_OPEN
1070
     6
1000
_OPEN
1070
    41
1040
7.0
1002
}
  0
DIMENSION
  5
4A0
330
1A
100
AcDbEntity
  8
SUNPOU
 62
     4
100
AcDbDimension
  2
*D4
 10
527.8987324709324
 20
318.0170359716274
 30
0.0
 11
522.8987324709323
 21
337.5170359716274
 31
0.0
 12
0.0
 22
-40.0548217165865
 32
0.0
 70
    32
  3
STANDARD
100
AcDbAlignedDimension
 13
588.1777752924588
 23
308.0171359716274
 33
0.0
 14
594.5998752924589
 24
318.0170359716274
 34
0.0
 50
90.0
100
AcDbRotatedDimension
1001
ACAD
1000
DSTYLE
1002
{
1070
   140
1040
6.0
1070
    74
1070
     0
1070
   172
1070
     1
1070
    73
1070
     0
1070
   272
1070
     2
1070
    77
1070
     3
1070
   173
1070
     1
1070
   147
1040
2.0
1070
    42
1040
6.0
1070
    44
1040
3.0
1070
    43
1040
14.0
1070
   271
1070
     0
1070
   178
1070
     4
1070
   177
1070
     4
1070
   176
1070
     4
1070
   141
1040
150.0
1070
     7
1000
_OPEN
1070
     6
1000
_OPEN
1070
    41
1040
7.0
1002
}
  0
DIMENSION
  5
4AF
330
1A
100
AcDbEntity
  8
SUNPOU
 62
     4
100
AcDbDimension
  2
*D5
 10
509.4024626050522
 20
303.0171359716274
 30
0.0
 11
504.4024626050522
 21
310.5170859716274
 31
0.0
 12
0.0
 22
-40.0548217165865
 32
0.0
 70
    32
  3
STANDARD
100
AcDbAlignedDimension
 13
594.5997752924587
 23
318.0170359716274
 33
0.0
 14
587.3840752924587
 24
303.0171359716274
 34
0.0
 50
90.0
100
AcDbRotatedDimension
1001
ACAD
1000
DSTYLE
1002
{
1070
   140
1040
6.0
1070
    74
1070
     0
1070
   172
1070
     1
1070
    73
1070
     0
1070
   272
1070
     2
1070
    77
1070
     3
1070
   173
1070
     1
1070
   147
1040
2.0
1070
    42
1040
6.0
1070
    44
1040
3.0
1070
    43
1040
14.0
1070
   271
1070
     0
1070
   178
1070
     4
1070
   177
1070
     4
1070
   176
1070
     4
1070
   141
1040
150.0
1070
     7
1000
_OPEN
1070
     6
1000
_OPEN
1070
    41
1040
7.0
1002
}
  0
DIMENSION
  5
4BE
330
1A
100
AcDbEntity
  8
SUNPOU
 62
     4
100
AcDbDimension
  2
*D6
 10
490.3777276693449
 20
268.0170359716273
 30
0.0
 11
485.3777276693449
 21
293.0170359716273
 31
0.0
 12
0.0
 22
-40.0548217165865
 32
0.0
 70
    32
  3
STANDARD
100
AcDbAlignedDimension
 13
594.5998752924589
 23
318.0170359716274
 33
0.0
 14
594.599675292459
 24
268.0170359716273
 34
0.0
 50
90.0
100
AcDbRotatedDimension
1001
ACAD
1000
DSTYLE
1002
{
1070
   140
1040
6.0
1070
    74
1070
     0
1070
   172
1070
     1
1070
    73
1070
     0
1070
   272
1070
     2
1070
    77
1070
     3
1070
   173
1070
     1
1070
   147
1040
2.0
1070
    42
1040
6.0
1070
    44
1040
3.0
1070
    43
1040
14.0
1070
   271
1070
     0
1070
   178
1070
     4
1070
   177
1070
     4
1070
   176
1070
     4
1070
   141
1040
150.0
1070
     7
1000
_OPEN
1070
     6
1000
_OPEN
1070
    41
1040
7.0
1002
}
  0
DIMENSION
  5
4CC
330
1A
100
AcDbEntity
  8
SUNPOU
 62
     4
100
AcDbDimension
  2
*D7
 10
639.5996752900612
 20
336.5236313202003
 30
0.0
 11
616.09972529126
 21
341.5236313202003
 31
0.0
 70
    32
  3
STANDARD
100
AcDbAlignedDimension
 13
592.5997752924587
 23
311.8019359716274
 33
0.0
 14
639.5996752900612
 24
311.8022716732091
 34
0.0
100
AcDbRotatedDimension
1001
ACAD
1000
DSTYLE
1002
{
1070
   140
1040
6.0
1070
    74
1070
     0
1070
   172
1070
     1
1070
    73
1070
     0
1070
   272
1070
     2
1070
    77
1070
     3
1070
   173
1070
     1
1070
   147
1040
2.0
1070
    42
1040
6.0
1070
    44
1040
3.0
1070
    43
1040
14.0
1070
   271
1070
     0
1070
   178
1070
     4
1070
   177
1070
     4
1070
   176
1070
     4
1070
   141
1040
150.0
1070
     7
1000
_OPEN
1070
     6
1000
_OPEN
1070
    41
1040
7.0
1002
}
  0
DIMENSION
  5
4D9
330
1A
100
AcDbEntity
  8
SUNPOU
 62
     4
100
AcDbDimension
  2
*D8
 10
647.5996752924589
 20
352.7152979776949
 30
0.0
 11
616.0997252924588
 21
357.7152979776949
 31
0.0
 70
    32
  3
STANDARD
100
AcDbAlignedDimension
 13
584.5997752924587
 23
308.0170359716274
 33
0.0
 14
647.5996752924589
 24
308.0170359716274
 34
0.0
100
AcDbRotatedDimension
1001
ACAD
1000
DSTYLE
1002
{
1070
   140
1040
6.0
1070
    74
1070
     0
1070
   172
1070
     1
1070
    73
1070
     0
1070
   272
1070
     2
1070
    77
1070
     3
1070
   173
1070
     1
1070
   147
1040
2.0
1070
    42
1040
6.0
1070
    44
1040
3.0
1070
    43
1040
14.0
1070
   271
1070
     0
1070
   178
1070
     4
1070
   177
1070
     4
1070
   176
1070
     4
1070
   141
1040
150.0
1070
     7
1000
_OPEN
1070
     6
1000
_OPEN
1070
    41
1040
7.0
1002
}
  0
DIMENSION
  5
51E
330
1A
100
AcDbEntity
  8
SUNPOU
 62
     4
100
AcDbDimension
  2
*D9
 10
234.8291329231815
 20
318.0170359716274
 30
0.0
 11
229.8291329231815
 21
302.9647859717872
 31
0.0
 70
    32
  3
STANDARD
100
AcDbAlignedDimension
 13
265.2472214329292
 23
287.9125359719468
 33
0.0
 14
391.2101035578542
 24
318.0170359716274
 34
0.0
 50
90.0
100
AcDbRotatedDimension
1001
ACAD
1000
DSTYLE
1002
{
1070
   140
1040
6.0
1070
    74
1070
     0
1070
   172
1070
     1
1070
    73
1070
     0
1070
   272
1070
     2
1070
    77
1070
     3
1070
   173
1070
     1
1070
   147
1040
2.0
1070
    42
1040
6.0
1070
    44
1040
3.0
1070
    43
1040
14.0
1070
   271
1070
     0
1070
   178
1070
     4
1070
   177
1070
     4
1070
   176
1070
     4
1070
   141
1040
150.0
1070
     7
1000
_OPEN
1070
     6
1000
_OPEN
1070
    41
1040
7.0
1002
}
  0
DIMENSION
  5
52B
330
1A
100
AcDbEntity
  8
SUNPOU
 62
     4
100
AcDbDimension
  2
*D10
 10
391.2101035578542
 20
365.2989336208709
 30
0.0
 11
326.7094441762649
 21
370.2989336208709
 31
0.0
 70
    32
  3
STANDARD
100
AcDbAlignedDimension
 13
262.2087847946756
 23
284.5048930060652
 33
0.0
 14
391.2101035578542
 24
318.0170359716274
 34
0.0
100
AcDbRotatedDimension
1001
ACAD
1000
DSTYLE
1002
{
1070
   140
1040
6.0
1070
    74
1070
     0
1070
   172
1070
     1
1070
    73
1070
     0
1070
   272
1070
     2
1070
    77
1070
     3
1070
   173
1070
     1
1070
   147
1040
2.0
1070
    42
1040
6.0
1070
    44
1040
3.0
1070
    43
1040
14.0
1070
   271
1070
     0
1070
   178
1070
     4
1070
   177
1070
     4
1070
   176
1070
     4
1070
   141
1040
150.0
1070
     7
1000
_OPEN
1070
     6
1000
_OPEN
1070
    41
1040
7.0
1002
}
  0
DIMENSION
  5
539
330
1A
100
AcDbEntity
  8
SUNPOU
 62
     4
100
AcDbDimension
  2
*D11
 10
391.2101035578542
 20
351.4294177274769
 30
0.0
 11
336.2101035578543
 21
356.4294177274768
 31
0.0
 70
    32
  3
STANDARD
100
AcDbAlignedDimension
 13
281.2101035578543
 23
288.4125359716273
 33
0.0
 14
391.2101035578542
 24
318.0170359716274
 34
0.0
100
AcDbRotatedDimension
1001
ACAD
1000
DSTYLE
1002
{
1070
   140
1040
6.0
1070
    74
1070
     0
1070
   172
1070
     1
1070
    73
1070
     0
1070
   272
1070
     2
1070
    77
1070
     3
1070
   173
1070
     1
1070
   147
1040
2.0
1070
    42
1040
6.0
1070
    44
1040
3.0
1070
    43
1040
14.0
1070
   271
1070
     0
1070
   178
1070
     4
1070
   177
1070
     4
1070
   176
1070
     4
1070
   141
1040
150.0
1070
     7
1000
_OPEN
1070
     6
1000
_OPEN
1070
    41
1040
7.0
1002
}
  0
LINE
  5
566
330
1A
100
AcDbEntity
  8
SEIHIN
  6
PHANTOM
 62
     6
 48
5.0
100
AcDbLine
 10
420.2101035578544
 20
187.7175974131576
 30
0.0
 11
415.4604035578542
 21
187.3020974131576
 31
0.0
  0
ARC
  5
567
330
1A
100
AcDbEntity
  8
SEIHIN
  6
PHANTOM
 62
     6
 48
5.0
100
AcDbCircle
 10
415.2101035578543
 20
164.7176974131575
 30
0.0
 40
5.000000000000042
100
AcDbArc
 50
359.9999999999994
 51
89.99999999999952
  0
LINE
  5
568
330
1A
100
AcDbEntity
  8
NOITOI
  6
PHANTOM
 62
     8
 48
5.0
100
AcDbLine
 10
269.3106327987752
 20
146.789655429796
 30
0.0
 11
272.1794327987753
 21
118.1022554297961
 31
0.0
  0
ARC
  5
569
330
1A
100
AcDbEntity
  8
NOITOI
  6
PHANTOM
 62
     8
 48
5.0
100
AcDbCircle
 10
328.4070490252326
 20
151.6901699061662
 30
0.0
 40
43.00001447645168
100
AcDbArc
 50
270.0001116248559
 51
353.4750892928819
  0
ARC
  5
56A
330
1A
100
AcDbEntity
  8
NOITOI
  6
PHANTOM
 62
     8
 48
5.0
100
AcDbCircle
 10
328.4070267168074
 20
151.6901498051397
 30
0.0
 40
41.79999437547816
100
AcDbArc
 50
270.0001454078912
 51
355.525704787475
  0
LINE
  5
56B
330
1A
100
AcDbEntity
  8
NOITOI
  6
PHANTOM
 62
     8
 48
5.0
100
AcDbLine
 10
270.3516327987753
 20
148.4399554297962
 30
0.0
 11
273.3446327987751
 21
118.5101554297961
 31
0.0
  0
LINE
  5
56C
330
1A
100
AcDbEntity
  8
NOITOI
  6
PHANTOM
 62
     8
 48
5.0
100
AcDbLine
 10
283.5776327987751
 20
108.690055429796
 30
0.0
 11
328.4070327987752
 21
108.6901554297961
 31
0.0
  0
LINE
  5
56D
330
1A
100
AcDbEntity
  8
NOITOI
  6
PHANTOM
 62
     8
 48
5.0
100
AcDbLine
 10
328.4070327987752
 20
109.8901554297962
 30
0.0
 11
283.8274327987751
 21
109.8900554297961
 31
0.0
  0
LINE
  5
56E
330
1A
100
AcDbEntity
  8
NOITOI
  6
PHANTOM
 62
     8
 48
5.0
100
AcDbLine
 10
287.8274327987751
 20
109.8900554297961
 30
0.0
 11
307.7355327987751
 21
109.8900554297961
 31
0.0
  0
LINE
  5
56F
330
1A
100
AcDbEntity
  8
NOITOI
  6
PHANTOM
 62
     8
 48
5.0
100
AcDbLine
 10
287.5776327987751
 20
108.690055429796
 30
0.0
 11
307.7355327987751
 21
108.690055429796
 31
0.0
  0
LINE
  5
570
330
1A
100
AcDbEntity
  8
NOITOI
  6
PHANTOM
 62
     8
 48
5.0
100
AcDbLine
 10
272.5412327987752
 20
117.4277554297961
 30
0.0
 11
282.9443327987751
 21
108.9160554297961
 31
0.0
  0
LINE
  5
571
330
1A
100
AcDbEntity
  8
NOITOI
  6
PHANTOM
 62
     8
 48
5.0
100
AcDbLine
 10
273.5255327987751
 20
118.172855429796
 30
0.0
 11
283.5108327987752
 21
110.003055429796
 31
0.0
  0
ARC
  5
572
330
1A
100
AcDbEntity
  8
NOITOI
  6
PHANTOM
 62
     8
 48
5.0
100
AcDbCircle
 10
283.8274264110267
 20
110.3900577097857
 30
0.0
 40
0.5000022800304047
100
AcDbArc
 50
230.7145501403941
 51
270.0007319787213
  0
ARC
  5
573
330
1A
100
AcDbEntity
  8
NOITOI
  6
PHANTOM
 62
     8
 48
5.0
100
AcDbCircle
 10
283.5776397313524
 20
109.6900529547899
 30
0.0
 40
0.9999975250179316
100
AcDbArc
 50
230.7053583247701
 51
269.9996027915957
  0
ARC
  5
574
330
1A
100
AcDbEntity
  8
NOITOI
  6
PHANTOM
 62
     8
 48
5.0
100
AcDbCircle
 10
273.1744553716443
 20
118.2017133581234
 30
0.0
 40
0.9999908507640039
100
AcDbArc
 50
185.7137670522468
 51
230.7112907769303
  0
ARC
  5
575
330
1A
100
AcDbEntity
  8
NOITOI
  6
PHANTOM
 62
     8
 48
5.0
100
AcDbCircle
 10
273.8421502246533
 20
118.5598229434082
 30
0.0
 40
0.4999904508696396
100
AcDbArc
 50
185.7009889250754
 51
230.7099153622041
  0
LINE
  5
579
330
1A
100
AcDbEntity
  8
SEIHIN
  6
CONTINUOUS
 62
     3
 48
16.0
100
AcDbLine
 10
298.2223035578544
 20
158.1130974131575
 30
0.0
 11
281.2101035578543
 21
158.1130974131575
 31
0.0
  0
LINE
  5
57A
330
1A
100
AcDbEntity
  8
SEIHIN
  6
CONTINUOUS
 62
     3
 48
16.0
100
AcDbLine
 10
286.7101035578544
 20
160.8130974131576
 30
0.0
 11
291.2101035578544
 21
160.8130974131576
 31
0.0
  0
LINE
  5
57B
330
1A
100
AcDbEntity
  8
SEIHIN
  6
CONTINUOUS
 62
     3
 48
16.0
100
AcDbLine
 10
285.7101035578543
 20
159.6130974131576
 30
0.0
 11
291.2101035578544
 21
159.6130974131576
 31
0.0
  0
LINE
  5
57C
330
1A
100
AcDbEntity
  8
SEIHIN
  6
CONTINUOUS
 62
     3
 48
16.0
100
AcDbLine
 10
291.2100035578544
 20
165.1130974131576
 30
0.0
 11
288.7101035578544
 21
165.1130974131576
 31
0.0
  0
LINE
  5
57D
330
1A
100
AcDbEntity
  8
SEIHIN
  6
CONTINUOUS
 62
     3
 48
16.0
100
AcDbLine
 10
291.2101035578544
 20
163.8130974131576
 30
0.0
 11
287.9601035578544
 21
163.8130974131576
 31
0.0
  0
LINE
  5
57E
330
1A
100
AcDbEntity
  8
SEIHIN
  6
CONTINUOUS
 62
     3
 48
16.0
100
AcDbLine
 10
285.2101035578543
 20
146.1130974131576
 30
0.0
 11
303.9571035578544
 21
146.1130974131576
 31
0.0
  0
LINE
  5
57F
330
1A
100
AcDbEntity
  8
SEIHIN
  6
CONTINUOUS
 62
     3
 48
16.0
100
AcDbLine
 10
278.6152035578544
 20
143.1130974131575
 30
0.0
 11
334.7959035578544
 21
143.1130974131575
 31
0.0
  0
LINE
  5
580
330
1A
100
AcDbEntity
  8
SEIHIN
  6
CONTINUOUS
 62
     3
 48
16.0
100
AcDbLine
 10
278.6152035578544
 20
145.6130974131576
 30
0.0
 11
334.7959035578544
 21
145.6130974131576
 31
0.0
  0
LINE
  5
581
330
1A
100
AcDbEntity
  8
SEIHIN
  6
CONTINUOUS
 62
     3
 48
16.0
100
AcDbLine
 10
296.7100035578544
 20
142.3129974131576
 30
0.0
 11
285.7100035578544
 21
142.3130974131576
 31
0.0
  0
ARC
  5
582
330
1A
100
AcDbEntity
  8
SEIHIN
  6
CONTINUOUS
 62
     3
 48
16.0
100
AcDbCircle
 10
291.2100767119452
 20
150.3599974129458
 30
0.0
 40
9.746968980505872
100
AcDbArc
 50
235.6473109321945
 51
304.3516473263605
  0
ARC
  5
583
330
1A
100
AcDbEntity
  8
SEIHIN
  6
CONTINUOUS
 62
     3
 48
16.0
100
AcDbCircle
 10
269.8085386131345
 20
148.8131234838373
 30
0.0
 40
0.9999739314291876
100
AcDbArc
 50
46.25238621304171
 51
89.99627884464459
  0
ARC
  5
584
330
1A
100
AcDbEntity
  8
NOITOI
  6
PHANTOM
 62
     8
 48
5.0
100
AcDbCircle
 10
376.6190192266369
 20
150.8901422747096
 30
0.0
 40
1.999986844959662
100
AcDbArc
 50
270.0003888156776
 51
358.2124468147636
  0
ARC
  5
585
330
1A
100
AcDbEntity
  8
SEIHIN
  6
CONTINUOUS
 62
     3
 48
16.0
100
AcDbCircle
 10
265.2100035578544
 20
152.8130974131576
 30
0.0
 40
3.000000000000042
100
AcDbArc
 50
180.0000000000007
 51
270.0000000000008
  0
LINE
  5
586
330
1A
100
AcDbEntity
  8
NOITOI
  6
PHANTOM
 62
     8
 48
5.0
100
AcDbLine
 10
380.1561327987751
 20
161.6276554297961
 30
0.0
 11
379.7659327987752
 21
149.143355429796
 31
0.0
  0
LINE
  5
587
330
1A
100
AcDbEntity
  8
SEIHIN
  6
CONTINUOUS
 62
     3
 48
16.0
100
AcDbLine
 10
277.9237035578544
 20
145.8906974131576
 30
0.0
 11
273.7446035578543
 21
149.8906974131576
 31
0.0
  0
LINE
  5
588
330
1A
100
AcDbEntity
  8
SEIHIN
  6
CONTINUOUS
 62
     3
 48
16.0
100
AcDbLine
 10
277.3100035578544
 20
151.6131974131576
 30
0.0
 11
277.3100035578544
 21
146.4780974131576
 31
0.0
  0
LINE
  5
589
330
1A
100
AcDbEntity
  8
SEIHIN
  6
CONTINUOUS
 62
     3
 48
16.0
100
AcDbLine
 10
281.2101035578543
 20
150.1130974131576
 30
0.0
 11
285.2101035578543
 21
146.1130974131576
 31
0.0
  0
LINE
  5
58A
330
1A
100
AcDbEntity
  8
SEIHIN
  6
CONTINUOUS
 62
     3
 48
16.0
100
AcDbLine
 10
270.5000035578543
 20
149.5354974131577
 30
0.0
 11
276.1951035578543
 21
144.0845974131575
 31
0.0
  0
LINE
  5
58B
330
1A
100
AcDbEntity
  8
NOITOI
  6
PHANTOM
 62
     8
 48
5.0
100
AcDbLine
 10
370.5781327987752
 20
148.890155429796
 30
0.0
 11
376.6190327987751
 21
148.890155429796
 31
0.0
  0
LINE
  5
58C
330
1A
100
AcDbEntity
  8
NOITOI
  6
PHANTOM
 62
     8
 48
5.0
100
AcDbLine
 10
378.2667327987751
 20
147.6901554297961
 30
0.0
 11
372.1220327987751
 21
147.6901554297961
 31
0.0
  0
ARC
  5
58D
330
1A
100
AcDbEntity
  8
NOITOI
  6
PHANTOM
 62
     8
 48
5.0
100
AcDbCircle
 10
378.2666968396242
 20
149.1901205756529
 30
0.0
 40
1.499965146287778
100
AcDbArc
 50
270.0013735703023
 51
358.2133719782232
  0
ARC
  5
58E
330
1A
100
AcDbEntity
  8
NOITOI
  6
PHANTOM
 62
     8
 48
5.0
100
AcDbCircle
 10
370.5781202290668
 20
148.3901438050663
 30
0.0
 40
0.5000116248877111
100
AcDbArc
 50
89.99855965101662
 51
175.5251531916571
  0
LINE
  5
58F
330
1A
100
AcDbEntity
  8
SEIHIN
  6
CONTINUOUS
 62
     3
 48
16.0
100
AcDbLine
 10
265.2100035578544
 20
149.8130974131576
 30
0.0
 11
269.8086035578544
 21
149.8130974131576
 31
0.0
  0
ARC
  5
590
330
1A
100
AcDbEntity
  8
NOITOI
  6
PHANTOM
 62
     8
 48
5.0
100
AcDbCircle
 10
372.1220412229378
 20
146.6901629448526
 30
0.0
 40
0.9999924849789756
100
AcDbArc
 50
90.00048267259112
 51
173.4717353933255
  0
ARC
  5
591
330
1A
100
AcDbEntity
  8
SEIHIN
  6
CONTINUOUS
 62
     3
 48
16.0
100
AcDbCircle
 10
278.6151686373914
 20
146.613111431673
 30
0.0
 40
3.500014018689605
100
AcDbArc
 50
226.2554456348519
 51
270.0005716534665
  0
ARC
  5
592
330
1A
100
AcDbEntity
  8
SEIHIN
  6
CONTINUOUS
 62
     3
 48
16.0
100
AcDbCircle
 10
278.6151823796533
 20
146.6131059155853
 30
0.0
 40
1.000008502651959
100
AcDbArc
 50
226.2531815870632
 51
270.0012134112234
  0
LINE
  5
593
330
1A
100
AcDbEntity
  8
SEIHIN
  6
CONTINUOUS
 62
     3
 48
16.0
100
AcDbLine
 10
285.7100035578544
 20
142.3130974131576
 30
0.0
 11
285.7100035578544
 21
143.1130974131575
 31
0.0
  0
LINE
  5
594
330
1A
100
AcDbEntity
  8
SEIHIN
  6
CONTINUOUS
 62
     3
 48
16.0
100
AcDbLine
 10
268.9101035578544
 20
154.1130974131575
 30
0.0
 11
281.2101035578543
 21
154.1130974131575
 31
0.0
  0
ARC
  5
595
330
1A
100
AcDbEntity
  8
NOITOI
  6
PHANTOM
 62
     8
 48
5.0
100
AcDbCircle
 10
374.1107400533309
 20
161.6901642796394
 30
0.0
 40
0.5000088498959383
100
AcDbArc
 50
269.9991687038565
 51
11.31359566951149
  0
LINE
  5
596
330
1A
100
AcDbEntity
  8
NOITOI
  6
PHANTOM
 62
     8
 48
5.0
100
AcDbLine
 10
375.6843327987751
 20
162.4901554297962
 30
0.0
 11
376.1843327987751
 21
159.9901554297962
 31
0.0
  0
LINE
  5
597
330
1A
100
AcDbEntity
  8
NOITOI
  6
PHANTOM
 62
     8
 48
5.0
100
AcDbLine
 10
378.9567327987751
 20
161.665155429796
 30
0.0
 11
378.8073327987753
 21
156.8862554297961
 31
0.0
  0
ARC
  5
598
330
1A
100
AcDbEntity
  8
SEIHIN
  6
CONTINUOUS
 62
     3
 48
16.0
100
AcDbCircle
 10
265.7087704125885
 20
154.2054544475954
 30
0.0
 40
3.499985617912851
100
AcDbArc
 50
103.190619234148
 51
181.5120869528077
  0
LINE
  5
599
330
1A
100
AcDbEntity
  8
SEIHIN
  6
CONTINUOUS
 62
     3
 48
16.0
100
AcDbLine
 10
265.0270035578544
 20
154.5225974131576
 30
0.0
 11
262.2232035578544
 21
154.5225974131576
 31
0.0
  0
ARC
  5
59A
330
1A
100
AcDbEntity
  8
NOITOI
  6
PHANTOM
 62
     8
 48
5.0
100
AcDbCircle
 10
374.7054125861061
 20
153.6902141581762
 30
0.0
 40
5.2000412730095
100
AcDbArc
 50
37.92420092094385
 51
89.99867545693838
  0
ARC
  5
59B
330
1A
100
AcDbEntity
  8
NOITOI
  6
PHANTOM
 62
     8
 48
5.0
100
AcDbCircle
 10
374.7054949173285
 20
153.6901992123215
 30
0.0
 40
3.999989731271038
100
AcDbArc
 50
358.2100163932691
 51
83.52268857986855
  0
LINE
  5
59C
330
1A
100
AcDbEntity
  8
NOITOI
  6
PHANTOM
 62
     8
 48
5.0
100
AcDbLine
 10
378.6180327987752
 20
150.8277554297961
 30
0.0
 11
378.7035327987751
 21
153.565255429796
 31
0.0
  0
LINE
  5
59D
330
1A
100
AcDbEntity
  8
SEIHIN
  6
CONTINUOUS
 62
     3
 48
16.0
100
AcDbLine
 10
262.2100035578543
 20
154.1130974131575
 30
0.0
 11
262.2100035578543
 21
152.8130974131576
 31
0.0
  0
ARC
  5
59E
330
1A
100
AcDbEntity
  8
NOITOI
  6
PHANTOM
 62
     8
 48
5.0
100
AcDbCircle
 10
371.879238999933
 20
160.6901619648814
 30
0.0
 40
0.4999934649531607
100
AcDbArc
 50
90.00071060961996
 51
183.0044636796616
  0
LINE
  5
59F
330
1A
100
AcDbEntity
  8
NOITOI
  6
PHANTOM
 62
     8
 48
5.0
100
AcDbLine
 10
371.8792327987753
 20
161.1901554297961
 30
0.0
 11
374.1107327987752
 21
161.1901554297961
 31
0.0
  0
LINE
  5
5A0
330
1A
100
AcDbEntity
  8
NOITOI
  6
PHANTOM
 62
     8
 48
5.0
100
AcDbLine
 10
376.1843327987751
 20
159.9901554297962
 30
0.0
 11
373.2478327987752
 21
159.9901554297962
 31
0.0
  0
ARC
  5
5A1
330
1A
100
AcDbEntity
  8
NOITOI
  6
PHANTOM
 62
     8
 48
5.0
100
AcDbCircle
 10
375.1003185803598
 20
157.1678407954951
 30
0.0
 40
0.5000073448410256
100
AcDbArc
 50
83.5217071700316
 51
188.1270521358757
  0
LINE
  5
5A2
330
1A
100
AcDbEntity
  8
NOITOI
  6
PHANTOM
 62
     8
 48
5.0
100
AcDbLine
 10
372.8591327987751
 20
155.3901554297962
 30
0.0
 11
372.6779327987752
 21
158.8316554297962
 31
0.0
  0
ARC
  5
5A3
330
1A
100
AcDbEntity
  8
NOITOI
  6
PHANTOM
 62
     8
 48
5.0
100
AcDbCircle
 10
372.1950396857701
 20
154.6901488947106
 30
0.0
 40
0.499993464961963
100
AcDbArc
 50
183.0029638682573
 51
269.9992107982126
  0
LINE
  5
5A4
330
1A
100
AcDbEntity
  8
NOITOI
  6
PHANTOM
 62
     8
 48
5.0
100
AcDbLine
 10
373.2329327987753
 20
158.218555429796
 30
0.0
 11
372.6779327987752
 21
158.8316554297962
 31
0.0
  0
LINE
  5
5A5
330
1A
100
AcDbEntity
  8
NOITOI
  6
PHANTOM
 62
     8
 48
5.0
100
AcDbLine
 10
374.9390327987752
 20
154.7609554297962
 30
0.0
 11
374.6053327987751
 21
157.0971554297962
 31
0.0
  0
ARC
  5
5A6
330
1A
100
AcDbEntity
  8
NOITOI
  6
PHANTOM
 62
     8
 48
5.0
100
AcDbCircle
 10
374.4441061981778
 20
154.690124752914
 30
0.0
 40
0.4999693238254178
100
AcDbArc
 50
270.0030483909652
 51
8.144496122946778
  0
LINE
  5
5A7
330
1A
100
AcDbEntity
  8
NOITOI
  6
PHANTOM
 62
     8
 48
5.0
100
AcDbLine
 10
374.2436327987751
 20
158.8901554297961
 30
0.0
 11
374.7055327987752
 21
158.8901554297961
 31
0.0
  0
LINE
  5
5A8
330
1A
100
AcDbEntity
  8
NOITOI
  6
PHANTOM
 62
     8
 48
5.0
100
AcDbLine
 10
373.6370327987752
 20
155.3901554297962
 30
0.0
 11
373.2329327987753
 21
158.218555429796
 31
0.0
  0
LINE
  5
5A9
330
1A
100
AcDbEntity
  8
NOITOI
  6
PHANTOM
 62
     8
 48
5.0
100
AcDbLine
 10
372.1950327987753
 20
154.1901554297961
 30
0.0
 11
374.4441327987753
 21
154.1901554297961
 31
0.0
  0
LINE
  5
5AA
330
1A
100
AcDbEntity
  8
NOITOI
  6
PHANTOM
 62
     8
 48
5.0
100
AcDbLine
 10
372.8591327987751
 20
155.3901554297962
 30
0.0
 11
373.6370327987752
 21
155.3901554297962
 31
0.0
  0
ARC
  5
5AB
330
1A
100
AcDbEntity
  8
SEIHIN
  6
CONTINUOUS
 62
     3
 48
16.0
100
AcDbCircle
 10
266.9101718431474
 20
157.8629010592853
 30
0.0
 40
4.249794612449446
100
AcDbArc
 50
248.0382778609677
 51
298.0729203837752
  0
ARC
  5
5AC
330
1A
100
AcDbEntity
  8
SEIHIN
  6
CONTINUOUS
 62
     3
 48
16.0
100
AcDbCircle
 10
265.2472214329292
 20
157.1130737142809
 30
0.0
 40
0.5000236991961878
100
AcDbArc
 50
344.0535045608409
 51
90.00204823560354
  0
LINE
  5
5AD
330
1A
100
AcDbEntity
  8
SEIHIN
  6
CONTINUOUS
 62
     3
 48
16.0
100
AcDbLine
 10
264.9100035578544
 20
157.6130974131576
 30
0.0
 11
265.2472035578544
 21
157.6130974131576
 31
0.0
  0
LINE
  5
5AE
330
1A
100
AcDbEntity
  8
SEIHIN
  6
CONTINUOUS
 62
     3
 48
16.0
100
AcDbLine
 10
265.7280035578543
 20
156.9756974131577
 30
0.0
 11
265.0270035578544
 21
154.5225974131576
 31
0.0
  0
ARC
  5
5AF
330
1A
100
AcDbEntity
  8
SEIHIN
  6
CONTINUOUS
 62
     3
 48
16.0
100
AcDbCircle
 10
265.5078151865529
 20
154.3851736157008
 30
0.0
 40
0.4999689691105136
100
AcDbArc
 50
164.0460514396623
 51
248.0346087936123
  0
LINE
  5
5B0
330
1A
100
AcDbEntity
  8
NOITOI
  6
PHANTOM
 62
     8
 48
5.0
100
AcDbLine
 10
374.2436327987751
 20
158.8901554297961
 30
0.0
 11
373.2478327987752
 21
159.9901554297962
 31
0.0
  0
LINE
  5
5B1
330
1A
100
AcDbEntity
  8
NOITOI
  6
PHANTOM
 62
     8
 48
5.0
100
AcDbLine
 10
371.6956327987751
 20
154.663955429796
 30
0.0
 11
371.3798327987753
 21
160.6638554297961
 31
0.0
  0
LINE
  5
5B2
330
1A
100
AcDbEntity
  8
NOITOI
  6
PHANTOM
 62
     8
 48
5.0
100
AcDbLine
 10
378.1571327987752
 20
162.4901554297962
 30
0.0
 11
375.6843327987751
 21
162.4901554297962
 31
0.0
  0
LINE
  5
5B3
330
1A
100
AcDbEntity
  8
NOITOI
  6
PHANTOM
 62
     8
 48
5.0
100
AcDbLine
 10
378.1571327987752
 20
163.690155429796
 30
0.0
 11
374.8305327987751
 21
163.690155429796
 31
0.0
  0
ARC
  5
5B4
330
1A
100
AcDbEntity
  8
NOITOI
  6
PHANTOM
 62
     8
 48
5.0
100
AcDbCircle
 10
378.157120047925
 20
161.6901685848826
 30
0.0
 40
1.999986844954076
100
AcDbArc
 50
358.21169271173
 51
89.99963471264475
  0
ARC
  5
5B5
330
1A
100
AcDbEntity
  8
NOITOI
  6
PHANTOM
 62
     8
 48
5.0
100
AcDbCircle
 10
378.1571283039774
 20
161.690160067323
 30
0.0
 40
0.7999953624857498
100
AcDbArc
 50
358.20887265358
 51
89.99967808194661
  0
ARC
  5
5B6
330
1A
100
AcDbEntity
  8
NOITOI
  6
PHANTOM
 62
     8
 48
5.0
100
AcDbCircle
 10
374.8305335817834
 20
163.1901563847979
 30
0.0
 40
0.4999990449987349
100
AcDbArc
 50
90.00008972630549
 51
191.3032801984551
  0
LINE
  5
5B7
330
1A
100
AcDbEntity
  8
NOITOI
  6
PHANTOM
 62
     8
 48
5.0
100
AcDbLine
 10
374.6010327987751
 20
161.788255429796
 30
0.0
 11
374.3402327987753
 21
163.092155429796
 31
0.0
  0
LINE
  5
5B8
330
1A
100
AcDbEntity
  8
SEIHIN
  6
CONTINUOUS
 62
     3
 48
16.0
100
AcDbLine
 10
286.7101035578544
 20
160.8130974131576
 30
0.0
 11
287.9601035578544
 21
163.8130974131576
 31
0.0
  0
ARC
  5
5B9
330
1A
100
AcDbEntity
  8
SEIHIN
  6
CONTINUOUS
 62
     3
 48
16.0
100
AcDbCircle
 10
292.3460435163462
 20
169.0735503743783
 30
0.0
 40
10.00000147691266
100
AcDbArc
 50
204.9991763848219
 51
235.694599428103
  0
LINE
  5
5BA
330
1A
100
AcDbEntity
  8
SEIHIN
  6
CONTINUOUS
 62
     3
 48
16.0
100
AcDbLine
 10
281.2101035578543
 20
151.6130974131575
 30
0.0
 11
274.4361035578544
 21
151.6130974131575
 31
0.0
  0
ARC
  5
5BB
330
1A
100
AcDbEntity
  8
SEIHIN
  6
CONTINUOUS
 62
     3
 48
16.0
100
AcDbCircle
 10
274.4361001443786
 20
150.6130889107298
 30
0.0
 40
1.000008502433501
100
AcDbArc
 50
89.99980442390286
 51
226.2517725997427
  0
LINE
  5
5BC
330
1A
100
AcDbEntity
  8
SEIHIN
  6
CONTINUOUS
 62
     3
 48
16.0
100
AcDbLine
 10
285.7101035578543
 20
159.6130974131576
 30
0.0
 11
285.7101035578543
 21
158.1130974131575
 31
0.0
  0
LINE
  5
5BD
330
1A
100
AcDbEntity
  8
SEIHIN
  6
CONTINUOUS
 62
     3
 48
16.0
100
AcDbLine
 10
281.2101035578543
 20
150.1130974131576
 30
0.0
 11
281.2101035578543
 21
158.1130974131575
 31
0.0
  0
LINE
  5
5BE
330
1A
100
AcDbEntity
  8
SEIHIN
  6
CONTINUOUS
 62
     3
 48
16.0
100
AcDbLine
 10
286.7101035578544
 20
160.8130974131576
 30
0.0
 11
287.2101035578543
 21
159.6130974131576
 31
0.0
  0
LINE
  5
5BF
330
1A
100
AcDbEntity
  8
SEIHIN
  6
CONTINUOUS
 62
     3
 48
16.0
100
AcDbLine
 10
286.8405035578544
 20
163.7260974131576
 30
0.0
 11
286.5786035578543
 21
163.0976974131575
 31
0.0
  0
ARC
  5
5C0
330
1A
100
AcDbEntity
  8
SEIHIN
  6
CONTINUOUS
 62
     3
 48
16.0
100
AcDbCircle
 10
292.3458947683954
 20
169.0737590755546
 30
0.0
 40
8.9999696413992
100
AcDbArc
 50
205.000773641598
 51
222.8782296717031
  0
ARC
  5
5C1
330
1A
100
AcDbEntity
  8
SEIHIN
  6
CONTINUOUS
 62
     3
 48
16.0
100
AcDbCircle
 10
286.1170469397626
 20
163.2899873034884
 30
0.0
 40
0.5000099135293789
100
AcDbArc
 50
222.8722729487866
 51
337.3828182613747
  0
LINE
  5
5C2
330
1A
100
AcDbEntity
  8
SEIHIN
  6
CONTINUOUS
 62
     3
 48
16.0
100
AcDbLine
 10
287.9601035578544
 20
163.8130974131576
 30
0.0
 11
286.5263035578543
 21
169.1641974131576
 31
0.0
  0
LINE
  5
5C3
330
1A
100
AcDbEntity
  8
SEIHIN
  6
CONTINUOUS
 62
     3
 48
16.0
100
AcDbLine
 10
284.6891035578543
 20
170.2248974131575
 30
0.0
 11
282.9368035578543
 21
169.7553974131576
 31
0.0
  0
LINE
  5
5C4
330
1A
100
AcDbEntity
  8
SEIHIN
  6
CONTINUOUS
 62
     3
 48
16.0
100
AcDbLine
 10
283.1956035578544
 20
168.7893974131575
 30
0.0
 11
284.9480035578544
 21
169.2589974131576
 31
0.0
  0
ARC
  5
5C5
330
1A
100
AcDbEntity
  8
SEIHIN
  6
CONTINUOUS
 62
     3
 48
16.0
100
AcDbCircle
 10
285.0773035578544
 20
168.7759974131576
 30
0.0
 40
0.5000333588872379
100
AcDbArc
 50
14.99784618189456
 51
104.9978461818978
  0
ARC
  5
5C6
330
1A
100
AcDbEntity
  8
SEIHIN
  6
CONTINUOUS
 62
     3
 48
16.0
100
AcDbCircle
 10
285.0773035578544
 20
168.7759974131576
 30
0.0
 40
1.500003483329287
100
AcDbArc
 50
14.99883465683398
 51
104.998834656836
  0
LINE
  5
5C7
330
1A
100
AcDbEntity
  8
SEIHIN
  6
CONTINUOUS
 62
     3
 48
16.0
100
AcDbLine
 10
281.9655035578544
 20
167.6724974131576
 30
0.0
 11
283.2829035578543
 21
164.8474974131576
 31
0.0
  0
LINE
  5
5C8
330
1A
100
AcDbEntity
  8
SEIHIN
  6
CONTINUOUS
 62
     3
 48
16.0
100
AcDbLine
 10
284.1892035578544
 20
165.2700974131577
 30
0.0
 11
282.8718035578543
 21
168.0951974131576
 31
0.0
  0
ARC
  5
5C9
330
1A
100
AcDbEntity
  8
SEIHIN
  6
CONTINUOUS
 62
     3
 48
16.0
100
AcDbCircle
 10
286.3789014468039
 20
163.9183657071471
 30
0.0
 40
0.5000436038986905
100
AcDbArc
 50
337.3871071409136
 51
15.00129275639684
  0
LINE
  5
5CA
330
1A
100
AcDbEntity
  8
SEIHIN
  6
CONTINUOUS
 62
     3
 48
16.0
100
AcDbLine
 10
285.5603035578544
 20
168.9053974131576
 30
0.0
 11
286.8619035578543
 21
164.0477974131576
 31
0.0
  0
ARC
  5
5CB
330
1A
100
AcDbEntity
  8
SEIHIN
  6
CONTINUOUS
 62
     3
 48
16.0
100
AcDbCircle
 10
283.3250006530278
 20
168.3064911833857
 30
0.0
 40
0.4999420316314277
100
AcDbArc
 50
105.0003056294816
 51
205.0011555088683
  0
ARC
  5
5CC
330
1A
100
AcDbEntity
  8
SEIHIN
  6
CONTINUOUS
 62
     3
 48
16.0
100
AcDbCircle
 10
283.3250114731107
 20
168.306514388386
 30
0.0
 40
1.499989134940355
100
AcDbArc
 50
104.9992945073461
 51
205.0039691602898
  0
LINE
  5
5CD
330
1A
100
AcDbEntity
  8
SEIHIN
  6
CONTINUOUS
 62
     3
 48
16.0
100
AcDbLine
 10
288.7101035578544
 20
165.1130974131576
 30
0.0
 11
288.7101035578544
 21
163.8130974131576
 31
0.0
  0
ARC
  5
5CE
330
1A
100
AcDbEntity
  8
SEIHIN
  6
CONTINUOUS
 62
     3
 48
16.0
100
AcDbCircle
 10
374.1773397437971
 20
151.1129042923997
 30
0.0
 40
26.99998898877035
100
AcDbArc
 50
136.4437251412633
 51
142.9428661594519
  0
LINE
  5
5CF
330
1A
100
AcDbEntity
  8
SEIHIN
  6
CONTINUOUS
 62
     3
 48
16.0
100
AcDbLine
 10
354.6255035578543
 20
165.8768974131576
 30
0.0
 11
346.9528035578544
 21
155.7156974131576
 31
0.0
  0
LINE
  5
5D0
330
1A
100
AcDbEntity
  8
SEIHIN
  6
CONTINUOUS
 62
     3
 48
16.0
100
AcDbLine
 10
358.2135035578544
 20
160.6716974131576
 30
0.0
 11
353.5612035578543
 21
154.5104974131576
 31
0.0
  0
LINE
  5
5D1
330
1A
100
AcDbEntity
  8
SEIHIN
  6
CONTINUOUS
 62
     3
 48
16.0
100
AcDbLine
 10
385.2101035578542
 20
187.7175974131576
 30
0.0
 11
332.0495035578544
 21
183.0666974131576
 31
0.0
  0
LINE
  5
5D2
330
1A
100
AcDbEntity
  8
SEIHIN
  6
CONTINUOUS
 62
     3
 48
16.0
100
AcDbLine
 10
334.2302035578544
 20
169.7176974131576
 30
0.0
 11
380.2101035578544
 21
169.7176974131576
 31
0.0
  0
LINE
  5
5D3
330
1A
100
AcDbEntity
  8
SEIHIN
  6
CONTINUOUS
 62
     3
 48
16.0
100
AcDbLine
 10
347.7101035578543
 20
140.6130974131575
 30
0.0
 11
365.2095035578543
 21
145.3355974131575
 31
0.0
  0
LINE
  5
5D4
330
1A
100
AcDbEntity
  8
SEIHIN
  6
CONTINUOUS
 62
     3
 48
16.0
100
AcDbLine
 10
350.3945035578544
 20
143.2353974131575
 30
0.0
 11
361.4177035578544
 21
145.7905974131576
 31
0.0
  0
LINE
  5
5D5
330
1A
100
AcDbEntity
  8
SEIHIN
  6
CONTINUOUS
 62
     3
 48
16.0
100
AcDbLine
 10
349.3706035578544
 20
144.8120974131576
 30
0.0
 11
360.2086035578544
 21
159.1651974131576
 31
0.0
  0
ARC
  5
5D6
330
1A
100
AcDbEntity
  8
SEIHIN
  6
CONTINUOUS
 62
     3
 48
16.0
100
AcDbCircle
 10
334.5770446906409
 20
154.1770201868791
 30
0.0
 40
29.00003300716188
100
AcDbArc
 50
95.00004306917714
 51
142.9435212941017
  0
LINE
  5
5D7
330
1A
100
AcDbEntity
  8
SEIHIN
  6
CONTINUOUS
 62
     3
 48
16.0
100
AcDbLine
 10
349.3652035578544
 20
151.6130974131575
 30
0.0
 11
312.5918035578544
 21
151.6130974131575
 31
0.0
  0
LINE
  5
5D8
330
1A
100
AcDbEntity
  8
SEIHIN
  6
CONTINUOUS
 62
     3
 48
16.0
100
AcDbLine
 10
314.4796035578543
 20
154.1130974131575
 30
0.0
 11
340.1202035578544
 21
154.1130974131575
 31
0.0
  0
ARC
  5
5D9
330
1A
100
AcDbEntity
  8
SEIHIN
  6
CONTINUOUS
 62
     3
 48
16.0
100
AcDbCircle
 10
334.2300383375261
 20
153.717664935975
 30
0.0
 40
16.00003247803575
100
AcDbArc
 50
89.99940834948198
 51
142.9431566083074
  0
LINE
  5
5DA
330
1A
100
AcDbEntity
  8
SEIHIN
  6
CONTINUOUS
 62
     3
 48
16.0
100
AcDbLine
 10
311.1395035578544
 20
149.6896974131576
 30
0.0
 11
321.4614035578544
 21
163.3593974131575
 31
0.0
  0
LINE
  5
5DB
330
1A
100
AcDbEntity
  8
CENTER_L
  6
CENTER
 62
     1
 48
5.0
100
AcDbLine
 10
291.2101035578544
 20
167.3796974131577
 30
0.0
 11
291.2100035578544
 21
138.7183974131576
 31
0.0
  0
ARC
  5
5DC
330
1A
100
AcDbEntity
  8
SEIHIN
  6
CONTINUOUS
 62
     3
 48
16.0
100
AcDbCircle
 10
303.9571112178655
 20
155.1131012276005
 30
0.0
 40
9.000003814446076
100
AcDbArc
 50
269.9999512348755
 51
322.9436511488669
  0
LINE
  5
5DD
330
1A
100
AcDbEntity
  8
SEIHIN
  6
CONTINUOUS
 62
     3
 48
16.0
100
AcDbLine
 10
296.7100035578544
 20
142.3129974131576
 30
0.0
 11
296.7100035578544
 21
143.1129974131577
 31
0.0
  0
LINE
  5
5DE
330
1A
100
AcDbEntity
  8
SEIHIN
  6
CONTINUOUS
 62
     3
 48
16.0
100
AcDbLine
 10
311.4337035578543
 20
171.6524974131576
 30
0.0
 11
303.0106035578544
 21
160.4974974131575
 31
0.0
  0
LINE
  5
5DF
330
1A
100
AcDbEntity
  8
SEIHIN
  6
CONTINUOUS
 62
     3
 48
16.0
100
AcDbLine
 10
295.7101035578543
 20
160.8130974131576
 30
0.0
 11
294.4601035578544
 21
163.8130974131576
 31
0.0
  0
ARC
  5
5E0
330
1A
100
AcDbEntity
  8
SEIHIN
  6
CONTINUOUS
 62
     3
 48
16.0
100
AcDbCircle
 10
290.0742842176108
 20
169.0736923634299
 30
0.0
 40
9.999994428414844
100
AcDbArc
 50
304.3038978962831
 51
334.9992749556042
  0
LINE
  5
5E1
330
1A
100
AcDbEntity
  8
SEIHIN
  6
CONTINUOUS
 62
     3
 48
16.0
100
AcDbLine
 10
295.7101035578543
 20
160.8130974131576
 30
0.0
 11
291.2101035578544
 21
160.8130974131576
 31
0.0
  0
LINE
  5
5E2
330
1A
100
AcDbEntity
  8
SEIHIN
  6
CONTINUOUS
 62
     3
 48
16.0
100
AcDbLine
 10
296.7101035578544
 20
159.6130974131576
 30
0.0
 11
291.2101035578544
 21
159.6130974131576
 31
0.0
  0
LINE
  5
5E3
330
1A
100
AcDbEntity
  8
SEIHIN
  6
CONTINUOUS
 62
     3
 48
16.0
100
AcDbLine
 10
296.7101035578544
 20
159.6130974131576
 30
0.0
 11
296.7101035578544
 21
158.1130974131575
 31
0.0
  0
LINE
  5
5E4
330
1A
100
AcDbEntity
  8
SEIHIN
  6
CONTINUOUS
 62
     3
 48
16.0
100
AcDbLine
 10
295.7101035578543
 20
160.8130974131576
 30
0.0
 11
295.2101035578544
 21
159.6130974131576
 31
0.0
  0
ARC
  5
5E5
330
1A
100
AcDbEntity
  8
SEIHIN
  6
CONTINUOUS
 62
     3
 48
16.0
100
AcDbCircle
 10
298.2223353744203
 20
164.1131132568657
 30
0.0
 40
6.000015843792516
100
AcDbArc
 50
269.9996961749786
 51
322.9435879013318
  0
ARC
  5
5E6
330
1A
100
AcDbEntity
  8
SEIHIN
  6
CONTINUOUS
 62
     3
 48
16.0
100
AcDbCircle
 10
297.3427444089644
 20
168.7759632626066
 30
0.0
 40
0.4999850647767063
100
AcDbArc
 50
74.99365376779476
 51
164.9966195745732
  0
ARC
  5
5E7
330
1A
100
AcDbEntity
  8
SEIHIN
  6
CONTINUOUS
 62
     3
 48
16.0
100
AcDbCircle
 10
297.3428035578543
 20
168.7759974131577
 30
0.0
 40
1.50000348332921
100
AcDbArc
 50
75.00116534316727
 51
165.0011653431672
  0
ARC
  5
5E8
330
1A
100
AcDbEntity
  8
SEIHIN
  6
CONTINUOUS
 62
     3
 48
16.0
100
AcDbCircle
 10
290.0740272765637
 20
169.0733354607388
 30
0.0
 40
8.999958350728695
100
AcDbArc
 50
317.1245149340529
 51
335.0021684436565
  0
LINE
  5
5E9
330
1A
100
AcDbEntity
  8
SEIHIN
  6
CONTINUOUS
 62
     3
 48
16.0
100
AcDbLine
 10
294.4601035578544
 20
163.8130974131576
 30
0.0
 11
295.8939035578544
 21
169.1641974131576
 31
0.0
  0
LINE
  5
5EA
330
1A
100
AcDbEntity
  8
SEIHIN
  6
CONTINUOUS
 62
     3
 48
16.0
100
AcDbLine
 10
293.7101035578543
 20
165.1130974131576
 30
0.0
 11
293.7101035578543
 21
163.8130974131576
 31
0.0
  0
LINE
  5
5EB
330
1A
100
AcDbEntity
  8
SEIHIN
  6
CONTINUOUS
 62
     3
 48
16.0
100
AcDbLine
 10
291.2101035578544
 20
163.8130974131576
 30
0.0
 11
294.4601035578544
 21
163.8130974131576
 31
0.0
  0
LINE
  5
5EC
330
1A
100
AcDbEntity
  8
SEIHIN
  6
CONTINUOUS
 62
     3
 48
16.0
100
AcDbLine
 10
291.2101035578544
 20
165.1130974131576
 30
0.0
 11
293.7100035578544
 21
165.1130974131576
 31
0.0
  0
LINE
  5
5ED
330
1A
100
AcDbEntity
  8
SEIHIN
  6
CONTINUOUS
 62
     3
 48
16.0
100
AcDbLine
 10
295.5797035578544
 20
163.7260974131576
 30
0.0
 11
295.8415035578543
 21
163.0975974131575
 31
0.0
  0
ARC
  5
5EE
330
1A
100
AcDbEntity
  8
SEIHIN
  6
CONTINUOUS
 62
     3
 48
16.0
100
AcDbCircle
 10
296.3030632676067
 20
163.289904611771
 30
0.0
 40
0.500019423927903
100
AcDbArc
 50
202.6188762781304
 51
317.1260325117122
  0
ARC
  5
5EF
330
1A
100
AcDbEntity
  8
SEIHIN
  6
CONTINUOUS
 62
     3
 48
16.0
100
AcDbCircle
 10
296.0411961542389
 20
163.9185085440941
 30
0.0
 40
0.4999974598195062
100
AcDbArc
 50
165.0142351983105
 51
202.6328278695855
  0
LINE
  5
5F0
330
1A
100
AcDbEntity
  8
SEIHIN
  6
CONTINUOUS
 62
     3
 48
16.0
100
AcDbLine
 10
296.8598035578543
 20
168.9053974131576
 30
0.0
 11
295.5582035578543
 21
164.0477974131576
 31
0.0
  0
LINE
  5
5F1
330
1A
100
AcDbEntity
  8
SEIHIN
  6
CONTINUOUS
 62
     3
 48
16.0
100
AcDbLine
 10
300.4546035578544
 20
167.6724974131576
 30
0.0
 11
299.1372035578543
 21
164.8473974131576
 31
0.0
  0
LINE
  5
5F2
330
1A
100
AcDbEntity
  8
SEIHIN
  6
CONTINUOUS
 62
     3
 48
16.0
100
AcDbLine
 10
298.2309035578544
 20
165.2699974131576
 30
0.0
 11
299.5483035578544
 21
168.0950974131576
 31
0.0
  0
ARC
  5
5F3
330
1A
100
AcDbEntity
  8
SEIHIN
  6
CONTINUOUS
 62
     3
 48
16.0
100
AcDbCircle
 10
299.0951048185091
 20
168.3063947100033
 30
0.0
 40
0.5000356437279638
100
AcDbArc
 50
335.003400598327
 51
75.00237350206521
  0
ARC
  5
5F4
330
1A
100
AcDbEntity
  8
SEIHIN
  6
CONTINUOUS
 62
     3
 48
16.0
100
AcDbCircle
 10
299.0951018439501
 20
168.3064010887175
 30
0.0
 40
1.500026259769189
100
AcDbArc
 50
335.0014672723533
 51
74.99737625414335
  0
LINE
  5
5F5
330
1A
100
AcDbEntity
  8
SEIHIN
  6
CONTINUOUS
 62
     3
 48
16.0
100
AcDbLine
 10
297.7311035578543
 20
170.2247974131577
 30
0.0
 11
299.4834035578544
 21
169.7552974131575
 31
0.0
  0
LINE
  5
5F6
330
1A
100
AcDbEntity
  8
SEIHIN
  6
CONTINUOUS
 62
     3
 48
16.0
100
AcDbLine
 10
299.2246035578543
 20
168.7893974131575
 30
0.0
 11
297.4722035578543
 21
169.2588974131576
 31
0.0
  0
LINE
  5
5F7
330
1A
100
AcDbEntity
  8
SEIHIN
  6
CONTINUOUS
 62
     3
 48
16.0
100
AcDbLine
 10
332.1102035578543
 20
151.6130974131575
 30
0.0
 11
332.1102035578543
 21
145.6129974131576
 31
0.0
  0
LINE
  5
5F8
330
1A
100
AcDbEntity
  8
SEIHIN
  6
CONTINUOUS
 62
     3
 48
16.0
100
AcDbLine
 10
350.1632035578544
 20
150.0104974131576
 30
0.0
 11
345.2551035578544
 21
143.5104974131576
 31
0.0
  0
LINE
  5
5F9
330
1A
100
AcDbEntity
  8
SEIHIN
  6
CONTINUOUS
 62
     3
 48
16.0
100
AcDbLine
 10
338.4527035578543
 20
143.4059974131575
 30
0.0
 11
337.2708035578543
 21
144.5879974131576
 31
0.0
  0
ARC
  5
5FA
330
1A
100
AcDbEntity
  8
SEIHIN
  6
CONTINUOUS
 62
     3
 48
16.0
100
AcDbCircle
 10
339.1598587192488
 20
144.113115985916
 30
0.0
 40
3.500018573045696
100
AcDbArc
 50
225.0007340140632
 51
270.0007340140632
  0
LINE
  5
5FB
330
1A
100
AcDbEntity
  8
SEIHIN
  6
CONTINUOUS
 62
     3
 48
16.0
100
AcDbLine
 10
336.6850035578544
 20
141.6381974131576
 30
0.0
 11
335.5030035578542
 21
142.8201974131576
 31
0.0
  0
ARC
  5
5FC
330
1A
100
AcDbEntity
  8
SEIHIN
  6
CONTINUOUS
 62
     3
 48
16.0
100
AcDbCircle
 10
334.7959483964599
 20
142.1130788403992
 30
0.0
 40
3.500018573045681
100
AcDbArc
 50
45.00073401406382
 51
90.00073401406385
  0
ARC
  5
5FD
330
1A
100
AcDbEntity
  8
SEIHIN
  6
CONTINUOUS
 62
     3
 48
16.0
100
AcDbCircle
 10
334.7958919816448
 20
142.1131022081807
 30
0.0
 40
0.9999952050438183
100
AcDbArc
 50
44.99933672887221
 51
89.99933672887117
  0
LINE
  5
5FE
330
1A
100
AcDbEntity
  8
SEIHIN
  6
CONTINUOUS
 62
     3
 48
16.0
100
AcDbLine
 10
347.7101035578543
 20
140.6130974131575
 30
0.0
 11
339.1599035578543
 21
140.6130974131575
 31
0.0
  0
ARC
  5
5FF
330
1A
100
AcDbEntity
  8
SEIHIN
  6
CONTINUOUS
 62
     3
 48
16.0
100
AcDbCircle
 10
344.4570489242787
 20
144.1131200051473
 30
0.0
 40
1.000022593018801
100
AcDbArc
 50
269.9974007540733
 51
322.9430187151496
  0
LINE
  5
600
330
1A
100
AcDbEntity
  8
SEIHIN
  6
CONTINUOUS
 62
     3
 48
16.0
100
AcDbLine
 10
339.1599035578543
 20
143.1130974131575
 30
0.0
 11
344.4570035578543
 21
143.1130974131575
 31
0.0
  0
ARC
  5
601
330
1A
100
AcDbEntity
  8
SEIHIN
  6
CONTINUOUS
 62
     3
 48
16.0
100
AcDbCircle
 10
339.1599151340638
 20
144.1130926181343
 30
0.0
 40
0.9999952050438634
100
AcDbArc
 50
224.9993367288661
 51
269.9993367288651
  0
ARC
  5
602
330
1A
100
AcDbEntity
  8
SEIHIN
  6
CONTINUOUS
 62
     3
 48
16.0
100
AcDbCircle
 10
350.1686696757287
 20
144.209549590548
 30
0.0
 40
0.9999867034268168
100
AcDbArc
 50
142.9468340484985
 51
283.0520948798645
  0
LINE
  5
603
330
1A
100
AcDbEntity
  8
SEIHIN
  6
CONTINUOUS
 62
     3
 48
16.0
100
AcDbLine
 10
352.6304035578543
 20
167.3833974131577
 30
0.0
 11
344.1104035578544
 21
156.1000974131576
 31
0.0
  0
ARC
  5
604
330
1A
100
AcDbEntity
  8
SEIHIN
  6
CONTINUOUS
 62
     3
 48
16.0
100
AcDbCircle
 10
340.1201900067277
 20
159.1130906651484
 30
0.0
 40
4.999993252009278
100
AcDbArc
 50
270.0001552846836
 51
322.943701747561
  0
ARC
  5
605
330
1A
100
AcDbEntity
  8
SEIHIN
  6
CONTINUOUS
 62
     3
 48
16.0
100
AcDbCircle
 10
349.3651949381629
 20
150.6131147234572
 30
0.0
 40
0.9999826897374614
100
AcDbArc
 50
322.941671473376
 51
89.99950611951044
  0
LINE
  5
606
330
1A
100
AcDbEntity
  8
SEIHIN
  6
CONTINUOUS
 62
     3
 48
16.0
100
AcDbLine
 10
347.7509035578544
 20
154.1130974131575
 30
0.0
 11
352.7632035578544
 21
154.1130974131575
 31
0.0
  0
ARC
  5
607
330
1A
100
AcDbEntity
  8
SEIHIN
  6
CONTINUOUS
 62
     3
 48
16.0
100
AcDbCircle
 10
352.763168794838
 20
155.1130801028578
 30
0.0
 40
0.9999826903045047
100
AcDbArc
 50
270.0019918085993
 51
322.9441571624629
  0
ARC
  5
608
330
1A
100
AcDbEntity
  8
SEIHIN
  6
CONTINUOUS
 62
     3
 48
16.0
100
AcDbCircle
 10
347.7508923072875
 20
155.1131200051471
 30
0.0
 40
1.000022592052892
100
AcDbArc
 50
142.9462625565129
 51
270.0006445954385
  0
LINE
  5
609
330
1A
100
AcDbEntity
  8
SEIHIN
  6
CONTINUOUS
 62
     3
 48
16.0
100
AcDbLine
 10
385.2101035578542
 20
185.7175974131576
 30
0.0
 11
385.2101035578542
 21
139.6130974131576
 31
0.0
  0
LINE
  5
60A
330
1A
100
AcDbEntity
  8
SEIHIN
  6
CONTINUOUS
 62
     3
 48
16.0
100
AcDbLine
 10
387.2101035578542
 20
187.7175974131576
 30
0.0
 11
387.2101035578542
 21
137.7175974131575
 31
0.0
  0
LINE
  5
60B
330
1A
100
AcDbEntity
  8
SEIHIN
  6
CONTINUOUS
 62
     3
 48
16.0
100
AcDbLine
 10
391.2101035578542
 20
187.7175974131576
 30
0.0
 11
391.2101035578542
 21
137.7175974131575
 31
0.0
  0
LINE
  5
60D
330
1A
100
AcDbEntity
  8
CENTER_L
  6
CENTER
 62
     1
 48
5.0
100
AcDbLine
 10
398.2447035578544
 20
172.7176974131576
 30
0.0
 11
382.7789035578544
 21
172.7176974131576
 31
0.0
  0
LINE
  5
60E
330
1A
100
AcDbEntity
  8
SEIHIN
  6
CONTINUOUS
 62
     3
 48
16.0
100
AcDbLine
 10
385.2101035578542
 20
139.7175974131577
 30
0.0
 11
387.2101035578542
 21
137.7175974131575
 31
0.0
  0
LINE
  5
60F
330
1A
100
AcDbEntity
  8
CENTER_L
  6
CENTER
 62
     1
 48
5.0
100
AcDbLine
 10
383.0953035578544
 20
147.7176974131576
 30
0.0
 11
397.5780035578544
 21
147.7176974131576
 31
0.0
  0
ARC
  5
610
330
1A
100
AcDbEntity
  8
NOITOI
  6
PHANTOM
 62
     8
 48
5.0
100
AcDbCircle
 10
263.8221948109508
 20
150.8900922503682
 30
0.0
 40
2.000036820932882
100
AcDbArc
 50
181.7889408725803
 51
270.001088250966
  0
LINE
  5
611
330
1A
100
AcDbEntity
  8
NOITOI
  6
PHANTOM
 62
     8
 48
5.0
100
AcDbLine
 10
260.2851327987751
 20
161.6276554297961
 30
0.0
 11
260.6752327987752
 21
149.1432554297961
 31
0.0
  0
LINE
  5
612
330
1A
100
AcDbEntity
  8
SEIHIN
  6
CONTINUOUS
 62
     3
 48
16.0
100
AcDbLine
 10
362.8566035578543
 20
151.2858974131576
 30
0.0
 11
363.4582035578544
 21
149.1623974131575
 31
0.0
  0
LINE
  5
613
330
1A
100
AcDbEntity
  8
SEIHIN
  6
CONTINUOUS
 62
     3
 48
16.0
100
AcDbLine
 10
381.2101035578542
 20
164.1130974131575
 30
0.0
 11
381.2101035578542
 21
144.4229974131576
 31
0.0
  0
LINE
  5
614
330
1A
100
AcDbEntity
  8
SEIHIN
  6
CONTINUOUS
 62
     3
 48
16.0
100
AcDbLine
 10
364.1074035578544
 20
151.6402974131575
 30
0.0
 11
365.6655035578543
 21
146.1402974131576
 31
0.0
  0
LINE
  5
615
330
1A
100
AcDbEntity
  8
NOITOI
  6
PHANTOM
 62
     8
 48
5.0
100
AcDbLine
 10
269.8541327987753
 20
148.890155429796
 30
0.0
 11
263.8222327987751
 21
148.890155429796
 31
0.0
  0
ARC
  5
616
330
1A
100
AcDbEntity
  8
SEIHIN
  6
CONTINUOUS
 62
     3
 48
16.0
100
AcDbCircle
 10
372.7101099381109
 20
146.1131078966666
 30
0.0
 40
1.4999754680859
100
AcDbArc
 50
69.21871772088341
 51
228.1321216051506
  0
ARC
  5
617
330
1A
100
AcDbEntity
  8
SEIHIN
  6
CONTINUOUS
 62
     3
 48
16.0
100
AcDbCircle
 10
363.3686526657736
 20
146.9103784045834
 30
0.0
 40
2.000008056636982
100
AcDbArc
 50
92.6809519242588
 51
204.8622939936202
  0
ARC
  5
618
330
1A
100
AcDbEntity
  8
SEIHIN
  6
CONTINUOUS
 62
     3
 48
16.0
100
AcDbCircle
 10
361.372495561836
 20
145.9853810419051
 30
0.0
 40
0.1999610585390248
100
AcDbArc
 50
283.0666294599982
 51
24.87650068601265
  0
ARC
  5
619
330
1A
100
AcDbEntity
  8
NOITOI
  6
PHANTOM
 62
     8
 48
5.0
100
AcDbCircle
 10
269.8541197277704
 20
148.390167260076
 30
0.0
 40
0.499988169890889
100
AcDbArc
 50
5.703393862284335
 51
89.99850213773372
  0
ARC
  5
61A
330
1A
100
AcDbEntity
  8
SEIHIN
  6
CONTINUOUS
 62
     3
 48
16.0
100
AcDbCircle
 10
363.265833702921
 20
149.1079392945509
 30
0.0
 40
0.1999568688318512
100
AcDbArc
 50
272.6571430058525
 51
15.83389541389283
  0
ARC
  5
61B
330
1A
100
AcDbEntity
  8
SEIHIN
  6
CONTINUOUS
 62
     3
 48
16.0
100
AcDbCircle
 10
365.0401228496257
 20
145.9631314605693
 30
0.0
 40
0.6499913883899075
100
AcDbArc
 50
285.1050235239315
 51
15.81705265692447
  0
LINE
  5
61C
330
1A
100
AcDbEntity
  8
SEIHIN
  6
CONTINUOUS
 62
     3
 48
16.0
100
AcDbLine
 10
380.2079035578543
 20
137.3789974131575
 30
0.0
 11
371.7090035578542
 21
144.9960974131577
 31
0.0
  0
ARC
  5
61D
330
1A
100
AcDbEntity
  8
SEIHIN
  6
CONTINUOUS
 62
     3
 48
16.0
100
AcDbCircle
 10
382.2101029203544
 20
139.6130971284352
 30
0.0
 40
3.000000637499872
100
AcDbArc
 50
228.1333159372109
 51
0.0000054377959314
  0
LINE
  5
61E
330
1A
100
AcDbEntity
  8
SEIHIN
  6
CONTINUOUS
 62
     3
 48
16.0
100
AcDbLine
 10
373.2423035578543
 20
147.5154974131576
 30
0.0
 11
379.8553035578543
 21
143.4880974131576
 31
0.0
  0
ARC
  5
61F
330
1A
100
AcDbEntity
  8
NOITOI
  6
PHANTOM
 62
     8
 48
5.0
100
AcDbCircle
 10
262.1745155855971
 20
149.1901721129439
 30
0.0
 40
1.500016683246579
100
AcDbArc
 50
181.7923576755889
 51
270.0006574876651
  0
LINE
  5
620
330
1A
100
AcDbEntity
  8
NOITOI
  6
PHANTOM
 62
     8
 48
5.0
100
AcDbLine
 10
262.1745327987753
 20
147.6901554297961
 30
0.0
 11
268.3156327987751
 21
147.6901554297961
 31
0.0
  0
ARC
  5
621
330
1A
100
AcDbEntity
  8
NOITOI
  6
PHANTOM
 62
     8
 48
5.0
100
AcDbCircle
 10
268.3156121489341
 20
146.6901741176453
 30
0.0
 40
0.9999813123640345
100
AcDbArc
 50
5.709409966648967
 51
89.99881682915043
  0
ARC
  5
622
330
1A
100
AcDbEntity
  8
SEIHIN
  6
CONTINUOUS
 62
     3
 48
16.0
100
AcDbCircle
 10
380.2101232957438
 20
144.4230110339804
 30
0.0
 40
0.9999802622031468
100
AcDbArc
 50
249.2171738629517
 51
359.9992195689401
  0
ARC
  5
623
330
1A
100
AcDbEntity
  8
SEIHIN
  6
CONTINUOUS
 62
     3
 48
16.0
100
AcDbCircle
 10
376.1694171259406
 20
147.1130543730003
 30
0.0
 40
20.00004304034414
100
AcDbArc
 50
89.99975239133894
 51
142.9432428648704
  0
ARC
  5
624
330
1A
100
AcDbEntity
  8
SEIHIN
  6
CONTINUOUS
 62
     3
 48
16.0
100
AcDbCircle
 10
376.1694239015241
 20
147.1130577470053
 30
0.0
 40
22.5000396662933
100
AcDbArc
 50
89.99979715717822
 51
142.9432938517093
  0
ARC
  5
625
330
1A
100
AcDbEntity
  8
SEIHIN
  6
CONTINUOUS
 62
     3
 48
16.0
100
AcDbCircle
 10
363.4820035578544
 20
151.4630974131575
 30
0.0
 40
0.65001923048482
100
AcDbArc
 50
15.81947663554677
 51
195.8194766355467
  0
ARC
  5
626
330
1A
100
AcDbEntity
  8
SEIHIN
  6
CONTINUOUS
 62
     3
 48
16.0
100
AcDbCircle
 10
374.1774591161321
 20
151.1130501416554
 30
0.0
 40
24.50000311038991
100
AcDbArc
 50
130.5910228712702
 51
142.943237165125
  0
ARC
  5
627
330
1A
100
AcDbEntity
  8
NOITOI
  6
PHANTOM
 62
     8
 48
5.0
100
AcDbCircle
 10
266.3305335817834
 20
161.6901544747943
 30
0.0
 40
0.4999990449987399
100
AcDbArc
 50
168.6967198015449
 51
269.9999102736945
  0
LINE
  5
628
330
1A
100
AcDbEntity
  8
NOITOI
  6
PHANTOM
 62
     8
 48
5.0
100
AcDbLine
 10
264.7568327987753
 20
162.4901554297962
 30
0.0
 11
264.2568327987752
 21
159.9901554297962
 31
0.0
  0
LINE
  5
629
330
1A
100
AcDbEntity
  8
NOITOI
  6
PHANTOM
 62
     8
 48
5.0
100
AcDbLine
 10
261.4845327987753
 20
161.665155429796
 30
0.0
 11
261.6338327987751
 21
156.8861554297962
 31
0.0
  0
ARC
  5
62A
330
1A
100
AcDbEntity
  8
NOITOI
  6
PHANTOM
 62
     8
 48
5.0
100
AcDbCircle
 10
265.7356637257113
 20
153.6901911744599
 30
0.0
 40
3.99998565374706
100
AcDbArc
 50
96.47577619531674
 51
181.7913033408985
  0
ARC
  5
62B
330
1A
100
AcDbEntity
  8
NOITOI
  6
PHANTOM
 62
     8
 48
5.0
100
AcDbCircle
 10
265.7356506651262
 20
153.6901641581761
 30
0.0
 40
5.199991271650611
100
AcDbArc
 50
90.00019685927453
 51
142.074671395269
  0
LINE
  5
62C
330
1A
100
AcDbEntity
  8
NOITOI
  6
PHANTOM
 62
     8
 48
5.0
100
AcDbLine
 10
268.5620327987752
 20
161.1901554297961
 30
0.0
 11
266.3305327987752
 21
161.1901554297961
 31
0.0
  0
LINE
  5
62D
330
1A
100
AcDbEntity
  8
NOITOI
  6
PHANTOM
 62
     8
 48
5.0
100
AcDbLine
 10
264.2568327987752
 20
159.9901554297962
 30
0.0
 11
267.1934327987751
 21
159.9901554297962
 31
0.0
  0
LINE
  5
62E
330
1A
100
AcDbEntity
  8
NOITOI
  6
PHANTOM
 62
     8
 48
5.0
100
AcDbLine
 10
265.5021327987753
 20
154.760855429796
 30
0.0
 11
265.8359327987753
 21
157.0970554297962
 31
0.0
  0
ARC
  5
62F
330
1A
100
AcDbEntity
  8
NOITOI
  6
PHANTOM
 62
     8
 48
5.0
100
AcDbCircle
 10
265.997122612339
 20
154.6901671745203
 30
0.0
 40
0.5000117448278309
100
AcDbArc
 50
171.8726853912841
 51
270.0011672521981
  0
LINE
  5
630
330
1A
100
AcDbEntity
  8
NOITOI
  6
PHANTOM
 62
     8
 48
5.0
100
AcDbLine
 10
266.1976327987751
 20
158.8901554297961
 30
0.0
 11
265.7356327987751
 21
158.8901554297961
 31
0.0
  0
ARC
  5
631
330
1A
100
AcDbEntity
  8
NOITOI
  6
PHANTOM
 62
     8
 48
5.0
100
AcDbCircle
 10
265.3409034262752
 20
157.167785662291
 30
0.0
 40
0.4999578477751074
100
AcDbArc
 50
351.8669438287075
 51
96.47390928779223
  0
LINE
  5
632
330
1A
100
AcDbEntity
  8
NOITOI
  6
PHANTOM
 62
     8
 48
5.0
100
AcDbLine
 10
267.5821327987751
 20
155.3901554297962
 30
0.0
 11
267.7632327987752
 21
158.831555429796
 31
0.0
  0
LINE
  5
633
330
1A
100
AcDbEntity
  8
NOITOI
  6
PHANTOM
 62
     8
 48
5.0
100
AcDbLine
 10
267.2082327987753
 20
158.218555429796
 30
0.0
 11
267.7632327987752
 21
158.831555429796
 31
0.0
  0
LINE
  5
634
330
1A
100
AcDbEntity
  8
NOITOI
  6
PHANTOM
 62
     8
 48
5.0
100
AcDbLine
 10
266.8042327987753
 20
155.3901554297962
 30
0.0
 11
267.2082327987753
 21
158.218555429796
 31
0.0
  0
LINE
  5
635
330
1A
100
AcDbEntity
  8
NOITOI
  6
PHANTOM
 62
     8
 48
5.0
100
AcDbLine
 10
267.5821327987751
 20
155.3901554297962
 30
0.0
 11
266.8042327987753
 21
155.3901554297962
 31
0.0
  0
LINE
  5
636
330
1A
100
AcDbEntity
  8
NOITOI
  6
PHANTOM
 62
     8
 48
5.0
100
AcDbLine
 10
268.2462327987752
 20
154.1901554297961
 30
0.0
 11
265.9971327987753
 21
154.1901554297961
 31
0.0
  0
LINE
  5
637
330
1A
100
AcDbEntity
  8
NOITOI
  6
PHANTOM
 62
     8
 48
5.0
100
AcDbLine
 10
261.8231327987751
 20
150.8275554297962
 30
0.0
 11
261.7376327987752
 21
153.565155429796
 31
0.0
  0
LINE
  5
638
330
1A
100
AcDbEntity
  8
NOITOI
  6
PHANTOM
 62
     8
 48
5.0
100
AcDbLine
 10
266.1976327987751
 20
158.8901554297961
 30
0.0
 11
267.1934327987751
 21
159.9901554297962
 31
0.0
  0
ARC
  5
639
330
1A
100
AcDbEntity
  8
NOITOI
  6
PHANTOM
 62
     8
 48
5.0
100
AcDbCircle
 10
268.5620290892801
 20
160.6901593398267
 30
0.0
 40
0.4999960899831856
100
AcDbArc
 50
356.9843782585345
 51
89.99957491984867
  0
ARC
  5
63A
330
1A
100
AcDbEntity
  8
NOITOI
  6
PHANTOM
 62
     8
 48
5.0
100
AcDbCircle
 10
268.2462286773682
 20
154.6901515197656
 30
0.0
 40
0.4999960899864752
100
AcDbArc
 50
270.0004722821405
 51
356.9852756208263
  0
LINE
  5
63B
330
1A
100
AcDbEntity
  8
NOITOI
  6
PHANTOM
 62
     8
 48
5.0
100
AcDbLine
 10
268.7455327987752
 20
154.6638554297961
 30
0.0
 11
269.0613327987751
 21
160.6638554297961
 31
0.0
  0
ARC
  5
63C
330
1A
100
AcDbEntity
  8
NOITOI
  6
PHANTOM
 62
     8
 48
5.0
100
AcDbCircle
 10
262.2840888324221
 20
161.690110067323
 30
0.0
 40
0.7999453636812564
100
AcDbArc
 50
89.99685092684627
 51
181.7876563552118
  0
ARC
  5
63D
330
1A
100
AcDbEntity
  8
NOITOI
  6
PHANTOM
 62
     8
 48
5.0
100
AcDbCircle
 10
262.2841440357696
 20
161.6901670236132
 30
0.0
 40
1.999988406214315
100
AcDbArc
 50
90.0003219180439
 51
181.791127346407
  0
LINE
  5
63E
330
1A
100
AcDbEntity
  8
SEIHIN
  6
CONTINUOUS
 62
     3
 48
16.0
100
AcDbLine
 10
381.2101035578542
 20
169.6130974131576
 30
0.0
 11
376.1695035578544
 21
169.6130974131576
 31
0.0
  0
ARC
  5
63F
330
1A
100
AcDbEntity
  8
SEIHIN
  6
CONTINUOUS
 62
     3
 48
16.0
100
AcDbCircle
 10
378.2101035578543
 20
164.1130974131576
 30
0.0
 40
2.999999999999957
100
AcDbArc
 50
359.9999999999975
 51
89.99999999999756
  0
ARC
  5
640
330
1A
100
AcDbEntity
  8
NOITOI
  6
PHANTOM
 62
     8
 48
5.0
100
AcDbCircle
 10
265.6107400533309
 20
163.1901465799527
 30
0.0
 40
0.500008849895925
100
AcDbArc
 50
348.6864043304882
 51
90.00083129614507
  0
LINE
  5
641
330
1A
100
AcDbEntity
  8
NOITOI
  6
PHANTOM
 62
     8
 48
5.0
100
AcDbLine
 10
262.2841327987751
 20
162.490055429796
 30
0.0
 11
264.7568327987753
 21
162.4901554297962
 31
0.0
  0
LINE
  5
642
330
1A
100
AcDbEntity
  8
NOITOI
  6
PHANTOM
 62
     8
 48
5.0
100
AcDbLine
 10
265.8402327987752
 20
161.7881554297962
 30
0.0
 11
266.1010327987751
 21
163.092155429796
 31
0.0
  0
LINE
  5
643
330
1A
100
AcDbEntity
  8
NOITOI
  6
PHANTOM
 62
     8
 48
5.0
100
AcDbLine
 10
262.2841327987751
 20
163.690055429796
 30
0.0
 11
265.6107327987751
 21
163.690155429796
 31
0.0
  0
LINE
  5
644
330
1A
100
AcDbEntity
  8
SEIHIN
  6
CONTINUOUS
 62
     3
 48
16.0
100
AcDbLine
 10
378.2101035578544
 20
167.1130974131576
 30
0.0
 11
376.1695035578544
 21
167.1130974131576
 31
0.0
  0
ARC
  5
645
330
1A
100
AcDbEntity
  8
SEIHIN
  6
CONTINUOUS
 62
     3
 48
16.0
100
AcDbCircle
 10
380.2101035578543
 20
164.7176974131576
 30
0.0
 40
4.999999999999957
100
AcDbArc
 50
359.9999999999985
 51
89.99999999999854
  0
LINE
  5
646
330
1A
100
AcDbEntity
  8
SEIHIN
  6
CONTINUOUS
 62
     3
 48
16.0
100
AcDbLine
 10
387.2101035578542
 20
137.7175974131575
 30
0.0
 11
391.2101035578542
 21
137.7175974131575
 31
0.0
  0
LINE
  5
647
330
1A
100
AcDbEntity
  8
SEIHIN
  6
PHANTOM
 62
     6
 48
5.0
100
AcDbLine
 10
414.9650035578544
 20
169.7176974131576
 30
0.0
 11
415.2101035578544
 21
169.7176974131576
 31
0.0
  0
LINE
  5
648
330
1A
100
AcDbEntity
  8
SEIHIN
  6
CONTINUOUS
 62
     3
 48
16.0
100
AcDbLine
 10
387.2101035578542
 20
187.7175974131576
 30
0.0
 11
385.2101035578542
 21
185.7175974131576
 31
0.0
  0
LINE
  5
649
330
1A
100
AcDbEntity
  8
CENTER_L
  6
CENTER
 62
     1
 48
5.0
100
AcDbLine
 10
398.3780035578543
 20
177.7176974131576
 30
0.0
 11
382.7156035578543
 21
177.7176974131576
 31
0.0
  0
LINE
  5
64A
330
1A
100
AcDbEntity
  8
SEIHIN
  6
CONTINUOUS
 62
     3
 48
16.0
100
AcDbLine
 10
385.2101035578542
 20
187.7175974131576
 30
0.0
 11
391.2101035578542
 21
187.7175974131576
 31
0.0
  0
LINE
  5
64B
330
1A
100
AcDbEntity
  8
SEIHIN
  6
PHANTOM
 62
     6
 48
5.0
100
AcDbLine
 10
422.2101035578544
 20
187.7175974131576
 30
0.0
 11
422.2101035578544
 21
137.7175974131575
 31
0.0
  0
LINE
  5
64C
330
1A
100
AcDbEntity
  8
SEIHIN
  6
PHANTOM
 62
     6
 48
5.0
100
AcDbLine
 10
426.2101035578543
 20
187.7175974131576
 30
0.0
 11
426.2101035578543
 21
137.7175974131575
 31
0.0
  0
LINE
  5
64D
330
1A
100
AcDbEntity
  8
SEIHIN
  6
PHANTOM
 62
     6
 48
5.0
100
AcDbLine
 10
420.2101035578544
 20
185.7175974131576
 30
0.0
 11
420.2101035578544
 21
139.7175974131577
 31
0.0
  0
LINE
  5
64E
330
1A
100
AcDbEntity
  8
SEIHIN
  6
PHANTOM
 62
     6
 48
5.0
100
AcDbLine
 10
420.2101035578544
 20
139.7175974131577
 30
0.0
 11
422.2101035578544
 21
137.7175974131575
 31
0.0
  0
LINE
  5
64F
330
1A
100
AcDbEntity
  8
SEIHIN
  6
PHANTOM
 62
     6
 48
5.0
100
AcDbLine
 10
422.2101035578544
 20
137.7175974131575
 30
0.0
 11
426.2101035578543
 21
137.7175974131575
 31
0.0
  0
LINE
  5
650
330
1A
100
AcDbEntity
  8
SEIHIN
  6
PHANTOM
 62
     6
 48
5.0
100
AcDbLine
 10
420.2101035578544
 20
187.7175974131576
 30
0.0
 11
426.2101035578543
 21
187.7175974131576
 31
0.0
  0
LINE
  5
651
330
1A
100
AcDbEntity
  8
SEIHIN
  6
PHANTOM
 62
     6
 48
5.0
100
AcDbLine
 10
422.2101035578544
 20
187.7175974131576
 30
0.0
 11
420.2101035578544
 21
185.7175974131576
 31
0.0
  0
DIMENSION
  5
68E
330
1A
100
AcDbEntity
  8
SUNPOU
 62
     4
100
AcDbDimension
  2
*D12
 10
426.2101035578543
 20
365.2989336208709
 30
0.0
 11
408.7101035578542
 21
370.2989336208709
 31
0.0
 70
    32
  3
STANDARD
100
AcDbAlignedDimension
 13
391.2101035578542
 23
318.0170359716274
 33
0.0
 14
426.2101035578543
 24
318.0170359716274
 34
0.0
100
AcDbRotatedDimension
1001
ACAD
1000
DSTYLE
1002
{
1070
   140
1040
6.0
1070
    74
1070
     0
1070
   172
1070
     1
1070
    73
1070
     0
1070
   272
1070
     2
1070
    77
1070
     3
1070
   173
1070
     1
1070
   147
1040
2.0
1070
    42
1040
6.0
1070
    44
1040
3.0
1070
    43
1040
14.0
1070
   271
1070
     0
1070
   178
1070
     4
1070
   177
1070
     4
1070
   176
1070
     4
1070
   141
1040
150.0
1070
     7
1000
_OPEN
1070
     6
1000
_OPEN
1070
    41
1040
7.0
1002
}
  0
DIMENSION
  5
69D
330
1A
100
AcDbEntity
  8
SUNPOU
100
AcDbDimension
  2
*D13
 10
234.8291329231815
 20
437.005742384902
 30
0.0
 11
229.8291329231815
 21
444.5057423849021
 31
0.0
 70
    32
  3
STANDARD
100
AcDbAlignedDimension
 13
265.9101035578543
 23
452.0057423849022
 33
0.0
 14
265.9101035578543
 24
437.005742384902
 34
0.0
 50
90.0
100
AcDbRotatedDimension
1001
ACAD
1000
DSTYLE
1002
{
1070
   140
1040
6.0
1070
    74
1070
     0
1070
   172
1070
     1
1070
    73
1070
     0
1070
   272
1070
     2
1070
    77
1070
     3
1070
   173
1070
     1
1070
   147
1040
2.0
1070
    42
1040
6.0
1070
    44
1040
3.0
1070
    43
1040
14.0
1070
   271
1070
     0
1070
   178
1070
     4
1070
   177
1070
     4
1070
   176
1070
     4
1070
   141
1040
150.0
1070
     7
1000
_OPEN
1070
     6
1000
_OPEN
1070
    41
1040
7.0
1002
}
  0
TEXT
  5
6A1
330
1A
100
AcDbEntity
  8
SUNPOU
 62
     4
100
AcDbText
 10
293.0760919213462
 20
83.94900508491891
 30
0.0
 40
8.0
  1
軒樋の差し替え
100
AcDbText
  0
TEXT
  5
6A2
330
1A
100
AcDbEntity
  8
SUNPOU
 62
     4
100
AcDbText
 10
420.6662350530941
 20
369.319870627727
 30
0.0
 40
6.0
  1
スライド巾
100
AcDbText
  0
LINE
  5
6A5
330
1A
100
AcDbEntity
  8
CENTER_L
  6
CENTER
 62
     1
 48
5.0
100
AcDbLine
 10
418.0953035578544
 20
278.0171359716274
 30
0.0
 11
432.5780035578544
 21
278.0171359716274
 31
0.0
  0
LINE
  5
6A6
330
1A
100
AcDbEntity
  8
CENTER_L
  6
CENTER
 62
     1
 48
5.0
100
AcDbLine
 10
433.3780035578542
 20
308.0171359716274
 30
0.0
 11
417.7156035578542
 21
308.0171359716274
 31
0.0
  0
LINE
  5
6A7
330
1A
100
AcDbEntity
  8
CENTER_L
  6
CENTER
 62
     1
 48
5.0
100
AcDbLine
 10
433.2447035578544
 20
303.0171359716274
 30
0.0
 11
417.7789035578544
 21
303.0171359716274
 31
0.0
  0
LINE
  5
6A8
330
1A
100
AcDbEntity
  8
CENTER_L
  6
CENTER
 62
     1
 48
5.0
100
AcDbLine
 10
418.0953035578544
 20
147.7176974131576
 30
0.0
 11
432.5780035578544
 21
147.7176974131576
 31
0.0
  0
LINE
  5
6A9
330
1A
100
AcDbEntity
  8
CENTER_L
  6
CENTER
 62
     1
 48
5.0
100
AcDbLine
 10
433.2447035578544
 20
172.7176974131576
 30
0.0
 11
417.7789035578544
 21
172.7176974131576
 31
0.0
  0
LINE
  5
6AA
330
1A
100
AcDbEntity
  8
CENTER_L
  6
CENTER
 62
     1
 48
5.0
100
AcDbLine
 10
433.3780035578542
 20
177.7176974131576
 30
0.0
 11
417.7156035578542
 21
177.7176974131576
 31
0.0
  0
DIMENSION
  5
6C5
330
1A
100
AcDbEntity
  8
SUNPOU
100
AcDbDimension
  2
*D14
 10
419.2355072654249
 20
432.0057423849021
 30
0.0
 11
414.2355072654249
 21
444.5057423849021
 31
0.0
 70
    32
  3
STANDARD
100
AcDbAlignedDimension
 13
384.2101035578544
 23
457.0057423849021
 33
0.0
 14
384.2101035578544
 24
432.0057423849021
 34
0.0
 50
90.0
100
AcDbRotatedDimension
1001
ACAD
1000
DSTYLE
1002
{
1070
   140
1040
6.0
1070
    74
1070
     0
1070
   172
1070
     1
1070
    73
1070
     0
1070
   272
1070
     2
1070
    77
1070
     3
1070
   173
1070
     1
1070
   147
1040
2.0
1070
    42
1040
6.0
1070
    44
1040
3.0
1070
    43
1040
14.0
1070
   271
1070
     0
1070
   178
1070
     4
1070
   177
1070
     4
1070
   176
1070
     4
1070
   141
1040
150.0
1070
     7
1000
_OPEN
1070
     6
1000
_OPEN
1070
    41
1040
7.0
1002
}
  0
DIMENSION
  5
6EC
330
1A
100
AcDbEntity
  8
SUNPOU
100
AcDbDimension
  2
*D15
 10
391.2101035578542
 20
336.3141088694487
 30
0.0
 11
385.6830679474699
 21
341.3141088694487
 31
0.0
 70
    32
  3
STANDARD
100
AcDbAlignedDimension
 13
380.1560323370856
 23
291.9270939882659
 33
0.0
 14
391.2101035578542
 24
318.0170359716274
 34
0.0
100
AcDbRotatedDimension
1001
ACAD
1000
DSTYLE
1002
{
1070
   140
1040
6.0
1070
    74
1070
     0
1070
   172
1070
     1
1070
    73
1070
     0
1070
   272
1070
     2
1070
    77
1070
     3
1070
   173
1070
     1
1070
   147
1040
2.0
1070
    42
1040
6.0
1070
    44
1040
3.0
1070
    43
1040
14.0
1070
   271
1070
     0
1070
   178
1070
     4
1070
   177
1070
     4
1070
   176
1070
     4
1070
   141
1040
150.0
1070
     7
1000
_OPEN
1070
     6
1000
_OPEN
1070
    41
1040
7.0
1002
}
  0
LEADER
  5
73A
330
1A
100
AcDbEntity
  8
SUNPOU
  6
CONTINUOUS
 62
     4
100
AcDbLeader
  3
STANDARD
 73
     0
 40
6.0
 41
31.19999999999999
 76
     3
 10
591.072364360767
 20
309.4583674227649
 30
0.0
 10
577.0494671103733
 20
334.1178420270009
 30
0.0
 10
576.3425140631743
 20
334.1178420270009
 30
0.0
1001
ACAD
1000
DSTYLE
1002
{
1070
     6
1000
OPEN
1070
    41
1040
7.0
1070
    42
1040
6.0
1070
    43
1040
14.0
1070
    44
1040
3.0
1070
    73
1070
     0
1070
    74
1070
     0
1070
    77
1070
     3
1070
   140
1040
6.0
1070
   141
1040
150.0
1070
   147
1040
2.0
1070
   172
1070
     1
1070
   173
1070
     1
1070
   176
1070
     4
1070
   177
1070
     4
1070
   178
1070
     4
1070
   271
1070
     0
1070
   272
1070
     2
1070
   341
1005
6D
1070
   343
1005
6D
1070
   344
1005
6D
1002
}
  0
MTEXT
  5
73B
330
1A
100
AcDbEntity
  8
SUNPOU
  6
CONTINUOUS
 62
     4
100
AcDbMText
 10
574.3425140631743
 20
336.1178420270009
 30
0.0
 40
6.0
 41
0.0
 71
     9
 72
     5
  1
4-φ4.2
1001
ACAD
1000
MTEXTBEGIN
1070
    73
1070
     1
1070
    44
1040
1.0
1070
    74
1070
     0
1000
MTEXTEND
1000
MTEXTBEGIN
1070
    73
1070
     1
1070
    44
1040
1.0
1070
    74
1070
     0
1000
MTEXTEND
1000
MTEXTBEGIN
1070
    73
1070
     1
1070
    44
1040
1.0
1070
    74
1070
     0
1000
MTEXTEND
  0
LEADER
  5
73C
330
1A
100
AcDbEntity
  8
SUNPOU
  6
CONTINUOUS
 62
     4
100
AcDbLeader
  3
STANDARD
 73
     0
 40
6.0
 41
31.19999999999999
 76
     3
 10
590.1623025994804
 20
300.3780317472408
 30
0.0
 10
577.3322492643947
 20
287.6249132458117
 30
0.0
 10
576.483905140185
 20
287.6249132458117
 30
0.0
1001
ACAD
1000
DSTYLE
1002
{
1070
     6
1000
OPEN
1070
    41
1040
7.0
1070
    42
1040
6.0
1070
    43
1040
14.0
1070
    44
1040
3.0
1070
    73
1070
     0
1070
    74
1070
     0
1070
    77
1070
     3
1070
   140
1040
6.0
1070
   141
1040
150.0
1070
   147
1040
2.0
1070
   172
1070
     1
1070
   173
1070
     1
1070
   176
1070
     4
1070
   177
1070
     4
1070
   178
1070
     4
1070
   271
1070
     0
1070
   272
1070
     2
1070
   341
1005
6D
1070
   343
1005
6D
1070
   344
1005
6D
1002
}
  0
MTEXT
  5
73D
330
1A
100
AcDbEntity
  8
SUNPOU
  6
CONTINUOUS
 62
     4
100
AcDbMText
 10
574.483905140185
 20
289.6249132458117
 30
0.0
 40
6.0
 41
0.0
 71
     9
 72
     5
  1
2-φ6.5
1001
ACAD
1000
MTEXTBEGIN
1070
    73
1070
     1
1070
    44
1040
1.0
1070
    74
1070
     0
1000
MTEXTEND
1000
MTEXTBEGIN
1070
    73
1070
     1
1070
    44
1040
1.0
1070
    74
1070
     0
1000
MTEXTEND
1000
MTEXTBEGIN
1070
    73
1070
     1
1070
    44
1040
1.0
1070
    74
1070
     0
1000
MTEXTEND
  0
DIMENSION
  5
766
330
1A
100
AcDbEntity
  8
SUNPOU
  6
CONTINUOUS
100
AcDbDimension
  2
*D16
 10
391.2101035578542
 20
244.9658395870217
 30
0.0
 11
415.7101035578542
 21
249.9658395870217
 31
0.0
 70
    32
  1
t<>
  3
STANDARD
100
AcDbAlignedDimension
 13
385.2101035578542
 23
269.9125359716274
 33
0.0
 14
391.2101035578542
 24
268.0170359716273
 34
0.0
100
AcDbRotatedDimension
1001
ACAD
1000
DSTYLE
1002
{
1070
   140
1040
6.0
1070
    74
1070
     0
1070
   172
1070
     1
1070
    73
1070
     0
1070
   272
1070
     2
1070
    77
1070
     3
1070
   173
1070
     1
1070
   147
1040
2.0
1070
    42
1040
6.0
1070
    44
1040
3.0
1070
    43
1040
14.0
1070
   271
1070
     1
1070
   178
1070
     4
1070
   177
1070
     4
1070
   176
1070
     4
1070
   141
1040
150.0
1070
     7
1000
_OPEN
1070
     6
1000
_OPEN
1070
    41
1040
7.0
1002
}
  0
LINE
  5
934
330
1A
100
AcDbEntity
  8
ZUWAKU
100
AcDbLine
 10
208.6466021508235
 20
15.20000025521687
 30
0.0
 11
447.4243648317469
 21
15.20000025521686
 31
0.0
  0
LINE
  5
935
330
1A
100
AcDbEntity
  8
ZUWAKU
100
AcDbLine
 10
208.6466021508235
 20
15.60000025521686
 30
0.0
 11
447.4243648317469
 21
15.60000025521687
 31
0.0
  0
LINE
  5
936
330
1A
100
AcDbEntity
  8
ZUWAKU
100
AcDbLine
 10
208.6466021508235
 20
15.40000025521686
 30
0.0
 11
447.4243648317469
 21
15.40000025521686
 31
0.0
  0
LINE
  5
937
330
1A
100
AcDbEntity
  8
ZUWAKU
100
AcDbLine
 10
0.0000008607555628
 20
30.80000025521684
 30
0.0
 11
797.4000008607554
 21
30.80000025521684
 31
0.0
  0
LINE
  5
938
330
1A
100
AcDbEntity
  8
ZUWAKU
100
AcDbLine
 10
0.0000008607555628
 20
30.60000025521684
 30
0.0
 11
797.4000008607554
 21
30.60000025521684
 31
0.0
  0
LINE
  5
939
330
1A
100
AcDbEntity
  8
ZUWAKU
100
AcDbLine
 10
0.0000008607555628
 20
30.40000025521683
 30
0.0
 11
797.4000008607554
 21
30.40000025521683
 31
0.0
  0
LINE
  5
93A
330
1A
100
AcDbEntity
  8
ZUWAKU
100
AcDbLine
 10
0.0000008607555628
 20
30.20000025521683
 30
0.0
 11
797.4000008607554
 21
30.20000025521683
 31
0.0
  0
LINE
  5
93B
330
1A
100
AcDbEntity
  8
ZUWAKU
100
AcDbLine
 10
0.0000008607555628
 20
30.00000025521683
 30
0.0
 11
797.4000008607554
 21
30.00000025521683
 31
0.0
  0
LWPOLYLINE
  5
93C
330
1A
100
AcDbEntity
  8
ZUWAKU
100
AcDbPolyline
 90
        4
 70
     1
 43
0.0
 10
0.2000008607554946
 20
551.4000002552169
 10
0.2000008607554946
 20
0.200000255216878
 10
797.4000008607554
 20
0.2000002552169011
 10
797.4000008607556
 20
551.4000002552169
  0
LWPOLYLINE
  5
93D
330
1A
100
AcDbEntity
  8
ZUWAKU
100
AcDbPolyline
 90
        4
 70
     1
 43
0.0
 10
0.6000008607554719
 20
551.0000002552169
 10
0.6000008607554719
 20
0.6000002552168553
 10
797.0000008607557
 20
0.6000002552169015
 10
797.0000008607556
 20
551.0000002552169
  0
LWPOLYLINE
  5
93E
330
1A
100
AcDbEntity
  8
ZUWAKU
100
AcDbPolyline
 90
        4
 70
     1
 43
0.0
 10
0.0000008607555628
 20
551.6000002552168
 10
0.0000008607555628
 20
0.0000002552168326
 10
797.6000008607557
 20
0.0000002552169001
 10
797.6000008607557
 20
551.600000255217
  0
LWPOLYLINE
  5
93F
330
1A
100
AcDbEntity
  8
ZUWAKU
100
AcDbPolyline
 90
        4
 70
     1
 43
0.0
 10
0.4000008607555401
 20
551.2000002552168
 10
0.4000008607555401
 20
0.4000002552169235
 10
797.2000008607555
 20
0.4000002552169005
 10
797.2000008607555
 20
551.2000002552168
  0
LWPOLYLINE
  5
940
330
1A
100
AcDbEntity
  8
ZUWAKU
100
AcDbPolyline
 90
        4
 70
     1
 43
0.0
 10
0.8000008607555173
 20
550.8000002552169
 10
0.8000008607555173
 20
0.8000002552169007
 10
796.8000008607555
 20
0.8000002552169007
 10
796.8000008607555
 20
550.8000002552169
  0
TEXT
  5
941
330
1A
100
AcDbEntity
  8
MOJI
100
AcDbText
 10
92.95779044892469
 20
12.74117838549159
 30
0.0
 40
6.0
  1
新・丸トップＲＶ１０５
 41
0.9
  7
ｽﾀｲﾙ1
100
AcDbText
  0
HATCH
  5
942
330
1A
100
AcDbEntity
  8
ZUWAKU
100
AcDbHatch
 10
0.0
 20
0.0
 30
0.0
210
0.0
220
0.0
230
1.0
  2
ANSI37
 70
     0
 71
     0
 91
        8
 92
        7
 72
     1
 73
     1
 93
       24
 10
14.50226352187542
 20
17.64484873620041
 42
-0.1989123673796348
 10
14.09221301553668
 20
18.63479822986146
 42
0.0
 10
14.09221301553668
 20
19.92500025521684
 42
-0.4142135623730912
 10
14.61721301553666
 20
20.45000025521683
 42
0.0
 10
17.59221301553657
 20
20.45000025521683
 42
0.4142135623731546
 10
18.11721301553666
 20
20.97500025521682
 42
0.0
 10
18.11721301553666
 20
22.72500025521684
 42
0.4142135623731586
 10
17.59221301553657
 20
23.25000025521684
 42
0.0
 10
14.09221301553668
 20
23.25000025521684
 42
0.4142135623730928
 10
11.29221301553673
 20
20.45000025521686
 42
0.0
 10
11.29221301553673
 20
18.63479822986159
 42
0.1989123673796619
 10
12.52236453455316
 20
15.66494974887798
 42
0.0
 10
15.43216250919783
 20
12.75515177423333
 42
-0.1989123673796613
 10
15.84221301553668
 20
11.76520228057214
 42
0.0
 10
15.84221301553668
 20
10.47500025521682
 42
-0.4142135623730911
 10
15.31721301553671
 20
9.950000255216835
 42
0.0
 10
12.3422130155368
 20
9.950000255216835
 42
0.4142135623731526
 10
11.8172130155367
 20
9.425000255216847
 42
0.0
 10
11.8172130155367
 20
7.675000255216826
 42
0.4142135623731526
 10
12.3422130155368
 20
7.150000255216838
 42
0.0
 10
15.84221301553668
 20
7.150000255216838
 42
0.4142135623731044
 10
18.64221301553675
 20
9.950000255216814
 42
0.0
 10
18.64221301553675
 20
11.76520228057208
 42
0.1989123673796604
 10
17.41206149652021
 20
14.73505076155562
 42
0.0
 97
        0
 92
        7
 72
     1
 73
     1
 93
       16
 10
23.54221301553673
 20
19.05000025521684
 42
-0.4142135623730935
 10
24.9422130155367
 20
20.45000025521683
 42
0.0
 10
26.86721301553666
 20
20.45000025521683
 42
0.4142135623731546
 10
27.39221301553675
 20
20.97500025521682
 42
0.0
 10
27.39221301553675
 20
22.72500025521684
 42
0.4142135623730951
 10
26.86721301553677
 20
23.25000025521684
 42
0.0
 10
24.94221301553659
 20
23.25000025521679
 42
0.4142135623730892
 10
20.74221301553666
 20
19.05000025521677
 42
0.0
 10
20.74221301553666
 20
11.35000025521686
 42
0.4142135623730969
 10
24.9422130155367
 20
7.150000255216838
 42
0.0
 10
26.86721301553666
 20
7.150000255216838
 42
0.4142135623731526
 10
27.39221301553675
 20
7.675000255216826
 42
0.0
 10
27.39221301553675
 20
9.425000255216847
 42
0.4142135623730891
 10
26.86721301553677
 20
9.950000255216835
 42
0.0
 10
24.9422130155367
 20
9.950000255216835
 42
-0.4142135623730928
 10
23.54221301553673
 20
11.35000025521682
 42
0.0
 97
        0
 92
        7
 72
     1
 73
     1
 93
        2
 10
24.24221301553666
 20
15.20000025521683
 42
1.0
 10
27.74221301553666
 20
15.20000025521683
 42
1.0
 97
        0
 92
        7
 72
     1
 73
     1
 93
       26
 10
37.31485949771467
 20
19.20504744878026
 42
0.0
 10
38.37649913085249
 20
22.56690628704985
 42
0.5069206636600134
 10
37.87586823165713
 20
23.25000025521684
 42
0.0
 10
36.1769788520479
 20
23.25000025521684
 42
0.3272098845218764
 10
35.67634795285255
 20
22.8830942233838
 42
0.0
 10
33.80807807822077
 20
16.96690628704991
 42
-0.3272098845219541
 10
33.3074471790253
 20
16.60000025521683
 42
0.0
 10
33.16721301553684
 20
16.60000025521683
 42
-0.4142135623731526
 10
32.64221301553675
 20
17.12500025521682
 42
0.0
 10
32.64221301553675
 20
22.72500025521684
 42
0.4142135623730951
 10
32.11721301553677
 20
23.25000025521684
 42
0.0
 10
30.36721301553666
 20
23.25000025521684
 42
0.4142135623730871
 10
29.84221301553668
 20
22.72500025521685
 42
0.0
 10
29.84221301553668
 20
7.675000255216826
 42
0.4142135623730891
 10
30.36721301553666
 20
7.150000255216838
 42
0.0
 10
32.11721301553666
 20
7.150000255216838
 42
0.4142135623731526
 10
32.64221301553675
 20
7.675000255216826
 42
0.0
 10
32.64221301553675
 20
13.27500025521684
 42
-0.4142135623731526
 10
33.16721301553684
 20
13.80000025521683
 42
0.0
 10
33.30744717902542
 20
13.80000025521683
 42
-0.3272098845218915
 10
33.80807807822077
 20
13.43309422338376
 42
0.0
 10
35.67634795285255
 20
7.516906287049909
 42
0.3272098845218902
 10
36.1769788520479
 20
7.150000255216838
 42
0.0
 10
37.87586823165713
 20
7.150000255216838
 42
0.5069206636600335
 10
38.37649913085249
 20
7.833094223383845
 42
0.0
 10
36.05010775237883
 20
15.20000025521697
 42
0.0
 97
        0
 92
        7
 72
     1
 73
     1
 93
        8
 10
43.49221301553666
 20
22.72500025521684
 42
0.4142135623731546
 10
42.96721301553657
 20
23.25000025521684
 42
0.0
 10
41.21721301553679
 20
23.25000025521684
 42
0.4142135623731507
 10
40.6922130155367
 20
22.72500025521685
 42
0.0
 10
40.6922130155367
 20
7.675000255216826
 42
0.4142135623731526
 10
41.21721301553679
 20
7.150000255216838
 42
0.0
 10
42.96721301553657
 20
7.150000255216838
 42
0.4142135623731526
 10
43.49221301553666
 20
7.675000255216826
 42
0.0
 97
        0
 92
        7
 72
     1
 73
     1
 93
       24
 10
48.39221301553675
 20
19.92500025521684
 42
-0.4142135623731546
 10
48.91721301553684
 20
20.45000025521683
 42
0.0
 10
51.89221301553676
 20
20.45000025521683
 42
0.4142135623730911
 10
52.41721301553673
 20
20.97500025521682
 42
0.0
 10
52.41721301553673
 20
22.72500025521684
 42
0.4142135623730952
 10
51.89221301553676
 20
23.25000025521684
 42
0.0
 10
48.39221301553675
 20
23.25000025521684
 42
0.4142135623731048
 10
45.59221301553669
 20
20.45000025521686
 42
0.0
 10
45.59221301553669
 20
18.63479822986159
 42
0.1989123673796613
 10
46.82236453455323
 20
15.66494974887804
 42
0.0
 10
49.7321625091979
 20
12.75515177423337
 42
-0.1989123673796402
 10
50.14221301553675
 20
11.7652022805723
 42
0.0
 10
50.14221301553675
 20
10.47500025521682
 42
-0.4142135623730911
 10
49.61721301553677
 20
9.950000255216835
 42
0.0
 10
46.64221301553675
 20
9.950000255216835
 42
0.4142135623731526
 10
46.11721301553666
 20
9.425000255216847
 42
0.0
 10
46.11721301553666
 20
7.675000255216826
 42
0.4142135623730891
 10
46.64221301553664
 20
7.150000255216838
 42
0.0
 10
50.14221301553675
 20
7.150000255216838
 42
0.4142135623730925
 10
52.94221301553671
 20
9.950000255216814
 42
0.0
 10
52.94221301553671
 20
11.76520228057208
 42
0.1989123673796675
 10
51.71206149652016
 20
14.73505076155574
 42
0.0
 10
48.8022635218756
 20
17.64484873620025
 42
-0.1989123673796652
 10
48.39221301553675
 20
18.63479822986142
 42
0.0
 97
        0
 92
        7
 72
     1
 73
     1
 93
       16
 10
57.84221301553668
 20
22.72500025521682
 42
0.414213562373103
 10
57.31721301553671
 20
23.25000025521684
 42
0.0
 10
55.56721301553671
 20
23.25000025521684
 42
0.4142135623730871
 10
55.04221301553673
 20
22.72500025521685
 42
0.0
 10
55.04221301553673
 20
9.950000255216814
 42
0.4142135623730926
 10
57.84221301553668
 20
7.150000255216838
 42
0.0
 10
61.34221301553669
 20
7.150000255216838
 42
0.4142135623731044
 10
64.14221301553675
 20
9.950000255216814
 42
0.0
 10
64.14221301553675
 20
22.72500025521684
 42
0.4142135623730951
 10
63.61721301553678
 20
23.25000025521684
 42
0.0
 10
61.86721301553666
 20
23.25000025521684
 42
0.4142135623730871
 10
61.34221301553669
 20
22.72500025521685
 42
0.0
 10
61.34221301553669
 20
11.00000025521681
 42
-0.414213562373088
 10
60.29221301553673
 20
9.950000255216835
 42
0.0
 10
58.89221301553675
 20
9.950000255216835
 42
-0.4142135623731197
 10
57.84221301553668
 20
11.00000025521681
 42
0.0
 97
        0
 92
        7
 72
     1
 73
     1
 93
        8
 10
69.04221301553673
 20
22.72500025521685
 42
0.4142135623730871
 10
68.51721301553675
 20
23.25000025521684
 42
0.0
 10
66.76721301553675
 20
23.25000025521684
 42
0.4142135623731507
 10
66.24221301553666
 20
22.72500025521685
 42
0.0
 10
66.24221301553666
 20
7.675000255216826
 42
0.4142135623730891
 10
66.76721301553664
 20
7.150000255216838
 42
0.0
 10
68.51721301553675
 20
7.150000255216838
 42
0.4142135623730891
 10
69.04221301553673
 20
7.675000255216826
 42
0.0
 97
        0
 75
     0
 76
     1
 52
0.0
 41
0.2
 77
     0
 78
     2
 53
45.0
 43
-900.9423034739233
 44
-13.19999974478309
 45
-0.4490128060534576
 46
0.4490128060534577
 79
     0
 53
135.0
 43
-900.9423034739233
 44
-13.19999974478309
 45
-0.4490128060534577
 46
-0.4490128060534576
 79
     0
 47
0.057451373970553
 98
        8
 10
16.07985582377887
 20
15.16717390110238
 10
22.40451586719473
 20
18.84406243766784
 10
25.16436874641522
 20
15.51188190128755
 10
30.9140608423927
 20
16.20129790165833
 10
41.8384728797123
 20
16.66091016919995
 10
46.8982017558851
 20
19.41857657162404
 10
56.55768683315591
 20
18.72915817031184
 10
67.8270804803783
 20
19.18877043785346
  0
LINE
  5
943
330
1A
100
AcDbEntity
  8
ZUWAKU
100
AcDbLine
 10
24.9422130155367
 20
23.25000025521679
 30
0.0
 11
26.86721301553666
 21
23.25000025521684
 31
0.0
  0
LINE
  5
944
330
1A
100
AcDbEntity
  8
ZUWAKU
100
AcDbLine
 10
26.86721301553666
 20
20.45000025521683
 30
0.0
 11
24.9422130155367
 21
20.45000025521683
 31
0.0
  0
LINE
  5
945
330
1A
100
AcDbEntity
  8
ZUWAKU
100
AcDbLine
 10
24.9422130155367
 20
9.950000255216835
 30
0.0
 11
26.86721301553666
 21
9.950000255216835
 31
0.0
  0
LINE
  5
946
330
1A
100
AcDbEntity
  8
ZUWAKU
100
AcDbLine
 10
26.86721301553666
 20
7.150000255216838
 30
0.0
 11
24.9422130155367
 21
7.150000255216838
 31
0.0
  0
CIRCLE
  5
947
330
1A
100
AcDbEntity
  8
ZUWAKU
100
AcDbCircle
 10
25.99221301553666
 20
15.20000025521683
 30
0.0
 40
1.75
  0
ARC
  5
948
330
1A
100
AcDbEntity
  8
ZUWAKU
100
AcDbCircle
 10
15.49221301553666
 20
18.63479822986153
 30
0.0
 40
1.399999999999999
100
AcDbArc
 50
180.0000000000016
 51
224.9999999999988
  0
LINE
  5
949
330
1A
100
AcDbEntity
  8
ZUWAKU
100
AcDbLine
 10
23.54221301553673
 20
19.05000025521683
 30
0.0
 11
23.54221301553673
 21
11.35000025521684
 31
0.0
  0
LINE
  5
94A
330
1A
100
AcDbEntity
  8
ZUWAKU
100
AcDbLine
 10
20.74221301553666
 20
11.35000025521684
 30
0.0
 11
20.74221301553666
 21
19.05000025521679
 31
0.0
  0
ARC
  5
94B
330
1A
100
AcDbEntity
  8
ZUWAKU
100
AcDbCircle
 10
15.49221301553666
 20
18.63479822986153
 30
0.0
 40
4.199999999999999
100
AcDbArc
 50
180.0
 51
225.0
  0
ARC
  5
94C
330
1A
100
AcDbEntity
  8
ZUWAKU
100
AcDbCircle
 10
15.84221301553668
 20
9.950000255216835
 30
0.0
 40
2.799999999999999
100
AcDbArc
 50
270.0
 51
0.0
  0
ARC
  5
94D
330
1A
100
AcDbEntity
  8
ZUWAKU
100
AcDbCircle
 10
24.9422130155367
 20
11.35000025521684
 30
0.0
 40
4.199999999999999
100
AcDbArc
 50
180.0
 51
270.0
  0
ARC
  5
94E
330
1A
100
AcDbEntity
  8
ZUWAKU
100
AcDbCircle
 10
14.4422130155367
 20
11.76520228057214
 30
0.0
 40
4.199999999999999
100
AcDbArc
 50
0.0
 51
45.0
  0
LINE
  5
94F
330
1A
100
AcDbEntity
  8
ZUWAKU
100
AcDbLine
 10
17.41206149652021
 20
14.73505076155566
 30
0.0
 11
14.50226352187553
 21
17.64484873620033
 31
0.0
  0
LINE
  5
950
330
1A
100
AcDbEntity
  8
ZUWAKU
100
AcDbLine
 10
15.84221301553668
 20
10.47500025521684
 30
0.0
 11
15.84221301553668
 21
11.76520228057218
 31
0.0
  0
ARC
  5
951
330
1A
100
AcDbEntity
  8
ZUWAKU
100
AcDbCircle
 10
15.31721301553671
 20
10.47500025521684
 30
0.0
 40
0.525
100
AcDbArc
 50
270.0
 51
0.0
  0
ARC
  5
952
330
1A
100
AcDbEntity
  8
ZUWAKU
100
AcDbCircle
 10
14.4422130155367
 20
11.76520228057218
 30
0.0
 40
1.399999999999999
100
AcDbArc
 50
0.0
 51
45.0
  0
LINE
  5
953
330
1A
100
AcDbEntity
  8
ZUWAKU
100
AcDbLine
 10
11.8172130155367
 20
7.675000255216836
 30
0.0
 11
11.8172130155367
 21
9.425000255216836
 31
0.0
  0
ARC
  5
954
330
1A
100
AcDbEntity
  8
ZUWAKU
100
AcDbCircle
 10
12.34221301553668
 20
7.675000255216836
 30
0.0
 40
0.525
100
AcDbArc
 50
180.0
 51
270.0
  0
ARC
  5
955
330
1A
100
AcDbEntity
  8
ZUWAKU
100
AcDbCircle
 10
12.34221301553668
 20
9.425000255216836
 30
0.0
 40
0.525
100
AcDbArc
 50
90.0
 51
180.0
  0
LINE
  5
956
330
1A
100
AcDbEntity
  8
ZUWAKU
100
AcDbLine
 10
12.34221301553668
 20
7.150000255216838
 30
0.0
 11
15.84221301553668
 21
7.150000255216838
 31
0.0
  0
LINE
  5
957
330
1A
100
AcDbEntity
  8
ZUWAKU
100
AcDbLine
 10
12.34221301553668
 20
9.950000255216835
 30
0.0
 11
15.31721301553671
 21
9.950000255216835
 31
0.0
  0
LINE
  5
958
330
1A
100
AcDbEntity
  8
ZUWAKU
100
AcDbLine
 10
12.52236453455316
 20
15.66494974887801
 30
0.0
 11
15.43216250919783
 21
12.75515177423335
 31
0.0
  0
LINE
  5
959
330
1A
100
AcDbEntity
  8
ZUWAKU
100
AcDbLine
 10
18.64221301553675
 20
9.950000255216835
 30
0.0
 11
18.64221301553675
 21
11.76520228057218
 31
0.0
  0
ARC
  5
95A
330
1A
100
AcDbEntity
  8
ZUWAKU
100
AcDbCircle
 10
24.9422130155367
 20
11.35000025521684
 30
0.0
 40
1.399999999999999
100
AcDbArc
 50
180.0
 51
270.0
  0
ARC
  5
95B
330
1A
100
AcDbEntity
  8
ZUWAKU
100
AcDbCircle
 10
17.59221301553668
 20
22.72500025521683
 30
0.0
 40
0.525
100
AcDbArc
 50
0.0
 51
90.0
  0
ARC
  5
95C
330
1A
100
AcDbEntity
  8
ZUWAKU
100
AcDbCircle
 10
17.59221301553668
 20
20.97500025521683
 30
0.0
 40
0.525
100
AcDbArc
 50
270.0
 51
0.0
  0
LINE
  5
95D
330
1A
100
AcDbEntity
  8
ZUWAKU
100
AcDbLine
 10
14.09221301553668
 20
23.25000025521684
 30
0.0
 11
17.59221301553668
 21
23.25000025521684
 31
0.0
  0
ARC
  5
95E
330
1A
100
AcDbEntity
  8
ZUWAKU
100
AcDbCircle
 10
14.61721301553666
 20
19.92500025521683
 30
0.0
 40
0.525
100
AcDbArc
 50
90.0
 51
180.0
  0
LINE
  5
95F
330
1A
100
AcDbEntity
  8
ZUWAKU
100
AcDbLine
 10
14.09221301553668
 20
19.92500025521683
 30
0.0
 11
14.09221301553668
 21
18.63479822986149
 31
0.0
  0
LINE
  5
960
330
1A
100
AcDbEntity
  8
ZUWAKU
100
AcDbLine
 10
17.59221301553668
 20
20.45000025521683
 30
0.0
 11
14.61721301553666
 21
20.45000025521683
 31
0.0
  0
LINE
  5
961
330
1A
100
AcDbEntity
  8
ZUWAKU
100
AcDbLine
 10
11.29221301553673
 20
20.45000025521683
 30
0.0
 11
11.29221301553673
 21
18.63479822986149
 31
0.0
  0
ARC
  5
962
330
1A
100
AcDbEntity
  8
ZUWAKU
100
AcDbCircle
 10
14.09221301553668
 20
20.45000025521683
 30
0.0
 40
2.799999999999999
100
AcDbArc
 50
90.0
 51
180.0
  0
LINE
  5
963
330
1A
100
AcDbEntity
  8
ZUWAKU
100
AcDbLine
 10
18.11721301553666
 20
22.72500025521683
 30
0.0
 11
18.11721301553666
 21
20.97500025521683
 31
0.0
  0
ARC
  5
964
330
1A
100
AcDbEntity
  8
ZUWAKU
100
AcDbCircle
 10
24.9422130155367
 20
19.05000025521683
 30
0.0
 40
1.399999999999999
100
AcDbArc
 50
90.0
 51
180.0
  0
ARC
  5
965
330
1A
100
AcDbEntity
  8
ZUWAKU
100
AcDbCircle
 10
24.9422130155367
 20
19.05000025521679
 30
0.0
 40
4.199999999999999
100
AcDbArc
 50
90.0
 51
180.0
  0
LINE
  5
966
330
1A
100
AcDbEntity
  8
ZUWAKU
100
AcDbLine
 10
79.32663040874377
 20
30.00000025521683
 30
0.0
 11
79.32663040874399
 21
0.8000002552169007
 31
0.0
  0
LINE
  5
967
330
1A
100
AcDbEntity
  8
ZUWAKU
100
AcDbLine
 10
79.52663040874381
 20
30.00000025521683
 30
0.0
 11
79.52663040874404
 21
0.8000002552169007
 31
0.0
  0
LINE
  5
968
330
1A
100
AcDbEntity
  8
ZUWAKU
100
AcDbLine
 10
79.12663040874395
 20
30.00000025521683
 30
0.0
 11
79.12663040874395
 21
0.8000002552169007
 31
0.0
  0
LINE
  5
969
330
1A
100
AcDbEntity
  8
ZUWAKU
100
AcDbLine
 10
64.14221301553675
 20
9.950000255216835
 30
0.0
 11
64.14221301553675
 21
22.72500025521683
 31
0.0
  0
LINE
  5
96A
330
1A
100
AcDbEntity
  8
ZUWAKU
100
AcDbLine
 10
61.34221301553669
 20
22.72500025521683
 30
0.0
 11
61.34221301553669
 21
11.00000025521683
 31
0.0
  0
LINE
  5
96B
330
1A
100
AcDbEntity
  8
ZUWAKU
100
AcDbLine
 10
69.04221301553673
 20
7.675000255216836
 30
0.0
 11
69.04221301553673
 21
22.72500025521683
 31
0.0
  0
LINE
  5
96C
330
1A
100
AcDbEntity
  8
ZUWAKU
100
AcDbLine
 10
66.24221301553666
 20
22.72500025521683
 30
0.0
 11
66.24221301553666
 21
7.675000255216836
 31
0.0
  0
ARC
  5
96D
330
1A
100
AcDbEntity
  8
ZUWAKU
100
AcDbCircle
 10
49.79221301553673
 20
18.63479822986153
 30
0.0
 40
1.399999999999999
100
AcDbArc
 50
180.0000000000016
 51
224.9999999999988
  0
ARC
  5
96E
330
1A
100
AcDbEntity
  8
ZUWAKU
100
AcDbCircle
 10
49.79221301553673
 20
18.63479822986153
 30
0.0
 40
4.199999999999999
100
AcDbArc
 50
180.0
 51
225.0
  0
LINE
  5
96F
330
1A
100
AcDbEntity
  8
ZUWAKU
100
AcDbLine
 10
37.31485949771467
 20
19.20504744878026
 30
0.0
 11
36.05010775237883
 21
15.20000025521685
 31
0.0
  0
LINE
  5
970
330
1A
100
AcDbEntity
  8
ZUWAKU
100
AcDbLine
 10
40.6922130155367
 20
22.72500025521683
 30
0.0
 11
40.6922130155367
 21
7.675000255216836
 31
0.0
  0
LINE
  5
971
330
1A
100
AcDbEntity
  8
ZUWAKU
100
AcDbLine
 10
43.49221301553666
 20
7.675000255216836
 30
0.0
 11
43.49221301553666
 21
22.72500025521683
 31
0.0
  0
LINE
  5
972
330
1A
100
AcDbEntity
  8
ZUWAKU
100
AcDbLine
 10
55.04221301553673
 20
22.72500025521683
 30
0.0
 11
55.04221301553673
 21
9.950000255216835
 31
0.0
  0
LINE
  5
973
330
1A
100
AcDbEntity
  8
ZUWAKU
100
AcDbLine
 10
57.84221301553668
 20
11.00000025521683
 30
0.0
 11
57.84221301553668
 21
22.72500025521683
 31
0.0
  0
LINE
  5
974
330
1A
100
AcDbEntity
  8
ZUWAKU
100
AcDbLine
 10
32.64221301553675
 20
17.12500025521683
 30
0.0
 11
32.64221301553675
 21
22.72500025521683
 31
0.0
  0
LINE
  5
975
330
1A
100
AcDbEntity
  8
ZUWAKU
100
AcDbLine
 10
29.84221301553668
 20
22.72500025521683
 30
0.0
 11
29.84221301553668
 21
7.675000255216836
 31
0.0
  0
LINE
  5
976
330
1A
100
AcDbEntity
  8
ZUWAKU
100
AcDbLine
 10
35.67634795285255
 20
22.8830942233838
 30
0.0
 11
33.80807807822077
 21
16.96690628704986
 31
0.0
  0
LINE
  5
977
330
1A
100
AcDbEntity
  8
ZUWAKU
100
AcDbLine
 10
60.29221301553673
 20
9.950000255216835
 30
0.0
 11
58.89221301553675
 21
9.950000255216835
 31
0.0
  0
LINE
  5
978
330
1A
100
AcDbEntity
  8
ZUWAKU
100
AcDbLine
 10
57.84221301553668
 20
7.150000255216838
 30
0.0
 11
61.34221301553669
 21
7.150000255216838
 31
0.0
  0
LINE
  5
979
330
1A
100
AcDbEntity
  8
ZUWAKU
100
AcDbLine
 10
41.21721301553669
 20
7.150000255216838
 30
0.0
 11
42.96721301553668
 21
7.150000255216838
 31
0.0
  0
LINE
  5
97A
330
1A
100
AcDbEntity
  8
ZUWAKU
100
AcDbLine
 10
35.67634795285255
 20
7.516906287049863
 30
0.0
 11
33.80807807822077
 21
13.4330942233838
 31
0.0
  0
ARC
  5
97B
330
1A
100
AcDbEntity
  8
ZUWAKU
100
AcDbCircle
 10
33.30744717902542
 20
17.12500025521683
 30
0.0
 40
0.525
100
AcDbArc
 50
270.0
 51
342.4744316262769
  0
LINE
  5
97C
330
1A
100
AcDbEntity
  8
ZUWAKU
100
AcDbLine
 10
33.30744717902542
 20
16.60000025521683
 30
0.0
 11
33.16721301553673
 21
16.60000025521683
 31
0.0
  0
LINE
  5
97D
330
1A
100
AcDbEntity
  8
ZUWAKU
100
AcDbLine
 10
33.16721301553673
 20
13.80000025521683
 30
0.0
 11
33.30744717902542
 21
13.80000025521683
 31
0.0
  0
ARC
  5
97E
330
1A
100
AcDbEntity
  8
ZUWAKU
100
AcDbCircle
 10
33.16721301553673
 20
17.12500025521683
 30
0.0
 40
0.525
100
AcDbArc
 50
180.0
 51
270.0
  0
LINE
  5
97F
330
1A
100
AcDbEntity
  8
ZUWAKU
100
AcDbLine
 10
30.36721301553666
 20
7.150000255216838
 30
0.0
 11
32.11721301553666
 21
7.150000255216838
 31
0.0
  0
ARC
  5
980
330
1A
100
AcDbEntity
  8
ZUWAKU
100
AcDbCircle
 10
32.11721301553666
 20
7.675000255216836
 30
0.0
 40
0.525
100
AcDbArc
 50
270.0
 51
0.0
  0
LINE
  5
981
330
1A
100
AcDbEntity
  8
ZUWAKU
100
AcDbLine
 10
32.64221301553675
 20
7.675000255216836
 30
0.0
 11
32.64221301553675
 21
13.27500025521684
 31
0.0
  0
LINE
  5
982
330
1A
100
AcDbEntity
  8
ZUWAKU
100
AcDbLine
 10
27.39221301553675
 20
9.425000255216836
 30
0.0
 11
27.39221301553675
 21
7.675000255216836
 31
0.0
  0
ARC
  5
983
330
1A
100
AcDbEntity
  8
ZUWAKU
100
AcDbCircle
 10
26.86721301553666
 20
7.675000255216836
 30
0.0
 40
0.525
100
AcDbArc
 50
270.0
 51
0.0
  0
ARC
  5
984
330
1A
100
AcDbEntity
  8
ZUWAKU
100
AcDbCircle
 10
26.86721301553666
 20
9.425000255216836
 30
0.0
 40
0.525
100
AcDbArc
 50
0.0
 51
90.0
  0
ARC
  5
985
330
1A
100
AcDbEntity
  8
ZUWAKU
100
AcDbCircle
 10
30.36721301553666
 20
7.675000255216836
 30
0.0
 40
0.525
100
AcDbArc
 50
180.0
 51
270.0
  0
ARC
  5
986
330
1A
100
AcDbEntity
  8
ZUWAKU
100
AcDbCircle
 10
33.30744717902542
 20
13.27500025521684
 30
0.0
 40
0.525
100
AcDbArc
 50
17.52556837372303
 51
90.0
  0
ARC
  5
987
330
1A
100
AcDbEntity
  8
ZUWAKU
100
AcDbCircle
 10
33.16721301553673
 20
13.27500025521684
 30
0.0
 40
0.525
100
AcDbArc
 50
90.0
 51
180.0
  0
ARC
  5
988
330
1A
100
AcDbEntity
  8
ZUWAKU
100
AcDbCircle
 10
41.21721301553669
 20
7.675000255216836
 30
0.0
 40
0.525
100
AcDbArc
 50
180.0
 51
270.0
  0
LINE
  5
989
330
1A
100
AcDbEntity
  8
ZUWAKU
100
AcDbLine
 10
36.17697885204802
 20
7.150000255216838
 30
0.0
 11
37.87586823165702
 21
7.150000255216838
 31
0.0
  0
ARC
  5
98A
330
1A
100
AcDbEntity
  8
ZUWAKU
100
AcDbCircle
 10
37.87586823165702
 20
7.675000255216836
 30
0.0
 40
0.525
100
AcDbArc
 50
270.0
 51
17.52556837372303
  0
LINE
  5
98B
330
1A
100
AcDbEntity
  8
ZUWAKU
100
AcDbLine
 10
38.37649913085249
 20
7.83309422338381
 30
0.0
 11
36.05010775237883
 21
15.20000025521685
 31
0.0
  0
ARC
  5
98C
330
1A
100
AcDbEntity
  8
ZUWAKU
100
AcDbCircle
 10
36.17697885204802
 20
7.675000255216836
 30
0.0
 40
0.525
100
AcDbArc
 50
197.525568373723
 51
270.0
  0
ARC
  5
98D
330
1A
100
AcDbEntity
  8
ZUWAKU
100
AcDbCircle
 10
57.84221301553668
 20
9.950000255216835
 30
0.0
 40
2.799999999999999
100
AcDbArc
 50
180.0
 51
270.0
  0
ARC
  5
98E
330
1A
100
AcDbEntity
  8
ZUWAKU
100
AcDbCircle
 10
50.14221301553675
 20
9.950000255216835
 30
0.0
 40
2.799999999999999
100
AcDbArc
 50
270.0
 51
0.0
  0
LINE
  5
98F
330
1A
100
AcDbEntity
  8
ZUWAKU
100
AcDbLine
 10
51.71206149652028
 20
14.73505076155566
 30
0.0
 11
48.80226352187548
 21
17.64484873620033
 31
0.0
  0
LINE
  5
990
330
1A
100
AcDbEntity
  8
ZUWAKU
100
AcDbLine
 10
50.14221301553675
 20
10.47500025521684
 30
0.0
 11
50.14221301553675
 21
11.76520228057218
 31
0.0
  0
ARC
  5
991
330
1A
100
AcDbEntity
  8
ZUWAKU
100
AcDbCircle
 10
48.74221301553666
 20
11.76520228057218
 30
0.0
 40
1.399999999999999
100
AcDbArc
 50
0.0
 51
45.0
  0
ARC
  5
992
330
1A
100
AcDbEntity
  8
ZUWAKU
100
AcDbCircle
 10
49.61721301553666
 20
10.47500025521684
 30
0.0
 40
0.525
100
AcDbArc
 50
270.0
 51
0.0
  0
LINE
  5
993
330
1A
100
AcDbEntity
  8
ZUWAKU
100
AcDbLine
 10
46.11721301553666
 20
7.675000255216836
 30
0.0
 11
46.11721301553666
 21
9.425000255216836
 31
0.0
  0
ARC
  5
994
330
1A
100
AcDbEntity
  8
ZUWAKU
100
AcDbCircle
 10
46.64221301553675
 20
7.675000255216836
 30
0.0
 40
0.525
100
AcDbArc
 50
180.0
 51
270.0
  0
ARC
  5
995
330
1A
100
AcDbEntity
  8
ZUWAKU
100
AcDbCircle
 10
42.96721301553668
 20
7.675000255216836
 30
0.0
 40
0.525
100
AcDbArc
 50
270.0
 51
0.0
  0
ARC
  5
996
330
1A
100
AcDbEntity
  8
ZUWAKU
100
AcDbCircle
 10
46.64221301553675
 20
9.425000255216836
 30
0.0
 40
0.525
100
AcDbArc
 50
90.0
 51
180.0
  0
LINE
  5
997
330
1A
100
AcDbEntity
  8
ZUWAKU
100
AcDbLine
 10
46.64221301553675
 20
9.950000255216835
 30
0.0
 11
49.61721301553666
 21
9.950000255216835
 31
0.0
  0
LINE
  5
998
330
1A
100
AcDbEntity
  8
ZUWAKU
100
AcDbLine
 10
46.64221301553675
 20
7.150000255216838
 30
0.0
 11
50.14221301553675
 21
7.150000255216838
 31
0.0
  0
LINE
  5
999
330
1A
100
AcDbEntity
  8
ZUWAKU
100
AcDbLine
 10
46.82236453455323
 20
15.66494974887801
 30
0.0
 11
49.7321625091979
 21
12.75515177423335
 31
0.0
  0
LINE
  5
99A
330
1A
100
AcDbEntity
  8
ZUWAKU
100
AcDbLine
 10
52.94221301553671
 20
9.950000255216835
 30
0.0
 11
52.94221301553671
 21
11.76520228057218
 31
0.0
  0
ARC
  5
99B
330
1A
100
AcDbEntity
  8
ZUWAKU
100
AcDbCircle
 10
48.74221301553666
 20
11.76520228057214
 30
0.0
 40
4.199999999999999
100
AcDbArc
 50
0.0
 51
45.0
  0
ARC
  5
99C
330
1A
100
AcDbEntity
  8
ZUWAKU
100
AcDbCircle
 10
58.89221301553675
 20
11.00000025521683
 30
0.0
 40
1.049999999999999
100
AcDbArc
 50
180.0
 51
270.0
  0
ARC
  5
99D
330
1A
100
AcDbEntity
  8
ZUWAKU
100
AcDbCircle
 10
61.34221301553669
 20
9.950000255216835
 30
0.0
 40
2.799999999999999
100
AcDbArc
 50
270.0
 51
0.0
  0
LINE
  5
99E
330
1A
100
AcDbEntity
  8
ZUWAKU
100
AcDbLine
 10
66.76721301553675
 20
7.150000255216838
 30
0.0
 11
68.51721301553675
 21
7.150000255216838
 31
0.0
  0
ARC
  5
99F
330
1A
100
AcDbEntity
  8
ZUWAKU
100
AcDbCircle
 10
66.76721301553675
 20
7.675000255216836
 30
0.0
 40
0.525
100
AcDbArc
 50
180.0
 51
270.0
  0
ARC
  5
9A0
330
1A
100
AcDbEntity
  8
ZUWAKU
100
AcDbCircle
 10
60.29221301553673
 20
11.00000025521683
 30
0.0
 40
1.049999999999999
100
AcDbArc
 50
270.0
 51
0.0
  0
ARC
  5
9A1
330
1A
100
AcDbEntity
  8
ZUWAKU
100
AcDbCircle
 10
68.51721301553675
 20
7.675000255216836
 30
0.0
 40
0.525
100
AcDbArc
 50
270.0
 51
0.0
  0
LINE
  5
9A2
330
1A
100
AcDbEntity
  8
ZUWAKU
100
AcDbLine
 10
42.96721301553668
 20
23.25000025521684
 30
0.0
 11
41.21721301553669
 21
23.25000025521684
 31
0.0
  0
ARC
  5
9A3
330
1A
100
AcDbEntity
  8
ZUWAKU
100
AcDbCircle
 10
32.11721301553666
 20
22.72500025521683
 30
0.0
 40
0.525
100
AcDbArc
 50
0.0
 51
90.0
  0
LINE
  5
9A4
330
1A
100
AcDbEntity
  8
ZUWAKU
100
AcDbLine
 10
32.11721301553666
 20
23.25000025521684
 30
0.0
 11
30.36721301553666
 21
23.25000025521684
 31
0.0
  0
ARC
  5
9A5
330
1A
100
AcDbEntity
  8
ZUWAKU
100
AcDbCircle
 10
26.86721301553666
 20
22.72500025521683
 30
0.0
 40
0.525
100
AcDbArc
 50
0.0
 51
90.0
  0
ARC
  5
9A6
330
1A
100
AcDbEntity
  8
ZUWAKU
100
AcDbCircle
 10
30.36721301553666
 20
22.72500025521683
 30
0.0
 40
0.525
100
AcDbArc
 50
90.0
 51
180.0
  0
ARC
  5
9A7
330
1A
100
AcDbEntity
  8
ZUWAKU
100
AcDbCircle
 10
26.86721301553666
 20
20.97500025521683
 30
0.0
 40
0.525
100
AcDbArc
 50
270.0
 51
0.0
  0
LINE
  5
9A8
330
1A
100
AcDbEntity
  8
ZUWAKU
100
AcDbLine
 10
27.39221301553675
 20
22.72500025521683
 30
0.0
 11
27.39221301553675
 21
20.97500025521683
 31
0.0
  0
ARC
  5
9A9
330
1A
100
AcDbEntity
  8
ZUWAKU
100
AcDbCircle
 10
41.21721301553669
 20
22.72500025521683
 30
0.0
 40
0.525
100
AcDbArc
 50
90.0
 51
180.0
  0
LINE
  5
9AA
330
1A
100
AcDbEntity
  8
ZUWAKU
100
AcDbLine
 10
36.17697885204802
 20
23.25000025521684
 30
0.0
 11
37.87586823165702
 21
23.25000025521684
 31
0.0
  0
ARC
  5
9AB
330
1A
100
AcDbEntity
  8
ZUWAKU
100
AcDbCircle
 10
37.87586823165702
 20
22.72500025521683
 30
0.0
 40
0.525
100
AcDbArc
 50
342.4744316262769
 51
90.0
  0
LINE
  5
9AC
330
1A
100
AcDbEntity
  8
ZUWAKU
100
AcDbLine
 10
38.37649913085249
 20
22.56690628704987
 30
0.0
 11
37.31485949771467
 21
19.20504744878026
 31
0.0
  0
ARC
  5
9AD
330
1A
100
AcDbEntity
  8
ZUWAKU
100
AcDbCircle
 10
36.17697885204802
 20
22.72500025521683
 30
0.0
 40
0.525
100
AcDbArc
 50
90.0
 51
162.4744316262769
  0
LINE
  5
9AE
330
1A
100
AcDbEntity
  8
ZUWAKU
100
AcDbLine
 10
48.39221301553675
 20
23.25000025521684
 30
0.0
 11
51.89221301553676
 21
23.25000025521684
 31
0.0
  0
LINE
  5
9AF
330
1A
100
AcDbEntity
  8
ZUWAKU
100
AcDbLine
 10
51.89221301553676
 20
20.45000025521683
 30
0.0
 11
48.91721301553673
 21
20.45000025521683
 31
0.0
  0
ARC
  5
9B0
330
1A
100
AcDbEntity
  8
ZUWAKU
100
AcDbCircle
 10
48.91721301553673
 20
19.92500025521683
 30
0.0
 40
0.525
100
AcDbArc
 50
90.0
 51
180.0
  0
LINE
  5
9B1
330
1A
100
AcDbEntity
  8
ZUWAKU
100
AcDbLine
 10
48.39221301553675
 20
19.92500025521683
 30
0.0
 11
48.39221301553675
 21
18.63479822986149
 31
0.0
  0
ARC
  5
9B2
330
1A
100
AcDbEntity
  8
ZUWAKU
100
AcDbCircle
 10
42.96721301553668
 20
22.72500025521683
 30
0.0
 40
0.525
100
AcDbArc
 50
0.0
 51
90.0
  0
LINE
  5
9B3
330
1A
100
AcDbEntity
  8
ZUWAKU
100
AcDbLine
 10
45.59221301553669
 20
20.45000025521683
 30
0.0
 11
45.59221301553669
 21
18.63479822986149
 31
0.0
  0
ARC
  5
9B4
330
1A
100
AcDbEntity
  8
ZUWAKU
100
AcDbCircle
 10
48.39221301553675
 20
20.45000025521683
 30
0.0
 40
2.799999999999999
100
AcDbArc
 50
90.0
 51
180.0
  0
ARC
  5
9B5
330
1A
100
AcDbEntity
  8
ZUWAKU
100
AcDbCircle
 10
57.31721301553671
 20
22.72500025521683
 30
0.0
 40
0.525
100
AcDbArc
 50
0.0
 51
90.0
  0
ARC
  5
9B6
330
1A
100
AcDbEntity
  8
ZUWAKU
100
AcDbCircle
 10
55.56721301553671
 20
22.72500025521683
 30
0.0
 40
0.525
100
AcDbArc
 50
90.0
 51
180.0
  0
LINE
  5
9B7
330
1A
100
AcDbEntity
  8
ZUWAKU
100
AcDbLine
 10
57.31721301553671
 20
23.25000025521684
 30
0.0
 11
55.56721301553671
 21
23.25000025521684
 31
0.0
  0
ARC
  5
9B8
330
1A
100
AcDbEntity
  8
ZUWAKU
100
AcDbCircle
 10
51.89221301553676
 20
22.72500025521683
 30
0.0
 40
0.525
100
AcDbArc
 50
0.0
 51
90.0
  0
ARC
  5
9B9
330
1A
100
AcDbEntity
  8
ZUWAKU
100
AcDbCircle
 10
51.89221301553676
 20
20.97500025521683
 30
0.0
 40
0.525
100
AcDbArc
 50
270.0
 51
0.0
  0
LINE
  5
9BA
330
1A
100
AcDbEntity
  8
ZUWAKU
100
AcDbLine
 10
52.41721301553673
 20
22.72500025521683
 30
0.0
 11
52.41721301553673
 21
20.97500025521683
 31
0.0
  0
LINE
  5
9BB
330
1A
100
AcDbEntity
  8
ZUWAKU
100
AcDbLine
 10
68.51721301553675
 20
23.25000025521684
 30
0.0
 11
66.76721301553675
 21
23.25000025521684
 31
0.0
  0
ARC
  5
9BC
330
1A
100
AcDbEntity
  8
ZUWAKU
100
AcDbCircle
 10
66.76721301553675
 20
22.72500025521683
 30
0.0
 40
0.525
100
AcDbArc
 50
90.0
 51
180.0
  0
ARC
  5
9BD
330
1A
100
AcDbEntity
  8
ZUWAKU
100
AcDbCircle
 10
63.61721301553666
 20
22.72500025521683
 30
0.0
 40
0.525
100
AcDbArc
 50
0.0
 51
90.0
  0
LINE
  5
9BE
330
1A
100
AcDbEntity
  8
ZUWAKU
100
AcDbLine
 10
63.61721301553666
 20
23.25000025521684
 30
0.0
 11
61.86721301553666
 21
23.25000025521684
 31
0.0
  0
ARC
  5
9BF
330
1A
100
AcDbEntity
  8
ZUWAKU
100
AcDbCircle
 10
61.86721301553666
 20
22.72500025521683
 30
0.0
 40
0.525
100
AcDbArc
 50
90.0
 51
180.0
  0
ARC
  5
9C0
330
1A
100
AcDbEntity
  8
ZUWAKU
100
AcDbCircle
 10
68.51721301553675
 20
22.72500025521683
 30
0.0
 40
0.525
100
AcDbArc
 50
0.0
 51
90.0
  0
TEXT
  5
9C1
330
1A
100
AcDbEntity
  8
MOJI
100
AcDbText
 10
239.8272035416066
 20
3.204921312624254
 30
0.0
 40
5.599999999999999
  1
ＲＶ１０５－０－１０～４５
 41
0.9
  7
ｽﾀｲﾙ1
100
AcDbText
  0
TEXT
  5
9C2
330
1A
100
AcDbEntity
  8
MOJI
100
AcDbText
 10
239.8272035416066
 20
18.00492131262421
 30
0.0
 40
5.599999999999999
  1
ブラケット正面打（吊）自在式
 41
0.9
  7
ｽﾀｲﾙ1
100
AcDbText
  0
LINE
  5
9C3
330
1A
100
AcDbEntity
  8
ZUWAKU
100
AcDbLine
 10
208.2466021508234
 20
30.00000025521683
 30
0.0
 11
208.2466021508234
 21
0.8000002552169007
 31
0.0
  0
LINE
  5
9C4
330
1A
100
AcDbEntity
  8
ZUWAKU
100
AcDbLine
 10
208.6466021508233
 20
30.00000025521683
 30
0.0
 11
208.6466021508235
 21
0.8000002552169007
 31
0.0
  0
LINE
  5
9C5
330
1A
100
AcDbEntity
  8
ZUWAKU
100
AcDbLine
 10
208.4466021508233
 20
30.00000025521683
 30
0.0
 11
208.4466021508235
 21
0.8000002552169007
 31
0.0
  0
TEXT
  5
9C6
330
1A
100
AcDbEntity
  8
ZUWAKU
100
AcDbText
 10
209.7240471730331
 20
9.65535679360245
 30
0.0
 40
4.0
  1
サイズ
 41
0.9
  7
ｽﾀｲﾙ1
100
AcDbText
  0
TEXT
  5
9C7
330
1A
100
AcDbEntity
  8
ZUWAKU
100
AcDbText
 10
209.7240471730328
 20
24.05535679360241
 30
0.0
 40
4.0
  1
品名
 41
0.9
  7
ｽﾀｲﾙ1
100
AcDbText
  0
LINE
  5
9C8
330
1A
100
AcDbEntity
  8
ZUWAKU
100
AcDbLine
 10
648.8172033709597
 20
15.20000025521686
 30
0.0
 11
697.2490114092968
 21
15.20000025521686
 31
0.0
  0
LINE
  5
9C9
330
1A
100
AcDbEntity
  8
ZUWAKU
100
AcDbLine
 10
648.81720337096
 20
15.40000025521687
 30
0.0
 11
697.2490114092968
 21
15.40000025521686
 31
0.0
  0
LINE
  5
9CA
330
1A
100
AcDbEntity
  8
ZUWAKU
100
AcDbLine
 10
648.8172033709597
 20
15.60000025521686
 30
0.0
 11
697.2490114092968
 21
15.60000025521686
 31
0.0
  0
TEXT
  5
9CB
330
1A
100
AcDbEntity
  8
ZUWAKU
100
AcDbText
 10
658.2039385480579
 20
18.00492131262421
 30
0.0
 40
5.599999999999999
  1
　　．　　．　　
 41
0.9
  7
ｽﾀｲﾙ1
100
AcDbText
  0
LINE
  5
9CC
330
1A
100
AcDbEntity
  8
ZUWAKU
100
AcDbLine
 10
505.1991803588964
 20
15.20000025521687
 30
0.0
 11
552.526956626868
 21
15.20000025521687
 31
0.0
  0
LINE
  5
9CD
330
1A
100
AcDbEntity
  8
ZUWAKU
100
AcDbLine
 10
505.1991803588964
 20
15.40000025521686
 30
0.0
 11
552.526956626868
 21
15.40000025521686
 31
0.0
  0
LINE
  5
9CE
330
1A
100
AcDbEntity
  8
ZUWAKU
100
AcDbLine
 10
505.1991803588964
 20
15.60000025521686
 30
0.0
 11
552.526956626868
 21
15.60000025521686
 31
0.0
  0
TEXT
  5
9CF
330
1A
100
AcDbEntity
  8
MOJI
100
AcDbText
 10
464.5946268639945
 20
11.94261797687681
 30
0.0
 40
5.599999999999999
  1
ＬＨ５６□
 41
0.9
  7
ｽﾀｲﾙ1
100
AcDbText
  0
LINE
  5
9D0
330
1A
100
AcDbEntity
  8
ZUWAKU
100
AcDbLine
 10
447.6243648317468
 20
30.00000025521683
 30
0.0
 11
447.624364831747
 21
0.8000002552169007
 31
0.0
  0
LINE
  5
9D1
330
1A
100
AcDbEntity
  8
ZUWAKU
100
AcDbLine
 10
447.8243648317468
 20
30.00000025521683
 30
0.0
 11
447.824364831747
 21
0.8000002552169007
 31
0.0
  0
LINE
  5
9D2
330
1A
100
AcDbEntity
  8
ZUWAKU
100
AcDbLine
 10
447.4243648317469
 20
30.00000025521683
 30
0.0
 11
447.4243648317469
 21
0.8000002552169007
 31
0.0
  0
TEXT
  5
9D3
330
1A
100
AcDbEntity
  8
MOJI
100
AcDbText
 10
528.0409088330684
 20
18.00492131262421
 30
0.0
 40
5.599999999999999
  1
Ａ３
 41
0.9
  7
ｽﾀｲﾙ1
100
AcDbText
  0
LINE
  5
9D4
330
1A
100
AcDbEntity
  8
ZUWAKU
100
AcDbLine
 10
504.9991803588964
 20
30.00000025521683
 30
0.0
 11
504.9991803588966
 21
0.8000002552169007
 31
0.0
  0
LINE
  5
9D5
330
1A
100
AcDbEntity
  8
ZUWAKU
100
AcDbLine
 10
505.1991803588964
 20
30.00000025521683
 30
0.0
 11
505.1991803588967
 21
0.8000002552169007
 31
0.0
  0
LINE
  5
9D6
330
1A
100
AcDbEntity
  8
ZUWAKU
100
AcDbLine
 10
504.7991803588965
 20
30.00000025521683
 30
0.0
 11
504.7991803588965
 21
0.8000002552169007
 31
0.0
  0
TEXT
  5
9D7
330
1A
100
AcDbEntity
  8
ZUWAKU
100
AcDbText
 10
462.6937625162627
 20
2.614071166356325
 30
0.0
 40
3.0
  1
□には色品番が入ります
 41
0.9
  7
ｽﾀｲﾙ1
100
AcDbText
  0
TEXT
  5
9D8
330
1A
100
AcDbEntity
  8
ZUWAKU
100
AcDbText
 10
506.6766253811063
 20
9.65535679360245
 30
0.0
 40
4.0
  1
縮尺
 41
0.9
  7
ｽﾀｲﾙ1
100
AcDbText
  0
TEXT
  5
9D9
330
1A
100
AcDbEntity
  8
MOJI
100
AcDbText
 10
528.0409088330684
 20
3.204921312624254
 30
0.0
 40
5.599999999999999
  1
１/２
 41
0.9
  7
ｽﾀｲﾙ1
100
AcDbText
  0
TEXT
  5
9DA
330
1A
100
AcDbEntity
  8
ZUWAKU
100
AcDbText
 10
449.3018098539564
 20
24.05535679360241
 30
0.0
 40
4.0
  1
品番
 41
0.9
  7
ｽﾀｲﾙ1
100
AcDbText
  0
TEXT
  5
9DB
330
1A
100
AcDbEntity
  8
ZUWAKU
100
AcDbText
 10
506.676625381106
 20
24.05535679360241
 30
0.0
 40
4.0
  1
用紙
 41
0.9
  7
ｽﾀｲﾙ1
100
AcDbText
  0
LINE
  5
9DC
330
1A
100
AcDbEntity
  8
ZUWAKU
100
AcDbLine
 10
648.6172033709599
 20
30.00000025521683
 30
0.0
 11
648.6172033709602
 21
0.8000002552169007
 31
0.0
  0
LINE
  5
9DD
330
1A
100
AcDbEntity
  8
ZUWAKU
100
AcDbLine
 10
648.81720337096
 20
30.00000025521683
 30
0.0
 11
648.8172033709602
 21
0.8000002552169007
 31
0.0
  0
LINE
  5
9DE
330
1A
100
AcDbEntity
  8
ZUWAKU
100
AcDbLine
 10
648.4172033709601
 20
30.00000025521683
 30
0.0
 11
648.4172033709601
 21
0.8000002552169007
 31
0.0
  0
LINE
  5
9DF
330
1A
100
AcDbEntity
  8
ZUWAKU
100
AcDbLine
 10
552.7269566268678
 20
30.00000025521683
 30
0.0
 11
552.726956626868
 21
0.8000002552169007
 31
0.0
  0
LINE
  5
9E0
330
1A
100
AcDbEntity
  8
ZUWAKU
100
AcDbLine
 10
552.9269566268679
 20
30.00000025521683
 30
0.0
 11
552.9269566268681
 21
0.8000002552169007
 31
0.0
  0
LINE
  5
9E1
330
1A
100
AcDbEntity
  8
ZUWAKU
100
AcDbLine
 10
552.526956626868
 20
30.00000025521683
 30
0.0
 11
552.526956626868
 21
0.8000002552169007
 31
0.0
  0
TEXT
  5
9E2
330
1A
100
AcDbEntity
  8
ZUWAKU
100
AcDbText
 10
650.2946483931696
 20
24.05535679360241
 30
0.0
 40
4.0
  1
DATE
 41
0.9
  7
ｽﾀｲﾙ1
100
AcDbText
  0
LINE
  5
9E3
330
1A
100
AcDbEntity
  8
ZUWAKU
100
AcDbLine
 10
697.2490114092968
 20
30.00000025521683
 30
0.0
 11
697.2490114092968
 21
0.8000002552169007
 31
0.0
  0
LINE
  5
9E4
330
1A
100
AcDbEntity
  8
ZUWAKU
100
AcDbLine
 10
697.4490114092969
 20
30.00000025521683
 30
0.0
 11
697.4490114092969
 21
0.8000002552169007
 31
0.0
  0
LINE
  5
9E5
330
1A
100
AcDbEntity
  8
ZUWAKU
100
AcDbLine
 10
697.6490114092967
 20
30.00000025521683
 30
0.0
 11
697.6490114092968
 21
0.8000002552169007
 31
0.0
  0
LINE
  5
9E6
330
1A
100
AcDbEntity
  8
ZUWAKU
100
AcDbLine
 10
697.8490114092967
 20
30.00000025521683
 30
0.0
 11
697.8490114092969
 21
0.8000002552169007
 31
0.0
  0
TEXT
  5
9E7
330
1A
100
AcDbEntity
  8
ZUWAKU
100
AcDbText
 10
708.5280850529994
 20
17.55383959090363
 30
0.0
 40
6.0
  1
積水化学工業株式会社
 41
0.9
  7
ｽﾀｲﾙ1
100
AcDbText
  0
TEXT
  5
9E8
330
1A
100
AcDbEntity
  8
ZUWAKU
100
AcDbText
 10
708.5280850529994
 20
6.648840569070898
 30
0.0
 40
6.0
  1
建材事業部
 41
0.9
  7
ｽﾀｲﾙ1
100
AcDbText
  0
VIEWPORT
  5
22
330
17
100
AcDbEntity
 67
     1
  8
0
100
AcDbViewport
 10
313.6808219178082
 20
148.5
 30
0.0
 40
627.3616438356165
 41
297.0
 68
     2
 69
     1
1001
ACAD
1000
MVIEW
1002
{
1070
    16
1010
0.0
1020
0.0
1030
0.0
1010
0.0
1020
0.0
1030
1.0
1040
0.0
1040
297.0
1040
313.6808219178082
1040
148.5
1040
50.0
1040
0.0
1040
0.0
1070
     0
1070
   100
1070
     1
1070
     0
1070
     0
1070
     0
1070
     0
1070
     0
1040
0.0
1040
0.0
1040
0.0
1040
1.0
1040
1.0
1040
10.0
1040
10.0
1070
     0
1002
{
1002
}
1002
}
  0
VIEWPORT
  5
64
330
17
100
AcDbEntity
 67
     1
  8
VIEWPORT
100
AcDbViewport
 10
210.0
 20
148.5
 30
0.0
 40
420.0
 41
297.0
 68
     1
 69
     2
1001
ACAD
1000
MVIEW
1002
{
1070
    16
1010
0.0
1020
0.0
1030
0.0
1010
0.0
1020
0.0
1030
1.0
1040
0.0
1040
605.8799999999998
1040
420.0
1040
297.0
1040
50.0
1040
0.0
1040
0.0
1070
     0
1070
   100
1070
     1
1070
     0
1070
     0
1070
     0
1070
     0
1070
     0
1040
0.0
1040
0.0
1040
0.0
1040
10.0
1040
10.0
1040
0.0
1040
0.0
1070
     0
1002
{
1002
}
1002
}
  0
ENDSEC
  0
SECTION
  2
OBJECTS
  0
DICTIONARY
  5
C
330
0
100
AcDbDictionary
  3
ACAD_GROUP
350
D
  3
ACAD_LAYOUT
350
807
  3
ACAD_MLINESTYLE
350
E
  3
ACAD_PLOTSETTINGS
350
808
  3
ACAD_PLOTSTYLENAME
350
805
  3
ACDBHEADERROUNDTRIPXREC
350
9F0
  0
DICTIONARY
  5
836
330
1A
100
AcDbDictionary
280
     1
  3
ACAD_LAYOUTSELFREF
360
A12
  0
DICTIONARY
  5
834
330
17
100
AcDbDictionary
280
     1
  3
ACAD_LAYOUTSELFREF
360
A11
  0
DICTIONARY
  5
D
102
{ACAD_REACTORS
330
C
102
}
330
C
100
AcDbDictionary
  0
DICTIONARY
  5
807
102
{ACAD_REACTORS
330
C
102
}
330
C
100
AcDbDictionary
  0
DICTIONARY
  5
E
102
{ACAD_REACTORS
330
C
102
}
330
C
100
AcDbDictionary
  3
STANDARD
350
13
  0
DICTIONARY
  5
808
102
{ACAD_REACTORS
330
C
102
}
330
C
100
AcDbDictionary
  0
ACDBDICTIONARYWDFLT
  5
805
102
{ACAD_REACTORS
330
C
102
}
330
C
100
AcDbDictionary
281
     1
  3
Normal
350
806
100
AcDbDictionaryWithDefault
340
806
1001
ACAD
1000
TREAT_AS_HARD
1070
     0
1000
TREAT_AS_HARD
1070
     0
  0
DICTIONARY
  5
9F0
102
{ACAD_REACTORS
330
C
102
}
330
C
100
AcDbDictionary
  3
TSTACKALIGN
350
9F1
  3
TSTACKSIZE
350
9F2
  3
HYPERLINKBASE
350
9F3
  3
STYLESHEET
350
9F4
  3
LAYOUTDICT
350
9F5
  3
PLOTSETDICT
350
9F6
  3
PLOTSTYLNAMDICT
350
9F7
  3
LWETCUNION
350
9F8
  3
INSUNITS
350
9F9
  3
CEPSNTYPE
350
9FA
  3
FINGERPRINTGUID
350
9FB
  3
VERSIONGUID
350
9FC
  3
PSVPSCALE
350
9FD
  3
DIMSTYLEDATA
350
9FE
  3
PUCSORTHOREF
350
9FF
  3
PUCSORTHOVIEW
350
A00
  3
PUCSBASE
350
A01
  3
PUCSORGTOP
350
A02
  3
PUCSORGBOTTOM
350
A03
  3
PUCSORGLEFT
350
A04
  3
PUCSORGRIGHT
350
A05
  3
PUCSORGFRONT
350
A06
  3
PUCSORGBACK
350
A07
  3
UCSORTHOREF
350
A08
  3
UCSORTHOVIEW
350
A09
  3
UCSBASE
350
A0A
  3
UCSORGTOP
350
A0B
  3
UCSORGBOTTOM
350
A0C
  3
UCSORGLEFT
350
A0D
  3
UCSORGRIGHT
350
A0E
  3
UCSORGFRONT
350
A0F
  3
UCSORGBACK
350
A10
  0
XRECORD
  5
A12
102
{ACAD_REACTORS
330
836
102
}
330
836
100
AcDbXrecord
340
1A
  0
XRECORD
  5
A11
102
{ACAD_REACTORS
330
834
102
}
330
834
100
AcDbXrecord
340
17
  0
MLINESTYLE
  5
13
102
{ACAD_REACTORS
330
E
102
}
330
E
100
AcDbMlineStyle
  2
STANDARD
 70
     0
  3

 62
     0
 51
90.0
 52
90.0
 71
     2
 49
0.5
 62
   256
  6
BYLAYER
 49
-0.5
 62
   256
  6
BYLAYER
  0
ACDBPLACEHOLDER
  5
806
102
{ACAD_REACTORS
330
805
102
}
330
805
100
AcDbPlaceHolder
280
     0
  0
XRECORD
  5
9F1
102
{ACAD_REACTORS
330
9F0
102
}
330
9F0
100
AcDbXrecord
 90
        1
  0
XRECORD
  5
9F2
102
{ACAD_REACTORS
330
9F0
102
}
330
9F0
100
AcDbXrecord
 90
       70
  0
XRECORD
  5
9F3
102
{ACAD_REACTORS
330
9F0
102
}
330
9F0
100
AcDbXrecord
  1

  0
XRECORD
  5
9F4
102
{ACAD_REACTORS
330
9F0
102
}
330
9F0
100
AcDbXrecord
  1
systemprinter.ctb
  0
XRECORD
  5
9F5
102
{ACAD_REACTORS
330
9F0
102
}
330
9F0
100
AcDbXrecord
340
807
  0
XRECORD
  5
9F6
102
{ACAD_REACTORS
330
9F0
102
}
330
9F0
100
AcDbXrecord
340
808
  0
XRECORD
  5
9F7
102
{ACAD_REACTORS
330
9F0
102
}
330
9F0
100
AcDbXrecord
340
805
  0
XRECORD
  5
9F8
102
{ACAD_REACTORS
330
9F0
102
}
330
9F0
100
AcDbXrecord
 90
    10781
  0
XRECORD
  5
9F9
102
{ACAD_REACTORS
330
9F0
102
}
330
9F0
100
AcDbXrecord
 90
        0
  0
XRECORD
  5
9FA
102
{ACAD_REACTORS
330
9F0
102
}
330
9F0
100
AcDbXrecord
 90
        0
  0
XRECORD
  5
9FB
102
{ACAD_REACTORS
330
9F0
102
}
330
9F0
100
AcDbXrecord
  1
{8BA6F893-375B-43B1-AB76-91DDB17A2D0D}
  0
XRECORD
  5
9FC
102
{ACAD_REACTORS
330
9F0
102
}
330
9F0
100
AcDbXrecord
  1
{0D4539DD-808A-4202-842C-DFE47ECBFF74}
  0
XRECORD
  5
9FD
102
{ACAD_REACTORS
330
9F0
102
}
330
9F0
100
AcDbXrecord
 40
0.0
  0
XRECORD
  5
9FE
102
{ACAD_REACTORS
330
9F0
102
}
330
9F0
100
AcDbXrecord
1000
DSTYLE
1002
{
1070
   341
340
6D
1070
   343
340
6D
1070
   344
340
6D
1070
   371
 70
    -1
1070
   372
 70
    -1
1002
}
  0
XRECORD
  5
9FF
102
{ACAD_REACTORS
330
9F0
102
}
330
9F0
100
AcDbXrecord
340
0
  0
XRECORD
  5
A00
102
{ACAD_REACTORS
330
9F0
102
}
330
9F0
100
AcDbXrecord
 70
     0
  0
XRECORD
  5
A01
102
{ACAD_REACTORS
330
9F0
102
}
330
9F0
100
AcDbXrecord
340
0
  0
XRECORD
  5
A02
102
{ACAD_REACTORS
330
9F0
102
}
330
9F0
100
AcDbXrecord
 10
0.0
 20
0.0
 30
0.0
  0
XRECORD
  5
A03
102
{ACAD_REACTORS
330
9F0
102
}
330
9F0
100
AcDbXrecord
 10
0.0
 20
0.0
 30
0.0
  0
XRECORD
  5
A04
102
{ACAD_REACTORS
330
9F0
102
}
330
9F0
100
AcDbXrecord
 10
0.0
 20
0.0
 30
0.0
  0
XRECORD
  5
A05
102
{ACAD_REACTORS
330
9F0
102
}
330
9F0
100
AcDbXrecord
 10
0.0
 20
0.0
 30
0.0
  0
XRECORD
  5
A06
102
{ACAD_REACTORS
330
9F0
102
}
330
9F0
100
AcDbXrecord
 10
0.0
 20
0.0
 30
0.0
  0
XRECORD
  5
A07
102
{ACAD_REACTORS
330
9F0
102
}
330
9F0
100
AcDbXrecord
 10
0.0
 20
0.0
 30
0.0
  0
XRECORD
  5
A08
102
{ACAD_REACTORS
330
9F0
102
}
330
9F0
100
AcDbXrecord
340
0
  0
XRECORD
  5
A09
102
{ACAD_REACTORS
330
9F0
102
}
330
9F0
100
AcDbXrecord
 70
     0
  0
XRECORD
  5
A0A
102
{ACAD_REACTORS
330
9F0
102
}
330
9F0
100
AcDbXrecord
340
0
  0
XRECORD
  5
A0B
102
{ACAD_REACTORS
330
9F0
102
}
330
9F0
100
AcDbXrecord
 10
0.0
 20
0.0
 30
0.0
  0
XRECORD
  5
A0C
102
{ACAD_REACTORS
330
9F0
102
}
330
9F0
100
AcDbXrecord
 10
0.0
 20
0.0
 30
0.0
  0
XRECORD
  5
A0D
102
{ACAD_REACTORS
330
9F0
102
}
330
9F0
100
AcDbXrecord
 10
0.0
 20
0.0
 30
0.0
  0
XRECORD
  5
A0E
102
{ACAD_REACTORS
330
9F0
102
}
330
9F0
100
AcDbXrecord
 10
0.0
 20
0.0
 30
0.0
  0
XRECORD
  5
A0F
102
{ACAD_REACTORS
330
9F0
102
}
330
9F0
100
AcDbXrecord
 10
0.0
 20
0.0
 30
0.0
  0
XRECORD
  5
A10
102
{ACAD_REACTORS
330
9F0
102
}
330
9F0
100
AcDbXrecord
 10
0.0
 20
0.0
 30
0.0
  0
ENDSEC
  0
EOF
