  0
SECTION
  2
HEADER
  9
$ACADVER
  1
AC1014
  9
$ACADMAINTVER
 70
     9
  9
$DWGCODEPAGE
  3
ANSI_932
  9
$INSBASE
 10
0.0
 20
0.0
 30
0.0
  9
$EXTMIN
 10
-0.0256328098773793
 20
-0.0181264410437052
 30
-0.0000000100021362
  9
$EXTMAX
 10
797.6000995626677
 20
551.6452344607209
 30
0.0000000100021363
  9
$LIMMIN
 10
0.0
 20
0.0
  9
$LIMMAX
 10
840.0
 20
594.0
  9
$ORTHOMODE
 70
     0
  9
$REGENMODE
 70
     1
  9
$FILLMODE
 70
     1
  9
$QTEXTMODE
 70
     0
  9
$MIRRTEXT
 70
     1
  9
$DRAGMODE
 70
     2
  9
$LTSCALE
 40
2.0
  9
$OSMODE
 70
    35
  9
$ATTMODE
 70
     1
  9
$TEXTSIZE
 40
5.0
  9
$TRACEWID
 40
1.0
  9
$TEXTSTYLE
  7
STANDARD
  9
$CLAYER
  8
NOKITOI
  9
$CELTYPE
  6
BYLAYER
  9
$CECOLOR
 62
   256
  9
$CELTSCALE
 40
1.0
  9
$DELOBJ
 70
     1
  9
$DISPSILH
 70
     0
  9
$DIMSCALE
 40
1.0
  9
$DIMASZ
 40
7.0
  9
$DIMEXO
 40
6.0
  9
$DIMDLI
 40
14.0
  9
$DIMRND
 40
0.0
  9
$DIMDLE
 40
0.0
  9
$DIMEXE
 40
3.0
  9
$DIMTP
 40
0.0
  9
$DIMTM
 40
0.0
  9
$DIMTXT
 40
6.0
  9
$DIMCEN
 40
150.0
  9
$DIMTSZ
 40
0.0
  9
$DIMTOL
 70
     0
  9
$DIMLIM
 70
     0
  9
$DIMTIH
 70
     0
  9
$DIMTOH
 70
     0
  9
$DIMSE1
 70
     0
  9
$DIMSE2
 70
     0
  9
$DIMTAD
 70
     3
  9
$DIMZIN
 70
     0
  9
$DIMBLK
  1

  9
$DIMASO
 70
     1
  9
$DIMSHO
 70
     1
  9
$DIMPOST
  1

  9
$DIMAPOST
  1

  9
$DIMALT
 70
     0
  9
$DIMALTD
 70
     2
  9
$DIMALTF
 40
25.4
  9
$DIMLFAC
 40
1.0
  9
$DIMTOFL
 70
     1
  9
$DIMTVP
 40
0.0
  9
$DIMTIX
 70
     0
  9
$DIMSOXD
 70
     0
  9
$DIMSAH
 70
     1
  9
$DIMBLK1
  1
OPEN
  9
$DIMBLK2
  1
OPEN
  9
$DIMSTYLE
  2
STANDARD
  9
$DIMCLRD
 70
   256
  9
$DIMCLRE
 70
   256
  9
$DIMCLRT
 70
   256
  9
$DIMTFAC
 40
1.0
  9
$DIMGAP
 40
2.0
  9
$DIMJUST
 70
     0
  9
$DIMSD1
 70
     0
  9
$DIMSD2
 70
     0
  9
$DIMTOLJ
 70
     1
  9
$DIMTZIN
 70
     0
  9
$DIMALTZ
 70
     0
  9
$DIMALTTZ
 70
     0
  9
$DIMFIT
 70
     3
  9
$DIMUPT
 70
     0
  9
$DIMUNIT
 70
     2
  9
$DIMDEC
 70
     0
  9
$DIMTDEC
 70
     0
  9
$DIMALTU
 70
     2
  9
$DIMALTTD
 70
     2
  9
$DIMTXSTY
  7
STANDARD
  9
$DIMAUNIT
 70
     0
  9
$LUNITS
 70
     2
  9
$LUPREC
 70
     4
  9
$SKETCHINC
 40
1.0
  9
$FILLETRAD
 40
20.0
  9
$AUNITS
 70
     0
  9
$AUPREC
 70
     0
  9
$MENU
  1
.
  9
$ELEVATION
 40
0.0
  9
$PELEVATION
 40
0.0
  9
$THICKNESS
 40
0.0
  9
$LIMCHECK
 70
     0
  9
$BLIPMODE
 70
     0
  9
$CHAMFERA
 40
20.0
  9
$CHAMFERB
 40
20.0
  9
$CHAMFERC
 40
40.0
  9
$CHAMFERD
 40
0.0
  9
$SKPOLY
 70
     0
  9
$TDCREATE
 40
2451192.393706597
  9
$TDUPDATE
 40
2453802.483176539
  9
$TDINDWG
 40
0.0216028472
  9
$TDUSRTIMER
 40
0.0216028472
  9
$USRTIMER
 70
     1
  9
$ANGBASE
 50
0.0
  9
$ANGDIR
 70
     0
  9
$PDMODE
 70
     0
  9
$PDSIZE
 40
0.0
  9
$PLINEWID
 40
0.0
  9
$COORDS
 70
     1
  9
$SPLFRAME
 70
     0
  9
$SPLINETYPE
 70
     6
  9
$SPLINESEGS
 70
     8
  9
$ATTDIA
 70
     0
  9
$ATTREQ
 70
     1
  9
$HANDLING
 70
 10241
  9
$HANDSEED
  5
A25
  9
$SURFTAB1
 70
     6
  9
$SURFTAB2
 70
     6
  9
$SURFTYPE
 70
     6
  9
$SURFU
 70
     6
  9
$SURFV
 70
     6
  9
$UCSNAME
  2

  9
$UCSORG
 10
0.0
 20
0.0
 30
0.0
  9
$UCSXDIR
 10
1.0
 20
0.0
 30
0.0
  9
$UCSYDIR
 10
0.0
 20
1.0
 30
0.0
  9
$PUCSNAME
  2

  9
$PUCSORG
 10
0.0
 20
0.0
 30
0.0
  9
$PUCSXDIR
 10
1.0
 20
0.0
 30
0.0
  9
$PUCSYDIR
 10
0.0
 20
1.0
 30
0.0
  9
$USERI1
 70
     0
  9
$USERI2
 70
     0
  9
$USERI3
 70
     0
  9
$USERI4
 70
     0
  9
$USERI5
 70
     0
  9
$USERR1
 40
0.0
  9
$USERR2
 40
0.0
  9
$USERR3
 40
0.0
  9
$USERR4
 40
0.0
  9
$USERR5
 40
0.0
  9
$WORLDVIEW
 70
     1
  9
$SHADEDGE
 70
     3
  9
$SHADEDIF
 70
    70
  9
$TILEMODE
 70
     1
  9
$MAXACTVP
 70
    16
  9
$PINSBASE
 10
0.0
 20
0.0
 30
0.0
  9
$PLIMCHECK
 70
     0
  9
$PEXTMIN
 10
0.0
 20
0.0
 30
0.0
  9
$PEXTMAX
 10
420.0
 20
297.0
 30
0.0
  9
$PLIMMIN
 10
0.0
 20
0.0
  9
$PLIMMAX
 10
420.0
 20
297.0
  9
$UNITMODE
 70
     0
  9
$VISRETAIN
 70
     0
  9
$PLINEGEN
 70
     0
  9
$PSLTSCALE
 70
     1
  9
$TREEDEPTH
 70
  3020
  9
$PICKSTYLE
 70
     1
  9
$CMLSTYLE
  2
STANDARD
  9
$CMLJUST
 70
     0
  9
$CMLSCALE
 40
1.0
  9
$PROXYGRAPHICS
 70
     1
  9
$MEASUREMENT
 70
     1
  0
ENDSEC
  0
SECTION
  2
CLASSES
  0
CLASS
  1
ACDBDICTIONARYWDFLT
  2
AcDbDictionaryWithDefault
  3
AutoCAD 2000
 90
        0
280
     0
281
     0
  0
CLASS
  1
ACDBPLACEHOLDER
  2
AcDbPlaceHolder
  3
AutoCAD 2000
 90
        0
280
     0
281
     0
  0
CLASS
  1
LAYOUT
  2
AcDbLayout
  3
AutoCAD 2000
 90
        0
280
     0
281
     0
  0
CLASS
  1
LONG_TRANSACTION
  2
AcDbLongTransaction
  3
AutoCAD 2000
 90
        0
280
     0
281
     0
  0
CLASS
  1
LWPOLYLINE
  2
AcDbPolyline
  3
AutoCAD 2000
 90
        0
280
     0
281
     1
  0
CLASS
  1
HATCH
  2
AcDbHatch
  3
AutoCAD 2000
 90
        0
280
     0
281
     1
  0
CLASS
  1
XRECORD
  2
AcDbXrecord
  3
AutoCAD 2000
 90
        0
280
     0
281
     0
  0
CLASS
  1
LONG_TRANSACTION
  2
AcDbLongTransaction
  3
AutoCAD 2000
 90
        0
280
     0
281
     0
  0
CLASS
  1
LWPOLYLINE
  2
AcDbPolyline
  3
AutoCAD 2000
 90
        0
280
     0
281
     1
  0
CLASS
  1
HATCH
  2
AcDbHatch
  3
AutoCAD 2000
 90
        0
280
     0
281
     1
  0
CLASS
  1
XRECORD
  2
AcDbXrecord
  3
AutoCAD 2000
 90
        0
280
     0
281
     0
  0
ENDSEC
  0
SECTION
  2
TABLES
  0
TABLE
  2
VPORT
  5
8
330
0
100
AcDbSymbolTable
 70
     2
  0
VPORT
  5
A01
330
8
100
AcDbSymbolTableRecord
100
AcDbViewportTableRecord
  2
*ACTIVE
 70
     0
 10
0.0
 20
0.0
 11
1.0
 21
1.0
 12
446.6129153464203
 22
285.3230104148951
 13
0.0
 23
0.0
 14
5.0
 24
5.0
 15
0.0
 25
0.0
 16
0.0
 26
0.0
 36
1.0
 17
0.0
 27
0.0
 37
0.0
 40
627.1845111330693
 41
1.795454545454545
 42
50.0
 43
0.0
 44
0.0
 50
0.0
 51
0.0
 71
     0
 72
   100
 73
     1
 74
     0
 75
     0
 76
     0
 77
     0
 78
     0
  0
ENDTAB
  0
TABLE
  2
LTYPE
  5
5
330
0
100
AcDbSymbolTable
 70
     3
  0
LTYPE
  5
14
330
5
100
AcDbSymbolTableRecord
100
AcDbLinetypeTableRecord
  2
BYBLOCK
 70
     0
  3

 72
    65
 73
     0
 40
0.0
  0
LTYPE
  5
15
330
5
100
AcDbSymbolTableRecord
100
AcDbLinetypeTableRecord
  2
BYLAYER
 70
     0
  3

 72
    65
 73
     0
 40
0.0
  0
LTYPE
  5
16
330
5
100
AcDbSymbolTableRecord
100
AcDbLinetypeTableRecord
  2
CONTINUOUS
 70
     0
  3
Solid line
 72
    65
 73
     0
 40
0.0
  0
LTYPE
  5
115
330
5
100
AcDbSymbolTableRecord
100
AcDbLinetypeTableRecord
  2
PHANTOM
 70
     0
  3
______  __  __  ______  __  __  ______  __  __ 
 72
    65
 73
     6
 40
2.5
 49
1.25
 74
     0
 49
-0.25
 74
     0
 49
0.25
 74
     0
 49
-0.25
 74
     0
 49
0.25
 74
     0
 49
-0.25
 74
     0
  0
LTYPE
  5
135
330
5
100
AcDbSymbolTableRecord
100
AcDbLinetypeTableRecord
  2
CENTER
 70
     0
  3
____ _ ____ _ ____ _ ____ _ ____ _ ____ _ ____ 
 72
    65
 73
     4
 40
2.0
 49
1.25
 74
     0
 49
-0.25
 74
     0
 49
0.25
 74
     0
 49
-0.25
 74
     0
  0
ENDTAB
  0
TABLE
  2
LAYER
  5
2
330
0
100
AcDbSymbolTable
 70
     9
  0
LAYER
  5
F
330
2
100
AcDbSymbolTableRecord
100
AcDbLayerTableRecord
  2
0
 70
     0
 62
     7
  6
CONTINUOUS
  0
LAYER
  5
62
330
2
100
AcDbSymbolTableRecord
100
AcDbLayerTableRecord
  2
VIEWPORT
 70
     0
 62
     7
  6
CONTINUOUS
  0
LAYER
  5
65
330
2
100
AcDbSymbolTableRecord
100
AcDbLayerTableRecord
  2
ZUWAKU
 70
     0
 62
     7
  6
CONTINUOUS
  0
LAYER
  5
143
330
2
100
AcDbSymbolTableRecord
100
AcDbLayerTableRecord
  2
SEIHIN
 70
     0
 62
     3
  6
CONTINUOUS
  0
LAYER
  5
144
330
2
100
AcDbSymbolTableRecord
100
AcDbLayerTableRecord
  2
SUNPOU
 70
     0
 62
     4
  6
CONTINUOUS
  0
LAYER
  5
145
330
2
100
AcDbSymbolTableRecord
100
AcDbLayerTableRecord
  2
CENTER_L
 70
     0
 62
     1
  6
CENTER
  0
LAYER
  5
441
330
2
100
AcDbSymbolTableRecord
100
AcDbLayerTableRecord
  2
DEFPOINTS
 70
     0
 62
     7
  6
CONTINUOUS
  0
LAYER
  5
454
330
2
100
AcDbSymbolTableRecord
100
AcDbLayerTableRecord
  2
NOKITOI
 70
     0
 62
     8
  6
PHANTOM
  0
LAYER
  5
88A
330
2
100
AcDbSymbolTableRecord
100
AcDbLayerTableRecord
  2
MOJI
 70
     0
 62
     2
  6
CONTINUOUS
  0
ENDTAB
  0
TABLE
  2
STYLE
  5
3
330
0
100
AcDbSymbolTable
 70
     2
  0
STYLE
  5
10
330
3
100
AcDbSymbolTableRecord
100
AcDbTextStyleTableRecord
  2
STANDARD
 70
     0
 40
0.0
 41
1.0
 50
0.0
 71
     0
 42
5.0
  3
TXT
  4
bigfont.shx
  0
STYLE
  5
88B
330
3
100
AcDbSymbolTableRecord
100
AcDbTextStyleTableRecord
  2
ｽﾀｲﾙ1
 70
     0
 40
0.0
 41
1.0
 50
0.0
 71
     0
 42
2.5
  3
MS PGothic.ttf
  4

1001
ACAD
1000
MS PGothic
1071
    32818
  0
ENDTAB
  0
TABLE
  2
VIEW
  5
6
330
0
100
AcDbSymbolTable
 70
     0
  0
ENDTAB
  0
TABLE
  2
UCS
  5
7
330
0
100
AcDbSymbolTable
 70
     0
  0
ENDTAB
  0
TABLE
  2
APPID
  5
9
330
0
100
AcDbSymbolTable
 70
     1
  0
APPID
  5
11
330
9
100
AcDbSymbolTableRecord
100
AcDbRegAppTableRecord
  2
ACAD
 70
     0
  0
ENDTAB
  0
TABLE
  2
DIMSTYLE
  5
A
330
0
100
AcDbSymbolTable
 70
     1
  0
DIMSTYLE
105
1D
102
{ACAD_REACTORS
330
446
330
453
330
609
330
618
330
625
330
634
330
643
330
652
330
686
330
745
330
754
330
763
330
770
330
77D
330
793
330
7C7
102
}
330
A
100
AcDbSymbolTableRecord
100
AcDbDimStyleTableRecord
  2
STANDARD
 70
     0
  3

  4

  5

  6

  7

 40
1.0
 41
0.18
 42
0.0625
 43
0.38
 44
0.18
 45
0.0
 46
0.0
 47
0.0
 48
0.0
140
0.18
141
0.09
142
0.0
143
25.4
144
1.0
145
0.0
146
1.0
147
0.09
 71
     0
 72
     0
 73
     1
 74
     1
 75
     0
 76
     0
 77
     0
 78
     0
170
     0
171
     2
172
     0
173
     0
174
     0
175
     0
176
     0
177
     0
178
     0
270
     2
271
     4
272
     4
273
     2
274
     2
340
10
275
     0
280
     0
281
     0
282
     0
283
     1
284
     0
285
     0
286
     0
287
     3
288
     0
  0
ENDTAB
  0
TABLE
  2
BLOCK_RECORD
  5
1
330
0
100
AcDbSymbolTable
 70
    17
  0
BLOCK_RECORD
  5
1A
102
{ACAD_XDICTIONARY
360
87C
102
}
330
1
100
AcDbSymbolTableRecord
100
AcDbBlockTableRecord
  2
*MODEL_SPACE
  0
BLOCK_RECORD
  5
17
102
{ACAD_XDICTIONARY
360
87A
102
}
330
1
100
AcDbSymbolTableRecord
100
AcDbBlockTableRecord
  2
*PAPER_SPACE
  0
BLOCK_RECORD
  5
6D
330
1
100
AcDbSymbolTableRecord
100
AcDbBlockTableRecord
  2
_OPEN
  0
BLOCK_RECORD
  5
437
330
1
100
AcDbSymbolTableRecord
100
AcDbBlockTableRecord
  2
*D1
  0
BLOCK_RECORD
  5
447
330
1
100
AcDbSymbolTableRecord
100
AcDbBlockTableRecord
  2
*D2
  0
BLOCK_RECORD
  5
5FD
330
1
100
AcDbSymbolTableRecord
100
AcDbBlockTableRecord
  2
*D3
  0
BLOCK_RECORD
  5
60C
330
1
100
AcDbSymbolTableRecord
100
AcDbBlockTableRecord
  2
*D4
  0
BLOCK_RECORD
  5
619
330
1
100
AcDbSymbolTableRecord
100
AcDbBlockTableRecord
  2
*D5
  0
BLOCK_RECORD
  5
626
330
1
100
AcDbSymbolTableRecord
100
AcDbBlockTableRecord
  2
*D6
  0
BLOCK_RECORD
  5
635
330
1
100
AcDbSymbolTableRecord
100
AcDbBlockTableRecord
  2
*D7
  0
BLOCK_RECORD
  5
644
330
1
100
AcDbSymbolTableRecord
100
AcDbBlockTableRecord
  2
*D8
  0
BLOCK_RECORD
  5
67A
330
1
100
AcDbSymbolTableRecord
100
AcDbBlockTableRecord
  2
*D9
  0
BLOCK_RECORD
  5
737
330
1
100
AcDbSymbolTableRecord
100
AcDbBlockTableRecord
  2
*D10
  0
BLOCK_RECORD
  5
748
330
1
100
AcDbSymbolTableRecord
100
AcDbBlockTableRecord
  2
*D11
  0
BLOCK_RECORD
  5
755
330
1
100
AcDbSymbolTableRecord
100
AcDbBlockTableRecord
  2
*D12
  0
BLOCK_RECORD
  5
764
330
1
100
AcDbSymbolTableRecord
100
AcDbBlockTableRecord
  2
*D13
  0
BLOCK_RECORD
  5
771
330
1
100
AcDbSymbolTableRecord
100
AcDbBlockTableRecord
  2
*D14
  0
BLOCK_RECORD
  5
785
330
1
100
AcDbSymbolTableRecord
100
AcDbBlockTableRecord
  2
*D15
  0
BLOCK_RECORD
  5
7BB
330
1
100
AcDbSymbolTableRecord
100
AcDbBlockTableRecord
  2
*D16
  0
ENDTAB
  0
ENDSEC
  0
SECTION
  2
BLOCKS
  0
BLOCK
  5
1B
330
1A
100
AcDbEntity
  8
0
100
AcDbBlockBegin
  2
*MODEL_SPACE
 70
     0
 10
0.0
 20
0.0
 30
0.0
  3
*MODEL_SPACE
  1

  0
ENDBLK
  5
1C
330
1A
100
AcDbEntity
  8
0
100
AcDbBlockEnd
  0
BLOCK
  5
18
330
17
100
AcDbEntity
 67
     1
  8
0
100
AcDbBlockBegin
  2
*PAPER_SPACE
 70
     0
 10
0.0
 20
0.0
 30
0.0
  3
*PAPER_SPACE
  1

  0
ENDBLK
  5
19
330
17
100
AcDbEntity
 67
     1
  8
0
100
AcDbBlockEnd
  0
BLOCK
  5
6E
330
6D
100
AcDbEntity
  8
0
100
AcDbBlockBegin
  2
_OPEN
 70
     0
 10
0.0
 20
0.0
 30
0.0
  3
_OPEN
  1

  0
LINE
  5
6F
330
6D
100
AcDbEntity
  8
0
  6
BYBLOCK
 62
     0
100
AcDbLine
 10
-1.0
 20
0.1666666666666666
 30
0.0
 11
0.0
 21
0.0
 31
0.0
  0
LINE
  5
70
330
6D
100
AcDbEntity
  8
0
  6
BYBLOCK
 62
     0
100
AcDbLine
 10
0.0
 20
0.0
 30
0.0
 11
-1.0
 21
-0.1666666666666666
 31
0.0
  0
LINE
  5
71
330
6D
100
AcDbEntity
  8
0
  6
BYBLOCK
 62
     0
100
AcDbLine
 10
0.0
 20
0.0
 30
0.0
 11
-1.0
 21
0.0
 31
0.0
  0
ENDBLK
  5
72
330
6D
100
AcDbEntity
  8
0
100
AcDbBlockEnd
  0
BLOCK
  5
82E
330
437
100
AcDbEntity
  8
0
100
AcDbBlockBegin
  2
*D1
 70
     1
 10
0.0
 20
0.0
 30
0.0
  3
*D1
  1

  0
LINE
  5
82F
330
437
100
AcDbEntity
  8
0
  6
BYBLOCK
 62
     4
100
AcDbLine
 10
263.5010375755903
 20
468.5749216384103
 30
0.0
 11
242.5692536148198
 21
468.5749216384103
 31
0.0
  0
LINE
  5
830
330
437
100
AcDbEntity
  8
0
  6
BYBLOCK
 62
     4
100
AcDbLine
 10
263.5010375755903
 20
453.5749216384103
 30
0.0
 11
242.5692536148198
 21
453.5749216384103
 31
0.0
  0
LINE
  5
831
330
437
100
AcDbEntity
  8
0
  6
BYBLOCK
 62
     4
100
AcDbLine
 10
245.5692536148199
 20
475.5749216384104
 30
0.0
 11
245.5692536148199
 21
482.5749216384103
 31
0.0
  0
LINE
  5
832
330
437
100
AcDbEntity
  8
0
  6
BYBLOCK
 62
     4
100
AcDbLine
 10
245.5692536148199
 20
446.5749216384104
 30
0.0
 11
245.5692536148199
 21
439.5749216384103
 31
0.0
  0
LINE
  5
833
330
437
100
AcDbEntity
  8
0
  6
BYBLOCK
 62
     4
100
AcDbLine
 10
245.5692536148199
 20
468.5749216384103
 30
0.0
 11
245.5692536148199
 21
453.5749216384103
 31
0.0
  0
INSERT
  5
834
330
437
100
AcDbEntity
  8
0
  6
BYBLOCK
 62
     4
100
AcDbBlockReference
  2
_OPEN
 10
245.5692536148199
 20
468.5749216384103
 30
0.0
 41
7.0
 42
7.0
 43
7.0
 50
270.0
  0
INSERT
  5
835
330
437
100
AcDbEntity
  8
0
  6
BYBLOCK
 62
     4
100
AcDbBlockReference
  2
_OPEN
 10
245.5692536148199
 20
453.5749216384103
 30
0.0
 41
7.0
 42
7.0
 43
7.0
 50
90.0
  0
MTEXT
  5
836
330
437
100
AcDbEntity
  8
0
  6
BYBLOCK
 62
     4
100
AcDbMText
 10
240.5692536148198
 20
461.0749216384103
 30
0.0
 40
6.0
 41
0.0
 71
     5
 72
     5
  1
\A1;15
 11
0.0
 21
1.0
 31
0.0
1001
ACAD
1000
MTEXTBEGIN
1070
    73
1070
     1
1070
    44
1040
1.0
1070
    74
1070
     0
1000
MTEXTEND
1000
MTEXTBEGIN
1070
    73
1070
     1
1070
    44
1040
1.0
1070
    74
1070
     0
1000
MTEXTEND
  0
POINT
  5
837
330
437
100
AcDbEntity
  8
DEFPOINTS
  6
BYBLOCK
 62
     0
100
AcDbPoint
 10
269.5010375755903
 20
468.5749216384103
 30
0.0
  0
POINT
  5
838
330
437
100
AcDbEntity
  8
DEFPOINTS
  6
BYBLOCK
 62
     0
100
AcDbPoint
 10
269.5010375755903
 20
453.5749216384103
 30
0.0
  0
POINT
  5
839
330
437
100
AcDbEntity
  8
DEFPOINTS
  6
BYBLOCK
 62
     0
100
AcDbPoint
 10
245.5692536148199
 20
453.5749216384103
 30
0.0
  0
ENDBLK
  5
83A
330
437
100
AcDbEntity
  8
0
100
AcDbBlockEnd
  0
BLOCK
  5
823
330
447
100
AcDbEntity
  8
0
100
AcDbBlockBegin
  2
*D2
 70
     1
 10
0.0
 20
0.0
 30
0.0
  3
*D2
  1

  0
LINE
  5
824
330
447
100
AcDbEntity
  8
0
  6
BYBLOCK
 62
     4
100
AcDbLine
 10
388.8011375755904
 20
326.8071325092827
 30
0.0
 11
242.5692536148198
 21
326.8071325092827
 31
0.0
  0
LINE
  5
825
330
447
100
AcDbEntity
  8
0
  6
BYBLOCK
 62
     4
100
AcDbLine
 10
262.8382554506653
 20
296.7326325096022
 30
0.0
 11
242.5692536148198
 21
296.7326325096022
 31
0.0
  0
LINE
  5
826
330
447
100
AcDbEntity
  8
0
  6
BYBLOCK
 62
     4
100
AcDbLine
 10
245.5692536148199
 20
319.8071325092827
 30
0.0
 11
245.5692536148199
 21
303.7326325096022
 31
0.0
  0
INSERT
  5
827
330
447
100
AcDbEntity
  8
0
  6
BYBLOCK
 62
     4
100
AcDbBlockReference
  2
_OPEN
 10
245.5692536148199
 20
326.8071325092827
 30
0.0
 41
7.0
 42
7.0
 43
7.0
 50
90.0
  0
INSERT
  5
828
330
447
100
AcDbEntity
  8
0
  6
BYBLOCK
 62
     4
100
AcDbBlockReference
  2
_OPEN
 10
245.5692536148199
 20
296.7326325096022
 30
0.0
 41
7.0
 42
7.0
 43
7.0
 50
270.0
  0
MTEXT
  5
829
330
447
100
AcDbEntity
  8
0
  6
BYBLOCK
 62
     4
100
AcDbMText
 10
240.5692536148198
 20
311.7698825094425
 30
0.0
 40
6.0
 41
0.0
 71
     5
 72
     5
  1
\A1;30
 11
0.0
 21
1.0
 31
0.0
1001
ACAD
1000
MTEXTBEGIN
1070
    73
1070
     1
1070
    44
1040
1.0
1070
    74
1070
     0
1000
MTEXTEND
1000
MTEXTBEGIN
1070
    73
1070
     1
1070
    44
1040
1.0
1070
    74
1070
     0
1000
MTEXTEND
  0
POINT
  5
82A
330
447
100
AcDbEntity
  8
DEFPOINTS
  6
BYBLOCK
 62
     0
100
AcDbPoint
 10
394.8011375755904
 20
326.8071325092827
 30
0.0
  0
POINT
  5
82B
330
447
100
AcDbEntity
  8
DEFPOINTS
  6
BYBLOCK
 62
     0
100
AcDbPoint
 10
268.8382554506653
 20
296.7326325096022
 30
0.0
  0
POINT
  5
82C
330
447
100
AcDbEntity
  8
DEFPOINTS
  6
BYBLOCK
 62
     0
100
AcDbPoint
 10
245.5692536148199
 20
296.7326325096022
 30
0.0
  0
ENDBLK
  5
82D
330
447
100
AcDbEntity
  8
0
100
AcDbBlockEnd
  0
BLOCK
  5
800
330
5FD
100
AcDbEntity
  8
0
100
AcDbBlockBegin
  2
*D3
 70
     1
 10
0.0
 20
0.0
 30
0.0
  3
*D3
  1

  0
LINE
  5
801
330
5FD
100
AcDbEntity
  8
0
  6
BYBLOCK
 62
     4
100
AcDbLine
 10
400.372052339906
 20
329.0353400150441
 30
0.0
 11
411.3856009547519
 21
333.4404463085133
 31
0.0
  0
LINE
  5
802
330
5FD
100
AcDbEntity
  8
0
  6
BYBLOCK
 62
     4
100
AcDbLine
 10
418.9404523399059
 20
282.611040015044
 30
0.0
 11
429.9540009547519
 21
287.0161463085133
 31
0.0
  0
LINE
  5
803
330
5FD
100
AcDbEntity
  8
0
  6
BYBLOCK
 62
     4
100
AcDbLine
 10
424.5689681492058
 20
292.4014431140008
 30
0.0
 11
411.1997189959824
 21
325.8269419972646
 31
0.0
  0
INSERT
  5
804
330
5FD
100
AcDbEntity
  8
0
  6
BYBLOCK
 62
     4
100
AcDbBlockReference
  2
_OPEN
 10
427.1685435725941
 20
285.9020425556327
 30
0.0
 41
7.0
 42
7.0
 43
7.0
 50
291.8000050648549
  0
INSERT
  5
805
330
5FD
100
AcDbEntity
  8
0
  6
BYBLOCK
 62
     4
100
AcDbBlockReference
  2
_OPEN
 10
408.6001435725941
 20
332.3263425556327
 30
0.0
 41
7.0
 42
7.0
 43
7.0
 50
111.8000050648549
  0
MTEXT
  5
806
330
5FD
100
AcDbEntity
  8
0
  6
BYBLOCK
 62
     4
100
AcDbMText
 10
418.9987752660739
 20
319.7916523359519
 30
0.0
 40
6.0
 41
0.0
 71
     5
 72
     5
  1
\A1;50
 11
0.3713679176268904
 21
-0.9284857940525892
 31
0.0
1001
ACAD
1000
MTEXTBEGIN
1070
    73
1070
     1
1070
    44
1040
1.0
1070
    74
1070
     0
1000
MTEXTEND
1000
MTEXTBEGIN
1070
    73
1070
     1
1070
    44
1040
1.0
1070
    74
1070
     0
1000
MTEXTEND
  0
POINT
  5
807
330
5FD
100
AcDbEntity
  8
DEFPOINTS
  6
BYBLOCK
 62
     0
100
AcDbPoint
 10
394.8011375755904
 20
326.8071325092828
 30
0.0
  0
POINT
  5
808
330
5FD
100
AcDbEntity
  8
DEFPOINTS
  6
BYBLOCK
 62
     0
100
AcDbPoint
 10
413.3695375755904
 20
280.3828325092827
 30
0.0
  0
POINT
  5
809
330
5FD
100
AcDbEntity
  8
DEFPOINTS
  6
BYBLOCK
 62
     0
100
AcDbPoint
 10
427.1685435725941
 20
285.9020425556327
 30
0.0
  0
ENDBLK
  5
80A
330
5FD
100
AcDbEntity
  8
0
100
AcDbBlockEnd
  0
BLOCK
  5
692
330
60C
100
AcDbEntity
  8
0
100
AcDbBlockBegin
  2
*D4
 70
     1
 10
0.0
 20
0.0
 30
0.0
  3
*D4
  1

  0
LINE
  5
693
330
60C
100
AcDbEntity
  8
0
  6
BYBLOCK
 62
     4
100
AcDbLine
 10
495.6346305622893
 20
390.0719515711064
 30
0.0
 11
479.7302506148731
 21
429.8357381807504
 31
0.0
  0
LINE
  5
694
330
60C
100
AcDbEntity
  8
0
  6
BYBLOCK
 62
     4
100
AcDbLine
 10
554.1292388370753
 20
413.4680308825811
 30
0.0
 11
538.2248262014614
 21
453.2318992185503
 31
0.0
  0
LINE
  5
695
330
60C
100
AcDbEntity
  8
0
  6
BYBLOCK
 62
     4
100
AcDbLine
 10
487.3437549096903
 20
429.6498555489592
 30
0.0
 11
532.8395289199456
 21
447.8468668890559
 31
0.0
  0
INSERT
  5
696
330
60C
100
AcDbEntity
  8
0
  6
BYBLOCK
 62
     4
100
AcDbBlockReference
  2
_OPEN
 10
480.8443541215239
 20
427.0502807001076
 30
0.0
 41
7.0
 42
7.0
 43
7.0
 50
201.7999999999998
  0
INSERT
  5
697
330
60C
100
AcDbEntity
  8
0
  6
BYBLOCK
 62
     4
100
AcDbBlockReference
  2
_OPEN
 10
539.3389297081121
 20
450.4464417379075
 30
0.0
 41
7.0
 42
7.0
 43
7.0
 50
21.79999999999984
  0
MTEXT
  5
698
330
60C
100
AcDbEntity
  8
0
  6
BYBLOCK
 62
     4
100
AcDbMText
 10
508.2348027370668
 20
443.3907903534121
 30
0.0
 40
6.0
 41
0.0
 71
     5
 72
     5
  1
\A1;63
 11
0.9284858268809145
 21
0.3713678355502322
 31
0.0
1001
ACAD
1000
MTEXTBEGIN
1070
    73
1070
     1
1070
    44
1040
1.0
1070
    74
1070
     0
1000
MTEXTEND
1000
MTEXTBEGIN
1070
    73
1070
     1
1070
    44
1040
1.0
1070
    74
1070
     0
1000
MTEXTEND
  0
POINT
  5
699
330
60C
100
AcDbEntity
  8
DEFPOINTS
  6
BYBLOCK
 62
     0
100
AcDbPoint
 10
497.8628375755906
 20
384.5010366098208
 30
0.0
  0
POINT
  5
69A
330
60C
100
AcDbEntity
  8
DEFPOINTS
  6
BYBLOCK
 62
     0
100
AcDbPoint
 10
556.3574458503768
 20
407.8971159212955
 30
0.0
  0
POINT
  5
69B
330
60C
100
AcDbEntity
  8
DEFPOINTS
  6
BYBLOCK
 62
     0
100
AcDbPoint
 10
539.3389297081121
 20
450.4464417379075
 30
0.0
  0
ENDBLK
  5
69C
330
60C
100
AcDbEntity
  8
0
100
AcDbBlockEnd
  0
BLOCK
  5
687
330
619
100
AcDbEntity
  8
0
100
AcDbBlockBegin
  2
*D5
 70
     1
 10
0.0
 20
0.0
 30
0.0
  3
*D5
  1

  0
LINE
  5
688
330
619
100
AcDbEntity
  8
0
  6
BYBLOCK
 62
     4
100
AcDbLine
 10
501.6568305622891
 20
396.5571515711062
 30
0.0
 11
492.8026948190243
 21
418.6940701729033
 31
0.0
  0
LINE
  5
689
330
619
100
AcDbEntity
  8
0
  6
BYBLOCK
 62
     4
100
AcDbLine
 10
545.2957305622892
 20
414.0113515711061
 30
0.0
 11
536.4415552612017
 21
436.1483690745155
 31
0.0
  0
LINE
  5
68A
330
619
100
AcDbEntity
  8
0
  6
BYBLOCK
 62
     4
100
AcDbLine
 10
500.4161991138415
 20
418.5081875411122
 30
0.0
 11
531.056257979686
 21
430.7633367450212
 31
0.0
  0
INSERT
  5
68B
330
619
100
AcDbEntity
  8
0
  6
BYBLOCK
 62
     4
100
AcDbBlockReference
  2
_OPEN
 10
493.916798325675
 20
415.9086126922606
 30
0.0
 41
7.0
 42
7.0
 43
7.0
 50
201.7999999999998
  0
INSERT
  5
68C
330
619
100
AcDbEntity
  8
0
  6
BYBLOCK
 62
     4
100
AcDbBlockReference
  2
_OPEN
 10
537.5556587678524
 20
433.3629115938729
 30
0.0
 41
7.0
 42
7.0
 43
7.0
 50
21.79999999999984
  0
MTEXT
  5
68D
330
619
100
AcDbEntity
  8
0
  6
BYBLOCK
 62
     4
100
AcDbMText
 10
513.8793893690126
 20
429.2781912774713
 30
0.0
 40
6.0
 41
0.0
 71
     5
 72
     5
  1
\A1;47
 11
0.9284858268809145
 21
0.3713678355502322
 31
0.0
1001
ACAD
1000
MTEXTBEGIN
1070
    73
1070
     1
1070
    44
1040
1.0
1070
    74
1070
     0
1000
MTEXTEND
1000
MTEXTBEGIN
1070
    73
1070
     1
1070
    44
1040
1.0
1070
    74
1070
     0
1000
MTEXTEND
  0
POINT
  5
68E
330
619
100
AcDbEntity
  8
DEFPOINTS
  6
BYBLOCK
 62
     0
100
AcDbPoint
 10
503.8850375755905
 20
390.9862366098208
 30
0.0
  0
POINT
  5
68F
330
619
100
AcDbEntity
  8
DEFPOINTS
  6
BYBLOCK
 62
     0
100
AcDbPoint
 10
547.5239375755905
 20
408.4404366098207
 30
0.0
  0
POINT
  5
690
330
619
100
AcDbEntity
  8
DEFPOINTS
  6
BYBLOCK
 62
     0
100
AcDbPoint
 10
537.5556587678524
 20
433.3629115938729
 30
0.0
  0
ENDBLK
  5
691
330
619
100
AcDbEntity
  8
0
100
AcDbBlockEnd
  0
BLOCK
  5
70E
330
626
100
AcDbEntity
  8
0
100
AcDbBlockBegin
  2
*D6
 70
     1
 10
0.0
 20
0.0
 30
0.0
  3
*D6
  1

  0
LINE
  5
70F
330
626
100
AcDbEntity
  8
0
  6
BYBLOCK
 62
     4
100
AcDbLine
 10
554.520131082554
 20
407.1624320498253
 30
0.0
 11
496.4710740151888
 21
383.9444657064315
 31
0.0
  0
LINE
  5
710
330
626
100
AcDbEntity
  8
0
  6
BYBLOCK
 62
     4
100
AcDbLine
 10
556.3577310825539
 20
418.6675320498253
 30
0.0
 11
492.7574340025834
 21
393.2292281111593
 31
0.0
  0
LINE
  5
711
330
626
100
AcDbEntity
  8
0
  6
BYBLOCK
 62
     4
100
AcDbLine
 10
501.8561063446832
 20
378.5591684249158
 30
0.0
 11
504.4556811935349
 21
372.0597676367495
 31
0.0
  0
LINE
  5
712
330
626
100
AcDbEntity
  8
0
  6
BYBLOCK
 62
     4
100
AcDbLine
 10
492.9433166343746
 20
400.8427324059764
 30
0.0
 11
486.2586955944705
 21
417.5554772898329
 31
0.0
  0
LINE
  5
713
330
626
100
AcDbEntity
  8
0
  6
BYBLOCK
 62
     4
100
AcDbLine
 10
499.2565314958316
 20
385.0585692130822
 30
0.0
 11
495.5428914832262
 21
394.34333161781
 31
0.0
  0
INSERT
  5
714
330
626
100
AcDbEntity
  8
0
  6
BYBLOCK
 62
     4
100
AcDbBlockReference
  2
_OPEN
 10
499.2565314958316
 20
385.0585692130822
 30
0.0
 41
7.0
 42
7.0
 43
7.0
 50
111.7999999999998
  0
INSERT
  5
715
330
626
100
AcDbEntity
  8
0
  6
BYBLOCK
 62
     4
100
AcDbBlockReference
  2
_OPEN
 10
495.5428914832262
 20
394.34333161781
 30
0.0
 41
7.0
 42
7.0
 43
7.0
 50
291.7999999999998
  0
MTEXT
  5
716
330
626
100
AcDbEntity
  8
0
  6
BYBLOCK
 62
     4
100
AcDbMText
 10
492.9436478244013
 20
414.3056444197391
 30
0.0
 40
6.0
 41
0.0
 71
     5
 72
     5
  1
\A1;10
 11
0.3713678355502318
 21
-0.9284858268809147
 31
0.0
1001
ACAD
1000
MTEXTBEGIN
1070
    73
1070
     1
1070
    44
1040
1.0
1070
    74
1070
     0
1000
MTEXTEND
1000
MTEXTBEGIN
1070
    73
1070
     1
1070
    44
1040
1.0
1070
    74
1070
     0
1000
MTEXTEND
  0
POINT
  5
717
330
626
100
AcDbEntity
  8
DEFPOINTS
  6
BYBLOCK
 62
     0
100
AcDbPoint
 10
560.0910460438394
 20
409.3906390631268
 30
0.0
  0
POINT
  5
718
330
626
100
AcDbEntity
  8
DEFPOINTS
  6
BYBLOCK
 62
     0
100
AcDbPoint
 10
561.9286460438394
 20
420.8957390631268
 30
0.0
  0
POINT
  5
719
330
626
100
AcDbEntity
  8
DEFPOINTS
  6
BYBLOCK
 62
     0
100
AcDbPoint
 10
495.5428914832262
 20
394.34333161781
 30
0.0
  0
ENDBLK
  5
71A
330
626
100
AcDbEntity
  8
0
100
AcDbBlockEnd
  0
BLOCK
  5
71B
330
635
100
AcDbEntity
  8
0
100
AcDbBlockBegin
  2
*D7
 70
     1
 10
0.0
 20
0.0
 30
0.0
  3
*D7
  1

  0
LINE
  5
71C
330
635
100
AcDbEntity
  8
0
  6
BYBLOCK
 62
     4
100
AcDbLine
 10
556.3577310825539
 20
418.6675320498253
 30
0.0
 11
476.6804710451594
 21
386.7989016992026
 31
0.0
  0
LINE
  5
71D
330
635
100
AcDbEntity
  8
0
  6
BYBLOCK
 62
     4
100
AcDbLine
 10
554.564031082554
 20
401.7949320498252
 30
0.0
 11
482.2509319359069
 21
372.8717559123568
 31
0.0
  0
LINE
  5
71E
330
635
100
AcDbEntity
  8
0
  6
BYBLOCK
 62
     4
100
AcDbLine
 10
476.8663536769505
 20
394.4124059940197
 30
0.0
 11
474.2667788280988
 21
400.9118067821861
 31
0.0
  0
LINE
  5
71F
330
635
100
AcDbEntity
  8
0
  6
BYBLOCK
 62
     4
100
AcDbLine
 10
487.6359642654011
 20
367.4864586308412
 30
0.0
 11
490.2355391142528
 21
360.9870578426748
 31
0.0
  0
LINE
  5
720
330
635
100
AcDbEntity
  8
0
  6
BYBLOCK
 62
     4
100
AcDbLine
 10
479.4659285258021
 20
387.9130052058533
 30
0.0
 11
485.0363894165496
 21
373.9858594190076
 31
0.0
  0
INSERT
  5
721
330
635
100
AcDbEntity
  8
0
  6
BYBLOCK
 62
     4
100
AcDbBlockReference
  2
_OPEN
 10
479.4659285258021
 20
387.9130052058533
 30
0.0
 41
7.0
 42
7.0
 43
7.0
 50
291.7999999999998
  0
INSERT
  5
722
330
635
100
AcDbEntity
  8
0
  6
BYBLOCK
 62
     4
100
AcDbBlockReference
  2
_OPEN
 10
485.0363894165496
 20
373.9858594190076
 30
0.0
 41
7.0
 42
7.0
 43
7.0
 50
111.7999999999998
  0
MTEXT
  5
723
330
635
100
AcDbEntity
  8
0
  6
BYBLOCK
 62
     4
100
AcDbMText
 10
486.8935881055805
 20
382.8062714901816
 30
0.0
 40
6.0
 41
0.0
 71
     5
 72
     5
  1
\A1;15
 11
0.3713678355502318
 21
-0.9284858268809147
 31
0.0
1001
ACAD
1000
MTEXTBEGIN
1070
    73
1070
     1
1070
    44
1040
1.0
1070
    74
1070
     0
1000
MTEXTEND
1000
MTEXTBEGIN
1070
    73
1070
     1
1070
    44
1040
1.0
1070
    74
1070
     0
1000
MTEXTEND
  0
POINT
  5
724
330
635
100
AcDbEntity
  8
DEFPOINTS
  6
BYBLOCK
 62
     0
100
AcDbPoint
 10
561.9286460438394
 20
420.8957390631268
 30
0.0
  0
POINT
  5
725
330
635
100
AcDbEntity
  8
DEFPOINTS
  6
BYBLOCK
 62
     0
100
AcDbPoint
 10
560.1349460438394
 20
404.0231390631267
 30
0.0
  0
POINT
  5
726
330
635
100
AcDbEntity
  8
DEFPOINTS
  6
BYBLOCK
 62
     0
100
AcDbPoint
 10
485.0363894165496
 20
373.9858594190076
 30
0.0
  0
ENDBLK
  5
727
330
635
100
AcDbEntity
  8
0
100
AcDbBlockEnd
  0
BLOCK
  5
728
330
644
100
AcDbEntity
  8
0
100
AcDbBlockBegin
  2
*D8
 70
     1
 10
0.0
 20
0.0
 30
0.0
  3
*D8
  1

  0
LINE
  5
729
330
644
100
AcDbEntity
  8
0
  6
BYBLOCK
 62
     4
100
AcDbLine
 10
565.2901310825539
 20
379.1594320498255
 30
0.0
 11
507.5581353093696
 21
356.0682811764666
 31
0.0
  0
LINE
  5
72A
330
644
100
AcDbEntity
  8
0
  6
BYBLOCK
 62
     4
100
AcDbLine
 10
574.9259310825541
 20
372.2432320498253
 30
0.0
 11
511.2718210423424
 21
346.7834044626654
 31
0.0
  0
LINE
  5
72B
330
644
100
AcDbEntity
  8
0
  6
BYBLOCK
 62
     4
100
AcDbLine
 10
507.7440179411608
 20
363.6817854712838
 30
0.0
 11
505.1444430923091
 21
370.1811862594501
 31
0.0
  0
LINE
  5
72C
330
644
100
AcDbEntity
  8
0
  6
BYBLOCK
 62
     4
100
AcDbLine
 10
516.6568533718368
 20
341.3981071811497
 30
0.0
 11
523.341474411741
 21
324.6853622972933
 31
0.0
  0
LINE
  5
72D
330
644
100
AcDbEntity
  8
0
  6
BYBLOCK
 62
     4
100
AcDbLine
 10
510.3435927900124
 20
357.1823846831173
 30
0.0
 11
514.0572785229851
 21
347.8975079693161
 31
0.0
  0
INSERT
  5
72E
330
644
100
AcDbEntity
  8
0
  6
BYBLOCK
 62
     4
100
AcDbBlockReference
  2
_OPEN
 10
510.3435927900124
 20
357.1823846831173
 30
0.0
 41
7.0
 42
7.0
 43
7.0
 50
291.7999999999998
  0
INSERT
  5
72F
330
644
100
AcDbEntity
  8
0
  6
BYBLOCK
 62
     4
100
AcDbBlockReference
  2
_OPEN
 10
514.0572785229851
 20
347.8975079693161
 30
0.0
 41
7.0
 42
7.0
 43
7.0
 50
111.7999999999998
  0
MTEXT
  5
730
330
644
100
AcDbEntity
  8
0
  6
BYBLOCK
 62
     4
100
AcDbMText
 10
525.9413804506192
 20
331.6488735228894
 30
0.0
 40
6.0
 41
0.0
 71
     5
 72
     5
  1
\A1;10
 11
0.3713678355502318
 21
-0.9284858268809147
 31
0.0
1001
ACAD
1000
MTEXTBEGIN
1070
    73
1070
     1
1070
    44
1040
1.0
1070
    74
1070
     0
1000
MTEXTEND
1000
MTEXTBEGIN
1070
    73
1070
     1
1070
    44
1040
1.0
1070
    74
1070
     0
1000
MTEXTEND
  0
POINT
  5
731
330
644
100
AcDbEntity
  8
DEFPOINTS
  6
BYBLOCK
 62
     0
100
AcDbPoint
 10
570.8610460438394
 20
381.3876390631269
 30
0.0
  0
POINT
  5
732
330
644
100
AcDbEntity
  8
DEFPOINTS
  6
BYBLOCK
 62
     0
100
AcDbPoint
 10
580.4968460438394
 20
374.4714390631266
 30
0.0
  0
POINT
  5
733
330
644
100
AcDbEntity
  8
DEFPOINTS
  6
BYBLOCK
 62
     0
100
AcDbPoint
 10
514.0572785229851
 20
347.8975079693161
 30
0.0
  0
ENDBLK
  5
734
330
644
100
AcDbEntity
  8
0
100
AcDbBlockEnd
  0
BLOCK
  5
703
330
67A
100
AcDbEntity
  8
0
100
AcDbBlockBegin
  2
*D9
 70
     1
 10
0.0
 20
0.0
 30
0.0
  3
*D9
  1

  0
LINE
  5
704
330
67A
100
AcDbEntity
  8
0
  6
BYBLOCK
 62
     4
100
AcDbLine
 10
556.3577310825539
 20
418.6675320498253
 30
0.0
 11
462.3610188353624
 21
381.0715294341014
 31
0.0
  0
LINE
  5
705
330
67A
100
AcDbEntity
  8
0
  6
BYBLOCK
 62
     4
100
AcDbLine
 10
574.9259310825541
 20
372.2432320498253
 30
0.0
 11
480.9293871487146
 21
334.6472967546392
 31
0.0
  0
LINE
  5
706
330
67A
100
AcDbEntity
  8
0
  6
BYBLOCK
 62
     4
100
AcDbLine
 10
467.7460511648567
 20
375.6862321525857
 30
0.0
 11
481.1152697805057
 21
342.2608010494562
 31
0.0
  0
INSERT
  5
707
330
67A
100
AcDbEntity
  8
0
  6
BYBLOCK
 62
     4
100
AcDbBlockReference
  2
_OPEN
 10
465.146476316005
 20
382.1856329407521
 30
0.0
 41
7.0
 42
7.0
 43
7.0
 50
111.7999999999998
  0
INSERT
  5
708
330
67A
100
AcDbEntity
  8
0
  6
BYBLOCK
 62
     4
100
AcDbBlockReference
  2
_OPEN
 10
483.7148446293572
 20
335.7614002612899
 30
0.0
 41
7.0
 42
7.0
 43
7.0
 50
291.7999999999998
  0
MTEXT
  5
709
330
67A
100
AcDbEntity
  8
0
  6
BYBLOCK
 62
     4
100
AcDbMText
 10
479.0730896070858
 20
360.8303557787721
 30
0.0
 40
6.0
 41
0.0
 71
     5
 72
     5
  1
\A1;50
 11
0.3713678355502318
 21
-0.9284858268809147
 31
0.0
1001
ACAD
1000
MTEXTBEGIN
1070
    73
1070
     1
1070
    44
1040
1.0
1070
    74
1070
     0
1000
MTEXTEND
1000
MTEXTBEGIN
1070
    73
1070
     1
1070
    44
1040
1.0
1070
    74
1070
     0
1000
MTEXTEND
  0
POINT
  5
70A
330
67A
100
AcDbEntity
  8
DEFPOINTS
  6
BYBLOCK
 62
     0
100
AcDbPoint
 10
561.9286460438394
 20
420.8957390631268
 30
0.0
  0
POINT
  5
70B
330
67A
100
AcDbEntity
  8
DEFPOINTS
  6
BYBLOCK
 62
     0
100
AcDbPoint
 10
580.4968460438394
 20
374.4714390631266
 30
0.0
  0
POINT
  5
70C
330
67A
100
AcDbEntity
  8
DEFPOINTS
  6
BYBLOCK
 62
     0
100
AcDbPoint
 10
483.7148446293572
 20
335.7614002612899
 30
0.0
  0
ENDBLK
  5
70D
330
67A
100
AcDbEntity
  8
0
100
AcDbBlockEnd
  0
BLOCK
  5
738
330
737
100
AcDbEntity
  8
0
100
AcDbBlockBegin
  2
*D10
 70
     1
 10
0.0
 20
0.0
 30
0.0
  3
*D10
  1

  0
LINE
  5
739
330
737
100
AcDbEntity
  8
0
  6
BYBLOCK
 62
     4
100
AcDbLine
 10
394.0871375755903
 20
473.4819366098206
 30
0.0
 11
441.8447421293016
 21
473.4819366098206
 31
0.0
  0
LINE
  5
73A
330
737
100
AcDbEntity
  8
0
  6
BYBLOCK
 62
     4
100
AcDbLine
 10
394.0871375755903
 20
448.4818366098205
 30
0.0
 11
441.8447421293016
 21
448.4818366098205
 31
0.0
  0
LINE
  5
73B
330
737
100
AcDbEntity
  8
0
  6
BYBLOCK
 62
     4
100
AcDbLine
 10
438.8447421293017
 20
480.4819366098207
 30
0.0
 11
438.8447421293017
 21
487.4819366098206
 31
0.0
  0
LINE
  5
73C
330
737
100
AcDbEntity
  8
0
  6
BYBLOCK
 62
     4
100
AcDbLine
 10
438.8447421293017
 20
441.4818366098205
 30
0.0
 11
438.8447421293017
 21
434.4818366098206
 31
0.0
  0
LINE
  5
73D
330
737
100
AcDbEntity
  8
0
  6
BYBLOCK
 62
     4
100
AcDbLine
 10
438.8447421293017
 20
473.4819366098206
 30
0.0
 11
438.8447421293017
 21
448.4818366098205
 31
0.0
  0
INSERT
  5
73E
330
737
100
AcDbEntity
  8
0
  6
BYBLOCK
 62
     4
100
AcDbBlockReference
  2
_OPEN
 10
438.8447421293017
 20
473.4819366098206
 30
0.0
 41
7.0
 42
7.0
 43
7.0
 50
270.0
  0
INSERT
  5
73F
330
737
100
AcDbEntity
  8
0
  6
BYBLOCK
 62
     4
100
AcDbBlockReference
  2
_OPEN
 10
438.8447421293017
 20
448.4818366098205
 30
0.0
 41
7.0
 42
7.0
 43
7.0
 50
90.0
  0
MTEXT
  5
740
330
737
100
AcDbEntity
  8
0
  6
BYBLOCK
 62
     4
100
AcDbMText
 10
433.8447421293017
 20
460.9818866098206
 30
0.0
 40
6.0
 41
0.0
 71
     5
 72
     5
  1
\A1;25
 11
0.0
 21
1.0
 31
0.0
1001
ACAD
1000
MTEXTBEGIN
1070
    73
1070
     1
1070
    44
1040
1.0
1070
    74
1070
     0
1000
MTEXTEND
1000
MTEXTBEGIN
1070
    73
1070
     1
1070
    44
1040
1.0
1070
    74
1070
     0
1000
MTEXTEND
  0
POINT
  5
741
330
737
100
AcDbEntity
  8
DEFPOINTS
  6
BYBLOCK
 62
     0
100
AcDbPoint
 10
388.0871375755903
 20
473.4819366098206
 30
0.0
  0
POINT
  5
742
330
737
100
AcDbEntity
  8
DEFPOINTS
  6
BYBLOCK
 62
     0
100
AcDbPoint
 10
388.0871375755903
 20
448.4818366098205
 30
0.0
  0
POINT
  5
743
330
737
100
AcDbEntity
  8
DEFPOINTS
  6
BYBLOCK
 62
     0
100
AcDbPoint
 10
438.8447421293017
 20
448.4818366098205
 30
0.0
  0
ENDBLK
  5
744
330
737
100
AcDbEntity
  8
0
100
AcDbBlockEnd
  0
BLOCK
  5
749
330
748
100
AcDbEntity
  8
0
100
AcDbBlockBegin
  2
*D11
 70
     1
 10
0.0
 20
0.0
 30
0.0
  3
*D11
  1

  0
LINE
  5
74A
330
748
100
AcDbEntity
  8
0
  6
BYBLOCK
 62
     4
100
AcDbLine
 10
415.6511375755902
 20
492.4819366098206
 30
0.0
 11
458.1077868330294
 21
492.4819366098206
 31
0.0
  0
LINE
  5
74B
330
748
100
AcDbEntity
  8
0
  6
BYBLOCK
 62
     4
100
AcDbLine
 10
415.6511375755902
 20
429.4818366098205
 30
0.0
 11
458.1077868330294
 21
429.4818366098205
 31
0.0
  0
LINE
  5
74C
330
748
100
AcDbEntity
  8
0
  6
BYBLOCK
 62
     4
100
AcDbLine
 10
455.1077868330294
 20
485.4819366098206
 30
0.0
 11
455.1077868330294
 21
436.4818366098205
 31
0.0
  0
INSERT
  5
74D
330
748
100
AcDbEntity
  8
0
  6
BYBLOCK
 62
     4
100
AcDbBlockReference
  2
_OPEN
 10
455.1077868330294
 20
492.4819366098206
 30
0.0
 41
7.0
 42
7.0
 43
7.0
 50
90.0
  0
INSERT
  5
74E
330
748
100
AcDbEntity
  8
0
  6
BYBLOCK
 62
     4
100
AcDbBlockReference
  2
_OPEN
 10
455.1077868330294
 20
429.4818366098205
 30
0.0
 41
7.0
 42
7.0
 43
7.0
 50
270.0
  0
MTEXT
  5
74F
330
748
100
AcDbEntity
  8
0
  6
BYBLOCK
 62
     4
100
AcDbMText
 10
450.1077868330294
 20
460.9818866098206
 30
0.0
 40
6.0
 41
0.0
 71
     5
 72
     5
  1
\A1;63
 11
0.0
 21
1.0
 31
0.0
1001
ACAD
1000
MTEXTBEGIN
1070
    73
1070
     1
1070
    44
1040
1.0
1070
    74
1070
     0
1000
MTEXTEND
1000
MTEXTBEGIN
1070
    73
1070
     1
1070
    44
1040
1.0
1070
    74
1070
     0
1000
MTEXTEND
  0
POINT
  5
750
330
748
100
AcDbEntity
  8
DEFPOINTS
  6
BYBLOCK
 62
     0
100
AcDbPoint
 10
409.6511375755903
 20
492.4819366098206
 30
0.0
  0
POINT
  5
751
330
748
100
AcDbEntity
  8
DEFPOINTS
  6
BYBLOCK
 62
     0
100
AcDbPoint
 10
409.6511375755903
 20
429.4818366098205
 30
0.0
  0
POINT
  5
752
330
748
100
AcDbEntity
  8
DEFPOINTS
  6
BYBLOCK
 62
     0
100
AcDbPoint
 10
455.1077868330294
 20
429.4818366098205
 30
0.0
  0
ENDBLK
  5
753
330
748
100
AcDbEntity
  8
0
100
AcDbBlockEnd
  0
BLOCK
  5
756
330
755
100
AcDbEntity
  8
0
100
AcDbBlockBegin
  2
*D12
 70
     1
 10
0.0
 20
0.0
 30
0.0
  3
*D12
  1

  0
LINE
  5
757
330
755
100
AcDbEntity
  8
0
  6
BYBLOCK
 62
     4
100
AcDbLine
 10
383.6392375755905
 20
333.8680366098204
 30
0.0
 11
383.6392375755905
 21
380.0907410220047
 31
0.0
  0
LINE
  5
758
330
755
100
AcDbEntity
  8
0
  6
BYBLOCK
 62
     4
100
AcDbLine
 10
394.8011375755904
 20
360.0494366098206
 30
0.0
 11
394.8011375755904
 21
380.0907410220047
 31
0.0
  0
LINE
  5
759
330
755
100
AcDbEntity
  8
0
  6
BYBLOCK
 62
     4
100
AcDbLine
 10
376.6392375755905
 20
377.0907410220047
 30
0.0
 11
369.6392375755905
 21
377.0907410220047
 31
0.0
  0
LINE
  5
75A
330
755
100
AcDbEntity
  8
0
  6
BYBLOCK
 62
     4
100
AcDbLine
 10
401.8011375755905
 20
377.0907410220047
 30
0.0
 11
408.8011375755904
 21
377.0907410220047
 31
0.0
  0
LINE
  5
75B
330
755
100
AcDbEntity
  8
0
  6
BYBLOCK
 62
     4
100
AcDbLine
 10
383.6392375755905
 20
377.0907410220047
 30
0.0
 11
394.8011375755904
 21
377.0907410220047
 31
0.0
  0
INSERT
  5
75C
330
755
100
AcDbEntity
  8
0
  6
BYBLOCK
 62
     4
100
AcDbBlockReference
  2
_OPEN
 10
383.6392375755905
 20
377.0907410220047
 30
0.0
 41
7.0
 42
7.0
 43
7.0
  0
INSERT
  5
75D
330
755
100
AcDbEntity
  8
0
  6
BYBLOCK
 62
     4
100
AcDbBlockReference
  2
_OPEN
 10
394.8011375755904
 20
377.0907410220047
 30
0.0
 41
7.0
 42
7.0
 43
7.0
 50
180.0
  0
MTEXT
  5
75E
330
755
100
AcDbEntity
  8
0
  6
BYBLOCK
 62
     4
100
AcDbMText
 10
389.2201875755905
 20
382.0907410220047
 30
0.0
 40
6.0
 41
0.0
 71
     5
 72
     5
  1
\A1;11
1001
ACAD
1000
MTEXTBEGIN
1070
    73
1070
     1
1070
    44
1040
1.0
1070
    74
1070
     0
1000
MTEXTEND
1000
MTEXTBEGIN
1070
    73
1070
     1
1070
    44
1040
1.0
1070
    74
1070
     0
1000
MTEXTEND
  0
POINT
  5
75F
330
755
100
AcDbEntity
  8
DEFPOINTS
  6
BYBLOCK
 62
     0
100
AcDbPoint
 10
383.6392375755905
 20
327.8680366098204
 30
0.0
  0
POINT
  5
760
330
755
100
AcDbEntity
  8
DEFPOINTS
  6
BYBLOCK
 62
     0
100
AcDbPoint
 10
394.8011375755904
 20
354.0494366098206
 30
0.0
  0
POINT
  5
761
330
755
100
AcDbEntity
  8
DEFPOINTS
  6
BYBLOCK
 62
     0
100
AcDbPoint
 10
394.8011375755904
 20
377.0907410220047
 30
0.0
  0
ENDBLK
  5
762
330
755
100
AcDbEntity
  8
0
100
AcDbBlockEnd
  0
BLOCK
  5
765
330
764
100
AcDbEntity
  8
0
100
AcDbBlockBegin
  2
*D13
 70
     1
 10
0.0
 20
0.0
 30
0.0
  3
*D13
  1

  0
LINE
  5
766
330
764
100
AcDbEntity
  8
0
  6
BYBLOCK
 62
     4
100
AcDbLine
 10
394.8011375755904
 20
360.0494366098206
 30
0.0
 11
394.8011375755904
 21
395.9005568920865
 31
0.0
  0
LINE
  5
767
330
764
100
AcDbEntity
  8
0
  6
BYBLOCK
 62
     4
100
AcDbLine
 10
284.8011375755904
 20
330.4749366098206
 30
0.0
 11
284.8011375755904
 21
395.9005568920865
 31
0.0
  0
LINE
  5
768
330
764
100
AcDbEntity
  8
0
  6
BYBLOCK
 62
     4
100
AcDbLine
 10
387.8011375755905
 20
392.9005568920865
 30
0.0
 11
291.8011375755904
 21
392.9005568920865
 31
0.0
  0
INSERT
  5
769
330
764
100
AcDbEntity
  8
0
  6
BYBLOCK
 62
     4
100
AcDbBlockReference
  2
_OPEN
 10
394.8011375755904
 20
392.9005568920865
 30
0.0
 41
7.0
 42
7.0
 43
7.0
  0
INSERT
  5
76A
330
764
100
AcDbEntity
  8
0
  6
BYBLOCK
 62
     4
100
AcDbBlockReference
  2
_OPEN
 10
284.8011375755904
 20
392.9005568920865
 30
0.0
 41
7.0
 42
7.0
 43
7.0
 50
180.0
  0
MTEXT
  5
76B
330
764
100
AcDbEntity
  8
0
  6
BYBLOCK
 62
     4
100
AcDbMText
 10
339.8011375755904
 20
397.9005568920865
 30
0.0
 40
6.0
 41
0.0
 71
     5
 72
     5
  1
\A1;110
1001
ACAD
1000
MTEXTBEGIN
1070
    73
1070
     1
1070
    44
1040
1.0
1070
    74
1070
     0
1000
MTEXTEND
1000
MTEXTBEGIN
1070
    73
1070
     1
1070
    44
1040
1.0
1070
    74
1070
     0
1000
MTEXTEND
  0
POINT
  5
76C
330
764
100
AcDbEntity
  8
DEFPOINTS
  6
BYBLOCK
 62
     0
100
AcDbPoint
 10
394.8011375755904
 20
354.0494366098206
 30
0.0
  0
POINT
  5
76D
330
764
100
AcDbEntity
  8
DEFPOINTS
  6
BYBLOCK
 62
     0
100
AcDbPoint
 10
284.8011375755904
 20
324.4749366098206
 30
0.0
  0
POINT
  5
76E
330
764
100
AcDbEntity
  8
DEFPOINTS
  6
BYBLOCK
 62
     0
100
AcDbPoint
 10
284.8011375755904
 20
392.9005568920865
 30
0.0
  0
ENDBLK
  5
76F
330
764
100
AcDbEntity
  8
0
100
AcDbBlockEnd
  0
BLOCK
  5
772
330
771
100
AcDbEntity
  8
0
100
AcDbBlockBegin
  2
*D14
 70
     1
 10
0.0
 20
0.0
 30
0.0
  3
*D14
  1

  0
LINE
  5
773
330
771
100
AcDbEntity
  8
0
  6
BYBLOCK
 62
     4
100
AcDbLine
 10
394.8011375755904
 20
360.0494366098206
 30
0.0
 11
394.8011375755904
 21
411.312469794856
 31
0.0
  0
LINE
  5
774
330
771
100
AcDbEntity
  8
0
  6
BYBLOCK
 62
     4
100
AcDbLine
 10
265.8010375755904
 20
326.4749366098206
 30
0.0
 11
265.8010375755904
 21
411.312469794856
 31
0.0
  0
LINE
  5
775
330
771
100
AcDbEntity
  8
0
  6
BYBLOCK
 62
     4
100
AcDbLine
 10
387.8011375755905
 20
408.312469794856
 30
0.0
 11
272.8010375755904
 21
408.312469794856
 31
0.0
  0
INSERT
  5
776
330
771
100
AcDbEntity
  8
0
  6
BYBLOCK
 62
     4
100
AcDbBlockReference
  2
_OPEN
 10
394.8011375755904
 20
408.312469794856
 30
0.0
 41
7.0
 42
7.0
 43
7.0
  0
INSERT
  5
777
330
771
100
AcDbEntity
  8
0
  6
BYBLOCK
 62
     4
100
AcDbBlockReference
  2
_OPEN
 10
265.8010375755904
 20
408.312469794856
 30
0.0
 41
7.0
 42
7.0
 43
7.0
 50
180.0
  0
MTEXT
  5
778
330
771
100
AcDbEntity
  8
0
  6
BYBLOCK
 62
     4
100
AcDbMText
 10
330.3010875755905
 20
413.312469794856
 30
0.0
 40
6.0
 41
0.0
 71
     5
 72
     5
  1
\A1;129
1001
ACAD
1000
MTEXTBEGIN
1070
    73
1070
     1
1070
    44
1040
1.0
1070
    74
1070
     0
1000
MTEXTEND
1000
MTEXTBEGIN
1070
    73
1070
     1
1070
    44
1040
1.0
1070
    74
1070
     0
1000
MTEXTEND
  0
POINT
  5
779
330
771
100
AcDbEntity
  8
DEFPOINTS
  6
BYBLOCK
 62
     0
100
AcDbPoint
 10
394.8011375755904
 20
354.0494366098206
 30
0.0
  0
POINT
  5
77A
330
771
100
AcDbEntity
  8
DEFPOINTS
  6
BYBLOCK
 62
     0
100
AcDbPoint
 10
265.8010375755904
 20
320.4749366098206
 30
0.0
  0
POINT
  5
77B
330
771
100
AcDbEntity
  8
DEFPOINTS
  6
BYBLOCK
 62
     0
100
AcDbPoint
 10
265.8010375755904
 20
408.312469794856
 30
0.0
  0
ENDBLK
  5
77C
330
771
100
AcDbEntity
  8
0
100
AcDbBlockEnd
  0
BLOCK
  5
7E8
330
785
100
AcDbEntity
  8
0
100
AcDbBlockBegin
  2
*D15
 70
     1
 10
0.0
 20
0.0
 30
0.0
  3
*D15
  1

  0
LINE
  5
7E9
330
785
100
AcDbEntity
  8
0
  6
BYBLOCK
 62
     4
100
AcDbLine
 10
410.0266237639909
 20
272.5837692230044
 30
0.0
 11
417.8053857646268
 21
253.1342458149247
 31
0.0
  0
LINE
  5
7EA
330
785
100
AcDbEntity
  8
0
  6
BYBLOCK
 62
     4
100
AcDbLine
 10
415.5976230123145
 20
274.8118689223744
 30
0.0
 11
423.3763850129504
 21
255.3623455142946
 31
0.0
  0
LINE
  5
7EB
330
785
100
AcDbEntity
  8
0
  6
BYBLOCK
 62
     4
100
AcDbLine
 10
410.191885528205
 20
253.3202945988673
 30
0.0
 11
403.6924280101454
 21
250.7208615893558
 31
0.0
  0
LINE
  5
7EC
330
785
100
AcDbEntity
  8
0
  6
BYBLOCK
 62
     4
100
AcDbLine
 10
428.7617998126479
 20
260.7472603172603
 30
0.0
 11
454.7596298848865
 21
271.1449923553063
 31
0.0
  0
LINE
  5
7ED
330
785
100
AcDbEntity
  8
0
  6
BYBLOCK
 62
     4
100
AcDbLine
 10
416.6913430462646
 20
255.9197276083789
 30
0.0
 11
422.2623422945883
 21
258.1478273077487
 31
0.0
  0
INSERT
  5
7EE
330
785
100
AcDbEntity
  8
0
  6
BYBLOCK
 62
     4
100
AcDbBlockReference
  2
_OPEN
 10
416.6913430462646
 20
255.9197276083789
 30
0.0
 41
7.0
 42
7.0
 43
7.0
 50
21.79874961394815
  0
INSERT
  5
7EF
330
785
100
AcDbEntity
  8
0
  6
BYBLOCK
 62
     4
100
AcDbBlockReference
  2
_OPEN
 10
422.2623422945883
 20
258.1478273077487
 30
0.0
 41
7.0
 42
7.0
 43
7.0
 50
201.7987496139481
  0
MTEXT
  5
7F0
330
785
100
AcDbEntity
  8
0
  6
BYBLOCK
 62
     4
100
AcDbMText
 10
443.1537057438602
 20
271.8883124967959
 30
0.0
 40
6.0
 41
0.0
 71
     5
 72
     5
  1
\A1;t6.0
 11
0.9284939311513765
 21
0.3713475727873589
 31
0.0
1001
ACAD
1000
MTEXTBEGIN
1070
    73
1070
     1
1070
    44
1040
1.0
1070
    74
1070
     0
1000
MTEXTEND
1000
MTEXTBEGIN
1070
    73
1070
     1
1070
    44
1040
1.0
1070
    74
1070
     0
1000
MTEXTEND
  0
POINT
  5
7F1
330
785
100
AcDbEntity
  8
DEFPOINTS
  6
BYBLOCK
 62
     0
100
AcDbPoint
 10
407.7985383272667
 20
278.1547328099127
 30
0.0
  0
POINT
  5
7F2
330
785
100
AcDbEntity
  8
DEFPOINTS
  6
BYBLOCK
 62
     0
100
AcDbPoint
 10
413.3695375755904
 20
280.3828325092826
 30
0.0
  0
POINT
  5
7F3
330
785
100
AcDbEntity
  8
DEFPOINTS
  6
BYBLOCK
 62
     0
100
AcDbPoint
 10
422.2623422945883
 20
258.1478273077487
 30
0.0
  0
ENDBLK
  5
7F4
330
785
100
AcDbEntity
  8
0
100
AcDbBlockEnd
  0
BLOCK
  5
7BC
330
7BB
100
AcDbEntity
  8
0
100
AcDbBlockBegin
  2
*D16
 70
     1
 10
0.0
 20
0.0
 30
0.0
  3
*D16
  1

  0
LINE
  5
7BD
330
7BB
100
AcDbEntity
  8
0
  6
BYBLOCK
 62
     4
100
AcDbLine
 10
429.8011375755903
 20
360.0494366098206
 30
0.0
 11
429.8011375755903
 21
411.312469794856
 31
0.0
  0
LINE
  5
7BE
330
7BB
100
AcDbEntity
  8
0
  6
BYBLOCK
 62
     4
100
AcDbLine
 10
394.8011375755904
 20
360.0494366098206
 30
0.0
 11
394.8011375755904
 21
411.312469794856
 31
0.0
  0
LINE
  5
7BF
330
7BB
100
AcDbEntity
  8
0
  6
BYBLOCK
 62
     4
100
AcDbLine
 10
422.8011375755903
 20
408.312469794856
 30
0.0
 11
401.8011375755905
 21
408.312469794856
 31
0.0
  0
INSERT
  5
7C0
330
7BB
100
AcDbEntity
  8
0
  6
BYBLOCK
 62
     4
100
AcDbBlockReference
  2
_OPEN
 10
429.8011375755903
 20
408.312469794856
 30
0.0
 41
7.0
 42
7.0
 43
7.0
  0
INSERT
  5
7C1
330
7BB
100
AcDbEntity
  8
0
  6
BYBLOCK
 62
     4
100
AcDbBlockReference
  2
_OPEN
 10
394.8011375755904
 20
408.312469794856
 30
0.0
 41
7.0
 42
7.0
 43
7.0
 50
180.0
  0
MTEXT
  5
7C2
330
7BB
100
AcDbEntity
  8
0
  6
BYBLOCK
 62
     4
100
AcDbMText
 10
412.3011375755904
 20
413.312469794856
 30
0.0
 40
6.0
 41
0.0
 71
     5
 72
     5
  1
\A1;35
1001
ACAD
1000
MTEXTBEGIN
1070
    73
1070
     1
1070
    44
1040
1.0
1070
    74
1070
     0
1000
MTEXTEND
1000
MTEXTBEGIN
1070
    73
1070
     1
1070
    44
1040
1.0
1070
    74
1070
     0
1000
MTEXTEND
  0
POINT
  5
7C3
330
7BB
100
AcDbEntity
  8
DEFPOINTS
  6
BYBLOCK
 62
     0
100
AcDbPoint
 10
429.8011375755903
 20
354.0494366098206
 30
0.0
  0
POINT
  5
7C4
330
7BB
100
AcDbEntity
  8
DEFPOINTS
  6
BYBLOCK
 62
     0
100
AcDbPoint
 10
394.8011375755904
 20
354.0494366098206
 30
0.0
  0
POINT
  5
7C5
330
7BB
100
AcDbEntity
  8
DEFPOINTS
  6
BYBLOCK
 62
     0
100
AcDbPoint
 10
394.8011375755904
 20
408.312469794856
 30
0.0
  0
ENDBLK
  5
7C6
330
7BB
100
AcDbEntity
  8
0
100
AcDbBlockEnd
  0
ENDSEC
  0
SECTION
  2
ENTITIES
  0
LINE
  5
2C0
330
1A
100
AcDbEntity
  8
SEIHIN
  6
PHANTOM
 62
     6
 48
5.0
100
AcDbLine
 10
423.4582375755903
 20
326.8071325092827
 30
0.0
 11
415.9602375755903
 21
326.1511325092826
 31
0.0
  0
LINE
  5
2C1
330
1A
100
AcDbEntity
  8
SUNPOU
  6
CONTINUOUS
 62
     4
 48
16.0
100
AcDbLine
 10
425.3137079667054
 20
235.5200865296481
 30
0.0
 11
431.3133079667054
 21
235.5200865296481
 31
0.0
  0
LINE
  5
2C2
330
1A
100
AcDbEntity
  8
SUNPOU
  6
CONTINUOUS
 62
     4
 48
16.0
100
AcDbLine
 10
420.7969079667053
 20
261.8130865296482
 30
0.0
 11
431.3133079667054
 21
235.5200865296481
 31
0.0
  0
LINE
  5
2C3
330
1A
100
AcDbEntity
  8
CENTER_L
  6
CENTER
 62
     1
 48
5.0
100
AcDbLine
 10
257.2982375755904
 20
461.0749216384105
 30
0.0
 11
419.7328375755905
 21
461.0749216384105
 31
0.0
  0
LINE
  5
2CA
330
1A
100
AcDbEntity
  8
SEIHIN
  6
CONTINUOUS
 62
     3
 48
16.0
100
AcDbLine
 10
288.2801375755904
 20
309.3446325092826
 30
0.0
 11
286.5277375755904
 21
308.8750325092827
 31
0.0
  0
LINE
  5
2CB
330
1A
100
AcDbEntity
  8
SEIHIN
  6
CONTINUOUS
 62
     3
 48
16.0
100
AcDbLine
 10
287.7802375755904
 20
304.3898325092826
 30
0.0
 11
286.4628375755905
 21
307.2148325092825
 31
0.0
  0
ARC
  5
2CC
330
1A
100
AcDbEntity
  8
SEIHIN
  6
CONTINUOUS
 62
     3
 48
16.0
100
AcDbCircle
 10
295.936856915834
 20
308.1934274595549
 30
0.0
 40
9.99999442841487
100
AcDbArc
 50
205.0007250443957
 51
235.6961021037168
  0
ARC
  5
2CD
330
1A
100
AcDbEntity
  8
SEIHIN
  6
CONTINUOUS
 62
     3
 48
16.0
100
AcDbCircle
 10
286.9160363149358
 20
307.4261298061284
 30
0.0
 40
0.5000356437280318
100
AcDbArc
 50
104.9976264979356
 51
204.9965994016828
  0
LINE
  5
2CE
330
1A
100
AcDbEntity
  8
SEIHIN
  6
CONTINUOUS
 62
     3
 48
16.0
100
AcDbLine
 10
285.5565375755904
 20
306.7922325092826
 30
0.0
 11
286.8739375755905
 21
303.9672325092826
 31
0.0
  0
LINE
  5
2CF
330
1A
100
AcDbEntity
  8
SEIHIN
  6
CONTINUOUS
 62
     3
 48
16.0
100
AcDbLine
 10
284.8011375755904
 20
289.2326325092826
 30
0.0
 11
288.8011375755905
 21
285.2326325092826
 31
0.0
  0
LINE
  5
2D0
330
1A
100
AcDbEntity
  8
SEIHIN
  6
CONTINUOUS
 62
     3
 48
16.0
100
AcDbLine
 10
301.8133375755904
 20
297.2326325092826
 30
0.0
 11
284.8011375755904
 21
297.2326325092826
 31
0.0
  0
LINE
  5
2D1
330
1A
100
AcDbEntity
  8
SEIHIN
  6
CONTINUOUS
 62
     3
 48
16.0
100
AcDbLine
 10
282.2062375755904
 20
282.2326325092826
 30
0.0
 11
338.3869375755904
 21
282.2326325092826
 31
0.0
  0
LINE
  5
2D2
330
1A
100
AcDbEntity
  8
SEIHIN
  6
CONTINUOUS
 62
     3
 48
16.0
100
AcDbLine
 10
282.2062375755904
 20
284.7326325092826
 30
0.0
 11
338.3869375755904
 21
284.7326325092826
 31
0.0
  0
LINE
  5
2D3
330
1A
100
AcDbEntity
  8
SEIHIN
  6
CONTINUOUS
 62
     3
 48
16.0
100
AcDbLine
 10
284.8011375755904
 20
289.2326325092826
 30
0.0
 11
284.8011375755904
 21
297.2326325092826
 31
0.0
  0
LINE
  5
2D4
330
1A
100
AcDbEntity
  8
SEIHIN
  6
CONTINUOUS
 62
     3
 48
16.0
100
AcDbLine
 10
269.3190375755904
 20
296.0952325092825
 30
0.0
 11
268.6180375755904
 21
293.6420325092826
 31
0.0
  0
ARC
  5
2D5
330
1A
100
AcDbEntity
  8
SEIHIN
  6
CONTINUOUS
 62
     3
 48
16.0
100
AcDbCircle
 10
269.2998044303245
 20
293.3249895437205
 30
0.0
 40
3.49998561791278
100
AcDbArc
 50
103.1906192341471
 51
181.5120869528073
  0
LINE
  5
2D6
330
1A
100
AcDbEntity
  8
SEIHIN
  6
CONTINUOUS
 62
     3
 48
16.0
100
AcDbLine
 10
268.8010375755904
 20
288.9326325092827
 30
0.0
 11
273.3996375755904
 21
288.9326325092827
 31
0.0
  0
ARC
  5
2D7
330
1A
100
AcDbEntity
  8
SEIHIN
  6
CONTINUOUS
 62
     3
 48
16.0
100
AcDbCircle
 10
270.5012058608834
 20
296.9824361554103
 30
0.0
 40
4.249794612449356
100
AcDbArc
 50
248.0382778609689
 51
298.0729203837768
  0
LINE
  5
2D8
330
1A
100
AcDbEntity
  8
SEIHIN
  6
CONTINUOUS
 62
     3
 48
16.0
100
AcDbLine
 10
265.8010375755904
 20
293.2326325092826
 30
0.0
 11
265.8010375755904
 21
291.9326325092825
 31
0.0
  0
LINE
  5
2D9
330
1A
100
AcDbEntity
  8
SEIHIN
  6
CONTINUOUS
 62
     3
 48
16.0
100
AcDbLine
 10
268.6180375755904
 20
293.6420325092826
 30
0.0
 11
265.8142375755904
 21
293.6420325092826
 31
0.0
  0
ARC
  5
2DB
330
1A
100
AcDbEntity
  8
SEIHIN
  6
CONTINUOUS
 62
     3
 48
16.0
100
AcDbCircle
 10
268.8010375755903
 20
291.9326325092827
 30
0.0
 40
3.0
100
AcDbArc
 50
180.0000000000016
 51
270.0000000000016
  0
ARC
  5
2DC
330
1A
100
AcDbEntity
  8
SEIHIN
  6
CONTINUOUS
 62
     3
 48
16.0
100
AcDbCircle
 10
269.0988582246782
 20
293.5046902624226
 30
0.0
 40
0.499955233227953
100
AcDbArc
 50
164.0553214540096
 51
248.0328592211505
  0
ARC
  5
2DD
330
1A
100
AcDbEntity
  8
SEIHIN
  6
CONTINUOUS
 62
     3
 48
16.0
100
AcDbCircle
 10
282.2062026551273
 20
285.7326465277978
 30
0.0
 40
3.50001401868937
100
AcDbArc
 50
226.2554456348531
 51
270.0005716534676
  0
LINE
  5
2DE
330
1A
100
AcDbEntity
  8
SEIHIN
  6
CONTINUOUS
 62
     3
 48
16.0
100
AcDbLine
 10
272.5011375755904
 20
293.2326325092826
 30
0.0
 11
284.8011375755904
 21
293.2326325092826
 31
0.0
  0
LINE
  5
2DF
330
1A
100
AcDbEntity
  8
SEIHIN
  6
CONTINUOUS
 62
     3
 48
16.0
100
AcDbLine
 10
284.8011375755904
 20
290.7326325092826
 30
0.0
 11
278.0270375755904
 21
290.7326325092826
 31
0.0
  0
LINE
  5
2E0
330
1A
100
AcDbEntity
  8
SEIHIN
  6
CONTINUOUS
 62
     3
 48
16.0
100
AcDbLine
 10
281.5147375755904
 20
285.0102325092826
 30
0.0
 11
277.3356375755905
 21
289.0102325092826
 31
0.0
  0
LINE
  5
2E1
330
1A
100
AcDbEntity
  8
SEIHIN
  6
CONTINUOUS
 62
     3
 48
16.0
100
AcDbLine
 10
274.0910375755904
 20
288.6550325092827
 30
0.0
 11
279.7860375755904
 21
283.2041325092826
 31
0.0
  0
ARC
  5
2E2
330
1A
100
AcDbEntity
  8
SEIHIN
  6
CONTINUOUS
 62
     3
 48
16.0
100
AcDbCircle
 10
278.0270480411116
 20
289.7326585799623
 30
0.0
 40
0.9999739293750449
100
AcDbArc
 50
90.00059964582403
 51
226.2567070142188
  0
ARC
  5
2E3
330
1A
100
AcDbEntity
  8
SEIHIN
  6
CONTINUOUS
 62
     3
 48
16.0
100
AcDbCircle
 10
273.3996587537916
 20
287.9326240068549
 30
0.0
 40
1.00000850265197
100
AcDbArc
 50
46.25318158706586
 51
90.00121341122484
  0
ARC
  5
2E4
330
1A
100
AcDbEntity
  8
SEIHIN
  6
CONTINUOUS
 62
     3
 48
16.0
100
AcDbCircle
 10
282.2062163973892
 20
285.7326410117104
 30
0.0
 40
1.000008502651995
100
AcDbArc
 50
226.253181587064
 51
270.0012134112242
  0
LINE
  5
2E5
330
1A
100
AcDbEntity
  8
SEIHIN
  6
CONTINUOUS
 62
     3
 48
16.0
100
AcDbLine
 10
280.9010375755904
 20
290.7327325092826
 30
0.0
 11
280.9010375755904
 21
285.5976325092827
 31
0.0
  0
LINE
  5
2E6
330
1A
100
AcDbEntity
  8
SEIHIN
  6
CONTINUOUS
 62
     3
 48
16.0
100
AcDbLine
 10
268.5010375755904
 20
296.7326325092826
 30
0.0
 11
268.8382375755904
 21
296.7326325092826
 31
0.0
  0
ARC
  5
2E7
330
1A
100
AcDbEntity
  8
SEIHIN
  6
CONTINUOUS
 62
     3
 48
16.0
100
AcDbCircle
 10
268.8382554506653
 20
296.2326088104059
 30
0.0
 40
0.5000236991962673
100
AcDbArc
 50
344.0535045608426
 51
90.00204823560732
  0
ARC
  5
2E8
330
1A
100
AcDbEntity
  8
SEIHIN
  6
CONTINUOUS
 62
     3
 48
16.0
100
AcDbCircle
 10
286.9160321494843
 20
307.4261208736848
 30
0.0
 40
1.500013318264731
100
AcDbArc
 50
104.998519436195
 51
204.9981179307431
  0
LINE
  5
2E9
330
1A
100
AcDbEntity
  8
SEIHIN
  6
CONTINUOUS
 62
     3
 48
16.0
100
AcDbLine
 10
384.8011375755903
 20
303.2326325092826
 30
0.0
 11
384.8011375755903
 21
283.5425325092826
 31
0.0
  0
LINE
  5
2EA
330
1A
100
AcDbEntity
  8
SEIHIN
  6
CONTINUOUS
 62
     3
 48
16.0
100
AcDbLine
 10
388.8011375755904
 20
307.2326325092826
 30
0.0
 11
388.8011375755904
 21
278.7326325092826
 31
0.0
  0
ARC
  5
2EB
330
1A
100
AcDbEntity
  8
SEIHIN
  6
CONTINUOUS
 62
     3
 48
16.0
100
AcDbCircle
 10
351.3418461952819
 20
294.232615198983
 30
0.0
 40
0.9999826897374333
100
AcDbArc
 50
142.9416714733728
 51
269.9995061195071
  0
LINE
  5
2EC
330
1A
100
AcDbEntity
  8
SEIHIN
  6
CONTINUOUS
 62
     3
 48
16.0
100
AcDbLine
 10
361.8045375755903
 20
299.7912325092827
 30
0.0
 11
357.1522375755904
 21
293.6300325092826
 31
0.0
  0
ARC
  5
2ED
330
1A
100
AcDbEntity
  8
SEIHIN
  6
CONTINUOUS
 62
     3
 48
16.0
100
AcDbCircle
 10
343.7112240244637
 20
298.2326257612736
 30
0.0
 40
4.999993252009338
100
AcDbArc
 50
270.0001552846817
 51
322.9437017475591
  0
LINE
  5
2EE
330
1A
100
AcDbEntity
  8
SEIHIN
  6
CONTINUOUS
 62
     3
 48
16.0
100
AcDbLine
 10
352.9616375755904
 20
283.9316325092827
 30
0.0
 11
363.7996375755905
 21
298.2847325092826
 31
0.0
  0
LINE
  5
2EF
330
1A
100
AcDbEntity
  8
SEIHIN
  6
CONTINUOUS
 62
     3
 48
16.0
100
AcDbLine
 10
314.7305375755905
 20
288.8092325092826
 30
0.0
 11
325.0525375755904
 21
302.4788325092826
 31
0.0
  0
LINE
  5
2F0
330
1A
100
AcDbEntity
  8
CENTER_L
  6
CENTER
 62
     1
 48
5.0
100
AcDbLine
 10
294.8011375755905
 20
307.3723325092827
 30
0.0
 11
294.8010375755904
 21
277.8842325092826
 31
0.0
  0
LINE
  5
2F1
330
1A
100
AcDbEntity
  8
SEIHIN
  6
CONTINUOUS
 62
     3
 48
16.0
100
AcDbLine
 10
391.0871375755904
 20
325.3216325092827
 30
0.0
 11
409.6555375755903
 21
278.8974325092826
 31
0.0
  0
LINE
  5
2F2
330
1A
100
AcDbEntity
  8
SEIHIN
  6
CONTINUOUS
 62
     3
 48
16.0
100
AcDbLine
 10
389.9730375755903
 20
322.7220325092827
 30
0.0
 11
407.0558375755904
 21
280.0116325092826
 31
0.0
  0
LINE
  5
2F3
330
1A
100
AcDbEntity
  8
SEIHIN
  6
CONTINUOUS
 62
     3
 48
16.0
100
AcDbLine
 10
394.8011375755904
 20
326.8071325092827
 30
0.0
 11
413.3695375755904
 21
280.3828325092827
 31
0.0
  0
LINE
  5
2F4
330
1A
100
AcDbEntity
  8
SEIHIN
  6
CONTINUOUS
 62
     3
 48
16.0
100
AcDbLine
 10
351.3418375755903
 20
293.2326325092826
 30
0.0
 11
356.3541375755903
 21
293.2326325092826
 31
0.0
  0
LINE
  5
2F5
330
1A
100
AcDbEntity
  8
SEIHIN
  6
CONTINUOUS
 62
     3
 48
16.0
100
AcDbLine
 10
353.7542375755904
 20
289.1300325092827
 30
0.0
 11
348.8461375755903
 21
282.6300325092827
 31
0.0
  0
LINE
  5
2F6
330
1A
100
AcDbEntity
  8
SEIHIN
  6
CONTINUOUS
 62
     3
 48
16.0
100
AcDbLine
 10
351.3011375755904
 20
279.7326325092826
 30
0.0
 11
368.8005375755905
 21
284.4550325092826
 31
0.0
  0
LINE
  5
2F7
330
1A
100
AcDbEntity
  8
SEIHIN
  6
CONTINUOUS
 62
     3
 48
16.0
100
AcDbLine
 10
352.9562375755903
 20
290.7326325092826
 30
0.0
 11
316.1829375755904
 21
290.7326325092826
 31
0.0
  0
LINE
  5
2F8
330
1A
100
AcDbEntity
  8
SEIHIN
  6
CONTINUOUS
 62
     3
 48
16.0
100
AcDbLine
 10
318.0706375755903
 20
293.2326325092826
 30
0.0
 11
343.7112375755903
 21
293.2326325092826
 31
0.0
  0
LINE
  5
2F9
330
1A
100
AcDbEntity
  8
SEIHIN
  6
CONTINUOUS
 62
     3
 48
16.0
100
AcDbLine
 10
288.8011375755905
 20
285.2326325092826
 30
0.0
 11
307.5481375755903
 21
285.2326325092826
 31
0.0
  0
LINE
  5
2FA
330
1A
100
AcDbEntity
  8
SEIHIN
  6
CONTINUOUS
 62
     3
 48
16.0
100
AcDbLine
 10
300.3010375755905
 20
281.4325325092826
 30
0.0
 11
289.3010375755904
 21
281.4325325092826
 31
0.0
  0
ARC
  5
2FB
330
1A
100
AcDbEntity
  8
SEIHIN
  6
CONTINUOUS
 62
     3
 48
16.0
100
AcDbCircle
 10
294.8010375755904
 20
289.4794325092826
 30
0.0
 40
9.746927701075875
100
AcDbArc
 50
235.6476659526563
 51
304.3523340473436
  0
LINE
  5
2FC
330
1A
100
AcDbEntity
  8
SEIHIN
  6
CONTINUOUS
 62
     3
 48
16.0
100
AcDbLine
 10
289.3010375755904
 20
281.4325325092826
 30
0.0
 11
289.3010375755904
 21
282.2325325092826
 31
0.0
  0
LINE
  5
2FD
330
1A
100
AcDbEntity
  8
SEIHIN
  6
CONTINUOUS
 62
     3
 48
16.0
100
AcDbLine
 10
300.3010375755905
 20
281.4325325092826
 30
0.0
 11
300.3010375755905
 21
282.2323325092826
 31
0.0
  0
ARC
  5
2FE
330
1A
100
AcDbEntity
  8
SEIHIN
  6
CONTINUOUS
 62
     3
 48
16.0
100
AcDbCircle
 10
307.5481256122944
 20
294.2326265520566
 30
0.0
 40
8.999994042781867
100
AcDbArc
 50
270.0000761607577
 51
322.9428843963771
  0
LINE
  5
2FF
330
1A
100
AcDbEntity
  8
SEIHIN
  6
CONTINUOUS
 62
     3
 48
16.0
100
AcDbLine
 10
335.7012375755904
 20
290.7326325092826
 30
0.0
 11
335.7011375755905
 21
284.7325325092826
 31
0.0
  0
ARC
  5
300
330
1A
100
AcDbEntity
  8
SEIHIN
  6
CONTINUOUS
 62
     3
 48
16.0
100
AcDbCircle
 10
342.7509345138153
 20
283.2325923601705
 30
0.0
 40
0.9999598555865631
100
AcDbArc
 50
224.9984973746217
 51
269.9944456258474
  0
ARC
  5
301
330
1A
100
AcDbEntity
  8
SEIHIN
  6
CONTINUOUS
 62
     3
 48
16.0
100
AcDbCircle
 10
348.0480028125743
 20
283.232615198983
 30
0.0
 40
0.999982690304597
100
AcDbArc
 50
270.0019918085895
 51
322.9441571624548
  0
LINE
  5
302
330
1A
100
AcDbEntity
  8
SEIHIN
  6
CONTINUOUS
 62
     3
 48
16.0
100
AcDbLine
 10
342.7508375755903
 20
282.2326325092826
 30
0.0
 11
348.0480375755905
 21
282.2326325092826
 31
0.0
  0
LINE
  5
303
330
1A
100
AcDbEntity
  8
SEIHIN
  6
CONTINUOUS
 62
     3
 48
16.0
100
AcDbLine
 10
351.3011375755904
 20
279.7326325092826
 30
0.0
 11
342.7508375755903
 21
279.7326325092826
 31
0.0
  0
LINE
  5
304
330
1A
100
AcDbEntity
  8
SEIHIN
  6
CONTINUOUS
 62
     3
 48
16.0
100
AcDbLine
 10
340.2760375755903
 20
280.7577325092827
 30
0.0
 11
339.0940375755905
 21
281.9397325092826
 31
0.0
  0
ARC
  5
305
330
1A
100
AcDbEntity
  8
SEIHIN
  6
CONTINUOUS
 62
     3
 48
16.0
100
AcDbCircle
 10
338.3869259993809
 20
281.2326373043056
 30
0.0
 40
0.9999952050440143
100
AcDbArc
 50
44.99933672887019
 51
89.99933672887157
  0
ARC
  5
306
330
1A
100
AcDbEntity
  8
SEIHIN
  6
CONTINUOUS
 62
     3
 48
16.0
100
AcDbCircle
 10
342.7508780926192
 20
283.2326157270594
 30
0.0
 40
3.499983218011195
100
AcDbArc
 50
225.0004942846843
 51
269.9993367240344
  0
LINE
  5
307
330
1A
100
AcDbEntity
  8
SEIHIN
  6
CONTINUOUS
 62
     3
 48
16.0
100
AcDbLine
 10
342.0437375755903
 20
282.5255325092825
 30
0.0
 11
340.8617375755903
 21
283.7075325092826
 31
0.0
  0
ARC
  5
308
330
1A
100
AcDbEntity
  8
SEIHIN
  6
CONTINUOUS
 62
     3
 48
16.0
100
AcDbCircle
 10
338.3868117035178
 20
281.2326846472022
 30
0.0
 40
3.499947864343803
100
AcDbArc
 50
44.9979394154425
 51
89.99793941544282
  0
ARC
  5
309
330
1A
100
AcDbEntity
  8
SEIHIN
  6
CONTINUOUS
 62
     3
 48
16.0
100
AcDbCircle
 10
385.8011035676426
 20
278.7326173210445
 30
0.0
 40
3.000034007986279
100
AcDbArc
 50
228.1321783307235
 51
0.0002900706921178
  0
LINE
  5
30A
330
1A
100
AcDbEntity
  8
SEIHIN
  6
CONTINUOUS
 62
     3
 48
16.0
100
AcDbLine
 10
367.6984375755905
 20
290.7597325092826
 30
0.0
 11
369.2565375755904
 21
285.2598325092826
 31
0.0
  0
ARC
  5
30B
330
1A
100
AcDbEntity
  8
SEIHIN
  6
CONTINUOUS
 62
     3
 48
16.0
100
AcDbCircle
 10
353.7596615741454
 20
283.3289955528648
 30
0.0
 40
1.00000680173193
100
AcDbArc
 50
142.9413041919753
 51
283.0543051747389
  0
LINE
  5
30C
330
1A
100
AcDbEntity
  8
SEIHIN
  6
CONTINUOUS
 62
     3
 48
16.0
100
AcDbLine
 10
353.9855375755905
 20
282.3548325092827
 30
0.0
 11
365.0086375755904
 21
284.9101325092826
 31
0.0
  0
ARC
  5
30D
330
1A
100
AcDbEntity
  8
SEIHIN
  6
CONTINUOUS
 62
     3
 48
16.0
100
AcDbCircle
 10
356.3541829420149
 20
294.2326551012723
 30
0.0
 40
1.000022593018716
100
AcDbArc
 50
269.9974007540635
 51
322.9430187151399
  0
ARC
  5
30E
330
1A
100
AcDbEntity
  8
SEIHIN
  6
CONTINUOUS
 62
     3
 48
16.0
100
AcDbCircle
 10
352.9562289558989
 20
289.7326498195822
 30
0.0
 40
0.9999826897374896
100
AcDbArc
 50
322.9416714733793
 51
89.99950611951369
  0
LINE
  5
30F
330
1A
100
AcDbEntity
  8
SEIHIN
  6
CONTINUOUS
 62
     3
 48
16.0
100
AcDbLine
 10
366.4476375755903
 20
290.4054325092827
 30
0.0
 11
367.0492375755904
 21
288.2819325092825
 31
0.0
  0
ARC
  5
310
330
1A
100
AcDbEntity
  8
SEIHIN
  6
CONTINUOUS
 62
     3
 48
16.0
100
AcDbCircle
 10
366.8568203065056
 20
288.2274085296106
 30
0.0
 40
0.1999931743868602
100
AcDbArc
 50
272.6702586056321
 51
15.82077981413162
  0
ARC
  5
311
330
1A
100
AcDbEntity
  8
SEIHIN
  6
CONTINUOUS
 62
     3
 48
16.0
100
AcDbCircle
 10
367.0730375755904
 20
290.5826325092826
 30
0.0
 40
0.6500192304848161
100
AcDbArc
 50
15.81947663554556
 51
195.8194766355455
  0
ARC
  5
312
330
1A
100
AcDbEntity
  8
SEIHIN
  6
CONTINUOUS
 62
     3
 48
16.0
100
AcDbCircle
 10
364.9635359630852
 20
285.1049292098365
 30
0.0
 40
0.1999497686851453
100
AcDbArc
 50
283.0360876243436
 51
24.87387196939794
  0
ARC
  5
313
330
1A
100
AcDbEntity
  8
SEIHIN
  6
CONTINUOUS
 62
     3
 48
16.0
100
AcDbCircle
 10
366.9596271393249
 20
286.0298152975938
 30
0.0
 40
2.000003477458706
100
AcDbArc
 50
92.67925038682582
 51
204.8592541446025
  0
ARC
  5
314
330
1A
100
AcDbEntity
  8
SEIHIN
  6
CONTINUOUS
 62
     3
 48
16.0
100
AcDbCircle
 10
383.8011105663199
 20
283.5425138698811
 30
0.0
 40
1.000027009444113
100
AcDbArc
 50
249.2210550489032
 51
0.001067930189349
  0
LINE
  5
315
330
1A
100
AcDbEntity
  8
SEIHIN
  6
CONTINUOUS
 62
     3
 48
16.0
100
AcDbLine
 10
383.7988375755904
 20
276.4985325092826
 30
0.0
 11
375.3000375755904
 21
284.1155325092827
 31
0.0
  0
LINE
  5
316
330
1A
100
AcDbEntity
  8
SEIHIN
  6
CONTINUOUS
 62
     3
 48
16.0
100
AcDbLine
 10
376.8333375755905
 20
286.6350325092827
 30
0.0
 11
383.4463375755905
 21
282.6075325092826
 31
0.0
  0
ARC
  5
317
330
1A
100
AcDbEntity
  8
SEIHIN
  6
CONTINUOUS
 62
     3
 48
16.0
100
AcDbCircle
 10
376.3011242659727
 20
285.2326106389261
 30
0.0
 40
1.500012703075688
100
AcDbArc
 50
69.21845302878051
 51
228.1344061911013
  0
ARC
  5
318
330
1A
100
AcDbEntity
  8
SEIHIN
  6
CONTINUOUS
 62
     3
 48
16.0
100
AcDbCircle
 10
368.6311324454111
 20
285.0826234571887
 30
0.0
 40
0.6500266340686779
100
AcDbArc
 50
285.0972849914215
 51
15.820121030194
  0
LINE
  5
31A
330
1A
100
AcDbEntity
  8
SUNPOU
  6
CONTINUOUS
 62
     4
 48
16.0
100
AcDbLine
 10
425.3138079667055
 20
250.5200865296482
 30
0.0
 11
425.3137079667054
 21
235.5200865296481
 31
0.0
  0
LINE
  5
31B
330
1A
100
AcDbEntity
  8
CENTER_L
  6
CENTER
 62
     1
 48
5.0
100
AcDbLine
 10
397.8090375755903
 20
284.9293325092826
 30
0.0
 11
415.9351375755902
 21
292.1792325092825
 31
0.0
  0
LINE
  5
31C
330
1A
100
AcDbEntity
  8
SEIHIN
  6
CONTINUOUS
 62
     3
 48
16.0
100
AcDbLine
 10
409.6555375755903
 20
278.8974325092826
 30
0.0
 11
413.3695375755904
 21
280.3828325092827
 31
0.0
  0
LINE
  5
31D
330
1A
100
AcDbEntity
  8
SEIHIN
  6
CONTINUOUS
 62
     3
 48
16.0
100
AcDbLine
 10
407.0558375755904
 20
280.0116325092826
 30
0.0
 11
409.6555375755903
 21
278.8974325092826
 31
0.0
  0
LINE
  5
31E
330
1A
100
AcDbEntity
  8
SEIHIN
  6
CONTINUOUS
 62
     3
 48
16.0
100
AcDbLine
 10
388.4582375755903
 20
326.8071325092827
 30
0.0
 11
335.6404375755905
 21
322.1862325092826
 31
0.0
  0
LINE
  5
31F
330
1A
100
AcDbEntity
  8
SEIHIN
  6
CONTINUOUS
 62
     3
 48
16.0
100
AcDbLine
 10
358.2165375755905
 20
304.9963325092826
 30
0.0
 11
350.5438375755904
 21
294.8352325092826
 31
0.0
  0
LINE
  5
320
330
1A
100
AcDbEntity
  8
SEIHIN
  6
CONTINUOUS
 62
     3
 48
16.0
100
AcDbLine
 10
356.2214375755903
 20
306.5029325092826
 30
0.0
 11
347.7014375755905
 21
295.2196325092826
 31
0.0
  0
LINE
  5
321
330
1A
100
AcDbEntity
  8
SEIHIN
  6
CONTINUOUS
 62
     3
 48
16.0
100
AcDbLine
 10
337.8211375755905
 20
308.8372325092826
 30
0.0
 11
392.1412375755904
 21
308.8371325092826
 31
0.0
  0
ARC
  5
322
330
1A
100
AcDbEntity
  8
SEIHIN
  6
CONTINUOUS
 62
     3
 48
16.0
100
AcDbCircle
 10
338.1680787083769
 20
293.296555283004
 30
0.0
 40
29.00003300716195
100
AcDbArc
 50
95.00004306917707
 51
142.9435212941016
  0
LINE
  5
323
330
1A
100
AcDbEntity
  8
SEIHIN
  6
CONTINUOUS
 62
     3
 48
16.0
100
AcDbLine
 10
304.0456375755904
 20
306.7922325092826
 30
0.0
 11
302.7282375755904
 21
303.9671325092825
 31
0.0
  0
LINE
  5
324
330
1A
100
AcDbEntity
  8
SEIHIN
  6
CONTINUOUS
 62
     3
 48
16.0
100
AcDbLine
 10
301.8219375755904
 20
304.3898325092826
 30
0.0
 11
303.1393375755905
 21
307.2148325092825
 31
0.0
  0
ARC
  5
325
330
1A
100
AcDbEntity
  8
SEIHIN
  6
CONTINUOUS
 62
     3
 48
16.0
100
AcDbCircle
 10
302.6861138364
 20
307.4261834175702
 30
0.0
 40
0.4999903293584399
100
AcDbArc
 50
334.9942007564464
 51
74.99801644261535
  0
ARC
  5
326
330
1A
100
AcDbEntity
  8
SEIHIN
  6
CONTINUOUS
 62
     3
 48
16.0
100
AcDbCircle
 10
301.8132892620112
 20
303.2326084508529
 30
0.0
 40
5.999975941764724
100
AcDbArc
 50
270.0004613625468
 51
322.9437776467121
  0
LINE
  5
327
330
1A
100
AcDbEntity
  8
SEIHIN
  6
CONTINUOUS
 62
     3
 48
16.0
100
AcDbLine
 10
301.3220375755904
 20
309.3446325092826
 30
0.0
 11
303.0743375755905
 21
308.8750325092827
 31
0.0
  0
LINE
  5
328
330
1A
100
AcDbEntity
  8
SEIHIN
  6
CONTINUOUS
 62
     3
 48
16.0
100
AcDbLine
 10
298.0511375755905
 20
302.9328325092826
 30
0.0
 11
299.4848375755904
 21
308.2839325092826
 31
0.0
  0
LINE
  5
329
330
1A
100
AcDbEntity
  8
SEIHIN
  6
CONTINUOUS
 62
     3
 48
16.0
100
AcDbLine
 10
300.4508375755904
 20
308.0251325092826
 30
0.0
 11
299.1492375755904
 21
303.1675325092826
 31
0.0
  0
LINE
  5
32A
330
1A
100
AcDbEntity
  8
SEIHIN
  6
CONTINUOUS
 62
     3
 48
16.0
100
AcDbLine
 10
291.5511375755905
 20
302.9328325092826
 30
0.0
 11
290.1172375755904
 21
308.2839325092826
 31
0.0
  0
LINE
  5
32B
330
1A
100
AcDbEntity
  8
SEIHIN
  6
CONTINUOUS
 62
     3
 48
16.0
100
AcDbLine
 10
289.1513375755905
 20
308.0251325092826
 30
0.0
 11
290.4529375755905
 21
303.1675325092826
 31
0.0
  0
LINE
  5
32C
330
1A
100
AcDbEntity
  8
SEIHIN
  6
CONTINUOUS
 62
     3
 48
16.0
100
AcDbLine
 10
299.3011375755904
 20
299.9328325092826
 30
0.0
 11
294.8011375755905
 21
299.9328325092826
 31
0.0
  0
LINE
  5
32D
330
1A
100
AcDbEntity
  8
SEIHIN
  6
CONTINUOUS
 62
     3
 48
16.0
100
AcDbLine
 10
294.8011375755905
 20
302.9328325092826
 30
0.0
 11
298.0511375755905
 21
302.9328325092826
 31
0.0
  0
LINE
  5
32E
330
1A
100
AcDbEntity
  8
SEIHIN
  6
CONTINUOUS
 62
     3
 48
16.0
100
AcDbLine
 10
300.3011375755905
 20
298.7328325092827
 30
0.0
 11
294.8011375755905
 21
298.7328325092827
 31
0.0
  0
LINE
  5
32F
330
1A
100
AcDbEntity
  8
SEIHIN
  6
CONTINUOUS
 62
     3
 48
16.0
100
AcDbLine
 10
294.8011375755905
 20
304.2328325092827
 30
0.0
 11
297.3010375755904
 21
304.2328325092827
 31
0.0
  0
LINE
  5
330
330
1A
100
AcDbEntity
  8
SEIHIN
  6
CONTINUOUS
 62
     3
 48
16.0
100
AcDbLine
 10
290.3011375755905
 20
299.9328325092826
 30
0.0
 11
290.8011375755905
 21
298.7328325092827
 31
0.0
  0
LINE
  5
331
330
1A
100
AcDbEntity
  8
SEIHIN
  6
CONTINUOUS
 62
     3
 48
16.0
100
AcDbLine
 10
290.3011375755905
 20
299.9328325092826
 30
0.0
 11
291.5511375755905
 21
302.9328325092826
 31
0.0
  0
LINE
  5
332
330
1A
100
AcDbEntity
  8
SEIHIN
  6
CONTINUOUS
 62
     3
 48
16.0
100
AcDbLine
 10
292.3011375755905
 20
304.2328325092827
 30
0.0
 11
292.3011375755905
 21
302.9328325092826
 31
0.0
  0
LINE
  5
333
330
1A
100
AcDbEntity
  8
SEIHIN
  6
CONTINUOUS
 62
     3
 48
16.0
100
AcDbLine
 10
290.4314375755904
 20
302.8458325092826
 30
0.0
 11
290.1696375755904
 21
302.2174325092827
 31
0.0
  0
ARC
  5
334
330
1A
100
AcDbEntity
  8
SEIHIN
  6
CONTINUOUS
 62
     3
 48
16.0
100
AcDbCircle
 10
295.9371138568809
 20
308.1930705568641
 30
0.0
 40
8.9999583507287
100
AcDbArc
 50
204.9978315563459
 51
222.8754850659493
  0
ARC
  5
335
330
1A
100
AcDbEntity
  8
SEIHIN
  6
CONTINUOUS
 62
     3
 48
16.0
100
AcDbCircle
 10
289.7080778658381
 20
302.409739707896
 30
0.0
 40
0.5000194239278651
100
AcDbArc
 50
222.8739674882992
 51
337.381123721883
  0
ARC
  5
336
330
1A
100
AcDbEntity
  8
SEIHIN
  6
CONTINUOUS
 62
     3
 48
16.0
100
AcDbCircle
 10
289.9699350230968
 20
303.0380941804774
 30
0.0
 40
0.4999491535832865
100
AcDbArc
 50
337.3834207096096
 51
15.00497918766642
  0
LINE
  5
337
330
1A
100
AcDbEntity
  8
SEIHIN
  6
CONTINUOUS
 62
     3
 48
16.0
100
AcDbLine
 10
290.3011375755905
 20
299.9328325092826
 30
0.0
 11
294.8011375755905
 21
299.9328325092826
 31
0.0
  0
LINE
  5
338
330
1A
100
AcDbEntity
  8
SEIHIN
  6
CONTINUOUS
 62
     3
 48
16.0
100
AcDbLine
 10
289.3011375755905
 20
298.7328325092827
 30
0.0
 11
294.8011375755905
 21
298.7328325092827
 31
0.0
  0
LINE
  5
339
330
1A
100
AcDbEntity
  8
SEIHIN
  6
CONTINUOUS
 62
     3
 48
16.0
100
AcDbLine
 10
294.8011375755905
 20
302.9328325092826
 30
0.0
 11
291.5511375755905
 21
302.9328325092826
 31
0.0
  0
LINE
  5
33A
330
1A
100
AcDbEntity
  8
SEIHIN
  6
CONTINUOUS
 62
     3
 48
16.0
100
AcDbLine
 10
294.8010375755904
 20
304.2328325092827
 30
0.0
 11
292.3011375755905
 21
304.2328325092827
 31
0.0
  0
LINE
  5
33B
330
1A
100
AcDbEntity
  8
SEIHIN
  6
CONTINUOUS
 62
     3
 48
16.0
100
AcDbLine
 10
289.3011375755905
 20
298.7328325092827
 30
0.0
 11
289.3011375755905
 21
297.2328325092827
 31
0.0
  0
LINE
  5
33C
330
1A
100
AcDbEntity
  8
SEIHIN
  6
CONTINUOUS
 62
     3
 48
16.0
100
AcDbLine
 10
297.3011375755904
 20
304.2328325092827
 30
0.0
 11
297.3011375755904
 21
302.9328325092826
 31
0.0
  0
LINE
  5
33D
330
1A
100
AcDbEntity
  8
SEIHIN
  6
CONTINUOUS
 62
     3
 48
16.0
100
AcDbLine
 10
299.3011375755904
 20
299.9328325092826
 30
0.0
 11
298.8011375755905
 21
298.7328325092827
 31
0.0
  0
LINE
  5
33E
330
1A
100
AcDbEntity
  8
SEIHIN
  6
CONTINUOUS
 62
     3
 48
16.0
100
AcDbLine
 10
299.3011375755904
 20
299.9328325092826
 30
0.0
 11
298.0511375755905
 21
302.9328325092826
 31
0.0
  0
LINE
  5
33F
330
1A
100
AcDbEntity
  8
SEIHIN
  6
CONTINUOUS
 62
     3
 48
16.0
100
AcDbLine
 10
299.1706375755904
 20
302.8458325092826
 30
0.0
 11
299.4325375755904
 21
302.2173325092826
 31
0.0
  0
ARC
  5
340
330
1A
100
AcDbEntity
  8
SEIHIN
  6
CONTINUOUS
 62
     3
 48
16.0
100
AcDbCircle
 10
299.8940686179553
 20
302.4097269648198
 30
0.0
 40
0.5000265288841581
100
AcDbArc
 50
202.6293689728989
 51
317.1131439057163
  0
ARC
  5
341
330
1A
100
AcDbEntity
  8
SEIHIN
  6
CONTINUOUS
 62
     3
 48
16.0
100
AcDbCircle
 10
299.6322396866407
 20
303.0381008032724
 30
0.0
 40
0.500043603898429
100
AcDbArc
 50
164.9987072436347
 51
202.6128928591191
  0
LINE
  5
342
330
1A
100
AcDbEntity
  8
SEIHIN
  6
CONTINUOUS
 62
     3
 48
16.0
100
AcDbLine
 10
300.3011375755905
 20
298.7328325092827
 30
0.0
 11
300.3011375755905
 21
297.2328325092827
 31
0.0
  0
ARC
  5
343
330
1A
100
AcDbEntity
  8
SEIHIN
  6
CONTINUOUS
 62
     3
 48
16.0
100
AcDbCircle
 10
293.6652000478321
 20
308.1934253419313
 30
0.0
 40
9.000024792292755
100
AcDbArc
 50
317.1218255523317
 51
334.9991711343641
  0
ARC
  5
344
330
1A
100
AcDbEntity
  8
SEIHIN
  6
CONTINUOUS
 62
     3
 48
16.0
100
AcDbCircle
 10
293.6652182353467
 20
308.1934274595546
 30
0.0
 40
9.999994428414675
100
AcDbArc
 50
304.3038978962846
 51
334.9992749556055
  0
LINE
  5
345
330
1A
100
AcDbEntity
  8
SEIHIN
  6
CONTINUOUS
 62
     3
 48
16.0
100
AcDbLine
 10
286.7866375755905
 20
307.9091325092826
 30
0.0
 11
288.5389375755904
 21
308.3786325092826
 31
0.0
  0
ARC
  5
346
330
1A
100
AcDbEntity
  8
SEIHIN
  6
CONTINUOUS
 62
     3
 48
16.0
100
AcDbCircle
 10
288.6683967244804
 20
307.8956983587315
 30
0.0
 40
0.4999850647767332
100
AcDbArc
 50
15.00338042543584
 51
105.0063462322174
  0
ARC
  5
347
330
1A
100
AcDbEntity
  8
SEIHIN
  6
CONTINUOUS
 62
     3
 48
16.0
100
AcDbCircle
 10
288.6683375755904
 20
307.8957325092826
 30
0.0
 40
1.500003483329249
100
AcDbArc
 50
14.99883465683191
 51
104.9988346568317
  0
ARC
  5
348
330
1A
100
AcDbEntity
  8
SEIHIN
  6
CONTINUOUS
 62
     3
 48
16.0
100
AcDbCircle
 10
300.9337784267005
 20
307.8956983587315
 30
0.0
 40
0.4999850647766772
100
AcDbArc
 50
74.99365376778837
 51
164.9966195745672
  0
LINE
  5
349
330
1A
100
AcDbEntity
  8
SEIHIN
  6
CONTINUOUS
 62
     3
 48
16.0
100
AcDbLine
 10
302.8155375755904
 20
307.9091325092826
 30
0.0
 11
301.0631375755904
 21
308.3786325092826
 31
0.0
  0
ARC
  5
34A
330
1A
100
AcDbEntity
  8
SEIHIN
  6
CONTINUOUS
 62
     3
 48
16.0
100
AcDbCircle
 10
300.9338375755904
 20
307.8957325092826
 30
0.0
 40
1.500003483329262
100
AcDbArc
 50
75.00116534316879
 51
165.0011653431676
  0
LINE
  5
34B
330
1A
100
AcDbEntity
  8
SEIHIN
  6
CONTINUOUS
 62
     3
 48
16.0
100
AcDbLine
 10
315.0247375755905
 20
310.7720325092826
 30
0.0
 11
306.6016375755904
 21
299.6170325092827
 31
0.0
  0
ARC
  5
34C
330
1A
100
AcDbEntity
  8
SEIHIN
  6
CONTINUOUS
 62
     3
 48
16.0
100
AcDbCircle
 10
302.6861180010129
 20
307.4261744860304
 30
0.0
 40
1.49996800286796
100
AcDbArc
 50
334.9988153855743
 51
75.00002814091878
  0
ARC
  5
34D
330
1A
100
AcDbEntity
  8
SEIHIN
  6
CONTINUOUS
 62
     3
 48
16.0
100
AcDbCircle
 10
337.8211328611196
 20
292.8372301616267
 30
0.0
 40
16.00000234765668
100
AcDbArc
 50
89.99998311754719
 51
142.9436590548738
  0
ARC
  5
34E
330
1A
100
AcDbEntity
  8
SEIHIN
  6
CONTINUOUS
 62
     3
 48
16.0
100
AcDbCircle
 10
384.8012688068303
 20
309.7326633308329
 30
0.0
 40
1.000030830160825
100
AcDbArc
 50
269.9924812355906
 51
296.426860751418
  0
ARC
  5
34F
330
1A
100
AcDbEntity
  8
SEIHIN
  6
CONTINUOUS
 62
     3
 48
16.0
100
AcDbCircle
 10
381.8011375755903
 20
303.2326325092826
 30
0.0
 40
3.000000000000042
100
AcDbArc
 50
359.9999999999992
 51
89.9999999999992
  0
ARC
  5
350
330
1A
100
AcDbEntity
  8
SEIHIN
  6
CONTINUOUS
 62
     3
 48
16.0
100
AcDbCircle
 10
379.7604312736821
 20
286.2326293711581
 30
0.0
 40
20.00000313812555
100
AcDbArc
 50
89.99998194636523
 51
142.9432997870778
  0
ARC
  5
351
330
1A
100
AcDbEntity
  8
SEIHIN
  6
CONTINUOUS
 62
     3
 48
16.0
100
AcDbCircle
 10
379.7604380492967
 20
286.2326327451715
 30
0.0
 40
22.49999976411124
100
AcDbArc
 50
90.00000120628298
 51
142.9433444493903
  0
ARC
  5
352
330
1A
100
AcDbEntity
  8
SEIHIN
  6
CONTINUOUS
 62
     3
 48
16.0
100
AcDbCircle
 10
377.768684961791
 20
290.2327892806569
 30
0.0
 40
24.49997298111185
100
AcDbArc
 50
130.5916740106076
 51
142.9440749348519
  0
ARC
  5
353
330
1A
100
AcDbEntity
  8
SEIHIN
  6
CONTINUOUS
 62
     3
 48
16.0
100
AcDbCircle
 10
377.7687175904318
 20
290.2328447298163
 30
0.0
 40
26.99995885889399
100
AcDbArc
 50
136.444851261897
 51
142.9441616299265
  0
LINE
  5
354
330
1A
100
AcDbEntity
  8
SEIHIN
  6
CONTINUOUS
 62
     3
 48
16.0
100
AcDbLine
 10
384.8011375755903
 20
308.7326325092826
 30
0.0
 11
379.7604375755905
 21
308.7326325092826
 31
0.0
  0
LINE
  5
355
330
1A
100
AcDbEntity
  8
SEIHIN
  6
CONTINUOUS
 62
     3
 48
16.0
100
AcDbLine
 10
381.8011375755903
 20
306.2326325092826
 30
0.0
 11
379.7604375755905
 21
306.2326325092826
 31
0.0
  0
LINE
  5
356
330
1A
100
AcDbEntity
  8
CENTER_L
  6
CENTER
 62
     1
 48
5.0
100
AcDbLine
 10
404.5758375755903
 20
319.9465325092826
 30
0.0
 11
386.9351375755903
 21
312.8907325092826
 31
0.0
  0
LINE
  5
358
330
1A
100
AcDbEntity
  8
CENTER_L
  6
CENTER
 62
     1
 48
5.0
100
AcDbLine
 10
406.4690375755905
 20
315.3187325092826
 30
0.0
 11
388.7473375755904
 21
308.2306325092825
 31
0.0
  0
ARC
  5
359
330
1A
100
AcDbEntity
  8
SEIHIN
  6
CONTINUOUS
 62
     3
 48
16.0
100
AcDbCircle
 10
392.1412342796294
 20
303.8371347407837
 30
0.0
 40
4.999997768500088
100
AcDbArc
 50
21.80073334328504
 51
89.99996223105259
  0
ARC
  5
35A
330
1A
100
AcDbEntity
  8
SEIHIN
  6
CONTINUOUS
 62
     3
 48
16.0
100
AcDbCircle
 10
378.8011571653788
 20
307.2323899065009
 30
0.0
 40
9.999980413154446
100
AcDbArc
 50
0.001390014271732
 51
9.234443291937003
  0
LINE
  5
35B
330
1A
100
AcDbEntity
  8
SEIHIN
  6
CONTINUOUS
 62
     3
 48
16.0
100
AcDbLine
 10
391.0872375755904
 20
325.3217325092825
 30
0.0
 11
394.8011375755904
 21
326.8071325092827
 31
0.0
  0
LINE
  5
35C
330
1A
100
AcDbEntity
  8
SEIHIN
  6
CONTINUOUS
 62
     3
 48
16.0
100
AcDbLine
 10
388.4582375755903
 20
326.8071325092827
 30
0.0
 11
394.8011375755904
 21
326.8071325092827
 31
0.0
  0
LINE
  5
35D
330
1A
100
AcDbEntity
  8
SEIHIN
  6
CONTINUOUS
 62
     3
 48
16.0
100
AcDbLine
 10
391.0872375755904
 20
325.3217325092825
 30
0.0
 11
389.9730375755903
 21
322.7220325092827
 31
0.0
  0
LINE
  5
35E
330
1A
100
AcDbEntity
  8
SEIHIN
  6
CONTINUOUS
 62
     3
 48
16.0
100
AcDbLine
 10
388.0871375755903
 20
473.5750216384105
 30
0.0
 11
284.8011375755904
 21
473.5750216384105
 31
0.0
  0
LINE
  5
35F
330
1A
100
AcDbEntity
  8
SEIHIN
  6
CONTINUOUS
 62
     3
 48
16.0
100
AcDbLine
 10
285.6654375755904
 20
461.8245216384106
 30
0.0
 11
291.6382375755903
 21
461.8245216384106
 31
0.0
  0
LINE
  5
360
330
1A
100
AcDbEntity
  8
SEIHIN
  6
CONTINUOUS
 62
     3
 48
16.0
100
AcDbLine
 10
285.6654375755904
 20
460.3245216384106
 30
0.0
 11
291.6382375755903
 21
460.3245216384106
 31
0.0
  0
LINE
  5
361
330
1A
100
AcDbEntity
  8
SEIHIN
  6
CONTINUOUS
 62
     3
 48
16.0
100
AcDbLine
 10
388.0871375755903
 20
448.5749216384105
 30
0.0
 11
284.8011375755904
 21
448.5749216384105
 31
0.0
  0
LINE
  5
362
330
1A
100
AcDbEntity
  8
SEIHIN
  6
CONTINUOUS
 62
     3
 48
16.0
100
AcDbLine
 10
285.4154375755904
 20
460.5745216384105
 30
0.0
 11
285.4154375755904
 21
461.5745216384105
 31
0.0
  0
LINE
  5
363
330
1A
100
AcDbEntity
  8
SEIHIN
  6
CONTINUOUS
 62
     3
 48
16.0
100
AcDbLine
 10
284.8011375755904
 20
448.5750216384105
 30
0.0
 11
284.8012375755905
 21
461.0749216384105
 31
0.0
  0
LINE
  5
364
330
1A
100
AcDbEntity
  8
SEIHIN
  6
CONTINUOUS
 62
     3
 48
16.0
100
AcDbLine
 10
272.5010375755904
 20
453.5750216384104
 30
0.0
 11
272.5010375755904
 21
461.0749216384105
 31
0.0
  0
LINE
  5
365
330
1A
100
AcDbEntity
  8
SEIHIN
  6
CONTINUOUS
 62
     3
 48
16.0
100
AcDbLine
 10
269.5011375755904
 20
449.0749216384103
 30
0.0
 11
269.5011375755904
 21
461.0749216384105
 31
0.0
  0
LINE
  5
366
330
1A
100
AcDbEntity
  8
SEIHIN
  6
CONTINUOUS
 62
     3
 48
16.0
100
AcDbLine
 10
265.8010375755904
 20
449.0749216384103
 30
0.0
 11
265.8010375755904
 21
461.0749216384105
 31
0.0
  0
LINE
  5
367
330
1A
100
AcDbEntity
  8
SEIHIN
  6
CONTINUOUS
 62
     3
 48
16.0
100
AcDbLine
 10
284.8011375755904
 20
453.5749216384103
 30
0.0
 11
269.5010375755903
 21
453.5749216384103
 31
0.0
  0
LINE
  5
368
330
1A
100
AcDbEntity
  8
SEIHIN
  6
CONTINUOUS
 62
     3
 48
16.0
100
AcDbLine
 10
265.8010375755904
 20
449.0749216384103
 30
0.0
 11
269.5011375755904
 21
449.0749216384103
 31
0.0
  0
ARC
  5
369
330
1A
100
AcDbEntity
  8
SEIHIN
  6
CONTINUOUS
 62
     3
 48
16.0
100
AcDbCircle
 10
285.6654375755904
 20
460.5745216384105
 30
0.0
 40
0.25
100
AcDbArc
 50
180.0
 51
270.0
  0
LINE
  5
36A
330
1A
100
AcDbEntity
  8
SEIHIN
  6
CONTINUOUS
 62
     3
 48
16.0
100
AcDbLine
 10
284.8011375755904
 20
468.5749216384103
 30
0.0
 11
269.5010375755903
 21
468.5749216384103
 31
0.0
  0
LINE
  5
36B
330
1A
100
AcDbEntity
  8
SEIHIN
  6
CONTINUOUS
 62
     3
 48
16.0
100
AcDbLine
 10
265.8010375755904
 20
473.0750216384105
 30
0.0
 11
265.8010375755904
 21
461.0749216384105
 31
0.0
  0
LINE
  5
36C
330
1A
100
AcDbEntity
  8
SEIHIN
  6
CONTINUOUS
 62
     3
 48
16.0
100
AcDbLine
 10
269.5011375755904
 20
473.0750216384105
 30
0.0
 11
269.5011375755904
 21
461.0749216384105
 31
0.0
  0
LINE
  5
36D
330
1A
100
AcDbEntity
  8
SEIHIN
  6
CONTINUOUS
 62
     3
 48
16.0
100
AcDbLine
 10
265.8010375755904
 20
473.0749216384103
 30
0.0
 11
269.5011375755904
 21
473.0749216384103
 31
0.0
  0
LINE
  5
36E
330
1A
100
AcDbEntity
  8
SEIHIN
  6
CONTINUOUS
 62
     3
 48
16.0
100
AcDbLine
 10
284.8011375755904
 20
473.5749216384105
 30
0.0
 11
284.8012375755905
 21
461.0749216384105
 31
0.0
  0
LINE
  5
36F
330
1A
100
AcDbEntity
  8
SEIHIN
  6
CONTINUOUS
 62
     3
 48
16.0
100
AcDbLine
 10
272.5010375755904
 20
468.5749216384103
 30
0.0
 11
272.5010375755904
 21
461.0749216384105
 31
0.0
  0
ARC
  5
370
330
1A
100
AcDbEntity
  8
SEIHIN
  6
CONTINUOUS
 62
     3
 48
16.0
100
AcDbCircle
 10
285.6654375755904
 20
461.5745216384105
 30
0.0
 40
0.25
100
AcDbArc
 50
90.0
 51
180.0
  0
LINE
  5
371
330
1A
100
AcDbEntity
  8
SEIHIN
  6
CONTINUOUS
 62
     3
 48
16.0
100
AcDbLine
 10
324.9154375755905
 20
450.0749216384105
 30
0.0
 11
324.9154375755904
 21
461.0749216384105
 31
0.0
  0
LINE
  5
372
330
1A
100
AcDbEntity
  8
SEIHIN
  6
CONTINUOUS
 62
     3
 48
16.0
100
AcDbLine
 10
304.1855375755905
 20
460.5745216384105
 30
0.0
 11
304.1855375755905
 21
461.5745216384105
 31
0.0
  0
LINE
  5
373
330
1A
100
AcDbEntity
  8
SEIHIN
  6
CONTINUOUS
 62
     3
 48
16.0
100
AcDbLine
 10
304.8012375755904
 20
450.0749216384105
 30
0.0
 11
304.8012375755905
 21
461.0749216384105
 31
0.0
  0
ARC
  5
374
330
1A
100
AcDbEntity
  8
SEIHIN
  6
CONTINUOUS
 62
     3
 48
16.0
100
AcDbCircle
 10
294.8005375755905
 20
461.0745216384105
 30
0.0
 40
2.5
100
AcDbArc
 50
270.0
 51
90.0
  0
ARC
  5
375
330
1A
100
AcDbEntity
  8
SEIHIN
  6
CONTINUOUS
 62
     3
 48
16.0
100
AcDbCircle
 10
294.8004375755904
 20
461.0745216384105
 30
0.0
 40
2.5
100
AcDbArc
 50
90.0
 51
270.0
  0
LINE
  5
376
330
1A
100
AcDbEntity
  8
CENTER_L
  6
CENTER
 62
     1
 48
5.0
100
AcDbLine
 10
294.8012375755904
 20
453.6101216384105
 30
0.0
 11
294.8012375755904
 21
468.4815216384105
 31
0.0
  0
ARC
  5
377
330
1A
100
AcDbEntity
  8
SEIHIN
  6
CONTINUOUS
 62
     3
 48
16.0
100
AcDbCircle
 10
294.8005375755905
 20
461.0745216384105
 30
0.0
 40
3.25
100
AcDbArc
 50
270.0
 51
90.0
  0
ARC
  5
378
330
1A
100
AcDbEntity
  8
SEIHIN
  6
CONTINUOUS
 62
     3
 48
16.0
100
AcDbCircle
 10
294.8004375755904
 20
461.0745216384105
 30
0.0
 40
3.25
100
AcDbArc
 50
90.0
 51
270.0
  0
LINE
  5
379
330
1A
100
AcDbEntity
  8
SEIHIN
  6
CONTINUOUS
 62
     3
 48
16.0
100
AcDbLine
 10
303.9355375755904
 20
460.3245216384106
 30
0.0
 11
297.9627375755904
 21
460.3245216384106
 31
0.0
  0
ARC
  5
37A
330
1A
100
AcDbEntity
  8
SEIHIN
  6
CONTINUOUS
 62
     3
 48
16.0
100
AcDbCircle
 10
294.8005241213638
 20
461.0745099092945
 30
0.0
 40
5.499988270900487
100
AcDbArc
 50
270.0001401585546
 51
352.1626267573641
  0
ARC
  5
37B
330
1A
100
AcDbEntity
  8
SEIHIN
  6
CONTINUOUS
 62
     3
 48
16.0
100
AcDbCircle
 10
294.8005026704124
 20
461.074492138217
 30
0.0
 40
4.499970499941926
100
AcDbArc
 50
270.0004444294436
 51
350.4062492221714
  0
ARC
  5
37C
330
1A
100
AcDbEntity
  8
SEIHIN
  6
CONTINUOUS
 62
     3
 48
16.0
100
AcDbCircle
 10
294.8004724807684
 20
461.074492138217
 30
0.0
 40
4.499970499941941
100
AcDbArc
 50
189.5937507778286
 51
269.9995555705565
  0
ARC
  5
37D
330
1A
100
AcDbEntity
  8
SEIHIN
  6
CONTINUOUS
 62
     3
 48
16.0
100
AcDbCircle
 10
294.800451029817
 20
461.0745099092946
 30
0.0
 40
5.499988270900531
100
AcDbArc
 50
187.8373732426362
 51
269.9998598414458
  0
ARC
  5
37E
330
1A
100
AcDbEntity
  8
SEIHIN
  6
CONTINUOUS
 62
     3
 48
16.0
100
AcDbCircle
 10
303.9355375755904
 20
460.5745216384105
 30
0.0
 40
0.2500000000000426
100
AcDbArc
 50
269.9999999999902
 51
359.9999999999902
  0
LINE
  5
37F
330
1A
100
AcDbEntity
  8
SEIHIN
  6
CONTINUOUS
 62
     3
 48
16.0
100
AcDbLine
 10
303.9355375755904
 20
461.8245216384106
 30
0.0
 11
297.9627375755904
 21
461.8245216384106
 31
0.0
  0
ARC
  5
380
330
1A
100
AcDbEntity
  8
SEIHIN
  6
CONTINUOUS
 62
     3
 48
16.0
100
AcDbCircle
 10
294.8005241213638
 20
461.0745333675265
 30
0.0
 40
5.499988270900487
100
AcDbArc
 50
7.837373242635846
 51
89.99985984144533
  0
ARC
  5
381
330
1A
100
AcDbEntity
  8
SEIHIN
  6
CONTINUOUS
 62
     3
 48
16.0
100
AcDbCircle
 10
294.8005026704124
 20
461.074551138604
 30
0.0
 40
4.499970499941921
100
AcDbArc
 50
9.593750777828571
 51
89.99955557055644
  0
ARC
  5
382
330
1A
100
AcDbEntity
  8
SEIHIN
  6
CONTINUOUS
 62
     3
 48
16.0
100
AcDbCircle
 10
294.8004724807684
 20
461.074551138604
 30
0.0
 40
4.49997049994194
100
AcDbArc
 50
90.00044442944341
 51
170.4062492221713
  0
ARC
  5
383
330
1A
100
AcDbEntity
  8
SEIHIN
  6
CONTINUOUS
 62
     3
 48
16.0
100
AcDbCircle
 10
294.800451029817
 20
461.0745333675264
 30
0.0
 40
5.49998827090053
100
AcDbArc
 50
90.00014015855418
 51
172.1626267573637
  0
LINE
  5
384
330
1A
100
AcDbEntity
  8
SEIHIN
  6
CONTINUOUS
 62
     3
 48
16.0
100
AcDbLine
 10
304.8012375755904
 20
472.0750216384105
 30
0.0
 11
304.8012375755905
 21
461.0750216384105
 31
0.0
  0
ARC
  5
385
330
1A
100
AcDbEntity
  8
SEIHIN
  6
CONTINUOUS
 62
     3
 48
16.0
100
AcDbCircle
 10
303.9355375755904
 20
461.5745216384105
 30
0.0
 40
0.2500000000000426
100
AcDbArc
 50
0.0000000000097707
 51
90.00000000000978
  0
LINE
  5
386
330
1A
100
AcDbEntity
  8
SEIHIN
  6
CONTINUOUS
 62
     3
 48
16.0
100
AcDbLine
 10
324.9154375755905
 20
472.0750216384105
 30
0.0
 11
324.9154375755904
 21
461.0750216384105
 31
0.0
  0
LINE
  5
387
330
1A
100
AcDbEntity
  8
SEIHIN
  6
CONTINUOUS
 62
     3
 48
16.0
100
AcDbLine
 10
401.4911375755905
 20
461.0749216384105
 30
0.0
 11
401.4911375755905
 21
447.0749216384104
 31
0.0
  0
LINE
  5
388
330
1A
100
AcDbEntity
  8
SEIHIN
  6
CONTINUOUS
 62
     3
 48
16.0
100
AcDbLine
 10
396.6611375755904
 20
461.0749216384105
 30
0.0
 11
396.6611375755904
 21
447.0749216384104
 31
0.0
  0
LINE
  5
389
330
1A
100
AcDbEntity
  8
SEIHIN
  6
CONTINUOUS
 62
     3
 48
16.0
100
AcDbLine
 10
413.3711375755903
 20
461.0749216384105
 30
0.0
 11
413.3711375755903
 21
439.5749216384103
 31
0.0
  0
LINE
  5
38A
330
1A
100
AcDbEntity
  8
SEIHIN
  6
CONTINUOUS
 62
     3
 48
16.0
100
AcDbLine
 10
401.1211375755904
 20
461.0749216384105
 30
0.0
 11
401.1211375755904
 21
447.0749216384104
 31
0.0
  0
LINE
  5
38B
330
1A
100
AcDbEntity
  8
SEIHIN
  6
CONTINUOUS
 62
     3
 48
16.0
100
AcDbLine
 10
394.8011375755904
 20
439.5749216384104
 30
0.0
 11
394.8011375755904
 21
461.0749216384105
 31
0.0
  0
ELLIPSE
  5
38C
330
1A
100
AcDbEntity
  8
SEIHIN
  6
CONTINUOUS
 62
     3
100
AcDbEllipse
 10
409.6511375755903
 20
439.5749216384104
 30
0.0
 11
0.0
 21
10.0
 31
0.0
210
0.0
220
0.0
230
1.0
 40
0.3720000000000027
 41
3.141592653589793
 42
4.712388980384829
  0
ELLIPSE
  5
38D
330
1A
100
AcDbEntity
  8
SEIHIN
 62
     3
100
AcDbEllipse
 10
393.6929375755905
 20
439.5749216384104
 30
0.0
 11
0.0
 21
-10.0
 31
0.0
210
0.0
220
0.0
230
1.0
 40
0.3720000000000027
 41
-1.570796326794896
 42
-0.7812986397813453
  0
ELLIPSE
  5
38E
330
1A
100
AcDbEntity
  8
SEIHIN
 62
     3
100
AcDbEllipse
 10
394.8011375755904
 20
439.5749216384104
 30
0.0
 11
0.0
 21
-10.0
 31
0.0
210
0.0
220
0.0
230
1.0
 40
0.3713999999999999
 41
-1.570796326794896
 42
0.0
  0
ELLIPSE
  5
38F
330
1A
100
AcDbEntity
  8
SEIHIN
 62
     3
100
AcDbEllipse
 10
398.5211375755905
 20
439.5749216384104
 30
0.0
 11
0.0
 21
-10.0
 31
0.0
210
0.0
220
0.0
230
1.0
 40
0.3720000000000027
 41
-1.570796326794896
 42
0.0
  0
ELLIPSE
  5
390
330
1A
100
AcDbEntity
  8
SEIHIN
 62
     3
100
AcDbEllipse
 10
409.6611375755904
 20
437.5749216384104
 30
0.0
 11
0.0
 21
-2.1
 31
0.0
210
0.0
220
0.0
230
1.0
 40
0.3738846774165051
 41
0.0
 42
6.283185307179586
  0
ELLIPSE
  5
391
330
1A
100
AcDbEntity
  8
SEIHIN
 62
     3
100
AcDbEllipse
 10
398.5111375755905
 20
437.5749216384104
 30
0.0
 11
0.0
 21
-2.1
 31
0.0
210
0.0
220
0.0
230
1.0
 40
0.3696183147193703
 41
2.111470694473491
 42
7.313362806740554
  0
ELLIPSE
  5
392
330
1A
100
AcDbEntity
  8
SEIHIN
 62
     3
100
AcDbEllipse
 10
400.3716101446865
 20
437.5749216384104
 30
0.0
 11
0.0
 21
-3.25
 31
0.0
210
0.0
220
0.0
230
1.0
 40
0.3713679176294311
 41
-1.231786067640191
 42
4.373346094868992
  0
LINE
  5
393
330
1A
100
AcDbEntity
  8
CENTER_L
  6
CENTER
 62
     1
 48
5.0
100
AcDbLine
 10
409.6611375755904
 20
433.9344216384104
 30
0.0
 11
409.6611375755904
 21
441.6648216384104
 31
0.0
  0
LINE
  5
394
330
1A
100
AcDbEntity
  8
CENTER_L
  6
CENTER
 62
     1
 48
5.0
100
AcDbLine
 10
398.5111375755905
 20
433.8606216384105
 30
0.0
 11
398.5111375755905
 21
441.6648216384104
 31
0.0
  0
LINE
  5
395
330
1A
100
AcDbEntity
  8
CENTER_L
  6
CENTER
 62
     1
 48
5.0
100
AcDbLine
 10
400.3711375755903
 20
433.8729216384104
 30
0.0
 11
400.3711375755903
 21
441.6648216384104
 31
0.0
  0
LINE
  5
396
330
1A
100
AcDbEntity
  8
SEIHIN
  6
CONTINUOUS
 62
     3
 48
16.0
100
AcDbLine
 10
407.0611375755903
 20
435.5749216384103
 30
0.0
 11
407.0611375755903
 21
437.5749216384104
 31
0.0
  0
LINE
  5
397
330
1A
100
AcDbEntity
  8
SEIHIN
  6
CONTINUOUS
 62
     3
 48
16.0
100
AcDbLine
 10
405.9211375755904
 20
435.5749216384103
 30
0.0
 11
405.9211375755904
 21
437.5749216384104
 31
0.0
  0
LINE
  5
398
330
1A
100
AcDbEntity
  8
SEIHIN
  6
CONTINUOUS
 62
     3
 48
16.0
100
AcDbLine
 10
403.3511375755905
 20
457.5749216384103
 30
0.0
 11
403.3511375755905
 21
435.5749216384103
 31
0.0
  0
LINE
  5
399
330
1A
100
AcDbEntity
  8
SEIHIN
  6
CONTINUOUS
 62
     3
 48
16.0
100
AcDbLine
 10
394.7966375755903
 20
429.5749216384105
 30
0.0
 11
409.6511375755903
 21
429.5749216384105
 31
0.0
  0
ARC
  5
39A
330
1A
100
AcDbEntity
  8
SEIHIN
  6
CONTINUOUS
 62
     3
 48
16.0
100
AcDbCircle
 10
395.6436885307847
 20
434.5026607042917
 30
0.0
 40
5.000010762199111
100
AcDbArc
 50
202.6777018505057
 51
260.2464931011222
  0
LINE
  5
39B
330
1A
100
AcDbEntity
  8
SEIHIN
  6
CONTINUOUS
 62
     3
 48
16.0
100
AcDbLine
 10
399.2333586103992
 20
436.4941216384105
 30
0.0
 11
397.8195375755905
 21
436.4941216384105
 31
0.0
  0
LINE
  5
39C
330
1A
100
AcDbEntity
  8
SEIHIN
  6
CONTINUOUS
 62
     3
 48
16.0
100
AcDbLine
 10
406.0611375755903
 20
434.5749216384104
 30
0.0
 11
404.3511375755903
 21
434.5749216384104
 31
0.0
  0
ARC
  5
39D
330
1A
100
AcDbEntity
  8
SEIHIN
  6
CONTINUOUS
 62
     3
 48
16.0
100
AcDbCircle
 10
404.3511375755903
 20
435.5749216384103
 30
0.0
 40
0.9999999999999147
100
AcDbArc
 50
179.9999999999951
 51
269.9999999999951
  0
ARC
  5
39E
330
1A
100
AcDbEntity
  8
SEIHIN
  6
CONTINUOUS
 62
     3
 48
16.0
100
AcDbCircle
 10
406.0611375755903
 20
435.5749216384103
 30
0.0
 40
1.0
100
AcDbArc
 50
270.0
 51
0.0
  0
ARC
  5
39F
330
1A
100
AcDbEntity
  8
SEIHIN
  6
CONTINUOUS
 62
     3
 48
16.0
100
AcDbCircle
 10
404.9211375755904
 20
435.5749216384103
 30
0.0
 40
0.9999999999999431
100
AcDbArc
 50
270.0000000000032
 51
0.0000000000032569
  0
LINE
  5
3A0
330
1A
100
AcDbEntity
  8
CENTER_L
  6
CENTER
 62
     1
 48
5.0
100
AcDbLine
 10
402.4312375755904
 20
437.5749216384104
 30
0.0
 11
395.9192375755904
 21
437.5749216384104
 31
0.0
  0
ARC
  5
3A1
330
1A
100
AcDbEntity
  8
SEIHIN
  6
CONTINUOUS
 62
     3
 48
16.0
100
AcDbCircle
 10
400.4911375755904
 20
447.0749216384104
 30
0.0
 40
1.000000000000056
100
AcDbArc
 50
269.9999999999967
 51
359.9999999999967
  0
ARC
  5
3A2
330
1A
100
AcDbEntity
  8
SEIHIN
  6
CONTINUOUS
 62
     3
 48
16.0
100
AcDbCircle
 10
388.0871375755903
 20
445.5749216384104
 30
0.0
 40
3.000000000000113
100
AcDbArc
 50
0.0
 51
90.0
  0
ARC
  5
3A3
330
1A
100
AcDbEntity
  8
SEIHIN
  6
CONTINUOUS
 62
     3
 48
16.0
100
AcDbCircle
 10
386.9729375755903
 20
445.5749216384104
 30
0.0
 40
3.000000000000113
100
AcDbArc
 50
0.0
 51
90.0
  0
LINE
  5
3A4
330
1A
100
AcDbEntity
  8
SEIHIN
  6
CONTINUOUS
 62
     3
 48
16.0
100
AcDbLine
 10
391.0871375755904
 20
445.5749216384104
 30
0.0
 11
391.0871375755904
 21
439.5756216384105
 31
0.0
  0
LINE
  5
3A5
330
1A
100
AcDbEntity
  8
SEIHIN
  6
CONTINUOUS
 62
     3
 48
16.0
100
AcDbLine
 10
389.9729375755904
 20
445.5749216384104
 30
0.0
 11
389.9729375755904
 21
439.5749216384104
 31
0.0
  0
LINE
  5
3A6
330
1A
100
AcDbEntity
  8
SEIHIN
  6
CONTINUOUS
 62
     3
 48
16.0
100
AcDbLine
 10
400.4911375755903
 20
446.0749216384104
 30
0.0
 11
397.6611375755905
 21
446.0749216384104
 31
0.0
  0
LINE
  5
3A7
330
1A
100
AcDbEntity
  8
SEIHIN
  6
CONTINUOUS
 62
     3
 48
16.0
100
AcDbLine
 10
399.2333717063925
 20
438.6558216384105
 30
0.0
 11
397.8195375755905
 21
438.6558216384105
 31
0.0
  0
ARC
  5
3A8
330
1A
100
AcDbEntity
  8
SEIHIN
  6
CONTINUOUS
 62
     3
 48
16.0
100
AcDbCircle
 10
397.6611375755905
 20
447.0749216384104
 30
0.0
 40
1.0
100
AcDbArc
 50
180.0
 51
270.0
  0
ARC
  5
3A9
330
1A
100
AcDbEntity
  8
SEIHIN
  6
CONTINUOUS
 62
     3
 48
16.0
100
AcDbCircle
 10
400.1211375755903
 20
447.0749216384104
 30
0.0
 40
1.0
100
AcDbArc
 50
270.0
 51
0.0
  0
LINE
  5
3AA
330
1A
100
AcDbEntity
  8
SEIHIN
  6
CONTINUOUS
 62
     3
 48
16.0
100
AcDbLine
 10
411.5111375755905
 20
457.5749216384103
 30
0.0
 11
411.5111375755905
 21
445.5749216384104
 31
0.0
  0
LINE
  5
3AB
330
1A
100
AcDbEntity
  8
SEIHIN
  6
CONTINUOUS
 62
     3
 48
16.0
100
AcDbLine
 10
410.3711375755905
 20
457.5749216384103
 30
0.0
 11
410.3711375755905
 21
445.5749216384104
 31
0.0
  0
LINE
  5
3AC
330
1A
100
AcDbEntity
  8
SEIHIN
  6
CONTINUOUS
 62
     3
 48
16.0
100
AcDbLine
 10
410.5111375755905
 20
444.5749216384103
 30
0.0
 11
409.5443375755904
 21
444.5749216384103
 31
0.0
  0
ARC
  5
3AD
330
1A
100
AcDbEntity
  8
SEIHIN
  6
CONTINUOUS
 62
     3
 48
16.0
100
AcDbCircle
 10
409.3711375755904
 20
445.5749216384105
 30
0.0
 40
1.000000000000056
100
AcDbArc
 50
269.9999999999967
 51
359.9999999999967
  0
LINE
  5
3AE
330
1A
100
AcDbEntity
  8
CENTER_L
  6
CENTER
 62
     1
 48
5.0
100
AcDbLine
 10
412.3184375755904
 20
437.5749216384104
 30
0.0
 11
407.9354375755903
 21
437.5749216384104
 31
0.0
  0
ELLIPSE
  5
3AF
330
1A
100
AcDbEntity
  8
SEIHIN
 62
     3
100
AcDbEllipse
 10
408.5211375755904
 20
437.5749216384104
 30
0.0
 11
0.0
 21
-6.999999999999999
 31
0.0
210
0.0
220
0.0
230
1.0
 40
0.3714285714285909
 41
3.141592653589793
 42
4.712388980384784
  0
ELLIPSE
  5
3B0
330
1A
100
AcDbEntity
  8
SEIHIN
 62
     3
100
AcDbEllipse
 10
409.6611375755904
 20
437.5749216384104
 30
0.0
 11
0.0
 21
-6.999999999999999
 31
0.0
210
0.0
220
0.0
230
1.0
 40
0.3714285714285909
 41
3.141592653589793
 42
4.712388980384817
  0
LINE
  5
3B1
330
1A
100
AcDbEntity
  8
SEIHIN
  6
CONTINUOUS
 62
     3
 48
16.0
100
AcDbLine
 10
409.3711375755903
 20
444.5749216384103
 30
0.0
 11
408.5211375755904
 21
444.5749216384103
 31
0.0
  0
ARC
  5
3B2
330
1A
100
AcDbEntity
  8
SEIHIN
  6
CONTINUOUS
 62
     3
 48
16.0
100
AcDbCircle
 10
410.5111375755905
 20
445.5749216384104
 30
0.0
 40
1.0
100
AcDbArc
 50
270.0
 51
0.0
  0
LINE
  5
3B3
330
1A
100
AcDbEntity
  8
SEIHIN
  6
CONTINUOUS
 62
     3
 48
16.0
100
AcDbLine
 10
410.5111375755905
 20
458.5749216384104
 30
0.0
 11
404.3511375755903
 21
458.5749216384104
 31
0.0
  0
ARC
  5
3B4
330
1A
100
AcDbEntity
  8
SEIHIN
  6
CONTINUOUS
 62
     3
 48
16.0
100
AcDbCircle
 10
409.3711375755904
 20
457.5749216384103
 30
0.0
 40
1.000000000000056
100
AcDbArc
 50
0.0000000000032569
 51
90.00000000000325
  0
ARC
  5
3B5
330
1A
100
AcDbEntity
  8
SEIHIN
  6
CONTINUOUS
 62
     3
 48
16.0
100
AcDbCircle
 10
404.3511375755903
 20
457.5749216384105
 30
0.0
 40
0.9999999999999147
100
AcDbArc
 50
90.00000000000488
 51
180.0000000000048
  0
ARC
  5
3B6
330
1A
100
AcDbEntity
  8
SEIHIN
  6
CONTINUOUS
 62
     3
 48
16.0
100
AcDbCircle
 10
410.5111375755905
 20
457.5749216384103
 30
0.0
 40
1.0
100
AcDbArc
 50
0.0
 51
90.0
  0
ELLIPSE
  5
3B7
330
1A
100
AcDbEntity
  8
SEIHIN
 62
     3
100
AcDbEllipse
 10
408.5211375755904
 20
484.5750216384105
 30
0.0
 11
0.0
 21
-6.999999999999999
 31
0.0
210
0.0
220
0.0
230
1.0
 40
0.3714285714285909
 41
-1.570796326794896
 42
0.0
  0
ELLIPSE
  5
3B8
330
1A
100
AcDbEntity
  8
SEIHIN
 62
     3
100
AcDbEllipse
 10
409.6611375755904
 20
484.5750216384105
 30
0.0
 11
0.0
 21
-6.999999999999999
 31
0.0
210
0.0
220
0.0
230
1.0
 40
0.3714285714285909
 41
-1.570796326794896
 42
0.0
  0
ELLIPSE
  5
3B9
330
1A
100
AcDbEntity
  8
SEIHIN
 62
     3
100
AcDbEllipse
 10
409.6511375755903
 20
482.5750216384106
 30
0.0
 11
0.0
 21
10.0
 31
0.0
210
0.0
220
0.0
230
1.0
 40
0.3720000000000027
 41
-1.570796326794896
 42
0.0
  0
ELLIPSE
  5
3BA
330
1A
100
AcDbEntity
  8
SEIHIN
 62
     3
100
AcDbEllipse
 10
393.6929375755905
 20
482.5750216384106
 30
0.0
 11
0.0
 21
-10.0
 31
0.0
210
0.0
220
0.0
230
1.0
 40
0.3720000000000027
 41
-2.360294013808447
 42
-1.570796326794879
  0
ELLIPSE
  5
3BB
330
1A
100
AcDbEntity
  8
SEIHIN
 62
     3
100
AcDbEllipse
 10
394.8011375755904
 20
482.5750216384106
 30
0.0
 11
0.0
 21
-10.0
 31
0.0
210
0.0
220
0.0
230
1.0
 40
0.3713999999999999
 41
3.141592653589793
 42
4.712388980384783
  0
ELLIPSE
  5
3BC
330
1A
100
AcDbEntity
  8
SEIHIN
 62
     3
100
AcDbEllipse
 10
398.5211375755905
 20
482.5750216384106
 30
0.0
 11
0.0
 21
-10.0
 31
0.0
210
0.0
220
0.0
230
1.0
 40
0.3720000000000027
 41
3.141592653589793
 42
4.712388980384812
  0
ELLIPSE
  5
3BD
330
1A
100
AcDbEntity
  8
SEIHIN
 62
     3
100
AcDbEllipse
 10
409.6558523800328
 20
484.5750216384105
 30
0.0
 11
0.0
 21
-2.1
 31
0.0
210
0.0
220
0.0
230
1.0
 40
0.371367917627156
 41
0.0
 42
6.283185307179586
  0
ELLIPSE
  5
3BE
330
1A
100
AcDbEntity
  8
SEIHIN
 62
     3
100
AcDbEllipse
 10
398.5148117416967
 20
484.5750216384105
 30
0.0
 11
0.0
 21
-2.1
 31
0.0
210
0.0
220
0.0
230
1.0
 40
0.3713679176271019
 41
2.111415154028893
 42
7.3133628067405
  0
ELLIPSE
  5
3BF
330
1A
100
AcDbEntity
  8
SEIHIN
 62
     3
100
AcDbEllipse
 10
400.3711375755903
 20
484.5750216384105
 30
0.0
 11
0.0
 21
-3.25
 31
0.0
210
0.0
220
0.0
230
1.0
 40
0.3712225117536806
 41
-1.231786067640117
 42
4.373378721230071
  0
LINE
  5
3C0
330
1A
100
AcDbEntity
  8
CENTER_L
  6
CENTER
 62
     1
 48
5.0
100
AcDbLine
 10
409.6611375755904
 20
488.2155216384104
 30
0.0
 11
409.6611375755904
 21
480.4851216384105
 31
0.0
  0
LINE
  5
3C1
330
1A
100
AcDbEntity
  8
CENTER_L
  6
CENTER
 62
     1
 48
5.0
100
AcDbLine
 10
398.5111375755905
 20
488.2894216384105
 30
0.0
 11
398.5111375755905
 21
480.4851216384105
 31
0.0
  0
LINE
  5
3C2
330
1A
100
AcDbEntity
  8
CENTER_L
  6
CENTER
 62
     1
 48
5.0
100
AcDbLine
 10
400.3711375755903
 20
488.2771216384104
 30
0.0
 11
400.3711375755903
 21
480.4851216384105
 31
0.0
  0
LINE
  5
3C3
330
1A
100
AcDbEntity
  8
SEIHIN
  6
CONTINUOUS
 62
     3
 48
16.0
100
AcDbLine
 10
403.3511375755905
 20
464.5749216384103
 30
0.0
 11
403.3511375755905
 21
486.5750216384106
 31
0.0
  0
ARC
  5
3C4
330
1A
100
AcDbEntity
  8
SEIHIN
  6
CONTINUOUS
 62
     3
 48
16.0
100
AcDbCircle
 10
400.4911375755904
 20
475.0750216384104
 30
0.0
 40
1.000000000000056
100
AcDbArc
 50
0.0000000000032569
 51
90.00000000000325
  0
LINE
  5
3C5
330
1A
100
AcDbEntity
  8
SEIHIN
  6
CONTINUOUS
 62
     3
 48
16.0
100
AcDbLine
 10
401.1211375755904
 20
461.0750216384105
 30
0.0
 11
401.1211375755904
 21
475.0750216384106
 31
0.0
  0
LINE
  5
3C6
330
1A
100
AcDbEntity
  8
SEIHIN
  6
CONTINUOUS
 62
     3
 48
16.0
100
AcDbLine
 10
396.6611375755904
 20
461.0750216384105
 30
0.0
 11
396.6611375755904
 21
475.0750216384106
 31
0.0
  0
LINE
  5
3C7
330
1A
100
AcDbEntity
  8
SEIHIN
  6
CONTINUOUS
 62
     3
 48
16.0
100
AcDbLine
 10
401.4911375755905
 20
461.0750216384105
 30
0.0
 11
401.4911375755905
 21
475.0750216384106
 31
0.0
  0
LINE
  5
3C8
330
1A
100
AcDbEntity
  8
SEIHIN
  6
CONTINUOUS
 62
     3
 48
16.0
100
AcDbLine
 10
394.8011375755904
 20
482.5750216384106
 30
0.0
 11
394.8011375755904
 21
461.0750216384105
 31
0.0
  0
ARC
  5
3C9
330
1A
100
AcDbEntity
  8
SEIHIN
  6
CONTINUOUS
 62
     3
 48
16.0
100
AcDbCircle
 10
388.0871375755905
 20
476.5750216384105
 30
0.0
 40
3.0
100
AcDbArc
 50
269.9999999999977
 51
359.9999999999977
  0
ARC
  5
3CA
330
1A
100
AcDbEntity
  8
SEIHIN
  6
CONTINUOUS
 62
     3
 48
16.0
100
AcDbCircle
 10
386.9729375755905
 20
476.5750216384105
 30
0.0
 40
3.0
100
AcDbArc
 50
269.9999999999977
 51
359.9999999999977
  0
LINE
  5
3CB
330
1A
100
AcDbEntity
  8
SEIHIN
  6
CONTINUOUS
 62
     3
 48
16.0
100
AcDbLine
 10
391.0871375755904
 20
476.5750216384105
 30
0.0
 11
391.0871375755904
 21
482.5744216384105
 31
0.0
  0
LINE
  5
3CC
330
1A
100
AcDbEntity
  8
SEIHIN
  6
CONTINUOUS
 62
     3
 48
16.0
100
AcDbLine
 10
389.9729375755904
 20
476.5750216384105
 30
0.0
 11
389.9729375755904
 21
482.5458216384105
 31
0.0
  0
LINE
  5
3CD
330
1A
100
AcDbEntity
  8
SEIHIN
  6
CONTINUOUS
 62
     3
 48
16.0
100
AcDbLine
 10
399.2333317137839
 20
483.4942216384105
 30
0.0
 11
397.8195375755905
 21
483.4942216384105
 31
0.0
  0
LINE
  5
3CE
330
1A
100
AcDbEntity
  8
SEIHIN
  6
CONTINUOUS
 62
     3
 48
16.0
100
AcDbLine
 10
400.4911375755903
 20
476.0750216384106
 30
0.0
 11
397.6611375755905
 21
476.0750216384106
 31
0.0
  0
ARC
  5
3CF
330
1A
100
AcDbEntity
  8
SEIHIN
  6
CONTINUOUS
 62
     3
 48
16.0
100
AcDbCircle
 10
397.6611375755905
 20
475.0750216384106
 30
0.0
 40
1.0
100
AcDbArc
 50
90.0
 51
180.0
  0
ARC
  5
3D0
330
1A
100
AcDbEntity
  8
SEIHIN
  6
CONTINUOUS
 62
     3
 48
16.0
100
AcDbCircle
 10
400.1211375755903
 20
475.0750216384106
 30
0.0
 40
1.0
100
AcDbArc
 50
0.0
 51
90.0
  0
LINE
  5
3D1
330
1A
100
AcDbEntity
  8
SEIHIN
  6
CONTINUOUS
 62
     3
 48
16.0
100
AcDbLine
 10
410.3711375755905
 20
464.5749216384103
 30
0.0
 11
410.3711375755905
 21
476.5750216384105
 31
0.0
  0
LINE
  5
3D2
330
1A
100
AcDbEntity
  8
SEIHIN
  6
CONTINUOUS
 62
     3
 48
16.0
100
AcDbLine
 10
413.3711375755903
 20
461.0750216384105
 30
0.0
 11
413.3711375755903
 21
482.5750216384106
 31
0.0
  0
LINE
  5
3D3
330
1A
100
AcDbEntity
  8
SEIHIN
  6
CONTINUOUS
 62
     3
 48
16.0
100
AcDbLine
 10
411.5111375755905
 20
464.5749216384103
 30
0.0
 11
411.5111375755905
 21
476.5750216384105
 31
0.0
  0
LINE
  5
3D4
330
1A
100
AcDbEntity
  8
SEIHIN
  6
CONTINUOUS
 62
     3
 48
16.0
100
AcDbLine
 10
410.5111375755905
 20
463.5749216384104
 30
0.0
 11
404.3511375755903
 21
463.5749216384104
 31
0.0
  0
ARC
  5
3D5
330
1A
100
AcDbEntity
  8
SEIHIN
  6
CONTINUOUS
 62
     3
 48
16.0
100
AcDbCircle
 10
409.3711375755904
 20
464.5749216384104
 30
0.0
 40
1.000000000000056
100
AcDbArc
 50
269.9999999999967
 51
359.9999999999967
  0
ARC
  5
3D6
330
1A
100
AcDbEntity
  8
SEIHIN
  6
CONTINUOUS
 62
     3
 48
16.0
100
AcDbCircle
 10
404.3511375755903
 20
464.5749216384102
 30
0.0
 40
0.9999999999999147
100
AcDbArc
 50
179.9999999999951
 51
269.9999999999951
  0
ARC
  5
3D7
330
1A
100
AcDbEntity
  8
SEIHIN
  6
CONTINUOUS
 62
     3
 48
16.0
100
AcDbCircle
 10
410.5111375755905
 20
464.5749216384103
 30
0.0
 40
1.0
100
AcDbArc
 50
270.0
 51
0.0
  0
LINE
  5
3D8
330
1A
100
AcDbEntity
  8
SEIHIN
  6
CONTINUOUS
 62
     3
 48
16.0
100
AcDbLine
 10
410.5111375755905
 20
477.5750216384105
 30
0.0
 11
409.6611375755904
 21
477.5750216384105
 31
0.0
  0
ARC
  5
3D9
330
1A
100
AcDbEntity
  8
SEIHIN
  6
CONTINUOUS
 62
     3
 48
16.0
100
AcDbCircle
 10
409.3711375755903
 20
476.5750216384105
 30
0.0
 40
1.000000000000113
100
AcDbArc
 50
0.0
 51
90.0
  0
LINE
  5
3DA
330
1A
100
AcDbEntity
  8
SEIHIN
  6
CONTINUOUS
 62
     3
 48
16.0
100
AcDbLine
 10
409.3711375755903
 20
477.5750216384105
 30
0.0
 11
408.5211375755904
 21
477.5750216384105
 31
0.0
  0
ARC
  5
3DB
330
1A
100
AcDbEntity
  8
SEIHIN
  6
CONTINUOUS
 62
     3
 48
16.0
100
AcDbCircle
 10
410.5111375755904
 20
476.5750216384105
 30
0.0
 40
1.000000000000056
100
AcDbArc
 50
359.9999999999967
 51
89.99999999999674
  0
LINE
  5
3DC
330
1A
100
AcDbEntity
  8
CENTER_L
  6
CENTER
 62
     1
 48
5.0
100
AcDbLine
 10
402.4312375755904
 20
484.5750216384105
 30
0.0
 11
395.9192375755904
 21
484.5750216384105
 31
0.0
  0
LINE
  5
3DD
330
1A
100
AcDbEntity
  8
SEIHIN
  6
CONTINUOUS
 62
     3
 48
16.0
100
AcDbLine
 10
394.7966375755903
 20
492.5750216384106
 30
0.0
 11
409.6511375755903
 21
492.5750216384106
 31
0.0
  0
ARC
  5
3DE
330
1A
100
AcDbEntity
  8
SEIHIN
  6
CONTINUOUS
 62
     3
 48
16.0
100
AcDbCircle
 10
395.6436885307847
 20
487.6472825725293
 30
0.0
 40
5.000010762199146
100
AcDbArc
 50
99.75350689887825
 51
156.0746403412422
  0
LINE
  5
3DF
330
1A
100
AcDbEntity
  8
SEIHIN
  6
CONTINUOUS
 62
     3
 48
16.0
100
AcDbLine
 10
399.2333317137838
 20
485.6558216384105
 30
0.0
 11
397.8195375755905
 21
485.6558216384105
 31
0.0
  0
LINE
  5
3E0
330
1A
100
AcDbEntity
  8
CENTER_L
  6
CENTER
 62
     1
 48
5.0
100
AcDbLine
 10
412.3184375755904
 20
484.5750216384105
 30
0.0
 11
407.8956375755905
 21
484.5750216384105
 31
0.0
  0
LINE
  5
3E1
330
1A
100
AcDbEntity
  8
SEIHIN
  6
CONTINUOUS
 62
     3
 48
16.0
100
AcDbLine
 10
405.9211375755904
 20
486.5750216384106
 30
0.0
 11
405.9211375755904
 21
484.5750216384105
 31
0.0
  0
LINE
  5
3E2
330
1A
100
AcDbEntity
  8
SEIHIN
  6
CONTINUOUS
 62
     3
 48
16.0
100
AcDbLine
 10
407.0611375755903
 20
486.5750216384106
 30
0.0
 11
407.0611375755903
 21
484.5750216384105
 31
0.0
  0
LINE
  5
3E3
330
1A
100
AcDbEntity
  8
SEIHIN
  6
CONTINUOUS
 62
     3
 48
16.0
100
AcDbLine
 10
406.0611375755903
 20
487.5750216384106
 30
0.0
 11
404.3511375755903
 21
487.5750216384106
 31
0.0
  0
ARC
  5
3E4
330
1A
100
AcDbEntity
  8
SEIHIN
  6
CONTINUOUS
 62
     3
 48
16.0
100
AcDbCircle
 10
404.3511375755903
 20
486.5750216384106
 30
0.0
 40
0.9999999999999147
100
AcDbArc
 50
90.00000000000488
 51
180.0000000000048
  0
ARC
  5
3E5
330
1A
100
AcDbEntity
  8
SEIHIN
  6
CONTINUOUS
 62
     3
 48
16.0
100
AcDbCircle
 10
404.9211375755904
 20
486.5750216384106
 30
0.0
 40
0.9999999999999431
100
AcDbArc
 50
359.9999999999967
 51
89.99999999999674
  0
ARC
  5
3E6
330
1A
100
AcDbEntity
  8
SEIHIN
  6
CONTINUOUS
 62
     3
 48
16.0
100
AcDbCircle
 10
406.0611375755903
 20
486.5750216384106
 30
0.0
 40
1.0
100
AcDbArc
 50
0.0
 51
90.0
  0
ARC
  5
3E7
330
1A
100
AcDbEntity
  8
SEIHIN
  6
CONTINUOUS
 62
     3
 48
16.0
100
AcDbCircle
 10
605.5671460438396
 20
400.3373349625888
 30
0.0
 40
10.00004678489044
100
AcDbArc
 50
21.80002635013193
 51
111.8000263501324
  0
ARC
  5
3EC
330
1A
100
AcDbEntity
  8
SEIHIN
  6
CONTINUOUS
 62
     3
 48
16.0
100
AcDbCircle
 10
607.4241651026394
 20
401.0801425849727
 30
0.0
 40
2.100013150020022
100
AcDbArc
 50
317.9660473682961
 51
265.6298786026531
  0
LINE
  5
3ED
330
1A
100
AcDbEntity
  8
SEIHIN
  6
CONTINUOUS
 62
     3
 48
16.0
100
AcDbLine
 10
613.1803460438395
 20
389.3811349625888
 30
0.0
 11
594.6106460438395
 21
381.9539349625888
 31
0.0
  0
LINE
  5
3EE
330
1A
100
AcDbEntity
  8
CENTER_L
  6
CENTER
 62
     1
 48
5.0
100
AcDbLine
 10
606.0185460438394
 20
404.5943349625888
 30
0.0
 11
611.2689460438391
 21
391.4675349625888
 31
0.0
  0
LINE
  5
3EF
330
1A
100
AcDbEntity
  8
CENTER_L
  6
CENTER
 62
     1
 48
5.0
100
AcDbLine
 10
603.5579460438395
 20
394.1487349625888
 30
0.0
 11
614.3745460438392
 21
398.475034962589
 31
0.0
  0
LINE
  5
3F0
330
1A
100
AcDbEntity
  8
CENTER_L
  6
CENTER
 62
     1
 48
5.0
100
AcDbLine
 10
603.7601460438395
 20
399.6146349625888
 30
0.0
 11
611.3256460438397
 21
402.6406349625887
 31
0.0
  0
ARC
  5
3F1
330
1A
100
AcDbEntity
  8
SEIHIN
  6
CONTINUOUS
 62
     3
 48
16.0
100
AcDbCircle
 10
609.2809860124226
 20
396.4377509489689
 30
0.0
 40
3.24998680405798
100
AcDbArc
 50
128.3576732232918
 51
95.2439969388217
  0
LINE
  5
3F2
330
1A
100
AcDbEntity
  8
SEIHIN
  6
CONTINUOUS
 62
     3
 48
16.0
100
AcDbLine
 10
602.7806460438394
 20
361.5270349625888
 30
0.0
 11
612.0656460438392
 21
365.2407349625888
 31
0.0
  0
LINE
  5
3F3
330
1A
100
AcDbEntity
  8
SEIHIN
  6
CONTINUOUS
 62
     3
 48
16.0
100
AcDbLine
 10
600.4594460438393
 20
355.2135349625888
 30
0.0
 11
620.4218460438395
 21
363.1979349625887
 31
0.0
  0
LINE
  5
3F4
330
1A
100
AcDbEntity
  8
SEIHIN
  6
PHANTOM
 62
     6
 48
5.0
100
AcDbLine
 10
429.8011375755903
 20
326.8071325092827
 30
0.0
 11
448.3695375755903
 21
280.3828325092827
 31
0.0
  0
LINE
  5
3F5
330
1A
100
AcDbEntity
  8
SEIHIN
  6
PHANTOM
 62
     6
 48
5.0
100
AcDbLine
 10
424.9730375755903
 20
322.7220325092827
 30
0.0
 11
442.0558375755905
 21
280.0116325092826
 31
0.0
  0
LINE
  5
3F6
330
1A
100
AcDbEntity
  8
SEIHIN
  6
PHANTOM
 62
     6
 48
5.0
100
AcDbLine
 10
426.0871375755903
 20
325.3216325092827
 30
0.0
 11
444.6555375755903
 21
278.8974325092826
 31
0.0
  0
LINE
  5
3F8
330
1A
100
AcDbEntity
  8
SEIHIN
  6
PHANTOM
 62
     6
 48
5.0
100
AcDbLine
 10
442.0558375755905
 20
280.0116325092826
 30
0.0
 11
444.6555375755903
 21
278.8974325092826
 31
0.0
  0
LINE
  5
3F9
330
1A
100
AcDbEntity
  8
SEIHIN
  6
PHANTOM
 62
     6
 48
5.0
100
AcDbLine
 10
444.6555375755903
 20
278.8974325092826
 30
0.0
 11
448.3695375755903
 21
280.3828325092827
 31
0.0
  0
LINE
  5
3FA
330
1A
100
AcDbEntity
  8
SEIHIN
  6
PHANTOM
 62
     6
 48
5.0
100
AcDbLine
 10
422.8853375755902
 20
308.8371325092826
 30
0.0
 11
427.1412375755905
 21
308.8371325092826
 31
0.0
  0
ARC
  5
3FB
330
1A
100
AcDbEntity
  8
SEIHIN
  6
PHANTOM
 62
     6
 48
5.0
100
AcDbCircle
 10
427.1412342796295
 20
303.8371347407837
 30
0.0
 40
4.999997768500088
100
AcDbArc
 50
21.80073334328504
 51
89.99996223105259
  0
LINE
  5
3FC
330
1A
100
AcDbEntity
  8
SEIHIN
  6
PHANTOM
 62
     6
 48
5.0
100
AcDbLine
 10
423.4582375755903
 20
326.8071325092827
 30
0.0
 11
429.8011375755903
 21
326.8071325092827
 31
0.0
  0
LINE
  5
3FD
330
1A
100
AcDbEntity
  8
SEIHIN
  6
PHANTOM
 62
     6
 48
5.0
100
AcDbLine
 10
426.0872375755905
 20
325.3217325092825
 30
0.0
 11
429.8011375755903
 21
326.8071325092827
 31
0.0
  0
LINE
  5
3FE
330
1A
100
AcDbEntity
  8
SEIHIN
  6
PHANTOM
 62
     6
 48
5.0
100
AcDbLine
 10
426.0872375755905
 20
325.3217325092825
 30
0.0
 11
424.9730375755903
 21
322.7220325092827
 31
0.0
  0
LINE
  5
3FF
330
1A
100
AcDbEntity
  8
SEIHIN
  6
CONTINUOUS
 62
     3
 48
16.0
100
AcDbLine
 10
568.7984460438393
 20
363.0135349625888
 30
0.0
 11
566.5702460438392
 21
368.5844349625888
 31
0.0
  0
ARC
  5
400
330
1A
100
AcDbEntity
  8
SEIHIN
  6
CONTINUOUS
 62
     3
 48
16.0
100
AcDbCircle
 10
574.9260460438392
 20
355.7712349625887
 30
0.0
 40
6.999971472084766
100
AcDbArc
 50
21.79943356017012
 51
111.7994335601709
  0
LINE
  5
401
330
1A
100
AcDbEntity
  8
SEIHIN
  6
CONTINUOUS
 62
     3
 48
16.0
100
AcDbLine
 10
588.8539460438395
 20
377.4973349625888
 30
0.0
 11
595.5386460438395
 21
360.7845349625887
 31
0.0
  0
LINE
  5
402
330
1A
100
AcDbEntity
  8
CENTER_L
  6
CENTER
 62
     1
 48
5.0
100
AcDbLine
 10
580.3645460438392
 20
405.4544349625889
 30
0.0
 11
602.2422460438397
 21
350.7560349625888
 31
0.0
  0
LINE
  5
403
330
1A
100
AcDbEntity
  8
SEIHIN
  6
CONTINUOUS
 62
     3
 48
16.0
100
AcDbLine
 10
556.3574460438394
 20
380.6549349625889
 30
0.0
 11
567.4983460438394
 21
352.8002349625887
 31
0.0
  0
LINE
  5
404
330
1A
100
AcDbEntity
  8
SEIHIN
  6
CONTINUOUS
 62
     3
 48
16.0
100
AcDbLine
 10
593.4963460438395
 20
379.3542349625889
 30
0.0
 11
600.1809460438394
 21
362.6413349625888
 31
0.0
  0
ARC
  5
405
330
1A
100
AcDbEntity
  8
SEIHIN
  6
CONTINUOUS
 62
     3
 48
16.0
100
AcDbCircle
 10
574.9260460438392
 20
355.7712349625887
 30
0.0
 40
2.14999999999992
100
AcDbArc
 50
359.9999999999999
 51
179.9999999999999
  0
LINE
  5
406
330
1A
100
AcDbEntity
  8
CENTER_L
  6
CENTER
 62
     1
 48
5.0
100
AcDbLine
 10
570.8610460438394
 20
354.145334962589
 30
0.0
 11
578.5902460438394
 21
357.236834962589
 31
0.0
  0
LINE
  5
407
330
1A
100
AcDbEntity
  8
CENTER_L
  6
CENTER
 62
     1
 48
5.0
100
AcDbLine
 10
573.4486460438395
 20
359.4657349625888
 30
0.0
 11
576.7443460438392
 21
351.2257349625888
 31
0.0
  0
ARC
  5
408
330
1A
100
AcDbEntity
  8
SEIHIN
  6
CONTINUOUS
 62
     3
 48
16.0
100
AcDbCircle
 10
574.9260460438392
 20
355.7712349625887
 30
0.0
 40
2.14999999999992
100
AcDbArc
 50
179.9999999999999
 51
359.9999999999999
  0
ARC
  5
409
330
1A
100
AcDbEntity
  8
SEIHIN
  6
CONTINUOUS
 62
     3
 48
16.0
100
AcDbCircle
 10
576.7832219078309
 20
356.5139453074146
 30
0.0
 40
10.00002821671013
100
AcDbArc
 50
201.800132738756
 51
291.7996007561752
  0
LINE
  5
40A
330
1A
100
AcDbEntity
  8
SEIHIN
  6
CONTINUOUS
 62
     3
 48
16.0
100
AcDbLine
 10
572.3265460438393
 20
362.2706349625889
 30
0.0
 11
571.3981460438394
 21
361.8993349625889
 31
0.0
  0
ARC
  5
40B
330
1A
100
AcDbEntity
  8
SEIHIN
  6
CONTINUOUS
 62
     3
 48
16.0
100
AcDbCircle
 10
570.6553856996363
 20
363.756260827043
 30
0.0
 40
1.999966648471944
100
AcDbArc
 50
201.800079576082
 51
291.8011434509523
  0
LINE
  5
40C
330
1A
100
AcDbEntity
  8
SEIHIN
  6
CONTINUOUS
 62
     3
 48
16.0
100
AcDbLine
 10
594.4244460438394
 20
358.1848349625888
 30
0.0
 11
585.1394460438394
 21
354.4711349625888
 31
0.0
  0
LINE
  5
40D
330
1A
100
AcDbEntity
  8
SEIHIN
  6
CONTINUOUS
 62
     3
 48
16.0
100
AcDbLine
 10
600.4593460438395
 20
355.2134349625888
 30
0.0
 11
580.4968460438394
 21
347.2291349625887
 31
0.0
  0
ARC
  5
40E
330
1A
100
AcDbEntity
  8
SEIHIN
  6
CONTINUOUS
 62
     3
 48
16.0
100
AcDbCircle
 10
584.3967219069891
 20
356.3281453076166
 30
0.0
 40
2.000031640999688
100
AcDbArc
 50
201.801941449718
 51
291.7992815773152
  0
LINE
  5
40F
330
1A
100
AcDbEntity
  8
SEIHIN
  6
CONTINUOUS
 62
     3
 48
16.0
100
AcDbLine
 10
582.5397460438393
 20
355.5853349625889
 30
0.0
 11
581.4255460438394
 21
358.3707349625889
 31
0.0
  0
ARC
  5
410
330
1A
100
AcDbEntity
  8
SEIHIN
  6
CONTINUOUS
 62
     3
 48
16.0
100
AcDbCircle
 10
593.681635698812
 20
360.0418108257384
 30
0.0
 40
2.000031640999696
100
AcDbArc
 50
291.8019414497198
 51
21.79928157731295
  0
ARC
  5
411
330
1A
100
AcDbEntity
  8
SEIHIN
  6
CONTINUOUS
 62
     3
 48
16.0
100
AcDbCircle
 10
602.0379460438394
 20
363.3840349625888
 30
0.0
 40
2.000013072457346
100
AcDbArc
 50
201.7987496139463
 51
291.7987496139465
  0
ARC
  5
412
330
1A
100
AcDbEntity
  8
SEIHIN
  6
CONTINUOUS
 62
     3
 48
16.0
100
AcDbCircle
 10
575.7625460438394
 20
381.954334962589
 30
0.0
 40
2.000013072457361
100
AcDbArc
 50
201.7987496139496
 51
291.7987496139485
  0
LINE
  5
413
330
1A
100
AcDbEntity
  8
SEIHIN
  6
CONTINUOUS
 62
     3
 48
16.0
100
AcDbLine
 10
581.8910460438396
 20
401.6378349625889
 30
0.0
 11
561.9286460438394
 21
393.6534349625889
 31
0.0
  0
LINE
  5
414
330
1A
100
AcDbEntity
  8
SEIHIN
  6
CONTINUOUS
 62
     3
 48
16.0
100
AcDbLine
 10
571.6775460438393
 20
392.1677349625888
 30
0.0
 11
583.7478460438394
 21
396.9955349625888
 31
0.0
  0
LINE
  5
415
330
1A
100
AcDbEntity
  8
SEIHIN
  6
CONTINUOUS
 62
     3
 48
16.0
100
AcDbLine
 10
567.6844460438393
 20
371.1841349625888
 30
0.0
 11
586.2541460438394
 21
378.6115349625888
 31
0.0
  0
LINE
  5
416
330
1A
100
AcDbEntity
  8
SEIHIN
  6
CONTINUOUS
 62
     3
 48
16.0
100
AcDbLine
 10
570.5632460438392
 20
389.5680349625888
 30
0.0
 11
573.9055460438392
 21
381.2116349625888
 31
0.0
  0
ARC
  5
417
330
1A
100
AcDbEntity
  8
SEIHIN
  6
CONTINUOUS
 62
     3
 48
16.0
100
AcDbCircle
 10
565.6423201801472
 20
384.3685746176875
 30
0.0
 40
10.00000036075
100
AcDbArc
 50
111.7999731371262
 51
201.7997603578047
  0
LINE
  5
418
330
1A
100
AcDbEntity
  8
CENTER_L
  6
CENTER
 62
     1
 48
5.0
100
AcDbLine
 10
562.3796460438393
 20
387.1401349625888
 30
0.0
 11
567.5279460438393
 21
374.2684349625889
 31
0.0
  0
ARC
  5
419
330
1A
100
AcDbEntity
  8
SEIHIN
  6
CONTINUOUS
 62
     3
 48
16.0
100
AcDbCircle
 10
568.4272460438393
 20
369.3271349625889
 30
0.0
 40
2.000013072457241
100
AcDbArc
 50
111.7987496139472
 51
201.7987496139469
  0
LINE
  5
41A
330
1A
100
AcDbEntity
  8
CENTER_L
  6
CENTER
 62
     1
 48
5.0
100
AcDbLine
 10
567.4492460438393
 20
385.0914349625888
 30
0.0
 11
560.0910460438395
 21
382.1483349625889
 31
0.0
  0
LINE
  5
41B
330
1A
100
AcDbEntity
  8
CENTER_L
  6
CENTER
 62
     1
 48
5.0
100
AcDbLine
 10
571.3650460438393
 20
381.2725349625889
 30
0.0
 11
560.1349460438394
 21
376.7808349625887
 31
0.0
  0
ARC
  5
41C
330
1A
100
AcDbEntity
  8
SEIHIN
  6
CONTINUOUS
 62
     3
 48
16.0
100
AcDbCircle
 10
565.6421860124229
 20
378.9835509489687
 30
0.0
 40
3.249986804058013
100
AcDbArc
 50
128.3576732232952
 51
95.24399693882466
  0
ARC
  5
41D
330
1A
100
AcDbEntity
  8
SEIHIN
  6
CONTINUOUS
 62
     3
 48
16.0
100
AcDbCircle
 10
563.7852808289145
 20
383.6259488768604
 30
0.0
 40
2.100013003735269
100
AcDbArc
 50
317.9694858784748
 51
265.6321842836458
  0
ARC
  5
41E
330
1A
100
AcDbEntity
  8
SEIHIN
  6
CONTINUOUS
 62
     3
 48
16.0
100
AcDbCircle
 10
572.4202460438392
 20
390.3107349625888
 30
0.0
 40
2.000013072457234
100
AcDbArc
 50
111.7987496139473
 51
201.7987496139471
  0
LINE
  5
41F
330
1A
100
AcDbEntity
  8
SEIHIN
  6
CONTINUOUS
 62
     3
 48
16.0
100
AcDbLine
 10
588.5756460438394
 20
384.9251349625887
 30
0.0
 11
600.6459460438394
 21
389.7529349625888
 31
0.0
  0
LINE
  5
420
330
1A
100
AcDbEntity
  8
SEIHIN
  6
CONTINUOUS
 62
     3
 48
16.0
100
AcDbLine
 10
588.5756460438394
 20
384.9251349625887
 30
0.0
 11
576.5052460438395
 21
380.0974349625889
 31
0.0
  0
ARC
  5
421
330
1A
100
AcDbEntity
  8
SEIHIN
  6
CONTINUOUS
 62
     3
 48
16.0
100
AcDbCircle
 10
586.9970063880425
 20
376.7546090981346
 30
0.0
 40
1.99996664847196
100
AcDbArc
 50
21.80007957608542
 51
111.8011434509546
  0
ARC
  5
422
330
1A
100
AcDbEntity
  8
SEIHIN
  6
CONTINUOUS
 62
     3
 48
16.0
100
AcDbCircle
 10
595.3533563888671
 20
380.0969590994393
 30
0.0
 40
2.000031640999678
100
AcDbArc
 50
111.8019414497217
 51
201.7992815773154
  0
LINE
  5
423
330
1A
100
AcDbEntity
  8
SEIHIN
  6
CONTINUOUS
 62
     3
 48
16.0
100
AcDbLine
 10
581.8910460438396
 20
401.6378349625889
 30
0.0
 11
601.8534460438393
 21
409.6222349625889
 31
0.0
  0
LINE
  5
424
330
1A
100
AcDbEntity
  8
SEIHIN
  6
CONTINUOUS
 62
     3
 48
16.0
100
AcDbLine
 10
595.8181460438392
 20
401.8232349625889
 30
0.0
 11
583.7478460438394
 21
396.9955349625888
 31
0.0
  0
LINE
  5
425
330
1A
100
AcDbEntity
  8
SEIHIN
  6
CONTINUOUS
 62
     3
 48
16.0
100
AcDbLine
 10
598.4178460438394
 20
400.7089349625888
 30
0.0
 11
601.7601460438393
 21
392.3526349625888
 31
0.0
  0
ARC
  5
426
330
1A
100
AcDbEntity
  8
SEIHIN
  6
CONTINUOUS
 62
     3
 48
16.0
100
AcDbCircle
 10
599.9032563884188
 20
391.6098590996315
 30
0.0
 40
1.999938792813402
100
AcDbArc
 50
291.7992815254462
 51
21.80194150157984
  0
ARC
  5
427
330
1A
100
AcDbEntity
  8
SEIHIN
  6
CONTINUOUS
 62
     3
 48
16.0
100
AcDbCircle
 10
596.5608460438394
 20
399.9662349625887
 30
0.0
 40
2.0000130724573
100
AcDbArc
 50
21.79874961394751
 51
111.7987496139487
  0
ARC
  5
428
330
1A
100
AcDbEntity
  8
SEIHIN
  6
CONTINUOUS
 62
     3
 48
16.0
100
AcDbCircle
 10
616.7081719075317
 20
372.48279530749
 30
0.0
 40
10.00000036075001
100
AcDbArc
 50
291.7999731371259
 51
21.79976035780444
  0
LINE
  5
429
330
1A
100
AcDbEntity
  8
SEIHIN
  6
CONTINUOUS
 62
     3
 48
16.0
100
AcDbLine
 10
618.0083460438394
 20
382.6960349625888
 30
0.0
 11
615.7801460438395
 21
388.2669349625889
 31
0.0
  0
LINE
  5
42A
330
1A
100
AcDbEntity
  8
SEIHIN
  6
CONTINUOUS
 62
     3
 48
16.0
100
AcDbLine
 10
614.8520460438391
 20
404.0510349625888
 30
0.0
 11
625.9930460438395
 21
376.1964349625888
 31
0.0
  0
LINE
  5
42B
330
1A
100
AcDbEntity
  8
CENTER_L
  6
CENTER
 62
     1
 48
5.0
100
AcDbLine
 10
617.2639460438395
 20
376.4790349625889
 30
0.0
 11
620.2717460438394
 21
368.9590349625888
 31
0.0
  0
ARC
  5
42C
330
1A
100
AcDbEntity
  8
SEIHIN
  6
CONTINUOUS
 62
     3
 48
16.0
100
AcDbCircle
 10
618.5652356991282
 20
373.2256108267871
 30
0.0
 40
6.999990040350009
100
AcDbArc
 50
111.7992815788529
 51
201.8000415569122
  0
LINE
  5
42D
330
1A
100
AcDbEntity
  8
CENTER_L
  6
CENTER
 62
     1
 48
5.0
100
AcDbLine
 10
614.9011460438394
 20
371.7600349625888
 30
0.0
 11
622.4667460438393
 21
374.7860349625888
 31
0.0
  0
LINE
  5
42E
330
1A
100
AcDbEntity
  8
SEIHIN
  6
CONTINUOUS
 62
     3
 48
16.0
100
AcDbLine
 10
613.1798460438396
 20
367.8404349625889
 30
0.0
 11
612.0658460438394
 21
370.6260349625888
 31
0.0
  0
ARC
  5
42F
330
1A
100
AcDbEntity
  8
SEIHIN
  6
CONTINUOUS
 62
     3
 48
16.0
100
AcDbCircle
 10
611.3228356988115
 20
367.0977108257383
 30
0.0
 40
2.000031640999781
100
AcDbArc
 50
291.801941449717
 51
21.79928157731382
  0
ARC
  5
430
330
1A
100
AcDbEntity
  8
SEIHIN
  6
CONTINUOUS
 62
     3
 48
16.0
100
AcDbCircle
 10
618.5652460438395
 20
373.2256349625889
 30
0.0
 40
2.15000000000009
100
AcDbArc
 50
359.9999999999999
 51
179.9999999999999
  0
ARC
  5
431
330
1A
100
AcDbEntity
  8
SEIHIN
  6
CONTINUOUS
 62
     3
 48
16.0
100
AcDbCircle
 10
618.5652460438395
 20
373.2256349625889
 30
0.0
 40
2.15000000000009
100
AcDbArc
 50
179.9999999999999
 51
359.9999999999999
  0
LINE
  5
432
330
1A
100
AcDbEntity
  8
SEIHIN
  6
CONTINUOUS
 62
     3
 48
16.0
100
AcDbLine
 10
615.9657460438393
 20
379.7250349625889
 30
0.0
 11
616.8940460438393
 21
380.0963349625888
 31
0.0
  0
ARC
  5
433
330
1A
100
AcDbEntity
  8
SEIHIN
  6
CONTINUOUS
 62
     3
 48
16.0
100
AcDbCircle
 10
616.1513305260939
 20
381.9531987559083
 30
0.0
 40
1.999985217445403
100
AcDbArc
 50
291.7995475608487
 51
21.80327141184966
  0
ARC
  5
434
330
1A
100
AcDbEntity
  8
SEIHIN
  6
CONTINUOUS
 62
     3
 48
16.0
100
AcDbCircle
 10
613.9230856984356
 20
387.5241608242416
 30
0.0
 40
2.00000378624642
100
AcDbArc
 50
21.80114350281632
 51
111.8000795242178
  0
DIMENSION
  5
446
330
1A
100
AcDbEntity
  8
SUNPOU
100
AcDbDimension
  2
*D1
 10
245.5692536148199
 20
453.5749216384103
 30
0.0
 11
240.5692536148198
 21
461.0749216384103
 31
0.0
 70
    32
  3
STANDARD
100
AcDbAlignedDimension
 13
269.5010375755903
 23
468.5749216384103
 33
0.0
 14
269.5010375755903
 24
453.5749216384103
 34
0.0
 50
90.0
100
AcDbRotatedDimension
1001
ACAD
1000
DSTYLE
1002
{
1070
   140
1040
6.0
1070
    74
1070
     0
1070
   172
1070
     1
1070
    73
1070
     0
1070
   272
1070
     2
1070
    77
1070
     3
1070
   173
1070
     1
1070
   147
1040
2.0
1070
    42
1040
6.0
1070
    44
1040
3.0
1070
    43
1040
14.0
1070
   271
1070
     0
1070
   178
1070
     4
1070
   177
1070
     4
1070
   176
1070
     4
1070
   141
1040
150.0
1070
     7
1000
_OPEN
1070
     6
1000
_OPEN
1070
    41
1040
7.0
1002
}
  0
DIMENSION
  5
453
330
1A
100
AcDbEntity
  8
SUNPOU
100
AcDbDimension
  2
*D2
 10
245.5692536148199
 20
296.7326325096022
 30
0.0
 11
240.5692536148198
 21
311.7698825094425
 31
0.0
 70
    32
  3
STANDARD
100
AcDbAlignedDimension
 13
394.8011375755904
 23
326.8071325092827
 33
0.0
 14
268.8382554506653
 24
296.7326325096022
 34
0.0
 50
90.0
100
AcDbRotatedDimension
1001
ACAD
1000
DSTYLE
1002
{
1070
   140
1040
6.0
1070
    74
1070
     0
1070
   172
1070
     1
1070
    73
1070
     0
1070
   272
1070
     2
1070
    77
1070
     3
1070
   173
1070
     1
1070
   147
1040
2.0
1070
    42
1040
6.0
1070
    44
1040
3.0
1070
    43
1040
14.0
1070
   271
1070
     0
1070
   178
1070
     4
1070
   177
1070
     4
1070
   176
1070
     4
1070
   141
1040
150.0
1070
     7
1000
_OPEN
1070
     6
1000
_OPEN
1070
    41
1040
7.0
1002
}
  0
LINE
  5
4AB
330
1A
100
AcDbEntity
  8
NOKITOI
  6
PHANTOM
 62
     8
 48
5.0
100
AcDbLine
 10
373.5727375755903
 20
287.4380325092825
 30
0.0
 11
370.5797375755904
 21
257.5082325092825
 31
0.0
  0
LINE
  5
4AC
330
1A
100
AcDbEntity
  8
NOKITOI
  6
PHANTOM
 62
     8
 48
5.0
100
AcDbLine
 10
374.6137375755904
 20
285.7877325092824
 30
0.0
 11
371.7449375755903
 21
257.1003325092825
 31
0.0
  0
ARC
  5
4AD
330
1A
100
AcDbEntity
  8
NOKITOI
  6
PHANTOM
 62
     8
 48
5.0
100
AcDbCircle
 10
315.5173436575582
 20
290.6882268846261
 30
0.0
 40
41.79999437547816
100
AcDbArc
 50
184.474295212525
 51
269.9998545921086
  0
ARC
  5
4AE
330
1A
100
AcDbEntity
  8
NOKITOI
  6
PHANTOM
 62
     8
 48
5.0
100
AcDbCircle
 10
315.517321349133
 20
290.6882469856526
 30
0.0
 40
43.00001447645168
100
AcDbArc
 50
186.524910707118
 51
269.999888375144
  0
LINE
  5
4AF
330
1A
100
AcDbEntity
  8
NOKITOI
  6
PHANTOM
 62
     8
 48
5.0
100
AcDbLine
 10
315.5173375755903
 20
248.8882325092826
 30
0.0
 11
360.0969375755904
 21
248.8881325092825
 31
0.0
  0
LINE
  5
4B0
330
1A
100
AcDbEntity
  8
NOKITOI
  6
PHANTOM
 62
     8
 48
5.0
100
AcDbLine
 10
360.3467375755905
 20
247.6881325092824
 30
0.0
 11
315.5173375755903
 21
247.6882325092825
 31
0.0
  0
LINE
  5
4B1
330
1A
100
AcDbEntity
  8
NOKITOI
  6
PHANTOM
 62
     8
 48
5.0
100
AcDbLine
 10
356.3467375755905
 20
247.6881325092824
 30
0.0
 11
336.1888375755905
 21
247.6881325092824
 31
0.0
  0
LINE
  5
4B2
330
1A
100
AcDbEntity
  8
NOKITOI
  6
PHANTOM
 62
     8
 48
5.0
100
AcDbLine
 10
356.0969375755904
 20
248.8881325092825
 30
0.0
 11
336.1888375755905
 21
248.8881325092825
 31
0.0
  0
LINE
  5
4B3
330
1A
100
AcDbEntity
  8
NOKITOI
  6
PHANTOM
 62
     8
 48
5.0
100
AcDbLine
 10
371.3831375755904
 20
256.4258325092826
 30
0.0
 11
360.9800375755904
 21
247.9141325092825
 31
0.0
  0
LINE
  5
4B4
330
1A
100
AcDbEntity
  8
NOKITOI
  6
PHANTOM
 62
     8
 48
5.0
100
AcDbLine
 10
370.3988375755905
 20
257.1709325092824
 30
0.0
 11
360.4135375755904
 21
249.0011325092824
 31
0.0
  0
ARC
  5
4B5
330
1A
100
AcDbEntity
  8
NOKITOI
  6
PHANTOM
 62
     8
 48
5.0
100
AcDbCircle
 10
360.0969439633389
 20
249.3881347892721
 30
0.0
 40
0.5000022800304047
100
AcDbArc
 50
269.9992680212786
 51
309.2854498596058
  0
ARC
  5
4B6
330
1A
100
AcDbEntity
  8
NOKITOI
  6
PHANTOM
 62
     8
 48
5.0
100
AcDbCircle
 10
360.3467306430132
 20
248.6881300342763
 30
0.0
 40
0.9999975250179316
100
AcDbArc
 50
270.0003972084043
 51
309.2946416752298
  0
ARC
  5
4B7
330
1A
100
AcDbEntity
  8
NOKITOI
  6
PHANTOM
 62
     8
 48
5.0
100
AcDbCircle
 10
370.7499150027213
 20
257.1997904376098
 30
0.0
 40
0.9999908507640039
100
AcDbArc
 50
309.2887092230696
 51
354.2862329477531
  0
ARC
  5
4B8
330
1A
100
AcDbEntity
  8
NOKITOI
  6
PHANTOM
 62
     8
 48
5.0
100
AcDbCircle
 10
370.0822201497123
 20
257.5579000228946
 30
0.0
 40
0.4999904508696396
100
AcDbArc
 50
309.2900846377958
 51
354.2990110749245
  0
LINE
  5
4B9
330
1A
100
AcDbEntity
  8
NOKITOI
  6
PHANTOM
 62
     8
 48
5.0
100
AcDbLine
 10
271.0652375755905
 20
294.3882325092825
 30
0.0
 11
271.2464375755903
 21
297.8297325092826
 31
0.0
  0
ARC
  5
4BA
330
1A
100
AcDbEntity
  8
NOKITOI
  6
PHANTOM
 62
     8
 48
5.0
100
AcDbCircle
 10
269.2189577882595
 20
292.6882912376626
 30
0.0
 40
5.2000412730095
100
AcDbArc
 50
90.00132454306161
 51
142.0757990790561
  0
ARC
  5
4BB
330
1A
100
AcDbEntity
  8
NOKITOI
  6
PHANTOM
 62
     8
 48
5.0
100
AcDbCircle
 10
268.8240517940058
 20
296.1659178749815
 30
0.0
 40
0.5000073448410256
100
AcDbArc
 50
351.8729478641243
 51
96.47829282996843
  0
ARC
  5
4BC
330
1A
100
AcDbEntity
  8
NOKITOI
  6
PHANTOM
 62
     8
 48
5.0
100
AcDbCircle
 10
269.218875457037
 20
292.6882762918079
 30
0.0
 40
3.999989731271038
100
AcDbArc
 50
96.47731142013144
 51
181.7899836067308
  0
LINE
  5
4BD
330
1A
100
AcDbEntity
  8
NOKITOI
  6
PHANTOM
 62
     8
 48
5.0
100
AcDbLine
 10
270.2873375755904
 20
294.3882325092825
 30
0.0
 11
270.6914375755903
 21
297.2166325092824
 31
0.0
  0
LINE
  5
4BE
330
1A
100
AcDbEntity
  8
NOKITOI
  6
PHANTOM
 62
     8
 48
5.0
100
AcDbLine
 10
263.7682375755904
 20
300.6257325092825
 30
0.0
 11
264.1584375755904
 21
288.1414325092825
 31
0.0
  0
LINE
  5
4BF
330
1A
100
AcDbEntity
  8
NOKITOI
  6
PHANTOM
 62
     8
 48
5.0
100
AcDbLine
 10
264.9676375755904
 20
300.6632325092824
 30
0.0
 11
265.1170375755903
 21
295.8843325092825
 31
0.0
  0
LINE
  5
4C0
330
1A
100
AcDbEntity
  8
NOKITOI
  6
PHANTOM
 62
     8
 48
5.0
100
AcDbLine
 10
272.2287375755905
 20
293.6620325092824
 30
0.0
 11
272.5445375755903
 21
299.6619325092826
 31
0.0
  0
ARC
  5
4C1
330
1A
100
AcDbEntity
  8
NOKITOI
  6
PHANTOM
 62
     8
 48
5.0
100
AcDbCircle
 10
269.4802641761878
 20
293.6882018324004
 30
0.0
 40
0.4999693238254178
100
AcDbArc
 50
171.8555038770532
 51
269.9969516090348
  0
LINE
  5
4C2
330
1A
100
AcDbEntity
  8
NOKITOI
  6
PHANTOM
 62
     8
 48
5.0
100
AcDbLine
 10
273.3462375755904
 20
287.8882325092824
 30
0.0
 11
267.3053375755904
 21
287.8882325092824
 31
0.0
  0
LINE
  5
4C3
330
1A
100
AcDbEntity
  8
NOKITOI
  6
PHANTOM
 62
     8
 48
5.0
100
AcDbLine
 10
265.6576375755905
 20
286.6882325092825
 30
0.0
 11
271.8023375755904
 21
286.6882325092825
 31
0.0
  0
ARC
  5
4C4
330
1A
100
AcDbEntity
  8
NOKITOI
  6
PHANTOM
 62
     8
 48
5.0
100
AcDbCircle
 10
267.3053511477287
 20
289.888219354196
 30
0.0
 40
1.999986844959662
100
AcDbArc
 50
181.7875531852363
 51
269.9996111843223
  0
LINE
  5
4C5
330
1A
100
AcDbEntity
  8
NOKITOI
  6
PHANTOM
 62
     8
 48
5.0
100
AcDbLine
 10
265.3063375755903
 20
289.8258325092825
 30
0.0
 11
265.2208375755904
 21
292.5633325092824
 31
0.0
  0
ARC
  5
4C6
330
1A
100
AcDbEntity
  8
NOKITOI
  6
PHANTOM
 62
     8
 48
5.0
100
AcDbCircle
 10
265.6576735347413
 20
288.1881976551393
 30
0.0
 40
1.499965146287778
100
AcDbArc
 50
181.7866280217767
 51
269.9986264296976
  0
ARC
  5
4C7
330
1A
100
AcDbEntity
  8
NOKITOI
  6
PHANTOM
 62
     8
 48
5.0
100
AcDbCircle
 10
273.3462501452988
 20
287.3882208845527
 30
0.0
 40
0.5000116248877111
100
AcDbArc
 50
4.474846808342897
 51
90.00144034898337
  0
ARC
  5
4C8
330
1A
100
AcDbEntity
  8
NOKITOI
  6
PHANTOM
 62
     8
 48
5.0
100
AcDbCircle
 10
271.7293306885955
 20
293.688225974197
 30
0.0
 40
0.499993464961963
100
AcDbArc
 50
270.0007892017873
 51
356.9970361317427
  0
LINE
  5
4C9
330
1A
100
AcDbEntity
  8
NOKITOI
  6
PHANTOM
 62
     8
 48
5.0
100
AcDbLine
 10
268.9853375755904
 20
293.7590325092826
 30
0.0
 11
269.3190375755904
 21
296.0952325092825
 31
0.0
  0
LINE
  5
4CA
330
1A
100
AcDbEntity
  8
NOKITOI
  6
PHANTOM
 62
     8
 48
5.0
100
AcDbLine
 10
271.7293375755903
 20
293.1882325092825
 30
0.0
 11
269.4802375755903
 21
293.1882325092825
 31
0.0
  0
LINE
  5
4CB
330
1A
100
AcDbEntity
  8
NOKITOI
  6
PHANTOM
 62
     8
 48
5.0
100
AcDbLine
 10
271.0652375755905
 20
294.3882325092825
 30
0.0
 11
270.2873375755904
 21
294.3882325092825
 31
0.0
  0
ARC
  5
4CC
330
1A
100
AcDbEntity
  8
NOKITOI
  6
PHANTOM
 62
     8
 48
5.0
100
AcDbCircle
 10
271.8023291514278
 20
285.688240024339
 30
0.0
 40
0.9999924849789756
100
AcDbArc
 50
6.528264606674428
 51
89.99951732740891
  0
LINE
  5
4CD
330
1A
100
AcDbEntity
  8
NOKITOI
  6
PHANTOM
 62
     8
 48
5.0
100
AcDbLine
 10
265.7672375755903
 20
302.6882325092824
 30
0.0
 11
269.0938375755905
 21
302.6882325092824
 31
0.0
  0
LINE
  5
4CE
330
1A
100
AcDbEntity
  8
NOKITOI
  6
PHANTOM
 62
     8
 48
5.0
100
AcDbLine
 10
267.7400375755905
 20
298.9882325092826
 30
0.0
 11
270.6765375755904
 21
298.9882325092826
 31
0.0
  0
ARC
  5
4CF
330
1A
100
AcDbEntity
  8
NOKITOI
  6
PHANTOM
 62
     8
 48
5.0
100
AcDbCircle
 10
265.7672420703882
 20
300.6882371468094
 30
0.0
 40
0.7999953624857498
100
AcDbArc
 50
90.00032191805336
 51
181.7911273464199
  0
LINE
  5
4D0
330
1A
100
AcDbEntity
  8
NOKITOI
  6
PHANTOM
 62
     8
 48
5.0
100
AcDbLine
 10
265.7672375755903
 20
301.4882325092826
 30
0.0
 11
268.2400375755905
 21
301.4882325092826
 31
0.0
  0
ARC
  5
4D1
330
1A
100
AcDbEntity
  8
NOKITOI
  6
PHANTOM
 62
     8
 48
5.0
100
AcDbCircle
 10
265.7672503264406
 20
300.688245664369
 30
0.0
 40
1.999986844954076
100
AcDbArc
 50
90.00036528735526
 51
181.7883072882699
  0
LINE
  5
4D2
330
1A
100
AcDbEntity
  8
NOKITOI
  6
PHANTOM
 62
     8
 48
5.0
100
AcDbLine
 10
268.2400375755905
 20
301.4882325092826
 30
0.0
 11
267.7400375755905
 21
298.9882325092826
 31
0.0
  0
ARC
  5
4D3
330
1A
100
AcDbEntity
  8
NOKITOI
  6
PHANTOM
 62
     8
 48
5.0
100
AcDbCircle
 10
272.0451313744326
 20
299.6882390443678
 30
0.0
 40
0.4999934649531607
100
AcDbArc
 50
356.9955363203384
 51
89.99928939038005
  0
ARC
  5
4D4
330
1A
100
AcDbEntity
  8
NOKITOI
  6
PHANTOM
 62
     8
 48
5.0
100
AcDbCircle
 10
269.0938367925822
 20
302.1882334642842
 30
0.0
 40
0.4999990449987349
100
AcDbArc
 50
348.6967198015448
 51
89.99991027369452
  0
LINE
  5
4D5
330
1A
100
AcDbEntity
  8
NOKITOI
  6
PHANTOM
 62
     8
 48
5.0
100
AcDbLine
 10
269.3233375755905
 20
300.7863325092825
 30
0.0
 11
269.5841375755903
 21
302.0902325092825
 31
0.0
  0
ARC
  5
4D6
330
1A
100
AcDbEntity
  8
NOKITOI
  6
PHANTOM
 62
     8
 48
5.0
100
AcDbCircle
 10
269.8136303210347
 20
300.6882413591258
 30
0.0
 40
0.5000088498959383
100
AcDbArc
 50
168.6864043304884
 51
270.0008312961434
  0
LINE
  5
4D7
330
1A
100
AcDbEntity
  8
NOKITOI
  6
PHANTOM
 62
     8
 48
5.0
100
AcDbLine
 10
272.0451375755903
 20
300.1882325092825
 30
0.0
 11
269.8136375755904
 21
300.1882325092825
 31
0.0
  0
LINE
  5
4D8
330
1A
100
AcDbEntity
  8
NOKITOI
  6
PHANTOM
 62
     8
 48
5.0
100
AcDbLine
 10
270.6914375755903
 20
297.2166325092824
 30
0.0
 11
271.2464375755903
 21
297.8297325092826
 31
0.0
  0
LINE
  5
4D9
330
1A
100
AcDbEntity
  8
NOKITOI
  6
PHANTOM
 62
     8
 48
5.0
100
AcDbLine
 10
269.6807375755905
 20
297.8882325092825
 30
0.0
 11
269.2188375755903
 21
297.8882325092825
 31
0.0
  0
LINE
  5
4DA
330
1A
100
AcDbEntity
  8
NOKITOI
  6
PHANTOM
 62
     8
 48
5.0
100
AcDbLine
 10
269.6807375755905
 20
297.8882325092825
 30
0.0
 11
270.6765375755904
 21
298.9882325092826
 31
0.0
  0
ARC
  5
4DB
330
1A
100
AcDbEntity
  8
NOKITOI
  6
PHANTOM
 62
     8
 48
5.0
100
AcDbCircle
 10
375.6781416969973
 20
293.688228599252
 30
0.0
 40
0.4999960899864752
100
AcDbArc
 50
183.0147243791737
 51
269.9995277178594
  0
ARC
  5
4DC
330
1A
100
AcDbEntity
  8
NOKITOI
  6
PHANTOM
 62
     8
 48
5.0
100
AcDbCircle
 10
375.6087582254315
 20
285.6882511971317
 30
0.0
 40
0.9999813123640345
100
AcDbArc
 50
90.00118317084957
 51
174.290590033351
  0
LINE
  5
4DD
330
1A
100
AcDbEntity
  8
NOKITOI
  6
PHANTOM
 62
     8
 48
5.0
100
AcDbLine
 10
374.0702375755903
 20
287.8882325092824
 30
0.0
 11
380.1021375755905
 21
287.8882325092824
 31
0.0
  0
LINE
  5
4DE
330
1A
100
AcDbEntity
  8
NOKITOI
  6
PHANTOM
 62
     8
 48
5.0
100
AcDbLine
 10
375.3623375755904
 20
300.1882325092825
 30
0.0
 11
377.5938375755904
 21
300.1882325092825
 31
0.0
  0
LINE
  5
4DF
330
1A
100
AcDbEntity
  8
NOKITOI
  6
PHANTOM
 62
     8
 48
5.0
100
AcDbLine
 10
375.1788375755903
 20
293.6619325092825
 30
0.0
 11
374.8630375755904
 21
299.6619325092826
 31
0.0
  0
ARC
  5
4E0
330
1A
100
AcDbEntity
  8
NOKITOI
  6
PHANTOM
 62
     8
 48
5.0
100
AcDbCircle
 10
374.0702506465952
 20
287.3882443395624
 30
0.0
 40
0.499988169890889
100
AcDbArc
 50
90.00149786226627
 51
174.2966061377156
  0
ARC
  5
4E1
330
1A
100
AcDbEntity
  8
NOKITOI
  6
PHANTOM
 62
     8
 48
5.0
100
AcDbCircle
 10
375.3623412850855
 20
299.6882364193131
 30
0.0
 40
0.4999960899831856
100
AcDbArc
 50
90.00042508015132
 51
183.0156217414654
  0
ARC
  5
4E2
330
1A
100
AcDbEntity
  8
NOKITOI
  6
PHANTOM
 62
     8
 48
5.0
100
AcDbCircle
 10
378.1887197092394
 20
292.6882412376625
 30
0.0
 40
5.199991271650611
100
AcDbArc
 50
37.92532860473096
 51
89.99980314072548
  0
ARC
  5
4E3
330
1A
100
AcDbEntity
  8
NOKITOI
  6
PHANTOM
 62
     8
 48
5.0
100
AcDbCircle
 10
378.1887066486542
 20
292.6882682539463
 30
0.0
 40
3.99998565374706
100
AcDbArc
 50
358.2086966591014
 51
83.52422380468325
  0
ARC
  5
4E4
330
1A
100
AcDbEntity
  8
NOKITOI
  6
PHANTOM
 62
     8
 48
5.0
100
AcDbCircle
 10
378.5834669480903
 20
296.1658627417774
 30
0.0
 40
0.4999578477751074
100
AcDbArc
 50
83.52609071220776
 51
188.1330561712924
  0
LINE
  5
4E5
330
1A
100
AcDbEntity
  8
NOKITOI
  6
PHANTOM
 62
     8
 48
5.0
100
AcDbLine
 10
383.6392375755905
 20
300.6257325092825
 30
0.0
 11
383.2491375755904
 21
288.1413325092825
 31
0.0
  0
LINE
  5
4E6
330
1A
100
AcDbEntity
  8
NOKITOI
  6
PHANTOM
 62
     8
 48
5.0
100
AcDbLine
 10
382.4398375755903
 20
300.6632325092824
 30
0.0
 11
382.2905375755905
 21
295.8842325092825
 31
0.0
  0
LINE
  5
4E7
330
1A
100
AcDbEntity
  8
NOKITOI
  6
PHANTOM
 62
     8
 48
5.0
100
AcDbLine
 10
376.3422375755904
 20
294.3882325092825
 30
0.0
 11
376.1611375755903
 21
297.8296325092824
 31
0.0
  0
LINE
  5
4E8
330
1A
100
AcDbEntity
  8
NOKITOI
  6
PHANTOM
 62
     8
 48
5.0
100
AcDbLine
 10
377.1201375755903
 20
294.3882325092825
 30
0.0
 11
376.7161375755903
 21
297.2166325092824
 31
0.0
  0
ARC
  5
4E9
330
1A
100
AcDbEntity
  8
NOKITOI
  6
PHANTOM
 62
     8
 48
5.0
100
AcDbCircle
 10
380.1021755634148
 20
289.8881693298546
 30
0.0
 40
2.000036820932882
100
AcDbArc
 50
269.9989117490339
 51
358.2110591274196
  0
ARC
  5
4EA
330
1A
100
AcDbEntity
  8
NOKITOI
  6
PHANTOM
 62
     8
 48
5.0
100
AcDbCircle
 10
377.9272477620266
 20
293.6882442540067
 30
0.0
 40
0.5000117448278309
100
AcDbArc
 50
269.9988327478018
 51
8.127314608715803
  0
LINE
  5
4EB
330
1A
100
AcDbEntity
  8
NOKITOI
  6
PHANTOM
 62
     8
 48
5.0
100
AcDbLine
 10
378.4222375755903
 20
293.7589325092824
 30
0.0
 11
378.0884375755903
 21
296.0951325092826
 31
0.0
  0
LINE
  5
4EC
330
1A
100
AcDbEntity
  8
NOKITOI
  6
PHANTOM
 62
     8
 48
5.0
100
AcDbLine
 10
382.1012375755905
 20
289.8256325092826
 30
0.0
 11
382.1867375755904
 21
292.5632325092824
 31
0.0
  0
ARC
  5
4ED
330
1A
100
AcDbEntity
  8
NOKITOI
  6
PHANTOM
 62
     8
 48
5.0
100
AcDbCircle
 10
381.7498547887685
 20
288.1882491924303
 30
0.0
 40
1.500016683246579
100
AcDbArc
 50
269.9993425123348
 51
358.207642324411
  0
LINE
  5
4EE
330
1A
100
AcDbEntity
  8
NOKITOI
  6
PHANTOM
 62
     8
 48
5.0
100
AcDbLine
 10
381.7498375755902
 20
286.6882325092825
 30
0.0
 11
375.6087375755904
 21
286.6882325092825
 31
0.0
  0
LINE
  5
4EF
330
1A
100
AcDbEntity
  8
NOKITOI
  6
PHANTOM
 62
     8
 48
5.0
100
AcDbLine
 10
375.6781375755904
 20
293.1882325092825
 30
0.0
 11
377.9272375755903
 21
293.1882325092825
 31
0.0
  0
LINE
  5
4F0
330
1A
100
AcDbEntity
  8
NOKITOI
  6
PHANTOM
 62
     8
 48
5.0
100
AcDbLine
 10
376.3422375755904
 20
294.3882325092825
 30
0.0
 11
377.1201375755903
 21
294.3882325092825
 31
0.0
  0
ARC
  5
4F1
330
1A
100
AcDbEntity
  8
NOKITOI
  6
PHANTOM
 62
     8
 48
5.0
100
AcDbCircle
 10
381.640226338596
 20
300.6882441030997
 30
0.0
 40
1.999988406214315
100
AcDbArc
 50
358.2088726535929
 51
89.99967808195611
  0
LINE
  5
4F2
330
1A
100
AcDbEntity
  8
NOKITOI
  6
PHANTOM
 62
     8
 48
5.0
100
AcDbLine
 10
381.6402375755905
 20
302.6881325092824
 30
0.0
 11
378.3136375755905
 21
302.6882325092824
 31
0.0
  0
LINE
  5
4F3
330
1A
100
AcDbEntity
  8
NOKITOI
  6
PHANTOM
 62
     8
 48
5.0
100
AcDbLine
 10
381.6402375755905
 20
301.4881325092824
 30
0.0
 11
379.1675375755903
 21
301.4882325092826
 31
0.0
  0
ARC
  5
4F4
330
1A
100
AcDbEntity
  8
NOKITOI
  6
PHANTOM
 62
     8
 48
5.0
100
AcDbCircle
 10
378.3136303210346
 20
302.1882236594391
 30
0.0
 40
0.500008849895925
100
AcDbArc
 50
89.99916870385492
 51
191.3135956695117
  0
LINE
  5
4F5
330
1A
100
AcDbEntity
  8
NOKITOI
  6
PHANTOM
 62
     8
 48
5.0
100
AcDbLine
 10
378.0841375755903
 20
300.7862325092826
 30
0.0
 11
377.8233375755904
 21
302.0902325092825
 31
0.0
  0
LINE
  5
4F6
330
1A
100
AcDbEntity
  8
NOKITOI
  6
PHANTOM
 62
     8
 48
5.0
100
AcDbLine
 10
379.1675375755903
 20
301.4882325092826
 30
0.0
 11
379.6675375755903
 21
298.9882325092826
 31
0.0
  0
ARC
  5
4F7
330
1A
100
AcDbEntity
  8
NOKITOI
  6
PHANTOM
 62
     8
 48
5.0
100
AcDbCircle
 10
377.5938367925822
 20
300.6882315542807
 30
0.0
 40
0.4999990449987399
100
AcDbArc
 50
270.0000897263054
 51
11.30328019845509
  0
ARC
  5
4F8
330
1A
100
AcDbEntity
  8
NOKITOI
  6
PHANTOM
 62
     8
 48
5.0
100
AcDbCircle
 10
381.6402815419435
 20
300.6881871468094
 30
0.0
 40
0.7999453636812564
100
AcDbArc
 50
358.212343644788
 51
90.00314907315372
  0
LINE
  5
4F9
330
1A
100
AcDbEntity
  8
NOKITOI
  6
PHANTOM
 62
     8
 48
5.0
100
AcDbLine
 10
377.7267375755905
 20
297.8882325092825
 30
0.0
 11
378.1887375755904
 21
297.8882325092825
 31
0.0
  0
LINE
  5
4FA
330
1A
100
AcDbEntity
  8
NOKITOI
  6
PHANTOM
 62
     8
 48
5.0
100
AcDbLine
 10
376.7161375755903
 20
297.2166325092824
 30
0.0
 11
376.1611375755903
 21
297.8296325092824
 31
0.0
  0
LINE
  5
4FB
330
1A
100
AcDbEntity
  8
NOKITOI
  6
PHANTOM
 62
     8
 48
5.0
100
AcDbLine
 10
377.7267375755905
 20
297.8882325092825
 30
0.0
 11
376.7309375755904
 21
298.9882325092826
 31
0.0
  0
LINE
  5
4FC
330
1A
100
AcDbEntity
  8
NOKITOI
  6
PHANTOM
 62
     8
 48
5.0
100
AcDbLine
 10
379.6675375755903
 20
298.9882325092826
 30
0.0
 11
376.7309375755904
 21
298.9882325092826
 31
0.0
  0
LINE
  5
4FD
330
1A
100
AcDbEntity
  8
SEIHIN
  6
PHANTOM
 62
     6
 48
5.0
100
AcDbLine
 10
423.4582375755903
 20
196.9239660820275
 30
0.0
 11
415.9602375755903
 21
196.2679660820274
 31
0.0
  0
LINE
  5
501
330
1A
100
AcDbEntity
  8
NOKITOI
  6
PHANTOM
 62
     8
 48
5.0
100
AcDbLine
 10
273.8348380372804
 20
157.5548660820274
 30
0.0
 11
276.8278380372802
 21
127.6250660820272
 31
0.0
  0
LINE
  5
502
330
1A
100
AcDbEntity
  8
NOKITOI
  6
PHANTOM
 62
     8
 48
5.0
100
AcDbLine
 10
272.7938380372802
 20
155.9045660820272
 30
0.0
 11
275.6626380372803
 21
127.2171660820273
 31
0.0
  0
ARC
  5
503
330
1A
100
AcDbEntity
  8
NOKITOI
  6
PHANTOM
 62
     8
 48
5.0
100
AcDbCircle
 10
331.8902319553124
 20
160.8050604573709
 30
0.0
 40
41.79999437547816
100
AcDbArc
 50
270.0001454078912
 51
355.525704787475
  0
ARC
  5
504
330
1A
100
AcDbEntity
  8
NOKITOI
  6
PHANTOM
 62
     8
 48
5.0
100
AcDbCircle
 10
331.8902542637376
 20
160.8050805583974
 30
0.0
 40
43.00001447645168
100
AcDbArc
 50
270.0001116248559
 51
353.4750892928819
  0
LINE
  5
505
330
1A
100
AcDbEntity
  8
NOKITOI
  6
PHANTOM
 62
     8
 48
5.0
100
AcDbLine
 10
331.8902380372803
 20
119.0050660820273
 30
0.0
 11
287.3106380372802
 21
119.0049660820273
 31
0.0
  0
LINE
  5
506
330
1A
100
AcDbEntity
  8
NOKITOI
  6
PHANTOM
 62
     8
 48
5.0
100
AcDbLine
 10
287.0608380372802
 20
117.8049660820272
 30
0.0
 11
331.8902380372803
 21
117.8050660820273
 31
0.0
  0
LINE
  5
507
330
1A
100
AcDbEntity
  8
NOKITOI
  6
PHANTOM
 62
     8
 48
5.0
100
AcDbLine
 10
291.0608380372801
 20
117.8049660820272
 30
0.0
 11
311.2187380372801
 21
117.8049660820272
 31
0.0
  0
LINE
  5
508
330
1A
100
AcDbEntity
  8
NOKITOI
  6
PHANTOM
 62
     8
 48
5.0
100
AcDbLine
 10
291.3106380372802
 20
119.0049660820273
 30
0.0
 11
311.2187380372801
 21
119.0049660820273
 31
0.0
  0
LINE
  5
509
330
1A
100
AcDbEntity
  8
NOKITOI
  6
PHANTOM
 62
     8
 48
5.0
100
AcDbLine
 10
276.0244380372802
 20
126.5426660820273
 30
0.0
 11
286.4275380372802
 21
118.0309660820273
 31
0.0
  0
LINE
  5
50A
330
1A
100
AcDbEntity
  8
NOKITOI
  6
PHANTOM
 62
     8
 48
5.0
100
AcDbLine
 10
277.0087380372801
 20
127.2877660820272
 30
0.0
 11
286.9940380372802
 21
119.1179660820272
 31
0.0
  0
ARC
  5
50B
330
1A
100
AcDbEntity
  8
NOKITOI
  6
PHANTOM
 62
     8
 48
5.0
100
AcDbCircle
 10
287.3106316495317
 20
119.5049683620169
 30
0.0
 40
0.5000022800304047
100
AcDbArc
 50
230.7145501403941
 51
270.0007319787213
  0
ARC
  5
50C
330
1A
100
AcDbEntity
  8
NOKITOI
  6
PHANTOM
 62
     8
 48
5.0
100
AcDbCircle
 10
287.0608449698575
 20
118.8049636070211
 30
0.0
 40
0.9999975250179316
100
AcDbArc
 50
230.7053583247701
 51
269.9996027915957
  0
ARC
  5
50D
330
1A
100
AcDbEntity
  8
NOKITOI
  6
PHANTOM
 62
     8
 48
5.0
100
AcDbCircle
 10
277.3253554631583
 20
127.6747335956393
 30
0.0
 40
0.4999904508696396
100
AcDbArc
 50
185.7009889250754
 51
230.7099153622041
  0
ARC
  5
50E
330
1A
100
AcDbEntity
  8
NOKITOI
  6
PHANTOM
 62
     8
 48
5.0
100
AcDbCircle
 10
276.6576606101494
 20
127.3166240103546
 30
0.0
 40
0.9999908507640039
100
AcDbArc
 50
185.7137670522468
 51
230.7112907769303
  0
ARC
  5
511
330
1A
100
AcDbEntity
  8
SEIHIN
  6
CONTINUOUS
 62
     3
 48
16.0
100
AcDbCircle
 10
288.6683967244804
 20
178.0125319314763
 30
0.0
 40
0.4999850647767332
100
AcDbArc
 50
15.00338042543584
 51
105.0063462322174
  0
ARC
  5
512
330
1A
100
AcDbEntity
  8
SEIHIN
  6
CONTINUOUS
 62
     3
 48
16.0
100
AcDbCircle
 10
288.6683375755904
 20
178.0125660820274
 30
0.0
 40
1.500003483329249
100
AcDbArc
 50
14.99883465683191
 51
104.9988346568317
  0
ARC
  5
513
330
1A
100
AcDbEntity
  8
SEIHIN
  6
CONTINUOUS
 62
     3
 48
16.0
100
AcDbCircle
 10
295.936856915834
 20
178.3102610322996
 30
0.0
 40
9.99999442841487
100
AcDbArc
 50
205.0007250443957
 51
235.6961021037168
  0
ARC
  5
514
330
1A
100
AcDbEntity
  8
SEIHIN
  6
CONTINUOUS
 62
     3
 48
16.0
100
AcDbCircle
 10
295.9371138568809
 20
178.3099041296088
 30
0.0
 40
8.9999583507287
100
AcDbArc
 50
204.9978315563459
 51
222.8754850659493
  0
LINE
  5
515
330
1A
100
AcDbEntity
  8
SEIHIN
  6
CONTINUOUS
 62
     3
 48
16.0
100
AcDbLine
 10
301.8133375755904
 20
167.3494660820274
 30
0.0
 11
284.8011375755904
 21
167.3494660820274
 31
0.0
  0
LINE
  5
516
330
1A
100
AcDbEntity
  8
SEIHIN
  6
CONTINUOUS
 62
     3
 48
16.0
100
AcDbLine
 10
284.8011375755904
 20
159.3494660820274
 30
0.0
 11
288.8011375755905
 21
155.3494660820274
 31
0.0
  0
LINE
  5
517
330
1A
100
AcDbEntity
  8
SEIHIN
  6
CONTINUOUS
 62
     3
 48
16.0
100
AcDbLine
 10
282.2062375755904
 20
152.3494660820274
 30
0.0
 11
338.3869375755904
 21
152.3494660820274
 31
0.0
  0
LINE
  5
518
330
1A
100
AcDbEntity
  8
SEIHIN
  6
CONTINUOUS
 62
     3
 48
16.0
100
AcDbLine
 10
282.2062375755904
 20
154.8494660820274
 30
0.0
 11
338.3869375755904
 21
154.8494660820274
 31
0.0
  0
LINE
  5
51A
330
1A
100
AcDbEntity
  8
SEIHIN
  6
CONTINUOUS
 62
     3
 48
16.0
100
AcDbLine
 10
284.8011375755904
 20
159.3494660820274
 30
0.0
 11
284.8011375755904
 21
167.3494660820274
 31
0.0
  0
ARC
  5
51B
330
1A
100
AcDbEntity
  8
SEIHIN
  6
CONTINUOUS
 62
     3
 48
16.0
100
AcDbCircle
 10
270.5012058608834
 20
167.0992697281551
 30
0.0
 40
4.249794612449356
100
AcDbArc
 50
248.0382778609689
 51
298.0729203837768
  0
LINE
  5
51C
330
1A
100
AcDbEntity
  8
SEIHIN
  6
CONTINUOUS
 62
     3
 48
16.0
100
AcDbLine
 10
265.8010375755904
 20
163.3494660820274
 30
0.0
 11
265.8010375755904
 21
162.0494660820273
 31
0.0
  0
ARC
  5
51D
330
1A
100
AcDbEntity
  8
NOKITOI
  6
PHANTOM
 62
     8
 48
5.0
100
AcDbCircle
 10
378.1887001558335
 20
162.8051098645527
 30
0.0
 40
3.999989731271038
100
AcDbArc
 50
358.2100163932691
 51
83.52268857986855
  0
LINE
  5
51E
330
1A
100
AcDbEntity
  8
NOKITOI
  6
PHANTOM
 62
     8
 48
5.0
100
AcDbLine
 10
383.6393380372801
 20
170.7425660820273
 30
0.0
 11
383.2491380372802
 21
158.2582660820272
 31
0.0
  0
LINE
  5
51F
330
1A
100
AcDbEntity
  8
SEIHIN
  6
CONTINUOUS
 62
     3
 48
16.0
100
AcDbLine
 10
268.8010375755904
 20
159.0494660820275
 30
0.0
 11
273.3996375755904
 21
159.0494660820275
 31
0.0
  0
LINE
  5
520
330
1A
100
AcDbEntity
  8
NOKITOI
  6
PHANTOM
 62
     8
 48
5.0
100
AcDbLine
 10
374.0613380372802
 20
158.0050660820272
 30
0.0
 11
380.1022380372801
 21
158.0050660820272
 31
0.0
  0
ARC
  5
521
330
1A
100
AcDbEntity
  8
NOKITOI
  6
PHANTOM
 62
     8
 48
5.0
100
AcDbCircle
 10
375.6052464614428
 20
155.8050735970838
 30
0.0
 40
0.9999924849789756
100
AcDbArc
 50
90.00048267259112
 51
173.4717353933255
  0
ARC
  5
522
330
1A
100
AcDbEntity
  8
NOKITOI
  6
PHANTOM
 62
     8
 48
5.0
100
AcDbCircle
 10
381.7499020781293
 20
158.3050312278841
 30
0.0
 40
1.499965146287778
100
AcDbArc
 50
270.0013735703023
 51
358.2133719782232
  0
LINE
  5
523
330
1A
100
AcDbEntity
  8
NOKITOI
  6
PHANTOM
 62
     8
 48
5.0
100
AcDbLine
 10
382.1012380372803
 20
159.9426660820273
 30
0.0
 11
382.1867380372802
 21
162.6801660820271
 31
0.0
  0
ARC
  5
524
330
1A
100
AcDbEntity
  8
SEIHIN
  6
CONTINUOUS
 62
     3
 48
16.0
100
AcDbCircle
 10
268.8010375755903
 20
162.0494660820275
 30
0.0
 40
3.0
100
AcDbArc
 50
180.0000000000016
 51
270.0000000000016
  0
LINE
  5
525
330
1A
100
AcDbEntity
  8
NOKITOI
  6
PHANTOM
 62
     8
 48
5.0
100
AcDbLine
 10
381.7499380372801
 20
156.8050660820273
 30
0.0
 11
375.6052380372802
 21
156.8050660820273
 31
0.0
  0
ARC
  5
526
330
1A
100
AcDbEntity
  8
NOKITOI
  6
PHANTOM
 62
     8
 48
5.0
100
AcDbCircle
 10
380.102224465142
 20
160.0050529269408
 30
0.0
 40
1.999986844959662
100
AcDbArc
 50
270.0003888156776
 51
358.2124468147636
  0
LINE
  5
527
330
1A
100
AcDbEntity
  8
SEIHIN
  6
CONTINUOUS
 62
     3
 48
16.0
100
AcDbLine
 10
281.5147375755904
 20
155.1270660820274
 30
0.0
 11
277.3356375755905
 21
159.1270660820274
 31
0.0
  0
ARC
  5
528
330
1A
100
AcDbEntity
  8
SEIHIN
  6
CONTINUOUS
 62
     3
 48
16.0
100
AcDbCircle
 10
282.2062026551273
 20
155.8494801005426
 30
0.0
 40
3.50001401868937
100
AcDbArc
 50
226.2554456348531
 51
270.0005716534676
  0
LINE
  5
529
330
1A
100
AcDbEntity
  8
SEIHIN
  6
CONTINUOUS
 62
     3
 48
16.0
100
AcDbLine
 10
284.8011375755904
 20
160.8494660820273
 30
0.0
 11
278.0270375755904
 21
160.8494660820273
 31
0.0
  0
ARC
  5
52A
330
1A
100
AcDbEntity
  8
SEIHIN
  6
CONTINUOUS
 62
     3
 48
16.0
100
AcDbCircle
 10
278.0270480411116
 20
159.8494921527071
 30
0.0
 40
0.9999739293750449
100
AcDbArc
 50
90.00059964582403
 51
226.2567070142188
  0
ARC
  5
52B
330
1A
100
AcDbEntity
  8
SEIHIN
  6
CONTINUOUS
 62
     3
 48
16.0
100
AcDbCircle
 10
273.3996587537916
 20
158.0494575795997
 30
0.0
 40
1.00000850265197
100
AcDbArc
 50
46.25318158706586
 51
90.00121341122484
  0
ARC
  5
52C
330
1A
100
AcDbEntity
  8
NOKITOI
  6
PHANTOM
 62
     8
 48
5.0
100
AcDbCircle
 10
374.0613254675718
 20
157.5050544572975
 30
0.0
 40
0.5000116248877111
100
AcDbArc
 50
89.99855965101662
 51
175.5251531916571
  0
LINE
  5
52D
330
1A
100
AcDbEntity
  8
SEIHIN
  6
CONTINUOUS
 62
     3
 48
16.0
100
AcDbLine
 10
274.0910375755904
 20
158.7718660820274
 30
0.0
 11
279.7860375755904
 21
153.3209660820273
 31
0.0
  0
ARC
  5
52E
330
1A
100
AcDbEntity
  8
SEIHIN
  6
CONTINUOUS
 62
     3
 48
16.0
100
AcDbCircle
 10
282.2062163973892
 20
155.8494745844552
 30
0.0
 40
1.000008502651995
100
AcDbArc
 50
226.253181587064
 51
270.0012134112242
  0
LINE
  5
52F
330
1A
100
AcDbEntity
  8
SEIHIN
  6
CONTINUOUS
 62
     3
 48
16.0
100
AcDbLine
 10
280.9010375755904
 20
160.8495660820274
 30
0.0
 11
280.9010375755904
 21
155.7144660820274
 31
0.0
  0
ARC
  5
530
330
1A
100
AcDbEntity
  8
NOKITOI
  6
PHANTOM
 62
     8
 48
5.0
100
AcDbCircle
 10
375.362444238438
 20
169.8050726171126
 30
0.0
 40
0.4999934649531607
100
AcDbArc
 50
90.00071060961996
 51
183.0044636796616
  0
LINE
  5
531
330
1A
100
AcDbEntity
  8
NOKITOI
  6
PHANTOM
 62
     8
 48
5.0
100
AcDbLine
 10
375.1788380372801
 20
163.7788660820272
 30
0.0
 11
374.8630380372803
 21
169.7787660820273
 31
0.0
  0
ARC
  5
532
330
1A
100
AcDbEntity
  8
NOKITOI
  6
PHANTOM
 62
     8
 48
5.0
100
AcDbCircle
 10
381.64032528643
 20
170.8050792371137
 30
0.0
 40
1.999986844954076
100
AcDbArc
 50
358.21169271173
 51
89.99963471264475
  0
LINE
  5
533
330
1A
100
AcDbEntity
  8
SEIHIN
  6
CONTINUOUS
 62
     3
 48
16.0
100
AcDbLine
 10
268.5010375755904
 20
166.8494660820274
 30
0.0
 11
268.8382375755904
 21
166.8494660820274
 31
0.0
  0
ARC
  5
534
330
1A
100
AcDbEntity
  8
SEIHIN
  6
CONTINUOUS
 62
     3
 48
16.0
100
AcDbCircle
 10
268.8382554506653
 20
166.3494423831507
 30
0.0
 40
0.5000236991962673
100
AcDbArc
 50
344.0535045608426
 51
90.00204823560732
  0
LINE
  5
535
330
1A
100
AcDbEntity
  8
NOKITOI
  6
PHANTOM
 62
     8
 48
5.0
100
AcDbLine
 10
376.3423380372801
 20
164.5050660820273
 30
0.0
 11
376.1611380372802
 21
167.9465660820274
 31
0.0
  0
ARC
  5
536
330
1A
100
AcDbEntity
  8
NOKITOI
  6
PHANTOM
 62
     8
 48
5.0
100
AcDbCircle
 10
378.5835238188648
 20
166.2827514477263
 30
0.0
 40
0.5000073448410256
100
AcDbArc
 50
83.5217071700316
 51
188.1270521358757
  0
LINE
  5
537
330
1A
100
AcDbEntity
  8
NOKITOI
  6
PHANTOM
 62
     8
 48
5.0
100
AcDbLine
 10
377.1202380372802
 20
164.5050660820273
 30
0.0
 11
376.7161380372803
 21
167.3334660820272
 31
0.0
  0
LINE
  5
538
330
1A
100
AcDbEntity
  8
NOKITOI
  6
PHANTOM
 62
     8
 48
5.0
100
AcDbLine
 10
376.3423380372801
 20
164.5050660820273
 30
0.0
 11
377.1202380372802
 21
164.5050660820273
 31
0.0
  0
LINE
  5
539
330
1A
100
AcDbEntity
  8
NOKITOI
  6
PHANTOM
 62
     8
 48
5.0
100
AcDbLine
 10
379.6675380372801
 20
169.1050660820273
 30
0.0
 11
376.7310380372802
 21
169.1050660820273
 31
0.0
  0
LINE
  5
53A
330
1A
100
AcDbEntity
  8
NOKITOI
  6
PHANTOM
 62
     8
 48
5.0
100
AcDbLine
 10
379.1675380372801
 20
171.6050660820274
 30
0.0
 11
379.6675380372801
 21
169.1050660820273
 31
0.0
  0
ARC
  5
53B
330
1A
100
AcDbEntity
  8
NOKITOI
  6
PHANTOM
 62
     8
 48
5.0
100
AcDbCircle
 10
378.3137388202884
 20
172.305067037029
 30
0.0
 40
0.4999990449987349
100
AcDbArc
 50
90.00008972630549
 51
191.3032801984551
  0
LINE
  5
53C
330
1A
100
AcDbEntity
  8
NOKITOI
  6
PHANTOM
 62
     8
 48
5.0
100
AcDbLine
 10
378.0842380372801
 20
170.9031660820272
 30
0.0
 11
377.8234380372803
 21
172.2070660820272
 31
0.0
  0
ARC
  5
53D
330
1A
100
AcDbEntity
  8
NOKITOI
  6
PHANTOM
 62
     8
 48
5.0
100
AcDbCircle
 10
377.5939452918359
 20
170.8050749318706
 30
0.0
 40
0.5000088498959383
100
AcDbArc
 50
269.9991687038565
 51
11.31359566951149
  0
LINE
  5
53E
330
1A
100
AcDbEntity
  8
NOKITOI
  6
PHANTOM
 62
     8
 48
5.0
100
AcDbLine
 10
375.3624380372803
 20
170.3050660820273
 30
0.0
 11
377.5939380372802
 21
170.3050660820273
 31
0.0
  0
LINE
  5
53F
330
1A
100
AcDbEntity
  8
NOKITOI
  6
PHANTOM
 62
     8
 48
5.0
100
AcDbLine
 10
376.7161380372803
 20
167.3334660820272
 30
0.0
 11
376.1611380372802
 21
167.9465660820274
 31
0.0
  0
LINE
  5
540
330
1A
100
AcDbEntity
  8
NOKITOI
  6
PHANTOM
 62
     8
 48
5.0
100
AcDbLine
 10
377.7268380372801
 20
168.0050660820272
 30
0.0
 11
378.1887380372803
 21
168.0050660820272
 31
0.0
  0
LINE
  5
541
330
1A
100
AcDbEntity
  8
NOKITOI
  6
PHANTOM
 62
     8
 48
5.0
100
AcDbLine
 10
377.7268380372801
 20
168.0050660820272
 30
0.0
 11
376.7310380372802
 21
169.1050660820273
 31
0.0
  0
LINE
  5
542
330
1A
100
AcDbEntity
  8
NOKITOI
  6
PHANTOM
 62
     8
 48
5.0
100
AcDbLine
 10
382.4399380372802
 20
170.7800660820272
 30
0.0
 11
382.2905380372803
 21
166.0011660820273
 31
0.0
  0
ARC
  5
543
330
1A
100
AcDbEntity
  8
NOKITOI
  6
PHANTOM
 62
     8
 48
5.0
100
AcDbCircle
 10
381.6403335424824
 20
170.8050707195542
 30
0.0
 40
0.7999953624857498
100
AcDbArc
 50
358.20887265358
 51
89.99967808194661
  0
ARC
  5
544
330
1A
100
AcDbEntity
  8
NOKITOI
  6
PHANTOM
 62
     8
 48
5.0
100
AcDbCircle
 10
378.1886178246111
 20
162.8051248104073
 30
0.0
 40
5.2000412730095
100
AcDbArc
 50
37.92420092094385
 51
89.99867545693838
  0
LINE
  5
545
330
1A
100
AcDbEntity
  8
NOKITOI
  6
PHANTOM
 62
     8
 48
5.0
100
AcDbLine
 10
381.6403380372802
 20
172.8050660820272
 30
0.0
 11
378.3137380372802
 21
172.8050660820272
 31
0.0
  0
LINE
  5
546
330
1A
100
AcDbEntity
  8
NOKITOI
  6
PHANTOM
 62
     8
 48
5.0
100
AcDbLine
 10
381.6403380372802
 20
171.6050660820274
 30
0.0
 11
379.1675380372801
 21
171.6050660820274
 31
0.0
  0
ARC
  5
547
330
1A
100
AcDbEntity
  8
SEIHIN
  6
CONTINUOUS
 62
     3
 48
16.0
100
AcDbCircle
 10
269.0988582246782
 20
163.6215238351674
 30
0.0
 40
0.499955233227953
100
AcDbArc
 50
164.0553214540096
 51
248.0328592211505
  0
ARC
  5
548
330
1A
100
AcDbEntity
  8
NOKITOI
  6
PHANTOM
 62
     8
 48
5.0
100
AcDbCircle
 10
377.9273114366828
 20
163.8050354051451
 30
0.0
 40
0.4999693238254178
100
AcDbArc
 50
270.0030483909652
 51
8.144496122946778
  0
ARC
  5
549
330
1A
100
AcDbEntity
  8
NOKITOI
  6
PHANTOM
 62
     8
 48
5.0
100
AcDbCircle
 10
375.6782449242751
 20
163.8050595469418
 30
0.0
 40
0.499993464961963
100
AcDbArc
 50
183.0029638682573
 51
269.9992107982126
  0
LINE
  5
54A
330
1A
100
AcDbEntity
  8
NOKITOI
  6
PHANTOM
 62
     8
 48
5.0
100
AcDbLine
 10
375.6782380372803
 20
163.3050660820273
 30
0.0
 11
377.9273380372803
 21
163.3050660820273
 31
0.0
  0
LINE
  5
54B
330
1A
100
AcDbEntity
  8
SEIHIN
  6
CONTINUOUS
 62
     3
 48
16.0
100
AcDbLine
 10
268.6180375755904
 20
163.7588660820274
 30
0.0
 11
265.8142375755904
 21
163.7588660820274
 31
0.0
  0
LINE
  5
54C
330
1A
100
AcDbEntity
  8
SEIHIN
  6
CONTINUOUS
 62
     3
 48
16.0
100
AcDbLine
 10
269.3190375755904
 20
166.2120660820273
 30
0.0
 11
268.6180375755904
 21
163.7588660820274
 31
0.0
  0
ARC
  5
54D
330
1A
100
AcDbEntity
  8
SEIHIN
  6
CONTINUOUS
 62
     3
 48
16.0
100
AcDbCircle
 10
269.2998044303245
 20
163.4418231164652
 30
0.0
 40
3.49998561791278
100
AcDbArc
 50
103.1906192341471
 51
181.5120869528073
  0
LINE
  5
54E
330
1A
100
AcDbEntity
  8
NOKITOI
  6
PHANTOM
 62
     8
 48
5.0
100
AcDbLine
 10
378.4222380372802
 20
163.8758660820274
 30
0.0
 11
378.0885380372802
 21
166.2120660820273
 31
0.0
  0
LINE
  5
54F
330
1A
100
AcDbEntity
  8
SEIHIN
  6
CONTINUOUS
 62
     3
 48
16.0
100
AcDbLine
 10
287.7802375755904
 20
174.5066660820274
 30
0.0
 11
286.4628375755905
 21
177.3316660820273
 31
0.0
  0
LINE
  5
550
330
1A
100
AcDbEntity
  8
SEIHIN
  6
CONTINUOUS
 62
     3
 48
16.0
100
AcDbLine
 10
285.5565375755904
 20
176.9090660820273
 30
0.0
 11
286.8739375755905
 21
174.0840660820274
 31
0.0
  0
LINE
  5
551
330
1A
100
AcDbEntity
  8
SEIHIN
  6
CONTINUOUS
 62
     3
 48
16.0
100
AcDbLine
 10
272.5011375755904
 20
163.3494660820274
 30
0.0
 11
284.8011375755904
 21
163.3494660820274
 31
0.0
  0
LINE
  5
552
330
1A
100
AcDbEntity
  8
SEIHIN
  6
CONTINUOUS
 62
     3
 48
16.0
100
AcDbLine
 10
288.2801375755904
 20
179.4614660820274
 30
0.0
 11
286.5277375755904
 21
178.9918660820275
 31
0.0
  0
ARC
  5
553
330
1A
100
AcDbEntity
  8
SEIHIN
  6
CONTINUOUS
 62
     3
 48
16.0
100
AcDbCircle
 10
286.9160363149358
 20
177.5429633788732
 30
0.0
 40
0.5000356437280318
100
AcDbArc
 50
104.9976264979356
 51
204.9965994016828
  0
ARC
  5
554
330
1A
100
AcDbEntity
  8
SEIHIN
  6
CONTINUOUS
 62
     3
 48
16.0
100
AcDbCircle
 10
286.9160321494843
 20
177.5429544464296
 30
0.0
 40
1.500013318264731
100
AcDbArc
 50
104.998519436195
 51
204.9981179307431
  0
LINE
  5
555
330
1A
100
AcDbEntity
  8
SEIHIN
  6
CONTINUOUS
 62
     3
 48
16.0
100
AcDbLine
 10
286.7866375755905
 20
178.0259660820274
 30
0.0
 11
288.5389375755904
 21
178.4954660820273
 31
0.0
  0
LINE
  5
556
330
1A
100
AcDbEntity
  8
SEIHIN
  6
CONTINUOUS
 62
     3
 48
16.0
100
AcDbLine
 10
358.2165375755905
 20
175.1131660820274
 30
0.0
 11
350.5438375755904
 21
164.9520660820273
 31
0.0
  0
LINE
  5
557
330
1A
100
AcDbEntity
  8
SEIHIN
  6
CONTINUOUS
 62
     3
 48
16.0
100
AcDbLine
 10
351.3418375755903
 20
163.3494660820274
 30
0.0
 11
356.3541375755903
 21
163.3494660820274
 31
0.0
  0
LINE
  5
558
330
1A
100
AcDbEntity
  8
SEIHIN
  6
CONTINUOUS
 62
     3
 48
16.0
100
AcDbLine
 10
353.9855375755905
 20
152.4716660820274
 30
0.0
 11
365.0086375755904
 21
155.0269660820274
 31
0.0
  0
LINE
  5
559
330
1A
100
AcDbEntity
  8
SEIHIN
  6
CONTINUOUS
 62
     3
 48
16.0
100
AcDbLine
 10
351.3011375755904
 20
149.8494660820274
 30
0.0
 11
368.8005375755905
 21
154.5718660820274
 31
0.0
  0
LINE
  5
55A
330
1A
100
AcDbEntity
  8
SEIHIN
  6
CONTINUOUS
 62
     3
 48
16.0
100
AcDbLine
 10
352.9616375755904
 20
154.0484660820275
 30
0.0
 11
363.7996375755905
 21
168.4015660820273
 31
0.0
  0
LINE
  5
55B
330
1A
100
AcDbEntity
  8
SEIHIN
  6
CONTINUOUS
 62
     3
 48
16.0
100
AcDbLine
 10
388.4582375755903
 20
196.9239660820275
 30
0.0
 11
335.6404375755905
 21
192.3030660820273
 31
0.0
  0
LINE
  5
55C
330
1A
100
AcDbEntity
  8
SEIHIN
  6
CONTINUOUS
 62
     3
 48
16.0
100
AcDbLine
 10
356.2214375755903
 20
176.6197660820274
 30
0.0
 11
347.7014375755905
 21
165.3364660820274
 31
0.0
  0
LINE
  5
55D
330
1A
100
AcDbEntity
  8
SEIHIN
  6
CONTINUOUS
 62
     3
 48
16.0
100
AcDbLine
 10
337.8211375755905
 20
178.9540660820274
 30
0.0
 11
392.1412375755904
 21
178.9539660820274
 31
0.0
  0
ARC
  5
55E
330
1A
100
AcDbEntity
  8
SEIHIN
  6
CONTINUOUS
 62
     3
 48
16.0
100
AcDbCircle
 10
338.1680787083769
 20
163.4133888557488
 30
0.0
 40
29.00003300716195
100
AcDbArc
 50
95.00004306917707
 51
142.9435212941016
  0
LINE
  5
55F
330
1A
100
AcDbEntity
  8
SEIHIN
  6
CONTINUOUS
 62
     3
 48
16.0
100
AcDbLine
 10
318.0706375755903
 20
163.3494660820274
 30
0.0
 11
343.7112375755903
 21
163.3494660820274
 31
0.0
  0
LINE
  5
560
330
1A
100
AcDbEntity
  8
SEIHIN
  6
CONTINUOUS
 62
     3
 48
16.0
100
AcDbLine
 10
314.7305375755905
 20
158.9260660820274
 30
0.0
 11
325.0525375755904
 21
172.5956660820273
 31
0.0
  0
LINE
  5
561
330
1A
100
AcDbEntity
  8
SEIHIN
  6
CONTINUOUS
 62
     3
 48
16.0
100
AcDbLine
 10
352.9562375755903
 20
160.8494660820273
 30
0.0
 11
316.1829375755904
 21
160.8494660820273
 31
0.0
  0
LINE
  5
562
330
1A
100
AcDbEntity
  8
CENTER_L
  6
CENTER
 62
     1
 48
5.0
100
AcDbLine
 10
294.8011375755905
 20
177.4891660820275
 30
0.0
 11
294.8010375755904
 21
148.0010660820274
 31
0.0
  0
LINE
  5
563
330
1A
100
AcDbEntity
  8
SEIHIN
  6
CONTINUOUS
 62
     3
 48
16.0
100
AcDbLine
 10
288.8011375755905
 20
155.3494660820274
 30
0.0
 11
307.5481375755903
 21
155.3494660820274
 31
0.0
  0
ARC
  5
564
330
1A
100
AcDbEntity
  8
SEIHIN
  6
CONTINUOUS
 62
     3
 48
16.0
100
AcDbCircle
 10
294.8010375755904
 20
159.5962660820273
 30
0.0
 40
9.746927701075875
100
AcDbArc
 50
235.6476659526563
 51
304.3523340473436
  0
LINE
  5
565
330
1A
100
AcDbEntity
  8
SEIHIN
  6
CONTINUOUS
 62
     3
 48
16.0
100
AcDbLine
 10
300.3010375755905
 20
151.5493660820274
 30
0.0
 11
289.3010375755904
 21
151.5493660820274
 31
0.0
  0
LINE
  5
566
330
1A
100
AcDbEntity
  8
SEIHIN
  6
CONTINUOUS
 62
     3
 48
16.0
100
AcDbLine
 10
289.3010375755904
 20
151.5493660820274
 30
0.0
 11
289.3010375755904
 21
152.3493660820274
 31
0.0
  0
LINE
  5
567
330
1A
100
AcDbEntity
  8
SEIHIN
  6
CONTINUOUS
 62
     3
 48
16.0
100
AcDbLine
 10
300.3010375755905
 20
151.5493660820274
 30
0.0
 11
300.3010375755905
 21
152.3491660820274
 31
0.0
  0
ARC
  5
568
330
1A
100
AcDbEntity
  8
SEIHIN
  6
CONTINUOUS
 62
     3
 48
16.0
100
AcDbCircle
 10
307.5481256122944
 20
164.3494601248014
 30
0.0
 40
8.999994042781867
100
AcDbArc
 50
270.0000761607577
 51
322.9428843963771
  0
ARC
  5
569
330
1A
100
AcDbEntity
  8
SEIHIN
  6
CONTINUOUS
 62
     3
 48
16.0
100
AcDbCircle
 10
301.8132892620112
 20
173.3494420235976
 30
0.0
 40
5.999975941764724
100
AcDbArc
 50
270.0004613625468
 51
322.9437776467121
  0
LINE
  5
56A
330
1A
100
AcDbEntity
  8
SEIHIN
  6
CONTINUOUS
 62
     3
 48
16.0
100
AcDbLine
 10
304.0456375755904
 20
176.9090660820273
 30
0.0
 11
302.7282375755904
 21
174.0839660820273
 31
0.0
  0
LINE
  5
56B
330
1A
100
AcDbEntity
  8
SEIHIN
  6
CONTINUOUS
 62
     3
 48
16.0
100
AcDbLine
 10
301.8219375755904
 20
174.5066660820274
 30
0.0
 11
303.1393375755905
 21
177.3316660820273
 31
0.0
  0
LINE
  5
56C
330
1A
100
AcDbEntity
  8
SEIHIN
  6
CONTINUOUS
 62
     3
 48
16.0
100
AcDbLine
 10
291.5511375755905
 20
173.0496660820273
 30
0.0
 11
290.1172375755904
 21
178.4007660820274
 31
0.0
  0
LINE
  5
56D
330
1A
100
AcDbEntity
  8
SEIHIN
  6
CONTINUOUS
 62
     3
 48
16.0
100
AcDbLine
 10
289.1513375755905
 20
178.1419660820274
 30
0.0
 11
290.4529375755905
 21
173.2843660820274
 31
0.0
  0
LINE
  5
56E
330
1A
100
AcDbEntity
  8
SEIHIN
  6
CONTINUOUS
 62
     3
 48
16.0
100
AcDbLine
 10
298.0511375755905
 20
173.0496660820273
 30
0.0
 11
299.4848375755904
 21
178.4007660820274
 31
0.0
  0
LINE
  5
56F
330
1A
100
AcDbEntity
  8
SEIHIN
  6
CONTINUOUS
 62
     3
 48
16.0
100
AcDbLine
 10
300.4508375755904
 20
178.1419660820274
 30
0.0
 11
299.1492375755904
 21
173.2843660820274
 31
0.0
  0
LINE
  5
570
330
1A
100
AcDbEntity
  8
SEIHIN
  6
CONTINUOUS
 62
     3
 48
16.0
100
AcDbLine
 10
299.3011375755904
 20
170.0496660820273
 30
0.0
 11
294.8011375755905
 21
170.0496660820273
 31
0.0
  0
LINE
  5
571
330
1A
100
AcDbEntity
  8
SEIHIN
  6
CONTINUOUS
 62
     3
 48
16.0
100
AcDbLine
 10
294.8011375755905
 20
173.0496660820273
 30
0.0
 11
298.0511375755905
 21
173.0496660820273
 31
0.0
  0
LINE
  5
572
330
1A
100
AcDbEntity
  8
SEIHIN
  6
CONTINUOUS
 62
     3
 48
16.0
100
AcDbLine
 10
294.8011375755905
 20
174.3496660820275
 30
0.0
 11
297.3010375755904
 21
174.3496660820275
 31
0.0
  0
LINE
  5
573
330
1A
100
AcDbEntity
  8
SEIHIN
  6
CONTINUOUS
 62
     3
 48
16.0
100
AcDbLine
 10
300.3011375755905
 20
168.8496660820275
 30
0.0
 11
294.8011375755905
 21
168.8496660820275
 31
0.0
  0
LINE
  5
574
330
1A
100
AcDbEntity
  8
SEIHIN
  6
CONTINUOUS
 62
     3
 48
16.0
100
AcDbLine
 10
292.3011375755905
 20
174.3496660820275
 30
0.0
 11
292.3011375755905
 21
173.0496660820273
 31
0.0
  0
LINE
  5
575
330
1A
100
AcDbEntity
  8
SEIHIN
  6
CONTINUOUS
 62
     3
 48
16.0
100
AcDbLine
 10
294.8011375755905
 20
173.0496660820273
 30
0.0
 11
291.5511375755905
 21
173.0496660820273
 31
0.0
  0
LINE
  5
576
330
1A
100
AcDbEntity
  8
SEIHIN
  6
CONTINUOUS
 62
     3
 48
16.0
100
AcDbLine
 10
294.8010375755904
 20
174.3496660820275
 30
0.0
 11
292.3011375755905
 21
174.3496660820275
 31
0.0
  0
LINE
  5
577
330
1A
100
AcDbEntity
  8
SEIHIN
  6
CONTINUOUS
 62
     3
 48
16.0
100
AcDbLine
 10
290.3011375755905
 20
170.0496660820273
 30
0.0
 11
290.8011375755905
 21
168.8496660820275
 31
0.0
  0
LINE
  5
578
330
1A
100
AcDbEntity
  8
SEIHIN
  6
CONTINUOUS
 62
     3
 48
16.0
100
AcDbLine
 10
290.4314375755904
 20
172.9626660820274
 30
0.0
 11
290.1696375755904
 21
172.3342660820275
 31
0.0
  0
ARC
  5
579
330
1A
100
AcDbEntity
  8
SEIHIN
  6
CONTINUOUS
 62
     3
 48
16.0
100
AcDbCircle
 10
289.7080778658381
 20
172.5265732806407
 30
0.0
 40
0.5000194239278651
100
AcDbArc
 50
222.8739674882992
 51
337.381123721883
  0
ARC
  5
57A
330
1A
100
AcDbEntity
  8
SEIHIN
  6
CONTINUOUS
 62
     3
 48
16.0
100
AcDbCircle
 10
289.9699350230968
 20
173.1549277532222
 30
0.0
 40
0.4999491535832865
100
AcDbArc
 50
337.3834207096096
 51
15.00497918766642
  0
LINE
  5
57B
330
1A
100
AcDbEntity
  8
SEIHIN
  6
CONTINUOUS
 62
     3
 48
16.0
100
AcDbLine
 10
289.3011375755905
 20
168.8496660820275
 30
0.0
 11
289.3011375755905
 21
167.3496660820275
 31
0.0
  0
LINE
  5
57C
330
1A
100
AcDbEntity
  8
SEIHIN
  6
CONTINUOUS
 62
     3
 48
16.0
100
AcDbLine
 10
290.3011375755905
 20
170.0496660820273
 30
0.0
 11
291.5511375755905
 21
173.0496660820273
 31
0.0
  0
LINE
  5
57D
330
1A
100
AcDbEntity
  8
SEIHIN
  6
CONTINUOUS
 62
     3
 48
16.0
100
AcDbLine
 10
290.3011375755905
 20
170.0496660820273
 30
0.0
 11
294.8011375755905
 21
170.0496660820273
 31
0.0
  0
LINE
  5
57E
330
1A
100
AcDbEntity
  8
SEIHIN
  6
CONTINUOUS
 62
     3
 48
16.0
100
AcDbLine
 10
289.3011375755905
 20
168.8496660820275
 30
0.0
 11
294.8011375755905
 21
168.8496660820275
 31
0.0
  0
LINE
  5
57F
330
1A
100
AcDbEntity
  8
SEIHIN
  6
CONTINUOUS
 62
     3
 48
16.0
100
AcDbLine
 10
300.3011375755905
 20
168.8496660820275
 30
0.0
 11
300.3011375755905
 21
167.3496660820275
 31
0.0
  0
ARC
  5
580
330
1A
100
AcDbEntity
  8
SEIHIN
  6
CONTINUOUS
 62
     3
 48
16.0
100
AcDbCircle
 10
293.6652000478321
 20
178.3102589146761
 30
0.0
 40
9.000024792292755
100
AcDbArc
 50
317.1218255523317
 51
334.9991711343641
  0
LINE
  5
581
330
1A
100
AcDbEntity
  8
SEIHIN
  6
CONTINUOUS
 62
     3
 48
16.0
100
AcDbLine
 10
297.3011375755904
 20
174.3496660820275
 30
0.0
 11
297.3011375755904
 21
173.0496660820273
 31
0.0
  0
LINE
  5
582
330
1A
100
AcDbEntity
  8
SEIHIN
  6
CONTINUOUS
 62
     3
 48
16.0
100
AcDbLine
 10
299.3011375755904
 20
170.0496660820273
 30
0.0
 11
298.8011375755905
 21
168.8496660820275
 31
0.0
  0
LINE
  5
583
330
1A
100
AcDbEntity
  8
SEIHIN
  6
CONTINUOUS
 62
     3
 48
16.0
100
AcDbLine
 10
299.3011375755904
 20
170.0496660820273
 30
0.0
 11
298.0511375755905
 21
173.0496660820273
 31
0.0
  0
ARC
  5
584
330
1A
100
AcDbEntity
  8
SEIHIN
  6
CONTINUOUS
 62
     3
 48
16.0
100
AcDbCircle
 10
299.6322396866407
 20
173.1549343760171
 30
0.0
 40
0.500043603898429
100
AcDbArc
 50
164.9987072436347
 51
202.6128928591191
  0
LINE
  5
585
330
1A
100
AcDbEntity
  8
SEIHIN
  6
CONTINUOUS
 62
     3
 48
16.0
100
AcDbLine
 10
299.1706375755904
 20
172.9626660820274
 30
0.0
 11
299.4325375755904
 21
172.3341660820274
 31
0.0
  0
ARC
  5
586
330
1A
100
AcDbEntity
  8
SEIHIN
  6
CONTINUOUS
 62
     3
 48
16.0
100
AcDbCircle
 10
299.8940686179553
 20
172.5265605375645
 30
0.0
 40
0.5000265288841581
100
AcDbArc
 50
202.6293689728989
 51
317.1131439057163
  0
ARC
  5
587
330
1A
100
AcDbEntity
  8
SEIHIN
  6
CONTINUOUS
 62
     3
 48
16.0
100
AcDbCircle
 10
293.6652182353467
 20
178.3102610322994
 30
0.0
 40
9.999994428414675
100
AcDbArc
 50
304.3038978962846
 51
334.9992749556055
  0
ARC
  5
588
330
1A
100
AcDbEntity
  8
SEIHIN
  6
CONTINUOUS
 62
     3
 48
16.0
100
AcDbCircle
 10
302.6861138364
 20
177.5430169903149
 30
0.0
 40
0.4999903293584399
100
AcDbArc
 50
334.9942007564464
 51
74.99801644261535
  0
LINE
  5
589
330
1A
100
AcDbEntity
  8
SEIHIN
  6
CONTINUOUS
 62
     3
 48
16.0
100
AcDbLine
 10
301.3220375755904
 20
179.4614660820274
 30
0.0
 11
303.0743375755905
 21
178.9918660820275
 31
0.0
  0
ARC
  5
58A
330
1A
100
AcDbEntity
  8
SEIHIN
  6
CONTINUOUS
 62
     3
 48
16.0
100
AcDbCircle
 10
300.9337784267005
 20
178.0125319314763
 30
0.0
 40
0.4999850647766772
100
AcDbArc
 50
74.99365376778837
 51
164.9966195745672
  0
LINE
  5
58B
330
1A
100
AcDbEntity
  8
SEIHIN
  6
CONTINUOUS
 62
     3
 48
16.0
100
AcDbLine
 10
302.8155375755904
 20
178.0259660820274
 30
0.0
 11
301.0631375755904
 21
178.4954660820273
 31
0.0
  0
ARC
  5
58C
330
1A
100
AcDbEntity
  8
SEIHIN
  6
CONTINUOUS
 62
     3
 48
16.0
100
AcDbCircle
 10
302.6861180010129
 20
177.5430080587752
 30
0.0
 40
1.49996800286796
100
AcDbArc
 50
334.9988153855743
 51
75.00002814091878
  0
ARC
  5
58D
330
1A
100
AcDbEntity
  8
SEIHIN
  6
CONTINUOUS
 62
     3
 48
16.0
100
AcDbCircle
 10
300.9338375755904
 20
178.0125660820274
 30
0.0
 40
1.500003483329262
100
AcDbArc
 50
75.00116534316879
 51
165.0011653431676
  0
LINE
  5
58E
330
1A
100
AcDbEntity
  8
SEIHIN
  6
CONTINUOUS
 62
     3
 48
16.0
100
AcDbLine
 10
315.0247375755905
 20
180.8888660820274
 30
0.0
 11
306.6016375755904
 21
169.7338660820274
 31
0.0
  0
ARC
  5
58F
330
1A
100
AcDbEntity
  8
SEIHIN
  6
CONTINUOUS
 62
     3
 48
16.0
100
AcDbCircle
 10
343.7112240244637
 20
168.3494593340184
 30
0.0
 40
4.999993252009338
100
AcDbArc
 50
270.0001552846817
 51
322.9437017475591
  0
LINE
  5
590
330
1A
100
AcDbEntity
  8
SEIHIN
  6
CONTINUOUS
 62
     3
 48
16.0
100
AcDbLine
 10
335.7012375755904
 20
160.8494660820273
 30
0.0
 11
335.7011375755905
 21
154.8493660820274
 31
0.0
  0
LINE
  5
591
330
1A
100
AcDbEntity
  8
SEIHIN
  6
CONTINUOUS
 62
     3
 48
16.0
100
AcDbLine
 10
340.2760375755903
 20
150.8745660820275
 30
0.0
 11
339.0940375755905
 21
152.0565660820274
 31
0.0
  0
LINE
  5
592
330
1A
100
AcDbEntity
  8
SEIHIN
  6
CONTINUOUS
 62
     3
 48
16.0
100
AcDbLine
 10
351.3011375755904
 20
149.8494660820274
 30
0.0
 11
342.7508375755903
 21
149.8494660820274
 31
0.0
  0
ARC
  5
593
330
1A
100
AcDbEntity
  8
SEIHIN
  6
CONTINUOUS
 62
     3
 48
16.0
100
AcDbCircle
 10
342.7508780926192
 20
153.3494492998041
 30
0.0
 40
3.499983218011195
100
AcDbArc
 50
225.0004942846843
 51
269.9993367240344
  0
LINE
  5
594
330
1A
100
AcDbEntity
  8
SEIHIN
  6
CONTINUOUS
 62
     3
 48
16.0
100
AcDbLine
 10
342.7508375755903
 20
152.3494660820274
 30
0.0
 11
348.0480375755905
 21
152.3494660820274
 31
0.0
  0
ARC
  5
595
330
1A
100
AcDbEntity
  8
SEIHIN
  6
CONTINUOUS
 62
     3
 48
16.0
100
AcDbCircle
 10
338.3868117035178
 20
151.349518219947
 30
0.0
 40
3.499947864343803
100
AcDbArc
 50
44.9979394154425
 51
89.99793941544282
  0
ARC
  5
596
330
1A
100
AcDbEntity
  8
SEIHIN
  6
CONTINUOUS
 62
     3
 48
16.0
100
AcDbCircle
 10
342.7509345138153
 20
153.3494259329153
 30
0.0
 40
0.9999598555865631
100
AcDbArc
 50
224.9984973746217
 51
269.9944456258474
  0
ARC
  5
597
330
1A
100
AcDbEntity
  8
SEIHIN
  6
CONTINUOUS
 62
     3
 48
16.0
100
AcDbCircle
 10
338.3869259993809
 20
151.3494708770504
 30
0.0
 40
0.9999952050440143
100
AcDbArc
 50
44.99933672887019
 51
89.99933672887157
  0
LINE
  5
598
330
1A
100
AcDbEntity
  8
SEIHIN
  6
CONTINUOUS
 62
     3
 48
16.0
100
AcDbLine
 10
342.0437375755903
 20
152.6423660820273
 30
0.0
 11
340.8617375755903
 21
153.8243660820273
 31
0.0
  0
LINE
  5
599
330
1A
100
AcDbEntity
  8
SEIHIN
  6
CONTINUOUS
 62
     3
 48
16.0
100
AcDbLine
 10
353.7542375755904
 20
159.2468660820275
 30
0.0
 11
348.8461375755903
 21
152.7468660820275
 31
0.0
  0
ARC
  5
59A
330
1A
100
AcDbEntity
  8
SEIHIN
  6
CONTINUOUS
 62
     3
 48
16.0
100
AcDbCircle
 10
352.9562289558989
 20
159.849483392327
 30
0.0
 40
0.9999826897374896
100
AcDbArc
 50
322.9416714733793
 51
89.99950611951369
  0
ARC
  5
59B
330
1A
100
AcDbEntity
  8
SEIHIN
  6
CONTINUOUS
 62
     3
 48
16.0
100
AcDbCircle
 10
353.7596615741454
 20
153.4458291256096
 30
0.0
 40
1.00000680173193
100
AcDbArc
 50
142.9413041919753
 51
283.0543051747389
  0
ARC
  5
59C
330
1A
100
AcDbEntity
  8
SEIHIN
  6
CONTINUOUS
 62
     3
 48
16.0
100
AcDbCircle
 10
348.0480028125743
 20
153.3494487717278
 30
0.0
 40
0.999982690304597
100
AcDbArc
 50
270.0019918085895
 51
322.9441571624548
  0
ARC
  5
59D
330
1A
100
AcDbEntity
  8
SEIHIN
  6
CONTINUOUS
 62
     3
 48
16.0
100
AcDbCircle
 10
337.8211328611196
 20
162.9540637343715
 30
0.0
 40
16.00000234765668
100
AcDbArc
 50
89.99998311754719
 51
142.9436590548738
  0
ARC
  5
59E
330
1A
100
AcDbEntity
  8
SEIHIN
  6
CONTINUOUS
 62
     3
 48
16.0
100
AcDbCircle
 10
351.3418461952819
 20
164.3494487717277
 30
0.0
 40
0.9999826897374333
100
AcDbArc
 50
142.9416714733728
 51
269.9995061195071
  0
LINE
  5
59F
330
1A
100
AcDbEntity
  8
SEIHIN
  6
CONTINUOUS
 62
     3
 48
16.0
100
AcDbLine
 10
391.0871375755904
 20
195.4384660820275
 30
0.0
 11
409.6555375755903
 21
149.0142660820274
 31
0.0
  0
LINE
  5
5A0
330
1A
100
AcDbEntity
  8
SEIHIN
  6
CONTINUOUS
 62
     3
 48
16.0
100
AcDbLine
 10
389.9730375755903
 20
192.8388660820274
 30
0.0
 11
407.0558375755904
 21
150.1284660820273
 31
0.0
  0
LINE
  5
5A1
330
1A
100
AcDbEntity
  8
SEIHIN
  6
CONTINUOUS
 62
     3
 48
16.0
100
AcDbLine
 10
394.8011375755904
 20
196.9239660820275
 30
0.0
 11
413.3695375755904
 21
150.4996660820274
 31
0.0
  0
LINE
  5
5A2
330
1A
100
AcDbEntity
  8
CENTER_L
  6
CENTER
 62
     1
 48
5.0
100
AcDbLine
 10
404.5758375755903
 20
190.0633660820274
 30
0.0
 11
386.9351375755903
 21
183.0075660820274
 31
0.0
  0
ARC
  5
5A3
330
1A
100
AcDbEntity
  8
SEIHIN
  6
CONTINUOUS
 62
     3
 48
16.0
100
AcDbCircle
 10
385.8011035676426
 20
148.8494508937893
 30
0.0
 40
3.000034007986279
100
AcDbArc
 50
228.1321783307235
 51
0.0002900706921178
  0
LINE
  5
5A4
330
1A
100
AcDbEntity
  8
SEIHIN
  6
CONTINUOUS
 62
     3
 48
16.0
100
AcDbLine
 10
384.8011375755903
 20
173.3494660820273
 30
0.0
 11
384.8011375755903
 21
153.6593660820274
 31
0.0
  0
LINE
  5
5A5
330
1A
100
AcDbEntity
  8
NOKITOI
  6
PHANTOM
 62
     8
 48
5.0
100
AcDbLine
 10
263.7683380372801
 20
170.7425660820273
 30
0.0
 11
264.1584380372802
 21
158.2581660820272
 31
0.0
  0
ARC
  5
5A6
330
1A
100
AcDbEntity
  8
NOKITOI
  6
PHANTOM
 62
     8
 48
5.0
100
AcDbCircle
 10
269.2188689642164
 20
162.8051018266911
 30
0.0
 40
3.99998565374706
100
AcDbArc
 50
96.47577619531674
 51
181.7913033408985
  0
LINE
  5
5A7
330
1A
100
AcDbEntity
  8
SEIHIN
  6
CONTINUOUS
 62
     3
 48
16.0
100
AcDbLine
 10
367.6984375755905
 20
160.8765660820273
 30
0.0
 11
369.2565375755904
 21
155.3766660820274
 31
0.0
  0
LINE
  5
5A8
330
1A
100
AcDbEntity
  8
SEIHIN
  6
CONTINUOUS
 62
     3
 48
16.0
100
AcDbLine
 10
366.4476375755903
 20
160.5222660820275
 30
0.0
 11
367.0492375755904
 21
158.3987660820273
 31
0.0
  0
ARC
  5
5A9
330
1A
100
AcDbEntity
  8
SEIHIN
  6
CONTINUOUS
 62
     3
 48
16.0
100
AcDbCircle
 10
366.8568203065056
 20
158.3442421023554
 30
0.0
 40
0.1999931743868602
100
AcDbArc
 50
272.6702586056321
 51
15.82077981413162
  0
ARC
  5
5AA
330
1A
100
AcDbEntity
  8
SEIHIN
  6
CONTINUOUS
 62
     3
 48
16.0
100
AcDbCircle
 10
367.0730375755904
 20
160.6994660820274
 30
0.0
 40
0.6500192304848161
100
AcDbArc
 50
15.81947663554556
 51
195.8194766355455
  0
ARC
  5
5AB
330
1A
100
AcDbEntity
  8
SEIHIN
  6
CONTINUOUS
 62
     3
 48
16.0
100
AcDbCircle
 10
368.6311324454111
 20
155.1994570299335
 30
0.0
 40
0.6500266340686779
100
AcDbArc
 50
285.0972849914215
 51
15.820121030194
  0
ARC
  5
5AC
330
1A
100
AcDbEntity
  8
SEIHIN
  6
CONTINUOUS
 62
     3
 48
16.0
100
AcDbCircle
 10
364.9635359630852
 20
155.2217627825813
 30
0.0
 40
0.1999497686851453
100
AcDbArc
 50
283.0360876243436
 51
24.87387196939794
  0
ARC
  5
5AD
330
1A
100
AcDbEntity
  8
SEIHIN
  6
CONTINUOUS
 62
     3
 48
16.0
100
AcDbCircle
 10
366.9596271393249
 20
156.1466488703386
 30
0.0
 40
2.000003477458706
100
AcDbArc
 50
92.67925038682582
 51
204.8592541446025
  0
LINE
  5
5AE
330
1A
100
AcDbEntity
  8
SEIHIN
  6
CONTINUOUS
 62
     3
 48
16.0
100
AcDbLine
 10
383.7988375755904
 20
146.6153660820273
 30
0.0
 11
375.3000375755904
 21
154.2323660820275
 31
0.0
  0
LINE
  5
5AF
330
1A
100
AcDbEntity
  8
NOKITOI
  6
PHANTOM
 62
     8
 48
5.0
100
AcDbLine
 10
273.3373380372803
 20
158.0050660820272
 30
0.0
 11
267.3054380372801
 21
158.0050660820272
 31
0.0
  0
LINE
  5
5B0
330
1A
100
AcDbEntity
  8
SEIHIN
  6
CONTINUOUS
 62
     3
 48
16.0
100
AcDbLine
 10
376.8333375755905
 20
156.7518660820275
 30
0.0
 11
383.4463375755905
 21
152.7243660820274
 31
0.0
  0
LINE
  5
5B1
330
1A
100
AcDbEntity
  8
NOKITOI
  6
PHANTOM
 62
     8
 48
5.0
100
AcDbLine
 10
265.6577380372804
 20
156.8050660820273
 30
0.0
 11
271.7988380372802
 21
156.8050660820273
 31
0.0
  0
ARC
  5
5B2
330
1A
100
AcDbEntity
  8
SEIHIN
  6
CONTINUOUS
 62
     3
 48
16.0
100
AcDbCircle
 10
376.3011242659727
 20
155.3494442116709
 30
0.0
 40
1.500012703075688
100
AcDbArc
 50
69.21845302878051
 51
228.1344061911013
  0
ARC
  5
5B3
330
1A
100
AcDbEntity
  8
NOKITOI
  6
PHANTOM
 62
     8
 48
5.0
100
AcDbCircle
 10
271.7988173874391
 20
155.8050847698765
 30
0.0
 40
0.9999813123640345
100
AcDbArc
 50
5.709409966648967
 51
89.99881682915043
  0
ARC
  5
5B4
330
1A
100
AcDbEntity
  8
NOKITOI
  6
PHANTOM
 62
     8
 48
5.0
100
AcDbCircle
 10
273.3373249662755
 20
157.5050779123072
 30
0.0
 40
0.499988169890889
100
AcDbArc
 50
5.703393862284335
 51
89.99850213773372
  0
LINE
  5
5B5
330
1A
100
AcDbEntity
  8
NOKITOI
  6
PHANTOM
 62
     8
 48
5.0
100
AcDbLine
 10
265.3063380372801
 20
159.9424660820274
 30
0.0
 11
265.2208380372802
 21
162.6800660820272
 31
0.0
  0
ARC
  5
5B6
330
1A
100
AcDbEntity
  8
NOKITOI
  6
PHANTOM
 62
     8
 48
5.0
100
AcDbCircle
 10
265.6577208241021
 20
158.3050827651751
 30
0.0
 40
1.500016683246579
100
AcDbArc
 50
181.7923576755889
 51
270.0006574876651
  0
ARC
  5
5B7
330
1A
100
AcDbEntity
  8
SEIHIN
  6
CONTINUOUS
 62
     3
 48
16.0
100
AcDbCircle
 10
383.8011105663199
 20
153.6593474426259
 30
0.0
 40
1.000027009444113
100
AcDbArc
 50
249.2210550489032
 51
0.001067930189349
  0
ARC
  5
5B8
330
1A
100
AcDbEntity
  8
NOKITOI
  6
PHANTOM
 62
     8
 48
5.0
100
AcDbCircle
 10
267.3054000494559
 20
160.0050029025994
 30
0.0
 40
2.000036820932882
100
AcDbArc
 50
181.7889408725803
 51
270.001088250966
  0
ARC
  5
5B9
330
1A
100
AcDbEntity
  8
SEIHIN
  6
CONTINUOUS
 62
     3
 48
16.0
100
AcDbCircle
 10
379.7604312736821
 20
156.3494629439029
 30
0.0
 40
20.00000313812555
100
AcDbArc
 50
89.99998194636523
 51
142.9432997870778
  0
ARC
  5
5BA
330
1A
100
AcDbEntity
  8
SEIHIN
  6
CONTINUOUS
 62
     3
 48
16.0
100
AcDbCircle
 10
379.7604380492967
 20
156.3494663179162
 30
0.0
 40
22.49999976411124
100
AcDbArc
 50
90.00000120628298
 51
142.9433444493903
  0
ARC
  5
5BB
330
1A
100
AcDbEntity
  8
SEIHIN
  6
CONTINUOUS
 62
     3
 48
16.0
100
AcDbCircle
 10
356.3541829420149
 20
164.3494886740171
 30
0.0
 40
1.000022593018716
100
AcDbArc
 50
269.9974007540635
 51
322.9430187151399
  0
LINE
  5
5BC
330
1A
100
AcDbEntity
  8
SEIHIN
  6
CONTINUOUS
 62
     3
 48
16.0
100
AcDbLine
 10
361.8045375755903
 20
169.9080660820275
 30
0.0
 11
357.1522375755904
 21
163.7468660820274
 31
0.0
  0
ARC
  5
5BD
330
1A
100
AcDbEntity
  8
SEIHIN
  6
CONTINUOUS
 62
     3
 48
16.0
100
AcDbCircle
 10
377.7687175904318
 20
160.3496783025611
 30
0.0
 40
26.99995885889399
100
AcDbArc
 50
136.444851261897
 51
142.9441616299265
  0
ARC
  5
5BE
330
1A
100
AcDbEntity
  8
SEIHIN
  6
CONTINUOUS
 62
     3
 48
16.0
100
AcDbCircle
 10
377.768684961791
 20
160.3496228534016
 30
0.0
 40
24.49997298111185
100
AcDbArc
 50
130.5916740106076
 51
142.9440749348519
  0
ARC
  5
5BF
330
1A
100
AcDbEntity
  8
SEIHIN
  6
CONTINUOUS
 62
     3
 48
16.0
100
AcDbCircle
 10
381.8011375755903
 20
173.3494660820274
 30
0.0
 40
3.000000000000042
100
AcDbArc
 50
359.9999999999992
 51
89.9999999999992
  0
LINE
  5
5C0
330
1A
100
AcDbEntity
  8
NOKITOI
  6
PHANTOM
 62
     8
 48
5.0
100
AcDbLine
 10
267.7400380372803
 20
169.1050660820273
 30
0.0
 11
270.6766380372802
 21
169.1050660820273
 31
0.0
  0
ARC
  5
5C1
330
1A
100
AcDbEntity
  8
NOKITOI
  6
PHANTOM
 62
     8
 48
5.0
100
AcDbCircle
 10
269.2188559036312
 20
162.8050748104072
 30
0.0
 40
5.199991271650611
100
AcDbArc
 50
90.00019685927453
 51
142.074671395269
  0
LINE
  5
5C2
330
1A
100
AcDbEntity
  8
NOKITOI
  6
PHANTOM
 62
     8
 48
5.0
100
AcDbLine
 10
265.7673380372802
 20
172.8049660820272
 30
0.0
 11
269.0939380372801
 21
172.8050660820272
 31
0.0
  0
LINE
  5
5C3
330
1A
100
AcDbEntity
  8
NOKITOI
  6
PHANTOM
 62
     8
 48
5.0
100
AcDbLine
 10
272.0452380372802
 20
170.3050660820273
 30
0.0
 11
269.8137380372802
 21
170.3050660820273
 31
0.0
  0
ARC
  5
5C4
330
1A
100
AcDbEntity
  8
NOKITOI
  6
PHANTOM
 62
     8
 48
5.0
100
AcDbCircle
 10
272.0452343277851
 20
169.8050699920579
 30
0.0
 40
0.4999960899831856
100
AcDbArc
 50
356.9843782585345
 51
89.99957491984867
  0
ARC
  5
5C5
330
1A
100
AcDbEntity
  8
NOKITOI
  6
PHANTOM
 62
     8
 48
5.0
100
AcDbCircle
 10
268.8241086647802
 20
166.2826963145222
 30
0.0
 40
0.4999578477751074
100
AcDbArc
 50
351.8669438287075
 51
96.47390928779223
  0
LINE
  5
5C6
330
1A
100
AcDbEntity
  8
NOKITOI
  6
PHANTOM
 62
     8
 48
5.0
100
AcDbLine
 10
271.0653380372801
 20
164.5050660820273
 30
0.0
 11
271.2464380372803
 21
167.9464660820272
 31
0.0
  0
LINE
  5
5C7
330
1A
100
AcDbEntity
  8
NOKITOI
  6
PHANTOM
 62
     8
 48
5.0
100
AcDbLine
 10
270.2874380372803
 20
164.5050660820273
 30
0.0
 11
270.6914380372803
 21
167.3334660820272
 31
0.0
  0
LINE
  5
5C8
330
1A
100
AcDbEntity
  8
NOKITOI
  6
PHANTOM
 62
     8
 48
5.0
100
AcDbLine
 10
271.0653380372801
 20
164.5050660820273
 30
0.0
 11
270.2874380372803
 21
164.5050660820273
 31
0.0
  0
ARC
  5
5C9
330
1A
100
AcDbEntity
  8
NOKITOI
  6
PHANTOM
 62
     8
 48
5.0
100
AcDbCircle
 10
269.093945291836
 20
172.3050572321839
 30
0.0
 40
0.500008849895925
100
AcDbArc
 50
348.6864043304882
 51
90.00083129614507
  0
LINE
  5
5CA
330
1A
100
AcDbEntity
  8
NOKITOI
  6
PHANTOM
 62
     8
 48
5.0
100
AcDbLine
 10
269.3234380372803
 20
170.9030660820274
 30
0.0
 11
269.5842380372801
 21
172.2070660820272
 31
0.0
  0
ARC
  5
5CB
330
1A
100
AcDbEntity
  8
NOKITOI
  6
PHANTOM
 62
     8
 48
5.0
100
AcDbCircle
 10
269.8137388202884
 20
170.8050651270255
 30
0.0
 40
0.4999990449987399
100
AcDbArc
 50
168.6967198015449
 51
269.9999102736945
  0
LINE
  5
5CC
330
1A
100
AcDbEntity
  8
NOKITOI
  6
PHANTOM
 62
     8
 48
5.0
100
AcDbLine
 10
269.6808380372802
 20
168.0050660820272
 30
0.0
 11
269.2188380372801
 21
168.0050660820272
 31
0.0
  0
LINE
  5
5CD
330
1A
100
AcDbEntity
  8
NOKITOI
  6
PHANTOM
 62
     8
 48
5.0
100
AcDbLine
 10
270.6914380372803
 20
167.3334660820272
 30
0.0
 11
271.2464380372803
 21
167.9464660820272
 31
0.0
  0
LINE
  5
5CE
330
1A
100
AcDbEntity
  8
NOKITOI
  6
PHANTOM
 62
     8
 48
5.0
100
AcDbLine
 10
269.6808380372802
 20
168.0050660820272
 30
0.0
 11
270.6766380372802
 21
169.1050660820273
 31
0.0
  0
ARC
  5
5CF
330
1A
100
AcDbEntity
  8
NOKITOI
  6
PHANTOM
 62
     8
 48
5.0
100
AcDbCircle
 10
271.7294339158732
 20
163.8050621719968
 30
0.0
 40
0.4999960899864752
100
AcDbArc
 50
270.0004722821405
 51
356.9852756208263
  0
ARC
  5
5D0
330
1A
100
AcDbEntity
  8
NOKITOI
  6
PHANTOM
 62
     8
 48
5.0
100
AcDbCircle
 10
269.480327850844
 20
163.8050778267514
 30
0.0
 40
0.5000117448278309
100
AcDbArc
 50
171.8726853912841
 51
270.0011672521981
  0
LINE
  5
5D1
330
1A
100
AcDbEntity
  8
NOKITOI
  6
PHANTOM
 62
     8
 48
5.0
100
AcDbLine
 10
271.7294380372802
 20
163.3050660820273
 30
0.0
 11
269.4803380372803
 21
163.3050660820273
 31
0.0
  0
LINE
  5
5D2
330
1A
100
AcDbEntity
  8
NOKITOI
  6
PHANTOM
 62
     8
 48
5.0
100
AcDbLine
 10
272.2287380372803
 20
163.7787660820273
 30
0.0
 11
272.5445380372801
 21
169.7787660820273
 31
0.0
  0
LINE
  5
5D3
330
1A
100
AcDbEntity
  8
NOKITOI
  6
PHANTOM
 62
     8
 48
5.0
100
AcDbLine
 10
268.9853380372803
 20
163.8757660820272
 30
0.0
 11
269.3191380372803
 21
166.2119660820273
 31
0.0
  0
LINE
  5
5D4
330
1A
100
AcDbEntity
  8
NOKITOI
  6
PHANTOM
 62
     8
 48
5.0
100
AcDbLine
 10
264.9677380372803
 20
170.7800660820272
 30
0.0
 11
265.1170380372801
 21
166.0010660820273
 31
0.0
  0
ARC
  5
5D5
330
1A
100
AcDbEntity
  8
NOKITOI
  6
PHANTOM
 62
     8
 48
5.0
100
AcDbCircle
 10
265.7673492742747
 20
170.8050776758444
 30
0.0
 40
1.999988406214315
100
AcDbArc
 50
90.0003219180439
 51
181.791127346407
  0
ARC
  5
5D6
330
1A
100
AcDbEntity
  8
NOKITOI
  6
PHANTOM
 62
     8
 48
5.0
100
AcDbCircle
 10
265.7672940709271
 20
170.8050207195542
 30
0.0
 40
0.7999453636812564
100
AcDbArc
 50
89.99685092684627
 51
181.7876563552118
  0
LINE
  5
5D7
330
1A
100
AcDbEntity
  8
NOKITOI
  6
PHANTOM
 62
     8
 48
5.0
100
AcDbLine
 10
268.2400380372803
 20
171.6050660820274
 30
0.0
 11
267.7400380372803
 21
169.1050660820273
 31
0.0
  0
LINE
  5
5D8
330
1A
100
AcDbEntity
  8
NOKITOI
  6
PHANTOM
 62
     8
 48
5.0
100
AcDbLine
 10
265.7673380372802
 20
171.6049660820272
 30
0.0
 11
268.2400380372803
 21
171.6050660820274
 31
0.0
  0
ARC
  5
5D9
330
1A
100
AcDbEntity
  8
SEIHIN
  6
CONTINUOUS
 62
     3
 48
16.0
100
AcDbCircle
 10
384.8012688068303
 20
179.8494969035777
 30
0.0
 40
1.000030830160825
100
AcDbArc
 50
269.9924812355906
 51
296.426860751418
  0
LINE
  5
5DA
330
1A
100
AcDbEntity
  8
SEIHIN
  6
CONTINUOUS
 62
     3
 48
16.0
100
AcDbLine
 10
384.8011375755903
 20
178.8494660820274
 30
0.0
 11
379.7604375755905
 21
178.8494660820274
 31
0.0
  0
LINE
  5
5DB
330
1A
100
AcDbEntity
  8
SEIHIN
  6
CONTINUOUS
 62
     3
 48
16.0
100
AcDbLine
 10
381.8011375755903
 20
176.3494660820274
 30
0.0
 11
379.7604375755905
 21
176.3494660820274
 31
0.0
  0
LINE
  5
5DC
330
1A
100
AcDbEntity
  8
SEIHIN
  6
CONTINUOUS
 62
     3
 48
16.0
100
AcDbLine
 10
388.8011375755904
 20
177.3494660820274
 30
0.0
 11
388.8011375755904
 21
148.8494660820274
 31
0.0
  0
LINE
  5
5DD
330
1A
100
AcDbEntity
  8
CENTER_L
  6
CENTER
 62
     1
 48
5.0
100
AcDbLine
 10
397.8090375755903
 20
155.0461660820274
 30
0.0
 11
415.9351375755902
 21
162.2960660820273
 31
0.0
  0
LINE
  5
5DE
330
1A
100
AcDbEntity
  8
SEIHIN
  6
CONTINUOUS
 62
     3
 48
16.0
100
AcDbLine
 10
409.6555375755903
 20
149.0142660820274
 30
0.0
 11
413.3695375755904
 21
150.4996660820274
 31
0.0
  0
LINE
  5
5DF
330
1A
100
AcDbEntity
  8
SEIHIN
  6
CONTINUOUS
 62
     3
 48
16.0
100
AcDbLine
 10
407.0558375755904
 20
150.1284660820273
 30
0.0
 11
409.6555375755903
 21
149.0142660820274
 31
0.0
  0
LINE
  5
5E1
330
1A
100
AcDbEntity
  8
CENTER_L
  6
CENTER
 62
     1
 48
5.0
100
AcDbLine
 10
406.4690375755905
 20
185.4355660820274
 30
0.0
 11
388.7473375755904
 21
178.3474660820273
 31
0.0
  0
ARC
  5
5E2
330
1A
100
AcDbEntity
  8
SEIHIN
  6
CONTINUOUS
 62
     3
 48
16.0
100
AcDbCircle
 10
392.1412342796294
 20
173.9539683135284
 30
0.0
 40
4.999997768500088
100
AcDbArc
 50
21.80073334328504
 51
89.99996223105259
  0
ARC
  5
5E3
330
1A
100
AcDbEntity
  8
SEIHIN
  6
CONTINUOUS
 62
     3
 48
16.0
100
AcDbCircle
 10
378.8011571653788
 20
177.3492234792457
 30
0.0
 40
9.999980413154446
100
AcDbArc
 50
0.001390014271732
 51
9.234443291937003
  0
LINE
  5
5E4
330
1A
100
AcDbEntity
  8
SEIHIN
  6
CONTINUOUS
 62
     3
 48
16.0
100
AcDbLine
 10
391.0872375755904
 20
195.4385660820273
 30
0.0
 11
394.8011375755904
 21
196.9239660820275
 31
0.0
  0
LINE
  5
5E5
330
1A
100
AcDbEntity
  8
SEIHIN
  6
CONTINUOUS
 62
     3
 48
16.0
100
AcDbLine
 10
391.0872375755904
 20
195.4385660820273
 30
0.0
 11
389.9730375755903
 21
192.8388660820274
 31
0.0
  0
LINE
  5
5E6
330
1A
100
AcDbEntity
  8
SEIHIN
  6
CONTINUOUS
 62
     3
 48
16.0
100
AcDbLine
 10
388.4582375755903
 20
196.9239660820275
 30
0.0
 11
394.8011375755904
 21
196.9239660820275
 31
0.0
  0
LINE
  5
5E7
330
1A
100
AcDbEntity
  8
SEIHIN
  6
PHANTOM
 62
     6
 48
5.0
100
AcDbLine
 10
429.8011375755903
 20
196.9239660820275
 30
0.0
 11
448.3695375755903
 21
150.4996660820274
 31
0.0
  0
LINE
  5
5E8
330
1A
100
AcDbEntity
  8
SEIHIN
  6
PHANTOM
 62
     6
 48
5.0
100
AcDbLine
 10
424.9730375755903
 20
192.8388660820274
 30
0.0
 11
442.0558375755905
 21
150.1284660820273
 31
0.0
  0
LINE
  5
5E9
330
1A
100
AcDbEntity
  8
SEIHIN
  6
PHANTOM
 62
     6
 48
5.0
100
AcDbLine
 10
426.0871375755903
 20
195.4384660820275
 30
0.0
 11
444.6555375755903
 21
149.0142660820274
 31
0.0
  0
LINE
  5
5EA
330
1A
100
AcDbEntity
  8
SEIHIN
  6
PHANTOM
 62
     6
 48
5.0
100
AcDbLine
 10
442.0558375755905
 20
150.1284660820273
 30
0.0
 11
444.6555375755903
 21
149.0142660820274
 31
0.0
  0
LINE
  5
5EB
330
1A
100
AcDbEntity
  8
SEIHIN
  6
PHANTOM
 62
     6
 48
5.0
100
AcDbLine
 10
444.6555375755903
 20
149.0142660820274
 30
0.0
 11
448.3695375755903
 21
150.4996660820274
 31
0.0
  0
ARC
  5
5EC
330
1A
100
AcDbEntity
  8
SEIHIN
  6
PHANTOM
 62
     6
 48
5.0
100
AcDbCircle
 10
427.1412342796295
 20
173.9539683135284
 30
0.0
 40
4.999997768500088
100
AcDbArc
 50
21.80073334328504
 51
89.99996223105259
  0
LINE
  5
5ED
330
1A
100
AcDbEntity
  8
SEIHIN
  6
PHANTOM
 62
     6
 48
5.0
100
AcDbLine
 10
422.8853375755902
 20
178.9539660820274
 30
0.0
 11
427.1412375755905
 21
178.9539660820274
 31
0.0
  0
LINE
  5
5EE
330
1A
100
AcDbEntity
  8
SEIHIN
  6
PHANTOM
 62
     6
 48
5.0
100
AcDbLine
 10
423.4582375755903
 20
196.9239660820275
 30
0.0
 11
429.8011375755903
 21
196.9239660820275
 31
0.0
  0
LINE
  5
5EF
330
1A
100
AcDbEntity
  8
SEIHIN
  6
PHANTOM
 62
     6
 48
5.0
100
AcDbLine
 10
426.0872375755905
 20
195.4385660820273
 30
0.0
 11
429.8011375755903
 21
196.9239660820275
 31
0.0
  0
LINE
  5
5F0
330
1A
100
AcDbEntity
  8
SEIHIN
  6
PHANTOM
 62
     6
 48
5.0
100
AcDbLine
 10
426.0872375755905
 20
195.4385660820273
 30
0.0
 11
424.9730375755903
 21
192.8388660820274
 31
0.0
  0
DIMENSION
  5
609
330
1A
100
AcDbEntity
  8
SUNPOU
100
AcDbDimension
  2
*D3
 10
427.1685435725941
 20
285.9020425556327
 30
0.0
 11
418.9987752660739
 21
319.7916523359519
 31
0.0
 70
    33
  3
STANDARD
100
AcDbAlignedDimension
 13
394.8011375755904
 23
326.8071325092827
 33
0.0
 14
413.3695375755904
 24
280.3828325092827
 34
0.0
1001
ACAD
1000
DSTYLE
1002
{
1070
   140
1040
6.0
1070
    74
1070
     0
1070
   172
1070
     1
1070
    73
1070
     0
1070
   272
1070
     2
1070
    77
1070
     3
1070
   173
1070
     1
1070
   280
1070
     1
1070
   147
1040
2.0
1070
    42
1040
6.0
1070
    44
1040
3.0
1070
    43
1040
14.0
1070
   271
1070
     0
1070
   178
1070
     4
1070
   177
1070
     4
1070
   176
1070
     4
1070
   141
1040
150.0
1070
     7
1000
_OPEN
1070
     6
1000
_OPEN
1070
    41
1040
7.0
1002
}
  0
DIMENSION
  5
618
330
1A
100
AcDbEntity
  8
SUNPOU
100
AcDbDimension
  2
*D4
 10
597.8335381763611
 20
446.6003400906758
 30
0.0
 11
566.7294112053158
 21
439.5446887061804
 31
0.0
 12
58.494608468249
 22
-3.846101647231762
 32
0.0
 70
    32
  3
STANDARD
100
AcDbAlignedDimension
 13
556.3574460438394
 23
380.6549349625889
 33
0.0
 14
614.8520543186255
 24
404.0510142740637
 34
0.0
 50
21.79999999999983
100
AcDbRotatedDimension
1001
ACAD
1000
DSTYLE
1002
{
1070
   140
1040
6.0
1070
    74
1070
     0
1070
   172
1070
     1
1070
    73
1070
     0
1070
   272
1070
     2
1070
    77
1070
     3
1070
   173
1070
     1
1070
   147
1040
2.0
1070
    42
1040
6.0
1070
    44
1040
3.0
1070
    43
1040
14.0
1070
   271
1070
     0
1070
   178
1070
     4
1070
   177
1070
     4
1070
   176
1070
     4
1070
   141
1040
150.0
1070
     7
1000
_OPEN
1070
     6
1000
_OPEN
1070
    41
1040
7.0
1002
}
  0
DIMENSION
  5
625
330
1A
100
AcDbEntity
  8
SUNPOU
100
AcDbDimension
  2
*D5
 10
596.0502672361013
 20
429.5168099466411
 30
0.0
 11
572.3739978372616
 21
425.4320896302395
 31
0.0
 12
58.494608468249
 22
-3.846101647231762
 32
0.0
 70
    32
  3
STANDARD
100
AcDbAlignedDimension
 13
562.3796460438393
 23
387.1401349625888
 33
0.0
 14
606.0185460438394
 24
404.5943349625888
 34
0.0
 50
21.79999999999983
100
AcDbRotatedDimension
1001
ACAD
1000
DSTYLE
1002
{
1070
   140
1040
6.0
1070
    74
1070
     0
1070
   172
1070
     1
1070
    73
1070
     0
1070
   272
1070
     2
1070
    77
1070
     3
1070
   173
1070
     1
1070
   147
1040
2.0
1070
    42
1040
6.0
1070
    44
1040
3.0
1070
    43
1040
14.0
1070
   271
1070
     0
1070
   178
1070
     4
1070
   177
1070
     4
1070
   176
1070
     4
1070
   141
1040
150.0
1070
     7
1000
_OPEN
1070
     6
1000
_OPEN
1070
    41
1040
7.0
1002
}
  0
DIMENSION
  5
634
330
1A
100
AcDbEntity
  8
SUNPOU
100
AcDbDimension
  2
*D6
 10
495.5428914832262
 20
367.1010275172721
 30
0.0
 11
492.9436478244013
 21
387.0633403192011
 31
0.0
 12
0.0
 22
-27.24230410053792
 32
0.0
 70
    32
  3
STANDARD
100
AcDbAlignedDimension
 13
560.0910460438395
 23
382.1483349625889
 33
0.0
 14
561.9286460438394
 24
393.6534349625889
 34
0.0
 50
111.7999999999998
100
AcDbRotatedDimension
1001
ACAD
1000
DSTYLE
1002
{
1070
   140
1040
6.0
1070
    74
1070
     0
1070
   172
1070
     1
1070
    73
1070
     0
1070
   272
1070
     2
1070
    77
1070
     3
1070
   173
1070
     1
1070
   147
1040
2.0
1070
    42
1040
6.0
1070
    44
1040
3.0
1070
    43
1040
14.0
1070
   271
1070
     0
1070
   178
1070
     4
1070
   177
1070
     4
1070
   176
1070
     4
1070
   141
1040
150.0
1070
     7
1000
_OPEN
1070
     6
1000
_OPEN
1070
    41
1040
7.0
1002
}
  0
DIMENSION
  5
643
330
1A
100
AcDbEntity
  8
SUNPOU
100
AcDbDimension
  2
*D7
 10
485.0363894165496
 20
346.7435553184697
 30
0.0
 11
486.8935881055805
 21
355.5639673896437
 31
0.0
 12
0.0
 22
-27.24230410053792
 32
0.0
 70
    32
  3
STANDARD
100
AcDbAlignedDimension
 13
561.9286460438394
 23
393.6534349625889
 33
0.0
 14
560.1349460438394
 24
376.7808349625887
 34
0.0
 50
111.7999999999998
100
AcDbRotatedDimension
1001
ACAD
1000
DSTYLE
1002
{
1070
   140
1040
6.0
1070
    74
1070
     0
1070
   172
1070
     1
1070
    73
1070
     0
1070
   272
1070
     2
1070
    77
1070
     3
1070
   173
1070
     1
1070
   147
1040
2.0
1070
    42
1040
6.0
1070
    44
1040
3.0
1070
    43
1040
14.0
1070
   271
1070
     0
1070
   178
1070
     4
1070
   177
1070
     4
1070
   176
1070
     4
1070
   141
1040
150.0
1070
     7
1000
_OPEN
1070
     6
1000
_OPEN
1070
    41
1040
7.0
1002
}
  0
DIMENSION
  5
652
330
1A
100
AcDbEntity
  8
SUNPOU
100
AcDbDimension
  2
*D8
 10
514.0572785229851
 20
320.6552038687782
 30
0.0
 11
525.9413804506192
 21
304.4065694223515
 31
0.0
 12
0.0
 22
-27.24230410053792
 32
0.0
 70
    32
  3
STANDARD
100
AcDbAlignedDimension
 13
570.8610460438394
 23
354.145334962589
 33
0.0
 14
580.4968460438394
 24
347.2291349625887
 34
0.0
 50
111.7999999999998
100
AcDbRotatedDimension
1001
ACAD
1000
DSTYLE
1002
{
1070
   140
1040
6.0
1070
    74
1070
     0
1070
   172
1070
     1
1070
    73
1070
     0
1070
   272
1070
     2
1070
    77
1070
     3
1070
   173
1070
     1
1070
   147
1040
2.0
1070
    42
1040
6.0
1070
    44
1040
3.0
1070
    43
1040
14.0
1070
   271
1070
     0
1070
   178
1070
     4
1070
   177
1070
     4
1070
   176
1070
     4
1070
   141
1040
150.0
1070
     7
1000
_OPEN
1070
     6
1000
_OPEN
1070
    41
1040
7.0
1002
}
  0
DIMENSION
  5
686
330
1A
100
AcDbEntity
  8
SUNPOU
100
AcDbDimension
  2
*D9
 10
483.7148446293572
 20
308.5190961607519
 30
0.0
 11
479.0730896070858
 21
333.5880516782342
 31
0.0
 12
0.0
 22
-27.24230410053792
 32
0.0
 70
    32
  3
STANDARD
100
AcDbAlignedDimension
 13
561.9286460438394
 23
393.6534349625889
 33
0.0
 14
580.4968460438394
 24
347.2291349625887
 34
0.0
 50
111.7999999999998
100
AcDbRotatedDimension
1001
ACAD
1000
DSTYLE
1002
{
1070
   140
1040
6.0
1070
    74
1070
     0
1070
   172
1070
     1
1070
    73
1070
     0
1070
   272
1070
     2
1070
    77
1070
     3
1070
   173
1070
     1
1070
   147
1040
2.0
1070
    42
1040
6.0
1070
    44
1040
3.0
1070
    43
1040
14.0
1070
   271
1070
     0
1070
   178
1070
     4
1070
   177
1070
     4
1070
   176
1070
     4
1070
   141
1040
150.0
1070
     7
1000
_OPEN
1070
     6
1000
_OPEN
1070
    41
1040
7.0
1002
}
  0
LEADER
  5
701
330
1A
100
AcDbEntity
  8
SUNPOU
 62
     4
100
AcDbLeader
  3
STANDARD
 73
     0
 40
6.0
 41
31.19999999999999
 76
     3
 10
562.0026055827698
 20
384.7359594996203
 30
0.0
 10
535.7110218376228
 20
404.1423726083849
 30
0.0
 10
533.2922372534389
 20
404.1423726083849
 30
0.0
1001
ACAD
1000
DSTYLE
1002
{
1070
     6
1000
OPEN
1070
    41
1040
7.0
1070
    42
1040
6.0
1070
    43
1040
14.0
1070
    44
1040
3.0
1070
    73
1070
     0
1070
    74
1070
     0
1070
    77
1070
     3
1070
   140
1040
6.0
1070
   141
1040
150.0
1070
   147
1040
2.0
1070
   172
1070
     1
1070
   173
1070
     1
1070
   176
1070
     4
1070
   177
1070
     4
1070
   178
1070
     4
1070
   271
1070
     0
1070
   272
1070
     2
1070
   341
1005
6D
1070
   343
1005
6D
1070
   344
1005
6D
1002
}
  0
MTEXT
  5
702
330
1A
100
AcDbEntity
  8
SUNPOU
 62
     4
100
AcDbMText
 10
531.292237253439
 20
406.1423726083849
 30
0.0
 40
6.0
 41
0.0
 71
     9
 72
     5
  1
4-φ4.2
1001
ACAD
1000
MTEXTBEGIN
1070
    73
1070
     1
1070
    44
1040
1.0
1070
    74
1070
     0
1000
MTEXTEND
1000
MTEXTBEGIN
1070
    73
1070
     1
1070
    44
1040
1.0
1070
    74
1070
     0
1000
MTEXTEND
  0
DIMENSION
  5
745
330
1A
100
AcDbEntity
  8
SUNPOU
100
AcDbDimension
  2
*D10
 10
438.8447421293017
 20
448.5749216384105
 30
0.0
 11
433.8447421293017
 21
461.0749716384105
 31
0.0
 12
0.0
 22
0.0930850285899396
 32
0.0
 70
    32
  3
STANDARD
100
AcDbAlignedDimension
 13
388.0871375755903
 23
473.5750216384105
 33
0.0
 14
388.0871375755903
 24
448.5749216384105
 34
0.0
 50
90.0
100
AcDbRotatedDimension
1001
ACAD
1000
DSTYLE
1002
{
1070
   140
1040
6.0
1070
    74
1070
     0
1070
   172
1070
     1
1070
    73
1070
     0
1070
   272
1070
     2
1070
    77
1070
     3
1070
   173
1070
     1
1070
   147
1040
2.0
1070
    42
1040
6.0
1070
    44
1040
3.0
1070
    43
1040
14.0
1070
   271
1070
     0
1070
   178
1070
     4
1070
   177
1070
     4
1070
   176
1070
     4
1070
   141
1040
150.0
1070
     7
1000
_OPEN
1070
     6
1000
_OPEN
1070
    41
1040
7.0
1002
}
  0
DIMENSION
  5
754
330
1A
100
AcDbEntity
  8
SUNPOU
100
AcDbDimension
  2
*D11
 10
455.1077868330294
 20
429.5749216384105
 30
0.0
 11
450.1077868330294
 21
461.0749716384105
 31
0.0
 12
0.0
 22
0.0930850285899396
 32
0.0
 70
    32
  3
STANDARD
100
AcDbAlignedDimension
 13
409.6511375755903
 23
492.5750216384106
 33
0.0
 14
409.6511375755903
 24
429.5749216384105
 34
0.0
 50
90.0
100
AcDbRotatedDimension
1001
ACAD
1000
DSTYLE
1002
{
1070
   140
1040
6.0
1070
    74
1070
     0
1070
   172
1070
     1
1070
    73
1070
     0
1070
   272
1070
     2
1070
    77
1070
     3
1070
   173
1070
     1
1070
   147
1040
2.0
1070
    42
1040
6.0
1070
    44
1040
3.0
1070
    43
1040
14.0
1070
   271
1070
     0
1070
   178
1070
     4
1070
   177
1070
     4
1070
   176
1070
     4
1070
   141
1040
150.0
1070
     7
1000
_OPEN
1070
     6
1000
_OPEN
1070
    41
1040
7.0
1002
}
  0
DIMENSION
  5
763
330
1A
100
AcDbEntity
  8
SUNPOU
100
AcDbDimension
  2
*D12
 10
394.8011375755904
 20
349.8484369214668
 30
0.0
 11
389.2201875755905
 21
354.8484369214668
 31
0.0
 12
0.0
 22
-27.24230410053792
 32
0.0
 70
    32
  3
STANDARD
100
AcDbAlignedDimension
 13
383.6392375755905
 23
300.6257325092825
 33
0.0
 14
394.8011375755904
 24
326.8071325092827
 34
0.0
100
AcDbRotatedDimension
1001
ACAD
1000
DSTYLE
1002
{
1070
   140
1040
6.0
1070
    74
1070
     0
1070
   172
1070
     1
1070
    73
1070
     0
1070
   272
1070
     2
1070
    77
1070
     3
1070
   173
1070
     1
1070
   147
1040
2.0
1070
    42
1040
6.0
1070
    44
1040
3.0
1070
    43
1040
14.0
1070
   271
1070
     0
1070
   178
1070
     4
1070
   177
1070
     4
1070
   176
1070
     4
1070
   141
1040
150.0
1070
     7
1000
_OPEN
1070
     6
1000
_OPEN
1070
    41
1040
7.0
1002
}
  0
DIMENSION
  5
770
330
1A
100
AcDbEntity
  8
SUNPOU
100
AcDbDimension
  2
*D13
 10
284.8011375755904
 20
365.6582527915486
 30
0.0
 11
339.8011375755904
 21
370.6582527915486
 31
0.0
 12
0.0
 22
-27.24230410053792
 32
0.0
 70
    32
  3
STANDARD
100
AcDbAlignedDimension
 13
394.8011375755904
 23
326.8071325092827
 33
0.0
 14
284.8011375755904
 24
297.2326325092826
 34
0.0
100
AcDbRotatedDimension
1001
ACAD
1000
DSTYLE
1002
{
1070
   140
1040
6.0
1070
    74
1070
     0
1070
   172
1070
     1
1070
    73
1070
     0
1070
   272
1070
     2
1070
    77
1070
     3
1070
   173
1070
     1
1070
   147
1040
2.0
1070
    42
1040
6.0
1070
    44
1040
3.0
1070
    43
1040
14.0
1070
   271
1070
     0
1070
   178
1070
     4
1070
   177
1070
     4
1070
   176
1070
     4
1070
   141
1040
150.0
1070
     7
1000
_OPEN
1070
     6
1000
_OPEN
1070
    41
1040
7.0
1002
}
  0
DIMENSION
  5
77D
330
1A
100
AcDbEntity
  8
SUNPOU
100
AcDbDimension
  2
*D14
 10
265.8010375755904
 20
381.070165694318
 30
0.0
 11
330.3010875755905
 21
386.0701656943181
 31
0.0
 12
0.0
 22
-27.24230410053792
 32
0.0
 70
    32
  3
STANDARD
100
AcDbAlignedDimension
 13
394.8011375755904
 23
326.8071325092827
 33
0.0
 14
265.8010375755904
 24
293.2326325092826
 34
0.0
100
AcDbRotatedDimension
1001
ACAD
1000
DSTYLE
1002
{
1070
   140
1040
6.0
1070
    74
1070
     0
1070
   172
1070
     1
1070
    73
1070
     0
1070
   272
1070
     2
1070
    77
1070
     3
1070
   173
1070
     1
1070
   147
1040
2.0
1070
    42
1040
6.0
1070
    44
1040
3.0
1070
    43
1040
14.0
1070
   271
1070
     0
1070
   178
1070
     4
1070
   177
1070
     4
1070
   176
1070
     4
1070
   141
1040
150.0
1070
     7
1000
_OPEN
1070
     6
1000
_OPEN
1070
    41
1040
7.0
1002
}
  0
TEXT
  5
77E
330
1A
100
AcDbEntity
  8
SUNPOU
 62
     4
100
AcDbText
 10
425.9346799795663
 20
225.9829163474126
 30
0.0
 40
6.0
  1
4
100
AcDbText
  0
TEXT
  5
77F
330
1A
100
AcDbEntity
  8
SUNPOU
 62
     4
100
AcDbText
 10
414.2210251727334
 20
238.6612853997793
 30
0.0
 40
6.0
  1
10
100
AcDbText
  0
DIMENSION
  5
793
330
1A
100
AcDbEntity
  8
SUNPOU
100
AcDbDimension
  2
*D15
 10
422.2623422945883
 20
258.1478273077487
 30
0.0
 11
443.1537057438602
 21
271.8883124967959
 31
0.0
 70
    33
  1
t<>
  3
STANDARD
100
AcDbAlignedDimension
 13
407.7985383272666
 23
278.1547328099126
 33
0.0
 14
413.3695375755903
 24
280.3828325092826
 34
0.0
1001
ACAD
1000
DSTYLE
1002
{
1070
   140
1040
6.0
1070
    74
1070
     0
1070
   172
1070
     1
1070
    73
1070
     0
1070
   272
1070
     2
1070
    77
1070
     3
1070
   173
1070
     1
1070
   147
1040
2.0
1070
    42
1040
6.0
1070
    44
1040
3.0
1070
    43
1040
14.0
1070
   271
1070
     1
1070
   178
1070
     4
1070
   177
1070
     4
1070
   176
1070
     4
1070
   141
1040
150.0
1070
     7
1000
_OPEN
1070
     6
1000
_OPEN
1070
    41
1040
7.0
1002
}
  0
DIMENSION
  5
7C7
330
1A
100
AcDbEntity
  8
SUNPOU
100
AcDbDimension
  2
*D16
 10
394.8011375755904
 20
381.070165694318
 30
0.0
 11
412.3011375755904
 21
386.0701656943181
 31
0.0
 12
0.0
 22
-27.24230410053792
 32
0.0
 70
    32
  3
STANDARD
100
AcDbAlignedDimension
 13
429.8011375755903
 23
326.8071325092827
 33
0.0
 14
394.8011375755904
 24
326.8071325092827
 34
0.0
100
AcDbRotatedDimension
1001
ACAD
1000
DSTYLE
1002
{
1070
   140
1040
6.0
1070
    74
1070
     0
1070
   172
1070
     1
1070
    73
1070
     0
1070
   272
1070
     2
1070
    77
1070
     3
1070
   173
1070
     1
1070
   147
1040
2.0
1070
    42
1040
6.0
1070
    44
1040
3.0
1070
    43
1040
14.0
1070
   271
1070
     0
1070
   178
1070
     4
1070
   177
1070
     4
1070
   176
1070
     4
1070
   141
1040
150.0
1070
     7
1000
_OPEN
1070
     6
1000
_OPEN
1070
    41
1040
7.0
1002
}
  0
TEXT
  5
7C8
330
1A
100
AcDbEntity
  8
SUNPOU
 62
     4
100
AcDbText
 10
423.7666490498874
 20
391.1175118768052
 30
0.0
 40
6.0
  1
スライド巾
100
AcDbText
  0
LINE
  5
7CC
330
1A
100
AcDbEntity
  8
CENTER_L
  6
CENTER
 62
     1
 48
5.0
100
AcDbLine
 10
441.4690375755903
 20
185.4355660820274
 30
0.0
 11
423.7473375755904
 21
178.3474660820273
 31
0.0
  0
LINE
  5
7CD
330
1A
100
AcDbEntity
  8
CENTER_L
  6
CENTER
 62
     1
 48
5.0
100
AcDbLine
 10
439.5758375755902
 20
190.0633660820274
 30
0.0
 11
421.9351375755902
 21
183.0075660820274
 31
0.0
  0
LINE
  5
7CE
330
1A
100
AcDbEntity
  8
CENTER_L
  6
CENTER
 62
     1
 48
5.0
100
AcDbLine
 10
432.8090375755902
 20
155.0461660820274
 30
0.0
 11
450.9351375755902
 21
162.2960660820273
 31
0.0
  0
LINE
  5
7CF
330
1A
100
AcDbEntity
  8
CENTER_L
  6
CENTER
 62
     1
 48
5.0
100
AcDbLine
 10
439.5758375755902
 20
319.9465325092826
 30
0.0
 11
421.9351375755902
 21
312.8907325092826
 31
0.0
  0
LINE
  5
7D0
330
1A
100
AcDbEntity
  8
CENTER_L
  6
CENTER
 62
     1
 48
5.0
100
AcDbLine
 10
441.4690375755903
 20
315.3187325092826
 30
0.0
 11
423.7473375755904
 21
308.2306325092825
 31
0.0
  0
LINE
  5
7D1
330
1A
100
AcDbEntity
  8
CENTER_L
  6
CENTER
 62
     1
 48
5.0
100
AcDbLine
 10
432.8090375755902
 20
284.9293325092826
 30
0.0
 11
450.9351375755902
 21
292.1792325092825
 31
0.0
  0
TEXT
  5
7D2
330
1A
100
AcDbEntity
  8
SUNPOU
 62
     4
100
AcDbText
 10
317.7730479679886
 20
92.71638970043353
 30
0.0
 40
8.0
  1
軒樋の差し替え
100
AcDbText
  0
LEADER
  5
83B
330
1A
100
AcDbEntity
  8
SUNPOU
  6
CONTINUOUS
 62
     4
100
AcDbLeader
  3
STANDARD
 73
     0
 40
6.0
 41
31.19999999999999
 76
     3
 10
566.8491705580595
 20
375.9660018552263
 30
0.0
 10
558.3577852355106
 20
351.7722511889956
 30
0.0
 10
555.8698438986093
 20
351.7722511889956
 30
0.0
1001
ACAD
1000
DSTYLE
1002
{
1070
     6
1000
OPEN
1070
    41
1040
7.0
1070
    42
1040
6.0
1070
    43
1040
14.0
1070
    44
1040
3.0
1070
    73
1070
     0
1070
    74
1070
     0
1070
    77
1070
     3
1070
   140
1040
6.0
1070
   141
1040
150.0
1070
   147
1040
2.0
1070
   172
1070
     1
1070
   173
1070
     1
1070
   176
1070
     4
1070
   177
1070
     4
1070
   178
1070
     4
1070
   271
1070
     0
1070
   272
1070
     2
1070
   341
1005
6D
1070
   343
1005
6D
1070
   344
1005
6D
1002
}
  0
MTEXT
  5
83C
330
1A
100
AcDbEntity
  8
SUNPOU
  6
CONTINUOUS
 62
     4
100
AcDbMText
 10
553.8698438986093
 20
353.7722511889956
 30
0.0
 40
6.0
 41
0.0
 71
     9
 72
     5
  1
2-φ6.5
1001
ACAD
1000
MTEXTBEGIN
1070
    73
1070
     1
1070
    44
1040
1.0
1070
    74
1070
     0
1000
MTEXTEND
1000
MTEXTBEGIN
1070
    73
1070
     1
1070
    44
1040
1.0
1070
    74
1070
     0
1000
MTEXTEND
  0
LWPOLYLINE
  5
946
330
1A
100
AcDbEntity
  8
ZUWAKU
100
AcDbPolyline
 90
        4
 70
     1
 43
0.0
 10
0.8000003265096893
 20
550.7999996173814
 10
0.8000003265096893
 20
0.7999996173814452
 10
796.8000003265097
 20
0.7999996173814452
 10
796.8000003265097
 20
550.7999996173814
  0
LWPOLYLINE
  5
947
330
1A
100
AcDbEntity
  8
ZUWAKU
100
AcDbPolyline
 90
        4
 70
     1
 43
0.0
 10
0.4000003265097121
 20
551.1999996173813
 10
0.4000003265097121
 20
0.3999996173814679
 10
797.2000003265097
 20
0.3999996173814448
 10
797.2000003265097
 20
551.1999996173813
  0
LWPOLYLINE
  5
948
330
1A
100
AcDbEntity
  8
ZUWAKU
100
AcDbPolyline
 90
        4
 70
     1
 43
0.0
 10
0.0000003265097348
 20
551.5999996173814
 10
0.0000003265097348
 20
-0.000000382618623
 10
797.6000003265099
 20
-0.0000003826185555
 10
797.6000003265099
 20
551.5999996173815
  0
LWPOLYLINE
  5
949
330
1A
100
AcDbEntity
  8
ZUWAKU
100
AcDbPolyline
 90
        4
 70
     1
 43
0.0
 10
0.6000003265096439
 20
550.9999996173815
 10
0.6000003265096439
 20
0.5999996173813998
 10
797.0000003265099
 20
0.599999617381446
 10
797.0000003265097
 20
550.9999996173815
  0
LWPOLYLINE
  5
94A
330
1A
100
AcDbEntity
  8
ZUWAKU
100
AcDbPolyline
 90
        4
 70
     1
 43
0.0
 10
0.2000003265096666
 20
551.3999996173814
 10
0.2000003265096666
 20
0.1999996173814225
 10
797.4000003265095
 20
0.1999996173814455
 10
797.4000003265098
 20
551.3999996173814
  0
LINE
  5
94B
330
1A
100
AcDbEntity
  8
ZUWAKU
100
AcDbLine
 10
0.0000003265097348
 20
29.99999961738137
 30
0.0
 11
797.4000003265095
 21
29.99999961738137
 31
0.0
  0
LINE
  5
94C
330
1A
100
AcDbEntity
  8
ZUWAKU
100
AcDbLine
 10
0.0000003265097348
 20
30.19999961738138
 30
0.0
 11
797.4000003265095
 21
30.19999961738138
 31
0.0
  0
LINE
  5
94D
330
1A
100
AcDbEntity
  8
ZUWAKU
100
AcDbLine
 10
0.0000003265097348
 20
30.39999961738138
 30
0.0
 11
797.4000003265095
 21
30.39999961738138
 31
0.0
  0
LINE
  5
94E
330
1A
100
AcDbEntity
  8
ZUWAKU
100
AcDbLine
 10
0.0000003265097348
 20
30.59999961738138
 30
0.0
 11
797.4000003265095
 21
30.59999961738138
 31
0.0
  0
LINE
  5
94F
330
1A
100
AcDbEntity
  8
ZUWAKU
100
AcDbLine
 10
0.0000003265097348
 20
30.79999961738138
 30
0.0
 11
797.4000003265095
 21
30.79999961738138
 31
0.0
  0
LINE
  5
950
330
1A
100
AcDbEntity
  8
ZUWAKU
100
AcDbLine
 10
208.6466016165777
 20
15.39999961738141
 30
0.0
 11
447.4243642975011
 21
15.39999961738141
 31
0.0
  0
LINE
  5
951
330
1A
100
AcDbEntity
  8
ZUWAKU
100
AcDbLine
 10
208.6466016165777
 20
15.59999961738141
 30
0.0
 11
447.4243642975011
 21
15.59999961738141
 31
0.0
  0
LINE
  5
952
330
1A
100
AcDbEntity
  8
ZUWAKU
100
AcDbLine
 10
208.6466016165777
 20
15.19999961738141
 30
0.0
 11
447.4243642975011
 21
15.19999961738141
 31
0.0
  0
TEXT
  5
953
330
1A
100
AcDbEntity
  8
MOJI
100
AcDbText
 10
92.95778991467887
 20
12.74117774765613
 30
0.0
 40
6.0
  1
新・丸トップＲＶ１０５
 41
0.9
  7
ｽﾀｲﾙ1
100
AcDbText
  0
CIRCLE
  5
954
330
1A
100
AcDbEntity
  8
ZUWAKU
100
AcDbCircle
 10
25.99221248129083
 20
15.19999961738138
 30
0.0
 40
1.75
  0
LINE
  5
955
330
1A
100
AcDbEntity
  8
ZUWAKU
100
AcDbLine
 10
26.86721248129083
 20
7.149999617381382
 30
0.0
 11
24.94221248129088
 21
7.149999617381382
 31
0.0
  0
LINE
  5
956
330
1A
100
AcDbEntity
  8
ZUWAKU
100
AcDbLine
 10
24.94221248129088
 20
9.949999617381379
 30
0.0
 11
26.86721248129083
 21
9.949999617381379
 31
0.0
  0
LINE
  5
957
330
1A
100
AcDbEntity
  8
ZUWAKU
100
AcDbLine
 10
26.86721248129083
 20
20.44999961738138
 30
0.0
 11
24.94221248129088
 21
20.44999961738138
 31
0.0
  0
LINE
  5
958
330
1A
100
AcDbEntity
  8
ZUWAKU
100
AcDbLine
 10
24.94221248129088
 20
23.24999961738134
 30
0.0
 11
26.86721248129083
 21
23.24999961738138
 31
0.0
  0
HATCH
  5
959
330
1A
100
AcDbEntity
  8
ZUWAKU
100
AcDbHatch
 10
0.0
 20
0.0
 30
0.0
210
0.0
220
0.0
230
1.0
  2
ANSI37
 70
     0
 71
     0
 91
        8
 92
        7
 72
     1
 73
     1
 93
       24
 10
14.50226298762959
 20
17.64484809836496
 42
-0.1989123673796348
 10
14.09221248129085
 20
18.63479759202601
 42
0.0
 10
14.09221248129085
 20
19.92499961738138
 42
-0.4142135623730912
 10
14.61721248129083
 20
20.44999961738138
 42
0.0
 10
17.59221248129074
 20
20.44999961738138
 42
0.4142135623731546
 10
18.11721248129083
 20
20.97499961738137
 42
0.0
 10
18.11721248129083
 20
22.72499961738138
 42
0.4142135623731586
 10
17.59221248129074
 20
23.24999961738138
 42
0.0
 10
14.09221248129085
 20
23.24999961738138
 42
0.4142135623730928
 10
11.2922124812909
 20
20.4499996173814
 42
0.0
 10
11.2922124812909
 20
18.63479759202613
 42
0.1989123673796619
 10
12.52236400030733
 20
15.66494911104253
 42
0.0
 10
15.432161974952
 20
12.75515113639787
 42
-0.1989123673796613
 10
15.84221248129085
 20
11.76520164273668
 42
0.0
 10
15.84221248129085
 20
10.47499961738137
 42
-0.4142135623730911
 10
15.31721248129088
 20
9.949999617381379
 42
0.0
 10
12.34221248129097
 20
9.949999617381379
 42
0.4142135623731526
 10
11.81721248129088
 20
9.424999617381391
 42
0.0
 10
11.81721248129088
 20
7.67499961738137
 42
0.4142135623731526
 10
12.34221248129097
 20
7.149999617381382
 42
0.0
 10
15.84221248129085
 20
7.149999617381382
 42
0.4142135623731044
 10
18.64221248129092
 20
9.949999617381358
 42
0.0
 10
18.64221248129092
 20
11.76520164273663
 42
0.1989123673796604
 10
17.41206096227438
 20
14.73505012372017
 42
0.0
 97
        0
 92
        7
 72
     1
 73
     1
 93
       16
 10
23.5422124812909
 20
19.04999961738139
 42
-0.4142135623730935
 10
24.94221248129088
 20
20.44999961738138
 42
0.0
 10
26.86721248129083
 20
20.44999961738138
 42
0.4142135623731546
 10
27.39221248129092
 20
20.97499961738137
 42
0.0
 10
27.39221248129092
 20
22.72499961738138
 42
0.4142135623730951
 10
26.86721248129094
 20
23.24999961738138
 42
0.0
 10
24.94221248129076
 20
23.24999961738134
 42
0.4142135623730892
 10
20.74221248129083
 20
19.04999961738131
 42
0.0
 10
20.74221248129083
 20
11.3499996173814
 42
0.4142135623730969
 10
24.94221248129088
 20
7.149999617381382
 42
0.0
 10
26.86721248129083
 20
7.149999617381382
 42
0.4142135623731526
 10
27.39221248129092
 20
7.67499961738137
 42
0.0
 10
27.39221248129092
 20
9.424999617381391
 42
0.4142135623730891
 10
26.86721248129094
 20
9.949999617381379
 42
0.0
 10
24.94221248129088
 20
9.949999617381379
 42
-0.4142135623730928
 10
23.5422124812909
 20
11.34999961738136
 42
0.0
 97
        0
 92
        7
 72
     1
 73
     1
 93
        2
 10
24.24221248129083
 20
15.19999961738138
 42
1.0
 10
27.74221248129083
 20
15.19999961738138
 42
1.0
 97
        0
 92
        7
 72
     1
 73
     1
 93
       26
 10
37.31485896346885
 20
19.2050468109448
 42
0.0
 10
38.37649859660666
 20
22.56690564921439
 42
0.5069206636600134
 10
37.8758676974113
 20
23.24999961738138
 42
0.0
 10
36.17697831780208
 20
23.24999961738138
 42
0.3272098845218764
 10
35.67634741860672
 20
22.88309358554835
 42
0.0
 10
33.80807754397494
 20
16.96690564921446
 42
-0.3272098845219541
 10
33.30744664477947
 20
16.59999961738138
 42
0.0
 10
33.16721248129101
 20
16.59999961738138
 42
-0.4142135623731526
 10
32.64221248129092
 20
17.12499961738136
 42
0.0
 10
32.64221248129092
 20
22.72499961738138
 42
0.4142135623730951
 10
32.11721248129094
 20
23.24999961738138
 42
0.0
 10
30.36721248129083
 20
23.24999961738138
 42
0.4142135623730871
 10
29.84221248129085
 20
22.7249996173814
 42
0.0
 10
29.84221248129085
 20
7.67499961738137
 42
0.4142135623730891
 10
30.36721248129083
 20
7.149999617381382
 42
0.0
 10
32.11721248129083
 20
7.149999617381382
 42
0.4142135623731526
 10
32.64221248129092
 20
7.67499961738137
 42
0.0
 10
32.64221248129092
 20
13.27499961738139
 42
-0.4142135623731526
 10
33.16721248129101
 20
13.79999961738138
 42
0.0
 10
33.30744664477959
 20
13.79999961738138
 42
-0.3272098845218915
 10
33.80807754397494
 20
13.4330935855483
 42
0.0
 10
35.67634741860672
 20
7.516905649214454
 42
0.3272098845218902
 10
36.17697831780208
 20
7.149999617381382
 42
0.0
 10
37.8758676974113
 20
7.149999617381382
 42
0.5069206636600335
 10
38.37649859660666
 20
7.83309358554839
 42
0.0
 10
36.050107218133
 20
15.19999961738151
 42
0.0
 97
        0
 92
        7
 72
     1
 73
     1
 93
        8
 10
43.49221248129083
 20
22.72499961738139
 42
0.4142135623731546
 10
42.96721248129074
 20
23.24999961738138
 42
0.0
 10
41.21721248129097
 20
23.24999961738138
 42
0.4142135623731507
 10
40.69221248129088
 20
22.7249996173814
 42
0.0
 10
40.69221248129088
 20
7.67499961738137
 42
0.4142135623731526
 10
41.21721248129097
 20
7.149999617381382
 42
0.0
 10
42.96721248129074
 20
7.149999617381382
 42
0.4142135623731526
 10
43.49221248129083
 20
7.67499961738137
 42
0.0
 97
        0
 92
        7
 72
     1
 73
     1
 93
       24
 10
48.39221248129092
 20
19.92499961738138
 42
-0.4142135623731546
 10
48.91721248129101
 20
20.44999961738138
 42
0.0
 10
51.89221248129093
 20
20.44999961738138
 42
0.4142135623730911
 10
52.4172124812909
 20
20.97499961738137
 42
0.0
 10
52.4172124812909
 20
22.72499961738138
 42
0.4142135623730952
 10
51.89221248129093
 20
23.24999961738138
 42
0.0
 10
48.39221248129092
 20
23.24999961738138
 42
0.4142135623731048
 10
45.59221248129086
 20
20.4499996173814
 42
0.0
 10
45.59221248129086
 20
18.63479759202613
 42
0.1989123673796613
 10
46.8223640003074
 20
15.66494911104259
 42
0.0
 10
49.73216197495208
 20
12.75515113639792
 42
-0.1989123673796402
 10
50.14221248129093
 20
11.76520164273684
 42
0.0
 10
50.14221248129093
 20
10.47499961738137
 42
-0.4142135623730911
 10
49.61721248129094
 20
9.949999617381379
 42
0.0
 10
46.64221248129092
 20
9.949999617381379
 42
0.4142135623731526
 10
46.11721248129083
 20
9.424999617381391
 42
0.0
 10
46.11721248129083
 20
7.67499961738137
 42
0.4142135623730891
 10
46.64221248129081
 20
7.149999617381382
 42
0.0
 10
50.14221248129093
 20
7.149999617381382
 42
0.4142135623730925
 10
52.94221248129088
 20
9.949999617381358
 42
0.0
 10
52.94221248129088
 20
11.76520164273663
 42
0.1989123673796675
 10
51.71206096227433
 20
14.73505012372028
 42
0.0
 10
48.80226298762977
 20
17.6448480983648
 42
-0.1989123673796652
 10
48.39221248129092
 20
18.63479759202596
 42
0.0
 97
        0
 92
        7
 72
     1
 73
     1
 93
       16
 10
57.84221248129085
 20
22.72499961738137
 42
0.414213562373103
 10
57.31721248129088
 20
23.24999961738138
 42
0.0
 10
55.56721248129088
 20
23.24999961738138
 42
0.4142135623730871
 10
55.0422124812909
 20
22.7249996173814
 42
0.0
 10
55.0422124812909
 20
9.949999617381358
 42
0.4142135623730926
 10
57.84221248129085
 20
7.149999617381382
 42
0.0
 10
61.34221248129086
 20
7.149999617381382
 42
0.4142135623731044
 10
64.14221248129092
 20
9.949999617381358
 42
0.0
 10
64.14221248129092
 20
22.72499961738138
 42
0.4142135623730951
 10
63.61721248129095
 20
23.24999961738138
 42
0.0
 10
61.86721248129083
 20
23.24999961738138
 42
0.4142135623730871
 10
61.34221248129086
 20
22.7249996173814
 42
0.0
 10
61.34221248129086
 20
10.99999961738135
 42
-0.414213562373088
 10
60.2922124812909
 20
9.949999617381379
 42
0.0
 10
58.89221248129093
 20
9.949999617381379
 42
-0.4142135623731197
 10
57.84221248129085
 20
10.99999961738135
 42
0.0
 97
        0
 92
        7
 72
     1
 73
     1
 93
        8
 10
69.0422124812909
 20
22.7249996173814
 42
0.4142135623730871
 10
68.51721248129092
 20
23.24999961738138
 42
0.0
 10
66.76721248129092
 20
23.24999961738138
 42
0.4142135623731507
 10
66.24221248129083
 20
22.7249996173814
 42
0.0
 10
66.24221248129083
 20
7.67499961738137
 42
0.4142135623730891
 10
66.76721248129081
 20
7.149999617381382
 42
0.0
 10
68.51721248129092
 20
7.149999617381382
 42
0.4142135623730891
 10
69.0422124812909
 20
7.67499961738137
 42
0.0
 97
        0
 75
     0
 76
     1
 52
0.0
 41
0.2
 77
     0
 78
     2
 53
45.0
 43
-900.9423040081692
 44
-13.20000038261855
 45
-0.4490128060534576
 46
0.4490128060534577
 79
     0
 53
135.0
 43
-900.9423040081692
 44
-13.20000038261855
 45
-0.4490128060534577
 46
-0.4490128060534576
 79
     0
 47
0.057451373970553
 98
        8
 10
16.07985528953304
 20
15.16717326326693
 10
22.4045153329489
 20
18.84406179983239
 10
25.16436821216939
 20
15.51188126345209
 10
30.91406030814687
 20
16.20129726382288
 10
41.83847234546647
 20
16.66090953136449
 10
46.89820122163928
 20
19.41857593378858
 10
56.55768629891008
 20
18.72915753247639
 10
67.82707994613247
 20
19.188769800018
  0
ARC
  5
95A
330
1A
100
AcDbEntity
  8
ZUWAKU
100
AcDbCircle
 10
15.49221248129083
 20
18.63479759202608
 30
0.0
 40
4.199999999999999
100
AcDbArc
 50
180.0
 51
225.0
  0
LINE
  5
95B
330
1A
100
AcDbEntity
  8
ZUWAKU
100
AcDbLine
 10
20.74221248129083
 20
11.34999961738138
 30
0.0
 11
20.74221248129083
 21
19.04999961738133
 31
0.0
  0
LINE
  5
95C
330
1A
100
AcDbEntity
  8
ZUWAKU
100
AcDbLine
 10
23.5422124812909
 20
19.04999961738138
 30
0.0
 11
23.5422124812909
 21
11.34999961738138
 31
0.0
  0
ARC
  5
95D
330
1A
100
AcDbEntity
  8
ZUWAKU
100
AcDbCircle
 10
15.49221248129083
 20
18.63479759202608
 30
0.0
 40
1.399999999999999
100
AcDbArc
 50
180.0000000000016
 51
224.9999999999988
  0
ARC
  5
95E
330
1A
100
AcDbEntity
  8
ZUWAKU
100
AcDbCircle
 10
24.94221248129088
 20
11.34999961738138
 30
0.0
 40
4.199999999999999
100
AcDbArc
 50
180.0
 51
270.0
  0
ARC
  5
95F
330
1A
100
AcDbEntity
  8
ZUWAKU
100
AcDbCircle
 10
15.84221248129085
 20
9.949999617381379
 30
0.0
 40
2.799999999999999
100
AcDbArc
 50
270.0
 51
0.0
  0
ARC
  5
960
330
1A
100
AcDbEntity
  8
ZUWAKU
100
AcDbCircle
 10
14.44221248129088
 20
11.76520164273668
 30
0.0
 40
4.199999999999999
100
AcDbArc
 50
0.0
 51
45.0
  0
LINE
  5
961
330
1A
100
AcDbEntity
  8
ZUWAKU
100
AcDbLine
 10
12.52236400030733
 20
15.66494911104256
 30
0.0
 11
15.432161974952
 21
12.75515113639789
 31
0.0
  0
LINE
  5
962
330
1A
100
AcDbEntity
  8
ZUWAKU
100
AcDbLine
 10
12.34221248129085
 20
9.949999617381379
 30
0.0
 11
15.31721248129088
 21
9.949999617381379
 31
0.0
  0
LINE
  5
963
330
1A
100
AcDbEntity
  8
ZUWAKU
100
AcDbLine
 10
12.34221248129085
 20
7.149999617381382
 30
0.0
 11
15.84221248129085
 21
7.149999617381382
 31
0.0
  0
ARC
  5
964
330
1A
100
AcDbEntity
  8
ZUWAKU
100
AcDbCircle
 10
12.34221248129085
 20
9.424999617381381
 30
0.0
 40
0.525
100
AcDbArc
 50
90.0
 51
180.0
  0
ARC
  5
965
330
1A
100
AcDbEntity
  8
ZUWAKU
100
AcDbCircle
 10
12.34221248129085
 20
7.674999617381381
 30
0.0
 40
0.525
100
AcDbArc
 50
180.0
 51
270.0
  0
LINE
  5
966
330
1A
100
AcDbEntity
  8
ZUWAKU
100
AcDbLine
 10
11.81721248129088
 20
7.674999617381381
 30
0.0
 11
11.81721248129088
 21
9.424999617381381
 31
0.0
  0
ARC
  5
967
330
1A
100
AcDbEntity
  8
ZUWAKU
100
AcDbCircle
 10
14.44221248129088
 20
11.76520164273672
 30
0.0
 40
1.399999999999999
100
AcDbArc
 50
0.0
 51
45.0
  0
ARC
  5
968
330
1A
100
AcDbEntity
  8
ZUWAKU
100
AcDbCircle
 10
15.31721248129088
 20
10.47499961738138
 30
0.0
 40
0.525
100
AcDbArc
 50
270.0
 51
0.0
  0
LINE
  5
969
330
1A
100
AcDbEntity
  8
ZUWAKU
100
AcDbLine
 10
15.84221248129085
 20
10.47499961738138
 30
0.0
 11
15.84221248129085
 21
11.76520164273672
 31
0.0
  0
LINE
  5
96A
330
1A
100
AcDbEntity
  8
ZUWAKU
100
AcDbLine
 10
17.41206096227438
 20
14.7350501237202
 30
0.0
 11
14.5022629876297
 21
17.64484809836488
 31
0.0
  0
ARC
  5
96B
330
1A
100
AcDbEntity
  8
ZUWAKU
100
AcDbCircle
 10
24.94221248129088
 20
11.34999961738138
 30
0.0
 40
1.399999999999999
100
AcDbArc
 50
180.0
 51
270.0
  0
LINE
  5
96C
330
1A
100
AcDbEntity
  8
ZUWAKU
100
AcDbLine
 10
18.64221248129092
 20
9.949999617381379
 30
0.0
 11
18.64221248129092
 21
11.76520164273672
 31
0.0
  0
ARC
  5
96D
330
1A
100
AcDbEntity
  8
ZUWAKU
100
AcDbCircle
 10
17.59221248129085
 20
20.97499961738138
 30
0.0
 40
0.525
100
AcDbArc
 50
270.0
 51
0.0
  0
ARC
  5
96E
330
1A
100
AcDbEntity
  8
ZUWAKU
100
AcDbCircle
 10
17.59221248129085
 20
22.72499961738137
 30
0.0
 40
0.525
100
AcDbArc
 50
0.0
 51
90.0
  0
ARC
  5
96F
330
1A
100
AcDbEntity
  8
ZUWAKU
100
AcDbCircle
 10
14.09221248129085
 20
20.44999961738138
 30
0.0
 40
2.799999999999999
100
AcDbArc
 50
90.0
 51
180.0
  0
LINE
  5
970
330
1A
100
AcDbEntity
  8
ZUWAKU
100
AcDbLine
 10
11.2922124812909
 20
20.44999961738138
 30
0.0
 11
11.2922124812909
 21
18.63479759202603
 31
0.0
  0
LINE
  5
971
330
1A
100
AcDbEntity
  8
ZUWAKU
100
AcDbLine
 10
17.59221248129085
 20
20.44999961738138
 30
0.0
 11
14.61721248129083
 21
20.44999961738138
 31
0.0
  0
LINE
  5
972
330
1A
100
AcDbEntity
  8
ZUWAKU
100
AcDbLine
 10
14.09221248129085
 20
19.92499961738138
 30
0.0
 11
14.09221248129085
 21
18.63479759202603
 31
0.0
  0
ARC
  5
973
330
1A
100
AcDbEntity
  8
ZUWAKU
100
AcDbCircle
 10
14.61721248129083
 20
19.92499961738138
 30
0.0
 40
0.525
100
AcDbArc
 50
90.0
 51
180.0
  0
LINE
  5
974
330
1A
100
AcDbEntity
  8
ZUWAKU
100
AcDbLine
 10
14.09221248129085
 20
23.24999961738138
 30
0.0
 11
17.59221248129085
 21
23.24999961738138
 31
0.0
  0
ARC
  5
975
330
1A
100
AcDbEntity
  8
ZUWAKU
100
AcDbCircle
 10
24.94221248129088
 20
19.04999961738133
 30
0.0
 40
4.199999999999999
100
AcDbArc
 50
90.0
 51
180.0
  0
ARC
  5
976
330
1A
100
AcDbEntity
  8
ZUWAKU
100
AcDbCircle
 10
24.94221248129088
 20
19.04999961738138
 30
0.0
 40
1.399999999999999
100
AcDbArc
 50
90.0
 51
180.0
  0
LINE
  5
977
330
1A
100
AcDbEntity
  8
ZUWAKU
100
AcDbLine
 10
18.11721248129083
 20
22.72499961738137
 30
0.0
 11
18.11721248129083
 21
20.97499961738138
 31
0.0
  0
LINE
  5
978
330
1A
100
AcDbEntity
  8
ZUWAKU
100
AcDbLine
 10
35.67634741860672
 20
22.88309358554835
 30
0.0
 11
33.80807754397494
 21
16.96690564921441
 31
0.0
  0
LINE
  5
979
330
1A
100
AcDbEntity
  8
ZUWAKU
100
AcDbLine
 10
29.84221248129085
 20
22.72499961738137
 30
0.0
 11
29.84221248129085
 21
7.674999617381381
 31
0.0
  0
LINE
  5
97A
330
1A
100
AcDbEntity
  8
ZUWAKU
100
AcDbLine
 10
32.64221248129092
 20
17.12499961738138
 30
0.0
 11
32.64221248129092
 21
22.72499961738137
 31
0.0
  0
LINE
  5
97B
330
1A
100
AcDbEntity
  8
ZUWAKU
100
AcDbLine
 10
57.84221248129085
 20
10.99999961738137
 30
0.0
 11
57.84221248129085
 21
22.72499961738137
 31
0.0
  0
LINE
  5
97C
330
1A
100
AcDbEntity
  8
ZUWAKU
100
AcDbLine
 10
55.0422124812909
 20
22.72499961738137
 30
0.0
 11
55.0422124812909
 21
9.949999617381379
 31
0.0
  0
LINE
  5
97D
330
1A
100
AcDbEntity
  8
ZUWAKU
100
AcDbLine
 10
43.49221248129083
 20
7.674999617381381
 30
0.0
 11
43.49221248129083
 21
22.72499961738137
 31
0.0
  0
LINE
  5
97E
330
1A
100
AcDbEntity
  8
ZUWAKU
100
AcDbLine
 10
40.69221248129088
 20
22.72499961738137
 30
0.0
 11
40.69221248129088
 21
7.674999617381381
 31
0.0
  0
LINE
  5
97F
330
1A
100
AcDbEntity
  8
ZUWAKU
100
AcDbLine
 10
37.31485896346885
 20
19.2050468109448
 30
0.0
 11
36.050107218133
 21
15.1999996173814
 31
0.0
  0
ARC
  5
980
330
1A
100
AcDbEntity
  8
ZUWAKU
100
AcDbCircle
 10
49.7922124812909
 20
18.63479759202608
 30
0.0
 40
4.199999999999999
100
AcDbArc
 50
180.0
 51
225.0
  0
ARC
  5
981
330
1A
100
AcDbEntity
  8
ZUWAKU
100
AcDbCircle
 10
49.7922124812909
 20
18.63479759202608
 30
0.0
 40
1.399999999999999
100
AcDbArc
 50
180.0000000000016
 51
224.9999999999988
  0
LINE
  5
982
330
1A
100
AcDbEntity
  8
ZUWAKU
100
AcDbLine
 10
66.24221248129083
 20
22.72499961738137
 30
0.0
 11
66.24221248129083
 21
7.674999617381381
 31
0.0
  0
LINE
  5
983
330
1A
100
AcDbEntity
  8
ZUWAKU
100
AcDbLine
 10
69.0422124812909
 20
7.674999617381381
 30
0.0
 11
69.0422124812909
 21
22.72499961738137
 31
0.0
  0
LINE
  5
984
330
1A
100
AcDbEntity
  8
ZUWAKU
100
AcDbLine
 10
61.34221248129086
 20
22.72499961738137
 30
0.0
 11
61.34221248129086
 21
10.99999961738137
 31
0.0
  0
LINE
  5
985
330
1A
100
AcDbEntity
  8
ZUWAKU
100
AcDbLine
 10
64.14221248129092
 20
9.949999617381379
 30
0.0
 11
64.14221248129092
 21
22.72499961738137
 31
0.0
  0
LINE
  5
986
330
1A
100
AcDbEntity
  8
ZUWAKU
100
AcDbLine
 10
79.12662987449812
 20
29.99999961738137
 30
0.0
 11
79.12662987449812
 21
0.7999996173814452
 31
0.0
  0
LINE
  5
987
330
1A
100
AcDbEntity
  8
ZUWAKU
100
AcDbLine
 10
79.52662987449798
 20
29.99999961738137
 30
0.0
 11
79.52662987449821
 21
0.7999996173814452
 31
0.0
  0
LINE
  5
988
330
1A
100
AcDbEntity
  8
ZUWAKU
100
AcDbLine
 10
79.32662987449794
 20
29.99999961738137
 30
0.0
 11
79.32662987449816
 21
0.7999996173814452
 31
0.0
  0
LINE
  5
989
330
1A
100
AcDbEntity
  8
ZUWAKU
100
AcDbLine
 10
57.84221248129085
 20
7.149999617381382
 30
0.0
 11
61.34221248129086
 21
7.149999617381382
 31
0.0
  0
LINE
  5
98A
330
1A
100
AcDbEntity
  8
ZUWAKU
100
AcDbLine
 10
60.2922124812909
 20
9.949999617381379
 30
0.0
 11
58.89221248129093
 21
9.949999617381379
 31
0.0
  0
LINE
  5
98B
330
1A
100
AcDbEntity
  8
ZUWAKU
100
AcDbLine
 10
41.21721248129086
 20
7.149999617381382
 30
0.0
 11
42.96721248129085
 21
7.149999617381382
 31
0.0
  0
LINE
  5
98C
330
1A
100
AcDbEntity
  8
ZUWAKU
100
AcDbLine
 10
35.67634741860672
 20
7.516905649214407
 30
0.0
 11
33.80807754397494
 21
13.43309358554835
 31
0.0
  0
ARC
  5
98D
330
1A
100
AcDbEntity
  8
ZUWAKU
100
AcDbCircle
 10
33.1672124812909
 20
13.27499961738138
 30
0.0
 40
0.525
100
AcDbArc
 50
90.0
 51
180.0
  0
ARC
  5
98E
330
1A
100
AcDbEntity
  8
ZUWAKU
100
AcDbCircle
 10
33.30744664477959
 20
13.27499961738138
 30
0.0
 40
0.525
100
AcDbArc
 50
17.52556837372303
 51
90.0
  0
ARC
  5
98F
330
1A
100
AcDbEntity
  8
ZUWAKU
100
AcDbCircle
 10
30.36721248129083
 20
7.674999617381381
 30
0.0
 40
0.525
100
AcDbArc
 50
180.0
 51
270.0
  0
ARC
  5
990
330
1A
100
AcDbEntity
  8
ZUWAKU
100
AcDbCircle
 10
26.86721248129083
 20
9.424999617381381
 30
0.0
 40
0.525
100
AcDbArc
 50
0.0
 51
90.0
  0
ARC
  5
991
330
1A
100
AcDbEntity
  8
ZUWAKU
100
AcDbCircle
 10
26.86721248129083
 20
7.674999617381381
 30
0.0
 40
0.525
100
AcDbArc
 50
270.0
 51
0.0
  0
LINE
  5
992
330
1A
100
AcDbEntity
  8
ZUWAKU
100
AcDbLine
 10
27.39221248129092
 20
9.424999617381381
 30
0.0
 11
27.39221248129092
 21
7.674999617381381
 31
0.0
  0
LINE
  5
993
330
1A
100
AcDbEntity
  8
ZUWAKU
100
AcDbLine
 10
32.64221248129092
 20
7.674999617381381
 30
0.0
 11
32.64221248129092
 21
13.27499961738138
 31
0.0
  0
ARC
  5
994
330
1A
100
AcDbEntity
  8
ZUWAKU
100
AcDbCircle
 10
32.11721248129083
 20
7.674999617381381
 30
0.0
 40
0.525
100
AcDbArc
 50
270.0
 51
0.0
  0
LINE
  5
995
330
1A
100
AcDbEntity
  8
ZUWAKU
100
AcDbLine
 10
30.36721248129083
 20
7.149999617381382
 30
0.0
 11
32.11721248129083
 21
7.149999617381382
 31
0.0
  0
ARC
  5
996
330
1A
100
AcDbEntity
  8
ZUWAKU
100
AcDbCircle
 10
33.1672124812909
 20
17.12499961738138
 30
0.0
 40
0.525
100
AcDbArc
 50
180.0
 51
270.0
  0
LINE
  5
997
330
1A
100
AcDbEntity
  8
ZUWAKU
100
AcDbLine
 10
33.1672124812909
 20
13.79999961738138
 30
0.0
 11
33.30744664477959
 21
13.79999961738138
 31
0.0
  0
LINE
  5
998
330
1A
100
AcDbEntity
  8
ZUWAKU
100
AcDbLine
 10
33.30744664477959
 20
16.59999961738138
 30
0.0
 11
33.1672124812909
 21
16.59999961738138
 31
0.0
  0
ARC
  5
999
330
1A
100
AcDbEntity
  8
ZUWAKU
100
AcDbCircle
 10
33.30744664477959
 20
17.12499961738138
 30
0.0
 40
0.525
100
AcDbArc
 50
270.0
 51
342.4744316262769
  0
ARC
  5
99A
330
1A
100
AcDbEntity
  8
ZUWAKU
100
AcDbCircle
 10
36.17697831780219
 20
7.674999617381381
 30
0.0
 40
0.525
100
AcDbArc
 50
197.525568373723
 51
270.0
  0
LINE
  5
99B
330
1A
100
AcDbEntity
  8
ZUWAKU
100
AcDbLine
 10
38.37649859660666
 20
7.833093585548354
 30
0.0
 11
36.050107218133
 21
15.1999996173814
 31
0.0
  0
ARC
  5
99C
330
1A
100
AcDbEntity
  8
ZUWAKU
100
AcDbCircle
 10
37.87586769741119
 20
7.674999617381381
 30
0.0
 40
0.525
100
AcDbArc
 50
270.0
 51
17.52556837372303
  0
LINE
  5
99D
330
1A
100
AcDbEntity
  8
ZUWAKU
100
AcDbLine
 10
36.17697831780219
 20
7.149999617381382
 30
0.0
 11
37.87586769741119
 21
7.149999617381382
 31
0.0
  0
ARC
  5
99E
330
1A
100
AcDbEntity
  8
ZUWAKU
100
AcDbCircle
 10
41.21721248129086
 20
7.674999617381381
 30
0.0
 40
0.525
100
AcDbArc
 50
180.0
 51
270.0
  0
ARC
  5
99F
330
1A
100
AcDbEntity
  8
ZUWAKU
100
AcDbCircle
 10
50.14221248129093
 20
9.949999617381379
 30
0.0
 40
2.799999999999999
100
AcDbArc
 50
270.0
 51
0.0
  0
ARC
  5
9A0
330
1A
100
AcDbEntity
  8
ZUWAKU
100
AcDbCircle
 10
57.84221248129085
 20
9.949999617381379
 30
0.0
 40
2.799999999999999
100
AcDbArc
 50
180.0
 51
270.0
  0
LINE
  5
9A1
330
1A
100
AcDbEntity
  8
ZUWAKU
100
AcDbLine
 10
51.71206096227445
 20
14.7350501237202
 30
0.0
 11
48.80226298762966
 21
17.64484809836488
 31
0.0
  0
LINE
  5
9A2
330
1A
100
AcDbEntity
  8
ZUWAKU
100
AcDbLine
 10
46.8223640003074
 20
15.66494911104256
 30
0.0
 11
49.73216197495208
 21
12.75515113639789
 31
0.0
  0
LINE
  5
9A3
330
1A
100
AcDbEntity
  8
ZUWAKU
100
AcDbLine
 10
46.64221248129092
 20
7.149999617381382
 30
0.0
 11
50.14221248129093
 21
7.149999617381382
 31
0.0
  0
LINE
  5
9A4
330
1A
100
AcDbEntity
  8
ZUWAKU
100
AcDbLine
 10
46.64221248129092
 20
9.949999617381379
 30
0.0
 11
49.61721248129084
 21
9.949999617381379
 31
0.0
  0
ARC
  5
9A5
330
1A
100
AcDbEntity
  8
ZUWAKU
100
AcDbCircle
 10
46.64221248129092
 20
9.424999617381381
 30
0.0
 40
0.525
100
AcDbArc
 50
90.0
 51
180.0
  0
ARC
  5
9A6
330
1A
100
AcDbEntity
  8
ZUWAKU
100
AcDbCircle
 10
42.96721248129085
 20
7.674999617381381
 30
0.0
 40
0.525
100
AcDbArc
 50
270.0
 51
0.0
  0
ARC
  5
9A7
330
1A
100
AcDbEntity
  8
ZUWAKU
100
AcDbCircle
 10
46.64221248129092
 20
7.674999617381381
 30
0.0
 40
0.525
100
AcDbArc
 50
180.0
 51
270.0
  0
LINE
  5
9A8
330
1A
100
AcDbEntity
  8
ZUWAKU
100
AcDbLine
 10
46.11721248129083
 20
7.674999617381381
 30
0.0
 11
46.11721248129083
 21
9.424999617381381
 31
0.0
  0
ARC
  5
9A9
330
1A
100
AcDbEntity
  8
ZUWAKU
100
AcDbCircle
 10
49.61721248129084
 20
10.47499961738138
 30
0.0
 40
0.525
100
AcDbArc
 50
270.0
 51
0.0
  0
ARC
  5
9AA
330
1A
100
AcDbEntity
  8
ZUWAKU
100
AcDbCircle
 10
48.74221248129083
 20
11.76520164273672
 30
0.0
 40
1.399999999999999
100
AcDbArc
 50
0.0
 51
45.0
  0
LINE
  5
9AB
330
1A
100
AcDbEntity
  8
ZUWAKU
100
AcDbLine
 10
50.14221248129093
 20
10.47499961738138
 30
0.0
 11
50.14221248129093
 21
11.76520164273672
 31
0.0
  0
ARC
  5
9AC
330
1A
100
AcDbEntity
  8
ZUWAKU
100
AcDbCircle
 10
58.89221248129093
 20
10.99999961738137
 30
0.0
 40
1.049999999999999
100
AcDbArc
 50
180.0
 51
270.0
  0
ARC
  5
9AD
330
1A
100
AcDbEntity
  8
ZUWAKU
100
AcDbCircle
 10
48.74221248129083
 20
11.76520164273668
 30
0.0
 40
4.199999999999999
100
AcDbArc
 50
0.0
 51
45.0
  0
LINE
  5
9AE
330
1A
100
AcDbEntity
  8
ZUWAKU
100
AcDbLine
 10
52.94221248129088
 20
9.949999617381379
 30
0.0
 11
52.94221248129088
 21
11.76520164273672
 31
0.0
  0
ARC
  5
9AF
330
1A
100
AcDbEntity
  8
ZUWAKU
100
AcDbCircle
 10
61.34221248129086
 20
9.949999617381379
 30
0.0
 40
2.799999999999999
100
AcDbArc
 50
270.0
 51
0.0
  0
LINE
  5
9B0
330
1A
100
AcDbEntity
  8
ZUWAKU
100
AcDbLine
 10
66.76721248129092
 20
7.149999617381382
 30
0.0
 11
68.51721248129092
 21
7.149999617381382
 31
0.0
  0
ARC
  5
9B1
330
1A
100
AcDbEntity
  8
ZUWAKU
100
AcDbCircle
 10
60.2922124812909
 20
10.99999961738137
 30
0.0
 40
1.049999999999999
100
AcDbArc
 50
270.0
 51
0.0
  0
ARC
  5
9B2
330
1A
100
AcDbEntity
  8
ZUWAKU
100
AcDbCircle
 10
66.76721248129092
 20
7.674999617381381
 30
0.0
 40
0.525
100
AcDbArc
 50
180.0
 51
270.0
  0
ARC
  5
9B3
330
1A
100
AcDbEntity
  8
ZUWAKU
100
AcDbCircle
 10
68.51721248129092
 20
7.674999617381381
 30
0.0
 40
0.525
100
AcDbArc
 50
270.0
 51
0.0
  0
LINE
  5
9B4
330
1A
100
AcDbEntity
  8
ZUWAKU
100
AcDbLine
 10
42.96721248129085
 20
23.24999961738138
 30
0.0
 11
41.21721248129086
 21
23.24999961738138
 31
0.0
  0
LINE
  5
9B5
330
1A
100
AcDbEntity
  8
ZUWAKU
100
AcDbLine
 10
27.39221248129092
 20
22.72499961738137
 30
0.0
 11
27.39221248129092
 21
20.97499961738138
 31
0.0
  0
ARC
  5
9B6
330
1A
100
AcDbEntity
  8
ZUWAKU
100
AcDbCircle
 10
26.86721248129083
 20
20.97499961738138
 30
0.0
 40
0.525
100
AcDbArc
 50
270.0
 51
0.0
  0
ARC
  5
9B7
330
1A
100
AcDbEntity
  8
ZUWAKU
100
AcDbCircle
 10
30.36721248129083
 20
22.72499961738137
 30
0.0
 40
0.525
100
AcDbArc
 50
90.0
 51
180.0
  0
ARC
  5
9B8
330
1A
100
AcDbEntity
  8
ZUWAKU
100
AcDbCircle
 10
26.86721248129083
 20
22.72499961738137
 30
0.0
 40
0.525
100
AcDbArc
 50
0.0
 51
90.0
  0
LINE
  5
9B9
330
1A
100
AcDbEntity
  8
ZUWAKU
100
AcDbLine
 10
32.11721248129083
 20
23.24999961738138
 30
0.0
 11
30.36721248129083
 21
23.24999961738138
 31
0.0
  0
ARC
  5
9BA
330
1A
100
AcDbEntity
  8
ZUWAKU
100
AcDbCircle
 10
32.11721248129083
 20
22.72499961738137
 30
0.0
 40
0.525
100
AcDbArc
 50
0.0
 51
90.0
  0
ARC
  5
9BB
330
1A
100
AcDbEntity
  8
ZUWAKU
100
AcDbCircle
 10
36.17697831780219
 20
22.72499961738137
 30
0.0
 40
0.525
100
AcDbArc
 50
90.0
 51
162.4744316262769
  0
LINE
  5
9BC
330
1A
100
AcDbEntity
  8
ZUWAKU
100
AcDbLine
 10
38.37649859660666
 20
22.56690564921441
 30
0.0
 11
37.31485896346885
 21
19.2050468109448
 31
0.0
  0
ARC
  5
9BD
330
1A
100
AcDbEntity
  8
ZUWAKU
100
AcDbCircle
 10
37.87586769741119
 20
22.72499961738137
 30
0.0
 40
0.525
100
AcDbArc
 50
342.4744316262769
 51
90.0
  0
LINE
  5
9BE
330
1A
100
AcDbEntity
  8
ZUWAKU
100
AcDbLine
 10
36.17697831780219
 20
23.24999961738138
 30
0.0
 11
37.87586769741119
 21
23.24999961738138
 31
0.0
  0
ARC
  5
9BF
330
1A
100
AcDbEntity
  8
ZUWAKU
100
AcDbCircle
 10
41.21721248129086
 20
22.72499961738137
 30
0.0
 40
0.525
100
AcDbArc
 50
90.0
 51
180.0
  0
LINE
  5
9C0
330
1A
100
AcDbEntity
  8
ZUWAKU
100
AcDbLine
 10
51.89221248129093
 20
20.44999961738138
 30
0.0
 11
48.91721248129091
 21
20.44999961738138
 31
0.0
  0
LINE
  5
9C1
330
1A
100
AcDbEntity
  8
ZUWAKU
100
AcDbLine
 10
48.39221248129092
 20
23.24999961738138
 30
0.0
 11
51.89221248129093
 21
23.24999961738138
 31
0.0
  0
ARC
  5
9C2
330
1A
100
AcDbEntity
  8
ZUWAKU
100
AcDbCircle
 10
48.39221248129092
 20
20.44999961738138
 30
0.0
 40
2.799999999999999
100
AcDbArc
 50
90.0
 51
180.0
  0
LINE
  5
9C3
330
1A
100
AcDbEntity
  8
ZUWAKU
100
AcDbLine
 10
45.59221248129086
 20
20.44999961738138
 30
0.0
 11
45.59221248129086
 21
18.63479759202603
 31
0.0
  0
ARC
  5
9C4
330
1A
100
AcDbEntity
  8
ZUWAKU
100
AcDbCircle
 10
42.96721248129085
 20
22.72499961738137
 30
0.0
 40
0.525
100
AcDbArc
 50
0.0
 51
90.0
  0
LINE
  5
9C5
330
1A
100
AcDbEntity
  8
ZUWAKU
100
AcDbLine
 10
48.39221248129092
 20
19.92499961738138
 30
0.0
 11
48.39221248129092
 21
18.63479759202603
 31
0.0
  0
ARC
  5
9C6
330
1A
100
AcDbEntity
  8
ZUWAKU
100
AcDbCircle
 10
48.91721248129091
 20
19.92499961738138
 30
0.0
 40
0.525
100
AcDbArc
 50
90.0
 51
180.0
  0
LINE
  5
9C7
330
1A
100
AcDbEntity
  8
ZUWAKU
100
AcDbLine
 10
52.4172124812909
 20
22.72499961738137
 30
0.0
 11
52.4172124812909
 21
20.97499961738138
 31
0.0
  0
ARC
  5
9C8
330
1A
100
AcDbEntity
  8
ZUWAKU
100
AcDbCircle
 10
51.89221248129093
 20
20.97499961738138
 30
0.0
 40
0.525
100
AcDbArc
 50
270.0
 51
0.0
  0
ARC
  5
9C9
330
1A
100
AcDbEntity
  8
ZUWAKU
100
AcDbCircle
 10
51.89221248129093
 20
22.72499961738137
 30
0.0
 40
0.525
100
AcDbArc
 50
0.0
 51
90.0
  0
LINE
  5
9CA
330
1A
100
AcDbEntity
  8
ZUWAKU
100
AcDbLine
 10
57.31721248129088
 20
23.24999961738138
 30
0.0
 11
55.56721248129088
 21
23.24999961738138
 31
0.0
  0
ARC
  5
9CB
330
1A
100
AcDbEntity
  8
ZUWAKU
100
AcDbCircle
 10
55.56721248129088
 20
22.72499961738137
 30
0.0
 40
0.525
100
AcDbArc
 50
90.0
 51
180.0
  0
ARC
  5
9CC
330
1A
100
AcDbEntity
  8
ZUWAKU
100
AcDbCircle
 10
57.31721248129088
 20
22.72499961738137
 30
0.0
 40
0.525
100
AcDbArc
 50
0.0
 51
90.0
  0
LINE
  5
9CD
330
1A
100
AcDbEntity
  8
ZUWAKU
100
AcDbLine
 10
68.51721248129092
 20
23.24999961738138
 30
0.0
 11
66.76721248129092
 21
23.24999961738138
 31
0.0
  0
ARC
  5
9CE
330
1A
100
AcDbEntity
  8
ZUWAKU
100
AcDbCircle
 10
61.86721248129083
 20
22.72499961738137
 30
0.0
 40
0.525
100
AcDbArc
 50
90.0
 51
180.0
  0
LINE
  5
9CF
330
1A
100
AcDbEntity
  8
ZUWAKU
100
AcDbLine
 10
63.61721248129083
 20
23.24999961738138
 30
0.0
 11
61.86721248129083
 21
23.24999961738138
 31
0.0
  0
ARC
  5
9D0
330
1A
100
AcDbEntity
  8
ZUWAKU
100
AcDbCircle
 10
63.61721248129083
 20
22.72499961738137
 30
0.0
 40
0.525
100
AcDbArc
 50
0.0
 51
90.0
  0
ARC
  5
9D1
330
1A
100
AcDbEntity
  8
ZUWAKU
100
AcDbCircle
 10
66.76721248129092
 20
22.72499961738137
 30
0.0
 40
0.525
100
AcDbArc
 50
90.0
 51
180.0
  0
ARC
  5
9D2
330
1A
100
AcDbEntity
  8
ZUWAKU
100
AcDbCircle
 10
68.51721248129092
 20
22.72499961738137
 30
0.0
 40
0.525
100
AcDbArc
 50
0.0
 51
90.0
  0
TEXT
  5
9D3
330
1A
100
AcDbEntity
  8
MOJI
100
AcDbText
 10
239.8272030073608
 20
18.00492067478876
 30
0.0
 40
5.599999999999999
  1
ブラケット正面打（吊）自在式
 41
0.9
  7
ｽﾀｲﾙ1
100
AcDbText
  0
TEXT
  5
9D4
330
1A
100
AcDbEntity
  8
MOJI
100
AcDbText
 10
239.8272030073608
 20
3.204920674788798
 30
0.0
 40
5.599999999999999
  1
ＲＶ１０５－４－１０～４５
 41
0.9
  7
ｽﾀｲﾙ1
100
AcDbText
  0
LINE
  5
9D5
330
1A
100
AcDbEntity
  8
ZUWAKU
100
AcDbLine
 10
208.4466016165774
 20
29.99999961738137
 30
0.0
 11
208.4466016165777
 21
0.7999996173814452
 31
0.0
  0
LINE
  5
9D6
330
1A
100
AcDbEntity
  8
ZUWAKU
100
AcDbLine
 10
208.6466016165775
 20
29.99999961738137
 30
0.0
 11
208.6466016165777
 21
0.7999996173814452
 31
0.0
  0
LINE
  5
9D7
330
1A
100
AcDbEntity
  8
ZUWAKU
100
AcDbLine
 10
208.2466016165776
 20
29.99999961738137
 30
0.0
 11
208.2466016165776
 21
0.7999996173814452
 31
0.0
  0
TEXT
  5
9D8
330
1A
100
AcDbEntity
  8
ZUWAKU
100
AcDbText
 10
209.7240466387872
 20
9.655356155766995
 30
0.0
 40
4.0
  1
サイズ
 41
0.9
  7
ｽﾀｲﾙ1
100
AcDbText
  0
TEXT
  5
9D9
330
1A
100
AcDbEntity
  8
ZUWAKU
100
AcDbText
 10
209.724046638787
 20
24.05535615576695
 30
0.0
 40
4.0
  1
品名
 41
0.9
  7
ｽﾀｲﾙ1
100
AcDbText
  0
TEXT
  5
9DA
330
1A
100
AcDbEntity
  8
ZUWAKU
100
AcDbText
 10
658.2039380138121
 20
18.00492067478876
 30
0.0
 40
5.599999999999999
  1
　　．　　．　　
 41
0.9
  7
ｽﾀｲﾙ1
100
AcDbText
  0
LINE
  5
9DB
330
1A
100
AcDbEntity
  8
ZUWAKU
100
AcDbLine
 10
648.8172028367139
 20
15.59999961738141
 30
0.0
 11
697.249010875051
 21
15.59999961738141
 31
0.0
  0
LINE
  5
9DC
330
1A
100
AcDbEntity
  8
ZUWAKU
100
AcDbLine
 10
648.8172028367142
 20
15.39999961738141
 30
0.0
 11
697.249010875051
 21
15.39999961738141
 31
0.0
  0
LINE
  5
9DD
330
1A
100
AcDbEntity
  8
ZUWAKU
100
AcDbLine
 10
648.8172028367139
 20
15.19999961738141
 30
0.0
 11
697.249010875051
 21
15.19999961738141
 31
0.0
  0
LINE
  5
9DE
330
1A
100
AcDbEntity
  8
ZUWAKU
100
AcDbLine
 10
505.1991798246506
 20
15.59999961738141
 30
0.0
 11
552.5269560926221
 21
15.59999961738141
 31
0.0
  0
LINE
  5
9DF
330
1A
100
AcDbEntity
  8
ZUWAKU
100
AcDbLine
 10
505.1991798246506
 20
15.39999961738141
 30
0.0
 11
552.5269560926221
 21
15.39999961738141
 31
0.0
  0
LINE
  5
9E0
330
1A
100
AcDbEntity
  8
ZUWAKU
100
AcDbLine
 10
505.1991798246506
 20
15.19999961738141
 30
0.0
 11
552.5269560926221
 21
15.19999961738141
 31
0.0
  0
LINE
  5
9E1
330
1A
100
AcDbEntity
  8
ZUWAKU
100
AcDbLine
 10
504.7991798246507
 20
29.99999961738137
 30
0.0
 11
504.7991798246507
 21
0.7999996173814452
 31
0.0
  0
LINE
  5
9E2
330
1A
100
AcDbEntity
  8
ZUWAKU
100
AcDbLine
 10
505.1991798246506
 20
29.99999961738137
 30
0.0
 11
505.1991798246509
 21
0.7999996173814452
 31
0.0
  0
LINE
  5
9E3
330
1A
100
AcDbEntity
  8
ZUWAKU
100
AcDbLine
 10
504.9991798246505
 20
29.99999961738137
 30
0.0
 11
504.9991798246508
 21
0.7999996173814452
 31
0.0
  0
TEXT
  5
9E4
330
1A
100
AcDbEntity
  8
MOJI
100
AcDbText
 10
528.0409082988226
 20
18.00492067478876
 30
0.0
 40
5.599999999999999
  1
Ａ３
 41
0.9
  7
ｽﾀｲﾙ1
100
AcDbText
  0
LINE
  5
9E5
330
1A
100
AcDbEntity
  8
ZUWAKU
100
AcDbLine
 10
447.4243642975011
 20
29.99999961738137
 30
0.0
 11
447.4243642975011
 21
0.7999996173814452
 31
0.0
  0
LINE
  5
9E6
330
1A
100
AcDbEntity
  8
ZUWAKU
100
AcDbLine
 10
447.824364297501
 20
29.99999961738137
 30
0.0
 11
447.8243642975012
 21
0.7999996173814452
 31
0.0
  0
LINE
  5
9E7
330
1A
100
AcDbEntity
  8
ZUWAKU
100
AcDbLine
 10
447.6243642975009
 20
29.99999961738137
 30
0.0
 11
447.6243642975012
 21
0.7999996173814452
 31
0.0
  0
TEXT
  5
9E8
330
1A
100
AcDbEntity
  8
MOJI
100
AcDbText
 10
464.5946263297487
 20
11.94261733904136
 30
0.0
 40
5.599999999999999
  1
ＬＨ５７□
 41
0.9
  7
ｽﾀｲﾙ1
100
AcDbText
  0
TEXT
  5
9E9
330
1A
100
AcDbEntity
  8
ZUWAKU
100
AcDbText
 10
462.6937619820169
 20
2.614070528520869
 30
0.0
 40
3.0
  1
□には色品番が入ります
 41
0.9
  7
ｽﾀｲﾙ1
100
AcDbText
  0
TEXT
  5
9EA
330
1A
100
AcDbEntity
  8
ZUWAKU
100
AcDbText
 10
506.6766248468605
 20
9.655356155766995
 30
0.0
 40
4.0
  1
縮尺
 41
0.9
  7
ｽﾀｲﾙ1
100
AcDbText
  0
TEXT
  5
9EB
330
1A
100
AcDbEntity
  8
MOJI
100
AcDbText
 10
528.0409082988226
 20
3.204920674788798
 30
0.0
 40
5.599999999999999
  1
１/２
 41
0.9
  7
ｽﾀｲﾙ1
100
AcDbText
  0
TEXT
  5
9EC
330
1A
100
AcDbEntity
  8
ZUWAKU
100
AcDbText
 10
449.3018093197106
 20
24.05535615576695
 30
0.0
 40
4.0
  1
品番
 41
0.9
  7
ｽﾀｲﾙ1
100
AcDbText
  0
TEXT
  5
9ED
330
1A
100
AcDbEntity
  8
ZUWAKU
100
AcDbText
 10
506.6766248468602
 20
24.05535615576695
 30
0.0
 40
4.0
  1
用紙
 41
0.9
  7
ｽﾀｲﾙ1
100
AcDbText
  0
LINE
  5
9EE
330
1A
100
AcDbEntity
  8
ZUWAKU
100
AcDbLine
 10
552.5269560926221
 20
29.99999961738137
 30
0.0
 11
552.5269560926221
 21
0.7999996173814452
 31
0.0
  0
LINE
  5
9EF
330
1A
100
AcDbEntity
  8
ZUWAKU
100
AcDbLine
 10
552.926956092622
 20
29.99999961738137
 30
0.0
 11
552.9269560926223
 21
0.7999996173814452
 31
0.0
  0
LINE
  5
9F0
330
1A
100
AcDbEntity
  8
ZUWAKU
100
AcDbLine
 10
552.726956092622
 20
29.99999961738137
 30
0.0
 11
552.7269560926222
 21
0.7999996173814452
 31
0.0
  0
LINE
  5
9F1
330
1A
100
AcDbEntity
  8
ZUWAKU
100
AcDbLine
 10
648.4172028367143
 20
29.99999961738137
 30
0.0
 11
648.4172028367143
 21
0.7999996173814452
 31
0.0
  0
LINE
  5
9F2
330
1A
100
AcDbEntity
  8
ZUWAKU
100
AcDbLine
 10
648.8172028367142
 20
29.99999961738137
 30
0.0
 11
648.8172028367143
 21
0.7999996173814452
 31
0.0
  0
LINE
  5
9F3
330
1A
100
AcDbEntity
  8
ZUWAKU
100
AcDbLine
 10
648.6172028367141
 20
29.99999961738137
 30
0.0
 11
648.6172028367143
 21
0.7999996173814452
 31
0.0
  0
TEXT
  5
9F4
330
1A
100
AcDbEntity
  8
ZUWAKU
100
AcDbText
 10
650.2946478589238
 20
24.05535615576695
 30
0.0
 40
4.0
  1
DATE
 41
0.9
  7
ｽﾀｲﾙ1
100
AcDbText
  0
TEXT
  5
9F5
330
1A
100
AcDbEntity
  8
ZUWAKU
100
AcDbText
 10
708.5280845187535
 20
17.55383895306818
 30
0.0
 40
6.0
  1
積水化学工業株式会社
 41
0.9
  7
ｽﾀｲﾙ1
100
AcDbText
  0
LINE
  5
9F6
330
1A
100
AcDbEntity
  8
ZUWAKU
100
AcDbLine
 10
697.8490108750508
 20
29.99999961738137
 30
0.0
 11
697.8490108750511
 21
0.7999996173814452
 31
0.0
  0
LINE
  5
9F7
330
1A
100
AcDbEntity
  8
ZUWAKU
100
AcDbLine
 10
697.6490108750509
 20
29.99999961738137
 30
0.0
 11
697.649010875051
 21
0.7999996173814452
 31
0.0
  0
LINE
  5
9F8
330
1A
100
AcDbEntity
  8
ZUWAKU
100
AcDbLine
 10
697.449010875051
 20
29.99999961738137
 30
0.0
 11
697.449010875051
 21
0.7999996173814452
 31
0.0
  0
LINE
  5
9F9
330
1A
100
AcDbEntity
  8
ZUWAKU
100
AcDbLine
 10
697.249010875051
 20
29.99999961738137
 30
0.0
 11
697.249010875051
 21
0.7999996173814452
 31
0.0
  0
TEXT
  5
9FA
330
1A
100
AcDbEntity
  8
ZUWAKU
100
AcDbText
 10
708.5280845187535
 20
6.648839931235443
 30
0.0
 40
6.0
  1
建材事業部
 41
0.9
  7
ｽﾀｲﾙ1
100
AcDbText
  0
VIEWPORT
  5
22
330
17
100
AcDbEntity
 67
     1
  8
0
100
AcDbViewport
 10
313.6808219178082
 20
148.5
 30
0.0
 40
627.3616438356165
 41
297.0
 68
     2
 69
     1
1001
ACAD
1000
MVIEW
1002
{
1070
    16
1010
0.0
1020
0.0
1030
0.0
1010
0.0
1020
0.0
1030
1.0
1040
0.0
1040
297.0
1040
313.6808219178082
1040
148.5
1040
50.0
1040
0.0
1040
0.0
1070
     0
1070
   100
1070
     1
1070
     0
1070
     0
1070
     0
1070
     0
1070
     0
1040
0.0
1040
0.0
1040
0.0
1040
1.0
1040
1.0
1040
10.0
1040
10.0
1070
     0
1002
{
1002
}
1002
}
  0
VIEWPORT
  5
64
330
17
100
AcDbEntity
 67
     1
  8
VIEWPORT
100
AcDbViewport
 10
210.0
 20
148.5
 30
0.0
 40
420.0
 41
297.0
 68
     1
 69
     2
1001
ACAD
1000
MVIEW
1002
{
1070
    16
1010
0.0
1020
0.0
1030
0.0
1010
0.0
1020
0.0
1030
1.0
1040
0.0
1040
605.8799999999998
1040
420.0
1040
297.0
1040
50.0
1040
0.0
1040
0.0
1070
     0
1070
   100
1070
     1
1070
     0
1070
     0
1070
     0
1070
     0
1070
     0
1040
0.0
1040
0.0
1040
0.0
1040
10.0
1040
10.0
1040
0.0
1040
0.0
1070
     0
1002
{
1002
}
1002
}
  0
ENDSEC
  0
SECTION
  2
OBJECTS
  0
DICTIONARY
  5
C
330
0
100
AcDbDictionary
  3
ACAD_GROUP
350
D
  3
ACAD_LAYOUT
350
84D
  3
ACAD_MLINESTYLE
350
E
  3
ACAD_PLOTSETTINGS
350
84E
  3
ACAD_PLOTSTYLENAME
350
84B
  3
ACDBHEADERROUNDTRIPXREC
350
A02
  0
DICTIONARY
  5
87C
330
1A
100
AcDbDictionary
280
     1
  3
ACAD_LAYOUTSELFREF
360
A24
  0
DICTIONARY
  5
87A
330
17
100
AcDbDictionary
280
     1
  3
ACAD_LAYOUTSELFREF
360
A23
  0
DICTIONARY
  5
D
102
{ACAD_REACTORS
330
C
102
}
330
C
100
AcDbDictionary
  0
DICTIONARY
  5
84D
102
{ACAD_REACTORS
330
C
102
}
330
C
100
AcDbDictionary
  0
DICTIONARY
  5
E
102
{ACAD_REACTORS
330
C
102
}
330
C
100
AcDbDictionary
  3
STANDARD
350
13
  0
DICTIONARY
  5
84E
102
{ACAD_REACTORS
330
C
102
}
330
C
100
AcDbDictionary
  0
ACDBDICTIONARYWDFLT
  5
84B
102
{ACAD_REACTORS
330
C
102
}
330
C
100
AcDbDictionary
281
     1
  3
Normal
350
84C
100
AcDbDictionaryWithDefault
340
84C
1001
ACAD
1000
TREAT_AS_HARD
1070
     0
  0
DICTIONARY
  5
A02
102
{ACAD_REACTORS
330
C
102
}
330
C
100
AcDbDictionary
  3
TSTACKALIGN
350
A03
  3
TSTACKSIZE
350
A04
  3
HYPERLINKBASE
350
A05
  3
STYLESHEET
350
A06
  3
LAYOUTDICT
350
A07
  3
PLOTSETDICT
350
A08
  3
PLOTSTYLNAMDICT
350
A09
  3
LWETCUNION
350
A0A
  3
INSUNITS
350
A0B
  3
CEPSNTYPE
350
A0C
  3
FINGERPRINTGUID
350
A0D
  3
VERSIONGUID
350
A0E
  3
PSVPSCALE
350
A0F
  3
DIMSTYLEDATA
350
A10
  3
PUCSORTHOREF
350
A11
  3
PUCSORTHOVIEW
350
A12
  3
PUCSBASE
350
A13
  3
PUCSORGTOP
350
A14
  3
PUCSORGBOTTOM
350
A15
  3
PUCSORGLEFT
350
A16
  3
PUCSORGRIGHT
350
A17
  3
PUCSORGFRONT
350
A18
  3
PUCSORGBACK
350
A19
  3
UCSORTHOREF
350
A1A
  3
UCSORTHOVIEW
350
A1B
  3
UCSBASE
350
A1C
  3
UCSORGTOP
350
A1D
  3
UCSORGBOTTOM
350
A1E
  3
UCSORGLEFT
350
A1F
  3
UCSORGRIGHT
350
A20
  3
UCSORGFRONT
350
A21
  3
UCSORGBACK
350
A22
  0
XRECORD
  5
A24
102
{ACAD_REACTORS
330
87C
102
}
330
87C
100
AcDbXrecord
340
1A
  0
XRECORD
  5
A23
102
{ACAD_REACTORS
330
87A
102
}
330
87A
100
AcDbXrecord
340
17
  0
MLINESTYLE
  5
13
102
{ACAD_REACTORS
330
E
102
}
330
E
100
AcDbMlineStyle
  2
STANDARD
 70
     0
  3

 62
     0
 51
90.0
 52
90.0
 71
     2
 49
0.5
 62
   256
  6
BYLAYER
 49
-0.5
 62
   256
  6
BYLAYER
  0
ACDBPLACEHOLDER
  5
84C
102
{ACAD_REACTORS
330
84B
102
}
330
84B
100
AcDbPlaceHolder
280
     0
  0
XRECORD
  5
A03
102
{ACAD_REACTORS
330
A02
102
}
330
A02
100
AcDbXrecord
 90
        1
  0
XRECORD
  5
A04
102
{ACAD_REACTORS
330
A02
102
}
330
A02
100
AcDbXrecord
 90
       70
  0
XRECORD
  5
A05
102
{ACAD_REACTORS
330
A02
102
}
330
A02
100
AcDbXrecord
  1

  0
XRECORD
  5
A06
102
{ACAD_REACTORS
330
A02
102
}
330
A02
100
AcDbXrecord
  1
systemprinter.ctb
  0
XRECORD
  5
A07
102
{ACAD_REACTORS
330
A02
102
}
330
A02
100
AcDbXrecord
340
84D
  0
XRECORD
  5
A08
102
{ACAD_REACTORS
330
A02
102
}
330
A02
100
AcDbXrecord
340
84E
  0
XRECORD
  5
A09
102
{ACAD_REACTORS
330
A02
102
}
330
A02
100
AcDbXrecord
340
84B
  0
XRECORD
  5
A0A
102
{ACAD_REACTORS
330
A02
102
}
330
A02
100
AcDbXrecord
 90
    10781
  0
XRECORD
  5
A0B
102
{ACAD_REACTORS
330
A02
102
}
330
A02
100
AcDbXrecord
 90
        0
  0
XRECORD
  5
A0C
102
{ACAD_REACTORS
330
A02
102
}
330
A02
100
AcDbXrecord
 90
        0
  0
XRECORD
  5
A0D
102
{ACAD_REACTORS
330
A02
102
}
330
A02
100
AcDbXrecord
  1
{D6BF9FB5-1C84-4883-91C1-70CAB27C0B6D}
  0
XRECORD
  5
A0E
102
{ACAD_REACTORS
330
A02
102
}
330
A02
100
AcDbXrecord
  1
{B3FBBBE4-6A0B-46E9-8904-35F64E84E3D4}
  0
XRECORD
  5
A0F
102
{ACAD_REACTORS
330
A02
102
}
330
A02
100
AcDbXrecord
 40
0.0
  0
XRECORD
  5
A10
102
{ACAD_REACTORS
330
A02
102
}
330
A02
100
AcDbXrecord
1000
DSTYLE
1002
{
1070
   341
340
6D
1070
   343
340
6D
1070
   344
340
6D
1070
   371
 70
    -1
1070
   372
 70
    -1
1002
}
  0
XRECORD
  5
A11
102
{ACAD_REACTORS
330
A02
102
}
330
A02
100
AcDbXrecord
340
0
  0
XRECORD
  5
A12
102
{ACAD_REACTORS
330
A02
102
}
330
A02
100
AcDbXrecord
 70
     0
  0
XRECORD
  5
A13
102
{ACAD_REACTORS
330
A02
102
}
330
A02
100
AcDbXrecord
340
0
  0
XRECORD
  5
A14
102
{ACAD_REACTORS
330
A02
102
}
330
A02
100
AcDbXrecord
 10
0.0
 20
0.0
 30
0.0
  0
XRECORD
  5
A15
102
{ACAD_REACTORS
330
A02
102
}
330
A02
100
AcDbXrecord
 10
0.0
 20
0.0
 30
0.0
  0
XRECORD
  5
A16
102
{ACAD_REACTORS
330
A02
102
}
330
A02
100
AcDbXrecord
 10
0.0
 20
0.0
 30
0.0
  0
XRECORD
  5
A17
102
{ACAD_REACTORS
330
A02
102
}
330
A02
100
AcDbXrecord
 10
0.0
 20
0.0
 30
0.0
  0
XRECORD
  5
A18
102
{ACAD_REACTORS
330
A02
102
}
330
A02
100
AcDbXrecord
 10
0.0
 20
0.0
 30
0.0
  0
XRECORD
  5
A19
102
{ACAD_REACTORS
330
A02
102
}
330
A02
100
AcDbXrecord
 10
0.0
 20
0.0
 30
0.0
  0
XRECORD
  5
A1A
102
{ACAD_REACTORS
330
A02
102
}
330
A02
100
AcDbXrecord
340
0
  0
XRECORD
  5
A1B
102
{ACAD_REACTORS
330
A02
102
}
330
A02
100
AcDbXrecord
 70
     0
  0
XRECORD
  5
A1C
102
{ACAD_REACTORS
330
A02
102
}
330
A02
100
AcDbXrecord
340
0
  0
XRECORD
  5
A1D
102
{ACAD_REACTORS
330
A02
102
}
330
A02
100
AcDbXrecord
 10
0.0
 20
0.0
 30
0.0
  0
XRECORD
  5
A1E
102
{ACAD_REACTORS
330
A02
102
}
330
A02
100
AcDbXrecord
 10
0.0
 20
0.0
 30
0.0
  0
XRECORD
  5
A1F
102
{ACAD_REACTORS
330
A02
102
}
330
A02
100
AcDbXrecord
 10
0.0
 20
0.0
 30
0.0
  0
XRECORD
  5
A20
102
{ACAD_REACTORS
330
A02
102
}
330
A02
100
AcDbXrecord
 10
0.0
 20
0.0
 30
0.0
  0
XRECORD
  5
A21
102
{ACAD_REACTORS
330
A02
102
}
330
A02
100
AcDbXrecord
 10
0.0
 20
0.0
 30
0.0
  0
XRECORD
  5
A22
102
{ACAD_REACTORS
330
A02
102
}
330
A02
100
AcDbXrecord
 10
0.0
 20
0.0
 30
0.0
  0
ENDSEC
  0
EOF
