  0
SECTION
  2
HEADER
  9
$ACADVER
  1
AC1014
  9
$ACADMAINTVER
 70
     9
  9
$DWGCODEPAGE
  3
ANSI_932
  9
$INSBASE
 10
0.0
 20
0.0
 30
0.0
  9
$EXTMIN
 10
-0.0256328098773793
 20
-0.0181264410437052
 30
-0.0000000100021362
  9
$EXTMAX
 10
797.6000995626677
 20
551.6452344607209
 30
0.0000000100021363
  9
$LIMMIN
 10
0.0
 20
0.0
  9
$LIMMAX
 10
840.0
 20
594.0
  9
$ORTHOMODE
 70
     0
  9
$REGENMODE
 70
     1
  9
$FILLMODE
 70
     1
  9
$QTEXTMODE
 70
     0
  9
$MIRRTEXT
 70
     1
  9
$DRAGMODE
 70
     2
  9
$LTSCALE
 40
2.0
  9
$OSMODE
 70
    35
  9
$ATTMODE
 70
     1
  9
$TEXTSIZE
 40
6.0
  9
$TRACEWID
 40
1.0
  9
$TEXTSTYLE
  7
STANDARD
  9
$CLAYER
  8
NOKITOI
  9
$CELTYPE
  6
BYLAYER
  9
$CECOLOR
 62
   256
  9
$CELTSCALE
 40
1.0
  9
$DELOBJ
 70
     1
  9
$DISPSILH
 70
     0
  9
$DIMSCALE
 40
1.0
  9
$DIMASZ
 40
7.0
  9
$DIMEXO
 40
6.0
  9
$DIMDLI
 40
14.0
  9
$DIMRND
 40
0.0
  9
$DIMDLE
 40
0.0
  9
$DIMEXE
 40
3.0
  9
$DIMTP
 40
0.0
  9
$DIMTM
 40
0.0
  9
$DIMTXT
 40
6.0
  9
$DIMCEN
 40
150.0
  9
$DIMTSZ
 40
0.0
  9
$DIMTOL
 70
     0
  9
$DIMLIM
 70
     0
  9
$DIMTIH
 70
     0
  9
$DIMTOH
 70
     0
  9
$DIMSE1
 70
     0
  9
$DIMSE2
 70
     0
  9
$DIMTAD
 70
     3
  9
$DIMZIN
 70
     0
  9
$DIMBLK
  1

  9
$DIMASO
 70
     1
  9
$DIMSHO
 70
     1
  9
$DIMPOST
  1

  9
$DIMAPOST
  1

  9
$DIMALT
 70
     0
  9
$DIMALTD
 70
     2
  9
$DIMALTF
 40
25.4
  9
$DIMLFAC
 40
1.0
  9
$DIMTOFL
 70
     1
  9
$DIMTVP
 40
0.0
  9
$DIMTIX
 70
     0
  9
$DIMSOXD
 70
     0
  9
$DIMSAH
 70
     1
  9
$DIMBLK1
  1
OPEN
  9
$DIMBLK2
  1
OPEN
  9
$DIMSTYLE
  2
STANDARD
  9
$DIMCLRD
 70
   256
  9
$DIMCLRE
 70
   256
  9
$DIMCLRT
 70
   256
  9
$DIMTFAC
 40
1.0
  9
$DIMGAP
 40
2.0
  9
$DIMJUST
 70
     0
  9
$DIMSD1
 70
     0
  9
$DIMSD2
 70
     0
  9
$DIMTOLJ
 70
     1
  9
$DIMTZIN
 70
     0
  9
$DIMALTZ
 70
     0
  9
$DIMALTTZ
 70
     0
  9
$DIMFIT
 70
     3
  9
$DIMUPT
 70
     0
  9
$DIMUNIT
 70
     2
  9
$DIMDEC
 70
     0
  9
$DIMTDEC
 70
     0
  9
$DIMALTU
 70
     2
  9
$DIMALTTD
 70
     2
  9
$DIMTXSTY
  7
STANDARD
  9
$DIMAUNIT
 70
     0
  9
$LUNITS
 70
     2
  9
$LUPREC
 70
     4
  9
$SKETCHINC
 40
1.0
  9
$FILLETRAD
 40
20.0
  9
$AUNITS
 70
     0
  9
$AUPREC
 70
     0
  9
$MENU
  1
.
  9
$ELEVATION
 40
0.0
  9
$PELEVATION
 40
0.0
  9
$THICKNESS
 40
0.0
  9
$LIMCHECK
 70
     0
  9
$BLIPMODE
 70
     0
  9
$CHAMFERA
 40
20.0
  9
$CHAMFERB
 40
20.0
  9
$CHAMFERC
 40
40.0
  9
$CHAMFERD
 40
0.0
  9
$SKPOLY
 70
     0
  9
$TDCREATE
 40
2451192.461454629
  9
$TDUPDATE
 40
2453802.484570312
  9
$TDINDWG
 40
0.0166181713
  9
$TDUSRTIMER
 40
0.0166181713
  9
$USRTIMER
 70
     1
  9
$ANGBASE
 50
0.0
  9
$ANGDIR
 70
     0
  9
$PDMODE
 70
     0
  9
$PDSIZE
 40
0.0
  9
$PLINEWID
 40
0.0
  9
$COORDS
 70
     1
  9
$SPLFRAME
 70
     0
  9
$SPLINETYPE
 70
     6
  9
$SPLINESEGS
 70
     8
  9
$ATTDIA
 70
     0
  9
$ATTREQ
 70
     1
  9
$HANDLING
 70
 10241
  9
$HANDSEED
  5
9AC
  9
$SURFTAB1
 70
     6
  9
$SURFTAB2
 70
     6
  9
$SURFTYPE
 70
     6
  9
$SURFU
 70
     6
  9
$SURFV
 70
     6
  9
$UCSNAME
  2

  9
$UCSORG
 10
0.0
 20
0.0
 30
0.0
  9
$UCSXDIR
 10
1.0
 20
0.0
 30
0.0
  9
$UCSYDIR
 10
0.0
 20
1.0
 30
0.0
  9
$PUCSNAME
  2

  9
$PUCSORG
 10
0.0
 20
0.0
 30
0.0
  9
$PUCSXDIR
 10
1.0
 20
0.0
 30
0.0
  9
$PUCSYDIR
 10
0.0
 20
1.0
 30
0.0
  9
$USERI1
 70
     0
  9
$USERI2
 70
     0
  9
$USERI3
 70
     0
  9
$USERI4
 70
     0
  9
$USERI5
 70
     0
  9
$USERR1
 40
0.0
  9
$USERR2
 40
0.0
  9
$USERR3
 40
0.0
  9
$USERR4
 40
0.0
  9
$USERR5
 40
0.0
  9
$WORLDVIEW
 70
     1
  9
$SHADEDGE
 70
     3
  9
$SHADEDIF
 70
    70
  9
$TILEMODE
 70
     1
  9
$MAXACTVP
 70
    16
  9
$PINSBASE
 10
0.0
 20
0.0
 30
0.0
  9
$PLIMCHECK
 70
     0
  9
$PEXTMIN
 10
0.0
 20
0.0
 30
0.0
  9
$PEXTMAX
 10
420.0
 20
297.0
 30
0.0
  9
$PLIMMIN
 10
0.0
 20
0.0
  9
$PLIMMAX
 10
420.0
 20
297.0
  9
$UNITMODE
 70
     0
  9
$VISRETAIN
 70
     0
  9
$PLINEGEN
 70
     0
  9
$PSLTSCALE
 70
     1
  9
$TREEDEPTH
 70
  3020
  9
$PICKSTYLE
 70
     1
  9
$CMLSTYLE
  2
STANDARD
  9
$CMLJUST
 70
     0
  9
$CMLSCALE
 40
1.0
  9
$PROXYGRAPHICS
 70
     1
  9
$MEASUREMENT
 70
     1
  0
ENDSEC
  0
SECTION
  2
CLASSES
  0
CLASS
  1
ACDBDICTIONARYWDFLT
  2
AcDbDictionaryWithDefault
  3
AutoCAD 2000
 90
        0
280
     0
281
     0
  0
CLASS
  1
ACDBPLACEHOLDER
  2
AcDbPlaceHolder
  3
AutoCAD 2000
 90
        0
280
     0
281
     0
  0
CLASS
  1
LAYOUT
  2
AcDbLayout
  3
AutoCAD 2000
 90
        0
280
     0
281
     0
  0
CLASS
  1
LONG_TRANSACTION
  2
AcDbLongTransaction
  3
AutoCAD 2000
 90
        0
280
     0
281
     0
  0
CLASS
  1
LWPOLYLINE
  2
AcDbPolyline
  3
AutoCAD 2000
 90
        0
280
     0
281
     1
  0
CLASS
  1
HATCH
  2
AcDbHatch
  3
AutoCAD 2000
 90
        0
280
     0
281
     1
  0
CLASS
  1
XRECORD
  2
AcDbXrecord
  3
AutoCAD 2000
 90
        0
280
     0
281
     0
  0
CLASS
  1
LONG_TRANSACTION
  2
AcDbLongTransaction
  3
AutoCAD 2000
 90
        0
280
     0
281
     0
  0
CLASS
  1
LWPOLYLINE
  2
AcDbPolyline
  3
AutoCAD 2000
 90
        0
280
     0
281
     1
  0
CLASS
  1
HATCH
  2
AcDbHatch
  3
AutoCAD 2000
 90
        0
280
     0
281
     1
  0
CLASS
  1
XRECORD
  2
AcDbXrecord
  3
AutoCAD 2000
 90
        0
280
     0
281
     0
  0
ENDSEC
  0
SECTION
  2
TABLES
  0
TABLE
  2
VPORT
  5
8
330
0
100
AcDbSymbolTable
 70
     2
  0
VPORT
  5
988
330
8
100
AcDbSymbolTableRecord
100
AcDbViewportTableRecord
  2
*ACTIVE
 70
     0
 10
0.0
 20
0.0
 11
1.0
 21
1.0
 12
437.6309607535383
 22
240.830095233662
 13
0.0
 23
0.0
 14
5.0
 24
5.0
 15
0.0
 25
0.0
 16
0.0
 26
0.0
 36
1.0
 17
0.0
 27
0.0
 37
0.0
 40
697.2123852009723
 41
1.795454545454545
 42
50.0
 43
0.0
 44
0.0
 50
0.0
 51
0.0
 71
     0
 72
   100
 73
     1
 74
     0
 75
     0
 76
     0
 77
     0
 78
     0
  0
ENDTAB
  0
TABLE
  2
LTYPE
  5
5
330
0
100
AcDbSymbolTable
 70
     3
  0
LTYPE
  5
14
330
5
100
AcDbSymbolTableRecord
100
AcDbLinetypeTableRecord
  2
BYBLOCK
 70
     0
  3

 72
    65
 73
     0
 40
0.0
  0
LTYPE
  5
15
330
5
100
AcDbSymbolTableRecord
100
AcDbLinetypeTableRecord
  2
BYLAYER
 70
     0
  3

 72
    65
 73
     0
 40
0.0
  0
LTYPE
  5
16
330
5
100
AcDbSymbolTableRecord
100
AcDbLinetypeTableRecord
  2
CONTINUOUS
 70
     0
  3
Solid line
 72
    65
 73
     0
 40
0.0
  0
LTYPE
  5
115
330
5
100
AcDbSymbolTableRecord
100
AcDbLinetypeTableRecord
  2
PHANTOM
 70
     0
  3
______  __  __  ______  __  __  ______  __  __ 
 72
    65
 73
     6
 40
2.5
 49
1.25
 74
     0
 49
-0.25
 74
     0
 49
0.25
 74
     0
 49
-0.25
 74
     0
 49
0.25
 74
     0
 49
-0.25
 74
     0
  0
LTYPE
  5
135
330
5
100
AcDbSymbolTableRecord
100
AcDbLinetypeTableRecord
  2
CENTER
 70
     0
  3
____ _ ____ _ ____ _ ____ _ ____ _ ____ _ ____ 
 72
    65
 73
     4
 40
2.0
 49
1.25
 74
     0
 49
-0.25
 74
     0
 49
0.25
 74
     0
 49
-0.25
 74
     0
  0
ENDTAB
  0
TABLE
  2
LAYER
  5
2
330
0
100
AcDbSymbolTable
 70
     9
  0
LAYER
  5
F
330
2
100
AcDbSymbolTableRecord
100
AcDbLayerTableRecord
  2
0
 70
     0
 62
     7
  6
CONTINUOUS
  0
LAYER
  5
62
330
2
100
AcDbSymbolTableRecord
100
AcDbLayerTableRecord
  2
VIEWPORT
 70
     0
 62
     7
  6
CONTINUOUS
  0
LAYER
  5
65
330
2
100
AcDbSymbolTableRecord
100
AcDbLayerTableRecord
  2
ZUWAKU
 70
     0
 62
     7
  6
CONTINUOUS
  0
LAYER
  5
143
330
2
100
AcDbSymbolTableRecord
100
AcDbLayerTableRecord
  2
SEIHIN
 70
     0
 62
     3
  6
CONTINUOUS
  0
LAYER
  5
144
330
2
100
AcDbSymbolTableRecord
100
AcDbLayerTableRecord
  2
SUNPOU
 70
     0
 62
     4
  6
CONTINUOUS
  0
LAYER
  5
145
330
2
100
AcDbSymbolTableRecord
100
AcDbLayerTableRecord
  2
CENTER_L
 70
     0
 62
     1
  6
CENTER
  0
LAYER
  5
146
330
2
100
AcDbSymbolTableRecord
100
AcDbLayerTableRecord
  2
NOKITOI
 70
     0
 62
     8
  6
PHANTOM
  0
LAYER
  5
4E2
330
2
100
AcDbSymbolTableRecord
100
AcDbLayerTableRecord
  2
DEFPOINTS
 70
     0
 62
     7
  6
CONTINUOUS
  0
LAYER
  5
811
330
2
100
AcDbSymbolTableRecord
100
AcDbLayerTableRecord
  2
MOJI
 70
     0
 62
     2
  6
CONTINUOUS
  0
ENDTAB
  0
TABLE
  2
STYLE
  5
3
330
0
100
AcDbSymbolTable
 70
     2
  0
STYLE
  5
10
330
3
100
AcDbSymbolTableRecord
100
AcDbTextStyleTableRecord
  2
STANDARD
 70
     0
 40
0.0
 41
1.0
 50
0.0
 71
     0
 42
6.0
  3
TXT
  4
bigfont.shx
  0
STYLE
  5
812
330
3
100
AcDbSymbolTableRecord
100
AcDbTextStyleTableRecord
  2
ｽﾀｲﾙ1
 70
     0
 40
0.0
 41
1.0
 50
0.0
 71
     0
 42
2.5
  3
MS PGothic.ttf
  4

1001
ACAD
1000
MS PGothic
1071
    32818
  0
ENDTAB
  0
TABLE
  2
VIEW
  5
6
330
0
100
AcDbSymbolTable
 70
     0
  0
ENDTAB
  0
TABLE
  2
UCS
  5
7
330
0
100
AcDbSymbolTable
 70
     0
  0
ENDTAB
  0
TABLE
  2
APPID
  5
9
330
0
100
AcDbSymbolTable
 70
     1
  0
APPID
  5
11
330
9
100
AcDbSymbolTableRecord
100
AcDbRegAppTableRecord
  2
ACAD
 70
     0
  0
ENDTAB
  0
TABLE
  2
DIMSTYLE
  5
A
330
0
100
AcDbSymbolTable
 70
     1
  0
DIMSTYLE
105
1D
102
{ACAD_REACTORS
330
4E7
330
4F4
330
503
330
512
330
521
330
52E
330
589
330
598
330
5A5
330
5B4
330
5C4
330
5D6
330
606
330
617
330
765
102
}
330
A
100
AcDbSymbolTableRecord
100
AcDbDimStyleTableRecord
  2
STANDARD
 70
     0
  3

  4

  5

  6

  7

 40
1.0
 41
0.18
 42
0.0625
 43
0.38
 44
0.18
 45
0.0
 46
0.0
 47
0.0
 48
0.0
140
0.18
141
0.09
142
0.0
143
25.4
144
1.0
145
0.0
146
1.0
147
0.09
 71
     0
 72
     0
 73
     1
 74
     1
 75
     0
 76
     0
 77
     0
 78
     0
170
     0
171
     2
172
     0
173
     0
174
     0
175
     0
176
     0
177
     0
178
     0
270
     2
271
     4
272
     4
273
     2
274
     2
340
10
275
     0
280
     0
281
     0
282
     0
283
     1
284
     0
285
     0
286
     0
287
     3
288
     0
  0
ENDTAB
  0
TABLE
  2
BLOCK_RECORD
  5
1
330
0
100
AcDbSymbolTable
 70
    16
  0
BLOCK_RECORD
  5
1A
102
{ACAD_XDICTIONARY
360
803
102
}
330
1
100
AcDbSymbolTableRecord
100
AcDbBlockTableRecord
  2
*MODEL_SPACE
  0
BLOCK_RECORD
  5
17
102
{ACAD_XDICTIONARY
360
801
102
}
330
1
100
AcDbSymbolTableRecord
100
AcDbBlockTableRecord
  2
*PAPER_SPACE
  0
BLOCK_RECORD
  5
6D
330
1
100
AcDbSymbolTableRecord
100
AcDbBlockTableRecord
  2
_OPEN
  0
BLOCK_RECORD
  5
4DA
330
1
100
AcDbSymbolTableRecord
100
AcDbBlockTableRecord
  2
*D1
  0
BLOCK_RECORD
  5
4E8
330
1
100
AcDbSymbolTableRecord
100
AcDbBlockTableRecord
  2
*D2
  0
BLOCK_RECORD
  5
4F5
330
1
100
AcDbSymbolTableRecord
100
AcDbBlockTableRecord
  2
*D3
  0
BLOCK_RECORD
  5
504
330
1
100
AcDbSymbolTableRecord
100
AcDbBlockTableRecord
  2
*D4
  0
BLOCK_RECORD
  5
513
330
1
100
AcDbSymbolTableRecord
100
AcDbBlockTableRecord
  2
*D5
  0
BLOCK_RECORD
  5
522
330
1
100
AcDbSymbolTableRecord
100
AcDbBlockTableRecord
  2
*D6
  0
BLOCK_RECORD
  5
57B
330
1
100
AcDbSymbolTableRecord
100
AcDbBlockTableRecord
  2
*D7
  0
BLOCK_RECORD
  5
58A
330
1
100
AcDbSymbolTableRecord
100
AcDbBlockTableRecord
  2
*D8
  0
BLOCK_RECORD
  5
599
330
1
100
AcDbSymbolTableRecord
100
AcDbBlockTableRecord
  2
*D9
  0
BLOCK_RECORD
  5
5A6
330
1
100
AcDbSymbolTableRecord
100
AcDbBlockTableRecord
  2
*D10
  0
BLOCK_RECORD
  5
5B8
330
1
100
AcDbSymbolTableRecord
100
AcDbBlockTableRecord
  2
*D11
  0
BLOCK_RECORD
  5
5CA
330
1
100
AcDbSymbolTableRecord
100
AcDbBlockTableRecord
  2
*D12
  0
BLOCK_RECORD
  5
5FA
330
1
100
AcDbSymbolTableRecord
100
AcDbBlockTableRecord
  2
*D13
  0
BLOCK_RECORD
  5
609
330
1
100
AcDbSymbolTableRecord
100
AcDbBlockTableRecord
  2
*D14
  0
BLOCK_RECORD
  5
759
330
1
100
AcDbSymbolTableRecord
100
AcDbBlockTableRecord
  2
*D15
  0
ENDTAB
  0
ENDSEC
  0
SECTION
  2
BLOCKS
  0
BLOCK
  5
1B
330
1A
100
AcDbEntity
  8
0
100
AcDbBlockBegin
  2
*MODEL_SPACE
 70
     0
 10
0.0
 20
0.0
 30
0.0
  3
*MODEL_SPACE
  1

  0
ENDBLK
  5
1C
330
1A
100
AcDbEntity
  8
0
100
AcDbBlockEnd
  0
BLOCK
  5
18
330
17
100
AcDbEntity
 67
     1
  8
0
100
AcDbBlockBegin
  2
*PAPER_SPACE
 70
     0
 10
0.0
 20
0.0
 30
0.0
  3
*PAPER_SPACE
  1

  0
ENDBLK
  5
19
330
17
100
AcDbEntity
 67
     1
  8
0
100
AcDbBlockEnd
  0
BLOCK
  5
6E
330
6D
100
AcDbEntity
  8
0
100
AcDbBlockBegin
  2
_OPEN
 70
     0
 10
0.0
 20
0.0
 30
0.0
  3
_OPEN
  1

  0
LINE
  5
6F
330
6D
100
AcDbEntity
  8
0
  6
BYBLOCK
 62
     0
100
AcDbLine
 10
-1.0
 20
0.1666666666666666
 30
0.0
 11
0.0
 21
0.0
 31
0.0
  0
LINE
  5
70
330
6D
100
AcDbEntity
  8
0
  6
BYBLOCK
 62
     0
100
AcDbLine
 10
0.0
 20
0.0
 30
0.0
 11
-1.0
 21
-0.1666666666666666
 31
0.0
  0
LINE
  5
71
330
6D
100
AcDbEntity
  8
0
  6
BYBLOCK
 62
     0
100
AcDbLine
 10
0.0
 20
0.0
 30
0.0
 11
-1.0
 21
0.0
 31
0.0
  0
ENDBLK
  5
72
330
6D
100
AcDbEntity
  8
0
100
AcDbBlockEnd
  0
BLOCK
  5
547
330
4DA
100
AcDbEntity
  8
0
100
AcDbBlockBegin
  2
*D1
 70
     1
 10
0.0
 20
0.0
 30
0.0
  3
*D1
  1

  0
LINE
  5
548
330
4DA
100
AcDbEntity
  8
0
  6
BYBLOCK
 62
     4
100
AcDbLine
 10
574.3595480220672
 20
446.5589867574815
 30
0.0
 11
562.0569328312462
 21
470.966928026888
 31
0.0
  0
LINE
  5
549
330
4DA
100
AcDbEntity
  8
0
  6
BYBLOCK
 62
     4
100
AcDbLine
 10
616.3849480220672
 20
467.6035867574815
 30
0.0
 11
604.0268886468886
 21
492.1215272729459
 31
0.0
  0
LINE
  5
54A
330
4DA
100
AcDbEntity
  8
0
  6
BYBLOCK
 62
     4
100
AcDbLine
 10
569.6580807582363
 20
471.4386802839166
 30
0.0
 11
599.1263313661229
 21
486.2919013554504
 31
0.0
  0
INSERT
  5
54B
330
4DA
100
AcDbEntity
  8
0
  6
BYBLOCK
 62
     4
100
AcDbBlockReference
  2
_OPEN
 10
563.4072281543584
 20
468.2879911966546
 30
0.0
 41
7.0
 42
7.0
 43
7.0
 50
206.7499999999999
  0
INSERT
  5
54C
330
4DA
100
AcDbEntity
  8
0
  6
BYBLOCK
 62
     4
100
AcDbBlockReference
  2
_OPEN
 10
605.3771839700009
 20
489.4425904427124
 30
0.0
 41
7.0
 42
7.0
 43
7.0
 50
26.74999999999998
  0
MTEXT
  5
54D
330
4DA
100
AcDbEntity
  8
0
  6
BYBLOCK
 62
     4
100
AcDbMText
 10
582.1417138569925
 20
483.3301855367392
 30
0.0
 40
6.0
 41
0.0
 71
     5
 72
     5
  1
\A1;47
 11
0.8929789434111372
 21
0.4500984410374348
 31
0.0
1001
ACAD
1000
MTEXTBEGIN
1070
    73
1070
     1
1070
    44
1040
1.0
1070
    74
1070
     0
1000
MTEXTEND
1000
MTEXTBEGIN
1070
    73
1070
     1
1070
    44
1040
1.0
1070
    74
1070
     0
1000
MTEXTEND
  0
POINT
  5
54E
330
4DA
100
AcDbEntity
  8
DEFPOINTS
  6
BYBLOCK
 62
     0
100
AcDbPoint
 10
577.0601386682917
 20
441.2011130970147
 30
0.0
  0
POINT
  5
54F
330
4DA
100
AcDbEntity
  8
DEFPOINTS
  6
BYBLOCK
 62
     0
100
AcDbPoint
 10
619.0855386682919
 20
462.2457130970146
 30
0.0
  0
POINT
  5
550
330
4DA
100
AcDbEntity
  8
DEFPOINTS
  6
BYBLOCK
 62
     0
100
AcDbPoint
 10
605.3771839700009
 20
489.4425904427124
 30
0.0
  0
ENDBLK
  5
551
330
4DA
100
AcDbEntity
  8
0
100
AcDbBlockEnd
  0
BLOCK
  5
53C
330
4E8
100
AcDbEntity
  8
0
100
AcDbBlockBegin
  2
*D2
 70
     1
 10
0.0
 20
0.0
 30
0.0
  3
*D2
  1

  0
LINE
  5
53D
330
4E8
100
AcDbEntity
  8
0
  6
BYBLOCK
 62
     4
100
AcDbLine
 10
568.901148022067
 20
439.5925867574814
 30
0.0
 11
548.5469089059091
 21
479.9746571729897
 31
0.0
  0
LINE
  5
53E
330
4E8
100
AcDbEntity
  8
0
  6
BYBLOCK
 62
     4
100
AcDbLine
 10
625.2328480220673
 20
467.8013867574812
 30
0.0
 11
604.8043669990191
 21
508.3307504171497
 31
0.0
  0
LINE
  5
53F
330
4E8
100
AcDbEntity
  8
0
  6
BYBLOCK
 62
     4
100
AcDbLine
 10
556.1480568328994
 20
480.4464094300184
 30
0.0
 11
599.9038097182534
 21
502.5011244996542
 31
0.0
  0
INSERT
  5
540
330
4E8
100
AcDbEntity
  8
0
  6
BYBLOCK
 62
     4
100
AcDbBlockReference
  2
_OPEN
 10
549.8972042290215
 20
477.2957203427563
 30
0.0
 41
7.0
 42
7.0
 43
7.0
 50
206.7499999999999
  0
INSERT
  5
541
330
4E8
100
AcDbEntity
  8
0
  6
BYBLOCK
 62
     4
100
AcDbBlockReference
  2
_OPEN
 10
606.1546623221314
 20
505.6518135869163
 30
0.0
 41
7.0
 42
7.0
 43
7.0
 50
26.74999999999998
  0
MTEXT
  5
542
330
4E8
100
AcDbEntity
  8
0
  6
BYBLOCK
 62
     4
100
AcDbMText
 10
575.7754410703892
 20
495.938661681892
 30
0.0
 40
6.0
 41
0.0
 71
     5
 72
     5
  1
\A1;63
 11
0.8929789434111372
 21
0.4500984410374348
 31
0.0
1001
ACAD
1000
MTEXTBEGIN
1070
    73
1070
     1
1070
    44
1040
1.0
1070
    74
1070
     0
1000
MTEXTEND
1000
MTEXTBEGIN
1070
    73
1070
     1
1070
    44
1040
1.0
1070
    74
1070
     0
1000
MTEXTEND
  0
POINT
  5
543
330
4E8
100
AcDbEntity
  8
DEFPOINTS
  6
BYBLOCK
 62
     0
100
AcDbPoint
 10
571.6017386682916
 20
434.2347130970146
 30
0.0
  0
POINT
  5
544
330
4E8
100
AcDbEntity
  8
DEFPOINTS
  6
BYBLOCK
 62
     0
100
AcDbPoint
 10
627.9334386682919
 20
462.4435130970145
 30
0.0
  0
POINT
  5
545
330
4E8
100
AcDbEntity
  8
DEFPOINTS
  6
BYBLOCK
 62
     0
100
AcDbPoint
 10
606.1546623221314
 20
505.6518135869163
 30
0.0
  0
ENDBLK
  5
546
330
4E8
100
AcDbEntity
  8
0
100
AcDbBlockEnd
  0
BLOCK
  5
52F
330
4F5
100
AcDbEntity
  8
0
100
AcDbBlockBegin
  2
*D3
 70
     1
 10
0.0
 20
0.0
 30
0.0
  3
*D3
  1

  0
LINE
  5
530
330
4F5
100
AcDbEntity
  8
0
  6
BYBLOCK
 62
     4
100
AcDbLine
 10
569.7304650078243
 20
433.2801224507896
 30
0.0
 11
511.19888920011
 21
403.7777795154902
 31
0.0
  0
LINE
  5
531
330
4F5
100
AcDbEntity
  8
0
  6
BYBLOCK
 62
     4
100
AcDbLine
 10
570.7078650078243
 20
444.9532224507897
 30
0.0
 11
506.7051485443892
 21
412.6931976037201
 31
0.0
  0
LINE
  5
532
330
4F5
100
AcDbEntity
  8
0
  6
BYBLOCK
 62
     4
100
AcDbLine
 10
517.0285151176054
 20
398.8772222347245
 30
0.0
 11
520.1792042048675
 21
392.6263696308466
 31
0.0
  0
LINE
  5
533
330
4F5
100
AcDbEntity
  8
0
  6
BYBLOCK
 62
     4
100
AcDbLine
 10
506.2333962873605
 20
420.2943455307104
 30
0.0
 11
498.1316243486867
 21
436.3679665121109
 31
0.0
  0
LINE
  5
534
330
4F5
100
AcDbEntity
  8
0
  6
BYBLOCK
 62
     4
100
AcDbLine
 10
513.8778260303434
 20
405.1280748386025
 30
0.0
 11
509.3840853746225
 21
414.0434929268324
 31
0.0
  0
INSERT
  5
535
330
4F5
100
AcDbEntity
  8
0
  6
BYBLOCK
 62
     4
100
AcDbBlockReference
  2
_OPEN
 10
513.8778260303434
 20
405.1280748386025
 30
0.0
 41
7.0
 42
7.0
 43
7.0
 50
116.75
  0
INSERT
  5
536
330
4F5
100
AcDbEntity
  8
0
  6
BYBLOCK
 62
     4
100
AcDbBlockReference
  2
_OPEN
 10
509.3840853746225
 20
414.0434929268324
 30
0.0
 41
7.0
 42
7.0
 43
7.0
 50
296.75
  0
MTEXT
  5
537
330
4F5
100
AcDbEntity
  8
0
  6
BYBLOCK
 62
     4
100
AcDbMText
 10
505.0720604914483
 20
433.7070745285368
 30
0.0
 40
6.0
 41
0.0
 71
     5
 72
     5
  1
\A1;10
 11
0.4500984410374353
 21
-0.8929789434111368
 31
0.0
1001
ACAD
1000
MTEXTBEGIN
1070
    73
1070
     1
1070
    44
1040
1.0
1070
    74
1070
     0
1000
MTEXTEND
1000
MTEXTBEGIN
1070
    73
1070
     1
1070
    44
1040
1.0
1070
    74
1070
     0
1000
MTEXTEND
  0
POINT
  5
538
330
4F5
100
AcDbEntity
  8
DEFPOINTS
  6
BYBLOCK
 62
     0
100
AcDbPoint
 10
575.0883386682911
 20
435.9807130970142
 30
0.0
  0
POINT
  5
539
330
4F5
100
AcDbEntity
  8
DEFPOINTS
  6
BYBLOCK
 62
     0
100
AcDbPoint
 10
576.0657386682912
 20
447.6538130970142
 30
0.0
  0
POINT
  5
53A
330
4F5
100
AcDbEntity
  8
DEFPOINTS
  6
BYBLOCK
 62
     0
100
AcDbPoint
 10
509.3840853746225
 20
414.0434929268324
 30
0.0
  0
ENDBLK
  5
53B
330
4F5
100
AcDbEntity
  8
0
100
AcDbBlockEnd
  0
BLOCK
  5
56A
330
504
100
AcDbEntity
  8
0
100
AcDbBlockBegin
  2
*D4
 70
     1
 10
0.0
 20
0.0
 30
0.0
  3
*D4
  1

  0
LINE
  5
56B
330
504
100
AcDbEntity
  8
0
  6
BYBLOCK
 62
     4
100
AcDbLine
 10
570.7078650078243
 20
444.9532224507897
 30
0.0
 11
492.8492180875276
 21
405.7092337109846
 31
0.0
  0
LINE
  5
56C
330
504
100
AcDbEntity
  8
0
  6
BYBLOCK
 62
     4
100
AcDbLine
 10
570.6829650078247
 20
428.1652224507898
 30
0.0
 11
499.5917481192436
 21
392.3322992569085
 31
0.0
  0
LINE
  5
56D
330
504
100
AcDbEntity
  8
0
  6
BYBLOCK
 62
     4
100
AcDbLine
 10
492.377465830499
 20
413.3103816379749
 30
0.0
 11
489.226776743237
 21
419.5612342418528
 31
0.0
  0
LINE
  5
56E
330
504
100
AcDbEntity
  8
0
  6
BYBLOCK
 62
     4
100
AcDbLine
 10
505.4213740367391
 20
387.4317419761429
 30
0.0
 11
508.5720631240011
 21
381.180889372265
 31
0.0
  0
LINE
  5
56F
330
504
100
AcDbEntity
  8
0
  6
BYBLOCK
 62
     4
100
AcDbLine
 10
495.5281549177611
 20
407.0595290340969
 30
0.0
 11
502.270684949477
 21
393.6825945800208
 31
0.0
  0
INSERT
  5
570
330
504
100
AcDbEntity
  8
0
  6
BYBLOCK
 62
     4
100
AcDbBlockReference
  2
_OPEN
 10
495.5281549177611
 20
407.0595290340969
 30
0.0
 41
7.0
 42
7.0
 43
7.0
 50
296.75
  0
INSERT
  5
571
330
504
100
AcDbEntity
  8
0
  6
BYBLOCK
 62
     4
100
AcDbBlockReference
  2
_OPEN
 10
502.270684949477
 20
393.6825945800208
 30
0.0
 41
7.0
 42
7.0
 43
7.0
 50
116.75
  0
MTEXT
  5
572
330
504
100
AcDbEntity
  8
0
  6
BYBLOCK
 62
     4
100
AcDbMText
 10
503.3643146506747
 20
402.6215540122461
 30
0.0
 40
6.0
 41
0.0
 71
     5
 72
     5
  1
\A1;15
 11
0.4500984410374353
 21
-0.8929789434111368
 31
0.0
1001
ACAD
1000
MTEXTBEGIN
1070
    73
1070
     1
1070
    44
1040
1.0
1070
    74
1070
     0
1000
MTEXTEND
1000
MTEXTBEGIN
1070
    73
1070
     1
1070
    44
1040
1.0
1070
    74
1070
     0
1000
MTEXTEND
  0
POINT
  5
573
330
504
100
AcDbEntity
  8
DEFPOINTS
  6
BYBLOCK
 62
     0
100
AcDbPoint
 10
576.0657386682912
 20
447.6538130970142
 30
0.0
  0
POINT
  5
574
330
504
100
AcDbEntity
  8
DEFPOINTS
  6
BYBLOCK
 62
     0
100
AcDbPoint
 10
576.0408386682914
 20
430.8658130970144
 30
0.0
  0
POINT
  5
575
330
504
100
AcDbEntity
  8
DEFPOINTS
  6
BYBLOCK
 62
     0
100
AcDbPoint
 10
502.270684949477
 20
393.6825945800208
 30
0.0
  0
ENDBLK
  5
576
330
504
100
AcDbEntity
  8
0
100
AcDbBlockEnd
  0
BLOCK
  5
55D
330
513
100
AcDbEntity
  8
0
100
AcDbBlockBegin
  2
*D5
 70
     1
 10
0.0
 20
0.0
 30
0.0
  3
*D5
  1

  0
LINE
  5
55E
330
513
100
AcDbEntity
  8
0
  6
BYBLOCK
 62
     4
100
AcDbLine
 10
582.7571650078249
 20
406.2522224507898
 30
0.0
 11
524.7012316235612
 21
376.9896230333706
 31
0.0
  0
LINE
  5
55F
330
513
100
AcDbEntity
  8
0
  6
BYBLOCK
 62
     4
100
AcDbLine
 10
593.0956650078246
 20
400.2455224507897
 30
0.0
 11
529.2099574354816
 21
368.0444749400355
 31
0.0
  0
LINE
  5
560
330
513
100
AcDbEntity
  8
0
  6
BYBLOCK
 62
     4
100
AcDbLine
 10
524.2294793665325
 20
384.5907709603609
 30
0.0
 11
521.0787902792706
 21
390.8416235642389
 31
0.0
  0
LINE
  5
561
330
513
100
AcDbEntity
  8
0
  6
BYBLOCK
 62
     4
100
AcDbLine
 10
535.039583352977
 20
363.1439176592698
 30
0.0
 11
543.1413552916509
 21
347.0702966778694
 31
0.0
  0
LINE
  5
562
330
513
100
AcDbEntity
  8
0
  6
BYBLOCK
 62
     4
100
AcDbLine
 10
527.3801684537946
 20
378.339918356483
 30
0.0
 11
531.888894265715
 21
369.3947702631478
 31
0.0
  0
INSERT
  5
563
330
513
100
AcDbEntity
  8
0
  6
BYBLOCK
 62
     4
100
AcDbBlockReference
  2
_OPEN
 10
527.3801684537946
 20
378.339918356483
 30
0.0
 41
7.0
 42
7.0
 43
7.0
 50
296.75
  0
INSERT
  5
564
330
513
100
AcDbEntity
  8
0
  6
BYBLOCK
 62
     4
100
AcDbBlockReference
  2
_OPEN
 10
531.888894265715
 20
369.3947702631478
 30
0.0
 41
7.0
 42
7.0
 43
7.0
 50
116.75
  0
MTEXT
  5
565
330
513
100
AcDbEntity
  8
0
  6
BYBLOCK
 62
     4
100
AcDbMText
 10
545.1307085830007
 20
354.2321730718178
 30
0.0
 40
6.0
 41
0.0
 71
     5
 72
     5
  1
\A1;10
 11
0.4500984410374353
 21
-0.8929789434111368
 31
0.0
1001
ACAD
1000
MTEXTBEGIN
1070
    73
1070
     1
1070
    44
1040
1.0
1070
    74
1070
     0
1000
MTEXTEND
1000
MTEXTBEGIN
1070
    73
1070
     1
1070
    44
1040
1.0
1070
    74
1070
     0
1000
MTEXTEND
  0
POINT
  5
566
330
513
100
AcDbEntity
  8
DEFPOINTS
  6
BYBLOCK
 62
     0
100
AcDbPoint
 10
588.1150386682917
 20
408.9528130970144
 30
0.0
  0
POINT
  5
567
330
513
100
AcDbEntity
  8
DEFPOINTS
  6
BYBLOCK
 62
     0
100
AcDbPoint
 10
598.4535386682916
 20
402.9461130970142
 30
0.0
  0
POINT
  5
568
330
513
100
AcDbEntity
  8
DEFPOINTS
  6
BYBLOCK
 62
     0
100
AcDbPoint
 10
531.888894265715
 20
369.3947702631478
 30
0.0
  0
ENDBLK
  5
569
330
513
100
AcDbEntity
  8
0
100
AcDbBlockEnd
  0
BLOCK
  5
552
330
522
100
AcDbEntity
  8
0
100
AcDbBlockBegin
  2
*D6
 70
     1
 10
0.0
 20
0.0
 30
0.0
  3
*D6
  1

  0
LINE
  5
553
330
522
100
AcDbEntity
  8
0
  6
BYBLOCK
 62
     4
100
AcDbLine
 10
570.7078650078243
 20
444.9532224507897
 30
0.0
 11
478.9932876306661
 21
398.7252698182491
 31
0.0
  0
LINE
  5
554
330
522
100
AcDbEntity
  8
0
  6
BYBLOCK
 62
     4
100
AcDbLine
 10
593.0956650078246
 20
400.2455224507897
 30
0.0
 11
501.4980965217585
 21
354.0765471545644
 31
0.0
  0
LINE
  5
555
330
522
100
AcDbEntity
  8
0
  6
BYBLOCK
 62
     4
100
AcDbLine
 10
484.8229135481616
 20
393.8247125374834
 30
0.0
 11
501.0263442647299
 21
361.6776950815547
 31
0.0
  0
INSERT
  5
556
330
522
100
AcDbEntity
  8
0
  6
BYBLOCK
 62
     4
100
AcDbBlockReference
  2
_OPEN
 10
481.6722244608995
 20
400.0755651413614
 30
0.0
 41
7.0
 42
7.0
 43
7.0
 50
116.75
  0
INSERT
  5
557
330
522
100
AcDbEntity
  8
0
  6
BYBLOCK
 62
     4
100
AcDbBlockReference
  2
_OPEN
 10
504.1770333519919
 20
355.4268424776768
 30
0.0
 41
7.0
 42
7.0
 43
7.0
 50
296.75
  0
MTEXT
  5
558
330
522
100
AcDbEntity
  8
0
  6
BYBLOCK
 62
     4
100
AcDbMText
 10
497.3895236235015
 20
380.0016960147063
 30
0.0
 40
6.0
 41
0.0
 71
     5
 72
     5
  1
\A1;50
 11
0.4500984410374353
 21
-0.8929789434111368
 31
0.0
1001
ACAD
1000
MTEXTBEGIN
1070
    73
1070
     1
1070
    44
1040
1.0
1070
    74
1070
     0
1000
MTEXTEND
1000
MTEXTBEGIN
1070
    73
1070
     1
1070
    44
1040
1.0
1070
    74
1070
     0
1000
MTEXTEND
  0
POINT
  5
559
330
522
100
AcDbEntity
  8
DEFPOINTS
  6
BYBLOCK
 62
     0
100
AcDbPoint
 10
576.0657386682912
 20
447.6538130970142
 30
0.0
  0
POINT
  5
55A
330
522
100
AcDbEntity
  8
DEFPOINTS
  6
BYBLOCK
 62
     0
100
AcDbPoint
 10
598.4535386682916
 20
402.9461130970142
 30
0.0
  0
POINT
  5
55B
330
522
100
AcDbEntity
  8
DEFPOINTS
  6
BYBLOCK
 62
     0
100
AcDbPoint
 10
504.1770333519919
 20
355.4268424776768
 30
0.0
  0
ENDBLK
  5
55C
330
522
100
AcDbEntity
  8
0
100
AcDbBlockEnd
  0
BLOCK
  5
7B8
330
57B
100
AcDbEntity
  8
0
100
AcDbBlockBegin
  2
*D7
 70
     1
 10
0.0
 20
0.0
 30
0.0
  3
*D7
  1

  0
LINE
  5
7B9
330
57B
100
AcDbEntity
  8
0
  6
BYBLOCK
 62
     4
100
AcDbLine
 10
283.3602287530668
 20
471.5128630309866
 30
0.0
 11
261.0311838155016
 21
471.5128630309866
 31
0.0
  0
LINE
  5
7BA
330
57B
100
AcDbEntity
  8
0
  6
BYBLOCK
 62
     4
100
AcDbLine
 10
283.3602287530668
 20
456.5128630309867
 30
0.0
 11
261.0311838155016
 21
456.5128630309867
 31
0.0
  0
LINE
  5
7BB
330
57B
100
AcDbEntity
  8
0
  6
BYBLOCK
 62
     4
100
AcDbLine
 10
264.0311838155016
 20
478.5128630309866
 30
0.0
 11
264.0311838155016
 21
485.5128630309866
 31
0.0
  0
LINE
  5
7BC
330
57B
100
AcDbEntity
  8
0
  6
BYBLOCK
 62
     4
100
AcDbLine
 10
264.0311838155016
 20
449.5128630309866
 30
0.0
 11
264.0311838155016
 21
442.5128630309867
 31
0.0
  0
LINE
  5
7BD
330
57B
100
AcDbEntity
  8
0
  6
BYBLOCK
 62
     4
100
AcDbLine
 10
264.0311838155016
 20
471.5128630309866
 30
0.0
 11
264.0311838155016
 21
456.5128630309867
 31
0.0
  0
INSERT
  5
7BE
330
57B
100
AcDbEntity
  8
0
  6
BYBLOCK
 62
     4
100
AcDbBlockReference
  2
_OPEN
 10
264.0311838155016
 20
471.5128630309866
 30
0.0
 41
7.0
 42
7.0
 43
7.0
 50
270.0
  0
INSERT
  5
7BF
330
57B
100
AcDbEntity
  8
0
  6
BYBLOCK
 62
     4
100
AcDbBlockReference
  2
_OPEN
 10
264.0311838155016
 20
456.5128630309867
 30
0.0
 41
7.0
 42
7.0
 43
7.0
 50
90.0
  0
MTEXT
  5
7C0
330
57B
100
AcDbEntity
  8
0
  6
BYBLOCK
 62
     4
100
AcDbMText
 10
259.0311838155016
 20
464.0128630309866
 30
0.0
 40
6.0
 41
0.0
 71
     5
 72
     5
  1
\A1;15
 11
0.0
 21
1.0
 31
0.0
1001
ACAD
1000
MTEXTBEGIN
1070
    73
1070
     1
1070
    44
1040
1.0
1070
    74
1070
     0
1000
MTEXTEND
1000
MTEXTBEGIN
1070
    73
1070
     1
1070
    44
1040
1.0
1070
    74
1070
     0
1000
MTEXTEND
  0
POINT
  5
7C1
330
57B
100
AcDbEntity
  8
DEFPOINTS
  6
BYBLOCK
 62
     0
100
AcDbPoint
 10
289.3602287530668
 20
471.5128630309866
 30
0.0
  0
POINT
  5
7C2
330
57B
100
AcDbEntity
  8
DEFPOINTS
  6
BYBLOCK
 62
     0
100
AcDbPoint
 10
289.3602287530668
 20
456.5128630309867
 30
0.0
  0
POINT
  5
7C3
330
57B
100
AcDbEntity
  8
DEFPOINTS
  6
BYBLOCK
 62
     0
100
AcDbPoint
 10
264.0311838155016
 20
456.5128630309867
 30
0.0
  0
ENDBLK
  5
7C4
330
57B
100
AcDbEntity
  8
0
100
AcDbBlockEnd
  0
BLOCK
  5
58B
330
58A
100
AcDbEntity
  8
0
100
AcDbBlockBegin
  2
*D8
 70
     1
 10
0.0
 20
0.0
 30
0.0
  3
*D8
  1

  0
LINE
  5
58C
330
58A
100
AcDbEntity
  8
0
  6
BYBLOCK
 62
     4
100
AcDbLine
 10
416.2834458617616
 20
497.3923318632528
 30
0.0
 11
468.9926925768759
 21
497.3923318632528
 31
0.0
  0
LINE
  5
58D
330
58A
100
AcDbEntity
  8
0
  6
BYBLOCK
 62
     4
100
AcDbLine
 10
416.1461458617616
 20
472.3923318632528
 30
0.0
 11
468.9926925768759
 21
472.3923318632528
 31
0.0
  0
LINE
  5
58E
330
58A
100
AcDbEntity
  8
0
  6
BYBLOCK
 62
     4
100
AcDbLine
 10
465.9926925768758
 20
504.3923318632528
 30
0.0
 11
465.9926925768758
 21
511.3923318632528
 31
0.0
  0
LINE
  5
58F
330
58A
100
AcDbEntity
  8
0
  6
BYBLOCK
 62
     4
100
AcDbLine
 10
465.9926925768758
 20
465.3923318632529
 30
0.0
 11
465.9926925768758
 21
458.3923318632528
 31
0.0
  0
LINE
  5
590
330
58A
100
AcDbEntity
  8
0
  6
BYBLOCK
 62
     4
100
AcDbLine
 10
465.9926925768758
 20
497.3923318632528
 30
0.0
 11
465.9926925768758
 21
472.3923318632528
 31
0.0
  0
INSERT
  5
591
330
58A
100
AcDbEntity
  8
0
  6
BYBLOCK
 62
     4
100
AcDbBlockReference
  2
_OPEN
 10
465.9926925768758
 20
497.3923318632528
 30
0.0
 41
7.0
 42
7.0
 43
7.0
 50
270.0
  0
INSERT
  5
592
330
58A
100
AcDbEntity
  8
0
  6
BYBLOCK
 62
     4
100
AcDbBlockReference
  2
_OPEN
 10
465.9926925768758
 20
472.3923318632528
 30
0.0
 41
7.0
 42
7.0
 43
7.0
 50
90.0
  0
MTEXT
  5
593
330
58A
100
AcDbEntity
  8
0
  6
BYBLOCK
 62
     4
100
AcDbMText
 10
460.9926925768759
 20
484.8923318632528
 30
0.0
 40
6.0
 41
0.0
 71
     5
 72
     5
  1
\A1;25
 11
0.0
 21
1.0
 31
0.0
1001
ACAD
1000
MTEXTBEGIN
1070
    73
1070
     1
1070
    44
1040
1.0
1070
    74
1070
     0
1000
MTEXTEND
1000
MTEXTBEGIN
1070
    73
1070
     1
1070
    44
1040
1.0
1070
    74
1070
     0
1000
MTEXTEND
  0
POINT
  5
594
330
58A
100
AcDbEntity
  8
DEFPOINTS
  6
BYBLOCK
 62
     0
100
AcDbPoint
 10
410.2834458617616
 20
497.3923318632528
 30
0.0
  0
POINT
  5
595
330
58A
100
AcDbEntity
  8
DEFPOINTS
  6
BYBLOCK
 62
     0
100
AcDbPoint
 10
410.1461458617617
 20
472.3923318632528
 30
0.0
  0
POINT
  5
596
330
58A
100
AcDbEntity
  8
DEFPOINTS
  6
BYBLOCK
 62
     0
100
AcDbPoint
 10
465.9926925768758
 20
472.3923318632528
 30
0.0
  0
ENDBLK
  5
597
330
58A
100
AcDbEntity
  8
0
100
AcDbBlockEnd
  0
BLOCK
  5
59A
330
599
100
AcDbEntity
  8
0
100
AcDbBlockBegin
  2
*D9
 70
     1
 10
0.0
 20
0.0
 30
0.0
  3
*D9
  1

  0
LINE
  5
59B
330
599
100
AcDbEntity
  8
0
  6
BYBLOCK
 62
     4
100
AcDbLine
 10
440.7901458617614
 20
516.3923318632527
 30
0.0
 11
485.6102550748087
 21
516.3923318632527
 31
0.0
  0
LINE
  5
59C
330
599
100
AcDbEntity
  8
0
  6
BYBLOCK
 62
     4
100
AcDbLine
 10
440.7701458617615
 20
453.3922318632527
 30
0.0
 11
485.6102550748087
 21
453.3922318632527
 31
0.0
  0
LINE
  5
59D
330
599
100
AcDbEntity
  8
0
  6
BYBLOCK
 62
     4
100
AcDbLine
 10
482.6102550748087
 20
509.3923318632528
 30
0.0
 11
482.6102550748087
 21
460.3922318632526
 31
0.0
  0
INSERT
  5
59E
330
599
100
AcDbEntity
  8
0
  6
BYBLOCK
 62
     4
100
AcDbBlockReference
  2
_OPEN
 10
482.6102550748087
 20
516.3923318632527
 30
0.0
 41
7.0
 42
7.0
 43
7.0
 50
90.0
  0
INSERT
  5
59F
330
599
100
AcDbEntity
  8
0
  6
BYBLOCK
 62
     4
100
AcDbBlockReference
  2
_OPEN
 10
482.6102550748087
 20
453.3922318632527
 30
0.0
 41
7.0
 42
7.0
 43
7.0
 50
270.0
  0
MTEXT
  5
5A0
330
599
100
AcDbEntity
  8
0
  6
BYBLOCK
 62
     4
100
AcDbMText
 10
477.6102550748086
 20
484.8922818632527
 30
0.0
 40
6.0
 41
0.0
 71
     5
 72
     5
  1
\A1;63
 11
0.0
 21
1.0
 31
0.0
1001
ACAD
1000
MTEXTBEGIN
1070
    73
1070
     1
1070
    44
1040
1.0
1070
    74
1070
     0
1000
MTEXTEND
1000
MTEXTBEGIN
1070
    73
1070
     1
1070
    44
1040
1.0
1070
    74
1070
     0
1000
MTEXTEND
  0
POINT
  5
5A1
330
599
100
AcDbEntity
  8
DEFPOINTS
  6
BYBLOCK
 62
     0
100
AcDbPoint
 10
434.7901458617615
 20
516.3923318632527
 30
0.0
  0
POINT
  5
5A2
330
599
100
AcDbEntity
  8
DEFPOINTS
  6
BYBLOCK
 62
     0
100
AcDbPoint
 10
434.7701458617615
 20
453.3922318632527
 30
0.0
  0
POINT
  5
5A3
330
599
100
AcDbEntity
  8
DEFPOINTS
  6
BYBLOCK
 62
     0
100
AcDbPoint
 10
482.6102550748087
 20
453.3922318632527
 30
0.0
  0
ENDBLK
  5
5A4
330
599
100
AcDbEntity
  8
0
100
AcDbBlockEnd
  0
BLOCK
  5
5D7
330
5A6
100
AcDbEntity
  8
0
100
AcDbBlockBegin
  2
*D10
 70
     1
 10
0.0
 20
0.0
 30
0.0
  3
*D10
  1

  0
LINE
  5
5D8
330
5A6
100
AcDbEntity
  8
0
  6
BYBLOCK
 62
     4
100
AcDbLine
 10
405.8050127841826
 20
347.9008415641692
 30
0.0
 11
405.8050127841826
 21
395.1290028431285
 31
0.0
  0
LINE
  5
5D9
330
5A6
100
AcDbEntity
  8
0
  6
BYBLOCK
 62
     4
100
AcDbLine
 10
416.8600458617615
 20
373.9299318632528
 30
0.0
 11
416.8600458617615
 21
395.1290028431285
 31
0.0
  0
LINE
  5
5DA
330
5A6
100
AcDbEntity
  8
0
  6
BYBLOCK
 62
     4
100
AcDbLine
 10
398.8050127841826
 20
392.1290028431285
 30
0.0
 11
391.8050127841826
 21
392.1290028431285
 31
0.0
  0
LINE
  5
5DB
330
5A6
100
AcDbEntity
  8
0
  6
BYBLOCK
 62
     4
100
AcDbLine
 10
423.8600458617615
 20
392.1290028431285
 30
0.0
 11
430.8600458617615
 21
392.1290028431285
 31
0.0
  0
LINE
  5
5DC
330
5A6
100
AcDbEntity
  8
0
  6
BYBLOCK
 62
     4
100
AcDbLine
 10
405.8050127841826
 20
392.1290028431285
 30
0.0
 11
416.8600458617615
 21
392.1290028431285
 31
0.0
  0
INSERT
  5
5DD
330
5A6
100
AcDbEntity
  8
0
  6
BYBLOCK
 62
     4
100
AcDbBlockReference
  2
_OPEN
 10
405.8050127841826
 20
392.1290028431285
 30
0.0
 41
7.0
 42
7.0
 43
7.0
  0
INSERT
  5
5DE
330
5A6
100
AcDbEntity
  8
0
  6
BYBLOCK
 62
     4
100
AcDbBlockReference
  2
_OPEN
 10
416.8600458617615
 20
392.1290028431285
 30
0.0
 41
7.0
 42
7.0
 43
7.0
 50
180.0
  0
MTEXT
  5
5DF
330
5A6
100
AcDbEntity
  8
0
  6
BYBLOCK
 62
     4
100
AcDbMText
 10
411.3325293229721
 20
397.1290028431285
 30
0.0
 40
6.0
 41
0.0
 71
     5
 72
     5
  1
\A1;11
1001
ACAD
1000
MTEXTBEGIN
1070
    73
1070
     1
1070
    44
1040
1.0
1070
    74
1070
     0
1000
MTEXTEND
1000
MTEXTBEGIN
1070
    73
1070
     1
1070
    44
1040
1.0
1070
    74
1070
     0
1000
MTEXTEND
  0
POINT
  5
5E0
330
5A6
100
AcDbEntity
  8
DEFPOINTS
  6
BYBLOCK
 62
     0
100
AcDbPoint
 10
405.8050127841826
 20
341.9008415641692
 30
0.0
  0
POINT
  5
5E1
330
5A6
100
AcDbEntity
  8
DEFPOINTS
  6
BYBLOCK
 62
     0
100
AcDbPoint
 10
416.8600458617615
 20
367.9299318632528
 30
0.0
  0
POINT
  5
5E2
330
5A6
100
AcDbEntity
  8
DEFPOINTS
  6
BYBLOCK
 62
     0
100
AcDbPoint
 10
416.8600458617615
 20
392.1290028431285
 30
0.0
  0
ENDBLK
  5
5E3
330
5A6
100
AcDbEntity
  8
0
100
AcDbBlockEnd
  0
BLOCK
  5
5EF
330
5B8
100
AcDbEntity
  8
0
100
AcDbBlockBegin
  2
*D11
 70
     1
 10
0.0
 20
0.0
 30
0.0
  3
*D11
  1

  0
LINE
  5
5F0
330
5B8
100
AcDbEntity
  8
0
  6
BYBLOCK
 62
     4
100
AcDbLine
 10
416.8600458617615
 20
373.9299318632528
 30
0.0
 11
416.8600458617615
 21
409.4122108997657
 31
0.0
  0
LINE
  5
5F1
330
5B8
100
AcDbEntity
  8
0
  6
BYBLOCK
 62
     4
100
AcDbLine
 10
306.8600458617615
 20
344.3853318632528
 30
0.0
 11
306.8600458617615
 21
409.4122108997657
 31
0.0
  0
LINE
  5
5F2
330
5B8
100
AcDbEntity
  8
0
  6
BYBLOCK
 62
     4
100
AcDbLine
 10
409.8600458617615
 20
406.4122108997658
 30
0.0
 11
313.8600458617616
 21
406.4122108997658
 31
0.0
  0
INSERT
  5
5F3
330
5B8
100
AcDbEntity
  8
0
  6
BYBLOCK
 62
     4
100
AcDbBlockReference
  2
_OPEN
 10
416.8600458617615
 20
406.4122108997658
 30
0.0
 41
7.0
 42
7.0
 43
7.0
  0
INSERT
  5
5F4
330
5B8
100
AcDbEntity
  8
0
  6
BYBLOCK
 62
     4
100
AcDbBlockReference
  2
_OPEN
 10
306.8600458617615
 20
406.4122108997658
 30
0.0
 41
7.0
 42
7.0
 43
7.0
 50
180.0
  0
MTEXT
  5
5F5
330
5B8
100
AcDbEntity
  8
0
  6
BYBLOCK
 62
     4
100
AcDbMText
 10
361.8600458617616
 20
411.4122108997658
 30
0.0
 40
6.0
 41
0.0
 71
     5
 72
     5
  1
\A1;110
1001
ACAD
1000
MTEXTBEGIN
1070
    73
1070
     1
1070
    44
1040
1.0
1070
    74
1070
     0
1000
MTEXTEND
1000
MTEXTBEGIN
1070
    73
1070
     1
1070
    44
1040
1.0
1070
    74
1070
     0
1000
MTEXTEND
  0
POINT
  5
5F6
330
5B8
100
AcDbEntity
  8
DEFPOINTS
  6
BYBLOCK
 62
     0
100
AcDbPoint
 10
416.8600458617615
 20
367.9299318632528
 30
0.0
  0
POINT
  5
5F7
330
5B8
100
AcDbEntity
  8
DEFPOINTS
  6
BYBLOCK
 62
     0
100
AcDbPoint
 10
306.8600458617615
 20
338.3853318632528
 30
0.0
  0
POINT
  5
5F8
330
5B8
100
AcDbEntity
  8
DEFPOINTS
  6
BYBLOCK
 62
     0
100
AcDbPoint
 10
306.8600458617615
 20
406.4122108997658
 30
0.0
  0
ENDBLK
  5
5F9
330
5B8
100
AcDbEntity
  8
0
100
AcDbBlockEnd
  0
BLOCK
  5
5E4
330
5CA
100
AcDbEntity
  8
0
100
AcDbBlockBegin
  2
*D12
 70
     1
 10
0.0
 20
0.0
 30
0.0
  3
*D12
  1

  0
LINE
  5
5E5
330
5CA
100
AcDbEntity
  8
0
  6
BYBLOCK
 62
     4
100
AcDbLine
 10
287.8600458617616
 20
339.7353318632528
 30
0.0
 11
287.8600458617616
 21
422.3634248897919
 31
0.0
  0
LINE
  5
5E6
330
5CA
100
AcDbEntity
  8
0
  6
BYBLOCK
 62
     4
100
AcDbLine
 10
416.8600458617615
 20
373.9299318632528
 30
0.0
 11
416.8600458617615
 21
422.3634248897919
 31
0.0
  0
LINE
  5
5E7
330
5CA
100
AcDbEntity
  8
0
  6
BYBLOCK
 62
     4
100
AcDbLine
 10
294.8600458617616
 20
419.363424889792
 30
0.0
 11
409.8600458617615
 21
419.363424889792
 31
0.0
  0
INSERT
  5
5E8
330
5CA
100
AcDbEntity
  8
0
  6
BYBLOCK
 62
     4
100
AcDbBlockReference
  2
_OPEN
 10
287.8600458617616
 20
419.363424889792
 30
0.0
 41
7.0
 42
7.0
 43
7.0
 50
180.0
  0
INSERT
  5
5E9
330
5CA
100
AcDbEntity
  8
0
  6
BYBLOCK
 62
     4
100
AcDbBlockReference
  2
_OPEN
 10
416.8600458617615
 20
419.363424889792
 30
0.0
 41
7.0
 42
7.0
 43
7.0
  0
MTEXT
  5
5EA
330
5CA
100
AcDbEntity
  8
0
  6
BYBLOCK
 62
     4
100
AcDbMText
 10
352.3600458617615
 20
424.363424889792
 30
0.0
 40
6.0
 41
0.0
 71
     5
 72
     5
  1
\A1;129
1001
ACAD
1000
MTEXTBEGIN
1070
    73
1070
     1
1070
    44
1040
1.0
1070
    74
1070
     0
1000
MTEXTEND
1000
MTEXTBEGIN
1070
    73
1070
     1
1070
    44
1040
1.0
1070
    74
1070
     0
1000
MTEXTEND
  0
POINT
  5
5EB
330
5CA
100
AcDbEntity
  8
DEFPOINTS
  6
BYBLOCK
 62
     0
100
AcDbPoint
 10
287.8600458617616
 20
333.7353318632528
 30
0.0
  0
POINT
  5
5EC
330
5CA
100
AcDbEntity
  8
DEFPOINTS
  6
BYBLOCK
 62
     0
100
AcDbPoint
 10
416.8600458617615
 20
367.9299318632528
 30
0.0
  0
POINT
  5
5ED
330
5CA
100
AcDbEntity
  8
DEFPOINTS
  6
BYBLOCK
 62
     0
100
AcDbPoint
 10
416.8600458617615
 20
419.363424889792
 30
0.0
  0
ENDBLK
  5
5EE
330
5CA
100
AcDbEntity
  8
0
100
AcDbBlockEnd
  0
BLOCK
  5
5FB
330
5FA
100
AcDbEntity
  8
0
100
AcDbBlockBegin
  2
*D13
 70
     1
 10
0.0
 20
0.0
 30
0.0
  3
*D13
  1

  0
LINE
  5
5FC
330
5FA
100
AcDbEntity
  8
0
  6
BYBLOCK
 62
     4
100
AcDbLine
 10
416.8600458617615
 20
373.9299318632528
 30
0.0
 11
416.8600458617615
 21
422.3634248897919
 31
0.0
  0
LINE
  5
5FD
330
5FA
100
AcDbEntity
  8
0
  6
BYBLOCK
 62
     4
100
AcDbLine
 10
451.8600458617615
 20
373.9299318632528
 30
0.0
 11
451.8600458617615
 21
422.3634248897919
 31
0.0
  0
LINE
  5
5FE
330
5FA
100
AcDbEntity
  8
0
  6
BYBLOCK
 62
     4
100
AcDbLine
 10
423.8600458617615
 20
419.363424889792
 30
0.0
 11
444.8600458617615
 21
419.363424889792
 31
0.0
  0
INSERT
  5
5FF
330
5FA
100
AcDbEntity
  8
0
  6
BYBLOCK
 62
     4
100
AcDbBlockReference
  2
_OPEN
 10
416.8600458617615
 20
419.363424889792
 30
0.0
 41
7.0
 42
7.0
 43
7.0
 50
180.0
  0
INSERT
  5
600
330
5FA
100
AcDbEntity
  8
0
  6
BYBLOCK
 62
     4
100
AcDbBlockReference
  2
_OPEN
 10
451.8600458617615
 20
419.363424889792
 30
0.0
 41
7.0
 42
7.0
 43
7.0
  0
MTEXT
  5
601
330
5FA
100
AcDbEntity
  8
0
  6
BYBLOCK
 62
     4
100
AcDbMText
 10
434.3600458617615
 20
424.363424889792
 30
0.0
 40
6.0
 41
0.0
 71
     5
 72
     5
  1
\A1;35
1001
ACAD
1000
MTEXTBEGIN
1070
    73
1070
     1
1070
    44
1040
1.0
1070
    74
1070
     0
1000
MTEXTEND
1000
MTEXTBEGIN
1070
    73
1070
     1
1070
    44
1040
1.0
1070
    74
1070
     0
1000
MTEXTEND
  0
POINT
  5
602
330
5FA
100
AcDbEntity
  8
DEFPOINTS
  6
BYBLOCK
 62
     0
100
AcDbPoint
 10
416.8600458617615
 20
367.9299318632528
 30
0.0
  0
POINT
  5
603
330
5FA
100
AcDbEntity
  8
DEFPOINTS
  6
BYBLOCK
 62
     0
100
AcDbPoint
 10
451.8600458617615
 20
367.9299318632528
 30
0.0
  0
POINT
  5
604
330
5FA
100
AcDbEntity
  8
DEFPOINTS
  6
BYBLOCK
 62
     0
100
AcDbPoint
 10
451.8600458617615
 20
419.363424889792
 30
0.0
  0
ENDBLK
  5
605
330
5FA
100
AcDbEntity
  8
0
100
AcDbBlockEnd
  0
BLOCK
  5
79F
330
609
100
AcDbEntity
  8
0
100
AcDbBlockBegin
  2
*D14
 70
     1
 10
0.0
 20
0.0
 30
0.0
  3
*D14
  1

  0
LINE
  5
7A0
330
609
100
AcDbEntity
  8
0
  6
BYBLOCK
 62
     4
100
AcDbLine
 10
434.3697803341941
 20
276.7084757374838
 30
0.0
 11
445.9255156198338
 21
253.6318465791235
 31
0.0
  0
LINE
  5
7A1
330
609
100
AcDbEntity
  8
0
  6
BYBLOCK
 62
     4
100
AcDbLine
 10
439.7347498624892
 20
279.3950105541184
 30
0.0
 11
451.2904851481288
 21
256.3183813957582
 31
0.0
  0
LINE
  5
7A2
330
609
100
AcDbEntity
  8
0
  6
BYBLOCK
 62
     4
100
AcDbLine
 10
438.3231558840575
 20
253.1800430290636
 30
0.0
 11
432.0640567029923
 21
250.0457684014042
 31
0.0
  0
LINE
  5
7A3
330
609
100
AcDbEntity
  8
0
  6
BYBLOCK
 62
     4
100
AcDbLine
 10
456.2063237744829
 20
262.1351271010169
 30
0.0
 11
481.4271294351719
 21
274.7645692914461
 31
0.0
  0
LINE
  5
7A4
330
609
100
AcDbEntity
  8
0
  6
BYBLOCK
 62
     4
100
AcDbLine
 10
444.5822550651227
 20
256.3143176567229
 30
0.0
 11
449.9472245934177
 21
259.0008524733575
 31
0.0
  0
INSERT
  5
7A5
330
609
100
AcDbEntity
  8
0
  6
BYBLOCK
 62
     4
100
AcDbBlockReference
  2
_OPEN
 10
444.5822550651227
 20
256.3143176567229
 30
0.0
 41
7.0
 42
7.0
 43
7.0
 50
26.59964311059413
  0
INSERT
  5
7A6
330
609
100
AcDbEntity
  8
0
  6
BYBLOCK
 62
     4
100
AcDbBlockReference
  2
_OPEN
 10
449.9472245934177
 20
259.0008524733575
 30
0.0
 41
7.0
 42
7.0
 43
7.0
 50
206.5996431105941
  0
MTEXT
  5
7A7
330
609
100
AcDbEntity
  8
0
  6
BYBLOCK
 62
     4
100
AcDbMText
 10
469.7997130723889
 20
274.5339424792893
 30
0.0
 40
6.0
 41
0.0
 71
     5
 72
     5
  1
\A1;t6.0
 11
0.8941570258664539
 21
0.4477535182370519
 31
0.0
1001
ACAD
1000
MTEXTBEGIN
1070
    73
1070
     1
1070
    44
1040
1.0
1070
    74
1070
     0
1000
MTEXTEND
1000
MTEXTBEGIN
1070
    73
1070
     1
1070
    44
1040
1.0
1070
    74
1070
     0
1000
MTEXTEND
  0
POINT
  5
7A8
330
609
100
AcDbEntity
  8
DEFPOINTS
  6
BYBLOCK
 62
     0
100
AcDbPoint
 10
431.6832592247719
 20
282.0734178926826
 30
0.0
  0
POINT
  5
7A9
330
609
100
AcDbEntity
  8
DEFPOINTS
  6
BYBLOCK
 62
     0
100
AcDbPoint
 10
437.0482287530669
 20
284.7599527093171
 30
0.0
  0
POINT
  5
7AA
330
609
100
AcDbEntity
  8
DEFPOINTS
  6
BYBLOCK
 62
     0
100
AcDbPoint
 10
449.9472245934177
 20
259.0008524733575
 30
0.0
  0
ENDBLK
  5
7AB
330
609
100
AcDbEntity
  8
0
100
AcDbBlockEnd
  0
BLOCK
  5
7C5
330
759
100
AcDbEntity
  8
0
100
AcDbBlockBegin
  2
*D15
 70
     1
 10
0.0
 20
0.0
 30
0.0
  3
*D15
  1

  0
LINE
  5
7C6
330
759
100
AcDbEntity
  8
0
  6
BYBLOCK
 62
     4
100
AcDbLine
 10
282.3602287530667
 20
299.4231527093173
 30
0.0
 11
261.0311838155016
 21
299.4231527093173
 31
0.0
  0
LINE
  5
7C7
330
759
100
AcDbEntity
  8
0
  6
BYBLOCK
 62
     4
100
AcDbLine
 10
401.9745287530668
 20
329.4677527093174
 30
0.0
 11
261.0311838155016
 21
329.4677527093174
 31
0.0
  0
LINE
  5
7C8
330
759
100
AcDbEntity
  8
0
  6
BYBLOCK
 62
     4
100
AcDbLine
 10
264.0311838155016
 20
306.4231527093173
 30
0.0
 11
264.0311838155016
 21
322.4677527093173
 31
0.0
  0
INSERT
  5
7C9
330
759
100
AcDbEntity
  8
0
  6
BYBLOCK
 62
     4
100
AcDbBlockReference
  2
_OPEN
 10
264.0311838155016
 20
299.4231527093173
 30
0.0
 41
7.0
 42
7.0
 43
7.0
 50
270.0
  0
INSERT
  5
7CA
330
759
100
AcDbEntity
  8
0
  6
BYBLOCK
 62
     4
100
AcDbBlockReference
  2
_OPEN
 10
264.0311838155016
 20
329.4677527093174
 30
0.0
 41
7.0
 42
7.0
 43
7.0
 50
90.0
  0
MTEXT
  5
7CB
330
759
100
AcDbEntity
  8
0
  6
BYBLOCK
 62
     4
100
AcDbMText
 10
259.0311838155016
 20
314.4454527093173
 30
0.0
 40
6.0
 41
0.0
 71
     5
 72
     5
  1
\A1;30
 11
0.0
 21
1.0
 31
0.0
1001
ACAD
1000
MTEXTBEGIN
1070
    73
1070
     1
1070
    44
1040
1.0
1070
    74
1070
     0
1000
MTEXTEND
1000
MTEXTBEGIN
1070
    73
1070
     1
1070
    44
1040
1.0
1070
    74
1070
     0
1000
MTEXTEND
  0
POINT
  5
7CC
330
759
100
AcDbEntity
  8
DEFPOINTS
  6
BYBLOCK
 62
     0
100
AcDbPoint
 10
288.3602287530667
 20
299.4231527093173
 30
0.0
  0
POINT
  5
7CD
330
759
100
AcDbEntity
  8
DEFPOINTS
  6
BYBLOCK
 62
     0
100
AcDbPoint
 10
407.9745287530668
 20
329.4677527093174
 30
0.0
  0
POINT
  5
7CE
330
759
100
AcDbEntity
  8
DEFPOINTS
  6
BYBLOCK
 62
     0
100
AcDbPoint
 10
264.0311838155016
 20
329.4677527093174
 30
0.0
  0
ENDBLK
  5
7CF
330
759
100
AcDbEntity
  8
0
100
AcDbBlockEnd
  0
ENDSEC
  0
SECTION
  2
ENTITIES
  0
LINE
  5
312
330
1A
100
AcDbEntity
  8
CENTER_L
  6
CENTER
 62
     1
 48
5.0
100
AcDbLine
 10
423.6788287530667
 20
487.5128630309866
 30
0.0
 11
415.7783287530668
 21
487.5128630309866
 31
0.0
  0
ELLIPSE
  5
313
330
1A
100
AcDbEntity
  8
SEIHIN
 62
     3
100
AcDbEllipse
 10
419.1403287530667
 20
485.5128630309866
 30
0.0
 11
0.0
 21
-10.0
 31
0.0
210
0.0
220
0.0
230
1.0
 40
0.4479999999999848
 41
3.141592653589793
 42
4.712388980384783
  0
ARC
  5
314
330
1A
100
AcDbEntity
  8
SEIHIN
  6
CONTINUOUS
 62
     3
 48
16.0
100
AcDbCircle
 10
417.9003287530669
 20
478.0128630309866
 30
0.0
 40
1.0
100
AcDbArc
 50
90.0
 51
180.0
  0
ARC
  5
315
330
1A
100
AcDbEntity
  8
SEIHIN
  6
CONTINUOUS
 62
     3
 48
16.0
100
AcDbCircle
 10
417.9003287530669
 20
450.0128630309866
 30
0.0
 40
1.0
100
AcDbArc
 50
180.0
 51
270.0
  0
LINE
  5
316
330
1A
100
AcDbEntity
  8
CENTER_L
  6
CENTER
 62
     1
 48
5.0
100
AcDbLine
 10
423.9186287530667
 20
440.5128630309866
 30
0.0
 11
415.7783287530668
 21
440.5128630309866
 31
0.0
  0
ELLIPSE
  5
317
330
1A
100
AcDbEntity
  8
SEIHIN
 62
     3
100
AcDbEllipse
 10
419.1403287530667
 20
442.5127630309865
 30
0.0
 11
0.0
 21
-10.0
 31
0.0
210
0.0
220
0.0
230
1.0
 40
0.4479999999999848
 41
-1.570796326794896
 42
0.0
  0
ARC
  5
318
330
1A
100
AcDbEntity
  8
SEIHIN
  6
CONTINUOUS
 62
     3
 48
16.0
100
AcDbCircle
 10
413.8756512654543
 20
306.4677388053559
 30
0.0
 40
5.000013904012136
100
AcDbArc
 50
26.60015685178502
 51
90.00025797224159
  0
LINE
  5
319
330
1A
100
AcDbEntity
  8
CENTER_L
  6
CENTER
 62
     1
 48
5.0
100
AcDbLine
 10
423.3885287530667
 20
322.6548527093172
 30
0.0
 11
410.2488287530668
 21
316.0749527093173
 31
0.0
  0
LINE
  5
31A
330
1A
100
AcDbEntity
  8
SEIHIN
  6
CONTINUOUS
 62
     3
 48
16.0
100
AcDbLine
 10
414.7930287530669
 20
495.5128630309866
 30
0.0
 11
432.5903287530667
 21
495.5128630309866
 31
0.0
  0
LINE
  5
31B
330
1A
100
AcDbEntity
  8
SEIHIN
  6
CONTINUOUS
 62
     3
 48
16.0
100
AcDbLine
 10
414.7930287530669
 20
432.5127630309864
 30
0.0
 11
432.5703287530667
 21
432.5127630309864
 31
0.0
  0
LINE
  5
31C
330
1A
100
AcDbEntity
  8
CENTER_L
  6
CENTER
 62
     1
 48
5.0
100
AcDbLine
 10
278.2457287530669
 20
464.0128630309867
 30
0.0
 11
439.5919287530666
 21
464.0128630309867
 31
0.0
  0
LINE
  5
31D
330
1A
100
AcDbEntity
  8
SEIHIN
  6
CONTINUOUS
 62
     3
 48
16.0
100
AcDbLine
 10
433.4716287530667
 20
282.9689527093173
 30
0.0
 11
411.0836287530668
 21
327.6766527093173
 31
0.0
  0
LINE
  5
31E
330
1A
100
AcDbEntity
  8
SEIHIN
  6
CONTINUOUS
 62
     3
 48
16.0
100
AcDbLine
 10
414.6602287530667
 20
329.4677527093174
 30
0.0
 11
437.0482287530669
 21
284.7599527093172
 31
0.0
  0
LINE
  5
31F
330
1A
100
AcDbEntity
  8
SEIHIN
  6
CONTINUOUS
 62
     3
 48
16.0
100
AcDbLine
 10
410.1908287530668
 20
324.9928527093172
 30
0.0
 11
430.7877287530669
 21
283.8617527093172
 31
0.0
  0
LINE
  5
320
330
1A
100
AcDbEntity
  8
CENTER_L
  6
CENTER
 62
     1
 48
5.0
100
AcDbLine
 10
425.6245287530669
 20
318.1827527093172
 30
0.0
 11
412.5233287530669
 21
311.6221527093173
 31
0.0
  0
LINE
  5
322
330
1A
100
AcDbEntity
  8
SEIHIN
  6
CONTINUOUS
 62
     3
 48
16.0
100
AcDbLine
 10
403.6581287530668
 20
279.1890527093172
 30
0.0
 11
395.1592287530668
 21
286.8061527093172
 31
0.0
  0
LINE
  5
323
330
1A
100
AcDbEntity
  8
SEIHIN
  6
CONTINUOUS
 62
     3
 48
16.0
100
AcDbLine
 10
408.6603287530668
 20
309.9231527093173
 30
0.0
 11
408.6603287530668
 21
281.4231527093173
 31
0.0
  0
LINE
  5
324
330
1A
100
AcDbEntity
  8
SEIHIN
  6
CONTINUOUS
 62
     3
 48
16.0
100
AcDbLine
 10
371.1603287530668
 20
282.4231527093173
 30
0.0
 11
388.6596287530668
 21
287.1456527093173
 31
0.0
  0
LINE
  5
325
330
1A
100
AcDbEntity
  8
NOKITOI
  6
PHANTOM
 62
     8
 48
5.0
100
AcDbLine
 10
394.5796956754877
 20
288.6006624102336
 30
0.0
 11
391.7108956754877
 21
259.9132624102336
 31
0.0
  0
LINE
  5
326
330
1A
100
AcDbEntity
  8
NOKITOI
  6
PHANTOM
 62
     8
 48
5.0
100
AcDbLine
 10
393.5386956754876
 20
290.2509624102337
 30
0.0
 11
390.5456956754878
 21
260.3211624102336
 31
0.0
  0
LINE
  5
327
330
1A
100
AcDbEntity
  8
SEIHIN
  6
CONTINUOUS
 62
     3
 48
16.0
100
AcDbLine
 10
320.1602287530667
 20
284.1230527093173
 30
0.0
 11
320.1602287530667
 21
284.9228527093173
 31
0.0
  0
LINE
  5
328
330
1A
100
AcDbEntity
  8
SEIHIN
  6
CONTINUOUS
 62
     3
 48
16.0
100
AcDbLine
 10
309.1602287530668
 20
284.1231527093172
 30
0.0
 11
309.1602287530668
 21
284.9230527093173
 31
0.0
  0
LINE
  5
329
330
1A
100
AcDbEntity
  8
CENTER_L
  6
CENTER
 62
     1
 48
5.0
100
AcDbLine
 10
314.6603287530668
 20
309.3449527093172
 30
0.0
 11
314.6602287530667
 21
280.7502527093173
 31
0.0
  0
LINE
  5
32A
330
1A
100
AcDbEntity
  8
SEIHIN
  6
CONTINUOUS
 62
     3
 48
16.0
100
AcDbLine
 10
360.1351287530667
 20
283.4482527093172
 30
0.0
 11
358.9531287530669
 21
284.6302527093173
 31
0.0
  0
ARC
  5
32B
330
1A
100
AcDbEntity
  8
NOKITOI
  6
PHANTOM
 62
     8
 48
5.0
100
AcDbCircle
 10
335.4832794490304
 20
293.5011768866037
 30
0.0
 40
43.00001447645168
100
AcDbArc
 50
186.524910707118
 51
269.999888375144
  0
ARC
  5
32C
330
1A
100
AcDbEntity
  8
NOKITOI
  6
PHANTOM
 62
     8
 48
5.0
100
AcDbCircle
 10
335.4833017574556
 20
293.5011567855772
 30
0.0
 40
41.79999437547816
100
AcDbArc
 50
184.474295212525
 51
269.9998545921086
  0
LINE
  5
332
330
1A
100
AcDbEntity
  8
NOKITOI
  6
PHANTOM
 62
     8
 48
5.0
100
AcDbLine
 10
380.3126956754878
 20
250.5010624102335
 30
0.0
 11
335.4832956754877
 21
250.5011624102337
 31
0.0
  0
LINE
  5
333
330
1A
100
AcDbEntity
  8
NOKITOI
  6
PHANTOM
 62
     8
 48
5.0
100
AcDbLine
 10
335.4832956754877
 20
251.7011624102337
 30
0.0
 11
380.0628956754878
 21
251.7010624102336
 31
0.0
  0
ARC
  5
334
330
1A
100
AcDbEntity
  8
SEIHIN
  6
CONTINUOUS
 62
     3
 48
16.0
100
AcDbCircle
 10
314.6603019071577
 20
292.1700527091053
 30
0.0
 40
9.746968980505759
100
AcDbArc
 50
235.6473109321941
 51
304.3516473263601
  0
LINE
  5
335
330
1A
100
AcDbEntity
  8
SEIHIN
  6
CONTINUOUS
 62
     3
 48
16.0
100
AcDbLine
 10
320.1602287530667
 20
284.1230527093173
 30
0.0
 11
309.1602287530668
 21
284.1231527093172
 31
0.0
  0
LINE
  5
336
330
1A
100
AcDbEntity
  8
NOKITOI
  6
PHANTOM
 62
     8
 48
5.0
100
AcDbLine
 10
391.3490956754878
 20
259.2387624102337
 30
0.0
 11
380.9459956754878
 21
250.7270624102337
 31
0.0
  0
LINE
  5
337
330
1A
100
AcDbEntity
  8
NOKITOI
  6
PHANTOM
 62
     8
 48
5.0
100
AcDbLine
 10
390.3647956754878
 20
259.9838624102336
 30
0.0
 11
380.3794956754878
 21
251.8140624102335
 31
0.0
  0
LINE
  5
338
330
1A
100
AcDbEntity
  8
NOKITOI
  6
PHANTOM
 62
     8
 48
5.0
100
AcDbLine
 10
376.0628956754878
 20
251.7010624102336
 30
0.0
 11
356.1547956754878
 21
251.7010624102336
 31
0.0
  0
LINE
  5
339
330
1A
100
AcDbEntity
  8
NOKITOI
  6
PHANTOM
 62
     8
 48
5.0
100
AcDbLine
 10
376.3126956754878
 20
250.5010624102335
 30
0.0
 11
356.1547956754878
 21
250.5010624102335
 31
0.0
  0
ARC
  5
33A
330
1A
100
AcDbEntity
  8
NOKITOI
  6
PHANTOM
 62
     8
 48
5.0
100
AcDbCircle
 10
380.0629020632363
 20
252.2010646902232
 30
0.0
 40
0.5000022800304047
100
AcDbArc
 50
269.9992680212786
 51
309.2854498596058
  0
ARC
  5
33B
330
1A
100
AcDbEntity
  8
NOKITOI
  6
PHANTOM
 62
     8
 48
5.0
100
AcDbCircle
 10
380.3126887429105
 20
251.5010599352275
 30
0.0
 40
0.9999975250179316
100
AcDbArc
 50
270.0003972084043
 51
309.2946416752298
  0
LINE
  5
33C
330
1A
100
AcDbEntity
  8
SEIHIN
  6
CONTINUOUS
 62
     3
 48
16.0
100
AcDbLine
 10
371.1603287530668
 20
282.4231527093173
 30
0.0
 11
362.6100287530669
 21
282.4231527093173
 31
0.0
  0
ARC
  5
33D
330
1A
100
AcDbEntity
  8
SEIHIN
  6
CONTINUOUS
 62
     3
 48
16.0
100
AcDbCircle
 10
362.609983914461
 20
285.923171282076
 30
0.0
 40
3.500018573045932
100
AcDbArc
 50
225.0007340140687
 51
270.000734014069
  0
ARC
  5
33E
330
1A
100
AcDbEntity
  8
NOKITOI
  6
PHANTOM
 62
     8
 48
5.0
100
AcDbCircle
 10
390.7158731026186
 20
260.012720338561
 30
0.0
 40
0.9999908507640039
100
AcDbArc
 50
309.2887092230696
 51
354.2862329477531
  0
ARC
  5
33F
330
1A
100
AcDbEntity
  8
NOKITOI
  6
PHANTOM
 62
     8
 48
5.0
100
AcDbCircle
 10
390.0481782496096
 20
260.3708299238457
 30
0.0
 40
0.4999904508696396
100
AcDbArc
 50
309.2900846377958
 51
354.2990110749245
  0
ARC
  5
340
330
1A
100
AcDbEntity
  8
SEIHIN
  6
CONTINUOUS
 62
     3
 48
16.0
100
AcDbCircle
 10
405.6602947451191
 20
281.4231375210792
 30
0.0
 40
3.000034007986279
100
AcDbArc
 50
228.1321783307235
 51
0.0002900706921178
  0
ELLIPSE
  5
341
330
1A
100
AcDbEntity
  8
SEIHIN
 62
     3
100
AcDbEllipse
 10
415.5436287530667
 20
485.5128630309866
 30
0.0
 11
0.0
 21
-10.0
 31
0.0
210
0.0
220
0.0
230
1.0
 40
0.4459999999999979
 41
3.141592653589793
 42
4.712388980384772
  0
ELLIPSE
  5
342
330
1A
100
AcDbEntity
  8
SEIHIN
 62
     3
100
AcDbEllipse
 10
414.6603287530669
 20
485.5128630309866
 30
0.0
 11
0.0
 21
-10.0
 31
0.0
210
0.0
220
0.0
230
1.0
 40
0.4469500000000039
 41
-2.897495117236399
 42
-1.570796326794879
  0
LINE
  5
343
330
1A
100
AcDbEntity
  8
SEIHIN
  6
CONTINUOUS
 62
     3
 48
16.0
100
AcDbLine
 10
285.6602287530668
 20
476.0128630309866
 30
0.0
 11
289.3602287530668
 21
476.0128630309866
 31
0.0
  0
LINE
  5
344
330
1A
100
AcDbEntity
  8
SEIHIN
  6
CONTINUOUS
 62
     3
 48
16.0
100
AcDbLine
 10
285.6602287530668
 20
452.0128630309867
 30
0.0
 11
289.3602287530668
 21
452.0128630309867
 31
0.0
  0
LINE
  5
345
330
1A
100
AcDbEntity
  8
NOKITOI
  6
PHANTOM
 62
     8
 48
5.0
100
AcDbLine
 10
285.7331956754877
 20
305.5011624102335
 30
0.0
 11
289.0597956754878
 21
305.5011624102335
 31
0.0
  0
LINE
  5
346
330
1A
100
AcDbEntity
  8
NOKITOI
  6
PHANTOM
 62
     8
 48
5.0
100
AcDbLine
 10
285.7331956754877
 20
304.3011624102337
 30
0.0
 11
288.2059956754878
 21
304.3011624102337
 31
0.0
  0
ARC
  5
347
330
1A
100
AcDbEntity
  8
SEIHIN
  6
CONTINUOUS
 62
     3
 48
16.0
100
AcDbCircle
 10
289.1590066448012
 20
296.0155240499794
 30
0.0
 40
3.499997028608007
100
AcDbArc
 50
103.1924424199634
 51
181.5123162998233
  0
LINE
  5
348
330
1A
100
AcDbEntity
  8
SEIHIN
  6
CONTINUOUS
 62
     3
 48
16.0
100
AcDbLine
 10
288.4772287530669
 20
296.3326527093173
 30
0.0
 11
285.6733287530668
 21
296.3326527093173
 31
0.0
  0
ARC
  5
349
330
1A
100
AcDbEntity
  8
NOKITOI
  6
PHANTOM
 62
     8
 48
5.0
100
AcDbCircle
 10
289.1849158881568
 20
295.5012211386137
 30
0.0
 40
5.2000412730095
100
AcDbArc
 50
90.00132454306161
 51
142.0757990790561
  0
ARC
  5
34A
330
1A
100
AcDbEntity
  8
NOKITOI
  6
PHANTOM
 62
     8
 48
5.0
100
AcDbCircle
 10
289.1848335569344
 20
295.501206192759
 30
0.0
 40
3.999989731271038
100
AcDbArc
 50
96.47731142013144
 51
181.7899836067308
  0
ARC
  5
34B
330
1A
100
AcDbEntity
  8
NOKITOI
  6
PHANTOM
 62
     8
 48
5.0
100
AcDbCircle
 10
287.271309247626
 20
292.7011492551471
 30
0.0
 40
1.999986844959662
100
AcDbArc
 50
181.7875531852363
 51
269.9996111843223
  0
LINE
  5
34C
330
1A
100
AcDbEntity
  8
NOKITOI
  6
PHANTOM
 62
     8
 48
5.0
100
AcDbLine
 10
285.6235956754878
 20
289.5011624102337
 30
0.0
 11
291.7682956754878
 21
289.5011624102337
 31
0.0
  0
ARC
  5
34D
330
1A
100
AcDbEntity
  8
SEIHIN
  6
CONTINUOUS
 62
     3
 48
16.0
100
AcDbCircle
 10
288.6602287530669
 20
294.6231527093173
 30
0.0
 40
3.000000000000042
100
AcDbArc
 50
179.9999999999991
 51
269.9999999999992
  0
LINE
  5
34E
330
1A
100
AcDbEntity
  8
SEIHIN
  6
CONTINUOUS
 62
     3
 48
16.0
100
AcDbLine
 10
285.6602287530668
 20
295.9231527093173
 30
0.0
 11
285.6602287530668
 21
294.6231527093173
 31
0.0
  0
LINE
  5
34F
330
1A
100
AcDbEntity
  8
NOKITOI
  6
PHANTOM
 62
     8
 48
5.0
100
AcDbLine
 10
283.7341956754878
 20
303.4386624102336
 30
0.0
 11
284.1243956754878
 21
290.9543624102336
 31
0.0
  0
ARC
  5
350
330
1A
100
AcDbEntity
  8
NOKITOI
  6
PHANTOM
 62
     8
 48
5.0
100
AcDbCircle
 10
285.6236316346387
 20
291.0011275560904
 30
0.0
 40
1.499965146287778
100
AcDbArc
 50
181.7866280217767
 51
269.9986264296976
  0
LINE
  5
351
330
1A
100
AcDbEntity
  8
NOKITOI
  6
PHANTOM
 62
     8
 48
5.0
100
AcDbLine
 10
285.2722956754877
 20
292.6387624102336
 30
0.0
 11
285.1867956754878
 21
295.3762624102335
 31
0.0
  0
LINE
  5
352
330
1A
100
AcDbEntity
  8
NOKITOI
  6
PHANTOM
 62
     8
 48
5.0
100
AcDbLine
 10
284.9335956754878
 20
303.4761624102336
 30
0.0
 11
285.0829956754877
 21
298.6972624102337
 31
0.0
  0
ARC
  5
353
330
1A
100
AcDbEntity
  8
NOKITOI
  6
PHANTOM
 62
     8
 48
5.0
100
AcDbCircle
 10
285.7332001702856
 20
303.5011670477605
 30
0.0
 40
0.7999953624857498
100
AcDbArc
 50
90.00032191805336
 51
181.7911273464199
  0
ARC
  5
354
330
1A
100
AcDbEntity
  8
NOKITOI
  6
PHANTOM
 62
     8
 48
5.0
100
AcDbCircle
 10
285.733208426338
 20
303.5011755653201
 30
0.0
 40
1.999986844954076
100
AcDbArc
 50
90.00036528735526
 51
181.7883072882699
  0
LINE
  5
355
330
1A
100
AcDbEntity
  8
SEIHIN
  6
CONTINUOUS
 62
     3
 48
16.0
100
AcDbLine
 10
285.6602287530668
 20
476.0128630309866
 30
0.0
 11
285.6602287530668
 21
464.0128630309867
 31
0.0
  0
LINE
  5
356
330
1A
100
AcDbEntity
  8
SEIHIN
  6
CONTINUOUS
 62
     3
 48
16.0
100
AcDbLine
 10
285.6602287530668
 20
452.0128630309867
 30
0.0
 11
285.6602287530668
 21
464.0128630309867
 31
0.0
  0
ARC
  5
357
330
1A
100
AcDbEntity
  8
SEIHIN
  6
CONTINUOUS
 62
     3
 48
16.0
100
AcDbCircle
 10
357.6349436625068
 20
295.4677601336025
 30
0.0
 40
15.99999257594113
100
AcDbArc
 50
89.99969529173577
 51
142.9432277587693
  0
LINE
  5
358
330
1A
100
AcDbEntity
  8
SEIHIN
  6
CONTINUOUS
 62
     3
 48
16.0
100
AcDbLine
 10
302.0653287530667
 20
287.4231527093172
 30
0.0
 11
358.2460287530667
 21
287.4231527093172
 31
0.0
  0
LINE
  5
359
330
1A
100
AcDbEntity
  8
SEIHIN
  6
CONTINUOUS
 62
     3
 48
16.0
100
AcDbLine
 10
302.0653287530667
 20
284.9231527093172
 30
0.0
 11
358.2460287530667
 21
284.9231527093172
 31
0.0
  0
LINE
  5
35A
330
1A
100
AcDbEntity
  8
SEIHIN
  6
CONTINUOUS
 62
     3
 48
16.0
100
AcDbLine
 10
372.8153287530667
 20
293.4231527093173
 30
0.0
 11
336.0420287530668
 21
293.4231527093173
 31
0.0
  0
LINE
  5
35B
330
1A
100
AcDbEntity
  8
SEIHIN
  6
CONTINUOUS
 62
     3
 48
16.0
100
AcDbLine
 10
337.9297287530667
 20
295.9231527093173
 30
0.0
 11
363.5703287530668
 21
295.9231527093173
 31
0.0
  0
ARC
  5
35C
330
1A
100
AcDbEntity
  8
SEIHIN
  6
CONTINUOUS
 62
     3
 48
16.0
100
AcDbCircle
 10
358.0271275095337
 20
295.9871520208159
 30
0.0
 40
28.99995306728966
100
AcDbArc
 50
94.99997284360622
 51
142.9435915196733
  0
LINE
  5
35D
330
1A
100
AcDbEntity
  8
SEIHIN
  6
CONTINUOUS
 62
     3
 48
16.0
100
AcDbLine
 10
320.3099287530668
 20
310.7156527093172
 30
0.0
 11
319.0084287530668
 21
305.8580527093173
 31
0.0
  0
LINE
  5
35E
330
1A
100
AcDbEntity
  8
SEIHIN
  6
CONTINUOUS
 62
     3
 48
16.0
100
AcDbLine
 10
317.9102287530668
 20
305.6233527093172
 30
0.0
 11
319.3440287530667
 21
310.9744527093173
 31
0.0
  0
LINE
  5
35F
330
1A
100
AcDbEntity
  8
SEIHIN
  6
CONTINUOUS
 62
     3
 48
16.0
100
AcDbLine
 10
319.1602287530667
 20
302.6233527093173
 30
0.0
 11
318.6602287530667
 21
301.4233527093173
 31
0.0
  0
LINE
  5
360
330
1A
100
AcDbEntity
  8
SEIHIN
  6
CONTINUOUS
 62
     3
 48
16.0
100
AcDbLine
 10
320.1602287530667
 20
301.4233527093173
 30
0.0
 11
314.6602287530667
 21
301.4233527093173
 31
0.0
  0
LINE
  5
361
330
1A
100
AcDbEntity
  8
SEIHIN
  6
CONTINUOUS
 62
     3
 48
16.0
100
AcDbLine
 10
319.1602287530667
 20
302.6233527093173
 30
0.0
 11
314.6602287530667
 21
302.6233527093173
 31
0.0
  0
LINE
  5
362
330
1A
100
AcDbEntity
  8
SEIHIN
  6
CONTINUOUS
 62
     3
 48
16.0
100
AcDbLine
 10
319.0298287530668
 20
305.5363527093173
 30
0.0
 11
319.2916287530668
 21
304.9079527093173
 31
0.0
  0
LINE
  5
363
330
1A
100
AcDbEntity
  8
SEIHIN
  6
CONTINUOUS
 62
     3
 48
16.0
100
AcDbLine
 10
319.1602287530667
 20
302.6233527093173
 30
0.0
 11
317.9102287530668
 21
305.6233527093172
 31
0.0
  0
LINE
  5
364
330
1A
100
AcDbEntity
  8
SEIHIN
  6
CONTINUOUS
 62
     3
 48
16.0
100
AcDbLine
 10
321.6724287530667
 20
299.9231527093172
 30
0.0
 11
304.6602287530668
 21
299.9231527093172
 31
0.0
  0
LINE
  5
365
330
1A
100
AcDbEntity
  8
SEIHIN
  6
CONTINUOUS
 62
     3
 48
16.0
100
AcDbLine
 10
308.6602287530668
 20
287.9231527093173
 30
0.0
 11
327.4072287530668
 21
287.9231527093173
 31
0.0
  0
LINE
  5
366
330
1A
100
AcDbEntity
  8
SEIHIN
  6
CONTINUOUS
 62
     3
 48
16.0
100
AcDbLine
 10
309.0104287530668
 20
310.7156527093172
 30
0.0
 11
310.3120287530669
 21
305.8580527093173
 31
0.0
  0
LINE
  5
367
330
1A
100
AcDbEntity
  8
SEIHIN
  6
CONTINUOUS
 62
     3
 48
16.0
100
AcDbLine
 10
307.6393287530668
 20
307.0803527093172
 30
0.0
 11
306.3220287530667
 21
309.9054527093172
 31
0.0
  0
LINE
  5
368
330
1A
100
AcDbEntity
  8
SEIHIN
  6
CONTINUOUS
 62
     3
 48
16.0
100
AcDbLine
 10
305.4157287530669
 20
309.4827527093173
 30
0.0
 11
306.7330287530669
 21
306.6577527093173
 31
0.0
  0
LINE
  5
369
330
1A
100
AcDbEntity
  8
SEIHIN
  6
CONTINUOUS
 62
     3
 48
16.0
100
AcDbLine
 10
311.4102287530668
 20
305.6233527093172
 30
0.0
 11
309.9764287530669
 21
310.9744527093173
 31
0.0
  0
LINE
  5
36A
330
1A
100
AcDbEntity
  8
SEIHIN
  6
CONTINUOUS
 62
     3
 48
16.0
100
AcDbLine
 10
304.6602287530668
 20
293.4231527093173
 30
0.0
 11
297.8862287530668
 21
293.4231527093173
 31
0.0
  0
LINE
  5
36B
330
1A
100
AcDbEntity
  8
SEIHIN
  6
CONTINUOUS
 62
     3
 48
16.0
100
AcDbLine
 10
292.3602287530668
 20
295.9231527093173
 30
0.0
 11
304.6602287530668
 21
295.9231527093173
 31
0.0
  0
ARC
  5
36C
330
1A
100
AcDbEntity
  8
SEIHIN
  6
CONTINUOUS
 62
     3
 48
16.0
100
AcDbCircle
 10
288.9580088328731
 20
296.1952934719975
 30
0.0
 40
0.5000170449251222
100
AcDbArc
 50
164.0553202355078
 51
248.0407286048516
  0
ARC
  5
36D
330
1A
100
AcDbEntity
  8
SEIHIN
  6
CONTINUOUS
 62
     3
 48
16.0
100
AcDbCircle
 10
290.3603414773087
 20
299.6729533886022
 30
0.0
 40
4.249771082082489
100
AcDbArc
 50
248.0389576229238
 51
298.0724105654605
  0
LINE
  5
36F
330
1A
100
AcDbEntity
  8
SEIHIN
  6
CONTINUOUS
 62
     3
 48
16.0
100
AcDbLine
 10
293.9502287530668
 20
291.3455527093173
 30
0.0
 11
299.6452287530668
 21
285.8946527093172
 31
0.0
  0
LINE
  5
370
330
1A
100
AcDbEntity
  8
SEIHIN
  6
CONTINUOUS
 62
     3
 48
16.0
100
AcDbLine
 10
288.6602287530668
 20
291.6231527093172
 30
0.0
 11
293.2588287530668
 21
291.6231527093172
 31
0.0
  0
LINE
  5
371
330
1A
100
AcDbEntity
  8
NOKITOI
  6
PHANTOM
 62
     8
 48
5.0
100
AcDbLine
 10
293.3121956754878
 20
290.7011624102336
 30
0.0
 11
287.2712956754878
 21
290.7011624102336
 31
0.0
  0
ARC
  5
372
330
1A
100
AcDbEntity
  8
NOKITOI
  6
PHANTOM
 62
     8
 48
5.0
100
AcDbCircle
 10
291.7682872513251
 20
288.5011699252901
 30
0.0
 40
0.9999924849789756
100
AcDbArc
 50
6.528264606674428
 51
89.99951732740891
  0
ARC
  5
373
330
1A
100
AcDbEntity
  8
NOKITOI
  6
PHANTOM
 62
     8
 48
5.0
100
AcDbCircle
 10
293.3122082451962
 20
290.2011507855039
 30
0.0
 40
0.5000116248877111
100
AcDbArc
 50
4.474846808342897
 51
90.00144034898337
  0
ARC
  5
374
330
1A
100
AcDbEntity
  8
SEIHIN
  6
CONTINUOUS
 62
     3
 48
16.0
100
AcDbCircle
 10
293.2587638083471
 20
290.6231787799969
 30
0.0
 40
0.9999739314292332
100
AcDbArc
 50
46.2523862130428
 51
89.99627884464683
  0
ARC
  5
375
330
1A
100
AcDbEntity
  8
SEIHIN
  6
CONTINUOUS
 62
     3
 48
16.0
100
AcDbCircle
 10
302.0653075748657
 20
288.4231612117449
 30
0.0
 40
1.000008502651889
100
AcDbArc
 50
226.2531815870639
 51
270.0012134112218
  0
ARC
  5
376
330
1A
100
AcDbEntity
  8
SEIHIN
  6
CONTINUOUS
 62
     3
 48
16.0
100
AcDbCircle
 10
302.0652938326038
 20
288.4231667278325
 30
0.0
 40
3.500014018689484
100
AcDbArc
 50
226.2554456348518
 51
270.0005716534663
  0
LINE
  5
377
330
1A
100
AcDbEntity
  8
SEIHIN
  6
CONTINUOUS
 62
     3
 48
16.0
100
AcDbLine
 10
301.3739287530668
 20
287.7007527093173
 30
0.0
 11
297.1947287530669
 21
291.7007527093173
 31
0.0
  0
ARC
  5
378
330
1A
100
AcDbEntity
  8
SEIHIN
  6
CONTINUOUS
 62
     3
 48
16.0
100
AcDbCircle
 10
297.886225339591
 20
292.4231442068896
 30
0.0
 40
1.000008502433529
100
AcDbArc
 50
89.99980442390627
 51
226.2517725997483
  0
LINE
  5
379
330
1A
100
AcDbEntity
  8
SEIHIN
  6
CONTINUOUS
 62
     3
 48
16.0
100
AcDbLine
 10
300.7601287530667
 20
293.4232527093173
 30
0.0
 11
300.7601287530667
 21
288.2881527093172
 31
0.0
  0
ARC
  5
37A
330
1A
100
AcDbEntity
  8
SEIHIN
  6
CONTINUOUS
 62
     3
 48
16.0
100
AcDbCircle
 10
288.6974000019839
 20
298.9231908222224
 30
0.0
 40
0.4999618879215381
100
AcDbArc
 50
344.0560320448722
 51
89.99670511743724
  0
LINE
  5
37B
330
1A
100
AcDbEntity
  8
SEIHIN
  6
CONTINUOUS
 62
     3
 48
16.0
100
AcDbLine
 10
289.1781287530668
 20
298.7858527093172
 30
0.0
 11
288.4772287530669
 21
296.3326527093173
 31
0.0
  0
LINE
  5
37C
330
1A
100
AcDbEntity
  8
SEIHIN
  6
CONTINUOUS
 62
     3
 48
16.0
100
AcDbLine
 10
288.3602287530667
 20
299.4231527093173
 30
0.0
 11
288.6974287530668
 21
299.4231527093173
 31
0.0
  0
LINE
  5
37D
330
1A
100
AcDbEntity
  8
NOKITOI
  6
PHANTOM
 62
     8
 48
5.0
100
AcDbLine
 10
292.1946956754879
 20
296.4749624102335
 30
0.0
 11
292.5104956754877
 21
302.4748624102337
 31
0.0
  0
LINE
  5
37E
330
1A
100
AcDbEntity
  8
NOKITOI
  6
PHANTOM
 62
     8
 48
5.0
100
AcDbLine
 10
288.2059956754878
 20
304.3011624102337
 30
0.0
 11
287.7059956754878
 21
301.8011624102337
 31
0.0
  0
ARC
  5
37F
330
1A
100
AcDbEntity
  8
NOKITOI
  6
PHANTOM
 62
     8
 48
5.0
100
AcDbCircle
 10
288.7900098939031
 20
298.9788477759327
 30
0.0
 40
0.5000073448410256
100
AcDbArc
 50
351.8729478641243
 51
96.47829282996843
  0
LINE
  5
380
330
1A
100
AcDbEntity
  8
NOKITOI
  6
PHANTOM
 62
     8
 48
5.0
100
AcDbLine
 10
291.0311956754878
 20
297.2011624102337
 30
0.0
 11
291.2123956754877
 21
300.6426624102337
 31
0.0
  0
LINE
  5
381
330
1A
100
AcDbEntity
  8
NOKITOI
  6
PHANTOM
 62
     8
 48
5.0
100
AcDbLine
 10
290.2532956754878
 20
297.2011624102337
 30
0.0
 11
290.6573956754876
 21
300.0295624102335
 31
0.0
  0
ARC
  5
382
330
1A
100
AcDbEntity
  8
NOKITOI
  6
PHANTOM
 62
     8
 48
5.0
100
AcDbCircle
 10
291.6952887884929
 20
296.5011558751482
 30
0.0
 40
0.499993464961963
100
AcDbArc
 50
270.0007892017873
 51
356.9970361317427
  0
LINE
  5
383
330
1A
100
AcDbEntity
  8
NOKITOI
  6
PHANTOM
 62
     8
 48
5.0
100
AcDbLine
 10
288.9512956754878
 20
296.5719624102337
 30
0.0
 11
289.2849956754878
 21
298.9081624102337
 31
0.0
  0
ARC
  5
384
330
1A
100
AcDbEntity
  8
NOKITOI
  6
PHANTOM
 62
     8
 48
5.0
100
AcDbCircle
 10
289.4462222760852
 20
296.5011317333515
 30
0.0
 40
0.4999693238254178
100
AcDbArc
 50
171.8555038770532
 51
269.9969516090348
  0
LINE
  5
385
330
1A
100
AcDbEntity
  8
NOKITOI
  6
PHANTOM
 62
     8
 48
5.0
100
AcDbLine
 10
291.6952956754877
 20
296.0011624102337
 30
0.0
 11
289.4461956754877
 21
296.0011624102337
 31
0.0
  0
LINE
  5
386
330
1A
100
AcDbEntity
  8
NOKITOI
  6
PHANTOM
 62
     8
 48
5.0
100
AcDbLine
 10
291.0311956754878
 20
297.2011624102337
 30
0.0
 11
290.2532956754878
 21
297.2011624102337
 31
0.0
  0
LINE
  5
387
330
1A
100
AcDbEntity
  8
NOKITOI
  6
PHANTOM
 62
     8
 48
5.0
100
AcDbLine
 10
287.7059956754878
 20
301.8011624102337
 30
0.0
 11
290.6424956754877
 21
301.8011624102337
 31
0.0
  0
LINE
  5
388
330
1A
100
AcDbEntity
  8
NOKITOI
  6
PHANTOM
 62
     8
 48
5.0
100
AcDbLine
 10
290.6573956754876
 20
300.0295624102335
 30
0.0
 11
291.2123956754877
 21
300.6426624102337
 31
0.0
  0
LINE
  5
389
330
1A
100
AcDbEntity
  8
NOKITOI
  6
PHANTOM
 62
     8
 48
5.0
100
AcDbLine
 10
289.6466956754878
 20
300.7011624102336
 30
0.0
 11
289.1847956754877
 21
300.7011624102336
 31
0.0
  0
LINE
  5
38A
330
1A
100
AcDbEntity
  8
NOKITOI
  6
PHANTOM
 62
     8
 48
5.0
100
AcDbLine
 10
289.6466956754878
 20
300.7011624102336
 30
0.0
 11
290.6424956754877
 21
301.8011624102337
 31
0.0
  0
ARC
  5
38B
330
1A
100
AcDbEntity
  8
NOKITOI
  6
PHANTOM
 62
     8
 48
5.0
100
AcDbCircle
 10
292.01108947433
 20
302.5011689453189
 30
0.0
 40
0.4999934649531607
100
AcDbArc
 50
356.9955363203384
 51
89.99928939038005
  0
ARC
  5
38C
330
1A
100
AcDbEntity
  8
NOKITOI
  6
PHANTOM
 62
     8
 48
5.0
100
AcDbCircle
 10
289.7795884209321
 20
303.501171260077
 30
0.0
 40
0.5000088498959383
100
AcDbArc
 50
168.6864043304884
 51
270.0008312961434
  0
LINE
  5
38D
330
1A
100
AcDbEntity
  8
NOKITOI
  6
PHANTOM
 62
     8
 48
5.0
100
AcDbLine
 10
289.2892956754879
 20
303.5992624102336
 30
0.0
 11
289.5500956754876
 21
304.9031624102336
 31
0.0
  0
LINE
  5
38E
330
1A
100
AcDbEntity
  8
NOKITOI
  6
PHANTOM
 62
     8
 48
5.0
100
AcDbLine
 10
292.0110956754876
 20
303.0011624102336
 30
0.0
 11
289.7795956754878
 21
303.0011624102336
 31
0.0
  0
ARC
  5
38F
330
1A
100
AcDbEntity
  8
NOKITOI
  6
PHANTOM
 62
     8
 48
5.0
100
AcDbCircle
 10
289.0597948924796
 20
305.0011633652354
 30
0.0
 40
0.4999990449987349
100
AcDbArc
 50
348.6967198015448
 51
89.99991027369452
  0
LINE
  5
390
330
1A
100
AcDbEntity
  8
SEIHIN
  6
CONTINUOUS
 62
     3
 48
16.0
100
AcDbLine
 10
304.6602287530668
 20
291.9231527093173
 30
0.0
 11
304.6602287530668
 21
299.9231527093172
 31
0.0
  0
LINE
  5
391
330
1A
100
AcDbEntity
  8
SEIHIN
  6
CONTINUOUS
 62
     3
 48
16.0
100
AcDbLine
 10
304.6602287530668
 20
291.9231527093173
 30
0.0
 11
308.6602287530668
 21
287.9231527093173
 31
0.0
  0
LINE
  5
392
330
1A
100
AcDbEntity
  8
SEIHIN
  6
CONTINUOUS
 62
     3
 48
16.0
100
AcDbLine
 10
309.1602287530668
 20
301.4233527093173
 30
0.0
 11
314.6602287530667
 21
301.4233527093173
 31
0.0
  0
LINE
  5
393
330
1A
100
AcDbEntity
  8
SEIHIN
  6
CONTINUOUS
 62
     3
 48
16.0
100
AcDbLine
 10
310.1602287530667
 20
302.6233527093173
 30
0.0
 11
311.4102287530668
 21
305.6233527093172
 31
0.0
  0
LINE
  5
394
330
1A
100
AcDbEntity
  8
SEIHIN
  6
CONTINUOUS
 62
     3
 48
16.0
100
AcDbLine
 10
310.1602287530667
 20
302.6233527093173
 30
0.0
 11
314.6602287530667
 21
302.6233527093173
 31
0.0
  0
ARC
  5
395
330
1A
100
AcDbEntity
  8
SEIHIN
  6
CONTINUOUS
 62
     3
 48
16.0
100
AcDbCircle
 10
309.5672690433145
 20
305.1002599079306
 30
0.0
 40
0.5000194239278592
100
AcDbArc
 50
222.8739674883015
 51
337.3811237218813
  0
LINE
  5
396
330
1A
100
AcDbEntity
  8
SEIHIN
  6
CONTINUOUS
 62
     3
 48
16.0
100
AcDbLine
 10
309.1602287530668
 20
301.4233527093173
 30
0.0
 11
309.1602287530668
 21
299.9233527093173
 31
0.0
  0
ARC
  5
397
330
1A
100
AcDbEntity
  8
SEIHIN
  6
CONTINUOUS
 62
     3
 48
16.0
100
AcDbCircle
 10
315.7960997819504
 20
310.8838868135681
 30
0.0
 40
9.999973297049335
100
AcDbArc
 50
204.9997646482699
 51
235.6956609843188
  0
ARC
  5
398
330
1A
100
AcDbEntity
  8
SEIHIN
  6
CONTINUOUS
 62
     3
 48
16.0
100
AcDbCircle
 10
315.7960199636079
 20
310.8840143717143
 30
0.0
 40
8.999969641399196
100
AcDbArc
 50
205.0007736415988
 51
222.8782296717042
  0
LINE
  5
399
330
1A
100
AcDbEntity
  8
SEIHIN
  6
CONTINUOUS
 62
     3
 48
16.0
100
AcDbLine
 10
310.2906287530668
 20
305.5363527093173
 30
0.0
 11
310.0288287530668
 21
304.9079527093173
 31
0.0
  0
ARC
  5
39A
330
1A
100
AcDbEntity
  8
SEIHIN
  6
CONTINUOUS
 62
     3
 48
16.0
100
AcDbCircle
 10
309.8290266420165
 20
305.728621003307
 30
0.0
 40
0.5000436038985453
100
AcDbArc
 50
337.3871071408895
 51
15.00129275637822
  0
LINE
  5
39B
330
1A
100
AcDbEntity
  8
SEIHIN
  6
CONTINUOUS
 62
     3
 48
16.0
100
AcDbLine
 10
310.1602287530667
 20
302.6233527093173
 30
0.0
 11
310.6602287530668
 21
301.4233527093173
 31
0.0
  0
ARC
  5
39C
330
1A
100
AcDbEntity
  8
SEIHIN
  6
CONTINUOUS
 62
     3
 48
16.0
100
AcDbCircle
 10
319.4913313055605
 20
305.728614380512
 30
0.0
 40
0.4999491535834088
100
AcDbArc
 50
164.9950208123251
 51
202.6165792903857
  0
LINE
  5
39D
330
1A
100
AcDbEntity
  8
SEIHIN
  6
CONTINUOUS
 62
     3
 48
16.0
100
AcDbLine
 10
314.6602287530667
 20
305.6233527093172
 30
0.0
 11
317.9102287530668
 21
305.6233527093172
 31
0.0
  0
LINE
  5
39E
330
1A
100
AcDbEntity
  8
SEIHIN
  6
CONTINUOUS
 62
     3
 48
16.0
100
AcDbLine
 10
314.6602287530667
 20
305.6233527093172
 30
0.0
 11
311.4102287530668
 21
305.6233527093172
 31
0.0
  0
LINE
  5
39F
330
1A
100
AcDbEntity
  8
SEIHIN
  6
CONTINUOUS
 62
     3
 48
16.0
100
AcDbLine
 10
312.1602287530667
 20
306.9233527093172
 30
0.0
 11
312.1602287530667
 21
305.6233527093172
 31
0.0
  0
LINE
  5
3A0
330
1A
100
AcDbEntity
  8
SEIHIN
  6
CONTINUOUS
 62
     3
 48
16.0
100
AcDbLine
 10
314.6602287530667
 20
306.9233527093172
 30
0.0
 11
312.1602287530667
 21
306.9233527093172
 31
0.0
  0
LINE
  5
3A1
330
1A
100
AcDbEntity
  8
SEIHIN
  6
CONTINUOUS
 62
     3
 48
16.0
100
AcDbLine
 10
314.6602287530667
 20
306.9233527093172
 30
0.0
 11
317.1602287530667
 21
306.9233527093172
 31
0.0
  0
LINE
  5
3A2
330
1A
100
AcDbEntity
  8
SEIHIN
  6
CONTINUOUS
 62
     3
 48
16.0
100
AcDbLine
 10
317.1602287530667
 20
306.9233527093172
 30
0.0
 11
317.1602287530667
 21
305.6233527093172
 31
0.0
  0
ARC
  5
3A3
330
1A
100
AcDbEntity
  8
SEIHIN
  6
CONTINUOUS
 62
     3
 48
16.0
100
AcDbCircle
 10
306.77520084588
 20
310.116692865392
 30
0.0
 40
0.4999873490831986
100
AcDbArc
 50
104.9959479424287
 51
204.9919550393974
  0
ARC
  5
3A4
330
1A
100
AcDbEntity
  8
SEIHIN
  6
CONTINUOUS
 62
     3
 48
16.0
100
AcDbCircle
 10
306.7751921683024
 20
310.1166742433692
 30
0.0
 40
1.499999096232611
100
AcDbArc
 50
105.0013872902924
 51
204.9997691832177
  0
ARC
  5
3A5
330
1A
100
AcDbEntity
  8
SEIHIN
  6
CONTINUOUS
 62
     3
 48
16.0
100
AcDbCircle
 10
308.5275287530668
 20
310.5862527093173
 30
0.0
 40
1.500003483329345
100
AcDbArc
 50
14.99883465683416
 51
104.9988346568333
  0
ARC
  5
3A6
330
1A
100
AcDbEntity
  8
SEIHIN
  6
CONTINUOUS
 62
     3
 48
16.0
100
AcDbCircle
 10
308.5274537510193
 20
310.5862960032824
 30
0.0
 40
0.4999980099950331
100
AcDbArc
 50
14.9937953379066
 51
105.00189702589
  0
LINE
  5
3A7
330
1A
100
AcDbEntity
  8
SEIHIN
  6
CONTINUOUS
 62
     3
 48
16.0
100
AcDbLine
 10
306.6458287530668
 20
310.5996527093173
 30
0.0
 11
308.3981287530669
 21
311.0692527093172
 31
0.0
  0
LINE
  5
3A8
330
1A
100
AcDbEntity
  8
SEIHIN
  6
CONTINUOUS
 62
     3
 48
16.0
100
AcDbLine
 10
308.1392287530669
 20
312.0351527093173
 30
0.0
 11
306.3869287530668
 21
311.5655527093173
 31
0.0
  0
LINE
  5
3A9
330
1A
100
AcDbEntity
  8
SEIHIN
  6
CONTINUOUS
 62
     3
 48
16.0
100
AcDbLine
 10
323.9047287530667
 20
309.4827527093173
 30
0.0
 11
322.5873287530667
 21
306.6577527093173
 31
0.0
  0
LINE
  5
3AA
330
1A
100
AcDbEntity
  8
SEIHIN
  6
CONTINUOUS
 62
     3
 48
16.0
100
AcDbLine
 10
321.6810287530667
 20
307.0803527093172
 30
0.0
 11
322.9984287530669
 21
309.9053527093172
 31
0.0
  0
LINE
  5
3AB
330
1A
100
AcDbEntity
  8
SEIHIN
  6
CONTINUOUS
 62
     3
 48
16.0
100
AcDbLine
 10
334.8839287530668
 20
313.4625527093172
 30
0.0
 11
326.4607287530668
 21
302.3075527093173
 31
0.0
  0
LINE
  5
3AC
330
1A
100
AcDbEntity
  8
SEIHIN
  6
CONTINUOUS
 62
     3
 48
16.0
100
AcDbLine
 10
334.5896287530667
 20
291.4997527093173
 30
0.0
 11
344.8662287530668
 21
305.1094527093173
 31
0.0
  0
ARC
  5
3AD
330
1A
100
AcDbEntity
  8
SEIHIN
  6
CONTINUOUS
 62
     3
 48
16.0
100
AcDbCircle
 10
327.4072364130779
 20
296.92315652376
 30
0.0
 40
9.000003814445937
100
AcDbArc
 50
269.9999512348754
 51
322.9436511488666
  0
ARC
  5
3AE
330
1A
100
AcDbEntity
  8
SEIHIN
  6
CONTINUOUS
 62
     3
 48
16.0
100
AcDbCircle
 10
319.7531884628192
 20
305.1002599079306
 30
0.0
 40
0.50001942392786
100
AcDbArc
 50
202.6188762781186
 51
317.1260325116985
  0
LINE
  5
3AF
330
1A
100
AcDbEntity
  8
SEIHIN
  6
CONTINUOUS
 62
     3
 48
16.0
100
AcDbLine
 10
320.1602287530667
 20
301.4233527093173
 30
0.0
 11
320.1602287530667
 21
299.9233527093173
 31
0.0
  0
ARC
  5
3B0
330
1A
100
AcDbEntity
  8
SEIHIN
  6
CONTINUOUS
 62
     3
 48
16.0
100
AcDbCircle
 10
313.5243152979321
 20
310.8838327150031
 30
0.0
 40
9.000003660861509
100
AcDbArc
 50
317.1226808124497
 51
335.000603367357
  0
ARC
  5
3B1
330
1A
100
AcDbEntity
  8
SEIHIN
  6
CONTINUOUS
 62
     3
 48
16.0
100
AcDbCircle
 10
313.5244094128232
 20
310.8839476595897
 30
0.0
 40
9.999994428414913
100
AcDbArc
 50
304.3038978962826
 51
334.9992749556037
  0
ARC
  5
3B2
330
1A
100
AcDbEntity
  8
SEIHIN
  6
CONTINUOUS
 62
     3
 48
16.0
100
AcDbCircle
 10
321.6724605696327
 20
305.9231685530256
 30
0.0
 40
6.000015843792626
100
AcDbArc
 50
269.9996961749781
 51
322.9435879013313
  0
ARC
  5
3B3
330
1A
100
AcDbEntity
  8
SEIHIN
  6
CONTINUOUS
 62
     3
 48
16.0
100
AcDbCircle
 10
322.5452270391623
 20
310.1166563848771
 30
0.0
 40
1.500026259769233
100
AcDbArc
 50
335.0014672723521
 51
74.99737625414273
  0
ARC
  5
3B4
330
1A
100
AcDbEntity
  8
SEIHIN
  6
CONTINUOUS
 62
     3
 48
16.0
100
AcDbCircle
 10
322.5452228727439
 20
310.1166653213574
 30
0.0
 40
0.5000485876057629
100
AcDbArc
 50
335.0021558950507
 51
74.99006130403002
  0
ARC
  5
3B5
330
1A
100
AcDbEntity
  8
SEIHIN
  6
CONTINUOUS
 62
     3
 48
16.0
100
AcDbCircle
 10
320.7929446027313
 20
310.5862618598748
 30
0.0
 40
1.500016424910135
100
AcDbArc
 50
74.99797012300735
 51
165.0016596357627
  0
ARC
  5
3B6
330
1A
100
AcDbEntity
  8
SEIHIN
  6
CONTINUOUS
 62
     3
 48
16.0
100
AcDbCircle
 10
320.7928696041769
 20
310.5862185587662
 30
0.0
 40
0.4999850647767057
100
AcDbArc
 50
74.99365376778714
 51
164.9966195745719
  0
LINE
  5
3B7
330
1A
100
AcDbEntity
  8
SEIHIN
  6
CONTINUOUS
 62
     3
 48
16.0
100
AcDbLine
 10
321.1812287530668
 20
312.0351527093173
 30
0.0
 11
322.9335287530667
 21
311.5655527093173
 31
0.0
  0
LINE
  5
3B8
330
1A
100
AcDbEntity
  8
SEIHIN
  6
CONTINUOUS
 62
     3
 48
16.0
100
AcDbLine
 10
322.6747287530667
 20
310.5996527093173
 30
0.0
 11
320.9223287530669
 21
311.0691527093172
 31
0.0
  0
LINE
  5
3B9
330
1A
100
AcDbEntity
  8
SEIHIN
  6
CONTINUOUS
 62
     3
 48
16.0
100
AcDbLine
 10
407.9745287530668
 20
329.4677527093174
 30
0.0
 11
355.4995287530668
 21
324.8767527093173
 31
0.0
  0
ARC
  5
3BA
330
1A
100
AcDbEntity
  8
SEIHIN
  6
CONTINUOUS
 62
     3
 48
16.0
100
AcDbCircle
 10
386.8188183168013
 20
288.7204354976285
 30
0.0
 40
2.000003477458741
100
AcDbArc
 50
92.67925038682539
 51
204.8592541446019
  0
LINE
  5
3BB
330
1A
100
AcDbEntity
  8
SEIHIN
  6
CONTINUOUS
 62
     3
 48
16.0
100
AcDbLine
 10
373.8446287530669
 20
285.0454527093173
 30
0.0
 11
384.8678287530668
 21
287.6006527093173
 31
0.0
  0
ARC
  5
3BC
330
1A
100
AcDbEntity
  8
SEIHIN
  6
CONTINUOUS
 62
     3
 48
16.0
100
AcDbCircle
 10
399.6196292267731
 20
288.9231529452061
 30
0.0
 40
22.4999997641111
100
AcDbArc
 50
90.00000120628323
 51
142.9433444493904
  0
ARC
  5
3BD
330
1A
100
AcDbEntity
  8
SEIHIN
  6
CONTINUOUS
 62
     3
 48
16.0
100
AcDbCircle
 10
399.6196224511585
 20
288.9231495711928
 30
0.0
 40
20.00000313812555
100
AcDbArc
 50
89.99998194636523
 51
142.9432997870778
  0
LINE
  5
3BE
330
1A
100
AcDbEntity
  8
SEIHIN
  6
CONTINUOUS
 62
     3
 48
16.0
100
AcDbLine
 10
357.6350287530668
 20
311.4677527093173
 30
0.0
 11
413.8756287530667
 21
311.4677527093173
 31
0.0
  0
LINE
  5
3BF
330
1A
100
AcDbEntity
  8
SEIHIN
  6
CONTINUOUS
 62
     3
 48
16.0
100
AcDbLine
 10
378.0757287530668
 20
307.6869527093173
 30
0.0
 11
370.4030287530667
 21
297.5257527093173
 31
0.0
  0
LINE
  5
3C0
330
1A
100
AcDbEntity
  8
SEIHIN
  6
CONTINUOUS
 62
     3
 48
16.0
100
AcDbLine
 10
376.0806287530669
 20
309.1934527093172
 30
0.0
 11
367.5606287530667
 21
297.9101527093173
 31
0.0
  0
ARC
  5
3C1
330
1A
100
AcDbEntity
  8
SEIHIN
  6
CONTINUOUS
 62
     3
 48
16.0
100
AcDbCircle
 10
367.9071939900506
 20
285.9231353990176
 30
0.0
 40
0.9999826903046468
100
AcDbArc
 50
270.0019918085928
 51
322.9441571624571
  0
ARC
  5
3C2
330
1A
100
AcDbEntity
  8
SEIHIN
  6
CONTINUOUS
 62
     3
 48
16.0
100
AcDbCircle
 10
363.5703953313805
 20
300.9231858635974
 30
0.0
 40
5.00003315472331
100
AcDbArc
 50
269.9992370737827
 51
322.9434740581009
  0
ARC
  5
3C3
330
1A
100
AcDbEntity
  8
SEIHIN
  6
CONTINUOUS
 62
     3
 48
16.0
100
AcDbCircle
 10
358.2460735916724
 20
283.9231341365587
 30
0.0
 40
3.500018573045792
100
AcDbArc
 50
45.0007340140658
 51
90.00073401406583
  0
LINE
  5
3C4
330
1A
100
AcDbEntity
  8
SEIHIN
  6
CONTINUOUS
 62
     3
 48
16.0
100
AcDbLine
 10
355.5603287530668
 20
293.4231527093173
 30
0.0
 11
355.5603287530668
 21
287.4230527093173
 31
0.0
  0
ARC
  5
3C5
330
1A
100
AcDbEntity
  8
SEIHIN
  6
CONTINUOUS
 62
     3
 48
16.0
100
AcDbCircle
 10
358.2460171768573
 20
283.9231575043401
 30
0.0
 40
0.9999952050441148
100
AcDbArc
 50
44.9993367288794
 51
89.99933672888053
  0
ARC
  5
3C6
330
1A
100
AcDbEntity
  8
SEIHIN
  6
CONTINUOUS
 62
     3
 48
16.0
100
AcDbCircle
 10
362.6100403292764
 20
285.9231479142944
 30
0.0
 40
0.9999952050442001
100
AcDbArc
 50
224.9993367288675
 51
269.9993367288687
  0
LINE
  5
3C7
330
1A
100
AcDbEntity
  8
SEIHIN
  6
CONTINUOUS
 62
     3
 48
16.0
100
AcDbLine
 10
361.9029287530667
 20
285.2160527093173
 30
0.0
 11
360.7209287530667
 21
286.3980527093173
 31
0.0
  0
LINE
  5
3C8
330
1A
100
AcDbEntity
  8
SEIHIN
  6
CONTINUOUS
 62
     3
 48
16.0
100
AcDbLine
 10
362.6100287530669
 20
284.9231527093172
 30
0.0
 11
367.9072287530668
 21
284.9231527093172
 31
0.0
  0
ARC
  5
3C9
330
1A
100
AcDbEntity
  8
SEIHIN
  6
CONTINUOUS
 62
     3
 48
16.0
100
AcDbCircle
 10
371.2010373727582
 20
296.9231353990176
 30
0.0
 40
0.9999826897375097
100
AcDbArc
 50
142.9416714733751
 51
269.9995061195088
  0
LINE
  5
3CA
330
1A
100
AcDbEntity
  8
SEIHIN
  6
CONTINUOUS
 62
     3
 48
16.0
100
AcDbLine
 10
372.8208287530667
 20
286.6222527093172
 30
0.0
 11
383.6587287530669
 21
300.9752527093172
 31
0.0
  0
LINE
  5
3CB
330
1A
100
AcDbEntity
  8
SEIHIN
  6
CONTINUOUS
 62
     3
 48
16.0
100
AcDbLine
 10
373.6134287530668
 20
291.8205527093172
 30
0.0
 11
368.7052287530669
 21
285.3205527093173
 31
0.0
  0
ARC
  5
3CC
330
1A
100
AcDbEntity
  8
SEIHIN
  6
CONTINUOUS
 62
     3
 48
16.0
100
AcDbCircle
 10
373.6188179898277
 20
286.0195692854547
 30
0.0
 40
0.9999468009350948
100
AcDbArc
 50
142.9425516661896
 51
283.0512651047659
  0
ARC
  5
3CD
330
1A
100
AcDbEntity
  8
SEIHIN
  6
CONTINUOUS
 62
     3
 48
16.0
100
AcDbCircle
 10
372.8153400036337
 20
292.4231301173276
 30
0.0
 40
1.000022592052962
100
AcDbArc
 50
322.946262556517
 51
90.00064459544265
  0
ARC
  5
3CE
330
1A
100
AcDbEntity
  8
SEIHIN
  6
CONTINUOUS
 62
     3
 48
16.0
100
AcDbCircle
 10
376.2133741194913
 20
296.9231753013069
 30
0.0
 40
1.000022593018631
100
AcDbArc
 50
269.9974007540733
 51
322.9430187151463
  0
LINE
  5
3CF
330
1A
100
AcDbEntity
  8
SEIHIN
  6
CONTINUOUS
 62
     3
 48
16.0
100
AcDbLine
 10
371.2010287530667
 20
295.9231527093173
 30
0.0
 11
376.2133287530669
 21
295.9231527093173
 31
0.0
  0
LINE
  5
3D0
330
1A
100
AcDbEntity
  8
SEIHIN
  6
CONTINUOUS
 62
     3
 48
16.0
100
AcDbLine
 10
381.6637287530669
 20
302.4817527093172
 30
0.0
 11
377.0114287530668
 21
296.3205527093173
 31
0.0
  0
ARC
  5
3D1
330
1A
100
AcDbEntity
  8
SEIHIN
  6
CONTINUOUS
 62
     3
 48
16.0
100
AcDbCircle
 10
397.627670205122
 20
292.9230834723692
 30
0.0
 40
26.99999834154084
100
AcDbArc
 50
136.619543011824
 51
142.9432105668314
  0
ARC
  5
3D2
330
1A
100
AcDbEntity
  8
SEIHIN
  6
CONTINUOUS
 62
     3
 48
16.0
100
AcDbCircle
 10
397.6275579509842
 20
292.922970346943
 30
0.0
 40
24.49998367715852
100
AcDbArc
 50
130.8056693594519
 51
142.9428069711141
  0
ARC
  5
3D3
330
1A
100
AcDbEntity
  8
SEIHIN
  6
CONTINUOUS
 62
     3
 48
16.0
100
AcDbCircle
 10
401.6603287530669
 20
305.9231527093173
 30
0.0
 40
3.0
100
AcDbArc
 50
0.0
 51
90.0
  0
LINE
  5
3D4
330
1A
100
AcDbEntity
  8
NOKITOI
  6
PHANTOM
 62
     8
 48
5.0
100
AcDbLine
 10
401.6061956754878
 20
305.5010624102336
 30
0.0
 11
398.2795956754878
 21
305.5011624102335
 31
0.0
  0
ARC
  5
3D5
330
1A
100
AcDbEntity
  8
NOKITOI
  6
PHANTOM
 62
     8
 48
5.0
100
AcDbCircle
 10
398.1546647485516
 20
295.5011981548975
 30
0.0
 40
3.99998565374706
100
AcDbArc
 50
358.2086966591014
 51
83.52422380468325
  0
ARC
  5
3D6
330
1A
100
AcDbEntity
  8
NOKITOI
  6
PHANTOM
 62
     8
 48
5.0
100
AcDbCircle
 10
398.1546778091368
 20
295.5011711386136
 30
0.0
 40
5.199991271650611
100
AcDbArc
 50
37.92532860473096
 51
89.99980314072548
  0
LINE
  5
3D7
330
1A
100
AcDbEntity
  8
NOKITOI
  6
PHANTOM
 62
     8
 48
5.0
100
AcDbLine
 10
401.6061956754878
 20
304.3010624102335
 30
0.0
 11
399.1334956754877
 21
304.3011624102337
 31
0.0
  0
LINE
  5
3D8
330
1A
100
AcDbEntity
  8
SEIHIN
  6
CONTINUOUS
 62
     3
 48
16.0
100
AcDbLine
 10
396.6925287530667
 20
289.3256527093173
 30
0.0
 11
403.3055287530668
 21
285.2981527093173
 31
0.0
  0
ARC
  5
3D9
330
1A
100
AcDbEntity
  8
NOKITOI
  6
PHANTOM
 62
     8
 48
5.0
100
AcDbCircle
 10
400.0681336633121
 20
292.7010992308058
 30
0.0
 40
2.000036820932882
100
AcDbArc
 50
269.9989117490339
 51
358.2110591274196
  0
LINE
  5
3DA
330
1A
100
AcDbEntity
  8
NOKITOI
  6
PHANTOM
 62
     8
 48
5.0
100
AcDbLine
 10
401.7157956754876
 20
289.5011624102337
 30
0.0
 11
395.5746956754878
 21
289.5011624102337
 31
0.0
  0
LINE
  5
3DB
330
1A
100
AcDbEntity
  8
SEIHIN
  6
CONTINUOUS
 62
     3
 48
16.0
100
AcDbLine
 10
387.5575287530669
 20
293.4503527093173
 30
0.0
 11
389.1156287530667
 21
287.9503527093172
 31
0.0
  0
ARC
  5
3DC
330
1A
100
AcDbEntity
  8
SEIHIN
  6
CONTINUOUS
 62
     3
 48
16.0
100
AcDbCircle
 10
384.8226069636442
 20
287.7955081410071
 30
0.0
 40
0.2000341208334694
100
AcDbArc
 50
283.0658282482682
 51
24.8441313454634
  0
ARC
  5
3DD
330
1A
100
AcDbEntity
  8
SEIHIN
  6
CONTINUOUS
 62
     3
 48
16.0
100
AcDbCircle
 10
388.490357073319
 20
287.7732026821432
 30
0.0
 40
0.6499783611463138
100
AcDbArc
 50
285.0953788674784
 51
15.81591890613727
  0
ARC
  5
3DE
330
1A
100
AcDbEntity
  8
SEIHIN
  6
CONTINUOUS
 62
     3
 48
16.0
100
AcDbCircle
 10
386.7159097433381
 20
290.9180262987011
 30
0.0
 40
0.1999955118486578
100
AcDbArc
 50
272.699406605467
 51
15.82131391095824
  0
LINE
  5
3DF
330
1A
100
AcDbEntity
  8
SEIHIN
  6
CONTINUOUS
 62
     3
 48
16.0
100
AcDbLine
 10
386.3067287530667
 20
293.0959527093173
 30
0.0
 11
386.9084287530667
 21
290.9725527093172
 31
0.0
  0
ARC
  5
3E0
330
1A
100
AcDbEntity
  8
SEIHIN
  6
CONTINUOUS
 62
     3
 48
16.0
100
AcDbCircle
 10
386.9322418640372
 20
293.2731564231139
 30
0.0
 40
0.6500056036790825
100
AcDbArc
 50
15.81947672445442
 51
195.8109957391704
  0
ARC
  5
3E1
330
1A
100
AcDbEntity
  8
SEIHIN
  6
CONTINUOUS
 62
     3
 48
16.0
100
AcDbCircle
 10
396.1603081053648
 20
287.9231187822398
 30
0.0
 40
1.499991101149739
100
AcDbArc
 50
69.22192559862861
 51
228.1289137274091
  0
ARC
  5
3E2
330
1A
100
AcDbEntity
  8
NOKITOI
  6
PHANTOM
 62
     8
 48
5.0
100
AcDbCircle
 10
394.0362087464925
 20
290.2011742405136
 30
0.0
 40
0.499988169890889
100
AcDbArc
 50
90.00149786226627
 51
174.2966061377156
  0
ARC
  5
3E3
330
1A
100
AcDbEntity
  8
NOKITOI
  6
PHANTOM
 62
     8
 48
5.0
100
AcDbCircle
 10
395.5747163253289
 20
288.5011810980829
 30
0.0
 40
0.9999813123640345
100
AcDbArc
 50
90.00118317084957
 51
174.290590033351
  0
LINE
  5
3E4
330
1A
100
AcDbEntity
  8
NOKITOI
  6
PHANTOM
 62
     8
 48
5.0
100
AcDbLine
 10
394.0361956754877
 20
290.7011624102336
 30
0.0
 11
400.0680956754878
 21
290.7011624102336
 31
0.0
  0
LINE
  5
3E5
330
1A
100
AcDbEntity
  8
NOKITOI
  6
PHANTOM
 62
     8
 48
5.0
100
AcDbLine
 10
395.1447956754877
 20
296.4748624102337
 30
0.0
 11
394.8289956754878
 21
302.4748624102337
 31
0.0
  0
LINE
  5
3E6
330
1A
100
AcDbEntity
  8
NOKITOI
  6
PHANTOM
 62
     8
 48
5.0
100
AcDbLine
 10
399.1334956754877
 20
304.3011624102337
 30
0.0
 11
399.6334956754877
 21
301.8011624102337
 31
0.0
  0
ARC
  5
3E7
330
1A
100
AcDbEntity
  8
NOKITOI
  6
PHANTOM
 62
     8
 48
5.0
100
AcDbCircle
 10
398.5494250479877
 20
298.9787926427286
 30
0.0
 40
0.4999578477751074
100
AcDbArc
 50
83.52609071220776
 51
188.1330561712924
  0
LINE
  5
3E8
330
1A
100
AcDbEntity
  8
NOKITOI
  6
PHANTOM
 62
     8
 48
5.0
100
AcDbLine
 10
396.3081956754878
 20
297.2011624102337
 30
0.0
 11
396.1270956754877
 21
300.6425624102335
 31
0.0
  0
LINE
  5
3E9
330
1A
100
AcDbEntity
  8
NOKITOI
  6
PHANTOM
 62
     8
 48
5.0
100
AcDbLine
 10
397.0860956754876
 20
297.2011624102337
 30
0.0
 11
396.6820956754876
 21
300.0295624102335
 31
0.0
  0
ARC
  5
3EA
330
1A
100
AcDbEntity
  8
NOKITOI
  6
PHANTOM
 62
     8
 48
5.0
100
AcDbCircle
 10
395.6440997968947
 20
296.5011585002031
 30
0.0
 40
0.4999960899864752
100
AcDbArc
 50
183.0147243791737
 51
269.9995277178594
  0
LINE
  5
3EB
330
1A
100
AcDbEntity
  8
NOKITOI
  6
PHANTOM
 62
     8
 48
5.0
100
AcDbLine
 10
398.3881956754876
 20
296.5718624102335
 30
0.0
 11
398.0543956754877
 21
298.9080624102337
 31
0.0
  0
ARC
  5
3EC
330
1A
100
AcDbEntity
  8
NOKITOI
  6
PHANTOM
 62
     8
 48
5.0
100
AcDbCircle
 10
397.8932058619239
 20
296.5011741549578
 30
0.0
 40
0.5000117448278309
100
AcDbArc
 50
269.9988327478018
 51
8.127314608715803
  0
LINE
  5
3ED
330
1A
100
AcDbEntity
  8
NOKITOI
  6
PHANTOM
 62
     8
 48
5.0
100
AcDbLine
 10
396.3081956754878
 20
297.2011624102337
 30
0.0
 11
397.0860956754876
 21
297.2011624102337
 31
0.0
  0
LINE
  5
3EE
330
1A
100
AcDbEntity
  8
NOKITOI
  6
PHANTOM
 62
     8
 48
5.0
100
AcDbLine
 10
395.6440956754878
 20
296.0011624102337
 30
0.0
 11
397.8931956754876
 21
296.0011624102337
 31
0.0
  0
LINE
  5
3EF
330
1A
100
AcDbEntity
  8
NOKITOI
  6
PHANTOM
 62
     8
 48
5.0
100
AcDbLine
 10
397.6926956754878
 20
300.7011624102336
 30
0.0
 11
398.1546956754878
 21
300.7011624102336
 31
0.0
  0
LINE
  5
3F0
330
1A
100
AcDbEntity
  8
NOKITOI
  6
PHANTOM
 62
     8
 48
5.0
100
AcDbLine
 10
396.6820956754876
 20
300.0295624102335
 30
0.0
 11
396.1270956754877
 21
300.6425624102335
 31
0.0
  0
LINE
  5
3F1
330
1A
100
AcDbEntity
  8
NOKITOI
  6
PHANTOM
 62
     8
 48
5.0
100
AcDbLine
 10
399.6334956754877
 20
301.8011624102337
 30
0.0
 11
396.6968956754878
 21
301.8011624102337
 31
0.0
  0
LINE
  5
3F2
330
1A
100
AcDbEntity
  8
NOKITOI
  6
PHANTOM
 62
     8
 48
5.0
100
AcDbLine
 10
397.6926956754878
 20
300.7011624102336
 30
0.0
 11
396.6968956754878
 21
301.8011624102337
 31
0.0
  0
LINE
  5
3F3
330
1A
100
AcDbEntity
  8
NOKITOI
  6
PHANTOM
 62
     8
 48
5.0
100
AcDbLine
 10
395.3282956754878
 20
303.0011624102336
 30
0.0
 11
397.5597956754878
 21
303.0011624102336
 31
0.0
  0
ARC
  5
3F4
330
1A
100
AcDbEntity
  8
NOKITOI
  6
PHANTOM
 62
     8
 48
5.0
100
AcDbCircle
 10
395.3282993849829
 20
302.5011663202643
 30
0.0
 40
0.4999960899831856
100
AcDbArc
 50
90.00042508015132
 51
183.0156217414654
  0
ARC
  5
3F5
330
1A
100
AcDbEntity
  8
NOKITOI
  6
PHANTOM
 62
     8
 48
5.0
100
AcDbCircle
 10
397.5597948924796
 20
303.5011614552318
 30
0.0
 40
0.4999990449987399
100
AcDbArc
 50
270.0000897263054
 51
11.30328019845509
  0
LINE
  5
3F6
330
1A
100
AcDbEntity
  8
NOKITOI
  6
PHANTOM
 62
     8
 48
5.0
100
AcDbLine
 10
398.0500956754877
 20
303.5991624102337
 30
0.0
 11
397.7892956754878
 21
304.9031624102336
 31
0.0
  0
ARC
  5
3F7
330
1A
100
AcDbEntity
  8
NOKITOI
  6
PHANTOM
 62
     8
 48
5.0
100
AcDbCircle
 10
398.279588420932
 20
305.0011535603902
 30
0.0
 40
0.500008849895925
100
AcDbArc
 50
89.99916870385492
 51
191.3135956695117
  0
LINE
  5
3F8
330
1A
100
AcDbEntity
  8
SEIHIN
  6
CONTINUOUS
 62
     3
 48
16.0
100
AcDbLine
 10
404.6603287530668
 20
305.9231527093173
 30
0.0
 11
404.6603287530668
 21
286.2330527093173
 31
0.0
  0
LINE
  5
3F9
330
1A
100
AcDbEntity
  8
NOKITOI
  6
PHANTOM
 62
     8
 48
5.0
100
AcDbLine
 10
403.6051956754879
 20
303.4386624102336
 30
0.0
 11
403.2150956754878
 21
290.9542624102336
 31
0.0
  0
ARC
  5
3FA
330
1A
100
AcDbEntity
  8
SEIHIN
  6
CONTINUOUS
 62
     3
 48
16.0
100
AcDbCircle
 10
403.6603484909564
 20
286.2330663301401
 30
0.0
 40
0.9999802622031834
100
AcDbArc
 50
249.2171738629508
 51
359.9992195689385
  0
ARC
  5
3FB
330
1A
100
AcDbEntity
  8
NOKITOI
  6
PHANTOM
 62
     8
 48
5.0
100
AcDbCircle
 10
401.7158128886658
 20
291.0011790933814
 30
0.0
 40
1.500016683246579
100
AcDbArc
 50
269.9993425123348
 51
358.207642324411
  0
LINE
  5
3FC
330
1A
100
AcDbEntity
  8
NOKITOI
  6
PHANTOM
 62
     8
 48
5.0
100
AcDbLine
 10
402.0671956754878
 20
292.6385624102337
 30
0.0
 11
402.1526956754877
 21
295.3761624102335
 31
0.0
  0
LINE
  5
3FD
330
1A
100
AcDbEntity
  8
NOKITOI
  6
PHANTOM
 62
     8
 48
5.0
100
AcDbLine
 10
402.4057956754877
 20
303.4761624102336
 30
0.0
 11
402.2564956754878
 21
298.6971624102337
 31
0.0
  0
ARC
  5
3FE
330
1A
100
AcDbEntity
  8
NOKITOI
  6
PHANTOM
 62
     8
 48
5.0
100
AcDbCircle
 10
401.6062396418409
 20
303.5011170477606
 30
0.0
 40
0.7999453636812564
100
AcDbArc
 50
358.212343644788
 51
90.00314907315372
  0
ARC
  5
3FF
330
1A
100
AcDbEntity
  8
NOKITOI
  6
PHANTOM
 62
     8
 48
5.0
100
AcDbCircle
 10
401.6061844384934
 20
303.5011740040508
 30
0.0
 40
1.999988406214315
100
AcDbArc
 50
358.2088726535929
 51
89.99967808195611
  0
LINE
  5
400
330
1A
100
AcDbEntity
  8
SEIHIN
  6
CONTINUOUS
 62
     3
 48
16.0
100
AcDbLine
 10
401.6603287530669
 20
308.9231527093173
 30
0.0
 11
399.6196287530668
 21
308.9231527093173
 31
0.0
  0
LINE
  5
401
330
1A
100
AcDbEntity
  8
SEIHIN
  6
CONTINUOUS
 62
     3
 48
16.0
100
AcDbLine
 10
404.6603287530668
 20
311.4231527093172
 30
0.0
 11
399.6196287530668
 21
311.4231527093172
 31
0.0
  0
ARC
  5
402
330
1A
100
AcDbEntity
  8
SEIHIN
  6
CONTINUOUS
 62
     3
 48
16.0
100
AcDbCircle
 10
398.6603317468183
 20
309.9231141753258
 30
0.0
 40
9.999997006322791
100
AcDbArc
 50
0.0002207835746582
 51
8.885125605614046
  0
ARC
  5
403
330
1A
100
AcDbEntity
  8
SEIHIN
  6
CONTINUOUS
 62
     3
 48
16.0
100
AcDbCircle
 10
404.6602164765855
 20
312.4231357590296
 30
0.0
 40
0.9999830560154592
100
AcDbArc
 50
270.0064330775359
 51
287.1765638589037
  0
LINE
  5
404
330
1A
100
AcDbEntity
  8
SEIHIN
  6
CONTINUOUS
 62
     3
 48
16.0
100
AcDbLine
 10
407.9745287530668
 20
329.4677527093174
 30
0.0
 11
414.6602287530667
 21
329.4677527093174
 31
0.0
  0
LINE
  5
405
330
1A
100
AcDbEntity
  8
SEIHIN
  6
CONTINUOUS
 62
     3
 48
16.0
100
AcDbLine
 10
411.0836287530668
 20
327.6766527093173
 30
0.0
 11
410.1908287530668
 21
324.9928527093172
 31
0.0
  0
LINE
  5
406
330
1A
100
AcDbEntity
  8
SEIHIN
  6
CONTINUOUS
 62
     3
 48
16.0
100
AcDbLine
 10
411.0836287530668
 20
327.6766527093173
 30
0.0
 11
414.6602287530667
 21
329.4677527093174
 31
0.0
  0
LINE
  5
407
330
1A
100
AcDbEntity
  8
SEIHIN
  6
CONTINUOUS
 62
     3
 48
16.0
100
AcDbLine
 10
407.9463287530669
 20
451.5128630309867
 30
0.0
 11
304.6603287530668
 21
451.5128630309867
 31
0.0
  0
LINE
  5
408
330
1A
100
AcDbEntity
  8
SEIHIN
  6
CONTINUOUS
 62
     3
 48
16.0
100
AcDbLine
 10
408.0836287530668
 20
476.5128630309866
 30
0.0
 11
304.6603287530668
 21
476.5128630309866
 31
0.0
  0
ARC
  5
409
330
1A
100
AcDbEntity
  8
SEIHIN
  6
CONTINUOUS
 62
     3
 48
16.0
100
AcDbCircle
 10
314.6601938478888
 20
464.01219253118
 30
0.0
 40
4.499970499942056
100
AcDbArc
 50
9.593750777829932
 51
89.99955557055788
  0
ARC
  5
40A
330
1A
100
AcDbEntity
  8
SEIHIN
  6
CONTINUOUS
 62
     3
 48
16.0
100
AcDbCircle
 10
314.6602152988401
 20
464.0121747601025
 30
0.0
 40
5.499988270900598
100
AcDbArc
 50
7.837373242636881
 51
89.9998598414464
  0
LINE
  5
40B
330
1A
100
AcDbEntity
  8
SEIHIN
  6
CONTINUOUS
 62
     3
 48
16.0
100
AcDbLine
 10
323.7952287530667
 20
464.7621630309866
 30
0.0
 11
317.8224287530669
 21
464.7621630309866
 31
0.0
  0
LINE
  5
40C
330
1A
100
AcDbEntity
  8
SEIHIN
  6
CONTINUOUS
 62
     3
 48
16.0
100
AcDbLine
 10
323.7952287530667
 20
463.2621630309866
 30
0.0
 11
317.8224287530669
 21
463.2621630309866
 31
0.0
  0
ARC
  5
40D
330
1A
100
AcDbEntity
  8
SEIHIN
  6
CONTINUOUS
 62
     3
 48
16.0
100
AcDbCircle
 10
314.6601938478888
 20
464.0121335307934
 30
0.0
 40
4.499970499942068
100
AcDbArc
 50
270.0004444294421
 51
350.4062492221699
  0
ARC
  5
40E
330
1A
100
AcDbEntity
  8
SEIHIN
  6
CONTINUOUS
 62
     3
 48
16.0
100
AcDbCircle
 10
314.6602152988401
 20
464.0121513018708
 30
0.0
 40
5.499988270900601
100
AcDbArc
 50
270.0001401585536
 51
352.1626267573631
  0
LINE
  5
40F
330
1A
100
AcDbEntity
  8
SEIHIN
  6
CONTINUOUS
 62
     3
 48
16.0
100
AcDbLine
 10
303.1387287530668
 20
464.0127630309865
 30
0.0
 11
325.8141287530668
 21
464.0127630309865
 31
0.0
  0
LINE
  5
410
330
1A
100
AcDbEntity
  8
CENTER_L
  6
CENTER
 62
     1
 48
5.0
100
AcDbLine
 10
314.6603287530668
 20
456.5479630309866
 30
0.0
 11
314.6603287530668
 21
471.4193630309867
 31
0.0
  0
ARC
  5
411
330
1A
100
AcDbEntity
  8
SEIHIN
  6
CONTINUOUS
 62
     3
 48
16.0
100
AcDbCircle
 10
314.6602287530667
 20
464.0121630309866
 30
0.0
 40
3.25
100
AcDbArc
 50
270.0
 51
90.0
  0
ARC
  5
412
330
1A
100
AcDbEntity
  8
SEIHIN
  6
CONTINUOUS
 62
     3
 48
16.0
100
AcDbCircle
 10
314.6601287530669
 20
464.0121630309866
 30
0.0
 40
3.25
100
AcDbArc
 50
90.0
 51
270.0
  0
ARC
  5
413
330
1A
100
AcDbEntity
  8
SEIHIN
  6
CONTINUOUS
 62
     3
 48
16.0
100
AcDbCircle
 10
314.6601287530669
 20
464.0121630309866
 30
0.0
 40
2.5
100
AcDbArc
 50
90.0
 51
270.0
  0
ARC
  5
414
330
1A
100
AcDbEntity
  8
SEIHIN
  6
CONTINUOUS
 62
     3
 48
16.0
100
AcDbCircle
 10
314.6602287530667
 20
464.0121630309866
 30
0.0
 40
2.5
100
AcDbArc
 50
270.0
 51
90.0
  0
LINE
  5
415
330
1A
100
AcDbEntity
  8
SEIHIN
  6
CONTINUOUS
 62
     3
 48
16.0
100
AcDbLine
 10
305.2751287530668
 20
463.5122630309866
 30
0.0
 11
305.2751287530668
 21
464.5122630309865
 31
0.0
  0
LINE
  5
416
330
1A
100
AcDbEntity
  8
SEIHIN
  6
CONTINUOUS
 62
     3
 48
16.0
100
AcDbLine
 10
304.6603287530668
 20
476.5127630309865
 30
0.0
 11
304.6603287530668
 21
464.0128630309867
 31
0.0
  0
LINE
  5
417
330
1A
100
AcDbEntity
  8
SEIHIN
  6
CONTINUOUS
 62
     3
 48
16.0
100
AcDbLine
 10
292.3602287530668
 20
471.5127630309866
 30
0.0
 11
292.3602287530668
 21
464.0128630309867
 31
0.0
  0
LINE
  5
418
330
1A
100
AcDbEntity
  8
SEIHIN
  6
CONTINUOUS
 62
     3
 48
16.0
100
AcDbLine
 10
289.3602287530668
 20
476.0128630309866
 30
0.0
 11
289.3602287530668
 21
464.0128630309867
 31
0.0
  0
LINE
  5
419
330
1A
100
AcDbEntity
  8
SEIHIN
  6
CONTINUOUS
 62
     3
 48
16.0
100
AcDbLine
 10
304.6603287530668
 20
456.5128630309867
 30
0.0
 11
289.3602287530668
 21
456.5128630309867
 31
0.0
  0
LINE
  5
41A
330
1A
100
AcDbEntity
  8
SEIHIN
  6
CONTINUOUS
 62
     3
 48
16.0
100
AcDbLine
 10
289.3602287530668
 20
452.0128630309867
 30
0.0
 11
289.3602287530668
 21
464.0128630309867
 31
0.0
  0
LINE
  5
41B
330
1A
100
AcDbEntity
  8
SEIHIN
  6
CONTINUOUS
 62
     3
 48
16.0
100
AcDbLine
 10
292.3602287530668
 20
456.5129630309867
 30
0.0
 11
292.3602287530668
 21
464.0128630309867
 31
0.0
  0
LINE
  5
41C
330
1A
100
AcDbEntity
  8
SEIHIN
  6
CONTINUOUS
 62
     3
 48
16.0
100
AcDbLine
 10
304.6603287530668
 20
451.5128630309867
 30
0.0
 11
304.6603287530668
 21
464.0128630309867
 31
0.0
  0
ARC
  5
41D
330
1A
100
AcDbEntity
  8
SEIHIN
  6
CONTINUOUS
 62
     3
 48
16.0
100
AcDbCircle
 10
314.6601422072935
 20
464.0121513018707
 30
0.0
 40
5.499988270900531
100
AcDbArc
 50
187.8373732426362
 51
269.9998598414458
  0
ARC
  5
41E
330
1A
100
AcDbEntity
  8
SEIHIN
  6
CONTINUOUS
 62
     3
 48
16.0
100
AcDbCircle
 10
314.660105324872
 20
464.012182831455
 30
0.0
 40
4.50001980052941
100
AcDbArc
 50
189.5942812954953
 51
270.0002982957288
  0
LINE
  5
41F
330
1A
100
AcDbEntity
  8
SEIHIN
  6
CONTINUOUS
 62
     3
 48
16.0
100
AcDbLine
 10
305.5251287530669
 20
463.2622630309865
 30
0.0
 11
311.4979287530668
 21
463.2621630309866
 31
0.0
  0
ARC
  5
420
330
1A
100
AcDbEntity
  8
SEIHIN
  6
CONTINUOUS
 62
     3
 48
16.0
100
AcDbCircle
 10
305.525128753067
 20
463.5122630309865
 30
0.0
 40
0.2500000000000853
100
AcDbArc
 50
179.9999999999804
 51
269.9999999999804
  0
LINE
  5
421
330
1A
100
AcDbEntity
  8
SEIHIN
  6
CONTINUOUS
 62
     3
 48
16.0
100
AcDbLine
 10
304.6603287530668
 20
471.5128630309866
 30
0.0
 11
289.3602287530668
 21
471.5128630309866
 31
0.0
  0
ARC
  5
422
330
1A
100
AcDbEntity
  8
SEIHIN
  6
CONTINUOUS
 62
     3
 48
16.0
100
AcDbCircle
 10
314.6601422072935
 20
464.0121747601026
 30
0.0
 40
5.49998827090053
100
AcDbArc
 50
90.00014015855418
 51
172.1626267573637
  0
LINE
  5
423
330
1A
100
AcDbEntity
  8
SEIHIN
  6
CONTINUOUS
 62
     3
 48
16.0
100
AcDbLine
 10
305.5251287530669
 20
464.7622630309864
 30
0.0
 11
311.4979287530668
 21
464.7621630309866
 31
0.0
  0
ARC
  5
424
330
1A
100
AcDbEntity
  8
SEIHIN
  6
CONTINUOUS
 62
     3
 48
16.0
100
AcDbCircle
 10
314.660105324872
 20
464.0121432305182
 30
0.0
 40
4.500019800529408
100
AcDbArc
 50
89.99970170427115
 51
170.4057187045046
  0
ARC
  5
425
330
1A
100
AcDbEntity
  8
SEIHIN
  6
CONTINUOUS
 62
     3
 48
16.0
100
AcDbCircle
 10
305.5251287530669
 20
464.5122630309865
 30
0.0
 40
0.25
100
AcDbArc
 50
90.0
 51
180.0
  0
LINE
  5
426
330
1A
100
AcDbEntity
  8
SEIHIN
  6
CONTINUOUS
 62
     3
 48
16.0
100
AcDbLine
 10
324.0452287530667
 20
463.5121630309866
 30
0.0
 11
324.0452287530667
 21
464.5121630309866
 31
0.0
  0
LINE
  5
427
330
1A
100
AcDbEntity
  8
SEIHIN
  6
CONTINUOUS
 62
     3
 48
16.0
100
AcDbLine
 10
324.6603287530668
 20
476.5127630309865
 30
0.0
 11
324.6603287530668
 21
464.0128630309867
 31
0.0
  0
LINE
  5
428
330
1A
100
AcDbEntity
  8
SEIHIN
  6
CONTINUOUS
 62
     3
 48
16.0
100
AcDbLine
 10
344.7745287530667
 20
476.5127630309865
 30
0.0
 11
344.7745287530667
 21
464.0128630309867
 31
0.0
  0
LINE
  5
429
330
1A
100
AcDbEntity
  8
SEIHIN
  6
CONTINUOUS
 62
     3
 48
16.0
100
AcDbLine
 10
324.6603287530668
 20
451.5128630309867
 30
0.0
 11
324.6603287530668
 21
464.0127630309865
 31
0.0
  0
ARC
  5
42A
330
1A
100
AcDbEntity
  8
SEIHIN
  6
CONTINUOUS
 62
     3
 48
16.0
100
AcDbCircle
 10
323.7952287530667
 20
463.5121630309866
 30
0.0
 40
0.25
100
AcDbArc
 50
270.0
 51
0.0
  0
LINE
  5
42B
330
1A
100
AcDbEntity
  8
SEIHIN
  6
CONTINUOUS
 62
     3
 48
16.0
100
AcDbLine
 10
344.7745287530667
 20
451.5128630309867
 30
0.0
 11
344.7745287530667
 21
464.0127630309865
 31
0.0
  0
ARC
  5
42C
330
1A
100
AcDbEntity
  8
SEIHIN
  6
CONTINUOUS
 62
     3
 48
16.0
100
AcDbCircle
 10
323.7952287530667
 20
464.5121630309866
 30
0.0
 40
0.25
100
AcDbArc
 50
0.0
 51
90.0
  0
ELLIPSE
  5
42D
330
1A
100
AcDbEntity
  8
SEIHIN
 62
     3
100
AcDbEllipse
 10
415.5436287530667
 20
442.5127630309865
 30
0.0
 11
0.0
 21
-10.0
 31
0.0
210
0.0
220
0.0
230
1.0
 40
0.4459999999999979
 41
-1.570796326794896
 42
0.0
  0
ELLIPSE
  5
42E
330
1A
100
AcDbEntity
  8
SEIHIN
 62
     3
100
AcDbEllipse
 10
414.6603287530669
 20
442.5127630309865
 30
0.0
 11
0.0
 21
-10.0
 31
0.0
210
0.0
220
0.0
230
1.0
 40
0.4469500000000039
 41
-1.570796326794896
 42
-0.2441167051859559
  0
ARC
  5
42F
330
1A
100
AcDbEntity
  8
SEIHIN
  6
CONTINUOUS
 62
     3
 48
16.0
100
AcDbCircle
 10
415.1246703650689
 20
436.4990278161154
 30
0.0
 40
4.000036636828442
100
AcDbArc
 50
247.2848082532274
 51
265.2441680851973
  0
LINE
  5
430
330
1A
100
AcDbEntity
  8
SEIHIN
  6
CONTINUOUS
 62
     3
 48
16.0
100
AcDbLine
 10
416.9003287530669
 20
478.0128630309866
 30
0.0
 11
416.9002287530666
 21
464.0128630309867
 31
0.0
  0
LINE
  5
431
330
1A
100
AcDbEntity
  8
SEIHIN
  6
CONTINUOUS
 62
     3
 48
16.0
100
AcDbLine
 10
414.6603287530669
 20
485.5128630309866
 30
0.0
 11
414.6603287530669
 21
464.0128630309867
 31
0.0
  0
LINE
  5
432
330
1A
100
AcDbEntity
  8
SEIHIN
  6
CONTINUOUS
 62
     3
 48
16.0
100
AcDbLine
 10
416.9003287530669
 20
450.0128630309866
 30
0.0
 11
416.9002287530666
 21
464.0127630309865
 31
0.0
  0
LINE
  5
433
330
1A
100
AcDbEntity
  8
SEIHIN
  6
CONTINUOUS
 62
     3
 48
16.0
100
AcDbLine
 10
414.6603287530669
 20
442.5127630309865
 30
0.0
 11
414.6603287530669
 21
464.0127630309865
 31
0.0
  0
ARC
  5
434
330
1A
100
AcDbEntity
  8
SEIHIN
  6
CONTINUOUS
 62
     3
 48
16.0
100
AcDbCircle
 10
408.0836287530668
 20
448.5128630309866
 30
0.0
 40
3.0
100
AcDbArc
 50
0.0
 51
90.0
  0
ARC
  5
435
330
1A
100
AcDbEntity
  8
SEIHIN
  6
CONTINUOUS
 62
     3
 48
16.0
100
AcDbCircle
 10
407.1908287530668
 20
448.5128630309866
 30
0.0
 40
3.000000000000056
100
AcDbArc
 50
0.0000000000010856
 51
90.00000000000108
  0
LINE
  5
436
330
1A
100
AcDbEntity
  8
SEIHIN
  6
CONTINUOUS
 62
     3
 48
16.0
100
AcDbLine
 10
410.1908287530668
 20
448.5128630309866
 30
0.0
 11
410.1908287530668
 21
442.5420630309866
 31
0.0
  0
LINE
  5
437
330
1A
100
AcDbEntity
  8
SEIHIN
  6
CONTINUOUS
 62
     3
 48
16.0
100
AcDbLine
 10
411.0836287530668
 20
448.5128630309866
 30
0.0
 11
411.0836287530668
 21
442.5134630309865
 31
0.0
  0
ARC
  5
438
330
1A
100
AcDbEntity
  8
SEIHIN
  6
CONTINUOUS
 62
     3
 48
16.0
100
AcDbCircle
 10
408.0836287530668
 20
479.5128630309866
 30
0.0
 40
3.0
100
AcDbArc
 50
270.0
 51
0.0
  0
ARC
  5
439
330
1A
100
AcDbEntity
  8
SEIHIN
  6
CONTINUOUS
 62
     3
 48
16.0
100
AcDbCircle
 10
407.1908287530668
 20
479.5128630309867
 30
0.0
 40
3.000000000000056
100
AcDbArc
 50
269.9999999999989
 51
359.9999999999989
  0
LINE
  5
43A
330
1A
100
AcDbEntity
  8
SEIHIN
  6
CONTINUOUS
 62
     3
 48
16.0
100
AcDbLine
 10
410.1908287530668
 20
479.5128630309866
 30
0.0
 11
410.1908287530668
 21
485.4836630309867
 31
0.0
  0
LINE
  5
43B
330
1A
100
AcDbEntity
  8
SEIHIN
  6
CONTINUOUS
 62
     3
 48
16.0
100
AcDbLine
 10
411.0836287530668
 20
479.5128630309866
 30
0.0
 11
411.0836287530668
 21
485.5122630309864
 31
0.0
  0
ARC
  5
43C
330
1A
100
AcDbEntity
  8
SEIHIN
  6
CONTINUOUS
 62
     3
 48
16.0
100
AcDbCircle
 10
415.1246210530706
 20
491.5266565145588
 30
0.0
 40
3.999974480547813
100
AcDbArc
 50
94.7551971998063
 51
112.7135077629071
  0
LINE
  5
43D
330
1A
100
AcDbEntity
  8
SEIHIN
  6
PHANTOM
 62
     6
 48
5.0
100
AcDbLine
 10
468.4716287530667
 20
282.9689527093173
 30
0.0
 11
472.0482287530669
 21
284.7599527093172
 31
0.0
  0
LINE
  5
43E
330
1A
100
AcDbEntity
  8
SEIHIN
  6
CONTINUOUS
 62
     3
 48
16.0
100
AcDbLine
 10
433.4716287530667
 20
282.9689527093173
 30
0.0
 11
437.0482287530669
 21
284.7599527093172
 31
0.0
  0
LINE
  5
43F
330
1A
100
AcDbEntity
  8
SUNPOU
  6
CONTINUOUS
 62
     4
 48
16.0
100
AcDbLine
 10
448.507350092859
 20
261.8767782853527
 30
0.0
 11
460.8813500928589
 21
237.1662782853526
 31
0.0
  0
LINE
  5
440
330
1A
100
AcDbEntity
  8
SEIHIN
  6
PHANTOM
 62
     6
 48
5.0
100
AcDbLine
 10
445.1908287530669
 20
324.9928527093172
 30
0.0
 11
465.7877287530667
 21
283.8617527093172
 31
0.0
  0
LINE
  5
441
330
1A
100
AcDbEntity
  8
SEIHIN
  6
PHANTOM
 62
     6
 48
5.0
100
AcDbLine
 10
468.4716287530667
 20
282.9689527093173
 30
0.0
 11
446.0836287530668
 21
327.6766527093173
 31
0.0
  0
LINE
  5
446
330
1A
100
AcDbEntity
  8
SUNPOU
  6
CONTINUOUS
 62
     4
 48
16.0
100
AcDbLine
 10
453.3699500928589
 20
252.1662782853526
 30
0.0
 11
453.3699500928589
 21
237.1662782853526
 31
0.0
  0
LINE
  5
447
330
1A
100
AcDbEntity
  8
SUNPOU
  6
CONTINUOUS
 62
     4
 48
16.0
100
AcDbLine
 10
453.3699500928589
 20
237.1662782853526
 30
0.0
 11
460.8813500928589
 21
237.1662782853526
 31
0.0
  0
LINE
  5
44A
330
1A
100
AcDbEntity
  8
SEIHIN
  6
CONTINUOUS
 62
     3
 48
16.0
100
AcDbLine
 10
430.7877287530669
 20
283.8617527093172
 30
0.0
 11
433.4716287530667
 21
282.9689527093173
 31
0.0
  0
LINE
  5
44B
330
1A
100
AcDbEntity
  8
SEIHIN
  6
PHANTOM
 62
     6
 48
5.0
100
AcDbLine
 10
465.7877287530667
 20
283.8617527093172
 30
0.0
 11
468.4716287530667
 21
282.9689527093173
 31
0.0
  0
ELLIPSE
  5
44C
330
1A
100
AcDbEntity
  8
SEIHIN
 62
     3
100
AcDbEllipse
 10
432.5703287530667
 20
487.5128630309866
 30
0.0
 11
0.0
 21
-2.1
 31
0.0
210
0.0
220
0.0
230
1.0
 40
0.4476465888417298
 41
0.0
 42
6.283185307179586
  0
ELLIPSE
  5
44D
330
1A
100
AcDbEntity
  8
SEIHIN
 62
     3
100
AcDbEllipse
 10
432.5903287530667
 20
485.5128630309866
 30
0.0
 11
0.0
 21
10.0
 31
0.0
210
0.0
220
0.0
230
1.0
 40
0.4459999999999979
 41
-1.570796326794896
 42
0.0
  0
LINE
  5
44E
330
1A
100
AcDbEntity
  8
CENTER_L
  6
CENTER
 62
     1
 48
5.0
100
AcDbLine
 10
432.5703287530667
 20
490.3303630309864
 30
0.0
 11
432.5703287530667
 21
484.6739630309866
 31
0.0
  0
ELLIPSE
  5
44F
330
1A
100
AcDbEntity
  8
SEIHIN
 62
     3
100
AcDbEllipse
 10
432.5703287530667
 20
487.5128630309866
 30
0.0
 11
0.0
 21
-7.0
 31
0.0
210
0.0
220
0.0
230
1.0
 40
0.4471428571428403
 41
-1.570796326794896
 42
0.0
  0
ELLIPSE
  5
450
330
1A
100
AcDbEntity
  8
SEIHIN
 62
     3
100
AcDbEllipse
 10
431.2303287530667
 20
487.5128630309866
 30
0.0
 11
0.0
 21
-7.0
 31
0.0
210
0.0
220
0.0
230
1.0
 40
0.4471428571428403
 41
-1.570796326794896
 42
0.0
  0
ELLIPSE
  5
451
330
1A
100
AcDbEntity
  8
SEIHIN
 62
     3
100
AcDbEllipse
 10
419.1403287530667
 20
487.5128630309866
 30
0.0
 11
0.0
 21
-2.1
 31
0.0
210
0.0
220
0.0
230
1.0
 40
0.4489608013727775
 41
2.094395102393226
 42
7.33038285837609
  0
LINE
  5
452
330
1A
100
AcDbEntity
  8
CENTER_L
  6
CENTER
 62
     1
 48
5.0
100
AcDbLine
 10
419.1403287530667
 20
490.3865630309865
 30
0.0
 11
419.1403287530667
 21
484.6174630309866
 31
0.0
  0
LINE
  5
453
330
1A
100
AcDbEntity
  8
CENTER_L
  6
CENTER
 62
     1
 48
5.0
100
AcDbLine
 10
421.3803287530669
 20
491.7459630309864
 30
0.0
 11
421.3803287530669
 21
483.4133630309865
 31
0.0
  0
ELLIPSE
  5
454
330
1A
100
AcDbEntity
  8
SEIHIN
 62
     3
100
AcDbEllipse
 10
421.3803287530669
 20
487.5128630309866
 30
0.0
 11
0.0
 21
-3.25
 31
0.0
210
0.0
220
0.0
230
1.0
 40
0.4489157586213843
 41
-1.24181735570011
 42
4.383410009290045
  0
LINE
  5
455
330
1A
100
AcDbEntity
  8
SEIHIN
  6
CONTINUOUS
 62
     3
 48
16.0
100
AcDbLine
 10
424.9603287530667
 20
489.5128630309866
 30
0.0
 11
424.9603287530667
 21
467.5128630309867
 31
0.0
  0
ARC
  5
456
330
1A
100
AcDbEntity
  8
SEIHIN
  6
PHANTOM
 62
     6
 48
5.0
100
AcDbCircle
 10
448.8756512654544
 20
306.467738805356
 30
0.0
 40
5.000013904011999
100
AcDbArc
 50
26.60015685178408
 51
90.0002579722406
  0
LINE
  5
457
330
1A
100
AcDbEntity
  8
SEIHIN
  6
PHANTOM
 62
     6
 48
5.0
100
AcDbLine
 10
449.6602287530667
 20
329.4677527093174
 30
0.0
 11
472.0482287530669
 21
284.7599527093172
 31
0.0
  0
LINE
  5
458
330
1A
100
AcDbEntity
  8
CENTER_L
  6
CENTER
 62
     1
 48
5.0
100
AcDbLine
 10
423.8958287530668
 20
289.3576527093173
 30
0.0
 11
436.8049287530667
 21
295.8220527093173
 31
0.0
  0
LINE
  5
459
330
1A
100
AcDbEntity
  8
SEIHIN
  6
PHANTOM
 62
     6
 48
5.0
100
AcDbLine
 10
444.9962287530667
 20
311.4677527093173
 30
0.0
 11
448.8756287530669
 21
311.4677527093173
 31
0.0
  0
LINE
  5
45A
330
1A
100
AcDbEntity
  8
SEIHIN
  6
PHANTOM
 62
     6
 48
5.0
100
AcDbLine
 10
442.9745287530669
 20
329.4677527093174
 30
0.0
 11
436.9324287530667
 21
328.9390527093173
 31
0.0
  0
LINE
  5
45B
330
1A
100
AcDbEntity
  8
SEIHIN
  6
PHANTOM
 62
     6
 48
5.0
100
AcDbLine
 10
442.9745287530669
 20
329.4677527093174
 30
0.0
 11
449.6602287530667
 21
329.4677527093174
 31
0.0
  0
LINE
  5
45C
330
1A
100
AcDbEntity
  8
SEIHIN
  6
PHANTOM
 62
     6
 48
5.0
100
AcDbLine
 10
446.0836287530668
 20
327.6766527093173
 30
0.0
 11
445.1908287530669
 21
324.9928527093172
 31
0.0
  0
LINE
  5
45D
330
1A
100
AcDbEntity
  8
SEIHIN
  6
PHANTOM
 62
     6
 48
5.0
100
AcDbLine
 10
446.0836287530668
 20
327.6766527093173
 30
0.0
 11
449.6602287530667
 21
329.4677527093174
 31
0.0
  0
ELLIPSE
  5
45E
330
1A
100
AcDbEntity
  8
SEIHIN
 62
     3
100
AcDbEllipse
 10
432.5703287530667
 20
440.5128630309866
 30
0.0
 11
0.0
 21
-7.0
 31
0.0
210
0.0
220
0.0
230
1.0
 40
0.4471428571428403
 41
3.141592653589793
 42
4.712388980384784
  0
ELLIPSE
  5
45F
330
1A
100
AcDbEntity
  8
SEIHIN
 62
     3
100
AcDbEllipse
 10
431.2303287530667
 20
440.5128630309866
 30
0.0
 11
0.0
 21
-7.0
 31
0.0
210
0.0
220
0.0
230
1.0
 40
0.4471428571428403
 41
3.141592653589793
 42
4.712388980384784
  0
LINE
  5
460
330
1A
100
AcDbEntity
  8
CENTER_L
  6
CENTER
 62
     1
 48
5.0
100
AcDbLine
 10
432.5703287530667
 20
437.6953630309866
 30
0.0
 11
432.5703287530667
 21
443.3516630309866
 31
0.0
  0
ELLIPSE
  5
461
330
1A
100
AcDbEntity
  8
SEIHIN
 62
     3
100
AcDbEllipse
 10
432.5705650500473
 20
440.5128630309866
 30
0.0
 11
0.0
 21
-2.1
 31
0.0
210
0.0
220
0.0
230
1.0
 40
0.4477591112134048
 41
0.0
 42
6.283185307179586
  0
ELLIPSE
  5
462
330
1A
100
AcDbEntity
  8
SEIHIN
 62
     3
100
AcDbEllipse
 10
432.5703287530667
 20
442.5127630309865
 30
0.0
 11
0.0
 21
10.0
 31
0.0
210
0.0
220
0.0
230
1.0
 40
0.4479999999999962
 41
3.141592653589793
 42
4.712388980384772
  0
LINE
  5
463
330
1A
100
AcDbEntity
  8
CENTER_L
  6
CENTER
 62
     1
 48
5.0
100
AcDbLine
 10
421.3803287530669
 20
436.2796630309866
 30
0.0
 11
421.3803287530669
 21
444.6122630309866
 31
0.0
  0
LINE
  5
464
330
1A
100
AcDbEntity
  8
CENTER_L
  6
CENTER
 62
     1
 48
5.0
100
AcDbLine
 10
419.1403287530667
 20
437.6390630309866
 30
0.0
 11
419.1403287530667
 21
443.4082630309866
 31
0.0
  0
ELLIPSE
  5
465
330
1A
100
AcDbEntity
  8
SEIHIN
 62
     3
100
AcDbEllipse
 10
421.3803287530669
 20
440.5128630309866
 30
0.0
 11
0.0
 21
-3.25
 31
0.0
210
0.0
220
0.0
230
1.0
 40
0.4489157586213843
 41
-1.241817355700155
 42
4.383410009290074
  0
ELLIPSE
  5
466
330
1A
100
AcDbEntity
  8
SEIHIN
 62
     3
100
AcDbEllipse
 10
419.1378052037333
 20
440.5128630309866
 30
0.0
 11
0.0
 21
-2.1
 31
0.0
210
0.0
220
0.0
230
1.0
 40
0.4477591112140275
 41
2.094395102393157
 42
7.330382858376158
  0
LINE
  5
467
330
1A
100
AcDbEntity
  8
SEIHIN
  6
CONTINUOUS
 62
     3
 48
16.0
100
AcDbLine
 10
424.9603287530667
 20
438.5127630309866
 30
0.0
 11
424.9603287530667
 21
460.5128630309867
 31
0.0
  0
LINE
  5
468
330
1A
100
AcDbEntity
  8
CENTER_L
  6
CENTER
 62
     1
 48
5.0
100
AcDbLine
 10
435.3572287530668
 20
440.5128630309866
 30
0.0
 11
430.5938287530667
 21
440.5128630309866
 31
0.0
  0
ARC
  5
469
330
1A
100
AcDbEntity
  8
SEIHIN
  6
CONTINUOUS
 62
     3
 48
16.0
100
AcDbCircle
 10
425.9603287530667
 20
438.5127630309866
 30
0.0
 40
1.000000000000056
100
AcDbArc
 50
179.9999999999967
 51
269.9999999999967
  0
LINE
  5
46A
330
1A
100
AcDbEntity
  8
SEIHIN
  6
CONTINUOUS
 62
     3
 48
16.0
100
AcDbLine
 10
419.9995934815961
 20
439.4628630309866
 30
0.0
 11
418.3025287530669
 21
439.4628630309866
 31
0.0
  0
LINE
  5
46B
330
1A
100
AcDbEntity
  8
SEIHIN
  6
CONTINUOUS
 62
     3
 48
16.0
100
AcDbLine
 10
425.9603287530667
 20
437.5127630309864
 30
0.0
 11
428.4403287530667
 21
437.5127630309864
 31
0.0
  0
ARC
  5
46C
330
1A
100
AcDbEntity
  8
SEIHIN
  6
CONTINUOUS
 62
     3
 48
16.0
100
AcDbCircle
 10
427.1003287530668
 20
438.5127630309866
 30
0.0
 40
1.000000000000056
100
AcDbArc
 50
270.0000000000032
 51
0.0000000000032569
  0
ARC
  5
46D
330
1A
100
AcDbEntity
  8
SEIHIN
  6
CONTINUOUS
 62
     3
 48
16.0
100
AcDbCircle
 10
428.4403287530667
 20
438.5127630309866
 30
0.0
 40
1.000000000000142
100
AcDbArc
 50
269.9999999999983
 51
359.9999999999983
  0
LINE
  5
46E
330
1A
100
AcDbEntity
  8
SEIHIN
  6
CONTINUOUS
 62
     3
 48
16.0
100
AcDbLine
 10
428.1003287530668
 20
438.5127630309866
 30
0.0
 11
428.1003287530668
 21
440.5128630309866
 31
0.0
  0
LINE
  5
46F
330
1A
100
AcDbEntity
  8
SEIHIN
  6
CONTINUOUS
 62
     3
 48
16.0
100
AcDbLine
 10
429.4403287530668
 20
438.5127630309866
 30
0.0
 11
429.4403287530668
 21
440.5128630309866
 31
0.0
  0
LINE
  5
470
330
1A
100
AcDbEntity
  8
SEIHIN
  6
CONTINUOUS
 62
     3
 48
16.0
100
AcDbLine
 10
437.0503287530667
 20
464.0128630309867
 30
0.0
 11
437.0503287530667
 21
485.5128630309866
 31
0.0
  0
LINE
  5
471
330
1A
100
AcDbEntity
  8
SEIHIN
  6
CONTINUOUS
 62
     3
 48
16.0
100
AcDbLine
 10
422.2703287530667
 20
478.0128630309866
 30
0.0
 11
422.2703287530667
 21
464.0128630309867
 31
0.0
  0
LINE
  5
472
330
1A
100
AcDbEntity
  8
SEIHIN
  6
CONTINUOUS
 62
     3
 48
16.0
100
AcDbLine
 10
422.7203287530668
 20
478.0128630309866
 30
0.0
 11
422.7203287530668
 21
464.0128630309867
 31
0.0
  0
ARC
  5
473
330
1A
100
AcDbEntity
  8
SEIHIN
  6
CONTINUOUS
 62
     3
 48
16.0
100
AcDbCircle
 10
433.8102287530668
 20
460.5128630309866
 30
0.0
 40
1.000000000000085
100
AcDbArc
 50
0.0000000000048853
 51
90.00000000000488
  0
ARC
  5
474
330
1A
100
AcDbEntity
  8
SEIHIN
  6
CONTINUOUS
 62
     3
 48
16.0
100
AcDbCircle
 10
433.8102287530668
 20
448.5128630309867
 30
0.0
 40
1.000000000000085
100
AcDbArc
 50
269.9999999999951
 51
359.9999999999951
  0
LINE
  5
475
330
1A
100
AcDbEntity
  8
SEIHIN
  6
CONTINUOUS
 62
     3
 48
16.0
100
AcDbLine
 10
433.4703287530667
 20
448.5128630309866
 30
0.0
 11
433.4703287530667
 21
460.5128630309867
 31
0.0
  0
LINE
  5
476
330
1A
100
AcDbEntity
  8
SEIHIN
  6
CONTINUOUS
 62
     3
 48
16.0
100
AcDbLine
 10
422.2703287530667
 20
450.0128630309866
 30
0.0
 11
422.2703287530667
 21
464.0127630309865
 31
0.0
  0
LINE
  5
477
330
1A
100
AcDbEntity
  8
SEIHIN
  6
CONTINUOUS
 62
     3
 48
16.0
100
AcDbLine
 10
422.7203287530668
 20
450.0128630309866
 30
0.0
 11
422.7203287530668
 21
464.0127630309865
 31
0.0
  0
ARC
  5
478
330
1A
100
AcDbEntity
  8
SEIHIN
  6
CONTINUOUS
 62
     3
 48
16.0
100
AcDbCircle
 10
421.2703287530668
 20
450.0128630309865
 30
0.0
 40
0.9999999999999431
100
AcDbArc
 50
270.0000000000032
 51
0.0000000000032569
  0
ARC
  5
479
330
1A
100
AcDbEntity
  8
SEIHIN
  6
CONTINUOUS
 62
     3
 48
16.0
100
AcDbCircle
 10
421.7203287530669
 20
450.0128630309866
 30
0.0
 40
1.0
100
AcDbArc
 50
270.0
 51
0.0
  0
LINE
  5
47A
330
1A
100
AcDbEntity
  8
SEIHIN
  6
CONTINUOUS
 62
     3
 48
16.0
100
AcDbLine
 10
419.9995934815961
 20
441.5628630309866
 30
0.0
 11
418.3025287530669
 21
441.5628630309866
 31
0.0
  0
LINE
  5
47B
330
1A
100
AcDbEntity
  8
SEIHIN
  6
CONTINUOUS
 62
     3
 48
16.0
100
AcDbLine
 10
421.7203287530669
 20
449.0128630309866
 30
0.0
 11
417.9003287530669
 21
449.0128630309866
 31
0.0
  0
LINE
  5
47C
330
1A
100
AcDbEntity
  8
SEIHIN
  6
CONTINUOUS
 62
     3
 48
16.0
100
AcDbLine
 10
432.4703287530669
 20
447.5128630309867
 30
0.0
 11
431.2303287530668
 21
447.5128630309867
 31
0.0
  0
ARC
  5
47D
330
1A
100
AcDbEntity
  8
SEIHIN
  6
CONTINUOUS
 62
     3
 48
16.0
100
AcDbCircle
 10
432.4703287530668
 20
448.5128630309866
 30
0.0
 40
0.9999999999999147
100
AcDbArc
 50
270.0000000000049
 51
0.0000000000048853
  0
LINE
  5
47E
330
1A
100
AcDbEntity
  8
SEIHIN
  6
CONTINUOUS
 62
     3
 48
16.0
100
AcDbLine
 10
433.8102287530666
 20
447.5128630309867
 30
0.0
 11
432.5703287530667
 21
447.5128630309867
 31
0.0
  0
ARC
  5
47F
330
1A
100
AcDbEntity
  8
SEIHIN
  6
CONTINUOUS
 62
     3
 48
16.0
100
AcDbCircle
 10
425.9603287530667
 20
460.5128630309867
 30
0.0
 40
1.0
100
AcDbArc
 50
90.0
 51
180.0
  0
LINE
  5
480
330
1A
100
AcDbEntity
  8
SEIHIN
  6
CONTINUOUS
 62
     3
 48
16.0
100
AcDbLine
 10
433.8102287530666
 20
461.5128630309866
 30
0.0
 11
425.9603287530667
 21
461.5128630309866
 31
0.0
  0
ARC
  5
481
330
1A
100
AcDbEntity
  8
SEIHIN
  6
CONTINUOUS
 62
     3
 48
16.0
100
AcDbCircle
 10
432.4703287530668
 20
460.5128630309867
 30
0.0
 40
0.9999999999999147
100
AcDbArc
 50
359.9999999999951
 51
89.99999999999511
  0
LINE
  5
482
330
1A
100
AcDbEntity
  8
SEIHIN
  6
CONTINUOUS
 62
     3
 48
16.0
100
AcDbLine
 10
434.8102287530669
 20
448.5128630309866
 30
0.0
 11
434.8102287530669
 21
460.5128630309867
 31
0.0
  0
LINE
  5
483
330
1A
100
AcDbEntity
  8
SEIHIN
  6
CONTINUOUS
 62
     3
 48
16.0
100
AcDbLine
 10
437.0503287530667
 20
464.0127630309865
 30
0.0
 11
437.0503287530667
 21
442.5127630309866
 31
0.0
  0
ARC
  5
484
330
1A
100
AcDbEntity
  8
SEIHIN
  6
CONTINUOUS
 62
     3
 48
16.0
100
AcDbCircle
 10
433.8102287530668
 20
479.5128630309865
 30
0.0
 40
1.000000000000085
100
AcDbArc
 50
0.0000000000048853
 51
90.00000000000488
  0
ARC
  5
485
330
1A
100
AcDbEntity
  8
SEIHIN
  6
CONTINUOUS
 62
     3
 48
16.0
100
AcDbCircle
 10
433.8102287530668
 20
467.5128630309867
 30
0.0
 40
1.000000000000085
100
AcDbArc
 50
269.9999999999951
 51
359.9999999999951
  0
LINE
  5
486
330
1A
100
AcDbEntity
  8
SEIHIN
  6
CONTINUOUS
 62
     3
 48
16.0
100
AcDbLine
 10
433.4703287530667
 20
479.5128630309866
 30
0.0
 11
433.4703287530667
 21
467.5128630309867
 31
0.0
  0
ARC
  5
487
330
1A
100
AcDbEntity
  8
SEIHIN
  6
CONTINUOUS
 62
     3
 48
16.0
100
AcDbCircle
 10
425.9603287530667
 20
467.5128630309867
 30
0.0
 40
1.0
100
AcDbArc
 50
180.0
 51
270.0
  0
LINE
  5
488
330
1A
100
AcDbEntity
  8
SEIHIN
  6
CONTINUOUS
 62
     3
 48
16.0
100
AcDbLine
 10
433.8102287530666
 20
466.5128630309866
 30
0.0
 11
425.9603287530667
 21
466.5128630309866
 31
0.0
  0
ARC
  5
489
330
1A
100
AcDbEntity
  8
SEIHIN
  6
CONTINUOUS
 62
     3
 48
16.0
100
AcDbCircle
 10
432.4703287530668
 20
467.5128630309865
 30
0.0
 40
0.9999999999999147
100
AcDbArc
 50
270.0000000000049
 51
0.0000000000048853
  0
LINE
  5
48A
330
1A
100
AcDbEntity
  8
SEIHIN
  6
CONTINUOUS
 62
     3
 48
16.0
100
AcDbLine
 10
419.9995934815961
 20
486.4628630309864
 30
0.0
 11
418.3025287530669
 21
486.4628630309864
 31
0.0
  0
LINE
  5
48B
330
1A
100
AcDbEntity
  8
SEIHIN
  6
CONTINUOUS
 62
     3
 48
16.0
100
AcDbLine
 10
421.7203287530669
 20
479.0128630309866
 30
0.0
 11
417.9003287530669
 21
479.0128630309866
 31
0.0
  0
ARC
  5
48C
330
1A
100
AcDbEntity
  8
SEIHIN
  6
CONTINUOUS
 62
     3
 48
16.0
100
AcDbCircle
 10
421.2703287530668
 20
478.0128630309867
 30
0.0
 40
0.9999999999999431
100
AcDbArc
 50
359.9999999999967
 51
89.99999999999674
  0
ARC
  5
48D
330
1A
100
AcDbEntity
  8
SEIHIN
  6
CONTINUOUS
 62
     3
 48
16.0
100
AcDbCircle
 10
421.7203287530669
 20
478.0128630309866
 30
0.0
 40
1.0
100
AcDbArc
 50
0.0
 51
90.0
  0
LINE
  5
48E
330
1A
100
AcDbEntity
  8
SEIHIN
  6
CONTINUOUS
 62
     3
 48
16.0
100
AcDbLine
 10
432.4703287530669
 20
480.5128630309866
 30
0.0
 11
431.2303287530668
 21
480.5128630309866
 31
0.0
  0
ARC
  5
48F
330
1A
100
AcDbEntity
  8
SEIHIN
  6
CONTINUOUS
 62
     3
 48
16.0
100
AcDbCircle
 10
432.4703287530668
 20
479.5128630309867
 30
0.0
 40
0.9999999999999147
100
AcDbArc
 50
359.9999999999951
 51
89.99999999999511
  0
LINE
  5
490
330
1A
100
AcDbEntity
  8
SEIHIN
  6
CONTINUOUS
 62
     3
 48
16.0
100
AcDbLine
 10
433.8102287530666
 20
480.5128630309866
 30
0.0
 11
432.5703287530667
 21
480.5128630309866
 31
0.0
  0
LINE
  5
491
330
1A
100
AcDbEntity
  8
SEIHIN
  6
CONTINUOUS
 62
     3
 48
16.0
100
AcDbLine
 10
434.8102287530669
 20
479.5128630309866
 30
0.0
 11
434.8102287530669
 21
467.5128630309867
 31
0.0
  0
ARC
  5
492
330
1A
100
AcDbEntity
  8
SEIHIN
  6
CONTINUOUS
 62
     3
 48
16.0
100
AcDbCircle
 10
608.3201415183452
 20
378.3549939378004
 30
0.0
 40
2.000028993539927
100
AcDbArc
 50
296.598362307713
 51
26.59707963563902
  0
LINE
  5
493
330
1A
100
AcDbEntity
  8
SEIHIN
  6
CONTINUOUS
 62
     3
 48
16.0
100
AcDbLine
 10
615.4781215595968
 20
374.110733943079
 30
0.0
 11
634.7025215595968
 21
383.737533943079
 31
0.0
  0
ARC
  5
494
330
1A
100
AcDbEntity
  8
SEIHIN
  6
CONTINUOUS
 62
     3
 48
16.0
100
AcDbCircle
 10
589.9877215595966
 20
372.5298339430788
 30
0.0
 40
7.000012092846718
100
AcDbArc
 50
26.59982580340165
 51
116.5998258034014
  0
LINE
  5
495
330
1A
100
AcDbEntity
  8
SEIHIN
  6
CONTINUOUS
 62
     3
 48
16.0
100
AcDbLine
 10
569.4019215595965
 20
395.7725339430788
 30
0.0
 11
582.834621559597
 21
368.9478339430789
 31
0.0
  0
LINE
  5
496
330
1A
100
AcDbEntity
  8
CENTER_L
  6
CENTER
 62
     1
 48
5.0
100
AcDbLine
 10
591.2496215595967
 20
422.4938339430788
 30
0.0
 11
617.6277215595966
 21
369.8180339430788
 31
0.0
  0
LINE
  5
497
330
1A
100
AcDbEntity
  8
SEIHIN
  6
CONTINUOUS
 62
     3
 48
16.0
100
AcDbLine
 10
615.4781215595968
 20
374.1106339430788
 30
0.0
 11
596.2537215595967
 21
364.483933943079
 31
0.0
  0
ARC
  5
498
330
1A
100
AcDbEntity
  8
SEIHIN
  6
CONTINUOUS
 62
     3
 48
16.0
100
AcDbCircle
 10
599.3785215595965
 20
373.8773339430788
 30
0.0
 40
1.999984284938221
100
AcDbArc
 50
206.5996431105986
 51
296.599643110598
  0
ARC
  5
499
330
1A
100
AcDbEntity
  8
SEIHIN
  6
CONTINUOUS
 62
     3
 48
16.0
100
AcDbCircle
 10
591.7761315230667
 20
373.4254638946457
 30
0.0
 40
9.999988520493403
100
AcDbArc
 50
206.6002833110398
 51
296.6000275420927
  0
LINE
  5
49A
330
1A
100
AcDbEntity
  8
CENTER_L
  6
CENTER
 62
     1
 48
5.0
100
AcDbLine
 10
588.7033215595969
 20
375.0950339430788
 30
0.0
 11
592.4314215595966
 21
367.6504339430788
 31
0.0
  0
ARC
  5
49B
330
1A
100
AcDbEntity
  8
SEIHIN
  6
CONTINUOUS
 62
     3
 48
16.0
100
AcDbCircle
 10
589.9877215595966
 20
372.5298339430788
 30
0.0
 40
2.150000000000005
100
AcDbArc
 50
0.0
 51
179.9999999999999
  0
ARC
  5
49C
330
1A
100
AcDbEntity
  8
SEIHIN
  6
CONTINUOUS
 62
     3
 48
16.0
100
AcDbCircle
 10
589.9877215595966
 20
372.5298339430788
 30
0.0
 40
2.150000000000005
100
AcDbArc
 50
179.9999999999999
 51
0.0
  0
LINE
  5
49D
330
1A
100
AcDbEntity
  8
CENTER_L
  6
CENTER
 62
     1
 48
5.0
100
AcDbLine
 10
585.9152215595969
 20
370.4906339430789
 30
0.0
 11
593.5164215595968
 21
374.2969339430789
 31
0.0
  0
LINE
  5
49E
330
1A
100
AcDbEntity
  8
SEIHIN
  6
CONTINUOUS
 62
     3
 48
16.0
100
AcDbLine
 10
597.5901215595968
 20
372.9817339430788
 30
0.0
 11
596.2468215595968
 21
375.664233943079
 31
0.0
  0
LINE
  5
49F
330
1A
100
AcDbEntity
  8
SEIHIN
  6
CONTINUOUS
 62
     3
 48
16.0
100
AcDbLine
 10
609.2157215595968
 20
376.5666339430789
 30
0.0
 11
600.2740215595967
 21
372.0889339430788
 31
0.0
  0
ARC
  5
4A0
330
1A
100
AcDbEntity
  8
SEIHIN
  6
CONTINUOUS
 62
     3
 48
16.0
100
AcDbCircle
 10
616.7921215595967
 20
419.5037339430787
 30
0.0
 40
9.999966200443045
100
AcDbArc
 50
26.60015542656585
 51
116.6001554265659
  0
LINE
  5
4A1
330
1A
100
AcDbEntity
  8
SEIHIN
  6
CONTINUOUS
 62
     3
 48
16.0
100
AcDbLine
 10
606.5194215595965
 20
397.5841339430788
 30
0.0
 11
614.5792215595967
 21
381.4891339430788
 31
0.0
  0
LINE
  5
4A2
330
1A
100
AcDbEntity
  8
SEIHIN
  6
CONTINUOUS
 62
     3
 48
16.0
100
AcDbLine
 10
625.2954215595969
 20
409.2229339430789
 30
0.0
 11
607.4123215595967
 21
400.2679339430788
 31
0.0
  0
LINE
  5
4A3
330
1A
100
AcDbEntity
  8
SEIHIN
  6
CONTINUOUS
 62
     3
 48
16.0
100
AcDbLine
 10
593.0901215595969
 20
418.8184339430789
 30
0.0
 11
612.3145215595967
 21
428.445233943079
 31
0.0
  0
LINE
  5
4A4
330
1A
100
AcDbEntity
  8
SEIHIN
  6
CONTINUOUS
 62
     3
 48
16.0
100
AcDbLine
 10
593.0901215595969
 20
418.8184339430789
 30
0.0
 11
573.8659215595965
 21
409.1916339430788
 31
0.0
  0
LINE
  5
4A5
330
1A
100
AcDbEntity
  8
CENTER_L
  6
CENTER
 62
     1
 48
5.0
100
AcDbLine
 10
584.3052215595966
 20
397.6438339430791
 30
0.0
 11
573.8410215595966
 21
392.4036339430789
 31
0.0
  0
ARC
  5
4A6
330
1A
100
AcDbEntity
  8
SEIHIN
  6
CONTINUOUS
 62
     3
 48
16.0
100
AcDbCircle
 10
578.7939506780153
 20
394.8839485247942
 30
0.0
 40
3.249997224750773
100
AcDbArc
 50
133.157763068251
 51
100.0442737140029
  0
LINE
  5
4A7
330
1A
100
AcDbEntity
  8
SEIHIN
  6
CONTINUOUS
 62
     3
 48
16.0
100
AcDbLine
 10
581.4817215595966
 20
387.282833943079
 30
0.0
 11
599.3648215595968
 21
396.2380339430789
 31
0.0
  0
LINE
  5
4A8
330
1A
100
AcDbEntity
  8
SEIHIN
  6
CONTINUOUS
 62
     3
 48
16.0
100
AcDbLine
 10
583.2755215595967
 20
379.2341339430789
 30
0.0
 11
580.5889215595966
 21
384.599033943079
 31
0.0
  0
LINE
  5
4A9
330
1A
100
AcDbEntity
  8
CENTER_L
  6
CENTER
 62
     1
 48
5.0
100
AcDbLine
 10
580.0836215595966
 20
401.121633943079
 30
0.0
 11
572.8885215595965
 21
397.5185339430787
 31
0.0
  0
ARC
  5
4AA
330
1A
100
AcDbEntity
  8
SEIHIN
  6
CONTINUOUS
 62
     3
 48
16.0
100
AcDbCircle
 10
576.5550633222278
 20
399.3547047807096
 30
0.0
 40
2.100030714678153
100
AcDbArc
 50
322.769367535522
 51
270.4326692467314
  0
LINE
  5
4AB
330
1A
100
AcDbEntity
  8
CENTER_L
  6
CENTER
 62
     1
 48
5.0
100
AcDbLine
 10
574.8603215595966
 20
402.738933943079
 30
0.0
 11
581.0303215595967
 21
390.417833943079
 31
0.0
  0
ARC
  5
4AC
330
1A
100
AcDbEntity
  8
SEIHIN
  6
CONTINUOUS
 62
     3
 48
16.0
100
AcDbCircle
 10
578.3435215595967
 20
400.2501339430788
 30
0.0
 40
10.00005561584537
100
AcDbArc
 50
116.5998988795437
 51
206.5998988795437
  0
ARC
  5
4AD
330
1A
100
AcDbEntity
  8
SEIHIN
  6
CONTINUOUS
 62
     3
 48
16.0
100
AcDbCircle
 10
582.3773315535317
 20
385.4945639875733
 30
0.0
 40
2.00000667373888
100
AcDbArc
 50
116.6028460594008
 51
206.6002845254331
  0
ARC
  5
4AE
330
1A
100
AcDbEntity
  8
SEIHIN
  6
CONTINUOUS
 62
     3
 48
16.0
100
AcDbCircle
 10
608.3077215595968
 20
398.4796339430788
 30
0.0
 40
1.999984284938222
100
AcDbArc
 50
116.5996431105962
 51
206.5996431105986
  0
LINE
  5
4AF
330
1A
100
AcDbEntity
  8
SEIHIN
  6
CONTINUOUS
 62
     3
 48
16.0
100
AcDbLine
 10
601.1497215595966
 20
402.7237339430788
 30
0.0
 11
589.5258215595966
 21
396.9029339430789
 31
0.0
  0
LINE
  5
4B0
330
1A
100
AcDbEntity
  8
SEIHIN
  6
CONTINUOUS
 62
     3
 48
16.0
100
AcDbLine
 10
582.8121215595968
 20
405.8430339430787
 30
0.0
 11
586.8419215595969
 21
397.7956339430787
 31
0.0
  0
LINE
  5
4B1
330
1A
100
AcDbEntity
  8
SEIHIN
  6
CONTINUOUS
 62
     3
 48
16.0
100
AcDbLine
 10
586.8533215595967
 20
378.7890339430789
 30
0.0
 11
585.9593215595968
 21
378.3413339430789
 31
0.0
  0
ARC
  5
4B2
330
1A
100
AcDbEntity
  8
SEIHIN
  6
CONTINUOUS
 62
     3
 48
16.0
100
AcDbCircle
 10
585.063821559597
 20
380.1296339430788
 30
0.0
 40
1.999984284938289
100
AcDbArc
 50
206.5996431105953
 51
296.5996431105953
  0
ARC
  5
4B3
330
1A
100
AcDbEntity
  8
SEIHIN
  6
CONTINUOUS
 62
     3
 48
16.0
100
AcDbCircle
 10
588.630221559597
 20
398.6912339430789
 30
0.0
 40
1.999984284938273
100
AcDbArc
 50
206.5996431105943
 51
296.5996431105957
  0
LINE
  5
4B4
330
1A
100
AcDbEntity
  8
SEIHIN
  6
CONTINUOUS
 62
     3
 48
16.0
100
AcDbLine
 10
602.0487215595968
 20
395.345333943079
 30
0.0
 11
610.1085215595967
 21
379.2504339430789
 31
0.0
  0
ARC
  5
4B5
330
1A
100
AcDbEntity
  8
SEIHIN
  6
CONTINUOUS
 62
     3
 48
16.0
100
AcDbCircle
 10
600.2604215595968
 20
394.4497339430789
 30
0.0
 40
1.999984284938281
100
AcDbArc
 50
26.59964311059485
 51
116.5996431105955
  0
LINE
  5
4B6
330
1A
100
AcDbEntity
  8
SEIHIN
  6
CONTINUOUS
 62
     3
 48
16.0
100
AcDbLine
 10
606.9529215595969
 20
420.1686339430787
 30
0.0
 11
595.3289215595967
 21
414.3477339430789
 31
0.0
  0
LINE
  5
4B7
330
1A
100
AcDbEntity
  8
SEIHIN
  6
CONTINUOUS
 62
     3
 48
16.0
100
AcDbLine
 10
583.7049215595966
 20
408.526933943079
 30
0.0
 11
595.3289215595967
 21
414.347833943079
 31
0.0
  0
ARC
  5
4B8
330
1A
100
AcDbEntity
  8
SEIHIN
  6
CONTINUOUS
 62
     3
 48
16.0
100
AcDbCircle
 10
584.6004215595968
 20
406.738633943079
 30
0.0
 40
1.999984284938302
100
AcDbArc
 50
116.5996431105969
 51
206.5996431105956
  0
LINE
  5
4B9
330
1A
100
AcDbEntity
  8
SEIHIN
  6
CONTINUOUS
 62
     3
 48
16.0
100
AcDbLine
 10
609.6368215595966
 20
419.2757339430787
 30
0.0
 11
613.6666215595968
 21
411.2284339430788
 31
0.0
  0
LINE
  5
4BA
330
1A
100
AcDbEntity
  8
SEIHIN
  6
CONTINUOUS
 62
     3
 48
16.0
100
AcDbLine
 10
601.1497215595966
 20
402.7237339430788
 30
0.0
 11
612.7739215595966
 21
408.544633943079
 31
0.0
  0
ARC
  5
4BB
330
1A
100
AcDbEntity
  8
SEIHIN
  6
CONTINUOUS
 62
     3
 48
16.0
100
AcDbCircle
 10
611.878421559597
 20
410.3329339430788
 30
0.0
 40
1.999984284938131
100
AcDbArc
 50
296.5996431105957
 51
26.59964311059693
  0
ARC
  5
4BC
330
1A
100
AcDbEntity
  8
SEIHIN
  6
CONTINUOUS
 62
     3
 48
16.0
100
AcDbCircle
 10
607.8484815529751
 20
418.3802139847771
 30
0.0
 40
2.000028993539847
100
AcDbArc
 50
26.59964118405296
 51
116.600923856129
  0
LINE
  5
4BD
330
1A
100
AcDbEntity
  8
CENTER_L
  6
CENTER
 62
     1
 48
5.0
100
AcDbLine
 10
616.8857215595968
 20
423.7835339430789
 30
0.0
 11
623.0053215595968
 21
411.5631339430787
 31
0.0
  0
LINE
  5
4BE
330
1A
100
AcDbEntity
  8
SEIHIN
  6
CONTINUOUS
 62
     3
 48
16.0
100
AcDbLine
 10
625.7336215595968
 20
423.9813339430787
 30
0.0
 11
639.1664215595966
 21
397.1566339430788
 31
0.0
  0
ARC
  5
4BF
330
1A
100
AcDbEntity
  8
SEIHIN
  6
CONTINUOUS
 62
     3
 48
16.0
100
AcDbCircle
 10
628.8775215595969
 20
402.0697339430787
 30
0.0
 40
1.999984284938305
100
AcDbArc
 50
296.5996431105969
 51
26.59964311059924
  0
LINE
  5
4C0
330
1A
100
AcDbEntity
  8
SEIHIN
  6
CONTINUOUS
 62
     3
 48
16.0
100
AcDbLine
 10
628.8790215595968
 20
399.8337339430787
 30
0.0
 11
629.7730215595968
 21
400.2814339430787
 31
0.0
  0
ARC
  5
4C1
330
1A
100
AcDbEntity
  8
SEIHIN
  6
CONTINUOUS
 62
     3
 48
16.0
100
AcDbCircle
 10
632.0133215595966
 20
393.5747339430787
 30
0.0
 40
7.000012092846626
100
AcDbArc
 50
116.5998258034008
 51
206.5998258034011
  0
ARC
  5
4C2
330
1A
100
AcDbEntity
  8
SEIHIN
  6
CONTINUOUS
 62
     3
 48
16.0
100
AcDbCircle
 10
632.0133215595969
 20
393.5747339430789
 30
0.0
 40
2.15000000000009
100
AcDbArc
 50
0.0
 51
179.9999999999999
  0
LINE
  5
4C3
330
1A
100
AcDbEntity
  8
CENTER_L
  6
CENTER
 62
     1
 48
5.0
100
AcDbLine
 10
630.373521559597
 20
396.8493339430789
 30
0.0
 11
634.6406215595971
 21
388.328133943079
 31
0.0
  0
ARC
  5
4C4
330
1A
100
AcDbEntity
  8
SEIHIN
  6
CONTINUOUS
 62
     3
 48
16.0
100
AcDbCircle
 10
632.0133215595969
 20
393.5747339430789
 30
0.0
 40
2.15000000000009
100
AcDbArc
 50
179.9999999999999
 51
0.0
  0
LINE
  5
4C5
330
1A
100
AcDbEntity
  8
CENTER_L
  6
CENTER
 62
     1
 48
5.0
100
AcDbLine
 10
628.4847215595966
 20
391.807733943079
 30
0.0
 11
635.7705215595967
 21
395.4561339430789
 31
0.0
  0
LINE
  5
4C6
330
1A
100
AcDbEntity
  8
SEIHIN
  6
CONTINUOUS
 62
     3
 48
16.0
100
AcDbLine
 10
627.0974215595966
 20
387.7578339430789
 30
0.0
 11
625.7543215595967
 21
390.4403339430788
 31
0.0
  0
LINE
  5
4C7
330
1A
100
AcDbEntity
  8
SEIHIN
  6
CONTINUOUS
 62
     3
 48
16.0
100
AcDbLine
 10
617.2630215595969
 20
380.5963339430789
 30
0.0
 11
626.2046215595969
 21
385.074033943079
 31
0.0
  0
ARC
  5
4C8
330
1A
100
AcDbEntity
  8
SEIHIN
  6
CONTINUOUS
 62
     3
 48
16.0
100
AcDbCircle
 10
616.3675215595969
 20
382.384633943079
 30
0.0
 40
1.99998428493837
100
AcDbArc
 50
206.5996431105963
 51
296.5996431105967
  0
ARC
  5
4C9
330
1A
100
AcDbEntity
  8
SEIHIN
  6
CONTINUOUS
 62
     3
 48
16.0
100
AcDbCircle
 10
625.3091215595969
 20
386.8623339430788
 30
0.0
 40
1.999984284938156
100
AcDbArc
 50
296.599643110599
 51
26.59964311059916
  0
ARC
  5
4CA
330
1A
100
AcDbEntity
  8
SEIHIN
  6
CONTINUOUS
 62
     3
 48
16.0
100
AcDbCircle
 10
630.2249215595967
 20
392.6790339430786
 30
0.0
 40
9.999966200442752
100
AcDbArc
 50
296.6001554265667
 51
26.60015542656697
  0
ARC
  5
4CB
330
1A
100
AcDbEntity
  8
SEIHIN
  6
CONTINUOUS
 62
     3
 48
16.0
100
AcDbCircle
 10
626.1910516040911
 20
407.434623949144
 30
0.0
 40
2.000006673738873
100
AcDbArc
 50
26.60284605940231
 51
116.600284525431
  0
LINE
  5
4CC
330
1A
100
AcDbEntity
  8
SEIHIN
  6
CONTINUOUS
 62
     3
 48
16.0
100
AcDbLine
 10
630.6658215595968
 20
402.9652339430789
 30
0.0
 11
627.9793215595966
 21
408.3302339430788
 31
0.0
  0
LINE
  5
4CD
330
1A
100
AcDbEntity
  8
CENTER_L
  6
CENTER
 62
     1
 48
5.0
100
AcDbLine
 10
615.3079215595966
 20
413.1686339430788
 30
0.0
 11
625.7244215595968
 21
418.384833943079
 31
0.0
  0
ARC
  5
4CE
330
1A
100
AcDbEntity
  8
SEIHIN
  6
CONTINUOUS
 62
     3
 48
16.0
100
AcDbCircle
 10
620.8191362268902
 20
415.9283912118937
 30
0.0
 40
3.250033700229689
100
AcDbArc
 50
133.1543942429066
 51
100.0421107263288
  0
ARC
  5
4CF
330
1A
100
AcDbEntity
  8
SEIHIN
  6
CONTINUOUS
 62
     3
 48
16.0
100
AcDbCircle
 10
618.5804646955837
 20
420.3992555434389
 30
0.0
 40
2.099980715726193
100
AcDbArc
 50
322.7665913652362
 51
270.4299136039998
  0
LINE
  5
4D0
330
1A
100
AcDbEntity
  8
CENTER_L
  6
CENTER
 62
     1
 48
5.0
100
AcDbLine
 10
615.0519215595968
 20
418.6323339430788
 30
0.0
 11
622.3378215595967
 21
422.2807339430788
 31
0.0
  0
LINE
  5
4D1
330
1A
100
AcDbEntity
  8
CENTER_L
  6
CENTER
 62
     1
 48
5.0
100
AcDbLine
 10
435.3572287530668
 20
487.5128630309866
 30
0.0
 11
430.3564287530669
 21
487.5128630309866
 31
0.0
  0
ARC
  5
4D2
330
1A
100
AcDbEntity
  8
SEIHIN
  6
CONTINUOUS
 62
     3
 48
16.0
100
AcDbCircle
 10
425.9603287530667
 20
489.5128630309866
 30
0.0
 40
1.0
100
AcDbArc
 50
90.0
 51
180.0
  0
LINE
  5
4D3
330
1A
100
AcDbEntity
  8
SEIHIN
  6
CONTINUOUS
 62
     3
 48
16.0
100
AcDbLine
 10
419.9995934815961
 20
488.5628630309867
 30
0.0
 11
418.3025287530669
 21
488.5628630309867
 31
0.0
  0
LINE
  5
4D4
330
1A
100
AcDbEntity
  8
SEIHIN
  6
CONTINUOUS
 62
     3
 48
16.0
100
AcDbLine
 10
425.9603287530667
 20
490.5128630309866
 30
0.0
 11
428.4403287530667
 21
490.5128630309866
 31
0.0
  0
ARC
  5
4D5
330
1A
100
AcDbEntity
  8
SEIHIN
  6
CONTINUOUS
 62
     3
 48
16.0
100
AcDbCircle
 10
427.1003287530668
 20
489.5128630309866
 30
0.0
 40
1.0
100
AcDbArc
 50
0.0
 51
90.0
  0
ARC
  5
4D6
330
1A
100
AcDbEntity
  8
SEIHIN
  6
CONTINUOUS
 62
     3
 48
16.0
100
AcDbCircle
 10
428.4403287530667
 20
489.5128630309866
 30
0.0
 40
1.000000000000085
100
AcDbArc
 50
0.0000000000048853
 51
90.00000000000488
  0
LINE
  5
4D7
330
1A
100
AcDbEntity
  8
SEIHIN
  6
CONTINUOUS
 62
     3
 48
16.0
100
AcDbLine
 10
428.1003287530668
 20
489.5128630309866
 30
0.0
 11
428.1003287530668
 21
487.5128630309866
 31
0.0
  0
LINE
  5
4D8
330
1A
100
AcDbEntity
  8
SEIHIN
  6
CONTINUOUS
 62
     3
 48
16.0
100
AcDbLine
 10
429.4403287530668
 20
489.5128630309866
 30
0.0
 11
429.4403287530668
 21
487.5128630309866
 31
0.0
  0
DIMENSION
  5
4E7
330
1A
100
AcDbEntity
  8
SUNPOU
100
AcDbDimension
  2
*D1
 10
603.1773668613062
 20
450.980411288777
 30
0.0
 11
579.9418967482977
 21
444.8680063828037
 31
0.0
 12
-2.199817108694787
 22
-38.46217915393549
 32
0.0
 70
    32
  3
STANDARD
100
AcDbAlignedDimension
 13
574.8603215595966
 23
402.738933943079
 33
0.0
 14
616.8857215595968
 24
423.7835339430789
 34
0.0
 50
26.74999999999999
100
AcDbRotatedDimension
1001
ACAD
1000
DSTYLE
1002
{
1070
   140
1040
6.0
1070
    74
1070
     0
1070
   172
1070
     1
1070
    73
1070
     0
1070
   272
1070
     2
1070
    77
1070
     3
1070
   173
1070
     1
1070
   147
1040
2.0
1070
    42
1040
6.0
1070
    44
1040
3.0
1070
    43
1040
14.0
1070
   271
1070
     0
1070
   178
1070
     4
1070
   177
1070
     4
1070
   176
1070
     4
1070
   141
1040
150.0
1070
     7
1000
_OPEN
1070
     6
1000
_OPEN
1070
    41
1040
7.0
1002
}
  0
DIMENSION
  5
4F4
330
1A
100
AcDbEntity
  8
SUNPOU
100
AcDbDimension
  2
*D2
 10
603.9548452134367
 20
467.1896344329808
 30
0.0
 11
573.5756239616944
 21
457.4764825279565
 31
0.0
 12
-2.199817108694787
 22
-38.46217915393549
 32
0.0
 70
    32
  3
STANDARD
100
AcDbAlignedDimension
 13
569.4019215595965
 23
395.7725339430788
 33
0.0
 14
625.7336215595968
 24
423.9813339430787
 34
0.0
 50
26.74999999999999
100
AcDbRotatedDimension
1001
ACAD
1000
DSTYLE
1002
{
1070
   140
1040
6.0
1070
    74
1070
     0
1070
   172
1070
     1
1070
    73
1070
     0
1070
   272
1070
     2
1070
    77
1070
     3
1070
   173
1070
     1
1070
   147
1040
2.0
1070
    42
1040
6.0
1070
    44
1040
3.0
1070
    43
1040
14.0
1070
   271
1070
     0
1070
   178
1070
     4
1070
   177
1070
     4
1070
   176
1070
     4
1070
   141
1040
150.0
1070
     7
1000
_OPEN
1070
     6
1000
_OPEN
1070
    41
1040
7.0
1002
}
  0
DIMENSION
  5
503
330
1A
100
AcDbEntity
  8
SUNPOU
100
AcDbDimension
  2
*D3
 10
507.1842682659278
 20
375.5813137728969
 30
0.0
 11
502.8722433827535
 21
395.2448953746013
 31
0.0
 12
-2.199817108694787
 22
-38.46217915393549
 32
0.0
 70
    32
  3
STANDARD
100
AcDbAlignedDimension
 13
572.8885215595965
 23
397.5185339430787
 33
0.0
 14
573.8659215595965
 24
409.1916339430788
 34
0.0
 50
116.7499999999999
100
AcDbRotatedDimension
1001
ACAD
1000
DSTYLE
1002
{
1070
   140
1040
6.0
1070
    74
1070
     0
1070
   172
1070
     1
1070
    73
1070
     0
1070
   272
1070
     2
1070
    77
1070
     3
1070
   173
1070
     1
1070
   147
1040
2.0
1070
    42
1040
6.0
1070
    44
1040
3.0
1070
    43
1040
14.0
1070
   271
1070
     0
1070
   178
1070
     4
1070
   177
1070
     4
1070
   176
1070
     4
1070
   141
1040
150.0
1070
     7
1000
_OPEN
1070
     6
1000
_OPEN
1070
    41
1040
7.0
1002
}
  0
DIMENSION
  5
512
330
1A
100
AcDbEntity
  8
SUNPOU
100
AcDbDimension
  2
*D4
 10
500.0708678407822
 20
355.2204154260854
 30
0.0
 11
501.1644975419799
 21
364.1593748583106
 31
0.0
 12
-2.199817108694787
 22
-38.46217915393549
 32
0.0
 70
    32
  3
STANDARD
100
AcDbAlignedDimension
 13
573.8659215595965
 23
409.1916339430788
 33
0.0
 14
573.8410215595966
 24
392.4036339430789
 34
0.0
 50
116.7499999999999
100
AcDbRotatedDimension
1001
ACAD
1000
DSTYLE
1002
{
1070
   140
1040
6.0
1070
    74
1070
     0
1070
   172
1070
     1
1070
    73
1070
     0
1070
   272
1070
     2
1070
    77
1070
     3
1070
   173
1070
     1
1070
   147
1040
2.0
1070
    42
1040
6.0
1070
    44
1040
3.0
1070
    43
1040
14.0
1070
   271
1070
     0
1070
   178
1070
     4
1070
   177
1070
     4
1070
   176
1070
     4
1070
   141
1040
150.0
1070
     7
1000
_OPEN
1070
     6
1000
_OPEN
1070
    41
1040
7.0
1002
}
  0
DIMENSION
  5
521
330
1A
100
AcDbEntity
  8
SUNPOU
100
AcDbDimension
  2
*D5
 10
529.6890771570202
 20
330.9325911092123
 30
0.0
 11
542.9308914743058
 21
315.7699939178823
 31
0.0
 12
-2.199817108694787
 22
-38.46217915393549
 32
0.0
 70
    32
  3
STANDARD
100
AcDbAlignedDimension
 13
585.9152215595969
 23
370.4906339430789
 33
0.0
 14
596.2537215595967
 24
364.4839339430788
 34
0.0
 50
116.7499999999999
100
AcDbRotatedDimension
1001
ACAD
1000
DSTYLE
1002
{
1070
   140
1040
6.0
1070
    74
1070
     0
1070
   172
1070
     1
1070
    73
1070
     0
1070
   272
1070
     2
1070
    77
1070
     3
1070
   173
1070
     1
1070
   147
1040
2.0
1070
    42
1040
6.0
1070
    44
1040
3.0
1070
    43
1040
14.0
1070
   271
1070
     0
1070
   178
1070
     4
1070
   177
1070
     4
1070
   176
1070
     4
1070
   141
1040
150.0
1070
     7
1000
_OPEN
1070
     6
1000
_OPEN
1070
    41
1040
7.0
1002
}
  0
DIMENSION
  5
52E
330
1A
100
AcDbEntity
  8
SUNPOU
100
AcDbDimension
  2
*D6
 10
501.9772162432971
 20
316.9646633237413
 30
0.0
 11
495.1897065148067
 21
341.5395168607708
 31
0.0
 12
-2.199817108694787
 22
-38.46217915393549
 32
0.0
 70
    32
  3
STANDARD
100
AcDbAlignedDimension
 13
573.8659215595965
 23
409.1916339430788
 33
0.0
 14
596.2537215595967
 24
364.4839339430788
 34
0.0
 50
116.7499999999999
100
AcDbRotatedDimension
1001
ACAD
1000
DSTYLE
1002
{
1070
   140
1040
6.0
1070
    74
1070
     0
1070
   172
1070
     1
1070
    73
1070
     0
1070
   272
1070
     2
1070
    77
1070
     3
1070
   173
1070
     1
1070
   147
1040
2.0
1070
    42
1040
6.0
1070
    44
1040
3.0
1070
    43
1040
14.0
1070
   271
1070
     0
1070
   178
1070
     4
1070
   177
1070
     4
1070
   176
1070
     4
1070
   141
1040
150.0
1070
     7
1000
_OPEN
1070
     6
1000
_OPEN
1070
    41
1040
7.0
1002
}
  0
LEADER
  5
577
330
1A
100
AcDbEntity
  8
SUNPOU
 62
     4
100
AcDbLeader
  3
STANDARD
 73
     0
 40
6.0
 41
31.19999999999999
 76
     3
 10
574.6073092588328
 20
400.1398054819702
 30
0.0
 10
542.9859457606625
 20
421.5616882655547
 30
0.0
 10
539.6748421164211
 20
421.5616882655547
 30
0.0
1001
ACAD
1000
DSTYLE
1002
{
1070
     6
1000
OPEN
1070
    41
1040
7.0
1070
    42
1040
6.0
1070
    43
1040
14.0
1070
    44
1040
3.0
1070
    73
1070
     0
1070
    74
1070
     0
1070
    77
1070
     3
1070
   140
1040
6.0
1070
   141
1040
150.0
1070
   147
1040
2.0
1070
   172
1070
     1
1070
   173
1070
     1
1070
   176
1070
     4
1070
   177
1070
     4
1070
   178
1070
     4
1070
   271
1070
     0
1070
   272
1070
     2
1070
   341
1005
6D
1070
   343
1005
6D
1070
   344
1005
6D
1002
}
  0
MTEXT
  5
578
330
1A
100
AcDbEntity
  8
SUNPOU
 62
     4
100
AcDbMText
 10
537.6748421164211
 20
423.5616882655547
 30
0.0
 40
6.0
 41
0.0
 71
     9
 72
     5
  1
4-φ4.2
1001
ACAD
1000
MTEXTBEGIN
1070
    73
1070
     1
1070
    44
1040
1.0
1070
    74
1070
     0
1000
MTEXTEND
1000
MTEXTBEGIN
1070
    73
1070
     1
1070
    44
1040
1.0
1070
    74
1070
     0
1000
MTEXTEND
  0
DIMENSION
  5
589
330
1A
100
AcDbEntity
  8
SUNPOU
100
AcDbDimension
  2
*D7
 10
264.0311838155016
 20
456.5128630309867
 30
0.0
 11
259.0311838155016
 21
464.0128630309866
 31
0.0
 70
    32
  3
STANDARD
100
AcDbAlignedDimension
 13
289.3602287530668
 23
471.5128630309866
 33
0.0
 14
289.3602287530668
 24
456.5128630309867
 34
0.0
 50
90.0
100
AcDbRotatedDimension
1001
ACAD
1000
DSTYLE
1002
{
1070
   140
1040
6.0
1070
    74
1070
     0
1070
   172
1070
     1
1070
    73
1070
     0
1070
   272
1070
     2
1070
    77
1070
     3
1070
   173
1070
     1
1070
   147
1040
2.0
1070
    42
1040
6.0
1070
    44
1040
3.0
1070
    43
1040
14.0
1070
   271
1070
     0
1070
   178
1070
     4
1070
   177
1070
     4
1070
   176
1070
     4
1070
   141
1040
150.0
1070
     7
1000
_OPEN
1070
     6
1000
_OPEN
1070
    41
1040
7.0
1002
}
  0
DIMENSION
  5
598
330
1A
100
AcDbEntity
  8
SUNPOU
100
AcDbDimension
  2
*D8
 10
463.7928754681811
 20
451.5128630309867
 30
0.0
 11
458.7928754681811
 21
464.0128630309866
 31
0.0
 12
-2.199817108694787
 22
-20.87946883226618
 32
0.0
 70
    32
  3
STANDARD
100
AcDbAlignedDimension
 13
408.0836287530668
 23
476.5128630309866
 33
0.0
 14
407.9463287530669
 24
451.5128630309867
 34
0.0
 50
90.0
100
AcDbRotatedDimension
1001
ACAD
1000
DSTYLE
1002
{
1070
   140
1040
6.0
1070
    74
1070
     0
1070
   172
1070
     1
1070
    73
1070
     0
1070
   272
1070
     2
1070
    77
1070
     3
1070
   173
1070
     1
1070
   147
1040
2.0
1070
    42
1040
6.0
1070
    44
1040
3.0
1070
    43
1040
14.0
1070
   271
1070
     0
1070
   178
1070
     4
1070
   177
1070
     4
1070
   176
1070
     4
1070
   141
1040
150.0
1070
     7
1000
_OPEN
1070
     6
1000
_OPEN
1070
    41
1040
7.0
1002
}
  0
DIMENSION
  5
5A5
330
1A
100
AcDbEntity
  8
SUNPOU
100
AcDbDimension
  2
*D9
 10
480.4104379661139
 20
432.5127630309864
 30
0.0
 11
475.4104379661139
 21
464.0128130309865
 31
0.0
 12
-2.199817108694787
 22
-20.87946883226618
 32
0.0
 70
    32
  3
STANDARD
100
AcDbAlignedDimension
 13
432.5903287530667
 23
495.5128630309866
 33
0.0
 14
432.5703287530667
 24
432.5127630309864
 34
0.0
 50
90.0
100
AcDbRotatedDimension
1001
ACAD
1000
DSTYLE
1002
{
1070
   140
1040
6.0
1070
    74
1070
     0
1070
   172
1070
     1
1070
    73
1070
     0
1070
   272
1070
     2
1070
    77
1070
     3
1070
   173
1070
     1
1070
   147
1040
2.0
1070
    42
1040
6.0
1070
    44
1040
3.0
1070
    43
1040
14.0
1070
   271
1070
     0
1070
   178
1070
     4
1070
   177
1070
     4
1070
   176
1070
     4
1070
   141
1040
150.0
1070
     7
1000
_OPEN
1070
     6
1000
_OPEN
1070
    41
1040
7.0
1002
}
  0
DIMENSION
  5
5B4
330
1A
100
AcDbEntity
  8
SUNPOU
100
AcDbDimension
  2
*D10
 10
414.6602287530667
 20
353.666823689193
 30
0.0
 11
409.1327122142772
 21
358.666823689193
 31
0.0
 12
-2.199817108694787
 22
-38.46217915393549
 32
0.0
 70
    32
  3
STANDARD
100
AcDbAlignedDimension
 13
403.6051956754879
 23
303.4386624102336
 33
0.0
 14
414.6602287530667
 24
329.4677527093174
 34
0.0
100
AcDbRotatedDimension
1001
ACAD
1000
DSTYLE
1002
{
1070
   140
1040
6.0
1070
    74
1070
     0
1070
   172
1070
     1
1070
    73
1070
     0
1070
   272
1070
     2
1070
    77
1070
     3
1070
   173
1070
     1
1070
   147
1040
2.0
1070
    42
1040
6.0
1070
    44
1040
3.0
1070
    43
1040
14.0
1070
   271
1070
     0
1070
   178
1070
     4
1070
   177
1070
     4
1070
   176
1070
     4
1070
   141
1040
150.0
1070
     7
1000
_OPEN
1070
     6
1000
_OPEN
1070
    41
1040
7.0
1002
}
  0
LINE
  5
5B5
330
1A
100
AcDbEntity
  8
CENTER_L
  6
CENTER
 62
     1
 48
5.0
100
AcDbLine
 10
458.3885287530667
 20
322.6548527093172
 30
0.0
 11
445.2488287530669
 21
316.0749527093173
 31
0.0
  0
LINE
  5
5B6
330
1A
100
AcDbEntity
  8
CENTER_L
  6
CENTER
 62
     1
 48
5.0
100
AcDbLine
 10
460.6245287530668
 20
318.1827527093172
 30
0.0
 11
447.5233287530668
 21
311.6221527093173
 31
0.0
  0
LINE
  5
5B7
330
1A
100
AcDbEntity
  8
CENTER_L
  6
CENTER
 62
     1
 48
5.0
100
AcDbLine
 10
458.8958287530669
 20
289.3576527093173
 30
0.0
 11
471.8049287530667
 21
295.8220527093173
 31
0.0
  0
DIMENSION
  5
5C4
330
1A
100
AcDbEntity
  8
SUNPOU
100
AcDbDimension
  2
*D11
 10
304.6602287530668
 20
367.9500317458303
 30
0.0
 11
359.6602287530668
 21
372.9500317458303
 31
0.0
 12
-2.199817108694787
 22
-38.46217915393549
 32
0.0
 70
    32
  3
STANDARD
100
AcDbAlignedDimension
 13
414.6602287530667
 23
329.4677527093174
 33
0.0
 14
304.6602287530668
 24
299.9231527093172
 34
0.0
100
AcDbRotatedDimension
1001
ACAD
1000
DSTYLE
1002
{
1070
   140
1040
6.0
1070
    74
1070
     0
1070
   172
1070
     1
1070
    73
1070
     0
1070
   272
1070
     2
1070
    77
1070
     3
1070
   173
1070
     1
1070
   147
1040
2.0
1070
    42
1040
6.0
1070
    44
1040
3.0
1070
    43
1040
14.0
1070
   271
1070
     0
1070
   178
1070
     4
1070
   177
1070
     4
1070
   176
1070
     4
1070
   141
1040
150.0
1070
     7
1000
_OPEN
1070
     6
1000
_OPEN
1070
    41
1040
7.0
1002
}
  0
DIMENSION
  5
5D6
330
1A
100
AcDbEntity
  8
SUNPOU
100
AcDbDimension
  2
*D12
 10
414.6602287530667
 20
380.9012457358564
 30
0.0
 11
350.1602287530668
 21
385.9012457358565
 31
0.0
 12
-2.199817108694787
 22
-38.46217915393549
 32
0.0
 70
    32
  3
STANDARD
100
AcDbAlignedDimension
 13
285.6602287530668
 23
295.2731527093173
 33
0.0
 14
414.6602287530667
 24
329.4677527093174
 34
0.0
100
AcDbRotatedDimension
1001
ACAD
1000
DSTYLE
1002
{
1070
   140
1040
6.0
1070
    74
1070
     0
1070
   172
1070
     1
1070
    73
1070
     0
1070
   272
1070
     2
1070
    77
1070
     3
1070
   173
1070
     1
1070
   147
1040
2.0
1070
    42
1040
6.0
1070
    44
1040
3.0
1070
    43
1040
14.0
1070
   271
1070
     0
1070
   178
1070
     4
1070
   177
1070
     4
1070
   176
1070
     4
1070
   141
1040
150.0
1070
     7
1000
_OPEN
1070
     6
1000
_OPEN
1070
    41
1040
7.0
1002
}
  0
DIMENSION
  5
606
330
1A
100
AcDbEntity
  8
SUNPOU
100
AcDbDimension
  2
*D13
 10
449.6602287530667
 20
380.9012457358564
 30
0.0
 11
432.1602287530667
 21
385.9012457358565
 31
0.0
 12
-2.199817108694787
 22
-38.46217915393549
 32
0.0
 70
    32
  3
STANDARD
100
AcDbAlignedDimension
 13
414.6602287530667
 23
329.4677527093174
 33
0.0
 14
449.6602287530667
 24
329.4677527093174
 34
0.0
100
AcDbRotatedDimension
1001
ACAD
1000
DSTYLE
1002
{
1070
   140
1040
6.0
1070
    74
1070
     0
1070
   172
1070
     1
1070
    73
1070
     0
1070
   272
1070
     2
1070
    77
1070
     3
1070
   173
1070
     1
1070
   147
1040
2.0
1070
    42
1040
6.0
1070
    44
1040
3.0
1070
    43
1040
14.0
1070
   271
1070
     0
1070
   178
1070
     4
1070
   177
1070
     4
1070
   176
1070
     4
1070
   141
1040
150.0
1070
     7
1000
_OPEN
1070
     6
1000
_OPEN
1070
    41
1040
7.0
1002
}
  0
TEXT
  5
607
330
1A
100
AcDbEntity
  8
SUNPOU
100
AcDbText
 10
442.4574510736727
 20
241.2681130717694
 30
0.0
 40
6.0
  1
10
100
AcDbText
  0
TEXT
  5
608
330
1A
100
AcDbEntity
  8
SUNPOU
100
AcDbText
 10
455.1506235892204
 20
228.35786686706
 30
0.0
 40
6.0
  1
5
100
AcDbText
  0
DIMENSION
  5
617
330
1A
100
AcDbEntity
  8
SUNPOU
100
AcDbDimension
  2
*D14
 10
449.9472245934177
 20
259.0008524733575
 30
0.0
 11
472.0384806635742
 21
270.063157349957
 31
0.0
 70
   161
  1
t<>
  3
STANDARD
100
AcDbAlignedDimension
 13
431.6832592247719
 23
282.0734178926826
 33
0.0
 14
437.0482287530669
 24
284.7599527093171
 34
0.0
1001
ACAD
1000
DSTYLE
1002
{
1070
   140
1040
6.0
1070
    74
1070
     0
1070
   172
1070
     1
1070
    73
1070
     0
1070
   272
1070
     2
1070
    77
1070
     3
1070
   173
1070
     1
1070
   147
1040
2.0
1070
    42
1040
6.0
1070
    44
1040
3.0
1070
    43
1040
14.0
1070
   271
1070
     1
1070
   178
1070
     4
1070
   177
1070
     4
1070
   176
1070
     4
1070
   141
1040
150.0
1070
     7
1000
_OPEN
1070
     6
1000
_OPEN
1070
    41
1040
7.0
1002
}
  0
LINE
  5
618
330
1A
100
AcDbEntity
  8
CENTER_L
  6
CENTER
 62
     1
 48
5.0
100
AcDbLine
 10
423.3885287530667
 20
179.7953319963211
 30
0.0
 11
410.2488287530668
 21
173.2154319963212
 31
0.0
  0
LINE
  5
619
330
1A
100
AcDbEntity
  8
SEIHIN
  6
CONTINUOUS
 62
     3
 48
16.0
100
AcDbLine
 10
433.4716287530667
 20
140.1094319963212
 30
0.0
 11
411.0836287530668
 21
184.8171319963212
 31
0.0
  0
LINE
  5
61A
330
1A
100
AcDbEntity
  8
SEIHIN
  6
CONTINUOUS
 62
     3
 48
16.0
100
AcDbLine
 10
414.6602287530667
 20
186.6082319963213
 30
0.0
 11
437.0482287530669
 21
141.9004319963211
 31
0.0
  0
LINE
  5
61B
330
1A
100
AcDbEntity
  8
SEIHIN
  6
CONTINUOUS
 62
     3
 48
16.0
100
AcDbLine
 10
410.1908287530668
 20
182.1333319963212
 30
0.0
 11
430.7877287530669
 21
141.0022319963212
 31
0.0
  0
LINE
  5
61C
330
1A
100
AcDbEntity
  8
CENTER_L
  6
CENTER
 62
     1
 48
5.0
100
AcDbLine
 10
425.6245287530669
 20
175.3232319963212
 30
0.0
 11
412.5233287530669
 21
168.7626319963212
 31
0.0
  0
LINE
  5
61F
330
1A
100
AcDbEntity
  8
NOKITOI
  6
PHANTOM
 62
     8
 48
5.0
100
AcDbLine
 10
283.7342961371774
 20
160.5791416972376
 30
0.0
 11
284.1243961371775
 21
148.0947416972375
 31
0.0
  0
LINE
  5
620
330
1A
100
AcDbEntity
  8
NOKITOI
  6
PHANTOM
 62
     8
 48
5.0
100
AcDbLine
 10
292.1946961371775
 20
153.6153416972376
 30
0.0
 11
292.5104961371774
 21
159.6153416972376
 31
0.0
  0
LINE
  5
621
330
1A
100
AcDbEntity
  8
NOKITOI
  6
PHANTOM
 62
     8
 48
5.0
100
AcDbLine
 10
288.9512961371776
 20
153.7123416972374
 30
0.0
 11
289.2850961371776
 21
156.0485416972376
 31
0.0
  0
ARC
  5
622
330
1A
100
AcDbEntity
  8
NOKITOI
  6
PHANTOM
 62
     8
 48
5.0
100
AcDbCircle
 10
289.1848270641137
 20
152.6416774419014
 30
0.0
 40
3.99998565374706
100
AcDbArc
 50
96.47577619531674
 51
181.7913033408985
  0
LINE
  5
623
330
1A
100
AcDbEntity
  8
SEIHIN
  6
CONTINUOUS
 62
     3
 48
16.0
100
AcDbLine
 10
381.6637287530669
 20
159.6222319963212
 30
0.0
 11
377.0114287530668
 21
153.4610319963212
 31
0.0
  0
ARC
  5
624
330
1A
100
AcDbEntity
  8
SEIHIN
  6
CONTINUOUS
 62
     3
 48
16.0
100
AcDbCircle
 10
371.2010373727582
 20
154.0636146860215
 30
0.0
 40
0.9999826897375097
100
AcDbArc
 50
142.9416714733751
 51
269.9995061195088
  0
LINE
  5
625
330
1A
100
AcDbEntity
  8
SEIHIN
  6
CONTINUOUS
 62
     3
 48
16.0
100
AcDbLine
 10
372.8208287530667
 20
143.7627319963211
 30
0.0
 11
383.6587287530669
 21
158.1157319963211
 31
0.0
  0
ARC
  5
626
330
1A
100
AcDbEntity
  8
SEIHIN
  6
CONTINUOUS
 62
     3
 48
16.0
100
AcDbCircle
 10
363.5703953313805
 20
158.0636651506013
 30
0.0
 40
5.00003315472331
100
AcDbArc
 50
269.9992370737827
 51
322.9434740581009
  0
LINE
  5
627
330
1A
100
AcDbEntity
  8
SEIHIN
  6
CONTINUOUS
 62
     3
 48
16.0
100
AcDbLine
 10
408.6603287530668
 20
167.0636319963212
 30
0.0
 11
408.6603287530668
 21
138.5636319963212
 31
0.0
  0
LINE
  5
628
330
1A
100
AcDbEntity
  8
SEIHIN
  6
CONTINUOUS
 62
     3
 48
16.0
100
AcDbLine
 10
404.6603287530668
 20
163.0636319963212
 30
0.0
 11
404.6603287530668
 21
143.3735319963212
 31
0.0
  0
LINE
  5
629
330
1A
100
AcDbEntity
  8
SEIHIN
  6
CONTINUOUS
 62
     3
 48
16.0
100
AcDbLine
 10
304.6602287530668
 20
149.0636319963212
 30
0.0
 11
304.6602287530668
 21
157.0636319963212
 31
0.0
  0
LINE
  5
62A
330
1A
100
AcDbEntity
  8
SEIHIN
  6
CONTINUOUS
 62
     3
 48
16.0
100
AcDbLine
 10
289.1781287530668
 20
155.9263319963211
 30
0.0
 11
288.4772287530669
 21
153.4731319963212
 31
0.0
  0
LINE
  5
62B
330
1A
100
AcDbEntity
  8
NOKITOI
  6
PHANTOM
 62
     8
 48
5.0
100
AcDbLine
 10
395.1447961371774
 20
153.6154416972374
 30
0.0
 11
394.8289961371775
 21
159.6153416972376
 31
0.0
  0
LINE
  5
62C
330
1A
100
AcDbEntity
  8
NOKITOI
  6
PHANTOM
 62
     8
 48
5.0
100
AcDbLine
 10
398.3881961371774
 20
153.7124416972377
 30
0.0
 11
398.0544961371774
 21
156.0486416972376
 31
0.0
  0
LINE
  5
62D
330
1A
100
AcDbEntity
  8
CENTER_L
  6
CENTER
 62
     1
 48
5.0
100
AcDbLine
 10
314.6603287530668
 20
166.4854319963212
 30
0.0
 11
314.6602287530667
 21
137.8907319963212
 31
0.0
  0
LINE
  5
62E
330
1A
100
AcDbEntity
  8
SEIHIN
  6
CONTINUOUS
 62
     3
 48
16.0
100
AcDbLine
 10
334.5896287530667
 20
148.6402319963212
 30
0.0
 11
344.8662287530668
 21
162.2499319963212
 31
0.0
  0
LINE
  5
62F
330
1A
100
AcDbEntity
  8
NOKITOI
  6
PHANTOM
 62
     8
 48
5.0
100
AcDbLine
 10
403.6052961371774
 20
160.5791416972376
 30
0.0
 11
403.2150961371774
 21
148.0948416972375
 31
0.0
  0
ARC
  5
630
330
1A
100
AcDbEntity
  8
SEIHIN
  6
CONTINUOUS
 62
     3
 48
16.0
100
AcDbCircle
 10
289.1590066448012
 20
153.1560033369833
 30
0.0
 40
3.499997028608007
100
AcDbArc
 50
103.1924424199634
 51
181.5123162998233
  0
ARC
  5
631
330
1A
100
AcDbEntity
  8
NOKITOI
  6
PHANTOM
 62
     8
 48
5.0
100
AcDbCircle
 10
398.1546582557308
 20
152.641685479763
 30
0.0
 40
3.999989731271038
100
AcDbArc
 50
358.2100163932691
 51
83.52268857986855
  0
ARC
  5
633
330
1A
100
AcDbEntity
  8
SEIHIN
  6
CONTINUOUS
 62
     3
 48
16.0
100
AcDbCircle
 10
288.9580088328731
 20
153.3357727590014
 30
0.0
 40
0.5000170449251222
100
AcDbArc
 50
164.0553202355078
 51
248.0407286048516
  0
LINE
  5
634
330
1A
100
AcDbEntity
  8
SEIHIN
  6
CONTINUOUS
 62
     3
 48
16.0
100
AcDbLine
 10
288.6602287530668
 20
148.7636319963211
 30
0.0
 11
293.2588287530668
 21
148.7636319963211
 31
0.0
  0
LINE
  5
635
330
1A
100
AcDbEntity
  8
NOKITOI
  6
PHANTOM
 62
     8
 48
5.0
100
AcDbLine
 10
394.0272961371774
 20
147.8416416972375
 30
0.0
 11
400.0681961371774
 21
147.8416416972375
 31
0.0
  0
LINE
  5
636
330
1A
100
AcDbEntity
  8
NOKITOI
  6
PHANTOM
 62
     8
 48
5.0
100
AcDbLine
 10
401.7158961371774
 20
146.6416416972376
 30
0.0
 11
395.5711961371775
 21
146.6416416972376
 31
0.0
  0
ARC
  5
637
330
1A
100
AcDbEntity
  8
NOKITOI
  6
PHANTOM
 62
     8
 48
5.0
100
AcDbCircle
 10
351.8562123636348
 20
150.6416561736077
 30
0.0
 40
43.00001447645168
100
AcDbArc
 50
270.0001116248559
 51
353.4750892928819
  0
ARC
  5
638
330
1A
100
AcDbEntity
  8
NOKITOI
  6
PHANTOM
 62
     8
 48
5.0
100
AcDbCircle
 10
351.8561900552096
 20
150.6416360725812
 30
0.0
 40
41.79999437547816
100
AcDbArc
 50
270.0001454078912
 51
355.525704787475
  0
LINE
  5
639
330
1A
100
AcDbEntity
  8
SEIHIN
  6
CONTINUOUS
 62
     3
 48
16.0
100
AcDbLine
 10
285.6602287530668
 20
153.0636319963212
 30
0.0
 11
285.6602287530668
 21
151.7636319963212
 31
0.0
  0
ARC
  5
63A
330
1A
100
AcDbEntity
  8
NOKITOI
  6
PHANTOM
 62
     8
 48
5.0
100
AcDbCircle
 10
401.7158601780265
 20
148.1416068430943
 30
0.0
 40
1.499965146287778
100
AcDbArc
 50
270.0013735703023
 51
358.2133719782232
  0
LINE
  5
63B
330
1A
100
AcDbEntity
  8
NOKITOI
  6
PHANTOM
 62
     8
 48
5.0
100
AcDbLine
 10
402.0671961371776
 20
149.7792416972376
 30
0.0
 11
402.1526961371774
 21
152.5167416972374
 31
0.0
  0
LINE
  5
63C
330
1A
100
AcDbEntity
  8
SEIHIN
  6
CONTINUOUS
 62
     3
 48
16.0
100
AcDbLine
 10
288.4772287530669
 20
153.4731319963212
 30
0.0
 11
285.6733287530668
 21
153.4731319963212
 31
0.0
  0
ARC
  5
63D
330
1A
100
AcDbEntity
  8
NOKITOI
  6
PHANTOM
 62
     8
 48
5.0
100
AcDbCircle
 10
400.0681825650392
 20
149.8416285421511
 30
0.0
 40
1.999986844959662
100
AcDbArc
 50
270.0003888156776
 51
358.2124468147636
  0
ARC
  5
63E
330
1A
100
AcDbEntity
  8
SEIHIN
  6
CONTINUOUS
 62
     3
 48
16.0
100
AcDbCircle
 10
288.6602287530669
 20
151.7636319963212
 30
0.0
 40
3.000000000000042
100
AcDbArc
 50
179.9999999999991
 51
269.9999999999992
  0
LINE
  5
63F
330
1A
100
AcDbEntity
  8
SEIHIN
  6
CONTINUOUS
 62
     3
 48
16.0
100
AcDbLine
 10
302.0653287530667
 20
144.5636319963212
 30
0.0
 11
358.2460287530667
 21
144.5636319963212
 31
0.0
  0
LINE
  5
640
330
1A
100
AcDbEntity
  8
SEIHIN
  6
CONTINUOUS
 62
     3
 48
16.0
100
AcDbLine
 10
302.0653287530667
 20
142.0636319963211
 30
0.0
 11
358.2460287530667
 21
142.0636319963211
 31
0.0
  0
LINE
  5
641
330
1A
100
AcDbEntity
  8
SEIHIN
  6
CONTINUOUS
 62
     3
 48
16.0
100
AcDbLine
 10
372.8153287530667
 20
150.5636319963212
 30
0.0
 11
336.0420287530668
 21
150.5636319963212
 31
0.0
  0
LINE
  5
642
330
1A
100
AcDbEntity
  8
SEIHIN
  6
CONTINUOUS
 62
     3
 48
16.0
100
AcDbLine
 10
337.9297287530667
 20
153.0636319963212
 30
0.0
 11
363.5703287530668
 21
153.0636319963212
 31
0.0
  0
LINE
  5
643
330
1A
100
AcDbEntity
  8
NOKITOI
  6
PHANTOM
 62
     8
 48
5.0
100
AcDbLine
 10
307.0267961371774
 20
107.6415416972375
 30
0.0
 11
351.8561961371775
 21
107.6416416972376
 31
0.0
  0
LINE
  5
644
330
1A
100
AcDbEntity
  8
NOKITOI
  6
PHANTOM
 62
     8
 48
5.0
100
AcDbLine
 10
351.8561961371775
 20
108.8416416972376
 30
0.0
 11
307.2765961371775
 21
108.8415416972375
 31
0.0
  0
LINE
  5
645
330
1A
100
AcDbEntity
  8
SEIHIN
  6
CONTINUOUS
 62
     3
 48
16.0
100
AcDbLine
 10
308.6602287530668
 20
145.0636319963212
 30
0.0
 11
327.4072287530668
 21
145.0636319963212
 31
0.0
  0
LINE
  5
646
330
1A
100
AcDbEntity
  8
SEIHIN
  6
CONTINUOUS
 62
     3
 48
16.0
100
AcDbLine
 10
304.6602287530668
 20
149.0636319963212
 30
0.0
 11
308.6602287530668
 21
145.0636319963212
 31
0.0
  0
ARC
  5
647
330
1A
100
AcDbEntity
  8
SEIHIN
  6
CONTINUOUS
 62
     3
 48
16.0
100
AcDbCircle
 10
302.0652938326038
 20
145.5636460148364
 30
0.0
 40
3.500014018689484
100
AcDbArc
 50
226.2554456348518
 51
270.0005716534663
  0
LINE
  5
648
330
1A
100
AcDbEntity
  8
SEIHIN
  6
CONTINUOUS
 62
     3
 48
16.0
100
AcDbLine
 10
293.9502287530668
 20
148.4860319963212
 30
0.0
 11
299.6452287530668
 21
143.0351319963211
 31
0.0
  0
ARC
  5
649
330
1A
100
AcDbEntity
  8
SEIHIN
  6
CONTINUOUS
 62
     3
 48
16.0
100
AcDbCircle
 10
297.886225339591
 20
149.5636234938935
 30
0.0
 40
1.000008502433529
100
AcDbArc
 50
89.99980442390627
 51
226.2517725997483
  0
LINE
  5
64A
330
1A
100
AcDbEntity
  8
SEIHIN
  6
CONTINUOUS
 62
     3
 48
16.0
100
AcDbLine
 10
292.3602287530668
 20
153.0636319963212
 30
0.0
 11
304.6602287530668
 21
153.0636319963212
 31
0.0
  0
ARC
  5
64B
330
1A
100
AcDbEntity
  8
SEIHIN
  6
CONTINUOUS
 62
     3
 48
16.0
100
AcDbCircle
 10
290.3603414773087
 20
156.8134326756061
 30
0.0
 40
4.249771082082489
100
AcDbArc
 50
248.0389576229238
 51
298.0724105654605
  0
ARC
  5
64C
330
1A
100
AcDbEntity
  8
NOKITOI
  6
PHANTOM
 62
     8
 48
5.0
100
AcDbCircle
 10
395.6442030241723
 20
153.6416351621521
 30
0.0
 40
0.499993464961963
100
AcDbArc
 50
183.0029638682573
 51
269.9992107982126
  0
ARC
  5
64D
330
1A
100
AcDbEntity
  8
NOKITOI
  6
PHANTOM
 62
     8
 48
5.0
100
AcDbCircle
 10
397.89326953658
 20
153.6416110203554
 30
0.0
 40
0.4999693238254178
100
AcDbArc
 50
270.0030483909652
 51
8.144496122946778
  0
LINE
  5
64E
330
1A
100
AcDbEntity
  8
NOKITOI
  6
PHANTOM
 62
     8
 48
5.0
100
AcDbLine
 10
395.6441961371775
 20
153.1416416972376
 30
0.0
 11
397.8932961371775
 21
153.1416416972376
 31
0.0
  0
ARC
  5
64F
330
1A
100
AcDbEntity
  8
NOKITOI
  6
PHANTOM
 62
     8
 48
5.0
100
AcDbCircle
 10
395.5712045613401
 20
145.6416492122941
 30
0.0
 40
0.9999924849789756
100
AcDbArc
 50
90.00048267259112
 51
173.4717353933255
  0
ARC
  5
650
330
1A
100
AcDbEntity
  8
NOKITOI
  6
PHANTOM
 62
     8
 48
5.0
100
AcDbCircle
 10
394.027283567469
 20
147.3416300725078
 30
0.0
 40
0.5000116248877111
100
AcDbArc
 50
89.99855965101662
 51
175.5251531916571
  0
ARC
  5
651
330
1A
100
AcDbEntity
  8
SEIHIN
  6
CONTINUOUS
 62
     3
 48
16.0
100
AcDbCircle
 10
293.2587638083471
 20
147.7636580670009
 30
0.0
 40
0.9999739314292332
100
AcDbArc
 50
46.2523862130428
 51
89.99627884464683
  0
ARC
  5
652
330
1A
100
AcDbEntity
  8
SEIHIN
  6
CONTINUOUS
 62
     3
 48
16.0
100
AcDbCircle
 10
302.0653075748657
 20
145.5636404987489
 30
0.0
 40
1.000008502651889
100
AcDbArc
 50
226.2531815870639
 51
270.0012134112218
  0
LINE
  5
653
330
1A
100
AcDbEntity
  8
SEIHIN
  6
CONTINUOUS
 62
     3
 48
16.0
100
AcDbLine
 10
301.3739287530668
 20
144.8412319963212
 30
0.0
 11
297.1947287530669
 21
148.8412319963212
 31
0.0
  0
LINE
  5
654
330
1A
100
AcDbEntity
  8
SEIHIN
  6
CONTINUOUS
 62
     3
 48
16.0
100
AcDbLine
 10
300.7601287530667
 20
150.5637319963212
 30
0.0
 11
300.7601287530667
 21
145.4286319963212
 31
0.0
  0
LINE
  5
655
330
1A
100
AcDbEntity
  8
SEIHIN
  6
CONTINUOUS
 62
     3
 48
16.0
100
AcDbLine
 10
304.6602287530668
 20
150.5636319963212
 30
0.0
 11
297.8862287530668
 21
150.5636319963212
 31
0.0
  0
ARC
  5
656
330
1A
100
AcDbEntity
  8
SEIHIN
  6
CONTINUOUS
 62
     3
 48
16.0
100
AcDbCircle
 10
314.6603019071577
 20
149.3105319961093
 30
0.0
 40
9.746968980505759
100
AcDbArc
 50
235.6473109321941
 51
304.3516473263601
  0
LINE
  5
657
330
1A
100
AcDbEntity
  8
SEIHIN
  6
CONTINUOUS
 62
     3
 48
16.0
100
AcDbLine
 10
320.1602287530667
 20
141.2635319963212
 30
0.0
 11
309.1602287530668
 21
141.2636319963211
 31
0.0
  0
LINE
  5
658
330
1A
100
AcDbEntity
  8
SEIHIN
  6
CONTINUOUS
 62
     3
 48
16.0
100
AcDbLine
 10
309.1602287530668
 20
141.2636319963211
 30
0.0
 11
309.1602287530668
 21
142.0635319963212
 31
0.0
  0
LINE
  5
659
330
1A
100
AcDbEntity
  8
SEIHIN
  6
CONTINUOUS
 62
     3
 48
16.0
100
AcDbLine
 10
320.1602287530667
 20
141.2635319963212
 30
0.0
 11
320.1602287530667
 21
142.0633319963212
 31
0.0
  0
ARC
  5
65A
330
1A
100
AcDbEntity
  8
SEIHIN
  6
CONTINUOUS
 62
     3
 48
16.0
100
AcDbCircle
 10
327.4072364130779
 20
154.0636358107639
 30
0.0
 40
9.000003814445937
100
AcDbArc
 50
269.9999512348754
 51
322.9436511488666
  0
ARC
  5
65B
330
1A
100
AcDbEntity
  8
NOKITOI
  6
PHANTOM
 62
     8
 48
5.0
100
AcDbCircle
 10
307.0268030697547
 20
108.6415392222314
 30
0.0
 40
0.9999975250179316
100
AcDbArc
 50
230.7053583247701
 51
269.9996027915957
  0
LINE
  5
65C
330
1A
100
AcDbEntity
  8
NOKITOI
  6
PHANTOM
 62
     8
 48
5.0
100
AcDbLine
 10
311.0267961371774
 20
107.6415416972375
 30
0.0
 11
331.1846961371774
 21
107.6415416972375
 31
0.0
  0
ARC
  5
65D
330
1A
100
AcDbEntity
  8
SEIHIN
  6
CONTINUOUS
 62
     3
 48
16.0
100
AcDbCircle
 10
386.9322418640372
 20
150.4136357101178
 30
0.0
 40
0.6500056036790825
100
AcDbArc
 50
15.81947672445442
 51
195.8109957391704
  0
LINE
  5
65E
330
1A
100
AcDbEntity
  8
SEIHIN
  6
CONTINUOUS
 62
     3
 48
16.0
100
AcDbLine
 10
371.1603287530668
 20
139.5636319963212
 30
0.0
 11
388.6596287530668
 21
144.2861319963212
 31
0.0
  0
LINE
  5
65F
330
1A
100
AcDbEntity
  8
NOKITOI
  6
PHANTOM
 62
     8
 48
5.0
100
AcDbLine
 10
295.9903961371774
 20
116.3792416972376
 30
0.0
 11
306.3934961371774
 21
107.8675416972376
 31
0.0
  0
LINE
  5
660
330
1A
100
AcDbEntity
  8
NOKITOI
  6
PHANTOM
 62
     8
 48
5.0
100
AcDbLine
 10
296.9746961371774
 20
117.1243416972375
 30
0.0
 11
306.9599961371774
 21
108.9545416972375
 31
0.0
  0
LINE
  5
661
330
1A
100
AcDbEntity
  8
NOKITOI
  6
PHANTOM
 62
     8
 48
5.0
100
AcDbLine
 10
311.2765961371774
 20
108.8415416972375
 30
0.0
 11
331.1846961371774
 21
108.8415416972375
 31
0.0
  0
ARC
  5
662
330
1A
100
AcDbEntity
  8
NOKITOI
  6
PHANTOM
 62
     8
 48
5.0
100
AcDbCircle
 10
307.2765897494289
 20
109.3415439772272
 30
0.0
 40
0.5000022800304047
100
AcDbArc
 50
230.7145501403941
 51
270.0007319787213
  0
LINE
  5
663
330
1A
100
AcDbEntity
  8
SEIHIN
  6
CONTINUOUS
 62
     3
 48
16.0
100
AcDbLine
 10
373.6134287530668
 20
148.9610319963212
 30
0.0
 11
368.7052287530669
 21
142.4610319963212
 31
0.0
  0
LINE
  5
664
330
1A
100
AcDbEntity
  8
SEIHIN
  6
CONTINUOUS
 62
     3
 48
16.0
100
AcDbLine
 10
371.1603287530668
 20
139.5636319963212
 30
0.0
 11
362.6100287530669
 21
139.5636319963212
 31
0.0
  0
LINE
  5
665
330
1A
100
AcDbEntity
  8
SEIHIN
  6
CONTINUOUS
 62
     3
 48
16.0
100
AcDbLine
 10
361.9029287530667
 20
142.3565319963212
 30
0.0
 11
360.7209287530667
 21
143.5385319963212
 31
0.0
  0
ARC
  5
666
330
1A
100
AcDbEntity
  8
SEIHIN
  6
CONTINUOUS
 62
     3
 48
16.0
100
AcDbCircle
 10
362.6100403292764
 20
143.0636272012984
 30
0.0
 40
0.9999952050442001
100
AcDbArc
 50
224.9993367288675
 51
269.9993367288687
  0
ARC
  5
667
330
1A
100
AcDbEntity
  8
SEIHIN
  6
CONTINUOUS
 62
     3
 48
16.0
100
AcDbCircle
 10
362.609983914461
 20
143.0636505690799
 30
0.0
 40
3.500018573045932
100
AcDbArc
 50
225.0007340140687
 51
270.000734014069
  0
LINE
  5
668
330
1A
100
AcDbEntity
  8
SEIHIN
  6
CONTINUOUS
 62
     3
 48
16.0
100
AcDbLine
 10
360.1351287530667
 20
140.5887319963212
 30
0.0
 11
358.9531287530669
 21
141.7707319963212
 31
0.0
  0
ARC
  5
669
330
1A
100
AcDbEntity
  8
SEIHIN
  6
CONTINUOUS
 62
     3
 48
16.0
100
AcDbCircle
 10
358.2460171768573
 20
141.0636367913441
 30
0.0
 40
0.9999952050441148
100
AcDbArc
 50
44.9993367288794
 51
89.99933672888053
  0
LINE
  5
66A
330
1A
100
AcDbEntity
  8
SEIHIN
  6
CONTINUOUS
 62
     3
 48
16.0
100
AcDbLine
 10
362.6100287530669
 20
142.0636319963211
 30
0.0
 11
367.9072287530668
 21
142.0636319963211
 31
0.0
  0
ARC
  5
66B
330
1A
100
AcDbEntity
  8
SEIHIN
  6
CONTINUOUS
 62
     3
 48
16.0
100
AcDbCircle
 10
367.9071939900506
 20
143.0636146860216
 30
0.0
 40
0.9999826903046468
100
AcDbArc
 50
270.0019918085928
 51
322.9441571624571
  0
ARC
  5
66C
330
1A
100
AcDbEntity
  8
SEIHIN
  6
CONTINUOUS
 62
     3
 48
16.0
100
AcDbCircle
 10
358.2460735916724
 20
141.0636134235626
 30
0.0
 40
3.500018573045792
100
AcDbArc
 50
45.0007340140658
 51
90.00073401406583
  0
LINE
  5
66D
330
1A
100
AcDbEntity
  8
SEIHIN
  6
CONTINUOUS
 62
     3
 48
16.0
100
AcDbLine
 10
355.5603287530668
 20
150.5636319963212
 30
0.0
 11
355.5603287530668
 21
144.5635319963212
 31
0.0
  0
ARC
  5
66E
330
1A
100
AcDbEntity
  8
SEIHIN
  6
CONTINUOUS
 62
     3
 48
16.0
100
AcDbCircle
 10
373.6188179898277
 20
143.1600485724586
 30
0.0
 40
0.9999468009350948
100
AcDbArc
 50
142.9425516661896
 51
283.0512651047659
  0
LINE
  5
66F
330
1A
100
AcDbEntity
  8
SEIHIN
  6
CONTINUOUS
 62
     3
 48
16.0
100
AcDbLine
 10
373.8446287530669
 20
142.1859319963212
 30
0.0
 11
384.8678287530668
 21
144.7411319963212
 31
0.0
  0
LINE
  5
670
330
1A
100
AcDbEntity
  8
SEIHIN
  6
CONTINUOUS
 62
     3
 48
16.0
100
AcDbLine
 10
371.2010287530667
 20
153.0636319963212
 30
0.0
 11
376.2133287530669
 21
153.0636319963212
 31
0.0
  0
ARC
  5
671
330
1A
100
AcDbEntity
  8
SEIHIN
  6
CONTINUOUS
 62
     3
 48
16.0
100
AcDbCircle
 10
376.2133741194913
 20
154.0636545883108
 30
0.0
 40
1.000022593018631
100
AcDbArc
 50
269.9974007540733
 51
322.9430187151463
  0
ARC
  5
672
330
1A
100
AcDbEntity
  8
SEIHIN
  6
CONTINUOUS
 62
     3
 48
16.0
100
AcDbCircle
 10
372.8153400036337
 20
149.5636094043315
 30
0.0
 40
1.000022592052962
100
AcDbArc
 50
322.946262556517
 51
90.00064459544265
  0
ARC
  5
673
330
1A
100
AcDbEntity
  8
SEIHIN
  6
CONTINUOUS
 62
     3
 48
16.0
100
AcDbCircle
 10
386.7159097433381
 20
148.0585055857051
 30
0.0
 40
0.1999955118486578
100
AcDbArc
 50
272.699406605467
 51
15.82131391095824
  0
LINE
  5
674
330
1A
100
AcDbEntity
  8
SEIHIN
  6
CONTINUOUS
 62
     3
 48
16.0
100
AcDbLine
 10
386.3067287530667
 20
150.2364319963213
 30
0.0
 11
386.9084287530667
 21
148.1130319963212
 31
0.0
  0
ARC
  5
675
330
1A
100
AcDbEntity
  8
SEIHIN
  6
CONTINUOUS
 62
     3
 48
16.0
100
AcDbCircle
 10
386.8188183168013
 20
145.8609147846324
 30
0.0
 40
2.000003477458741
100
AcDbArc
 50
92.67925038682539
 51
204.8592541446019
  0
ARC
  5
676
330
1A
100
AcDbEntity
  8
SEIHIN
  6
CONTINUOUS
 62
     3
 48
16.0
100
AcDbCircle
 10
384.8226069636442
 20
144.9359874280111
 30
0.0
 40
0.2000341208334694
100
AcDbArc
 50
283.0658282482682
 51
24.8441313454634
  0
LINE
  5
677
330
1A
100
AcDbEntity
  8
NOKITOI
  6
PHANTOM
 62
     8
 48
5.0
100
AcDbLine
 10
292.7597961371775
 20
145.7411416972375
 30
0.0
 11
295.6285961371775
 21
117.0537416972376
 31
0.0
  0
LINE
  5
678
330
1A
100
AcDbEntity
  8
NOKITOI
  6
PHANTOM
 62
     8
 48
5.0
100
AcDbLine
 10
293.8007961371776
 20
147.3914416972376
 30
0.0
 11
296.7937961371774
 21
117.4616416972375
 31
0.0
  0
ARC
  5
679
330
1A
100
AcDbEntity
  8
NOKITOI
  6
PHANTOM
 62
     8
 48
5.0
100
AcDbCircle
 10
296.6236187100466
 20
117.1531996255649
 30
0.0
 40
0.9999908507640039
100
AcDbArc
 50
185.7137670522468
 51
230.7112907769303
  0
ARC
  5
67A
330
1A
100
AcDbEntity
  8
NOKITOI
  6
PHANTOM
 62
     8
 48
5.0
100
AcDbCircle
 10
297.2913135630556
 20
117.5113092108496
 30
0.0
 40
0.4999904508696396
100
AcDbArc
 50
185.7009889250754
 51
230.7099153622041
  0
ARC
  5
67B
330
1A
100
AcDbEntity
  8
SEIHIN
  6
CONTINUOUS
 62
     3
 48
16.0
100
AcDbCircle
 10
403.6603484909564
 20
143.373545617144
 30
0.0
 40
0.9999802622031834
100
AcDbArc
 50
249.2171738629508
 51
359.9992195689385
  0
LINE
  5
67C
330
1A
100
AcDbEntity
  8
SEIHIN
  6
CONTINUOUS
 62
     3
 48
16.0
100
AcDbLine
 10
403.6581287530668
 20
136.3295319963211
 30
0.0
 11
395.1592287530668
 21
143.9466319963211
 31
0.0
  0
LINE
  5
67D
330
1A
100
AcDbEntity
  8
SEIHIN
  6
CONTINUOUS
 62
     3
 48
16.0
100
AcDbLine
 10
396.6925287530667
 20
146.4661319963212
 30
0.0
 11
403.3055287530668
 21
142.4386319963212
 31
0.0
  0
ARC
  5
67E
330
1A
100
AcDbEntity
  8
NOKITOI
  6
PHANTOM
 62
     8
 48
5.0
100
AcDbCircle
 10
291.6953920157705
 20
153.6416377872071
 30
0.0
 40
0.4999960899864752
100
AcDbArc
 50
270.0004722821405
 51
356.9852756208263
  0
ARC
  5
67F
330
1A
100
AcDbEntity
  8
SEIHIN
  6
CONTINUOUS
 62
     3
 48
16.0
100
AcDbCircle
 10
396.1603081053648
 20
145.0635980692438
 30
0.0
 40
1.499991101149739
100
AcDbArc
 50
69.22192559862861
 51
228.1289137274091
  0
ARC
  5
680
330
1A
100
AcDbEntity
  8
NOKITOI
  6
PHANTOM
 62
     8
 48
5.0
100
AcDbCircle
 10
291.7647754873364
 20
145.6416603850868
 30
0.0
 40
0.9999813123640345
100
AcDbArc
 50
5.709409966648967
 51
89.99881682915043
  0
LINE
  5
681
330
1A
100
AcDbEntity
  8
NOKITOI
  6
PHANTOM
 62
     8
 48
5.0
100
AcDbLine
 10
293.3032961371775
 20
147.8416416972375
 30
0.0
 11
287.2713961371774
 21
147.8416416972375
 31
0.0
  0
ARC
  5
682
330
1A
100
AcDbEntity
  8
NOKITOI
  6
PHANTOM
 62
     8
 48
5.0
100
AcDbCircle
 10
293.3032830661727
 20
147.3416535275175
 30
0.0
 40
0.499988169890889
100
AcDbArc
 50
5.703393862284335
 51
89.99850213773372
  0
ARC
  5
683
330
1A
100
AcDbEntity
  8
SEIHIN
  6
CONTINUOUS
 62
     3
 48
16.0
100
AcDbCircle
 10
388.490357073319
 20
144.9136819691471
 30
0.0
 40
0.6499783611463138
100
AcDbArc
 50
285.0953788674784
 51
15.81591890613727
  0
LINE
  5
684
330
1A
100
AcDbEntity
  8
SEIHIN
  6
CONTINUOUS
 62
     3
 48
16.0
100
AcDbLine
 10
387.5575287530669
 20
150.5908319963212
 30
0.0
 11
389.1156287530667
 21
145.0908319963211
 31
0.0
  0
ARC
  5
685
330
1A
100
AcDbEntity
  8
NOKITOI
  6
PHANTOM
 62
     8
 48
5.0
100
AcDbCircle
 10
285.6236789239994
 20
148.1416583803854
 30
0.0
 40
1.500016683246579
100
AcDbArc
 50
181.7923576755889
 51
270.0006574876651
  0
LINE
  5
686
330
1A
100
AcDbEntity
  8
NOKITOI
  6
PHANTOM
 62
     8
 48
5.0
100
AcDbLine
 10
285.2722961371774
 20
149.7790416972376
 30
0.0
 11
285.1867961371775
 21
152.5166416972375
 31
0.0
  0
ARC
  5
687
330
1A
100
AcDbEntity
  8
NOKITOI
  6
PHANTOM
 62
     8
 48
5.0
100
AcDbCircle
 10
289.4462859507413
 20
153.6416534419617
 30
0.0
 40
0.5000117448278309
100
AcDbArc
 50
171.8726853912841
 51
270.0011672521981
  0
LINE
  5
688
330
1A
100
AcDbEntity
  8
NOKITOI
  6
PHANTOM
 62
     8
 48
5.0
100
AcDbLine
 10
291.6953961371774
 20
153.1416416972376
 30
0.0
 11
289.4462961371776
 21
153.1416416972376
 31
0.0
  0
ARC
  5
689
330
1A
100
AcDbEntity
  8
NOKITOI
  6
PHANTOM
 62
     8
 48
5.0
100
AcDbCircle
 10
287.2713581493531
 20
149.8415785178097
 30
0.0
 40
2.000036820932882
100
AcDbArc
 50
181.7889408725803
 51
270.001088250966
  0
LINE
  5
68A
330
1A
100
AcDbEntity
  8
NOKITOI
  6
PHANTOM
 62
     8
 48
5.0
100
AcDbLine
 10
285.6236961371776
 20
146.6416416972376
 30
0.0
 11
291.7647961371774
 21
146.6416416972376
 31
0.0
  0
ARC
  5
68B
330
1A
100
AcDbEntity
  8
SEIHIN
  6
CONTINUOUS
 62
     3
 48
16.0
100
AcDbCircle
 10
405.6602947451191
 20
138.5636168080831
 30
0.0
 40
3.000034007986279
100
AcDbArc
 50
228.1321783307235
 51
0.0002900706921178
  0
ARC
  5
68C
330
1A
100
AcDbEntity
  8
NOKITOI
  6
PHANTOM
 62
     8
 48
5.0
100
AcDbCircle
 10
398.5494819187621
 20
156.1193270629366
 30
0.0
 40
0.5000073448410256
100
AcDbArc
 50
83.5217071700316
 51
188.1270521358757
  0
LINE
  5
68D
330
1A
100
AcDbEntity
  8
NOKITOI
  6
PHANTOM
 62
     8
 48
5.0
100
AcDbLine
 10
399.6334961371774
 20
158.9416416972376
 30
0.0
 11
396.6969961371775
 21
158.9416416972376
 31
0.0
  0
ARC
  5
68E
330
1A
100
AcDbEntity
  8
SEIHIN
  6
CONTINUOUS
 62
     3
 48
16.0
100
AcDbCircle
 10
288.6974000019839
 20
156.0636701092263
 30
0.0
 40
0.4999618879215381
100
AcDbArc
 50
344.0560320448722
 51
89.99670511743724
  0
LINE
  5
68F
330
1A
100
AcDbEntity
  8
NOKITOI
  6
PHANTOM
 62
     8
 48
5.0
100
AcDbLine
 10
401.6062961371775
 20
162.6416416972375
 30
0.0
 11
398.2796961371774
 21
162.6416416972375
 31
0.0
  0
ARC
  5
690
330
1A
100
AcDbEntity
  8
NOKITOI
  6
PHANTOM
 62
     8
 48
5.0
100
AcDbCircle
 10
398.1545759245084
 20
152.6417004256176
 30
0.0
 40
5.2000412730095
100
AcDbArc
 50
37.92420092094385
 51
89.99867545693838
  0
LINE
  5
691
330
1A
100
AcDbEntity
  8
NOKITOI
  6
PHANTOM
 62
     8
 48
5.0
100
AcDbLine
 10
399.1334961371774
 20
161.4416416972376
 30
0.0
 11
399.6334961371774
 21
158.9416416972376
 31
0.0
  0
LINE
  5
692
330
1A
100
AcDbEntity
  8
SEIHIN
  6
CONTINUOUS
 62
     3
 48
16.0
100
AcDbLine
 10
288.3602287530667
 20
156.5636319963212
 30
0.0
 11
288.6974287530668
 21
156.5636319963212
 31
0.0
  0
LINE
  5
693
330
1A
100
AcDbEntity
  8
NOKITOI
  6
PHANTOM
 62
     8
 48
5.0
100
AcDbLine
 10
402.4058961371775
 20
160.6166416972375
 30
0.0
 11
402.2564961371775
 21
155.8377416972376
 31
0.0
  0
ARC
  5
694
330
1A
100
AcDbEntity
  8
NOKITOI
  6
PHANTOM
 62
     8
 48
5.0
100
AcDbCircle
 10
401.6062916423797
 20
160.6416463347645
 30
0.0
 40
0.7999953624857498
100
AcDbArc
 50
358.20887265358
 51
89.99967808194661
  0
ARC
  5
695
330
1A
100
AcDbEntity
  8
NOKITOI
  6
PHANTOM
 62
     8
 48
5.0
100
AcDbCircle
 10
401.6062833863272
 20
160.641654852324
 30
0.0
 40
1.999986844954076
100
AcDbArc
 50
358.21169271173
 51
89.99963471264475
  0
LINE
  5
696
330
1A
100
AcDbEntity
  8
NOKITOI
  6
PHANTOM
 62
     8
 48
5.0
100
AcDbLine
 10
401.6062961371775
 20
161.4416416972376
 30
0.0
 11
399.1334961371774
 21
161.4416416972376
 31
0.0
  0
ARC
  5
697
330
1A
100
AcDbEntity
  8
SEIHIN
  6
CONTINUOUS
 62
     3
 48
16.0
100
AcDbCircle
 10
357.6349436625068
 20
152.6082394206064
 30
0.0
 40
15.99999257594113
100
AcDbArc
 50
89.99969529173577
 51
142.9432277587693
  0
ARC
  5
698
330
1A
100
AcDbEntity
  8
SEIHIN
  6
CONTINUOUS
 62
     3
 48
16.0
100
AcDbCircle
 10
358.0271275095337
 20
153.1276313078198
 30
0.0
 40
28.99995306728966
100
AcDbArc
 50
94.99997284360622
 51
142.9435915196733
  0
LINE
  5
69A
330
1A
100
AcDbEntity
  8
SEIHIN
  6
CONTINUOUS
 62
     3
 48
16.0
100
AcDbLine
 10
321.1812287530668
 20
169.1756319963212
 30
0.0
 11
322.9335287530667
 21
168.7060319963212
 31
0.0
  0
LINE
  5
69B
330
1A
100
AcDbEntity
  8
SEIHIN
  6
CONTINUOUS
 62
     3
 48
16.0
100
AcDbLine
 10
322.6747287530667
 20
167.7401319963212
 30
0.0
 11
320.9223287530669
 21
168.2096319963212
 31
0.0
  0
LINE
  5
69C
330
1A
100
AcDbEntity
  8
SEIHIN
  6
CONTINUOUS
 62
     3
 48
16.0
100
AcDbLine
 10
321.6724287530667
 20
157.0636319963212
 30
0.0
 11
304.6602287530668
 21
157.0636319963212
 31
0.0
  0
ARC
  5
69D
330
1A
100
AcDbEntity
  8
SEIHIN
  6
CONTINUOUS
 62
     3
 48
16.0
100
AcDbCircle
 10
313.5243152979321
 20
168.024312002007
 30
0.0
 40
9.000003660861509
100
AcDbArc
 50
317.1226808124497
 51
335.000603367357
  0
ARC
  5
69E
330
1A
100
AcDbEntity
  8
SEIHIN
  6
CONTINUOUS
 62
     3
 48
16.0
100
AcDbCircle
 10
313.5244094128232
 20
168.0244269465936
 30
0.0
 40
9.999994428414913
100
AcDbArc
 50
304.3038978962826
 51
334.9992749556037
  0
ARC
  5
69F
330
1A
100
AcDbEntity
  8
SEIHIN
  6
CONTINUOUS
 62
     3
 48
16.0
100
AcDbCircle
 10
306.7751921683024
 20
167.2571535303731
 30
0.0
 40
1.499999096232611
100
AcDbArc
 50
105.0013872902924
 51
204.9997691832177
  0
LINE
  5
6A0
330
1A
100
AcDbEntity
  8
NOKITOI
  6
PHANTOM
 62
     8
 48
5.0
100
AcDbLine
 10
396.3082961371774
 20
154.3416416972376
 30
0.0
 11
396.1270961371775
 21
157.7831416972376
 31
0.0
  0
LINE
  5
6A1
330
1A
100
AcDbEntity
  8
NOKITOI
  6
PHANTOM
 62
     8
 48
5.0
100
AcDbLine
 10
397.0861961371774
 20
154.3416416972376
 30
0.0
 11
396.6820961371776
 21
157.1700416972375
 31
0.0
  0
LINE
  5
6A2
330
1A
100
AcDbEntity
  8
NOKITOI
  6
PHANTOM
 62
     8
 48
5.0
100
AcDbLine
 10
396.3082961371774
 20
154.3416416972376
 30
0.0
 11
397.0861961371774
 21
154.3416416972376
 31
0.0
  0
LINE
  5
6A3
330
1A
100
AcDbEntity
  8
NOKITOI
  6
PHANTOM
 62
     8
 48
5.0
100
AcDbLine
 10
396.6820961371776
 20
157.1700416972375
 30
0.0
 11
396.1270961371775
 21
157.7831416972376
 31
0.0
  0
LINE
  5
6A4
330
1A
100
AcDbEntity
  8
NOKITOI
  6
PHANTOM
 62
     8
 48
5.0
100
AcDbLine
 10
397.6927961371774
 20
157.8416416972375
 30
0.0
 11
398.1546961371775
 21
157.8416416972375
 31
0.0
  0
LINE
  5
6A5
330
1A
100
AcDbEntity
  8
NOKITOI
  6
PHANTOM
 62
     8
 48
5.0
100
AcDbLine
 10
397.6927961371774
 20
157.8416416972375
 30
0.0
 11
396.6969961371775
 21
158.9416416972376
 31
0.0
  0
ARC
  5
6A6
330
1A
100
AcDbEntity
  8
NOKITOI
  6
PHANTOM
 62
     8
 48
5.0
100
AcDbCircle
 10
395.3284023383353
 20
159.6416482323228
 30
0.0
 40
0.4999934649531607
100
AcDbArc
 50
90.00071060961996
 51
183.0044636796616
  0
ARC
  5
6A7
330
1A
100
AcDbEntity
  8
NOKITOI
  6
PHANTOM
 62
     8
 48
5.0
100
AcDbCircle
 10
397.5599033917331
 20
160.6416505470809
 30
0.0
 40
0.5000088498959383
100
AcDbArc
 50
269.9991687038565
 51
11.31359566951149
  0
LINE
  5
6A8
330
1A
100
AcDbEntity
  8
NOKITOI
  6
PHANTOM
 62
     8
 48
5.0
100
AcDbLine
 10
398.0501961371773
 20
160.7397416972375
 30
0.0
 11
397.7893961371776
 21
162.0436416972375
 31
0.0
  0
LINE
  5
6A9
330
1A
100
AcDbEntity
  8
NOKITOI
  6
PHANTOM
 62
     8
 48
5.0
100
AcDbLine
 10
395.3283961371776
 20
160.1416416972376
 30
0.0
 11
397.5598961371774
 21
160.1416416972376
 31
0.0
  0
ARC
  5
6AA
330
1A
100
AcDbEntity
  8
NOKITOI
  6
PHANTOM
 62
     8
 48
5.0
100
AcDbCircle
 10
398.2796969201856
 20
162.1416426522393
 30
0.0
 40
0.4999990449987349
100
AcDbArc
 50
90.00008972630549
 51
191.3032801984551
  0
LINE
  5
6AB
330
1A
100
AcDbEntity
  8
SEIHIN
  6
CONTINUOUS
 62
     3
 48
16.0
100
AcDbLine
 10
317.9102287530668
 20
162.7638319963211
 30
0.0
 11
319.3440287530667
 21
168.1149319963212
 31
0.0
  0
LINE
  5
6AC
330
1A
100
AcDbEntity
  8
SEIHIN
  6
CONTINUOUS
 62
     3
 48
16.0
100
AcDbLine
 10
309.0104287530668
 20
167.8561319963211
 30
0.0
 11
310.3120287530669
 21
162.9985319963212
 31
0.0
  0
LINE
  5
6AD
330
1A
100
AcDbEntity
  8
SEIHIN
  6
CONTINUOUS
 62
     3
 48
16.0
100
AcDbLine
 10
307.6393287530668
 20
164.2208319963211
 30
0.0
 11
306.3220287530667
 21
167.0459319963212
 31
0.0
  0
LINE
  5
6AE
330
1A
100
AcDbEntity
  8
SEIHIN
  6
CONTINUOUS
 62
     3
 48
16.0
100
AcDbLine
 10
305.4157287530669
 20
166.6232319963213
 30
0.0
 11
306.7330287530669
 21
163.7982319963212
 31
0.0
  0
LINE
  5
6AF
330
1A
100
AcDbEntity
  8
SEIHIN
  6
CONTINUOUS
 62
     3
 48
16.0
100
AcDbLine
 10
311.4102287530668
 20
162.7638319963211
 30
0.0
 11
309.9764287530669
 21
168.1149319963212
 31
0.0
  0
LINE
  5
6B0
330
1A
100
AcDbEntity
  8
SEIHIN
  6
CONTINUOUS
 62
     3
 48
16.0
100
AcDbLine
 10
320.3099287530668
 20
167.8561319963211
 30
0.0
 11
319.0084287530668
 21
162.9985319963212
 31
0.0
  0
LINE
  5
6B1
330
1A
100
AcDbEntity
  8
SEIHIN
  6
CONTINUOUS
 62
     3
 48
16.0
100
AcDbLine
 10
314.6602287530667
 20
162.7638319963211
 30
0.0
 11
311.4102287530668
 21
162.7638319963211
 31
0.0
  0
LINE
  5
6B2
330
1A
100
AcDbEntity
  8
SEIHIN
  6
CONTINUOUS
 62
     3
 48
16.0
100
AcDbLine
 10
314.6602287530667
 20
164.0638319963211
 30
0.0
 11
312.1602287530667
 21
164.0638319963211
 31
0.0
  0
LINE
  5
6B3
330
1A
100
AcDbEntity
  8
SEIHIN
  6
CONTINUOUS
 62
     3
 48
16.0
100
AcDbLine
 10
309.1602287530668
 20
158.5638319963212
 30
0.0
 11
314.6602287530667
 21
158.5638319963212
 31
0.0
  0
LINE
  5
6B4
330
1A
100
AcDbEntity
  8
SEIHIN
  6
CONTINUOUS
 62
     3
 48
16.0
100
AcDbLine
 10
310.1602287530667
 20
159.7638319963212
 30
0.0
 11
314.6602287530667
 21
159.7638319963212
 31
0.0
  0
LINE
  5
6B5
330
1A
100
AcDbEntity
  8
SEIHIN
  6
CONTINUOUS
 62
     3
 48
16.0
100
AcDbLine
 10
312.1602287530667
 20
164.0638319963211
 30
0.0
 11
312.1602287530667
 21
162.7638319963211
 31
0.0
  0
ARC
  5
6B6
330
1A
100
AcDbEntity
  8
SEIHIN
  6
CONTINUOUS
 62
     3
 48
16.0
100
AcDbCircle
 10
309.8290266420165
 20
162.869100290311
 30
0.0
 40
0.5000436038985453
100
AcDbArc
 50
337.3871071408895
 51
15.00129275637822
  0
ARC
  5
6B7
330
1A
100
AcDbEntity
  8
SEIHIN
  6
CONTINUOUS
 62
     3
 48
16.0
100
AcDbCircle
 10
309.5672690433145
 20
162.2407391949345
 30
0.0
 40
0.5000194239278592
100
AcDbArc
 50
222.8739674883015
 51
337.3811237218813
  0
LINE
  5
6B8
330
1A
100
AcDbEntity
  8
SEIHIN
  6
CONTINUOUS
 62
     3
 48
16.0
100
AcDbLine
 10
309.1602287530668
 20
158.5638319963212
 30
0.0
 11
309.1602287530668
 21
157.0638319963212
 31
0.0
  0
LINE
  5
6B9
330
1A
100
AcDbEntity
  8
SEIHIN
  6
CONTINUOUS
 62
     3
 48
16.0
100
AcDbLine
 10
310.1602287530667
 20
159.7638319963212
 30
0.0
 11
310.6602287530668
 21
158.5638319963212
 31
0.0
  0
LINE
  5
6BA
330
1A
100
AcDbEntity
  8
SEIHIN
  6
CONTINUOUS
 62
     3
 48
16.0
100
AcDbLine
 10
310.1602287530667
 20
159.7638319963212
 30
0.0
 11
311.4102287530668
 21
162.7638319963211
 31
0.0
  0
ARC
  5
6BB
330
1A
100
AcDbEntity
  8
SEIHIN
  6
CONTINUOUS
 62
     3
 48
16.0
100
AcDbCircle
 10
315.7960997819504
 20
168.024366100572
 30
0.0
 40
9.999973297049335
100
AcDbArc
 50
204.9997646482699
 51
235.6956609843188
  0
ARC
  5
6BC
330
1A
100
AcDbEntity
  8
SEIHIN
  6
CONTINUOUS
 62
     3
 48
16.0
100
AcDbCircle
 10
315.7960199636079
 20
168.0244936587183
 30
0.0
 40
8.999969641399196
100
AcDbArc
 50
205.0007736415988
 51
222.8782296717042
  0
LINE
  5
6BD
330
1A
100
AcDbEntity
  8
SEIHIN
  6
CONTINUOUS
 62
     3
 48
16.0
100
AcDbLine
 10
310.2906287530668
 20
162.6768319963212
 30
0.0
 11
310.0288287530668
 21
162.0484319963212
 31
0.0
  0
ARC
  5
6BE
330
1A
100
AcDbEntity
  8
SEIHIN
  6
CONTINUOUS
 62
     3
 48
16.0
100
AcDbCircle
 10
319.4913313055605
 20
162.8690936675159
 30
0.0
 40
0.4999491535834088
100
AcDbArc
 50
164.9950208123251
 51
202.6165792903857
  0
LINE
  5
6BF
330
1A
100
AcDbEntity
  8
SEIHIN
  6
CONTINUOUS
 62
     3
 48
16.0
100
AcDbLine
 10
314.6602287530667
 20
162.7638319963211
 30
0.0
 11
317.9102287530668
 21
162.7638319963211
 31
0.0
  0
LINE
  5
6C0
330
1A
100
AcDbEntity
  8
SEIHIN
  6
CONTINUOUS
 62
     3
 48
16.0
100
AcDbLine
 10
314.6602287530667
 20
164.0638319963211
 30
0.0
 11
317.1602287530667
 21
164.0638319963211
 31
0.0
  0
LINE
  5
6C1
330
1A
100
AcDbEntity
  8
SEIHIN
  6
CONTINUOUS
 62
     3
 48
16.0
100
AcDbLine
 10
317.1602287530667
 20
164.0638319963211
 30
0.0
 11
317.1602287530667
 21
162.7638319963211
 31
0.0
  0
LINE
  5
6C2
330
1A
100
AcDbEntity
  8
SEIHIN
  6
CONTINUOUS
 62
     3
 48
16.0
100
AcDbLine
 10
320.1602287530667
 20
158.5638319963212
 30
0.0
 11
320.1602287530667
 21
157.0638319963212
 31
0.0
  0
LINE
  5
6C3
330
1A
100
AcDbEntity
  8
SEIHIN
  6
CONTINUOUS
 62
     3
 48
16.0
100
AcDbLine
 10
319.1602287530667
 20
159.7638319963212
 30
0.0
 11
318.6602287530667
 21
158.5638319963212
 31
0.0
  0
LINE
  5
6C4
330
1A
100
AcDbEntity
  8
SEIHIN
  6
CONTINUOUS
 62
     3
 48
16.0
100
AcDbLine
 10
319.1602287530667
 20
159.7638319963212
 30
0.0
 11
314.6602287530667
 21
159.7638319963212
 31
0.0
  0
LINE
  5
6C5
330
1A
100
AcDbEntity
  8
SEIHIN
  6
CONTINUOUS
 62
     3
 48
16.0
100
AcDbLine
 10
320.1602287530667
 20
158.5638319963212
 30
0.0
 11
314.6602287530667
 21
158.5638319963212
 31
0.0
  0
ARC
  5
6C6
330
1A
100
AcDbEntity
  8
SEIHIN
  6
CONTINUOUS
 62
     3
 48
16.0
100
AcDbCircle
 10
319.7531884628192
 20
162.2407391949345
 30
0.0
 40
0.50001942392786
100
AcDbArc
 50
202.6188762781186
 51
317.1260325116985
  0
LINE
  5
6C7
330
1A
100
AcDbEntity
  8
SEIHIN
  6
CONTINUOUS
 62
     3
 48
16.0
100
AcDbLine
 10
319.0298287530668
 20
162.6768319963212
 30
0.0
 11
319.2916287530668
 21
162.0484319963212
 31
0.0
  0
LINE
  5
6C8
330
1A
100
AcDbEntity
  8
SEIHIN
  6
CONTINUOUS
 62
     3
 48
16.0
100
AcDbLine
 10
319.1602287530667
 20
159.7638319963212
 30
0.0
 11
317.9102287530668
 21
162.7638319963211
 31
0.0
  0
ARC
  5
6C9
330
1A
100
AcDbEntity
  8
SEIHIN
  6
CONTINUOUS
 62
     3
 48
16.0
100
AcDbCircle
 10
306.77520084588
 20
167.2571721523959
 30
0.0
 40
0.4999873490831986
100
AcDbArc
 50
104.9959479424287
 51
204.9919550393974
  0
ARC
  5
6CA
330
1A
100
AcDbEntity
  8
SEIHIN
  6
CONTINUOUS
 62
     3
 48
16.0
100
AcDbCircle
 10
308.5275287530668
 20
167.7267319963212
 30
0.0
 40
1.500003483329345
100
AcDbArc
 50
14.99883465683416
 51
104.9988346568333
  0
ARC
  5
6CB
330
1A
100
AcDbEntity
  8
SEIHIN
  6
CONTINUOUS
 62
     3
 48
16.0
100
AcDbCircle
 10
308.5274537510193
 20
167.7267752902864
 30
0.0
 40
0.4999980099950331
100
AcDbArc
 50
14.9937953379066
 51
105.00189702589
  0
LINE
  5
6CC
330
1A
100
AcDbEntity
  8
SEIHIN
  6
CONTINUOUS
 62
     3
 48
16.0
100
AcDbLine
 10
306.6458287530668
 20
167.7401319963212
 30
0.0
 11
308.3981287530669
 21
168.2097319963211
 31
0.0
  0
LINE
  5
6CD
330
1A
100
AcDbEntity
  8
SEIHIN
  6
CONTINUOUS
 62
     3
 48
16.0
100
AcDbLine
 10
308.1392287530669
 20
169.1756319963212
 30
0.0
 11
306.3869287530668
 21
168.7060319963212
 31
0.0
  0
ARC
  5
6CE
330
1A
100
AcDbEntity
  8
SEIHIN
  6
CONTINUOUS
 62
     3
 48
16.0
100
AcDbCircle
 10
320.7928696041769
 20
167.7266978457701
 30
0.0
 40
0.4999850647767057
100
AcDbArc
 50
74.99365376778714
 51
164.9966195745719
  0
ARC
  5
6CF
330
1A
100
AcDbEntity
  8
SEIHIN
  6
CONTINUOUS
 62
     3
 48
16.0
100
AcDbCircle
 10
320.7929446027313
 20
167.7267411468787
 30
0.0
 40
1.500016424910135
100
AcDbArc
 50
74.99797012300735
 51
165.0016596357627
  0
LINE
  5
6D0
330
1A
100
AcDbEntity
  8
SEIHIN
  6
CONTINUOUS
 62
     3
 48
16.0
100
AcDbLine
 10
323.9047287530667
 20
166.6232319963213
 30
0.0
 11
322.5873287530667
 21
163.7982319963212
 31
0.0
  0
LINE
  5
6D1
330
1A
100
AcDbEntity
  8
SEIHIN
  6
CONTINUOUS
 62
     3
 48
16.0
100
AcDbLine
 10
321.6810287530667
 20
164.2208319963211
 30
0.0
 11
322.9984287530669
 21
167.0458319963211
 31
0.0
  0
LINE
  5
6D2
330
1A
100
AcDbEntity
  8
SEIHIN
  6
CONTINUOUS
 62
     3
 48
16.0
100
AcDbLine
 10
334.8839287530668
 20
170.6030319963211
 30
0.0
 11
326.4607287530668
 21
159.4480319963212
 31
0.0
  0
ARC
  5
6D3
330
1A
100
AcDbEntity
  8
SEIHIN
  6
CONTINUOUS
 62
     3
 48
16.0
100
AcDbCircle
 10
321.6724605696327
 20
163.0636478400295
 30
0.0
 40
6.000015843792626
100
AcDbArc
 50
269.9996961749781
 51
322.9435879013313
  0
ARC
  5
6D4
330
1A
100
AcDbEntity
  8
SEIHIN
  6
CONTINUOUS
 62
     3
 48
16.0
100
AcDbCircle
 10
322.5452270391623
 20
167.257135671881
 30
0.0
 40
1.500026259769233
100
AcDbArc
 50
335.0014672723521
 51
74.99737625414273
  0
ARC
  5
6D5
330
1A
100
AcDbEntity
  8
SEIHIN
  6
CONTINUOUS
 62
     3
 48
16.0
100
AcDbCircle
 10
322.5452228727439
 20
167.2571446083613
 30
0.0
 40
0.5000485876057629
100
AcDbArc
 50
335.0021558950507
 51
74.99006130403002
  0
LINE
  5
6D6
330
1A
100
AcDbEntity
  8
SEIHIN
  6
CONTINUOUS
 62
     3
 48
16.0
100
AcDbLine
 10
407.9745287530668
 20
186.6082319963213
 30
0.0
 11
355.4995287530668
 21
182.0172319963212
 31
0.0
  0
LINE
  5
6D7
330
1A
100
AcDbEntity
  8
SEIHIN
  6
CONTINUOUS
 62
     3
 48
16.0
100
AcDbLine
 10
357.6350287530668
 20
168.6082319963213
 30
0.0
 11
413.8756287530667
 21
168.6082319963213
 31
0.0
  0
ARC
  5
6D8
330
1A
100
AcDbEntity
  8
SEIHIN
  6
CONTINUOUS
 62
     3
 48
16.0
100
AcDbCircle
 10
399.6196292267731
 20
146.06363223221
 30
0.0
 40
22.4999997641111
100
AcDbArc
 50
90.00000120628323
 51
142.9433444493904
  0
ARC
  5
6D9
330
1A
100
AcDbEntity
  8
SEIHIN
  6
CONTINUOUS
 62
     3
 48
16.0
100
AcDbCircle
 10
399.6196224511585
 20
146.0636288581967
 30
0.0
 40
20.00000313812555
100
AcDbArc
 50
89.99998194636523
 51
142.9432997870778
  0
LINE
  5
6DA
330
1A
100
AcDbEntity
  8
SEIHIN
  6
CONTINUOUS
 62
     3
 48
16.0
100
AcDbLine
 10
378.0757287530668
 20
164.8274319963213
 30
0.0
 11
370.4030287530667
 21
154.6662319963212
 31
0.0
  0
LINE
  5
6DB
330
1A
100
AcDbEntity
  8
SEIHIN
  6
CONTINUOUS
 62
     3
 48
16.0
100
AcDbLine
 10
376.0806287530669
 20
166.3339319963211
 30
0.0
 11
367.5606287530667
 21
155.0506319963212
 31
0.0
  0
ARC
  5
6DC
330
1A
100
AcDbEntity
  8
SEIHIN
  6
CONTINUOUS
 62
     3
 48
16.0
100
AcDbCircle
 10
397.6275579509842
 20
150.0634496339469
 30
0.0
 40
24.49998367715852
100
AcDbArc
 50
130.8056693594519
 51
142.9428069711141
  0
ARC
  5
6DD
330
1A
100
AcDbEntity
  8
SEIHIN
  6
CONTINUOUS
 62
     3
 48
16.0
100
AcDbCircle
 10
397.627670205122
 20
150.0635627593731
 30
0.0
 40
26.99999834154084
100
AcDbArc
 50
136.619543011824
 51
142.9432105668314
  0
ARC
  5
6DE
330
1A
100
AcDbEntity
  8
SEIHIN
  6
CONTINUOUS
 62
     3
 48
16.0
100
AcDbCircle
 10
401.6603287530669
 20
163.0636319963212
 30
0.0
 40
3.0
100
AcDbArc
 50
0.0
 51
90.0
  0
LINE
  5
6DF
330
1A
100
AcDbEntity
  8
SEIHIN
  6
CONTINUOUS
 62
     3
 48
16.0
100
AcDbLine
 10
404.6603287530668
 20
168.5636319963212
 30
0.0
 11
399.6196287530668
 21
168.5636319963212
 31
0.0
  0
ARC
  5
6E0
330
1A
100
AcDbEntity
  8
NOKITOI
  6
PHANTOM
 62
     8
 48
5.0
100
AcDbCircle
 10
285.7333073741719
 20
160.6416532910547
 30
0.0
 40
1.999988406214315
100
AcDbArc
 50
90.0003219180439
 51
181.791127346407
  0
LINE
  5
6E1
330
1A
100
AcDbEntity
  8
NOKITOI
  6
PHANTOM
 62
     8
 48
5.0
100
AcDbLine
 10
292.0111961371775
 20
160.1416416972376
 30
0.0
 11
289.7796961371775
 21
160.1416416972376
 31
0.0
  0
ARC
  5
6E2
330
1A
100
AcDbEntity
  8
NOKITOI
  6
PHANTOM
 62
     8
 48
5.0
100
AcDbCircle
 10
292.0111924276823
 20
159.6416456072682
 30
0.0
 40
0.4999960899831856
100
AcDbArc
 50
356.9843782585345
 51
89.99957491984867
  0
LINE
  5
6E3
330
1A
100
AcDbEntity
  8
NOKITOI
  6
PHANTOM
 62
     8
 48
5.0
100
AcDbLine
 10
285.7332961371774
 20
162.6415416972375
 30
0.0
 11
289.0598961371774
 21
162.6416416972375
 31
0.0
  0
LINE
  5
6E4
330
1A
100
AcDbEntity
  8
NOKITOI
  6
PHANTOM
 62
     8
 48
5.0
100
AcDbLine
 10
284.9336961371776
 20
160.6166416972375
 30
0.0
 11
285.0829961371774
 21
155.8376416972376
 31
0.0
  0
ARC
  5
6E5
330
1A
100
AcDbEntity
  8
NOKITOI
  6
PHANTOM
 62
     8
 48
5.0
100
AcDbCircle
 10
285.7332521708244
 20
160.6415963347645
 30
0.0
 40
0.7999453636812564
100
AcDbArc
 50
89.99685092684627
 51
181.7876563552118
  0
LINE
  5
6E6
330
1A
100
AcDbEntity
  8
NOKITOI
  6
PHANTOM
 62
     8
 48
5.0
100
AcDbLine
 10
288.2059961371775
 20
161.4416416972376
 30
0.0
 11
287.7059961371775
 21
158.9416416972376
 31
0.0
  0
ARC
  5
6E7
330
1A
100
AcDbEntity
  8
NOKITOI
  6
PHANTOM
 62
     8
 48
5.0
100
AcDbCircle
 10
288.7900667646775
 20
156.1192719297325
 30
0.0
 40
0.4999578477751074
100
AcDbArc
 50
351.8669438287075
 51
96.47390928779223
  0
LINE
  5
6E8
330
1A
100
AcDbEntity
  8
NOKITOI
  6
PHANTOM
 62
     8
 48
5.0
100
AcDbLine
 10
291.0312961371774
 20
154.3416416972376
 30
0.0
 11
291.2123961371775
 21
157.7830416972374
 31
0.0
  0
LINE
  5
6E9
330
1A
100
AcDbEntity
  8
NOKITOI
  6
PHANTOM
 62
     8
 48
5.0
100
AcDbLine
 10
290.2533961371776
 20
154.3416416972376
 30
0.0
 11
290.6573961371776
 21
157.1700416972375
 31
0.0
  0
LINE
  5
6EA
330
1A
100
AcDbEntity
  8
NOKITOI
  6
PHANTOM
 62
     8
 48
5.0
100
AcDbLine
 10
291.0312961371774
 20
154.3416416972376
 30
0.0
 11
290.2533961371776
 21
154.3416416972376
 31
0.0
  0
LINE
  5
6EB
330
1A
100
AcDbEntity
  8
NOKITOI
  6
PHANTOM
 62
     8
 48
5.0
100
AcDbLine
 10
289.6467961371774
 20
157.8416416972375
 30
0.0
 11
289.1847961371774
 21
157.8416416972375
 31
0.0
  0
LINE
  5
6EC
330
1A
100
AcDbEntity
  8
NOKITOI
  6
PHANTOM
 62
     8
 48
5.0
100
AcDbLine
 10
290.6573961371776
 20
157.1700416972375
 30
0.0
 11
291.2123961371775
 21
157.7830416972374
 31
0.0
  0
LINE
  5
6ED
330
1A
100
AcDbEntity
  8
NOKITOI
  6
PHANTOM
 62
     8
 48
5.0
100
AcDbLine
 10
287.7059961371775
 20
158.9416416972376
 30
0.0
 11
290.6425961371774
 21
158.9416416972376
 31
0.0
  0
LINE
  5
6EE
330
1A
100
AcDbEntity
  8
NOKITOI
  6
PHANTOM
 62
     8
 48
5.0
100
AcDbLine
 10
289.6467961371774
 20
157.8416416972375
 30
0.0
 11
290.6425961371774
 21
158.9416416972376
 31
0.0
  0
ARC
  5
6EF
330
1A
100
AcDbEntity
  8
NOKITOI
  6
PHANTOM
 62
     8
 48
5.0
100
AcDbCircle
 10
289.7796969201857
 20
160.6416407422357
 30
0.0
 40
0.4999990449987399
100
AcDbArc
 50
168.6967198015449
 51
269.9999102736945
  0
LINE
  5
6F0
330
1A
100
AcDbEntity
  8
NOKITOI
  6
PHANTOM
 62
     8
 48
5.0
100
AcDbLine
 10
289.2893961371775
 20
160.7396416972376
 30
0.0
 11
289.5501961371774
 21
162.0436416972375
 31
0.0
  0
ARC
  5
6F1
330
1A
100
AcDbEntity
  8
NOKITOI
  6
PHANTOM
 62
     8
 48
5.0
100
AcDbCircle
 10
289.1848140035285
 20
152.6416504256175
 30
0.0
 40
5.199991271650611
100
AcDbArc
 50
90.00019685927453
 51
142.074671395269
  0
LINE
  5
6F2
330
1A
100
AcDbEntity
  8
NOKITOI
  6
PHANTOM
 62
     8
 48
5.0
100
AcDbLine
 10
285.7332961371774
 20
161.4415416972374
 30
0.0
 11
288.2059961371775
 21
161.4416416972376
 31
0.0
  0
ARC
  5
6F3
330
1A
100
AcDbEntity
  8
NOKITOI
  6
PHANTOM
 62
     8
 48
5.0
100
AcDbCircle
 10
289.0599033917332
 20
162.1416328473942
 30
0.0
 40
0.500008849895925
100
AcDbArc
 50
348.6864043304882
 51
90.00083129614507
  0
LINE
  5
6F4
330
1A
100
AcDbEntity
  8
SEIHIN
  6
CONTINUOUS
 62
     3
 48
16.0
100
AcDbLine
 10
401.6603287530669
 20
166.0636319963212
 30
0.0
 11
399.6196287530668
 21
166.0636319963212
 31
0.0
  0
ARC
  5
6F5
330
1A
100
AcDbEntity
  8
SEIHIN
  6
CONTINUOUS
 62
     3
 48
16.0
100
AcDbCircle
 10
398.6603317468183
 20
167.0635934623297
 30
0.0
 40
9.999997006322791
100
AcDbArc
 50
0.0002207835746582
 51
8.885125605614046
  0
ARC
  5
6F6
330
1A
100
AcDbEntity
  8
SEIHIN
  6
CONTINUOUS
 62
     3
 48
16.0
100
AcDbCircle
 10
404.6602164765855
 20
169.5636150460335
 30
0.0
 40
0.9999830560154592
100
AcDbArc
 50
270.0064330775359
 51
287.1765638589037
  0
ARC
  5
6F7
330
1A
100
AcDbEntity
  8
SEIHIN
  6
CONTINUOUS
 62
     3
 48
16.0
100
AcDbCircle
 10
413.8756512654543
 20
163.6082180923598
 30
0.0
 40
5.000013904012136
100
AcDbArc
 50
26.60015685178502
 51
90.00025797224159
  0
LINE
  5
6F8
330
1A
100
AcDbEntity
  8
SEIHIN
  6
CONTINUOUS
 62
     3
 48
16.0
100
AcDbLine
 10
407.9745287530668
 20
186.6082319963213
 30
0.0
 11
414.6602287530667
 21
186.6082319963213
 31
0.0
  0
LINE
  5
6F9
330
1A
100
AcDbEntity
  8
SEIHIN
  6
CONTINUOUS
 62
     3
 48
16.0
100
AcDbLine
 10
411.0836287530668
 20
184.8171319963212
 30
0.0
 11
414.6602287530667
 21
186.6082319963213
 31
0.0
  0
LINE
  5
6FA
330
1A
100
AcDbEntity
  8
SEIHIN
  6
CONTINUOUS
 62
     3
 48
16.0
100
AcDbLine
 10
411.0836287530668
 20
184.8171319963212
 30
0.0
 11
410.1908287530668
 21
182.1333319963212
 31
0.0
  0
LINE
  5
6FB
330
1A
100
AcDbEntity
  8
SEIHIN
  6
PHANTOM
 62
     6
 48
5.0
100
AcDbLine
 10
445.1908287530669
 20
182.1333319963212
 30
0.0
 11
465.7877287530667
 21
141.0022319963212
 31
0.0
  0
LINE
  5
6FC
330
1A
100
AcDbEntity
  8
SEIHIN
  6
PHANTOM
 62
     6
 48
5.0
100
AcDbLine
 10
468.4716287530667
 20
140.1094319963212
 30
0.0
 11
446.0836287530668
 21
184.8171319963212
 31
0.0
  0
LINE
  5
6FD
330
1A
100
AcDbEntity
  8
SEIHIN
  6
PHANTOM
 62
     6
 48
5.0
100
AcDbLine
 10
449.6602287530667
 20
186.6082319963213
 30
0.0
 11
472.0482287530669
 21
141.9004319963211
 31
0.0
  0
LINE
  5
704
330
1A
100
AcDbEntity
  8
SEIHIN
  6
CONTINUOUS
 62
     3
 48
16.0
100
AcDbLine
 10
433.4716287530667
 20
140.1094319963212
 30
0.0
 11
437.0482287530669
 21
141.9004319963211
 31
0.0
  0
LINE
  5
705
330
1A
100
AcDbEntity
  8
CENTER_L
  6
CENTER
 62
     1
 48
5.0
100
AcDbLine
 10
423.8958287530668
 20
146.4981319963212
 30
0.0
 11
436.8049287530667
 21
152.9625319963212
 31
0.0
  0
LINE
  5
706
330
1A
100
AcDbEntity
  8
SEIHIN
  6
CONTINUOUS
 62
     3
 48
16.0
100
AcDbLine
 10
430.7877287530669
 20
141.0022319963212
 30
0.0
 11
433.4716287530667
 21
140.1094319963212
 31
0.0
  0
LINE
  5
707
330
1A
100
AcDbEntity
  8
SEIHIN
  6
PHANTOM
 62
     6
 48
5.0
100
AcDbLine
 10
468.4716287530667
 20
140.1094319963212
 30
0.0
 11
472.0482287530669
 21
141.9004319963211
 31
0.0
  0
LINE
  5
708
330
1A
100
AcDbEntity
  8
CENTER_L
  6
CENTER
 62
     1
 48
5.0
100
AcDbLine
 10
458.8958287530669
 20
146.4981319963212
 30
0.0
 11
471.8049287530667
 21
152.9625319963212
 31
0.0
  0
LINE
  5
709
330
1A
100
AcDbEntity
  8
SEIHIN
  6
PHANTOM
 62
     6
 48
5.0
100
AcDbLine
 10
465.7877287530667
 20
141.0022319963212
 30
0.0
 11
468.4716287530667
 21
140.1094319963212
 31
0.0
  0
ARC
  5
70A
330
1A
100
AcDbEntity
  8
SEIHIN
  6
PHANTOM
 62
     6
 48
5.0
100
AcDbCircle
 10
448.8756512654544
 20
163.6082180923599
 30
0.0
 40
5.000013904011999
100
AcDbArc
 50
26.60015685178408
 51
90.0002579722406
  0
LINE
  5
70B
330
1A
100
AcDbEntity
  8
CENTER_L
  6
CENTER
 62
     1
 48
5.0
100
AcDbLine
 10
458.3885287530667
 20
179.7953319963211
 30
0.0
 11
445.2488287530669
 21
173.2154319963212
 31
0.0
  0
LINE
  5
70C
330
1A
100
AcDbEntity
  8
CENTER_L
  6
CENTER
 62
     1
 48
5.0
100
AcDbLine
 10
460.6245287530668
 20
175.3232319963212
 30
0.0
 11
447.5233287530668
 21
168.7626319963212
 31
0.0
  0
LINE
  5
70D
330
1A
100
AcDbEntity
  8
SEIHIN
  6
PHANTOM
 62
     6
 48
5.0
100
AcDbLine
 10
444.9962287530667
 20
168.6082319963213
 30
0.0
 11
448.8756287530669
 21
168.6082319963213
 31
0.0
  0
LINE
  5
70E
330
1A
100
AcDbEntity
  8
SEIHIN
  6
PHANTOM
 62
     6
 48
5.0
100
AcDbLine
 10
442.9745287530669
 20
186.6082319963213
 30
0.0
 11
449.6602287530667
 21
186.6082319963213
 31
0.0
  0
LINE
  5
70F
330
1A
100
AcDbEntity
  8
SEIHIN
  6
PHANTOM
 62
     6
 48
5.0
100
AcDbLine
 10
442.9745287530669
 20
186.6082319963213
 30
0.0
 11
436.9324287530667
 21
186.0795319963212
 31
0.0
  0
LINE
  5
710
330
1A
100
AcDbEntity
  8
SEIHIN
  6
PHANTOM
 62
     6
 48
5.0
100
AcDbLine
 10
446.0836287530668
 20
184.8171319963212
 30
0.0
 11
445.1908287530669
 21
182.1333319963212
 31
0.0
  0
LINE
  5
711
330
1A
100
AcDbEntity
  8
SEIHIN
  6
PHANTOM
 62
     6
 48
5.0
100
AcDbLine
 10
446.0836287530668
 20
184.8171319963212
 30
0.0
 11
449.6602287530667
 21
186.6082319963213
 31
0.0
  0
TEXT
  5
757
330
1A
100
AcDbEntity
  8
SUNPOU
 62
     4
100
AcDbText
 10
330.0021325769443
 20
82.42507566719609
 30
0.0
 40
8.0
  1
軒樋の差し替え
100
AcDbText
  0
TEXT
  5
758
330
1A
100
AcDbEntity
  8
SUNPOU
100
AcDbText
 10
443.4865664262101
 20
393.0097156637305
 30
0.0
 40
6.0
  1
スライド巾
100
AcDbText
  0
DIMENSION
  5
765
330
1A
100
AcDbEntity
  8
ZUWAKU
100
AcDbDimension
  2
*D15
 10
264.0311838155016
 20
329.4677527093174
 30
0.0
 11
259.0311838155016
 21
314.4454527093173
 31
0.0
 70
    32
  3
STANDARD
100
AcDbAlignedDimension
 13
288.3602287530667
 23
299.4231527093173
 33
0.0
 14
407.9745287530668
 24
329.4677527093174
 34
0.0
 50
90.0
100
AcDbRotatedDimension
1001
ACAD
1000
DSTYLE
1002
{
1070
   140
1040
6.0
1070
    74
1070
     0
1070
   172
1070
     1
1070
    73
1070
     0
1070
   272
1070
     2
1070
    77
1070
     3
1070
   173
1070
     1
1070
   147
1040
2.0
1070
    42
1040
6.0
1070
    44
1040
3.0
1070
    43
1040
14.0
1070
   271
1070
     0
1070
   178
1070
     4
1070
   177
1070
     4
1070
   176
1070
     4
1070
   141
1040
150.0
1070
     7
1000
_OPEN
1070
     6
1000
_OPEN
1070
    41
1040
7.0
1002
}
  0
LEADER
  5
7B6
330
1A
100
AcDbEntity
  8
SUNPOU
  6
CONTINUOUS
 62
     4
100
AcDbLeader
  3
STANDARD
 73
     0
 40
6.0
 41
31.19999999999999
 76
     3
 10
576.7631580268208
 20
391.5894562402387
 30
0.0
 10
564.6912772566492
 20
361.8830480243805
 30
0.0
 10
562.3425836545634
 20
361.8830480243805
 30
0.0
1001
ACAD
1000
DSTYLE
1002
{
1070
     6
1000
OPEN
1070
    41
1040
7.0
1070
    42
1040
6.0
1070
    43
1040
14.0
1070
    44
1040
3.0
1070
    73
1070
     0
1070
    74
1070
     0
1070
    77
1070
     3
1070
   140
1040
6.0
1070
   141
1040
150.0
1070
   147
1040
2.0
1070
   172
1070
     1
1070
   173
1070
     1
1070
   176
1070
     4
1070
   177
1070
     4
1070
   178
1070
     4
1070
   271
1070
     0
1070
   272
1070
     2
1070
   341
1005
6D
1070
   343
1005
6D
1070
   344
1005
6D
1002
}
  0
MTEXT
  5
7B7
330
1A
100
AcDbEntity
  8
SUNPOU
  6
CONTINUOUS
 62
     4
100
AcDbMText
 10
560.3425836545634
 20
363.8830480243805
 30
0.0
 40
6.0
 41
0.0
 71
     9
 72
     5
  1
2-φ6.5
1001
ACAD
1000
MTEXTBEGIN
1070
    73
1070
     1
1070
    44
1040
1.0
1070
    74
1070
     0
1000
MTEXTEND
1000
MTEXTBEGIN
1070
    73
1070
     1
1070
    44
1040
1.0
1070
    74
1070
     0
1000
MTEXTEND
  0
LWPOLYLINE
  5
8CD
330
1A
100
AcDbEntity
  8
ZUWAKU
100
AcDbPolyline
 90
        4
 70
     1
 43
0.0
 10
0.8000003265096893
 20
550.7999996173814
 10
0.8000003265096893
 20
0.7999996173814452
 10
796.8000003265097
 20
0.7999996173814452
 10
796.8000003265097
 20
550.7999996173814
  0
LWPOLYLINE
  5
8CE
330
1A
100
AcDbEntity
  8
ZUWAKU
100
AcDbPolyline
 90
        4
 70
     1
 43
0.0
 10
0.4000003265097121
 20
551.1999996173813
 10
0.4000003265097121
 20
0.3999996173814679
 10
797.2000003265097
 20
0.3999996173814448
 10
797.2000003265097
 20
551.1999996173813
  0
LWPOLYLINE
  5
8CF
330
1A
100
AcDbEntity
  8
ZUWAKU
100
AcDbPolyline
 90
        4
 70
     1
 43
0.0
 10
0.0000003265097348
 20
551.5999996173814
 10
0.0000003265097348
 20
-0.000000382618623
 10
797.6000003265099
 20
-0.0000003826185555
 10
797.6000003265099
 20
551.5999996173815
  0
LWPOLYLINE
  5
8D0
330
1A
100
AcDbEntity
  8
ZUWAKU
100
AcDbPolyline
 90
        4
 70
     1
 43
0.0
 10
0.6000003265096439
 20
550.9999996173815
 10
0.6000003265096439
 20
0.5999996173813998
 10
797.0000003265099
 20
0.599999617381446
 10
797.0000003265097
 20
550.9999996173815
  0
LWPOLYLINE
  5
8D1
330
1A
100
AcDbEntity
  8
ZUWAKU
100
AcDbPolyline
 90
        4
 70
     1
 43
0.0
 10
0.2000003265096666
 20
551.3999996173814
 10
0.2000003265096666
 20
0.1999996173814225
 10
797.4000003265095
 20
0.1999996173814455
 10
797.4000003265098
 20
551.3999996173814
  0
LINE
  5
8D2
330
1A
100
AcDbEntity
  8
ZUWAKU
100
AcDbLine
 10
0.0000003265097348
 20
29.99999961738137
 30
0.0
 11
797.4000003265095
 21
29.99999961738137
 31
0.0
  0
LINE
  5
8D3
330
1A
100
AcDbEntity
  8
ZUWAKU
100
AcDbLine
 10
0.0000003265097348
 20
30.19999961738138
 30
0.0
 11
797.4000003265095
 21
30.19999961738138
 31
0.0
  0
LINE
  5
8D4
330
1A
100
AcDbEntity
  8
ZUWAKU
100
AcDbLine
 10
0.0000003265097348
 20
30.39999961738138
 30
0.0
 11
797.4000003265095
 21
30.39999961738138
 31
0.0
  0
LINE
  5
8D5
330
1A
100
AcDbEntity
  8
ZUWAKU
100
AcDbLine
 10
0.0000003265097348
 20
30.59999961738138
 30
0.0
 11
797.4000003265095
 21
30.59999961738138
 31
0.0
  0
LINE
  5
8D6
330
1A
100
AcDbEntity
  8
ZUWAKU
100
AcDbLine
 10
0.0000003265097348
 20
30.79999961738138
 30
0.0
 11
797.4000003265095
 21
30.79999961738138
 31
0.0
  0
LINE
  5
8D7
330
1A
100
AcDbEntity
  8
ZUWAKU
100
AcDbLine
 10
208.6466016165777
 20
15.39999961738141
 30
0.0
 11
447.4243642975011
 21
15.39999961738141
 31
0.0
  0
LINE
  5
8D8
330
1A
100
AcDbEntity
  8
ZUWAKU
100
AcDbLine
 10
208.6466016165777
 20
15.59999961738141
 30
0.0
 11
447.4243642975011
 21
15.59999961738141
 31
0.0
  0
LINE
  5
8D9
330
1A
100
AcDbEntity
  8
ZUWAKU
100
AcDbLine
 10
208.6466016165777
 20
15.19999961738141
 30
0.0
 11
447.4243642975011
 21
15.19999961738141
 31
0.0
  0
TEXT
  5
8DA
330
1A
100
AcDbEntity
  8
MOJI
100
AcDbText
 10
92.95778991467887
 20
12.74117774765613
 30
0.0
 40
6.0
  1
新・丸トップＲＶ１０５
 41
0.9
  7
ｽﾀｲﾙ1
100
AcDbText
  0
CIRCLE
  5
8DB
330
1A
100
AcDbEntity
  8
ZUWAKU
100
AcDbCircle
 10
25.99221248129083
 20
15.19999961738138
 30
0.0
 40
1.75
  0
LINE
  5
8DC
330
1A
100
AcDbEntity
  8
ZUWAKU
100
AcDbLine
 10
26.86721248129083
 20
7.149999617381382
 30
0.0
 11
24.94221248129088
 21
7.149999617381382
 31
0.0
  0
LINE
  5
8DD
330
1A
100
AcDbEntity
  8
ZUWAKU
100
AcDbLine
 10
24.94221248129088
 20
9.949999617381379
 30
0.0
 11
26.86721248129083
 21
9.949999617381379
 31
0.0
  0
LINE
  5
8DE
330
1A
100
AcDbEntity
  8
ZUWAKU
100
AcDbLine
 10
26.86721248129083
 20
20.44999961738138
 30
0.0
 11
24.94221248129088
 21
20.44999961738138
 31
0.0
  0
LINE
  5
8DF
330
1A
100
AcDbEntity
  8
ZUWAKU
100
AcDbLine
 10
24.94221248129088
 20
23.24999961738134
 30
0.0
 11
26.86721248129083
 21
23.24999961738138
 31
0.0
  0
HATCH
  5
8E0
330
1A
100
AcDbEntity
  8
ZUWAKU
100
AcDbHatch
 10
0.0
 20
0.0
 30
0.0
210
0.0
220
0.0
230
1.0
  2
ANSI37
 70
     0
 71
     0
 91
        8
 92
        7
 72
     1
 73
     1
 93
       24
 10
14.50226298762959
 20
17.64484809836496
 42
-0.1989123673796348
 10
14.09221248129085
 20
18.63479759202601
 42
0.0
 10
14.09221248129085
 20
19.92499961738138
 42
-0.4142135623730912
 10
14.61721248129083
 20
20.44999961738138
 42
0.0
 10
17.59221248129074
 20
20.44999961738138
 42
0.4142135623731546
 10
18.11721248129083
 20
20.97499961738137
 42
0.0
 10
18.11721248129083
 20
22.72499961738138
 42
0.4142135623731586
 10
17.59221248129074
 20
23.24999961738138
 42
0.0
 10
14.09221248129085
 20
23.24999961738138
 42
0.4142135623730928
 10
11.2922124812909
 20
20.4499996173814
 42
0.0
 10
11.2922124812909
 20
18.63479759202613
 42
0.1989123673796619
 10
12.52236400030733
 20
15.66494911104253
 42
0.0
 10
15.432161974952
 20
12.75515113639787
 42
-0.1989123673796613
 10
15.84221248129085
 20
11.76520164273668
 42
0.0
 10
15.84221248129085
 20
10.47499961738137
 42
-0.4142135623730911
 10
15.31721248129088
 20
9.949999617381379
 42
0.0
 10
12.34221248129097
 20
9.949999617381379
 42
0.4142135623731526
 10
11.81721248129088
 20
9.424999617381391
 42
0.0
 10
11.81721248129088
 20
7.67499961738137
 42
0.4142135623731526
 10
12.34221248129097
 20
7.149999617381382
 42
0.0
 10
15.84221248129085
 20
7.149999617381382
 42
0.4142135623731044
 10
18.64221248129092
 20
9.949999617381358
 42
0.0
 10
18.64221248129092
 20
11.76520164273663
 42
0.1989123673796604
 10
17.41206096227438
 20
14.73505012372017
 42
0.0
 97
        0
 92
        7
 72
     1
 73
     1
 93
       16
 10
23.5422124812909
 20
19.04999961738139
 42
-0.4142135623730935
 10
24.94221248129088
 20
20.44999961738138
 42
0.0
 10
26.86721248129083
 20
20.44999961738138
 42
0.4142135623731546
 10
27.39221248129092
 20
20.97499961738137
 42
0.0
 10
27.39221248129092
 20
22.72499961738138
 42
0.4142135623730951
 10
26.86721248129094
 20
23.24999961738138
 42
0.0
 10
24.94221248129076
 20
23.24999961738134
 42
0.4142135623730892
 10
20.74221248129083
 20
19.04999961738131
 42
0.0
 10
20.74221248129083
 20
11.3499996173814
 42
0.4142135623730969
 10
24.94221248129088
 20
7.149999617381382
 42
0.0
 10
26.86721248129083
 20
7.149999617381382
 42
0.4142135623731526
 10
27.39221248129092
 20
7.67499961738137
 42
0.0
 10
27.39221248129092
 20
9.424999617381391
 42
0.4142135623730891
 10
26.86721248129094
 20
9.949999617381379
 42
0.0
 10
24.94221248129088
 20
9.949999617381379
 42
-0.4142135623730928
 10
23.5422124812909
 20
11.34999961738136
 42
0.0
 97
        0
 92
        7
 72
     1
 73
     1
 93
        2
 10
24.24221248129083
 20
15.19999961738138
 42
1.0
 10
27.74221248129083
 20
15.19999961738138
 42
1.0
 97
        0
 92
        7
 72
     1
 73
     1
 93
       26
 10
37.31485896346885
 20
19.2050468109448
 42
0.0
 10
38.37649859660666
 20
22.56690564921439
 42
0.5069206636600134
 10
37.8758676974113
 20
23.24999961738138
 42
0.0
 10
36.17697831780208
 20
23.24999961738138
 42
0.3272098845218764
 10
35.67634741860672
 20
22.88309358554835
 42
0.0
 10
33.80807754397494
 20
16.96690564921446
 42
-0.3272098845219541
 10
33.30744664477947
 20
16.59999961738138
 42
0.0
 10
33.16721248129101
 20
16.59999961738138
 42
-0.4142135623731526
 10
32.64221248129092
 20
17.12499961738136
 42
0.0
 10
32.64221248129092
 20
22.72499961738138
 42
0.4142135623730951
 10
32.11721248129094
 20
23.24999961738138
 42
0.0
 10
30.36721248129083
 20
23.24999961738138
 42
0.4142135623730871
 10
29.84221248129085
 20
22.7249996173814
 42
0.0
 10
29.84221248129085
 20
7.67499961738137
 42
0.4142135623730891
 10
30.36721248129083
 20
7.149999617381382
 42
0.0
 10
32.11721248129083
 20
7.149999617381382
 42
0.4142135623731526
 10
32.64221248129092
 20
7.67499961738137
 42
0.0
 10
32.64221248129092
 20
13.27499961738139
 42
-0.4142135623731526
 10
33.16721248129101
 20
13.79999961738138
 42
0.0
 10
33.30744664477959
 20
13.79999961738138
 42
-0.3272098845218915
 10
33.80807754397494
 20
13.4330935855483
 42
0.0
 10
35.67634741860672
 20
7.516905649214454
 42
0.3272098845218902
 10
36.17697831780208
 20
7.149999617381382
 42
0.0
 10
37.8758676974113
 20
7.149999617381382
 42
0.5069206636600335
 10
38.37649859660666
 20
7.83309358554839
 42
0.0
 10
36.050107218133
 20
15.19999961738151
 42
0.0
 97
        0
 92
        7
 72
     1
 73
     1
 93
        8
 10
43.49221248129083
 20
22.72499961738139
 42
0.4142135623731546
 10
42.96721248129074
 20
23.24999961738138
 42
0.0
 10
41.21721248129097
 20
23.24999961738138
 42
0.4142135623731507
 10
40.69221248129088
 20
22.7249996173814
 42
0.0
 10
40.69221248129088
 20
7.67499961738137
 42
0.4142135623731526
 10
41.21721248129097
 20
7.149999617381382
 42
0.0
 10
42.96721248129074
 20
7.149999617381382
 42
0.4142135623731526
 10
43.49221248129083
 20
7.67499961738137
 42
0.0
 97
        0
 92
        7
 72
     1
 73
     1
 93
       24
 10
48.39221248129092
 20
19.92499961738138
 42
-0.4142135623731546
 10
48.91721248129101
 20
20.44999961738138
 42
0.0
 10
51.89221248129093
 20
20.44999961738138
 42
0.4142135623730911
 10
52.4172124812909
 20
20.97499961738137
 42
0.0
 10
52.4172124812909
 20
22.72499961738138
 42
0.4142135623730952
 10
51.89221248129093
 20
23.24999961738138
 42
0.0
 10
48.39221248129092
 20
23.24999961738138
 42
0.4142135623731048
 10
45.59221248129086
 20
20.4499996173814
 42
0.0
 10
45.59221248129086
 20
18.63479759202613
 42
0.1989123673796613
 10
46.8223640003074
 20
15.66494911104259
 42
0.0
 10
49.73216197495208
 20
12.75515113639792
 42
-0.1989123673796402
 10
50.14221248129093
 20
11.76520164273684
 42
0.0
 10
50.14221248129093
 20
10.47499961738137
 42
-0.4142135623730911
 10
49.61721248129094
 20
9.949999617381379
 42
0.0
 10
46.64221248129092
 20
9.949999617381379
 42
0.4142135623731526
 10
46.11721248129083
 20
9.424999617381391
 42
0.0
 10
46.11721248129083
 20
7.67499961738137
 42
0.4142135623730891
 10
46.64221248129081
 20
7.149999617381382
 42
0.0
 10
50.14221248129093
 20
7.149999617381382
 42
0.4142135623730925
 10
52.94221248129088
 20
9.949999617381358
 42
0.0
 10
52.94221248129088
 20
11.76520164273663
 42
0.1989123673796675
 10
51.71206096227433
 20
14.73505012372028
 42
0.0
 10
48.80226298762977
 20
17.6448480983648
 42
-0.1989123673796652
 10
48.39221248129092
 20
18.63479759202596
 42
0.0
 97
        0
 92
        7
 72
     1
 73
     1
 93
       16
 10
57.84221248129085
 20
22.72499961738137
 42
0.414213562373103
 10
57.31721248129088
 20
23.24999961738138
 42
0.0
 10
55.56721248129088
 20
23.24999961738138
 42
0.4142135623730871
 10
55.0422124812909
 20
22.7249996173814
 42
0.0
 10
55.0422124812909
 20
9.949999617381358
 42
0.4142135623730926
 10
57.84221248129085
 20
7.149999617381382
 42
0.0
 10
61.34221248129086
 20
7.149999617381382
 42
0.4142135623731044
 10
64.14221248129092
 20
9.949999617381358
 42
0.0
 10
64.14221248129092
 20
22.72499961738138
 42
0.4142135623730951
 10
63.61721248129095
 20
23.24999961738138
 42
0.0
 10
61.86721248129083
 20
23.24999961738138
 42
0.4142135623730871
 10
61.34221248129086
 20
22.7249996173814
 42
0.0
 10
61.34221248129086
 20
10.99999961738135
 42
-0.414213562373088
 10
60.2922124812909
 20
9.949999617381379
 42
0.0
 10
58.89221248129093
 20
9.949999617381379
 42
-0.4142135623731197
 10
57.84221248129085
 20
10.99999961738135
 42
0.0
 97
        0
 92
        7
 72
     1
 73
     1
 93
        8
 10
69.0422124812909
 20
22.7249996173814
 42
0.4142135623730871
 10
68.51721248129092
 20
23.24999961738138
 42
0.0
 10
66.76721248129092
 20
23.24999961738138
 42
0.4142135623731507
 10
66.24221248129083
 20
22.7249996173814
 42
0.0
 10
66.24221248129083
 20
7.67499961738137
 42
0.4142135623730891
 10
66.76721248129081
 20
7.149999617381382
 42
0.0
 10
68.51721248129092
 20
7.149999617381382
 42
0.4142135623730891
 10
69.0422124812909
 20
7.67499961738137
 42
0.0
 97
        0
 75
     0
 76
     1
 52
0.0
 41
0.2
 77
     0
 78
     2
 53
45.0
 43
-900.9423040081692
 44
-13.20000038261855
 45
-0.4490128060534576
 46
0.4490128060534577
 79
     0
 53
135.0
 43
-900.9423040081692
 44
-13.20000038261855
 45
-0.4490128060534577
 46
-0.4490128060534576
 79
     0
 47
0.057451373970553
 98
        8
 10
16.07985528953304
 20
15.16717326326693
 10
22.4045153329489
 20
18.84406179983239
 10
25.16436821216939
 20
15.51188126345209
 10
30.91406030814687
 20
16.20129726382288
 10
41.83847234546647
 20
16.66090953136449
 10
46.89820122163928
 20
19.41857593378858
 10
56.55768629891008
 20
18.72915753247639
 10
67.82707994613247
 20
19.188769800018
  0
ARC
  5
8E1
330
1A
100
AcDbEntity
  8
ZUWAKU
100
AcDbCircle
 10
15.49221248129083
 20
18.63479759202608
 30
0.0
 40
4.199999999999999
100
AcDbArc
 50
180.0
 51
225.0
  0
LINE
  5
8E2
330
1A
100
AcDbEntity
  8
ZUWAKU
100
AcDbLine
 10
20.74221248129083
 20
11.34999961738138
 30
0.0
 11
20.74221248129083
 21
19.04999961738133
 31
0.0
  0
LINE
  5
8E3
330
1A
100
AcDbEntity
  8
ZUWAKU
100
AcDbLine
 10
23.5422124812909
 20
19.04999961738138
 30
0.0
 11
23.5422124812909
 21
11.34999961738138
 31
0.0
  0
ARC
  5
8E4
330
1A
100
AcDbEntity
  8
ZUWAKU
100
AcDbCircle
 10
15.49221248129083
 20
18.63479759202608
 30
0.0
 40
1.399999999999999
100
AcDbArc
 50
180.0000000000016
 51
224.9999999999988
  0
ARC
  5
8E5
330
1A
100
AcDbEntity
  8
ZUWAKU
100
AcDbCircle
 10
24.94221248129088
 20
11.34999961738138
 30
0.0
 40
4.199999999999999
100
AcDbArc
 50
180.0
 51
270.0
  0
ARC
  5
8E6
330
1A
100
AcDbEntity
  8
ZUWAKU
100
AcDbCircle
 10
15.84221248129085
 20
9.949999617381379
 30
0.0
 40
2.799999999999999
100
AcDbArc
 50
270.0
 51
0.0
  0
ARC
  5
8E7
330
1A
100
AcDbEntity
  8
ZUWAKU
100
AcDbCircle
 10
14.44221248129088
 20
11.76520164273668
 30
0.0
 40
4.199999999999999
100
AcDbArc
 50
0.0
 51
45.0
  0
LINE
  5
8E8
330
1A
100
AcDbEntity
  8
ZUWAKU
100
AcDbLine
 10
12.52236400030733
 20
15.66494911104256
 30
0.0
 11
15.432161974952
 21
12.75515113639789
 31
0.0
  0
LINE
  5
8E9
330
1A
100
AcDbEntity
  8
ZUWAKU
100
AcDbLine
 10
12.34221248129085
 20
9.949999617381379
 30
0.0
 11
15.31721248129088
 21
9.949999617381379
 31
0.0
  0
LINE
  5
8EA
330
1A
100
AcDbEntity
  8
ZUWAKU
100
AcDbLine
 10
12.34221248129085
 20
7.149999617381382
 30
0.0
 11
15.84221248129085
 21
7.149999617381382
 31
0.0
  0
ARC
  5
8EB
330
1A
100
AcDbEntity
  8
ZUWAKU
100
AcDbCircle
 10
12.34221248129085
 20
9.424999617381381
 30
0.0
 40
0.525
100
AcDbArc
 50
90.0
 51
180.0
  0
ARC
  5
8EC
330
1A
100
AcDbEntity
  8
ZUWAKU
100
AcDbCircle
 10
12.34221248129085
 20
7.674999617381381
 30
0.0
 40
0.525
100
AcDbArc
 50
180.0
 51
270.0
  0
LINE
  5
8ED
330
1A
100
AcDbEntity
  8
ZUWAKU
100
AcDbLine
 10
11.81721248129088
 20
7.674999617381381
 30
0.0
 11
11.81721248129088
 21
9.424999617381381
 31
0.0
  0
ARC
  5
8EE
330
1A
100
AcDbEntity
  8
ZUWAKU
100
AcDbCircle
 10
14.44221248129088
 20
11.76520164273672
 30
0.0
 40
1.399999999999999
100
AcDbArc
 50
0.0
 51
45.0
  0
ARC
  5
8EF
330
1A
100
AcDbEntity
  8
ZUWAKU
100
AcDbCircle
 10
15.31721248129088
 20
10.47499961738138
 30
0.0
 40
0.525
100
AcDbArc
 50
270.0
 51
0.0
  0
LINE
  5
8F0
330
1A
100
AcDbEntity
  8
ZUWAKU
100
AcDbLine
 10
15.84221248129085
 20
10.47499961738138
 30
0.0
 11
15.84221248129085
 21
11.76520164273672
 31
0.0
  0
LINE
  5
8F1
330
1A
100
AcDbEntity
  8
ZUWAKU
100
AcDbLine
 10
17.41206096227438
 20
14.7350501237202
 30
0.0
 11
14.5022629876297
 21
17.64484809836488
 31
0.0
  0
ARC
  5
8F2
330
1A
100
AcDbEntity
  8
ZUWAKU
100
AcDbCircle
 10
24.94221248129088
 20
11.34999961738138
 30
0.0
 40
1.399999999999999
100
AcDbArc
 50
180.0
 51
270.0
  0
LINE
  5
8F3
330
1A
100
AcDbEntity
  8
ZUWAKU
100
AcDbLine
 10
18.64221248129092
 20
9.949999617381379
 30
0.0
 11
18.64221248129092
 21
11.76520164273672
 31
0.0
  0
ARC
  5
8F4
330
1A
100
AcDbEntity
  8
ZUWAKU
100
AcDbCircle
 10
17.59221248129085
 20
20.97499961738138
 30
0.0
 40
0.525
100
AcDbArc
 50
270.0
 51
0.0
  0
ARC
  5
8F5
330
1A
100
AcDbEntity
  8
ZUWAKU
100
AcDbCircle
 10
17.59221248129085
 20
22.72499961738137
 30
0.0
 40
0.525
100
AcDbArc
 50
0.0
 51
90.0
  0
ARC
  5
8F6
330
1A
100
AcDbEntity
  8
ZUWAKU
100
AcDbCircle
 10
14.09221248129085
 20
20.44999961738138
 30
0.0
 40
2.799999999999999
100
AcDbArc
 50
90.0
 51
180.0
  0
LINE
  5
8F7
330
1A
100
AcDbEntity
  8
ZUWAKU
100
AcDbLine
 10
11.2922124812909
 20
20.44999961738138
 30
0.0
 11
11.2922124812909
 21
18.63479759202603
 31
0.0
  0
LINE
  5
8F8
330
1A
100
AcDbEntity
  8
ZUWAKU
100
AcDbLine
 10
17.59221248129085
 20
20.44999961738138
 30
0.0
 11
14.61721248129083
 21
20.44999961738138
 31
0.0
  0
LINE
  5
8F9
330
1A
100
AcDbEntity
  8
ZUWAKU
100
AcDbLine
 10
14.09221248129085
 20
19.92499961738138
 30
0.0
 11
14.09221248129085
 21
18.63479759202603
 31
0.0
  0
ARC
  5
8FA
330
1A
100
AcDbEntity
  8
ZUWAKU
100
AcDbCircle
 10
14.61721248129083
 20
19.92499961738138
 30
0.0
 40
0.525
100
AcDbArc
 50
90.0
 51
180.0
  0
LINE
  5
8FB
330
1A
100
AcDbEntity
  8
ZUWAKU
100
AcDbLine
 10
14.09221248129085
 20
23.24999961738138
 30
0.0
 11
17.59221248129085
 21
23.24999961738138
 31
0.0
  0
ARC
  5
8FC
330
1A
100
AcDbEntity
  8
ZUWAKU
100
AcDbCircle
 10
24.94221248129088
 20
19.04999961738133
 30
0.0
 40
4.199999999999999
100
AcDbArc
 50
90.0
 51
180.0
  0
ARC
  5
8FD
330
1A
100
AcDbEntity
  8
ZUWAKU
100
AcDbCircle
 10
24.94221248129088
 20
19.04999961738138
 30
0.0
 40
1.399999999999999
100
AcDbArc
 50
90.0
 51
180.0
  0
LINE
  5
8FE
330
1A
100
AcDbEntity
  8
ZUWAKU
100
AcDbLine
 10
18.11721248129083
 20
22.72499961738137
 30
0.0
 11
18.11721248129083
 21
20.97499961738138
 31
0.0
  0
LINE
  5
8FF
330
1A
100
AcDbEntity
  8
ZUWAKU
100
AcDbLine
 10
35.67634741860672
 20
22.88309358554835
 30
0.0
 11
33.80807754397494
 21
16.96690564921441
 31
0.0
  0
LINE
  5
900
330
1A
100
AcDbEntity
  8
ZUWAKU
100
AcDbLine
 10
29.84221248129085
 20
22.72499961738137
 30
0.0
 11
29.84221248129085
 21
7.674999617381381
 31
0.0
  0
LINE
  5
901
330
1A
100
AcDbEntity
  8
ZUWAKU
100
AcDbLine
 10
32.64221248129092
 20
17.12499961738138
 30
0.0
 11
32.64221248129092
 21
22.72499961738137
 31
0.0
  0
LINE
  5
902
330
1A
100
AcDbEntity
  8
ZUWAKU
100
AcDbLine
 10
57.84221248129085
 20
10.99999961738137
 30
0.0
 11
57.84221248129085
 21
22.72499961738137
 31
0.0
  0
LINE
  5
903
330
1A
100
AcDbEntity
  8
ZUWAKU
100
AcDbLine
 10
55.0422124812909
 20
22.72499961738137
 30
0.0
 11
55.0422124812909
 21
9.949999617381379
 31
0.0
  0
LINE
  5
904
330
1A
100
AcDbEntity
  8
ZUWAKU
100
AcDbLine
 10
43.49221248129083
 20
7.674999617381381
 30
0.0
 11
43.49221248129083
 21
22.72499961738137
 31
0.0
  0
LINE
  5
905
330
1A
100
AcDbEntity
  8
ZUWAKU
100
AcDbLine
 10
40.69221248129088
 20
22.72499961738137
 30
0.0
 11
40.69221248129088
 21
7.674999617381381
 31
0.0
  0
LINE
  5
906
330
1A
100
AcDbEntity
  8
ZUWAKU
100
AcDbLine
 10
37.31485896346885
 20
19.2050468109448
 30
0.0
 11
36.050107218133
 21
15.1999996173814
 31
0.0
  0
ARC
  5
907
330
1A
100
AcDbEntity
  8
ZUWAKU
100
AcDbCircle
 10
49.7922124812909
 20
18.63479759202608
 30
0.0
 40
4.199999999999999
100
AcDbArc
 50
180.0
 51
225.0
  0
ARC
  5
908
330
1A
100
AcDbEntity
  8
ZUWAKU
100
AcDbCircle
 10
49.7922124812909
 20
18.63479759202608
 30
0.0
 40
1.399999999999999
100
AcDbArc
 50
180.0000000000016
 51
224.9999999999988
  0
LINE
  5
909
330
1A
100
AcDbEntity
  8
ZUWAKU
100
AcDbLine
 10
66.24221248129083
 20
22.72499961738137
 30
0.0
 11
66.24221248129083
 21
7.674999617381381
 31
0.0
  0
LINE
  5
90A
330
1A
100
AcDbEntity
  8
ZUWAKU
100
AcDbLine
 10
69.0422124812909
 20
7.674999617381381
 30
0.0
 11
69.0422124812909
 21
22.72499961738137
 31
0.0
  0
LINE
  5
90B
330
1A
100
AcDbEntity
  8
ZUWAKU
100
AcDbLine
 10
61.34221248129086
 20
22.72499961738137
 30
0.0
 11
61.34221248129086
 21
10.99999961738137
 31
0.0
  0
LINE
  5
90C
330
1A
100
AcDbEntity
  8
ZUWAKU
100
AcDbLine
 10
64.14221248129092
 20
9.949999617381379
 30
0.0
 11
64.14221248129092
 21
22.72499961738137
 31
0.0
  0
LINE
  5
90D
330
1A
100
AcDbEntity
  8
ZUWAKU
100
AcDbLine
 10
79.12662987449812
 20
29.99999961738137
 30
0.0
 11
79.12662987449812
 21
0.7999996173814452
 31
0.0
  0
LINE
  5
90E
330
1A
100
AcDbEntity
  8
ZUWAKU
100
AcDbLine
 10
79.52662987449798
 20
29.99999961738137
 30
0.0
 11
79.52662987449821
 21
0.7999996173814452
 31
0.0
  0
LINE
  5
90F
330
1A
100
AcDbEntity
  8
ZUWAKU
100
AcDbLine
 10
79.32662987449794
 20
29.99999961738137
 30
0.0
 11
79.32662987449816
 21
0.7999996173814452
 31
0.0
  0
LINE
  5
910
330
1A
100
AcDbEntity
  8
ZUWAKU
100
AcDbLine
 10
57.84221248129085
 20
7.149999617381382
 30
0.0
 11
61.34221248129086
 21
7.149999617381382
 31
0.0
  0
LINE
  5
911
330
1A
100
AcDbEntity
  8
ZUWAKU
100
AcDbLine
 10
60.2922124812909
 20
9.949999617381379
 30
0.0
 11
58.89221248129093
 21
9.949999617381379
 31
0.0
  0
LINE
  5
912
330
1A
100
AcDbEntity
  8
ZUWAKU
100
AcDbLine
 10
41.21721248129086
 20
7.149999617381382
 30
0.0
 11
42.96721248129085
 21
7.149999617381382
 31
0.0
  0
LINE
  5
913
330
1A
100
AcDbEntity
  8
ZUWAKU
100
AcDbLine
 10
35.67634741860672
 20
7.516905649214407
 30
0.0
 11
33.80807754397494
 21
13.43309358554835
 31
0.0
  0
ARC
  5
914
330
1A
100
AcDbEntity
  8
ZUWAKU
100
AcDbCircle
 10
33.1672124812909
 20
13.27499961738138
 30
0.0
 40
0.525
100
AcDbArc
 50
90.0
 51
180.0
  0
ARC
  5
915
330
1A
100
AcDbEntity
  8
ZUWAKU
100
AcDbCircle
 10
33.30744664477959
 20
13.27499961738138
 30
0.0
 40
0.525
100
AcDbArc
 50
17.52556837372303
 51
90.0
  0
ARC
  5
916
330
1A
100
AcDbEntity
  8
ZUWAKU
100
AcDbCircle
 10
30.36721248129083
 20
7.674999617381381
 30
0.0
 40
0.525
100
AcDbArc
 50
180.0
 51
270.0
  0
ARC
  5
917
330
1A
100
AcDbEntity
  8
ZUWAKU
100
AcDbCircle
 10
26.86721248129083
 20
9.424999617381381
 30
0.0
 40
0.525
100
AcDbArc
 50
0.0
 51
90.0
  0
ARC
  5
918
330
1A
100
AcDbEntity
  8
ZUWAKU
100
AcDbCircle
 10
26.86721248129083
 20
7.674999617381381
 30
0.0
 40
0.525
100
AcDbArc
 50
270.0
 51
0.0
  0
LINE
  5
919
330
1A
100
AcDbEntity
  8
ZUWAKU
100
AcDbLine
 10
27.39221248129092
 20
9.424999617381381
 30
0.0
 11
27.39221248129092
 21
7.674999617381381
 31
0.0
  0
LINE
  5
91A
330
1A
100
AcDbEntity
  8
ZUWAKU
100
AcDbLine
 10
32.64221248129092
 20
7.674999617381381
 30
0.0
 11
32.64221248129092
 21
13.27499961738138
 31
0.0
  0
ARC
  5
91B
330
1A
100
AcDbEntity
  8
ZUWAKU
100
AcDbCircle
 10
32.11721248129083
 20
7.674999617381381
 30
0.0
 40
0.525
100
AcDbArc
 50
270.0
 51
0.0
  0
LINE
  5
91C
330
1A
100
AcDbEntity
  8
ZUWAKU
100
AcDbLine
 10
30.36721248129083
 20
7.149999617381382
 30
0.0
 11
32.11721248129083
 21
7.149999617381382
 31
0.0
  0
ARC
  5
91D
330
1A
100
AcDbEntity
  8
ZUWAKU
100
AcDbCircle
 10
33.1672124812909
 20
17.12499961738138
 30
0.0
 40
0.525
100
AcDbArc
 50
180.0
 51
270.0
  0
LINE
  5
91E
330
1A
100
AcDbEntity
  8
ZUWAKU
100
AcDbLine
 10
33.1672124812909
 20
13.79999961738138
 30
0.0
 11
33.30744664477959
 21
13.79999961738138
 31
0.0
  0
LINE
  5
91F
330
1A
100
AcDbEntity
  8
ZUWAKU
100
AcDbLine
 10
33.30744664477959
 20
16.59999961738138
 30
0.0
 11
33.1672124812909
 21
16.59999961738138
 31
0.0
  0
ARC
  5
920
330
1A
100
AcDbEntity
  8
ZUWAKU
100
AcDbCircle
 10
33.30744664477959
 20
17.12499961738138
 30
0.0
 40
0.525
100
AcDbArc
 50
270.0
 51
342.4744316262769
  0
ARC
  5
921
330
1A
100
AcDbEntity
  8
ZUWAKU
100
AcDbCircle
 10
36.17697831780219
 20
7.674999617381381
 30
0.0
 40
0.525
100
AcDbArc
 50
197.525568373723
 51
270.0
  0
LINE
  5
922
330
1A
100
AcDbEntity
  8
ZUWAKU
100
AcDbLine
 10
38.37649859660666
 20
7.833093585548354
 30
0.0
 11
36.050107218133
 21
15.1999996173814
 31
0.0
  0
ARC
  5
923
330
1A
100
AcDbEntity
  8
ZUWAKU
100
AcDbCircle
 10
37.87586769741119
 20
7.674999617381381
 30
0.0
 40
0.525
100
AcDbArc
 50
270.0
 51
17.52556837372303
  0
LINE
  5
924
330
1A
100
AcDbEntity
  8
ZUWAKU
100
AcDbLine
 10
36.17697831780219
 20
7.149999617381382
 30
0.0
 11
37.87586769741119
 21
7.149999617381382
 31
0.0
  0
ARC
  5
925
330
1A
100
AcDbEntity
  8
ZUWAKU
100
AcDbCircle
 10
41.21721248129086
 20
7.674999617381381
 30
0.0
 40
0.525
100
AcDbArc
 50
180.0
 51
270.0
  0
ARC
  5
926
330
1A
100
AcDbEntity
  8
ZUWAKU
100
AcDbCircle
 10
50.14221248129093
 20
9.949999617381379
 30
0.0
 40
2.799999999999999
100
AcDbArc
 50
270.0
 51
0.0
  0
ARC
  5
927
330
1A
100
AcDbEntity
  8
ZUWAKU
100
AcDbCircle
 10
57.84221248129085
 20
9.949999617381379
 30
0.0
 40
2.799999999999999
100
AcDbArc
 50
180.0
 51
270.0
  0
LINE
  5
928
330
1A
100
AcDbEntity
  8
ZUWAKU
100
AcDbLine
 10
51.71206096227445
 20
14.7350501237202
 30
0.0
 11
48.80226298762966
 21
17.64484809836488
 31
0.0
  0
LINE
  5
929
330
1A
100
AcDbEntity
  8
ZUWAKU
100
AcDbLine
 10
46.8223640003074
 20
15.66494911104256
 30
0.0
 11
49.73216197495208
 21
12.75515113639789
 31
0.0
  0
LINE
  5
92A
330
1A
100
AcDbEntity
  8
ZUWAKU
100
AcDbLine
 10
46.64221248129092
 20
7.149999617381382
 30
0.0
 11
50.14221248129093
 21
7.149999617381382
 31
0.0
  0
LINE
  5
92B
330
1A
100
AcDbEntity
  8
ZUWAKU
100
AcDbLine
 10
46.64221248129092
 20
9.949999617381379
 30
0.0
 11
49.61721248129084
 21
9.949999617381379
 31
0.0
  0
ARC
  5
92C
330
1A
100
AcDbEntity
  8
ZUWAKU
100
AcDbCircle
 10
46.64221248129092
 20
9.424999617381381
 30
0.0
 40
0.525
100
AcDbArc
 50
90.0
 51
180.0
  0
ARC
  5
92D
330
1A
100
AcDbEntity
  8
ZUWAKU
100
AcDbCircle
 10
42.96721248129085
 20
7.674999617381381
 30
0.0
 40
0.525
100
AcDbArc
 50
270.0
 51
0.0
  0
ARC
  5
92E
330
1A
100
AcDbEntity
  8
ZUWAKU
100
AcDbCircle
 10
46.64221248129092
 20
7.674999617381381
 30
0.0
 40
0.525
100
AcDbArc
 50
180.0
 51
270.0
  0
LINE
  5
92F
330
1A
100
AcDbEntity
  8
ZUWAKU
100
AcDbLine
 10
46.11721248129083
 20
7.674999617381381
 30
0.0
 11
46.11721248129083
 21
9.424999617381381
 31
0.0
  0
ARC
  5
930
330
1A
100
AcDbEntity
  8
ZUWAKU
100
AcDbCircle
 10
49.61721248129084
 20
10.47499961738138
 30
0.0
 40
0.525
100
AcDbArc
 50
270.0
 51
0.0
  0
ARC
  5
931
330
1A
100
AcDbEntity
  8
ZUWAKU
100
AcDbCircle
 10
48.74221248129083
 20
11.76520164273672
 30
0.0
 40
1.399999999999999
100
AcDbArc
 50
0.0
 51
45.0
  0
LINE
  5
932
330
1A
100
AcDbEntity
  8
ZUWAKU
100
AcDbLine
 10
50.14221248129093
 20
10.47499961738138
 30
0.0
 11
50.14221248129093
 21
11.76520164273672
 31
0.0
  0
ARC
  5
933
330
1A
100
AcDbEntity
  8
ZUWAKU
100
AcDbCircle
 10
58.89221248129093
 20
10.99999961738137
 30
0.0
 40
1.049999999999999
100
AcDbArc
 50
180.0
 51
270.0
  0
ARC
  5
934
330
1A
100
AcDbEntity
  8
ZUWAKU
100
AcDbCircle
 10
48.74221248129083
 20
11.76520164273668
 30
0.0
 40
4.199999999999999
100
AcDbArc
 50
0.0
 51
45.0
  0
LINE
  5
935
330
1A
100
AcDbEntity
  8
ZUWAKU
100
AcDbLine
 10
52.94221248129088
 20
9.949999617381379
 30
0.0
 11
52.94221248129088
 21
11.76520164273672
 31
0.0
  0
ARC
  5
936
330
1A
100
AcDbEntity
  8
ZUWAKU
100
AcDbCircle
 10
61.34221248129086
 20
9.949999617381379
 30
0.0
 40
2.799999999999999
100
AcDbArc
 50
270.0
 51
0.0
  0
LINE
  5
937
330
1A
100
AcDbEntity
  8
ZUWAKU
100
AcDbLine
 10
66.76721248129092
 20
7.149999617381382
 30
0.0
 11
68.51721248129092
 21
7.149999617381382
 31
0.0
  0
ARC
  5
938
330
1A
100
AcDbEntity
  8
ZUWAKU
100
AcDbCircle
 10
60.2922124812909
 20
10.99999961738137
 30
0.0
 40
1.049999999999999
100
AcDbArc
 50
270.0
 51
0.0
  0
ARC
  5
939
330
1A
100
AcDbEntity
  8
ZUWAKU
100
AcDbCircle
 10
66.76721248129092
 20
7.674999617381381
 30
0.0
 40
0.525
100
AcDbArc
 50
180.0
 51
270.0
  0
ARC
  5
93A
330
1A
100
AcDbEntity
  8
ZUWAKU
100
AcDbCircle
 10
68.51721248129092
 20
7.674999617381381
 30
0.0
 40
0.525
100
AcDbArc
 50
270.0
 51
0.0
  0
LINE
  5
93B
330
1A
100
AcDbEntity
  8
ZUWAKU
100
AcDbLine
 10
42.96721248129085
 20
23.24999961738138
 30
0.0
 11
41.21721248129086
 21
23.24999961738138
 31
0.0
  0
LINE
  5
93C
330
1A
100
AcDbEntity
  8
ZUWAKU
100
AcDbLine
 10
27.39221248129092
 20
22.72499961738137
 30
0.0
 11
27.39221248129092
 21
20.97499961738138
 31
0.0
  0
ARC
  5
93D
330
1A
100
AcDbEntity
  8
ZUWAKU
100
AcDbCircle
 10
26.86721248129083
 20
20.97499961738138
 30
0.0
 40
0.525
100
AcDbArc
 50
270.0
 51
0.0
  0
ARC
  5
93E
330
1A
100
AcDbEntity
  8
ZUWAKU
100
AcDbCircle
 10
30.36721248129083
 20
22.72499961738137
 30
0.0
 40
0.525
100
AcDbArc
 50
90.0
 51
180.0
  0
ARC
  5
93F
330
1A
100
AcDbEntity
  8
ZUWAKU
100
AcDbCircle
 10
26.86721248129083
 20
22.72499961738137
 30
0.0
 40
0.525
100
AcDbArc
 50
0.0
 51
90.0
  0
LINE
  5
940
330
1A
100
AcDbEntity
  8
ZUWAKU
100
AcDbLine
 10
32.11721248129083
 20
23.24999961738138
 30
0.0
 11
30.36721248129083
 21
23.24999961738138
 31
0.0
  0
ARC
  5
941
330
1A
100
AcDbEntity
  8
ZUWAKU
100
AcDbCircle
 10
32.11721248129083
 20
22.72499961738137
 30
0.0
 40
0.525
100
AcDbArc
 50
0.0
 51
90.0
  0
ARC
  5
942
330
1A
100
AcDbEntity
  8
ZUWAKU
100
AcDbCircle
 10
36.17697831780219
 20
22.72499961738137
 30
0.0
 40
0.525
100
AcDbArc
 50
90.0
 51
162.4744316262769
  0
LINE
  5
943
330
1A
100
AcDbEntity
  8
ZUWAKU
100
AcDbLine
 10
38.37649859660666
 20
22.56690564921441
 30
0.0
 11
37.31485896346885
 21
19.2050468109448
 31
0.0
  0
ARC
  5
944
330
1A
100
AcDbEntity
  8
ZUWAKU
100
AcDbCircle
 10
37.87586769741119
 20
22.72499961738137
 30
0.0
 40
0.525
100
AcDbArc
 50
342.4744316262769
 51
90.0
  0
LINE
  5
945
330
1A
100
AcDbEntity
  8
ZUWAKU
100
AcDbLine
 10
36.17697831780219
 20
23.24999961738138
 30
0.0
 11
37.87586769741119
 21
23.24999961738138
 31
0.0
  0
ARC
  5
946
330
1A
100
AcDbEntity
  8
ZUWAKU
100
AcDbCircle
 10
41.21721248129086
 20
22.72499961738137
 30
0.0
 40
0.525
100
AcDbArc
 50
90.0
 51
180.0
  0
LINE
  5
947
330
1A
100
AcDbEntity
  8
ZUWAKU
100
AcDbLine
 10
51.89221248129093
 20
20.44999961738138
 30
0.0
 11
48.91721248129091
 21
20.44999961738138
 31
0.0
  0
LINE
  5
948
330
1A
100
AcDbEntity
  8
ZUWAKU
100
AcDbLine
 10
48.39221248129092
 20
23.24999961738138
 30
0.0
 11
51.89221248129093
 21
23.24999961738138
 31
0.0
  0
ARC
  5
949
330
1A
100
AcDbEntity
  8
ZUWAKU
100
AcDbCircle
 10
48.39221248129092
 20
20.44999961738138
 30
0.0
 40
2.799999999999999
100
AcDbArc
 50
90.0
 51
180.0
  0
LINE
  5
94A
330
1A
100
AcDbEntity
  8
ZUWAKU
100
AcDbLine
 10
45.59221248129086
 20
20.44999961738138
 30
0.0
 11
45.59221248129086
 21
18.63479759202603
 31
0.0
  0
ARC
  5
94B
330
1A
100
AcDbEntity
  8
ZUWAKU
100
AcDbCircle
 10
42.96721248129085
 20
22.72499961738137
 30
0.0
 40
0.525
100
AcDbArc
 50
0.0
 51
90.0
  0
LINE
  5
94C
330
1A
100
AcDbEntity
  8
ZUWAKU
100
AcDbLine
 10
48.39221248129092
 20
19.92499961738138
 30
0.0
 11
48.39221248129092
 21
18.63479759202603
 31
0.0
  0
ARC
  5
94D
330
1A
100
AcDbEntity
  8
ZUWAKU
100
AcDbCircle
 10
48.91721248129091
 20
19.92499961738138
 30
0.0
 40
0.525
100
AcDbArc
 50
90.0
 51
180.0
  0
LINE
  5
94E
330
1A
100
AcDbEntity
  8
ZUWAKU
100
AcDbLine
 10
52.4172124812909
 20
22.72499961738137
 30
0.0
 11
52.4172124812909
 21
20.97499961738138
 31
0.0
  0
ARC
  5
94F
330
1A
100
AcDbEntity
  8
ZUWAKU
100
AcDbCircle
 10
51.89221248129093
 20
20.97499961738138
 30
0.0
 40
0.525
100
AcDbArc
 50
270.0
 51
0.0
  0
ARC
  5
950
330
1A
100
AcDbEntity
  8
ZUWAKU
100
AcDbCircle
 10
51.89221248129093
 20
22.72499961738137
 30
0.0
 40
0.525
100
AcDbArc
 50
0.0
 51
90.0
  0
LINE
  5
951
330
1A
100
AcDbEntity
  8
ZUWAKU
100
AcDbLine
 10
57.31721248129088
 20
23.24999961738138
 30
0.0
 11
55.56721248129088
 21
23.24999961738138
 31
0.0
  0
ARC
  5
952
330
1A
100
AcDbEntity
  8
ZUWAKU
100
AcDbCircle
 10
55.56721248129088
 20
22.72499961738137
 30
0.0
 40
0.525
100
AcDbArc
 50
90.0
 51
180.0
  0
ARC
  5
953
330
1A
100
AcDbEntity
  8
ZUWAKU
100
AcDbCircle
 10
57.31721248129088
 20
22.72499961738137
 30
0.0
 40
0.525
100
AcDbArc
 50
0.0
 51
90.0
  0
LINE
  5
954
330
1A
100
AcDbEntity
  8
ZUWAKU
100
AcDbLine
 10
68.51721248129092
 20
23.24999961738138
 30
0.0
 11
66.76721248129092
 21
23.24999961738138
 31
0.0
  0
ARC
  5
955
330
1A
100
AcDbEntity
  8
ZUWAKU
100
AcDbCircle
 10
61.86721248129083
 20
22.72499961738137
 30
0.0
 40
0.525
100
AcDbArc
 50
90.0
 51
180.0
  0
LINE
  5
956
330
1A
100
AcDbEntity
  8
ZUWAKU
100
AcDbLine
 10
63.61721248129083
 20
23.24999961738138
 30
0.0
 11
61.86721248129083
 21
23.24999961738138
 31
0.0
  0
ARC
  5
957
330
1A
100
AcDbEntity
  8
ZUWAKU
100
AcDbCircle
 10
63.61721248129083
 20
22.72499961738137
 30
0.0
 40
0.525
100
AcDbArc
 50
0.0
 51
90.0
  0
ARC
  5
958
330
1A
100
AcDbEntity
  8
ZUWAKU
100
AcDbCircle
 10
66.76721248129092
 20
22.72499961738137
 30
0.0
 40
0.525
100
AcDbArc
 50
90.0
 51
180.0
  0
ARC
  5
959
330
1A
100
AcDbEntity
  8
ZUWAKU
100
AcDbCircle
 10
68.51721248129092
 20
22.72499961738137
 30
0.0
 40
0.525
100
AcDbArc
 50
0.0
 51
90.0
  0
TEXT
  5
95A
330
1A
100
AcDbEntity
  8
MOJI
100
AcDbText
 10
239.8272030073608
 20
18.00492067478876
 30
0.0
 40
5.599999999999999
  1
ブラケット正面打（吊）自在式
 41
0.9
  7
ｽﾀｲﾙ1
100
AcDbText
  0
TEXT
  5
95B
330
1A
100
AcDbEntity
  8
MOJI
100
AcDbText
 10
239.8272030073608
 20
3.204920674788798
 30
0.0
 40
5.599999999999999
  1
ＲＶ１０５－５－１０～４５
 41
0.9
  7
ｽﾀｲﾙ1
100
AcDbText
  0
LINE
  5
95C
330
1A
100
AcDbEntity
  8
ZUWAKU
100
AcDbLine
 10
208.4466016165774
 20
29.99999961738137
 30
0.0
 11
208.4466016165777
 21
0.7999996173814452
 31
0.0
  0
LINE
  5
95D
330
1A
100
AcDbEntity
  8
ZUWAKU
100
AcDbLine
 10
208.6466016165775
 20
29.99999961738137
 30
0.0
 11
208.6466016165777
 21
0.7999996173814452
 31
0.0
  0
LINE
  5
95E
330
1A
100
AcDbEntity
  8
ZUWAKU
100
AcDbLine
 10
208.2466016165776
 20
29.99999961738137
 30
0.0
 11
208.2466016165776
 21
0.7999996173814452
 31
0.0
  0
TEXT
  5
95F
330
1A
100
AcDbEntity
  8
ZUWAKU
100
AcDbText
 10
209.7240466387872
 20
9.655356155766995
 30
0.0
 40
4.0
  1
サイズ
 41
0.9
  7
ｽﾀｲﾙ1
100
AcDbText
  0
TEXT
  5
960
330
1A
100
AcDbEntity
  8
ZUWAKU
100
AcDbText
 10
209.724046638787
 20
24.05535615576695
 30
0.0
 40
4.0
  1
品名
 41
0.9
  7
ｽﾀｲﾙ1
100
AcDbText
  0
TEXT
  5
961
330
1A
100
AcDbEntity
  8
ZUWAKU
100
AcDbText
 10
658.2039380138121
 20
18.00492067478876
 30
0.0
 40
5.599999999999999
  1
　　．　　．　　
 41
0.9
  7
ｽﾀｲﾙ1
100
AcDbText
  0
LINE
  5
962
330
1A
100
AcDbEntity
  8
ZUWAKU
100
AcDbLine
 10
648.8172028367139
 20
15.59999961738141
 30
0.0
 11
697.249010875051
 21
15.59999961738141
 31
0.0
  0
LINE
  5
963
330
1A
100
AcDbEntity
  8
ZUWAKU
100
AcDbLine
 10
648.8172028367142
 20
15.39999961738141
 30
0.0
 11
697.249010875051
 21
15.39999961738141
 31
0.0
  0
LINE
  5
964
330
1A
100
AcDbEntity
  8
ZUWAKU
100
AcDbLine
 10
648.8172028367139
 20
15.19999961738141
 30
0.0
 11
697.249010875051
 21
15.19999961738141
 31
0.0
  0
LINE
  5
965
330
1A
100
AcDbEntity
  8
ZUWAKU
100
AcDbLine
 10
505.1991798246506
 20
15.59999961738141
 30
0.0
 11
552.5269560926221
 21
15.59999961738141
 31
0.0
  0
LINE
  5
966
330
1A
100
AcDbEntity
  8
ZUWAKU
100
AcDbLine
 10
505.1991798246506
 20
15.39999961738141
 30
0.0
 11
552.5269560926221
 21
15.39999961738141
 31
0.0
  0
LINE
  5
967
330
1A
100
AcDbEntity
  8
ZUWAKU
100
AcDbLine
 10
505.1991798246506
 20
15.19999961738141
 30
0.0
 11
552.5269560926221
 21
15.19999961738141
 31
0.0
  0
LINE
  5
968
330
1A
100
AcDbEntity
  8
ZUWAKU
100
AcDbLine
 10
504.7991798246507
 20
29.99999961738137
 30
0.0
 11
504.7991798246507
 21
0.7999996173814452
 31
0.0
  0
LINE
  5
969
330
1A
100
AcDbEntity
  8
ZUWAKU
100
AcDbLine
 10
505.1991798246506
 20
29.99999961738137
 30
0.0
 11
505.1991798246509
 21
0.7999996173814452
 31
0.0
  0
LINE
  5
96A
330
1A
100
AcDbEntity
  8
ZUWAKU
100
AcDbLine
 10
504.9991798246505
 20
29.99999961738137
 30
0.0
 11
504.9991798246508
 21
0.7999996173814452
 31
0.0
  0
TEXT
  5
96B
330
1A
100
AcDbEntity
  8
MOJI
100
AcDbText
 10
528.0409082988226
 20
18.00492067478876
 30
0.0
 40
5.599999999999999
  1
Ａ３
 41
0.9
  7
ｽﾀｲﾙ1
100
AcDbText
  0
LINE
  5
96C
330
1A
100
AcDbEntity
  8
ZUWAKU
100
AcDbLine
 10
447.4243642975011
 20
29.99999961738137
 30
0.0
 11
447.4243642975011
 21
0.7999996173814452
 31
0.0
  0
LINE
  5
96D
330
1A
100
AcDbEntity
  8
ZUWAKU
100
AcDbLine
 10
447.824364297501
 20
29.99999961738137
 30
0.0
 11
447.8243642975012
 21
0.7999996173814452
 31
0.0
  0
LINE
  5
96E
330
1A
100
AcDbEntity
  8
ZUWAKU
100
AcDbLine
 10
447.6243642975009
 20
29.99999961738137
 30
0.0
 11
447.6243642975012
 21
0.7999996173814452
 31
0.0
  0
TEXT
  5
96F
330
1A
100
AcDbEntity
  8
MOJI
100
AcDbText
 10
464.5946263297487
 20
11.94261733904136
 30
0.0
 40
5.599999999999999
  1
ＬＨ５８□
 41
0.9
  7
ｽﾀｲﾙ1
100
AcDbText
  0
TEXT
  5
970
330
1A
100
AcDbEntity
  8
ZUWAKU
100
AcDbText
 10
462.6937619820169
 20
2.614070528520869
 30
0.0
 40
3.0
  1
□には色品番が入ります
 41
0.9
  7
ｽﾀｲﾙ1
100
AcDbText
  0
TEXT
  5
971
330
1A
100
AcDbEntity
  8
ZUWAKU
100
AcDbText
 10
506.6766248468605
 20
9.655356155766995
 30
0.0
 40
4.0
  1
縮尺
 41
0.9
  7
ｽﾀｲﾙ1
100
AcDbText
  0
TEXT
  5
972
330
1A
100
AcDbEntity
  8
MOJI
100
AcDbText
 10
528.0409082988226
 20
3.204920674788798
 30
0.0
 40
5.599999999999999
  1
１/２
 41
0.9
  7
ｽﾀｲﾙ1
100
AcDbText
  0
TEXT
  5
973
330
1A
100
AcDbEntity
  8
ZUWAKU
100
AcDbText
 10
449.3018093197106
 20
24.05535615576695
 30
0.0
 40
4.0
  1
品番
 41
0.9
  7
ｽﾀｲﾙ1
100
AcDbText
  0
TEXT
  5
974
330
1A
100
AcDbEntity
  8
ZUWAKU
100
AcDbText
 10
506.6766248468602
 20
24.05535615576695
 30
0.0
 40
4.0
  1
用紙
 41
0.9
  7
ｽﾀｲﾙ1
100
AcDbText
  0
LINE
  5
975
330
1A
100
AcDbEntity
  8
ZUWAKU
100
AcDbLine
 10
552.5269560926221
 20
29.99999961738137
 30
0.0
 11
552.5269560926221
 21
0.7999996173814452
 31
0.0
  0
LINE
  5
976
330
1A
100
AcDbEntity
  8
ZUWAKU
100
AcDbLine
 10
552.926956092622
 20
29.99999961738137
 30
0.0
 11
552.9269560926223
 21
0.7999996173814452
 31
0.0
  0
LINE
  5
977
330
1A
100
AcDbEntity
  8
ZUWAKU
100
AcDbLine
 10
552.726956092622
 20
29.99999961738137
 30
0.0
 11
552.7269560926222
 21
0.7999996173814452
 31
0.0
  0
LINE
  5
978
330
1A
100
AcDbEntity
  8
ZUWAKU
100
AcDbLine
 10
648.4172028367143
 20
29.99999961738137
 30
0.0
 11
648.4172028367143
 21
0.7999996173814452
 31
0.0
  0
LINE
  5
979
330
1A
100
AcDbEntity
  8
ZUWAKU
100
AcDbLine
 10
648.8172028367142
 20
29.99999961738137
 30
0.0
 11
648.8172028367143
 21
0.7999996173814452
 31
0.0
  0
LINE
  5
97A
330
1A
100
AcDbEntity
  8
ZUWAKU
100
AcDbLine
 10
648.6172028367141
 20
29.99999961738137
 30
0.0
 11
648.6172028367143
 21
0.7999996173814452
 31
0.0
  0
TEXT
  5
97B
330
1A
100
AcDbEntity
  8
ZUWAKU
100
AcDbText
 10
650.2946478589238
 20
24.05535615576695
 30
0.0
 40
4.0
  1
DATE
 41
0.9
  7
ｽﾀｲﾙ1
100
AcDbText
  0
TEXT
  5
97C
330
1A
100
AcDbEntity
  8
ZUWAKU
100
AcDbText
 10
708.5280845187535
 20
17.55383895306818
 30
0.0
 40
6.0
  1
積水化学工業株式会社
 41
0.9
  7
ｽﾀｲﾙ1
100
AcDbText
  0
LINE
  5
97D
330
1A
100
AcDbEntity
  8
ZUWAKU
100
AcDbLine
 10
697.8490108750508
 20
29.99999961738137
 30
0.0
 11
697.8490108750511
 21
0.7999996173814452
 31
0.0
  0
LINE
  5
97E
330
1A
100
AcDbEntity
  8
ZUWAKU
100
AcDbLine
 10
697.6490108750509
 20
29.99999961738137
 30
0.0
 11
697.649010875051
 21
0.7999996173814452
 31
0.0
  0
LINE
  5
97F
330
1A
100
AcDbEntity
  8
ZUWAKU
100
AcDbLine
 10
697.449010875051
 20
29.99999961738137
 30
0.0
 11
697.449010875051
 21
0.7999996173814452
 31
0.0
  0
LINE
  5
980
330
1A
100
AcDbEntity
  8
ZUWAKU
100
AcDbLine
 10
697.249010875051
 20
29.99999961738137
 30
0.0
 11
697.249010875051
 21
0.7999996173814452
 31
0.0
  0
TEXT
  5
981
330
1A
100
AcDbEntity
  8
ZUWAKU
100
AcDbText
 10
708.5280845187535
 20
6.648839931235443
 30
0.0
 40
6.0
  1
建材事業部
 41
0.9
  7
ｽﾀｲﾙ1
100
AcDbText
  0
VIEWPORT
  5
22
330
17
100
AcDbEntity
 67
     1
  8
0
100
AcDbViewport
 10
313.6808219178082
 20
148.5
 30
0.0
 40
627.3616438356165
 41
297.0
 68
     2
 69
     1
1001
ACAD
1000
MVIEW
1002
{
1070
    16
1010
0.0
1020
0.0
1030
0.0
1010
0.0
1020
0.0
1030
1.0
1040
0.0
1040
297.0
1040
313.6808219178082
1040
148.5
1040
50.0
1040
0.0
1040
0.0
1070
     0
1070
   100
1070
     1
1070
     0
1070
     0
1070
     0
1070
     0
1070
     0
1040
0.0
1040
0.0
1040
0.0
1040
1.0
1040
1.0
1040
10.0
1040
10.0
1070
     0
1002
{
1002
}
1002
}
  0
VIEWPORT
  5
64
330
17
100
AcDbEntity
 67
     1
  8
VIEWPORT
100
AcDbViewport
 10
210.0
 20
148.5
 30
0.0
 40
420.0
 41
297.0
 68
     1
 69
     2
1001
ACAD
1000
MVIEW
1002
{
1070
    16
1010
0.0
1020
0.0
1030
0.0
1010
0.0
1020
0.0
1030
1.0
1040
0.0
1040
605.8799999999998
1040
420.0
1040
297.0
1040
50.0
1040
0.0
1040
0.0
1070
     0
1070
   100
1070
     1
1070
     0
1070
     0
1070
     0
1070
     0
1070
     0
1040
0.0
1040
0.0
1040
0.0
1040
10.0
1040
10.0
1040
0.0
1040
0.0
1070
     0
1002
{
1002
}
1002
}
  0
ENDSEC
  0
SECTION
  2
OBJECTS
  0
DICTIONARY
  5
C
330
0
100
AcDbDictionary
  3
ACAD_GROUP
350
D
  3
ACAD_LAYOUT
350
7D4
  3
ACAD_MLINESTYLE
350
E
  3
ACAD_PLOTSETTINGS
350
7D5
  3
ACAD_PLOTSTYLENAME
350
7D2
  3
ACDBHEADERROUNDTRIPXREC
350
989
  0
DICTIONARY
  5
803
330
1A
100
AcDbDictionary
280
     1
  3
ACAD_LAYOUTSELFREF
360
9AB
  0
DICTIONARY
  5
801
330
17
100
AcDbDictionary
280
     1
  3
ACAD_LAYOUTSELFREF
360
9AA
  0
DICTIONARY
  5
D
102
{ACAD_REACTORS
330
C
102
}
330
C
100
AcDbDictionary
  0
DICTIONARY
  5
7D4
102
{ACAD_REACTORS
330
C
102
}
330
C
100
AcDbDictionary
  0
DICTIONARY
  5
E
102
{ACAD_REACTORS
330
C
102
}
330
C
100
AcDbDictionary
  3
STANDARD
350
13
  0
DICTIONARY
  5
7D5
102
{ACAD_REACTORS
330
C
102
}
330
C
100
AcDbDictionary
  0
ACDBDICTIONARYWDFLT
  5
7D2
102
{ACAD_REACTORS
330
C
102
}
330
C
100
AcDbDictionary
281
     1
  3
Normal
350
7D3
100
AcDbDictionaryWithDefault
340
7D3
1001
ACAD
1000
TREAT_AS_HARD
1070
     0
  0
DICTIONARY
  5
989
102
{ACAD_REACTORS
330
C
102
}
330
C
100
AcDbDictionary
  3
TSTACKALIGN
350
98A
  3
TSTACKSIZE
350
98B
  3
HYPERLINKBASE
350
98C
  3
STYLESHEET
350
98D
  3
LAYOUTDICT
350
98E
  3
PLOTSETDICT
350
98F
  3
PLOTSTYLNAMDICT
350
990
  3
LWETCUNION
350
991
  3
INSUNITS
350
992
  3
CEPSNTYPE
350
993
  3
FINGERPRINTGUID
350
994
  3
VERSIONGUID
350
995
  3
PSVPSCALE
350
996
  3
DIMSTYLEDATA
350
997
  3
PUCSORTHOREF
350
998
  3
PUCSORTHOVIEW
350
999
  3
PUCSBASE
350
99A
  3
PUCSORGTOP
350
99B
  3
PUCSORGBOTTOM
350
99C
  3
PUCSORGLEFT
350
99D
  3
PUCSORGRIGHT
350
99E
  3
PUCSORGFRONT
350
99F
  3
PUCSORGBACK
350
9A0
  3
UCSORTHOREF
350
9A1
  3
UCSORTHOVIEW
350
9A2
  3
UCSBASE
350
9A3
  3
UCSORGTOP
350
9A4
  3
UCSORGBOTTOM
350
9A5
  3
UCSORGLEFT
350
9A6
  3
UCSORGRIGHT
350
9A7
  3
UCSORGFRONT
350
9A8
  3
UCSORGBACK
350
9A9
  0
XRECORD
  5
9AB
102
{ACAD_REACTORS
330
803
102
}
330
803
100
AcDbXrecord
340
1A
  0
XRECORD
  5
9AA
102
{ACAD_REACTORS
330
801
102
}
330
801
100
AcDbXrecord
340
17
  0
MLINESTYLE
  5
13
102
{ACAD_REACTORS
330
E
102
}
330
E
100
AcDbMlineStyle
  2
STANDARD
 70
     0
  3

 62
     0
 51
90.0
 52
90.0
 71
     2
 49
0.5
 62
   256
  6
BYLAYER
 49
-0.5
 62
   256
  6
BYLAYER
  0
ACDBPLACEHOLDER
  5
7D3
102
{ACAD_REACTORS
330
7D2
102
}
330
7D2
100
AcDbPlaceHolder
280
     0
  0
XRECORD
  5
98A
102
{ACAD_REACTORS
330
989
102
}
330
989
100
AcDbXrecord
 90
        1
  0
XRECORD
  5
98B
102
{ACAD_REACTORS
330
989
102
}
330
989
100
AcDbXrecord
 90
       70
  0
XRECORD
  5
98C
102
{ACAD_REACTORS
330
989
102
}
330
989
100
AcDbXrecord
  1

  0
XRECORD
  5
98D
102
{ACAD_REACTORS
330
989
102
}
330
989
100
AcDbXrecord
  1
systemprinter.ctb
  0
XRECORD
  5
98E
102
{ACAD_REACTORS
330
989
102
}
330
989
100
AcDbXrecord
340
7D4
  0
XRECORD
  5
98F
102
{ACAD_REACTORS
330
989
102
}
330
989
100
AcDbXrecord
340
7D5
  0
XRECORD
  5
990
102
{ACAD_REACTORS
330
989
102
}
330
989
100
AcDbXrecord
340
7D2
  0
XRECORD
  5
991
102
{ACAD_REACTORS
330
989
102
}
330
989
100
AcDbXrecord
 90
    10781
  0
XRECORD
  5
992
102
{ACAD_REACTORS
330
989
102
}
330
989
100
AcDbXrecord
 90
        0
  0
XRECORD
  5
993
102
{ACAD_REACTORS
330
989
102
}
330
989
100
AcDbXrecord
 90
        0
  0
XRECORD
  5
994
102
{ACAD_REACTORS
330
989
102
}
330
989
100
AcDbXrecord
  1
{2F445C81-2244-404B-B0F9-4BFD598C65AD}
  0
XRECORD
  5
995
102
{ACAD_REACTORS
330
989
102
}
330
989
100
AcDbXrecord
  1
{707C48D5-8EAD-4083-8B0F-B7BF7425CCFB}
  0
XRECORD
  5
996
102
{ACAD_REACTORS
330
989
102
}
330
989
100
AcDbXrecord
 40
0.0
  0
XRECORD
  5
997
102
{ACAD_REACTORS
330
989
102
}
330
989
100
AcDbXrecord
1000
DSTYLE
1002
{
1070
   341
340
6D
1070
   343
340
6D
1070
   344
340
6D
1070
   371
 70
    -1
1070
   372
 70
    -1
1002
}
  0
XRECORD
  5
998
102
{ACAD_REACTORS
330
989
102
}
330
989
100
AcDbXrecord
340
0
  0
XRECORD
  5
999
102
{ACAD_REACTORS
330
989
102
}
330
989
100
AcDbXrecord
 70
     0
  0
XRECORD
  5
99A
102
{ACAD_REACTORS
330
989
102
}
330
989
100
AcDbXrecord
340
0
  0
XRECORD
  5
99B
102
{ACAD_REACTORS
330
989
102
}
330
989
100
AcDbXrecord
 10
0.0
 20
0.0
 30
0.0
  0
XRECORD
  5
99C
102
{ACAD_REACTORS
330
989
102
}
330
989
100
AcDbXrecord
 10
0.0
 20
0.0
 30
0.0
  0
XRECORD
  5
99D
102
{ACAD_REACTORS
330
989
102
}
330
989
100
AcDbXrecord
 10
0.0
 20
0.0
 30
0.0
  0
XRECORD
  5
99E
102
{ACAD_REACTORS
330
989
102
}
330
989
100
AcDbXrecord
 10
0.0
 20
0.0
 30
0.0
  0
XRECORD
  5
99F
102
{ACAD_REACTORS
330
989
102
}
330
989
100
AcDbXrecord
 10
0.0
 20
0.0
 30
0.0
  0
XRECORD
  5
9A0
102
{ACAD_REACTORS
330
989
102
}
330
989
100
AcDbXrecord
 10
0.0
 20
0.0
 30
0.0
  0
XRECORD
  5
9A1
102
{ACAD_REACTORS
330
989
102
}
330
989
100
AcDbXrecord
340
0
  0
XRECORD
  5
9A2
102
{ACAD_REACTORS
330
989
102
}
330
989
100
AcDbXrecord
 70
     0
  0
XRECORD
  5
9A3
102
{ACAD_REACTORS
330
989
102
}
330
989
100
AcDbXrecord
340
0
  0
XRECORD
  5
9A4
102
{ACAD_REACTORS
330
989
102
}
330
989
100
AcDbXrecord
 10
0.0
 20
0.0
 30
0.0
  0
XRECORD
  5
9A5
102
{ACAD_REACTORS
330
989
102
}
330
989
100
AcDbXrecord
 10
0.0
 20
0.0
 30
0.0
  0
XRECORD
  5
9A6
102
{ACAD_REACTORS
330
989
102
}
330
989
100
AcDbXrecord
 10
0.0
 20
0.0
 30
0.0
  0
XRECORD
  5
9A7
102
{ACAD_REACTORS
330
989
102
}
330
989
100
AcDbXrecord
 10
0.0
 20
0.0
 30
0.0
  0
XRECORD
  5
9A8
102
{ACAD_REACTORS
330
989
102
}
330
989
100
AcDbXrecord
 10
0.0
 20
0.0
 30
0.0
  0
XRECORD
  5
9A9
102
{ACAD_REACTORS
330
989
102
}
330
989
100
AcDbXrecord
 10
0.0
 20
0.0
 30
0.0
  0
ENDSEC
  0
EOF
