  0
SECTION
  2
HEADER
  9
$ACADVER
  1
AC1014
  9
$ACADMAINTVER
 70
     9
  9
$DWGCODEPAGE
  3
ANSI_932
  9
$INSBASE
 10
0.0
 20
0.0
 30
0.0
  9
$EXTMIN
 10
-0.0256328098773793
 20
-0.0181264410437052
 30
-0.0015258207003583
  9
$EXTMAX
 10
797.6000995626677
 20
551.6452344607209
 30
0.0000000349246037
  9
$LIMMIN
 10
0.0
 20
0.0
  9
$LIMMAX
 10
840.0
 20
594.0
  9
$ORTHOMODE
 70
     0
  9
$REGENMODE
 70
     1
  9
$FILLMODE
 70
     1
  9
$QTEXTMODE
 70
     0
  9
$MIRRTEXT
 70
     1
  9
$DRAGMODE
 70
     2
  9
$LTSCALE
 40
2.0
  9
$OSMODE
 70
    35
  9
$ATTMODE
 70
     1
  9
$TEXTSIZE
 40
5.0
  9
$TRACEWID
 40
1.0
  9
$TEXTSTYLE
  7
STANDARD
  9
$CLAYER
  8
ZUWAKU
  9
$CELTYPE
  6
BYLAYER
  9
$CECOLOR
 62
   256
  9
$CELTSCALE
 40
1.0
  9
$DELOBJ
 70
     1
  9
$DISPSILH
 70
     0
  9
$DIMSCALE
 40
1.0
  9
$DIMASZ
 40
7.0
  9
$DIMEXO
 40
6.0
  9
$DIMDLI
 40
14.0
  9
$DIMRND
 40
0.0
  9
$DIMDLE
 40
0.0
  9
$DIMEXE
 40
3.0
  9
$DIMTP
 40
0.0
  9
$DIMTM
 40
0.0
  9
$DIMTXT
 40
6.0
  9
$DIMCEN
 40
150.0
  9
$DIMTSZ
 40
0.0
  9
$DIMTOL
 70
     0
  9
$DIMLIM
 70
     0
  9
$DIMTIH
 70
     0
  9
$DIMTOH
 70
     0
  9
$DIMSE1
 70
     0
  9
$DIMSE2
 70
     0
  9
$DIMTAD
 70
     3
  9
$DIMZIN
 70
     0
  9
$DIMBLK
  1

  9
$DIMASO
 70
     1
  9
$DIMSHO
 70
     1
  9
$DIMPOST
  1

  9
$DIMAPOST
  1

  9
$DIMALT
 70
     0
  9
$DIMALTD
 70
     2
  9
$DIMALTF
 40
25.4
  9
$DIMLFAC
 40
1.0
  9
$DIMTOFL
 70
     1
  9
$DIMTVP
 40
0.0
  9
$DIMTIX
 70
     0
  9
$DIMSOXD
 70
     0
  9
$DIMSAH
 70
     1
  9
$DIMBLK1
  1
OPEN
  9
$DIMBLK2
  1
OPEN
  9
$DIMSTYLE
  2
STANDARD
  9
$DIMCLRD
 70
   256
  9
$DIMCLRE
 70
   256
  9
$DIMCLRT
 70
   256
  9
$DIMTFAC
 40
1.0
  9
$DIMGAP
 40
2.0
  9
$DIMJUST
 70
     0
  9
$DIMSD1
 70
     0
  9
$DIMSD2
 70
     0
  9
$DIMTOLJ
 70
     1
  9
$DIMTZIN
 70
     0
  9
$DIMALTZ
 70
     0
  9
$DIMALTTZ
 70
     0
  9
$DIMFIT
 70
     3
  9
$DIMUPT
 70
     0
  9
$DIMUNIT
 70
     2
  9
$DIMDEC
 70
     0
  9
$DIMTDEC
 70
     0
  9
$DIMALTU
 70
     2
  9
$DIMALTTD
 70
     2
  9
$DIMTXSTY
  7
STANDARD
  9
$DIMAUNIT
 70
     0
  9
$LUNITS
 70
     2
  9
$LUPREC
 70
     4
  9
$SKETCHINC
 40
1.0
  9
$FILLETRAD
 40
20.0
  9
$AUNITS
 70
     0
  9
$AUPREC
 70
     0
  9
$MENU
  1
.
  9
$ELEVATION
 40
0.0
  9
$PELEVATION
 40
0.0
  9
$THICKNESS
 40
0.0
  9
$LIMCHECK
 70
     0
  9
$BLIPMODE
 70
     0
  9
$CHAMFERA
 40
20.0
  9
$CHAMFERB
 40
20.0
  9
$CHAMFERC
 40
40.0
  9
$CHAMFERD
 40
0.0
  9
$SKPOLY
 70
     0
  9
$TDCREATE
 40
2451190.494948611
  9
$TDUPDATE
 40
2453802.482453518
  9
$TDINDWG
 40
0.0803132060
  9
$TDUSRTIMER
 40
0.0803132060
  9
$USRTIMER
 70
     1
  9
$ANGBASE
 50
0.0
  9
$ANGDIR
 70
     0
  9
$PDMODE
 70
     0
  9
$PDSIZE
 40
0.0
  9
$PLINEWID
 40
0.0
  9
$COORDS
 70
     1
  9
$SPLFRAME
 70
     0
  9
$SPLINETYPE
 70
     6
  9
$SPLINESEGS
 70
     8
  9
$ATTDIA
 70
     0
  9
$ATTREQ
 70
     1
  9
$HANDLING
 70
 10241
  9
$HANDSEED
  5
ADB
  9
$SURFTAB1
 70
     6
  9
$SURFTAB2
 70
     6
  9
$SURFTYPE
 70
     6
  9
$SURFU
 70
     6
  9
$SURFV
 70
     6
  9
$UCSNAME
  2

  9
$UCSORG
 10
0.0
 20
0.0
 30
0.0
  9
$UCSXDIR
 10
1.0
 20
0.0
 30
0.0
  9
$UCSYDIR
 10
0.0
 20
1.0
 30
0.0
  9
$PUCSNAME
  2

  9
$PUCSORG
 10
0.0
 20
0.0
 30
0.0
  9
$PUCSXDIR
 10
1.0
 20
0.0
 30
0.0
  9
$PUCSYDIR
 10
0.0
 20
1.0
 30
0.0
  9
$USERI1
 70
     0
  9
$USERI2
 70
     0
  9
$USERI3
 70
     0
  9
$USERI4
 70
     0
  9
$USERI5
 70
     0
  9
$USERR1
 40
0.0
  9
$USERR2
 40
0.0
  9
$USERR3
 40
0.0
  9
$USERR4
 40
0.0
  9
$USERR5
 40
0.0
  9
$WORLDVIEW
 70
     1
  9
$SHADEDGE
 70
     3
  9
$SHADEDIF
 70
    70
  9
$TILEMODE
 70
     1
  9
$MAXACTVP
 70
    16
  9
$PINSBASE
 10
0.0
 20
0.0
 30
0.0
  9
$PLIMCHECK
 70
     0
  9
$PEXTMIN
 10
0.0
 20
0.0
 30
0.0
  9
$PEXTMAX
 10
420.0
 20
297.0
 30
0.0
  9
$PLIMMIN
 10
0.0
 20
0.0
  9
$PLIMMAX
 10
420.0
 20
297.0
  9
$UNITMODE
 70
     0
  9
$VISRETAIN
 70
     0
  9
$PLINEGEN
 70
     0
  9
$PSLTSCALE
 70
     1
  9
$TREEDEPTH
 70
  3020
  9
$PICKSTYLE
 70
     1
  9
$CMLSTYLE
  2
STANDARD
  9
$CMLJUST
 70
     0
  9
$CMLSCALE
 40
1.0
  9
$PROXYGRAPHICS
 70
     1
  9
$MEASUREMENT
 70
     1
  0
ENDSEC
  0
SECTION
  2
CLASSES
  0
CLASS
  1
ACDBDICTIONARYWDFLT
  2
AcDbDictionaryWithDefault
  3
AutoCAD 2000
 90
        0
280
     0
281
     0
  0
CLASS
  1
ACDBPLACEHOLDER
  2
AcDbPlaceHolder
  3
AutoCAD 2000
 90
        0
280
     0
281
     0
  0
CLASS
  1
LAYOUT
  2
AcDbLayout
  3
AutoCAD 2000
 90
        0
280
     0
281
     0
  0
CLASS
  1
LONG_TRANSACTION
  2
AcDbLongTransaction
  3
AutoCAD 2000
 90
        0
280
     0
281
     0
  0
CLASS
  1
LWPOLYLINE
  2
AcDbPolyline
  3
AutoCAD 2000
 90
        0
280
     0
281
     1
  0
CLASS
  1
HATCH
  2
AcDbHatch
  3
AutoCAD 2000
 90
        0
280
     0
281
     1
  0
CLASS
  1
XRECORD
  2
AcDbXrecord
  3
AutoCAD 2000
 90
        0
280
     0
281
     0
  0
CLASS
  1
LONG_TRANSACTION
  2
AcDbLongTransaction
  3
AutoCAD 2000
 90
        0
280
     0
281
     0
  0
CLASS
  1
LWPOLYLINE
  2
AcDbPolyline
  3
AutoCAD 2000
 90
        0
280
     0
281
     1
  0
CLASS
  1
HATCH
  2
AcDbHatch
  3
AutoCAD 2000
 90
        0
280
     0
281
     1
  0
CLASS
  1
XRECORD
  2
AcDbXrecord
  3
AutoCAD 2000
 90
        0
280
     0
281
     0
  0
ENDSEC
  0
SECTION
  2
TABLES
  0
TABLE
  2
VPORT
  5
8
330
0
100
AcDbSymbolTable
 70
     2
  0
VPORT
  5
AB7
330
8
100
AcDbSymbolTableRecord
100
AcDbViewportTableRecord
  2
*ACTIVE
 70
     0
 10
0.0
 20
0.0
 11
1.0
 21
1.0
 12
462.9577304364223
 22
264.1707711823252
 13
0.0
 23
0.0
 14
5.0
 24
5.0
 15
0.0
 25
0.0
 16
0.0
 26
0.0
 36
1.0
 17
0.0
 27
0.0
 37
0.0
 40
628.4698787900288
 41
1.795454545454545
 42
50.0
 43
0.0
 44
0.0
 50
0.0
 51
0.0
 71
     0
 72
   100
 73
     1
 74
     0
 75
     0
 76
     0
 77
     0
 78
     0
  0
ENDTAB
  0
TABLE
  2
LTYPE
  5
5
330
0
100
AcDbSymbolTable
 70
     3
  0
LTYPE
  5
14
330
5
100
AcDbSymbolTableRecord
100
AcDbLinetypeTableRecord
  2
BYBLOCK
 70
     0
  3

 72
    65
 73
     0
 40
0.0
  0
LTYPE
  5
15
330
5
100
AcDbSymbolTableRecord
100
AcDbLinetypeTableRecord
  2
BYLAYER
 70
     0
  3

 72
    65
 73
     0
 40
0.0
  0
LTYPE
  5
16
330
5
100
AcDbSymbolTableRecord
100
AcDbLinetypeTableRecord
  2
CONTINUOUS
 70
     0
  3
Solid line
 72
    65
 73
     0
 40
0.0
  0
LTYPE
  5
115
330
5
100
AcDbSymbolTableRecord
100
AcDbLinetypeTableRecord
  2
PHANTOM
 70
     0
  3
______  __  __  ______  __  __  ______  __  __ 
 72
    65
 73
     6
 40
2.5
 49
1.25
 74
     0
 49
-0.25
 74
     0
 49
0.25
 74
     0
 49
-0.25
 74
     0
 49
0.25
 74
     0
 49
-0.25
 74
     0
  0
LTYPE
  5
135
330
5
100
AcDbSymbolTableRecord
100
AcDbLinetypeTableRecord
  2
CENTER
 70
     0
  3
____ _ ____ _ ____ _ ____ _ ____ _ ____ _ ____ 
 72
    65
 73
     4
 40
2.0
 49
1.25
 74
     0
 49
-0.25
 74
     0
 49
0.25
 74
     0
 49
-0.25
 74
     0
  0
ENDTAB
  0
TABLE
  2
LAYER
  5
2
330
0
100
AcDbSymbolTable
 70
     9
  0
LAYER
  5
F
330
2
100
AcDbSymbolTableRecord
100
AcDbLayerTableRecord
  2
0
 70
     0
 62
     7
  6
CONTINUOUS
  0
LAYER
  5
62
330
2
100
AcDbSymbolTableRecord
100
AcDbLayerTableRecord
  2
VIEWPORT
 70
     0
 62
     7
  6
CONTINUOUS
  0
LAYER
  5
65
330
2
100
AcDbSymbolTableRecord
100
AcDbLayerTableRecord
  2
ZUWAKU
 70
     0
 62
     7
  6
CONTINUOUS
  0
LAYER
  5
151
330
2
100
AcDbSymbolTableRecord
100
AcDbLayerTableRecord
  2
SEIHIN
 70
     0
 62
     3
  6
CONTINUOUS
  0
LAYER
  5
152
330
2
100
AcDbSymbolTableRecord
100
AcDbLayerTableRecord
  2
SUNPOU
 70
     0
 62
     4
  6
CONTINUOUS
  0
LAYER
  5
153
330
2
100
AcDbSymbolTableRecord
100
AcDbLayerTableRecord
  2
CENTER_L
 70
     0
 62
     1
  6
CENTER
  0
LAYER
  5
154
330
2
100
AcDbSymbolTableRecord
100
AcDbLayerTableRecord
  2
DEFPOINTS
 70
     0
 62
     7
  6
CONTINUOUS
  0
LAYER
  5
3B9
330
2
100
AcDbSymbolTableRecord
100
AcDbLayerTableRecord
  2
NOKITOI
 70
     0
 62
     8
  6
PHANTOM
  0
LAYER
  5
940
330
2
100
AcDbSymbolTableRecord
100
AcDbLayerTableRecord
  2
MOJI
 70
     0
 62
     2
  6
CONTINUOUS
  0
ENDTAB
  0
TABLE
  2
STYLE
  5
3
330
0
100
AcDbSymbolTable
 70
     2
  0
STYLE
  5
10
330
3
100
AcDbSymbolTableRecord
100
AcDbTextStyleTableRecord
  2
STANDARD
 70
     0
 40
0.0
 41
1.0
 50
0.0
 71
     0
 42
5.0
  3
TXT
  4
bigfont.shx
  0
STYLE
  5
941
330
3
100
AcDbSymbolTableRecord
100
AcDbTextStyleTableRecord
  2
ｽﾀｲﾙ1
 70
     0
 40
0.0
 41
1.0
 50
0.0
 71
     0
 42
2.5
  3
MS PGothic.ttf
  4

1001
ACAD
1000
MS PGothic
1071
    32818
  0
ENDTAB
  0
TABLE
  2
VIEW
  5
6
330
0
100
AcDbSymbolTable
 70
     0
  0
ENDTAB
  0
TABLE
  2
UCS
  5
7
330
0
100
AcDbSymbolTable
 70
     0
  0
ENDTAB
  0
TABLE
  2
APPID
  5
9
330
0
100
AcDbSymbolTable
 70
     1
  0
APPID
  5
11
330
9
100
AcDbSymbolTableRecord
100
AcDbRegAppTableRecord
  2
ACAD
 70
     0
  0
ENDTAB
  0
TABLE
  2
DIMSTYLE
  5
A
330
0
100
AcDbSymbolTable
 70
     1
  0
DIMSTYLE
105
1D
102
{ACAD_REACTORS
330
27B
330
6D9
330
6E8
330
6F6
330
703
330
710
330
72E
330
752
330
761
330
770
330
77D
330
7F5
330
81A
330
82C
330
839
330
84C
102
}
330
A
100
AcDbSymbolTableRecord
100
AcDbDimStyleTableRecord
  2
STANDARD
 70
     0
  3

  4

  5

  6

  7

 40
1.0
 41
0.18
 42
0.0625
 43
0.38
 44
0.18
 45
0.0
 46
0.0
 47
0.0
 48
0.0
140
0.18
141
0.09
142
0.0
143
25.4
144
1.0
145
0.0
146
1.0
147
0.09
 71
     0
 72
     0
 73
     1
 74
     1
 75
     0
 76
     0
 77
     0
 78
     0
170
     0
171
     2
172
     0
173
     0
174
     0
175
     0
176
     0
177
     0
178
     0
270
     2
271
     4
272
     4
273
     2
274
     2
340
10
275
     0
280
     0
281
     0
282
     0
283
     1
284
     0
285
     0
286
     0
287
     3
288
     0
  0
ENDTAB
  0
TABLE
  2
BLOCK_RECORD
  5
1
330
0
100
AcDbSymbolTable
 70
    17
  0
BLOCK_RECORD
  5
1A
102
{ACAD_XDICTIONARY
360
932
102
}
330
1
100
AcDbSymbolTableRecord
100
AcDbBlockTableRecord
  2
*MODEL_SPACE
  0
BLOCK_RECORD
  5
17
102
{ACAD_XDICTIONARY
360
930
102
}
330
1
100
AcDbSymbolTableRecord
100
AcDbBlockTableRecord
  2
*PAPER_SPACE
  0
BLOCK_RECORD
  5
6D
330
1
100
AcDbSymbolTableRecord
100
AcDbBlockTableRecord
  2
_OPEN
  0
BLOCK_RECORD
  5
39D
330
1
100
AcDbSymbolTableRecord
100
AcDbBlockTableRecord
  2
*D1
  0
BLOCK_RECORD
  5
6CD
330
1
100
AcDbSymbolTableRecord
100
AcDbBlockTableRecord
  2
*D2
  0
BLOCK_RECORD
  5
6DA
330
1
100
AcDbSymbolTableRecord
100
AcDbBlockTableRecord
  2
*D3
  0
BLOCK_RECORD
  5
6EA
330
1
100
AcDbSymbolTableRecord
100
AcDbBlockTableRecord
  2
*D4
  0
BLOCK_RECORD
  5
6F7
330
1
100
AcDbSymbolTableRecord
100
AcDbBlockTableRecord
  2
*D5
  0
BLOCK_RECORD
  5
704
330
1
100
AcDbSymbolTableRecord
100
AcDbBlockTableRecord
  2
*D6
  0
BLOCK_RECORD
  5
722
330
1
100
AcDbSymbolTableRecord
100
AcDbBlockTableRecord
  2
*D7
  0
BLOCK_RECORD
  5
744
330
1
100
AcDbSymbolTableRecord
100
AcDbBlockTableRecord
  2
*D8
  0
BLOCK_RECORD
  5
753
330
1
100
AcDbSymbolTableRecord
100
AcDbBlockTableRecord
  2
*D9
  0
BLOCK_RECORD
  5
762
330
1
100
AcDbSymbolTableRecord
100
AcDbBlockTableRecord
  2
*D10
  0
BLOCK_RECORD
  5
771
330
1
100
AcDbSymbolTableRecord
100
AcDbBlockTableRecord
  2
*D11
  0
BLOCK_RECORD
  5
7E7
330
1
100
AcDbSymbolTableRecord
100
AcDbBlockTableRecord
  2
*D12
  0
BLOCK_RECORD
  5
80E
330
1
100
AcDbSymbolTableRecord
100
AcDbBlockTableRecord
  2
*D13
  0
BLOCK_RECORD
  5
820
330
1
100
AcDbSymbolTableRecord
100
AcDbBlockTableRecord
  2
*D14
  0
BLOCK_RECORD
  5
82D
330
1
100
AcDbSymbolTableRecord
100
AcDbBlockTableRecord
  2
*D15
  0
BLOCK_RECORD
  5
83E
330
1
100
AcDbSymbolTableRecord
100
AcDbBlockTableRecord
  2
*D16
  0
ENDTAB
  0
ENDSEC
  0
SECTION
  2
BLOCKS
  0
BLOCK
  5
1B
330
1A
100
AcDbEntity
  8
0
100
AcDbBlockBegin
  2
*MODEL_SPACE
 70
     0
 10
0.0
 20
0.0
 30
0.0
  3
*MODEL_SPACE
  1

  0
ENDBLK
  5
1C
330
1A
100
AcDbEntity
  8
0
100
AcDbBlockEnd
  0
BLOCK
  5
18
330
17
100
AcDbEntity
 67
     1
  8
0
100
AcDbBlockBegin
  2
*PAPER_SPACE
 70
     0
 10
0.0
 20
0.0
 30
0.0
  3
*PAPER_SPACE
  1

  0
ENDBLK
  5
19
330
17
100
AcDbEntity
 67
     1
  8
0
100
AcDbBlockEnd
  0
BLOCK
  5
6E
330
6D
100
AcDbEntity
  8
0
100
AcDbBlockBegin
  2
_OPEN
 70
     0
 10
0.0
 20
0.0
 30
0.0
  3
_OPEN
  1

  0
LINE
  5
6F
330
6D
100
AcDbEntity
  8
0
  6
BYBLOCK
 62
     0
100
AcDbLine
 10
-1.0
 20
0.1666666666666666
 30
0.0
 11
0.0
 21
0.0
 31
0.0
  0
LINE
  5
70
330
6D
100
AcDbEntity
  8
0
  6
BYBLOCK
 62
     0
100
AcDbLine
 10
0.0
 20
0.0
 30
0.0
 11
-1.0
 21
-0.1666666666666666
 31
0.0
  0
LINE
  5
71
330
6D
100
AcDbEntity
  8
0
  6
BYBLOCK
 62
     0
100
AcDbLine
 10
0.0
 20
0.0
 30
0.0
 11
-1.0
 21
0.0
 31
0.0
  0
ENDBLK
  5
72
330
6D
100
AcDbEntity
  8
0
100
AcDbBlockEnd
  0
BLOCK
  5
8D1
330
39D
100
AcDbEntity
  8
0
100
AcDbBlockBegin
  2
*D1
 70
     1
 10
0.0
 20
0.0
 30
0.0
  3
*D1
  1

  0
LINE
  5
8D2
330
39D
100
AcDbEntity
  8
0
  6
BYBLOCK
 62
     4
100
AcDbLine
 10
416.0346421574057
 20
321.6204431571789
 30
0.0
 11
416.0346421574057
 21
366.9117320779359
 31
0.0
  0
LINE
  5
8D3
330
39D
100
AcDbEntity
  8
0
  6
BYBLOCK
 62
     4
100
AcDbLine
 10
431.0346421574057
 20
321.6204431571789
 30
0.0
 11
431.0346421574057
 21
366.9117320779359
 31
0.0
  0
LINE
  5
8D4
330
39D
100
AcDbEntity
  8
0
  6
BYBLOCK
 62
     4
100
AcDbLine
 10
409.0346421574057
 20
363.911732077936
 30
0.0
 11
402.0346421574057
 21
363.911732077936
 31
0.0
  0
LINE
  5
8D5
330
39D
100
AcDbEntity
  8
0
  6
BYBLOCK
 62
     4
100
AcDbLine
 10
438.0346421574057
 20
363.911732077936
 30
0.0
 11
445.0346421574058
 21
363.911732077936
 31
0.0
  0
LINE
  5
8D6
330
39D
100
AcDbEntity
  8
0
  6
BYBLOCK
 62
     4
100
AcDbLine
 10
416.0346421574057
 20
363.911732077936
 30
0.0
 11
431.0346421574057
 21
363.911732077936
 31
0.0
  0
INSERT
  5
8D7
330
39D
100
AcDbEntity
  8
0
  6
BYBLOCK
 62
     4
100
AcDbBlockReference
  2
_OPEN
 10
416.0346421574057
 20
363.911732077936
 30
0.0
 41
7.0
 42
7.0
 43
7.0
  0
INSERT
  5
8D8
330
39D
100
AcDbEntity
  8
0
  6
BYBLOCK
 62
     4
100
AcDbBlockReference
  2
_OPEN
 10
431.0346421574057
 20
363.911732077936
 30
0.0
 41
7.0
 42
7.0
 43
7.0
 50
180.0
  0
MTEXT
  5
8D9
330
39D
100
AcDbEntity
  8
0
  6
BYBLOCK
 62
     4
100
AcDbMText
 10
423.5346421574057
 20
368.9117320779359
 30
0.0
 40
6.0
 41
0.0
 71
     5
 72
     5
  1
\A1;15
1001
ACAD
1000
MTEXTBEGIN
1070
    73
1070
     1
1070
    44
1040
1.0
1070
    74
1070
     0
1000
MTEXTEND
1000
MTEXTBEGIN
1070
    73
1070
     1
1070
    44
1040
1.0
1070
    74
1070
     0
1000
MTEXTEND
  0
POINT
  5
8DA
330
39D
100
AcDbEntity
  8
DEFPOINTS
  6
BYBLOCK
 62
     0
100
AcDbPoint
 10
416.0346421574057
 20
315.6204431571789
 30
0.0
  0
POINT
  5
8DB
330
39D
100
AcDbEntity
  8
DEFPOINTS
  6
BYBLOCK
 62
     0
100
AcDbPoint
 10
431.0346421574057
 20
315.6204431571789
 30
0.0
  0
POINT
  5
8DC
330
39D
100
AcDbEntity
  8
DEFPOINTS
  6
BYBLOCK
 62
     0
100
AcDbPoint
 10
431.0346421574057
 20
363.911732077936
 30
0.0
  0
ENDBLK
  5
8DD
330
39D
100
AcDbEntity
  8
0
100
AcDbBlockEnd
  0
BLOCK
  5
803
330
6CD
100
AcDbEntity
  8
0
100
AcDbBlockBegin
  2
*D2
 70
     1
 10
0.0
 20
0.0
 30
0.0
  3
*D2
  1

  0
LINE
  5
804
330
6CD
100
AcDbEntity
  8
0
  6
BYBLOCK
 62
     4
100
AcDbLine
 10
420.9300766614691
 20
519.8498480410894
 30
0.0
 11
470.3685134250368
 21
519.8498480410894
 31
0.0
  0
LINE
  5
805
330
6CD
100
AcDbEntity
  8
0
  6
BYBLOCK
 62
     4
100
AcDbLine
 10
420.9300766614691
 20
456.8498480410894
 30
0.0
 11
470.3685134250368
 21
456.8498480410894
 31
0.0
  0
LINE
  5
806
330
6CD
100
AcDbEntity
  8
0
  6
BYBLOCK
 62
     4
100
AcDbLine
 10
467.3685134250368
 20
512.8498480410894
 30
0.0
 11
467.3685134250368
 21
463.8498480410894
 31
0.0
  0
INSERT
  5
807
330
6CD
100
AcDbEntity
  8
0
  6
BYBLOCK
 62
     4
100
AcDbBlockReference
  2
_OPEN
 10
467.3685134250368
 20
519.8498480410894
 30
0.0
 41
7.0
 42
7.0
 43
7.0
 50
90.0
  0
INSERT
  5
808
330
6CD
100
AcDbEntity
  8
0
  6
BYBLOCK
 62
     4
100
AcDbBlockReference
  2
_OPEN
 10
467.3685134250368
 20
456.8498480410894
 30
0.0
 41
7.0
 42
7.0
 43
7.0
 50
270.0
  0
MTEXT
  5
809
330
6CD
100
AcDbEntity
  8
0
  6
BYBLOCK
 62
     4
100
AcDbMText
 10
462.3685134250368
 20
488.3498480410894
 30
0.0
 40
6.0
 41
0.0
 71
     5
 72
     5
  1
\A1;63
 11
0.0
 21
1.0
 31
0.0
1001
ACAD
1000
MTEXTBEGIN
1070
    73
1070
     1
1070
    44
1040
1.0
1070
    74
1070
     0
1000
MTEXTEND
1000
MTEXTBEGIN
1070
    73
1070
     1
1070
    44
1040
1.0
1070
    74
1070
     0
1000
MTEXTEND
  0
POINT
  5
80A
330
6CD
100
AcDbEntity
  8
DEFPOINTS
  6
BYBLOCK
 62
     0
100
AcDbPoint
 10
414.9300766614691
 20
519.8498480410894
 30
0.0
  0
POINT
  5
80B
330
6CD
100
AcDbEntity
  8
DEFPOINTS
  6
BYBLOCK
 62
     0
100
AcDbPoint
 10
414.9300766614691
 20
456.8498480410894
 30
0.0
  0
POINT
  5
80C
330
6CD
100
AcDbEntity
  8
DEFPOINTS
  6
BYBLOCK
 62
     0
100
AcDbPoint
 10
467.3685134250368
 20
456.8498480410894
 30
0.0
  0
ENDBLK
  5
80D
330
6CD
100
AcDbEntity
  8
0
100
AcDbBlockEnd
  0
BLOCK
  5
6DB
330
6DA
100
AcDbEntity
  8
0
100
AcDbBlockBegin
  2
*D3
 70
     1
 10
0.0
 20
0.0
 30
0.0
  3
*D3
  1

  0
LINE
  5
6DC
330
6DA
100
AcDbEntity
  8
0
  6
BYBLOCK
 62
     4
100
AcDbLine
 10
248.6299766614691
 20
495.8498480410894
 30
0.0
 11
216.31468422345
 21
495.8498480410894
 31
0.0
  0
LINE
  5
6DD
330
6DA
100
AcDbEntity
  8
0
  6
BYBLOCK
 62
     4
100
AcDbLine
 10
248.6299766614691
 20
480.8498480410894
 30
0.0
 11
216.31468422345
 21
480.8498480410894
 31
0.0
  0
LINE
  5
6DE
330
6DA
100
AcDbEntity
  8
0
  6
BYBLOCK
 62
     4
100
AcDbLine
 10
219.31468422345
 20
502.8498480410894
 30
0.0
 11
219.31468422345
 21
509.8498480410894
 31
0.0
  0
LINE
  5
6DF
330
6DA
100
AcDbEntity
  8
0
  6
BYBLOCK
 62
     4
100
AcDbLine
 10
219.31468422345
 20
473.8498480410894
 30
0.0
 11
219.31468422345
 21
466.8498480410894
 31
0.0
  0
LINE
  5
6E0
330
6DA
100
AcDbEntity
  8
0
  6
BYBLOCK
 62
     4
100
AcDbLine
 10
219.31468422345
 20
495.8498480410894
 30
0.0
 11
219.31468422345
 21
480.8498480410894
 31
0.0
  0
INSERT
  5
6E1
330
6DA
100
AcDbEntity
  8
0
  6
BYBLOCK
 62
     4
100
AcDbBlockReference
  2
_OPEN
 10
219.31468422345
 20
495.8498480410894
 30
0.0
 41
7.0
 42
7.0
 43
7.0
 50
270.0
  0
INSERT
  5
6E2
330
6DA
100
AcDbEntity
  8
0
  6
BYBLOCK
 62
     4
100
AcDbBlockReference
  2
_OPEN
 10
219.31468422345
 20
480.8498480410894
 30
0.0
 41
7.0
 42
7.0
 43
7.0
 50
90.0
  0
MTEXT
  5
6E3
330
6DA
100
AcDbEntity
  8
0
  6
BYBLOCK
 62
     4
100
AcDbMText
 10
214.31468422345
 20
488.3498480410894
 30
0.0
 40
6.0
 41
0.0
 71
     5
 72
     5
  1
\A1;15
 11
0.0
 21
1.0
 31
0.0
1001
ACAD
1000
MTEXTBEGIN
1070
    73
1070
     1
1070
    44
1040
1.0
1070
    74
1070
     0
1000
MTEXTEND
1000
MTEXTBEGIN
1070
    73
1070
     1
1070
    44
1040
1.0
1070
    74
1070
     0
1000
MTEXTEND
  0
POINT
  5
6E4
330
6DA
100
AcDbEntity
  8
DEFPOINTS
  6
BYBLOCK
 62
     0
100
AcDbPoint
 10
254.6299766614691
 20
495.8498480410894
 30
0.0
  0
POINT
  5
6E5
330
6DA
100
AcDbEntity
  8
DEFPOINTS
  6
BYBLOCK
 62
     0
100
AcDbPoint
 10
254.6299766614691
 20
480.8498480410894
 30
0.0
  0
POINT
  5
6E6
330
6DA
100
AcDbEntity
  8
DEFPOINTS
  6
BYBLOCK
 62
     0
100
AcDbPoint
 10
219.31468422345
 20
480.8498480410894
 30
0.0
  0
ENDBLK
  5
6E7
330
6DA
100
AcDbEntity
  8
0
100
AcDbBlockEnd
  0
BLOCK
  5
8F4
330
6EA
100
AcDbEntity
  8
0
100
AcDbBlockBegin
  2
*D4
 70
     1
 10
0.0
 20
0.0
 30
0.0
  3
*D4
  1

  0
LINE
  5
8F5
330
6EA
100
AcDbEntity
  8
0
  6
BYBLOCK
 62
     4
100
AcDbLine
 10
252.0345421574056
 20
284.9661431571789
 30
0.0
 11
252.0345421574056
 21
366.9117320779359
 31
0.0
  0
LINE
  5
8F6
330
6EA
100
AcDbEntity
  8
0
  6
BYBLOCK
 62
     4
100
AcDbLine
 10
416.0346421574057
 20
321.6204431571789
 30
0.0
 11
416.0346421574057
 21
366.9117320779359
 31
0.0
  0
LINE
  5
8F7
330
6EA
100
AcDbEntity
  8
0
  6
BYBLOCK
 62
     4
100
AcDbLine
 10
259.0345421574056
 20
363.911732077936
 30
0.0
 11
409.0346421574057
 21
363.911732077936
 31
0.0
  0
INSERT
  5
8F8
330
6EA
100
AcDbEntity
  8
0
  6
BYBLOCK
 62
     4
100
AcDbBlockReference
  2
_OPEN
 10
252.0345421574056
 20
363.911732077936
 30
0.0
 41
7.0
 42
7.0
 43
7.0
 50
180.0
  0
INSERT
  5
8F9
330
6EA
100
AcDbEntity
  8
0
  6
BYBLOCK
 62
     4
100
AcDbBlockReference
  2
_OPEN
 10
416.0346421574057
 20
363.911732077936
 30
0.0
 41
7.0
 42
7.0
 43
7.0
  0
MTEXT
  5
8FA
330
6EA
100
AcDbEntity
  8
0
  6
BYBLOCK
 62
     4
100
AcDbMText
 10
334.0345921574057
 20
368.9117320779359
 30
0.0
 40
6.0
 41
0.0
 71
     5
 72
     5
  1
\A1;164
1001
ACAD
1000
MTEXTBEGIN
1070
    73
1070
     1
1070
    44
1040
1.0
1070
    74
1070
     0
1000
MTEXTEND
1000
MTEXTBEGIN
1070
    73
1070
     1
1070
    44
1040
1.0
1070
    74
1070
     0
1000
MTEXTEND
  0
POINT
  5
8FB
330
6EA
100
AcDbEntity
  8
DEFPOINTS
  6
BYBLOCK
 62
     0
100
AcDbPoint
 10
252.0345421574056
 20
278.966143157179
 30
0.0
  0
POINT
  5
8FC
330
6EA
100
AcDbEntity
  8
DEFPOINTS
  6
BYBLOCK
 62
     0
100
AcDbPoint
 10
416.0346421574057
 20
315.6204431571789
 30
0.0
  0
POINT
  5
8FD
330
6EA
100
AcDbEntity
  8
DEFPOINTS
  6
BYBLOCK
 62
     0
100
AcDbPoint
 10
416.0346421574057
 20
363.911732077936
 30
0.0
  0
ENDBLK
  5
8FE
330
6EA
100
AcDbEntity
  8
0
100
AcDbBlockEnd
  0
BLOCK
  5
8E9
330
6F7
100
AcDbEntity
  8
0
100
AcDbBlockBegin
  2
*D5
 70
     1
 10
0.0
 20
0.0
 30
0.0
  3
*D5
  1

  0
LINE
  5
8EA
330
6F7
100
AcDbEntity
  8
0
  6
BYBLOCK
 62
     4
100
AcDbLine
 10
286.0346421574056
 20
290.2661431571789
 30
0.0
 11
286.0346421574056
 21
351.9399136606346
 31
0.0
  0
LINE
  5
8EB
330
6F7
100
AcDbEntity
  8
0
  6
BYBLOCK
 62
     4
100
AcDbLine
 10
416.0346421574057
 20
321.6204431571789
 30
0.0
 11
416.0346421574057
 21
351.9399136606346
 31
0.0
  0
LINE
  5
8EC
330
6F7
100
AcDbEntity
  8
0
  6
BYBLOCK
 62
     4
100
AcDbLine
 10
293.0346421574057
 20
348.9399136606345
 30
0.0
 11
409.0346421574057
 21
348.9399136606345
 31
0.0
  0
INSERT
  5
8ED
330
6F7
100
AcDbEntity
  8
0
  6
BYBLOCK
 62
     4
100
AcDbBlockReference
  2
_OPEN
 10
286.0346421574056
 20
348.9399136606345
 30
0.0
 41
7.0
 42
7.0
 43
7.0
 50
180.0
  0
INSERT
  5
8EE
330
6F7
100
AcDbEntity
  8
0
  6
BYBLOCK
 62
     4
100
AcDbBlockReference
  2
_OPEN
 10
416.0346421574057
 20
348.9399136606345
 30
0.0
 41
7.0
 42
7.0
 43
7.0
  0
MTEXT
  5
8EF
330
6F7
100
AcDbEntity
  8
0
  6
BYBLOCK
 62
     4
100
AcDbMText
 10
351.0346421574057
 20
353.9399136606346
 30
0.0
 40
6.0
 41
0.0
 71
     5
 72
     5
  1
\A1;130
1001
ACAD
1000
MTEXTBEGIN
1070
    73
1070
     1
1070
    44
1040
1.0
1070
    74
1070
     0
1000
MTEXTEND
1000
MTEXTBEGIN
1070
    73
1070
     1
1070
    44
1040
1.0
1070
    74
1070
     0
1000
MTEXTEND
  0
POINT
  5
8F0
330
6F7
100
AcDbEntity
  8
DEFPOINTS
  6
BYBLOCK
 62
     0
100
AcDbPoint
 10
286.0346421574056
 20
284.2661431571789
 30
0.0
  0
POINT
  5
8F1
330
6F7
100
AcDbEntity
  8
DEFPOINTS
  6
BYBLOCK
 62
     0
100
AcDbPoint
 10
416.0346421574057
 20
315.6204431571789
 30
0.0
  0
POINT
  5
8F2
330
6F7
100
AcDbEntity
  8
DEFPOINTS
  6
BYBLOCK
 62
     0
100
AcDbPoint
 10
416.0346421574057
 20
348.9399136606345
 30
0.0
  0
ENDBLK
  5
8F3
330
6F7
100
AcDbEntity
  8
0
100
AcDbBlockEnd
  0
BLOCK
  5
8DE
330
704
100
AcDbEntity
  8
0
100
AcDbBlockBegin
  2
*D6
 70
     1
 10
0.0
 20
0.0
 30
0.0
  3
*D6
  1

  0
LINE
  5
8DF
330
704
100
AcDbEntity
  8
0
  6
BYBLOCK
 62
     4
100
AcDbLine
 10
369.8728421574057
 20
293.8594431571788
 30
0.0
 11
369.8728421574057
 21
337.139339402086
 31
0.0
  0
LINE
  5
8E0
330
704
100
AcDbEntity
  8
0
  6
BYBLOCK
 62
     4
100
AcDbLine
 10
416.0346421574057
 20
321.6204431571789
 30
0.0
 11
416.0346421574057
 21
337.139339402086
 31
0.0
  0
LINE
  5
8E1
330
704
100
AcDbEntity
  8
0
  6
BYBLOCK
 62
     4
100
AcDbLine
 10
376.8728421574057
 20
334.139339402086
 30
0.0
 11
409.0346421574057
 21
334.139339402086
 31
0.0
  0
INSERT
  5
8E2
330
704
100
AcDbEntity
  8
0
  6
BYBLOCK
 62
     4
100
AcDbBlockReference
  2
_OPEN
 10
369.8728421574057
 20
334.139339402086
 30
0.0
 41
7.0
 42
7.0
 43
7.0
 50
180.0
  0
INSERT
  5
8E3
330
704
100
AcDbEntity
  8
0
  6
BYBLOCK
 62
     4
100
AcDbBlockReference
  2
_OPEN
 10
416.0346421574057
 20
334.139339402086
 30
0.0
 41
7.0
 42
7.0
 43
7.0
  0
MTEXT
  5
8E4
330
704
100
AcDbEntity
  8
0
  6
BYBLOCK
 62
     4
100
AcDbMText
 10
392.9537421574057
 20
339.139339402086
 30
0.0
 40
6.0
 41
0.0
 71
     5
 72
     5
  1
\A1;46
1001
ACAD
1000
MTEXTBEGIN
1070
    73
1070
     1
1070
    44
1040
1.0
1070
    74
1070
     0
1000
MTEXTEND
1000
MTEXTBEGIN
1070
    73
1070
     1
1070
    44
1040
1.0
1070
    74
1070
     0
1000
MTEXTEND
  0
POINT
  5
8E5
330
704
100
AcDbEntity
  8
DEFPOINTS
  6
BYBLOCK
 62
     0
100
AcDbPoint
 10
369.8728421574057
 20
287.8594431571788
 30
0.0
  0
POINT
  5
8E6
330
704
100
AcDbEntity
  8
DEFPOINTS
  6
BYBLOCK
 62
     0
100
AcDbPoint
 10
416.0346421574057
 20
315.6204431571789
 30
0.0
  0
POINT
  5
8E7
330
704
100
AcDbEntity
  8
DEFPOINTS
  6
BYBLOCK
 62
     0
100
AcDbPoint
 10
416.0346421574057
 20
334.139339402086
 30
0.0
  0
ENDBLK
  5
8E8
330
704
100
AcDbEntity
  8
0
100
AcDbBlockEnd
  0
BLOCK
  5
723
330
722
100
AcDbEntity
  8
0
100
AcDbBlockBegin
  2
*D7
 70
     1
 10
0.0
 20
0.0
 30
0.0
  3
*D7
  1

  0
LINE
  5
724
330
722
100
AcDbEntity
  8
0
  6
BYBLOCK
 62
     4
100
AcDbLine
 10
247.798576661469
 20
322.6688987363037
 30
0.0
 11
216.31468422345
 21
322.6688987363037
 31
0.0
  0
LINE
  5
725
330
722
100
AcDbEntity
  8
0
  6
BYBLOCK
 62
     4
100
AcDbLine
 10
408.9300766614691
 20
354.5231987363038
 30
0.0
 11
216.31468422345
 21
354.5231987363038
 31
0.0
  0
LINE
  5
726
330
722
100
AcDbEntity
  8
0
  6
BYBLOCK
 62
     4
100
AcDbLine
 10
219.31468422345
 20
329.6688987363038
 30
0.0
 11
219.31468422345
 21
347.5231987363038
 31
0.0
  0
INSERT
  5
727
330
722
100
AcDbEntity
  8
0
  6
BYBLOCK
 62
     4
100
AcDbBlockReference
  2
_OPEN
 10
219.31468422345
 20
322.6688987363037
 30
0.0
 41
7.0
 42
7.0
 43
7.0
 50
270.0
  0
INSERT
  5
728
330
722
100
AcDbEntity
  8
0
  6
BYBLOCK
 62
     4
100
AcDbBlockReference
  2
_OPEN
 10
219.31468422345
 20
354.5231987363038
 30
0.0
 41
7.0
 42
7.0
 43
7.0
 50
90.0
  0
MTEXT
  5
729
330
722
100
AcDbEntity
  8
0
  6
BYBLOCK
 62
     4
100
AcDbMText
 10
214.31468422345
 20
338.5960487363038
 30
0.0
 40
6.0
 41
0.0
 71
     5
 72
     5
  1
\A1;32
 11
0.0
 21
1.0
 31
0.0
1001
ACAD
1000
MTEXTBEGIN
1070
    73
1070
     1
1070
    44
1040
1.0
1070
    74
1070
     0
1000
MTEXTEND
1000
MTEXTBEGIN
1070
    73
1070
     1
1070
    44
1040
1.0
1070
    74
1070
     0
1000
MTEXTEND
  0
POINT
  5
72A
330
722
100
AcDbEntity
  8
DEFPOINTS
  6
BYBLOCK
 62
     0
100
AcDbPoint
 10
253.798576661469
 20
322.6688987363037
 30
0.0
  0
POINT
  5
72B
330
722
100
AcDbEntity
  8
DEFPOINTS
  6
BYBLOCK
 62
     0
100
AcDbPoint
 10
414.9300766614691
 20
354.5231987363038
 30
0.0
  0
POINT
  5
72C
330
722
100
AcDbEntity
  8
DEFPOINTS
  6
BYBLOCK
 62
     0
100
AcDbPoint
 10
219.31468422345
 20
354.5231987363038
 30
0.0
  0
ENDBLK
  5
72D
330
722
100
AcDbEntity
  8
0
100
AcDbBlockEnd
  0
BLOCK
  5
7D8
330
744
100
AcDbEntity
  8
0
100
AcDbBlockBegin
  2
*D8
 70
     1
 10
0.0
 20
0.0
 30
0.0
  3
*D8
  1

  0
LINE
  5
7D9
330
744
100
AcDbEntity
  8
0
  6
BYBLOCK
 62
     4
100
AcDbLine
 10
585.4469372493624
 20
344.0857987363039
 30
0.0
 11
529.8388886503889
 21
344.0857987363039
 31
0.0
  0
LINE
  5
7DA
330
744
100
AcDbEntity
  8
0
  6
BYBLOCK
 62
     4
100
AcDbLine
 10
590.9639372493625
 20
354.0856987363038
 30
0.0
 11
529.8388886503889
 21
354.0856987363038
 31
0.0
  0
LINE
  5
7DB
330
744
100
AcDbEntity
  8
0
  6
BYBLOCK
 62
     4
100
AcDbLine
 10
532.838888650389
 20
337.0857987363038
 30
0.0
 11
532.838888650389
 21
330.0857987363039
 31
0.0
  0
LINE
  5
7DC
330
744
100
AcDbEntity
  8
0
  6
BYBLOCK
 62
     4
100
AcDbLine
 10
532.838888650389
 20
361.0856987363038
 30
0.0
 11
532.838888650389
 21
379.0856987363038
 31
0.0
  0
LINE
  5
7DD
330
744
100
AcDbEntity
  8
0
  6
BYBLOCK
 62
     4
100
AcDbLine
 10
532.838888650389
 20
344.0857987363039
 30
0.0
 11
532.838888650389
 21
354.0856987363038
 31
0.0
  0
INSERT
  5
7DE
330
744
100
AcDbEntity
  8
0
  6
BYBLOCK
 62
     4
100
AcDbBlockReference
  2
_OPEN
 10
532.838888650389
 20
344.0857987363039
 30
0.0
 41
7.0
 42
7.0
 43
7.0
 50
90.0
  0
INSERT
  5
7DF
330
744
100
AcDbEntity
  8
0
  6
BYBLOCK
 62
     4
100
AcDbBlockReference
  2
_OPEN
 10
532.838888650389
 20
354.0856987363038
 30
0.0
 41
7.0
 42
7.0
 43
7.0
 50
270.0
  0
MTEXT
  5
7E0
330
744
100
AcDbEntity
  8
0
  6
BYBLOCK
 62
     4
100
AcDbMText
 10
527.8388886503889
 20
373.5856987363038
 30
0.0
 40
6.0
 41
0.0
 71
     5
 72
     5
  1
\A1;10
 11
0.0
 21
1.0
 31
0.0
1001
ACAD
1000
MTEXTBEGIN
1070
    73
1070
     1
1070
    44
1040
1.0
1070
    74
1070
     0
1000
MTEXTEND
1000
MTEXTBEGIN
1070
    73
1070
     1
1070
    44
1040
1.0
1070
    74
1070
     0
1000
MTEXTEND
  0
POINT
  5
7E1
330
744
100
AcDbEntity
  8
DEFPOINTS
  6
BYBLOCK
 62
     0
100
AcDbPoint
 10
591.4469372493624
 20
344.0857987363039
 30
0.0
  0
POINT
  5
7E2
330
744
100
AcDbEntity
  8
DEFPOINTS
  6
BYBLOCK
 62
     0
100
AcDbPoint
 10
596.9639372493625
 20
354.0856987363038
 30
0.0
  0
POINT
  5
7E3
330
744
100
AcDbEntity
  8
DEFPOINTS
  6
BYBLOCK
 62
     0
100
AcDbPoint
 10
532.838888650389
 20
354.0856987363038
 30
0.0
  0
ENDBLK
  5
7E4
330
744
100
AcDbEntity
  8
0
100
AcDbBlockEnd
  0
BLOCK
  5
7CB
330
753
100
AcDbEntity
  8
0
100
AcDbBlockBegin
  2
*D9
 70
     1
 10
0.0
 20
0.0
 30
0.0
  3
*D9
  1

  0
LINE
  5
7CC
330
753
100
AcDbEntity
  8
0
  6
BYBLOCK
 62
     4
100
AcDbLine
 10
583.3102372493624
 20
339.0857987363038
 30
0.0
 11
512.7621272707274
 21
339.0857987363038
 31
0.0
  0
LINE
  5
7CD
330
753
100
AcDbEntity
  8
0
  6
BYBLOCK
 62
     4
100
AcDbLine
 10
590.9639372493625
 20
354.0856987363038
 30
0.0
 11
512.7621272707274
 21
354.0856987363038
 31
0.0
  0
LINE
  5
7CE
330
753
100
AcDbEntity
  8
0
  6
BYBLOCK
 62
     4
100
AcDbLine
 10
515.7621272707274
 20
332.0857987363037
 30
0.0
 11
515.7621272707274
 21
325.0857987363037
 31
0.0
  0
LINE
  5
7CF
330
753
100
AcDbEntity
  8
0
  6
BYBLOCK
 62
     4
100
AcDbLine
 10
515.7621272707274
 20
361.0856987363038
 30
0.0
 11
515.7621272707274
 21
368.0856987363038
 31
0.0
  0
LINE
  5
7D0
330
753
100
AcDbEntity
  8
0
  6
BYBLOCK
 62
     4
100
AcDbLine
 10
515.7621272707274
 20
339.0857987363038
 30
0.0
 11
515.7621272707274
 21
354.0856987363038
 31
0.0
  0
INSERT
  5
7D1
330
753
100
AcDbEntity
  8
0
  6
BYBLOCK
 62
     4
100
AcDbBlockReference
  2
_OPEN
 10
515.7621272707274
 20
339.0857987363038
 30
0.0
 41
7.0
 42
7.0
 43
7.0
 50
90.0
  0
INSERT
  5
7D2
330
753
100
AcDbEntity
  8
0
  6
BYBLOCK
 62
     4
100
AcDbBlockReference
  2
_OPEN
 10
515.7621272707274
 20
354.0856987363038
 30
0.0
 41
7.0
 42
7.0
 43
7.0
 50
270.0
  0
MTEXT
  5
7D3
330
753
100
AcDbEntity
  8
0
  6
BYBLOCK
 62
     4
100
AcDbMText
 10
510.7621272707274
 20
346.5857487363038
 30
0.0
 40
6.0
 41
0.0
 71
     5
 72
     5
  1
\A1;15
 11
0.0
 21
1.0
 31
0.0
1001
ACAD
1000
MTEXTBEGIN
1070
    73
1070
     1
1070
    44
1040
1.0
1070
    74
1070
     0
1000
MTEXTEND
1000
MTEXTBEGIN
1070
    73
1070
     1
1070
    44
1040
1.0
1070
    74
1070
     0
1000
MTEXTEND
  0
POINT
  5
7D4
330
753
100
AcDbEntity
  8
DEFPOINTS
  6
BYBLOCK
 62
     0
100
AcDbPoint
 10
589.3102372493624
 20
339.0857987363038
 30
0.0
  0
POINT
  5
7D5
330
753
100
AcDbEntity
  8
DEFPOINTS
  6
BYBLOCK
 62
     0
100
AcDbPoint
 10
596.9639372493625
 20
354.0856987363038
 30
0.0
  0
POINT
  5
7D6
330
753
100
AcDbEntity
  8
DEFPOINTS
  6
BYBLOCK
 62
     0
100
AcDbPoint
 10
515.7621272707274
 20
354.0856987363038
 30
0.0
  0
ENDBLK
  5
7D7
330
753
100
AcDbEntity
  8
0
100
AcDbBlockEnd
  0
BLOCK
  5
7B3
330
762
100
AcDbEntity
  8
0
100
AcDbBlockBegin
  2
*D10
 70
     1
 10
0.0
 20
0.0
 30
0.0
  3
*D10
  1

  0
LINE
  5
7B4
330
762
100
AcDbEntity
  8
0
  6
BYBLOCK
 62
     4
100
AcDbLine
 10
584.2406372493622
 20
314.0856987363038
 30
0.0
 11
529.8388886503889
 21
314.0856987363038
 31
0.0
  0
LINE
  5
7B5
330
762
100
AcDbEntity
  8
0
  6
BYBLOCK
 62
     4
100
AcDbLine
 10
590.9637372493623
 20
304.0856987363038
 30
0.0
 11
529.8388886503889
 21
304.0856987363038
 31
0.0
  0
LINE
  5
7B6
330
762
100
AcDbEntity
  8
0
  6
BYBLOCK
 62
     4
100
AcDbLine
 10
532.838888650389
 20
321.0856987363038
 30
0.0
 11
532.838888650389
 21
328.0856987363037
 31
0.0
  0
LINE
  5
7B7
330
762
100
AcDbEntity
  8
0
  6
BYBLOCK
 62
     4
100
AcDbLine
 10
532.838888650389
 20
297.0856987363038
 30
0.0
 11
532.838888650389
 21
279.0856987363038
 31
0.0
  0
LINE
  5
7B8
330
762
100
AcDbEntity
  8
0
  6
BYBLOCK
 62
     4
100
AcDbLine
 10
532.838888650389
 20
314.0856987363038
 30
0.0
 11
532.838888650389
 21
304.0856987363038
 31
0.0
  0
INSERT
  5
7B9
330
762
100
AcDbEntity
  8
0
  6
BYBLOCK
 62
     4
100
AcDbBlockReference
  2
_OPEN
 10
532.838888650389
 20
314.0856987363038
 30
0.0
 41
7.0
 42
7.0
 43
7.0
 50
270.0
  0
INSERT
  5
7BA
330
762
100
AcDbEntity
  8
0
  6
BYBLOCK
 62
     4
100
AcDbBlockReference
  2
_OPEN
 10
532.838888650389
 20
304.0856987363038
 30
0.0
 41
7.0
 42
7.0
 43
7.0
 50
90.0
  0
MTEXT
  5
7BB
330
762
100
AcDbEntity
  8
0
  6
BYBLOCK
 62
     4
100
AcDbMText
 10
527.8388886503889
 20
284.5856987363038
 30
0.0
 40
6.0
 41
0.0
 71
     5
 72
     5
  1
\A1;10
 11
0.0
 21
1.0
 31
0.0
1001
ACAD
1000
MTEXTBEGIN
1070
    73
1070
     1
1070
    44
1040
1.0
1070
    74
1070
     0
1000
MTEXTEND
1000
MTEXTBEGIN
1070
    73
1070
     1
1070
    44
1040
1.0
1070
    74
1070
     0
1000
MTEXTEND
  0
POINT
  5
7BC
330
762
100
AcDbEntity
  8
DEFPOINTS
  6
BYBLOCK
 62
     0
100
AcDbPoint
 10
590.2406372493621
 20
314.0856987363038
 30
0.0
  0
POINT
  5
7BD
330
762
100
AcDbEntity
  8
DEFPOINTS
  6
BYBLOCK
 62
     0
100
AcDbPoint
 10
596.9637372493623
 20
304.0856987363038
 30
0.0
  0
POINT
  5
7BE
330
762
100
AcDbEntity
  8
DEFPOINTS
  6
BYBLOCK
 62
     0
100
AcDbPoint
 10
532.838888650389
 20
304.0856987363038
 30
0.0
  0
ENDBLK
  5
7BF
330
762
100
AcDbEntity
  8
0
100
AcDbBlockEnd
  0
BLOCK
  5
7C0
330
771
100
AcDbEntity
  8
0
100
AcDbBlockBegin
  2
*D11
 70
     1
 10
0.0
 20
0.0
 30
0.0
  3
*D11
  1

  0
LINE
  5
7C1
330
771
100
AcDbEntity
  8
0
  6
BYBLOCK
 62
     4
100
AcDbLine
 10
590.9639372493625
 20
354.0856987363038
 30
0.0
 11
497.3117231554042
 21
354.0856987363038
 31
0.0
  0
LINE
  5
7C2
330
771
100
AcDbEntity
  8
0
  6
BYBLOCK
 62
     4
100
AcDbLine
 10
590.9637372493623
 20
304.0856987363038
 30
0.0
 11
497.3117231554042
 21
304.0856987363038
 31
0.0
  0
LINE
  5
7C3
330
771
100
AcDbEntity
  8
0
  6
BYBLOCK
 62
     4
100
AcDbLine
 10
500.3117231554042
 20
347.0856987363038
 30
0.0
 11
500.3117231554042
 21
311.0856987363038
 31
0.0
  0
INSERT
  5
7C4
330
771
100
AcDbEntity
  8
0
  6
BYBLOCK
 62
     4
100
AcDbBlockReference
  2
_OPEN
 10
500.3117231554042
 20
354.0856987363038
 30
0.0
 41
7.0
 42
7.0
 43
7.0
 50
90.0
  0
INSERT
  5
7C5
330
771
100
AcDbEntity
  8
0
  6
BYBLOCK
 62
     4
100
AcDbBlockReference
  2
_OPEN
 10
500.3117231554042
 20
304.0856987363038
 30
0.0
 41
7.0
 42
7.0
 43
7.0
 50
270.0
  0
MTEXT
  5
7C6
330
771
100
AcDbEntity
  8
0
  6
BYBLOCK
 62
     4
100
AcDbMText
 10
495.3117231554042
 20
329.0856987363038
 30
0.0
 40
6.0
 41
0.0
 71
     5
 72
     5
  1
\A1;50
 11
0.0
 21
1.0
 31
0.0
1001
ACAD
1000
MTEXTBEGIN
1070
    73
1070
     1
1070
    44
1040
1.0
1070
    74
1070
     0
1000
MTEXTEND
1000
MTEXTBEGIN
1070
    73
1070
     1
1070
    44
1040
1.0
1070
    74
1070
     0
1000
MTEXTEND
  0
POINT
  5
7C7
330
771
100
AcDbEntity
  8
DEFPOINTS
  6
BYBLOCK
 62
     0
100
AcDbPoint
 10
596.9639372493625
 20
354.0856987363038
 30
0.0
  0
POINT
  5
7C8
330
771
100
AcDbEntity
  8
DEFPOINTS
  6
BYBLOCK
 62
     0
100
AcDbPoint
 10
596.9637372493623
 20
304.0856987363038
 30
0.0
  0
POINT
  5
7C9
330
771
100
AcDbEntity
  8
DEFPOINTS
  6
BYBLOCK
 62
     0
100
AcDbPoint
 10
500.3117231554042
 20
304.0856987363038
 30
0.0
  0
ENDBLK
  5
7CA
330
771
100
AcDbEntity
  8
0
100
AcDbBlockEnd
  0
BLOCK
  5
7F6
330
7E7
100
AcDbEntity
  8
0
100
AcDbBlockBegin
  2
*D12
 70
     1
 10
0.0
 20
0.0
 30
0.0
  3
*D12
  1

  0
LINE
  5
7F7
330
7E7
100
AcDbEntity
  8
0
  6
BYBLOCK
 62
     4
100
AcDbLine
 10
413.9300766614691
 20
500.8498480410894
 30
0.0
 11
455.2894352879966
 21
500.8498480410894
 31
0.0
  0
LINE
  5
7F8
330
7E7
100
AcDbEntity
  8
0
  6
BYBLOCK
 62
     4
100
AcDbLine
 10
411.930076661469
 20
475.8498480410894
 30
0.0
 11
455.2894352879966
 21
475.8498480410894
 31
0.0
  0
LINE
  5
7F9
330
7E7
100
AcDbEntity
  8
0
  6
BYBLOCK
 62
     4
100
AcDbLine
 10
452.2894352879966
 20
507.8498480410894
 30
0.0
 11
452.2894352879966
 21
514.8498480410894
 31
0.0
  0
LINE
  5
7FA
330
7E7
100
AcDbEntity
  8
0
  6
BYBLOCK
 62
     4
100
AcDbLine
 10
452.2894352879966
 20
468.8498480410894
 30
0.0
 11
452.2894352879966
 21
461.8498480410894
 31
0.0
  0
LINE
  5
7FB
330
7E7
100
AcDbEntity
  8
0
  6
BYBLOCK
 62
     4
100
AcDbLine
 10
452.2894352879966
 20
500.8498480410894
 30
0.0
 11
452.2894352879966
 21
475.8498480410894
 31
0.0
  0
INSERT
  5
7FC
330
7E7
100
AcDbEntity
  8
0
  6
BYBLOCK
 62
     4
100
AcDbBlockReference
  2
_OPEN
 10
452.2894352879966
 20
500.8498480410894
 30
0.0
 41
7.0
 42
7.0
 43
7.0
 50
270.0
  0
INSERT
  5
7FD
330
7E7
100
AcDbEntity
  8
0
  6
BYBLOCK
 62
     4
100
AcDbBlockReference
  2
_OPEN
 10
452.2894352879966
 20
475.8498480410894
 30
0.0
 41
7.0
 42
7.0
 43
7.0
 50
90.0
  0
MTEXT
  5
7FE
330
7E7
100
AcDbEntity
  8
0
  6
BYBLOCK
 62
     4
100
AcDbMText
 10
447.2894352879966
 20
488.3498480410894
 30
0.0
 40
6.0
 41
0.0
 71
     5
 72
     5
  1
\A1;25
 11
0.0
 21
1.0
 31
0.0
1001
ACAD
1000
MTEXTBEGIN
1070
    73
1070
     1
1070
    44
1040
1.0
1070
    74
1070
     0
1000
MTEXTEND
1000
MTEXTBEGIN
1070
    73
1070
     1
1070
    44
1040
1.0
1070
    74
1070
     0
1000
MTEXTEND
  0
POINT
  5
7FF
330
7E7
100
AcDbEntity
  8
DEFPOINTS
  6
BYBLOCK
 62
     0
100
AcDbPoint
 10
407.9300766614691
 20
500.8498480410894
 30
0.0
  0
POINT
  5
800
330
7E7
100
AcDbEntity
  8
DEFPOINTS
  6
BYBLOCK
 62
     0
100
AcDbPoint
 10
405.9300766614691
 20
475.8498480410894
 30
0.0
  0
POINT
  5
801
330
7E7
100
AcDbEntity
  8
DEFPOINTS
  6
BYBLOCK
 62
     0
100
AcDbPoint
 10
452.2894352879966
 20
475.8498480410894
 30
0.0
  0
ENDBLK
  5
802
330
7E7
100
AcDbEntity
  8
0
100
AcDbBlockEnd
  0
BLOCK
  5
80F
330
80E
100
AcDbEntity
  8
0
100
AcDbBlockBegin
  2
*D13
 70
     1
 10
0.0
 20
0.0
 30
0.0
  3
*D13
  1

  0
LINE
  5
810
330
80E
100
AcDbEntity
  8
0
  6
BYBLOCK
 62
     4
100
AcDbLine
 10
420.9300766614691
 20
354.5231987363038
 30
0.0
 11
457.5720998518286
 21
354.5231987363038
 31
0.0
  0
LINE
  5
811
330
80E
100
AcDbEntity
  8
0
  6
BYBLOCK
 62
     4
100
AcDbLine
 10
420.9300766614691
 20
304.5231987363038
 30
0.0
 11
457.5720998518286
 21
304.5231987363038
 31
0.0
  0
LINE
  5
812
330
80E
100
AcDbEntity
  8
0
  6
BYBLOCK
 62
     4
100
AcDbLine
 10
454.5720998518286
 20
347.5231987363038
 30
0.0
 11
454.5720998518286
 21
311.5231987363038
 31
0.0
  0
INSERT
  5
813
330
80E
100
AcDbEntity
  8
0
  6
BYBLOCK
 62
     4
100
AcDbBlockReference
  2
_OPEN
 10
454.5720998518286
 20
354.5231987363038
 30
0.0
 41
7.0
 42
7.0
 43
7.0
 50
90.0
  0
INSERT
  5
814
330
80E
100
AcDbEntity
  8
0
  6
BYBLOCK
 62
     4
100
AcDbBlockReference
  2
_OPEN
 10
454.5720998518286
 20
304.5231987363038
 30
0.0
 41
7.0
 42
7.0
 43
7.0
 50
270.0
  0
MTEXT
  5
815
330
80E
100
AcDbEntity
  8
0
  6
BYBLOCK
 62
     4
100
AcDbMText
 10
449.5720998518286
 20
329.5231987363038
 30
0.0
 40
6.0
 41
0.0
 71
     5
 72
     5
  1
\A1;50
 11
0.0
 21
1.0
 31
0.0
1001
ACAD
1000
MTEXTBEGIN
1070
    73
1070
     1
1070
    44
1040
1.0
1070
    74
1070
     0
1000
MTEXTEND
1000
MTEXTBEGIN
1070
    73
1070
     1
1070
    44
1040
1.0
1070
    74
1070
     0
1000
MTEXTEND
  0
POINT
  5
816
330
80E
100
AcDbEntity
  8
DEFPOINTS
  6
BYBLOCK
 62
     0
100
AcDbPoint
 10
414.9300766614691
 20
354.5231987363038
 30
0.0
  0
POINT
  5
817
330
80E
100
AcDbEntity
  8
DEFPOINTS
  6
BYBLOCK
 62
     0
100
AcDbPoint
 10
414.9300766614691
 20
304.5231987363038
 30
0.0
  0
POINT
  5
818
330
80E
100
AcDbEntity
  8
DEFPOINTS
  6
BYBLOCK
 62
     0
100
AcDbPoint
 10
454.5720998518286
 20
304.5231987363038
 30
0.0
  0
ENDBLK
  5
819
330
80E
100
AcDbEntity
  8
0
100
AcDbBlockEnd
  0
BLOCK
  5
8C6
330
820
100
AcDbEntity
  8
0
100
AcDbBlockBegin
  2
*D14
 70
     1
 10
0.0
 20
0.0
 30
0.0
  3
*D14
  1

  0
LINE
  5
8C7
330
820
100
AcDbEntity
  8
0
  6
BYBLOCK
 62
     4
100
AcDbLine
 10
596.0685027452991
 20
314.9678431571789
 30
0.0
 11
596.0685027452991
 21
336.3766142002575
 31
0.0
  0
LINE
  5
8C8
330
820
100
AcDbEntity
  8
0
  6
BYBLOCK
 62
     4
100
AcDbLine
 10
643.068502745299
 20
314.9678431571789
 30
0.0
 11
643.068502745299
 21
336.3766142002575
 31
0.0
  0
LINE
  5
8C9
330
820
100
AcDbEntity
  8
0
  6
BYBLOCK
 62
     4
100
AcDbLine
 10
603.0685027452991
 20
333.3766142002575
 30
0.0
 11
636.068502745299
 21
333.3766142002575
 31
0.0
  0
INSERT
  5
8CA
330
820
100
AcDbEntity
  8
0
  6
BYBLOCK
 62
     4
100
AcDbBlockReference
  2
_OPEN
 10
596.0685027452991
 20
333.3766142002575
 30
0.0
 41
7.0
 42
7.0
 43
7.0
 50
180.0
  0
INSERT
  5
8CB
330
820
100
AcDbEntity
  8
0
  6
BYBLOCK
 62
     4
100
AcDbBlockReference
  2
_OPEN
 10
643.068502745299
 20
333.3766142002575
 30
0.0
 41
7.0
 42
7.0
 43
7.0
  0
MTEXT
  5
8CC
330
820
100
AcDbEntity
  8
0
  6
BYBLOCK
 62
     4
100
AcDbMText
 10
619.5685027452991
 20
338.3766142002575
 30
0.0
 40
6.0
 41
0.0
 71
     5
 72
     5
  1
\A1;47
1001
ACAD
1000
MTEXTBEGIN
1070
    73
1070
     1
1070
    44
1040
1.0
1070
    74
1070
     0
1000
MTEXTEND
1000
MTEXTBEGIN
1070
    73
1070
     1
1070
    44
1040
1.0
1070
    74
1070
     0
1000
MTEXTEND
  0
POINT
  5
8CD
330
820
100
AcDbEntity
  8
DEFPOINTS
  6
BYBLOCK
 62
     0
100
AcDbPoint
 10
596.0685027452991
 20
308.9678431571789
 30
0.0
  0
POINT
  5
8CE
330
820
100
AcDbEntity
  8
DEFPOINTS
  6
BYBLOCK
 62
     0
100
AcDbPoint
 10
643.068502745299
 20
308.9678431571789
 30
0.0
  0
POINT
  5
8CF
330
820
100
AcDbEntity
  8
DEFPOINTS
  6
BYBLOCK
 62
     0
100
AcDbPoint
 10
643.068502745299
 20
333.3766142002575
 30
0.0
  0
ENDBLK
  5
8D0
330
820
100
AcDbEntity
  8
0
100
AcDbBlockEnd
  0
BLOCK
  5
8BB
330
82D
100
AcDbEntity
  8
0
100
AcDbBlockBegin
  2
*D15
 70
     1
 10
0.0
 20
0.0
 30
0.0
  3
*D15
  1

  0
LINE
  5
8BC
330
82D
100
AcDbEntity
  8
0
  6
BYBLOCK
 62
     4
100
AcDbLine
 10
588.0685027452989
 20
311.1829431571789
 30
0.0
 11
588.0685027452989
 21
351.4647385275555
 31
0.0
  0
LINE
  5
8BD
330
82D
100
AcDbEntity
  8
0
  6
BYBLOCK
 62
     4
100
AcDbLine
 10
651.068502745299
 20
311.1829431571789
 30
0.0
 11
651.068502745299
 21
351.4647385275555
 31
0.0
  0
LINE
  5
8BE
330
82D
100
AcDbEntity
  8
0
  6
BYBLOCK
 62
     4
100
AcDbLine
 10
595.0685027452989
 20
348.4647385275554
 30
0.0
 11
644.068502745299
 21
348.4647385275554
 31
0.0
  0
INSERT
  5
8BF
330
82D
100
AcDbEntity
  8
0
  6
BYBLOCK
 62
     4
100
AcDbBlockReference
  2
_OPEN
 10
588.0685027452989
 20
348.4647385275554
 30
0.0
 41
7.0
 42
7.0
 43
7.0
 50
180.0
  0
INSERT
  5
8C0
330
82D
100
AcDbEntity
  8
0
  6
BYBLOCK
 62
     4
100
AcDbBlockReference
  2
_OPEN
 10
651.068502745299
 20
348.4647385275554
 30
0.0
 41
7.0
 42
7.0
 43
7.0
  0
MTEXT
  5
8C1
330
82D
100
AcDbEntity
  8
0
  6
BYBLOCK
 62
     4
100
AcDbMText
 10
619.5685027452989
 20
353.4647385275555
 30
0.0
 40
6.0
 41
0.0
 71
     5
 72
     5
  1
\A1;63
1001
ACAD
1000
MTEXTBEGIN
1070
    73
1070
     1
1070
    44
1040
1.0
1070
    74
1070
     0
1000
MTEXTEND
1000
MTEXTBEGIN
1070
    73
1070
     1
1070
    44
1040
1.0
1070
    74
1070
     0
1000
MTEXTEND
  0
POINT
  5
8C2
330
82D
100
AcDbEntity
  8
DEFPOINTS
  6
BYBLOCK
 62
     0
100
AcDbPoint
 10
588.0685027452989
 20
305.1829431571789
 30
0.0
  0
POINT
  5
8C3
330
82D
100
AcDbEntity
  8
DEFPOINTS
  6
BYBLOCK
 62
     0
100
AcDbPoint
 10
651.068502745299
 20
305.1829431571789
 30
0.0
  0
POINT
  5
8C4
330
82D
100
AcDbEntity
  8
DEFPOINTS
  6
BYBLOCK
 62
     0
100
AcDbPoint
 10
651.068502745299
 20
348.4647385275554
 30
0.0
  0
ENDBLK
  5
8C5
330
82D
100
AcDbEntity
  8
0
100
AcDbBlockEnd
  0
BLOCK
  5
874
330
83E
100
AcDbEntity
  8
0
100
AcDbBlockBegin
  2
*D16
 70
     1
 10
0.0
 20
0.0
 30
0.0
  3
*D16
  1

  0
LINE
  5
875
330
83E
100
AcDbEntity
  8
0
  6
BYBLOCK
 62
     4
100
AcDbLine
 10
408.9300766614691
 20
285.9007917979784
 30
0.0
 11
408.9300766614691
 21
261.1361913462528
 31
0.0
  0
LINE
  5
876
330
83E
100
AcDbEntity
  8
0
  6
BYBLOCK
 62
     4
100
AcDbLine
 10
414.9300766614691
 20
283.9007917979784
 30
0.0
 11
414.9300766614691
 21
261.1361913462528
 31
0.0
  0
LINE
  5
877
330
83E
100
AcDbEntity
  8
0
  6
BYBLOCK
 62
     4
100
AcDbLine
 10
401.9300766614691
 20
264.1361913462528
 30
0.0
 11
394.9300766614691
 21
264.1361913462528
 31
0.0
  0
LINE
  5
878
330
83E
100
AcDbEntity
  8
0
  6
BYBLOCK
 62
     4
100
AcDbLine
 10
421.9300766614691
 20
264.1361913462528
 30
0.0
 11
449.9300766614691
 21
264.1361913462528
 31
0.0
  0
LINE
  5
879
330
83E
100
AcDbEntity
  8
0
  6
BYBLOCK
 62
     4
100
AcDbLine
 10
408.9300766614691
 20
264.1361913462528
 30
0.0
 11
414.9300766614691
 21
264.1361913462528
 31
0.0
  0
INSERT
  5
87A
330
83E
100
AcDbEntity
  8
0
  6
BYBLOCK
 62
     4
100
AcDbBlockReference
  2
_OPEN
 10
408.9300766614691
 20
264.1361913462528
 30
0.0
 41
7.0
 42
7.0
 43
7.0
  0
INSERT
  5
87B
330
83E
100
AcDbEntity
  8
0
  6
BYBLOCK
 62
     4
100
AcDbBlockReference
  2
_OPEN
 10
414.9300766614691
 20
264.1361913462528
 30
0.0
 41
7.0
 42
7.0
 43
7.0
 50
180.0
  0
MTEXT
  5
87C
330
83E
100
AcDbEntity
  8
0
  6
BYBLOCK
 62
     4
100
AcDbMText
 10
439.4300766614691
 20
269.1361913462528
 30
0.0
 40
6.0
 41
0.0
 71
     5
 72
     5
  1
\A1;t6.0
1001
ACAD
1000
MTEXTBEGIN
1070
    73
1070
     1
1070
    44
1040
1.0
1070
    74
1070
     0
1000
MTEXTEND
1000
MTEXTBEGIN
1070
    73
1070
     1
1070
    44
1040
1.0
1070
    74
1070
     0
1000
MTEXTEND
  0
POINT
  5
87D
330
83E
100
AcDbEntity
  8
DEFPOINTS
  6
BYBLOCK
 62
     0
100
AcDbPoint
 10
408.9300766614691
 20
291.9007917979783
 30
0.0
  0
POINT
  5
87E
330
83E
100
AcDbEntity
  8
DEFPOINTS
  6
BYBLOCK
 62
     0
100
AcDbPoint
 10
414.9300766614691
 20
289.9007917979783
 30
0.0
  0
POINT
  5
87F
330
83E
100
AcDbEntity
  8
DEFPOINTS
  6
BYBLOCK
 62
     0
100
AcDbPoint
 10
414.9300766614691
 20
264.1361913462528
 30
0.0
  0
ENDBLK
  5
880
330
83E
100
AcDbEntity
  8
0
100
AcDbBlockEnd
  0
ENDSEC
  0
SECTION
  2
ENTITIES
  0
DIMENSION
  5
27B
330
1A
100
AcDbEntity
  8
SUNPOU
 62
     4
100
AcDbDimension
  2
*D1
 10
431.0346421574057
 20
363.911732077936
 30
0.0
 11
423.5346421574057
 21
368.9117320779359
 31
0.0
 70
    32
  3
STANDARD
100
AcDbAlignedDimension
 13
416.0346421574057
 23
315.6204431571789
 33
0.0
 14
431.0346421574057
 24
315.6204431571789
 34
0.0
100
AcDbRotatedDimension
1001
ACAD
1000
DSTYLE
1002
{
1070
   140
1040
6.0
1070
    74
1070
     0
1070
   172
1070
     1
1070
    73
1070
     0
1070
   272
1070
     2
1070
    77
1070
     3
1070
   173
1070
     1
1070
   147
1040
2.0
1070
    42
1040
6.0
1070
    44
1040
3.0
1070
    43
1040
14.0
1070
   271
1070
     0
1070
   178
1070
     4
1070
   177
1070
     4
1070
   176
1070
     4
1070
   141
1040
150.0
1070
     7
1000
_OPEN
1070
     6
1000
_OPEN
1070
    41
1040
7.0
1002
}
  0
LINE
  5
27C
330
1A
100
AcDbEntity
  8
SEIHIN
  6
PHANTOM
 62
     6
 48
5.0
100
AcDbLine
 10
425.0346421574057
 20
315.6204431571789
 30
0.0
 11
422.0770421574057
 21
315.3617431571789
 31
0.0
  0
ARC
  5
27D
330
1A
100
AcDbEntity
  8
SEIHIN
  6
PHANTOM
 62
     6
 48
5.0
100
AcDbCircle
 10
420.0346480189126
 20
292.6204346363295
 30
0.0
 40
4.999994138500411
100
AcDbArc
 50
0.0000976418550262
 51
69.04839648803612
  0
LINE
  5
284
330
1A
100
AcDbEntity
  8
SEIHIN
  6
CONTINUOUS
 62
     3
 48
16.0
100
AcDbLine
 10
410.0346421574057
 20
493.5694994002899
 30
0.0
 11
410.0346421574057
 21
479.5694994002899
 31
0.0
  0
LINE
  5
285
330
1A
100
AcDbEntity
  8
SEIHIN
  6
CONTINUOUS
 62
     3
 48
16.0
100
AcDbLine
 10
412.0346421574057
 20
479.5694994002899
 30
0.0
 11
412.0346421574057
 21
495.5694994002899
 31
0.0
  0
LINE
  5
286
330
1A
100
AcDbEntity
  8
SEIHIN
  6
CONTINUOUS
 62
     3
 48
16.0
100
AcDbLine
 10
416.0346421574057
 20
495.5694994002899
 30
0.0
 11
416.0346421574057
 21
464.0695994002899
 31
0.0
  0
ARC
  5
287
330
1A
100
AcDbEntity
  8
SEIHIN
  6
CONTINUOUS
 62
     3
 48
16.0
100
AcDbCircle
 10
296.0340187292108
 20
464.0689795998213
 30
0.0
 40
4.500019800529451
100
AcDbArc
 50
89.99970170427058
 51
170.4057187045042
  0
LINE
  5
288
330
1A
100
AcDbEntity
  8
SEIHIN
  6
CONTINUOUS
 62
     3
 48
16.0
100
AcDbLine
 10
286.8989421574056
 20
463.3190994002899
 30
0.0
 11
292.8717421574057
 21
463.3189994002898
 31
0.0
  0
LINE
  5
289
330
1A
100
AcDbEntity
  8
SEIHIN
  6
CONTINUOUS
 62
     3
 48
16.0
100
AcDbLine
 10
286.8989421574056
 20
464.8190994002899
 30
0.0
 11
292.8717421574057
 21
464.8189994002897
 31
0.0
  0
ARC
  5
28A
330
1A
100
AcDbEntity
  8
SEIHIN
  6
CONTINUOUS
 62
     3
 48
16.0
100
AcDbCircle
 10
296.0339987935203
 20
464.0689615964587
 30
0.0
 40
5.500037804002123
100
AcDbArc
 50
89.99954826353842
 51
172.1621769166527
  0
ARC
  5
28B
330
1A
100
AcDbEntity
  8
SEIHIN
  6
CONTINUOUS
 62
     3
 48
16.0
100
AcDbCircle
 10
296.0340187292109
 20
464.0690192007582
 30
0.0
 40
4.500019800529515
100
AcDbArc
 50
189.5942812954949
 51
270.0002982957286
  0
ARC
  5
28C
330
1A
100
AcDbEntity
  8
SEIHIN
  6
CONTINUOUS
 62
     3
 48
16.0
100
AcDbCircle
 10
296.0339987939332
 20
464.0690372044548
 30
0.0
 40
5.500037804456654
100
AcDbArc
 50
187.8378230862063
 51
269.9994099978749
  0
LINE
  5
28D
330
1A
100
AcDbEntity
  8
SEIHIN
  6
CONTINUOUS
 62
     3
 48
16.0
100
AcDbLine
 10
290.3848421574057
 20
295.0586431571789
 30
0.0
 11
291.6864421574057
 21
290.2010431571789
 31
0.0
  0
LINE
  5
28E
330
1A
100
AcDbEntity
  8
SEIHIN
  6
CONTINUOUS
 62
     3
 48
16.0
100
AcDbLine
 10
290.5346421574057
 20
285.7663431571789
 30
0.0
 11
296.0346421574056
 21
285.7663431571789
 31
0.0
  0
ARC
  5
28F
330
1A
100
AcDbEntity
  8
SEIHIN
  6
CONTINUOUS
 62
     3
 48
16.0
100
AcDbCircle
 10
290.941585539314
 20
289.4432330475097
 30
0.0
 40
0.5000099135294393
100
AcDbArc
 50
222.8722729487957
 51
337.3828182613864
  0
ARC
  5
290
330
1A
100
AcDbEntity
  8
SEIHIN
  6
CONTINUOUS
 62
     3
 48
16.0
100
AcDbCircle
 10
297.170524031242
 20
295.2267467772522
 30
0.0
 40
9.999927982177339
100
AcDbArc
 50
204.9990608087402
 51
235.6947150041812
  0
LINE
  5
291
330
1A
100
AcDbEntity
  8
SEIHIN
  6
CONTINUOUS
 62
     3
 48
16.0
100
AcDbLine
 10
303.0468421574056
 20
284.2661431571789
 30
0.0
 11
286.0346421574056
 21
284.2661431571789
 31
0.0
  0
LINE
  5
292
330
1A
100
AcDbEntity
  8
SEIHIN
  6
CONTINUOUS
 62
     3
 48
16.0
100
AcDbLine
 10
290.0346421574056
 20
272.2661431571788
 30
0.0
 11
308.7815421574057
 21
272.2661431571788
 31
0.0
  0
LINE
  5
293
330
1A
100
AcDbEntity
  8
SEIHIN
  6
CONTINUOUS
 62
     3
 48
16.0
100
AcDbLine
 10
301.5345421574056
 20
268.4660431571789
 30
0.0
 11
290.5345421574056
 21
268.4660431571789
 31
0.0
  0
ARC
  5
294
330
1A
100
AcDbEntity
  8
SEIHIN
  6
CONTINUOUS
 62
     3
 48
16.0
100
AcDbCircle
 10
296.0345921574057
 20
276.5129431573906
 30
0.0
 40
9.74689948731938
100
AcDbArc
 50
235.6479086071096
 51
304.3520913928904
  0
ARC
  5
295
330
1A
100
AcDbEntity
  8
SEIHIN
  6
CONTINUOUS
 62
     3
 48
16.0
100
AcDbCircle
 10
289.9018421574057
 20
294.9292431571789
 30
0.0
 40
1.500003483329226
100
AcDbArc
 50
14.99883465683124
 51
104.9988346568315
  0
LINE
  5
296
330
1A
100
AcDbEntity
  8
SEIHIN
  6
CONTINUOUS
 62
     3
 48
16.0
100
AcDbLine
 10
268.4396421574056
 20
269.2661431571788
 30
0.0
 11
324.6203421574057
 21
269.2661431571788
 31
0.0
  0
LINE
  5
297
330
1A
100
AcDbEntity
  8
SEIHIN
  6
CONTINUOUS
 62
     3
 48
16.0
100
AcDbLine
 10
268.4396421574056
 20
271.7661431571788
 30
0.0
 11
324.6203421574057
 21
271.7661431571788
 31
0.0
  0
LINE
  5
298
330
1A
100
AcDbEntity
  8
SEIHIN
  6
CONTINUOUS
 62
     3
 48
16.0
100
AcDbLine
 10
409.0346421574057
 20
451.5694994002899
 30
0.0
 11
286.0346421574056
 21
451.5694994002899
 31
0.0
  0
LINE
  5
299
330
1A
100
AcDbEntity
  8
SEIHIN
  6
CONTINUOUS
 62
     3
 48
16.0
100
AcDbLine
 10
409.0346421574057
 20
476.5694994002899
 30
0.0
 11
286.0346421574056
 21
476.5694994002899
 31
0.0
  0
LINE
  5
29A
330
1A
100
AcDbEntity
  8
CENTER_L
  6
CENTER
 62
     1
 48
5.0
100
AcDbLine
 10
242.5540421574056
 20
464.0694994002899
 30
0.0
 11
421.6171421574055
 21
464.0694994002899
 31
0.0
  0
LINE
  5
29B
330
1A
100
AcDbEntity
  8
SEIHIN
  6
CONTINUOUS
 62
     3
 48
16.0
100
AcDbLine
 10
255.0345421574056
 20
275.9661431571789
 30
0.0
 11
259.6331421574056
 21
275.9661431571789
 31
0.0
  0
ARC
  5
29C
330
1A
100
AcDbEntity
  8
SEIHIN
  6
CONTINUOUS
 62
     3
 48
16.0
100
AcDbCircle
 10
256.7346548816476
 20
284.0159438364637
 30
0.0
 40
4.249771082082451
100
AcDbArc
 50
248.0389576229231
 51
298.0724105654603
  0
ARC
  5
29D
330
1A
100
AcDbEntity
  8
SEIHIN
  6
CONTINUOUS
 62
     3
 48
16.0
100
AcDbCircle
 10
255.0345421574056
 20
278.966143157179
 30
0.0
 40
3.0
100
AcDbArc
 50
180.0
 51
270.0
  0
LINE
  5
29E
330
1A
100
AcDbEntity
  8
SEIHIN
  6
CONTINUOUS
 62
     3
 48
16.0
100
AcDbLine
 10
252.0345421574056
 20
280.2661431571789
 30
0.0
 11
252.0345421574056
 21
278.966143157179
 31
0.0
  0
LINE
  5
29F
330
1A
100
AcDbEntity
  8
SEIHIN
  6
CONTINUOUS
 62
     3
 48
16.0
100
AcDbLine
 10
254.8515421574056
 20
280.6756431571789
 30
0.0
 11
252.0477421574057
 21
280.6756431571789
 31
0.0
  0
LINE
  5
2A0
330
1A
100
AcDbEntity
  8
SEIHIN
  6
CONTINUOUS
 62
     3
 48
16.0
100
AcDbLine
 10
254.7345421574057
 20
283.7661431571788
 30
0.0
 11
255.0717421574056
 21
283.7661431571788
 31
0.0
  0
LINE
  5
2A1
330
1A
100
AcDbEntity
  8
SEIHIN
  6
CONTINUOUS
 62
     3
 48
16.0
100
AcDbLine
 10
255.5525421574057
 20
283.1288431571789
 30
0.0
 11
254.8515421574056
 21
280.6756431571789
 31
0.0
  0
ARC
  5
2A3
330
1A
100
AcDbEntity
  8
SEIHIN
  6
CONTINUOUS
 62
     3
 48
16.0
100
AcDbCircle
 10
255.53332004914
 20
280.3585144978408
 30
0.0
 40
3.49999702860806
100
AcDbArc
 50
103.1924424199612
 51
181.512316299821
  0
ARC
  5
2A4
330
1A
100
AcDbEntity
  8
SEIHIN
  6
CONTINUOUS
 62
     3
 48
16.0
100
AcDbCircle
 10
255.0717134063228
 20
283.266181270084
 30
0.0
 40
0.4999618879214712
100
AcDbArc
 50
344.0560320448828
 51
89.99670511744499
  0
ARC
  5
2A5
330
1A
100
AcDbEntity
  8
SEIHIN
  6
CONTINUOUS
 62
     3
 48
16.0
100
AcDbCircle
 10
255.332322237212
 20
280.5382839198592
 30
0.0
 40
0.5000170449251722
100
AcDbArc
 50
164.0553202355196
 51
248.0407286048652
  0
LINE
  5
2A6
330
1A
100
AcDbEntity
  8
SEIHIN
  6
CONTINUOUS
 62
     3
 48
16.0
100
AcDbLine
 10
286.0346421574056
 20
276.2661431571789
 30
0.0
 11
286.0346421574056
 21
284.2661431571789
 31
0.0
  0
ARC
  5
2A7
330
1A
100
AcDbEntity
  8
SEIHIN
  6
CONTINUOUS
 62
     3
 48
16.0
100
AcDbCircle
 10
264.2605526229268
 20
276.7661692278585
 30
0.0
 40
0.9999739293751089
100
AcDbArc
 50
90.00059964582789
 51
226.2567070142238
  0
LINE
  5
2A8
330
1A
100
AcDbEntity
  8
SEIHIN
  6
CONTINUOUS
 62
     3
 48
16.0
100
AcDbLine
 10
267.1345421574056
 20
277.7662431571788
 30
0.0
 11
267.1345421574056
 21
272.6311431571789
 31
0.0
  0
ARC
  5
2A9
330
1A
100
AcDbEntity
  8
SEIHIN
  6
CONTINUOUS
 62
     3
 48
16.0
100
AcDbCircle
 10
268.4396072369427
 20
272.766157175694
 30
0.0
 40
3.500014018689377
100
AcDbArc
 50
226.255445634851
 51
270.0005716534657
  0
LINE
  5
2AA
330
1A
100
AcDbEntity
  8
SEIHIN
  6
CONTINUOUS
 62
     3
 48
16.0
100
AcDbLine
 10
267.7482421574057
 20
272.0437431571788
 30
0.0
 11
263.5691421574057
 21
276.0437431571788
 31
0.0
  0
ARC
  5
2AB
330
1A
100
AcDbEntity
  8
SEIHIN
  6
CONTINUOUS
 62
     3
 48
16.0
100
AcDbCircle
 10
259.6330772126857
 20
274.9661692278584
 30
0.0
 40
0.9999739314294357
100
AcDbArc
 50
46.25238621303334
 51
89.99627884463848
  0
LINE
  5
2AC
330
1A
100
AcDbEntity
  8
SEIHIN
  6
CONTINUOUS
 62
     3
 48
16.0
100
AcDbLine
 10
260.3245421574057
 20
275.6885431571788
 30
0.0
 11
266.0195421574057
 21
270.2376431571788
 31
0.0
  0
ARC
  5
2AD
330
1A
100
AcDbEntity
  8
SEIHIN
  6
CONTINUOUS
 62
     3
 48
16.0
100
AcDbCircle
 10
268.4397071021255
 20
272.766117086499
 30
0.0
 40
0.9999739314291554
100
AcDbArc
 50
226.2523862130362
 51
269.9962788446403
  0
LINE
  5
2AE
330
1A
100
AcDbEntity
  8
SEIHIN
  6
CONTINUOUS
 62
     3
 48
16.0
100
AcDbLine
 10
290.5345421574056
 20
268.4660431571789
 30
0.0
 11
290.5345421574056
 21
269.2660431571789
 31
0.0
  0
LINE
  5
2AF
330
1A
100
AcDbEntity
  8
SEIHIN
  6
CONTINUOUS
 62
     3
 48
16.0
100
AcDbLine
 10
286.0346421574056
 20
276.2661431571789
 30
0.0
 11
290.0346421574056
 21
272.2661431571788
 31
0.0
  0
LINE
  5
2B0
330
1A
100
AcDbEntity
  8
SEIHIN
  6
CONTINUOUS
 62
     3
 48
16.0
100
AcDbLine
 10
258.7345421574057
 20
280.2661431571789
 30
0.0
 11
286.0346421574056
 21
280.2661431571789
 31
0.0
  0
LINE
  5
2B1
330
1A
100
AcDbEntity
  8
SEIHIN
  6
CONTINUOUS
 62
     3
 48
16.0
100
AcDbLine
 10
286.0346421574056
 20
277.7661431571789
 30
0.0
 11
264.2605421574056
 21
277.7661431571789
 31
0.0
  0
LINE
  5
2B2
330
1A
100
AcDbEntity
  8
SEIHIN
  6
CONTINUOUS
 62
     3
 48
16.0
100
AcDbLine
 10
290.5346421574057
 20
285.7663431571789
 30
0.0
 11
290.5346421574057
 21
284.2663431571789
 31
0.0
  0
LINE
  5
2B3
330
1A
100
AcDbEntity
  8
SEIHIN
  6
CONTINUOUS
 62
     3
 48
16.0
100
AcDbLine
 10
288.0201421574056
 20
294.9426431571789
 30
0.0
 11
289.7724421574057
 21
295.4122431571789
 31
0.0
  0
LINE
  5
2B4
330
1A
100
AcDbEntity
  8
SEIHIN
  6
CONTINUOUS
 62
     3
 48
16.0
100
AcDbLine
 10
289.0137421574057
 20
291.4233431571789
 30
0.0
 11
287.6963421574057
 21
294.2483431571788
 31
0.0
  0
LINE
  5
2B5
330
1A
100
AcDbEntity
  8
SEIHIN
  6
CONTINUOUS
 62
     3
 48
16.0
100
AcDbLine
 10
286.7900421574056
 20
293.8257431571789
 30
0.0
 11
288.1074421574057
 21
291.0007431571789
 31
0.0
  0
ARC
  5
2B6
330
1A
100
AcDbEntity
  8
SEIHIN
  6
CONTINUOUS
 62
     3
 48
16.0
100
AcDbCircle
 10
288.1495026014887
 20
294.4596583137479
 30
0.0
 40
0.5000084834054359
100
AcDbArc
 50
104.9939173385051
 51
205.0003085611172
  0
ARC
  5
2B7
330
1A
100
AcDbEntity
  8
SEIHIN
  6
CONTINUOUS
 62
     3
 48
16.0
100
AcDbCircle
 10
289.9018421574056
 20
294.929243157179
 30
0.0
 40
0.5000333588871375
100
AcDbArc
 50
14.99784618189132
 51
104.9978461818913
  0
ARC
  5
2B8
330
1A
100
AcDbEntity
  8
SEIHIN
  6
CONTINUOUS
 62
     3
 48
16.0
100
AcDbCircle
 10
297.1706184386964
 20
295.22658120476
 30
0.0
 40
8.999958350728704
100
AcDbArc
 50
204.9978315563435
 51
222.875485065947
  0
LINE
  5
2B9
330
1A
100
AcDbEntity
  8
SEIHIN
  6
CONTINUOUS
 62
     3
 48
16.0
100
AcDbLine
 10
289.5136421574057
 20
296.3781431571788
 30
0.0
 11
287.7613421574057
 21
295.9085431571789
 31
0.0
  0
ARC
  5
2BA
330
1A
100
AcDbEntity
  8
SEIHIN
  6
CONTINUOUS
 62
     3
 48
16.0
100
AcDbCircle
 10
288.1494984312849
 20
294.4596493825395
 30
0.0
 40
1.499986154316359
100
AcDbArc
 50
104.9972828703585
 51
204.9993544965739
  0
LINE
  5
2BB
330
1A
100
AcDbEntity
  8
SEIHIN
  6
CONTINUOUS
 62
     3
 48
16.0
100
AcDbLine
 10
286.0346421574056
 20
471.5694994002899
 30
0.0
 11
255.7345421574057
 21
471.5694994002899
 31
0.0
  0
LINE
  5
2BC
330
1A
100
AcDbEntity
  8
SEIHIN
  6
CONTINUOUS
 62
     3
 48
16.0
100
AcDbLine
 10
286.0346421574056
 20
456.5694994002899
 30
0.0
 11
255.7345421574057
 21
456.5694994002899
 31
0.0
  0
LINE
  5
2BD
330
1A
100
AcDbEntity
  8
SEIHIN
  6
CONTINUOUS
 62
     3
 48
16.0
100
AcDbLine
 10
255.7345421574057
 20
452.0694994002899
 30
0.0
 11
255.7345421574057
 21
464.0694994002899
 31
0.0
  0
LINE
  5
2BE
330
1A
100
AcDbEntity
  8
SEIHIN
  6
CONTINUOUS
 62
     3
 48
16.0
100
AcDbLine
 10
252.0345421574056
 20
452.0694994002899
 30
0.0
 11
252.0345421574056
 21
464.0694994002899
 31
0.0
  0
LINE
  5
2BF
330
1A
100
AcDbEntity
  8
SEIHIN
  6
CONTINUOUS
 62
     3
 48
16.0
100
AcDbLine
 10
252.0345421574056
 20
452.0694994002899
 30
0.0
 11
255.7345421574057
 21
452.0694994002899
 31
0.0
  0
LINE
  5
2C0
330
1A
100
AcDbEntity
  8
SEIHIN
  6
CONTINUOUS
 62
     3
 48
16.0
100
AcDbLine
 10
252.0345421574056
 20
476.0694994002899
 30
0.0
 11
252.0345421574056
 21
464.0694994002899
 31
0.0
  0
LINE
  5
2C1
330
1A
100
AcDbEntity
  8
SEIHIN
  6
CONTINUOUS
 62
     3
 48
16.0
100
AcDbLine
 10
255.7345421574057
 20
476.0694994002899
 30
0.0
 11
255.7345421574057
 21
464.0694994002899
 31
0.0
  0
LINE
  5
2C2
330
1A
100
AcDbEntity
  8
SEIHIN
  6
CONTINUOUS
 62
     3
 48
16.0
100
AcDbLine
 10
252.0345421574056
 20
476.0694994002899
 30
0.0
 11
255.7345421574057
 21
476.0694994002899
 31
0.0
  0
LINE
  5
2C3
330
1A
100
AcDbEntity
  8
SEIHIN
  6
CONTINUOUS
 62
     3
 48
16.0
100
AcDbLine
 10
286.0346421574056
 20
451.5694994002899
 30
0.0
 11
286.0346421574056
 21
464.0694994002899
 31
0.0
  0
LINE
  5
2C4
330
1A
100
AcDbEntity
  8
SEIHIN
  6
CONTINUOUS
 62
     3
 48
16.0
100
AcDbLine
 10
258.7345421574057
 20
456.5695994002899
 30
0.0
 11
258.7345421574057
 21
464.0694994002899
 31
0.0
  0
LINE
  5
2C5
330
1A
100
AcDbEntity
  8
SEIHIN
  6
CONTINUOUS
 62
     3
 48
16.0
100
AcDbLine
 10
258.7345421574057
 20
471.5693994002898
 30
0.0
 11
258.7345421574057
 21
464.0694994002899
 31
0.0
  0
LINE
  5
2C6
330
1A
100
AcDbEntity
  8
SEIHIN
  6
CONTINUOUS
 62
     3
 48
16.0
100
AcDbLine
 10
286.0346421574056
 20
476.5694994002899
 30
0.0
 11
286.0346421574056
 21
464.0694994002899
 31
0.0
  0
LINE
  5
2C7
330
1A
100
AcDbEntity
  8
SEIHIN
  6
CONTINUOUS
 62
     3
 48
16.0
100
AcDbLine
 10
286.6489421574057
 20
463.5690994002898
 30
0.0
 11
286.6489421574057
 21
464.5690994002899
 31
0.0
  0
ARC
  5
2C8
330
1A
100
AcDbEntity
  8
SEIHIN
  6
CONTINUOUS
 62
     3
 48
16.0
100
AcDbCircle
 10
286.8989421574056
 20
464.5690994002899
 30
0.0
 40
0.25
100
AcDbArc
 50
90.0
 51
180.0
  0
ARC
  5
2C9
330
1A
100
AcDbEntity
  8
SEIHIN
  6
CONTINUOUS
 62
     3
 48
16.0
100
AcDbCircle
 10
286.8989421574056
 20
463.5690994002898
 30
0.0
 40
0.25
100
AcDbArc
 50
180.0
 51
270.0
  0
ARC
  5
2CA
330
1A
100
AcDbEntity
  8
SEIHIN
  6
CONTINUOUS
 62
     3
 48
16.0
100
AcDbCircle
 10
365.9939358554972
 20
273.2661400190542
 30
0.0
 40
20.00000313812564
100
AcDbArc
 50
89.999981946365
 51
142.9432997870775
  0
ARC
  5
2CB
330
1A
100
AcDbEntity
  8
SEIHIN
  6
CONTINUOUS
 62
     3
 48
16.0
100
AcDbCircle
 10
365.993942631112
 20
273.2661433930678
 30
0.0
 40
22.49999976411112
100
AcDbArc
 50
90.00000120628323
 51
142.9433444493904
  0
LINE
  5
2CC
330
1A
100
AcDbEntity
  8
SEIHIN
  6
CONTINUOUS
 62
     3
 48
16.0
100
AcDbLine
 10
405.0346421574057
 20
297.6204431571789
 30
0.0
 11
340.3758421574055
 21
297.6204431571789
 31
0.0
  0
LINE
  5
2CD
330
1A
100
AcDbEntity
  8
SEIHIN
  6
CONTINUOUS
 62
     3
 48
16.0
100
AcDbLine
 10
410.0346421574057
 20
315.6204431571789
 30
0.0
 11
336.8739421574056
 21
309.2197431571788
 31
0.0
  0
ARC
  5
2CE
330
1A
100
AcDbEntity
  8
SEIHIN
  6
CONTINUOUS
 62
     3
 48
16.0
100
AcDbCircle
 10
339.4014409138723
 20
280.3301424686775
 30
0.0
 40
28.99995306728952
100
AcDbArc
 50
94.99997284360597
 51
142.9435915196731
  0
LINE
  5
2CF
330
1A
100
AcDbEntity
  8
SEIHIN
  6
CONTINUOUS
 62
     3
 48
16.0
100
AcDbLine
 10
315.9639421574056
 20
275.8427431571789
 30
0.0
 11
327.6071421574057
 21
291.2621431571788
 31
0.0
  0
LINE
  5
2D0
330
1A
100
AcDbEntity
  8
SEIHIN
  6
CONTINUOUS
 62
     3
 48
16.0
100
AcDbLine
 10
339.1896421574056
 20
277.7661431571789
 30
0.0
 11
317.4163421574056
 21
277.7661431571789
 31
0.0
  0
LINE
  5
2D1
330
1A
100
AcDbEntity
  8
SEIHIN
  6
CONTINUOUS
 62
     3
 48
16.0
100
AcDbLine
 10
319.3041421574057
 20
280.2661431571789
 30
0.0
 11
329.9447421574057
 21
280.2661431571789
 31
0.0
  0
LINE
  5
2D2
330
1A
100
AcDbEntity
  8
SEIHIN
  6
CONTINUOUS
 62
     3
 48
16.0
100
AcDbLine
 10
321.9346421574057
 20
277.7662431571788
 30
0.0
 11
321.9346421574057
 21
271.7660431571788
 31
0.0
  0
LINE
  5
2D3
330
1A
100
AcDbEntity
  8
CENTER_L
  6
CENTER
 62
     1
 48
5.0
100
AcDbLine
 10
296.0346421574056
 20
293.3006431571788
 30
0.0
 11
296.0345421574057
 21
264.5439431571789
 31
0.0
  0
LINE
  5
2D4
330
1A
100
AcDbEntity
  8
SEIHIN
  6
CONTINUOUS
 62
     3
 48
16.0
100
AcDbLine
 10
301.5345421574056
 20
268.4660431571789
 30
0.0
 11
301.5345421574056
 21
269.2658431571789
 31
0.0
  0
ARC
  5
2D5
330
1A
100
AcDbEntity
  8
SEIHIN
  6
CONTINUOUS
 62
     3
 48
16.0
100
AcDbCircle
 10
308.7815498174167
 20
281.2661469716216
 30
0.0
 40
9.000003814446047
100
AcDbArc
 50
269.9999512348761
 51
322.9436511488674
  0
ARC
  5
2D6
330
1A
100
AcDbEntity
  8
SEIHIN
  6
CONTINUOUS
 62
     3
 48
16.0
100
AcDbCircle
 10
303.0467938438265
 20
290.266119098749
 30
0.0
 40
5.999975941764654
100
AcDbArc
 50
270.0004613625472
 51
322.9437776467124
  0
LINE
  5
2D7
330
1A
100
AcDbEntity
  8
SEIHIN
  6
CONTINUOUS
 62
     3
 48
16.0
100
AcDbLine
 10
300.5346421574056
 20
286.9663431571788
 30
0.0
 11
299.2846421574056
 21
289.9663431571789
 31
0.0
  0
ARC
  5
2D8
330
1A
100
AcDbEntity
  8
SEIHIN
  6
CONTINUOUS
 62
     3
 48
16.0
100
AcDbCircle
 10
294.898722817162
 20
295.2269381074511
 30
0.0
 40
9.999994428414836
100
AcDbArc
 50
304.3038978962834
 51
334.9992749556044
  0
LINE
  5
2D9
330
1A
100
AcDbEntity
  8
SEIHIN
  6
CONTINUOUS
 62
     3
 48
16.0
100
AcDbLine
 10
291.5346421574056
 20
286.9663431571788
 30
0.0
 11
292.7846421574057
 21
289.9663431571789
 31
0.0
  0
LINE
  5
2DA
330
1A
100
AcDbEntity
  8
SEIHIN
  6
CONTINUOUS
 62
     3
 48
16.0
100
AcDbLine
 10
300.5346421574056
 20
286.9663431571788
 30
0.0
 11
296.0346421574056
 21
286.9663431571788
 31
0.0
  0
LINE
  5
2DB
330
1A
100
AcDbEntity
  8
SEIHIN
  6
CONTINUOUS
 62
     3
 48
16.0
100
AcDbLine
 10
301.5346421574056
 20
285.7663431571789
 30
0.0
 11
296.0346421574056
 21
285.7663431571789
 31
0.0
  0
LINE
  5
2DC
330
1A
100
AcDbEntity
  8
SEIHIN
  6
CONTINUOUS
 62
     3
 48
16.0
100
AcDbLine
 10
291.5346421574056
 20
286.9663431571788
 30
0.0
 11
292.0346421574056
 21
285.7663431571789
 31
0.0
  0
LINE
  5
2DD
330
1A
100
AcDbEntity
  8
SEIHIN
  6
CONTINUOUS
 62
     3
 48
16.0
100
AcDbLine
 10
291.5346421574056
 20
286.9663431571788
 30
0.0
 11
296.0346421574056
 21
286.9663431571788
 31
0.0
  0
LINE
  5
2DE
330
1A
100
AcDbEntity
  8
SEIHIN
  6
CONTINUOUS
 62
     3
 48
16.0
100
AcDbLine
 10
300.5346421574056
 20
286.9663431571788
 30
0.0
 11
300.0346421574056
 21
285.7663431571789
 31
0.0
  0
LINE
  5
2DF
330
1A
100
AcDbEntity
  8
SEIHIN
  6
CONTINUOUS
 62
     3
 48
16.0
100
AcDbLine
 10
301.5346421574056
 20
285.7663431571789
 30
0.0
 11
301.5346421574056
 21
284.2663431571789
 31
0.0
  0
LINE
  5
2E0
330
1A
100
AcDbEntity
  8
SEIHIN
  6
CONTINUOUS
 62
     3
 48
16.0
100
AcDbLine
 10
299.2846421574056
 20
289.9663431571789
 30
0.0
 11
300.7183421574057
 21
295.3174431571789
 31
0.0
  0
LINE
  5
2E1
330
1A
100
AcDbEntity
  8
SEIHIN
  6
CONTINUOUS
 62
     3
 48
16.0
100
AcDbLine
 10
298.5346421574056
 20
291.2663431571788
 30
0.0
 11
298.5346421574056
 21
289.9663431571789
 31
0.0
  0
LINE
  5
2E2
330
1A
100
AcDbEntity
  8
SEIHIN
  6
CONTINUOUS
 62
     3
 48
16.0
100
AcDbLine
 10
293.5346421574056
 20
291.2663431571788
 30
0.0
 11
293.5346421574056
 21
289.9663431571789
 31
0.0
  0
LINE
  5
2E3
330
1A
100
AcDbEntity
  8
SEIHIN
  6
CONTINUOUS
 62
     3
 48
16.0
100
AcDbLine
 10
296.0345421574057
 20
291.2663431571788
 30
0.0
 11
293.5346421574056
 21
291.2663431571788
 31
0.0
  0
LINE
  5
2E4
330
1A
100
AcDbEntity
  8
SEIHIN
  6
CONTINUOUS
 62
     3
 48
16.0
100
AcDbLine
 10
296.0346421574056
 20
289.9663431571789
 30
0.0
 11
292.7846421574057
 21
289.9663431571789
 31
0.0
  0
LINE
  5
2E5
330
1A
100
AcDbEntity
  8
SEIHIN
  6
CONTINUOUS
 62
     3
 48
16.0
100
AcDbLine
 10
291.6649421574056
 20
289.8793431571789
 30
0.0
 11
291.4031421574057
 21
289.2509431571789
 31
0.0
  0
LINE
  5
2E6
330
1A
100
AcDbEntity
  8
SEIHIN
  6
CONTINUOUS
 62
     3
 48
16.0
100
AcDbLine
 10
292.7846421574057
 20
289.9663431571789
 30
0.0
 11
291.3507421574056
 21
295.3174431571789
 31
0.0
  0
ARC
  5
2E7
330
1A
100
AcDbEntity
  8
SEIHIN
  6
CONTINUOUS
 62
     3
 48
16.0
100
AcDbCircle
 10
291.203439604912
 20
290.0716048283737
 30
0.0
 40
0.4999491535833398
100
AcDbArc
 50
337.3834207095949
 51
15.0049791876517
  0
LINE
  5
2E8
330
1A
100
AcDbEntity
  8
SEIHIN
  6
CONTINUOUS
 62
     3
 48
16.0
100
AcDbLine
 10
296.0346421574056
 20
289.9663431571789
 30
0.0
 11
299.2846421574056
 21
289.9663431571789
 31
0.0
  0
LINE
  5
2E9
330
1A
100
AcDbEntity
  8
SEIHIN
  6
CONTINUOUS
 62
     3
 48
16.0
100
AcDbLine
 10
296.0346421574056
 20
291.2663431571788
 30
0.0
 11
298.5345421574056
 21
291.2663431571788
 31
0.0
  0
LINE
  5
2EA
330
1A
100
AcDbEntity
  8
SEIHIN
  6
CONTINUOUS
 62
     3
 48
16.0
100
AcDbLine
 10
300.4041421574057
 20
289.8793431571789
 30
0.0
 11
300.6660421574057
 21
289.2509431571789
 31
0.0
  0
LINE
  5
2EB
330
1A
100
AcDbEntity
  8
SEIHIN
  6
CONTINUOUS
 62
     3
 48
16.0
100
AcDbLine
 10
301.6843421574056
 20
295.0586431571789
 30
0.0
 11
300.3827421574057
 21
290.2010431571789
 31
0.0
  0
LINE
  5
2EC
330
1A
100
AcDbEntity
  8
SEIHIN
  6
CONTINUOUS
 62
     3
 48
16.0
100
AcDbLine
 10
305.2791421574057
 20
293.8257431571789
 30
0.0
 11
303.9617421574057
 21
291.0007431571789
 31
0.0
  0
LINE
  5
2ED
330
1A
100
AcDbEntity
  8
SEIHIN
  6
CONTINUOUS
 62
     3
 48
16.0
100
AcDbLine
 10
304.0490421574056
 20
294.9426431571789
 30
0.0
 11
302.2967421574057
 21
295.4121431571788
 31
0.0
  0
LINE
  5
2EE
330
1A
100
AcDbEntity
  8
SEIHIN
  6
CONTINUOUS
 62
     3
 48
16.0
100
AcDbLine
 10
303.0554421574056
 20
291.4233431571789
 30
0.0
 11
304.3728421574057
 21
294.2483431571788
 31
0.0
  0
ARC
  5
2EF
330
1A
100
AcDbEntity
  8
SEIHIN
  6
CONTINUOUS
 62
     3
 48
16.0
100
AcDbCircle
 10
303.9196184182151
 20
294.4596940654664
 30
0.0
 40
0.4999903293584431
100
AcDbArc
 50
334.9942007564465
 51
74.99801644261495
  0
ARC
  5
2F0
330
1A
100
AcDbEntity
  8
SEIHIN
  6
CONTINUOUS
 62
     3
 48
16.0
100
AcDbCircle
 10
294.8987046296475
 20
295.2269359898277
 30
0.0
 40
9.000024792292725
100
AcDbArc
 50
317.1218255523311
 51
334.9991711343637
  0
ARC
  5
2F1
330
1A
100
AcDbEntity
  8
SEIHIN
  6
CONTINUOUS
 62
     3
 48
16.0
100
AcDbCircle
 10
300.8657347537899
 20
290.0717542881152
 30
0.0
 40
0.4999974598192606
100
AcDbArc
 50
165.0142351982865
 51
202.6328278695624
  0
ARC
  5
2F2
330
1A
100
AcDbEntity
  8
SEIHIN
  6
CONTINUOUS
 62
     3
 48
16.0
100
AcDbCircle
 10
301.127595712846
 20
289.4432335865644
 30
0.0
 40
0.5000072937196915
100
AcDbArc
 50
202.6173737235509
 51
317.1117262707761
  0
ARC
  5
2F3
330
1A
100
AcDbEntity
  8
SEIHIN
  6
CONTINUOUS
 62
     3
 48
16.0
100
AcDbCircle
 10
302.1672830085157
 20
294.9292090066278
 30
0.0
 40
0.4999850647767057
100
AcDbArc
 50
74.99365376778166
 51
164.9966195745633
  0
LINE
  5
2F4
330
1A
100
AcDbEntity
  8
SEIHIN
  6
CONTINUOUS
 62
     3
 48
16.0
100
AcDbLine
 10
302.5555421574057
 20
296.3781431571788
 30
0.0
 11
304.3078421574057
 21
295.9085431571789
 31
0.0
  0
ARC
  5
2F5
330
1A
100
AcDbEntity
  8
SEIHIN
  6
CONTINUOUS
 62
     3
 48
16.0
100
AcDbCircle
 10
302.1673421574057
 20
294.9292431571788
 30
0.0
 40
1.500003483329318
100
AcDbArc
 50
75.00116534316557
 51
165.0011653431669
  0
ARC
  5
2F6
330
1A
100
AcDbEntity
  8
SEIHIN
  6
CONTINUOUS
 62
     3
 48
16.0
100
AcDbCircle
 10
303.9196225828281
 20
294.4596851339267
 30
0.0
 40
1.499968002867925
100
AcDbArc
 50
334.9988153855758
 51
75.00002814091899
  0
LINE
  5
2F7
330
1A
100
AcDbEntity
  8
SEIHIN
  6
CONTINUOUS
 62
     3
 48
16.0
100
AcDbLine
 10
316.2582421574057
 20
297.8055431571789
 30
0.0
 11
307.8350421574056
 21
286.6505431571789
 31
0.0
  0
LINE
  5
2F8
330
1A
100
AcDbEntity
  8
SEIHIN
  6
CONTINUOUS
 62
     3
 48
16.0
100
AcDbLine
 10
352.6811421574057
 20
277.4389431571788
 30
0.0
 11
353.2827421574056
 21
275.3155431571788
 31
0.0
  0
ARC
  5
2F9
330
1A
100
AcDbEntity
  8
SEIHIN
  6
CONTINUOUS
 62
     3
 48
16.0
100
AcDbCircle
 10
353.3064421574057
 20
277.6161431571789
 30
0.0
 40
0.6500192304847806
100
AcDbArc
 50
15.81947663555296
 51
195.8194766355529
  0
LINE
  5
2FA
330
1A
100
AcDbEntity
  8
SEIHIN
  6
CONTINUOUS
 62
     3
 48
16.0
100
AcDbLine
 10
353.9318421574057
 20
277.7933431571789
 30
0.0
 11
355.4900421574057
 21
272.2933431571788
 31
0.0
  0
ARC
  5
2FB
330
1A
100
AcDbEntity
  8
SEIHIN
  6
CONTINUOUS
 62
     3
 48
16.0
100
AcDbCircle
 10
339.1896534079725
 20
276.7661205651893
 30
0.0
 40
1.000022592052877
100
AcDbArc
 50
322.9462625565133
 51
90.00064459543898
  0
LINE
  5
2FC
330
1A
100
AcDbEntity
  8
SEIHIN
  6
CONTINUOUS
 62
     3
 48
16.0
100
AcDbLine
 10
339.1951421574057
 20
270.9651431571789
 30
0.0
 11
350.0331421574056
 21
285.3182431571788
 31
0.0
  0
LINE
  5
2FD
330
1A
100
AcDbEntity
  8
SEIHIN
  6
CONTINUOUS
 62
     3
 48
16.0
100
AcDbLine
 10
340.2189421574056
 20
269.3884431571788
 30
0.0
 11
351.2421421574056
 21
271.9436431571789
 31
0.0
  0
LINE
  5
2FE
330
1A
100
AcDbEntity
  8
SEIHIN
  6
CONTINUOUS
 62
     3
 48
16.0
100
AcDbLine
 10
337.5346421574057
 20
266.7661431571789
 30
0.0
 11
355.0339421574055
 21
271.4886431571788
 31
0.0
  0
LINE
  5
2FF
330
1A
100
AcDbEntity
  8
SEIHIN
  6
CONTINUOUS
 62
     3
 48
16.0
100
AcDbLine
 10
337.5346421574057
 20
266.7661431571789
 30
0.0
 11
328.9843421574056
 21
266.7661431571789
 31
0.0
  0
LINE
  5
300
330
1A
100
AcDbEntity
  8
SEIHIN
  6
CONTINUOUS
 62
     3
 48
16.0
100
AcDbLine
 10
328.9843421574056
 20
269.2661431571788
 30
0.0
 11
334.2815421574057
 21
269.2661431571788
 31
0.0
  0
LINE
  5
301
330
1A
100
AcDbEntity
  8
SEIHIN
  6
CONTINUOUS
 62
     3
 48
16.0
100
AcDbLine
 10
328.2772421574057
 20
269.5590431571788
 30
0.0
 11
327.0952421574057
 21
270.7410431571788
 31
0.0
  0
LINE
  5
302
330
1A
100
AcDbEntity
  8
SEIHIN
  6
CONTINUOUS
 62
     3
 48
16.0
100
AcDbLine
 10
326.5094421574056
 20
267.7912431571789
 30
0.0
 11
325.3275421574057
 21
268.9732431571789
 31
0.0
  0
ARC
  5
303
330
1A
100
AcDbEntity
  8
SEIHIN
  6
CONTINUOUS
 62
     3
 48
16.0
100
AcDbCircle
 10
328.9843537336151
 20
270.2661383621558
 30
0.0
 40
0.9999952050439137
100
AcDbArc
 50
224.9993367288702
 51
269.9993367288691
  0
ARC
  5
304
330
1A
100
AcDbEntity
  8
SEIHIN
  6
CONTINUOUS
 62
     3
 48
16.0
100
AcDbCircle
 10
324.6203869960114
 20
268.2661245844202
 30
0.0
 40
3.500018573045817
100
AcDbArc
 50
45.00073401406603
 51
90.00073401406572
  0
ARC
  5
305
330
1A
100
AcDbEntity
  8
SEIHIN
  6
CONTINUOUS
 62
     3
 48
16.0
100
AcDbCircle
 10
324.6203305811962
 20
268.2661479522018
 30
0.0
 40
0.9999952050440143
100
AcDbArc
 50
44.99933672887019
 51
89.99933672887157
  0
ARC
  5
306
330
1A
100
AcDbEntity
  8
SEIHIN
  6
CONTINUOUS
 62
     3
 48
16.0
100
AcDbCircle
 10
328.9842973187999
 20
270.2661617299375
 30
0.0
 40
3.500018573045792
100
AcDbArc
 50
225.0007340140657
 51
270.0007340140658
  0
ARC
  5
307
330
1A
100
AcDbEntity
  8
SEIHIN
  6
CONTINUOUS
 62
     3
 48
16.0
100
AcDbCircle
 10
339.9931313941666
 20
270.3625597333163
 30
0.0
 40
0.9999468009350755
100
AcDbArc
 50
142.9425516661817
 51
283.0512651047551
  0
ARC
  5
308
330
1A
100
AcDbEntity
  8
SEIHIN
  6
CONTINUOUS
 62
     3
 48
16.0
100
AcDbCircle
 10
334.2815073943894
 20
270.2661258468791
 30
0.0
 40
0.9999826903045118
100
AcDbArc
 50
270.0019918085952
 51
322.9441571624608
  0
LINE
  5
309
330
1A
100
AcDbEntity
  8
SEIHIN
  6
CONTINUOUS
 62
     3
 48
16.0
100
AcDbLine
 10
339.9877421574056
 20
276.1635431571789
 30
0.0
 11
335.0795421574056
 21
269.6635431571789
 31
0.0
  0
ARC
  5
30A
330
1A
100
AcDbEntity
  8
SEIHIN
  6
CONTINUOUS
 62
     3
 48
16.0
100
AcDbCircle
 10
353.090259030603
 20
275.2610665960997
 30
0.0
 40
0.2000436197700878
100
AcDbArc
 50
272.6884681247674
 51
15.80257029503106
  0
ARC
  5
30B
330
1A
100
AcDbEntity
  8
SEIHIN
  6
CONTINUOUS
 62
     3
 48
16.0
100
AcDbCircle
 10
354.8646704776577
 20
272.1161931300049
 30
0.0
 40
0.6499783611464051
100
AcDbArc
 50
285.0953788674697
 51
15.81591890613247
  0
ARC
  5
30C
330
1A
100
AcDbEntity
  8
SEIHIN
  6
CONTINUOUS
 62
     3
 48
16.0
100
AcDbCircle
 10
351.196920367983
 20
272.1384985888688
 30
0.0
 40
0.200034120833529
100
AcDbArc
 50
283.0658282482517
 51
24.84413134545115
  0
ARC
  5
30D
330
1A
100
AcDbEntity
  8
SEIHIN
  6
CONTINUOUS
 62
     3
 48
16.0
100
AcDbCircle
 10
353.1931317211402
 20
273.0634259454901
 30
0.0
 40
2.000003477458785
100
AcDbArc
 50
92.67925038682612
 51
204.8592541446026
  0
LINE
  5
30E
330
1A
100
AcDbEntity
  8
SEIHIN
  6
CONTINUOUS
 62
     3
 48
16.0
100
AcDbLine
 10
337.5753421574056
 20
280.2661431571789
 30
0.0
 11
342.5876421574057
 21
280.2661431571789
 31
0.0
  0
LINE
  5
30F
330
1A
100
AcDbEntity
  8
SEIHIN
  6
CONTINUOUS
 62
     3
 48
16.0
100
AcDbLine
 10
344.4500421574056
 20
292.0298431571789
 30
0.0
 11
336.7773421574056
 21
281.8687431571788
 31
0.0
  0
LINE
  5
310
330
1A
100
AcDbEntity
  8
SEIHIN
  6
CONTINUOUS
 62
     3
 48
16.0
100
AcDbLine
 10
342.4549421574057
 20
293.5364431571789
 30
0.0
 11
333.9349421574056
 21
282.2531431571789
 31
0.0
  0
ARC
  5
311
330
1A
100
AcDbEntity
  8
SEIHIN
  6
CONTINUOUS
 62
     3
 48
16.0
100
AcDbCircle
 10
329.944728606279
 20
285.2661364091697
 30
0.0
 40
4.999993252009153
100
AcDbArc
 50
270.0001552846836
 51
322.9437017475605
  0
ARC
  5
312
330
1A
100
AcDbEntity
  8
SEIHIN
  6
CONTINUOUS
 62
     3
 48
16.0
100
AcDbCircle
 10
337.575350777097
 20
281.2661258468792
 30
0.0
 40
0.9999826897374756
100
AcDbArc
 50
142.9416714733756
 51
269.99950611951
  0
ARC
  5
313
330
1A
100
AcDbEntity
  8
SEIHIN
  6
CONTINUOUS
 62
     3
 48
16.0
100
AcDbCircle
 10
340.3758570666023
 20
281.6204505814011
 30
0.0
 40
15.99999257578471
100
AcDbArc
 50
90.00005338965262
 51
142.9432277580641
  0
ARC
  5
314
330
1A
100
AcDbEntity
  8
SEIHIN
  6
CONTINUOUS
 62
     3
 48
16.0
100
AcDbCircle
 10
342.5876875238301
 20
281.2661657491684
 30
0.0
 40
1.00002259301851
100
AcDbArc
 50
269.9974007540773
 51
322.9430187151517
  0
LINE
  5
315
330
1A
100
AcDbEntity
  8
SEIHIN
  6
CONTINUOUS
 62
     3
 48
16.0
100
AcDbLine
 10
348.0380421574057
 20
286.8247431571789
 30
0.0
 11
343.3857421574056
 21
280.6635431571789
 31
0.0
  0
ARC
  5
316
330
1A
100
AcDbEntity
  8
SEIHIN
  6
CONTINUOUS
 62
     3
 48
16.0
100
AcDbCircle
 10
364.0019724635515
 20
277.2660772929381
 30
0.0
 40
24.49999416231937
100
AcDbArc
 50
123.8199581497764
 51
142.9431668788245
  0
ARC
  5
317
330
1A
100
AcDbEntity
  8
SEIHIN
  6
CONTINUOUS
 62
     3
 48
16.0
100
AcDbCircle
 10
364.0019109944261
 20
277.2660024597771
 30
0.0
 40
26.99998345464672
100
AcDbArc
 50
131.073388365199
 51
142.9429966911476
  0
LINE
  5
318
330
1A
100
AcDbEntity
  8
SEIHIN
  6
CONTINUOUS
 62
     3
 48
16.0
100
AcDbLine
 10
410.0346421574057
 20
313.6204431571789
 30
0.0
 11
410.0346421574057
 21
267.6204431571789
 31
0.0
  0
LINE
  5
319
330
1A
100
AcDbEntity
  8
SEIHIN
  6
CONTINUOUS
 62
     3
 48
16.0
100
AcDbLine
 10
412.0346421574057
 20
315.6204431571789
 30
0.0
 11
412.0346421574057
 21
265.6204431571789
 31
0.0
  0
LINE
  5
31A
330
1A
100
AcDbEntity
  8
SEIHIN
  6
CONTINUOUS
 62
     3
 48
16.0
100
AcDbLine
 10
416.0346421574057
 20
315.6204431571789
 30
0.0
 11
416.0346421574057
 21
265.6204431571789
 31
0.0
  0
LINE
  5
31B
330
1A
100
AcDbEntity
  8
SEIHIN
  6
CONTINUOUS
 62
     3
 48
16.0
100
AcDbLine
 10
371.0346421574057
 20
290.2661431571788
 30
0.0
 11
371.0346421574057
 21
270.5760431571789
 31
0.0
  0
LINE
  5
31C
330
1A
100
AcDbEntity
  8
SEIHIN
  6
CONTINUOUS
 62
     3
 48
16.0
100
AcDbLine
 10
375.0346421574057
 20
294.2661431571788
 30
0.0
 11
375.0346421574057
 21
265.7661431571789
 31
0.0
  0
ARC
  5
31D
330
1A
100
AcDbEntity
  8
SEIHIN
  6
CONTINUOUS
 62
     3
 48
16.0
100
AcDbCircle
 10
372.0346453832424
 20
265.7661445978219
 30
0.0
 40
2.999996774163627
100
AcDbArc
 50
228.1305860681337
 51
359.9999724857152
  0
LINE
  5
31E
330
1A
100
AcDbEntity
  8
SEIHIN
  6
CONTINUOUS
 62
     3
 48
16.0
100
AcDbLine
 10
370.0323421574056
 20
263.5321431571788
 30
0.0
 11
361.5335421574057
 21
271.1491431571789
 31
0.0
  0
LINE
  5
31F
330
1A
100
AcDbEntity
  8
SEIHIN
  6
CONTINUOUS
 62
     3
 48
16.0
100
AcDbLine
 10
363.0668421574057
 20
273.6685431571789
 30
0.0
 11
369.6798421574057
 21
269.6411431571788
 31
0.0
  0
ARC
  5
320
330
1A
100
AcDbEntity
  8
SEIHIN
  6
CONTINUOUS
 62
     3
 48
16.0
100
AcDbCircle
 10
362.5346485376623
 20
272.2661536406878
 30
0.0
 40
1.499975468085841
100
AcDbArc
 50
69.21871772088313
 51
228.1321216051511
  0
ARC
  5
321
330
1A
100
AcDbEntity
  8
SEIHIN
  6
CONTINUOUS
 62
     3
 48
16.0
100
AcDbCircle
 10
370.0346618952953
 20
270.5760567780016
 30
0.0
 40
0.9999802622031834
100
AcDbArc
 50
249.2171738629508
 51
359.9992195689385
  0
ARC
  5
322
330
1A
100
AcDbEntity
  8
SEIHIN
  6
CONTINUOUS
 62
     3
 48
16.0
100
AcDbCircle
 10
365.0342038704316
 20
294.2671007516627
 30
0.0
 40
7.499959415652241
100
AcDbArc
 50
22.61194188686292
 51
26.55871881598471
  0
LINE
  5
323
330
1A
100
AcDbEntity
  8
SEIHIN
  6
CONTINUOUS
 62
     3
 48
16.0
100
AcDbLine
 10
368.0346421574057
 20
293.2661431571789
 30
0.0
 11
365.9939421574057
 21
293.2661431571789
 31
0.0
  0
LINE
  5
324
330
1A
100
AcDbEntity
  8
SEIHIN
  6
CONTINUOUS
 62
     3
 48
16.0
100
AcDbLine
 10
371.0346421574057
 20
295.7661431571789
 30
0.0
 11
365.9939421574057
 21
295.7661431571789
 31
0.0
  0
ARC
  5
325
330
1A
100
AcDbEntity
  8
SEIHIN
  6
CONTINUOUS
 62
     3
 48
16.0
100
AcDbCircle
 10
368.0346421574057
 20
290.2661431571789
 30
0.0
 40
3.000000000000028
100
AcDbArc
 50
359.9999999999994
 51
89.99999999999944
  0
ARC
  5
326
330
1A
100
AcDbEntity
  8
SEIHIN
  6
CONTINUOUS
 62
     3
 48
16.0
100
AcDbCircle
 10
371.0346165168469
 20
296.7661046956996
 30
0.0
 40
0.9999615388494502
100
AcDbArc
 50
270.00146915231
 51
22.62221564169134
  0
ARC
  5
327
330
1A
100
AcDbEntity
  8
SEIHIN
  6
CONTINUOUS
 62
     3
 48
16.0
100
AcDbCircle
 10
365.0346663362141
 20
294.2660031679711
 30
0.0
 40
9.999975822171448
100
AcDbArc
 50
0.0008020810176702
 51
19.59958887079644
  0
LINE
  5
328
330
1A
100
AcDbEntity
  8
CENTER_L
  6
CENTER
 62
     1
 48
5.0
100
AcDbLine
 10
420.1463421574057
 20
275.1833431571788
 30
0.0
 11
405.6575421574056
 21
275.1833431571788
 31
0.0
  0
LINE
  5
329
330
1A
100
AcDbEntity
  8
SEIHIN
  6
CONTINUOUS
 62
     3
 48
16.0
100
AcDbLine
 10
410.0346421574057
 20
267.6204431571789
 30
0.0
 11
412.0346421574057
 21
265.6204431571789
 31
0.0
  0
LINE
  5
32A
330
1A
100
AcDbEntity
  8
SEIHIN
  6
CONTINUOUS
 62
     3
 48
16.0
100
AcDbLine
 10
412.0346421574057
 20
265.6204431571789
 30
0.0
 11
416.0346421574057
 21
265.6204431571789
 31
0.0
  0
LINE
  5
32B
330
1A
100
AcDbEntity
  8
CENTER_L
  6
CENTER
 62
     1
 48
5.0
100
AcDbLine
 10
420.3164421574055
 20
300.1830431571788
 30
0.0
 11
405.8399421574057
 21
300.1830431571788
 31
0.0
  0
ARC
  5
32C
330
1A
100
AcDbEntity
  8
SEIHIN
  6
CONTINUOUS
 62
     3
 48
16.0
100
AcDbCircle
 10
405.0346421574058
 20
292.6204431571789
 30
0.0
 40
4.999999999999971
100
AcDbArc
 50
0.0000000000003257
 51
90.00000000000033
  0
LINE
  5
32D
330
1A
100
AcDbEntity
  8
CENTER_L
  6
CENTER
 62
     1
 48
5.0
100
AcDbLine
 10
420.3503421574057
 20
305.183043157179
 30
0.0
 11
405.8764421574055
 21
305.183043157179
 31
0.0
  0
LINE
  5
32E
330
1A
100
AcDbEntity
  8
SEIHIN
  6
CONTINUOUS
 62
     3
 48
16.0
100
AcDbLine
 10
410.0346421574057
 20
315.6204431571789
 30
0.0
 11
416.0346421574057
 21
315.6204431571789
 31
0.0
  0
LINE
  5
32F
330
1A
100
AcDbEntity
  8
SEIHIN
  6
CONTINUOUS
 62
     3
 48
16.0
100
AcDbLine
 10
412.0346421574057
 20
315.6204431571789
 30
0.0
 11
410.0346421574057
 21
313.6204431571789
 31
0.0
  0
LINE
  5
330
330
1A
100
AcDbEntity
  8
SEIHIN
  6
CONTINUOUS
 62
     3
 48
16.0
100
AcDbLine
 10
306.0346541574056
 20
453.0694994002899
 30
0.0
 11
306.0347421574056
 21
464.0694994002899
 31
0.0
  0
LINE
  5
331
330
1A
100
AcDbEntity
  8
CENTER_L
  6
CENTER
 62
     1
 48
5.0
100
AcDbLine
 10
296.0347421574056
 20
456.6045994002898
 30
0.0
 11
296.0347421574056
 21
471.4760994002897
 31
0.0
  0
ARC
  5
332
330
1A
100
AcDbEntity
  8
SEIHIN
  6
CONTINUOUS
 62
     3
 48
16.0
100
AcDbCircle
 10
296.0340655856004
 20
464.0690192007582
 30
0.0
 40
4.500019800529437
100
AcDbArc
 50
269.9997017042723
 51
350.4057187045058
  0
ARC
  5
333
330
1A
100
AcDbEntity
  8
SEIHIN
  6
CONTINUOUS
 62
     3
 48
16.0
100
AcDbCircle
 10
296.0340287031789
 20
464.0689876711738
 30
0.0
 40
5.499988270900587
100
AcDbArc
 50
270.0001401585548
 51
352.1626267573644
  0
LINE
  5
334
330
1A
100
AcDbEntity
  8
SEIHIN
  6
CONTINUOUS
 62
     3
 48
16.0
100
AcDbLine
 10
306.0346541574056
 20
475.0694994002899
 30
0.0
 11
306.0347421574056
 21
464.0694994002899
 31
0.0
  0
LINE
  5
335
330
1A
100
AcDbEntity
  8
SEIHIN
  6
CONTINUOUS
 62
     3
 48
16.0
100
AcDbLine
 10
305.1690421574057
 20
464.8189994002897
 30
0.0
 11
299.1963421574057
 21
464.8189994002897
 31
0.0
  0
LINE
  5
336
330
1A
100
AcDbEntity
  8
SEIHIN
  6
CONTINUOUS
 62
     3
 48
16.0
100
AcDbLine
 10
305.1690421574057
 20
463.3189994002898
 30
0.0
 11
299.1963421574057
 21
463.3189994002898
 31
0.0
  0
ARC
  5
337
330
1A
100
AcDbEntity
  8
SEIHIN
  6
CONTINUOUS
 62
     3
 48
16.0
100
AcDbCircle
 10
296.0340655856005
 20
464.0689795998213
 30
0.0
 40
4.500019800529377
100
AcDbArc
 50
9.594281295495031
 51
90.0002982957285
  0
ARC
  5
338
330
1A
100
AcDbEntity
  8
SEIHIN
  6
CONTINUOUS
 62
     3
 48
16.0
100
AcDbCircle
 10
296.0340287031789
 20
464.0690111294057
 30
0.0
 40
5.49998827090059
100
AcDbArc
 50
7.837373242635546
 51
89.99985984144512
  0
ARC
  5
339
330
1A
100
AcDbEntity
  8
SEIHIN
  6
CONTINUOUS
 62
     3
 48
16.0
100
AcDbCircle
 10
296.0340421574057
 20
464.0689994002898
 30
0.0
 40
3.25
100
AcDbArc
 50
90.0
 51
270.0
  0
ARC
  5
33A
330
1A
100
AcDbEntity
  8
SEIHIN
  6
CONTINUOUS
 62
     3
 48
16.0
100
AcDbCircle
 10
296.0340421574057
 20
464.0689994002896
 30
0.0
 40
2.5
100
AcDbArc
 50
90.0
 51
270.0
  0
ARC
  5
33B
330
1A
100
AcDbEntity
  8
SEIHIN
  6
CONTINUOUS
 62
     3
 48
16.0
100
AcDbCircle
 10
296.0340421574057
 20
464.0689994002898
 30
0.0
 40
3.25
100
AcDbArc
 50
270.0
 51
90.0
  0
ARC
  5
33C
330
1A
100
AcDbEntity
  8
SEIHIN
  6
CONTINUOUS
 62
     3
 48
16.0
100
AcDbCircle
 10
296.0340421574057
 20
464.0689994002896
 30
0.0
 40
2.5
100
AcDbArc
 50
270.0
 51
90.0
  0
LINE
  5
33D
330
1A
100
AcDbEntity
  8
SEIHIN
  6
CONTINUOUS
 62
     3
 48
16.0
100
AcDbLine
 10
305.4190421574057
 20
463.5689994002897
 30
0.0
 11
305.4190421574057
 21
464.5689994002897
 31
0.0
  0
ARC
  5
33E
330
1A
100
AcDbEntity
  8
SEIHIN
  6
CONTINUOUS
 62
     3
 48
16.0
100
AcDbCircle
 10
305.1690421574058
 20
463.5689994002898
 30
0.0
 40
0.2499999999999432
100
AcDbArc
 50
269.999999999987
 51
359.9999999999869
  0
ARC
  5
33F
330
1A
100
AcDbEntity
  8
SEIHIN
  6
CONTINUOUS
 62
     3
 48
16.0
100
AcDbCircle
 10
305.1690421574057
 20
464.5689994002897
 30
0.0
 40
0.25
100
AcDbArc
 50
0.0
 51
90.0
  0
LINE
  5
340
330
1A
100
AcDbEntity
  8
SEIHIN
  6
CONTINUOUS
 62
     3
 48
16.0
100
AcDbLine
 10
326.1489421574056
 20
453.0694994002899
 30
0.0
 11
326.1489421574056
 21
464.0694994002899
 31
0.0
  0
LINE
  5
341
330
1A
100
AcDbEntity
  8
SEIHIN
  6
CONTINUOUS
 62
     3
 48
16.0
100
AcDbLine
 10
326.1489421574056
 20
475.0694994002899
 30
0.0
 11
326.1489421574056
 21
464.0694994002899
 31
0.0
  0
LINE
  5
342
330
1A
100
AcDbEntity
  8
SEIHIN
  6
CONTINUOUS
 62
     3
 48
16.0
100
AcDbLine
 10
412.0346421574057
 20
448.5694994002899
 30
0.0
 11
412.0346421574057
 21
432.5694994002899
 31
0.0
  0
LINE
  5
343
330
1A
100
AcDbEntity
  8
SEIHIN
  6
CONTINUOUS
 62
     3
 48
16.0
100
AcDbLine
 10
410.0346421574057
 20
434.5694994002899
 30
0.0
 11
410.0346421574057
 21
448.5694994002899
 31
0.0
  0
LINE
  5
344
330
1A
100
AcDbEntity
  8
SEIHIN
  6
CONTINUOUS
 62
     3
 48
16.0
100
AcDbLine
 10
416.0346421574057
 20
432.5694994002899
 30
0.0
 11
416.0346421574057
 21
464.0694994002899
 31
0.0
  0
LINE
  5
345
330
1A
100
AcDbEntity
  8
SEIHIN
  6
CONTINUOUS
 62
     3
 48
16.0
100
AcDbLine
 10
412.0346421574057
 20
432.5694994002899
 30
0.0
 11
416.0346421574057
 21
432.5694994002899
 31
0.0
  0
LINE
  5
346
330
1A
100
AcDbEntity
  8
SEIHIN
  6
CONTINUOUS
 62
     3
 48
16.0
100
AcDbLine
 10
412.0346421574057
 20
432.5694994002899
 30
0.0
 11
410.0346421574057
 21
434.5694994002899
 31
0.0
  0
LINE
  5
347
330
1A
100
AcDbEntity
  8
CENTER_L
  6
CENTER
 62
     1
 48
5.0
100
AcDbLine
 10
404.6220421574057
 20
440.5694994002899
 30
0.0
 11
421.6171421574055
 21
440.5694994002899
 31
0.0
  0
ARC
  5
348
330
1A
100
AcDbEntity
  8
SEIHIN
  6
CONTINUOUS
 62
     3
 48
16.0
100
AcDbCircle
 10
409.0346421574057
 20
448.5694994002899
 30
0.0
 40
3.0
100
AcDbArc
 50
0.0
 51
90.0
  0
ARC
  5
349
330
1A
100
AcDbEntity
  8
SEIHIN
  6
CONTINUOUS
 62
     3
 48
16.0
100
AcDbCircle
 10
407.0346421574057
 20
448.5694994002899
 30
0.0
 40
3.0
100
AcDbArc
 50
0.0
 51
90.0
  0
ARC
  5
34A
330
1A
100
AcDbEntity
  8
SEIHIN
  6
CONTINUOUS
 62
     3
 48
16.0
100
AcDbCircle
 10
409.0346421574057
 20
479.5694994002899
 30
0.0
 40
3.0
100
AcDbArc
 50
270.0
 51
0.0
  0
ARC
  5
34B
330
1A
100
AcDbEntity
  8
SEIHIN
  6
CONTINUOUS
 62
     3
 48
16.0
100
AcDbCircle
 10
407.0346421574057
 20
479.5694994002899
 30
0.0
 40
3.0
100
AcDbArc
 50
270.0
 51
0.0
  0
LINE
  5
34C
330
1A
100
AcDbEntity
  8
CENTER_L
  6
CENTER
 62
     1
 48
5.0
100
AcDbLine
 10
404.6220421574057
 20
487.5694994002899
 30
0.0
 11
421.6171421574055
 21
487.5694994002899
 31
0.0
  0
LINE
  5
34D
330
1A
100
AcDbEntity
  8
SEIHIN
  6
CONTINUOUS
 62
     3
 48
16.0
100
AcDbLine
 10
412.0346421574057
 20
495.5694994002899
 30
0.0
 11
410.0346421574057
 21
493.5694994002899
 31
0.0
  0
LINE
  5
34E
330
1A
100
AcDbEntity
  8
SEIHIN
  6
CONTINUOUS
 62
     3
 48
16.0
100
AcDbLine
 10
412.0346421574057
 20
495.5694994002899
 30
0.0
 11
416.0346421574057
 21
495.5694994002899
 31
0.0
  0
LINE
  5
353
330
1A
100
AcDbEntity
  8
SEIHIN
  6
CONTINUOUS
 62
     3
 48
16.0
100
AcDbLine
 10
619.5685027452991
 20
315.1829431571789
 30
0.0
 11
641.068502745299
 21
315.1829431571789
 31
0.0
  0
LINE
  5
354
330
1A
100
AcDbEntity
  8
SEIHIN
  6
CONTINUOUS
 62
     3
 48
16.0
100
AcDbLine
 10
619.5685027452991
 20
297.1830431571788
 30
0.0
 11
632.5685027452991
 21
297.1829431571789
 31
0.0
  0
LINE
  5
355
330
1A
100
AcDbEntity
  8
SEIHIN
  6
CONTINUOUS
 62
     3
 48
16.0
100
AcDbLine
 10
632.5685027452991
 20
310.1829431571788
 30
0.0
 11
619.5685027452991
 21
310.1830431571788
 31
0.0
  0
LINE
  5
356
330
1A
100
AcDbEntity
  8
SEIHIN
  6
CONTINUOUS
 62
     3
 48
16.0
100
AcDbLine
 10
634.0686027452991
 20
270.1829431571789
 30
0.0
 11
624.068402745299
 21
270.1829431571789
 31
0.0
  0
LINE
  5
357
330
1A
100
AcDbEntity
  8
SEIHIN
  6
CONTINUOUS
 62
     3
 48
16.0
100
AcDbLine
 10
619.5685027452991
 20
265.1829431571789
 30
0.0
 11
641.068502745299
 21
265.1829431571789
 31
0.0
  0
LINE
  5
358
330
1A
100
AcDbEntity
  8
SEIHIN
  6
CONTINUOUS
 62
     3
 48
16.0
100
AcDbLine
 10
644.068502745299
 20
292.1829431571789
 30
0.0
 11
624.0685027452991
 21
292.1830431571789
 31
0.0
  0
LINE
  5
359
330
1A
100
AcDbEntity
  8
SEIHIN
  6
PHANTOM
 62
     6
 48
5.0
100
AcDbLine
 10
431.0346421574057
 20
315.6204431571789
 30
0.0
 11
431.0346421574057
 21
265.6204431571789
 31
0.0
  0
LINE
  5
35A
330
1A
100
AcDbEntity
  8
SEIHIN
  6
PHANTOM
 62
     6
 48
5.0
100
AcDbLine
 10
427.0346421574057
 20
315.7954431571788
 30
0.0
 11
427.0346421574057
 21
265.6204431571789
 31
0.0
  0
LINE
  5
35B
330
1A
100
AcDbEntity
  8
SEIHIN
  6
PHANTOM
 62
     6
 48
5.0
100
AcDbLine
 10
425.0346421574057
 20
313.6204431571789
 30
0.0
 11
425.0346421574057
 21
267.6204431571789
 31
0.0
  0
LINE
  5
35C
330
1A
100
AcDbEntity
  8
SEIHIN
  6
PHANTOM
 62
     6
 48
5.0
100
AcDbLine
 10
425.0346421574057
 20
267.6204431571789
 30
0.0
 11
427.0346421574057
 21
265.6204431571789
 31
0.0
  0
LINE
  5
35D
330
1A
100
AcDbEntity
  8
SEIHIN
  6
PHANTOM
 62
     6
 48
5.0
100
AcDbLine
 10
427.0346421574057
 20
265.6204431571789
 30
0.0
 11
431.0346421574057
 21
265.6204431571789
 31
0.0
  0
LINE
  5
35E
330
1A
100
AcDbEntity
  8
SEIHIN
  6
PHANTOM
 62
     6
 48
5.0
100
AcDbLine
 10
425.0346421574057
 20
315.6204431571789
 30
0.0
 11
431.0346421574057
 21
315.6204431571789
 31
0.0
  0
LINE
  5
35F
330
1A
100
AcDbEntity
  8
SEIHIN
  6
PHANTOM
 62
     6
 48
5.0
100
AcDbLine
 10
427.0346421574057
 20
315.6204431571789
 30
0.0
 11
425.0346421574057
 21
313.6204431571789
 31
0.0
  0
LINE
  5
360
330
1A
100
AcDbEntity
  8
CENTER_L
  6
CENTER
 62
     1
 48
5.0
100
AcDbLine
 10
619.5685027452991
 20
319.2934431571789
 30
0.0
 11
619.568402745299
 21
260.3821431571789
 31
0.0
  0
LINE
  5
361
330
1A
100
AcDbEntity
  8
SEIHIN
  6
CONTINUOUS
 62
     3
 48
16.0
100
AcDbLine
 10
604.5685027452991
 20
308.1830431571788
 30
0.0
 11
604.5685027452991
 21
299.1830431571788
 31
0.0
  0
ARC
  5
362
330
1A
100
AcDbEntity
  8
SEIHIN
  6
CONTINUOUS
 62
     3
 48
16.0
100
AcDbCircle
 10
596.068552745299
 20
300.1830431564416
 30
0.0
 40
3.249957671584982
100
AcDbArc
 50
106.5572312245814
 51
73.44276877541858
  0
LINE
  5
363
330
1A
100
AcDbEntity
  8
CENTER_L
  6
CENTER
 62
     1
 48
5.0
100
AcDbLine
 10
596.0685027452991
 20
308.9678431571789
 30
0.0
 11
596.0685027452991
 21
295.2142431571789
 31
0.0
  0
LINE
  5
364
330
1A
100
AcDbEntity
  8
SEIHIN
  6
CONTINUOUS
 62
     3
 48
16.0
100
AcDbLine
 10
588.0685027452989
 20
305.1829431571789
 30
0.0
 11
588.0683027452989
 21
275.1829431571788
 31
0.0
  0
LINE
  5
365
330
1A
100
AcDbEntity
  8
CENTER_L
  6
CENTER
 62
     1
 48
5.0
100
AcDbLine
 10
602.232302745299
 20
300.1830431571788
 30
0.0
 11
590.4148027452991
 21
300.1830431571788
 31
0.0
  0
ARC
  5
366
330
1A
100
AcDbEntity
  8
SEIHIN
  6
CONTINUOUS
 62
     3
 48
16.0
100
AcDbCircle
 10
596.0683027452989
 20
275.1829431571788
 30
0.0
 40
7.0
100
AcDbArc
 50
0.0
 51
90.0
  0
LINE
  5
367
330
1A
100
AcDbEntity
  8
CENTER_L
  6
CENTER
 62
     1
 48
5.0
100
AcDbLine
 10
600.014502745299
 20
275.1829431571788
 30
0.0
 11
591.3452027452988
 21
275.1829431571788
 31
0.0
  0
LINE
  5
368
330
1A
100
AcDbEntity
  8
SEIHIN
  6
CONTINUOUS
 62
     3
 48
16.0
100
AcDbLine
 10
595.0683027452989
 20
292.1829431571789
 30
0.0
 11
615.068302745299
 21
292.1830431571789
 31
0.0
  0
LINE
  5
369
330
1A
100
AcDbEntity
  8
SEIHIN
  6
CONTINUOUS
 62
     3
 48
16.0
100
AcDbLine
 10
619.5683027452989
 20
265.1829431571789
 30
0.0
 11
598.068302745299
 21
265.1829431571789
 31
0.0
  0
ARC
  5
36A
330
1A
100
AcDbEntity
  8
SEIHIN
  6
CONTINUOUS
 62
     3
 48
16.0
100
AcDbCircle
 10
596.0683027452989
 20
275.1829431571788
 30
0.0
 40
2.150000000000005
100
AcDbArc
 50
0.0
 51
180.0
  0
LINE
  5
36B
330
1A
100
AcDbEntity
  8
CENTER_L
  6
CENTER
 62
     1
 48
5.0
100
AcDbLine
 10
596.0685027452991
 20
279.0069431571789
 30
0.0
 11
596.0685027452991
 21
270.1829431571789
 31
0.0
  0
ARC
  5
36C
330
1A
100
AcDbEntity
  8
SEIHIN
  6
CONTINUOUS
 62
     3
 48
16.0
100
AcDbCircle
 10
598.068302745299
 20
275.1829431571788
 30
0.0
 40
10.0
100
AcDbArc
 50
180.0
 51
270.0
  0
ARC
  5
36D
330
1A
100
AcDbEntity
  8
SEIHIN
  6
CONTINUOUS
 62
     3
 48
16.0
100
AcDbCircle
 10
596.0683027452989
 20
275.1829431571788
 30
0.0
 40
2.150000000000005
100
AcDbArc
 50
180.0
 51
0.0
  0
LINE
  5
36E
330
1A
100
AcDbEntity
  8
SEIHIN
  6
CONTINUOUS
 62
     3
 48
16.0
100
AcDbLine
 10
593.068302745299
 20
284.1829431571789
 30
0.0
 11
593.068302745299
 21
290.1829431571789
 31
0.0
  0
LINE
  5
36F
330
1A
100
AcDbEntity
  8
SEIHIN
  6
CONTINUOUS
 62
     3
 48
16.0
100
AcDbLine
 10
596.0683027452989
 20
282.1829431571789
 30
0.0
 11
595.0683027452989
 21
282.1829431571789
 31
0.0
  0
ARC
  5
370
330
1A
100
AcDbEntity
  8
SEIHIN
  6
CONTINUOUS
 62
     3
 48
16.0
100
AcDbCircle
 10
595.0683027452989
 20
284.1829431571787
 30
0.0
 40
1.999999999999914
100
AcDbArc
 50
179.9999999999975
 51
269.9999999999975
  0
ARC
  5
371
330
1A
100
AcDbEntity
  8
SEIHIN
  6
CONTINUOUS
 62
     3
 48
16.0
100
AcDbCircle
 10
595.0683027452989
 20
290.182943157179
 30
0.0
 40
1.999999999999943
100
AcDbArc
 50
90.00000000000325
 51
180.0000000000032
  0
LINE
  5
372
330
1A
100
AcDbEntity
  8
SEIHIN
  6
CONTINUOUS
 62
     3
 48
16.0
100
AcDbLine
 10
622.0684027452989
 20
290.1830431571789
 30
0.0
 11
622.0684027452989
 21
272.1829431571789
 31
0.0
  0
LINE
  5
373
330
1A
100
AcDbEntity
  8
SEIHIN
  6
CONTINUOUS
 62
     3
 48
16.0
100
AcDbLine
 10
617.0684027452989
 20
290.1830431571789
 30
0.0
 11
617.0684027452989
 21
272.1829431571789
 31
0.0
  0
ARC
  5
374
330
1A
100
AcDbEntity
  8
SEIHIN
  6
CONTINUOUS
 62
     3
 48
16.0
100
AcDbCircle
 10
615.0684027452989
 20
272.1829431571787
 30
0.0
 40
1.999999999999886
100
AcDbArc
 50
270.0000000000016
 51
0.0000000000016284
  0
LINE
  5
375
330
1A
100
AcDbEntity
  8
SEIHIN
  6
CONTINUOUS
 62
     3
 48
16.0
100
AcDbLine
 10
605.068202745299
 20
270.1829431571789
 30
0.0
 11
615.0684027452989
 21
270.1829431571789
 31
0.0
  0
ARC
  5
376
330
1A
100
AcDbEntity
  8
SEIHIN
  6
CONTINUOUS
 62
     3
 48
16.0
100
AcDbCircle
 10
605.068202745299
 20
272.1829431571789
 30
0.0
 40
2.000000000000028
100
AcDbArc
 50
180.0000000000024
 51
270.0000000000024
  0
LINE
  5
377
330
1A
100
AcDbEntity
  8
SEIHIN
  6
CONTINUOUS
 62
     3
 48
16.0
100
AcDbLine
 10
603.0682027452989
 20
272.1829431571789
 30
0.0
 11
603.0683027452989
 21
275.1829431571788
 31
0.0
  0
ARC
  5
378
330
1A
100
AcDbEntity
  8
SEIHIN
  6
CONTINUOUS
 62
     3
 48
16.0
100
AcDbCircle
 10
624.068402745299
 20
272.182943157179
 30
0.0
 40
2.000000000000056
100
AcDbArc
 50
180.0000000000032
 51
270.0000000000032
  0
ARC
  5
379
330
1A
100
AcDbEntity
  8
SEIHIN
  6
CONTINUOUS
 62
     3
 48
16.0
100
AcDbCircle
 10
615.0684027452989
 20
290.183043157179
 30
0.0
 40
1.999999999999914
100
AcDbArc
 50
359.9999999999975
 51
89.99999999999756
  0
LINE
  5
37A
330
1A
100
AcDbEntity
  8
SEIHIN
  6
CONTINUOUS
 62
     3
 48
16.0
100
AcDbLine
 10
619.5685027452991
 20
297.1830431571788
 30
0.0
 11
606.5685027452992
 21
297.1830431571788
 31
0.0
  0
ARC
  5
37B
330
1A
100
AcDbEntity
  8
SEIHIN
  6
CONTINUOUS
 62
     3
 48
16.0
100
AcDbCircle
 10
606.5685027452992
 20
299.1830431571788
 30
0.0
 40
2.0
100
AcDbArc
 50
180.0
 51
270.0
  0
ARC
  5
37C
330
1A
100
AcDbEntity
  8
SEIHIN
  6
CONTINUOUS
 62
     3
 48
16.0
100
AcDbCircle
 10
624.068402745299
 20
290.1830431571788
 30
0.0
 40
2.000000000000085
100
AcDbArc
 50
89.99999999999674
 51
179.9999999999975
  0
LINE
  5
37D
330
1A
100
AcDbEntity
  8
CENTER_L
  6
CENTER
 62
     1
 48
5.0
100
AcDbLine
 10
600.014702745299
 20
305.183043157179
 30
0.0
 11
592.551502745299
 21
305.183043157179
 31
0.0
  0
LINE
  5
37E
330
1A
100
AcDbEntity
  8
SEIHIN
  6
CONTINUOUS
 62
     3
 48
16.0
100
AcDbLine
 10
619.5685027452991
 20
315.1829431571789
 30
0.0
 11
598.0685027452992
 21
315.1829431571789
 31
0.0
  0
ARC
  5
37F
330
1A
100
AcDbEntity
  8
SEIHIN
  6
CONTINUOUS
 62
     3
 48
16.0
100
AcDbCircle
 10
598.0685027452989
 20
305.1829431571787
 30
0.0
 40
10.00000000000008
100
AcDbArc
 50
89.99999999999952
 51
179.9999999999995
  0
ARC
  5
380
330
1A
100
AcDbEntity
  8
SEIHIN
  6
CONTINUOUS
 62
     3
 48
16.0
100
AcDbCircle
 10
596.0685027452989
 20
305.1830431571788
 30
0.0
 40
2.100031487859021
100
AcDbArc
 50
296.1672803646627
 51
243.8327196353372
  0
LINE
  5
381
330
1A
100
AcDbEntity
  8
SEIHIN
  6
CONTINUOUS
 62
     3
 48
16.0
100
AcDbLine
 10
606.5685027452992
 20
310.1830431571788
 30
0.0
 11
619.5685027452991
 21
310.1830431571788
 31
0.0
  0
ARC
  5
382
330
1A
100
AcDbEntity
  8
SEIHIN
  6
CONTINUOUS
 62
     3
 48
16.0
100
AcDbCircle
 10
606.5685027452992
 20
308.1830431571788
 30
0.0
 40
2.0
100
AcDbArc
 50
90.0
 51
180.0
  0
LINE
  5
383
330
1A
100
AcDbEntity
  8
SEIHIN
  6
CONTINUOUS
 62
     3
 48
16.0
100
AcDbLine
 10
634.5685027452991
 20
308.1829431571788
 30
0.0
 11
634.5685027452991
 21
299.1829431571789
 31
0.0
  0
ARC
  5
384
330
1A
100
AcDbEntity
  8
SEIHIN
  6
CONTINUOUS
 62
     3
 48
16.0
100
AcDbCircle
 10
643.0684527452989
 20
300.1829431564416
 30
0.0
 40
3.250053525266017
100
AcDbArc
 50
106.5567288406441
 51
73.44327115935493
  0
LINE
  5
385
330
1A
100
AcDbEntity
  8
CENTER_L
  6
CENTER
 62
     1
 48
5.0
100
AcDbLine
 10
643.068502745299
 20
308.9678431571789
 30
0.0
 11
643.068502745299
 21
295.2145431571789
 31
0.0
  0
LINE
  5
386
330
1A
100
AcDbEntity
  8
SEIHIN
  6
CONTINUOUS
 62
     3
 48
16.0
100
AcDbLine
 10
651.068502745299
 20
305.1829431571789
 30
0.0
 11
651.068502745299
 21
275.1829431571788
 31
0.0
  0
LINE
  5
387
330
1A
100
AcDbEntity
  8
CENTER_L
  6
CENTER
 62
     1
 48
5.0
100
AcDbLine
 10
643.0686027452988
 20
278.6481431571789
 30
0.0
 11
643.0686027452988
 21
270.1829431571789
 31
0.0
  0
ARC
  5
388
330
1A
100
AcDbEntity
  8
SEIHIN
  6
CONTINUOUS
 62
     3
 48
16.0
100
AcDbCircle
 10
643.068502745299
 20
275.1829431571788
 30
0.0
 40
7.0
100
AcDbArc
 50
90.0
 51
180.0
  0
ARC
  5
389
330
1A
100
AcDbEntity
  8
SEIHIN
  6
CONTINUOUS
 62
     3
 48
16.0
100
AcDbCircle
 10
643.0685027452989
 20
275.1829431571788
 30
0.0
 40
2.150000000000034
100
AcDbArc
 50
0.0
 51
180.0
  0
ARC
  5
38A
330
1A
100
AcDbEntity
  8
SEIHIN
  6
CONTINUOUS
 62
     3
 48
16.0
100
AcDbCircle
 10
641.0685027455489
 20
275.1829431574289
 30
0.0
 40
10.00000000024999
100
AcDbArc
 50
269.9999999985676
 51
359.9994270407724
  0
LINE
  5
38B
330
1A
100
AcDbEntity
  8
CENTER_L
  6
CENTER
 62
     1
 48
5.0
100
AcDbLine
 10
639.1223027452989
 20
275.1829431571788
 30
0.0
 11
647.270502745299
 21
275.1829431571788
 31
0.0
  0
ARC
  5
38C
330
1A
100
AcDbEntity
  8
SEIHIN
  6
CONTINUOUS
 62
     3
 48
16.0
100
AcDbCircle
 10
634.0686027452989
 20
272.1829431571787
 30
0.0
 40
1.999999999999886
100
AcDbArc
 50
270.0000000000016
 51
0.0000000000016284
  0
LINE
  5
38D
330
1A
100
AcDbEntity
  8
SEIHIN
  6
CONTINUOUS
 62
     3
 48
16.0
100
AcDbLine
 10
636.0686027452989
 20
272.1829431571789
 30
0.0
 11
636.0685027452992
 21
275.1829431571788
 31
0.0
  0
ARC
  5
38E
330
1A
100
AcDbEntity
  8
SEIHIN
  6
CONTINUOUS
 62
     3
 48
16.0
100
AcDbCircle
 10
643.0685027452989
 20
275.1829431571788
 30
0.0
 40
2.149999999999977
100
AcDbArc
 50
180.0
 51
0.0
  0
LINE
  5
391
330
1A
100
AcDbEntity
  8
SEIHIN
  6
CONTINUOUS
 62
     3
 48
16.0
100
AcDbLine
 10
646.068502745299
 20
284.1829431571789
 30
0.0
 11
646.068502745299
 21
290.1829431571789
 31
0.0
  0
LINE
  5
392
330
1A
100
AcDbEntity
  8
SEIHIN
  6
CONTINUOUS
 62
     3
 48
16.0
100
AcDbLine
 10
643.068502745299
 20
282.1829431571789
 30
0.0
 11
644.068502745299
 21
282.1829431571789
 31
0.0
  0
ARC
  5
393
330
1A
100
AcDbEntity
  8
SEIHIN
  6
CONTINUOUS
 62
     3
 48
16.0
100
AcDbCircle
 10
644.068502745299
 20
284.1829431571789
 30
0.0
 40
2.0
100
AcDbArc
 50
270.0
 51
0.0
  0
LINE
  5
394
330
1A
100
AcDbEntity
  8
CENTER_L
  6
CENTER
 62
     1
 48
5.0
100
AcDbLine
 10
636.9047027452991
 20
300.1829431571788
 30
0.0
 11
648.5544027452989
 21
300.1829431571788
 31
0.0
  0
ARC
  5
395
330
1A
100
AcDbEntity
  8
SEIHIN
  6
CONTINUOUS
 62
     3
 48
16.0
100
AcDbCircle
 10
632.5685027452991
 20
299.1829431571789
 30
0.0
 40
2.0
100
AcDbArc
 50
270.0
 51
0.0
  0
ARC
  5
396
330
1A
100
AcDbEntity
  8
SEIHIN
  6
CONTINUOUS
 62
     3
 48
16.0
100
AcDbCircle
 10
644.0685027452989
 20
290.1829431571789
 30
0.0
 40
2.000000000000056
100
AcDbArc
 50
359.9999999999992
 51
89.99999999999836
  0
ARC
  5
399
330
1A
100
AcDbEntity
  8
SEIHIN
  6
CONTINUOUS
 62
     3
 48
16.0
100
AcDbCircle
 10
641.068502745299
 20
305.1829431571789
 30
0.0
 40
10.0
100
AcDbArc
 50
0.0
 51
90.0
  0
LINE
  5
39A
330
1A
100
AcDbEntity
  8
CENTER_L
  6
CENTER
 62
     1
 48
5.0
100
AcDbLine
 10
639.1223027452989
 20
305.1829431571789
 30
0.0
 11
647.270502745299
 21
305.1829431571789
 31
0.0
  0
ARC
  5
39B
330
1A
100
AcDbEntity
  8
SEIHIN
  6
CONTINUOUS
 62
     3
 48
16.0
100
AcDbCircle
 10
632.5685027452991
 20
308.1829431571788
 30
0.0
 40
2.0
100
AcDbArc
 50
0.0
 51
90.0
  0
ARC
  5
39C
330
1A
100
AcDbEntity
  8
SEIHIN
  6
CONTINUOUS
 62
     3
 48
16.0
100
AcDbCircle
 10
643.0684527452989
 20
305.1829431582473
 30
0.0
 40
2.099963789337213
100
AcDbArc
 50
296.1697079573607
 51
243.8302920426406
  0
ARC
  5
581
330
1A
100
AcDbEntity
  8
NOKITOI
  6
PHANTOM
 62
     8
 48
5.0
100
AcDbCircle
 10
301.7508254692586
 20
277.9219576335488
 30
0.0
 40
43.00001447645168
100
AcDbArc
 50
186.524910707118
 51
269.999888375144
  0
ARC
  5
582
330
1A
100
AcDbEntity
  8
NOKITOI
  6
PHANTOM
 62
     8
 48
5.0
100
AcDbCircle
 10
301.7508477776838
 20
277.9219375325224
 30
0.0
 40
41.79999437547816
100
AcDbArc
 50
184.4742952125249
 51
269.9998545921086
  0
LINE
  5
583
330
1A
100
AcDbEntity
  8
NOKITOI
  6
PHANTOM
 62
     8
 48
5.0
100
AcDbLine
 10
356.6323416957161
 20
244.4046431571787
 30
0.0
 11
346.647041695716
 21
236.2348431571787
 31
0.0
  0
LINE
  5
584
330
1A
100
AcDbEntity
  8
NOKITOI
  6
PHANTOM
 62
     8
 48
5.0
100
AcDbLine
 10
357.616641695716
 20
243.6595431571788
 30
0.0
 11
347.2135416957161
 21
235.1478431571788
 31
0.0
  0
LINE
  5
585
330
1A
100
AcDbEntity
  8
NOKITOI
  6
PHANTOM
 62
     8
 48
5.0
100
AcDbLine
 10
368.3347416957161
 20
277.0593431571788
 30
0.0
 11
368.420241695716
 21
279.7969431571786
 31
0.0
  0
LINE
  5
586
330
1A
100
AcDbEntity
  8
NOKITOI
  6
PHANTOM
 62
     8
 48
5.0
100
AcDbLine
 10
369.8727416957162
 20
287.8594431571788
 30
0.0
 11
369.4826416957161
 21
275.3750431571787
 31
0.0
  0
LINE
  5
587
330
1A
100
AcDbEntity
  8
NOKITOI
  6
PHANTOM
 62
     8
 48
5.0
100
AcDbLine
 10
360.8472416957161
 20
273.0214431571787
 30
0.0
 11
357.978441695716
 21
244.3340431571788
 31
0.0
  0
LINE
  5
588
330
1A
100
AcDbEntity
  8
NOKITOI
  6
PHANTOM
 62
     8
 48
5.0
100
AcDbLine
 10
359.8062416957159
 20
274.6717431571788
 30
0.0
 11
356.8132416957161
 21
244.7419431571787
 31
0.0
  0
ARC
  5
589
330
1A
100
AcDbEntity
  8
NOKITOI
  6
PHANTOM
 62
     8
 48
5.0
100
AcDbCircle
 10
356.3157242698379
 20
244.7916106707908
 30
0.0
 40
0.4999904508696396
100
AcDbArc
 50
309.2900846377958
 51
354.2990110749245
  0
ARC
  5
58A
330
1A
100
AcDbEntity
  8
NOKITOI
  6
PHANTOM
 62
     8
 48
5.0
100
AcDbCircle
 10
356.9834191228469
 20
244.4335010855061
 30
0.0
 40
0.9999908507640039
100
AcDbArc
 50
309.2887092230696
 51
354.2862329477531
  0
ARC
  5
58B
330
1A
100
AcDbEntity
  8
NOKITOI
  6
PHANTOM
 62
     8
 48
5.0
100
AcDbCircle
 10
366.3356796835404
 20
277.1218799777509
 30
0.0
 40
2.000036820932882
100
AcDbArc
 50
269.9989117490339
 51
358.2110591274196
  0
LINE
  5
58C
330
1A
100
AcDbEntity
  8
NOKITOI
  6
PHANTOM
 62
     8
 48
5.0
100
AcDbLine
 10
367.9833416957159
 20
273.9219431571788
 30
0.0
 11
361.8422416957161
 21
273.9219431571788
 31
0.0
  0
ARC
  5
58D
330
1A
100
AcDbEntity
  8
NOKITOI
  6
PHANTOM
 62
     8
 48
5.0
100
AcDbCircle
 10
367.9833589088941
 20
275.4219598403266
 30
0.0
 40
1.500016683246579
100
AcDbArc
 50
269.9993425123348
 51
358.207642324411
  0
ARC
  5
58E
330
1A
100
AcDbEntity
  8
NOKITOI
  6
PHANTOM
 62
     8
 48
5.0
100
AcDbCircle
 10
360.3037547667207
 20
274.6219549874587
 30
0.0
 40
0.499988169890889
100
AcDbArc
 50
90.00149786226627
 51
174.2966061377156
  0
LINE
  5
58F
330
1A
100
AcDbEntity
  8
NOKITOI
  6
PHANTOM
 62
     8
 48
5.0
100
AcDbLine
 10
360.3037416957159
 20
275.1219431571787
 30
0.0
 11
366.3356416957161
 21
275.1219431571787
 31
0.0
  0
ARC
  5
590
330
1A
100
AcDbEntity
  8
NOKITOI
  6
PHANTOM
 62
     8
 48
5.0
100
AcDbCircle
 10
361.8422623455571
 20
272.921961845028
 30
0.0
 40
0.9999813123640345
100
AcDbArc
 50
90.00118317084957
 51
174.290590033351
  0
LINE
  5
591
330
1A
100
AcDbEntity
  8
NOKITOI
  6
PHANTOM
 62
     8
 48
5.0
100
AcDbLine
 10
367.8737416957161
 20
288.7218431571787
 30
0.0
 11
365.4010416957159
 21
288.7219431571788
 31
0.0
  0
LINE
  5
592
330
1A
100
AcDbEntity
  8
NOKITOI
  6
PHANTOM
 62
     8
 48
5.0
100
AcDbLine
 10
367.8737416957161
 20
289.9218431571787
 30
0.0
 11
364.5471416957161
 21
289.9219431571787
 31
0.0
  0
ARC
  5
593
330
1A
100
AcDbEntity
  8
NOKITOI
  6
PHANTOM
 62
     8
 48
5.0
100
AcDbCircle
 10
364.4222107687799
 20
279.9219789018426
 30
0.0
 40
3.99998565374706
100
AcDbArc
 50
358.2086966591014
 51
83.52422380468325
  0
ARC
  5
594
330
1A
100
AcDbEntity
  8
NOKITOI
  6
PHANTOM
 62
     8
 48
5.0
100
AcDbCircle
 10
364.422223829365
 20
279.9219518855587
 30
0.0
 40
5.199991271650611
100
AcDbArc
 50
37.92532860473095
 51
89.99980314072546
  0
ARC
  5
595
330
1A
100
AcDbEntity
  8
NOKITOI
  6
PHANTOM
 62
     8
 48
5.0
100
AcDbCircle
 10
367.8737304587216
 20
287.9219547509959
 30
0.0
 40
1.999988406214315
100
AcDbArc
 50
358.2088726535929
 51
89.99967808195611
  0
ARC
  5
596
330
1A
100
AcDbEntity
  8
NOKITOI
  6
PHANTOM
 62
     8
 48
5.0
100
AcDbCircle
 10
367.8737856620691
 20
287.9218977947057
 30
0.0
 40
0.7999453636812564
100
AcDbArc
 50
358.212343644788
 51
90.00314907315376
  0
LINE
  5
597
330
1A
100
AcDbEntity
  8
NOKITOI
  6
PHANTOM
 62
     8
 48
5.0
100
AcDbLine
 10
368.6733416957159
 20
287.8969431571787
 30
0.0
 11
368.5240416957161
 21
283.1179431571788
 31
0.0
  0
ARC
  5
598
330
1A
100
AcDbEntity
  8
NOKITOI
  6
PHANTOM
 62
     8
 48
5.0
100
AcDbCircle
 10
364.5471344411603
 20
289.4219343073353
 30
0.0
 40
0.500008849895925
100
AcDbArc
 50
89.99916870385494
 51
191.3135956695117
  0
LINE
  5
599
330
1A
100
AcDbEntity
  8
NOKITOI
  6
PHANTOM
 62
     8
 48
5.0
100
AcDbLine
 10
361.5958416957161
 20
287.4219431571788
 30
0.0
 11
363.8273416957161
 21
287.4219431571788
 31
0.0
  0
ARC
  5
59A
330
1A
100
AcDbEntity
  8
NOKITOI
  6
PHANTOM
 62
     8
 48
5.0
100
AcDbCircle
 10
361.5958454052112
 20
286.9219470672094
 30
0.0
 40
0.4999960899831856
100
AcDbArc
 50
90.00042508015132
 51
183.0156217414654
  0
ARC
  5
59B
330
1A
100
AcDbEntity
  8
NOKITOI
  6
PHANTOM
 62
     8
 48
5.0
100
AcDbCircle
 10
363.8273409127078
 20
287.9219422021769
 30
0.0
 40
0.4999990449987399
100
AcDbArc
 50
270.0000897263054
 51
11.30328019845508
  0
LINE
  5
59C
330
1A
100
AcDbEntity
  8
NOKITOI
  6
PHANTOM
 62
     8
 48
5.0
100
AcDbLine
 10
364.317641695716
 20
288.0199431571788
 30
0.0
 11
364.0568416957161
 21
289.3239431571787
 31
0.0
  0
LINE
  5
59D
330
1A
100
AcDbEntity
  8
NOKITOI
  6
PHANTOM
 62
     8
 48
5.0
100
AcDbLine
 10
365.4010416957159
 20
288.7219431571788
 30
0.0
 11
365.901041695716
 21
286.2219431571789
 31
0.0
  0
LINE
  5
59E
330
1A
100
AcDbEntity
  8
NOKITOI
  6
PHANTOM
 62
     8
 48
5.0
100
AcDbLine
 10
365.901041695716
 20
286.2219431571789
 30
0.0
 11
362.9644416957161
 21
286.2219431571789
 31
0.0
  0
ARC
  5
59F
330
1A
100
AcDbEntity
  8
NOKITOI
  6
PHANTOM
 62
     8
 48
5.0
100
AcDbCircle
 10
361.911645817123
 20
280.9219392471483
 30
0.0
 40
0.4999960899864752
100
AcDbArc
 50
183.0147243791737
 51
269.9995277178594
  0
LINE
  5
5A0
330
1A
100
AcDbEntity
  8
NOKITOI
  6
PHANTOM
 62
     8
 48
5.0
100
AcDbLine
 10
363.3536416957159
 20
281.6219431571788
 30
0.0
 11
362.9496416957159
 21
284.4503431571787
 31
0.0
  0
LINE
  5
5A1
330
1A
100
AcDbEntity
  8
NOKITOI
  6
PHANTOM
 62
     8
 48
5.0
100
AcDbLine
 10
362.5757416957161
 20
281.6219431571788
 30
0.0
 11
362.394641695716
 21
285.0633431571786
 31
0.0
  0
LINE
  5
5A2
330
1A
100
AcDbEntity
  8
NOKITOI
  6
PHANTOM
 62
     8
 48
5.0
100
AcDbLine
 10
362.5757416957161
 20
281.6219431571788
 30
0.0
 11
363.3536416957159
 21
281.6219431571788
 31
0.0
  0
LINE
  5
5A3
330
1A
100
AcDbEntity
  8
NOKITOI
  6
PHANTOM
 62
     8
 48
5.0
100
AcDbLine
 10
361.911641695716
 20
280.4219431571788
 30
0.0
 11
364.1607416957159
 21
280.4219431571788
 31
0.0
  0
LINE
  5
5A4
330
1A
100
AcDbEntity
  8
NOKITOI
  6
PHANTOM
 62
     8
 48
5.0
100
AcDbLine
 10
364.6557416957159
 20
280.9926431571787
 30
0.0
 11
364.3219416957159
 21
283.3288431571789
 31
0.0
  0
LINE
  5
5A5
330
1A
100
AcDbEntity
  8
NOKITOI
  6
PHANTOM
 62
     8
 48
5.0
100
AcDbLine
 10
362.9496416957159
 20
284.4503431571787
 30
0.0
 11
362.394641695716
 21
285.0633431571786
 31
0.0
  0
LINE
  5
5A6
330
1A
100
AcDbEntity
  8
NOKITOI
  6
PHANTOM
 62
     8
 48
5.0
100
AcDbLine
 10
363.9602416957161
 20
285.1219431571787
 30
0.0
 11
364.4222416957161
 21
285.1219431571787
 31
0.0
  0
ARC
  5
5A7
330
1A
100
AcDbEntity
  8
NOKITOI
  6
PHANTOM
 62
     8
 48
5.0
100
AcDbCircle
 10
364.816971068216
 20
283.3995733896737
 30
0.0
 40
0.4999578477751074
100
AcDbArc
 50
83.52609071220777
 51
188.1330561712925
  0
ARC
  5
5A8
330
1A
100
AcDbEntity
  8
NOKITOI
  6
PHANTOM
 62
     8
 48
5.0
100
AcDbCircle
 10
364.1607518821522
 20
280.9219549019029
 30
0.0
 40
0.5000117448278309
100
AcDbArc
 50
269.9988327478018
 51
8.127314608715796
  0
LINE
  5
5A9
330
1A
100
AcDbEntity
  8
NOKITOI
  6
PHANTOM
 62
     8
 48
5.0
100
AcDbLine
 10
361.412341695716
 20
280.8956431571788
 30
0.0
 11
361.0965416957161
 21
286.8956431571788
 31
0.0
  0
LINE
  5
5AA
330
1A
100
AcDbEntity
  8
NOKITOI
  6
PHANTOM
 62
     8
 48
5.0
100
AcDbLine
 10
363.9602416957161
 20
285.1219431571787
 30
0.0
 11
362.9644416957161
 21
286.2219431571789
 31
0.0
  0
LINE
  5
5AB
330
1A
100
AcDbEntity
  8
NOKITOI
  6
PHANTOM
 62
     8
 48
5.0
100
AcDbLine
 10
346.5802416957161
 20
234.9218431571787
 30
0.0
 11
301.7508416957159
 21
234.9219431571788
 31
0.0
  0
LINE
  5
5AC
330
1A
100
AcDbEntity
  8
NOKITOI
  6
PHANTOM
 62
     8
 48
5.0
100
AcDbLine
 10
301.7508416957159
 20
236.1219431571788
 30
0.0
 11
346.3304416957161
 21
236.1218431571787
 31
0.0
  0
LINE
  5
5AD
330
1A
100
AcDbEntity
  8
NOKITOI
  6
PHANTOM
 62
     8
 48
5.0
100
AcDbLine
 10
342.3304416957161
 20
236.1218431571787
 30
0.0
 11
322.4223416957161
 21
236.1218431571787
 31
0.0
  0
LINE
  5
5AE
330
1A
100
AcDbEntity
  8
NOKITOI
  6
PHANTOM
 62
     8
 48
5.0
100
AcDbLine
 10
342.5802416957161
 20
234.9218431571787
 30
0.0
 11
322.4223416957161
 21
234.9218431571787
 31
0.0
  0
ARC
  5
5AF
330
1A
100
AcDbEntity
  8
NOKITOI
  6
PHANTOM
 62
     8
 48
5.0
100
AcDbCircle
 10
346.5802347631388
 20
235.9218406821726
 30
0.0
 40
0.9999975250179316
100
AcDbArc
 50
270.0003972084043
 51
309.2946416752298
  0
ARC
  5
5B0
330
1A
100
AcDbEntity
  8
NOKITOI
  6
PHANTOM
 62
     8
 48
5.0
100
AcDbCircle
 10
346.3304480834646
 20
236.6218454371684
 30
0.0
 40
0.5000022800304047
100
AcDbArc
 50
269.9992680212786
 51
309.2854498596058
  0
LINE
  5
5B1
330
1A
100
AcDbEntity
  8
NOKITOI
  6
PHANTOM
 62
     8
 48
5.0
100
AcDbLine
 10
251.5398416957159
 20
277.0595431571788
 30
0.0
 11
251.454341695716
 21
279.7970431571787
 31
0.0
  0
LINE
  5
5B2
330
1A
100
AcDbEntity
  8
NOKITOI
  6
PHANTOM
 62
     8
 48
5.0
100
AcDbLine
 10
250.001741695716
 20
287.8594431571788
 30
0.0
 11
250.391941695716
 21
275.3751431571787
 31
0.0
  0
ARC
  5
5B3
330
1A
100
AcDbEntity
  8
NOKITOI
  6
PHANTOM
 62
     8
 48
5.0
100
AcDbCircle
 10
253.5388552678542
 20
277.1219300020923
 30
0.0
 40
1.999986844959662
100
AcDbArc
 50
181.7875531852363
 51
269.9996111843223
  0
LINE
  5
5B4
330
1A
100
AcDbEntity
  8
NOKITOI
  6
PHANTOM
 62
     8
 48
5.0
100
AcDbLine
 10
251.891141695716
 20
273.9219431571788
 30
0.0
 11
258.035841695716
 21
273.9219431571788
 31
0.0
  0
ARC
  5
5B5
330
1A
100
AcDbEntity
  8
NOKITOI
  6
PHANTOM
 62
     8
 48
5.0
100
AcDbCircle
 10
259.5797542654244
 20
274.621931532449
 30
0.0
 40
0.5000116248877111
100
AcDbArc
 50
4.474846808342887
 51
90.00144034898339
  0
LINE
  5
5B6
330
1A
100
AcDbEntity
  8
NOKITOI
  6
PHANTOM
 62
     8
 48
5.0
100
AcDbLine
 10
259.579741695716
 20
275.1219431571787
 30
0.0
 11
253.538841695716
 21
275.1219431571787
 31
0.0
  0
ARC
  5
5B7
330
1A
100
AcDbEntity
  8
NOKITOI
  6
PHANTOM
 62
     8
 48
5.0
100
AcDbCircle
 10
258.0358332715534
 20
272.9219506722353
 30
0.0
 40
0.9999924849789756
100
AcDbArc
 50
6.528264606674426
 51
89.99951732740889
  0
ARC
  5
5B8
330
1A
100
AcDbEntity
  8
NOKITOI
  6
PHANTOM
 62
     8
 48
5.0
100
AcDbCircle
 10
251.8911776548669
 20
275.4219083030355
 30
0.0
 40
1.499965146287778
100
AcDbArc
 50
181.7866280217767
 51
269.9986264296976
  0
LINE
  5
5B9
330
1A
100
AcDbEntity
  8
NOKITOI
  6
PHANTOM
 62
     8
 48
5.0
100
AcDbLine
 10
252.000741695716
 20
289.9219431571787
 30
0.0
 11
255.327341695716
 21
289.9219431571787
 31
0.0
  0
LINE
  5
5BA
330
1A
100
AcDbEntity
  8
NOKITOI
  6
PHANTOM
 62
     8
 48
5.0
100
AcDbLine
 10
252.000741695716
 20
288.7219431571788
 30
0.0
 11
254.473541695716
 21
288.7219431571788
 31
0.0
  0
ARC
  5
5BB
330
1A
100
AcDbEntity
  8
NOKITOI
  6
PHANTOM
 62
     8
 48
5.0
100
AcDbCircle
 10
255.4523795771626
 20
279.9219869397041
 30
0.0
 40
3.999989731271038
100
AcDbArc
 50
96.47731142013148
 51
181.7899836067308
  0
ARC
  5
5BC
330
1A
100
AcDbEntity
  8
NOKITOI
  6
PHANTOM
 62
     8
 48
5.0
100
AcDbCircle
 10
255.4524619083851
 20
279.9220018855588
 30
0.0
 40
5.2000412730095
100
AcDbArc
 50
90.00132454306161
 51
142.0757990790561
  0
ARC
  5
5BD
330
1A
100
AcDbEntity
  8
NOKITOI
  6
PHANTOM
 62
     8
 48
5.0
100
AcDbCircle
 10
255.3273409127078
 20
289.4219441121805
 30
0.0
 40
0.4999990449987349
100
AcDbArc
 50
348.6967198015448
 51
89.99991027369452
  0
LINE
  5
5BE
330
1A
100
AcDbEntity
  8
NOKITOI
  6
PHANTOM
 62
     8
 48
5.0
100
AcDbLine
 10
253.9735416957161
 20
286.2219431571789
 30
0.0
 11
256.910041695716
 21
286.2219431571789
 31
0.0
  0
LINE
  5
5BF
330
1A
100
AcDbEntity
  8
NOKITOI
  6
PHANTOM
 62
     8
 48
5.0
100
AcDbLine
 10
254.473541695716
 20
288.7219431571788
 30
0.0
 11
253.9735416957161
 21
286.2219431571789
 31
0.0
  0
ARC
  5
5C0
330
1A
100
AcDbEntity
  8
NOKITOI
  6
PHANTOM
 62
     8
 48
5.0
100
AcDbCircle
 10
256.0471344411603
 20
287.9219520070221
 30
0.0
 40
0.5000088498959383
100
AcDbArc
 50
168.6864043304884
 51
270.0008312961434
  0
LINE
  5
5C1
330
1A
100
AcDbEntity
  8
NOKITOI
  6
PHANTOM
 62
     8
 48
5.0
100
AcDbLine
 10
255.5568416957161
 20
288.0200431571787
 30
0.0
 11
255.8176416957159
 21
289.3239431571787
 31
0.0
  0
LINE
  5
5C2
330
1A
100
AcDbEntity
  8
NOKITOI
  6
PHANTOM
 62
     8
 48
5.0
100
AcDbLine
 10
256.520841695716
 20
281.6219431571788
 30
0.0
 11
256.9249416957159
 21
284.4503431571787
 31
0.0
  0
ARC
  5
5C3
330
1A
100
AcDbEntity
  8
NOKITOI
  6
PHANTOM
 62
     8
 48
5.0
100
AcDbCircle
 10
255.0575559141313
 20
283.3996285228778
 30
0.0
 40
0.5000073448410256
100
AcDbArc
 50
351.8729478641243
 51
96.47829282996841
  0
LINE
  5
5C4
330
1A
100
AcDbEntity
  8
NOKITOI
  6
PHANTOM
 62
     8
 48
5.0
100
AcDbLine
 10
257.2987416957161
 20
281.6219431571788
 30
0.0
 11
257.4799416957159
 21
285.0634431571788
 31
0.0
  0
ARC
  5
5C5
330
1A
100
AcDbEntity
  8
NOKITOI
  6
PHANTOM
 62
     8
 48
5.0
100
AcDbCircle
 10
255.7137682963134
 20
280.9219124802966
 30
0.0
 40
0.4999693238254178
100
AcDbArc
 50
171.8555038770532
 51
269.9969516090348
  0
LINE
  5
5C6
330
1A
100
AcDbEntity
  8
NOKITOI
  6
PHANTOM
 62
     8
 48
5.0
100
AcDbLine
 10
257.2987416957161
 20
281.6219431571788
 30
0.0
 11
256.520841695716
 21
281.6219431571788
 31
0.0
  0
LINE
  5
5C7
330
1A
100
AcDbEntity
  8
NOKITOI
  6
PHANTOM
 62
     8
 48
5.0
100
AcDbLine
 10
257.9628416957159
 20
280.4219431571788
 30
0.0
 11
255.7137416957159
 21
280.4219431571788
 31
0.0
  0
LINE
  5
5C8
330
1A
100
AcDbEntity
  8
NOKITOI
  6
PHANTOM
 62
     8
 48
5.0
100
AcDbLine
 10
255.218841695716
 20
280.9927431571789
 30
0.0
 11
255.552541695716
 21
283.3289431571788
 31
0.0
  0
LINE
  5
5C9
330
1A
100
AcDbEntity
  8
NOKITOI
  6
PHANTOM
 62
     8
 48
5.0
100
AcDbLine
 10
255.9142416957161
 20
285.1219431571787
 30
0.0
 11
255.4523416957159
 21
285.1219431571787
 31
0.0
  0
LINE
  5
5CA
330
1A
100
AcDbEntity
  8
NOKITOI
  6
PHANTOM
 62
     8
 48
5.0
100
AcDbLine
 10
256.9249416957159
 20
284.4503431571787
 30
0.0
 11
257.4799416957159
 21
285.0634431571788
 31
0.0
  0
LINE
  5
5CB
330
1A
100
AcDbEntity
  8
NOKITOI
  6
PHANTOM
 62
     8
 48
5.0
100
AcDbLine
 10
255.9142416957161
 20
285.1219431571787
 30
0.0
 11
256.910041695716
 21
286.2219431571789
 31
0.0
  0
ARC
  5
5CC
330
1A
100
AcDbEntity
  8
NOKITOI
  6
PHANTOM
 62
     8
 48
5.0
100
AcDbCircle
 10
258.2786354945582
 20
286.921949692264
 30
0.0
 40
0.4999934649531607
100
AcDbArc
 50
356.9955363203384
 51
89.99928939038005
  0
LINE
  5
5CD
330
1A
100
AcDbEntity
  8
NOKITOI
  6
PHANTOM
 62
     8
 48
5.0
100
AcDbLine
 10
258.4622416957161
 20
280.8957431571787
 30
0.0
 11
258.7780416957159
 21
286.8956431571788
 31
0.0
  0
ARC
  5
5CE
330
1A
100
AcDbEntity
  8
NOKITOI
  6
PHANTOM
 62
     8
 48
5.0
100
AcDbCircle
 10
257.9628348087211
 20
280.9219366220933
 30
0.0
 40
0.499993464961963
100
AcDbArc
 50
270.0007892017873
 51
356.9970361317427
  0
LINE
  5
5CF
330
1A
100
AcDbEntity
  8
NOKITOI
  6
PHANTOM
 62
     8
 48
5.0
100
AcDbLine
 10
258.2786416957159
 20
287.4219431571788
 30
0.0
 11
256.047141695716
 21
287.4219431571788
 31
0.0
  0
ARC
  5
5D0
330
1A
100
AcDbEntity
  8
NOKITOI
  6
PHANTOM
 62
     8
 48
5.0
100
AcDbCircle
 10
252.0007544465662
 20
287.9219563122652
 30
0.0
 40
1.999986844954076
100
AcDbArc
 50
90.00036528735526
 51
181.7883072882699
  0
ARC
  5
5D1
330
1A
100
AcDbEntity
  8
NOKITOI
  6
PHANTOM
 62
     8
 48
5.0
100
AcDbCircle
 10
252.0007461905138
 20
287.9219477947057
 30
0.0
 40
0.7999953624857498
100
AcDbArc
 50
90.00032191805338
 51
181.7911273464199
  0
LINE
  5
5D2
330
1A
100
AcDbEntity
  8
NOKITOI
  6
PHANTOM
 62
     8
 48
5.0
100
AcDbLine
 10
251.201141695716
 20
287.8969431571787
 30
0.0
 11
251.3505416957159
 21
283.1180431571788
 31
0.0
  0
ARC
  5
5D4
330
1A
100
AcDbEntity
  8
NOKITOI
  6
PHANTOM
 62
     8
 48
5.0
100
AcDbCircle
 10
318.1237583838632
 20
135.520352788597
 30
0.0
 40
43.00001447645168
100
AcDbArc
 50
270.0001116248559
 51
353.4750892928819
  0
ARC
  5
5D5
330
1A
100
AcDbEntity
  8
NOKITOI
  6
PHANTOM
 62
     8
 48
5.0
100
AcDbCircle
 10
318.123736075438
 20
135.5203326875705
 30
0.0
 40
41.79999437547816
100
AcDbArc
 50
270.0001454078912
 51
355.525704787475
  0
LINE
  5
5D6
330
1A
100
AcDbEntity
  8
NOKITOI
  6
PHANTOM
 62
     8
 48
5.0
100
AcDbLine
 10
273.2943421574057
 20
92.52023831222688
 30
0.0
 11
318.1237421574059
 21
92.52033831222696
 31
0.0
  0
LINE
  5
5D7
330
1A
100
AcDbEntity
  8
NOKITOI
  6
PHANTOM
 62
     8
 48
5.0
100
AcDbLine
 10
318.1237421574059
 20
93.72033831222701
 30
0.0
 11
273.5441421574057
 21
93.72023831222692
 31
0.0
  0
LINE
  5
5D8
330
1A
100
AcDbEntity
  8
NOKITOI
  6
PHANTOM
 62
     8
 48
5.0
100
AcDbLine
 10
277.5441421574057
 20
93.72023831222692
 30
0.0
 11
297.4522421574057
 21
93.72023831222692
 31
0.0
  0
LINE
  5
5D9
330
1A
100
AcDbEntity
  8
NOKITOI
  6
PHANTOM
 62
     8
 48
5.0
100
AcDbLine
 10
277.2943421574057
 20
92.52023831222688
 30
0.0
 11
297.4522421574057
 21
92.52023831222688
 31
0.0
  0
ARC
  5
5DA
330
1A
100
AcDbEntity
  8
SEIHIN
  6
CONTINUOUS
 62
     3
 48
16.0
100
AcDbCircle
 10
297.1706184386964
 20
152.8249763598082
 30
0.0
 40
8.999958350728704
100
AcDbArc
 50
204.9978315563435
 51
222.875485065947
  0
ARC
  5
5DB
330
1A
100
AcDbEntity
  8
SEIHIN
  6
CONTINUOUS
 62
     3
 48
16.0
100
AcDbCircle
 10
289.9018421574056
 20
152.5276383122271
 30
0.0
 40
0.5000333588871375
100
AcDbArc
 50
14.99784618189132
 51
104.9978461818913
  0
LINE
  5
5DC
330
1A
100
AcDbEntity
  8
SEIHIN
  6
CONTINUOUS
 62
     3
 48
16.0
100
AcDbLine
 10
286.0346421574056
 20
133.864538312227
 30
0.0
 11
290.0346421574056
 21
129.864538312227
 31
0.0
  0
LINE
  5
5DD
330
1A
100
AcDbEntity
  8
SEIHIN
  6
CONTINUOUS
 62
     3
 48
16.0
100
AcDbLine
 10
268.4396421574056
 20
129.364538312227
 30
0.0
 11
324.6203421574057
 21
129.364538312227
 31
0.0
  0
LINE
  5
5DE
330
1A
100
AcDbEntity
  8
SEIHIN
  6
CONTINUOUS
 62
     3
 48
16.0
100
AcDbLine
 10
268.4396421574056
 20
126.864538312227
 30
0.0
 11
324.6203421574057
 21
126.864538312227
 31
0.0
  0
ARC
  5
5DF
330
1A
100
AcDbEntity
  8
SEIHIN
  6
CONTINUOUS
 62
     3
 48
16.0
100
AcDbCircle
 10
289.9018421574057
 20
152.527638312227
 30
0.0
 40
1.500003483329226
100
AcDbArc
 50
14.99883465683124
 51
104.9988346568315
  0
LINE
  5
5E0
330
1A
100
AcDbEntity
  8
SEIHIN
  6
CONTINUOUS
 62
     3
 48
16.0
100
AcDbLine
 10
303.0468421574056
 20
141.864538312227
 30
0.0
 11
286.0346421574056
 21
141.864538312227
 31
0.0
  0
ARC
  5
5E1
330
1A
100
AcDbEntity
  8
SEIHIN
  6
CONTINUOUS
 62
     3
 48
16.0
100
AcDbCircle
 10
297.170524031242
 20
152.8251419323004
 30
0.0
 40
9.999927982177339
100
AcDbArc
 50
204.9990608087402
 51
235.6947150041812
  0
ARC
  5
5E2
330
1A
100
AcDbEntity
  8
NOKITOI
  6
PHANTOM
 62
     8
 48
5.0
100
AcDbCircle
 10
253.5389041695814
 20
134.720275132799
 30
0.0
 40
2.000036820932882
100
AcDbArc
 50
181.7889408725803
 51
270.001088250966
  0
LINE
  5
5E3
330
1A
100
AcDbEntity
  8
NOKITOI
  6
PHANTOM
 62
     8
 48
5.0
100
AcDbLine
 10
250.0018421574056
 20
145.4578383122269
 30
0.0
 11
250.3919421574057
 21
132.9734383122268
 31
0.0
  0
ARC
  5
5E4
330
1A
100
AcDbEntity
  8
SEIHIN
  6
CONTINUOUS
 62
     3
 48
16.0
100
AcDbCircle
 10
259.6330772126857
 20
132.5645643829066
 30
0.0
 40
0.9999739314294357
100
AcDbArc
 50
46.25238621303334
 51
89.99627884463848
  0
LINE
  5
5E5
330
1A
100
AcDbEntity
  8
SEIHIN
  6
CONTINUOUS
 62
     3
 48
16.0
100
AcDbLine
 10
267.7482421574057
 20
129.6421383122269
 30
0.0
 11
263.5691421574057
 21
133.6421383122269
 31
0.0
  0
LINE
  5
5E6
330
1A
100
AcDbEntity
  8
SEIHIN
  6
CONTINUOUS
 62
     3
 48
16.0
100
AcDbLine
 10
267.1345421574056
 20
135.3646383122269
 30
0.0
 11
267.1345421574056
 21
130.229538312227
 31
0.0
  0
ARC
  5
5E7
330
1A
100
AcDbEntity
  8
SEIHIN
  6
CONTINUOUS
 62
     3
 48
16.0
100
AcDbCircle
 10
255.0345421574056
 20
136.5645383122271
 30
0.0
 40
3.0
100
AcDbArc
 50
180.0
 51
270.0
  0
LINE
  5
5E8
330
1A
100
AcDbEntity
  8
NOKITOI
  6
PHANTOM
 62
     8
 48
5.0
100
AcDbLine
 10
259.5708421574058
 20
132.7203383122268
 30
0.0
 11
253.5389421574056
 21
132.7203383122268
 31
0.0
  0
LINE
  5
5E9
330
1A
100
AcDbEntity
  8
NOKITOI
  6
PHANTOM
 62
     8
 48
5.0
100
AcDbLine
 10
251.8912421574059
 20
131.5203383122269
 30
0.0
 11
258.0323421574057
 21
131.5203383122269
 31
0.0
  0
ARC
  5
5EA
330
1A
100
AcDbEntity
  8
NOKITOI
  6
PHANTOM
 62
     8
 48
5.0
100
AcDbCircle
 10
251.8912249442276
 20
133.0203549953747
 30
0.0
 40
1.500016683246579
100
AcDbArc
 50
181.7923576755889
 51
270.0006574876651
  0
LINE
  5
5EB
330
1A
100
AcDbEntity
  8
NOKITOI
  6
PHANTOM
 62
     8
 48
5.0
100
AcDbLine
 10
259.0273421574057
 20
130.6198383122268
 30
0.0
 11
261.8961421574058
 21
101.9324383122269
 31
0.0
  0
LINE
  5
5EC
330
1A
100
AcDbEntity
  8
NOKITOI
  6
PHANTOM
 62
     8
 48
5.0
100
AcDbLine
 10
260.0683421574059
 20
132.270138312227
 30
0.0
 11
263.0613421574057
 21
102.3403383122269
 31
0.0
  0
ARC
  5
5ED
330
1A
100
AcDbEntity
  8
NOKITOI
  6
PHANTOM
 62
     8
 48
5.0
100
AcDbCircle
 10
273.5441357696572
 20
94.22024059221657
 30
0.0
 40
0.5000022800304047
100
AcDbArc
 50
230.7145501403941
 51
270.0007319787213
  0
LINE
  5
5EE
330
1A
100
AcDbEntity
  8
NOKITOI
  6
PHANTOM
 62
     8
 48
5.0
100
AcDbLine
 10
263.2422421574057
 20
102.0030383122268
 30
0.0
 11
273.2275421574057
 21
93.83323831222687
 31
0.0
  0
LINE
  5
5EF
330
1A
100
AcDbEntity
  8
NOKITOI
  6
PHANTOM
 62
     8
 48
5.0
100
AcDbLine
 10
262.2579421574057
 20
101.257938312227
 30
0.0
 11
272.6610421574057
 21
92.74623831222699
 31
0.0
  0
ARC
  5
5F0
330
1A
100
AcDbEntity
  8
NOKITOI
  6
PHANTOM
 62
     8
 48
5.0
100
AcDbCircle
 10
273.294349089983
 20
93.52023583722077
 30
0.0
 40
0.9999975250179316
100
AcDbArc
 50
230.7053583247701
 51
269.9996027915957
  0
ARC
  5
5F1
330
1A
100
AcDbEntity
  8
NOKITOI
  6
PHANTOM
 62
     8
 48
5.0
100
AcDbCircle
 10
263.5588595832839
 20
102.390005825839
 30
0.0
 40
0.4999904508696396
100
AcDbArc
 50
185.7009889250754
 51
230.7099153622041
  0
ARC
  5
5F2
330
1A
100
AcDbEntity
  8
NOKITOI
  6
PHANTOM
 62
     8
 48
5.0
100
AcDbCircle
 10
262.8911647302749
 20
102.0318962405542
 30
0.0
 40
0.9999908507640039
100
AcDbArc
 50
185.7137670522468
 51
230.7112907769303
  0
LINE
  5
5F3
330
1A
100
AcDbEntity
  8
SEIHIN
  6
CONTINUOUS
 62
     3
 48
16.0
100
AcDbLine
 10
260.3245421574057
 20
133.2869383122269
 30
0.0
 11
266.0195421574057
 21
127.836038312227
 31
0.0
  0
ARC
  5
5F4
330
1A
100
AcDbEntity
  8
NOKITOI
  6
PHANTOM
 62
     8
 48
5.0
100
AcDbCircle
 10
259.570829086401
 20
132.2203501425068
 30
0.0
 40
0.499988169890889
100
AcDbArc
 50
5.703393862284335
 51
89.99850213773372
  0
ARC
  5
5F5
330
1A
100
AcDbEntity
  8
NOKITOI
  6
PHANTOM
 62
     8
 48
5.0
100
AcDbCircle
 10
258.0323215075646
 20
130.5203570000761
 30
0.0
 40
0.9999813123640345
100
AcDbArc
 50
5.709409966648967
 51
89.99881682915043
  0
ARC
  5
5F6
330
1A
100
AcDbEntity
  8
SEIHIN
  6
CONTINUOUS
 62
     3
 48
16.0
100
AcDbCircle
 10
268.4397071021255
 20
130.3645122415472
 30
0.0
 40
0.9999739314291554
100
AcDbArc
 50
226.2523862130362
 51
269.9962788446403
  0
ARC
  5
5F7
330
1A
100
AcDbEntity
  8
SEIHIN
  6
CONTINUOUS
 62
     3
 48
16.0
100
AcDbCircle
 10
268.4396072369427
 20
130.3645523307421
 30
0.0
 40
3.500014018689377
100
AcDbArc
 50
226.255445634851
 51
270.0005716534657
  0
LINE
  5
5F8
330
1A
100
AcDbEntity
  8
NOKITOI
  6
PHANTOM
 62
     8
 48
5.0
100
AcDbLine
 10
258.2787421574057
 20
145.0203383122269
 30
0.0
 11
256.0472421574057
 21
145.0203383122269
 31
0.0
  0
LINE
  5
5F9
330
1A
100
AcDbEntity
  8
NOKITOI
  6
PHANTOM
 62
     8
 48
5.0
100
AcDbLine
 10
257.2988421574057
 20
139.2203383122269
 30
0.0
 11
256.5209421574059
 21
139.2203383122269
 31
0.0
  0
LINE
  5
5FA
330
1A
100
AcDbEntity
  8
NOKITOI
  6
PHANTOM
 62
     8
 48
5.0
100
AcDbLine
 10
256.9249421574058
 20
142.0487383122268
 30
0.0
 11
257.4799421574058
 21
142.6617383122268
 31
0.0
  0
LINE
  5
5FB
330
1A
100
AcDbEntity
  8
NOKITOI
  6
PHANTOM
 62
     8
 48
5.0
100
AcDbLine
 10
257.9629421574058
 20
138.0203383122269
 30
0.0
 11
255.7138421574058
 21
138.0203383122269
 31
0.0
  0
ARC
  5
5FC
330
1A
100
AcDbEntity
  8
SEIHIN
  6
CONTINUOUS
 62
     3
 48
16.0
100
AcDbCircle
 10
256.7346548816476
 20
141.6143389915118
 30
0.0
 40
4.249771082082451
100
AcDbArc
 50
248.0389576229231
 51
298.0724105654603
  0
LINE
  5
5FD
330
1A
100
AcDbEntity
  8
SEIHIN
  6
CONTINUOUS
 62
     3
 48
16.0
100
AcDbLine
 10
255.0345421574056
 20
133.5645383122271
 30
0.0
 11
259.6331421574056
 21
133.5645383122271
 31
0.0
  0
ARC
  5
5FE
330
1A
100
AcDbEntity
  8
NOKITOI
  6
PHANTOM
 62
     8
 48
5.0
100
AcDbCircle
 10
256.0472429404139
 20
145.5203373572251
 30
0.0
 40
0.4999990449987399
100
AcDbArc
 50
168.6967198015449
 51
269.9999102736945
  0
LINE
  5
5FF
330
1A
100
AcDbEntity
  8
NOKITOI
  6
PHANTOM
 62
     8
 48
5.0
100
AcDbLine
 10
254.4735421574058
 20
146.320338312227
 30
0.0
 11
253.9735421574058
 21
143.820338312227
 31
0.0
  0
LINE
  5
600
330
1A
100
AcDbEntity
  8
NOKITOI
  6
PHANTOM
 62
     8
 48
5.0
100
AcDbLine
 10
251.2012421574059
 20
145.4953383122268
 30
0.0
 11
251.3505421574056
 21
140.7163383122269
 31
0.0
  0
LINE
  5
601
330
1A
100
AcDbEntity
  8
NOKITOI
  6
PHANTOM
 62
     8
 48
5.0
100
AcDbLine
 10
253.9735421574058
 20
143.820338312227
 30
0.0
 11
256.9101421574057
 21
143.820338312227
 31
0.0
  0
LINE
  5
602
330
1A
100
AcDbEntity
  8
NOKITOI
  6
PHANTOM
 62
     8
 48
5.0
100
AcDbLine
 10
256.5209421574059
 20
139.2203383122269
 30
0.0
 11
256.9249421574058
 21
142.0487383122268
 31
0.0
  0
LINE
  5
603
330
1A
100
AcDbEntity
  8
NOKITOI
  6
PHANTOM
 62
     8
 48
5.0
100
AcDbLine
 10
255.2188421574058
 20
138.5910383122268
 30
0.0
 11
255.5526421574059
 21
140.927238312227
 31
0.0
  0
LINE
  5
604
330
1A
100
AcDbEntity
  8
NOKITOI
  6
PHANTOM
 62
     8
 48
5.0
100
AcDbLine
 10
255.9143421574057
 20
142.7203383122268
 30
0.0
 11
255.4523421574057
 21
142.7203383122268
 31
0.0
  0
ARC
  5
605
330
1A
100
AcDbEntity
  8
NOKITOI
  6
PHANTOM
 62
     8
 48
5.0
100
AcDbCircle
 10
255.0576127849058
 20
140.9979685447218
 30
0.0
 40
0.4999578477751074
100
AcDbArc
 50
351.8669438287075
 51
96.47390928779223
  0
LINE
  5
606
330
1A
100
AcDbEntity
  8
NOKITOI
  6
PHANTOM
 62
     8
 48
5.0
100
AcDbLine
 10
255.9143421574057
 20
142.7203383122268
 30
0.0
 11
256.9101421574057
 21
143.820338312227
 31
0.0
  0
ARC
  5
607
330
1A
100
AcDbEntity
  8
NOKITOI
  6
PHANTOM
 62
     8
 48
5.0
100
AcDbCircle
 10
255.4523600237568
 20
137.5203470406069
 30
0.0
 40
5.199991271650611
100
AcDbArc
 50
90.00019685927453
 51
142.074671395269
  0
LINE
  5
608
330
1A
100
AcDbEntity
  8
NOKITOI
  6
PHANTOM
 62
     8
 48
5.0
100
AcDbLine
 10
251.5398421574057
 20
134.657738312227
 30
0.0
 11
251.4543421574058
 21
137.3953383122268
 31
0.0
  0
ARC
  5
609
330
1A
100
AcDbEntity
  8
NOKITOI
  6
PHANTOM
 62
     8
 48
5.0
100
AcDbCircle
 10
255.4523730843419
 20
137.5203740568907
 30
0.0
 40
3.99998565374706
100
AcDbArc
 50
96.47577619531674
 51
181.7913033408985
  0
ARC
  5
60A
330
1A
100
AcDbEntity
  8
NOKITOI
  6
PHANTOM
 62
     8
 48
5.0
100
AcDbCircle
 10
255.7138319709696
 20
138.520350056951
 30
0.0
 40
0.5000117448278309
100
AcDbArc
 50
171.8726853912841
 51
270.0011672521981
  0
ARC
  5
60B
330
1A
100
AcDbEntity
  8
SEIHIN
  6
CONTINUOUS
 62
     3
 48
16.0
100
AcDbCircle
 10
255.332322237212
 20
138.1366790749074
 30
0.0
 40
0.5000170449251722
100
AcDbArc
 50
164.0553202355196
 51
248.0407286048652
  0
ARC
  5
60C
330
1A
100
AcDbEntity
  8
SEIHIN
  6
CONTINUOUS
 62
     3
 48
16.0
100
AcDbCircle
 10
255.0717134063228
 20
140.8645764251322
 30
0.0
 40
0.4999618879214712
100
AcDbArc
 50
344.0560320448828
 51
89.99670511744499
  0
ARC
  5
60D
330
1A
100
AcDbEntity
  8
SEIHIN
  6
CONTINUOUS
 62
     3
 48
16.0
100
AcDbCircle
 10
255.53332004914
 20
137.956909652889
 30
0.0
 40
3.49999702860806
100
AcDbArc
 50
103.1924424199612
 51
181.512316299821
  0
LINE
  5
60E
330
1A
100
AcDbEntity
  8
SEIHIN
  6
CONTINUOUS
 62
     3
 48
16.0
100
AcDbLine
 10
255.5525421574057
 20
140.727238312227
 30
0.0
 11
254.8515421574056
 21
138.274038312227
 31
0.0
  0
LINE
  5
60F
330
1A
100
AcDbEntity
  8
SEIHIN
  6
CONTINUOUS
 62
     3
 48
16.0
100
AcDbLine
 10
254.7345421574057
 20
141.364538312227
 30
0.0
 11
255.0717421574056
 21
141.364538312227
 31
0.0
  0
LINE
  5
610
330
1A
100
AcDbEntity
  8
SEIHIN
  6
CONTINUOUS
 62
     3
 48
16.0
100
AcDbLine
 10
254.8515421574056
 20
138.274038312227
 30
0.0
 11
252.0477421574057
 21
138.274038312227
 31
0.0
  0
LINE
  5
611
330
1A
100
AcDbEntity
  8
SEIHIN
  6
CONTINUOUS
 62
     3
 48
16.0
100
AcDbLine
 10
252.0345421574056
 20
137.864538312227
 30
0.0
 11
252.0345421574056
 21
136.5645383122271
 31
0.0
  0
ARC
  5
612
330
1A
100
AcDbEntity
  8
NOKITOI
  6
PHANTOM
 62
     8
 48
5.0
100
AcDbCircle
 10
255.3274494119615
 20
147.0203294623835
 30
0.0
 40
0.500008849895925
100
AcDbArc
 50
348.6864043304882
 51
90.00083129614507
  0
LINE
  5
613
330
1A
100
AcDbEntity
  8
NOKITOI
  6
PHANTOM
 62
     8
 48
5.0
100
AcDbLine
 10
255.5569421574058
 20
145.618338312227
 30
0.0
 11
255.8177421574057
 21
146.9223383122268
 31
0.0
  0
ARC
  5
614
330
1A
100
AcDbEntity
  8
NOKITOI
  6
PHANTOM
 62
     8
 48
5.0
100
AcDbCircle
 10
252.0008533944002
 20
145.520349906044
 30
0.0
 40
1.999988406214315
100
AcDbArc
 50
90.0003219180439
 51
181.791127346407
  0
ARC
  5
615
330
1A
100
AcDbEntity
  8
NOKITOI
  6
PHANTOM
 62
     8
 48
5.0
100
AcDbCircle
 10
252.0007981910527
 20
145.5202929497538
 30
0.0
 40
0.7999453636812564
100
AcDbArc
 50
89.99685092684627
 51
181.7876563552118
  0
LINE
  5
616
330
1A
100
AcDbEntity
  8
NOKITOI
  6
PHANTOM
 62
     8
 48
5.0
100
AcDbLine
 10
252.0008421574057
 20
146.3202383122268
 30
0.0
 11
254.4735421574058
 21
146.320338312227
 31
0.0
  0
LINE
  5
617
330
1A
100
AcDbEntity
  8
NOKITOI
  6
PHANTOM
 62
     8
 48
5.0
100
AcDbLine
 10
252.0008421574057
 20
147.5202383122268
 30
0.0
 11
255.3274421574057
 21
147.5203383122268
 31
0.0
  0
LINE
  5
618
330
1A
100
AcDbEntity
  8
SEIHIN
  6
CONTINUOUS
 62
     3
 48
16.0
100
AcDbLine
 10
286.0346421574056
 20
135.364538312227
 30
0.0
 11
264.2605421574056
 21
135.364538312227
 31
0.0
  0
LINE
  5
619
330
1A
100
AcDbEntity
  8
SEIHIN
  6
CONTINUOUS
 62
     3
 48
16.0
100
AcDbLine
 10
258.7345421574057
 20
137.864538312227
 30
0.0
 11
286.0346421574056
 21
137.864538312227
 31
0.0
  0
ARC
  5
61A
330
1A
100
AcDbEntity
  8
NOKITOI
  6
PHANTOM
 62
     8
 48
5.0
100
AcDbCircle
 10
258.2787384479106
 20
144.5203422222575
 30
0.0
 40
0.4999960899831856
100
AcDbArc
 50
356.9843782585345
 51
89.99957491984867
  0
LINE
  5
61B
330
1A
100
AcDbEntity
  8
NOKITOI
  6
PHANTOM
 62
     8
 48
5.0
100
AcDbLine
 10
257.2988421574057
 20
139.2203383122269
 30
0.0
 11
257.4799421574058
 21
142.6617383122268
 31
0.0
  0
LINE
  5
61C
330
1A
100
AcDbEntity
  8
NOKITOI
  6
PHANTOM
 62
     8
 48
5.0
100
AcDbLine
 10
258.4622421574058
 20
138.4940383122269
 30
0.0
 11
258.7780421574056
 21
144.4940383122269
 31
0.0
  0
ARC
  5
61D
330
1A
100
AcDbEntity
  8
NOKITOI
  6
PHANTOM
 62
     8
 48
5.0
100
AcDbCircle
 10
257.9629380359988
 20
138.5203344021964
 30
0.0
 40
0.4999960899864752
100
AcDbArc
 50
270.0004722821405
 51
356.9852756208263
  0
ARC
  5
61E
330
1A
100
AcDbEntity
  8
SEIHIN
  6
CONTINUOUS
 62
     3
 48
16.0
100
AcDbCircle
 10
264.2605526229268
 20
134.3645643829067
 30
0.0
 40
0.9999739293751089
100
AcDbArc
 50
90.00059964582789
 51
226.2567070142238
  0
LINE
  5
61F
330
1A
100
AcDbEntity
  8
SEIHIN
  6
CONTINUOUS
 62
     3
 48
16.0
100
AcDbLine
 10
286.0346421574056
 20
133.864538312227
 30
0.0
 11
286.0346421574056
 21
141.864538312227
 31
0.0
  0
ARC
  5
620
330
1A
100
AcDbEntity
  8
SEIHIN
  6
CONTINUOUS
 62
     3
 48
16.0
100
AcDbCircle
 10
288.1494984312849
 20
152.0580445375876
 30
0.0
 40
1.499986154316359
100
AcDbArc
 50
104.9972828703585
 51
204.9993544965739
  0
LINE
  5
621
330
1A
100
AcDbEntity
  8
SEIHIN
  6
CONTINUOUS
 62
     3
 48
16.0
100
AcDbLine
 10
289.5136421574057
 20
153.976538312227
 30
0.0
 11
287.7613421574057
 21
153.506938312227
 31
0.0
  0
ARC
  5
622
330
1A
100
AcDbEntity
  8
SEIHIN
  6
CONTINUOUS
 62
     3
 48
16.0
100
AcDbCircle
 10
288.1495026014887
 20
152.0580534687961
 30
0.0
 40
0.5000084834054359
100
AcDbArc
 50
104.9939173385051
 51
205.0003085611172
  0
LINE
  5
623
330
1A
100
AcDbEntity
  8
SEIHIN
  6
CONTINUOUS
 62
     3
 48
16.0
100
AcDbLine
 10
286.7900421574056
 20
151.4241383122271
 30
0.0
 11
288.1074421574057
 21
148.599138312227
 31
0.0
  0
LINE
  5
624
330
1A
100
AcDbEntity
  8
SEIHIN
  6
CONTINUOUS
 62
     3
 48
16.0
100
AcDbLine
 10
289.0137421574057
 20
149.021738312227
 30
0.0
 11
287.6963421574057
 21
151.8467383122269
 31
0.0
  0
LINE
  5
625
330
1A
100
AcDbEntity
  8
SEIHIN
  6
CONTINUOUS
 62
     3
 48
16.0
100
AcDbLine
 10
288.0201421574056
 20
152.541038312227
 30
0.0
 11
289.7724421574057
 21
153.0106383122271
 31
0.0
  0
ARC
  5
626
330
1A
100
AcDbEntity
  8
SEIHIN
  6
CONTINUOUS
 62
     3
 48
16.0
100
AcDbCircle
 10
354.8646704776577
 20
129.714588285053
 30
0.0
 40
0.6499783611464051
100
AcDbArc
 50
285.0953788674697
 51
15.81591890613247
  0
LINE
  5
627
330
1A
100
AcDbEntity
  8
SEIHIN
  6
CONTINUOUS
 62
     3
 48
16.0
100
AcDbLine
 10
353.9318421574057
 20
135.391738312227
 30
0.0
 11
355.4900421574057
 21
129.891738312227
 31
0.0
  0
LINE
  5
628
330
1A
100
AcDbEntity
  8
SEIHIN
  6
CONTINUOUS
 62
     3
 48
16.0
100
AcDbLine
 10
410.0346421574057
 20
173.218838312227
 30
0.0
 11
336.8739421574056
 21
166.818138312227
 31
0.0
  0
LINE
  5
629
330
1A
100
AcDbEntity
  8
SEIHIN
  6
CONTINUOUS
 62
     3
 48
16.0
100
AcDbLine
 10
405.0346421574057
 20
155.218838312227
 30
0.0
 11
340.3758421574055
 21
155.218838312227
 31
0.0
  0
ARC
  5
62A
330
1A
100
AcDbEntity
  8
SEIHIN
  6
CONTINUOUS
 62
     3
 48
16.0
100
AcDbCircle
 10
365.993942631112
 20
130.8645385481159
 30
0.0
 40
22.49999976411112
100
AcDbArc
 50
90.00000120628323
 51
142.9433444493904
  0
ARC
  5
62B
330
1A
100
AcDbEntity
  8
SEIHIN
  6
CONTINUOUS
 62
     3
 48
16.0
100
AcDbCircle
 10
365.9939358554972
 20
130.8645351741023
 30
0.0
 40
20.00000313812564
100
AcDbArc
 50
89.999981946365
 51
142.9432997870775
  0
LINE
  5
62C
330
1A
100
AcDbEntity
  8
SEIHIN
  6
CONTINUOUS
 62
     3
 48
16.0
100
AcDbLine
 10
339.9877421574056
 20
133.761938312227
 30
0.0
 11
335.0795421574056
 21
127.261938312227
 31
0.0
  0
LINE
  5
62D
330
1A
100
AcDbEntity
  8
SEIHIN
  6
CONTINUOUS
 62
     3
 48
16.0
100
AcDbLine
 10
339.1951421574057
 20
128.563538312227
 30
0.0
 11
350.0331421574056
 21
142.916638312227
 31
0.0
  0
LINE
  5
62E
330
1A
100
AcDbEntity
  8
SEIHIN
  6
CONTINUOUS
 62
     3
 48
16.0
100
AcDbLine
 10
352.6811421574057
 20
135.037338312227
 30
0.0
 11
353.2827421574056
 21
132.9139383122269
 31
0.0
  0
ARC
  5
62F
330
1A
100
AcDbEntity
  8
SEIHIN
  6
CONTINUOUS
 62
     3
 48
16.0
100
AcDbCircle
 10
308.7815498174167
 20
138.8645421266697
 30
0.0
 40
9.000003814446047
100
AcDbArc
 50
269.9999512348761
 51
322.9436511488674
  0
LINE
  5
630
330
1A
100
AcDbEntity
  8
CENTER_L
  6
CENTER
 62
     1
 48
5.0
100
AcDbLine
 10
296.0346421574056
 20
150.8990383122269
 30
0.0
 11
296.0345421574057
 21
122.142338312227
 31
0.0
  0
LINE
  5
631
330
1A
100
AcDbEntity
  8
SEIHIN
  6
CONTINUOUS
 62
     3
 48
16.0
100
AcDbLine
 10
321.9346421574057
 20
135.3646383122269
 30
0.0
 11
321.9346421574057
 21
129.3644383122269
 31
0.0
  0
LINE
  5
632
330
1A
100
AcDbEntity
  8
SEIHIN
  6
CONTINUOUS
 62
     3
 48
16.0
100
AcDbLine
 10
290.0346421574056
 20
129.864538312227
 30
0.0
 11
308.7815421574057
 21
129.864538312227
 31
0.0
  0
ARC
  5
633
330
1A
100
AcDbEntity
  8
SEIHIN
  6
CONTINUOUS
 62
     3
 48
16.0
100
AcDbCircle
 10
296.0345921574057
 20
134.1113383124387
 30
0.0
 40
9.74689948731938
100
AcDbArc
 50
235.6479086071096
 51
304.3520913928904
  0
LINE
  5
634
330
1A
100
AcDbEntity
  8
SEIHIN
  6
CONTINUOUS
 62
     3
 48
16.0
100
AcDbLine
 10
301.5345421574056
 20
126.064438312227
 30
0.0
 11
290.5345421574056
 21
126.064438312227
 31
0.0
  0
LINE
  5
635
330
1A
100
AcDbEntity
  8
SEIHIN
  6
CONTINUOUS
 62
     3
 48
16.0
100
AcDbLine
 10
290.5345421574056
 20
126.064438312227
 30
0.0
 11
290.5345421574056
 21
126.864438312227
 31
0.0
  0
LINE
  5
636
330
1A
100
AcDbEntity
  8
SEIHIN
  6
CONTINUOUS
 62
     3
 48
16.0
100
AcDbLine
 10
301.5345421574056
 20
126.064438312227
 30
0.0
 11
301.5345421574056
 21
126.864238312227
 31
0.0
  0
ARC
  5
637
330
1A
100
AcDbEntity
  8
SEIHIN
  6
CONTINUOUS
 62
     3
 48
16.0
100
AcDbCircle
 10
339.9931313941666
 20
127.9609548883644
 30
0.0
 40
0.9999468009350755
100
AcDbArc
 50
142.9425516661817
 51
283.0512651047551
  0
LINE
  5
638
330
1A
100
AcDbEntity
  8
SEIHIN
  6
CONTINUOUS
 62
     3
 48
16.0
100
AcDbLine
 10
337.5346421574057
 20
124.364538312227
 30
0.0
 11
355.0339421574055
 21
129.087038312227
 31
0.0
  0
LINE
  5
639
330
1A
100
AcDbEntity
  8
SEIHIN
  6
CONTINUOUS
 62
     3
 48
16.0
100
AcDbLine
 10
328.9843421574056
 20
126.864538312227
 30
0.0
 11
334.2815421574057
 21
126.864538312227
 31
0.0
  0
LINE
  5
63A
330
1A
100
AcDbEntity
  8
SEIHIN
  6
CONTINUOUS
 62
     3
 48
16.0
100
AcDbLine
 10
337.5346421574057
 20
124.364538312227
 30
0.0
 11
328.9843421574056
 21
124.364538312227
 31
0.0
  0
ARC
  5
63B
330
1A
100
AcDbEntity
  8
SEIHIN
  6
CONTINUOUS
 62
     3
 48
16.0
100
AcDbCircle
 10
328.9842973187999
 20
127.8645568849856
 30
0.0
 40
3.500018573045792
100
AcDbArc
 50
225.0007340140657
 51
270.0007340140658
  0
ARC
  5
63C
330
1A
100
AcDbEntity
  8
SEIHIN
  6
CONTINUOUS
 62
     3
 48
16.0
100
AcDbCircle
 10
324.6203305811962
 20
125.86454310725
 30
0.0
 40
0.9999952050440143
100
AcDbArc
 50
44.99933672887019
 51
89.99933672887157
  0
ARC
  5
63D
330
1A
100
AcDbEntity
  8
SEIHIN
  6
CONTINUOUS
 62
     3
 48
16.0
100
AcDbCircle
 10
324.6203869960114
 20
125.8645197394683
 30
0.0
 40
3.500018573045817
100
AcDbArc
 50
45.00073401406603
 51
90.00073401406572
  0
ARC
  5
63E
330
1A
100
AcDbEntity
  8
SEIHIN
  6
CONTINUOUS
 62
     3
 48
16.0
100
AcDbCircle
 10
328.9843537336151
 20
127.8645335172039
 30
0.0
 40
0.9999952050439137
100
AcDbArc
 50
224.9993367288702
 51
269.9993367288691
  0
LINE
  5
63F
330
1A
100
AcDbEntity
  8
SEIHIN
  6
CONTINUOUS
 62
     3
 48
16.0
100
AcDbLine
 10
326.5094421574056
 20
125.389638312227
 30
0.0
 11
325.3275421574057
 21
126.571638312227
 31
0.0
  0
LINE
  5
640
330
1A
100
AcDbEntity
  8
SEIHIN
  6
CONTINUOUS
 62
     3
 48
16.0
100
AcDbLine
 10
328.2772421574057
 20
127.1574383122269
 30
0.0
 11
327.0952421574057
 21
128.339438312227
 31
0.0
  0
ARC
  5
641
330
1A
100
AcDbEntity
  8
SEIHIN
  6
CONTINUOUS
 62
     3
 48
16.0
100
AcDbCircle
 10
334.2815073943894
 20
127.8645210019273
 30
0.0
 40
0.9999826903045118
100
AcDbArc
 50
270.0019918085952
 51
322.9441571624608
  0
LINE
  5
642
330
1A
100
AcDbEntity
  8
SEIHIN
  6
CONTINUOUS
 62
     3
 48
16.0
100
AcDbLine
 10
340.2189421574056
 20
126.986838312227
 30
0.0
 11
351.2421421574056
 21
129.542038312227
 31
0.0
  0
ARC
  5
643
330
1A
100
AcDbEntity
  8
SEIHIN
  6
CONTINUOUS
 62
     3
 48
16.0
100
AcDbCircle
 10
353.1931317211402
 20
130.6618211005383
 30
0.0
 40
2.000003477458785
100
AcDbArc
 50
92.67925038682612
 51
204.8592541446026
  0
ARC
  5
644
330
1A
100
AcDbEntity
  8
SEIHIN
  6
CONTINUOUS
 62
     3
 48
16.0
100
AcDbCircle
 10
351.196920367983
 20
129.7368937439169
 30
0.0
 40
0.200034120833529
100
AcDbArc
 50
283.0658282482517
 51
24.84413134545115
  0
ARC
  5
645
330
1A
100
AcDbEntity
  8
SEIHIN
  6
CONTINUOUS
 62
     3
 48
16.0
100
AcDbCircle
 10
353.090259030603
 20
132.8594617511478
 30
0.0
 40
0.2000436197700878
100
AcDbArc
 50
272.6884681247674
 51
15.80257029503106
  0
LINE
  5
646
330
1A
100
AcDbEntity
  8
SEIHIN
  6
CONTINUOUS
 62
     3
 48
16.0
100
AcDbLine
 10
319.3041421574057
 20
137.864538312227
 30
0.0
 11
329.9447421574057
 21
137.864538312227
 31
0.0
  0
LINE
  5
647
330
1A
100
AcDbEntity
  8
SEIHIN
  6
CONTINUOUS
 62
     3
 48
16.0
100
AcDbLine
 10
339.1896421574056
 20
135.364538312227
 30
0.0
 11
317.4163421574056
 21
135.364538312227
 31
0.0
  0
LINE
  5
648
330
1A
100
AcDbEntity
  8
SEIHIN
  6
CONTINUOUS
 62
     3
 48
16.0
100
AcDbLine
 10
315.9639421574056
 20
133.441138312227
 30
0.0
 11
327.6071421574057
 21
148.8605383122269
 31
0.0
  0
ARC
  5
649
330
1A
100
AcDbEntity
  8
SEIHIN
  6
CONTINUOUS
 62
     3
 48
16.0
100
AcDbCircle
 10
339.4014409138723
 20
137.9285376237257
 30
0.0
 40
28.99995306728952
100
AcDbArc
 50
94.99997284360597
 51
142.9435915196731
  0
ARC
  5
64A
330
1A
100
AcDbEntity
  8
SEIHIN
  6
CONTINUOUS
 62
     3
 48
16.0
100
AcDbCircle
 10
303.0467938438265
 20
147.8645142537972
 30
0.0
 40
5.999975941764654
100
AcDbArc
 50
270.0004613625472
 51
322.9437776467124
  0
LINE
  5
64B
330
1A
100
AcDbEntity
  8
SEIHIN
  6
CONTINUOUS
 62
     3
 48
16.0
100
AcDbLine
 10
291.5346421574056
 20
144.564738312227
 30
0.0
 11
292.7846421574057
 21
147.564738312227
 31
0.0
  0
ARC
  5
64C
330
1A
100
AcDbEntity
  8
SEIHIN
  6
CONTINUOUS
 62
     3
 48
16.0
100
AcDbCircle
 10
294.898722817162
 20
152.8253332624992
 30
0.0
 40
9.999994428414836
100
AcDbArc
 50
304.3038978962834
 51
334.9992749556044
  0
LINE
  5
64D
330
1A
100
AcDbEntity
  8
SEIHIN
  6
CONTINUOUS
 62
     3
 48
16.0
100
AcDbLine
 10
300.5346421574056
 20
144.564738312227
 30
0.0
 11
299.2846421574056
 21
147.564738312227
 31
0.0
  0
LINE
  5
64E
330
1A
100
AcDbEntity
  8
SEIHIN
  6
CONTINUOUS
 62
     3
 48
16.0
100
AcDbLine
 10
301.5346421574056
 20
143.364738312227
 30
0.0
 11
296.0346421574056
 21
143.364738312227
 31
0.0
  0
LINE
  5
64F
330
1A
100
AcDbEntity
  8
SEIHIN
  6
CONTINUOUS
 62
     3
 48
16.0
100
AcDbLine
 10
300.5346421574056
 20
144.564738312227
 30
0.0
 11
296.0346421574056
 21
144.564738312227
 31
0.0
  0
LINE
  5
650
330
1A
100
AcDbEntity
  8
SEIHIN
  6
CONTINUOUS
 62
     3
 48
16.0
100
AcDbLine
 10
291.5346421574056
 20
144.564738312227
 30
0.0
 11
296.0346421574056
 21
144.564738312227
 31
0.0
  0
LINE
  5
651
330
1A
100
AcDbEntity
  8
SEIHIN
  6
CONTINUOUS
 62
     3
 48
16.0
100
AcDbLine
 10
291.5346421574056
 20
144.564738312227
 30
0.0
 11
292.0346421574056
 21
143.364738312227
 31
0.0
  0
LINE
  5
652
330
1A
100
AcDbEntity
  8
SEIHIN
  6
CONTINUOUS
 62
     3
 48
16.0
100
AcDbLine
 10
290.5346421574057
 20
143.364738312227
 30
0.0
 11
290.5346421574057
 21
141.864738312227
 31
0.0
  0
LINE
  5
653
330
1A
100
AcDbEntity
  8
SEIHIN
  6
CONTINUOUS
 62
     3
 48
16.0
100
AcDbLine
 10
290.5346421574057
 20
143.364738312227
 30
0.0
 11
296.0346421574056
 21
143.364738312227
 31
0.0
  0
LINE
  5
654
330
1A
100
AcDbEntity
  8
SEIHIN
  6
CONTINUOUS
 62
     3
 48
16.0
100
AcDbLine
 10
301.5346421574056
 20
143.364738312227
 30
0.0
 11
301.5346421574056
 21
141.864738312227
 31
0.0
  0
LINE
  5
655
330
1A
100
AcDbEntity
  8
SEIHIN
  6
CONTINUOUS
 62
     3
 48
16.0
100
AcDbLine
 10
300.5346421574056
 20
144.564738312227
 30
0.0
 11
300.0346421574056
 21
143.364738312227
 31
0.0
  0
LINE
  5
656
330
1A
100
AcDbEntity
  8
SEIHIN
  6
CONTINUOUS
 62
     3
 48
16.0
100
AcDbLine
 10
296.0346421574056
 20
148.864738312227
 30
0.0
 11
298.5345421574056
 21
148.864738312227
 31
0.0
  0
LINE
  5
657
330
1A
100
AcDbEntity
  8
SEIHIN
  6
CONTINUOUS
 62
     3
 48
16.0
100
AcDbLine
 10
296.0346421574056
 20
147.564738312227
 30
0.0
 11
299.2846421574056
 21
147.564738312227
 31
0.0
  0
ARC
  5
658
330
1A
100
AcDbEntity
  8
SEIHIN
  6
CONTINUOUS
 62
     3
 48
16.0
100
AcDbCircle
 10
291.203439604912
 20
147.6699999834219
 30
0.0
 40
0.4999491535833398
100
AcDbArc
 50
337.3834207095949
 51
15.0049791876517
  0
LINE
  5
659
330
1A
100
AcDbEntity
  8
SEIHIN
  6
CONTINUOUS
 62
     3
 48
16.0
100
AcDbLine
 10
292.7846421574057
 20
147.564738312227
 30
0.0
 11
291.3507421574056
 21
152.915838312227
 31
0.0
  0
LINE
  5
65A
330
1A
100
AcDbEntity
  8
SEIHIN
  6
CONTINUOUS
 62
     3
 48
16.0
100
AcDbLine
 10
291.6649421574056
 20
147.477738312227
 30
0.0
 11
291.4031421574057
 21
146.849338312227
 31
0.0
  0
LINE
  5
65B
330
1A
100
AcDbEntity
  8
SEIHIN
  6
CONTINUOUS
 62
     3
 48
16.0
100
AcDbLine
 10
296.0346421574056
 20
147.564738312227
 30
0.0
 11
292.7846421574057
 21
147.564738312227
 31
0.0
  0
LINE
  5
65C
330
1A
100
AcDbEntity
  8
SEIHIN
  6
CONTINUOUS
 62
     3
 48
16.0
100
AcDbLine
 10
296.0345421574057
 20
148.864738312227
 30
0.0
 11
293.5346421574056
 21
148.864738312227
 31
0.0
  0
LINE
  5
65D
330
1A
100
AcDbEntity
  8
SEIHIN
  6
CONTINUOUS
 62
     3
 48
16.0
100
AcDbLine
 10
293.5346421574056
 20
148.864738312227
 30
0.0
 11
293.5346421574056
 21
147.564738312227
 31
0.0
  0
ARC
  5
65E
330
1A
100
AcDbEntity
  8
SEIHIN
  6
CONTINUOUS
 62
     3
 48
16.0
100
AcDbCircle
 10
290.941585539314
 20
147.0416282025578
 30
0.0
 40
0.5000099135294393
100
AcDbArc
 50
222.8722729487957
 51
337.3828182613864
  0
LINE
  5
65F
330
1A
100
AcDbEntity
  8
SEIHIN
  6
CONTINUOUS
 62
     3
 48
16.0
100
AcDbLine
 10
290.3848421574057
 20
152.6570383122271
 30
0.0
 11
291.6864421574057
 21
147.799438312227
 31
0.0
  0
ARC
  5
660
330
1A
100
AcDbEntity
  8
SEIHIN
  6
CONTINUOUS
 62
     3
 48
16.0
100
AcDbCircle
 10
303.9196225828281
 20
152.0580802889748
 30
0.0
 40
1.499968002867925
100
AcDbArc
 50
334.9988153855758
 51
75.00002814091899
  0
ARC
  5
661
330
1A
100
AcDbEntity
  8
SEIHIN
  6
CONTINUOUS
 62
     3
 48
16.0
100
AcDbCircle
 10
302.1673421574057
 20
152.5276383122269
 30
0.0
 40
1.500003483329318
100
AcDbArc
 50
75.00116534316557
 51
165.0011653431669
  0
LINE
  5
662
330
1A
100
AcDbEntity
  8
SEIHIN
  6
CONTINUOUS
 62
     3
 48
16.0
100
AcDbLine
 10
302.5555421574057
 20
153.976538312227
 30
0.0
 11
304.3078421574057
 21
153.506938312227
 31
0.0
  0
ARC
  5
663
330
1A
100
AcDbEntity
  8
SEIHIN
  6
CONTINUOUS
 62
     3
 48
16.0
100
AcDbCircle
 10
302.1672830085157
 20
152.5276041616759
 30
0.0
 40
0.4999850647767057
100
AcDbArc
 50
74.99365376778166
 51
164.9966195745633
  0
ARC
  5
664
330
1A
100
AcDbEntity
  8
SEIHIN
  6
CONTINUOUS
 62
     3
 48
16.0
100
AcDbCircle
 10
301.127595712846
 20
147.0416287416125
 30
0.0
 40
0.5000072937196915
100
AcDbArc
 50
202.6173737235509
 51
317.1117262707761
  0
ARC
  5
665
330
1A
100
AcDbEntity
  8
SEIHIN
  6
CONTINUOUS
 62
     3
 48
16.0
100
AcDbCircle
 10
300.8657347537899
 20
147.6701494431633
 30
0.0
 40
0.4999974598192606
100
AcDbArc
 50
165.0142351982865
 51
202.6328278695624
  0
ARC
  5
666
330
1A
100
AcDbEntity
  8
SEIHIN
  6
CONTINUOUS
 62
     3
 48
16.0
100
AcDbCircle
 10
294.8987046296475
 20
152.8253311448758
 30
0.0
 40
9.000024792292725
100
AcDbArc
 50
317.1218255523311
 51
334.9991711343637
  0
ARC
  5
667
330
1A
100
AcDbEntity
  8
SEIHIN
  6
CONTINUOUS
 62
     3
 48
16.0
100
AcDbCircle
 10
303.9196184182151
 20
152.0580892205146
 30
0.0
 40
0.4999903293584431
100
AcDbArc
 50
334.9942007564465
 51
74.99801644261495
  0
LINE
  5
668
330
1A
100
AcDbEntity
  8
SEIHIN
  6
CONTINUOUS
 62
     3
 48
16.0
100
AcDbLine
 10
303.0554421574056
 20
149.021738312227
 30
0.0
 11
304.3728421574057
 21
151.8467383122269
 31
0.0
  0
LINE
  5
669
330
1A
100
AcDbEntity
  8
SEIHIN
  6
CONTINUOUS
 62
     3
 48
16.0
100
AcDbLine
 10
304.0490421574056
 20
152.541038312227
 30
0.0
 11
302.2967421574057
 21
153.010538312227
 31
0.0
  0
LINE
  5
66A
330
1A
100
AcDbEntity
  8
SEIHIN
  6
CONTINUOUS
 62
     3
 48
16.0
100
AcDbLine
 10
305.2791421574057
 20
151.4241383122271
 30
0.0
 11
303.9617421574057
 21
148.599138312227
 31
0.0
  0
LINE
  5
66B
330
1A
100
AcDbEntity
  8
SEIHIN
  6
CONTINUOUS
 62
     3
 48
16.0
100
AcDbLine
 10
301.6843421574056
 20
152.6570383122271
 30
0.0
 11
300.3827421574057
 21
147.799438312227
 31
0.0
  0
LINE
  5
66C
330
1A
100
AcDbEntity
  8
SEIHIN
  6
CONTINUOUS
 62
     3
 48
16.0
100
AcDbLine
 10
300.4041421574057
 20
147.477738312227
 30
0.0
 11
300.6660421574057
 21
146.849338312227
 31
0.0
  0
LINE
  5
66D
330
1A
100
AcDbEntity
  8
SEIHIN
  6
CONTINUOUS
 62
     3
 48
16.0
100
AcDbLine
 10
298.5346421574056
 20
148.864738312227
 30
0.0
 11
298.5346421574056
 21
147.564738312227
 31
0.0
  0
LINE
  5
66E
330
1A
100
AcDbEntity
  8
SEIHIN
  6
CONTINUOUS
 62
     3
 48
16.0
100
AcDbLine
 10
299.2846421574056
 20
147.564738312227
 30
0.0
 11
300.7183421574057
 21
152.915838312227
 31
0.0
  0
LINE
  5
66F
330
1A
100
AcDbEntity
  8
SEIHIN
  6
CONTINUOUS
 62
     3
 48
16.0
100
AcDbLine
 10
316.2582421574057
 20
155.403938312227
 30
0.0
 11
307.8350421574056
 21
144.248938312227
 31
0.0
  0
ARC
  5
670
330
1A
100
AcDbEntity
  8
SEIHIN
  6
CONTINUOUS
 62
     3
 48
16.0
100
AcDbCircle
 10
340.3758570666023
 20
139.2188457364492
 30
0.0
 40
15.99999257578471
100
AcDbArc
 50
90.00005338965262
 51
142.9432277580641
  0
LINE
  5
671
330
1A
100
AcDbEntity
  8
SEIHIN
  6
CONTINUOUS
 62
     3
 48
16.0
100
AcDbLine
 10
342.4549421574057
 20
151.134838312227
 30
0.0
 11
333.9349421574056
 21
139.851538312227
 31
0.0
  0
LINE
  5
672
330
1A
100
AcDbEntity
  8
SEIHIN
  6
CONTINUOUS
 62
     3
 48
16.0
100
AcDbLine
 10
344.4500421574056
 20
149.628238312227
 30
0.0
 11
336.7773421574056
 21
139.467138312227
 31
0.0
  0
LINE
  5
673
330
1A
100
AcDbEntity
  8
SEIHIN
  6
CONTINUOUS
 62
     3
 48
16.0
100
AcDbLine
 10
337.5753421574056
 20
137.864538312227
 30
0.0
 11
342.5876421574057
 21
137.864538312227
 31
0.0
  0
ARC
  5
674
330
1A
100
AcDbEntity
  8
SEIHIN
  6
CONTINUOUS
 62
     3
 48
16.0
100
AcDbCircle
 10
329.944728606279
 20
142.8645315642178
 30
0.0
 40
4.999993252009153
100
AcDbArc
 50
270.0001552846836
 51
322.9437017475605
  0
ARC
  5
675
330
1A
100
AcDbEntity
  8
SEIHIN
  6
CONTINUOUS
 62
     3
 48
16.0
100
AcDbCircle
 10
337.575350777097
 20
138.8645210019274
 30
0.0
 40
0.9999826897374756
100
AcDbArc
 50
142.9416714733756
 51
269.99950611951
  0
LINE
  5
676
330
1A
100
AcDbEntity
  8
SEIHIN
  6
CONTINUOUS
 62
     3
 48
16.0
100
AcDbLine
 10
348.0380421574057
 20
144.423138312227
 30
0.0
 11
343.3857421574056
 21
138.261938312227
 31
0.0
  0
ARC
  5
677
330
1A
100
AcDbEntity
  8
SEIHIN
  6
CONTINUOUS
 62
     3
 48
16.0
100
AcDbCircle
 10
342.5876875238301
 20
138.8645609042165
 30
0.0
 40
1.00002259301851
100
AcDbArc
 50
269.9974007540773
 51
322.9430187151517
  0
ARC
  5
678
330
1A
100
AcDbEntity
  8
SEIHIN
  6
CONTINUOUS
 62
     3
 48
16.0
100
AcDbCircle
 10
339.1896534079725
 20
134.3645157202374
 30
0.0
 40
1.000022592052877
100
AcDbArc
 50
322.9462625565133
 51
90.00064459543898
  0
ARC
  5
679
330
1A
100
AcDbEntity
  8
SEIHIN
  6
CONTINUOUS
 62
     3
 48
16.0
100
AcDbCircle
 10
353.3064421574057
 20
135.214538312227
 30
0.0
 40
0.6500192304847806
100
AcDbArc
 50
15.81947663555296
 51
195.8194766355529
  0
ARC
  5
67A
330
1A
100
AcDbEntity
  8
SEIHIN
  6
CONTINUOUS
 62
     3
 48
16.0
100
AcDbCircle
 10
364.0019724635515
 20
134.8644724479862
 30
0.0
 40
24.49999416231937
100
AcDbArc
 50
123.8199581497764
 51
142.9431668788245
  0
ARC
  5
67B
330
1A
100
AcDbEntity
  8
SEIHIN
  6
CONTINUOUS
 62
     3
 48
16.0
100
AcDbCircle
 10
364.0019109944261
 20
134.8643976148252
 30
0.0
 40
26.99998345464672
100
AcDbArc
 50
131.073388365199
 51
142.9429966911476
  0
ARC
  5
67C
330
1A
100
AcDbEntity
  8
NOKITOI
  6
PHANTOM
 62
     8
 48
5.0
100
AcDbCircle
 10
366.3357285852676
 20
134.7203251571404
 30
0.0
 40
1.999986844959662
100
AcDbArc
 50
270.0003888156776
 51
358.2124468147636
  0
LINE
  5
67D
330
1A
100
AcDbEntity
  8
NOKITOI
  6
PHANTOM
 62
     8
 48
5.0
100
AcDbLine
 10
369.8728421574057
 20
145.4578383122269
 30
0.0
 11
369.4826421574058
 21
132.9735383122268
 31
0.0
  0
LINE
  5
67E
330
1A
100
AcDbEntity
  8
SEIHIN
  6
CONTINUOUS
 62
     3
 48
16.0
100
AcDbLine
 10
375.0346421574057
 20
151.864538312227
 30
0.0
 11
375.0346421574057
 21
123.364538312227
 31
0.0
  0
LINE
  5
67F
330
1A
100
AcDbEntity
  8
SEIHIN
  6
CONTINUOUS
 62
     3
 48
16.0
100
AcDbLine
 10
371.0346421574057
 20
147.864538312227
 30
0.0
 11
371.0346421574057
 21
128.174438312227
 31
0.0
  0
LINE
  5
680
330
1A
100
AcDbEntity
  8
SEIHIN
  6
CONTINUOUS
 62
     3
 48
16.0
100
AcDbLine
 10
416.0346421574057
 20
173.218838312227
 30
0.0
 11
416.0346421574057
 21
123.218838312227
 31
0.0
  0
LINE
  5
681
330
1A
100
AcDbEntity
  8
SEIHIN
  6
CONTINUOUS
 62
     3
 48
16.0
100
AcDbLine
 10
412.0346421574057
 20
173.218838312227
 30
0.0
 11
412.0346421574057
 21
123.218838312227
 31
0.0
  0
LINE
  5
682
330
1A
100
AcDbEntity
  8
SEIHIN
  6
CONTINUOUS
 62
     3
 48
16.0
100
AcDbLine
 10
410.0346421574057
 20
171.218838312227
 30
0.0
 11
410.0346421574057
 21
125.218838312227
 31
0.0
  0
ARC
  5
683
330
1A
100
AcDbEntity
  8
SEIHIN
  6
CONTINUOUS
 62
     3
 48
16.0
100
AcDbCircle
 10
372.0346453832424
 20
123.36453975287
 30
0.0
 40
2.999996774163627
100
AcDbArc
 50
228.1305860681337
 51
359.9999724857152
  0
LINE
  5
684
330
1A
100
AcDbEntity
  8
SEIHIN
  6
CONTINUOUS
 62
     3
 48
16.0
100
AcDbLine
 10
370.0323421574056
 20
121.130538312227
 30
0.0
 11
361.5335421574057
 21
128.7475383122271
 31
0.0
  0
LINE
  5
685
330
1A
100
AcDbEntity
  8
NOKITOI
  6
PHANTOM
 62
     8
 48
5.0
100
AcDbLine
 10
360.2948421574058
 20
132.7203383122268
 30
0.0
 11
366.3357421574057
 21
132.7203383122268
 31
0.0
  0
LINE
  5
686
330
1A
100
AcDbEntity
  8
NOKITOI
  6
PHANTOM
 62
     8
 48
5.0
100
AcDbLine
 10
367.9834421574057
 20
131.5203383122269
 30
0.0
 11
361.8387421574058
 21
131.5203383122269
 31
0.0
  0
LINE
  5
687
330
1A
100
AcDbEntity
  8
SEIHIN
  6
CONTINUOUS
 62
     3
 48
16.0
100
AcDbLine
 10
363.0668421574057
 20
131.266938312227
 30
0.0
 11
369.6798421574057
 21
127.239538312227
 31
0.0
  0
ARC
  5
688
330
1A
100
AcDbEntity
  8
NOKITOI
  6
PHANTOM
 62
     8
 48
5.0
100
AcDbCircle
 10
360.2948295876974
 20
132.2203266874971
 30
0.0
 40
0.5000116248877111
100
AcDbArc
 50
89.99855965101662
 51
175.5251531916571
  0
ARC
  5
689
330
1A
100
AcDbEntity
  8
NOKITOI
  6
PHANTOM
 62
     8
 48
5.0
100
AcDbCircle
 10
361.8387505815684
 20
130.5203458272834
 30
0.0
 40
0.9999924849789756
100
AcDbArc
 50
90.00048267259112
 51
173.4717353933255
  0
ARC
  5
68A
330
1A
100
AcDbEntity
  8
SEIHIN
  6
CONTINUOUS
 62
     3
 48
16.0
100
AcDbCircle
 10
362.5346485376623
 20
129.864548795736
 30
0.0
 40
1.499975468085841
100
AcDbArc
 50
69.21871772088313
 51
228.1321216051511
  0
ARC
  5
68B
330
1A
100
AcDbEntity
  8
NOKITOI
  6
PHANTOM
 62
     8
 48
5.0
100
AcDbCircle
 10
367.9834061982548
 20
133.0203034580837
 30
0.0
 40
1.499965146287778
100
AcDbArc
 50
270.0013735703023
 51
358.2133719782232
  0
ARC
  5
68C
330
1A
100
AcDbEntity
  8
SEIHIN
  6
CONTINUOUS
 62
     3
 48
16.0
100
AcDbCircle
 10
370.0346618952953
 20
128.1744519330497
 30
0.0
 40
0.9999802622031834
100
AcDbArc
 50
249.2171738629508
 51
359.9992195689385
  0
LINE
  5
68D
330
1A
100
AcDbEntity
  8
SEIHIN
  6
CONTINUOUS
 62
     3
 48
16.0
100
AcDbLine
 10
412.0346421574057
 20
123.218838312227
 30
0.0
 11
416.0346421574057
 21
123.218838312227
 31
0.0
  0
LINE
  5
68E
330
1A
100
AcDbEntity
  8
CENTER_L
  6
CENTER
 62
     1
 48
5.0
100
AcDbLine
 10
420.1463421574057
 20
132.7817383122269
 30
0.0
 11
405.6575421574056
 21
132.7817383122269
 31
0.0
  0
LINE
  5
68F
330
1A
100
AcDbEntity
  8
SEIHIN
  6
CONTINUOUS
 62
     3
 48
16.0
100
AcDbLine
 10
410.0346421574057
 20
125.218838312227
 30
0.0
 11
412.0346421574057
 21
123.218838312227
 31
0.0
  0
ARC
  5
690
330
1A
100
AcDbEntity
  8
SEIHIN
  6
CONTINUOUS
 62
     3
 48
16.0
100
AcDbCircle
 10
371.0346165168469
 20
154.3644998507478
 30
0.0
 40
0.9999615388494502
100
AcDbArc
 50
270.00146915231
 51
22.62221564169134
  0
ARC
  5
691
330
1A
100
AcDbEntity
  8
SEIHIN
  6
CONTINUOUS
 62
     3
 48
16.0
100
AcDbCircle
 10
365.0342038704316
 20
151.8654959067108
 30
0.0
 40
7.499959415652241
100
AcDbArc
 50
22.61194188686292
 51
26.55871881598471
  0
LINE
  5
692
330
1A
100
AcDbEntity
  8
NOKITOI
  6
PHANTOM
 62
     8
 48
5.0
100
AcDbLine
 10
368.6734421574058
 20
145.4953383122268
 30
0.0
 11
368.5240421574059
 21
140.7164383122269
 31
0.0
  0
LINE
  5
693
330
1A
100
AcDbEntity
  8
NOKITOI
  6
PHANTOM
 62
     8
 48
5.0
100
AcDbLine
 10
365.4010421574057
 20
146.320338312227
 30
0.0
 11
365.9010421574057
 21
143.820338312227
 31
0.0
  0
ARC
  5
694
330
1A
100
AcDbEntity
  8
NOKITOI
  6
PHANTOM
 62
     8
 48
5.0
100
AcDbCircle
 10
363.8274494119615
 20
145.5203471620702
 30
0.0
 40
0.5000088498959383
100
AcDbArc
 50
269.9991687038565
 51
11.31359566951149
  0
LINE
  5
695
330
1A
100
AcDbEntity
  8
NOKITOI
  6
PHANTOM
 62
     8
 48
5.0
100
AcDbLine
 10
365.9010421574057
 20
143.820338312227
 30
0.0
 11
362.9645421574058
 21
143.820338312227
 31
0.0
  0
LINE
  5
696
330
1A
100
AcDbEntity
  8
NOKITOI
  6
PHANTOM
 62
     8
 48
5.0
100
AcDbLine
 10
363.9603421574057
 20
142.7203383122268
 30
0.0
 11
362.9645421574058
 21
143.820338312227
 31
0.0
  0
LINE
  5
697
330
1A
100
AcDbEntity
  8
NOKITOI
  6
PHANTOM
 62
     8
 48
5.0
100
AcDbLine
 10
361.5959421574059
 20
145.0203383122269
 30
0.0
 11
363.8274421574058
 21
145.0203383122269
 31
0.0
  0
LINE
  5
698
330
1A
100
AcDbEntity
  8
NOKITOI
  6
PHANTOM
 62
     8
 48
5.0
100
AcDbLine
 10
361.9117421574059
 20
138.0203383122269
 30
0.0
 11
364.1608421574058
 21
138.0203383122269
 31
0.0
  0
LINE
  5
699
330
1A
100
AcDbEntity
  8
NOKITOI
  6
PHANTOM
 62
     8
 48
5.0
100
AcDbLine
 10
363.3537421574057
 20
139.2203383122269
 30
0.0
 11
362.9496421574059
 21
142.0487383122268
 31
0.0
  0
LINE
  5
69A
330
1A
100
AcDbEntity
  8
NOKITOI
  6
PHANTOM
 62
     8
 48
5.0
100
AcDbLine
 10
362.5758421574057
 20
139.2203383122269
 30
0.0
 11
362.3946421574058
 21
142.661838312227
 31
0.0
  0
LINE
  5
69B
330
1A
100
AcDbEntity
  8
NOKITOI
  6
PHANTOM
 62
     8
 48
5.0
100
AcDbLine
 10
362.5758421574057
 20
139.2203383122269
 30
0.0
 11
363.3537421574057
 21
139.2203383122269
 31
0.0
  0
LINE
  5
69C
330
1A
100
AcDbEntity
  8
NOKITOI
  6
PHANTOM
 62
     8
 48
5.0
100
AcDbLine
 10
362.9496421574059
 20
142.0487383122268
 30
0.0
 11
362.3946421574058
 21
142.661838312227
 31
0.0
  0
ARC
  5
69D
330
1A
100
AcDbEntity
  8
NOKITOI
  6
PHANTOM
 62
     8
 48
5.0
100
AcDbCircle
 10
361.5959483585636
 20
144.5203448473122
 30
0.0
 40
0.4999934649531607
100
AcDbArc
 50
90.00071060961996
 51
183.0044636796616
  0
LINE
  5
69E
330
1A
100
AcDbEntity
  8
NOKITOI
  6
PHANTOM
 62
     8
 48
5.0
100
AcDbLine
 10
361.4123421574057
 20
138.4941383122268
 30
0.0
 11
361.0965421574058
 21
144.4940383122269
 31
0.0
  0
ARC
  5
69F
330
1A
100
AcDbEntity
  8
NOKITOI
  6
PHANTOM
 62
     8
 48
5.0
100
AcDbCircle
 10
361.9117490444007
 20
138.5203317771414
 30
0.0
 40
0.499993464961963
100
AcDbArc
 50
183.0029638682573
 51
269.9992107982126
  0
ARC
  5
6A0
330
1A
100
AcDbEntity
  8
NOKITOI
  6
PHANTOM
 62
     8
 48
5.0
100
AcDbCircle
 10
364.8170279389904
 20
140.9980236779259
 30
0.0
 40
0.5000073448410256
100
AcDbArc
 50
83.5217071700316
 51
188.1270521358757
  0
LINE
  5
6A1
330
1A
100
AcDbEntity
  8
NOKITOI
  6
PHANTOM
 62
     8
 48
5.0
100
AcDbLine
 10
364.6557421574058
 20
138.591138312227
 30
0.0
 11
364.3220421574058
 21
140.9273383122269
 31
0.0
  0
LINE
  5
6A2
330
1A
100
AcDbEntity
  8
NOKITOI
  6
PHANTOM
 62
     8
 48
5.0
100
AcDbLine
 10
363.9603421574057
 20
142.7203383122268
 30
0.0
 11
364.4222421574058
 21
142.7203383122268
 31
0.0
  0
ARC
  5
6A3
330
1A
100
AcDbEntity
  8
NOKITOI
  6
PHANTOM
 62
     8
 48
5.0
100
AcDbCircle
 10
364.4221219447367
 20
137.520397040607
 30
0.0
 40
5.2000412730095
100
AcDbArc
 50
37.92420092094385
 51
89.99867545693838
  0
LINE
  5
6A4
330
1A
100
AcDbEntity
  8
NOKITOI
  6
PHANTOM
 62
     8
 48
5.0
100
AcDbLine
 10
368.3347421574059
 20
134.6579383122269
 30
0.0
 11
368.4202421574058
 21
137.3954383122268
 31
0.0
  0
ARC
  5
6A5
330
1A
100
AcDbEntity
  8
NOKITOI
  6
PHANTOM
 62
     8
 48
5.0
100
AcDbCircle
 10
364.4222042759591
 20
137.5203820947523
 30
0.0
 40
3.999989731271038
100
AcDbArc
 50
358.2100163932691
 51
83.52268857986855
  0
ARC
  5
6A6
330
1A
100
AcDbEntity
  8
NOKITOI
  6
PHANTOM
 62
     8
 48
5.0
100
AcDbCircle
 10
364.1608155568084
 20
138.5203076353448
 30
0.0
 40
0.4999693238254178
100
AcDbArc
 50
270.0030483909652
 51
8.144496122946778
  0
ARC
  5
6A7
330
1A
100
AcDbEntity
  8
NOKITOI
  6
PHANTOM
 62
     8
 48
5.0
100
AcDbCircle
 10
367.8738294065556
 20
145.5203514673133
 30
0.0
 40
1.999986844954076
100
AcDbArc
 50
358.21169271173
 51
89.99963471264475
  0
ARC
  5
6A8
330
1A
100
AcDbEntity
  8
NOKITOI
  6
PHANTOM
 62
     8
 48
5.0
100
AcDbCircle
 10
367.873837662608
 20
145.5203429497538
 30
0.0
 40
0.7999953624857498
100
AcDbArc
 50
358.20887265358
 51
89.99967808194661
  0
ARC
  5
6A9
330
1A
100
AcDbEntity
  8
NOKITOI
  6
PHANTOM
 62
     8
 48
5.0
100
AcDbCircle
 10
364.547242940414
 20
147.0203392672286
 30
0.0
 40
0.4999990449987349
100
AcDbArc
 50
90.00008972630549
 51
191.3032801984551
  0
LINE
  5
6AA
330
1A
100
AcDbEntity
  8
NOKITOI
  6
PHANTOM
 62
     8
 48
5.0
100
AcDbLine
 10
364.3177421574057
 20
145.6184383122268
 30
0.0
 11
364.0569421574059
 21
146.9223383122268
 31
0.0
  0
LINE
  5
6AB
330
1A
100
AcDbEntity
  8
NOKITOI
  6
PHANTOM
 62
     8
 48
5.0
100
AcDbLine
 10
367.8738421574058
 20
147.5203383122268
 30
0.0
 11
364.5472421574057
 21
147.5203383122268
 31
0.0
  0
LINE
  5
6AC
330
1A
100
AcDbEntity
  8
NOKITOI
  6
PHANTOM
 62
     8
 48
5.0
100
AcDbLine
 10
367.8738421574058
 20
146.320338312227
 30
0.0
 11
365.4010421574057
 21
146.320338312227
 31
0.0
  0
ARC
  5
6AD
330
1A
100
AcDbEntity
  8
SEIHIN
  6
CONTINUOUS
 62
     3
 48
16.0
100
AcDbCircle
 10
368.0346421574057
 20
147.864538312227
 30
0.0
 40
3.000000000000028
100
AcDbArc
 50
359.9999999999994
 51
89.99999999999944
  0
LINE
  5
6AE
330
1A
100
AcDbEntity
  8
SEIHIN
  6
CONTINUOUS
 62
     3
 48
16.0
100
AcDbLine
 10
371.0346421574057
 20
153.364538312227
 30
0.0
 11
365.9939421574057
 21
153.364538312227
 31
0.0
  0
LINE
  5
6AF
330
1A
100
AcDbEntity
  8
SEIHIN
  6
CONTINUOUS
 62
     3
 48
16.0
100
AcDbLine
 10
368.0346421574057
 20
150.864538312227
 30
0.0
 11
365.9939421574057
 21
150.864538312227
 31
0.0
  0
ARC
  5
6B0
330
1A
100
AcDbEntity
  8
SEIHIN
  6
CONTINUOUS
 62
     3
 48
16.0
100
AcDbCircle
 10
365.0346663362141
 20
151.8643983230192
 30
0.0
 40
9.999975822171448
100
AcDbArc
 50
0.0008020810176702
 51
19.59958887079644
  0
ARC
  5
6B1
330
1A
100
AcDbEntity
  8
SEIHIN
  6
CONTINUOUS
 62
     3
 48
16.0
100
AcDbCircle
 10
405.0346421574058
 20
150.218838312227
 30
0.0
 40
4.999999999999971
100
AcDbArc
 50
0.0000000000003257
 51
90.00000000000033
  0
LINE
  5
6B2
330
1A
100
AcDbEntity
  8
CENTER_L
  6
CENTER
 62
     1
 48
5.0
100
AcDbLine
 10
420.3503421574057
 20
162.7814383122271
 30
0.0
 11
405.8764421574055
 21
162.7814383122271
 31
0.0
  0
LINE
  5
6B3
330
1A
100
AcDbEntity
  8
CENTER_L
  6
CENTER
 62
     1
 48
5.0
100
AcDbLine
 10
420.3164421574055
 20
157.781438312227
 30
0.0
 11
405.8399421574057
 21
157.781438312227
 31
0.0
  0
LINE
  5
6B4
330
1A
100
AcDbEntity
  8
SEIHIN
  6
CONTINUOUS
 62
     3
 48
16.0
100
AcDbLine
 10
410.0346421574057
 20
173.218838312227
 30
0.0
 11
416.0346421574057
 21
173.218838312227
 31
0.0
  0
LINE
  5
6B5
330
1A
100
AcDbEntity
  8
SEIHIN
  6
CONTINUOUS
 62
     3
 48
16.0
100
AcDbLine
 10
412.0346421574057
 20
173.218838312227
 30
0.0
 11
410.0346421574057
 21
171.218838312227
 31
0.0
  0
LINE
  5
6B6
330
1A
100
AcDbEntity
  8
SEIHIN
  6
PHANTOM
 62
     6
 48
5.0
100
AcDbLine
 10
425.0346421574057
 20
171.218838312227
 30
0.0
 11
425.0346421574057
 21
125.218838312227
 31
0.0
  0
LINE
  5
6B7
330
1A
100
AcDbEntity
  8
SEIHIN
  6
PHANTOM
 62
     6
 48
5.0
100
AcDbLine
 10
427.0346421574057
 20
173.3938383122269
 30
0.0
 11
427.0346421574057
 21
123.218838312227
 31
0.0
  0
LINE
  5
6B8
330
1A
100
AcDbEntity
  8
SEIHIN
  6
PHANTOM
 62
     6
 48
5.0
100
AcDbLine
 10
431.0346421574057
 20
173.218838312227
 30
0.0
 11
431.0346421574057
 21
123.218838312227
 31
0.0
  0
LINE
  5
6B9
330
1A
100
AcDbEntity
  8
SEIHIN
  6
PHANTOM
 62
     6
 48
5.0
100
AcDbLine
 10
427.0346421574057
 20
123.218838312227
 30
0.0
 11
431.0346421574057
 21
123.218838312227
 31
0.0
  0
LINE
  5
6BA
330
1A
100
AcDbEntity
  8
SEIHIN
  6
PHANTOM
 62
     6
 48
5.0
100
AcDbLine
 10
425.0346421574057
 20
125.218838312227
 30
0.0
 11
427.0346421574057
 21
123.218838312227
 31
0.0
  0
ARC
  5
6BB
330
1A
100
AcDbEntity
  8
SEIHIN
  6
PHANTOM
 62
     6
 48
5.0
100
AcDbCircle
 10
420.0346480189126
 20
150.2188297913777
 30
0.0
 40
4.999994138500411
100
AcDbArc
 50
0.0000976418550262
 51
69.04839648803612
  0
LINE
  5
6BC
330
1A
100
AcDbEntity
  8
SEIHIN
  6
PHANTOM
 62
     6
 48
5.0
100
AcDbLine
 10
425.0346421574057
 20
173.218838312227
 30
0.0
 11
431.0346421574057
 21
173.218838312227
 31
0.0
  0
LINE
  5
6BD
330
1A
100
AcDbEntity
  8
SEIHIN
  6
PHANTOM
 62
     6
 48
5.0
100
AcDbLine
 10
427.0346421574057
 20
173.218838312227
 30
0.0
 11
425.0346421574057
 21
171.218838312227
 31
0.0
  0
LINE
  5
6BE
330
1A
100
AcDbEntity
  8
SEIHIN
  6
PHANTOM
 62
     6
 48
5.0
100
AcDbLine
 10
425.0346421574057
 20
173.218838312227
 30
0.0
 11
422.0770421574057
 21
172.960138312227
 31
0.0
  0
DIMENSION
  5
6D9
330
1A
100
AcDbEntity
  8
SUNPOU
 62
     4
100
AcDbDimension
  2
*D2
 10
468.4730789209734
 20
432.5694994002899
 30
0.0
 11
463.4730789209734
 21
464.0694994002899
 31
0.0
 12
1.10456549593664
 22
-24.2803486407995
 32
0.0
 70
    32
  3
STANDARD
100
AcDbAlignedDimension
 13
416.0346421574057
 23
495.5694994002899
 33
0.0
 14
416.0346421574057
 24
432.5694994002899
 34
0.0
 50
90.0
100
AcDbRotatedDimension
1001
ACAD
1000
DSTYLE
1002
{
1070
   140
1040
6.0
1070
    74
1070
     0
1070
   172
1070
     1
1070
    73
1070
     0
1070
   272
1070
     2
1070
    77
1070
     3
1070
   173
1070
     1
1070
   147
1040
2.0
1070
    42
1040
6.0
1070
    44
1040
3.0
1070
    43
1040
14.0
1070
   271
1070
     0
1070
   178
1070
     4
1070
   177
1070
     4
1070
   176
1070
     4
1070
   141
1040
150.0
1070
     7
1000
_OPEN
1070
     6
1000
_OPEN
1070
    41
1040
7.0
1002
}
  0
DIMENSION
  5
6E8
330
1A
100
AcDbEntity
  8
SUNPOU
 62
     4
100
AcDbDimension
  2
*D3
 10
220.4192497193866
 20
456.5694994002899
 30
0.0
 11
215.4192497193867
 21
464.0694994002899
 31
0.0
 12
1.10456549593664
 22
-24.2803486407995
 32
0.0
 70
    32
  3
STANDARD
100
AcDbAlignedDimension
 13
255.7345421574057
 23
471.5694994002899
 33
0.0
 14
255.7345421574057
 24
456.5694994002899
 34
0.0
 50
90.0
100
AcDbRotatedDimension
1001
ACAD
1000
DSTYLE
1002
{
1070
   140
1040
6.0
1070
    74
1070
     0
1070
   172
1070
     1
1070
    73
1070
     0
1070
   272
1070
     2
1070
    77
1070
     3
1070
   173
1070
     1
1070
   147
1040
2.0
1070
    42
1040
6.0
1070
    44
1040
3.0
1070
    43
1040
14.0
1070
   271
1070
     0
1070
   178
1070
     4
1070
   177
1070
     4
1070
   176
1070
     4
1070
   141
1040
150.0
1070
     7
1000
_OPEN
1070
     6
1000
_OPEN
1070
    41
1040
7.0
1002
}
  0
DIMENSION
  5
6F6
330
1A
100
AcDbEntity
  8
SUNPOU
100
AcDbDimension
  2
*D4
 10
416.0346421574057
 20
363.911732077936
 30
0.0
 11
334.0345921574057
 21
368.9117320779359
 31
0.0
 70
    32
  3
STANDARD
100
AcDbAlignedDimension
 13
252.0345421574056
 23
278.966143157179
 33
0.0
 14
416.0346421574057
 24
315.6204431571789
 34
0.0
100
AcDbRotatedDimension
1001
ACAD
1000
DSTYLE
1002
{
1070
   140
1040
6.0
1070
    74
1070
     0
1070
   172
1070
     1
1070
    73
1070
     0
1070
   272
1070
     2
1070
    77
1070
     3
1070
   173
1070
     1
1070
   147
1040
2.0
1070
    42
1040
6.0
1070
    44
1040
3.0
1070
    43
1040
14.0
1070
   271
1070
     0
1070
   178
1070
     4
1070
   177
1070
     4
1070
   176
1070
     4
1070
   141
1040
150.0
1070
     7
1000
_OPEN
1070
     6
1000
_OPEN
1070
    41
1040
7.0
1002
}
  0
DIMENSION
  5
703
330
1A
100
AcDbEntity
  8
SUNPOU
100
AcDbDimension
  2
*D5
 10
416.0346421574057
 20
348.9399136606345
 30
0.0
 11
351.0346421574057
 21
353.9399136606346
 31
0.0
 70
    32
  3
STANDARD
100
AcDbAlignedDimension
 13
286.0346421574056
 23
284.2661431571789
 33
0.0
 14
416.0346421574057
 24
315.6204431571789
 34
0.0
100
AcDbRotatedDimension
1001
ACAD
1000
DSTYLE
1002
{
1070
   140
1040
6.0
1070
    74
1070
     0
1070
   172
1070
     1
1070
    73
1070
     0
1070
   272
1070
     2
1070
    77
1070
     3
1070
   173
1070
     1
1070
   147
1040
2.0
1070
    42
1040
6.0
1070
    44
1040
3.0
1070
    43
1040
14.0
1070
   271
1070
     0
1070
   178
1070
     4
1070
   177
1070
     4
1070
   176
1070
     4
1070
   141
1040
150.0
1070
     7
1000
_OPEN
1070
     6
1000
_OPEN
1070
    41
1040
7.0
1002
}
  0
DIMENSION
  5
710
330
1A
100
AcDbEntity
  8
SUNPOU
100
AcDbDimension
  2
*D6
 10
416.0346421574057
 20
334.139339402086
 30
0.0
 11
392.9537421574057
 21
339.139339402086
 31
0.0
 70
    32
  3
STANDARD
100
AcDbAlignedDimension
 13
369.8728421574057
 23
287.8594431571788
 33
0.0
 14
416.0346421574057
 24
315.6204431571789
 34
0.0
100
AcDbRotatedDimension
1001
ACAD
1000
DSTYLE
1002
{
1070
   140
1040
6.0
1070
    74
1070
     0
1070
   172
1070
     1
1070
    73
1070
     0
1070
   272
1070
     2
1070
    77
1070
     3
1070
   173
1070
     1
1070
   147
1040
2.0
1070
    42
1040
6.0
1070
    44
1040
3.0
1070
    43
1040
14.0
1070
   271
1070
     0
1070
   178
1070
     4
1070
   177
1070
     4
1070
   176
1070
     4
1070
   141
1040
150.0
1070
     7
1000
_OPEN
1070
     6
1000
_OPEN
1070
    41
1040
7.0
1002
}
  0
TEXT
  5
71E
330
1A
100
AcDbEntity
  8
SUNPOU
 62
     4
100
AcDbText
 10
434.3321765422797
 20
372.0725779594673
 30
0.0
 40
6.0
  1
スライド巾
100
AcDbText
  0
DIMENSION
  5
72E
330
1A
100
AcDbEntity
  8
SUNPOU
100
AcDbDimension
  2
*D7
 10
220.4192497193866
 20
315.6204431571789
 30
0.0
 11
215.4192497193867
 21
299.6932931571789
 31
0.0
 12
1.10456549593664
 22
-38.90275557912491
 32
0.0
 70
    32
  3
STANDARD
100
AcDbAlignedDimension
 13
254.9031421574056
 23
283.7661431571788
 33
0.0
 14
416.0346421574057
 24
315.6204431571789
 34
0.0
 50
90.0
100
AcDbRotatedDimension
1001
ACAD
1000
DSTYLE
1002
{
1070
   140
1040
6.0
1070
    74
1070
     0
1070
   172
1070
     1
1070
    73
1070
     0
1070
   272
1070
     2
1070
    77
1070
     3
1070
   173
1070
     1
1070
   147
1040
2.0
1070
    42
1040
6.0
1070
    44
1040
3.0
1070
    43
1040
14.0
1070
   271
1070
     0
1070
   178
1070
     4
1070
   177
1070
     4
1070
   176
1070
     4
1070
   141
1040
150.0
1070
     7
1000
_OPEN
1070
     6
1000
_OPEN
1070
    41
1040
7.0
1002
}
  0
LINE
  5
730
330
1A
100
AcDbEntity
  8
CENTER_L
  6
CENTER
 62
     1
 48
5.0
100
AcDbLine
 10
435.1463421574057
 20
132.7817383122269
 30
0.0
 11
420.6575421574056
 21
132.7817383122269
 31
0.0
  0
LINE
  5
731
330
1A
100
AcDbEntity
  8
CENTER_L
  6
CENTER
 62
     1
 48
5.0
100
AcDbLine
 10
435.3503421574057
 20
162.7814383122271
 30
0.0
 11
420.8764421574056
 21
162.7814383122271
 31
0.0
  0
LINE
  5
732
330
1A
100
AcDbEntity
  8
CENTER_L
  6
CENTER
 62
     1
 48
5.0
100
AcDbLine
 10
435.3164421574056
 20
157.781438312227
 30
0.0
 11
420.8399421574056
 21
157.781438312227
 31
0.0
  0
LINE
  5
733
330
1A
100
AcDbEntity
  8
CENTER_L
  6
CENTER
 62
     1
 48
5.0
100
AcDbLine
 10
435.1463421574057
 20
275.1833431571788
 30
0.0
 11
420.6575421574056
 21
275.1833431571788
 31
0.0
  0
LINE
  5
734
330
1A
100
AcDbEntity
  8
CENTER_L
  6
CENTER
 62
     1
 48
5.0
100
AcDbLine
 10
435.3164421574056
 20
300.1830431571788
 30
0.0
 11
420.8399421574056
 21
300.1830431571788
 31
0.0
  0
LINE
  5
735
330
1A
100
AcDbEntity
  8
CENTER_L
  6
CENTER
 62
     1
 48
5.0
100
AcDbLine
 10
435.3503421574057
 20
305.183043157179
 30
0.0
 11
420.8764421574056
 21
305.183043157179
 31
0.0
  0
DIMENSION
  5
752
330
1A
100
AcDbEntity
  8
SUNPOU
100
AcDbDimension
  2
*D8
 10
533.9434541463256
 20
315.1829431571789
 30
0.0
 11
528.9434541463256
 21
334.6829431571789
 31
0.0
 12
1.10456549593664
 22
-38.90275557912491
 32
0.0
 70
    32
  3
STANDARD
100
AcDbAlignedDimension
 13
592.551502745299
 23
305.183043157179
 33
0.0
 14
598.0685027452992
 24
315.1829431571789
 34
0.0
 50
90.0
100
AcDbRotatedDimension
1001
ACAD
1000
DSTYLE
1002
{
1070
   140
1040
6.0
1070
    74
1070
     0
1070
   172
1070
     1
1070
    73
1070
     0
1070
   272
1070
     2
1070
    77
1070
     3
1070
   173
1070
     1
1070
   147
1040
2.0
1070
    42
1040
6.0
1070
    44
1040
3.0
1070
    43
1040
14.0
1070
   271
1070
     0
1070
   178
1070
     4
1070
   177
1070
     4
1070
   176
1070
     4
1070
   141
1040
150.0
1070
     7
1000
_OPEN
1070
     6
1000
_OPEN
1070
    41
1040
7.0
1002
}
  0
DIMENSION
  5
761
330
1A
100
AcDbEntity
  8
SUNPOU
100
AcDbDimension
  2
*D9
 10
516.8666927666641
 20
315.1829431571789
 30
0.0
 11
511.866692766664
 21
307.6829931571789
 31
0.0
 12
1.10456549593664
 22
-38.90275557912491
 32
0.0
 70
    32
  3
STANDARD
100
AcDbAlignedDimension
 13
590.4148027452991
 23
300.1830431571788
 33
0.0
 14
598.0685027452992
 24
315.1829431571789
 34
0.0
 50
90.0
100
AcDbRotatedDimension
1001
ACAD
1000
DSTYLE
1002
{
1070
   140
1040
6.0
1070
    74
1070
     0
1070
   172
1070
     1
1070
    73
1070
     0
1070
   272
1070
     2
1070
    77
1070
     3
1070
   173
1070
     1
1070
   147
1040
2.0
1070
    42
1040
6.0
1070
    44
1040
3.0
1070
    43
1040
14.0
1070
   271
1070
     0
1070
   178
1070
     4
1070
   177
1070
     4
1070
   176
1070
     4
1070
   141
1040
150.0
1070
     7
1000
_OPEN
1070
     6
1000
_OPEN
1070
    41
1040
7.0
1002
}
  0
DIMENSION
  5
770
330
1A
100
AcDbEntity
  8
SUNPOU
100
AcDbDimension
  2
*D10
 10
533.9434541463256
 20
265.1829431571789
 30
0.0
 11
528.9434541463256
 21
245.6829431571788
 31
0.0
 12
1.10456549593664
 22
-38.90275557912491
 32
0.0
 70
    32
  3
STANDARD
100
AcDbAlignedDimension
 13
591.3452027452988
 23
275.1829431571788
 33
0.0
 14
598.068302745299
 24
265.1829431571789
 34
0.0
 50
90.0
100
AcDbRotatedDimension
1001
ACAD
1000
DSTYLE
1002
{
1070
   140
1040
6.0
1070
    74
1070
     0
1070
   172
1070
     1
1070
    73
1070
     0
1070
   272
1070
     2
1070
    77
1070
     3
1070
   173
1070
     1
1070
   147
1040
2.0
1070
    42
1040
6.0
1070
    44
1040
3.0
1070
    43
1040
14.0
1070
   271
1070
     0
1070
   178
1070
     4
1070
   177
1070
     4
1070
   176
1070
     4
1070
   141
1040
150.0
1070
     7
1000
_OPEN
1070
     6
1000
_OPEN
1070
    41
1040
7.0
1002
}
  0
DIMENSION
  5
77D
330
1A
100
AcDbEntity
  8
SUNPOU
100
AcDbDimension
  2
*D11
 10
501.4162886513409
 20
265.1829431571789
 30
0.0
 11
496.4162886513409
 21
290.1829431571789
 31
0.0
 12
1.10456549593664
 22
-38.90275557912491
 32
0.0
 70
    32
  3
STANDARD
100
AcDbAlignedDimension
 13
598.0685027452992
 23
315.1829431571789
 33
0.0
 14
598.068302745299
 24
265.1829431571789
 34
0.0
 50
90.0
100
AcDbRotatedDimension
1001
ACAD
1000
DSTYLE
1002
{
1070
   140
1040
6.0
1070
    74
1070
     0
1070
   172
1070
     1
1070
    73
1070
     0
1070
   272
1070
     2
1070
    77
1070
     3
1070
   173
1070
     1
1070
   147
1040
2.0
1070
    42
1040
6.0
1070
    44
1040
3.0
1070
    43
1040
14.0
1070
   271
1070
     0
1070
   178
1070
     4
1070
   177
1070
     4
1070
   176
1070
     4
1070
   141
1040
150.0
1070
     7
1000
_OPEN
1070
     6
1000
_OPEN
1070
    41
1040
7.0
1002
}
  0
LEADER
  5
7B0
330
1A
100
AcDbEntity
  8
SUNPOU
 62
     4
100
AcDbLeader
  3
STANDARD
 73
     0
 40
16.0
 41
45.20000000000001
 76
     3
 10
594.5427674799327
 20
306.6260484066555
 30
0.0
 10
580.4576103940303
 20
332.0973981937529
 30
0.0
 10
578.6015741189753
 20
332.0973981937529
 30
0.0
1001
ACAD
1000
DSTYLE
1002
{
1070
     6
1000
OPEN
1070
    41
1040
7.0
1070
    42
1040
6.0
1070
    43
1040
14.0
1070
    44
1040
3.0
1070
    73
1070
     0
1070
    74
1070
     0
1070
    77
1070
     3
1070
   140
1040
6.0
1070
   141
1040
150.0
1070
   147
1040
2.0
1070
   172
1070
     1
1070
   173
1070
     1
1070
   176
1070
     4
1070
   177
1070
     4
1070
   178
1070
     4
1070
   271
1070
     0
1070
   272
1070
     2
1070
   341
1005
6D
1070
   343
1005
6D
1070
   344
1005
6D
1002
}
  0
MTEXT
  5
7B1
330
1A
100
AcDbEntity
  8
SUNPOU
 62
     4
100
AcDbMText
 10
576.6015741189753
 20
334.0973981937529
 30
0.0
 40
6.0
 41
0.0
 71
     9
 72
     5
  1
4-φ4.2
1001
ACAD
1000
MTEXTBEGIN
1070
    73
1070
     1
1070
    44
1040
1.0
1070
    74
1070
     0
1000
MTEXTEND
1000
MTEXTBEGIN
1070
    73
1070
     1
1070
    44
1040
1.0
1070
    74
1070
     0
1000
MTEXTEND
  0
LEADER
  5
7E5
330
1A
100
AcDbEntity
  8
SUNPOU
 62
     4
100
AcDbLeader
  3
STANDARD
 73
     0
 40
6.0
 41
31.19999999999999
 76
     3
 10
594.1405554715726
 20
297.5667382469179
 30
0.0
 10
580.4486202637126
 20
283.7562630961235
 30
0.0
 10
578.8574227700665
 20
283.7562630961235
 30
0.0
1001
ACAD
1000
DSTYLE
1002
{
1070
     6
1000
OPEN
1070
    41
1040
7.0
1070
    42
1040
6.0
1070
    43
1040
14.0
1070
    44
1040
3.0
1070
    73
1070
     0
1070
    74
1070
     0
1070
    77
1070
     3
1070
   140
1040
6.0
1070
   141
1040
150.0
1070
   147
1040
2.0
1070
   172
1070
     1
1070
   173
1070
     1
1070
   176
1070
     4
1070
   177
1070
     4
1070
   178
1070
     4
1070
   271
1070
     0
1070
   272
1070
     2
1070
   341
1005
6D
1070
   343
1005
6D
1070
   344
1005
6D
1002
}
  0
MTEXT
  5
7E6
330
1A
100
AcDbEntity
  8
SUNPOU
 62
     4
100
AcDbMText
 10
576.8574227700664
 20
285.7562630961235
 30
0.0
 40
6.0
 41
0.0
 71
     9
 72
     5
  1
2-φ6.5
1001
ACAD
1000
MTEXTBEGIN
1070
    73
1070
     1
1070
    44
1040
1.0
1070
    74
1070
     0
1000
MTEXTEND
1000
MTEXTBEGIN
1070
    73
1070
     1
1070
    44
1040
1.0
1070
    74
1070
     0
1000
MTEXTEND
  0
DIMENSION
  5
7F5
330
1A
100
AcDbEntity
  8
SUNPOU
100
AcDbDimension
  2
*D12
 10
453.3940007839333
 20
451.5694994002899
 30
0.0
 11
448.3940007839333
 21
464.0694994002899
 31
0.0
 12
1.10456549593664
 22
-24.2803486407995
 32
0.0
 70
    32
  3
STANDARD
100
AcDbAlignedDimension
 13
409.0346421574057
 23
476.5694994002899
 33
0.0
 14
407.0346421574057
 24
451.5694994002899
 34
0.0
 50
90.0
100
AcDbRotatedDimension
1001
ACAD
1000
DSTYLE
1002
{
1070
   140
1040
6.0
1070
    74
1070
     0
1070
   172
1070
     1
1070
    73
1070
     0
1070
   272
1070
     2
1070
    77
1070
     3
1070
   173
1070
     1
1070
   147
1040
2.0
1070
    42
1040
6.0
1070
    44
1040
3.0
1070
    43
1040
14.0
1070
   271
1070
     0
1070
   178
1070
     4
1070
   177
1070
     4
1070
   176
1070
     4
1070
   141
1040
150.0
1070
     7
1000
_OPEN
1070
     6
1000
_OPEN
1070
    41
1040
7.0
1002
}
  0
DIMENSION
  5
81A
330
1A
100
AcDbEntity
  8
SUNPOU
100
AcDbDimension
  2
*D13
 10
455.6766653477652
 20
265.6204431571789
 30
0.0
 11
450.6766653477653
 21
290.6204431571789
 31
0.0
 12
1.10456549593664
 22
-38.90275557912491
 32
0.0
 70
    32
  3
STANDARD
100
AcDbAlignedDimension
 13
416.0346421574057
 23
315.6204431571789
 33
0.0
 14
416.0346421574057
 24
265.6204431571789
 34
0.0
 50
90.0
100
AcDbRotatedDimension
1001
ACAD
1000
DSTYLE
1002
{
1070
   140
1040
6.0
1070
    74
1070
     0
1070
   172
1070
     1
1070
    73
1070
     0
1070
   272
1070
     2
1070
    77
1070
     3
1070
   173
1070
     1
1070
   147
1040
2.0
1070
    42
1040
6.0
1070
    44
1040
3.0
1070
    43
1040
14.0
1070
   271
1070
     0
1070
   178
1070
     4
1070
   177
1070
     4
1070
   176
1070
     4
1070
   141
1040
150.0
1070
     7
1000
_OPEN
1070
     6
1000
_OPEN
1070
    41
1040
7.0
1002
}
  0
TEXT
  5
81F
330
1A
100
AcDbEntity
  8
SUNPOU
 62
     4
100
AcDbText
 10
285.9415098933527
 20
67.94879626123556
 30
0.0
 40
8.0
  1
軒樋の差し替え
100
AcDbText
  0
DIMENSION
  5
82C
330
1A
100
AcDbEntity
  8
SUNPOU
100
AcDbDimension
  2
*D14
 10
643.068502745299
 20
333.3766142002575
 30
0.0
 11
619.5685027452991
 21
338.3766142002575
 31
0.0
 70
    32
  3
STANDARD
100
AcDbAlignedDimension
 13
596.0685027452991
 23
308.9678431571789
 33
0.0
 14
643.068502745299
 24
308.9678431571789
 34
0.0
100
AcDbRotatedDimension
1001
ACAD
1000
DSTYLE
1002
{
1070
   140
1040
6.0
1070
    74
1070
     0
1070
   172
1070
     1
1070
    73
1070
     0
1070
   272
1070
     2
1070
    77
1070
     3
1070
   173
1070
     1
1070
   147
1040
2.0
1070
    42
1040
6.0
1070
    44
1040
3.0
1070
    43
1040
14.0
1070
   271
1070
     0
1070
   178
1070
     4
1070
   177
1070
     4
1070
   176
1070
     4
1070
   141
1040
150.0
1070
     7
1000
_OPEN
1070
     6
1000
_OPEN
1070
    41
1040
7.0
1002
}
  0
DIMENSION
  5
839
330
1A
100
AcDbEntity
  8
SUNPOU
100
AcDbDimension
  2
*D15
 10
651.068502745299
 20
348.4647385275554
 30
0.0
 11
619.5685027452989
 21
353.4647385275555
 31
0.0
 70
    32
  3
STANDARD
100
AcDbAlignedDimension
 13
588.0685027452989
 23
305.1829431571789
 33
0.0
 14
651.068502745299
 24
305.1829431571789
 34
0.0
100
AcDbRotatedDimension
1001
ACAD
1000
DSTYLE
1002
{
1070
   140
1040
6.0
1070
    74
1070
     0
1070
   172
1070
     1
1070
    73
1070
     0
1070
   272
1070
     2
1070
    77
1070
     3
1070
   173
1070
     1
1070
   147
1040
2.0
1070
    42
1040
6.0
1070
    44
1040
3.0
1070
    43
1040
14.0
1070
   271
1070
     0
1070
   178
1070
     4
1070
   177
1070
     4
1070
   176
1070
     4
1070
   141
1040
150.0
1070
     7
1000
_OPEN
1070
     6
1000
_OPEN
1070
    41
1040
7.0
1002
}
  0
DIMENSION
  5
84C
330
1A
100
AcDbEntity
  8
SUNPOU
  6
CONTINUOUS
100
AcDbDimension
  2
*D16
 10
416.0346421574057
 20
239.8558427054533
 30
0.0
 11
440.5346421574058
 21
244.8558427054533
 31
0.0
 12
1.10456549593664
 22
-24.2803486407995
 32
0.0
 70
    32
  1
t<>
  3
STANDARD
100
AcDbAlignedDimension
 13
410.0346421574057
 23
267.6204431571789
 33
0.0
 14
416.0346421574057
 24
265.6204431571789
 34
0.0
100
AcDbRotatedDimension
1001
ACAD
1000
DSTYLE
1002
{
1070
   140
1040
6.0
1070
    74
1070
     0
1070
   172
1070
     1
1070
    73
1070
     0
1070
   272
1070
     2
1070
    77
1070
     3
1070
   173
1070
     1
1070
   147
1040
2.0
1070
    42
1040
6.0
1070
    44
1040
3.0
1070
    43
1040
14.0
1070
   271
1070
     1
1070
   178
1070
     4
1070
   177
1070
     4
1070
   176
1070
     4
1070
   141
1040
150.0
1070
     7
1000
_OPEN
1070
     6
1000
_OPEN
1070
    41
1040
7.0
1002
}
  0
LWPOLYLINE
  5
9FC
330
1A
100
AcDbEntity
  8
ZUWAKU
100
AcDbPolyline
 90
        4
 70
     1
 43
0.0
 10
0.8000003265096893
 20
550.7999996173814
 10
0.8000003265096893
 20
0.7999996173814452
 10
796.8000003265097
 20
0.7999996173814452
 10
796.8000003265097
 20
550.7999996173814
  0
LWPOLYLINE
  5
9FD
330
1A
100
AcDbEntity
  8
ZUWAKU
100
AcDbPolyline
 90
        4
 70
     1
 43
0.0
 10
0.4000003265097121
 20
551.1999996173813
 10
0.4000003265097121
 20
0.3999996173814679
 10
797.2000003265097
 20
0.3999996173814448
 10
797.2000003265097
 20
551.1999996173813
  0
LWPOLYLINE
  5
9FE
330
1A
100
AcDbEntity
  8
ZUWAKU
100
AcDbPolyline
 90
        4
 70
     1
 43
0.0
 10
0.0000003265097348
 20
551.5999996173814
 10
0.0000003265097348
 20
-0.000000382618623
 10
797.6000003265099
 20
-0.0000003826185555
 10
797.6000003265099
 20
551.5999996173815
  0
LWPOLYLINE
  5
9FF
330
1A
100
AcDbEntity
  8
ZUWAKU
100
AcDbPolyline
 90
        4
 70
     1
 43
0.0
 10
0.6000003265096439
 20
550.9999996173815
 10
0.6000003265096439
 20
0.5999996173813998
 10
797.0000003265099
 20
0.599999617381446
 10
797.0000003265097
 20
550.9999996173815
  0
LWPOLYLINE
  5
A00
330
1A
100
AcDbEntity
  8
ZUWAKU
100
AcDbPolyline
 90
        4
 70
     1
 43
0.0
 10
0.2000003265096666
 20
551.3999996173814
 10
0.2000003265096666
 20
0.1999996173814225
 10
797.4000003265095
 20
0.1999996173814455
 10
797.4000003265098
 20
551.3999996173814
  0
LINE
  5
A01
330
1A
100
AcDbEntity
  8
ZUWAKU
100
AcDbLine
 10
0.0000003265097348
 20
29.99999961738137
 30
0.0
 11
797.4000003265095
 21
29.99999961738137
 31
0.0
  0
LINE
  5
A02
330
1A
100
AcDbEntity
  8
ZUWAKU
100
AcDbLine
 10
0.0000003265097348
 20
30.19999961738138
 30
0.0
 11
797.4000003265095
 21
30.19999961738138
 31
0.0
  0
LINE
  5
A03
330
1A
100
AcDbEntity
  8
ZUWAKU
100
AcDbLine
 10
0.0000003265097348
 20
30.39999961738138
 30
0.0
 11
797.4000003265095
 21
30.39999961738138
 31
0.0
  0
LINE
  5
A04
330
1A
100
AcDbEntity
  8
ZUWAKU
100
AcDbLine
 10
0.0000003265097348
 20
30.59999961738138
 30
0.0
 11
797.4000003265095
 21
30.59999961738138
 31
0.0
  0
LINE
  5
A05
330
1A
100
AcDbEntity
  8
ZUWAKU
100
AcDbLine
 10
0.0000003265097348
 20
30.79999961738138
 30
0.0
 11
797.4000003265095
 21
30.79999961738138
 31
0.0
  0
LINE
  5
A06
330
1A
100
AcDbEntity
  8
ZUWAKU
100
AcDbLine
 10
208.6466016165777
 20
15.39999961738141
 30
0.0
 11
447.4243642975011
 21
15.39999961738141
 31
0.0
  0
LINE
  5
A07
330
1A
100
AcDbEntity
  8
ZUWAKU
100
AcDbLine
 10
208.6466016165777
 20
15.59999961738141
 30
0.0
 11
447.4243642975011
 21
15.59999961738141
 31
0.0
  0
LINE
  5
A08
330
1A
100
AcDbEntity
  8
ZUWAKU
100
AcDbLine
 10
208.6466016165777
 20
15.19999961738141
 30
0.0
 11
447.4243642975011
 21
15.19999961738141
 31
0.0
  0
TEXT
  5
A09
330
1A
100
AcDbEntity
  8
MOJI
100
AcDbText
 10
92.95778991467887
 20
12.74117774765613
 30
0.0
 40
6.0
  1
新・丸トップＲＶ１０５
 41
0.9
  7
ｽﾀｲﾙ1
100
AcDbText
  0
CIRCLE
  5
A0A
330
1A
100
AcDbEntity
  8
ZUWAKU
100
AcDbCircle
 10
25.99221248129083
 20
15.19999961738138
 30
0.0
 40
1.75
  0
LINE
  5
A0B
330
1A
100
AcDbEntity
  8
ZUWAKU
100
AcDbLine
 10
26.86721248129083
 20
7.149999617381382
 30
0.0
 11
24.94221248129088
 21
7.149999617381382
 31
0.0
  0
LINE
  5
A0C
330
1A
100
AcDbEntity
  8
ZUWAKU
100
AcDbLine
 10
24.94221248129088
 20
9.949999617381379
 30
0.0
 11
26.86721248129083
 21
9.949999617381379
 31
0.0
  0
LINE
  5
A0D
330
1A
100
AcDbEntity
  8
ZUWAKU
100
AcDbLine
 10
26.86721248129083
 20
20.44999961738138
 30
0.0
 11
24.94221248129088
 21
20.44999961738138
 31
0.0
  0
LINE
  5
A0E
330
1A
100
AcDbEntity
  8
ZUWAKU
100
AcDbLine
 10
24.94221248129088
 20
23.24999961738134
 30
0.0
 11
26.86721248129083
 21
23.24999961738138
 31
0.0
  0
HATCH
  5
A0F
330
1A
100
AcDbEntity
  8
ZUWAKU
100
AcDbHatch
 10
0.0
 20
0.0
 30
0.0
210
0.0
220
0.0
230
1.0
  2
ANSI37
 70
     0
 71
     0
 91
        8
 92
        7
 72
     1
 73
     1
 93
       24
 10
14.50226298762959
 20
17.64484809836496
 42
-0.1989123673796348
 10
14.09221248129085
 20
18.63479759202601
 42
0.0
 10
14.09221248129085
 20
19.92499961738138
 42
-0.4142135623730912
 10
14.61721248129083
 20
20.44999961738138
 42
0.0
 10
17.59221248129074
 20
20.44999961738138
 42
0.4142135623731546
 10
18.11721248129083
 20
20.97499961738137
 42
0.0
 10
18.11721248129083
 20
22.72499961738138
 42
0.4142135623731586
 10
17.59221248129074
 20
23.24999961738138
 42
0.0
 10
14.09221248129085
 20
23.24999961738138
 42
0.4142135623730928
 10
11.2922124812909
 20
20.4499996173814
 42
0.0
 10
11.2922124812909
 20
18.63479759202613
 42
0.1989123673796619
 10
12.52236400030733
 20
15.66494911104253
 42
0.0
 10
15.432161974952
 20
12.75515113639787
 42
-0.1989123673796613
 10
15.84221248129085
 20
11.76520164273668
 42
0.0
 10
15.84221248129085
 20
10.47499961738137
 42
-0.4142135623730911
 10
15.31721248129088
 20
9.949999617381379
 42
0.0
 10
12.34221248129097
 20
9.949999617381379
 42
0.4142135623731526
 10
11.81721248129088
 20
9.424999617381391
 42
0.0
 10
11.81721248129088
 20
7.67499961738137
 42
0.4142135623731526
 10
12.34221248129097
 20
7.149999617381382
 42
0.0
 10
15.84221248129085
 20
7.149999617381382
 42
0.4142135623731044
 10
18.64221248129092
 20
9.949999617381358
 42
0.0
 10
18.64221248129092
 20
11.76520164273663
 42
0.1989123673796604
 10
17.41206096227438
 20
14.73505012372017
 42
0.0
 97
        0
 92
        7
 72
     1
 73
     1
 93
       16
 10
23.5422124812909
 20
19.04999961738139
 42
-0.4142135623730935
 10
24.94221248129088
 20
20.44999961738138
 42
0.0
 10
26.86721248129083
 20
20.44999961738138
 42
0.4142135623731546
 10
27.39221248129092
 20
20.97499961738137
 42
0.0
 10
27.39221248129092
 20
22.72499961738138
 42
0.4142135623730951
 10
26.86721248129094
 20
23.24999961738138
 42
0.0
 10
24.94221248129076
 20
23.24999961738134
 42
0.4142135623730892
 10
20.74221248129083
 20
19.04999961738131
 42
0.0
 10
20.74221248129083
 20
11.3499996173814
 42
0.4142135623730969
 10
24.94221248129088
 20
7.149999617381382
 42
0.0
 10
26.86721248129083
 20
7.149999617381382
 42
0.4142135623731526
 10
27.39221248129092
 20
7.67499961738137
 42
0.0
 10
27.39221248129092
 20
9.424999617381391
 42
0.4142135623730891
 10
26.86721248129094
 20
9.949999617381379
 42
0.0
 10
24.94221248129088
 20
9.949999617381379
 42
-0.4142135623730928
 10
23.5422124812909
 20
11.34999961738136
 42
0.0
 97
        0
 92
        7
 72
     1
 73
     1
 93
        2
 10
24.24221248129083
 20
15.19999961738138
 42
1.0
 10
27.74221248129083
 20
15.19999961738138
 42
1.0
 97
        0
 92
        7
 72
     1
 73
     1
 93
       26
 10
37.31485896346885
 20
19.2050468109448
 42
0.0
 10
38.37649859660666
 20
22.56690564921439
 42
0.5069206636600134
 10
37.8758676974113
 20
23.24999961738138
 42
0.0
 10
36.17697831780208
 20
23.24999961738138
 42
0.3272098845218764
 10
35.67634741860672
 20
22.88309358554835
 42
0.0
 10
33.80807754397494
 20
16.96690564921446
 42
-0.3272098845219541
 10
33.30744664477947
 20
16.59999961738138
 42
0.0
 10
33.16721248129101
 20
16.59999961738138
 42
-0.4142135623731526
 10
32.64221248129092
 20
17.12499961738136
 42
0.0
 10
32.64221248129092
 20
22.72499961738138
 42
0.4142135623730951
 10
32.11721248129094
 20
23.24999961738138
 42
0.0
 10
30.36721248129083
 20
23.24999961738138
 42
0.4142135623730871
 10
29.84221248129085
 20
22.7249996173814
 42
0.0
 10
29.84221248129085
 20
7.67499961738137
 42
0.4142135623730891
 10
30.36721248129083
 20
7.149999617381382
 42
0.0
 10
32.11721248129083
 20
7.149999617381382
 42
0.4142135623731526
 10
32.64221248129092
 20
7.67499961738137
 42
0.0
 10
32.64221248129092
 20
13.27499961738139
 42
-0.4142135623731526
 10
33.16721248129101
 20
13.79999961738138
 42
0.0
 10
33.30744664477959
 20
13.79999961738138
 42
-0.3272098845218915
 10
33.80807754397494
 20
13.4330935855483
 42
0.0
 10
35.67634741860672
 20
7.516905649214454
 42
0.3272098845218902
 10
36.17697831780208
 20
7.149999617381382
 42
0.0
 10
37.8758676974113
 20
7.149999617381382
 42
0.5069206636600335
 10
38.37649859660666
 20
7.83309358554839
 42
0.0
 10
36.050107218133
 20
15.19999961738151
 42
0.0
 97
        0
 92
        7
 72
     1
 73
     1
 93
        8
 10
43.49221248129083
 20
22.72499961738139
 42
0.4142135623731546
 10
42.96721248129074
 20
23.24999961738138
 42
0.0
 10
41.21721248129097
 20
23.24999961738138
 42
0.4142135623731507
 10
40.69221248129088
 20
22.7249996173814
 42
0.0
 10
40.69221248129088
 20
7.67499961738137
 42
0.4142135623731526
 10
41.21721248129097
 20
7.149999617381382
 42
0.0
 10
42.96721248129074
 20
7.149999617381382
 42
0.4142135623731526
 10
43.49221248129083
 20
7.67499961738137
 42
0.0
 97
        0
 92
        7
 72
     1
 73
     1
 93
       24
 10
48.39221248129092
 20
19.92499961738138
 42
-0.4142135623731546
 10
48.91721248129101
 20
20.44999961738138
 42
0.0
 10
51.89221248129093
 20
20.44999961738138
 42
0.4142135623730911
 10
52.4172124812909
 20
20.97499961738137
 42
0.0
 10
52.4172124812909
 20
22.72499961738138
 42
0.4142135623730952
 10
51.89221248129093
 20
23.24999961738138
 42
0.0
 10
48.39221248129092
 20
23.24999961738138
 42
0.4142135623731048
 10
45.59221248129086
 20
20.4499996173814
 42
0.0
 10
45.59221248129086
 20
18.63479759202613
 42
0.1989123673796613
 10
46.8223640003074
 20
15.66494911104259
 42
0.0
 10
49.73216197495208
 20
12.75515113639792
 42
-0.1989123673796402
 10
50.14221248129093
 20
11.76520164273684
 42
0.0
 10
50.14221248129093
 20
10.47499961738137
 42
-0.4142135623730911
 10
49.61721248129094
 20
9.949999617381379
 42
0.0
 10
46.64221248129092
 20
9.949999617381379
 42
0.4142135623731526
 10
46.11721248129083
 20
9.424999617381391
 42
0.0
 10
46.11721248129083
 20
7.67499961738137
 42
0.4142135623730891
 10
46.64221248129081
 20
7.149999617381382
 42
0.0
 10
50.14221248129093
 20
7.149999617381382
 42
0.4142135623730925
 10
52.94221248129088
 20
9.949999617381358
 42
0.0
 10
52.94221248129088
 20
11.76520164273663
 42
0.1989123673796675
 10
51.71206096227433
 20
14.73505012372028
 42
0.0
 10
48.80226298762977
 20
17.6448480983648
 42
-0.1989123673796652
 10
48.39221248129092
 20
18.63479759202596
 42
0.0
 97
        0
 92
        7
 72
     1
 73
     1
 93
       16
 10
57.84221248129085
 20
22.72499961738137
 42
0.414213562373103
 10
57.31721248129088
 20
23.24999961738138
 42
0.0
 10
55.56721248129088
 20
23.24999961738138
 42
0.4142135623730871
 10
55.0422124812909
 20
22.7249996173814
 42
0.0
 10
55.0422124812909
 20
9.949999617381358
 42
0.4142135623730926
 10
57.84221248129085
 20
7.149999617381382
 42
0.0
 10
61.34221248129086
 20
7.149999617381382
 42
0.4142135623731044
 10
64.14221248129092
 20
9.949999617381358
 42
0.0
 10
64.14221248129092
 20
22.72499961738138
 42
0.4142135623730951
 10
63.61721248129095
 20
23.24999961738138
 42
0.0
 10
61.86721248129083
 20
23.24999961738138
 42
0.4142135623730871
 10
61.34221248129086
 20
22.7249996173814
 42
0.0
 10
61.34221248129086
 20
10.99999961738135
 42
-0.414213562373088
 10
60.2922124812909
 20
9.949999617381379
 42
0.0
 10
58.89221248129093
 20
9.949999617381379
 42
-0.4142135623731197
 10
57.84221248129085
 20
10.99999961738135
 42
0.0
 97
        0
 92
        7
 72
     1
 73
     1
 93
        8
 10
69.0422124812909
 20
22.7249996173814
 42
0.4142135623730871
 10
68.51721248129092
 20
23.24999961738138
 42
0.0
 10
66.76721248129092
 20
23.24999961738138
 42
0.4142135623731507
 10
66.24221248129083
 20
22.7249996173814
 42
0.0
 10
66.24221248129083
 20
7.67499961738137
 42
0.4142135623730891
 10
66.76721248129081
 20
7.149999617381382
 42
0.0
 10
68.51721248129092
 20
7.149999617381382
 42
0.4142135623730891
 10
69.0422124812909
 20
7.67499961738137
 42
0.0
 97
        0
 75
     0
 76
     1
 52
0.0
 41
0.2
 77
     0
 78
     2
 53
45.0
 43
-900.9423040081692
 44
-13.20000038261855
 45
-0.4490128060534576
 46
0.4490128060534577
 79
     0
 53
135.0
 43
-900.9423040081692
 44
-13.20000038261855
 45
-0.4490128060534577
 46
-0.4490128060534576
 79
     0
 47
0.057451373970553
 98
        8
 10
16.07985528953304
 20
15.16717326326693
 10
22.4045153329489
 20
18.84406179983239
 10
25.16436821216939
 20
15.51188126345209
 10
30.91406030814687
 20
16.20129726382288
 10
41.83847234546647
 20
16.66090953136449
 10
46.89820122163928
 20
19.41857593378858
 10
56.55768629891008
 20
18.72915753247639
 10
67.82707994613247
 20
19.188769800018
  0
ARC
  5
A10
330
1A
100
AcDbEntity
  8
ZUWAKU
100
AcDbCircle
 10
15.49221248129083
 20
18.63479759202608
 30
0.0
 40
4.199999999999999
100
AcDbArc
 50
180.0
 51
225.0
  0
LINE
  5
A11
330
1A
100
AcDbEntity
  8
ZUWAKU
100
AcDbLine
 10
20.74221248129083
 20
11.34999961738138
 30
0.0
 11
20.74221248129083
 21
19.04999961738133
 31
0.0
  0
LINE
  5
A12
330
1A
100
AcDbEntity
  8
ZUWAKU
100
AcDbLine
 10
23.5422124812909
 20
19.04999961738138
 30
0.0
 11
23.5422124812909
 21
11.34999961738138
 31
0.0
  0
ARC
  5
A13
330
1A
100
AcDbEntity
  8
ZUWAKU
100
AcDbCircle
 10
15.49221248129083
 20
18.63479759202608
 30
0.0
 40
1.399999999999999
100
AcDbArc
 50
180.0000000000016
 51
224.9999999999988
  0
ARC
  5
A14
330
1A
100
AcDbEntity
  8
ZUWAKU
100
AcDbCircle
 10
24.94221248129088
 20
11.34999961738138
 30
0.0
 40
4.199999999999999
100
AcDbArc
 50
180.0
 51
270.0
  0
ARC
  5
A15
330
1A
100
AcDbEntity
  8
ZUWAKU
100
AcDbCircle
 10
15.84221248129085
 20
9.949999617381379
 30
0.0
 40
2.799999999999999
100
AcDbArc
 50
270.0
 51
0.0
  0
ARC
  5
A16
330
1A
100
AcDbEntity
  8
ZUWAKU
100
AcDbCircle
 10
14.44221248129088
 20
11.76520164273668
 30
0.0
 40
4.199999999999999
100
AcDbArc
 50
0.0
 51
45.0
  0
LINE
  5
A17
330
1A
100
AcDbEntity
  8
ZUWAKU
100
AcDbLine
 10
12.52236400030733
 20
15.66494911104256
 30
0.0
 11
15.432161974952
 21
12.75515113639789
 31
0.0
  0
LINE
  5
A18
330
1A
100
AcDbEntity
  8
ZUWAKU
100
AcDbLine
 10
12.34221248129085
 20
9.949999617381379
 30
0.0
 11
15.31721248129088
 21
9.949999617381379
 31
0.0
  0
LINE
  5
A19
330
1A
100
AcDbEntity
  8
ZUWAKU
100
AcDbLine
 10
12.34221248129085
 20
7.149999617381382
 30
0.0
 11
15.84221248129085
 21
7.149999617381382
 31
0.0
  0
ARC
  5
A1A
330
1A
100
AcDbEntity
  8
ZUWAKU
100
AcDbCircle
 10
12.34221248129085
 20
9.424999617381381
 30
0.0
 40
0.525
100
AcDbArc
 50
90.0
 51
180.0
  0
ARC
  5
A1B
330
1A
100
AcDbEntity
  8
ZUWAKU
100
AcDbCircle
 10
12.34221248129085
 20
7.674999617381381
 30
0.0
 40
0.525
100
AcDbArc
 50
180.0
 51
270.0
  0
LINE
  5
A1C
330
1A
100
AcDbEntity
  8
ZUWAKU
100
AcDbLine
 10
11.81721248129088
 20
7.674999617381381
 30
0.0
 11
11.81721248129088
 21
9.424999617381381
 31
0.0
  0
ARC
  5
A1D
330
1A
100
AcDbEntity
  8
ZUWAKU
100
AcDbCircle
 10
14.44221248129088
 20
11.76520164273672
 30
0.0
 40
1.399999999999999
100
AcDbArc
 50
0.0
 51
45.0
  0
ARC
  5
A1E
330
1A
100
AcDbEntity
  8
ZUWAKU
100
AcDbCircle
 10
15.31721248129088
 20
10.47499961738138
 30
0.0
 40
0.525
100
AcDbArc
 50
270.0
 51
0.0
  0
LINE
  5
A1F
330
1A
100
AcDbEntity
  8
ZUWAKU
100
AcDbLine
 10
15.84221248129085
 20
10.47499961738138
 30
0.0
 11
15.84221248129085
 21
11.76520164273672
 31
0.0
  0
LINE
  5
A20
330
1A
100
AcDbEntity
  8
ZUWAKU
100
AcDbLine
 10
17.41206096227438
 20
14.7350501237202
 30
0.0
 11
14.5022629876297
 21
17.64484809836488
 31
0.0
  0
ARC
  5
A21
330
1A
100
AcDbEntity
  8
ZUWAKU
100
AcDbCircle
 10
24.94221248129088
 20
11.34999961738138
 30
0.0
 40
1.399999999999999
100
AcDbArc
 50
180.0
 51
270.0
  0
LINE
  5
A22
330
1A
100
AcDbEntity
  8
ZUWAKU
100
AcDbLine
 10
18.64221248129092
 20
9.949999617381379
 30
0.0
 11
18.64221248129092
 21
11.76520164273672
 31
0.0
  0
ARC
  5
A23
330
1A
100
AcDbEntity
  8
ZUWAKU
100
AcDbCircle
 10
17.59221248129085
 20
20.97499961738138
 30
0.0
 40
0.525
100
AcDbArc
 50
270.0
 51
0.0
  0
ARC
  5
A24
330
1A
100
AcDbEntity
  8
ZUWAKU
100
AcDbCircle
 10
17.59221248129085
 20
22.72499961738137
 30
0.0
 40
0.525
100
AcDbArc
 50
0.0
 51
90.0
  0
ARC
  5
A25
330
1A
100
AcDbEntity
  8
ZUWAKU
100
AcDbCircle
 10
14.09221248129085
 20
20.44999961738138
 30
0.0
 40
2.799999999999999
100
AcDbArc
 50
90.0
 51
180.0
  0
LINE
  5
A26
330
1A
100
AcDbEntity
  8
ZUWAKU
100
AcDbLine
 10
11.2922124812909
 20
20.44999961738138
 30
0.0
 11
11.2922124812909
 21
18.63479759202603
 31
0.0
  0
LINE
  5
A27
330
1A
100
AcDbEntity
  8
ZUWAKU
100
AcDbLine
 10
17.59221248129085
 20
20.44999961738138
 30
0.0
 11
14.61721248129083
 21
20.44999961738138
 31
0.0
  0
LINE
  5
A28
330
1A
100
AcDbEntity
  8
ZUWAKU
100
AcDbLine
 10
14.09221248129085
 20
19.92499961738138
 30
0.0
 11
14.09221248129085
 21
18.63479759202603
 31
0.0
  0
ARC
  5
A29
330
1A
100
AcDbEntity
  8
ZUWAKU
100
AcDbCircle
 10
14.61721248129083
 20
19.92499961738138
 30
0.0
 40
0.525
100
AcDbArc
 50
90.0
 51
180.0
  0
LINE
  5
A2A
330
1A
100
AcDbEntity
  8
ZUWAKU
100
AcDbLine
 10
14.09221248129085
 20
23.24999961738138
 30
0.0
 11
17.59221248129085
 21
23.24999961738138
 31
0.0
  0
ARC
  5
A2B
330
1A
100
AcDbEntity
  8
ZUWAKU
100
AcDbCircle
 10
24.94221248129088
 20
19.04999961738133
 30
0.0
 40
4.199999999999999
100
AcDbArc
 50
90.0
 51
180.0
  0
ARC
  5
A2C
330
1A
100
AcDbEntity
  8
ZUWAKU
100
AcDbCircle
 10
24.94221248129088
 20
19.04999961738138
 30
0.0
 40
1.399999999999999
100
AcDbArc
 50
90.0
 51
180.0
  0
LINE
  5
A2D
330
1A
100
AcDbEntity
  8
ZUWAKU
100
AcDbLine
 10
18.11721248129083
 20
22.72499961738137
 30
0.0
 11
18.11721248129083
 21
20.97499961738138
 31
0.0
  0
LINE
  5
A2E
330
1A
100
AcDbEntity
  8
ZUWAKU
100
AcDbLine
 10
35.67634741860672
 20
22.88309358554835
 30
0.0
 11
33.80807754397494
 21
16.96690564921441
 31
0.0
  0
LINE
  5
A2F
330
1A
100
AcDbEntity
  8
ZUWAKU
100
AcDbLine
 10
29.84221248129085
 20
22.72499961738137
 30
0.0
 11
29.84221248129085
 21
7.674999617381381
 31
0.0
  0
LINE
  5
A30
330
1A
100
AcDbEntity
  8
ZUWAKU
100
AcDbLine
 10
32.64221248129092
 20
17.12499961738138
 30
0.0
 11
32.64221248129092
 21
22.72499961738137
 31
0.0
  0
LINE
  5
A31
330
1A
100
AcDbEntity
  8
ZUWAKU
100
AcDbLine
 10
57.84221248129085
 20
10.99999961738137
 30
0.0
 11
57.84221248129085
 21
22.72499961738137
 31
0.0
  0
LINE
  5
A32
330
1A
100
AcDbEntity
  8
ZUWAKU
100
AcDbLine
 10
55.0422124812909
 20
22.72499961738137
 30
0.0
 11
55.0422124812909
 21
9.949999617381379
 31
0.0
  0
LINE
  5
A33
330
1A
100
AcDbEntity
  8
ZUWAKU
100
AcDbLine
 10
43.49221248129083
 20
7.674999617381381
 30
0.0
 11
43.49221248129083
 21
22.72499961738137
 31
0.0
  0
LINE
  5
A34
330
1A
100
AcDbEntity
  8
ZUWAKU
100
AcDbLine
 10
40.69221248129088
 20
22.72499961738137
 30
0.0
 11
40.69221248129088
 21
7.674999617381381
 31
0.0
  0
LINE
  5
A35
330
1A
100
AcDbEntity
  8
ZUWAKU
100
AcDbLine
 10
37.31485896346885
 20
19.2050468109448
 30
0.0
 11
36.050107218133
 21
15.1999996173814
 31
0.0
  0
ARC
  5
A36
330
1A
100
AcDbEntity
  8
ZUWAKU
100
AcDbCircle
 10
49.7922124812909
 20
18.63479759202608
 30
0.0
 40
4.199999999999999
100
AcDbArc
 50
180.0
 51
225.0
  0
ARC
  5
A37
330
1A
100
AcDbEntity
  8
ZUWAKU
100
AcDbCircle
 10
49.7922124812909
 20
18.63479759202608
 30
0.0
 40
1.399999999999999
100
AcDbArc
 50
180.0000000000016
 51
224.9999999999988
  0
LINE
  5
A38
330
1A
100
AcDbEntity
  8
ZUWAKU
100
AcDbLine
 10
66.24221248129083
 20
22.72499961738137
 30
0.0
 11
66.24221248129083
 21
7.674999617381381
 31
0.0
  0
LINE
  5
A39
330
1A
100
AcDbEntity
  8
ZUWAKU
100
AcDbLine
 10
69.0422124812909
 20
7.674999617381381
 30
0.0
 11
69.0422124812909
 21
22.72499961738137
 31
0.0
  0
LINE
  5
A3A
330
1A
100
AcDbEntity
  8
ZUWAKU
100
AcDbLine
 10
61.34221248129086
 20
22.72499961738137
 30
0.0
 11
61.34221248129086
 21
10.99999961738137
 31
0.0
  0
LINE
  5
A3B
330
1A
100
AcDbEntity
  8
ZUWAKU
100
AcDbLine
 10
64.14221248129092
 20
9.949999617381379
 30
0.0
 11
64.14221248129092
 21
22.72499961738137
 31
0.0
  0
LINE
  5
A3C
330
1A
100
AcDbEntity
  8
ZUWAKU
100
AcDbLine
 10
79.12662987449812
 20
29.99999961738137
 30
0.0
 11
79.12662987449812
 21
0.7999996173814452
 31
0.0
  0
LINE
  5
A3D
330
1A
100
AcDbEntity
  8
ZUWAKU
100
AcDbLine
 10
79.52662987449798
 20
29.99999961738137
 30
0.0
 11
79.52662987449821
 21
0.7999996173814452
 31
0.0
  0
LINE
  5
A3E
330
1A
100
AcDbEntity
  8
ZUWAKU
100
AcDbLine
 10
79.32662987449794
 20
29.99999961738137
 30
0.0
 11
79.32662987449816
 21
0.7999996173814452
 31
0.0
  0
LINE
  5
A3F
330
1A
100
AcDbEntity
  8
ZUWAKU
100
AcDbLine
 10
57.84221248129085
 20
7.149999617381382
 30
0.0
 11
61.34221248129086
 21
7.149999617381382
 31
0.0
  0
LINE
  5
A40
330
1A
100
AcDbEntity
  8
ZUWAKU
100
AcDbLine
 10
60.2922124812909
 20
9.949999617381379
 30
0.0
 11
58.89221248129093
 21
9.949999617381379
 31
0.0
  0
LINE
  5
A41
330
1A
100
AcDbEntity
  8
ZUWAKU
100
AcDbLine
 10
41.21721248129086
 20
7.149999617381382
 30
0.0
 11
42.96721248129085
 21
7.149999617381382
 31
0.0
  0
LINE
  5
A42
330
1A
100
AcDbEntity
  8
ZUWAKU
100
AcDbLine
 10
35.67634741860672
 20
7.516905649214407
 30
0.0
 11
33.80807754397494
 21
13.43309358554835
 31
0.0
  0
ARC
  5
A43
330
1A
100
AcDbEntity
  8
ZUWAKU
100
AcDbCircle
 10
33.1672124812909
 20
13.27499961738138
 30
0.0
 40
0.525
100
AcDbArc
 50
90.0
 51
180.0
  0
ARC
  5
A44
330
1A
100
AcDbEntity
  8
ZUWAKU
100
AcDbCircle
 10
33.30744664477959
 20
13.27499961738138
 30
0.0
 40
0.525
100
AcDbArc
 50
17.52556837372303
 51
90.0
  0
ARC
  5
A45
330
1A
100
AcDbEntity
  8
ZUWAKU
100
AcDbCircle
 10
30.36721248129083
 20
7.674999617381381
 30
0.0
 40
0.525
100
AcDbArc
 50
180.0
 51
270.0
  0
ARC
  5
A46
330
1A
100
AcDbEntity
  8
ZUWAKU
100
AcDbCircle
 10
26.86721248129083
 20
9.424999617381381
 30
0.0
 40
0.525
100
AcDbArc
 50
0.0
 51
90.0
  0
ARC
  5
A47
330
1A
100
AcDbEntity
  8
ZUWAKU
100
AcDbCircle
 10
26.86721248129083
 20
7.674999617381381
 30
0.0
 40
0.525
100
AcDbArc
 50
270.0
 51
0.0
  0
LINE
  5
A48
330
1A
100
AcDbEntity
  8
ZUWAKU
100
AcDbLine
 10
27.39221248129092
 20
9.424999617381381
 30
0.0
 11
27.39221248129092
 21
7.674999617381381
 31
0.0
  0
LINE
  5
A49
330
1A
100
AcDbEntity
  8
ZUWAKU
100
AcDbLine
 10
32.64221248129092
 20
7.674999617381381
 30
0.0
 11
32.64221248129092
 21
13.27499961738138
 31
0.0
  0
ARC
  5
A4A
330
1A
100
AcDbEntity
  8
ZUWAKU
100
AcDbCircle
 10
32.11721248129083
 20
7.674999617381381
 30
0.0
 40
0.525
100
AcDbArc
 50
270.0
 51
0.0
  0
LINE
  5
A4B
330
1A
100
AcDbEntity
  8
ZUWAKU
100
AcDbLine
 10
30.36721248129083
 20
7.149999617381382
 30
0.0
 11
32.11721248129083
 21
7.149999617381382
 31
0.0
  0
ARC
  5
A4C
330
1A
100
AcDbEntity
  8
ZUWAKU
100
AcDbCircle
 10
33.1672124812909
 20
17.12499961738138
 30
0.0
 40
0.525
100
AcDbArc
 50
180.0
 51
270.0
  0
LINE
  5
A4D
330
1A
100
AcDbEntity
  8
ZUWAKU
100
AcDbLine
 10
33.1672124812909
 20
13.79999961738138
 30
0.0
 11
33.30744664477959
 21
13.79999961738138
 31
0.0
  0
LINE
  5
A4E
330
1A
100
AcDbEntity
  8
ZUWAKU
100
AcDbLine
 10
33.30744664477959
 20
16.59999961738138
 30
0.0
 11
33.1672124812909
 21
16.59999961738138
 31
0.0
  0
ARC
  5
A4F
330
1A
100
AcDbEntity
  8
ZUWAKU
100
AcDbCircle
 10
33.30744664477959
 20
17.12499961738138
 30
0.0
 40
0.525
100
AcDbArc
 50
270.0
 51
342.4744316262769
  0
ARC
  5
A50
330
1A
100
AcDbEntity
  8
ZUWAKU
100
AcDbCircle
 10
36.17697831780219
 20
7.674999617381381
 30
0.0
 40
0.525
100
AcDbArc
 50
197.525568373723
 51
270.0
  0
LINE
  5
A51
330
1A
100
AcDbEntity
  8
ZUWAKU
100
AcDbLine
 10
38.37649859660666
 20
7.833093585548354
 30
0.0
 11
36.050107218133
 21
15.1999996173814
 31
0.0
  0
ARC
  5
A52
330
1A
100
AcDbEntity
  8
ZUWAKU
100
AcDbCircle
 10
37.87586769741119
 20
7.674999617381381
 30
0.0
 40
0.525
100
AcDbArc
 50
270.0
 51
17.52556837372303
  0
LINE
  5
A53
330
1A
100
AcDbEntity
  8
ZUWAKU
100
AcDbLine
 10
36.17697831780219
 20
7.149999617381382
 30
0.0
 11
37.87586769741119
 21
7.149999617381382
 31
0.0
  0
ARC
  5
A54
330
1A
100
AcDbEntity
  8
ZUWAKU
100
AcDbCircle
 10
41.21721248129086
 20
7.674999617381381
 30
0.0
 40
0.525
100
AcDbArc
 50
180.0
 51
270.0
  0
ARC
  5
A55
330
1A
100
AcDbEntity
  8
ZUWAKU
100
AcDbCircle
 10
50.14221248129093
 20
9.949999617381379
 30
0.0
 40
2.799999999999999
100
AcDbArc
 50
270.0
 51
0.0
  0
ARC
  5
A56
330
1A
100
AcDbEntity
  8
ZUWAKU
100
AcDbCircle
 10
57.84221248129085
 20
9.949999617381379
 30
0.0
 40
2.799999999999999
100
AcDbArc
 50
180.0
 51
270.0
  0
LINE
  5
A57
330
1A
100
AcDbEntity
  8
ZUWAKU
100
AcDbLine
 10
51.71206096227445
 20
14.7350501237202
 30
0.0
 11
48.80226298762966
 21
17.64484809836488
 31
0.0
  0
LINE
  5
A58
330
1A
100
AcDbEntity
  8
ZUWAKU
100
AcDbLine
 10
46.8223640003074
 20
15.66494911104256
 30
0.0
 11
49.73216197495208
 21
12.75515113639789
 31
0.0
  0
LINE
  5
A59
330
1A
100
AcDbEntity
  8
ZUWAKU
100
AcDbLine
 10
46.64221248129092
 20
7.149999617381382
 30
0.0
 11
50.14221248129093
 21
7.149999617381382
 31
0.0
  0
LINE
  5
A5A
330
1A
100
AcDbEntity
  8
ZUWAKU
100
AcDbLine
 10
46.64221248129092
 20
9.949999617381379
 30
0.0
 11
49.61721248129084
 21
9.949999617381379
 31
0.0
  0
ARC
  5
A5B
330
1A
100
AcDbEntity
  8
ZUWAKU
100
AcDbCircle
 10
46.64221248129092
 20
9.424999617381381
 30
0.0
 40
0.525
100
AcDbArc
 50
90.0
 51
180.0
  0
ARC
  5
A5C
330
1A
100
AcDbEntity
  8
ZUWAKU
100
AcDbCircle
 10
42.96721248129085
 20
7.674999617381381
 30
0.0
 40
0.525
100
AcDbArc
 50
270.0
 51
0.0
  0
ARC
  5
A5D
330
1A
100
AcDbEntity
  8
ZUWAKU
100
AcDbCircle
 10
46.64221248129092
 20
7.674999617381381
 30
0.0
 40
0.525
100
AcDbArc
 50
180.0
 51
270.0
  0
LINE
  5
A5E
330
1A
100
AcDbEntity
  8
ZUWAKU
100
AcDbLine
 10
46.11721248129083
 20
7.674999617381381
 30
0.0
 11
46.11721248129083
 21
9.424999617381381
 31
0.0
  0
ARC
  5
A5F
330
1A
100
AcDbEntity
  8
ZUWAKU
100
AcDbCircle
 10
49.61721248129084
 20
10.47499961738138
 30
0.0
 40
0.525
100
AcDbArc
 50
270.0
 51
0.0
  0
ARC
  5
A60
330
1A
100
AcDbEntity
  8
ZUWAKU
100
AcDbCircle
 10
48.74221248129083
 20
11.76520164273672
 30
0.0
 40
1.399999999999999
100
AcDbArc
 50
0.0
 51
45.0
  0
LINE
  5
A61
330
1A
100
AcDbEntity
  8
ZUWAKU
100
AcDbLine
 10
50.14221248129093
 20
10.47499961738138
 30
0.0
 11
50.14221248129093
 21
11.76520164273672
 31
0.0
  0
ARC
  5
A62
330
1A
100
AcDbEntity
  8
ZUWAKU
100
AcDbCircle
 10
58.89221248129093
 20
10.99999961738137
 30
0.0
 40
1.049999999999999
100
AcDbArc
 50
180.0
 51
270.0
  0
ARC
  5
A63
330
1A
100
AcDbEntity
  8
ZUWAKU
100
AcDbCircle
 10
48.74221248129083
 20
11.76520164273668
 30
0.0
 40
4.199999999999999
100
AcDbArc
 50
0.0
 51
45.0
  0
LINE
  5
A64
330
1A
100
AcDbEntity
  8
ZUWAKU
100
AcDbLine
 10
52.94221248129088
 20
9.949999617381379
 30
0.0
 11
52.94221248129088
 21
11.76520164273672
 31
0.0
  0
ARC
  5
A65
330
1A
100
AcDbEntity
  8
ZUWAKU
100
AcDbCircle
 10
61.34221248129086
 20
9.949999617381379
 30
0.0
 40
2.799999999999999
100
AcDbArc
 50
270.0
 51
0.0
  0
LINE
  5
A66
330
1A
100
AcDbEntity
  8
ZUWAKU
100
AcDbLine
 10
66.76721248129092
 20
7.149999617381382
 30
0.0
 11
68.51721248129092
 21
7.149999617381382
 31
0.0
  0
ARC
  5
A67
330
1A
100
AcDbEntity
  8
ZUWAKU
100
AcDbCircle
 10
60.2922124812909
 20
10.99999961738137
 30
0.0
 40
1.049999999999999
100
AcDbArc
 50
270.0
 51
0.0
  0
ARC
  5
A68
330
1A
100
AcDbEntity
  8
ZUWAKU
100
AcDbCircle
 10
66.76721248129092
 20
7.674999617381381
 30
0.0
 40
0.525
100
AcDbArc
 50
180.0
 51
270.0
  0
ARC
  5
A69
330
1A
100
AcDbEntity
  8
ZUWAKU
100
AcDbCircle
 10
68.51721248129092
 20
7.674999617381381
 30
0.0
 40
0.525
100
AcDbArc
 50
270.0
 51
0.0
  0
LINE
  5
A6A
330
1A
100
AcDbEntity
  8
ZUWAKU
100
AcDbLine
 10
42.96721248129085
 20
23.24999961738138
 30
0.0
 11
41.21721248129086
 21
23.24999961738138
 31
0.0
  0
LINE
  5
A6B
330
1A
100
AcDbEntity
  8
ZUWAKU
100
AcDbLine
 10
27.39221248129092
 20
22.72499961738137
 30
0.0
 11
27.39221248129092
 21
20.97499961738138
 31
0.0
  0
ARC
  5
A6C
330
1A
100
AcDbEntity
  8
ZUWAKU
100
AcDbCircle
 10
26.86721248129083
 20
20.97499961738138
 30
0.0
 40
0.525
100
AcDbArc
 50
270.0
 51
0.0
  0
ARC
  5
A6D
330
1A
100
AcDbEntity
  8
ZUWAKU
100
AcDbCircle
 10
30.36721248129083
 20
22.72499961738137
 30
0.0
 40
0.525
100
AcDbArc
 50
90.0
 51
180.0
  0
ARC
  5
A6E
330
1A
100
AcDbEntity
  8
ZUWAKU
100
AcDbCircle
 10
26.86721248129083
 20
22.72499961738137
 30
0.0
 40
0.525
100
AcDbArc
 50
0.0
 51
90.0
  0
LINE
  5
A6F
330
1A
100
AcDbEntity
  8
ZUWAKU
100
AcDbLine
 10
32.11721248129083
 20
23.24999961738138
 30
0.0
 11
30.36721248129083
 21
23.24999961738138
 31
0.0
  0
ARC
  5
A70
330
1A
100
AcDbEntity
  8
ZUWAKU
100
AcDbCircle
 10
32.11721248129083
 20
22.72499961738137
 30
0.0
 40
0.525
100
AcDbArc
 50
0.0
 51
90.0
  0
ARC
  5
A71
330
1A
100
AcDbEntity
  8
ZUWAKU
100
AcDbCircle
 10
36.17697831780219
 20
22.72499961738137
 30
0.0
 40
0.525
100
AcDbArc
 50
90.0
 51
162.4744316262769
  0
LINE
  5
A72
330
1A
100
AcDbEntity
  8
ZUWAKU
100
AcDbLine
 10
38.37649859660666
 20
22.56690564921441
 30
0.0
 11
37.31485896346885
 21
19.2050468109448
 31
0.0
  0
ARC
  5
A73
330
1A
100
AcDbEntity
  8
ZUWAKU
100
AcDbCircle
 10
37.87586769741119
 20
22.72499961738137
 30
0.0
 40
0.525
100
AcDbArc
 50
342.4744316262769
 51
90.0
  0
LINE
  5
A74
330
1A
100
AcDbEntity
  8
ZUWAKU
100
AcDbLine
 10
36.17697831780219
 20
23.24999961738138
 30
0.0
 11
37.87586769741119
 21
23.24999961738138
 31
0.0
  0
ARC
  5
A75
330
1A
100
AcDbEntity
  8
ZUWAKU
100
AcDbCircle
 10
41.21721248129086
 20
22.72499961738137
 30
0.0
 40
0.525
100
AcDbArc
 50
90.0
 51
180.0
  0
LINE
  5
A76
330
1A
100
AcDbEntity
  8
ZUWAKU
100
AcDbLine
 10
51.89221248129093
 20
20.44999961738138
 30
0.0
 11
48.91721248129091
 21
20.44999961738138
 31
0.0
  0
LINE
  5
A77
330
1A
100
AcDbEntity
  8
ZUWAKU
100
AcDbLine
 10
48.39221248129092
 20
23.24999961738138
 30
0.0
 11
51.89221248129093
 21
23.24999961738138
 31
0.0
  0
ARC
  5
A78
330
1A
100
AcDbEntity
  8
ZUWAKU
100
AcDbCircle
 10
48.39221248129092
 20
20.44999961738138
 30
0.0
 40
2.799999999999999
100
AcDbArc
 50
90.0
 51
180.0
  0
LINE
  5
A79
330
1A
100
AcDbEntity
  8
ZUWAKU
100
AcDbLine
 10
45.59221248129086
 20
20.44999961738138
 30
0.0
 11
45.59221248129086
 21
18.63479759202603
 31
0.0
  0
ARC
  5
A7A
330
1A
100
AcDbEntity
  8
ZUWAKU
100
AcDbCircle
 10
42.96721248129085
 20
22.72499961738137
 30
0.0
 40
0.525
100
AcDbArc
 50
0.0
 51
90.0
  0
LINE
  5
A7B
330
1A
100
AcDbEntity
  8
ZUWAKU
100
AcDbLine
 10
48.39221248129092
 20
19.92499961738138
 30
0.0
 11
48.39221248129092
 21
18.63479759202603
 31
0.0
  0
ARC
  5
A7C
330
1A
100
AcDbEntity
  8
ZUWAKU
100
AcDbCircle
 10
48.91721248129091
 20
19.92499961738138
 30
0.0
 40
0.525
100
AcDbArc
 50
90.0
 51
180.0
  0
LINE
  5
A7D
330
1A
100
AcDbEntity
  8
ZUWAKU
100
AcDbLine
 10
52.4172124812909
 20
22.72499961738137
 30
0.0
 11
52.4172124812909
 21
20.97499961738138
 31
0.0
  0
ARC
  5
A7E
330
1A
100
AcDbEntity
  8
ZUWAKU
100
AcDbCircle
 10
51.89221248129093
 20
20.97499961738138
 30
0.0
 40
0.525
100
AcDbArc
 50
270.0
 51
0.0
  0
ARC
  5
A7F
330
1A
100
AcDbEntity
  8
ZUWAKU
100
AcDbCircle
 10
51.89221248129093
 20
22.72499961738137
 30
0.0
 40
0.525
100
AcDbArc
 50
0.0
 51
90.0
  0
LINE
  5
A80
330
1A
100
AcDbEntity
  8
ZUWAKU
100
AcDbLine
 10
57.31721248129088
 20
23.24999961738138
 30
0.0
 11
55.56721248129088
 21
23.24999961738138
 31
0.0
  0
ARC
  5
A81
330
1A
100
AcDbEntity
  8
ZUWAKU
100
AcDbCircle
 10
55.56721248129088
 20
22.72499961738137
 30
0.0
 40
0.525
100
AcDbArc
 50
90.0
 51
180.0
  0
ARC
  5
A82
330
1A
100
AcDbEntity
  8
ZUWAKU
100
AcDbCircle
 10
57.31721248129088
 20
22.72499961738137
 30
0.0
 40
0.525
100
AcDbArc
 50
0.0
 51
90.0
  0
LINE
  5
A83
330
1A
100
AcDbEntity
  8
ZUWAKU
100
AcDbLine
 10
68.51721248129092
 20
23.24999961738138
 30
0.0
 11
66.76721248129092
 21
23.24999961738138
 31
0.0
  0
ARC
  5
A84
330
1A
100
AcDbEntity
  8
ZUWAKU
100
AcDbCircle
 10
61.86721248129083
 20
22.72499961738137
 30
0.0
 40
0.525
100
AcDbArc
 50
90.0
 51
180.0
  0
LINE
  5
A85
330
1A
100
AcDbEntity
  8
ZUWAKU
100
AcDbLine
 10
63.61721248129083
 20
23.24999961738138
 30
0.0
 11
61.86721248129083
 21
23.24999961738138
 31
0.0
  0
ARC
  5
A86
330
1A
100
AcDbEntity
  8
ZUWAKU
100
AcDbCircle
 10
63.61721248129083
 20
22.72499961738137
 30
0.0
 40
0.525
100
AcDbArc
 50
0.0
 51
90.0
  0
ARC
  5
A87
330
1A
100
AcDbEntity
  8
ZUWAKU
100
AcDbCircle
 10
66.76721248129092
 20
22.72499961738137
 30
0.0
 40
0.525
100
AcDbArc
 50
90.0
 51
180.0
  0
ARC
  5
A88
330
1A
100
AcDbEntity
  8
ZUWAKU
100
AcDbCircle
 10
68.51721248129092
 20
22.72499961738137
 30
0.0
 40
0.525
100
AcDbArc
 50
0.0
 51
90.0
  0
TEXT
  5
A89
330
1A
100
AcDbEntity
  8
MOJI
100
AcDbText
 10
239.8272030073608
 20
18.00492067478876
 30
0.0
 40
5.599999999999999
  1
ブラケット正面打（吊）自在式
 41
0.9
  7
ｽﾀｲﾙ1
100
AcDbText
  0
TEXT
  5
A8A
330
1A
100
AcDbEntity
  8
MOJI
100
AcDbText
 10
239.8272030073608
 20
3.204920674788798
 30
0.0
 40
5.599999999999999
  1
ＲＶ１０５－０－４５～６０
 41
0.9
  7
ｽﾀｲﾙ1
100
AcDbText
  0
LINE
  5
A8B
330
1A
100
AcDbEntity
  8
ZUWAKU
100
AcDbLine
 10
208.4466016165774
 20
29.99999961738137
 30
0.0
 11
208.4466016165777
 21
0.7999996173814452
 31
0.0
  0
LINE
  5
A8C
330
1A
100
AcDbEntity
  8
ZUWAKU
100
AcDbLine
 10
208.6466016165775
 20
29.99999961738137
 30
0.0
 11
208.6466016165777
 21
0.7999996173814452
 31
0.0
  0
LINE
  5
A8D
330
1A
100
AcDbEntity
  8
ZUWAKU
100
AcDbLine
 10
208.2466016165776
 20
29.99999961738137
 30
0.0
 11
208.2466016165776
 21
0.7999996173814452
 31
0.0
  0
TEXT
  5
A8E
330
1A
100
AcDbEntity
  8
ZUWAKU
100
AcDbText
 10
209.7240466387872
 20
9.655356155766995
 30
0.0
 40
4.0
  1
サイズ
 41
0.9
  7
ｽﾀｲﾙ1
100
AcDbText
  0
TEXT
  5
A8F
330
1A
100
AcDbEntity
  8
ZUWAKU
100
AcDbText
 10
209.724046638787
 20
24.05535615576695
 30
0.0
 40
4.0
  1
品名
 41
0.9
  7
ｽﾀｲﾙ1
100
AcDbText
  0
TEXT
  5
A90
330
1A
100
AcDbEntity
  8
ZUWAKU
100
AcDbText
 10
658.2039380138121
 20
18.00492067478876
 30
0.0
 40
5.599999999999999
  1
　　．　　．　　
 41
0.9
  7
ｽﾀｲﾙ1
100
AcDbText
  0
LINE
  5
A91
330
1A
100
AcDbEntity
  8
ZUWAKU
100
AcDbLine
 10
648.8172028367139
 20
15.59999961738141
 30
0.0
 11
697.249010875051
 21
15.59999961738141
 31
0.0
  0
LINE
  5
A92
330
1A
100
AcDbEntity
  8
ZUWAKU
100
AcDbLine
 10
648.8172028367142
 20
15.39999961738141
 30
0.0
 11
697.249010875051
 21
15.39999961738141
 31
0.0
  0
LINE
  5
A93
330
1A
100
AcDbEntity
  8
ZUWAKU
100
AcDbLine
 10
648.8172028367139
 20
15.19999961738141
 30
0.0
 11
697.249010875051
 21
15.19999961738141
 31
0.0
  0
LINE
  5
A94
330
1A
100
AcDbEntity
  8
ZUWAKU
100
AcDbLine
 10
505.1991798246506
 20
15.59999961738141
 30
0.0
 11
552.5269560926221
 21
15.59999961738141
 31
0.0
  0
LINE
  5
A95
330
1A
100
AcDbEntity
  8
ZUWAKU
100
AcDbLine
 10
505.1991798246506
 20
15.39999961738141
 30
0.0
 11
552.5269560926221
 21
15.39999961738141
 31
0.0
  0
LINE
  5
A96
330
1A
100
AcDbEntity
  8
ZUWAKU
100
AcDbLine
 10
505.1991798246506
 20
15.19999961738141
 30
0.0
 11
552.5269560926221
 21
15.19999961738141
 31
0.0
  0
LINE
  5
A97
330
1A
100
AcDbEntity
  8
ZUWAKU
100
AcDbLine
 10
504.7991798246507
 20
29.99999961738137
 30
0.0
 11
504.7991798246507
 21
0.7999996173814452
 31
0.0
  0
LINE
  5
A98
330
1A
100
AcDbEntity
  8
ZUWAKU
100
AcDbLine
 10
505.1991798246506
 20
29.99999961738137
 30
0.0
 11
505.1991798246509
 21
0.7999996173814452
 31
0.0
  0
LINE
  5
A99
330
1A
100
AcDbEntity
  8
ZUWAKU
100
AcDbLine
 10
504.9991798246505
 20
29.99999961738137
 30
0.0
 11
504.9991798246508
 21
0.7999996173814452
 31
0.0
  0
TEXT
  5
A9A
330
1A
100
AcDbEntity
  8
MOJI
100
AcDbText
 10
528.0409082988226
 20
18.00492067478876
 30
0.0
 40
5.599999999999999
  1
Ａ３
 41
0.9
  7
ｽﾀｲﾙ1
100
AcDbText
  0
LINE
  5
A9B
330
1A
100
AcDbEntity
  8
ZUWAKU
100
AcDbLine
 10
447.4243642975011
 20
29.99999961738137
 30
0.0
 11
447.4243642975011
 21
0.7999996173814452
 31
0.0
  0
LINE
  5
A9C
330
1A
100
AcDbEntity
  8
ZUWAKU
100
AcDbLine
 10
447.824364297501
 20
29.99999961738137
 30
0.0
 11
447.8243642975012
 21
0.7999996173814452
 31
0.0
  0
LINE
  5
A9D
330
1A
100
AcDbEntity
  8
ZUWAKU
100
AcDbLine
 10
447.6243642975009
 20
29.99999961738137
 30
0.0
 11
447.6243642975012
 21
0.7999996173814452
 31
0.0
  0
TEXT
  5
A9E
330
1A
100
AcDbEntity
  8
MOJI
100
AcDbText
 10
464.5946263297487
 20
11.94261733904136
 30
0.0
 40
5.599999999999999
  1
ＬＨ５９□
 41
0.9
  7
ｽﾀｲﾙ1
100
AcDbText
  0
TEXT
  5
A9F
330
1A
100
AcDbEntity
  8
ZUWAKU
100
AcDbText
 10
462.6937619820169
 20
2.614070528520869
 30
0.0
 40
3.0
  1
□には色品番が入ります
 41
0.9
  7
ｽﾀｲﾙ1
100
AcDbText
  0
TEXT
  5
AA0
330
1A
100
AcDbEntity
  8
ZUWAKU
100
AcDbText
 10
506.6766248468605
 20
9.655356155766995
 30
0.0
 40
4.0
  1
縮尺
 41
0.9
  7
ｽﾀｲﾙ1
100
AcDbText
  0
TEXT
  5
AA1
330
1A
100
AcDbEntity
  8
MOJI
100
AcDbText
 10
528.0409082988226
 20
3.204920674788798
 30
0.0
 40
5.599999999999999
  1
１/２
 41
0.9
  7
ｽﾀｲﾙ1
100
AcDbText
  0
TEXT
  5
AA2
330
1A
100
AcDbEntity
  8
ZUWAKU
100
AcDbText
 10
449.3018093197106
 20
24.05535615576695
 30
0.0
 40
4.0
  1
品番
 41
0.9
  7
ｽﾀｲﾙ1
100
AcDbText
  0
TEXT
  5
AA3
330
1A
100
AcDbEntity
  8
ZUWAKU
100
AcDbText
 10
506.6766248468602
 20
24.05535615576695
 30
0.0
 40
4.0
  1
用紙
 41
0.9
  7
ｽﾀｲﾙ1
100
AcDbText
  0
LINE
  5
AA4
330
1A
100
AcDbEntity
  8
ZUWAKU
100
AcDbLine
 10
552.5269560926221
 20
29.99999961738137
 30
0.0
 11
552.5269560926221
 21
0.7999996173814452
 31
0.0
  0
LINE
  5
AA5
330
1A
100
AcDbEntity
  8
ZUWAKU
100
AcDbLine
 10
552.926956092622
 20
29.99999961738137
 30
0.0
 11
552.9269560926223
 21
0.7999996173814452
 31
0.0
  0
LINE
  5
AA6
330
1A
100
AcDbEntity
  8
ZUWAKU
100
AcDbLine
 10
552.726956092622
 20
29.99999961738137
 30
0.0
 11
552.7269560926222
 21
0.7999996173814452
 31
0.0
  0
LINE
  5
AA7
330
1A
100
AcDbEntity
  8
ZUWAKU
100
AcDbLine
 10
648.4172028367143
 20
29.99999961738137
 30
0.0
 11
648.4172028367143
 21
0.7999996173814452
 31
0.0
  0
LINE
  5
AA8
330
1A
100
AcDbEntity
  8
ZUWAKU
100
AcDbLine
 10
648.8172028367142
 20
29.99999961738137
 30
0.0
 11
648.8172028367143
 21
0.7999996173814452
 31
0.0
  0
LINE
  5
AA9
330
1A
100
AcDbEntity
  8
ZUWAKU
100
AcDbLine
 10
648.6172028367141
 20
29.99999961738137
 30
0.0
 11
648.6172028367143
 21
0.7999996173814452
 31
0.0
  0
TEXT
  5
AAA
330
1A
100
AcDbEntity
  8
ZUWAKU
100
AcDbText
 10
650.2946478589238
 20
24.05535615576695
 30
0.0
 40
4.0
  1
DATE
 41
0.9
  7
ｽﾀｲﾙ1
100
AcDbText
  0
TEXT
  5
AAB
330
1A
100
AcDbEntity
  8
ZUWAKU
100
AcDbText
 10
708.5280845187535
 20
17.55383895306818
 30
0.0
 40
6.0
  1
積水化学工業株式会社
 41
0.9
  7
ｽﾀｲﾙ1
100
AcDbText
  0
LINE
  5
AAC
330
1A
100
AcDbEntity
  8
ZUWAKU
100
AcDbLine
 10
697.8490108750508
 20
29.99999961738137
 30
0.0
 11
697.8490108750511
 21
0.7999996173814452
 31
0.0
  0
LINE
  5
AAD
330
1A
100
AcDbEntity
  8
ZUWAKU
100
AcDbLine
 10
697.6490108750509
 20
29.99999961738137
 30
0.0
 11
697.649010875051
 21
0.7999996173814452
 31
0.0
  0
LINE
  5
AAE
330
1A
100
AcDbEntity
  8
ZUWAKU
100
AcDbLine
 10
697.449010875051
 20
29.99999961738137
 30
0.0
 11
697.449010875051
 21
0.7999996173814452
 31
0.0
  0
LINE
  5
AAF
330
1A
100
AcDbEntity
  8
ZUWAKU
100
AcDbLine
 10
697.249010875051
 20
29.99999961738137
 30
0.0
 11
697.249010875051
 21
0.7999996173814452
 31
0.0
  0
TEXT
  5
AB0
330
1A
100
AcDbEntity
  8
ZUWAKU
100
AcDbText
 10
708.5280845187535
 20
6.648839931235443
 30
0.0
 40
6.0
  1
建材事業部
 41
0.9
  7
ｽﾀｲﾙ1
100
AcDbText
  0
VIEWPORT
  5
22
330
17
100
AcDbEntity
 67
     1
  8
0
100
AcDbViewport
 10
313.6808219178082
 20
148.5
 30
0.0
 40
627.3616438356165
 41
297.0
 68
     2
 69
     1
1001
ACAD
1000
MVIEW
1002
{
1070
    16
1010
0.0
1020
0.0
1030
0.0
1010
0.0
1020
0.0
1030
1.0
1040
0.0
1040
297.0
1040
313.6808219178082
1040
148.5
1040
50.0
1040
0.0
1040
0.0
1070
     0
1070
   100
1070
     1
1070
     0
1070
     0
1070
     0
1070
     0
1070
     0
1040
0.0
1040
0.0
1040
0.0
1040
1.0
1040
1.0
1040
10.0
1040
10.0
1070
     0
1002
{
1002
}
1002
}
  0
VIEWPORT
  5
64
330
17
100
AcDbEntity
 67
     1
  8
VIEWPORT
100
AcDbViewport
 10
210.0
 20
148.5
 30
0.0
 40
420.0
 41
297.0
 68
     1
 69
     2
1001
ACAD
1000
MVIEW
1002
{
1070
    16
1010
0.0
1020
0.0
1030
0.0
1010
0.0
1020
0.0
1030
1.0
1040
0.0
1040
605.8799999999998
1040
420.0
1040
297.0
1040
50.0
1040
0.0
1040
0.0
1070
     0
1070
   100
1070
     1
1070
     0
1070
     0
1070
     0
1070
     0
1070
     0
1040
0.0
1040
0.0
1040
0.0
1040
10.0
1040
10.0
1040
0.0
1040
0.0
1070
     0
1002
{
1002
}
1002
}
  0
ENDSEC
  0
SECTION
  2
OBJECTS
  0
DICTIONARY
  5
C
330
0
100
AcDbDictionary
  3
ACAD_GROUP
350
D
  3
ACAD_LAYOUT
350
903
  3
ACAD_MLINESTYLE
350
E
  3
ACAD_PLOTSETTINGS
350
904
  3
ACAD_PLOTSTYLENAME
350
901
  3
ACDBHEADERROUNDTRIPXREC
350
AB8
  0
DICTIONARY
  5
932
330
1A
100
AcDbDictionary
280
     1
  3
ACAD_LAYOUTSELFREF
360
ADA
  0
DICTIONARY
  5
930
330
17
100
AcDbDictionary
280
     1
  3
ACAD_LAYOUTSELFREF
360
AD9
  0
DICTIONARY
  5
D
102
{ACAD_REACTORS
330
C
102
}
330
C
100
AcDbDictionary
  0
DICTIONARY
  5
903
102
{ACAD_REACTORS
330
C
102
}
330
C
100
AcDbDictionary
  0
DICTIONARY
  5
E
102
{ACAD_REACTORS
330
C
102
}
330
C
100
AcDbDictionary
  3
STANDARD
350
13
  0
DICTIONARY
  5
904
102
{ACAD_REACTORS
330
C
102
}
330
C
100
AcDbDictionary
  0
ACDBDICTIONARYWDFLT
  5
901
102
{ACAD_REACTORS
330
C
102
}
330
C
100
AcDbDictionary
281
     1
  3
Normal
350
902
100
AcDbDictionaryWithDefault
340
902
1001
ACAD
1000
TREAT_AS_HARD
1070
     0
  0
DICTIONARY
  5
AB8
102
{ACAD_REACTORS
330
C
102
}
330
C
100
AcDbDictionary
  3
TSTACKALIGN
350
AB9
  3
TSTACKSIZE
350
ABA
  3
HYPERLINKBASE
350
ABB
  3
STYLESHEET
350
ABC
  3
LAYOUTDICT
350
ABD
  3
PLOTSETDICT
350
ABE
  3
PLOTSTYLNAMDICT
350
ABF
  3
LWETCUNION
350
AC0
  3
INSUNITS
350
AC1
  3
CEPSNTYPE
350
AC2
  3
FINGERPRINTGUID
350
AC3
  3
VERSIONGUID
350
AC4
  3
PSVPSCALE
350
AC5
  3
DIMSTYLEDATA
350
AC6
  3
PUCSORTHOREF
350
AC7
  3
PUCSORTHOVIEW
350
AC8
  3
PUCSBASE
350
AC9
  3
PUCSORGTOP
350
ACA
  3
PUCSORGBOTTOM
350
ACB
  3
PUCSORGLEFT
350
ACC
  3
PUCSORGRIGHT
350
ACD
  3
PUCSORGFRONT
350
ACE
  3
PUCSORGBACK
350
ACF
  3
UCSORTHOREF
350
AD0
  3
UCSORTHOVIEW
350
AD1
  3
UCSBASE
350
AD2
  3
UCSORGTOP
350
AD3
  3
UCSORGBOTTOM
350
AD4
  3
UCSORGLEFT
350
AD5
  3
UCSORGRIGHT
350
AD6
  3
UCSORGFRONT
350
AD7
  3
UCSORGBACK
350
AD8
  0
XRECORD
  5
ADA
102
{ACAD_REACTORS
330
932
102
}
330
932
100
AcDbXrecord
340
1A
  0
XRECORD
  5
AD9
102
{ACAD_REACTORS
330
930
102
}
330
930
100
AcDbXrecord
340
17
  0
MLINESTYLE
  5
13
102
{ACAD_REACTORS
330
E
102
}
330
E
100
AcDbMlineStyle
  2
STANDARD
 70
     0
  3

 62
     0
 51
90.0
 52
90.0
 71
     2
 49
0.5
 62
   256
  6
BYLAYER
 49
-0.5
 62
   256
  6
BYLAYER
  0
ACDBPLACEHOLDER
  5
902
102
{ACAD_REACTORS
330
901
102
}
330
901
100
AcDbPlaceHolder
280
     0
  0
XRECORD
  5
AB9
102
{ACAD_REACTORS
330
AB8
102
}
330
AB8
100
AcDbXrecord
 90
        1
  0
XRECORD
  5
ABA
102
{ACAD_REACTORS
330
AB8
102
}
330
AB8
100
AcDbXrecord
 90
       70
  0
XRECORD
  5
ABB
102
{ACAD_REACTORS
330
AB8
102
}
330
AB8
100
AcDbXrecord
  1

  0
XRECORD
  5
ABC
102
{ACAD_REACTORS
330
AB8
102
}
330
AB8
100
AcDbXrecord
  1
systemprinter.ctb
  0
XRECORD
  5
ABD
102
{ACAD_REACTORS
330
AB8
102
}
330
AB8
100
AcDbXrecord
340
903
  0
XRECORD
  5
ABE
102
{ACAD_REACTORS
330
AB8
102
}
330
AB8
100
AcDbXrecord
340
904
  0
XRECORD
  5
ABF
102
{ACAD_REACTORS
330
AB8
102
}
330
AB8
100
AcDbXrecord
340
901
  0
XRECORD
  5
AC0
102
{ACAD_REACTORS
330
AB8
102
}
330
AB8
100
AcDbXrecord
 90
    10781
  0
XRECORD
  5
AC1
102
{ACAD_REACTORS
330
AB8
102
}
330
AB8
100
AcDbXrecord
 90
        0
  0
XRECORD
  5
AC2
102
{ACAD_REACTORS
330
AB8
102
}
330
AB8
100
AcDbXrecord
 90
        0
  0
XRECORD
  5
AC3
102
{ACAD_REACTORS
330
AB8
102
}
330
AB8
100
AcDbXrecord
  1
{D276D7B5-E01F-4C16-8640-B9251BD1E849}
  0
XRECORD
  5
AC4
102
{ACAD_REACTORS
330
AB8
102
}
330
AB8
100
AcDbXrecord
  1
{F6D020FB-55B0-4382-9CAD-831DBC6EE363}
  0
XRECORD
  5
AC5
102
{ACAD_REACTORS
330
AB8
102
}
330
AB8
100
AcDbXrecord
 40
0.0
  0
XRECORD
  5
AC6
102
{ACAD_REACTORS
330
AB8
102
}
330
AB8
100
AcDbXrecord
1000
DSTYLE
1002
{
1070
   341
340
6D
1070
   343
340
6D
1070
   344
340
6D
1070
   371
 70
    -1
1070
   372
 70
    -1
1002
}
  0
XRECORD
  5
AC7
102
{ACAD_REACTORS
330
AB8
102
}
330
AB8
100
AcDbXrecord
340
0
  0
XRECORD
  5
AC8
102
{ACAD_REACTORS
330
AB8
102
}
330
AB8
100
AcDbXrecord
 70
     0
  0
XRECORD
  5
AC9
102
{ACAD_REACTORS
330
AB8
102
}
330
AB8
100
AcDbXrecord
340
0
  0
XRECORD
  5
ACA
102
{ACAD_REACTORS
330
AB8
102
}
330
AB8
100
AcDbXrecord
 10
0.0
 20
0.0
 30
0.0
  0
XRECORD
  5
ACB
102
{ACAD_REACTORS
330
AB8
102
}
330
AB8
100
AcDbXrecord
 10
0.0
 20
0.0
 30
0.0
  0
XRECORD
  5
ACC
102
{ACAD_REACTORS
330
AB8
102
}
330
AB8
100
AcDbXrecord
 10
0.0
 20
0.0
 30
0.0
  0
XRECORD
  5
ACD
102
{ACAD_REACTORS
330
AB8
102
}
330
AB8
100
AcDbXrecord
 10
0.0
 20
0.0
 30
0.0
  0
XRECORD
  5
ACE
102
{ACAD_REACTORS
330
AB8
102
}
330
AB8
100
AcDbXrecord
 10
0.0
 20
0.0
 30
0.0
  0
XRECORD
  5
ACF
102
{ACAD_REACTORS
330
AB8
102
}
330
AB8
100
AcDbXrecord
 10
0.0
 20
0.0
 30
0.0
  0
XRECORD
  5
AD0
102
{ACAD_REACTORS
330
AB8
102
}
330
AB8
100
AcDbXrecord
340
0
  0
XRECORD
  5
AD1
102
{ACAD_REACTORS
330
AB8
102
}
330
AB8
100
AcDbXrecord
 70
     0
  0
XRECORD
  5
AD2
102
{ACAD_REACTORS
330
AB8
102
}
330
AB8
100
AcDbXrecord
340
0
  0
XRECORD
  5
AD3
102
{ACAD_REACTORS
330
AB8
102
}
330
AB8
100
AcDbXrecord
 10
0.0
 20
0.0
 30
0.0
  0
XRECORD
  5
AD4
102
{ACAD_REACTORS
330
AB8
102
}
330
AB8
100
AcDbXrecord
 10
0.0
 20
0.0
 30
0.0
  0
XRECORD
  5
AD5
102
{ACAD_REACTORS
330
AB8
102
}
330
AB8
100
AcDbXrecord
 10
0.0
 20
0.0
 30
0.0
  0
XRECORD
  5
AD6
102
{ACAD_REACTORS
330
AB8
102
}
330
AB8
100
AcDbXrecord
 10
0.0
 20
0.0
 30
0.0
  0
XRECORD
  5
AD7
102
{ACAD_REACTORS
330
AB8
102
}
330
AB8
100
AcDbXrecord
 10
0.0
 20
0.0
 30
0.0
  0
XRECORD
  5
AD8
102
{ACAD_REACTORS
330
AB8
102
}
330
AB8
100
AcDbXrecord
 10
0.0
 20
0.0
 30
0.0
  0
ENDSEC
  0
EOF
