  0
SECTION
  2
HEADER
  9
$ACADVER
  1
AC1014
  9
$ACADMAINTVER
 70
     9
  9
$DWGCODEPAGE
  3
ANSI_932
  9
$INSBASE
 10
0.0
 20
0.0
 30
0.0
  9
$EXTMIN
 10
-0.0256328098773793
 20
-0.0181264410437052
 30
-0.0000000100021362
  9
$EXTMAX
 10
797.6000995626677
 20
551.6452344607209
 30
0.0000000100021363
  9
$LIMMIN
 10
0.0
 20
0.0
  9
$LIMMAX
 10
840.0
 20
594.0
  9
$ORTHOMODE
 70
     0
  9
$REGENMODE
 70
     1
  9
$FILLMODE
 70
     1
  9
$QTEXTMODE
 70
     0
  9
$MIRRTEXT
 70
     1
  9
$DRAGMODE
 70
     2
  9
$LTSCALE
 40
2.0
  9
$OSMODE
 70
    35
  9
$ATTMODE
 70
     1
  9
$TEXTSIZE
 40
6.0
  9
$TRACEWID
 40
1.0
  9
$TEXTSTYLE
  7
STANDARD
  9
$CLAYER
  8
SUNPOU
  9
$CELTYPE
  6
BYLAYER
  9
$CECOLOR
 62
   256
  9
$CELTSCALE
 40
1.0
  9
$DELOBJ
 70
     1
  9
$DISPSILH
 70
     0
  9
$DIMSCALE
 40
1.0
  9
$DIMASZ
 40
7.0
  9
$DIMEXO
 40
6.0
  9
$DIMDLI
 40
14.0
  9
$DIMRND
 40
0.0
  9
$DIMDLE
 40
0.0
  9
$DIMEXE
 40
3.0
  9
$DIMTP
 40
0.0
  9
$DIMTM
 40
0.0
  9
$DIMTXT
 40
6.0
  9
$DIMCEN
 40
150.0
  9
$DIMTSZ
 40
0.0
  9
$DIMTOL
 70
     0
  9
$DIMLIM
 70
     0
  9
$DIMTIH
 70
     0
  9
$DIMTOH
 70
     0
  9
$DIMSE1
 70
     0
  9
$DIMSE2
 70
     0
  9
$DIMTAD
 70
     3
  9
$DIMZIN
 70
     0
  9
$DIMBLK
  1

  9
$DIMASO
 70
     1
  9
$DIMSHO
 70
     1
  9
$DIMPOST
  1

  9
$DIMAPOST
  1

  9
$DIMALT
 70
     0
  9
$DIMALTD
 70
     2
  9
$DIMALTF
 40
25.4
  9
$DIMLFAC
 40
1.0
  9
$DIMTOFL
 70
     1
  9
$DIMTVP
 40
0.0
  9
$DIMTIX
 70
     0
  9
$DIMSOXD
 70
     0
  9
$DIMSAH
 70
     1
  9
$DIMBLK1
  1
OPEN
  9
$DIMBLK2
  1
OPEN
  9
$DIMSTYLE
  2
STANDARD
  9
$DIMCLRD
 70
   256
  9
$DIMCLRE
 70
   256
  9
$DIMCLRT
 70
   256
  9
$DIMTFAC
 40
1.0
  9
$DIMGAP
 40
2.0
  9
$DIMJUST
 70
     0
  9
$DIMSD1
 70
     0
  9
$DIMSD2
 70
     0
  9
$DIMTOLJ
 70
     1
  9
$DIMTZIN
 70
     0
  9
$DIMALTZ
 70
     0
  9
$DIMALTTZ
 70
     0
  9
$DIMFIT
 70
     3
  9
$DIMUPT
 70
     0
  9
$DIMUNIT
 70
     2
  9
$DIMDEC
 70
     0
  9
$DIMTDEC
 70
     0
  9
$DIMALTU
 70
     2
  9
$DIMALTTD
 70
     2
  9
$DIMTXSTY
  7
STANDARD
  9
$DIMAUNIT
 70
     0
  9
$LUNITS
 70
     2
  9
$LUPREC
 70
     4
  9
$SKETCHINC
 40
1.0
  9
$FILLETRAD
 40
20.0
  9
$AUNITS
 70
     0
  9
$AUPREC
 70
     0
  9
$MENU
  1
.
  9
$ELEVATION
 40
0.0
  9
$PELEVATION
 40
0.0
  9
$THICKNESS
 40
0.0
  9
$LIMCHECK
 70
     0
  9
$BLIPMODE
 70
     0
  9
$CHAMFERA
 40
20.0
  9
$CHAMFERB
 40
20.0
  9
$CHAMFERC
 40
40.0
  9
$CHAMFERD
 40
0.0
  9
$SKPOLY
 70
     0
  9
$TDCREATE
 40
2451192.423918866
  9
$TDUPDATE
 40
2453802.483934270
  9
$TDINDWG
 40
0.1907718056
  9
$TDUSRTIMER
 40
0.1907718056
  9
$USRTIMER
 70
     1
  9
$ANGBASE
 50
0.0
  9
$ANGDIR
 70
     0
  9
$PDMODE
 70
     0
  9
$PDSIZE
 40
0.0
  9
$PLINEWID
 40
0.0
  9
$COORDS
 70
     1
  9
$SPLFRAME
 70
     0
  9
$SPLINETYPE
 70
     6
  9
$SPLINESEGS
 70
     8
  9
$ATTDIA
 70
     0
  9
$ATTREQ
 70
     1
  9
$HANDLING
 70
 10241
  9
$HANDSEED
  5
ABB
  9
$SURFTAB1
 70
     6
  9
$SURFTAB2
 70
     6
  9
$SURFTYPE
 70
     6
  9
$SURFU
 70
     6
  9
$SURFV
 70
     6
  9
$UCSNAME
  2

  9
$UCSORG
 10
0.0
 20
0.0
 30
0.0
  9
$UCSXDIR
 10
1.0
 20
0.0
 30
0.0
  9
$UCSYDIR
 10
0.0
 20
1.0
 30
0.0
  9
$PUCSNAME
  2

  9
$PUCSORG
 10
0.0
 20
0.0
 30
0.0
  9
$PUCSXDIR
 10
1.0
 20
0.0
 30
0.0
  9
$PUCSYDIR
 10
0.0
 20
1.0
 30
0.0
  9
$USERI1
 70
     0
  9
$USERI2
 70
     0
  9
$USERI3
 70
     0
  9
$USERI4
 70
     0
  9
$USERI5
 70
     0
  9
$USERR1
 40
0.0
  9
$USERR2
 40
0.0
  9
$USERR3
 40
0.0
  9
$USERR4
 40
0.0
  9
$USERR5
 40
0.0
  9
$WORLDVIEW
 70
     1
  9
$SHADEDGE
 70
     3
  9
$SHADEDIF
 70
    70
  9
$TILEMODE
 70
     1
  9
$MAXACTVP
 70
    16
  9
$PINSBASE
 10
0.0
 20
0.0
 30
0.0
  9
$PLIMCHECK
 70
     0
  9
$PEXTMIN
 10
0.0
 20
0.0
 30
0.0
  9
$PEXTMAX
 10
420.0
 20
297.0
 30
0.0
  9
$PLIMMIN
 10
0.0
 20
0.0
  9
$PLIMMAX
 10
420.0
 20
297.0
  9
$UNITMODE
 70
     0
  9
$VISRETAIN
 70
     0
  9
$PLINEGEN
 70
     0
  9
$PSLTSCALE
 70
     1
  9
$TREEDEPTH
 70
  3020
  9
$PICKSTYLE
 70
     1
  9
$CMLSTYLE
  2
STANDARD
  9
$CMLJUST
 70
     0
  9
$CMLSCALE
 40
1.0
  9
$PROXYGRAPHICS
 70
     1
  9
$MEASUREMENT
 70
     1
  0
ENDSEC
  0
SECTION
  2
CLASSES
  0
CLASS
  1
ACDBDICTIONARYWDFLT
  2
AcDbDictionaryWithDefault
  3
AutoCAD 2000
 90
        0
280
     0
281
     0
  0
CLASS
  1
ACDBPLACEHOLDER
  2
AcDbPlaceHolder
  3
AutoCAD 2000
 90
        0
280
     0
281
     0
  0
CLASS
  1
LAYOUT
  2
AcDbLayout
  3
AutoCAD 2000
 90
        0
280
     0
281
     0
  0
CLASS
  1
LONG_TRANSACTION
  2
AcDbLongTransaction
  3
AutoCAD 2000
 90
        0
280
     0
281
     0
  0
CLASS
  1
LWPOLYLINE
  2
AcDbPolyline
  3
AutoCAD 2000
 90
        0
280
     0
281
     1
  0
CLASS
  1
HATCH
  2
AcDbHatch
  3
AutoCAD 2000
 90
        0
280
     0
281
     1
  0
CLASS
  1
XRECORD
  2
AcDbXrecord
  3
AutoCAD 2000
 90
        0
280
     0
281
     0
  0
CLASS
  1
LONG_TRANSACTION
  2
AcDbLongTransaction
  3
AutoCAD 2000
 90
        0
280
     0
281
     0
  0
CLASS
  1
LWPOLYLINE
  2
AcDbPolyline
  3
AutoCAD 2000
 90
        0
280
     0
281
     1
  0
CLASS
  1
HATCH
  2
AcDbHatch
  3
AutoCAD 2000
 90
        0
280
     0
281
     1
  0
CLASS
  1
XRECORD
  2
AcDbXrecord
  3
AutoCAD 2000
 90
        0
280
     0
281
     0
  0
ENDSEC
  0
SECTION
  2
TABLES
  0
TABLE
  2
VPORT
  5
8
330
0
100
AcDbSymbolTable
 70
     2
  0
VPORT
  5
A97
330
8
100
AcDbSymbolTableRecord
100
AcDbViewportTableRecord
  2
*ACTIVE
 70
     0
 10
0.0
 20
0.0
 11
1.0
 21
1.0
 12
469.1645179785276
 22
270.2127821417215
 13
0.0
 23
0.0
 14
5.0
 24
5.0
 15
0.0
 25
0.0
 16
0.0
 26
0.0
 36
1.0
 17
0.0
 27
0.0
 37
0.0
 40
689.5853244237571
 41
1.795454545454545
 42
50.0
 43
0.0
 44
0.0
 50
0.0
 51
0.0
 71
     0
 72
   100
 73
     1
 74
     0
 75
     0
 76
     0
 77
     0
 78
     0
  0
ENDTAB
  0
TABLE
  2
LTYPE
  5
5
330
0
100
AcDbSymbolTable
 70
     3
  0
LTYPE
  5
14
330
5
100
AcDbSymbolTableRecord
100
AcDbLinetypeTableRecord
  2
BYBLOCK
 70
     0
  3

 72
    65
 73
     0
 40
0.0
  0
LTYPE
  5
15
330
5
100
AcDbSymbolTableRecord
100
AcDbLinetypeTableRecord
  2
BYLAYER
 70
     0
  3

 72
    65
 73
     0
 40
0.0
  0
LTYPE
  5
16
330
5
100
AcDbSymbolTableRecord
100
AcDbLinetypeTableRecord
  2
CONTINUOUS
 70
     0
  3
Solid line
 72
    65
 73
     0
 40
0.0
  0
LTYPE
  5
115
330
5
100
AcDbSymbolTableRecord
100
AcDbLinetypeTableRecord
  2
PHANTOM
 70
     0
  3
______  __  __  ______  __  __  ______  __  __ 
 72
    65
 73
     6
 40
2.5
 49
1.25
 74
     0
 49
-0.25
 74
     0
 49
0.25
 74
     0
 49
-0.25
 74
     0
 49
0.25
 74
     0
 49
-0.25
 74
     0
  0
LTYPE
  5
135
330
5
100
AcDbSymbolTableRecord
100
AcDbLinetypeTableRecord
  2
CENTER
 70
     0
  3
____ _ ____ _ ____ _ ____ _ ____ _ ____ _ ____ 
 72
    65
 73
     4
 40
2.0
 49
1.25
 74
     0
 49
-0.25
 74
     0
 49
0.25
 74
     0
 49
-0.25
 74
     0
  0
ENDTAB
  0
TABLE
  2
LAYER
  5
2
330
0
100
AcDbSymbolTable
 70
     9
  0
LAYER
  5
F
330
2
100
AcDbSymbolTableRecord
100
AcDbLayerTableRecord
  2
0
 70
     0
 62
     7
  6
CONTINUOUS
  0
LAYER
  5
62
330
2
100
AcDbSymbolTableRecord
100
AcDbLayerTableRecord
  2
VIEWPORT
 70
     0
 62
     7
  6
CONTINUOUS
  0
LAYER
  5
65
330
2
100
AcDbSymbolTableRecord
100
AcDbLayerTableRecord
  2
ZUWAKU
 70
     0
 62
     7
  6
CONTINUOUS
  0
LAYER
  5
191
330
2
100
AcDbSymbolTableRecord
100
AcDbLayerTableRecord
  2
SEIHIN
 70
     0
 62
     3
  6
CONTINUOUS
  0
LAYER
  5
192
330
2
100
AcDbSymbolTableRecord
100
AcDbLayerTableRecord
  2
SUNPOU
 70
     0
 62
     4
  6
CONTINUOUS
  0
LAYER
  5
193
330
2
100
AcDbSymbolTableRecord
100
AcDbLayerTableRecord
  2
CENTER_L
 70
     0
 62
     1
  6
CENTER
  0
LAYER
  5
194
330
2
100
AcDbSymbolTableRecord
100
AcDbLayerTableRecord
  2
NOKITOI
 70
     0
 62
     8
  6
PHANTOM
  0
LAYER
  5
195
330
2
100
AcDbSymbolTableRecord
100
AcDbLayerTableRecord
  2
DEFPOINTS
 70
     0
 62
     7
  6
CONTINUOUS
  0
LAYER
  5
920
330
2
100
AcDbSymbolTableRecord
100
AcDbLayerTableRecord
  2
MOJI
 70
     0
 62
     2
  6
CONTINUOUS
  0
ENDTAB
  0
TABLE
  2
STYLE
  5
3
330
0
100
AcDbSymbolTable
 70
     2
  0
STYLE
  5
10
330
3
100
AcDbSymbolTableRecord
100
AcDbTextStyleTableRecord
  2
STANDARD
 70
     0
 40
0.0
 41
1.0
 50
0.0
 71
     0
 42
6.0
  3
TXT
  4
bigfont.shx
  0
STYLE
  5
921
330
3
100
AcDbSymbolTableRecord
100
AcDbTextStyleTableRecord
  2
ｽﾀｲﾙ1
 70
     0
 40
0.0
 41
1.0
 50
0.0
 71
     0
 42
2.5
  3
MS PGothic.ttf
  4

1001
ACAD
1000
MS PGothic
1071
    32818
  0
ENDTAB
  0
TABLE
  2
VIEW
  5
6
330
0
100
AcDbSymbolTable
 70
     0
  0
ENDTAB
  0
TABLE
  2
UCS
  5
7
330
0
100
AcDbSymbolTable
 70
     0
  0
ENDTAB
  0
TABLE
  2
APPID
  5
9
330
0
100
AcDbSymbolTable
 70
     1
  0
APPID
  5
11
330
9
100
AcDbSymbolTableRecord
100
AcDbRegAppTableRecord
  2
ACAD
 70
     0
  0
ENDTAB
  0
TABLE
  2
DIMSTYLE
  5
A
330
0
100
AcDbSymbolTable
 70
     1
  0
DIMSTYLE
105
1D
102
{ACAD_REACTORS
330
505
330
506
330
507
330
508
330
558
330
592
330
76C
330
779
330
786
330
793
330
7A8
330
85C
330
869
330
878
330
885
330
8DE
102
}
330
A
100
AcDbSymbolTableRecord
100
AcDbDimStyleTableRecord
  2
STANDARD
 70
     0
  3

  4

  5

  6

  7

 40
1.0
 41
0.18
 42
0.0625
 43
0.38
 44
0.18
 45
0.0
 46
0.0
 47
0.0
 48
0.0
140
0.18
141
0.09
142
0.0
143
25.4
144
1.0
145
0.0
146
1.0
147
0.09
 71
     0
 72
     0
 73
     1
 74
     1
 75
     0
 76
     0
 77
     0
 78
     0
170
     0
171
     2
172
     0
173
     0
174
     0
175
     0
176
     0
177
     0
178
     0
270
     2
271
     4
272
     4
273
     2
274
     2
340
10
275
     0
280
     0
281
     0
282
     0
283
     1
284
     0
285
     0
286
     0
287
     3
288
     0
  0
ENDTAB
  0
TABLE
  2
BLOCK_RECORD
  5
1
330
0
100
AcDbSymbolTable
 70
    17
  0
BLOCK_RECORD
  5
1A
102
{ACAD_XDICTIONARY
360
912
102
}
330
1
100
AcDbSymbolTableRecord
100
AcDbBlockTableRecord
  2
*MODEL_SPACE
  0
BLOCK_RECORD
  5
17
102
{ACAD_XDICTIONARY
360
910
102
}
330
1
100
AcDbSymbolTableRecord
100
AcDbBlockTableRecord
  2
*PAPER_SPACE
  0
BLOCK_RECORD
  5
6D
330
1
100
AcDbSymbolTableRecord
100
AcDbBlockTableRecord
  2
_OPEN
  0
BLOCK_RECORD
  5
5AD
330
1
100
AcDbSymbolTableRecord
100
AcDbBlockTableRecord
  2
*D1
  0
BLOCK_RECORD
  5
5BB
330
1
100
AcDbSymbolTableRecord
100
AcDbBlockTableRecord
  2
*D2
  0
BLOCK_RECORD
  5
5C7
330
1
100
AcDbSymbolTableRecord
100
AcDbBlockTableRecord
  2
*D3
  0
BLOCK_RECORD
  5
5D5
330
1
100
AcDbSymbolTableRecord
100
AcDbBlockTableRecord
  2
*D4
  0
BLOCK_RECORD
  5
5E3
330
1
100
AcDbSymbolTableRecord
100
AcDbBlockTableRecord
  2
*D5
  0
BLOCK_RECORD
  5
5EF
330
1
100
AcDbSymbolTableRecord
100
AcDbBlockTableRecord
  2
*D6
  0
BLOCK_RECORD
  5
760
330
1
100
AcDbSymbolTableRecord
100
AcDbBlockTableRecord
  2
*D7
  0
BLOCK_RECORD
  5
76D
330
1
100
AcDbSymbolTableRecord
100
AcDbBlockTableRecord
  2
*D8
  0
BLOCK_RECORD
  5
77A
330
1
100
AcDbSymbolTableRecord
100
AcDbBlockTableRecord
  2
*D9
  0
BLOCK_RECORD
  5
787
330
1
100
AcDbSymbolTableRecord
100
AcDbBlockTableRecord
  2
*D10
  0
BLOCK_RECORD
  5
79A
330
1
100
AcDbSymbolTableRecord
100
AcDbBlockTableRecord
  2
*D11
  0
BLOCK_RECORD
  5
84E
330
1
100
AcDbSymbolTableRecord
100
AcDbBlockTableRecord
  2
*D12
  0
BLOCK_RECORD
  5
85D
330
1
100
AcDbSymbolTableRecord
100
AcDbBlockTableRecord
  2
*D13
  0
BLOCK_RECORD
  5
86A
330
1
100
AcDbSymbolTableRecord
100
AcDbBlockTableRecord
  2
*D14
  0
BLOCK_RECORD
  5
879
330
1
100
AcDbSymbolTableRecord
100
AcDbBlockTableRecord
  2
*D15
  0
BLOCK_RECORD
  5
8D0
330
1
100
AcDbSymbolTableRecord
100
AcDbBlockTableRecord
  2
*D16
  0
ENDTAB
  0
ENDSEC
  0
SECTION
  2
BLOCKS
  0
BLOCK
  5
1B
330
1A
100
AcDbEntity
  8
0
100
AcDbBlockBegin
  2
*MODEL_SPACE
 70
     0
 10
0.0
 20
0.0
 30
0.0
  3
*MODEL_SPACE
  1

  0
ENDBLK
  5
1C
330
1A
100
AcDbEntity
  8
0
100
AcDbBlockEnd
  0
BLOCK
  5
18
330
17
100
AcDbEntity
 67
     1
  8
0
100
AcDbBlockBegin
  2
*PAPER_SPACE
 70
     0
 10
0.0
 20
0.0
 30
0.0
  3
*PAPER_SPACE
  1

  0
ENDBLK
  5
19
330
17
100
AcDbEntity
 67
     1
  8
0
100
AcDbBlockEnd
  0
BLOCK
  5
6E
330
6D
100
AcDbEntity
  8
0
100
AcDbBlockBegin
  2
_OPEN
 70
     0
 10
0.0
 20
0.0
 30
0.0
  3
_OPEN
  1

  0
LINE
  5
6F
330
6D
100
AcDbEntity
  8
0
  6
BYBLOCK
 62
     0
100
AcDbLine
 10
-1.0
 20
0.1666666666666666
 30
0.0
 11
0.0
 21
0.0
 31
0.0
  0
LINE
  5
70
330
6D
100
AcDbEntity
  8
0
  6
BYBLOCK
 62
     0
100
AcDbLine
 10
0.0
 20
0.0
 30
0.0
 11
-1.0
 21
-0.1666666666666666
 31
0.0
  0
LINE
  5
71
330
6D
100
AcDbEntity
  8
0
  6
BYBLOCK
 62
     0
100
AcDbLine
 10
0.0
 20
0.0
 30
0.0
 11
-1.0
 21
0.0
 31
0.0
  0
ENDBLK
  5
72
330
6D
100
AcDbEntity
  8
0
100
AcDbBlockEnd
  0
BLOCK
  5
81A
330
5AD
100
AcDbEntity
  8
0
100
AcDbBlockBegin
  2
*D1
 70
     1
 10
0.0
 20
0.0
 30
0.0
  3
*D1
  1

  0
LINE
  5
81B
330
5AD
100
AcDbEntity
  8
0
  6
BYBLOCK
 62
     4
100
AcDbLine
 10
574.516614921733
 20
338.3521125184174
 30
0.0
 11
510.2035913940577
 21
312.6287383389781
 31
0.0
  0
LINE
  5
81C
330
5AD
100
AcDbEntity
  8
0
  6
BYBLOCK
 62
     4
100
AcDbLine
 10
584.0257149217332
 20
331.3851125184176
 30
0.0
 11
513.9173197508632
 21
303.3437550579924
 31
0.0
  0
LINE
  5
81D
330
5AD
100
AcDbEntity
  8
0
  6
BYBLOCK
 62
     4
100
AcDbLine
 10
510.3894740258488
 20
320.2422426337952
 30
0.0
 11
507.7898991769972
 21
326.7416434219616
 31
0.0
  0
LINE
  5
81E
330
5AD
100
AcDbEntity
  8
0
  6
BYBLOCK
 62
     4
100
AcDbLine
 10
519.3023520803577
 20
297.9584577764766
 30
0.0
 11
525.9869731202619
 21
281.2457128926201
 31
0.0
  0
LINE
  5
81F
330
5AD
100
AcDbEntity
  8
0
  6
BYBLOCK
 62
     4
100
AcDbLine
 10
512.9890488747005
 20
313.7428418456288
 30
0.0
 11
516.7027772315061
 21
304.457858564643
 31
0.0
  0
INSERT
  5
820
330
5AD
100
AcDbEntity
  8
0
  6
BYBLOCK
 62
     4
100
AcDbBlockReference
  2
_OPEN
 10
512.9890488747005
 20
313.7428418456288
 30
0.0
 41
7.0
 42
7.0
 43
7.0
 50
291.7999999999998
  0
INSERT
  5
821
330
5AD
100
AcDbEntity
  8
0
  6
BYBLOCK
 62
     4
100
AcDbBlockReference
  2
_OPEN
 10
516.7027772315061
 20
304.457858564643
 30
0.0
 41
7.0
 42
7.0
 43
7.0
 50
111.7999999999998
  0
MTEXT
  5
822
330
5AD
100
AcDbEntity
  8
0
  6
BYBLOCK
 62
     4
100
AcDbMText
 10
528.5868791591401
 20
288.2092241182164
 30
0.0
 40
6.0
 41
0.0
 71
     5
 72
     5
  1
\A1;10
 11
0.3713678355502318
 21
-0.9284858268809147
 31
0.0
1001
ACAD
1000
MTEXTBEGIN
1070
    73
1070
     1
1070
    44
1040
1.0
1070
    74
1070
     0
1000
MTEXTEND
1000
MTEXTBEGIN
1070
    73
1070
     1
1070
    44
1040
1.0
1070
    74
1070
     0
1000
MTEXTEND
  0
POINT
  5
823
330
5AD
100
AcDbEntity
  8
DEFPOINTS
  6
BYBLOCK
 62
     0
100
AcDbPoint
 10
580.0875298830185
 20
340.5803195317188
 30
0.0
  0
POINT
  5
824
330
5AD
100
AcDbEntity
  8
DEFPOINTS
  6
BYBLOCK
 62
     0
100
AcDbPoint
 10
589.5966298830187
 20
333.613319531719
 30
0.0
  0
POINT
  5
825
330
5AD
100
AcDbEntity
  8
DEFPOINTS
  6
BYBLOCK
 62
     0
100
AcDbPoint
 10
516.7027772315061
 20
304.457858564643
 30
0.0
  0
ENDBLK
  5
826
330
5AD
100
AcDbEntity
  8
0
100
AcDbBlockEnd
  0
BLOCK
  5
841
330
5BB
100
AcDbEntity
  8
0
100
AcDbBlockBegin
  2
*D2
 70
     1
 10
0.0
 20
0.0
 30
0.0
  3
*D2
  1

  0
LINE
  5
842
330
5BB
100
AcDbEntity
  8
0
  6
BYBLOCK
 62
     4
100
AcDbLine
 10
565.4574149217331
 20
377.8095125184175
 30
0.0
 11
466.4795351174096
 21
338.2211850220656
 31
0.0
  0
LINE
  5
843
330
5BB
100
AcDbEntity
  8
0
  6
BYBLOCK
 62
     4
100
AcDbLine
 10
584.0257149217332
 20
331.3852125184176
 30
0.0
 11
485.0479172221686
 21
291.7969178616265
 31
0.0
  0
LINE
  5
844
330
5BB
100
AcDbEntity
  8
0
  6
BYBLOCK
 62
     4
100
AcDbLine
 10
471.864567446904
 20
332.8358877405499
 30
0.0
 11
485.2337998539598
 21
299.4104221564435
 31
0.0
  0
INSERT
  5
845
330
5BB
100
AcDbEntity
  8
0
  6
BYBLOCK
 62
     4
100
AcDbBlockReference
  2
_OPEN
 10
469.2649925980524
 20
339.3352885287164
 30
0.0
 41
7.0
 42
7.0
 43
7.0
 50
111.7999999999998
  0
INSERT
  5
846
330
5BB
100
AcDbEntity
  8
0
  6
BYBLOCK
 62
     4
100
AcDbBlockReference
  2
_OPEN
 10
487.8333747028114
 20
292.9110213682772
 30
0.0
 41
7.0
 42
7.0
 43
7.0
 50
291.7999999999998
  0
MTEXT
  5
847
330
5BB
100
AcDbEntity
  8
0
  6
BYBLOCK
 62
     4
100
AcDbMText
 10
483.1916127848365
 20
317.9799941262479
 30
0.0
 40
6.0
 41
0.0
 71
     5
 72
     5
  1
\A1;50
 11
0.3713678355502318
 21
-0.9284858268809147
 31
0.0
1001
ACAD
1000
MTEXTBEGIN
1070
    73
1070
     1
1070
    44
1040
1.0
1070
    74
1070
     0
1000
MTEXTEND
1000
MTEXTBEGIN
1070
    73
1070
     1
1070
    44
1040
1.0
1070
    74
1070
     0
1000
MTEXTEND
  0
POINT
  5
848
330
5BB
100
AcDbEntity
  8
DEFPOINTS
  6
BYBLOCK
 62
     0
100
AcDbPoint
 10
571.0283298830185
 20
380.0377195317188
 30
0.0
  0
POINT
  5
849
330
5BB
100
AcDbEntity
  8
DEFPOINTS
  6
BYBLOCK
 62
     0
100
AcDbPoint
 10
589.5966298830186
 20
333.6134195317189
 30
0.0
  0
POINT
  5
84A
330
5BB
100
AcDbEntity
  8
DEFPOINTS
  6
BYBLOCK
 62
     0
100
AcDbPoint
 10
487.8333747028114
 20
292.9110213682772
 30
0.0
  0
ENDBLK
  5
84B
330
5BB
100
AcDbEntity
  8
0
100
AcDbBlockEnd
  0
BLOCK
  5
834
330
5C7
100
AcDbEntity
  8
0
100
AcDbBlockBegin
  2
*D3
 70
     1
 10
0.0
 20
0.0
 30
0.0
  3
*D3
  1

  0
LINE
  5
835
330
5C7
100
AcDbEntity
  8
0
  6
BYBLOCK
 62
     4
100
AcDbLine
 10
565.4574149217331
 20
377.8095125184175
 30
0.0
 11
480.8212350192881
 21
343.9574557291409
 31
0.0
  0
LINE
  5
836
330
5C7
100
AcDbEntity
  8
0
  6
BYBLOCK
 62
     4
100
AcDbLine
 10
561.7430984553387
 20
360.1686453583566
 30
0.0
 11
486.3917219018205
 21
330.0302449581967
 31
0.0
  0
LINE
  5
837
330
5C7
100
AcDbEntity
  8
0
  6
BYBLOCK
 62
     4
100
AcDbLine
 10
481.0071176510792
 20
351.570960023958
 30
0.0
 11
478.4075428022275
 21
358.0703608121244
 31
0.0
  0
LINE
  5
838
330
5C7
100
AcDbEntity
  8
0
  6
BYBLOCK
 62
     4
100
AcDbLine
 10
491.7767542313149
 20
324.644947676681
 30
0.0
 11
494.3763290801665
 21
318.1455468885146
 31
0.0
  0
LINE
  5
839
330
5C7
100
AcDbEntity
  8
0
  6
BYBLOCK
 62
     4
100
AcDbLine
 10
483.6066924999308
 20
345.0715592357917
 30
0.0
 11
489.1771793824633
 21
331.1443484648474
 31
0.0
  0
INSERT
  5
83A
330
5C7
100
AcDbEntity
  8
0
  6
BYBLOCK
 62
     4
100
AcDbBlockReference
  2
_OPEN
 10
483.6066924999308
 20
345.0715592357917
 30
0.0
 41
7.0
 42
7.0
 43
7.0
 50
291.7999999999998
  0
INSERT
  5
83B
330
5C7
100
AcDbEntity
  8
0
  6
BYBLOCK
 62
     4
100
AcDbBlockReference
  2
_OPEN
 10
489.1771793824633
 20
331.1443484648474
 30
0.0
 41
7.0
 42
7.0
 43
7.0
 50
111.7999999999998
  0
MTEXT
  5
83C
330
5C7
100
AcDbEntity
  8
0
  6
BYBLOCK
 62
     4
100
AcDbMText
 10
491.0343650756016
 20
339.9647930280706
 30
0.0
 40
6.0
 41
0.0
 71
     5
 72
     5
  1
\A1;15
 11
0.3713678355502318
 21
-0.9284858268809147
 31
0.0
1001
ACAD
1000
MTEXTBEGIN
1070
    73
1070
     1
1070
    44
1040
1.0
1070
    74
1070
     0
1000
MTEXTEND
1000
MTEXTBEGIN
1070
    73
1070
     1
1070
    44
1040
1.0
1070
    74
1070
     0
1000
MTEXTEND
  0
POINT
  5
83D
330
5C7
100
AcDbEntity
  8
DEFPOINTS
  6
BYBLOCK
 62
     0
100
AcDbPoint
 10
571.0283298830185
 20
380.0377195317188
 30
0.0
  0
POINT
  5
83E
330
5C7
100
AcDbEntity
  8
DEFPOINTS
  6
BYBLOCK
 62
     0
100
AcDbPoint
 10
567.3140134166243
 20
362.396852371658
 30
0.0
  0
POINT
  5
83F
330
5C7
100
AcDbEntity
  8
DEFPOINTS
  6
BYBLOCK
 62
     0
100
AcDbPoint
 10
489.1771793824633
 20
331.1443484648474
 30
0.0
  0
ENDBLK
  5
840
330
5C7
100
AcDbEntity
  8
0
100
AcDbBlockEnd
  0
BLOCK
  5
827
330
5D5
100
AcDbEntity
  8
0
100
AcDbBlockBegin
  2
*D4
 70
     1
 10
0.0
 20
0.0
 30
0.0
  3
*D4
  1

  0
LINE
  5
828
330
5D5
100
AcDbEntity
  8
0
  6
BYBLOCK
 62
     4
100
AcDbLine
 10
563.5002149217333
 20
366.2565125184174
 30
0.0
 11
499.0625650431187
 21
340.4832913549306
 31
0.0
  0
LINE
  5
829
330
5D5
100
AcDbEntity
  8
0
  6
BYBLOCK
 62
     4
100
AcDbLine
 10
565.4574149217331
 20
377.8095125184175
 30
0.0
 11
495.3489031651269
 21
349.7681084270245
 31
0.0
  0
LINE
  5
82A
330
5D5
100
AcDbEntity
  8
0
  6
BYBLOCK
 62
     4
100
AcDbLine
 10
504.447597372613
 20
335.0979940734149
 30
0.0
 11
507.0471722214646
 21
328.5985932852485
 31
0.0
  0
LINE
  5
82B
330
5D5
100
AcDbEntity
  8
0
  6
BYBLOCK
 62
     4
100
AcDbLine
 10
495.5347857969179
 20
357.3816127218416
 30
0.0
 11
488.8501647570138
 21
374.094357605698
 31
0.0
  0
LINE
  5
82C
330
5D5
100
AcDbEntity
  8
0
  6
BYBLOCK
 62
     4
100
AcDbLine
 10
501.8480225237614
 20
341.5973948615813
 30
0.0
 11
498.1343606457696
 21
350.8822119336751
 31
0.0
  0
INSERT
  5
82D
330
5D5
100
AcDbEntity
  8
0
  6
BYBLOCK
 62
     4
100
AcDbBlockReference
  2
_OPEN
 10
501.8480225237614
 20
341.5973948615813
 30
0.0
 41
7.0
 42
7.0
 43
7.0
 50
111.7999999999998
  0
INSERT
  5
82E
330
5D5
100
AcDbEntity
  8
0
  6
BYBLOCK
 62
     4
100
AcDbBlockReference
  2
_OPEN
 10
498.1343606457696
 20
350.8822119336751
 30
0.0
 41
7.0
 42
7.0
 43
7.0
 50
291.7999999999998
  0
MTEXT
  5
82F
330
5D5
100
AcDbEntity
  8
0
  6
BYBLOCK
 62
     4
100
AcDbMText
 10
495.5351169869446
 20
370.8445247356042
 30
0.0
 40
6.0
 41
0.0
 71
     5
 72
     5
  1
\A1;10
 11
0.3713678355502318
 21
-0.9284858268809147
 31
0.0
1001
ACAD
1000
MTEXTBEGIN
1070
    73
1070
     1
1070
    44
1040
1.0
1070
    74
1070
     0
1000
MTEXTEND
1000
MTEXTBEGIN
1070
    73
1070
     1
1070
    44
1040
1.0
1070
    74
1070
     0
1000
MTEXTEND
  0
POINT
  5
830
330
5D5
100
AcDbEntity
  8
DEFPOINTS
  6
BYBLOCK
 62
     0
100
AcDbPoint
 10
569.0711298830187
 20
368.4847195317189
 30
0.0
  0
POINT
  5
831
330
5D5
100
AcDbEntity
  8
DEFPOINTS
  6
BYBLOCK
 62
     0
100
AcDbPoint
 10
571.0283298830185
 20
380.0377195317188
 30
0.0
  0
POINT
  5
832
330
5D5
100
AcDbEntity
  8
DEFPOINTS
  6
BYBLOCK
 62
     0
100
AcDbPoint
 10
498.1343606457696
 20
350.8822119336751
 30
0.0
  0
ENDBLK
  5
833
330
5D5
100
AcDbEntity
  8
0
100
AcDbBlockEnd
  0
BLOCK
  5
802
330
5E3
100
AcDbEntity
  8
0
100
AcDbBlockBegin
  2
*D5
 70
     1
 10
0.0
 20
0.0
 30
0.0
  3
*D5
  1

  0
LINE
  5
803
330
5E3
100
AcDbEntity
  8
0
  6
BYBLOCK
 62
     4
100
AcDbLine
 10
563.2290228697176
 20
372.6101344930045
 30
0.0
 11
544.8663438447201
 21
418.5201072643738
 31
0.0
  0
LINE
  5
804
330
5E3
100
AcDbEntity
  8
0
  6
BYBLOCK
 62
     4
100
AcDbLine
 10
621.7235228697173
 20
396.0062344930045
 30
0.0
 11
603.3608332227441
 21
441.9162338212081
 31
0.0
  0
LINE
  5
805
330
5E3
100
AcDbEntity
  8
0
  6
BYBLOCK
 62
     4
100
AcDbLine
 10
552.4798481395372
 20
418.3342246325826
 30
0.0
 11
597.9755359412283
 21
436.5312014917138
 31
0.0
  0
INSERT
  5
806
330
5E3
100
AcDbEntity
  8
0
  6
BYBLOCK
 62
     4
100
AcDbBlockReference
  2
_OPEN
 10
545.9804473513709
 20
415.7346497837311
 30
0.0
 41
7.0
 42
7.0
 43
7.0
 50
201.7999999999998
  0
INSERT
  5
807
330
5E3
100
AcDbEntity
  8
0
  6
BYBLOCK
 62
     4
100
AcDbBlockReference
  2
_OPEN
 10
604.4749367293948
 20
439.1307763405653
 30
0.0
 41
7.0
 42
7.0
 43
7.0
 50
21.79999999999984
  0
MTEXT
  5
808
330
5E3
100
AcDbEntity
  8
0
  6
BYBLOCK
 62
     4
100
AcDbMText
 10
573.3708528626316
 20
432.0751421965528
 30
0.0
 40
6.0
 41
0.0
 71
     5
 72
     5
  1
\A1;63
 11
0.9284858268809145
 21
0.3713678355502322
 31
0.0
1001
ACAD
1000
MTEXTBEGIN
1070
    73
1070
     1
1070
    44
1040
1.0
1070
    74
1070
     0
1000
MTEXTEND
1000
MTEXTBEGIN
1070
    73
1070
     1
1070
    44
1040
1.0
1070
    74
1070
     0
1000
MTEXTEND
  0
POINT
  5
809
330
5E3
100
AcDbEntity
  8
DEFPOINTS
  6
BYBLOCK
 62
     0
100
AcDbPoint
 10
565.4572298830189
 20
367.0392195317191
 30
0.0
  0
POINT
  5
80A
330
5E3
100
AcDbEntity
  8
DEFPOINTS
  6
BYBLOCK
 62
     0
100
AcDbPoint
 10
623.9517298830187
 20
390.435319531719
 30
0.0
  0
POINT
  5
80B
330
5E3
100
AcDbEntity
  8
DEFPOINTS
  6
BYBLOCK
 62
     0
100
AcDbPoint
 10
604.4749367293948
 20
439.1307763405653
 30
0.0
  0
ENDBLK
  5
80C
330
5E3
100
AcDbEntity
  8
0
100
AcDbBlockEnd
  0
BLOCK
  5
80D
330
5EF
100
AcDbEntity
  8
0
100
AcDbBlockBegin
  2
*D6
 70
     1
 10
0.0
 20
0.0
 30
0.0
  3
*D6
  1

  0
LINE
  5
80E
330
5EF
100
AcDbEntity
  8
0
  6
BYBLOCK
 62
     4
100
AcDbLine
 10
569.2512228697174
 20
379.0953344930047
 30
0.0
 11
557.9940262253672
 21
407.2403339628815
 31
0.0
  0
LINE
  5
80F
330
5EF
100
AcDbEntity
  8
0
  6
BYBLOCK
 62
     4
100
AcDbLine
 10
612.8901228697174
 20
396.5495344930045
 30
0.0
 11
601.6328866675445
 21
424.6946328644936
 31
0.0
  0
LINE
  5
810
330
5EF
100
AcDbEntity
  8
0
  6
BYBLOCK
 62
     4
100
AcDbLine
 10
565.6075305201844
 20
407.0544513310903
 30
0.0
 11
596.2475893860288
 21
419.3096005349993
 31
0.0
  0
INSERT
  5
811
330
5EF
100
AcDbEntity
  8
0
  6
BYBLOCK
 62
     4
100
AcDbBlockReference
  2
_OPEN
 10
559.1081297320179
 20
404.4548764822387
 30
0.0
 41
7.0
 42
7.0
 43
7.0
 50
201.7999999999998
  0
INSERT
  5
812
330
5EF
100
AcDbEntity
  8
0
  6
BYBLOCK
 62
     4
100
AcDbBlockReference
  2
_OPEN
 10
602.7469901741953
 20
421.9091753838508
 30
0.0
 41
7.0
 42
7.0
 43
7.0
 50
21.79999999999984
  0
MTEXT
  5
813
330
5EF
100
AcDbEntity
  8
0
  6
BYBLOCK
 62
     4
100
AcDbMText
 10
579.0707207753554
 20
417.8244550674493
 30
0.0
 40
6.0
 41
0.0
 71
     5
 72
     5
  1
\A1;47
 11
0.9284858268809145
 21
0.3713678355502322
 31
0.0
1001
ACAD
1000
MTEXTBEGIN
1070
    73
1070
     1
1070
    44
1040
1.0
1070
    74
1070
     0
1000
MTEXTEND
1000
MTEXTBEGIN
1070
    73
1070
     1
1070
    44
1040
1.0
1070
    74
1070
     0
1000
MTEXTEND
  0
POINT
  5
814
330
5EF
100
AcDbEntity
  8
DEFPOINTS
  6
BYBLOCK
 62
     0
100
AcDbPoint
 10
571.4794298830189
 20
373.5244195317192
 30
0.0
  0
POINT
  5
815
330
5EF
100
AcDbEntity
  8
DEFPOINTS
  6
BYBLOCK
 62
     0
100
AcDbPoint
 10
615.1183298830188
 20
390.978619531719
 30
0.0
  0
POINT
  5
816
330
5EF
100
AcDbEntity
  8
DEFPOINTS
  6
BYBLOCK
 62
     0
100
AcDbPoint
 10
602.7469901741953
 20
421.9091753838508
 30
0.0
  0
ENDBLK
  5
817
330
5EF
100
AcDbEntity
  8
0
100
AcDbBlockEnd
  0
BLOCK
  5
761
330
760
100
AcDbEntity
  8
0
100
AcDbBlockBegin
  2
*D7
 70
     1
 10
0.0
 20
0.0
 30
0.0
  3
*D7
  1

  0
LINE
  5
762
330
760
100
AcDbEntity
  8
0
  6
BYBLOCK
 62
     4
100
AcDbLine
 10
415.1658337496875
 20
323.6970792097669
 30
0.0
 11
415.1658337496875
 21
351.4759348391046
 31
0.0
  0
LINE
  5
763
330
760
100
AcDbEntity
  8
0
  6
BYBLOCK
 62
     4
100
AcDbLine
 10
369.1102081001395
 20
295.8884889006435
 30
0.0
 11
369.1102081001395
 21
351.4759348391046
 31
0.0
  0
LINE
  5
764
330
760
100
AcDbEntity
  8
0
  6
BYBLOCK
 62
     4
100
AcDbLine
 10
408.1658337496874
 20
348.4759348391046
 30
0.0
 11
376.1102081001395
 21
348.4759348391046
 31
0.0
  0
INSERT
  5
765
330
760
100
AcDbEntity
  8
0
  6
BYBLOCK
 62
     4
100
AcDbBlockReference
  2
_OPEN
 10
415.1658337496875
 20
348.4759348391046
 30
0.0
 41
7.0
 42
7.0
 43
7.0
  0
INSERT
  5
766
330
760
100
AcDbEntity
  8
0
  6
BYBLOCK
 62
     4
100
AcDbBlockReference
  2
_OPEN
 10
369.1102081001395
 20
348.4759348391046
 30
0.0
 41
7.0
 42
7.0
 43
7.0
 50
180.0
  0
MTEXT
  5
767
330
760
100
AcDbEntity
  8
0
  6
BYBLOCK
 62
     4
100
AcDbMText
 10
392.1380209249135
 20
353.4759348391046
 30
0.0
 40
6.0
 41
0.0
 71
     5
 72
     5
  1
\A1;46
1001
ACAD
1000
MTEXTBEGIN
1070
    73
1070
     1
1070
    44
1040
1.0
1070
    74
1070
     0
1000
MTEXTEND
1000
MTEXTBEGIN
1070
    73
1070
     1
1070
    44
1040
1.0
1070
    74
1070
     0
1000
MTEXTEND
  0
POINT
  5
768
330
760
100
AcDbEntity
  8
DEFPOINTS
  6
BYBLOCK
 62
     0
100
AcDbPoint
 10
415.1658337496875
 20
317.6970792097669
 30
0.0
  0
POINT
  5
769
330
760
100
AcDbEntity
  8
DEFPOINTS
  6
BYBLOCK
 62
     0
100
AcDbPoint
 10
369.1102081001395
 20
289.8884889006435
 30
0.0
  0
POINT
  5
76A
330
760
100
AcDbEntity
  8
DEFPOINTS
  6
BYBLOCK
 62
     0
100
AcDbPoint
 10
369.1102081001395
 20
348.4759348391046
 30
0.0
  0
ENDBLK
  5
76B
330
760
100
AcDbEntity
  8
0
100
AcDbBlockEnd
  0
BLOCK
  5
76E
330
76D
100
AcDbEntity
  8
0
100
AcDbBlockBegin
  2
*D8
 70
     1
 10
0.0
 20
0.0
 30
0.0
  3
*D8
  1

  0
LINE
  5
76F
330
76D
100
AcDbEntity
  8
0
  6
BYBLOCK
 62
     4
100
AcDbLine
 10
415.1658337496875
 20
323.6970792097669
 30
0.0
 11
415.1658337496875
 21
365.8703925492214
 31
0.0
  0
LINE
  5
770
330
76D
100
AcDbEntity
  8
0
  6
BYBLOCK
 62
     4
100
AcDbLine
 10
285.1658337496875
 20
292.3727792097669
 30
0.0
 11
285.1658337496875
 21
365.8703925492214
 31
0.0
  0
LINE
  5
771
330
76D
100
AcDbEntity
  8
0
  6
BYBLOCK
 62
     4
100
AcDbLine
 10
408.1658337496874
 20
362.8703925492213
 30
0.0
 11
292.1658337496875
 21
362.8703925492213
 31
0.0
  0
INSERT
  5
772
330
76D
100
AcDbEntity
  8
0
  6
BYBLOCK
 62
     4
100
AcDbBlockReference
  2
_OPEN
 10
415.1658337496875
 20
362.8703925492213
 30
0.0
 41
7.0
 42
7.0
 43
7.0
  0
INSERT
  5
773
330
76D
100
AcDbEntity
  8
0
  6
BYBLOCK
 62
     4
100
AcDbBlockReference
  2
_OPEN
 10
285.1658337496875
 20
362.8703925492213
 30
0.0
 41
7.0
 42
7.0
 43
7.0
 50
180.0
  0
MTEXT
  5
774
330
76D
100
AcDbEntity
  8
0
  6
BYBLOCK
 62
     4
100
AcDbMText
 10
350.1658337496875
 20
367.8703925492214
 30
0.0
 40
6.0
 41
0.0
 71
     5
 72
     5
  1
\A1;130
1001
ACAD
1000
MTEXTBEGIN
1070
    73
1070
     1
1070
    44
1040
1.0
1070
    74
1070
     0
1000
MTEXTEND
1000
MTEXTBEGIN
1070
    73
1070
     1
1070
    44
1040
1.0
1070
    74
1070
     0
1000
MTEXTEND
  0
POINT
  5
775
330
76D
100
AcDbEntity
  8
DEFPOINTS
  6
BYBLOCK
 62
     0
100
AcDbPoint
 10
415.1658337496875
 20
317.6970792097669
 30
0.0
  0
POINT
  5
776
330
76D
100
AcDbEntity
  8
DEFPOINTS
  6
BYBLOCK
 62
     0
100
AcDbPoint
 10
285.1658337496875
 20
286.3727792097669
 30
0.0
  0
POINT
  5
777
330
76D
100
AcDbEntity
  8
DEFPOINTS
  6
BYBLOCK
 62
     0
100
AcDbPoint
 10
285.1658337496875
 20
362.8703925492213
 30
0.0
  0
ENDBLK
  5
778
330
76D
100
AcDbEntity
  8
0
100
AcDbBlockEnd
  0
BLOCK
  5
77B
330
77A
100
AcDbEntity
  8
0
100
AcDbBlockBegin
  2
*D9
 70
     1
 10
0.0
 20
0.0
 30
0.0
  3
*D9
  1

  0
LINE
  5
77C
330
77A
100
AcDbEntity
  8
0
  6
BYBLOCK
 62
     4
100
AcDbLine
 10
251.1658337496873
 20
287.0726792097668
 30
0.0
 11
251.1658337496873
 21
380.7697593077568
 31
0.0
  0
LINE
  5
77D
330
77A
100
AcDbEntity
  8
0
  6
BYBLOCK
 62
     4
100
AcDbLine
 10
415.1658337496875
 20
323.6970792097669
 30
0.0
 11
415.1658337496875
 21
380.7697593077568
 31
0.0
  0
LINE
  5
77E
330
77A
100
AcDbEntity
  8
0
  6
BYBLOCK
 62
     4
100
AcDbLine
 10
258.1658337496874
 20
377.7697593077569
 30
0.0
 11
408.1658337496874
 21
377.7697593077569
 31
0.0
  0
INSERT
  5
77F
330
77A
100
AcDbEntity
  8
0
  6
BYBLOCK
 62
     4
100
AcDbBlockReference
  2
_OPEN
 10
251.1658337496873
 20
377.7697593077569
 30
0.0
 41
7.0
 42
7.0
 43
7.0
 50
180.0
  0
INSERT
  5
780
330
77A
100
AcDbEntity
  8
0
  6
BYBLOCK
 62
     4
100
AcDbBlockReference
  2
_OPEN
 10
415.1658337496875
 20
377.7697593077569
 30
0.0
 41
7.0
 42
7.0
 43
7.0
  0
MTEXT
  5
781
330
77A
100
AcDbEntity
  8
0
  6
BYBLOCK
 62
     4
100
AcDbMText
 10
333.1658337496874
 20
382.7697593077568
 30
0.0
 40
6.0
 41
0.0
 71
     5
 72
     5
  1
\A1;164
1001
ACAD
1000
MTEXTBEGIN
1070
    73
1070
     1
1070
    44
1040
1.0
1070
    74
1070
     0
1000
MTEXTEND
1000
MTEXTBEGIN
1070
    73
1070
     1
1070
    44
1040
1.0
1070
    74
1070
     0
1000
MTEXTEND
  0
POINT
  5
782
330
77A
100
AcDbEntity
  8
DEFPOINTS
  6
BYBLOCK
 62
     0
100
AcDbPoint
 10
251.1658337496873
 20
281.0726792097668
 30
0.0
  0
POINT
  5
783
330
77A
100
AcDbEntity
  8
DEFPOINTS
  6
BYBLOCK
 62
     0
100
AcDbPoint
 10
415.1658337496875
 20
317.6970792097669
 30
0.0
  0
POINT
  5
784
330
77A
100
AcDbEntity
  8
DEFPOINTS
  6
BYBLOCK
 62
     0
100
AcDbPoint
 10
415.1658337496875
 20
377.7697593077569
 30
0.0
  0
ENDBLK
  5
785
330
77A
100
AcDbEntity
  8
0
100
AcDbBlockEnd
  0
BLOCK
  5
788
330
787
100
AcDbEntity
  8
0
100
AcDbBlockBegin
  2
*D10
 70
     1
 10
0.0
 20
0.0
 30
0.0
  3
*D10
  1

  0
LINE
  5
789
330
787
100
AcDbEntity
  8
0
  6
BYBLOCK
 62
     4
100
AcDbLine
 10
420.7367485140029
 20
319.9252867155282
 30
0.0
 11
452.5037116094641
 21
332.6311687114175
 31
0.0
  0
LINE
  5
78A
330
787
100
AcDbEntity
  8
0
  6
BYBLOCK
 62
     4
100
AcDbLine
 10
439.305148514003
 20
273.5009867155282
 30
0.0
 11
471.0721116094641
 21
286.2068687114175
 31
0.0
  0
LINE
  5
78B
330
787
100
AcDbEntity
  8
0
  6
BYBLOCK
 62
     4
100
AcDbLine
 10
452.3178296506945
 20
325.0176644001687
 30
0.0
 11
465.6870788039181
 21
291.5921655169049
 31
0.0
  0
INSERT
  5
78C
330
787
100
AcDbEntity
  8
0
  6
BYBLOCK
 62
     4
100
AcDbBlockReference
  2
_OPEN
 10
449.7182542273063
 20
331.5170649585368
 30
0.0
 41
7.0
 42
7.0
 43
7.0
 50
111.800005064855
  0
INSERT
  5
78D
330
787
100
AcDbEntity
  8
0
  6
BYBLOCK
 62
     4
100
AcDbBlockReference
  2
_OPEN
 10
468.2866542273063
 20
285.0927649585368
 30
0.0
 41
7.0
 42
7.0
 43
7.0
 50
291.800005064855
  0
MTEXT
  5
78E
330
787
100
AcDbEntity
  8
0
  6
BYBLOCK
 62
     4
100
AcDbMText
 10
463.6448831975693
 20
310.1617545466713
 30
0.0
 40
6.0
 41
0.0
 71
     5
 72
     5
  1
\A1;50
 11
0.3713679176268921
 21
-0.9284857940525887
 31
0.0
1001
ACAD
1000
MTEXTBEGIN
1070
    73
1070
     1
1070
    44
1040
1.0
1070
    74
1070
     0
1000
MTEXTEND
1000
MTEXTBEGIN
1070
    73
1070
     1
1070
    44
1040
1.0
1070
    74
1070
     0
1000
MTEXTEND
  0
POINT
  5
78F
330
787
100
AcDbEntity
  8
DEFPOINTS
  6
BYBLOCK
 62
     0
100
AcDbPoint
 10
415.1658337496873
 20
317.6970792097669
 30
0.0
  0
POINT
  5
790
330
787
100
AcDbEntity
  8
DEFPOINTS
  6
BYBLOCK
 62
     0
100
AcDbPoint
 10
433.7342337496874
 20
271.2727792097668
 30
0.0
  0
POINT
  5
791
330
787
100
AcDbEntity
  8
DEFPOINTS
  6
BYBLOCK
 62
     0
100
AcDbPoint
 10
468.2866542273063
 20
285.0927649585368
 30
0.0
  0
ENDBLK
  5
792
330
787
100
AcDbEntity
  8
0
100
AcDbBlockEnd
  0
BLOCK
  5
8B2
330
79A
100
AcDbEntity
  8
0
100
AcDbBlockBegin
  2
*D11
 70
     1
 10
0.0
 20
0.0
 30
0.0
  3
*D11
  1

  0
LINE
  5
8B3
330
79A
100
AcDbEntity
  8
0
  6
BYBLOCK
 62
     4
100
AcDbLine
 10
430.3916288567695
 20
263.4736294850101
 30
0.0
 11
438.0759789796123
 21
244.2619782421785
 31
0.0
  0
LINE
  5
8B4
330
79A
100
AcDbEntity
  8
0
  6
BYBLOCK
 62
     4
100
AcDbLine
 10
435.9625002208154
 20
265.7018880302834
 30
0.0
 11
443.6468503436583
 21
246.4902367874518
 31
0.0
  0
LINE
  5
8B5
330
79A
100
AcDbEntity
  8
0
  6
BYBLOCK
 62
     4
100
AcDbLine
 10
430.4624727013175
 20
244.4477796156042
 30
0.0
 11
423.9630996585868
 21
241.8481353992881
 31
0.0
  0
LINE
  5
8B6
330
79A
100
AcDbEntity
  8
0
  6
BYBLOCK
 62
     4
100
AcDbLine
 10
449.0320901508249
 20
251.8753265935095
 30
0.0
 11
475.0295823217477
 21
262.2739034587739
 31
0.0
  0
LINE
  5
8B7
330
79A
100
AcDbEntity
  8
0
  6
BYBLOCK
 62
     4
100
AcDbLine
 10
436.9618457440481
 20
247.0474238319202
 30
0.0
 11
442.5327171080943
 21
249.2756823771935
 31
0.0
  0
INSERT
  5
8B8
330
79A
100
AcDbEntity
  8
0
  6
BYBLOCK
 62
     4
100
AcDbBlockReference
  2
_OPEN
 10
436.9618457440481
 20
247.0474238319202
 30
0.0
 41
7.0
 42
7.0
 43
7.0
 50
21.80061151351643
  0
INSERT
  5
8B9
330
79A
100
AcDbEntity
  8
0
  6
BYBLOCK
 62
     4
100
AcDbBlockReference
  2
_OPEN
 10
442.5327171080943
 20
249.2756823771935
 30
0.0
 41
7.0
 42
7.0
 43
7.0
 50
201.8006115135164
  0
MTEXT
  5
8BA
330
79A
100
AcDbEntity
  8
0
  6
BYBLOCK
 62
     4
100
AcDbMText
 10
463.4236340317116
 20
263.016846450536
 30
0.0
 40
6.0
 41
0.0
 71
     5
 72
     5
  1
\A1;t6.0
 11
0.9284818632472413
 21
0.3713777451880112
 31
0.0
1001
ACAD
1000
MTEXTBEGIN
1070
    73
1070
     1
1070
    44
1040
1.0
1070
    74
1070
     0
1000
MTEXTEND
1000
MTEXTBEGIN
1070
    73
1070
     1
1070
    44
1040
1.0
1070
    74
1070
     0
1000
MTEXTEND
  0
POINT
  5
8BB
330
79A
100
AcDbEntity
  8
DEFPOINTS
  6
BYBLOCK
 62
     0
100
AcDbPoint
 10
428.1633623856414
 20
269.0445206644935
 30
0.0
  0
POINT
  5
8BC
330
79A
100
AcDbEntity
  8
DEFPOINTS
  6
BYBLOCK
 62
     0
100
AcDbPoint
 10
433.7342337496874
 20
271.2727792097668
 30
0.0
  0
POINT
  5
8BD
330
79A
100
AcDbEntity
  8
DEFPOINTS
  6
BYBLOCK
 62
     0
100
AcDbPoint
 10
442.5327171080943
 20
249.2756823771935
 30
0.0
  0
ENDBLK
  5
8BE
330
79A
100
AcDbEntity
  8
0
100
AcDbBlockEnd
  0
BLOCK
  5
84F
330
84E
100
AcDbEntity
  8
0
100
AcDbBlockBegin
  2
*D12
 70
     1
 10
0.0
 20
0.0
 30
0.0
  3
*D12
  1

  0
LINE
  5
850
330
84E
100
AcDbEntity
  8
0
  6
BYBLOCK
 62
     4
100
AcDbLine
 10
414.4519337496872
 20
470.3791154409451
 30
0.0
 11
465.5755488425502
 21
470.3791154409451
 31
0.0
  0
LINE
  5
851
330
84E
100
AcDbEntity
  8
0
  6
BYBLOCK
 62
     4
100
AcDbLine
 10
414.4519337496872
 20
445.3791154409451
 30
0.0
 11
465.5755488425502
 21
445.3791154409451
 31
0.0
  0
LINE
  5
852
330
84E
100
AcDbEntity
  8
0
  6
BYBLOCK
 62
     4
100
AcDbLine
 10
462.5755488425502
 20
477.3791154409451
 30
0.0
 11
462.5755488425502
 21
484.3791154409451
 31
0.0
  0
LINE
  5
853
330
84E
100
AcDbEntity
  8
0
  6
BYBLOCK
 62
     4
100
AcDbLine
 10
462.5755488425502
 20
438.3791154409451
 30
0.0
 11
462.5755488425502
 21
431.3791154409451
 31
0.0
  0
LINE
  5
854
330
84E
100
AcDbEntity
  8
0
  6
BYBLOCK
 62
     4
100
AcDbLine
 10
462.5755488425502
 20
470.3791154409451
 30
0.0
 11
462.5755488425502
 21
445.3791154409451
 31
0.0
  0
INSERT
  5
855
330
84E
100
AcDbEntity
  8
0
  6
BYBLOCK
 62
     4
100
AcDbBlockReference
  2
_OPEN
 10
462.5755488425502
 20
470.3791154409451
 30
0.0
 41
7.0
 42
7.0
 43
7.0
 50
270.0
  0
INSERT
  5
856
330
84E
100
AcDbEntity
  8
0
  6
BYBLOCK
 62
     4
100
AcDbBlockReference
  2
_OPEN
 10
462.5755488425502
 20
445.3791154409451
 30
0.0
 41
7.0
 42
7.0
 43
7.0
 50
90.0
  0
MTEXT
  5
857
330
84E
100
AcDbEntity
  8
0
  6
BYBLOCK
 62
     4
100
AcDbMText
 10
457.5755488425502
 20
457.8791154409451
 30
0.0
 40
6.0
 41
0.0
 71
     5
 72
     5
  1
\A1;25
 11
0.0
 21
1.0
 31
0.0
1001
ACAD
1000
MTEXTBEGIN
1070
    73
1070
     1
1070
    44
1040
1.0
1070
    74
1070
     0
1000
MTEXTEND
1000
MTEXTBEGIN
1070
    73
1070
     1
1070
    44
1040
1.0
1070
    74
1070
     0
1000
MTEXTEND
  0
POINT
  5
858
330
84E
100
AcDbEntity
  8
DEFPOINTS
  6
BYBLOCK
 62
     0
100
AcDbPoint
 10
408.4519337496873
 20
470.3791154409451
 30
0.0
  0
POINT
  5
859
330
84E
100
AcDbEntity
  8
DEFPOINTS
  6
BYBLOCK
 62
     0
100
AcDbPoint
 10
408.4519337496873
 20
445.3791154409451
 30
0.0
  0
POINT
  5
85A
330
84E
100
AcDbEntity
  8
DEFPOINTS
  6
BYBLOCK
 62
     0
100
AcDbPoint
 10
462.5755488425502
 20
445.3791154409451
 30
0.0
  0
ENDBLK
  5
85B
330
84E
100
AcDbEntity
  8
0
100
AcDbBlockEnd
  0
BLOCK
  5
85E
330
85D
100
AcDbEntity
  8
0
100
AcDbBlockBegin
  2
*D13
 70
     1
 10
0.0
 20
0.0
 30
0.0
  3
*D13
  1

  0
LINE
  5
85F
330
85D
100
AcDbEntity
  8
0
  6
BYBLOCK
 62
     4
100
AcDbLine
 10
436.0158337496874
 20
489.3792154409452
 30
0.0
 11
481.9509689122364
 21
489.3792154409452
 31
0.0
  0
LINE
  5
860
330
85D
100
AcDbEntity
  8
0
  6
BYBLOCK
 62
     4
100
AcDbLine
 10
436.0158337496874
 20
426.3791154409451
 30
0.0
 11
481.9509689122364
 21
426.3791154409451
 31
0.0
  0
LINE
  5
861
330
85D
100
AcDbEntity
  8
0
  6
BYBLOCK
 62
     4
100
AcDbLine
 10
478.9509689122365
 20
482.3792154409452
 30
0.0
 11
478.9509689122365
 21
433.3791154409452
 31
0.0
  0
INSERT
  5
862
330
85D
100
AcDbEntity
  8
0
  6
BYBLOCK
 62
     4
100
AcDbBlockReference
  2
_OPEN
 10
478.9509689122365
 20
489.3792154409452
 30
0.0
 41
7.0
 42
7.0
 43
7.0
 50
90.0
  0
INSERT
  5
863
330
85D
100
AcDbEntity
  8
0
  6
BYBLOCK
 62
     4
100
AcDbBlockReference
  2
_OPEN
 10
478.9509689122365
 20
426.3791154409451
 30
0.0
 41
7.0
 42
7.0
 43
7.0
 50
270.0
  0
MTEXT
  5
864
330
85D
100
AcDbEntity
  8
0
  6
BYBLOCK
 62
     4
100
AcDbMText
 10
473.9509689122364
 20
457.8791654409451
 30
0.0
 40
6.0
 41
0.0
 71
     5
 72
     5
  1
\A1;63
 11
0.0
 21
1.0
 31
0.0
1001
ACAD
1000
MTEXTBEGIN
1070
    73
1070
     1
1070
    44
1040
1.0
1070
    74
1070
     0
1000
MTEXTEND
1000
MTEXTBEGIN
1070
    73
1070
     1
1070
    44
1040
1.0
1070
    74
1070
     0
1000
MTEXTEND
  0
POINT
  5
865
330
85D
100
AcDbEntity
  8
DEFPOINTS
  6
BYBLOCK
 62
     0
100
AcDbPoint
 10
430.0158337496874
 20
489.3792154409452
 30
0.0
  0
POINT
  5
866
330
85D
100
AcDbEntity
  8
DEFPOINTS
  6
BYBLOCK
 62
     0
100
AcDbPoint
 10
430.0158337496874
 20
426.3791154409451
 30
0.0
  0
POINT
  5
867
330
85D
100
AcDbEntity
  8
DEFPOINTS
  6
BYBLOCK
 62
     0
100
AcDbPoint
 10
478.9509689122365
 20
426.3791154409451
 30
0.0
  0
ENDBLK
  5
868
330
85D
100
AcDbEntity
  8
0
100
AcDbBlockEnd
  0
BLOCK
  5
86B
330
86A
100
AcDbEntity
  8
0
100
AcDbBlockBegin
  2
*D14
 70
     1
 10
0.0
 20
0.0
 30
0.0
  3
*D14
  1

  0
LINE
  5
86C
330
86A
100
AcDbEntity
  8
0
  6
BYBLOCK
 62
     4
100
AcDbLine
 10
248.8657337496873
 20
465.3792154409453
 30
0.0
 11
217.9140407845102
 21
465.3792154409453
 31
0.0
  0
LINE
  5
86D
330
86A
100
AcDbEntity
  8
0
  6
BYBLOCK
 62
     4
100
AcDbLine
 10
248.8657337496873
 20
450.3791154409451
 30
0.0
 11
217.9140407845102
 21
450.3791154409451
 31
0.0
  0
LINE
  5
86E
330
86A
100
AcDbEntity
  8
0
  6
BYBLOCK
 62
     4
100
AcDbLine
 10
220.9140407845102
 20
472.3792154409452
 30
0.0
 11
220.9140407845102
 21
479.3792154409453
 31
0.0
  0
LINE
  5
86F
330
86A
100
AcDbEntity
  8
0
  6
BYBLOCK
 62
     4
100
AcDbLine
 10
220.9140407845102
 20
443.3791154409451
 30
0.0
 11
220.9140407845102
 21
436.3791154409451
 31
0.0
  0
LINE
  5
870
330
86A
100
AcDbEntity
  8
0
  6
BYBLOCK
 62
     4
100
AcDbLine
 10
220.9140407845102
 20
465.3792154409453
 30
0.0
 11
220.9140407845102
 21
450.3791154409451
 31
0.0
  0
INSERT
  5
871
330
86A
100
AcDbEntity
  8
0
  6
BYBLOCK
 62
     4
100
AcDbBlockReference
  2
_OPEN
 10
220.9140407845102
 20
465.3792154409453
 30
0.0
 41
7.0
 42
7.0
 43
7.0
 50
270.0
  0
INSERT
  5
872
330
86A
100
AcDbEntity
  8
0
  6
BYBLOCK
 62
     4
100
AcDbBlockReference
  2
_OPEN
 10
220.9140407845102
 20
450.3791154409451
 30
0.0
 41
7.0
 42
7.0
 43
7.0
 50
90.0
  0
MTEXT
  5
873
330
86A
100
AcDbEntity
  8
0
  6
BYBLOCK
 62
     4
100
AcDbMText
 10
215.9140407845102
 20
457.8791654409452
 30
0.0
 40
6.0
 41
0.0
 71
     5
 72
     5
  1
\A1;15
 11
0.0
 21
1.0
 31
0.0
1001
ACAD
1000
MTEXTBEGIN
1070
    73
1070
     1
1070
    44
1040
1.0
1070
    74
1070
     0
1000
MTEXTEND
1000
MTEXTBEGIN
1070
    73
1070
     1
1070
    44
1040
1.0
1070
    74
1070
     0
1000
MTEXTEND
  0
POINT
  5
874
330
86A
100
AcDbEntity
  8
DEFPOINTS
  6
BYBLOCK
 62
     0
100
AcDbPoint
 10
254.8657337496873
 20
465.3792154409453
 30
0.0
  0
POINT
  5
875
330
86A
100
AcDbEntity
  8
DEFPOINTS
  6
BYBLOCK
 62
     0
100
AcDbPoint
 10
254.8657337496873
 20
450.3791154409451
 30
0.0
  0
POINT
  5
876
330
86A
100
AcDbEntity
  8
DEFPOINTS
  6
BYBLOCK
 62
     0
100
AcDbPoint
 10
220.9140407845102
 20
450.3791154409451
 30
0.0
  0
ENDBLK
  5
877
330
86A
100
AcDbEntity
  8
0
100
AcDbBlockEnd
  0
BLOCK
  5
87A
330
879
100
AcDbEntity
  8
0
100
AcDbBlockBegin
  2
*D15
 70
     1
 10
0.0
 20
0.0
 30
0.0
  3
*D15
  1

  0
LINE
  5
87B
330
879
100
AcDbEntity
  8
0
  6
BYBLOCK
 62
     4
100
AcDbLine
 10
402.8229337496872
 20
317.6970792097669
 30
0.0
 11
217.9140407845102
 21
317.6970792097669
 31
0.0
  0
LINE
  5
87C
330
879
100
AcDbEntity
  8
0
  6
BYBLOCK
 62
     4
100
AcDbLine
 10
248.202941267225
 20
285.8726792098233
 30
0.0
 11
217.9140407845102
 21
285.8726792098233
 31
0.0
  0
LINE
  5
87D
330
879
100
AcDbEntity
  8
0
  6
BYBLOCK
 62
     4
100
AcDbLine
 10
220.9140407845102
 20
310.6970792097669
 30
0.0
 11
220.9140407845102
 21
292.8726792098233
 31
0.0
  0
INSERT
  5
87E
330
879
100
AcDbEntity
  8
0
  6
BYBLOCK
 62
     4
100
AcDbBlockReference
  2
_OPEN
 10
220.9140407845102
 20
317.6970792097669
 30
0.0
 41
7.0
 42
7.0
 43
7.0
 50
90.0
  0
INSERT
  5
87F
330
879
100
AcDbEntity
  8
0
  6
BYBLOCK
 62
     4
100
AcDbBlockReference
  2
_OPEN
 10
220.9140407845102
 20
285.8726792098233
 30
0.0
 41
7.0
 42
7.0
 43
7.0
 50
270.0
  0
MTEXT
  5
880
330
879
100
AcDbEntity
  8
0
  6
BYBLOCK
 62
     4
100
AcDbMText
 10
215.9140407845102
 20
301.7848792097951
 30
0.0
 40
6.0
 41
0.0
 71
     5
 72
     5
  1
\A1;32
 11
0.0
 21
1.0
 31
0.0
1001
ACAD
1000
MTEXTBEGIN
1070
    73
1070
     1
1070
    44
1040
1.0
1070
    74
1070
     0
1000
MTEXTEND
1000
MTEXTBEGIN
1070
    73
1070
     1
1070
    44
1040
1.0
1070
    74
1070
     0
1000
MTEXTEND
  0
POINT
  5
881
330
879
100
AcDbEntity
  8
DEFPOINTS
  6
BYBLOCK
 62
     0
100
AcDbPoint
 10
408.8229337496873
 20
317.6970792097669
 30
0.0
  0
POINT
  5
882
330
879
100
AcDbEntity
  8
DEFPOINTS
  6
BYBLOCK
 62
     0
100
AcDbPoint
 10
254.202941267225
 20
285.8726792098233
 30
0.0
  0
POINT
  5
883
330
879
100
AcDbEntity
  8
DEFPOINTS
  6
BYBLOCK
 62
     0
100
AcDbPoint
 10
220.9140407845102
 20
285.8726792098233
 30
0.0
  0
ENDBLK
  5
884
330
879
100
AcDbEntity
  8
0
100
AcDbBlockEnd
  0
BLOCK
  5
8D1
330
8D0
100
AcDbEntity
  8
0
100
AcDbBlockBegin
  2
*D16
 70
     1
 10
0.0
 20
0.0
 30
0.0
  3
*D16
  1

  0
LINE
  5
8D2
330
8D0
100
AcDbEntity
  8
0
  6
BYBLOCK
 62
     4
100
AcDbLine
 10
415.1658337496875
 20
323.6970792097669
 30
0.0
 11
415.1658337496875
 21
380.785443802079
 31
0.0
  0
LINE
  5
8D3
330
8D0
100
AcDbEntity
  8
0
  6
BYBLOCK
 62
     4
100
AcDbLine
 10
430.1658337496875
 20
323.6970792097669
 30
0.0
 11
430.1658337496875
 21
380.785443802079
 31
0.0
  0
LINE
  5
8D4
330
8D0
100
AcDbEntity
  8
0
  6
BYBLOCK
 62
     4
100
AcDbLine
 10
408.1658337496874
 20
377.785443802079
 30
0.0
 11
401.1658337496875
 21
377.785443802079
 31
0.0
  0
LINE
  5
8D5
330
8D0
100
AcDbEntity
  8
0
  6
BYBLOCK
 62
     4
100
AcDbLine
 10
437.1658337496874
 20
377.785443802079
 30
0.0
 11
444.1658337496875
 21
377.785443802079
 31
0.0
  0
LINE
  5
8D6
330
8D0
100
AcDbEntity
  8
0
  6
BYBLOCK
 62
     4
100
AcDbLine
 10
415.1658337496875
 20
377.785443802079
 30
0.0
 11
430.1658337496875
 21
377.785443802079
 31
0.0
  0
INSERT
  5
8D7
330
8D0
100
AcDbEntity
  8
0
  6
BYBLOCK
 62
     4
100
AcDbBlockReference
  2
_OPEN
 10
415.1658337496875
 20
377.785443802079
 30
0.0
 41
7.0
 42
7.0
 43
7.0
  0
INSERT
  5
8D8
330
8D0
100
AcDbEntity
  8
0
  6
BYBLOCK
 62
     4
100
AcDbBlockReference
  2
_OPEN
 10
430.1658337496875
 20
377.785443802079
 30
0.0
 41
7.0
 42
7.0
 43
7.0
 50
180.0
  0
MTEXT
  5
8D9
330
8D0
100
AcDbEntity
  8
0
  6
BYBLOCK
 62
     4
100
AcDbMText
 10
422.6658337496875
 20
382.785443802079
 30
0.0
 40
6.0
 41
0.0
 71
     5
 72
     5
  1
\A1;15
1001
ACAD
1000
MTEXTBEGIN
1070
    73
1070
     1
1070
    44
1040
1.0
1070
    74
1070
     0
1000
MTEXTEND
1000
MTEXTBEGIN
1070
    73
1070
     1
1070
    44
1040
1.0
1070
    74
1070
     0
1000
MTEXTEND
  0
POINT
  5
8DA
330
8D0
100
AcDbEntity
  8
DEFPOINTS
  6
BYBLOCK
 62
     0
100
AcDbPoint
 10
415.1658337496875
 20
317.6970792097669
 30
0.0
  0
POINT
  5
8DB
330
8D0
100
AcDbEntity
  8
DEFPOINTS
  6
BYBLOCK
 62
     0
100
AcDbPoint
 10
430.1658337496875
 20
317.6970792097669
 30
0.0
  0
POINT
  5
8DC
330
8D0
100
AcDbEntity
  8
DEFPOINTS
  6
BYBLOCK
 62
     0
100
AcDbPoint
 10
430.1658337496875
 20
377.785443802079
 30
0.0
  0
ENDBLK
  5
8DD
330
8D0
100
AcDbEntity
  8
0
100
AcDbBlockEnd
  0
ENDSEC
  0
SECTION
  2
ENTITIES
  0
LINE
  5
3A6
330
1A
100
AcDbEntity
  8
SEIHIN
  6
CONTINUOUS
 62
     3
 48
16.0
100
AcDbLine
 10
412.5179337496875
 20
299.6970792097668
 30
0.0
 11
339.4844337496874
 21
299.6970792097668
 31
0.0
  0
LINE
  5
3A7
330
1A
100
AcDbEntity
  8
CENTER_L
  6
CENTER
 62
     1
 48
5.0
100
AcDbLine
 10
421.9283337496873
 20
309.6318792097668
 30
0.0
 11
408.7149337496875
 21
304.3467792097668
 31
0.0
  0
LINE
  5
3A8
330
1A
100
AcDbEntity
  8
SEIHIN
  6
CONTINUOUS
 62
     3
 48
16.0
100
AcDbLine
 10
410.3377337496874
 20
313.6118792097669
 30
0.0
 11
427.4206337496874
 21
270.9014792097668
 31
0.0
  0
LINE
  5
3A9
330
1A
100
AcDbEntity
  8
SEIHIN
  6
CONTINUOUS
 62
     3
 48
16.0
100
AcDbLine
 10
411.4519337496874
 20
316.2115792097669
 30
0.0
 11
430.0203337496873
 21
269.7872792097668
 31
0.0
  0
LINE
  5
3AA
330
1A
100
AcDbEntity
  8
CENTER_L
  6
CENTER
 62
     1
 48
5.0
100
AcDbLine
 10
423.7851337496874
 20
304.9894792097669
 30
0.0
 11
410.5454337496873
 21
299.6939792097668
 31
0.0
  0
LINE
  5
3AB
330
1A
100
AcDbEntity
  8
SEIHIN
  6
CONTINUOUS
 62
     3
 48
16.0
100
AcDbLine
 10
411.4520337496875
 20
316.2115792097669
 30
0.0
 11
415.1658337496875
 21
317.6970792097669
 31
0.0
  0
LINE
  5
3AC
330
1A
100
AcDbEntity
  8
SEIHIN
  6
CONTINUOUS
 62
     3
 48
16.0
100
AcDbLine
 10
408.8229337496873
 20
317.6970792097669
 30
0.0
 11
415.1658337496875
 21
317.6970792097669
 31
0.0
  0
ARC
  5
3AF
330
1A
100
AcDbEntity
  8
SEIHIN
  6
CONTINUOUS
 62
     3
 48
16.0
100
AcDbCircle
 10
416.0083847048818
 20
484.4514763750639
 30
0.0
 40
5.000010762199146
100
AcDbArc
 50
99.75350689887825
 51
156.0746403412422
  0
ARC
  5
3B0
330
1A
100
AcDbEntity
  8
SEIHIN
  6
CONTINUOUS
 62
     3
 48
16.0
100
AcDbCircle
 10
408.4518337496875
 20
473.3792154409452
 30
0.0
 40
3.0
100
AcDbArc
 50
269.9999999999977
 51
359.9999999999977
  0
ARC
  5
3B1
330
1A
100
AcDbEntity
  8
SEIHIN
  6
CONTINUOUS
 62
     3
 48
16.0
100
AcDbCircle
 10
408.4518337496874
 20
442.379115440945
 30
0.0
 40
3.000000000000113
100
AcDbArc
 50
0.0
 51
90.0
  0
ARC
  5
3B2
330
1A
100
AcDbEntity
  8
SEIHIN
  6
CONTINUOUS
 62
     3
 48
16.0
100
AcDbCircle
 10
416.0083847048817
 20
431.3068545068262
 30
0.0
 40
5.000010762199111
100
AcDbArc
 50
202.6777018505057
 51
260.2464931011222
  0
ELLIPSE
  5
3B3
330
1A
100
AcDbEntity
  8
SEIHIN
 62
     3
100
AcDbEllipse
 10
415.1658337496876
 20
436.3791154409451
 30
0.0
 11
0.0
 21
-10.0
 31
0.0
210
0.0
220
0.0
230
1.0
 40
0.3713999999999999
 41
-1.570796326794896
 42
0.0
  0
ELLIPSE
  5
3B4
330
1A
100
AcDbEntity
  8
SEIHIN
 62
     3
100
AcDbEllipse
 10
415.1658337496876
 20
479.3792154409452
 30
0.0
 11
0.0
 21
-10.0
 31
0.0
210
0.0
220
0.0
230
1.0
 40
0.3713999999999999
 41
3.141592653589793
 42
4.712388980384897
  0
LINE
  5
3B5
330
1A
100
AcDbEntity
  8
CENTER_L
  6
CENTER
 62
     1
 48
5.0
100
AcDbLine
 10
244.5324337496873
 20
457.8791154409451
 30
0.0
 11
440.0975337496872
 21
457.8791154409451
 31
0.0
  0
LINE
  5
3B7
330
1A
100
AcDbEntity
  8
NOKITOI
  6
PHANTOM
 62
     8
 48
5.0
100
AcDbLine
 10
364.6385081001394
 20
290.7509889006436
 30
0.0
 11
365.1385081001393
 21
288.2509889006436
 31
0.0
  0
LINE
  5
3B8
330
1A
100
AcDbEntity
  8
NOKITOI
  6
PHANTOM
 62
     8
 48
5.0
100
AcDbLine
 10
363.5551081001394
 20
290.0489889006436
 30
0.0
 11
363.2943081001395
 21
291.3529889006434
 31
0.0
  0
ARC
  5
3B9
330
1A
100
AcDbEntity
  8
NOKITOI
  6
PHANTOM
 62
     8
 48
5.0
100
AcDbCircle
 10
367.1112520664925
 20
289.9509435381704
 30
0.0
 40
0.7999453636812564
100
AcDbArc
 50
358.212343644788
 51
90.00314907315372
  0
LINE
  5
3BA
330
1A
100
AcDbEntity
  8
SEIHIN
  6
CONTINUOUS
 62
     3
 48
16.0
100
AcDbLine
 10
341.5861337496875
 20
295.6429792097669
 30
0.0
 11
333.0661337496873
 21
284.3596792097668
 31
0.0
  0
LINE
  5
3BB
330
1A
100
AcDbEntity
  8
SEIHIN
  6
CONTINUOUS
 62
     3
 48
16.0
100
AcDbLine
 10
343.5812337496873
 20
294.1364792097668
 30
0.0
 11
335.9085337496872
 21
283.9752792097669
 31
0.0
  0
LINE
  5
3BC
330
1A
100
AcDbEntity
  8
SEIHIN
  6
CONTINUOUS
 62
     3
 48
16.0
100
AcDbLine
 10
315.3894337496873
 20
299.9120792097669
 30
0.0
 11
306.9663337496874
 21
288.7570792097668
 31
0.0
  0
LINE
  5
3BD
330
1A
100
AcDbEntity
  8
CENTER_L
  6
CENTER
 62
     1
 48
5.0
100
AcDbLine
 10
295.1658337496875
 20
295.6320792097669
 30
0.0
 11
295.1657337496874
 21
267.3268792097669
 31
0.0
  0
ARC
  5
3BE
330
1A
100
AcDbEntity
  8
SEIHIN
  6
CONTINUOUS
 62
     3
 48
16.0
100
AcDbCircle
 10
296.3018230512057
 20
297.3333740863861
 30
0.0
 40
10.00006391086285
100
AcDbArc
 50
204.9992745655865
 51
235.6945012473349
  0
LINE
  5
3BF
330
1A
100
AcDbEntity
  8
SEIHIN
  6
CONTINUOUS
 62
     3
 48
16.0
100
AcDbLine
 10
290.6658337496875
 20
289.0728792097668
 30
0.0
 11
291.9158337496875
 21
292.0728792097669
 31
0.0
  0
ARC
  5
3C0
330
1A
100
AcDbEntity
  8
SEIHIN
  6
CONTINUOUS
 62
     3
 48
16.0
100
AcDbCircle
 10
294.0299650680742
 20
297.3335160762925
 30
0.0
 40
10.0000568616879
100
AcDbArc
 50
304.3039960759006
 51
334.9991767759885
  0
LINE
  5
3C1
330
1A
100
AcDbEntity
  8
SEIHIN
  6
CONTINUOUS
 62
     3
 48
16.0
100
AcDbLine
 10
299.6658337496875
 20
289.0728792097668
 30
0.0
 11
298.4158337496875
 21
292.0728792097669
 31
0.0
  0
LINE
  5
3C2
330
1A
100
AcDbEntity
  8
SEIHIN
  6
CONTINUOUS
 62
     3
 48
16.0
100
AcDbLine
 10
315.0952337496875
 20
277.9492792097669
 30
0.0
 11
326.7157337496874
 21
293.3386792097669
 31
0.0
  0
LINE
  5
3C3
330
1A
100
AcDbEntity
  8
SEIHIN
  6
CONTINUOUS
 62
     3
 48
16.0
100
AcDbLine
 10
370.1658337496875
 20
292.3726792097668
 30
0.0
 11
370.1658337496875
 21
272.6825792097668
 31
0.0
  0
ARC
  5
3C4
330
1A
100
AcDbEntity
  8
SEIHIN
  6
CONTINUOUS
 62
     3
 48
16.0
100
AcDbCircle
 10
365.1251342233937
 20
275.3726794456557
 30
0.0
 40
22.49999976411112
100
AcDbArc
 50
90.00000120628323
 51
142.9433444493904
  0
ARC
  5
3C5
330
1A
100
AcDbEntity
  8
SEIHIN
  6
CONTINUOUS
 62
     3
 48
16.0
100
AcDbCircle
 10
365.1251274477789
 20
275.3726760716422
 30
0.0
 40
20.00000313812562
100
AcDbArc
 50
89.99998194636484
 51
142.9432997870774
  0
LINE
  5
3C6
330
1A
100
AcDbEntity
  8
SEIHIN
  6
CONTINUOUS
 62
     3
 48
16.0
100
AcDbLine
 10
374.1658337496875
 20
296.3726792097669
 30
0.0
 11
374.1658337496875
 21
267.8726792097668
 31
0.0
  0
ARC
  5
3C7
330
1A
100
AcDbEntity
  8
NOKITOI
  6
PHANTOM
 62
     8
 48
5.0
100
AcDbCircle
 10
367.111196863145
 20
289.9510004944606
 30
0.0
 40
1.999988406214315
100
AcDbArc
 50
358.2088726535929
 51
89.99967808195611
  0
LINE
  5
3C8
330
1A
100
AcDbEntity
  8
NOKITOI
  6
PHANTOM
 62
     8
 48
5.0
100
AcDbLine
 10
253.7110081001395
 20
290.7509889006436
 30
0.0
 11
253.2110081001395
 21
288.2509889006436
 31
0.0
  0
ARC
  5
3C9
330
1A
100
AcDbEntity
  8
NOKITOI
  6
PHANTOM
 62
     8
 48
5.0
100
AcDbCircle
 10
251.2382125949372
 20
289.9509935381704
 30
0.0
 40
0.7999953624857498
100
AcDbArc
 50
90.00032191805336
 51
181.7911273464199
  0
LINE
  5
3CA
330
1A
100
AcDbEntity
  8
NOKITOI
  6
PHANTOM
 62
     8
 48
5.0
100
AcDbLine
 10
254.7943081001395
 20
290.0490889006434
 30
0.0
 11
255.0551081001393
 21
291.3529889006434
 31
0.0
  0
ARC
  5
3D1
330
1A
100
AcDbEntity
  8
NOKITOI
  6
PHANTOM
 62
     8
 48
5.0
100
AcDbCircle
 10
251.2382208509897
 20
289.95100205573
 30
0.0
 40
1.999986844954076
100
AcDbArc
 50
90.00036528735526
 51
181.7883072882699
  0
LINE
  5
3D8
330
1A
100
AcDbEntity
  8
SEIHIN
  6
CONTINUOUS
 62
     3
 48
16.0
100
AcDbLine
 10
285.1658337496875
 20
279.8726792097668
 30
0.0
 11
263.3918337496873
 21
279.8726792097668
 31
0.0
  0
LINE
  5
3D9
330
1A
100
AcDbEntity
  8
SEIHIN
  6
CONTINUOUS
 62
     3
 48
16.0
100
AcDbLine
 10
267.5709337496873
 20
273.8726792097668
 30
0.0
 11
323.7516337496874
 21
273.8726792097668
 31
0.0
  0
LINE
  5
3DA
330
1A
100
AcDbEntity
  8
SEIHIN
  6
CONTINUOUS
 62
     3
 48
16.0
100
AcDbLine
 10
267.5709337496873
 20
271.3726792097669
 30
0.0
 11
323.7516337496874
 21
271.3726792097669
 31
0.0
  0
LINE
  5
3DB
330
1A
100
AcDbEntity
  8
SEIHIN
  6
CONTINUOUS
 62
     3
 48
16.0
100
AcDbLine
 10
257.8658337496873
 20
282.3726792097668
 30
0.0
 11
285.1658337496875
 21
282.3726792097668
 31
0.0
  0
ARC
  5
3DC
330
1A
100
AcDbEntity
  8
NOKITOI
  6
PHANTOM
 62
     8
 48
5.0
100
AcDbCircle
 10
300.9882918736821
 20
279.9510033770136
 30
0.0
 40
43.00001447645168
100
AcDbArc
 50
186.524910707118
 51
269.999888375144
  0
ARC
  5
3DD
330
1A
100
AcDbEntity
  8
NOKITOI
  6
PHANTOM
 62
     8
 48
5.0
100
AcDbCircle
 10
300.9883141821072
 20
279.9509832759871
 30
0.0
 40
41.79999437547816
100
AcDbArc
 50
184.474295212525
 51
269.9998545921086
  0
LINE
  5
3E0
330
1A
100
AcDbEntity
  8
SEIHIN
  6
CONTINUOUS
 62
     3
 48
16.0
100
AcDbLine
 10
259.4558337496875
 20
277.7951792097669
 30
0.0
 11
265.1508337496874
 21
272.3442792097669
 31
0.0
  0
LINE
  5
3E1
330
1A
100
AcDbEntity
  8
SEIHIN
  6
CONTINUOUS
 62
     3
 48
16.0
100
AcDbLine
 10
266.8794337496874
 20
274.1502792097669
 30
0.0
 11
262.7003337496875
 21
278.1502792097669
 31
0.0
  0
ARC
  5
3E2
330
1A
100
AcDbEntity
  8
NOKITOI
  6
PHANTOM
 62
     8
 48
5.0
100
AcDbCircle
 10
252.7763216722777
 20
279.150975745557
 30
0.0
 40
1.999986844959662
100
AcDbArc
 50
181.7875531852363
 51
269.9996111843223
  0
ARC
  5
3E3
330
1A
100
AcDbEntity
  8
SEIHIN
  6
CONTINUOUS
 62
     3
 48
16.0
100
AcDbCircle
 10
254.1658337496873
 20
281.0726792097668
 30
0.0
 40
3.000000000000028
100
AcDbArc
 50
179.9999999999994
 51
269.9999999999994
  0
ARC
  5
3E4
330
1A
100
AcDbEntity
  8
SEIHIN
  6
CONTINUOUS
 62
     3
 48
16.0
100
AcDbCircle
 10
263.3918303362115
 20
278.8726707073391
 30
0.0
 40
1.000008502433473
100
AcDbArc
 50
89.99980442390693
 51
226.2517725997468
  0
LINE
  5
3E5
330
1A
100
AcDbEntity
  8
NOKITOI
  6
PHANTOM
 62
     8
 48
5.0
100
AcDbLine
 10
249.2392081001395
 20
289.8884889006435
 30
0.0
 11
249.6294081001394
 21
277.4041889006434
 31
0.0
  0
LINE
  5
3E6
330
1A
100
AcDbEntity
  8
SEIHIN
  6
CONTINUOUS
 62
     3
 48
16.0
100
AcDbLine
 10
254.1658337496873
 20
278.0726792097668
 30
0.0
 11
258.7643337496873
 21
278.0726792097668
 31
0.0
  0
LINE
  5
3E7
330
1A
100
AcDbEntity
  8
NOKITOI
  6
PHANTOM
 62
     8
 48
5.0
100
AcDbLine
 10
258.8172081001395
 20
277.1509889006434
 30
0.0
 11
252.7763081001395
 21
277.1509889006434
 31
0.0
  0
LINE
  5
3E8
330
1A
100
AcDbEntity
  8
NOKITOI
  6
PHANTOM
 62
     8
 48
5.0
100
AcDbLine
 10
251.1286081001395
 20
275.9509889006435
 30
0.0
 11
257.2733081001394
 21
275.9509889006435
 31
0.0
  0
ARC
  5
3E9
330
1A
100
AcDbEntity
  8
NOKITOI
  6
PHANTOM
 62
     8
 48
5.0
100
AcDbCircle
 10
251.1286440592904
 20
277.4509540465003
 30
0.0
 40
1.499965146287778
100
AcDbArc
 50
181.7866280217767
 51
269.9986264296976
  0
ARC
  5
3EA
330
1A
100
AcDbEntity
  8
SEIHIN
  6
CONTINUOUS
 62
     3
 48
16.0
100
AcDbCircle
 10
258.7644449096515
 20
277.072634586758
 30
0.0
 40
1.000044629186839
100
AcDbArc
 50
46.2622984706438
 51
90.00636871257494
  0
ARC
  5
3EB
330
1A
100
AcDbEntity
  8
NOKITOI
  6
PHANTOM
 62
     8
 48
5.0
100
AcDbCircle
 10
257.2732996759768
 20
274.9509964157
 30
0.0
 40
0.9999924849789756
100
AcDbArc
 50
6.528264606674428
 51
89.99951732740891
  0
ARC
  5
3EC
330
1A
100
AcDbEntity
  8
NOKITOI
  6
PHANTOM
 62
     8
 48
5.0
100
AcDbCircle
 10
258.8172206698478
 20
276.6509772759137
 30
0.0
 40
0.5000116248877111
100
AcDbArc
 50
4.474846808342897
 51
90.00144034898337
  0
ARC
  5
3ED
330
1A
100
AcDbEntity
  8
SEIHIN
  6
CONTINUOUS
 62
     3
 48
16.0
100
AcDbCircle
 10
255.8659023191644
 20
286.1224775321892
 30
0.0
 40
4.249789781346302
100
AcDbArc
 50
248.0382474649454
 51
298.0729507798005
  0
LINE
  5
3EE
330
1A
100
AcDbEntity
  8
NOKITOI
  6
PHANTOM
 62
     8
 48
5.0
100
AcDbLine
 10
255.7583081001395
 20
283.6509889006435
 30
0.0
 11
256.1624081001393
 21
286.4793889006434
 31
0.0
  0
LINE
  5
3EF
330
1A
100
AcDbEntity
  8
NOKITOI
  6
PHANTOM
 62
     8
 48
5.0
100
AcDbLine
 10
257.2003081001394
 20
282.4509889006435
 30
0.0
 11
254.9512081001394
 21
282.4509889006435
 31
0.0
  0
LINE
  5
3F0
330
1A
100
AcDbEntity
  8
NOKITOI
  6
PHANTOM
 62
     8
 48
5.0
100
AcDbLine
 10
256.5362081001395
 20
283.6509889006435
 30
0.0
 11
255.7583081001395
 21
283.6509889006435
 31
0.0
  0
LINE
  5
3F1
330
1A
100
AcDbEntity
  8
NOKITOI
  6
PHANTOM
 62
     8
 48
5.0
100
AcDbLine
 10
253.2110081001395
 20
288.2509889006436
 30
0.0
 11
256.1475081001394
 21
288.2509889006436
 31
0.0
  0
LINE
  5
3F2
330
1A
100
AcDbEntity
  8
NOKITOI
  6
PHANTOM
 62
     8
 48
5.0
100
AcDbLine
 10
255.1517081001395
 20
287.1509889006434
 30
0.0
 11
256.1475081001394
 21
288.2509889006436
 31
0.0
  0
LINE
  5
3F3
330
1A
100
AcDbEntity
  8
NOKITOI
  6
PHANTOM
 62
     8
 48
5.0
100
AcDbLine
 10
257.5161081001393
 20
289.4509889006435
 30
0.0
 11
255.2846081001395
 21
289.4509889006435
 31
0.0
  0
ARC
  5
3F4
330
1A
100
AcDbEntity
  8
SEIHIN
  6
CONTINUOUS
 62
     3
 48
16.0
100
AcDbCircle
 10
254.6645489493867
 20
282.465098912856
 30
0.0
 40
3.499935635140451
100
AcDbArc
 50
103.1916238914965
 51
181.5131348282879
  0
LINE
  5
3F5
330
1A
100
AcDbEntity
  8
SEIHIN
  6
CONTINUOUS
 62
     3
 48
16.0
100
AcDbLine
 10
254.6837337496874
 20
285.2353792097669
 30
0.0
 11
253.9828337496874
 21
282.7821792097669
 31
0.0
  0
LINE
  5
3F6
330
1A
100
AcDbEntity
  8
SEIHIN
  6
CONTINUOUS
 62
     3
 48
16.0
100
AcDbLine
 10
253.9828337496874
 20
282.7821792097669
 30
0.0
 11
251.1789337496874
 21
282.7821792097669
 31
0.0
  0
LINE
  5
3F7
330
1A
100
AcDbEntity
  8
SEIHIN
  6
CONTINUOUS
 62
     3
 48
16.0
100
AcDbLine
 10
251.1658337496874
 20
282.3726792097668
 30
0.0
 11
251.1658337496874
 21
281.0726792097668
 31
0.0
  0
ARC
  5
3F8
330
1A
100
AcDbEntity
  8
SEIHIN
  6
CONTINUOUS
 62
     3
 48
16.0
100
AcDbCircle
 10
254.4636138294938
 20
282.6448199724471
 30
0.0
 40
0.5000170449252113
100
AcDbArc
 50
164.0553202355099
 51
248.0407286048514
  0
LINE
  5
3F9
330
1A
100
AcDbEntity
  8
SEIHIN
  6
CONTINUOUS
 62
     3
 48
16.0
100
AcDbLine
 10
253.9636337496874
 20
282.6447792097669
 30
0.0
 11
253.9636337496874
 21
281.7821792097669
 31
0.0
  0
ARC
  5
3FA
330
1A
100
AcDbEntity
  8
SEIHIN
  6
CONTINUOUS
 62
     3
 48
16.0
100
AcDbCircle
 10
254.202941267225
 20
285.3726692449654
 30
0.0
 40
0.5000099648579586
100
AcDbArc
 50
344.0633353951882
 51
90.0008614291881
  0
LINE
  5
3FB
330
1A
100
AcDbEntity
  8
SEIHIN
  6
CONTINUOUS
 62
     3
 48
16.0
100
AcDbLine
 10
253.8658337496874
 20
285.8726792097669
 30
0.0
 11
254.2029337496874
 21
285.8726792097669
 31
0.0
  0
LINE
  5
3FC
330
1A
100
AcDbEntity
  8
NOKITOI
  6
PHANTOM
 62
     8
 48
5.0
100
AcDbLine
 10
250.4386081001395
 20
289.9259889006434
 30
0.0
 11
250.5880081001393
 21
285.1470889006435
 31
0.0
  0
ARC
  5
3FD
330
1A
100
AcDbEntity
  8
NOKITOI
  6
PHANTOM
 62
     8
 48
5.0
100
AcDbCircle
 10
254.6899283128085
 20
281.9510476290236
 30
0.0
 40
5.2000412730095
100
AcDbArc
 50
90.00132454306161
 51
142.0757990790561
  0
ARC
  5
3FE
330
1A
100
AcDbEntity
  8
NOKITOI
  6
PHANTOM
 62
     8
 48
5.0
100
AcDbCircle
 10
254.6898459815861
 20
281.9510326831689
 30
0.0
 40
3.999989731271038
100
AcDbArc
 50
96.47731142013144
 51
181.7899836067308
  0
ARC
  5
3FF
330
1A
100
AcDbEntity
  8
NOKITOI
  6
PHANTOM
 62
     8
 48
5.0
100
AcDbCircle
 10
254.2950223185548
 20
285.4286742663425
 30
0.0
 40
0.5000073448410256
100
AcDbArc
 50
351.8729478641243
 51
96.47829282996843
  0
LINE
  5
400
330
1A
100
AcDbEntity
  8
NOKITOI
  6
PHANTOM
 62
     8
 48
5.0
100
AcDbLine
 10
254.4563081001395
 20
283.0217889006436
 30
0.0
 11
254.7900081001395
 21
285.3579889006435
 31
0.0
  0
ARC
  5
401
330
1A
100
AcDbEntity
  8
NOKITOI
  6
PHANTOM
 62
     8
 48
5.0
100
AcDbCircle
 10
254.9512347007369
 20
282.9509582237614
 30
0.0
 40
0.4999693238254178
100
AcDbArc
 50
171.8555038770532
 51
269.9969516090348
  0
LINE
  5
402
330
1A
100
AcDbEntity
  8
NOKITOI
  6
PHANTOM
 62
     8
 48
5.0
100
AcDbLine
 10
255.1517081001395
 20
287.1509889006434
 30
0.0
 11
254.6898081001394
 21
287.1509889006434
 31
0.0
  0
ARC
  5
403
330
1A
100
AcDbEntity
  8
NOKITOI
  6
PHANTOM
 62
     8
 48
5.0
100
AcDbCircle
 10
255.2846008455837
 20
289.9509977504868
 30
0.0
 40
0.5000088498959383
100
AcDbArc
 50
168.6864043304884
 51
270.0008312961434
  0
LINE
  5
404
330
1A
100
AcDbEntity
  8
NOKITOI
  6
PHANTOM
 62
     8
 48
5.0
100
AcDbLine
 10
250.7773081001394
 20
279.0885889006435
 30
0.0
 11
250.6918081001395
 21
281.8260889006434
 31
0.0
  0
LINE
  5
405
330
1A
100
AcDbEntity
  8
NOKITOI
  6
PHANTOM
 62
     8
 48
5.0
100
AcDbLine
 10
257.6997081001395
 20
282.9247889006434
 30
0.0
 11
258.0155081001394
 21
288.9246889006435
 31
0.0
  0
LINE
  5
406
330
1A
100
AcDbEntity
  8
NOKITOI
  6
PHANTOM
 62
     8
 48
5.0
100
AcDbLine
 10
256.5362081001395
 20
283.6509889006435
 30
0.0
 11
256.7174081001394
 21
287.0924889006436
 31
0.0
  0
ARC
  5
407
330
1A
100
AcDbEntity
  8
NOKITOI
  6
PHANTOM
 62
     8
 48
5.0
100
AcDbCircle
 10
257.2003012131446
 20
282.950982365558
 30
0.0
 40
0.499993464961963
100
AcDbArc
 50
270.0007892017873
 51
356.9970361317427
  0
LINE
  5
408
330
1A
100
AcDbEntity
  8
NOKITOI
  6
PHANTOM
 62
     8
 48
5.0
100
AcDbLine
 10
256.1624081001393
 20
286.4793889006434
 30
0.0
 11
256.7174081001394
 21
287.0924889006436
 31
0.0
  0
ARC
  5
409
330
1A
100
AcDbEntity
  8
NOKITOI
  6
PHANTOM
 62
     8
 48
5.0
100
AcDbCircle
 10
257.5161018989816
 20
288.9509954357288
 30
0.0
 40
0.4999934649531607
100
AcDbArc
 50
356.9955363203384
 51
89.99928939038005
  0
LINE
  5
40A
330
1A
100
AcDbEntity
  8
SEIHIN
  6
CONTINUOUS
 62
     3
 48
16.0
100
AcDbLine
 10
266.2657337496874
 20
279.8727792097669
 30
0.0
 11
266.2657337496874
 21
274.7376792097669
 31
0.0
  0
ARC
  5
40B
330
1A
100
AcDbEntity
  8
SEIHIN
  6
CONTINUOUS
 62
     3
 48
16.0
100
AcDbCircle
 10
267.5709888054382
 20
274.8726571074844
 30
0.0
 40
3.49997789815052
100
AcDbArc
 50
226.2528407648199
 51
269.9990987194063
  0
ARC
  5
40C
330
1A
100
AcDbEntity
  8
SEIHIN
  6
CONTINUOUS
 62
     3
 48
16.0
100
AcDbCircle
 10
267.5709125714864
 20
274.8726877121945
 30
0.0
 40
1.000008502651931
100
AcDbArc
 50
226.2531815870555
 51
270.0012134112157
  0
LINE
  5
40D
330
1A
100
AcDbEntity
  8
SEIHIN
  6
CONTINUOUS
 62
     3
 48
16.0
100
AcDbLine
 10
338.3263337496873
 20
273.0717792097669
 30
0.0
 11
349.1643337496873
 21
287.4247792097669
 31
0.0
  0
LINE
  5
40E
330
1A
100
AcDbEntity
  8
SEIHIN
  6
CONTINUOUS
 62
     3
 48
16.0
100
AcDbLine
 10
336.6658337496875
 20
268.8726792097669
 30
0.0
 11
354.1652337496874
 21
273.5951792097669
 31
0.0
  0
LINE
  5
40F
330
1A
100
AcDbEntity
  8
SEIHIN
  6
CONTINUOUS
 62
     3
 48
16.0
100
AcDbLine
 10
347.1692337496874
 20
288.9312792097669
 30
0.0
 11
342.5169337496873
 21
282.7700792097668
 31
0.0
  0
LINE
  5
410
330
1A
100
AcDbEntity
  8
SEIHIN
  6
CONTINUOUS
 62
     3
 48
16.0
100
AcDbLine
 10
339.3502337496875
 20
271.4949792097669
 30
0.0
 11
350.3734337496873
 21
274.0501792097669
 31
0.0
  0
LINE
  5
411
330
1A
100
AcDbEntity
  8
NOKITOI
  6
PHANTOM
 62
     8
 48
5.0
100
AcDbLine
 10
355.8698081001395
 20
246.4336889006435
 30
0.0
 11
345.8845081001395
 21
238.2638889006435
 31
0.0
  0
ARC
  5
412
330
1A
100
AcDbEntity
  8
NOKITOI
  6
PHANTOM
 62
     8
 48
5.0
100
AcDbCircle
 10
345.8177011675622
 20
237.9508864256373
 30
0.0
 40
0.9999975250179316
100
AcDbArc
 50
270.0003972084043
 51
309.2946416752298
  0
LINE
  5
413
330
1A
100
AcDbEntity
  8
NOKITOI
  6
PHANTOM
 62
     8
 48
5.0
100
AcDbLine
 10
345.8177081001395
 20
236.9508889006435
 30
0.0
 11
300.9883081001394
 21
236.9509889006436
 31
0.0
  0
LINE
  5
414
330
1A
100
AcDbEntity
  8
NOKITOI
  6
PHANTOM
 62
     8
 48
5.0
100
AcDbLine
 10
300.9883081001394
 20
238.1509889006436
 30
0.0
 11
345.5679081001395
 21
238.1508889006435
 31
0.0
  0
LINE
  5
415
330
1A
100
AcDbEntity
  8
NOKITOI
  6
PHANTOM
 62
     8
 48
5.0
100
AcDbLine
 10
341.5679081001395
 20
238.1508889006435
 30
0.0
 11
321.6598081001395
 21
238.1508889006435
 31
0.0
  0
LINE
  5
416
330
1A
100
AcDbEntity
  8
NOKITOI
  6
PHANTOM
 62
     8
 48
5.0
100
AcDbLine
 10
341.8177081001395
 20
236.9508889006435
 30
0.0
 11
321.6598081001395
 21
236.9508889006435
 31
0.0
  0
ARC
  5
417
330
1A
100
AcDbEntity
  8
NOKITOI
  6
PHANTOM
 62
     8
 48
5.0
100
AcDbCircle
 10
345.5679144878879
 20
238.6508911806332
 30
0.0
 40
0.5000022800304047
100
AcDbArc
 50
269.9992680212786
 51
309.2854498596058
  0
ARC
  5
418
330
1A
100
AcDbEntity
  8
SEIHIN
  6
CONTINUOUS
 62
     3
 48
16.0
100
AcDbCircle
 10
307.9128414096984
 20
283.3726830242098
 30
0.0
 40
9.00000381444625
100
AcDbArc
 50
269.9999512348755
 51
322.943651148867
  0
ARC
  5
419
330
1A
100
AcDbEntity
  8
SEIHIN
  6
CONTINUOUS
 62
     3
 48
16.0
100
AcDbCircle
 10
295.1658337496875
 20
278.6195792097669
 30
0.0
 40
9.747010259561649
100
AcDbArc
 50
235.6479976531776
 51
304.3520023468222
  0
LINE
  5
41A
330
1A
100
AcDbEntity
  8
SEIHIN
  6
CONTINUOUS
 62
     3
 48
16.0
100
AcDbLine
 10
300.6657337496873
 20
270.5725792097668
 30
0.0
 11
289.6657337496874
 21
270.5725792097668
 31
0.0
  0
LINE
  5
41B
330
1A
100
AcDbEntity
  8
SEIHIN
  6
CONTINUOUS
 62
     3
 48
16.0
100
AcDbLine
 10
289.1658337496875
 20
274.3726792097668
 30
0.0
 11
307.9128337496873
 21
274.3726792097668
 31
0.0
  0
LINE
  5
41C
330
1A
100
AcDbEntity
  8
SEIHIN
  6
CONTINUOUS
 62
     3
 48
16.0
100
AcDbLine
 10
302.1780337496875
 20
286.3726792097668
 30
0.0
 11
285.1658337496875
 21
286.3726792097668
 31
0.0
  0
LINE
  5
41D
330
1A
100
AcDbEntity
  8
SEIHIN
  6
CONTINUOUS
 62
     3
 48
16.0
100
AcDbLine
 10
300.6658337496875
 20
287.8728792097668
 30
0.0
 11
295.1658337496875
 21
287.8728792097668
 31
0.0
  0
LINE
  5
41E
330
1A
100
AcDbEntity
  8
SEIHIN
  6
CONTINUOUS
 62
     3
 48
16.0
100
AcDbLine
 10
299.6658337496875
 20
289.0728792097668
 30
0.0
 11
295.1658337496875
 21
289.0728792097668
 31
0.0
  0
LINE
  5
41F
330
1A
100
AcDbEntity
  8
SEIHIN
  6
CONTINUOUS
 62
     3
 48
16.0
100
AcDbLine
 10
285.1658337496875
 20
278.3726792097668
 30
0.0
 11
285.1658337496875
 21
286.3727792097669
 31
0.0
  0
LINE
  5
420
330
1A
100
AcDbEntity
  8
SEIHIN
  6
CONTINUOUS
 62
     3
 48
16.0
100
AcDbLine
 10
285.1658337496875
 20
278.3726792097668
 30
0.0
 11
289.1658337496875
 21
274.3726792097668
 31
0.0
  0
LINE
  5
421
330
1A
100
AcDbEntity
  8
SEIHIN
  6
CONTINUOUS
 62
     3
 48
16.0
100
AcDbLine
 10
289.6657337496874
 20
270.5725792097668
 30
0.0
 11
289.6657337496874
 21
271.3725792097668
 31
0.0
  0
LINE
  5
422
330
1A
100
AcDbEntity
  8
SEIHIN
  6
CONTINUOUS
 62
     3
 48
16.0
100
AcDbLine
 10
290.6658337496875
 20
289.0728792097668
 30
0.0
 11
295.1658337496875
 21
289.0728792097668
 31
0.0
  0
LINE
  5
423
330
1A
100
AcDbEntity
  8
SEIHIN
  6
CONTINUOUS
 62
     3
 48
16.0
100
AcDbLine
 10
289.6658337496875
 20
287.8728792097668
 30
0.0
 11
295.1658337496875
 21
287.8728792097668
 31
0.0
  0
LINE
  5
424
330
1A
100
AcDbEntity
  8
SEIHIN
  6
CONTINUOUS
 62
     3
 48
16.0
100
AcDbLine
 10
290.6658337496875
 20
289.0728792097668
 30
0.0
 11
291.1658337496875
 21
287.8728792097668
 31
0.0
  0
LINE
  5
425
330
1A
100
AcDbEntity
  8
SEIHIN
  6
CONTINUOUS
 62
     3
 48
16.0
100
AcDbLine
 10
289.6658337496875
 20
287.8728792097668
 30
0.0
 11
289.6658337496875
 21
286.3728792097668
 31
0.0
  0
LINE
  5
426
330
1A
100
AcDbEntity
  8
SEIHIN
  6
CONTINUOUS
 62
     3
 48
16.0
100
AcDbLine
 10
300.6657337496873
 20
270.5725792097668
 30
0.0
 11
300.6657337496873
 21
271.3723792097669
 31
0.0
  0
ARC
  5
427
330
1A
100
AcDbEntity
  8
SEIHIN
  6
CONTINUOUS
 62
     3
 48
16.0
100
AcDbCircle
 10
302.1780655662534
 20
292.372695053475
 30
0.0
 40
6.000015843792516
100
AcDbArc
 50
269.9996961749786
 51
322.9435879013318
  0
LINE
  5
428
330
1A
100
AcDbEntity
  8
SEIHIN
  6
CONTINUOUS
 62
     3
 48
16.0
100
AcDbLine
 10
299.6658337496875
 20
289.0728792097668
 30
0.0
 11
299.1658337496875
 21
287.8728792097668
 31
0.0
  0
LINE
  5
429
330
1A
100
AcDbEntity
  8
SEIHIN
  6
CONTINUOUS
 62
     3
 48
16.0
100
AcDbLine
 10
300.6658337496875
 20
287.8728792097668
 30
0.0
 11
300.6658337496875
 21
286.3728792097668
 31
0.0
  0
ARC
  5
42A
330
1A
100
AcDbEntity
  8
SEIHIN
  6
CONTINUOUS
 62
     3
 48
16.0
100
AcDbCircle
 10
329.0759201985606
 20
287.3726724617575
 30
0.0
 40
4.999993252009139
100
AcDbArc
 50
270.0001552846848
 51
322.9437017475618
  0
LINE
  5
42B
330
1A
100
AcDbEntity
  8
SEIHIN
  6
CONTINUOUS
 62
     3
 48
16.0
100
AcDbLine
 10
338.3209337496874
 20
279.8726792097668
 30
0.0
 11
316.5476337496875
 21
279.8726792097668
 31
0.0
  0
LINE
  5
42C
330
1A
100
AcDbEntity
  8
SEIHIN
  6
CONTINUOUS
 62
     3
 48
16.0
100
AcDbLine
 10
328.1156337496875
 20
271.3726792097669
 30
0.0
 11
333.4127337496874
 21
271.3726792097669
 31
0.0
  0
LINE
  5
42D
330
1A
100
AcDbEntity
  8
SEIHIN
  6
CONTINUOUS
 62
     3
 48
16.0
100
AcDbLine
 10
336.6658337496875
 20
268.8726792097669
 30
0.0
 11
328.1156337496875
 21
268.8726792097669
 31
0.0
  0
LINE
  5
42E
330
1A
100
AcDbEntity
  8
SEIHIN
  6
CONTINUOUS
 62
     3
 48
16.0
100
AcDbLine
 10
321.0659337496874
 20
279.8727792097669
 30
0.0
 11
321.0659337496874
 21
273.8725792097668
 31
0.0
  0
ARC
  5
42F
330
1A
100
AcDbEntity
  8
SEIHIN
  6
CONTINUOUS
 62
     3
 48
16.0
100
AcDbCircle
 10
323.7516785882931
 20
270.3726606370082
 30
0.0
 40
3.500018573045777
100
AcDbArc
 50
45.00073401406637
 51
90.00073401406641
  0
ARC
  5
430
330
1A
100
AcDbEntity
  8
SEIHIN
  6
CONTINUOUS
 62
     3
 48
16.0
100
AcDbCircle
 10
328.115674264401
 20
272.3726624275435
 30
0.0
 40
3.49998321801116
100
AcDbArc
 50
224.9981792012845
 51
269.9993367619348
  0
ARC
  5
431
330
1A
100
AcDbEntity
  8
SEIHIN
  6
CONTINUOUS
 62
     3
 48
16.0
100
AcDbCircle
 10
323.7516221734779
 20
270.3726840047898
 30
0.0
 40
0.9999952050440041
100
AcDbArc
 50
44.9993367288696
 51
89.99933672886832
  0
ARC
  5
432
330
1A
100
AcDbEntity
  8
SEIHIN
  6
CONTINUOUS
 62
     3
 48
16.0
100
AcDbCircle
 10
328.1156453258968
 20
272.372674414744
 30
0.0
 40
0.9999952050441148
100
AcDbArc
 50
224.9993367288793
 51
269.9993367288805
  0
LINE
  5
433
330
1A
100
AcDbEntity
  8
SEIHIN
  6
CONTINUOUS
 62
     3
 48
16.0
100
AcDbLine
 10
325.6407337496874
 20
269.8977792097668
 30
0.0
 11
324.4587337496874
 21
271.0797792097669
 31
0.0
  0
LINE
  5
434
330
1A
100
AcDbEntity
  8
SEIHIN
  6
CONTINUOUS
 62
     3
 48
16.0
100
AcDbLine
 10
327.4085337496873
 20
271.6655792097668
 30
0.0
 11
326.2265337496875
 21
272.8475792097668
 31
0.0
  0
LINE
  5
435
330
1A
100
AcDbEntity
  8
SEIHIN
  6
CONTINUOUS
 62
     3
 48
16.0
100
AcDbLine
 10
318.4353337496875
 20
282.3726792097668
 30
0.0
 11
329.0759337496874
 21
282.3726792097668
 31
0.0
  0
ARC
  5
436
330
1A
100
AcDbEntity
  8
SEIHIN
  6
CONTINUOUS
 62
     3
 48
16.0
100
AcDbCircle
 10
338.3209251299959
 20
278.8726965200664
 30
0.0
 40
0.999982689737504
100
AcDbArc
 50
322.9416714733748
 51
89.99950611950922
  0
ARC
  5
437
330
1A
100
AcDbEntity
  8
SEIHIN
  6
CONTINUOUS
 62
     3
 48
16.0
100
AcDbCircle
 10
339.1243577482423
 20
272.4691422533491
 30
0.0
 40
1.000006801731953
100
AcDbArc
 50
142.9413041919783
 51
283.0543051747425
  0
LINE
  5
438
330
1A
100
AcDbEntity
  8
SEIHIN
  6
CONTINUOUS
 62
     3
 48
16.0
100
AcDbLine
 10
339.1189337496874
 20
278.2700792097668
 30
0.0
 11
334.2108337496873
 21
271.7700792097668
 31
0.0
  0
ARC
  5
439
330
1A
100
AcDbEntity
  8
SEIHIN
  6
CONTINUOUS
 62
     3
 48
16.0
100
AcDbCircle
 10
333.4127791161118
 20
272.3727018017563
 30
0.0
 40
1.000022593018467
100
AcDbArc
 50
269.9974007540725
 51
322.9430187151468
  0
LINE
  5
43A
330
1A
100
AcDbEntity
  8
SEIHIN
  6
CONTINUOUS
 62
     3
 48
16.0
100
AcDbLine
 10
336.7066337496875
 20
282.3726792097668
 30
0.0
 11
341.7189337496874
 21
282.3726792097668
 31
0.0
  0
ARC
  5
43B
330
1A
100
AcDbEntity
  8
SEIHIN
  6
CONTINUOUS
 62
     3
 48
16.0
100
AcDbCircle
 10
336.7066423693789
 20
283.3726618994671
 30
0.0
 40
0.9999826897375182
100
AcDbArc
 50
142.9416714733744
 51
269.9995061195088
  0
ARC
  5
43C
330
1A
100
AcDbEntity
  8
SEIHIN
  6
CONTINUOUS
 62
     3
 48
16.0
100
AcDbCircle
 10
341.7188989866711
 20
283.3726618994671
 30
0.0
 40
0.999982690304526
100
AcDbArc
 50
270.0019918085977
 51
322.9441571624629
  0
LINE
  5
43D
330
1A
100
AcDbEntity
  8
NOKITOI
  6
PHANTOM
 62
     8
 48
5.0
100
AcDbLine
 10
356.8541081001395
 20
245.6885889006436
 30
0.0
 11
346.4510081001395
 21
237.1768889006436
 31
0.0
  0
ARC
  5
43E
330
1A
100
AcDbEntity
  8
SEIHIN
  6
CONTINUOUS
 62
     3
 48
16.0
100
AcDbCircle
 10
371.1658703468005
 20
267.8726955544046
 30
0.0
 40
2.99996340293148
100
AcDbArc
 50
228.1317236653523
 51
359.9996878366032
  0
LINE
  5
43F
330
1A
100
AcDbEntity
  8
SEIHIN
  6
CONTINUOUS
 62
     3
 48
16.0
100
AcDbLine
 10
369.1636337496873
 20
265.6386792097669
 30
0.0
 11
360.6647337496874
 21
273.2556792097668
 31
0.0
  0
LINE
  5
440
330
1A
100
AcDbEntity
  8
NOKITOI
  6
PHANTOM
 62
     8
 48
5.0
100
AcDbLine
 10
360.0847081001394
 20
275.0504889006434
 30
0.0
 11
357.2159081001394
 21
246.3630889006436
 31
0.0
  0
LINE
  5
441
330
1A
100
AcDbEntity
  8
NOKITOI
  6
PHANTOM
 62
     8
 48
5.0
100
AcDbLine
 10
359.0437081001393
 20
276.7007889006436
 30
0.0
 11
356.0507081001395
 21
246.7709889006435
 31
0.0
  0
ARC
  5
442
330
1A
100
AcDbEntity
  8
NOKITOI
  6
PHANTOM
 62
     8
 48
5.0
100
AcDbCircle
 10
356.2208855272703
 20
246.4625468289709
 30
0.0
 40
0.9999908507640039
100
AcDbArc
 50
309.2887092230696
 51
354.2862329477531
  0
ARC
  5
443
330
1A
100
AcDbEntity
  8
NOKITOI
  6
PHANTOM
 62
     8
 48
5.0
100
AcDbCircle
 10
355.5531906742613
 20
246.8206564142556
 30
0.0
 40
0.4999904508696396
100
AcDbArc
 50
309.2900846377958
 51
354.2990110749245
  0
LINE
  5
444
330
1A
100
AcDbEntity
  8
SEIHIN
  6
CONTINUOUS
 62
     3
 48
16.0
100
AcDbLine
 10
362.1980337496875
 20
275.7751792097669
 30
0.0
 11
368.8110337496874
 21
271.7476792097669
 31
0.0
  0
LINE
  5
445
330
1A
100
AcDbEntity
  8
NOKITOI
  6
PHANTOM
 62
     8
 48
5.0
100
AcDbLine
 10
367.2208081001393
 20
275.9509889006435
 30
0.0
 11
361.0797081001395
 21
275.9509889006435
 31
0.0
  0
LINE
  5
446
330
1A
100
AcDbEntity
  8
NOKITOI
  6
PHANTOM
 62
     8
 48
5.0
100
AcDbLine
 10
359.5412081001394
 20
277.1509889006434
 30
0.0
 11
365.5731081001395
 21
277.1509889006434
 31
0.0
  0
LINE
  5
447
330
1A
100
AcDbEntity
  8
NOKITOI
  6
PHANTOM
 62
     8
 48
5.0
100
AcDbLine
 10
362.5911081001393
 20
283.6509889006435
 30
0.0
 11
362.1871081001393
 21
286.4793889006434
 31
0.0
  0
LINE
  5
448
330
1A
100
AcDbEntity
  8
NOKITOI
  6
PHANTOM
 62
     8
 48
5.0
100
AcDbLine
 10
361.8132081001395
 20
283.6509889006435
 30
0.0
 11
362.5911081001393
 21
283.6509889006435
 31
0.0
  0
LINE
  5
449
330
1A
100
AcDbEntity
  8
NOKITOI
  6
PHANTOM
 62
     8
 48
5.0
100
AcDbLine
 10
361.1491081001394
 20
282.4509889006435
 30
0.0
 11
363.3982081001393
 21
282.4509889006435
 31
0.0
  0
LINE
  5
44A
330
1A
100
AcDbEntity
  8
NOKITOI
  6
PHANTOM
 62
     8
 48
5.0
100
AcDbLine
 10
365.1385081001393
 20
288.2509889006436
 30
0.0
 11
362.2019081001395
 21
288.2509889006436
 31
0.0
  0
LINE
  5
44B
330
1A
100
AcDbEntity
  8
NOKITOI
  6
PHANTOM
 62
     8
 48
5.0
100
AcDbLine
 10
363.1977081001395
 20
287.1509889006434
 30
0.0
 11
362.2019081001395
 21
288.2509889006436
 31
0.0
  0
LINE
  5
44C
330
1A
100
AcDbEntity
  8
NOKITOI
  6
PHANTOM
 62
     8
 48
5.0
100
AcDbLine
 10
360.8333081001394
 20
289.4509889006435
 30
0.0
 11
363.0648081001394
 21
289.4509889006435
 31
0.0
  0
LINE
  5
44D
330
1A
100
AcDbEntity
  8
SEIHIN
  6
CONTINUOUS
 62
     3
 48
16.0
100
AcDbLine
 10
351.8123337496874
 20
279.5454792097668
 30
0.0
 11
352.4139337496873
 21
277.4220792097668
 31
0.0
  0
LINE
  5
44E
330
1A
100
AcDbEntity
  8
SEIHIN
  6
CONTINUOUS
 62
     3
 48
16.0
100
AcDbLine
 10
353.0631337496874
 20
279.8998792097668
 30
0.0
 11
354.6212337496874
 21
274.3998792097669
 31
0.0
  0
ARC
  5
44F
330
1A
100
AcDbEntity
  8
SEIHIN
  6
CONTINUOUS
 62
     3
 48
16.0
100
AcDbCircle
 10
353.9958620699395
 20
274.2227291825928
 30
0.0
 40
0.649978361146366
100
AcDbArc
 50
285.095378867481
 51
15.81591890613986
  0
ARC
  5
450
330
1A
100
AcDbEntity
  8
SEIHIN
  6
CONTINUOUS
 62
     3
 48
16.0
100
AcDbCircle
 10
350.3282119602647
 20
274.2450346414567
 30
0.0
 40
0.2000341208334629
100
AcDbArc
 50
283.0658282482603
 51
24.84413134548159
  0
ARC
  5
451
330
1A
100
AcDbEntity
  8
SEIHIN
  6
CONTINUOUS
 62
     3
 48
16.0
100
AcDbCircle
 10
352.2215164806026
 20
277.3675552300949
 30
0.0
 40
0.1999931743867634
100
AcDbArc
 50
272.6702586056496
 51
15.82077981415225
  0
ARC
  5
452
330
1A
100
AcDbEntity
  8
SEIHIN
  6
CONTINUOUS
 62
     3
 48
16.0
100
AcDbCircle
 10
352.3243516554584
 20
275.1700087410066
 30
0.0
 40
1.999958110698871
100
AcDbArc
 50
92.68012405229217
 51
204.8613321976861
  0
ARC
  5
453
330
1A
100
AcDbEntity
  8
SEIHIN
  6
CONTINUOUS
 62
     3
 48
16.0
100
AcDbCircle
 10
361.665840129944
 20
274.3726896932757
 30
0.0
 40
1.499975468085876
100
AcDbArc
 50
69.21871772088422
 51
228.1321216051518
  0
ARC
  5
454
330
1A
100
AcDbEntity
  8
NOKITOI
  6
PHANTOM
 62
     8
 48
5.0
100
AcDbCircle
 10
359.5412211711442
 20
276.6510007309234
 30
0.0
 40
0.499988169890889
100
AcDbArc
 50
90.00149786226627
 51
174.2966061377156
  0
ARC
  5
455
330
1A
100
AcDbEntity
  8
NOKITOI
  6
PHANTOM
 62
     8
 48
5.0
100
AcDbCircle
 10
361.0797287499805
 20
274.9510075884927
 30
0.0
 40
0.9999813123640345
100
AcDbArc
 50
90.00118317084957
 51
174.290590033351
  0
ARC
  5
456
330
1A
100
AcDbEntity
  8
SEIHIN
  6
CONTINUOUS
 62
     3
 48
16.0
100
AcDbCircle
 10
352.4377468606579
 20
279.7226829235635
 30
0.0
 40
0.6500056036791725
100
AcDbArc
 50
15.81947672444567
 51
195.8109957391616
  0
LINE
  5
457
330
1A
100
AcDbEntity
  8
NOKITOI
  6
PHANTOM
 62
     8
 48
5.0
100
AcDbLine
 10
360.6498081001394
 20
282.9246889006435
 30
0.0
 11
360.3340081001395
 21
288.9246889006435
 31
0.0
  0
LINE
  5
458
330
1A
100
AcDbEntity
  8
NOKITOI
  6
PHANTOM
 62
     8
 48
5.0
100
AcDbLine
 10
361.8132081001395
 20
283.6509889006435
 30
0.0
 11
361.6321081001394
 21
287.0923889006434
 31
0.0
  0
ARC
  5
459
330
1A
100
AcDbEntity
  8
NOKITOI
  6
PHANTOM
 62
     8
 48
5.0
100
AcDbCircle
 10
361.1491122215464
 20
282.950984990613
 30
0.0
 40
0.4999960899864752
100
AcDbArc
 50
183.0147243791737
 51
269.9995277178594
  0
LINE
  5
45A
330
1A
100
AcDbEntity
  8
NOKITOI
  6
PHANTOM
 62
     8
 48
5.0
100
AcDbLine
 10
362.1871081001393
 20
286.4793889006434
 30
0.0
 11
361.6321081001394
 21
287.0923889006434
 31
0.0
  0
ARC
  5
45B
330
1A
100
AcDbEntity
  8
NOKITOI
  6
PHANTOM
 62
     8
 48
5.0
100
AcDbCircle
 10
360.8333118096346
 20
288.9509928106741
 30
0.0
 40
0.4999960899831856
100
AcDbArc
 50
90.00042508015132
 51
183.0156217414654
  0
ARC
  5
45C
330
1A
100
AcDbEntity
  8
NOKITOI
  6
PHANTOM
 62
     8
 48
5.0
100
AcDbCircle
 10
365.5731460879638
 20
279.1509257212156
 30
0.0
 40
2.000036820932882
100
AcDbArc
 50
269.9989117490339
 51
358.2110591274196
  0
LINE
  5
45D
330
1A
100
AcDbEntity
  8
NOKITOI
  6
PHANTOM
 62
     8
 48
5.0
100
AcDbLine
 10
369.1102081001395
 20
289.8884889006435
 30
0.0
 11
368.7201081001394
 21
277.4040889006434
 31
0.0
  0
ARC
  5
45E
330
1A
100
AcDbEntity
  8
SEIHIN
  6
CONTINUOUS
 62
     3
 48
16.0
100
AcDbCircle
 10
369.1658534875771
 20
272.6825928305895
 30
0.0
 40
0.9999802622031538
100
AcDbArc
 50
249.2171738629484
 51
359.9992195689361
  0
ARC
  5
45F
330
1A
100
AcDbEntity
  8
NOKITOI
  6
PHANTOM
 62
     8
 48
5.0
100
AcDbCircle
 10
367.2208253133175
 20
277.4510055837913
 30
0.0
 40
1.500016683246579
100
AcDbArc
 50
269.9993425123348
 51
358.207642324411
  0
LINE
  5
460
330
1A
100
AcDbEntity
  8
NOKITOI
  6
PHANTOM
 62
     8
 48
5.0
100
AcDbLine
 10
367.9108081001393
 20
289.9259889006434
 30
0.0
 11
367.7615081001395
 21
285.1469889006435
 31
0.0
  0
ARC
  5
461
330
1A
100
AcDbEntity
  8
NOKITOI
  6
PHANTOM
 62
     8
 48
5.0
100
AcDbCircle
 10
363.6596771732033
 20
281.9510246453073
 30
0.0
 40
3.99998565374706
100
AcDbArc
 50
358.2086966591014
 51
83.52422380468325
  0
ARC
  5
462
330
1A
100
AcDbEntity
  8
NOKITOI
  6
PHANTOM
 62
     8
 48
5.0
100
AcDbCircle
 10
363.6596902337884
 20
281.9509976290234
 30
0.0
 40
5.199991271650611
100
AcDbArc
 50
37.92532860473096
 51
89.99980314072548
  0
ARC
  5
463
330
1A
100
AcDbEntity
  8
NOKITOI
  6
PHANTOM
 62
     8
 48
5.0
100
AcDbCircle
 10
364.0544374726394
 20
285.4286191331384
 30
0.0
 40
0.4999578477751074
100
AcDbArc
 50
83.52609071220776
 51
188.1330561712924
  0
LINE
  5
464
330
1A
100
AcDbEntity
  8
NOKITOI
  6
PHANTOM
 62
     8
 48
5.0
100
AcDbLine
 10
363.8932081001393
 20
283.0216889006434
 30
0.0
 11
363.5594081001393
 21
285.3578889006436
 31
0.0
  0
ARC
  5
465
330
1A
100
AcDbEntity
  8
NOKITOI
  6
PHANTOM
 62
     8
 48
5.0
100
AcDbCircle
 10
363.3982182865756
 20
282.9510006453677
 30
0.0
 40
0.5000117448278309
100
AcDbArc
 50
269.9988327478018
 51
8.127314608715803
  0
LINE
  5
466
330
1A
100
AcDbEntity
  8
NOKITOI
  6
PHANTOM
 62
     8
 48
5.0
100
AcDbLine
 10
363.1977081001395
 20
287.1509889006434
 30
0.0
 11
363.6597081001395
 21
287.1509889006434
 31
0.0
  0
ARC
  5
467
330
1A
100
AcDbEntity
  8
NOKITOI
  6
PHANTOM
 62
     8
 48
5.0
100
AcDbCircle
 10
363.0648073171312
 20
289.9509879456417
 30
0.0
 40
0.4999990449987399
100
AcDbArc
 50
270.0000897263054
 51
11.30328019845509
  0
LINE
  5
468
330
1A
100
AcDbEntity
  8
NOKITOI
  6
PHANTOM
 62
     8
 48
5.0
100
AcDbLine
 10
367.5722081001395
 20
279.0883889006436
 30
0.0
 11
367.6577081001394
 21
281.8259889006434
 31
0.0
  0
LINE
  5
469
330
1A
100
AcDbEntity
  8
SEIHIN
  6
CONTINUOUS
 62
     3
 48
16.0
100
AcDbLine
 10
410.3376337496875
 20
473.3792154409451
 30
0.0
 11
410.3376337496875
 21
479.3500154409452
 31
0.0
  0
LINE
  5
46A
330
1A
100
AcDbEntity
  8
SEIHIN
  6
CONTINUOUS
 62
     3
 48
16.0
100
AcDbLine
 10
411.4518337496876
 20
473.3792154409451
 30
0.0
 11
411.4518337496876
 21
479.3786154409452
 31
0.0
  0
LINE
  5
46B
330
1A
100
AcDbEntity
  8
SEIHIN
  6
CONTINUOUS
 62
     3
 48
16.0
100
AcDbLine
 10
285.1659337496874
 20
465.3792154409453
 30
0.0
 11
254.8657337496873
 21
465.3792154409453
 31
0.0
  0
LINE
  5
46C
330
1A
100
AcDbEntity
  8
SEIHIN
  6
CONTINUOUS
 62
     3
 48
16.0
100
AcDbLine
 10
285.1659337496874
 20
450.3791154409451
 30
0.0
 11
254.8657337496873
 21
450.3791154409451
 31
0.0
  0
LINE
  5
472
330
1A
100
AcDbEntity
  8
NOKITOI
  6
PHANTOM
 62
     8
 48
5.0
100
AcDbLine
 10
251.2382081001394
 20
291.9509889006434
 30
0.0
 11
254.5648081001395
 21
291.9509889006434
 31
0.0
  0
LINE
  5
473
330
1A
100
AcDbEntity
  8
NOKITOI
  6
PHANTOM
 62
     8
 48
5.0
100
AcDbLine
 10
251.2382081001394
 20
290.7509889006436
 30
0.0
 11
253.7110081001395
 21
290.7509889006436
 31
0.0
  0
ARC
  5
474
330
1A
100
AcDbEntity
  8
NOKITOI
  6
PHANTOM
 62
     8
 48
5.0
100
AcDbCircle
 10
254.5648073171312
 20
291.4509898556452
 30
0.0
 40
0.4999990449987349
100
AcDbArc
 50
348.6967198015448
 51
89.99991027369452
  0
LINE
  5
489
330
1A
100
AcDbEntity
  8
SEIHIN
  6
CONTINUOUS
 62
     3
 48
16.0
100
AcDbLine
 10
251.1658337496874
 20
445.8791154409452
 30
0.0
 11
251.1658337496874
 21
457.8791154409451
 31
0.0
  0
LINE
  5
48A
330
1A
100
AcDbEntity
  8
SEIHIN
  6
CONTINUOUS
 62
     3
 48
16.0
100
AcDbLine
 10
254.8658337496874
 20
445.8791154409452
 30
0.0
 11
254.8658337496874
 21
457.8791154409451
 31
0.0
  0
LINE
  5
48B
330
1A
100
AcDbEntity
  8
SEIHIN
  6
CONTINUOUS
 62
     3
 48
16.0
100
AcDbLine
 10
257.8658337496873
 20
450.3792154409451
 30
0.0
 11
257.8658337496873
 21
457.8791154409451
 31
0.0
  0
LINE
  5
48C
330
1A
100
AcDbEntity
  8
SEIHIN
  6
CONTINUOUS
 62
     3
 48
16.0
100
AcDbLine
 10
251.1658337496874
 20
445.8791154409452
 30
0.0
 11
254.8658337496874
 21
445.8791154409452
 31
0.0
  0
LINE
  5
48D
330
1A
100
AcDbEntity
  8
SEIHIN
  6
CONTINUOUS
 62
     3
 48
16.0
100
AcDbLine
 10
257.8658337496873
 20
465.3791154409451
 30
0.0
 11
257.8658337496873
 21
457.8791154409451
 31
0.0
  0
LINE
  5
48E
330
1A
100
AcDbEntity
  8
SEIHIN
  6
CONTINUOUS
 62
     3
 48
16.0
100
AcDbLine
 10
251.1658337496874
 20
469.8792154409453
 30
0.0
 11
251.1658337496874
 21
457.8791154409451
 31
0.0
  0
LINE
  5
48F
330
1A
100
AcDbEntity
  8
SEIHIN
  6
CONTINUOUS
 62
     3
 48
16.0
100
AcDbLine
 10
254.8658337496874
 20
469.8792154409453
 30
0.0
 11
254.8658337496874
 21
457.8791154409451
 31
0.0
  0
LINE
  5
490
330
1A
100
AcDbEntity
  8
SEIHIN
  6
CONTINUOUS
 62
     3
 48
16.0
100
AcDbLine
 10
251.1658337496874
 20
469.8792154409453
 30
0.0
 11
254.8658337496874
 21
469.8792154409453
 31
0.0
  0
LINE
  5
491
330
1A
100
AcDbEntity
  8
SEIHIN
  6
CONTINUOUS
 62
     3
 48
16.0
100
AcDbLine
 10
408.8229337496873
 20
317.6969792097668
 30
0.0
 11
336.0052337496874
 21
311.3262792097668
 31
0.0
  0
ARC
  5
492
330
1A
100
AcDbEntity
  8
SEIHIN
  6
CONTINUOUS
 62
     3
 48
16.0
100
AcDbCircle
 10
363.1332562823739
 20
279.3727005510962
 30
0.0
 40
24.50001521225868
100
AcDbArc
 50
123.9458225330451
 51
142.9434596009653
  0
LINE
  5
493
330
1A
100
AcDbEntity
  8
SEIHIN
  6
CONTINUOUS
 62
     3
 48
16.0
100
AcDbLine
 10
295.1658337496875
 20
293.3728792097669
 30
0.0
 11
297.6657337496874
 21
293.3728792097669
 31
0.0
  0
LINE
  5
494
330
1A
100
AcDbEntity
  8
SEIHIN
  6
CONTINUOUS
 62
     3
 48
16.0
100
AcDbLine
 10
295.1658337496875
 20
292.0728792097669
 30
0.0
 11
298.4158337496875
 21
292.0728792097669
 31
0.0
  0
ARC
  5
495
330
1A
100
AcDbEntity
  8
SEIHIN
  6
CONTINUOUS
 62
     3
 48
16.0
100
AcDbCircle
 10
289.0330587496812
 20
297.0358225089922
 30
0.0
 40
1.499968129661282
100
AcDbArc
 50
14.99748420158209
 51
105.0001851120864
  0
LINE
  5
496
330
1A
100
AcDbEntity
  8
SEIHIN
  6
CONTINUOUS
 62
     3
 48
16.0
100
AcDbLine
 10
287.1513337496875
 20
297.0491792097669
 30
0.0
 11
288.9037337496874
 21
297.5187792097668
 31
0.0
  0
ARC
  5
497
330
1A
100
AcDbEntity
  8
SEIHIN
  6
CONTINUOUS
 62
     3
 48
16.0
100
AcDbCircle
 10
296.3016712774458
 20
297.3335720424157
 30
0.0
 40
9.000024792292933
100
AcDbArc
 50
205.0008288656356
 51
222.878174447668
  0
LINE
  5
498
330
1A
100
AcDbEntity
  8
SEIHIN
  6
CONTINUOUS
 62
     3
 48
16.0
100
AcDbLine
 10
288.1449337496874
 20
293.5298792097669
 30
0.0
 11
286.8276337496873
 21
296.3549792097669
 31
0.0
  0
LINE
  5
499
330
1A
100
AcDbEntity
  8
SEIHIN
  6
CONTINUOUS
 62
     3
 48
16.0
100
AcDbLine
 10
285.9212337496875
 20
295.9322792097669
 30
0.0
 11
287.2386337496874
 21
293.1072792097669
 31
0.0
  0
ARC
  5
49A
330
1A
100
AcDbEntity
  8
SEIHIN
  6
CONTINUOUS
 62
     3
 48
16.0
100
AcDbCircle
 10
287.2807308448608
 20
296.566272979995
 30
0.0
 40
0.4999420316314899
100
AcDbArc
 50
105.0003056294767
 51
205.0011555088668
  0
ARC
  5
49B
330
1A
100
AcDbEntity
  8
SEIHIN
  6
CONTINUOUS
 62
     3
 48
16.0
100
AcDbCircle
 10
287.2807416649436
 20
296.5662961849952
 30
0.0
 40
1.499989134940323
100
AcDbArc
 50
104.9992945073457
 51
205.0039691602916
  0
LINE
  5
49C
330
1A
100
AcDbEntity
  8
SEIHIN
  6
CONTINUOUS
 62
     3
 48
16.0
100
AcDbLine
 10
288.6448337496874
 20
298.4846792097668
 30
0.0
 11
286.8925337496873
 21
298.0151792097668
 31
0.0
  0
LINE
  5
49D
330
1A
100
AcDbEntity
  8
SEIHIN
  6
CONTINUOUS
 62
     3
 48
16.0
100
AcDbLine
 10
295.1658337496875
 20
292.0728792097669
 30
0.0
 11
291.9158337496875
 21
292.0728792097669
 31
0.0
  0
LINE
  5
49E
330
1A
100
AcDbEntity
  8
SEIHIN
  6
CONTINUOUS
 62
     3
 48
16.0
100
AcDbLine
 10
291.9158337496875
 20
292.0728792097669
 30
0.0
 11
290.4820337496873
 21
297.4239792097669
 31
0.0
  0
LINE
  5
49F
330
1A
100
AcDbEntity
  8
SEIHIN
  6
CONTINUOUS
 62
     3
 48
16.0
100
AcDbLine
 10
289.5160337496873
 20
297.1651792097668
 30
0.0
 11
290.8175337496875
 21
292.3075792097669
 31
0.0
  0
ARC
  5
4A0
330
1A
100
AcDbEntity
  8
SEIHIN
  6
CONTINUOUS
 62
     3
 48
16.0
100
AcDbCircle
 10
290.3346216915719
 20
292.1779980373636
 30
0.0
 40
0.4999953360931264
100
AcDbArc
 50
337.4033564501776
 51
15.02050787244168
  0
ARC
  5
4A1
330
1A
100
AcDbEntity
  8
SEIHIN
  6
CONTINUOUS
 62
     3
 48
16.0
100
AcDbCircle
 10
289.03305874764
 20
297.0358225037321
 30
0.0
 40
0.4999980099949512
100
AcDbArc
 50
14.99379533790068
 51
105.0018970258867
  0
LINE
  5
4A2
330
1A
100
AcDbEntity
  8
SEIHIN
  6
CONTINUOUS
 62
     3
 48
16.0
100
AcDbLine
 10
292.6658337496875
 20
293.3728792097669
 30
0.0
 11
292.6658337496875
 21
292.0728792097669
 31
0.0
  0
LINE
  5
4A3
330
1A
100
AcDbEntity
  8
SEIHIN
  6
CONTINUOUS
 62
     3
 48
16.0
100
AcDbLine
 10
295.1657337496874
 20
293.3728792097669
 30
0.0
 11
292.6658337496875
 21
293.3728792097669
 31
0.0
  0
ARC
  5
4A4
330
1A
100
AcDbEntity
  8
SEIHIN
  6
CONTINUOUS
 62
     3
 48
16.0
100
AcDbCircle
 10
290.0728200194573
 20
291.549776757147
 30
0.0
 40
0.4999732692048071
100
AcDbArc
 50
222.8773689717948
 51
337.3801181495903
  0
LINE
  5
4A5
330
1A
100
AcDbEntity
  8
SEIHIN
  6
CONTINUOUS
 62
     3
 48
16.0
100
AcDbLine
 10
290.7962337496875
 20
291.9858792097669
 30
0.0
 11
290.5343337496874
 21
291.3574792097668
 31
0.0
  0
LINE
  5
4A6
330
1A
100
AcDbEntity
  8
SEIHIN
  6
CONTINUOUS
 62
     3
 48
16.0
100
AcDbLine
 10
304.4103337496873
 20
295.9322792097669
 30
0.0
 11
303.0929337496873
 21
293.1072792097669
 31
0.0
  0
LINE
  5
4A7
330
1A
100
AcDbEntity
  8
SEIHIN
  6
CONTINUOUS
 62
     3
 48
16.0
100
AcDbLine
 10
298.4158337496875
 20
292.0728792097669
 30
0.0
 11
299.8496337496874
 21
297.4239792097669
 31
0.0
  0
LINE
  5
4A8
330
1A
100
AcDbEntity
  8
SEIHIN
  6
CONTINUOUS
 62
     3
 48
16.0
100
AcDbLine
 10
302.1866337496875
 20
293.5298792097669
 30
0.0
 11
303.5040337496873
 21
296.3549792097669
 31
0.0
  0
LINE
  5
4A9
330
1A
100
AcDbEntity
  8
SEIHIN
  6
CONTINUOUS
 62
     3
 48
16.0
100
AcDbLine
 10
300.8155337496874
 20
297.1651792097668
 30
0.0
 11
299.5140337496874
 21
292.3075792097669
 31
0.0
  0
ARC
  5
4AA
330
1A
100
AcDbEntity
  8
SEIHIN
  6
CONTINUOUS
 62
     3
 48
16.0
100
AcDbCircle
 10
299.996936302181
 20
292.1781408809618
 30
0.0
 40
0.4999491535834398
100
AcDbArc
 50
164.9950208123479
 51
202.6165792904037
  0
LINE
  5
4AB
330
1A
100
AcDbEntity
  8
SEIHIN
  6
CONTINUOUS
 62
     3
 48
16.0
100
AcDbLine
 10
297.6658337496875
 20
293.3728792097669
 30
0.0
 11
297.6658337496875
 21
292.0728792097669
 31
0.0
  0
ARC
  5
4AC
330
1A
100
AcDbEntity
  8
SEIHIN
  6
CONTINUOUS
 62
     3
 48
16.0
100
AcDbCircle
 10
301.2985337496874
 20
297.0357792097668
 30
0.0
 40
1.50000348332931
100
AcDbArc
 50
75.00116534316465
 51
165.0011653431651
  0
ARC
  5
4AD
330
1A
100
AcDbEntity
  8
SEIHIN
  6
CONTINUOUS
 62
     3
 48
16.0
100
AcDbCircle
 10
301.2985337496875
 20
297.0357792097668
 30
0.0
 40
0.5000333588871654
100
AcDbArc
 50
75.00215381810616
 51
165.0021538181071
  0
ARC
  5
4AE
330
1A
100
AcDbEntity
  8
SEIHIN
  6
CONTINUOUS
 62
     3
 48
16.0
100
AcDbCircle
 10
303.0508616568742
 20
296.5662193658416
 30
0.0
 40
0.4999873490831269
100
AcDbArc
 50
335.008044960599
 51
75.00405205756488
  0
ARC
  5
4AF
330
1A
100
AcDbEntity
  8
SEIHIN
  6
CONTINUOUS
 62
     3
 48
16.0
100
AcDbCircle
 10
303.0508703344517
 20
296.5662007438187
 30
0.0
 40
1.499999096232645
100
AcDbArc
 50
335.0002308167799
 51
74.99861270970538
  0
LINE
  5
4B0
330
1A
100
AcDbEntity
  8
SEIHIN
  6
CONTINUOUS
 62
     3
 48
16.0
100
AcDbLine
 10
301.6867337496875
 20
298.4846792097668
 30
0.0
 11
303.4391337496874
 21
298.0150792097668
 31
0.0
  0
LINE
  5
4B1
330
1A
100
AcDbEntity
  8
SEIHIN
  6
CONTINUOUS
 62
     3
 48
16.0
100
AcDbLine
 10
303.1803337496875
 20
297.0491792097669
 30
0.0
 11
301.4279337496874
 21
297.5187792097668
 31
0.0
  0
ARC
  5
4B2
330
1A
100
AcDbEntity
  8
SEIHIN
  6
CONTINUOUS
 62
     3
 48
16.0
100
AcDbCircle
 10
300.2587934594396
 20
291.5497864083802
 30
0.0
 40
0.5000194239278042
100
AcDbArc
 50
202.6188762781212
 51
317.1260325117058
  0
LINE
  5
4B3
330
1A
100
AcDbEntity
  8
SEIHIN
  6
CONTINUOUS
 62
     3
 48
16.0
100
AcDbLine
 10
299.5354337496875
 20
291.9858792097669
 30
0.0
 11
299.7972337496873
 21
291.3574792097668
 31
0.0
  0
ARC
  5
4B4
330
1A
100
AcDbEntity
  8
SEIHIN
  6
CONTINUOUS
 62
     3
 48
16.0
100
AcDbCircle
 10
294.0298739747784
 20
297.3333903860816
 30
0.0
 40
9.000058814023359
100
AcDbArc
 50
317.1227360400137
 51
335.0005481397943
  0
ARC
  5
4B5
330
1A
100
AcDbEntity
  8
SEIHIN
  6
CONTINUOUS
 62
     3
 48
16.0
100
AcDbCircle
 10
338.5326676267256
 20
282.4366425998849
 30
0.0
 40
28.99998319747491
100
AcDbArc
 50
94.99983896248926
 51
142.9432999680251
  0
ARC
  5
4B6
330
1A
100
AcDbEntity
  8
SEIHIN
  6
CONTINUOUS
 62
     3
 48
16.0
100
AcDbCircle
 10
339.4843685287375
 20
283.6969467320203
 30
0.0
 40
16.00003247787951
100
AcDbArc
 50
89.99976644515088
 51
142.9431566053543
  0
ARC
  5
4B7
330
1A
100
AcDbEntity
  8
SEIHIN
  6
CONTINUOUS
 62
     3
 48
16.0
100
AcDbCircle
 10
363.1334330653743
 20
279.3728933761278
 30
0.0
 40
27.00003334875311
100
AcDbArc
 50
131.1711315509985
 51
142.9440202550098
  0
ARC
  5
4B9
330
1A
100
AcDbEntity
  8
SEIHIN
  6
CONTINUOUS
 62
     3
 48
16.0
100
AcDbCircle
 10
367.1658337496874
 20
292.3726792097669
 30
0.0
 40
3.000000000000042
100
AcDbArc
 50
359.9999999999992
 51
89.9999999999992
  0
ARC
  5
4BA
330
1A
100
AcDbEntity
  8
SEIHIN
  6
CONTINUOUS
 62
     3
 48
16.0
100
AcDbCircle
 10
370.165851697858
 20
298.8727061340419
 30
0.0
 40
1.000026924436083
100
AcDbArc
 50
269.9989716732661
 51
22.62280303861398
  0
LINE
  5
4BB
330
1A
100
AcDbEntity
  8
SEIHIN
  6
CONTINUOUS
 62
     3
 48
16.0
100
AcDbLine
 10
367.1658337496875
 20
295.3726792097669
 30
0.0
 11
365.1251337496875
 21
295.3726792097669
 31
0.0
  0
LINE
  5
4BC
330
1A
100
AcDbEntity
  8
SEIHIN
  6
CONTINUOUS
 62
     3
 48
16.0
100
AcDbLine
 10
370.1658337496875
 20
297.8726792097669
 30
0.0
 11
365.1251337496875
 21
297.8726792097669
 31
0.0
  0
LINE
  5
4BD
330
1A
100
AcDbEntity
  8
NOKITOI
  6
PHANTOM
 62
     8
 48
5.0
100
AcDbLine
 10
367.1112081001395
 20
291.9508889006434
 30
0.0
 11
363.7846081001395
 21
291.9509889006434
 31
0.0
  0
LINE
  5
4BE
330
1A
100
AcDbEntity
  8
NOKITOI
  6
PHANTOM
 62
     8
 48
5.0
100
AcDbLine
 10
367.1112081001395
 20
290.7508889006434
 30
0.0
 11
364.6385081001394
 21
290.7509889006436
 31
0.0
  0
ARC
  5
4BF
330
1A
100
AcDbEntity
  8
NOKITOI
  6
PHANTOM
 62
     8
 48
5.0
100
AcDbCircle
 10
363.7846008455837
 20
291.4509800508001
 30
0.0
 40
0.500008849895925
100
AcDbArc
 50
89.99916870385492
 51
191.3135956695117
  0
ARC
  5
4C0
330
1A
100
AcDbEntity
  8
SEIHIN
  6
CONTINUOUS
 62
     3
 48
16.0
100
AcDbCircle
 10
364.1658239951969
 20
296.3727362270697
 30
0.0
 40
10.00000975465306
100
AcDbArc
 50
359.9996733152374
 51
19.41596704988712
  0
ARC
  5
4C1
330
1A
100
AcDbEntity
  8
SEIHIN
  6
CONTINUOUS
 62
     3
 48
16.0
100
AcDbCircle
 10
364.1654850978138
 20
296.3734454927473
 30
0.0
 40
7.500042542715769
100
AcDbArc
 50
22.61326060080578
 51
26.3040983637099
  0
LINE
  5
4C2
330
1A
100
AcDbEntity
  8
SEIHIN
  6
CONTINUOUS
 62
     3
 48
16.0
100
AcDbLine
 10
411.4520337496875
 20
316.2115792097669
 30
0.0
 11
410.3377337496874
 21
313.6118792097669
 31
0.0
  0
LINE
  5
4C3
330
1A
100
AcDbEntity
  8
SEIHIN
  6
CONTINUOUS
 62
     3
 48
16.0
100
AcDbLine
 10
408.4519337496873
 20
445.3791154409451
 30
0.0
 11
285.1659337496874
 21
445.3791154409451
 31
0.0
  0
LINE
  5
4C4
330
1A
100
AcDbEntity
  8
SEIHIN
  6
CONTINUOUS
 62
     3
 48
16.0
100
AcDbLine
 10
408.4519337496873
 20
470.3791154409451
 30
0.0
 11
285.1659337496874
 21
470.3791154409451
 31
0.0
  0
LINE
  5
4C5
330
1A
100
AcDbEntity
  8
CENTER_L
  6
CENTER
 62
     1
 48
5.0
100
AcDbLine
 10
295.1659337496873
 20
450.4143154409453
 30
0.0
 11
295.1659337496873
 21
465.2857154409453
 31
0.0
  0
ARC
  5
4C6
330
1A
100
AcDbEntity
  8
SEIHIN
  6
CONTINUOUS
 62
     3
 48
16.0
100
AcDbCircle
 10
295.1657202954605
 20
457.8784037118293
 30
0.0
 40
5.499988270900587
100
AcDbArc
 50
270.0001401585555
 51
352.162626757365
  0
ARC
  5
4C7
330
1A
100
AcDbEntity
  8
SEIHIN
  6
CONTINUOUS
 62
     3
 48
16.0
100
AcDbCircle
 10
295.1657571778822
 20
457.8784352414137
 30
0.0
 40
4.500019800529565
100
AcDbArc
 50
269.9997017042716
 51
350.4057187045052
  0
LINE
  5
4C8
330
1A
100
AcDbEntity
  8
SEIHIN
  6
CONTINUOUS
 62
     3
 48
16.0
100
AcDbLine
 10
285.1659337496874
 20
445.3792154409453
 30
0.0
 11
285.1659337496874
 21
457.8791154409451
 31
0.0
  0
ARC
  5
4C9
330
1A
100
AcDbEntity
  8
SEIHIN
  6
CONTINUOUS
 62
     3
 48
16.0
100
AcDbCircle
 10
295.1657103214927
 20
457.8784352414136
 30
0.0
 40
4.500019800529464
100
AcDbArc
 50
189.5942812954937
 51
270.0002982957272
  0
ARC
  5
4CA
330
1A
100
AcDbEntity
  8
SEIHIN
  6
CONTINUOUS
 62
     3
 48
16.0
100
AcDbCircle
 10
295.1656903858021
 20
457.8784532447762
 30
0.0
 40
5.500037804002053
100
AcDbArc
 50
187.837823083346
 51
270.0004517364603
  0
LINE
  5
4CB
330
1A
100
AcDbEntity
  8
SEIHIN
  6
CONTINUOUS
 62
     3
 48
16.0
100
AcDbLine
 10
305.1659337496873
 20
445.3792154409453
 30
0.0
 11
305.1659337496873
 21
457.8791154409451
 31
0.0
  0
ARC
  5
4CC
330
1A
100
AcDbEntity
  8
SEIHIN
  6
CONTINUOUS
 62
     3
 48
16.0
100
AcDbCircle
 10
295.1657771135727
 20
457.8783776371141
 30
0.0
 40
5.500037804002146
100
AcDbArc
 50
7.837823083346781
 51
90.00045173646125
  0
ARC
  5
4CD
330
1A
100
AcDbEntity
  8
SEIHIN
  6
CONTINUOUS
 62
     3
 48
16.0
100
AcDbCircle
 10
295.1657571778822
 20
457.8783956404767
 30
0.0
 40
4.500019800529473
100
AcDbArc
 50
9.594281295496109
 51
90.00029829572966
  0
ARC
  5
4CE
330
1A
100
AcDbEntity
  8
SEIHIN
  6
CONTINUOUS
 62
     3
 48
16.0
100
AcDbCircle
 10
295.1657337496874
 20
457.8784154409452
 30
0.0
 40
3.25
100
AcDbArc
 50
270.0
 51
90.0
  0
ARC
  5
4CF
330
1A
100
AcDbEntity
  8
SEIHIN
  6
CONTINUOUS
 62
     3
 48
16.0
100
AcDbCircle
 10
295.1657337496874
 20
457.8784154409452
 30
0.0
 40
2.5
100
AcDbArc
 50
270.0
 51
90.0
  0
ARC
  5
4D0
330
1A
100
AcDbEntity
  8
SEIHIN
  6
CONTINUOUS
 62
     3
 48
16.0
100
AcDbCircle
 10
295.1656903858021
 20
457.8783776371142
 30
0.0
 40
5.500037804002052
100
AcDbArc
 50
89.99954826353969
 51
172.1621769166539
  0
LINE
  5
4D1
330
1A
100
AcDbEntity
  8
SEIHIN
  6
CONTINUOUS
 62
     3
 48
16.0
100
AcDbLine
 10
285.1659337496874
 20
470.3791154409451
 30
0.0
 11
285.1659337496874
 21
457.8791154409451
 31
0.0
  0
LINE
  5
4D2
330
1A
100
AcDbEntity
  8
SEIHIN
  6
CONTINUOUS
 62
     3
 48
16.0
100
AcDbLine
 10
286.0306337496874
 20
458.6285154409453
 30
0.0
 11
292.0034337496874
 21
458.6284154409451
 31
0.0
  0
LINE
  5
4D3
330
1A
100
AcDbEntity
  8
SEIHIN
  6
CONTINUOUS
 62
     3
 48
16.0
100
AcDbLine
 10
286.0306337496874
 20
457.1285154409452
 30
0.0
 11
292.0034337496874
 21
457.1284154409453
 31
0.0
  0
LINE
  5
4D4
330
1A
100
AcDbEntity
  8
SEIHIN
  6
CONTINUOUS
 62
     3
 48
16.0
100
AcDbLine
 10
285.7806337496874
 20
457.3785154409453
 30
0.0
 11
285.7806337496874
 21
458.3785154409452
 31
0.0
  0
ARC
  5
4D5
330
1A
100
AcDbEntity
  8
SEIHIN
  6
CONTINUOUS
 62
     3
 48
16.0
100
AcDbCircle
 10
286.0306337496874
 20
458.3785154409452
 30
0.0
 40
0.25
100
AcDbArc
 50
90.0
 51
180.0
  0
ARC
  5
4D6
330
1A
100
AcDbEntity
  8
SEIHIN
  6
CONTINUOUS
 62
     3
 48
16.0
100
AcDbCircle
 10
286.0306337496874
 20
457.3785154409453
 30
0.0
 40
0.25
100
AcDbArc
 50
180.0
 51
270.0
  0
ARC
  5
4D7
330
1A
100
AcDbEntity
  8
SEIHIN
  6
CONTINUOUS
 62
     3
 48
16.0
100
AcDbCircle
 10
295.1657337496874
 20
457.8784154409452
 30
0.0
 40
3.25
100
AcDbArc
 50
90.0
 51
270.0
  0
ARC
  5
4D8
330
1A
100
AcDbEntity
  8
SEIHIN
  6
CONTINUOUS
 62
     3
 48
16.0
100
AcDbCircle
 10
295.1657103214926
 20
457.8783956404767
 30
0.0
 40
4.50001980052938
100
AcDbArc
 50
89.99970170427152
 51
170.4057187045049
  0
ARC
  5
4D9
330
1A
100
AcDbEntity
  8
SEIHIN
  6
CONTINUOUS
 62
     3
 48
16.0
100
AcDbCircle
 10
295.1657337496874
 20
457.8784154409452
 30
0.0
 40
2.5
100
AcDbArc
 50
90.0
 51
270.0
  0
LINE
  5
4DA
330
1A
100
AcDbEntity
  8
SEIHIN
  6
CONTINUOUS
 62
     3
 48
16.0
100
AcDbLine
 10
305.1659337496873
 20
470.3791154409451
 30
0.0
 11
305.1659337496873
 21
457.8792154409453
 31
0.0
  0
LINE
  5
4DB
330
1A
100
AcDbEntity
  8
SEIHIN
  6
CONTINUOUS
 62
     3
 48
16.0
100
AcDbLine
 10
304.5507337496873
 20
457.3784154409453
 30
0.0
 11
304.5507337496873
 21
458.3784154409451
 31
0.0
  0
ARC
  5
4DC
330
1A
100
AcDbEntity
  8
SEIHIN
  6
CONTINUOUS
 62
     3
 48
16.0
100
AcDbCircle
 10
304.3007337496873
 20
458.3784154409451
 30
0.0
 40
0.25
100
AcDbArc
 50
0.0
 51
90.0
  0
LINE
  5
4DD
330
1A
100
AcDbEntity
  8
SEIHIN
  6
CONTINUOUS
 62
     3
 48
16.0
100
AcDbLine
 10
304.3007337496873
 20
458.6284154409451
 30
0.0
 11
298.3280337496875
 21
458.6284154409451
 31
0.0
  0
LINE
  5
4DE
330
1A
100
AcDbEntity
  8
SEIHIN
  6
CONTINUOUS
 62
     3
 48
16.0
100
AcDbLine
 10
304.3007337496873
 20
457.1284154409453
 30
0.0
 11
298.3280337496875
 21
457.1284154409453
 31
0.0
  0
ARC
  5
4DF
330
1A
100
AcDbEntity
  8
SEIHIN
  6
CONTINUOUS
 62
     3
 48
16.0
100
AcDbCircle
 10
304.3007337496873
 20
457.3784154409453
 30
0.0
 40
0.25
100
AcDbArc
 50
270.0
 51
0.0
  0
LINE
  5
4E0
330
1A
100
AcDbEntity
  8
SEIHIN
  6
CONTINUOUS
 62
     3
 48
16.0
100
AcDbLine
 10
325.2802337496873
 20
445.3791154409451
 30
0.0
 11
325.2802337496873
 21
457.8791154409451
 31
0.0
  0
LINE
  5
4E1
330
1A
100
AcDbEntity
  8
SEIHIN
  6
CONTINUOUS
 62
     3
 48
16.0
100
AcDbLine
 10
325.2802337496873
 20
470.3791154409451
 30
0.0
 11
325.2802337496873
 21
457.8792154409453
 31
0.0
  0
ELLIPSE
  5
4E2
330
1A
100
AcDbEntity
  8
SEIHIN
 62
     3
100
AcDbEllipse
 10
414.0576337496876
 20
436.3791154409451
 30
0.0
 11
0.0
 21
-10.0
 31
0.0
210
0.0
220
0.0
230
1.0
 40
0.3720000000000027
 41
-1.570796326794896
 42
-0.7812986397813453
  0
LINE
  5
4E3
330
1A
100
AcDbEntity
  8
SEIHIN
  6
CONTINUOUS
 62
     3
 48
16.0
100
AcDbLine
 10
410.3376337496875
 20
442.379115440945
 30
0.0
 11
410.3376337496875
 21
436.3791154409451
 31
0.0
  0
LINE
  5
4E4
330
1A
100
AcDbEntity
  8
SEIHIN
  6
CONTINUOUS
 62
     3
 48
16.0
100
AcDbLine
 10
411.4518337496876
 20
442.379115440945
 30
0.0
 11
411.4518337496876
 21
436.3798154409452
 31
0.0
  0
POINT
  5
4E5
330
1A
100
AcDbEntity
  8
DEFPOINTS
  6
BYBLOCK
 62
     0
100
AcDbPoint
 10
408.4518337496874
 20
445.3791154409451
 30
0.0
  0
ARC
  5
4E6
330
1A
100
AcDbEntity
  8
SEIHIN
  6
CONTINUOUS
 62
     3
 48
16.0
100
AcDbCircle
 10
407.3376337496874
 20
442.379115440945
 30
0.0
 40
3.000000000000113
100
AcDbArc
 50
0.0
 51
90.0
  0
ARC
  5
4E7
330
1A
100
AcDbEntity
  8
SEIHIN
  6
CONTINUOUS
 62
     3
 48
16.0
100
AcDbCircle
 10
407.3376337496876
 20
473.3792154409452
 30
0.0
 40
3.0
100
AcDbArc
 50
269.9999999999977
 51
359.9999999999977
  0
POINT
  5
4E8
330
1A
100
AcDbEntity
  8
DEFPOINTS
  6
BYBLOCK
 62
     0
100
AcDbPoint
 10
408.4518337496874
 20
470.3792154409452
 30
0.0
  0
ELLIPSE
  5
4E9
330
1A
100
AcDbEntity
  8
SEIHIN
 62
     3
100
AcDbEllipse
 10
414.0576337496876
 20
479.3792154409452
 30
0.0
 11
0.0
 21
-10.0
 31
0.0
210
0.0
220
0.0
230
1.0
 40
0.3720000000000027
 41
-2.360294013808447
 42
-1.570796326794873
  0
LINE
  5
4EB
330
1A
100
AcDbEntity
  8
SEIHIN
  6
PHANTOM
 62
     6
 48
5.0
100
AcDbLine
 10
425.3377337496874
 20
313.6118792097669
 30
0.0
 11
442.4206337496873
 21
270.9014792097668
 31
0.0
  0
LINE
  5
4EC
330
1A
100
AcDbEntity
  8
SEIHIN
  6
PHANTOM
 62
     6
 48
5.0
100
AcDbLine
 10
430.1658337496875
 20
317.6970792097669
 30
0.0
 11
448.7342337496873
 21
271.2727792097668
 31
0.0
  0
LINE
  5
4ED
330
1A
100
AcDbEntity
  8
SEIHIN
  6
PHANTOM
 62
     6
 48
5.0
100
AcDbLine
 10
426.4519337496873
 20
316.2115792097669
 30
0.0
 11
445.0203337496874
 21
269.7872792097668
 31
0.0
  0
LINE
  5
4EE
330
1A
100
AcDbEntity
  8
SEIHIN
  6
CONTINUOUS
 62
     3
 48
16.0
100
AcDbLine
 10
415.1658337496875
 20
317.6970792097669
 30
0.0
 11
433.7342337496875
 21
271.2727792097668
 31
0.0
  0
LINE
  5
4F4
330
1A
100
AcDbEntity
  8
SEIHIN
  6
PHANTOM
 62
     6
 48
5.0
100
AcDbLine
 10
442.4206337496873
 20
270.9014792097668
 30
0.0
 11
445.0203337496874
 21
269.7872792097668
 31
0.0
  0
LINE
  5
4F5
330
1A
100
AcDbEntity
  8
SUNPOU
  6
CONTINUOUS
 62
     4
 48
16.0
100
AcDbLine
 10
441.1617291954459
 20
252.7027205712993
 30
0.0
 11
451.4279291954458
 21
227.0354205712993
 31
0.0
  0
LINE
  5
4F7
330
1A
100
AcDbEntity
  8
SUNPOU
  6
CONTINUOUS
 62
     4
 48
16.0
100
AcDbLine
 10
445.4283291954458
 20
242.0354205712992
 30
0.0
 11
445.4283291954458
 21
227.0354205712993
 31
0.0
  0
LINE
  5
4F8
330
1A
100
AcDbEntity
  8
SUNPOU
  6
CONTINUOUS
 62
     4
 48
16.0
100
AcDbLine
 10
445.4283291954458
 20
227.0354205712993
 30
0.0
 11
451.4279291954458
 21
227.0354205712993
 31
0.0
  0
LINE
  5
4F9
330
1A
100
AcDbEntity
  8
CENTER_L
  6
CENTER
 62
     1
 48
5.0
100
AcDbLine
 10
433.0693337496875
 20
281.7772792097668
 30
0.0
 11
419.6988337496874
 21
276.4293792097669
 31
0.0
  0
LINE
  5
4FA
330
1A
100
AcDbEntity
  8
SEIHIN
  6
CONTINUOUS
 62
     3
 48
16.0
100
AcDbLine
 10
427.4206337496874
 20
270.9014792097668
 30
0.0
 11
430.0203337496873
 21
269.7872792097668
 31
0.0
  0
LINE
  5
4FB
330
1A
100
AcDbEntity
  8
SEIHIN
  6
CONTINUOUS
 62
     3
 48
16.0
100
AcDbLine
 10
430.0203337496873
 20
269.7872792097668
 30
0.0
 11
433.7342337496875
 21
271.2727792097668
 31
0.0
  0
LINE
  5
4FD
330
1A
100
AcDbEntity
  8
SEIHIN
  6
PHANTOM
 62
     6
 48
5.0
100
AcDbLine
 10
445.0203337496874
 20
269.7872792097668
 30
0.0
 11
448.7342337496873
 21
271.2727792097668
 31
0.0
  0
LINE
  5
500
330
1A
100
AcDbEntity
  8
SEIHIN
  6
CONTINUOUS
 62
     3
 48
16.0
100
AcDbLine
 10
415.1658337496876
 20
479.3792154409452
 30
0.0
 11
415.1658337496876
 21
457.8792154409452
 31
0.0
  0
LINE
  5
501
330
1A
100
AcDbEntity
  8
SEIHIN
  6
CONTINUOUS
 62
     3
 48
16.0
100
AcDbLine
 10
433.7358337496874
 20
457.8792154409452
 30
0.0
 11
433.7358337496874
 21
479.3792154409452
 31
0.0
  0
ELLIPSE
  5
502
330
1A
100
AcDbEntity
  8
SEIHIN
 62
     3
100
AcDbEllipse
 10
430.0258337496876
 20
481.3792154409452
 30
0.0
 11
0.0
 21
-6.999999999999999
 31
0.0
210
0.0
220
0.0
230
1.0
 40
0.3714285714285909
 41
-1.570796326794896
 42
0.0
  0
ELLIPSE
  5
503
330
1A
100
AcDbEntity
  8
SEIHIN
 62
     3
100
AcDbEllipse
 10
428.8858337496876
 20
481.3792154409452
 30
0.0
 11
0.0
 21
-6.999999999999999
 31
0.0
210
0.0
220
0.0
230
1.0
 40
0.3714285714285909
 41
-1.570796326794896
 42
0.0
  0
LINE
  5
504
330
1A
100
AcDbEntity
  8
SEIHIN
  6
CONTINUOUS
 62
     3
 48
16.0
100
AcDbLine
 10
423.7158337496875
 20
461.379115440945
 30
0.0
 11
423.7158337496875
 21
483.3792154409452
 31
0.0
  0
DIMENSION
  5
505
330
1A
100
AcDbEntity
  8
SUNPOU
100
AcDbDimension
  2
*D1
 10
516.7027772315061
 20
304.457858564643
 30
0.0
 11
528.5868791591401
 21
288.2092241182164
 31
0.0
 70
    32
  3
STANDARD
100
AcDbAlignedDimension
 13
580.0875298830185
 23
340.5803195317188
 33
0.0
 14
589.5966298830187
 24
333.613319531719
 34
0.0
 50
111.7999999999998
100
AcDbRotatedDimension
1001
ACAD
1000
DSTYLE
1002
{
1070
   140
1040
6.0
1070
    74
1070
     0
1070
   172
1070
     1
1070
    73
1070
     0
1070
   272
1070
     2
1070
    77
1070
     3
1070
   173
1070
     1
1070
   147
1040
2.0
1070
    42
1040
6.0
1070
    44
1040
3.0
1070
    43
1040
14.0
1070
   271
1070
     0
1070
   178
1070
     4
1070
   177
1070
     4
1070
   176
1070
     4
1070
   141
1040
150.0
1070
     7
1000
_OPEN
1070
     6
1000
_OPEN
1070
    41
1040
7.0
1002
}
  0
DIMENSION
  5
506
330
1A
100
AcDbEntity
  8
SUNPOU
100
AcDbDimension
  2
*D2
 10
487.8333747028114
 20
292.9110213682772
 30
0.0
 11
483.1916127848365
 21
317.9799941262479
 31
0.0
 70
    32
  3
STANDARD
100
AcDbAlignedDimension
 13
571.0283298830185
 23
380.0377195317189
 33
0.0
 14
589.5966298830186
 24
333.6134195317189
 34
0.0
 50
111.7999999999998
100
AcDbRotatedDimension
1001
ACAD
1000
DSTYLE
1002
{
1070
   140
1040
6.0
1070
    74
1070
     0
1070
   172
1070
     1
1070
    73
1070
     0
1070
   272
1070
     2
1070
    77
1070
     3
1070
   173
1070
     1
1070
   147
1040
2.0
1070
    42
1040
6.0
1070
    44
1040
3.0
1070
    43
1040
14.0
1070
   271
1070
     0
1070
   178
1070
     4
1070
   177
1070
     4
1070
   176
1070
     4
1070
   141
1040
150.0
1070
     7
1000
_OPEN
1070
     6
1000
_OPEN
1070
    41
1040
7.0
1002
}
  0
DIMENSION
  5
507
330
1A
100
AcDbEntity
  8
SUNPOU
100
AcDbDimension
  2
*D3
 10
489.1771793824633
 20
331.1443484648474
 30
0.0
 11
491.0343650756016
 21
339.9647930280706
 31
0.0
 70
    32
  3
STANDARD
100
AcDbAlignedDimension
 13
571.0283298830185
 23
380.0377195317189
 33
0.0
 14
567.3140134166242
 24
362.3968523716579
 34
0.0
 50
111.7999999999998
100
AcDbRotatedDimension
1001
ACAD
1000
DSTYLE
1002
{
1070
   140
1040
6.0
1070
    74
1070
     0
1070
   172
1070
     1
1070
    73
1070
     0
1070
   272
1070
     2
1070
    77
1070
     3
1070
   173
1070
     1
1070
   147
1040
2.0
1070
    42
1040
6.0
1070
    44
1040
3.0
1070
    43
1040
14.0
1070
   271
1070
     0
1070
   178
1070
     4
1070
   177
1070
     4
1070
   176
1070
     4
1070
   141
1040
150.0
1070
     7
1000
_OPEN
1070
     6
1000
_OPEN
1070
    41
1040
7.0
1002
}
  0
DIMENSION
  5
508
330
1A
100
AcDbEntity
  8
SUNPOU
100
AcDbDimension
  2
*D4
 10
498.1343606457696
 20
350.8822119336751
 30
0.0
 11
495.5351169869446
 21
370.8445247356042
 31
0.0
 70
    32
  3
STANDARD
100
AcDbAlignedDimension
 13
569.0711298830187
 23
368.4847195317189
 33
0.0
 14
571.0283298830185
 24
380.0377195317189
 34
0.0
 50
111.7999999999998
100
AcDbRotatedDimension
1001
ACAD
1000
DSTYLE
1002
{
1070
   140
1040
6.0
1070
    74
1070
     0
1070
   172
1070
     1
1070
    73
1070
     0
1070
   272
1070
     2
1070
    77
1070
     3
1070
   173
1070
     1
1070
   147
1040
2.0
1070
    42
1040
6.0
1070
    44
1040
3.0
1070
    43
1040
14.0
1070
   271
1070
     0
1070
   178
1070
     4
1070
   177
1070
     4
1070
   176
1070
     4
1070
   141
1040
150.0
1070
     7
1000
_OPEN
1070
     6
1000
_OPEN
1070
    41
1040
7.0
1002
}
  0
ARC
  5
50F
330
1A
100
AcDbEntity
  8
SEIHIN
  6
PHANTOM
 62
     6
 48
5.0
100
AcDbCircle
 10
427.5179304537264
 20
294.696981441268
 30
0.0
 40
4.999997768500009
100
AcDbArc
 50
21.80073334328367
 51
89.99996223105096
  0
ARC
  5
510
330
1A
100
AcDbEntity
  8
SEIHIN
  6
CONTINUOUS
 62
     3
 48
16.0
100
AcDbCircle
 10
412.5179304537264
 20
294.696981441268
 30
0.0
 40
4.999997768500009
100
AcDbArc
 50
21.80073334328367
 51
89.99996223105096
  0
LINE
  5
511
330
1A
100
AcDbEntity
  8
SEIHIN
  6
PHANTOM
 62
     6
 48
5.0
100
AcDbLine
 10
427.5179337496874
 20
299.6970792097668
 30
0.0
 11
426.9695337496874
 21
299.6970792097668
 31
0.0
  0
LINE
  5
512
330
1A
100
AcDbEntity
  8
SEIHIN
  6
PHANTOM
 62
     6
 48
5.0
100
AcDbLine
 10
426.4520337496874
 20
316.2115792097669
 30
0.0
 11
430.1658337496875
 21
317.6970792097669
 31
0.0
  0
LINE
  5
513
330
1A
100
AcDbEntity
  8
SEIHIN
  6
PHANTOM
 62
     6
 48
5.0
100
AcDbLine
 10
423.8229337496873
 20
317.6970792097669
 30
0.0
 11
430.1658337496875
 21
317.6970792097669
 31
0.0
  0
LINE
  5
516
330
1A
100
AcDbEntity
  8
SEIHIN
  6
PHANTOM
 62
     6
 48
5.0
100
AcDbLine
 10
423.8229337496873
 20
317.6969792097668
 30
0.0
 11
420.3919337496873
 21
317.3968792097669
 31
0.0
  0
LINE
  5
517
330
1A
100
AcDbEntity
  8
SEIHIN
  6
PHANTOM
 62
     6
 48
5.0
100
AcDbLine
 10
426.4520337496874
 20
316.2115792097669
 30
0.0
 11
425.3377337496874
 21
313.6118792097669
 31
0.0
  0
ELLIPSE
  5
51D
330
1A
100
AcDbEntity
  8
SEIHIN
 62
     3
100
AcDbEllipse
 10
418.8858337496876
 20
436.3791154409451
 30
0.0
 11
0.0
 21
-10.0
 31
0.0
210
0.0
220
0.0
230
1.0
 40
0.3720000000000027
 41
-1.570796326794896
 42
0.0
  0
ELLIPSE
  5
51E
330
1A
100
AcDbEntity
  8
SEIHIN
  6
CONTINUOUS
 62
     3
100
AcDbEllipse
 10
430.0158337496874
 20
436.3791154409451
 30
0.0
 11
0.0
 21
10.0
 31
0.0
210
0.0
220
0.0
230
1.0
 40
0.3720000000000027
 41
3.141592653589793
 42
4.712388980384942
  0
LINE
  5
51F
330
1A
100
AcDbEntity
  8
SEIHIN
  6
CONTINUOUS
 62
     3
 48
16.0
100
AcDbLine
 10
415.1613337496874
 20
426.3791154409451
 30
0.0
 11
430.0158337496874
 21
426.3791154409451
 31
0.0
  0
POINT
  5
520
330
1A
100
AcDbEntity
  8
DEFPOINTS
  6
BYBLOCK
 62
     0
100
AcDbPoint
 10
430.0158337496874
 20
426.3791154409451
 30
0.0
  0
LINE
  5
521
330
1A
100
AcDbEntity
  8
SEIHIN
  6
CONTINUOUS
 62
     3
 48
16.0
100
AcDbLine
 10
433.7358337496874
 20
457.8791154409451
 30
0.0
 11
433.7358337496874
 21
436.379115440945
 31
0.0
  0
LINE
  5
522
330
1A
100
AcDbEntity
  8
SEIHIN
  6
CONTINUOUS
 62
     3
 48
16.0
100
AcDbLine
 10
415.1658337496876
 20
436.3791154409451
 30
0.0
 11
415.1658337496876
 21
457.8791154409451
 31
0.0
  0
LINE
  5
523
330
1A
100
AcDbEntity
  8
SEIHIN
  6
CONTINUOUS
 62
     3
 48
16.0
100
AcDbLine
 10
423.7158337496875
 20
454.379115440945
 30
0.0
 11
423.7158337496875
 21
432.379115440945
 31
0.0
  0
LINE
  5
524
330
1A
100
AcDbEntity
  8
SEIHIN
  6
CONTINUOUS
 62
     3
 48
16.0
100
AcDbLine
 10
421.4858337496874
 20
457.8791154409451
 30
0.0
 11
421.4858337496874
 21
443.879115440945
 31
0.0
  0
LINE
  5
525
330
1A
100
AcDbEntity
  8
SEIHIN
  6
CONTINUOUS
 62
     3
 48
16.0
100
AcDbLine
 10
417.0258337496876
 20
457.8791154409451
 30
0.0
 11
417.0258337496876
 21
443.879115440945
 31
0.0
  0
LINE
  5
526
330
1A
100
AcDbEntity
  8
SEIHIN
  6
CONTINUOUS
 62
     3
 48
16.0
100
AcDbLine
 10
421.8558337496875
 20
457.8791154409451
 30
0.0
 11
421.8558337496875
 21
443.879115440945
 31
0.0
  0
LINE
  5
527
330
1A
100
AcDbEntity
  8
SEIHIN
  6
CONTINUOUS
 62
     3
 48
16.0
100
AcDbLine
 10
430.7358337496875
 20
454.379115440945
 30
0.0
 11
430.7358337496875
 21
442.379115440945
 31
0.0
  0
LINE
  5
528
330
1A
100
AcDbEntity
  8
SEIHIN
  6
CONTINUOUS
 62
     3
 48
16.0
100
AcDbLine
 10
431.8758337496876
 20
454.379115440945
 30
0.0
 11
431.8758337496876
 21
442.379115440945
 31
0.0
  0
ELLIPSE
  5
529
330
1A
100
AcDbEntity
  8
SEIHIN
 62
     3
100
AcDbEllipse
 10
430.0258337496876
 20
434.379115440945
 30
0.0
 11
0.0
 21
-6.999999999999999
 31
0.0
210
0.0
220
0.0
230
1.0
 40
0.3714285714285909
 41
3.141592653589793
 42
4.712388980384947
  0
ELLIPSE
  5
52A
330
1A
100
AcDbEntity
  8
SEIHIN
 62
     3
100
AcDbEllipse
 10
428.8858337496876
 20
434.379115440945
 30
0.0
 11
0.0
 21
-6.999999999999999
 31
0.0
210
0.0
220
0.0
230
1.0
 40
0.3714285714285909
 41
3.141592653589793
 42
4.712388980384915
  0
ELLIPSE
  5
52B
330
1A
100
AcDbEntity
  8
SEIHIN
 62
     3
100
AcDbEllipse
 10
420.7363063187836
 20
434.379115440945
 30
0.0
 11
0.0
 21
-3.25
 31
0.0
210
0.0
220
0.0
230
1.0
 40
0.3713679176294311
 41
-1.231786067640191
 42
4.373346094869074
  0
LINE
  5
52C
330
1A
100
AcDbEntity
  8
CENTER_L
  6
CENTER
 62
     1
 48
5.0
100
AcDbLine
 10
422.7959337496876
 20
434.379115440945
 30
0.0
 11
416.2839337496875
 21
434.379115440945
 31
0.0
  0
LINE
  5
52D
330
1A
100
AcDbEntity
  8
SEIHIN
  6
CONTINUOUS
 62
     3
 48
16.0
100
AcDbLine
 10
419.5980678804897
 20
435.4600154409451
 30
0.0
 11
418.1842337496876
 21
435.4600154409451
 31
0.0
  0
LINE
  5
52E
330
1A
100
AcDbEntity
  8
SEIHIN
  6
CONTINUOUS
 62
     3
 48
16.0
100
AcDbLine
 10
419.5980547844962
 20
433.2983154409451
 30
0.0
 11
418.1842337496876
 21
433.2983154409451
 31
0.0
  0
ELLIPSE
  5
52F
330
1A
100
AcDbEntity
  8
SEIHIN
 62
     3
100
AcDbEllipse
 10
418.8758337496876
 20
434.379115440945
 30
0.0
 11
0.0
 21
-2.1
 31
0.0
210
0.0
220
0.0
230
1.0
 40
0.3696183147193703
 41
2.111470694473491
 42
7.313362806740554
  0
LINE
  5
530
330
1A
100
AcDbEntity
  8
CENTER_L
  6
CENTER
 62
     1
 48
5.0
100
AcDbLine
 10
418.8758337496876
 20
430.6648154409451
 30
0.0
 11
418.8758337496876
 21
438.4690154409451
 31
0.0
  0
LINE
  5
531
330
1A
100
AcDbEntity
  8
SEIHIN
  6
CONTINUOUS
 62
     3
 48
16.0
100
AcDbLine
 10
426.2858337496874
 20
432.379115440945
 30
0.0
 11
426.2858337496874
 21
434.379115440945
 31
0.0
  0
LINE
  5
532
330
1A
100
AcDbEntity
  8
SEIHIN
  6
CONTINUOUS
 62
     3
 48
16.0
100
AcDbLine
 10
427.4258337496874
 20
432.379115440945
 30
0.0
 11
427.4258337496874
 21
434.379115440945
 31
0.0
  0
ARC
  5
533
330
1A
100
AcDbEntity
  8
SEIHIN
  6
CONTINUOUS
 62
     3
 48
16.0
100
AcDbCircle
 10
424.7158337496874
 20
432.3791154409449
 30
0.0
 40
0.9999999999999147
100
AcDbArc
 50
179.9999999999951
 51
269.9999999999951
  0
ARC
  5
534
330
1A
100
AcDbEntity
  8
SEIHIN
  6
CONTINUOUS
 62
     3
 48
16.0
100
AcDbCircle
 10
425.2858337496875
 20
432.379115440945
 30
0.0
 40
0.9999999999999431
100
AcDbArc
 50
270.0000000000032
 51
0.0000000000032569
  0
ARC
  5
535
330
1A
100
AcDbEntity
  8
SEIHIN
  6
CONTINUOUS
 62
     3
 48
16.0
100
AcDbCircle
 10
426.4258337496874
 20
432.379115440945
 30
0.0
 40
1.0
100
AcDbArc
 50
270.0
 51
0.0
  0
LINE
  5
536
330
1A
100
AcDbEntity
  8
SEIHIN
  6
CONTINUOUS
 62
     3
 48
16.0
100
AcDbLine
 10
426.4258337496874
 20
431.379115440945
 30
0.0
 11
424.7158337496874
 21
431.379115440945
 31
0.0
  0
LINE
  5
537
330
1A
100
AcDbEntity
  8
CENTER_L
  6
CENTER
 62
     1
 48
5.0
100
AcDbLine
 10
420.7358337496875
 20
430.677115440945
 30
0.0
 11
420.7358337496875
 21
438.4690154409451
 31
0.0
  0
LINE
  5
538
330
1A
100
AcDbEntity
  8
SEIHIN
  6
CONTINUOUS
 62
     3
 48
16.0
100
AcDbLine
 10
420.8558337496874
 20
442.879115440945
 30
0.0
 11
418.0258337496876
 21
442.879115440945
 31
0.0
  0
ARC
  5
539
330
1A
100
AcDbEntity
  8
SEIHIN
  6
CONTINUOUS
 62
     3
 48
16.0
100
AcDbCircle
 10
418.0258337496876
 20
443.879115440945
 30
0.0
 40
1.0
100
AcDbArc
 50
180.0
 51
270.0
  0
ARC
  5
53A
330
1A
100
AcDbEntity
  8
SEIHIN
  6
CONTINUOUS
 62
     3
 48
16.0
100
AcDbCircle
 10
420.4858337496874
 20
443.879115440945
 30
0.0
 40
1.0
100
AcDbArc
 50
270.0
 51
0.0
  0
ARC
  5
53B
330
1A
100
AcDbEntity
  8
SEIHIN
  6
CONTINUOUS
 62
     3
 48
16.0
100
AcDbCircle
 10
420.8558337496874
 20
443.8791154409451
 30
0.0
 40
1.000000000000056
100
AcDbArc
 50
269.9999999999967
 51
359.9999999999967
  0
LINE
  5
53C
330
1A
100
AcDbEntity
  8
CENTER_L
  6
CENTER
 62
     1
 48
5.0
100
AcDbLine
 10
432.6831337496876
 20
434.379115440945
 30
0.0
 11
428.3001337496874
 21
434.379115440945
 31
0.0
  0
ELLIPSE
  5
53D
330
1A
100
AcDbEntity
  8
SEIHIN
 62
     3
100
AcDbEllipse
 10
430.0258337496876
 20
434.379115440945
 30
0.0
 11
0.0
 21
-2.1
 31
0.0
210
0.0
220
0.0
230
1.0
 40
0.3738846774165051
 41
0.0
 42
6.283185307179586
  0
LINE
  5
53E
330
1A
100
AcDbEntity
  8
CENTER_L
  6
CENTER
 62
     1
 48
5.0
100
AcDbLine
 10
430.0258337496876
 20
430.738615440945
 30
0.0
 11
430.0258337496876
 21
438.4690154409451
 31
0.0
  0
ARC
  5
53F
330
1A
100
AcDbEntity
  8
SEIHIN
  6
CONTINUOUS
 62
     3
 48
16.0
100
AcDbCircle
 10
430.8758337496875
 20
442.379115440945
 30
0.0
 40
1.0
100
AcDbArc
 50
270.0
 51
0.0
  0
LINE
  5
540
330
1A
100
AcDbEntity
  8
SEIHIN
  6
CONTINUOUS
 62
     3
 48
16.0
100
AcDbLine
 10
429.7358337496874
 20
441.379115440945
 30
0.0
 11
428.8858337496876
 21
441.379115440945
 31
0.0
  0
ARC
  5
541
330
1A
100
AcDbEntity
  8
SEIHIN
  6
CONTINUOUS
 62
     3
 48
16.0
100
AcDbCircle
 10
429.7358337496874
 20
442.3791154409451
 30
0.0
 40
1.000000000000056
100
AcDbArc
 50
269.9999999999967
 51
359.9999999999967
  0
LINE
  5
542
330
1A
100
AcDbEntity
  8
SEIHIN
  6
CONTINUOUS
 62
     3
 48
16.0
100
AcDbLine
 10
430.8758337496875
 20
441.379115440945
 30
0.0
 11
429.9090337496874
 21
441.379115440945
 31
0.0
  0
LINE
  5
543
330
1A
100
AcDbEntity
  8
SEIHIN
  6
CONTINUOUS
 62
     3
 48
16.0
100
AcDbLine
 10
430.8758337496875
 20
460.379115440945
 30
0.0
 11
424.7158337496874
 21
460.379115440945
 31
0.0
  0
LINE
  5
544
330
1A
100
AcDbEntity
  8
SEIHIN
  6
CONTINUOUS
 62
     3
 48
16.0
100
AcDbLine
 10
430.8758337496875
 20
455.379115440945
 30
0.0
 11
424.7158337496874
 21
455.379115440945
 31
0.0
  0
LINE
  5
545
330
1A
100
AcDbEntity
  8
SEIHIN
  6
CONTINUOUS
 62
     3
 48
16.0
100
AcDbLine
 10
421.8558337496875
 20
457.8792154409452
 30
0.0
 11
421.8558337496875
 21
471.8792154409452
 31
0.0
  0
LINE
  5
546
330
1A
100
AcDbEntity
  8
SEIHIN
  6
CONTINUOUS
 62
     3
 48
16.0
100
AcDbLine
 10
417.0258337496876
 20
457.8792154409452
 30
0.0
 11
417.0258337496876
 21
471.8792154409452
 31
0.0
  0
LINE
  5
547
330
1A
100
AcDbEntity
  8
SEIHIN
  6
CONTINUOUS
 62
     3
 48
16.0
100
AcDbLine
 10
421.4858337496874
 20
457.8792154409452
 30
0.0
 11
421.4858337496874
 21
471.8792154409452
 31
0.0
  0
ARC
  5
548
330
1A
100
AcDbEntity
  8
SEIHIN
  6
CONTINUOUS
 62
     3
 48
16.0
100
AcDbCircle
 10
424.7158337496874
 20
461.3791154409449
 30
0.0
 40
0.9999999999999147
100
AcDbArc
 50
179.9999999999951
 51
269.9999999999951
  0
ARC
  5
549
330
1A
100
AcDbEntity
  8
SEIHIN
  6
CONTINUOUS
 62
     3
 48
16.0
100
AcDbCircle
 10
424.7158337496874
 20
454.3791154409452
 30
0.0
 40
0.9999999999999147
100
AcDbArc
 50
90.00000000000488
 51
180.0000000000048
  0
LINE
  5
54A
330
1A
100
AcDbEntity
  8
SEIHIN
  6
CONTINUOUS
 62
     3
 48
16.0
100
AcDbLine
 10
420.8558337496874
 20
472.8792154409452
 30
0.0
 11
418.0258337496876
 21
472.8792154409452
 31
0.0
  0
ARC
  5
54B
330
1A
100
AcDbEntity
  8
SEIHIN
  6
CONTINUOUS
 62
     3
 48
16.0
100
AcDbCircle
 10
418.0258337496876
 20
471.8792154409452
 30
0.0
 40
1.0
100
AcDbArc
 50
90.0
 51
180.0
  0
ARC
  5
54C
330
1A
100
AcDbEntity
  8
SEIHIN
  6
CONTINUOUS
 62
     3
 48
16.0
100
AcDbCircle
 10
420.4858337496874
 20
471.8792154409452
 30
0.0
 40
1.0
100
AcDbArc
 50
0.0
 51
90.0
  0
ARC
  5
54D
330
1A
100
AcDbEntity
  8
SEIHIN
  6
CONTINUOUS
 62
     3
 48
16.0
100
AcDbCircle
 10
420.8558337496874
 20
471.8792154409451
 30
0.0
 40
1.000000000000056
100
AcDbArc
 50
0.0000000000032569
 51
90.00000000000325
  0
LINE
  5
54E
330
1A
100
AcDbEntity
  8
SEIHIN
  6
CONTINUOUS
 62
     3
 48
16.0
100
AcDbLine
 10
431.8758337496876
 20
461.379115440945
 30
0.0
 11
431.8758337496876
 21
473.3792154409451
 31
0.0
  0
LINE
  5
54F
330
1A
100
AcDbEntity
  8
SEIHIN
  6
CONTINUOUS
 62
     3
 48
16.0
100
AcDbLine
 10
430.7358337496875
 20
461.379115440945
 30
0.0
 11
430.7358337496875
 21
473.3792154409451
 31
0.0
  0
ARC
  5
550
330
1A
100
AcDbEntity
  8
SEIHIN
  6
CONTINUOUS
 62
     3
 48
16.0
100
AcDbCircle
 10
430.8758337496875
 20
461.379115440945
 30
0.0
 40
1.0
100
AcDbArc
 50
270.0
 51
0.0
  0
ARC
  5
551
330
1A
100
AcDbEntity
  8
SEIHIN
  6
CONTINUOUS
 62
     3
 48
16.0
100
AcDbCircle
 10
429.7358337496874
 20
461.3791154409451
 30
0.0
 40
1.000000000000056
100
AcDbArc
 50
269.9999999999967
 51
359.9999999999967
  0
ARC
  5
552
330
1A
100
AcDbEntity
  8
SEIHIN
  6
CONTINUOUS
 62
     3
 48
16.0
100
AcDbCircle
 10
430.8758337496875
 20
454.379115440945
 30
0.0
 40
1.0
100
AcDbArc
 50
0.0
 51
90.0
  0
ARC
  5
553
330
1A
100
AcDbEntity
  8
SEIHIN
  6
CONTINUOUS
 62
     3
 48
16.0
100
AcDbCircle
 10
429.7358337496874
 20
454.379115440945
 30
0.0
 40
1.000000000000056
100
AcDbArc
 50
0.0000000000032569
 51
90.00000000000325
  0
ARC
  5
554
330
1A
100
AcDbEntity
  8
SEIHIN
  6
CONTINUOUS
 62
     3
 48
16.0
100
AcDbCircle
 10
430.8758337496875
 20
473.3792154409451
 30
0.0
 40
1.000000000000056
100
AcDbArc
 50
359.9999999999967
 51
89.99999999999674
  0
LINE
  5
555
330
1A
100
AcDbEntity
  8
SEIHIN
  6
CONTINUOUS
 62
     3
 48
16.0
100
AcDbLine
 10
429.7358337496874
 20
474.3792154409452
 30
0.0
 11
428.8858337496876
 21
474.3792154409452
 31
0.0
  0
ARC
  5
556
330
1A
100
AcDbEntity
  8
SEIHIN
  6
CONTINUOUS
 62
     3
 48
16.0
100
AcDbCircle
 10
429.7358337496874
 20
473.3792154409451
 30
0.0
 40
1.000000000000113
100
AcDbArc
 50
0.0
 51
90.0
  0
LINE
  5
557
330
1A
100
AcDbEntity
  8
SEIHIN
  6
CONTINUOUS
 62
     3
 48
16.0
100
AcDbLine
 10
430.8758337496875
 20
474.3792154409452
 30
0.0
 11
430.0258337496876
 21
474.3792154409452
 31
0.0
  0
DIMENSION
  5
558
330
1A
100
AcDbEntity
  8
SUNPOU
100
AcDbDimension
  2
*D5
 10
604.4749367293948
 20
439.1307763405653
 30
0.0
 11
573.3708528626316
 21
432.0751421965528
 31
0.0
 70
    32
  3
STANDARD
100
AcDbAlignedDimension
 13
565.4572298830187
 23
367.0392195317189
 33
0.0
 14
623.9517298830185
 24
390.4353195317188
 34
0.0
 50
21.79999999999983
100
AcDbRotatedDimension
1001
ACAD
1000
DSTYLE
1002
{
1070
   140
1040
6.0
1070
    74
1070
     0
1070
   172
1070
     1
1070
    73
1070
     0
1070
   272
1070
     2
1070
    77
1070
     3
1070
   173
1070
     1
1070
   147
1040
2.0
1070
    42
1040
6.0
1070
    44
1040
3.0
1070
    43
1040
14.0
1070
   271
1070
     0
1070
   178
1070
     4
1070
   177
1070
     4
1070
   176
1070
     4
1070
   141
1040
150.0
1070
     7
1000
_OPEN
1070
     6
1000
_OPEN
1070
    41
1040
7.0
1002
}
  0
ARC
  5
559
330
1A
100
AcDbEntity
  8
SEIHIN
  6
CONTINUOUS
 62
     3
 48
16.0
100
AcDbCircle
 10
616.5238301862842
 20
387.4644196530218
 30
0.0
 40
2.100096334695257
100
AcDbArc
 50
317.9683687411062
 51
265.6333014209897
  0
ARC
  5
55A
330
1A
100
AcDbEntity
  8
SEIHIN
  6
CONTINUOUS
 62
     3
 48
16.0
100
AcDbCircle
 10
614.6669143640626
 20
386.7215833228646
 30
0.0
 40
9.999981792483277
100
AcDbArc
 50
21.800398733158
 51
111.800079525749
  0
LINE
  5
55B
330
1A
100
AcDbEntity
  8
SEIHIN
  6
CONTINUOUS
 62
     3
 48
16.0
100
AcDbLine
 10
579.6630298830186
 20
375.952219531719
 30
0.0
 11
583.0053298830186
 21
367.5959195317188
 31
0.0
  0
ARC
  5
55C
330
1A
100
AcDbEntity
  8
SEIHIN
  6
CONTINUOUS
 62
     3
 48
16.0
100
AcDbCircle
 10
572.8849784602418
 20
370.0101989646181
 30
0.0
 40
2.099979672966835
100
AcDbArc
 50
317.9699327395771
 51
265.631737422535
  0
ARC
  5
55D
330
1A
100
AcDbEntity
  8
SEIHIN
  6
CONTINUOUS
 62
     3
 48
16.0
100
AcDbCircle
 10
574.7420557472712
 20
370.7528798763799
 30
0.0
 40
9.999963224182362
100
AcDbArc
 50
111.7997603598797
 51
201.7999731350509
  0
LINE
  5
55E
330
1A
100
AcDbEntity
  8
CENTER_L
  6
CENTER
 62
     1
 48
5.0
100
AcDbLine
 10
571.4794298830187
 20
373.524419531719
 30
0.0
 11
576.5469298830187
 21
360.8545195317189
 31
0.0
  0
LINE
  5
55F
330
1A
100
AcDbEntity
  8
CENTER_L
  6
CENTER
 62
     1
 48
5.0
100
AcDbLine
 10
589.4642298830185
 20
391.8386195317188
 30
0.0
 11
611.3420298830186
 21
337.140319531719
 31
0.0
  0
LINE
  5
560
330
1A
100
AcDbEntity
  8
SEIHIN
  6
CONTINUOUS
 62
     3
 48
16.0
100
AcDbLine
 10
607.5175298830187
 20
387.093219531719
 30
0.0
 11
610.8599298830187
 21
378.7369195317188
 31
0.0
  0
LINE
  5
561
330
1A
100
AcDbEntity
  8
CENTER_L
  6
CENTER
 62
     1
 48
5.0
100
AcDbLine
 10
615.1183298830185
 20
390.9786195317188
 30
0.0
 11
620.2352298830184
 21
378.185419531719
 31
0.0
  0
LINE
  5
562
330
1A
100
AcDbEntity
  8
SEIHIN
  6
CONTINUOUS
 62
     3
 48
16.0
100
AcDbLine
 10
597.6753298830186
 20
371.3094195317188
 30
0.0
 11
585.6050298830187
 21
366.481619531719
 31
0.0
  0
LINE
  5
563
330
1A
100
AcDbEntity
  8
SEIHIN
  6
CONTINUOUS
 62
     3
 48
16.0
100
AcDbLine
 10
609.5591298830184
 20
341.597819531719
 30
0.0
 11
589.5966298830186
 21
333.6134195317189
 31
0.0
  0
ARC
  5
564
330
1A
100
AcDbEntity
  8
SEIHIN
  6
CONTINUOUS
 62
     3
 48
16.0
100
AcDbCircle
 10
579.7551540200611
 20
350.1405091871395
 30
0.0
 40
1.99993879281348
100
AcDbArc
 50
201.7992815254484
 51
291.8019415015844
  0
ARC
  5
565
330
1A
100
AcDbEntity
  8
SEIHIN
  6
CONTINUOUS
 62
     3
 48
16.0
100
AcDbCircle
 10
584.0258057472166
 20
342.1555298764298
 30
0.0
 40
6.999990040350153
100
AcDbArc
 50
21.79928157885212
 51
111.8000415569122
  0
LINE
  5
566
330
1A
100
AcDbEntity
  8
SEIHIN
  6
CONTINUOUS
 62
     3
 48
16.0
100
AcDbLine
 10
597.9536298830185
 20
363.8816195317189
 30
0.0
 11
604.6383298830185
 21
347.1688195317188
 31
0.0
  0
LINE
  5
567
330
1A
100
AcDbEntity
  8
SEIHIN
  6
CONTINUOUS
 62
     3
 48
16.0
100
AcDbLine
 10
565.4572298830187
 20
367.0392195317189
 30
0.0
 11
576.5981298830183
 21
339.1845195317188
 31
0.0
  0
LINE
  5
568
330
1A
100
AcDbEntity
  8
CENTER_L
  6
CENTER
 62
     1
 48
5.0
100
AcDbLine
 10
582.4055298830187
 20
346.2070195317189
 30
0.0
 11
586.0526298830185
 21
337.0886195317188
 31
0.0
  0
ARC
  5
569
330
1A
100
AcDbEntity
  8
SEIHIN
  6
CONTINUOUS
 62
     3
 48
16.0
100
AcDbCircle
 10
585.8829902279196
 20
342.8981936680268
 30
0.0
 40
10.00000036075004
100
AcDbArc
 50
201.7999731371263
 51
291.7997603578055
  0
LINE
  5
56A
330
1A
100
AcDbEntity
  8
CENTER_L
  6
CENTER
 62
     1
 48
5.0
100
AcDbLine
 10
587.6900298830186
 20
343.6211195317188
 30
0.0
 11
580.0875298830185
 21
340.5803195317188
 31
0.0
  0
ARC
  5
56B
330
1A
100
AcDbEntity
  8
SEIHIN
  6
CONTINUOUS
 62
     3
 48
16.0
100
AcDbCircle
 10
584.0258298830185
 20
342.155519531719
 30
0.0
 40
2.14999999999992
100
AcDbArc
 50
359.9999999999999
 51
179.9999999999999
  0
ARC
  5
56C
330
1A
100
AcDbEntity
  8
SEIHIN
  6
CONTINUOUS
 62
     3
 48
16.0
100
AcDbCircle
 10
584.0258298830185
 20
342.155519531719
 30
0.0
 40
2.14999999999992
100
AcDbArc
 50
179.9999999999999
 51
359.9999999999999
  0
LINE
  5
56D
330
1A
100
AcDbEntity
  8
SEIHIN
  6
CONTINUOUS
 62
     3
 48
16.0
100
AcDbLine
 10
581.4262298830184
 20
348.6549195317189
 30
0.0
 11
580.4979298830186
 21
348.2835195317189
 31
0.0
  0
ARC
  5
56E
330
1A
100
AcDbEntity
  8
SEIHIN
  6
CONTINUOUS
 62
     3
 48
16.0
100
AcDbCircle
 10
602.7814660903714
 20
346.4261040122925
 30
0.0
 40
1.999985217445377
100
AcDbArc
 50
291.7979516151777
 51
21.79954761271106
  0
ARC
  5
56F
330
1A
100
AcDbEntity
  8
SEIHIN
  6
CONTINUOUS
 62
     3
 48
16.0
100
AcDbCircle
 10
593.4963936763382
 20
342.7123350494645
 30
0.0
 40
1.999985217445233
100
AcDbArc
 50
201.7995475608473
 51
291.8032714118507
  0
LINE
  5
570
330
1A
100
AcDbEntity
  8
SEIHIN
  6
CONTINUOUS
 62
     3
 48
16.0
100
AcDbLine
 10
603.5241298830185
 20
344.5691195317189
 30
0.0
 11
594.2392298830186
 21
340.8554195317189
 31
0.0
  0
LINE
  5
571
330
1A
100
AcDbEntity
  8
SEIHIN
  6
CONTINUOUS
 62
     3
 48
16.0
100
AcDbLine
 10
591.6394298830186
 20
341.969619531719
 30
0.0
 11
590.5252298830188
 21
344.7550195317189
 31
0.0
  0
LINE
  5
572
330
1A
100
AcDbEntity
  8
SEIHIN
  6
CONTINUOUS
 62
     3
 48
16.0
100
AcDbLine
 10
576.7842298830187
 20
357.5684195317189
 30
0.0
 11
595.3539298830185
 21
364.9958195317189
 31
0.0
  0
ARC
  5
573
330
1A
100
AcDbEntity
  8
SEIHIN
  6
CONTINUOUS
 62
     3
 48
16.0
100
AcDbCircle
 10
577.5269557474728
 20
355.7114798759223
 30
0.0
 40
1.999966648471891
100
AcDbArc
 50
111.8000795760828
 51
201.801143450951
  0
LINE
  5
574
330
1A
100
AcDbEntity
  8
SEIHIN
  6
CONTINUOUS
 62
     3
 48
16.0
100
AcDbLine
 10
577.8982298830185
 20
349.397819531719
 30
0.0
 11
575.6700298830187
 21
354.968719531719
 31
0.0
  0
LINE
  5
575
330
1A
100
AcDbEntity
  8
CENTER_L
  6
CENTER
 62
     1
 48
5.0
100
AcDbLine
 10
576.5490298830187
 20
371.475719531719
 30
0.0
 11
569.0711298830187
 21
368.4847195317189
 31
0.0
  0
ARC
  5
576
330
1A
100
AcDbEntity
  8
SEIHIN
  6
CONTINUOUS
 62
     3
 48
16.0
100
AcDbCircle
 10
574.741742098917
 20
365.3676844213642
 30
0.0
 40
3.250026013355445
100
AcDbArc
 50
128.3542541305505
 51
95.24167184040546
  0
LINE
  5
577
330
1A
100
AcDbEntity
  8
CENTER_L
  6
CENTER
 62
     1
 48
5.0
100
AcDbLine
 10
580.4648298830185
 20
367.6568195317189
 30
0.0
 11
569.4883298830185
 21
363.2665195317189
 31
0.0
  0
ARC
  5
578
330
1A
100
AcDbEntity
  8
SEIHIN
  6
CONTINUOUS
 62
     3
 48
16.0
100
AcDbCircle
 10
596.0967902272219
 20
363.1388936672646
 30
0.0
 40
1.999966648471938
100
AcDbArc
 50
21.80007957608391
 51
111.8011434509504
  0
ARC
  5
579
330
1A
100
AcDbEntity
  8
SEIHIN
  6
CONTINUOUS
 62
     3
 48
16.0
100
AcDbCircle
 10
584.8623143635919
 20
368.3385833243661
 30
0.0
 40
1.999985217445269
100
AcDbArc
 50
201.7979516151832
 51
291.7995476127194
  0
ARC
  5
57A
330
1A
100
AcDbEntity
  8
SEIHIN
  6
CONTINUOUS
 62
     3
 48
16.0
100
AcDbCircle
 10
625.8079298830185
 20
358.8670195317191
 30
0.0
 40
9.999953936393929
100
AcDbArc
 50
291.8002391294534
 51
21.80023912945286
  0
ARC
  5
57B
330
1A
100
AcDbEntity
  8
SEIHIN
  6
CONTINUOUS
 62
     3
 48
16.0
100
AcDbCircle
 10
625.2510298830186
 20
368.3375195317188
 30
0.0
 40
2.00001307245715
100
AcDbArc
 50
291.79874961395
 51
21.79874961394991
  0
ARC
  5
57C
330
1A
100
AcDbEntity
  8
SEIHIN
  6
CONTINUOUS
 62
     3
 48
16.0
100
AcDbCircle
 10
627.6650298830186
 20
359.6098195317188
 30
0.0
 40
6.999971472084705
100
AcDbArc
 50
111.7994335601691
 51
201.79943356017
  0
LINE
  5
57D
330
1A
100
AcDbEntity
  8
SEIHIN
  6
CONTINUOUS
 62
     3
 48
16.0
100
AcDbLine
 10
602.5960298830186
 20
365.7384195317191
 30
0.0
 11
609.2807298830187
 21
349.0255195317189
 31
0.0
  0
LINE
  5
57E
330
1A
100
AcDbEntity
  8
SEIHIN
  6
CONTINUOUS
 62
     3
 48
16.0
100
AcDbLine
 10
623.9517298830185
 20
390.4353195317188
 30
0.0
 11
635.0927298830185
 21
362.5807195317189
 31
0.0
  0
ARC
  5
57F
330
1A
100
AcDbEntity
  8
SEIHIN
  6
CONTINUOUS
 62
     3
 48
16.0
100
AcDbCircle
 10
620.4226298830186
 20
353.482019531719
 30
0.0
 40
2.000013072457257
100
AcDbArc
 50
291.7987496139487
 51
21.79874961394863
  0
LINE
  5
580
330
1A
100
AcDbEntity
  8
SEIHIN
  6
CONTINUOUS
 62
     3
 48
16.0
100
AcDbLine
 10
609.5591298830184
 20
341.597819531719
 30
0.0
 11
629.5216298830184
 21
349.582219531719
 31
0.0
  0
ARC
  5
581
330
1A
100
AcDbEntity
  8
SEIHIN
  6
CONTINUOUS
 62
     3
 48
16.0
100
AcDbCircle
 10
611.1377057461683
 20
349.7683298767467
 30
0.0
 40
2.000031640999727
100
AcDbArc
 50
201.8019414497163
 51
291.7992815773132
  0
LINE
  5
582
330
1A
100
AcDbEntity
  8
SEIHIN
  6
CONTINUOUS
 62
     3
 48
16.0
100
AcDbLine
 10
611.8804298830188
 20
347.9113195317188
 30
0.0
 11
621.1653298830186
 21
351.6250195317189
 31
0.0
  0
LINE
  5
583
330
1A
100
AcDbEntity
  8
CENTER_L
  6
CENTER
 62
     1
 48
5.0
100
AcDbLine
 10
625.9726298830185
 20
363.8412195317188
 30
0.0
 11
629.8441298830186
 21
354.1618195317188
 31
0.0
  0
LINE
  5
584
330
1A
100
AcDbEntity
  8
SEIHIN
  6
CONTINUOUS
 62
     3
 48
16.0
100
AcDbLine
 10
625.0654298830185
 20
366.1092195317189
 30
0.0
 11
625.9937298830187
 21
366.480519531719
 31
0.0
  0
ARC
  5
585
330
1A
100
AcDbEntity
  8
SEIHIN
  6
CONTINUOUS
 62
     3
 48
16.0
100
AcDbCircle
 10
627.6650298830186
 20
359.609819531719
 30
0.0
 40
2.14999999999992
100
AcDbArc
 50
179.9999999999999
 51
359.9999999999999
  0
ARC
  5
586
330
1A
100
AcDbEntity
  8
SEIHIN
  6
CONTINUOUS
 62
     3
 48
16.0
100
AcDbCircle
 10
627.6650298830186
 20
359.609819531719
 30
0.0
 40
2.14999999999992
100
AcDbArc
 50
359.9999999999999
 51
179.9999999999999
  0
LINE
  5
587
330
1A
100
AcDbEntity
  8
CENTER_L
  6
CENTER
 62
     1
 48
5.0
100
AcDbLine
 10
624.0009298830186
 20
358.1443195317189
 30
0.0
 11
631.5664298830186
 21
361.1703195317189
 31
0.0
  0
LINE
  5
588
330
1A
100
AcDbEntity
  8
SEIHIN
  6
CONTINUOUS
 62
     3
 48
16.0
100
AcDbLine
 10
622.2796298830186
 20
354.224719531719
 30
0.0
 11
621.1656298830185
 21
357.0103195317189
 31
0.0
  0
LINE
  5
589
330
1A
100
AcDbEntity
  8
SEIHIN
  6
CONTINUOUS
 62
     3
 48
16.0
100
AcDbLine
 10
622.2801298830184
 20
375.7654195317188
 30
0.0
 11
603.7104298830183
 21
368.3381195317189
 31
0.0
  0
ARC
  5
58A
330
1A
100
AcDbEntity
  8
SEIHIN
  6
CONTINUOUS
 62
     3
 48
16.0
100
AcDbCircle
 10
604.4529936756658
 20
366.4811350511456
 30
0.0
 40
1.999985217445273
100
AcDbArc
 50
111.7979516151841
 51
201.7995476127176
  0
LINE
  5
58B
330
1A
100
AcDbEntity
  8
SEIHIN
  6
CONTINUOUS
 62
     3
 48
16.0
100
AcDbLine
 10
597.6753298830186
 20
371.3094195317188
 30
0.0
 11
609.7456298830183
 21
376.1372195317189
 31
0.0
  0
ARC
  5
58C
330
1A
100
AcDbEntity
  8
SEIHIN
  6
CONTINUOUS
 62
     3
 48
16.0
100
AcDbCircle
 10
609.0029660903714
 20
377.9942040122924
 30
0.0
 40
1.999985217445301
100
AcDbArc
 50
291.7979516151768
 51
21.79954761271026
  0
LINE
  5
58D
330
1A
100
AcDbEntity
  8
SEIHIN
  6
CONTINUOUS
 62
     3
 48
16.0
100
AcDbLine
 10
627.1080298830184
 20
369.0802195317189
 30
0.0
 11
624.8798298830187
 21
374.651219531719
 31
0.0
  0
ARC
  5
58E
330
1A
100
AcDbEntity
  8
SEIHIN
  6
CONTINUOUS
 62
     3
 48
16.0
100
AcDbCircle
 10
623.0228540198691
 20
373.9084091866911
 30
0.0
 40
2.000031640999815
100
AcDbArc
 50
21.8019414497227
 51
111.7992815773192
  0
LINE
  5
58F
330
1A
100
AcDbEntity
  8
CENTER_L
  6
CENTER
 62
     1
 48
5.0
100
AcDbLine
 10
612.8598298830186
 20
385.9989195317188
 30
0.0
 11
620.4254298830186
 21
389.024919531719
 31
0.0
  0
LINE
  5
590
330
1A
100
AcDbEntity
  8
CENTER_L
  6
CENTER
 62
     1
 48
5.0
100
AcDbLine
 10
612.6577298830185
 20
380.5329195317188
 30
0.0
 11
623.4742298830187
 21
384.8592195317188
 31
0.0
  0
ARC
  5
591
330
1A
100
AcDbEntity
  8
SEIHIN
  6
CONTINUOUS
 62
     3
 48
16.0
100
AcDbCircle
 10
618.3807560610091
 20
382.8219699955815
 30
0.0
 40
3.249951210475164
100
AcDbArc
 50
128.3578597762684
 51
95.24381038582884
  0
DIMENSION
  5
592
330
1A
100
AcDbEntity
  8
SUNPOU
100
AcDbDimension
  2
*D6
 10
602.7469901741953
 20
421.9091753838508
 30
0.0
 11
579.0707207753554
 21
417.8244550674493
 31
0.0
 70
    32
  3
STANDARD
100
AcDbAlignedDimension
 13
571.4794298830187
 23
373.524419531719
 33
0.0
 14
615.1183298830185
 24
390.9786195317188
 34
0.0
 50
21.79999999999983
100
AcDbRotatedDimension
1001
ACAD
1000
DSTYLE
1002
{
1070
   140
1040
6.0
1070
    74
1070
     0
1070
   172
1070
     1
1070
    73
1070
     0
1070
   272
1070
     2
1070
    77
1070
     3
1070
   173
1070
     1
1070
   147
1040
2.0
1070
    42
1040
6.0
1070
    44
1040
3.0
1070
    43
1040
14.0
1070
   271
1070
     0
1070
   178
1070
     4
1070
   177
1070
     4
1070
   176
1070
     4
1070
   141
1040
150.0
1070
     7
1000
_OPEN
1070
     6
1000
_OPEN
1070
    41
1040
7.0
1002
}
  0
LINE
  5
593
330
1A
100
AcDbEntity
  8
SEIHIN
  6
CONTINUOUS
 62
     3
 48
16.0
100
AcDbLine
 10
590.9908298830186
 20
388.0220195317188
 30
0.0
 11
571.0283298830185
 21
380.0377195317189
 31
0.0
  0
LINE
  5
594
330
1A
100
AcDbEntity
  8
SEIHIN
  6
CONTINUOUS
 62
     3
 48
16.0
100
AcDbLine
 10
580.7772298830186
 20
378.5519195317189
 30
0.0
 11
592.8476298830186
 21
383.379819531719
 31
0.0
  0
ARC
  5
595
330
1A
100
AcDbEntity
  8
SEIHIN
  6
CONTINUOUS
 62
     3
 48
16.0
100
AcDbCircle
 10
581.5199195384391
 20
376.6949953946764
 30
0.0
 40
1.999938792813412
100
AcDbArc
 50
111.7992815254513
 51
201.8019415015828
  0
LINE
  5
596
330
1A
100
AcDbEntity
  8
SEIHIN
  6
CONTINUOUS
 62
     3
 48
16.0
100
AcDbLine
 10
590.9908298830186
 20
388.0220195317188
 30
0.0
 11
610.9532298830188
 21
396.0064195317189
 31
0.0
  0
LINE
  5
597
330
1A
100
AcDbEntity
  8
SEIHIN
  6
CONTINUOUS
 62
     3
 48
16.0
100
AcDbLine
 10
604.9179298830188
 20
388.2075195317188
 30
0.0
 11
592.8475298830185
 21
383.379719531719
 31
0.0
  0
ARC
  5
598
330
1A
100
AcDbEntity
  8
SEIHIN
  6
CONTINUOUS
 62
     3
 48
16.0
100
AcDbCircle
 10
605.6606902272218
 20
386.3504936672648
 30
0.0
 40
1.999966648471912
100
AcDbArc
 50
21.80007957608201
 51
111.8011434509506
  0
LINE
  5
599
330
1A
100
AcDbEntity
  8
SEIHIN
  6
CONTINUOUS
 62
     3
 48
16.0
100
AcDbLine
 10
415.1613337496874
 20
489.3792154409452
 30
0.0
 11
430.0158337496874
 21
489.3792154409452
 31
0.0
  0
ELLIPSE
  5
59A
330
1A
100
AcDbEntity
  8
SEIHIN
 62
     3
100
AcDbEllipse
 10
418.8858337496876
 20
479.3792154409452
 30
0.0
 11
0.0
 21
-10.0
 31
0.0
210
0.0
220
0.0
230
1.0
 40
0.3720000000000027
 41
3.141592653589793
 42
4.712388980384919
  0
ELLIPSE
  5
59B
330
1A
100
AcDbEntity
  8
SEIHIN
 62
     3
100
AcDbEllipse
 10
420.7358337496875
 20
481.3792154409452
 30
0.0
 11
0.0
 21
-3.25
 31
0.0
210
0.0
220
0.0
230
1.0
 40
0.3712225117536806
 41
-1.23178606764015
 42
4.373378721230137
  0
LINE
  5
59C
330
1A
100
AcDbEntity
  8
CENTER_L
  6
CENTER
 62
     1
 48
5.0
100
AcDbLine
 10
422.7959337496876
 20
481.3792154409452
 30
0.0
 11
416.2839337496875
 21
481.3792154409452
 31
0.0
  0
LINE
  5
59D
330
1A
100
AcDbEntity
  8
CENTER_L
  6
CENTER
 62
     1
 48
5.0
100
AcDbLine
 10
418.8758337496876
 20
485.0936154409452
 30
0.0
 11
418.8758337496876
 21
477.2893154409452
 31
0.0
  0
LINE
  5
59E
330
1A
100
AcDbEntity
  8
SEIHIN
  6
CONTINUOUS
 62
     3
 48
16.0
100
AcDbLine
 10
419.5980278878809
 20
482.4600154409451
 30
0.0
 11
418.1842337496876
 21
482.4600154409451
 31
0.0
  0
LINE
  5
59F
330
1A
100
AcDbEntity
  8
SEIHIN
  6
CONTINUOUS
 62
     3
 48
16.0
100
AcDbLine
 10
419.598027887881
 20
480.2984154409451
 30
0.0
 11
418.1842337496876
 21
480.2984154409451
 31
0.0
  0
ELLIPSE
  5
5A0
330
1A
100
AcDbEntity
  8
SEIHIN
 62
     3
100
AcDbEllipse
 10
418.8795079157938
 20
481.3792154409452
 30
0.0
 11
0.0
 21
-2.1
 31
0.0
210
0.0
220
0.0
230
1.0
 40
0.3713679176271019
 41
2.111415154028893
 42
7.3133628067405
  0
ARC
  5
5A1
330
1A
100
AcDbEntity
  8
SEIHIN
  6
CONTINUOUS
 62
     3
 48
16.0
100
AcDbCircle
 10
424.7158337496874
 20
483.3792154409452
 30
0.0
 40
0.9999999999999147
100
AcDbArc
 50
90.00000000000488
 51
180.0000000000048
  0
ARC
  5
5A2
330
1A
100
AcDbEntity
  8
SEIHIN
  6
CONTINUOUS
 62
     3
 48
16.0
100
AcDbCircle
 10
426.4258337496874
 20
483.3792154409452
 30
0.0
 40
1.0
100
AcDbArc
 50
0.0
 51
90.0
  0
ARC
  5
5A3
330
1A
100
AcDbEntity
  8
SEIHIN
  6
CONTINUOUS
 62
     3
 48
16.0
100
AcDbCircle
 10
425.2858337496875
 20
483.3792154409452
 30
0.0
 40
0.9999999999999431
100
AcDbArc
 50
359.9999999999967
 51
89.99999999999674
  0
LINE
  5
5A4
330
1A
100
AcDbEntity
  8
CENTER_L
  6
CENTER
 62
     1
 48
5.0
100
AcDbLine
 10
420.7358337496875
 20
485.0813154409451
 30
0.0
 11
420.7358337496875
 21
477.2893154409452
 31
0.0
  0
LINE
  5
5A5
330
1A
100
AcDbEntity
  8
SEIHIN
  6
CONTINUOUS
 62
     3
 48
16.0
100
AcDbLine
 10
427.4258337496874
 20
483.3792154409452
 30
0.0
 11
427.4258337496874
 21
481.3792154409452
 31
0.0
  0
LINE
  5
5A6
330
1A
100
AcDbEntity
  8
SEIHIN
  6
CONTINUOUS
 62
     3
 48
16.0
100
AcDbLine
 10
426.2858337496874
 20
483.3792154409452
 30
0.0
 11
426.2858337496874
 21
481.3792154409452
 31
0.0
  0
LINE
  5
5A7
330
1A
100
AcDbEntity
  8
SEIHIN
  6
CONTINUOUS
 62
     3
 48
16.0
100
AcDbLine
 10
426.4258337496874
 20
484.3792154409452
 30
0.0
 11
424.7158337496874
 21
484.3792154409452
 31
0.0
  0
ELLIPSE
  5
5A8
330
1A
100
AcDbEntity
  8
SEIHIN
 62
     3
100
AcDbEllipse
 10
430.0158337496874
 20
479.3792154409452
 30
0.0
 11
0.0
 21
10.0
 31
0.0
210
0.0
220
0.0
230
1.0
 40
0.3720000000000027
 41
-1.570796326794896
 42
0.0
  0
LINE
  5
5A9
330
1A
100
AcDbEntity
  8
CENTER_L
  6
CENTER
 62
     1
 48
5.0
100
AcDbLine
 10
430.0258337496876
 20
485.0197154409451
 30
0.0
 11
430.0258337496876
 21
477.2893154409452
 31
0.0
  0
LINE
  5
5AA
330
1A
100
AcDbEntity
  8
CENTER_L
  6
CENTER
 62
     1
 48
5.0
100
AcDbLine
 10
432.6831337496876
 20
481.3792154409452
 30
0.0
 11
428.2603337496876
 21
481.3792154409452
 31
0.0
  0
ELLIPSE
  5
5AB
330
1A
100
AcDbEntity
  8
SEIHIN
 62
     3
100
AcDbEllipse
 10
430.0205485541299
 20
481.3792154409452
 30
0.0
 11
0.0
 21
-2.1
 31
0.0
210
0.0
220
0.0
230
1.0
 40
0.371367917627156
 41
0.0
 42
6.283185307179586
  0
POINT
  5
5AC
330
1A
100
AcDbEntity
  8
DEFPOINTS
  6
BYBLOCK
 62
     0
100
AcDbPoint
 10
430.0158337496874
 20
489.3792154409452
 30
0.0
  0
LINE
  5
647
330
1A
100
AcDbEntity
  8
CENTER_L
  6
CENTER
 62
     1
 48
5.0
100
AcDbLine
 10
433.0693337496875
 20
140.3261291544079
 30
0.0
 11
419.6988337496874
 21
134.9782291544079
 31
0.0
  0
LINE
  5
648
330
1A
100
AcDbEntity
  8
SEIHIN
  6
CONTINUOUS
 62
     3
 48
16.0
100
AcDbLine
 10
411.4519337496874
 20
174.7604291544079
 30
0.0
 11
430.0203337496873
 21
128.3361291544078
 31
0.0
  0
LINE
  5
649
330
1A
100
AcDbEntity
  8
SEIHIN
  6
CONTINUOUS
 62
     3
 48
16.0
100
AcDbLine
 10
415.1658337496875
 20
176.2459291544079
 30
0.0
 11
433.7342337496875
 21
129.8216291544079
 31
0.0
  0
LINE
  5
64B
330
1A
100
AcDbEntity
  8
CENTER_L
  6
CENTER
 62
     1
 48
5.0
100
AcDbLine
 10
421.9283337496873
 20
168.1807291544078
 30
0.0
 11
408.7149337496875
 21
162.8956291544078
 31
0.0
  0
LINE
  5
64C
330
1A
100
AcDbEntity
  8
SEIHIN
  6
CONTINUOUS
 62
     3
 48
16.0
100
AcDbLine
 10
410.3377337496874
 20
172.1607291544079
 30
0.0
 11
427.4206337496874
 21
129.4503291544078
 31
0.0
  0
LINE
  5
64D
330
1A
100
AcDbEntity
  8
CENTER_L
  6
CENTER
 62
     1
 48
5.0
100
AcDbLine
 10
423.7851337496874
 20
163.5383291544079
 30
0.0
 11
410.5454337496873
 21
158.2428291544078
 31
0.0
  0
ARC
  5
64E
330
1A
100
AcDbEntity
  8
SEIHIN
  6
CONTINUOUS
 62
     3
 48
16.0
100
AcDbCircle
 10
412.5179304537264
 20
153.245831385909
 30
0.0
 40
4.999997768500009
100
AcDbArc
 50
21.80073334328367
 51
89.99996223105096
  0
ARC
  5
64F
330
1A
100
AcDbEntity
  8
SEIHIN
  6
CONTINUOUS
 62
     3
 48
16.0
100
AcDbCircle
 10
364.1658239951969
 20
154.9215861717107
 30
0.0
 40
10.00000975465306
100
AcDbArc
 50
359.9996733152374
 51
19.41596704988712
  0
ARC
  5
650
330
1A
100
AcDbEntity
  8
SEIHIN
  6
CONTINUOUS
 62
     3
 48
16.0
100
AcDbCircle
 10
365.1251342233937
 20
133.9215293902967
 30
0.0
 40
22.49999976411112
100
AcDbArc
 50
90.00000120628323
 51
142.9433444493904
  0
ARC
  5
651
330
1A
100
AcDbEntity
  8
SEIHIN
  6
CONTINUOUS
 62
     3
 48
16.0
100
AcDbCircle
 10
365.1251274477789
 20
133.9215260162832
 30
0.0
 40
20.00000313812562
100
AcDbArc
 50
89.99998194636484
 51
142.9432997870774
  0
ARC
  5
652
330
1A
100
AcDbEntity
  8
SEIHIN
  6
CONTINUOUS
 62
     3
 48
16.0
100
AcDbCircle
 10
339.4843685287375
 20
142.2457966766613
 30
0.0
 40
16.00003247787951
100
AcDbArc
 50
89.99976644515088
 51
142.9431566053543
  0
LINE
  5
653
330
1A
100
AcDbEntity
  8
SEIHIN
  6
CONTINUOUS
 62
     3
 48
16.0
100
AcDbLine
 10
298.4158337496875
 20
150.6217291544079
 30
0.0
 11
299.8496337496874
 21
155.9728291544079
 31
0.0
  0
LINE
  5
654
330
1A
100
AcDbEntity
  8
SEIHIN
  6
CONTINUOUS
 62
     3
 48
16.0
100
AcDbLine
 10
300.8155337496874
 20
155.7140291544078
 30
0.0
 11
299.5140337496874
 21
150.8564291544079
 31
0.0
  0
ARC
  5
655
330
1A
100
AcDbEntity
  8
SEIHIN
  6
CONTINUOUS
 62
     3
 48
16.0
100
AcDbCircle
 10
303.0508616568742
 20
155.1150693104826
 30
0.0
 40
0.4999873490831269
100
AcDbArc
 50
335.008044960599
 51
75.00405205756488
  0
ARC
  5
656
330
1A
100
AcDbEntity
  8
SEIHIN
  6
CONTINUOUS
 62
     3
 48
16.0
100
AcDbCircle
 10
303.0508703344517
 20
155.1150506884598
 30
0.0
 40
1.499999096232645
100
AcDbArc
 50
335.0002308167799
 51
74.99861270970538
  0
LINE
  5
657
330
1A
100
AcDbEntity
  8
SEIHIN
  6
CONTINUOUS
 62
     3
 48
16.0
100
AcDbLine
 10
291.9158337496875
 20
150.6217291544079
 30
0.0
 11
290.4820337496873
 21
155.9728291544079
 31
0.0
  0
LINE
  5
658
330
1A
100
AcDbEntity
  8
SEIHIN
  6
CONTINUOUS
 62
     3
 48
16.0
100
AcDbLine
 10
289.5160337496873
 20
155.7140291544078
 30
0.0
 11
290.8175337496875
 21
150.8564291544079
 31
0.0
  0
ARC
  5
659
330
1A
100
AcDbEntity
  8
SEIHIN
  6
CONTINUOUS
 62
     3
 48
16.0
100
AcDbCircle
 10
287.2807308448608
 20
155.115122924636
 30
0.0
 40
0.4999420316314899
100
AcDbArc
 50
105.0003056294767
 51
205.0011555088668
  0
ARC
  5
65A
330
1A
100
AcDbEntity
  8
SEIHIN
  6
CONTINUOUS
 62
     3
 48
16.0
100
AcDbCircle
 10
287.2807416649436
 20
155.1151461296362
 30
0.0
 40
1.499989134940323
100
AcDbArc
 50
104.9992945073457
 51
205.0039691602916
  0
LINE
  5
65B
330
1A
100
AcDbEntity
  8
SEIHIN
  6
CONTINUOUS
 62
     3
 48
16.0
100
AcDbLine
 10
315.3894337496873
 20
158.4609291544079
 30
0.0
 11
306.9663337496874
 21
147.3059291544078
 31
0.0
  0
ARC
  5
65C
330
1A
100
AcDbEntity
  8
SEIHIN
  6
CONTINUOUS
 62
     3
 48
16.0
100
AcDbCircle
 10
363.1332562823739
 20
137.9215504957372
 30
0.0
 40
24.50001521225868
100
AcDbArc
 50
123.9458225330451
 51
142.9434596009653
  0
ARC
  5
65D
330
1A
100
AcDbEntity
  8
SEIHIN
  6
CONTINUOUS
 62
     3
 48
16.0
100
AcDbCircle
 10
363.1334330653743
 20
137.9217433207688
 30
0.0
 40
27.00003334875311
100
AcDbArc
 50
131.1711315509985
 51
142.9440202550098
  0
ARC
  5
663
330
1A
100
AcDbEntity
  8
SEIHIN
  6
CONTINUOUS
 62
     3
 48
16.0
100
AcDbCircle
 10
296.3016712774458
 20
155.8824219870567
 30
0.0
 40
9.000024792292933
100
AcDbArc
 50
205.0008288656356
 51
222.878174447668
  0
ARC
  5
664
330
1A
100
AcDbEntity
  8
SEIHIN
  6
CONTINUOUS
 62
     3
 48
16.0
100
AcDbCircle
 10
296.3018230512057
 20
155.8822240310271
 30
0.0
 40
10.00006391086285
100
AcDbArc
 50
204.9992745655865
 51
235.6945012473349
  0
LINE
  5
665
330
1A
100
AcDbEntity
  8
SEIHIN
  6
CONTINUOUS
 62
     3
 48
16.0
100
AcDbLine
 10
302.1780337496875
 20
144.9215291544078
 30
0.0
 11
285.1658337496875
 21
144.9215291544078
 31
0.0
  0
LINE
  5
666
330
1A
100
AcDbEntity
  8
SEIHIN
  6
CONTINUOUS
 62
     3
 48
16.0
100
AcDbLine
 10
285.1658337496875
 20
136.9215291544078
 30
0.0
 11
289.1658337496875
 21
132.9215291544078
 31
0.0
  0
LINE
  5
667
330
1A
100
AcDbEntity
  8
SEIHIN
  6
CONTINUOUS
 62
     3
 48
16.0
100
AcDbLine
 10
267.5709337496873
 20
132.4215291544078
 30
0.0
 11
323.7516337496874
 21
132.4215291544078
 31
0.0
  0
LINE
  5
668
330
1A
100
AcDbEntity
  8
SEIHIN
  6
CONTINUOUS
 62
     3
 48
16.0
100
AcDbLine
 10
267.5709337496873
 20
129.9215291544079
 30
0.0
 11
323.7516337496874
 21
129.9215291544079
 31
0.0
  0
ARC
  5
669
330
1A
100
AcDbEntity
  8
NOKITOI
  6
PHANTOM
 62
     8
 48
5.0
100
AcDbCircle
 10
317.3612247882865
 20
138.4998533216546
 30
0.0
 40
43.00001447645168
100
AcDbArc
 50
270.0001116248559
 51
353.4750892928819
  0
ARC
  5
66A
330
1A
100
AcDbEntity
  8
NOKITOI
  6
PHANTOM
 62
     8
 48
5.0
100
AcDbCircle
 10
317.3612024798614
 20
138.4998332206281
 30
0.0
 40
41.79999437547816
100
AcDbArc
 50
270.0001454078912
 51
355.525704787475
  0
LINE
  5
66B
330
1A
100
AcDbEntity
  8
NOKITOI
  6
PHANTOM
 62
     8
 48
5.0
100
AcDbLine
 10
363.1978085618291
 20
145.6998388452845
 30
0.0
 11
362.2020085618292
 21
146.7998388452846
 31
0.0
  0
LINE
  5
66C
330
1A
100
AcDbEntity
  8
NOKITOI
  6
PHANTOM
 62
     8
 48
5.0
100
AcDbLine
 10
360.8334085618293
 20
147.9998388452845
 30
0.0
 11
363.0649085618291
 21
147.9998388452845
 31
0.0
  0
LINE
  5
66D
330
1A
100
AcDbEntity
  8
NOKITOI
  6
PHANTOM
 62
     8
 48
5.0
100
AcDbLine
 10
365.1385085618291
 20
146.7998388452846
 30
0.0
 11
362.2020085618292
 21
146.7998388452846
 31
0.0
  0
LINE
  5
66E
330
1A
100
AcDbEntity
  8
NOKITOI
  6
PHANTOM
 62
     8
 48
5.0
100
AcDbLine
 10
361.813308561829
 20
142.1998388452846
 30
0.0
 11
362.5912085618291
 21
142.1998388452846
 31
0.0
  0
LINE
  5
66F
330
1A
100
AcDbEntity
  8
SEIHIN
  6
CONTINUOUS
 62
     3
 48
16.0
100
AcDbLine
 10
254.1658337496873
 20
136.6215291544078
 30
0.0
 11
258.7643337496873
 21
136.6215291544078
 31
0.0
  0
LINE
  5
670
330
1A
100
AcDbEntity
  8
NOKITOI
  6
PHANTOM
 62
     8
 48
5.0
100
AcDbLine
 10
359.5323085618291
 20
135.6998388452844
 30
0.0
 11
365.5732085618291
 21
135.6998388452844
 31
0.0
  0
LINE
  5
671
330
1A
100
AcDbEntity
  8
NOKITOI
  6
PHANTOM
 62
     8
 48
5.0
100
AcDbLine
 10
367.2209085618291
 20
134.4998388452845
 30
0.0
 11
361.0762085618291
 21
134.4998388452845
 31
0.0
  0
ARC
  5
672
330
1A
100
AcDbEntity
  8
SEIHIN
  6
CONTINUOUS
 62
     3
 48
16.0
100
AcDbCircle
 10
255.8659023191644
 20
144.6713274768302
 30
0.0
 40
4.249789781346302
100
AcDbArc
 50
248.0382474649454
 51
298.0729507798005
  0
LINE
  5
673
330
1A
100
AcDbEntity
  8
NOKITOI
  6
PHANTOM
 62
     8
 48
5.0
100
AcDbLine
 10
361.1492085618292
 20
140.9998388452845
 30
0.0
 11
363.3983085618292
 21
140.9998388452845
 31
0.0
  0
LINE
  5
674
330
1A
100
AcDbEntity
  8
NOKITOI
  6
PHANTOM
 62
     8
 48
5.0
100
AcDbLine
 10
362.5912085618291
 20
142.1998388452846
 30
0.0
 11
362.1871085618292
 21
145.0282388452844
 31
0.0
  0
ARC
  5
677
330
1A
100
AcDbEntity
  8
SEIHIN
  6
CONTINUOUS
 62
     3
 48
16.0
100
AcDbCircle
 10
254.202941267225
 20
143.9215191896064
 30
0.0
 40
0.5000099648579586
100
AcDbArc
 50
344.0633353951882
 51
90.0008614291881
  0
ARC
  5
678
330
1A
100
AcDbEntity
  8
NOKITOI
  6
PHANTOM
 62
     8
 48
5.0
100
AcDbCircle
 10
364.0544943434138
 20
143.9775242109835
 30
0.0
 40
0.5000073448410256
100
AcDbArc
 50
83.5217071700316
 51
188.1270521358757
  0
LINE
  5
679
330
1A
100
AcDbEntity
  8
NOKITOI
  6
PHANTOM
 62
     8
 48
5.0
100
AcDbLine
 10
369.1103085618291
 20
148.4373388452845
 30
0.0
 11
368.7201085618291
 21
135.9530388452844
 31
0.0
  0
ARC
  5
67A
330
1A
100
AcDbEntity
  8
SEIHIN
  6
CONTINUOUS
 62
     3
 48
16.0
100
AcDbCircle
 10
254.6645489493867
 20
141.0139488574969
 30
0.0
 40
3.499935635140451
100
AcDbArc
 50
103.1916238914965
 51
181.5131348282879
  0
LINE
  5
67B
330
1A
100
AcDbEntity
  8
NOKITOI
  6
PHANTOM
 62
     8
 48
5.0
100
AcDbLine
 10
367.9109085618291
 20
148.4748388452844
 30
0.0
 11
367.7615085618292
 21
143.6959388452845
 31
0.0
  0
ARC
  5
67C
330
1A
100
AcDbEntity
  8
NOKITOI
  6
PHANTOM
 62
     8
 48
5.0
100
AcDbCircle
 10
363.6595883491601
 20
140.4998975736646
 30
0.0
 40
5.2000412730095
100
AcDbArc
 50
37.92420092094385
 51
89.99867545693838
  0
ARC
  5
67D
330
1A
100
AcDbEntity
  8
NOKITOI
  6
PHANTOM
 62
     8
 48
5.0
100
AcDbCircle
 10
363.6596706803825
 20
140.4998826278099
 30
0.0
 40
3.999989731271038
100
AcDbArc
 50
358.2100163932691
 51
83.52268857986855
  0
ARC
  5
67E
330
1A
100
AcDbEntity
  8
NOKITOI
  6
PHANTOM
 62
     8
 48
5.0
100
AcDbCircle
 10
365.5731949896909
 20
137.699825690198
 30
0.0
 40
1.999986844959662
100
AcDbArc
 50
270.0003888156776
 51
358.2124468147636
  0
ARC
  5
67F
330
1A
100
AcDbEntity
  8
SEIHIN
  6
CONTINUOUS
 62
     3
 48
16.0
100
AcDbCircle
 10
254.1658337496873
 20
139.6215291544078
 30
0.0
 40
3.000000000000028
100
AcDbArc
 50
179.9999999999994
 51
269.9999999999994
  0
ARC
  5
680
330
1A
100
AcDbEntity
  8
NOKITOI
  6
PHANTOM
 62
     8
 48
5.0
100
AcDbCircle
 10
367.2208726026782
 20
135.9998039911413
 30
0.0
 40
1.499965146287778
100
AcDbArc
 50
270.0013735703023
 51
358.2133719782232
  0
LINE
  5
681
330
1A
100
AcDbEntity
  8
SEIHIN
  6
CONTINUOUS
 62
     3
 48
16.0
100
AcDbLine
 10
254.6837337496874
 20
143.7842291544079
 30
0.0
 11
253.9828337496874
 21
141.3310291544079
 31
0.0
  0
LINE
  5
682
330
1A
100
AcDbEntity
  8
SEIHIN
  6
CONTINUOUS
 62
     3
 48
16.0
100
AcDbLine
 10
253.9828337496874
 20
141.3310291544079
 30
0.0
 11
251.1789337496874
 21
141.3310291544079
 31
0.0
  0
LINE
  5
683
330
1A
100
AcDbEntity
  8
SEIHIN
  6
CONTINUOUS
 62
     3
 48
16.0
100
AcDbLine
 10
251.1658337496874
 20
140.9215291544078
 30
0.0
 11
251.1658337496874
 21
139.6215291544078
 31
0.0
  0
ARC
  5
684
330
1A
100
AcDbEntity
  8
SEIHIN
  6
CONTINUOUS
 62
     3
 48
16.0
100
AcDbCircle
 10
254.4636138294938
 20
141.1936699170881
 30
0.0
 40
0.5000170449252113
100
AcDbArc
 50
164.0553202355099
 51
248.0407286048514
  0
LINE
  5
685
330
1A
100
AcDbEntity
  8
SEIHIN
  6
CONTINUOUS
 62
     3
 48
16.0
100
AcDbLine
 10
253.9636337496874
 20
141.1936291544079
 30
0.0
 11
253.9636337496874
 21
140.3310291544079
 31
0.0
  0
LINE
  5
686
330
1A
100
AcDbEntity
  8
NOKITOI
  6
PHANTOM
 62
     8
 48
5.0
100
AcDbLine
 10
363.8932085618291
 20
141.5706388452846
 30
0.0
 11
363.5595085618291
 21
143.9068388452845
 31
0.0
  0
ARC
  5
687
330
1A
100
AcDbEntity
  8
NOKITOI
  6
PHANTOM
 62
     8
 48
5.0
100
AcDbCircle
 10
363.3982819612317
 20
141.4998081684024
 30
0.0
 40
0.4999693238254178
100
AcDbArc
 50
270.0030483909652
 51
8.144496122946778
  0
LINE
  5
688
330
1A
100
AcDbEntity
  8
NOKITOI
  6
PHANTOM
 62
     8
 48
5.0
100
AcDbLine
 10
367.5722085618292
 20
137.6374388452845
 30
0.0
 11
367.6577085618291
 21
140.3749388452844
 31
0.0
  0
LINE
  5
689
330
1A
100
AcDbEntity
  8
NOKITOI
  6
PHANTOM
 62
     8
 48
5.0
100
AcDbLine
 10
364.6385085618291
 20
149.2998388452846
 30
0.0
 11
365.1385085618291
 21
146.7998388452846
 31
0.0
  0
ARC
  5
68A
330
1A
100
AcDbEntity
  8
NOKITOI
  6
PHANTOM
 62
     8
 48
5.0
100
AcDbCircle
 10
367.1113040670313
 20
148.4998434828114
 30
0.0
 40
0.7999953624857498
100
AcDbArc
 50
358.20887265358
 51
89.99967808194661
  0
LINE
  5
68B
330
1A
100
AcDbEntity
  8
NOKITOI
  6
PHANTOM
 62
     8
 48
5.0
100
AcDbLine
 10
363.555208561829
 20
148.5979388452844
 30
0.0
 11
363.2944085618293
 21
149.9018388452844
 31
0.0
  0
ARC
  5
68C
330
1A
100
AcDbEntity
  8
NOKITOI
  6
PHANTOM
 62
     8
 48
5.0
100
AcDbCircle
 10
367.1112958109789
 20
148.4998520003709
 30
0.0
 40
1.999986844954076
100
AcDbArc
 50
358.21169271173
 51
89.99963471264475
  0
LINE
  5
68D
330
1A
100
AcDbEntity
  8
NOKITOI
  6
PHANTOM
 62
     8
 48
5.0
100
AcDbLine
 10
367.1113085618292
 20
150.4998388452844
 30
0.0
 11
363.7847085618291
 21
150.4998388452844
 31
0.0
  0
LINE
  5
68E
330
1A
100
AcDbEntity
  8
NOKITOI
  6
PHANTOM
 62
     8
 48
5.0
100
AcDbLine
 10
367.1113085618292
 20
149.2998388452846
 30
0.0
 11
364.6385085618291
 21
149.2998388452846
 31
0.0
  0
LINE
  5
68F
330
1A
100
AcDbEntity
  8
NOKITOI
  6
PHANTOM
 62
     8
 48
5.0
100
AcDbLine
 10
363.1978085618291
 20
145.6998388452845
 30
0.0
 11
363.6597085618292
 21
145.6998388452845
 31
0.0
  0
ARC
  5
690
330
1A
100
AcDbEntity
  8
NOKITOI
  6
PHANTOM
 62
     8
 48
5.0
100
AcDbCircle
 10
363.0649158163848
 20
148.4998476951278
 30
0.0
 40
0.5000088498959383
100
AcDbArc
 50
269.9991687038565
 51
11.31359566951149
  0
ARC
  5
691
330
1A
100
AcDbEntity
  8
NOKITOI
  6
PHANTOM
 62
     8
 48
5.0
100
AcDbCircle
 10
363.7847093448373
 20
149.9998398002862
 30
0.0
 40
0.4999990449987349
100
AcDbArc
 50
90.00008972630549
 51
191.3032801984551
  0
LINE
  5
692
330
1A
100
AcDbEntity
  8
SEIHIN
  6
CONTINUOUS
 62
     3
 48
16.0
100
AcDbLine
 10
253.8658337496874
 20
144.4215291544079
 30
0.0
 11
254.2029337496874
 21
144.4215291544079
 31
0.0
  0
LINE
  5
693
330
1A
100
AcDbEntity
  8
SEIHIN
  6
CONTINUOUS
 62
     3
 48
16.0
100
AcDbLine
 10
259.4558337496875
 20
136.3440291544079
 30
0.0
 11
265.1508337496874
 21
130.8931291544079
 31
0.0
  0
ARC
  5
694
330
1A
100
AcDbEntity
  8
SEIHIN
  6
CONTINUOUS
 62
     3
 48
16.0
100
AcDbCircle
 10
267.5709888054382
 20
133.4215070521254
 30
0.0
 40
3.49997789815052
100
AcDbArc
 50
226.2528407648199
 51
269.9990987194063
  0
LINE
  5
695
330
1A
100
AcDbEntity
  8
SEIHIN
  6
CONTINUOUS
 62
     3
 48
16.0
100
AcDbLine
 10
285.1658337496875
 20
138.4215291544078
 30
0.0
 11
263.3918337496873
 21
138.4215291544078
 31
0.0
  0
LINE
  5
696
330
1A
100
AcDbEntity
  8
SEIHIN
  6
CONTINUOUS
 62
     3
 48
16.0
100
AcDbLine
 10
257.8658337496873
 20
140.9215291544078
 30
0.0
 11
285.1658337496875
 21
140.9215291544078
 31
0.0
  0
LINE
  5
697
330
1A
100
AcDbEntity
  8
NOKITOI
  6
PHANTOM
 62
     8
 48
5.0
100
AcDbLine
 10
360.6498085618291
 20
141.4736388452844
 30
0.0
 11
360.3340085618292
 21
147.4735388452845
 31
0.0
  0
LINE
  5
698
330
1A
100
AcDbEntity
  8
NOKITOI
  6
PHANTOM
 62
     8
 48
5.0
100
AcDbLine
 10
361.813308561829
 20
142.1998388452846
 30
0.0
 11
361.6321085618292
 21
145.6413388452846
 31
0.0
  0
LINE
  5
699
330
1A
100
AcDbEntity
  8
SEIHIN
  6
CONTINUOUS
 62
     3
 48
16.0
100
AcDbLine
 10
266.8794337496874
 20
132.6991291544079
 30
0.0
 11
262.7003337496875
 21
136.6991291544079
 31
0.0
  0
ARC
  5
69A
330
1A
100
AcDbEntity
  8
SEIHIN
  6
CONTINUOUS
 62
     3
 48
16.0
100
AcDbCircle
 10
258.7644449096515
 20
135.621484531399
 30
0.0
 40
1.000044629186839
100
AcDbArc
 50
46.2622984706438
 51
90.00636871257494
  0
ARC
  5
69B
330
1A
100
AcDbEntity
  8
NOKITOI
  6
PHANTOM
 62
     8
 48
5.0
100
AcDbCircle
 10
361.0762169859917
 20
133.499846360341
 30
0.0
 40
0.9999924849789756
100
AcDbArc
 50
90.00048267259112
 51
173.4717353933255
  0
ARC
  5
69C
330
1A
100
AcDbEntity
  8
NOKITOI
  6
PHANTOM
 62
     8
 48
5.0
100
AcDbCircle
 10
359.5322959921208
 20
135.1998272205547
 30
0.0
 40
0.5000116248877111
100
AcDbArc
 50
89.99855965101662
 51
175.5251531916571
  0
ARC
  5
69D
330
1A
100
AcDbEntity
  8
NOKITOI
  6
PHANTOM
 62
     8
 48
5.0
100
AcDbCircle
 10
361.149215448824
 20
141.499832310199
 30
0.0
 40
0.499993464961963
100
AcDbArc
 50
183.0029638682573
 51
269.9992107982126
  0
ARC
  5
69E
330
1A
100
AcDbEntity
  8
SEIHIN
  6
CONTINUOUS
 62
     3
 48
16.0
100
AcDbCircle
 10
263.3918303362115
 20
137.4215206519801
 30
0.0
 40
1.000008502433473
100
AcDbArc
 50
89.99980442390693
 51
226.2517725997468
  0
LINE
  5
69F
330
1A
100
AcDbEntity
  8
SEIHIN
  6
CONTINUOUS
 62
     3
 48
16.0
100
AcDbLine
 10
266.2657337496874
 20
138.4216291544079
 30
0.0
 11
266.2657337496874
 21
133.2865291544079
 31
0.0
  0
ARC
  5
6A0
330
1A
100
AcDbEntity
  8
SEIHIN
  6
CONTINUOUS
 62
     3
 48
16.0
100
AcDbCircle
 10
267.5709125714864
 20
133.4215376568355
 30
0.0
 40
1.000008502651931
100
AcDbArc
 50
226.2531815870555
 51
270.0012134112157
  0
LINE
  5
6A1
330
1A
100
AcDbEntity
  8
NOKITOI
  6
PHANTOM
 62
     8
 48
5.0
100
AcDbLine
 10
362.1871085618292
 20
145.0282388452844
 30
0.0
 11
361.6321085618292
 21
145.6413388452846
 31
0.0
  0
ARC
  5
6A2
330
1A
100
AcDbEntity
  8
NOKITOI
  6
PHANTOM
 62
     8
 48
5.0
100
AcDbCircle
 10
360.8334147629869
 20
147.4998453803698
 30
0.0
 40
0.4999934649531607
100
AcDbArc
 50
90.00071060961996
 51
183.0044636796616
  0
LINE
  5
6A3
330
1A
100
AcDbEntity
  8
SEIHIN
  6
CONTINUOUS
 62
     3
 48
16.0
100
AcDbLine
 10
285.1658337496875
 20
136.9215291544078
 30
0.0
 11
285.1658337496875
 21
144.9216291544079
 31
0.0
  0
LINE
  5
6A7
330
1A
100
AcDbEntity
  8
SEIHIN
  6
CONTINUOUS
 62
     3
 48
16.0
100
AcDbLine
 10
285.9212337496875
 20
154.4811291544078
 30
0.0
 11
287.2386337496874
 21
151.6561291544079
 31
0.0
  0
LINE
  5
6A8
330
1A
100
AcDbEntity
  8
SEIHIN
  6
CONTINUOUS
 62
     3
 48
16.0
100
AcDbLine
 10
288.1449337496874
 20
152.0787291544079
 30
0.0
 11
286.8276337496873
 21
154.9038291544079
 31
0.0
  0
ARC
  5
6A9
330
1A
100
AcDbEntity
  8
SEIHIN
  6
CONTINUOUS
 62
     3
 48
16.0
100
AcDbCircle
 10
353.9958620699395
 20
132.7715791272338
 30
0.0
 40
0.649978361146366
100
AcDbArc
 50
285.095378867481
 51
15.81591890613986
  0
LINE
  5
6AA
330
1A
100
AcDbEntity
  8
SEIHIN
  6
CONTINUOUS
 62
     3
 48
16.0
100
AcDbLine
 10
353.0631337496874
 20
138.4487291544078
 30
0.0
 11
354.6212337496874
 21
132.9487291544079
 31
0.0
  0
LINE
  5
6AB
330
1A
100
AcDbEntity
  8
NOKITOI
  6
PHANTOM
 62
     8
 48
5.0
100
AcDbLine
 10
262.4797085618291
 20
104.9825388452845
 30
0.0
 11
272.4650085618291
 21
96.81273884528451
 31
0.0
  0
LINE
  5
6AC
330
1A
100
AcDbEntity
  8
NOKITOI
  6
PHANTOM
 62
     8
 48
5.0
100
AcDbLine
 10
261.4954085618291
 20
104.2374388452846
 30
0.0
 11
271.8985085618291
 21
95.72573884528464
 31
0.0
  0
LINE
  5
6AD
330
1A
100
AcDbEntity
  8
NOKITOI
  6
PHANTOM
 62
     8
 48
5.0
100
AcDbLine
 10
272.5318085618291
 20
95.49973884528453
 30
0.0
 11
317.3612085618292
 21
95.49983884528462
 31
0.0
  0
LINE
  5
6AE
330
1A
100
AcDbEntity
  8
NOKITOI
  6
PHANTOM
 62
     8
 48
5.0
100
AcDbLine
 10
317.3612085618292
 20
96.69983884528466
 30
0.0
 11
272.7816085618291
 21
96.69973884528458
 31
0.0
  0
LINE
  5
6AF
330
1A
100
AcDbEntity
  8
NOKITOI
  6
PHANTOM
 62
     8
 48
5.0
100
AcDbLine
 10
276.7816085618291
 20
96.69973884528458
 30
0.0
 11
296.689708561829
 21
96.69973884528458
 31
0.0
  0
LINE
  5
6B0
330
1A
100
AcDbEntity
  8
NOKITOI
  6
PHANTOM
 62
     8
 48
5.0
100
AcDbLine
 10
276.5318085618291
 20
95.49973884528453
 30
0.0
 11
296.689708561829
 21
95.49973884528453
 31
0.0
  0
ARC
  5
6B1
330
1A
100
AcDbEntity
  8
NOKITOI
  6
PHANTOM
 62
     8
 48
5.0
100
AcDbCircle
 10
272.5318154944064
 20
96.49973637027841
 30
0.0
 40
0.9999975250179316
100
AcDbArc
 50
230.7053583247701
 51
269.9996027915957
  0
ARC
  5
6B2
330
1A
100
AcDbEntity
  8
NOKITOI
  6
PHANTOM
 62
     8
 48
5.0
100
AcDbCircle
 10
272.7816021740806
 20
97.19974112527422
 30
0.0
 40
0.5000022800304047
100
AcDbArc
 50
230.7145501403941
 51
270.0007319787213
  0
LINE
  5
6B3
330
1A
100
AcDbEntity
  8
SEIHIN
  6
CONTINUOUS
 62
     3
 48
16.0
100
AcDbLine
 10
338.3209337496874
 20
138.4215291544078
 30
0.0
 11
316.5476337496875
 21
138.4215291544078
 31
0.0
  0
LINE
  5
6B4
330
1A
100
AcDbEntity
  8
SEIHIN
  6
CONTINUOUS
 62
     3
 48
16.0
100
AcDbLine
 10
318.4353337496875
 20
140.9215291544078
 30
0.0
 11
329.0759337496874
 21
140.9215291544078
 31
0.0
  0
LINE
  5
6B5
330
1A
100
AcDbEntity
  8
SEIHIN
  6
CONTINUOUS
 62
     3
 48
16.0
100
AcDbLine
 10
315.0952337496875
 20
136.4981291544079
 30
0.0
 11
326.7157337496874
 21
151.8875291544079
 31
0.0
  0
LINE
  5
6B6
330
1A
100
AcDbEntity
  8
CENTER_L
  6
CENTER
 62
     1
 48
5.0
100
AcDbLine
 10
295.1658337496875
 20
154.1809291544079
 30
0.0
 11
295.1657337496874
 21
125.8757291544079
 31
0.0
  0
ARC
  5
6B7
330
1A
100
AcDbEntity
  8
SEIHIN
  6
CONTINUOUS
 62
     3
 48
16.0
100
AcDbCircle
 10
307.9128414096984
 20
141.9215329688508
 30
0.0
 40
9.00000381444625
100
AcDbArc
 50
269.9999512348755
 51
322.943651148867
  0
ARC
  5
6B8
330
1A
100
AcDbEntity
  8
SEIHIN
  6
CONTINUOUS
 62
     3
 48
16.0
100
AcDbCircle
 10
295.1658337496875
 20
137.1684291544079
 30
0.0
 40
9.747010259561649
100
AcDbArc
 50
235.6479976531776
 51
304.3520023468222
  0
LINE
  5
6B9
330
1A
100
AcDbEntity
  8
SEIHIN
  6
CONTINUOUS
 62
     3
 48
16.0
100
AcDbLine
 10
300.6657337496873
 20
129.1214291544079
 30
0.0
 11
289.6657337496874
 21
129.1214291544079
 31
0.0
  0
LINE
  5
6BA
330
1A
100
AcDbEntity
  8
SEIHIN
  6
CONTINUOUS
 62
     3
 48
16.0
100
AcDbLine
 10
289.6657337496874
 20
129.1214291544079
 30
0.0
 11
289.6657337496874
 21
129.9214291544078
 31
0.0
  0
LINE
  5
6BB
330
1A
100
AcDbEntity
  8
SEIHIN
  6
CONTINUOUS
 62
     3
 48
16.0
100
AcDbLine
 10
300.6657337496873
 20
129.1214291544079
 30
0.0
 11
300.6657337496873
 21
129.9212291544079
 31
0.0
  0
LINE
  5
6BC
330
1A
100
AcDbEntity
  8
SEIHIN
  6
CONTINUOUS
 62
     3
 48
16.0
100
AcDbLine
 10
289.1658337496875
 20
132.9215291544078
 30
0.0
 11
307.9128337496873
 21
132.9215291544078
 31
0.0
  0
ARC
  5
6BD
330
1A
100
AcDbEntity
  8
SEIHIN
  6
CONTINUOUS
 62
     3
 48
16.0
100
AcDbCircle
 10
302.1780655662534
 20
150.921544998116
 30
0.0
 40
6.000015843792516
100
AcDbArc
 50
269.9996961749786
 51
322.9435879013318
  0
LINE
  5
6BE
330
1A
100
AcDbEntity
  8
SEIHIN
  6
CONTINUOUS
 62
     3
 48
16.0
100
AcDbLine
 10
300.6658337496875
 20
146.4217291544078
 30
0.0
 11
295.1658337496875
 21
146.4217291544078
 31
0.0
  0
LINE
  5
6BF
330
1A
100
AcDbEntity
  8
SEIHIN
  6
CONTINUOUS
 62
     3
 48
16.0
100
AcDbLine
 10
299.6658337496875
 20
147.6217291544078
 30
0.0
 11
295.1658337496875
 21
147.6217291544078
 31
0.0
  0
LINE
  5
6C0
330
1A
100
AcDbEntity
  8
SEIHIN
  6
CONTINUOUS
 62
     3
 48
16.0
100
AcDbLine
 10
295.1658337496875
 20
151.9217291544078
 30
0.0
 11
297.6657337496874
 21
151.9217291544078
 31
0.0
  0
LINE
  5
6C1
330
1A
100
AcDbEntity
  8
SEIHIN
  6
CONTINUOUS
 62
     3
 48
16.0
100
AcDbLine
 10
295.1658337496875
 20
150.6217291544079
 30
0.0
 11
298.4158337496875
 21
150.6217291544079
 31
0.0
  0
LINE
  5
6C2
330
1A
100
AcDbEntity
  8
SEIHIN
  6
CONTINUOUS
 62
     3
 48
16.0
100
AcDbLine
 10
290.6658337496875
 20
147.6217291544078
 30
0.0
 11
291.9158337496875
 21
150.6217291544079
 31
0.0
  0
LINE
  5
6C3
330
1A
100
AcDbEntity
  8
SEIHIN
  6
CONTINUOUS
 62
     3
 48
16.0
100
AcDbLine
 10
290.6658337496875
 20
147.6217291544078
 30
0.0
 11
295.1658337496875
 21
147.6217291544078
 31
0.0
  0
LINE
  5
6C4
330
1A
100
AcDbEntity
  8
SEIHIN
  6
CONTINUOUS
 62
     3
 48
16.0
100
AcDbLine
 10
289.6658337496875
 20
146.4217291544078
 30
0.0
 11
295.1658337496875
 21
146.4217291544078
 31
0.0
  0
LINE
  5
6C5
330
1A
100
AcDbEntity
  8
SEIHIN
  6
CONTINUOUS
 62
     3
 48
16.0
100
AcDbLine
 10
290.6658337496875
 20
147.6217291544078
 30
0.0
 11
291.1658337496875
 21
146.4217291544078
 31
0.0
  0
LINE
  5
6C6
330
1A
100
AcDbEntity
  8
SEIHIN
  6
CONTINUOUS
 62
     3
 48
16.0
100
AcDbLine
 10
289.6658337496875
 20
146.4217291544078
 30
0.0
 11
289.6658337496875
 21
144.9217291544079
 31
0.0
  0
LINE
  5
6C7
330
1A
100
AcDbEntity
  8
SEIHIN
  6
CONTINUOUS
 62
     3
 48
16.0
100
AcDbLine
 10
295.1658337496875
 20
150.6217291544079
 30
0.0
 11
291.9158337496875
 21
150.6217291544079
 31
0.0
  0
ARC
  5
6C8
330
1A
100
AcDbEntity
  8
SEIHIN
  6
CONTINUOUS
 62
     3
 48
16.0
100
AcDbCircle
 10
290.3346216915719
 20
150.7268479820046
 30
0.0
 40
0.4999953360931264
100
AcDbArc
 50
337.4033564501776
 51
15.02050787244168
  0
LINE
  5
6C9
330
1A
100
AcDbEntity
  8
SEIHIN
  6
CONTINUOUS
 62
     3
 48
16.0
100
AcDbLine
 10
292.6658337496875
 20
151.9217291544078
 30
0.0
 11
292.6658337496875
 21
150.6217291544079
 31
0.0
  0
LINE
  5
6CA
330
1A
100
AcDbEntity
  8
SEIHIN
  6
CONTINUOUS
 62
     3
 48
16.0
100
AcDbLine
 10
295.1657337496874
 20
151.9217291544078
 30
0.0
 11
292.6658337496875
 21
151.9217291544078
 31
0.0
  0
ARC
  5
6CB
330
1A
100
AcDbEntity
  8
SEIHIN
  6
CONTINUOUS
 62
     3
 48
16.0
100
AcDbCircle
 10
290.0728200194573
 20
150.098626701788
 30
0.0
 40
0.4999732692048071
100
AcDbArc
 50
222.8773689717948
 51
337.3801181495903
  0
LINE
  5
6CC
330
1A
100
AcDbEntity
  8
SEIHIN
  6
CONTINUOUS
 62
     3
 48
16.0
100
AcDbLine
 10
290.7962337496875
 20
150.5347291544079
 30
0.0
 11
290.5343337496874
 21
149.9063291544079
 31
0.0
  0
ARC
  5
6CD
330
1A
100
AcDbEntity
  8
SEIHIN
  6
CONTINUOUS
 62
     3
 48
16.0
100
AcDbCircle
 10
294.0299650680742
 20
155.8823660209335
 30
0.0
 40
10.0000568616879
100
AcDbArc
 50
304.3039960759006
 51
334.9991767759885
  0
LINE
  5
6CE
330
1A
100
AcDbEntity
  8
SEIHIN
  6
CONTINUOUS
 62
     3
 48
16.0
100
AcDbLine
 10
299.6658337496875
 20
147.6217291544078
 30
0.0
 11
298.4158337496875
 21
150.6217291544079
 31
0.0
  0
LINE
  5
6CF
330
1A
100
AcDbEntity
  8
SEIHIN
  6
CONTINUOUS
 62
     3
 48
16.0
100
AcDbLine
 10
299.6658337496875
 20
147.6217291544078
 30
0.0
 11
299.1658337496875
 21
146.4217291544078
 31
0.0
  0
LINE
  5
6D0
330
1A
100
AcDbEntity
  8
SEIHIN
  6
CONTINUOUS
 62
     3
 48
16.0
100
AcDbLine
 10
300.6658337496875
 20
146.4217291544078
 30
0.0
 11
300.6658337496875
 21
144.9217291544079
 31
0.0
  0
LINE
  5
6D1
330
1A
100
AcDbEntity
  8
SEIHIN
  6
CONTINUOUS
 62
     3
 48
16.0
100
AcDbLine
 10
302.1866337496875
 20
152.0787291544079
 30
0.0
 11
303.5040337496873
 21
154.9038291544079
 31
0.0
  0
ARC
  5
6D2
330
1A
100
AcDbEntity
  8
SEIHIN
  6
CONTINUOUS
 62
     3
 48
16.0
100
AcDbCircle
 10
299.996936302181
 20
150.7269908256028
 30
0.0
 40
0.4999491535834398
100
AcDbArc
 50
164.9950208123479
 51
202.6165792904037
  0
LINE
  5
6D3
330
1A
100
AcDbEntity
  8
SEIHIN
  6
CONTINUOUS
 62
     3
 48
16.0
100
AcDbLine
 10
297.6658337496875
 20
151.9217291544078
 30
0.0
 11
297.6658337496875
 21
150.6217291544079
 31
0.0
  0
ARC
  5
6D4
330
1A
100
AcDbEntity
  8
SEIHIN
  6
CONTINUOUS
 62
     3
 48
16.0
100
AcDbCircle
 10
300.2587934594396
 20
150.0986363530212
 30
0.0
 40
0.5000194239278042
100
AcDbArc
 50
202.6188762781212
 51
317.1260325117058
  0
LINE
  5
6D5
330
1A
100
AcDbEntity
  8
SEIHIN
  6
CONTINUOUS
 62
     3
 48
16.0
100
AcDbLine
 10
299.5354337496875
 20
150.5347291544079
 30
0.0
 11
299.7972337496873
 21
149.9063291544079
 31
0.0
  0
ARC
  5
6D6
330
1A
100
AcDbEntity
  8
SEIHIN
  6
CONTINUOUS
 62
     3
 48
16.0
100
AcDbCircle
 10
294.0298739747784
 20
155.8822403307226
 30
0.0
 40
9.000058814023359
100
AcDbArc
 50
317.1227360400137
 51
335.0005481397943
  0
LINE
  5
6D7
330
1A
100
AcDbEntity
  8
SEIHIN
  6
CONTINUOUS
 62
     3
 48
16.0
100
AcDbLine
 10
304.4103337496873
 20
154.4811291544078
 30
0.0
 11
303.0929337496873
 21
151.6561291544079
 31
0.0
  0
LINE
  5
6D8
330
1A
100
AcDbEntity
  8
SEIHIN
  6
CONTINUOUS
 62
     3
 48
16.0
100
AcDbLine
 10
321.0659337496874
 20
138.4216291544079
 30
0.0
 11
321.0659337496874
 21
132.4214291544078
 31
0.0
  0
LINE
  5
6D9
330
1A
100
AcDbEntity
  8
SEIHIN
  6
CONTINUOUS
 62
     3
 48
16.0
100
AcDbLine
 10
339.1189337496874
 20
136.8189291544078
 30
0.0
 11
334.2108337496873
 21
130.3189291544078
 31
0.0
  0
ARC
  5
6DA
330
1A
100
AcDbEntity
  8
SEIHIN
  6
CONTINUOUS
 62
     3
 48
16.0
100
AcDbCircle
 10
323.7516785882931
 20
128.9215105816492
 30
0.0
 40
3.500018573045777
100
AcDbArc
 50
45.00073401406637
 51
90.00073401406641
  0
LINE
  5
6DB
330
1A
100
AcDbEntity
  8
SEIHIN
  6
CONTINUOUS
 62
     3
 48
16.0
100
AcDbLine
 10
338.3263337496873
 20
131.6206291544079
 30
0.0
 11
349.1643337496873
 21
145.9736291544079
 31
0.0
  0
LINE
  5
6DC
330
1A
100
AcDbEntity
  8
SEIHIN
  6
CONTINUOUS
 62
     3
 48
16.0
100
AcDbLine
 10
339.3502337496875
 20
130.0438291544079
 30
0.0
 11
350.3734337496873
 21
132.5990291544079
 31
0.0
  0
ARC
  5
6DD
330
1A
100
AcDbEntity
  8
SEIHIN
  6
CONTINUOUS
 62
     3
 48
16.0
100
AcDbCircle
 10
339.1243577482423
 20
131.0179921979901
 30
0.0
 40
1.000006801731953
100
AcDbArc
 50
142.9413041919783
 51
283.0543051747425
  0
LINE
  5
6DE
330
1A
100
AcDbEntity
  8
SEIHIN
  6
CONTINUOUS
 62
     3
 48
16.0
100
AcDbLine
 10
336.6658337496875
 20
127.4215291544079
 30
0.0
 11
354.1652337496874
 21
132.1440291544079
 31
0.0
  0
LINE
  5
6DF
330
1A
100
AcDbEntity
  8
SEIHIN
  6
CONTINUOUS
 62
     3
 48
16.0
100
AcDbLine
 10
328.1156337496875
 20
129.9215291544079
 30
0.0
 11
333.4127337496874
 21
129.9215291544079
 31
0.0
  0
LINE
  5
6E0
330
1A
100
AcDbEntity
  8
SEIHIN
  6
CONTINUOUS
 62
     3
 48
16.0
100
AcDbLine
 10
336.6658337496875
 20
127.4215291544079
 30
0.0
 11
328.1156337496875
 21
127.4215291544079
 31
0.0
  0
ARC
  5
6E1
330
1A
100
AcDbEntity
  8
SEIHIN
  6
CONTINUOUS
 62
     3
 48
16.0
100
AcDbCircle
 10
328.115674264401
 20
130.9215123721845
 30
0.0
 40
3.49998321801116
100
AcDbArc
 50
224.9981792012845
 51
269.9993367619348
  0
ARC
  5
6E2
330
1A
100
AcDbEntity
  8
SEIHIN
  6
CONTINUOUS
 62
     3
 48
16.0
100
AcDbCircle
 10
323.7516221734779
 20
128.9215339494309
 30
0.0
 40
0.9999952050440041
100
AcDbArc
 50
44.9993367288696
 51
89.99933672886832
  0
ARC
  5
6E3
330
1A
100
AcDbEntity
  8
SEIHIN
  6
CONTINUOUS
 62
     3
 48
16.0
100
AcDbCircle
 10
328.1156453258968
 20
130.921524359385
 30
0.0
 40
0.9999952050441148
100
AcDbArc
 50
224.9993367288793
 51
269.9993367288805
  0
LINE
  5
6E4
330
1A
100
AcDbEntity
  8
SEIHIN
  6
CONTINUOUS
 62
     3
 48
16.0
100
AcDbLine
 10
325.6407337496874
 20
128.4466291544078
 30
0.0
 11
324.4587337496874
 21
129.6286291544079
 31
0.0
  0
LINE
  5
6E5
330
1A
100
AcDbEntity
  8
SEIHIN
  6
CONTINUOUS
 62
     3
 48
16.0
100
AcDbLine
 10
327.4085337496873
 20
130.2144291544078
 30
0.0
 11
326.2265337496875
 21
131.3964291544078
 31
0.0
  0
ARC
  5
6E6
330
1A
100
AcDbEntity
  8
SEIHIN
  6
CONTINUOUS
 62
     3
 48
16.0
100
AcDbCircle
 10
333.4127791161118
 20
130.9215517463973
 30
0.0
 40
1.000022593018467
100
AcDbArc
 50
269.9974007540725
 51
322.9430187151468
  0
LINE
  5
6E7
330
1A
100
AcDbEntity
  8
SEIHIN
  6
CONTINUOUS
 62
     3
 48
16.0
100
AcDbLine
 10
336.7066337496875
 20
140.9215291544078
 30
0.0
 11
341.7189337496874
 21
140.9215291544078
 31
0.0
  0
LINE
  5
6E8
330
1A
100
AcDbEntity
  8
SEIHIN
  6
CONTINUOUS
 62
     3
 48
16.0
100
AcDbLine
 10
341.5861337496875
 20
154.1918291544079
 30
0.0
 11
333.0661337496873
 21
142.9085291544078
 31
0.0
  0
LINE
  5
6E9
330
1A
100
AcDbEntity
  8
SEIHIN
  6
CONTINUOUS
 62
     3
 48
16.0
100
AcDbLine
 10
343.5812337496873
 20
152.6853291544078
 30
0.0
 11
335.9085337496872
 21
142.5241291544078
 31
0.0
  0
ARC
  5
6EA
330
1A
100
AcDbEntity
  8
SEIHIN
  6
CONTINUOUS
 62
     3
 48
16.0
100
AcDbCircle
 10
329.0759201985606
 20
145.9215224063985
 30
0.0
 40
4.999993252009139
100
AcDbArc
 50
270.0001552846848
 51
322.9437017475618
  0
ARC
  5
6EB
330
1A
100
AcDbEntity
  8
SEIHIN
  6
CONTINUOUS
 62
     3
 48
16.0
100
AcDbCircle
 10
336.7066423693789
 20
141.9215118441081
 30
0.0
 40
0.9999826897375182
100
AcDbArc
 50
142.9416714733744
 51
269.9995061195088
  0
LINE
  5
6EC
330
1A
100
AcDbEntity
  8
SEIHIN
  6
CONTINUOUS
 62
     3
 48
16.0
100
AcDbLine
 10
347.1692337496874
 20
147.4801291544079
 30
0.0
 11
342.5169337496873
 21
141.3189291544078
 31
0.0
  0
ARC
  5
6ED
330
1A
100
AcDbEntity
  8
SEIHIN
  6
CONTINUOUS
 62
     3
 48
16.0
100
AcDbCircle
 10
338.3209251299959
 20
137.4215464647075
 30
0.0
 40
0.999982689737504
100
AcDbArc
 50
322.9416714733748
 51
89.99950611950922
  0
ARC
  5
6EE
330
1A
100
AcDbEntity
  8
SEIHIN
  6
CONTINUOUS
 62
     3
 48
16.0
100
AcDbCircle
 10
341.7188989866711
 20
141.9215118441081
 30
0.0
 40
0.999982690304526
100
AcDbArc
 50
270.0019918085977
 51
322.9441571624629
  0
LINE
  5
6EF
330
1A
100
AcDbEntity
  8
SEIHIN
  6
CONTINUOUS
 62
     3
 48
16.0
100
AcDbLine
 10
351.8123337496874
 20
138.0943291544078
 30
0.0
 11
352.4139337496873
 21
135.9709291544078
 31
0.0
  0
ARC
  5
6F0
330
1A
100
AcDbEntity
  8
SEIHIN
  6
CONTINUOUS
 62
     3
 48
16.0
100
AcDbCircle
 10
352.2215164806026
 20
135.9164051747359
 30
0.0
 40
0.1999931743867634
100
AcDbArc
 50
272.6702586056496
 51
15.82077981415225
  0
ARC
  5
6F1
330
1A
100
AcDbEntity
  8
SEIHIN
  6
CONTINUOUS
 62
     3
 48
16.0
100
AcDbCircle
 10
352.4377468606579
 20
138.2715328682045
 30
0.0
 40
0.6500056036791725
100
AcDbArc
 50
15.81947672444567
 51
195.8109957391616
  0
ARC
  5
6F2
330
1A
100
AcDbEntity
  8
SEIHIN
  6
CONTINUOUS
 62
     3
 48
16.0
100
AcDbCircle
 10
350.3282119602647
 20
132.7938845860977
 30
0.0
 40
0.2000341208334629
100
AcDbArc
 50
283.0658282482603
 51
24.84413134548159
  0
ARC
  5
6F3
330
1A
100
AcDbEntity
  8
SEIHIN
  6
CONTINUOUS
 62
     3
 48
16.0
100
AcDbCircle
 10
352.3243516554584
 20
133.7188586856476
 30
0.0
 40
1.999958110698871
100
AcDbArc
 50
92.68012405229217
 51
204.8613321976861
  0
LINE
  5
6F4
330
1A
100
AcDbEntity
  8
NOKITOI
  6
PHANTOM
 62
     8
 48
5.0
100
AcDbLine
 10
258.2648085618291
 20
133.5993388452844
 30
0.0
 11
261.1336085618292
 21
104.9119388452846
 31
0.0
  0
LINE
  5
6F5
330
1A
100
AcDbEntity
  8
NOKITOI
  6
PHANTOM
 62
     8
 48
5.0
100
AcDbLine
 10
259.3058085618293
 20
135.2496388452846
 30
0.0
 11
262.2988085618291
 21
105.3198388452845
 31
0.0
  0
ARC
  5
6F6
330
1A
100
AcDbEntity
  8
NOKITOI
  6
PHANTOM
 62
     8
 48
5.0
100
AcDbCircle
 10
262.1286311346983
 20
105.0113967736119
 30
0.0
 40
0.9999908507640039
100
AcDbArc
 50
185.7137670522468
 51
230.7112907769303
  0
ARC
  5
6F7
330
1A
100
AcDbEntity
  8
NOKITOI
  6
PHANTOM
 62
     8
 48
5.0
100
AcDbCircle
 10
262.7963259877073
 20
105.3695063588966
 30
0.0
 40
0.4999904508696396
100
AcDbArc
 50
185.7009889250754
 51
230.7099153622041
  0
LINE
  5
6F8
330
1A
100
AcDbEntity
  8
SEIHIN
  6
CONTINUOUS
 62
     3
 48
16.0
100
AcDbLine
 10
362.1980337496875
 20
134.3240291544079
 30
0.0
 11
368.8110337496874
 21
130.2965291544079
 31
0.0
  0
ARC
  5
6F9
330
1A
100
AcDbEntity
  8
SEIHIN
  6
CONTINUOUS
 62
     3
 48
16.0
100
AcDbCircle
 10
361.665840129944
 20
132.9215396379167
 30
0.0
 40
1.499975468085876
100
AcDbArc
 50
69.21871772088422
 51
228.1321216051518
  0
LINE
  5
6FA
330
1A
100
AcDbEntity
  8
SEIHIN
  6
CONTINUOUS
 62
     3
 48
16.0
100
AcDbLine
 10
370.1658337496875
 20
150.9215291544078
 30
0.0
 11
370.1658337496875
 21
131.2314291544078
 31
0.0
  0
LINE
  5
6FB
330
1A
100
AcDbEntity
  8
SEIHIN
  6
CONTINUOUS
 62
     3
 48
16.0
100
AcDbLine
 10
374.1658337496875
 20
154.9215291544079
 30
0.0
 11
374.1658337496875
 21
126.4215291544078
 31
0.0
  0
ARC
  5
6FC
330
1A
100
AcDbEntity
  8
SEIHIN
  6
CONTINUOUS
 62
     3
 48
16.0
100
AcDbCircle
 10
371.1658703468005
 20
126.4215454990456
 30
0.0
 40
2.99996340293148
100
AcDbArc
 50
228.1317236653523
 51
359.9996878366032
  0
LINE
  5
6FD
330
1A
100
AcDbEntity
  8
SEIHIN
  6
CONTINUOUS
 62
     3
 48
16.0
100
AcDbLine
 10
369.1636337496873
 20
124.1875291544079
 30
0.0
 11
360.6647337496874
 21
131.8045291544078
 31
0.0
  0
ARC
  5
6FE
330
1A
100
AcDbEntity
  8
SEIHIN
  6
CONTINUOUS
 62
     3
 48
16.0
100
AcDbCircle
 10
369.1658534875771
 20
131.2314427752306
 30
0.0
 40
0.9999802622031538
100
AcDbArc
 50
249.2171738629484
 51
359.9992195689361
  0
ARC
  5
6FF
330
1A
100
AcDbEntity
  8
SEIHIN
  6
CONTINUOUS
 62
     3
 48
16.0
100
AcDbCircle
 10
367.1658337496874
 20
150.9215291544078
 30
0.0
 40
3.000000000000042
100
AcDbArc
 50
359.9999999999992
 51
89.9999999999992
  0
ARC
  5
700
330
1A
100
AcDbEntity
  8
NOKITOI
  6
PHANTOM
 62
     8
 48
5.0
100
AcDbCircle
 10
254.2950791893292
 20
143.9774690777794
 30
0.0
 40
0.4999578477751074
100
AcDbArc
 50
351.8669438287075
 51
96.47390928779223
  0
LINE
  5
701
330
1A
100
AcDbEntity
  8
NOKITOI
  6
PHANTOM
 62
     8
 48
5.0
100
AcDbLine
 10
255.7584085618293
 20
142.1998388452846
 30
0.0
 11
256.1624085618293
 21
145.0282388452844
 31
0.0
  0
LINE
  5
702
330
1A
100
AcDbEntity
  8
NOKITOI
  6
PHANTOM
 62
     8
 48
5.0
100
AcDbLine
 10
257.6997085618292
 20
141.4735388452845
 30
0.0
 11
258.0155085618291
 21
147.4735388452845
 31
0.0
  0
LINE
  5
703
330
1A
100
AcDbEntity
  8
NOKITOI
  6
PHANTOM
 62
     8
 48
5.0
100
AcDbLine
 10
256.5363085618291
 20
142.1998388452846
 30
0.0
 11
256.7174085618292
 21
145.6412388452844
 31
0.0
  0
LINE
  5
704
330
1A
100
AcDbEntity
  8
NOKITOI
  6
PHANTOM
 62
     8
 48
5.0
100
AcDbLine
 10
249.239308561829
 20
148.4373388452845
 30
0.0
 11
249.6294085618291
 21
135.9529388452844
 31
0.0
  0
LINE
  5
705
330
1A
100
AcDbEntity
  8
NOKITOI
  6
PHANTOM
 62
     8
 48
5.0
100
AcDbLine
 10
250.4387085618292
 20
148.4748388452844
 30
0.0
 11
250.5880085618291
 21
143.6958388452845
 31
0.0
  0
ARC
  5
706
330
1A
100
AcDbEntity
  8
NOKITOI
  6
PHANTOM
 62
     8
 48
5.0
100
AcDbCircle
 10
254.6898394887653
 20
140.4998745899483
 30
0.0
 40
3.99998565374706
100
AcDbArc
 50
96.47577619531674
 51
181.7913033408985
  0
ARC
  5
707
330
1A
100
AcDbEntity
  8
NOKITOI
  6
PHANTOM
 62
     8
 48
5.0
100
AcDbCircle
 10
254.6898264281801
 20
140.4998475736645
 30
0.0
 40
5.199991271650611
100
AcDbArc
 50
90.00019685927453
 51
142.074671395269
  0
LINE
  5
708
330
1A
100
AcDbEntity
  8
NOKITOI
  6
PHANTOM
 62
     8
 48
5.0
100
AcDbLine
 10
256.5363085618291
 20
142.1998388452846
 30
0.0
 11
255.7584085618293
 21
142.1998388452846
 31
0.0
  0
LINE
  5
709
330
1A
100
AcDbEntity
  8
NOKITOI
  6
PHANTOM
 62
     8
 48
5.0
100
AcDbLine
 10
251.1287085618293
 20
134.4998388452845
 30
0.0
 11
257.2698085618291
 21
134.4998388452845
 31
0.0
  0
LINE
  5
70A
330
1A
100
AcDbEntity
  8
NOKITOI
  6
PHANTOM
 62
     8
 48
5.0
100
AcDbLine
 10
258.8083085618293
 20
135.6998388452844
 30
0.0
 11
252.7764085618291
 21
135.6998388452844
 31
0.0
  0
LINE
  5
70B
330
1A
100
AcDbEntity
  8
NOKITOI
  6
PHANTOM
 62
     8
 48
5.0
100
AcDbLine
 10
257.2004085618292
 20
140.9998388452845
 30
0.0
 11
254.9513085618293
 21
140.9998388452845
 31
0.0
  0
ARC
  5
70C
330
1A
100
AcDbEntity
  8
NOKITOI
  6
PHANTOM
 62
     8
 48
5.0
100
AcDbCircle
 10
258.8082954908244
 20
135.1998506755644
 30
0.0
 40
0.499988169890889
100
AcDbArc
 50
5.703393862284335
 51
89.99850213773372
  0
ARC
  5
70D
330
1A
100
AcDbEntity
  8
NOKITOI
  6
PHANTOM
 62
     8
 48
5.0
100
AcDbCircle
 10
257.2697879119881
 20
133.4998575331337
 30
0.0
 40
0.9999813123640345
100
AcDbArc
 50
5.709409966648967
 51
89.99881682915043
  0
ARC
  5
70E
330
1A
100
AcDbEntity
  8
NOKITOI
  6
PHANTOM
 62
     8
 48
5.0
100
AcDbCircle
 10
257.2004044404222
 20
141.499834935254
 30
0.0
 40
0.4999960899864752
100
AcDbArc
 50
270.0004722821405
 51
356.9852756208263
  0
ARC
  5
70F
330
1A
100
AcDbEntity
  8
NOKITOI
  6
PHANTOM
 62
     8
 48
5.0
100
AcDbCircle
 10
252.7763705740048
 20
137.6997756658566
 30
0.0
 40
2.000036820932882
100
AcDbArc
 50
181.7889408725803
 51
270.001088250966
  0
ARC
  5
710
330
1A
100
AcDbEntity
  8
NOKITOI
  6
PHANTOM
 62
     8
 48
5.0
100
AcDbCircle
 10
251.1286913486511
 20
135.9998555284323
 30
0.0
 40
1.500016683246579
100
AcDbArc
 50
181.7923576755889
 51
270.0006574876651
  0
LINE
  5
711
330
1A
100
AcDbEntity
  8
NOKITOI
  6
PHANTOM
 62
     8
 48
5.0
100
AcDbLine
 10
254.4563085618293
 20
141.5705388452844
 30
0.0
 11
254.7901085618292
 21
143.9067388452846
 31
0.0
  0
ARC
  5
712
330
1A
100
AcDbEntity
  8
NOKITOI
  6
PHANTOM
 62
     8
 48
5.0
100
AcDbCircle
 10
254.9512983753929
 20
141.4998505900086
 30
0.0
 40
0.5000117448278309
100
AcDbArc
 50
171.8726853912841
 51
270.0011672521981
  0
LINE
  5
713
330
1A
100
AcDbEntity
  8
NOKITOI
  6
PHANTOM
 62
     8
 48
5.0
100
AcDbLine
 10
250.777308561829
 20
137.6372388452846
 30
0.0
 11
250.6918085618291
 21
140.3748388452844
 31
0.0
  0
LINE
  5
714
330
1A
100
AcDbEntity
  8
NOKITOI
  6
PHANTOM
 62
     8
 48
5.0
100
AcDbLine
 10
253.2110085618292
 20
146.7998388452846
 30
0.0
 11
256.1476085618291
 21
146.7998388452846
 31
0.0
  0
LINE
  5
715
330
1A
100
AcDbEntity
  8
NOKITOI
  6
PHANTOM
 62
     8
 48
5.0
100
AcDbLine
 10
255.1518085618291
 20
145.6998388452845
 30
0.0
 11
256.1476085618291
 21
146.7998388452846
 31
0.0
  0
LINE
  5
716
330
1A
100
AcDbEntity
  8
NOKITOI
  6
PHANTOM
 62
     8
 48
5.0
100
AcDbLine
 10
257.5162085618291
 20
147.9998388452845
 30
0.0
 11
255.2847085618291
 21
147.9998388452845
 31
0.0
  0
ARC
  5
717
330
1A
100
AcDbEntity
  8
NOKITOI
  6
PHANTOM
 62
     8
 48
5.0
100
AcDbCircle
 10
257.516204852334
 20
147.4998427553151
 30
0.0
 40
0.4999960899831856
100
AcDbArc
 50
356.9843782585345
 51
89.99957491984867
  0
LINE
  5
718
330
1A
100
AcDbEntity
  8
NOKITOI
  6
PHANTOM
 62
     8
 48
5.0
100
AcDbLine
 10
256.1624085618293
 20
145.0282388452844
 30
0.0
 11
256.7174085618292
 21
145.6412388452844
 31
0.0
  0
LINE
  5
719
330
1A
100
AcDbEntity
  8
NOKITOI
  6
PHANTOM
 62
     8
 48
5.0
100
AcDbLine
 10
253.7110085618292
 20
149.2998388452846
 30
0.0
 11
253.2110085618292
 21
146.7998388452846
 31
0.0
  0
LINE
  5
71A
330
1A
100
AcDbEntity
  8
NOKITOI
  6
PHANTOM
 62
     8
 48
5.0
100
AcDbLine
 10
254.7944085618292
 20
148.5978388452846
 30
0.0
 11
255.0552085618291
 21
149.9018388452844
 31
0.0
  0
ARC
  5
71B
330
1A
100
AcDbEntity
  8
NOKITOI
  6
PHANTOM
 62
     8
 48
5.0
100
AcDbCircle
 10
251.238264595476
 20
148.4997934828114
 30
0.0
 40
0.7999453636812564
100
AcDbArc
 50
89.99685092684627
 51
181.7876563552118
  0
ARC
  5
71C
330
1A
100
AcDbEntity
  8
NOKITOI
  6
PHANTOM
 62
     8
 48
5.0
100
AcDbCircle
 10
251.2383197988236
 20
148.4998504391016
 30
0.0
 40
1.999988406214315
100
AcDbArc
 50
90.0003219180439
 51
181.791127346407
  0
LINE
  5
71D
330
1A
100
AcDbEntity
  8
NOKITOI
  6
PHANTOM
 62
     8
 48
5.0
100
AcDbLine
 10
255.1518085618291
 20
145.6998388452845
 30
0.0
 11
254.6898085618291
 21
145.6998388452845
 31
0.0
  0
ARC
  5
71E
330
1A
100
AcDbEntity
  8
NOKITOI
  6
PHANTOM
 62
     8
 48
5.0
100
AcDbCircle
 10
255.2847093448373
 20
148.4998378902827
 30
0.0
 40
0.4999990449987399
100
AcDbArc
 50
168.6967198015449
 51
269.9999102736945
  0
LINE
  5
71F
330
1A
100
AcDbEntity
  8
SEIHIN
  6
CONTINUOUS
 62
     3
 48
16.0
100
AcDbLine
 10
367.1658337496875
 20
153.9215291544079
 30
0.0
 11
365.1251337496875
 21
153.9215291544079
 31
0.0
  0
LINE
  5
720
330
1A
100
AcDbEntity
  8
NOKITOI
  6
PHANTOM
 62
     8
 48
5.0
100
AcDbLine
 10
251.2383085618291
 20
150.4997388452844
 30
0.0
 11
254.5649085618291
 21
150.4998388452844
 31
0.0
  0
LINE
  5
721
330
1A
100
AcDbEntity
  8
NOKITOI
  6
PHANTOM
 62
     8
 48
5.0
100
AcDbLine
 10
251.2383085618291
 20
149.2997388452844
 30
0.0
 11
253.7110085618292
 21
149.2998388452846
 31
0.0
  0
ARC
  5
722
330
1A
100
AcDbEntity
  8
NOKITOI
  6
PHANTOM
 62
     8
 48
5.0
100
AcDbCircle
 10
254.5649158163849
 20
149.9998299954411
 30
0.0
 40
0.500008849895925
100
AcDbArc
 50
348.6864043304882
 51
90.00083129614507
  0
LINE
  5
723
330
1A
100
AcDbEntity
  8
SEIHIN
  6
CONTINUOUS
 62
     3
 48
16.0
100
AcDbLine
 10
287.1513337496875
 20
155.5980291544079
 30
0.0
 11
288.9037337496874
 21
156.0676291544078
 31
0.0
  0
ARC
  5
724
330
1A
100
AcDbEntity
  8
SEIHIN
  6
CONTINUOUS
 62
     3
 48
16.0
100
AcDbCircle
 10
289.0330587496812
 20
155.5846724536332
 30
0.0
 40
1.499968129661282
100
AcDbArc
 50
14.99748420158209
 51
105.0001851120864
  0
LINE
  5
72E
330
1A
100
AcDbEntity
  8
SEIHIN
  6
CONTINUOUS
 62
     3
 48
16.0
100
AcDbLine
 10
288.6448337496874
 20
157.0335291544078
 30
0.0
 11
286.8925337496873
 21
156.5640291544078
 31
0.0
  0
LINE
  5
72F
330
1A
100
AcDbEntity
  8
SEIHIN
  6
CONTINUOUS
 62
     3
 48
16.0
100
AcDbLine
 10
408.8229337496873
 20
176.2458291544078
 30
0.0
 11
336.0052337496874
 21
169.8751291544079
 31
0.0
  0
LINE
  5
730
330
1A
100
AcDbEntity
  8
SEIHIN
  6
CONTINUOUS
 62
     3
 48
16.0
100
AcDbLine
 10
412.5179337496875
 20
158.2459291544078
 30
0.0
 11
339.4844337496874
 21
158.2459291544078
 31
0.0
  0
ARC
  5
731
330
1A
100
AcDbEntity
  8
SEIHIN
  6
CONTINUOUS
 62
     3
 48
16.0
100
AcDbCircle
 10
338.5326676267256
 20
140.9854925445259
 30
0.0
 40
28.99998319747491
100
AcDbArc
 50
94.99983896248926
 51
142.9432999680251
  0
ARC
  5
732
330
1A
100
AcDbEntity
  8
SEIHIN
  6
CONTINUOUS
 62
     3
 48
16.0
100
AcDbCircle
 10
289.03305874764
 20
155.5846724483731
 30
0.0
 40
0.4999980099949512
100
AcDbArc
 50
14.99379533790068
 51
105.0018970258867
  0
LINE
  5
733
330
1A
100
AcDbEntity
  8
SEIHIN
  6
CONTINUOUS
 62
     3
 48
16.0
100
AcDbLine
 10
301.6867337496875
 20
157.0335291544078
 30
0.0
 11
303.4391337496874
 21
156.5639291544079
 31
0.0
  0
ARC
  5
734
330
1A
100
AcDbEntity
  8
SEIHIN
  6
CONTINUOUS
 62
     3
 48
16.0
100
AcDbCircle
 10
301.2985337496875
 20
155.5846291544078
 30
0.0
 40
0.5000333588871654
100
AcDbArc
 50
75.00215381810616
 51
165.0021538181071
  0
LINE
  5
735
330
1A
100
AcDbEntity
  8
SEIHIN
  6
CONTINUOUS
 62
     3
 48
16.0
100
AcDbLine
 10
303.1803337496875
 20
155.5980291544079
 30
0.0
 11
301.4279337496874
 21
156.0676291544078
 31
0.0
  0
ARC
  5
736
330
1A
100
AcDbEntity
  8
SEIHIN
  6
CONTINUOUS
 62
     3
 48
16.0
100
AcDbCircle
 10
301.2985337496874
 20
155.5846291544078
 30
0.0
 40
1.50000348332931
100
AcDbArc
 50
75.00116534316465
 51
165.0011653431651
  0
ARC
  5
738
330
1A
100
AcDbEntity
  8
SEIHIN
  6
CONTINUOUS
 62
     3
 48
16.0
100
AcDbCircle
 10
370.165851697858
 20
157.4215560786829
 30
0.0
 40
1.000026924436083
100
AcDbArc
 50
269.9989716732661
 51
22.62280303861398
  0
LINE
  5
739
330
1A
100
AcDbEntity
  8
SEIHIN
  6
CONTINUOUS
 62
     3
 48
16.0
100
AcDbLine
 10
370.1658337496875
 20
156.4215291544079
 30
0.0
 11
365.1251337496875
 21
156.4215291544079
 31
0.0
  0
ARC
  5
73A
330
1A
100
AcDbEntity
  8
SEIHIN
  6
CONTINUOUS
 62
     3
 48
16.0
100
AcDbCircle
 10
364.1654850978138
 20
154.9222954373883
 30
0.0
 40
7.500042542715769
100
AcDbArc
 50
22.61326060080578
 51
26.3040983637099
  0
LINE
  5
73B
330
1A
100
AcDbEntity
  8
SEIHIN
  6
CONTINUOUS
 62
     3
 48
16.0
100
AcDbLine
 10
411.4520337496875
 20
174.7604291544079
 30
0.0
 11
415.1658337496875
 21
176.2459291544079
 31
0.0
  0
LINE
  5
73C
330
1A
100
AcDbEntity
  8
SEIHIN
  6
CONTINUOUS
 62
     3
 48
16.0
100
AcDbLine
 10
408.8229337496873
 20
176.2459291544079
 30
0.0
 11
415.1658337496875
 21
176.2459291544079
 31
0.0
  0
LINE
  5
73D
330
1A
100
AcDbEntity
  8
SEIHIN
  6
CONTINUOUS
 62
     3
 48
16.0
100
AcDbLine
 10
411.4520337496875
 20
174.7604291544079
 30
0.0
 11
410.3377337496874
 21
172.1607291544079
 31
0.0
  0
ARC
  5
742
330
1A
100
AcDbEntity
  8
SEIHIN
  6
PHANTOM
 62
     6
 48
5.0
100
AcDbCircle
 10
427.5179304537264
 20
153.245831385909
 30
0.0
 40
4.999997768500009
100
AcDbArc
 50
21.80073334328367
 51
89.99996223105096
  0
LINE
  5
744
330
1A
100
AcDbEntity
  8
SEIHIN
  6
PHANTOM
 62
     6
 48
5.0
100
AcDbLine
 10
425.3377337496874
 20
172.1607291544079
 30
0.0
 11
442.4206337496873
 21
129.4503291544078
 31
0.0
  0
LINE
  5
745
330
1A
100
AcDbEntity
  8
SEIHIN
  6
PHANTOM
 62
     6
 48
5.0
100
AcDbLine
 10
430.1658337496875
 20
176.2459291544079
 30
0.0
 11
448.7342337496873
 21
129.8216291544079
 31
0.0
  0
LINE
  5
746
330
1A
100
AcDbEntity
  8
SEIHIN
  6
PHANTOM
 62
     6
 48
5.0
100
AcDbLine
 10
426.4519337496873
 20
174.7604291544079
 30
0.0
 11
445.0203337496874
 21
128.3361291544078
 31
0.0
  0
LINE
  5
74E
330
1A
100
AcDbEntity
  8
SEIHIN
  6
CONTINUOUS
 62
     3
 48
16.0
100
AcDbLine
 10
427.4206337496874
 20
129.4503291544078
 30
0.0
 11
430.0203337496873
 21
128.3361291544078
 31
0.0
  0
LINE
  5
74F
330
1A
100
AcDbEntity
  8
SEIHIN
  6
CONTINUOUS
 62
     3
 48
16.0
100
AcDbLine
 10
430.0203337496873
 20
128.3361291544078
 30
0.0
 11
433.7342337496875
 21
129.8216291544079
 31
0.0
  0
LINE
  5
750
330
1A
100
AcDbEntity
  8
SEIHIN
  6
PHANTOM
 62
     6
 48
5.0
100
AcDbLine
 10
442.4206337496873
 20
129.4503291544078
 30
0.0
 11
445.0203337496874
 21
128.3361291544078
 31
0.0
  0
LINE
  5
751
330
1A
100
AcDbEntity
  8
SEIHIN
  6
PHANTOM
 62
     6
 48
5.0
100
AcDbLine
 10
445.0203337496874
 20
128.3361291544078
 30
0.0
 11
448.7342337496873
 21
129.8216291544079
 31
0.0
  0
LINE
  5
757
330
1A
100
AcDbEntity
  8
SEIHIN
  6
PHANTOM
 62
     6
 48
5.0
100
AcDbLine
 10
427.5179337496874
 20
158.2459291544078
 30
0.0
 11
426.9695337496874
 21
158.2459291544078
 31
0.0
  0
LINE
  5
758
330
1A
100
AcDbEntity
  8
SEIHIN
  6
PHANTOM
 62
     6
 48
5.0
100
AcDbLine
 10
426.4520337496874
 20
174.7604291544079
 30
0.0
 11
430.1658337496875
 21
176.2459291544079
 31
0.0
  0
LINE
  5
759
330
1A
100
AcDbEntity
  8
SEIHIN
  6
PHANTOM
 62
     6
 48
5.0
100
AcDbLine
 10
423.8229337496873
 20
176.2459291544079
 30
0.0
 11
430.1658337496875
 21
176.2459291544079
 31
0.0
  0
LINE
  5
75A
330
1A
100
AcDbEntity
  8
SEIHIN
  6
PHANTOM
 62
     6
 48
5.0
100
AcDbLine
 10
423.8229337496873
 20
176.2458291544078
 30
0.0
 11
420.3919337496873
 21
175.9457291544078
 31
0.0
  0
LINE
  5
75B
330
1A
100
AcDbEntity
  8
SEIHIN
  6
PHANTOM
 62
     6
 48
5.0
100
AcDbLine
 10
426.4520337496874
 20
174.7604291544079
 30
0.0
 11
425.3377337496874
 21
172.1607291544079
 31
0.0
  0
DIMENSION
  5
76C
330
1A
100
AcDbEntity
  8
SUNPOU
 62
     4
100
AcDbDimension
  2
*D7
 10
369.1102081001395
 20
348.4759348391046
 30
0.0
 11
392.1380209249135
 21
353.4759348391046
 31
0.0
 70
    32
  3
STANDARD
100
AcDbAlignedDimension
 13
415.1658337496875
 23
317.6970792097669
 33
0.0
 14
369.1102081001395
 24
289.8884889006435
 34
0.0
100
AcDbRotatedDimension
1001
ACAD
1000
DSTYLE
1002
{
1070
   140
1040
6.0
1070
    74
1070
     0
1070
   172
1070
     1
1070
    73
1070
     0
1070
   272
1070
     2
1070
    77
1070
     3
1070
   173
1070
     1
1070
   147
1040
2.0
1070
    42
1040
6.0
1070
    44
1040
3.0
1070
    43
1040
14.0
1070
   271
1070
     0
1070
   178
1070
     4
1070
   177
1070
     4
1070
   176
1070
     4
1070
   141
1040
150.0
1070
     7
1000
_OPEN
1070
     6
1000
_OPEN
1070
    41
1040
7.0
1002
}
  0
DIMENSION
  5
779
330
1A
100
AcDbEntity
  8
SUNPOU
 62
     4
100
AcDbDimension
  2
*D8
 10
285.1658337496875
 20
362.8703925492213
 30
0.0
 11
350.1658337496875
 21
367.8703925492214
 31
0.0
 70
    32
  3
STANDARD
100
AcDbAlignedDimension
 13
415.1658337496875
 23
317.6970792097669
 33
0.0
 14
285.1658337496875
 24
286.3727792097669
 34
0.0
100
AcDbRotatedDimension
1001
ACAD
1000
DSTYLE
1002
{
1070
   140
1040
6.0
1070
    74
1070
     0
1070
   172
1070
     1
1070
    73
1070
     0
1070
   272
1070
     2
1070
    77
1070
     3
1070
   173
1070
     1
1070
   147
1040
2.0
1070
    42
1040
6.0
1070
    44
1040
3.0
1070
    43
1040
14.0
1070
   271
1070
     0
1070
   178
1070
     4
1070
   177
1070
     4
1070
   176
1070
     4
1070
   141
1040
150.0
1070
     7
1000
_OPEN
1070
     6
1000
_OPEN
1070
    41
1040
7.0
1002
}
  0
DIMENSION
  5
786
330
1A
100
AcDbEntity
  8
SUNPOU
 62
     4
100
AcDbDimension
  2
*D9
 10
415.1658337496875
 20
377.7697593077569
 30
0.0
 11
333.1658337496874
 21
382.7697593077568
 31
0.0
 70
    32
  3
STANDARD
100
AcDbAlignedDimension
 13
251.1658337496873
 23
281.0726792097668
 33
0.0
 14
415.1658337496875
 24
317.6970792097669
 34
0.0
100
AcDbRotatedDimension
1001
ACAD
1000
DSTYLE
1002
{
1070
   140
1040
6.0
1070
    74
1070
     0
1070
   172
1070
     1
1070
    73
1070
     0
1070
   272
1070
     2
1070
    77
1070
     3
1070
   173
1070
     1
1070
   147
1040
2.0
1070
    42
1040
6.0
1070
    44
1040
3.0
1070
    43
1040
14.0
1070
   271
1070
     0
1070
   178
1070
     4
1070
   177
1070
     4
1070
   176
1070
     4
1070
   141
1040
150.0
1070
     7
1000
_OPEN
1070
     6
1000
_OPEN
1070
    41
1040
7.0
1002
}
  0
DIMENSION
  5
793
330
1A
100
AcDbEntity
  8
SUNPOU
 62
     4
100
AcDbDimension
  2
*D10
 10
468.2866542273063
 20
285.0927649585368
 30
0.0
 11
463.6448831975693
 21
310.1617545466713
 31
0.0
 70
    33
  3
STANDARD
100
AcDbAlignedDimension
 13
415.1658337496874
 23
317.6970792097668
 33
0.0
 14
433.7342337496874
 24
271.2727792097668
 34
0.0
1001
ACAD
1000
DSTYLE
1002
{
1070
   140
1040
6.0
1070
    74
1070
     0
1070
   172
1070
     1
1070
    73
1070
     0
1070
   272
1070
     2
1070
    77
1070
     3
1070
   173
1070
     1
1070
   147
1040
2.0
1070
    42
1040
6.0
1070
    44
1040
3.0
1070
    43
1040
14.0
1070
   271
1070
     0
1070
   178
1070
     4
1070
   177
1070
     4
1070
   176
1070
     4
1070
   141
1040
150.0
1070
     7
1000
_OPEN
1070
     6
1000
_OPEN
1070
    41
1040
7.0
1002
}
  0
LINE
  5
794
330
1A
100
AcDbEntity
  8
CENTER_L
  6
CENTER
 62
     1
 48
5.0
100
AcDbLine
 10
438.7851337496875
 20
304.9894792097669
 30
0.0
 11
425.5454337496872
 21
299.6939792097668
 31
0.0
  0
LINE
  5
795
330
1A
100
AcDbEntity
  8
CENTER_L
  6
CENTER
 62
     1
 48
5.0
100
AcDbLine
 10
436.9283337496873
 20
309.6318792097668
 30
0.0
 11
423.7149337496874
 21
304.3467792097668
 31
0.0
  0
LINE
  5
796
330
1A
100
AcDbEntity
  8
CENTER_L
  6
CENTER
 62
     1
 48
5.0
100
AcDbLine
 10
448.0693337496875
 20
281.7772792097668
 30
0.0
 11
434.6988337496874
 21
276.4293792097669
 31
0.0
  0
TEXT
  5
797
330
1A
100
AcDbEntity
  8
SUNPOU
100
AcDbText
 10
434.1999770285829
 20
231.2559233231372
 30
0.0
 40
6.0
  1
10
100
AcDbText
  0
TEXT
  5
798
330
1A
100
AcDbEntity
  8
SUNPOU
100
AcDbText
 10
445.9001832673315
 20
217.6603247846232
 30
0.0
 40
6.0
  1
4
100
AcDbText
  0
DIMENSION
  5
7A8
330
1A
100
AcDbEntity
  8
SUNPOU
100
AcDbDimension
  2
*D11
 10
442.5327171080943
 20
249.2756823771935
 30
0.0
 11
463.4236340317116
 21
263.016846450536
 31
0.0
 70
    33
  1
t<>
  3
STANDARD
100
AcDbAlignedDimension
 13
428.1633623856415
 23
269.0445206644937
 33
0.0
 14
433.7342337496876
 24
271.2727792097669
 34
0.0
1001
ACAD
1000
DSTYLE
1002
{
1070
   140
1040
6.0
1070
    74
1070
     0
1070
   172
1070
     1
1070
    73
1070
     0
1070
   272
1070
     2
1070
    77
1070
     3
1070
   173
1070
     1
1070
   147
1040
2.0
1070
    42
1040
6.0
1070
    44
1040
3.0
1070
    43
1040
14.0
1070
   271
1070
     1
1070
   178
1070
     4
1070
   177
1070
     4
1070
   176
1070
     4
1070
   141
1040
150.0
1070
     7
1000
_OPEN
1070
     6
1000
_OPEN
1070
    41
1040
7.0
1002
}
  0
LEADER
  5
818
330
1A
100
AcDbEntity
  8
SUNPOU
 62
     4
100
AcDbLeader
  3
STANDARD
 73
     0
 40
6.0
 41
31.19999999999999
 76
     3
 10
570.8194884619171
 20
370.3892315406513
 30
0.0
 10
539.4904003788314
 20
391.3152556686716
 30
0.0
 10
537.7536127893732
 20
391.3152556686716
 30
0.0
1001
ACAD
1000
DSTYLE
1002
{
1070
     6
1000
OPEN
1070
    41
1040
7.0
1070
    42
1040
6.0
1070
    43
1040
14.0
1070
    44
1040
3.0
1070
    73
1070
     0
1070
    74
1070
     0
1070
    77
1070
     3
1070
   140
1040
6.0
1070
   141
1040
150.0
1070
   147
1040
2.0
1070
   172
1070
     1
1070
   173
1070
     1
1070
   176
1070
     4
1070
   177
1070
     4
1070
   178
1070
     4
1070
   271
1070
     0
1070
   272
1070
     2
1070
   341
1005
6D
1070
   343
1005
6D
1070
   344
1005
6D
1002
}
  0
MTEXT
  5
819
330
1A
100
AcDbEntity
  8
SUNPOU
 62
     4
100
AcDbMText
 10
535.7536127893731
 20
393.3152556686716
 30
0.0
 40
6.0
 41
0.0
 71
     9
 72
     5
  1
4-φ4.2
1001
ACAD
1000
MTEXTBEGIN
1070
    73
1070
     1
1070
    44
1040
1.0
1070
    74
1070
     0
1000
MTEXTEND
1000
MTEXTBEGIN
1070
    73
1070
     1
1070
    44
1040
1.0
1070
    74
1070
     0
1000
MTEXTEND
  0
DIMENSION
  5
85C
330
1A
100
AcDbEntity
  8
SUNPOU
100
AcDbDimension
  2
*D12
 10
462.5755488425502
 20
445.3791154409451
 30
0.0
 11
457.5755488425502
 21
457.8791154409451
 31
0.0
 70
    32
  3
STANDARD
100
AcDbAlignedDimension
 13
408.4519337496873
 23
470.3791154409451
 33
0.0
 14
408.4519337496873
 24
445.3791154409451
 34
0.0
 50
90.0
100
AcDbRotatedDimension
1001
ACAD
1000
DSTYLE
1002
{
1070
   140
1040
6.0
1070
    74
1070
     0
1070
   172
1070
     1
1070
    73
1070
     0
1070
   272
1070
     2
1070
    77
1070
     3
1070
   173
1070
     1
1070
   147
1040
2.0
1070
    42
1040
6.0
1070
    44
1040
3.0
1070
    43
1040
14.0
1070
   271
1070
     0
1070
   178
1070
     4
1070
   177
1070
     4
1070
   176
1070
     4
1070
   141
1040
150.0
1070
     7
1000
_OPEN
1070
     6
1000
_OPEN
1070
    41
1040
7.0
1002
}
  0
DIMENSION
  5
869
330
1A
100
AcDbEntity
  8
SUNPOU
100
AcDbDimension
  2
*D13
 10
478.9509689122365
 20
426.3791154409451
 30
0.0
 11
473.9509689122364
 21
457.8791654409451
 31
0.0
 70
    32
  3
STANDARD
100
AcDbAlignedDimension
 13
430.0158337496874
 23
489.3792154409452
 33
0.0
 14
430.0158337496874
 24
426.3791154409451
 34
0.0
 50
90.0
100
AcDbRotatedDimension
1001
ACAD
1000
DSTYLE
1002
{
1070
   140
1040
6.0
1070
    74
1070
     0
1070
   172
1070
     1
1070
    73
1070
     0
1070
   272
1070
     2
1070
    77
1070
     3
1070
   173
1070
     1
1070
   147
1040
2.0
1070
    42
1040
6.0
1070
    44
1040
3.0
1070
    43
1040
14.0
1070
   271
1070
     0
1070
   178
1070
     4
1070
   177
1070
     4
1070
   176
1070
     4
1070
   141
1040
150.0
1070
     7
1000
_OPEN
1070
     6
1000
_OPEN
1070
    41
1040
7.0
1002
}
  0
DIMENSION
  5
878
330
1A
100
AcDbEntity
  8
SUNPOU
100
AcDbDimension
  2
*D14
 10
220.9140407845102
 20
450.3791154409451
 30
0.0
 11
215.9140407845102
 21
457.8791654409452
 31
0.0
 70
    32
  3
STANDARD
100
AcDbAlignedDimension
 13
254.8657337496873
 23
465.3792154409453
 33
0.0
 14
254.8657337496873
 24
450.3791154409451
 34
0.0
 50
90.0
100
AcDbRotatedDimension
1001
ACAD
1000
DSTYLE
1002
{
1070
   140
1040
6.0
1070
    74
1070
     0
1070
   172
1070
     1
1070
    73
1070
     0
1070
   272
1070
     2
1070
    77
1070
     3
1070
   173
1070
     1
1070
   147
1040
2.0
1070
    42
1040
6.0
1070
    44
1040
3.0
1070
    43
1040
14.0
1070
   271
1070
     0
1070
   178
1070
     4
1070
   177
1070
     4
1070
   176
1070
     4
1070
   141
1040
150.0
1070
     7
1000
_OPEN
1070
     6
1000
_OPEN
1070
    41
1040
7.0
1002
}
  0
DIMENSION
  5
885
330
1A
100
AcDbEntity
  8
SUNPOU
100
AcDbDimension
  2
*D15
 10
220.9140407845102
 20
285.8726792098233
 30
0.0
 11
215.9140407845102
 21
301.7848792097951
 31
0.0
 70
    32
  3
STANDARD
100
AcDbAlignedDimension
 13
408.8229337496873
 23
317.6970792097669
 33
0.0
 14
254.202941267225
 24
285.8726792098233
 34
0.0
 50
90.0
100
AcDbRotatedDimension
1001
ACAD
1000
DSTYLE
1002
{
1070
   140
1040
6.0
1070
    74
1070
     0
1070
   172
1070
     1
1070
    73
1070
     0
1070
   272
1070
     2
1070
    77
1070
     3
1070
   173
1070
     1
1070
   147
1040
2.0
1070
    42
1040
6.0
1070
    44
1040
3.0
1070
    43
1040
14.0
1070
   271
1070
     0
1070
   178
1070
     4
1070
   177
1070
     4
1070
   176
1070
     4
1070
   141
1040
150.0
1070
     7
1000
_OPEN
1070
     6
1000
_OPEN
1070
    41
1040
7.0
1002
}
  0
LINE
  5
887
330
1A
100
AcDbEntity
  8
NOKITOI
100
AcDbLine
 10
258.0155085617089
 20
147.4735388430036
 30
0.0
 11
257.8576085618291
 21
144.4735388452845
 31
0.0
  0
TEXT
  5
88C
330
1A
100
AcDbEntity
  8
SUNPOU
 62
     4
100
AcDbText
 10
286.1442406542865
 20
71.86829964492926
 30
0.0
 40
8.0
  1
軒樋の差し替え
100
AcDbText
  0
TEXT
  5
8A0
330
1A
100
AcDbEntity
  8
SUNPOU
100
AcDbText
 10
431.8285284242006
 20
387.935608180056
 30
0.0
 40
6.0
  1
スライド巾
100
AcDbText
  0
LEADER
  5
8BF
330
1A
100
AcDbEntity
  8
SUNPOU
  6
CONTINUOUS
 62
     4
100
AcDbLeader
  3
STANDARD
 73
     0
 40
6.0
 41
31.19999999999999
 76
     3
 10
573.218839374434
 20
362.1161995588273
 30
0.0
 10
567.5409764189544
 20
337.53178126598
 30
0.0
 10
566.5601628490271
 20
337.53178126598
 30
0.0
1001
ACAD
1000
DSTYLE
1002
{
1070
     6
1000
OPEN
1070
    41
1040
7.0
1070
    42
1040
6.0
1070
    43
1040
14.0
1070
    44
1040
3.0
1070
    73
1070
     0
1070
    74
1070
     0
1070
    77
1070
     3
1070
   140
1040
6.0
1070
   141
1040
150.0
1070
   147
1040
2.0
1070
   172
1070
     1
1070
   173
1070
     1
1070
   176
1070
     4
1070
   177
1070
     4
1070
   178
1070
     4
1070
   271
1070
     0
1070
   272
1070
     2
1070
   341
1005
6D
1070
   343
1005
6D
1070
   344
1005
6D
1002
}
  0
MTEXT
  5
8C0
330
1A
100
AcDbEntity
  8
SUNPOU
  6
CONTINUOUS
 62
     4
100
AcDbMText
 10
564.5601628490271
 20
339.53178126598
 30
0.0
 40
6.0
 41
0.0
 71
     9
 72
     5
  1
2-φ6.5
1001
ACAD
1000
MTEXTBEGIN
1070
    73
1070
     1
1070
    44
1040
1.0
1070
    74
1070
     0
1000
MTEXTEND
1000
MTEXTBEGIN
1070
    73
1070
     1
1070
    44
1040
1.0
1070
    74
1070
     0
1000
MTEXTEND
  0
LINE
  5
8C1
330
1A
100
AcDbEntity
  8
CENTER_L
  6
CENTER
 62
     1
 48
5.0
100
AcDbLine
 10
436.9283337496873
 20
168.1807291544078
 30
0.0
 11
423.7149337496874
 21
162.8956291544078
 31
0.0
  0
LINE
  5
8C2
330
1A
100
AcDbEntity
  8
CENTER_L
  6
CENTER
 62
     1
 48
5.0
100
AcDbLine
 10
438.7851337496875
 20
163.5383291544079
 30
0.0
 11
425.5454337496872
 21
158.2428291544078
 31
0.0
  0
LINE
  5
8C3
330
1A
100
AcDbEntity
  8
CENTER_L
  6
CENTER
 62
     1
 48
5.0
100
AcDbLine
 10
448.0693337496875
 20
140.3261291544079
 30
0.0
 11
434.6988337496874
 21
134.9782291544079
 31
0.0
  0
DIMENSION
  5
8DE
330
1A
100
AcDbEntity
  8
SUNPOU
  6
CONTINUOUS
100
AcDbDimension
  2
*D16
 10
430.1658337496875
 20
377.785443802079
 30
0.0
 11
422.6658337496875
 21
382.785443802079
 31
0.0
 70
    32
  3
STANDARD
100
AcDbAlignedDimension
 13
415.1658337496875
 23
317.6970792097669
 33
0.0
 14
430.1658337496875
 24
317.6970792097669
 34
0.0
100
AcDbRotatedDimension
1001
ACAD
1000
DSTYLE
1002
{
1070
   140
1040
6.0
1070
    74
1070
     0
1070
   172
1070
     1
1070
    73
1070
     0
1070
   272
1070
     2
1070
    77
1070
     3
1070
   173
1070
     1
1070
   147
1040
2.0
1070
    42
1040
6.0
1070
    44
1040
3.0
1070
    43
1040
14.0
1070
   271
1070
     0
1070
   178
1070
     4
1070
   177
1070
     4
1070
   176
1070
     4
1070
   141
1040
150.0
1070
     7
1000
_OPEN
1070
     6
1000
_OPEN
1070
    41
1040
7.0
1002
}
  0
LWPOLYLINE
  5
9DC
330
1A
100
AcDbEntity
  8
ZUWAKU
100
AcDbPolyline
 90
        4
 70
     1
 43
0.0
 10
0.8000003265096893
 20
550.7999996173814
 10
0.8000003265096893
 20
0.7999996173814452
 10
796.8000003265097
 20
0.7999996173814452
 10
796.8000003265097
 20
550.7999996173814
  0
LWPOLYLINE
  5
9DD
330
1A
100
AcDbEntity
  8
ZUWAKU
100
AcDbPolyline
 90
        4
 70
     1
 43
0.0
 10
0.4000003265097121
 20
551.1999996173813
 10
0.4000003265097121
 20
0.3999996173814679
 10
797.2000003265097
 20
0.3999996173814448
 10
797.2000003265097
 20
551.1999996173813
  0
LWPOLYLINE
  5
9DE
330
1A
100
AcDbEntity
  8
ZUWAKU
100
AcDbPolyline
 90
        4
 70
     1
 43
0.0
 10
0.0000003265097348
 20
551.5999996173814
 10
0.0000003265097348
 20
-0.000000382618623
 10
797.6000003265099
 20
-0.0000003826185555
 10
797.6000003265099
 20
551.5999996173815
  0
LWPOLYLINE
  5
9DF
330
1A
100
AcDbEntity
  8
ZUWAKU
100
AcDbPolyline
 90
        4
 70
     1
 43
0.0
 10
0.6000003265096439
 20
550.9999996173815
 10
0.6000003265096439
 20
0.5999996173813998
 10
797.0000003265099
 20
0.599999617381446
 10
797.0000003265097
 20
550.9999996173815
  0
LWPOLYLINE
  5
9E0
330
1A
100
AcDbEntity
  8
ZUWAKU
100
AcDbPolyline
 90
        4
 70
     1
 43
0.0
 10
0.2000003265096666
 20
551.3999996173814
 10
0.2000003265096666
 20
0.1999996173814225
 10
797.4000003265095
 20
0.1999996173814455
 10
797.4000003265098
 20
551.3999996173814
  0
LINE
  5
9E1
330
1A
100
AcDbEntity
  8
ZUWAKU
100
AcDbLine
 10
0.0000003265097348
 20
29.99999961738137
 30
0.0
 11
797.4000003265095
 21
29.99999961738137
 31
0.0
  0
LINE
  5
9E2
330
1A
100
AcDbEntity
  8
ZUWAKU
100
AcDbLine
 10
0.0000003265097348
 20
30.19999961738138
 30
0.0
 11
797.4000003265095
 21
30.19999961738138
 31
0.0
  0
LINE
  5
9E3
330
1A
100
AcDbEntity
  8
ZUWAKU
100
AcDbLine
 10
0.0000003265097348
 20
30.39999961738138
 30
0.0
 11
797.4000003265095
 21
30.39999961738138
 31
0.0
  0
LINE
  5
9E4
330
1A
100
AcDbEntity
  8
ZUWAKU
100
AcDbLine
 10
0.0000003265097348
 20
30.59999961738138
 30
0.0
 11
797.4000003265095
 21
30.59999961738138
 31
0.0
  0
LINE
  5
9E5
330
1A
100
AcDbEntity
  8
ZUWAKU
100
AcDbLine
 10
0.0000003265097348
 20
30.79999961738138
 30
0.0
 11
797.4000003265095
 21
30.79999961738138
 31
0.0
  0
LINE
  5
9E6
330
1A
100
AcDbEntity
  8
ZUWAKU
100
AcDbLine
 10
208.6466016165777
 20
15.39999961738141
 30
0.0
 11
447.4243642975011
 21
15.39999961738141
 31
0.0
  0
LINE
  5
9E7
330
1A
100
AcDbEntity
  8
ZUWAKU
100
AcDbLine
 10
208.6466016165777
 20
15.59999961738141
 30
0.0
 11
447.4243642975011
 21
15.59999961738141
 31
0.0
  0
LINE
  5
9E8
330
1A
100
AcDbEntity
  8
ZUWAKU
100
AcDbLine
 10
208.6466016165777
 20
15.19999961738141
 30
0.0
 11
447.4243642975011
 21
15.19999961738141
 31
0.0
  0
TEXT
  5
9E9
330
1A
100
AcDbEntity
  8
MOJI
100
AcDbText
 10
92.95778991467887
 20
12.74117774765613
 30
0.0
 40
6.0
  1
新・丸トップＲＶ１０５
 41
0.9
  7
ｽﾀｲﾙ1
100
AcDbText
  0
CIRCLE
  5
9EA
330
1A
100
AcDbEntity
  8
ZUWAKU
100
AcDbCircle
 10
25.99221248129083
 20
15.19999961738138
 30
0.0
 40
1.75
  0
LINE
  5
9EB
330
1A
100
AcDbEntity
  8
ZUWAKU
100
AcDbLine
 10
26.86721248129083
 20
7.149999617381382
 30
0.0
 11
24.94221248129088
 21
7.149999617381382
 31
0.0
  0
LINE
  5
9EC
330
1A
100
AcDbEntity
  8
ZUWAKU
100
AcDbLine
 10
24.94221248129088
 20
9.949999617381379
 30
0.0
 11
26.86721248129083
 21
9.949999617381379
 31
0.0
  0
LINE
  5
9ED
330
1A
100
AcDbEntity
  8
ZUWAKU
100
AcDbLine
 10
26.86721248129083
 20
20.44999961738138
 30
0.0
 11
24.94221248129088
 21
20.44999961738138
 31
0.0
  0
LINE
  5
9EE
330
1A
100
AcDbEntity
  8
ZUWAKU
100
AcDbLine
 10
24.94221248129088
 20
23.24999961738134
 30
0.0
 11
26.86721248129083
 21
23.24999961738138
 31
0.0
  0
HATCH
  5
9EF
330
1A
100
AcDbEntity
  8
ZUWAKU
100
AcDbHatch
 10
0.0
 20
0.0
 30
0.0
210
0.0
220
0.0
230
1.0
  2
ANSI37
 70
     0
 71
     0
 91
        8
 92
        7
 72
     1
 73
     1
 93
       24
 10
14.50226298762959
 20
17.64484809836496
 42
-0.1989123673796348
 10
14.09221248129085
 20
18.63479759202601
 42
0.0
 10
14.09221248129085
 20
19.92499961738138
 42
-0.4142135623730912
 10
14.61721248129083
 20
20.44999961738138
 42
0.0
 10
17.59221248129074
 20
20.44999961738138
 42
0.4142135623731546
 10
18.11721248129083
 20
20.97499961738137
 42
0.0
 10
18.11721248129083
 20
22.72499961738138
 42
0.4142135623731586
 10
17.59221248129074
 20
23.24999961738138
 42
0.0
 10
14.09221248129085
 20
23.24999961738138
 42
0.4142135623730928
 10
11.2922124812909
 20
20.4499996173814
 42
0.0
 10
11.2922124812909
 20
18.63479759202613
 42
0.1989123673796619
 10
12.52236400030733
 20
15.66494911104253
 42
0.0
 10
15.432161974952
 20
12.75515113639787
 42
-0.1989123673796613
 10
15.84221248129085
 20
11.76520164273668
 42
0.0
 10
15.84221248129085
 20
10.47499961738137
 42
-0.4142135623730911
 10
15.31721248129088
 20
9.949999617381379
 42
0.0
 10
12.34221248129097
 20
9.949999617381379
 42
0.4142135623731526
 10
11.81721248129088
 20
9.424999617381391
 42
0.0
 10
11.81721248129088
 20
7.67499961738137
 42
0.4142135623731526
 10
12.34221248129097
 20
7.149999617381382
 42
0.0
 10
15.84221248129085
 20
7.149999617381382
 42
0.4142135623731044
 10
18.64221248129092
 20
9.949999617381358
 42
0.0
 10
18.64221248129092
 20
11.76520164273663
 42
0.1989123673796604
 10
17.41206096227438
 20
14.73505012372017
 42
0.0
 97
        0
 92
        7
 72
     1
 73
     1
 93
       16
 10
23.5422124812909
 20
19.04999961738139
 42
-0.4142135623730935
 10
24.94221248129088
 20
20.44999961738138
 42
0.0
 10
26.86721248129083
 20
20.44999961738138
 42
0.4142135623731546
 10
27.39221248129092
 20
20.97499961738137
 42
0.0
 10
27.39221248129092
 20
22.72499961738138
 42
0.4142135623730951
 10
26.86721248129094
 20
23.24999961738138
 42
0.0
 10
24.94221248129076
 20
23.24999961738134
 42
0.4142135623730892
 10
20.74221248129083
 20
19.04999961738131
 42
0.0
 10
20.74221248129083
 20
11.3499996173814
 42
0.4142135623730969
 10
24.94221248129088
 20
7.149999617381382
 42
0.0
 10
26.86721248129083
 20
7.149999617381382
 42
0.4142135623731526
 10
27.39221248129092
 20
7.67499961738137
 42
0.0
 10
27.39221248129092
 20
9.424999617381391
 42
0.4142135623730891
 10
26.86721248129094
 20
9.949999617381379
 42
0.0
 10
24.94221248129088
 20
9.949999617381379
 42
-0.4142135623730928
 10
23.5422124812909
 20
11.34999961738136
 42
0.0
 97
        0
 92
        7
 72
     1
 73
     1
 93
        2
 10
24.24221248129083
 20
15.19999961738138
 42
1.0
 10
27.74221248129083
 20
15.19999961738138
 42
1.0
 97
        0
 92
        7
 72
     1
 73
     1
 93
       26
 10
37.31485896346885
 20
19.2050468109448
 42
0.0
 10
38.37649859660666
 20
22.56690564921439
 42
0.5069206636600134
 10
37.8758676974113
 20
23.24999961738138
 42
0.0
 10
36.17697831780208
 20
23.24999961738138
 42
0.3272098845218764
 10
35.67634741860672
 20
22.88309358554835
 42
0.0
 10
33.80807754397494
 20
16.96690564921446
 42
-0.3272098845219541
 10
33.30744664477947
 20
16.59999961738138
 42
0.0
 10
33.16721248129101
 20
16.59999961738138
 42
-0.4142135623731526
 10
32.64221248129092
 20
17.12499961738136
 42
0.0
 10
32.64221248129092
 20
22.72499961738138
 42
0.4142135623730951
 10
32.11721248129094
 20
23.24999961738138
 42
0.0
 10
30.36721248129083
 20
23.24999961738138
 42
0.4142135623730871
 10
29.84221248129085
 20
22.7249996173814
 42
0.0
 10
29.84221248129085
 20
7.67499961738137
 42
0.4142135623730891
 10
30.36721248129083
 20
7.149999617381382
 42
0.0
 10
32.11721248129083
 20
7.149999617381382
 42
0.4142135623731526
 10
32.64221248129092
 20
7.67499961738137
 42
0.0
 10
32.64221248129092
 20
13.27499961738139
 42
-0.4142135623731526
 10
33.16721248129101
 20
13.79999961738138
 42
0.0
 10
33.30744664477959
 20
13.79999961738138
 42
-0.3272098845218915
 10
33.80807754397494
 20
13.4330935855483
 42
0.0
 10
35.67634741860672
 20
7.516905649214454
 42
0.3272098845218902
 10
36.17697831780208
 20
7.149999617381382
 42
0.0
 10
37.8758676974113
 20
7.149999617381382
 42
0.5069206636600335
 10
38.37649859660666
 20
7.83309358554839
 42
0.0
 10
36.050107218133
 20
15.19999961738151
 42
0.0
 97
        0
 92
        7
 72
     1
 73
     1
 93
        8
 10
43.49221248129083
 20
22.72499961738139
 42
0.4142135623731546
 10
42.96721248129074
 20
23.24999961738138
 42
0.0
 10
41.21721248129097
 20
23.24999961738138
 42
0.4142135623731507
 10
40.69221248129088
 20
22.7249996173814
 42
0.0
 10
40.69221248129088
 20
7.67499961738137
 42
0.4142135623731526
 10
41.21721248129097
 20
7.149999617381382
 42
0.0
 10
42.96721248129074
 20
7.149999617381382
 42
0.4142135623731526
 10
43.49221248129083
 20
7.67499961738137
 42
0.0
 97
        0
 92
        7
 72
     1
 73
     1
 93
       24
 10
48.39221248129092
 20
19.92499961738138
 42
-0.4142135623731546
 10
48.91721248129101
 20
20.44999961738138
 42
0.0
 10
51.89221248129093
 20
20.44999961738138
 42
0.4142135623730911
 10
52.4172124812909
 20
20.97499961738137
 42
0.0
 10
52.4172124812909
 20
22.72499961738138
 42
0.4142135623730952
 10
51.89221248129093
 20
23.24999961738138
 42
0.0
 10
48.39221248129092
 20
23.24999961738138
 42
0.4142135623731048
 10
45.59221248129086
 20
20.4499996173814
 42
0.0
 10
45.59221248129086
 20
18.63479759202613
 42
0.1989123673796613
 10
46.8223640003074
 20
15.66494911104259
 42
0.0
 10
49.73216197495208
 20
12.75515113639792
 42
-0.1989123673796402
 10
50.14221248129093
 20
11.76520164273684
 42
0.0
 10
50.14221248129093
 20
10.47499961738137
 42
-0.4142135623730911
 10
49.61721248129094
 20
9.949999617381379
 42
0.0
 10
46.64221248129092
 20
9.949999617381379
 42
0.4142135623731526
 10
46.11721248129083
 20
9.424999617381391
 42
0.0
 10
46.11721248129083
 20
7.67499961738137
 42
0.4142135623730891
 10
46.64221248129081
 20
7.149999617381382
 42
0.0
 10
50.14221248129093
 20
7.149999617381382
 42
0.4142135623730925
 10
52.94221248129088
 20
9.949999617381358
 42
0.0
 10
52.94221248129088
 20
11.76520164273663
 42
0.1989123673796675
 10
51.71206096227433
 20
14.73505012372028
 42
0.0
 10
48.80226298762977
 20
17.6448480983648
 42
-0.1989123673796652
 10
48.39221248129092
 20
18.63479759202596
 42
0.0
 97
        0
 92
        7
 72
     1
 73
     1
 93
       16
 10
57.84221248129085
 20
22.72499961738137
 42
0.414213562373103
 10
57.31721248129088
 20
23.24999961738138
 42
0.0
 10
55.56721248129088
 20
23.24999961738138
 42
0.4142135623730871
 10
55.0422124812909
 20
22.7249996173814
 42
0.0
 10
55.0422124812909
 20
9.949999617381358
 42
0.4142135623730926
 10
57.84221248129085
 20
7.149999617381382
 42
0.0
 10
61.34221248129086
 20
7.149999617381382
 42
0.4142135623731044
 10
64.14221248129092
 20
9.949999617381358
 42
0.0
 10
64.14221248129092
 20
22.72499961738138
 42
0.4142135623730951
 10
63.61721248129095
 20
23.24999961738138
 42
0.0
 10
61.86721248129083
 20
23.24999961738138
 42
0.4142135623730871
 10
61.34221248129086
 20
22.7249996173814
 42
0.0
 10
61.34221248129086
 20
10.99999961738135
 42
-0.414213562373088
 10
60.2922124812909
 20
9.949999617381379
 42
0.0
 10
58.89221248129093
 20
9.949999617381379
 42
-0.4142135623731197
 10
57.84221248129085
 20
10.99999961738135
 42
0.0
 97
        0
 92
        7
 72
     1
 73
     1
 93
        8
 10
69.0422124812909
 20
22.7249996173814
 42
0.4142135623730871
 10
68.51721248129092
 20
23.24999961738138
 42
0.0
 10
66.76721248129092
 20
23.24999961738138
 42
0.4142135623731507
 10
66.24221248129083
 20
22.7249996173814
 42
0.0
 10
66.24221248129083
 20
7.67499961738137
 42
0.4142135623730891
 10
66.76721248129081
 20
7.149999617381382
 42
0.0
 10
68.51721248129092
 20
7.149999617381382
 42
0.4142135623730891
 10
69.0422124812909
 20
7.67499961738137
 42
0.0
 97
        0
 75
     0
 76
     1
 52
0.0
 41
0.2
 77
     0
 78
     2
 53
45.0
 43
-900.9423040081692
 44
-13.20000038261855
 45
-0.4490128060534576
 46
0.4490128060534577
 79
     0
 53
135.0
 43
-900.9423040081692
 44
-13.20000038261855
 45
-0.4490128060534577
 46
-0.4490128060534576
 79
     0
 47
0.057451373970553
 98
        8
 10
16.07985528953304
 20
15.16717326326693
 10
22.4045153329489
 20
18.84406179983239
 10
25.16436821216939
 20
15.51188126345209
 10
30.91406030814687
 20
16.20129726382288
 10
41.83847234546647
 20
16.66090953136449
 10
46.89820122163928
 20
19.41857593378858
 10
56.55768629891008
 20
18.72915753247639
 10
67.82707994613247
 20
19.188769800018
  0
ARC
  5
9F0
330
1A
100
AcDbEntity
  8
ZUWAKU
100
AcDbCircle
 10
15.49221248129083
 20
18.63479759202608
 30
0.0
 40
4.199999999999999
100
AcDbArc
 50
180.0
 51
225.0
  0
LINE
  5
9F1
330
1A
100
AcDbEntity
  8
ZUWAKU
100
AcDbLine
 10
20.74221248129083
 20
11.34999961738138
 30
0.0
 11
20.74221248129083
 21
19.04999961738133
 31
0.0
  0
LINE
  5
9F2
330
1A
100
AcDbEntity
  8
ZUWAKU
100
AcDbLine
 10
23.5422124812909
 20
19.04999961738138
 30
0.0
 11
23.5422124812909
 21
11.34999961738138
 31
0.0
  0
ARC
  5
9F3
330
1A
100
AcDbEntity
  8
ZUWAKU
100
AcDbCircle
 10
15.49221248129083
 20
18.63479759202608
 30
0.0
 40
1.399999999999999
100
AcDbArc
 50
180.0000000000016
 51
224.9999999999988
  0
ARC
  5
9F4
330
1A
100
AcDbEntity
  8
ZUWAKU
100
AcDbCircle
 10
24.94221248129088
 20
11.34999961738138
 30
0.0
 40
4.199999999999999
100
AcDbArc
 50
180.0
 51
270.0
  0
ARC
  5
9F5
330
1A
100
AcDbEntity
  8
ZUWAKU
100
AcDbCircle
 10
15.84221248129085
 20
9.949999617381379
 30
0.0
 40
2.799999999999999
100
AcDbArc
 50
270.0
 51
0.0
  0
ARC
  5
9F6
330
1A
100
AcDbEntity
  8
ZUWAKU
100
AcDbCircle
 10
14.44221248129088
 20
11.76520164273668
 30
0.0
 40
4.199999999999999
100
AcDbArc
 50
0.0
 51
45.0
  0
LINE
  5
9F7
330
1A
100
AcDbEntity
  8
ZUWAKU
100
AcDbLine
 10
12.52236400030733
 20
15.66494911104256
 30
0.0
 11
15.432161974952
 21
12.75515113639789
 31
0.0
  0
LINE
  5
9F8
330
1A
100
AcDbEntity
  8
ZUWAKU
100
AcDbLine
 10
12.34221248129085
 20
9.949999617381379
 30
0.0
 11
15.31721248129088
 21
9.949999617381379
 31
0.0
  0
LINE
  5
9F9
330
1A
100
AcDbEntity
  8
ZUWAKU
100
AcDbLine
 10
12.34221248129085
 20
7.149999617381382
 30
0.0
 11
15.84221248129085
 21
7.149999617381382
 31
0.0
  0
ARC
  5
9FA
330
1A
100
AcDbEntity
  8
ZUWAKU
100
AcDbCircle
 10
12.34221248129085
 20
9.424999617381381
 30
0.0
 40
0.525
100
AcDbArc
 50
90.0
 51
180.0
  0
ARC
  5
9FB
330
1A
100
AcDbEntity
  8
ZUWAKU
100
AcDbCircle
 10
12.34221248129085
 20
7.674999617381381
 30
0.0
 40
0.525
100
AcDbArc
 50
180.0
 51
270.0
  0
LINE
  5
9FC
330
1A
100
AcDbEntity
  8
ZUWAKU
100
AcDbLine
 10
11.81721248129088
 20
7.674999617381381
 30
0.0
 11
11.81721248129088
 21
9.424999617381381
 31
0.0
  0
ARC
  5
9FD
330
1A
100
AcDbEntity
  8
ZUWAKU
100
AcDbCircle
 10
14.44221248129088
 20
11.76520164273672
 30
0.0
 40
1.399999999999999
100
AcDbArc
 50
0.0
 51
45.0
  0
ARC
  5
9FE
330
1A
100
AcDbEntity
  8
ZUWAKU
100
AcDbCircle
 10
15.31721248129088
 20
10.47499961738138
 30
0.0
 40
0.525
100
AcDbArc
 50
270.0
 51
0.0
  0
LINE
  5
9FF
330
1A
100
AcDbEntity
  8
ZUWAKU
100
AcDbLine
 10
15.84221248129085
 20
10.47499961738138
 30
0.0
 11
15.84221248129085
 21
11.76520164273672
 31
0.0
  0
LINE
  5
A00
330
1A
100
AcDbEntity
  8
ZUWAKU
100
AcDbLine
 10
17.41206096227438
 20
14.7350501237202
 30
0.0
 11
14.5022629876297
 21
17.64484809836488
 31
0.0
  0
ARC
  5
A01
330
1A
100
AcDbEntity
  8
ZUWAKU
100
AcDbCircle
 10
24.94221248129088
 20
11.34999961738138
 30
0.0
 40
1.399999999999999
100
AcDbArc
 50
180.0
 51
270.0
  0
LINE
  5
A02
330
1A
100
AcDbEntity
  8
ZUWAKU
100
AcDbLine
 10
18.64221248129092
 20
9.949999617381379
 30
0.0
 11
18.64221248129092
 21
11.76520164273672
 31
0.0
  0
ARC
  5
A03
330
1A
100
AcDbEntity
  8
ZUWAKU
100
AcDbCircle
 10
17.59221248129085
 20
20.97499961738138
 30
0.0
 40
0.525
100
AcDbArc
 50
270.0
 51
0.0
  0
ARC
  5
A04
330
1A
100
AcDbEntity
  8
ZUWAKU
100
AcDbCircle
 10
17.59221248129085
 20
22.72499961738137
 30
0.0
 40
0.525
100
AcDbArc
 50
0.0
 51
90.0
  0
ARC
  5
A05
330
1A
100
AcDbEntity
  8
ZUWAKU
100
AcDbCircle
 10
14.09221248129085
 20
20.44999961738138
 30
0.0
 40
2.799999999999999
100
AcDbArc
 50
90.0
 51
180.0
  0
LINE
  5
A06
330
1A
100
AcDbEntity
  8
ZUWAKU
100
AcDbLine
 10
11.2922124812909
 20
20.44999961738138
 30
0.0
 11
11.2922124812909
 21
18.63479759202603
 31
0.0
  0
LINE
  5
A07
330
1A
100
AcDbEntity
  8
ZUWAKU
100
AcDbLine
 10
17.59221248129085
 20
20.44999961738138
 30
0.0
 11
14.61721248129083
 21
20.44999961738138
 31
0.0
  0
LINE
  5
A08
330
1A
100
AcDbEntity
  8
ZUWAKU
100
AcDbLine
 10
14.09221248129085
 20
19.92499961738138
 30
0.0
 11
14.09221248129085
 21
18.63479759202603
 31
0.0
  0
ARC
  5
A09
330
1A
100
AcDbEntity
  8
ZUWAKU
100
AcDbCircle
 10
14.61721248129083
 20
19.92499961738138
 30
0.0
 40
0.525
100
AcDbArc
 50
90.0
 51
180.0
  0
LINE
  5
A0A
330
1A
100
AcDbEntity
  8
ZUWAKU
100
AcDbLine
 10
14.09221248129085
 20
23.24999961738138
 30
0.0
 11
17.59221248129085
 21
23.24999961738138
 31
0.0
  0
ARC
  5
A0B
330
1A
100
AcDbEntity
  8
ZUWAKU
100
AcDbCircle
 10
24.94221248129088
 20
19.04999961738133
 30
0.0
 40
4.199999999999999
100
AcDbArc
 50
90.0
 51
180.0
  0
ARC
  5
A0C
330
1A
100
AcDbEntity
  8
ZUWAKU
100
AcDbCircle
 10
24.94221248129088
 20
19.04999961738138
 30
0.0
 40
1.399999999999999
100
AcDbArc
 50
90.0
 51
180.0
  0
LINE
  5
A0D
330
1A
100
AcDbEntity
  8
ZUWAKU
100
AcDbLine
 10
18.11721248129083
 20
22.72499961738137
 30
0.0
 11
18.11721248129083
 21
20.97499961738138
 31
0.0
  0
LINE
  5
A0E
330
1A
100
AcDbEntity
  8
ZUWAKU
100
AcDbLine
 10
35.67634741860672
 20
22.88309358554835
 30
0.0
 11
33.80807754397494
 21
16.96690564921441
 31
0.0
  0
LINE
  5
A0F
330
1A
100
AcDbEntity
  8
ZUWAKU
100
AcDbLine
 10
29.84221248129085
 20
22.72499961738137
 30
0.0
 11
29.84221248129085
 21
7.674999617381381
 31
0.0
  0
LINE
  5
A10
330
1A
100
AcDbEntity
  8
ZUWAKU
100
AcDbLine
 10
32.64221248129092
 20
17.12499961738138
 30
0.0
 11
32.64221248129092
 21
22.72499961738137
 31
0.0
  0
LINE
  5
A11
330
1A
100
AcDbEntity
  8
ZUWAKU
100
AcDbLine
 10
57.84221248129085
 20
10.99999961738137
 30
0.0
 11
57.84221248129085
 21
22.72499961738137
 31
0.0
  0
LINE
  5
A12
330
1A
100
AcDbEntity
  8
ZUWAKU
100
AcDbLine
 10
55.0422124812909
 20
22.72499961738137
 30
0.0
 11
55.0422124812909
 21
9.949999617381379
 31
0.0
  0
LINE
  5
A13
330
1A
100
AcDbEntity
  8
ZUWAKU
100
AcDbLine
 10
43.49221248129083
 20
7.674999617381381
 30
0.0
 11
43.49221248129083
 21
22.72499961738137
 31
0.0
  0
LINE
  5
A14
330
1A
100
AcDbEntity
  8
ZUWAKU
100
AcDbLine
 10
40.69221248129088
 20
22.72499961738137
 30
0.0
 11
40.69221248129088
 21
7.674999617381381
 31
0.0
  0
LINE
  5
A15
330
1A
100
AcDbEntity
  8
ZUWAKU
100
AcDbLine
 10
37.31485896346885
 20
19.2050468109448
 30
0.0
 11
36.050107218133
 21
15.1999996173814
 31
0.0
  0
ARC
  5
A16
330
1A
100
AcDbEntity
  8
ZUWAKU
100
AcDbCircle
 10
49.7922124812909
 20
18.63479759202608
 30
0.0
 40
4.199999999999999
100
AcDbArc
 50
180.0
 51
225.0
  0
ARC
  5
A17
330
1A
100
AcDbEntity
  8
ZUWAKU
100
AcDbCircle
 10
49.7922124812909
 20
18.63479759202608
 30
0.0
 40
1.399999999999999
100
AcDbArc
 50
180.0000000000016
 51
224.9999999999988
  0
LINE
  5
A18
330
1A
100
AcDbEntity
  8
ZUWAKU
100
AcDbLine
 10
66.24221248129083
 20
22.72499961738137
 30
0.0
 11
66.24221248129083
 21
7.674999617381381
 31
0.0
  0
LINE
  5
A19
330
1A
100
AcDbEntity
  8
ZUWAKU
100
AcDbLine
 10
69.0422124812909
 20
7.674999617381381
 30
0.0
 11
69.0422124812909
 21
22.72499961738137
 31
0.0
  0
LINE
  5
A1A
330
1A
100
AcDbEntity
  8
ZUWAKU
100
AcDbLine
 10
61.34221248129086
 20
22.72499961738137
 30
0.0
 11
61.34221248129086
 21
10.99999961738137
 31
0.0
  0
LINE
  5
A1B
330
1A
100
AcDbEntity
  8
ZUWAKU
100
AcDbLine
 10
64.14221248129092
 20
9.949999617381379
 30
0.0
 11
64.14221248129092
 21
22.72499961738137
 31
0.0
  0
LINE
  5
A1C
330
1A
100
AcDbEntity
  8
ZUWAKU
100
AcDbLine
 10
79.12662987449812
 20
29.99999961738137
 30
0.0
 11
79.12662987449812
 21
0.7999996173814452
 31
0.0
  0
LINE
  5
A1D
330
1A
100
AcDbEntity
  8
ZUWAKU
100
AcDbLine
 10
79.52662987449798
 20
29.99999961738137
 30
0.0
 11
79.52662987449821
 21
0.7999996173814452
 31
0.0
  0
LINE
  5
A1E
330
1A
100
AcDbEntity
  8
ZUWAKU
100
AcDbLine
 10
79.32662987449794
 20
29.99999961738137
 30
0.0
 11
79.32662987449816
 21
0.7999996173814452
 31
0.0
  0
LINE
  5
A1F
330
1A
100
AcDbEntity
  8
ZUWAKU
100
AcDbLine
 10
57.84221248129085
 20
7.149999617381382
 30
0.0
 11
61.34221248129086
 21
7.149999617381382
 31
0.0
  0
LINE
  5
A20
330
1A
100
AcDbEntity
  8
ZUWAKU
100
AcDbLine
 10
60.2922124812909
 20
9.949999617381379
 30
0.0
 11
58.89221248129093
 21
9.949999617381379
 31
0.0
  0
LINE
  5
A21
330
1A
100
AcDbEntity
  8
ZUWAKU
100
AcDbLine
 10
41.21721248129086
 20
7.149999617381382
 30
0.0
 11
42.96721248129085
 21
7.149999617381382
 31
0.0
  0
LINE
  5
A22
330
1A
100
AcDbEntity
  8
ZUWAKU
100
AcDbLine
 10
35.67634741860672
 20
7.516905649214407
 30
0.0
 11
33.80807754397494
 21
13.43309358554835
 31
0.0
  0
ARC
  5
A23
330
1A
100
AcDbEntity
  8
ZUWAKU
100
AcDbCircle
 10
33.1672124812909
 20
13.27499961738138
 30
0.0
 40
0.525
100
AcDbArc
 50
90.0
 51
180.0
  0
ARC
  5
A24
330
1A
100
AcDbEntity
  8
ZUWAKU
100
AcDbCircle
 10
33.30744664477959
 20
13.27499961738138
 30
0.0
 40
0.525
100
AcDbArc
 50
17.52556837372303
 51
90.0
  0
ARC
  5
A25
330
1A
100
AcDbEntity
  8
ZUWAKU
100
AcDbCircle
 10
30.36721248129083
 20
7.674999617381381
 30
0.0
 40
0.525
100
AcDbArc
 50
180.0
 51
270.0
  0
ARC
  5
A26
330
1A
100
AcDbEntity
  8
ZUWAKU
100
AcDbCircle
 10
26.86721248129083
 20
9.424999617381381
 30
0.0
 40
0.525
100
AcDbArc
 50
0.0
 51
90.0
  0
ARC
  5
A27
330
1A
100
AcDbEntity
  8
ZUWAKU
100
AcDbCircle
 10
26.86721248129083
 20
7.674999617381381
 30
0.0
 40
0.525
100
AcDbArc
 50
270.0
 51
0.0
  0
LINE
  5
A28
330
1A
100
AcDbEntity
  8
ZUWAKU
100
AcDbLine
 10
27.39221248129092
 20
9.424999617381381
 30
0.0
 11
27.39221248129092
 21
7.674999617381381
 31
0.0
  0
LINE
  5
A29
330
1A
100
AcDbEntity
  8
ZUWAKU
100
AcDbLine
 10
32.64221248129092
 20
7.674999617381381
 30
0.0
 11
32.64221248129092
 21
13.27499961738138
 31
0.0
  0
ARC
  5
A2A
330
1A
100
AcDbEntity
  8
ZUWAKU
100
AcDbCircle
 10
32.11721248129083
 20
7.674999617381381
 30
0.0
 40
0.525
100
AcDbArc
 50
270.0
 51
0.0
  0
LINE
  5
A2B
330
1A
100
AcDbEntity
  8
ZUWAKU
100
AcDbLine
 10
30.36721248129083
 20
7.149999617381382
 30
0.0
 11
32.11721248129083
 21
7.149999617381382
 31
0.0
  0
ARC
  5
A2C
330
1A
100
AcDbEntity
  8
ZUWAKU
100
AcDbCircle
 10
33.1672124812909
 20
17.12499961738138
 30
0.0
 40
0.525
100
AcDbArc
 50
180.0
 51
270.0
  0
LINE
  5
A2D
330
1A
100
AcDbEntity
  8
ZUWAKU
100
AcDbLine
 10
33.1672124812909
 20
13.79999961738138
 30
0.0
 11
33.30744664477959
 21
13.79999961738138
 31
0.0
  0
LINE
  5
A2E
330
1A
100
AcDbEntity
  8
ZUWAKU
100
AcDbLine
 10
33.30744664477959
 20
16.59999961738138
 30
0.0
 11
33.1672124812909
 21
16.59999961738138
 31
0.0
  0
ARC
  5
A2F
330
1A
100
AcDbEntity
  8
ZUWAKU
100
AcDbCircle
 10
33.30744664477959
 20
17.12499961738138
 30
0.0
 40
0.525
100
AcDbArc
 50
270.0
 51
342.4744316262769
  0
ARC
  5
A30
330
1A
100
AcDbEntity
  8
ZUWAKU
100
AcDbCircle
 10
36.17697831780219
 20
7.674999617381381
 30
0.0
 40
0.525
100
AcDbArc
 50
197.525568373723
 51
270.0
  0
LINE
  5
A31
330
1A
100
AcDbEntity
  8
ZUWAKU
100
AcDbLine
 10
38.37649859660666
 20
7.833093585548354
 30
0.0
 11
36.050107218133
 21
15.1999996173814
 31
0.0
  0
ARC
  5
A32
330
1A
100
AcDbEntity
  8
ZUWAKU
100
AcDbCircle
 10
37.87586769741119
 20
7.674999617381381
 30
0.0
 40
0.525
100
AcDbArc
 50
270.0
 51
17.52556837372303
  0
LINE
  5
A33
330
1A
100
AcDbEntity
  8
ZUWAKU
100
AcDbLine
 10
36.17697831780219
 20
7.149999617381382
 30
0.0
 11
37.87586769741119
 21
7.149999617381382
 31
0.0
  0
ARC
  5
A34
330
1A
100
AcDbEntity
  8
ZUWAKU
100
AcDbCircle
 10
41.21721248129086
 20
7.674999617381381
 30
0.0
 40
0.525
100
AcDbArc
 50
180.0
 51
270.0
  0
ARC
  5
A35
330
1A
100
AcDbEntity
  8
ZUWAKU
100
AcDbCircle
 10
50.14221248129093
 20
9.949999617381379
 30
0.0
 40
2.799999999999999
100
AcDbArc
 50
270.0
 51
0.0
  0
ARC
  5
A36
330
1A
100
AcDbEntity
  8
ZUWAKU
100
AcDbCircle
 10
57.84221248129085
 20
9.949999617381379
 30
0.0
 40
2.799999999999999
100
AcDbArc
 50
180.0
 51
270.0
  0
LINE
  5
A37
330
1A
100
AcDbEntity
  8
ZUWAKU
100
AcDbLine
 10
51.71206096227445
 20
14.7350501237202
 30
0.0
 11
48.80226298762966
 21
17.64484809836488
 31
0.0
  0
LINE
  5
A38
330
1A
100
AcDbEntity
  8
ZUWAKU
100
AcDbLine
 10
46.8223640003074
 20
15.66494911104256
 30
0.0
 11
49.73216197495208
 21
12.75515113639789
 31
0.0
  0
LINE
  5
A39
330
1A
100
AcDbEntity
  8
ZUWAKU
100
AcDbLine
 10
46.64221248129092
 20
7.149999617381382
 30
0.0
 11
50.14221248129093
 21
7.149999617381382
 31
0.0
  0
LINE
  5
A3A
330
1A
100
AcDbEntity
  8
ZUWAKU
100
AcDbLine
 10
46.64221248129092
 20
9.949999617381379
 30
0.0
 11
49.61721248129084
 21
9.949999617381379
 31
0.0
  0
ARC
  5
A3B
330
1A
100
AcDbEntity
  8
ZUWAKU
100
AcDbCircle
 10
46.64221248129092
 20
9.424999617381381
 30
0.0
 40
0.525
100
AcDbArc
 50
90.0
 51
180.0
  0
ARC
  5
A3C
330
1A
100
AcDbEntity
  8
ZUWAKU
100
AcDbCircle
 10
42.96721248129085
 20
7.674999617381381
 30
0.0
 40
0.525
100
AcDbArc
 50
270.0
 51
0.0
  0
ARC
  5
A3D
330
1A
100
AcDbEntity
  8
ZUWAKU
100
AcDbCircle
 10
46.64221248129092
 20
7.674999617381381
 30
0.0
 40
0.525
100
AcDbArc
 50
180.0
 51
270.0
  0
LINE
  5
A3E
330
1A
100
AcDbEntity
  8
ZUWAKU
100
AcDbLine
 10
46.11721248129083
 20
7.674999617381381
 30
0.0
 11
46.11721248129083
 21
9.424999617381381
 31
0.0
  0
ARC
  5
A3F
330
1A
100
AcDbEntity
  8
ZUWAKU
100
AcDbCircle
 10
49.61721248129084
 20
10.47499961738138
 30
0.0
 40
0.525
100
AcDbArc
 50
270.0
 51
0.0
  0
ARC
  5
A40
330
1A
100
AcDbEntity
  8
ZUWAKU
100
AcDbCircle
 10
48.74221248129083
 20
11.76520164273672
 30
0.0
 40
1.399999999999999
100
AcDbArc
 50
0.0
 51
45.0
  0
LINE
  5
A41
330
1A
100
AcDbEntity
  8
ZUWAKU
100
AcDbLine
 10
50.14221248129093
 20
10.47499961738138
 30
0.0
 11
50.14221248129093
 21
11.76520164273672
 31
0.0
  0
ARC
  5
A42
330
1A
100
AcDbEntity
  8
ZUWAKU
100
AcDbCircle
 10
58.89221248129093
 20
10.99999961738137
 30
0.0
 40
1.049999999999999
100
AcDbArc
 50
180.0
 51
270.0
  0
ARC
  5
A43
330
1A
100
AcDbEntity
  8
ZUWAKU
100
AcDbCircle
 10
48.74221248129083
 20
11.76520164273668
 30
0.0
 40
4.199999999999999
100
AcDbArc
 50
0.0
 51
45.0
  0
LINE
  5
A44
330
1A
100
AcDbEntity
  8
ZUWAKU
100
AcDbLine
 10
52.94221248129088
 20
9.949999617381379
 30
0.0
 11
52.94221248129088
 21
11.76520164273672
 31
0.0
  0
ARC
  5
A45
330
1A
100
AcDbEntity
  8
ZUWAKU
100
AcDbCircle
 10
61.34221248129086
 20
9.949999617381379
 30
0.0
 40
2.799999999999999
100
AcDbArc
 50
270.0
 51
0.0
  0
LINE
  5
A46
330
1A
100
AcDbEntity
  8
ZUWAKU
100
AcDbLine
 10
66.76721248129092
 20
7.149999617381382
 30
0.0
 11
68.51721248129092
 21
7.149999617381382
 31
0.0
  0
ARC
  5
A47
330
1A
100
AcDbEntity
  8
ZUWAKU
100
AcDbCircle
 10
60.2922124812909
 20
10.99999961738137
 30
0.0
 40
1.049999999999999
100
AcDbArc
 50
270.0
 51
0.0
  0
ARC
  5
A48
330
1A
100
AcDbEntity
  8
ZUWAKU
100
AcDbCircle
 10
66.76721248129092
 20
7.674999617381381
 30
0.0
 40
0.525
100
AcDbArc
 50
180.0
 51
270.0
  0
ARC
  5
A49
330
1A
100
AcDbEntity
  8
ZUWAKU
100
AcDbCircle
 10
68.51721248129092
 20
7.674999617381381
 30
0.0
 40
0.525
100
AcDbArc
 50
270.0
 51
0.0
  0
LINE
  5
A4A
330
1A
100
AcDbEntity
  8
ZUWAKU
100
AcDbLine
 10
42.96721248129085
 20
23.24999961738138
 30
0.0
 11
41.21721248129086
 21
23.24999961738138
 31
0.0
  0
LINE
  5
A4B
330
1A
100
AcDbEntity
  8
ZUWAKU
100
AcDbLine
 10
27.39221248129092
 20
22.72499961738137
 30
0.0
 11
27.39221248129092
 21
20.97499961738138
 31
0.0
  0
ARC
  5
A4C
330
1A
100
AcDbEntity
  8
ZUWAKU
100
AcDbCircle
 10
26.86721248129083
 20
20.97499961738138
 30
0.0
 40
0.525
100
AcDbArc
 50
270.0
 51
0.0
  0
ARC
  5
A4D
330
1A
100
AcDbEntity
  8
ZUWAKU
100
AcDbCircle
 10
30.36721248129083
 20
22.72499961738137
 30
0.0
 40
0.525
100
AcDbArc
 50
90.0
 51
180.0
  0
ARC
  5
A4E
330
1A
100
AcDbEntity
  8
ZUWAKU
100
AcDbCircle
 10
26.86721248129083
 20
22.72499961738137
 30
0.0
 40
0.525
100
AcDbArc
 50
0.0
 51
90.0
  0
LINE
  5
A4F
330
1A
100
AcDbEntity
  8
ZUWAKU
100
AcDbLine
 10
32.11721248129083
 20
23.24999961738138
 30
0.0
 11
30.36721248129083
 21
23.24999961738138
 31
0.0
  0
ARC
  5
A50
330
1A
100
AcDbEntity
  8
ZUWAKU
100
AcDbCircle
 10
32.11721248129083
 20
22.72499961738137
 30
0.0
 40
0.525
100
AcDbArc
 50
0.0
 51
90.0
  0
ARC
  5
A51
330
1A
100
AcDbEntity
  8
ZUWAKU
100
AcDbCircle
 10
36.17697831780219
 20
22.72499961738137
 30
0.0
 40
0.525
100
AcDbArc
 50
90.0
 51
162.4744316262769
  0
LINE
  5
A52
330
1A
100
AcDbEntity
  8
ZUWAKU
100
AcDbLine
 10
38.37649859660666
 20
22.56690564921441
 30
0.0
 11
37.31485896346885
 21
19.2050468109448
 31
0.0
  0
ARC
  5
A53
330
1A
100
AcDbEntity
  8
ZUWAKU
100
AcDbCircle
 10
37.87586769741119
 20
22.72499961738137
 30
0.0
 40
0.525
100
AcDbArc
 50
342.4744316262769
 51
90.0
  0
LINE
  5
A54
330
1A
100
AcDbEntity
  8
ZUWAKU
100
AcDbLine
 10
36.17697831780219
 20
23.24999961738138
 30
0.0
 11
37.87586769741119
 21
23.24999961738138
 31
0.0
  0
ARC
  5
A55
330
1A
100
AcDbEntity
  8
ZUWAKU
100
AcDbCircle
 10
41.21721248129086
 20
22.72499961738137
 30
0.0
 40
0.525
100
AcDbArc
 50
90.0
 51
180.0
  0
LINE
  5
A56
330
1A
100
AcDbEntity
  8
ZUWAKU
100
AcDbLine
 10
51.89221248129093
 20
20.44999961738138
 30
0.0
 11
48.91721248129091
 21
20.44999961738138
 31
0.0
  0
LINE
  5
A57
330
1A
100
AcDbEntity
  8
ZUWAKU
100
AcDbLine
 10
48.39221248129092
 20
23.24999961738138
 30
0.0
 11
51.89221248129093
 21
23.24999961738138
 31
0.0
  0
ARC
  5
A58
330
1A
100
AcDbEntity
  8
ZUWAKU
100
AcDbCircle
 10
48.39221248129092
 20
20.44999961738138
 30
0.0
 40
2.799999999999999
100
AcDbArc
 50
90.0
 51
180.0
  0
LINE
  5
A59
330
1A
100
AcDbEntity
  8
ZUWAKU
100
AcDbLine
 10
45.59221248129086
 20
20.44999961738138
 30
0.0
 11
45.59221248129086
 21
18.63479759202603
 31
0.0
  0
ARC
  5
A5A
330
1A
100
AcDbEntity
  8
ZUWAKU
100
AcDbCircle
 10
42.96721248129085
 20
22.72499961738137
 30
0.0
 40
0.525
100
AcDbArc
 50
0.0
 51
90.0
  0
LINE
  5
A5B
330
1A
100
AcDbEntity
  8
ZUWAKU
100
AcDbLine
 10
48.39221248129092
 20
19.92499961738138
 30
0.0
 11
48.39221248129092
 21
18.63479759202603
 31
0.0
  0
ARC
  5
A5C
330
1A
100
AcDbEntity
  8
ZUWAKU
100
AcDbCircle
 10
48.91721248129091
 20
19.92499961738138
 30
0.0
 40
0.525
100
AcDbArc
 50
90.0
 51
180.0
  0
LINE
  5
A5D
330
1A
100
AcDbEntity
  8
ZUWAKU
100
AcDbLine
 10
52.4172124812909
 20
22.72499961738137
 30
0.0
 11
52.4172124812909
 21
20.97499961738138
 31
0.0
  0
ARC
  5
A5E
330
1A
100
AcDbEntity
  8
ZUWAKU
100
AcDbCircle
 10
51.89221248129093
 20
20.97499961738138
 30
0.0
 40
0.525
100
AcDbArc
 50
270.0
 51
0.0
  0
ARC
  5
A5F
330
1A
100
AcDbEntity
  8
ZUWAKU
100
AcDbCircle
 10
51.89221248129093
 20
22.72499961738137
 30
0.0
 40
0.525
100
AcDbArc
 50
0.0
 51
90.0
  0
LINE
  5
A60
330
1A
100
AcDbEntity
  8
ZUWAKU
100
AcDbLine
 10
57.31721248129088
 20
23.24999961738138
 30
0.0
 11
55.56721248129088
 21
23.24999961738138
 31
0.0
  0
ARC
  5
A61
330
1A
100
AcDbEntity
  8
ZUWAKU
100
AcDbCircle
 10
55.56721248129088
 20
22.72499961738137
 30
0.0
 40
0.525
100
AcDbArc
 50
90.0
 51
180.0
  0
ARC
  5
A62
330
1A
100
AcDbEntity
  8
ZUWAKU
100
AcDbCircle
 10
57.31721248129088
 20
22.72499961738137
 30
0.0
 40
0.525
100
AcDbArc
 50
0.0
 51
90.0
  0
LINE
  5
A63
330
1A
100
AcDbEntity
  8
ZUWAKU
100
AcDbLine
 10
68.51721248129092
 20
23.24999961738138
 30
0.0
 11
66.76721248129092
 21
23.24999961738138
 31
0.0
  0
ARC
  5
A64
330
1A
100
AcDbEntity
  8
ZUWAKU
100
AcDbCircle
 10
61.86721248129083
 20
22.72499961738137
 30
0.0
 40
0.525
100
AcDbArc
 50
90.0
 51
180.0
  0
LINE
  5
A65
330
1A
100
AcDbEntity
  8
ZUWAKU
100
AcDbLine
 10
63.61721248129083
 20
23.24999961738138
 30
0.0
 11
61.86721248129083
 21
23.24999961738138
 31
0.0
  0
ARC
  5
A66
330
1A
100
AcDbEntity
  8
ZUWAKU
100
AcDbCircle
 10
63.61721248129083
 20
22.72499961738137
 30
0.0
 40
0.525
100
AcDbArc
 50
0.0
 51
90.0
  0
ARC
  5
A67
330
1A
100
AcDbEntity
  8
ZUWAKU
100
AcDbCircle
 10
66.76721248129092
 20
22.72499961738137
 30
0.0
 40
0.525
100
AcDbArc
 50
90.0
 51
180.0
  0
ARC
  5
A68
330
1A
100
AcDbEntity
  8
ZUWAKU
100
AcDbCircle
 10
68.51721248129092
 20
22.72499961738137
 30
0.0
 40
0.525
100
AcDbArc
 50
0.0
 51
90.0
  0
TEXT
  5
A69
330
1A
100
AcDbEntity
  8
MOJI
100
AcDbText
 10
239.8272030073608
 20
18.00492067478876
 30
0.0
 40
5.599999999999999
  1
ブラケット正面打（吊）自在式
 41
0.9
  7
ｽﾀｲﾙ1
100
AcDbText
  0
TEXT
  5
A6A
330
1A
100
AcDbEntity
  8
MOJI
100
AcDbText
 10
239.8272030073608
 20
3.204920674788798
 30
0.0
 40
5.599999999999999
  1
ＲＶ１０５－４－４５～６０
 41
0.9
  7
ｽﾀｲﾙ1
100
AcDbText
  0
LINE
  5
A6B
330
1A
100
AcDbEntity
  8
ZUWAKU
100
AcDbLine
 10
208.4466016165774
 20
29.99999961738137
 30
0.0
 11
208.4466016165777
 21
0.7999996173814452
 31
0.0
  0
LINE
  5
A6C
330
1A
100
AcDbEntity
  8
ZUWAKU
100
AcDbLine
 10
208.6466016165775
 20
29.99999961738137
 30
0.0
 11
208.6466016165777
 21
0.7999996173814452
 31
0.0
  0
LINE
  5
A6D
330
1A
100
AcDbEntity
  8
ZUWAKU
100
AcDbLine
 10
208.2466016165776
 20
29.99999961738137
 30
0.0
 11
208.2466016165776
 21
0.7999996173814452
 31
0.0
  0
TEXT
  5
A6E
330
1A
100
AcDbEntity
  8
ZUWAKU
100
AcDbText
 10
209.7240466387872
 20
9.655356155766995
 30
0.0
 40
4.0
  1
サイズ
 41
0.9
  7
ｽﾀｲﾙ1
100
AcDbText
  0
TEXT
  5
A6F
330
1A
100
AcDbEntity
  8
ZUWAKU
100
AcDbText
 10
209.724046638787
 20
24.05535615576695
 30
0.0
 40
4.0
  1
品名
 41
0.9
  7
ｽﾀｲﾙ1
100
AcDbText
  0
TEXT
  5
A70
330
1A
100
AcDbEntity
  8
ZUWAKU
100
AcDbText
 10
658.2039380138121
 20
18.00492067478876
 30
0.0
 40
5.599999999999999
  1
　　．　　．　　
 41
0.9
  7
ｽﾀｲﾙ1
100
AcDbText
  0
LINE
  5
A71
330
1A
100
AcDbEntity
  8
ZUWAKU
100
AcDbLine
 10
648.8172028367139
 20
15.59999961738141
 30
0.0
 11
697.249010875051
 21
15.59999961738141
 31
0.0
  0
LINE
  5
A72
330
1A
100
AcDbEntity
  8
ZUWAKU
100
AcDbLine
 10
648.8172028367142
 20
15.39999961738141
 30
0.0
 11
697.249010875051
 21
15.39999961738141
 31
0.0
  0
LINE
  5
A73
330
1A
100
AcDbEntity
  8
ZUWAKU
100
AcDbLine
 10
648.8172028367139
 20
15.19999961738141
 30
0.0
 11
697.249010875051
 21
15.19999961738141
 31
0.0
  0
LINE
  5
A74
330
1A
100
AcDbEntity
  8
ZUWAKU
100
AcDbLine
 10
505.1991798246506
 20
15.59999961738141
 30
0.0
 11
552.5269560926221
 21
15.59999961738141
 31
0.0
  0
LINE
  5
A75
330
1A
100
AcDbEntity
  8
ZUWAKU
100
AcDbLine
 10
505.1991798246506
 20
15.39999961738141
 30
0.0
 11
552.5269560926221
 21
15.39999961738141
 31
0.0
  0
LINE
  5
A76
330
1A
100
AcDbEntity
  8
ZUWAKU
100
AcDbLine
 10
505.1991798246506
 20
15.19999961738141
 30
0.0
 11
552.5269560926221
 21
15.19999961738141
 31
0.0
  0
LINE
  5
A77
330
1A
100
AcDbEntity
  8
ZUWAKU
100
AcDbLine
 10
504.7991798246507
 20
29.99999961738137
 30
0.0
 11
504.7991798246507
 21
0.7999996173814452
 31
0.0
  0
LINE
  5
A78
330
1A
100
AcDbEntity
  8
ZUWAKU
100
AcDbLine
 10
505.1991798246506
 20
29.99999961738137
 30
0.0
 11
505.1991798246509
 21
0.7999996173814452
 31
0.0
  0
LINE
  5
A79
330
1A
100
AcDbEntity
  8
ZUWAKU
100
AcDbLine
 10
504.9991798246505
 20
29.99999961738137
 30
0.0
 11
504.9991798246508
 21
0.7999996173814452
 31
0.0
  0
TEXT
  5
A7A
330
1A
100
AcDbEntity
  8
MOJI
100
AcDbText
 10
528.0409082988226
 20
18.00492067478876
 30
0.0
 40
5.599999999999999
  1
Ａ３
 41
0.9
  7
ｽﾀｲﾙ1
100
AcDbText
  0
LINE
  5
A7B
330
1A
100
AcDbEntity
  8
ZUWAKU
100
AcDbLine
 10
447.4243642975011
 20
29.99999961738137
 30
0.0
 11
447.4243642975011
 21
0.7999996173814452
 31
0.0
  0
LINE
  5
A7C
330
1A
100
AcDbEntity
  8
ZUWAKU
100
AcDbLine
 10
447.824364297501
 20
29.99999961738137
 30
0.0
 11
447.8243642975012
 21
0.7999996173814452
 31
0.0
  0
LINE
  5
A7D
330
1A
100
AcDbEntity
  8
ZUWAKU
100
AcDbLine
 10
447.6243642975009
 20
29.99999961738137
 30
0.0
 11
447.6243642975012
 21
0.7999996173814452
 31
0.0
  0
TEXT
  5
A7E
330
1A
100
AcDbEntity
  8
MOJI
100
AcDbText
 10
464.5946263297487
 20
11.94261733904136
 30
0.0
 40
5.599999999999999
  1
ＬＨ６０□
 41
0.9
  7
ｽﾀｲﾙ1
100
AcDbText
  0
TEXT
  5
A7F
330
1A
100
AcDbEntity
  8
ZUWAKU
100
AcDbText
 10
462.6937619820169
 20
2.614070528520869
 30
0.0
 40
3.0
  1
□には色品番が入ります
 41
0.9
  7
ｽﾀｲﾙ1
100
AcDbText
  0
TEXT
  5
A80
330
1A
100
AcDbEntity
  8
ZUWAKU
100
AcDbText
 10
506.6766248468605
 20
9.655356155766995
 30
0.0
 40
4.0
  1
縮尺
 41
0.9
  7
ｽﾀｲﾙ1
100
AcDbText
  0
TEXT
  5
A81
330
1A
100
AcDbEntity
  8
MOJI
100
AcDbText
 10
528.0409082988226
 20
3.204920674788798
 30
0.0
 40
5.599999999999999
  1
１/２
 41
0.9
  7
ｽﾀｲﾙ1
100
AcDbText
  0
TEXT
  5
A82
330
1A
100
AcDbEntity
  8
ZUWAKU
100
AcDbText
 10
449.3018093197106
 20
24.05535615576695
 30
0.0
 40
4.0
  1
品番
 41
0.9
  7
ｽﾀｲﾙ1
100
AcDbText
  0
TEXT
  5
A83
330
1A
100
AcDbEntity
  8
ZUWAKU
100
AcDbText
 10
506.6766248468602
 20
24.05535615576695
 30
0.0
 40
4.0
  1
用紙
 41
0.9
  7
ｽﾀｲﾙ1
100
AcDbText
  0
LINE
  5
A84
330
1A
100
AcDbEntity
  8
ZUWAKU
100
AcDbLine
 10
552.5269560926221
 20
29.99999961738137
 30
0.0
 11
552.5269560926221
 21
0.7999996173814452
 31
0.0
  0
LINE
  5
A85
330
1A
100
AcDbEntity
  8
ZUWAKU
100
AcDbLine
 10
552.926956092622
 20
29.99999961738137
 30
0.0
 11
552.9269560926223
 21
0.7999996173814452
 31
0.0
  0
LINE
  5
A86
330
1A
100
AcDbEntity
  8
ZUWAKU
100
AcDbLine
 10
552.726956092622
 20
29.99999961738137
 30
0.0
 11
552.7269560926222
 21
0.7999996173814452
 31
0.0
  0
LINE
  5
A87
330
1A
100
AcDbEntity
  8
ZUWAKU
100
AcDbLine
 10
648.4172028367143
 20
29.99999961738137
 30
0.0
 11
648.4172028367143
 21
0.7999996173814452
 31
0.0
  0
LINE
  5
A88
330
1A
100
AcDbEntity
  8
ZUWAKU
100
AcDbLine
 10
648.8172028367142
 20
29.99999961738137
 30
0.0
 11
648.8172028367143
 21
0.7999996173814452
 31
0.0
  0
LINE
  5
A89
330
1A
100
AcDbEntity
  8
ZUWAKU
100
AcDbLine
 10
648.6172028367141
 20
29.99999961738137
 30
0.0
 11
648.6172028367143
 21
0.7999996173814452
 31
0.0
  0
TEXT
  5
A8A
330
1A
100
AcDbEntity
  8
ZUWAKU
100
AcDbText
 10
650.2946478589238
 20
24.05535615576695
 30
0.0
 40
4.0
  1
DATE
 41
0.9
  7
ｽﾀｲﾙ1
100
AcDbText
  0
TEXT
  5
A8B
330
1A
100
AcDbEntity
  8
ZUWAKU
100
AcDbText
 10
708.5280845187535
 20
17.55383895306818
 30
0.0
 40
6.0
  1
積水化学工業株式会社
 41
0.9
  7
ｽﾀｲﾙ1
100
AcDbText
  0
LINE
  5
A8C
330
1A
100
AcDbEntity
  8
ZUWAKU
100
AcDbLine
 10
697.8490108750508
 20
29.99999961738137
 30
0.0
 11
697.8490108750511
 21
0.7999996173814452
 31
0.0
  0
LINE
  5
A8D
330
1A
100
AcDbEntity
  8
ZUWAKU
100
AcDbLine
 10
697.6490108750509
 20
29.99999961738137
 30
0.0
 11
697.649010875051
 21
0.7999996173814452
 31
0.0
  0
LINE
  5
A8E
330
1A
100
AcDbEntity
  8
ZUWAKU
100
AcDbLine
 10
697.449010875051
 20
29.99999961738137
 30
0.0
 11
697.449010875051
 21
0.7999996173814452
 31
0.0
  0
LINE
  5
A8F
330
1A
100
AcDbEntity
  8
ZUWAKU
100
AcDbLine
 10
697.249010875051
 20
29.99999961738137
 30
0.0
 11
697.249010875051
 21
0.7999996173814452
 31
0.0
  0
TEXT
  5
A90
330
1A
100
AcDbEntity
  8
ZUWAKU
100
AcDbText
 10
708.5280845187535
 20
6.648839931235443
 30
0.0
 40
6.0
  1
建材事業部
 41
0.9
  7
ｽﾀｲﾙ1
100
AcDbText
  0
VIEWPORT
  5
22
330
17
100
AcDbEntity
 67
     1
  8
0
100
AcDbViewport
 10
313.6808219178082
 20
148.5
 30
0.0
 40
627.3616438356165
 41
297.0
 68
     2
 69
     1
1001
ACAD
1000
MVIEW
1002
{
1070
    16
1010
0.0
1020
0.0
1030
0.0
1010
0.0
1020
0.0
1030
1.0
1040
0.0
1040
297.0
1040
313.6808219178082
1040
148.5
1040
50.0
1040
0.0
1040
0.0
1070
     0
1070
   100
1070
     1
1070
     0
1070
     0
1070
     0
1070
     0
1070
     0
1040
0.0
1040
0.0
1040
0.0
1040
1.0
1040
1.0
1040
10.0
1040
10.0
1070
     0
1002
{
1002
}
1002
}
  0
VIEWPORT
  5
64
330
17
100
AcDbEntity
 67
     1
  8
VIEWPORT
100
AcDbViewport
 10
210.0
 20
148.5
 30
0.0
 40
420.0
 41
297.0
 68
     1
 69
     2
1001
ACAD
1000
MVIEW
1002
{
1070
    16
1010
0.0
1020
0.0
1030
0.0
1010
0.0
1020
0.0
1030
1.0
1040
0.0
1040
605.8799999999998
1040
420.0
1040
297.0
1040
50.0
1040
0.0
1040
0.0
1070
     0
1070
   100
1070
     1
1070
     0
1070
     0
1070
     0
1070
     0
1070
     0
1040
0.0
1040
0.0
1040
0.0
1040
10.0
1040
10.0
1040
0.0
1040
0.0
1070
     0
1002
{
1002
}
1002
}
  0
ENDSEC
  0
SECTION
  2
OBJECTS
  0
DICTIONARY
  5
C
330
0
100
AcDbDictionary
  3
ACAD_GROUP
350
D
  3
ACAD_LAYOUT
350
8E3
  3
ACAD_MLINESTYLE
350
E
  3
ACAD_PLOTSETTINGS
350
8E4
  3
ACAD_PLOTSTYLENAME
350
8E1
  3
ACDBHEADERROUNDTRIPXREC
350
A98
  0
DICTIONARY
  5
912
330
1A
100
AcDbDictionary
280
     1
  3
ACAD_LAYOUTSELFREF
360
ABA
  0
DICTIONARY
  5
910
330
17
100
AcDbDictionary
280
     1
  3
ACAD_LAYOUTSELFREF
360
AB9
  0
DICTIONARY
  5
D
102
{ACAD_REACTORS
330
C
102
}
330
C
100
AcDbDictionary
  0
DICTIONARY
  5
8E3
102
{ACAD_REACTORS
330
C
102
}
330
C
100
AcDbDictionary
  0
DICTIONARY
  5
E
102
{ACAD_REACTORS
330
C
102
}
330
C
100
AcDbDictionary
  3
STANDARD
350
13
  0
DICTIONARY
  5
8E4
102
{ACAD_REACTORS
330
C
102
}
330
C
100
AcDbDictionary
  0
ACDBDICTIONARYWDFLT
  5
8E1
102
{ACAD_REACTORS
330
C
102
}
330
C
100
AcDbDictionary
281
     1
  3
Normal
350
8E2
100
AcDbDictionaryWithDefault
340
8E2
1001
ACAD
1000
TREAT_AS_HARD
1070
     0
  0
DICTIONARY
  5
A98
102
{ACAD_REACTORS
330
C
102
}
330
C
100
AcDbDictionary
  3
TSTACKALIGN
350
A99
  3
TSTACKSIZE
350
A9A
  3
HYPERLINKBASE
350
A9B
  3
STYLESHEET
350
A9C
  3
LAYOUTDICT
350
A9D
  3
PLOTSETDICT
350
A9E
  3
PLOTSTYLNAMDICT
350
A9F
  3
LWETCUNION
350
AA0
  3
INSUNITS
350
AA1
  3
CEPSNTYPE
350
AA2
  3
FINGERPRINTGUID
350
AA3
  3
VERSIONGUID
350
AA4
  3
PSVPSCALE
350
AA5
  3
DIMSTYLEDATA
350
AA6
  3
PUCSORTHOREF
350
AA7
  3
PUCSORTHOVIEW
350
AA8
  3
PUCSBASE
350
AA9
  3
PUCSORGTOP
350
AAA
  3
PUCSORGBOTTOM
350
AAB
  3
PUCSORGLEFT
350
AAC
  3
PUCSORGRIGHT
350
AAD
  3
PUCSORGFRONT
350
AAE
  3
PUCSORGBACK
350
AAF
  3
UCSORTHOREF
350
AB0
  3
UCSORTHOVIEW
350
AB1
  3
UCSBASE
350
AB2
  3
UCSORGTOP
350
AB3
  3
UCSORGBOTTOM
350
AB4
  3
UCSORGLEFT
350
AB5
  3
UCSORGRIGHT
350
AB6
  3
UCSORGFRONT
350
AB7
  3
UCSORGBACK
350
AB8
  0
XRECORD
  5
ABA
102
{ACAD_REACTORS
330
912
102
}
330
912
100
AcDbXrecord
340
1A
  0
XRECORD
  5
AB9
102
{ACAD_REACTORS
330
910
102
}
330
910
100
AcDbXrecord
340
17
  0
MLINESTYLE
  5
13
102
{ACAD_REACTORS
330
E
102
}
330
E
100
AcDbMlineStyle
  2
STANDARD
 70
     0
  3

 62
     0
 51
90.0
 52
90.0
 71
     2
 49
0.5
 62
   256
  6
BYLAYER
 49
-0.5
 62
   256
  6
BYLAYER
  0
ACDBPLACEHOLDER
  5
8E2
102
{ACAD_REACTORS
330
8E1
102
}
330
8E1
100
AcDbPlaceHolder
280
     0
  0
XRECORD
  5
A99
102
{ACAD_REACTORS
330
A98
102
}
330
A98
100
AcDbXrecord
 90
        1
  0
XRECORD
  5
A9A
102
{ACAD_REACTORS
330
A98
102
}
330
A98
100
AcDbXrecord
 90
       70
  0
XRECORD
  5
A9B
102
{ACAD_REACTORS
330
A98
102
}
330
A98
100
AcDbXrecord
  1

  0
XRECORD
  5
A9C
102
{ACAD_REACTORS
330
A98
102
}
330
A98
100
AcDbXrecord
  1
systemprinter.ctb
  0
XRECORD
  5
A9D
102
{ACAD_REACTORS
330
A98
102
}
330
A98
100
AcDbXrecord
340
8E3
  0
XRECORD
  5
A9E
102
{ACAD_REACTORS
330
A98
102
}
330
A98
100
AcDbXrecord
340
8E4
  0
XRECORD
  5
A9F
102
{ACAD_REACTORS
330
A98
102
}
330
A98
100
AcDbXrecord
340
8E1
  0
XRECORD
  5
AA0
102
{ACAD_REACTORS
330
A98
102
}
330
A98
100
AcDbXrecord
 90
    10781
  0
XRECORD
  5
AA1
102
{ACAD_REACTORS
330
A98
102
}
330
A98
100
AcDbXrecord
 90
        0
  0
XRECORD
  5
AA2
102
{ACAD_REACTORS
330
A98
102
}
330
A98
100
AcDbXrecord
 90
        0
  0
XRECORD
  5
AA3
102
{ACAD_REACTORS
330
A98
102
}
330
A98
100
AcDbXrecord
  1
{01B4198C-3ACD-4C0E-AD28-8689459F41EA}
  0
XRECORD
  5
AA4
102
{ACAD_REACTORS
330
A98
102
}
330
A98
100
AcDbXrecord
  1
{3EE05B3A-7896-4C49-9FAF-D15B2F07BF01}
  0
XRECORD
  5
AA5
102
{ACAD_REACTORS
330
A98
102
}
330
A98
100
AcDbXrecord
 40
0.0
  0
XRECORD
  5
AA6
102
{ACAD_REACTORS
330
A98
102
}
330
A98
100
AcDbXrecord
1000
DSTYLE
1002
{
1070
   341
340
6D
1070
   343
340
6D
1070
   344
340
6D
1070
   371
 70
    -1
1070
   372
 70
    -1
1002
}
  0
XRECORD
  5
AA7
102
{ACAD_REACTORS
330
A98
102
}
330
A98
100
AcDbXrecord
340
0
  0
XRECORD
  5
AA8
102
{ACAD_REACTORS
330
A98
102
}
330
A98
100
AcDbXrecord
 70
     0
  0
XRECORD
  5
AA9
102
{ACAD_REACTORS
330
A98
102
}
330
A98
100
AcDbXrecord
340
0
  0
XRECORD
  5
AAA
102
{ACAD_REACTORS
330
A98
102
}
330
A98
100
AcDbXrecord
 10
0.0
 20
0.0
 30
0.0
  0
XRECORD
  5
AAB
102
{ACAD_REACTORS
330
A98
102
}
330
A98
100
AcDbXrecord
 10
0.0
 20
0.0
 30
0.0
  0
XRECORD
  5
AAC
102
{ACAD_REACTORS
330
A98
102
}
330
A98
100
AcDbXrecord
 10
0.0
 20
0.0
 30
0.0
  0
XRECORD
  5
AAD
102
{ACAD_REACTORS
330
A98
102
}
330
A98
100
AcDbXrecord
 10
0.0
 20
0.0
 30
0.0
  0
XRECORD
  5
AAE
102
{ACAD_REACTORS
330
A98
102
}
330
A98
100
AcDbXrecord
 10
0.0
 20
0.0
 30
0.0
  0
XRECORD
  5
AAF
102
{ACAD_REACTORS
330
A98
102
}
330
A98
100
AcDbXrecord
 10
0.0
 20
0.0
 30
0.0
  0
XRECORD
  5
AB0
102
{ACAD_REACTORS
330
A98
102
}
330
A98
100
AcDbXrecord
340
0
  0
XRECORD
  5
AB1
102
{ACAD_REACTORS
330
A98
102
}
330
A98
100
AcDbXrecord
 70
     0
  0
XRECORD
  5
AB2
102
{ACAD_REACTORS
330
A98
102
}
330
A98
100
AcDbXrecord
340
0
  0
XRECORD
  5
AB3
102
{ACAD_REACTORS
330
A98
102
}
330
A98
100
AcDbXrecord
 10
0.0
 20
0.0
 30
0.0
  0
XRECORD
  5
AB4
102
{ACAD_REACTORS
330
A98
102
}
330
A98
100
AcDbXrecord
 10
0.0
 20
0.0
 30
0.0
  0
XRECORD
  5
AB5
102
{ACAD_REACTORS
330
A98
102
}
330
A98
100
AcDbXrecord
 10
0.0
 20
0.0
 30
0.0
  0
XRECORD
  5
AB6
102
{ACAD_REACTORS
330
A98
102
}
330
A98
100
AcDbXrecord
 10
0.0
 20
0.0
 30
0.0
  0
XRECORD
  5
AB7
102
{ACAD_REACTORS
330
A98
102
}
330
A98
100
AcDbXrecord
 10
0.0
 20
0.0
 30
0.0
  0
XRECORD
  5
AB8
102
{ACAD_REACTORS
330
A98
102
}
330
A98
100
AcDbXrecord
 10
0.0
 20
0.0
 30
0.0
  0
ENDSEC
  0
EOF
