  0
SECTION
  2
HEADER
  9
$ACADVER
  1
AC1012
  9
$DWGCODEPAGE
  3
dos932
  9
$INSBASE
 10
0.0
 20
0.0
 30
0.0
  9
$EXTMIN
 10
5.0
 20
2.449000558492456
 30
0.0
  9
$EXTMAX
 10
403.0
 20
282.0
 30
0.0
  9
$LIMMIN
 10
0.0
 20
0.0
  9
$LIMMAX
 10
420.0
 20
297.0
  9
$ORTHOMODE
 70
     1
  9
$REGENMODE
 70
     1
  9
$FILLMODE
 70
     1
  9
$QTEXTMODE
 70
     0
  9
$MIRRTEXT
 70
     1
  9
$DRAGMODE
 70
     2
  9
$LTSCALE
 40
1.0
  9
$OSMODE
 70
    37
  9
$ATTMODE
 70
     1
  9
$TEXTSIZE
 40
2.5
  9
$TRACEWID
 40
1.0
  9
$TEXTSTYLE
  7
STANDARD
  9
$CLAYER
  8
SUNPOU
  9
$CELTYPE
  6
BYLAYER
  9
$CECOLOR
 62
   256
  9
$CELTSCALE
 40
1.0
  9
$DELOBJ
 70
     1
  9
$DISPSILH
 70
     0
  9
$DIMSCALE
 40
1.0
  9
$DIMASZ
 40
3.0
  9
$DIMEXO
 40
3.0
  9
$DIMDLI
 40
7.0
  9
$DIMRND
 40
0.0
  9
$DIMDLE
 40
0.0
  9
$DIMEXE
 40
1.5
  9
$DIMTP
 40
0.0
  9
$DIMTM
 40
0.0
  9
$DIMTXT
 40
3.0
  9
$DIMCEN
 40
150.0
  9
$DIMTSZ
 40
0.0
  9
$DIMTOL
 70
     0
  9
$DIMLIM
 70
     0
  9
$DIMTIH
 70
     0
  9
$DIMTOH
 70
     0
  9
$DIMSE1
 70
     0
  9
$DIMSE2
 70
     0
  9
$DIMTAD
 70
     3
  9
$DIMZIN
 70
     0
  9
$DIMBLK
  1

  9
$DIMASO
 70
     1
  9
$DIMSHO
 70
     1
  9
$DIMPOST
  1

  9
$DIMAPOST
  1

  9
$DIMALT
 70
     0
  9
$DIMALTD
 70
     2
  9
$DIMALTF
 40
25.4
  9
$DIMLFAC
 40
1.0
  9
$DIMTOFL
 70
     1
  9
$DIMTVP
 40
0.0
  9
$DIMTIX
 70
     0
  9
$DIMSOXD
 70
     0
  9
$DIMSAH
 70
     1
  9
$DIMBLK1
  1
OPEN
  9
$DIMBLK2
  1
OPEN
  9
$DIMSTYLE
  2
STANDARD
  9
$DIMCLRD
 70
   256
  9
$DIMCLRE
 70
   256
  9
$DIMCLRT
 70
   256
  9
$DIMTFAC
 40
1.0
  9
$DIMGAP
 40
1.0
  9
$DIMJUST
 70
     0
  9
$DIMSD1
 70
     0
  9
$DIMSD2
 70
     0
  9
$DIMTOLJ
 70
     1
  9
$DIMTZIN
 70
     0
  9
$DIMALTZ
 70
     0
  9
$DIMALTTZ
 70
     0
  9
$DIMFIT
 70
     3
  9
$DIMUPT
 70
     0
  9
$DIMUNIT
 70
     2
  9
$DIMDEC
 70
     0
  9
$DIMTDEC
 70
     0
  9
$DIMALTU
 70
     2
  9
$DIMALTTD
 70
     2
  9
$DIMTXSTY
  7
STANDARD
  9
$DIMAUNIT
 70
     0
  9
$LUNITS
 70
     2
  9
$LUPREC
 70
     4
  9
$SKETCHINC
 40
1.0
  9
$FILLETRAD
 40
10.0
  9
$AUNITS
 70
     0
  9
$AUPREC
 70
     0
  9
$MENU
  1
.
  9
$ELEVATION
 40
0.0
  9
$PELEVATION
 40
0.0
  9
$THICKNESS
 40
0.0
  9
$LIMCHECK
 70
     0
  9
$BLIPMODE
 70
     0
  9
$CHAMFERA
 40
10.0
  9
$CHAMFERB
 40
10.0
  9
$CHAMFERC
 40
20.0
  9
$CHAMFERD
 40
0.0
  9
$SKPOLY
 70
     0
  9
$TDCREATE
 40
2450994.350997107
  9
$TDUPDATE
 40
2452394.918829965
  9
$TDINDWG
 40
0.0148095602
  9
$TDUSRTIMER
 40
0.0148095602
  9
$USRTIMER
 70
     1
  9
$ANGBASE
 50
0.0
  9
$ANGDIR
 70
     0
  9
$PDMODE
 70
     1
  9
$PDSIZE
 40
0.0
  9
$PLINEWID
 40
0.0
  9
$COORDS
 70
     1
  9
$SPLFRAME
 70
     0
  9
$SPLINETYPE
 70
     6
  9
$SPLINESEGS
 70
     8
  9
$ATTDIA
 70
     0
  9
$ATTREQ
 70
     1
  9
$HANDLING
 70
 10241
  9
$HANDSEED
  5
970
  9
$SURFTAB1
 70
     6
  9
$SURFTAB2
 70
     6
  9
$SURFTYPE
 70
     6
  9
$SURFU
 70
     6
  9
$SURFV
 70
     6
  9
$UCSNAME
  2

  9
$UCSORG
 10
0.0
 20
0.0
 30
0.0
  9
$UCSXDIR
 10
1.0
 20
0.0
 30
0.0
  9
$UCSYDIR
 10
0.0
 20
1.0
 30
0.0
  9
$PUCSNAME
  2

  9
$PUCSORG
 10
0.0
 20
0.0
 30
0.0
  9
$PUCSXDIR
 10
1.0
 20
0.0
 30
0.0
  9
$PUCSYDIR
 10
0.0
 20
1.0
 30
0.0
  9
$USERI1
 70
     0
  9
$USERI2
 70
     0
  9
$USERI3
 70
     0
  9
$USERI4
 70
     0
  9
$USERI5
 70
     0
  9
$USERR1
 40
0.0
  9
$USERR2
 40
0.0
  9
$USERR3
 40
0.0
  9
$USERR4
 40
0.0
  9
$USERR5
 40
0.0
  9
$WORLDVIEW
 70
     1
  9
$SHADEDGE
 70
     3
  9
$SHADEDIF
 70
    70
  9
$TILEMODE
 70
     1
  9
$MAXACTVP
 70
    16
  9
$PINSBASE
 10
0.0
 20
0.0
 30
0.0
  9
$PLIMCHECK
 70
     0
  9
$PEXTMIN
 10
0.0
 20
0.0
 30
0.0
  9
$PEXTMAX
 10
420.0
 20
297.0
 30
0.0
  9
$PLIMMIN
 10
0.0
 20
0.0
  9
$PLIMMAX
 10
420.0
 20
297.0
  9
$UNITMODE
 70
     0
  9
$VISRETAIN
 70
     0
  9
$PLINEGEN
 70
     0
  9
$PSLTSCALE
 70
     1
  9
$TREEDEPTH
 70
  3020
  9
$PICKSTYLE
 70
     1
  9
$CMLSTYLE
  2
STANDARD
  9
$CMLJUST
 70
     0
  9
$CMLSCALE
 40
1.0
  9
$SAVEIMAGES
 70
     1
  0
ENDSEC
  0
SECTION
  2
CLASSES
  0
CLASS
  1
ACDBDICTIONARYWDFLT
  2
AcDbDictionaryWithDefault
  3
AutoCAD 2000
 90
    32768
280
     0
281
     0
  0
CLASS
  1
ACDBPLACEHOLDER
  2
AcDbPlaceHolder
  3
AutoCAD 2000
 90
    32768
280
     0
281
     0
  0
CLASS
  1
LAYOUT
  2
AcDbLayout
  3
AutoCAD 2000
 90
    32768
280
     0
281
     0
  0
CLASS
  1
LONG_TRANSACTION
  2
AcDbLongTransaction
  3
AutoCAD 2000
 90
    32768
280
     0
281
     0
  0
CLASS
  1
LWPOLYLINE
  2
AcDbPolyline
  3
AutoCAD 2000
 90
    32768
280
     0
281
     1
  0
CLASS
  1
HATCH
  2
AcDbHatch
  3
AutoCAD 2000
 90
    32768
280
     0
281
     1
  0
CLASS
  1
XRECORD
  2
AcDbXrecord
  3
AutoCAD 2000
 90
    32768
280
     0
281
     0
  0
CLASS
  1
LONG_TRANSACTION
  2
AcDbLongTransaction
  3
AutoCAD 2000
 90
    32768
280
     0
281
     0
  0
CLASS
  1
LWPOLYLINE
  2
AcDbPolyline
  3
AutoCAD 2000
 90
    32768
280
     0
281
     1
  0
CLASS
  1
HATCH
  2
AcDbHatch
  3
AutoCAD 2000
 90
    32768
280
     0
281
     1
  0
CLASS
  1
XRECORD
  2
AcDbXrecord
  3
AutoCAD 2000
 90
    32768
280
     0
281
     0
  0
CLASS
  1
LONG_TRANSACTION
  2
AcDbLongTransaction
  3
AutoCAD 2000
 90
    32768
280
     0
281
     0
  0
CLASS
  1
LWPOLYLINE
  2
AcDbPolyline
  3
AutoCAD 2000
 90
    32768
280
     0
281
     1
  0
CLASS
  1
HATCH
  2
AcDbHatch
  3
AutoCAD 2000
 90
    32768
280
     0
281
     1
  0
CLASS
  1
XRECORD
  2
AcDbXrecord
  3
AutoCAD 2000
 90
    32768
280
     0
281
     0
  0
ENDSEC
  0
SECTION
  2
TABLES
  0
TABLE
  2
VPORT
  5
8
330
0
100
AcDbSymbolTable
 70
     2
  0
VPORT
  5
96D
330
8
100
AcDbSymbolTableRecord
100
AcDbViewportTableRecord
  2
*ACTIVE
 70
     0
 10
0.0
 20
0.0
 11
1.0
 21
1.0
 12
272.8395832509978
 22
148.5
 13
0.0
 23
0.0
 14
5.0
 24
5.0
 15
0.0
 25
0.0
 16
0.0
 26
0.0
 36
1.0
 17
0.0
 27
0.0
 37
0.0
 40
300.2817679558011
 41
2.169459962756052
 42
50.0
 43
0.0
 44
0.0
 50
0.0
 51
0.0
 71
     0
 72
   100
 73
     1
 74
     0
 75
     0
 76
     0
 77
     0
 78
     0
  0
ENDTAB
  0
TABLE
  2
LTYPE
  5
5
330
0
100
AcDbSymbolTable
 70
     2
  0
LTYPE
  5
14
330
5
100
AcDbSymbolTableRecord
100
AcDbLinetypeTableRecord
  2
BYBLOCK
 70
     0
  3

 72
    65
 73
     0
 40
0.0
  0
LTYPE
  5
15
330
5
100
AcDbSymbolTableRecord
100
AcDbLinetypeTableRecord
  2
BYLAYER
 70
     0
  3

 72
    65
 73
     0
 40
0.0
  0
LTYPE
  5
16
330
5
100
AcDbSymbolTableRecord
100
AcDbLinetypeTableRecord
  2
CONTINUOUS
 70
     0
  3
Solid line
 72
    65
 73
     0
 40
0.0
  0
LTYPE
  5
120
330
5
100
AcDbSymbolTableRecord
100
AcDbLinetypeTableRecord
  2
CENTER
 70
     0
  3
____ _ ____ _ ____ _ ____ _ ____ _ ____ _ ____ 
 72
    65
 73
     4
 40
2.0
 49
1.25
 74
     0
 49
-0.25
 74
     0
 49
0.25
 74
     0
 49
-0.25
 74
     0
  0
ENDTAB
  0
TABLE
  2
LAYER
  5
2
330
0
100
AcDbSymbolTable
 70
     7
  0
LAYER
  5
F
330
2
100
AcDbSymbolTableRecord
100
AcDbLayerTableRecord
  2
0
 70
     0
 62
     7
  6
CONTINUOUS
  0
LAYER
  5
62
330
2
100
AcDbSymbolTableRecord
100
AcDbLayerTableRecord
  2
VIEWPORT
 70
     0
 62
     7
  6
CONTINUOUS
  0
LAYER
  5
6B
330
2
100
AcDbSymbolTableRecord
100
AcDbLayerTableRecord
  2
ZUWAKU
 70
     0
 62
     7
  6
CONTINUOUS
  0
LAYER
  5
1D4
330
2
100
AcDbSymbolTableRecord
100
AcDbLayerTableRecord
  2
SEIHIN
 70
     0
 62
     3
  6
CONTINUOUS
  0
LAYER
  5
1D5
330
2
100
AcDbSymbolTableRecord
100
AcDbLayerTableRecord
  2
SUNPOU
 70
     0
 62
     4
  6
CONTINUOUS
  0
LAYER
  5
1D6
330
2
100
AcDbSymbolTableRecord
100
AcDbLayerTableRecord
  2
CENTER_L
 70
     0
 62
     1
  6
CENTER
  0
LAYER
  5
1D7
330
2
100
AcDbSymbolTableRecord
100
AcDbLayerTableRecord
  2
DEFPOINTS
 70
     0
 62
     7
  6
CONTINUOUS
  0
ENDTAB
  0
TABLE
  2
STYLE
  5
3
330
0
100
AcDbSymbolTable
 70
     1
  0
STYLE
  5
10
330
3
100
AcDbSymbolTableRecord
100
AcDbTextStyleTableRecord
  2
STANDARD
 70
     0
 40
0.0
 41
1.0
 50
0.0
 71
     0
 42
2.5
  3
TXT
  4
bigfont.shx
  0
ENDTAB
  0
TABLE
  2
VIEW
  5
6
330
0
100
AcDbSymbolTable
 70
     0
  0
ENDTAB
  0
TABLE
  2
UCS
  5
7
330
0
100
AcDbSymbolTable
 70
     0
  0
ENDTAB
  0
TABLE
  2
APPID
  5
9
330
0
100
AcDbSymbolTable
 70
     1
  0
APPID
  5
11
330
9
100
AcDbSymbolTableRecord
100
AcDbRegAppTableRecord
  2
ACAD
 70
     0
  0
ENDTAB
  0
TABLE
  2
DIMSTYLE
  5
A
330
0
100
AcDbSymbolTable
 70
     1
  0
DIMSTYLE
105
1D
102
{ACAD_REACTORS
330
666
330
667
330
66E
330
66F
330
674
330
677
330
6B3
330
6BC
330
6C5
330
718
102
}
330
A
100
AcDbSymbolTableRecord
100
AcDbDimStyleTableRecord
  2
STANDARD
 70
     0
  3

  4

  5

  6

  7

 40
1.0
 41
0.18
 42
0.0625
 43
0.38
 44
0.18
 45
0.0
 46
0.0
 47
0.0
 48
0.0
140
0.18
141
0.09
142
0.0
143
25.4
144
1.0
145
0.0
146
1.0
147
0.09
 71
     0
 72
     0
 73
     1
 74
     1
 75
     0
 76
     0
 77
     0
 78
     0
170
     0
171
     2
172
     0
173
     0
174
     0
175
     0
176
     0
177
     0
178
     0
270
     2
271
     4
272
     4
273
     2
274
     2
340
10
275
     0
280
     0
281
     0
282
     0
283
     1
284
     0
285
     0
286
     0
287
     3
288
     0
  0
ENDTAB
  0
TABLE
  2
BLOCK_RECORD
  5
1
330
0
100
AcDbSymbolTable
 70
    11
  0
BLOCK_RECORD
  5
1A
102
{ACAD_XDICTIONARY
360
92B
102
}
330
1
100
AcDbSymbolTableRecord
100
AcDbBlockTableRecord
  2
*MODEL_SPACE
  0
BLOCK_RECORD
  5
17
102
{ACAD_XDICTIONARY
360
929
102
}
330
1
100
AcDbSymbolTableRecord
100
AcDbBlockTableRecord
  2
*PAPER_SPACE
  0
BLOCK_RECORD
  5
B2
330
1
100
AcDbSymbolTableRecord
100
AcDbBlockTableRecord
  2
_OPEN
  0
BLOCK_RECORD
  5
73B
330
1
100
AcDbSymbolTableRecord
100
AcDbBlockTableRecord
  2
*D1
  0
BLOCK_RECORD
  5
747
330
1
100
AcDbSymbolTableRecord
100
AcDbBlockTableRecord
  2
*D2
  0
BLOCK_RECORD
  5
753
330
1
100
AcDbSymbolTableRecord
100
AcDbBlockTableRecord
  2
*D3
  0
BLOCK_RECORD
  5
761
330
1
100
AcDbSymbolTableRecord
100
AcDbBlockTableRecord
  2
*D4
  0
BLOCK_RECORD
  5
76D
330
1
100
AcDbSymbolTableRecord
100
AcDbBlockTableRecord
  2
*D5
  0
BLOCK_RECORD
  5
77B
330
1
100
AcDbSymbolTableRecord
100
AcDbBlockTableRecord
  2
*D6
  0
BLOCK_RECORD
  5
787
330
1
100
AcDbSymbolTableRecord
100
AcDbBlockTableRecord
  2
*D7
  0
BLOCK_RECORD
  5
793
330
1
100
AcDbSymbolTableRecord
100
AcDbBlockTableRecord
  2
*D8
  0
BLOCK_RECORD
  5
79F
330
1
100
AcDbSymbolTableRecord
100
AcDbBlockTableRecord
  2
*D9
  0
BLOCK_RECORD
  5
7AB
330
1
100
AcDbSymbolTableRecord
100
AcDbBlockTableRecord
  2
*D10
  0
ENDTAB
  0
ENDSEC
  0
SECTION
  2
BLOCKS
  0
BLOCK
  5
1B
330
1A
100
AcDbEntity
  8
0
100
AcDbBlockBegin
  2
*MODEL_SPACE
 70
     0
 10
0.0
 20
0.0
 30
0.0
  3
*MODEL_SPACE
  1

  0
ENDBLK
  5
1C
330
1A
100
AcDbEntity
  8
0
100
AcDbBlockEnd
  0
BLOCK
  5
18
330
17
100
AcDbEntity
 67
     1
  8
0
100
AcDbBlockBegin
  2
*PAPER_SPACE
 70
     0
 10
0.0
 20
0.0
 30
0.0
  3
*PAPER_SPACE
  1

  0
ENDBLK
  5
19
330
17
100
AcDbEntity
 67
     1
  8
0
100
AcDbBlockEnd
  0
BLOCK
  5
B3
330
B2
100
AcDbEntity
  8
0
100
AcDbBlockBegin
  2
_OPEN
 70
     0
 10
0.0
 20
0.0
 30
0.0
  3
_OPEN
  1

  0
LINE
  5
B4
330
B2
100
AcDbEntity
  8
0
  6
BYBLOCK
 62
     0
100
AcDbLine
 10
-1.0
 20
0.1666666666666666
 30
0.0
 11
0.0
 21
0.0
 31
0.0
  0
LINE
  5
B5
330
B2
100
AcDbEntity
  8
0
  6
BYBLOCK
 62
     0
100
AcDbLine
 10
0.0
 20
0.0
 30
0.0
 11
-1.0
 21
-0.1666666666666666
 31
0.0
  0
LINE
  5
B6
330
B2
100
AcDbEntity
  8
0
  6
BYBLOCK
 62
     0
100
AcDbLine
 10
0.0
 20
0.0
 30
0.0
 11
-1.0
 21
0.0
 31
0.0
  0
ENDBLK
  5
B7
330
B2
100
AcDbEntity
  8
0
100
AcDbBlockEnd
  0
BLOCK
  5
83F
330
73B
100
AcDbEntity
  8
0
100
AcDbBlockBegin
  2
*D1
 70
     1
 10
0.0
 20
0.0
 30
0.0
  3
*D1
  1

  0
LINE
  5
8A0
330
73B
100
AcDbEntity
  8
SUNPOU
 62
     4
100
AcDbLine
 10
253.2600715187499
 20
176.984802288863
 30
0.0
 11
208.764720326602
 21
176.984802288863
 31
0.0
  0
LINE
  5
8A1
330
73B
100
AcDbEntity
  8
SUNPOU
 62
     4
100
AcDbLine
 10
254.5102666921339
 20
90.28490228886308
 30
0.0
 11
208.764720326602
 21
90.2849022888631
 31
0.0
  0
LINE
  5
8A2
330
73B
100
AcDbEntity
  8
SUNPOU
 62
     4
100
AcDbLine
 10
210.264720326602
 20
173.984802288863
 30
0.0
 11
210.264720326602
 21
93.28490228886309
 31
0.0
  0
INSERT
  5
8A3
330
73B
100
AcDbEntity
  8
SUNPOU
 62
     4
100
AcDbBlockReference
  2
_OPEN
 10
210.264720326602
 20
176.984802288863
 30
0.0
 41
3.0
 42
3.0
 43
3.0
 50
90.0
  0
INSERT
  5
8A4
330
73B
100
AcDbEntity
  8
SUNPOU
 62
     4
100
AcDbBlockReference
  2
_OPEN
 10
210.264720326602
 20
90.2849022888631
 30
0.0
 41
3.0
 42
3.0
 43
3.0
 50
270.0
  0
MTEXT
  5
8A5
330
73B
100
AcDbEntity
  8
SUNPOU
 62
     4
100
AcDbMText
 10
207.7647203266019
 20
133.634852288863
 30
0.0
 40
3.0
 41
0.0
 71
     5
 72
     1
  1
\A1;87
 11
0.0000000000000001
 21
1.0
 31
0.0
1001
ACAD
1000
MTEXTBEGIN
1070
    73
1070
     1
1070
    44
1040
1.0
1070
    74
1070
     0
1000
MTEXTEND
1000
MTEXTBEGIN
1070
    73
1070
     1
1070
    44
1040
1.0
1070
    74
1070
     0
1000
MTEXTEND
1000
MTEXTBEGIN
1070
    73
1070
     1
1070
    44
1040
1.0
1070
    74
1070
     0
1000
MTEXTEND
  0
POINT
  5
8A6
330
73B
100
AcDbEntity
  8
DEFPOINTS
 62
     0
100
AcDbPoint
 10
256.2600715187499
 20
176.984802288863
 30
0.0
  0
POINT
  5
8A7
330
73B
100
AcDbEntity
  8
DEFPOINTS
 62
     0
100
AcDbPoint
 10
257.5102666921338
 20
90.28490228886308
 30
0.0
  0
POINT
  5
8A8
330
73B
100
AcDbEntity
  8
DEFPOINTS
 62
     0
100
AcDbPoint
 10
210.264720326602
 20
90.2849022888631
 30
0.0
  0
ENDBLK
  5
849
330
73B
100
AcDbEntity
  8
0
100
AcDbBlockEnd
  0
BLOCK
  5
84A
330
747
100
AcDbEntity
  8
0
100
AcDbBlockBegin
  2
*D2
 70
     1
 10
0.0
 20
0.0
 30
0.0
  3
*D2
  1

  0
LINE
  5
8A9
330
747
100
AcDbEntity
  8
SUNPOU
 62
     4
100
AcDbLine
 10
253.2600715187499
 20
176.984802288863
 30
0.0
 11
217.5223172723422
 21
176.984802288863
 31
0.0
  0
LINE
  5
8AA
330
747
100
AcDbEntity
  8
SUNPOU
 62
     4
100
AcDbLine
 10
254.5102666921339
 20
101.284802288863
 30
0.0
 11
217.5223172723422
 21
101.284802288863
 31
0.0
  0
LINE
  5
8AB
330
747
100
AcDbEntity
  8
SUNPOU
 62
     4
100
AcDbLine
 10
219.0223172723422
 20
173.984802288863
 30
0.0
 11
219.0223172723422
 21
104.284802288863
 31
0.0
  0
INSERT
  5
8AC
330
747
100
AcDbEntity
  8
SUNPOU
 62
     4
100
AcDbBlockReference
  2
_OPEN
 10
219.0223172723422
 20
176.984802288863
 30
0.0
 41
3.0
 42
3.0
 43
3.0
 50
90.0
  0
INSERT
  5
8AD
330
747
100
AcDbEntity
  8
SUNPOU
 62
     4
100
AcDbBlockReference
  2
_OPEN
 10
219.0223172723422
 20
101.284802288863
 30
0.0
 41
3.0
 42
3.0
 43
3.0
 50
270.0
  0
MTEXT
  5
8AE
330
747
100
AcDbEntity
  8
SUNPOU
 62
     4
100
AcDbMText
 10
216.5223172723422
 20
139.134802288863
 30
0.0
 40
3.0
 41
0.0
 71
     5
 72
     1
  1
\A1;76
 11
0.0000000000000001
 21
1.0
 31
0.0
1001
ACAD
1000
MTEXTBEGIN
1070
    73
1070
     1
1070
    44
1040
1.0
1070
    74
1070
     0
1000
MTEXTEND
1000
MTEXTBEGIN
1070
    73
1070
     1
1070
    44
1040
1.0
1070
    74
1070
     0
1000
MTEXTEND
1000
MTEXTBEGIN
1070
    73
1070
     1
1070
    44
1040
1.0
1070
    74
1070
     0
1000
MTEXTEND
  0
POINT
  5
8AF
330
747
100
AcDbEntity
  8
DEFPOINTS
 62
     0
100
AcDbPoint
 10
256.2600715187499
 20
176.984802288863
 30
0.0
  0
POINT
  5
8B0
330
747
100
AcDbEntity
  8
DEFPOINTS
 62
     0
100
AcDbPoint
 10
257.5102666921338
 20
101.284802288863
 30
0.0
  0
POINT
  5
8B1
330
747
100
AcDbEntity
  8
DEFPOINTS
 62
     0
100
AcDbPoint
 10
219.0223172723422
 20
101.284802288863
 30
0.0
  0
ENDBLK
  5
854
330
747
100
AcDbEntity
  8
0
100
AcDbBlockEnd
  0
BLOCK
  5
855
330
753
100
AcDbEntity
  8
0
100
AcDbBlockBegin
  2
*D3
 70
     1
 10
0.0
 20
0.0
 30
0.0
  3
*D3
  1

  0
LINE
  5
8B2
330
753
100
AcDbEntity
  8
SUNPOU
 62
     4
100
AcDbLine
 10
160.8820229068249
 20
97.28490228886307
 30
0.0
 11
184.2223054817919
 21
97.28490228886307
 31
0.0
  0
LINE
  5
8B3
330
753
100
AcDbEntity
  8
SUNPOU
 62
     4
100
AcDbLine
 10
162.8820229068249
 20
93.28500228886303
 30
0.0
 11
184.2223054817919
 21
93.28500228886303
 31
0.0
  0
LINE
  5
8B4
330
753
100
AcDbEntity
  8
SUNPOU
 62
     4
100
AcDbLine
 10
182.7223054817919
 20
100.284902288863
 30
0.0
 11
182.7223054817919
 21
103.284902288863
 31
0.0
  0
LINE
  5
8B5
330
753
100
AcDbEntity
  8
SUNPOU
 62
     4
100
AcDbLine
 10
182.7223054817919
 20
90.28500228886304
 30
0.0
 11
182.7223054817919
 21
83.28500228886303
 31
0.0
  0
LINE
  5
8B6
330
753
100
AcDbEntity
  8
SUNPOU
 62
     4
100
AcDbLine
 10
182.7223054817919
 20
97.28490228886307
 30
0.0
 11
182.7223054817919
 21
93.28500228886303
 31
0.0
  0
INSERT
  5
8B7
330
753
100
AcDbEntity
  8
SUNPOU
 62
     4
100
AcDbBlockReference
  2
_OPEN
 10
182.7223054817919
 20
97.28490228886307
 30
0.0
 41
3.0
 42
3.0
 43
3.0
 50
270.0
  0
INSERT
  5
8B8
330
753
100
AcDbEntity
  8
SUNPOU
 62
     4
100
AcDbBlockReference
  2
_OPEN
 10
182.7223054817919
 20
93.28500228886303
 30
0.0
 41
3.0
 42
3.0
 43
3.0
 50
90.0
  0
MTEXT
  5
8B9
330
753
100
AcDbEntity
  8
SUNPOU
 62
     4
100
AcDbMText
 10
180.2223054817918
 20
85.28500228886306
 30
0.0
 40
3.0
 41
0.0
 71
     5
 72
     1
  1
\A1;4
 11
0.0000000000000001
 21
1.0
 31
0.0
1001
ACAD
1000
MTEXTBEGIN
1070
    73
1070
     1
1070
    44
1040
1.0
1070
    74
1070
     0
1000
MTEXTEND
1000
MTEXTBEGIN
1070
    73
1070
     1
1070
    44
1040
1.0
1070
    74
1070
     0
1000
MTEXTEND
1000
MTEXTBEGIN
1070
    73
1070
     1
1070
    44
1040
1.0
1070
    74
1070
     0
1000
MTEXTEND
  0
POINT
  5
8BA
330
753
100
AcDbEntity
  8
DEFPOINTS
 62
     0
100
AcDbPoint
 10
157.8820229068249
 20
97.28490228886307
 30
0.0
  0
POINT
  5
8BB
330
753
100
AcDbEntity
  8
DEFPOINTS
 62
     0
100
AcDbPoint
 10
159.8820229068249
 20
93.28500228886305
 30
0.0
  0
POINT
  5
8BC
330
753
100
AcDbEntity
  8
DEFPOINTS
 62
     0
100
AcDbPoint
 10
182.7223054817919
 20
93.28500228886303
 30
0.0
  0
ENDBLK
  5
861
330
753
100
AcDbEntity
  8
0
100
AcDbBlockEnd
  0
BLOCK
  5
829
330
761
100
AcDbEntity
  8
0
100
AcDbBlockBegin
  2
*D4
 70
     1
 10
0.0
 20
0.0
 30
0.0
  3
*D4
  1

  0
LINE
  5
8BD
330
761
100
AcDbEntity
  8
SUNPOU
 62
     4
100
AcDbLine
 10
167.8820229068249
 20
87.28490228886307
 30
0.0
 11
167.8820229068249
 21
64.05276345402502
 31
0.0
  0
LINE
  5
8BE
330
761
100
AcDbEntity
  8
SUNPOU
 62
     4
100
AcDbLine
 10
123.0577989068249
 20
92.78490228906811
 30
0.0
 11
123.0577989068249
 21
64.05276345402502
 31
0.0
  0
LINE
  5
8BF
330
761
100
AcDbEntity
  8
SUNPOU
 62
     4
100
AcDbLine
 10
164.8820229068249
 20
65.55276345402503
 30
0.0
 11
126.0577989068248
 21
65.55276345402503
 31
0.0
  0
INSERT
  5
8C0
330
761
100
AcDbEntity
  8
SUNPOU
 62
     4
100
AcDbBlockReference
  2
_OPEN
 10
167.8820229068249
 20
65.55276345402503
 30
0.0
 41
3.0
 42
3.0
 43
3.0
  0
INSERT
  5
8C1
330
761
100
AcDbEntity
  8
SUNPOU
 62
     4
100
AcDbBlockReference
  2
_OPEN
 10
123.0577989068249
 20
65.55276345402503
 30
0.0
 41
3.0
 42
3.0
 43
3.0
 50
180.0
  0
MTEXT
  5
8C2
330
761
100
AcDbEntity
  8
SUNPOU
 62
     4
100
AcDbMText
 10
145.4699109068249
 20
68.05276345402503
 30
0.0
 40
3.0
 41
0.0
 71
     5
 72
     1
  1
\A1;45
1001
ACAD
1000
MTEXTBEGIN
1070
    73
1070
     1
1070
    44
1040
1.0
1070
    74
1070
     0
1000
MTEXTEND
1000
MTEXTBEGIN
1070
    73
1070
     1
1070
    44
1040
1.0
1070
    74
1070
     0
1000
MTEXTEND
1000
MTEXTBEGIN
1070
    73
1070
     1
1070
    44
1040
1.0
1070
    74
1070
     0
1000
MTEXTEND
  0
POINT
  5
8C3
330
761
100
AcDbEntity
  8
DEFPOINTS
 62
     0
100
AcDbPoint
 10
167.8820229068249
 20
90.28490228886308
 30
0.0
  0
POINT
  5
8C4
330
761
100
AcDbEntity
  8
DEFPOINTS
 62
     0
100
AcDbPoint
 10
123.0577989068249
 20
95.78490228906812
 30
0.0
  0
POINT
  5
8C5
330
761
100
AcDbEntity
  8
DEFPOINTS
 62
     0
100
AcDbPoint
 10
123.0577989068249
 20
65.55276345402503
 30
0.0
  0
ENDBLK
  5
833
330
761
100
AcDbEntity
  8
0
100
AcDbBlockEnd
  0
BLOCK
  5
7E5
330
76D
100
AcDbEntity
  8
0
100
AcDbBlockBegin
  2
*D5
 70
     1
 10
0.0
 20
0.0
 30
0.0
  3
*D5
  1

  0
LINE
  5
8C6
330
76D
100
AcDbEntity
  8
SUNPOU
 62
     4
100
AcDbLine
 10
131.343224987124
 20
91.32765558118144
 30
0.0
 11
132.5477396766398
 21
91.32765558118144
 31
0.0
  0
LINE
  5
8C7
330
76D
100
AcDbEntity
  8
SUNPOU
 62
     4
100
AcDbLine
 10
131.1032229068249
 20
90.28480228886305
 30
0.0
 11
132.5477396766398
 21
90.28480228886305
 31
0.0
  0
LINE
  5
8C8
330
76D
100
AcDbEntity
  8
SUNPOU
 62
     4
100
AcDbLine
 10
131.0477396766398
 20
94.32765558118145
 30
0.0
 11
131.0477396766398
 21
97.32765558118146
 31
0.0
  0
LINE
  5
8C9
330
76D
100
AcDbEntity
  8
SUNPOU
 62
     4
100
AcDbLine
 10
131.0477396766398
 20
87.28480228886304
 30
0.0
 11
131.0477396766398
 21
74.78480228886304
 31
0.0
  0
LINE
  5
8CA
330
76D
100
AcDbEntity
  8
SUNPOU
 62
     4
100
AcDbLine
 10
131.0477396766398
 20
91.32765558118144
 30
0.0
 11
131.0477396766398
 21
90.28480228886305
 31
0.0
  0
INSERT
  5
8CB
330
76D
100
AcDbEntity
  8
SUNPOU
 62
     4
100
AcDbBlockReference
  2
_OPEN
 10
131.0477396766398
 20
91.32765558118144
 30
0.0
 41
3.0
 42
3.0
 43
3.0
 50
270.0
  0
INSERT
  5
8CC
330
76D
100
AcDbEntity
  8
SUNPOU
 62
     4
100
AcDbBlockReference
  2
_OPEN
 10
131.0477396766398
 20
90.28480228886305
 30
0.0
 41
3.0
 42
3.0
 43
3.0
 50
90.0
  0
MTEXT
  5
8CD
330
76D
100
AcDbEntity
  8
SUNPOU
 62
     4
100
AcDbMText
 10
128.5477396766398
 20
79.53480228886306
 30
0.0
 40
3.0
 41
0.0
 71
     5
 72
     1
  1
\A1;t1.0
 11
0.0000000000000001
 21
1.0
 31
0.0
1001
ACAD
1000
MTEXTBEGIN
1070
    73
1070
     1
1070
    44
1040
1.0
1070
    74
1070
     0
1000
MTEXTEND
1000
MTEXTBEGIN
1070
    73
1070
     1
1070
    44
1040
1.0
1070
    74
1070
     0
1000
MTEXTEND
1000
MTEXTBEGIN
1070
    73
1070
     1
1070
    44
1040
1.0
1070
    74
1070
     0
1000
MTEXTEND
  0
POINT
  5
8CE
330
76D
100
AcDbEntity
  8
DEFPOINTS
 62
     0
100
AcDbPoint
 10
128.343224987124
 20
91.32765558118144
 30
0.0
  0
POINT
  5
8CF
330
76D
100
AcDbEntity
  8
DEFPOINTS
 62
     0
100
AcDbPoint
 10
128.1032229068248
 20
90.28480228886305
 30
0.0
  0
POINT
  5
8D0
330
76D
100
AcDbEntity
  8
DEFPOINTS
 62
     0
100
AcDbPoint
 10
131.0477396766398
 20
90.28480228886305
 30
0.0
  0
ENDBLK
  5
7F1
330
76D
100
AcDbEntity
  8
0
100
AcDbBlockEnd
  0
BLOCK
  5
862
330
77B
100
AcDbEntity
  8
0
100
AcDbBlockBegin
  2
*D6
 70
     1
 10
0.0
 20
0.0
 30
0.0
  3
*D6
  1

  0
LINE
  5
8D1
330
77B
100
AcDbEntity
  8
SUNPOU
 62
     4
100
AcDbLine
 10
127.4926229068249
 20
101.284852288863
 30
0.0
 11
112.352327154453
 21
101.284852288863
 31
0.0
  0
LINE
  5
8D2
330
77B
100
AcDbEntity
  8
SUNPOU
 62
     4
100
AcDbLine
 10
125.1032229068248
 20
90.28480228886305
 30
0.0
 11
112.352327154453
 21
90.28480228886305
 31
0.0
  0
LINE
  5
8D3
330
77B
100
AcDbEntity
  8
SUNPOU
 62
     4
100
AcDbLine
 10
113.852327154453
 20
98.28485228886307
 30
0.0
 11
113.852327154453
 21
93.28480228886304
 31
0.0
  0
INSERT
  5
8D4
330
77B
100
AcDbEntity
  8
SUNPOU
 62
     4
100
AcDbBlockReference
  2
_OPEN
 10
113.852327154453
 20
101.284852288863
 30
0.0
 41
3.0
 42
3.0
 43
3.0
 50
90.0
  0
INSERT
  5
8D5
330
77B
100
AcDbEntity
  8
SUNPOU
 62
     4
100
AcDbBlockReference
  2
_OPEN
 10
113.852327154453
 20
90.28480228886305
 30
0.0
 41
3.0
 42
3.0
 43
3.0
 50
270.0
  0
MTEXT
  5
8D6
330
77B
100
AcDbEntity
  8
SUNPOU
 62
     4
100
AcDbMText
 10
111.352327154453
 20
95.78482728886308
 30
0.0
 40
3.0
 41
0.0
 71
     5
 72
     1
  1
\A1;11
 11
0.0000000000000001
 21
1.0
 31
0.0
1001
ACAD
1000
MTEXTBEGIN
1070
    73
1070
     1
1070
    44
1040
1.0
1070
    74
1070
     0
1000
MTEXTEND
1000
MTEXTBEGIN
1070
    73
1070
     1
1070
    44
1040
1.0
1070
    74
1070
     0
1000
MTEXTEND
1000
MTEXTBEGIN
1070
    73
1070
     1
1070
    44
1040
1.0
1070
    74
1070
     0
1000
MTEXTEND
  0
POINT
  5
8D7
330
77B
100
AcDbEntity
  8
DEFPOINTS
 62
     0
100
AcDbPoint
 10
130.4926229068249
 20
101.284852288863
 30
0.0
  0
POINT
  5
8D8
330
77B
100
AcDbEntity
  8
DEFPOINTS
 62
     0
100
AcDbPoint
 10
128.1032229068248
 20
90.28480228886305
 30
0.0
  0
POINT
  5
8D9
330
77B
100
AcDbEntity
  8
DEFPOINTS
 62
     0
100
AcDbPoint
 10
113.852327154453
 20
90.28480228886305
 30
0.0
  0
ENDBLK
  5
86C
330
77B
100
AcDbEntity
  8
0
100
AcDbBlockEnd
  0
BLOCK
  5
86D
330
787
100
AcDbEntity
  8
0
100
AcDbBlockBegin
  2
*D7
 70
     1
 10
0.0
 20
0.0
 30
0.0
  3
*D7
  1

  0
LINE
  5
8DA
330
787
100
AcDbEntity
  8
SUNPOU
 62
     4
100
AcDbLine
 10
156.8820197537252
 20
178.985002288863
 30
0.0
 11
156.8820197537252
 21
192.8071845221146
 31
0.0
  0
LINE
  5
8DB
330
787
100
AcDbEntity
  8
SUNPOU
 62
     4
100
AcDbLine
 10
138.8820197537252
 20
178.985002288863
 30
0.0
 11
138.8820197537252
 21
192.8071845221146
 31
0.0
  0
LINE
  5
8DC
330
787
100
AcDbEntity
  8
SUNPOU
 62
     4
100
AcDbLine
 10
153.8820197537252
 20
191.3071845221146
 30
0.0
 11
141.8820197537252
 21
191.3071845221146
 31
0.0
  0
INSERT
  5
8DD
330
787
100
AcDbEntity
  8
SUNPOU
 62
     4
100
AcDbBlockReference
  2
_OPEN
 10
156.8820197537252
 20
191.3071845221146
 30
0.0
 41
3.0
 42
3.0
 43
3.0
  0
INSERT
  5
8DE
330
787
100
AcDbEntity
  8
SUNPOU
 62
     4
100
AcDbBlockReference
  2
_OPEN
 10
138.8820197537252
 20
191.3071845221146
 30
0.0
 41
3.0
 42
3.0
 43
3.0
 50
180.0
  0
MTEXT
  5
8DF
330
787
100
AcDbEntity
  8
SUNPOU
 62
     4
100
AcDbMText
 10
147.8820197537252
 20
193.8071845221146
 30
0.0
 40
3.0
 41
0.0
 71
     5
 72
     1
  1
\A1;18
1001
ACAD
1000
MTEXTBEGIN
1070
    73
1070
     1
1070
    44
1040
1.0
1070
    74
1070
     0
1000
MTEXTEND
1000
MTEXTBEGIN
1070
    73
1070
     1
1070
    44
1040
1.0
1070
    74
1070
     0
1000
MTEXTEND
1000
MTEXTBEGIN
1070
    73
1070
     1
1070
    44
1040
1.0
1070
    74
1070
     0
1000
MTEXTEND
  0
POINT
  5
8E0
330
787
100
AcDbEntity
  8
DEFPOINTS
 62
     0
100
AcDbPoint
 10
156.8820197537252
 20
175.985002288863
 30
0.0
  0
POINT
  5
8E1
330
787
100
AcDbEntity
  8
DEFPOINTS
 62
     0
100
AcDbPoint
 10
138.8820197537252
 20
175.985002288863
 30
0.0
  0
POINT
  5
8E2
330
787
100
AcDbEntity
  8
DEFPOINTS
 62
     0
100
AcDbPoint
 10
138.8820197537252
 20
191.3071845221146
 30
0.0
  0
ENDBLK
  5
877
330
787
100
AcDbEntity
  8
0
100
AcDbBlockEnd
  0
BLOCK
  5
878
330
793
100
AcDbEntity
  8
0
100
AcDbBlockBegin
  2
*D8
 70
     1
 10
0.0
 20
0.0
 30
0.0
  3
*D8
  1

  0
LINE
  5
8E3
330
793
100
AcDbEntity
  8
SUNPOU
 62
     4
100
AcDbLine
 10
318.3601715187499
 20
132.984902288863
 30
0.0
 11
318.3601715187499
 21
203.138836475684
 31
0.0
  0
LINE
  5
8E4
330
793
100
AcDbEntity
  8
SUNPOU
 62
     4
100
AcDbLine
 10
236.6602515187499
 20
129.984702288863
 30
0.0
 11
236.6602515187499
 21
203.138836475684
 31
0.0
  0
LINE
  5
8E5
330
793
100
AcDbEntity
  8
SUNPOU
 62
     4
100
AcDbLine
 10
315.3601715187499
 20
201.6388364756839
 30
0.0
 11
239.6602515187499
 21
201.6388364756839
 31
0.0
  0
INSERT
  5
8E6
330
793
100
AcDbEntity
  8
SUNPOU
 62
     4
100
AcDbBlockReference
  2
_OPEN
 10
318.3601715187499
 20
201.6388364756839
 30
0.0
 41
3.0
 42
3.0
 43
3.0
  0
INSERT
  5
8E7
330
793
100
AcDbEntity
  8
SUNPOU
 62
     4
100
AcDbBlockReference
  2
_OPEN
 10
236.6602515187499
 20
201.6388364756839
 30
0.0
 41
3.0
 42
3.0
 43
3.0
 50
180.0
  0
MTEXT
  5
8E8
330
793
100
AcDbEntity
  8
SUNPOU
 62
     4
100
AcDbMText
 10
277.5102115187499
 20
204.138836475684
 30
0.0
 40
3.0
 41
0.0
 71
     5
 72
     1
  1
\A1;82
1001
ACAD
1000
MTEXTBEGIN
1070
    73
1070
     1
1070
    44
1040
1.0
1070
    74
1070
     0
1000
MTEXTEND
1000
MTEXTBEGIN
1070
    73
1070
     1
1070
    44
1040
1.0
1070
    74
1070
     0
1000
MTEXTEND
1000
MTEXTBEGIN
1070
    73
1070
     1
1070
    44
1040
1.0
1070
    74
1070
     0
1000
MTEXTEND
  0
POINT
  5
8E9
330
793
100
AcDbEntity
  8
DEFPOINTS
 62
     0
100
AcDbPoint
 10
318.3601715187499
 20
129.984902288863
 30
0.0
  0
POINT
  5
8EA
330
793
100
AcDbEntity
  8
DEFPOINTS
 62
     0
100
AcDbPoint
 10
236.6602515187499
 20
126.984702288863
 30
0.0
  0
POINT
  5
8EB
330
793
100
AcDbEntity
  8
DEFPOINTS
 62
     0
100
AcDbPoint
 10
236.6602515187499
 20
201.6388364756839
 30
0.0
  0
ENDBLK
  5
882
330
793
100
AcDbEntity
  8
0
100
AcDbBlockEnd
  0
BLOCK
  5
834
330
79F
100
AcDbEntity
  8
0
100
AcDbBlockBegin
  2
*D9
 70
     1
 10
0.0
 20
0.0
 30
0.0
  3
*D9
  1

  0
LINE
  5
8EC
330
79F
100
AcDbEntity
  8
SUNPOU
 62
     4
100
AcDbLine
 10
257.5102666921338
 20
87.28490228886307
 30
0.0
 11
257.5102666921338
 21
64.31326692951292
 31
0.0
  0
LINE
  5
8ED
330
79F
100
AcDbEntity
  8
SUNPOU
 62
     4
100
AcDbLine
 10
297.5102666921339
 20
87.28490228886307
 30
0.0
 11
297.5102666921339
 21
64.31326692951292
 31
0.0
  0
LINE
  5
8EE
330
79F
100
AcDbEntity
  8
SUNPOU
 62
     4
100
AcDbLine
 10
260.5102666921339
 20
65.81326692951292
 30
0.0
 11
294.5102666921339
 21
65.81326692951292
 31
0.0
  0
INSERT
  5
8EF
330
79F
100
AcDbEntity
  8
SUNPOU
 62
     4
100
AcDbBlockReference
  2
_OPEN
 10
257.5102666921338
 20
65.81326692951292
 30
0.0
 41
3.0
 42
3.0
 43
3.0
 50
180.0
  0
INSERT
  5
8F0
330
79F
100
AcDbEntity
  8
SUNPOU
 62
     4
100
AcDbBlockReference
  2
_OPEN
 10
297.5102666921339
 20
65.81326692951292
 30
0.0
 41
3.0
 42
3.0
 43
3.0
  0
MTEXT
  5
8F1
330
79F
100
AcDbEntity
  8
SUNPOU
 62
     4
100
AcDbMText
 10
277.5102666921339
 20
68.31326692951292
 30
0.0
 40
3.0
 41
0.0
 71
     5
 72
     1
  1
\A1;40
1001
ACAD
1000
MTEXTBEGIN
1070
    73
1070
     1
1070
    44
1040
1.0
1070
    74
1070
     0
1000
MTEXTEND
1000
MTEXTBEGIN
1070
    73
1070
     1
1070
    44
1040
1.0
1070
    74
1070
     0
1000
MTEXTEND
1000
MTEXTBEGIN
1070
    73
1070
     1
1070
    44
1040
1.0
1070
    74
1070
     0
1000
MTEXTEND
  0
POINT
  5
8F2
330
79F
100
AcDbEntity
  8
DEFPOINTS
 62
     0
100
AcDbPoint
 10
257.5102666921338
 20
90.28490228886308
 30
0.0
  0
POINT
  5
8F3
330
79F
100
AcDbEntity
  8
DEFPOINTS
 62
     0
100
AcDbPoint
 10
297.5102666921339
 20
90.28490228886308
 30
0.0
  0
POINT
  5
8F4
330
79F
100
AcDbEntity
  8
DEFPOINTS
 62
     0
100
AcDbPoint
 10
297.5102666921339
 20
65.81326692951292
 30
0.0
  0
ENDBLK
  5
83E
330
79F
100
AcDbEntity
  8
0
100
AcDbBlockEnd
  0
BLOCK
  5
883
330
7AB
100
AcDbEntity
  8
0
100
AcDbBlockBegin
  2
*D10
 70
     1
 10
0.0
 20
0.0
 30
0.0
  3
*D10
  1

  0
LINE
  5
8F5
330
7AB
100
AcDbEntity
  8
SUNPOU
 62
     4
100
AcDbLine
 10
310.8600715187499
 20
167.884902288863
 30
0.0
 11
310.8600715187499
 21
193.3071845221146
 31
0.0
  0
LINE
  5
8F6
330
7AB
100
AcDbEntity
  8
SUNPOU
 62
     4
100
AcDbLine
 10
244.1602715187499
 20
167.884802288863
 30
0.0
 11
244.1602715187499
 21
193.3071845221146
 31
0.0
  0
LINE
  5
8F7
330
7AB
100
AcDbEntity
  8
SUNPOU
 62
     4
100
AcDbLine
 10
307.8600715187499
 20
191.8071845221146
 30
0.0
 11
247.1602715187499
 21
191.8071845221146
 31
0.0
  0
INSERT
  5
8F8
330
7AB
100
AcDbEntity
  8
SUNPOU
 62
     4
100
AcDbBlockReference
  2
_OPEN
 10
310.8600715187499
 20
191.8071845221146
 30
0.0
 41
3.0
 42
3.0
 43
3.0
  0
INSERT
  5
8F9
330
7AB
100
AcDbEntity
  8
SUNPOU
 62
     4
100
AcDbBlockReference
  2
_OPEN
 10
244.1602715187499
 20
191.8071845221146
 30
0.0
 41
3.0
 42
3.0
 43
3.0
 50
180.0
  0
MTEXT
  5
8FA
330
7AB
100
AcDbEntity
  8
SUNPOU
 62
     4
100
AcDbMText
 10
277.5101715187499
 20
194.3071845221146
 30
0.0
 40
3.0
 41
0.0
 71
     5
 72
     1
  1
\A1;67
1001
ACAD
1000
MTEXTBEGIN
1070
    73
1070
     1
1070
    44
1040
1.0
1070
    74
1070
     0
1000
MTEXTEND
1000
MTEXTBEGIN
1070
    73
1070
     1
1070
    44
1040
1.0
1070
    74
1070
     0
1000
MTEXTEND
1000
MTEXTBEGIN
1070
    73
1070
     1
1070
    44
1040
1.0
1070
    74
1070
     0
1000
MTEXTEND
  0
POINT
  5
8FB
330
7AB
100
AcDbEntity
  8
DEFPOINTS
 62
     0
100
AcDbPoint
 10
310.8600715187499
 20
164.884902288863
 30
0.0
  0
POINT
  5
8FC
330
7AB
100
AcDbEntity
  8
DEFPOINTS
 62
     0
100
AcDbPoint
 10
244.1602715187499
 20
164.884802288863
 30
0.0
  0
POINT
  5
8FD
330
7AB
100
AcDbEntity
  8
DEFPOINTS
 62
     0
100
AcDbPoint
 10
244.1602715187499
 20
191.8071845221146
 30
0.0
  0
ENDBLK
  5
88D
330
7AB
100
AcDbEntity
  8
0
100
AcDbBlockEnd
  0
ENDSEC
  0
SECTION
  2
ENTITIES
  0
LINE
  5
6C
330
1A
100
AcDbEntity
  8
ZUWAKU
  6
CONTINUOUS
 62
     7
100
AcDbLine
 10
403.0
 20
7.0
 30
0.0
 11
5.0
 21
7.0
 31
0.0
  0
LINE
  5
6D
330
1A
100
AcDbEntity
  8
ZUWAKU
  6
CONTINUOUS
 62
     7
100
AcDbLine
 10
5.0
 20
282.0
 30
0.0
 11
5.0
 21
7.0
 31
0.0
  0
LINE
  5
6E
330
1A
100
AcDbEntity
  8
ZUWAKU
  6
CONTINUOUS
 62
     7
100
AcDbLine
 10
403.0
 20
282.0
 30
0.0
 11
403.0
 21
7.0
 31
0.0
  0
LINE
  5
6F
330
1A
100
AcDbEntity
  8
ZUWAKU
  6
CONTINUOUS
 62
     7
100
AcDbLine
 10
403.0
 20
282.0
 30
0.0
 11
5.0
 21
282.0
 31
0.0
  0
LINE
  5
8E
330
1A
100
AcDbEntity
  8
ZUWAKU
 62
     7
 48
10.0
100
AcDbLine
 10
5.0
 20
13.0
 30
0.0
 11
403.0
 21
12.99999999999994
 31
0.0
  0
TEXT
  5
92
330
1A
100
AcDbEntity
  8
ZUWAKU
 62
     7
100
AcDbText
 10
25.15073007242387
 20
8.160237806787449
 30
0.0
 40
4.0
  1
ライナートップ　たてとい
100
AcDbText
  0
TEXT
  5
93
330
1A
100
AcDbEntity
  8
ZUWAKU
 62
     7
100
AcDbText
 10
8.003143713074223
 20
7.870178177610682
 30
0.0
 40
4.0
  1
品 種
100
AcDbText
  0
TEXT
  5
97
330
1A
100
AcDbEntity
  8
ZUWAKU
 62
     7
100
AcDbText
 10
107.7028028167073
 20
8.200497435100942
 30
0.0
 40
4.0
  1
品名・ｻ ｲ ｽﾞ
100
AcDbText
  0
TEXT
  5
99
330
1A
100
AcDbEntity
  8
ZUWAKU
 62
     7
100
AcDbText
 10
141.1313324528735
 20
7.9299153608506
 30
0.0
 40
4.0
  1
はいといデンデン　Ｙ６０
100
AcDbText
  0
LINE
  5
9A
330
1A
100
AcDbEntity
  8
ZUWAKU
 62
     7
 48
10.0
100
AcDbLine
 10
324.3551403257206
 20
6.999999999999836
 30
0.0
 11
324.3551403257206
 21
12.99999999999995
 31
0.0
  0
LINE
  5
9B
330
1A
100
AcDbEntity
  8
ZUWAKU
 62
     7
 48
10.0
100
AcDbLine
 10
307.142312366876
 20
6.999999999999836
 30
0.0
 11
307.142312366876
 21
12.99999999999995
 31
0.0
  0
TEXT
  5
9C
330
1A
100
AcDbEntity
  8
ZUWAKU
 62
     7
100
AcDbText
 10
310.1429253763237
 20
7.934661405801826
 30
0.0
 40
4.0
  1
品 番
100
AcDbText
  0
TEXT
  5
9D
330
1A
100
AcDbEntity
  8
ZUWAKU
 62
     7
100
AcDbText
 10
327.1013476411085
 20
8.060146781246267
 30
0.0
 40
4.0
  1
ＬＨ８７
100
AcDbText
  0
TEXT
  5
9E
330
1A
100
AcDbEntity
  8
ZUWAKU
 62
     7
 48
10.0
100
AcDbText
 10
322.9513761015196
 20
2.449000558492457
 30
0.0
 40
4.0
  1
積水化学工業株式会社  建材
100
AcDbText
  0
TEXT
  5
A1
330
1A
100
AcDbEntity
  8
ZUWAKU
 62
     7
100
AcDbText
 10
389.843492473331
 20
7.886151458996323
 30
0.0
 40
4.0
  1
1/1
100
AcDbText
  0
TEXT
  5
A2
330
1A
100
AcDbEntity
  8
ZUWAKU
 62
     7
100
AcDbText
 10
369.8225424558458
 20
7.729845637642938
 30
0.0
 40
4.0
  1
尺 度
100
AcDbText
  0
LINE
  5
A3
330
1A
100
AcDbEntity
  8
ZUWAKU
 62
     7
 48
10.0
100
AcDbLine
 10
366.8807110760169
 20
6.999999999999886
 30
0.0
 11
366.8807110760169
 21
12.99999999999994
 31
0.0
  0
TEXT
  5
A6
330
1A
100
AcDbEntity
  8
ZUWAKU
 62
     7
 48
10.0
100
AcDbText
 10
396.1622424237184
 20
2.480970960763784
 30
0.0
 40
4.0
  1
A3
100
AcDbText
  0
LINE
  5
F5
330
1A
100
AcDbEntity
  8
ZUWAKU
 62
     7
 48
10.0
100
AcDbLine
 10
22.25374857290876
 20
7.0
 30
0.0
 11
22.25374857290876
 21
13.0
 31
0.0
  0
LINE
  5
F6
330
1A
100
AcDbEntity
  8
ZUWAKU
 62
     7
 48
10.0
100
AcDbLine
 10
104.7316872784438
 20
7.0
 30
0.0
 11
104.7316872784438
 21
12.99999999999998
 31
0.0
  0
LINE
  5
F8
330
1A
100
AcDbEntity
  8
ZUWAKU
 62
     7
 48
10.0
100
AcDbLine
 10
138.0261803105822
 20
7.0
 30
0.0
 11
138.0261803105822
 21
12.99999999999998
 31
0.0
  0
LINE
  5
100
330
1A
100
AcDbEntity
  8
ZUWAKU
 62
     7
 48
10.0
100
AcDbLine
 10
384.3363149538092
 20
6.999999999999862
 30
0.0
 11
384.3363149538092
 21
12.99999999999994
 31
0.0
  0
POINT
  5
30F
330
1A
100
AcDbEntity
  8
SUNPOU
  6
BYBLOCK
 62
     4
 48
5.0
100
AcDbPoint
 10
129.5319472838431
 20
230.0211815135477
 30
0.0
  0
DIMENSION
  5
666
330
1A
100
AcDbEntity
  8
SUNPOU
100
AcDbDimension
  2
*D1
 10
210.264720326602
 20
90.2849022888631
 30
0.0
 11
207.7647203266019
 21
133.634852288863
 31
0.0
 70
    32
  3
STANDARD
100
AcDbAlignedDimension
 13
256.2600715187499
 23
176.984802288863
 33
0.0
 14
257.5102666921338
 24
90.28490228886308
 34
0.0
 50
90.0
100
AcDbRotatedDimension
1001
ACAD
1000
DSTYLE
1002
{
1070
   140
1040
3.0
1070
    74
1070
     0
1070
   172
1070
     1
1070
    73
1070
     0
1070
   272
1070
     2
1070
    77
1070
     3
1070
   173
1070
     1
1070
   147
1040
1.0
1070
    42
1040
3.0
1070
    44
1040
1.5
1070
    43
1040
7.0
1070
   271
1070
     0
1070
   178
1070
     4
1070
   177
1070
     4
1070
   176
1070
     4
1070
   141
1040
150.0
1070
     7
1000
_OPEN
1070
     6
1000
_OPEN
1070
    41
1040
3.0
1002
}
  0
DIMENSION
  5
667
330
1A
100
AcDbEntity
  8
SUNPOU
100
AcDbDimension
  2
*D2
 10
219.0223172723422
 20
101.284802288863
 30
0.0
 11
216.5223172723422
 21
139.134802288863
 31
0.0
 70
    32
  3
STANDARD
100
AcDbAlignedDimension
 13
256.2600715187499
 23
176.984802288863
 33
0.0
 14
257.5102666921338
 24
101.284802288863
 34
0.0
 50
90.0
100
AcDbRotatedDimension
1001
ACAD
1000
DSTYLE
1002
{
1070
   140
1040
3.0
1070
    74
1070
     0
1070
   172
1070
     1
1070
    73
1070
     0
1070
   272
1070
     2
1070
    77
1070
     3
1070
   173
1070
     1
1070
   147
1040
1.0
1070
    42
1040
3.0
1070
    44
1040
1.5
1070
    43
1040
7.0
1070
   271
1070
     0
1070
   178
1070
     4
1070
   177
1070
     4
1070
   176
1070
     4
1070
   141
1040
150.0
1070
     7
1000
_OPEN
1070
     6
1000
_OPEN
1070
    41
1040
3.0
1002
}
  0
LINE
  5
668
330
1A
100
AcDbEntity
  8
CENTER_L
  6
CENTER
 62
     1
 48
5.0
100
AcDbLine
 10
229.6884295012541
 20
126.984702288863
 30
0.0
 11
253.6321135362461
 21
126.984702288863
 31
0.0
  0
LINE
  5
669
330
1A
100
AcDbEntity
  8
SEIHIN
  6
CONTINUOUS
 62
     3
100
AcDbLine
 10
138.8820197537252
 20
101.284902288863
 30
0.0
 11
138.8820197537252
 21
175.985002288863
 31
0.0
  0
LINE
  5
66A
330
1A
100
AcDbEntity
  8
SEIHIN
  6
CONTINUOUS
 62
     3
100
AcDbLine
 10
156.8820197537252
 20
101.284902288863
 30
0.0
 11
156.8820197537252
 21
175.985002288863
 31
0.0
  0
LINE
  5
66B
330
1A
100
AcDbEntity
  8
SEIHIN
  6
CONTINUOUS
 62
     3
100
AcDbLine
 10
141.3820197537252
 20
134.9847022888631
 30
0.0
 11
141.3820197537252
 21
176.985002288863
 31
0.0
  0
LINE
  5
66C
330
1A
100
AcDbEntity
  8
SEIHIN
  6
CONTINUOUS
 62
     3
100
AcDbLine
 10
154.3820197537252
 20
134.9847022888631
 30
0.0
 11
154.3820197537252
 21
176.985002288863
 31
0.0
  0
LINE
  5
66D
330
1A
100
AcDbEntity
  8
CENTER_L
  6
CENTER
 62
     1
 48
5.0
100
AcDbLine
 10
147.8820229068249
 20
183.985002288863
 30
0.0
 11
147.8820229068249
 21
95.6492791186462
 31
0.0
  0
DIMENSION
  5
66E
330
1A
100
AcDbEntity
  8
SUNPOU
100
AcDbDimension
  2
*D3
 10
182.7223054817919
 20
93.28500228886303
 30
0.0
 11
180.2223054817918
 21
85.28500228886306
 31
0.0
 70
    32
  3
STANDARD
100
AcDbAlignedDimension
 13
157.8820229068249
 23
97.28490228886307
 33
0.0
 14
159.8820229068249
 24
93.28500228886305
 34
0.0
 50
90.0
100
AcDbRotatedDimension
1001
ACAD
1000
DSTYLE
1002
{
1070
   140
1040
3.0
1070
    74
1070
     0
1070
   172
1070
     1
1070
    73
1070
     0
1070
   272
1070
     2
1070
    77
1070
     3
1070
   173
1070
     1
1070
   147
1040
1.0
1070
    42
1040
3.0
1070
    44
1040
1.5
1070
    43
1040
7.0
1070
   271
1070
     0
1070
   178
1070
     4
1070
   177
1070
     4
1070
   176
1070
     4
1070
   141
1040
150.0
1070
     7
1000
_OPEN
1070
     6
1000
_OPEN
1070
    41
1040
3.0
1002
}
  0
DIMENSION
  5
66F
330
1A
100
AcDbEntity
  8
SUNPOU
100
AcDbDimension
  2
*D4
 10
123.0577989068249
 20
65.55276345402503
 30
0.0
 11
145.4699109068249
 21
68.05276345402503
 31
0.0
 70
    32
  3
STANDARD
100
AcDbAlignedDimension
 13
167.8820229068249
 23
90.28490228886308
 33
0.0
 14
123.0577989068249
 24
95.78490228906812
 34
0.0
100
AcDbRotatedDimension
1001
ACAD
1000
DSTYLE
1002
{
1070
   140
1040
3.0
1070
    74
1070
     0
1070
   172
1070
     1
1070
    73
1070
     0
1070
   272
1070
     2
1070
    77
1070
     3
1070
   173
1070
     1
1070
   147
1040
1.0
1070
    42
1040
3.0
1070
    44
1040
1.5
1070
    43
1040
7.0
1070
   271
1070
     0
1070
   178
1070
     4
1070
   177
1070
     4
1070
   176
1070
     4
1070
   141
1040
150.0
1070
     7
1000
_OPEN
1070
     6
1000
_OPEN
1070
    41
1040
3.0
1002
}
  0
LINE
  5
670
330
1A
100
AcDbEntity
  8
SEIHIN
  6
CONTINUOUS
 62
     3
100
AcDbLine
 10
128.1032229068248
 20
90.28480228886305
 30
0.0
 11
167.8820229068249
 21
90.28500228886306
 31
0.0
  0
LINE
  5
671
330
1A
100
AcDbEntity
  8
SEIHIN
  6
CONTINUOUS
 62
     3
100
AcDbLine
 10
167.8820229068249
 20
91.28500228886306
 30
0.0
 11
128.5455229068249
 21
91.28490228886308
 31
0.0
  0
LINE
  5
672
330
1A
100
AcDbEntity
  8
SEIHIN
  6
CONTINUOUS
 62
     3
100
AcDbLine
 10
162.8820229068249
 20
101.284902288863
 30
0.0
 11
167.8820229068249
 21
101.285002288863
 31
0.0
  0
LINE
  5
673
330
1A
100
AcDbEntity
  8
SEIHIN
  6
CONTINUOUS
 62
     3
100
AcDbLine
 10
167.8820229068249
 20
100.285002288863
 30
0.0
 11
163.1469229068249
 21
100.285002288863
 31
0.0
  0
DIMENSION
  5
674
330
1A
100
AcDbEntity
  8
SUNPOU
100
AcDbDimension
  2
*D5
 10
131.0477396766398
 20
90.28480228886305
 30
0.0
 11
128.5477396766398
 21
79.53480228886306
 31
0.0
 70
    32
  1
t<>
  3
STANDARD
100
AcDbAlignedDimension
 13
128.343224987124
 23
91.32765558118144
 33
0.0
 14
128.1032229068248
 24
90.28480228886305
 34
0.0
 50
90.0
100
AcDbRotatedDimension
1001
ACAD
1000
DSTYLE
1002
{
1070
   140
1040
3.0
1070
    74
1070
     0
1070
   172
1070
     1
1070
    73
1070
     0
1070
   272
1070
     2
1070
    77
1070
     3
1070
   173
1070
     1
1070
   147
1040
1.0
1070
    42
1040
3.0
1070
    44
1040
1.5
1070
    43
1040
7.0
1070
   271
1070
     1
1070
   178
1070
     4
1070
   177
1070
     4
1070
   176
1070
     4
1070
   141
1040
150.0
1070
     7
1000
_OPEN
1070
     6
1000
_OPEN
1070
    41
1040
3.0
1002
}
  0
LINE
  5
675
330
1A
100
AcDbEntity
  8
SEIHIN
  6
CONTINUOUS
 62
     3
100
AcDbLine
 10
137.8820229068249
 20
97.28490228886307
 30
0.0
 11
132.6171229068249
 21
100.284902288863
 31
0.0
  0
LINE
  5
676
330
1A
100
AcDbEntity
  8
SEIHIN
  6
CONTINUOUS
 62
     3
100
AcDbLine
 10
132.8820229068249
 20
101.284902288863
 30
0.0
 11
137.8820229068249
 21
98.43580228886306
 31
0.0
  0
DIMENSION
  5
677
330
1A
100
AcDbEntity
  8
SUNPOU
100
AcDbDimension
  2
*D6
 10
113.852327154453
 20
90.28480228886305
 30
0.0
 11
111.352327154453
 21
95.78482728886308
 31
0.0
 70
    32
  3
STANDARD
100
AcDbAlignedDimension
 13
130.4926229068249
 23
101.284852288863
 33
0.0
 14
128.1032229068248
 24
90.28480228886305
 34
0.0
 50
90.0
100
AcDbRotatedDimension
1001
ACAD
1000
DSTYLE
1002
{
1070
   140
1040
3.0
1070
    74
1070
     0
1070
   172
1070
     1
1070
    73
1070
     0
1070
   272
1070
     2
1070
    77
1070
     3
1070
   173
1070
     1
1070
   147
1040
1.0
1070
    42
1040
3.0
1070
    44
1040
1.5
1070
    43
1040
7.0
1070
   271
1070
     0
1070
   178
1070
     4
1070
   177
1070
     4
1070
   176
1070
     4
1070
   141
1040
150.0
1070
     7
1000
_OPEN
1070
     6
1000
_OPEN
1070
    41
1040
3.0
1002
}
  0
LINE
  5
678
330
1A
100
AcDbEntity
  8
SEIHIN
  6
CONTINUOUS
 62
     3
100
AcDbLine
 10
127.7332229068248
 20
101.121202288863
 30
0.0
 11
123.1878229068249
 21
96.12120228886308
 31
0.0
  0
LINE
  5
679
330
1A
100
AcDbEntity
  8
SEIHIN
  6
CONTINUOUS
 62
     3
100
AcDbLine
 10
128.1756229068249
 20
100.121202288863
 30
0.0
 11
124.5392229068249
 21
96.12120228886308
 31
0.0
  0
LINE
  5
67A
330
1A
100
AcDbEntity
  8
SEIHIN
  6
CONTINUOUS
 62
     3
100
AcDbLine
 10
124.5392229068249
 20
95.44850228886305
 30
0.0
 11
128.1755229068249
 21
91.44850228886305
 31
0.0
  0
LINE
  5
67B
330
1A
100
AcDbEntity
  8
SEIHIN
  6
CONTINUOUS
 62
     3
100
AcDbLine
 10
123.1878229068249
 20
95.44860228886308
 30
0.0
 11
127.7332229068248
 21
90.44850228886305
 31
0.0
  0
ARC
  5
67C
330
1A
100
AcDbEntity
  8
SEIHIN
  6
CONTINUOUS
 62
     3
100
AcDbCircle
 10
124.9092229068249
 20
95.78490228886307
 30
0.0
 40
0.500031
100
AcDbArc
 50
137.7317069945
 51
222.2767719585
  0
ARC
  5
67D
330
1A
100
AcDbEntity
  8
SEIHIN
  6
CONTINUOUS
 62
     3
100
AcDbCircle
 10
123.5577229068248
 20
95.78490228886307
 30
0.0
 40
0.499924
100
AcDbArc
 50
137.7239979944999
 51
222.2760019585
  0
ARC
  5
67E
330
1A
100
AcDbEntity
  8
SEIHIN
  6
CONTINUOUS
 62
     3
100
AcDbCircle
 10
128.1031229068249
 20
90.78490228886307
 30
0.0
 40
0.5000320000000001
100
AcDbArc
 50
222.2767719585
 51
269.9999999647
  0
ARC
  5
67F
330
1A
100
AcDbEntity
  8
SEIHIN
  6
CONTINUOUS
 62
     3
100
AcDbCircle
 10
128.5455229068249
 20
91.78490228886309
 30
0.0
 40
0.4999990000000001
100
AcDbArc
 50
222.2682929584999
 51
269.9999999647
  0
LINE
  5
680
330
1A
100
AcDbEntity
  8
SEIHIN
  6
CONTINUOUS
 62
     3
100
AcDbLine
 10
132.6171229068249
 20
100.284902288863
 30
0.0
 11
128.5456229068249
 21
100.284902288863
 31
0.0
  0
ARC
  5
681
330
1A
100
AcDbEntity
  8
SEIHIN
  6
CONTINUOUS
 62
     3
100
AcDbCircle
 10
128.5456229068249
 20
99.78490228886307
 30
0.0
 40
0.4999990000000001
100
AcDbArc
 50
89.99999998819999
 51
137.7317069945
  0
LINE
  5
682
330
1A
100
AcDbEntity
  8
SEIHIN
  6
CONTINUOUS
 62
     3
100
AcDbLine
 10
132.8820229068249
 20
101.284902288863
 30
0.0
 11
128.1032229068248
 21
101.284802288863
 31
0.0
  0
ARC
  5
683
330
1A
100
AcDbEntity
  8
SEIHIN
  6
CONTINUOUS
 62
     3
100
AcDbCircle
 10
128.1032229068248
 20
100.784802288863
 30
0.0
 40
0.5000320000000001
100
AcDbArc
 50
89.99999998819999
 51
137.7232279945
  0
LINE
  5
684
330
1A
100
AcDbEntity
  8
SEIHIN
  6
CONTINUOUS
 62
     3
100
AcDbLine
 10
154.3820197537252
 20
101.284902288863
 30
0.0
 11
154.3820197537252
 21
121.9848022888631
 31
0.0
  0
LINE
  5
685
330
1A
100
AcDbEntity
  8
SEIHIN
  6
CONTINUOUS
 62
     3
100
AcDbLine
 10
141.3820197537252
 20
101.284902288863
 30
0.0
 11
141.3820197537252
 21
121.9848022888631
 31
0.0
  0
LINE
  5
686
330
1A
100
AcDbEntity
  8
SEIHIN
  6
CONTINUOUS
 62
     3
100
AcDbLine
 10
149.8820229068249
 20
93.28490228886307
 30
0.0
 11
147.8820229068249
 21
93.28490228886307
 31
0.0
  0
LINE
  5
687
330
1A
100
AcDbEntity
  8
SEIHIN
  6
CONTINUOUS
 62
     3
100
AcDbLine
 10
152.8820229068249
 20
101.284902288863
 30
0.0
 11
142.8820229068249
 21
101.284902288863
 31
0.0
  0
LINE
  5
688
330
1A
100
AcDbEntity
  8
SEIHIN
  6
CONTINUOUS
 62
     3
100
AcDbLine
 10
152.6171229068249
 20
100.284902288863
 30
0.0
 11
143.1469229068248
 21
100.284902288863
 31
0.0
  0
LINE
  5
689
330
1A
100
AcDbEntity
  8
SEIHIN
  6
CONTINUOUS
 62
     3
100
AcDbLine
 10
151.3819118263249
 20
98.28488289851597
 30
0.0
 11
144.3819118263454
 21
98.2849216782275
 31
0.0
  0
LINE
  5
68A
330
1A
100
AcDbEntity
  8
SEIHIN
  6
CONTINUOUS
 62
     3
100
AcDbLine
 10
154.3820197537252
 20
109.272502288863
 30
0.0
 11
147.8820197537252
 21
109.272502288863
 31
0.0
  0
LINE
  5
68B
330
1A
100
AcDbEntity
  8
SEIHIN
  6
CONTINUOUS
 62
     3
100
AcDbLine
 10
147.8820197537252
 20
101.284902288863
 30
0.0
 11
156.8820197537252
 21
101.284902288863
 31
0.0
  0
LINE
  5
68C
330
1A
100
AcDbEntity
  8
SEIHIN
  6
CONTINUOUS
 62
     3
100
AcDbLine
 10
142.8820229068249
 20
101.284902288863
 30
0.0
 11
137.8820229068249
 21
98.43580228886306
 31
0.0
  0
LINE
  5
68D
330
1A
100
AcDbEntity
  8
SEIHIN
  6
CONTINUOUS
 62
     3
100
AcDbLine
 10
137.8820229068249
 20
97.28490228886307
 30
0.0
 11
143.1469229068248
 21
100.284902288863
 31
0.0
  0
LINE
  5
68E
330
1A
100
AcDbEntity
  8
SEIHIN
  6
CONTINUOUS
 62
     3
100
AcDbLine
 10
141.8820229068249
 20
91.28490228886308
 30
0.0
 11
139.8820229068249
 21
93.28490228886307
 31
0.0
  0
LINE
  5
68F
330
1A
100
AcDbEntity
  8
SEIHIN
  6
CONTINUOUS
 62
     3
100
AcDbLine
 10
135.8820229068249
 20
93.28490228886307
 30
0.0
 11
139.8820229068249
 21
93.28490228886307
 31
0.0
  0
LINE
  5
690
330
1A
100
AcDbEntity
  8
SEIHIN
  6
CONTINUOUS
 62
     3
100
AcDbLine
 10
133.8820229068249
 20
91.28490228886308
 30
0.0
 11
135.8820229068249
 21
93.28490228886307
 31
0.0
  0
LINE
  5
691
330
1A
100
AcDbEntity
  8
SEIHIN
  6
CONTINUOUS
 62
     3
100
AcDbLine
 10
143.8820229068249
 20
91.28490228886308
 30
0.0
 11
145.8820229068249
 21
93.28490228886307
 31
0.0
  0
LINE
  5
692
330
1A
100
AcDbEntity
  8
SEIHIN
  6
CONTINUOUS
 62
     3
100
AcDbLine
 10
145.8820229068249
 20
93.28490228886307
 30
0.0
 11
147.8820229068249
 21
93.28490228886307
 31
0.0
  0
LINE
  5
693
330
1A
100
AcDbEntity
  8
SEIHIN
  6
CONTINUOUS
 62
     3
100
AcDbLine
 10
144.3819118263454
 20
98.2849216782275
 30
0.0
 11
144.3819229063073
 21
100.2849216782216
 31
0.0
  0
LINE
  5
694
330
1A
100
AcDbEntity
  8
SEIHIN
  6
CONTINUOUS
 62
     3
100
AcDbLine
 10
141.3820197537252
 20
109.272502288863
 30
0.0
 11
138.8820197537252
 21
110.272502288863
 31
0.0
  0
LINE
  5
695
330
1A
100
AcDbEntity
  8
SEIHIN
  6
CONTINUOUS
 62
     3
100
AcDbLine
 10
147.8820197537252
 20
101.284902288863
 30
0.0
 11
138.8820197537252
 21
101.284902288863
 31
0.0
  0
LINE
  5
696
330
1A
100
AcDbEntity
  8
SEIHIN
  6
CONTINUOUS
 62
     3
100
AcDbLine
 10
141.3820197537252
 20
109.272502288863
 30
0.0
 11
147.8820197537252
 21
109.272502288863
 31
0.0
  0
LINE
  5
697
330
1A
100
AcDbEntity
  8
SEIHIN
  6
CONTINUOUS
 62
     3
100
AcDbLine
 10
152.8820229068249
 20
101.284902288863
 30
0.0
 11
157.8820229068249
 21
98.43590228886304
 31
0.0
  0
LINE
  5
698
330
1A
100
AcDbEntity
  8
SEIHIN
  6
CONTINUOUS
 62
     3
100
AcDbLine
 10
162.8820229068249
 20
101.284902288863
 30
0.0
 11
157.8820229068249
 21
98.43590228886304
 31
0.0
  0
LINE
  5
699
330
1A
100
AcDbEntity
  8
SEIHIN
  6
CONTINUOUS
 62
     3
100
AcDbLine
 10
157.8820229068249
 20
97.28490228886307
 30
0.0
 11
152.6171229068249
 21
100.284902288863
 31
0.0
  0
LINE
  5
69A
330
1A
100
AcDbEntity
  8
SEIHIN
  6
CONTINUOUS
 62
     3
100
AcDbLine
 10
159.8820229068249
 20
93.28500228886305
 30
0.0
 11
155.8820229068249
 21
93.28500228886305
 31
0.0
  0
LINE
  5
69B
330
1A
100
AcDbEntity
  8
SEIHIN
  6
CONTINUOUS
 62
     3
100
AcDbLine
 10
151.8820229068249
 20
91.28490228886308
 30
0.0
 11
149.8820229068249
 21
93.28490228886307
 31
0.0
  0
LINE
  5
69C
330
1A
100
AcDbEntity
  8
SEIHIN
  6
CONTINUOUS
 62
     3
100
AcDbLine
 10
153.8820229068249
 20
91.28500228886306
 30
0.0
 11
155.8820229068249
 21
93.28500228886305
 31
0.0
  0
LINE
  5
69D
330
1A
100
AcDbEntity
  8
SEIHIN
  6
CONTINUOUS
 62
     3
100
AcDbLine
 10
151.3819118263249
 20
98.2848828984104
 30
0.0
 11
151.3819229067423
 21
100.2849828984045
 31
0.0
  0
LINE
  5
69E
330
1A
100
AcDbEntity
  8
SEIHIN
  6
CONTINUOUS
 62
     3
100
AcDbLine
 10
161.8820229068249
 20
91.28500228886306
 30
0.0
 11
159.8820229068249
 21
93.28500228886305
 31
0.0
  0
LINE
  5
69F
330
1A
100
AcDbEntity
  8
SEIHIN
  6
CONTINUOUS
 62
     3
100
AcDbLine
 10
157.8820229068249
 20
97.28490228886307
 30
0.0
 11
163.1469229068249
 21
100.285002288863
 31
0.0
  0
LINE
  5
6A0
330
1A
100
AcDbEntity
  8
SEIHIN
  6
CONTINUOUS
 62
     3
100
AcDbLine
 10
154.3820197537252
 20
109.272502288863
 30
0.0
 11
156.8820197537252
 21
110.272502288863
 31
0.0
  0
LINE
  5
6A1
330
1A
100
AcDbEntity
  8
SEIHIN
  6
CONTINUOUS
 62
     3
100
AcDbLine
 10
138.8819197537252
 20
121.9848022888631
 30
0.0
 11
156.8819197537252
 21
121.9848022888631
 31
0.0
  0
LINE
  5
6A2
330
1A
100
AcDbEntity
  8
SEIHIN
  6
CONTINUOUS
 62
     3
100
AcDbLine
 10
155.8820197537252
 20
133.9847022888631
 30
0.0
 11
139.8820197537252
 21
133.984702288863
 31
0.0
  0
LINE
  5
6A3
330
1A
100
AcDbEntity
  8
SEIHIN
  6
CONTINUOUS
 62
     3
100
AcDbLine
 10
145.3818197537252
 20
121.9852022888631
 30
0.0
 11
145.3817197537252
 21
130.984802288863
 31
0.0
  0
LINE
  5
6A4
330
1A
100
AcDbEntity
  8
SEIHIN
  6
CONTINUOUS
 62
     3
100
AcDbLine
 10
140.8817197537252
 20
121.9852022888631
 30
0.0
 11
140.8817197537252
 21
124.2347022888631
 31
0.0
  0
LINE
  5
6A5
330
1A
100
AcDbEntity
  8
SEIHIN
  6
CONTINUOUS
 62
     3
100
AcDbLine
 10
138.8819197537252
 20
130.984702288863
 30
0.0
 11
145.3817197548363
 21
130.984702288863
 31
0.0
  0
LINE
  5
6A6
330
1A
100
AcDbEntity
  8
SEIHIN
  6
CONTINUOUS
 62
     3
100
AcDbLine
 10
140.8818197537252
 20
126.984802288863
 30
0.0
 11
145.3818197537252
 21
126.984802288863
 31
0.0
  0
LINE
  5
6A7
330
1A
100
AcDbEntity
  8
SEIHIN
  6
CONTINUOUS
 62
     3
100
AcDbLine
 10
145.3818197537252
 20
124.734802288863
 30
0.0
 11
140.8818197537252
 21
124.734802288863
 31
0.0
  0
LINE
  5
6A8
330
1A
100
AcDbEntity
  8
SEIHIN
  6
CONTINUOUS
 62
     3
100
AcDbLine
 10
140.8818197537252
 20
126.9845022888631
 30
0.0
 11
140.8818197537252
 21
124.3874022888631
 31
0.0
  0
LINE
  5
6A9
330
1A
100
AcDbEntity
  8
SEIHIN
  6
CONTINUOUS
 62
     3
100
AcDbLine
 10
150.3818197537252
 20
121.9852022888631
 30
0.0
 11
150.3817197537252
 21
130.984802288863
 31
0.0
  0
LINE
  5
6AA
330
1A
100
AcDbEntity
  8
SEIHIN
  6
CONTINUOUS
 62
     3
100
AcDbLine
 10
154.8818197537252
 20
121.985302288863
 30
0.0
 11
154.8818197537252
 21
124.234802288863
 31
0.0
  0
LINE
  5
6AB
330
1A
100
AcDbEntity
  8
SEIHIN
  6
CONTINUOUS
 62
     3
100
AcDbLine
 10
150.3818197537252
 20
126.984802288863
 30
0.0
 11
154.8818197537252
 21
126.984802288863
 31
0.0
  0
LINE
  5
6AC
330
1A
100
AcDbEntity
  8
SEIHIN
  6
CONTINUOUS
 62
     3
100
AcDbLine
 10
150.3818197537252
 20
124.734802288863
 30
0.0
 11
154.8818197537252
 21
124.734802288863
 31
0.0
  0
LINE
  5
6AD
330
1A
100
AcDbEntity
  8
SEIHIN
  6
CONTINUOUS
 62
     3
100
AcDbLine
 10
154.8818197537252
 20
126.9845022888631
 30
0.0
 11
154.8818197537252
 21
124.3874022888631
 31
0.0
  0
LINE
  5
6AE
330
1A
100
AcDbEntity
  8
SEIHIN
  6
CONTINUOUS
 62
     3
100
AcDbLine
 10
150.3817197548363
 20
130.984702288863
 30
0.0
 11
156.8819197537252
 21
130.984702288863
 31
0.0
  0
LINE
  5
6AF
330
1A
100
AcDbEntity
  8
SEIHIN
  6
CONTINUOUS
 62
     3
100
AcDbLine
 10
167.8820229068249
 20
100.285002288863
 30
0.0
 11
167.8820229068249
 21
101.284802288863
 31
0.0
  0
LINE
  5
6B0
330
1A
100
AcDbEntity
  8
SEIHIN
  6
CONTINUOUS
 62
     3
100
AcDbLine
 10
165.8820229068249
 20
101.284802288863
 30
0.0
 11
165.8820229068249
 21
100.284902288863
 31
0.0
  0
LINE
  5
6B1
330
1A
100
AcDbEntity
  8
SEIHIN
  6
CONTINUOUS
 62
     3
100
AcDbLine
 10
167.8820229068249
 20
90.28490228886308
 30
0.0
 11
167.8820229068249
 21
91.28500228886306
 31
0.0
  0
LINE
  5
6B2
330
1A
100
AcDbEntity
  8
SEIHIN
  6
CONTINUOUS
 62
     3
100
AcDbLine
 10
165.8820229068249
 20
91.28500228886306
 30
0.0
 11
165.8820229068249
 21
90.28480228886305
 31
0.0
  0
DIMENSION
  5
6B3
330
1A
100
AcDbEntity
  8
SUNPOU
100
AcDbDimension
  2
*D7
 10
138.8820197537252
 20
191.3071845221146
 30
0.0
 11
147.8820197537252
 21
193.8071845221146
 31
0.0
 70
    32
  3
STANDARD
100
AcDbAlignedDimension
 13
156.8820197537252
 23
175.985002288863
 33
0.0
 14
138.8820197537252
 24
175.985002288863
 34
0.0
100
AcDbRotatedDimension
1001
ACAD
1000
DSTYLE
1002
{
1070
   140
1040
3.0
1070
    74
1070
     0
1070
   172
1070
     1
1070
    73
1070
     0
1070
   272
1070
     2
1070
    77
1070
     3
1070
   173
1070
     1
1070
   147
1040
1.0
1070
    42
1040
3.0
1070
    44
1040
1.5
1070
    43
1040
7.0
1070
   271
1070
     0
1070
   178
1070
     4
1070
   177
1070
     4
1070
   176
1070
     4
1070
   141
1040
150.0
1070
     7
1000
_OPEN
1070
     6
1000
_OPEN
1070
    41
1040
3.0
1002
}
  0
LINE
  5
6B4
330
1A
100
AcDbEntity
  8
SEIHIN
  6
CONTINUOUS
 62
     3
100
AcDbLine
 10
147.8820197537252
 20
176.985002288863
 30
0.0
 11
154.3819197537252
 21
176.985002288863
 31
0.0
  0
LINE
  5
6B5
330
1A
100
AcDbEntity
  8
SEIHIN
  6
CONTINUOUS
 62
     3
100
AcDbLine
 10
154.3820197537252
 20
167.616902288863
 30
0.0
 11
147.8820197537252
 21
167.616902288863
 31
0.0
  0
LINE
  5
6B6
330
1A
100
AcDbEntity
  8
SEIHIN
  6
CONTINUOUS
 62
     3
100
AcDbLine
 10
141.3820197537252
 20
167.616902288863
 30
0.0
 11
138.8820197537252
 21
166.616902288863
 31
0.0
  0
LINE
  5
6B7
330
1A
100
AcDbEntity
  8
SEIHIN
  6
CONTINUOUS
 62
     3
100
AcDbLine
 10
141.3820197537252
 20
167.616902288863
 30
0.0
 11
147.8820197537252
 21
167.616902288863
 31
0.0
  0
LINE
  5
6B8
330
1A
100
AcDbEntity
  8
SEIHIN
  6
CONTINUOUS
 62
     3
100
AcDbLine
 10
141.3820197537252
 20
176.985002288863
 30
0.0
 11
138.8820197537252
 21
175.985002288863
 31
0.0
  0
LINE
  5
6B9
330
1A
100
AcDbEntity
  8
SEIHIN
  6
CONTINUOUS
 62
     3
100
AcDbLine
 10
147.8820197537252
 20
176.985002288863
 30
0.0
 11
141.3821197537252
 21
176.985002288863
 31
0.0
  0
LINE
  5
6BA
330
1A
100
AcDbEntity
  8
SEIHIN
  6
CONTINUOUS
 62
     3
100
AcDbLine
 10
154.3820197537252
 20
167.616902288863
 30
0.0
 11
156.8820197537252
 21
166.616902288863
 31
0.0
  0
LINE
  5
6BB
330
1A
100
AcDbEntity
  8
SEIHIN
  6
CONTINUOUS
 62
     3
100
AcDbLine
 10
154.3820197537252
 20
176.985002288863
 30
0.0
 11
156.8820197537252
 21
175.985002288863
 31
0.0
  0
DIMENSION
  5
6BC
330
1A
100
AcDbEntity
  8
SUNPOU
100
AcDbDimension
  2
*D8
 10
236.6602515187499
 20
201.6388364756839
 30
0.0
 11
277.5102115187499
 21
204.138836475684
 31
0.0
 70
    32
  3
STANDARD
100
AcDbAlignedDimension
 13
318.3601715187499
 23
129.984902288863
 33
0.0
 14
236.6602515187499
 24
126.984702288863
 34
0.0
100
AcDbRotatedDimension
1001
ACAD
1000
DSTYLE
1002
{
1070
   140
1040
3.0
1070
    74
1070
     0
1070
   172
1070
     1
1070
    73
1070
     0
1070
   272
1070
     2
1070
    77
1070
     3
1070
   173
1070
     1
1070
   147
1040
1.0
1070
    42
1040
3.0
1070
    44
1040
1.5
1070
    43
1040
7.0
1070
   271
1070
     0
1070
   178
1070
     4
1070
   177
1070
     4
1070
   176
1070
     4
1070
   141
1040
150.0
1070
     7
1000
_OPEN
1070
     6
1000
_OPEN
1070
    41
1040
3.0
1002
}
  0
ARC
  5
6BD
330
1A
100
AcDbEntity
  8
SEIHIN
  6
CONTINUOUS
 62
     3
100
AcDbCircle
 10
242.1602715187499
 20
136.984702288863
 30
0.0
 40
3.0
100
AcDbArc
 50
270.0
 51
0.0
  0
ARC
  5
6BE
330
1A
100
AcDbEntity
  8
SEIHIN
  6
CONTINUOUS
 62
     3
100
AcDbCircle
 10
241.1602715187499
 20
136.963802288863
 30
0.0
 40
3.000016999999999
100
AcDbArc
 50
274.7801359999999
 51
0.0
  0
LINE
  5
6BF
330
1A
100
AcDbEntity
  8
SEIHIN
  6
CONTINUOUS
 62
     3
100
AcDbLine
 10
307.8601715187499
 20
126.984902288863
 30
0.0
 11
307.8601715187499
 21
138.634802288863
 31
0.0
  0
LINE
  5
6C0
330
1A
100
AcDbEntity
  8
SEIHIN
  6
CONTINUOUS
 62
     3
100
AcDbLine
 10
247.1602715187499
 20
138.634702288863
 30
0.0
 11
247.1602715187499
 21
126.984702288863
 31
0.0
  0
LINE
  5
6C1
330
1A
100
AcDbEntity
  8
SEIHIN
  6
CONTINUOUS
 62
     3
100
AcDbLine
 10
309.8600715187499
 20
164.884902288863
 30
0.0
 11
309.8601715187499
 21
132.276402288863
 31
0.0
  0
LINE
  5
6C2
330
1A
100
AcDbEntity
  8
SEIHIN
  6
CONTINUOUS
 62
     3
100
AcDbLine
 10
310.8600715187499
 20
164.884902288863
 30
0.0
 11
310.8601715187499
 21
131.227602288863
 31
0.0
  0
LINE
  5
6C3
330
1A
100
AcDbEntity
  8
CENTER_L
  6
CENTER
 62
     1
 48
5.0
100
AcDbLine
 10
277.5102666921339
 20
183.985002288863
 30
0.0
 11
277.5102666921339
 21
83.98743475152128
 31
0.0
  0
LINE
  5
6C4
330
1A
100
AcDbEntity
  8
CENTER_L
  6
CENTER
 62
     1
 48
5.0
100
AcDbLine
 10
241.6602715187499
 20
138.9565443063588
 30
0.0
 11
241.6602715187499
 21
115.0128602713672
 31
0.0
  0
DIMENSION
  5
6C5
330
1A
100
AcDbEntity
  8
SUNPOU
100
AcDbDimension
  2
*D9
 10
297.5102666921339
 20
65.81326692951292
 30
0.0
 11
277.5102666921339
 21
68.31326692951292
 31
0.0
 70
    32
  3
STANDARD
100
AcDbAlignedDimension
 13
257.5102666921338
 23
90.28490228886308
 33
0.0
 14
297.5102666921339
 24
90.28490228886308
 34
0.0
100
AcDbRotatedDimension
1001
ACAD
1000
DSTYLE
1002
{
1070
   140
1040
3.0
1070
    74
1070
     0
1070
   172
1070
     1
1070
    73
1070
     0
1070
   272
1070
     2
1070
    77
1070
     3
1070
   173
1070
     1
1070
   147
1040
1.0
1070
    42
1040
3.0
1070
    44
1040
1.5
1070
    43
1040
7.0
1070
   271
1070
     0
1070
   178
1070
     4
1070
   177
1070
     4
1070
   176
1070
     4
1070
   141
1040
150.0
1070
     7
1000
_OPEN
1070
     6
1000
_OPEN
1070
    41
1040
3.0
1002
}
  0
LINE
  5
6C6
330
1A
100
AcDbEntity
  8
SEIHIN
  6
CONTINUOUS
 62
     3
100
AcDbLine
 10
257.5102666921338
 20
100.285002288863
 30
0.0
 11
297.5102666921339
 21
100.285002288863
 31
0.0
  0
LINE
  5
6C7
330
1A
100
AcDbEntity
  8
SEIHIN
  6
CONTINUOUS
 62
     3
100
AcDbLine
 10
257.5102666921338
 20
101.284802288863
 30
0.0
 11
297.5102666921339
 21
101.284802288863
 31
0.0
  0
LINE
  5
6C8
330
1A
100
AcDbEntity
  8
SEIHIN
  6
CONTINUOUS
 62
     3
100
AcDbLine
 10
257.5102666921338
 20
90.28490228886308
 30
0.0
 11
297.5102666921339
 21
90.28490228886308
 31
0.0
  0
LINE
  5
6C9
330
1A
100
AcDbEntity
  8
SEIHIN
  6
CONTINUOUS
 62
     3
100
AcDbLine
 10
257.5102666921338
 20
91.28500228886306
 30
0.0
 11
297.5102666921339
 21
91.28500228886306
 31
0.0
  0
LINE
  5
6CA
330
1A
100
AcDbEntity
  8
SEIHIN
  6
CONTINUOUS
 62
     3
100
AcDbLine
 10
257.5102666921338
 20
97.28490228886307
 30
0.0
 11
297.5102666921339
 21
97.28490228886307
 31
0.0
  0
LINE
  5
6CB
330
1A
100
AcDbEntity
  8
SEIHIN
  6
CONTINUOUS
 62
     3
100
AcDbLine
 10
289.5102715187499
 20
109.284802288863
 30
0.0
 11
298.6449715187499
 21
109.284802288863
 31
0.0
  0
LINE
  5
6CC
330
1A
100
AcDbEntity
  8
SEIHIN
  6
CONTINUOUS
 62
     3
100
AcDbLine
 10
289.5102715187499
 20
110.284802288863
 30
0.0
 11
298.6449715187499
 21
110.284802288863
 31
0.0
  0
LINE
  5
6CD
330
1A
100
AcDbEntity
  8
SEIHIN
  6
CONTINUOUS
 62
     3
100
AcDbLine
 10
292.5101715187499
 20
113.284802288863
 30
0.0
 11
297.9400715187499
 21
113.284802288863
 31
0.0
  0
LINE
  5
6CE
330
1A
100
AcDbEntity
  8
CENTER_L
  6
CENTER
 62
     1
 48
5.0
100
AcDbLine
 10
250.5102666921339
 20
95.78486529015759
 30
0.0
 11
304.5102666921339
 21
95.78486529015759
 31
0.0
  0
LINE
  5
6CF
330
1A
100
AcDbEntity
  8
SEIHIN
  6
CONTINUOUS
 62
     3
100
AcDbLine
 10
263.5102666921339
 20
91.28500228886306
 30
0.0
 11
267.5102666921339
 21
93.28500228886305
 31
0.0
  0
LINE
  5
6D0
330
1A
100
AcDbEntity
  8
SEIHIN
  6
CONTINUOUS
 62
     3
100
AcDbLine
 10
265.5101715187499
 20
109.284702288863
 30
0.0
 11
256.2233715187499
 21
109.284702288863
 31
0.0
  0
LINE
  5
6D1
330
1A
100
AcDbEntity
  8
SEIHIN
  6
CONTINUOUS
 62
     3
100
AcDbLine
 10
265.5102715187499
 20
110.284802288863
 30
0.0
 11
256.2233715187499
 21
110.284802288863
 31
0.0
  0
LINE
  5
6D2
330
1A
100
AcDbEntity
  8
SEIHIN
  6
CONTINUOUS
 62
     3
100
AcDbLine
 10
263.5101715187499
 20
112.284802288863
 30
0.0
 11
277.5101715187499
 21
112.284802288863
 31
0.0
  0
ARC
  5
6D3
330
1A
100
AcDbEntity
  8
SEIHIN
  6
CONTINUOUS
 62
     3
100
AcDbCircle
 10
263.5101715187499
 20
113.284702288863
 30
0.0
 40
1.0
100
AcDbArc
 50
180.0
 51
0.0
  0
ARC
  5
6D4
330
1A
100
AcDbEntity
  8
SEIHIN
  6
CONTINUOUS
 62
     3
100
AcDbCircle
 10
245.2602715187499
 20
111.384702288863
 30
0.0
 40
9.000013
100
AcDbArc
 50
4.693327000000014
 51
69.51280200000003
  0
ARC
  5
6D5
330
1A
100
AcDbEntity
  8
SEIHIN
  6
CONTINUOUS
 62
     3
100
AcDbCircle
 10
245.2602715187499
 20
111.384702288863
 30
0.0
 40
7.999964
100
AcDbArc
 50
4.693518000000032
 51
69.51269099999997
  0
LINE
  5
6D6
330
1A
100
AcDbEntity
  8
SEIHIN
  6
CONTINUOUS
 62
     3
100
AcDbLine
 10
257.5102666921338
 20
90.28490228886308
 30
0.0
 11
257.5102666921338
 21
101.284802288863
 31
0.0
  0
LINE
  5
6D7
330
1A
100
AcDbEntity
  8
SEIHIN
  6
CONTINUOUS
 62
     3
100
AcDbLine
 10
259.5102666921339
 20
101.284602288863
 30
0.0
 11
259.5102666921339
 21
100.284702288863
 31
0.0
  0
LINE
  5
6D8
330
1A
100
AcDbEntity
  8
SEIHIN
  6
CONTINUOUS
 62
     3
100
AcDbLine
 10
259.5102666921339
 20
91.28480228886305
 30
0.0
 11
259.5102666921339
 21
90.28460228886304
 31
0.0
  0
ARC
  5
6D9
330
1A
100
AcDbEntity
  8
SEIHIN
  6
CONTINUOUS
 62
     3
100
AcDbCircle
 10
256.2233715187499
 20
112.284702288863
 30
0.0
 40
3.000027
100
AcDbArc
 50
184.691953
 51
270.0
  0
ARC
  5
6DA
330
1A
100
AcDbEntity
  8
SEIHIN
  6
CONTINUOUS
 62
     3
100
AcDbCircle
 10
256.2233715187499
 20
112.284802288863
 30
0.0
 40
2.000004999999999
100
AcDbArc
 50
184.6948869999999
 51
270.0
  0
ARC
  5
6DB
330
1A
100
AcDbEntity
  8
SEIHIN
  6
CONTINUOUS
 62
     3
100
AcDbCircle
 10
250.1602715187499
 20
124.499202288863
 30
0.0
 40
2.999976999999999
100
AcDbArc
 50
180.0
 51
249.512357
  0
ARC
  5
6DC
330
1A
100
AcDbEntity
  8
SEIHIN
  6
CONTINUOUS
 62
     3
100
AcDbCircle
 10
250.1602715187499
 20
124.499202288863
 30
0.0
 40
5.000015
100
AcDbArc
 50
206.1391919999915
 51
249.5124899999999
  0
ARC
  5
6DD
330
1A
100
AcDbEntity
  8
SEIHIN
  6
CONTINUOUS
 62
     3
100
AcDbCircle
 10
250.1602715187499
 20
124.499202288863
 30
0.0
 40
5.999997
100
AcDbArc
 50
206.1879559999912
 51
249.5126909999999
  0
ARC
  5
6DE
330
1A
100
AcDbEntity
  8
SEIHIN
  6
CONTINUOUS
 62
     3
100
AcDbCircle
 10
241.6602715187499
 20
126.984702288863
 30
0.0
 40
5.00002
100
AcDbArc
 50
0.0
 51
301.2608979999999
  0
ARC
  5
6DF
330
1A
100
AcDbEntity
  8
SEIHIN
  6
CONTINUOUS
 62
     3
100
AcDbCircle
 10
243.8787715187499
 20
121.409902288863
 30
0.0
 40
0.999994
100
AcDbArc
 50
26.1858349999912
 51
111.698201
  0
ARC
  5
6E0
330
1A
100
AcDbEntity
  8
SEIHIN
  6
CONTINUOUS
 62
     3
100
AcDbCircle
 10
244.7738715187499
 20
121.855802288863
 30
0.0
 40
1.000028
100
AcDbArc
 50
26.13973499999153
 51
121.259534
  0
ARC
  5
6E1
330
1A
100
AcDbEntity
  8
SEIHIN
  6
CONTINUOUS
 62
     3
100
AcDbCircle
 10
241.6602715187499
 20
130.984702288863
 30
0.0
 40
3.0
100
AcDbArc
 50
90.0
 51
180.0
  0
CIRCLE
  5
6E2
330
1A
100
AcDbEntity
  8
SEIHIN
  6
CONTINUOUS
 62
     3
100
AcDbCircle
 10
241.6602715187499
 20
126.984702288863
 30
0.0
 40
2.399999999999999
  0
CIRCLE
  5
6E3
330
1A
100
AcDbEntity
  8
SEIHIN
  6
CONTINUOUS
 62
     3
100
AcDbCircle
 10
241.6602715187499
 20
126.984702288863
 30
0.0
 40
2.25
  0
LINE
  5
6E4
330
1A
100
AcDbEntity
  8
SEIHIN
  6
CONTINUOUS
 62
     3
100
AcDbLine
 10
247.1602715187499
 20
126.984702288863
 30
0.0
 11
247.1602715187499
 21
124.499202288863
 31
0.0
  0
LINE
  5
6E5
330
1A
100
AcDbEntity
  8
SEIHIN
  6
CONTINUOUS
 62
     3
100
AcDbLine
 10
246.6602715187499
 20
126.984702288863
 30
0.0
 11
247.1602715187499
 21
126.984702288863
 31
0.0
  0
LINE
  5
6E6
330
1A
100
AcDbEntity
  8
SEIHIN
  6
CONTINUOUS
 62
     3
100
AcDbLine
 10
246.6602715187499
 20
126.984702288863
 30
0.0
 11
247.1602715187499
 21
126.984702288863
 31
0.0
  0
LINE
  5
6E7
330
1A
100
AcDbEntity
  8
SEIHIN
  6
CONTINUOUS
 62
     3
100
AcDbLine
 10
242.1602715187499
 20
133.984702288863
 30
0.0
 11
241.6602715187499
 21
133.984702288863
 31
0.0
  0
ARC
  5
6E8
330
1A
100
AcDbEntity
  8
SEIHIN
  6
CONTINUOUS
 62
     3
100
AcDbCircle
 10
245.2602715187499
 20
111.384702288863
 30
0.0
 40
10.999978
100
AcDbArc
 50
13.98482699999997
 51
69.51327
  0
ARC
  5
6E9
330
1A
100
AcDbEntity
  8
SEIHIN
  6
CONTINUOUS
 62
     3
100
AcDbCircle
 10
256.9045715187499
 20
114.284702288863
 30
0.0
 40
0.9999749999999998
100
AcDbArc
 50
193.987604
 51
270.0
  0
LINE
  5
6EA
330
1A
100
AcDbEntity
  8
SEIHIN
  6
CONTINUOUS
 62
     3
100
AcDbLine
 10
262.5101715187499
 20
113.284702288863
 30
0.0
 11
257.0802715187499
 21
113.284702288863
 31
0.0
  0
ARC
  5
6EB
330
1A
100
AcDbEntity
  8
SEIHIN
  6
CONTINUOUS
 62
     3
100
AcDbCircle
 10
291.5101715187499
 20
113.284802288863
 30
0.0
 40
1.0
100
AcDbArc
 50
180.0
 51
0.0
  0
ARC
  5
6EC
330
1A
100
AcDbEntity
  8
SEIHIN
  6
CONTINUOUS
 62
     3
100
AcDbCircle
 10
277.5101715187499
 20
112.784802288863
 30
0.0
 40
0.5
100
AcDbArc
 50
180.0
 51
0.0
  0
LINE
  5
6ED
330
1A
100
AcDbEntity
  8
SEIHIN
  6
CONTINUOUS
 62
     3
100
AcDbLine
 10
291.5101715187499
 20
112.284802288863
 30
0.0
 11
277.5101715187499
 21
112.284802288863
 31
0.0
  0
LINE
  5
6EE
330
1A
100
AcDbEntity
  8
SEIHIN
  6
CONTINUOUS
 62
     3
100
AcDbLine
 10
270.5102618655179
 20
101.284802288863
 30
0.0
 11
284.5102618655179
 21
101.284802288863
 31
0.0
  0
LINE
  5
6EF
330
1A
100
AcDbEntity
  8
SEIHIN
  6
CONTINUOUS
 62
     3
100
AcDbLine
 10
267.9574802876339
 20
92.39057509786311
 30
0.0
 11
267.5102666921339
 21
93.28500228886305
 31
0.0
  0
LINE
  5
6F0
330
1A
100
AcDbEntity
  8
SEIHIN
  6
CONTINUOUS
 62
     3
100
AcDbLine
 10
265.7463346696337
 20
91.28500228886306
 30
0.0
 11
267.9574802876338
 21
92.39057509786313
 31
0.0
  0
ARC
  5
6F1
330
1A
100
AcDbEntity
  8
SEIHIN
  6
CONTINUOUS
 62
     3
100
AcDbCircle
 10
265.5101715187499
 20
104.284802288863
 30
0.0
 40
6.0
100
AcDbArc
 50
0.0
 51
90.0
  0
ARC
  5
6F2
330
1A
100
AcDbEntity
  8
SEIHIN
  6
CONTINUOUS
 62
     3
100
AcDbCircle
 10
265.5101715187499
 20
104.284802288863
 30
0.0
 40
5.0
100
AcDbArc
 50
0.0
 51
90.0
  0
LINE
  5
6F3
330
1A
100
AcDbEntity
  8
SEIHIN
  6
CONTINUOUS
 62
     3
100
AcDbLine
 10
270.5102715187499
 20
101.284802288863
 30
0.0
 11
270.5101715187499
 21
104.284802288863
 31
0.0
  0
LINE
  5
6F4
330
1A
100
AcDbEntity
  8
SEIHIN
  6
CONTINUOUS
 62
     3
100
AcDbLine
 10
271.5102715187499
 20
101.284802288863
 30
0.0
 11
271.5101715187499
 21
104.284802288863
 31
0.0
  0
LINE
  5
6F5
330
1A
100
AcDbEntity
  8
SEIHIN
  6
CONTINUOUS
 62
     3
100
AcDbLine
 10
295.5102666921339
 20
101.284602288863
 30
0.0
 11
295.5102666921339
 21
100.284702288863
 31
0.0
  0
LINE
  5
6F6
330
1A
100
AcDbEntity
  8
SEIHIN
  6
CONTINUOUS
 62
     3
100
AcDbLine
 10
291.5102666921339
 20
91.28500228886306
 30
0.0
 11
287.5102666921339
 21
93.28500228886305
 31
0.0
  0
LINE
  5
6F7
330
1A
100
AcDbEntity
  8
SEIHIN
  6
CONTINUOUS
 62
     3
100
AcDbLine
 10
289.2741987146341
 20
91.28500228886306
 30
0.0
 11
287.0630530966339
 21
92.39057509786313
 31
0.0
  0
LINE
  5
6F8
330
1A
100
AcDbEntity
  8
SEIHIN
  6
CONTINUOUS
 62
     3
100
AcDbLine
 10
287.0630530966339
 20
92.39057509786311
 30
0.0
 11
287.5102666921339
 21
93.28500228886305
 31
0.0
  0
LINE
  5
6F9
330
1A
100
AcDbEntity
  8
SEIHIN
  6
CONTINUOUS
 62
     3
100
AcDbLine
 10
295.5102666921339
 20
91.28480228886305
 30
0.0
 11
295.5102666921339
 21
90.28460228886304
 31
0.0
  0
ARC
  5
6FA
330
1A
100
AcDbEntity
  8
SEIHIN
  6
CONTINUOUS
 62
     3
100
AcDbCircle
 10
289.5101715187499
 20
104.284802288863
 30
0.0
 40
6.0
100
AcDbArc
 50
90.0
 51
180.0
  0
ARC
  5
6FB
330
1A
100
AcDbEntity
  8
SEIHIN
  6
CONTINUOUS
 62
     3
100
AcDbCircle
 10
289.5101715187499
 20
104.284802288863
 30
0.0
 40
5.0
100
AcDbArc
 50
90.0
 51
180.0
  0
LINE
  5
6FC
330
1A
100
AcDbEntity
  8
SEIHIN
  6
CONTINUOUS
 62
     3
100
AcDbLine
 10
284.5102715187499
 20
101.284802288863
 30
0.0
 11
284.5101715187499
 21
104.284802288863
 31
0.0
  0
LINE
  5
6FD
330
1A
100
AcDbEntity
  8
SEIHIN
  6
CONTINUOUS
 62
     3
100
AcDbLine
 10
283.5102715187499
 20
101.284802288863
 30
0.0
 11
283.5101715187499
 21
104.284802288863
 31
0.0
  0
LINE
  5
6FE
330
1A
100
AcDbEntity
  8
SEIHIN
  6
CONTINUOUS
 62
     3
100
AcDbLine
 10
278.0101715187499
 20
113.284802288863
 30
0.0
 11
290.5101715187499
 21
113.284802288863
 31
0.0
  0
LINE
  5
6FF
330
1A
100
AcDbEntity
  8
SEIHIN
  6
CONTINUOUS
 62
     3
100
AcDbLine
 10
277.0101715187499
 20
113.284802288863
 30
0.0
 11
264.5101715187499
 21
113.284702288863
 31
0.0
  0
LINE
  5
700
330
1A
100
AcDbEntity
  8
SEIHIN
  6
CONTINUOUS
 62
     3
100
AcDbLine
 10
278.0101715187499
 20
112.784802288863
 30
0.0
 11
278.0101715187499
 21
113.284802288863
 31
0.0
  0
LINE
  5
701
330
1A
100
AcDbEntity
  8
SEIHIN
  6
CONTINUOUS
 62
     3
100
AcDbLine
 10
277.0101715187499
 20
112.784802288863
 30
0.0
 11
277.0101715187499
 21
113.284802288863
 31
0.0
  0
ARC
  5
702
330
1A
100
AcDbEntity
  8
SEIHIN
  6
CONTINUOUS
 62
     3
100
AcDbCircle
 10
309.6187715187499
 20
111.526302288863
 30
0.0
 40
9.000004999999999
100
AcDbArc
 50
106.8519919999999
 51
176.0460099999999
  0
ARC
  5
703
330
1A
100
AcDbEntity
  8
SEIHIN
  6
CONTINUOUS
 62
     3
100
AcDbCircle
 10
309.6187715187499
 20
111.526302288863
 30
0.0
 40
8.000040999999999
100
AcDbArc
 50
106.8518769999999
 51
176.046338
  0
LINE
  5
704
330
1A
100
AcDbEntity
  8
SEIHIN
  6
CONTINUOUS
 62
     3
100
AcDbLine
 10
297.5102666921339
 20
101.284802288863
 30
0.0
 11
297.5102666921339
 21
90.28490228886308
 31
0.0
  0
ARC
  5
705
330
1A
100
AcDbEntity
  8
SEIHIN
  6
CONTINUOUS
 62
     3
100
AcDbCircle
 10
298.64487151875
 20
112.284802288863
 30
0.0
 40
3.000021999999999
100
AcDbArc
 50
270.00191
 51
356.0454189999999
  0
ARC
  5
706
330
1A
100
AcDbEntity
  8
SEIHIN
  6
CONTINUOUS
 62
     3
100
AcDbCircle
 10
298.64487151875
 20
112.284802288863
 30
0.0
 40
2.000029999999999
100
AcDbArc
 50
270.0
 51
356.046437
  0
ARC
  5
707
330
1A
100
AcDbEntity
  8
SEIHIN
  6
CONTINUOUS
 62
     3
100
AcDbCircle
 10
314.8601715187499
 20
129.984902288863
 30
0.0
 40
3.499969
100
AcDbArc
 50
0.0
 51
177.6124879999999
  0
ARC
  5
708
330
1A
100
AcDbEntity
  8
SEIHIN
  6
CONTINUOUS
 62
     3
100
AcDbCircle
 10
312.3601715187499
 20
126.984902288863
 30
0.0
 40
3.300016999999999
100
AcDbArc
 50
284.321324
 51
107.5833419999999
  0
LINE
  5
709
330
1A
100
AcDbEntity
  8
SEIHIN
  6
CONTINUOUS
 62
     3
100
AcDbLine
 10
307.0096715187499
 20
120.139802288863
 30
0.0
 11
313.8096715187499
 21
122.199502288863
 31
0.0
  0
LINE
  5
70A
330
1A
100
AcDbEntity
  8
SEIHIN
  6
CONTINUOUS
 62
     3
100
AcDbLine
 10
307.2995715187499
 20
119.182702288863
 30
0.0
 11
314.09957151875
 21
121.242502288863
 31
0.0
  0
ARC
  5
70B
330
1A
100
AcDbEntity
  8
SEIHIN
  6
CONTINUOUS
 62
     3
100
AcDbCircle
 10
312.3601715187499
 20
126.984902288863
 30
0.0
 40
4.500017999999999
100
AcDbArc
 50
180.0
 51
236.2513129999999
  0
ARC
  5
70C
330
1A
100
AcDbEntity
  8
SEIHIN
  6
CONTINUOUS
 62
     3
100
AcDbCircle
 10
309.6187715187499
 20
111.526302288863
 30
0.0
 40
10.999985
100
AcDbArc
 50
103.290119
 51
166.7103879999999
  0
ARC
  5
70D
330
1A
100
AcDbEntity
  8
SEIHIN
  6
CONTINUOUS
 62
     3
100
AcDbCircle
 10
297.9400715187499
 20
114.284802288863
 30
0.0
 40
0.999993
100
AcDbArc
 50
270.0
 51
346.7086279999999
  0
LINE
  5
70E
330
1A
100
AcDbEntity
  8
SEIHIN
  6
CONTINUOUS
 62
     3
100
AcDbLine
 10
306.8977715187499
 20
122.184402288863
 30
0.0
 11
313.1764715187499
 21
123.787402288863
 31
0.0
  0
LINE
  5
70F
330
1A
100
AcDbEntity
  8
SEIHIN
  6
CONTINUOUS
 62
     3
100
AcDbLine
 10
311.8601715187499
 20
122.512702288863
 30
0.0
 11
311.8601715187499
 21
122.500102288863
 31
0.0
  0
ARC
  5
710
330
1A
100
AcDbEntity
  8
SEIHIN
  6
CONTINUOUS
 62
     3
100
AcDbCircle
 10
312.3601715187499
 20
126.984902288863
 30
0.0
 40
4.499986999999999
100
AcDbArc
 50
98.777623
 51
105.8257679999999
  0
LINE
  5
711
330
1A
100
AcDbEntity
  8
SEIHIN
  6
CONTINUOUS
 62
     3
100
AcDbLine
 10
312.3601715187499
 20
132.984902288863
 30
0.0
 11
310.8601715187499
 21
132.984902288863
 31
0.0
  0
LINE
  5
712
330
1A
100
AcDbEntity
  8
SEIHIN
  6
CONTINUOUS
 62
     3
100
AcDbLine
 10
312.3472715187499
 20
132.984902288863
 30
0.0
 11
312.3472715187499
 21
132.421002288863
 31
0.0
  0
ARC
  5
713
330
1A
100
AcDbEntity
  8
SEIHIN
  6
CONTINUOUS
 62
     3
100
AcDbCircle
 10
310.8601715187499
 20
132.276402288863
 30
0.0
 40
1.000013999999999
100
AcDbArc
 50
180.0
 51
285.830494
  0
ARC
  5
714
330
1A
100
AcDbEntity
  8
SEIHIN
  6
CONTINUOUS
 62
     3
100
AcDbCircle
 10
312.3601715187499
 20
126.984902288863
 30
0.0
 40
5.000007
100
AcDbArc
 50
286.851918
 51
0.0
  0
ARC
  5
715
330
1A
100
AcDbEntity
  8
SEIHIN
  6
CONTINUOUS
 62
     3
100
AcDbCircle
 10
312.3601715187499
 20
126.984902288863
 30
0.0
 40
6.000027999999999
100
AcDbArc
 50
286.851808
 51
0.0
  0
LINE
  5
716
330
1A
100
AcDbEntity
  8
SEIHIN
  6
CONTINUOUS
 62
     3
100
AcDbLine
 10
318.3601715187499
 20
129.984902288863
 30
0.0
 11
318.3601715187499
 21
126.984902288863
 31
0.0
  0
LINE
  5
717
330
1A
100
AcDbEntity
  8
SEIHIN
  6
CONTINUOUS
 62
     3
100
AcDbLine
 10
317.3601715187499
 20
132.434402288863
 30
0.0
 11
317.3601715187499
 21
126.984902288863
 31
0.0
  0
DIMENSION
  5
718
330
1A
100
AcDbEntity
  8
SUNPOU
100
AcDbDimension
  2
*D10
 10
244.1602715187499
 20
191.8071845221146
 30
0.0
 11
277.5101715187499
 21
194.3071845221146
 31
0.0
 70
    32
  3
STANDARD
100
AcDbAlignedDimension
 13
310.8600715187499
 23
164.884902288863
 33
0.0
 14
244.1602715187499
 24
164.884802288863
 34
0.0
100
AcDbRotatedDimension
1001
ACAD
1000
DSTYLE
1002
{
1070
   140
1040
3.0
1070
    74
1070
     0
1070
   172
1070
     1
1070
    73
1070
     0
1070
   272
1070
     2
1070
    77
1070
     3
1070
   173
1070
     1
1070
   147
1040
1.0
1070
    42
1040
3.0
1070
    44
1040
1.5
1070
    43
1040
7.0
1070
   271
1070
     0
1070
   178
1070
     4
1070
   177
1070
     4
1070
   176
1070
     4
1070
   141
1040
150.0
1070
     7
1000
_OPEN
1070
     6
1000
_OPEN
1070
    41
1040
3.0
1002
}
  0
LINE
  5
719
330
1A
100
AcDbEntity
  8
SEIHIN
  6
CONTINUOUS
 62
     3
100
AcDbLine
 10
277.5100715187499
 20
173.984902288863
 30
0.0
 11
297.1737715187499
 21
173.984902288863
 31
0.0
  0
LINE
  5
71A
330
1A
100
AcDbEntity
  8
SEIHIN
  6
CONTINUOUS
 62
     3
100
AcDbLine
 10
277.5100715187499
 20
175.984902288863
 30
0.0
 11
298.7600715187499
 21
175.984902288863
 31
0.0
  0
LINE
  5
71B
330
1A
100
AcDbEntity
  8
SEIHIN
  6
CONTINUOUS
 62
     3
100
AcDbLine
 10
277.5100715187499
 20
176.984902288863
 30
0.0
 11
298.7600715187499
 21
176.984902288863
 31
0.0
  0
LINE
  5
71C
330
1A
100
AcDbEntity
  8
SEIHIN
  6
CONTINUOUS
 62
     3
100
AcDbLine
 10
277.5100715187499
 20
173.984902288863
 30
0.0
 11
257.8463715187499
 21
173.984802288863
 31
0.0
  0
LINE
  5
71D
330
1A
100
AcDbEntity
  8
SEIHIN
  6
CONTINUOUS
 62
     3
100
AcDbLine
 10
277.5100715187499
 20
175.984902288863
 30
0.0
 11
256.2600715187499
 21
175.984802288863
 31
0.0
  0
LINE
  5
71E
330
1A
100
AcDbEntity
  8
SEIHIN
  6
CONTINUOUS
 62
     3
100
AcDbLine
 10
277.5100715187499
 20
176.984902288863
 30
0.0
 11
256.2600715187499
 21
176.984802288863
 31
0.0
  0
LINE
  5
71F
330
1A
100
AcDbEntity
  8
SEIHIN
  6
CONTINUOUS
 62
     3
100
AcDbLine
 10
245.1602715187499
 20
164.884802288863
 30
0.0
 11
245.1602715187499
 21
136.984702288863
 31
0.0
  0
LINE
  5
720
330
1A
100
AcDbEntity
  8
SEIHIN
  6
CONTINUOUS
 62
     3
100
AcDbLine
 10
244.1602715187499
 20
164.884802288863
 30
0.0
 11
244.1602715187499
 21
136.963802288863
 31
0.0
  0
LINE
  5
721
330
1A
100
AcDbEntity
  8
SEIHIN
  6
CONTINUOUS
 62
     3
100
AcDbLine
 10
247.1602715187499
 20
163.298502288863
 30
0.0
 11
247.1602715187499
 21
148.634802288863
 31
0.0
  0
ARC
  5
722
330
1A
100
AcDbEntity
  8
SEIHIN
  6
CONTINUOUS
 62
     3
100
AcDbCircle
 10
247.1602715187499
 20
147.634802288863
 30
0.0
 40
1.0
100
AcDbArc
 50
0.0
 51
90.0
  0
ARC
  5
723
330
1A
100
AcDbEntity
  8
SEIHIN
  6
CONTINUOUS
 62
     3
100
AcDbCircle
 10
247.1602715187499
 20
139.634802288863
 30
0.0
 40
1.0
100
AcDbArc
 50
270.0
 51
0.0
  0
LINE
  5
724
330
1A
100
AcDbEntity
  8
SEIHIN
  6
CONTINUOUS
 62
     3
100
AcDbLine
 10
248.1602715187499
 20
139.634802288863
 30
0.0
 11
248.1602715187499
 21
147.634802288863
 31
0.0
  0
ARC
  5
725
330
1A
100
AcDbEntity
  8
SEIHIN
  6
CONTINUOUS
 62
     3
100
AcDbCircle
 10
245.4015715187499
 20
175.743302288863
 30
0.0
 40
7.999985999999999
100
AcDbArc
 50
279.1989319999999
 51
350.8010680000001
  0
ARC
  5
726
330
1A
100
AcDbEntity
  8
SEIHIN
  6
CONTINUOUS
 62
     3
100
AcDbCircle
 10
245.4015715187499
 20
175.743302288863
 30
0.0
 40
8.999945
100
AcDbArc
 50
279.199206
 51
350.801423
  0
ARC
  5
727
330
1A
100
AcDbEntity
  8
SEIHIN
  6
CONTINUOUS
 62
     3
100
AcDbCircle
 10
249.1602715187499
 20
163.298502288863
 30
0.0
 40
2.000062999999999
100
AcDbArc
 50
106.805978
 51
180.0
  0
ARC
  5
728
330
1A
100
AcDbEntity
  8
SEIHIN
  6
CONTINUOUS
 62
     3
100
AcDbCircle
 10
247.1602715187499
 20
164.884802288863
 30
0.0
 40
2.999991999999999
100
AcDbArc
 50
99.19920600000002
 51
180.0
  0
ARC
  5
729
330
1A
100
AcDbEntity
  8
SEIHIN
  6
CONTINUOUS
 62
     3
100
AcDbCircle
 10
247.1602715187499
 20
164.884802288863
 30
0.0
 40
2.000016999999999
100
AcDbArc
 50
99.20093799999996
 51
180.0
  0
ARC
  5
72A
330
1A
100
AcDbEntity
  8
SEIHIN
  6
CONTINUOUS
 62
     3
100
AcDbCircle
 10
245.4015715187499
 20
175.743302288863
 30
0.0
 40
10.999911
100
AcDbArc
 50
286.8053619999999
 51
343.1952869999999
  0
ARC
  5
72B
330
1A
100
AcDbEntity
  8
SEIHIN
  6
CONTINUOUS
 62
     3
100
AcDbCircle
 10
256.2600715187499
 20
173.984802288863
 30
0.0
 40
2.000008999999999
100
AcDbArc
 50
90.0
 51
170.8018899999999
  0
ARC
  5
72C
330
1A
100
AcDbEntity
  8
SEIHIN
  6
CONTINUOUS
 62
     3
100
AcDbCircle
 10
256.2600715187499
 20
173.984802288863
 30
0.0
 40
2.999991999999999
100
AcDbArc
 50
90.0
 51
170.8007939999999
  0
ARC
  5
72D
330
1A
100
AcDbEntity
  8
SEIHIN
  6
CONTINUOUS
 62
     3
100
AcDbCircle
 10
257.8463715187499
 20
171.984802288863
 30
0.0
 40
2.000000999999999
100
AcDbArc
 50
90.0
 51
163.195936
  0
LINE
  5
72E
330
1A
100
AcDbEntity
  8
SEIHIN
  6
CONTINUOUS
 62
     3
100
AcDbLine
 10
307.8600715187499
 20
163.298602288863
 30
0.0
 11
307.8601715187499
 21
148.634802288863
 31
0.0
  0
LINE
  5
72F
330
1A
100
AcDbEntity
  8
SEIHIN
  6
CONTINUOUS
 62
     3
100
AcDbLine
 10
306.8600715187499
 20
139.634802288863
 30
0.0
 11
306.8600715187499
 21
147.634802288863
 31
0.0
  0
ARC
  5
730
330
1A
100
AcDbEntity
  8
SEIHIN
  6
CONTINUOUS
 62
     3
100
AcDbCircle
 10
307.8600715187499
 20
139.634802288863
 30
0.0
 40
1.0
100
AcDbArc
 50
180.0
 51
270.0057299999999
  0
ARC
  5
731
330
1A
100
AcDbEntity
  8
SEIHIN
  6
CONTINUOUS
 62
     3
100
AcDbCircle
 10
307.8600715187499
 20
147.634802288863
 30
0.0
 40
1.0
100
AcDbArc
 50
90.0
 51
180.0
  0
ARC
  5
732
330
1A
100
AcDbEntity
  8
SEIHIN
  6
CONTINUOUS
 62
     3
100
AcDbCircle
 10
309.6185715187499
 20
175.743502288863
 30
0.0
 40
7.999994
100
AcDbArc
 50
189.199639
 51
260.801068
  0
ARC
  5
733
330
1A
100
AcDbEntity
  8
SEIHIN
  6
CONTINUOUS
 62
     3
100
AcDbCircle
 10
309.6185715187499
 20
175.743502288863
 30
0.0
 40
11.000022
100
AcDbArc
 50
196.805212
 51
253.1949389999999
  0
ARC
  5
734
330
1A
100
AcDbEntity
  8
SEIHIN
  6
CONTINUOUS
 62
     3
100
AcDbCircle
 10
309.6185715187499
 20
175.743502288863
 30
0.0
 40
9.000002
100
AcDbArc
 50
189.1992059999999
 51
260.8008959999999
  0
ARC
  5
735
330
1A
100
AcDbEntity
  8
SEIHIN
  6
CONTINUOUS
 62
     3
100
AcDbCircle
 10
305.8600715187499
 20
163.298602288863
 30
0.0
 40
2.000016
100
AcDbArc
 50
0.0
 51
73.19319400000003
  0
ARC
  5
736
330
1A
100
AcDbEntity
  8
SEIHIN
  6
CONTINUOUS
 62
     3
100
AcDbCircle
 10
307.8600715187499
 20
164.884902288863
 30
0.0
 40
2.000016999999999
100
AcDbArc
 50
0.0
 51
80.79906200000001
  0
ARC
  5
737
330
1A
100
AcDbEntity
  8
SEIHIN
  6
CONTINUOUS
 62
     3
100
AcDbCircle
 10
307.8600715187499
 20
164.884902288863
 30
0.0
 40
3.000041999999999
100
AcDbArc
 50
0.0
 51
80.80109999999999
  0
ARC
  5
738
330
1A
100
AcDbEntity
  8
SEIHIN
  6
CONTINUOUS
 62
     3
100
AcDbCircle
 10
298.7600715187499
 20
173.984902288863
 30
0.0
 40
2.999991999999999
100
AcDbArc
 50
9.199206000000003
 51
90.0
  0
ARC
  5
739
330
1A
100
AcDbEntity
  8
SEIHIN
  6
CONTINUOUS
 62
     3
100
AcDbCircle
 10
298.7600715187499
 20
173.984902288863
 30
0.0
 40
2.000016999999999
100
AcDbArc
 50
9.200937999999982
 51
90.0
  0
ARC
  5
73A
330
1A
100
AcDbEntity
  8
SEIHIN
  6
CONTINUOUS
 62
     3
100
AcDbCircle
 10
297.1737715187499
 20
171.984902288863
 30
0.0
 40
2.000016
100
AcDbArc
 50
16.80680599999996
 51
90.0
  0
LINE
  5
89D
330
1A
100
AcDbEntity
  8
CENTER_L
  6
CENTER
 62
     1
 48
5.0
100
AcDbLine
 10
237.1600666921338
 20
143.634802288863
 30
0.0
 11
319.3569046979425
 21
143.634802288863
 31
0.0
  0
LINE
  5
89E
330
1A
100
AcDbEntity
  8
CENTER_L
  6
CENTER
 62
     1
 48
5.0
100
AcDbLine
 10
129.9848475729114
 20
143.634802288863
 30
0.0
 11
164.3422281154608
 21
143.634802288863
 31
0.0
  0
VIEWPORT
  5
22
330
17
100
AcDbEntity
 67
     1
  8
0
100
AcDbViewport
 10
313.6808219178082
 20
148.5
 30
0.0
 40
627.3616438356165
 41
297.0
 68
     2
 69
     1
1001
ACAD
1000
MVIEW
1002
{
1070
    16
1010
0.0
1020
0.0
1030
0.0
1010
0.0
1020
0.0
1030
1.0
1040
0.0
1040
297.0
1040
313.6808219178082
1040
148.5
1040
50.0
1040
0.0
1040
0.0
1070
     0
1070
   100
1070
     1
1070
     0
1070
     0
1070
     0
1070
     0
1070
     0
1040
0.0
1040
0.0
1040
0.0
1040
1.0
1040
1.0
1040
10.0
1040
10.0
1070
     0
1002
{
1002
}
1002
}
  0
VIEWPORT
  5
64
330
17
100
AcDbEntity
 67
     1
  8
VIEWPORT
100
AcDbViewport
 10
210.0
 20
148.5
 30
0.0
 40
420.0
 41
297.0
 68
     1
 69
     2
1001
ACAD
1000
MVIEW
1002
{
1070
    16
1010
0.0
1020
0.0
1030
0.0
1010
0.0
1020
0.0
1030
1.0
1040
0.0
1040
302.9399999999998
1040
210.0
1040
148.5
1040
50.0
1040
0.0
1040
0.0
1070
     0
1070
   100
1070
     1
1070
     0
1070
     0
1070
     0
1070
     0
1070
     0
1040
0.0
1040
0.0
1040
0.0
1040
5.0
1040
5.0
1040
0.0
1040
0.0
1070
     0
1002
{
1002
}
1002
}
  0
ENDSEC
  0
SECTION
  2
OBJECTS
  0
DICTIONARY
  5
C
330
0
100
AcDbDictionary
  3
ACAD_GROUP
350
D
  3
ACAD_LAYOUT
350
893
  3
ACAD_MLINESTYLE
350
E
  3
ACAD_PLOTSETTINGS
350
894
1001
ACAD
1000
TREAT_AS_HARD
1070
     0
  0
DICTIONARY
  5
92B
330
1A
100
AcDbDictionary
  3
ACAD_LAYOUTSELFREF
350
96F
1001
ACAD
1000
TREAT_AS_HARD
1070
     1
  0
DICTIONARY
  5
929
330
17
100
AcDbDictionary
  3
ACAD_LAYOUTSELFREF
350
96E
1001
ACAD
1000
TREAT_AS_HARD
1070
     1
  0
DICTIONARY
  5
D
102
{ACAD_REACTORS
330
C
102
}
330
C
100
AcDbDictionary
1001
ACAD
1000
TREAT_AS_HARD
1070
     0
  0
DICTIONARY
  5
893
102
{ACAD_REACTORS
330
C
102
}
330
C
100
AcDbDictionary
1001
ACAD
1000
TREAT_AS_HARD
1070
     0
  0
DICTIONARY
  5
E
102
{ACAD_REACTORS
330
C
102
}
330
C
100
AcDbDictionary
  3
STANDARD
350
13
1001
ACAD
1000
TREAT_AS_HARD
1070
     0
  0
DICTIONARY
  5
894
102
{ACAD_REACTORS
330
C
102
}
330
C
100
AcDbDictionary
1001
ACAD
1000
TREAT_AS_HARD
1070
     0
  0
XRECORD
  5
96F
102
{ACAD_REACTORS
330
92B
102
}
330
92B
100
AcDbXrecord
340
1A
  0
XRECORD
  5
96E
102
{ACAD_REACTORS
330
929
102
}
330
929
100
AcDbXrecord
340
17
  0
MLINESTYLE
  5
13
102
{ACAD_REACTORS
330
E
102
}
330
E
100
AcDbMlineStyle
  2
STANDARD
 70
     0
  3

 62
     0
 51
90.0
 52
90.0
 71
     2
 49
0.5
 62
   256
  6
BYLAYER
 49
-0.5
 62
   256
  6
BYLAYER
  0
ENDSEC
  0
EOF
