  0
SECTION
  2
HEADER
  9
$ACADVER
  1
AC1012
  9
$DWGCODEPAGE
  3
dos932
  9
$INSBASE
 10
0.0
 20
0.0
 30
0.0
  9
$EXTMIN
 10
5.0
 20
2.449000558492456
 30
0.0
  9
$EXTMAX
 10
403.0
 20
282.0
 30
0.0
  9
$LIMMIN
 10
0.0
 20
0.0
  9
$LIMMAX
 10
420.0
 20
297.0
  9
$ORTHOMODE
 70
     1
  9
$REGENMODE
 70
     1
  9
$FILLMODE
 70
     1
  9
$QTEXTMODE
 70
     0
  9
$MIRRTEXT
 70
     1
  9
$DRAGMODE
 70
     2
  9
$LTSCALE
 40
1.0
  9
$OSMODE
 70
    37
  9
$ATTMODE
 70
     1
  9
$TEXTSIZE
 40
2.5
  9
$TRACEWID
 40
1.0
  9
$TEXTSTYLE
  7
STANDARD
  9
$CLAYER
  8
SUNPOU
  9
$CELTYPE
  6
BYLAYER
  9
$CECOLOR
 62
   256
  9
$CELTSCALE
 40
1.0
  9
$DELOBJ
 70
     1
  9
$DISPSILH
 70
     0
  9
$DIMSCALE
 40
1.0
  9
$DIMASZ
 40
3.0
  9
$DIMEXO
 40
3.0
  9
$DIMDLI
 40
7.0
  9
$DIMRND
 40
0.0
  9
$DIMDLE
 40
0.0
  9
$DIMEXE
 40
1.5
  9
$DIMTP
 40
0.0
  9
$DIMTM
 40
0.0
  9
$DIMTXT
 40
3.0
  9
$DIMCEN
 40
150.0
  9
$DIMTSZ
 40
0.0
  9
$DIMTOL
 70
     0
  9
$DIMLIM
 70
     0
  9
$DIMTIH
 70
     0
  9
$DIMTOH
 70
     0
  9
$DIMSE1
 70
     0
  9
$DIMSE2
 70
     0
  9
$DIMTAD
 70
     3
  9
$DIMZIN
 70
     0
  9
$DIMBLK
  1

  9
$DIMASO
 70
     1
  9
$DIMSHO
 70
     1
  9
$DIMPOST
  1

  9
$DIMAPOST
  1

  9
$DIMALT
 70
     0
  9
$DIMALTD
 70
     2
  9
$DIMALTF
 40
25.4
  9
$DIMLFAC
 40
1.0
  9
$DIMTOFL
 70
     1
  9
$DIMTVP
 40
0.0
  9
$DIMTIX
 70
     0
  9
$DIMSOXD
 70
     0
  9
$DIMSAH
 70
     1
  9
$DIMBLK1
  1
OPEN
  9
$DIMBLK2
  1
OPEN
  9
$DIMSTYLE
  2
STANDARD
  9
$DIMCLRD
 70
   256
  9
$DIMCLRE
 70
   256
  9
$DIMCLRT
 70
   256
  9
$DIMTFAC
 40
1.0
  9
$DIMGAP
 40
1.0
  9
$DIMJUST
 70
     0
  9
$DIMSD1
 70
     0
  9
$DIMSD2
 70
     0
  9
$DIMTOLJ
 70
     1
  9
$DIMTZIN
 70
     0
  9
$DIMALTZ
 70
     0
  9
$DIMALTTZ
 70
     0
  9
$DIMFIT
 70
     3
  9
$DIMUPT
 70
     0
  9
$DIMUNIT
 70
     2
  9
$DIMDEC
 70
     0
  9
$DIMTDEC
 70
     0
  9
$DIMALTU
 70
     2
  9
$DIMALTTD
 70
     2
  9
$DIMTXSTY
  7
STANDARD
  9
$DIMAUNIT
 70
     0
  9
$LUNITS
 70
     2
  9
$LUPREC
 70
     4
  9
$SKETCHINC
 40
1.0
  9
$FILLETRAD
 40
10.0
  9
$AUNITS
 70
     0
  9
$AUPREC
 70
     0
  9
$MENU
  1
.
  9
$ELEVATION
 40
0.0
  9
$PELEVATION
 40
0.0
  9
$THICKNESS
 40
0.0
  9
$LIMCHECK
 70
     0
  9
$BLIPMODE
 70
     0
  9
$CHAMFERA
 40
10.0
  9
$CHAMFERB
 40
10.0
  9
$CHAMFERC
 40
20.0
  9
$CHAMFERD
 40
0.0
  9
$SKPOLY
 70
     0
  9
$TDCREATE
 40
2450994.350997107
  9
$TDUPDATE
 40
2452394.918469954
  9
$TDINDWG
 40
0.0141161690
  9
$TDUSRTIMER
 40
0.0141161690
  9
$USRTIMER
 70
     1
  9
$ANGBASE
 50
0.0
  9
$ANGDIR
 70
     0
  9
$PDMODE
 70
     1
  9
$PDSIZE
 40
0.0
  9
$PLINEWID
 40
0.0
  9
$COORDS
 70
     1
  9
$SPLFRAME
 70
     0
  9
$SPLINETYPE
 70
     6
  9
$SPLINESEGS
 70
     8
  9
$ATTDIA
 70
     0
  9
$ATTREQ
 70
     1
  9
$HANDLING
 70
 10241
  9
$HANDSEED
  5
62A
  9
$SURFTAB1
 70
     6
  9
$SURFTAB2
 70
     6
  9
$SURFTYPE
 70
     6
  9
$SURFU
 70
     6
  9
$SURFV
 70
     6
  9
$UCSNAME
  2

  9
$UCSORG
 10
0.0
 20
0.0
 30
0.0
  9
$UCSXDIR
 10
1.0
 20
0.0
 30
0.0
  9
$UCSYDIR
 10
0.0
 20
1.0
 30
0.0
  9
$PUCSNAME
  2

  9
$PUCSORG
 10
0.0
 20
0.0
 30
0.0
  9
$PUCSXDIR
 10
1.0
 20
0.0
 30
0.0
  9
$PUCSYDIR
 10
0.0
 20
1.0
 30
0.0
  9
$USERI1
 70
     0
  9
$USERI2
 70
     0
  9
$USERI3
 70
     0
  9
$USERI4
 70
     0
  9
$USERI5
 70
     0
  9
$USERR1
 40
0.0
  9
$USERR2
 40
0.0
  9
$USERR3
 40
0.0
  9
$USERR4
 40
0.0
  9
$USERR5
 40
0.0
  9
$WORLDVIEW
 70
     1
  9
$SHADEDGE
 70
     3
  9
$SHADEDIF
 70
    70
  9
$TILEMODE
 70
     1
  9
$MAXACTVP
 70
    16
  9
$PINSBASE
 10
0.0
 20
0.0
 30
0.0
  9
$PLIMCHECK
 70
     0
  9
$PEXTMIN
 10
0.0
 20
0.0
 30
0.0
  9
$PEXTMAX
 10
420.0
 20
297.0
 30
0.0
  9
$PLIMMIN
 10
0.0
 20
0.0
  9
$PLIMMAX
 10
420.0
 20
297.0
  9
$UNITMODE
 70
     0
  9
$VISRETAIN
 70
     0
  9
$PLINEGEN
 70
     0
  9
$PSLTSCALE
 70
     1
  9
$TREEDEPTH
 70
  3020
  9
$PICKSTYLE
 70
     1
  9
$CMLSTYLE
  2
STANDARD
  9
$CMLJUST
 70
     0
  9
$CMLSCALE
 40
1.0
  9
$SAVEIMAGES
 70
     1
  0
ENDSEC
  0
SECTION
  2
CLASSES
  0
CLASS
  1
ACDBDICTIONARYWDFLT
  2
AcDbDictionaryWithDefault
  3
AutoCAD 2000
 90
    32768
280
     0
281
     0
  0
CLASS
  1
ACDBPLACEHOLDER
  2
AcDbPlaceHolder
  3
AutoCAD 2000
 90
    32768
280
     0
281
     0
  0
CLASS
  1
LAYOUT
  2
AcDbLayout
  3
AutoCAD 2000
 90
    32768
280
     0
281
     0
  0
CLASS
  1
LONG_TRANSACTION
  2
AcDbLongTransaction
  3
AutoCAD 2000
 90
    32768
280
     0
281
     0
  0
CLASS
  1
LWPOLYLINE
  2
AcDbPolyline
  3
AutoCAD 2000
 90
    32768
280
     0
281
     1
  0
CLASS
  1
HATCH
  2
AcDbHatch
  3
AutoCAD 2000
 90
    32768
280
     0
281
     1
  0
CLASS
  1
XRECORD
  2
AcDbXrecord
  3
AutoCAD 2000
 90
    32768
280
     0
281
     0
  0
CLASS
  1
LONG_TRANSACTION
  2
AcDbLongTransaction
  3
AutoCAD 2000
 90
    32768
280
     0
281
     0
  0
CLASS
  1
LWPOLYLINE
  2
AcDbPolyline
  3
AutoCAD 2000
 90
    32768
280
     0
281
     1
  0
CLASS
  1
HATCH
  2
AcDbHatch
  3
AutoCAD 2000
 90
    32768
280
     0
281
     1
  0
CLASS
  1
XRECORD
  2
AcDbXrecord
  3
AutoCAD 2000
 90
    32768
280
     0
281
     0
  0
CLASS
  1
LONG_TRANSACTION
  2
AcDbLongTransaction
  3
AutoCAD 2000
 90
    32768
280
     0
281
     0
  0
CLASS
  1
LWPOLYLINE
  2
AcDbPolyline
  3
AutoCAD 2000
 90
    32768
280
     0
281
     1
  0
CLASS
  1
HATCH
  2
AcDbHatch
  3
AutoCAD 2000
 90
    32768
280
     0
281
     1
  0
CLASS
  1
XRECORD
  2
AcDbXrecord
  3
AutoCAD 2000
 90
    32768
280
     0
281
     0
  0
CLASS
  1
LONG_TRANSACTION
  2
AcDbLongTransaction
  3
AutoCAD 2000
 90
    32768
280
     0
281
     0
  0
CLASS
  1
LWPOLYLINE
  2
AcDbPolyline
  3
AutoCAD 2000
 90
    32768
280
     0
281
     1
  0
CLASS
  1
HATCH
  2
AcDbHatch
  3
AutoCAD 2000
 90
    32768
280
     0
281
     1
  0
CLASS
  1
XRECORD
  2
AcDbXrecord
  3
AutoCAD 2000
 90
    32768
280
     0
281
     0
  0
ENDSEC
  0
SECTION
  2
TABLES
  0
TABLE
  2
VPORT
  5
8
330
0
100
AcDbSymbolTable
 70
     2
  0
VPORT
  5
627
330
8
100
AcDbSymbolTableRecord
100
AcDbViewportTableRecord
  2
*ACTIVE
 70
     0
 10
0.0
 20
0.0
 11
1.0
 21
1.0
 12
272.8395832509978
 22
148.5
 13
0.0
 23
0.0
 14
5.0
 24
5.0
 15
0.0
 25
0.0
 16
0.0
 26
0.0
 36
1.0
 17
0.0
 27
0.0
 37
0.0
 40
300.2817679558011
 41
2.169459962756052
 42
50.0
 43
0.0
 44
0.0
 50
0.0
 51
0.0
 71
     0
 72
   100
 73
     1
 74
     0
 75
     0
 76
     0
 77
     0
 78
     0
  0
ENDTAB
  0
TABLE
  2
LTYPE
  5
5
330
0
100
AcDbSymbolTable
 70
     2
  0
LTYPE
  5
14
330
5
100
AcDbSymbolTableRecord
100
AcDbLinetypeTableRecord
  2
BYBLOCK
 70
     0
  3

 72
    65
 73
     0
 40
0.0
  0
LTYPE
  5
15
330
5
100
AcDbSymbolTableRecord
100
AcDbLinetypeTableRecord
  2
BYLAYER
 70
     0
  3

 72
    65
 73
     0
 40
0.0
  0
LTYPE
  5
16
330
5
100
AcDbSymbolTableRecord
100
AcDbLinetypeTableRecord
  2
CONTINUOUS
 70
     0
  3
Solid line
 72
    65
 73
     0
 40
0.0
  0
LTYPE
  5
120
330
5
100
AcDbSymbolTableRecord
100
AcDbLinetypeTableRecord
  2
CENTER
 70
     0
  3
____ _ ____ _ ____ _ ____ _ ____ _ ____ _ ____ 
 72
    65
 73
     4
 40
2.0
 49
1.25
 74
     0
 49
-0.25
 74
     0
 49
0.25
 74
     0
 49
-0.25
 74
     0
  0
ENDTAB
  0
TABLE
  2
LAYER
  5
2
330
0
100
AcDbSymbolTable
 70
     7
  0
LAYER
  5
F
330
2
100
AcDbSymbolTableRecord
100
AcDbLayerTableRecord
  2
0
 70
     0
 62
     7
  6
CONTINUOUS
  0
LAYER
  5
62
330
2
100
AcDbSymbolTableRecord
100
AcDbLayerTableRecord
  2
VIEWPORT
 70
     0
 62
     7
  6
CONTINUOUS
  0
LAYER
  5
6B
330
2
100
AcDbSymbolTableRecord
100
AcDbLayerTableRecord
  2
ZUWAKU
 70
     0
 62
     7
  6
CONTINUOUS
  0
LAYER
  5
1D4
330
2
100
AcDbSymbolTableRecord
100
AcDbLayerTableRecord
  2
SEIHIN
 70
     0
 62
     3
  6
CONTINUOUS
  0
LAYER
  5
1D5
330
2
100
AcDbSymbolTableRecord
100
AcDbLayerTableRecord
  2
SUNPOU
 70
     0
 62
     4
  6
CONTINUOUS
  0
LAYER
  5
1D6
330
2
100
AcDbSymbolTableRecord
100
AcDbLayerTableRecord
  2
CENTER_L
 70
     0
 62
     1
  6
CENTER
  0
LAYER
  5
1D7
330
2
100
AcDbSymbolTableRecord
100
AcDbLayerTableRecord
  2
DEFPOINTS
 70
     0
 62
     7
  6
CONTINUOUS
  0
ENDTAB
  0
TABLE
  2
STYLE
  5
3
330
0
100
AcDbSymbolTable
 70
     1
  0
STYLE
  5
10
330
3
100
AcDbSymbolTableRecord
100
AcDbTextStyleTableRecord
  2
STANDARD
 70
     0
 40
0.0
 41
1.0
 50
0.0
 71
     0
 42
2.5
  3
TXT
  4
bigfont.shx
  0
ENDTAB
  0
TABLE
  2
VIEW
  5
6
330
0
100
AcDbSymbolTable
 70
     0
  0
ENDTAB
  0
TABLE
  2
UCS
  5
7
330
0
100
AcDbSymbolTable
 70
     0
  0
ENDTAB
  0
TABLE
  2
APPID
  5
9
330
0
100
AcDbSymbolTable
 70
     1
  0
APPID
  5
11
330
9
100
AcDbSymbolTableRecord
100
AcDbRegAppTableRecord
  2
ACAD
 70
     0
  0
ENDTAB
  0
TABLE
  2
DIMSTYLE
  5
A
330
0
100
AcDbSymbolTable
 70
     1
  0
DIMSTYLE
105
1D
102
{ACAD_REACTORS
330
2B5
330
2B6
330
2B7
330
2B8
330
2C0
330
2C1
330
2C2
330
2C7
330
31F
330
355
330
356
102
}
330
A
100
AcDbSymbolTableRecord
100
AcDbDimStyleTableRecord
  2
STANDARD
 70
     0
  3

  4

  5

  6

  7

 40
1.0
 41
0.18
 42
0.0625
 43
0.38
 44
0.18
 45
0.0
 46
0.0
 47
0.0
 48
0.0
140
0.18
141
0.09
142
0.0
143
25.4
144
1.0
145
0.0
146
1.0
147
0.09
 71
     0
 72
     0
 73
     1
 74
     1
 75
     0
 76
     0
 77
     0
 78
     0
170
     0
171
     2
172
     0
173
     0
174
     0
175
     0
176
     0
177
     0
178
     0
270
     2
271
     4
272
     4
273
     2
274
     2
340
10
275
     0
280
     0
281
     0
282
     0
283
     1
284
     0
285
     0
286
     0
287
     3
288
     0
  0
ENDTAB
  0
TABLE
  2
BLOCK_RECORD
  5
1
330
0
100
AcDbSymbolTable
 70
    12
  0
BLOCK_RECORD
  5
1A
102
{ACAD_XDICTIONARY
360
5B1
102
}
330
1
100
AcDbSymbolTableRecord
100
AcDbBlockTableRecord
  2
*MODEL_SPACE
  0
BLOCK_RECORD
  5
17
102
{ACAD_XDICTIONARY
360
5AF
102
}
330
1
100
AcDbSymbolTableRecord
100
AcDbBlockTableRecord
  2
*PAPER_SPACE
  0
BLOCK_RECORD
  5
B2
330
1
100
AcDbSymbolTableRecord
100
AcDbBlockTableRecord
  2
_OPEN
  0
BLOCK_RECORD
  5
38B
330
1
100
AcDbSymbolTableRecord
100
AcDbBlockTableRecord
  2
*D1
  0
BLOCK_RECORD
  5
397
330
1
100
AcDbSymbolTableRecord
100
AcDbBlockTableRecord
  2
*D2
  0
BLOCK_RECORD
  5
3A3
330
1
100
AcDbSymbolTableRecord
100
AcDbBlockTableRecord
  2
*D3
  0
BLOCK_RECORD
  5
3AF
330
1
100
AcDbSymbolTableRecord
100
AcDbBlockTableRecord
  2
*D4
  0
BLOCK_RECORD
  5
3BB
330
1
100
AcDbSymbolTableRecord
100
AcDbBlockTableRecord
  2
*D5
  0
BLOCK_RECORD
  5
3C7
330
1
100
AcDbSymbolTableRecord
100
AcDbBlockTableRecord
  2
*D6
  0
BLOCK_RECORD
  5
3D3
330
1
100
AcDbSymbolTableRecord
100
AcDbBlockTableRecord
  2
*D7
  0
BLOCK_RECORD
  5
3E1
330
1
100
AcDbSymbolTableRecord
100
AcDbBlockTableRecord
  2
*D8
  0
BLOCK_RECORD
  5
3ED
330
1
100
AcDbSymbolTableRecord
100
AcDbBlockTableRecord
  2
*D9
  0
BLOCK_RECORD
  5
3F9
330
1
100
AcDbSymbolTableRecord
100
AcDbBlockTableRecord
  2
*D10
  0
BLOCK_RECORD
  5
405
330
1
100
AcDbSymbolTableRecord
100
AcDbBlockTableRecord
  2
*D11
  0
ENDTAB
  0
ENDSEC
  0
SECTION
  2
BLOCKS
  0
BLOCK
  5
1B
330
1A
100
AcDbEntity
  8
0
100
AcDbBlockBegin
  2
*MODEL_SPACE
 70
     0
 10
0.0
 20
0.0
 30
0.0
  3
*MODEL_SPACE
  1

  0
ENDBLK
  5
1C
330
1A
100
AcDbEntity
  8
0
100
AcDbBlockEnd
  0
BLOCK
  5
18
330
17
100
AcDbEntity
 67
     1
  8
0
100
AcDbBlockBegin
  2
*PAPER_SPACE
 70
     0
 10
0.0
 20
0.0
 30
0.0
  3
*PAPER_SPACE
  1

  0
ENDBLK
  5
19
330
17
100
AcDbEntity
 67
     1
  8
0
100
AcDbBlockEnd
  0
BLOCK
  5
B3
330
B2
100
AcDbEntity
  8
0
100
AcDbBlockBegin
  2
_OPEN
 70
     0
 10
0.0
 20
0.0
 30
0.0
  3
_OPEN
  1

  0
LINE
  5
B4
330
B2
100
AcDbEntity
  8
0
  6
BYBLOCK
 62
     0
100
AcDbLine
 10
-1.0
 20
0.1666666666666666
 30
0.0
 11
0.0
 21
0.0
 31
0.0
  0
LINE
  5
B5
330
B2
100
AcDbEntity
  8
0
  6
BYBLOCK
 62
     0
100
AcDbLine
 10
0.0
 20
0.0
 30
0.0
 11
-1.0
 21
-0.1666666666666666
 31
0.0
  0
LINE
  5
B6
330
B2
100
AcDbEntity
  8
0
  6
BYBLOCK
 62
     0
100
AcDbLine
 10
0.0
 20
0.0
 30
0.0
 11
-1.0
 21
0.0
 31
0.0
  0
ENDBLK
  5
B7
330
B2
100
AcDbEntity
  8
0
100
AcDbBlockEnd
  0
BLOCK
  5
4DF
330
38B
100
AcDbEntity
  8
0
100
AcDbBlockBegin
  2
*D1
 70
     1
 10
0.0
 20
0.0
 30
0.0
  3
*D1
  1

  0
LINE
  5
521
330
38B
100
AcDbEntity
  8
SUNPOU
 62
     4
100
AcDbLine
 10
268.0637585136696
 20
185.5569823784508
 30
0.0
 11
235.4732579263719
 21
185.5569823784508
 31
0.0
  0
LINE
  5
522
330
38B
100
AcDbEntity
  8
SUNPOU
 62
     4
100
AcDbLine
 10
279.2863697823475
 20
109.8569328840031
 30
0.0
 11
235.4732579263719
 21
109.8569328840031
 31
0.0
  0
LINE
  5
523
330
38B
100
AcDbEntity
  8
SUNPOU
 62
     4
100
AcDbLine
 10
236.9732579263719
 20
182.5569823784508
 30
0.0
 11
236.9732579263719
 21
112.8569328840031
 31
0.0
  0
INSERT
  5
524
330
38B
100
AcDbEntity
  8
SUNPOU
 62
     4
100
AcDbBlockReference
  2
_OPEN
 10
236.9732579263719
 20
185.5569823784508
 30
0.0
 41
3.0
 42
3.0
 43
3.0
 50
90.0
  0
INSERT
  5
525
330
38B
100
AcDbEntity
  8
SUNPOU
 62
     4
100
AcDbBlockReference
  2
_OPEN
 10
236.9732579263719
 20
109.8569328840031
 30
0.0
 41
3.0
 42
3.0
 43
3.0
 50
270.0
  0
MTEXT
  5
526
330
38B
100
AcDbEntity
  8
SUNPOU
 62
     4
100
AcDbMText
 10
234.4732579263718
 20
147.706957631227
 30
0.0
 40
3.0
 41
0.0
 71
     5
 72
     1
  1
\A1;76
 11
0.0000000000000001
 21
1.0
 31
0.0
1001
ACAD
1000
MTEXTBEGIN
1070
    73
1070
     1
1070
    44
1040
1.0
1070
    74
1070
     0
1000
MTEXTEND
1000
MTEXTBEGIN
1070
    73
1070
     1
1070
    44
1040
1.0
1070
    74
1070
     0
1000
MTEXTEND
1000
MTEXTBEGIN
1070
    73
1070
     1
1070
    44
1040
1.0
1070
    74
1070
     0
1000
MTEXTEND
1000
MTEXTBEGIN
1070
    73
1070
     1
1070
    44
1040
1.0
1070
    74
1070
     0
1000
MTEXTEND
  0
POINT
  5
527
330
38B
100
AcDbEntity
  8
DEFPOINTS
 62
     0
100
AcDbPoint
 10
271.0637585136696
 20
185.5569823784508
 30
0.0
  0
POINT
  5
528
330
38B
100
AcDbEntity
  8
DEFPOINTS
 62
     0
100
AcDbPoint
 10
282.2863697823474
 20
109.8569328840031
 30
0.0
  0
POINT
  5
529
330
38B
100
AcDbEntity
  8
DEFPOINTS
 62
     0
100
AcDbPoint
 10
236.9732579263719
 20
109.8569328840031
 30
0.0
  0
ENDBLK
  5
4E9
330
38B
100
AcDbEntity
  8
0
100
AcDbBlockEnd
  0
BLOCK
  5
4D4
330
397
100
AcDbEntity
  8
0
100
AcDbBlockBegin
  2
*D2
 70
     1
 10
0.0
 20
0.0
 30
0.0
  3
*D2
  1

  0
LINE
  5
52A
330
397
100
AcDbEntity
  8
SUNPOU
 62
     4
100
AcDbLine
 10
268.0637585136696
 20
185.5569823784508
 30
0.0
 11
225.8422010528184
 21
185.5569823784508
 31
0.0
  0
LINE
  5
52B
330
397
100
AcDbEntity
  8
SUNPOU
 62
     4
100
AcDbLine
 10
279.3139697824474
 20
84.85693288400318
 30
0.0
 11
225.8422010528184
 21
84.85693288400318
 31
0.0
  0
LINE
  5
52C
330
397
100
AcDbEntity
  8
SUNPOU
 62
     4
100
AcDbLine
 10
227.3422010528184
 20
182.5569823784508
 30
0.0
 11
227.3422010528184
 21
87.85693288400317
 31
0.0
  0
INSERT
  5
52D
330
397
100
AcDbEntity
  8
SUNPOU
 62
     4
100
AcDbBlockReference
  2
_OPEN
 10
227.3422010528184
 20
185.5569823784508
 30
0.0
 41
3.0
 42
3.0
 43
3.0
 50
90.0
  0
INSERT
  5
52E
330
397
100
AcDbEntity
  8
SUNPOU
 62
     4
100
AcDbBlockReference
  2
_OPEN
 10
227.3422010528184
 20
84.85693288400318
 30
0.0
 41
3.0
 42
3.0
 43
3.0
 50
270.0
  0
MTEXT
  5
52F
330
397
100
AcDbEntity
  8
SUNPOU
 62
     4
100
AcDbMText
 10
224.8422010528184
 20
135.206957631227
 30
0.0
 40
3.0
 41
0.0
 71
     5
 72
     1
  1
\A1;101
 11
0.0000000000000001
 21
1.0
 31
0.0
1001
ACAD
1000
MTEXTBEGIN
1070
    73
1070
     1
1070
    44
1040
1.0
1070
    74
1070
     0
1000
MTEXTEND
1000
MTEXTBEGIN
1070
    73
1070
     1
1070
    44
1040
1.0
1070
    74
1070
     0
1000
MTEXTEND
1000
MTEXTBEGIN
1070
    73
1070
     1
1070
    44
1040
1.0
1070
    74
1070
     0
1000
MTEXTEND
1000
MTEXTBEGIN
1070
    73
1070
     1
1070
    44
1040
1.0
1070
    74
1070
     0
1000
MTEXTEND
  0
POINT
  5
530
330
397
100
AcDbEntity
  8
DEFPOINTS
 62
     0
100
AcDbPoint
 10
271.0637585136696
 20
185.5569823784508
 30
0.0
  0
POINT
  5
531
330
397
100
AcDbEntity
  8
DEFPOINTS
 62
     0
100
AcDbPoint
 10
282.3139697824474
 20
84.85693288400318
 30
0.0
  0
POINT
  5
532
330
397
100
AcDbEntity
  8
DEFPOINTS
 62
     0
100
AcDbPoint
 10
227.3422010528184
 20
84.85693288400318
 30
0.0
  0
ENDBLK
  5
4DE
330
397
100
AcDbEntity
  8
0
100
AcDbBlockEnd
  0
BLOCK
  5
4A8
330
3A3
100
AcDbEntity
  8
0
100
AcDbBlockBegin
  2
*D3
 70
     1
 10
0.0
 20
0.0
 30
0.0
  3
*D3
  1

  0
LINE
  5
533
330
3A3
100
AcDbEntity
  8
SUNPOU
 62
     4
100
AcDbLine
 10
125.0740353194885
 20
111.8569328840031
 30
0.0
 11
125.0740353194885
 21
213.7429583220867
 31
0.0
  0
LINE
  5
534
330
3A3
100
AcDbEntity
  8
SUNPOU
 62
     4
100
AcDbLine
 10
145.0740853194885
 20
195.5567606818695
 30
0.0
 11
145.0740853194885
 21
213.7429583220867
 31
0.0
  0
LINE
  5
535
330
3A3
100
AcDbEntity
  8
SUNPOU
 62
     4
100
AcDbLine
 10
128.0740353194885
 20
212.2429583220867
 30
0.0
 11
142.0740853194885
 21
212.2429583220867
 31
0.0
  0
INSERT
  5
536
330
3A3
100
AcDbEntity
  8
SUNPOU
 62
     4
100
AcDbBlockReference
  2
_OPEN
 10
125.0740353194885
 20
212.2429583220867
 30
0.0
 41
3.0
 42
3.0
 43
3.0
 50
180.0
  0
INSERT
  5
537
330
3A3
100
AcDbEntity
  8
SUNPOU
 62
     4
100
AcDbBlockReference
  2
_OPEN
 10
145.0740853194885
 20
212.2429583220867
 30
0.0
 41
3.0
 42
3.0
 43
3.0
  0
MTEXT
  5
538
330
3A3
100
AcDbEntity
  8
SUNPOU
 62
     4
100
AcDbMText
 10
135.0740603194885
 20
214.7429583220867
 30
0.0
 40
3.0
 41
0.0
 71
     5
 72
     1
  1
\A1;20
1001
ACAD
1000
MTEXTBEGIN
1070
    73
1070
     1
1070
    44
1040
1.0
1070
    74
1070
     0
1000
MTEXTEND
1000
MTEXTBEGIN
1070
    73
1070
     1
1070
    44
1040
1.0
1070
    74
1070
     0
1000
MTEXTEND
1000
MTEXTBEGIN
1070
    73
1070
     1
1070
    44
1040
1.0
1070
    74
1070
     0
1000
MTEXTEND
1000
MTEXTBEGIN
1070
    73
1070
     1
1070
    44
1040
1.0
1070
    74
1070
     0
1000
MTEXTEND
  0
POINT
  5
539
330
3A3
100
AcDbEntity
  8
DEFPOINTS
 62
     0
100
AcDbPoint
 10
125.0740353194885
 20
108.8569328840031
 30
0.0
  0
POINT
  5
53A
330
3A3
100
AcDbEntity
  8
DEFPOINTS
 62
     0
100
AcDbPoint
 10
145.0740853194885
 20
192.5567606818695
 30
0.0
  0
POINT
  5
53B
330
3A3
100
AcDbEntity
  8
DEFPOINTS
 62
     0
100
AcDbPoint
 10
145.0740853194885
 20
212.2429583220867
 30
0.0
  0
ENDBLK
  5
4B2
330
3A3
100
AcDbEntity
  8
0
100
AcDbBlockEnd
  0
BLOCK
  5
49D
330
3AF
100
AcDbEntity
  8
0
100
AcDbBlockBegin
  2
*D4
 70
     1
 10
0.0
 20
0.0
 30
0.0
  3
*D4
  1

  0
LINE
  5
53C
330
3AF
100
AcDbEntity
  8
SUNPOU
 62
     4
100
AcDbLine
 10
125.0740353194885
 20
111.8569328840031
 30
0.0
 11
125.0740353194885
 21
222.9771461712479
 31
0.0
  0
LINE
  5
53D
330
3AF
100
AcDbEntity
  8
SUNPOU
 62
     4
100
AcDbLine
 10
165.0742353194885
 20
112.8569328840031
 30
0.0
 11
165.0742353194885
 21
222.9771461712479
 31
0.0
  0
LINE
  5
53E
330
3AF
100
AcDbEntity
  8
SUNPOU
 62
     4
100
AcDbLine
 10
128.0740353194885
 20
221.4771461712479
 30
0.0
 11
162.0742353194885
 21
221.4771461712479
 31
0.0
  0
INSERT
  5
53F
330
3AF
100
AcDbEntity
  8
SUNPOU
 62
     4
100
AcDbBlockReference
  2
_OPEN
 10
125.0740353194885
 20
221.4771461712479
 30
0.0
 41
3.0
 42
3.0
 43
3.0
 50
180.0
  0
INSERT
  5
540
330
3AF
100
AcDbEntity
  8
SUNPOU
 62
     4
100
AcDbBlockReference
  2
_OPEN
 10
165.0742353194885
 20
221.4771461712479
 30
0.0
 41
3.0
 42
3.0
 43
3.0
  0
MTEXT
  5
541
330
3AF
100
AcDbEntity
  8
SUNPOU
 62
     4
100
AcDbMText
 10
145.0741353194885
 20
223.9771461712479
 30
0.0
 40
3.0
 41
0.0
 71
     5
 72
     1
  1
\A1;40
1001
ACAD
1000
MTEXTBEGIN
1070
    73
1070
     1
1070
    44
1040
1.0
1070
    74
1070
     0
1000
MTEXTEND
1000
MTEXTBEGIN
1070
    73
1070
     1
1070
    44
1040
1.0
1070
    74
1070
     0
1000
MTEXTEND
1000
MTEXTBEGIN
1070
    73
1070
     1
1070
    44
1040
1.0
1070
    74
1070
     0
1000
MTEXTEND
1000
MTEXTBEGIN
1070
    73
1070
     1
1070
    44
1040
1.0
1070
    74
1070
     0
1000
MTEXTEND
  0
POINT
  5
542
330
3AF
100
AcDbEntity
  8
DEFPOINTS
 62
     0
100
AcDbPoint
 10
125.0740353194885
 20
108.8569328840031
 30
0.0
  0
POINT
  5
543
330
3AF
100
AcDbEntity
  8
DEFPOINTS
 62
     0
100
AcDbPoint
 10
165.0742353194885
 20
109.8569328840031
 30
0.0
  0
POINT
  5
544
330
3AF
100
AcDbEntity
  8
DEFPOINTS
 62
     0
100
AcDbPoint
 10
165.0742353194885
 20
221.4771461712479
 30
0.0
  0
ENDBLK
  5
4A7
330
3AF
100
AcDbEntity
  8
0
100
AcDbBlockEnd
  0
BLOCK
  5
500
330
3BB
100
AcDbEntity
  8
0
100
AcDbBlockBegin
  2
*D5
 70
     1
 10
0.0
 20
0.0
 30
0.0
  3
*D5
  1

  0
LINE
  5
545
330
3BB
100
AcDbEntity
  8
SUNPOU
 62
     4
100
AcDbLine
 10
123.0740353196944
 20
109.8569328840031
 30
0.0
 11
110.3600744324097
 21
109.8569328840031
 31
0.0
  0
LINE
  5
546
330
3BB
100
AcDbEntity
  8
SUNPOU
 62
     4
100
AcDbLine
 10
123.0742353194885
 20
84.85683288400315
 30
0.0
 11
110.3600744324097
 21
84.85683288400315
 31
0.0
  0
LINE
  5
547
330
3BB
100
AcDbEntity
  8
SUNPOU
 62
     4
100
AcDbLine
 10
111.8600744324097
 20
106.8569328840031
 30
0.0
 11
111.8600744324097
 21
87.85683288400313
 31
0.0
  0
INSERT
  5
548
330
3BB
100
AcDbEntity
  8
SUNPOU
 62
     4
100
AcDbBlockReference
  2
_OPEN
 10
111.8600744324097
 20
109.8569328840031
 30
0.0
 41
3.0
 42
3.0
 43
3.0
 50
90.0
  0
INSERT
  5
549
330
3BB
100
AcDbEntity
  8
SUNPOU
 62
     4
100
AcDbBlockReference
  2
_OPEN
 10
111.8600744324097
 20
84.85683288400315
 30
0.0
 41
3.0
 42
3.0
 43
3.0
 50
270.0
  0
MTEXT
  5
54A
330
3BB
100
AcDbEntity
  8
SUNPOU
 62
     4
100
AcDbMText
 10
109.3600744324096
 20
97.3568828840032
 30
0.0
 40
3.0
 41
0.0
 71
     5
 72
     1
  1
\A1;25
 11
0.0000000000000001
 21
1.0
 31
0.0
1001
ACAD
1000
MTEXTBEGIN
1070
    73
1070
     1
1070
    44
1040
1.0
1070
    74
1070
     0
1000
MTEXTEND
1000
MTEXTBEGIN
1070
    73
1070
     1
1070
    44
1040
1.0
1070
    74
1070
     0
1000
MTEXTEND
1000
MTEXTBEGIN
1070
    73
1070
     1
1070
    44
1040
1.0
1070
    74
1070
     0
1000
MTEXTEND
1000
MTEXTBEGIN
1070
    73
1070
     1
1070
    44
1040
1.0
1070
    74
1070
     0
1000
MTEXTEND
  0
POINT
  5
54B
330
3BB
100
AcDbEntity
  8
DEFPOINTS
 62
     0
100
AcDbPoint
 10
126.0740353196944
 20
109.8569328840031
 30
0.0
  0
POINT
  5
54C
330
3BB
100
AcDbEntity
  8
DEFPOINTS
 62
     0
100
AcDbPoint
 10
126.0742353194885
 20
84.85683288400315
 30
0.0
  0
POINT
  5
54D
330
3BB
100
AcDbEntity
  8
DEFPOINTS
 62
     0
100
AcDbPoint
 10
111.8600744324097
 20
84.85683288400315
 30
0.0
  0
ENDBLK
  5
50A
330
3BB
100
AcDbEntity
  8
0
100
AcDbBlockEnd
  0
BLOCK
  5
4C9
330
3C7
100
AcDbEntity
  8
0
100
AcDbBlockBegin
  2
*D6
 70
     1
 10
0.0
 20
0.0
 30
0.0
  3
*D6
  1

  0
LINE
  5
54E
330
3C7
100
AcDbEntity
  8
SUNPOU
 62
     4
100
AcDbLine
 10
158.0741353194885
 20
105.8569328840031
 30
0.0
 11
179.8775239342613
 21
105.8569328840031
 31
0.0
  0
LINE
  5
54F
330
3C7
100
AcDbEntity
  8
SUNPOU
 62
     4
100
AcDbLine
 10
143.0742353194885
 20
88.85693288400316
 30
0.0
 11
179.8775239342613
 21
88.85693288400316
 31
0.0
  0
LINE
  5
550
330
3C7
100
AcDbEntity
  8
SUNPOU
 62
     4
100
AcDbLine
 10
178.3775239342613
 20
102.8569328840031
 30
0.0
 11
178.3775239342613
 21
91.85693288400315
 31
0.0
  0
INSERT
  5
551
330
3C7
100
AcDbEntity
  8
SUNPOU
 62
     4
100
AcDbBlockReference
  2
_OPEN
 10
178.3775239342613
 20
105.8569328840031
 30
0.0
 41
3.0
 42
3.0
 43
3.0
 50
90.0
  0
INSERT
  5
552
330
3C7
100
AcDbEntity
  8
SUNPOU
 62
     4
100
AcDbBlockReference
  2
_OPEN
 10
178.3775239342613
 20
88.85693288400316
 30
0.0
 41
3.0
 42
3.0
 43
3.0
 50
270.0
  0
MTEXT
  5
553
330
3C7
100
AcDbEntity
  8
SUNPOU
 62
     4
100
AcDbMText
 10
175.8775239342613
 20
97.3569328840032
 30
0.0
 40
3.0
 41
0.0
 71
     5
 72
     1
  1
\A1;17
 11
0.0000000000000001
 21
1.0
 31
0.0
1001
ACAD
1000
MTEXTBEGIN
1070
    73
1070
     1
1070
    44
1040
1.0
1070
    74
1070
     0
1000
MTEXTEND
1000
MTEXTBEGIN
1070
    73
1070
     1
1070
    44
1040
1.0
1070
    74
1070
     0
1000
MTEXTEND
1000
MTEXTBEGIN
1070
    73
1070
     1
1070
    44
1040
1.0
1070
    74
1070
     0
1000
MTEXTEND
1000
MTEXTBEGIN
1070
    73
1070
     1
1070
    44
1040
1.0
1070
    74
1070
     0
1000
MTEXTEND
  0
POINT
  5
554
330
3C7
100
AcDbEntity
  8
DEFPOINTS
 62
     0
100
AcDbPoint
 10
155.0741353194885
 20
105.8569328840031
 30
0.0
  0
POINT
  5
555
330
3C7
100
AcDbEntity
  8
DEFPOINTS
 62
     0
100
AcDbPoint
 10
140.0742353194885
 20
88.85693288400316
 30
0.0
  0
POINT
  5
556
330
3C7
100
AcDbEntity
  8
DEFPOINTS
 62
     0
100
AcDbPoint
 10
178.3775239342613
 20
88.85693288400316
 30
0.0
  0
ENDBLK
  5
4D3
330
3C7
100
AcDbEntity
  8
0
100
AcDbBlockEnd
  0
BLOCK
  5
453
330
3D3
100
AcDbEntity
  8
0
100
AcDbBlockBegin
  2
*D7
 70
     1
 10
0.0
 20
0.0
 30
0.0
  3
*D7
  1

  0
LINE
  5
557
330
3D3
100
AcDbEntity
  8
SUNPOU
 62
     4
100
AcDbLine
 10
131.1946156300153
 20
85.85691320725379
 30
0.0
 11
134.0382816792712
 21
85.85691320725379
 31
0.0
  0
LINE
  5
558
330
3D3
100
AcDbEntity
  8
SUNPOU
 62
     4
100
AcDbLine
 10
131.1946156300153
 20
84.85683288400315
 30
0.0
 11
134.0382816792712
 21
84.85683288400315
 31
0.0
  0
LINE
  5
559
330
3D3
100
AcDbEntity
  8
SUNPOU
 62
     4
100
AcDbLine
 10
132.5382816792712
 20
88.85691320725378
 30
0.0
 11
132.5382816792712
 21
91.85691320725378
 31
0.0
  0
LINE
  5
55A
330
3D3
100
AcDbEntity
  8
SUNPOU
 62
     4
100
AcDbLine
 10
132.5382816792712
 20
81.85683288400314
 30
0.0
 11
132.5382816792712
 21
69.35683288400314
 31
0.0
  0
LINE
  5
55B
330
3D3
100
AcDbEntity
  8
SUNPOU
 62
     4
100
AcDbLine
 10
132.5382816792712
 20
85.85691320725379
 30
0.0
 11
132.5382816792712
 21
84.85683288400315
 31
0.0
  0
INSERT
  5
55C
330
3D3
100
AcDbEntity
  8
SUNPOU
 62
     4
100
AcDbBlockReference
  2
_OPEN
 10
132.5382816792712
 20
85.85691320725379
 30
0.0
 41
3.0
 42
3.0
 43
3.0
 50
270.0
  0
INSERT
  5
55D
330
3D3
100
AcDbEntity
  8
SUNPOU
 62
     4
100
AcDbBlockReference
  2
_OPEN
 10
132.5382816792712
 20
84.85683288400315
 30
0.0
 41
3.0
 42
3.0
 43
3.0
 50
90.0
  0
MTEXT
  5
55E
330
3D3
100
AcDbEntity
  8
SUNPOU
 62
     4
100
AcDbMText
 10
130.0382816792712
 20
74.10683288400315
 30
0.0
 40
3.0
 41
0.0
 71
     5
 72
     1
  1
\A1;t1.0
 11
0.0000000000000001
 21
1.0
 31
0.0
1001
ACAD
1000
MTEXTBEGIN
1070
    73
1070
     1
1070
    44
1040
1.0
1070
    74
1070
     0
1000
MTEXTEND
1000
MTEXTBEGIN
1070
    73
1070
     1
1070
    44
1040
1.0
1070
    74
1070
     0
1000
MTEXTEND
1000
MTEXTBEGIN
1070
    73
1070
     1
1070
    44
1040
1.0
1070
    74
1070
     0
1000
MTEXTEND
1000
MTEXTBEGIN
1070
    73
1070
     1
1070
    44
1040
1.0
1070
    74
1070
     0
1000
MTEXTEND
  0
POINT
  5
55F
330
3D3
100
AcDbEntity
  8
DEFPOINTS
 62
     0
100
AcDbPoint
 10
128.1946156300153
 20
85.85691320725379
 30
0.0
  0
POINT
  5
560
330
3D3
100
AcDbEntity
  8
DEFPOINTS
 62
     0
100
AcDbPoint
 10
128.1946156300153
 20
84.85683288400315
 30
0.0
  0
POINT
  5
561
330
3D3
100
AcDbEntity
  8
DEFPOINTS
 62
     0
100
AcDbPoint
 10
132.5382816792712
 20
84.85683288400315
 30
0.0
  0
ENDBLK
  5
45F
330
3D3
100
AcDbEntity
  8
0
100
AcDbBlockEnd
  0
BLOCK
  5
4EA
330
3E1
100
AcDbEntity
  8
0
100
AcDbBlockBegin
  2
*D8
 70
     1
 10
0.0
 20
0.0
 30
0.0
  3
*D8
  1

  0
LINE
  5
562
330
3E1
100
AcDbEntity
  8
SUNPOU
 62
     4
100
AcDbLine
 10
125.3670285380841
 20
82.14972610303441
 30
0.0
 11
125.3670285380841
 21
59.9964824012457
 31
0.0
  0
LINE
  5
563
330
3E1
100
AcDbEntity
  8
SUNPOU
 62
     4
100
AcDbLine
 10
160.0742353194885
 20
81.85683288400314
 30
0.0
 11
160.0742353194885
 21
59.9964824012457
 31
0.0
  0
LINE
  5
564
330
3E1
100
AcDbEntity
  8
SUNPOU
 62
     4
100
AcDbLine
 10
128.3670285380841
 20
61.4964824012457
 30
0.0
 11
157.0742353194885
 21
61.4964824012457
 31
0.0
  0
INSERT
  5
565
330
3E1
100
AcDbEntity
  8
SUNPOU
 62
     4
100
AcDbBlockReference
  2
_OPEN
 10
125.3670285380841
 20
61.4964824012457
 30
0.0
 41
3.0
 42
3.0
 43
3.0
 50
180.0
  0
INSERT
  5
566
330
3E1
100
AcDbEntity
  8
SUNPOU
 62
     4
100
AcDbBlockReference
  2
_OPEN
 10
160.0742353194885
 20
61.4964824012457
 30
0.0
 41
3.0
 42
3.0
 43
3.0
  0
MTEXT
  5
567
330
3E1
100
AcDbEntity
  8
SUNPOU
 62
     4
100
AcDbMText
 10
142.7206319287863
 20
63.9964824012457
 30
0.0
 40
3.0
 41
0.0
 71
     5
 72
     1
  1
\A1;35
1001
ACAD
1000
MTEXTBEGIN
1070
    73
1070
     1
1070
    44
1040
1.0
1070
    74
1070
     0
1000
MTEXTEND
1000
MTEXTBEGIN
1070
    73
1070
     1
1070
    44
1040
1.0
1070
    74
1070
     0
1000
MTEXTEND
1000
MTEXTBEGIN
1070
    73
1070
     1
1070
    44
1040
1.0
1070
    74
1070
     0
1000
MTEXTEND
1000
MTEXTBEGIN
1070
    73
1070
     1
1070
    44
1040
1.0
1070
    74
1070
     0
1000
MTEXTEND
  0
POINT
  5
568
330
3E1
100
AcDbEntity
  8
DEFPOINTS
 62
     0
100
AcDbPoint
 10
125.3670285380841
 20
85.14972610303441
 30
0.0
  0
POINT
  5
569
330
3E1
100
AcDbEntity
  8
DEFPOINTS
 62
     0
100
AcDbPoint
 10
160.0742353194885
 20
84.85683288400315
 30
0.0
  0
POINT
  5
56A
330
3E1
100
AcDbEntity
  8
DEFPOINTS
 62
     0
100
AcDbPoint
 10
160.0742353194885
 20
61.4964824012457
 30
0.0
  0
ENDBLK
  5
4F4
330
3E1
100
AcDbEntity
  8
0
100
AcDbBlockEnd
  0
BLOCK
  5
4F5
330
3ED
100
AcDbEntity
  8
0
100
AcDbBlockBegin
  2
*D9
 70
     1
 10
0.0
 20
0.0
 30
0.0
  3
*D9
  1

  0
LINE
  5
56B
330
3ED
100
AcDbEntity
  8
SUNPOU
 62
     4
100
AcDbLine
 10
282.3139697824474
 20
81.85693288400317
 30
0.0
 11
282.3139697824474
 21
59.9964824012457
 31
0.0
  0
LINE
  5
56C
330
3ED
100
AcDbEntity
  8
SUNPOU
 62
     4
100
AcDbLine
 10
302.3139697824475
 20
81.85693288400317
 30
0.0
 11
302.3139697824475
 21
59.9964824012457
 31
0.0
  0
LINE
  5
56D
330
3ED
100
AcDbEntity
  8
SUNPOU
 62
     4
100
AcDbLine
 10
285.3139697824474
 20
61.4964824012457
 30
0.0
 11
299.3139697824474
 21
61.4964824012457
 31
0.0
  0
INSERT
  5
56E
330
3ED
100
AcDbEntity
  8
SUNPOU
 62
     4
100
AcDbBlockReference
  2
_OPEN
 10
282.3139697824474
 20
61.4964824012457
 30
0.0
 41
3.0
 42
3.0
 43
3.0
 50
180.0
  0
INSERT
  5
56F
330
3ED
100
AcDbEntity
  8
SUNPOU
 62
     4
100
AcDbBlockReference
  2
_OPEN
 10
302.3139697824475
 20
61.4964824012457
 30
0.0
 41
3.0
 42
3.0
 43
3.0
  0
MTEXT
  5
570
330
3ED
100
AcDbEntity
  8
SUNPOU
 62
     4
100
AcDbMText
 10
292.3139697824474
 20
63.9964824012457
 30
0.0
 40
3.0
 41
0.0
 71
     5
 72
     1
  1
\A1;20
1001
ACAD
1000
MTEXTBEGIN
1070
    73
1070
     1
1070
    44
1040
1.0
1070
    74
1070
     0
1000
MTEXTEND
1000
MTEXTBEGIN
1070
    73
1070
     1
1070
    44
1040
1.0
1070
    74
1070
     0
1000
MTEXTEND
1000
MTEXTBEGIN
1070
    73
1070
     1
1070
    44
1040
1.0
1070
    74
1070
     0
1000
MTEXTEND
1000
MTEXTBEGIN
1070
    73
1070
     1
1070
    44
1040
1.0
1070
    74
1070
     0
1000
MTEXTEND
  0
POINT
  5
571
330
3ED
100
AcDbEntity
  8
DEFPOINTS
 62
     0
100
AcDbPoint
 10
282.3139697824474
 20
84.85693288400318
 30
0.0
  0
POINT
  5
572
330
3ED
100
AcDbEntity
  8
DEFPOINTS
 62
     0
100
AcDbPoint
 10
302.3139697824475
 20
84.85693288400318
 30
0.0
  0
POINT
  5
573
330
3ED
100
AcDbEntity
  8
DEFPOINTS
 62
     0
100
AcDbPoint
 10
302.3139697824475
 20
61.4964824012457
 30
0.0
  0
ENDBLK
  5
4FF
330
3ED
100
AcDbEntity
  8
0
100
AcDbBlockEnd
  0
BLOCK
  5
4B3
330
3F9
100
AcDbEntity
  8
0
100
AcDbBlockBegin
  2
*D10
 70
     1
 10
0.0
 20
0.0
 30
0.0
  3
*D10
  1

  0
LINE
  5
574
330
3F9
100
AcDbEntity
  8
SUNPOU
 62
     4
100
AcDbLine
 10
333.163749044213
 20
141.5569377388291
 30
0.0
 11
333.163749044213
 21
214.1903430793736
 31
0.0
  0
LINE
  5
575
330
3F9
100
AcDbEntity
  8
SUNPOU
 62
     4
100
AcDbLine
 10
251.463822056539
 20
138.5569163835463
 30
0.0
 11
251.463822056539
 21
214.1903430793736
 31
0.0
  0
LINE
  5
576
330
3F9
100
AcDbEntity
  8
SUNPOU
 62
     4
100
AcDbLine
 10
330.163749044213
 20
212.6903430793737
 30
0.0
 11
254.4638220565389
 21
212.6903430793737
 31
0.0
  0
INSERT
  5
577
330
3F9
100
AcDbEntity
  8
SUNPOU
 62
     4
100
AcDbBlockReference
  2
_OPEN
 10
333.163749044213
 20
212.6903430793737
 30
0.0
 41
3.0
 42
3.0
 43
3.0
  0
INSERT
  5
578
330
3F9
100
AcDbEntity
  8
SUNPOU
 62
     4
100
AcDbBlockReference
  2
_OPEN
 10
251.463822056539
 20
212.6903430793737
 30
0.0
 41
3.0
 42
3.0
 43
3.0
 50
180.0
  0
MTEXT
  5
579
330
3F9
100
AcDbEntity
  8
SUNPOU
 62
     4
100
AcDbMText
 10
292.3137855503759
 20
215.1903430793737
 30
0.0
 40
3.0
 41
0.0
 71
     5
 72
     1
  1
\A1;82
1001
ACAD
1000
MTEXTBEGIN
1070
    73
1070
     1
1070
    44
1040
1.0
1070
    74
1070
     0
1000
MTEXTEND
1000
MTEXTBEGIN
1070
    73
1070
     1
1070
    44
1040
1.0
1070
    74
1070
     0
1000
MTEXTEND
1000
MTEXTBEGIN
1070
    73
1070
     1
1070
    44
1040
1.0
1070
    74
1070
     0
1000
MTEXTEND
1000
MTEXTBEGIN
1070
    73
1070
     1
1070
    44
1040
1.0
1070
    74
1070
     0
1000
MTEXTEND
  0
POINT
  5
57A
330
3F9
100
AcDbEntity
  8
DEFPOINTS
 62
     0
100
AcDbPoint
 10
333.163749044213
 20
138.5569377388291
 30
0.0
  0
POINT
  5
57B
330
3F9
100
AcDbEntity
  8
DEFPOINTS
 62
     0
100
AcDbPoint
 10
251.463822056539
 20
135.5569163835463
 30
0.0
  0
POINT
  5
57C
330
3F9
100
AcDbEntity
  8
DEFPOINTS
 62
     0
100
AcDbPoint
 10
251.463822056539
 20
212.6903430793737
 30
0.0
  0
ENDBLK
  5
4BD
330
3F9
100
AcDbEntity
  8
0
100
AcDbBlockEnd
  0
BLOCK
  5
4BE
330
405
100
AcDbEntity
  8
0
100
AcDbBlockBegin
  2
*D11
 70
     1
 10
0.0
 20
0.0
 30
0.0
  3
*D11
  1

  0
LINE
  5
57D
330
405
100
AcDbEntity
  8
SUNPOU
 62
     4
100
AcDbLine
 10
258.9639303311237
 20
176.4570105605967
 30
0.0
 11
258.9639303311237
 21
205.4561552302124
 31
0.0
  0
LINE
  5
57E
330
405
100
AcDbEntity
  8
SUNPOU
 62
     4
100
AcDbLine
 10
325.6637303311757
 20
176.4569552075079
 30
0.0
 11
325.6637303311757
 21
205.4561552302124
 31
0.0
  0
LINE
  5
57F
330
405
100
AcDbEntity
  8
SUNPOU
 62
     4
100
AcDbLine
 10
261.9639303311237
 20
203.9561552302124
 30
0.0
 11
322.6637303311757
 21
203.9561552302124
 31
0.0
  0
INSERT
  5
580
330
405
100
AcDbEntity
  8
SUNPOU
 62
     4
100
AcDbBlockReference
  2
_OPEN
 10
258.9639303311237
 20
203.9561552302124
 30
0.0
 41
3.0
 42
3.0
 43
3.0
 50
180.0
  0
INSERT
  5
581
330
405
100
AcDbEntity
  8
SUNPOU
 62
     4
100
AcDbBlockReference
  2
_OPEN
 10
325.6637303311757
 20
203.9561552302124
 30
0.0
 41
3.0
 42
3.0
 43
3.0
  0
MTEXT
  5
582
330
405
100
AcDbEntity
  8
SUNPOU
 62
     4
100
AcDbMText
 10
292.3138303311496
 20
206.4561552302124
 30
0.0
 40
3.0
 41
0.0
 71
     5
 72
     1
  1
\A1;67
1001
ACAD
1000
MTEXTBEGIN
1070
    73
1070
     1
1070
    44
1040
1.0
1070
    74
1070
     0
1000
MTEXTEND
1000
MTEXTBEGIN
1070
    73
1070
     1
1070
    44
1040
1.0
1070
    74
1070
     0
1000
MTEXTEND
1000
MTEXTBEGIN
1070
    73
1070
     1
1070
    44
1040
1.0
1070
    74
1070
     0
1000
MTEXTEND
1000
MTEXTBEGIN
1070
    73
1070
     1
1070
    44
1040
1.0
1070
    74
1070
     0
1000
MTEXTEND
  0
POINT
  5
583
330
405
100
AcDbEntity
  8
DEFPOINTS
 62
     0
100
AcDbPoint
 10
258.9639303311237
 20
173.4570105605967
 30
0.0
  0
POINT
  5
584
330
405
100
AcDbEntity
  8
DEFPOINTS
 62
     0
100
AcDbPoint
 10
325.6637303311757
 20
173.4569552075079
 30
0.0
  0
POINT
  5
585
330
405
100
AcDbEntity
  8
DEFPOINTS
 62
     0
100
AcDbPoint
 10
325.6637303311757
 20
203.9561552302124
 30
0.0
  0
ENDBLK
  5
4C8
330
405
100
AcDbEntity
  8
0
100
AcDbBlockEnd
  0
ENDSEC
  0
SECTION
  2
ENTITIES
  0
LINE
  5
6C
330
1A
100
AcDbEntity
  8
ZUWAKU
  6
CONTINUOUS
 62
     7
100
AcDbLine
 10
403.0
 20
7.0
 30
0.0
 11
5.0
 21
7.0
 31
0.0
  0
LINE
  5
6D
330
1A
100
AcDbEntity
  8
ZUWAKU
  6
CONTINUOUS
 62
     7
100
AcDbLine
 10
5.0
 20
282.0
 30
0.0
 11
5.0
 21
7.0
 31
0.0
  0
LINE
  5
6E
330
1A
100
AcDbEntity
  8
ZUWAKU
  6
CONTINUOUS
 62
     7
100
AcDbLine
 10
403.0
 20
282.0
 30
0.0
 11
403.0
 21
7.0
 31
0.0
  0
LINE
  5
6F
330
1A
100
AcDbEntity
  8
ZUWAKU
  6
CONTINUOUS
 62
     7
100
AcDbLine
 10
403.0
 20
282.0
 30
0.0
 11
5.0
 21
282.0
 31
0.0
  0
LINE
  5
8E
330
1A
100
AcDbEntity
  8
ZUWAKU
 62
     7
 48
10.0
100
AcDbLine
 10
5.0
 20
13.0
 30
0.0
 11
403.0
 21
12.99999999999994
 31
0.0
  0
TEXT
  5
93
330
1A
100
AcDbEntity
  8
ZUWAKU
 62
     7
100
AcDbText
 10
8.003143713074223
 20
7.870178177610682
 30
0.0
 40
4.0
  1
品 種
100
AcDbText
  0
TEXT
  5
97
330
1A
100
AcDbEntity
  8
ZUWAKU
 62
     7
100
AcDbText
 10
107.7028028167073
 20
8.200497435100942
 30
0.0
 40
4.0
  1
品名・ｻ ｲ ｽﾞ
100
AcDbText
  0
TEXT
  5
99
330
1A
100
AcDbEntity
  8
SEIHIN
 62
     7
100
AcDbText
 10
141.1313324528735
 20
7.9299153608506
 30
0.0
 40
4.0
  1
はいといデンデン　Ｙ６０（ＢＲＯＯＫ用）
100
AcDbText
  0
LINE
  5
9A
330
1A
100
AcDbEntity
  8
ZUWAKU
 62
     7
 48
10.0
100
AcDbLine
 10
324.3551403257206
 20
6.999999999999836
 30
0.0
 11
324.3551403257206
 21
12.99999999999995
 31
0.0
  0
LINE
  5
9B
330
1A
100
AcDbEntity
  8
ZUWAKU
 62
     7
 48
10.0
100
AcDbLine
 10
307.142312366876
 20
6.999999999999836
 30
0.0
 11
307.142312366876
 21
12.99999999999995
 31
0.0
  0
TEXT
  5
9C
330
1A
100
AcDbEntity
  8
ZUWAKU
 62
     7
100
AcDbText
 10
310.1429253763237
 20
7.934661405801826
 30
0.0
 40
4.0
  1
品 番
100
AcDbText
  0
TEXT
  5
9E
330
1A
100
AcDbEntity
  8
ZUWAKU
 62
     7
 48
10.0
100
AcDbText
 10
322.9513761015196
 20
2.449000558492457
 30
0.0
 40
4.0
  1
積水化学工業株式会社  建材
100
AcDbText
  0
TEXT
  5
A1
330
1A
100
AcDbEntity
  8
ZUWAKU
 62
     7
100
AcDbText
 10
389.843492473331
 20
7.886151458996323
 30
0.0
 40
4.0
  1
1/1
100
AcDbText
  0
TEXT
  5
A2
330
1A
100
AcDbEntity
  8
ZUWAKU
 62
     7
100
AcDbText
 10
369.8225424558458
 20
7.729845637642938
 30
0.0
 40
4.0
  1
尺 度
100
AcDbText
  0
LINE
  5
A3
330
1A
100
AcDbEntity
  8
ZUWAKU
 62
     7
 48
10.0
100
AcDbLine
 10
366.8807110760169
 20
6.999999999999886
 30
0.0
 11
366.8807110760169
 21
12.99999999999994
 31
0.0
  0
TEXT
  5
A6
330
1A
100
AcDbEntity
  8
ZUWAKU
 62
     7
 48
10.0
100
AcDbText
 10
396.1622424237184
 20
2.480970960763784
 30
0.0
 40
4.0
  1
A3
100
AcDbText
  0
LINE
  5
F5
330
1A
100
AcDbEntity
  8
ZUWAKU
 62
     7
 48
10.0
100
AcDbLine
 10
22.25374857290876
 20
7.0
 30
0.0
 11
22.25374857290876
 21
13.0
 31
0.0
  0
LINE
  5
F6
330
1A
100
AcDbEntity
  8
ZUWAKU
 62
     7
 48
10.0
100
AcDbLine
 10
104.7316872784438
 20
7.0
 30
0.0
 11
104.7316872784438
 21
12.99999999999998
 31
0.0
  0
LINE
  5
F8
330
1A
100
AcDbEntity
  8
ZUWAKU
 62
     7
 48
10.0
100
AcDbLine
 10
138.0261803105822
 20
7.0
 30
0.0
 11
138.0261803105822
 21
12.99999999999998
 31
0.0
  0
LINE
  5
100
330
1A
100
AcDbEntity
  8
ZUWAKU
 62
     7
 48
10.0
100
AcDbLine
 10
384.3363149538092
 20
6.999999999999862
 30
0.0
 11
384.3363149538092
 21
12.99999999999994
 31
0.0
  0
LINE
  5
2B4
330
1A
100
AcDbEntity
  8
CENTER_L
 48
5.0
100
AcDbLine
 10
243.9598063808609
 20
135.5569163835463
 30
0.0
 11
268.9678777322169
 21
135.5569163835463
 31
0.0
  0
DIMENSION
  5
2B5
330
1A
100
AcDbEntity
  8
SUNPOU
 48
5.0
100
AcDbDimension
  2
*D1
 10
236.9732579263719
 20
109.8569328840031
 30
0.0
 11
234.4732579263718
 21
147.706957631227
 31
0.0
 70
    32
  3
STANDARD
100
AcDbAlignedDimension
 13
271.0637585136696
 23
185.5569823784508
 33
0.0
 14
282.2863697823474
 24
109.8569328840031
 34
0.0
 50
90.0
100
AcDbRotatedDimension
1001
ACAD
1000
DSTYLE
1002
{
1070
   140
1040
3.0
1070
    74
1070
     0
1070
   172
1070
     1
1070
    73
1070
     0
1070
   272
1070
     2
1070
    77
1070
     3
1070
   173
1070
     1
1070
   147
1040
1.0
1070
    42
1040
3.0
1070
    44
1040
1.5
1070
    43
1040
7.0
1070
   271
1070
     0
1070
   178
1070
     4
1070
   177
1070
     4
1070
   176
1070
     4
1070
   141
1040
150.0
1070
     7
1000
_OPEN
1070
     6
1000
_OPEN
1070
    41
1040
3.0
1002
}
  0
DIMENSION
  5
2B6
330
1A
100
AcDbEntity
  8
SUNPOU
 48
5.0
100
AcDbDimension
  2
*D2
 10
227.3422010528184
 20
84.85693288400318
 30
0.0
 11
224.8422010528184
 21
135.206957631227
 31
0.0
 70
    32
  3
STANDARD
100
AcDbAlignedDimension
 13
271.0637585136696
 23
185.5569823784508
 33
0.0
 14
282.3139697824474
 24
84.85693288400318
 34
0.0
 50
90.0
100
AcDbRotatedDimension
1001
ACAD
1000
DSTYLE
1002
{
1070
   140
1040
3.0
1070
    74
1070
     0
1070
   172
1070
     1
1070
    73
1070
     0
1070
   272
1070
     2
1070
    77
1070
     3
1070
   173
1070
     1
1070
   147
1040
1.0
1070
    42
1040
3.0
1070
    44
1040
1.5
1070
    43
1040
7.0
1070
   271
1070
     0
1070
   178
1070
     4
1070
   177
1070
     4
1070
   176
1070
     4
1070
   141
1040
150.0
1070
     7
1000
_OPEN
1070
     6
1000
_OPEN
1070
    41
1040
3.0
1002
}
  0
DIMENSION
  5
2B7
330
1A
100
AcDbEntity
  8
SUNPOU
 48
5.0
100
AcDbDimension
  2
*D3
 10
145.0740853194885
 20
212.2429583220867
 30
0.0
 11
135.0740603194885
 21
214.7429583220867
 31
0.0
 70
    32
  3
STANDARD
100
AcDbAlignedDimension
 13
125.0740353194885
 23
108.8569328840031
 33
0.0
 14
145.0740853194885
 24
192.5567606818695
 34
0.0
100
AcDbRotatedDimension
1001
ACAD
1000
DSTYLE
1002
{
1070
   140
1040
3.0
1070
    74
1070
     0
1070
   172
1070
     1
1070
    73
1070
     0
1070
   272
1070
     2
1070
    77
1070
     3
1070
   173
1070
     1
1070
   147
1040
1.0
1070
    42
1040
3.0
1070
    44
1040
1.5
1070
    43
1040
7.0
1070
   271
1070
     0
1070
   178
1070
     4
1070
   177
1070
     4
1070
   176
1070
     4
1070
   141
1040
150.0
1070
     7
1000
_OPEN
1070
     6
1000
_OPEN
1070
    41
1040
3.0
1002
}
  0
DIMENSION
  5
2B8
330
1A
100
AcDbEntity
  8
SUNPOU
 48
5.0
100
AcDbDimension
  2
*D4
 10
165.0742353194885
 20
221.4771461712479
 30
0.0
 11
145.0741353194885
 21
223.9771461712479
 31
0.0
 70
    32
  3
STANDARD
100
AcDbAlignedDimension
 13
125.0740353194885
 23
108.8569328840031
 33
0.0
 14
165.0742353194885
 24
109.8569328840031
 34
0.0
100
AcDbRotatedDimension
1001
ACAD
1000
DSTYLE
1002
{
1070
   140
1040
3.0
1070
    74
1070
     0
1070
   172
1070
     1
1070
    73
1070
     0
1070
   272
1070
     2
1070
    77
1070
     3
1070
   173
1070
     1
1070
   147
1040
1.0
1070
    42
1040
3.0
1070
    44
1040
1.5
1070
    43
1040
7.0
1070
   271
1070
     0
1070
   178
1070
     4
1070
   177
1070
     4
1070
   176
1070
     4
1070
   141
1040
150.0
1070
     7
1000
_OPEN
1070
     6
1000
_OPEN
1070
    41
1040
3.0
1002
}
  0
LINE
  5
2B9
330
1A
100
AcDbEntity
  8
SEIHIN
  6
CONTINUOUS
 62
     3
 48
8.0
100
AcDbLine
 10
152.0738821663887
 20
135.5565328840032
 30
0.0
 11
152.0738821663887
 21
132.9594328840032
 31
0.0
  0
LINE
  5
2BA
330
1A
100
AcDbEntity
  8
SEIHIN
  6
CONTINUOUS
 62
     3
 48
8.0
100
AcDbLine
 10
138.0738821663887
 20
135.5565328840032
 30
0.0
 11
138.0738821663887
 21
132.9594328840032
 31
0.0
  0
LINE
  5
2BB
330
1A
100
AcDbEntity
  8
SEIHIN
  6
CONTINUOUS
 62
     3
 48
8.0
100
AcDbLine
 10
142.5738821663887
 20
130.5572328840032
 30
0.0
 11
142.5737821663888
 21
139.5568328840032
 31
0.0
  0
LINE
  5
2BC
330
1A
100
AcDbEntity
  8
SEIHIN
  6
CONTINUOUS
 62
     3
 48
8.0
100
AcDbLine
 10
147.5738821663887
 20
130.5572328840032
 30
0.0
 11
147.5737821663888
 21
139.5568328840032
 31
0.0
  0
LINE
  5
2BD
330
1A
100
AcDbEntity
  8
SEIHIN
  6
CONTINUOUS
 62
     3
 48
8.0
100
AcDbLine
 10
154.0740821663888
 20
109.8569328840031
 30
0.0
 11
154.0740821663888
 21
184.5570328840032
 31
0.0
  0
LINE
  5
2BE
330
1A
100
AcDbEntity
  8
SEIHIN
  6
CONTINUOUS
 62
     3
 48
8.0
100
AcDbLine
 10
136.0740821663888
 20
109.8569328840031
 30
0.0
 11
136.0740821663888
 21
184.5570328840032
 31
0.0
  0
LINE
  5
2BF
330
1A
100
AcDbEntity
  8
CENTER_L
 48
5.0
100
AcDbLine
 10
145.0740853194885
 20
192.5567606818695
 30
0.0
 11
145.0740853194885
 21
101.4077288461313
 31
0.0
  0
DIMENSION
  5
2C0
330
1A
100
AcDbEntity
  8
SUNPOU
 48
5.0
100
AcDbDimension
  2
*D5
 10
111.8600744324097
 20
84.85683288400315
 30
0.0
 11
109.3600744324096
 21
97.3568828840032
 31
0.0
 70
    32
  3
STANDARD
100
AcDbAlignedDimension
 13
126.0740353196944
 23
109.8569328840031
 33
0.0
 14
126.0742353194885
 24
84.85683288400315
 34
0.0
 50
90.0
100
AcDbRotatedDimension
1001
ACAD
1000
DSTYLE
1002
{
1070
   140
1040
3.0
1070
    74
1070
     0
1070
   172
1070
     1
1070
    73
1070
     0
1070
   272
1070
     2
1070
    77
1070
     3
1070
   173
1070
     1
1070
   147
1040
1.0
1070
    42
1040
3.0
1070
    44
1040
1.5
1070
    43
1040
7.0
1070
   271
1070
     0
1070
   178
1070
     4
1070
   177
1070
     4
1070
   176
1070
     4
1070
   141
1040
150.0
1070
     7
1000
_OPEN
1070
     6
1000
_OPEN
1070
    41
1040
3.0
1002
}
  0
DIMENSION
  5
2C1
330
1A
100
AcDbEntity
  8
SUNPOU
 48
5.0
100
AcDbDimension
  2
*D6
 10
178.3775239342613
 20
88.85693288400316
 30
0.0
 11
175.8775239342613
 21
97.3569328840032
 31
0.0
 70
    32
  3
STANDARD
100
AcDbAlignedDimension
 13
155.0741353194885
 23
105.8569328840031
 33
0.0
 14
140.0742353194885
 24
88.85693288400316
 34
0.0
 50
90.0
100
AcDbRotatedDimension
1001
ACAD
1000
DSTYLE
1002
{
1070
   140
1040
3.0
1070
    74
1070
     0
1070
   172
1070
     1
1070
    73
1070
     0
1070
   272
1070
     2
1070
    77
1070
     3
1070
   173
1070
     1
1070
   147
1040
1.0
1070
    42
1040
3.0
1070
    44
1040
1.5
1070
    43
1040
7.0
1070
   271
1070
     0
1070
   178
1070
     4
1070
   177
1070
     4
1070
   176
1070
     4
1070
   141
1040
150.0
1070
     7
1000
_OPEN
1070
     6
1000
_OPEN
1070
    41
1040
3.0
1002
}
  0
DIMENSION
  5
2C2
330
1A
100
AcDbEntity
  8
SUNPOU
 62
     4
 48
5.0
100
AcDbDimension
  2
*D7
 10
132.5382816792712
 20
84.85683288400315
 30
0.0
 11
130.0382816792712
 21
74.10683288400315
 31
0.0
 70
    32
  1
t<>
  3
STANDARD
100
AcDbAlignedDimension
 13
128.1946156300153
 23
85.85691320725379
 33
0.0
 14
128.1946156300153
 24
84.85683288400315
 34
0.0
 50
90.0
100
AcDbRotatedDimension
1001
ACAD
1000
DSTYLE
1002
{
1070
   140
1040
3.0
1070
    74
1070
     0
1070
   172
1070
     1
1070
    73
1070
     0
1070
   272
1070
     2
1070
    77
1070
     3
1070
   173
1070
     1
1070
   147
1040
1.0
1070
    42
1040
3.0
1070
    44
1040
1.5
1070
    43
1040
7.0
1070
   271
1070
     1
1070
   178
1070
     4
1070
   177
1070
     4
1070
   176
1070
     4
1070
   141
1040
150.0
1070
     7
1000
_OPEN
1070
     6
1000
_OPEN
1070
    41
1040
3.0
1002
}
  0
LINE
  5
2C3
330
1A
100
AcDbEntity
  8
SEIHIN
  6
CONTINUOUS
 62
     3
 48
5.0
100
AcDbLine
 10
140.0742353194885
 20
88.85693288400316
 30
0.0
 11
134.8092353194885
 21
85.85683288400314
 31
0.0
  0
LINE
  5
2C4
330
1A
100
AcDbEntity
  8
SEIHIN
  6
CONTINUOUS
 62
     3
 48
5.0
100
AcDbLine
 10
140.0742353194885
 20
88.85693288400316
 30
0.0
 11
145.3391353194885
 21
85.85683288400314
 31
0.0
  0
LINE
  5
2C5
330
1A
100
AcDbEntity
  8
SEIHIN
  6
CONTINUOUS
 62
     3
 48
5.0
100
AcDbLine
 10
125.0740353194885
 20
108.8569328840031
 30
0.0
 11
125.0741353194884
 21
85.85683288400314
 31
0.0
  0
LINE
  5
2C6
330
1A
100
AcDbEntity
  8
SEIHIN
  6
CONTINUOUS
 62
     3
 48
5.0
100
AcDbLine
 10
126.0741353194885
 20
86.35693288400316
 30
0.0
 11
126.0741353194885
 21
108.3569328840031
 31
0.0
  0
DIMENSION
  5
2C7
330
1A
100
AcDbEntity
  8
SUNPOU
 48
5.0
100
AcDbDimension
  2
*D8
 10
160.0742353194885
 20
61.4964824012457
 30
0.0
 11
142.7206319287863
 21
63.9964824012457
 31
0.0
 70
    32
  3
STANDARD
100
AcDbAlignedDimension
 13
125.3670285380841
 23
85.14972610303441
 33
0.0
 14
160.0742353194885
 24
84.85683288400315
 34
0.0
100
AcDbRotatedDimension
1001
ACAD
1000
DSTYLE
1002
{
1070
   140
1040
3.0
1070
    74
1070
     0
1070
   172
1070
     1
1070
    73
1070
     0
1070
   272
1070
     2
1070
    77
1070
     3
1070
   173
1070
     1
1070
   147
1040
1.0
1070
    42
1040
3.0
1070
    44
1040
1.5
1070
    43
1040
7.0
1070
   271
1070
     0
1070
   178
1070
     4
1070
   177
1070
     4
1070
   176
1070
     4
1070
   141
1040
150.0
1070
     7
1000
_OPEN
1070
     6
1000
_OPEN
1070
    41
1040
3.0
1002
}
  0
LINE
  5
2C8
330
1A
100
AcDbEntity
  8
SEIHIN
  6
CONTINUOUS
 62
     3
 48
5.0
100
AcDbLine
 10
145.0742353194885
 20
84.85693288400318
 30
0.0
 11
160.0742353194885
 21
84.85693288400318
 31
0.0
  0
LINE
  5
2C9
330
1A
100
AcDbEntity
  8
SEIHIN
  6
CONTINUOUS
 62
     3
 48
5.0
100
AcDbLine
 10
160.0742353194885
 20
85.85693288400317
 30
0.0
 11
145.3391353194885
 21
85.85683288400314
 31
0.0
  0
LINE
  5
2CA
330
1A
100
AcDbEntity
  8
SEIHIN
  6
CONTINUOUS
 62
     3
 48
5.0
100
AcDbLine
 10
126.0742353194885
 20
84.85683288400315
 30
0.0
 11
135.0741353194885
 21
84.85683288400315
 31
0.0
  0
LINE
  5
2CB
330
1A
100
AcDbEntity
  8
SEIHIN
  6
CONTINUOUS
 62
     3
 48
5.0
100
AcDbLine
 10
134.8092353194885
 20
85.85683288400314
 30
0.0
 11
126.5742353194885
 21
85.85693288400317
 31
0.0
  0
ARC
  5
2CC
330
1A
100
AcDbEntity
  8
SEIHIN
  6
CONTINUOUS
 62
     3
 48
5.0
100
AcDbCircle
 10
126.0741353194885
 20
85.85683288400314
 30
0.0
 40
1.0
100
AcDbArc
 50
180.0
 51
269.9999999647
  0
ARC
  5
2CD
330
1A
100
AcDbEntity
  8
SEIHIN
  6
CONTINUOUS
 62
     3
 48
5.0
100
AcDbCircle
 10
126.5742353194885
 20
86.35693288400316
 30
0.0
 40
0.5
100
AcDbArc
 50
180.0
 51
269.9999999647
  0
LINE
  5
2CE
330
1A
100
AcDbEntity
  8
SEIHIN
  6
CONTINUOUS
 62
     3
 48
5.0
100
AcDbLine
 10
135.0741353194885
 20
84.85683288400315
 30
0.0
 11
140.0742353194885
 21
87.70593288400316
 31
0.0
  0
LINE
  5
2CF
330
1A
100
AcDbEntity
  8
SEIHIN
  6
CONTINUOUS
 62
     3
 48
5.0
100
AcDbLine
 10
145.0742353194885
 20
84.85693288400318
 30
0.0
 11
140.0742353194885
 21
87.70593288400316
 31
0.0
  0
LINE
  5
2D0
330
1A
100
AcDbEntity
  8
SEIHIN
  6
CONTINUOUS
 62
     3
 48
5.0
100
AcDbLine
 10
155.0742353194885
 20
84.85683288400315
 30
0.0
 11
155.0742353194885
 21
85.85693288400317
 31
0.0
  0
LINE
  5
2D1
330
1A
100
AcDbEntity
  8
SEIHIN
  6
CONTINUOUS
 62
     3
 48
5.0
100
AcDbLine
 10
160.0742353194885
 20
84.85683288400315
 30
0.0
 11
160.0742353194885
 21
85.85693288400317
 31
0.0
  0
LINE
  5
2D2
330
1A
100
AcDbEntity
  8
SEIHIN
  6
CONTINUOUS
 62
     3
 48
8.0
100
AcDbLine
 10
145.0740821663888
 20
109.8569328840031
 30
0.0
 11
154.0740821663888
 21
109.8569328840031
 31
0.0
  0
LINE
  5
2D3
330
1A
100
AcDbEntity
  8
SEIHIN
  6
CONTINUOUS
 62
     3
 48
8.0
100
AcDbLine
 10
151.5740821663888
 20
117.8445328840031
 30
0.0
 11
145.0740821663888
 21
117.8445328840031
 31
0.0
  0
LINE
  5
2D4
330
1A
100
AcDbEntity
  8
SEIHIN
  6
CONTINUOUS
 62
     3
 48
8.0
100
AcDbLine
 10
147.5738821663887
 20
133.3068328840032
 30
0.0
 11
152.0738821663887
 21
133.3068328840032
 31
0.0
  0
LINE
  5
2D5
330
1A
100
AcDbEntity
  8
SEIHIN
  6
CONTINUOUS
 62
     3
 48
8.0
100
AcDbLine
 10
136.0739821663887
 20
130.5568328840031
 30
0.0
 11
154.0739821663887
 21
130.5568328840031
 31
0.0
  0
LINE
  5
2D6
330
1A
100
AcDbEntity
  8
SEIHIN
  6
CONTINUOUS
 62
     3
 48
5.0
100
AcDbLine
 10
141.5741213577886
 20
106.8568654315946
 30
0.0
 11
148.5741213577886
 21
106.8569003353919
 31
0.0
  0
LINE
  5
2D7
330
1A
100
AcDbEntity
  8
SEIHIN
  6
CONTINUOUS
 62
     3
 48
5.0
100
AcDbLine
 10
140.0740353194885
 20
109.8569328840031
 30
0.0
 11
150.0741353194884
 21
109.8569328840031
 31
0.0
  0
LINE
  5
2D8
330
1A
100
AcDbEntity
  8
SEIHIN
  6
CONTINUOUS
 62
     3
 48
5.0
100
AcDbLine
 10
149.8092353194885
 20
108.8569328840031
 30
0.0
 11
140.3390353194885
 21
108.8569328840031
 31
0.0
  0
LINE
  5
2D9
330
1A
100
AcDbEntity
  8
SEIHIN
  6
CONTINUOUS
 62
     3
 48
8.0
100
AcDbLine
 10
138.5740821663888
 20
109.8569328840031
 30
0.0
 11
138.5740821663888
 21
130.5568328840031
 31
0.0
  0
LINE
  5
2DA
330
1A
100
AcDbEntity
  8
SEIHIN
  6
CONTINUOUS
 62
     3
 48
5.0
100
AcDbLine
 10
130.0740353194885
 20
109.8569328840031
 30
0.0
 11
135.0741353194885
 21
107.0078328840031
 31
0.0
  0
LINE
  5
2DB
330
1A
100
AcDbEntity
  8
SEIHIN
  6
CONTINUOUS
 62
     3
 48
5.0
100
AcDbLine
 10
135.0741353194885
 20
105.8569328840031
 30
0.0
 11
129.8092353194885
 21
108.8569328840031
 31
0.0
  0
LINE
  5
2DC
330
1A
100
AcDbEntity
  8
SEIHIN
  6
CONTINUOUS
 62
     3
 48
5.0
100
AcDbLine
 10
129.8092353194885
 20
108.8569328840031
 30
0.0
 11
126.5741353194885
 21
108.8568328840031
 31
0.0
  0
LINE
  5
2DD
330
1A
100
AcDbEntity
  8
SEIHIN
  6
CONTINUOUS
 62
     3
 48
5.0
100
AcDbLine
 10
130.0740353194885
 20
109.8569328840031
 30
0.0
 11
126.0740353194885
 21
109.8568328840031
 31
0.0
  0
ARC
  5
2DE
330
1A
100
AcDbEntity
  8
SEIHIN
  6
CONTINUOUS
 62
     3
 48
5.0
100
AcDbCircle
 10
126.0740353194885
 20
108.8569328840031
 30
0.0
 40
1.0
100
AcDbArc
 50
89.99999998819999
 51
180.0
  0
ARC
  5
2DF
330
1A
100
AcDbEntity
  8
SEIHIN
  6
CONTINUOUS
 62
     3
 48
5.0
100
AcDbCircle
 10
126.5741353194885
 20
108.3569328840031
 30
0.0
 40
0.5
100
AcDbArc
 50
89.99999998819999
 51
180.0
  0
LINE
  5
2E0
330
1A
100
AcDbEntity
  8
SEIHIN
  6
CONTINUOUS
 62
     3
 48
8.0
100
AcDbLine
 10
145.0740821663888
 20
109.8569328840031
 30
0.0
 11
136.0740821663888
 21
109.8569328840031
 31
0.0
  0
LINE
  5
2E1
330
1A
100
AcDbEntity
  8
SEIHIN
  6
CONTINUOUS
 62
     3
 48
5.0
100
AcDbLine
 10
140.0740353194885
 20
109.8569328840031
 30
0.0
 11
135.0741353194885
 21
107.0078328840031
 31
0.0
  0
LINE
  5
2E2
330
1A
100
AcDbEntity
  8
SEIHIN
  6
CONTINUOUS
 62
     3
 48
5.0
100
AcDbLine
 10
135.0741353194885
 20
105.8569328840031
 30
0.0
 11
140.3390353194885
 21
108.8569328840031
 31
0.0
  0
LINE
  5
2E3
330
1A
100
AcDbEntity
  8
SEIHIN
  6
CONTINUOUS
 62
     3
 48
5.0
100
AcDbLine
 10
141.5741213577886
 20
106.8568654316919
 30
0.0
 11
141.5741113853171
 21
108.8568654316919
 31
0.0
  0
LINE
  5
2E4
330
1A
100
AcDbEntity
  8
SEIHIN
  6
CONTINUOUS
 62
     3
 48
8.0
100
AcDbLine
 10
138.5740821663888
 20
117.8445328840031
 30
0.0
 11
145.0740821663888
 21
117.8445328840031
 31
0.0
  0
LINE
  5
2E5
330
1A
100
AcDbEntity
  8
SEIHIN
  6
CONTINUOUS
 62
     3
 48
8.0
100
AcDbLine
 10
138.5740821663888
 20
117.8445328840031
 30
0.0
 11
136.0740821663888
 21
118.8445328840031
 31
0.0
  0
LINE
  5
2E6
330
1A
100
AcDbEntity
  8
SEIHIN
  6
CONTINUOUS
 62
     3
 48
8.0
100
AcDbLine
 10
142.5738821663887
 20
133.3068328840032
 30
0.0
 11
138.0738821663887
 21
133.3068328840032
 31
0.0
  0
LINE
  5
2E7
330
1A
100
AcDbEntity
  8
SEIHIN
  6
CONTINUOUS
 62
     3
 48
8.0
100
AcDbLine
 10
138.0737821663888
 20
130.5572328840032
 30
0.0
 11
138.0737821663888
 21
132.8067328840032
 31
0.0
  0
LINE
  5
2E8
330
1A
100
AcDbEntity
  8
SEIHIN
  6
CONTINUOUS
 62
     3
 48
8.0
100
AcDbLine
 10
151.5740821663888
 20
109.8569328840031
 30
0.0
 11
151.5740821663888
 21
130.5568328840031
 31
0.0
  0
LINE
  5
2E9
330
1A
100
AcDbEntity
  8
SEIHIN
  6
CONTINUOUS
 62
     3
 48
5.0
100
AcDbLine
 10
160.0741353194885
 20
109.8569328840031
 30
0.0
 11
165.0742353194885
 21
109.8569328840031
 31
0.0
  0
LINE
  5
2EA
330
1A
100
AcDbEntity
  8
SEIHIN
  6
CONTINUOUS
 62
     3
 48
5.0
100
AcDbLine
 10
165.0742353194885
 20
108.8569328840031
 30
0.0
 11
160.3391353194885
 21
108.8569328840031
 31
0.0
  0
LINE
  5
2EB
330
1A
100
AcDbEntity
  8
SEIHIN
  6
CONTINUOUS
 62
     3
 48
5.0
100
AcDbLine
 10
155.0741353194885
 20
105.8569328840031
 30
0.0
 11
160.3391353194885
 21
108.8569328840031
 31
0.0
  0
LINE
  5
2EC
330
1A
100
AcDbEntity
  8
SEIHIN
  6
CONTINUOUS
 62
     3
 48
5.0
100
AcDbLine
 10
160.0741353194885
 20
109.8569328840031
 30
0.0
 11
155.0742353194885
 21
107.0078328840031
 31
0.0
  0
LINE
  5
2ED
330
1A
100
AcDbEntity
  8
SEIHIN
  6
CONTINUOUS
 62
     3
 48
5.0
100
AcDbLine
 10
155.0741353194885
 20
105.8569328840031
 30
0.0
 11
149.8092353194885
 21
108.8569328840031
 31
0.0
  0
LINE
  5
2EE
330
1A
100
AcDbEntity
  8
SEIHIN
  6
CONTINUOUS
 62
     3
 48
5.0
100
AcDbLine
 10
150.0741353194884
 20
109.8569328840031
 30
0.0
 11
155.0742353194885
 21
107.0078328840031
 31
0.0
  0
LINE
  5
2EF
330
1A
100
AcDbEntity
  8
SEIHIN
  6
CONTINUOUS
 62
     3
 48
5.0
100
AcDbLine
 10
148.5741213577886
 20
106.8569003353919
 30
0.0
 11
148.5741113847199
 21
108.8570003353918
 31
0.0
  0
LINE
  5
2F0
330
1A
100
AcDbEntity
  8
SEIHIN
  6
CONTINUOUS
 62
     3
 48
5.0
100
AcDbLine
 10
163.0741353194885
 20
109.8568328840031
 30
0.0
 11
163.0742353194885
 21
108.8569328840031
 31
0.0
  0
LINE
  5
2F1
330
1A
100
AcDbEntity
  8
SEIHIN
  6
CONTINUOUS
 62
     3
 48
5.0
100
AcDbLine
 10
165.0742353194885
 20
108.8569328840031
 30
0.0
 11
165.0741353194885
 21
109.8568328840031
 31
0.0
  0
LINE
  5
2F2
330
1A
100
AcDbEntity
  8
SEIHIN
  6
CONTINUOUS
 62
     3
 48
8.0
100
AcDbLine
 10
151.5740821663888
 20
117.8445328840031
 30
0.0
 11
154.0740821663888
 21
118.8445328840031
 31
0.0
  0
LINE
  5
2F3
330
1A
100
AcDbEntity
  8
SEIHIN
  6
CONTINUOUS
 62
     3
 48
8.0
100
AcDbLine
 10
152.0738821663887
 20
130.5573328840031
 30
0.0
 11
152.0738821663887
 21
132.8068328840032
 31
0.0
  0
LINE
  5
2F8
330
1A
100
AcDbEntity
  8
SEIHIN
  6
CONTINUOUS
 62
     3
 48
8.0
100
AcDbLine
 10
151.5740821663888
 20
143.5779564867752
 30
0.0
 11
151.5740821663888
 21
185.5570328840031
 31
0.0
  0
LINE
  5
2F9
330
1A
100
AcDbEntity
  8
SEIHIN
  6
CONTINUOUS
 62
     3
 48
8.0
100
AcDbLine
 10
138.5740821663888
 20
143.5779564867752
 30
0.0
 11
138.5740821663888
 21
185.5570328840031
 31
0.0
  0
LINE
  5
2FA
330
1A
100
AcDbEntity
  8
SEIHIN
  6
CONTINUOUS
 62
     3
 48
8.0
100
AcDbLine
 10
147.5737821674999
 20
139.5567328840032
 30
0.0
 11
154.0739821663887
 21
139.5567328840032
 31
0.0
  0
LINE
  5
2FB
330
1A
100
AcDbEntity
  8
SEIHIN
  6
CONTINUOUS
 62
     3
 48
5.0
100
AcDbLine
 10
153.0740821663888
 20
142.5779564867752
 30
0.0
 11
137.0740821663888
 21
142.5779564867752
 31
0.0
  0
LINE
  5
2FC
330
1A
100
AcDbEntity
  8
SEIHIN
  6
CONTINUOUS
 62
     3
 48
8.0
100
AcDbLine
 10
147.5738821663887
 20
135.5568328840031
 30
0.0
 11
152.0738821663887
 21
135.5568328840031
 31
0.0
  0
LINE
  5
2FD
330
1A
100
AcDbEntity
  8
SEIHIN
  6
CONTINUOUS
 62
     3
 48
8.0
100
AcDbLine
 10
151.5740821663888
 20
176.1889328840031
 30
0.0
 11
145.0740821663888
 21
176.1889328840031
 31
0.0
  0
LINE
  5
2FE
330
1A
100
AcDbEntity
  8
SEIHIN
  6
CONTINUOUS
 62
     3
 48
8.0
100
AcDbLine
 10
138.0738821663887
 20
135.5568328840031
 30
0.0
 11
142.5738821663887
 21
135.5568328840031
 31
0.0
  0
LINE
  5
2FF
330
1A
100
AcDbEntity
  8
SEIHIN
  6
CONTINUOUS
 62
     3
 48
8.0
100
AcDbLine
 10
136.0739821663887
 20
139.5567328840032
 30
0.0
 11
142.5737821674999
 21
139.5567328840032
 31
0.0
  0
LINE
  5
300
330
1A
100
AcDbEntity
  8
SEIHIN
  6
CONTINUOUS
 62
     3
 48
8.0
100
AcDbLine
 10
138.5740821663888
 20
176.1889328840031
 30
0.0
 11
145.0740821663888
 21
176.1889328840031
 31
0.0
  0
LINE
  5
301
330
1A
100
AcDbEntity
  8
SEIHIN
  6
CONTINUOUS
 62
     3
 48
8.0
100
AcDbLine
 10
138.5740821663888
 20
176.1889328840031
 30
0.0
 11
136.0740821663888
 21
175.1889328840031
 31
0.0
  0
LINE
  5
302
330
1A
100
AcDbEntity
  8
SEIHIN
  6
CONTINUOUS
 62
     3
 48
8.0
100
AcDbLine
 10
151.5740821663888
 20
176.1889328840031
 30
0.0
 11
154.0740821663888
 21
175.1889328840031
 31
0.0
  0
MTEXT
  5
303
330
1A
100
AcDbEntity
  8
SUNPOU
  6
BYBLOCK
 62
     4
 48
5.0
100
AcDbMText
 10
148.5342998637121
 20
205.7182590141223
 30
0.0
 40
3.0
 41
0.0
 71
     5
 72
     1
  1
\A1;18
1001
ACAD
1000
MTEXTBEGIN
1070
    73
1070
     1
1070
    44
1040
1.0
1070
    74
1070
     0
1000
MTEXTEND
1000
MTEXTBEGIN
1070
    73
1070
     1
1070
    44
1040
1.0
1070
    74
1070
     0
1000
MTEXTEND
1000
MTEXTBEGIN
1070
    73
1070
     1
1070
    44
1040
1.0
1070
    74
1070
     0
1000
MTEXTEND
1000
MTEXTBEGIN
1070
    73
1070
     1
1070
    44
1040
1.0
1070
    74
1070
     0
1000
MTEXTEND
  0
LINE
  5
304
330
1A
100
AcDbEntity
  8
SUNPOU
  6
BYBLOCK
 62
     4
 48
5.0
100
AcDbLine
 10
139.0740821663888
 20
203.2182590141223
 30
0.0
 11
151.0740821663888
 21
203.2182590141223
 31
0.0
  0
LINE
  5
305
330
1A
100
AcDbEntity
  8
SEIHIN
  6
CONTINUOUS
 62
     3
 48
8.0
100
AcDbLine
 10
145.0740821663888
 20
185.5570328840031
 30
0.0
 11
151.5739821663887
 21
185.5570328840031
 31
0.0
  0
LINE
  5
306
330
1A
100
AcDbEntity
  8
SUNPOU
  6
BYBLOCK
 62
     4
 48
5.0
100
AcDbLine
 10
136.0740821663888
 20
187.5570328840032
 30
0.0
 11
136.0740821663888
 21
204.7182590141223
 31
0.0
  0
LINE
  5
307
330
1A
100
AcDbEntity
  8
SEIHIN
  6
CONTINUOUS
 62
     3
 48
8.0
100
AcDbLine
 10
145.0740821663888
 20
185.5570328840031
 30
0.0
 11
138.5741821663888
 21
185.5570328840031
 31
0.0
  0
LINE
  5
309
330
1A
100
AcDbEntity
  8
SEIHIN
  6
CONTINUOUS
 62
     3
 48
8.0
100
AcDbLine
 10
138.5740821663888
 20
185.5570328840031
 30
0.0
 11
136.0740821663888
 21
184.5570328840032
 31
0.0
  0
INSERT
  5
30A
330
1A
100
AcDbEntity
  8
SUNPOU
  6
BYBLOCK
 62
     4
 48
5.0
100
AcDbBlockReference
  2
_OPEN
 10
136.0740821663888
 20
203.2182590141223
 30
0.0
 41
3.0
 42
3.0
 43
3.0
 50
180.0
  0
LINE
  5
30B
330
1A
100
AcDbEntity
  8
SUNPOU
  6
BYBLOCK
 62
     4
 48
5.0
100
AcDbLine
 10
154.0740821663888
 20
187.5570328840032
 30
0.0
 11
154.0740821663888
 21
204.7182590141223
 31
0.0
  0
LINE
  5
30C
330
1A
100
AcDbEntity
  8
SEIHIN
  6
CONTINUOUS
 62
     3
 48
8.0
100
AcDbLine
 10
151.5740821663888
 20
185.5570328840031
 30
0.0
 11
154.0740821663888
 21
184.5570328840032
 31
0.0
  0
INSERT
  5
30E
330
1A
100
AcDbEntity
  8
SUNPOU
  6
BYBLOCK
 62
     4
 48
5.0
100
AcDbBlockReference
  2
_OPEN
 10
154.0740821663888
 20
203.2182590141223
 30
0.0
 41
3.0
 42
3.0
 43
3.0
  0
POINT
  5
30F
330
1A
100
AcDbEntity
  8
SUNPOU
  6
BYBLOCK
 62
     4
 48
5.0
100
AcDbPoint
 10
129.5319472838431
 20
230.0211815135477
 30
0.0
  0
LINE
  5
310
330
1A
100
AcDbEntity
  8
CENTER_L
 48
5.0
100
AcDbLine
 10
256.4638420565389
 20
148.0609520592244
 30
0.0
 11
256.4638420565389
 21
123.0528807078683
 31
0.0
  0
LINE
  5
311
330
1A
100
AcDbEntity
  8
SEIHIN
  6
CONTINUOUS
 62
     3
 48
8.0
100
AcDbLine
 10
261.963842056524
 20
135.5569035732832
 30
0.0
 11
261.9638362674496
 21
133.07140357329
 31
0.0
  0
CIRCLE
  5
312
330
1A
100
AcDbEntity
  8
SEIHIN
  6
CONTINUOUS
 62
     3
 48
8.0
100
AcDbCircle
 10
256.4638420565389
 20
135.5569163835463
 30
0.0
 40
2.25
  0
CIRCLE
  5
313
330
1A
100
AcDbEntity
  8
SEIHIN
  6
CONTINUOUS
 62
     3
 48
8.0
100
AcDbCircle
 10
256.4638420565389
 20
135.5569163835463
 30
0.0
 40
2.399999999999999
  0
ARC
  5
314
330
1A
100
AcDbEntity
  8
SEIHIN
  6
CONTINUOUS
 62
     3
 48
8.0
100
AcDbCircle
 10
256.4638420565389
 20
135.5569163835463
 30
0.0
 40
5.00002
100
AcDbArc
 50
359.9998665501798
 51
301.2607645501797
  0
ARC
  5
315
330
1A
100
AcDbEntity
  8
SEIHIN
  6
CONTINUOUS
 62
     3
 48
8.0
100
AcDbCircle
 10
327.1637420568129
 20
135.5569517136697
 30
0.0
 40
4.500017999999999
100
AcDbArc
 50
179.9998665501798
 51
236.2511795501797
  0
ARC
  5
316
330
1A
100
AcDbEntity
  8
SEIHIN
  6
CONTINUOUS
 62
     3
 48
8.0
100
AcDbCircle
 10
327.1637420568129
 20
135.5569517136697
 30
0.0
 40
3.300016999999999
100
AcDbArc
 50
284.3211905501798
 51
107.5832085501797
  0
ARC
  5
317
330
1A
100
AcDbEntity
  8
SEIHIN
  6
CONTINUOUS
 62
     3
 48
8.0
100
AcDbCircle
 10
327.1637420568129
 20
135.5569517136697
 30
0.0
 40
6.000027999999999
100
AcDbArc
 50
286.8516745501797
 51
359.9998665501798
  0
ARC
  5
318
330
1A
100
AcDbEntity
  8
SEIHIN
  6
CONTINUOUS
 62
     3
 48
8.0
100
AcDbCircle
 10
327.1637420568129
 20
135.5569517136697
 30
0.0
 40
5.000007
100
AcDbArc
 50
286.8517845501798
 51
359.9998665501798
  0
LINE
  5
319
330
1A
100
AcDbEntity
  8
CENTER_L
  6
CENTER
 62
     1
 48
5.0
100
AcDbLine
 10
292.3140074233832
 20
79.96624498566397
 30
0.0
 11
292.3131408739926
 21
192.5570328828042
 31
0.0
  0
LINE
  5
31A
330
1A
100
AcDbEntity
  8
SEIHIN
  6
CONTINUOUS
 62
     3
 48
8.0
100
AcDbLine
 10
307.3137101474331
 20
121.856897947111
 30
0.0
 11
312.7436101474184
 21
121.8568853001205
 31
0.0
  0
LINE
  5
31B
330
1A
100
AcDbEntity
  8
SEIHIN
  6
CONTINUOUS
 62
     3
 48
8.0
100
AcDbLine
 10
304.313803160025
 20
118.8569049343025
 30
0.0
 11
313.4485031600002
 21
118.8568836583187
 31
0.0
  0
LINE
  5
31C
330
1A
100
AcDbEntity
  8
SEIHIN
  6
CONTINUOUS
 62
     3
 48
8.0
100
AcDbLine
 10
304.3138008308863
 20
117.8569049343052
 30
0.0
 11
313.4485008308615
 21
117.8568836583215
 31
0.0
  0
LINE
  5
31D
330
1A
100
AcDbEntity
  8
SEIHIN
  6
CONTINUOUS
 62
     3
 48
5.0
100
AcDbLine
 10
302.3139697824475
 20
109.8569328840031
 30
0.0
 11
302.3139697824475
 21
84.85693288400318
 31
0.0
  0
LINE
  5
31E
330
1A
100
AcDbEntity
  8
SEIHIN
  6
CONTINUOUS
 62
     3
 48
5.0
100
AcDbLine
 10
282.3139697824474
 20
84.85693288400318
 30
0.0
 11
282.3139697824474
 21
109.8569328840031
 31
0.0
  0
DIMENSION
  5
31F
330
1A
100
AcDbEntity
  8
SUNPOU
 48
5.0
100
AcDbDimension
  2
*D9
 10
302.3139697824475
 20
61.4964824012457
 30
0.0
 11
292.3139697824474
 21
63.9964824012457
 31
0.0
 70
    32
  3
STANDARD
100
AcDbAlignedDimension
 13
282.3139697824474
 23
84.85693288400318
 33
0.0
 14
302.3139697824475
 24
84.85693288400318
 34
0.0
100
AcDbRotatedDimension
1001
ACAD
1000
DSTYLE
1002
{
1070
   140
1040
3.0
1070
    74
1070
     0
1070
   172
1070
     1
1070
    73
1070
     0
1070
   272
1070
     2
1070
    77
1070
     3
1070
   173
1070
     1
1070
   147
1040
1.0
1070
    42
1040
3.0
1070
    44
1040
1.5
1070
    43
1040
7.0
1070
   271
1070
     0
1070
   178
1070
     4
1070
   177
1070
     4
1070
   176
1070
     4
1070
   141
1040
150.0
1070
     7
1000
_OPEN
1070
     6
1000
_OPEN
1070
    41
1040
3.0
1002
}
  0
LINE
  5
320
330
1A
100
AcDbEntity
  8
SEIHIN
 48
5.0
100
AcDbLine
 10
302.3139697824475
 20
85.85693288400317
 30
0.0
 11
282.3139697824474
 21
85.85693288400317
 31
0.0
  0
LINE
  5
321
330
1A
100
AcDbEntity
  8
SEIHIN
  6
CONTINUOUS
 62
     3
 48
5.0
100
AcDbLine
 10
302.3139697824475
 20
84.85693288400318
 30
0.0
 11
282.3139697824474
 21
84.85693288400318
 31
0.0
  0
LINE
  5
322
330
1A
100
AcDbEntity
  8
SEIHIN
  6
CONTINUOUS
 62
     3
 48
5.0
100
AcDbLine
 10
287.3139697845791
 20
84.85675591950132
 30
0.0
 11
287.3139543901394
 21
85.85685591938284
 31
0.0
  0
LINE
  5
323
330
1A
100
AcDbEntity
  8
SEIHIN
  6
CONTINUOUS
 62
     3
 48
5.0
100
AcDbLine
 10
297.3139697824474
 20
84.85683288400315
 30
0.0
 11
297.3139697824474
 21
85.85693288400317
 31
0.0
  0
ARC
  5
324
330
1A
100
AcDbEntity
  8
SEIHIN
  6
CONTINUOUS
 62
     3
 48
8.0
100
AcDbCircle
 10
278.3137101472788
 20
121.8568654921348
 30
0.0
 40
1.0
100
AcDbArc
 50
179.9998665501798
 51
359.9998665501798
  0
LINE
  5
325
330
1A
100
AcDbEntity
  8
SEIHIN
  6
CONTINUOUS
 62
     3
 48
8.0
100
AcDbLine
 10
278.313707818373
 20
120.8569654921374
 30
0.0
 11
292.313707818335
 21
120.856932884195
 31
0.0
  0
LINE
  5
326
330
1A
100
AcDbEntity
  8
SEIHIN
  6
CONTINUOUS
 62
     3
 48
8.0
100
AcDbLine
 10
280.3138031600901
 20
118.8569608336325
 30
0.0
 11
271.0269031601152
 21
118.8569824641111
 31
0.0
  0
LINE
  5
327
330
1A
100
AcDbEntity
  8
SEIHIN
  6
CONTINUOUS
 62
     3
 48
8.0
100
AcDbLine
 10
280.3137008307184
 20
117.8568608338681
 30
0.0
 11
271.0269008307435
 21
117.8568824641138
 31
0.0
  0
ARC
  5
328
330
1A
100
AcDbEntity
  8
SEIHIN
  6
CONTINUOUS
 62
     3
 48
8.0
100
AcDbCircle
 10
264.9638362674415
 20
133.0713965858737
 30
0.0
 40
5.000015
100
AcDbArc
 50
206.1390585501713
 51
249.5123565501798
  0
ARC
  5
329
330
1A
100
AcDbEntity
  8
SEIHIN
  6
CONTINUOUS
 62
     3
 48
8.0
100
AcDbCircle
 10
264.9638362674415
 20
133.0713965858737
 30
0.0
 40
2.999976999999999
100
AcDbArc
 50
179.9998665501798
 51
249.5122235501797
  0
ARC
  5
32A
330
1A
100
AcDbEntity
  8
SEIHIN
  6
CONTINUOUS
 62
     3
 48
8.0
100
AcDbCircle
 10
260.0638057219648
 20
119.9569079986891
 30
0.0
 40
7.999964
100
AcDbArc
 50
4.693384550179835
 51
69.51255755017978
  0
ARC
  5
32B
330
1A
100
AcDbEntity
  8
SEIHIN
  6
CONTINUOUS
 62
     3
 48
8.0
100
AcDbCircle
 10
264.9638362674415
 20
133.0713965858737
 30
0.0
 40
5.999997
100
AcDbArc
 50
206.187822550171
 51
249.5125575501798
  0
ARC
  5
32C
330
1A
100
AcDbEntity
  8
SEIHIN
  6
CONTINUOUS
 62
     3
 48
8.0
100
AcDbCircle
 10
258.6823290720502
 20
129.9821112163672
 30
0.0
 40
0.999994
100
AcDbArc
 50
26.185701550171
 51
111.6980675501798
  0
ARC
  5
32D
330
1A
100
AcDbEntity
  8
SEIHIN
  6
CONTINUOUS
 62
     3
 48
8.0
100
AcDbCircle
 10
259.5774301106107
 20
130.4280091315539
 30
0.0
 40
1.000028
100
AcDbArc
 50
26.13960155017133
 51
121.2594005501797
  0
ARC
  5
32E
330
1A
100
AcDbEntity
  8
SEIHIN
  6
CONTINUOUS
 62
     3
 48
8.0
100
AcDbCircle
 10
260.0638057219648
 20
119.9569079986891
 30
0.0
 40
10.999978
100
AcDbArc
 50
13.98469355017977
 51
69.51313655017981
  0
ARC
  5
32F
330
1A
100
AcDbEntity
  8
SEIHIN
  6
CONTINUOUS
 62
     3
 48
8.0
100
AcDbCircle
 10
260.0638057219648
 20
119.9569079986891
 30
0.0
 40
9.000013
100
AcDbArc
 50
4.693193550179817
 51
69.51266855017983
  0
ARC
  5
330
330
1A
100
AcDbEntity
  8
SEIHIN
  6
CONTINUOUS
 62
     3
 48
8.0
100
AcDbCircle
 10
271.7081124764355
 20
122.856880877491
 30
0.0
 40
0.9999749999999998
100
AcDbArc
 50
193.9874705501798
 51
269.9998665501798
  0
ARC
  5
331
330
1A
100
AcDbEntity
  8
SEIHIN
  6
CONTINUOUS
 62
     3
 48
8.0
100
AcDbCircle
 10
271.0269078183927
 20
120.8569824641057
 30
0.0
 40
2.000004999999999
100
AcDbArc
 50
184.6947535501797
 51
269.9998665501798
  0
ARC
  5
332
330
1A
100
AcDbEntity
  8
SEIHIN
  6
CONTINUOUS
 62
     3
 48
8.0
100
AcDbCircle
 10
271.0269078181597
 20
120.8568824641057
 30
0.0
 40
3.000027
100
AcDbArc
 50
184.6918195501798
 51
269.9998665501798
  0
LINE
  5
333
330
1A
100
AcDbEntity
  8
SEIHIN
  6
CONTINUOUS
 62
     3
 48
8.0
100
AcDbLine
 10
277.3137101472815
 20
121.8568678212735
 30
0.0
 11
271.8838101472963
 21
121.856880468264
 31
0.0
  0
LINE
  5
334
330
1A
100
AcDbEntity
  8
SEIHIN
  6
CONTINUOUS
 62
     3
 48
8.0
100
AcDbLine
 10
286.313782197825
 20
109.8569468588244
 30
0.0
 11
286.3136891852412
 21
112.8569468590492
 31
0.0
  0
LINE
  5
335
330
1A
100
AcDbEntity
  8
SEIHIN
  6
CONTINUOUS
 62
     3
 48
8.0
100
AcDbLine
 10
285.3137821978277
 20
109.8569491879631
 30
0.0
 11
285.313689185244
 21
112.8569491881879
 31
0.0
  0
LINE
  5
336
330
1A
100
AcDbEntity
  8
SEIHIN
  6
CONTINUOUS
 62
     3
 48
8.0
100
AcDbLine
 10
298.3137821977925
 20
109.8569189091594
 30
0.0
 11
298.3136891852088
 21
112.8569189093842
 31
0.0
  0
LINE
  5
337
330
1A
100
AcDbEntity
  8
SEIHIN
  6
CONTINUOUS
 62
     3
 48
8.0
100
AcDbLine
 10
299.3137821977898
 20
109.8569165800207
 30
0.0
 11
299.313689185206
 21
112.8569165802454
 31
0.0
  0
LINE
  5
338
330
1A
100
AcDbEntity
  8
SEIHIN
  6
CONTINUOUS
 62
     3
 48
8.0
100
AcDbLine
 10
299.3137821977898
 20
109.8569165800207
 30
0.0
 11
285.3137821978277
 21
109.8569491879631
 31
0.0
  0
LINE
  5
339
330
1A
100
AcDbEntity
  8
SEIHIN
 48
5.0
100
AcDbLine
 10
302.3139697824475
 20
105.8569328840031
 30
0.0
 11
282.3139697824474
 21
105.8569328840031
 31
0.0
  0
LINE
  5
33A
330
1A
100
AcDbEntity
  8
SEIHIN
 48
5.0
100
AcDbLine
 10
302.3139697824475
 20
108.8569328840031
 30
0.0
 11
282.3139697824474
 21
108.8569328840031
 31
0.0
  0
LINE
  5
33B
330
1A
100
AcDbEntity
  8
SEIHIN
 48
5.0
100
AcDbLine
 10
302.3139697824475
 20
88.85693288400316
 30
0.0
 11
282.3139697824474
 21
88.85693288400316
 31
0.0
  0
LINE
  5
33C
330
1A
100
AcDbEntity
  8
SEIHIN
  6
CONTINUOUS
 62
     3
 48
5.0
100
AcDbLine
 10
282.3139697824474
 20
109.8569328840031
 30
0.0
 11
302.3139697824475
 21
109.8569328840031
 31
0.0
  0
LINE
  5
33D
330
1A
100
AcDbEntity
  8
SEIHIN
  6
CONTINUOUS
 62
     3
 48
5.0
100
AcDbLine
 10
282.2863697823474
 20
109.8569328840031
 30
0.0
 11
302.3415697825474
 21
109.8569328840031
 31
0.0
  0
LINE
  5
33E
330
1A
100
AcDbEntity
  8
SEIHIN
  6
CONTINUOUS
 62
     3
 48
5.0
100
AcDbLine
 10
284.2859849607894
 20
109.8568093129944
 30
0.0
 11
284.2859003521504
 21
108.8569093115736
 31
0.0
  0
LINE
  5
33F
330
1A
100
AcDbEntity
  8
SEIHIN
  6
CONTINUOUS
 62
     3
 48
5.0
100
AcDbLine
 10
300.3415697825474
 20
109.8569328840031
 30
0.0
 11
300.3416697825474
 21
108.8570328840032
 31
0.0
  0
LINE
  5
340
330
1A
100
AcDbEntity
  8
SEIHIN
  6
CONTINUOUS
 62
     3
 48
8.0
100
AcDbLine
 10
306.313707818297
 20
120.8569002762525
 30
0.0
 11
292.313707818335
 21
120.856932884195
 31
0.0
  0
LINE
  5
341
330
1A
100
AcDbEntity
  8
SEIHIN
  6
CONTINUOUS
 62
     3
 48
8.0
100
AcDbLine
 10
292.8137101474724
 20
121.8569317196229
 30
0.0
 11
305.3137101474386
 21
121.8569026053885
 31
0.0
  0
ARC
  5
342
330
1A
100
AcDbEntity
  8
SEIHIN
  6
CONTINUOUS
 62
     3
 48
8.0
100
AcDbCircle
 10
280.3136891852576
 20
112.8569608338817
 30
0.0
 40
6.0
100
AcDbArc
 50
359.9998665501798
 51
89.99986655017981
  0
LINE
  5
343
330
1A
100
AcDbEntity
  8
SEIHIN
  6
CONTINUOUS
 62
     3
 48
8.0
100
AcDbLine
 10
291.8137101474751
 20
121.8569340487616
 30
0.0
 11
279.3137101472761
 21
121.856863162996
 31
0.0
  0
ARC
  5
344
330
1A
100
AcDbEntity
  8
SEIHIN
  6
CONTINUOUS
 62
     3
 48
8.0
100
AcDbCircle
 10
280.3136891852576
 20
112.8569608338817
 30
0.0
 40
5.0
100
AcDbArc
 50
359.9998665501798
 51
89.99986655017981
  0
ARC
  5
345
330
1A
100
AcDbEntity
  8
SEIHIN
  6
CONTINUOUS
 62
     3
 48
8.0
100
AcDbCircle
 10
292.3137089829044
 20
121.3569328841936
 30
0.0
 40
0.5
100
AcDbArc
 50
179.9998665501798
 51
359.9998665501798
  0
LINE
  5
346
330
1A
100
AcDbEntity
  8
SEIHIN
  6
CONTINUOUS
 62
     3
 48
8.0
100
AcDbLine
 10
291.8137089829058
 20
121.356934048763
 30
0.0
 11
291.8137101474751
 21
121.8569340487616
 31
0.0
  0
LINE
  5
347
330
1A
100
AcDbEntity
  8
SEIHIN
  6
CONTINUOUS
 62
     3
 48
8.0
100
AcDbLine
 10
292.813708982903
 20
121.3569317196242
 30
0.0
 11
292.8137101474724
 21
121.8569317196229
 31
0.0
  0
ARC
  5
348
330
1A
100
AcDbEntity
  8
SEIHIN
  6
CONTINUOUS
 62
     3
 48
8.0
100
AcDbCircle
 10
304.3136891851925
 20
112.8569049345517
 30
0.0
 40
5.0
100
AcDbArc
 50
89.99986655017981
 51
179.9998665501798
  0
ARC
  5
349
330
1A
100
AcDbEntity
  8
SEIHIN
  6
CONTINUOUS
 62
     3
 48
8.0
100
AcDbCircle
 10
304.3136891851925
 20
112.8569049345517
 30
0.0
 40
6.0
100
AcDbArc
 50
89.99986655017981
 51
179.9998665501798
  0
ARC
  5
34A
330
1A
100
AcDbEntity
  8
SEIHIN
  6
CONTINUOUS
 62
     3
 48
8.0
100
AcDbCircle
 10
306.3137101474358
 20
121.8569002762498
 30
0.0
 40
1.0
100
AcDbArc
 50
179.9998665501798
 51
359.9998665501798
  0
LINE
  5
34B
330
1A
100
AcDbEntity
  8
SEIHIN
  6
CONTINUOUS
 62
     3
 48
8.0
100
AcDbLine
 10
322.1031238844205
 20
127.7547635005304
 30
0.0
 11
328.903128681962
 21
129.8145476623813
 31
0.0
  0
LINE
  5
34C
330
1A
100
AcDbEntity
  8
SEIHIN
  6
CONTINUOUS
 62
     3
 48
8.0
100
AcDbLine
 10
321.8132261136398
 20
128.7118641757452
 30
0.0
 11
328.6132309109485
 21
130.7715483375961
 31
0.0
  0
ARC
  5
34D
330
1A
100
AcDbEntity
  8
SEIHIN
  6
CONTINUOUS
 62
     3
 48
8.0
100
AcDbCircle
 10
324.4223060515961
 20
120.0983580988127
 30
0.0
 40
8.000040999999999
100
AcDbArc
 50
106.8517435501797
 51
176.0462045501798
  0
ARC
  5
34E
330
1A
100
AcDbEntity
  8
SEIHIN
  6
CONTINUOUS
 62
     3
 48
8.0
100
AcDbCircle
 10
324.4223060515961
 20
120.0983580988127
 30
0.0
 40
9.000004999999999
100
AcDbArc
 50
106.8518585501797
 51
176.0458765501797
  0
ARC
  5
34F
330
1A
100
AcDbEntity
  8
SEIHIN
  6
CONTINUOUS
 62
     3
 48
8.0
100
AcDbCircle
 10
324.4223060515961
 20
120.0983580988127
 30
0.0
 40
10.999985
100
AcDbArc
 50
103.2899855501798
 51
166.7102545501798
  0
ARC
  5
350
330
1A
100
AcDbEntity
  8
SEIHIN
  6
CONTINUOUS
 62
     3
 48
8.0
100
AcDbCircle
 10
313.4484078182777
 20
120.8568836585462
 30
0.0
 40
3.000021999999999
100
AcDbArc
 50
270.0017765501798
 51
356.0452855501797
  0
ARC
  5
351
330
1A
100
AcDbEntity
  8
SEIHIN
  6
CONTINUOUS
 62
     3
 48
8.0
100
AcDbCircle
 10
312.7436124765571
 20
122.8568853001178
 30
0.0
 40
0.999993
100
AcDbArc
 50
269.9998665501798
 51
346.7084945501798
  0
ARC
  5
352
330
1A
100
AcDbEntity
  8
SEIHIN
  6
CONTINUOUS
 62
     3
 48
8.0
100
AcDbCircle
 10
313.4484078182777
 20
120.8568836585462
 30
0.0
 40
2.000029999999999
100
AcDbArc
 50
269.9998665501798
 51
356.0463035501798
  0
LINE
  5
353
330
1A
100
AcDbEntity
  8
SEIHIN
  6
CONTINUOUS
 62
     3
 48
8.0
100
AcDbLine
 10
321.7013308757973
 20
130.7564644363702
 30
0.0
 11
327.9800346093897
 21
132.3594498124024
 31
0.0
  0
LINE
  5
354
330
1A
100
AcDbEntity
  8
SEIHIN
  6
CONTINUOUS
 62
     3
 48
8.0
100
AcDbLine
 10
326.66373164044
 20
131.0847528782512
 30
0.0
 11
326.6637316110929
 21
131.0721528782513
 31
0.0
  0
DIMENSION
  5
355
330
1A
100
AcDbEntity
  8
SUNPOU
 48
5.0
100
AcDbDimension
  2
*D10
 10
251.463822056539
 20
212.6903430793737
 30
0.0
 11
292.3137855503759
 21
215.1903430793737
 31
0.0
 70
    32
  3
STANDARD
100
AcDbAlignedDimension
 13
333.163749044213
 23
138.5569377388291
 33
0.0
 14
251.463822056539
 24
135.5569163835463
 34
0.0
100
AcDbRotatedDimension
1001
ACAD
1000
DSTYLE
1002
{
1070
   140
1040
3.0
1070
    74
1070
     0
1070
   172
1070
     1
1070
    73
1070
     0
1070
   272
1070
     2
1070
    77
1070
     3
1070
   173
1070
     1
1070
   147
1040
1.0
1070
    42
1040
3.0
1070
    44
1040
1.5
1070
    43
1040
7.0
1070
   271
1070
     0
1070
   178
1070
     4
1070
   177
1070
     4
1070
   176
1070
     4
1070
   141
1040
150.0
1070
     7
1000
_OPEN
1070
     6
1000
_OPEN
1070
    41
1040
3.0
1002
}
  0
DIMENSION
  5
356
330
1A
100
AcDbEntity
  8
SUNPOU
 48
5.0
100
AcDbDimension
  2
*D11
 10
325.6637303311757
 20
203.9561552302124
 30
0.0
 11
292.3138303311496
 21
206.4561552302124
 31
0.0
 70
    32
  3
STANDARD
100
AcDbAlignedDimension
 13
258.9639303311237
 23
173.4570105605967
 33
0.0
 14
325.6637303311757
 24
173.4569552075079
 34
0.0
100
AcDbRotatedDimension
1001
ACAD
1000
DSTYLE
1002
{
1070
   140
1040
3.0
1070
    74
1070
     0
1070
   172
1070
     1
1070
    73
1070
     0
1070
   272
1070
     2
1070
    77
1070
     3
1070
   173
1070
     1
1070
   147
1040
1.0
1070
    42
1040
3.0
1070
    44
1040
1.5
1070
    43
1040
7.0
1070
   271
1070
     0
1070
   178
1070
     4
1070
   177
1070
     4
1070
   176
1070
     4
1070
   141
1040
150.0
1070
     7
1000
_OPEN
1070
     6
1000
_OPEN
1070
    41
1040
3.0
1002
}
  0
ARC
  5
357
330
1A
100
AcDbEntity
  8
SEIHIN
  6
CONTINUOUS
 62
     3
 48
8.0
100
AcDbCircle
 10
311.977446868098
 20
180.5569870847804
 30
0.0
 40
2.000016
100
AcDbArc
 50
16.80667255017976
 51
89.99986655017981
  0
LINE
  5
358
330
1A
100
AcDbEntity
  8
SEIHIN
  6
CONTINUOUS
 62
     3
 48
8.0
100
AcDbLine
 10
292.3137585138449
 20
185.5570328842524
 30
0.0
 11
313.5637585137873
 21
185.556983390054
 31
0.0
  0
LINE
  5
359
330
1A
100
AcDbEntity
  8
SEIHIN
  6
CONTINUOUS
 62
     3
 48
8.0
100
AcDbLine
 10
292.3137561847062
 20
184.5570328842551
 30
0.0
 11
313.5637561846486
 21
184.5569833900567
 31
0.0
  0
ARC
  5
35A
330
1A
100
AcDbEntity
  8
SEIHIN
  6
CONTINUOUS
 62
     3
 48
8.0
100
AcDbCircle
 10
260.2052556220734
 20
184.3155076694073
 30
0.0
 40
8.999945
100
AcDbArc
 50
279.1990725501798
 51
350.8012895501798
  0
ARC
  5
35B
330
1A
100
AcDbEntity
  8
SEIHIN
  6
CONTINUOUS
 62
     3
 48
8.0
100
AcDbCircle
 10
260.2052556220734
 20
184.3155076694073
 30
0.0
 40
10.999911
100
AcDbArc
 50
286.8052285501798
 51
343.1951535501797
  0
ARC
  5
35C
330
1A
100
AcDbEntity
  8
SEIHIN
  6
CONTINUOUS
 62
     3
 48
8.0
100
AcDbCircle
 10
260.2052556220734
 20
184.3155076694073
 30
0.0
 40
7.999985999999999
100
AcDbArc
 50
279.1987985501797
 51
350.8009345501798
  0
LINE
  5
35D
330
1A
100
AcDbEntity
  8
SEIHIN
  6
CONTINUOUS
 62
     3
 48
8.0
100
AcDbLine
 10
261.9639266364026
 20
171.8707035731847
 30
0.0
 11
261.9638924826108
 21
157.2070035732245
 31
0.0
  0
LINE
  5
35E
330
1A
100
AcDbEntity
  8
SEIHIN
  6
CONTINUOUS
 62
     3
 48
8.0
100
AcDbLine
 10
258.9639303311237
 20
173.4570105605967
 30
0.0
 11
258.9638652992407
 21
145.5360105606724
 31
0.0
  0
LINE
  5
35F
330
1A
100
AcDbEntity
  8
SEIHIN
  6
CONTINUOUS
 62
     3
 48
8.0
100
AcDbLine
 10
259.963930331121
 20
173.4570082314579
 30
0.0
 11
259.963865347917
 21
145.5569082315336
 31
0.0
  0
ARC
  5
360
330
1A
100
AcDbEntity
  8
SEIHIN
  6
CONTINUOUS
 62
     3
 48
8.0
100
AcDbCircle
 10
261.963871520362
 20
148.2070035732489
 30
0.0
 40
1.0
100
AcDbArc
 50
269.9998665501798
 51
359.9998665501798
  0
ARC
  5
361
330
1A
100
AcDbEntity
  8
SEIHIN
  6
CONTINUOUS
 62
     3
 48
8.0
100
AcDbCircle
 10
261.9638901534721
 20
156.2070035732272
 30
0.0
 40
1.0
100
AcDbArc
 50
359.9998665501798
 51
89.99986655017981
  0
LINE
  5
362
330
1A
100
AcDbEntity
  8
SEIHIN
  6
CONTINUOUS
 62
     3
 48
8.0
100
AcDbLine
 10
261.9638691909904
 20
147.2069035732516
 30
0.0
 11
261.963842056524
 21
135.5569035732832
 31
0.0
  0
ARC
  5
363
330
1A
100
AcDbEntity
  8
SEIHIN
  6
CONTINUOUS
 62
     3
 48
8.0
100
AcDbCircle
 10
256.4638513730939
 20
139.5569163835355
 30
0.0
 40
3.0
100
AcDbArc
 50
89.99986655017981
 51
179.9998665501798
  0
LINE
  5
364
330
1A
100
AcDbEntity
  8
SEIHIN
  6
CONTINUOUS
 62
     3
 48
8.0
100
AcDbLine
 10
261.4638420565254
 20
135.5569047378526
 30
0.0
 11
261.963842056524
 21
135.5569035732832
 31
0.0
  0
LINE
  5
365
330
1A
100
AcDbEntity
  8
SEIHIN
  6
CONTINUOUS
 62
     3
 48
8.0
100
AcDbLine
 10
261.4638420565254
 20
135.5569047378526
 30
0.0
 11
261.963842056524
 21
135.5569035732832
 31
0.0
  0
ARC
  5
366
330
1A
100
AcDbEntity
  8
SEIHIN
  6
CONTINUOUS
 62
     3
 48
8.0
100
AcDbCircle
 10
255.9638652992488
 20
145.5360175480886
 30
0.0
 40
3.000016999999999
100
AcDbArc
 50
274.7800025501798
 51
359.9998665501798
  0
ARC
  5
367
330
1A
100
AcDbEntity
  8
SEIHIN
  6
CONTINUOUS
 62
     3
 48
8.0
100
AcDbCircle
 10
256.9638653479251
 20
145.5569152189498
 30
0.0
 40
3.0
100
AcDbArc
 50
269.9998665501798
 51
359.9998665501798
  0
LINE
  5
368
330
1A
100
AcDbEntity
  8
SEIHIN
  6
CONTINUOUS
 62
     3
 48
8.0
100
AcDbLine
 10
256.9638583605089
 20
142.556915218958
 30
0.0
 11
256.4638583605101
 21
142.5569163835273
 31
0.0
  0
LINE
  5
369
330
1A
100
AcDbEntity
  8
SEIHIN
  6
CONTINUOUS
 62
     3
 48
8.0
100
AcDbLine
 10
262.9638715203593
 20
148.2070012441101
 30
0.0
 11
262.9638901534693
 21
156.2070012440885
 31
0.0
  0
ARC
  5
36A
330
1A
100
AcDbEntity
  8
SEIHIN
  6
CONTINUOUS
 62
     3
 48
8.0
100
AcDbCircle
 10
263.9639266363972
 20
171.8706989149072
 30
0.0
 40
2.000062999999999
100
AcDbArc
 50
106.8058445501798
 51
179.9998665501798
  0
ARC
  5
36B
330
1A
100
AcDbEntity
  8
SEIHIN
  6
CONTINUOUS
 62
     3
 48
8.0
100
AcDbCircle
 10
261.9639303311155
 20
173.4570035731804
 30
0.0
 40
2.999991999999999
100
AcDbArc
 50
99.19907255017982
 51
179.9998665501798
  0
ARC
  5
36C
330
1A
100
AcDbEntity
  8
SEIHIN
  6
CONTINUOUS
 62
     3
 48
8.0
100
AcDbCircle
 10
261.9639303311155
 20
173.4570035731804
 30
0.0
 40
2.000016999999999
100
AcDbArc
 50
99.20080455017981
 51
179.9998665501798
  0
LINE
  5
36D
330
1A
100
AcDbEntity
  8
SEIHIN
  6
CONTINUOUS
 62
     3
 48
8.0
100
AcDbLine
 10
292.3137585138449
 20
185.5570328842524
 30
0.0
 11
271.0637585136696
 21
185.5569823784508
 31
0.0
  0
LINE
  5
36E
330
1A
100
AcDbEntity
  8
SEIHIN
  6
CONTINUOUS
 62
     3
 48
8.0
100
AcDbLine
 10
292.3137561847062
 20
184.5570328842551
 30
0.0
 11
271.0637561845309
 21
184.5569823784535
 31
0.0
  0
LINE
  5
36F
330
1A
100
AcDbEntity
  8
SEIHIN
  6
CONTINUOUS
 62
     3
 48
8.0
100
AcDbLine
 10
292.3137515264287
 20
182.5570328842605
 30
0.0
 11
272.6500515262491
 21
182.5569786837462
 31
0.0
  0
ARC
  5
370
330
1A
100
AcDbEntity
  8
SEIHIN
  6
CONTINUOUS
 62
     3
 48
8.0
100
AcDbCircle
 10
272.6500468679716
 20
180.5569786837516
 30
0.0
 40
2.000000999999999
100
AcDbArc
 50
89.99986655017981
 51
163.1958025501798
  0
ARC
  5
371
330
1A
100
AcDbEntity
  8
SEIHIN
  6
CONTINUOUS
 62
     3
 48
8.0
100
AcDbCircle
 10
271.0637515262534
 20
182.5569823784589
 30
0.0
 40
2.999991999999999
100
AcDbArc
 50
89.99986655017981
 51
170.8006605501797
  0
ARC
  5
372
330
1A
100
AcDbEntity
  8
SEIHIN
  6
CONTINUOUS
 62
     3
 48
8.0
100
AcDbCircle
 10
271.0637515262534
 20
182.5569823784589
 30
0.0
 40
2.000008999999999
100
AcDbArc
 50
89.99986655017981
 51
170.8017565501797
  0
LINE
  5
373
330
1A
100
AcDbEntity
  8
SEIHIN
  6
CONTINUOUS
 62
     3
 48
8.0
100
AcDbLine
 10
292.3137515264287
 20
182.5570328842605
 30
0.0
 11
311.9774515263755
 21
182.5569870847749
 31
0.0
  0
ARC
  5
374
330
1A
100
AcDbEntity
  8
SEIHIN
  6
CONTINUOUS
 62
     3
 48
8.0
100
AcDbCircle
 10
324.4222556223651
 20
184.3155580991042
 30
0.0
 40
9.000002
100
AcDbArc
 50
189.1990725501798
 51
260.8007625501798
  0
ARC
  5
375
330
1A
100
AcDbEntity
  8
SEIHIN
  6
CONTINUOUS
 62
     3
 48
8.0
100
AcDbCircle
 10
324.4222556223651
 20
184.3155580991042
 30
0.0
 40
11.000022
100
AcDbArc
 50
196.8050785501798
 51
253.1948055501798
  0
ARC
  5
376
330
1A
100
AcDbEntity
  8
SEIHIN
  6
CONTINUOUS
 62
     3
 48
8.0
100
AcDbCircle
 10
324.4222556223651
 20
184.3155580991042
 30
0.0
 40
7.999994
100
AcDbArc
 50
189.1995055501798
 51
260.8009345501798
  0
LINE
  5
377
330
1A
100
AcDbEntity
  8
SEIHIN
  6
CONTINUOUS
 62
     3
 48
8.0
100
AcDbLine
 10
322.663726636471
 20
171.8706621949285
 30
0.0
 11
322.6637924824462
 21
157.2068621947354
 31
0.0
  0
LINE
  5
378
330
1A
100
AcDbEntity
  8
SEIHIN
  6
CONTINUOUS
 62
     3
 48
8.0
100
AcDbLine
 10
325.6637303311757
 20
173.4569552075079
 30
0.0
 11
325.6637519386541
 21
139.7996552073664
 31
0.0
  0
LINE
  5
379
330
1A
100
AcDbEntity
  8
SEIHIN
  6
CONTINUOUS
 62
     3
 48
8.0
100
AcDbLine
 10
324.6637303311784
 20
173.4569575366467
 30
0.0
 11
324.6637543814575
 21
140.8484575365022
 31
0.0
  0
ARC
  5
37A
330
1A
100
AcDbEntity
  8
SEIHIN
  6
CONTINUOUS
 62
     3
 48
8.0
100
AcDbCircle
 10
329.6637490442224
 20
138.5569458908147
 30
0.0
 40
3.499969
100
AcDbArc
 50
359.9998665501798
 51
177.6123545501797
  0
LINE
  5
37B
330
1A
100
AcDbEntity
  8
SEIHIN
  6
CONTINUOUS
 62
     3
 48
8.0
100
AcDbLine
 10
322.6637420568252
 20
135.5569621947941
 30
0.0
 11
322.6637691910587
 21
147.2068621947625
 31
0.0
  0
ARC
  5
37C
330
1A
100
AcDbEntity
  8
SEIHIN
  6
CONTINUOUS
 62
     3
 48
8.0
100
AcDbCircle
 10
325.6637543814548
 20
140.8484552073635
 30
0.0
 40
1.000013999999999
100
AcDbArc
 50
179.9998665501798
 51
285.8303605501798
  0
ARC
  5
37D
330
1A
100
AcDbEntity
  8
SEIHIN
  6
CONTINUOUS
 62
     3
 48
8.0
100
AcDbCircle
 10
327.1637420568129
 20
135.5569517136697
 30
0.0
 40
4.499986999999999
100
AcDbArc
 50
98.77748955017983
 51
105.8256345501797
  0
LINE
  5
37E
330
1A
100
AcDbEntity
  8
SEIHIN
  6
CONTINUOUS
 62
     3
 48
8.0
100
AcDbLine
 10
327.1508560316456
 20
141.5569517436993
 30
0.0
 11
327.1508547182442
 21
140.9930517437009
 31
0.0
  0
LINE
  5
37F
330
1A
100
AcDbEntity
  8
SEIHIN
  6
CONTINUOUS
 62
     3
 48
8.0
100
AcDbLine
 10
327.1637560316455
 20
141.5569517136535
 30
0.0
 11
325.6637560316495
 21
141.5569552073616
 31
0.0
  0
LINE
  5
380
330
1A
100
AcDbEntity
  8
SEIHIN
  6
CONTINUOUS
 62
     3
 48
8.0
100
AcDbLine
 10
321.6636715202002
 20
148.2068645241314
 30
0.0
 11
321.6636901533102
 21
156.2068645241097
 31
0.0
  0
ARC
  5
381
330
1A
100
AcDbEntity
  8
SEIHIN
  6
CONTINUOUS
 62
     3
 48
8.0
100
AcDbCircle
 10
322.6636715201975
 20
148.2068621949927
 30
0.0
 40
1.0
100
AcDbArc
 50
179.9998665501798
 51
270.0055965501797
  0
ARC
  5
382
330
1A
100
AcDbEntity
  8
SEIHIN
  6
CONTINUOUS
 62
     3
 48
8.0
100
AcDbCircle
 10
322.6636901533075
 20
156.206862194971
 30
0.0
 40
1.0
100
AcDbArc
 50
89.99986655017981
 51
179.9998665501798
  0
LINE
  5
383
330
1A
100
AcDbEntity
  8
SEIHIN
  6
CONTINUOUS
 62
     3
 48
8.0
100
AcDbLine
 10
332.1637547494411
 20
141.0064400679612
 30
0.0
 11
332.1637420567995
 21
135.556940067976
 31
0.0
  0
LINE
  5
384
330
1A
100
AcDbEntity
  8
SEIHIN
  6
CONTINUOUS
 62
     3
 48
8.0
100
AcDbLine
 10
333.163749044213
 20
138.5569377388291
 30
0.0
 11
333.1637420567968
 21
135.5569377388373
 31
0.0
  0
ARC
  5
385
330
1A
100
AcDbEntity
  8
SEIHIN
  6
CONTINUOUS
 62
     3
 48
8.0
100
AcDbCircle
 10
322.6637303311838
 20
173.4569621949242
 30
0.0
 40
3.000041999999999
100
AcDbArc
 50
359.9998665501798
 51
80.8009665501798
  0
ARC
  5
386
330
1A
100
AcDbEntity
  8
SEIHIN
  6
CONTINUOUS
 62
     3
 48
8.0
100
AcDbCircle
 10
322.6637303311838
 20
173.4569621949242
 30
0.0
 40
2.000016999999999
100
AcDbArc
 50
359.9998665501798
 51
80.79892855017982
  0
ARC
  5
387
330
1A
100
AcDbEntity
  8
SEIHIN
  6
CONTINUOUS
 62
     3
 48
8.0
100
AcDbCircle
 10
320.6637266364765
 20
171.870666853206
 30
0.0
 40
2.000016
100
AcDbArc
 50
359.9998665501798
 51
73.19306055017985
  0
ARC
  5
388
330
1A
100
AcDbEntity
  8
SEIHIN
  6
CONTINUOUS
 62
     3
 48
8.0
100
AcDbCircle
 10
313.5637515263711
 20
182.5569833900621
 30
0.0
 40
2.999991999999999
100
AcDbArc
 50
9.199072550179806
 51
89.99986655017981
  0
ARC
  5
389
330
1A
100
AcDbEntity
  8
SEIHIN
  6
CONTINUOUS
 62
     3
 48
8.0
100
AcDbCircle
 10
313.5637515263711
 20
182.5569833900621
 30
0.0
 40
2.000016999999999
100
AcDbArc
 50
9.200804550179787
 51
89.99986655017981
  0
TEXT
  5
518
330
1A
100
AcDbEntity
  8
ZUWAKU
 62
     7
100
AcDbText
 10
327.3557533351683
 20
7.934661405801822
 30
0.0
 40
4.0
  1
LH88
100
AcDbText
  0
TEXT
  5
519
330
1A
100
AcDbEntity
  8
ZUWAKU
 62
     7
100
AcDbText
 10
25.25689228598299
 20
7.87017817761068
 30
0.0
 40
4.0
  1
ライナートップ　たてとい
100
AcDbText
  0
LINE
  5
51B
330
1A
100
AcDbEntity
  8
CENTER_L
 48
5.0
100
AcDbLine
 10
251.9638808365662
 20
152.2068645241206
 30
0.0
 11
332.6637439734145
 21
152.2068645241206
 31
0.0
  0
LINE
  5
51E
330
1A
100
AcDbEntity
  8
CENTER_L
 48
5.0
100
AcDbLine
 10
128.2502915052013
 20
152.2068645241206
 30
0.0
 11
164.0799405799421
 21
152.2068645241206
 31
0.0
  0
VIEWPORT
  5
22
330
17
100
AcDbEntity
 67
     1
  8
0
100
AcDbViewport
 10
313.6808219178082
 20
148.5
 30
0.0
 40
627.3616438356165
 41
297.0
 68
     2
 69
     1
1001
ACAD
1000
MVIEW
1002
{
1070
    16
1010
0.0
1020
0.0
1030
0.0
1010
0.0
1020
0.0
1030
1.0
1040
0.0
1040
297.0
1040
313.6808219178082
1040
148.5
1040
50.0
1040
0.0
1040
0.0
1070
     0
1070
   100
1070
     1
1070
     0
1070
     0
1070
     0
1070
     0
1070
     0
1040
0.0
1040
0.0
1040
0.0
1040
1.0
1040
1.0
1040
10.0
1040
10.0
1070
     0
1002
{
1002
}
1002
}
  0
VIEWPORT
  5
64
330
17
100
AcDbEntity
 67
     1
  8
VIEWPORT
100
AcDbViewport
 10
210.0
 20
148.5
 30
0.0
 40
420.0
 41
297.0
 68
     1
 69
     2
1001
ACAD
1000
MVIEW
1002
{
1070
    16
1010
0.0
1020
0.0
1030
0.0
1010
0.0
1020
0.0
1030
1.0
1040
0.0
1040
302.9399999999998
1040
210.0
1040
148.5
1040
50.0
1040
0.0
1040
0.0
1070
     0
1070
   100
1070
     1
1070
     0
1070
     0
1070
     0
1070
     0
1070
     0
1040
0.0
1040
0.0
1040
0.0
1040
5.0
1040
5.0
1040
0.0
1040
0.0
1070
     0
1002
{
1002
}
1002
}
  0
ENDSEC
  0
SECTION
  2
OBJECTS
  0
DICTIONARY
  5
C
330
0
100
AcDbDictionary
  3
ACAD_GROUP
350
D
  3
ACAD_LAYOUT
350
511
  3
ACAD_MLINESTYLE
350
E
  3
ACAD_PLOTSETTINGS
350
512
1001
ACAD
1000
TREAT_AS_HARD
1070
     0
  0
DICTIONARY
  5
5B1
330
1A
100
AcDbDictionary
  3
ACAD_LAYOUTSELFREF
350
629
1001
ACAD
1000
TREAT_AS_HARD
1070
     1
  0
DICTIONARY
  5
5AF
330
17
100
AcDbDictionary
  3
ACAD_LAYOUTSELFREF
350
628
1001
ACAD
1000
TREAT_AS_HARD
1070
     1
  0
DICTIONARY
  5
D
102
{ACAD_REACTORS
330
C
102
}
330
C
100
AcDbDictionary
1001
ACAD
1000
TREAT_AS_HARD
1070
     0
  0
DICTIONARY
  5
511
102
{ACAD_REACTORS
330
C
102
}
330
C
100
AcDbDictionary
1001
ACAD
1000
TREAT_AS_HARD
1070
     0
  0
DICTIONARY
  5
E
102
{ACAD_REACTORS
330
C
102
}
330
C
100
AcDbDictionary
  3
STANDARD
350
13
1001
ACAD
1000
TREAT_AS_HARD
1070
     0
  0
DICTIONARY
  5
512
102
{ACAD_REACTORS
330
C
102
}
330
C
100
AcDbDictionary
1001
ACAD
1000
TREAT_AS_HARD
1070
     0
  0
XRECORD
  5
629
102
{ACAD_REACTORS
330
5B1
102
}
330
5B1
100
AcDbXrecord
340
1A
  0
XRECORD
  5
628
102
{ACAD_REACTORS
330
5AF
102
}
330
5AF
100
AcDbXrecord
340
17
  0
MLINESTYLE
  5
13
102
{ACAD_REACTORS
330
E
102
}
330
E
100
AcDbMlineStyle
  2
STANDARD
 70
     0
  3

 62
     0
 51
90.0
 52
90.0
 71
     2
 49
0.5
 62
   256
  6
BYLAYER
 49
-0.5
 62
   256
  6
BYLAYER
  0
ENDSEC
  0
EOF
