  0
SECTION
  2
HEADER
  9
$ACADVER
  1
AC1015
  9
$ACADMAINTVER
 70
     6
  9
$DWGCODEPAGE
  3
ANSI_932
  9
$INSBASE
 10
0.0
 20
0.0
 30
0.0
  9
$EXTMIN
 10
-0.0000004333560355
 20
0.0000006402971167
 30
0.0
  9
$EXTMAX
 10
797.599999566644
 20
551.6000006402973
 30
0.0
  9
$LIMMIN
 10
0.0
 20
0.0
  9
$LIMMAX
 10
840.0
 20
594.0
  9
$ORTHOMODE
 70
     1
  9
$REGENMODE
 70
     1
  9
$FILLMODE
 70
     1
  9
$QTEXTMODE
 70
     0
  9
$MIRRTEXT
 70
     1
  9
$LTSCALE
 40
2.0
  9
$ATTMODE
 70
     1
  9
$TEXTSIZE
 40
5.0
  9
$TRACEWID
 40
1.0
  9
$TEXTSTYLE
  7
STANDARD
  9
$CLAYER
  8
SEIHIN
  9
$CELTYPE
  6
BYLAYER
  9
$CECOLOR
 62
   256
  9
$CELTSCALE
 40
1.0
  9
$DISPSILH
 70
     0
  9
$DIMSCALE
 40
1.0
  9
$DIMASZ
 40
7.0
  9
$DIMEXO
 40
6.0
  9
$DIMDLI
 40
14.0
  9
$DIMRND
 40
0.0
  9
$DIMDLE
 40
0.0
  9
$DIMEXE
 40
3.0
  9
$DIMTP
 40
0.0
  9
$DIMTM
 40
0.0
  9
$DIMTXT
 40
6.0
  9
$DIMCEN
 40
150.0
  9
$DIMTSZ
 40
0.0
  9
$DIMTOL
 70
     0
  9
$DIMLIM
 70
     0
  9
$DIMTIH
 70
     0
  9
$DIMTOH
 70
     0
  9
$DIMSE1
 70
     0
  9
$DIMSE2
 70
     0
  9
$DIMTAD
 70
     3
  9
$DIMZIN
 70
     0
  9
$DIMBLK
  1

  9
$DIMASO
 70
     1
  9
$DIMSHO
 70
     1
  9
$DIMPOST
  1

  9
$DIMAPOST
  1

  9
$DIMALT
 70
     0
  9
$DIMALTD
 70
     2
  9
$DIMALTF
 40
25.4
  9
$DIMLFAC
 40
1.0
  9
$DIMTOFL
 70
     1
  9
$DIMTVP
 40
0.0
  9
$DIMTIX
 70
     0
  9
$DIMSOXD
 70
     0
  9
$DIMSAH
 70
     1
  9
$DIMBLK1
  1
OPEN
  9
$DIMBLK2
  1
OPEN
  9
$DIMSTYLE
  2
STANDARD
  9
$DIMCLRD
 70
   256
  9
$DIMCLRE
 70
   256
  9
$DIMCLRT
 70
   256
  9
$DIMTFAC
 40
1.0
  9
$DIMGAP
 40
2.0
  9
$DIMJUST
 70
     0
  9
$DIMSD1
 70
     0
  9
$DIMSD2
 70
     0
  9
$DIMTOLJ
 70
     1
  9
$DIMTZIN
 70
     0
  9
$DIMALTZ
 70
     0
  9
$DIMALTTZ
 70
     0
  9
$DIMUPT
 70
     0
  9
$DIMDEC
 70
     0
  9
$DIMTDEC
 70
     0
  9
$DIMALTU
 70
     2
  9
$DIMALTTD
 70
     2
  9
$DIMTXSTY
  7
STANDARD
  9
$DIMAUNIT
 70
     0
  9
$DIMADEC
 70
     0
  9
$DIMALTRND
 40
0.0
  9
$DIMAZIN
 70
     0
  9
$DIMDSEP
 70
    46
  9
$DIMATFIT
 70
     3
  9
$DIMFRAC
 70
     0
  9
$DIMLDRBLK
  1
OPEN
  9
$DIMLUNIT
 70
     2
  9
$DIMLWD
 70
    -1
  9
$DIMLWE
 70
    -1
  9
$DIMTMOVE
 70
     0
  9
$LUNITS
 70
     2
  9
$LUPREC
 70
     4
  9
$SKETCHINC
 40
1.0
  9
$FILLETRAD
 40
20.0
  9
$AUNITS
 70
     0
  9
$AUPREC
 70
     0
  9
$MENU
  1
.
  9
$ELEVATION
 40
0.0
  9
$PELEVATION
 40
0.0
  9
$THICKNESS
 40
0.0
  9
$LIMCHECK
 70
     0
  9
$CHAMFERA
 40
20.0
  9
$CHAMFERB
 40
20.0
  9
$CHAMFERC
 40
40.0
  9
$CHAMFERD
 40
0.0
  9
$SKPOLY
 70
     0
  9
$TDCREATE
 40
2451029.942521991
  9
$TDUCREATE
 40
2451029.567521991
  9
$TDUPDATE
 40
2455609.398750903
  9
$TDUUPDATE
 40
2455609.023750903
  9
$TDINDWG
 40
0.1001248958
  9
$TDUSRTIMER
 40
0.1001248958
  9
$USRTIMER
 70
     1
  9
$ANGBASE
 50
0.0
  9
$ANGDIR
 70
     0
  9
$PDMODE
 70
     0
  9
$PDSIZE
 40
0.0
  9
$PLINEWID
 40
0.0
  9
$SPLFRAME
 70
     0
  9
$SPLINETYPE
 70
     6
  9
$SPLINESEGS
 70
     8
  9
$HANDSEED
  5
2D4D
  9
$SURFTAB1
 70
     6
  9
$SURFTAB2
 70
     6
  9
$SURFTYPE
 70
     6
  9
$SURFU
 70
     6
  9
$SURFV
 70
     6
  9
$UCSBASE
  2

  9
$UCSNAME
  2

  9
$UCSORG
 10
0.0
 20
0.0
 30
0.0
  9
$UCSXDIR
 10
1.0
 20
0.0
 30
0.0
  9
$UCSYDIR
 10
0.0
 20
1.0
 30
0.0
  9
$UCSORTHOREF
  2

  9
$UCSORTHOVIEW
 70
     0
  9
$UCSORGTOP
 10
0.0
 20
0.0
 30
0.0
  9
$UCSORGBOTTOM
 10
0.0
 20
0.0
 30
0.0
  9
$UCSORGLEFT
 10
0.0
 20
0.0
 30
0.0
  9
$UCSORGRIGHT
 10
0.0
 20
0.0
 30
0.0
  9
$UCSORGFRONT
 10
0.0
 20
0.0
 30
0.0
  9
$UCSORGBACK
 10
0.0
 20
0.0
 30
0.0
  9
$PUCSBASE
  2

  9
$PUCSNAME
  2

  9
$PUCSORG
 10
0.0
 20
0.0
 30
0.0
  9
$PUCSXDIR
 10
1.0
 20
0.0
 30
0.0
  9
$PUCSYDIR
 10
0.0
 20
1.0
 30
0.0
  9
$PUCSORTHOREF
  2

  9
$PUCSORTHOVIEW
 70
     0
  9
$PUCSORGTOP
 10
0.0
 20
0.0
 30
0.0
  9
$PUCSORGBOTTOM
 10
0.0
 20
0.0
 30
0.0
  9
$PUCSORGLEFT
 10
0.0
 20
0.0
 30
0.0
  9
$PUCSORGRIGHT
 10
0.0
 20
0.0
 30
0.0
  9
$PUCSORGFRONT
 10
0.0
 20
0.0
 30
0.0
  9
$PUCSORGBACK
 10
0.0
 20
0.0
 30
0.0
  9
$USERI1
 70
     0
  9
$USERI2
 70
     0
  9
$USERI3
 70
     0
  9
$USERI4
 70
     0
  9
$USERI5
 70
     0
  9
$USERR1
 40
0.0
  9
$USERR2
 40
0.0
  9
$USERR3
 40
0.0
  9
$USERR4
 40
0.0
  9
$USERR5
 40
0.0
  9
$WORLDVIEW
 70
     1
  9
$SHADEDGE
 70
     3
  9
$SHADEDIF
 70
    70
  9
$TILEMODE
 70
     1
  9
$MAXACTVP
 70
    16
  9
$PINSBASE
 10
0.0
 20
0.0
 30
0.0
  9
$PLIMCHECK
 70
     0
  9
$PEXTMIN
 10
0.0
 20
0.0
 30
0.0
  9
$PEXTMAX
 10
420.0
 20
297.0
 30
0.0
  9
$PLIMMIN
 10
0.0
 20
0.0
  9
$PLIMMAX
 10
420.0
 20
297.0
  9
$UNITMODE
 70
     0
  9
$VISRETAIN
 70
     0
  9
$PLINEGEN
 70
     0
  9
$PSLTSCALE
 70
     1
  9
$TREEDEPTH
 70
  3020
  9
$CMLSTYLE
  2
STANDARD
  9
$CMLJUST
 70
     0
  9
$CMLSCALE
 40
1.0
  9
$PROXYGRAPHICS
 70
     1
  9
$MEASUREMENT
 70
     1
  9
$CELWEIGHT
370
    -1
  9
$ENDCAPS
280
     0
  9
$JOINSTYLE
280
     0
  9
$LWDISPLAY
290
     0
  9
$INSUNITS
 70
     0
  9
$HYPERLINKBASE
  1

  9
$STYLESHEET
  1
print.ctb
  9
$XEDIT
290
     1
  9
$CEPSNTYPE
380
     0
  9
$PSTYLEMODE
290
     1
  9
$FINGERPRINTGUID
  2
{FF3C30AF-89FB-45B1-9067-596B98B489D4}
  9
$VERSIONGUID
  2
{4402B6D7-154C-4B30-B931-B9FC49C176CA}
  9
$EXTNAMES
290
     1
  9
$PSVPSCALE
 40
0.0
  9
$OLESTARTUP
290
     0
  0
ENDSEC
  0
SECTION
  2
CLASSES
  0
CLASS
  1
ACDBDICTIONARYWDFLT
  2
AcDbDictionaryWithDefault
  3
ObjectDBX Classes
 90
        0
280
     0
281
     0
  0
CLASS
  1
ACDBPLACEHOLDER
  2
AcDbPlaceHolder
  3
ObjectDBX Classes
 90
        0
280
     0
281
     0
  0
CLASS
  1
LAYOUT
  2
AcDbLayout
  3
ObjectDBX Classes
 90
        0
280
     0
281
     0
  0
CLASS
  1
DUMMY
  2
AcDbLongTransaction
  3
DUMMY
 90
        0
280
     0
281
     0
  0
CLASS
  1
LWPOLYLINE
  2
AcDbPolyline
  3
AutoCAD 2000
 90
        0
280
     0
281
     1
  0
CLASS
  1
HATCH
  2
AcDbHatch
  3
AutoCAD 2000
 90
        0
280
     0
281
     1
  0
CLASS
  1
XRECORD
  2
AcDbXrecord
  3
AutoCAD 2000
 90
        0
280
     0
281
     0
  0
CLASS
  1
DUMMY
  2
AcDbLongTransaction
  3
DUMMY
 90
        0
280
     0
281
     0
  0
CLASS
  1
LWPOLYLINE
  2
AcDbPolyline
  3
AutoCAD 2000
 90
        0
280
     0
281
     1
  0
CLASS
  1
HATCH
  2
AcDbHatch
  3
AutoCAD 2000
 90
        0
280
     0
281
     1
  0
CLASS
  1
XRECORD
  2
AcDbXrecord
  3
AutoCAD 2000
 90
        0
280
     0
281
     0
  0
CLASS
  1
DUMMY
  2
AcDbLongTransaction
  3
DUMMY
 90
        0
280
     0
281
     0
  0
CLASS
  1
LWPOLYLINE
  2
AcDbPolyline
  3
AutoCAD 2000
 90
        0
280
     0
281
     1
  0
CLASS
  1
HATCH
  2
AcDbHatch
  3
AutoCAD 2000
 90
        0
280
     0
281
     1
  0
CLASS
  1
XRECORD
  2
AcDbXrecord
  3
AutoCAD 2000
 90
        0
280
     0
281
     0
  0
CLASS
  1
DUMMY
  2
AcDbLongTransaction
  3
DUMMY
 90
        0
280
     0
281
     0
  0
CLASS
  1
LWPOLYLINE
  2
AcDbPolyline
  3
AutoCAD 2000
 90
        0
280
     0
281
     1
  0
CLASS
  1
HATCH
  2
AcDbHatch
  3
AutoCAD 2000
 90
        0
280
     0
281
     1
  0
CLASS
  1
XRECORD
  2
AcDbXrecord
  3
AutoCAD 2000
 90
        0
280
     0
281
     0
  0
CLASS
  1
DUMMY
  2
AcDbLongTransaction
  3
DUMMY
 90
        0
280
     0
281
     0
  0
CLASS
  1
LWPOLYLINE
  2
AcDbPolyline
  3
AutoCAD 2000
 90
        0
280
     0
281
     1
  0
CLASS
  1
HATCH
  2
AcDbHatch
  3
AutoCAD 2000
 90
        0
280
     0
281
     1
  0
CLASS
  1
XRECORD
  2
AcDbXrecord
  3
AutoCAD 2000
 90
        0
280
     0
281
     0
  0
ENDSEC
  0
SECTION
  2
TABLES
  0
TABLE
  2
VPORT
  5
8
330
0
100
AcDbSymbolTable
 70
     2
  0
VPORT
  5
2D4C
330
8
100
AcDbSymbolTableRecord
100
AcDbViewportTableRecord
  2
*Active
 70
     0
 10
0.0
 20
0.0
 11
1.0
 21
1.0
 12
407.7820726536925
 22
300.8994339064424
 13
0.0
 23
0.0
 14
5.0
 24
5.0
 15
0.0
 25
0.0
 16
0.0
 26
0.0
 36
1.0
 17
0.0
 27
0.0
 37
0.0
 40
637.668436943431
 41
1.651537335285505
 42
50.0
 43
0.0
 44
0.0
 50
0.0
 51
0.0
 71
     0
 72
   100
 73
     1
 74
     0
 75
     0
 76
     0
 77
     0
 78
     0
281
     0
 65
     1
110
0.0
120
0.0
130
0.0
111
1.0
121
0.0
131
0.0
112
0.0
122
1.0
132
0.0
 79
     0
146
0.0
  0
ENDTAB
  0
TABLE
  2
LTYPE
  5
5
330
0
100
AcDbSymbolTable
 70
     3
  0
LTYPE
  5
14
330
5
100
AcDbSymbolTableRecord
100
AcDbLinetypeTableRecord
  2
BYBLOCK
 70
     0
  3

 72
    65
 73
     0
 40
0.0
  0
LTYPE
  5
15
330
5
100
AcDbSymbolTableRecord
100
AcDbLinetypeTableRecord
  2
BYLAYER
 70
     0
  3

 72
    65
 73
     0
 40
0.0
  0
LTYPE
  5
16
330
5
100
AcDbSymbolTableRecord
100
AcDbLinetypeTableRecord
  2
CONTINUOUS
 70
     0
  3
Solid line
 72
    65
 73
     0
 40
0.0
  0
LTYPE
  5
135
330
5
100
AcDbSymbolTableRecord
100
AcDbLinetypeTableRecord
  2
CENTER
 70
     0
  3
____ _ ____ _ ____ _ ____ _ ____ _ ____ _ ____ 
 72
    65
 73
     4
 40
2.0
 49
1.25
 74
     0
 49
-0.25
 74
     0
 49
0.25
 74
     0
 49
-0.25
 74
     0
  0
LTYPE
  5
2935
330
5
100
AcDbSymbolTableRecord
100
AcDbLinetypeTableRecord
  2
PHANTOM
 70
     0
  3
______  __  __  ______  __  __  ______  __  __ 
 72
    65
 73
     6
 40
2.5
 49
1.25
 74
     0
 49
-0.25
 74
     0
 49
0.25
 74
     0
 49
-0.25
 74
     0
 49
0.25
 74
     0
 49
-0.25
 74
     0
  0
ENDTAB
  0
TABLE
  2
LAYER
  5
2
330
0
100
AcDbSymbolTable
 70
     8
  0
LAYER
  5
F
330
2
100
AcDbSymbolTableRecord
100
AcDbLayerTableRecord
  2
0
 70
     0
 62
     7
  6
CONTINUOUS
370
    -3
390
85E
  0
LAYER
  5
62
330
2
100
AcDbSymbolTableRecord
100
AcDbLayerTableRecord
  2
VIEWPORT
 70
     0
 62
     7
  6
CONTINUOUS
370
    -3
390
85E
  0
LAYER
  5
65
330
2
100
AcDbSymbolTableRecord
100
AcDbLayerTableRecord
  2
ZUWAKU
 70
     0
 62
     7
  6
CONTINUOUS
370
    -3
390
85E
  0
LAYER
  5
145
330
2
100
AcDbSymbolTableRecord
100
AcDbLayerTableRecord
  2
SEIHIN
 70
     0
 62
     3
  6
CONTINUOUS
370
    -3
390
85E
  0
LAYER
  5
146
330
2
100
AcDbSymbolTableRecord
100
AcDbLayerTableRecord
  2
SUNPOU
 70
     0
 62
     4
  6
CONTINUOUS
370
    -3
390
85E
  0
LAYER
  5
147
330
2
100
AcDbSymbolTableRecord
100
AcDbLayerTableRecord
  2
CENTER L
 70
     0
 62
     1
  6
CENTER
370
    -3
390
85E
  0
LAYER
  5
381
330
2
100
AcDbSymbolTableRecord
100
AcDbLayerTableRecord
  2
DEFPOINTS
 70
     0
 62
     7
  6
CONTINUOUS
290
     0
370
    -3
390
85E
  0
LAYER
  5
154D
330
2
100
AcDbSymbolTableRecord
100
AcDbLayerTableRecord
  2
MOJI
 70
     0
 62
     2
  6
CONTINUOUS
370
    -3
390
85E
  0
ENDTAB
  0
TABLE
  2
STYLE
  5
3
330
0
100
AcDbSymbolTable
 70
     2
  0
STYLE
  5
10
330
3
100
AcDbSymbolTableRecord
100
AcDbTextStyleTableRecord
  2
STANDARD
 70
     0
 40
0.0
 41
1.0
 50
0.0
 71
     0
 42
5.0
  3
TXT
  4
bigfont.shx
  0
STYLE
  5
154E
330
3
100
AcDbSymbolTableRecord
100
AcDbTextStyleTableRecord
  2
ｽﾀｲﾙ1
 70
     0
 40
0.0
 41
1.0
 50
0.0
 71
     0
 42
2.5
  3
MS PGothic.ttf
  4

1001
ACAD
1000
MS PGothic
1071
    32818
  0
ENDTAB
  0
TABLE
  2
VIEW
  5
6
330
0
100
AcDbSymbolTable
 70
     0
  0
ENDTAB
  0
TABLE
  2
UCS
  5
7
330
0
100
AcDbSymbolTable
 70
     0
  0
ENDTAB
  0
TABLE
  2
APPID
  5
9
330
0
100
AcDbSymbolTable
 70
     1
  0
APPID
  5
11
330
9
100
AcDbSymbolTableRecord
100
AcDbRegAppTableRecord
  2
ACAD
 70
     0
  0
ENDTAB
  0
TABLE
  2
DIMSTYLE
  5
A
330
0
100
AcDbSymbolTable
 70
     1
100
AcDbDimStyleTable
  0
DIMSTYLE
105
1D
102
{ACAD_REACTORS
330
2A81
330
2A86
330
2A88
330
2A89
330
2A8E
330
2A8F
330
2AAE
330
2AB1
330
2AB4
330
2B37
330
2B6D
330
2B6E
330
2B72
330
2B75
330
2B77
330
2B7A
330
2B8B
102
}
330
A
100
AcDbSymbolTableRecord
100
AcDbDimStyleTableRecord
  2
STANDARD
 70
     0
340
10
  0
ENDTAB
  0
TABLE
  2
BLOCK_RECORD
  5
1
330
0
100
AcDbSymbolTable
 70
    18
  0
BLOCK_RECORD
  5
1A
330
1
100
AcDbSymbolTableRecord
100
AcDbBlockTableRecord
  2
*MODEL_SPACE
340
861
  0
BLOCK_RECORD
  5
17
330
1
100
AcDbSymbolTableRecord
100
AcDbBlockTableRecord
  2
*PAPER_SPACE
340
862
  0
BLOCK_RECORD
  5
6D
330
1
100
AcDbSymbolTableRecord
100
AcDbBlockTableRecord
  2
_OPEN
340
0
102
{BLKREFS
331
2CA3
331
2CA4
331
2CAC
331
2CAD
331
2CB7
331
2CB8
331
2CC0
331
2CC1
331
2CC9
331
2CCA
331
2CD2
331
2CD3
331
2CDD
331
2CDE
331
2CE6
331
2CE7
331
2CEF
331
2CF0
331
2CFA
331
2CFB
331
2D03
331
2D04
331
2D0C
331
2D0D
331
2D15
331
2D16
331
2D20
331
2D21
331
2D29
331
2D2A
331
2D34
331
2D35
331
2D3F
331
2D40
102
}
  0
BLOCK_RECORD
  5
2BC8
330
1
100
AcDbSymbolTableRecord
100
AcDbBlockTableRecord
  2
*D1
340
0
  0
BLOCK_RECORD
  5
2BD4
330
1
100
AcDbSymbolTableRecord
100
AcDbBlockTableRecord
  2
*D2
340
0
  0
BLOCK_RECORD
  5
2BE0
330
1
100
AcDbSymbolTableRecord
100
AcDbBlockTableRecord
  2
*D3
340
0
  0
BLOCK_RECORD
  5
2BEE
330
1
100
AcDbSymbolTableRecord
100
AcDbBlockTableRecord
  2
*D4
340
0
  0
BLOCK_RECORD
  5
2BFA
330
1
100
AcDbSymbolTableRecord
100
AcDbBlockTableRecord
  2
*D5
340
0
  0
BLOCK_RECORD
  5
2C06
330
1
100
AcDbSymbolTableRecord
100
AcDbBlockTableRecord
  2
*D6
340
0
  0
BLOCK_RECORD
  5
2C12
330
1
100
AcDbSymbolTableRecord
100
AcDbBlockTableRecord
  2
*D7
340
0
  0
BLOCK_RECORD
  5
2C20
330
1
100
AcDbSymbolTableRecord
100
AcDbBlockTableRecord
  2
*D8
340
0
  0
BLOCK_RECORD
  5
2C2C
330
1
100
AcDbSymbolTableRecord
100
AcDbBlockTableRecord
  2
*D9
340
0
  0
BLOCK_RECORD
  5
2C38
330
1
100
AcDbSymbolTableRecord
100
AcDbBlockTableRecord
  2
*D10
340
0
  0
BLOCK_RECORD
  5
2C46
330
1
100
AcDbSymbolTableRecord
100
AcDbBlockTableRecord
  2
*D11
340
0
  0
BLOCK_RECORD
  5
2C52
330
1
100
AcDbSymbolTableRecord
100
AcDbBlockTableRecord
  2
*D12
340
0
  0
BLOCK_RECORD
  5
2C5E
330
1
100
AcDbSymbolTableRecord
100
AcDbBlockTableRecord
  2
*D13
340
0
  0
BLOCK_RECORD
  5
2C6A
330
1
100
AcDbSymbolTableRecord
100
AcDbBlockTableRecord
  2
*D14
340
0
  0
BLOCK_RECORD
  5
2C78
330
1
100
AcDbSymbolTableRecord
100
AcDbBlockTableRecord
  2
*D15
340
0
  0
BLOCK_RECORD
  5
2C84
330
1
100
AcDbSymbolTableRecord
100
AcDbBlockTableRecord
  2
*D16
340
0
  0
BLOCK_RECORD
  5
2C92
330
1
100
AcDbSymbolTableRecord
100
AcDbBlockTableRecord
  2
*D17
340
0
  0
ENDTAB
  0
ENDSEC
  0
SECTION
  2
BLOCKS
  0
BLOCK
  5
1B
330
1A
100
AcDbEntity
  8
0
100
AcDbBlockBegin
  2
*MODEL_SPACE
 70
     0
 71
     0
 10
0.0
 20
0.0
 30
0.0
  3
*MODEL_SPACE
  1

  0
ENDBLK
  5
1C
330
1A
100
AcDbEntity
  8
0
100
AcDbBlockEnd
  0
BLOCK
  5
18
330
17
100
AcDbEntity
 67
     1
  8
0
100
AcDbBlockBegin
  2
*PAPER_SPACE
 70
     0
 71
     0
 10
0.0
 20
0.0
 30
0.0
  3
*PAPER_SPACE
  1

  0
ENDBLK
  5
19
330
17
100
AcDbEntity
 67
     1
  8
0
100
AcDbBlockEnd
  0
BLOCK
  5
6E
330
6D
100
AcDbEntity
  8
0
100
AcDbBlockBegin
  2
_OPEN
 70
     0
 71
     0
 10
0.0
 20
0.0
 30
0.0
  3
_OPEN
  1

  0
LINE
  5
6F
330
6D
100
AcDbEntity
  8
0
  6
ByBlock
 62
     0
100
AcDbLine
 10
-1.0
 20
0.1666666666666667
 30
0.0
 11
0.0
 21
0.0
 31
0.0
  0
LINE
  5
70
330
6D
100
AcDbEntity
  8
0
  6
ByBlock
 62
     0
100
AcDbLine
 10
0.0
 20
0.0
 30
0.0
 11
-1.0
 21
-0.1666666666666667
 31
0.0
  0
LINE
  5
71
330
6D
100
AcDbEntity
  8
0
  6
ByBlock
 62
     0
100
AcDbLine
 10
0.0
 20
0.0
 30
0.0
 11
-1.0
 21
0.0
 31
0.0
  0
ENDBLK
  5
72
330
6D
100
AcDbEntity
  8
0
100
AcDbBlockEnd
  0
BLOCK
  5
2BD2
330
2BC8
100
AcDbEntity
  8
0
100
AcDbBlockBegin
  2
*D1
 70
     1
 71
     0
 10
0.0
 20
0.0
 30
0.0
  3
*D1
  1

  0
LINE
  5
2CA0
330
2BC8
100
AcDbEntity
  8
SUNPOU
 62
     4
370
    -2
100
AcDbLine
 10
362.459106651615
 20
410.7830497385132
 30
0.0
 11
403.5875319892314
 21
410.7830497385131
 31
0.0
  0
LINE
  5
2CA1
330
2BC8
100
AcDbEntity
  8
SUNPOU
 62
     4
370
    -2
100
AcDbLine
 10
362.459106651615
 20
377.7830497385132
 30
0.0
 11
403.5875319892313
 21
377.7830497385131
 31
0.0
  0
LINE
  5
2CA2
330
2BC8
100
AcDbEntity
  8
SUNPOU
 62
     4
370
    -2
100
AcDbLine
 10
400.5875319892314
 20
403.7830497385131
 30
0.0
 11
400.5875319892314
 21
384.7830497385131
 31
0.0
  0
INSERT
  5
2CA3
330
2BC8
100
AcDbEntity
  8
SUNPOU
 62
     4
370
    -2
100
AcDbBlockReference
  2
_OPEN
 10
400.5875319892314
 20
410.7830497385131
 30
0.0
 41
7.0
 42
7.0
 43
7.0
 50
90.0
  0
INSERT
  5
2CA4
330
2BC8
100
AcDbEntity
  8
SUNPOU
 62
     4
370
    -2
100
AcDbBlockReference
  2
_OPEN
 10
400.5875319892313
 20
377.7830497385131
 30
0.0
 41
7.0
 42
7.0
 43
7.0
 50
270.0
  0
MTEXT
  5
2CA5
330
2BC8
100
AcDbEntity
  8
SUNPOU
 62
     4
100
AcDbMText
 10
395.5875319892313
 20
394.2830497385132
 30
0.0
 40
6.0
 41
0.0
 71
     5
 72
     1
  1
\A1;33
 11
6.123031769111886E-17
 21
1.0
 31
0.0
 73
     1
 44
1.0
  0
POINT
  5
2CA6
330
2BC8
100
AcDbEntity
  8
DEFPOINTS
 62
     0
100
AcDbPoint
 10
356.459106651615
 20
410.7830497385132
 30
0.0
  0
POINT
  5
2CA7
330
2BC8
100
AcDbEntity
  8
DEFPOINTS
 62
     0
100
AcDbPoint
 10
356.459106651615
 20
377.7830497385132
 30
0.0
  0
POINT
  5
2CA8
330
2BC8
100
AcDbEntity
  8
DEFPOINTS
 62
     0
100
AcDbPoint
 10
400.5875319892313
 20
377.7830497385131
 30
0.0
  0
ENDBLK
  5
2BD3
330
2BC8
100
AcDbEntity
  8
0
100
AcDbBlockEnd
  0
BLOCK
  5
2BDE
330
2BD4
100
AcDbEntity
  8
0
100
AcDbBlockBegin
  2
*D2
 70
     1
 71
     0
 10
0.0
 20
0.0
 30
0.0
  3
*D2
  1

  0
LINE
  5
2CA9
330
2BD4
100
AcDbEntity
  8
SUNPOU
 62
     4
370
    -2
100
AcDbLine
 10
365.459106651615
 20
250.1139518170099
 30
0.0
 11
365.459106651615
 21
274.6806438152605
 31
0.0
  0
LINE
  5
2CAA
330
2BD4
100
AcDbEntity
  8
SUNPOU
 62
     4
370
    -2
100
AcDbLine
 10
400.459106651615
 20
250.1139518170099
 30
0.0
 11
400.459106651615
 21
274.6806438152605
 31
0.0
  0
LINE
  5
2CAB
330
2BD4
100
AcDbEntity
  8
SUNPOU
 62
     4
370
    -2
100
AcDbLine
 10
372.459106651615
 20
271.6806438152605
 30
0.0
 11
393.459106651615
 21
271.6806438152605
 31
0.0
  0
INSERT
  5
2CAC
330
2BD4
100
AcDbEntity
  8
SUNPOU
 62
     4
370
    -2
100
AcDbBlockReference
  2
_OPEN
 10
365.459106651615
 20
271.6806438152605
 30
0.0
 41
7.0
 42
7.0
 43
7.0
 50
180.0
  0
INSERT
  5
2CAD
330
2BD4
100
AcDbEntity
  8
SUNPOU
 62
     4
370
    -2
100
AcDbBlockReference
  2
_OPEN
 10
400.459106651615
 20
271.6806438152605
 30
0.0
 41
7.0
 42
7.0
 43
7.0
  0
MTEXT
  5
2CAE
330
2BD4
100
AcDbEntity
  8
SUNPOU
 62
     4
100
AcDbMText
 10
382.959106651615
 20
276.6806438152605
 30
0.0
 40
6.0
 41
0.0
 71
     5
 72
     1
  1
\A1;35
 73
     1
 44
1.0
  0
POINT
  5
2CAF
330
2BD4
100
AcDbEntity
  8
DEFPOINTS
 62
     0
100
AcDbPoint
 10
365.459106651615
 20
244.1139518170099
 30
0.0
  0
POINT
  5
2CB0
330
2BD4
100
AcDbEntity
  8
DEFPOINTS
 62
     0
100
AcDbPoint
 10
400.459106651615
 20
244.1139518170099
 30
0.0
  0
POINT
  5
2CB1
330
2BD4
100
AcDbEntity
  8
DEFPOINTS
 62
     0
100
AcDbPoint
 10
400.459106651615
 20
271.6806438152605
 30
0.0
  0
ENDBLK
  5
2BDF
330
2BD4
100
AcDbEntity
  8
0
100
AcDbBlockEnd
  0
BLOCK
  5
2BEC
330
2BE0
100
AcDbEntity
  8
0
100
AcDbBlockBegin
  2
*D3
 70
     1
 71
     0
 10
0.0
 20
0.0
 30
0.0
  3
*D3
  1

  0
LINE
  5
2CB2
330
2BE0
100
AcDbEntity
  8
SUNPOU
 62
     4
370
    -2
100
AcDbLine
 10
357.459106651615
 20
190.1139518170099
 30
0.0
 11
357.459106651615
 21
146.7294995821735
 31
0.0
  0
LINE
  5
2CB3
330
2BE0
100
AcDbEntity
  8
SUNPOU
 62
     4
370
    -2
100
AcDbLine
 10
365.459106651615
 20
188.1139518170099
 30
0.0
 11
365.459106651615
 21
146.7294995821735
 31
0.0
  0
LINE
  5
2CB4
330
2BE0
100
AcDbEntity
  8
SUNPOU
 62
     4
370
    -2
100
AcDbLine
 10
350.459106651615
 20
149.7294995821735
 30
0.0
 11
343.459106651615
 21
149.7294995821735
 31
0.0
  0
LINE
  5
2CB5
330
2BE0
100
AcDbEntity
  8
SUNPOU
 62
     4
370
    -2
100
AcDbLine
 10
372.459106651615
 20
149.7294995821735
 30
0.0
 11
400.459106651615
 21
149.7294995821735
 31
0.0
  0
LINE
  5
2CB6
330
2BE0
100
AcDbEntity
  8
SUNPOU
 62
     4
370
    -2
100
AcDbLine
 10
357.459106651615
 20
149.7294995821735
 30
0.0
 11
365.459106651615
 21
149.7294995821735
 31
0.0
  0
INSERT
  5
2CB7
330
2BE0
100
AcDbEntity
  8
SUNPOU
 62
     4
370
    -2
100
AcDbBlockReference
  2
_OPEN
 10
357.459106651615
 20
149.7294995821735
 30
0.0
 41
7.0
 42
7.0
 43
7.0
  0
INSERT
  5
2CB8
330
2BE0
100
AcDbEntity
  8
SUNPOU
 62
     4
370
    -2
100
AcDbBlockReference
  2
_OPEN
 10
365.459106651615
 20
149.7294995821735
 30
0.0
 41
7.0
 42
7.0
 43
7.0
 50
180.0
  0
MTEXT
  5
2CB9
330
2BE0
100
AcDbEntity
  8
SUNPOU
 62
     4
100
AcDbMText
 10
389.959106651615
 20
154.7294995821735
 30
0.0
 40
6.0
 41
0.0
 71
     5
 72
     1
  1
\A1;t8.0
 73
     1
 44
1.0
  0
POINT
  5
2CBA
330
2BE0
100
AcDbEntity
  8
DEFPOINTS
 62
     0
100
AcDbPoint
 10
357.459106651615
 20
196.1139518170099
 30
0.0
  0
POINT
  5
2CBB
330
2BE0
100
AcDbEntity
  8
DEFPOINTS
 62
     0
100
AcDbPoint
 10
365.459106651615
 20
194.1139518170099
 30
0.0
  0
POINT
  5
2CBC
330
2BE0
100
AcDbEntity
  8
DEFPOINTS
 62
     0
100
AcDbPoint
 10
365.459106651615
 20
149.7294995821735
 30
0.0
  0
ENDBLK
  5
2BED
330
2BE0
100
AcDbEntity
  8
0
100
AcDbBlockEnd
  0
BLOCK
  5
2BF8
330
2BEE
100
AcDbEntity
  8
0
100
AcDbBlockBegin
  2
*D4
 70
     1
 71
     0
 10
0.0
 20
0.0
 30
0.0
  3
*D4
  1

  0
LINE
  5
2CBD
330
2BEE
100
AcDbEntity
  8
SUNPOU
 62
     4
370
    -2
100
AcDbLine
 10
371.459106651615
 20
431.2830497385132
 30
0.0
 11
419.3267856782408
 21
431.2830497385131
 31
0.0
  0
LINE
  5
2CBE
330
2BEE
100
AcDbEntity
  8
SUNPOU
 62
     4
370
    -2
100
AcDbLine
 10
371.459106651615
 20
357.2830497385132
 30
0.0
 11
419.3267856782408
 21
357.2830497385131
 31
0.0
  0
LINE
  5
2CBF
330
2BEE
100
AcDbEntity
  8
SUNPOU
 62
     4
370
    -2
100
AcDbLine
 10
416.3267856782408
 20
424.2830497385131
 30
0.0
 11
416.3267856782408
 21
364.2830497385131
 31
0.0
  0
INSERT
  5
2CC0
330
2BEE
100
AcDbEntity
  8
SUNPOU
 62
     4
370
    -2
100
AcDbBlockReference
  2
_OPEN
 10
416.3267856782408
 20
431.2830497385131
 30
0.0
 41
7.0
 42
7.0
 43
7.0
 50
90.0
  0
INSERT
  5
2CC1
330
2BEE
100
AcDbEntity
  8
SUNPOU
 62
     4
370
    -2
100
AcDbBlockReference
  2
_OPEN
 10
416.3267856782408
 20
357.2830497385131
 30
0.0
 41
7.0
 42
7.0
 43
7.0
 50
270.0
  0
MTEXT
  5
2CC2
330
2BEE
100
AcDbEntity
  8
SUNPOU
 62
     4
100
AcDbMText
 10
411.3267856782407
 20
393.9592713178943
 30
0.0
 40
6.0
 41
0.0
 71
     5
 72
     1
  1
\A1;74
 11
6.123031769111886E-17
 21
1.0
 31
0.0
 73
     1
 44
1.0
  0
POINT
  5
2CC3
330
2BEE
100
AcDbEntity
  8
DEFPOINTS
 62
     0
100
AcDbPoint
 10
365.459106651615
 20
431.2830497385132
 30
0.0
  0
POINT
  5
2CC4
330
2BEE
100
AcDbEntity
  8
DEFPOINTS
 62
     0
100
AcDbPoint
 10
365.459106651615
 20
357.2830497385132
 30
0.0
  0
POINT
  5
2CC5
330
2BEE
100
AcDbEntity
  8
DEFPOINTS
 62
     0
100
AcDbPoint
 10
416.3267856782408
 20
357.2830497385131
 30
0.0
  0
ENDBLK
  5
2BF9
330
2BEE
100
AcDbEntity
  8
0
100
AcDbBlockEnd
  0
BLOCK
  5
2C04
330
2BFA
100
AcDbEntity
  8
0
100
AcDbBlockBegin
  2
*D5
 70
     1
 71
     0
 10
0.0
 20
0.0
 30
0.0
  3
*D5
  1

  0
LINE
  5
2CC6
330
2BFA
100
AcDbEntity
  8
SUNPOU
 62
     4
370
    -2
100
AcDbLine
 10
353.459106651615
 20
194.1139518170099
 30
0.0
 11
204.1867211143173
 21
194.1139518170099
 31
0.0
  0
LINE
  5
2CC7
330
2BFA
100
AcDbEntity
  8
SUNPOU
 62
     4
370
    -2
100
AcDbLine
 10
228.500704343615
 20
240.0207969819099
 30
0.0
 11
204.1867211143173
 21
240.0207969819099
 31
0.0
  0
LINE
  5
2CC8
330
2BFA
100
AcDbEntity
  8
SUNPOU
 62
     4
370
    -2
100
AcDbLine
 10
207.1867211143173
 20
201.1139518170099
 30
0.0
 11
207.1867211143173
 21
233.0207969819099
 31
0.0
  0
INSERT
  5
2CC9
330
2BFA
100
AcDbEntity
  8
SUNPOU
 62
     4
370
    -2
100
AcDbBlockReference
  2
_OPEN
 10
207.1867211143173
 20
194.1139518170099
 30
0.0
 41
7.0
 42
7.0
 43
7.0
 50
270.0
  0
INSERT
  5
2CCA
330
2BFA
100
AcDbEntity
  8
SUNPOU
 62
     4
370
    -2
100
AcDbBlockReference
  2
_OPEN
 10
207.1867211143173
 20
240.0207969819099
 30
0.0
 41
7.0
 42
7.0
 43
7.0
 50
90.0
  0
MTEXT
  5
2CCB
330
2BFA
100
AcDbEntity
  8
SUNPOU
 62
     4
100
AcDbMText
 10
202.1867211143173
 20
217.0673743994599
 30
0.0
 40
6.0
 41
0.0
 71
     5
 72
     1
  1
\A1;46
 11
6.123031769111886E-17
 21
1.0
 31
0.0
 73
     1
 44
1.0
  0
POINT
  5
2CCC
330
2BFA
100
AcDbEntity
  8
DEFPOINTS
 62
     0
100
AcDbPoint
 10
359.459106651615
 20
194.1139518170099
 30
0.0
  0
POINT
  5
2CCD
330
2BFA
100
AcDbEntity
  8
DEFPOINTS
 62
     0
100
AcDbPoint
 10
234.500704343615
 20
240.0207969819099
 30
0.0
  0
POINT
  5
2CCE
330
2BFA
100
AcDbEntity
  8
DEFPOINTS
 62
     0
100
AcDbPoint
 10
207.1867211143173
 20
240.0207969819099
 30
0.0
  0
ENDBLK
  5
2C05
330
2BFA
100
AcDbEntity
  8
0
100
AcDbBlockEnd
  0
BLOCK
  5
2C10
330
2C06
100
AcDbEntity
  8
0
100
AcDbBlockBegin
  2
*D6
 70
     1
 71
     0
 10
0.0
 20
0.0
 30
0.0
  3
*D6
  1

  0
LINE
  5
2CCF
330
2C06
100
AcDbEntity
  8
SUNPOU
 62
     4
370
    -2
100
AcDbLine
 10
365.459106651615
 20
250.1139518170099
 30
0.0
 11
365.459106651615
 21
305.1680717637691
 31
0.0
  0
LINE
  5
2CD0
330
2C06
100
AcDbEntity
  8
SUNPOU
 62
     4
370
    -2
100
AcDbLine
 10
233.5020748088149
 20
245.0731329381098
 30
0.0
 11
233.5020748088149
 21
305.1680717637691
 31
0.0
  0
LINE
  5
2CD1
330
2C06
100
AcDbEntity
  8
SUNPOU
 62
     4
370
    -2
100
AcDbLine
 10
358.459106651615
 20
302.1680717637691
 30
0.0
 11
240.5020748088149
 21
302.1680717637691
 31
0.0
  0
INSERT
  5
2CD2
330
2C06
100
AcDbEntity
  8
SUNPOU
 62
     4
370
    -2
100
AcDbBlockReference
  2
_OPEN
 10
365.459106651615
 20
302.1680717637691
 30
0.0
 41
7.0
 42
7.0
 43
7.0
  0
INSERT
  5
2CD3
330
2C06
100
AcDbEntity
  8
SUNPOU
 62
     4
370
    -2
100
AcDbBlockReference
  2
_OPEN
 10
233.5020748088149
 20
302.1680717637691
 30
0.0
 41
7.0
 42
7.0
 43
7.0
 50
180.0
  0
MTEXT
  5
2CD4
330
2C06
100
AcDbEntity
  8
SUNPOU
 62
     4
100
AcDbMText
 10
299.4805907302149
 20
307.1680717637691
 30
0.0
 40
6.0
 41
0.0
 71
     5
 72
     1
  1
\A1;132
 73
     1
 44
1.0
  0
POINT
  5
2CD5
330
2C06
100
AcDbEntity
  8
DEFPOINTS
 62
     0
100
AcDbPoint
 10
365.459106651615
 20
244.1139518170099
 30
0.0
  0
POINT
  5
2CD6
330
2C06
100
AcDbEntity
  8
DEFPOINTS
 62
     0
100
AcDbPoint
 10
233.5020748088149
 20
239.0731329381098
 30
0.0
  0
POINT
  5
2CD7
330
2C06
100
AcDbEntity
  8
DEFPOINTS
 62
     0
100
AcDbPoint
 10
233.5020748088149
 20
302.1680717637691
 30
0.0
  0
ENDBLK
  5
2C11
330
2C06
100
AcDbEntity
  8
0
100
AcDbBlockEnd
  0
BLOCK
  5
2C1E
330
2C12
100
AcDbEntity
  8
0
100
AcDbBlockBegin
  2
*D7
 70
     1
 71
     0
 10
0.0
 20
0.0
 30
0.0
  3
*D7
  1

  0
LINE
  5
2CD8
330
2C12
100
AcDbEntity
  8
SUNPOU
 62
     4
370
    -2
100
AcDbLine
 10
365.459106651615
 20
250.1139518170099
 30
0.0
 11
365.459106651615
 21
274.6806438152605
 31
0.0
  0
LINE
  5
2CD9
330
2C12
100
AcDbEntity
  8
SUNPOU
 62
     4
370
    -2
100
AcDbLine
 10
355.5269374220151
 20
228.3207969819099
 30
0.0
 11
355.5269374220151
 21
274.6806438152605
 31
0.0
  0
LINE
  5
2CDA
330
2C12
100
AcDbEntity
  8
SUNPOU
 62
     4
370
    -2
100
AcDbLine
 10
372.459106651615
 20
271.6806438152605
 30
0.0
 11
379.459106651615
 21
271.6806438152605
 31
0.0
  0
LINE
  5
2CDB
330
2C12
100
AcDbEntity
  8
SUNPOU
 62
     4
370
    -2
100
AcDbLine
 10
348.5269374220151
 20
271.6806438152605
 30
0.0
 11
330.5269374220151
 21
271.6806438152605
 31
0.0
  0
LINE
  5
2CDC
330
2C12
100
AcDbEntity
  8
SUNPOU
 62
     4
370
    -2
100
AcDbLine
 10
365.459106651615
 20
271.6806438152605
 30
0.0
 11
355.5269374220151
 21
271.6806438152605
 31
0.0
  0
INSERT
  5
2CDD
330
2C12
100
AcDbEntity
  8
SUNPOU
 62
     4
370
    -2
100
AcDbBlockReference
  2
_OPEN
 10
365.459106651615
 20
271.6806438152605
 30
0.0
 41
7.0
 42
7.0
 43
7.0
 50
180.0
  0
INSERT
  5
2CDE
330
2C12
100
AcDbEntity
  8
SUNPOU
 62
     4
370
    -2
100
AcDbBlockReference
  2
_OPEN
 10
355.5269374220151
 20
271.6806438152605
 30
0.0
 41
7.0
 42
7.0
 43
7.0
  0
MTEXT
  5
2CDF
330
2C12
100
AcDbEntity
  8
SUNPOU
 62
     4
100
AcDbMText
 10
336.0269374220151
 20
276.6806438152605
 30
0.0
 40
6.0
 41
0.0
 71
     5
 72
     1
  1
\A1;10
 73
     1
 44
1.0
  0
POINT
  5
2CE0
330
2C12
100
AcDbEntity
  8
DEFPOINTS
 62
     0
100
AcDbPoint
 10
365.459106651615
 20
244.1139518170099
 30
0.0
  0
POINT
  5
2CE1
330
2C12
100
AcDbEntity
  8
DEFPOINTS
 62
     0
100
AcDbPoint
 10
355.5269374220151
 20
222.3207969819099
 30
0.0
  0
POINT
  5
2CE2
330
2C12
100
AcDbEntity
  8
DEFPOINTS
 62
     0
100
AcDbPoint
 10
355.5269374220151
 20
271.6806438152605
 30
0.0
  0
ENDBLK
  5
2C1F
330
2C12
100
AcDbEntity
  8
0
100
AcDbBlockEnd
  0
BLOCK
  5
2C2A
330
2C20
100
AcDbEntity
  8
0
100
AcDbBlockBegin
  2
*D8
 70
     1
 71
     0
 10
0.0
 20
0.0
 30
0.0
  3
*D8
  1

  0
LINE
  5
2CE3
330
2C20
100
AcDbEntity
  8
SUNPOU
 62
     4
370
    -2
100
AcDbLine
 10
371.459106651615
 20
244.1139518170099
 30
0.0
 11
385.0566328831454
 21
244.1139518170099
 31
0.0
  0
LINE
  5
2CE4
330
2C20
100
AcDbEntity
  8
SUNPOU
 62
     4
370
    -2
100
AcDbLine
 10
371.459106651615
 20
194.1139518170098
 30
0.0
 11
385.0566328831454
 21
194.1139518170098
 31
0.0
  0
LINE
  5
2CE5
330
2C20
100
AcDbEntity
  8
SUNPOU
 62
     4
370
    -2
100
AcDbLine
 10
382.0566328831454
 20
237.1139518170099
 30
0.0
 11
382.0566328831454
 21
201.1139518170098
 31
0.0
  0
INSERT
  5
2CE6
330
2C20
100
AcDbEntity
  8
SUNPOU
 62
     4
370
    -2
100
AcDbBlockReference
  2
_OPEN
 10
382.0566328831454
 20
244.1139518170099
 30
0.0
 41
7.0
 42
7.0
 43
7.0
 50
90.0
  0
INSERT
  5
2CE7
330
2C20
100
AcDbEntity
  8
SUNPOU
 62
     4
370
    -2
100
AcDbBlockReference
  2
_OPEN
 10
382.0566328831454
 20
194.1139518170098
 30
0.0
 41
7.0
 42
7.0
 43
7.0
 50
270.0
  0
MTEXT
  5
2CE8
330
2C20
100
AcDbEntity
  8
SUNPOU
 62
     4
100
AcDbMText
 10
377.0566328831454
 20
217.4201220543028
 30
0.0
 40
6.0
 41
0.0
 71
     5
 72
     1
  1
\A1;50
 11
6.123031769111886E-17
 21
1.0
 31
0.0
 73
     1
 44
1.0
  0
POINT
  5
2CE9
330
2C20
100
AcDbEntity
  8
DEFPOINTS
 62
     0
100
AcDbPoint
 10
365.459106651615
 20
244.1139518170099
 30
0.0
  0
POINT
  5
2CEA
330
2C20
100
AcDbEntity
  8
DEFPOINTS
 62
     0
100
AcDbPoint
 10
365.459106651615
 20
194.1139518170098
 30
0.0
  0
POINT
  5
2CEB
330
2C20
100
AcDbEntity
  8
DEFPOINTS
 62
     0
100
AcDbPoint
 10
382.0566328831454
 20
194.1139518170098
 30
0.0
  0
ENDBLK
  5
2C2B
330
2C20
100
AcDbEntity
  8
0
100
AcDbBlockEnd
  0
BLOCK
  5
2C36
330
2C2C
100
AcDbEntity
  8
0
100
AcDbBlockBegin
  2
*D9
 70
     1
 71
     0
 10
0.0
 20
0.0
 30
0.0
  3
*D9
  1

  0
LINE
  5
2CEC
330
2C2C
100
AcDbEntity
  8
SUNPOU
 62
     4
370
    -2
100
AcDbLine
 10
365.459106651615
 20
250.1139518170099
 30
0.0
 11
365.459106651615
 21
289.2725237216311
 31
0.0
  0
LINE
  5
2CED
330
2C2C
100
AcDbEntity
  8
SUNPOU
 62
     4
370
    -2
100
AcDbLine
 10
266.459106651615
 20
228.0207969819099
 30
0.0
 11
266.459106651615
 21
289.2725237216311
 31
0.0
  0
LINE
  5
2CEE
330
2C2C
100
AcDbEntity
  8
SUNPOU
 62
     4
370
    -2
100
AcDbLine
 10
358.459106651615
 20
286.2725237216311
 30
0.0
 11
273.459106651615
 21
286.2725237216311
 31
0.0
  0
INSERT
  5
2CEF
330
2C2C
100
AcDbEntity
  8
SUNPOU
 62
     4
370
    -2
100
AcDbBlockReference
  2
_OPEN
 10
365.459106651615
 20
286.2725237216311
 30
0.0
 41
7.0
 42
7.0
 43
7.0
  0
INSERT
  5
2CF0
330
2C2C
100
AcDbEntity
  8
SUNPOU
 62
     4
370
    -2
100
AcDbBlockReference
  2
_OPEN
 10
266.459106651615
 20
286.2725237216311
 30
0.0
 41
7.0
 42
7.0
 43
7.0
 50
180.0
  0
MTEXT
  5
2CF1
330
2C2C
100
AcDbEntity
  8
SUNPOU
 62
     4
100
AcDbMText
 10
315.959106651615
 20
291.2725237216311
 30
0.0
 40
6.0
 41
0.0
 71
     5
 72
     1
  1
\A1;99
 73
     1
 44
1.0
  0
POINT
  5
2CF2
330
2C2C
100
AcDbEntity
  8
DEFPOINTS
 62
     0
100
AcDbPoint
 10
365.459106651615
 20
244.1139518170099
 30
0.0
  0
POINT
  5
2CF3
330
2C2C
100
AcDbEntity
  8
DEFPOINTS
 62
     0
100
AcDbPoint
 10
266.459106651615
 20
222.0207969819099
 30
0.0
  0
POINT
  5
2CF4
330
2C2C
100
AcDbEntity
  8
DEFPOINTS
 62
     0
100
AcDbPoint
 10
266.459106651615
 20
286.2725237216311
 30
0.0
  0
ENDBLK
  5
2C37
330
2C2C
100
AcDbEntity
  8
0
100
AcDbBlockEnd
  0
BLOCK
  5
2C44
330
2C38
100
AcDbEntity
  8
0
100
AcDbBlockBegin
  2
*D10
 70
     1
 71
     0
 10
0.0
 20
0.0
 30
0.0
  3
*D10
  1

  0
LINE
  5
2CF5
330
2C38
100
AcDbEntity
  8
SUNPOU
 62
     4
370
    -2
100
AcDbLine
 10
227.274227152715
 20
404.2830497385132
 30
0.0
 11
204.1529392337096
 21
404.2830497385132
 31
0.0
  0
LINE
  5
2CF6
330
2C38
100
AcDbEntity
  8
SUNPOU
 62
     4
370
    -2
100
AcDbLine
 10
227.274227152715
 20
384.2830497385132
 30
0.0
 11
204.1529392337096
 21
384.2830497385132
 31
0.0
  0
LINE
  5
2CF7
330
2C38
100
AcDbEntity
  8
SUNPOU
 62
     4
370
    -2
100
AcDbLine
 10
207.1529392337096
 20
411.2830497385132
 30
0.0
 11
207.1529392337096
 21
418.2830497385132
 31
0.0
  0
LINE
  5
2CF8
330
2C38
100
AcDbEntity
  8
SUNPOU
 62
     4
370
    -2
100
AcDbLine
 10
207.1529392337096
 20
377.2830497385132
 30
0.0
 11
207.1529392337096
 21
370.2830497385132
 31
0.0
  0
LINE
  5
2CF9
330
2C38
100
AcDbEntity
  8
SUNPOU
 62
     4
370
    -2
100
AcDbLine
 10
207.1529392337096
 20
404.2830497385132
 30
0.0
 11
207.1529392337096
 21
384.2830497385132
 31
0.0
  0
INSERT
  5
2CFA
330
2C38
100
AcDbEntity
  8
SUNPOU
 62
     4
370
    -2
100
AcDbBlockReference
  2
_OPEN
 10
207.1529392337096
 20
404.2830497385132
 30
0.0
 41
7.0
 42
7.0
 43
7.0
 50
270.0
  0
INSERT
  5
2CFB
330
2C38
100
AcDbEntity
  8
SUNPOU
 62
     4
370
    -2
100
AcDbBlockReference
  2
_OPEN
 10
207.1529392337096
 20
384.2830497385132
 30
0.0
 41
7.0
 42
7.0
 43
7.0
 50
90.0
  0
MTEXT
  5
2CFC
330
2C38
100
AcDbEntity
  8
SUNPOU
 62
     4
100
AcDbMText
 10
202.1529392337096
 20
394.2830497385132
 30
0.0
 40
6.0
 41
0.0
 71
     5
 72
     1
  1
\A1;20
 11
6.123031769111886E-17
 21
1.0
 31
0.0
 73
     1
 44
1.0
  0
POINT
  5
2CFD
330
2C38
100
AcDbEntity
  8
DEFPOINTS
 62
     0
100
AcDbPoint
 10
233.274227152715
 20
404.2830497385132
 30
0.0
  0
POINT
  5
2CFE
330
2C38
100
AcDbEntity
  8
DEFPOINTS
 62
     0
100
AcDbPoint
 10
233.274227152715
 20
384.2830497385132
 30
0.0
  0
POINT
  5
2CFF
330
2C38
100
AcDbEntity
  8
DEFPOINTS
 62
     0
100
AcDbPoint
 10
207.1529392337096
 20
384.2830497385132
 30
0.0
  0
ENDBLK
  5
2C45
330
2C38
100
AcDbEntity
  8
0
100
AcDbBlockEnd
  0
BLOCK
  5
2C50
330
2C46
100
AcDbEntity
  8
0
100
AcDbBlockBegin
  2
*D11
 70
     1
 71
     0
 10
0.0
 20
0.0
 30
0.0
  3
*D11
  1

  0
LINE
  5
2D00
330
2C46
100
AcDbEntity
  8
SUNPOU
 62
     4
370
    -2
100
AcDbLine
 10
520.5508296061153
 20
247.2639518170099
 30
0.0
 11
520.5508296061153
 21
274.9709442785434
 31
0.0
  0
LINE
  5
2D01
330
2C46
100
AcDbEntity
  8
SUNPOU
 62
     4
370
    -2
100
AcDbLine
 10
577.5508296061153
 20
247.2639518170099
 30
0.0
 11
577.5508296061153
 21
274.9709442785434
 31
0.0
  0
LINE
  5
2D02
330
2C46
100
AcDbEntity
  8
SUNPOU
 62
     4
370
    -2
100
AcDbLine
 10
527.5508296061153
 20
271.9709442785434
 30
0.0
 11
570.5508296061153
 21
271.9709442785434
 31
0.0
  0
INSERT
  5
2D03
330
2C46
100
AcDbEntity
  8
SUNPOU
 62
     4
370
    -2
100
AcDbBlockReference
  2
_OPEN
 10
520.5508296061153
 20
271.9709442785434
 30
0.0
 41
7.0
 42
7.0
 43
7.0
 50
180.0
  0
INSERT
  5
2D04
330
2C46
100
AcDbEntity
  8
SUNPOU
 62
     4
370
    -2
100
AcDbBlockReference
  2
_OPEN
 10
577.5508296061153
 20
271.9709442785434
 30
0.0
 41
7.0
 42
7.0
 43
7.0
  0
MTEXT
  5
2D05
330
2C46
100
AcDbEntity
  8
SUNPOU
 62
     4
100
AcDbMText
 10
548.9612808364643
 20
276.9709442785434
 30
0.0
 40
6.0
 41
0.0
 71
     5
 72
     1
  1
\A1;57
 73
     1
 44
1.0
  0
POINT
  5
2D06
330
2C46
100
AcDbEntity
  8
DEFPOINTS
 62
     0
100
AcDbPoint
 10
520.5508296061153
 20
241.2639518170099
 30
0.0
  0
POINT
  5
2D07
330
2C46
100
AcDbEntity
  8
DEFPOINTS
 62
     0
100
AcDbPoint
 10
577.5508296061153
 20
241.2639518170099
 30
0.0
  0
POINT
  5
2D08
330
2C46
100
AcDbEntity
  8
DEFPOINTS
 62
     0
100
AcDbPoint
 10
577.5508296061153
 20
271.9709442785434
 30
0.0
  0
ENDBLK
  5
2C51
330
2C46
100
AcDbEntity
  8
0
100
AcDbBlockEnd
  0
BLOCK
  5
2C5C
330
2C52
100
AcDbEntity
  8
0
100
AcDbBlockBegin
  2
*D12
 70
     1
 71
     0
 10
0.0
 20
0.0
 30
0.0
  3
*D12
  1

  0
LINE
  5
2D09
330
2C52
100
AcDbEntity
  8
SUNPOU
 62
     4
370
    -2
100
AcDbLine
 10
575.5508296061153
 20
190.9639518170098
 30
0.0
 11
575.5508296061153
 21
161.9929420497695
 31
0.0
  0
LINE
  5
2D0A
330
2C52
100
AcDbEntity
  8
SUNPOU
 62
     4
370
    -2
100
AcDbLine
 10
522.5508296061153
 20
190.9639518170098
 30
0.0
 11
522.5508296061153
 21
161.9929420497695
 31
0.0
  0
LINE
  5
2D0B
330
2C52
100
AcDbEntity
  8
SUNPOU
 62
     4
370
    -2
100
AcDbLine
 10
568.5508296061153
 20
164.9929420497695
 30
0.0
 11
529.5508296061153
 21
164.9929420497695
 31
0.0
  0
INSERT
  5
2D0C
330
2C52
100
AcDbEntity
  8
SUNPOU
 62
     4
370
    -2
100
AcDbBlockReference
  2
_OPEN
 10
575.5508296061153
 20
164.9929420497695
 30
0.0
 41
7.0
 42
7.0
 43
7.0
  0
INSERT
  5
2D0D
330
2C52
100
AcDbEntity
  8
SUNPOU
 62
     4
370
    -2
100
AcDbBlockReference
  2
_OPEN
 10
522.5508296061153
 20
164.9929420497695
 30
0.0
 41
7.0
 42
7.0
 43
7.0
 50
180.0
  0
MTEXT
  5
2D0E
330
2C52
100
AcDbEntity
  8
SUNPOU
 62
     4
100
AcDbMText
 10
548.9612808364643
 20
169.9929420497695
 30
0.0
 40
6.0
 41
0.0
 71
     5
 72
     1
  1
\A1;53
 73
     1
 44
1.0
  0
POINT
  5
2D0F
330
2C52
100
AcDbEntity
  8
DEFPOINTS
 62
     0
100
AcDbPoint
 10
575.5508296061153
 20
196.9639518170098
 30
0.0
  0
POINT
  5
2D10
330
2C52
100
AcDbEntity
  8
DEFPOINTS
 62
     0
100
AcDbPoint
 10
522.5508296061153
 20
196.9639518170098
 30
0.0
  0
POINT
  5
2D11
330
2C52
100
AcDbEntity
  8
DEFPOINTS
 62
     0
100
AcDbPoint
 10
522.5508296061153
 20
164.9929420497695
 30
0.0
  0
ENDBLK
  5
2C5D
330
2C52
100
AcDbEntity
  8
0
100
AcDbBlockEnd
  0
BLOCK
  5
2C68
330
2C5E
100
AcDbEntity
  8
0
100
AcDbBlockBegin
  2
*D13
 70
     1
 71
     0
 10
0.0
 20
0.0
 30
0.0
  3
*D13
  1

  0
LINE
  5
2D12
330
2C5E
100
AcDbEntity
  8
SUNPOU
 62
     4
370
    -2
100
AcDbLine
 10
586.0508296061153
 20
240.1139518170099
 30
0.0
 11
586.0508296061153
 21
291.5921030836245
 31
0.0
  0
LINE
  5
2D13
330
2C5E
100
AcDbEntity
  8
SUNPOU
 62
     4
370
    -2
100
AcDbLine
 10
512.0508296061153
 20
240.1139518170099
 30
0.0
 11
512.0508296061153
 21
291.5921030836245
 31
0.0
  0
LINE
  5
2D14
330
2C5E
100
AcDbEntity
  8
SUNPOU
 62
     4
370
    -2
100
AcDbLine
 10
579.0508296061153
 20
288.5921030836245
 30
0.0
 11
519.0508296061153
 21
288.5921030836245
 31
0.0
  0
INSERT
  5
2D15
330
2C5E
100
AcDbEntity
  8
SUNPOU
 62
     4
370
    -2
100
AcDbBlockReference
  2
_OPEN
 10
586.0508296061153
 20
288.5921030836245
 30
0.0
 41
7.0
 42
7.0
 43
7.0
  0
INSERT
  5
2D16
330
2C5E
100
AcDbEntity
  8
SUNPOU
 62
     4
370
    -2
100
AcDbBlockReference
  2
_OPEN
 10
512.0508296061153
 20
288.5921030836245
 30
0.0
 41
7.0
 42
7.0
 43
7.0
 50
180.0
  0
MTEXT
  5
2D17
330
2C5E
100
AcDbEntity
  8
SUNPOU
 62
     4
100
AcDbMText
 10
549.0508296061153
 20
293.5921030836245
 30
0.0
 40
6.0
 41
0.0
 71
     5
 72
     1
  1
\A1;74
 73
     1
 44
1.0
  0
POINT
  5
2D18
330
2C5E
100
AcDbEntity
  8
DEFPOINTS
 62
     0
100
AcDbPoint
 10
586.0508296061153
 20
234.1139518170099
 30
0.0
  0
POINT
  5
2D19
330
2C5E
100
AcDbEntity
  8
DEFPOINTS
 62
     0
100
AcDbPoint
 10
512.0508296061153
 20
234.1139518170099
 30
0.0
  0
POINT
  5
2D1A
330
2C5E
100
AcDbEntity
  8
DEFPOINTS
 62
     0
100
AcDbPoint
 10
512.0508296061153
 20
288.5921030836245
 30
0.0
  0
ENDBLK
  5
2C69
330
2C5E
100
AcDbEntity
  8
0
100
AcDbBlockEnd
  0
BLOCK
  5
2C76
330
2C6A
100
AcDbEntity
  8
0
100
AcDbBlockBegin
  2
*D14
 70
     1
 71
     0
 10
0.0
 20
0.0
 30
0.0
  3
*D14
  1

  0
LINE
  5
2D1B
330
2C6A
100
AcDbEntity
  8
SUNPOU
 62
     4
370
    -2
100
AcDbLine
 10
507.4008296061152
 20
234.1139518170099
 30
0.0
 11
488.502197402215
 21
234.1139518170099
 31
0.0
  0
LINE
  5
2D1C
330
2C6A
100
AcDbEntity
  8
SUNPOU
 62
     4
370
    -2
100
AcDbLine
 10
506.0508296061153
 20
244.1139518170099
 30
0.0
 11
488.502197402215
 21
244.1139518170099
 31
0.0
  0
LINE
  5
2D1D
330
2C6A
100
AcDbEntity
  8
SUNPOU
 62
     4
370
    -2
100
AcDbLine
 10
491.502197402215
 20
227.1139518170099
 30
0.0
 11
491.502197402215
 21
220.1139518170099
 31
0.0
  0
LINE
  5
2D1E
330
2C6A
100
AcDbEntity
  8
SUNPOU
 62
     4
370
    -2
100
AcDbLine
 10
491.502197402215
 20
251.1139518170099
 30
0.0
 11
491.502197402215
 21
269.1139518170099
 31
0.0
  0
LINE
  5
2D1F
330
2C6A
100
AcDbEntity
  8
SUNPOU
 62
     4
370
    -2
100
AcDbLine
 10
491.502197402215
 20
234.1139518170099
 30
0.0
 11
491.502197402215
 21
244.1139518170099
 31
0.0
  0
INSERT
  5
2D20
330
2C6A
100
AcDbEntity
  8
SUNPOU
 62
     4
370
    -2
100
AcDbBlockReference
  2
_OPEN
 10
491.502197402215
 20
234.1139518170099
 30
0.0
 41
7.0
 42
7.0
 43
7.0
 50
90.0
  0
INSERT
  5
2D21
330
2C6A
100
AcDbEntity
  8
SUNPOU
 62
     4
370
    -2
100
AcDbBlockReference
  2
_OPEN
 10
491.502197402215
 20
244.1139518170099
 30
0.0
 41
7.0
 42
7.0
 43
7.0
 50
270.0
  0
MTEXT
  5
2D22
330
2C6A
100
AcDbEntity
  8
SUNPOU
 62
     4
100
AcDbMText
 10
486.502197402215
 20
263.6139518170099
 30
0.0
 40
6.0
 41
0.0
 71
     5
 72
     1
  1
\A1;10
 11
6.123031769111886E-17
 21
1.0
 31
0.0
 73
     1
 44
1.0
  0
POINT
  5
2D23
330
2C6A
100
AcDbEntity
  8
DEFPOINTS
 62
     0
100
AcDbPoint
 10
513.4008296061152
 20
234.1139518170099
 30
0.0
  0
POINT
  5
2D24
330
2C6A
100
AcDbEntity
  8
DEFPOINTS
 62
     0
100
AcDbPoint
 10
512.0508296061153
 20
244.1139518170099
 30
0.0
  0
POINT
  5
2D25
330
2C6A
100
AcDbEntity
  8
DEFPOINTS
 62
     0
100
AcDbPoint
 10
491.502197402215
 20
244.1139518170099
 30
0.0
  0
ENDBLK
  5
2C77
330
2C6A
100
AcDbEntity
  8
0
100
AcDbBlockEnd
  0
BLOCK
  5
2C82
330
2C78
100
AcDbEntity
  8
0
100
AcDbBlockBegin
  2
*D15
 70
     1
 71
     0
 10
0.0
 20
0.0
 30
0.0
  3
*D15
  1

  0
LINE
  5
2D26
330
2C78
100
AcDbEntity
  8
SUNPOU
 62
     4
370
    -2
100
AcDbLine
 10
516.0508296061153
 20
244.1139518170099
 30
0.0
 11
472.6785158490863
 21
244.1139518170099
 31
0.0
  0
LINE
  5
2D27
330
2C78
100
AcDbEntity
  8
SUNPOU
 62
     4
370
    -2
100
AcDbLine
 10
516.0508296061153
 20
194.1139518170099
 30
0.0
 11
472.6785158490863
 21
194.1139518170099
 31
0.0
  0
LINE
  5
2D28
330
2C78
100
AcDbEntity
  8
SUNPOU
 62
     4
370
    -2
100
AcDbLine
 10
475.6785158490863
 20
237.1139518170099
 30
0.0
 11
475.6785158490863
 21
201.1139518170099
 31
0.0
  0
INSERT
  5
2D29
330
2C78
100
AcDbEntity
  8
SUNPOU
 62
     4
370
    -2
100
AcDbBlockReference
  2
_OPEN
 10
475.6785158490863
 20
244.1139518170099
 30
0.0
 41
7.0
 42
7.0
 43
7.0
 50
90.0
  0
INSERT
  5
2D2A
330
2C78
100
AcDbEntity
  8
SUNPOU
 62
     4
370
    -2
100
AcDbBlockReference
  2
_OPEN
 10
475.6785158490863
 20
194.1139518170099
 30
0.0
 41
7.0
 42
7.0
 43
7.0
 50
270.0
  0
MTEXT
  5
2D2B
330
2C78
100
AcDbEntity
  8
SUNPOU
 62
     4
100
AcDbMText
 10
470.6785158490862
 20
219.11395181701
 30
0.0
 40
6.0
 41
0.0
 71
     5
 72
     1
  1
\A1;50
 11
6.123031769111886E-17
 21
1.0
 31
0.0
 73
     1
 44
1.0
  0
POINT
  5
2D2C
330
2C78
100
AcDbEntity
  8
DEFPOINTS
 62
     0
100
AcDbPoint
 10
522.0508296061153
 20
244.1139518170099
 30
0.0
  0
POINT
  5
2D2D
330
2C78
100
AcDbEntity
  8
DEFPOINTS
 62
     0
100
AcDbPoint
 10
522.0508296061153
 20
194.1139518170099
 30
0.0
  0
POINT
  5
2D2E
330
2C78
100
AcDbEntity
  8
DEFPOINTS
 62
     0
100
AcDbPoint
 10
475.6785158490863
 20
194.1139518170099
 30
0.0
  0
ENDBLK
  5
2C83
330
2C78
100
AcDbEntity
  8
0
100
AcDbBlockEnd
  0
BLOCK
  5
2C90
330
2C84
100
AcDbEntity
  8
0
100
AcDbBlockBegin
  2
*D16
 70
     1
 71
     0
 10
0.0
 20
0.0
 30
0.0
  3
*D16
  1

  0
LINE
  5
2D2F
330
2C84
100
AcDbEntity
  8
SUNPOU
 62
     4
370
    -2
100
AcDbLine
 10
509.4008296061152
 20
204.1139518170099
 30
0.0
 11
488.502197402215
 21
204.1139518170099
 31
0.0
  0
LINE
  5
2D30
330
2C84
100
AcDbEntity
  8
SUNPOU
 62
     4
370
    -2
100
AcDbLine
 10
506.0508296061153
 20
194.1139518170099
 30
0.0
 11
488.502197402215
 21
194.1139518170099
 31
0.0
  0
LINE
  5
2D31
330
2C84
100
AcDbEntity
  8
SUNPOU
 62
     4
370
    -2
100
AcDbLine
 10
491.502197402215
 20
211.1139518170099
 30
0.0
 11
491.502197402215
 21
218.1139518170099
 31
0.0
  0
LINE
  5
2D32
330
2C84
100
AcDbEntity
  8
SUNPOU
 62
     4
370
    -2
100
AcDbLine
 10
491.502197402215
 20
187.1139518170099
 30
0.0
 11
491.502197402215
 21
169.1139518170098
 31
0.0
  0
LINE
  5
2D33
330
2C84
100
AcDbEntity
  8
SUNPOU
 62
     4
370
    -2
100
AcDbLine
 10
491.502197402215
 20
204.1139518170099
 30
0.0
 11
491.502197402215
 21
194.1139518170099
 31
0.0
  0
INSERT
  5
2D34
330
2C84
100
AcDbEntity
  8
SUNPOU
 62
     4
370
    -2
100
AcDbBlockReference
  2
_OPEN
 10
491.502197402215
 20
204.1139518170099
 30
0.0
 41
7.0
 42
7.0
 43
7.0
 50
270.0
  0
INSERT
  5
2D35
330
2C84
100
AcDbEntity
  8
SUNPOU
 62
     4
370
    -2
100
AcDbBlockReference
  2
_OPEN
 10
491.502197402215
 20
194.1139518170099
 30
0.0
 41
7.0
 42
7.0
 43
7.0
 50
90.0
  0
MTEXT
  5
2D36
330
2C84
100
AcDbEntity
  8
SUNPOU
 62
     4
100
AcDbMText
 10
486.502197402215
 20
174.6139518170099
 30
0.0
 40
6.0
 41
0.0
 71
     5
 72
     1
  1
\A1;10
 11
6.123031769111886E-17
 21
1.0
 31
0.0
 73
     1
 44
1.0
  0
POINT
  5
2D37
330
2C84
100
AcDbEntity
  8
DEFPOINTS
 62
     0
100
AcDbPoint
 10
515.4008296061152
 20
204.1139518170099
 30
0.0
  0
POINT
  5
2D38
330
2C84
100
AcDbEntity
  8
DEFPOINTS
 62
     0
100
AcDbPoint
 10
512.0508296061153
 20
194.1139518170099
 30
0.0
  0
POINT
  5
2D39
330
2C84
100
AcDbEntity
  8
DEFPOINTS
 62
     0
100
AcDbPoint
 10
491.502197402215
 20
194.1139518170099
 30
0.0
  0
ENDBLK
  5
2C91
330
2C84
100
AcDbEntity
  8
0
100
AcDbBlockEnd
  0
BLOCK
  5
2C9E
330
2C92
100
AcDbEntity
  8
0
100
AcDbBlockBegin
  2
*D17
 70
     1
 71
     0
 10
0.0
 20
0.0
 30
0.0
  3
*D17
  1

  0
LINE
  5
2D3A
330
2C92
100
AcDbEntity
  8
SUNPOU
 62
     4
370
    -2
100
AcDbLine
 10
582.0508296061153
 20
244.1139518170099
 30
0.0
 11
629.3824731177863
 21
244.1139518170099
 31
0.0
  0
LINE
  5
2D3B
330
2C92
100
AcDbEntity
  8
SUNPOU
 62
     4
370
    -2
100
AcDbLine
 10
591.8508296061152
 20
228.8139518170098
 30
0.0
 11
629.3824731177863
 21
228.8139518170098
 31
0.0
  0
LINE
  5
2D3C
330
2C92
100
AcDbEntity
  8
SUNPOU
 62
     4
370
    -2
100
AcDbLine
 10
626.3824731177863
 20
251.1139518170099
 30
0.0
 11
626.3824731177864
 21
258.1139518170099
 31
0.0
  0
LINE
  5
2D3D
330
2C92
100
AcDbEntity
  8
SUNPOU
 62
     4
370
    -2
100
AcDbLine
 10
626.3824731177863
 20
221.8139518170098
 30
0.0
 11
626.3824731177863
 21
214.8139518170098
 31
0.0
  0
LINE
  5
2D3E
330
2C92
100
AcDbEntity
  8
SUNPOU
 62
     4
370
    -2
100
AcDbLine
 10
626.3824731177863
 20
244.1139518170099
 30
0.0
 11
626.3824731177863
 21
228.8139518170098
 31
0.0
  0
INSERT
  5
2D3F
330
2C92
100
AcDbEntity
  8
SUNPOU
 62
     4
370
    -2
100
AcDbBlockReference
  2
_OPEN
 10
626.3824731177863
 20
244.1139518170099
 30
0.0
 41
7.0
 42
7.0
 43
7.0
 50
270.0
  0
INSERT
  5
2D40
330
2C92
100
AcDbEntity
  8
SUNPOU
 62
     4
370
    -2
100
AcDbBlockReference
  2
_OPEN
 10
626.3824731177863
 20
228.8139518170098
 30
0.0
 41
7.0
 42
7.0
 43
7.0
 50
90.0
  0
MTEXT
  5
2D41
330
2C92
100
AcDbEntity
  8
SUNPOU
 62
     4
100
AcDbMText
 10
621.3824731177863
 20
236.46395181701
 30
0.0
 40
6.0
 41
0.0
 71
     5
 72
     1
  1
\A1;15
 11
6.123031769111886E-17
 21
1.0
 31
0.0
 73
     1
 44
1.0
  0
POINT
  5
2D42
330
2C92
100
AcDbEntity
  8
DEFPOINTS
 62
     0
100
AcDbPoint
 10
576.0508296061153
 20
244.1139518170099
 30
0.0
  0
POINT
  5
2D43
330
2C92
100
AcDbEntity
  8
DEFPOINTS
 62
     0
100
AcDbPoint
 10
585.8508296061152
 20
228.8139518170098
 30
0.0
  0
POINT
  5
2D44
330
2C92
100
AcDbEntity
  8
DEFPOINTS
 62
     0
100
AcDbPoint
 10
626.3824731177863
 20
228.8139518170098
 30
0.0
  0
ENDBLK
  5
2C9F
330
2C92
100
AcDbEntity
  8
0
100
AcDbBlockEnd
  0
ENDSEC
  0
SECTION
  2
ENTITIES
  0
LWPOLYLINE
  5
1609
330
1A
100
AcDbEntity
  8
ZUWAKU
100
AcDbPolyline
 90
        4
 70
     1
 43
0.0
 10
0.799999566643919
 20
550.8000006402971
 10
0.799999566643919
 20
0.8000006402971849
 10
796.7999995666438
 20
0.8000006402971849
 10
796.7999995666438
 20
550.8000006402971
  0
LWPOLYLINE
  5
160A
330
1A
100
AcDbEntity
  8
ZUWAKU
100
AcDbPolyline
 90
        4
 70
     1
 43
0.0
 10
0.3999995666439418
 20
551.2000006402971
 10
0.3999995666439418
 20
0.4000006402972076
 10
797.199999566644
 20
0.4000006402971845
 10
797.199999566644
 20
551.2000006402971
  0
LWPOLYLINE
  5
160B
330
1A
100
AcDbEntity
  8
ZUWAKU
100
AcDbPolyline
 90
        4
 70
     1
 43
0.0
 10
-0.0000004333560355
 20
551.6000006402971
 10
-0.0000004333560355
 20
0.0000006402971167
 10
797.599999566644
 20
0.0000006402971842
 10
797.599999566644
 20
551.6000006402973
  0
LWPOLYLINE
  5
160C
330
1A
100
AcDbEntity
  8
ZUWAKU
100
AcDbPolyline
 90
        4
 70
     1
 43
0.0
 10
0.5999995666438736
 20
551.0000006402972
 10
0.5999995666438736
 20
0.6000006402971395
 10
796.9999995666442
 20
0.6000006402971857
 10
796.999999566644
 20
551.0000006402972
  0
LWPOLYLINE
  5
160D
330
1A
100
AcDbEntity
  8
ZUWAKU
100
AcDbPolyline
 90
        4
 70
     1
 43
0.0
 10
0.1999995666438963
 20
551.4000006402971
 10
0.1999995666438963
 20
0.2000006402971622
 10
797.3999995666438
 20
0.2000006402971852
 10
797.3999995666441
 20
551.4000006402971
  0
LINE
  5
160E
330
1A
100
AcDbEntity
  8
ZUWAKU
100
AcDbLine
 10
-0.0000004333560355
 20
30.00000064029711
 30
0.0
 11
797.3999995666438
 21
30.00000064029711
 31
0.0
  0
LINE
  5
160F
330
1A
100
AcDbEntity
  8
ZUWAKU
100
AcDbLine
 10
-0.0000004333560355
 20
30.20000064029711
 30
0.0
 11
797.3999995666438
 21
30.20000064029711
 31
0.0
  0
LINE
  5
1610
330
1A
100
AcDbEntity
  8
ZUWAKU
100
AcDbLine
 10
-0.0000004333560355
 20
30.40000064029713
 30
0.0
 11
797.3999995666438
 21
30.40000064029713
 31
0.0
  0
LINE
  5
1611
330
1A
100
AcDbEntity
  8
ZUWAKU
100
AcDbLine
 10
-0.0000004333560355
 20
30.60000064029713
 30
0.0
 11
797.3999995666438
 21
30.60000064029713
 31
0.0
  0
LINE
  5
1612
330
1A
100
AcDbEntity
  8
ZUWAKU
100
AcDbLine
 10
-0.0000004333560355
 20
30.80000064029713
 30
0.0
 11
797.3999995666438
 21
30.80000064029713
 31
0.0
  0
LINE
  5
1613
330
1A
100
AcDbEntity
  8
ZUWAKU
100
AcDbLine
 10
208.646600856712
 20
15.40000064029714
 30
0.0
 11
447.4243635376353
 21
15.40000064029714
 31
0.0
  0
LINE
  5
1614
330
1A
100
AcDbEntity
  8
ZUWAKU
100
AcDbLine
 10
208.646600856712
 20
15.60000064029715
 30
0.0
 11
447.4243635376353
 21
15.60000064029715
 31
0.0
  0
LINE
  5
1615
330
1A
100
AcDbEntity
  8
ZUWAKU
100
AcDbLine
 10
208.646600856712
 20
15.20000064029715
 30
0.0
 11
447.4243635376353
 21
15.20000064029714
 31
0.0
  0
TEXT
  5
1616
330
1A
100
AcDbEntity
  8
MOJI
100
AcDbText
 10
90.75324551577
 20
12.83491815671096
 30
0.0
 40
5.8
  1
アーバントップΣ９０
 41
0.9
  7
ｽﾀｲﾙ1
100
AcDbText
  0
CIRCLE
  5
1617
330
1A
100
AcDbEntity
  8
ZUWAKU
100
AcDbCircle
 10
25.99221172142506
 20
15.20000064029711
 30
0.0
 40
1.75
  0
LINE
  5
1618
330
1A
100
AcDbEntity
  8
ZUWAKU
100
AcDbLine
 10
26.86721172142507
 20
7.150000640297122
 30
0.0
 11
24.94221172142511
 21
7.150000640297122
 31
0.0
  0
LINE
  5
1619
330
1A
100
AcDbEntity
  8
ZUWAKU
100
AcDbLine
 10
24.94221172142511
 20
9.950000640297118
 30
0.0
 11
26.86721172142507
 21
9.950000640297118
 31
0.0
  0
LINE
  5
161A
330
1A
100
AcDbEntity
  8
ZUWAKU
100
AcDbLine
 10
26.86721172142507
 20
20.45000064029711
 30
0.0
 11
24.94221172142511
 21
20.45000064029711
 31
0.0
  0
LINE
  5
161B
330
1A
100
AcDbEntity
  8
ZUWAKU
100
AcDbLine
 10
24.94221172142511
 20
23.25000064029707
 30
0.0
 11
26.86721172142507
 21
23.25000064029711
 31
0.0
  0
HATCH
  5
161C
330
1A
100
AcDbEntity
  8
ZUWAKU
100
AcDbHatch
 10
0.0
 20
0.0
 30
0.0
210
0.0
220
0.0
230
1.0
  2
ANSI37
 70
     0
 71
     0
 91
        8
 92
        7
 72
     1
 73
     1
 93
       24
 10
14.50226222776382
 20
17.6448491212807
 42
-0.1989123673796348
 10
14.09221172142509
 20
18.63479861494174
 42
0.0
 10
14.09221172142509
 20
19.92500064029712
 42
-0.4142135623730912
 10
14.61721172142506
 20
20.45000064029711
 42
0.0
 10
17.59221172142496
 20
20.45000064029711
 42
0.4142135623731546
 10
18.11721172142507
 20
20.97500064029711
 42
0.0
 10
18.11721172142507
 20
22.72500064029713
 42
0.4142135623731586
 10
17.59221172142496
 20
23.25000064029711
 42
0.0
 10
14.09221172142509
 20
23.25000064029711
 42
0.4142135623730928
 10
11.29221172142513
 20
20.45000064029714
 42
0.0
 10
11.29221172142513
 20
18.63479861494188
 42
0.1989123673796619
 10
12.52236324044156
 20
15.66495013395826
 42
0.0
 10
15.43216121508623
 20
12.75515215931361
 42
-0.1989123673796613
 10
15.84221172142509
 20
11.76520266565242
 42
0.0
 10
15.84221172142509
 20
10.4750006402971
 42
-0.4142135623730911
 10
15.31721172142511
 20
9.950000640297118
 42
0.0
 10
12.3422117214252
 20
9.950000640297118
 42
0.4142135623731526
 10
11.81721172142511
 20
9.42500064029713
 42
0.0
 10
11.81721172142511
 20
7.675000640297109
 42
0.4142135623731526
 10
12.3422117214252
 20
7.150000640297122
 42
0.0
 10
15.84221172142509
 20
7.150000640297122
 42
0.4142135623731044
 10
18.64221172142516
 20
9.950000640297098
 42
0.0
 10
18.64221172142516
 20
11.76520266565236
 42
0.1989123673796604
 10
17.4120602024086
 20
14.73505114663591
 42
0.0
 97
        0
 92
        7
 72
     1
 73
     1
 93
       16
 10
23.54221172142513
 20
19.05000064029712
 42
-0.4142135623730935
 10
24.94221172142511
 20
20.45000064029711
 42
0.0
 10
26.86721172142507
 20
20.45000064029711
 42
0.4142135623731546
 10
27.39221172142516
 20
20.97500064029711
 42
0.0
 10
27.39221172142516
 20
22.72500064029713
 42
0.4142135623730951
 10
26.86721172142518
 20
23.25000064029711
 42
0.0
 10
24.942211721425
 20
23.25000064029707
 42
0.4142135623730892
 10
20.74221172142505
 20
19.05000064029706
 42
0.0
 10
20.74221172142505
 20
11.35000064029715
 42
0.4142135623730969
 10
24.94221172142511
 20
7.150000640297122
 42
0.0
 10
26.86721172142507
 20
7.150000640297122
 42
0.4142135623731526
 10
27.39221172142516
 20
7.675000640297109
 42
0.0
 10
27.39221172142516
 20
9.42500064029713
 42
0.4142135623730891
 10
26.86721172142518
 20
9.950000640297118
 42
0.0
 10
24.94221172142511
 20
9.950000640297118
 42
-0.4142135623730928
 10
23.54221172142513
 20
11.3500006402971
 42
0.0
 97
        0
 92
        7
 72
     1
 73
     1
 93
        2
 10
24.24221172142507
 20
15.20000064029711
 42
1.0
 10
27.74221172142507
 20
15.20000064029711
 42
1.0
 97
        0
 92
        7
 72
     1
 73
     1
 93
       26
 10
37.31485820360308
 20
19.20504783386054
 42
0.0
 10
38.3764978367409
 20
22.56690667213013
 42
0.5069206636600134
 10
37.87586693754554
 20
23.25000064029711
 42
0.0
 10
36.1769775579363
 20
23.25000064029711
 42
0.3272098845218764
 10
35.67634665874095
 20
22.88309460846408
 42
0.0
 10
33.80807678410916
 20
16.96690667213019
 42
-0.3272098845219541
 10
33.3074458849137
 20
16.60000064029712
 42
0.0
 10
33.16721172142525
 20
16.60000064029712
 42
-0.4142135623731526
 10
32.64221172142516
 20
17.1250006402971
 42
0.0
 10
32.64221172142516
 20
22.72500064029713
 42
0.4142135623730951
 10
32.11721172142518
 20
23.25000064029711
 42
0.0
 10
30.36721172142506
 20
23.25000064029711
 42
0.4142135623730871
 10
29.84221172142509
 20
22.72500064029713
 42
0.0
 10
29.84221172142509
 20
7.675000640297109
 42
0.4142135623730891
 10
30.36721172142506
 20
7.150000640297122
 42
0.0
 10
32.11721172142507
 20
7.150000640297122
 42
0.4142135623731526
 10
32.64221172142516
 20
7.675000640297109
 42
0.0
 10
32.64221172142516
 20
13.27500064029712
 42
-0.4142135623731526
 10
33.16721172142525
 20
13.80000064029711
 42
0.0
 10
33.30744588491382
 20
13.80000064029711
 42
-0.3272098845218915
 10
33.80807678410916
 20
13.43309460846404
 42
0.0
 10
35.67634665874095
 20
7.516906672130193
 42
0.3272098845218902
 10
36.1769775579363
 20
7.150000640297122
 42
0.0
 10
37.87586693754554
 20
7.150000640297122
 42
0.5069206636600335
 10
38.3764978367409
 20
7.83309460846413
 42
0.0
 10
36.05010645826724
 20
15.20000064029726
 42
0.0
 97
        0
 92
        7
 72
     1
 73
     1
 93
        8
 10
43.49221172142505
 20
22.72500064029713
 42
0.4142135623731546
 10
42.96721172142497
 20
23.25000064029711
 42
0.0
 10
41.21721172142521
 20
23.25000064029711
 42
0.4142135623731507
 10
40.6922117214251
 20
22.72500064029713
 42
0.0
 10
40.6922117214251
 20
7.675000640297109
 42
0.4142135623731526
 10
41.21721172142521
 20
7.150000640297122
 42
0.0
 10
42.96721172142497
 20
7.150000640297122
 42
0.4142135623731526
 10
43.49221172142505
 20
7.675000640297109
 42
0.0
 97
        0
 92
        7
 72
     1
 73
     1
 93
       24
 10
48.39221172142515
 20
19.92500064029712
 42
-0.4142135623731546
 10
48.91721172142525
 20
20.45000064029711
 42
0.0
 10
51.89221172142516
 20
20.45000064029711
 42
0.4142135623730911
 10
52.41721172142513
 20
20.97500064029711
 42
0.0
 10
52.41721172142513
 20
22.72500064029713
 42
0.4142135623730952
 10
51.89221172142516
 20
23.25000064029711
 42
0.0
 10
48.39221172142515
 20
23.25000064029711
 42
0.4142135623731048
 10
45.59221172142509
 20
20.45000064029714
 42
0.0
 10
45.59221172142509
 20
18.63479861494188
 42
0.1989123673796613
 10
46.82236324044163
 20
15.66495013395833
 42
0.0
 10
49.7321612150863
 20
12.75515215931366
 42
-0.1989123673796402
 10
50.14221172142516
 20
11.76520266565258
 42
0.0
 10
50.14221172142516
 20
10.4750006402971
 42
-0.4142135623730911
 10
49.61721172142518
 20
9.950000640297118
 42
0.0
 10
46.64221172142516
 20
9.950000640297118
 42
0.4142135623731526
 10
46.11721172142507
 20
9.42500064029713
 42
0.0
 10
46.11721172142507
 20
7.675000640297109
 42
0.4142135623730891
 10
46.64221172142504
 20
7.150000640297122
 42
0.0
 10
50.14221172142516
 20
7.150000640297122
 42
0.4142135623730925
 10
52.9422117214251
 20
9.950000640297098
 42
0.0
 10
52.9422117214251
 20
11.76520266565236
 42
0.1989123673796675
 10
51.71206020240857
 20
14.73505114663603
 42
0.0
 10
48.80226222776399
 20
17.64484912128054
 42
-0.1989123673796652
 10
48.39221172142515
 20
18.6347986149417
 42
0.0
 97
        0
 92
        7
 72
     1
 73
     1
 93
       16
 10
57.84221172142509
 20
22.7250006402971
 42
0.414213562373103
 10
57.3172117214251
 20
23.25000064029711
 42
0.0
 10
55.5672117214251
 20
23.25000064029711
 42
0.4142135623730871
 10
55.04221172142513
 20
22.72500064029713
 42
0.0
 10
55.04221172142513
 20
9.950000640297098
 42
0.4142135623730926
 10
57.84221172142509
 20
7.150000640297122
 42
0.0
 10
61.34221172142509
 20
7.150000640297122
 42
0.4142135623731044
 10
64.14221172142516
 20
9.950000640297098
 42
0.0
 10
64.14221172142516
 20
22.72500064029713
 42
0.4142135623730951
 10
63.61721172142518
 20
23.25000064029711
 42
0.0
 10
61.86721172142507
 20
23.25000064029711
 42
0.4142135623730871
 10
61.34221172142509
 20
22.72500064029713
 42
0.0
 10
61.34221172142509
 20
11.00000064029709
 42
-0.4142135623730879
 10
60.29221172142513
 20
9.950000640297118
 42
0.0
 10
58.89221172142516
 20
9.950000640297118
 42
-0.4142135623731197
 10
57.84221172142509
 20
11.00000064029709
 42
0.0
 97
        0
 92
        7
 72
     1
 73
     1
 93
        8
 10
69.04221172142513
 20
22.72500064029713
 42
0.4142135623730871
 10
68.51721172142516
 20
23.25000064029711
 42
0.0
 10
66.76721172142516
 20
23.25000064029711
 42
0.4142135623731507
 10
66.24221172142507
 20
22.72500064029713
 42
0.0
 10
66.24221172142507
 20
7.675000640297109
 42
0.4142135623730891
 10
66.76721172142504
 20
7.150000640297122
 42
0.0
 10
68.51721172142516
 20
7.150000640297122
 42
0.4142135623730891
 10
69.04221172142513
 20
7.675000640297109
 42
0.0
 97
        0
 75
     0
 76
     1
 52
0.0
 41
0.2
 77
     0
 78
     2
 53
45.0
 43
-900.9423047680351
 44
-13.19999935970281
 45
-0.4490128060534576
 46
0.4490128060534577
 79
     0
 53
135.0
 43
-900.9423047680351
 44
-13.19999935970281
 45
-0.4490128060534577
 46
-0.4490128060534576
 79
     0
 47
0.057451373970553
 98
        8
 10
16.07985452966727
 20
15.16717428618266
 10
22.40451457308314
 20
18.84406282274813
 10
25.16436745230362
 20
15.51188228636783
 10
30.9140595482811
 20
16.20129828673861
 10
41.83847158560069
 20
16.66091055428024
 10
46.89820046177351
 20
19.41857695670432
 10
56.55768553904431
 20
18.72915855539213
 10
67.8270791862667
 20
19.18877082293374
  0
ARC
  5
161D
330
1A
100
AcDbEntity
  8
ZUWAKU
100
AcDbCircle
 10
15.49221172142507
 20
18.63479861494181
 30
0.0
 40
4.199999999999998
100
AcDbArc
 50
180.0
 51
225.0
  0
LINE
  5
161E
330
1A
100
AcDbEntity
  8
ZUWAKU
100
AcDbLine
 10
20.74221172142505
 20
11.35000064029712
 30
0.0
 11
20.74221172142505
 21
19.05000064029708
 31
0.0
  0
LINE
  5
161F
330
1A
100
AcDbEntity
  8
ZUWAKU
100
AcDbLine
 10
23.54221172142513
 20
19.05000064029711
 30
0.0
 11
23.54221172142513
 21
11.35000064029712
 31
0.0
  0
ARC
  5
1620
330
1A
100
AcDbEntity
  8
ZUWAKU
100
AcDbCircle
 10
15.49221172142507
 20
18.63479861494181
 30
0.0
 40
1.399999999999999
100
AcDbArc
 50
180.0000000000016
 51
224.9999999999988
  0
ARC
  5
1621
330
1A
100
AcDbEntity
  8
ZUWAKU
100
AcDbCircle
 10
24.94221172142511
 20
11.35000064029712
 30
0.0
 40
4.199999999999998
100
AcDbArc
 50
180.0
 51
270.0
  0
ARC
  5
1622
330
1A
100
AcDbEntity
  8
ZUWAKU
100
AcDbCircle
 10
15.84221172142509
 20
9.950000640297118
 30
0.0
 40
2.799999999999999
100
AcDbArc
 50
270.0
 51
0.0
  0
ARC
  5
1623
330
1A
100
AcDbEntity
  8
ZUWAKU
100
AcDbCircle
 10
14.44221172142511
 20
11.76520266565242
 30
0.0
 40
4.199999999999998
100
AcDbArc
 50
0.0
 51
45.0
  0
LINE
  5
1624
330
1A
100
AcDbEntity
  8
ZUWAKU
100
AcDbLine
 10
12.52236324044156
 20
15.66495013395829
 30
0.0
 11
15.43216121508623
 21
12.75515215931364
 31
0.0
  0
LINE
  5
1625
330
1A
100
AcDbEntity
  8
ZUWAKU
100
AcDbLine
 10
12.34221172142509
 20
9.950000640297118
 30
0.0
 11
15.31721172142511
 21
9.950000640297118
 31
0.0
  0
LINE
  5
1626
330
1A
100
AcDbEntity
  8
ZUWAKU
100
AcDbLine
 10
12.34221172142509
 20
7.150000640297122
 30
0.0
 11
15.84221172142509
 21
7.150000640297122
 31
0.0
  0
ARC
  5
1627
330
1A
100
AcDbEntity
  8
ZUWAKU
100
AcDbCircle
 10
12.34221172142509
 20
9.425000640297119
 30
0.0
 40
0.525
100
AcDbArc
 50
90.0
 51
180.0
  0
ARC
  5
1628
330
1A
100
AcDbEntity
  8
ZUWAKU
100
AcDbCircle
 10
12.34221172142509
 20
7.67500064029712
 30
0.0
 40
0.525
100
AcDbArc
 50
180.0
 51
270.0
  0
LINE
  5
1629
330
1A
100
AcDbEntity
  8
ZUWAKU
100
AcDbLine
 10
11.81721172142511
 20
7.67500064029712
 30
0.0
 11
11.81721172142511
 21
9.425000640297119
 31
0.0
  0
ARC
  5
162A
330
1A
100
AcDbEntity
  8
ZUWAKU
100
AcDbCircle
 10
14.44221172142511
 20
11.76520266565246
 30
0.0
 40
1.399999999999999
100
AcDbArc
 50
0.0
 51
45.0
  0
ARC
  5
162B
330
1A
100
AcDbEntity
  8
ZUWAKU
100
AcDbCircle
 10
15.31721172142511
 20
10.47500064029712
 30
0.0
 40
0.525
100
AcDbArc
 50
270.0
 51
0.0
  0
LINE
  5
162C
330
1A
100
AcDbEntity
  8
ZUWAKU
100
AcDbLine
 10
15.84221172142509
 20
10.47500064029712
 30
0.0
 11
15.84221172142509
 21
11.76520266565246
 31
0.0
  0
LINE
  5
162D
330
1A
100
AcDbEntity
  8
ZUWAKU
100
AcDbLine
 10
17.4120602024086
 20
14.73505114663594
 30
0.0
 11
14.50226222776393
 21
17.64484912128062
 31
0.0
  0
ARC
  5
162E
330
1A
100
AcDbEntity
  8
ZUWAKU
100
AcDbCircle
 10
24.94221172142511
 20
11.35000064029712
 30
0.0
 40
1.399999999999999
100
AcDbArc
 50
180.0
 51
270.0
  0
LINE
  5
162F
330
1A
100
AcDbEntity
  8
ZUWAKU
100
AcDbLine
 10
18.64221172142516
 20
9.950000640297118
 30
0.0
 11
18.64221172142516
 21
11.76520266565246
 31
0.0
  0
ARC
  5
1630
330
1A
100
AcDbEntity
  8
ZUWAKU
100
AcDbCircle
 10
17.59221172142509
 20
20.97500064029712
 30
0.0
 40
0.525
100
AcDbArc
 50
270.0
 51
0.0
  0
ARC
  5
1631
330
1A
100
AcDbEntity
  8
ZUWAKU
100
AcDbCircle
 10
17.59221172142509
 20
22.72500064029712
 30
0.0
 40
0.525
100
AcDbArc
 50
0.0
 51
90.0
  0
ARC
  5
1632
330
1A
100
AcDbEntity
  8
ZUWAKU
100
AcDbCircle
 10
14.09221172142509
 20
20.45000064029711
 30
0.0
 40
2.799999999999999
100
AcDbArc
 50
90.0
 51
180.0
  0
LINE
  5
1633
330
1A
100
AcDbEntity
  8
ZUWAKU
100
AcDbLine
 10
11.29221172142513
 20
20.45000064029711
 30
0.0
 11
11.29221172142513
 21
18.63479861494178
 31
0.0
  0
LINE
  5
1634
330
1A
100
AcDbEntity
  8
ZUWAKU
100
AcDbLine
 10
17.59221172142509
 20
20.45000064029711
 30
0.0
 11
14.61721172142506
 21
20.45000064029711
 31
0.0
  0
LINE
  5
1635
330
1A
100
AcDbEntity
  8
ZUWAKU
100
AcDbLine
 10
14.09221172142509
 20
19.92500064029711
 30
0.0
 11
14.09221172142509
 21
18.63479861494178
 31
0.0
  0
ARC
  5
1636
330
1A
100
AcDbEntity
  8
ZUWAKU
100
AcDbCircle
 10
14.61721172142506
 20
19.92500064029711
 30
0.0
 40
0.525
100
AcDbArc
 50
90.0
 51
180.0
  0
LINE
  5
1637
330
1A
100
AcDbEntity
  8
ZUWAKU
100
AcDbLine
 10
14.09221172142509
 20
23.25000064029711
 30
0.0
 11
17.59221172142509
 21
23.25000064029711
 31
0.0
  0
ARC
  5
1638
330
1A
100
AcDbEntity
  8
ZUWAKU
100
AcDbCircle
 10
24.94221172142511
 20
19.05000064029708
 30
0.0
 40
4.199999999999998
100
AcDbArc
 50
90.0
 51
180.0
  0
ARC
  5
1639
330
1A
100
AcDbEntity
  8
ZUWAKU
100
AcDbCircle
 10
24.94221172142511
 20
19.05000064029711
 30
0.0
 40
1.399999999999999
100
AcDbArc
 50
90.0
 51
180.0
  0
LINE
  5
163A
330
1A
100
AcDbEntity
  8
ZUWAKU
100
AcDbLine
 10
18.11721172142507
 20
22.72500064029712
 30
0.0
 11
18.11721172142507
 21
20.97500064029712
 31
0.0
  0
LINE
  5
163B
330
1A
100
AcDbEntity
  8
ZUWAKU
100
AcDbLine
 10
35.67634665874095
 20
22.88309460846408
 30
0.0
 11
33.80807678410916
 21
16.96690667213014
 31
0.0
  0
LINE
  5
163C
330
1A
100
AcDbEntity
  8
ZUWAKU
100
AcDbLine
 10
29.84221172142509
 20
22.72500064029712
 30
0.0
 11
29.84221172142509
 21
7.67500064029712
 31
0.0
  0
LINE
  5
163D
330
1A
100
AcDbEntity
  8
ZUWAKU
100
AcDbLine
 10
32.64221172142516
 20
17.12500064029712
 30
0.0
 11
32.64221172142516
 21
22.72500064029712
 31
0.0
  0
LINE
  5
163E
330
1A
100
AcDbEntity
  8
ZUWAKU
100
AcDbLine
 10
57.84221172142509
 20
11.00000064029711
 30
0.0
 11
57.84221172142509
 21
22.72500064029712
 31
0.0
  0
LINE
  5
163F
330
1A
100
AcDbEntity
  8
ZUWAKU
100
AcDbLine
 10
55.04221172142513
 20
22.72500064029712
 30
0.0
 11
55.04221172142513
 21
9.950000640297118
 31
0.0
  0
LINE
  5
1640
330
1A
100
AcDbEntity
  8
ZUWAKU
100
AcDbLine
 10
43.49221172142505
 20
7.67500064029712
 30
0.0
 11
43.49221172142505
 21
22.72500064029712
 31
0.0
  0
LINE
  5
1641
330
1A
100
AcDbEntity
  8
ZUWAKU
100
AcDbLine
 10
40.6922117214251
 20
22.72500064029712
 30
0.0
 11
40.6922117214251
 21
7.67500064029712
 31
0.0
  0
LINE
  5
1642
330
1A
100
AcDbEntity
  8
ZUWAKU
100
AcDbLine
 10
37.31485820360308
 20
19.20504783386054
 30
0.0
 11
36.05010645826724
 21
15.20000064029713
 31
0.0
  0
ARC
  5
1643
330
1A
100
AcDbEntity
  8
ZUWAKU
100
AcDbCircle
 10
49.79221172142513
 20
18.63479861494181
 30
0.0
 40
4.199999999999998
100
AcDbArc
 50
180.0
 51
225.0
  0
ARC
  5
1644
330
1A
100
AcDbEntity
  8
ZUWAKU
100
AcDbCircle
 10
49.79221172142513
 20
18.63479861494181
 30
0.0
 40
1.399999999999999
100
AcDbArc
 50
180.0000000000016
 51
224.9999999999988
  0
LINE
  5
1645
330
1A
100
AcDbEntity
  8
ZUWAKU
100
AcDbLine
 10
66.24221172142507
 20
22.72500064029712
 30
0.0
 11
66.24221172142507
 21
7.67500064029712
 31
0.0
  0
LINE
  5
1646
330
1A
100
AcDbEntity
  8
ZUWAKU
100
AcDbLine
 10
69.04221172142513
 20
7.67500064029712
 30
0.0
 11
69.04221172142513
 21
22.72500064029712
 31
0.0
  0
LINE
  5
1647
330
1A
100
AcDbEntity
  8
ZUWAKU
100
AcDbLine
 10
61.34221172142509
 20
22.72500064029712
 30
0.0
 11
61.34221172142509
 21
11.00000064029711
 31
0.0
  0
LINE
  5
1648
330
1A
100
AcDbEntity
  8
ZUWAKU
100
AcDbLine
 10
64.14221172142516
 20
9.950000640297118
 30
0.0
 11
64.14221172142516
 21
22.72500064029712
 31
0.0
  0
LINE
  5
1649
330
1A
100
AcDbEntity
  8
ZUWAKU
100
AcDbLine
 10
79.12662911463235
 20
30.00000064029711
 30
0.0
 11
79.12662911463235
 21
0.8000006402971849
 31
0.0
  0
LINE
  5
164A
330
1A
100
AcDbEntity
  8
ZUWAKU
100
AcDbLine
 10
79.52662911463222
 20
30.00000064029711
 30
0.0
 11
79.52662911463243
 21
0.8000006402971849
 31
0.0
  0
LINE
  5
164B
330
1A
100
AcDbEntity
  8
ZUWAKU
100
AcDbLine
 10
79.32662911463217
 20
30.00000064029711
 30
0.0
 11
79.3266291146324
 21
0.8000006402971849
 31
0.0
  0
LINE
  5
164C
330
1A
100
AcDbEntity
  8
ZUWAKU
100
AcDbLine
 10
57.84221172142509
 20
7.150000640297122
 30
0.0
 11
61.34221172142509
 21
7.150000640297122
 31
0.0
  0
LINE
  5
164D
330
1A
100
AcDbEntity
  8
ZUWAKU
100
AcDbLine
 10
60.29221172142513
 20
9.950000640297118
 30
0.0
 11
58.89221172142516
 21
9.950000640297118
 31
0.0
  0
LINE
  5
164E
330
1A
100
AcDbEntity
  8
ZUWAKU
100
AcDbLine
 10
41.21721172142509
 20
7.150000640297122
 30
0.0
 11
42.96721172142509
 21
7.150000640297122
 31
0.0
  0
LINE
  5
164F
330
1A
100
AcDbEntity
  8
ZUWAKU
100
AcDbLine
 10
35.67634665874095
 20
7.516906672130147
 30
0.0
 11
33.80807678410916
 21
13.43309460846409
 31
0.0
  0
ARC
  5
1650
330
1A
100
AcDbEntity
  8
ZUWAKU
100
AcDbCircle
 10
33.16721172142513
 20
13.27500064029711
 30
0.0
 40
0.525
100
AcDbArc
 50
90.0
 51
180.0
  0
ARC
  5
1651
330
1A
100
AcDbEntity
  8
ZUWAKU
100
AcDbCircle
 10
33.30744588491382
 20
13.27500064029711
 30
0.0
 40
0.525
100
AcDbArc
 50
17.52556837372303
 51
90.0
  0
ARC
  5
1652
330
1A
100
AcDbEntity
  8
ZUWAKU
100
AcDbCircle
 10
30.36721172142506
 20
7.67500064029712
 30
0.0
 40
0.525
100
AcDbArc
 50
180.0
 51
270.0
  0
ARC
  5
1653
330
1A
100
AcDbEntity
  8
ZUWAKU
100
AcDbCircle
 10
26.86721172142507
 20
9.425000640297119
 30
0.0
 40
0.525
100
AcDbArc
 50
0.0
 51
90.0
  0
ARC
  5
1654
330
1A
100
AcDbEntity
  8
ZUWAKU
100
AcDbCircle
 10
26.86721172142507
 20
7.67500064029712
 30
0.0
 40
0.525
100
AcDbArc
 50
270.0
 51
0.0
  0
LINE
  5
1655
330
1A
100
AcDbEntity
  8
ZUWAKU
100
AcDbLine
 10
27.39221172142516
 20
9.425000640297119
 30
0.0
 11
27.39221172142516
 21
7.67500064029712
 31
0.0
  0
LINE
  5
1656
330
1A
100
AcDbEntity
  8
ZUWAKU
100
AcDbLine
 10
32.64221172142516
 20
7.67500064029712
 30
0.0
 11
32.64221172142516
 21
13.27500064029711
 31
0.0
  0
ARC
  5
1657
330
1A
100
AcDbEntity
  8
ZUWAKU
100
AcDbCircle
 10
32.11721172142507
 20
7.67500064029712
 30
0.0
 40
0.525
100
AcDbArc
 50
270.0
 51
0.0
  0
LINE
  5
1658
330
1A
100
AcDbEntity
  8
ZUWAKU
100
AcDbLine
 10
30.36721172142506
 20
7.150000640297122
 30
0.0
 11
32.11721172142507
 21
7.150000640297122
 31
0.0
  0
ARC
  5
1659
330
1A
100
AcDbEntity
  8
ZUWAKU
100
AcDbCircle
 10
33.16721172142513
 20
17.12500064029712
 30
0.0
 40
0.525
100
AcDbArc
 50
180.0
 51
270.0
  0
LINE
  5
165A
330
1A
100
AcDbEntity
  8
ZUWAKU
100
AcDbLine
 10
33.16721172142513
 20
13.80000064029711
 30
0.0
 11
33.30744588491382
 21
13.80000064029711
 31
0.0
  0
LINE
  5
165B
330
1A
100
AcDbEntity
  8
ZUWAKU
100
AcDbLine
 10
33.30744588491382
 20
16.60000064029712
 30
0.0
 11
33.16721172142513
 21
16.60000064029712
 31
0.0
  0
ARC
  5
165C
330
1A
100
AcDbEntity
  8
ZUWAKU
100
AcDbCircle
 10
33.30744588491382
 20
17.12500064029712
 30
0.0
 40
0.525
100
AcDbArc
 50
270.0
 51
342.474431626277
  0
ARC
  5
165D
330
1A
100
AcDbEntity
  8
ZUWAKU
100
AcDbCircle
 10
36.17697755793642
 20
7.67500064029712
 30
0.0
 40
0.525
100
AcDbArc
 50
197.525568373723
 51
270.0
  0
LINE
  5
165E
330
1A
100
AcDbEntity
  8
ZUWAKU
100
AcDbLine
 10
38.3764978367409
 20
7.833094608464094
 30
0.0
 11
36.05010645826724
 21
15.20000064029713
 31
0.0
  0
ARC
  5
165F
330
1A
100
AcDbEntity
  8
ZUWAKU
100
AcDbCircle
 10
37.87586693754543
 20
7.67500064029712
 30
0.0
 40
0.525
100
AcDbArc
 50
270.0
 51
17.52556837372303
  0
LINE
  5
1660
330
1A
100
AcDbEntity
  8
ZUWAKU
100
AcDbLine
 10
36.17697755793642
 20
7.150000640297122
 30
0.0
 11
37.87586693754543
 21
7.150000640297122
 31
0.0
  0
ARC
  5
1661
330
1A
100
AcDbEntity
  8
ZUWAKU
100
AcDbCircle
 10
41.21721172142509
 20
7.67500064029712
 30
0.0
 40
0.525
100
AcDbArc
 50
180.0
 51
270.0
  0
ARC
  5
1662
330
1A
100
AcDbEntity
  8
ZUWAKU
100
AcDbCircle
 10
50.14221172142516
 20
9.950000640297118
 30
0.0
 40
2.799999999999999
100
AcDbArc
 50
270.0
 51
0.0
  0
ARC
  5
1663
330
1A
100
AcDbEntity
  8
ZUWAKU
100
AcDbCircle
 10
57.84221172142509
 20
9.950000640297118
 30
0.0
 40
2.799999999999999
100
AcDbArc
 50
180.0
 51
270.0
  0
LINE
  5
1664
330
1A
100
AcDbEntity
  8
ZUWAKU
100
AcDbLine
 10
51.71206020240867
 20
14.73505114663594
 30
0.0
 11
48.8022622277639
 21
17.64484912128062
 31
0.0
  0
LINE
  5
1665
330
1A
100
AcDbEntity
  8
ZUWAKU
100
AcDbLine
 10
46.82236324044163
 20
15.66495013395829
 30
0.0
 11
49.7321612150863
 21
12.75515215931364
 31
0.0
  0
LINE
  5
1666
330
1A
100
AcDbEntity
  8
ZUWAKU
100
AcDbLine
 10
46.64221172142516
 20
7.150000640297122
 30
0.0
 11
50.14221172142516
 21
7.150000640297122
 31
0.0
  0
LINE
  5
1667
330
1A
100
AcDbEntity
  8
ZUWAKU
100
AcDbLine
 10
46.64221172142516
 20
9.950000640297118
 30
0.0
 11
49.61721172142507
 21
9.950000640297118
 31
0.0
  0
ARC
  5
1668
330
1A
100
AcDbEntity
  8
ZUWAKU
100
AcDbCircle
 10
46.64221172142516
 20
9.425000640297119
 30
0.0
 40
0.525
100
AcDbArc
 50
90.0
 51
180.0
  0
ARC
  5
1669
330
1A
100
AcDbEntity
  8
ZUWAKU
100
AcDbCircle
 10
42.96721172142509
 20
7.67500064029712
 30
0.0
 40
0.525
100
AcDbArc
 50
270.0
 51
0.0
  0
ARC
  5
166A
330
1A
100
AcDbEntity
  8
ZUWAKU
100
AcDbCircle
 10
46.64221172142516
 20
7.67500064029712
 30
0.0
 40
0.525
100
AcDbArc
 50
180.0
 51
270.0
  0
LINE
  5
166B
330
1A
100
AcDbEntity
  8
ZUWAKU
100
AcDbLine
 10
46.11721172142507
 20
7.67500064029712
 30
0.0
 11
46.11721172142507
 21
9.425000640297119
 31
0.0
  0
ARC
  5
166C
330
1A
100
AcDbEntity
  8
ZUWAKU
100
AcDbCircle
 10
49.61721172142507
 20
10.47500064029712
 30
0.0
 40
0.525
100
AcDbArc
 50
270.0
 51
0.0
  0
ARC
  5
166D
330
1A
100
AcDbEntity
  8
ZUWAKU
100
AcDbCircle
 10
48.74221172142507
 20
11.76520266565246
 30
0.0
 40
1.399999999999999
100
AcDbArc
 50
0.0
 51
45.0
  0
LINE
  5
166E
330
1A
100
AcDbEntity
  8
ZUWAKU
100
AcDbLine
 10
50.14221172142516
 20
10.47500064029712
 30
0.0
 11
50.14221172142516
 21
11.76520266565246
 31
0.0
  0
ARC
  5
166F
330
1A
100
AcDbEntity
  8
ZUWAKU
100
AcDbCircle
 10
58.89221172142516
 20
11.00000064029711
 30
0.0
 40
1.049999999999999
100
AcDbArc
 50
180.0
 51
270.0
  0
ARC
  5
1670
330
1A
100
AcDbEntity
  8
ZUWAKU
100
AcDbCircle
 10
48.74221172142507
 20
11.76520266565242
 30
0.0
 40
4.199999999999998
100
AcDbArc
 50
0.0
 51
45.0
  0
LINE
  5
1671
330
1A
100
AcDbEntity
  8
ZUWAKU
100
AcDbLine
 10
52.9422117214251
 20
9.950000640297118
 30
0.0
 11
52.9422117214251
 21
11.76520266565246
 31
0.0
  0
ARC
  5
1672
330
1A
100
AcDbEntity
  8
ZUWAKU
100
AcDbCircle
 10
61.34221172142509
 20
9.950000640297118
 30
0.0
 40
2.799999999999999
100
AcDbArc
 50
270.0
 51
0.0
  0
LINE
  5
1673
330
1A
100
AcDbEntity
  8
ZUWAKU
100
AcDbLine
 10
66.76721172142516
 20
7.150000640297122
 30
0.0
 11
68.51721172142516
 21
7.150000640297122
 31
0.0
  0
ARC
  5
1674
330
1A
100
AcDbEntity
  8
ZUWAKU
100
AcDbCircle
 10
60.29221172142513
 20
11.00000064029711
 30
0.0
 40
1.049999999999999
100
AcDbArc
 50
270.0
 51
0.0
  0
ARC
  5
1675
330
1A
100
AcDbEntity
  8
ZUWAKU
100
AcDbCircle
 10
66.76721172142516
 20
7.67500064029712
 30
0.0
 40
0.525
100
AcDbArc
 50
180.0
 51
270.0
  0
ARC
  5
1676
330
1A
100
AcDbEntity
  8
ZUWAKU
100
AcDbCircle
 10
68.51721172142516
 20
7.67500064029712
 30
0.0
 40
0.525
100
AcDbArc
 50
270.0
 51
0.0
  0
LINE
  5
1677
330
1A
100
AcDbEntity
  8
ZUWAKU
100
AcDbLine
 10
42.96721172142509
 20
23.25000064029711
 30
0.0
 11
41.21721172142509
 21
23.25000064029711
 31
0.0
  0
LINE
  5
1678
330
1A
100
AcDbEntity
  8
ZUWAKU
100
AcDbLine
 10
27.39221172142516
 20
22.72500064029712
 30
0.0
 11
27.39221172142516
 21
20.97500064029712
 31
0.0
  0
ARC
  5
1679
330
1A
100
AcDbEntity
  8
ZUWAKU
100
AcDbCircle
 10
26.86721172142507
 20
20.97500064029712
 30
0.0
 40
0.525
100
AcDbArc
 50
270.0
 51
0.0
  0
ARC
  5
167A
330
1A
100
AcDbEntity
  8
ZUWAKU
100
AcDbCircle
 10
30.36721172142506
 20
22.72500064029712
 30
0.0
 40
0.525
100
AcDbArc
 50
90.0
 51
180.0
  0
ARC
  5
167B
330
1A
100
AcDbEntity
  8
ZUWAKU
100
AcDbCircle
 10
26.86721172142507
 20
22.72500064029712
 30
0.0
 40
0.525
100
AcDbArc
 50
0.0
 51
90.0
  0
LINE
  5
167C
330
1A
100
AcDbEntity
  8
ZUWAKU
100
AcDbLine
 10
32.11721172142507
 20
23.25000064029711
 30
0.0
 11
30.36721172142506
 21
23.25000064029711
 31
0.0
  0
ARC
  5
167D
330
1A
100
AcDbEntity
  8
ZUWAKU
100
AcDbCircle
 10
32.11721172142507
 20
22.72500064029712
 30
0.0
 40
0.525
100
AcDbArc
 50
0.0
 51
90.0
  0
ARC
  5
167E
330
1A
100
AcDbEntity
  8
ZUWAKU
100
AcDbCircle
 10
36.17697755793642
 20
22.72500064029712
 30
0.0
 40
0.525
100
AcDbArc
 50
90.0
 51
162.4744316262769
  0
LINE
  5
167F
330
1A
100
AcDbEntity
  8
ZUWAKU
100
AcDbLine
 10
38.3764978367409
 20
22.56690667213015
 30
0.0
 11
37.31485820360308
 21
19.20504783386054
 31
0.0
  0
ARC
  5
1680
330
1A
100
AcDbEntity
  8
ZUWAKU
100
AcDbCircle
 10
37.87586693754543
 20
22.72500064029712
 30
0.0
 40
0.525
100
AcDbArc
 50
342.474431626277
 51
90.0
  0
LINE
  5
1681
330
1A
100
AcDbEntity
  8
ZUWAKU
100
AcDbLine
 10
36.17697755793642
 20
23.25000064029711
 30
0.0
 11
37.87586693754543
 21
23.25000064029711
 31
0.0
  0
ARC
  5
1682
330
1A
100
AcDbEntity
  8
ZUWAKU
100
AcDbCircle
 10
41.21721172142509
 20
22.72500064029712
 30
0.0
 40
0.525
100
AcDbArc
 50
90.0
 51
180.0
  0
LINE
  5
1683
330
1A
100
AcDbEntity
  8
ZUWAKU
100
AcDbLine
 10
51.89221172142516
 20
20.45000064029711
 30
0.0
 11
48.91721172142513
 21
20.45000064029711
 31
0.0
  0
LINE
  5
1684
330
1A
100
AcDbEntity
  8
ZUWAKU
100
AcDbLine
 10
48.39221172142515
 20
23.25000064029711
 30
0.0
 11
51.89221172142516
 21
23.25000064029711
 31
0.0
  0
ARC
  5
1685
330
1A
100
AcDbEntity
  8
ZUWAKU
100
AcDbCircle
 10
48.39221172142515
 20
20.45000064029711
 30
0.0
 40
2.799999999999999
100
AcDbArc
 50
90.0
 51
180.0
  0
LINE
  5
1686
330
1A
100
AcDbEntity
  8
ZUWAKU
100
AcDbLine
 10
45.59221172142509
 20
20.45000064029711
 30
0.0
 11
45.59221172142509
 21
18.63479861494178
 31
0.0
  0
ARC
  5
1687
330
1A
100
AcDbEntity
  8
ZUWAKU
100
AcDbCircle
 10
42.96721172142509
 20
22.72500064029712
 30
0.0
 40
0.525
100
AcDbArc
 50
0.0
 51
90.0
  0
LINE
  5
1688
330
1A
100
AcDbEntity
  8
ZUWAKU
100
AcDbLine
 10
48.39221172142515
 20
19.92500064029711
 30
0.0
 11
48.39221172142515
 21
18.63479861494178
 31
0.0
  0
ARC
  5
1689
330
1A
100
AcDbEntity
  8
ZUWAKU
100
AcDbCircle
 10
48.91721172142513
 20
19.92500064029711
 30
0.0
 40
0.525
100
AcDbArc
 50
90.0
 51
180.0
  0
LINE
  5
168A
330
1A
100
AcDbEntity
  8
ZUWAKU
100
AcDbLine
 10
52.41721172142513
 20
22.72500064029712
 30
0.0
 11
52.41721172142513
 21
20.97500064029712
 31
0.0
  0
ARC
  5
168B
330
1A
100
AcDbEntity
  8
ZUWAKU
100
AcDbCircle
 10
51.89221172142516
 20
20.97500064029712
 30
0.0
 40
0.525
100
AcDbArc
 50
270.0
 51
0.0
  0
ARC
  5
168C
330
1A
100
AcDbEntity
  8
ZUWAKU
100
AcDbCircle
 10
51.89221172142516
 20
22.72500064029712
 30
0.0
 40
0.525
100
AcDbArc
 50
0.0
 51
90.0
  0
LINE
  5
168D
330
1A
100
AcDbEntity
  8
ZUWAKU
100
AcDbLine
 10
57.3172117214251
 20
23.25000064029711
 30
0.0
 11
55.5672117214251
 21
23.25000064029711
 31
0.0
  0
ARC
  5
168E
330
1A
100
AcDbEntity
  8
ZUWAKU
100
AcDbCircle
 10
55.5672117214251
 20
22.72500064029712
 30
0.0
 40
0.525
100
AcDbArc
 50
90.0
 51
180.0
  0
ARC
  5
168F
330
1A
100
AcDbEntity
  8
ZUWAKU
100
AcDbCircle
 10
57.3172117214251
 20
22.72500064029712
 30
0.0
 40
0.525
100
AcDbArc
 50
0.0
 51
90.0
  0
LINE
  5
1690
330
1A
100
AcDbEntity
  8
ZUWAKU
100
AcDbLine
 10
68.51721172142516
 20
23.25000064029711
 30
0.0
 11
66.76721172142516
 21
23.25000064029711
 31
0.0
  0
ARC
  5
1691
330
1A
100
AcDbEntity
  8
ZUWAKU
100
AcDbCircle
 10
61.86721172142507
 20
22.72500064029712
 30
0.0
 40
0.525
100
AcDbArc
 50
90.0
 51
180.0
  0
LINE
  5
1692
330
1A
100
AcDbEntity
  8
ZUWAKU
100
AcDbLine
 10
63.61721172142507
 20
23.25000064029711
 30
0.0
 11
61.86721172142507
 21
23.25000064029711
 31
0.0
  0
ARC
  5
1693
330
1A
100
AcDbEntity
  8
ZUWAKU
100
AcDbCircle
 10
63.61721172142507
 20
22.72500064029712
 30
0.0
 40
0.525
100
AcDbArc
 50
0.0
 51
90.0
  0
ARC
  5
1694
330
1A
100
AcDbEntity
  8
ZUWAKU
100
AcDbCircle
 10
66.76721172142516
 20
22.72500064029712
 30
0.0
 40
0.525
100
AcDbArc
 50
90.0
 51
180.0
  0
ARC
  5
1695
330
1A
100
AcDbEntity
  8
ZUWAKU
100
AcDbCircle
 10
68.51721172142516
 20
22.72500064029712
 30
0.0
 40
0.525
100
AcDbArc
 50
0.0
 51
90.0
  0
TEXT
  5
1696
330
1A
100
AcDbEntity
  8
MOJI
100
AcDbText
 10
239.8272022474949
 20
3.204921697704538
 30
0.0
 40
5.599999999999999
  1
Σ９０－０－１０～４５（Ⅱ）
 41
0.9
  7
ｽﾀｲﾙ1
100
AcDbText
  0
TEXT
  5
1697
330
1A
100
AcDbEntity
  8
MOJI
100
AcDbText
 10
239.8272022474949
 20
18.0049216977045
 30
0.0
 40
5.599999999999999
  1
ブラケット正面打（吊）自在式
 41
0.9
  7
ｽﾀｲﾙ1
100
AcDbText
  0
LINE
  5
1698
330
1A
100
AcDbEntity
  8
ZUWAKU
100
AcDbLine
 10
208.4466008567117
 20
30.00000064029711
 30
0.0
 11
208.4466008567119
 21
0.8000006402971849
 31
0.0
  0
LINE
  5
1699
330
1A
100
AcDbEntity
  8
ZUWAKU
100
AcDbLine
 10
208.6466008567118
 20
30.00000064029711
 30
0.0
 11
208.646600856712
 21
0.8000006402971849
 31
0.0
  0
LINE
  5
169A
330
1A
100
AcDbEntity
  8
ZUWAKU
100
AcDbLine
 10
208.2466008567119
 20
30.00000064029711
 30
0.0
 11
208.2466008567119
 21
0.8000006402971849
 31
0.0
  0
TEXT
  5
169B
330
1A
100
AcDbEntity
  8
ZUWAKU
100
AcDbText
 10
209.7240458789215
 20
9.655357178682735
 30
0.0
 40
4.0
  1
サイズ
 41
0.9
  7
ｽﾀｲﾙ1
100
AcDbText
  0
TEXT
  5
169C
330
1A
100
AcDbEntity
  8
ZUWAKU
100
AcDbText
 10
209.7240458789213
 20
24.05535717868269
 30
0.0
 40
4.0
  1
品名
 41
0.9
  7
ｽﾀｲﾙ1
100
AcDbText
  0
TEXT
  5
169D
330
1A
100
AcDbEntity
  8
ZUWAKU
100
AcDbText
 10
654.5120755663309
 20
18.0049216977045
 30
0.0
 40
5.599999999999999
  1
　　．　．　　
 41
0.9
  7
ｽﾀｲﾙ1
100
AcDbText
  0
LINE
  5
169E
330
1A
100
AcDbEntity
  8
ZUWAKU
100
AcDbLine
 10
648.8172020768482
 20
15.60000064029715
 30
0.0
 11
697.2490101151852
 21
15.60000064029715
 31
0.0
  0
LINE
  5
169F
330
1A
100
AcDbEntity
  8
ZUWAKU
100
AcDbLine
 10
648.8172020768483
 20
15.40000064029715
 30
0.0
 11
697.2490101151852
 21
15.40000064029714
 31
0.0
  0
LINE
  5
16A0
330
1A
100
AcDbEntity
  8
ZUWAKU
100
AcDbLine
 10
648.8172020768482
 20
15.20000064029714
 30
0.0
 11
697.2490101151852
 21
15.20000064029714
 31
0.0
  0
LINE
  5
16A1
330
1A
100
AcDbEntity
  8
ZUWAKU
100
AcDbLine
 10
505.1991790647847
 20
15.60000064029715
 30
0.0
 11
552.5269553327564
 21
15.60000064029715
 31
0.0
  0
LINE
  5
16A2
330
1A
100
AcDbEntity
  8
ZUWAKU
100
AcDbLine
 10
505.1991790647847
 20
15.40000064029714
 30
0.0
 11
552.5269553327564
 21
15.40000064029714
 31
0.0
  0
LINE
  5
16A3
330
1A
100
AcDbEntity
  8
ZUWAKU
100
AcDbLine
 10
505.1991790647847
 20
15.20000064029715
 30
0.0
 11
552.5269553327564
 21
15.20000064029715
 31
0.0
  0
LINE
  5
16A4
330
1A
100
AcDbEntity
  8
ZUWAKU
100
AcDbLine
 10
504.7991790647849
 20
30.00000064029711
 30
0.0
 11
504.7991790647849
 21
0.8000006402971849
 31
0.0
  0
LINE
  5
16A5
330
1A
100
AcDbEntity
  8
ZUWAKU
100
AcDbLine
 10
505.1991790647847
 20
30.00000064029711
 30
0.0
 11
505.1991790647851
 21
0.8000006402971849
 31
0.0
  0
LINE
  5
16A6
330
1A
100
AcDbEntity
  8
ZUWAKU
100
AcDbLine
 10
504.9991790647848
 20
30.00000064029711
 30
0.0
 11
504.9991790647849
 21
0.8000006402971849
 31
0.0
  0
TEXT
  5
16A7
330
1A
100
AcDbEntity
  8
MOJI
100
AcDbText
 10
528.0409075389568
 20
18.0049216977045
 30
0.0
 40
5.599999999999999
  1
Ａ３
 41
0.9
  7
ｽﾀｲﾙ1
100
AcDbText
  0
LINE
  5
16A8
330
1A
100
AcDbEntity
  8
ZUWAKU
100
AcDbLine
 10
447.4243635376353
 20
30.00000064029711
 30
0.0
 11
447.4243635376353
 21
0.8000006402971849
 31
0.0
  0
LINE
  5
16A9
330
1A
100
AcDbEntity
  8
ZUWAKU
100
AcDbLine
 10
447.8243635376351
 20
30.00000064029711
 30
0.0
 11
447.8243635376355
 21
0.8000006402971849
 31
0.0
  0
LINE
  5
16AA
330
1A
100
AcDbEntity
  8
ZUWAKU
100
AcDbLine
 10
447.6243635376351
 20
30.00000064029711
 30
0.0
 11
447.6243635376353
 21
0.8000006402971849
 31
0.0
  0
TEXT
  5
16AB
330
1A
100
AcDbEntity
  8
MOJI
100
AcDbText
 10
463.246431557646
 20
11.9426183619571
 30
0.0
 40
5.599999999999999
  1
ＬＪ０４Ｔ
 41
0.9
  7
ｽﾀｲﾙ1
100
AcDbText
  0
TEXT
  5
16AC
330
1A
100
AcDbEntity
  8
ZUWAKU
100
AcDbText
 10
506.6766240869947
 20
9.655357178682735
 30
0.0
 40
4.0
  1
縮尺
 41
0.9
  7
ｽﾀｲﾙ1
100
AcDbText
  0
TEXT
  5
16AD
330
1A
100
AcDbEntity
  8
MOJI
100
AcDbText
 10
528.0409075389568
 20
3.204921697704538
 30
0.0
 40
5.599999999999999
  1
１/２
 41
0.9
  7
ｽﾀｲﾙ1
100
AcDbText
  0
TEXT
  5
16AE
330
1A
100
AcDbEntity
  8
ZUWAKU
100
AcDbText
 10
449.3018085598449
 20
24.05535717868269
 30
0.0
 40
4.0
  1
品番
 41
0.9
  7
ｽﾀｲﾙ1
100
AcDbText
  0
TEXT
  5
16AF
330
1A
100
AcDbEntity
  8
ZUWAKU
100
AcDbText
 10
506.6766240869944
 20
24.05535717868269
 30
0.0
 40
4.0
  1
用紙
 41
0.9
  7
ｽﾀｲﾙ1
100
AcDbText
  0
LINE
  5
16B0
330
1A
100
AcDbEntity
  8
ZUWAKU
100
AcDbLine
 10
552.5269553327564
 20
30.00000064029711
 30
0.0
 11
552.5269553327564
 21
0.8000006402971849
 31
0.0
  0
LINE
  5
16B1
330
1A
100
AcDbEntity
  8
ZUWAKU
100
AcDbLine
 10
552.9269553327563
 20
30.00000064029711
 30
0.0
 11
552.9269553327564
 21
0.8000006402971849
 31
0.0
  0
LINE
  5
16B2
330
1A
100
AcDbEntity
  8
ZUWAKU
100
AcDbLine
 10
552.7269553327564
 20
30.00000064029711
 30
0.0
 11
552.7269553327564
 21
0.8000006402971849
 31
0.0
  0
LINE
  5
16B3
330
1A
100
AcDbEntity
  8
ZUWAKU
100
AcDbLine
 10
648.4172020768485
 20
30.00000064029711
 30
0.0
 11
648.4172020768485
 21
0.8000006402971849
 31
0.0
  0
LINE
  5
16B4
330
1A
100
AcDbEntity
  8
ZUWAKU
100
AcDbLine
 10
648.8172020768483
 20
30.00000064029711
 30
0.0
 11
648.8172020768487
 21
0.8000006402971849
 31
0.0
  0
LINE
  5
16B5
330
1A
100
AcDbEntity
  8
ZUWAKU
100
AcDbLine
 10
648.6172020768481
 20
30.00000064029711
 30
0.0
 11
648.6172020768486
 21
0.8000006402971849
 31
0.0
  0
TEXT
  5
16B6
330
1A
100
AcDbEntity
  8
ZUWAKU
100
AcDbText
 10
650.2946470990579
 20
24.05535717868269
 30
0.0
 40
4.0
  1
DATE
 41
0.9
  7
ｽﾀｲﾙ1
100
AcDbText
  0
TEXT
  5
16B7
330
1A
100
AcDbEntity
  8
ZUWAKU
100
AcDbText
 10
708.5280837588877
 20
17.55383997598391
 30
0.0
 40
6.0
  1
積水化学工業株式会社
 41
0.9
  7
ｽﾀｲﾙ1
100
AcDbText
  0
LINE
  5
16B8
330
1A
100
AcDbEntity
  8
ZUWAKU
100
AcDbLine
 10
697.8490101151853
 20
30.00000064029711
 30
0.0
 11
697.8490101151853
 21
0.8000006402971849
 31
0.0
  0
LINE
  5
16B9
330
1A
100
AcDbEntity
  8
ZUWAKU
100
AcDbLine
 10
697.6490101151851
 20
30.00000064029711
 30
0.0
 11
697.6490101151853
 21
0.8000006402971849
 31
0.0
  0
LINE
  5
16BA
330
1A
100
AcDbEntity
  8
ZUWAKU
100
AcDbLine
 10
697.4490101151853
 20
30.00000064029711
 30
0.0
 11
697.4490101151853
 21
0.8000006402971849
 31
0.0
  0
LINE
  5
16BB
330
1A
100
AcDbEntity
  8
ZUWAKU
100
AcDbLine
 10
697.2490101151852
 20
30.00000064029711
 30
0.0
 11
697.2490101151852
 21
0.8000006402971849
 31
0.0
  0
TEXT
  5
16BC
330
1A
100
AcDbEntity
  8
ZUWAKU
100
AcDbText
 10
708.5280837588877
 20
6.648840954151182
 30
0.0
 40
6.0
  1
建材事業部
 41
0.9
  7
ｽﾀｲﾙ1
100
AcDbText
  0
DIMENSION
  5
2A81
330
1A
100
AcDbEntity
  8
SUNPOU
100
AcDbDimension
  2
*D1
 10
400.5875319892313
 20
377.7830497385131
 30
0.0
 11
395.5875319892313
 21
394.2830497385132
 31
0.0
 70
    32
 71
     5
 42
33.0
  3
STANDARD
100
AcDbAlignedDimension
 13
356.459106651615
 23
410.7830497385132
 33
0.0
 14
356.459106651615
 24
377.7830497385132
 34
0.0
 50
90.0
100
AcDbRotatedDimension
1001
ACAD
1000
DSTYLE
1002
{
1070
   140
1040
6.0
1070
    74
1070
     0
1070
   172
1070
     1
1070
    73
1070
     0
1070
   272
1070
     2
1070
    77
1070
     3
1070
   173
1070
     1
1070
   147
1040
2.0
1070
    42
1040
6.0
1070
    44
1040
3.0
1070
    43
1040
14.0
1070
   271
1070
     0
1070
   178
1070
     4
1070
   177
1070
     4
1070
   176
1070
     4
1070
   141
1040
150.0
1070
     7
1000
_OPEN
1070
     6
1000
_OPEN
1070
    41
1040
7.0
1002
}
  0
TEXT
  5
2A82
330
1A
100
AcDbEntity
  8
SUNPOU
100
AcDbText
 10
372.057957233502
 20
283.6609211919585
 30
0.0
 40
6.0
  1
スライド巾
100
AcDbText
  0
LINE
  5
2A83
330
1A
100
AcDbEntity
  8
SEIHIN
  6
PHANTOM
 62
     6
 48
5.0
100
AcDbLine
 10
392.459106651615
 20
244.1139518170099
 30
0.0
 11
400.459106651615
 21
244.1139518170099
 31
0.0
  0
LINE
  5
2A84
330
1A
100
AcDbEntity
  8
CENTER L
  6
CENTER
 48
5.0
100
AcDbLine
 10
407.4591066516151
 20
234.1139518170099
 30
0.0
 11
385.459106651615
 21
234.1139518170099
 31
0.0
  0
LINE
  5
2A85
330
1A
100
AcDbEntity
  8
CENTER L
  6
CENTER
 48
5.0
100
AcDbLine
 10
407.4591066516151
 20
228.8139518170098
 30
0.0
 11
385.459106651615
 21
228.8139518170097
 31
0.0
  0
DIMENSION
  5
2A86
330
1A
100
AcDbEntity
  8
SUNPOU
 62
     4
100
AcDbDimension
  2
*D2
 10
400.459106651615
 20
271.6806438152605
 30
0.0
 11
382.959106651615
 21
276.6806438152605
 31
0.0
 70
    32
 71
     5
 42
35.0
  3
STANDARD
100
AcDbAlignedDimension
 13
365.459106651615
 23
244.1139518170099
 33
0.0
 14
400.459106651615
 24
244.1139518170099
 34
0.0
100
AcDbRotatedDimension
1001
ACAD
1000
DSTYLE
1002
{
1070
   140
1040
6.0
1070
    74
1070
     0
1070
   172
1070
     1
1070
    73
1070
     0
1070
   272
1070
     2
1070
    77
1070
     3
1070
   173
1070
     1
1070
   147
1040
2.0
1070
    42
1040
6.0
1070
    44
1040
3.0
1070
    43
1040
14.0
1070
   271
1070
     0
1070
   178
1070
     4
1070
   177
1070
     4
1070
   176
1070
     4
1070
   141
1040
150.0
1070
     7
1000
_OPEN
1070
     6
1000
_OPEN
1070
    41
1040
7.0
1002
}
  0
LINE
  5
2A87
330
1A
100
AcDbEntity
  8
CENTER L
  6
CENTER
 48
5.0
100
AcDbLine
 10
407.4591066516151
 20
204.1139518170099
 30
0.0
 11
385.459106651615
 21
204.1139518170099
 31
0.0
  0
DIMENSION
  5
2A88
330
1A
100
AcDbEntity
  8
SUNPOU
100
AcDbDimension
  2
*D3
 10
365.459106651615
 20
149.7294995821735
 30
0.0
 11
389.959106651615
 21
154.7294995821735
 31
0.0
 70
    32
  1
t<>
 71
     5
 42
8.0
  3
STANDARD
100
AcDbAlignedDimension
 13
357.459106651615
 23
196.1139518170099
 33
0.0
 14
365.459106651615
 24
194.1139518170099
 34
0.0
100
AcDbRotatedDimension
1001
ACAD
1000
DSTYLE
1002
{
1070
   140
1040
6.0
1070
    74
1070
     0
1070
   172
1070
     1
1070
    73
1070
     0
1070
   272
1070
     2
1070
    77
1070
     3
1070
   173
1070
     1
1070
   147
1040
2.0
1070
    42
1040
6.0
1070
    44
1040
3.0
1070
    43
1040
14.0
1070
   271
1070
     1
1070
   178
1070
     4
1070
   177
1070
     4
1070
   176
1070
     4
1070
   141
1040
150.0
1070
     7
1000
_OPEN
1070
     6
1000
_OPEN
1070
    41
1040
7.0
1002
}
  0
DIMENSION
  5
2A89
330
1A
100
AcDbEntity
  8
SUNPOU
100
AcDbDimension
  2
*D4
 10
416.3267856782408
 20
357.2830497385131
 30
0.0
 11
416.3267856782407
 21
393.9592713178943
 31
0.0
 70
   160
 71
     5
 42
74.0
  3
STANDARD
100
AcDbAlignedDimension
 13
365.459106651615
 23
431.2830497385132
 33
0.0
 14
365.459106651615
 24
357.2830497385132
 34
0.0
 50
90.0
100
AcDbRotatedDimension
1001
ACAD
1000
DSTYLE
1002
{
1070
   288
1070
     1
1070
   140
1040
6.0
1070
    74
1070
     0
1070
   172
1070
     1
1070
    73
1070
     0
1070
   272
1070
     2
1070
    77
1070
     3
1070
   173
1070
     1
1070
   147
1040
2.0
1070
    42
1040
6.0
1070
    44
1040
3.0
1070
    43
1040
14.0
1070
   271
1070
     0
1070
   178
1070
     4
1070
   177
1070
     4
1070
   176
1070
     4
1070
   141
1040
150.0
1070
     7
1000
_OPEN
1070
     6
1000
_OPEN
1070
    41
1040
7.0
1002
}
  0
ARC
  5
2A8A
330
1A
100
AcDbEntity
  8
SEIHIN
 62
     3
100
AcDbCircle
 10
266.319513155015
 20
229.0207969819099
 30
0.0
 40
14.0
100
AcDbArc
 50
200.2701048385998
 51
270.0
  0
ARC
  5
2A8B
330
1A
100
AcDbEntity
  8
SEIHIN
 62
     3
100
AcDbCircle
 10
266.319513155015
 20
229.0207969819099
 30
0.0
 40
12.0
100
AcDbArc
 50
200.2701048385998
 51
270.0
  0
ARC
  5
2A8C
330
1A
100
AcDbEntity
  8
SEIHIN
 62
     3
100
AcDbCircle
 10
264.466806550515
 20
216.8700024630099
 30
0.0
 40
15.0
100
AcDbArc
 50
192.8042660653005
 51
269.2747757009008
  0
ARC
  5
2A8D
330
1A
100
AcDbEntity
  8
SEIHIN
 62
     3
100
AcDbCircle
 10
264.466806550515
 20
216.8700024630099
 30
0.0
 40
13.0
100
AcDbArc
 50
192.8042660653005
 51
269.2747757009008
  0
DIMENSION
  5
2A8E
330
1A
100
AcDbEntity
  8
SUNPOU
100
AcDbDimension
  2
*D5
 10
207.1867211143173
 20
240.0207969819099
 30
0.0
 11
202.1867211143173
 21
217.0673743994599
 31
0.0
 70
    32
 71
     5
 42
45.90684516490001
  3
STANDARD
100
AcDbAlignedDimension
 13
359.459106651615
 23
194.1139518170099
 33
0.0
 14
234.500704343615
 24
240.0207969819099
 34
0.0
 50
90.0
100
AcDbRotatedDimension
1001
ACAD
1000
DSTYLE
1002
{
1070
   140
1040
6.0
1070
    74
1070
     0
1070
   172
1070
     1
1070
    73
1070
     0
1070
   272
1070
     2
1070
    77
1070
     3
1070
   173
1070
     1
1070
   147
1040
2.0
1070
    42
1040
6.0
1070
    44
1040
3.0
1070
    43
1040
14.0
1070
   271
1070
     0
1070
   178
1070
     4
1070
   177
1070
     4
1070
   176
1070
     4
1070
   141
1040
150.0
1070
     7
1000
_OPEN
1070
     6
1000
_OPEN
1070
    41
1040
7.0
1002
}
  0
DIMENSION
  5
2A8F
330
1A
100
AcDbEntity
  8
SUNPOU
100
AcDbDimension
  2
*D6
 10
233.5020748088149
 20
302.1680717637691
 30
0.0
 11
299.4805907302149
 21
307.1680717637691
 31
0.0
 70
    32
 71
     5
 42
131.9570318428
  3
STANDARD
100
AcDbAlignedDimension
 13
365.459106651615
 23
244.1139518170099
 33
0.0
 14
233.5020748088149
 24
239.0731329381098
 34
0.0
100
AcDbRotatedDimension
1001
ACAD
1000
DSTYLE
1002
{
1070
   140
1040
6.0
1070
    74
1070
     0
1070
   172
1070
     1
1070
    73
1070
     0
1070
   272
1070
     2
1070
    77
1070
     3
1070
   173
1070
     1
1070
   147
1040
2.0
1070
    42
1040
6.0
1070
    44
1040
3.0
1070
    43
1040
14.0
1070
   271
1070
     0
1070
   178
1070
     4
1070
   177
1070
     4
1070
   176
1070
     4
1070
   141
1040
150.0
1070
     7
1000
_OPEN
1070
     6
1000
_OPEN
1070
    41
1040
7.0
1002
}
  0
LINE
  5
2A90
330
1A
100
AcDbEntity
  8
SEIHIN
 62
     3
100
AcDbLine
 10
253.8727995042149
 20
228.0852594119099
 30
0.0
 11
255.0626752285149
 21
224.8634420659099
 31
0.0
  0
LINE
  5
2A91
330
1A
100
AcDbEntity
  8
SEIHIN
 62
     3
100
AcDbLine
 10
251.9966598497151
 20
227.3923669259099
 30
0.0
 11
253.186535574115
 21
224.1705495799099
 31
0.0
  0
ARC
  5
2A92
330
1A
100
AcDbEntity
  8
SEIHIN
 62
     3
100
AcDbCircle
 10
241.967963845815
 20
225.6207969819099
 30
0.0
 40
5.0
100
AcDbArc
 50
12.80426606530046
 51
90.0
  0
LINE
  5
2A93
330
1A
100
AcDbEntity
  8
SEIHIN
 62
     3
100
AcDbLine
 10
248.793893836415
 20
227.1721447070099
 30
0.0
 11
251.790079425215
 21
213.9889281164099
 31
0.0
  0
LINE
  5
2A94
330
1A
100
AcDbEntity
  8
SEIHIN
 62
     3
100
AcDbLine
 10
246.843628124815
 20
226.7289024998099
 30
0.0
 11
249.839813713615
 21
213.5456859092099
 31
0.0
  0
ARC
  5
2A95
330
1A
100
AcDbEntity
  8
SEIHIN
 62
     3
100
AcDbCircle
 10
244.492101232115
 20
224.6207969819099
 30
0.0
 40
10.0
100
AcDbArc
 50
20.27010483859981
 51
90.0
  0
ARC
  5
2A96
330
1A
100
AcDbEntity
  8
SEIHIN
 62
     3
100
AcDbCircle
 10
234.526937422015
 20
238.0207969819099
 30
0.0
 40
2.0
100
AcDbArc
 50
356.0000000000002
 51
90.0
  0
LINE
  5
2A97
330
1A
100
AcDbEntity
  8
SEIHIN
 62
     3
100
AcDbLine
 10
233.279709013715
 20
234.8301408069099
 30
0.0
 11
233.5020748088149
 21
239.0731329381098
 31
0.0
  0
LINE
  5
2A98
330
1A
100
AcDbEntity
  8
SEIHIN
 62
     3
100
AcDbLine
 10
237.331475361615
 20
234.1207969819099
 30
0.0
 11
239.4362309961149
 21
234.1207969819099
 31
0.0
  0
LINE
  5
2A99
330
1A
100
AcDbEntity
  8
SEIHIN
 62
     3
100
AcDbLine
 10
237.274227152715
 20
230.6207969819099
 30
0.0
 11
241.967963845815
 21
230.6207969819099
 31
0.0
  0
ARC
  5
2A9A
330
1A
100
AcDbEntity
  8
SEIHIN
 62
     3
100
AcDbCircle
 10
237.331475361615
 20
235.1207969819099
 30
0.0
 40
1.0
100
AcDbArc
 50
176.0000000000003
 51
270.0000000002996
  0
ARC
  5
2A9B
330
1A
100
AcDbEntity
  8
SEIHIN
 62
     3
100
AcDbCircle
 10
237.274227152715
 20
234.6207969819099
 30
0.0
 40
4.0
100
AcDbArc
 50
176.9999999999993
 51
270.0
  0
LINE
  5
2A9C
330
1A
100
AcDbEntity
  8
SEIHIN
 62
     3
100
AcDbLine
 10
236.333911311415
 20
235.1905534556099
 30
0.0
 11
236.522065522515
 21
237.8812840344099
 31
0.0
  0
LINE
  5
2A9D
330
1A
100
AcDbEntity
  8
SEIHIN
 62
     3
100
AcDbLine
 10
241.094543391715
 20
234.6207969819099
 30
0.0
 11
244.492101232115
 21
234.6207969819099
 31
0.0
  0
ARC
  5
2A9E
330
1A
100
AcDbEntity
  8
SEIHIN
 62
     3
100
AcDbCircle
 10
239.4362309961149
 20
236.1207969819099
 30
0.0
 40
2.0
100
AcDbArc
 50
270.0
 51
303.5573097697003
  0
ARC
  5
2A9F
330
1A
100
AcDbEntity
  8
SEIHIN
 62
     3
100
AcDbCircle
 10
241.094543391715
 20
233.6207969820098
 30
0.0
 40
1.0
100
AcDbArc
 50
89.99999999569928
 51
123.5573097698002
  0
LINE
  5
2AA0
330
1A
100
AcDbEntity
  8
SEIHIN
 62
     3
100
AcDbLine
 10
234.526937422015
 20
240.0207969819099
 30
0.0
 11
234.500704343615
 21
240.0207969819099
 31
0.0
  0
ARC
  5
2AA1
330
1A
100
AcDbEntity
  8
SEIHIN
 62
     3
100
AcDbCircle
 10
234.500704343615
 20
239.0207969819099
 30
0.0
 40
1.0
100
AcDbArc
 50
90.0
 51
176.9999999999993
  0
ARC
  5
2AA2
330
1A
100
AcDbEntity
  8
SEIHIN
 62
     3
100
AcDbCircle
 10
248.324050149915
 20
230.4787972798098
 30
0.0
 40
1.0
100
AcDbArc
 50
56.8097191777007
 51
217.3909272672004
  0
ARC
  5
2AA3
330
1A
100
AcDbEntity
  8
SEIHIN
 62
     3
100
AcDbCircle
 10
241.967963845815
 20
225.6207969819099
 30
0.0
 40
7.0
100
AcDbArc
 50
12.80426606530046
 51
37.39092726240023
  0
ARC
  5
2AA4
330
1A
100
AcDbEntity
  8
SEIHIN
 62
     3
100
AcDbCircle
 10
244.492101232115
 20
224.6207969819099
 30
0.0
 40
8.0
100
AcDbArc
 50
20.27010483859981
 51
56.80971917319984
  0
ARC
  5
2AA5
330
1A
100
AcDbEntity
  8
SEIHIN
 62
     3
100
AcDbCircle
 10
350.459106651615
 20
219.5207969819099
 30
0.0
 40
7.0
100
AcDbArc
 50
0.0
 51
90.0
  0
LINE
  5
2AA6
330
1A
100
AcDbEntity
  8
SEIHIN
 62
     3
100
AcDbLine
 10
350.459106651615
 20
246.5129906850099
 30
0.0
 11
350.459106651615
 21
226.5207969819099
 31
0.0
  0
LINE
  5
2AA7
330
1A
100
AcDbEntity
  8
SEIHIN
 62
     3
100
AcDbLine
 10
348.459106651615
 20
246.3380133579099
 30
0.0
 11
348.459106651615
 21
226.0207969819099
 31
0.0
  0
LINE
  5
2AA8
330
1A
100
AcDbEntity
  8
SEIHIN
 62
     3
100
AcDbLine
 10
344.209106651615
 20
245.9661865379099
 30
0.0
 11
344.209106651615
 21
226.0207969819099
 31
0.0
  0
LINE
  5
2AA9
330
1A
100
AcDbEntity
  8
SEIHIN
 62
     3
100
AcDbLine
 10
341.959106651615
 20
245.7693370450099
 30
0.0
 11
341.959106651615
 21
226.0207969819099
 31
0.0
  0
LINE
  5
2AAA
330
1A
100
AcDbEntity
  8
SEIHIN
 62
     3
100
AcDbLine
 10
339.959106651615
 20
245.5943597179099
 30
0.0
 11
339.959106651615
 21
226.0207969819099
 31
0.0
  0
LINE
  5
2AAB
330
1A
100
AcDbEntity
  8
SEIHIN
 62
     3
100
AcDbLine
 10
346.209106651615
 20
246.1411638650099
 30
0.0
 11
346.209106651615
 21
226.0207969819099
 31
0.0
  0
LINE
  5
2AAC
330
1A
100
AcDbEntity
  8
SEIHIN
 62
     3
100
AcDbLine
 10
287.904916447715
 20
223.3884548971099
 30
0.0
 11
301.163415912315
 21
235.9302787150099
 31
0.0
  0
ARC
  5
2AAD
330
1A
100
AcDbEntity
  8
SEIHIN
 62
     3
100
AcDbCircle
 10
316.104167702015
 20
211.5207969819099
 30
0.0
 40
15.0
100
AcDbArc
 50
90.0
 51
133.4088597288001
  0
DIMENSION
  5
2AAE
330
1A
100
AcDbEntity
  8
SUNPOU
 62
     4
100
AcDbDimension
  2
*D7
 10
355.5269374220151
 20
271.6806438152605
 30
0.0
 11
336.0269374220151
 21
276.6806438152605
 31
0.0
 70
    32
 71
     5
 42
9.932169229599822
  3
STANDARD
100
AcDbAlignedDimension
 13
365.459106651615
 23
244.1139518170099
 33
0.0
 14
355.5269374220151
 24
222.3207969819099
 34
0.0
100
AcDbRotatedDimension
1001
ACAD
1000
DSTYLE
1002
{
1070
   140
1040
6.0
1070
    74
1070
     0
1070
   172
1070
     1
1070
    73
1070
     0
1070
   272
1070
     2
1070
    77
1070
     3
1070
   173
1070
     1
1070
   147
1040
2.0
1070
    42
1040
6.0
1070
    44
1040
3.0
1070
    43
1040
14.0
1070
   271
1070
     0
1070
   178
1070
     4
1070
   177
1070
     4
1070
   176
1070
     4
1070
   141
1040
150.0
1070
     7
1000
_OPEN
1070
     6
1000
_OPEN
1070
    41
1040
7.0
1002
}
  0
LINE
  5
2AAF
330
1A
100
AcDbEntity
  8
SEIHIN
 62
     3
100
AcDbLine
 10
357.459106651615
 20
242.1139518170099
 30
0.0
 11
357.459106651615
 21
196.1139518170099
 31
0.0
  0
LINE
  5
2AB0
330
1A
100
AcDbEntity
  8
SEIHIN
 62
     3
100
AcDbLine
 10
359.459106651615
 20
244.1139518170099
 30
0.0
 11
359.459106651615
 21
194.1139518170099
 31
0.0
  0
DIMENSION
  5
2AB1
330
1A
100
AcDbEntity
  8
SUNPOU
100
AcDbDimension
  2
*D8
 10
382.0566328831454
 20
194.1139518170098
 30
0.0
 11
382.0566328831454
 21
217.4201220543028
 31
0.0
 70
   160
 71
     5
 42
50.00000000000006
  3
STANDARD
100
AcDbAlignedDimension
 13
365.459106651615
 23
244.1139518170099
 33
0.0
 14
365.459106651615
 24
194.1139518170098
 34
0.0
 50
90.0
100
AcDbRotatedDimension
1001
ACAD
1000
DSTYLE
1002
{
1070
   288
1070
     1
1070
   140
1040
6.0
1070
    74
1070
     0
1070
   172
1070
     1
1070
    73
1070
     0
1070
   272
1070
     2
1070
    77
1070
     3
1070
   173
1070
     1
1070
   147
1040
2.0
1070
    42
1040
6.0
1070
    44
1040
3.0
1070
    43
1040
14.0
1070
   271
1070
     0
1070
   178
1070
     4
1070
   177
1070
     4
1070
   176
1070
     4
1070
   141
1040
150.0
1070
     7
1000
_OPEN
1070
     6
1000
_OPEN
1070
    41
1040
7.0
1002
}
  0
LINE
  5
2AB2
330
1A
100
AcDbEntity
  8
SEIHIN
 62
     3
100
AcDbLine
 10
365.459106651615
 20
244.1139518170099
 30
0.0
 11
365.459106651615
 21
194.1139518170099
 31
0.0
  0
LINE
  5
2AB3
330
1A
100
AcDbEntity
  8
CENTER L
  6
CENTER
 62
     1
 48
5.0
100
AcDbLine
 10
276.459106651615
 20
187.6557183588099
 30
0.0
 11
276.459106651615
 21
229.5207969819098
 31
0.0
  0
DIMENSION
  5
2AB4
330
1A
100
AcDbEntity
  8
SUNPOU
100
AcDbDimension
  2
*D9
 10
266.459106651615
 20
286.2725237216311
 30
0.0
 11
315.959106651615
 21
291.2725237216311
 31
0.0
 70
    32
 71
     5
 42
99.0
  3
STANDARD
100
AcDbAlignedDimension
 13
365.459106651615
 23
244.1139518170099
 33
0.0
 14
266.459106651615
 24
222.0207969819099
 34
0.0
100
AcDbRotatedDimension
1001
ACAD
1000
DSTYLE
1002
{
1070
   140
1040
6.0
1070
    74
1070
     0
1070
   172
1070
     1
1070
    73
1070
     0
1070
   272
1070
     2
1070
    77
1070
     3
1070
   173
1070
     1
1070
   147
1040
2.0
1070
    42
1040
6.0
1070
    44
1040
3.0
1070
    43
1040
14.0
1070
   271
1070
     0
1070
   178
1070
     4
1070
   177
1070
     4
1070
   176
1070
     4
1070
   141
1040
150.0
1070
     7
1000
_OPEN
1070
     6
1000
_OPEN
1070
    41
1040
7.0
1002
}
  0
ARC
  5
2AB5
330
1A
100
AcDbEntity
  8
SEIHIN
 62
     3
100
AcDbCircle
 10
322.143662685015
 20
227.0207969819099
 30
0.0
 40
10.0
100
AcDbArc
 50
270.0
 51
316.6846843179006
  0
ARC
  5
2AB6
330
1A
100
AcDbEntity
  8
SEIHIN
 62
     3
100
AcDbCircle
 10
322.143662685015
 20
227.0207969819099
 30
0.0
 40
12.0
100
AcDbArc
 50
270.0
 51
316.6846843179006
  0
LINE
  5
2AB7
330
1A
100
AcDbEntity
  8
SEIHIN
 62
     3
100
AcDbLine
 10
316.104167702015
 20
226.5207969819099
 30
0.0
 11
339.959106651615
 21
226.5207969819099
 31
0.0
  0
LINE
  5
2AB8
330
1A
100
AcDbEntity
  8
SEIHIN
 62
     3
100
AcDbLine
 10
328.780985101015
 20
207.6334493049099
 30
0.0
 11
342.467468924915
 21
226.5207969819099
 31
0.0
  0
LINE
  5
2AB9
330
1A
100
AcDbEntity
  8
SEIHIN
 62
     3
100
AcDbLine
 10
264.276948342715
 20
201.8712040491099
 30
0.0
 11
331.459106651615
 21
201.0207969819099
 31
0.0
  0
ARC
  5
2ABA
330
1A
100
AcDbEntity
  8
SEIHIN
 62
     3
100
AcDbCircle
 10
292.8148383803149
 20
217.0207969819099
 30
0.0
 40
5.0
100
AcDbArc
 50
270.0
 51
313.4088597288001
  0
LINE
  5
2ABB
330
1A
100
AcDbEntity
  8
SEIHIN
 62
     3
100
AcDbLine
 10
264.2556332306151
 20
203.8716340850099
 30
0.0
 11
327.156196528515
 21
203.0754244230099
 31
0.0
  0
LINE
  5
2ABC
330
1A
100
AcDbEntity
  8
SEIHIN
 62
     3
100
AcDbLine
 10
279.459106651615
 20
196.2169995135099
 30
0.0
 11
280.959106651615
 21
199.2169995135099
 31
0.0
  0
LINE
  5
2ABD
330
1A
100
AcDbEntity
  8
SEIHIN
 62
     3
100
AcDbLine
 10
279.562717919015
 20
195.8543600775099
 30
0.0
 11
281.2057586612149
 21
190.1037174798099
 31
0.0
  0
ARC
  5
2ABE
330
1A
100
AcDbEntity
  8
SEIHIN
 62
     3
100
AcDbCircle
 10
279.081955945215
 20
195.7169995135099
 30
0.0
 40
0.5
100
AcDbArc
 50
15.94539590100092
 51
89.99999999970036
  0
LINE
  5
2ABF
330
1A
100
AcDbEntity
  8
SEIHIN
 62
     3
100
AcDbLine
 10
280.959106651615
 20
199.2169995135099
 30
0.0
 11
271.959106651615
 21
199.2169995135099
 31
0.0
  0
LINE
  5
2AC0
330
1A
100
AcDbEntity
  8
SEIHIN
 62
     3
100
AcDbLine
 10
281.959106651615
 20
200.2169995135099
 30
0.0
 11
270.959106651615
 21
200.2169995135099
 31
0.0
  0
LINE
  5
2AC1
330
1A
100
AcDbEntity
  8
SEIHIN
 62
     3
100
AcDbLine
 10
281.959106651615
 20
201.7169995135099
 30
0.0
 11
270.959106651615
 21
201.7169995135099
 31
0.0
  0
LINE
  5
2AC2
330
1A
100
AcDbEntity
  8
SEIHIN
 62
     3
100
AcDbLine
 10
272.871482639615
 20
195.9803429438098
 30
0.0
 11
271.231692668115
 21
190.2410780438099
 31
0.0
  0
LINE
  5
2AC3
330
1A
100
AcDbEntity
  8
SEIHIN
 62
     3
100
AcDbLine
 10
273.355495384215
 20
195.8543600775099
 30
0.0
 11
271.712454642015
 21
190.1037174798099
 31
0.0
  0
LINE
  5
2AC4
330
1A
100
AcDbEntity
  8
SEIHIN
 62
     3
100
AcDbLine
 10
267.430207702915
 20
191.1565733942099
 30
0.0
 11
268.274550341415
 21
193.0328903687099
 31
0.0
  0
LINE
  5
2AC5
330
1A
100
AcDbEntity
  8
SEIHIN
 62
     3
100
AcDbLine
 10
266.9742469503149
 20
191.3617557328099
 30
0.0
 11
267.818589588815
 21
193.2380727074099
 31
0.0
  0
ARC
  5
2AC6
330
1A
100
AcDbEntity
  8
SEIHIN
 62
     3
100
AcDbCircle
 10
270.750930694315
 20
190.3784386077099
 30
0.0
 40
1.0
100
AcDbArc
 50
258.6900675260006
 51
344.0546040990991
  0
LINE
  5
2AC7
330
1A
100
AcDbEntity
  8
SEIHIN
 62
     3
100
AcDbLine
 10
267.788110387915
 20
190.4611007176099
 30
0.0
 11
270.6528726268149
 21
189.8881482699099
 31
0.0
  0
LINE
  5
2AC8
330
1A
100
AcDbEntity
  8
SEIHIN
 62
     3
100
AcDbLine
 10
267.690052320315
 20
189.9708103798099
 30
0.0
 11
270.554814559215
 21
189.3978579320099
 31
0.0
  0
ARC
  5
2AC9
330
1A
100
AcDbEntity
  8
SEIHIN
 62
     3
100
AcDbCircle
 10
267.886168455415
 20
190.9513910555099
 30
0.0
 40
1.0
100
AcDbArc
 50
155.7722546819993
 51
258.6900675258993
  0
ARC
  5
2ACA
330
1A
100
AcDbEntity
  8
SEIHIN
 62
     3
100
AcDbCircle
 10
267.886168455415
 20
190.9513910555099
 30
0.0
 40
0.5
100
AcDbArc
 50
155.7722546819993
 51
258.6900675260006
  0
ARC
  5
2ACB
330
1A
100
AcDbEntity
  8
SEIHIN
 62
     3
100
AcDbCircle
 10
270.750930694315
 20
190.3784386077099
 30
0.0
 40
0.5
100
AcDbArc
 50
258.6900675260006
 51
344.0546040990991
  0
ARC
  5
2ACC
330
1A
100
AcDbEntity
  8
SEIHIN
 62
     3
100
AcDbCircle
 10
286.057019692315
 20
185.0307791608099
 30
0.0
 40
20.0
100
AcDbArc
 50
134.8211145533003
 51
155.7722546819993
  0
ARC
  5
2ACD
330
1A
100
AcDbEntity
  8
SEIHIN
 62
     3
100
AcDbCircle
 10
271.707436709515
 20
197.4842714836099
 30
0.0
 40
0.5
100
AcDbArc
 50
26.56505902429939
 51
139.0464503444999
  0
ARC
  5
2ACE
330
1A
100
AcDbEntity
  8
SEIHIN
 62
     3
100
AcDbCircle
 10
286.057019692315
 20
185.0307791608099
 30
0.0
 40
19.5
100
AcDbArc
 50
139.0464503416001
 51
155.7722546819993
  0
LINE
  5
2ACF
330
1A
100
AcDbEntity
  8
SEIHIN
 62
     3
100
AcDbLine
 10
270.959106651615
 20
201.7169995135099
 30
0.0
 11
270.959106651615
 21
200.2169995135099
 31
0.0
  0
LINE
  5
2AD0
330
1A
100
AcDbEntity
  8
SEIHIN
 62
     3
100
AcDbLine
 10
273.959106651615
 20
196.2169995135099
 30
0.0
 11
273.959106651615
 21
192.6557183588099
 31
0.0
  0
LINE
  5
2AD1
330
1A
100
AcDbEntity
  8
SEIHIN
 62
     3
100
AcDbLine
 10
278.959106651615
 20
196.2169995135099
 30
0.0
 11
278.959106651615
 21
192.6557183588099
 31
0.0
  0
LINE
  5
2AD2
330
1A
100
AcDbEntity
  8
SEIHIN
 62
     3
100
AcDbLine
 10
273.959106651615
 20
192.6557183588099
 30
0.0
 11
278.959106651615
 21
192.6557183588099
 31
0.0
  0
LINE
  5
2AD3
330
1A
100
AcDbEntity
  8
SEIHIN
 62
     3
100
AcDbLine
 10
271.959106651615
 20
199.2169995135099
 30
0.0
 11
273.459106651615
 21
196.2169995135099
 31
0.0
  0
LINE
  5
2AD4
330
1A
100
AcDbEntity
  8
SEIHIN
 62
     3
100
AcDbLine
 10
272.154650249015
 20
197.7078783300099
 30
0.0
 11
272.837934261315
 21
196.3413103055099
 31
0.0
  0
ARC
  5
2AD5
330
1A
100
AcDbEntity
  8
SEIHIN
 62
     3
100
AcDbCircle
 10
272.390720665815
 20
196.1177035077099
 30
0.0
 40
0.5
100
AcDbArc
 50
344.0546040989991
 51
26.56505117709984
  0
LINE
  5
2AD6
330
1A
100
AcDbEntity
  8
SEIHIN
 62
     3
100
AcDbLine
 10
272.459106651615
 20
200.2169995135099
 30
0.0
 11
271.959106651615
 21
199.2169995135099
 31
0.0
  0
LINE
  5
2AD7
330
1A
100
AcDbEntity
  8
SEIHIN
 62
     3
100
AcDbLine
 10
279.459106651615
 20
196.2169995135099
 30
0.0
 11
273.459106651615
 21
196.2169995135099
 31
0.0
  0
ARC
  5
2AD8
330
1A
100
AcDbEntity
  8
SEIHIN
 62
     3
100
AcDbCircle
 10
273.836257358015
 20
195.7169995135099
 30
0.0
 40
0.5
100
AcDbArc
 50
90.00000000029965
 51
164.0546040989991
  0
LINE
  5
2AD9
330
1A
100
AcDbEntity
  8
SEIHIN
 62
     3
100
AcDbLine
 10
285.4880056003149
 20
191.1565733942099
 30
0.0
 11
284.643662961815
 21
193.0328903687099
 31
0.0
  0
LINE
  5
2ADA
330
1A
100
AcDbEntity
  8
SEIHIN
 62
     3
100
AcDbLine
 10
285.943966352915
 20
191.3617557328099
 30
0.0
 11
285.099623714415
 21
193.2380727074099
 31
0.0
  0
LINE
  5
2ADB
330
1A
100
AcDbEntity
  8
SEIHIN
 62
     3
100
AcDbLine
 10
280.0467306636151
 20
195.9803429438098
 30
0.0
 11
281.686520635115
 21
190.2410780438099
 31
0.0
  0
LINE
  5
2ADC
330
1A
100
AcDbEntity
  8
SEIHIN
 62
     3
100
AcDbLine
 10
285.1301029153149
 20
190.4611007176099
 30
0.0
 11
282.265340676415
 21
189.8881482699099
 31
0.0
  0
LINE
  5
2ADD
330
1A
100
AcDbEntity
  8
SEIHIN
 62
     3
100
AcDbLine
 10
285.228160982915
 20
189.9708103798099
 30
0.0
 11
282.363398744015
 21
189.3978579320099
 31
0.0
  0
ARC
  5
2ADE
330
1A
100
AcDbEntity
  8
SEIHIN
 62
     3
100
AcDbCircle
 10
285.032044847815
 20
190.9513910555099
 30
0.0
 40
1.0
100
AcDbArc
 50
281.3099324741007
 51
24.22774531800073
  0
ARC
  5
2ADF
330
1A
100
AcDbEntity
  8
SEIHIN
 62
     3
100
AcDbCircle
 10
285.032044847815
 20
190.9513910555099
 30
0.0
 40
0.5
100
AcDbArc
 50
281.3099324739994
 51
24.22774531800073
  0
ARC
  5
2AE0
330
1A
100
AcDbEntity
  8
SEIHIN
 62
     3
100
AcDbCircle
 10
282.167282608915
 20
190.3784386077099
 30
0.0
 40
0.5
100
AcDbArc
 50
195.9453959009009
 51
281.3099324739994
  0
ARC
  5
2AE1
330
1A
100
AcDbEntity
  8
SEIHIN
 62
     3
100
AcDbCircle
 10
282.167282608915
 20
190.3784386077099
 30
0.0
 40
1.0
100
AcDbArc
 50
195.9453959009009
 51
281.3099324739994
  0
LINE
  5
2AE2
330
1A
100
AcDbEntity
  8
SEIHIN
 62
     3
100
AcDbLine
 10
281.959106651615
 20
201.7169995135099
 30
0.0
 11
281.959106651615
 21
200.2169995135099
 31
0.0
  0
LINE
  5
2AE3
330
1A
100
AcDbEntity
  8
SEIHIN
 62
     3
100
AcDbLine
 10
280.763563054215
 20
197.7078783300099
 30
0.0
 11
280.0802790419149
 21
196.3413103055099
 31
0.0
  0
ARC
  5
2AE4
330
1A
100
AcDbEntity
  8
SEIHIN
 62
     3
100
AcDbCircle
 10
280.527492637415
 20
196.1177035077099
 30
0.0
 40
0.5
100
AcDbArc
 50
153.4349488229001
 51
195.9453959010009
  0
LINE
  5
2AE5
330
1A
100
AcDbEntity
  8
SEIHIN
 62
     3
100
AcDbLine
 10
280.459106651615
 20
200.2169995135099
 30
0.0
 11
280.959106651615
 21
199.2169995135099
 31
0.0
  0
ARC
  5
2AE6
330
1A
100
AcDbEntity
  8
SEIHIN
 62
     3
100
AcDbCircle
 10
281.210776593715
 20
197.4842714836099
 30
0.0
 40
0.5
100
AcDbArc
 50
40.95354965550016
 51
153.4349409757006
  0
ARC
  5
2AE7
330
1A
100
AcDbEntity
  8
SEIHIN
 62
     3
100
AcDbCircle
 10
266.861193610915
 20
185.0307791608099
 30
0.0
 40
20.0
100
AcDbArc
 50
24.22774531800073
 51
45.1788854466997
  0
ARC
  5
2AE8
330
1A
100
AcDbEntity
  8
SEIHIN
 62
     3
100
AcDbCircle
 10
266.861193610915
 20
185.0307791608099
 30
0.0
 40
19.5
100
AcDbArc
 50
24.22774531800073
 51
40.95354965839994
  0
LINE
  5
2AE9
330
1A
100
AcDbEntity
  8
SEIHIN
 62
     3
100
AcDbLine
 10
292.8148383803149
 20
212.0207969819099
 30
0.0
 11
270.459106651615
 21
212.0207969819099
 31
0.0
  0
LINE
  5
2AEA
330
1A
100
AcDbEntity
  8
SEIHIN
 62
     3
100
AcDbLine
 10
266.459106651615
 20
222.0207969819099
 30
0.0
 11
284.4689171783149
 21
222.0207969819099
 31
0.0
  0
LINE
  5
2AEB
330
1A
100
AcDbEntity
  8
SEIHIN
 62
     3
100
AcDbLine
 10
270.959106651615
 20
223.0207969819099
 30
0.0
 11
281.959106651615
 21
223.0207969819099
 31
0.0
  0
ARC
  5
2AEC
330
1A
100
AcDbEntity
  8
SEIHIN
 62
     3
100
AcDbCircle
 10
276.459106651615
 20
213.6874636486098
 30
0.0
 40
10.8333333333
100
AcDbArc
 50
59.48976259389963
 51
120.5102374061004
  0
LINE
  5
2AED
330
1A
100
AcDbEntity
  8
SEIHIN
 62
     3
100
AcDbLine
 10
263.459106651615
 20
215.3161235223099
 30
0.0
 11
263.459106651615
 21
203.9061666234099
 31
0.0
  0
LINE
  5
2AEE
330
1A
100
AcDbEntity
  8
SEIHIN
 62
     3
100
AcDbLine
 10
266.459106651615
 20
216.0207969819099
 30
0.0
 11
270.459106651615
 21
212.0207969819099
 31
0.0
  0
LINE
  5
2AEF
330
1A
100
AcDbEntity
  8
SEIHIN
 62
     3
100
AcDbLine
 10
266.319513155015
 20
215.0207969819099
 30
0.0
 11
267.459106651615
 21
215.0207969819099
 31
0.0
  0
LINE
  5
2AF0
330
1A
100
AcDbEntity
  8
SEIHIN
 62
     4
100
AcDbLine
 10
266.159106651615
 20
210.521492940076
 30
0.0
 11
266.759106651615
 21
210.521492940076
 31
0.0
  0
LINE
  5
2AF1
330
1A
100
AcDbEntity
  8
SEIHIN
 62
     4
100
AcDbLine
 10
266.159106651615
 20
212.021492940076
 30
0.0
 11
266.759106651615
 21
212.021492940076
 31
0.0
  0
LINE
  5
2AF2
330
1A
100
AcDbEntity
  8
SEIHIN
 62
     4
100
AcDbLine
 10
266.759106651615
 20
210.521592940076
 30
0.0
 11
266.759106651615
 21
212.021592940076
 31
0.0
  0
LINE
  5
2AF3
330
1A
100
AcDbEntity
  8
SEIHIN
 62
     4
100
AcDbLine
 10
266.159106651615
 20
210.521592940076
 30
0.0
 11
266.159106651615
 21
212.021592940076
 31
0.0
  0
TEXT
  5
2AF4
330
1A
100
AcDbEntity
  8
SEIHIN
 62
     4
100
AcDbText
 10
264.459106651615
 20
207.4342836377504
 30
0.0
 40
2.5
  1
10
 41
1.2
100
AcDbText
  0
TEXT
  5
2AF5
330
1A
100
AcDbEntity
  8
SEIHIN
 62
     4
100
AcDbText
 10
274.459106651615
 20
207.4342836377504
 30
0.0
 40
2.5
  1
20
 41
1.2
100
AcDbText
  0
LINE
  5
2AF6
330
1A
100
AcDbEntity
  8
SEIHIN
 62
     4
100
AcDbLine
 10
276.159106651615
 20
212.021492940076
 30
0.0
 11
276.759106651615
 21
212.021492940076
 31
0.0
  0
LINE
  5
2AF7
330
1A
100
AcDbEntity
  8
SEIHIN
 62
     4
100
AcDbLine
 10
276.159106651615
 20
210.521492940076
 30
0.0
 11
276.759106651615
 21
210.521492940076
 31
0.0
  0
LINE
  5
2AF8
330
1A
100
AcDbEntity
  8
SEIHIN
 62
     4
100
AcDbLine
 10
276.159106651615
 20
210.521592940076
 30
0.0
 11
276.159106651615
 21
212.021592940076
 31
0.0
  0
LINE
  5
2AF9
330
1A
100
AcDbEntity
  8
SEIHIN
 62
     4
100
AcDbLine
 10
276.759106651615
 20
210.521592940076
 30
0.0
 11
276.759106651615
 21
212.021592940076
 31
0.0
  0
LINE
  5
2AFA
330
1A
100
AcDbEntity
  8
SEIHIN
 62
     3
100
AcDbLine
 10
266.459106651615
 20
222.0207969819099
 30
0.0
 11
266.459106651615
 21
216.0207969819099
 31
0.0
  0
LINE
  5
2AFB
330
1A
100
AcDbEntity
  8
SEIHIN
 62
     3
100
AcDbLine
 10
266.459106651615
 20
217.0207969819099
 30
0.0
 11
266.319513155015
 21
217.0207969819099
 31
0.0
  0
LINE
  5
2AFC
330
1A
100
AcDbEntity
  8
SEIHIN
 62
     3
100
AcDbLine
 10
270.959106651615
 20
223.0207969819099
 30
0.0
 11
270.959106651615
 21
222.0207969819099
 31
0.0
  0
TEXT
  5
2AFD
330
1A
100
AcDbEntity
  8
SEIHIN
 62
     4
100
AcDbText
 10
284.459106651615
 20
207.4342836377504
 30
0.0
 40
2.5
  1
30
 41
1.2
100
AcDbText
  0
LINE
  5
2AFE
330
1A
100
AcDbEntity
  8
SEIHIN
 62
     4
100
AcDbLine
 10
286.159106651615
 20
212.021492940076
 30
0.0
 11
286.759106651615
 21
212.021492940076
 31
0.0
  0
LINE
  5
2AFF
330
1A
100
AcDbEntity
  8
SEIHIN
 62
     4
100
AcDbLine
 10
286.159106651615
 20
210.521492940076
 30
0.0
 11
286.759106651615
 21
210.521492940076
 31
0.0
  0
LINE
  5
2B00
330
1A
100
AcDbEntity
  8
SEIHIN
 62
     4
100
AcDbLine
 10
286.159106651615
 20
210.521592940076
 30
0.0
 11
286.159106651615
 21
212.021592940076
 31
0.0
  0
LINE
  5
2B01
330
1A
100
AcDbEntity
  8
SEIHIN
 62
     4
100
AcDbLine
 10
286.759106651615
 20
210.521592940076
 30
0.0
 11
286.759106651615
 21
212.021592940076
 31
0.0
  0
ARC
  5
2B02
330
1A
100
AcDbEntity
  8
SEIHIN
 62
     3
100
AcDbCircle
 10
284.4689171783149
 20
227.0207969819099
 30
0.0
 40
5.0
100
AcDbArc
 50
270.0
 51
313.4088597288001
  0
LINE
  5
2B03
330
1A
100
AcDbEntity
  8
SEIHIN
 62
     3
100
AcDbLine
 10
281.959106651615
 20
223.0207969819099
 30
0.0
 11
281.959106651615
 21
222.0207969819099
 31
0.0
  0
ARC
  5
2B04
330
1A
100
AcDbEntity
  8
SEIHIN
 62
     3
100
AcDbCircle
 10
327.168853743915
 20
204.0753443176099
 30
0.0
 40
1.0
100
AcDbArc
 50
269.2747756132004
 51
14.01646976469936
  0
LINE
  5
2B05
330
1A
100
AcDbEntity
  8
SEIHIN
 62
     3
100
AcDbLine
 10
319.368817606915
 20
215.0207969819099
 30
0.0
 11
319.368817606915
 21
203.1739988397098
 31
0.0
  0
LINE
  5
2B06
330
1A
100
AcDbEntity
  8
SEIHIN
 62
     3
100
AcDbLine
 10
297.976456425015
 20
215.0207969819099
 30
0.0
 11
322.143662685015
 21
215.0207969819099
 31
0.0
  0
LINE
  5
2B07
330
1A
100
AcDbEntity
  8
SEIHIN
 62
     3
100
AcDbLine
 10
300.090742139315
 20
217.0207969819099
 30
0.0
 11
322.143662685015
 21
217.0207969819099
 31
0.0
  0
LINE
  5
2B08
330
1A
100
AcDbEntity
  8
SEIHIN
 62
     3
100
AcDbLine
 10
296.250837649715
 20
213.3884548971099
 30
0.0
 11
305.796169893815
 21
222.4178232362099
 31
0.0
  0
TEXT
  5
2B09
330
1A
100
AcDbEntity
  8
SEIHIN
 62
     4
100
AcDbText
 10
299.459106651615
 20
207.4633534051923
 30
0.0
 40
2.5
  1
45
 41
1.2
100
AcDbText
  0
LINE
  5
2B0A
330
1A
100
AcDbEntity
  8
SEIHIN
 62
     4
100
AcDbLine
 10
301.759106651615
 20
210.521492940076
 30
0.0
 11
301.759106651615
 21
212.021492940076
 31
0.0
  0
LINE
  5
2B0B
330
1A
100
AcDbEntity
  8
SEIHIN
 62
     4
100
AcDbLine
 10
301.159106651615
 20
210.521492940076
 30
0.0
 11
301.159106651615
 21
212.021492940076
 31
0.0
  0
LINE
  5
2B0C
330
1A
100
AcDbEntity
  8
SEIHIN
 62
     4
100
AcDbLine
 10
301.159106651615
 20
212.021492940076
 30
0.0
 11
301.759106651615
 21
212.021492940076
 31
0.0
  0
LINE
  5
2B0D
330
1A
100
AcDbEntity
  8
SEIHIN
 62
     4
100
AcDbLine
 10
301.159106651615
 20
210.521492940076
 30
0.0
 11
301.759106651615
 21
210.521492940076
 31
0.0
  0
ARC
  5
2B0E
330
1A
100
AcDbEntity
  8
SEIHIN
 62
     3
100
AcDbCircle
 10
332.0199844721149
 20
205.2863483114099
 30
0.0
 40
4.0
100
AcDbArc
 50
144.0714975771992
 51
194.0164697646994
  0
LINE
  5
2B0F
330
1A
100
AcDbEntity
  8
SEIHIN
 62
     3
100
AcDbLine
 10
359.459106651615
 20
194.1139518170099
 30
0.0
 11
365.459106651615
 21
194.1139518170099
 31
0.0
  0
LINE
  5
2B10
330
1A
100
AcDbEntity
  8
CENTER L
  6
CENTER
 48
5.0
100
AcDbLine
 10
372.4591066516151
 20
204.1139518170099
 30
0.0
 11
350.459106651615
 21
204.1139518170099
 31
0.0
  0
LINE
  5
2B11
330
1A
100
AcDbEntity
  8
SEIHIN
 62
     3
100
AcDbLine
 10
351.666031211515
 20
205.1216828579099
 30
0.0
 11
356.019493491515
 21
201.4321509216099
 31
0.0
  0
LINE
  5
2B12
330
1A
100
AcDbEntity
  8
SEIHIN
 62
     3
100
AcDbLine
 10
344.216571026615
 20
206.2717158884099
 30
0.0
 11
332.5030855906149
 21
203.3433445295098
 31
0.0
  0
LINE
  5
2B13
330
1A
100
AcDbEntity
  8
SEIHIN
 62
     3
100
AcDbLine
 10
344.701642276615
 20
204.3314308882099
 30
0.0
 11
331.459106651615
 21
201.0207969819099
 31
0.0
  0
ARC
  5
2B14
330
1A
100
AcDbEntity
  8
SEIHIN
 62
     3
100
AcDbCircle
 10
332.018014340515
 20
205.2836295297099
 30
0.0
 40
2.0
100
AcDbArc
 50
144.0714975771992
 51
284.0362434679
  0
LINE
  5
2B15
330
1A
100
AcDbEntity
  8
SEIHIN
 62
     3
100
AcDbLine
 10
359.459106651615
 20
194.1139518170099
 30
0.0
 11
357.459106651615
 21
196.1139518170099
 31
0.0
  0
ARC
  5
2B16
330
1A
100
AcDbEntity
  8
SEIHIN
 62
     3
100
AcDbCircle
 10
357.959106651615
 20
203.7207969819099
 30
0.0
 40
3.0
100
AcDbArc
 50
229.7189334221991
 51
260.4059317731004
  0
LINE
  5
2B17
330
1A
100
AcDbEntity
  8
SEIHIN
 62
     3
100
AcDbLine
 10
344.209106651615
 20
226.0207969819099
 30
0.0
 11
346.209106651615
 21
226.0207969819099
 31
0.0
  0
ARC
  5
2B18
330
1A
100
AcDbEntity
  8
SEIHIN
 62
     3
100
AcDbCircle
 10
344.459106651615
 20
205.3015733883099
 30
0.0
 40
1.0
100
AcDbArc
 50
284.0362434679
 51
104.0362434679
  0
LINE
  5
2B19
330
1A
100
AcDbEntity
  8
SEIHIN
 62
     3
100
AcDbLine
 10
330.398514654915
 20
206.4571800265099
 30
0.0
 11
344.063600845215
 21
225.3149989690099
 31
0.0
  0
LINE
  5
2B1A
330
1A
100
AcDbEntity
  8
SEIHIN
 62
     3
100
AcDbLine
 10
330.8747355592149
 20
218.7886425576099
 30
0.0
 11
338.165052587815
 21
226.5207969819099
 31
0.0
  0
LINE
  5
2B1B
330
1A
100
AcDbEntity
  8
SEIHIN
 62
     3
100
AcDbLine
 10
329.419556746815
 20
220.1606682950099
 30
0.0
 11
335.416249508715
 21
226.5207969819099
 31
0.0
  0
LINE
  5
2B1C
330
1A
100
AcDbEntity
  8
SEIHIN
 62
     3
100
AcDbLine
 10
339.959106651615
 20
226.0207969819099
 30
0.0
 11
341.959106651615
 21
226.0207969819099
 31
0.0
  0
ARC
  5
2B1D
330
1A
100
AcDbEntity
  8
SEIHIN
 62
     3
100
AcDbCircle
 10
350.541599587415
 20
220.6207969819099
 30
0.0
 40
8.0
100
AcDbArc
 50
137.5458497956001
 51
144.0714975771992
  0
LINE
  5
2B1E
330
1A
100
AcDbEntity
  8
SEIHIN
 62
     3
100
AcDbLine
 10
341.959106651615
 20
226.5207969819099
 30
0.0
 11
344.209106651615
 21
226.5207969819099
 31
0.0
  0
LINE
  5
2B1F
330
1A
100
AcDbEntity
  8
SEIHIN
 62
     3
100
AcDbLine
 10
355.959106651615
 20
223.6207969819099
 30
0.0
 11
355.959106651615
 21
207.6052342924099
 31
0.0
  0
LINE
  5
2B20
330
1A
100
AcDbEntity
  8
SEIHIN
 62
     3
100
AcDbLine
 10
354.398560465515
 20
206.7771111293098
 30
0.0
 11
352.519652837715
 21
208.0489201450098
 31
0.0
  0
LINE
  5
2B21
330
1A
100
AcDbEntity
  8
SEIHIN
 62
     3
100
AcDbLine
 10
350.959106651615
 20
207.2207969819099
 30
0.0
 11
350.959106651615
 21
206.6474468980098
 31
0.0
  0
ARC
  5
2B22
330
1A
100
AcDbEntity
  8
SEIHIN
 62
     3
100
AcDbCircle
 10
352.959106651615
 20
206.6474468980098
 30
0.0
 40
2.0
100
AcDbArc
 50
180.0
 51
229.7189334221991
  0
ARC
  5
2B23
330
1A
100
AcDbEntity
  8
SEIHIN
 62
     3
100
AcDbCircle
 10
351.959106651615
 20
207.2207969819099
 30
0.0
 40
1.0
100
AcDbArc
 50
55.90642142680127
 51
180.0
  0
ARC
  5
2B24
330
1A
100
AcDbEntity
  8
SEIHIN
 62
     3
100
AcDbCircle
 10
354.959106651615
 20
207.6052342924099
 30
0.0
 40
1.0
100
AcDbArc
 50
235.9064214268012
 51
0.0
  0
LINE
  5
2B25
330
1A
100
AcDbEntity
  8
SEIHIN
 62
     3
100
AcDbLine
 10
348.459106651615
 20
226.0207969819099
 30
0.0
 11
350.459106651615
 21
226.0207969819099
 31
0.0
  0
LINE
  5
2B26
330
1A
100
AcDbEntity
  8
SEIHIN
 62
     3
100
AcDbLine
 10
350.459106651615
 20
226.5207969819099
 30
0.0
 11
350.459106651615
 21
226.0207969819099
 31
0.0
  0
LINE
  5
2B27
330
1A
100
AcDbEntity
  8
SEIHIN
 62
     3
100
AcDbLine
 10
346.209106651615
 20
226.5207969819099
 30
0.0
 11
348.459106651615
 21
226.5207969819099
 31
0.0
  0
LINE
  5
2B28
330
1A
100
AcDbEntity
  8
SEIHIN
 62
     3
100
AcDbLine
 10
339.959106651615
 20
242.5829002053098
 30
0.0
 11
310.164077579215
 21
239.9761729320099
 31
0.0
  0
ARC
  5
2B29
330
1A
100
AcDbEntity
  8
SEIHIN
 62
     3
100
AcDbCircle
 10
311.471413720415
 20
225.0332524607099
 30
0.0
 40
15.0
100
AcDbArc
 50
94.99999999999974
 51
133.4088597288001
  0
LINE
  5
2B2A
330
1A
100
AcDbEntity
  8
SEIHIN
 62
     3
100
AcDbLine
 10
357.459106651615
 20
244.1139518170099
 30
0.0
 11
365.459106651615
 21
244.1139518170099
 31
0.0
  0
LINE
  5
2B2B
330
1A
100
AcDbEntity
  8
CENTER L
  6
CENTER
 48
5.0
100
AcDbLine
 10
372.4591066516151
 20
234.1139518170099
 30
0.0
 11
350.459106651615
 21
234.1139518170099
 31
0.0
  0
LINE
  5
2B2C
330
1A
100
AcDbEntity
  8
CENTER L
  6
CENTER
 48
5.0
100
AcDbLine
 10
372.4591066516151
 20
228.8139518170098
 30
0.0
 11
350.459106651615
 21
228.8139518170097
 31
0.0
  0
LINE
  5
2B2D
330
1A
100
AcDbEntity
  8
SEIHIN
 62
     3
100
AcDbLine
 10
346.209106651615
 20
246.1411638650099
 30
0.0
 11
344.209106651615
 21
245.9661865379099
 31
0.0
  0
LINE
  5
2B2E
330
1A
100
AcDbEntity
  8
SEIHIN
 62
     3
100
AcDbLine
 10
344.209106651615
 20
242.9547270253099
 30
0.0
 11
341.959106651615
 21
242.7578775324099
 31
0.0
  0
LINE
  5
2B2F
330
1A
100
AcDbEntity
  8
SEIHIN
 62
     3
100
AcDbLine
 10
341.959106651615
 20
245.7693370450099
 30
0.0
 11
339.959106651615
 21
245.5943597179099
 31
0.0
  0
LINE
  5
2B30
330
1A
100
AcDbEntity
  8
SEIHIN
 62
     3
100
AcDbLine
 10
357.459106651615
 20
244.1139518170099
 30
0.0
 11
350.459106651615
 21
243.5015311723099
 31
0.0
  0
LINE
  5
2B31
330
1A
100
AcDbEntity
  8
SEIHIN
 62
     3
100
AcDbLine
 10
350.459106651615
 20
246.5129906850099
 30
0.0
 11
348.459106651615
 21
246.3380133579099
 31
0.0
  0
LINE
  5
2B32
330
1A
100
AcDbEntity
  8
SEIHIN
 62
     3
100
AcDbLine
 10
348.459106651615
 20
243.3265538453099
 30
0.0
 11
346.209106651615
 21
243.1297043523099
 31
0.0
  0
LINE
  5
2B33
330
1A
100
AcDbEntity
  8
SEIHIN
 62
     3
100
AcDbLine
 10
357.459106651615
 20
242.1139518170099
 30
0.0
 11
359.459106651615
 21
244.1139518170099
 31
0.0
  0
LINE
  5
2B34
330
1A
100
AcDbEntity
  8
SEIHIN
 62
     3
100
AcDbLine
 10
233.274227152715
 20
404.2830497385132
 30
0.0
 11
266.459106651615
 21
404.2830497385132
 31
0.0
  0
LINE
  5
2B35
330
1A
100
AcDbEntity
  8
SEIHIN
 62
     3
100
AcDbLine
 10
233.274227152715
 20
384.2830497385132
 30
0.0
 11
266.459106651615
 21
384.2830497385132
 31
0.0
  0
LINE
  5
2B36
330
1A
100
AcDbEntity
  8
CENTER L
  6
CENTER
 48
5.0
100
AcDbLine
 10
226.2742271527149
 20
394.2830497385132
 30
0.0
 11
372.459106651615
 21
394.2830497385131
 31
0.0
  0
DIMENSION
  5
2B37
330
1A
100
AcDbEntity
  8
SUNPOU
100
AcDbDimension
  2
*D10
 10
207.1529392337096
 20
384.2830497385132
 30
0.0
 11
207.1529392337096
 21
394.2830497385132
 31
0.0
 70
   160
 71
     5
 42
20.0
  3
STANDARD
100
AcDbAlignedDimension
 13
233.274227152715
 23
404.2830497385132
 33
0.0
 14
233.274227152715
 24
384.2830497385132
 34
0.0
 50
90.0
100
AcDbRotatedDimension
1001
ACAD
1000
DSTYLE
1002
{
1070
   288
1070
     1
1070
   140
1040
6.0
1070
    74
1070
     0
1070
   172
1070
     1
1070
    73
1070
     0
1070
   272
1070
     2
1070
    77
1070
     3
1070
   173
1070
     1
1070
   147
1040
2.0
1070
    42
1040
6.0
1070
    44
1040
3.0
1070
    43
1040
14.0
1070
   271
1070
     0
1070
   178
1070
     4
1070
   177
1070
     4
1070
   176
1070
     4
1070
   141
1040
150.0
1070
     7
1000
_OPEN
1070
     6
1000
_OPEN
1070
    41
1040
7.0
1002
}
  0
LINE
  5
2B38
330
1A
100
AcDbEntity
  8
SEIHIN
 62
     3
100
AcDbLine
 10
236.526937422015
 20
384.2830497385132
 30
0.0
 11
236.526937422015
 21
404.2830497385132
 31
0.0
  0
LINE
  5
2B39
330
1A
100
AcDbEntity
  8
SEIHIN
 62
     3
100
AcDbLine
 10
240.759106651615
 20
385.5424202593133
 30
0.0
 11
240.759106651615
 21
402.8183184767133
 31
0.0
  0
LINE
  5
2B3A
330
1A
100
AcDbEntity
  8
SEIHIN
 62
     3
100
AcDbLine
 10
233.274227152715
 20
384.2830497385132
 30
0.0
 11
233.274227152715
 21
404.2830497385132
 31
0.0
  0
LINE
  5
2B3B
330
1A
100
AcDbEntity
  8
SEIHIN
 62
     3
100
AcDbLine
 10
257.959106651615
 20
385.5424202593133
 30
0.0
 11
257.959106651615
 21
402.8183184767133
 31
0.0
  0
LINE
  5
2B3C
330
1A
100
AcDbEntity
  8
SEIHIN
 62
     3
100
AcDbLine
 10
251.459106651615
 20
385.5424202593133
 30
0.0
 11
251.459106651615
 21
402.8183184767133
 31
0.0
  0
ARC
  5
2B3D
330
1A
100
AcDbEntity
  8
SEIHIN
 62
     3
100
AcDbCircle
 10
356.459106651615
 20
413.7830497385132
 30
0.0
 40
3.0
100
AcDbArc
 50
270.0
 51
0.0
  0
ARC
  5
2B3E
330
1A
100
AcDbEntity
  8
SEIHIN
 62
     3
100
AcDbCircle
 10
354.459106651615
 20
413.7830497385132
 30
0.0
 40
3.0
100
AcDbArc
 50
270.0
 51
0.0
  0
LINE
  5
2B3F
330
1A
100
AcDbEntity
  8
SEIHIN
 62
     3
100
AcDbLine
 10
365.459106651615
 20
431.2830497385132
 30
0.0
 11
365.459106651615
 21
357.2830497385132
 31
0.0
  0
LINE
  5
2B40
330
1A
100
AcDbEntity
  8
CENTER L
  6
CENTER
 48
5.0
100
AcDbLine
 10
276.459106651615
 20
370.7830497385132
 30
0.0
 11
276.459106651615
 21
417.7830497385132
 31
0.0
  0
LINE
  5
2B41
330
1A
100
AcDbEntity
  8
SEIHIN
 62
     3
100
AcDbLine
 10
266.459106651615
 20
377.7830497385132
 30
0.0
 11
339.959106651615
 21
377.7830497385132
 31
0.0
  0
LINE
  5
2B42
330
1A
100
AcDbEntity
  8
SEIHIN
 62
     3
100
AcDbLine
 10
266.459106651615
 20
410.7830497385132
 30
0.0
 11
339.959106651615
 21
410.7830497385132
 31
0.0
  0
LINE
  5
2B43
330
1A
100
AcDbEntity
  8
SEIHIN
 62
     3
100
AcDbLine
 10
286.459106651615
 20
379.9988871483133
 30
0.0
 11
286.459106651615
 21
408.3991488682132
 31
0.0
  0
LINE
  5
2B44
330
1A
100
AcDbEntity
  8
SEIHIN
 62
     3
100
AcDbLine
 10
266.459106651615
 20
410.7830497385132
 30
0.0
 11
266.459106651615
 21
377.7830497385132
 31
0.0
  0
CIRCLE
  5
2B45
330
1A
100
AcDbEntity
  8
SEIHIN
 62
     3
100
AcDbCircle
 10
276.459106651615
 20
394.2830497385132
 30
0.0
 40
5.5
  0
LINE
  5
2B46
330
1A
100
AcDbEntity
  8
SEIHIN
 62
     3
100
AcDbLine
 10
304.959106651615
 20
379.9988871483133
 30
0.0
 11
304.959106651615
 21
408.3991488682132
 31
0.0
  0
LINE
  5
2B47
330
1A
100
AcDbEntity
  8
SEIHIN
 62
     3
100
AcDbLine
 10
359.459106651615
 20
374.7830497385132
 30
0.0
 11
359.459106651615
 21
357.2830497385132
 31
0.0
  0
LINE
  5
2B48
330
1A
100
AcDbEntity
  8
SEIHIN
 62
     3
100
AcDbLine
 10
357.459106651615
 20
374.7830497385132
 30
0.0
 11
357.459106651615
 21
359.2830497385132
 31
0.0
  0
LINE
  5
2B49
330
1A
100
AcDbEntity
  8
SEIHIN
 62
     3
100
AcDbLine
 10
359.459106651615
 20
357.2830497385132
 30
0.0
 11
365.459106651615
 21
357.2830497385132
 31
0.0
  0
LINE
  5
2B4A
330
1A
100
AcDbEntity
  8
CENTER L
  6
CENTER
 48
5.0
100
AcDbLine
 10
350.459106651615
 20
365.7830497385132
 30
0.0
 11
372.459106651615
 21
365.7830497385131
 31
0.0
  0
LINE
  5
2B4B
330
1A
100
AcDbEntity
  8
SEIHIN
 62
     3
100
AcDbLine
 10
357.459106651615
 20
359.2830497385132
 30
0.0
 11
359.459106651615
 21
357.2830497385132
 31
0.0
  0
LINE
  5
2B4C
330
1A
100
AcDbEntity
  8
CENTER L
  6
CENTER
 48
5.0
100
AcDbLine
 10
350.459106651615
 20
367.7830497385131
 30
0.0
 11
372.459106651615
 21
367.7830497385131
 31
0.0
  0
LINE
  5
2B4D
330
1A
100
AcDbEntity
  8
SEIHIN
 62
     3
100
AcDbLine
 10
339.959106651615
 20
377.2830497385132
 30
0.0
 11
339.959106651615
 21
411.2830497385132
 31
0.0
  0
LINE
  5
2B4E
330
1A
100
AcDbEntity
  8
SEIHIN
 62
     3
100
AcDbLine
 10
341.959106651615
 20
377.2830497385132
 30
0.0
 11
341.959106651615
 21
411.2830497385132
 31
0.0
  0
LINE
  5
2B4F
330
1A
100
AcDbEntity
  8
SEIHIN
 62
     3
100
AcDbLine
 10
344.209106651615
 20
377.2830497385132
 30
0.0
 11
344.209106651615
 21
411.2830497385132
 31
0.0
  0
LINE
  5
2B50
330
1A
100
AcDbEntity
  8
SEIHIN
 62
     3
100
AcDbLine
 10
346.209106651615
 20
377.2830497385132
 30
0.0
 11
346.209106651615
 21
411.2830497385132
 31
0.0
  0
LINE
  5
2B51
330
1A
100
AcDbEntity
  8
SEIHIN
 62
     3
100
AcDbLine
 10
348.459106651615
 20
377.2830497385132
 30
0.0
 11
348.459106651615
 21
411.2830497385132
 31
0.0
  0
LINE
  5
2B52
330
1A
100
AcDbEntity
  8
SEIHIN
 62
     3
100
AcDbLine
 10
350.459106651615
 20
377.2830497385132
 30
0.0
 11
350.459106651615
 21
411.2830497385132
 31
0.0
  0
LINE
  5
2B53
330
1A
100
AcDbEntity
  8
SEIHIN
 62
     3
100
AcDbLine
 10
344.209106651615
 20
377.2830497385132
 30
0.0
 11
346.209106651615
 21
377.2830497385132
 31
0.0
  0
LINE
  5
2B54
330
1A
100
AcDbEntity
  8
SEIHIN
 62
     3
100
AcDbLine
 10
339.959106651615
 20
377.2830497385132
 30
0.0
 11
341.959106651615
 21
377.2830497385132
 31
0.0
  0
LINE
  5
2B55
330
1A
100
AcDbEntity
  8
SEIHIN
 62
     3
100
AcDbLine
 10
341.959106651615
 20
377.7830497385132
 30
0.0
 11
344.209106651615
 21
377.7830497385132
 31
0.0
  0
ARC
  5
2B56
330
1A
100
AcDbEntity
  8
SEIHIN
 62
     3
100
AcDbCircle
 10
356.459106651615
 20
374.7830497385132
 30
0.0
 40
3.0
100
AcDbArc
 50
0.0
 51
90.0
  0
ARC
  5
2B57
330
1A
100
AcDbEntity
  8
SEIHIN
 62
     3
100
AcDbCircle
 10
354.459106651615
 20
374.7830497385132
 30
0.0
 40
3.0
100
AcDbArc
 50
0.0
 51
90.0
  0
LINE
  5
2B58
330
1A
100
AcDbEntity
  8
SEIHIN
 62
     3
100
AcDbLine
 10
348.459106651615
 20
377.2830497385132
 30
0.0
 11
350.459106651615
 21
377.2830497385132
 31
0.0
  0
LINE
  5
2B59
330
1A
100
AcDbEntity
  8
SEIHIN
 62
     3
100
AcDbLine
 10
350.459106651615
 20
377.7830497385132
 30
0.0
 11
356.459106651615
 21
377.7830497385132
 31
0.0
  0
LINE
  5
2B5A
330
1A
100
AcDbEntity
  8
SEIHIN
 62
     3
100
AcDbLine
 10
346.209106651615
 20
377.7830497385132
 30
0.0
 11
348.459106651615
 21
377.7830497385132
 31
0.0
  0
LINE
  5
2B5B
330
1A
100
AcDbEntity
  8
SEIHIN
 62
     3
100
AcDbLine
 10
344.209106651615
 20
411.2830497385132
 30
0.0
 11
346.209106651615
 21
411.2830497385132
 31
0.0
  0
LINE
  5
2B5C
330
1A
100
AcDbEntity
  8
SEIHIN
 62
     3
100
AcDbLine
 10
339.959106651615
 20
411.2830497385132
 30
0.0
 11
341.959106651615
 21
411.2830497385132
 31
0.0
  0
LINE
  5
2B5D
330
1A
100
AcDbEntity
  8
SEIHIN
 62
     3
100
AcDbLine
 10
341.959106651615
 20
410.7830497385132
 30
0.0
 11
344.209106651615
 21
410.7830497385132
 31
0.0
  0
LINE
  5
2B5E
330
1A
100
AcDbEntity
  8
SEIHIN
 62
     3
100
AcDbLine
 10
350.459106651615
 20
410.7830497385132
 30
0.0
 11
356.459106651615
 21
410.7830497385132
 31
0.0
  0
LINE
  5
2B5F
330
1A
100
AcDbEntity
  8
SEIHIN
 62
     3
100
AcDbLine
 10
348.459106651615
 20
411.2830497385132
 30
0.0
 11
350.459106651615
 21
411.2830497385132
 31
0.0
  0
LINE
  5
2B60
330
1A
100
AcDbEntity
  8
SEIHIN
 62
     3
100
AcDbLine
 10
346.209106651615
 20
410.7830497385132
 30
0.0
 11
348.459106651615
 21
410.7830497385132
 31
0.0
  0
LINE
  5
2B61
330
1A
100
AcDbEntity
  8
SEIHIN
 62
     3
100
AcDbLine
 10
359.459106651615
 20
431.2830497385132
 30
0.0
 11
365.459106651615
 21
431.2830497385132
 31
0.0
  0
LINE
  5
2B62
330
1A
100
AcDbEntity
  8
CENTER L
  6
CENTER
 48
5.0
100
AcDbLine
 10
350.459106651615
 20
422.7830497385132
 30
0.0
 11
372.459106651615
 21
422.7830497385131
 31
0.0
  0
LINE
  5
2B63
330
1A
100
AcDbEntity
  8
CENTER L
  6
CENTER
 48
5.0
100
AcDbLine
 10
350.459106651615
 20
420.7830497385131
 30
0.0
 11
372.459106651615
 21
420.7830497385131
 31
0.0
  0
LINE
  5
2B64
330
1A
100
AcDbEntity
  8
SEIHIN
 62
     3
100
AcDbLine
 10
359.459106651615
 20
431.2830497385132
 30
0.0
 11
359.459106651615
 21
413.7830497385132
 31
0.0
  0
LINE
  5
2B65
330
1A
100
AcDbEntity
  8
SEIHIN
 62
     3
100
AcDbLine
 10
357.459106651615
 20
429.2830497385132
 30
0.0
 11
357.459106651615
 21
413.7830497385132
 31
0.0
  0
LINE
  5
2B66
330
1A
100
AcDbEntity
  8
SEIHIN
 62
     3
100
AcDbLine
 10
359.459106651615
 20
431.2830497385132
 30
0.0
 11
357.459106651615
 21
429.2830497385132
 31
0.0
  0
LINE
  5
2B67
330
1A
100
AcDbEntity
  8
CENTER L
  6
CENTER
 48
5.0
100
AcDbLine
 10
527.7008296061151
 20
234.1139518170099
 30
0.0
 11
513.4008296061152
 21
234.1139518170099
 31
0.0
  0
LINE
  5
2B68
330
1A
100
AcDbEntity
  8
CENTER L
  6
CENTER
 48
5.0
100
AcDbLine
 10
528.8508296061152
 20
228.8139518170098
 30
0.0
 11
512.2508296061153
 21
228.8139518170098
 31
0.0
  0
LINE
  5
2B69
330
1A
100
AcDbEntity
  8
SEIHIN
 62
     3
100
AcDbLine
 10
536.5508296061153
 20
218.1139518170099
 30
0.0
 11
522.5508296061153
 21
218.1139518170099
 31
0.0
  0
LINE
  5
2B6A
330
1A
100
AcDbEntity
  8
CENTER L
  6
CENTER
 48
5.0
100
AcDbLine
 10
529.7008296061151
 20
204.1139518170099
 30
0.0
 11
515.4008296061152
 21
204.1139518170099
 31
0.0
  0
ARC
  5
2B6B
330
1A
100
AcDbEntity
  8
SEIHIN
 62
     3
100
AcDbCircle
 10
522.5508296061153
 20
204.1139518170099
 30
0.0
 40
10.0
100
AcDbArc
 50
0.0
 51
90.0
  0
ARC
  5
2B6C
330
1A
100
AcDbEntity
  8
SEIHIN
 62
     3
100
AcDbCircle
 10
522.5508296061153
 20
204.1139518170099
 30
0.0
 40
7.0
100
AcDbArc
 50
0.0
 51
90.0
  0
DIMENSION
  5
2B6D
330
1A
100
AcDbEntity
  8
SUNPOU
100
AcDbDimension
  2
*D11
 10
577.5508296061153
 20
271.9709442785434
 30
0.0
 11
548.9612808364643
 21
271.9709442785434
 31
0.0
 70
   160
 71
     5
 42
57.0
  3
STANDARD
100
AcDbAlignedDimension
 13
520.5508296061153
 23
241.2639518170099
 33
0.0
 14
577.5508296061153
 24
241.2639518170099
 34
0.0
100
AcDbRotatedDimension
1001
ACAD
1000
DSTYLE
1002
{
1070
   288
1070
     1
1070
   140
1040
6.0
1070
    74
1070
     0
1070
   172
1070
     1
1070
    73
1070
     0
1070
   272
1070
     2
1070
    77
1070
     3
1070
   173
1070
     1
1070
   147
1040
2.0
1070
    42
1040
6.0
1070
    44
1040
3.0
1070
    43
1040
14.0
1070
   271
1070
     0
1070
   178
1070
     4
1070
   177
1070
     4
1070
   176
1070
     4
1070
   141
1040
150.0
1070
     7
1000
_OPEN
1070
     6
1000
_OPEN
1070
    41
1040
7.0
1002
}
  0
DIMENSION
  5
2B6E
330
1A
100
AcDbEntity
  8
SUNPOU
100
AcDbDimension
  2
*D12
 10
522.5508296061153
 20
164.9929420497695
 30
0.0
 11
548.9612808364643
 21
164.9929420497695
 31
0.0
 70
   160
 71
     5
 42
53.0
  3
STANDARD
100
AcDbAlignedDimension
 13
575.5508296061153
 23
196.9639518170098
 33
0.0
 14
522.5508296061153
 24
196.9639518170098
 34
0.0
100
AcDbRotatedDimension
1001
ACAD
1000
DSTYLE
1002
{
1070
   288
1070
     1
1070
   140
1040
6.0
1070
    74
1070
     0
1070
   172
1070
     1
1070
    73
1070
     0
1070
   272
1070
     2
1070
    77
1070
     3
1070
   173
1070
     1
1070
   147
1040
2.0
1070
    42
1040
6.0
1070
    44
1040
3.0
1070
    43
1040
14.0
1070
   271
1070
     0
1070
   178
1070
     4
1070
   177
1070
     4
1070
   176
1070
     4
1070
   141
1040
150.0
1070
     7
1000
_OPEN
1070
     6
1000
_OPEN
1070
    41
1040
7.0
1002
}
  0
LINE
  5
2B6F
330
1A
100
AcDbEntity
  8
SEIHIN
 62
     3
100
AcDbLine
 10
522.0508296061153
 20
194.1139518170099
 30
0.0
 11
576.0508296061153
 21
194.1139518170099
 31
0.0
  0
LINE
  5
2B70
330
1A
100
AcDbEntity
  8
SEIHIN
 62
     3
100
AcDbLine
 10
522.0508296061153
 20
244.1139518170099
 30
0.0
 11
576.0508296061153
 21
244.1139518170099
 31
0.0
  0
LINE
  5
2B71
330
1A
100
AcDbEntity
  8
SEIHIN
 62
     3
100
AcDbLine
 10
575.5508296061153
 20
221.1139518170099
 30
0.0
 11
522.5508296061153
 21
221.1139518170099
 31
0.0
  0
DIMENSION
  5
2B72
330
1A
100
AcDbEntity
  8
SUNPOU
100
AcDbDimension
  2
*D13
 10
512.0508296061153
 20
288.5921030836245
 30
0.0
 11
549.0508296061153
 21
293.5921030836245
 31
0.0
 70
    32
 71
     5
 42
74.0
  3
STANDARD
100
AcDbAlignedDimension
 13
586.0508296061153
 23
234.1139518170099
 33
0.0
 14
512.0508296061153
 24
234.1139518170099
 34
0.0
100
AcDbRotatedDimension
1001
ACAD
1000
DSTYLE
1002
{
1070
   140
1040
6.0
1070
    74
1070
     0
1070
   172
1070
     1
1070
    73
1070
     0
1070
   272
1070
     2
1070
    77
1070
     3
1070
   173
1070
     1
1070
   147
1040
2.0
1070
    42
1040
6.0
1070
    44
1040
3.0
1070
    43
1040
14.0
1070
   271
1070
     0
1070
   178
1070
     4
1070
   177
1070
     4
1070
   176
1070
     4
1070
   141
1040
150.0
1070
     7
1000
_OPEN
1070
     6
1000
_OPEN
1070
    41
1040
7.0
1002
}
  0
ARC
  5
2B73
330
1A
100
AcDbEntity
  8
SEIHIN
 62
     3
100
AcDbCircle
 10
520.5508296061153
 20
228.8139518170098
 30
0.0
 40
3.3
100
AcDbArc
 50
100.8253905062999
 51
79.17460949370009
  0
LINE
  5
2B74
330
1A
100
AcDbEntity
  8
CENTER L
  6
CENTER
 48
5.0
100
AcDbLine
 10
520.5508296061153
 20
220.5139518170098
 30
0.0
 11
520.5508296061153
 21
241.2639518170099
 31
0.0
  0
DIMENSION
  5
2B75
330
1A
100
AcDbEntity
  8
SUNPOU
100
AcDbDimension
  2
*D14
 10
491.502197402215
 20
244.1139518170099
 30
0.0
 11
491.502197402215
 21
263.6139518170099
 31
0.0
 70
   160
 71
     5
 42
10.0
  3
STANDARD
100
AcDbAlignedDimension
 13
513.4008296061152
 23
234.1139518170099
 33
0.0
 14
512.0508296061153
 24
244.1139518170099
 34
0.0
 50
90.0
100
AcDbRotatedDimension
1001
ACAD
1000
DSTYLE
1002
{
1070
   288
1070
     1
1070
   140
1040
6.0
1070
    74
1070
     0
1070
   172
1070
     1
1070
    73
1070
     0
1070
   272
1070
     2
1070
    77
1070
     3
1070
   173
1070
     1
1070
   147
1040
2.0
1070
    42
1040
6.0
1070
    44
1040
3.0
1070
    43
1040
14.0
1070
   271
1070
     0
1070
   178
1070
     4
1070
   177
1070
     4
1070
   176
1070
     4
1070
   141
1040
150.0
1070
     7
1000
_OPEN
1070
     6
1000
_OPEN
1070
    41
1040
7.0
1002
}
  0
LINE
  5
2B76
330
1A
100
AcDbEntity
  8
SEIHIN
 62
     3
100
AcDbLine
 10
512.0508296061153
 20
234.1139518170099
 30
0.0
 11
512.0508296061153
 21
204.1139518170099
 31
0.0
  0
DIMENSION
  5
2B77
330
1A
100
AcDbEntity
  8
SUNPOU
100
AcDbDimension
  2
*D15
 10
475.6785158490863
 20
194.1139518170099
 30
0.0
 11
470.6785158490862
 21
219.11395181701
 31
0.0
 70
    32
 71
     5
 42
50.00000000000003
  3
STANDARD
100
AcDbAlignedDimension
 13
522.0508296061153
 23
244.1139518170099
 33
0.0
 14
522.0508296061153
 24
194.1139518170099
 34
0.0
 50
90.0
100
AcDbRotatedDimension
1001
ACAD
1000
DSTYLE
1002
{
1070
   140
1040
6.0
1070
    74
1070
     0
1070
   172
1070
     1
1070
    73
1070
     0
1070
   272
1070
     2
1070
    77
1070
     3
1070
   173
1070
     1
1070
   147
1040
2.0
1070
    42
1040
6.0
1070
    44
1040
3.0
1070
    43
1040
14.0
1070
   271
1070
     0
1070
   178
1070
     4
1070
   177
1070
     4
1070
   176
1070
     4
1070
   141
1040
150.0
1070
     7
1000
_OPEN
1070
     6
1000
_OPEN
1070
    41
1040
7.0
1002
}
  0
LINE
  5
2B78
330
1A
100
AcDbEntity
  8
SEIHIN
  6
PHANTOM
 62
     6
 48
5.0
100
AcDbLine
 10
400.459106651615
 20
244.1139518170099
 30
0.0
 11
400.459106651615
 21
194.1139518170099
 31
0.0
  0
LINE
  5
2B79
330
1A
100
AcDbEntity
  8
SEIHIN
  6
PHANTOM
 62
     6
 48
5.0
100
AcDbLine
 10
394.459106651615
 20
194.1139518170099
 30
0.0
 11
400.459106651615
 21
194.1139518170099
 31
0.0
  0
DIMENSION
  5
2B7A
330
1A
100
AcDbEntity
  8
SUNPOU
100
AcDbDimension
  2
*D16
 10
491.502197402215
 20
194.1139518170099
 30
0.0
 11
491.502197402215
 21
174.6139518170099
 31
0.0
 70
   160
 71
     5
 42
10.00000000000003
  3
STANDARD
100
AcDbAlignedDimension
 13
515.4008296061152
 23
204.1139518170099
 33
0.0
 14
512.0508296061153
 24
194.1139518170099
 34
0.0
 50
90.0
100
AcDbRotatedDimension
1001
ACAD
1000
DSTYLE
1002
{
1070
   288
1070
     1
1070
   140
1040
6.0
1070
    74
1070
     0
1070
   172
1070
     1
1070
    73
1070
     0
1070
   272
1070
     2
1070
    77
1070
     3
1070
   173
1070
     1
1070
   147
1040
2.0
1070
    42
1040
6.0
1070
    44
1040
3.0
1070
    43
1040
14.0
1070
   271
1070
     0
1070
   178
1070
     4
1070
   177
1070
     4
1070
   176
1070
     4
1070
   141
1040
150.0
1070
     7
1000
_OPEN
1070
     6
1000
_OPEN
1070
    41
1040
7.0
1002
}
  0
CIRCLE
  5
2B7B
330
1A
100
AcDbEntity
  8
SEIHIN
 62
     3
100
AcDbCircle
 10
522.5508296061153
 20
204.1139518170099
 30
0.0
 40
2.15
  0
LINE
  5
2B7C
330
1A
100
AcDbEntity
  8
CENTER L
  6
CENTER
 48
5.0
100
AcDbLine
 10
522.5508296061153
 20
196.9639518170098
 30
0.0
 11
522.5508296061153
 21
211.2639518170099
 31
0.0
  0
ARC
  5
2B7D
330
1A
100
AcDbEntity
  8
SEIHIN
 62
     3
100
AcDbCircle
 10
522.0508296061153
 20
204.1139518170099
 30
0.0
 40
10.0
100
AcDbArc
 50
180.0
 51
270.0
  0
LINE
  5
2B7E
330
1A
100
AcDbEntity
  8
SEIHIN
 62
     3
100
AcDbLine
 10
522.0508296061153
 20
214.6139518170099
 30
0.0
 11
522.0508296061153
 21
217.6139518170099
 31
0.0
  0
LINE
  5
2B7F
330
1A
100
AcDbEntity
  8
SEIHIN
 62
     3
100
AcDbLine
 10
519.0508296061153
 20
214.6139518170099
 30
0.0
 11
519.0508296061153
 21
217.6139518170099
 31
0.0
  0
ARC
  5
2B80
330
1A
100
AcDbEntity
  8
SEIHIN
 62
     3
100
AcDbCircle
 10
522.5508296061153
 20
214.6139518170099
 30
0.0
 40
0.5
100
AcDbArc
 50
180.0
 51
270.0
  0
ARC
  5
2B81
330
1A
100
AcDbEntity
  8
SEIHIN
 62
     3
100
AcDbCircle
 10
522.5508296061153
 20
214.6139518170099
 30
0.0
 40
3.5
100
AcDbArc
 50
180.0
 51
270.0
  0
ARC
  5
2B82
330
1A
100
AcDbEntity
  8
SEIHIN
 62
     3
100
AcDbCircle
 10
522.5508296061153
 20
217.6139518170099
 30
0.0
 40
0.5
100
AcDbArc
 50
90.0
 51
180.0
  0
ARC
  5
2B83
330
1A
100
AcDbEntity
  8
SEIHIN
 62
     3
100
AcDbCircle
 10
522.5508296061153
 20
217.6139518170099
 30
0.0
 40
3.5
100
AcDbArc
 50
90.00000000009933
 51
180.0
  0
LEADER
  5
2B84
330
1A
100
AcDbEntity
  8
SUNPOU
 62
     4
100
AcDbLeader
  3
STANDARD
 40
6.0
 41
31.2
 76
     3
 10
519.2235950637414
 20
235.8053856671884
 30
0.0
 10
496.6108645889688
 20
280.8192102831023
 30
0.0
 10
494.032837244931
 20
280.8192102831023
 30
0.0
1001
ACAD
1000
DSTYLE
1002
{
1070
     6
1000
OPEN
1070
    41
1040
7.0
1070
    42
1040
6.0
1070
    43
1040
14.0
1070
    44
1040
3.0
1070
    73
1070
     0
1070
    74
1070
     0
1070
    77
1070
     3
1070
   140
1040
6.0
1070
   141
1040
150.0
1070
   147
1040
2.0
1070
   172
1070
     1
1070
   173
1070
     1
1070
   176
1070
     4
1070
   177
1070
     4
1070
   178
1070
     4
1070
   271
1070
     0
1070
   272
1070
     2
1070
   341
1005
6D
1070
   343
1005
6D
1070
   344
1005
6D
1002
}
  0
ARC
  5
2B85
330
1A
100
AcDbEntity
  8
SEIHIN
 62
     3
100
AcDbCircle
 10
522.0508296061153
 20
234.1139518170099
 30
0.0
 40
10.0
100
AcDbArc
 50
90.0
 51
180.0
  0
ARC
  5
2B86
330
1A
100
AcDbEntity
  8
SEIHIN
 62
     3
100
AcDbCircle
 10
520.5508296061153
 20
234.1139518170099
 30
0.0
 40
2.15
100
AcDbArc
 50
286.7548086972
 51
253.2451913026995
  0
MTEXT
  5
2B87
330
1A
100
AcDbEntity
  8
SUNPOU
 62
     4
100
AcDbMText
 10
492.032837244931
 20
282.8192102831023
 30
0.0
 40
6.0
 41
0.0
 71
     9
 72
     5
  1
4-φ4.2
 73
     1
 44
1.0
  0
LINE
  5
2B88
330
1A
100
AcDbEntity
  8
CENTER L
  6
CENTER
 48
5.0
100
AcDbLine
 10
577.5508296061153
 20
220.5139518170098
 30
0.0
 11
577.5508296061153
 21
241.2639518170099
 31
0.0
  0
ARC
  5
2B89
330
1A
100
AcDbEntity
  8
SEIHIN
 62
     3
100
AcDbCircle
 10
565.0508296061153
 20
228.1139518170099
 30
0.0
 40
2.0
100
AcDbArc
 50
270.0
 51
0.0
  0
ARC
  5
2B8A
330
1A
100
AcDbEntity
  8
SEIHIN
 62
     3
100
AcDbCircle
 10
577.5508296061153
 20
228.8139518170098
 30
0.0
 40
3.3
100
AcDbArc
 50
100.8253905062999
 51
79.17460949370009
  0
DIMENSION
  5
2B8B
330
1A
100
AcDbEntity
  8
SUNPOU
100
AcDbDimension
  2
*D17
 10
626.3824731177863
 20
228.8139518170098
 30
0.0
 11
621.3824731177863
 21
236.46395181701
 31
0.0
 70
    32
 71
     5
 42
15.30000000000007
  3
STANDARD
100
AcDbAlignedDimension
 13
576.0508296061153
 23
244.1139518170099
 33
0.0
 14
585.8508296061152
 24
228.8139518170098
 34
0.0
 50
90.0
100
AcDbRotatedDimension
1001
ACAD
1000
DSTYLE
1002
{
1070
   140
1040
6.0
1070
    74
1070
     0
1070
   172
1070
     1
1070
    73
1070
     0
1070
   272
1070
     2
1070
    77
1070
     3
1070
   173
1070
     1
1070
   147
1040
2.0
1070
    42
1040
6.0
1070
    44
1040
3.0
1070
    43
1040
14.0
1070
   271
1070
     0
1070
   178
1070
     4
1070
   177
1070
     4
1070
   176
1070
     4
1070
   141
1040
150.0
1070
     7
1000
_OPEN
1070
     6
1000
_OPEN
1070
    41
1040
7.0
1002
}
  0
LINE
  5
2B8C
330
1A
100
AcDbEntity
  8
CENTER L
  6
CENTER
 48
5.0
100
AcDbLine
 10
549.0508296061153
 20
187.1139518170099
 30
0.0
 11
549.0508296061153
 21
253.5129906850099
 31
0.0
  0
LINE
  5
2B8D
330
1A
100
AcDbEntity
  8
SEIHIN
 62
     3
100
AcDbLine
 10
586.0508296061153
 20
234.1139518170099
 30
0.0
 11
586.0508296061153
 21
204.1139518170099
 31
0.0
  0
ARC
  5
2B8E
330
1A
100
AcDbEntity
  8
SEIHIN
 62
     3
100
AcDbCircle
 10
533.0508296061153
 20
228.1139518170099
 30
0.0
 40
2.0
100
AcDbArc
 50
180.0
 51
270.0
  0
LEADER
  5
2B8F
330
1A
100
AcDbEntity
  8
SUNPOU
 62
     4
100
AcDbLeader
  3
STANDARD
 74
     0
 40
6.0
 41
31.2
 76
     3
 10
579.253030727265
 20
225.9868488222187
 30
0.0
 10
597.1687360256258
 20
198.8563460163229
 30
0.0
 10
599.1857846240862
 20
198.8563460163229
 30
0.0
1001
ACAD
1000
DSTYLE
1002
{
1070
     6
1000
OPEN
1070
    41
1040
7.0
1070
    42
1040
6.0
1070
    43
1040
14.0
1070
    44
1040
3.0
1070
    73
1070
     0
1070
    74
1070
     0
1070
    77
1070
     3
1070
   140
1040
6.0
1070
   141
1040
150.0
1070
   147
1040
2.0
1070
   172
1070
     1
1070
   173
1070
     1
1070
   176
1070
     4
1070
   177
1070
     4
1070
   178
1070
     4
1070
   271
1070
     0
1070
   272
1070
     2
1070
   341
1005
6D
1070
   343
1005
6D
1070
   344
1005
6D
1002
}
  0
LINE
  5
2B90
330
1A
100
AcDbEntity
  8
SEIHIN
 62
     3
100
AcDbLine
 10
559.5508296061153
 20
220.1139518170099
 30
0.0
 11
538.5508296061153
 21
220.1139518170099
 31
0.0
  0
LINE
  5
2B91
330
1A
100
AcDbEntity
  8
SEIHIN
 62
     3
100
AcDbLine
 10
565.0508296061153
 20
199.1139518170099
 30
0.0
 11
533.0508296061153
 21
199.1139518170099
 31
0.0
  0
LINE
  5
2B92
330
1A
100
AcDbEntity
  8
SEIHIN
 62
     3
100
AcDbLine
 10
559.5508296061153
 20
200.1139518170099
 30
0.0
 11
538.5508296061153
 21
200.1139518170099
 31
0.0
  0
LINE
  5
2B93
330
1A
100
AcDbEntity
  8
SEIHIN
 62
     3
100
AcDbLine
 10
533.0508296061153
 20
226.1139518170099
 30
0.0
 11
565.0508296061153
 21
226.1139518170099
 31
0.0
  0
LINE
  5
2B94
330
1A
100
AcDbEntity
  8
SEIHIN
 62
     3
100
AcDbLine
 10
529.5508296061153
 20
202.6139518170099
 30
0.0
 11
529.5508296061153
 21
204.1139518170099
 31
0.0
  0
LINE
  5
2B95
330
1A
100
AcDbEntity
  8
SEIHIN
 62
     3
100
AcDbLine
 10
532.5508296061153
 20
202.6139518170099
 30
0.0
 11
532.5508296061153
 21
204.1139518170099
 31
0.0
  0
LINE
  5
2B96
330
1A
100
AcDbEntity
  8
SEIHIN
 62
     3
100
AcDbLine
 10
538.5508296061153
 20
200.1139518170099
 30
0.0
 11
538.5508296061153
 21
220.1139518170099
 31
0.0
  0
LINE
  5
2B97
330
1A
100
AcDbEntity
  8
SEIHIN
 62
     3
100
AcDbLine
 10
536.5508296061153
 20
202.1139518170099
 30
0.0
 11
536.5508296061153
 21
218.1139518170099
 31
0.0
  0
LINE
  5
2B98
330
1A
100
AcDbEntity
  8
SEIHIN
 62
     3
100
AcDbLine
 10
536.5508296061153
 20
202.1139518170099
 30
0.0
 11
533.0508296061153
 21
202.1139518170099
 31
0.0
  0
ARC
  5
2B99
330
1A
100
AcDbEntity
  8
SEIHIN
 62
     3
100
AcDbCircle
 10
533.0508296061153
 20
202.6139518170099
 30
0.0
 40
0.5
100
AcDbArc
 50
180.0
 51
270.0
  0
ARC
  5
2B9A
330
1A
100
AcDbEntity
  8
SEIHIN
 62
     3
100
AcDbCircle
 10
533.0508296061153
 20
202.6139518170099
 30
0.0
 40
3.5
100
AcDbArc
 50
180.0
 51
270.0000000002003
  0
LINE
  5
2B9B
330
1A
100
AcDbEntity
  8
SEIHIN
 62
     3
100
AcDbLine
 10
538.5508296061153
 20
200.1139518170099
 30
0.0
 11
536.5508296061153
 21
202.1139518170099
 31
0.0
  0
LINE
  5
2B9C
330
1A
100
AcDbEntity
  8
SEIHIN
 62
     3
100
AcDbLine
 10
536.5508296061153
 20
218.1139518170099
 30
0.0
 11
538.5508296061153
 21
220.1139518170099
 31
0.0
  0
LINE
  5
2B9D
330
1A
100
AcDbEntity
  8
SEIHIN
 62
     3
100
AcDbLine
 10
568.5508296061153
 20
202.6139518170099
 30
0.0
 11
568.5508296061153
 21
204.1139518170099
 31
0.0
  0
LINE
  5
2B9E
330
1A
100
AcDbEntity
  8
SEIHIN
 62
     3
100
AcDbLine
 10
565.5508296061153
 20
202.6139518170099
 30
0.0
 11
565.5508296061153
 21
204.1139518170099
 31
0.0
  0
LINE
  5
2B9F
330
1A
100
AcDbEntity
  8
CENTER L
  6
CENTER
 48
5.0
100
AcDbLine
 10
575.5508296061153
 20
196.9639518170098
 30
0.0
 11
575.5508296061153
 21
211.2639518170099
 31
0.0
  0
ARC
  5
2BA0
330
1A
100
AcDbEntity
  8
SEIHIN
 62
     3
100
AcDbCircle
 10
576.0508296061153
 20
204.1139518170099
 30
0.0
 40
10.0
100
AcDbArc
 50
270.0
 51
0.0
  0
CIRCLE
  5
2BA1
330
1A
100
AcDbEntity
  8
SEIHIN
 62
     3
100
AcDbCircle
 10
575.5508296061153
 20
204.1139518170099
 30
0.0
 40
2.15
  0
LINE
  5
2BA2
330
1A
100
AcDbEntity
  8
SEIHIN
 62
     3
100
AcDbLine
 10
561.5508296061153
 20
202.1139518170099
 30
0.0
 11
561.5508296061153
 21
218.1139518170099
 31
0.0
  0
LINE
  5
2BA3
330
1A
100
AcDbEntity
  8
SEIHIN
 62
     3
100
AcDbLine
 10
559.5508296061153
 20
200.1139518170099
 30
0.0
 11
559.5508296061153
 21
220.1139518170099
 31
0.0
  0
ARC
  5
2BA4
330
1A
100
AcDbEntity
  8
SEIHIN
 62
     3
100
AcDbCircle
 10
565.0508296061153
 20
202.6139518170099
 30
0.0
 40
3.5
100
AcDbArc
 50
270.0
 51
0.0
  0
ARC
  5
2BA5
330
1A
100
AcDbEntity
  8
SEIHIN
 62
     3
100
AcDbCircle
 10
565.0508296061153
 20
202.6139518170099
 30
0.0
 40
0.5
100
AcDbArc
 50
270.0
 51
0.0
  0
LINE
  5
2BA6
330
1A
100
AcDbEntity
  8
SEIHIN
 62
     3
100
AcDbLine
 10
561.5508296061153
 20
202.1139518170099
 30
0.0
 11
565.0508296061153
 21
202.1139518170099
 31
0.0
  0
LINE
  5
2BA7
330
1A
100
AcDbEntity
  8
SEIHIN
 62
     3
100
AcDbLine
 10
559.5508296061153
 20
200.1139518170099
 30
0.0
 11
561.5508296061153
 21
202.1139518170099
 31
0.0
  0
LINE
  5
2BA8
330
1A
100
AcDbEntity
  8
SEIHIN
 62
     3
100
AcDbLine
 10
561.5508296061153
 20
218.1139518170099
 30
0.0
 11
575.5508296061153
 21
218.1139518170099
 31
0.0
  0
LINE
  5
2BA9
330
1A
100
AcDbEntity
  8
CENTER L
  6
CENTER
 48
5.0
100
AcDbLine
 10
582.7008296061154
 20
204.1139518170099
 30
0.0
 11
568.4008296061154
 21
204.1139518170099
 31
0.0
  0
ARC
  5
2BAA
330
1A
100
AcDbEntity
  8
SEIHIN
 62
     3
100
AcDbCircle
 10
575.5508296061153
 20
204.1139518170099
 30
0.0
 40
10.0
100
AcDbArc
 50
90.0
 51
180.0
  0
ARC
  5
2BAB
330
1A
100
AcDbEntity
  8
SEIHIN
 62
     3
100
AcDbCircle
 10
575.5508296061153
 20
204.1139518170099
 30
0.0
 40
7.0
100
AcDbArc
 50
90.0
 51
180.0
  0
LINE
  5
2BAC
330
1A
100
AcDbEntity
  8
SEIHIN
 62
     3
100
AcDbLine
 10
561.5508296061153
 20
218.1139518170099
 30
0.0
 11
559.5508296061153
 21
220.1139518170099
 31
0.0
  0
LINE
  5
2BAD
330
1A
100
AcDbEntity
  8
SEIHIN
 62
     3
100
AcDbLine
 10
579.0508296061153
 20
214.6139518170099
 30
0.0
 11
579.0508296061153
 21
217.6139518170099
 31
0.0
  0
LINE
  5
2BAE
330
1A
100
AcDbEntity
  8
SEIHIN
 62
     3
100
AcDbLine
 10
576.0508296061153
 20
214.6139518170099
 30
0.0
 11
576.0508296061153
 21
217.6139518170099
 31
0.0
  0
ARC
  5
2BAF
330
1A
100
AcDbEntity
  8
SEIHIN
 62
     3
100
AcDbCircle
 10
575.5508296061153
 20
214.6139518170099
 30
0.0
 40
0.5
100
AcDbArc
 50
270.0
 51
0.0
  0
ARC
  5
2BB0
330
1A
100
AcDbEntity
  8
SEIHIN
 62
     3
100
AcDbCircle
 10
575.5508296061153
 20
214.6139518170099
 30
0.0
 40
3.5
100
AcDbArc
 50
270.0
 51
0.0
  0
ARC
  5
2BB1
330
1A
100
AcDbEntity
  8
SEIHIN
 62
     3
100
AcDbCircle
 10
575.5508296061153
 20
217.6139518170099
 30
0.0
 40
0.5
100
AcDbArc
 50
0.0
 51
90.0
  0
ARC
  5
2BB2
330
1A
100
AcDbEntity
  8
SEIHIN
 62
     3
100
AcDbCircle
 10
575.5508296061153
 20
217.6139518170099
 30
0.0
 40
3.5
100
AcDbArc
 50
0.0
 51
90.0
  0
MTEXT
  5
2BB3
330
1A
100
AcDbEntity
  8
SUNPOU
 62
     4
100
AcDbMText
 10
601.1857846240862
 20
200.8563460163229
 30
0.0
 40
6.0
 41
0.0
 71
     7
 72
     5
  1
2-φ6.5
 73
     1
 44
1.0
  0
LINE
  5
2BB4
330
1A
100
AcDbEntity
  8
SEIHIN
 62
     3
100
AcDbLine
 10
533.0508296061153
 20
227.1139518170099
 30
0.0
 11
565.0508296061153
 21
227.1139518170099
 31
0.0
  0
LINE
  5
2BB5
330
1A
100
AcDbEntity
  8
SEIHIN
 62
     3
100
AcDbLine
 10
533.0508296061153
 20
238.1139518170099
 30
0.0
 11
565.0508296061153
 21
238.1139518170099
 31
0.0
  0
LINE
  5
2BB6
330
1A
100
AcDbEntity
  8
SEIHIN
 62
     3
100
AcDbLine
 10
533.0508296061153
 20
239.1139518170099
 30
0.0
 11
565.0508296061153
 21
239.1139518170099
 31
0.0
  0
LINE
  5
2BB7
330
1A
100
AcDbEntity
  8
SEIHIN
 62
     3
100
AcDbLine
 10
534.9900209435007
 20
246.5129906850099
 30
0.0
 11
563.0508296061153
 21
246.5129906850099
 31
0.0
  0
ARC
  5
2BB8
330
1A
100
AcDbEntity
  8
SEIHIN
 62
     3
100
AcDbCircle
 10
533.0508296061153
 20
237.1139518170099
 30
0.0
 40
2.0
100
AcDbArc
 50
90.0
 51
180.0
  0
ARC
  5
2BB9
330
1A
100
AcDbEntity
  8
SEIHIN
 62
     3
100
AcDbCircle
 10
533.0508296061153
 20
237.1139518170099
 30
0.0
 40
1.0
100
AcDbArc
 50
90.0
 51
180.0
  0
ARC
  5
2BBA
330
1A
100
AcDbEntity
  8
SEIHIN
 62
     3
100
AcDbCircle
 10
533.0508296061153
 20
228.1139518170099
 30
0.0
 40
1.0
100
AcDbArc
 50
180.0
 51
270.0
  0
LINE
  5
2BBB
330
1A
100
AcDbEntity
  8
SEIHIN
 62
     3
100
AcDbLine
 10
532.0508296061153
 20
228.1139518170099
 30
0.0
 11
532.0508296061153
 21
237.1139518170099
 31
0.0
  0
LINE
  5
2BBC
330
1A
100
AcDbEntity
  8
SEIHIN
 62
     3
100
AcDbLine
 10
531.0508296061153
 20
228.1139518170099
 30
0.0
 11
531.0508296061153
 21
237.1139518170099
 31
0.0
  0
ARC
  5
2BBD
330
1A
100
AcDbEntity
  8
SEIHIN
 62
     3
100
AcDbCircle
 10
534.9900209435007
 20
243.512990684957
 30
0.0
 40
3.0
100
AcDbArc
 50
90.0
 51
168.4443055519003
  0
LINE
  5
2BBE
330
1A
100
AcDbEntity
  8
CENTER L
  6
CENTER
 48
5.0
100
AcDbLine
 10
584.7008296061154
 20
234.1139518170099
 30
0.0
 11
570.4008296061154
 21
234.1139518170099
 31
0.0
  0
LINE
  5
2BBF
330
1A
100
AcDbEntity
  8
CENTER L
  6
CENTER
 48
5.0
100
AcDbLine
 10
585.8508296061152
 20
228.8139518170098
 30
0.0
 11
569.2508296061153
 21
228.8139518170098
 31
0.0
  0
ARC
  5
2BC0
330
1A
100
AcDbEntity
  8
SEIHIN
 62
     3
100
AcDbCircle
 10
565.0508296061153
 20
237.1139518170099
 30
0.0
 40
2.0
100
AcDbArc
 50
0.0
 51
90.0
  0
ARC
  5
2BC1
330
1A
100
AcDbEntity
  8
SEIHIN
 62
     3
100
AcDbCircle
 10
565.0508296061153
 20
237.1139518170099
 30
0.0
 40
1.0
100
AcDbArc
 50
0.0
 51
90.0
  0
ARC
  5
2BC2
330
1A
100
AcDbEntity
  8
SEIHIN
 62
     3
100
AcDbCircle
 10
565.0508296061153
 20
228.1139518170099
 30
0.0
 40
1.0
100
AcDbArc
 50
270.0
 51
0.0
  0
LINE
  5
2BC3
330
1A
100
AcDbEntity
  8
SEIHIN
 62
     3
100
AcDbLine
 10
566.0508296061153
 20
228.1139518170099
 30
0.0
 11
566.0508296061153
 21
237.1139518170099
 31
0.0
  0
LINE
  5
2BC4
330
1A
100
AcDbEntity
  8
SEIHIN
 62
     3
100
AcDbLine
 10
567.0508296061153
 20
228.1139518170099
 30
0.0
 11
567.0508296061153
 21
237.1139518170099
 31
0.0
  0
ARC
  5
2BC5
330
1A
100
AcDbEntity
  8
SEIHIN
 62
     3
100
AcDbCircle
 10
563.0508296061153
 20
243.5129906850099
 30
0.0
 40
3.0
100
AcDbArc
 50
11.55569444809968
 51
90.0
  0
ARC
  5
2BC6
330
1A
100
AcDbEntity
  8
SEIHIN
 62
     3
100
AcDbCircle
 10
576.0508296061153
 20
234.1139518170099
 30
0.0
 40
10.0
100
AcDbArc
 50
0.0
 51
90.0
  0
ARC
  5
2BC7
330
1A
100
AcDbEntity
  8
SEIHIN
 62
     3
100
AcDbCircle
 10
577.5508296061153
 20
234.1139518170099
 30
0.0
 40
2.15
100
AcDbArc
 50
286.7548086973005
 51
253.2451913028
  0
VIEWPORT
  5
22
330
17
100
AcDbEntity
 67
     1
  8
0
100
AcDbViewport
 10
313.6808219178083
 20
148.5
 30
0.0
 40
627.3616438356165
 41
297.0
 68
     2
 69
     1
 12
313.6808219178083
 22
148.5
 13
0.0
 23
0.0
 14
1.0
 24
1.0
 15
10.0
 25
10.0
 16
0.0
 26
0.0
 36
1.0
 17
0.0
 27
0.0
 37
0.0
 42
50.0
 43
0.0
 44
0.0
 45
297.0
 50
0.0
 51
0.0
 72
   100
 90
    32768
  1

281
     0
 71
     1
 74
     0
110
0.0
120
0.0
130
0.0
111
1.0
121
0.0
131
0.0
112
0.0
122
1.0
132
0.0
 79
     0
146
0.0
  0
VIEWPORT
  5
64
330
17
100
AcDbEntity
 67
     1
  8
VIEWPORT
100
AcDbViewport
 10
210.0
 20
148.5
 30
0.0
 40
420.0
 41
297.0
 68
     1
 69
     2
 12
420.0
 22
297.0
 13
0.0
 23
0.0
 14
10.0
 24
10.0
 15
0.0
 25
0.0
 16
0.0
 26
0.0
 36
1.0
 17
0.0
 27
0.0
 37
0.0
 42
50.0
 43
0.0
 44
0.0
 45
605.8799999999999
 50
0.0
 51
0.0
 72
   100
 90
    32768
  1

281
     0
 71
     1
 74
     0
110
0.0
120
0.0
130
0.0
111
1.0
121
0.0
131
0.0
112
0.0
122
1.0
132
0.0
 79
     0
146
0.0
  0
ENDSEC
  0
SECTION
  2
OBJECTS
  0
DICTIONARY
  5
C
330
0
100
AcDbDictionary
281
     1
  3
ACAD_GROUP
350
D
  3
ACAD_LAYOUT
350
85F
  3
ACAD_MLINESTYLE
350
E
  3
ACAD_PLOTSETTINGS
350
860
  3
ACAD_PLOTSTYLENAME
350
85D
  0
DICTIONARY
  5
D
102
{ACAD_REACTORS
330
C
102
}
330
C
100
AcDbDictionary
281
     1
  0
DICTIONARY
  5
85F
102
{ACAD_REACTORS
330
C
102
}
330
C
100
AcDbDictionary
281
     1
  3
Model
350
861
  3
ﾚｲｱｳﾄ1
350
862
  0
DICTIONARY
  5
E
102
{ACAD_REACTORS
330
C
102
}
330
C
100
AcDbDictionary
281
     1
  3
STANDARD
350
13
  0
DICTIONARY
  5
860
102
{ACAD_REACTORS
330
C
102
}
330
C
100
AcDbDictionary
281
     1
  0
ACDBDICTIONARYWDFLT
  5
85D
102
{ACAD_REACTORS
330
C
102
}
330
C
100
AcDbDictionary
281
     1
  3
Normal
350
85E
100
AcDbDictionaryWithDefault
340
85E
1001
ACAD
1000
TREAT_AS_HARD
1070
     0
1000
TREAT_AS_HARD
1070
     0
1000
TREAT_AS_HARD
1070
     0
1000
TREAT_AS_HARD
1070
     0
1000
TREAT_AS_HARD
1070
     0
  0
LAYOUT
  5
861
102
{ACAD_REACTORS
330
85F
102
}
330
85F
100
AcDbPlotSettings
  1

  2
Acrobat Distiller
  4
A3
  6

 40
3.174999952316284
 41
3.174999952316284
 42
3.17498779296875
 43
3.17498779296875
 44
297.0318298339844
 45
420.1583251953125
 46
0.0
 47
0.0
 48
0.0
 49
0.0
140
0.0
141
0.0
142
1.0
143
2.0
 70
 28336
 72
     1
 73
     1
 74
     2
  7
print.ctb
 75
    17
147
0.5
148
0.0
149
0.0
100
AcDbLayout
  1
Model
 70
     1
 71
     0
 10
0.0
 20
0.0
 11
12.0
 21
9.0
 12
0.0
 22
0.0
 32
0.0
 14
0.0
 24
0.0
 34
0.0
 15
0.0
 25
0.0
 35
0.0
146
0.0
 13
0.0
 23
0.0
 33
0.0
 16
1.0
 26
0.0
 36
0.0
 17
0.0
 27
1.0
 37
0.0
 76
     0
330
1A
  0
LAYOUT
  5
862
102
{ACAD_REACTORS
330
85F
102
}
330
85F
100
AcDbPlotSettings
  1

  2
C:\PROGRAM FILES\ACAD LT 2000\plotters\DWF ePlot.pc3
  4

  6

 40
0.0
 41
0.0
 42
0.0
 43
0.0
 44
0.0
 45
0.0
 46
0.0
 47
0.0
 48
0.0
 49
0.0
140
0.0
141
0.0
142
1.0
143
1.0
 70
   688
 72
     0
 73
     0
 74
     5
  7
print.ctb
 75
    16
147
1.0
148
0.0
149
0.0
100
AcDbLayout
  1
ﾚｲｱｳﾄ1
 70
     1
 71
     1
 10
0.0
 20
0.0
 11
420.0
 21
297.0
 12
0.0
 22
0.0
 32
0.0
 14
0.0
 24
0.0
 34
0.0
 15
420.0
 25
297.0
 35
0.0
146
0.0
 13
0.0
 23
0.0
 33
0.0
 16
1.0
 26
0.0
 36
0.0
 17
0.0
 27
1.0
 37
0.0
 76
     0
330
17
331
64
  0
MLINESTYLE
  5
13
102
{ACAD_REACTORS
330
E
102
}
330
E
100
AcDbMlineStyle
  2
STANDARD
 70
     0
  3

 62
     0
 51
90.0
 52
90.0
 71
     2
 49
0.5
 62
   256
  6
BYLAYER
 49
-0.5
 62
   256
  6
BYLAYER
  0
ACDBPLACEHOLDER
  5
85E
102
{ACAD_REACTORS
330
85D
102
}
330
85D
  0
ENDSEC
  0
EOF
