  0
SECTION
  2
HEADER
  9
$ACADVER
  1
AC1015
  9
$ACADMAINTVER
 70
     6
  9
$DWGCODEPAGE
  3
ANSI_932
  9
$INSBASE
 10
0.0
 20
0.0
 30
0.0
  9
$EXTMIN
 10
-0.0000004333560355
 20
0.0000006402971167
 30
0.0
  9
$EXTMAX
 10
797.599999566644
 20
551.6000006402973
 30
0.0
  9
$LIMMIN
 10
0.0
 20
0.0
  9
$LIMMAX
 10
840.0
 20
594.0
  9
$ORTHOMODE
 70
     1
  9
$REGENMODE
 70
     1
  9
$FILLMODE
 70
     1
  9
$QTEXTMODE
 70
     0
  9
$MIRRTEXT
 70
     1
  9
$LTSCALE
 40
2.0
  9
$ATTMODE
 70
     1
  9
$TEXTSIZE
 40
5.0
  9
$TRACEWID
 40
1.0
  9
$TEXTSTYLE
  7
STANDARD
  9
$CLAYER
  8
SEIHIN
  9
$CELTYPE
  6
BYLAYER
  9
$CECOLOR
 62
   256
  9
$CELTSCALE
 40
1.0
  9
$DISPSILH
 70
     0
  9
$DIMSCALE
 40
1.0
  9
$DIMASZ
 40
7.0
  9
$DIMEXO
 40
6.0
  9
$DIMDLI
 40
14.0
  9
$DIMRND
 40
0.0
  9
$DIMDLE
 40
0.0
  9
$DIMEXE
 40
3.0
  9
$DIMTP
 40
0.0
  9
$DIMTM
 40
0.0
  9
$DIMTXT
 40
6.0
  9
$DIMCEN
 40
150.0
  9
$DIMTSZ
 40
0.0
  9
$DIMTOL
 70
     0
  9
$DIMLIM
 70
     0
  9
$DIMTIH
 70
     0
  9
$DIMTOH
 70
     0
  9
$DIMSE1
 70
     0
  9
$DIMSE2
 70
     0
  9
$DIMTAD
 70
     3
  9
$DIMZIN
 70
     0
  9
$DIMBLK
  1

  9
$DIMASO
 70
     1
  9
$DIMSHO
 70
     1
  9
$DIMPOST
  1

  9
$DIMAPOST
  1

  9
$DIMALT
 70
     0
  9
$DIMALTD
 70
     2
  9
$DIMALTF
 40
25.4
  9
$DIMLFAC
 40
1.0
  9
$DIMTOFL
 70
     1
  9
$DIMTVP
 40
0.0
  9
$DIMTIX
 70
     0
  9
$DIMSOXD
 70
     0
  9
$DIMSAH
 70
     1
  9
$DIMBLK1
  1
OPEN
  9
$DIMBLK2
  1
OPEN
  9
$DIMSTYLE
  2
STANDARD
  9
$DIMCLRD
 70
   256
  9
$DIMCLRE
 70
   256
  9
$DIMCLRT
 70
   256
  9
$DIMTFAC
 40
1.0
  9
$DIMGAP
 40
2.0
  9
$DIMJUST
 70
     0
  9
$DIMSD1
 70
     0
  9
$DIMSD2
 70
     0
  9
$DIMTOLJ
 70
     1
  9
$DIMTZIN
 70
     0
  9
$DIMALTZ
 70
     0
  9
$DIMALTTZ
 70
     0
  9
$DIMUPT
 70
     0
  9
$DIMDEC
 70
     0
  9
$DIMTDEC
 70
     0
  9
$DIMALTU
 70
     2
  9
$DIMALTTD
 70
     2
  9
$DIMTXSTY
  7
STANDARD
  9
$DIMAUNIT
 70
     0
  9
$DIMADEC
 70
     0
  9
$DIMALTRND
 40
0.0
  9
$DIMAZIN
 70
     0
  9
$DIMDSEP
 70
    46
  9
$DIMATFIT
 70
     3
  9
$DIMFRAC
 70
     0
  9
$DIMLDRBLK
  1
OPEN
  9
$DIMLUNIT
 70
     2
  9
$DIMLWD
 70
    -1
  9
$DIMLWE
 70
    -1
  9
$DIMTMOVE
 70
     0
  9
$LUNITS
 70
     2
  9
$LUPREC
 70
     4
  9
$SKETCHINC
 40
1.0
  9
$FILLETRAD
 40
20.0
  9
$AUNITS
 70
     0
  9
$AUPREC
 70
     0
  9
$MENU
  1
.
  9
$ELEVATION
 40
0.0
  9
$PELEVATION
 40
0.0
  9
$THICKNESS
 40
0.0
  9
$LIMCHECK
 70
     0
  9
$CHAMFERA
 40
20.0
  9
$CHAMFERB
 40
20.0
  9
$CHAMFERC
 40
40.0
  9
$CHAMFERD
 40
0.0
  9
$SKPOLY
 70
     0
  9
$TDCREATE
 40
2451029.942521991
  9
$TDUCREATE
 40
2451029.567521991
  9
$TDUPDATE
 40
2455609.398940081
  9
$TDUUPDATE
 40
2455609.023940081
  9
$TDINDWG
 40
0.1120203241
  9
$TDUSRTIMER
 40
0.1120203241
  9
$USRTIMER
 70
     1
  9
$ANGBASE
 50
0.0
  9
$ANGDIR
 70
     0
  9
$PDMODE
 70
     0
  9
$PDSIZE
 40
0.0
  9
$PLINEWID
 40
0.0
  9
$SPLFRAME
 70
     0
  9
$SPLINETYPE
 70
     6
  9
$SPLINESEGS
 70
     8
  9
$HANDSEED
  5
3291
  9
$SURFTAB1
 70
     6
  9
$SURFTAB2
 70
     6
  9
$SURFTYPE
 70
     6
  9
$SURFU
 70
     6
  9
$SURFV
 70
     6
  9
$UCSBASE
  2

  9
$UCSNAME
  2

  9
$UCSORG
 10
0.0
 20
0.0
 30
0.0
  9
$UCSXDIR
 10
1.0
 20
0.0
 30
0.0
  9
$UCSYDIR
 10
0.0
 20
1.0
 30
0.0
  9
$UCSORTHOREF
  2

  9
$UCSORTHOVIEW
 70
     0
  9
$UCSORGTOP
 10
0.0
 20
0.0
 30
0.0
  9
$UCSORGBOTTOM
 10
0.0
 20
0.0
 30
0.0
  9
$UCSORGLEFT
 10
0.0
 20
0.0
 30
0.0
  9
$UCSORGRIGHT
 10
0.0
 20
0.0
 30
0.0
  9
$UCSORGFRONT
 10
0.0
 20
0.0
 30
0.0
  9
$UCSORGBACK
 10
0.0
 20
0.0
 30
0.0
  9
$PUCSBASE
  2

  9
$PUCSNAME
  2

  9
$PUCSORG
 10
0.0
 20
0.0
 30
0.0
  9
$PUCSXDIR
 10
1.0
 20
0.0
 30
0.0
  9
$PUCSYDIR
 10
0.0
 20
1.0
 30
0.0
  9
$PUCSORTHOREF
  2

  9
$PUCSORTHOVIEW
 70
     0
  9
$PUCSORGTOP
 10
0.0
 20
0.0
 30
0.0
  9
$PUCSORGBOTTOM
 10
0.0
 20
0.0
 30
0.0
  9
$PUCSORGLEFT
 10
0.0
 20
0.0
 30
0.0
  9
$PUCSORGRIGHT
 10
0.0
 20
0.0
 30
0.0
  9
$PUCSORGFRONT
 10
0.0
 20
0.0
 30
0.0
  9
$PUCSORGBACK
 10
0.0
 20
0.0
 30
0.0
  9
$USERI1
 70
     0
  9
$USERI2
 70
     0
  9
$USERI3
 70
     0
  9
$USERI4
 70
     0
  9
$USERI5
 70
     0
  9
$USERR1
 40
0.0
  9
$USERR2
 40
0.0
  9
$USERR3
 40
0.0
  9
$USERR4
 40
0.0
  9
$USERR5
 40
0.0
  9
$WORLDVIEW
 70
     1
  9
$SHADEDGE
 70
     3
  9
$SHADEDIF
 70
    70
  9
$TILEMODE
 70
     1
  9
$MAXACTVP
 70
    16
  9
$PINSBASE
 10
0.0
 20
0.0
 30
0.0
  9
$PLIMCHECK
 70
     0
  9
$PEXTMIN
 10
0.0
 20
0.0
 30
0.0
  9
$PEXTMAX
 10
420.0
 20
297.0
 30
0.0
  9
$PLIMMIN
 10
0.0
 20
0.0
  9
$PLIMMAX
 10
420.0
 20
297.0
  9
$UNITMODE
 70
     0
  9
$VISRETAIN
 70
     0
  9
$PLINEGEN
 70
     0
  9
$PSLTSCALE
 70
     1
  9
$TREEDEPTH
 70
  3020
  9
$CMLSTYLE
  2
STANDARD
  9
$CMLJUST
 70
     0
  9
$CMLSCALE
 40
1.0
  9
$PROXYGRAPHICS
 70
     1
  9
$MEASUREMENT
 70
     1
  9
$CELWEIGHT
370
    -1
  9
$ENDCAPS
280
     0
  9
$JOINSTYLE
280
     0
  9
$LWDISPLAY
290
     0
  9
$INSUNITS
 70
     0
  9
$HYPERLINKBASE
  1

  9
$STYLESHEET
  1
print.ctb
  9
$XEDIT
290
     1
  9
$CEPSNTYPE
380
     0
  9
$PSTYLEMODE
290
     1
  9
$FINGERPRINTGUID
  2
{FF3C30AF-89FB-45B1-9067-596B98B489D4}
  9
$VERSIONGUID
  2
{C8B59A8D-3FC5-4443-8D25-F98DA5EDDB45}
  9
$EXTNAMES
290
     1
  9
$PSVPSCALE
 40
0.0
  9
$OLESTARTUP
290
     0
  0
ENDSEC
  0
SECTION
  2
CLASSES
  0
CLASS
  1
ACDBDICTIONARYWDFLT
  2
AcDbDictionaryWithDefault
  3
ObjectDBX Classes
 90
        0
280
     0
281
     0
  0
CLASS
  1
ACDBPLACEHOLDER
  2
AcDbPlaceHolder
  3
ObjectDBX Classes
 90
        0
280
     0
281
     0
  0
CLASS
  1
LAYOUT
  2
AcDbLayout
  3
ObjectDBX Classes
 90
        0
280
     0
281
     0
  0
CLASS
  1
DUMMY
  2
AcDbLongTransaction
  3
DUMMY
 90
        0
280
     0
281
     0
  0
CLASS
  1
LWPOLYLINE
  2
AcDbPolyline
  3
AutoCAD 2000
 90
        0
280
     0
281
     1
  0
CLASS
  1
HATCH
  2
AcDbHatch
  3
AutoCAD 2000
 90
        0
280
     0
281
     1
  0
CLASS
  1
XRECORD
  2
AcDbXrecord
  3
AutoCAD 2000
 90
        0
280
     0
281
     0
  0
CLASS
  1
DUMMY
  2
AcDbLongTransaction
  3
DUMMY
 90
        0
280
     0
281
     0
  0
CLASS
  1
LWPOLYLINE
  2
AcDbPolyline
  3
AutoCAD 2000
 90
        0
280
     0
281
     1
  0
CLASS
  1
HATCH
  2
AcDbHatch
  3
AutoCAD 2000
 90
        0
280
     0
281
     1
  0
CLASS
  1
XRECORD
  2
AcDbXrecord
  3
AutoCAD 2000
 90
        0
280
     0
281
     0
  0
CLASS
  1
DUMMY
  2
AcDbLongTransaction
  3
DUMMY
 90
        0
280
     0
281
     0
  0
CLASS
  1
LWPOLYLINE
  2
AcDbPolyline
  3
AutoCAD 2000
 90
        0
280
     0
281
     1
  0
CLASS
  1
HATCH
  2
AcDbHatch
  3
AutoCAD 2000
 90
        0
280
     0
281
     1
  0
CLASS
  1
XRECORD
  2
AcDbXrecord
  3
AutoCAD 2000
 90
        0
280
     0
281
     0
  0
CLASS
  1
DUMMY
  2
AcDbLongTransaction
  3
DUMMY
 90
        0
280
     0
281
     0
  0
CLASS
  1
LWPOLYLINE
  2
AcDbPolyline
  3
AutoCAD 2000
 90
        0
280
     0
281
     1
  0
CLASS
  1
HATCH
  2
AcDbHatch
  3
AutoCAD 2000
 90
        0
280
     0
281
     1
  0
CLASS
  1
XRECORD
  2
AcDbXrecord
  3
AutoCAD 2000
 90
        0
280
     0
281
     0
  0
CLASS
  1
DUMMY
  2
AcDbLongTransaction
  3
DUMMY
 90
        0
280
     0
281
     0
  0
CLASS
  1
LWPOLYLINE
  2
AcDbPolyline
  3
AutoCAD 2000
 90
        0
280
     0
281
     1
  0
CLASS
  1
HATCH
  2
AcDbHatch
  3
AutoCAD 2000
 90
        0
280
     0
281
     1
  0
CLASS
  1
XRECORD
  2
AcDbXrecord
  3
AutoCAD 2000
 90
        0
280
     0
281
     0
  0
ENDSEC
  0
SECTION
  2
TABLES
  0
TABLE
  2
VPORT
  5
8
330
0
100
AcDbSymbolTable
 70
     2
  0
VPORT
  5
3290
330
8
100
AcDbSymbolTableRecord
100
AcDbViewportTableRecord
  2
*Active
 70
     0
 10
0.0
 20
0.0
 11
1.0
 21
1.0
 12
407.7820726536925
 22
300.9019495668208
 13
0.0
 23
0.0
 14
5.0
 24
5.0
 15
0.0
 25
0.0
 16
0.0
 26
0.0
 36
1.0
 17
0.0
 27
0.0
 37
0.0
 40
637.7559248499954
 41
1.651537335285505
 42
50.0
 43
0.0
 44
0.0
 50
0.0
 51
0.0
 71
     0
 72
   100
 73
     1
 74
     0
 75
     0
 76
     0
 77
     0
 78
     0
281
     0
 65
     1
110
0.0
120
0.0
130
0.0
111
1.0
121
0.0
131
0.0
112
0.0
122
1.0
132
0.0
 79
     0
146
0.0
  0
ENDTAB
  0
TABLE
  2
LTYPE
  5
5
330
0
100
AcDbSymbolTable
 70
     3
  0
LTYPE
  5
14
330
5
100
AcDbSymbolTableRecord
100
AcDbLinetypeTableRecord
  2
BYBLOCK
 70
     0
  3

 72
    65
 73
     0
 40
0.0
  0
LTYPE
  5
15
330
5
100
AcDbSymbolTableRecord
100
AcDbLinetypeTableRecord
  2
BYLAYER
 70
     0
  3

 72
    65
 73
     0
 40
0.0
  0
LTYPE
  5
16
330
5
100
AcDbSymbolTableRecord
100
AcDbLinetypeTableRecord
  2
CONTINUOUS
 70
     0
  3
Solid line
 72
    65
 73
     0
 40
0.0
  0
LTYPE
  5
135
330
5
100
AcDbSymbolTableRecord
100
AcDbLinetypeTableRecord
  2
CENTER
 70
     0
  3
____ _ ____ _ ____ _ ____ _ ____ _ ____ _ ____ 
 72
    65
 73
     4
 40
2.0
 49
1.25
 74
     0
 49
-0.25
 74
     0
 49
0.25
 74
     0
 49
-0.25
 74
     0
  0
LTYPE
  5
2935
330
5
100
AcDbSymbolTableRecord
100
AcDbLinetypeTableRecord
  2
PHANTOM
 70
     0
  3
______  __  __  ______  __  __  ______  __  __ 
 72
    65
 73
     6
 40
2.5
 49
1.25
 74
     0
 49
-0.25
 74
     0
 49
0.25
 74
     0
 49
-0.25
 74
     0
 49
0.25
 74
     0
 49
-0.25
 74
     0
  0
ENDTAB
  0
TABLE
  2
LAYER
  5
2
330
0
100
AcDbSymbolTable
 70
     8
  0
LAYER
  5
F
330
2
100
AcDbSymbolTableRecord
100
AcDbLayerTableRecord
  2
0
 70
     0
 62
     7
  6
CONTINUOUS
370
    -3
390
85E
  0
LAYER
  5
62
330
2
100
AcDbSymbolTableRecord
100
AcDbLayerTableRecord
  2
VIEWPORT
 70
     0
 62
     7
  6
CONTINUOUS
370
    -3
390
85E
  0
LAYER
  5
65
330
2
100
AcDbSymbolTableRecord
100
AcDbLayerTableRecord
  2
ZUWAKU
 70
     0
 62
     7
  6
CONTINUOUS
370
    -3
390
85E
  0
LAYER
  5
145
330
2
100
AcDbSymbolTableRecord
100
AcDbLayerTableRecord
  2
SEIHIN
 70
     0
 62
     3
  6
CONTINUOUS
370
    -3
390
85E
  0
LAYER
  5
146
330
2
100
AcDbSymbolTableRecord
100
AcDbLayerTableRecord
  2
SUNPOU
 70
     0
 62
     4
  6
CONTINUOUS
370
    -3
390
85E
  0
LAYER
  5
147
330
2
100
AcDbSymbolTableRecord
100
AcDbLayerTableRecord
  2
CENTER L
 70
     0
 62
     1
  6
CENTER
370
    -3
390
85E
  0
LAYER
  5
381
330
2
100
AcDbSymbolTableRecord
100
AcDbLayerTableRecord
  2
DEFPOINTS
 70
     0
 62
     7
  6
CONTINUOUS
290
     0
370
    -3
390
85E
  0
LAYER
  5
154D
330
2
100
AcDbSymbolTableRecord
100
AcDbLayerTableRecord
  2
MOJI
 70
     0
 62
     2
  6
CONTINUOUS
370
    -3
390
85E
  0
ENDTAB
  0
TABLE
  2
STYLE
  5
3
330
0
100
AcDbSymbolTable
 70
     2
  0
STYLE
  5
10
330
3
100
AcDbSymbolTableRecord
100
AcDbTextStyleTableRecord
  2
STANDARD
 70
     0
 40
0.0
 41
1.0
 50
0.0
 71
     0
 42
5.0
  3
TXT
  4
bigfont.shx
  0
STYLE
  5
154E
330
3
100
AcDbSymbolTableRecord
100
AcDbTextStyleTableRecord
  2
ｽﾀｲﾙ1
 70
     0
 40
0.0
 41
1.0
 50
0.0
 71
     0
 42
2.5
  3
MS PGothic.ttf
  4

1001
ACAD
1000
MS PGothic
1071
    32818
  0
ENDTAB
  0
TABLE
  2
VIEW
  5
6
330
0
100
AcDbSymbolTable
 70
     0
  0
ENDTAB
  0
TABLE
  2
UCS
  5
7
330
0
100
AcDbSymbolTable
 70
     0
  0
ENDTAB
  0
TABLE
  2
APPID
  5
9
330
0
100
AcDbSymbolTable
 70
     1
  0
APPID
  5
11
330
9
100
AcDbSymbolTableRecord
100
AcDbRegAppTableRecord
  2
ACAD
 70
     0
  0
ENDTAB
  0
TABLE
  2
DIMSTYLE
  5
A
330
0
100
AcDbSymbolTable
 70
     1
100
AcDbDimStyleTable
  0
DIMSTYLE
105
1D
102
{ACAD_REACTORS
330
306E
330
30B9
330
30C2
330
30C3
330
30C9
330
30CE
330
30FA
330
30FC
330
2F9C
330
2F9D
330
2F9F
330
2FAE
330
2FAF
330
2FFC
330
301C
330
302F
330
3047
102
}
330
A
100
AcDbSymbolTableRecord
100
AcDbDimStyleTableRecord
  2
STANDARD
 70
     0
340
10
  0
ENDTAB
  0
TABLE
  2
BLOCK_RECORD
  5
1
330
0
100
AcDbSymbolTable
 70
    18
  0
BLOCK_RECORD
  5
1A
330
1
100
AcDbSymbolTableRecord
100
AcDbBlockTableRecord
  2
*MODEL_SPACE
340
861
  0
BLOCK_RECORD
  5
17
330
1
100
AcDbSymbolTableRecord
100
AcDbBlockTableRecord
  2
*PAPER_SPACE
340
862
  0
BLOCK_RECORD
  5
6D
330
1
100
AcDbSymbolTableRecord
100
AcDbBlockTableRecord
  2
_OPEN
340
0
102
{BLKREFS
331
31E8
331
31E9
331
31F1
331
31F2
331
31FC
331
31FD
331
3205
331
3206
331
3210
331
3211
331
3219
331
321A
331
3222
331
3223
331
322D
331
322E
331
3236
331
3237
331
323F
331
3240
331
3248
331
3249
331
3251
331
3252
331
325A
331
325B
331
3263
331
3264
331
326E
331
326F
331
3279
331
327A
331
3282
331
3283
102
}
  0
BLOCK_RECORD
  5
310F
330
1
100
AcDbSymbolTableRecord
100
AcDbBlockTableRecord
  2
*D1
340
0
  0
BLOCK_RECORD
  5
311B
330
1
100
AcDbSymbolTableRecord
100
AcDbBlockTableRecord
  2
*D2
340
0
  0
BLOCK_RECORD
  5
3127
330
1
100
AcDbSymbolTableRecord
100
AcDbBlockTableRecord
  2
*D3
340
0
  0
BLOCK_RECORD
  5
3135
330
1
100
AcDbSymbolTableRecord
100
AcDbBlockTableRecord
  2
*D4
340
0
  0
BLOCK_RECORD
  5
3141
330
1
100
AcDbSymbolTableRecord
100
AcDbBlockTableRecord
  2
*D5
340
0
  0
BLOCK_RECORD
  5
314F
330
1
100
AcDbSymbolTableRecord
100
AcDbBlockTableRecord
  2
*D6
340
0
  0
BLOCK_RECORD
  5
315B
330
1
100
AcDbSymbolTableRecord
100
AcDbBlockTableRecord
  2
*D7
340
0
  0
BLOCK_RECORD
  5
3167
330
1
100
AcDbSymbolTableRecord
100
AcDbBlockTableRecord
  2
*D8
340
0
  0
BLOCK_RECORD
  5
3175
330
1
100
AcDbSymbolTableRecord
100
AcDbBlockTableRecord
  2
*D9
340
0
  0
BLOCK_RECORD
  5
3181
330
1
100
AcDbSymbolTableRecord
100
AcDbBlockTableRecord
  2
*D10
340
0
  0
BLOCK_RECORD
  5
318D
330
1
100
AcDbSymbolTableRecord
100
AcDbBlockTableRecord
  2
*D11
340
0
  0
BLOCK_RECORD
  5
3199
330
1
100
AcDbSymbolTableRecord
100
AcDbBlockTableRecord
  2
*D12
340
0
  0
BLOCK_RECORD
  5
31A5
330
1
100
AcDbSymbolTableRecord
100
AcDbBlockTableRecord
  2
*D13
340
0
  0
BLOCK_RECORD
  5
31B1
330
1
100
AcDbSymbolTableRecord
100
AcDbBlockTableRecord
  2
*D14
340
0
  0
BLOCK_RECORD
  5
31BD
330
1
100
AcDbSymbolTableRecord
100
AcDbBlockTableRecord
  2
*D15
340
0
  0
BLOCK_RECORD
  5
31CB
330
1
100
AcDbSymbolTableRecord
100
AcDbBlockTableRecord
  2
*D16
340
0
  0
BLOCK_RECORD
  5
31D9
330
1
100
AcDbSymbolTableRecord
100
AcDbBlockTableRecord
  2
*D17
340
0
  0
ENDTAB
  0
ENDSEC
  0
SECTION
  2
BLOCKS
  0
BLOCK
  5
1B
330
1A
100
AcDbEntity
  8
0
100
AcDbBlockBegin
  2
*MODEL_SPACE
 70
     0
 71
     0
 10
0.0
 20
0.0
 30
0.0
  3
*MODEL_SPACE
  1

  0
ENDBLK
  5
1C
330
1A
100
AcDbEntity
  8
0
100
AcDbBlockEnd
  0
BLOCK
  5
18
330
17
100
AcDbEntity
 67
     1
  8
0
100
AcDbBlockBegin
  2
*PAPER_SPACE
 70
     0
 71
     0
 10
0.0
 20
0.0
 30
0.0
  3
*PAPER_SPACE
  1

  0
ENDBLK
  5
19
330
17
100
AcDbEntity
 67
     1
  8
0
100
AcDbBlockEnd
  0
BLOCK
  5
6E
330
6D
100
AcDbEntity
  8
0
100
AcDbBlockBegin
  2
_OPEN
 70
     0
 71
     0
 10
0.0
 20
0.0
 30
0.0
  3
_OPEN
  1

  0
LINE
  5
6F
330
6D
100
AcDbEntity
  8
0
  6
ByBlock
 62
     0
100
AcDbLine
 10
-1.0
 20
0.1666666666666667
 30
0.0
 11
0.0
 21
0.0
 31
0.0
  0
LINE
  5
70
330
6D
100
AcDbEntity
  8
0
  6
ByBlock
 62
     0
100
AcDbLine
 10
0.0
 20
0.0
 30
0.0
 11
-1.0
 21
-0.1666666666666667
 31
0.0
  0
LINE
  5
71
330
6D
100
AcDbEntity
  8
0
  6
ByBlock
 62
     0
100
AcDbLine
 10
0.0
 20
0.0
 30
0.0
 11
-1.0
 21
0.0
 31
0.0
  0
ENDBLK
  5
72
330
6D
100
AcDbEntity
  8
0
100
AcDbBlockEnd
  0
BLOCK
  5
3119
330
310F
100
AcDbEntity
  8
0
100
AcDbBlockBegin
  2
*D1
 70
     1
 71
     0
 10
0.0
 20
0.0
 30
0.0
  3
*D1
  1

  0
LINE
  5
31E5
330
310F
100
AcDbEntity
  8
SUNPOU
 62
     4
370
    -2
100
AcDbLine
 10
218.4706824516331
 20
387.1006405817371
 30
0.0
 11
196.3551436745987
 21
387.1006405817371
 31
0.0
  0
LINE
  5
31E6
330
310F
100
AcDbEntity
  8
SUNPOU
 62
     4
370
    -2
100
AcDbLine
 10
218.4706824516331
 20
367.1006405817371
 30
0.0
 11
196.3551436745987
 21
367.1006405817371
 31
0.0
  0
LINE
  5
31E7
330
310F
100
AcDbEntity
  8
SUNPOU
 62
     4
370
    -2
100
AcDbLine
 10
199.3551436745987
 20
380.1006405817371
 30
0.0
 11
199.3551436745987
 21
374.1006405817371
 31
0.0
  0
INSERT
  5
31E8
330
310F
100
AcDbEntity
  8
SUNPOU
 62
     4
370
    -2
100
AcDbBlockReference
  2
_OPEN
 10
199.3551436745987
 20
387.1006405817371
 30
0.0
 41
7.0
 42
7.0
 43
7.0
 50
90.0
  0
INSERT
  5
31E9
330
310F
100
AcDbEntity
  8
SUNPOU
 62
     4
370
    -2
100
AcDbBlockReference
  2
_OPEN
 10
199.3551436745987
 20
367.1006405817371
 30
0.0
 41
7.0
 42
7.0
 43
7.0
 50
270.0
  0
MTEXT
  5
31EA
330
310F
100
AcDbEntity
  8
SUNPOU
 62
     4
100
AcDbMText
 10
194.3551436745987
 20
377.1006405817372
 30
0.0
 40
6.0
 41
0.0
 71
     5
 72
     1
  1
\A1;20
 11
6.123031769111886E-17
 21
1.0
 31
0.0
 73
     1
 44
1.0
  0
POINT
  5
31EB
330
310F
100
AcDbEntity
  8
DEFPOINTS
 62
     0
100
AcDbPoint
 10
224.4706824516331
 20
387.1006405817371
 30
0.0
  0
POINT
  5
31EC
330
310F
100
AcDbEntity
  8
DEFPOINTS
 62
     0
100
AcDbPoint
 10
224.4706824516331
 20
367.1006405817371
 30
0.0
  0
POINT
  5
31ED
330
310F
100
AcDbEntity
  8
DEFPOINTS
 62
     0
100
AcDbPoint
 10
199.3551436745987
 20
367.1006405817371
 30
0.0
  0
ENDBLK
  5
311A
330
310F
100
AcDbEntity
  8
0
100
AcDbBlockEnd
  0
BLOCK
  5
3125
330
311B
100
AcDbEntity
  8
0
100
AcDbBlockBegin
  2
*D2
 70
     1
 71
     0
 10
0.0
 20
0.0
 30
0.0
  3
*D2
  1

  0
LINE
  5
31EE
330
311B
100
AcDbEntity
  8
SUNPOU
 62
     4
370
    -2
100
AcDbLine
 10
594.0443554044047
 20
322.9169757595806
 30
0.0
 11
574.9270257903946
 21
370.7137096046641
 31
0.0
  0
LINE
  5
31EF
330
311B
100
AcDbEntity
  8
SUNPOU
 62
     4
370
    -2
100
AcDbLine
 10
525.3364042152168
 20
295.4357559288635
 30
0.0
 11
506.2190746012068
 21
343.2324897739471
 31
0.0
  0
LINE
  5
31F0
330
311B
100
AcDbEntity
  8
SUNPOU
 62
     4
370
    -2
100
AcDbLine
 10
569.5417285088789
 20
365.3286772751698
 30
0.0
 11
513.8325788960239
 21
343.046607142156
 31
0.0
  0
INSERT
  5
31F1
330
311B
100
AcDbEntity
  8
SUNPOU
 62
     4
370
    -2
100
AcDbBlockReference
  2
_OPEN
 10
576.0411292970454
 20
367.9282521240214
 30
0.0
 41
7.0
 42
7.0
 43
7.0
 50
21.79999999999973
  0
INSERT
  5
31F2
330
311B
100
AcDbEntity
  8
SUNPOU
 62
     4
370
    -2
100
AcDbBlockReference
  2
_OPEN
 10
507.3331781078575
 20
340.4470322933044
 30
0.0
 41
7.0
 42
7.0
 43
7.0
 50
201.7999999999997
  0
MTEXT
  5
31F3
330
311B
100
AcDbEntity
  8
SUNPOU
 62
     4
100
AcDbMText
 10
539.8303145247002
 20
358.8300713430675
 30
0.0
 40
6.0
 41
0.0
 71
     5
 72
     1
  1
\A1;74
 11
0.9284858268809153
 21
0.3713678355502306
 31
0.0
 73
     1
 44
1.0
  0
POINT
  5
31F4
330
311B
100
AcDbEntity
  8
DEFPOINTS
 62
     0
100
AcDbPoint
 10
596.2725624177061
 20
317.3460607982951
 30
0.0
  0
POINT
  5
31F5
330
311B
100
AcDbEntity
  8
DEFPOINTS
 62
     0
100
AcDbPoint
 10
527.5646112285183
 20
289.864840967578
 30
0.0
  0
POINT
  5
31F6
330
311B
100
AcDbEntity
  8
DEFPOINTS
 62
     0
100
AcDbPoint
 10
507.3331781078575
 20
340.4470322933044
 30
0.0
  0
ENDBLK
  5
3126
330
311B
100
AcDbEntity
  8
0
100
AcDbBlockEnd
  0
BLOCK
  5
3133
330
3127
100
AcDbEntity
  8
0
100
AcDbBlockBegin
  2
*D3
 70
     1
 71
     0
 10
0.0
 20
0.0
 30
0.0
  3
*D3
  1

  0
LINE
  5
31F7
330
3127
100
AcDbEntity
  8
SUNPOU
 62
     4
370
    -2
100
AcDbLine
 10
523.247152133522
 20
288.1379805322694
 30
0.0
 11
488.7456991085043
 21
274.3383838531457
 31
0.0
  0
LINE
  5
31F8
330
3127
100
AcDbEntity
  8
SUNPOU
 62
     4
370
    -2
100
AcDbLine
 10
527.5648761805398
 20
300.6351705785881
 30
0.0
 11
485.0320207530019
 21
283.6232421219547
 31
0.0
  0
LINE
  5
31F9
330
3127
100
AcDbEntity
  8
SUNPOU
 62
     4
370
    -2
100
AcDbLine
 10
494.1307314379988
 20
268.95308657163
 30
0.0
 11
496.7303062868505
 21
262.4536857834637
 31
0.0
  0
LINE
  5
31FA
330
3127
100
AcDbEntity
  8
SUNPOU
 62
     4
370
    -2
100
AcDbLine
 10
485.217903384793
 20
291.2367464167718
 30
0.0
 11
478.5332823448886
 21
307.9494913006282
 31
0.0
  0
LINE
  5
31FB
330
3127
100
AcDbEntity
  8
SUNPOU
 62
     4
370
    -2
100
AcDbLine
 10
491.531156589147
 20
275.4524873597964
 30
0.0
 11
487.8174782336447
 21
284.7373456286054
 31
0.0
  0
INSERT
  5
31FC
330
3127
100
AcDbEntity
  8
SUNPOU
 62
     4
370
    -2
100
AcDbBlockReference
  2
_OPEN
 10
491.531156589147
 20
275.4524873597964
 30
0.0
 41
7.0
 42
7.0
 43
7.0
 50
111.8000000000005
  0
INSERT
  5
31FD
330
3127
100
AcDbEntity
  8
SUNPOU
 62
     4
370
    -2
100
AcDbBlockReference
  2
_OPEN
 10
487.8174782336447
 20
284.7373456286054
 30
0.0
 41
7.0
 42
7.0
 43
7.0
 50
291.8000000000005
  0
MTEXT
  5
31FE
330
3127
100
AcDbEntity
  8
SUNPOU
 62
     4
100
AcDbMText
 10
485.2182345748194
 20
304.6996584305344
 30
0.0
 40
6.0
 41
0.0
 71
     5
 72
     1
  1
\A1;10
 11
0.3713678355502434
 21
-0.9284858268809101
 31
0.0
 73
     1
 44
1.0
  0
POINT
  5
31FF
330
3127
100
AcDbEntity
  8
DEFPOINTS
 62
     0
100
AcDbPoint
 10
528.8180670948075
 20
290.3661875455709
 30
0.0
  0
POINT
  5
3200
330
3127
100
AcDbEntity
  8
DEFPOINTS
 62
     0
100
AcDbPoint
 10
533.1357911418253
 20
302.8633775918896
 30
0.0
  0
POINT
  5
3201
330
3127
100
AcDbEntity
  8
DEFPOINTS
 62
     0
100
AcDbPoint
 10
487.8174782336447
 20
284.7373456286054
 30
0.0
  0
ENDBLK
  5
3134
330
3127
100
AcDbEntity
  8
0
100
AcDbBlockEnd
  0
BLOCK
  5
313F
330
3135
100
AcDbEntity
  8
0
100
AcDbBlockBegin
  2
*D4
 70
     1
 71
     0
 10
0.0
 20
0.0
 30
0.0
  3
*D4
  1

  0
LINE
  5
3202
330
3135
100
AcDbEntity
  8
SUNPOU
 62
     4
370
    -2
100
AcDbLine
 10
527.5648761805398
 20
300.6351705785881
 30
0.0
 11
469.4131613061514
 21
277.3761440418196
 31
0.0
  0
LINE
  5
3203
330
3135
100
AcDbEntity
  8
SUNPOU
 62
     4
370
    -2
100
AcDbLine
 10
546.1332679580513
 20
254.2108792345423
 30
0.0
 11
487.9815530836635
 21
230.9518526977741
 31
0.0
  0
LINE
  5
3204
330
3135
100
AcDbEntity
  8
SUNPOU
 62
     4
370
    -2
100
AcDbLine
 10
474.7981936356458
 20
271.990846760304
 30
0.0
 11
488.1674357154545
 21
238.5653569925912
 31
0.0
  0
INSERT
  5
3205
330
3135
100
AcDbEntity
  8
SUNPOU
 62
     4
370
    -2
100
AcDbBlockReference
  2
_OPEN
 10
472.1986187867941
 20
278.4902475484703
 30
0.0
 41
7.0
 42
7.0
 43
7.0
 50
111.8000000000005
  0
INSERT
  5
3206
330
3135
100
AcDbEntity
  8
SUNPOU
 62
     4
370
    -2
100
AcDbBlockReference
  2
_OPEN
 10
490.7670105643063
 20
232.0659562044248
 30
0.0
 41
7.0
 42
7.0
 43
7.0
 50
291.8000000000005
  0
MTEXT
  5
3207
330
3135
100
AcDbEntity
  8
SUNPOU
 62
     4
100
AcDbMText
 10
486.1252438099547
 20
257.1349410541988
 30
0.0
 40
6.0
 41
0.0
 71
     5
 72
     1
  1
\A1;50
 11
0.3713678355502434
 21
-0.9284858268809101
 31
0.0
 73
     1
 44
1.0
  0
POINT
  5
3208
330
3135
100
AcDbEntity
  8
DEFPOINTS
 62
     0
100
AcDbPoint
 10
533.1357911418253
 20
302.8633775918896
 30
0.0
  0
POINT
  5
3209
330
3135
100
AcDbEntity
  8
DEFPOINTS
 62
     0
100
AcDbPoint
 10
551.7041829193367
 20
256.4390862478438
 30
0.0
  0
POINT
  5
320A
330
3135
100
AcDbEntity
  8
DEFPOINTS
 62
     0
100
AcDbPoint
 10
490.7670105643063
 20
232.0659562044248
 30
0.0
  0
ENDBLK
  5
3140
330
3135
100
AcDbEntity
  8
0
100
AcDbBlockEnd
  0
BLOCK
  5
314D
330
3141
100
AcDbEntity
  8
0
100
AcDbBlockBegin
  2
*D5
 70
     1
 71
     0
 10
0.0
 20
0.0
 30
0.0
  3
*D5
  1

  0
LINE
  5
320B
330
3141
100
AcDbEntity
  8
SUNPOU
 62
     4
370
    -2
100
AcDbLine
 10
536.2451588537908
 20
261.0261413969424
 30
0.0
 11
499.8867341750113
 21
246.4838090467183
 31
0.0
  0
LINE
  5
320C
330
3141
100
AcDbEntity
  8
SUNPOU
 62
     4
370
    -2
100
AcDbLine
 10
546.1332679580513
 20
254.2108792345423
 30
0.0
 11
503.6004125305137
 21
237.198950777909
 31
0.0
  0
LINE
  5
320D
330
3141
100
AcDbEntity
  8
SUNPOU
 62
     4
370
    -2
100
AcDbLine
 10
500.0726168068023
 20
254.0973133415354
 30
0.0
 11
497.4730419579506
 21
260.5967141297018
 31
0.0
  0
LINE
  5
320E
330
3141
100
AcDbEntity
  8
SUNPOU
 62
     4
370
    -2
100
AcDbLine
 10
508.9854448600082
 20
231.8136534963934
 30
0.0
 11
515.6700658999126
 21
215.100908612537
 31
0.0
  0
LINE
  5
320F
330
3141
100
AcDbEntity
  8
SUNPOU
 62
     4
370
    -2
100
AcDbLine
 10
502.6721916556541
 20
247.597912553369
 30
0.0
 11
506.3858700111565
 21
238.3130542845598
 31
0.0
  0
INSERT
  5
3210
330
3141
100
AcDbEntity
  8
SUNPOU
 62
     4
370
    -2
100
AcDbBlockReference
  2
_OPEN
 10
502.6721916556541
 20
247.597912553369
 30
0.0
 41
7.0
 42
7.0
 43
7.0
 50
291.8000000000005
  0
INSERT
  5
3211
330
3141
100
AcDbEntity
  8
SUNPOU
 62
     4
370
    -2
100
AcDbBlockReference
  2
_OPEN
 10
506.3858700111565
 20
238.3130542845598
 30
0.0
 41
7.0
 42
7.0
 43
7.0
 50
111.8000000000005
  0
MTEXT
  5
3212
330
3141
100
AcDbEntity
  8
SUNPOU
 62
     4
100
AcDbMText
 10
518.2699719387907
 20
222.0644198381333
 30
0.0
 40
6.0
 41
0.0
 71
     5
 72
     1
  1
\A1;10
 11
0.3713678355502434
 21
-0.9284858268809101
 31
0.0
 73
     1
 44
1.0
  0
POINT
  5
3213
330
3141
100
AcDbEntity
  8
DEFPOINTS
 62
     0
100
AcDbPoint
 10
541.8160738150763
 20
263.2543484102439
 30
0.0
  0
POINT
  5
3214
330
3141
100
AcDbEntity
  8
DEFPOINTS
 62
     0
100
AcDbPoint
 10
551.7041829193367
 20
256.4390862478438
 30
0.0
  0
POINT
  5
3215
330
3141
100
AcDbEntity
  8
DEFPOINTS
 62
     0
100
AcDbPoint
 10
506.3858700111565
 20
238.3130542845598
 30
0.0
  0
ENDBLK
  5
314E
330
3141
100
AcDbEntity
  8
0
100
AcDbBlockEnd
  0
BLOCK
  5
3159
330
314F
100
AcDbEntity
  8
0
100
AcDbBlockBegin
  2
*D6
 70
     1
 71
     0
 10
0.0
 20
0.0
 30
0.0
  3
*D6
  1

  0
LINE
  5
3216
330
314F
100
AcDbEntity
  8
SUNPOU
 62
     4
370
    -2
100
AcDbLine
 10
602.5479833394487
 20
273.3825350951062
 30
0.0
 11
613.3068845304134
 21
246.483363135795
 31
0.0
  0
LINE
  5
3217
330
314F
100
AcDbEntity
  8
SUNPOU
 62
     4
370
    -2
100
AcDbLine
 10
553.3382345147605
 20
253.7000398109439
 30
0.0
 11
564.0971357057251
 21
226.8008678516328
 31
0.0
  0
LINE
  5
3218
330
314F
100
AcDbEntity
  8
SUNPOU
 62
     4
370
    -2
100
AcDbLine
 10
605.6933802355964
 20
246.6692457675861
 30
0.0
 11
569.4824329872408
 21
232.1859001811272
 31
0.0
  0
INSERT
  5
3219
330
314F
100
AcDbEntity
  8
SUNPOU
 62
     4
370
    -2
100
AcDbBlockReference
  2
_OPEN
 10
612.1927810237627
 20
249.2688206164377
 30
0.0
 41
7.0
 42
7.0
 43
7.0
 50
21.79999999999973
  0
INSERT
  5
321A
330
314F
100
AcDbEntity
  8
SUNPOU
 62
     4
370
    -2
100
AcDbBlockReference
  2
_OPEN
 10
562.9830321990744
 20
229.5863253322756
 30
0.0
 41
7.0
 42
7.0
 43
7.0
 50
201.7999999999997
  0
MTEXT
  5
321B
330
314F
100
AcDbEntity
  8
SUNPOU
 62
     4
100
AcDbMText
 10
585.6479226702319
 20
244.0367465759998
 30
0.0
 40
6.0
 41
0.0
 71
     5
 72
     1
  1
\A1;53
 11
0.9284858268809153
 21
0.3713678355502306
 31
0.0
 73
     1
 44
1.0
  0
POINT
  5
321C
330
314F
100
AcDbEntity
  8
DEFPOINTS
 62
     0
100
AcDbPoint
 10
600.3197763261474
 20
278.9534500563917
 30
0.0
  0
POINT
  5
321D
330
314F
100
AcDbEntity
  8
DEFPOINTS
 62
     0
100
AcDbPoint
 10
551.1100275014591
 20
259.2709547722295
 30
0.0
  0
POINT
  5
321E
330
314F
100
AcDbEntity
  8
DEFPOINTS
 62
     0
100
AcDbPoint
 10
562.9830321990744
 20
229.5863253322756
 30
0.0
  0
ENDBLK
  5
315A
330
314F
100
AcDbEntity
  8
0
100
AcDbBlockEnd
  0
BLOCK
  5
3165
330
315B
100
AcDbEntity
  8
0
100
AcDbBlockBegin
  2
*D7
 70
     1
 71
     0
 10
0.0
 20
0.0
 30
0.0
  3
*D7
  1

  0
LINE
  5
321F
330
315B
100
AcDbEntity
  8
SUNPOU
 62
     4
370
    -2
100
AcDbLine
 10
530.5732537195207
 20
305.2310561932391
 30
0.0
 11
520.2837678994745
 21
330.9566059992692
 31
0.0
  0
LINE
  5
3220
330
315B
100
AcDbEntity
  8
SUNPOU
 62
     4
370
    -2
100
AcDbLine
 10
583.4969458517327
 20
326.3990228196022
 30
0.0
 11
573.2074600316864
 21
352.1245726256323
 31
0.0
  0
LINE
  5
3221
330
315B
100
AcDbEntity
  8
SUNPOU
 62
     4
370
    -2
100
AcDbLine
 10
527.8972721942915
 20
330.7707233674781
 30
0.0
 11
567.8221627501707
 21
346.7395402961379
 31
0.0
  0
INSERT
  5
3222
330
315B
100
AcDbEntity
  8
SUNPOU
 62
     4
370
    -2
100
AcDbBlockReference
  2
_OPEN
 10
521.3978714061252
 20
328.1711485186265
 30
0.0
 41
7.0
 42
7.0
 43
7.0
 50
201.7999999999997
  0
INSERT
  5
3223
330
315B
100
AcDbEntity
  8
SUNPOU
 62
     4
370
    -2
100
AcDbBlockReference
  2
_OPEN
 10
574.3215635383372
 20
349.3391151449895
 30
0.0
 41
7.0
 42
7.0
 43
7.0
 50
21.79999999999974
  0
MTEXT
  5
3224
330
315B
100
AcDbEntity
  8
SUNPOU
 62
     4
100
AcDbMText
 10
545.9197335310445
 20
343.3643054334513
 30
0.0
 40
6.0
 41
0.0
 71
     5
 72
     1
  1
\A1;57
 11
0.9284858268809153
 21
0.3713678355502306
 31
0.0
 73
     1
 44
1.0
  0
POINT
  5
3225
330
315B
100
AcDbEntity
  8
DEFPOINTS
 62
     0
100
AcDbPoint
 10
532.8014607328221
 20
299.6601412319536
 30
0.0
  0
POINT
  5
3226
330
315B
100
AcDbEntity
  8
DEFPOINTS
 62
     0
100
AcDbPoint
 10
585.725152865034
 20
320.8281078583167
 30
0.0
  0
POINT
  5
3227
330
315B
100
AcDbEntity
  8
DEFPOINTS
 62
     0
100
AcDbPoint
 10
574.3215635383372
 20
349.3391151449895
 30
0.0
  0
ENDBLK
  5
3166
330
315B
100
AcDbEntity
  8
0
100
AcDbBlockEnd
  0
BLOCK
  5
3173
330
3167
100
AcDbEntity
  8
0
100
AcDbBlockBegin
  2
*D8
 70
     1
 71
     0
 10
0.0
 20
0.0
 30
0.0
  3
*D8
  1

  0
LINE
  5
3228
330
3167
100
AcDbEntity
  8
SUNPOU
 62
     4
370
    -2
100
AcDbLine
 10
588.84494075468
 20
325.1454477249035
 30
0.0
 11
625.5325249134991
 21
339.8194344742731
 31
0.0
  0
LINE
  5
3229
330
3167
100
AcDbEntity
  8
SUNPOU
 62
     4
370
    -2
100
AcDbLine
 10
603.6260297420315
 20
314.5790193620178
 30
0.0
 11
631.2144527974178
 21
325.6136013229951
 31
0.0
  0
LINE
  5
322A
330
3167
100
AcDbEntity
  8
SUNPOU
 62
     4
370
    -2
100
AcDbLine
 10
620.1474925840046
 20
345.2047317557888
 30
0.0
 11
617.5479177351529
 21
351.7041325439551
 31
0.0
  0
LINE
  5
322B
330
3167
100
AcDbEntity
  8
SUNPOU
 62
     4
370
    -2
100
AcDbLine
 10
631.0285701656268
 20
318.000097028178
 30
0.0
 11
633.6281450144785
 21
311.5006962400116
 31
0.0
  0
LINE
  5
322C
330
3167
100
AcDbEntity
  8
SUNPOU
 62
     4
370
    -2
100
AcDbLine
 10
622.7470674328563
 20
338.7053309676224
 30
0.0
 11
628.4289953167751
 21
324.4994978163444
 31
0.0
  0
INSERT
  5
322D
330
3167
100
AcDbEntity
  8
SUNPOU
 62
     4
370
    -2
100
AcDbBlockReference
  2
_OPEN
 10
622.7470674328563
 20
338.7053309676224
 30
0.0
 41
7.0
 42
7.0
 43
7.0
 50
291.8000000000005
  0
INSERT
  5
322E
330
3167
100
AcDbEntity
  8
SUNPOU
 62
     4
370
    -2
100
AcDbBlockReference
  2
_OPEN
 10
628.4289953167751
 20
324.4994978163444
 30
0.0
 41
7.0
 42
7.0
 43
7.0
 50
111.8000000000005
  0
MTEXT
  5
322F
330
3167
100
AcDbEntity
  8
SUNPOU
 62
     4
100
AcDbMText
 10
630.2304605092202
 20
333.4592535697346
 30
0.0
 40
6.0
 41
0.0
 71
     5
 72
     1
  1
\A1;15
 11
0.3713678355502434
 21
-0.9284858268809101
 31
0.0
 73
     1
 44
1.0
  0
POINT
  5
3230
330
3167
100
AcDbEntity
  8
DEFPOINTS
 62
     0
100
AcDbPoint
 10
583.2740257933946
 20
322.917240711602
 30
0.0
  0
POINT
  5
3231
330
3167
100
AcDbEntity
  8
DEFPOINTS
 62
     0
100
AcDbPoint
 10
598.0551147807461
 20
312.3508123487163
 30
0.0
  0
POINT
  5
3232
330
3167
100
AcDbEntity
  8
DEFPOINTS
 62
     0
100
AcDbPoint
 10
628.4289953167751
 20
324.4994978163444
 30
0.0
  0
ENDBLK
  5
3174
330
3167
100
AcDbEntity
  8
0
100
AcDbBlockEnd
  0
BLOCK
  5
317F
330
3175
100
AcDbEntity
  8
0
100
AcDbBlockBegin
  2
*D9
 70
     1
 71
     0
 10
0.0
 20
0.0
 30
0.0
  3
*D9
  1

  0
LINE
  5
3233
330
3175
100
AcDbEntity
  8
SUNPOU
 62
     4
370
    -2
100
AcDbLine
 10
354.0846469892332
 20
393.6006405817371
 30
0.0
 11
409.6061160028261
 21
393.6006405817371
 31
0.0
  0
LINE
  5
3234
330
3175
100
AcDbEntity
  8
SUNPOU
 62
     4
370
    -2
100
AcDbLine
 10
354.0846469892332
 20
360.6006405817371
 30
0.0
 11
409.6061160028261
 21
360.6006405817371
 31
0.0
  0
LINE
  5
3235
330
3175
100
AcDbEntity
  8
SUNPOU
 62
     4
370
    -2
100
AcDbLine
 10
406.6061160028261
 20
386.6006405817371
 30
0.0
 11
406.6061160028261
 21
367.6006405817371
 31
0.0
  0
INSERT
  5
3236
330
3175
100
AcDbEntity
  8
SUNPOU
 62
     4
370
    -2
100
AcDbBlockReference
  2
_OPEN
 10
406.6061160028261
 20
393.6006405817371
 30
0.0
 41
7.0
 42
7.0
 43
7.0
 50
90.0
  0
INSERT
  5
3237
330
3175
100
AcDbEntity
  8
SUNPOU
 62
     4
370
    -2
100
AcDbBlockReference
  2
_OPEN
 10
406.6061160028261
 20
360.6006405817371
 30
0.0
 41
7.0
 42
7.0
 43
7.0
 50
270.0
  0
MTEXT
  5
3238
330
3175
100
AcDbEntity
  8
SUNPOU
 62
     4
100
AcDbMText
 10
401.606116002826
 20
377.1006405817372
 30
0.0
 40
6.0
 41
0.0
 71
     5
 72
     1
  1
\A1;33
 11
6.123031769111886E-17
 21
1.0
 31
0.0
 73
     1
 44
1.0
  0
POINT
  5
3239
330
3175
100
AcDbEntity
  8
DEFPOINTS
 62
     0
100
AcDbPoint
 10
348.0846469892332
 20
393.6006405817371
 30
0.0
  0
POINT
  5
323A
330
3175
100
AcDbEntity
  8
DEFPOINTS
 62
     0
100
AcDbPoint
 10
348.0846469892332
 20
360.6006405817371
 30
0.0
  0
POINT
  5
323B
330
3175
100
AcDbEntity
  8
DEFPOINTS
 62
     0
100
AcDbPoint
 10
406.6061160028261
 20
360.6006405817371
 30
0.0
  0
ENDBLK
  5
3180
330
3175
100
AcDbEntity
  8
0
100
AcDbBlockEnd
  0
BLOCK
  5
318B
330
3181
100
AcDbEntity
  8
0
100
AcDbBlockBegin
  2
*D10
 70
     1
 71
     0
 10
0.0
 20
0.0
 30
0.0
  3
*D10
  1

  0
LINE
  5
323C
330
3181
100
AcDbEntity
  8
SUNPOU
 62
     4
370
    -2
100
AcDbLine
 10
377.5102753725297
 20
414.1006405817371
 30
0.0
 11
428.0370249011129
 21
414.1006405817371
 31
0.0
  0
LINE
  5
323D
330
3181
100
AcDbEntity
  8
SUNPOU
 62
     4
370
    -2
100
AcDbLine
 10
377.5102753725297
 20
340.1006405817371
 30
0.0
 11
428.0370249011129
 21
340.1006405817371
 31
0.0
  0
LINE
  5
323E
330
3181
100
AcDbEntity
  8
SUNPOU
 62
     4
370
    -2
100
AcDbLine
 10
425.0370249011129
 20
407.1006405817371
 30
0.0
 11
425.0370249011129
 21
347.1006405817371
 31
0.0
  0
INSERT
  5
323F
330
3181
100
AcDbEntity
  8
SUNPOU
 62
     4
370
    -2
100
AcDbBlockReference
  2
_OPEN
 10
425.0370249011129
 20
414.1006405817371
 30
0.0
 41
7.0
 42
7.0
 43
7.0
 50
90.0
  0
INSERT
  5
3240
330
3181
100
AcDbEntity
  8
SUNPOU
 62
     4
370
    -2
100
AcDbBlockReference
  2
_OPEN
 10
425.0370249011129
 20
340.1006405817371
 30
0.0
 41
7.0
 42
7.0
 43
7.0
 50
270.0
  0
MTEXT
  5
3241
330
3181
100
AcDbEntity
  8
SUNPOU
 62
     4
100
AcDbMText
 10
420.0370249011128
 20
377.1006405817372
 30
0.0
 40
6.0
 41
0.0
 71
     5
 72
     1
  1
\A1;74
 11
6.123031769111886E-17
 21
1.0
 31
0.0
 73
     1
 44
1.0
  0
POINT
  5
3242
330
3181
100
AcDbEntity
  8
DEFPOINTS
 62
     0
100
AcDbPoint
 10
371.5102753725297
 20
414.1006405817371
 30
0.0
  0
POINT
  5
3243
330
3181
100
AcDbEntity
  8
DEFPOINTS
 62
     0
100
AcDbPoint
 10
371.5102753725297
 20
340.1006405817371
 30
0.0
  0
POINT
  5
3244
330
3181
100
AcDbEntity
  8
DEFPOINTS
 62
     0
100
AcDbPoint
 10
425.0370249011129
 20
340.1006405817371
 30
0.0
  0
ENDBLK
  5
318C
330
3181
100
AcDbEntity
  8
0
100
AcDbBlockEnd
  0
BLOCK
  5
3197
330
318D
100
AcDbEntity
  8
0
100
AcDbBlockBegin
  2
*D11
 70
     1
 71
     0
 10
0.0
 20
0.0
 30
0.0
  3
*D11
  1

  0
LINE
  5
3245
330
318D
100
AcDbEntity
  8
SUNPOU
 62
     4
370
    -2
100
AcDbLine
 10
356.6555619505332
 20
238.2763219419232
 30
0.0
 11
356.6555619505332
 21
292.424325350638
 31
0.0
  0
LINE
  5
3246
330
318D
100
AcDbEntity
  8
SUNPOU
 62
     4
370
    -2
100
AcDbLine
 10
224.6985301077332
 20
233.2355030630232
 30
0.0
 11
224.6985301077332
 21
292.424325350638
 31
0.0
  0
LINE
  5
3247
330
318D
100
AcDbEntity
  8
SUNPOU
 62
     4
370
    -2
100
AcDbLine
 10
349.6555619505332
 20
289.424325350638
 30
0.0
 11
231.6985301077332
 21
289.424325350638
 31
0.0
  0
INSERT
  5
3248
330
318D
100
AcDbEntity
  8
SUNPOU
 62
     4
370
    -2
100
AcDbBlockReference
  2
_OPEN
 10
356.6555619505332
 20
289.424325350638
 30
0.0
 41
7.0
 42
7.0
 43
7.0
  0
INSERT
  5
3249
330
318D
100
AcDbEntity
  8
SUNPOU
 62
     4
370
    -2
100
AcDbBlockReference
  2
_OPEN
 10
224.6985301077332
 20
289.424325350638
 30
0.0
 41
7.0
 42
7.0
 43
7.0
 50
180.0
  0
MTEXT
  5
324A
330
318D
100
AcDbEntity
  8
SUNPOU
 62
     4
100
AcDbMText
 10
290.6770460291332
 20
294.424325350638
 30
0.0
 40
6.0
 41
0.0
 71
     5
 72
     1
  1
\A1;132
 73
     1
 44
1.0
  0
POINT
  5
324B
330
318D
100
AcDbEntity
  8
DEFPOINTS
 62
     0
100
AcDbPoint
 10
356.6555619505332
 20
232.2763219419232
 30
0.0
  0
POINT
  5
324C
330
318D
100
AcDbEntity
  8
DEFPOINTS
 62
     0
100
AcDbPoint
 10
224.6985301077332
 20
227.2355030630232
 30
0.0
  0
POINT
  5
324D
330
318D
100
AcDbEntity
  8
DEFPOINTS
 62
     0
100
AcDbPoint
 10
224.6985301077332
 20
289.424325350638
 30
0.0
  0
ENDBLK
  5
3198
330
318D
100
AcDbEntity
  8
0
100
AcDbBlockEnd
  0
BLOCK
  5
31A3
330
3199
100
AcDbEntity
  8
0
100
AcDbBlockBegin
  2
*D12
 70
     1
 71
     0
 10
0.0
 20
0.0
 30
0.0
  3
*D12
  1

  0
LINE
  5
324E
330
3199
100
AcDbEntity
  8
SUNPOU
 62
     4
370
    -2
100
AcDbLine
 10
356.6555619505332
 20
238.2763219419232
 30
0.0
 11
356.6555619505332
 21
278.1857285718728
 31
0.0
  0
LINE
  5
324F
330
3199
100
AcDbEntity
  8
SUNPOU
 62
     4
370
    -2
100
AcDbLine
 10
257.6555619505332
 20
216.1831671068232
 30
0.0
 11
257.6555619505332
 21
278.1857285718728
 31
0.0
  0
LINE
  5
3250
330
3199
100
AcDbEntity
  8
SUNPOU
 62
     4
370
    -2
100
AcDbLine
 10
349.6555619505332
 20
275.1857285718728
 30
0.0
 11
264.6555619505332
 21
275.1857285718728
 31
0.0
  0
INSERT
  5
3251
330
3199
100
AcDbEntity
  8
SUNPOU
 62
     4
370
    -2
100
AcDbBlockReference
  2
_OPEN
 10
356.6555619505332
 20
275.1857285718728
 30
0.0
 41
7.0
 42
7.0
 43
7.0
  0
INSERT
  5
3252
330
3199
100
AcDbEntity
  8
SUNPOU
 62
     4
370
    -2
100
AcDbBlockReference
  2
_OPEN
 10
257.6555619505332
 20
275.1857285718728
 30
0.0
 41
7.0
 42
7.0
 43
7.0
 50
180.0
  0
MTEXT
  5
3253
330
3199
100
AcDbEntity
  8
SUNPOU
 62
     4
100
AcDbMText
 10
307.1555619505332
 20
280.1857285718728
 30
0.0
 40
6.0
 41
0.0
 71
     5
 72
     1
  1
\A1;99
 73
     1
 44
1.0
  0
POINT
  5
3254
330
3199
100
AcDbEntity
  8
DEFPOINTS
 62
     0
100
AcDbPoint
 10
356.6555619505332
 20
232.2763219419232
 30
0.0
  0
POINT
  5
3255
330
3199
100
AcDbEntity
  8
DEFPOINTS
 62
     0
100
AcDbPoint
 10
257.6555619505332
 20
210.1831671068232
 30
0.0
  0
POINT
  5
3256
330
3199
100
AcDbEntity
  8
DEFPOINTS
 62
     0
100
AcDbPoint
 10
257.6555619505332
 20
275.1857285718728
 30
0.0
  0
ENDBLK
  5
31A4
330
3199
100
AcDbEntity
  8
0
100
AcDbBlockEnd
  0
BLOCK
  5
31AF
330
31A5
100
AcDbEntity
  8
0
100
AcDbBlockBegin
  2
*D13
 70
     1
 71
     0
 10
0.0
 20
0.0
 30
0.0
  3
*D13
  1

  0
LINE
  5
3257
330
31A5
100
AcDbEntity
  8
SUNPOU
 62
     4
370
    -2
100
AcDbLine
 10
219.7233927209331
 20
228.1831671068232
 30
0.0
 11
196.4689680812598
 21
228.1831671068232
 31
0.0
  0
LINE
  5
3258
330
31A5
100
AcDbEntity
  8
SUNPOU
 62
     4
370
    -2
100
AcDbLine
 10
363.6530387667332
 20
183.6238235846232
 30
0.0
 11
196.4689680812597
 21
183.6238235846232
 31
0.0
  0
LINE
  5
3259
330
31A5
100
AcDbEntity
  8
SUNPOU
 62
     4
370
    -2
100
AcDbLine
 10
199.4689680812598
 20
221.1831671068232
 30
0.0
 11
199.4689680812597
 21
190.6238235846232
 31
0.0
  0
INSERT
  5
325A
330
31A5
100
AcDbEntity
  8
SUNPOU
 62
     4
370
    -2
100
AcDbBlockReference
  2
_OPEN
 10
199.4689680812598
 20
228.1831671068232
 30
0.0
 41
7.0
 42
7.0
 43
7.0
 50
90.0
  0
INSERT
  5
325B
330
31A5
100
AcDbEntity
  8
SUNPOU
 62
     4
370
    -2
100
AcDbBlockReference
  2
_OPEN
 10
199.4689680812597
 20
183.6238235846232
 30
0.0
 41
7.0
 42
7.0
 43
7.0
 50
270.0
  0
MTEXT
  5
325C
330
31A5
100
AcDbEntity
  8
SUNPOU
 62
     4
100
AcDbMText
 10
194.4689680812597
 20
205.9034953457232
 30
0.0
 40
6.0
 41
0.0
 71
     5
 72
     1
  1
\A1;45
 11
6.123031769111886E-17
 21
1.0
 31
0.0
 73
     1
 44
1.0
  0
POINT
  5
325D
330
31A5
100
AcDbEntity
  8
DEFPOINTS
 62
     0
100
AcDbPoint
 10
225.7233927209331
 20
228.1831671068232
 30
0.0
  0
POINT
  5
325E
330
31A5
100
AcDbEntity
  8
DEFPOINTS
 62
     0
100
AcDbPoint
 10
369.6530387667332
 20
183.6238235846232
 30
0.0
  0
POINT
  5
325F
330
31A5
100
AcDbEntity
  8
DEFPOINTS
 62
     0
100
AcDbPoint
 10
199.4689680812597
 20
183.6238235846232
 30
0.0
  0
ENDBLK
  5
31B0
330
31A5
100
AcDbEntity
  8
0
100
AcDbBlockEnd
  0
BLOCK
  5
31BB
330
31B1
100
AcDbEntity
  8
0
100
AcDbBlockBegin
  2
*D14
 70
     1
 71
     0
 10
0.0
 20
0.0
 30
0.0
  3
*D14
  1

  0
LINE
  5
3260
330
31B1
100
AcDbEntity
  8
SUNPOU
 62
     4
370
    -2
100
AcDbLine
 10
362.2264769118183
 20
234.5045289552252
 30
0.0
 11
377.0162507336123
 21
240.420016444065
 31
0.0
  0
LINE
  5
3261
330
31B1
100
AcDbEntity
  8
SUNPOU
 62
     4
370
    -2
100
AcDbLine
 10
380.7948686893183
 20
188.0802376112253
 30
0.0
 11
395.5846425111122
 21
193.995725100065
 31
0.0
  0
LINE
  5
3262
330
31B1
100
AcDbEntity
  8
SUNPOU
 62
     4
370
    -2
100
AcDbLine
 10
376.8303681018221
 20
232.8065121492479
 30
0.0
 11
390.1996101816172
 21
199.38102238158
 31
0.0
  0
INSERT
  5
3263
330
31B1
100
AcDbEntity
  8
SUNPOU
 62
     4
370
    -2
100
AcDbBlockReference
  2
_OPEN
 10
374.2307932529697
 20
239.3059129374139
 30
0.0
 41
7.0
 42
7.0
 43
7.0
 50
111.8000000000069
  0
INSERT
  5
3264
330
31B1
100
AcDbEntity
  8
SUNPOU
 62
     4
370
    -2
100
AcDbBlockReference
  2
_OPEN
 10
392.7991850304696
 20
192.881621593414
 30
0.0
 41
7.0
 42
7.0
 43
7.0
 50
291.8000000000069
  0
MTEXT
  5
3265
330
31B1
100
AcDbEntity
  8
SUNPOU
 62
     4
100
AcDbMText
 10
391.6854127138436
 20
209.1299910878191
 30
0.0
 40
6.0
 41
0.0
 71
     5
 72
     1
  1
\A1;50
 11
0.3713678355503465
 21
-0.9284858268808689
 31
0.0
 73
     1
 44
1.0
  0
POINT
  5
3266
330
31B1
100
AcDbEntity
  8
DEFPOINTS
 62
     0
100
AcDbPoint
 10
356.6555619505331
 20
232.2763219419231
 30
0.0
  0
POINT
  5
3267
330
31B1
100
AcDbEntity
  8
DEFPOINTS
 62
     0
100
AcDbPoint
 10
375.2239537280331
 20
185.8520305979232
 30
0.0
  0
POINT
  5
3268
330
31B1
100
AcDbEntity
  8
DEFPOINTS
 62
     0
100
AcDbPoint
 10
392.7991850304696
 20
192.881621593414
 30
0.0
  0
ENDBLK
  5
31BC
330
31B1
100
AcDbEntity
  8
0
100
AcDbBlockEnd
  0
BLOCK
  5
31C9
330
31BD
100
AcDbEntity
  8
0
100
AcDbBlockBegin
  2
*D15
 70
     1
 71
     0
 10
0.0
 20
0.0
 30
0.0
  3
*D15
  1

  0
LINE
  5
3269
330
31BD
100
AcDbEntity
  8
SUNPOU
 62
     4
370
    -2
100
AcDbLine
 10
377.4521607413285
 20
180.2811156366353
 30
0.0
 11
385.8233687862952
 21
159.3516024165906
 31
0.0
  0
LINE
  5
326A
330
31BD
100
AcDbEntity
  8
SUNPOU
 62
     4
370
    -2
100
AcDbLine
 10
370.0242741262982
 20
177.3101729522498
 30
0.0
 11
378.3954821712649
 21
156.380659732205
 31
0.0
  0
LINE
  5
326B
330
31BD
100
AcDbEntity
  8
SUNPOU
 62
     4
370
    -2
100
AcDbLine
 10
391.2086660678168
 20
164.736634746079
 30
0.0
 11
397.7080668559861
 21
167.3362095949234
 31
0.0
  0
LINE
  5
326C
330
31BD
100
AcDbEntity
  8
SUNPOU
 62
     4
370
    -2
100
AcDbLine
 10
370.781977876448
 20
156.5665423640046
 30
0.0
 11
344.7843747237709
 21
146.1682429686268
 31
0.0
  0
LINE
  5
326D
330
31BD
100
AcDbEntity
  8
SUNPOU
 62
     4
370
    -2
100
AcDbLine
 10
384.7092652796476
 20
162.1370598972345
 30
0.0
 11
377.2813786646173
 21
159.166117212849
 31
0.0
  0
INSERT
  5
326E
330
31BD
100
AcDbEntity
  8
SUNPOU
 62
     4
370
    -2
100
AcDbBlockReference
  2
_OPEN
 10
384.7092652796476
 20
162.1370598972345
 30
0.0
 41
7.0
 42
7.0
 43
7.0
 50
201.7999999999366
  0
INSERT
  5
326F
330
31BD
100
AcDbEntity
  8
SUNPOU
 62
     4
370
    -2
100
AcDbBlockReference
  2
_OPEN
 10
377.2813786646173
 20
159.166117212849
 30
0.0
 41
7.0
 42
7.0
 43
7.0
 50
21.79999999993656
  0
MTEXT
  5
3270
330
31BD
100
AcDbEntity
  8
SUNPOU
 62
     4
100
AcDbMText
 10
352.6766367282788
 20
154.7100343763
 30
0.0
 40
6.0
 41
0.0
 71
     5
 72
     1
  1
\A1;t8.0
 11
0.9284858268813248
 21
0.3713678355492067
 31
0.0
 73
     1
 44
1.0
  0
POINT
  5
3271
330
31BD
100
AcDbEntity
  8
DEFPOINTS
 62
     0
100
AcDbPoint
 10
375.2239537280332
 20
185.8520305979233
 30
0.0
  0
POINT
  5
3272
330
31BD
100
AcDbEntity
  8
DEFPOINTS
 62
     0
100
AcDbPoint
 10
367.796067113003
 20
182.8810879135377
 30
0.0
  0
POINT
  5
3273
330
31BD
100
AcDbEntity
  8
DEFPOINTS
 62
     0
100
AcDbPoint
 10
377.2813786646173
 20
159.166117212849
 30
0.0
  0
ENDBLK
  5
31CA
330
31BD
100
AcDbEntity
  8
0
100
AcDbBlockEnd
  0
BLOCK
  5
31D7
330
31CB
100
AcDbEntity
  8
0
100
AcDbBlockBegin
  2
*D16
 70
     1
 71
     0
 10
0.0
 20
0.0
 30
0.0
  3
*D16
  1

  0
LINE
  5
3274
330
31CB
100
AcDbEntity
  8
SUNPOU
 62
     4
370
    -2
100
AcDbLine
 10
356.6555619505332
 20
238.2763219419232
 30
0.0
 11
356.6555619505332
 21
262.2958088297311
 31
0.0
  0
LINE
  5
3275
330
31CB
100
AcDbEntity
  8
SUNPOU
 62
     4
370
    -2
100
AcDbLine
 10
346.6971596425333
 20
216.4831671068232
 30
0.0
 11
346.6971596425333
 21
262.2958088297311
 31
0.0
  0
LINE
  5
3276
330
31CB
100
AcDbEntity
  8
SUNPOU
 62
     4
370
    -2
100
AcDbLine
 10
363.6555619505332
 20
259.2958088297311
 30
0.0
 11
370.6555619505332
 21
259.2958088297311
 31
0.0
  0
LINE
  5
3277
330
31CB
100
AcDbEntity
  8
SUNPOU
 62
     4
370
    -2
100
AcDbLine
 10
339.6971596425333
 20
259.2958088297311
 30
0.0
 11
321.6971596425333
 21
259.2958088297311
 31
0.0
  0
LINE
  5
3278
330
31CB
100
AcDbEntity
  8
SUNPOU
 62
     4
370
    -2
100
AcDbLine
 10
356.6555619505332
 20
259.2958088297311
 30
0.0
 11
346.6971596425333
 21
259.2958088297311
 31
0.0
  0
INSERT
  5
3279
330
31CB
100
AcDbEntity
  8
SUNPOU
 62
     4
370
    -2
100
AcDbBlockReference
  2
_OPEN
 10
356.6555619505332
 20
259.2958088297311
 30
0.0
 41
7.0
 42
7.0
 43
7.0
 50
180.0
  0
INSERT
  5
327A
330
31CB
100
AcDbEntity
  8
SUNPOU
 62
     4
370
    -2
100
AcDbBlockReference
  2
_OPEN
 10
346.6971596425333
 20
259.2958088297311
 30
0.0
 41
7.0
 42
7.0
 43
7.0
  0
MTEXT
  5
327B
330
31CB
100
AcDbEntity
  8
SUNPOU
 62
     4
100
AcDbMText
 10
327.1971596425333
 20
264.2958088297311
 30
0.0
 40
6.0
 41
0.0
 71
     5
 72
     1
  1
\A1;10
 73
     1
 44
1.0
  0
POINT
  5
327C
330
31CB
100
AcDbEntity
  8
DEFPOINTS
 62
     0
100
AcDbPoint
 10
356.6555619505332
 20
232.2763219419232
 30
0.0
  0
POINT
  5
327D
330
31CB
100
AcDbEntity
  8
DEFPOINTS
 62
     0
100
AcDbPoint
 10
346.6971596425333
 20
210.4831671068232
 30
0.0
  0
POINT
  5
327E
330
31CB
100
AcDbEntity
  8
DEFPOINTS
 62
     0
100
AcDbPoint
 10
346.6971596425333
 20
259.2958088297311
 30
0.0
  0
ENDBLK
  5
31D8
330
31CB
100
AcDbEntity
  8
0
100
AcDbBlockEnd
  0
BLOCK
  5
31E3
330
31D9
100
AcDbEntity
  8
0
100
AcDbBlockBegin
  2
*D17
 70
     1
 71
     0
 10
0.0
 20
0.0
 30
0.0
  3
*D17
  1

  0
LINE
  5
327F
330
31D9
100
AcDbEntity
  8
SUNPOU
 62
     4
370
    -2
100
AcDbLine
 10
356.6555619505332
 20
238.2763219419232
 30
0.0
 11
356.6555619505332
 21
262.2958088297311
 31
0.0
  0
LINE
  5
3280
330
31D9
100
AcDbEntity
  8
SUNPOU
 62
     4
370
    -2
100
AcDbLine
 10
391.6555619505332
 20
238.2763219419232
 30
0.0
 11
391.6555619505332
 21
262.2958088297311
 31
0.0
  0
LINE
  5
3281
330
31D9
100
AcDbEntity
  8
SUNPOU
 62
     4
370
    -2
100
AcDbLine
 10
363.6555619505332
 20
259.2958088297311
 30
0.0
 11
384.6555619505332
 21
259.2958088297311
 31
0.0
  0
INSERT
  5
3282
330
31D9
100
AcDbEntity
  8
SUNPOU
 62
     4
370
    -2
100
AcDbBlockReference
  2
_OPEN
 10
356.6555619505332
 20
259.2958088297311
 30
0.0
 41
7.0
 42
7.0
 43
7.0
 50
180.0
  0
INSERT
  5
3283
330
31D9
100
AcDbEntity
  8
SUNPOU
 62
     4
370
    -2
100
AcDbBlockReference
  2
_OPEN
 10
391.6555619505332
 20
259.2958088297311
 30
0.0
 41
7.0
 42
7.0
 43
7.0
  0
MTEXT
  5
3284
330
31D9
100
AcDbEntity
  8
SUNPOU
 62
     4
100
AcDbMText
 10
374.1555619505332
 20
264.2958088297311
 30
0.0
 40
6.0
 41
0.0
 71
     5
 72
     1
  1
\A1;35
 73
     1
 44
1.0
  0
POINT
  5
3285
330
31D9
100
AcDbEntity
  8
DEFPOINTS
 62
     0
100
AcDbPoint
 10
356.6555619505332
 20
232.2763219419232
 30
0.0
  0
POINT
  5
3286
330
31D9
100
AcDbEntity
  8
DEFPOINTS
 62
     0
100
AcDbPoint
 10
391.6555619505332
 20
232.2763219419232
 30
0.0
  0
POINT
  5
3287
330
31D9
100
AcDbEntity
  8
DEFPOINTS
 62
     0
100
AcDbPoint
 10
391.6555619505332
 20
259.2958088297311
 30
0.0
  0
ENDBLK
  5
31E4
330
31D9
100
AcDbEntity
  8
0
100
AcDbBlockEnd
  0
ENDSEC
  0
SECTION
  2
ENTITIES
  0
LWPOLYLINE
  5
1609
330
1A
100
AcDbEntity
  8
ZUWAKU
100
AcDbPolyline
 90
        4
 70
     1
 43
0.0
 10
0.799999566643919
 20
550.8000006402971
 10
0.799999566643919
 20
0.8000006402971849
 10
796.7999995666438
 20
0.8000006402971849
 10
796.7999995666438
 20
550.8000006402971
  0
LWPOLYLINE
  5
160A
330
1A
100
AcDbEntity
  8
ZUWAKU
100
AcDbPolyline
 90
        4
 70
     1
 43
0.0
 10
0.3999995666439418
 20
551.2000006402971
 10
0.3999995666439418
 20
0.4000006402972076
 10
797.199999566644
 20
0.4000006402971845
 10
797.199999566644
 20
551.2000006402971
  0
LWPOLYLINE
  5
160B
330
1A
100
AcDbEntity
  8
ZUWAKU
100
AcDbPolyline
 90
        4
 70
     1
 43
0.0
 10
-0.0000004333560355
 20
551.6000006402971
 10
-0.0000004333560355
 20
0.0000006402971167
 10
797.599999566644
 20
0.0000006402971842
 10
797.599999566644
 20
551.6000006402973
  0
LWPOLYLINE
  5
160C
330
1A
100
AcDbEntity
  8
ZUWAKU
100
AcDbPolyline
 90
        4
 70
     1
 43
0.0
 10
0.5999995666438736
 20
551.0000006402972
 10
0.5999995666438736
 20
0.6000006402971395
 10
796.9999995666442
 20
0.6000006402971857
 10
796.999999566644
 20
551.0000006402972
  0
LWPOLYLINE
  5
160D
330
1A
100
AcDbEntity
  8
ZUWAKU
100
AcDbPolyline
 90
        4
 70
     1
 43
0.0
 10
0.1999995666438963
 20
551.4000006402971
 10
0.1999995666438963
 20
0.2000006402971622
 10
797.3999995666438
 20
0.2000006402971852
 10
797.3999995666441
 20
551.4000006402971
  0
LINE
  5
160E
330
1A
100
AcDbEntity
  8
ZUWAKU
100
AcDbLine
 10
-0.0000004333560355
 20
30.00000064029711
 30
0.0
 11
797.3999995666438
 21
30.00000064029711
 31
0.0
  0
LINE
  5
160F
330
1A
100
AcDbEntity
  8
ZUWAKU
100
AcDbLine
 10
-0.0000004333560355
 20
30.20000064029711
 30
0.0
 11
797.3999995666438
 21
30.20000064029711
 31
0.0
  0
LINE
  5
1610
330
1A
100
AcDbEntity
  8
ZUWAKU
100
AcDbLine
 10
-0.0000004333560355
 20
30.40000064029713
 30
0.0
 11
797.3999995666438
 21
30.40000064029713
 31
0.0
  0
LINE
  5
1611
330
1A
100
AcDbEntity
  8
ZUWAKU
100
AcDbLine
 10
-0.0000004333560355
 20
30.60000064029713
 30
0.0
 11
797.3999995666438
 21
30.60000064029713
 31
0.0
  0
LINE
  5
1612
330
1A
100
AcDbEntity
  8
ZUWAKU
100
AcDbLine
 10
-0.0000004333560355
 20
30.80000064029713
 30
0.0
 11
797.3999995666438
 21
30.80000064029713
 31
0.0
  0
LINE
  5
1613
330
1A
100
AcDbEntity
  8
ZUWAKU
100
AcDbLine
 10
208.646600856712
 20
15.40000064029714
 30
0.0
 11
447.4243635376353
 21
15.40000064029714
 31
0.0
  0
LINE
  5
1614
330
1A
100
AcDbEntity
  8
ZUWAKU
100
AcDbLine
 10
208.646600856712
 20
15.60000064029715
 30
0.0
 11
447.4243635376353
 21
15.60000064029715
 31
0.0
  0
LINE
  5
1615
330
1A
100
AcDbEntity
  8
ZUWAKU
100
AcDbLine
 10
208.646600856712
 20
15.20000064029715
 30
0.0
 11
447.4243635376353
 21
15.20000064029714
 31
0.0
  0
TEXT
  5
1616
330
1A
100
AcDbEntity
  8
MOJI
100
AcDbText
 10
95.25059639851634
 20
12.83491815671096
 30
0.0
 40
5.8
  1
アーバントップΣ９０
 41
0.9
  7
ｽﾀｲﾙ1
100
AcDbText
  0
CIRCLE
  5
1617
330
1A
100
AcDbEntity
  8
ZUWAKU
100
AcDbCircle
 10
25.99221172142506
 20
15.20000064029711
 30
0.0
 40
1.75
  0
LINE
  5
1618
330
1A
100
AcDbEntity
  8
ZUWAKU
100
AcDbLine
 10
26.86721172142507
 20
7.150000640297122
 30
0.0
 11
24.94221172142511
 21
7.150000640297122
 31
0.0
  0
LINE
  5
1619
330
1A
100
AcDbEntity
  8
ZUWAKU
100
AcDbLine
 10
24.94221172142511
 20
9.950000640297118
 30
0.0
 11
26.86721172142507
 21
9.950000640297118
 31
0.0
  0
LINE
  5
161A
330
1A
100
AcDbEntity
  8
ZUWAKU
100
AcDbLine
 10
26.86721172142507
 20
20.45000064029711
 30
0.0
 11
24.94221172142511
 21
20.45000064029711
 31
0.0
  0
LINE
  5
161B
330
1A
100
AcDbEntity
  8
ZUWAKU
100
AcDbLine
 10
24.94221172142511
 20
23.25000064029707
 30
0.0
 11
26.86721172142507
 21
23.25000064029711
 31
0.0
  0
HATCH
  5
161C
330
1A
100
AcDbEntity
  8
ZUWAKU
100
AcDbHatch
 10
0.0
 20
0.0
 30
0.0
210
0.0
220
0.0
230
1.0
  2
ANSI37
 70
     0
 71
     0
 91
        8
 92
        7
 72
     1
 73
     1
 93
       24
 10
14.50226222776382
 20
17.6448491212807
 42
-0.1989123673796348
 10
14.09221172142509
 20
18.63479861494174
 42
0.0
 10
14.09221172142509
 20
19.92500064029712
 42
-0.4142135623730912
 10
14.61721172142506
 20
20.45000064029711
 42
0.0
 10
17.59221172142496
 20
20.45000064029711
 42
0.4142135623731546
 10
18.11721172142507
 20
20.97500064029711
 42
0.0
 10
18.11721172142507
 20
22.72500064029713
 42
0.4142135623731586
 10
17.59221172142496
 20
23.25000064029711
 42
0.0
 10
14.09221172142509
 20
23.25000064029711
 42
0.4142135623730928
 10
11.29221172142513
 20
20.45000064029714
 42
0.0
 10
11.29221172142513
 20
18.63479861494188
 42
0.1989123673796619
 10
12.52236324044156
 20
15.66495013395826
 42
0.0
 10
15.43216121508623
 20
12.75515215931361
 42
-0.1989123673796613
 10
15.84221172142509
 20
11.76520266565242
 42
0.0
 10
15.84221172142509
 20
10.4750006402971
 42
-0.4142135623730911
 10
15.31721172142511
 20
9.950000640297118
 42
0.0
 10
12.3422117214252
 20
9.950000640297118
 42
0.4142135623731526
 10
11.81721172142511
 20
9.42500064029713
 42
0.0
 10
11.81721172142511
 20
7.675000640297109
 42
0.4142135623731526
 10
12.3422117214252
 20
7.150000640297122
 42
0.0
 10
15.84221172142509
 20
7.150000640297122
 42
0.4142135623731044
 10
18.64221172142516
 20
9.950000640297098
 42
0.0
 10
18.64221172142516
 20
11.76520266565236
 42
0.1989123673796604
 10
17.4120602024086
 20
14.73505114663591
 42
0.0
 97
        0
 92
        7
 72
     1
 73
     1
 93
       16
 10
23.54221172142513
 20
19.05000064029712
 42
-0.4142135623730935
 10
24.94221172142511
 20
20.45000064029711
 42
0.0
 10
26.86721172142507
 20
20.45000064029711
 42
0.4142135623731546
 10
27.39221172142516
 20
20.97500064029711
 42
0.0
 10
27.39221172142516
 20
22.72500064029713
 42
0.4142135623730951
 10
26.86721172142518
 20
23.25000064029711
 42
0.0
 10
24.942211721425
 20
23.25000064029707
 42
0.4142135623730892
 10
20.74221172142505
 20
19.05000064029706
 42
0.0
 10
20.74221172142505
 20
11.35000064029715
 42
0.4142135623730969
 10
24.94221172142511
 20
7.150000640297122
 42
0.0
 10
26.86721172142507
 20
7.150000640297122
 42
0.4142135623731526
 10
27.39221172142516
 20
7.675000640297109
 42
0.0
 10
27.39221172142516
 20
9.42500064029713
 42
0.4142135623730891
 10
26.86721172142518
 20
9.950000640297118
 42
0.0
 10
24.94221172142511
 20
9.950000640297118
 42
-0.4142135623730928
 10
23.54221172142513
 20
11.3500006402971
 42
0.0
 97
        0
 92
        7
 72
     1
 73
     1
 93
        2
 10
24.24221172142507
 20
15.20000064029711
 42
1.0
 10
27.74221172142507
 20
15.20000064029711
 42
1.0
 97
        0
 92
        7
 72
     1
 73
     1
 93
       26
 10
37.31485820360308
 20
19.20504783386054
 42
0.0
 10
38.3764978367409
 20
22.56690667213013
 42
0.5069206636600134
 10
37.87586693754554
 20
23.25000064029711
 42
0.0
 10
36.1769775579363
 20
23.25000064029711
 42
0.3272098845218764
 10
35.67634665874095
 20
22.88309460846408
 42
0.0
 10
33.80807678410916
 20
16.96690667213019
 42
-0.3272098845219541
 10
33.3074458849137
 20
16.60000064029712
 42
0.0
 10
33.16721172142525
 20
16.60000064029712
 42
-0.4142135623731526
 10
32.64221172142516
 20
17.1250006402971
 42
0.0
 10
32.64221172142516
 20
22.72500064029713
 42
0.4142135623730951
 10
32.11721172142518
 20
23.25000064029711
 42
0.0
 10
30.36721172142506
 20
23.25000064029711
 42
0.4142135623730871
 10
29.84221172142509
 20
22.72500064029713
 42
0.0
 10
29.84221172142509
 20
7.675000640297109
 42
0.4142135623730891
 10
30.36721172142506
 20
7.150000640297122
 42
0.0
 10
32.11721172142507
 20
7.150000640297122
 42
0.4142135623731526
 10
32.64221172142516
 20
7.675000640297109
 42
0.0
 10
32.64221172142516
 20
13.27500064029712
 42
-0.4142135623731526
 10
33.16721172142525
 20
13.80000064029711
 42
0.0
 10
33.30744588491382
 20
13.80000064029711
 42
-0.3272098845218915
 10
33.80807678410916
 20
13.43309460846404
 42
0.0
 10
35.67634665874095
 20
7.516906672130193
 42
0.3272098845218902
 10
36.1769775579363
 20
7.150000640297122
 42
0.0
 10
37.87586693754554
 20
7.150000640297122
 42
0.5069206636600335
 10
38.3764978367409
 20
7.83309460846413
 42
0.0
 10
36.05010645826724
 20
15.20000064029726
 42
0.0
 97
        0
 92
        7
 72
     1
 73
     1
 93
        8
 10
43.49221172142505
 20
22.72500064029713
 42
0.4142135623731546
 10
42.96721172142497
 20
23.25000064029711
 42
0.0
 10
41.21721172142521
 20
23.25000064029711
 42
0.4142135623731507
 10
40.6922117214251
 20
22.72500064029713
 42
0.0
 10
40.6922117214251
 20
7.675000640297109
 42
0.4142135623731526
 10
41.21721172142521
 20
7.150000640297122
 42
0.0
 10
42.96721172142497
 20
7.150000640297122
 42
0.4142135623731526
 10
43.49221172142505
 20
7.675000640297109
 42
0.0
 97
        0
 92
        7
 72
     1
 73
     1
 93
       24
 10
48.39221172142515
 20
19.92500064029712
 42
-0.4142135623731546
 10
48.91721172142525
 20
20.45000064029711
 42
0.0
 10
51.89221172142516
 20
20.45000064029711
 42
0.4142135623730911
 10
52.41721172142513
 20
20.97500064029711
 42
0.0
 10
52.41721172142513
 20
22.72500064029713
 42
0.4142135623730952
 10
51.89221172142516
 20
23.25000064029711
 42
0.0
 10
48.39221172142515
 20
23.25000064029711
 42
0.4142135623731048
 10
45.59221172142509
 20
20.45000064029714
 42
0.0
 10
45.59221172142509
 20
18.63479861494188
 42
0.1989123673796613
 10
46.82236324044163
 20
15.66495013395833
 42
0.0
 10
49.7321612150863
 20
12.75515215931366
 42
-0.1989123673796402
 10
50.14221172142516
 20
11.76520266565258
 42
0.0
 10
50.14221172142516
 20
10.4750006402971
 42
-0.4142135623730911
 10
49.61721172142518
 20
9.950000640297118
 42
0.0
 10
46.64221172142516
 20
9.950000640297118
 42
0.4142135623731526
 10
46.11721172142507
 20
9.42500064029713
 42
0.0
 10
46.11721172142507
 20
7.675000640297109
 42
0.4142135623730891
 10
46.64221172142504
 20
7.150000640297122
 42
0.0
 10
50.14221172142516
 20
7.150000640297122
 42
0.4142135623730925
 10
52.9422117214251
 20
9.950000640297098
 42
0.0
 10
52.9422117214251
 20
11.76520266565236
 42
0.1989123673796675
 10
51.71206020240857
 20
14.73505114663603
 42
0.0
 10
48.80226222776399
 20
17.64484912128054
 42
-0.1989123673796652
 10
48.39221172142515
 20
18.6347986149417
 42
0.0
 97
        0
 92
        7
 72
     1
 73
     1
 93
       16
 10
57.84221172142509
 20
22.7250006402971
 42
0.414213562373103
 10
57.3172117214251
 20
23.25000064029711
 42
0.0
 10
55.5672117214251
 20
23.25000064029711
 42
0.4142135623730871
 10
55.04221172142513
 20
22.72500064029713
 42
0.0
 10
55.04221172142513
 20
9.950000640297098
 42
0.4142135623730926
 10
57.84221172142509
 20
7.150000640297122
 42
0.0
 10
61.34221172142509
 20
7.150000640297122
 42
0.4142135623731044
 10
64.14221172142516
 20
9.950000640297098
 42
0.0
 10
64.14221172142516
 20
22.72500064029713
 42
0.4142135623730951
 10
63.61721172142518
 20
23.25000064029711
 42
0.0
 10
61.86721172142507
 20
23.25000064029711
 42
0.4142135623730871
 10
61.34221172142509
 20
22.72500064029713
 42
0.0
 10
61.34221172142509
 20
11.00000064029709
 42
-0.4142135623730879
 10
60.29221172142513
 20
9.950000640297118
 42
0.0
 10
58.89221172142516
 20
9.950000640297118
 42
-0.4142135623731197
 10
57.84221172142509
 20
11.00000064029709
 42
0.0
 97
        0
 92
        7
 72
     1
 73
     1
 93
        8
 10
69.04221172142513
 20
22.72500064029713
 42
0.4142135623730871
 10
68.51721172142516
 20
23.25000064029711
 42
0.0
 10
66.76721172142516
 20
23.25000064029711
 42
0.4142135623731507
 10
66.24221172142507
 20
22.72500064029713
 42
0.0
 10
66.24221172142507
 20
7.675000640297109
 42
0.4142135623730891
 10
66.76721172142504
 20
7.150000640297122
 42
0.0
 10
68.51721172142516
 20
7.150000640297122
 42
0.4142135623730891
 10
69.04221172142513
 20
7.675000640297109
 42
0.0
 97
        0
 75
     0
 76
     1
 52
0.0
 41
0.2
 77
     0
 78
     2
 53
45.0
 43
-900.9423047680351
 44
-13.19999935970281
 45
-0.4490128060534576
 46
0.4490128060534577
 79
     0
 53
135.0
 43
-900.9423047680351
 44
-13.19999935970281
 45
-0.4490128060534577
 46
-0.4490128060534576
 79
     0
 47
0.057451373970553
 98
        8
 10
16.07985452966727
 20
15.16717428618266
 10
22.40451457308314
 20
18.84406282274813
 10
25.16436745230362
 20
15.51188228636783
 10
30.9140595482811
 20
16.20129828673861
 10
41.83847158560069
 20
16.66091055428024
 10
46.89820046177351
 20
19.41857695670432
 10
56.55768553904431
 20
18.72915855539213
 10
67.8270791862667
 20
19.18877082293374
  0
ARC
  5
161D
330
1A
100
AcDbEntity
  8
ZUWAKU
100
AcDbCircle
 10
15.49221172142507
 20
18.63479861494181
 30
0.0
 40
4.199999999999998
100
AcDbArc
 50
180.0
 51
225.0
  0
LINE
  5
161E
330
1A
100
AcDbEntity
  8
ZUWAKU
100
AcDbLine
 10
20.74221172142505
 20
11.35000064029712
 30
0.0
 11
20.74221172142505
 21
19.05000064029708
 31
0.0
  0
LINE
  5
161F
330
1A
100
AcDbEntity
  8
ZUWAKU
100
AcDbLine
 10
23.54221172142513
 20
19.05000064029711
 30
0.0
 11
23.54221172142513
 21
11.35000064029712
 31
0.0
  0
ARC
  5
1620
330
1A
100
AcDbEntity
  8
ZUWAKU
100
AcDbCircle
 10
15.49221172142507
 20
18.63479861494181
 30
0.0
 40
1.399999999999999
100
AcDbArc
 50
180.0000000000016
 51
224.9999999999988
  0
ARC
  5
1621
330
1A
100
AcDbEntity
  8
ZUWAKU
100
AcDbCircle
 10
24.94221172142511
 20
11.35000064029712
 30
0.0
 40
4.199999999999998
100
AcDbArc
 50
180.0
 51
270.0
  0
ARC
  5
1622
330
1A
100
AcDbEntity
  8
ZUWAKU
100
AcDbCircle
 10
15.84221172142509
 20
9.950000640297118
 30
0.0
 40
2.799999999999999
100
AcDbArc
 50
270.0
 51
0.0
  0
ARC
  5
1623
330
1A
100
AcDbEntity
  8
ZUWAKU
100
AcDbCircle
 10
14.44221172142511
 20
11.76520266565242
 30
0.0
 40
4.199999999999998
100
AcDbArc
 50
0.0
 51
45.0
  0
LINE
  5
1624
330
1A
100
AcDbEntity
  8
ZUWAKU
100
AcDbLine
 10
12.52236324044156
 20
15.66495013395829
 30
0.0
 11
15.43216121508623
 21
12.75515215931364
 31
0.0
  0
LINE
  5
1625
330
1A
100
AcDbEntity
  8
ZUWAKU
100
AcDbLine
 10
12.34221172142509
 20
9.950000640297118
 30
0.0
 11
15.31721172142511
 21
9.950000640297118
 31
0.0
  0
LINE
  5
1626
330
1A
100
AcDbEntity
  8
ZUWAKU
100
AcDbLine
 10
12.34221172142509
 20
7.150000640297122
 30
0.0
 11
15.84221172142509
 21
7.150000640297122
 31
0.0
  0
ARC
  5
1627
330
1A
100
AcDbEntity
  8
ZUWAKU
100
AcDbCircle
 10
12.34221172142509
 20
9.425000640297119
 30
0.0
 40
0.525
100
AcDbArc
 50
90.0
 51
180.0
  0
ARC
  5
1628
330
1A
100
AcDbEntity
  8
ZUWAKU
100
AcDbCircle
 10
12.34221172142509
 20
7.67500064029712
 30
0.0
 40
0.525
100
AcDbArc
 50
180.0
 51
270.0
  0
LINE
  5
1629
330
1A
100
AcDbEntity
  8
ZUWAKU
100
AcDbLine
 10
11.81721172142511
 20
7.67500064029712
 30
0.0
 11
11.81721172142511
 21
9.425000640297119
 31
0.0
  0
ARC
  5
162A
330
1A
100
AcDbEntity
  8
ZUWAKU
100
AcDbCircle
 10
14.44221172142511
 20
11.76520266565246
 30
0.0
 40
1.399999999999999
100
AcDbArc
 50
0.0
 51
45.0
  0
ARC
  5
162B
330
1A
100
AcDbEntity
  8
ZUWAKU
100
AcDbCircle
 10
15.31721172142511
 20
10.47500064029712
 30
0.0
 40
0.525
100
AcDbArc
 50
270.0
 51
0.0
  0
LINE
  5
162C
330
1A
100
AcDbEntity
  8
ZUWAKU
100
AcDbLine
 10
15.84221172142509
 20
10.47500064029712
 30
0.0
 11
15.84221172142509
 21
11.76520266565246
 31
0.0
  0
LINE
  5
162D
330
1A
100
AcDbEntity
  8
ZUWAKU
100
AcDbLine
 10
17.4120602024086
 20
14.73505114663594
 30
0.0
 11
14.50226222776393
 21
17.64484912128062
 31
0.0
  0
ARC
  5
162E
330
1A
100
AcDbEntity
  8
ZUWAKU
100
AcDbCircle
 10
24.94221172142511
 20
11.35000064029712
 30
0.0
 40
1.399999999999999
100
AcDbArc
 50
180.0
 51
270.0
  0
LINE
  5
162F
330
1A
100
AcDbEntity
  8
ZUWAKU
100
AcDbLine
 10
18.64221172142516
 20
9.950000640297118
 30
0.0
 11
18.64221172142516
 21
11.76520266565246
 31
0.0
  0
ARC
  5
1630
330
1A
100
AcDbEntity
  8
ZUWAKU
100
AcDbCircle
 10
17.59221172142509
 20
20.97500064029712
 30
0.0
 40
0.525
100
AcDbArc
 50
270.0
 51
0.0
  0
ARC
  5
1631
330
1A
100
AcDbEntity
  8
ZUWAKU
100
AcDbCircle
 10
17.59221172142509
 20
22.72500064029712
 30
0.0
 40
0.525
100
AcDbArc
 50
0.0
 51
90.0
  0
ARC
  5
1632
330
1A
100
AcDbEntity
  8
ZUWAKU
100
AcDbCircle
 10
14.09221172142509
 20
20.45000064029711
 30
0.0
 40
2.799999999999999
100
AcDbArc
 50
90.0
 51
180.0
  0
LINE
  5
1633
330
1A
100
AcDbEntity
  8
ZUWAKU
100
AcDbLine
 10
11.29221172142513
 20
20.45000064029711
 30
0.0
 11
11.29221172142513
 21
18.63479861494178
 31
0.0
  0
LINE
  5
1634
330
1A
100
AcDbEntity
  8
ZUWAKU
100
AcDbLine
 10
17.59221172142509
 20
20.45000064029711
 30
0.0
 11
14.61721172142506
 21
20.45000064029711
 31
0.0
  0
LINE
  5
1635
330
1A
100
AcDbEntity
  8
ZUWAKU
100
AcDbLine
 10
14.09221172142509
 20
19.92500064029711
 30
0.0
 11
14.09221172142509
 21
18.63479861494178
 31
0.0
  0
ARC
  5
1636
330
1A
100
AcDbEntity
  8
ZUWAKU
100
AcDbCircle
 10
14.61721172142506
 20
19.92500064029711
 30
0.0
 40
0.525
100
AcDbArc
 50
90.0
 51
180.0
  0
LINE
  5
1637
330
1A
100
AcDbEntity
  8
ZUWAKU
100
AcDbLine
 10
14.09221172142509
 20
23.25000064029711
 30
0.0
 11
17.59221172142509
 21
23.25000064029711
 31
0.0
  0
ARC
  5
1638
330
1A
100
AcDbEntity
  8
ZUWAKU
100
AcDbCircle
 10
24.94221172142511
 20
19.05000064029708
 30
0.0
 40
4.199999999999998
100
AcDbArc
 50
90.0
 51
180.0
  0
ARC
  5
1639
330
1A
100
AcDbEntity
  8
ZUWAKU
100
AcDbCircle
 10
24.94221172142511
 20
19.05000064029711
 30
0.0
 40
1.399999999999999
100
AcDbArc
 50
90.0
 51
180.0
  0
LINE
  5
163A
330
1A
100
AcDbEntity
  8
ZUWAKU
100
AcDbLine
 10
18.11721172142507
 20
22.72500064029712
 30
0.0
 11
18.11721172142507
 21
20.97500064029712
 31
0.0
  0
LINE
  5
163B
330
1A
100
AcDbEntity
  8
ZUWAKU
100
AcDbLine
 10
35.67634665874095
 20
22.88309460846408
 30
0.0
 11
33.80807678410916
 21
16.96690667213014
 31
0.0
  0
LINE
  5
163C
330
1A
100
AcDbEntity
  8
ZUWAKU
100
AcDbLine
 10
29.84221172142509
 20
22.72500064029712
 30
0.0
 11
29.84221172142509
 21
7.67500064029712
 31
0.0
  0
LINE
  5
163D
330
1A
100
AcDbEntity
  8
ZUWAKU
100
AcDbLine
 10
32.64221172142516
 20
17.12500064029712
 30
0.0
 11
32.64221172142516
 21
22.72500064029712
 31
0.0
  0
LINE
  5
163E
330
1A
100
AcDbEntity
  8
ZUWAKU
100
AcDbLine
 10
57.84221172142509
 20
11.00000064029711
 30
0.0
 11
57.84221172142509
 21
22.72500064029712
 31
0.0
  0
LINE
  5
163F
330
1A
100
AcDbEntity
  8
ZUWAKU
100
AcDbLine
 10
55.04221172142513
 20
22.72500064029712
 30
0.0
 11
55.04221172142513
 21
9.950000640297118
 31
0.0
  0
LINE
  5
1640
330
1A
100
AcDbEntity
  8
ZUWAKU
100
AcDbLine
 10
43.49221172142505
 20
7.67500064029712
 30
0.0
 11
43.49221172142505
 21
22.72500064029712
 31
0.0
  0
LINE
  5
1641
330
1A
100
AcDbEntity
  8
ZUWAKU
100
AcDbLine
 10
40.6922117214251
 20
22.72500064029712
 30
0.0
 11
40.6922117214251
 21
7.67500064029712
 31
0.0
  0
LINE
  5
1642
330
1A
100
AcDbEntity
  8
ZUWAKU
100
AcDbLine
 10
37.31485820360308
 20
19.20504783386054
 30
0.0
 11
36.05010645826724
 21
15.20000064029713
 31
0.0
  0
ARC
  5
1643
330
1A
100
AcDbEntity
  8
ZUWAKU
100
AcDbCircle
 10
49.79221172142513
 20
18.63479861494181
 30
0.0
 40
4.199999999999998
100
AcDbArc
 50
180.0
 51
225.0
  0
ARC
  5
1644
330
1A
100
AcDbEntity
  8
ZUWAKU
100
AcDbCircle
 10
49.79221172142513
 20
18.63479861494181
 30
0.0
 40
1.399999999999999
100
AcDbArc
 50
180.0000000000016
 51
224.9999999999988
  0
LINE
  5
1645
330
1A
100
AcDbEntity
  8
ZUWAKU
100
AcDbLine
 10
66.24221172142507
 20
22.72500064029712
 30
0.0
 11
66.24221172142507
 21
7.67500064029712
 31
0.0
  0
LINE
  5
1646
330
1A
100
AcDbEntity
  8
ZUWAKU
100
AcDbLine
 10
69.04221172142513
 20
7.67500064029712
 30
0.0
 11
69.04221172142513
 21
22.72500064029712
 31
0.0
  0
LINE
  5
1647
330
1A
100
AcDbEntity
  8
ZUWAKU
100
AcDbLine
 10
61.34221172142509
 20
22.72500064029712
 30
0.0
 11
61.34221172142509
 21
11.00000064029711
 31
0.0
  0
LINE
  5
1648
330
1A
100
AcDbEntity
  8
ZUWAKU
100
AcDbLine
 10
64.14221172142516
 20
9.950000640297118
 30
0.0
 11
64.14221172142516
 21
22.72500064029712
 31
0.0
  0
LINE
  5
1649
330
1A
100
AcDbEntity
  8
ZUWAKU
100
AcDbLine
 10
79.12662911463235
 20
30.00000064029711
 30
0.0
 11
79.12662911463235
 21
0.8000006402971849
 31
0.0
  0
LINE
  5
164A
330
1A
100
AcDbEntity
  8
ZUWAKU
100
AcDbLine
 10
79.52662911463222
 20
30.00000064029711
 30
0.0
 11
79.52662911463243
 21
0.8000006402971849
 31
0.0
  0
LINE
  5
164B
330
1A
100
AcDbEntity
  8
ZUWAKU
100
AcDbLine
 10
79.32662911463217
 20
30.00000064029711
 30
0.0
 11
79.3266291146324
 21
0.8000006402971849
 31
0.0
  0
LINE
  5
164C
330
1A
100
AcDbEntity
  8
ZUWAKU
100
AcDbLine
 10
57.84221172142509
 20
7.150000640297122
 30
0.0
 11
61.34221172142509
 21
7.150000640297122
 31
0.0
  0
LINE
  5
164D
330
1A
100
AcDbEntity
  8
ZUWAKU
100
AcDbLine
 10
60.29221172142513
 20
9.950000640297118
 30
0.0
 11
58.89221172142516
 21
9.950000640297118
 31
0.0
  0
LINE
  5
164E
330
1A
100
AcDbEntity
  8
ZUWAKU
100
AcDbLine
 10
41.21721172142509
 20
7.150000640297122
 30
0.0
 11
42.96721172142509
 21
7.150000640297122
 31
0.0
  0
LINE
  5
164F
330
1A
100
AcDbEntity
  8
ZUWAKU
100
AcDbLine
 10
35.67634665874095
 20
7.516906672130147
 30
0.0
 11
33.80807678410916
 21
13.43309460846409
 31
0.0
  0
ARC
  5
1650
330
1A
100
AcDbEntity
  8
ZUWAKU
100
AcDbCircle
 10
33.16721172142513
 20
13.27500064029711
 30
0.0
 40
0.525
100
AcDbArc
 50
90.0
 51
180.0
  0
ARC
  5
1651
330
1A
100
AcDbEntity
  8
ZUWAKU
100
AcDbCircle
 10
33.30744588491382
 20
13.27500064029711
 30
0.0
 40
0.525
100
AcDbArc
 50
17.52556837372303
 51
90.0
  0
ARC
  5
1652
330
1A
100
AcDbEntity
  8
ZUWAKU
100
AcDbCircle
 10
30.36721172142506
 20
7.67500064029712
 30
0.0
 40
0.525
100
AcDbArc
 50
180.0
 51
270.0
  0
ARC
  5
1653
330
1A
100
AcDbEntity
  8
ZUWAKU
100
AcDbCircle
 10
26.86721172142507
 20
9.425000640297119
 30
0.0
 40
0.525
100
AcDbArc
 50
0.0
 51
90.0
  0
ARC
  5
1654
330
1A
100
AcDbEntity
  8
ZUWAKU
100
AcDbCircle
 10
26.86721172142507
 20
7.67500064029712
 30
0.0
 40
0.525
100
AcDbArc
 50
270.0
 51
0.0
  0
LINE
  5
1655
330
1A
100
AcDbEntity
  8
ZUWAKU
100
AcDbLine
 10
27.39221172142516
 20
9.425000640297119
 30
0.0
 11
27.39221172142516
 21
7.67500064029712
 31
0.0
  0
LINE
  5
1656
330
1A
100
AcDbEntity
  8
ZUWAKU
100
AcDbLine
 10
32.64221172142516
 20
7.67500064029712
 30
0.0
 11
32.64221172142516
 21
13.27500064029711
 31
0.0
  0
ARC
  5
1657
330
1A
100
AcDbEntity
  8
ZUWAKU
100
AcDbCircle
 10
32.11721172142507
 20
7.67500064029712
 30
0.0
 40
0.525
100
AcDbArc
 50
270.0
 51
0.0
  0
LINE
  5
1658
330
1A
100
AcDbEntity
  8
ZUWAKU
100
AcDbLine
 10
30.36721172142506
 20
7.150000640297122
 30
0.0
 11
32.11721172142507
 21
7.150000640297122
 31
0.0
  0
ARC
  5
1659
330
1A
100
AcDbEntity
  8
ZUWAKU
100
AcDbCircle
 10
33.16721172142513
 20
17.12500064029712
 30
0.0
 40
0.525
100
AcDbArc
 50
180.0
 51
270.0
  0
LINE
  5
165A
330
1A
100
AcDbEntity
  8
ZUWAKU
100
AcDbLine
 10
33.16721172142513
 20
13.80000064029711
 30
0.0
 11
33.30744588491382
 21
13.80000064029711
 31
0.0
  0
LINE
  5
165B
330
1A
100
AcDbEntity
  8
ZUWAKU
100
AcDbLine
 10
33.30744588491382
 20
16.60000064029712
 30
0.0
 11
33.16721172142513
 21
16.60000064029712
 31
0.0
  0
ARC
  5
165C
330
1A
100
AcDbEntity
  8
ZUWAKU
100
AcDbCircle
 10
33.30744588491382
 20
17.12500064029712
 30
0.0
 40
0.525
100
AcDbArc
 50
270.0
 51
342.474431626277
  0
ARC
  5
165D
330
1A
100
AcDbEntity
  8
ZUWAKU
100
AcDbCircle
 10
36.17697755793642
 20
7.67500064029712
 30
0.0
 40
0.525
100
AcDbArc
 50
197.525568373723
 51
270.0
  0
LINE
  5
165E
330
1A
100
AcDbEntity
  8
ZUWAKU
100
AcDbLine
 10
38.3764978367409
 20
7.833094608464094
 30
0.0
 11
36.05010645826724
 21
15.20000064029713
 31
0.0
  0
ARC
  5
165F
330
1A
100
AcDbEntity
  8
ZUWAKU
100
AcDbCircle
 10
37.87586693754543
 20
7.67500064029712
 30
0.0
 40
0.525
100
AcDbArc
 50
270.0
 51
17.52556837372303
  0
LINE
  5
1660
330
1A
100
AcDbEntity
  8
ZUWAKU
100
AcDbLine
 10
36.17697755793642
 20
7.150000640297122
 30
0.0
 11
37.87586693754543
 21
7.150000640297122
 31
0.0
  0
ARC
  5
1661
330
1A
100
AcDbEntity
  8
ZUWAKU
100
AcDbCircle
 10
41.21721172142509
 20
7.67500064029712
 30
0.0
 40
0.525
100
AcDbArc
 50
180.0
 51
270.0
  0
ARC
  5
1662
330
1A
100
AcDbEntity
  8
ZUWAKU
100
AcDbCircle
 10
50.14221172142516
 20
9.950000640297118
 30
0.0
 40
2.799999999999999
100
AcDbArc
 50
270.0
 51
0.0
  0
ARC
  5
1663
330
1A
100
AcDbEntity
  8
ZUWAKU
100
AcDbCircle
 10
57.84221172142509
 20
9.950000640297118
 30
0.0
 40
2.799999999999999
100
AcDbArc
 50
180.0
 51
270.0
  0
LINE
  5
1664
330
1A
100
AcDbEntity
  8
ZUWAKU
100
AcDbLine
 10
51.71206020240867
 20
14.73505114663594
 30
0.0
 11
48.8022622277639
 21
17.64484912128062
 31
0.0
  0
LINE
  5
1665
330
1A
100
AcDbEntity
  8
ZUWAKU
100
AcDbLine
 10
46.82236324044163
 20
15.66495013395829
 30
0.0
 11
49.7321612150863
 21
12.75515215931364
 31
0.0
  0
LINE
  5
1666
330
1A
100
AcDbEntity
  8
ZUWAKU
100
AcDbLine
 10
46.64221172142516
 20
7.150000640297122
 30
0.0
 11
50.14221172142516
 21
7.150000640297122
 31
0.0
  0
LINE
  5
1667
330
1A
100
AcDbEntity
  8
ZUWAKU
100
AcDbLine
 10
46.64221172142516
 20
9.950000640297118
 30
0.0
 11
49.61721172142507
 21
9.950000640297118
 31
0.0
  0
ARC
  5
1668
330
1A
100
AcDbEntity
  8
ZUWAKU
100
AcDbCircle
 10
46.64221172142516
 20
9.425000640297119
 30
0.0
 40
0.525
100
AcDbArc
 50
90.0
 51
180.0
  0
ARC
  5
1669
330
1A
100
AcDbEntity
  8
ZUWAKU
100
AcDbCircle
 10
42.96721172142509
 20
7.67500064029712
 30
0.0
 40
0.525
100
AcDbArc
 50
270.0
 51
0.0
  0
ARC
  5
166A
330
1A
100
AcDbEntity
  8
ZUWAKU
100
AcDbCircle
 10
46.64221172142516
 20
7.67500064029712
 30
0.0
 40
0.525
100
AcDbArc
 50
180.0
 51
270.0
  0
LINE
  5
166B
330
1A
100
AcDbEntity
  8
ZUWAKU
100
AcDbLine
 10
46.11721172142507
 20
7.67500064029712
 30
0.0
 11
46.11721172142507
 21
9.425000640297119
 31
0.0
  0
ARC
  5
166C
330
1A
100
AcDbEntity
  8
ZUWAKU
100
AcDbCircle
 10
49.61721172142507
 20
10.47500064029712
 30
0.0
 40
0.525
100
AcDbArc
 50
270.0
 51
0.0
  0
ARC
  5
166D
330
1A
100
AcDbEntity
  8
ZUWAKU
100
AcDbCircle
 10
48.74221172142507
 20
11.76520266565246
 30
0.0
 40
1.399999999999999
100
AcDbArc
 50
0.0
 51
45.0
  0
LINE
  5
166E
330
1A
100
AcDbEntity
  8
ZUWAKU
100
AcDbLine
 10
50.14221172142516
 20
10.47500064029712
 30
0.0
 11
50.14221172142516
 21
11.76520266565246
 31
0.0
  0
ARC
  5
166F
330
1A
100
AcDbEntity
  8
ZUWAKU
100
AcDbCircle
 10
58.89221172142516
 20
11.00000064029711
 30
0.0
 40
1.049999999999999
100
AcDbArc
 50
180.0
 51
270.0
  0
ARC
  5
1670
330
1A
100
AcDbEntity
  8
ZUWAKU
100
AcDbCircle
 10
48.74221172142507
 20
11.76520266565242
 30
0.0
 40
4.199999999999998
100
AcDbArc
 50
0.0
 51
45.0
  0
LINE
  5
1671
330
1A
100
AcDbEntity
  8
ZUWAKU
100
AcDbLine
 10
52.9422117214251
 20
9.950000640297118
 30
0.0
 11
52.9422117214251
 21
11.76520266565246
 31
0.0
  0
ARC
  5
1672
330
1A
100
AcDbEntity
  8
ZUWAKU
100
AcDbCircle
 10
61.34221172142509
 20
9.950000640297118
 30
0.0
 40
2.799999999999999
100
AcDbArc
 50
270.0
 51
0.0
  0
LINE
  5
1673
330
1A
100
AcDbEntity
  8
ZUWAKU
100
AcDbLine
 10
66.76721172142516
 20
7.150000640297122
 30
0.0
 11
68.51721172142516
 21
7.150000640297122
 31
0.0
  0
ARC
  5
1674
330
1A
100
AcDbEntity
  8
ZUWAKU
100
AcDbCircle
 10
60.29221172142513
 20
11.00000064029711
 30
0.0
 40
1.049999999999999
100
AcDbArc
 50
270.0
 51
0.0
  0
ARC
  5
1675
330
1A
100
AcDbEntity
  8
ZUWAKU
100
AcDbCircle
 10
66.76721172142516
 20
7.67500064029712
 30
0.0
 40
0.525
100
AcDbArc
 50
180.0
 51
270.0
  0
ARC
  5
1676
330
1A
100
AcDbEntity
  8
ZUWAKU
100
AcDbCircle
 10
68.51721172142516
 20
7.67500064029712
 30
0.0
 40
0.525
100
AcDbArc
 50
270.0
 51
0.0
  0
LINE
  5
1677
330
1A
100
AcDbEntity
  8
ZUWAKU
100
AcDbLine
 10
42.96721172142509
 20
23.25000064029711
 30
0.0
 11
41.21721172142509
 21
23.25000064029711
 31
0.0
  0
LINE
  5
1678
330
1A
100
AcDbEntity
  8
ZUWAKU
100
AcDbLine
 10
27.39221172142516
 20
22.72500064029712
 30
0.0
 11
27.39221172142516
 21
20.97500064029712
 31
0.0
  0
ARC
  5
1679
330
1A
100
AcDbEntity
  8
ZUWAKU
100
AcDbCircle
 10
26.86721172142507
 20
20.97500064029712
 30
0.0
 40
0.525
100
AcDbArc
 50
270.0
 51
0.0
  0
ARC
  5
167A
330
1A
100
AcDbEntity
  8
ZUWAKU
100
AcDbCircle
 10
30.36721172142506
 20
22.72500064029712
 30
0.0
 40
0.525
100
AcDbArc
 50
90.0
 51
180.0
  0
ARC
  5
167B
330
1A
100
AcDbEntity
  8
ZUWAKU
100
AcDbCircle
 10
26.86721172142507
 20
22.72500064029712
 30
0.0
 40
0.525
100
AcDbArc
 50
0.0
 51
90.0
  0
LINE
  5
167C
330
1A
100
AcDbEntity
  8
ZUWAKU
100
AcDbLine
 10
32.11721172142507
 20
23.25000064029711
 30
0.0
 11
30.36721172142506
 21
23.25000064029711
 31
0.0
  0
ARC
  5
167D
330
1A
100
AcDbEntity
  8
ZUWAKU
100
AcDbCircle
 10
32.11721172142507
 20
22.72500064029712
 30
0.0
 40
0.525
100
AcDbArc
 50
0.0
 51
90.0
  0
ARC
  5
167E
330
1A
100
AcDbEntity
  8
ZUWAKU
100
AcDbCircle
 10
36.17697755793642
 20
22.72500064029712
 30
0.0
 40
0.525
100
AcDbArc
 50
90.0
 51
162.4744316262769
  0
LINE
  5
167F
330
1A
100
AcDbEntity
  8
ZUWAKU
100
AcDbLine
 10
38.3764978367409
 20
22.56690667213015
 30
0.0
 11
37.31485820360308
 21
19.20504783386054
 31
0.0
  0
ARC
  5
1680
330
1A
100
AcDbEntity
  8
ZUWAKU
100
AcDbCircle
 10
37.87586693754543
 20
22.72500064029712
 30
0.0
 40
0.525
100
AcDbArc
 50
342.474431626277
 51
90.0
  0
LINE
  5
1681
330
1A
100
AcDbEntity
  8
ZUWAKU
100
AcDbLine
 10
36.17697755793642
 20
23.25000064029711
 30
0.0
 11
37.87586693754543
 21
23.25000064029711
 31
0.0
  0
ARC
  5
1682
330
1A
100
AcDbEntity
  8
ZUWAKU
100
AcDbCircle
 10
41.21721172142509
 20
22.72500064029712
 30
0.0
 40
0.525
100
AcDbArc
 50
90.0
 51
180.0
  0
LINE
  5
1683
330
1A
100
AcDbEntity
  8
ZUWAKU
100
AcDbLine
 10
51.89221172142516
 20
20.45000064029711
 30
0.0
 11
48.91721172142513
 21
20.45000064029711
 31
0.0
  0
LINE
  5
1684
330
1A
100
AcDbEntity
  8
ZUWAKU
100
AcDbLine
 10
48.39221172142515
 20
23.25000064029711
 30
0.0
 11
51.89221172142516
 21
23.25000064029711
 31
0.0
  0
ARC
  5
1685
330
1A
100
AcDbEntity
  8
ZUWAKU
100
AcDbCircle
 10
48.39221172142515
 20
20.45000064029711
 30
0.0
 40
2.799999999999999
100
AcDbArc
 50
90.0
 51
180.0
  0
LINE
  5
1686
330
1A
100
AcDbEntity
  8
ZUWAKU
100
AcDbLine
 10
45.59221172142509
 20
20.45000064029711
 30
0.0
 11
45.59221172142509
 21
18.63479861494178
 31
0.0
  0
ARC
  5
1687
330
1A
100
AcDbEntity
  8
ZUWAKU
100
AcDbCircle
 10
42.96721172142509
 20
22.72500064029712
 30
0.0
 40
0.525
100
AcDbArc
 50
0.0
 51
90.0
  0
LINE
  5
1688
330
1A
100
AcDbEntity
  8
ZUWAKU
100
AcDbLine
 10
48.39221172142515
 20
19.92500064029711
 30
0.0
 11
48.39221172142515
 21
18.63479861494178
 31
0.0
  0
ARC
  5
1689
330
1A
100
AcDbEntity
  8
ZUWAKU
100
AcDbCircle
 10
48.91721172142513
 20
19.92500064029711
 30
0.0
 40
0.525
100
AcDbArc
 50
90.0
 51
180.0
  0
LINE
  5
168A
330
1A
100
AcDbEntity
  8
ZUWAKU
100
AcDbLine
 10
52.41721172142513
 20
22.72500064029712
 30
0.0
 11
52.41721172142513
 21
20.97500064029712
 31
0.0
  0
ARC
  5
168B
330
1A
100
AcDbEntity
  8
ZUWAKU
100
AcDbCircle
 10
51.89221172142516
 20
20.97500064029712
 30
0.0
 40
0.525
100
AcDbArc
 50
270.0
 51
0.0
  0
ARC
  5
168C
330
1A
100
AcDbEntity
  8
ZUWAKU
100
AcDbCircle
 10
51.89221172142516
 20
22.72500064029712
 30
0.0
 40
0.525
100
AcDbArc
 50
0.0
 51
90.0
  0
LINE
  5
168D
330
1A
100
AcDbEntity
  8
ZUWAKU
100
AcDbLine
 10
57.3172117214251
 20
23.25000064029711
 30
0.0
 11
55.5672117214251
 21
23.25000064029711
 31
0.0
  0
ARC
  5
168E
330
1A
100
AcDbEntity
  8
ZUWAKU
100
AcDbCircle
 10
55.5672117214251
 20
22.72500064029712
 30
0.0
 40
0.525
100
AcDbArc
 50
90.0
 51
180.0
  0
ARC
  5
168F
330
1A
100
AcDbEntity
  8
ZUWAKU
100
AcDbCircle
 10
57.3172117214251
 20
22.72500064029712
 30
0.0
 40
0.525
100
AcDbArc
 50
0.0
 51
90.0
  0
LINE
  5
1690
330
1A
100
AcDbEntity
  8
ZUWAKU
100
AcDbLine
 10
68.51721172142516
 20
23.25000064029711
 30
0.0
 11
66.76721172142516
 21
23.25000064029711
 31
0.0
  0
ARC
  5
1691
330
1A
100
AcDbEntity
  8
ZUWAKU
100
AcDbCircle
 10
61.86721172142507
 20
22.72500064029712
 30
0.0
 40
0.525
100
AcDbArc
 50
90.0
 51
180.0
  0
LINE
  5
1692
330
1A
100
AcDbEntity
  8
ZUWAKU
100
AcDbLine
 10
63.61721172142507
 20
23.25000064029711
 30
0.0
 11
61.86721172142507
 21
23.25000064029711
 31
0.0
  0
ARC
  5
1693
330
1A
100
AcDbEntity
  8
ZUWAKU
100
AcDbCircle
 10
63.61721172142507
 20
22.72500064029712
 30
0.0
 40
0.525
100
AcDbArc
 50
0.0
 51
90.0
  0
ARC
  5
1694
330
1A
100
AcDbEntity
  8
ZUWAKU
100
AcDbCircle
 10
66.76721172142516
 20
22.72500064029712
 30
0.0
 40
0.525
100
AcDbArc
 50
90.0
 51
180.0
  0
ARC
  5
1695
330
1A
100
AcDbEntity
  8
ZUWAKU
100
AcDbCircle
 10
68.51721172142516
 20
22.72500064029712
 30
0.0
 40
0.525
100
AcDbArc
 50
0.0
 51
90.0
  0
TEXT
  5
1696
330
1A
100
AcDbEntity
  8
MOJI
100
AcDbText
 10
239.8272022474949
 20
3.204921697704538
 30
0.0
 40
5.599999999999999
  1
Σ９０－４－１０～４５（Ⅱ）
 41
0.9
  7
ｽﾀｲﾙ1
100
AcDbText
  0
TEXT
  5
1697
330
1A
100
AcDbEntity
  8
MOJI
100
AcDbText
 10
239.8272022474949
 20
18.0049216977045
 30
0.0
 40
5.599999999999999
  1
ブラケット正面打（吊）自在式
 41
0.9
  7
ｽﾀｲﾙ1
100
AcDbText
  0
LINE
  5
1698
330
1A
100
AcDbEntity
  8
ZUWAKU
100
AcDbLine
 10
208.4466008567117
 20
30.00000064029711
 30
0.0
 11
208.4466008567119
 21
0.8000006402971849
 31
0.0
  0
LINE
  5
1699
330
1A
100
AcDbEntity
  8
ZUWAKU
100
AcDbLine
 10
208.6466008567118
 20
30.00000064029711
 30
0.0
 11
208.646600856712
 21
0.8000006402971849
 31
0.0
  0
LINE
  5
169A
330
1A
100
AcDbEntity
  8
ZUWAKU
100
AcDbLine
 10
208.2466008567119
 20
30.00000064029711
 30
0.0
 11
208.2466008567119
 21
0.8000006402971849
 31
0.0
  0
TEXT
  5
169B
330
1A
100
AcDbEntity
  8
ZUWAKU
100
AcDbText
 10
209.7240458789215
 20
9.655357178682735
 30
0.0
 40
4.0
  1
サイズ
 41
0.9
  7
ｽﾀｲﾙ1
100
AcDbText
  0
TEXT
  5
169C
330
1A
100
AcDbEntity
  8
ZUWAKU
100
AcDbText
 10
209.7240458789213
 20
24.05535717868269
 30
0.0
 40
4.0
  1
品名
 41
0.9
  7
ｽﾀｲﾙ1
100
AcDbText
  0
TEXT
  5
169D
330
1A
100
AcDbEntity
  8
ZUWAKU
100
AcDbText
 10
654.5120755663309
 20
18.0049216977045
 30
0.0
 40
5.599999999999999
  1
　　．　．　　
 41
0.9
  7
ｽﾀｲﾙ1
100
AcDbText
  0
LINE
  5
169E
330
1A
100
AcDbEntity
  8
ZUWAKU
100
AcDbLine
 10
648.8172020768482
 20
15.60000064029715
 30
0.0
 11
697.2490101151852
 21
15.60000064029715
 31
0.0
  0
LINE
  5
169F
330
1A
100
AcDbEntity
  8
ZUWAKU
100
AcDbLine
 10
648.8172020768483
 20
15.40000064029715
 30
0.0
 11
697.2490101151852
 21
15.40000064029714
 31
0.0
  0
LINE
  5
16A0
330
1A
100
AcDbEntity
  8
ZUWAKU
100
AcDbLine
 10
648.8172020768482
 20
15.20000064029714
 30
0.0
 11
697.2490101151852
 21
15.20000064029714
 31
0.0
  0
LINE
  5
16A1
330
1A
100
AcDbEntity
  8
ZUWAKU
100
AcDbLine
 10
505.1991790647847
 20
15.60000064029715
 30
0.0
 11
552.5269553327564
 21
15.60000064029715
 31
0.0
  0
LINE
  5
16A2
330
1A
100
AcDbEntity
  8
ZUWAKU
100
AcDbLine
 10
505.1991790647847
 20
15.40000064029714
 30
0.0
 11
552.5269553327564
 21
15.40000064029714
 31
0.0
  0
LINE
  5
16A3
330
1A
100
AcDbEntity
  8
ZUWAKU
100
AcDbLine
 10
505.1991790647847
 20
15.20000064029715
 30
0.0
 11
552.5269553327564
 21
15.20000064029715
 31
0.0
  0
LINE
  5
16A4
330
1A
100
AcDbEntity
  8
ZUWAKU
100
AcDbLine
 10
504.7991790647849
 20
30.00000064029711
 30
0.0
 11
504.7991790647849
 21
0.8000006402971849
 31
0.0
  0
LINE
  5
16A5
330
1A
100
AcDbEntity
  8
ZUWAKU
100
AcDbLine
 10
505.1991790647847
 20
30.00000064029711
 30
0.0
 11
505.1991790647851
 21
0.8000006402971849
 31
0.0
  0
LINE
  5
16A6
330
1A
100
AcDbEntity
  8
ZUWAKU
100
AcDbLine
 10
504.9991790647848
 20
30.00000064029711
 30
0.0
 11
504.9991790647849
 21
0.8000006402971849
 31
0.0
  0
TEXT
  5
16A7
330
1A
100
AcDbEntity
  8
MOJI
100
AcDbText
 10
528.0409075389568
 20
18.0049216977045
 30
0.0
 40
5.599999999999999
  1
Ａ３
 41
0.9
  7
ｽﾀｲﾙ1
100
AcDbText
  0
LINE
  5
16A8
330
1A
100
AcDbEntity
  8
ZUWAKU
100
AcDbLine
 10
447.4243635376353
 20
30.00000064029711
 30
0.0
 11
447.4243635376353
 21
0.8000006402971849
 31
0.0
  0
LINE
  5
16A9
330
1A
100
AcDbEntity
  8
ZUWAKU
100
AcDbLine
 10
447.8243635376351
 20
30.00000064029711
 30
0.0
 11
447.8243635376355
 21
0.8000006402971849
 31
0.0
  0
LINE
  5
16AA
330
1A
100
AcDbEntity
  8
ZUWAKU
100
AcDbLine
 10
447.6243635376351
 20
30.00000064029711
 30
0.0
 11
447.6243635376353
 21
0.8000006402971849
 31
0.0
  0
TEXT
  5
16AB
330
1A
100
AcDbEntity
  8
MOJI
100
AcDbText
 10
463.246431557646
 20
11.9426183619571
 30
0.0
 40
5.599999999999999
  1
ＬＪ０５Ｔ
 41
0.9
  7
ｽﾀｲﾙ1
100
AcDbText
  0
TEXT
  5
16AC
330
1A
100
AcDbEntity
  8
ZUWAKU
100
AcDbText
 10
506.6766240869947
 20
9.655357178682735
 30
0.0
 40
4.0
  1
縮尺
 41
0.9
  7
ｽﾀｲﾙ1
100
AcDbText
  0
TEXT
  5
16AD
330
1A
100
AcDbEntity
  8
MOJI
100
AcDbText
 10
528.0409075389568
 20
3.204921697704538
 30
0.0
 40
5.599999999999999
  1
１/２
 41
0.9
  7
ｽﾀｲﾙ1
100
AcDbText
  0
TEXT
  5
16AE
330
1A
100
AcDbEntity
  8
ZUWAKU
100
AcDbText
 10
449.3018085598449
 20
24.05535717868269
 30
0.0
 40
4.0
  1
品番
 41
0.9
  7
ｽﾀｲﾙ1
100
AcDbText
  0
TEXT
  5
16AF
330
1A
100
AcDbEntity
  8
ZUWAKU
100
AcDbText
 10
506.6766240869944
 20
24.05535717868269
 30
0.0
 40
4.0
  1
用紙
 41
0.9
  7
ｽﾀｲﾙ1
100
AcDbText
  0
LINE
  5
16B0
330
1A
100
AcDbEntity
  8
ZUWAKU
100
AcDbLine
 10
552.5269553327564
 20
30.00000064029711
 30
0.0
 11
552.5269553327564
 21
0.8000006402971849
 31
0.0
  0
LINE
  5
16B1
330
1A
100
AcDbEntity
  8
ZUWAKU
100
AcDbLine
 10
552.9269553327563
 20
30.00000064029711
 30
0.0
 11
552.9269553327564
 21
0.8000006402971849
 31
0.0
  0
LINE
  5
16B2
330
1A
100
AcDbEntity
  8
ZUWAKU
100
AcDbLine
 10
552.7269553327564
 20
30.00000064029711
 30
0.0
 11
552.7269553327564
 21
0.8000006402971849
 31
0.0
  0
LINE
  5
16B3
330
1A
100
AcDbEntity
  8
ZUWAKU
100
AcDbLine
 10
648.4172020768485
 20
30.00000064029711
 30
0.0
 11
648.4172020768485
 21
0.8000006402971849
 31
0.0
  0
LINE
  5
16B4
330
1A
100
AcDbEntity
  8
ZUWAKU
100
AcDbLine
 10
648.8172020768483
 20
30.00000064029711
 30
0.0
 11
648.8172020768487
 21
0.8000006402971849
 31
0.0
  0
LINE
  5
16B5
330
1A
100
AcDbEntity
  8
ZUWAKU
100
AcDbLine
 10
648.6172020768481
 20
30.00000064029711
 30
0.0
 11
648.6172020768486
 21
0.8000006402971849
 31
0.0
  0
TEXT
  5
16B6
330
1A
100
AcDbEntity
  8
ZUWAKU
100
AcDbText
 10
650.2946470990579
 20
24.05535717868269
 30
0.0
 40
4.0
  1
DATE
 41
0.9
  7
ｽﾀｲﾙ1
100
AcDbText
  0
TEXT
  5
16B7
330
1A
100
AcDbEntity
  8
ZUWAKU
100
AcDbText
 10
708.5280837588877
 20
17.55383997598391
 30
0.0
 40
6.0
  1
積水化学工業株式会社
 41
0.9
  7
ｽﾀｲﾙ1
100
AcDbText
  0
LINE
  5
16B8
330
1A
100
AcDbEntity
  8
ZUWAKU
100
AcDbLine
 10
697.8490101151853
 20
30.00000064029711
 30
0.0
 11
697.8490101151853
 21
0.8000006402971849
 31
0.0
  0
LINE
  5
16B9
330
1A
100
AcDbEntity
  8
ZUWAKU
100
AcDbLine
 10
697.6490101151851
 20
30.00000064029711
 30
0.0
 11
697.6490101151853
 21
0.8000006402971849
 31
0.0
  0
LINE
  5
16BA
330
1A
100
AcDbEntity
  8
ZUWAKU
100
AcDbLine
 10
697.4490101151853
 20
30.00000064029711
 30
0.0
 11
697.4490101151853
 21
0.8000006402971849
 31
0.0
  0
LINE
  5
16BB
330
1A
100
AcDbEntity
  8
ZUWAKU
100
AcDbLine
 10
697.2490101151852
 20
30.00000064029711
 30
0.0
 11
697.2490101151852
 21
0.8000006402971849
 31
0.0
  0
TEXT
  5
16BC
330
1A
100
AcDbEntity
  8
ZUWAKU
100
AcDbText
 10
708.5280837588877
 20
6.648840954151182
 30
0.0
 40
6.0
  1
建材事業部
 41
0.9
  7
ｽﾀｲﾙ1
100
AcDbText
  0
LINE
  5
2F99
330
1A
100
AcDbEntity
  8
CENTER L
 48
5.0
100
AcDbLine
 10
383.2987920805941
 20
212.7785170054824
 30
0.0
 11
403.7254802719576
 21
220.9486093875546
 31
0.0
  0
LINE
  5
2F9A
330
1A
100
AcDbEntity
  8
SEIHIN
  6
PHANTOM
 62
     6
 48
3.0
100
AcDbLine
 10
391.6555619505332
 20
232.2763219419232
 30
0.0
 11
410.2239537280332
 21
185.8520305979232
 31
0.0
  0
LINE
  5
2F9B
330
1A
100
AcDbEntity
  8
CENTER L
 48
5.0
100
AcDbLine
 10
392.5829879693316
 20
189.5663713335025
 30
0.0
 11
413.0096761606991
 21
197.7364637155764
 31
0.0
  0
DIMENSION
  5
2F9C
330
1A
100
AcDbEntity
  8
SUNPOU
 48
5.0
100
AcDbDimension
  2
*D9
 10
406.6061160028261
 20
360.6006405817371
 30
0.0
 11
401.606116002826
 21
377.1006405817372
 31
0.0
 70
    32
 71
     5
 42
33.0
  3
STANDARD
100
AcDbAlignedDimension
 13
348.0846469892332
 23
393.6006405817371
 33
0.0
 14
348.0846469892332
 24
360.6006405817371
 34
0.0
 50
90.0
100
AcDbRotatedDimension
1001
ACAD
1000
DSTYLE
1002
{
1070
   140
1040
6.0
1070
    74
1070
     0
1070
   172
1070
     1
1070
    73
1070
     0
1070
   272
1070
     2
1070
    77
1070
     3
1070
   173
1070
     1
1070
   147
1040
2.0
1070
    42
1040
6.0
1070
    44
1040
3.0
1070
    43
1040
14.0
1070
   271
1070
     0
1070
   178
1070
     4
1070
   177
1070
     4
1070
   176
1070
     4
1070
   141
1040
150.0
1070
     7
1000
_OPEN
1070
     6
1000
_OPEN
1070
    41
1040
7.0
1002
}
  0
DIMENSION
  5
2F9D
330
1A
100
AcDbEntity
  8
SUNPOU
 48
5.0
100
AcDbDimension
  2
*D10
 10
425.0370249011129
 20
340.1006405817371
 30
0.0
 11
420.0370249011128
 21
377.1006405817372
 31
0.0
 70
    32
 71
     5
 42
74.0
  3
STANDARD
100
AcDbAlignedDimension
 13
371.5102753725297
 23
414.1006405817371
 33
0.0
 14
371.5102753725297
 24
340.1006405817371
 34
0.0
 50
90.0
100
AcDbRotatedDimension
1001
ACAD
1000
DSTYLE
1002
{
1070
   140
1040
6.0
1070
    74
1070
     0
1070
   172
1070
     1
1070
    73
1070
     0
1070
   272
1070
     2
1070
    77
1070
     3
1070
   173
1070
     1
1070
   147
1040
2.0
1070
    42
1040
6.0
1070
    44
1040
3.0
1070
    43
1040
14.0
1070
   271
1070
     0
1070
   178
1070
     4
1070
   177
1070
     4
1070
   176
1070
     4
1070
   141
1040
150.0
1070
     7
1000
_OPEN
1070
     6
1000
_OPEN
1070
    41
1040
7.0
1002
}
  0
TEXT
  5
2F9E
330
1A
100
AcDbEntity
  8
SUNPOU
 48
5.0
100
AcDbText
 10
389.9541467597422
 20
267.8154126198248
 30
0.0
 40
6.0
  1
スライド巾
100
AcDbText
  0
DIMENSION
  5
2F9F
330
1A
100
AcDbEntity
  8
SUNPOU
 48
5.0
100
AcDbDimension
  2
*D11
 10
224.6985301077332
 20
289.424325350638
 30
0.0
 11
290.6770460291332
 21
294.424325350638
 31
0.0
 70
    32
 71
     5
 42
131.9570318428
  3
STANDARD
100
AcDbAlignedDimension
 13
356.6555619505332
 23
232.2763219419232
 33
0.0
 14
224.6985301077332
 24
227.2355030630232
 34
0.0
100
AcDbRotatedDimension
1001
ACAD
1000
DSTYLE
1002
{
1070
   140
1040
6.0
1070
    74
1070
     0
1070
   172
1070
     1
1070
    73
1070
     0
1070
   272
1070
     2
1070
    77
1070
     3
1070
   173
1070
     1
1070
   147
1040
2.0
1070
    42
1040
6.0
1070
    44
1040
3.0
1070
    43
1040
14.0
1070
   271
1070
     0
1070
   178
1070
     4
1070
   177
1070
     4
1070
   176
1070
     4
1070
   141
1040
150.0
1070
     7
1000
_OPEN
1070
     6
1000
_OPEN
1070
    41
1040
7.0
1002
}
  0
LINE
  5
2FA0
330
1A
100
AcDbEntity
  8
SEIHIN
  6
Continuous
 62
     3
 48
5.0
100
AcDbLine
 10
262.1555619505332
 20
211.1831671068232
 30
0.0
 11
273.1555619505332
 21
211.1831671068232
 31
0.0
  0
ARC
  5
2FA1
330
1A
100
AcDbEntity
  8
SEIHIN
  6
Continuous
 62
     3
 48
5.0
100
AcDbCircle
 10
267.6555619505332
 20
201.8498337735232
 30
0.0
 40
10.8333333333
100
AcDbArc
 50
59.48976259389963
 51
120.5102374061004
  0
LINE
  5
2FA2
330
1A
100
AcDbEntity
  8
SEIHIN
  6
Continuous
 62
     3
 48
5.0
100
AcDbLine
 10
257.6555619505332
 20
210.1831671068232
 30
0.0
 11
275.6653724772332
 21
210.1831671068232
 31
0.0
  0
LINE
  5
2FA3
330
1A
100
AcDbEntity
  8
SEIHIN
  6
Continuous
 62
     3
 48
5.0
100
AcDbLine
 10
271.9600183531331
 20
185.8702484549232
 30
0.0
 11
271.2767343408332
 21
184.5036804304232
 31
0.0
  0
LINE
  5
2FA4
330
1A
100
AcDbEntity
  8
SEIHIN
  6
Continuous
 62
     3
 48
5.0
100
AcDbLine
 10
271.6555619505332
 20
188.3793696384232
 30
0.0
 11
272.1555619505332
 21
187.3793696384232
 31
0.0
  0
LINE
  5
2FA5
330
1A
100
AcDbEntity
  8
SEIHIN
  6
Continuous
 62
     3
 48
5.0
100
AcDbLine
 10
272.1555619505332
 20
187.3793696384232
 30
0.0
 11
263.1555619505332
 21
187.3793696384232
 31
0.0
  0
LINE
  5
2FA6
330
1A
100
AcDbEntity
  8
SEIHIN
  6
Continuous
 62
     3
 48
5.0
100
AcDbLine
 10
273.1555619505332
 20
188.3793696384232
 30
0.0
 11
262.1555619505332
 21
188.3793696384232
 31
0.0
  0
LINE
  5
2FA7
330
1A
100
AcDbEntity
  8
SEIHIN
  6
Continuous
 62
     3
 48
5.0
100
AcDbLine
 10
273.1555619505332
 20
189.8793696384232
 30
0.0
 11
262.1555619505332
 21
189.8793696384232
 31
0.0
  0
LINE
  5
2FA8
330
1A
100
AcDbEntity
  8
SEIHIN
  6
Continuous
 62
     3
 48
5.0
100
AcDbLine
 10
271.2431859625332
 20
184.1427130687232
 30
0.0
 11
272.8829759340332
 21
178.4034481687232
 31
0.0
  0
LINE
  5
2FA9
330
1A
100
AcDbEntity
  8
SEIHIN
  6
Continuous
 62
     3
 48
5.0
100
AcDbLine
 10
270.7591732179332
 20
184.0167302024233
 30
0.0
 11
272.4022139601332
 21
178.2660876047233
 31
0.0
  0
LINE
  5
2FAA
330
1A
100
AcDbEntity
  8
SEIHIN
  6
Continuous
 62
     3
 48
5.0
100
AcDbLine
 10
270.6555619505332
 20
184.3793696384232
 30
0.0
 11
272.1555619505332
 21
187.3793696384232
 31
0.0
  0
LINE
  5
2FAB
330
1A
100
AcDbEntity
  8
SEIHIN
  6
Continuous
 62
     3
 48
5.0
100
AcDbLine
 10
261.6555619505332
 20
200.1831671068232
 30
0.0
 11
284.0112936792332
 21
200.1831671068232
 31
0.0
  0
LINE
  5
2FAC
330
1A
100
AcDbEntity
  8
SEIHIN
  6
Continuous
 62
     3
 48
5.0
100
AcDbLine
 10
255.4520885295332
 20
192.0340042099232
 30
0.0
 11
318.3526518274331
 21
191.2377945479232
 31
0.0
  0
LINE
  5
2FAD
330
1A
100
AcDbEntity
  8
SEIHIN
  6
Continuous
 62
     3
 48
5.0
100
AcDbLine
 10
255.4734036416331
 20
190.0335741740232
 30
0.0
 11
322.6555619505332
 21
189.1831671068232
 31
0.0
  0
DIMENSION
  5
2FAE
330
1A
100
AcDbEntity
  8
SUNPOU
 48
5.0
100
AcDbDimension
  2
*D12
 10
257.6555619505332
 20
275.1857285718728
 30
0.0
 11
307.1555619505332
 21
280.1857285718728
 31
0.0
 70
    32
 71
     5
 42
99.0
  3
STANDARD
100
AcDbAlignedDimension
 13
356.6555619505332
 23
232.2763219419232
 33
0.0
 14
257.6555619505332
 24
210.1831671068232
 34
0.0
100
AcDbRotatedDimension
1001
ACAD
1000
DSTYLE
1002
{
1070
   140
1040
6.0
1070
    74
1070
     0
1070
   172
1070
     1
1070
    73
1070
     0
1070
   272
1070
     2
1070
    77
1070
     3
1070
   173
1070
     1
1070
   147
1040
2.0
1070
    42
1040
6.0
1070
    44
1040
3.0
1070
    43
1040
14.0
1070
   271
1070
     0
1070
   178
1070
     4
1070
   177
1070
     4
1070
   176
1070
     4
1070
   141
1040
150.0
1070
     7
1000
_OPEN
1070
     6
1000
_OPEN
1070
    41
1040
7.0
1002
}
  0
DIMENSION
  5
2FAF
330
1A
100
AcDbEntity
  8
SUNPOU
 48
5.0
100
AcDbDimension
  2
*D13
 10
199.4689680812597
 20
183.6238235846232
 30
0.0
 11
194.4689680812597
 21
205.9034953457232
 31
0.0
 70
    32
 71
     5
 42
44.55934352219995
  3
STANDARD
100
AcDbAlignedDimension
 13
225.7233927209331
 23
228.1831671068232
 33
0.0
 14
369.6530387667332
 24
183.6238235846232
 34
0.0
 50
90.0
100
AcDbRotatedDimension
1001
ACAD
1000
DSTYLE
1002
{
1070
   140
1040
6.0
1070
    74
1070
     0
1070
   172
1070
     1
1070
    73
1070
     0
1070
   272
1070
     2
1070
    77
1070
     3
1070
   173
1070
     1
1070
   147
1040
2.0
1070
    42
1040
6.0
1070
    44
1040
3.0
1070
    43
1040
14.0
1070
   271
1070
     0
1070
   178
1070
     4
1070
   177
1070
     4
1070
   176
1070
     4
1070
   141
1040
150.0
1070
     7
1000
_OPEN
1070
     6
1000
_OPEN
1070
    41
1040
7.0
1002
}
  0
ARC
  5
2FB0
330
1A
100
AcDbEntity
  8
SEIHIN
  6
Continuous
 62
     3
 48
5.0
100
AcDbCircle
 10
257.5159684539332
 20
217.1831671068232
 30
0.0
 40
12.0
100
AcDbArc
 50
200.2701048385998
 51
270.0
  0
ARC
  5
2FB1
330
1A
100
AcDbEntity
  8
SEIHIN
  6
Continuous
 62
     3
 48
5.0
100
AcDbCircle
 10
257.5159684539332
 20
217.1831671068232
 30
0.0
 40
14.0
100
AcDbArc
 50
200.2701048385998
 51
270.0
  0
LINE
  5
2FB2
330
1A
100
AcDbEntity
  8
SEIHIN
  6
Continuous
 62
     3
 48
5.0
100
AcDbLine
 10
239.9903491353332
 20
215.3345148319231
 30
0.0
 11
242.9865347241331
 21
202.1512982413232
 31
0.0
  0
LINE
  5
2FB3
330
1A
100
AcDbEntity
  8
SEIHIN
  6
Continuous
 62
     3
 48
5.0
100
AcDbLine
 10
238.0400834237331
 20
214.8912726247232
 30
0.0
 11
241.0362690125331
 21
201.7080560341232
 31
0.0
  0
LINE
  5
2FB4
330
1A
100
AcDbEntity
  8
SEIHIN
  6
Continuous
 62
     3
 48
5.0
100
AcDbLine
 10
257.6555619505332
 20
210.1831671068232
 30
0.0
 11
257.6555619505332
 21
204.1831671068232
 31
0.0
  0
LINE
  5
2FB5
330
1A
100
AcDbEntity
  8
CENTER L
 48
5.0
100
AcDbLine
 10
267.6555619505331
 20
173.8180884837231
 30
0.0
 11
267.6555619505331
 21
219.6831671068232
 31
0.0
  0
ARC
  5
2FB6
330
1A
100
AcDbEntity
  8
SEIHIN
  6
Continuous
 62
     3
 48
5.0
100
AcDbCircle
 10
255.6632618494332
 20
205.0323725879232
 30
0.0
 40
15.0
100
AcDbArc
 50
192.8042660653005
 51
269.2747757009008
  0
LINE
  5
2FB7
330
1A
100
AcDbEntity
  8
SEIHIN
  6
Continuous
 62
     3
 48
5.0
100
AcDbLine
 10
270.1555619505332
 20
184.3793696384232
 30
0.0
 11
270.1555619505332
 21
180.8180884837232
 31
0.0
  0
LINE
  5
2FB8
330
1A
100
AcDbEntity
  8
SEIHIN
  6
Continuous
 62
     3
 48
5.0
100
AcDbLine
 10
265.1555619505332
 20
184.3793696384232
 30
0.0
 11
265.1555619505332
 21
180.8180884837232
 31
0.0
  0
LINE
  5
2FB9
330
1A
100
AcDbEntity
  8
SEIHIN
  6
Continuous
 62
     3
 48
5.0
100
AcDbLine
 10
264.0679379385332
 20
184.1427130687232
 30
0.0
 11
262.4281479670332
 21
178.4034481687232
 31
0.0
  0
LINE
  5
2FBA
330
1A
100
AcDbEntity
  8
SEIHIN
  6
Continuous
 62
     3
 48
5.0
100
AcDbLine
 10
264.5519506831331
 20
184.0167302024233
 30
0.0
 11
262.9089099409332
 21
178.2660876047233
 31
0.0
  0
LINE
  5
2FBB
330
1A
100
AcDbEntity
  8
SEIHIN
  6
Continuous
 62
     3
 48
5.0
100
AcDbLine
 10
258.6266630018332
 20
179.3189435191232
 30
0.0
 11
259.4710056403332
 21
181.1952604936232
 31
0.0
  0
LINE
  5
2FBC
330
1A
100
AcDbEntity
  8
SEIHIN
  6
Continuous
 62
     3
 48
5.0
100
AcDbLine
 10
258.1707022492332
 20
179.5241258577232
 30
0.0
 11
259.0150448877331
 21
181.4004428323232
 31
0.0
  0
ARC
  5
2FBD
330
1A
100
AcDbEntity
  8
SEIHIN
  6
Continuous
 62
     3
 48
5.0
100
AcDbCircle
 10
261.9473859932332
 20
178.5408087326232
 30
0.0
 40
1.0
100
AcDbArc
 50
258.6900675260006
 51
344.0546040990998
  0
ARC
  5
2FBE
330
1A
100
AcDbEntity
  8
SEIHIN
  6
Continuous
 62
     3
 48
5.0
100
AcDbCircle
 10
261.9473859932332
 20
178.5408087326232
 30
0.0
 40
0.5
100
AcDbArc
 50
258.6900675260006
 51
344.0546040990998
  0
ARC
  5
2FBF
330
1A
100
AcDbEntity
  8
SEIHIN
  6
Continuous
 62
     3
 48
5.0
100
AcDbCircle
 10
259.0826237543332
 20
179.1137611804232
 30
0.0
 40
0.5
100
AcDbArc
 50
155.772254682
 51
258.6900675260006
  0
ARC
  5
2FC0
330
1A
100
AcDbEntity
  8
SEIHIN
  6
Continuous
 62
     3
 48
5.0
100
AcDbCircle
 10
259.0826237543332
 20
179.1137611804232
 30
0.0
 40
1.0
100
AcDbArc
 50
155.772254682
 51
258.6900675258993
  0
LINE
  5
2FC1
330
1A
100
AcDbEntity
  8
SEIHIN
  6
Continuous
 62
     3
 48
5.0
100
AcDbLine
 10
258.8865076192332
 20
178.1331805047232
 30
0.0
 11
261.7512698581331
 21
177.5602280569232
 31
0.0
  0
LINE
  5
2FC2
330
1A
100
AcDbEntity
  8
SEIHIN
  6
Continuous
 62
     3
 48
5.0
100
AcDbLine
 10
258.9845656868332
 20
178.6234708425232
 30
0.0
 11
261.8493279257332
 21
178.0505183948232
 31
0.0
  0
LINE
  5
2FC3
330
1A
100
AcDbEntity
  8
SEIHIN
  6
Continuous
 62
     3
 48
5.0
100
AcDbLine
 10
265.1555619505332
 20
180.8180884837232
 30
0.0
 11
270.1555619505332
 21
180.8180884837232
 31
0.0
  0
ARC
  5
2FC4
330
1A
100
AcDbEntity
  8
SEIHIN
  6
Continuous
 62
     3
 48
5.0
100
AcDbCircle
 10
255.6632618494332
 20
205.0323725879232
 30
0.0
 40
13.0
100
AcDbArc
 50
192.8042660653005
 51
269.2747757009008
  0
LINE
  5
2FC5
330
1A
100
AcDbEntity
  8
SEIHIN
  6
Continuous
 62
     3
 48
5.0
100
AcDbLine
 10
254.6555619505332
 20
203.4784936472233
 30
0.0
 11
254.6555619505332
 21
192.0685367483232
 31
0.0
  0
LINE
  5
2FC6
330
1A
100
AcDbEntity
  8
SEIHIN
  6
Continuous
 62
     3
 48
5.0
100
AcDbLine
 10
263.3511055479331
 20
185.8702484549232
 30
0.0
 11
264.0343895602332
 21
184.5036804304232
 31
0.0
  0
LINE
  5
2FC7
330
1A
100
AcDbEntity
  8
SEIHIN
  6
Continuous
 62
     3
 48
5.0
100
AcDbLine
 10
263.1555619505332
 20
187.3793696384232
 30
0.0
 11
264.6555619505332
 21
184.3793696384232
 31
0.0
  0
ARC
  5
2FC8
330
1A
100
AcDbEntity
  8
SEIHIN
  6
Continuous
 62
     3
 48
5.0
100
AcDbCircle
 10
262.9038920084332
 20
185.6466416085232
 30
0.0
 40
0.5
100
AcDbArc
 50
26.56505902430012
 51
139.0464503444999
  0
LINE
  5
2FC9
330
1A
100
AcDbEntity
  8
SEIHIN
  6
Continuous
 62
     3
 48
5.0
100
AcDbLine
 10
262.1555619505332
 20
189.8793696384232
 30
0.0
 11
262.1555619505332
 21
188.3793696384232
 31
0.0
  0
LINE
  5
2FCA
330
1A
100
AcDbEntity
  8
SEIHIN
  6
Continuous
 62
     3
 48
5.0
100
AcDbLine
 10
263.6555619505332
 20
188.3793696384232
 30
0.0
 11
263.1555619505332
 21
187.3793696384232
 31
0.0
  0
ARC
  5
2FCB
330
1A
100
AcDbEntity
  8
SEIHIN
  6
Continuous
 62
     3
 48
5.0
100
AcDbCircle
 10
277.2534749912331
 20
173.1931492857232
 30
0.0
 40
20.0
100
AcDbArc
 50
134.8211145533003
 51
155.772254682
  0
ARC
  5
2FCC
330
1A
100
AcDbEntity
  8
SEIHIN
  6
Continuous
 62
     3
 48
5.0
100
AcDbCircle
 10
277.2534749912331
 20
173.1931492857232
 30
0.0
 40
19.5
100
AcDbArc
 50
139.0464503416001
 51
155.772254682
  0
ARC
  5
2FCD
330
1A
100
AcDbEntity
  8
SEIHIN
  6
Continuous
 62
     3
 48
5.0
100
AcDbCircle
 10
270.2784112441332
 20
183.8793696384232
 30
0.0
 40
0.5
100
AcDbArc
 50
15.94539590100014
 51
89.99999999970036
  0
ARC
  5
2FCE
330
1A
100
AcDbEntity
  8
SEIHIN
  6
Continuous
 62
     3
 48
5.0
100
AcDbCircle
 10
265.0327126569331
 20
183.8793696384232
 30
0.0
 40
0.5
100
AcDbArc
 50
90.00000000029965
 51
164.0546040989999
  0
LINE
  5
2FCF
330
1A
100
AcDbEntity
  8
SEIHIN
  6
Continuous
 62
     3
 48
5.0
100
AcDbLine
 10
270.6555619505332
 20
184.3793696384232
 30
0.0
 11
264.6555619505332
 21
184.3793696384232
 31
0.0
  0
ARC
  5
2FD0
330
1A
100
AcDbEntity
  8
SEIHIN
  6
Continuous
 62
     3
 48
5.0
100
AcDbCircle
 10
263.5871759647331
 20
184.2800736326232
 30
0.0
 40
0.5
100
AcDbArc
 50
344.0546040989999
 51
26.56505117709984
  0
ARC
  5
2FD1
330
1A
100
AcDbEntity
  8
SEIHIN
  6
Continuous
 62
     3
 48
5.0
100
AcDbCircle
 10
271.7239479363332
 20
184.2800736326232
 30
0.0
 40
0.5
100
AcDbArc
 50
153.4349488229001
 51
195.9453959010001
  0
LINE
  5
2FD2
330
1A
100
AcDbEntity
  8
SEIHIN
 48
5.0
100
AcDbLine
 10
257.3555619505332
 20
198.6839630649893
 30
0.0
 11
257.3555619505332
 21
200.1839630649893
 31
0.0
  0
LINE
  5
2FD3
330
1A
100
AcDbEntity
  8
SEIHIN
 48
5.0
100
AcDbLine
 10
257.9555619505331
 20
198.6839630649893
 30
0.0
 11
257.9555619505331
 21
200.1839630649893
 31
0.0
  0
LINE
  5
2FD4
330
1A
100
AcDbEntity
  8
SEIHIN
 48
5.0
100
AcDbLine
 10
257.3555619505332
 20
198.6838630649893
 30
0.0
 11
257.9555619505331
 21
198.6838630649893
 31
0.0
  0
LINE
  5
2FD5
330
1A
100
AcDbEntity
  8
SEIHIN
 48
5.0
100
AcDbLine
 10
257.3555619505332
 20
200.1838630649893
 30
0.0
 11
257.9555619505331
 21
200.1838630649893
 31
0.0
  0
LINE
  5
2FD6
330
1A
100
AcDbEntity
  8
SEIHIN
  6
Continuous
 62
     3
 48
5.0
100
AcDbLine
 10
257.5159684539332
 20
203.1831671068232
 30
0.0
 11
258.6555619505332
 21
203.1831671068232
 31
0.0
  0
TEXT
  5
2FD7
330
1A
100
AcDbEntity
  8
SEIHIN
 62
     3
 48
16.0
100
AcDbText
 10
255.6555619505332
 20
195.5966537626637
 30
0.0
 40
2.5
  1
10
 41
1.2
100
AcDbText
  0
LINE
  5
2FD8
330
1A
100
AcDbEntity
  8
SEIHIN
  6
Continuous
 62
     3
 48
5.0
100
AcDbLine
 10
257.6555619505332
 20
204.1831671068232
 30
0.0
 11
261.6555619505332
 21
200.1831671068232
 31
0.0
  0
LINE
  5
2FD9
330
1A
100
AcDbEntity
  8
SEIHIN
 48
5.0
100
AcDbLine
 10
267.9555619505331
 20
198.6839630649893
 30
0.0
 11
267.9555619505331
 21
200.1839630649893
 31
0.0
  0
LINE
  5
2FDA
330
1A
100
AcDbEntity
  8
SEIHIN
 48
5.0
100
AcDbLine
 10
267.3555619505332
 20
198.6839630649893
 30
0.0
 11
267.3555619505332
 21
200.1839630649893
 31
0.0
  0
LINE
  5
2FDB
330
1A
100
AcDbEntity
  8
SEIHIN
 48
5.0
100
AcDbLine
 10
267.3555619505332
 20
198.6838630649893
 30
0.0
 11
267.9555619505331
 21
198.6838630649893
 31
0.0
  0
LINE
  5
2FDC
330
1A
100
AcDbEntity
  8
SEIHIN
 48
5.0
100
AcDbLine
 10
267.3555619505332
 20
200.1838630649893
 30
0.0
 11
267.9555619505331
 21
200.1838630649893
 31
0.0
  0
TEXT
  5
2FDD
330
1A
100
AcDbEntity
  8
SEIHIN
 62
     3
 48
16.0
100
AcDbText
 10
265.6555619505332
 20
195.5966537626637
 30
0.0
 40
2.5
  1
20
 41
1.2
100
AcDbText
  0
ARC
  5
2FDE
330
1A
100
AcDbEntity
  8
SEIHIN
  6
Continuous
 62
     3
 48
5.0
100
AcDbCircle
 10
233.1644191447332
 20
213.7831671068232
 30
0.0
 40
7.0
100
AcDbArc
 50
12.80426606530046
 51
37.39092726240023
  0
ARC
  5
2FDF
330
1A
100
AcDbEntity
  8
SEIHIN
  6
Continuous
 62
     3
 48
5.0
100
AcDbCircle
 10
239.5205054488332
 20
218.6411674047232
 30
0.0
 40
1.0
100
AcDbArc
 50
56.8097191777007
 51
217.3909272672004
  0
ARC
  5
2FE0
330
1A
100
AcDbEntity
  8
SEIHIN
  6
Continuous
 62
     3
 48
5.0
100
AcDbCircle
 10
235.6885565310332
 20
212.7831671068232
 30
0.0
 40
10.0
100
AcDbArc
 50
20.27010483859981
 51
90.0
  0
ARC
  5
2FE1
330
1A
100
AcDbEntity
  8
SEIHIN
  6
Continuous
 62
     3
 48
5.0
100
AcDbCircle
 10
225.6971596425332
 20
227.1831671068232
 30
0.0
 40
1.0
100
AcDbArc
 50
90.0
 51
177.0000000000001
  0
ARC
  5
2FE2
330
1A
100
AcDbEntity
  8
SEIHIN
  6
Continuous
 62
     3
 48
5.0
100
AcDbCircle
 10
225.7233927209331
 20
226.1831671068232
 30
0.0
 40
2.0
100
AcDbArc
 50
356.0000000000002
 51
90.0
  0
ARC
  5
2FE3
330
1A
100
AcDbEntity
  8
SEIHIN
  6
Continuous
 62
     3
 48
5.0
100
AcDbCircle
 10
233.1644191447332
 20
213.7831671068232
 30
0.0
 40
5.0
100
AcDbArc
 50
12.80426606530046
 51
90.0
  0
ARC
  5
2FE4
330
1A
100
AcDbEntity
  8
SEIHIN
  6
Continuous
 62
     3
 48
5.0
100
AcDbCircle
 10
230.6326862950332
 20
224.2831671068232
 30
0.0
 40
2.0
100
AcDbArc
 50
270.0
 51
303.5573097697003
  0
LINE
  5
2FE5
330
1A
100
AcDbEntity
  8
SEIHIN
  6
Continuous
 62
     3
 48
5.0
100
AcDbLine
 10
228.4706824516331
 20
218.7831671068232
 30
0.0
 11
233.1644191447332
 21
218.7831671068232
 31
0.0
  0
LINE
  5
2FE6
330
1A
100
AcDbEntity
  8
SEIHIN
  6
Continuous
 62
     3
 48
5.0
100
AcDbLine
 10
224.4761643126332
 20
222.9925109318232
 30
0.0
 11
224.6985301077332
 21
227.2355030630232
 31
0.0
  0
ARC
  5
2FE7
330
1A
100
AcDbEntity
  8
SEIHIN
  6
Continuous
 62
     3
 48
5.0
100
AcDbCircle
 10
228.5279306605331
 20
223.2831671068232
 30
0.0
 40
1.0
100
AcDbArc
 50
176.0000000000003
 51
270.0000000002996
  0
LINE
  5
2FE8
330
1A
100
AcDbEntity
  8
SEIHIN
  6
Continuous
 62
     3
 48
5.0
100
AcDbLine
 10
227.5303666103331
 20
223.3529235805232
 30
0.0
 11
227.7185208214331
 21
226.0436541593232
 31
0.0
  0
ARC
  5
2FE9
330
1A
100
AcDbEntity
  8
SEIHIN
  6
Continuous
 62
     3
 48
5.0
100
AcDbCircle
 10
228.4706824516331
 20
222.7831671068232
 30
0.0
 40
4.0
100
AcDbArc
 50
177.0000000000001
 51
270.0
  0
LINE
  5
2FEA
330
1A
100
AcDbEntity
  8
SEIHIN
  6
Continuous
 62
     3
 48
5.0
100
AcDbLine
 10
228.5279306605331
 20
222.2831671068232
 30
0.0
 11
230.6326862950332
 21
222.2831671068232
 31
0.0
  0
LINE
  5
2FEB
330
1A
100
AcDbEntity
  8
SEIHIN
  6
Continuous
 62
     3
 48
5.0
100
AcDbLine
 10
232.2909986906332
 20
222.7831671068232
 30
0.0
 11
235.6885565310332
 21
222.7831671068232
 31
0.0
  0
ARC
  5
2FEC
330
1A
100
AcDbEntity
  8
SEIHIN
  6
Continuous
 62
     3
 48
5.0
100
AcDbCircle
 10
232.2909986906332
 20
221.7831671069232
 30
0.0
 40
1.0
100
AcDbArc
 50
89.99999999569928
 51
123.5573097698002
  0
LINE
  5
2FED
330
1A
100
AcDbEntity
  8
SEIHIN
  6
Continuous
 62
     3
 48
5.0
100
AcDbLine
 10
225.7233927209331
 20
228.1831671068232
 30
0.0
 11
225.6971596425332
 21
228.1831671068232
 31
0.0
  0
ARC
  5
2FEE
330
1A
100
AcDbEntity
  8
SEIHIN
  6
Continuous
 62
     3
 48
5.0
100
AcDbCircle
 10
235.6885565310332
 20
212.7831671068232
 30
0.0
 40
8.0
100
AcDbArc
 50
20.27010483859981
 51
56.80971917319984
  0
LINE
  5
2FEF
330
1A
100
AcDbEntity
  8
SEIHIN
  6
Continuous
 62
     3
 48
5.0
100
AcDbLine
 10
245.0692548031332
 20
216.2476295368232
 30
0.0
 11
246.2591305274332
 21
213.0258121908233
 31
0.0
  0
LINE
  5
2FF0
330
1A
100
AcDbEntity
  8
SEIHIN
  6
Continuous
 62
     3
 48
5.0
100
AcDbLine
 10
243.1931151486332
 20
215.5547370508232
 30
0.0
 11
244.3829908730331
 21
212.3329197048232
 31
0.0
  0
LINE
  5
2FF1
330
1A
100
AcDbEntity
  8
SEIHIN
  6
Continuous
 62
     3
 48
5.0
100
AcDbLine
 10
262.1555619505332
 20
211.1831671068232
 30
0.0
 11
262.1555619505332
 21
210.1831671068232
 31
0.0
  0
LINE
  5
2FF2
330
1A
100
AcDbEntity
  8
SEIHIN
  6
Continuous
 62
     3
 48
5.0
100
AcDbLine
 10
257.5159684539332
 20
205.1831671068232
 30
0.0
 11
257.6555619505332
 21
205.1831671068232
 31
0.0
  0
ARC
  5
2FF3
330
1A
100
AcDbEntity
  8
SEIHIN
  6
Continuous
 62
     3
 48
5.0
100
AcDbCircle
 10
313.3401179839332
 20
215.1831671068232
 30
0.0
 40
12.0
100
AcDbArc
 50
270.0
 51
316.6846843179006
  0
LINE
  5
2FF4
330
1A
100
AcDbEntity
  8
SEIHIN
  6
Continuous
 62
     3
 48
5.0
100
AcDbLine
 10
287.4472929486332
 20
201.5508250220233
 30
0.0
 11
296.9926251927332
 21
210.5801933611232
 31
0.0
  0
LINE
  5
2FF5
330
1A
100
AcDbEntity
  8
SEIHIN
  6
Continuous
 62
     3
 48
5.0
100
AcDbLine
 10
347.1555619505332
 20
211.7831671068232
 30
0.0
 11
347.1555619505332
 21
195.7676044173232
 31
0.0
  0
LINE
  5
2FF6
330
1A
100
AcDbEntity
  8
SEIHIN
  6
Continuous
 62
     3
 48
5.0
100
AcDbLine
 10
321.5949699538331
 20
194.6195501514232
 30
0.0
 11
335.2600561441332
 21
213.4773690939232
 31
0.0
  0
LINE
  5
2FF7
330
1A
100
AcDbEntity
  8
SEIHIN
  6
Continuous
 62
     3
 48
5.0
100
AcDbLine
 10
319.9774403999331
 20
195.7958194298232
 30
0.0
 11
333.6639242238332
 21
214.6831671068232
 31
0.0
  0
LINE
  5
2FF8
330
1A
100
AcDbEntity
  8
SEIHIN
  6
Continuous
 62
     3
 48
5.0
100
AcDbLine
 10
351.0846469892332
 20
230.0481149286232
 30
0.0
 11
369.6530387667332
 21
183.6238235846232
 31
0.0
  0
LINE
  5
2FF9
330
1A
100
AcDbEntity
  8
SEIHIN
  6
Continuous
 62
     3
 48
5.0
100
AcDbLine
 10
356.6555619505332
 20
232.2763219419232
 30
0.0
 11
375.2239537280332
 21
185.8520305979232
 31
0.0
  0
LINE
  5
2FFA
330
1A
100
AcDbEntity
  8
SEIHIN
  6
Continuous
 62
     3
 48
5.0
100
AcDbLine
 10
349.9704110066332
 20
227.4484076037232
 30
0.0
 11
367.0533314419331
 21
184.7380595672233
 31
0.0
  0
LINE
  5
2FFB
330
1A
100
AcDbEntity
  8
SEIHIN
  6
Continuous
 62
     3
 48
5.0
100
AcDbLine
 10
352.1555619505332
 20
211.6831671068232
 30
0.0
 11
352.1555619505332
 21
191.8831671068232
 31
0.0
  0
DIMENSION
  5
2FFC
330
1A
100
AcDbEntity
  8
SUNPOU
 48
5.0
100
AcDbDimension
  2
*D14
 10
392.7991850304696
 20
192.881621593414
 30
0.0
 11
391.6854127138436
 21
209.1299910878191
 31
0.0
 70
    33
 71
     5
 42
49.99999999995316
  3
STANDARD
100
AcDbAlignedDimension
 13
356.6555619505332
 23
232.2763219419232
 33
0.0
 14
375.2239537280331
 24
185.8520305979232
 34
0.0
1001
ACAD
1000
DSTYLE
1002
{
1070
   140
1040
6.0
1070
    74
1070
     0
1070
   172
1070
     1
1070
    73
1070
     0
1070
   272
1070
     2
1070
    77
1070
     3
1070
   173
1070
     1
1070
   280
1070
     2
1070
   147
1040
2.0
1070
    42
1040
6.0
1070
    44
1040
3.0
1070
    43
1040
14.0
1070
   271
1070
     0
1070
   178
1070
     4
1070
   177
1070
     4
1070
   176
1070
     4
1070
   141
1040
150.0
1070
     7
1000
_OPEN
1070
     6
1000
_OPEN
1070
    41
1040
7.0
1002
}
  0
LINE
  5
2FFD
330
1A
100
AcDbEntity
  8
SEIHIN
  6
Continuous
 62
     3
 48
5.0
100
AcDbLine
 10
289.1729117239332
 20
203.1831671068232
 30
0.0
 11
313.3401179839332
 21
203.1831671068232
 31
0.0
  0
LINE
  5
2FFE
330
1A
100
AcDbEntity
  8
SEIHIN
  6
Continuous
 62
     3
 48
5.0
100
AcDbLine
 10
276.6844608992332
 20
179.3189435191232
 30
0.0
 11
275.8401182607332
 21
181.1952604936232
 31
0.0
  0
LINE
  5
2FFF
330
1A
100
AcDbEntity
  8
SEIHIN
  6
Continuous
 62
     3
 48
5.0
100
AcDbLine
 10
277.1404216518332
 20
179.5241258577232
 30
0.0
 11
276.2960790133332
 21
181.4004428323232
 31
0.0
  0
LINE
  5
3000
330
1A
100
AcDbEntity
  8
SEIHIN
  6
Continuous
 62
     3
 48
5.0
100
AcDbLine
 10
276.4246162818332
 20
178.1331805047232
 30
0.0
 11
273.5598540429331
 21
177.5602280569232
 31
0.0
  0
LINE
  5
3001
330
1A
100
AcDbEntity
  8
SEIHIN
  6
Continuous
 62
     3
 48
5.0
100
AcDbLine
 10
276.3265582142332
 20
178.6234708425232
 30
0.0
 11
273.4617959753332
 21
178.0505183948232
 31
0.0
  0
ARC
  5
3002
330
1A
100
AcDbEntity
  8
SEIHIN
  6
Continuous
 62
     3
 48
5.0
100
AcDbCircle
 10
273.3637379078332
 20
178.5408087326232
 30
0.0
 40
0.5
100
AcDbArc
 50
195.9453959009001
 51
281.3099324739994
  0
ARC
  5
3003
330
1A
100
AcDbEntity
  8
SEIHIN
  6
Continuous
 62
     3
 48
5.0
100
AcDbCircle
 10
273.3637379078332
 20
178.5408087326232
 30
0.0
 40
1.0
100
AcDbArc
 50
195.9453959009001
 51
281.3099324739994
  0
ARC
  5
3004
330
1A
100
AcDbEntity
  8
SEIHIN
  6
Continuous
 62
     3
 48
5.0
100
AcDbCircle
 10
276.2285001467332
 20
179.1137611804232
 30
0.0
 40
1.0
100
AcDbArc
 50
281.3099324741007
 51
24.22774531799999
  0
ARC
  5
3005
330
1A
100
AcDbEntity
  8
SEIHIN
  6
Continuous
 62
     3
 48
5.0
100
AcDbCircle
 10
276.2285001467332
 20
179.1137611804232
 30
0.0
 40
0.5
100
AcDbArc
 50
281.3099324739994
 51
24.22774531799999
  0
ARC
  5
3006
330
1A
100
AcDbEntity
  8
SEIHIN
  6
Continuous
 62
     3
 48
5.0
100
AcDbCircle
 10
272.4072318926332
 20
185.6466416085232
 30
0.0
 40
0.5
100
AcDbArc
 50
40.95354965550016
 51
153.4349409756999
  0
LINE
  5
3007
330
1A
100
AcDbEntity
  8
SEIHIN
  6
Continuous
 62
     3
 48
5.0
100
AcDbLine
 10
273.1555619505332
 20
189.8793696384232
 30
0.0
 11
273.1555619505332
 21
188.3793696384232
 31
0.0
  0
ARC
  5
3008
330
1A
100
AcDbEntity
  8
SEIHIN
  6
Continuous
 62
     3
 48
5.0
100
AcDbCircle
 10
258.0576489098331
 20
173.1931492857232
 30
0.0
 40
20.0
100
AcDbArc
 50
24.22774531799999
 51
45.1788854466997
  0
ARC
  5
3009
330
1A
100
AcDbEntity
  8
SEIHIN
  6
Continuous
 62
     3
 48
5.0
100
AcDbCircle
 10
258.0576489098331
 20
173.1931492857232
 30
0.0
 40
19.5
100
AcDbArc
 50
24.22774531799999
 51
40.95354965839994
  0
TEXT
  5
300A
330
1A
100
AcDbEntity
  8
SEIHIN
 62
     3
 48
16.0
100
AcDbText
 10
275.6555619505332
 20
195.5966537626637
 30
0.0
 40
2.5
  1
30
 41
1.2
100
AcDbText
  0
LINE
  5
300B
330
1A
100
AcDbEntity
  8
SEIHIN
 48
5.0
100
AcDbLine
 10
277.3555619505332
 20
200.1838630649893
 30
0.0
 11
277.9555619505331
 21
200.1838630649893
 31
0.0
  0
LINE
  5
300C
330
1A
100
AcDbEntity
  8
SEIHIN
 48
5.0
100
AcDbLine
 10
277.3555619505332
 20
198.6838630649893
 30
0.0
 11
277.9555619505331
 21
198.6838630649893
 31
0.0
  0
LINE
  5
300D
330
1A
100
AcDbEntity
  8
SEIHIN
 48
5.0
100
AcDbLine
 10
277.3555619505332
 20
198.6839630649893
 30
0.0
 11
277.3555619505332
 21
200.1839630649893
 31
0.0
  0
LINE
  5
300E
330
1A
100
AcDbEntity
  8
SEIHIN
 48
5.0
100
AcDbLine
 10
277.9555619505331
 20
198.6839630649893
 30
0.0
 11
277.9555619505331
 21
200.1839630649893
 31
0.0
  0
ARC
  5
300F
330
1A
100
AcDbEntity
  8
SEIHIN
  6
Continuous
 62
     3
 48
5.0
100
AcDbCircle
 10
284.0112936792332
 20
205.1831671068232
 30
0.0
 40
5.0
100
AcDbArc
 50
270.0
 51
313.4088597288007
  0
LINE
  5
3010
330
1A
100
AcDbEntity
  8
SEIHIN
 48
5.0
100
AcDbLine
 10
292.3555619505332
 20
198.6838630649893
 30
0.0
 11
292.3555619505332
 21
200.1838630649893
 31
0.0
  0
LINE
  5
3011
330
1A
100
AcDbEntity
  8
SEIHIN
 48
5.0
100
AcDbLine
 10
292.9555619505331
 20
198.6838630649893
 30
0.0
 11
292.9555619505331
 21
200.1838630649893
 31
0.0
  0
LINE
  5
3012
330
1A
100
AcDbEntity
  8
SEIHIN
 48
5.0
100
AcDbLine
 10
292.3555619505332
 20
198.6838630649893
 30
0.0
 11
292.9555619505331
 21
198.6838630649893
 31
0.0
  0
LINE
  5
3013
330
1A
100
AcDbEntity
  8
SEIHIN
 48
5.0
100
AcDbLine
 10
292.3555619505332
 20
200.1838630649893
 30
0.0
 11
292.9555619505331
 21
200.1838630649893
 31
0.0
  0
TEXT
  5
3014
330
1A
100
AcDbEntity
  8
SEIHIN
 62
     3
 48
16.0
100
AcDbText
 10
290.6555619505332
 20
195.6257235301056
 30
0.0
 40
2.5
  1
45
 41
1.2
100
AcDbText
  0
ARC
  5
3015
330
1A
100
AcDbEntity
  8
SEIHIN
  6
Continuous
 62
     3
 48
5.0
100
AcDbCircle
 10
323.2144696394331
 20
193.4459996546232
 30
0.0
 40
2.0
100
AcDbArc
 50
144.0714975771992
 51
284.0362434679
  0
ARC
  5
3016
330
1A
100
AcDbEntity
  8
SEIHIN
  6
Continuous
 62
     3
 48
5.0
100
AcDbCircle
 10
323.2164397710332
 20
193.4487184363232
 30
0.0
 40
4.0
100
AcDbArc
 50
144.0714975771992
 51
194.0164697647002
  0
LINE
  5
3017
330
1A
100
AcDbEntity
  8
SEIHIN
  6
Continuous
 62
     3
 48
5.0
100
AcDbLine
 10
310.5652729058331
 20
203.1831671068232
 30
0.0
 11
310.5652729058331
 21
191.3363689646232
 31
0.0
  0
ARC
  5
3018
330
1A
100
AcDbEntity
  8
SEIHIN
  6
Continuous
 62
     3
 48
5.0
100
AcDbCircle
 10
318.3653090428331
 20
192.2377144425232
 30
0.0
 40
1.0
100
AcDbArc
 50
269.2747756132004
 51
14.01646976470016
  0
ARC
  5
3019
330
1A
100
AcDbEntity
  8
SEIHIN
  6
Continuous
 62
     3
 48
5.0
100
AcDbCircle
 10
335.6555619505332
 20
193.4639435132232
 30
0.0
 40
1.0
100
AcDbArc
 50
284.0362434679
 51
104.0362434679
  0
LINE
  5
301A
330
1A
100
AcDbEntity
  8
SEIHIN
  6
Continuous
 62
     3
 48
5.0
100
AcDbLine
 10
335.4130263255331
 20
194.4340860133232
 30
0.0
 11
323.6995408895332
 21
191.5057146544232
 31
0.0
  0
LINE
  5
301B
330
1A
100
AcDbEntity
  8
SEIHIN
  6
Continuous
 62
     3
 48
5.0
100
AcDbLine
 10
335.8980975755331
 20
192.4938010131232
 30
0.0
 11
322.6555619505332
 21
189.1831671068232
 31
0.0
  0
DIMENSION
  5
301C
330
1A
100
AcDbEntity
  8
SUNPOU
 48
5.0
100
AcDbDimension
  2
*D15
 10
377.2813786646173
 20
159.166117212849
 30
0.0
 11
352.6766367282788
 21
154.7100343763
 31
0.0
 70
    33
  1
t<>
 71
     5
 42
7.999999999978115
  3
STANDARD
100
AcDbAlignedDimension
 13
375.2239537280332
 23
185.8520305979232
 33
0.0
 14
367.796067113003
 24
182.8810879135377
 34
0.0
1001
ACAD
1000
DSTYLE
1002
{
1070
   140
1040
6.0
1070
    74
1070
     0
1070
   172
1070
     1
1070
    73
1070
     0
1070
   272
1070
     2
1070
    77
1070
     3
1070
   173
1070
     1
1070
   280
1070
     2
1070
   147
1040
2.0
1070
    42
1040
6.0
1070
    44
1040
3.0
1070
    43
1040
14.0
1070
   271
1070
     1
1070
   178
1070
     4
1070
   177
1070
     4
1070
   176
1070
     4
1070
   141
1040
150.0
1070
     7
1000
_OPEN
1070
     6
1000
_OPEN
1070
    41
1040
7.0
1002
}
  0
LINE
  5
301D
330
1A
100
AcDbEntity
  8
SUNPOU
  6
Continuous
 62
     4
 48
5.0
100
AcDbLine
 10
396.6430122897481
 20
132.3005638416447
 30
0.0
 11
377.3275023874978
 21
180.5927837555394
 31
0.0
  0
LINE
  5
301E
330
1A
100
AcDbEntity
  8
SUNPOU
  6
Continuous
 48
5.0
100
AcDbLine
 10
388.6430122897481
 20
132.3005638416447
 30
0.0
 11
388.6430122897481
 21
152.3019907398363
 31
0.0
  0
TEXT
  5
301F
330
1A
100
AcDbEntity
  8
SUNPOU
 48
5.0
100
AcDbText
 10
390.0421887344489
 20
122.3128071067206
 30
0.0
 40
6.0
  1
4
100
AcDbText
  0
LINE
  5
3020
330
1A
100
AcDbEntity
  8
SUNPOU
  6
Continuous
 48
5.0
100
AcDbLine
 10
396.6430122897481
 20
132.3005638416447
 30
0.0
 11
388.6430122897481
 21
132.3005638416447
 31
0.0
  0
TEXT
  5
3021
330
1A
100
AcDbEntity
  8
SUNPOU
 48
5.0
100
AcDbText
 10
377.7393945744149
 20
137.3934030405142
 30
0.0
 40
6.0
  1
10
100
AcDbText
  0
LINE
  5
3022
330
1A
100
AcDbEntity
  8
SEIHIN
  6
Continuous
 62
     3
 48
5.0
100
AcDbLine
 10
369.6530387667332
 20
183.6238235846232
 30
0.0
 11
375.2239537280332
 21
185.8520305979232
 31
0.0
  0
LINE
  5
3023
330
1A
100
AcDbEntity
  8
CENTER L
 48
5.0
100
AcDbLine
 10
357.5829879693316
 20
189.5663713335025
 30
0.0
 11
378.0096761606991
 21
197.7364637155764
 31
0.0
  0
LINE
  5
3024
330
1A
100
AcDbEntity
  8
SEIHIN
  6
Continuous
 62
     3
 48
5.0
100
AcDbLine
 10
342.8624865104332
 20
193.2840529828232
 30
0.0
 11
347.2159487904331
 21
189.5945210465232
 31
0.0
  0
ARC
  5
3025
330
1A
100
AcDbEntity
  8
SEIHIN
  6
Continuous
 62
     3
 48
5.0
100
AcDbCircle
 10
349.1555619505332
 20
191.8831671068232
 30
0.0
 40
3.0
100
AcDbArc
 50
229.7189334221997
 51
0.0
  0
ARC
  5
3026
330
1A
100
AcDbEntity
  8
SEIHIN
  6
Continuous
 62
     3
 48
5.0
100
AcDbCircle
 10
346.1555619505332
 20
195.7676044173232
 30
0.0
 40
1.0
100
AcDbArc
 50
235.9064214268008
 51
0.0
  0
LINE
  5
3027
330
1A
100
AcDbEntity
  8
SEIHIN
  6
Continuous
 62
     3
 48
5.0
100
AcDbLine
 10
345.5950157644331
 20
194.9394812542232
 30
0.0
 11
343.7161081366331
 21
196.2112902699232
 31
0.0
  0
ARC
  5
3028
330
1A
100
AcDbEntity
  8
SEIHIN
  6
Continuous
 62
     3
 48
5.0
100
AcDbCircle
 10
344.1555619505332
 20
194.8098170229232
 30
0.0
 40
2.0
100
AcDbArc
 50
180.0
 51
229.7189334221997
  0
LINE
  5
3029
330
1A
100
AcDbEntity
  8
SEIHIN
  6
Continuous
 62
     3
 48
5.0
100
AcDbLine
 10
342.1555619505332
 20
195.3831671068232
 30
0.0
 11
342.1555619505332
 21
194.8098170229232
 31
0.0
  0
ARC
  5
302A
330
1A
100
AcDbEntity
  8
SEIHIN
  6
Continuous
 62
     3
 48
5.0
100
AcDbCircle
 10
343.1555619505332
 20
195.3831671068232
 30
0.0
 40
1.0
100
AcDbArc
 50
55.90642142680081
 51
180.0
  0
LINE
  5
302B
330
1A
100
AcDbEntity
  8
SEIHIN
  6
Continuous
 62
     3
 48
5.0
100
AcDbLine
 10
369.6530387667332
 20
183.6238235846232
 30
0.0
 11
367.0533314419331
 21
184.7380595672233
 31
0.0
  0
LINE
  5
302C
330
1A
100
AcDbEntity
  8
SEIHIN
  6
Continuous
 62
     3
 48
5.0
100
AcDbLine
 10
331.2286224059332
 20
214.6831671068232
 30
0.0
 11
339.6555619505332
 21
214.6831671068232
 31
0.0
  0
LINE
  5
302D
330
1A
100
AcDbEntity
  8
SEIHIN
  6
Continuous
 62
     3
 48
5.0
100
AcDbLine
 10
337.6555619505332
 20
214.6831671068232
 30
0.0
 11
330.2027494890332
 21
233.3165275609232
 31
0.0
  0
LINE
  5
302E
330
1A
100
AcDbEntity
  8
SEIHIN
  6
Continuous
 62
     3
 48
5.0
100
AcDbLine
 10
339.6555619505332
 20
231.4889239702232
 30
0.0
 11
331.2286224059332
 21
230.7516622918232
 31
0.0
  0
DIMENSION
  5
302F
330
1A
100
AcDbEntity
  8
SUNPOU
 48
5.0
100
AcDbDimension
  2
*D16
 10
346.6971596425333
 20
259.2958088297311
 30
0.0
 11
327.1971596425333
 21
264.2958088297311
 31
0.0
 70
    32
 71
     5
 42
9.958402307999904
  3
STANDARD
100
AcDbAlignedDimension
 13
356.6555619505332
 23
232.2763219419232
 33
0.0
 14
346.6971596425333
 24
210.4831671068232
 34
0.0
100
AcDbRotatedDimension
1001
ACAD
1000
DSTYLE
1002
{
1070
   140
1040
6.0
1070
    74
1070
     0
1070
   172
1070
     1
1070
    73
1070
     0
1070
   272
1070
     2
1070
    77
1070
     3
1070
   173
1070
     1
1070
   147
1040
2.0
1070
    42
1040
6.0
1070
    44
1040
3.0
1070
    43
1040
14.0
1070
   271
1070
     0
1070
   178
1070
     4
1070
   177
1070
     4
1070
   176
1070
     4
1070
   141
1040
150.0
1070
     7
1000
_OPEN
1070
     6
1000
_OPEN
1070
    41
1040
7.0
1002
}
  0
ARC
  5
3030
330
1A
100
AcDbEntity
  8
SEIHIN
  6
Continuous
 62
     3
 48
5.0
100
AcDbCircle
 10
307.3006230009331
 20
199.6831671068232
 30
0.0
 40
15.0
100
AcDbArc
 50
90.0
 51
133.4088597288007
  0
LINE
  5
3031
330
1A
100
AcDbEntity
  8
SEIHIN
  6
Continuous
 62
     3
 48
5.0
100
AcDbLine
 10
329.2286224059332
 20
230.5766849648232
 30
0.0
 11
301.3605328781331
 21
228.1385430569232
 31
0.0
  0
LINE
  5
3032
330
1A
100
AcDbEntity
  8
SEIHIN
  6
Continuous
 62
     3
 48
5.0
100
AcDbLine
 10
291.2871974382332
 20
205.1831671068232
 30
0.0
 11
313.3401179839332
 21
205.1831671068232
 31
0.0
  0
ARC
  5
3033
330
1A
100
AcDbEntity
  8
SEIHIN
  6
Continuous
 62
     3
 48
5.0
100
AcDbCircle
 10
302.6678690193331
 20
213.1956225856232
 30
0.0
 40
15.0
100
AcDbArc
 50
94.99999999999982
 51
133.4088597288007
  0
LINE
  5
3034
330
1A
100
AcDbEntity
  8
SEIHIN
  6
Continuous
 62
     3
 48
5.0
100
AcDbLine
 10
279.1013717466332
 20
211.5508250220233
 30
0.0
 11
292.3598712112331
 21
224.0926488399232
 31
0.0
  0
LINE
  5
3035
330
1A
100
AcDbEntity
  8
SEIHIN
  6
Continuous
 62
     3
 48
5.0
100
AcDbLine
 10
273.1555619505332
 20
211.1831671068232
 30
0.0
 11
273.1555619505332
 21
210.1831671068232
 31
0.0
  0
ARC
  5
3036
330
1A
100
AcDbEntity
  8
SEIHIN
  6
Continuous
 62
     3
 48
5.0
100
AcDbCircle
 10
275.6653724772332
 20
215.1831671068232
 30
0.0
 40
5.0
100
AcDbArc
 50
270.0
 51
313.4088597288007
  0
LINE
  5
3037
330
1A
100
AcDbEntity
  8
SEIHIN
  6
Continuous
 62
     3
 48
5.0
100
AcDbLine
 10
329.2286224059332
 20
214.1831671068232
 30
0.0
 11
329.2286224059332
 21
233.1299788904233
 31
0.0
  0
LINE
  5
3038
330
1A
100
AcDbEntity
  8
SEIHIN
  6
Continuous
 62
     3
 48
5.0
100
AcDbLine
 10
320.6160120457331
 20
208.3230384199232
 30
0.0
 11
326.6127048076331
 21
214.6831671068232
 31
0.0
  0
LINE
  5
3039
330
1A
100
AcDbEntity
  8
SEIHIN
  6
Continuous
 62
     3
 48
5.0
100
AcDbLine
 10
307.3006230009331
 20
214.6831671068232
 30
0.0
 11
329.2286224059332
 21
214.6831671068232
 31
0.0
  0
ARC
  5
303A
330
1A
100
AcDbEntity
  8
SEIHIN
  6
Continuous
 62
     3
 48
5.0
100
AcDbCircle
 10
313.3401179839332
 20
215.1831671068232
 30
0.0
 40
10.0
100
AcDbArc
 50
270.0
 51
316.6846843179006
  0
LINE
  5
303B
330
1A
100
AcDbEntity
  8
SEIHIN
  6
Continuous
 62
     3
 48
5.0
100
AcDbLine
 10
329.2286224059332
 20
214.1831671068232
 30
0.0
 11
331.2286224059332
 21
214.1831671068232
 31
0.0
  0
LINE
  5
303C
330
1A
100
AcDbEntity
  8
SEIHIN
  6
Continuous
 62
     3
 48
5.0
100
AcDbLine
 10
322.0711908581332
 20
206.9510126825232
 30
0.0
 11
329.3615078867332
 21
214.6831671068232
 31
0.0
  0
LINE
  5
303D
330
1A
100
AcDbEntity
  8
SEIHIN
  6
Continuous
 62
     3
 48
5.0
100
AcDbLine
 10
331.2286224059332
 20
214.1831671068232
 30
0.0
 11
331.2286224059332
 21
214.6831671068232
 31
0.0
  0
ARC
  5
303E
330
1A
100
AcDbEntity
  8
SEIHIN
  6
Continuous
 62
     3
 48
5.0
100
AcDbCircle
 10
341.7380548863332
 20
208.7831671068232
 30
0.0
 40
8.0
100
AcDbArc
 50
132.4811128753995
 51
144.0714975771992
  0
ARC
  5
303F
330
1A
100
AcDbEntity
  8
SEIHIN
  6
Continuous
 62
     3
 48
5.0
100
AcDbCircle
 10
329.7286224059332
 20
233.1299788904233
 30
0.0
 40
0.5
100
AcDbArc
 50
94.99999999999982
 51
180.0
  0
LINE
  5
3040
330
1A
100
AcDbEntity
  8
SEIHIN
  6
Continuous
 62
     3
 48
5.0
100
AcDbLine
 10
334.4420921782331
 20
231.1202931310232
 30
0.0
 11
334.4420921782331
 21
233.5860983931232
 31
0.0
  0
LINE
  5
3041
330
1A
100
AcDbEntity
  8
SEIHIN
  6
Continuous
 62
     3
 48
5.0
100
AcDbLine
 10
329.6949287042331
 20
233.6289409922232
 30
0.0
 11
329.6850445345332
 21
233.6280762394232
 31
0.0
  0
ARC
  5
3042
330
1A
100
AcDbEntity
  8
SEIHIN
  6
Continuous
 62
     3
 48
5.0
100
AcDbCircle
 10
329.7385065756331
 20
233.1308436432232
 30
0.0
 40
0.5
100
AcDbArc
 50
21.79999999999975
 51
94.99999999999982
  0
ARC
  5
3043
330
1A
100
AcDbEntity
  8
SEIHIN
  6
Continuous
 62
     3
 48
5.0
100
AcDbCircle
 10
334.9181664865331
 20
233.5840051663232
 30
0.0
 40
0.5
100
AcDbArc
 50
21.79999999999975
 51
94.99999999999982
  0
LINE
  5
3044
330
1A
100
AcDbEntity
  8
SEIHIN
  6
Continuous
 62
     3
 48
5.0
100
AcDbLine
 10
334.8745886151331
 20
234.0821025153232
 30
0.0
 11
334.8985143068331
 21
234.0841957421232
 31
0.0
  0
ARC
  5
3045
330
1A
100
AcDbEntity
  8
SEIHIN
  6
Continuous
 62
     3
 48
5.0
100
AcDbCircle
 10
334.9420921782331
 20
233.5860983931232
 30
0.0
 40
0.5
100
AcDbArc
 50
94.99999999999982
 51
180.0
  0
LINE
  5
3046
330
1A
100
AcDbEntity
  8
SEIHIN
  6
Continuous
 62
     3
 48
5.0
100
AcDbLine
 10
336.4082823168332
 20
231.2048238149232
 30
0.0
 11
335.3824093999332
 21
233.7696890841232
 31
0.0
  0
DIMENSION
  5
3047
330
1A
100
AcDbEntity
  8
SUNPOU
 48
5.0
100
AcDbDimension
  2
*D17
 10
391.6555619505332
 20
259.2958088297311
 30
0.0
 11
374.1555619505332
 21
264.2958088297311
 31
0.0
 70
    32
 71
     5
 42
35.0
  3
STANDARD
100
AcDbAlignedDimension
 13
356.6555619505332
 23
232.2763219419232
 33
0.0
 14
391.6555619505332
 24
232.2763219419232
 34
0.0
100
AcDbRotatedDimension
1001
ACAD
1000
DSTYLE
1002
{
1070
   140
1040
6.0
1070
    74
1070
     0
1070
   172
1070
     1
1070
    73
1070
     0
1070
   272
1070
     2
1070
    77
1070
     3
1070
   173
1070
     1
1070
   147
1040
2.0
1070
    42
1040
6.0
1070
    44
1040
3.0
1070
    43
1040
14.0
1070
   271
1070
     0
1070
   178
1070
     4
1070
   177
1070
     4
1070
   176
1070
     4
1070
   141
1040
150.0
1070
     7
1000
_OPEN
1070
     6
1000
_OPEN
1070
    41
1040
7.0
1002
}
  0
LINE
  5
3048
330
1A
100
AcDbEntity
  8
SEIHIN
  6
Continuous
 62
     3
 48
5.0
100
AcDbLine
 10
339.6555619505332
 20
214.1831671068232
 30
0.0
 11
339.6555619505332
 21
234.0422178958233
 31
0.0
  0
LINE
  5
3049
330
1A
100
AcDbEntity
  8
SEIHIN
  6
Continuous
 62
     3
 48
5.0
100
AcDbLine
 10
348.4473710657331
 20
214.6831671068232
 30
0.0
 11
340.6296890336332
 21
234.2287665664232
 31
0.0
  0
ARC
  5
304A
330
1A
100
AcDbEntity
  8
SEIHIN
  6
Continuous
 62
     3
 48
5.0
100
AcDbCircle
 10
350.3367866395332
 20
207.6831671068232
 30
0.0
 40
7.0
100
AcDbArc
 50
21.79999999999975
 51
90.0
  0
LINE
  5
304B
330
1A
100
AcDbEntity
  8
CENTER L
 48
5.0
100
AcDbLine
 10
346.4419529028432
 20
217.420946139887
 30
0.0
 11
366.8686410942058
 21
225.5910385219588
 31
0.0
  0
LINE
  5
304C
330
1A
100
AcDbEntity
  8
CENTER L
 48
5.0
100
AcDbLine
 10
348.2987920805941
 20
212.7785170054824
 30
0.0
 11
368.7254802719576
 21
220.9486093875546
 31
0.0
  0
LINE
  5
304D
330
1A
100
AcDbEntity
  8
SEIHIN
  6
Continuous
 62
     3
 48
5.0
100
AcDbLine
 10
341.6555619505332
 20
214.6831671068232
 30
0.0
 11
350.3367866395332
 21
214.6831671068232
 31
0.0
  0
LINE
  5
304E
330
1A
100
AcDbEntity
  8
SEIHIN
  6
Continuous
 62
     3
 48
5.0
100
AcDbLine
 10
341.6555619505332
 20
214.1831671068232
 30
0.0
 11
341.6555619505332
 21
214.6831671068232
 31
0.0
  0
LINE
  5
304F
330
1A
100
AcDbEntity
  8
SEIHIN
  6
Continuous
 62
     3
 48
5.0
100
AcDbLine
 10
339.6555619505332
 20
214.1831671068232
 30
0.0
 11
341.6555619505332
 21
214.1831671068232
 31
0.0
  0
ARC
  5
3050
330
1A
100
AcDbEntity
  8
SEIHIN
  6
Continuous
 62
     3
 48
5.0
100
AcDbCircle
 10
342.1555619505332
 20
211.7831671068232
 30
0.0
 40
5.0
100
AcDbArc
 50
0.0
 51
35.45054263920016
  0
ARC
  5
3051
330
1A
100
AcDbEntity
  8
SEIHIN
  6
Continuous
 62
     3
 48
5.0
100
AcDbCircle
 10
341.1555619505332
 20
211.6831671068232
 30
0.0
 40
11.0
100
AcDbArc
 50
0.0
 51
15.01395550019975
  0
LINE
  5
3052
330
1A
100
AcDbEntity
  8
SEIHIN
  6
Continuous
 62
     3
 48
5.0
100
AcDbLine
 10
348.6555619505332
 20
232.2763219419232
 30
0.0
 11
356.6555619505332
 21
232.2763219419232
 31
0.0
  0
LINE
  5
3053
330
1A
100
AcDbEntity
  8
SEIHIN
  6
Continuous
 62
     3
 48
5.0
100
AcDbLine
 10
351.0846469892332
 20
230.0481149286232
 30
0.0
 11
356.6555619505332
 21
232.2763219419232
 31
0.0
  0
LINE
  5
3054
330
1A
100
AcDbEntity
  8
SEIHIN
  6
Continuous
 62
     3
 48
5.0
100
AcDbLine
 10
348.6555619505332
 20
232.2763219419232
 30
0.0
 11
341.6555619505332
 21
231.6639012972233
 31
0.0
  0
ARC
  5
3055
330
1A
100
AcDbEntity
  8
SEIHIN
  6
Continuous
 62
     3
 48
5.0
100
AcDbCircle
 10
340.1654461202331
 20
234.0430826486232
 30
0.0
 40
0.5
100
AcDbArc
 50
21.79999999999975
 51
94.99999999999982
  0
LINE
  5
3056
330
1A
100
AcDbEntity
  8
SEIHIN
  6
Continuous
 62
     3
 48
5.0
100
AcDbLine
 10
340.1218682488332
 20
234.5411799976232
 30
0.0
 11
340.1119840791332
 21
234.5403152448232
 31
0.0
  0
ARC
  5
3057
330
1A
100
AcDbEntity
  8
SEIHIN
  6
Continuous
 62
     3
 48
5.0
100
AcDbCircle
 10
340.1555619505332
 20
234.0422178958233
 30
0.0
 40
0.5
100
AcDbArc
 50
94.99999999999982
 51
180.0
  0
LINE
  5
3058
330
1A
100
AcDbEntity
  8
SEIHIN
  6
Continuous
 62
     3
 48
5.0
100
AcDbLine
 10
351.0846469892332
 20
230.0481149286232
 30
0.0
 11
349.9704110066332
 21
227.4484076037232
 31
0.0
  0
LINE
  5
3059
330
1A
100
AcDbEntity
  8
CENTER L
 48
5.0
100
AcDbLine
 10
381.4419529028432
 20
217.420946139887
 30
0.0
 11
401.8686410942058
 21
225.5910385219588
 31
0.0
  0
LINE
  5
305A
330
1A
100
AcDbEntity
  8
SEIHIN
  6
PHANTOM
 62
     6
 48
3.0
100
AcDbLine
 10
383.6555619505332
 20
232.2763219419232
 30
0.0
 11
391.6555619505332
 21
232.2763219419232
 31
0.0
  0
ELLIPSE
  5
305B
330
1A
100
AcDbEntity
  8
SEIHIN
 48
5.0
100
AcDbEllipse
 10
371.5102753725297
 20
404.1006405817371
 30
0.0
 11
0.0
 21
10.0
 31
0.0
210
0.0
220
0.0
230
1.0
 40
0.3713678355503475
 41
-1.570796326794897
 42
0.0000000000000306
  0
ELLIPSE
  5
305C
330
1A
100
AcDbEntity
  8
SEIHIN
 48
5.0
100
AcDbEllipse
 10
362.2260794837884
 20
405.6006405817371
 30
0.0
 11
0.0
 21
3.25
 31
0.0
210
0.0
220
0.0
230
-1.0
 40
0.3808043519379156
 41
0.0
 42
6.283185307179586
  0
ELLIPSE
  5
305D
330
1A
100
AcDbEntity
  8
SEIHIN
 48
5.0
100
AcDbEllipse
 10
371.5102753725297
 20
403.6006405817371
 30
0.0
 11
0.0
 21
2.100000000000023
 31
0.0
210
0.0
220
0.0
230
-1.0
 40
0.3713678355503441
 41
0.0
 42
6.283185307179586
  0
ELLIPSE
  5
305E
330
1A
100
AcDbEntity
  8
SEIHIN
 48
5.0
100
AcDbEllipse
 10
354.7983253447367
 20
404.1006405817371
 30
0.0
 11
0.0
 21
8.0
 31
0.0
210
0.0
220
0.0
230
-1.0
 40
0.6034892922629354
 41
-1.570796326794897
 42
-0.8614852953699774
  0
ELLIPSE
  5
305F
330
1A
100
AcDbEntity
  8
SEIHIN
 48
5.0
100
AcDbEllipse
 10
354.7983253447367
 20
404.1006405817371
 30
0.0
 11
0.0
 21
-10.0
 31
0.0
210
0.0
220
0.0
230
-1.0
 40
0.3713678355503475
 41
1.570796326794897
 42
3.141592653589884
  0
ELLIPSE
  5
3060
330
1A
100
AcDbEntity
  8
SEIHIN
 48
5.0
100
AcDbEllipse
 10
360.3692403060367
 20
404.1006405817371
 30
0.0
 11
0.0
 21
10.0
 31
0.0
210
0.0
220
0.0
230
1.0
 40
0.3713678355503475
 41
0.0
 42
1.570796326794908
  0
ELLIPSE
  5
3061
330
1A
100
AcDbEntity
  8
SEIHIN
 48
5.0
100
AcDbEllipse
 10
360.3692403060367
 20
405.6006405817371
 30
0.0
 11
0.0
 21
2.100000000000023
 31
0.0
210
0.0
220
0.0
230
-1.0
 40
0.3713678355503441
 41
0.0
 42
6.283185307179586
  0
ELLIPSE
  5
3062
330
1A
100
AcDbEntity
  8
SEIHIN
 48
5.0
100
AcDbEllipse
 10
371.5102753725297
 20
350.6006405817371
 30
0.0
 11
0.0
 21
-2.100000000000023
 31
0.0
210
0.0
220
0.0
230
1.0
 40
0.3713678355503441
 41
0.0
 42
6.283185307179586
  0
ELLIPSE
  5
3063
330
1A
100
AcDbEntity
  8
SEIHIN
 48
5.0
100
AcDbEllipse
 10
360.3692403060367
 20
350.1006405817371
 30
0.0
 11
0.0
 21
10.0
 31
0.0
210
0.0
220
0.0
230
1.0
 40
0.3713678355503475
 41
1.570796326794897
 42
3.141592653589793
  0
ELLIPSE
  5
3064
330
1A
100
AcDbEntity
  8
SEIHIN
 48
5.0
100
AcDbEllipse
 10
371.5102753725297
 20
350.1006405817371
 30
0.0
 11
0.0
 21
10.0
 31
0.0
210
0.0
220
0.0
230
1.0
 40
0.3713678355503475
 41
3.141592653589793
 42
4.712388980384789
  0
ELLIPSE
  5
3065
330
1A
100
AcDbEntity
  8
SEIHIN
 48
5.0
100
AcDbEllipse
 10
360.3692403060367
 20
348.6006405817371
 30
0.0
 11
0.0
 21
-2.100000000000023
 31
0.0
210
0.0
220
0.0
230
1.0
 40
0.3713678355503441
 41
0.0
 42
6.283185307179586
  0
ELLIPSE
  5
3066
330
1A
100
AcDbEntity
  8
SEIHIN
 48
5.0
100
AcDbEllipse
 10
362.2260794837884
 20
348.6006405817371
 30
0.0
 11
0.0
 21
-3.25
 31
0.0
210
0.0
220
0.0
230
1.0
 40
0.3808043519379156
 41
0.0
 42
6.283185307179586
  0
ELLIPSE
  5
3067
330
1A
100
AcDbEntity
  8
SEIHIN
 48
5.0
100
AcDbEllipse
 10
354.7983253447367
 20
350.1006405817371
 30
0.0
 11
0.0
 21
10.0
 31
0.0
210
0.0
220
0.0
230
1.0
 40
0.3713678355503475
 41
1.570796326794897
 42
3.141592653589793
  0
ELLIPSE
  5
3068
330
1A
100
AcDbEntity
  8
SEIHIN
 48
5.0
100
AcDbEllipse
 10
354.7983253447367
 20
350.1006405817371
 30
0.0
 11
0.0
 21
-8.0
 31
0.0
210
0.0
220
0.0
230
1.0
 40
0.6034892922629354
 41
-1.570796326794897
 42
-0.8614852953699828
  0
CIRCLE
  5
3069
330
1A
100
AcDbEntity
  8
SEIHIN
  6
Continuous
 62
     3
 48
5.0
100
AcDbCircle
 10
267.6555619505332
 20
377.0551866208372
 30
0.0
 40
5.5
  0
LINE
  5
306A
330
1A
100
AcDbEntity
  8
CENTER L
 48
5.0
100
AcDbLine
 10
217.8949585498332
 20
377.1006405817371
 30
0.0
 11
382.2239537280332
 21
377.1006405817371
 31
0.0
  0
LINE
  5
306B
330
1A
100
AcDbEntity
  8
SEIHIN
  6
Continuous
 62
     3
 48
5.0
100
AcDbLine
 10
257.6555619505332
 20
360.6006405817371
 30
0.0
 11
329.2286224059332
 21
360.6006405817371
 31
0.0
  0
LINE
  5
306C
330
1A
100
AcDbEntity
  8
SEIHIN
  6
Continuous
 62
     3
 48
5.0
100
AcDbLine
 10
257.6555619505332
 20
393.6006405817371
 30
0.0
 11
329.2286224059332
 21
393.6006405817371
 31
0.0
  0
LINE
  5
306D
330
1A
100
AcDbEntity
  8
SEIHIN
  6
Continuous
 62
     3
 48
5.0
100
AcDbLine
 10
257.6555619505332
 20
393.6006405817371
 30
0.0
 11
257.6555619505332
 21
360.6006405817371
 31
0.0
  0
DIMENSION
  5
306E
330
1A
100
AcDbEntity
  8
SUNPOU
 48
5.0
100
AcDbDimension
  2
*D1
 10
199.3551436745987
 20
367.1006405817371
 30
0.0
 11
194.3551436745987
 21
377.1006405817372
 31
0.0
 70
    32
 71
     5
 42
20.0
  3
STANDARD
100
AcDbAlignedDimension
 13
224.4706824516331
 23
387.1006405817371
 33
0.0
 14
224.4706824516331
 24
367.1006405817371
 34
0.0
 50
90.0
100
AcDbRotatedDimension
1001
ACAD
1000
DSTYLE
1002
{
1070
   140
1040
6.0
1070
    74
1070
     0
1070
   172
1070
     1
1070
    73
1070
     0
1070
   272
1070
     2
1070
    77
1070
     3
1070
   173
1070
     1
1070
   147
1040
2.0
1070
    42
1040
6.0
1070
    44
1040
3.0
1070
    43
1040
14.0
1070
   271
1070
     0
1070
   178
1070
     4
1070
   177
1070
     4
1070
   176
1070
     4
1070
   141
1040
150.0
1070
     7
1000
_OPEN
1070
     6
1000
_OPEN
1070
    41
1040
7.0
1002
}
  0
LINE
  5
306F
330
1A
100
AcDbEntity
  8
SEIHIN
  6
Continuous
 62
     3
 48
5.0
100
AcDbLine
 10
224.4706824516331
 20
367.1006405817371
 30
0.0
 11
257.6555619505332
 21
367.1006405817371
 31
0.0
  0
LINE
  5
3070
330
1A
100
AcDbEntity
  8
SEIHIN
  6
Continuous
 62
     3
 48
5.0
100
AcDbLine
 10
224.4706824516331
 20
387.1006405817371
 30
0.0
 11
257.6555619505332
 21
387.1006405817371
 31
0.0
  0
LINE
  5
3071
330
1A
100
AcDbEntity
  8
SEIHIN
  6
Continuous
 62
     3
 48
5.0
100
AcDbLine
 10
231.9555619505331
 20
368.3600111025371
 30
0.0
 11
231.9555619505331
 21
385.6359093199371
 31
0.0
  0
LINE
  5
3072
330
1A
100
AcDbEntity
  8
SEIHIN
  6
Continuous
 62
     3
 48
5.0
100
AcDbLine
 10
224.4706824516331
 20
367.1006405817371
 30
0.0
 11
224.4706824516331
 21
387.1006405817371
 31
0.0
  0
LINE
  5
3073
330
1A
100
AcDbEntity
  8
SEIHIN
  6
Continuous
 62
     3
 48
5.0
100
AcDbLine
 10
227.7233927209331
 20
367.1006405817371
 30
0.0
 11
227.7233927209331
 21
387.1006405817371
 31
0.0
  0
LINE
  5
3074
330
1A
100
AcDbEntity
  8
CENTER L
 48
5.0
100
AcDbLine
 10
267.6101079896331
 20
364.5552692636129
 30
0.0
 11
267.6101079896332
 21
389.5551039780615
 31
0.0
  0
LINE
  5
3075
330
1A
100
AcDbEntity
  8
SEIHIN
  6
Continuous
 62
     3
 48
5.0
100
AcDbLine
 10
249.1555619505332
 20
368.3600111025371
 30
0.0
 11
249.1555619505332
 21
385.6359093199371
 31
0.0
  0
LINE
  5
3076
330
1A
100
AcDbEntity
  8
SEIHIN
  6
Continuous
 62
     3
 48
5.0
100
AcDbLine
 10
242.6555619505332
 20
368.3600111025371
 30
0.0
 11
242.6555619505332
 21
385.6359093199371
 31
0.0
  0
LINE
  5
3077
330
1A
100
AcDbEntity
  8
SEIHIN
  6
Continuous
 62
     3
 48
5.0
100
AcDbLine
 10
296.1555619505332
 20
362.8164779915371
 30
0.0
 11
296.1555619505332
 21
391.2167397114372
 31
0.0
  0
LINE
  5
3078
330
1A
100
AcDbEntity
  8
SEIHIN
  6
Continuous
 62
     3
 48
5.0
100
AcDbLine
 10
329.2286224059332
 20
377.1006405817371
 30
0.0
 11
329.2286224059332
 21
394.1006405817371
 31
0.0
  0
LINE
  5
3079
330
1A
100
AcDbEntity
  8
SEIHIN
  6
Continuous
 62
     3
 48
5.0
100
AcDbLine
 10
331.2286224059332
 20
377.1006405817371
 30
0.0
 11
331.2286224059332
 21
394.1006405817371
 31
0.0
  0
LINE
  5
307A
330
1A
100
AcDbEntity
  8
SEIHIN
  6
Continuous
 62
     3
 48
5.0
100
AcDbLine
 10
334.4420921782331
 20
377.1006405817371
 30
0.0
 11
334.4420921782331
 21
393.6006405817371
 31
0.0
  0
LINE
  5
307B
330
1A
100
AcDbEntity
  8
SEIHIN
  6
Continuous
 62
     3
 48
5.0
100
AcDbLine
 10
339.6555619505332
 20
377.1006405817371
 30
0.0
 11
339.6555619505332
 21
394.1006405817371
 31
0.0
  0
LINE
  5
307C
330
1A
100
AcDbEntity
  8
SEIHIN
  6
Continuous
 62
     3
 48
5.0
100
AcDbLine
 10
336.4082823168332
 20
377.1006405817371
 30
0.0
 11
336.4082823168332
 21
393.6006405817371
 31
0.0
  0
LINE
  5
307D
330
1A
100
AcDbEntity
  8
SEIHIN
  6
Continuous
 62
     3
 48
5.0
100
AcDbLine
 10
341.6555619505332
 20
377.1006405817371
 30
0.0
 11
341.6555619505332
 21
394.1006405817371
 31
0.0
  0
LINE
  5
307E
330
1A
100
AcDbEntity
  8
SEIHIN
 62
     3
 48
5.0
100
AcDbLine
 10
375.2239537280332
 20
350.1006405817371
 30
0.0
 11
375.2239537280332
 21
404.1006405817371
 31
0.0
  0
LINE
  5
307F
330
1A
100
AcDbEntity
  8
SEIHIN
 62
     3
 48
5.0
100
AcDbLine
 10
356.6555619505332
 20
350.1006405817371
 30
0.0
 11
356.6555619505332
 21
404.1006405817371
 31
0.0
  0
LINE
  5
3080
330
1A
100
AcDbEntity
  8
SEIHIN
  6
Continuous
 62
     3
 48
5.0
100
AcDbLine
 10
277.6555619505332
 20
362.8164779915371
 30
0.0
 11
277.6555619505332
 21
391.2167397114372
 31
0.0
  0
LINE
  5
3081
330
1A
100
AcDbEntity
  8
SEIHIN
  6
Continuous
 62
     3
 48
5.0
100
AcDbLine
 10
334.4420921782331
 20
360.6006405817371
 30
0.0
 11
339.6555619505332
 21
360.6006405817371
 31
0.0
  0
LINE
  5
3082
330
1A
100
AcDbEntity
  8
SEIHIN
  6
Continuous
 62
     3
 48
5.0
100
AcDbLine
 10
331.2286224059332
 20
360.6006405817371
 30
0.0
 11
339.6555619505332
 21
360.6006405817371
 31
0.0
  0
LINE
  5
3083
330
1A
100
AcDbEntity
  8
SEIHIN
  6
Continuous
 62
     3
 48
5.0
100
AcDbLine
 10
331.2286224059332
 20
360.1006405817371
 30
0.0
 11
337.6555619505332
 21
360.1006405817371
 31
0.0
  0
LINE
  5
3084
330
1A
100
AcDbEntity
  8
SEIHIN
  6
Continuous
 62
     3
 48
5.0
100
AcDbLine
 10
329.2286224059332
 20
377.1006405817371
 30
0.0
 11
329.2286224059332
 21
360.1006405817371
 31
0.0
  0
LINE
  5
3085
330
1A
100
AcDbEntity
  8
SEIHIN
  6
Continuous
 62
     3
 48
5.0
100
AcDbLine
 10
336.4082823168332
 20
377.1006405817371
 30
0.0
 11
336.4082823168332
 21
360.6006405817371
 31
0.0
  0
LINE
  5
3086
330
1A
100
AcDbEntity
  8
SEIHIN
  6
Continuous
 62
     3
 48
5.0
100
AcDbLine
 10
334.4420921782331
 20
377.1006405817371
 30
0.0
 11
334.4420921782331
 21
360.6006405817371
 31
0.0
  0
LINE
  5
3087
330
1A
100
AcDbEntity
  8
SEIHIN
  6
Continuous
 62
     3
 48
5.0
100
AcDbLine
 10
331.2286224059332
 20
377.1006405817371
 30
0.0
 11
331.2286224059332
 21
360.1006405817371
 31
0.0
  0
LINE
  5
3088
330
1A
100
AcDbEntity
  8
SEIHIN
  6
Continuous
 62
     3
 48
5.0
100
AcDbLine
 10
329.2286224059332
 20
360.1006405817371
 30
0.0
 11
331.2286224059332
 21
360.1006405817371
 31
0.0
  0
LINE
  5
3089
330
1A
100
AcDbEntity
  8
SEIHIN
  6
Continuous
 62
     3
 48
5.0
100
AcDbLine
 10
331.2286224059332
 20
360.6006405817371
 30
0.0
 11
334.4420921782331
 21
360.6006405817371
 31
0.0
  0
LINE
  5
308A
330
1A
100
AcDbEntity
  8
SEIHIN
 48
5.0
100
AcDbLine
 10
351.1118465316536
 20
344.9348954674609
 30
0.0
 11
352.6238732310306
 21
341.9940982431241
 31
0.0
  0
LINE
  5
308B
330
1A
100
AcDbEntity
  8
CENTER L
 48
5.0
100
AcDbLine
 10
360.3692403060367
 20
342.5006405817371
 30
0.0
 11
360.3692403060367
 21
354.7006405817372
 31
0.0
  0
LINE
  5
308C
330
1A
100
AcDbEntity
  8
CENTER L
 48
5.0
100
AcDbLine
 10
362.2260794837883
 20
341.3506405817371
 30
0.0
 11
362.2260794837883
 21
355.8506405817371
 31
0.0
  0
LINE
  5
308D
330
1A
100
AcDbEntity
  8
CENTER L
 48
5.0
100
AcDbLine
 10
362.2260794837883
 20
341.3506405817371
 30
0.0
 11
362.2260794837883
 21
355.8506405817371
 31
0.0
  0
LINE
  5
308E
330
1A
100
AcDbEntity
  8
SEIHIN
 62
     3
 48
5.0
100
AcDbLine
 10
354.7983253447367
 20
340.1006405817371
 30
0.0
 11
371.5102753725297
 21
340.1006405817371
 31
0.0
  0
LINE
  5
308F
330
1A
100
AcDbEntity
  8
CENTER L
 48
5.0
100
AcDbLine
 10
366.7304029178739
 20
350.6006405817371
 30
0.0
 11
376.2901478271855
 21
350.6006405817371
 31
0.0
  0
LINE
  5
3090
330
1A
100
AcDbEntity
  8
SEIHIN
  6
Continuous
 62
     3
 48
5.0
100
AcDbLine
 10
341.6555619505332
 20
377.1006405817371
 30
0.0
 11
341.6555619505332
 21
360.1006405817371
 31
0.0
  0
LINE
  5
3091
330
1A
100
AcDbEntity
  8
SEIHIN
  6
Continuous
 62
     3
 48
5.0
100
AcDbLine
 10
339.6555619505332
 20
377.1006405817371
 30
0.0
 11
339.6555619505332
 21
360.1006405817371
 31
0.0
  0
LINE
  5
3092
330
1A
100
AcDbEntity
  8
SEIHIN
  6
Continuous
 62
     3
 48
5.0
100
AcDbLine
 10
341.6555619505332
 20
360.6006405817371
 30
0.0
 11
356.6555619505332
 21
360.6006405817373
 31
0.0
  0
LINE
  5
3093
330
1A
100
AcDbEntity
  8
SEIHIN
 62
     3
 48
5.0
100
AcDbLine
 10
351.0846469892332
 20
350.1006405817371
 30
0.0
 11
351.0846469892332
 21
357.6006405817371
 31
0.0
  0
LINE
  5
3094
330
1A
100
AcDbEntity
  8
SEIHIN
 48
5.0
100
AcDbLine
 10
351.0846469892332
 20
350.1006405817371
 30
0.0
 11
351.0846469892332
 21
357.6006405817371
 31
0.0
  0
LINE
  5
3095
330
1A
100
AcDbEntity
  8
SEIHIN
 48
5.0
100
AcDbLine
 10
349.9704110066332
 20
350.1006405817371
 30
0.0
 11
349.9704110066332
 21
359.9338559748544
 31
0.0
  0
LINE
  5
3096
330
1A
100
AcDbEntity
  8
SEIHIN
  6
Continuous
 62
     3
 48
5.0
100
AcDbLine
 10
339.6555619505332
 20
360.1006405817371
 30
0.0
 11
348.4473710657331
 21
360.1006405817371
 31
0.0
  0
LINE
  5
3097
330
1A
100
AcDbEntity
  8
SEIHIN
  6
Continuous
 62
     3
 48
5.0
100
AcDbLine
 10
341.6555619505332
 20
360.6006405817371
 30
0.0
 11
348.0846469892332
 21
360.6006405817371
 31
0.0
  0
LINE
  5
3098
330
1A
100
AcDbEntity
  8
SEIHIN
  6
Continuous
 62
     3
 48
5.0
100
AcDbLine
 10
337.6555619505332
 20
360.1006405817371
 30
0.0
 11
337.6555619505332
 21
360.6006405817371
 31
0.0
  0
LINE
  5
3099
330
1A
100
AcDbEntity
  8
SEIHIN
  6
Continuous
 62
     3
 48
5.0
100
AcDbLine
 10
348.4473710657331
 20
360.1006405817371
 30
0.0
 11
348.4473710657331
 21
360.5786317241372
 31
0.0
  0
ARC
  5
309A
330
1A
100
AcDbEntity
  8
SEIHIN
  6
Continuous
 62
     3
 48
5.0
100
AcDbCircle
 10
348.0846469892332
 20
357.6006405817371
 30
0.0
 40
3.0
100
AcDbArc
 50
0.0
 51
90.0
  0
LINE
  5
309B
330
1A
100
AcDbEntity
  8
CENTER L
 48
5.0
100
AcDbLine
 10
355.5893678513809
 20
348.6006405817371
 30
0.0
 11
367.4636936275865
 21
348.6006405817371
 31
0.0
  0
LINE
  5
309C
330
1A
100
AcDbEntity
  8
CENTER L
 48
5.0
100
AcDbLine
 10
371.5102753725297
 20
344.5006405817373
 30
0.0
 11
371.5102753725297
 21
356.7006405817372
 31
0.0
  0
LINE
  5
309D
330
1A
100
AcDbEntity
  8
SEIHIN
  6
Continuous
 62
     3
 48
5.0
100
AcDbLine
 10
334.4420921782331
 20
393.6006405817371
 30
0.0
 11
339.6555619505332
 21
393.6006405817371
 31
0.0
  0
LINE
  5
309E
330
1A
100
AcDbEntity
  8
SEIHIN
  6
Continuous
 62
     3
 48
5.0
100
AcDbLine
 10
331.2286224059332
 20
394.1006405817371
 30
0.0
 11
337.6555619505332
 21
394.1006405817371
 31
0.0
  0
LINE
  5
309F
330
1A
100
AcDbEntity
  8
SEIHIN
  6
Continuous
 62
     3
 48
5.0
100
AcDbLine
 10
329.2286224059332
 20
394.1006405817371
 30
0.0
 11
331.2286224059332
 21
394.1006405817371
 31
0.0
  0
LINE
  5
30A0
330
1A
100
AcDbEntity
  8
SEIHIN
  6
Continuous
 62
     3
 48
5.0
100
AcDbLine
 10
331.2286224059332
 20
393.6006405817371
 30
0.0
 11
334.4420921782331
 21
393.6006405817371
 31
0.0
  0
LINE
  5
30A1
330
1A
100
AcDbEntity
  8
SEIHIN
 62
     3
 48
5.0
100
AcDbLine
 10
360.3692403060367
 20
414.1006405817371
 30
0.0
 11
371.5102753725297
 21
414.1006405817371
 31
0.0
  0
LINE
  5
30A2
330
1A
100
AcDbEntity
  8
CENTER L
 48
5.0
100
AcDbLine
 10
366.7304029178739
 20
403.6006405817371
 30
0.0
 11
376.2901478271855
 21
403.6006405817371
 31
0.0
  0
LINE
  5
30A3
330
1A
100
AcDbEntity
  8
SEIHIN
 62
     3
 48
5.0
100
AcDbLine
 10
354.7983253447367
 20
414.1006405817371
 30
0.0
 11
371.5102753725297
 21
414.1006405817371
 31
0.0
  0
LINE
  5
30A4
330
1A
100
AcDbEntity
  8
SEIHIN
  6
Continuous
 62
     3
 48
5.0
100
AcDbLine
 10
341.6555619505332
 20
393.6006405817371
 30
0.0
 11
356.6555619505332
 21
393.6006405817371
 31
0.0
  0
LINE
  5
30A5
330
1A
100
AcDbEntity
  8
SEIHIN
 48
5.0
100
AcDbLine
 10
351.0846469892332
 20
396.6006405817371
 30
0.0
 11
351.0846469892332
 21
404.1006405817371
 31
0.0
  0
LINE
  5
30A6
330
1A
100
AcDbEntity
  8
SEIHIN
 62
     3
 48
5.0
100
AcDbLine
 10
351.0846469892332
 20
396.6006405817371
 30
0.0
 11
351.0846469892332
 21
404.1006405817371
 31
0.0
  0
LINE
  5
30A7
330
1A
100
AcDbEntity
  8
SEIHIN
 48
5.0
100
AcDbLine
 10
349.9704110066332
 20
394.2674251886199
 30
0.0
 11
349.9704110066332
 21
404.1006405817371
 31
0.0
  0
LINE
  5
30A8
330
1A
100
AcDbEntity
  8
SEIHIN
  6
Continuous
 62
     3
 48
5.0
100
AcDbLine
 10
339.6555619505332
 20
394.1006405817371
 30
0.0
 11
348.4473710657331
 21
394.1006405817371
 31
0.0
  0
LINE
  5
30A9
330
1A
100
AcDbEntity
  8
SEIHIN
  6
Continuous
 62
     3
 48
5.0
100
AcDbLine
 10
337.6555619505332
 20
394.1006405817371
 30
0.0
 11
337.6555619505332
 21
393.6006405817371
 31
0.0
  0
LINE
  5
30AA
330
1A
100
AcDbEntity
  8
SEIHIN
  6
Continuous
 62
     3
 48
5.0
100
AcDbLine
 10
348.4473710657331
 20
394.1006405817371
 30
0.0
 11
348.4473710657331
 21
393.6226494393371
 31
0.0
  0
ARC
  5
30AB
330
1A
100
AcDbEntity
  8
SEIHIN
  6
Continuous
 62
     3
 48
5.0
100
AcDbCircle
 10
348.0846469892332
 20
396.6006405817371
 30
0.0
 40
3.0
100
AcDbArc
 50
270.0
 51
0.0
  0
LINE
  5
30AC
330
1A
100
AcDbEntity
  8
SEIHIN
 48
5.0
100
AcDbLine
 10
351.1118465316536
 20
409.2663856960135
 30
0.0
 11
352.6238732310306
 21
412.2071829203502
 31
0.0
  0
LINE
  5
30AD
330
1A
100
AcDbEntity
  8
CENTER L
 48
5.0
100
AcDbLine
 10
362.2260794837883
 20
412.8506405817371
 30
0.0
 11
362.2260794837883
 21
398.3506405817371
 31
0.0
  0
LINE
  5
30AE
330
1A
100
AcDbEntity
  8
CENTER L
 48
5.0
100
AcDbLine
 10
362.2260794837883
 20
412.8506405817371
 30
0.0
 11
362.2260794837883
 21
398.3506405817371
 31
0.0
  0
LINE
  5
30AF
330
1A
100
AcDbEntity
  8
CENTER L
 48
5.0
100
AcDbLine
 10
360.3692403060367
 20
411.7006405817372
 30
0.0
 11
360.3692403060367
 21
399.5006405817371
 31
0.0
  0
LINE
  5
30B0
330
1A
100
AcDbEntity
  8
CENTER L
 48
5.0
100
AcDbLine
 10
355.5893678513809
 20
405.6006405817371
 30
0.0
 11
367.4636936275865
 21
405.6006405817371
 31
0.0
  0
LINE
  5
30B1
330
1A
100
AcDbEntity
  8
CENTER L
 48
5.0
100
AcDbLine
 10
371.5102753725297
 20
409.7006405817371
 30
0.0
 11
371.5102753725297
 21
397.5006405817371
 31
0.0
  0
MTEXT
  5
30B2
330
1A
100
AcDbEntity
  8
SUNPOU
 62
     4
 48
5.0
100
AcDbMText
 10
621.1242128451376
 20
292.6207713683634
 30
0.0
 40
6.0
 41
0.0
 71
     7
 72
     5
  1
2-φ6.5
 73
     1
 44
1.0
  0
LINE
  5
30B3
330
1A
100
AcDbEntity
  8
SEIHIN
 62
     3
 48
5.0
100
AcDbLine
 10
597.0148344227692
 20
296.6410123252657
 30
0.0
 11
595.9007309161184
 21
299.4264698059085
 31
0.0
  0
LINE
  5
30B4
330
1A
100
AcDbEntity
  8
SEIHIN
 62
     3
 48
5.0
100
AcDbLine
 10
594.2293769421264
 20
295.5269088186151
 30
0.0
 11
593.1152734354757
 21
298.3123662992578
 31
0.0
  0
LINE
  5
30B5
330
1A
100
AcDbEntity
  8
SEIHIN
 62
     3
 48
5.0
100
AcDbLine
 10
579.4665450279273
 20
293.3917755972198
 30
0.0
 11
592.4653466042602
 21
298.5909252949231
 31
0.0
  0
LINE
  5
30B6
330
1A
100
AcDbEntity
  8
SEIHIN
 62
     3
 48
5.0
100
AcDbLine
 10
547.4340489525572
 20
291.3499148817469
 30
0.0
 11
544.091738432605
 21
299.7062873236752
 31
0.0
  0
LINE
  5
30B7
330
1A
100
AcDbEntity
  8
SEIHIN
 62
     3
 48
5.0
100
AcDbLine
 10
548.3625347794379
 20
291.7212827172971
 30
0.0
 11
545.0202242594859
 21
300.0776551592254
 31
0.0
  0
LINE
  5
30B8
330
1A
100
AcDbEntity
  8
CENTER L
 48
5.0
100
AcDbLine
 10
540.5073433204892
 20
280.3940603241745
 30
0.0
 11
532.801460732822
 21
299.6601412319535
 31
0.0
  0
DIMENSION
  5
30B9
330
1A
100
AcDbEntity
  8
SUNPOU
 48
5.0
100
AcDbDimension
  2
*D2
 10
507.3331781078575
 20
340.4470322933044
 30
0.0
 11
539.8303145247002
 21
358.8300713430675
 31
0.0
 70
    32
 71
     5
 42
74.00000000000011
  3
STANDARD
100
AcDbAlignedDimension
 13
596.272562417706
 23
317.3460607982951
 33
0.0
 14
527.5646112285182
 24
289.864840967578
 34
0.0
 50
21.79999999999975
100
AcDbRotatedDimension
1001
ACAD
1000
DSTYLE
1002
{
1070
   140
1040
6.0
1070
    74
1070
     0
1070
   172
1070
     1
1070
    73
1070
     0
1070
   272
1070
     2
1070
    77
1070
     3
1070
   173
1070
     1
1070
   147
1040
2.0
1070
    42
1040
6.0
1070
    44
1040
3.0
1070
    43
1040
14.0
1070
   271
1070
     0
1070
   178
1070
     4
1070
   177
1070
     4
1070
   176
1070
     4
1070
   141
1040
150.0
1070
     7
1000
_OPEN
1070
     6
1000
_OPEN
1070
    41
1040
7.0
1002
}
  0
ARC
  5
30BA
330
1A
100
AcDbEntity
  8
SEIHIN
 62
     3
 48
5.0
100
AcDbCircle
 10
536.8494694973274
 20
293.5785193230803
 30
0.0
 40
10.0
100
AcDbArc
 50
111.799999999999
 51
201.7999999999997
  0
LINE
  5
30BB
330
1A
100
AcDbEntity
  8
CENTER L
 48
5.0
100
AcDbLine
 10
579.3728750939731
 20
259.9666170195335
 30
0.0
 11
554.7144077469483
 21
321.6171835269865
 31
0.0
  0
LINE
  5
30BC
330
1A
100
AcDbEntity
  8
SEIHIN
 62
     3
 48
5.0
100
AcDbLine
 10
591.3512430976094
 20
301.3763827755658
 30
0.0
 11
542.141494272921
 21
281.6938874914035
 31
0.0
  0
LINE
  5
30BD
330
1A
100
AcDbEntity
  8
SEIHIN
 62
     3
 48
5.0
100
AcDbLine
 10
550.0337562774193
 20
290.2356788990855
 30
0.0
 11
579.7453027376085
 21
302.1194496366931
 31
0.0
  0
LINE
  5
30BE
330
1A
100
AcDbEntity
  8
SEIHIN
 62
     3
 48
5.0
100
AcDbLine
 10
549.6623884418691
 20
291.1641647259664
 30
0.0
 11
579.3739349020584
 21
303.0479354635738
 31
0.0
  0
LINE
  5
30BF
330
1A
100
AcDbEntity
  8
SEIHIN
 62
     3
 48
5.0
100
AcDbLine
 10
596.272562417706
 20
317.3460607982951
 30
0.0
 11
607.4135974842128
 21
289.4914859918678
 31
0.0
  0
LEADER
  5
30C0
330
1A
100
AcDbEntity
  8
SUNPOU
 62
     4
 48
5.0
100
AcDbLeader
  3
STANDARD
 40
6.0
 41
31.2
 76
     3
 10
533.5451618544875
 20
294.0055235130051
 30
0.0
 10
495.8544732648034
 20
324.6562944372998
 30
0.0
 10
492.5281223601505
 20
324.6562944372998
 30
0.0
1001
ACAD
1000
DSTYLE
1002
{
1070
     6
1000
OPEN
1070
    41
1040
7.0
1070
    42
1040
6.0
1070
    43
1040
14.0
1070
    44
1040
3.0
1070
    73
1070
     0
1070
    74
1070
     0
1070
    77
1070
     3
1070
   140
1040
6.0
1070
   141
1040
150.0
1070
   147
1040
2.0
1070
   172
1070
     1
1070
   173
1070
     1
1070
   176
1070
     4
1070
   177
1070
     4
1070
   178
1070
     4
1070
   271
1070
     2
1070
   272
1070
     2
1070
   341
1005
6D
1070
   343
1005
6D
1070
   344
1005
6D
1002
}
  0
LEADER
  5
30C1
330
1A
100
AcDbEntity
  8
SUNPOU
 62
     4
 48
5.0
100
AcDbLeader
  3
STANDARD
 74
     0
 40
6.0
 41
31.2
 76
     3
 10
593.0908465238396
 20
307.4325573514954
 30
0.0
 10
617.3685128802489
 20
290.6207713683634
 30
0.0
 10
619.1242128451377
 20
290.6207713683634
 30
0.0
1001
ACAD
1000
DSTYLE
1002
{
1070
     6
1000
OPEN
1070
    41
1040
7.0
1070
    42
1040
6.0
1070
    43
1040
14.0
1070
    44
1040
3.0
1070
    73
1070
     0
1070
    74
1070
     0
1070
    77
1070
     3
1070
   140
1040
6.0
1070
   141
1040
150.0
1070
   147
1040
2.0
1070
   172
1070
     1
1070
   173
1070
     1
1070
   176
1070
     4
1070
   177
1070
     4
1070
   178
1070
     4
1070
   271
1070
     2
1070
   272
1070
     2
1070
   341
1005
6D
1070
   343
1005
6D
1070
   344
1005
6D
1002
}
  0
DIMENSION
  5
30C2
330
1A
100
AcDbEntity
  8
SUNPOU
 48
5.0
100
AcDbDimension
  2
*D3
 10
487.8174782336447
 20
284.7373456286054
 30
0.0
 11
485.2182345748194
 21
304.6996584305344
 31
0.0
 70
    32
 71
     5
 42
9.999999999999858
  3
STANDARD
100
AcDbAlignedDimension
 13
528.8180670948074
 23
290.3661875455708
 33
0.0
 14
533.1357911418252
 24
302.8633775918895
 34
0.0
 50
111.8000000000005
100
AcDbRotatedDimension
1001
ACAD
1000
DSTYLE
1002
{
1070
   140
1040
6.0
1070
    74
1070
     0
1070
   172
1070
     1
1070
    73
1070
     0
1070
   272
1070
     2
1070
    77
1070
     3
1070
   173
1070
     1
1070
   147
1040
2.0
1070
    42
1040
6.0
1070
    44
1040
3.0
1070
    43
1040
14.0
1070
   271
1070
     0
1070
   178
1070
     4
1070
   177
1070
     4
1070
   176
1070
     4
1070
   141
1040
150.0
1070
     7
1000
_OPEN
1070
     6
1000
_OPEN
1070
    41
1040
7.0
1002
}
  0
DIMENSION
  5
30C3
330
1A
100
AcDbEntity
  8
SUNPOU
 48
5.0
100
AcDbDimension
  2
*D4
 10
490.7670105643063
 20
232.0659562044248
 30
0.0
 11
486.1252438099547
 21
257.1349410541988
 31
0.0
 70
    32
 71
     5
 42
50.0
  3
STANDARD
100
AcDbAlignedDimension
 13
533.1357911418252
 23
302.8633775918895
 33
0.0
 14
551.7041829193367
 24
256.4390862478438
 34
0.0
 50
111.8000000000005
100
AcDbRotatedDimension
1001
ACAD
1000
DSTYLE
1002
{
1070
   140
1040
6.0
1070
    74
1070
     0
1070
   172
1070
     1
1070
    73
1070
     0
1070
   272
1070
     2
1070
    77
1070
     3
1070
   173
1070
     1
1070
   147
1040
2.0
1070
    42
1040
6.0
1070
    44
1040
3.0
1070
    43
1040
14.0
1070
   271
1070
     0
1070
   178
1070
     4
1070
   177
1070
     4
1070
   176
1070
     4
1070
   141
1040
150.0
1070
     7
1000
_OPEN
1070
     6
1000
_OPEN
1070
    41
1040
7.0
1002
}
  0
ARC
  5
30C4
330
1A
100
AcDbEntity
  8
SEIHIN
 62
     3
 48
5.0
100
AcDbCircle
 10
535.4567407570061
 20
293.0214675697549
 30
0.0
 40
2.15
100
AcDbArc
 50
308.5548086971995
 51
275.045191302699
  0
LINE
  5
30C5
330
1A
100
AcDbEntity
  8
SEIHIN
 62
     3
 48
5.0
100
AcDbLine
 10
527.5646112285182
 20
289.864840967578
 30
0.0
 11
538.7056462950253
 21
262.0102661611505
 31
0.0
  0
LINE
  5
30C6
330
1A
100
AcDbEntity
  8
CENTER L
 48
5.0
100
AcDbLine
 10
542.0954144192043
 20
295.6767475939391
 30
0.0
 11
528.8180670948074
 21
290.3661875455708
 31
0.0
  0
LINE
  5
30C7
330
1A
100
AcDbEntity
  8
CENTER L
 48
5.0
100
AcDbLine
 10
545.1314226485339
 20
291.182845722353
 30
0.0
 11
529.7185579223105
 21
285.018139652219
 31
0.0
  0
ARC
  5
30C8
330
1A
100
AcDbEntity
  8
SEIHIN
 62
     3
 48
5.0
100
AcDbCircle
 10
537.4249902854225
 20
288.1004926872861
 30
0.0
 40
3.3
100
AcDbArc
 50
122.625390506299
 51
100.9746094937002
  0
DIMENSION
  5
30C9
330
1A
100
AcDbEntity
  8
SUNPOU
 48
5.0
100
AcDbDimension
  2
*D5
 10
506.3858700111565
 20
238.3130542845598
 30
0.0
 11
518.2699719387907
 21
222.0644198381333
 31
0.0
 70
    32
 71
     5
 42
10.00000000000014
  3
STANDARD
100
AcDbAlignedDimension
 13
541.8160738150763
 23
263.2543484102439
 33
0.0
 14
551.7041829193367
 24
256.4390862478438
 34
0.0
 50
111.8000000000005
100
AcDbRotatedDimension
1001
ACAD
1000
DSTYLE
1002
{
1070
   140
1040
6.0
1070
    74
1070
     0
1070
   172
1070
     1
1070
    73
1070
     0
1070
   272
1070
     2
1070
    77
1070
     3
1070
   173
1070
     1
1070
   147
1040
2.0
1070
    42
1040
6.0
1070
    44
1040
3.0
1070
    43
1040
14.0
1070
   271
1070
     0
1070
   178
1070
     4
1070
   177
1070
     4
1070
   176
1070
     4
1070
   141
1040
150.0
1070
     7
1000
_OPEN
1070
     6
1000
_OPEN
1070
    41
1040
7.0
1002
}
  0
LINE
  5
30CA
330
1A
100
AcDbEntity
  8
SEIHIN
  6
PHANTOM
 62
     6
 48
3.0
100
AcDbLine
 10
404.6530387667332
 20
183.6238235846232
 30
0.0
 11
410.2239537280332
 21
185.8520305979232
 31
0.0
  0
LINE
  5
30CB
330
1A
100
AcDbEntity
  8
CENTER L
 48
5.0
100
AcDbLine
 10
604.3031699641618
 20
288.2474037427744
 30
0.0
 11
591.0258226397647
 21
282.9368436944062
 31
0.0
  0
LINE
  5
30CC
330
1A
100
AcDbEntity
  8
CENTER L
 48
5.0
100
AcDbLine
 10
600.3197763261474
 20
278.9534500563917
 30
0.0
 11
595.0092162777793
 21
292.2307973807889
 31
0.0
  0
LINE
  5
30CD
330
1A
100
AcDbEntity
  8
SEIHIN
 62
     3
 48
5.0
100
AcDbLine
 10
551.7041829193367
 20
256.4390862478438
 30
0.0
 11
601.8424175709062
 21
276.4929493675562
 31
0.0
  0
DIMENSION
  5
30CE
330
1A
100
AcDbEntity
  8
SUNPOU
 48
5.0
100
AcDbDimension
  2
*D6
 10
562.9830321990744
 20
229.5863253322756
 30
0.0
 11
587.504761847983
 21
239.3943174415952
 31
0.0
 70
   160
 71
     5
 42
52.99999999999977
  3
STANDARD
100
AcDbAlignedDimension
 13
600.3197763261474
 23
278.9534500563917
 33
0.0
 14
551.1100275014591
 24
259.2709547722294
 34
0.0
 50
21.79999999999975
100
AcDbRotatedDimension
1001
ACAD
1000
DSTYLE
1002
{
1070
   288
1070
     1
1070
   140
1040
6.0
1070
    74
1070
     0
1070
   172
1070
     1
1070
    73
1070
     0
1070
   272
1070
     2
1070
    77
1070
     3
1070
   173
1070
     1
1070
   147
1040
2.0
1070
    42
1040
6.0
1070
    44
1040
3.0
1070
    43
1040
14.0
1070
   271
1070
     0
1070
   178
1070
     4
1070
   177
1070
     4
1070
   176
1070
     4
1070
   141
1040
150.0
1070
     7
1000
_OPEN
1070
     6
1000
_OPEN
1070
    41
1040
7.0
1002
}
  0
LINE
  5
30CF
330
1A
100
AcDbEntity
  8
SEIHIN
 62
     3
 48
5.0
100
AcDbLine
 10
584.2941944140695
 20
275.9362950422628
 30
0.0
 11
564.7959920495704
 21
268.137570495708
 31
0.0
  0
LINE
  5
30D0
330
1A
100
AcDbEntity
  8
SEIHIN
 62
     3
 48
5.0
100
AcDbLine
 10
589.7722342974648
 20
277.0503323109083
 30
0.0
 11
560.0606878372756
 21
265.1665615733009
 31
0.0
  0
LINE
  5
30D1
330
1A
100
AcDbEntity
  8
SEIHIN
 62
     3
 48
5.0
100
AcDbLine
 10
576.866837703065
 20
294.5060115798812
 30
0.0
 11
557.3686353385657
 21
286.7072870333263
 31
0.0
  0
ARC
  5
30D2
330
1A
100
AcDbEntity
  8
SEIHIN
 62
     3
 48
5.0
100
AcDbCircle
 10
544.5553852039974
 20
275.6587296166777
 30
0.0
 40
3.5
100
AcDbArc
 50
201.7999999999997
 51
291.799999999999
  0
ARC
  5
30D3
330
1A
100
AcDbEntity
  8
SEIHIN
 62
     3
 48
5.0
100
AcDbCircle
 10
548.4547474772749
 20
265.909628434428
 30
0.0
 40
7.0
100
AcDbArc
 50
21.79999999999975
 51
111.799999999999
  0
LINE
  5
30D4
330
1A
100
AcDbEntity
  8
SEIHIN
 62
     3
 48
5.0
100
AcDbLine
 10
562.1962847247081
 20
269.2518064783694
 30
0.0
 11
556.2543993559044
 21
284.1075797084641
 31
0.0
  0
LINE
  5
30D5
330
1A
100
AcDbEntity
  8
SEIHIN
 62
     3
 48
5.0
100
AcDbLine
 10
564.7959920495704
 20
268.137570495708
 30
0.0
 11
557.3686353385657
 21
286.7072870333263
 31
0.0
  0
ARC
  5
30D6
330
1A
100
AcDbEntity
  8
SEIHIN
 62
     3
 48
5.0
100
AcDbCircle
 10
548.4547474772749
 20
265.909628434428
 30
0.0
 40
10.0
100
AcDbArc
 50
21.79999999999975
 51
111.799999999999
  0
LINE
  5
30D7
330
1A
100
AcDbEntity
  8
CENTER L
 48
5.0
100
AcDbLine
 10
555.0934211394732
 20
268.5649084586121
 30
0.0
 11
541.8160738150763
 21
263.2543484102439
 31
0.0
  0
LINE
  5
30D8
330
1A
100
AcDbEntity
  8
CENTER L
 48
5.0
100
AcDbLine
 10
551.1100275014591
 20
259.2709547722294
 30
0.0
 11
545.7994674530909
 21
272.5483020966266
 31
0.0
  0
ARC
  5
30D9
330
1A
100
AcDbEntity
  8
SEIHIN
 62
     3
 48
5.0
100
AcDbCircle
 10
547.9905045638344
 20
265.7239445166529
 30
0.0
 40
10.0
100
AcDbArc
 50
201.7999999999997
 51
291.799999999999
  0
CIRCLE
  5
30DA
330
1A
100
AcDbEntity
  8
SEIHIN
 62
     3
 48
5.0
100
AcDbCircle
 10
548.4547474772749
 20
265.909628434428
 30
0.0
 40
2.15
  0
LINE
  5
30DB
330
1A
100
AcDbEntity
  8
SEIHIN
 62
     3
 48
5.0
100
AcDbLine
 10
562.1962847247081
 20
269.2518064783694
 30
0.0
 11
558.9465843306249
 21
267.9520190539436
 31
0.0
  0
ARC
  5
30DC
330
1A
100
AcDbEntity
  8
SEIHIN
 62
     3
 48
5.0
100
AcDbCircle
 10
558.7609004128499
 20
268.4162619673841
 30
0.0
 40
3.5
100
AcDbArc
 50
201.7999999999997
 51
291.8000000001989
  0
LINE
  5
30DD
330
1A
100
AcDbEntity
  8
SEIHIN
 62
     3
 48
5.0
100
AcDbLine
 10
558.2966574994093
 20
268.2305780496089
 30
0.0
 11
557.739605746084
 21
269.6233067899303
 31
0.0
  0
ARC
  5
30DE
330
1A
100
AcDbEntity
  8
SEIHIN
 62
     3
 48
5.0
100
AcDbCircle
 10
558.7609004128499
 20
268.4162619673841
 30
0.0
 40
0.5
100
AcDbArc
 50
201.7999999999997
 51
291.799999999999
  0
LINE
  5
30DF
330
1A
100
AcDbEntity
  8
SEIHIN
 62
     3
 48
5.0
100
AcDbLine
 10
555.5112000187665
 20
267.1164745429583
 30
0.0
 11
554.9541482654412
 21
268.5092032832796
 31
0.0
  0
LINE
  5
30E0
330
1A
100
AcDbEntity
  8
SEIHIN
 62
     3
 48
5.0
100
AcDbLine
 10
564.7959920495704
 20
268.137570495708
 30
0.0
 11
562.1962847247081
 21
269.2518064783694
 31
0.0
  0
LINE
  5
30E1
330
1A
100
AcDbEntity
  8
SEIHIN
 62
     3
 48
5.0
100
AcDbLine
 10
556.2543993559044
 20
284.1075797084641
 30
0.0
 11
543.2555977795716
 21
278.9084300107609
 31
0.0
  0
ARC
  5
30E2
330
1A
100
AcDbEntity
  8
SEIHIN
 62
     3
 48
5.0
100
AcDbCircle
 10
543.4412816973467
 20
278.4441870973203
 30
0.0
 40
3.5
100
AcDbArc
 50
111.8000000000988
 51
201.7999999999997
  0
LINE
  5
30E3
330
1A
100
AcDbEntity
  8
SEIHIN
 62
     3
 48
5.0
100
AcDbLine
 10
541.3056848099142
 20
274.3589421922518
 30
0.0
 11
540.1915813032637
 21
277.1443996728945
 31
0.0
  0
ARC
  5
30E4
330
1A
100
AcDbEntity
  8
SEIHIN
 62
     3
 48
5.0
100
AcDbCircle
 10
543.4412816973467
 20
278.4441870973203
 30
0.0
 40
0.5
100
AcDbArc
 50
111.799999999999
 51
201.7999999999997
  0
ARC
  5
30E5
330
1A
100
AcDbEntity
  8
SEIHIN
 62
     3
 48
5.0
100
AcDbCircle
 10
544.5553852039974
 20
275.6587296166777
 30
0.0
 40
0.5
100
AcDbArc
 50
201.7999999999997
 51
291.799999999999
  0
LINE
  5
30E6
330
1A
100
AcDbEntity
  8
SEIHIN
 62
     3
 48
5.0
100
AcDbLine
 10
544.0911422905571
 20
275.4730456989025
 30
0.0
 11
542.9770387839062
 21
278.2585031795453
 31
0.0
  0
ARC
  5
30E7
330
1A
100
AcDbEntity
  8
SEIHIN
 62
     3
 48
5.0
100
AcDbCircle
 10
549.2910206063191
 20
292.0926505528474
 30
0.0
 40
2.0
100
AcDbArc
 50
201.7999999999997
 51
291.799999999999
  0
ARC
  5
30E8
330
1A
100
AcDbEntity
  8
SEIHIN
 62
     3
 48
5.0
100
AcDbCircle
 10
549.2910206063191
 20
292.0926505528474
 30
0.0
 40
1.0
100
AcDbArc
 50
201.7999999999997
 51
291.799999999999
  0
LINE
  5
30E9
330
1A
100
AcDbEntity
  8
SEIHIN
 62
     3
 48
5.0
100
AcDbLine
 10
556.2543993559044
 20
284.1075797084641
 30
0.0
 11
557.3686353385657
 21
286.7072870333263
 31
0.0
  0
LINE
  5
30EA
330
1A
100
AcDbEntity
  8
SEIHIN
 62
     3
 48
5.0
100
AcDbLine
 10
585.4084303967311
 20
278.5360023671253
 30
0.0
 11
579.4665450279273
 21
293.3917755972198
 31
0.0
  0
LINE
  5
30EB
330
1A
100
AcDbEntity
  8
SEIHIN
 62
     3
 48
5.0
100
AcDbLine
 10
584.2941944140695
 20
275.9362950422628
 30
0.0
 11
576.866837703065
 21
294.5060115798812
 31
0.0
  0
LINE
  5
30EC
330
1A
100
AcDbEntity
  8
SEIHIN
 62
     3
 48
5.0
100
AcDbLine
 10
579.4665450279273
 20
293.3917755972198
 30
0.0
 11
576.866837703065
 21
294.5060115798812
 31
0.0
  0
CIRCLE
  5
30ED
330
1A
100
AcDbEntity
  8
SEIHIN
 62
     3
 48
5.0
100
AcDbCircle
 10
597.6644963019633
 20
285.5921237185903
 30
0.0
 40
2.15
  0
ARC
  5
30EE
330
1A
100
AcDbEntity
  8
SEIHIN
 62
     3
 48
5.0
100
AcDbCircle
 10
597.6644963019633
 20
285.5921237185903
 30
0.0
 40
7.0
100
AcDbArc
 50
111.799999999999
 51
201.7999999999997
  0
ARC
  5
30EF
330
1A
100
AcDbEntity
  8
SEIHIN
 62
     3
 48
5.0
100
AcDbCircle
 10
597.6644963019633
 20
285.5921237185903
 30
0.0
 40
10.0
100
AcDbArc
 50
111.799999999999
 51
201.7999999999997
  0
ARC
  5
30F0
330
1A
100
AcDbEntity
  8
SEIHIN
 62
     3
 48
5.0
100
AcDbCircle
 10
588.4724468730391
 20
280.3000327049915
 30
0.0
 40
3.5
100
AcDbArc
 50
291.799999999999
 51
21.79999999999975
  0
LINE
  5
30F1
330
1A
100
AcDbEntity
  8
SEIHIN
 62
     3
 48
5.0
100
AcDbLine
 10
591.7221472671223
 20
281.5998201294173
 30
0.0
 11
591.1650955137969
 21
282.9925488697386
 31
0.0
  0
LINE
  5
30F2
330
1A
100
AcDbEntity
  8
SEIHIN
 62
     3
 48
5.0
100
AcDbLine
 10
588.9366897864796
 20
280.4857166227665
 30
0.0
 11
588.3796380331543
 21
281.878445363088
 31
0.0
  0
LINE
  5
30F3
330
1A
100
AcDbEntity
  8
SEIHIN
 62
     3
 48
5.0
100
AcDbLine
 10
585.4084303967311
 20
278.5360023671253
 30
0.0
 11
588.6581307908142
 21
279.835789791551
 31
0.0
  0
ARC
  5
30F4
330
1A
100
AcDbEntity
  8
SEIHIN
 62
     3
 48
5.0
100
AcDbCircle
 10
588.4724468730391
 20
280.3000327049915
 30
0.0
 40
0.5
100
AcDbArc
 50
291.799999999999
 51
21.79999999999975
  0
LINE
  5
30F5
330
1A
100
AcDbEntity
  8
SEIHIN
 62
     3
 48
5.0
100
AcDbLine
 10
584.2941944140695
 20
275.9362950422628
 30
0.0
 11
585.4084303967311
 21
278.5360023671253
 31
0.0
  0
ARC
  5
30F6
330
1A
100
AcDbEntity
  8
SEIHIN
 62
     3
 48
5.0
100
AcDbCircle
 10
593.7651340286859
 20
295.3412249008399
 30
0.0
 40
0.5
100
AcDbArc
 50
291.799999999999
 51
21.79999999999975
  0
ARC
  5
30F7
330
1A
100
AcDbEntity
  8
SEIHIN
 62
     3
 48
5.0
100
AcDbCircle
 10
593.7651340286859
 20
295.3412249008399
 30
0.0
 40
3.5
100
AcDbArc
 50
291.799999999999
 51
21.79999999999975
  0
ARC
  5
30F8
330
1A
100
AcDbEntity
  8
SEIHIN
 62
     3
 48
5.0
100
AcDbCircle
 10
598.1287392154037
 20
285.7778076363654
 30
0.0
 40
10.0
100
AcDbArc
 50
291.799999999999
 51
21.79999999999975
  0
LINE
  5
30F9
330
1A
100
AcDbEntity
  8
SEIHIN
 62
     3
 48
5.0
100
AcDbLine
 10
533.1357911418252
 20
302.8633775918895
 30
0.0
 11
583.2740257933945
 21
322.917240711602
 31
0.0
  0
DIMENSION
  5
30FA
330
1A
100
AcDbEntity
  8
SUNPOU
 48
5.0
100
AcDbDimension
  2
*D7
 10
574.3215635383372
 20
349.3391151449895
 30
0.0
 11
547.7765727087957
 21
338.7218762990466
 31
0.0
 70
   160
 71
     5
 42
56.99999999999977
  3
STANDARD
100
AcDbAlignedDimension
 13
532.801460732822
 23
299.6601412319535
 33
0.0
 14
585.725152865034
 24
320.8281078583167
 34
0.0
 50
21.79999999999975
100
AcDbRotatedDimension
1001
ACAD
1000
DSTYLE
1002
{
1070
   288
1070
     1
1070
   140
1040
6.0
1070
    74
1070
     0
1070
   172
1070
     1
1070
    73
1070
     0
1070
   272
1070
     2
1070
    77
1070
     3
1070
   173
1070
     1
1070
   147
1040
2.0
1070
    42
1040
6.0
1070
    44
1040
3.0
1070
    43
1040
14.0
1070
   271
1070
     0
1070
   178
1070
     4
1070
   177
1070
     4
1070
   176
1070
     4
1070
   141
1040
150.0
1070
     7
1000
_OPEN
1070
     6
1000
_OPEN
1070
    41
1040
7.0
1002
}
  0
MTEXT
  5
30FB
330
1A
100
AcDbEntity
  8
SUNPOU
 62
     4
 48
5.0
100
AcDbMText
 10
490.5281223601505
 20
326.6562944373
 30
0.0
 40
6.0
 41
0.0
 71
     9
 72
     5
  1
4-φ4.2
 73
     1
 44
1.0
  0
DIMENSION
  5
30FC
330
1A
100
AcDbEntity
  8
SUNPOU
 48
5.0
100
AcDbDimension
  2
*D8
 10
628.4289953167751
 20
324.4994978163444
 30
0.0
 11
630.2304605092202
 21
333.4592535697346
 31
0.0
 70
    32
 71
     5
 42
15.3000000000001
  3
STANDARD
100
AcDbAlignedDimension
 13
583.2740257933945
 23
322.917240711602
 33
0.0
 14
598.0551147807461
 24
312.3508123487163
 34
0.0
 50
111.8000000000005
100
AcDbRotatedDimension
1001
ACAD
1000
DSTYLE
1002
{
1070
   140
1040
6.0
1070
    74
1070
     0
1070
   172
1070
     1
1070
    73
1070
     0
1070
   272
1070
     2
1070
    77
1070
     3
1070
   173
1070
     1
1070
   147
1040
2.0
1070
    42
1040
6.0
1070
    44
1040
3.0
1070
    43
1040
14.0
1070
   271
1070
     0
1070
   178
1070
     4
1070
   177
1070
     4
1070
   176
1070
     4
1070
   141
1040
150.0
1070
     7
1000
_OPEN
1070
     6
1000
_OPEN
1070
    41
1040
7.0
1002
}
  0
LINE
  5
30FD
330
1A
100
AcDbEntity
  8
SEIHIN
 62
     3
 48
5.0
100
AcDbLine
 10
545.2059744152663
 20
302.3059946485374
 30
0.0
 11
574.9175208754556
 21
314.1897653861448
 31
0.0
  0
LINE
  5
30FE
330
1A
100
AcDbEntity
  8
SEIHIN
 62
     3
 48
5.0
100
AcDbLine
 10
545.5773422508165
 20
301.3775088216564
 30
0.0
 11
575.2888887110058
 21
313.2612795592639
 31
0.0
  0
ARC
  5
30FF
330
1A
100
AcDbEntity
  8
SEIHIN
 62
     3
 48
5.0
100
AcDbCircle
 10
545.948710086367
 20
300.4490229947757
 30
0.0
 40
2.0
100
AcDbArc
 50
111.799999999999
 51
201.7999999999997
  0
ARC
  5
3100
330
1A
100
AcDbEntity
  8
SEIHIN
 62
     3
 48
5.0
100
AcDbCircle
 10
545.948710086367
 20
300.4490229947757
 30
0.0
 40
1.0
100
AcDbArc
 50
111.799999999999
 51
201.7999999999997
  0
LINE
  5
3101
330
1A
100
AcDbEntity
  8
CENTER L
 48
5.0
100
AcDbLine
 10
593.4310354527014
 20
301.5620269505378
 30
0.0
 11
585.725152865034
 21
320.8281078583167
 31
0.0
  0
ARC
  5
3102
330
1A
100
AcDbEntity
  8
SEIHIN
 62
     3
 48
5.0
100
AcDbCircle
 10
586.9877041488967
 20
313.6323824427929
 30
0.0
 40
10.0
100
AcDbArc
 50
21.79999999999975
 51
111.799999999999
  0
LINE
  5
3103
330
1A
100
AcDbEntity
  8
CENTER L
 48
5.0
100
AcDbLine
 10
598.0551147807461
 20
312.3508123487163
 30
0.0
 11
582.642250054523
 21
306.1861062785824
 31
0.0
  0
LINE
  5
3104
330
1A
100
AcDbEntity
  8
CENTER L
 48
5.0
100
AcDbLine
 10
595.0191065514167
 20
316.8447142203024
 30
0.0
 11
581.7417592270197
 21
311.5341541719341
 31
0.0
  0
LINE
  5
3105
330
1A
100
AcDbEntity
  8
SEIHIN
 62
     3
 48
5.0
100
AcDbLine
 10
580.8595387202699
 20
304.7191569615552
 30
0.0
 11
577.5172282003179
 21
313.0755294034834
 31
0.0
  0
LINE
  5
3106
330
1A
100
AcDbEntity
  8
SEIHIN
 62
     3
 48
5.0
100
AcDbLine
 10
579.9310528933892
 20
304.347789126005
 30
0.0
 11
576.588742373437
 21
312.7041615679332
 31
0.0
  0
ARC
  5
3107
330
1A
100
AcDbEntity
  8
SEIHIN
 62
     3
 48
5.0
100
AcDbCircle
 10
579.0025670665082
 20
303.9764212904548
 30
0.0
 40
2.0
100
AcDbArc
 50
291.799999999999
 51
21.79999999999975
  0
ARC
  5
3108
330
1A
100
AcDbEntity
  8
SEIHIN
 62
     3
 48
5.0
100
AcDbCircle
 10
579.0025670665082
 20
303.9764212904548
 30
0.0
 40
1.0
100
AcDbArc
 50
291.799999999999
 51
21.79999999999975
  0
ARC
  5
3109
330
1A
100
AcDbEntity
  8
SEIHIN
 62
     3
 48
5.0
100
AcDbCircle
 10
575.660256546556
 20
312.332793732383
 30
0.0
 40
2.0
100
AcDbArc
 50
21.79999999999975
 51
111.799999999999
  0
ARC
  5
310A
330
1A
100
AcDbEntity
  8
SEIHIN
 62
     3
 48
5.0
100
AcDbCircle
 10
575.660256546556
 20
312.332793732383
 30
0.0
 40
1.0
100
AcDbArc
 50
21.79999999999975
 51
111.799999999999
  0
ARC
  5
310B
330
1A
100
AcDbEntity
  8
SEIHIN
 62
     3
 48
5.0
100
AcDbCircle
 10
590.3486824176345
 20
309.2684593136493
 30
0.0
 40
3.3
100
AcDbArc
 50
122.625390506299
 51
100.9746094937002
  0
ARC
  5
310C
330
1A
100
AcDbEntity
  8
SEIHIN
 62
     3
 48
5.0
100
AcDbCircle
 10
592.6510305220352
 20
298.1266823814826
 30
0.0
 40
3.5
100
AcDbArc
 50
21.79999999999975
 51
111.799999999999
  0
ARC
  5
310D
330
1A
100
AcDbEntity
  8
SEIHIN
 62
     3
 48
5.0
100
AcDbCircle
 10
592.6510305220352
 20
298.1266823814826
 30
0.0
 40
0.5
100
AcDbArc
 50
21.79999999999975
 51
111.799999999999
  0
ARC
  5
310E
330
1A
100
AcDbEntity
  8
SEIHIN
 62
     3
 48
5.0
100
AcDbCircle
 10
588.3804328892181
 20
314.1894341961182
 30
0.0
 40
2.15
100
AcDbArc
 50
308.5548086972997
 51
275.0451913028003
  0
VIEWPORT
  5
22
330
17
100
AcDbEntity
 67
     1
  8
0
100
AcDbViewport
 10
313.6808219178083
 20
148.5
 30
0.0
 40
627.3616438356165
 41
297.0
 68
     2
 69
     1
 12
313.6808219178083
 22
148.5
 13
0.0
 23
0.0
 14
1.0
 24
1.0
 15
10.0
 25
10.0
 16
0.0
 26
0.0
 36
1.0
 17
0.0
 27
0.0
 37
0.0
 42
50.0
 43
0.0
 44
0.0
 45
297.0
 50
0.0
 51
0.0
 72
   100
 90
    32768
  1

281
     0
 71
     1
 74
     0
110
0.0
120
0.0
130
0.0
111
1.0
121
0.0
131
0.0
112
0.0
122
1.0
132
0.0
 79
     0
146
0.0
  0
VIEWPORT
  5
64
330
17
100
AcDbEntity
 67
     1
  8
VIEWPORT
100
AcDbViewport
 10
210.0
 20
148.5
 30
0.0
 40
420.0
 41
297.0
 68
     1
 69
     2
 12
420.0
 22
297.0
 13
0.0
 23
0.0
 14
10.0
 24
10.0
 15
0.0
 25
0.0
 16
0.0
 26
0.0
 36
1.0
 17
0.0
 27
0.0
 37
0.0
 42
50.0
 43
0.0
 44
0.0
 45
605.8799999999999
 50
0.0
 51
0.0
 72
   100
 90
    32768
  1

281
     0
 71
     1
 74
     0
110
0.0
120
0.0
130
0.0
111
1.0
121
0.0
131
0.0
112
0.0
122
1.0
132
0.0
 79
     0
146
0.0
  0
ENDSEC
  0
SECTION
  2
OBJECTS
  0
DICTIONARY
  5
C
330
0
100
AcDbDictionary
281
     1
  3
ACAD_GROUP
350
D
  3
ACAD_LAYOUT
350
85F
  3
ACAD_MLINESTYLE
350
E
  3
ACAD_PLOTSETTINGS
350
860
  3
ACAD_PLOTSTYLENAME
350
85D
  0
DICTIONARY
  5
D
102
{ACAD_REACTORS
330
C
102
}
330
C
100
AcDbDictionary
281
     1
  0
DICTIONARY
  5
85F
102
{ACAD_REACTORS
330
C
102
}
330
C
100
AcDbDictionary
281
     1
  3
Model
350
861
  3
ﾚｲｱｳﾄ1
350
862
  0
DICTIONARY
  5
E
102
{ACAD_REACTORS
330
C
102
}
330
C
100
AcDbDictionary
281
     1
  3
STANDARD
350
13
  0
DICTIONARY
  5
860
102
{ACAD_REACTORS
330
C
102
}
330
C
100
AcDbDictionary
281
     1
  0
ACDBDICTIONARYWDFLT
  5
85D
102
{ACAD_REACTORS
330
C
102
}
330
C
100
AcDbDictionary
281
     1
  3
Normal
350
85E
100
AcDbDictionaryWithDefault
340
85E
1001
ACAD
1000
TREAT_AS_HARD
1070
     0
1000
TREAT_AS_HARD
1070
     0
1000
TREAT_AS_HARD
1070
     0
1000
TREAT_AS_HARD
1070
     0
1000
TREAT_AS_HARD
1070
     0
  0
LAYOUT
  5
861
102
{ACAD_REACTORS
330
85F
102
}
330
85F
100
AcDbPlotSettings
  1

  2
Acrobat Distiller
  4
A3
  6

 40
3.174999952316284
 41
3.174999952316284
 42
3.17498779296875
 43
3.17498779296875
 44
297.0318298339844
 45
420.1583251953125
 46
0.0
 47
0.0
 48
0.0
 49
0.0
140
0.0
141
0.0
142
1.0
143
2.0
 70
 28336
 72
     1
 73
     1
 74
     2
  7
print.ctb
 75
    17
147
0.5
148
0.0
149
0.0
100
AcDbLayout
  1
Model
 70
     1
 71
     0
 10
0.0
 20
0.0
 11
12.0
 21
9.0
 12
0.0
 22
0.0
 32
0.0
 14
0.0
 24
0.0
 34
0.0
 15
0.0
 25
0.0
 35
0.0
146
0.0
 13
0.0
 23
0.0
 33
0.0
 16
1.0
 26
0.0
 36
0.0
 17
0.0
 27
1.0
 37
0.0
 76
     0
330
1A
  0
LAYOUT
  5
862
102
{ACAD_REACTORS
330
85F
102
}
330
85F
100
AcDbPlotSettings
  1

  2
C:\PROGRAM FILES\ACAD LT 2000\plotters\DWF ePlot.pc3
  4

  6

 40
0.0
 41
0.0
 42
0.0
 43
0.0
 44
0.0
 45
0.0
 46
0.0
 47
0.0
 48
0.0
 49
0.0
140
0.0
141
0.0
142
1.0
143
1.0
 70
   688
 72
     0
 73
     0
 74
     5
  7
print.ctb
 75
    16
147
1.0
148
0.0
149
0.0
100
AcDbLayout
  1
ﾚｲｱｳﾄ1
 70
     1
 71
     1
 10
0.0
 20
0.0
 11
420.0
 21
297.0
 12
0.0
 22
0.0
 32
0.0
 14
0.0
 24
0.0
 34
0.0
 15
420.0
 25
297.0
 35
0.0
146
0.0
 13
0.0
 23
0.0
 33
0.0
 16
1.0
 26
0.0
 36
0.0
 17
0.0
 27
1.0
 37
0.0
 76
     0
330
17
331
64
  0
MLINESTYLE
  5
13
102
{ACAD_REACTORS
330
E
102
}
330
E
100
AcDbMlineStyle
  2
STANDARD
 70
     0
  3

 62
     0
 51
90.0
 52
90.0
 71
     2
 49
0.5
 62
   256
  6
BYLAYER
 49
-0.5
 62
   256
  6
BYLAYER
  0
ACDBPLACEHOLDER
  5
85E
102
{ACAD_REACTORS
330
85D
102
}
330
85D
  0
ENDSEC
  0
EOF
