  0
SECTION
  2
HEADER
  9
$ACADVER
  1
AC1015
  9
$ACADMAINTVER
 70
     6
  9
$DWGCODEPAGE
  3
ANSI_932
  9
$INSBASE
 10
0.0
 20
0.0
 30
0.0
  9
$EXTMIN
 10
-0.0000004333560355
 20
0.0000006402971167
 30
0.0
  9
$EXTMAX
 10
797.5999995666439
 20
551.6000006402971
 30
0.0
  9
$LIMMIN
 10
0.0
 20
0.0
  9
$LIMMAX
 10
840.0
 20
594.0
  9
$ORTHOMODE
 70
     1
  9
$REGENMODE
 70
     1
  9
$FILLMODE
 70
     1
  9
$QTEXTMODE
 70
     0
  9
$MIRRTEXT
 70
     1
  9
$LTSCALE
 40
2.0
  9
$ATTMODE
 70
     1
  9
$TEXTSIZE
 40
5.0
  9
$TRACEWID
 40
1.0
  9
$TEXTSTYLE
  7
STANDARD
  9
$CLAYER
  8
SEIHIN
  9
$CELTYPE
  6
BYLAYER
  9
$CECOLOR
 62
   256
  9
$CELTSCALE
 40
1.0
  9
$DISPSILH
 70
     0
  9
$DIMSCALE
 40
1.0
  9
$DIMASZ
 40
7.0
  9
$DIMEXO
 40
6.0
  9
$DIMDLI
 40
14.0
  9
$DIMRND
 40
0.0
  9
$DIMDLE
 40
0.0
  9
$DIMEXE
 40
3.0
  9
$DIMTP
 40
0.0
  9
$DIMTM
 40
0.0
  9
$DIMTXT
 40
6.0
  9
$DIMCEN
 40
150.0
  9
$DIMTSZ
 40
0.0
  9
$DIMTOL
 70
     0
  9
$DIMLIM
 70
     0
  9
$DIMTIH
 70
     0
  9
$DIMTOH
 70
     0
  9
$DIMSE1
 70
     0
  9
$DIMSE2
 70
     0
  9
$DIMTAD
 70
     3
  9
$DIMZIN
 70
     0
  9
$DIMBLK
  1

  9
$DIMASO
 70
     1
  9
$DIMSHO
 70
     1
  9
$DIMPOST
  1

  9
$DIMAPOST
  1

  9
$DIMALT
 70
     0
  9
$DIMALTD
 70
     2
  9
$DIMALTF
 40
25.4
  9
$DIMLFAC
 40
1.0
  9
$DIMTOFL
 70
     1
  9
$DIMTVP
 40
0.0
  9
$DIMTIX
 70
     0
  9
$DIMSOXD
 70
     0
  9
$DIMSAH
 70
     1
  9
$DIMBLK1
  1
OPEN
  9
$DIMBLK2
  1
OPEN
  9
$DIMSTYLE
  2
STANDARD
  9
$DIMCLRD
 70
   256
  9
$DIMCLRE
 70
   256
  9
$DIMCLRT
 70
   256
  9
$DIMTFAC
 40
1.0
  9
$DIMGAP
 40
2.0
  9
$DIMJUST
 70
     0
  9
$DIMSD1
 70
     0
  9
$DIMSD2
 70
     0
  9
$DIMTOLJ
 70
     1
  9
$DIMTZIN
 70
     0
  9
$DIMALTZ
 70
     0
  9
$DIMALTTZ
 70
     0
  9
$DIMUPT
 70
     0
  9
$DIMDEC
 70
     0
  9
$DIMTDEC
 70
     0
  9
$DIMALTU
 70
     2
  9
$DIMALTTD
 70
     2
  9
$DIMTXSTY
  7
STANDARD
  9
$DIMAUNIT
 70
     0
  9
$DIMADEC
 70
     0
  9
$DIMALTRND
 40
0.0
  9
$DIMAZIN
 70
     0
  9
$DIMDSEP
 70
    46
  9
$DIMATFIT
 70
     3
  9
$DIMFRAC
 70
     0
  9
$DIMLDRBLK
  1
OPEN
  9
$DIMLUNIT
 70
     2
  9
$DIMLWD
 70
    -1
  9
$DIMLWE
 70
    -1
  9
$DIMTMOVE
 70
     0
  9
$LUNITS
 70
     2
  9
$LUPREC
 70
     4
  9
$SKETCHINC
 40
1.0
  9
$FILLETRAD
 40
20.0
  9
$AUNITS
 70
     0
  9
$AUPREC
 70
     0
  9
$MENU
  1
.
  9
$ELEVATION
 40
0.0
  9
$PELEVATION
 40
0.0
  9
$THICKNESS
 40
0.0
  9
$LIMCHECK
 70
     0
  9
$CHAMFERA
 40
20.0
  9
$CHAMFERB
 40
20.0
  9
$CHAMFERC
 40
40.0
  9
$CHAMFERD
 40
0.0
  9
$SKPOLY
 70
     0
  9
$TDCREATE
 40
2451029.942521991
  9
$TDUCREATE
 40
2451029.567521991
  9
$TDUPDATE
 40
2455609.409436458
  9
$TDUUPDATE
 40
2455609.034436458
  9
$TDINDWG
 40
0.1192456134
  9
$TDUSRTIMER
 40
0.1192456134
  9
$USRTIMER
 70
     1
  9
$ANGBASE
 50
0.0
  9
$ANGDIR
 70
     0
  9
$PDMODE
 70
     0
  9
$PDSIZE
 40
0.0
  9
$PLINEWID
 40
0.0
  9
$SPLFRAME
 70
     0
  9
$SPLINETYPE
 70
     6
  9
$SPLINESEGS
 70
     8
  9
$HANDSEED
  5
37F2
  9
$SURFTAB1
 70
     6
  9
$SURFTAB2
 70
     6
  9
$SURFTYPE
 70
     6
  9
$SURFU
 70
     6
  9
$SURFV
 70
     6
  9
$UCSBASE
  2

  9
$UCSNAME
  2

  9
$UCSORG
 10
0.0
 20
0.0
 30
0.0
  9
$UCSXDIR
 10
1.0
 20
0.0
 30
0.0
  9
$UCSYDIR
 10
0.0
 20
1.0
 30
0.0
  9
$UCSORTHOREF
  2

  9
$UCSORTHOVIEW
 70
     0
  9
$UCSORGTOP
 10
0.0
 20
0.0
 30
0.0
  9
$UCSORGBOTTOM
 10
0.0
 20
0.0
 30
0.0
  9
$UCSORGLEFT
 10
0.0
 20
0.0
 30
0.0
  9
$UCSORGRIGHT
 10
0.0
 20
0.0
 30
0.0
  9
$UCSORGFRONT
 10
0.0
 20
0.0
 30
0.0
  9
$UCSORGBACK
 10
0.0
 20
0.0
 30
0.0
  9
$PUCSBASE
  2

  9
$PUCSNAME
  2

  9
$PUCSORG
 10
0.0
 20
0.0
 30
0.0
  9
$PUCSXDIR
 10
1.0
 20
0.0
 30
0.0
  9
$PUCSYDIR
 10
0.0
 20
1.0
 30
0.0
  9
$PUCSORTHOREF
  2

  9
$PUCSORTHOVIEW
 70
     0
  9
$PUCSORGTOP
 10
0.0
 20
0.0
 30
0.0
  9
$PUCSORGBOTTOM
 10
0.0
 20
0.0
 30
0.0
  9
$PUCSORGLEFT
 10
0.0
 20
0.0
 30
0.0
  9
$PUCSORGRIGHT
 10
0.0
 20
0.0
 30
0.0
  9
$PUCSORGFRONT
 10
0.0
 20
0.0
 30
0.0
  9
$PUCSORGBACK
 10
0.0
 20
0.0
 30
0.0
  9
$USERI1
 70
     0
  9
$USERI2
 70
     0
  9
$USERI3
 70
     0
  9
$USERI4
 70
     0
  9
$USERI5
 70
     0
  9
$USERR1
 40
0.0
  9
$USERR2
 40
0.0
  9
$USERR3
 40
0.0
  9
$USERR4
 40
0.0
  9
$USERR5
 40
0.0
  9
$WORLDVIEW
 70
     1
  9
$SHADEDGE
 70
     3
  9
$SHADEDIF
 70
    70
  9
$TILEMODE
 70
     1
  9
$MAXACTVP
 70
    16
  9
$PINSBASE
 10
0.0
 20
0.0
 30
0.0
  9
$PLIMCHECK
 70
     0
  9
$PEXTMIN
 10
0.0
 20
0.0
 30
0.0
  9
$PEXTMAX
 10
420.0
 20
297.0
 30
0.0
  9
$PLIMMIN
 10
0.0
 20
0.0
  9
$PLIMMAX
 10
420.0
 20
297.0
  9
$UNITMODE
 70
     0
  9
$VISRETAIN
 70
     0
  9
$PLINEGEN
 70
     0
  9
$PSLTSCALE
 70
     1
  9
$TREEDEPTH
 70
  3020
  9
$CMLSTYLE
  2
STANDARD
  9
$CMLJUST
 70
     0
  9
$CMLSCALE
 40
1.0
  9
$PROXYGRAPHICS
 70
     1
  9
$MEASUREMENT
 70
     1
  9
$CELWEIGHT
370
    -1
  9
$ENDCAPS
280
     0
  9
$JOINSTYLE
280
     0
  9
$LWDISPLAY
290
     0
  9
$INSUNITS
 70
     0
  9
$HYPERLINKBASE
  1

  9
$STYLESHEET
  1
systemprinter.ctb
  9
$XEDIT
290
     1
  9
$CEPSNTYPE
380
     0
  9
$PSTYLEMODE
290
     1
  9
$FINGERPRINTGUID
  2
{FF3C30AF-89FB-45B1-9067-596B98B489D4}
  9
$VERSIONGUID
  2
{88DE8A7F-9FC4-427E-B9EB-3FE904B905F9}
  9
$EXTNAMES
290
     1
  9
$PSVPSCALE
 40
0.0
  9
$OLESTARTUP
290
     0
  0
ENDSEC
  0
SECTION
  2
CLASSES
  0
CLASS
  1
ACDBDICTIONARYWDFLT
  2
AcDbDictionaryWithDefault
  3
ObjectDBX Classes
 90
        0
280
     0
281
     0
  0
CLASS
  1
ACDBPLACEHOLDER
  2
AcDbPlaceHolder
  3
ObjectDBX Classes
 90
        0
280
     0
281
     0
  0
CLASS
  1
LAYOUT
  2
AcDbLayout
  3
ObjectDBX Classes
 90
        0
280
     0
281
     0
  0
CLASS
  1
DUMMY
  2
AcDbLongTransaction
  3
DUMMY
 90
        0
280
     0
281
     0
  0
CLASS
  1
LWPOLYLINE
  2
AcDbPolyline
  3
AutoCAD 2000
 90
        0
280
     0
281
     1
  0
CLASS
  1
HATCH
  2
AcDbHatch
  3
AutoCAD 2000
 90
        0
280
     0
281
     1
  0
CLASS
  1
XRECORD
  2
AcDbXrecord
  3
AutoCAD 2000
 90
        0
280
     0
281
     0
  0
CLASS
  1
DUMMY
  2
AcDbLongTransaction
  3
DUMMY
 90
        0
280
     0
281
     0
  0
CLASS
  1
LWPOLYLINE
  2
AcDbPolyline
  3
AutoCAD 2000
 90
        0
280
     0
281
     1
  0
CLASS
  1
HATCH
  2
AcDbHatch
  3
AutoCAD 2000
 90
        0
280
     0
281
     1
  0
CLASS
  1
XRECORD
  2
AcDbXrecord
  3
AutoCAD 2000
 90
        0
280
     0
281
     0
  0
CLASS
  1
DUMMY
  2
AcDbLongTransaction
  3
DUMMY
 90
        0
280
     0
281
     0
  0
CLASS
  1
LWPOLYLINE
  2
AcDbPolyline
  3
AutoCAD 2000
 90
        0
280
     0
281
     1
  0
CLASS
  1
HATCH
  2
AcDbHatch
  3
AutoCAD 2000
 90
        0
280
     0
281
     1
  0
CLASS
  1
XRECORD
  2
AcDbXrecord
  3
AutoCAD 2000
 90
        0
280
     0
281
     0
  0
CLASS
  1
DUMMY
  2
AcDbLongTransaction
  3
DUMMY
 90
        0
280
     0
281
     0
  0
CLASS
  1
LWPOLYLINE
  2
AcDbPolyline
  3
AutoCAD 2000
 90
        0
280
     0
281
     1
  0
CLASS
  1
HATCH
  2
AcDbHatch
  3
AutoCAD 2000
 90
        0
280
     0
281
     1
  0
CLASS
  1
XRECORD
  2
AcDbXrecord
  3
AutoCAD 2000
 90
        0
280
     0
281
     0
  0
CLASS
  1
DUMMY
  2
AcDbLongTransaction
  3
DUMMY
 90
        0
280
     0
281
     0
  0
CLASS
  1
LWPOLYLINE
  2
AcDbPolyline
  3
AutoCAD 2000
 90
        0
280
     0
281
     1
  0
CLASS
  1
HATCH
  2
AcDbHatch
  3
AutoCAD 2000
 90
        0
280
     0
281
     1
  0
CLASS
  1
XRECORD
  2
AcDbXrecord
  3
AutoCAD 2000
 90
        0
280
     0
281
     0
  0
CLASS
  1
DUMMY
  2
AcDbLongTransaction
  3
DUMMY
 90
        0
280
     0
281
     0
  0
CLASS
  1
LWPOLYLINE
  2
AcDbPolyline
  3
AutoCAD 2000
 90
        0
280
     0
281
     1
  0
CLASS
  1
HATCH
  2
AcDbHatch
  3
AutoCAD 2000
 90
        0
280
     0
281
     1
  0
CLASS
  1
XRECORD
  2
AcDbXrecord
  3
AutoCAD 2000
 90
        0
280
     0
281
     0
  0
ENDSEC
  0
SECTION
  2
TABLES
  0
TABLE
  2
VPORT
  5
8
330
0
100
AcDbSymbolTable
 70
     2
  0
VPORT
  5
37F1
330
8
100
AcDbSymbolTableRecord
100
AcDbViewportTableRecord
  2
*Active
 70
     0
 10
0.0
 20
0.0
 11
1.0
 21
1.0
 12
407.7820726536924
 22
300.9044655723469
 13
0.0
 23
0.0
 14
5.0
 24
5.0
 15
0.0
 25
0.0
 16
0.0
 26
0.0
 36
1.0
 17
0.0
 27
0.0
 37
0.0
 40
637.8434247598725
 41
1.651537335285505
 42
50.0
 43
0.0
 44
0.0
 50
0.0
 51
0.0
 71
     0
 72
   100
 73
     1
 74
     0
 75
     0
 76
     0
 77
     0
 78
     0
281
     0
 65
     1
110
0.0
120
0.0
130
0.0
111
1.0
121
0.0
131
0.0
112
0.0
122
1.0
132
0.0
 79
     0
146
0.0
  0
ENDTAB
  0
TABLE
  2
LTYPE
  5
5
330
0
100
AcDbSymbolTable
 70
     3
  0
LTYPE
  5
14
330
5
100
AcDbSymbolTableRecord
100
AcDbLinetypeTableRecord
  2
BYBLOCK
 70
     0
  3

 72
    65
 73
     0
 40
0.0
  0
LTYPE
  5
15
330
5
100
AcDbSymbolTableRecord
100
AcDbLinetypeTableRecord
  2
BYLAYER
 70
     0
  3

 72
    65
 73
     0
 40
0.0
  0
LTYPE
  5
16
330
5
100
AcDbSymbolTableRecord
100
AcDbLinetypeTableRecord
  2
CONTINUOUS
 70
     0
  3
Solid line
 72
    65
 73
     0
 40
0.0
  0
LTYPE
  5
135
330
5
100
AcDbSymbolTableRecord
100
AcDbLinetypeTableRecord
  2
CENTER
 70
     0
  3
____ _ ____ _ ____ _ ____ _ ____ _ ____ _ ____ 
 72
    65
 73
     4
 40
2.0
 49
1.25
 74
     0
 49
-0.25
 74
     0
 49
0.25
 74
     0
 49
-0.25
 74
     0
  0
LTYPE
  5
2935
330
5
100
AcDbSymbolTableRecord
100
AcDbLinetypeTableRecord
  2
PHANTOM
 70
     0
  3
______  __  __  ______  __  __  ______  __  __ 
 72
    65
 73
     6
 40
2.5
 49
1.25
 74
     0
 49
-0.25
 74
     0
 49
0.25
 74
     0
 49
-0.25
 74
     0
 49
0.25
 74
     0
 49
-0.25
 74
     0
  0
ENDTAB
  0
TABLE
  2
LAYER
  5
2
330
0
100
AcDbSymbolTable
 70
     8
  0
LAYER
  5
F
330
2
100
AcDbSymbolTableRecord
100
AcDbLayerTableRecord
  2
0
 70
     0
 62
     7
  6
CONTINUOUS
370
    -3
390
85E
  0
LAYER
  5
62
330
2
100
AcDbSymbolTableRecord
100
AcDbLayerTableRecord
  2
VIEWPORT
 70
     0
 62
     7
  6
CONTINUOUS
370
    -3
390
85E
  0
LAYER
  5
65
330
2
100
AcDbSymbolTableRecord
100
AcDbLayerTableRecord
  2
ZUWAKU
 70
     0
 62
     7
  6
CONTINUOUS
370
    -3
390
85E
  0
LAYER
  5
145
330
2
100
AcDbSymbolTableRecord
100
AcDbLayerTableRecord
  2
SEIHIN
 70
     0
 62
     3
  6
CONTINUOUS
370
    -3
390
85E
  0
LAYER
  5
146
330
2
100
AcDbSymbolTableRecord
100
AcDbLayerTableRecord
  2
SUNPOU
 70
     0
 62
     4
  6
CONTINUOUS
370
    -3
390
85E
  0
LAYER
  5
147
330
2
100
AcDbSymbolTableRecord
100
AcDbLayerTableRecord
  2
CENTER_L
 70
     0
 62
     1
  6
CENTER
370
    -3
390
85E
  0
LAYER
  5
381
330
2
100
AcDbSymbolTableRecord
100
AcDbLayerTableRecord
  2
DEFPOINTS
 70
     0
 62
     7
  6
CONTINUOUS
290
     0
370
    -3
390
85E
  0
LAYER
  5
154D
330
2
100
AcDbSymbolTableRecord
100
AcDbLayerTableRecord
  2
MOJI
 70
     0
 62
     2
  6
CONTINUOUS
370
    -3
390
85E
  0
ENDTAB
  0
TABLE
  2
STYLE
  5
3
330
0
100
AcDbSymbolTable
 70
     2
  0
STYLE
  5
10
330
3
100
AcDbSymbolTableRecord
100
AcDbTextStyleTableRecord
  2
STANDARD
 70
     0
 40
0.0
 41
1.0
 50
0.0
 71
     0
 42
5.0
  3
TXT
  4
bigfont.shx
  0
STYLE
  5
154E
330
3
100
AcDbSymbolTableRecord
100
AcDbTextStyleTableRecord
  2
ｽﾀｲﾙ1
 70
     0
 40
0.0
 41
1.0
 50
0.0
 71
     0
 42
2.5
  3
MS PGothic.ttf
  4

1001
ACAD
1000
MS PGothic
1071
    32818
  0
ENDTAB
  0
TABLE
  2
VIEW
  5
6
330
0
100
AcDbSymbolTable
 70
     0
  0
ENDTAB
  0
TABLE
  2
UCS
  5
7
330
0
100
AcDbSymbolTable
 70
     0
  0
ENDTAB
  0
TABLE
  2
APPID
  5
9
330
0
100
AcDbSymbolTable
 70
     1
  0
APPID
  5
11
330
9
100
AcDbSymbolTableRecord
100
AcDbRegAppTableRecord
  2
ACAD
 70
     0
  0
ENDTAB
  0
TABLE
  2
DIMSTYLE
  5
A
330
0
100
AcDbSymbolTable
 70
     1
100
AcDbDimStyleTable
  0
DIMSTYLE
105
1D
102
{ACAD_REACTORS
330
34D7
330
34DC
330
34DD
330
34ED
330
34EE
330
34EF
330
3540
330
3545
330
358A
330
359F
330
35EC
330
35F0
330
35F6
330
35FB
330
35FC
330
35FF
330
363D
102
}
330
A
100
AcDbSymbolTableRecord
100
AcDbDimStyleTableRecord
  2
STANDARD
 70
     0
340
10
  0
ENDTAB
  0
TABLE
  2
BLOCK_RECORD
  5
1
330
0
100
AcDbSymbolTable
 70
    18
  0
BLOCK_RECORD
  5
1A
330
1
100
AcDbSymbolTableRecord
100
AcDbBlockTableRecord
  2
*MODEL_SPACE
340
37EE
  0
BLOCK_RECORD
  5
17
330
1
100
AcDbSymbolTableRecord
100
AcDbBlockTableRecord
  2
*PAPER_SPACE
340
37EF
  0
BLOCK_RECORD
  5
6D
330
1
100
AcDbSymbolTableRecord
100
AcDbBlockTableRecord
  2
_OPEN
340
0
102
{BLKREFS
331
371E
331
371F
331
3727
331
3728
331
3730
331
3731
331
3739
331
373A
331
3742
331
3743
331
374B
331
374C
331
3756
331
3757
331
375F
331
3760
331
3768
331
3769
331
3771
331
3772
331
377A
331
377B
331
3783
331
3784
331
378C
331
378D
331
3795
331
3796
331
37A0
331
37A1
331
37AB
331
37AC
331
37B6
331
37B7
102
}
  0
BLOCK_RECORD
  5
3643
330
1
100
AcDbSymbolTableRecord
100
AcDbBlockTableRecord
  2
*D1
340
0
  0
BLOCK_RECORD
  5
3651
330
1
100
AcDbSymbolTableRecord
100
AcDbBlockTableRecord
  2
*D2
340
0
  0
BLOCK_RECORD
  5
365D
330
1
100
AcDbSymbolTableRecord
100
AcDbBlockTableRecord
  2
*D3
340
0
  0
BLOCK_RECORD
  5
3669
330
1
100
AcDbSymbolTableRecord
100
AcDbBlockTableRecord
  2
*D4
340
0
  0
BLOCK_RECORD
  5
3675
330
1
100
AcDbSymbolTableRecord
100
AcDbBlockTableRecord
  2
*D5
340
0
  0
BLOCK_RECORD
  5
3681
330
1
100
AcDbSymbolTableRecord
100
AcDbBlockTableRecord
  2
*D6
340
0
  0
BLOCK_RECORD
  5
368D
330
1
100
AcDbSymbolTableRecord
100
AcDbBlockTableRecord
  2
*D7
340
0
  0
BLOCK_RECORD
  5
369B
330
1
100
AcDbSymbolTableRecord
100
AcDbBlockTableRecord
  2
*D8
340
0
  0
BLOCK_RECORD
  5
36A7
330
1
100
AcDbSymbolTableRecord
100
AcDbBlockTableRecord
  2
*D9
340
0
  0
BLOCK_RECORD
  5
36B3
330
1
100
AcDbSymbolTableRecord
100
AcDbBlockTableRecord
  2
*D10
340
0
  0
BLOCK_RECORD
  5
36BF
330
1
100
AcDbSymbolTableRecord
100
AcDbBlockTableRecord
  2
*D11
340
0
  0
BLOCK_RECORD
  5
36CB
330
1
100
AcDbSymbolTableRecord
100
AcDbBlockTableRecord
  2
*D12
340
0
  0
BLOCK_RECORD
  5
36D7
330
1
100
AcDbSymbolTableRecord
100
AcDbBlockTableRecord
  2
*D13
340
0
  0
BLOCK_RECORD
  5
36E3
330
1
100
AcDbSymbolTableRecord
100
AcDbBlockTableRecord
  2
*D14
340
0
  0
BLOCK_RECORD
  5
36EF
330
1
100
AcDbSymbolTableRecord
100
AcDbBlockTableRecord
  2
*D15
340
0
  0
BLOCK_RECORD
  5
36FD
330
1
100
AcDbSymbolTableRecord
100
AcDbBlockTableRecord
  2
*D16
340
0
  0
BLOCK_RECORD
  5
370B
330
1
100
AcDbSymbolTableRecord
100
AcDbBlockTableRecord
  2
*D17
340
0
  0
ENDTAB
  0
ENDSEC
  0
SECTION
  2
BLOCKS
  0
BLOCK
  5
1B
330
1A
100
AcDbEntity
  8
0
100
AcDbBlockBegin
  2
*MODEL_SPACE
 70
     0
 71
     0
 10
0.0
 20
0.0
 30
0.0
  3
*MODEL_SPACE
  1

  0
ENDBLK
  5
1C
330
1A
100
AcDbEntity
  8
0
100
AcDbBlockEnd
  0
BLOCK
  5
18
330
17
100
AcDbEntity
 67
     1
  8
0
100
AcDbBlockBegin
  2
*PAPER_SPACE
 70
     0
 71
     0
 10
0.0
 20
0.0
 30
0.0
  3
*PAPER_SPACE
  1

  0
ENDBLK
  5
19
330
17
100
AcDbEntity
 67
     1
  8
0
100
AcDbBlockEnd
  0
BLOCK
  5
6E
330
6D
100
AcDbEntity
  8
0
100
AcDbBlockBegin
  2
_OPEN
 70
     0
 71
     0
 10
0.0
 20
0.0
 30
0.0
  3
_OPEN
  1

  0
LINE
  5
6F
330
6D
100
AcDbEntity
  8
0
  6
ByBlock
 62
     0
100
AcDbLine
 10
-1.0
 20
0.1666666666666666
 30
0.0
 11
0.0
 21
0.0
 31
0.0
  0
LINE
  5
70
330
6D
100
AcDbEntity
  8
0
  6
ByBlock
 62
     0
100
AcDbLine
 10
0.0
 20
0.0
 30
0.0
 11
-1.0
 21
-0.1666666666666666
 31
0.0
  0
LINE
  5
71
330
6D
100
AcDbEntity
  8
0
  6
ByBlock
 62
     0
100
AcDbLine
 10
0.0
 20
0.0
 30
0.0
 11
-1.0
 21
0.0
 31
0.0
  0
ENDBLK
  5
72
330
6D
100
AcDbEntity
  8
0
100
AcDbBlockEnd
  0
BLOCK
  5
364F
330
3643
100
AcDbEntity
  8
0
100
AcDbBlockBegin
  2
*D1
 70
     1
 71
     0
 10
0.0
 20
0.0
 30
0.0
  3
*D1
  1

  0
LINE
  5
3719
330
3643
100
AcDbEntity
  8
SUNPOU
 62
     4
100
AcDbLine
 10
386.9280926475981
 20
176.3553197239206
 30
0.0
 11
398.4933746950174
 21
153.2599851481052
 31
0.0
  0
LINE
  5
371A
330
3643
100
AcDbEntity
  8
SUNPOU
 62
     4
100
AcDbLine
 10
379.7748587528793
 20
172.7732470212278
 30
0.0
 11
391.3401408002986
 21
149.6779124454125
 31
0.0
  0
LINE
  5
371B
330
3643
100
AcDbEntity
  8
SUNPOU
 62
     4
100
AcDbLine
 10
403.4091770893894
 20
159.076761473484
 30
0.0
 11
409.6682567472716
 21
162.2110750883418
 31
0.0
  0
LINE
  5
371C
330
3643
100
AcDbEntity
  8
SUNPOU
 62
     4
100
AcDbLine
 10
383.7377838789058
 20
149.2260615410757
 30
0.0
 11
358.7014652473764
 21
136.6888070816444
 31
0.0
  0
LINE
  5
371D
330
3643
100
AcDbEntity
  8
SUNPOU
 62
     4
100
AcDbLine
 10
397.1500974315071
 20
155.9424478586262
 30
0.0
 11
389.9968635367882
 21
152.3603751559335
 31
0.0
  0
INSERT
  5
371E
330
3643
100
AcDbEntity
  8
SUNPOU
 62
     4
100
AcDbBlockReference
  2
_OPEN
 10
397.1500974315071
 20
155.9424478586262
 30
0.0
 41
7.0
 42
7.0
 43
7.0
 50
206.5999999998757
  0
INSERT
  5
371F
330
3643
100
AcDbEntity
  8
SUNPOU
 62
     4
100
AcDbBlockReference
  2
_OPEN
 10
389.9968635367882
 20
152.3603751559335
 30
0.0
 41
7.0
 42
7.0
 43
7.0
 50
26.59999999987575
  0
MTEXT
  5
3720
330
3643
100
AcDbEntity
  8
SUNPOU
 62
     4
100
AcDbMText
 10
365.8512892950157
 20
145.8610486881328
 30
0.0
 40
6.0
 41
0.0
 71
     5
 72
     1
  1
\A1;t8.0
 11
0.8941542368403391
 21
0.4477590878368308
 31
0.0
 73
     1
 44
1.0
  0
POINT
  5
3721
330
3643
100
AcDbEntity
  8
DEFPOINTS
 62
     0
100
AcDbPoint
 10
384.2415381205771
 20
181.7202451449626
 30
0.0
  0
POINT
  5
3722
330
3643
100
AcDbEntity
  8
DEFPOINTS
 62
     0
100
AcDbPoint
 10
377.0883042258584
 20
178.1381724422699
 30
0.0
  0
POINT
  5
3723
330
3643
100
AcDbEntity
  8
DEFPOINTS
 62
     0
100
AcDbPoint
 10
389.9968635367882
 20
152.3603751559335
 30
0.0
  0
ENDBLK
  5
3650
330
3643
100
AcDbEntity
  8
0
100
AcDbBlockEnd
  0
BLOCK
  5
365B
330
3651
100
AcDbEntity
  8
0
100
AcDbBlockBegin
  2
*D2
 70
     1
 71
     0
 10
0.0
 20
0.0
 30
0.0
  3
*D2
  1

  0
LINE
  5
3724
330
3651
100
AcDbEntity
  8
SUNPOU
 62
     4
100
AcDbLine
 10
358.5953594810772
 20
401.3416228232811
 30
0.0
 11
418.2320295463387
 21
401.341622823281
 31
0.0
  0
LINE
  5
3725
330
3651
100
AcDbEntity
  8
SUNPOU
 62
     4
100
AcDbLine
 10
359.4886583076772
 20
368.3416228232811
 30
0.0
 11
418.2320295463387
 21
368.341622823281
 31
0.0
  0
LINE
  5
3726
330
3651
100
AcDbEntity
  8
SUNPOU
 62
     4
100
AcDbLine
 10
415.2320295463387
 20
394.341622823281
 30
0.0
 11
415.2320295463387
 21
375.341622823281
 31
0.0
  0
INSERT
  5
3727
330
3651
100
AcDbEntity
  8
SUNPOU
 62
     4
100
AcDbBlockReference
  2
_OPEN
 10
415.2320295463387
 20
401.341622823281
 30
0.0
 41
7.0
 42
7.0
 43
7.0
 50
90.0
  0
INSERT
  5
3728
330
3651
100
AcDbEntity
  8
SUNPOU
 62
     4
100
AcDbBlockReference
  2
_OPEN
 10
415.2320295463387
 20
368.341622823281
 30
0.0
 41
7.0
 42
7.0
 43
7.0
 50
270.0
  0
MTEXT
  5
3729
330
3651
100
AcDbEntity
  8
SUNPOU
 62
     4
100
AcDbMText
 10
410.2320295463385
 20
384.8416228232811
 30
0.0
 40
6.0
 41
0.0
 71
     5
 72
     1
  1
\A1;33
 11
1.000000000000000E-16
 21
1.0
 31
0.0
 73
     1
 44
1.0
  0
POINT
  5
372A
330
3651
100
AcDbEntity
  8
DEFPOINTS
 62
     0
100
AcDbPoint
 10
352.5953594810772
 20
401.3416228232811
 30
0.0
  0
POINT
  5
372B
330
3651
100
AcDbEntity
  8
DEFPOINTS
 62
     0
100
AcDbPoint
 10
353.4886583076772
 20
368.3416228232811
 30
0.0
  0
POINT
  5
372C
330
3651
100
AcDbEntity
  8
DEFPOINTS
 62
     0
100
AcDbPoint
 10
415.2320295463387
 20
368.341622823281
 30
0.0
  0
ENDBLK
  5
365C
330
3651
100
AcDbEntity
  8
0
100
AcDbBlockEnd
  0
BLOCK
  5
3667
330
365D
100
AcDbEntity
  8
0
100
AcDbBlockBegin
  2
*D3
 70
     1
 71
     0
 10
0.0
 20
0.0
 30
0.0
  3
*D3
  1

  0
LINE
  5
372D
330
365D
100
AcDbEntity
  8
SUNPOU
 62
     4
100
AcDbLine
 10
385.7639472421981
 20
421.841622823281
 30
0.0
 11
434.273745792811
 21
421.841622823281
 31
0.0
  0
LINE
  5
372E
330
365D
100
AcDbEntity
  8
SUNPOU
 62
     4
100
AcDbLine
 10
385.7639472421981
 20
347.841622823281
 30
0.0
 11
434.273745792811
 21
347.841622823281
 31
0.0
  0
LINE
  5
372F
330
365D
100
AcDbEntity
  8
SUNPOU
 62
     4
100
AcDbLine
 10
431.273745792811
 20
414.841622823281
 30
0.0
 11
431.2737457928109
 21
354.841622823281
 31
0.0
  0
INSERT
  5
3730
330
365D
100
AcDbEntity
  8
SUNPOU
 62
     4
100
AcDbBlockReference
  2
_OPEN
 10
431.273745792811
 20
421.841622823281
 30
0.0
 41
7.0
 42
7.0
 43
7.0
 50
90.0
  0
INSERT
  5
3731
330
365D
100
AcDbEntity
  8
SUNPOU
 62
     4
100
AcDbBlockReference
  2
_OPEN
 10
431.2737457928109
 20
347.841622823281
 30
0.0
 41
7.0
 42
7.0
 43
7.0
 50
270.0
  0
MTEXT
  5
3732
330
365D
100
AcDbEntity
  8
SUNPOU
 62
     4
100
AcDbMText
 10
426.2737457928109
 20
384.8416228232811
 30
0.0
 40
6.0
 41
0.0
 71
     5
 72
     1
  1
\A1;74
 11
1.000000000000000E-16
 21
1.0
 31
0.0
 73
     1
 44
1.0
  0
POINT
  5
3733
330
365D
100
AcDbEntity
  8
DEFPOINTS
 62
     0
100
AcDbPoint
 10
379.7639472421981
 20
421.841622823281
 30
0.0
  0
POINT
  5
3734
330
365D
100
AcDbEntity
  8
DEFPOINTS
 62
     0
100
AcDbPoint
 10
379.7639472421981
 20
347.8416228232811
 30
0.0
  0
POINT
  5
3735
330
365D
100
AcDbEntity
  8
DEFPOINTS
 62
     0
100
AcDbPoint
 10
431.2737457928109
 20
347.841622823281
 30
0.0
  0
ENDBLK
  5
3668
330
365D
100
AcDbEntity
  8
0
100
AcDbBlockEnd
  0
BLOCK
  5
3673
330
3669
100
AcDbEntity
  8
0
100
AcDbBlockBegin
  2
*D4
 70
     1
 71
     0
 10
0.0
 20
0.0
 30
0.0
  3
*D4
  1

  0
LINE
  5
3736
330
3669
100
AcDbEntity
  8
SUNPOU
 62
     4
100
AcDbLine
 10
361.8535837286772
 20
232.4279569869626
 30
0.0
 11
361.8535837286772
 21
270.6997073808327
 31
0.0
  0
LINE
  5
3737
330
3669
100
AcDbEntity
  8
SUNPOU
 62
     4
100
AcDbLine
 10
262.8535837286771
 20
210.3348021518626
 30
0.0
 11
262.8535837286771
 21
270.6997073808327
 31
0.0
  0
LINE
  5
3738
330
3669
100
AcDbEntity
  8
SUNPOU
 62
     4
100
AcDbLine
 10
354.8535837286772
 20
267.6997073808327
 30
0.0
 11
269.8535837286771
 21
267.6997073808327
 31
0.0
  0
INSERT
  5
3739
330
3669
100
AcDbEntity
  8
SUNPOU
 62
     4
100
AcDbBlockReference
  2
_OPEN
 10
361.8535837286772
 20
267.6997073808327
 30
0.0
 41
7.0
 42
7.0
 43
7.0
  0
INSERT
  5
373A
330
3669
100
AcDbEntity
  8
SUNPOU
 62
     4
100
AcDbBlockReference
  2
_OPEN
 10
262.8535837286771
 20
267.6997073808327
 30
0.0
 41
7.0
 42
7.0
 43
7.0
 50
180.0
  0
MTEXT
  5
373B
330
3669
100
AcDbEntity
  8
SUNPOU
 62
     4
100
AcDbMText
 10
312.3535837286772
 20
272.6997073808326
 30
0.0
 40
6.0
 41
0.0
 71
     5
 72
     1
  1
\A1;99
 73
     1
 44
1.0
  0
POINT
  5
373C
330
3669
100
AcDbEntity
  8
DEFPOINTS
 62
     0
100
AcDbPoint
 10
361.8535837286772
 20
226.4279569869626
 30
0.0
  0
POINT
  5
373D
330
3669
100
AcDbEntity
  8
DEFPOINTS
 62
     0
100
AcDbPoint
 10
262.8535837286771
 20
204.3348021518626
 30
0.0
  0
POINT
  5
373E
330
3669
100
AcDbEntity
  8
DEFPOINTS
 62
     0
100
AcDbPoint
 10
262.8535837286771
 20
267.6997073808327
 30
0.0
  0
ENDBLK
  5
3674
330
3669
100
AcDbEntity
  8
0
100
AcDbBlockEnd
  0
BLOCK
  5
367F
330
3675
100
AcDbEntity
  8
0
100
AcDbBlockBegin
  2
*D5
 70
     1
 71
     0
 10
0.0
 20
0.0
 30
0.0
  3
*D5
  1

  0
LINE
  5
373F
330
3675
100
AcDbEntity
  8
SUNPOU
 62
     4
100
AcDbLine
 10
229.8965518858771
 20
227.3871381080626
 30
0.0
 11
229.8965518858771
 21
284.9482569275057
 31
0.0
  0
LINE
  5
3740
330
3675
100
AcDbEntity
  8
SUNPOU
 62
     4
100
AcDbLine
 10
361.8535837286772
 20
232.4279569869626
 30
0.0
 11
361.8535837286772
 21
284.9482569275057
 31
0.0
  0
LINE
  5
3741
330
3675
100
AcDbEntity
  8
SUNPOU
 62
     4
100
AcDbLine
 10
236.8965518858771
 20
281.9482569275058
 30
0.0
 11
354.8535837286772
 21
281.9482569275058
 31
0.0
  0
INSERT
  5
3742
330
3675
100
AcDbEntity
  8
SUNPOU
 62
     4
100
AcDbBlockReference
  2
_OPEN
 10
229.8965518858771
 20
281.9482569275058
 30
0.0
 41
7.0
 42
7.0
 43
7.0
 50
180.0
  0
INSERT
  5
3743
330
3675
100
AcDbEntity
  8
SUNPOU
 62
     4
100
AcDbBlockReference
  2
_OPEN
 10
361.8535837286772
 20
281.9482569275058
 30
0.0
 41
7.0
 42
7.0
 43
7.0
  0
MTEXT
  5
3744
330
3675
100
AcDbEntity
  8
SUNPOU
 62
     4
100
AcDbMText
 10
295.8750678072771
 20
286.9482569275057
 30
0.0
 40
6.0
 41
0.0
 71
     5
 72
     1
  1
\A1;132
 73
     1
 44
1.0
  0
POINT
  5
3745
330
3675
100
AcDbEntity
  8
DEFPOINTS
 62
     0
100
AcDbPoint
 10
229.8965518858771
 20
221.3871381080626
 30
0.0
  0
POINT
  5
3746
330
3675
100
AcDbEntity
  8
DEFPOINTS
 62
     0
100
AcDbPoint
 10
361.8535837286772
 20
226.4279569869626
 30
0.0
  0
POINT
  5
3747
330
3675
100
AcDbEntity
  8
DEFPOINTS
 62
     0
100
AcDbPoint
 10
361.8535837286772
 20
281.9482569275058
 30
0.0
  0
ENDBLK
  5
3680
330
3675
100
AcDbEntity
  8
0
100
AcDbBlockEnd
  0
BLOCK
  5
368B
330
3681
100
AcDbEntity
  8
0
100
AcDbBlockBegin
  2
*D6
 70
     1
 71
     0
 10
0.0
 20
0.0
 30
0.0
  3
*D6
  1

  0
LINE
  5
3748
330
3681
100
AcDbEntity
  8
SUNPOU
 62
     4
100
AcDbLine
 10
224.9214144990772
 20
222.3348021518626
 30
0.0
 11
200.7655864976995
 21
222.3348021518626
 31
0.0
  0
LINE
  5
3749
330
3681
100
AcDbEntity
  8
SUNPOU
 62
     4
100
AcDbLine
 10
372.8766126995771
 20
179.0336906179626
 30
0.0
 11
200.7655864976995
 21
179.0336906179626
 31
0.0
  0
LINE
  5
374A
330
3681
100
AcDbEntity
  8
SUNPOU
 62
     4
100
AcDbLine
 10
203.7655864976995
 20
215.3348021518626
 30
0.0
 11
203.7655864976995
 21
186.0336906179626
 31
0.0
  0
INSERT
  5
374B
330
3681
100
AcDbEntity
  8
SUNPOU
 62
     4
100
AcDbBlockReference
  2
_OPEN
 10
203.7655864976995
 20
222.3348021518626
 30
0.0
 41
7.0
 42
7.0
 43
7.0
 50
90.0
  0
INSERT
  5
374C
330
3681
100
AcDbEntity
  8
SUNPOU
 62
     4
100
AcDbBlockReference
  2
_OPEN
 10
203.7655864976995
 20
179.0336906179626
 30
0.0
 41
7.0
 42
7.0
 43
7.0
 50
270.0
  0
MTEXT
  5
374D
330
3681
100
AcDbEntity
  8
SUNPOU
 62
     4
100
AcDbMText
 10
198.7655864976995
 20
200.6842463849126
 30
0.0
 40
6.0
 41
0.0
 71
     5
 72
     1
  1
\A1;43
 11
1.000000000000000E-16
 21
1.0
 31
0.0
 73
     1
 44
1.0
  0
POINT
  5
374E
330
3681
100
AcDbEntity
  8
DEFPOINTS
 62
     0
100
AcDbPoint
 10
230.9214144990772
 20
222.3348021518626
 30
0.0
  0
POINT
  5
374F
330
3681
100
AcDbEntity
  8
DEFPOINTS
 62
     0
100
AcDbPoint
 10
378.8766126995771
 20
179.0336906179626
 30
0.0
  0
POINT
  5
3750
330
3681
100
AcDbEntity
  8
DEFPOINTS
 62
     0
100
AcDbPoint
 10
203.7655864976995
 20
179.0336906179626
 30
0.0
  0
ENDBLK
  5
368C
330
3681
100
AcDbEntity
  8
0
100
AcDbBlockEnd
  0
BLOCK
  5
3699
330
368D
100
AcDbEntity
  8
0
100
AcDbBlockBegin
  2
*D7
 70
     1
 71
     0
 10
0.0
 20
0.0
 30
0.0
  3
*D7
  1

  0
LINE
  5
3751
330
368D
100
AcDbEntity
  8
SUNPOU
 62
     4
100
AcDbLine
 10
361.8535837286772
 20
232.4279569869626
 30
0.0
 11
361.8535837286772
 21
254.6699610329799
 31
0.0
  0
LINE
  5
3752
330
368D
100
AcDbEntity
  8
SUNPOU
 62
     4
100
AcDbLine
 10
351.8951814206773
 20
210.6348021518626
 30
0.0
 11
351.8951814206773
 21
254.6699610329799
 31
0.0
  0
LINE
  5
3753
330
368D
100
AcDbEntity
  8
SUNPOU
 62
     4
100
AcDbLine
 10
368.8535837286772
 20
251.6699610329799
 30
0.0
 11
375.8535837286772
 21
251.6699610329799
 31
0.0
  0
LINE
  5
3754
330
368D
100
AcDbEntity
  8
SUNPOU
 62
     4
100
AcDbLine
 10
344.8951814206773
 20
251.6699610329799
 30
0.0
 11
326.8951814206773
 21
251.6699610329799
 31
0.0
  0
LINE
  5
3755
330
368D
100
AcDbEntity
  8
SUNPOU
 62
     4
100
AcDbLine
 10
361.8535837286772
 20
251.6699610329799
 30
0.0
 11
351.8951814206773
 21
251.6699610329799
 31
0.0
  0
INSERT
  5
3756
330
368D
100
AcDbEntity
  8
SUNPOU
 62
     4
100
AcDbBlockReference
  2
_OPEN
 10
361.8535837286772
 20
251.6699610329799
 30
0.0
 41
7.0
 42
7.0
 43
7.0
 50
180.0
  0
INSERT
  5
3757
330
368D
100
AcDbEntity
  8
SUNPOU
 62
     4
100
AcDbBlockReference
  2
_OPEN
 10
351.8951814206773
 20
251.6699610329799
 30
0.0
 41
7.0
 42
7.0
 43
7.0
  0
MTEXT
  5
3758
330
368D
100
AcDbEntity
  8
SUNPOU
 62
     4
100
AcDbMText
 10
332.3951814206773
 20
256.6699610329799
 30
0.0
 40
6.0
 41
0.0
 71
     5
 72
     1
  1
\A1;10
 73
     1
 44
1.0
  0
POINT
  5
3759
330
368D
100
AcDbEntity
  8
DEFPOINTS
 62
     0
100
AcDbPoint
 10
361.8535837286772
 20
226.4279569869626
 30
0.0
  0
POINT
  5
375A
330
368D
100
AcDbEntity
  8
DEFPOINTS
 62
     0
100
AcDbPoint
 10
351.8951814206773
 20
204.6348021518626
 30
0.0
  0
POINT
  5
375B
330
368D
100
AcDbEntity
  8
DEFPOINTS
 62
     0
100
AcDbPoint
 10
351.8951814206773
 20
251.6699610329799
 30
0.0
  0
ENDBLK
  5
369A
330
368D
100
AcDbEntity
  8
0
100
AcDbBlockEnd
  0
BLOCK
  5
36A5
330
369B
100
AcDbEntity
  8
0
100
AcDbBlockBegin
  2
*D8
 70
     1
 71
     0
 10
0.0
 20
0.0
 30
0.0
  3
*D8
  1

  0
LINE
  5
375C
330
369B
100
AcDbEntity
  8
SUNPOU
 62
     4
100
AcDbLine
 10
367.2185091497161
 20
229.11451151399
 30
0.0
 11
380.4974109717946
 21
235.7640902134736
 31
0.0
  0
LINE
  5
375D
330
369B
100
AcDbEntity
  8
SUNPOU
 62
     4
100
AcDbLine
 10
389.6064635416161
 20
184.40679967199
 30
0.0
 11
402.8853653636947
 21
191.0563783714737
 31
0.0
  0
LINE
  5
375E
330
369B
100
AcDbEntity
  8
SUNPOU
 62
     4
100
AcDbLine
 10
380.9492618761406
 20
228.1617332920813
 30
0.0
 11
397.0685890383101
 21
195.9721807658386
 31
0.0
  0
INSERT
  5
375F
330
369B
100
AcDbEntity
  8
SUNPOU
 62
     4
100
AcDbBlockReference
  2
_OPEN
 10
377.8149482612753
 20
234.42081294996
 30
0.0
 41
7.0
 42
7.0
 43
7.0
 50
116.5999999999444
  0
INSERT
  5
3760
330
369B
100
AcDbEntity
  8
SUNPOU
 62
     4
100
AcDbBlockReference
  2
_OPEN
 10
400.2029026531753
 20
189.71310110796
 30
0.0
 41
7.0
 42
7.0
 43
7.0
 50
296.5999999999445
  0
MTEXT
  5
3761
330
369B
100
AcDbEntity
  8
SUNPOU
 62
     4
100
AcDbMText
 10
397.7334079758869
 20
205.8112872181665
 30
0.0
 40
6.0
 41
0.0
 71
     5
 72
     1
  1
\A1;50
 11
0.4477590878379034
 21
-0.8941542368398021
 31
0.0
 73
     1
 44
1.0
  0
POINT
  5
3762
330
369B
100
AcDbEntity
  8
DEFPOINTS
 62
     0
100
AcDbPoint
 10
361.8535837286772
 20
226.4279569869625
 30
0.0
  0
POINT
  5
3763
330
369B
100
AcDbEntity
  8
DEFPOINTS
 62
     0
100
AcDbPoint
 10
384.2415381205772
 20
181.7202451449626
 30
0.0
  0
POINT
  5
3764
330
369B
100
AcDbEntity
  8
DEFPOINTS
 62
     0
100
AcDbPoint
 10
400.2029026531753
 20
189.71310110796
 30
0.0
  0
ENDBLK
  5
36A6
330
369B
100
AcDbEntity
  8
0
100
AcDbBlockEnd
  0
BLOCK
  5
36B1
330
36A7
100
AcDbEntity
  8
0
100
AcDbBlockBegin
  2
*D9
 70
     1
 71
     0
 10
0.0
 20
0.0
 30
0.0
  3
*D9
  1

  0
LINE
  5
3765
330
36A7
100
AcDbEntity
  8
SUNPOU
 62
     4
100
AcDbLine
 10
396.8535837286772
 20
232.4279569869626
 30
0.0
 11
396.8535837286772
 21
253.9877447074118
 31
0.0
  0
LINE
  5
3766
330
36A7
100
AcDbEntity
  8
SUNPOU
 62
     4
100
AcDbLine
 10
361.8535837286772
 20
232.4279569869626
 30
0.0
 11
361.8535837286772
 21
253.9877447074118
 31
0.0
  0
LINE
  5
3767
330
36A7
100
AcDbEntity
  8
SUNPOU
 62
     4
100
AcDbLine
 10
389.8535837286772
 20
250.9877447074118
 30
0.0
 11
368.8535837286772
 21
250.9877447074118
 31
0.0
  0
INSERT
  5
3768
330
36A7
100
AcDbEntity
  8
SUNPOU
 62
     4
100
AcDbBlockReference
  2
_OPEN
 10
396.8535837286772
 20
250.9877447074118
 30
0.0
 41
7.0
 42
7.0
 43
7.0
  0
INSERT
  5
3769
330
36A7
100
AcDbEntity
  8
SUNPOU
 62
     4
100
AcDbBlockReference
  2
_OPEN
 10
361.8535837286772
 20
250.9877447074118
 30
0.0
 41
7.0
 42
7.0
 43
7.0
 50
180.0
  0
MTEXT
  5
376A
330
36A7
100
AcDbEntity
  8
SUNPOU
 62
     4
100
AcDbMText
 10
379.3535837286772
 20
255.9877447074118
 30
0.0
 40
6.0
 41
0.0
 71
     5
 72
     1
  1
\A1;35
 73
     1
 44
1.0
  0
POINT
  5
376B
330
36A7
100
AcDbEntity
  8
DEFPOINTS
 62
     0
100
AcDbPoint
 10
396.8535837286772
 20
226.4279569869626
 30
0.0
  0
POINT
  5
376C
330
36A7
100
AcDbEntity
  8
DEFPOINTS
 62
     0
100
AcDbPoint
 10
361.8535837286772
 20
226.4279569869626
 30
0.0
  0
POINT
  5
376D
330
36A7
100
AcDbEntity
  8
DEFPOINTS
 62
     0
100
AcDbPoint
 10
361.8535837286772
 20
250.9877447074118
 30
0.0
  0
ENDBLK
  5
36B2
330
36A7
100
AcDbEntity
  8
0
100
AcDbBlockEnd
  0
BLOCK
  5
36BD
330
36B3
100
AcDbEntity
  8
0
100
AcDbBlockBegin
  2
*D10
 70
     1
 71
     0
 10
0.0
 20
0.0
 30
0.0
  3
*D10
  1

  0
LINE
  5
376E
330
36B3
100
AcDbEntity
  8
SUNPOU
 62
     4
100
AcDbLine
 10
223.6687042297772
 20
394.8416228232811
 30
0.0
 11
200.7655864976995
 21
394.8416228232811
 31
0.0
  0
LINE
  5
376F
330
36B3
100
AcDbEntity
  8
SUNPOU
 62
     4
100
AcDbLine
 10
223.6687042297772
 20
374.8416228232811
 30
0.0
 11
200.7655864976995
 21
374.8416228232811
 31
0.0
  0
LINE
  5
3770
330
36B3
100
AcDbEntity
  8
SUNPOU
 62
     4
100
AcDbLine
 10
203.7655864976995
 20
387.8416228232811
 30
0.0
 11
203.7655864976995
 21
381.8416228232811
 31
0.0
  0
INSERT
  5
3771
330
36B3
100
AcDbEntity
  8
SUNPOU
 62
     4
100
AcDbBlockReference
  2
_OPEN
 10
203.7655864976995
 20
394.8416228232811
 30
0.0
 41
7.0
 42
7.0
 43
7.0
 50
90.0
  0
INSERT
  5
3772
330
36B3
100
AcDbEntity
  8
SUNPOU
 62
     4
100
AcDbBlockReference
  2
_OPEN
 10
203.7655864976995
 20
374.8416228232811
 30
0.0
 41
7.0
 42
7.0
 43
7.0
 50
270.0
  0
MTEXT
  5
3773
330
36B3
100
AcDbEntity
  8
SUNPOU
 62
     4
100
AcDbMText
 10
198.7655864976994
 20
384.8416228232811
 30
0.0
 40
6.0
 41
0.0
 71
     5
 72
     1
  1
\A1;20
 11
1.000000000000000E-16
 21
1.0
 31
0.0
 73
     1
 44
1.0
  0
POINT
  5
3774
330
36B3
100
AcDbEntity
  8
DEFPOINTS
 62
     0
100
AcDbPoint
 10
229.6687042297772
 20
394.8416228232811
 30
0.0
  0
POINT
  5
3775
330
36B3
100
AcDbEntity
  8
DEFPOINTS
 62
     0
100
AcDbPoint
 10
229.6687042297772
 20
374.8416228232811
 30
0.0
  0
POINT
  5
3776
330
36B3
100
AcDbEntity
  8
DEFPOINTS
 62
     0
100
AcDbPoint
 10
203.7655864976995
 20
374.8416228232811
 30
0.0
  0
ENDBLK
  5
36BE
330
36B3
100
AcDbEntity
  8
0
100
AcDbBlockEnd
  0
BLOCK
  5
36C9
330
36BF
100
AcDbEntity
  8
0
100
AcDbBlockBegin
  2
*D11
 70
     1
 71
     0
 10
0.0
 20
0.0
 30
0.0
  3
*D11
  1

  0
LINE
  5
3777
330
36BF
100
AcDbEntity
  8
SUNPOU
 62
     4
100
AcDbLine
 10
495.6900278625953
 20
296.9958213728046
 30
0.0
 11
483.2191537498231
 21
321.7375822262054
 31
0.0
  0
LINE
  5
3778
330
36BF
100
AcDbEntity
  8
SUNPOU
 62
     4
100
AcDbLine
 10
546.5898276370302
 20
322.6514325119385
 30
0.0
 11
534.1189535242579
 21
347.3931933653391
 31
0.0
  0
LINE
  5
3779
330
36BF
100
AcDbEntity
  8
SUNPOU
 62
     4
100
AcDbLine
 10
490.8203016768133
 20
322.209334483234
 30
0.0
 11
529.2183962434923
 21
341.5635674478436
 31
0.0
  0
INSERT
  5
377A
330
36BF
100
AcDbEntity
  8
SUNPOU
 62
     4
100
AcDbBlockReference
  2
_OPEN
 10
484.5694490729354
 20
319.058645395972
 30
0.0
 41
7.0
 42
7.0
 43
7.0
 50
206.7499999999999
  0
INSERT
  5
377B
330
36BF
100
AcDbEntity
  8
SUNPOU
 62
     4
100
AcDbBlockReference
  2
_OPEN
 10
535.4692488473703
 20
344.7142565351057
 30
0.0
 41
7.0
 42
7.0
 43
7.0
 50
26.74999999999989
  0
MTEXT
  5
377C
330
36BF
100
AcDbEntity
  8
SUNPOU
 62
     4
100
AcDbMText
 10
507.6888915892594
 20
336.3110399209779
 30
0.0
 40
6.0
 41
0.0
 71
     5
 72
     1
  1
\A1;57
 11
0.8929789434111379
 21
0.4500984410374333
 31
0.0
 73
     1
 44
1.0
  0
POINT
  5
377D
330
36BF
100
AcDbEntity
  8
DEFPOINTS
 62
     0
100
AcDbPoint
 10
498.39061850882
 20
291.6379477123378
 30
0.0
  0
POINT
  5
377E
330
36BF
100
AcDbEntity
  8
DEFPOINTS
 62
     0
100
AcDbPoint
 10
549.2904182832547
 20
317.2935588514716
 30
0.0
  0
POINT
  5
377F
330
36BF
100
AcDbEntity
  8
DEFPOINTS
 62
     0
100
AcDbPoint
 10
535.4692488473703
 20
344.7142565351057
 30
0.0
  0
ENDBLK
  5
36CA
330
36BF
100
AcDbEntity
  8
0
100
AcDbBlockEnd
  0
BLOCK
  5
36D5
330
36CB
100
AcDbEntity
  8
0
100
AcDbBlockBegin
  2
*D12
 70
     1
 71
     0
 10
0.0
 20
0.0
 30
0.0
  3
*D12
  1

  0
LINE
  5
3780
330
36CB
100
AcDbEntity
  8
SUNPOU
 62
     4
100
AcDbLine
 10
557.3983525094424
 20
320.092469815367
 30
0.0
 11
534.22811687685
 21
366.0613749421873
 31
0.0
  0
LINE
  5
3781
330
36CB
100
AcDbEntity
  8
SUNPOU
 62
     4
100
AcDbLine
 10
491.3179106970183
 20
286.7851851785969
 30
0.0
 11
468.1476750644256
 21
332.7540903054173
 31
0.0
  0
LINE
  5
3782
330
36CB
100
AcDbEntity
  8
SUNPOU
 62
     4
100
AcDbLine
 10
529.3275595960843
 20
360.2317490246919
 30
0.0
 11
475.748822991416
 21
333.2258425624459
 31
0.0
  0
INSERT
  5
3783
330
36CB
100
AcDbEntity
  8
SUNPOU
 62
     4
100
AcDbBlockReference
  2
_OPEN
 10
535.5784121999621
 20
363.382438111954
 30
0.0
 41
7.0
 42
7.0
 43
7.0
 50
26.74999999999994
  0
INSERT
  5
3784
330
36CB
100
AcDbEntity
  8
SUNPOU
 62
     4
100
AcDbBlockReference
  2
_OPEN
 10
469.4979703875382
 20
330.0751534751839
 30
0.0
 41
7.0
 42
7.0
 43
7.0
 50
206.7499999999999
  0
MTEXT
  5
3785
330
36CB
100
AcDbEntity
  8
SUNPOU
 62
     4
100
AcDbMText
 10
500.287699088563
 20
351.1936905106245
 30
0.0
 40
6.0
 41
0.0
 71
     5
 72
     1
  1
\A1;74
 11
0.8929789434111379
 21
0.4500984410374333
 31
0.0
 73
     1
 44
1.0
  0
POINT
  5
3786
330
36CB
100
AcDbEntity
  8
DEFPOINTS
 62
     0
100
AcDbPoint
 10
560.098943155667
 20
314.7345961549002
 30
0.0
  0
POINT
  5
3787
330
36CB
100
AcDbEntity
  8
DEFPOINTS
 62
     0
100
AcDbPoint
 10
494.0185013432428
 20
281.42731151813
 30
0.0
  0
POINT
  5
3788
330
36CB
100
AcDbEntity
  8
DEFPOINTS
 62
     0
100
AcDbPoint
 10
469.4979703875382
 20
330.0751534751839
 30
0.0
  0
ENDBLK
  5
36D6
330
36CB
100
AcDbEntity
  8
0
100
AcDbBlockEnd
  0
BLOCK
  5
36E1
330
36D7
100
AcDbEntity
  8
0
100
AcDbBlockBegin
  2
*D13
 70
     1
 71
     0
 10
0.0
 20
0.0
 30
0.0
  3
*D13
  1

  0
LINE
  5
3789
330
36D7
100
AcDbEntity
  8
SUNPOU
 62
     4
100
AcDbLine
 10
570.1444119806154
 20
271.4765211158165
 30
0.0
 11
583.1842183121307
 21
245.6060194243124
 31
0.0
  0
LINE
  5
378A
330
36D7
100
AcDbEntity
  8
SUNPOU
 62
     4
100
AcDbLine
 10
522.8165279798253
 20
247.6213037408325
 30
0.0
 11
535.8563343113405
 21
221.7508020493284
 31
0.0
  0
LINE
  5
378B
330
36D7
100
AcDbEntity
  8
SUNPOU
 62
     4
100
AcDbLine
 10
575.5830703851403
 20
245.1342671672837
 30
0.0
 11
540.7568915921062
 21
227.5804279668239
 31
0.0
  0
INSERT
  5
378C
330
36D7
100
AcDbEntity
  8
SUNPOU
 62
     4
100
AcDbBlockReference
  2
_OPEN
 10
581.8339229890185
 20
248.2849562545458
 30
0.0
 41
7.0
 42
7.0
 43
7.0
 50
26.74999999999994
  0
INSERT
  5
378D
330
36D7
100
AcDbEntity
  8
SUNPOU
 62
     4
100
AcDbBlockReference
  2
_OPEN
 10
534.5060389882282
 20
224.4297388795618
 30
0.0
 41
7.0
 42
7.0
 43
7.0
 50
206.7499999999999
  0
MTEXT
  5
378E
330
36D7
100
AcDbEntity
  8
SUNPOU
 62
     4
100
AcDbMText
 10
555.8395236177299
 20
240.7819365224931
 30
0.0
 40
6.0
 41
0.0
 71
     5
 72
     1
  1
\A1;53
 11
0.8929789434111379
 21
0.4500984410374333
 31
0.0
 73
     1
 44
1.0
  0
POINT
  5
378F
330
36D7
100
AcDbEntity
  8
DEFPOINTS
 62
     0
100
AcDbPoint
 10
567.4438213343909
 20
276.8343947762833
 30
0.0
  0
POINT
  5
3790
330
36D7
100
AcDbEntity
  8
DEFPOINTS
 62
     0
100
AcDbPoint
 10
520.1159373336006
 20
252.9791774012994
 30
0.0
  0
POINT
  5
3791
330
36D7
100
AcDbEntity
  8
DEFPOINTS
 62
     0
100
AcDbPoint
 10
534.5060389882282
 20
224.4297388795618
 30
0.0
  0
ENDBLK
  5
36E2
330
36D7
100
AcDbEntity
  8
0
100
AcDbBlockEnd
  0
BLOCK
  5
36ED
330
36E3
100
AcDbEntity
  8
0
100
AcDbBlockBegin
  2
*D14
 70
     1
 71
     0
 10
0.0
 20
0.0
 30
0.0
  3
*D14
  1

  0
LINE
  5
3792
330
36E3
100
AcDbEntity
  8
SUNPOU
 62
     4
100
AcDbLine
 10
493.0894327065132
 20
292.1574947163912
 30
0.0
 11
454.3588697944653
 21
272.6356839101665
 31
0.0
  0
LINE
  5
3793
330
36E3
100
AcDbEntity
  8
SUNPOU
 62
     4
100
AcDbLine
 10
515.5943547583848
 20
247.5085475458343
 30
0.0
 11
476.8637918463367
 21
227.9867367396094
 31
0.0
  0
LINE
  5
3794
330
36E3
100
AcDbEntity
  8
SUNPOU
 62
     4
100
AcDbLine
 10
460.1884957119607
 20
267.7351266294007
 30
0.0
 11
476.3920395893081
 21
235.5878846665997
 31
0.0
  0
INSERT
  5
3795
330
36E3
100
AcDbEntity
  8
SUNPOU
 62
     4
100
AcDbBlockReference
  2
_OPEN
 10
457.0378066246988
 20
273.9859792332787
 30
0.0
 41
7.0
 42
7.0
 43
7.0
 50
116.7499999999995
  0
INSERT
  5
3796
330
36E3
100
AcDbEntity
  8
SUNPOU
 62
     4
100
AcDbBlockReference
  2
_OPEN
 10
479.5427286765701
 20
229.3370320627217
 30
0.0
 41
7.0
 42
7.0
 43
7.0
 50
296.7499999999994
  0
MTEXT
  5
3797
330
36E3
100
AcDbEntity
  8
SUNPOU
 62
     4
100
AcDbMText
 10
472.7551623676902
 20
253.9119978531874
 30
0.0
 40
6.0
 41
0.0
 71
     5
 72
     1
  1
\A1;50
 11
0.4500984410374274
 21
-0.8929789434111409
 31
0.0
 73
     1
 44
1.0
  0
POINT
  5
3798
330
36E3
100
AcDbEntity
  8
DEFPOINTS
 62
     0
100
AcDbPoint
 10
498.4473063669799
 20
294.8580853626157
 30
0.0
  0
POINT
  5
3799
330
36E3
100
AcDbEntity
  8
DEFPOINTS
 62
     0
100
AcDbPoint
 10
520.9522284188518
 20
250.2091381920588
 30
0.0
  0
POINT
  5
379A
330
36E3
100
AcDbEntity
  8
DEFPOINTS
 62
     0
100
AcDbPoint
 10
479.5427286765701
 20
229.3370320627217
 30
0.0
  0
ENDBLK
  5
36EE
330
36E3
100
AcDbEntity
  8
0
100
AcDbBlockEnd
  0
BLOCK
  5
36FB
330
36EF
100
AcDbEntity
  8
0
100
AcDbBlockBegin
  2
*D15
 70
     1
 71
     0
 10
0.0
 20
0.0
 30
0.0
  3
*D15
  1

  0
LINE
  5
379B
330
36EF
100
AcDbEntity
  8
SUNPOU
 62
     4
100
AcDbLine
 10
489.8661492563808
 20
279.3343537673059
 30
0.0
 11
472.9900686390264
 21
270.8281088745907
 31
0.0
  0
LINE
  5
379C
330
36EF
100
AcDbEntity
  8
SUNPOU
 62
     4
100
AcDbLine
 10
484.1596432724018
 20
287.6565103060168
 30
0.0
 11
468.4890842286521
 21
279.757898308702
 31
0.0
  0
LINE
  5
379D
330
36EF
100
AcDbEntity
  8
SUNPOU
 62
     4
100
AcDbLine
 10
478.8196945565218
 20
265.927551593825
 30
0.0
 11
481.9703836437838
 21
259.676698989947
 31
0.0
  0
LINE
  5
379E
330
36EF
100
AcDbEntity
  8
SUNPOU
 62
     4
100
AcDbLine
 10
468.0173319716236
 20
287.3590462356924
 30
0.0
 11
459.9155600329498
 21
303.4326672170928
 31
0.0
  0
LINE
  5
379F
330
36EF
100
AcDbEntity
  8
SUNPOU
 62
     4
100
AcDbLine
 10
475.6690054692597
 20
272.178404197703
 30
0.0
 11
471.1680210588855
 21
281.1081936318143
 31
0.0
  0
INSERT
  5
37A0
330
36EF
100
AcDbEntity
  8
SUNPOU
 62
     4
100
AcDbBlockReference
  2
_OPEN
 10
475.6690054692597
 20
272.178404197703
 30
0.0
 41
7.0
 42
7.0
 43
7.0
 50
116.7499999999995
  0
INSERT
  5
37A1
330
36EF
100
AcDbEntity
  8
SUNPOU
 62
     4
100
AcDbBlockReference
  2
_OPEN
 10
471.1680210588855
 20
281.1081936318143
 30
0.0
 41
7.0
 42
7.0
 43
7.0
 50
296.7499999999994
  0
MTEXT
  5
37A2
330
36EF
100
AcDbEntity
  8
SUNPOU
 62
     4
100
AcDbMText
 10
466.8559961757114
 20
300.7717752335187
 30
0.0
 40
6.0
 41
0.0
 71
     5
 72
     1
  1
\A1;10
 11
0.4500984410374274
 21
-0.8929789434111409
 31
0.0
 73
     1
 44
1.0
  0
POINT
  5
37A3
330
36EF
100
AcDbEntity
  8
DEFPOINTS
 62
     0
100
AcDbPoint
 10
495.2240229168478
 20
282.0349444135306
 30
0.0
  0
POINT
  5
37A4
330
36EF
100
AcDbEntity
  8
DEFPOINTS
 62
     0
100
AcDbPoint
 10
489.5175169328687
 20
290.3571009522414
 30
0.0
  0
POINT
  5
37A5
330
36EF
100
AcDbEntity
  8
DEFPOINTS
 62
     0
100
AcDbPoint
 10
471.1680210588855
 20
281.1081936318143
 30
0.0
  0
ENDBLK
  5
36FC
330
36EF
100
AcDbEntity
  8
0
100
AcDbBlockEnd
  0
BLOCK
  5
3709
330
36FD
100
AcDbEntity
  8
0
100
AcDbBlockBegin
  2
*D16
 70
     1
 71
     0
 10
0.0
 20
0.0
 30
0.0
  3
*D16
  1

  0
LINE
  5
37A6
330
36FD
100
AcDbEntity
  8
SUNPOU
 62
     4
100
AcDbLine
 10
505.1550603743264
 20
253.4451823470467
 30
0.0
 11
486.4930218701497
 21
244.0387405722567
 31
0.0
  0
LINE
  5
37A7
330
36FD
100
AcDbEntity
  8
SUNPOU
 62
     4
100
AcDbLine
 10
506.6645653242736
 20
243.00756313546
 30
0.0
 11
490.994006280524
 21
235.1089511381454
 31
0.0
  0
LINE
  5
37A8
330
36FD
100
AcDbEntity
  8
SUNPOU
 62
     4
100
AcDbLine
 10
486.0212696131211
 20
251.639888499247
 30
0.0
 11
482.8705805258592
 21
257.890741103125
 31
0.0
  0
LINE
  5
37A9
330
36FD
100
AcDbEntity
  8
SUNPOU
 62
     4
100
AcDbLine
 10
496.8236321980194
 20
230.2083938573796
 30
0.0
 11
504.9254041366931
 21
214.1347728759791
 31
0.0
  0
LINE
  5
37AA
330
36FD
100
AcDbEntity
  8
SUNPOU
 62
     4
100
AcDbLine
 10
489.1719587003832
 20
245.389035895369
 30
0.0
 11
493.6729431107574
 21
236.4592464612576
 31
0.0
  0
INSERT
  5
37AB
330
36FD
100
AcDbEntity
  8
SUNPOU
 62
     4
100
AcDbBlockReference
  2
_OPEN
 10
489.1719587003832
 20
245.389035895369
 30
0.0
 41
7.0
 42
7.0
 43
7.0
 50
296.7499999999994
  0
INSERT
  5
37AC
330
36FD
100
AcDbEntity
  8
SUNPOU
 62
     4
100
AcDbBlockReference
  2
_OPEN
 10
493.6729431107574
 20
236.4592464612576
 30
0.0
 41
7.0
 42
7.0
 43
7.0
 50
116.7499999999995
  0
MTEXT
  5
37AD
330
36FD
100
AcDbEntity
  8
SUNPOU
 62
     4
100
AcDbMText
 10
506.9147574280429
 20
221.2966492699275
 30
0.0
 40
6.0
 41
0.0
 71
     5
 72
     1
  1
\A1;10
 11
0.4500984410374274
 21
-0.8929789434111409
 31
0.0
 73
     1
 44
1.0
  0
POINT
  5
37AE
330
36FD
100
AcDbEntity
  8
DEFPOINTS
 62
     0
100
AcDbPoint
 10
510.5129340347932
 20
256.1457729932712
 30
0.0
  0
POINT
  5
37AF
330
36FD
100
AcDbEntity
  8
DEFPOINTS
 62
     0
100
AcDbPoint
 10
512.0224389847404
 20
245.7081537816846
 30
0.0
  0
POINT
  5
37B0
330
36FD
100
AcDbEntity
  8
DEFPOINTS
 62
     0
100
AcDbPoint
 10
493.6729431107574
 20
236.4592464612576
 30
0.0
  0
ENDBLK
  5
370A
330
36FD
100
AcDbEntity
  8
0
100
AcDbBlockEnd
  0
BLOCK
  5
3717
330
370B
100
AcDbEntity
  8
0
100
AcDbBlockBegin
  2
*D17
 70
     1
 71
     0
 10
0.0
 20
0.0
 30
0.0
  3
*D17
  1

  0
LINE
  5
37B1
330
370B
100
AcDbEntity
  8
SUNPOU
 62
     4
100
AcDbLine
 10
552.0260429716483
 20
321.8639918248618
 30
0.0
 11
584.2977627455807
 21
338.1302776841421
 31
0.0
  0
LINE
  5
37B2
330
370B
100
AcDbEntity
  8
SUNPOU
 62
     4
100
AcDbLine
 10
567.6637427649503
 20
312.6123787128382
 30
0.0
 11
591.1842688934534
 21
324.4676998499517
 31
0.0
  0
LINE
  5
37B3
330
370B
100
AcDbEntity
  8
SUNPOU
 62
     4
100
AcDbLine
 10
578.4681368280855
 20
343.0308349649078
 30
0.0
 11
575.3174477408235
 21
349.2816875687858
 31
0.0
  0
LINE
  5
37B4
330
370B
100
AcDbEntity
  8
SUNPOU
 62
     4
100
AcDbLine
 10
591.6560211504821
 20
316.8665519229615
 30
0.0
 11
594.806710237744
 21
310.6156993190834
 31
0.0
  0
LINE
  5
37B5
330
370B
100
AcDbEntity
  8
SUNPOU
 62
     4
100
AcDbLine
 10
581.6188259153473
 20
336.7799823610298
 30
0.0
 11
588.50533206322
 21
323.1174045268395
 31
0.0
  0
INSERT
  5
37B6
330
370B
100
AcDbEntity
  8
SUNPOU
 62
     4
100
AcDbBlockReference
  2
_OPEN
 10
581.6188259153473
 20
336.7799823610298
 30
0.0
 41
7.0
 42
7.0
 43
7.0
 50
296.7499999999994
  0
INSERT
  5
37B7
330
370B
100
AcDbEntity
  8
SUNPOU
 62
     4
100
AcDbBlockReference
  2
_OPEN
 10
588.50533206322
 20
323.1174045268395
 30
0.0
 41
7.0
 42
7.0
 43
7.0
 50
116.7499999999995
  0
MTEXT
  5
37B8
330
370B
100
AcDbEntity
  8
SUNPOU
 62
     4
100
AcDbMText
 10
589.5269737063394
 20
332.1991856491217
 30
0.0
 40
6.0
 41
0.0
 71
     5
 72
     1
  1
\A1;15
 11
0.4500984410374274
 21
-0.8929789434111409
 31
0.0
 73
     1
 44
1.0
  0
POINT
  5
37B9
330
370B
100
AcDbEntity
  8
DEFPOINTS
 62
     0
100
AcDbPoint
 10
546.6681693111814
 20
319.1634011786372
 30
0.0
  0
POINT
  5
37BA
330
370B
100
AcDbEntity
  8
DEFPOINTS
 62
     0
100
AcDbPoint
 10
562.3058691044834
 20
309.9117880666137
 30
0.0
  0
POINT
  5
37BB
330
370B
100
AcDbEntity
  8
DEFPOINTS
 62
     0
100
AcDbPoint
 10
588.50533206322
 20
323.1174045268395
 30
0.0
  0
ENDBLK
  5
3718
330
370B
100
AcDbEntity
  8
0
100
AcDbBlockEnd
  0
ENDSEC
  0
SECTION
  2
ENTITIES
  0
LWPOLYLINE
  5
1609
330
1A
100
AcDbEntity
  8
ZUWAKU
100
AcDbPolyline
 90
        4
 70
     1
 43
0.0
 10
0.7999995666439191
 20
550.800000640297
 10
0.7999995666439191
 20
0.8000006402971848
 10
796.7999995666437
 20
0.8000006402971848
 10
796.7999995666437
 20
550.800000640297
  0
LWPOLYLINE
  5
160A
330
1A
100
AcDbEntity
  8
ZUWAKU
100
AcDbPolyline
 90
        4
 70
     1
 43
0.0
 10
0.3999995666439417
 20
551.2000006402971
 10
0.3999995666439417
 20
0.4000006402972076
 10
797.199999566644
 20
0.4000006402971845
 10
797.199999566644
 20
551.2000006402971
  0
LWPOLYLINE
  5
160B
330
1A
100
AcDbEntity
  8
ZUWAKU
100
AcDbPolyline
 90
        4
 70
     1
 43
0.0
 10
-0.0000004333560355
 20
551.6000006402971
 10
-0.0000004333560355
 20
0.0000006402971167
 10
797.5999995666439
 20
0.0000006402971842
 10
797.5999995666439
 20
551.6000006402971
  0
LWPOLYLINE
  5
160C
330
1A
100
AcDbEntity
  8
ZUWAKU
100
AcDbPolyline
 90
        4
 70
     1
 43
0.0
 10
0.5999995666438736
 20
551.0000006402971
 10
0.5999995666438736
 20
0.6000006402971395
 10
796.9999995666443
 20
0.6000006402971857
 10
796.9999995666439
 20
551.0000006402971
  0
LWPOLYLINE
  5
160D
330
1A
100
AcDbEntity
  8
ZUWAKU
100
AcDbPolyline
 90
        4
 70
     1
 43
0.0
 10
0.1999995666438963
 20
551.400000640297
 10
0.1999995666438963
 20
0.2000006402971622
 10
797.3999995666437
 20
0.2000006402971852
 10
797.3999995666439
 20
551.400000640297
  0
LINE
  5
160E
330
1A
100
AcDbEntity
  8
ZUWAKU
100
AcDbLine
 10
-0.0000004333560355
 20
30.00000064029711
 30
0.0
 11
797.3999995666437
 21
30.00000064029711
 31
0.0
  0
LINE
  5
160F
330
1A
100
AcDbEntity
  8
ZUWAKU
100
AcDbLine
 10
-0.0000004333560355
 20
30.20000064029711
 30
0.0
 11
797.3999995666437
 21
30.20000064029711
 31
0.0
  0
LINE
  5
1610
330
1A
100
AcDbEntity
  8
ZUWAKU
100
AcDbLine
 10
-0.0000004333560355
 20
30.40000064029712
 30
0.0
 11
797.3999995666437
 21
30.40000064029712
 31
0.0
  0
LINE
  5
1611
330
1A
100
AcDbEntity
  8
ZUWAKU
100
AcDbLine
 10
-0.0000004333560355
 20
30.60000064029713
 30
0.0
 11
797.3999995666437
 21
30.60000064029713
 31
0.0
  0
LINE
  5
1612
330
1A
100
AcDbEntity
  8
ZUWAKU
100
AcDbLine
 10
-0.0000004333560355
 20
30.80000064029713
 30
0.0
 11
797.3999995666437
 21
30.80000064029713
 31
0.0
  0
LINE
  5
1613
330
1A
100
AcDbEntity
  8
ZUWAKU
100
AcDbLine
 10
208.6466008567119
 20
15.40000064029714
 30
0.0
 11
447.4243635376352
 21
15.40000064029714
 31
0.0
  0
LINE
  5
1614
330
1A
100
AcDbEntity
  8
ZUWAKU
100
AcDbLine
 10
208.6466008567119
 20
15.60000064029714
 30
0.0
 11
447.4243635376352
 21
15.60000064029715
 31
0.0
  0
LINE
  5
1615
330
1A
100
AcDbEntity
  8
ZUWAKU
100
AcDbLine
 10
208.6466008567119
 20
15.20000064029715
 30
0.0
 11
447.4243635376352
 21
15.20000064029714
 31
0.0
  0
TEXT
  5
1616
330
1A
100
AcDbEntity
  8
MOJI
100
AcDbText
 10
90.75324551576999
 20
12.83491815671095
 30
0.0
 40
5.799999999999999
  1
アーバントップΣ９０
 41
0.9
  7
ｽﾀｲﾙ1
100
AcDbText
  0
CIRCLE
  5
1617
330
1A
100
AcDbEntity
  8
ZUWAKU
100
AcDbCircle
 10
25.99221172142506
 20
15.20000064029711
 30
0.0
 40
1.75
  0
LINE
  5
1618
330
1A
100
AcDbEntity
  8
ZUWAKU
100
AcDbLine
 10
26.86721172142506
 20
7.150000640297121
 30
0.0
 11
24.9422117214251
 21
7.150000640297121
 31
0.0
  0
LINE
  5
1619
330
1A
100
AcDbEntity
  8
ZUWAKU
100
AcDbLine
 10
24.9422117214251
 20
9.950000640297118
 30
0.0
 11
26.86721172142506
 21
9.950000640297118
 31
0.0
  0
LINE
  5
161A
330
1A
100
AcDbEntity
  8
ZUWAKU
100
AcDbLine
 10
26.86721172142506
 20
20.45000064029711
 30
0.0
 11
24.9422117214251
 21
20.45000064029711
 31
0.0
  0
LINE
  5
161B
330
1A
100
AcDbEntity
  8
ZUWAKU
100
AcDbLine
 10
24.9422117214251
 20
23.25000064029707
 30
0.0
 11
26.86721172142506
 21
23.25000064029711
 31
0.0
  0
HATCH
  5
161C
330
1A
100
AcDbEntity
  8
ZUWAKU
100
AcDbHatch
 10
0.0
 20
0.0
 30
0.0
210
0.0
220
0.0
230
1.0
  2
ANSI37
 70
     0
 71
     0
 91
        8
 92
        7
 72
     1
 73
     1
 93
       24
 10
14.50226222776381
 20
17.64484912128069
 42
-0.1989123673796348
 10
14.09221172142508
 20
18.63479861494174
 42
0.0
 10
14.09221172142508
 20
19.92500064029712
 42
-0.4142135623730912
 10
14.61721172142505
 20
20.45000064029711
 42
0.0
 10
17.59221172142496
 20
20.45000064029711
 42
0.4142135623731546
 10
18.11721172142506
 20
20.97500064029711
 42
0.0
 10
18.11721172142506
 20
22.72500064029713
 42
0.4142135623731586
 10
17.59221172142496
 20
23.25000064029711
 42
0.0
 10
14.09221172142508
 20
23.25000064029711
 42
0.4142135623730928
 10
11.29221172142512
 20
20.45000064029714
 42
0.0
 10
11.29221172142512
 20
18.63479861494187
 42
0.1989123673796619
 10
12.52236324044155
 20
15.66495013395826
 42
0.0
 10
15.43216121508623
 20
12.75515215931361
 42
-0.1989123673796613
 10
15.84221172142508
 20
11.76520266565242
 42
0.0
 10
15.84221172142508
 20
10.4750006402971
 42
-0.4142135623730911
 10
15.3172117214251
 20
9.950000640297118
 42
0.0
 10
12.34221172142519
 20
9.950000640297118
 42
0.4142135623731526
 10
11.8172117214251
 20
9.425000640297126
 42
0.0
 10
11.8172117214251
 20
7.675000640297109
 42
0.4142135623731526
 10
12.34221172142519
 20
7.150000640297121
 42
0.0
 10
15.84221172142508
 20
7.150000640297121
 42
0.4142135623731045
 10
18.64221172142515
 20
9.950000640297098
 42
0.0
 10
18.64221172142515
 20
11.76520266565236
 42
0.1989123673796604
 10
17.4120602024086
 20
14.7350511466359
 42
0.0
 97
        0
 92
        7
 72
     1
 73
     1
 93
       16
 10
23.54221172142512
 20
19.05000064029712
 42
-0.4142135623730935
 10
24.9422117214251
 20
20.45000064029711
 42
0.0
 10
26.86721172142506
 20
20.45000064029711
 42
0.4142135623731546
 10
27.39221172142515
 20
20.97500064029711
 42
0.0
 10
27.39221172142515
 20
22.72500064029713
 42
0.4142135623730951
 10
26.86721172142517
 20
23.25000064029711
 42
0.0
 10
24.94221172142499
 20
23.25000064029707
 42
0.4142135623730893
 10
20.74221172142505
 20
19.05000064029705
 42
0.0
 10
20.74221172142505
 20
11.35000064029714
 42
0.4142135623730969
 10
24.9422117214251
 20
7.150000640297121
 42
0.0
 10
26.86721172142506
 20
7.150000640297121
 42
0.4142135623731526
 10
27.39221172142515
 20
7.675000640297109
 42
0.0
 10
27.39221172142515
 20
9.425000640297126
 42
0.4142135623730891
 10
26.86721172142517
 20
9.950000640297118
 42
0.0
 10
24.9422117214251
 20
9.950000640297118
 42
-0.4142135623730928
 10
23.54221172142512
 20
11.3500006402971
 42
0.0
 97
        0
 92
        7
 72
     1
 73
     1
 93
        2
 10
24.24221172142507
 20
15.20000064029711
 42
1.0
 10
27.74221172142507
 20
15.20000064029711
 42
1.0
 97
        0
 92
        7
 72
     1
 73
     1
 93
       26
 10
37.31485820360308
 20
19.20504783386054
 42
0.0
 10
38.3764978367409
 20
22.56690667213013
 42
0.5069206636600134
 10
37.87586693754553
 20
23.25000064029711
 42
0.0
 10
36.1769775579363
 20
23.25000064029711
 42
0.3272098845218764
 10
35.67634665874093
 20
22.88309460846408
 42
0.0
 10
33.80807678410916
 20
16.96690667213019
 42
-0.3272098845219541
 10
33.3074458849137
 20
16.60000064029711
 42
0.0
 10
33.16721172142524
 20
16.60000064029711
 42
-0.4142135623731526
 10
32.64221172142515
 20
17.1250006402971
 42
0.0
 10
32.64221172142515
 20
22.72500064029713
 42
0.4142135623730951
 10
32.11721172142517
 20
23.25000064029711
 42
0.0
 10
30.36721172142506
 20
23.25000064029711
 42
0.4142135623730871
 10
29.84221172142508
 20
22.72500064029713
 42
0.0
 10
29.84221172142508
 20
7.675000640297109
 42
0.4142135623730891
 10
30.36721172142506
 20
7.150000640297121
 42
0.0
 10
32.11721172142506
 20
7.150000640297121
 42
0.4142135623731526
 10
32.64221172142515
 20
7.675000640297109
 42
0.0
 10
32.64221172142515
 20
13.27500064029712
 42
-0.4142135623731526
 10
33.16721172142524
 20
13.80000064029711
 42
0.0
 10
33.3074458849138
 20
13.80000064029711
 42
-0.3272098845218915
 10
33.80807678410916
 20
13.43309460846404
 42
0.0
 10
35.67634665874093
 20
7.516906672130193
 42
0.3272098845218902
 10
36.1769775579363
 20
7.150000640297121
 42
0.0
 10
37.87586693754553
 20
7.150000640297121
 42
0.5069206636600336
 10
38.3764978367409
 20
7.833094608464129
 42
0.0
 10
36.05010645826722
 20
15.20000064029725
 42
0.0
 97
        0
 92
        7
 72
     1
 73
     1
 93
        8
 10
43.49221172142504
 20
22.72500064029713
 42
0.4142135623731546
 10
42.96721172142496
 20
23.25000064029711
 42
0.0
 10
41.2172117214252
 20
23.25000064029711
 42
0.4142135623731507
 10
40.6922117214251
 20
22.72500064029713
 42
0.0
 10
40.6922117214251
 20
7.675000640297109
 42
0.4142135623731526
 10
41.2172117214252
 20
7.150000640297121
 42
0.0
 10
42.96721172142496
 20
7.150000640297121
 42
0.4142135623731526
 10
43.49221172142504
 20
7.675000640297109
 42
0.0
 97
        0
 92
        7
 72
     1
 73
     1
 93
       24
 10
48.39221172142515
 20
19.92500064029712
 42
-0.4142135623731546
 10
48.91721172142524
 20
20.45000064029711
 42
0.0
 10
51.89221172142515
 20
20.45000064029711
 42
0.4142135623730911
 10
52.41721172142511
 20
20.97500064029711
 42
0.0
 10
52.41721172142511
 20
22.72500064029713
 42
0.4142135623730952
 10
51.89221172142515
 20
23.25000064029711
 42
0.0
 10
48.39221172142515
 20
23.25000064029711
 42
0.4142135623731048
 10
45.5922117214251
 20
20.45000064029714
 42
0.0
 10
45.5922117214251
 20
18.63479861494187
 42
0.1989123673796613
 10
46.82236324044162
 20
15.66495013395832
 42
0.0
 10
49.7321612150863
 20
12.75515215931365
 42
-0.1989123673796402
 10
50.14221172142515
 20
11.76520266565258
 42
0.0
 10
50.14221172142515
 20
10.4750006402971
 42
-0.4142135623730911
 10
49.61721172142517
 20
9.950000640297118
 42
0.0
 10
46.64221172142515
 20
9.950000640297118
 42
0.4142135623731526
 10
46.11721172142507
 20
9.425000640297126
 42
0.0
 10
46.11721172142507
 20
7.675000640297109
 42
0.4142135623730891
 10
46.64221172142504
 20
7.150000640297121
 42
0.0
 10
50.14221172142515
 20
7.150000640297121
 42
0.4142135623730925
 10
52.9422117214251
 20
9.950000640297098
 42
0.0
 10
52.9422117214251
 20
11.76520266565236
 42
0.1989123673796675
 10
51.71206020240856
 20
14.73505114663602
 42
0.0
 10
48.802262227764
 20
17.64484912128053
 42
-0.1989123673796652
 10
48.39221172142515
 20
18.6347986149417
 42
0.0
 97
        0
 92
        7
 72
     1
 73
     1
 93
       16
 10
57.84221172142507
 20
22.7250006402971
 42
0.414213562373103
 10
57.3172117214251
 20
23.25000064029711
 42
0.0
 10
55.5672117214251
 20
23.25000064029711
 42
0.4142135623730871
 10
55.04221172142511
 20
22.72500064029713
 42
0.0
 10
55.04221172142511
 20
9.950000640297098
 42
0.4142135623730927
 10
57.84221172142507
 20
7.150000640297121
 42
0.0
 10
61.3422117214251
 20
7.150000640297121
 42
0.4142135623731045
 10
64.14221172142516
 20
9.950000640297098
 42
0.0
 10
64.14221172142516
 20
22.72500064029713
 42
0.4142135623730951
 10
63.61721172142518
 20
23.25000064029711
 42
0.0
 10
61.86721172142507
 20
23.25000064029711
 42
0.4142135623730871
 10
61.3422117214251
 20
22.72500064029713
 42
0.0
 10
61.3422117214251
 20
11.00000064029709
 42
-0.4142135623730879
 10
60.29221172142513
 20
9.950000640297118
 42
0.0
 10
58.89221172142515
 20
9.950000640297118
 42
-0.4142135623731197
 10
57.84221172142507
 20
11.00000064029709
 42
0.0
 97
        0
 92
        7
 72
     1
 73
     1
 93
        8
 10
69.04221172142513
 20
22.72500064029713
 42
0.4142135623730871
 10
68.51721172142516
 20
23.25000064029711
 42
0.0
 10
66.76721172142516
 20
23.25000064029711
 42
0.4142135623731507
 10
66.24221172142507
 20
22.72500064029713
 42
0.0
 10
66.24221172142507
 20
7.675000640297109
 42
0.4142135623730891
 10
66.76721172142504
 20
7.150000640297121
 42
0.0
 10
68.51721172142516
 20
7.150000640297121
 42
0.4142135623730891
 10
69.04221172142513
 20
7.675000640297109
 42
0.0
 97
        0
 75
     0
 76
     1
 52
0.0
 41
0.2
 77
     0
 78
     2
 53
45.0
 43
-900.9423047680352
 44
-13.1999993597028
 45
-0.4490128060534576
 46
0.4490128060534577
 79
     0
 53
135.0
 43
-900.9423047680352
 44
-13.1999993597028
 45
-0.4490128060534577
 46
-0.4490128060534576
 79
     0
 47
0.057451373970553
 98
        8
 10
16.07985452966726
 20
15.16717428618266
 10
22.40451457308314
 20
18.84406282274812
 10
25.16436745230361
 20
15.51188228636783
 10
30.91405954828109
 20
16.20129828673861
 10
41.83847158560069
 20
16.66091055428023
 10
46.89820046177351
 20
19.41857695670432
 10
56.55768553904429
 20
18.72915855539212
 10
67.8270791862667
 20
19.18877082293374
  0
ARC
  5
161D
330
1A
100
AcDbEntity
  8
ZUWAKU
100
AcDbCircle
 10
15.49221172142506
 20
18.63479861494181
 30
0.0
 40
4.199999999999998
100
AcDbArc
 50
180.0
 51
225.0
  0
LINE
  5
161E
330
1A
100
AcDbEntity
  8
ZUWAKU
100
AcDbLine
 10
20.74221172142505
 20
11.35000064029712
 30
0.0
 11
20.74221172142505
 21
19.05000064029707
 31
0.0
  0
LINE
  5
161F
330
1A
100
AcDbEntity
  8
ZUWAKU
100
AcDbLine
 10
23.54221172142512
 20
19.05000064029711
 30
0.0
 11
23.54221172142512
 21
11.35000064029712
 31
0.0
  0
ARC
  5
1620
330
1A
100
AcDbEntity
  8
ZUWAKU
100
AcDbCircle
 10
15.49221172142506
 20
18.63479861494181
 30
0.0
 40
1.399999999999999
100
AcDbArc
 50
180.0000000000015
 51
224.9999999999988
  0
ARC
  5
1621
330
1A
100
AcDbEntity
  8
ZUWAKU
100
AcDbCircle
 10
24.9422117214251
 20
11.35000064029712
 30
0.0
 40
4.199999999999998
100
AcDbArc
 50
180.0
 51
270.0
  0
ARC
  5
1622
330
1A
100
AcDbEntity
  8
ZUWAKU
100
AcDbCircle
 10
15.84221172142508
 20
9.950000640297118
 30
0.0
 40
2.799999999999998
100
AcDbArc
 50
270.0
 51
0.0
  0
ARC
  5
1623
330
1A
100
AcDbEntity
  8
ZUWAKU
100
AcDbCircle
 10
14.4422117214251
 20
11.76520266565242
 30
0.0
 40
4.199999999999998
100
AcDbArc
 50
0.0
 51
45.0
  0
LINE
  5
1624
330
1A
100
AcDbEntity
  8
ZUWAKU
100
AcDbLine
 10
12.52236324044155
 20
15.66495013395829
 30
0.0
 11
15.43216121508623
 21
12.75515215931363
 31
0.0
  0
LINE
  5
1625
330
1A
100
AcDbEntity
  8
ZUWAKU
100
AcDbLine
 10
12.34221172142508
 20
9.950000640297118
 30
0.0
 11
15.3172117214251
 21
9.950000640297118
 31
0.0
  0
LINE
  5
1626
330
1A
100
AcDbEntity
  8
ZUWAKU
100
AcDbLine
 10
12.34221172142508
 20
7.150000640297121
 30
0.0
 11
15.84221172142508
 21
7.150000640297121
 31
0.0
  0
ARC
  5
1627
330
1A
100
AcDbEntity
  8
ZUWAKU
100
AcDbCircle
 10
12.34221172142508
 20
9.425000640297119
 30
0.0
 40
0.525
100
AcDbArc
 50
90.0
 51
180.0
  0
ARC
  5
1628
330
1A
100
AcDbEntity
  8
ZUWAKU
100
AcDbCircle
 10
12.34221172142508
 20
7.67500064029712
 30
0.0
 40
0.525
100
AcDbArc
 50
180.0
 51
270.0
  0
LINE
  5
1629
330
1A
100
AcDbEntity
  8
ZUWAKU
100
AcDbLine
 10
11.8172117214251
 20
7.67500064029712
 30
0.0
 11
11.8172117214251
 21
9.425000640297119
 31
0.0
  0
ARC
  5
162A
330
1A
100
AcDbEntity
  8
ZUWAKU
100
AcDbCircle
 10
14.4422117214251
 20
11.76520266565246
 30
0.0
 40
1.399999999999999
100
AcDbArc
 50
0.0
 51
45.0
  0
ARC
  5
162B
330
1A
100
AcDbEntity
  8
ZUWAKU
100
AcDbCircle
 10
15.3172117214251
 20
10.47500064029712
 30
0.0
 40
0.525
100
AcDbArc
 50
270.0
 51
0.0
  0
LINE
  5
162C
330
1A
100
AcDbEntity
  8
ZUWAKU
100
AcDbLine
 10
15.84221172142508
 20
10.47500064029712
 30
0.0
 11
15.84221172142508
 21
11.76520266565246
 31
0.0
  0
LINE
  5
162D
330
1A
100
AcDbEntity
  8
ZUWAKU
100
AcDbLine
 10
17.4120602024086
 20
14.73505114663594
 30
0.0
 11
14.50226222776392
 21
17.64484912128061
 31
0.0
  0
ARC
  5
162E
330
1A
100
AcDbEntity
  8
ZUWAKU
100
AcDbCircle
 10
24.9422117214251
 20
11.35000064029712
 30
0.0
 40
1.399999999999999
100
AcDbArc
 50
180.0
 51
270.0
  0
LINE
  5
162F
330
1A
100
AcDbEntity
  8
ZUWAKU
100
AcDbLine
 10
18.64221172142515
 20
9.950000640297118
 30
0.0
 11
18.64221172142515
 21
11.76520266565246
 31
0.0
  0
ARC
  5
1630
330
1A
100
AcDbEntity
  8
ZUWAKU
100
AcDbCircle
 10
17.59221172142508
 20
20.97500064029711
 30
0.0
 40
0.525
100
AcDbArc
 50
270.0
 51
0.0
  0
ARC
  5
1631
330
1A
100
AcDbEntity
  8
ZUWAKU
100
AcDbCircle
 10
17.59221172142508
 20
22.72500064029711
 30
0.0
 40
0.525
100
AcDbArc
 50
0.0
 51
90.0
  0
ARC
  5
1632
330
1A
100
AcDbEntity
  8
ZUWAKU
100
AcDbCircle
 10
14.09221172142508
 20
20.45000064029711
 30
0.0
 40
2.799999999999998
100
AcDbArc
 50
90.0
 51
180.0
  0
LINE
  5
1633
330
1A
100
AcDbEntity
  8
ZUWAKU
100
AcDbLine
 10
11.29221172142512
 20
20.45000064029711
 30
0.0
 11
11.29221172142512
 21
18.63479861494177
 31
0.0
  0
LINE
  5
1634
330
1A
100
AcDbEntity
  8
ZUWAKU
100
AcDbLine
 10
17.59221172142508
 20
20.45000064029711
 30
0.0
 11
14.61721172142505
 21
20.45000064029711
 31
0.0
  0
LINE
  5
1635
330
1A
100
AcDbEntity
  8
ZUWAKU
100
AcDbLine
 10
14.09221172142508
 20
19.92500064029711
 30
0.0
 11
14.09221172142508
 21
18.63479861494177
 31
0.0
  0
ARC
  5
1636
330
1A
100
AcDbEntity
  8
ZUWAKU
100
AcDbCircle
 10
14.61721172142505
 20
19.92500064029711
 30
0.0
 40
0.525
100
AcDbArc
 50
90.0
 51
180.0
  0
LINE
  5
1637
330
1A
100
AcDbEntity
  8
ZUWAKU
100
AcDbLine
 10
14.09221172142508
 20
23.25000064029711
 30
0.0
 11
17.59221172142508
 21
23.25000064029711
 31
0.0
  0
ARC
  5
1638
330
1A
100
AcDbEntity
  8
ZUWAKU
100
AcDbCircle
 10
24.9422117214251
 20
19.05000064029707
 30
0.0
 40
4.199999999999998
100
AcDbArc
 50
90.0
 51
180.0
  0
ARC
  5
1639
330
1A
100
AcDbEntity
  8
ZUWAKU
100
AcDbCircle
 10
24.9422117214251
 20
19.05000064029711
 30
0.0
 40
1.399999999999999
100
AcDbArc
 50
90.0
 51
180.0
  0
LINE
  5
163A
330
1A
100
AcDbEntity
  8
ZUWAKU
100
AcDbLine
 10
18.11721172142506
 20
22.72500064029711
 30
0.0
 11
18.11721172142506
 21
20.97500064029711
 31
0.0
  0
LINE
  5
163B
330
1A
100
AcDbEntity
  8
ZUWAKU
100
AcDbLine
 10
35.67634665874093
 20
22.88309460846408
 30
0.0
 11
33.80807678410916
 21
16.96690667213014
 31
0.0
  0
LINE
  5
163C
330
1A
100
AcDbEntity
  8
ZUWAKU
100
AcDbLine
 10
29.84221172142508
 20
22.72500064029711
 30
0.0
 11
29.84221172142508
 21
7.67500064029712
 31
0.0
  0
LINE
  5
163D
330
1A
100
AcDbEntity
  8
ZUWAKU
100
AcDbLine
 10
32.64221172142515
 20
17.12500064029712
 30
0.0
 11
32.64221172142515
 21
22.72500064029711
 31
0.0
  0
LINE
  5
163E
330
1A
100
AcDbEntity
  8
ZUWAKU
100
AcDbLine
 10
57.84221172142507
 20
11.00000064029711
 30
0.0
 11
57.84221172142507
 21
22.72500064029711
 31
0.0
  0
LINE
  5
163F
330
1A
100
AcDbEntity
  8
ZUWAKU
100
AcDbLine
 10
55.04221172142511
 20
22.72500064029711
 30
0.0
 11
55.04221172142511
 21
9.950000640297118
 31
0.0
  0
LINE
  5
1640
330
1A
100
AcDbEntity
  8
ZUWAKU
100
AcDbLine
 10
43.49221172142504
 20
7.67500064029712
 30
0.0
 11
43.49221172142504
 21
22.72500064029711
 31
0.0
  0
LINE
  5
1641
330
1A
100
AcDbEntity
  8
ZUWAKU
100
AcDbLine
 10
40.6922117214251
 20
22.72500064029711
 30
0.0
 11
40.6922117214251
 21
7.67500064029712
 31
0.0
  0
LINE
  5
1642
330
1A
100
AcDbEntity
  8
ZUWAKU
100
AcDbLine
 10
37.31485820360308
 20
19.20504783386054
 30
0.0
 11
36.05010645826722
 21
15.20000064029713
 31
0.0
  0
ARC
  5
1643
330
1A
100
AcDbEntity
  8
ZUWAKU
100
AcDbCircle
 10
49.79221172142511
 20
18.63479861494181
 30
0.0
 40
4.199999999999998
100
AcDbArc
 50
180.0
 51
225.0
  0
ARC
  5
1644
330
1A
100
AcDbEntity
  8
ZUWAKU
100
AcDbCircle
 10
49.79221172142511
 20
18.63479861494181
 30
0.0
 40
1.399999999999999
100
AcDbArc
 50
180.0000000000015
 51
224.9999999999988
  0
LINE
  5
1645
330
1A
100
AcDbEntity
  8
ZUWAKU
100
AcDbLine
 10
66.24221172142507
 20
22.72500064029711
 30
0.0
 11
66.24221172142507
 21
7.67500064029712
 31
0.0
  0
LINE
  5
1646
330
1A
100
AcDbEntity
  8
ZUWAKU
100
AcDbLine
 10
69.04221172142513
 20
7.67500064029712
 30
0.0
 11
69.04221172142513
 21
22.72500064029711
 31
0.0
  0
LINE
  5
1647
330
1A
100
AcDbEntity
  8
ZUWAKU
100
AcDbLine
 10
61.3422117214251
 20
22.72500064029711
 30
0.0
 11
61.3422117214251
 21
11.00000064029711
 31
0.0
  0
LINE
  5
1648
330
1A
100
AcDbEntity
  8
ZUWAKU
100
AcDbLine
 10
64.14221172142516
 20
9.950000640297118
 30
0.0
 11
64.14221172142516
 21
22.72500064029711
 31
0.0
  0
LINE
  5
1649
330
1A
100
AcDbEntity
  8
ZUWAKU
100
AcDbLine
 10
79.12662911463234
 20
30.00000064029711
 30
0.0
 11
79.12662911463234
 21
0.8000006402971848
 31
0.0
  0
LINE
  5
164A
330
1A
100
AcDbEntity
  8
ZUWAKU
100
AcDbLine
 10
79.5266291146322
 20
30.00000064029711
 30
0.0
 11
79.52662911463243
 21
0.8000006402971848
 31
0.0
  0
LINE
  5
164B
330
1A
100
AcDbEntity
  8
ZUWAKU
100
AcDbLine
 10
79.32662911463217
 20
30.00000064029711
 30
0.0
 11
79.32662911463238
 21
0.8000006402971848
 31
0.0
  0
LINE
  5
164C
330
1A
100
AcDbEntity
  8
ZUWAKU
100
AcDbLine
 10
57.84221172142507
 20
7.150000640297121
 30
0.0
 11
61.3422117214251
 21
7.150000640297121
 31
0.0
  0
LINE
  5
164D
330
1A
100
AcDbEntity
  8
ZUWAKU
100
AcDbLine
 10
60.29221172142513
 20
9.950000640297118
 30
0.0
 11
58.89221172142515
 21
9.950000640297118
 31
0.0
  0
LINE
  5
164E
330
1A
100
AcDbEntity
  8
ZUWAKU
100
AcDbLine
 10
41.2172117214251
 20
7.150000640297121
 30
0.0
 11
42.96721172142507
 21
7.150000640297121
 31
0.0
  0
LINE
  5
164F
330
1A
100
AcDbEntity
  8
ZUWAKU
100
AcDbLine
 10
35.67634665874093
 20
7.516906672130146
 30
0.0
 11
33.80807678410916
 21
13.43309460846408
 31
0.0
  0
ARC
  5
1650
330
1A
100
AcDbEntity
  8
ZUWAKU
100
AcDbCircle
 10
33.16721172142513
 20
13.27500064029711
 30
0.0
 40
0.525
100
AcDbArc
 50
90.0
 51
180.0
  0
ARC
  5
1651
330
1A
100
AcDbEntity
  8
ZUWAKU
100
AcDbCircle
 10
33.3074458849138
 20
13.27500064029711
 30
0.0
 40
0.525
100
AcDbArc
 50
17.52556837372303
 51
90.0
  0
ARC
  5
1652
330
1A
100
AcDbEntity
  8
ZUWAKU
100
AcDbCircle
 10
30.36721172142506
 20
7.67500064029712
 30
0.0
 40
0.525
100
AcDbArc
 50
180.0
 51
270.0
  0
ARC
  5
1653
330
1A
100
AcDbEntity
  8
ZUWAKU
100
AcDbCircle
 10
26.86721172142506
 20
9.425000640297119
 30
0.0
 40
0.525
100
AcDbArc
 50
0.0
 51
90.0
  0
ARC
  5
1654
330
1A
100
AcDbEntity
  8
ZUWAKU
100
AcDbCircle
 10
26.86721172142506
 20
7.67500064029712
 30
0.0
 40
0.525
100
AcDbArc
 50
270.0
 51
0.0
  0
LINE
  5
1655
330
1A
100
AcDbEntity
  8
ZUWAKU
100
AcDbLine
 10
27.39221172142515
 20
9.425000640297119
 30
0.0
 11
27.39221172142515
 21
7.67500064029712
 31
0.0
  0
LINE
  5
1656
330
1A
100
AcDbEntity
  8
ZUWAKU
100
AcDbLine
 10
32.64221172142515
 20
7.67500064029712
 30
0.0
 11
32.64221172142515
 21
13.27500064029711
 31
0.0
  0
ARC
  5
1657
330
1A
100
AcDbEntity
  8
ZUWAKU
100
AcDbCircle
 10
32.11721172142506
 20
7.67500064029712
 30
0.0
 40
0.525
100
AcDbArc
 50
270.0
 51
0.0
  0
LINE
  5
1658
330
1A
100
AcDbEntity
  8
ZUWAKU
100
AcDbLine
 10
30.36721172142506
 20
7.150000640297121
 30
0.0
 11
32.11721172142506
 21
7.150000640297121
 31
0.0
  0
ARC
  5
1659
330
1A
100
AcDbEntity
  8
ZUWAKU
100
AcDbCircle
 10
33.16721172142513
 20
17.12500064029712
 30
0.0
 40
0.525
100
AcDbArc
 50
180.0
 51
270.0
  0
LINE
  5
165A
330
1A
100
AcDbEntity
  8
ZUWAKU
100
AcDbLine
 10
33.16721172142513
 20
13.80000064029711
 30
0.0
 11
33.3074458849138
 21
13.80000064029711
 31
0.0
  0
LINE
  5
165B
330
1A
100
AcDbEntity
  8
ZUWAKU
100
AcDbLine
 10
33.3074458849138
 20
16.60000064029711
 30
0.0
 11
33.16721172142513
 21
16.60000064029711
 31
0.0
  0
ARC
  5
165C
330
1A
100
AcDbEntity
  8
ZUWAKU
100
AcDbCircle
 10
33.3074458849138
 20
17.12500064029712
 30
0.0
 40
0.525
100
AcDbArc
 50
270.0
 51
342.474431626277
  0
ARC
  5
165D
330
1A
100
AcDbEntity
  8
ZUWAKU
100
AcDbCircle
 10
36.17697755793642
 20
7.67500064029712
 30
0.0
 40
0.525
100
AcDbArc
 50
197.5255683737229
 51
270.0
  0
LINE
  5
165E
330
1A
100
AcDbEntity
  8
ZUWAKU
100
AcDbLine
 10
38.3764978367409
 20
7.833094608464093
 30
0.0
 11
36.05010645826722
 21
15.20000064029713
 31
0.0
  0
ARC
  5
165F
330
1A
100
AcDbEntity
  8
ZUWAKU
100
AcDbCircle
 10
37.87586693754543
 20
7.67500064029712
 30
0.0
 40
0.525
100
AcDbArc
 50
270.0
 51
17.52556837372303
  0
LINE
  5
1660
330
1A
100
AcDbEntity
  8
ZUWAKU
100
AcDbLine
 10
36.17697755793642
 20
7.150000640297121
 30
0.0
 11
37.87586693754543
 21
7.150000640297121
 31
0.0
  0
ARC
  5
1661
330
1A
100
AcDbEntity
  8
ZUWAKU
100
AcDbCircle
 10
41.2172117214251
 20
7.67500064029712
 30
0.0
 40
0.525
100
AcDbArc
 50
180.0
 51
270.0
  0
ARC
  5
1662
330
1A
100
AcDbEntity
  8
ZUWAKU
100
AcDbCircle
 10
50.14221172142515
 20
9.950000640297118
 30
0.0
 40
2.799999999999998
100
AcDbArc
 50
270.0
 51
0.0
  0
ARC
  5
1663
330
1A
100
AcDbEntity
  8
ZUWAKU
100
AcDbCircle
 10
57.84221172142507
 20
9.950000640297118
 30
0.0
 40
2.799999999999998
100
AcDbArc
 50
180.0
 51
270.0
  0
LINE
  5
1664
330
1A
100
AcDbEntity
  8
ZUWAKU
100
AcDbLine
 10
51.71206020240868
 20
14.73505114663594
 30
0.0
 11
48.80226222776389
 21
17.64484912128061
 31
0.0
  0
LINE
  5
1665
330
1A
100
AcDbEntity
  8
ZUWAKU
100
AcDbLine
 10
46.82236324044162
 20
15.66495013395829
 30
0.0
 11
49.7321612150863
 21
12.75515215931363
 31
0.0
  0
LINE
  5
1666
330
1A
100
AcDbEntity
  8
ZUWAKU
100
AcDbLine
 10
46.64221172142515
 20
7.150000640297121
 30
0.0
 11
50.14221172142515
 21
7.150000640297121
 31
0.0
  0
LINE
  5
1667
330
1A
100
AcDbEntity
  8
ZUWAKU
100
AcDbLine
 10
46.64221172142515
 20
9.950000640297118
 30
0.0
 11
49.61721172142507
 21
9.950000640297118
 31
0.0
  0
ARC
  5
1668
330
1A
100
AcDbEntity
  8
ZUWAKU
100
AcDbCircle
 10
46.64221172142515
 20
9.425000640297119
 30
0.0
 40
0.525
100
AcDbArc
 50
90.0
 51
180.0
  0
ARC
  5
1669
330
1A
100
AcDbEntity
  8
ZUWAKU
100
AcDbCircle
 10
42.96721172142507
 20
7.67500064029712
 30
0.0
 40
0.525
100
AcDbArc
 50
270.0
 51
0.0
  0
ARC
  5
166A
330
1A
100
AcDbEntity
  8
ZUWAKU
100
AcDbCircle
 10
46.64221172142515
 20
7.67500064029712
 30
0.0
 40
0.525
100
AcDbArc
 50
180.0
 51
270.0
  0
LINE
  5
166B
330
1A
100
AcDbEntity
  8
ZUWAKU
100
AcDbLine
 10
46.11721172142507
 20
7.67500064029712
 30
0.0
 11
46.11721172142507
 21
9.425000640297119
 31
0.0
  0
ARC
  5
166C
330
1A
100
AcDbEntity
  8
ZUWAKU
100
AcDbCircle
 10
49.61721172142507
 20
10.47500064029712
 30
0.0
 40
0.525
100
AcDbArc
 50
270.0
 51
0.0
  0
ARC
  5
166D
330
1A
100
AcDbEntity
  8
ZUWAKU
100
AcDbCircle
 10
48.74221172142507
 20
11.76520266565246
 30
0.0
 40
1.399999999999999
100
AcDbArc
 50
0.0
 51
45.0
  0
LINE
  5
166E
330
1A
100
AcDbEntity
  8
ZUWAKU
100
AcDbLine
 10
50.14221172142515
 20
10.47500064029712
 30
0.0
 11
50.14221172142515
 21
11.76520266565246
 31
0.0
  0
ARC
  5
166F
330
1A
100
AcDbEntity
  8
ZUWAKU
100
AcDbCircle
 10
58.89221172142515
 20
11.00000064029711
 30
0.0
 40
1.049999999999998
100
AcDbArc
 50
180.0
 51
270.0
  0
ARC
  5
1670
330
1A
100
AcDbEntity
  8
ZUWAKU
100
AcDbCircle
 10
48.74221172142507
 20
11.76520266565242
 30
0.0
 40
4.199999999999998
100
AcDbArc
 50
0.0
 51
45.0
  0
LINE
  5
1671
330
1A
100
AcDbEntity
  8
ZUWAKU
100
AcDbLine
 10
52.9422117214251
 20
9.950000640297118
 30
0.0
 11
52.9422117214251
 21
11.76520266565246
 31
0.0
  0
ARC
  5
1672
330
1A
100
AcDbEntity
  8
ZUWAKU
100
AcDbCircle
 10
61.3422117214251
 20
9.950000640297118
 30
0.0
 40
2.799999999999998
100
AcDbArc
 50
270.0
 51
0.0
  0
LINE
  5
1673
330
1A
100
AcDbEntity
  8
ZUWAKU
100
AcDbLine
 10
66.76721172142516
 20
7.150000640297121
 30
0.0
 11
68.51721172142516
 21
7.150000640297121
 31
0.0
  0
ARC
  5
1674
330
1A
100
AcDbEntity
  8
ZUWAKU
100
AcDbCircle
 10
60.29221172142513
 20
11.00000064029711
 30
0.0
 40
1.049999999999998
100
AcDbArc
 50
270.0
 51
0.0
  0
ARC
  5
1675
330
1A
100
AcDbEntity
  8
ZUWAKU
100
AcDbCircle
 10
66.76721172142516
 20
7.67500064029712
 30
0.0
 40
0.525
100
AcDbArc
 50
180.0
 51
270.0
  0
ARC
  5
1676
330
1A
100
AcDbEntity
  8
ZUWAKU
100
AcDbCircle
 10
68.51721172142516
 20
7.67500064029712
 30
0.0
 40
0.525
100
AcDbArc
 50
270.0
 51
0.0
  0
LINE
  5
1677
330
1A
100
AcDbEntity
  8
ZUWAKU
100
AcDbLine
 10
42.96721172142507
 20
23.25000064029711
 30
0.0
 11
41.2172117214251
 21
23.25000064029711
 31
0.0
  0
LINE
  5
1678
330
1A
100
AcDbEntity
  8
ZUWAKU
100
AcDbLine
 10
27.39221172142515
 20
22.72500064029711
 30
0.0
 11
27.39221172142515
 21
20.97500064029711
 31
0.0
  0
ARC
  5
1679
330
1A
100
AcDbEntity
  8
ZUWAKU
100
AcDbCircle
 10
26.86721172142506
 20
20.97500064029711
 30
0.0
 40
0.525
100
AcDbArc
 50
270.0
 51
0.0
  0
ARC
  5
167A
330
1A
100
AcDbEntity
  8
ZUWAKU
100
AcDbCircle
 10
30.36721172142506
 20
22.72500064029711
 30
0.0
 40
0.525
100
AcDbArc
 50
90.0
 51
180.0
  0
ARC
  5
167B
330
1A
100
AcDbEntity
  8
ZUWAKU
100
AcDbCircle
 10
26.86721172142506
 20
22.72500064029711
 30
0.0
 40
0.525
100
AcDbArc
 50
0.0
 51
90.0
  0
LINE
  5
167C
330
1A
100
AcDbEntity
  8
ZUWAKU
100
AcDbLine
 10
32.11721172142506
 20
23.25000064029711
 30
0.0
 11
30.36721172142506
 21
23.25000064029711
 31
0.0
  0
ARC
  5
167D
330
1A
100
AcDbEntity
  8
ZUWAKU
100
AcDbCircle
 10
32.11721172142506
 20
22.72500064029711
 30
0.0
 40
0.525
100
AcDbArc
 50
0.0
 51
90.0
  0
ARC
  5
167E
330
1A
100
AcDbEntity
  8
ZUWAKU
100
AcDbCircle
 10
36.17697755793642
 20
22.72500064029711
 30
0.0
 40
0.525
100
AcDbArc
 50
90.0
 51
162.4744316262769
  0
LINE
  5
167F
330
1A
100
AcDbEntity
  8
ZUWAKU
100
AcDbLine
 10
38.3764978367409
 20
22.56690667213014
 30
0.0
 11
37.31485820360308
 21
19.20504783386054
 31
0.0
  0
ARC
  5
1680
330
1A
100
AcDbEntity
  8
ZUWAKU
100
AcDbCircle
 10
37.87586693754543
 20
22.72500064029711
 30
0.0
 40
0.525
100
AcDbArc
 50
342.474431626277
 51
90.0
  0
LINE
  5
1681
330
1A
100
AcDbEntity
  8
ZUWAKU
100
AcDbLine
 10
36.17697755793642
 20
23.25000064029711
 30
0.0
 11
37.87586693754543
 21
23.25000064029711
 31
0.0
  0
ARC
  5
1682
330
1A
100
AcDbEntity
  8
ZUWAKU
100
AcDbCircle
 10
41.2172117214251
 20
22.72500064029711
 30
0.0
 40
0.525
100
AcDbArc
 50
90.0
 51
180.0
  0
LINE
  5
1683
330
1A
100
AcDbEntity
  8
ZUWAKU
100
AcDbLine
 10
51.89221172142515
 20
20.45000064029711
 30
0.0
 11
48.91721172142513
 21
20.45000064029711
 31
0.0
  0
LINE
  5
1684
330
1A
100
AcDbEntity
  8
ZUWAKU
100
AcDbLine
 10
48.39221172142515
 20
23.25000064029711
 30
0.0
 11
51.89221172142515
 21
23.25000064029711
 31
0.0
  0
ARC
  5
1685
330
1A
100
AcDbEntity
  8
ZUWAKU
100
AcDbCircle
 10
48.39221172142515
 20
20.45000064029711
 30
0.0
 40
2.799999999999998
100
AcDbArc
 50
90.0
 51
180.0
  0
LINE
  5
1686
330
1A
100
AcDbEntity
  8
ZUWAKU
100
AcDbLine
 10
45.5922117214251
 20
20.45000064029711
 30
0.0
 11
45.5922117214251
 21
18.63479861494177
 31
0.0
  0
ARC
  5
1687
330
1A
100
AcDbEntity
  8
ZUWAKU
100
AcDbCircle
 10
42.96721172142507
 20
22.72500064029711
 30
0.0
 40
0.525
100
AcDbArc
 50
0.0
 51
90.0
  0
LINE
  5
1688
330
1A
100
AcDbEntity
  8
ZUWAKU
100
AcDbLine
 10
48.39221172142515
 20
19.92500064029711
 30
0.0
 11
48.39221172142515
 21
18.63479861494177
 31
0.0
  0
ARC
  5
1689
330
1A
100
AcDbEntity
  8
ZUWAKU
100
AcDbCircle
 10
48.91721172142513
 20
19.92500064029711
 30
0.0
 40
0.525
100
AcDbArc
 50
90.0
 51
180.0
  0
LINE
  5
168A
330
1A
100
AcDbEntity
  8
ZUWAKU
100
AcDbLine
 10
52.41721172142511
 20
22.72500064029711
 30
0.0
 11
52.41721172142511
 21
20.97500064029711
 31
0.0
  0
ARC
  5
168B
330
1A
100
AcDbEntity
  8
ZUWAKU
100
AcDbCircle
 10
51.89221172142515
 20
20.97500064029711
 30
0.0
 40
0.525
100
AcDbArc
 50
270.0
 51
0.0
  0
ARC
  5
168C
330
1A
100
AcDbEntity
  8
ZUWAKU
100
AcDbCircle
 10
51.89221172142515
 20
22.72500064029711
 30
0.0
 40
0.525
100
AcDbArc
 50
0.0
 51
90.0
  0
LINE
  5
168D
330
1A
100
AcDbEntity
  8
ZUWAKU
100
AcDbLine
 10
57.3172117214251
 20
23.25000064029711
 30
0.0
 11
55.5672117214251
 21
23.25000064029711
 31
0.0
  0
ARC
  5
168E
330
1A
100
AcDbEntity
  8
ZUWAKU
100
AcDbCircle
 10
55.5672117214251
 20
22.72500064029711
 30
0.0
 40
0.525
100
AcDbArc
 50
90.0
 51
180.0
  0
ARC
  5
168F
330
1A
100
AcDbEntity
  8
ZUWAKU
100
AcDbCircle
 10
57.3172117214251
 20
22.72500064029711
 30
0.0
 40
0.525
100
AcDbArc
 50
0.0
 51
90.0
  0
LINE
  5
1690
330
1A
100
AcDbEntity
  8
ZUWAKU
100
AcDbLine
 10
68.51721172142516
 20
23.25000064029711
 30
0.0
 11
66.76721172142516
 21
23.25000064029711
 31
0.0
  0
ARC
  5
1691
330
1A
100
AcDbEntity
  8
ZUWAKU
100
AcDbCircle
 10
61.86721172142507
 20
22.72500064029711
 30
0.0
 40
0.525
100
AcDbArc
 50
90.0
 51
180.0
  0
LINE
  5
1692
330
1A
100
AcDbEntity
  8
ZUWAKU
100
AcDbLine
 10
63.61721172142507
 20
23.25000064029711
 30
0.0
 11
61.86721172142507
 21
23.25000064029711
 31
0.0
  0
ARC
  5
1693
330
1A
100
AcDbEntity
  8
ZUWAKU
100
AcDbCircle
 10
63.61721172142507
 20
22.72500064029711
 30
0.0
 40
0.525
100
AcDbArc
 50
0.0
 51
90.0
  0
ARC
  5
1694
330
1A
100
AcDbEntity
  8
ZUWAKU
100
AcDbCircle
 10
66.76721172142516
 20
22.72500064029711
 30
0.0
 40
0.525
100
AcDbArc
 50
90.0
 51
180.0
  0
ARC
  5
1695
330
1A
100
AcDbEntity
  8
ZUWAKU
100
AcDbCircle
 10
68.51721172142516
 20
22.72500064029711
 30
0.0
 40
0.525
100
AcDbArc
 50
0.0
 51
90.0
  0
TEXT
  5
1696
330
1A
100
AcDbEntity
  8
MOJI
100
AcDbText
 10
239.8272022474949
 20
3.204921697704537
 30
0.0
 40
5.599999999999998
  1
Σ９０－５－１０～４５（Ⅱ）
 41
0.9
  7
ｽﾀｲﾙ1
100
AcDbText
  0
TEXT
  5
1697
330
1A
100
AcDbEntity
  8
MOJI
100
AcDbText
 10
239.8272022474949
 20
18.0049216977045
 30
0.0
 40
5.599999999999998
  1
ブラケット正面打（吊）自在式
 41
0.9
  7
ｽﾀｲﾙ1
100
AcDbText
  0
LINE
  5
1698
330
1A
100
AcDbEntity
  8
ZUWAKU
100
AcDbLine
 10
208.4466008567116
 20
30.00000064029711
 30
0.0
 11
208.4466008567119
 21
0.8000006402971848
 31
0.0
  0
LINE
  5
1699
330
1A
100
AcDbEntity
  8
ZUWAKU
100
AcDbLine
 10
208.6466008567117
 20
30.00000064029711
 30
0.0
 11
208.6466008567119
 21
0.8000006402971848
 31
0.0
  0
LINE
  5
169A
330
1A
100
AcDbEntity
  8
ZUWAKU
100
AcDbLine
 10
208.2466008567118
 20
30.00000064029711
 30
0.0
 11
208.2466008567118
 21
0.8000006402971848
 31
0.0
  0
TEXT
  5
169B
330
1A
100
AcDbEntity
  8
ZUWAKU
100
AcDbText
 10
209.7240458789214
 20
9.655357178682735
 30
0.0
 40
4.0
  1
サイズ
 41
0.9
  7
ｽﾀｲﾙ1
100
AcDbText
  0
TEXT
  5
169C
330
1A
100
AcDbEntity
  8
ZUWAKU
100
AcDbText
 10
209.7240458789212
 20
24.05535717868269
 30
0.0
 40
4.0
  1
品名
 41
0.9
  7
ｽﾀｲﾙ1
100
AcDbText
  0
TEXT
  5
169D
330
1A
100
AcDbEntity
  8
ZUWAKU
100
AcDbText
 10
654.5120755663307
 20
18.0049216977045
 30
0.0
 40
5.599999999999998
  1
　　．　．　　
 41
0.9
  7
ｽﾀｲﾙ1
100
AcDbText
  0
LINE
  5
169E
330
1A
100
AcDbEntity
  8
ZUWAKU
100
AcDbLine
 10
648.8172020768482
 20
15.60000064029714
 30
0.0
 11
697.2490101151852
 21
15.60000064029714
 31
0.0
  0
LINE
  5
169F
330
1A
100
AcDbEntity
  8
ZUWAKU
100
AcDbLine
 10
648.8172020768483
 20
15.40000064029715
 30
0.0
 11
697.2490101151852
 21
15.40000064029714
 31
0.0
  0
LINE
  5
16A0
330
1A
100
AcDbEntity
  8
ZUWAKU
100
AcDbLine
 10
648.8172020768482
 20
15.20000064029714
 30
0.0
 11
697.2490101151852
 21
15.20000064029714
 31
0.0
  0
LINE
  5
16A1
330
1A
100
AcDbEntity
  8
ZUWAKU
100
AcDbLine
 10
505.1991790647847
 20
15.60000064029714
 30
0.0
 11
552.5269553327563
 21
15.60000064029714
 31
0.0
  0
LINE
  5
16A2
330
1A
100
AcDbEntity
  8
ZUWAKU
100
AcDbLine
 10
505.1991790647847
 20
15.40000064029714
 30
0.0
 11
552.5269553327563
 21
15.40000064029714
 31
0.0
  0
LINE
  5
16A3
330
1A
100
AcDbEntity
  8
ZUWAKU
100
AcDbLine
 10
505.1991790647847
 20
15.20000064029715
 30
0.0
 11
552.5269553327563
 21
15.20000064029715
 31
0.0
  0
LINE
  5
16A4
330
1A
100
AcDbEntity
  8
ZUWAKU
100
AcDbLine
 10
504.7991790647848
 20
30.00000064029711
 30
0.0
 11
504.7991790647848
 21
0.8000006402971848
 31
0.0
  0
LINE
  5
16A5
330
1A
100
AcDbEntity
  8
ZUWAKU
100
AcDbLine
 10
505.1991790647847
 20
30.00000064029711
 30
0.0
 11
505.1991790647851
 21
0.8000006402971848
 31
0.0
  0
LINE
  5
16A6
330
1A
100
AcDbEntity
  8
ZUWAKU
100
AcDbLine
 10
504.9991790647847
 20
30.00000064029711
 30
0.0
 11
504.9991790647849
 21
0.8000006402971848
 31
0.0
  0
TEXT
  5
16A7
330
1A
100
AcDbEntity
  8
MOJI
100
AcDbText
 10
528.0409075389568
 20
18.0049216977045
 30
0.0
 40
5.599999999999998
  1
Ａ３
 41
0.9
  7
ｽﾀｲﾙ1
100
AcDbText
  0
LINE
  5
16A8
330
1A
100
AcDbEntity
  8
ZUWAKU
100
AcDbLine
 10
447.4243635376352
 20
30.00000064029711
 30
0.0
 11
447.4243635376352
 21
0.8000006402971848
 31
0.0
  0
LINE
  5
16A9
330
1A
100
AcDbEntity
  8
ZUWAKU
100
AcDbLine
 10
447.8243635376351
 20
30.00000064029711
 30
0.0
 11
447.8243635376355
 21
0.8000006402971848
 31
0.0
  0
LINE
  5
16AA
330
1A
100
AcDbEntity
  8
ZUWAKU
100
AcDbLine
 10
447.6243635376351
 20
30.00000064029711
 30
0.0
 11
447.6243635376354
 21
0.8000006402971848
 31
0.0
  0
TEXT
  5
16AB
330
1A
100
AcDbEntity
  8
MOJI
100
AcDbText
 10
463.2464315576459
 20
11.94261836195709
 30
0.0
 40
5.599999999999998
  1
ＬＪ０６Ｔ
 41
0.9
  7
ｽﾀｲﾙ1
100
AcDbText
  0
TEXT
  5
16AC
330
1A
100
AcDbEntity
  8
ZUWAKU
100
AcDbText
 10
506.6766240869947
 20
9.655357178682735
 30
0.0
 40
4.0
  1
縮尺
 41
0.9
  7
ｽﾀｲﾙ1
100
AcDbText
  0
TEXT
  5
16AD
330
1A
100
AcDbEntity
  8
MOJI
100
AcDbText
 10
528.0409075389568
 20
3.204921697704537
 30
0.0
 40
5.599999999999998
  1
１/２
 41
0.9
  7
ｽﾀｲﾙ1
100
AcDbText
  0
TEXT
  5
16AE
330
1A
100
AcDbEntity
  8
ZUWAKU
100
AcDbText
 10
449.3018085598448
 20
24.05535717868269
 30
0.0
 40
4.0
  1
品番
 41
0.9
  7
ｽﾀｲﾙ1
100
AcDbText
  0
TEXT
  5
16AF
330
1A
100
AcDbEntity
  8
ZUWAKU
100
AcDbText
 10
506.6766240869944
 20
24.05535717868269
 30
0.0
 40
4.0
  1
用紙
 41
0.9
  7
ｽﾀｲﾙ1
100
AcDbText
  0
LINE
  5
16B0
330
1A
100
AcDbEntity
  8
ZUWAKU
100
AcDbLine
 10
552.5269553327563
 20
30.00000064029711
 30
0.0
 11
552.5269553327563
 21
0.8000006402971848
 31
0.0
  0
LINE
  5
16B1
330
1A
100
AcDbEntity
  8
ZUWAKU
100
AcDbLine
 10
552.9269553327562
 20
30.00000064029711
 30
0.0
 11
552.9269553327564
 21
0.8000006402971848
 31
0.0
  0
LINE
  5
16B2
330
1A
100
AcDbEntity
  8
ZUWAKU
100
AcDbLine
 10
552.7269553327564
 20
30.00000064029711
 30
0.0
 11
552.7269553327564
 21
0.8000006402971848
 31
0.0
  0
LINE
  5
16B3
330
1A
100
AcDbEntity
  8
ZUWAKU
100
AcDbLine
 10
648.4172020768485
 20
30.00000064029711
 30
0.0
 11
648.4172020768485
 21
0.8000006402971848
 31
0.0
  0
LINE
  5
16B4
330
1A
100
AcDbEntity
  8
ZUWAKU
100
AcDbLine
 10
648.8172020768483
 20
30.00000064029711
 30
0.0
 11
648.8172020768487
 21
0.8000006402971848
 31
0.0
  0
LINE
  5
16B5
330
1A
100
AcDbEntity
  8
ZUWAKU
100
AcDbLine
 10
648.617202076848
 20
30.00000064029711
 30
0.0
 11
648.6172020768486
 21
0.8000006402971848
 31
0.0
  0
TEXT
  5
16B6
330
1A
100
AcDbEntity
  8
ZUWAKU
100
AcDbText
 10
650.2946470990579
 20
24.05535717868269
 30
0.0
 40
4.0
  1
DATE
 41
0.9
  7
ｽﾀｲﾙ1
100
AcDbText
  0
TEXT
  5
16B7
330
1A
100
AcDbEntity
  8
ZUWAKU
100
AcDbText
 10
708.5280837588877
 20
17.55383997598391
 30
0.0
 40
6.0
  1
積水化学工業株式会社
 41
0.9
  7
ｽﾀｲﾙ1
100
AcDbText
  0
LINE
  5
16B8
330
1A
100
AcDbEntity
  8
ZUWAKU
100
AcDbLine
 10
697.8490101151853
 20
30.00000064029711
 30
0.0
 11
697.8490101151853
 21
0.8000006402971848
 31
0.0
  0
LINE
  5
16B9
330
1A
100
AcDbEntity
  8
ZUWAKU
100
AcDbLine
 10
697.6490101151851
 20
30.00000064029711
 30
0.0
 11
697.6490101151852
 21
0.8000006402971848
 31
0.0
  0
LINE
  5
16BA
330
1A
100
AcDbEntity
  8
ZUWAKU
100
AcDbLine
 10
697.4490101151853
 20
30.00000064029711
 30
0.0
 11
697.4490101151853
 21
0.8000006402971848
 31
0.0
  0
LINE
  5
16BB
330
1A
100
AcDbEntity
  8
ZUWAKU
100
AcDbLine
 10
697.2490101151852
 20
30.00000064029711
 30
0.0
 11
697.2490101151852
 21
0.8000006402971848
 31
0.0
  0
TEXT
  5
16BC
330
1A
100
AcDbEntity
  8
ZUWAKU
100
AcDbText
 10
708.5280837588877
 20
6.648840954151182
 30
0.0
 40
6.0
  1
建材事業部
 41
0.9
  7
ｽﾀｲﾙ1
100
AcDbText
  0
LINE
  5
34D5
330
1A
100
AcDbEntity
  8
CENTER_L
 62
     1
 48
5.0
100
AcDbLine
 10
397.0667355838546
 20
209.7590662009355
 30
0.0
 11
409.829049704128
 21
216.1499570492234
 31
0.0
  0
TEXT
  5
34D6
330
1A
100
AcDbEntity
  8
SUNPOU
 48
5.0
100
AcDbText
 10
407.8388437933294
 20
112.3084284181336
 30
0.0
 40
6.0
  1
5
100
AcDbText
  0
DIMENSION
  5
34D7
330
1A
100
AcDbEntity
  8
SUNPOU
100
AcDbDimension
  2
*D1
 10
389.9968635367882
 20
152.3603751559335
 30
0.0
 11
365.8512892950157
 21
145.8610486881328
 31
0.0
 70
    33
  1
t<>
 71
     5
 42
-1.0
  3
STANDARD
100
AcDbAlignedDimension
 13
384.2415381205772
 23
181.7202451449626
 33
0.0
 14
377.0883042258584
 24
178.1381724422699
 34
0.0
1001
ACAD
1000
DSTYLE
1002
{
1070
   140
1040
6.0
1070
    74
1070
     0
1070
   172
1070
     1
1070
    73
1070
     0
1070
   272
1070
     2
1070
    77
1070
     3
1070
   173
1070
     1
1070
   147
1040
2.0
1070
    42
1040
6.0
1070
    44
1040
3.0
1070
    43
1040
14.0
1070
   271
1070
     1
1070
   178
1070
     4
1070
   177
1070
     4
1070
   176
1070
     4
1070
   141
1040
150.0
1070
     7
1000
_OPEN
1070
     6
1000
_OPEN
1070
    41
1040
7.0
1002
}
  0
LINE
  5
34D8
330
1A
100
AcDbEntity
  8
SUNPOU
 62
     4
100
AcDbLine
 10
389.4370246780482
 20
171.3450982318398
 30
0.0
 11
414.4219815317646
 21
121.4512923113973
 31
0.0
  0
LINE
  5
34D9
330
1A
100
AcDbEntity
  8
SEIHIN
  6
PHANTOM
 62
     6
 48
3.0
100
AcDbLine
 10
396.8535837286772
 20
226.4279569869626
 30
0.0
 11
419.2415381205772
 21
181.7202451449626
 31
0.0
  0
LINE
  5
34DA
330
1A
100
AcDbEntity
  8
CENTER_L
 62
     1
 48
5.0
100
AcDbLine
 10
408.2607127798071
 20
187.4052102799305
 30
0.0
 11
421.0230269000805
 21
193.7961011282184
 31
0.0
  0
TEXT
  5
34DB
330
1A
100
AcDbEntity
  8
SUNPOU
100
AcDbText
 10
380.3356557380106
 20
263.9841501738367
 30
0.0
 40
6.0
  1
スライド巾
100
AcDbText
  0
DIMENSION
  5
34DC
330
1A
100
AcDbEntity
  8
SUNPOU
100
AcDbDimension
  2
*D2
 10
415.2320295463387
 20
368.341622823281
 30
0.0
 11
410.2320295463385
 21
384.8416228232811
 31
0.0
 70
    32
 71
     5
 42
-1.0
  3
STANDARD
100
AcDbAlignedDimension
 13
352.5953594810772
 23
401.3416228232811
 33
0.0
 14
353.4886583076772
 24
368.3416228232811
 34
0.0
 50
90.0
100
AcDbRotatedDimension
1001
ACAD
1000
DSTYLE
1002
{
1070
   140
1040
6.0
1070
    74
1070
     0
1070
   172
1070
     1
1070
    73
1070
     0
1070
   272
1070
     2
1070
    77
1070
     3
1070
   173
1070
     1
1070
   147
1040
2.0
1070
    42
1040
6.0
1070
    44
1040
3.0
1070
    43
1040
14.0
1070
   271
1070
     0
1070
   178
1070
     4
1070
   177
1070
     4
1070
   176
1070
     4
1070
   141
1040
150.0
1070
     7
1000
_OPEN
1070
     6
1000
_OPEN
1070
    41
1040
7.0
1002
}
  0
DIMENSION
  5
34DD
330
1A
100
AcDbEntity
  8
SUNPOU
100
AcDbDimension
  2
*D3
 10
431.2737457928109
 20
347.841622823281
 30
0.0
 11
426.2737457928109
 21
384.8416228232811
 31
0.0
 70
    32
 71
     5
 42
-1.0
  3
STANDARD
100
AcDbAlignedDimension
 13
379.7639472421981
 23
421.841622823281
 33
0.0
 14
379.7639472421981
 24
347.8416228232811
 34
0.0
 50
90.0
100
AcDbRotatedDimension
1001
ACAD
1000
DSTYLE
1002
{
1070
   140
1040
6.0
1070
    74
1070
     0
1070
   172
1070
     1
1070
    73
1070
     0
1070
   272
1070
     2
1070
    77
1070
     3
1070
   173
1070
     1
1070
   147
1040
2.0
1070
    42
1040
6.0
1070
    44
1040
3.0
1070
    43
1040
14.0
1070
   271
1070
     0
1070
   178
1070
     4
1070
   177
1070
     4
1070
   176
1070
     4
1070
   141
1040
150.0
1070
     7
1000
_OPEN
1070
     6
1000
_OPEN
1070
    41
1040
7.0
1002
}
  0
LINE
  5
34DE
330
1A
100
AcDbEntity
  8
SUNPOU
 48
5.0
100
AcDbLine
 10
404.3405328957103
 20
121.4512923113973
 30
0.0
 11
414.4219815317646
 21
121.4512923113973
 31
0.0
  0
ARC
  5
34DF
330
1A
100
AcDbEntity
  8
SEIHIN
  6
Continuous
 62
     3
100
AcDbCircle
 10
272.7734622008771
 20
196.0014688185626
 30
0.0
 40
10.83333333329999
100
AcDbArc
 50
59.48976259389963
 51
120.5102374061003
  0
LINE
  5
34E0
330
1A
100
AcDbEntity
  8
SEIHIN
  6
Continuous
 62
     3
100
AcDbLine
 10
267.2734622008771
 20
205.3348021518626
 30
0.0
 11
278.2734622008772
 21
205.3348021518626
 31
0.0
  0
LINE
  5
34E1
330
1A
100
AcDbEntity
  8
SEIHIN
  6
Continuous
 62
     3
100
AcDbLine
 10
262.8535837286771
 20
204.3348021518626
 30
0.0
 11
280.8633942553771
 21
204.3348021518626
 31
0.0
  0
LINE
  5
34E2
330
1A
100
AcDbEntity
  8
SEIHIN
  6
Continuous
 62
     3
100
AcDbLine
 10
275.7734622008772
 20
178.5310046834626
 30
0.0
 11
277.2734622008771
 21
181.5310046834626
 31
0.0
  0
ARC
  5
34E3
330
1A
100
AcDbEntity
  8
SEIHIN
  6
Continuous
 62
     3
100
AcDbCircle
 10
277.5251321430772
 20
179.7982766535626
 30
0.0
 40
0.5
100
AcDbArc
 50
40.95354965550015
 51
153.4349409756998
  0
LINE
  5
34E4
330
1A
100
AcDbEntity
  8
SEIHIN
  6
Continuous
 62
     3
100
AcDbLine
 10
276.7734622008771
 20
182.5310046834626
 30
0.0
 11
277.2734622008771
 21
181.5310046834626
 31
0.0
  0
LINE
  5
34E5
330
1A
100
AcDbEntity
  8
SEIHIN
  6
Continuous
 62
     3
100
AcDbLine
 10
278.2734622008772
 20
184.0310046834626
 30
0.0
 11
267.2734622008771
 21
184.0310046834626
 31
0.0
  0
LINE
  5
34E6
330
1A
100
AcDbEntity
  8
SEIHIN
  6
Continuous
 62
     3
100
AcDbLine
 10
278.2734622008772
 20
182.5310046834626
 30
0.0
 11
267.2734622008771
 21
182.5310046834626
 31
0.0
  0
LINE
  5
34E7
330
1A
100
AcDbEntity
  8
SEIHIN
  6
Continuous
 62
     3
100
AcDbLine
 10
277.2734622008771
 20
181.5310046834626
 30
0.0
 11
268.2734622008771
 21
181.5310046834626
 31
0.0
  0
LINE
  5
34E8
330
1A
100
AcDbEntity
  8
SEIHIN
  6
Continuous
 62
     3
100
AcDbLine
 10
275.8770734683772
 20
178.1683652474626
 30
0.0
 11
277.5201142105772
 21
172.4177226497626
 31
0.0
  0
LINE
  5
34E9
330
1A
100
AcDbEntity
  8
SEIHIN
  6
Continuous
 62
     3
100
AcDbLine
 10
276.3610862128771
 20
178.2943481137626
 30
0.0
 11
278.0008761843772
 21
172.5550832137626
 31
0.0
  0
LINE
  5
34EA
330
1A
100
AcDbEntity
  8
SEIHIN
  6
Continuous
 62
     3
100
AcDbLine
 10
266.8535837286771
 20
194.3348021518626
 30
0.0
 11
289.2093154573771
 21
194.3348021518626
 31
0.0
  0
LINE
  5
34EB
330
1A
100
AcDbEntity
  8
SEIHIN
  6
Continuous
 62
     3
100
AcDbLine
 10
260.6714254197772
 20
184.1852092190626
 30
0.0
 11
327.8535837286772
 21
183.3348021518626
 31
0.0
  0
LINE
  5
34EC
330
1A
100
AcDbEntity
  8
SEIHIN
  6
Continuous
 62
     3
100
AcDbLine
 10
260.6501103076771
 20
186.1856392549626
 30
0.0
 11
323.5506736055771
 21
185.3894295929626
 31
0.0
  0
DIMENSION
  5
34ED
330
1A
100
AcDbEntity
  8
SUNPOU
100
AcDbDimension
  2
*D4
 10
262.8535837286771
 20
267.6997073808327
 30
0.0
 11
312.3535837286772
 21
272.6997073808326
 31
0.0
 70
    32
 71
     5
 42
-1.0
  3
STANDARD
100
AcDbAlignedDimension
 13
361.8535837286772
 23
226.4279569869626
 33
0.0
 14
262.8535837286771
 24
204.3348021518626
 34
0.0
100
AcDbRotatedDimension
1001
ACAD
1000
DSTYLE
1002
{
1070
   140
1040
6.0
1070
    74
1070
     0
1070
   172
1070
     1
1070
    73
1070
     0
1070
   272
1070
     2
1070
    77
1070
     3
1070
   173
1070
     1
1070
   147
1040
2.0
1070
    42
1040
6.0
1070
    44
1040
3.0
1070
    43
1040
14.0
1070
   271
1070
     0
1070
   178
1070
     4
1070
   177
1070
     4
1070
   176
1070
     4
1070
   141
1040
150.0
1070
     7
1000
_OPEN
1070
     6
1000
_OPEN
1070
    41
1040
7.0
1002
}
  0
DIMENSION
  5
34EE
330
1A
100
AcDbEntity
  8
SUNPOU
100
AcDbDimension
  2
*D5
 10
361.8535837286772
 20
281.9482569275058
 30
0.0
 11
295.8750678072771
 21
286.9482569275057
 31
0.0
 70
    32
 71
     5
 42
-1.0
  3
STANDARD
100
AcDbAlignedDimension
 13
229.8965518858771
 23
221.3871381080626
 33
0.0
 14
361.8535837286772
 24
226.4279569869626
 34
0.0
100
AcDbRotatedDimension
1001
ACAD
1000
DSTYLE
1002
{
1070
   140
1040
6.0
1070
    74
1070
     0
1070
   172
1070
     1
1070
    73
1070
     0
1070
   272
1070
     2
1070
    77
1070
     3
1070
   173
1070
     1
1070
   147
1040
2.0
1070
    42
1040
6.0
1070
    44
1040
3.0
1070
    43
1040
14.0
1070
   271
1070
     0
1070
   178
1070
     4
1070
   177
1070
     4
1070
   176
1070
     4
1070
   141
1040
150.0
1070
     7
1000
_OPEN
1070
     6
1000
_OPEN
1070
    41
1040
7.0
1002
}
  0
DIMENSION
  5
34EF
330
1A
100
AcDbEntity
  8
SUNPOU
100
AcDbDimension
  2
*D6
 10
203.7655864976995
 20
179.0336906179626
 30
0.0
 11
198.7655864976995
 21
200.6842463849126
 31
0.0
 70
    32
 71
     5
 42
-1.0
  3
STANDARD
100
AcDbAlignedDimension
 13
230.9214144990772
 23
222.3348021518626
 33
0.0
 14
378.8766126995771
 24
179.0336906179626
 34
0.0
 50
90.0
100
AcDbRotatedDimension
1001
ACAD
1000
DSTYLE
1002
{
1070
   140
1040
6.0
1070
    74
1070
     0
1070
   172
1070
     1
1070
    73
1070
     0
1070
   272
1070
     2
1070
    77
1070
     3
1070
   173
1070
     1
1070
   147
1040
2.0
1070
    42
1040
6.0
1070
    44
1040
3.0
1070
    43
1040
14.0
1070
   271
1070
     0
1070
   178
1070
     4
1070
   177
1070
     4
1070
   176
1070
     4
1070
   141
1040
150.0
1070
     7
1000
_OPEN
1070
     6
1000
_OPEN
1070
    41
1040
7.0
1002
}
  0
LINE
  5
34F0
330
1A
100
AcDbEntity
  8
SEIHIN
  6
Continuous
 62
     3
100
AcDbLine
 10
250.2672765812771
 20
210.3992645818626
 30
0.0
 11
251.4571523055771
 21
207.1774472358626
 31
0.0
  0
LINE
  5
34F1
330
1A
100
AcDbEntity
  8
SEIHIN
  6
Continuous
 62
     3
100
AcDbLine
 10
248.3911369267771
 20
209.7063720958626
 30
0.0
 11
249.5810126511772
 21
206.4845547498626
 31
0.0
  0
LINE
  5
34F2
330
1A
100
AcDbEntity
  8
CENTER_L
 62
     1
 48
5.0
100
AcDbLine
 10
272.8535837286771
 20
167.9697235287626
 30
0.0
 11
272.8535837286771
 21
213.8346221661164
 31
0.0
  0
LINE
  5
34F3
330
1A
100
AcDbEntity
  8
SEIHIN
  6
Continuous
 62
     3
100
AcDbLine
 10
243.2381052018772
 20
209.0429076697626
 30
0.0
 11
246.2342907906772
 21
195.8596910791626
 31
0.0
  0
LINE
  5
34F4
330
1A
100
AcDbEntity
  8
SEIHIN
  6
Continuous
 62
     3
100
AcDbLine
 10
245.1883709134771
 20
209.4861498769625
 30
0.0
 11
248.1845565022771
 21
196.3029332863626
 31
0.0
  0
ARC
  5
34F5
330
1A
100
AcDbEntity
  8
SEIHIN
  6
Continuous
 62
     3
100
AcDbCircle
 10
260.8612836275771
 20
199.1840076329626
 30
0.0
 40
15.0
100
AcDbArc
 50
192.8042660653004
 51
269.2747757009007
  0
ARC
  5
34F6
330
1A
100
AcDbEntity
  8
SEIHIN
  6
Continuous
 62
     3
100
AcDbCircle
 10
260.8612836275771
 20
199.1840076329626
 30
0.0
 40
13.0
100
AcDbArc
 50
192.8042660653004
 51
269.2747757009007
  0
ARC
  5
34F7
330
1A
100
AcDbEntity
  8
SEIHIN
  6
Continuous
 62
     3
100
AcDbCircle
 10
264.2005240047771
 20
173.2653962254626
 30
0.0
 40
1.0
100
AcDbArc
 50
155.772254682
 51
258.6900675258992
  0
LINE
  5
34F8
330
1A
100
AcDbEntity
  8
SEIHIN
  6
Continuous
 62
     3
100
AcDbLine
 10
263.7445632521772
 20
173.4705785641626
 30
0.0
 11
264.5889058906771
 21
175.3468955386626
 31
0.0
  0
LINE
  5
34F9
330
1A
100
AcDbEntity
  8
SEIHIN
  6
Continuous
 62
     3
100
AcDbLine
 10
269.1858381888772
 20
178.2943481137626
 30
0.0
 11
267.5460482174772
 21
172.5550832137626
 31
0.0
  0
LINE
  5
34FA
330
1A
100
AcDbEntity
  8
SEIHIN
  6
Continuous
 62
     3
100
AcDbLine
 10
269.6698509334772
 20
178.1683652474626
 30
0.0
 11
268.0268101912772
 21
172.4177226497626
 31
0.0
  0
ARC
  5
34FB
330
1A
100
AcDbEntity
  8
SEIHIN
  6
Continuous
 62
     3
100
AcDbCircle
 10
267.0652862435772
 20
172.6924437776626
 30
0.0
 40
1.0
100
AcDbArc
 50
258.6900675260005
 51
344.0546040990998
  0
ARC
  5
34FC
330
1A
100
AcDbEntity
  8
SEIHIN
  6
Continuous
 62
     3
100
AcDbCircle
 10
267.0652862435772
 20
172.6924437776626
 30
0.0
 40
0.5
100
AcDbArc
 50
258.6900675260005
 51
344.0546040990998
  0
ARC
  5
34FD
330
1A
100
AcDbEntity
  8
SEIHIN
  6
Continuous
 62
     3
100
AcDbCircle
 10
264.2005240047771
 20
173.2653962254626
 30
0.0
 40
0.5
100
AcDbArc
 50
155.772254682
 51
258.6900675260005
  0
LINE
  5
34FE
330
1A
100
AcDbEntity
  8
SEIHIN
  6
Continuous
 62
     3
100
AcDbLine
 10
264.0044078695771
 20
172.2848155497626
 30
0.0
 11
266.8691701084771
 21
171.7118631019626
 31
0.0
  0
LINE
  5
34FF
330
1A
100
AcDbEntity
  8
SEIHIN
  6
Continuous
 62
     3
100
AcDbLine
 10
264.1024659371772
 20
172.7751058875626
 30
0.0
 11
266.9672281760771
 21
172.2021534398626
 31
0.0
  0
LINE
  5
3500
330
1A
100
AcDbEntity
  8
SEIHIN
  6
Continuous
 62
     3
100
AcDbLine
 10
268.2734622008771
 20
181.5310046834626
 30
0.0
 11
269.7734622008772
 21
178.5310046834626
 31
0.0
  0
LINE
  5
3501
330
1A
100
AcDbEntity
  8
SEIHIN
  6
Continuous
 62
     3
100
AcDbLine
 10
268.4690057982771
 20
180.0218834999626
 30
0.0
 11
269.1522898105771
 21
178.6553154754626
 31
0.0
  0
ARC
  5
3502
330
1A
100
AcDbEntity
  8
SEIHIN
  6
Continuous
 62
     3
100
AcDbCircle
 10
268.0217922587771
 20
179.7982766535626
 30
0.0
 40
0.5
100
AcDbArc
 50
26.56505902430012
 51
139.0464503444998
  0
LINE
  5
3503
330
1A
100
AcDbEntity
  8
SEIHIN
  6
Continuous
 62
     3
100
AcDbLine
 10
268.7734622008771
 20
182.5310046834626
 30
0.0
 11
268.2734622008771
 21
181.5310046834626
 31
0.0
  0
LINE
  5
3504
330
1A
100
AcDbEntity
  8
SEIHIN
  6
Continuous
 62
     3
100
AcDbLine
 10
267.2734622008771
 20
184.0310046834626
 30
0.0
 11
267.2734622008771
 21
182.5310046834626
 31
0.0
  0
ARC
  5
3505
330
1A
100
AcDbEntity
  8
SEIHIN
  6
Continuous
 62
     3
100
AcDbCircle
 10
282.3713752416771
 20
167.3447843307626
 30
0.0
 40
20.0
100
AcDbArc
 50
134.8211145533003
 51
155.772254682
  0
ARC
  5
3506
330
1A
100
AcDbEntity
  8
SEIHIN
  6
Continuous
 62
     3
100
AcDbCircle
 10
282.3713752416771
 20
167.3447843307626
 30
0.0
 40
19.5
100
AcDbArc
 50
139.0464503416
 51
155.772254682
  0
LINE
  5
3507
330
1A
100
AcDbEntity
  8
SEIHIN
  6
Continuous
 62
     3
100
AcDbLine
 10
263.2886024995771
 20
173.6757609027626
 30
0.0
 11
264.1329451381771
 21
175.5520778773626
 31
0.0
  0
LINE
  5
3508
330
1A
100
AcDbEntity
  8
SEIHIN
  6
Continuous
 62
     3
100
AcDbLine
 10
275.2734622008771
 20
178.5310046834626
 30
0.0
 11
275.2734622008771
 21
174.9697235287626
 31
0.0
  0
ARC
  5
3509
330
1A
100
AcDbEntity
  8
SEIHIN
  6
Continuous
 62
     3
100
AcDbCircle
 10
275.3963114944771
 20
178.0310046834626
 30
0.0
 40
0.5
100
AcDbArc
 50
15.94539590100013
 51
89.99999999970035
  0
ARC
  5
350A
330
1A
100
AcDbEntity
  8
SEIHIN
  6
Continuous
 62
     3
100
AcDbCircle
 10
276.8418481867772
 20
178.4317086776626
 30
0.0
 40
0.5
100
AcDbArc
 50
153.4349488229001
 51
195.9453959010001
  0
LINE
  5
350B
330
1A
100
AcDbEntity
  8
SEIHIN
  6
Continuous
 62
     3
100
AcDbLine
 10
277.0779186034771
 20
180.0218834999626
 30
0.0
 11
276.3946345912771
 21
178.6553154754626
 31
0.0
  0
LINE
  5
350C
330
1A
100
AcDbEntity
  8
SEIHIN
  6
Continuous
 62
     3
100
AcDbLine
 10
270.2734622008772
 20
178.5310046834626
 30
0.0
 11
270.2734622008772
 21
174.9697235287626
 31
0.0
  0
ARC
  5
350D
330
1A
100
AcDbEntity
  8
SEIHIN
  6
Continuous
 62
     3
100
AcDbCircle
 10
270.1506129072772
 20
178.0310046834626
 30
0.0
 40
0.5
100
AcDbArc
 50
90.00000000029968
 51
164.0546040989998
  0
ARC
  5
350E
330
1A
100
AcDbEntity
  8
SEIHIN
  6
Continuous
 62
     3
100
AcDbCircle
 10
268.7050762150771
 20
178.4317086776626
 30
0.0
 40
0.5
100
AcDbArc
 50
344.0546040989998
 51
26.56505117709983
  0
LINE
  5
350F
330
1A
100
AcDbEntity
  8
SEIHIN
  6
Continuous
 62
     3
100
AcDbLine
 10
270.2734622008772
 20
174.9697235287626
 30
0.0
 11
275.2734622008771
 21
174.9697235287626
 31
0.0
  0
LINE
  5
3510
330
1A
100
AcDbEntity
  8
SEIHIN
  6
Continuous
 62
     3
100
AcDbLine
 10
275.7734622008772
 20
178.5310046834626
 30
0.0
 11
269.7734622008772
 21
178.5310046834626
 31
0.0
  0
ARC
  5
3511
330
1A
100
AcDbEntity
  8
SEIHIN
  6
Continuous
 62
     3
100
AcDbCircle
 10
262.7139902320771
 20
211.3348021518626
 30
0.0
 40
14.0
100
AcDbArc
 50
200.2701048385998
 51
270.0
  0
ARC
  5
3512
330
1A
100
AcDbEntity
  8
SEIHIN
  6
Continuous
 62
     3
100
AcDbCircle
 10
262.7139902320771
 20
211.3348021518626
 30
0.0
 40
12.0
100
AcDbArc
 50
200.2701048385998
 51
270.0
  0
LINE
  5
3513
330
1A
100
AcDbEntity
  8
SEIHIN
  6
Continuous
 62
     3
100
AcDbLine
 10
259.8535837286771
 20
197.6301286922626
 30
0.0
 11
259.8535837286771
 21
186.2201717933626
 31
0.0
  0
LINE
  5
3514
330
1A
100
AcDbEntity
  8
SEIHIN
  6
Continuous
 62
     3
100
AcDbLine
 10
262.8535837286771
 20
198.3348021518626
 30
0.0
 11
266.8535837286771
 21
194.3348021518626
 31
0.0
  0
TEXT
  5
3515
330
1A
100
AcDbEntity
  8
SEIHIN
 62
     3
 48
16.0
100
AcDbText
 10
260.8535837286771
 20
189.7482888077031
 30
0.0
 40
2.5
  1
10
 41
1.199999999999999
100
AcDbText
  0
LINE
  5
3516
330
1A
100
AcDbEntity
  8
SEIHIN
 62
     3
 48
16.0
100
AcDbLine
 10
263.1535837286772
 20
192.8355981100287
 30
0.0
 11
263.1535837286772
 21
194.3355981100287
 31
0.0
  0
LINE
  5
3517
330
1A
100
AcDbEntity
  8
SEIHIN
 62
     3
 48
16.0
100
AcDbLine
 10
262.5535837286772
 20
192.8355981100287
 30
0.0
 11
262.5535837286772
 21
194.3355981100287
 31
0.0
  0
LINE
  5
3518
330
1A
100
AcDbEntity
  8
SEIHIN
 62
     3
 48
16.0
100
AcDbLine
 10
262.5535837286772
 20
192.8354981100287
 30
0.0
 11
263.1535837286772
 21
192.8354981100287
 31
0.0
  0
LINE
  5
3519
330
1A
100
AcDbEntity
  8
SEIHIN
 62
     3
 48
16.0
100
AcDbLine
 10
262.5535837286772
 20
194.3354981100286
 30
0.0
 11
263.1535837286772
 21
194.3354981100286
 31
0.0
  0
LINE
  5
351A
330
1A
100
AcDbEntity
  8
SEIHIN
 62
     3
 48
16.0
100
AcDbLine
 10
272.5535837286772
 20
192.8354981100287
 30
0.0
 11
273.1535837286772
 21
192.8354981100287
 31
0.0
  0
LINE
  5
351B
330
1A
100
AcDbEntity
  8
SEIHIN
 62
     3
 48
16.0
100
AcDbLine
 10
272.5535837286772
 20
194.3354981100286
 30
0.0
 11
273.1535837286772
 21
194.3354981100286
 31
0.0
  0
LINE
  5
351C
330
1A
100
AcDbEntity
  8
SEIHIN
 62
     3
 48
16.0
100
AcDbLine
 10
272.5535837286772
 20
192.8355981100287
 30
0.0
 11
272.5535837286772
 21
194.3355981100287
 31
0.0
  0
LINE
  5
351D
330
1A
100
AcDbEntity
  8
SEIHIN
 62
     3
 48
16.0
100
AcDbLine
 10
273.1535837286772
 20
192.8355981100287
 30
0.0
 11
273.1535837286772
 21
194.3355981100287
 31
0.0
  0
TEXT
  5
351E
330
1A
100
AcDbEntity
  8
SEIHIN
 62
     3
 48
16.0
100
AcDbText
 10
270.8535837286771
 20
189.7482888077031
 30
0.0
 40
2.5
  1
20
 41
1.199999999999999
100
AcDbText
  0
LINE
  5
351F
330
1A
100
AcDbEntity
  8
SEIHIN
  6
Continuous
 62
     3
100
AcDbLine
 10
267.2734622008771
 20
205.3348021518626
 30
0.0
 11
267.2734622008771
 21
204.3348021518626
 31
0.0
  0
LINE
  5
3520
330
1A
100
AcDbEntity
  8
SEIHIN
  6
Continuous
 62
     3
100
AcDbLine
 10
262.8535837286771
 20
204.3348021518626
 30
0.0
 11
262.8535837286771
 21
198.3348021518626
 31
0.0
  0
LINE
  5
3521
330
1A
100
AcDbEntity
  8
SEIHIN
  6
Continuous
 62
     3
100
AcDbLine
 10
262.7139902320771
 20
199.3348021518626
 30
0.0
 11
262.8535837286771
 21
199.3348021518626
 31
0.0
  0
LINE
  5
3522
330
1A
100
AcDbEntity
  8
SEIHIN
  6
Continuous
 62
     3
100
AcDbLine
 10
262.7139902320771
 20
197.3348021518626
 30
0.0
 11
263.8535837286771
 21
197.3348021518626
 31
0.0
  0
ARC
  5
3523
330
1A
100
AcDbEntity
  8
SEIHIN
  6
Continuous
 62
     3
100
AcDbCircle
 10
238.3624409228771
 20
207.9348021518626
 30
0.0
 40
7.0
100
AcDbArc
 50
12.80426606530046
 51
37.39092726240022
  0
ARC
  5
3524
330
1A
100
AcDbEntity
  8
SEIHIN
  6
Continuous
 62
     3
100
AcDbCircle
 10
244.7185272269771
 20
212.7928024497626
 30
0.0
 40
1.0
100
AcDbArc
 50
56.8097191777007
 51
217.3909272672004
  0
ARC
  5
3525
330
1A
100
AcDbEntity
  8
SEIHIN
  6
Continuous
 62
     3
100
AcDbCircle
 10
240.8865783091771
 20
206.9348021518626
 30
0.0
 40
10.0
100
AcDbArc
 50
20.27010483859981
 51
90.0
  0
LINE
  5
3526
330
1A
100
AcDbEntity
  8
SEIHIN
  6
Continuous
 62
     3
100
AcDbLine
 10
232.7283883884772
 20
217.5045586255626
 30
0.0
 11
232.9165425995772
 21
220.1952892043626
 31
0.0
  0
LINE
  5
3527
330
1A
100
AcDbEntity
  8
SEIHIN
  6
Continuous
 62
     3
100
AcDbLine
 10
229.6741860907771
 20
217.1441459768626
 30
0.0
 11
229.8965518858771
 21
221.3871381080626
 31
0.0
  0
LINE
  5
3528
330
1A
100
AcDbEntity
  8
SEIHIN
  6
Continuous
 62
     3
100
AcDbLine
 10
233.6687042297772
 20
212.9348021518626
 30
0.0
 11
238.3624409228771
 21
212.9348021518626
 31
0.0
  0
ARC
  5
3529
330
1A
100
AcDbEntity
  8
SEIHIN
  6
Continuous
 62
     3
100
AcDbCircle
 10
235.8307080731771
 20
218.4348021518626
 30
0.0
 40
2.0
100
AcDbArc
 50
270.0
 51
303.5573097697003
  0
LINE
  5
352A
330
1A
100
AcDbEntity
  8
SEIHIN
  6
Continuous
 62
     3
100
AcDbLine
 10
233.7259524386772
 20
216.4348021518626
 30
0.0
 11
235.8307080731771
 21
216.4348021518626
 31
0.0
  0
ARC
  5
352B
330
1A
100
AcDbEntity
  8
SEIHIN
  6
Continuous
 62
     3
100
AcDbCircle
 10
233.6687042297772
 20
216.9348021518626
 30
0.0
 40
4.0
100
AcDbArc
 50
177.0
 51
270.0
  0
ARC
  5
352C
330
1A
100
AcDbEntity
  8
SEIHIN
  6
Continuous
 62
     3
100
AcDbCircle
 10
233.7259524386772
 20
217.4348021518626
 30
0.0
 40
1.0
100
AcDbArc
 50
176.0000000000002
 51
270.0000000002996
  0
LINE
  5
352D
330
1A
100
AcDbEntity
  8
SEIHIN
  6
Continuous
 62
     3
100
AcDbLine
 10
237.4890204687771
 20
216.9348021518626
 30
0.0
 11
240.8865783091771
 21
216.9348021518626
 31
0.0
  0
ARC
  5
352E
330
1A
100
AcDbEntity
  8
SEIHIN
  6
Continuous
 62
     3
100
AcDbCircle
 10
237.4890204687771
 20
215.9348021519626
 30
0.0
 40
1.0
100
AcDbArc
 50
89.99999999569927
 51
123.5573097698001
  0
ARC
  5
352F
330
1A
100
AcDbEntity
  8
SEIHIN
  6
Continuous
 62
     3
100
AcDbCircle
 10
238.3624409228771
 20
207.9348021518626
 30
0.0
 40
5.0
100
AcDbArc
 50
12.80426606530046
 51
90.0
  0
ARC
  5
3530
330
1A
100
AcDbEntity
  8
SEIHIN
  6
Continuous
 62
     3
100
AcDbCircle
 10
230.8951814206771
 20
221.3348021518626
 30
0.0
 40
1.0
100
AcDbArc
 50
90.0
 51
177.0
  0
LINE
  5
3531
330
1A
100
AcDbEntity
  8
SEIHIN
  6
Continuous
 62
     3
100
AcDbLine
 10
230.9214144990772
 20
222.3348021518626
 30
0.0
 11
230.8951814206771
 21
222.3348021518626
 31
0.0
  0
ARC
  5
3532
330
1A
100
AcDbEntity
  8
SEIHIN
  6
Continuous
 62
     3
100
AcDbCircle
 10
230.9214144990772
 20
220.3348021518626
 30
0.0
 40
2.0
100
AcDbArc
 50
356.0000000000002
 51
90.0
  0
ARC
  5
3533
330
1A
100
AcDbEntity
  8
SEIHIN
  6
Continuous
 62
     3
100
AcDbCircle
 10
240.8865783091771
 20
206.9348021518626
 30
0.0
 40
8.0
100
AcDbArc
 50
20.27010483859981
 51
56.80971917319982
  0
ARC
  5
3534
330
1A
100
AcDbEntity
  8
SEIHIN
  6
Continuous
 62
     3
100
AcDbCircle
 10
346.3535837286772
 20
205.8348021518626
 30
0.0
 40
11.0
100
AcDbArc
 50
0.0
 51
15.01395550019975
  0
ARC
  5
3535
330
1A
100
AcDbEntity
  8
SEIHIN
  6
Continuous
 62
     3
100
AcDbCircle
 10
347.3535837286772
 20
205.9348021518626
 30
0.0
 40
5.0
100
AcDbArc
 50
0.0
 51
35.45054263920015
  0
ARC
  5
3536
330
1A
100
AcDbEntity
  8
SEIHIN
  6
Continuous
 62
     3
100
AcDbCircle
 10
357.3932890058771
 20
201.8348021518626
 30
0.0
 40
7.0
100
AcDbArc
 50
26.60000000000027
 51
90.0
  0
LINE
  5
3537
330
1A
100
AcDbEntity
  8
CENTER_L
 62
     1
 48
5.0
100
AcDbLine
 10
355.1576564936615
 20
206.2992571168235
 30
0.0
 11
374.829049704128
 21
216.1499570492234
 31
0.0
  0
ARC
  5
3538
330
1A
100
AcDbEntity
  8
SEIHIN
  6
Continuous
 62
     3
100
AcDbCircle
 10
346.9360766644772
 20
202.9348021518626
 30
0.0
 40
8.0
100
AcDbArc
 50
132.4811128753994
 51
144.0714975771992
  0
LINE
  5
3539
330
1A
100
AcDbEntity
  8
SEIHIN
  6
Continuous
 62
     3
100
AcDbLine
 10
346.8535837286772
 20
208.3348021518626
 30
0.0
 11
346.8535837286772
 21
208.8348021518626
 31
0.0
  0
LINE
  5
353A
330
1A
100
AcDbEntity
  8
SEIHIN
  6
Continuous
 62
     3
100
AcDbLine
 10
334.8750573918771
 20
208.3348021518626
 30
0.0
 11
334.8750573918771
 21
208.8348021518626
 31
0.0
  0
LINE
  5
353B
330
1A
100
AcDbEntity
  8
SEIHIN
  6
Continuous
 62
     3
100
AcDbLine
 10
325.8140338238772
 20
202.4746734649626
 30
0.0
 11
331.8107265857772
 21
208.8348021518626
 31
0.0
  0
LINE
  5
353C
330
1A
100
AcDbEntity
  8
SEIHIN
  6
Continuous
 62
     3
100
AcDbLine
 10
344.8535837286772
 20
208.3348021518626
 30
0.0
 11
344.8535837286772
 21
228.1938529408626
 31
0.0
  0
LINE
  5
353D
330
1A
100
AcDbEntity
  8
SEIHIN
  6
Continuous
 62
     3
100
AcDbLine
 10
332.8750573918771
 20
208.3348021518626
 30
0.0
 11
332.8750573918771
 21
227.1458676806626
 31
0.0
  0
ARC
  5
353E
330
1A
100
AcDbEntity
  8
SEIHIN
  6
Continuous
 62
     3
100
AcDbCircle
 10
312.4986447790772
 20
193.8348021518626
 30
0.0
 40
15.0
100
AcDbArc
 50
90.0
 51
133.4088597288006
  0
LINE
  5
353F
330
1A
100
AcDbEntity
  8
SEIHIN
  6
Continuous
 62
     3
100
AcDbLine
 10
284.2993935247771
 20
205.7024600670626
 30
0.0
 11
297.5578929893771
 21
218.2442838849626
 31
0.0
  0
DIMENSION
  5
3540
330
1A
100
AcDbEntity
  8
SUNPOU
 62
     4
100
AcDbDimension
  2
*D7
 10
351.8951814206773
 20
251.6699610329799
 30
0.0
 11
332.3951814206773
 21
256.6699610329799
 31
0.0
 70
    32
 71
     5
 42
-1.0
  3
STANDARD
100
AcDbAlignedDimension
 13
361.8535837286772
 23
226.4279569869626
 33
0.0
 14
351.8951814206773
 24
204.6348021518626
 34
0.0
100
AcDbRotatedDimension
1001
ACAD
1000
DSTYLE
1002
{
1070
   140
1040
6.0
1070
    74
1070
     0
1070
   172
1070
     1
1070
    73
1070
     0
1070
   272
1070
     2
1070
    77
1070
     3
1070
   173
1070
     1
1070
   147
1040
2.0
1070
    42
1040
6.0
1070
    44
1040
3.0
1070
    43
1040
14.0
1070
   271
1070
     0
1070
   178
1070
     4
1070
   177
1070
     4
1070
   176
1070
     4
1070
   141
1040
150.0
1070
     7
1000
_OPEN
1070
     6
1000
_OPEN
1070
    41
1040
7.0
1002
}
  0
LINE
  5
3541
330
1A
100
AcDbEntity
  8
SEIHIN
  6
Continuous
 62
     3
100
AcDbLine
 10
325.1754621780771
 20
189.9474544748626
 30
0.0
 11
338.8619460019771
 21
208.8348021518626
 31
0.0
  0
LINE
  5
3542
330
1A
100
AcDbEntity
  8
SEIHIN
  6
Continuous
 62
     3
100
AcDbLine
 10
355.5958680096772
 20
221.0575758105626
 30
0.0
 11
376.1927860501772
 21
179.9264809159626
 31
0.0
  0
LINE
  5
3543
330
1A
100
AcDbEntity
  8
SEIHIN
  6
Continuous
 62
     3
100
AcDbLine
 10
361.8535837286772
 20
226.4279569869626
 30
0.0
 11
384.2415381205772
 21
181.7202451449626
 31
0.0
  0
LINE
  5
3544
330
1A
100
AcDbEntity
  8
SEIHIN
  6
Continuous
 62
     3
100
AcDbLine
 10
356.4886583076772
 20
223.7414024599626
 30
0.0
 11
378.8766126995771
 21
179.0336906179626
 31
0.0
  0
DIMENSION
  5
3545
330
1A
100
AcDbEntity
  8
SUNPOU
100
AcDbDimension
  2
*D8
 10
400.2029026531753
 20
189.71310110796
 30
0.0
 11
397.7334079758869
 21
205.8112872181665
 31
0.0
 70
    33
 71
     5
 42
-1.0
  3
STANDARD
100
AcDbAlignedDimension
 13
361.8535837286772
 23
226.4279569869625
 33
0.0
 14
384.2415381205772
 24
181.7202451449626
 34
0.0
1001
ACAD
1000
DSTYLE
1002
{
1070
   140
1040
6.0
1070
    74
1070
     0
1070
   172
1070
     1
1070
    73
1070
     0
1070
   272
1070
     2
1070
    77
1070
     3
1070
   173
1070
     1
1070
   280
1070
     2
1070
   147
1040
2.0
1070
    42
1040
6.0
1070
    44
1040
3.0
1070
    43
1040
14.0
1070
   271
1070
     0
1070
   178
1070
     4
1070
   177
1070
     4
1070
   176
1070
     4
1070
   141
1040
150.0
1070
     7
1000
_OPEN
1070
     6
1000
_OPEN
1070
    41
1040
7.0
1002
}
  0
LINE
  5
3546
330
1A
100
AcDbEntity
  8
SEIHIN
  6
Continuous
 62
     3
100
AcDbLine
 10
296.4852192163771
 20
199.3348021518626
 30
0.0
 11
318.5381397620772
 21
199.3348021518626
 31
0.0
  0
LINE
  5
3547
330
1A
100
AcDbEntity
  8
SEIHIN
  6
Continuous
 62
     3
100
AcDbLine
 10
294.3709335020772
 20
197.3348021518626
 30
0.0
 11
318.5381397620772
 21
197.3348021518626
 31
0.0
  0
ARC
  5
3548
330
1A
100
AcDbEntity
  8
SEIHIN
  6
Continuous
 62
     3
100
AcDbCircle
 10
281.3464003970771
 20
173.2653962254626
 30
0.0
 40
1.0
100
AcDbArc
 50
281.3099324741007
 51
24.22774531799998
  0
LINE
  5
3549
330
1A
100
AcDbEntity
  8
SEIHIN
  6
Continuous
 62
     3
100
AcDbLine
 10
281.8023611496771
 20
173.4705785641626
 30
0.0
 11
280.9580185110772
 21
175.3468955386626
 31
0.0
  0
LINE
  5
354A
330
1A
100
AcDbEntity
  8
SEIHIN
  6
Continuous
 62
     3
100
AcDbLine
 10
281.5425165321772
 20
172.2848155497626
 30
0.0
 11
278.6777542932771
 21
171.7118631019626
 31
0.0
  0
LINE
  5
354B
330
1A
100
AcDbEntity
  8
SEIHIN
  6
Continuous
 62
     3
100
AcDbLine
 10
281.4444584645771
 20
172.7751058875626
 30
0.0
 11
278.5796962257771
 21
172.2021534398626
 31
0.0
  0
ARC
  5
354C
330
1A
100
AcDbEntity
  8
SEIHIN
  6
Continuous
 62
     3
100
AcDbCircle
 10
278.4816381581772
 20
172.6924437776626
 30
0.0
 40
1.0
100
AcDbArc
 50
195.9453959009001
 51
281.3099324739994
  0
ARC
  5
354D
330
1A
100
AcDbEntity
  8
SEIHIN
  6
Continuous
 62
     3
100
AcDbCircle
 10
278.4816381581772
 20
172.6924437776626
 30
0.0
 40
0.5
100
AcDbArc
 50
195.9453959009001
 51
281.3099324739994
  0
ARC
  5
354E
330
1A
100
AcDbEntity
  8
SEIHIN
  6
Continuous
 62
     3
100
AcDbCircle
 10
281.3464003970771
 20
173.2653962254626
 30
0.0
 40
0.5
100
AcDbArc
 50
281.3099324739994
 51
24.22774531799998
  0
ARC
  5
354F
330
1A
100
AcDbEntity
  8
SEIHIN
  6
Continuous
 62
     3
100
AcDbCircle
 10
263.1755491601772
 20
167.3447843307626
 30
0.0
 40
19.5
100
AcDbArc
 50
24.22774531799998
 51
40.95354965839994
  0
ARC
  5
3550
330
1A
100
AcDbEntity
  8
SEIHIN
  6
Continuous
 62
     3
100
AcDbCircle
 10
263.1755491601772
 20
167.3447843307626
 30
0.0
 40
20.0
100
AcDbArc
 50
24.22774531799998
 51
45.17888544669969
  0
LINE
  5
3551
330
1A
100
AcDbEntity
  8
SEIHIN
  6
Continuous
 62
     3
100
AcDbLine
 10
278.2734622008772
 20
184.0310046834626
 30
0.0
 11
278.2734622008772
 21
182.5310046834626
 31
0.0
  0
LINE
  5
3552
330
1A
100
AcDbEntity
  8
SEIHIN
  6
Continuous
 62
     3
100
AcDbLine
 10
282.2583219021772
 20
173.6757609027626
 30
0.0
 11
281.4139792636771
 21
175.5520778773626
 31
0.0
  0
LINE
  5
3553
330
1A
100
AcDbEntity
  8
SEIHIN
  6
Continuous
 62
     3
100
AcDbLine
 10
292.6453147267771
 20
195.7024600670626
 30
0.0
 11
302.1906469708771
 21
204.7318284061626
 31
0.0
  0
LINE
  5
3554
330
1A
100
AcDbEntity
  8
SEIHIN
 62
     3
 48
16.0
100
AcDbLine
 10
283.1535837286772
 20
192.8355981100287
 30
0.0
 11
283.1535837286772
 21
194.3355981100287
 31
0.0
  0
LINE
  5
3555
330
1A
100
AcDbEntity
  8
SEIHIN
 62
     3
 48
16.0
100
AcDbLine
 10
282.5535837286772
 20
192.8355981100287
 30
0.0
 11
282.5535837286772
 21
194.3355981100287
 31
0.0
  0
TEXT
  5
3556
330
1A
100
AcDbEntity
  8
SEIHIN
 62
     3
 48
16.0
100
AcDbText
 10
280.8535837286772
 20
189.7482888077031
 30
0.0
 40
2.5
  1
30
 41
1.199999999999999
100
AcDbText
  0
LINE
  5
3557
330
1A
100
AcDbEntity
  8
SEIHIN
 62
     3
 48
16.0
100
AcDbLine
 10
282.5535837286772
 20
192.8354981100287
 30
0.0
 11
283.1535837286772
 21
192.8354981100287
 31
0.0
  0
LINE
  5
3558
330
1A
100
AcDbEntity
  8
SEIHIN
 62
     3
 48
16.0
100
AcDbLine
 10
282.5535837286772
 20
194.3354981100286
 30
0.0
 11
283.1535837286772
 21
194.3354981100286
 31
0.0
  0
ARC
  5
3559
330
1A
100
AcDbEntity
  8
SEIHIN
  6
Continuous
 62
     3
100
AcDbCircle
 10
289.2093154573771
 20
199.3348021518626
 30
0.0
 40
5.0
100
AcDbArc
 50
270.0
 51
313.4088597288006
  0
LINE
  5
355A
330
1A
100
AcDbEntity
  8
SEIHIN
  6
Continuous
 62
     3
100
AcDbLine
 10
278.2734622008772
 20
205.3348021518626
 30
0.0
 11
278.2734622008772
 21
204.3348021518626
 31
0.0
  0
ARC
  5
355B
330
1A
100
AcDbEntity
  8
SEIHIN
  6
Continuous
 62
     3
100
AcDbCircle
 10
280.8633942553771
 20
209.3348021518626
 30
0.0
 40
5.0
100
AcDbArc
 50
270.0
 51
313.4088597288006
  0
LINE
  5
355C
330
1A
100
AcDbEntity
  8
SEIHIN
 62
     3
 48
16.0
100
AcDbLine
 10
298.1535837286772
 20
192.8354981100287
 30
0.0
 11
298.1535837286772
 21
194.3354981100286
 31
0.0
  0
LINE
  5
355D
330
1A
100
AcDbEntity
  8
SEIHIN
 62
     3
 48
16.0
100
AcDbLine
 10
297.5535837286772
 20
192.8354981100287
 30
0.0
 11
297.5535837286772
 21
194.3354981100286
 31
0.0
  0
LINE
  5
355E
330
1A
100
AcDbEntity
  8
SEIHIN
 62
     3
 48
16.0
100
AcDbLine
 10
297.5535837286772
 20
192.8354981100287
 30
0.0
 11
298.1535837286772
 21
192.8354981100287
 31
0.0
  0
LINE
  5
355F
330
1A
100
AcDbEntity
  8
SEIHIN
 62
     3
 48
16.0
100
AcDbLine
 10
297.5535837286772
 20
194.3354981100286
 30
0.0
 11
298.1535837286772
 21
194.3354981100286
 31
0.0
  0
TEXT
  5
3560
330
1A
100
AcDbEntity
  8
SEIHIN
 62
     3
 48
16.0
100
AcDbText
 10
295.8535837286772
 20
189.7773585751449
 30
0.0
 40
2.5
  1
45
 41
1.199999999999999
100
AcDbText
  0
ARC
  5
3561
330
1A
100
AcDbEntity
  8
SEIHIN
  6
Continuous
 62
     3
100
AcDbCircle
 10
328.4124914175771
 20
187.5976346996626
 30
0.0
 40
2.0
100
AcDbArc
 50
144.0714975771992
 51
284.0362434679
  0
ARC
  5
3562
330
1A
100
AcDbEntity
  8
SEIHIN
  6
Continuous
 62
     3
100
AcDbCircle
 10
323.5633308209772
 20
186.3893494875626
 30
0.0
 40
1.0
100
AcDbArc
 50
269.2747756132003
 51
14.01646976470015
  0
LINE
  5
3563
330
1A
100
AcDbEntity
  8
SEIHIN
  6
Continuous
 62
     3
100
AcDbLine
 10
341.0961193536772
 20
186.6454360581626
 30
0.0
 11
327.8535837286772
 21
183.3348021518626
 31
0.0
  0
ARC
  5
3564
330
1A
100
AcDbEntity
  8
SEIHIN
  6
Continuous
 62
     3
100
AcDbCircle
 10
318.5381397620772
 20
209.3348021518626
 30
0.0
 40
12.0
100
AcDbArc
 50
270.0
 51
316.6846843179006
  0
LINE
  5
3565
330
1A
100
AcDbEntity
  8
SEIHIN
  6
Continuous
 62
     3
100
AcDbLine
 10
315.7632946839772
 20
197.3348021518626
 30
0.0
 11
315.7632946839772
 21
185.4880040096626
 31
0.0
  0
ARC
  5
3566
330
1A
100
AcDbEntity
  8
SEIHIN
  6
Continuous
 62
     3
100
AcDbCircle
 10
328.4144615491771
 20
187.6003534813626
 30
0.0
 40
4.0
100
AcDbArc
 50
144.0714975771992
 51
194.0164697647001
  0
ARC
  5
3567
330
1A
100
AcDbEntity
  8
SEIHIN
  6
Continuous
 62
     3
100
AcDbCircle
 10
318.5381397620772
 20
209.3348021518626
 30
0.0
 40
10.0
100
AcDbArc
 50
270.0
 51
316.6846843179006
  0
LINE
  5
3568
330
1A
100
AcDbEntity
  8
SEIHIN
  6
Continuous
 62
     3
100
AcDbLine
 10
326.7929917319772
 20
188.7711851964626
 30
0.0
 11
340.4580779222772
 21
207.6290041389626
 31
0.0
  0
LINE
  5
3569
330
1A
100
AcDbEntity
  8
SEIHIN
  6
Continuous
 62
     3
100
AcDbLine
 10
340.6110481036772
 20
188.5857210583626
 30
0.0
 11
328.8975626676771
 21
185.6573496994625
 31
0.0
  0
ARC
  5
356A
330
1A
100
AcDbEntity
  8
SEIHIN
  6
Continuous
 62
     3
100
AcDbCircle
 10
340.8535837286772
 20
187.6155785582626
 30
0.0
 40
1.0
100
AcDbArc
 50
284.0362434679
 51
104.0362434679
  0
LINE
  5
356B
330
1A
100
AcDbEntity
  8
SEIHIN
  6
Continuous
 62
     3
100
AcDbLine
 10
332.8750573918771
 20
208.3348021518626
 30
0.0
 11
334.8750573918771
 21
208.3348021518626
 31
0.0
  0
LINE
  5
356C
330
1A
100
AcDbEntity
  8
SEIHIN
  6
Continuous
 62
     3
100
AcDbLine
 10
327.2692126362771
 20
201.1026477275626
 30
0.0
 11
334.0881010934771
 21
208.3348021518626
 31
0.0
  0
LINE
  5
356D
330
1A
100
AcDbEntity
  8
SUNPOU
 48
5.0
100
AcDbLine
 10
404.3405328957103
 20
141.4512923113973
 30
0.0
 11
404.3405328957103
 21
121.4512923113973
 31
0.0
  0
TEXT
  5
356E
330
1A
100
AcDbEntity
  8
SUNPOU
 48
5.0
100
AcDbText
 10
394.2008962730374
 20
126.3314938308947
 30
0.0
 40
6.0
  1
10
100
AcDbText
  0
LINE
  5
356F
330
1A
100
AcDbEntity
  8
CENTER_L
 62
     1
 48
5.0
100
AcDbLine
 10
366.3516336896019
 20
183.9454011958125
 30
0.0
 11
386.0230269000805
 21
193.7961011282184
 31
0.0
  0
ARC
  5
3570
330
1A
100
AcDbEntity
  8
SEIHIN
  6
Continuous
 62
     3
100
AcDbCircle
 10
354.3535837286772
 20
186.0348021518626
 30
0.0
 40
3.0
100
AcDbArc
 50
229.7189334221996
 51
0.0
  0
LINE
  5
3571
330
1A
100
AcDbEntity
  8
SEIHIN
  6
Continuous
 62
     3
100
AcDbLine
 10
348.0605082885771
 20
187.4356880278626
 30
0.0
 11
352.4139705685772
 21
183.7461560915626
 31
0.0
  0
LINE
  5
3572
330
1A
100
AcDbEntity
  8
SEIHIN
  6
Continuous
 62
     3
100
AcDbLine
 10
352.3535837286772
 20
205.9348021518626
 30
0.0
 11
352.3535837286772
 21
189.9192394623626
 31
0.0
  0
LINE
  5
3573
330
1A
100
AcDbEntity
  8
SEIHIN
  6
Continuous
 62
     3
100
AcDbLine
 10
357.3535837286772
 20
205.8348021518626
 30
0.0
 11
357.3535837286772
 21
186.0348021518626
 31
0.0
  0
ARC
  5
3574
330
1A
100
AcDbEntity
  8
SEIHIN
  6
Continuous
 62
     3
100
AcDbCircle
 10
351.3535837286772
 20
189.9192394623626
 30
0.0
 40
1.0
100
AcDbArc
 50
235.9064214268008
 51
0.0
  0
LINE
  5
3575
330
1A
100
AcDbEntity
  8
SEIHIN
  6
Continuous
 62
     3
100
AcDbLine
 10
350.7930375425772
 20
189.0911162992626
 30
0.0
 11
348.9141299147772
 21
190.3629253149626
 31
0.0
  0
ARC
  5
3576
330
1A
100
AcDbEntity
  8
SEIHIN
  6
Continuous
 62
     3
100
AcDbCircle
 10
349.3535837286772
 20
188.9614520679626
 30
0.0
 40
2.0
100
AcDbArc
 50
180.0
 51
229.7189334221996
  0
LINE
  5
3577
330
1A
100
AcDbEntity
  8
SEIHIN
  6
Continuous
 62
     3
100
AcDbLine
 10
347.3535837286772
 20
189.5348021518626
 30
0.0
 11
347.3535837286772
 21
188.9614520679626
 31
0.0
  0
ARC
  5
3578
330
1A
100
AcDbEntity
  8
SEIHIN
  6
Continuous
 62
     3
100
AcDbCircle
 10
348.3535837286772
 20
189.5348021518626
 30
0.0
 40
1.0
100
AcDbArc
 50
55.90642142680081
 51
180.0
  0
LINE
  5
3579
330
1A
100
AcDbEntity
  8
SEIHIN
  6
Continuous
 62
     3
100
AcDbLine
 10
344.8535837286772
 20
208.3348021518626
 30
0.0
 11
346.8535837286772
 21
208.3348021518626
 31
0.0
  0
LINE
  5
357A
330
1A
100
AcDbEntity
  8
SEIHIN
  6
Continuous
 62
     3
100
AcDbLine
 10
378.8766126995771
 20
179.0336906179626
 30
0.0
 11
384.2415381205772
 21
181.7202451449626
 31
0.0
  0
LINE
  5
357B
330
1A
100
AcDbEntity
  8
SEIHIN
  6
Continuous
 62
     3
100
AcDbLine
 10
378.8766126995771
 20
179.0336906179626
 30
0.0
 11
376.1927860501772
 21
179.9264809159626
 31
0.0
  0
LINE
  5
357C
330
1A
100
AcDbEntity
  8
SEIHIN
  6
Continuous
 62
     3
100
AcDbLine
 10
344.8535837286772
 20
225.6405590152626
 30
0.0
 11
334.8750573918771
 21
224.7675510820626
 31
0.0
  0
LINE
  5
357D
330
1A
100
AcDbEntity
  8
SEIHIN
  6
Continuous
 62
     3
100
AcDbLine
 10
334.8750573918771
 20
208.8348021518626
 30
0.0
 11
344.8535837286772
 21
208.8348021518626
 31
0.0
  0
LINE
  5
357E
330
1A
100
AcDbEntity
  8
SEIHIN
  6
Continuous
 62
     3
100
AcDbLine
 10
342.8535837286772
 20
208.8348021518626
 30
0.0
 11
333.4607556902772
 21
227.5918463181626
 31
0.0
  0
LINE
  5
357F
330
1A
100
AcDbEntity
  8
SEIHIN
  6
Continuous
 62
     3
100
AcDbLine
 10
332.8750573918771
 20
224.5925737550626
 30
0.0
 11
306.5585546562771
 21
222.2901781019626
 31
0.0
  0
ARC
  5
3580
330
1A
100
AcDbEntity
  8
SEIHIN
  6
Continuous
 62
     3
100
AcDbCircle
 10
307.8658907974772
 20
207.3472576306627
 30
0.0
 40
15.0
100
AcDbArc
 50
94.99999999999982
 51
133.4088597288006
  0
LINE
  5
3581
330
1A
100
AcDbEntity
  8
SEIHIN
  6
Continuous
 62
     3
100
AcDbLine
 10
312.4986447790772
 20
208.8348021518626
 30
0.0
 11
332.8750573918771
 21
208.8348021518626
 31
0.0
  0
ARC
  5
3582
330
1A
100
AcDbEntity
  8
SEIHIN
  6
Continuous
 62
     3
100
AcDbCircle
 10
333.3750573918771
 20
227.1458676806626
 30
0.0
 40
0.5
100
AcDbArc
 50
94.99999999999982
 51
180.0
  0
LINE
  5
3583
330
1A
100
AcDbEntity
  8
SEIHIN
  6
Continuous
 62
     3
100
AcDbLine
 10
333.3626246922771
 20
227.6466898791626
 30
0.0
 11
333.3314795205772
 21
227.6439650296626
 31
0.0
  0
ARC
  5
3584
330
1A
100
AcDbEntity
  8
SEIHIN
  6
Continuous
 62
     3
100
AcDbCircle
 10
333.3713402665772
 20
227.5470704093626
 30
0.0
 40
0.1
100
AcDbArc
 50
26.60000000000027
 51
94.99999999999982
  0
LINE
  5
3585
330
1A
100
AcDbEntity
  8
SEIHIN
  6
Continuous
 62
     3
100
AcDbLine
 10
338.8643205602772
 20
225.1165663851626
 30
0.0
 11
338.8643205602772
 21
227.6698603107626
 31
0.0
  0
ARC
  5
3586
330
1A
100
AcDbEntity
  8
SEIHIN
  6
Continuous
 62
     3
100
AcDbCircle
 10
339.3186312228771
 20
228.0673909466626
 30
0.0
 40
0.1
100
AcDbArc
 50
26.60000000000027
 51
94.99999999999982
  0
LINE
  5
3587
330
1A
100
AcDbEntity
  8
SEIHIN
  6
Continuous
 62
     3
100
AcDbLine
 10
339.3099156485772
 20
228.1670104165626
 30
0.0
 11
339.3207426888772
 21
228.1679576597626
 31
0.0
  0
ARC
  5
3588
330
1A
100
AcDbEntity
  8
SEIHIN
  6
Continuous
 62
     3
100
AcDbCircle
 10
339.3643205602772
 20
227.6698603107626
 30
0.0
 40
0.5
100
AcDbArc
 50
94.99999999999982
 51
180.0
  0
LINE
  5
3589
330
1A
100
AcDbEntity
  8
SEIHIN
  6
Continuous
 62
     3
100
AcDbLine
 10
340.8223483481771
 20
225.2878716194626
 30
0.0
 11
339.4080466465772
 21
228.1121668554626
 31
0.0
  0
DIMENSION
  5
358A
330
1A
100
AcDbEntity
  8
SUNPOU
100
AcDbDimension
  2
*D9
 10
361.8535837286772
 20
250.9877447074118
 30
0.0
 11
379.3535837286772
 21
255.9877447074118
 31
0.0
 70
    32
 71
     5
 42
-1.0
  3
STANDARD
100
AcDbAlignedDimension
 13
396.8535837286772
 23
226.4279569869626
 33
0.0
 14
361.8535837286772
 24
226.4279569869626
 34
0.0
100
AcDbRotatedDimension
1001
ACAD
1000
DSTYLE
1002
{
1070
   140
1040
6.0
1070
    74
1070
     0
1070
   172
1070
     1
1070
    73
1070
     0
1070
   272
1070
     2
1070
    77
1070
     3
1070
   173
1070
     1
1070
   147
1040
2.0
1070
    42
1040
6.0
1070
    44
1040
3.0
1070
    43
1040
14.0
1070
   271
1070
     0
1070
   178
1070
     4
1070
   177
1070
     4
1070
   176
1070
     4
1070
   141
1040
150.0
1070
     7
1000
_OPEN
1070
     6
1000
_OPEN
1070
    41
1040
7.0
1002
}
  0
LINE
  5
358B
330
1A
100
AcDbEntity
  8
SEIHIN
  6
Continuous
 62
     3
100
AcDbLine
 10
353.8535837286772
 20
226.4279569869626
 30
0.0
 11
361.8535837286772
 21
226.4279569869626
 31
0.0
  0
LINE
  5
358C
330
1A
100
AcDbEntity
  8
SEIHIN
  6
Continuous
 62
     3
100
AcDbLine
 10
356.4886583076772
 20
223.7414024599626
 30
0.0
 11
361.8535837286772
 21
226.4279569869626
 31
0.0
  0
LINE
  5
358D
330
1A
100
AcDbEntity
  8
CENTER_L
 62
     1
 48
5.0
100
AcDbLine
 10
352.9188610544745
 20
210.7700283010237
 30
0.0
 11
372.5902542649385
 21
220.6207282334224
 31
0.0
  0
LINE
  5
358E
330
1A
100
AcDbEntity
  8
SEIHIN
  6
Continuous
 62
     3
100
AcDbLine
 10
355.3569019915772
 20
208.8348021518626
 30
0.0
 11
345.4398903583772
 21
228.6386167687626
 31
0.0
  0
LINE
  5
358F
330
1A
100
AcDbEntity
  8
SEIHIN
  6
Continuous
 62
     3
100
AcDbLine
 10
346.8535837286772
 20
208.8348021518626
 30
0.0
 11
357.3932890058771
 21
208.8348021518626
 31
0.0
  0
LINE
  5
3590
330
1A
100
AcDbEntity
  8
SEIHIN
  6
Continuous
 62
     3
100
AcDbLine
 10
353.8535837286772
 20
226.4279569869626
 30
0.0
 11
346.8535837286772
 21
225.8155363422626
 31
0.0
  0
ARC
  5
3591
330
1A
100
AcDbEntity
  8
SEIHIN
  6
Continuous
 62
     3
100
AcDbCircle
 10
345.3535837286772
 20
228.1938529408626
 30
0.0
 40
0.5
100
AcDbArc
 50
90.44530641719929
 51
180.0
  0
ARC
  5
3592
330
1A
100
AcDbEntity
  8
SEIHIN
  6
Continuous
 62
     3
100
AcDbCircle
 10
345.3504749346772
 20
228.5938408599626
 30
0.0
 40
0.1
100
AcDbArc
 50
26.60000000000027
 51
90.44530641719929
  0
LINE
  5
3593
330
1A
100
AcDbEntity
  8
SEIHIN
  6
Continuous
 62
     3
100
AcDbLine
 10
356.4886583076772
 20
223.7414024599626
 30
0.0
 11
355.5958680096772
 21
221.0575758105626
 31
0.0
  0
LINE
  5
3594
330
1A
100
AcDbEntity
  8
SEIHIN
  6
PHANTOM
 62
     6
 48
3.0
100
AcDbLine
 10
391.4886583076772
 20
223.7414024599626
 30
0.0
 11
396.8535837286772
 21
226.4279569869626
 31
0.0
  0
LINE
  5
3595
330
1A
100
AcDbEntity
  8
SEIHIN
  6
PHANTOM
 62
     6
 48
3.0
100
AcDbLine
 10
388.8535837286772
 20
226.4279569869626
 30
0.0
 11
396.8535837286772
 21
226.4279569869626
 31
0.0
  0
LINE
  5
3596
330
1A
100
AcDbEntity
  8
CENTER_L
 62
     1
 48
5.0
100
AcDbLine
 10
394.827940144665
 20
214.2298373851344
 30
0.0
 11
407.5902542649387
 21
220.6207282334224
 31
0.0
  0
CIRCLE
  5
3597
330
1A
100
AcDbEntity
  8
SEIHIN
  6
Continuous
 62
     3
100
AcDbCircle
 10
272.8535837286771
 20
384.854493589581
 30
0.0
 40
5.5
  0
LINE
  5
3598
330
1A
100
AcDbEntity
  8
CENTER_L
 62
     1
 48
5.0
100
AcDbLine
 10
220.9389875411771
 20
384.8416228232811
 30
0.0
 11
390.0493053058772
 21
384.8416228232811
 31
0.0
  0
LINE
  5
3599
330
1A
100
AcDbEntity
  8
SEIHIN
  6
Continuous
 62
     3
100
AcDbLine
 10
262.8535837286771
 20
368.3416228232811
 30
0.0
 11
332.8750573918771
 21
368.3416228232811
 31
0.0
  0
LINE
  5
359A
330
1A
100
AcDbEntity
  8
SEIHIN
  6
Continuous
 62
     3
100
AcDbLine
 10
262.8535837286771
 20
401.3416228232811
 30
0.0
 11
332.8750573918771
 21
401.3416228232811
 31
0.0
  0
LINE
  5
359B
330
1A
100
AcDbEntity
  8
CENTER_L
 62
     1
 48
5.0
100
AcDbLine
 10
272.8535837286771
 20
397.354493589581
 30
0.0
 11
272.8535837286771
 21
372.354493589581
 31
0.0
  0
LINE
  5
359C
330
1A
100
AcDbEntity
  8
SEIHIN
  6
Continuous
 62
     3
100
AcDbLine
 10
262.8535837286771
 20
401.3416228232811
 30
0.0
 11
262.8535837286771
 21
368.3416228232811
 31
0.0
  0
LINE
  5
359D
330
1A
100
AcDbEntity
  8
SEIHIN
  6
Continuous
 62
     3
100
AcDbLine
 10
229.6687042297772
 20
374.8416228232811
 30
0.0
 11
229.6687042297772
 21
394.8416228232811
 31
0.0
  0
LINE
  5
359E
330
1A
100
AcDbEntity
  8
SEIHIN
  6
Continuous
 62
     3
100
AcDbLine
 10
232.9214144990772
 20
374.8416228232811
 30
0.0
 11
232.9214144990772
 21
394.8416228232811
 31
0.0
  0
DIMENSION
  5
359F
330
1A
100
AcDbEntity
  8
SUNPOU
100
AcDbDimension
  2
*D10
 10
203.7655864976995
 20
374.8416228232811
 30
0.0
 11
198.7655864976994
 21
384.8416228232811
 31
0.0
 70
    32
 71
     5
 42
-1.0
  3
STANDARD
100
AcDbAlignedDimension
 13
229.6687042297772
 23
394.8416228232811
 33
0.0
 14
229.6687042297772
 24
374.8416228232811
 34
0.0
 50
90.0
100
AcDbRotatedDimension
1001
ACAD
1000
DSTYLE
1002
{
1070
   140
1040
6.0
1070
    74
1070
     0
1070
   172
1070
     1
1070
    73
1070
     0
1070
   272
1070
     2
1070
    77
1070
     3
1070
   173
1070
     1
1070
   147
1040
2.0
1070
    42
1040
6.0
1070
    44
1040
3.0
1070
    43
1040
14.0
1070
   271
1070
     0
1070
   178
1070
     4
1070
   177
1070
     4
1070
   176
1070
     4
1070
   141
1040
150.0
1070
     7
1000
_OPEN
1070
     6
1000
_OPEN
1070
    41
1040
7.0
1002
}
  0
LINE
  5
35A0
330
1A
100
AcDbEntity
  8
SEIHIN
  6
Continuous
 62
     3
100
AcDbLine
 10
229.6687042297772
 20
374.8416228232811
 30
0.0
 11
262.8535837286771
 21
374.8416228232811
 31
0.0
  0
LINE
  5
35A1
330
1A
100
AcDbEntity
  8
SEIHIN
  6
Continuous
 62
     3
100
AcDbLine
 10
237.1535837286772
 20
376.100993344081
 30
0.0
 11
237.1535837286772
 21
393.376891561381
 31
0.0
  0
LINE
  5
35A2
330
1A
100
AcDbEntity
  8
SEIHIN
  6
Continuous
 62
     3
100
AcDbLine
 10
254.3535837286771
 20
376.100993344081
 30
0.0
 11
254.3535837286771
 21
393.376891561381
 31
0.0
  0
LINE
  5
35A3
330
1A
100
AcDbEntity
  8
SEIHIN
  6
Continuous
 62
     3
100
AcDbLine
 10
247.8535837286771
 20
376.100993344081
 30
0.0
 11
247.8535837286771
 21
393.376891561381
 31
0.0
  0
LINE
  5
35A4
330
1A
100
AcDbEntity
  8
SEIHIN
  6
Continuous
 62
     3
100
AcDbLine
 10
229.6687042297772
 20
394.8416228232811
 30
0.0
 11
262.8535837286771
 21
394.8416228232811
 31
0.0
  0
LINE
  5
35A5
330
1A
100
AcDbEntity
  8
SEIHIN
  6
Continuous
 62
     3
100
AcDbLine
 10
332.8750573918771
 20
384.8416228232811
 30
0.0
 11
332.8750573918771
 21
401.8416228232811
 31
0.0
  0
LINE
  5
35A6
330
1A
100
AcDbEntity
  8
SEIHIN
  6
Continuous
 62
     3
100
AcDbLine
 10
334.8750573918771
 20
384.8416228232811
 30
0.0
 11
334.8750573918771
 21
401.8416228232811
 31
0.0
  0
LINE
  5
35A7
330
1A
100
AcDbEntity
  8
SEIHIN
  6
Continuous
 62
     3
100
AcDbLine
 10
338.8643205602772
 20
384.8416228232811
 30
0.0
 11
338.8643205602772
 21
401.3416228232811
 31
0.0
  0
LINE
  5
35A8
330
1A
100
AcDbEntity
  8
SEIHIN
  6
Continuous
 62
     3
100
AcDbLine
 10
340.8223483481771
 20
384.8416228232811
 30
0.0
 11
340.8223483481771
 21
401.3416228232811
 31
0.0
  0
LINE
  5
35A9
330
1A
100
AcDbEntity
  8
SEIHIN
  6
Continuous
 62
     3
100
AcDbLine
 10
344.9986590914772
 20
384.8416228232811
 30
0.0
 11
344.9986590914772
 21
401.8416228232811
 31
0.0
  0
LINE
  5
35AA
330
1A
100
AcDbEntity
  8
SEIHIN
  6
Continuous
 62
     3
100
AcDbLine
 10
346.8535837286772
 20
384.8416228232811
 30
0.0
 11
346.8535837286772
 21
401.8416228232811
 31
0.0
  0
LINE
  5
35AB
330
1A
100
AcDbEntity
  8
SEIHIN
  6
Continuous
 62
     3
100
AcDbLine
 10
301.3535837286772
 20
370.5574602329811
 30
0.0
 11
301.3535837286772
 21
398.9577219528811
 31
0.0
  0
LINE
  5
35AC
330
1A
100
AcDbEntity
  8
SEIHIN
  6
Continuous
 62
     3
100
AcDbLine
 10
282.8535837286772
 20
370.5574602329811
 30
0.0
 11
282.8535837286772
 21
398.9577219528811
 31
0.0
  0
LINE
  5
35AD
330
1A
100
AcDbEntity
  8
SEIHIN
 62
     3
100
AcDbLine
 10
384.2415381205772
 20
357.8416228232811
 30
0.0
 11
384.2415381205772
 21
411.8416228232811
 31
0.0
  0
LINE
  5
35AE
330
1A
100
AcDbEntity
  8
SEIHIN
 62
     3
100
AcDbLine
 10
361.8535837286772
 20
357.8416228232811
 30
0.0
 11
361.8535837286772
 21
411.8416228232811
 31
0.0
  0
ELLIPSE
  5
35AF
330
1A
100
AcDbEntity
  8
SEIHIN
 62
     3
100
AcDbEllipse
 10
366.3311746070561
 20
356.3416228232811
 30
0.0
 11
0.0
 21
-2.100000000000022
 31
0.0
210
0.0
220
0.0
230
1.0
 40
0.4477590878419306
 41
2.027524999325386
 42
7.397252961444009
  0
ELLIPSE
  5
35B0
330
1A
100
AcDbEntity
  8
SEIHIN
 62
     3
100
AcDbEllipse
 10
368.5699700462297
 20
356.3416228232811
 30
0.0
 11
0.0
 21
3.25
 31
0.0
210
0.0
220
0.0
230
1.0
 40
0.4477590878368398
 41
1.859764349068329
 42
7.565013611701143
  0
ELLIPSE
  5
35B1
330
1A
100
AcDbEntity
  8
SEIHIN
 62
     3
100
AcDbEllipse
 10
360.9662491860562
 20
357.8416228232811
 30
0.0
 11
0.0
 21
-8.0
 31
0.0
210
0.0
220
0.0
230
1.0
 40
0.6712976470473822
 41
-1.570796326794896
 42
-0.9346114644468606
  0
ELLIPSE
  5
35B2
330
1A
100
AcDbEntity
  8
SEIHIN
 62
     3
100
AcDbEllipse
 10
360.9662491860562
 20
357.8416228232811
 30
0.0
 11
0.0
 21
-10.0
 31
0.0
210
0.0
220
0.0
230
1.0
 40
0.4477590878379033
 41
-1.570796326794896
 42
0.0
  0
ELLIPSE
  5
35B3
330
1A
100
AcDbEntity
  8
SEIHIN
 62
     3
100
AcDbEllipse
 10
366.3311746070561
 20
357.8416228232811
 30
0.0
 11
0.0
 21
-10.0
 31
0.0
210
0.0
220
0.0
230
1.0
 40
0.4477590878379033
 41
-1.570796326794896
 42
0.0
  0
ELLIPSE
  5
35B4
330
1A
100
AcDbEntity
  8
SEIHIN
 62
     3
100
AcDbEllipse
 10
379.7639472422088
 20
358.3416228232811
 30
0.0
 11
0.0
 21
-2.100000000000022
 31
0.0
210
0.0
220
0.0
230
1.0
 40
0.4477590878419305
 41
0.0
 42
6.283185307179585
  0
ELLIPSE
  5
35B5
330
1A
100
AcDbEntity
  8
SEIHIN
 62
     3
100
AcDbEllipse
 10
379.7639472421981
 20
357.8416228232811
 30
0.0
 11
0.0
 21
-10.0
 31
0.0
210
0.0
220
0.0
230
1.0
 40
0.4477590878379033
 41
0.0000000000000127
 42
1.570796326794896
  0
LINE
  5
35B6
330
1A
100
AcDbEntity
  8
SEIHIN
  6
Continuous
 62
     3
100
AcDbLine
 10
334.8750573918771
 20
368.3416228232811
 30
0.0
 11
344.9986590914772
 21
368.3416228232811
 31
0.0
  0
LINE
  5
35B7
330
1A
100
AcDbEntity
  8
SEIHIN
  6
Continuous
 62
     3
100
AcDbLine
 10
332.8750573918771
 20
367.8416228232811
 30
0.0
 11
342.8535837286772
 21
367.8416228232811
 31
0.0
  0
LINE
  5
35B8
330
1A
100
AcDbEntity
  8
SEIHIN
  6
Continuous
 62
     3
100
AcDbLine
 10
334.8750573918771
 20
368.3416228232811
 30
0.0
 11
344.9986590914772
 21
368.3416228232811
 31
0.0
  0
LINE
  5
35B9
330
1A
100
AcDbEntity
  8
SEIHIN
  6
Continuous
 62
     3
100
AcDbLine
 10
340.8223483481771
 20
384.8416228232811
 30
0.0
 11
340.8223483481771
 21
368.3416228232811
 31
0.0
  0
LINE
  5
35BA
330
1A
100
AcDbEntity
  8
SEIHIN
  6
Continuous
 62
     3
100
AcDbLine
 10
338.8643205602772
 20
384.8416228232811
 30
0.0
 11
338.8643205602772
 21
368.3416228232811
 31
0.0
  0
LINE
  5
35BB
330
1A
100
AcDbEntity
  8
SEIHIN
  6
Continuous
 62
     3
100
AcDbLine
 10
334.8750573918771
 20
384.8416228232811
 30
0.0
 11
334.8750573918771
 21
367.8416228232811
 31
0.0
  0
LINE
  5
35BC
330
1A
100
AcDbEntity
  8
SEIHIN
  6
Continuous
 62
     3
100
AcDbLine
 10
332.8750573918771
 20
384.8416228232811
 30
0.0
 11
332.8750573918771
 21
367.8416228232811
 31
0.0
  0
LINE
  5
35BD
330
1A
100
AcDbEntity
  8
SEIHIN
 62
     3
 48
5.0
100
AcDbLine
 10
360.9662491860562
 20
347.8416228232811
 30
0.0
 11
379.7639472421981
 21
347.8416228232811
 31
0.0
  0
LINE
  5
35BE
330
1A
100
AcDbEntity
  8
CENTER_L
 62
     1
 48
5.0
100
AcDbLine
 10
374.8236531577408
 20
358.3416228232811
 30
0.0
 11
384.7042413266768
 21
358.3416228232811
 31
0.0
  0
LINE
  5
35BF
330
1A
100
AcDbEntity
  8
SEIHIN
  6
Continuous
 62
     3
100
AcDbLine
 10
346.8535837286772
 20
384.8416228232811
 30
0.0
 11
346.8535837286772
 21
367.8416228232811
 31
0.0
  0
LINE
  5
35C0
330
1A
100
AcDbEntity
  8
SEIHIN
  6
Continuous
 62
     3
100
AcDbLine
 10
344.9986590914772
 20
384.8416228232811
 30
0.0
 11
344.9986590914772
 21
367.8416228232811
 31
0.0
  0
LINE
  5
35C1
330
1A
100
AcDbEntity
  8
SEIHIN
  6
Continuous
 62
     3
100
AcDbLine
 10
346.8535837286772
 20
368.3416228232811
 30
0.0
 11
361.8535837286772
 21
368.3416228232811
 31
0.0
  0
LINE
  5
35C2
330
1A
100
AcDbEntity
  8
SEIHIN
 62
     3
100
AcDbLine
 10
356.4886583076772
 20
357.8416228232811
 30
0.0
 11
356.4886583076772
 21
365.341622787481
 31
0.0
  0
LINE
  5
35C3
330
1A
100
AcDbEntity
  8
SEIHIN
 62
     3
100
AcDbLine
 10
355.5958680096772
 20
357.8416228232811
 30
0.0
 11
355.5958680096772
 21
367.4769605293376
 31
0.0
  0
LINE
  5
35C4
330
1A
100
AcDbEntity
  8
SEIHIN
 62
     3
100
AcDbLine
 10
358.0878517792958
 20
350.181660925058
 30
0.0
 11
356.6464848205897
 21
353.0885748481391
 31
0.0
  0
LINE
  5
35C5
330
1A
100
AcDbEntity
  8
SEIHIN
  6
Continuous
 62
     3
100
AcDbLine
 10
344.9986590914772
 20
367.8416228232811
 30
0.0
 11
354.2536718762772
 21
367.8416228232811
 31
0.0
  0
LINE
  5
35C6
330
1A
100
AcDbEntity
  8
SEIHIN
  6
Continuous
 62
     3
100
AcDbLine
 10
342.8535837286772
 20
368.3416228232811
 30
0.0
 11
342.8535837286772
 21
367.8416228232811
 31
0.0
  0
ARC
  5
35C7
330
1A
100
AcDbEntity
  8
SEIHIN
  6
Continuous
 62
     3
100
AcDbCircle
 10
353.4886583076772
 20
365.341622787481
 30
0.0
 40
3.0
100
AcDbArc
 50
0.0
 51
90.0
  0
LINE
  5
35C8
330
1A
100
AcDbEntity
  8
CENTER_L
 62
     1
100
AcDbLine
 10
366.3311746070561
 20
349.6609750249707
 30
0.0
 11
366.3311746070561
 21
363.0222706215915
 31
0.0
  0
LINE
  5
35C9
330
1A
100
AcDbEntity
  8
CENTER_L
 62
     1
100
AcDbLine
 10
368.5699700462297
 20
349.0921417168457
 30
0.0
 11
368.5699700462297
 21
363.5911039297162
 31
0.0
  0
LINE
  5
35CA
330
1A
100
AcDbEntity
  8
CENTER_L
 62
     1
 48
5.0
100
AcDbLine
 10
361.3908805225881
 20
356.3416228232811
 30
0.0
 11
374.0251870816994
 21
356.3416228232811
 31
0.0
  0
LINE
  5
35CB
330
1A
100
AcDbEntity
  8
SEIHIN
 62
     3
100
AcDbLine
 10
367.1750885478537
 20
357.2677531799839
 30
0.0
 11
365.4872606662587
 21
357.2677531799839
 31
0.0
  0
LINE
  5
35CC
330
1A
100
AcDbEntity
  8
SEIHIN
 62
     3
100
AcDbLine
 10
367.1750885478537
 20
355.4154924665783
 30
0.0
 11
365.4872606662587
 21
355.4154924665783
 31
0.0
  0
LINE
  5
35CD
330
1A
100
AcDbEntity
  8
CENTER_L
 62
     1
100
AcDbLine
 10
379.7639472422088
 20
352.2416228232811
 30
0.0
 11
379.7639472422088
 21
364.4416228232811
 31
0.0
  0
ELLIPSE
  5
35CE
330
1A
100
AcDbEntity
  8
SEIHIN
 62
     3
100
AcDbEllipse
 10
379.7639472422088
 20
411.3416228232811
 30
0.0
 11
0.0
 21
2.100000000000022
 31
0.0
210
0.0
220
0.0
230
-1.0
 40
0.4477590878419305
 41
0.0
 42
6.283185307179585
  0
ELLIPSE
  5
35CF
330
1A
100
AcDbEntity
  8
SEIHIN
 62
     3
100
AcDbEllipse
 10
368.5699700462297
 20
413.341622823281
 30
0.0
 11
0.0
 21
-3.25
 31
0.0
210
0.0
220
0.0
230
-1.0
 40
0.4477590878368398
 41
1.859764349068312
 42
7.56501361170116
  0
ELLIPSE
  5
35D0
330
1A
100
AcDbEntity
  8
SEIHIN
 62
     3
100
AcDbEllipse
 10
366.3311746070561
 20
413.341622823281
 30
0.0
 11
0.0
 21
2.100000000000022
 31
0.0
210
0.0
220
0.0
230
-1.0
 40
0.4477590878419306
 41
2.027524999325362
 42
7.397252961444009
  0
ELLIPSE
  5
35D1
330
1A
100
AcDbEntity
  8
SEIHIN
 62
     3
100
AcDbEllipse
 10
360.9662491860562
 20
411.8416228232811
 30
0.0
 11
0.0
 21
8.0
 31
0.0
210
0.0
220
0.0
230
-1.0
 40
0.6712976470473822
 41
-1.570796326794896
 42
-0.9346114644468606
  0
ELLIPSE
  5
35D2
330
1A
100
AcDbEntity
  8
SEIHIN
 62
     3
100
AcDbEllipse
 10
360.9662491860562
 20
411.8416228232811
 30
0.0
 11
0.0
 21
10.0
 31
0.0
210
0.0
220
0.0
230
-1.0
 40
0.4477590878379033
 41
-1.570796326794896
 42
0.0
  0
ELLIPSE
  5
35D3
330
1A
100
AcDbEntity
  8
SEIHIN
 62
     3
100
AcDbEllipse
 10
366.3311746070561
 20
411.8416228232811
 30
0.0
 11
0.0
 21
10.0
 31
0.0
210
0.0
220
0.0
230
-1.0
 40
0.4477590878379033
 41
-1.570796326794896
 42
0.0
  0
ELLIPSE
  5
35D4
330
1A
100
AcDbEntity
  8
SEIHIN
 62
     3
100
AcDbEllipse
 10
379.7639472421981
 20
411.8416228232811
 30
0.0
 11
0.0
 21
10.0
 31
0.0
210
0.0
220
0.0
230
-1.0
 40
0.4477590878379033
 41
0.0000000000000127
 42
1.570796326794896
  0
LINE
  5
35D5
330
1A
100
AcDbEntity
  8
SEIHIN
  6
Continuous
 62
     3
100
AcDbLine
 10
334.8750573918771
 20
401.3416228232811
 30
0.0
 11
344.9986590914772
 21
401.3416228232811
 31
0.0
  0
LINE
  5
35D6
330
1A
100
AcDbEntity
  8
SEIHIN
  6
Continuous
 62
     3
100
AcDbLine
 10
332.8750573918771
 20
401.8416228232811
 30
0.0
 11
342.8535837286772
 21
401.8416228232811
 31
0.0
  0
LINE
  5
35D7
330
1A
100
AcDbEntity
  8
SEIHIN
 62
     3
 48
5.0
100
AcDbLine
 10
360.9662491860562
 20
421.841622823281
 30
0.0
 11
379.7639472421981
 21
421.841622823281
 31
0.0
  0
LINE
  5
35D8
330
1A
100
AcDbEntity
  8
CENTER_L
 62
     1
 48
5.0
100
AcDbLine
 10
374.8236531577408
 20
411.3416228232811
 30
0.0
 11
384.7042413266768
 21
411.3416228232811
 31
0.0
  0
LINE
  5
35D9
330
1A
100
AcDbEntity
  8
CENTER_L
 62
     1
100
AcDbLine
 10
366.3311746070561
 20
420.0222706215915
 30
0.0
 11
366.3311746070561
 21
406.6609750249707
 31
0.0
  0
LINE
  5
35DA
330
1A
100
AcDbEntity
  8
SEIHIN
 62
     3
100
AcDbLine
 10
358.0878517792958
 20
419.5015847215041
 30
0.0
 11
356.6464848205897
 21
416.5946707984232
 31
0.0
  0
LINE
  5
35DB
330
1A
100
AcDbEntity
  8
CENTER_L
 62
     1
100
AcDbLine
 10
368.5699700462297
 20
420.5911039297165
 30
0.0
 11
368.5699700462297
 21
406.0921417168458
 31
0.0
  0
LINE
  5
35DC
330
1A
100
AcDbEntity
  8
SEIHIN
  6
Continuous
 62
     3
100
AcDbLine
 10
346.8535837286772
 20
401.3416228232811
 30
0.0
 11
361.8535837286772
 21
401.3416228232811
 31
0.0
  0
LINE
  5
35DD
330
1A
100
AcDbEntity
  8
SEIHIN
 62
     3
100
AcDbLine
 10
355.5958680096772
 20
402.2062850814245
 30
0.0
 11
355.5958680096772
 21
411.8416228232811
 31
0.0
  0
LINE
  5
35DE
330
1A
100
AcDbEntity
  8
SEIHIN
 62
     3
100
AcDbLine
 10
356.4886583076772
 20
404.341622823281
 30
0.0
 11
356.4886583076772
 21
411.8416228232811
 31
0.0
  0
LINE
  5
35DF
330
1A
100
AcDbEntity
  8
SEIHIN
  6
Continuous
 62
     3
100
AcDbLine
 10
344.9986590914772
 20
401.8416228232811
 30
0.0
 11
354.2536718762772
 21
401.8416228232811
 31
0.0
  0
LINE
  5
35E0
330
1A
100
AcDbEntity
  8
SEIHIN
  6
Continuous
 62
     3
100
AcDbLine
 10
342.8535837286772
 20
401.3416228232811
 30
0.0
 11
342.8535837286772
 21
401.8416228232811
 31
0.0
  0
ARC
  5
35E1
330
1A
100
AcDbEntity
  8
SEIHIN
  6
Continuous
 62
     3
100
AcDbCircle
 10
353.4886583076772
 20
404.341622823281
 30
0.0
 40
3.0
100
AcDbArc
 50
270.0
 51
0.0
  0
LINE
  5
35E2
330
1A
100
AcDbEntity
  8
CENTER_L
 62
     1
 48
5.0
100
AcDbLine
 10
361.3908805225881
 20
413.341622823281
 30
0.0
 11
374.0251870816994
 21
413.341622823281
 31
0.0
  0
LINE
  5
35E3
330
1A
100
AcDbEntity
  8
SEIHIN
 62
     3
100
AcDbLine
 10
367.1750885478537
 20
412.4154924665782
 30
0.0
 11
365.4872606662587
 21
412.4154924665782
 31
0.0
  0
LINE
  5
35E4
330
1A
100
AcDbEntity
  8
SEIHIN
 62
     3
100
AcDbLine
 10
367.1750885478537
 20
414.2677531799838
 30
0.0
 11
365.4872606662587
 21
414.2677531799838
 31
0.0
  0
LINE
  5
35E5
330
1A
100
AcDbEntity
  8
CENTER_L
 62
     1
100
AcDbLine
 10
379.7639472422088
 20
417.4416228232811
 30
0.0
 11
379.7639472422088
 21
405.241622823281
 31
0.0
  0
LINE
  5
35E6
330
1A
100
AcDbEntity
  8
CENTER_L
 48
5.0
100
AcDbLine
 10
558.6299609347816
 20
298.7642457756905
 30
0.0
 11
549.2904182832547
 21
317.2935588514716
 31
0.0
  0
LEADER
  5
35E7
330
1A
100
AcDbEntity
  8
SUNPOU
 62
     4
100
AcDbLeader
  3
STANDARD
 74
     0
 40
6.0
 41
31.19999999999999
 76
     3
 10
557.9037380387478
 20
304.8223303725469
 30
0.0
 10
587.0656858769762
 20
290.7314775873323
 30
0.0
 10
591.0172973405178
 20
290.7314775873323
 30
0.0
1001
ACAD
1000
DSTYLE
1002
{
1070
     6
1000
OPEN
1070
    41
1040
7.0
1070
    42
1040
6.0
1070
    43
1040
14.0
1070
    44
1040
3.0
1070
    73
1070
     0
1070
    74
1070
     0
1070
    77
1070
     3
1070
   140
1040
6.0
1070
   141
1040
150.0
1070
   147
1040
2.0
1070
   172
1070
     1
1070
   173
1070
     1
1070
   176
1070
     4
1070
   177
1070
     4
1070
   178
1070
     4
1070
   271
1070
     0
1070
   272
1070
     2
1070
   341
1005
6D
1070
   343
1005
6D
1070
   344
1005
6D
1002
}
  0
LINE
  5
35E8
330
1A
100
AcDbEntity
  8
SEIHIN
 62
     3
100
AcDbLine
 10
544.939954933669
 20
300.3747536736846
 30
0.0
 11
540.8890689643318
 21
308.4115641643849
 31
0.0
  0
LINE
  5
35E9
330
1A
100
AcDbEntity
  8
SEIHIN
 62
     3
100
AcDbLine
 10
510.9706653907272
 20
294.4512945535607
 30
0.0
 11
539.5459915798836
 21
308.8544446667586
 31
0.0
  0
LINE
  5
35EA
330
1A
100
AcDbEntity
  8
SEIHIN
 62
     3
100
AcDbLine
 10
510.5205669496897
 20
295.3442734969718
 30
0.0
 11
539.095893138846
 21
309.7474236101697
 31
0.0
  0
LINE
  5
35EB
330
1A
100
AcDbEntity
  8
SEIHIN
 62
     3
100
AcDbLine
 10
498.4473063669799
 20
294.8580853626157
 30
0.0
 11
546.6681693111814
 21
319.1634011786371
 31
0.0
  0
DIMENSION
  5
35EC
330
1A
100
AcDbEntity
  8
SUNPOU
100
AcDbDimension
  2
*D11
 10
535.4692488473703
 20
344.7142565351057
 30
0.0
 11
509.9393837944465
 21
331.8461452039223
 31
0.0
 70
   160
 71
     5
 42
-1.0
  3
STANDARD
100
AcDbAlignedDimension
 13
498.3906185088199
 23
291.6379477123378
 33
0.0
 14
549.2904182832547
 24
317.2935588514716
 34
0.0
 50
26.74999999999989
100
AcDbRotatedDimension
1001
ACAD
1000
DSTYLE
1002
{
1070
   288
1070
     1
1070
   140
1040
6.0
1070
    74
1070
     0
1070
   172
1070
     1
1070
    73
1070
     0
1070
   272
1070
     2
1070
    77
1070
     3
1070
   173
1070
     1
1070
   147
1040
2.0
1070
    42
1040
6.0
1070
    44
1040
3.0
1070
    43
1040
14.0
1070
   271
1070
     0
1070
   178
1070
     4
1070
   177
1070
     4
1070
   176
1070
     4
1070
   141
1040
150.0
1070
     7
1000
_OPEN
1070
     6
1000
_OPEN
1070
    41
1040
7.0
1002
}
  0
LINE
  5
35ED
330
1A
100
AcDbEntity
  8
SEIHIN
 62
     3
100
AcDbLine
 10
545.8329338770799
 20
300.8248521147222
 30
0.0
 11
541.7820479077432
 21
308.8616626054223
 31
0.0
  0
LINE
  5
35EE
330
1A
100
AcDbEntity
  8
SEIHIN
 62
     3
100
AcDbLine
 10
560.098943155667
 20
314.7345961549002
 30
0.0
 11
573.60189638679
 21
287.9452278525661
 31
0.0
  0
LINE
  5
35EF
330
1A
100
AcDbEntity
  8
CENTER_L
 48
5.0
100
AcDbLine
 10
548.2133489782145
 20
256.1109434961916
 30
0.0
 11
518.3272450973436
 21
315.4038870680533
 31
0.0
  0
DIMENSION
  5
35F0
330
1A
100
AcDbEntity
  8
SUNPOU
100
AcDbDimension
  2
*D12
 10
469.4979703875382
 20
330.0751534751839
 30
0.0
 11
500.287699088563
 21
351.1936905106245
 31
0.0
 70
    32
 71
     5
 42
-1.0
  3
STANDARD
100
AcDbAlignedDimension
 13
560.098943155667
 23
314.7345961549002
 33
0.0
 14
494.0185013432428
 24
281.42731151813
 34
0.0
 50
26.74999999999989
100
AcDbRotatedDimension
1001
ACAD
1000
DSTYLE
1002
{
1070
   140
1040
6.0
1070
    74
1070
     0
1070
   172
1070
     1
1070
    73
1070
     0
1070
   272
1070
     2
1070
    77
1070
     3
1070
   173
1070
     1
1070
   147
1040
2.0
1070
    42
1040
6.0
1070
    44
1040
3.0
1070
    43
1040
14.0
1070
   271
1070
     0
1070
   178
1070
     4
1070
   177
1070
     4
1070
   176
1070
     4
1070
   141
1040
150.0
1070
     7
1000
_OPEN
1070
     6
1000
_OPEN
1070
    41
1040
7.0
1002
}
  0
LEADER
  5
35F1
330
1A
100
AcDbEntity
  8
SUNPOU
 62
     4
100
AcDbLeader
  3
STANDARD
 40
6.0
 41
31.19999999999999
 76
     3
 10
499.5741626860956
 20
285.9478856290371
 30
0.0
 10
463.3110548118911
 20
316.6489117037158
 30
0.0
 10
460.8675673872166
 20
316.6489117037158
 30
0.0
1001
ACAD
1000
DSTYLE
1002
{
1070
     6
1000
OPEN
1070
    41
1040
7.0
1070
    42
1040
6.0
1070
    43
1040
14.0
1070
    44
1040
3.0
1070
    73
1070
     0
1070
    74
1070
     0
1070
    77
1070
     3
1070
   140
1040
6.0
1070
   141
1040
150.0
1070
   147
1040
2.0
1070
   172
1070
     1
1070
   173
1070
     1
1070
   176
1070
     4
1070
   177
1070
     4
1070
   178
1070
     4
1070
   271
1070
     0
1070
   272
1070
     2
1070
   341
1005
6D
1070
   343
1005
6D
1070
   344
1005
6D
1002
}
  0
LINE
  5
35F2
330
1A
100
AcDbEntity
  8
SEIHIN
 62
     3
100
AcDbLine
 10
542.7363793297961
 20
290.3052822596522
 30
0.0
 11
523.9838215181621
 21
280.853214997866
 31
0.0
  0
LINE
  5
35F3
330
1A
100
AcDbEntity
  8
SEIHIN
 62
     3
100
AcDbLine
 10
520.9522284188518
 20
250.2091381920588
 30
0.0
 11
569.173091363053
 21
274.5144540080804
 31
0.0
  0
LINE
  5
35F4
330
1A
100
AcDbEntity
  8
SEIHIN
 62
     3
100
AcDbLine
 10
557.0998307803433
 20
274.0282658737243
 30
0.0
 11
528.524504591187
 21
259.6251157605263
 31
0.0
  0
LINE
  5
35F5
330
1A
100
AcDbEntity
  8
SEIHIN
 62
     3
100
AcDbLine
 10
551.7383481505447
 20
272.4457033914295
 30
0.0
 11
532.9857903389109
 21
262.9936361296433
 31
0.0
  0
DIMENSION
  5
35F6
330
1A
100
AcDbEntity
  8
SUNPOU
100
AcDbDimension
  2
*D13
 10
534.5060389882282
 20
224.4297388795618
 30
0.0
 11
558.0900158229171
 21
236.3170418054374
 31
0.0
 70
   160
 71
     5
 42
-1.0
  3
STANDARD
100
AcDbAlignedDimension
 13
567.4438213343907
 23
276.8343947762833
 33
0.0
 14
520.1159373336006
 24
252.9791774012993
 34
0.0
 50
26.74999999999989
100
AcDbRotatedDimension
1001
ACAD
1000
DSTYLE
1002
{
1070
   288
1070
     1
1070
   140
1040
6.0
1070
    74
1070
     0
1070
   172
1070
     1
1070
    73
1070
     0
1070
   272
1070
     2
1070
    77
1070
     3
1070
   173
1070
     1
1070
   147
1040
2.0
1070
    42
1040
6.0
1070
    44
1040
3.0
1070
    43
1040
14.0
1070
   271
1070
     0
1070
   178
1070
     4
1070
   177
1070
     4
1070
   176
1070
     4
1070
   141
1040
150.0
1070
     7
1000
_OPEN
1070
     6
1000
_OPEN
1070
    41
1040
7.0
1002
}
  0
LINE
  5
35F7
330
1A
100
AcDbEntity
  8
SEIHIN
 62
     3
100
AcDbLine
 10
515.9217482421389
 20
284.6285261760382
 30
0.0
 11
544.4970744312951
 21
299.0316762892361
 31
0.0
  0
LINE
  5
35F8
330
1A
100
AcDbEntity
  8
SEIHIN
 62
     3
100
AcDbLine
 10
516.3718466831762
 20
283.7355472326271
 30
0.0
 11
544.9471728723327
 21
298.138697345825
 31
0.0
  0
LINE
  5
35F9
330
1A
100
AcDbEntity
  8
SEIHIN
 62
     3
100
AcDbLine
 10
556.5739439833367
 20
298.3998362596624
 30
0.0
 11
509.2460599825464
 21
274.5446188846782
 31
0.0
  0
LINE
  5
35FA
330
1A
100
AcDbEntity
  8
SEIHIN
  6
PHANTOM
 62
     6
 48
3.0
100
AcDbLine
 10
413.8766126995771
 20
179.0336906179626
 30
0.0
 11
419.2415381205772
 21
181.7202451449626
 31
0.0
  0
DIMENSION
  5
35FB
330
1A
100
AcDbEntity
  8
SUNPOU
100
AcDbDimension
  2
*D14
 10
479.5427286765701
 20
229.3370320627217
 30
0.0
 11
472.7551623676902
 21
253.9119978531874
 31
0.0
 70
    32
 71
     5
 42
-1.0
  3
STANDARD
100
AcDbAlignedDimension
 13
498.4473063669799
 23
294.8580853626157
 33
0.0
 14
520.9522284188518
 24
250.2091381920588
 34
0.0
 50
116.7499999999995
100
AcDbRotatedDimension
1001
ACAD
1000
DSTYLE
1002
{
1070
   140
1040
6.0
1070
    74
1070
     0
1070
   172
1070
     1
1070
    73
1070
     0
1070
   272
1070
     2
1070
    77
1070
     3
1070
   173
1070
     1
1070
   147
1040
2.0
1070
    42
1040
6.0
1070
    44
1040
3.0
1070
    43
1040
14.0
1070
   271
1070
     0
1070
   178
1070
     4
1070
   177
1070
     4
1070
   176
1070
     4
1070
   141
1040
150.0
1070
     7
1000
_OPEN
1070
     6
1000
_OPEN
1070
    41
1040
7.0
1002
}
  0
DIMENSION
  5
35FC
330
1A
100
AcDbEntity
  8
SUNPOU
100
AcDbDimension
  2
*D15
 10
471.1680210588855
 20
281.1081936318143
 30
0.0
 11
462.3911014586558
 21
298.5212830283317
 31
0.0
 70
   160
 71
     5
 42
-1.0
  3
STANDARD
100
AcDbAlignedDimension
 13
495.2240229168477
 23
282.0349444135305
 33
0.0
 14
489.5175169328685
 24
290.3571009522414
 34
0.0
 50
116.7499999999995
100
AcDbRotatedDimension
1001
ACAD
1000
DSTYLE
1002
{
1070
   288
1070
     1
1070
   140
1040
6.0
1070
    74
1070
     0
1070
   172
1070
     1
1070
    73
1070
     0
1070
   272
1070
     2
1070
    77
1070
     3
1070
   173
1070
     1
1070
   147
1040
2.0
1070
    42
1040
6.0
1070
    44
1040
3.0
1070
    43
1040
14.0
1070
   271
1070
     0
1070
   178
1070
     4
1070
   177
1070
     4
1070
   176
1070
     4
1070
   141
1040
150.0
1070
     7
1000
_OPEN
1070
     6
1000
_OPEN
1070
    41
1040
7.0
1002
}
  0
LINE
  5
35FD
330
1A
100
AcDbEntity
  8
CENTER_L
 48
5.0
100
AcDbLine
 10
520.1159373336006
 20
252.9791774012993
 30
0.0
 11
513.6795296267653
 21
265.7487762920785
 31
0.0
  0
LINE
  5
35FE
330
1A
100
AcDbEntity
  8
SEIHIN
 62
     3
100
AcDbLine
 10
494.0185013432428
 20
281.42731151813
 30
0.0
 11
507.5214545743659
 21
254.6379432157959
 31
0.0
  0
DIMENSION
  5
35FF
330
1A
100
AcDbEntity
  8
SUNPOU
100
AcDbDimension
  2
*D16
 10
493.6729431107574
 20
236.4592464612576
 30
0.0
 11
502.4498627109872
 21
219.0461570647403
 31
0.0
 70
   160
 71
     5
 42
-1.0
  3
STANDARD
100
AcDbAlignedDimension
 13
510.5129340347932
 23
256.1457729932712
 33
0.0
 14
512.0224389847404
 24
245.7081537816845
 34
0.0
 50
116.7499999999995
100
AcDbRotatedDimension
1001
ACAD
1000
DSTYLE
1002
{
1070
   288
1070
     1
1070
   140
1040
6.0
1070
    74
1070
     0
1070
   172
1070
     1
1070
    73
1070
     0
1070
   272
1070
     2
1070
    77
1070
     3
1070
   173
1070
     1
1070
   147
1040
2.0
1070
    42
1040
6.0
1070
    44
1040
3.0
1070
    43
1040
14.0
1070
   271
1070
     0
1070
   178
1070
     4
1070
   177
1070
     4
1070
   176
1070
     4
1070
   141
1040
150.0
1070
     7
1000
_OPEN
1070
     6
1000
_OPEN
1070
    41
1040
7.0
1002
}
  0
ARC
  5
3600
330
1A
100
AcDbEntity
  8
SEIHIN
 62
     3
100
AcDbCircle
 10
516.4512440084772
 20
259.1389276261702
 30
0.0
 40
10.0
100
AcDbArc
 50
206.7499999999999
 51
296.7499999999994
  0
ARC
  5
3601
330
1A
100
AcDbEntity
  8
SEIHIN
 62
     3
100
AcDbCircle
 10
510.8214045261775
 20
271.4191925827392
 30
0.0
 40
3.5
100
AcDbArc
 50
116.7500000000996
 51
206.7499999999999
  0
ARC
  5
3602
330
1A
100
AcDbEntity
  8
SEIHIN
 62
     3
100
AcDbCircle
 10
503.994344099736
 20
280.520359866869
 30
0.0
 40
3.299999999999999
100
AcDbArc
 50
127.5753905063004
 51
105.9246094936998
  0
LINE
  5
3603
330
1A
100
AcDbEntity
  8
CENTER_L
 48
5.0
100
AcDbLine
 10
511.4060693300484
 20
284.2561769274798
 30
0.0
 11
496.5826188694235
 21
276.7845428062583
 31
0.0
  0
LINE
  5
3604
330
1A
100
AcDbEntity
  8
CENTER_L
 48
5.0
100
AcDbLine
 10
507.9936218076271
 20
288.4713521203659
 30
0.0
 11
495.2240229168477
 21
282.0349444135305
 31
0.0
  0
LINE
  5
3605
330
1A
100
AcDbEntity
  8
CENTER_L
 48
5.0
100
AcDbLine
 10
507.7301611603465
 20
273.1086346365567
 30
0.0
 11
498.3906185088199
 21
291.6379477123378
 31
0.0
  0
ARC
  5
3606
330
1A
100
AcDbEntity
  8
SEIHIN
 62
     3
100
AcDbCircle
 10
502.9482907773542
 20
285.9282959285043
 30
0.0
 40
10.0
100
AcDbArc
 50
116.7499999999995
 51
206.7499999999999
  0
ARC
  5
3607
330
1A
100
AcDbEntity
  8
SEIHIN
 62
     3
100
AcDbCircle
 10
501.6088223622375
 20
285.2531482669482
 30
0.0
 40
2.149999999999999
100
AcDbArc
 50
313.5048086972001
 51
279.9951913027006
  0
LINE
  5
3608
330
1A
100
AcDbEntity
  8
SEIHIN
 62
     3
100
AcDbLine
 10
532.9857903389109
 20
262.9936361296433
 30
0.0
 11
523.9838215181621
 21
280.853214997866
 31
0.0
  0
LINE
  5
3609
330
1A
100
AcDbEntity
  8
SEIHIN
 62
     3
100
AcDbLine
 10
530.2996355700136
 20
263.8793971343908
 30
0.0
 11
523.0980605134147
 21
278.167060228969
 31
0.0
  0
LINE
  5
360A
330
1A
100
AcDbEntity
  8
SEIHIN
 62
     3
100
AcDbLine
 10
523.0980605134147
 20
278.167060228969
 30
0.0
 11
510.5963553056588
 21
271.8656820544449
 31
0.0
  0
LINE
  5
360B
330
1A
100
AcDbEntity
  8
SEIHIN
 62
     3
100
AcDbLine
 10
523.8237337456171
 20
261.1751975188342
 30
0.0
 11
523.1485860840606
 21
262.514665933951
 31
0.0
  0
ARC
  5
360C
330
1A
100
AcDbEntity
  8
SEIHIN
 62
     3
100
AcDbCircle
 10
516.8977334801829
 20
259.3639768466889
 30
0.0
 40
7.0
100
AcDbArc
 50
26.74999999999989
 51
116.7499999999995
  0
ARC
  5
360D
330
1A
100
AcDbEntity
  8
SEIHIN
 62
     3
100
AcDbCircle
 10
516.8977334801829
 20
259.3639768466889
 30
0.0
 40
10.0
100
AcDbArc
 50
26.74999999999989
 51
116.7499999999995
  0
ARC
  5
360E
330
1A
100
AcDbEntity
  8
SEIHIN
 62
     3
100
AcDbCircle
 10
512.1716998492898
 20
268.7402557525059
 30
0.0
 40
3.5
100
AcDbArc
 50
206.7499999999999
 51
296.7499999999994
  0
CIRCLE
  5
360F
330
1A
100
AcDbEntity
  8
SEIHIN
 62
     3
100
AcDbCircle
 10
516.8977334801829
 20
259.3639768466889
 30
0.0
 40
2.149999999999999
  0
LINE
  5
3610
330
1A
100
AcDbEntity
  8
CENTER_L
 48
5.0
100
AcDbLine
 10
523.2825329255724
 20
262.5821807001066
 30
0.0
 11
510.5129340347932
 21
256.1457729932712
 31
0.0
  0
ARC
  5
3611
330
1A
100
AcDbEntity
  8
SEIHIN
 62
     3
100
AcDbCircle
 10
512.1716998492898
 20
268.7402557525059
 30
0.0
 40
0.5
100
AcDbArc
 50
206.7499999999999
 51
296.7499999999994
  0
ARC
  5
3612
330
1A
100
AcDbEntity
  8
SEIHIN
 62
     3
100
AcDbCircle
 10
510.8214045261775
 20
271.4191925827392
 30
0.0
 40
0.5
100
AcDbArc
 50
116.7499999999995
 51
206.7499999999999
  0
LINE
  5
3613
330
1A
100
AcDbEntity
  8
SEIHIN
 62
     3
100
AcDbLine
 10
511.7252103775842
 20
268.5152065319872
 30
0.0
 11
510.374915054472
 21
271.1941433622206
 31
0.0
  0
LINE
  5
3614
330
1A
100
AcDbEntity
  8
SEIHIN
 62
     3
100
AcDbLine
 10
509.0462735473508
 20
267.1649112088748
 30
0.0
 11
507.6959782242385
 21
269.8438480391082
 31
0.0
  0
LINE
  5
3615
330
1A
100
AcDbEntity
  8
SEIHIN
 62
     3
100
AcDbLine
 10
532.9857903389109
 20
262.9936361296433
 30
0.0
 11
530.2996355700136
 21
263.8793971343908
 31
0.0
  0
ARC
  5
3616
330
1A
100
AcDbEntity
  8
SEIHIN
 62
     3
100
AcDbCircle
 10
526.949160047556
 20
262.7505420624653
 30
0.0
 40
3.5
100
AcDbArc
 50
206.7499999999999
 51
296.7500000002002
  0
ARC
  5
3617
330
1A
100
AcDbEntity
  8
SEIHIN
 62
     3
100
AcDbCircle
 10
526.949160047556
 20
262.7505420624653
 30
0.0
 40
0.5
100
AcDbArc
 50
206.7499999999999
 51
296.7499999999994
  0
LINE
  5
3618
330
1A
100
AcDbEntity
  8
SEIHIN
 62
     3
100
AcDbLine
 10
526.5026705758505
 20
262.5254928419466
 30
0.0
 11
525.8275229142942
 21
263.8649612570633
 31
0.0
  0
LINE
  5
3619
330
1A
100
AcDbEntity
  8
SEIHIN
 62
     3
100
AcDbLine
 10
530.2996355700136
 20
263.8793971343908
 30
0.0
 11
527.1742092680747
 21
262.3040525907597
 31
0.0
  0
LINE
  5
361A
330
1A
100
AcDbEntity
  8
SEIHIN
 62
     3
100
AcDbLine
 10
523.0980605134147
 20
278.167060228969
 30
0.0
 11
523.9838215181621
 21
280.853214997866
 31
0.0
  0
LINE
  5
361B
330
1A
100
AcDbEntity
  8
SEIHIN
 62
     3
100
AcDbLine
 10
514.5786708576902
 20
285.0714066784119
 30
0.0
 11
510.5277848883533
 21
293.108217169112
 31
0.0
  0
LINE
  5
361C
330
1A
100
AcDbEntity
  8
SEIHIN
 62
     3
100
AcDbLine
 10
513.685691914279
 20
284.6213082373744
 30
0.0
 11
509.6348059449422
 21
292.6581187280746
 31
0.0
  0
ARC
  5
361D
330
1A
100
AcDbEntity
  8
SEIHIN
 62
     3
100
AcDbCircle
 10
515.4716498011014
 20
285.5215051194493
 30
0.0
 40
1.0
100
AcDbArc
 50
206.7499999999999
 51
296.7499999999994
  0
ARC
  5
361E
330
1A
100
AcDbEntity
  8
SEIHIN
 62
     3
100
AcDbCircle
 10
515.4716498011014
 20
285.5215051194493
 30
0.0
 40
2.0
100
AcDbArc
 50
206.7499999999999
 51
296.7499999999994
  0
ARC
  5
361F
330
1A
100
AcDbEntity
  8
SEIHIN
 62
     3
100
AcDbCircle
 10
511.4207638317646
 20
293.5583156101495
 30
0.0
 40
1.0
100
AcDbArc
 50
116.7499999999995
 51
206.7499999999999
  0
ARC
  5
3620
330
1A
100
AcDbEntity
  8
SEIHIN
 62
     3
100
AcDbCircle
 10
511.4207638317646
 20
293.5583156101495
 30
0.0
 40
2.0
100
AcDbArc
 50
116.7499999999995
 51
206.7499999999999
  0
MTEXT
  5
3621
330
1A
100
AcDbEntity
  8
SUNPOU
 62
     4
100
AcDbMText
 10
593.0172973405178
 20
292.7314775873323
 30
0.0
 40
6.0
 41
0.0
 71
     7
 72
     5
  1
2-φ6.5
 73
     1
 44
1.0
  0
ARC
  5
3622
330
1A
100
AcDbEntity
  8
SEIHIN
 62
     3
100
AcDbCircle
 10
564.6721069526789
 20
283.4442434421916
 30
0.0
 40
10.0
100
AcDbArc
 50
296.7499999999994
 51
26.74999999999989
  0
LINE
  5
3623
330
1A
100
AcDbEntity
  8
SEIHIN
 62
     3
100
AcDbLine
 10
555.9709757084179
 20
277.3787413961819
 30
0.0
 11
555.2958280468617
 21
278.7182098112987
 31
0.0
  0
ARC
  5
3624
330
1A
100
AcDbEntity
  8
SEIHIN
 62
     3
100
AcDbCircle
 10
555.5244862367124
 20
277.1536921756632
 30
0.0
 40
3.5
100
AcDbArc
 50
296.7499999999994
 51
26.74999999999989
  0
LINE
  5
3625
330
1A
100
AcDbEntity
  8
SEIHIN
 62
     3
100
AcDbLine
 10
552.6241091552922
 20
275.1318581603267
 30
0.0
 11
545.4225340986932
 21
289.4195212549049
 31
0.0
  0
LINE
  5
3626
330
1A
100
AcDbEntity
  8
CENTER_L
 48
5.0
100
AcDbLine
 10
567.4438213343907
 20
276.8343947762833
 30
0.0
 11
561.0074136275555
 21
289.6039936670625
 31
0.0
  0
LINE
  5
3627
330
1A
100
AcDbEntity
  8
SEIHIN
 62
     3
100
AcDbLine
 10
551.7383481505447
 20
272.4457033914295
 30
0.0
 11
542.7363793297961
 21
290.3052822596522
 31
0.0
  0
ARC
  5
3628
330
1A
100
AcDbEntity
  8
SEIHIN
 62
     3
100
AcDbCircle
 10
555.5244862367124
 20
277.1536921756632
 30
0.0
 40
0.5
100
AcDbArc
 50
296.7499999999994
 51
26.74999999999989
  0
LINE
  5
3629
330
1A
100
AcDbEntity
  8
SEIHIN
 62
     3
100
AcDbLine
 10
551.7383481505447
 20
272.4457033914295
 30
0.0
 11
552.6241091552922
 21
275.1318581603267
 31
0.0
  0
LINE
  5
362A
330
1A
100
AcDbEntity
  8
SEIHIN
 62
     3
100
AcDbLine
 10
552.6241091552922
 20
275.1318581603267
 30
0.0
 11
555.7495354572311
 21
276.7072027039576
 31
0.0
  0
ARC
  5
362B
330
1A
100
AcDbEntity
  8
SEIHIN
 62
     3
100
AcDbCircle
 10
564.2256174809731
 20
283.2191942216729
 30
0.0
 40
7.0
100
AcDbArc
 50
116.7499999999995
 51
206.7499999999999
  0
ARC
  5
362C
330
1A
100
AcDbEntity
  8
SEIHIN
 62
     3
100
AcDbCircle
 10
564.2256174809731
 20
283.2191942216729
 30
0.0
 40
10.0
100
AcDbArc
 50
116.7499999999995
 51
206.7499999999999
  0
LINE
  5
362D
330
1A
100
AcDbEntity
  8
SEIHIN
 62
     3
100
AcDbLine
 10
545.4225340986932
 20
289.4195212549049
 30
0.0
 11
557.9242393064492
 21
295.720899429429
 31
0.0
  0
LINE
  5
362E
330
1A
100
AcDbEntity
  8
SEIHIN
 62
     3
100
AcDbLine
 10
545.4225340986932
 20
289.4195212549049
 30
0.0
 11
542.7363793297961
 21
290.3052822596522
 31
0.0
  0
ARC
  5
362F
330
1A
100
AcDbEntity
  8
SEIHIN
 62
     3
100
AcDbCircle
 10
544.0469759902578
 20
299.9246552326471
 30
0.0
 40
1.0
100
AcDbArc
 50
296.7499999999994
 51
26.74999999999989
  0
ARC
  5
3630
330
1A
100
AcDbEntity
  8
SEIHIN
 62
     3
100
AcDbCircle
 10
544.0469759902578
 20
299.9246552326471
 30
0.0
 40
2.0
100
AcDbArc
 50
296.7499999999994
 51
26.74999999999989
  0
ARC
  5
3631
330
1A
100
AcDbEntity
  8
SEIHIN
 62
     3
100
AcDbCircle
 10
559.4995838500802
 20
292.5954731274899
 30
0.0
 40
3.5
100
AcDbArc
 50
296.7499999999994
 51
26.74999999999989
  0
CIRCLE
  5
3632
330
1A
100
AcDbEntity
  8
SEIHIN
 62
     3
100
AcDbCircle
 10
564.2256174809731
 20
283.2191942216729
 30
0.0
 40
2.149999999999999
  0
LINE
  5
3633
330
1A
100
AcDbEntity
  8
CENTER_L
 48
5.0
100
AcDbLine
 10
570.6104169263628
 20
286.4373980750907
 30
0.0
 11
557.8408180355837
 21
280.0009903682554
 31
0.0
  0
LINE
  5
3634
330
1A
100
AcDbEntity
  8
SEIHIN
 62
     3
100
AcDbLine
 10
558.6499125386512
 20
278.7290367192943
 30
0.0
 11
557.9747648770951
 21
280.0685051344109
 31
0.0
  0
ARC
  5
3635
330
1A
100
AcDbEntity
  8
SEIHIN
 62
     3
100
AcDbCircle
 10
558.1492885269679
 20
295.2744099577233
 30
0.0
 40
0.5
100
AcDbArc
 50
26.74999999999989
 51
116.7499999999995
  0
ARC
  5
3636
330
1A
100
AcDbEntity
  8
SEIHIN
 62
     3
100
AcDbCircle
 10
558.1492885269679
 20
295.2744099577233
 30
0.0
 40
3.5
100
AcDbArc
 50
26.74999999999989
 51
116.7499999999995
  0
ARC
  5
3637
330
1A
100
AcDbEntity
  8
SEIHIN
 62
     3
100
AcDbCircle
 10
559.4995838500802
 20
292.5954731274899
 30
0.0
 40
0.5
100
AcDbArc
 50
296.7499999999994
 51
26.74999999999989
  0
LINE
  5
3638
330
1A
100
AcDbEntity
  8
SEIHIN
 62
     3
100
AcDbLine
 10
559.9460733217857
 20
292.8205223480087
 30
0.0
 11
558.5957779986734
 21
295.4994591782421
 31
0.0
  0
LINE
  5
3639
330
1A
100
AcDbEntity
  8
SEIHIN
 62
     3
100
AcDbLine
 10
562.6250101520192
 20
294.1708176711209
 30
0.0
 11
561.2747148289067
 21
296.8497545013543
 31
0.0
  0
ARC
  5
363A
330
1A
100
AcDbEntity
  8
SEIHIN
 62
     3
100
AcDbCircle
 10
539.9960900209209
 20
307.9614657233474
 30
0.0
 40
1.0
100
AcDbArc
 50
26.74999999999989
 51
116.7499999999995
  0
ARC
  5
363B
330
1A
100
AcDbEntity
  8
SEIHIN
 62
     3
100
AcDbCircle
 10
539.9960900209209
 20
307.9614657233474
 30
0.0
 40
2.0
100
AcDbArc
 50
26.74999999999989
 51
116.7499999999995
  0
MTEXT
  5
363C
330
1A
100
AcDbEntity
  8
SUNPOU
 62
     4
100
AcDbMText
 10
458.8675673872166
 20
318.6489117037158
 30
0.0
 40
6.0
 41
0.0
 71
     9
 72
     5
  1
4-φ4.2
 73
     1
 44
1.0
  0
DIMENSION
  5
363D
330
1A
100
AcDbEntity
  8
SUNPOU
100
AcDbDimension
  2
*D17
 10
588.50533206322
 20
323.1174045268395
 30
0.0
 11
589.5269737063394
 21
332.1991856491217
 31
0.0
 70
    32
 71
     5
 42
-1.0
  3
STANDARD
100
AcDbAlignedDimension
 13
546.6681693111814
 23
319.1634011786371
 33
0.0
 14
562.3058691044832
 24
309.9117880666136
 34
0.0
 50
116.7499999999995
100
AcDbRotatedDimension
1001
ACAD
1000
DSTYLE
1002
{
1070
   140
1040
6.0
1070
    74
1070
     0
1070
   172
1070
     1
1070
    73
1070
     0
1070
   272
1070
     2
1070
    77
1070
     3
1070
   173
1070
     1
1070
   147
1040
2.0
1070
    42
1040
6.0
1070
    44
1040
3.0
1070
    43
1040
14.0
1070
   271
1070
     0
1070
   178
1070
     4
1070
   177
1070
     4
1070
   176
1070
     4
1070
   141
1040
150.0
1070
     7
1000
_OPEN
1070
     6
1000
_OPEN
1070
    41
1040
7.0
1002
}
  0
ARC
  5
363E
330
1A
100
AcDbEntity
  8
SEIHIN
 62
     3
100
AcDbCircle
 10
551.1691537215556
 20
310.2336117445258
 30
0.0
 40
10.0
100
AcDbArc
 50
26.74999999999989
 51
116.7499999999995
  0
ARC
  5
363F
330
1A
100
AcDbEntity
  8
SEIHIN
 62
     3
100
AcDbCircle
 10
554.8941438741707
 20
306.1759710060028
 30
0.0
 40
3.299999999999999
100
AcDbArc
 50
127.5753905063004
 51
105.9246094936998
  0
LINE
  5
3640
330
1A
100
AcDbEntity
  8
CENTER_L
 48
5.0
100
AcDbLine
 10
562.3058691044832
 20
309.9117880666136
 30
0.0
 11
547.4824186438583
 21
302.4401539453922
 31
0.0
  0
LINE
  5
3641
330
1A
100
AcDbEntity
  8
CENTER_L
 48
5.0
100
AcDbLine
 10
558.8934215820621
 20
314.1269632594997
 30
0.0
 11
546.1238226912828
 21
307.6905555526643
 31
0.0
  0
ARC
  5
3642
330
1A
100
AcDbEntity
  8
SEIHIN
 62
     3
100
AcDbCircle
 10
552.5086221366723
 20
310.9087594060819
 30
0.0
 40
2.149999999999999
100
AcDbArc
 50
313.5048086972992
 51
279.9951913028
  0
VIEWPORT
  5
22
330
17
100
AcDbEntity
 67
     1
  8
0
100
AcDbViewport
 10
313.6808219178082
 20
148.5
 30
0.0
 40
627.3616438356165
 41
297.0
 68
     2
 69
     1
 12
313.6808219178082
 22
148.5
 13
0.0
 23
0.0
 14
1.0
 24
1.0
 15
10.0
 25
10.0
 16
0.0
 26
0.0
 36
1.0
 17
0.0
 27
0.0
 37
0.0
 42
50.0
 43
0.0
 44
0.0
 45
297.0
 50
0.0
 51
0.0
 72
   100
 90
    32768
  1

281
     0
 71
     1
 74
     0
110
0.0
120
0.0
130
0.0
111
1.0
121
0.0
131
0.0
112
0.0
122
1.0
132
0.0
 79
     0
146
0.0
  0
VIEWPORT
  5
64
330
17
100
AcDbEntity
 67
     1
  8
VIEWPORT
100
AcDbViewport
 10
210.0
 20
148.5
 30
0.0
 40
420.0
 41
297.0
 68
     1
 69
     2
 12
420.0
 22
297.0
 13
0.0
 23
0.0
 14
10.0
 24
10.0
 15
0.0
 25
0.0
 16
0.0
 26
0.0
 36
1.0
 17
0.0
 27
0.0
 37
0.0
 42
50.0
 43
0.0
 44
0.0
 45
605.8799999999998
 50
0.0
 51
0.0
 72
   100
 90
    32768
  1

281
     0
 71
     1
 74
     0
110
0.0
120
0.0
130
0.0
111
1.0
121
0.0
131
0.0
112
0.0
122
1.0
132
0.0
 79
     0
146
0.0
  0
ENDSEC
  0
SECTION
  2
OBJECTS
  0
DICTIONARY
  5
C
330
0
100
AcDbDictionary
281
     1
  3
ACAD_GROUP
350
D
  3
ACAD_LAYOUT
350
85F
  3
ACAD_MLINESTYLE
350
E
  3
ACAD_PLOTSETTINGS
350
860
  3
ACAD_PLOTSTYLENAME
350
85D
  0
DICTIONARY
  5
D
102
{ACAD_REACTORS
330
C
102
}
330
C
100
AcDbDictionary
281
     1
  0
DICTIONARY
  5
85F
102
{ACAD_REACTORS
330
C
102
}
330
C
100
AcDbDictionary
281
     1
  3
Model
350
37EE
  3
ﾚｲｱｳﾄ1
350
37EF
  0
DICTIONARY
  5
E
102
{ACAD_REACTORS
330
C
102
}
330
C
100
AcDbDictionary
281
     1
  3
STANDARD
350
13
  0
DICTIONARY
  5
860
102
{ACAD_REACTORS
330
C
102
}
330
C
100
AcDbDictionary
281
     1
  0
ACDBDICTIONARYWDFLT
  5
85D
102
{ACAD_REACTORS
330
C
102
}
330
C
100
AcDbDictionary
281
     1
  3
Normal
350
85E
100
AcDbDictionaryWithDefault
340
85E
1001
ACAD
1000
TREAT_AS_HARD
1070
     0
1000
TREAT_AS_HARD
1070
     0
1000
TREAT_AS_HARD
1070
     0
1000
TREAT_AS_HARD
1070
     0
1000
TREAT_AS_HARD
1070
     0
  0
LAYOUT
  5
37EE
102
{ACAD_REACTORS
330
85F
102
}
330
85F
100
AcDbPlotSettings
  1

  2
EPSON LP-9200C
  4

  6

 40
0.0
 41
0.0
 42
0.0
 43
0.0
 44
0.0
 45
0.0
 46
0.0
 47
0.0
 48
0.0
 49
0.0
140
0.0
141
0.0
142
1.0
143
1.0
 70
  1712
 72
     0
 73
     0
 74
     0
  7

 75
     0
147
1.0
148
0.0
149
0.0
100
AcDbLayout
  1
Model
 70
     1
 71
     0
 10
0.0
 20
0.0
 11
12.0
 21
9.0
 12
0.0
 22
0.0
 32
0.0
 14
0.0
 24
0.0
 34
0.0
 15
0.0
 25
0.0
 35
0.0
146
0.0
 13
0.0
 23
0.0
 33
0.0
 16
1.0
 26
0.0
 36
0.0
 17
0.0
 27
1.0
 37
0.0
 76
     0
330
1A
  0
LAYOUT
  5
37EF
102
{ACAD_REACTORS
330
85F
102
}
330
85F
100
AcDbPlotSettings
  1

  2
EPSON LP-9200C
  4

  6

 40
0.0
 41
0.0
 42
0.0
 43
0.0
 44
0.0
 45
0.0
 46
0.0
 47
0.0
 48
0.0
 49
0.0
140
0.0
141
0.0
142
1.0
143
1.0
 70
   688
 72
     0
 73
     0
 74
     5
  7

 75
    16
147
1.0
148
0.0
149
0.0
100
AcDbLayout
  1
ﾚｲｱｳﾄ1
 70
     1
 71
     1
 10
0.0
 20
0.0
 11
420.0
 21
297.0
 12
0.0
 22
0.0
 32
0.0
 14
0.0
 24
0.0
 34
0.0
 15
420.0
 25
297.0
 35
0.0
146
0.0
 13
0.0
 23
0.0
 33
0.0
 16
1.0
 26
0.0
 36
0.0
 17
0.0
 27
1.0
 37
0.0
 76
     0
330
17
331
64
  0
MLINESTYLE
  5
13
102
{ACAD_REACTORS
330
E
102
}
330
E
100
AcDbMlineStyle
  2
STANDARD
 70
     0
  3

 62
     0
 51
90.0
 52
90.0
 71
     2
 49
0.5
 62
   256
  6
BYLAYER
 49
-0.5
 62
   256
  6
BYLAYER
  0
ACDBPLACEHOLDER
  5
85E
102
{ACAD_REACTORS
330
85D
102
}
330
85D
  0
ENDSEC
  0
EOF
