  0
SECTION
  2
HEADER
  9
$ACADVER
  1
AC1012
  9
$DWGCODEPAGE
  3
dos932
  9
$INSBASE
 10
0.0
 20
0.0
 30
0.0
  9
$EXTMIN
 10
5.0
 20
2.449000558492456
 30
0.0
  9
$EXTMAX
 10
403.0
 20
282.0
 30
0.0
  9
$LIMMIN
 10
0.0
 20
0.0
  9
$LIMMAX
 10
420.0
 20
297.0
  9
$ORTHOMODE
 70
     0
  9
$REGENMODE
 70
     1
  9
$FILLMODE
 70
     1
  9
$QTEXTMODE
 70
     0
  9
$MIRRTEXT
 70
     1
  9
$DRAGMODE
 70
     2
  9
$LTSCALE
 40
1.0
  9
$OSMODE
 70
    37
  9
$ATTMODE
 70
     1
  9
$TEXTSIZE
 40
2.5
  9
$TRACEWID
 40
1.0
  9
$TEXTSTYLE
  7
STANDARD
  9
$CLAYER
  8
SUNPOU
  9
$CELTYPE
  6
BYLAYER
  9
$CECOLOR
 62
   256
  9
$CELTSCALE
 40
1.0
  9
$DELOBJ
 70
     1
  9
$DISPSILH
 70
     0
  9
$DIMSCALE
 40
1.0
  9
$DIMASZ
 40
3.0
  9
$DIMEXO
 40
3.0
  9
$DIMDLI
 40
7.0
  9
$DIMRND
 40
0.0
  9
$DIMDLE
 40
0.0
  9
$DIMEXE
 40
1.5
  9
$DIMTP
 40
0.0
  9
$DIMTM
 40
0.0
  9
$DIMTXT
 40
3.0
  9
$DIMCEN
 40
150.0
  9
$DIMTSZ
 40
0.0
  9
$DIMTOL
 70
     0
  9
$DIMLIM
 70
     0
  9
$DIMTIH
 70
     0
  9
$DIMTOH
 70
     0
  9
$DIMSE1
 70
     0
  9
$DIMSE2
 70
     0
  9
$DIMTAD
 70
     3
  9
$DIMZIN
 70
     0
  9
$DIMBLK
  1

  9
$DIMASO
 70
     1
  9
$DIMSHO
 70
     1
  9
$DIMPOST
  1

  9
$DIMAPOST
  1

  9
$DIMALT
 70
     0
  9
$DIMALTD
 70
     2
  9
$DIMALTF
 40
25.4
  9
$DIMLFAC
 40
1.0
  9
$DIMTOFL
 70
     1
  9
$DIMTVP
 40
0.0
  9
$DIMTIX
 70
     0
  9
$DIMSOXD
 70
     0
  9
$DIMSAH
 70
     1
  9
$DIMBLK1
  1
OPEN
  9
$DIMBLK2
  1
OPEN
  9
$DIMSTYLE
  2
STANDARD
  9
$DIMCLRD
 70
   256
  9
$DIMCLRE
 70
   256
  9
$DIMCLRT
 70
   256
  9
$DIMTFAC
 40
1.0
  9
$DIMGAP
 40
1.0
  9
$DIMJUST
 70
     0
  9
$DIMSD1
 70
     0
  9
$DIMSD2
 70
     0
  9
$DIMTOLJ
 70
     1
  9
$DIMTZIN
 70
     0
  9
$DIMALTZ
 70
     0
  9
$DIMALTTZ
 70
     0
  9
$DIMFIT
 70
     3
  9
$DIMUPT
 70
     0
  9
$DIMUNIT
 70
     2
  9
$DIMDEC
 70
     0
  9
$DIMTDEC
 70
     0
  9
$DIMALTU
 70
     2
  9
$DIMALTTD
 70
     2
  9
$DIMTXSTY
  7
STANDARD
  9
$DIMAUNIT
 70
     0
  9
$LUNITS
 70
     2
  9
$LUPREC
 70
     4
  9
$SKETCHINC
 40
1.0
  9
$FILLETRAD
 40
10.0
  9
$AUNITS
 70
     0
  9
$AUPREC
 70
     0
  9
$MENU
  1
.
  9
$ELEVATION
 40
0.0
  9
$PELEVATION
 40
0.0
  9
$THICKNESS
 40
0.0
  9
$LIMCHECK
 70
     0
  9
$BLIPMODE
 70
     0
  9
$CHAMFERA
 40
10.0
  9
$CHAMFERB
 40
10.0
  9
$CHAMFERC
 40
20.0
  9
$CHAMFERD
 40
0.0
  9
$SKPOLY
 70
     0
  9
$TDCREATE
 40
2450994.350997107
  9
$TDUPDATE
 40
2452393.842235439
  9
$TDINDWG
 40
0.0135854861
  9
$TDUSRTIMER
 40
0.0135854861
  9
$USRTIMER
 70
     1
  9
$ANGBASE
 50
0.0
  9
$ANGDIR
 70
     0
  9
$PDMODE
 70
     1
  9
$PDSIZE
 40
0.0
  9
$PLINEWID
 40
0.0
  9
$COORDS
 70
     1
  9
$SPLFRAME
 70
     0
  9
$SPLINETYPE
 70
     6
  9
$SPLINESEGS
 70
     8
  9
$ATTDIA
 70
     0
  9
$ATTREQ
 70
     1
  9
$HANDLING
 70
 10241
  9
$HANDSEED
  5
B87
  9
$SURFTAB1
 70
     6
  9
$SURFTAB2
 70
     6
  9
$SURFTYPE
 70
     6
  9
$SURFU
 70
     6
  9
$SURFV
 70
     6
  9
$UCSNAME
  2

  9
$UCSORG
 10
0.0
 20
0.0
 30
0.0
  9
$UCSXDIR
 10
1.0
 20
0.0
 30
0.0
  9
$UCSYDIR
 10
0.0
 20
1.0
 30
0.0
  9
$PUCSNAME
  2

  9
$PUCSORG
 10
0.0
 20
0.0
 30
0.0
  9
$PUCSXDIR
 10
1.0
 20
0.0
 30
0.0
  9
$PUCSYDIR
 10
0.0
 20
1.0
 30
0.0
  9
$USERI1
 70
     0
  9
$USERI2
 70
     0
  9
$USERI3
 70
     0
  9
$USERI4
 70
     0
  9
$USERI5
 70
     0
  9
$USERR1
 40
0.0
  9
$USERR2
 40
0.0
  9
$USERR3
 40
0.0
  9
$USERR4
 40
0.0
  9
$USERR5
 40
0.0
  9
$WORLDVIEW
 70
     1
  9
$SHADEDGE
 70
     3
  9
$SHADEDIF
 70
    70
  9
$TILEMODE
 70
     1
  9
$MAXACTVP
 70
    16
  9
$PINSBASE
 10
0.0
 20
0.0
 30
0.0
  9
$PLIMCHECK
 70
     0
  9
$PEXTMIN
 10
0.0
 20
0.0
 30
0.0
  9
$PEXTMAX
 10
420.0
 20
297.0
 30
0.0
  9
$PLIMMIN
 10
0.0
 20
0.0
  9
$PLIMMAX
 10
420.0
 20
297.0
  9
$UNITMODE
 70
     0
  9
$VISRETAIN
 70
     0
  9
$PLINEGEN
 70
     0
  9
$PSLTSCALE
 70
     1
  9
$TREEDEPTH
 70
  3020
  9
$PICKSTYLE
 70
     1
  9
$CMLSTYLE
  2
STANDARD
  9
$CMLJUST
 70
     0
  9
$CMLSCALE
 40
1.0
  9
$SAVEIMAGES
 70
     1
  0
ENDSEC
  0
SECTION
  2
CLASSES
  0
CLASS
  1
ACDBDICTIONARYWDFLT
  2
AcDbDictionaryWithDefault
  3
AutoCAD 2000
 90
    32768
280
     0
281
     0
  0
CLASS
  1
ACDBPLACEHOLDER
  2
AcDbPlaceHolder
  3
AutoCAD 2000
 90
    32768
280
     0
281
     0
  0
CLASS
  1
LAYOUT
  2
AcDbLayout
  3
AutoCAD 2000
 90
    32768
280
     0
281
     0
  0
CLASS
  1
LONG_TRANSACTION
  2
AcDbLongTransaction
  3
AutoCAD 2000
 90
    32768
280
     0
281
     0
  0
CLASS
  1
LWPOLYLINE
  2
AcDbPolyline
  3
AutoCAD 2000
 90
    32768
280
     0
281
     1
  0
CLASS
  1
HATCH
  2
AcDbHatch
  3
AutoCAD 2000
 90
    32768
280
     0
281
     1
  0
CLASS
  1
XRECORD
  2
AcDbXrecord
  3
AutoCAD 2000
 90
    32768
280
     0
281
     0
  0
CLASS
  1
LONG_TRANSACTION
  2
AcDbLongTransaction
  3
AutoCAD 2000
 90
    32768
280
     0
281
     0
  0
CLASS
  1
LWPOLYLINE
  2
AcDbPolyline
  3
AutoCAD 2000
 90
    32768
280
     0
281
     1
  0
CLASS
  1
HATCH
  2
AcDbHatch
  3
AutoCAD 2000
 90
    32768
280
     0
281
     1
  0
CLASS
  1
XRECORD
  2
AcDbXrecord
  3
AutoCAD 2000
 90
    32768
280
     0
281
     0
  0
CLASS
  1
LONG_TRANSACTION
  2
AcDbLongTransaction
  3
AutoCAD 2000
 90
    32768
280
     0
281
     0
  0
CLASS
  1
LWPOLYLINE
  2
AcDbPolyline
  3
AutoCAD 2000
 90
    32768
280
     0
281
     1
  0
CLASS
  1
HATCH
  2
AcDbHatch
  3
AutoCAD 2000
 90
    32768
280
     0
281
     1
  0
CLASS
  1
XRECORD
  2
AcDbXrecord
  3
AutoCAD 2000
 90
    32768
280
     0
281
     0
  0
CLASS
  1
LONG_TRANSACTION
  2
AcDbLongTransaction
  3
AutoCAD 2000
 90
    32768
280
     0
281
     0
  0
CLASS
  1
LWPOLYLINE
  2
AcDbPolyline
  3
AutoCAD 2000
 90
    32768
280
     0
281
     1
  0
CLASS
  1
HATCH
  2
AcDbHatch
  3
AutoCAD 2000
 90
    32768
280
     0
281
     1
  0
CLASS
  1
XRECORD
  2
AcDbXrecord
  3
AutoCAD 2000
 90
    32768
280
     0
281
     0
  0
ENDSEC
  0
SECTION
  2
TABLES
  0
TABLE
  2
VPORT
  5
8
330
0
100
AcDbSymbolTable
 70
     2
  0
VPORT
  5
B7B
330
8
100
AcDbSymbolTableRecord
100
AcDbViewportTableRecord
  2
*ACTIVE
 70
     0
 10
0.0
 20
0.0
 11
1.0
 21
1.0
 12
274.4938184410544
 22
148.5
 13
0.0
 23
0.0
 14
5.0
 24
5.0
 15
0.0
 25
0.0
 16
0.0
 26
0.0
 36
1.0
 17
0.0
 27
0.0
 37
0.0
 40
300.375
 41
2.169459962756052
 42
50.0
 43
0.0
 44
0.0
 50
0.0
 51
0.0
 71
     0
 72
   100
 73
     1
 74
     0
 75
     0
 76
     0
 77
     0
 78
     0
  0
ENDTAB
  0
TABLE
  2
LTYPE
  5
5
330
0
100
AcDbSymbolTable
 70
     2
  0
LTYPE
  5
14
330
5
100
AcDbSymbolTableRecord
100
AcDbLinetypeTableRecord
  2
BYBLOCK
 70
     0
  3

 72
    65
 73
     0
 40
0.0
  0
LTYPE
  5
15
330
5
100
AcDbSymbolTableRecord
100
AcDbLinetypeTableRecord
  2
BYLAYER
 70
     0
  3

 72
    65
 73
     0
 40
0.0
  0
LTYPE
  5
16
330
5
100
AcDbSymbolTableRecord
100
AcDbLinetypeTableRecord
  2
CONTINUOUS
 70
     0
  3
Solid line
 72
    65
 73
     0
 40
0.0
  0
LTYPE
  5
120
330
5
100
AcDbSymbolTableRecord
100
AcDbLinetypeTableRecord
  2
CENTER
 70
     0
  3
____ _ ____ _ ____ _ ____ _ ____ _ ____ _ ____ 
 72
    65
 73
     4
 40
2.0
 49
1.25
 74
     0
 49
-0.25
 74
     0
 49
0.25
 74
     0
 49
-0.25
 74
     0
  0
ENDTAB
  0
TABLE
  2
LAYER
  5
2
330
0
100
AcDbSymbolTable
 70
     7
  0
LAYER
  5
F
330
2
100
AcDbSymbolTableRecord
100
AcDbLayerTableRecord
  2
0
 70
     0
 62
     7
  6
CONTINUOUS
  0
LAYER
  5
62
330
2
100
AcDbSymbolTableRecord
100
AcDbLayerTableRecord
  2
VIEWPORT
 70
     0
 62
     7
  6
CONTINUOUS
  0
LAYER
  5
6B
330
2
100
AcDbSymbolTableRecord
100
AcDbLayerTableRecord
  2
ZUWAKU
 70
     0
 62
     7
  6
CONTINUOUS
  0
LAYER
  5
1D4
330
2
100
AcDbSymbolTableRecord
100
AcDbLayerTableRecord
  2
SEIHIN
 70
     0
 62
     3
  6
CONTINUOUS
  0
LAYER
  5
1D5
330
2
100
AcDbSymbolTableRecord
100
AcDbLayerTableRecord
  2
SUNPOU
 70
     0
 62
     4
  6
CONTINUOUS
  0
LAYER
  5
1D6
330
2
100
AcDbSymbolTableRecord
100
AcDbLayerTableRecord
  2
CENTER_L
 70
     0
 62
     1
  6
CENTER
  0
LAYER
  5
1D7
330
2
100
AcDbSymbolTableRecord
100
AcDbLayerTableRecord
  2
DEFPOINTS
 70
     0
 62
     7
  6
CONTINUOUS
  0
ENDTAB
  0
TABLE
  2
STYLE
  5
3
330
0
100
AcDbSymbolTable
 70
     1
  0
STYLE
  5
10
330
3
100
AcDbSymbolTableRecord
100
AcDbTextStyleTableRecord
  2
STANDARD
 70
     0
 40
0.0
 41
1.0
 50
0.0
 71
     0
 42
2.5
  3
TXT
  4
bigfont.shx
  0
ENDTAB
  0
TABLE
  2
VIEW
  5
6
330
0
100
AcDbSymbolTable
 70
     0
  0
ENDTAB
  0
TABLE
  2
UCS
  5
7
330
0
100
AcDbSymbolTable
 70
     0
  0
ENDTAB
  0
TABLE
  2
APPID
  5
9
330
0
100
AcDbSymbolTable
 70
     1
  0
APPID
  5
11
330
9
100
AcDbSymbolTableRecord
100
AcDbRegAppTableRecord
  2
ACAD
 70
     0
  0
ENDTAB
  0
TABLE
  2
DIMSTYLE
  5
A
330
0
100
AcDbSymbolTable
 70
     1
  0
DIMSTYLE
105
1D
102
{ACAD_REACTORS
330
66F
330
670
330
671
330
67B
330
67C
330
67D
330
67E
330
683
330
68A
330
6D9
330
700
330
A7D
102
}
330
A
100
AcDbSymbolTableRecord
100
AcDbDimStyleTableRecord
  2
STANDARD
 70
     0
  3

  4

  5

  6

  7

 40
1.0
 41
0.18
 42
0.0625
 43
0.38
 44
0.18
 45
0.0
 46
0.0
 47
0.0
 48
0.0
140
0.18
141
0.09
142
0.0
143
25.4
144
1.0
145
0.0
146
1.0
147
0.09
 71
     0
 72
     0
 73
     1
 74
     1
 75
     0
 76
     0
 77
     0
 78
     0
170
     0
171
     2
172
     0
173
     0
174
     0
175
     0
176
     0
177
     0
178
     0
270
     2
271
     4
272
     4
273
     2
274
     2
340
10
275
     0
280
     0
281
     0
282
     0
283
     1
284
     0
285
     0
286
     0
287
     3
288
     0
  0
ENDTAB
  0
TABLE
  2
BLOCK_RECORD
  5
1
330
0
100
AcDbSymbolTable
 70
    13
  0
BLOCK_RECORD
  5
1A
102
{ACAD_XDICTIONARY
360
876
102
}
330
1
100
AcDbSymbolTableRecord
100
AcDbBlockTableRecord
  2
*MODEL_SPACE
  0
BLOCK_RECORD
  5
17
102
{ACAD_XDICTIONARY
360
874
102
}
330
1
100
AcDbSymbolTableRecord
100
AcDbBlockTableRecord
  2
*PAPER_SPACE
  0
BLOCK_RECORD
  5
B2
330
1
100
AcDbSymbolTableRecord
100
AcDbBlockTableRecord
  2
_OPEN
  0
BLOCK_RECORD
  5
741
330
1
100
AcDbSymbolTableRecord
100
AcDbBlockTableRecord
  2
*D1
  0
BLOCK_RECORD
  5
74D
330
1
100
AcDbSymbolTableRecord
100
AcDbBlockTableRecord
  2
*D2
  0
BLOCK_RECORD
  5
759
330
1
100
AcDbSymbolTableRecord
100
AcDbBlockTableRecord
  2
*D3
  0
BLOCK_RECORD
  5
765
330
1
100
AcDbSymbolTableRecord
100
AcDbBlockTableRecord
  2
*D4
  0
BLOCK_RECORD
  5
771
330
1
100
AcDbSymbolTableRecord
100
AcDbBlockTableRecord
  2
*D5
  0
BLOCK_RECORD
  5
77D
330
1
100
AcDbSymbolTableRecord
100
AcDbBlockTableRecord
  2
*D6
  0
BLOCK_RECORD
  5
789
330
1
100
AcDbSymbolTableRecord
100
AcDbBlockTableRecord
  2
*D7
  0
BLOCK_RECORD
  5
797
330
1
100
AcDbSymbolTableRecord
100
AcDbBlockTableRecord
  2
*D8
  0
BLOCK_RECORD
  5
7A3
330
1
100
AcDbSymbolTableRecord
100
AcDbBlockTableRecord
  2
*D9
  0
BLOCK_RECORD
  5
7AF
330
1
100
AcDbSymbolTableRecord
100
AcDbBlockTableRecord
  2
*D10
  0
BLOCK_RECORD
  5
7BB
330
1
100
AcDbSymbolTableRecord
100
AcDbBlockTableRecord
  2
*D11
  0
BLOCK_RECORD
  5
A7E
330
1
100
AcDbSymbolTableRecord
100
AcDbBlockTableRecord
  2
*D12
  0
ENDTAB
  0
ENDSEC
  0
SECTION
  2
BLOCKS
  0
BLOCK
  5
1B
330
1A
100
AcDbEntity
  8
0
100
AcDbBlockBegin
  2
*MODEL_SPACE
 70
     0
 10
0.0
 20
0.0
 30
0.0
  3
*MODEL_SPACE
  1

  0
ENDBLK
  5
1C
330
1A
100
AcDbEntity
  8
0
100
AcDbBlockEnd
  0
BLOCK
  5
18
330
17
100
AcDbEntity
 67
     1
  8
0
100
AcDbBlockBegin
  2
*PAPER_SPACE
 70
     0
 10
0.0
 20
0.0
 30
0.0
  3
*PAPER_SPACE
  1

  0
ENDBLK
  5
19
330
17
100
AcDbEntity
 67
     1
  8
0
100
AcDbBlockEnd
  0
BLOCK
  5
B3
330
B2
100
AcDbEntity
  8
0
100
AcDbBlockBegin
  2
_OPEN
 70
     0
 10
0.0
 20
0.0
 30
0.0
  3
_OPEN
  1

  0
LINE
  5
B4
330
B2
100
AcDbEntity
  8
0
  6
BYBLOCK
 62
     0
100
AcDbLine
 10
-1.0
 20
0.1666666666666666
 30
0.0
 11
0.0
 21
0.0
 31
0.0
  0
LINE
  5
B5
330
B2
100
AcDbEntity
  8
0
  6
BYBLOCK
 62
     0
100
AcDbLine
 10
0.0
 20
0.0
 30
0.0
 11
-1.0
 21
-0.1666666666666666
 31
0.0
  0
LINE
  5
B6
330
B2
100
AcDbEntity
  8
0
  6
BYBLOCK
 62
     0
100
AcDbLine
 10
0.0
 20
0.0
 30
0.0
 11
-1.0
 21
0.0
 31
0.0
  0
ENDBLK
  5
B7
330
B2
100
AcDbEntity
  8
0
100
AcDbBlockEnd
  0
BLOCK
  5
7C7
330
741
100
AcDbEntity
  8
0
100
AcDbBlockBegin
  2
*D1
 70
     1
 10
0.0
 20
0.0
 30
0.0
  3
*D1
  1

  0
LINE
  5
ACA
330
741
100
AcDbEntity
  8
SUNPOU
100
AcDbLine
 10
265.7093182705821
 20
191.8629937971611
 30
0.0
 11
234.7465653577848
 21
191.8629937971611
 31
0.0
  0
LINE
  5
ACB
330
741
100
AcDbEntity
  8
SUNPOU
100
AcDbLine
 10
276.9317447694365
 20
116.1629450928589
 30
0.0
 11
234.7465653577848
 21
116.1629450928589
 31
0.0
  0
LINE
  5
ACC
330
741
100
AcDbEntity
  8
SUNPOU
100
AcDbLine
 10
236.2465653577848
 20
188.8629937971611
 30
0.0
 11
236.2465653577848
 21
119.1629450928589
 31
0.0
  0
INSERT
  5
ACD
330
741
100
AcDbEntity
  8
SUNPOU
100
AcDbBlockReference
  2
_OPEN
 10
236.2465653577848
 20
191.8629937971611
 30
0.0
 41
3.0
 42
3.0
 43
3.0
 50
90.0
  0
INSERT
  5
ACE
330
741
100
AcDbEntity
  8
SUNPOU
100
AcDbBlockReference
  2
_OPEN
 10
236.2465653577848
 20
116.1629450928589
 30
0.0
 41
3.0
 42
3.0
 43
3.0
 50
270.0
  0
MTEXT
  5
ACF
330
741
100
AcDbEntity
  8
SUNPOU
100
AcDbMText
 10
233.7465653577848
 20
154.0129694450101
 30
0.0
 40
3.0
 41
0.0
 71
     5
 72
     1
  1
\A1;76
 11
0.0000000000000001
 21
1.0
 31
0.0
1001
ACAD
1000
MTEXTBEGIN
1070
    73
1070
     1
1070
    44
1040
1.0
1070
    74
1070
     0
1000
MTEXTEND
1000
MTEXTBEGIN
1070
    73
1070
     1
1070
    44
1040
1.0
1070
    74
1070
     0
1000
MTEXTEND
  0
POINT
  5
AD0
330
741
100
AcDbEntity
  8
DEFPOINTS
 62
     0
100
AcDbPoint
 10
268.7093182705821
 20
191.8629937971611
 30
0.0
  0
POINT
  5
AD1
330
741
100
AcDbEntity
  8
DEFPOINTS
 62
     0
100
AcDbPoint
 10
279.9317447694365
 20
116.1629450928589
 30
0.0
  0
POINT
  5
AD2
330
741
100
AcDbEntity
  8
DEFPOINTS
 62
     0
100
AcDbPoint
 10
236.2465653577848
 20
116.1629450928589
 30
0.0
  0
ENDBLK
  5
7D1
330
741
100
AcDbEntity
  8
0
100
AcDbBlockEnd
  0
BLOCK
  5
7D2
330
74D
100
AcDbEntity
  8
0
100
AcDbBlockBegin
  2
*D2
 70
     1
 10
0.0
 20
0.0
 30
0.0
  3
*D2
  1

  0
LINE
  5
AD3
330
74D
100
AcDbEntity
  8
SUNPOU
100
AcDbLine
 10
330.8093105487655
 20
147.862951466653
 30
0.0
 11
330.8093105487655
 21
220.6294336599742
 31
0.0
  0
LINE
  5
AD4
330
74D
100
AcDbEntity
  8
SUNPOU
100
AcDbLine
 10
249.1093836726437
 20
144.8629272593764
 30
0.0
 11
249.1093836726437
 21
220.6294336599742
 31
0.0
  0
LINE
  5
AD5
330
74D
100
AcDbEntity
  8
SUNPOU
100
AcDbLine
 10
327.8093105487655
 20
219.1294336599742
 30
0.0
 11
252.1093836726437
 21
219.1294336599742
 31
0.0
  0
INSERT
  5
AD6
330
74D
100
AcDbEntity
  8
SUNPOU
100
AcDbBlockReference
  2
_OPEN
 10
330.8093105487655
 20
219.1294336599742
 30
0.0
 41
3.0
 42
3.0
 43
3.0
  0
INSERT
  5
AD7
330
74D
100
AcDbEntity
  8
SUNPOU
100
AcDbBlockReference
  2
_OPEN
 10
249.1093836726437
 20
219.1294336599742
 30
0.0
 41
3.0
 42
3.0
 43
3.0
 50
180.0
  0
MTEXT
  5
AD8
330
74D
100
AcDbEntity
  8
SUNPOU
100
AcDbMText
 10
289.9593471107045
 20
221.6294336599743
 30
0.0
 40
3.0
 41
0.0
 71
     5
 72
     1
  1
\A1;82
1001
ACAD
1000
MTEXTBEGIN
1070
    73
1070
     1
1070
    44
1040
1.0
1070
    74
1070
     0
1000
MTEXTEND
1000
MTEXTBEGIN
1070
    73
1070
     1
1070
    44
1040
1.0
1070
    74
1070
     0
1000
MTEXTEND
  0
POINT
  5
AD9
330
74D
100
AcDbEntity
  8
DEFPOINTS
 62
     0
100
AcDbPoint
 10
330.8093105487655
 20
144.862951466653
 30
0.0
  0
POINT
  5
ADA
330
74D
100
AcDbEntity
  8
DEFPOINTS
 62
     0
100
AcDbPoint
 10
249.1093836726437
 20
141.8629272593764
 30
0.0
  0
POINT
  5
ADB
330
74D
100
AcDbEntity
  8
DEFPOINTS
 62
     0
100
AcDbPoint
 10
249.1093836726437
 20
219.1294336599742
 30
0.0
  0
ENDBLK
  5
7DC
330
74D
100
AcDbEntity
  8
0
100
AcDbBlockEnd
  0
BLOCK
  5
7DD
330
759
100
AcDbEntity
  8
0
100
AcDbBlockBegin
  2
*D3
 70
     1
 10
0.0
 20
0.0
 30
0.0
  3
*D3
  1

  0
LINE
  5
ADC
330
759
100
AcDbEntity
  8
SUNPOU
100
AcDbLine
 10
265.7093182705821
 20
191.8629937971611
 30
0.0
 11
224.1120833876393
 21
191.8629937971611
 31
0.0
  0
LINE
  5
ADD
330
759
100
AcDbEntity
  8
SUNPOU
100
AcDbLine
 10
276.9593447695364
 20
80.16294509285893
 30
0.0
 11
224.1120833876393
 21
80.16294509285893
 31
0.0
  0
LINE
  5
ADE
330
759
100
AcDbEntity
  8
SUNPOU
100
AcDbLine
 10
225.6120833876392
 20
188.8629937971611
 30
0.0
 11
225.6120833876392
 21
83.16294509285894
 31
0.0
  0
INSERT
  5
ADF
330
759
100
AcDbEntity
  8
SUNPOU
100
AcDbBlockReference
  2
_OPEN
 10
225.6120833876392
 20
191.8629937971611
 30
0.0
 41
3.0
 42
3.0
 43
3.0
 50
90.0
  0
INSERT
  5
AE0
330
759
100
AcDbEntity
  8
SUNPOU
100
AcDbBlockReference
  2
_OPEN
 10
225.6120833876392
 20
80.16294509285893
 30
0.0
 41
3.0
 42
3.0
 43
3.0
 50
270.0
  0
MTEXT
  5
AE1
330
759
100
AcDbEntity
  8
SUNPOU
100
AcDbMText
 10
223.1120833876392
 20
136.0129694450101
 30
0.0
 40
3.0
 41
0.0
 71
     5
 72
     1
  1
\A1;112
 11
0.0000000000000001
 21
1.0
 31
0.0
1001
ACAD
1000
MTEXTBEGIN
1070
    73
1070
     1
1070
    44
1040
1.0
1070
    74
1070
     0
1000
MTEXTEND
1000
MTEXTBEGIN
1070
    73
1070
     1
1070
    44
1040
1.0
1070
    74
1070
     0
1000
MTEXTEND
  0
POINT
  5
AE2
330
759
100
AcDbEntity
  8
DEFPOINTS
 62
     0
100
AcDbPoint
 10
268.7093182705821
 20
191.8629937971611
 30
0.0
  0
POINT
  5
AE3
330
759
100
AcDbEntity
  8
DEFPOINTS
 62
     0
100
AcDbPoint
 10
279.9593447695364
 20
80.16294509285893
 30
0.0
  0
POINT
  5
AE4
330
759
100
AcDbEntity
  8
DEFPOINTS
 62
     0
100
AcDbPoint
 10
225.6120833876392
 20
80.16294509285893
 30
0.0
  0
ENDBLK
  5
7E7
330
759
100
AcDbEntity
  8
0
100
AcDbBlockEnd
  0
BLOCK
  5
7E8
330
765
100
AcDbEntity
  8
0
100
AcDbBlockBegin
  2
*D4
 70
     1
 10
0.0
 20
0.0
 30
0.0
  3
*D4
  1

  0
LINE
  5
AE5
330
765
100
AcDbEntity
  8
SUNPOU
100
AcDbLine
 10
138.5624391767532
 20
201.8630450928591
 30
0.0
 11
138.5624391767532
 21
220.6294336599742
 31
0.0
  0
LINE
  5
AE6
330
765
100
AcDbEntity
  8
SUNPOU
100
AcDbLine
 10
118.5624391767532
 20
117.1629450928591
 30
0.0
 11
118.5624391767532
 21
220.6294336599742
 31
0.0
  0
LINE
  5
AE7
330
765
100
AcDbEntity
  8
SUNPOU
100
AcDbLine
 10
135.5624391767532
 20
219.1294336599742
 30
0.0
 11
121.5624391767532
 21
219.1294336599742
 31
0.0
  0
INSERT
  5
AE8
330
765
100
AcDbEntity
  8
SUNPOU
100
AcDbBlockReference
  2
_OPEN
 10
138.5624391767532
 20
219.1294336599742
 30
0.0
 41
3.0
 42
3.0
 43
3.0
  0
INSERT
  5
AE9
330
765
100
AcDbEntity
  8
SUNPOU
100
AcDbBlockReference
  2
_OPEN
 10
118.5624391767532
 20
219.1294336599742
 30
0.0
 41
3.0
 42
3.0
 43
3.0
 50
180.0
  0
MTEXT
  5
AEA
330
765
100
AcDbEntity
  8
SUNPOU
100
AcDbMText
 10
128.5624391767532
 20
221.6294336599743
 30
0.0
 40
3.0
 41
0.0
 71
     5
 72
     1
  1
\A1;20
1001
ACAD
1000
MTEXTBEGIN
1070
    73
1070
     1
1070
    44
1040
1.0
1070
    74
1070
     0
1000
MTEXTEND
1000
MTEXTBEGIN
1070
    73
1070
     1
1070
    44
1040
1.0
1070
    74
1070
     0
1000
MTEXTEND
  0
POINT
  5
AEB
330
765
100
AcDbEntity
  8
DEFPOINTS
 62
     0
100
AcDbPoint
 10
138.5624391767532
 20
198.8630450928591
 30
0.0
  0
POINT
  5
AEC
330
765
100
AcDbEntity
  8
DEFPOINTS
 62
     0
100
AcDbPoint
 10
118.5624391767532
 20
114.1629450928591
 30
0.0
  0
POINT
  5
AED
330
765
100
AcDbEntity
  8
DEFPOINTS
 62
     0
100
AcDbPoint
 10
118.5624391767532
 20
219.1294336599742
 30
0.0
  0
ENDBLK
  5
7F2
330
765
100
AcDbEntity
  8
0
100
AcDbBlockEnd
  0
BLOCK
  5
7F3
330
771
100
AcDbEntity
  8
0
100
AcDbBlockBegin
  2
*D5
 70
     1
 10
0.0
 20
0.0
 30
0.0
  3
*D5
  1

  0
LINE
  5
AEE
330
771
100
AcDbEntity
  8
SUNPOU
100
AcDbLine
 10
118.5624391767532
 20
117.1629450928591
 30
0.0
 11
118.5624391767532
 21
229.6317574720805
 31
0.0
  0
LINE
  5
AEF
330
771
100
AcDbEntity
  8
SUNPOU
100
AcDbLine
 10
167.5624391767532
 20
119.1629450928591
 30
0.0
 11
167.5624391767532
 21
229.6317574720805
 31
0.0
  0
LINE
  5
AF0
330
771
100
AcDbEntity
  8
SUNPOU
100
AcDbLine
 10
121.5624391767532
 20
228.1317574720805
 30
0.0
 11
164.5624391767532
 21
228.1317574720805
 31
0.0
  0
INSERT
  5
AF1
330
771
100
AcDbEntity
  8
SUNPOU
100
AcDbBlockReference
  2
_OPEN
 10
118.5624391767532
 20
228.1317574720805
 30
0.0
 41
3.0
 42
3.0
 43
3.0
 50
180.0
  0
INSERT
  5
AF2
330
771
100
AcDbEntity
  8
SUNPOU
100
AcDbBlockReference
  2
_OPEN
 10
167.5624391767532
 20
228.1317574720805
 30
0.0
 41
3.0
 42
3.0
 43
3.0
  0
MTEXT
  5
AF3
330
771
100
AcDbEntity
  8
SUNPOU
100
AcDbMText
 10
143.0624391767532
 20
230.6317574720806
 30
0.0
 40
3.0
 41
0.0
 71
     5
 72
     1
  1
\A1;49
1001
ACAD
1000
MTEXTBEGIN
1070
    73
1070
     1
1070
    44
1040
1.0
1070
    74
1070
     0
1000
MTEXTEND
1000
MTEXTBEGIN
1070
    73
1070
     1
1070
    44
1040
1.0
1070
    74
1070
     0
1000
MTEXTEND
  0
POINT
  5
AF4
330
771
100
AcDbEntity
  8
DEFPOINTS
 62
     0
100
AcDbPoint
 10
118.5624391767532
 20
114.1629450928591
 30
0.0
  0
POINT
  5
AF5
330
771
100
AcDbEntity
  8
DEFPOINTS
 62
     0
100
AcDbPoint
 10
167.5624391767532
 20
116.1629450928591
 30
0.0
  0
POINT
  5
AF6
330
771
100
AcDbEntity
  8
DEFPOINTS
 62
     0
100
AcDbPoint
 10
167.5624391767532
 20
228.1317574720805
 30
0.0
  0
ENDBLK
  5
7FD
330
771
100
AcDbEntity
  8
0
100
AcDbBlockEnd
  0
BLOCK
  5
7FE
330
77D
100
AcDbEntity
  8
0
100
AcDbBlockBegin
  2
*D6
 70
     1
 10
0.0
 20
0.0
 30
0.0
  3
*D6
  1

  0
LINE
  5
AF7
330
77D
100
AcDbEntity
  8
SUNPOU
100
AcDbLine
 10
160.5624391767532
 20
77.1629450928591
 30
0.0
 11
160.5624391767532
 21
45.16731080806025
 31
0.0
  0
LINE
  5
AF8
330
77D
100
AcDbEntity
  8
SUNPOU
100
AcDbLine
 10
118.5624391767532
 20
79.1629450928591
 30
0.0
 11
118.5624391767532
 21
45.16731080806025
 31
0.0
  0
LINE
  5
AF9
330
77D
100
AcDbEntity
  8
SUNPOU
100
AcDbLine
 10
157.5624391767532
 20
46.66731080806025
 30
0.0
 11
121.5624391767532
 21
46.66731080806025
 31
0.0
  0
INSERT
  5
AFA
330
77D
100
AcDbEntity
  8
SUNPOU
100
AcDbBlockReference
  2
_OPEN
 10
160.5624391767532
 20
46.66731080806025
 30
0.0
 41
3.0
 42
3.0
 43
3.0
  0
INSERT
  5
AFB
330
77D
100
AcDbEntity
  8
SUNPOU
100
AcDbBlockReference
  2
_OPEN
 10
118.5624391767532
 20
46.66731080806025
 30
0.0
 41
3.0
 42
3.0
 43
3.0
 50
180.0
  0
MTEXT
  5
AFC
330
77D
100
AcDbEntity
  8
SUNPOU
100
AcDbMText
 10
139.5624391767532
 20
49.16731080806025
 30
0.0
 40
3.0
 41
0.0
 71
     5
 72
     1
  1
\A1;42
1001
ACAD
1000
MTEXTBEGIN
1070
    73
1070
     1
1070
    44
1040
1.0
1070
    74
1070
     0
1000
MTEXTEND
1000
MTEXTBEGIN
1070
    73
1070
     1
1070
    44
1040
1.0
1070
    74
1070
     0
1000
MTEXTEND
  0
POINT
  5
AFD
330
77D
100
AcDbEntity
  8
DEFPOINTS
 62
     0
100
AcDbPoint
 10
160.5624391767532
 20
80.16294509285911
 30
0.0
  0
POINT
  5
AFE
330
77D
100
AcDbEntity
  8
DEFPOINTS
 62
     0
100
AcDbPoint
 10
118.5624391767532
 20
82.1629450928591
 30
0.0
  0
POINT
  5
AFF
330
77D
100
AcDbEntity
  8
DEFPOINTS
 62
     0
100
AcDbPoint
 10
118.5624391767532
 20
46.66731080806025
 30
0.0
  0
ENDBLK
  5
808
330
77D
100
AcDbEntity
  8
0
100
AcDbBlockEnd
  0
BLOCK
  5
809
330
789
100
AcDbEntity
  8
0
100
AcDbBlockBegin
  2
*D7
 70
     1
 10
0.0
 20
0.0
 30
0.0
  3
*D7
  1

  0
LINE
  5
B00
330
789
100
AcDbEntity
  8
SUNPOU
100
AcDbLine
 10
123.5624391767532
 20
81.16294509285911
 30
0.0
 11
135.7409942995597
 21
81.16294509285911
 31
0.0
  0
LINE
  5
B01
330
789
100
AcDbEntity
  8
SUNPOU
100
AcDbLine
 10
123.5624391767532
 20
80.16294509285911
 30
0.0
 11
135.7409942995597
 21
80.16294509285911
 31
0.0
  0
LINE
  5
B02
330
789
100
AcDbEntity
  8
SUNPOU
100
AcDbLine
 10
134.2409942995597
 20
84.1629450928591
 30
0.0
 11
134.2409942995597
 21
87.1629450928591
 31
0.0
  0
LINE
  5
B03
330
789
100
AcDbEntity
  8
SUNPOU
100
AcDbLine
 10
134.2409942995597
 20
77.1629450928591
 30
0.0
 11
134.2409942995597
 21
64.6629450928591
 31
0.0
  0
LINE
  5
B04
330
789
100
AcDbEntity
  8
SUNPOU
100
AcDbLine
 10
134.2409942995597
 20
81.16294509285911
 30
0.0
 11
134.2409942995597
 21
80.16294509285911
 31
0.0
  0
INSERT
  5
B05
330
789
100
AcDbEntity
  8
SUNPOU
100
AcDbBlockReference
  2
_OPEN
 10
134.2409942995597
 20
81.16294509285911
 30
0.0
 41
3.0
 42
3.0
 43
3.0
 50
270.0
  0
INSERT
  5
B06
330
789
100
AcDbEntity
  8
SUNPOU
100
AcDbBlockReference
  2
_OPEN
 10
134.2409942995597
 20
80.16294509285911
 30
0.0
 41
3.0
 42
3.0
 43
3.0
 50
90.0
  0
MTEXT
  5
B07
330
789
100
AcDbEntity
  8
SUNPOU
100
AcDbMText
 10
131.7409942995597
 20
69.41294509285912
 30
0.0
 40
3.0
 41
0.0
 71
     5
 72
     1
  1
\A1;t1.0
 11
0.0000000000000001
 21
1.0
 31
0.0
1001
ACAD
1000
MTEXTBEGIN
1070
    73
1070
     1
1070
    44
1040
1.0
1070
    74
1070
     0
1000
MTEXTEND
1000
MTEXTBEGIN
1070
    73
1070
     1
1070
    44
1040
1.0
1070
    74
1070
     0
1000
MTEXTEND
  0
POINT
  5
B08
330
789
100
AcDbEntity
  8
DEFPOINTS
 62
     0
100
AcDbPoint
 10
120.5624391767532
 20
81.16294509285911
 30
0.0
  0
POINT
  5
B09
330
789
100
AcDbEntity
  8
DEFPOINTS
 62
     0
100
AcDbPoint
 10
120.5624391767532
 20
80.16294509285911
 30
0.0
  0
POINT
  5
B0A
330
789
100
AcDbEntity
  8
DEFPOINTS
 62
     0
100
AcDbPoint
 10
134.2409942995597
 20
80.16294509285911
 30
0.0
  0
ENDBLK
  5
815
330
789
100
AcDbEntity
  8
0
100
AcDbBlockEnd
  0
BLOCK
  5
816
330
797
100
AcDbEntity
  8
0
100
AcDbBlockBegin
  2
*D8
 70
     1
 10
0.0
 20
0.0
 30
0.0
  3
*D8
  1

  0
LINE
  5
B0B
330
797
100
AcDbEntity
  8
SUNPOU
100
AcDbLine
 10
117.5624391767532
 20
80.16294509285911
 30
0.0
 11
98.96861806384045
 21
80.16294509285911
 31
0.0
  0
LINE
  5
B0C
330
797
100
AcDbEntity
  8
SUNPOU
100
AcDbLine
 10
117.5624391767532
 20
116.1629450928591
 30
0.0
 11
98.96861806384045
 21
116.1629450928591
 31
0.0
  0
LINE
  5
B0D
330
797
100
AcDbEntity
  8
SUNPOU
100
AcDbLine
 10
100.4686180638404
 20
83.1629450928591
 30
0.0
 11
100.4686180638404
 21
113.1629450928591
 31
0.0
  0
INSERT
  5
B0E
330
797
100
AcDbEntity
  8
SUNPOU
100
AcDbBlockReference
  2
_OPEN
 10
100.4686180638404
 20
80.16294509285911
 30
0.0
 41
3.0
 42
3.0
 43
3.0
 50
270.0
  0
INSERT
  5
B0F
330
797
100
AcDbEntity
  8
SUNPOU
100
AcDbBlockReference
  2
_OPEN
 10
100.4686180638404
 20
116.1629450928591
 30
0.0
 41
3.0
 42
3.0
 43
3.0
 50
90.0
  0
MTEXT
  5
B10
330
797
100
AcDbEntity
  8
SUNPOU
100
AcDbMText
 10
97.96861806384043
 20
98.16294509285915
 30
0.0
 40
3.0
 41
0.0
 71
     5
 72
     1
  1
\A1;36
 11
0.0000000000000001
 21
1.0
 31
0.0
1001
ACAD
1000
MTEXTBEGIN
1070
    73
1070
     1
1070
    44
1040
1.0
1070
    74
1070
     0
1000
MTEXTEND
1000
MTEXTBEGIN
1070
    73
1070
     1
1070
    44
1040
1.0
1070
    74
1070
     0
1000
MTEXTEND
  0
POINT
  5
B11
330
797
100
AcDbEntity
  8
DEFPOINTS
 62
     0
100
AcDbPoint
 10
120.5624391767532
 20
80.16294509285911
 30
0.0
  0
POINT
  5
B12
330
797
100
AcDbEntity
  8
DEFPOINTS
 62
     0
100
AcDbPoint
 10
120.5624391767532
 20
116.1629450928591
 30
0.0
  0
POINT
  5
B13
330
797
100
AcDbEntity
  8
DEFPOINTS
 62
     0
100
AcDbPoint
 10
100.4686180638404
 20
116.1629450928591
 30
0.0
  0
ENDBLK
  5
820
330
797
100
AcDbEntity
  8
0
100
AcDbBlockEnd
  0
BLOCK
  5
821
330
7A3
100
AcDbEntity
  8
0
100
AcDbBlockBegin
  2
*D9
 70
     1
 10
0.0
 20
0.0
 30
0.0
  3
*D9
  1

  0
LINE
  5
B14
330
7A3
100
AcDbEntity
  8
SUNPOU
100
AcDbLine
 10
161.5624391767532
 20
113.1629450928591
 30
0.0
 11
192.70457153054
 21
113.1629450928591
 31
0.0
  0
LINE
  5
B15
330
7A3
100
AcDbEntity
  8
SUNPOU
100
AcDbLine
 10
152.5624391767532
 20
85.16250479295909
 30
0.0
 11
192.70457153054
 21
85.16250479295907
 31
0.0
  0
LINE
  5
B16
330
7A3
100
AcDbEntity
  8
SUNPOU
100
AcDbLine
 10
191.20457153054
 20
110.1629450928591
 30
0.0
 11
191.20457153054
 21
88.16250479295907
 31
0.0
  0
INSERT
  5
B17
330
7A3
100
AcDbEntity
  8
SUNPOU
100
AcDbBlockReference
  2
_OPEN
 10
191.20457153054
 20
113.1629450928591
 30
0.0
 41
3.0
 42
3.0
 43
3.0
 50
90.0
  0
INSERT
  5
B18
330
7A3
100
AcDbEntity
  8
SUNPOU
100
AcDbBlockReference
  2
_OPEN
 10
191.20457153054
 20
85.16250479295907
 30
0.0
 41
3.0
 42
3.0
 43
3.0
 50
270.0
  0
MTEXT
  5
B19
330
7A3
100
AcDbEntity
  8
SUNPOU
100
AcDbMText
 10
188.7045715305399
 20
99.16272494290913
 30
0.0
 40
3.0
 41
0.0
 71
     5
 72
     1
  1
\A1;28
 11
0.0000000000000001
 21
1.0
 31
0.0
1001
ACAD
1000
MTEXTBEGIN
1070
    73
1070
     1
1070
    44
1040
1.0
1070
    74
1070
     0
1000
MTEXTEND
1000
MTEXTBEGIN
1070
    73
1070
     1
1070
    44
1040
1.0
1070
    74
1070
     0
1000
MTEXTEND
  0
POINT
  5
B1A
330
7A3
100
AcDbEntity
  8
DEFPOINTS
 62
     0
100
AcDbPoint
 10
158.5624391767532
 20
113.1629450928591
 30
0.0
  0
POINT
  5
B1B
330
7A3
100
AcDbEntity
  8
DEFPOINTS
 62
     0
100
AcDbPoint
 10
149.5624391767532
 20
85.16250479295909
 30
0.0
  0
POINT
  5
B1C
330
7A3
100
AcDbEntity
  8
DEFPOINTS
 62
     0
100
AcDbPoint
 10
191.20457153054
 20
85.16250479295907
 30
0.0
  0
ENDBLK
  5
82B
330
7A3
100
AcDbEntity
  8
0
100
AcDbBlockEnd
  0
BLOCK
  5
82C
330
7AF
100
AcDbEntity
  8
0
100
AcDbBlockBegin
  2
*D10
 70
     1
 10
0.0
 20
0.0
 30
0.0
  3
*D10
  1

  0
LINE
  5
B1D
330
7AF
100
AcDbEntity
  8
SUNPOU
100
AcDbLine
 10
279.9593447695364
 20
77.16294509285893
 30
0.0
 11
279.9593447695364
 21
54.01615273485842
 31
0.0
  0
LINE
  5
B1E
330
7AF
100
AcDbEntity
  8
SUNPOU
100
AcDbLine
 10
299.9593447695364
 20
77.16294509285891
 30
0.0
 11
299.9593447695364
 21
54.01615273485842
 31
0.0
  0
LINE
  5
B1F
330
7AF
100
AcDbEntity
  8
SUNPOU
100
AcDbLine
 10
282.9593447695364
 20
55.51615273485842
 30
0.0
 11
296.9593447695364
 21
55.51615273485842
 31
0.0
  0
INSERT
  5
B20
330
7AF
100
AcDbEntity
  8
SUNPOU
100
AcDbBlockReference
  2
_OPEN
 10
279.9593447695364
 20
55.51615273485842
 30
0.0
 41
3.0
 42
3.0
 43
3.0
 50
180.0
  0
INSERT
  5
B21
330
7AF
100
AcDbEntity
  8
SUNPOU
100
AcDbBlockReference
  2
_OPEN
 10
299.9593447695364
 20
55.51615273485842
 30
0.0
 41
3.0
 42
3.0
 43
3.0
  0
MTEXT
  5
B22
330
7AF
100
AcDbEntity
  8
SUNPOU
100
AcDbMText
 10
289.9593447695364
 20
58.01615273485842
 30
0.0
 40
3.0
 41
0.0
 71
     5
 72
     1
  1
\A1;20
1001
ACAD
1000
MTEXTBEGIN
1070
    73
1070
     1
1070
    44
1040
1.0
1070
    74
1070
     0
1000
MTEXTEND
1000
MTEXTBEGIN
1070
    73
1070
     1
1070
    44
1040
1.0
1070
    74
1070
     0
1000
MTEXTEND
  0
POINT
  5
B23
330
7AF
100
AcDbEntity
  8
DEFPOINTS
 62
     0
100
AcDbPoint
 10
279.9593447695364
 20
80.16294509285893
 30
0.0
  0
POINT
  5
B24
330
7AF
100
AcDbEntity
  8
DEFPOINTS
 62
     0
100
AcDbPoint
 10
299.9593447695364
 20
80.1629450928589
 30
0.0
  0
POINT
  5
B25
330
7AF
100
AcDbEntity
  8
DEFPOINTS
 62
     0
100
AcDbPoint
 10
299.9593447695364
 20
55.51615273485842
 30
0.0
  0
ENDBLK
  5
836
330
7AF
100
AcDbEntity
  8
0
100
AcDbBlockEnd
  0
BLOCK
  5
837
330
7BB
100
AcDbEntity
  8
0
100
AcDbBlockBegin
  2
*D11
 70
     1
 10
0.0
 20
0.0
 30
0.0
  3
*D11
  1

  0
LINE
  5
B26
330
7BB
100
AcDbEntity
  8
SUNPOU
100
AcDbLine
 10
256.609490537959
 20
182.7630215293895
 30
0.0
 11
256.609490537959
 21
211.8679200397596
 31
0.0
  0
LINE
  5
B27
330
7BB
100
AcDbEntity
  8
SUNPOU
100
AcDbLine
 10
323.309290538013
 20
182.7629686564526
 30
0.0
 11
323.309290538013
 21
211.8679200397596
 31
0.0
  0
LINE
  5
B28
330
7BB
100
AcDbEntity
  8
SUNPOU
100
AcDbLine
 10
259.609490537959
 20
210.3679200397595
 30
0.0
 11
320.309290538013
 21
210.3679200397595
 31
0.0
  0
INSERT
  5
B29
330
7BB
100
AcDbEntity
  8
SUNPOU
100
AcDbBlockReference
  2
_OPEN
 10
256.609490537959
 20
210.3679200397595
 30
0.0
 41
3.0
 42
3.0
 43
3.0
 50
180.0
  0
INSERT
  5
B2A
330
7BB
100
AcDbEntity
  8
SUNPOU
100
AcDbBlockReference
  2
_OPEN
 10
323.309290538013
 20
210.3679200397595
 30
0.0
 41
3.0
 42
3.0
 43
3.0
  0
MTEXT
  5
B2B
330
7BB
100
AcDbEntity
  8
SUNPOU
100
AcDbMText
 10
289.959390537986
 20
212.8679200397595
 30
0.0
 40
3.0
 41
0.0
 71
     5
 72
     1
  1
\A1;67
1001
ACAD
1000
MTEXTBEGIN
1070
    73
1070
     1
1070
    44
1040
1.0
1070
    74
1070
     0
1000
MTEXTEND
1000
MTEXTBEGIN
1070
    73
1070
     1
1070
    44
1040
1.0
1070
    74
1070
     0
1000
MTEXTEND
  0
POINT
  5
B2C
330
7BB
100
AcDbEntity
  8
DEFPOINTS
 62
     0
100
AcDbPoint
 10
256.609490537959
 20
179.7630215293895
 30
0.0
  0
POINT
  5
B2D
330
7BB
100
AcDbEntity
  8
DEFPOINTS
 62
     0
100
AcDbPoint
 10
323.309290538013
 20
179.7629686564526
 30
0.0
  0
POINT
  5
B2E
330
7BB
100
AcDbEntity
  8
DEFPOINTS
 62
     0
100
AcDbPoint
 10
323.309290538013
 20
210.3679200397595
 30
0.0
  0
ENDBLK
  5
841
330
7BB
100
AcDbEntity
  8
0
100
AcDbBlockEnd
  0
BLOCK
  5
A88
330
A7E
100
AcDbEntity
  8
0
100
AcDbBlockBegin
  2
*D12
 70
     1
 10
0.0
 20
0.0
 30
0.0
  3
*D12
  1

  0
LINE
  5
B7E
330
A7E
100
AcDbEntity
  8
SUNPOU
100
AcDbLine
 10
129.5623954271731
 20
193.3135657168179
 30
0.0
 11
129.5623954271731
 21
210.0181106118713
 31
0.0
  0
LINE
  5
B7F
330
A7E
100
AcDbEntity
  8
SUNPOU
100
AcDbLine
 10
147.5623954271732
 20
193.8630450928591
 30
0.0
 11
147.5623954271732
 21
210.0181106118713
 31
0.0
  0
LINE
  5
B80
330
A7E
100
AcDbEntity
  8
SUNPOU
100
AcDbLine
 10
132.5623954271731
 20
208.5181106118714
 30
0.0
 11
144.5623954271732
 21
208.5181106118714
 31
0.0
  0
MTEXT
  5
B81
330
A7E
100
AcDbEntity
  8
SUNPOU
100
AcDbMText
 10
142.4785707012663
 20
212.0559088451204
 30
0.0
 40
3.0
 41
0.0
 71
     5
 72
     1
  1
\A1;18
  0
INSERT
  5
B82
330
A7E
100
AcDbEntity
  8
SUNPOU
100
AcDbBlockReference
  2
_OPEN
 10
129.5623954271731
 20
208.5181106118714
 30
0.0
 41
3.0
 42
3.0
 43
3.0
 50
180.0
  0
INSERT
  5
B83
330
A7E
100
AcDbEntity
  8
SUNPOU
100
AcDbBlockReference
  2
_OPEN
 10
147.5623954271732
 20
208.5181106118714
 30
0.0
 41
3.0
 42
3.0
 43
3.0
  0
POINT
  5
B84
330
A7E
100
AcDbEntity
  8
DEFPOINTS
 62
     0
100
AcDbPoint
 10
129.5623954271731
 20
190.3135657168179
 30
0.0
  0
POINT
  5
B85
330
A7E
100
AcDbEntity
  8
DEFPOINTS
 62
     0
100
AcDbPoint
 10
147.5623954271732
 20
190.863045092859
 30
0.0
  0
POINT
  5
B86
330
A7E
100
AcDbEntity
  8
DEFPOINTS
 62
     0
100
AcDbPoint
 10
147.5623954271732
 20
208.5181106118714
 30
0.0
  0
ENDBLK
  5
A89
330
A7E
100
AcDbEntity
  8
0
100
AcDbBlockEnd
  0
ENDSEC
  0
SECTION
  2
ENTITIES
  0
LINE
  5
6C
330
1A
100
AcDbEntity
  8
ZUWAKU
  6
CONTINUOUS
 62
     7
100
AcDbLine
 10
403.0
 20
7.0
 30
0.0
 11
5.0
 21
7.0
 31
0.0
  0
LINE
  5
6D
330
1A
100
AcDbEntity
  8
ZUWAKU
  6
CONTINUOUS
 62
     7
100
AcDbLine
 10
5.0
 20
282.0
 30
0.0
 11
5.0
 21
7.0
 31
0.0
  0
LINE
  5
6E
330
1A
100
AcDbEntity
  8
ZUWAKU
  6
CONTINUOUS
 62
     7
100
AcDbLine
 10
403.0
 20
282.0
 30
0.0
 11
403.0
 21
7.0
 31
0.0
  0
LINE
  5
6F
330
1A
100
AcDbEntity
  8
ZUWAKU
  6
CONTINUOUS
 62
     7
100
AcDbLine
 10
403.0
 20
282.0
 30
0.0
 11
5.0
 21
282.0
 31
0.0
  0
LINE
  5
8E
330
1A
100
AcDbEntity
  8
ZUWAKU
 62
     7
 48
10.0
100
AcDbLine
 10
5.0
 20
13.0
 30
0.0
 11
403.0
 21
12.99999999999994
 31
0.0
  0
TEXT
  5
92
330
1A
100
AcDbEntity
  8
ZUWAKU
 62
     7
100
AcDbText
 10
25.15073007242387
 20
8.160237806787449
 30
0.0
 40
4.0
  1
ライナートップ　たてとい
100
AcDbText
  0
TEXT
  5
93
330
1A
100
AcDbEntity
  8
ZUWAKU
 62
     7
100
AcDbText
 10
8.003143713074223
 20
7.870178177610682
 30
0.0
 40
4.0
  1
品 種
100
AcDbText
  0
TEXT
  5
97
330
1A
100
AcDbEntity
  8
ZUWAKU
 62
     7
100
AcDbText
 10
107.7028028167073
 20
8.200497435100942
 30
0.0
 40
4.0
  1
品名・ｻ ｲ ｽﾞ
100
AcDbText
  0
TEXT
  5
99
330
1A
100
AcDbEntity
  8
ZUWAKU
 62
     7
100
AcDbText
 10
141.1313324528735
 20
7.9299153608506
 30
0.0
 40
4.0
  1
はいといデンデン　Ｙ６０（モニエル用）
100
AcDbText
  0
LINE
  5
9A
330
1A
100
AcDbEntity
  8
ZUWAKU
 62
     7
 48
10.0
100
AcDbLine
 10
324.3551403257206
 20
6.999999999999836
 30
0.0
 11
324.3551403257206
 21
12.99999999999995
 31
0.0
  0
LINE
  5
9B
330
1A
100
AcDbEntity
  8
ZUWAKU
 62
     7
 48
10.0
100
AcDbLine
 10
307.142312366876
 20
6.999999999999836
 30
0.0
 11
307.142312366876
 21
12.99999999999995
 31
0.0
  0
TEXT
  5
9C
330
1A
100
AcDbEntity
  8
ZUWAKU
 62
     7
100
AcDbText
 10
310.1429253763237
 20
7.934661405801826
 30
0.0
 40
4.0
  1
品 番
100
AcDbText
  0
TEXT
  5
9D
330
1A
100
AcDbEntity
  8
ZUWAKU
 62
     7
100
AcDbText
 10
327.1013476411085
 20
8.060146781246267
 30
0.0
 40
4.0
  1
ＬＪ１７
100
AcDbText
  0
TEXT
  5
9E
330
1A
100
AcDbEntity
  8
ZUWAKU
 62
     7
 48
10.0
100
AcDbText
 10
322.9513761015196
 20
2.449000558492457
 30
0.0
 40
4.0
  1
積水化学工業株式会社  建材
100
AcDbText
  0
TEXT
  5
A1
330
1A
100
AcDbEntity
  8
ZUWAKU
 62
     7
100
AcDbText
 10
389.843492473331
 20
7.886151458996323
 30
0.0
 40
4.0
  1
1/1
100
AcDbText
  0
TEXT
  5
A2
330
1A
100
AcDbEntity
  8
ZUWAKU
 62
     7
100
AcDbText
 10
369.8225424558458
 20
7.729845637642938
 30
0.0
 40
4.0
  1
尺 度
100
AcDbText
  0
LINE
  5
A3
330
1A
100
AcDbEntity
  8
ZUWAKU
 62
     7
 48
10.0
100
AcDbLine
 10
366.8807110760169
 20
6.999999999999886
 30
0.0
 11
366.8807110760169
 21
12.99999999999994
 31
0.0
  0
TEXT
  5
A6
330
1A
100
AcDbEntity
  8
ZUWAKU
 62
     7
 48
10.0
100
AcDbText
 10
396.1622424237184
 20
2.480970960763784
 30
0.0
 40
4.0
  1
A3
100
AcDbText
  0
LINE
  5
F5
330
1A
100
AcDbEntity
  8
ZUWAKU
 62
     7
 48
10.0
100
AcDbLine
 10
22.25374857290876
 20
7.0
 30
0.0
 11
22.25374857290876
 21
13.0
 31
0.0
  0
LINE
  5
F6
330
1A
100
AcDbEntity
  8
ZUWAKU
 62
     7
 48
10.0
100
AcDbLine
 10
104.7316872784438
 20
7.0
 30
0.0
 11
104.7316872784438
 21
12.99999999999998
 31
0.0
  0
LINE
  5
F8
330
1A
100
AcDbEntity
  8
ZUWAKU
 62
     7
 48
10.0
100
AcDbLine
 10
138.0261803105822
 20
7.0
 30
0.0
 11
138.0261803105822
 21
12.99999999999998
 31
0.0
  0
LINE
  5
100
330
1A
100
AcDbEntity
  8
ZUWAKU
 62
     7
 48
10.0
100
AcDbLine
 10
384.3363149538092
 20
6.999999999999862
 30
0.0
 11
384.3363149538092
 21
12.99999999999994
 31
0.0
  0
LINE
  5
2F4
330
1A
100
AcDbEntity
  8
ZUWAKU
  6
CONTINUOUS
 62
     7
100
AcDbLine
 10
199.8853926949597
 20
8.087794115592828
 30
0.0
 11
199.8853926949597
 21
11.68987263415772
 31
0.0
  0
LINE
  5
2F5
330
1A
100
AcDbEntity
  8
ZUWAKU
  6
CONTINUOUS
 62
     7
100
AcDbLine
 10
198.3532408942177
 20
8.087794115592828
 30
0.0
 11
198.3532408942177
 21
11.6898726341577
 31
0.0
  0
LINE
  5
2F6
330
1A
100
AcDbEntity
  8
ZUWAKU
  6
CONTINUOUS
 62
     7
100
AcDbLine
 10
197.5871649938467
 20
8.087794115592814
 30
0.0
 11
200.6514685953307
 21
8.087794115592828
 31
0.0
  0
LINE
  5
2F7
330
1A
100
AcDbEntity
  8
ZUWAKU
  6
CONTINUOUS
 62
     7
100
AcDbLine
 10
200.6514685953307
 20
11.68987263415772
 30
0.0
 11
197.5871649938467
 21
11.6898726341577
 31
0.0
  0
POINT
  5
30F
330
1A
100
AcDbEntity
  8
SUNPOU
  6
BYBLOCK
 62
     4
 48
5.0
100
AcDbPoint
 10
129.5319472838431
 20
230.0211815135477
 30
0.0
  0
LINE
  5
66E
330
1A
100
AcDbEntity
  8
CENTER_L
100
AcDbLine
 10
267.0021828660512
 20
141.8629272593764
 30
0.0
 11
241.2166244792362
 21
141.8629272593764
 31
0.0
  0
DIMENSION
  5
66F
330
1A
100
AcDbEntity
  8
SUNPOU
100
AcDbDimension
  2
*D1
 10
236.2465653577848
 20
116.1629450928589
 30
0.0
 11
233.7465653577848
 21
154.0129694450101
 31
0.0
 70
    32
  3
STANDARD
100
AcDbAlignedDimension
 13
268.7093182705821
 23
191.8629937971611
 33
0.0
 14
279.9317447694365
 24
116.1629450928589
 34
0.0
 50
90.0
100
AcDbRotatedDimension
1001
ACAD
1000
DSTYLE
1002
{
1070
   372
1070
    -1
1070
   371
1070
    -1
1070
    41
1040
3.0
1070
    42
1040
3.0
1070
    43
1040
7.0
1070
    44
1040
1.5
1070
    73
1070
     0
1070
    74
1070
     0
1070
    77
1070
     3
1070
   140
1040
3.0
1070
   141
1040
150.0
1070
   147
1040
1.0
1070
   172
1070
     1
1070
   173
1070
     1
1070
   176
1070
   256
1070
   177
1070
   256
1070
   178
1070
   256
1070
   271
1070
     0
1070
   272
1070
     2
1070
     6
1000
OPEN
1070
     7
1000
OPEN
1002
}
  0
DIMENSION
  5
670
330
1A
100
AcDbEntity
  8
SUNPOU
100
AcDbDimension
  2
*D2
 10
249.1093836726437
 20
219.1294336599742
 30
0.0
 11
289.9593471107045
 21
221.6294336599743
 31
0.0
 70
    32
  3
STANDARD
100
AcDbAlignedDimension
 13
330.8093105487655
 23
144.862951466653
 33
0.0
 14
249.1093836726437
 24
141.8629272593764
 34
0.0
100
AcDbRotatedDimension
1001
ACAD
1000
DSTYLE
1002
{
1070
   372
1070
    -1
1070
   371
1070
    -1
1070
    41
1040
3.0
1070
    42
1040
3.0
1070
    43
1040
7.0
1070
    44
1040
1.5
1070
    73
1070
     0
1070
    74
1070
     0
1070
    77
1070
     3
1070
   140
1040
3.0
1070
   141
1040
150.0
1070
   147
1040
1.0
1070
   172
1070
     1
1070
   173
1070
     1
1070
   176
1070
   256
1070
   177
1070
   256
1070
   178
1070
   256
1070
   271
1070
     0
1070
   272
1070
     2
1070
     6
1000
OPEN
1070
     7
1000
OPEN
1002
}
  0
DIMENSION
  5
671
330
1A
100
AcDbEntity
  8
SUNPOU
100
AcDbDimension
  2
*D3
 10
225.6120833876392
 20
80.16294509285893
 30
0.0
 11
223.1120833876392
 21
136.0129694450101
 31
0.0
 70
    32
  3
STANDARD
100
AcDbAlignedDimension
 13
268.7093182705821
 23
191.8629937971611
 33
0.0
 14
279.9593447695364
 24
80.16294509285893
 34
0.0
 50
90.0
100
AcDbRotatedDimension
1001
ACAD
1000
DSTYLE
1002
{
1070
   372
1070
    -1
1070
   371
1070
    -1
1070
    41
1040
3.0
1070
    42
1040
3.0
1070
    43
1040
7.0
1070
    44
1040
1.5
1070
    73
1070
     0
1070
    74
1070
     0
1070
    77
1070
     3
1070
   140
1040
3.0
1070
   141
1040
150.0
1070
   147
1040
1.0
1070
   172
1070
     1
1070
   173
1070
     1
1070
   176
1070
   256
1070
   177
1070
   256
1070
   178
1070
   256
1070
   271
1070
     0
1070
   272
1070
     2
1070
     6
1000
OPEN
1070
     7
1000
OPEN
1002
}
  0
CIRCLE
  5
672
330
1A
100
AcDbEntity
  8
SEIHIN
  6
CONTINUOUS
 62
     3
 48
8.0
100
AcDbCircle
 10
254.1094036726437
 20
141.8629272593764
 30
0.0
 40
2.25
  0
CIRCLE
  5
673
330
1A
100
AcDbEntity
  8
SEIHIN
  6
CONTINUOUS
 62
     3
 48
8.0
100
AcDbCircle
 10
254.1094036726437
 20
141.8629272593764
 30
0.0
 40
2.399999999999999
  0
ARC
  5
674
330
1A
100
AcDbEntity
  8
SEIHIN
  6
CONTINUOUS
 62
     3
 48
8.0
100
AcDbCircle
 10
254.1094036726437
 20
141.8629272593764
 30
0.0
 40
5.00002
100
AcDbArc
 50
359.9998686806543
 51
301.2607666806544
  0
ARC
  5
675
330
1A
100
AcDbEntity
  8
SEIHIN
  6
CONTINUOUS
 62
     3
 48
8.0
100
AcDbCircle
 10
254.1094128404635
 20
145.8629272593659
 30
0.0
 40
3.0
100
AcDbArc
 50
89.99986868065445
 51
179.9998686806544
  0
LINE
  5
676
330
1A
100
AcDbEntity
  8
SEIHIN
  6
CONTINUOUS
 62
     3
 48
8.0
100
AcDbLine
 10
145.0623954271732
 20
116.1629450928591
 30
0.0
 11
145.0623954271732
 21
136.862845092859
 31
0.0
  0
LINE
  5
677
330
1A
100
AcDbEntity
  8
SEIHIN
  6
CONTINUOUS
 62
     3
 48
8.0
100
AcDbLine
 10
132.0623954271732
 20
116.1629450928591
 30
0.0
 11
132.0623954271732
 21
136.862845092859
 31
0.0
  0
LINE
  5
678
330
1A
100
AcDbEntity
  8
SEIHIN
  6
CONTINUOUS
 62
     3
 48
8.0
100
AcDbLine
 10
147.5623954271732
 20
116.1629450928591
 30
0.0
 11
147.5623954271732
 21
190.863045092859
 31
0.0
  0
LINE
  5
679
330
1A
100
AcDbEntity
  8
SEIHIN
  6
CONTINUOUS
 62
     3
 48
8.0
100
AcDbLine
 10
129.5623954271732
 20
116.1629450928591
 30
0.0
 11
129.5623954271732
 21
190.863045092859
 31
0.0
  0
LINE
  5
67A
330
1A
100
AcDbEntity
  8
CENTER_L
 48
5.0
100
AcDbLine
 10
138.5624391767532
 20
198.8630450928591
 30
0.0
 11
138.5624391767532
 21
109.0197519583311
 31
0.0
  0
DIMENSION
  5
67B
330
1A
100
AcDbEntity
  8
SUNPOU
100
AcDbDimension
  2
*D4
 10
118.5624391767532
 20
219.1294336599742
 30
0.0
 11
128.5624391767532
 21
221.6294336599743
 31
0.0
 70
    32
  3
STANDARD
100
AcDbAlignedDimension
 13
138.5624391767532
 23
198.8630450928591
 33
0.0
 14
118.5624391767532
 24
114.1629450928591
 34
0.0
100
AcDbRotatedDimension
1001
ACAD
1000
DSTYLE
1002
{
1070
   372
1070
    -1
1070
   371
1070
    -1
1070
    41
1040
3.0
1070
    42
1040
3.0
1070
    43
1040
7.0
1070
    44
1040
1.5
1070
    73
1070
     0
1070
    74
1070
     0
1070
    77
1070
     3
1070
   140
1040
3.0
1070
   141
1040
150.0
1070
   147
1040
1.0
1070
   172
1070
     1
1070
   173
1070
     1
1070
   176
1070
   256
1070
   177
1070
   256
1070
   178
1070
   256
1070
   271
1070
     0
1070
   272
1070
     2
1070
     6
1000
OPEN
1070
     7
1000
OPEN
1002
}
  0
DIMENSION
  5
67C
330
1A
100
AcDbEntity
  8
SUNPOU
100
AcDbDimension
  2
*D5
 10
167.5624391767532
 20
228.1317574720805
 30
0.0
 11
143.0624391767532
 21
230.6317574720806
 31
0.0
 70
    32
  3
STANDARD
100
AcDbAlignedDimension
 13
118.5624391767532
 23
114.1629450928591
 33
0.0
 14
167.5624391767532
 24
116.1629450928591
 34
0.0
100
AcDbRotatedDimension
1001
ACAD
1000
DSTYLE
1002
{
1070
   372
1070
    -1
1070
   371
1070
    -1
1070
    41
1040
3.0
1070
    42
1040
3.0
1070
    43
1040
7.0
1070
    44
1040
1.5
1070
    73
1070
     0
1070
    74
1070
     0
1070
    77
1070
     3
1070
   140
1040
3.0
1070
   141
1040
150.0
1070
   147
1040
1.0
1070
   172
1070
     1
1070
   173
1070
     1
1070
   176
1070
   256
1070
   177
1070
   256
1070
   178
1070
   256
1070
   271
1070
     0
1070
   272
1070
     2
1070
     6
1000
OPEN
1070
     7
1000
OPEN
1002
}
  0
DIMENSION
  5
67D
330
1A
100
AcDbEntity
  8
SUNPOU
100
AcDbDimension
  2
*D6
 10
118.5624391767532
 20
46.66731080806025
 30
0.0
 11
139.5624391767532
 21
49.16731080806025
 31
0.0
 70
    32
  3
STANDARD
100
AcDbAlignedDimension
 13
160.5624391767532
 23
80.16294509285911
 33
0.0
 14
118.5624391767532
 24
82.1629450928591
 34
0.0
100
AcDbRotatedDimension
1001
ACAD
1000
DSTYLE
1002
{
1070
   372
1070
    -1
1070
   371
1070
    -1
1070
    41
1040
3.0
1070
    42
1040
3.0
1070
    43
1040
7.0
1070
    44
1040
1.5
1070
    73
1070
     0
1070
    74
1070
     0
1070
    77
1070
     3
1070
   140
1040
3.0
1070
   141
1040
150.0
1070
   147
1040
1.0
1070
   172
1070
     1
1070
   173
1070
     1
1070
   176
1070
   256
1070
   177
1070
   256
1070
   178
1070
   256
1070
   271
1070
     0
1070
   272
1070
     2
1070
     6
1000
OPEN
1070
     7
1000
OPEN
1002
}
  0
DIMENSION
  5
67E
330
1A
100
AcDbEntity
  8
SUNPOU
100
AcDbDimension
  2
*D7
 10
134.2409942995597
 20
80.16294509285911
 30
0.0
 11
131.7409942995597
 21
69.41294509285912
 31
0.0
 70
    32
  1
t<>
  3
STANDARD
100
AcDbAlignedDimension
 13
120.5624391767532
 23
81.16294509285911
 33
0.0
 14
120.5624391767532
 24
80.16294509285911
 34
0.0
 50
90.0
100
AcDbRotatedDimension
1001
ACAD
1000
DSTYLE
1002
{
1070
   372
1070
    -1
1070
   371
1070
    -1
1070
    41
1040
3.0
1070
    42
1040
3.0
1070
    43
1040
7.0
1070
    44
1040
1.5
1070
    73
1070
     0
1070
    74
1070
     0
1070
    77
1070
     3
1070
   140
1040
3.0
1070
   141
1040
150.0
1070
   147
1040
1.0
1070
   172
1070
     1
1070
   173
1070
     1
1070
   176
1070
   256
1070
   177
1070
   256
1070
   178
1070
   256
1070
   271
1070
     1
1070
   272
1070
     2
1070
     6
1000
OPEN
1070
     7
1000
OPEN
1002
}
  0
LINE
  5
67F
330
1A
100
AcDbEntity
  8
SEIHIN
  6
CONTINUOUS
 62
     3
 48
5.0
100
AcDbLine
 10
120.5624391767532
 20
115.1629450928591
 30
0.0
 11
123.5624391767532
 21
115.1629450928591
 31
0.0
  0
LINE
  5
680
330
1A
100
AcDbEntity
  8
SEIHIN
  6
CONTINUOUS
 62
     3
 48
5.0
100
AcDbLine
 10
120.5624391767532
 20
116.1629450928591
 30
0.0
 11
123.7550215803532
 21
116.1629450928591
 31
0.0
  0
LINE
  5
681
330
1A
100
AcDbEntity
  8
SEIHIN
  6
CONTINUOUS
 62
     3
 48
5.0
100
AcDbLine
 10
147.0624061524532
 20
80.16294509285911
 30
0.0
 11
120.5624391767532
 21
80.16294509285911
 31
0.0
  0
LINE
  5
682
330
1A
100
AcDbEntity
  8
SEIHIN
  6
CONTINUOUS
 62
     3
 48
5.0
100
AcDbLine
 10
146.5624391767532
 20
81.16294509285911
 30
0.0
 11
120.5624391767532
 21
81.16294509285911
 31
0.0
  0
DIMENSION
  5
683
330
1A
100
AcDbEntity
  8
SUNPOU
100
AcDbDimension
  2
*D8
 10
100.4686180638404
 20
116.1629450928591
 30
0.0
 11
97.96861806384043
 21
98.16294509285915
 31
0.0
 70
    32
  3
STANDARD
100
AcDbAlignedDimension
 13
120.5624391767532
 23
80.16294509285911
 33
0.0
 14
120.5624391767532
 24
116.1629450928591
 34
0.0
 50
90.0
100
AcDbRotatedDimension
1001
ACAD
1000
DSTYLE
1002
{
1070
   372
1070
    -1
1070
   371
1070
    -1
1070
    41
1040
3.0
1070
    42
1040
3.0
1070
    43
1040
7.0
1070
    44
1040
1.5
1070
    73
1070
     0
1070
    74
1070
     0
1070
    77
1070
     3
1070
   140
1040
3.0
1070
   141
1040
150.0
1070
   147
1040
1.0
1070
   172
1070
     1
1070
   173
1070
     1
1070
   176
1070
   256
1070
   177
1070
   256
1070
   178
1070
   256
1070
   271
1070
     0
1070
   272
1070
     2
1070
     6
1000
OPEN
1070
     7
1000
OPEN
1002
}
  0
LINE
  5
684
330
1A
100
AcDbEntity
  8
SEIHIN
  6
CONTINUOUS
 62
     3
 48
5.0
100
AcDbLine
 10
119.5624391767532
 20
114.1629450928591
 30
0.0
 11
119.5624391767532
 21
82.1629450928591
 31
0.0
  0
LINE
  5
685
330
1A
100
AcDbEntity
  8
SEIHIN
  6
CONTINUOUS
 62
     3
 48
5.0
100
AcDbLine
 10
118.5624391767532
 20
114.1629450928591
 30
0.0
 11
118.5624391767532
 21
82.1629450928591
 31
0.0
  0
ARC
  5
686
330
1A
100
AcDbEntity
  8
SEIHIN
  6
CONTINUOUS
 62
     3
 48
5.0
100
AcDbCircle
 10
120.5624391767532
 20
82.1629450928591
 30
0.0
 40
1.0
100
AcDbArc
 50
180.0
 51
270.0
  0
ARC
  5
687
330
1A
100
AcDbEntity
  8
SEIHIN
  6
CONTINUOUS
 62
     3
 48
5.0
100
AcDbCircle
 10
120.5624391767532
 20
82.1629450928591
 30
0.0
 40
2.0
100
AcDbArc
 50
180.0
 51
270.0
  0
ARC
  5
688
330
1A
100
AcDbEntity
  8
SEIHIN
  6
CONTINUOUS
 62
     3
 48
5.0
100
AcDbCircle
 10
120.5624391767532
 20
114.1629450928591
 30
0.0
 40
1.0
100
AcDbArc
 50
90.0
 51
180.0
  0
ARC
  5
689
330
1A
100
AcDbEntity
  8
SEIHIN
  6
CONTINUOUS
 62
     3
 48
5.0
100
AcDbCircle
 10
120.5624391767532
 20
114.1629450928591
 30
0.0
 40
2.0
100
AcDbArc
 50
90.0
 51
180.0
  0
DIMENSION
  5
68A
330
1A
100
AcDbEntity
  8
SUNPOU
100
AcDbDimension
  2
*D9
 10
191.20457153054
 20
85.16250479295907
 30
0.0
 11
188.7045715305399
 21
99.16272494290913
 31
0.0
 70
    32
  3
STANDARD
100
AcDbAlignedDimension
 13
158.5624391767532
 23
113.1629450928591
 33
0.0
 14
149.5624391767532
 24
85.16250479295909
 34
0.0
 50
90.0
100
AcDbRotatedDimension
1001
ACAD
1000
DSTYLE
1002
{
1070
   372
1070
    -1
1070
   371
1070
    -1
1070
    41
1040
3.0
1070
    42
1040
3.0
1070
    43
1040
7.0
1070
    44
1040
1.5
1070
    73
1070
     0
1070
    74
1070
     0
1070
    77
1070
     3
1070
   140
1040
3.0
1070
   141
1040
150.0
1070
   147
1040
1.0
1070
   172
1070
     1
1070
   173
1070
     1
1070
   176
1070
   256
1070
   177
1070
   256
1070
   178
1070
   256
1070
   271
1070
     0
1070
   272
1070
     2
1070
     6
1000
OPEN
1070
     7
1000
OPEN
1002
}
  0
LINE
  5
68B
330
1A
100
AcDbEntity
  8
SEIHIN
  6
CONTINUOUS
 62
     3
 48
5.0
100
AcDbLine
 10
155.2596912703532
 20
80.16294509285911
 30
0.0
 11
149.7948345250532
 21
83.80578189375913
 31
0.0
  0
LINE
  5
68C
330
1A
100
AcDbEntity
  8
SEIHIN
  6
CONTINUOUS
 62
     3
 48
5.0
100
AcDbLine
 10
155.5624391767532
 20
81.16294509285911
 30
0.0
 11
149.5624391767532
 21
85.16250479295909
 31
0.0
  0
LINE
  5
68D
330
1A
100
AcDbEntity
  8
SEIHIN
  6
CONTINUOUS
 62
     3
 48
5.0
100
AcDbLine
 10
149.5624391767532
 20
85.16250479295909
 30
0.0
 11
146.5624391767532
 21
81.16294509285911
 31
0.0
  0
LINE
  5
68E
330
1A
100
AcDbEntity
  8
SEIHIN
  6
CONTINUOUS
 62
     3
 48
5.0
100
AcDbLine
 10
149.7948345250532
 20
83.80578189375913
 30
0.0
 11
147.0624061524532
 21
80.16294509285911
 31
0.0
  0
LINE
  5
68F
330
1A
100
AcDbEntity
  8
SEIHIN
  6
CONTINUOUS
 62
     3
 48
5.0
100
AcDbLine
 10
160.5624391767532
 20
81.16294509285911
 30
0.0
 11
155.5624391767532
 21
81.16294509285911
 31
0.0
  0
LINE
  5
690
330
1A
100
AcDbEntity
  8
SEIHIN
  6
CONTINUOUS
 62
     3
 48
5.0
100
AcDbLine
 10
160.5624391767532
 20
80.16294509285911
 30
0.0
 11
155.2596912703532
 21
80.16294509285911
 31
0.0
  0
LINE
  5
691
330
1A
100
AcDbEntity
  8
SEIHIN
  6
CONTINUOUS
 62
     3
 48
5.0
100
AcDbLine
 10
157.5624391767532
 20
81.16294509285911
 30
0.0
 11
157.5624391767532
 21
80.16294509285911
 31
0.0
  0
LINE
  5
692
330
1A
100
AcDbEntity
  8
SEIHIN
  6
CONTINUOUS
 62
     3
 48
5.0
100
AcDbLine
 10
160.5624391767532
 20
81.16294509285911
 30
0.0
 11
160.5624391767532
 21
80.16294509285911
 31
0.0
  0
LINE
  5
693
330
1A
100
AcDbEntity
  8
SEIHIN
  6
CONTINUOUS
 62
     3
 48
5.0
100
AcDbLine
 10
153.7550215803532
 20
116.1629450928591
 30
0.0
 11
133.3698567732532
 21
116.1629450928591
 31
0.0
  0
LINE
  5
694
330
1A
100
AcDbEntity
  8
SEIHIN
  6
CONTINUOUS
 62
     3
 48
5.0
100
AcDbLine
 10
153.5624391767532
 20
115.1629450928591
 30
0.0
 11
133.5624391767532
 21
115.1629450928591
 31
0.0
  0
LINE
  5
695
330
1A
100
AcDbEntity
  8
SEIHIN
  6
CONTINUOUS
 62
     3
 48
8.0
100
AcDbLine
 10
138.5623954271732
 20
116.1629450928591
 30
0.0
 11
129.5623954271732
 21
116.1629450928591
 31
0.0
  0
LINE
  5
696
330
1A
100
AcDbEntity
  8
SEIHIN
  6
CONTINUOUS
 62
     3
 48
8.0
100
AcDbLine
 10
132.0623954271732
 20
124.150545092859
 30
0.0
 11
138.5623954271732
 21
124.150545092859
 31
0.0
  0
LINE
  5
697
330
1A
100
AcDbEntity
  8
SEIHIN
  6
CONTINUOUS
 62
     3
 48
5.0
100
AcDbLine
 10
135.0624252150533
 20
113.1628776404506
 30
0.0
 11
142.0624252150533
 21
113.1629125442478
 31
0.0
  0
LINE
  5
698
330
1A
100
AcDbEntity
  8
SEIHIN
  6
CONTINUOUS
 62
     3
 48
5.0
100
AcDbLine
 10
133.3698567732532
 20
116.1629450928591
 30
0.0
 11
128.5624391767532
 21
114.2399780542591
 31
0.0
  0
LINE
  5
699
330
1A
100
AcDbEntity
  8
SEIHIN
  6
CONTINUOUS
 62
     3
 48
5.0
100
AcDbLine
 10
133.5624391767532
 20
115.1629450928591
 30
0.0
 11
128.5624391767532
 21
113.1629450928591
 31
0.0
  0
LINE
  5
69A
330
1A
100
AcDbEntity
  8
SEIHIN
  6
CONTINUOUS
 62
     3
 48
5.0
100
AcDbLine
 10
123.5624391767532
 20
115.1629450928591
 30
0.0
 11
128.5624391767532
 21
113.1629450928591
 31
0.0
  0
LINE
  5
69B
330
1A
100
AcDbEntity
  8
SEIHIN
  6
CONTINUOUS
 62
     3
 48
5.0
100
AcDbLine
 10
123.7550215803532
 20
116.1629450928591
 30
0.0
 11
128.5624391767532
 21
114.2399780542591
 31
0.0
  0
LINE
  5
69C
330
1A
100
AcDbEntity
  8
SEIHIN
  6
CONTINUOUS
 62
     3
 48
5.0
100
AcDbLine
 10
135.0624252150533
 20
113.1628776405478
 30
0.0
 11
135.0624152425818
 21
115.1628776405478
 31
0.0
  0
LINE
  5
69D
330
1A
100
AcDbEntity
  8
SEIHIN
  6
CONTINUOUS
 62
     3
 48
8.0
100
AcDbLine
 10
132.0623954271732
 20
124.150545092859
 30
0.0
 11
129.5623954271732
 21
125.150545092859
 31
0.0
  0
LINE
  5
69E
330
1A
100
AcDbEntity
  8
SEIHIN
  6
CONTINUOUS
 62
     3
 48
8.0
100
AcDbLine
 10
138.5623954271732
 20
116.1629450928591
 30
0.0
 11
147.5623954271732
 21
116.1629450928591
 31
0.0
  0
LINE
  5
69F
330
1A
100
AcDbEntity
  8
SEIHIN
  6
CONTINUOUS
 62
     3
 48
5.0
100
AcDbLine
 10
142.0624252150533
 20
113.1629125442478
 30
0.0
 11
142.0624152419847
 21
115.1630125442478
 31
0.0
  0
LINE
  5
6A0
330
1A
100
AcDbEntity
  8
SEIHIN
  6
CONTINUOUS
 62
     3
 48
8.0
100
AcDbLine
 10
145.0623954271732
 20
124.150545092859
 30
0.0
 11
147.5623954271732
 21
125.150545092859
 31
0.0
  0
LINE
  5
6A1
330
1A
100
AcDbEntity
  8
SEIHIN
  6
CONTINUOUS
 62
     3
 48
8.0
100
AcDbLine
 10
145.0623954271732
 20
124.150545092859
 30
0.0
 11
138.5623954271732
 21
124.150545092859
 31
0.0
  0
LINE
  5
6A2
330
1A
100
AcDbEntity
  8
SEIHIN
  6
CONTINUOUS
 62
     3
 48
5.0
100
AcDbLine
 10
158.5624391767532
 20
114.2399780542591
 30
0.0
 11
163.3698567732532
 21
116.1629450928591
 31
0.0
  0
LINE
  5
6A3
330
1A
100
AcDbEntity
  8
SEIHIN
  6
CONTINUOUS
 62
     3
 48
5.0
100
AcDbLine
 10
158.5624391767532
 20
113.1629450928591
 30
0.0
 11
163.5624391767532
 21
115.1629450928591
 31
0.0
  0
LINE
  5
6A4
330
1A
100
AcDbEntity
  8
SEIHIN
  6
CONTINUOUS
 62
     3
 48
5.0
100
AcDbLine
 10
158.5624391767532
 20
113.1629450928591
 30
0.0
 11
153.5624391767532
 21
115.1629450928591
 31
0.0
  0
LINE
  5
6A5
330
1A
100
AcDbEntity
  8
SEIHIN
  6
CONTINUOUS
 62
     3
 48
5.0
100
AcDbLine
 10
158.5624391767532
 20
114.2399780542591
 30
0.0
 11
153.7550215803532
 21
116.1629450928591
 31
0.0
  0
LINE
  5
6A6
330
1A
100
AcDbEntity
  8
SEIHIN
  6
CONTINUOUS
 62
     3
 48
5.0
100
AcDbLine
 10
163.3698567732532
 20
116.1629450928591
 30
0.0
 11
167.5624391767532
 21
116.1629450928591
 31
0.0
  0
LINE
  5
6A7
330
1A
100
AcDbEntity
  8
SEIHIN
  6
CONTINUOUS
 62
     3
 48
5.0
100
AcDbLine
 10
163.5624391767532
 20
115.1629450928591
 30
0.0
 11
167.5624391767532
 21
115.1629450928591
 31
0.0
  0
LINE
  5
6A8
330
1A
100
AcDbEntity
  8
SEIHIN
  6
CONTINUOUS
 62
     3
 48
5.0
100
AcDbLine
 10
163.3698567732532
 20
116.1629450928591
 30
0.0
 11
167.5624391767532
 21
116.1629450928591
 31
0.0
  0
LINE
  5
6A9
330
1A
100
AcDbEntity
  8
SEIHIN
  6
CONTINUOUS
 62
     3
 48
5.0
100
AcDbLine
 10
164.5624391767532
 20
116.1629450928591
 30
0.0
 11
164.5624391767532
 21
115.1629450928591
 31
0.0
  0
LINE
  5
6AA
330
1A
100
AcDbEntity
  8
SEIHIN
  6
CONTINUOUS
 62
     3
 48
5.0
100
AcDbLine
 10
167.5624391767532
 20
116.1629450928591
 30
0.0
 11
167.5624391767532
 21
115.1629450928591
 31
0.0
  0
LINE
  5
6AB
330
1A
100
AcDbEntity
  8
SEIHIN
  6
CONTINUOUS
 62
     3
 48
8.0
100
AcDbLine
 10
145.0623954271732
 20
149.8839674067317
 30
0.0
 11
145.0623954271732
 21
191.863045092859
 31
0.0
  0
LINE
  5
6AC
330
1A
100
AcDbEntity
  8
SEIHIN
  6
CONTINUOUS
 62
     3
 48
8.0
100
AcDbLine
 10
132.0623954271732
 20
149.8839674067317
 30
0.0
 11
132.0623954271732
 21
191.863045092859
 31
0.0
  0
LINE
  5
6AD
330
1A
100
AcDbEntity
  8
SEIHIN
100
AcDbLine
 10
146.5623954271732
 20
148.8839674067317
 30
0.0
 11
130.5623954271732
 21
148.8839674067317
 31
0.0
  0
LINE
  5
6AE
330
1A
100
AcDbEntity
  8
SEIHIN
  6
CONTINUOUS
 62
     3
 48
8.0
100
AcDbLine
 10
129.5622954271732
 20
136.862845092859
 30
0.0
 11
147.5622954271732
 21
136.862845092859
 31
0.0
  0
LINE
  5
6AF
330
1A
100
AcDbEntity
  8
SEIHIN
  6
CONTINUOUS
 62
     3
 48
8.0
100
AcDbLine
 10
136.0621954271732
 20
136.863245092859
 30
0.0
 11
136.0620954271731
 21
145.862845092859
 31
0.0
  0
LINE
  5
6B0
330
1A
100
AcDbEntity
  8
SEIHIN
  6
CONTINUOUS
 62
     3
 48
8.0
100
AcDbLine
 10
131.5620954271731
 20
136.863245092859
 30
0.0
 11
131.5620954271731
 21
139.1127450928591
 31
0.0
  0
LINE
  5
6B1
330
1A
100
AcDbEntity
  8
SEIHIN
  6
CONTINUOUS
 62
     3
 48
8.0
100
AcDbLine
 10
136.0621954271732
 20
139.612845092859
 30
0.0
 11
131.5621954271732
 21
139.612845092859
 31
0.0
  0
LINE
  5
6B2
330
1A
100
AcDbEntity
  8
SEIHIN
  6
CONTINUOUS
 62
     3
 48
8.0
100
AcDbLine
 10
131.5621954271732
 20
141.862845092859
 30
0.0
 11
136.0621954271732
 21
141.862845092859
 31
0.0
  0
LINE
  5
6B3
330
1A
100
AcDbEntity
  8
SEIHIN
  6
CONTINUOUS
 62
     3
 48
8.0
100
AcDbLine
 10
131.5621954271732
 20
141.862545092859
 30
0.0
 11
131.5621954271732
 21
139.265445092859
 31
0.0
  0
LINE
  5
6B4
330
1A
100
AcDbEntity
  8
SEIHIN
  6
CONTINUOUS
 62
     3
 48
8.0
100
AcDbLine
 10
129.5622954271732
 20
145.8627450928591
 30
0.0
 11
136.0620954282843
 21
145.8627450928591
 31
0.0
  0
LINE
  5
6B5
330
1A
100
AcDbEntity
  8
SEIHIN
  6
CONTINUOUS
 62
     3
 48
8.0
100
AcDbLine
 10
141.0621954271732
 20
136.863245092859
 30
0.0
 11
141.0620954271731
 21
145.862845092859
 31
0.0
  0
LINE
  5
6B6
330
1A
100
AcDbEntity
  8
SEIHIN
  6
CONTINUOUS
 62
     3
 48
8.0
100
AcDbLine
 10
141.0621954271732
 20
139.612845092859
 30
0.0
 11
145.5621954271732
 21
139.612845092859
 31
0.0
  0
LINE
  5
6B7
330
1A
100
AcDbEntity
  8
SEIHIN
  6
CONTINUOUS
 62
     3
 48
8.0
100
AcDbLine
 10
141.0621954271732
 20
141.862845092859
 30
0.0
 11
145.5621954271732
 21
141.862845092859
 31
0.0
  0
LINE
  5
6B8
330
1A
100
AcDbEntity
  8
SEIHIN
  6
CONTINUOUS
 62
     3
 48
8.0
100
AcDbLine
 10
145.5621954271732
 20
136.863345092859
 30
0.0
 11
145.5621954271732
 21
139.112845092859
 31
0.0
  0
LINE
  5
6B9
330
1A
100
AcDbEntity
  8
SEIHIN
  6
CONTINUOUS
 62
     3
 48
8.0
100
AcDbLine
 10
145.5621954271732
 20
141.862545092859
 30
0.0
 11
145.5621954271732
 21
139.265445092859
 31
0.0
  0
LINE
  5
6BA
330
1A
100
AcDbEntity
  8
SEIHIN
  6
CONTINUOUS
 62
     3
 48
8.0
100
AcDbLine
 10
141.0620954282843
 20
145.8627450928591
 30
0.0
 11
147.5622954271732
 21
145.8627450928591
 31
0.0
  0
LINE
  5
6BD
330
1A
100
AcDbEntity
  8
SEIHIN
  6
CONTINUOUS
 62
     3
 48
8.0
100
AcDbLine
 10
132.0623954271732
 20
182.494945092859
 30
0.0
 11
138.5623954271732
 21
182.494945092859
 31
0.0
  0
LINE
  5
6BE
330
1A
100
AcDbEntity
  8
SEIHIN
  6
CONTINUOUS
 62
     3
 48
8.0
100
AcDbLine
 10
138.5623954271732
 20
191.863045092859
 30
0.0
 11
132.0624954271731
 21
191.863045092859
 31
0.0
  0
LINE
  5
6BF
330
1A
100
AcDbEntity
  8
SEIHIN
  6
CONTINUOUS
 62
     3
 48
8.0
100
AcDbLine
 10
132.0623954271732
 20
182.494945092859
 30
0.0
 11
129.5623954271732
 21
181.494945092859
 31
0.0
  0
POINT
  5
6C0
330
1A
100
AcDbEntity
  8
DEFPOINTS
  6
BYBLOCK
 62
     0
100
AcDbPoint
 10
129.5623954271732
 20
190.863045092859
 30
0.0
  0
LINE
  5
6C1
330
1A
100
AcDbEntity
  8
SEIHIN
  6
CONTINUOUS
 62
     3
 48
8.0
100
AcDbLine
 10
132.0623954271732
 20
191.863045092859
 30
0.0
 11
129.5623954271732
 21
190.863045092859
 31
0.0
  0
LINE
  5
6C2
330
1A
100
AcDbEntity
  8
SEIHIN
  6
CONTINUOUS
 62
     3
 48
8.0
100
AcDbLine
 10
145.0623954271732
 20
182.494945092859
 30
0.0
 11
147.5623954271732
 21
181.494945092859
 31
0.0
  0
LINE
  5
6C3
330
1A
100
AcDbEntity
  8
SEIHIN
  6
CONTINUOUS
 62
     3
 48
8.0
100
AcDbLine
 10
145.0623954271732
 20
182.494945092859
 30
0.0
 11
138.5623954271732
 21
182.494945092859
 31
0.0
  0
LINE
  5
6C4
330
1A
100
AcDbEntity
  8
SEIHIN
  6
CONTINUOUS
 62
     3
 48
8.0
100
AcDbLine
 10
145.0623954271732
 20
191.863045092859
 30
0.0
 11
147.5623954271732
 21
190.863045092859
 31
0.0
  0
LINE
  5
6C5
330
1A
100
AcDbEntity
  8
SEIHIN
  6
CONTINUOUS
 62
     3
 48
8.0
100
AcDbLine
 10
138.5623954271732
 20
191.863045092859
 30
0.0
 11
145.0622954271732
 21
191.863045092859
 31
0.0
  0
POINT
  5
6C6
330
1A
100
AcDbEntity
  8
DEFPOINTS
  6
BYBLOCK
 62
     0
100
AcDbPoint
 10
147.5623954271732
 20
190.863045092859
 30
0.0
  0
ARC
  5
6CC
330
1A
100
AcDbEntity
  8
SEIHIN
  6
CONTINUOUS
 62
     3
 48
8.0
100
AcDbCircle
 10
257.7093679181369
 20
126.2629190083795
 30
0.0
 40
7.999964
100
AcDbArc
 50
4.693386680654465
 51
69.51255968065442
  0
ARC
  5
6CD
330
1A
100
AcDbEntity
  8
SEIHIN
  6
CONTINUOUS
 62
     3
 48
8.0
100
AcDbCircle
 10
257.7093679181369
 20
126.2629190083795
 30
0.0
 40
9.000013
100
AcDbArc
 50
4.693195680654448
 51
69.51267068065447
  0
ARC
  5
6CE
330
1A
100
AcDbEntity
  8
SEIHIN
  6
CONTINUOUS
 62
     3
 48
8.0
100
AcDbCircle
 10
257.7093679181369
 20
126.2629190083795
 30
0.0
 40
10.999978
100
AcDbArc
 50
13.9846956806544
 51
69.51313868065445
  0
LINE
  5
6CF
330
1A
100
AcDbEntity
  8
CENTER_L
100
AcDbLine
 10
254.1094036726437
 20
154.7557064527839
 30
0.0
 11
254.1094036726437
 21
128.9701480659689
 31
0.0
  0
LINE
  5
6D0
330
1A
100
AcDbEntity
  8
CENTER_L
  6
CENTER
 62
     1
 48
5.0
100
AcDbLine
 10
289.959295492505
 20
73.16294510170987
 30
0.0
 11
289.9594395419883
 21
198.8630451017098
 31
0.0
  0
ARC
  5
6D1
330
1A
100
AcDbEntity
  8
SEIHIN
  6
CONTINUOUS
 62
     3
 48
8.0
100
AcDbCircle
 10
322.0678682425087
 20
126.4043715015964
 30
0.0
 40
8.000040999999999
100
AcDbArc
 50
106.8517456806544
 51
176.0462066806544
  0
ARC
  5
6D2
330
1A
100
AcDbEntity
  8
SEIHIN
  6
CONTINUOUS
 62
     3
 48
8.0
100
AcDbCircle
 10
322.0678682425087
 20
126.4043715015964
 30
0.0
 40
9.000004999999999
100
AcDbArc
 50
106.8518606806544
 51
176.0458786806544
  0
ARC
  5
6D3
330
1A
100
AcDbEntity
  8
SEIHIN
  6
CONTINUOUS
 62
     3
 48
8.0
100
AcDbCircle
 10
322.0678682425087
 20
126.4043715015964
 30
0.0
 40
10.999985
100
AcDbArc
 50
103.2899876806544
 51
166.7102566806544
  0
LINE
  5
6D4
330
1A
100
AcDbEntity
  8
SEIHIN
  6
CONTINUOUS
 62
     3
 48
5.0
100
AcDbLine
 10
299.9593447695365
 20
116.1629450928589
 30
0.0
 11
299.9593447695364
 21
80.1629450928589
 31
0.0
  0
LINE
  5
6D5
330
1A
100
AcDbEntity
  8
SEIHIN
  6
CONTINUOUS
 62
     3
 48
5.0
100
AcDbLine
 10
279.9593447695364
 20
80.16294509285893
 30
0.0
 11
279.9593447695364
 21
116.1629450928589
 31
0.0
  0
LINE
  5
6D6
330
1A
100
AcDbEntity
  8
SEIHIN
100
AcDbLine
 10
299.9593447695364
 20
85.16250479295909
 30
0.0
 11
279.9593447695364
 21
85.16250479295909
 31
0.0
  0
LINE
  5
6D7
330
1A
100
AcDbEntity
  8
SEIHIN
100
AcDbLine
 10
299.9593447695364
 20
81.16294509285911
 30
0.0
 11
279.9593447695364
 21
81.16294509285911
 31
0.0
  0
LINE
  5
6D8
330
1A
100
AcDbEntity
  8
SEIHIN
  6
CONTINUOUS
 62
     3
 48
5.0
100
AcDbLine
 10
299.9593447695364
 20
80.1629450928589
 30
0.0
 11
279.9593447695364
 21
80.16294509285893
 31
0.0
  0
DIMENSION
  5
6D9
330
1A
100
AcDbEntity
  8
SUNPOU
100
AcDbDimension
  2
*D10
 10
299.9593447695364
 20
55.51615273485842
 30
0.0
 11
289.9593447695364
 21
58.01615273485842
 31
0.0
 70
    32
  3
STANDARD
100
AcDbAlignedDimension
 13
279.9593447695364
 23
80.16294509285893
 33
0.0
 14
299.9593447695364
 24
80.1629450928589
 34
0.0
100
AcDbRotatedDimension
1001
ACAD
1000
DSTYLE
1002
{
1070
   372
1070
    -1
1070
   371
1070
    -1
1070
    41
1040
3.0
1070
    42
1040
3.0
1070
    43
1040
7.0
1070
    44
1040
1.5
1070
    73
1070
     0
1070
    74
1070
     0
1070
    77
1070
     3
1070
   140
1040
3.0
1070
   141
1040
150.0
1070
   147
1040
1.0
1070
   172
1070
     1
1070
   173
1070
     1
1070
   176
1070
   256
1070
   177
1070
   256
1070
   178
1070
   256
1070
   271
1070
     0
1070
   272
1070
     2
1070
     6
1000
OPEN
1070
     7
1000
OPEN
1002
}
  0
LINE
  5
6DA
330
1A
100
AcDbEntity
  8
SEIHIN
  6
CONTINUOUS
 62
     3
 48
5.0
100
AcDbLine
 10
282.9592645511315
 20
81.16296113663571
 30
0.0
 11
282.9592622591766
 21
80.16296113663832
 31
0.0
  0
LINE
  5
6DB
330
1A
100
AcDbEntity
  8
SEIHIN
  6
CONTINUOUS
 62
     3
 48
5.0
100
AcDbLine
 10
296.9593447695364
 20
81.16294509285911
 30
0.0
 11
296.9593447695364
 21
80.16294509285911
 31
0.0
  0
ARC
  5
6DC
330
1A
100
AcDbEntity
  8
SEIHIN
  6
CONTINUOUS
 62
     3
 48
8.0
100
AcDbCircle
 10
277.9592516454328
 20
119.1629725965397
 30
0.0
 40
6.0
100
AcDbArc
 50
359.9998686806543
 51
89.99986868065445
  0
LINE
  5
6DD
330
1A
100
AcDbEntity
  8
SEIHIN
  6
CONTINUOUS
 62
     3
 48
8.0
100
AcDbLine
 10
275.9592699810777
 20
127.1629771804285
 30
0.0
 11
289.9592699810409
 21
127.1629450930592
 31
0.0
  0
LINE
  5
6DE
330
1A
100
AcDbEntity
  8
SEIHIN
  6
CONTINUOUS
 62
     3
 48
8.0
100
AcDbLine
 10
289.4592722729972
 20
128.1629462390341
 30
0.0
 11
276.9592722728008
 21
128.162874888471
 31
0.0
  0
LINE
  5
6DF
330
1A
100
AcDbEntity
  8
SEIHIN
  6
CONTINUOUS
 62
     3
 48
8.0
100
AcDbLine
 10
282.9593447695364
 20
116.1629450928589
 30
0.0
 11
296.9593447695364
 21
116.1629450928589
 31
0.0
  0
LINE
  5
6E0
330
1A
100
AcDbEntity
  8
SEIHIN
100
AcDbLine
 10
299.9593447695365
 20
113.1629450928591
 30
0.0
 11
279.9593447695364
 21
113.1629450928591
 31
0.0
  0
LINE
  5
6E1
330
1A
100
AcDbEntity
  8
SEIHIN
100
AcDbLine
 10
299.9593447695365
 20
115.1629450928591
 30
0.0
 11
279.9593447695364
 21
115.1629450928591
 31
0.0
  0
LINE
  5
6E2
330
1A
100
AcDbEntity
  8
SEIHIN
  6
CONTINUOUS
 62
     3
 48
5.0
100
AcDbLine
 10
279.9317447694365
 20
116.1629450928589
 30
0.0
 11
299.9869447696364
 21
116.1629450928589
 31
0.0
  0
LINE
  5
6E3
330
1A
100
AcDbEntity
  8
SEIHIN
  6
CONTINUOUS
 62
     3
 48
5.0
100
AcDbLine
 10
279.9593447695364
 20
116.1629450928589
 30
0.0
 11
299.9593447695365
 21
116.1629450928589
 31
0.0
  0
ARC
  5
6E4
330
1A
100
AcDbEntity
  8
SEIHIN
  6
CONTINUOUS
 62
     3
 48
8.0
100
AcDbCircle
 10
268.6724699810968
 20
127.1629938814459
 30
0.0
 40
2.000004999999999
100
AcDbArc
 50
184.6947556806544
 51
269.9998686806544
  0
ARC
  5
6E5
330
1A
100
AcDbEntity
  8
SEIHIN
  6
CONTINUOUS
 62
     3
 48
8.0
100
AcDbCircle
 10
269.3536745647758
 20
129.1628923201609
 30
0.0
 40
0.9999749999999998
100
AcDbArc
 50
193.9874726806544
 51
269.9998686806544
  0
ARC
  5
6E6
330
1A
100
AcDbEntity
  8
SEIHIN
  6
CONTINUOUS
 62
     3
 48
8.0
100
AcDbCircle
 10
268.6724699808676
 20
127.1628938814459
 30
0.0
 40
3.000027
100
AcDbArc
 50
184.6918216806544
 51
269.9998686806544
  0
ARC
  5
6E7
330
1A
100
AcDbEntity
  8
SEIHIN
  6
CONTINUOUS
 62
     3
 48
8.0
100
AcDbCircle
 10
277.9592516454328
 20
119.1629725965397
 30
0.0
 40
5.0
100
AcDbArc
 50
359.9998686806543
 51
89.99986868065445
  0
LINE
  5
6E8
330
1A
100
AcDbEntity
  8
SEIHIN
  6
CONTINUOUS
 62
     3
 48
5.0
100
AcDbLine
 10
282.9593447695547
 20
116.1629611365436
 30
0.0
 11
282.9593424775998
 21
115.1629611365462
 31
0.0
  0
LINE
  5
6E9
330
1A
100
AcDbEntity
  8
SEIHIN
  6
CONTINUOUS
 62
     3
 48
8.0
100
AcDbLine
 10
283.9593447695364
 20
116.1629450928589
 30
0.0
 11
283.9594447695364
 21
119.1629450928589
 31
0.0
  0
LINE
  5
6EA
330
1A
100
AcDbEntity
  8
SEIHIN
  6
CONTINUOUS
 62
     3
 48
8.0
100
AcDbLine
 10
282.9593447695364
 20
116.1629450928589
 30
0.0
 11
282.9594447695364
 21
119.1629450928589
 31
0.0
  0
ARC
  5
6EB
330
1A
100
AcDbEntity
  8
SEIHIN
  6
CONTINUOUS
 62
     3
 48
8.0
100
AcDbCircle
 10
275.9592722728035
 20
128.1628771804259
 30
0.0
 40
1.0
100
AcDbArc
 50
179.9998686806544
 51
359.9998686806543
  0
LINE
  5
6EC
330
1A
100
AcDbEntity
  8
SEIHIN
  6
CONTINUOUS
 62
     3
 48
8.0
100
AcDbLine
 10
277.9593653971625
 20
125.1629725962947
 30
0.0
 11
268.6724653971869
 21
125.1629938814511
 31
0.0
  0
LINE
  5
6ED
330
1A
100
AcDbEntity
  8
SEIHIN
  6
CONTINUOUS
 62
     3
 48
8.0
100
AcDbLine
 10
277.9592631049784
 20
124.1628725965265
 30
0.0
 11
268.6724631050028
 21
124.1628938814538
 31
0.0
  0
LINE
  5
6EE
330
1A
100
AcDbEntity
  8
SEIHIN
  6
CONTINUOUS
 62
     3
 48
8.0
100
AcDbLine
 10
274.9592722728061
 20
128.1628794723809
 30
0.0
 11
269.5293722728204
 21
128.1628919174671
 31
0.0
  0
ARC
  5
6EF
330
1A
100
AcDbEntity
  8
SEIHIN
  6
CONTINUOUS
 62
     3
 48
8.0
100
AcDbCircle
 10
301.9592516453697
 20
119.1629175896208
 30
0.0
 40
5.0
100
AcDbArc
 50
89.99986868065445
 51
179.9998686806544
  0
LINE
  5
6F0
330
1A
100
AcDbEntity
  8
SEIHIN
  6
CONTINUOUS
 62
     3
 48
8.0
100
AcDbLine
 10
303.9592699810041
 20
127.1629130056899
 30
0.0
 11
289.9592699810409
 21
127.1629450930592
 31
0.0
  0
LINE
  5
6F1
330
1A
100
AcDbEntity
  8
SEIHIN
  6
CONTINUOUS
 62
     3
 48
8.0
100
AcDbLine
 10
290.4592722729946
 20
128.1629439470791
 30
0.0
 11
302.9592722729617
 21
128.1629152976423
 31
0.0
  0
ARC
  5
6F2
330
1A
100
AcDbEntity
  8
SEIHIN
  6
CONTINUOUS
 62
     3
 48
8.0
100
AcDbCircle
 10
301.9592516453697
 20
119.1629175896208
 30
0.0
 40
6.0
100
AcDbArc
 50
89.99986868065445
 51
179.9998686806544
  0
LINE
  5
6F3
330
1A
100
AcDbEntity
  8
SEIHIN
  6
CONTINUOUS
 62
     3
 48
5.0
100
AcDbLine
 10
296.9593447695365
 20
116.1629450928589
 30
0.0
 11
296.9593447695365
 21
115.1629450928589
 31
0.0
  0
LINE
  5
6F4
330
1A
100
AcDbEntity
  8
SEIHIN
  6
CONTINUOUS
 62
     3
 48
8.0
100
AcDbLine
 10
295.9593447695364
 20
116.1629450928589
 30
0.0
 11
295.9594447695364
 21
119.1629450928589
 31
0.0
  0
LINE
  5
6F5
330
1A
100
AcDbEntity
  8
SEIHIN
  6
CONTINUOUS
 62
     3
 48
8.0
100
AcDbLine
 10
296.9593447695364
 20
116.1629450928589
 30
0.0
 11
296.9594447695364
 21
119.1629450928589
 31
0.0
  0
ARC
  5
6F6
330
1A
100
AcDbEntity
  8
SEIHIN
  6
CONTINUOUS
 62
     3
 48
8.0
100
AcDbCircle
 10
289.9592711270184
 20
127.6629450930579
 30
0.0
 40
0.5
100
AcDbArc
 50
179.9998686806544
 51
359.9998686806543
  0
LINE
  5
6F7
330
1A
100
AcDbEntity
  8
SEIHIN
  6
CONTINUOUS
 62
     3
 48
8.0
100
AcDbLine
 10
289.4592711270197
 20
127.6629462390354
 30
0.0
 11
289.4592722729972
 21
128.1629462390341
 31
0.0
  0
LINE
  5
6F8
330
1A
100
AcDbEntity
  8
SEIHIN
  6
CONTINUOUS
 62
     3
 48
8.0
100
AcDbLine
 10
290.4592711270171
 20
127.6629439470804
 30
0.0
 11
290.4592722729946
 21
128.1629439470791
 31
0.0
  0
LINE
  5
6F9
330
1A
100
AcDbEntity
  8
SEIHIN
  6
CONTINUOUS
 62
     3
 48
8.0
100
AcDbLine
 10
304.9592722729565
 20
128.1629107137323
 30
0.0
 11
310.3891722729423
 21
128.1628982686461
 31
0.0
  0
LINE
  5
6FA
330
1A
100
AcDbEntity
  8
SEIHIN
  6
CONTINUOUS
 62
     3
 48
8.0
100
AcDbLine
 10
301.9593653970994
 20
125.1629175893758
 30
0.0
 11
311.0940653970755
 21
125.162896653055
 31
0.0
  0
LINE
  5
6FB
330
1A
100
AcDbEntity
  8
SEIHIN
  6
CONTINUOUS
 62
     3
 48
8.0
100
AcDbLine
 10
301.9593631051445
 20
124.1629175893785
 30
0.0
 11
311.0940631051206
 21
124.1628966530576
 31
0.0
  0
ARC
  5
6FC
330
1A
100
AcDbEntity
  8
SEIHIN
  6
CONTINUOUS
 62
     3
 48
8.0
100
AcDbCircle
 10
303.9592722729591
 20
128.1629130056873
 30
0.0
 40
1.0
100
AcDbArc
 50
179.9998686806544
 51
359.9998686806543
  0
ARC
  5
6FD
330
1A
100
AcDbEntity
  8
SEIHIN
  6
CONTINUOUS
 62
     3
 48
8.0
100
AcDbCircle
 10
311.0939699809855
 20
127.1628966532789
 30
0.0
 40
2.000029999999999
100
AcDbArc
 50
269.9998686806544
 51
356.0463056806544
  0
ARC
  5
6FE
330
1A
100
AcDbEntity
  8
SEIHIN
  6
CONTINUOUS
 62
     3
 48
8.0
100
AcDbCircle
 10
311.0939699809855
 20
127.1628966532789
 30
0.0
 40
3.000021999999999
100
AcDbArc
 50
270.0017786806544
 51
356.0452876806543
  0
ARC
  5
6FF
330
1A
100
AcDbEntity
  8
SEIHIN
  6
CONTINUOUS
 62
     3
 48
8.0
100
AcDbCircle
 10
310.3891745648973
 20
129.1628982686435
 30
0.0
 40
0.999993
100
AcDbArc
 50
269.9998686806544
 51
346.7084966806543
  0
DIMENSION
  5
700
330
1A
100
AcDbEntity
  8
SUNPOU
100
AcDbDimension
  2
*D11
 10
323.309290538013
 20
210.3679200397595
 30
0.0
 11
289.959390537986
 21
212.8679200397595
 31
0.0
 70
    32
  3
STANDARD
100
AcDbAlignedDimension
 13
256.609490537959
 23
179.7630215293895
 33
0.0
 14
323.309290538013
 24
179.7629686564526
 34
0.0
100
AcDbRotatedDimension
1001
ACAD
1000
DSTYLE
1002
{
1070
   372
1070
    -1
1070
   371
1070
    -1
1070
    41
1040
3.0
1070
    42
1040
3.0
1070
    43
1040
7.0
1070
    44
1040
1.5
1070
    73
1070
     0
1070
    74
1070
     0
1070
    77
1070
     3
1070
   140
1040
3.0
1070
   141
1040
150.0
1070
   147
1040
1.0
1070
   172
1070
     1
1070
   173
1070
     1
1070
   176
1070
   256
1070
   177
1070
   256
1070
   178
1070
   256
1070
   271
1070
     0
1070
   272
1070
     2
1070
     6
1000
OPEN
1070
     7
1000
OPEN
1002
}
  0
ARC
  5
701
330
1A
100
AcDbEntity
  8
SEIHIN
  6
CONTINUOUS
 62
     3
 48
8.0
100
AcDbCircle
 10
322.0678154254383
 20
190.6215715018861
 30
0.0
 40
9.000002
100
AcDbArc
 50
189.1990746806544
 51
260.8007646806544
  0
ARC
  5
702
330
1A
100
AcDbEntity
  8
SEIHIN
  6
CONTINUOUS
 62
     3
 48
8.0
100
AcDbCircle
 10
322.0678154254383
 20
190.6215715018861
 30
0.0
 40
11.000022
100
AcDbArc
 50
196.8050806806544
 51
253.1948076806544
  0
ARC
  5
703
330
1A
100
AcDbEntity
  8
SEIHIN
  6
CONTINUOUS
 62
     3
 48
8.0
100
AcDbCircle
 10
322.0678154254383
 20
190.6215715018861
 30
0.0
 40
7.999994
100
AcDbArc
 50
189.1995076806544
 51
260.8009366806544
  0
LINE
  5
704
330
1A
100
AcDbEntity
  8
SEIHIN
  6
CONTINUOUS
 62
     3
 48
8.0
100
AcDbLine
 10
259.609486902223
 20
178.1767146535288
 30
0.0
 11
259.6094532936831
 21
163.5130146535673
 31
0.0
  0
LINE
  5
705
330
1A
100
AcDbEntity
  8
SEIHIN
  6
CONTINUOUS
 62
     3
 48
8.0
100
AcDbLine
 10
256.609490537959
 20
179.7630215293895
 30
0.0
 11
256.6094265442848
 21
151.8420215294628
 31
0.0
  0
LINE
  5
706
330
1A
100
AcDbEntity
  8
SEIHIN
  6
CONTINUOUS
 62
     3
 48
8.0
100
AcDbLine
 10
257.6094905379564
 20
179.7630192374345
 30
0.0
 11
257.609426592184
 21
151.8629192375078
 31
0.0
  0
LINE
  5
707
330
1A
100
AcDbEntity
  8
SEIHIN
  6
CONTINUOUS
 62
     3
 48
8.0
100
AcDbLine
 10
260.609432666086
 20
154.5130123616359
 30
0.0
 11
260.6094510017256
 21
162.513012361615
 31
0.0
  0
LINE
  5
708
330
1A
100
AcDbEntity
  8
SEIHIN
  6
CONTINUOUS
 62
     3
 48
8.0
100
AcDbLine
 10
259.6094303739044
 20
153.5129146535935
 30
0.0
 11
259.6094036726293
 21
141.8629146536241
 31
0.0
  0
ARC
  5
709
330
1A
100
AcDbEntity
  8
SEIHIN
  6
CONTINUOUS
 62
     3
 48
8.0
100
AcDbCircle
 10
262.6093979759674
 20
139.3774077777658
 30
0.0
 40
5.999997
100
AcDbArc
 50
206.1878246806456
 51
249.5125596806543
  0
ARC
  5
70A
330
1A
100
AcDbEntity
  8
SEIHIN
  6
CONTINUOUS
 62
     3
 48
8.0
100
AcDbCircle
 10
262.6093979759674
 20
139.3774077777658
 30
0.0
 40
5.000015
100
AcDbArc
 50
206.1390606806459
 51
249.5123586806544
  0
ARC
  5
70B
330
1A
100
AcDbEntity
  8
SEIHIN
  6
CONTINUOUS
 62
     3
 48
8.0
100
AcDbCircle
 10
262.6093979759674
 20
139.3774077777658
 30
0.0
 40
2.999976999999999
100
AcDbArc
 50
179.9998686806544
 51
249.5122256806544
  0
ARC
  5
70C
330
1A
100
AcDbEntity
  8
SEIHIN
  6
CONTINUOUS
 62
     3
 48
8.0
100
AcDbCircle
 10
257.2229919174277
 20
136.7340201231589
 30
0.0
 40
1.000028
100
AcDbArc
 50
26.13960368064597
 51
121.2594026806544
  0
ARC
  5
70D
330
1A
100
AcDbEntity
  8
SEIHIN
  6
CONTINUOUS
 62
     3
 48
8.0
100
AcDbCircle
 10
256.3278908954474
 20
136.288122174689
 30
0.0
 40
0.999994
100
AcDbArc
 50
26.18570368064564
 51
111.6980696806544
  0
LINE
  5
70E
330
1A
100
AcDbEntity
  8
SEIHIN
  6
CONTINUOUS
 62
     3
 48
8.0
100
AcDbLine
 10
259.1094036726306
 20
141.8629157996016
 30
0.0
 11
259.6094036726293
 21
141.8629146536241
 31
0.0
  0
LINE
  5
70F
330
1A
100
AcDbEntity
  8
SEIHIN
  6
CONTINUOUS
 62
     3
 48
8.0
100
AcDbLine
 10
259.1094036726306
 20
141.8629157996016
 30
0.0
 11
259.6094036726293
 21
141.8629146536241
 31
0.0
  0
LINE
  5
710
330
1A
100
AcDbEntity
  8
SEIHIN
  6
CONTINUOUS
 62
     3
 48
8.0
100
AcDbLine
 10
259.6094036726293
 20
141.8629146536241
 30
0.0
 11
259.6093979759753
 21
139.3774146536307
 31
0.0
  0
ARC
  5
711
330
1A
100
AcDbEntity
  8
SEIHIN
  6
CONTINUOUS
 62
     3
 48
8.0
100
AcDbCircle
 10
259.6094326660886
 20
154.5130146535909
 30
0.0
 40
1.0
100
AcDbArc
 50
269.9998686806544
 51
359.9998686806543
  0
ARC
  5
712
330
1A
100
AcDbEntity
  8
SEIHIN
  6
CONTINUOUS
 62
     3
 48
8.0
100
AcDbCircle
 10
253.6094265442927
 20
151.8420284053277
 30
0.0
 40
3.000016999999999
100
AcDbArc
 50
274.7800046806543
 51
359.9998686806543
  0
ARC
  5
713
330
1A
100
AcDbEntity
  8
SEIHIN
  6
CONTINUOUS
 62
     3
 48
8.0
100
AcDbCircle
 10
254.6094265921919
 20
151.8629261133727
 30
0.0
 40
3.0
100
AcDbArc
 50
269.9998686806544
 51
359.9998686806543
  0
LINE
  5
714
330
1A
100
AcDbEntity
  8
SEIHIN
  6
CONTINUOUS
 62
     3
 48
8.0
100
AcDbLine
 10
254.609419716327
 20
148.8629261133805
 30
0.0
 11
254.1094197163283
 21
148.862927259358
 31
0.0
  0
ARC
  5
715
330
1A
100
AcDbEntity
  8
SEIHIN
  6
CONTINUOUS
 62
     3
 48
8.0
100
AcDbCircle
 10
259.6094510017282
 20
162.5130146535699
 30
0.0
 40
1.0
100
AcDbArc
 50
359.9998686806543
 51
89.99986868065445
  0
LINE
  5
716
330
1A
100
AcDbEntity
  8
SEIHIN
  6
CONTINUOUS
 62
     3
 48
8.0
100
AcDbLine
 10
289.9593182707555
 20
191.8630450931184
 30
0.0
 11
268.7093182705821
 21
191.8629937971611
 31
0.0
  0
LINE
  5
717
330
1A
100
AcDbEntity
  8
SEIHIN
  6
CONTINUOUS
 62
     3
 48
8.0
100
AcDbLine
 10
289.9593159788005
 20
190.863045093121
 30
0.0
 11
268.7093159786272
 21
190.8629937971637
 31
0.0
  0
LINE
  5
718
330
1A
100
AcDbEntity
  8
SEIHIN
  6
CONTINUOUS
 62
     3
 48
8.0
100
AcDbLine
 10
289.9593113948906
 20
188.8630450931263
 30
0.0
 11
270.295611394713
 21
188.8629901614409
 31
0.0
  0
ARC
  5
719
330
1A
100
AcDbEntity
  8
SEIHIN
  6
CONTINUOUS
 62
     3
 48
8.0
100
AcDbCircle
 10
270.2956068108031
 20
186.8629901614461
 30
0.0
 40
2.000000999999999
100
AcDbArc
 50
89.99986868065445
 51
163.1958046806544
  0
ARC
  5
71A
330
1A
100
AcDbEntity
  8
SEIHIN
  6
CONTINUOUS
 62
     3
 48
8.0
100
AcDbCircle
 10
268.7093113947172
 20
188.862993797169
 30
0.0
 40
2.999991999999999
100
AcDbArc
 50
89.99986868065445
 51
170.8006626806543
  0
ARC
  5
71B
330
1A
100
AcDbEntity
  8
SEIHIN
  6
CONTINUOUS
 62
     3
 48
8.0
100
AcDbCircle
 10
268.7093113947172
 20
188.862993797169
 30
0.0
 40
2.000008999999999
100
AcDbArc
 50
89.99986868065445
 51
170.8017586806544
  0
ARC
  5
71C
330
1A
100
AcDbEntity
  8
SEIHIN
  6
CONTINUOUS
 62
     3
 48
8.0
100
AcDbCircle
 10
257.8508154251486
 20
190.6215186843573
 30
0.0
 40
10.999911
100
AcDbArc
 50
286.8052306806544
 51
343.1951556806544
  0
ARC
  5
71D
330
1A
100
AcDbEntity
  8
SEIHIN
  6
CONTINUOUS
 62
     3
 48
8.0
100
AcDbCircle
 10
261.6094869022177
 20
178.1767100696189
 30
0.0
 40
2.000062999999999
100
AcDbArc
 50
106.8058466806544
 51
179.9998686806544
  0
ARC
  5
71E
330
1A
100
AcDbEntity
  8
SEIHIN
  6
CONTINUOUS
 62
     3
 48
8.0
100
AcDbCircle
 10
257.8508154251486
 20
190.6215186843573
 30
0.0
 40
8.999945
100
AcDbArc
 50
279.1990746806544
 51
350.8012916806544
  0
ARC
  5
71F
330
1A
100
AcDbEntity
  8
SEIHIN
  6
CONTINUOUS
 62
     3
 48
8.0
100
AcDbCircle
 10
257.8508154251486
 20
190.6215186843573
 30
0.0
 40
7.999985999999999
100
AcDbArc
 50
279.1988006806543
 51
350.8009366806545
  0
ARC
  5
720
330
1A
100
AcDbEntity
  8
SEIHIN
  6
CONTINUOUS
 62
     3
 48
8.0
100
AcDbCircle
 10
259.6094905379511
 20
179.7630146535246
 30
0.0
 40
2.999991999999999
100
AcDbArc
 50
99.19907468065444
 51
179.9998686806544
  0
ARC
  5
721
330
1A
100
AcDbEntity
  8
SEIHIN
  6
CONTINUOUS
 62
     3
 48
8.0
100
AcDbCircle
 10
259.6094905379511
 20
179.7630146535246
 30
0.0
 40
2.000016999999999
100
AcDbArc
 50
99.20080668065443
 51
179.9998686806544
  0
LINE
  5
722
330
1A
100
AcDbEntity
  8
SEIHIN
  6
CONTINUOUS
 62
     3
 48
8.0
100
AcDbLine
 10
289.9593182707555
 20
191.8630450931184
 30
0.0
 11
311.2093182706997
 21
191.8629963890757
 31
0.0
  0
LINE
  5
723
330
1A
100
AcDbEntity
  8
SEIHIN
  6
CONTINUOUS
 62
     3
 48
8.0
100
AcDbLine
 10
289.9593159788005
 20
190.863045093121
 30
0.0
 11
311.2093159787447
 21
190.8629963890783
 31
0.0
  0
LINE
  5
724
330
1A
100
AcDbEntity
  8
SEIHIN
  6
CONTINUOUS
 62
     3
 48
8.0
100
AcDbLine
 10
289.9593113948906
 20
188.8630450931263
 30
0.0
 11
309.623011394839
 21
188.8630000248117
 31
0.0
  0
ARC
  5
725
330
1A
100
AcDbEntity
  8
SEIHIN
  6
CONTINUOUS
 62
     3
 48
8.0
100
AcDbCircle
 10
311.2093113948348
 20
188.8629963890836
 30
0.0
 40
2.000016999999999
100
AcDbArc
 50
9.200806680654418
 51
89.99986868065445
  0
ARC
  5
726
330
1A
100
AcDbEntity
  8
SEIHIN
  6
CONTINUOUS
 62
     3
 48
8.0
100
AcDbCircle
 10
311.2093113948348
 20
188.8629963890836
 30
0.0
 40
2.999991999999999
100
AcDbArc
 50
9.199074680654439
 51
89.99986868065445
  0
ARC
  5
727
330
1A
100
AcDbEntity
  8
SEIHIN
  6
CONTINUOUS
 62
     3
 48
8.0
100
AcDbCircle
 10
309.6230068109291
 20
186.863000024817
 30
0.0
 40
2.000016
100
AcDbArc
 50
16.8066746806544
 51
89.99986868065445
  0
LINE
  5
728
330
1A
100
AcDbEntity
  8
SEIHIN
  6
CONTINUOUS
 62
     3
 48
8.0
100
AcDbLine
 10
320.3092869022927
 20
178.1766755323216
 30
0.0
 11
320.3093532935237
 21
163.5128755321309
 31
0.0
  0
LINE
  5
729
330
1A
100
AcDbEntity
  8
SEIHIN
  6
CONTINUOUS
 62
     3
 48
8.0
100
AcDbLine
 10
323.309290538013
 20
179.7629686564526
 30
0.0
 11
323.3093133969976
 21
146.1056686563119
 31
0.0
  0
LINE
  5
72A
330
1A
100
AcDbEntity
  8
SEIHIN
  6
CONTINUOUS
 62
     3
 48
8.0
100
AcDbLine
 10
322.3092905380156
 20
179.7629709484075
 30
0.0
 11
322.3093158008026
 21
147.154470948264
 31
0.0
  0
LINE
  5
72B
330
1A
100
AcDbEntity
  8
SEIHIN
  6
CONTINUOUS
 62
     3
 48
8.0
100
AcDbLine
 10
319.3092326659318
 20
154.5128778243386
 30
0.0
 11
319.3092510015714
 21
162.5128778243177
 31
0.0
  0
LINE
  5
72C
330
1A
100
AcDbEntity
  8
SEIHIN
  6
CONTINUOUS
 62
     3
 48
8.0
100
AcDbLine
 10
330.8093105487655
 20
144.862951466653
 30
0.0
 11
330.8093036729006
 21
141.8629514666609
 31
0.0
  0
LINE
  5
72D
330
1A
100
AcDbEntity
  8
SEIHIN
  6
CONTINUOUS
 62
     3
 48
8.0
100
AcDbLine
 10
329.8093161629117
 20
147.3124537586014
 30
0.0
 11
329.8093036729032
 21
141.8629537586158
 31
0.0
  0
ARC
  5
72E
330
1A
100
AcDbEntity
  8
SEIHIN
  6
CONTINUOUS
 62
     3
 48
8.0
100
AcDbCircle
 10
324.8093036729163
 20
141.8629652183905
 30
0.0
 40
3.300016999999999
100
AcDbArc
 50
284.3211926806544
 51
107.5832106806543
  0
LINE
  5
72F
330
1A
100
AcDbEntity
  8
SEIHIN
  6
CONTINUOUS
 62
     3
 48
8.0
100
AcDbLine
 10
320.3093036729281
 20
141.8629755321878
 30
0.0
 11
320.3093303739742
 21
153.5128755321571
 31
0.0
  0
LINE
  5
730
330
1A
100
AcDbEntity
  8
SEIHIN
  6
CONTINUOUS
 62
     3
 48
8.0
100
AcDbLine
 10
319.7486857906387
 20
134.0607768170782
 30
0.0
 11
326.5486905115897
 21
136.1205612317791
 31
0.0
  0
LINE
  5
731
330
1A
100
AcDbEntity
  8
SEIHIN
  6
CONTINUOUS
 62
     3
 48
8.0
100
AcDbLine
 10
319.4587879842695
 20
135.0178774815135
 30
0.0
 11
326.2587927049914
 21
137.0775618962145
 31
0.0
  0
LINE
  5
732
330
1A
100
AcDbEntity
  8
SEIHIN
  6
CONTINUOUS
 62
     3
 48
8.0
100
AcDbLine
 10
319.346892670401
 20
137.0624777379779
 30
0.0
 11
325.6255963443884
 21
138.6654633474761
 31
0.0
  0
LINE
  5
733
330
1A
100
AcDbEntity
  8
SEIHIN
  6
CONTINUOUS
 62
     3
 48
8.0
100
AcDbLine
 10
324.3092934228367
 20
137.3907663643798
 30
0.0
 11
324.3092933939581
 21
137.3781663643797
 31
0.0
  0
ARC
  5
734
330
1A
100
AcDbEntity
  8
SEIHIN
  6
CONTINUOUS
 62
     3
 48
8.0
100
AcDbCircle
 10
324.8093036729163
 20
141.8629652183905
 30
0.0
 40
4.500017999999999
100
AcDbArc
 50
179.9998686806544
 51
236.2511816806544
  0
ARC
  5
735
330
1A
100
AcDbEntity
  8
SEIHIN
  6
CONTINUOUS
 62
     3
 48
8.0
100
AcDbCircle
 10
324.8093036729163
 20
141.8629652183905
 30
0.0
 40
5.000007
100
AcDbArc
 50
286.8517866806543
 51
359.9998686806543
  0
ARC
  5
736
330
1A
100
AcDbEntity
  8
SEIHIN
  6
CONTINUOUS
 62
     3
 48
8.0
100
AcDbCircle
 10
324.8093036729163
 20
141.8629652183905
 30
0.0
 40
6.000027999999999
100
AcDbArc
 50
286.8516766806544
 51
359.9998686806543
  0
ARC
  5
737
330
1A
100
AcDbEntity
  8
SEIHIN
  6
CONTINUOUS
 62
     3
 48
8.0
100
AcDbCircle
 10
327.3093105487747
 20
144.8629594884953
 30
0.0
 40
3.499969
100
AcDbArc
 50
359.9998686806543
 51
177.6123566806544
  0
ARC
  5
738
330
1A
100
AcDbEntity
  8
SEIHIN
  6
CONTINUOUS
 62
     3
 48
8.0
100
AcDbCircle
 10
323.3093158007999
 20
147.1544686563091
 30
0.0
 40
1.000013999999999
100
AcDbArc
 50
179.9998686806544
 51
285.8303626806543
  0
LINE
  5
739
330
1A
100
AcDbEntity
  8
SEIHIN
  6
CONTINUOUS
 62
     3
 48
8.0
100
AcDbLine
 10
324.796417424646
 20
147.862965247941
 30
0.0
 11
324.7964161322126
 21
147.2990652479424
 31
0.0
  0
LINE
  5
73A
330
1A
100
AcDbEntity
  8
SEIHIN
  6
CONTINUOUS
 62
     3
 48
8.0
100
AcDbLine
 10
324.809317424646
 20
147.8629652183748
 30
0.0
 11
323.30931742465
 21
147.8629686563072
 31
0.0
  0
ARC
  5
73B
330
1A
100
AcDbEntity
  8
SEIHIN
  6
CONTINUOUS
 62
     3
 48
8.0
100
AcDbCircle
 10
324.8093036729163
 20
141.8629652183905
 30
0.0
 40
4.499986999999999
100
AcDbArc
 50
98.77749168065443
 51
105.8256366806543
  0
ARC
  5
73C
330
1A
100
AcDbEntity
  8
SEIHIN
  6
CONTINUOUS
 62
     3
 48
8.0
100
AcDbCircle
 10
320.3092326659291
 20
154.5128755323837
 30
0.0
 40
1.0
100
AcDbArc
 50
179.9998686806544
 51
270.0055986806543
  0
ARC
  5
73D
330
1A
100
AcDbEntity
  8
SEIHIN
  6
CONTINUOUS
 62
     3
 48
8.0
100
AcDbCircle
 10
320.3092510015687
 20
162.5128755323627
 30
0.0
 40
1.0
100
AcDbArc
 50
89.99986868065445
 51
179.9998686806544
  0
ARC
  5
73E
330
1A
100
AcDbEntity
  8
SEIHIN
  6
CONTINUOUS
 62
     3
 48
8.0
100
AcDbCircle
 10
320.3092905380208
 20
179.7629755323174
 30
0.0
 40
3.000041999999999
100
AcDbArc
 50
359.9998686806543
 51
80.80096868065442
  0
ARC
  5
73F
330
1A
100
AcDbEntity
  8
SEIHIN
  6
CONTINUOUS
 62
     3
 48
8.0
100
AcDbCircle
 10
320.3092905380208
 20
179.7629755323174
 30
0.0
 40
2.000016999999999
100
AcDbArc
 50
359.9998686806543
 51
80.79893068065445
  0
ARC
  5
740
330
1A
100
AcDbEntity
  8
SEIHIN
  6
CONTINUOUS
 62
     3
 48
8.0
100
AcDbCircle
 10
318.309286902298
 20
178.1766801162315
 30
0.0
 40
2.000016
100
AcDbArc
 50
359.9998686806543
 51
73.19306268065448
  0
DIMENSION
  5
A7D
330
1A
100
AcDbEntity
  8
SUNPOU
100
AcDbDimension
  2
*D12
 10
147.5623954271732
 20
208.5181106118714
 30
0.0
 11
142.4785707012663
 21
212.0559088451204
 31
0.0
 70
   160
  3
STANDARD
100
AcDbAlignedDimension
 13
129.5623954271731
 23
190.3135657168179
 33
0.0
 14
147.5623954271732
 24
190.863045092859
 34
0.0
100
AcDbRotatedDimension
1001
ACAD
1000
DSTYLE
1002
{
1070
   287
1070
     5
1070
   287
1070
     5
1070
   287
1070
     5
1070
    41
1040
3.0
1070
    42
1040
3.0
1070
    43
1040
7.0
1070
    44
1040
1.5
1070
    73
1070
     0
1070
    74
1070
     0
1070
    77
1070
     3
1070
   140
1040
3.0
1070
   141
1040
150.0
1070
   147
1040
1.0
1070
   172
1070
     1
1070
   173
1070
     1
1070
   176
1070
   256
1070
   177
1070
   256
1070
   178
1070
   256
1070
   271
1070
     0
1070
   272
1070
     0
1070
   279
1070
     2
1070
   341
1005
B2
1070
     6
1000
OPEN
1070
     7
1000
OPEN
1070
   371
1070
    -1
1070
   372
1070
    -1
1002
}
  0
VIEWPORT
  5
22
330
17
100
AcDbEntity
 67
     1
  8
0
100
AcDbViewport
 10
313.6808219178082
 20
148.5
 30
0.0
 40
627.3616438356165
 41
297.0
 68
     2
 69
     1
1001
ACAD
1000
MVIEW
1002
{
1070
    16
1010
0.0
1020
0.0
1030
0.0
1010
0.0
1020
0.0
1030
1.0
1040
0.0
1040
297.0
1040
313.6808219178082
1040
148.5
1040
50.0
1040
0.0
1040
0.0
1070
     0
1070
   100
1070
     1
1070
     0
1070
     0
1070
     0
1070
     0
1070
     0
1040
0.0
1040
0.0
1040
0.0
1040
1.0
1040
1.0
1040
10.0
1040
10.0
1070
     0
1002
{
1002
}
1002
}
  0
VIEWPORT
  5
64
330
17
100
AcDbEntity
 67
     1
  8
VIEWPORT
100
AcDbViewport
 10
210.0
 20
148.5
 30
0.0
 40
420.0
 41
297.0
 68
     1
 69
     2
1001
ACAD
1000
MVIEW
1002
{
1070
    16
1010
0.0
1020
0.0
1030
0.0
1010
0.0
1020
0.0
1030
1.0
1040
0.0
1040
302.9399999999998
1040
210.0
1040
148.5
1040
50.0
1040
0.0
1040
0.0
1070
     0
1070
   100
1070
     1
1070
     0
1070
     0
1070
     0
1070
     0
1070
     0
1040
0.0
1040
0.0
1040
0.0
1040
5.0
1040
5.0
1040
0.0
1040
0.0
1070
     0
1002
{
1002
}
1002
}
  0
ENDSEC
  0
SECTION
  2
OBJECTS
  0
DICTIONARY
  5
C
330
0
100
AcDbDictionary
  3
ACAD_GROUP
350
D
  3
ACAD_LAYOUT
350
847
  3
ACAD_MLINESTYLE
350
E
  3
ACAD_PLOTSETTINGS
350
848
1001
ACAD
1000
TREAT_AS_HARD
1070
     0
  0
DICTIONARY
  5
876
330
1A
100
AcDbDictionary
  3
ACAD_LAYOUTSELFREF
350
B7D
1001
ACAD
1000
TREAT_AS_HARD
1070
     1
  0
DICTIONARY
  5
874
330
17
100
AcDbDictionary
  3
ACAD_LAYOUTSELFREF
350
B7C
1001
ACAD
1000
TREAT_AS_HARD
1070
     1
  0
DICTIONARY
  5
D
102
{ACAD_REACTORS
330
C
102
}
330
C
100
AcDbDictionary
1001
ACAD
1000
TREAT_AS_HARD
1070
     0
  0
DICTIONARY
  5
847
102
{ACAD_REACTORS
330
C
102
}
330
C
100
AcDbDictionary
1001
ACAD
1000
TREAT_AS_HARD
1070
     0
  0
DICTIONARY
  5
E
102
{ACAD_REACTORS
330
C
102
}
330
C
100
AcDbDictionary
  3
STANDARD
350
13
1001
ACAD
1000
TREAT_AS_HARD
1070
     0
  0
DICTIONARY
  5
848
102
{ACAD_REACTORS
330
C
102
}
330
C
100
AcDbDictionary
1001
ACAD
1000
TREAT_AS_HARD
1070
     0
  0
XRECORD
  5
B7D
102
{ACAD_REACTORS
330
876
102
}
330
876
100
AcDbXrecord
340
1A
  0
XRECORD
  5
B7C
102
{ACAD_REACTORS
330
874
102
}
330
874
100
AcDbXrecord
340
17
  0
MLINESTYLE
  5
13
102
{ACAD_REACTORS
330
E
102
}
330
E
100
AcDbMlineStyle
  2
STANDARD
 70
     0
  3

 62
     0
 51
90.0
 52
90.0
 71
     2
 49
0.5
 62
   256
  6
BYLAYER
 49
-0.5
 62
   256
  6
BYLAYER
  0
ENDSEC
  0
EOF
