  0
SECTION
  2
HEADER
  9
$ACADVER
  1
AC1015
  9
$ACADMAINTVER
 70
     6
  9
$DWGCODEPAGE
  3
ANSI_932
  9
$INSBASE
 10
0.0
 20
0.0
 30
0.0
  9
$EXTMIN
 10
10.05047808566086
 20
13.78258628282265
 30
0.0
  9
$EXTMAX
 10
807.6504780856607
 20
565.3825862828227
 30
0.0
  9
$LIMMIN
 10
0.0
 20
0.0
  9
$LIMMAX
 10
840.0
 20
594.0
  9
$ORTHOMODE
 70
     0
  9
$REGENMODE
 70
     1
  9
$FILLMODE
 70
     1
  9
$QTEXTMODE
 70
     0
  9
$MIRRTEXT
 70
     1
  9
$LTSCALE
 40
2.0
  9
$ATTMODE
 70
     1
  9
$TEXTSIZE
 40
5.0
  9
$TRACEWID
 40
1.0
  9
$TEXTSTYLE
  7
STANDARD
  9
$CLAYER
  8
0
  9
$CELTYPE
  6
BYLAYER
  9
$CECOLOR
 62
   256
  9
$CELTSCALE
 40
1.0
  9
$DISPSILH
 70
     0
  9
$DIMSCALE
 40
1.0
  9
$DIMASZ
 40
7.0
  9
$DIMEXO
 40
6.0
  9
$DIMDLI
 40
14.0
  9
$DIMRND
 40
0.0
  9
$DIMDLE
 40
0.0
  9
$DIMEXE
 40
3.0
  9
$DIMTP
 40
0.0
  9
$DIMTM
 40
0.0
  9
$DIMTXT
 40
6.0
  9
$DIMCEN
 40
150.0
  9
$DIMTSZ
 40
0.0
  9
$DIMTOL
 70
     0
  9
$DIMLIM
 70
     0
  9
$DIMTIH
 70
     0
  9
$DIMTOH
 70
     0
  9
$DIMSE1
 70
     0
  9
$DIMSE2
 70
     0
  9
$DIMTAD
 70
     3
  9
$DIMZIN
 70
     0
  9
$DIMBLK
  1

  9
$DIMASO
 70
     1
  9
$DIMSHO
 70
     1
  9
$DIMPOST
  1

  9
$DIMAPOST
  1

  9
$DIMALT
 70
     0
  9
$DIMALTD
 70
     2
  9
$DIMALTF
 40
25.4
  9
$DIMLFAC
 40
1.0
  9
$DIMTOFL
 70
     1
  9
$DIMTVP
 40
0.0
  9
$DIMTIX
 70
     0
  9
$DIMSOXD
 70
     0
  9
$DIMSAH
 70
     1
  9
$DIMBLK1
  1
OPEN
  9
$DIMBLK2
  1
OPEN
  9
$DIMSTYLE
  2
STANDARD
  9
$DIMCLRD
 70
   256
  9
$DIMCLRE
 70
   256
  9
$DIMCLRT
 70
   256
  9
$DIMTFAC
 40
1.0
  9
$DIMGAP
 40
2.0
  9
$DIMJUST
 70
     0
  9
$DIMSD1
 70
     0
  9
$DIMSD2
 70
     0
  9
$DIMTOLJ
 70
     1
  9
$DIMTZIN
 70
     0
  9
$DIMALTZ
 70
     0
  9
$DIMALTTZ
 70
     0
  9
$DIMUPT
 70
     0
  9
$DIMDEC
 70
     0
  9
$DIMTDEC
 70
     0
  9
$DIMALTU
 70
     2
  9
$DIMALTTD
 70
     2
  9
$DIMTXSTY
  7
STANDARD
  9
$DIMAUNIT
 70
     0
  9
$DIMADEC
 70
     0
  9
$DIMALTRND
 40
0.0
  9
$DIMAZIN
 70
     0
  9
$DIMDSEP
 70
    46
  9
$DIMATFIT
 70
     3
  9
$DIMFRAC
 70
     0
  9
$DIMLDRBLK
  1
OPEN
  9
$DIMLUNIT
 70
     2
  9
$DIMLWD
 70
    -1
  9
$DIMLWE
 70
    -1
  9
$DIMTMOVE
 70
     0
  9
$LUNITS
 70
     2
  9
$LUPREC
 70
     4
  9
$SKETCHINC
 40
1.0
  9
$FILLETRAD
 40
0.5
  9
$AUNITS
 70
     0
  9
$AUPREC
 70
     0
  9
$MENU
  1
.
  9
$ELEVATION
 40
0.0
  9
$PELEVATION
 40
0.0
  9
$THICKNESS
 40
0.0
  9
$LIMCHECK
 70
     0
  9
$CHAMFERA
 40
20.0
  9
$CHAMFERB
 40
20.0
  9
$CHAMFERC
 40
40.0
  9
$CHAMFERD
 40
0.0
  9
$SKPOLY
 70
     0
  9
$TDCREATE
 40
2454866.469916053
  9
$TDUCREATE
 40
2454866.094916053
  9
$TDUPDATE
 40
2456216.593142442
  9
$TDUUPDATE
 40
2456216.218142442
  9
$TDINDWG
 40
0.0427379051
  9
$TDUSRTIMER
 40
0.0427379051
  9
$USRTIMER
 70
     1
  9
$ANGBASE
 50
0.0
  9
$ANGDIR
 70
     0
  9
$PDMODE
 70
     0
  9
$PDSIZE
 40
0.0
  9
$PLINEWID
 40
0.0
  9
$SPLFRAME
 70
     0
  9
$SPLINETYPE
 70
     6
  9
$SPLINESEGS
 70
     8
  9
$HANDSEED
  5
768B
  9
$SURFTAB1
 70
     6
  9
$SURFTAB2
 70
     6
  9
$SURFTYPE
 70
     6
  9
$SURFU
 70
     6
  9
$SURFV
 70
     6
  9
$UCSBASE
  2

  9
$UCSNAME
  2

  9
$UCSORG
 10
0.0
 20
0.0
 30
0.0
  9
$UCSXDIR
 10
1.0
 20
0.0
 30
0.0
  9
$UCSYDIR
 10
0.0
 20
1.0
 30
0.0
  9
$UCSORTHOREF
  2

  9
$UCSORTHOVIEW
 70
     0
  9
$UCSORGTOP
 10
0.0
 20
0.0
 30
0.0
  9
$UCSORGBOTTOM
 10
0.0
 20
0.0
 30
0.0
  9
$UCSORGLEFT
 10
0.0
 20
0.0
 30
0.0
  9
$UCSORGRIGHT
 10
0.0
 20
0.0
 30
0.0
  9
$UCSORGFRONT
 10
0.0
 20
0.0
 30
0.0
  9
$UCSORGBACK
 10
0.0
 20
0.0
 30
0.0
  9
$PUCSBASE
  2

  9
$PUCSNAME
  2

  9
$PUCSORG
 10
0.0
 20
0.0
 30
0.0
  9
$PUCSXDIR
 10
1.0
 20
0.0
 30
0.0
  9
$PUCSYDIR
 10
0.0
 20
1.0
 30
0.0
  9
$PUCSORTHOREF
  2

  9
$PUCSORTHOVIEW
 70
     0
  9
$PUCSORGTOP
 10
0.0
 20
0.0
 30
0.0
  9
$PUCSORGBOTTOM
 10
0.0
 20
0.0
 30
0.0
  9
$PUCSORGLEFT
 10
0.0
 20
0.0
 30
0.0
  9
$PUCSORGRIGHT
 10
0.0
 20
0.0
 30
0.0
  9
$PUCSORGFRONT
 10
0.0
 20
0.0
 30
0.0
  9
$PUCSORGBACK
 10
0.0
 20
0.0
 30
0.0
  9
$USERI1
 70
     0
  9
$USERI2
 70
     0
  9
$USERI3
 70
     0
  9
$USERI4
 70
     0
  9
$USERI5
 70
     0
  9
$USERR1
 40
0.0
  9
$USERR2
 40
0.0
  9
$USERR3
 40
0.0
  9
$USERR4
 40
0.0
  9
$USERR5
 40
0.0
  9
$WORLDVIEW
 70
     1
  9
$SHADEDGE
 70
     3
  9
$SHADEDIF
 70
    70
  9
$TILEMODE
 70
     1
  9
$MAXACTVP
 70
    16
  9
$PINSBASE
 10
0.0
 20
0.0
 30
0.0
  9
$PLIMCHECK
 70
     0
  9
$PEXTMIN
 10
0.0
 20
0.0
 30
0.0
  9
$PEXTMAX
 10
420.0
 20
297.0
 30
0.0
  9
$PLIMMIN
 10
0.0
 20
0.0
  9
$PLIMMAX
 10
420.0
 20
297.0
  9
$UNITMODE
 70
     0
  9
$VISRETAIN
 70
     0
  9
$PLINEGEN
 70
     0
  9
$PSLTSCALE
 70
     1
  9
$TREEDEPTH
 70
  3020
  9
$CMLSTYLE
  2
STANDARD
  9
$CMLJUST
 70
     0
  9
$CMLSCALE
 40
1.0
  9
$PROXYGRAPHICS
 70
     1
  9
$MEASUREMENT
 70
     1
  9
$CELWEIGHT
370
    -1
  9
$ENDCAPS
280
     0
  9
$JOINSTYLE
280
     0
  9
$LWDISPLAY
290
     0
  9
$INSUNITS
 70
     0
  9
$HYPERLINKBASE
  1

  9
$STYLESHEET
  1
print.ctb
  9
$XEDIT
290
     1
  9
$CEPSNTYPE
380
     0
  9
$PSTYLEMODE
290
     1
  9
$FINGERPRINTGUID
  2
{8D6CB018-5425-46D7-BA3D-129D74F567FA}
  9
$VERSIONGUID
  2
{6796EEFF-50FF-41CC-9DC4-740749FD9200}
  9
$EXTNAMES
290
     1
  9
$PSVPSCALE
 40
0.0
  9
$OLESTARTUP
290
     0
  0
ENDSEC
  0
SECTION
  2
CLASSES
  0
CLASS
  1
ACDBDICTIONARYWDFLT
  2
AcDbDictionaryWithDefault
  3
AutoCAD 2000
 90
        0
280
     0
281
     0
  0
CLASS
  1
ACDBPLACEHOLDER
  2
AcDbPlaceHolder
  3
AutoCAD 2000
 90
        0
280
     0
281
     0
  0
CLASS
  1
LAYOUT
  2
AcDbLayout
  3
AutoCAD 2000
 90
        0
280
     0
281
     0
  0
CLASS
  1
LONG_TRANSACTION
  2
AcDbLongTransaction
  3
AutoCAD 2000
 90
    32768
280
     0
281
     0
  0
CLASS
  1
LWPOLYLINE
  2
AcDbPolyline
  3
AutoCAD 2000
 90
    32768
280
     0
281
     1
  0
CLASS
  1
HATCH
  2
AcDbHatch
  3
AutoCAD 2000
 90
    32768
280
     0
281
     1
  0
CLASS
  1
XRECORD
  2
AcDbXrecord
  3
AutoCAD 2000
 90
    32768
280
     0
281
     0
  0
CLASS
  1
LONG_TRANSACTION
  2
AcDbLongTransaction
  3
AutoCAD 2000
 90
    32768
280
     0
281
     0
  0
CLASS
  1
LWPOLYLINE
  2
AcDbPolyline
  3
AutoCAD 2000
 90
    32768
280
     0
281
     1
  0
CLASS
  1
HATCH
  2
AcDbHatch
  3
AutoCAD 2000
 90
    32768
280
     0
281
     1
  0
CLASS
  1
XRECORD
  2
AcDbXrecord
  3
AutoCAD 2000
 90
    32768
280
     0
281
     0
  0
CLASS
  1
LONG_TRANSACTION
  2
AcDbLongTransaction
  3
AutoCAD 2000
 90
    32768
280
     0
281
     0
  0
CLASS
  1
LWPOLYLINE
  2
AcDbPolyline
  3
AutoCAD 2000
 90
    32768
280
     0
281
     1
  0
CLASS
  1
HATCH
  2
AcDbHatch
  3
AutoCAD 2000
 90
    32768
280
     0
281
     1
  0
CLASS
  1
XRECORD
  2
AcDbXrecord
  3
AutoCAD 2000
 90
    32768
280
     0
281
     0
  0
CLASS
  1
LONG_TRANSACTION
  2
AcDbLongTransaction
  3
AutoCAD 2000
 90
    32768
280
     0
281
     0
  0
CLASS
  1
LWPOLYLINE
  2
AcDbPolyline
  3
AutoCAD 2000
 90
    32768
280
     0
281
     1
  0
CLASS
  1
HATCH
  2
AcDbHatch
  3
AutoCAD 2000
 90
    32768
280
     0
281
     1
  0
CLASS
  1
XRECORD
  2
AcDbXrecord
  3
AutoCAD 2000
 90
    32768
280
     0
281
     0
  0
CLASS
  1
DICTIONARYVAR
  2
AcDbDictionaryVar
  3
AutoCAD 2000
 90
        0
280
     0
281
     0
  0
CLASS
  1
LONG_TRANSACTION
  2
AcDbLongTransaction
  3
AutoCAD 2000
 90
    32768
280
     0
281
     0
  0
CLASS
  1
LWPOLYLINE
  2
AcDbPolyline
  3
AutoCAD 2000
 90
    32768
280
     0
281
     1
  0
CLASS
  1
HATCH
  2
AcDbHatch
  3
AutoCAD 2000
 90
    32768
280
     0
281
     1
  0
CLASS
  1
XRECORD
  2
AcDbXrecord
  3
AutoCAD 2000
 90
    32768
280
     0
281
     0
  0
CLASS
  1
LONG_TRANSACTION
  2
AcDbLongTransaction
  3
AutoCAD 2000
 90
    32768
280
     0
281
     0
  0
CLASS
  1
LWPOLYLINE
  2
AcDbPolyline
  3
AutoCAD 2000
 90
    32768
280
     0
281
     1
  0
CLASS
  1
HATCH
  2
AcDbHatch
  3
AutoCAD 2000
 90
    32768
280
     0
281
     1
  0
CLASS
  1
XRECORD
  2
AcDbXrecord
  3
AutoCAD 2000
 90
    32768
280
     0
281
     0
  0
CLASS
  1
LONG_TRANSACTION
  2
AcDbLongTransaction
  3
AutoCAD 2000
 90
    32768
280
     0
281
     0
  0
CLASS
  1
LWPOLYLINE
  2
AcDbPolyline
  3
AutoCAD 2000
 90
    32768
280
     0
281
     1
  0
CLASS
  1
HATCH
  2
AcDbHatch
  3
AutoCAD 2000
 90
    32768
280
     0
281
     1
  0
CLASS
  1
XRECORD
  2
AcDbXrecord
  3
AutoCAD 2000
 90
    32768
280
     0
281
     0
  0
CLASS
  1
LONG_TRANSACTION
  2
AcDbLongTransaction
  3
AutoCAD 2000
 90
    32768
280
     0
281
     0
  0
CLASS
  1
LWPOLYLINE
  2
AcDbPolyline
  3
AutoCAD 2000
 90
    32768
280
     0
281
     1
  0
CLASS
  1
HATCH
  2
AcDbHatch
  3
AutoCAD 2000
 90
    32768
280
     0
281
     1
  0
CLASS
  1
XRECORD
  2
AcDbXrecord
  3
AutoCAD 2000
 90
    32768
280
     0
281
     0
  0
CLASS
  1
LONG_TRANSACTION
  2
AcDbLongTransaction
  3
AutoCAD 2000
 90
    32768
280
     0
281
     0
  0
CLASS
  1
LWPOLYLINE
  2
AcDbPolyline
  3
AutoCAD 2000
 90
    32768
280
     0
281
     1
  0
CLASS
  1
HATCH
  2
AcDbHatch
  3
AutoCAD 2000
 90
    32768
280
     0
281
     1
  0
CLASS
  1
XRECORD
  2
AcDbXrecord
  3
AutoCAD 2000
 90
    32768
280
     0
281
     0
  0
CLASS
  1
LONG_TRANSACTION
  2
AcDbLongTransaction
  3
AutoCAD 2000
 90
    32768
280
     0
281
     0
  0
CLASS
  1
LWPOLYLINE
  2
AcDbPolyline
  3
AutoCAD 2000
 90
    32768
280
     0
281
     1
  0
CLASS
  1
HATCH
  2
AcDbHatch
  3
AutoCAD 2000
 90
    32768
280
     0
281
     1
  0
CLASS
  1
XRECORD
  2
AcDbXrecord
  3
AutoCAD 2000
 90
    32768
280
     0
281
     0
  0
CLASS
  1
LONG_TRANSACTION
  2
AcDbLongTransaction
  3
AutoCAD 2000
 90
    32768
280
     0
281
     0
  0
CLASS
  1
LWPOLYLINE
  2
AcDbPolyline
  3
AutoCAD 2000
 90
    32768
280
     0
281
     1
  0
CLASS
  1
HATCH
  2
AcDbHatch
  3
AutoCAD 2000
 90
    32768
280
     0
281
     1
  0
CLASS
  1
XRECORD
  2
AcDbXrecord
  3
AutoCAD 2000
 90
    32768
280
     0
281
     0
  0
CLASS
  1
LONG_TRANSACTION
  2
AcDbLongTransaction
  3
AutoCAD 2000
 90
    32768
280
     0
281
     0
  0
CLASS
  1
LWPOLYLINE
  2
AcDbPolyline
  3
AutoCAD 2000
 90
    32768
280
     0
281
     1
  0
CLASS
  1
HATCH
  2
AcDbHatch
  3
AutoCAD 2000
 90
    32768
280
     0
281
     1
  0
CLASS
  1
XRECORD
  2
AcDbXrecord
  3
AutoCAD 2000
 90
    32768
280
     0
281
     0
  0
CLASS
  1
LONG_TRANSACTION
  2
AcDbLongTransaction
  3
AutoCAD 2000
 90
    32768
280
     0
281
     0
  0
CLASS
  1
LWPOLYLINE
  2
AcDbPolyline
  3
AutoCAD 2000
 90
    32768
280
     0
281
     1
  0
CLASS
  1
HATCH
  2
AcDbHatch
  3
AutoCAD 2000
 90
    32768
280
     0
281
     1
  0
CLASS
  1
XRECORD
  2
AcDbXrecord
  3
AutoCAD 2000
 90
    32768
280
     0
281
     0
  0
CLASS
  1
LONG_TRANSACTION
  2
AcDbLongTransaction
  3
AutoCAD 2000
 90
    32768
280
     0
281
     0
  0
CLASS
  1
LWPOLYLINE
  2
AcDbPolyline
  3
AutoCAD 2000
 90
    32768
280
     0
281
     1
  0
CLASS
  1
HATCH
  2
AcDbHatch
  3
AutoCAD 2000
 90
    32768
280
     0
281
     1
  0
CLASS
  1
XRECORD
  2
AcDbXrecord
  3
AutoCAD 2000
 90
    32768
280
     0
281
     0
  0
CLASS
  1
LONG_TRANSACTION
  2
AcDbLongTransaction
  3
AutoCAD 2000
 90
    32768
280
     0
281
     0
  0
CLASS
  1
LWPOLYLINE
  2
AcDbPolyline
  3
AutoCAD 2000
 90
    32768
280
     0
281
     1
  0
CLASS
  1
HATCH
  2
AcDbHatch
  3
AutoCAD 2000
 90
    32768
280
     0
281
     1
  0
CLASS
  1
XRECORD
  2
AcDbXrecord
  3
AutoCAD 2000
 90
    32768
280
     0
281
     0
  0
ENDSEC
  0
SECTION
  2
TABLES
  0
TABLE
  2
VPORT
  5
8
330
0
100
AcDbSymbolTable
 70
     2
  0
VPORT
  5
768A
330
8
100
AcDbSymbolTableRecord
100
AcDbViewportTableRecord
  2
*Active
 70
     0
 10
0.0
 20
0.0
 11
1.0
 21
1.0
 12
426.4892743403094
 22
297.0
 13
0.0
 23
0.0
 14
5.0
 24
5.0
 15
0.0
 25
0.0
 16
0.0
 26
0.0
 36
1.0
 17
0.0
 27
0.0
 37
0.0
 40
598.540127388535
 41
1.557397959183673
 42
50.0
 43
0.0
 44
0.0
 50
0.0
 51
0.0
 71
     0
 72
   100
 73
     1
 74
     0
 75
     0
 76
     0
 77
     0
 78
     0
281
     0
 65
     1
110
0.0
120
0.0
130
0.0
111
1.0
121
0.0
131
0.0
112
0.0
122
1.0
132
0.0
 79
     0
146
0.0
  0
ENDTAB
  0
TABLE
  2
LTYPE
  5
5
330
0
100
AcDbSymbolTable
 70
     4
  0
LTYPE
  5
14
330
5
100
AcDbSymbolTableRecord
100
AcDbLinetypeTableRecord
  2
BYBLOCK
 70
     0
  3

 72
    65
 73
     0
 40
0.0
  0
LTYPE
  5
15
330
5
100
AcDbSymbolTableRecord
100
AcDbLinetypeTableRecord
  2
BYLAYER
 70
     0
  3

 72
    65
 73
     0
 40
0.0
  0
LTYPE
  5
16
330
5
100
AcDbSymbolTableRecord
100
AcDbLinetypeTableRecord
  2
CONTINUOUS
 70
     0
  3
Solid line
 72
    65
 73
     0
 40
0.0
  0
LTYPE
  5
135
330
5
100
AcDbSymbolTableRecord
100
AcDbLinetypeTableRecord
  2
CENTER
 70
     0
  3
____ _ ____ _ ____ _ ____ _ ____ _ ____ _ ____ 
 72
    65
 73
     4
 40
2.0
 49
1.25
 74
     0
 49
-0.25
 74
     0
 49
0.25
 74
     0
 49
-0.25
 74
     0
  0
LTYPE
  5
1527
330
5
100
AcDbSymbolTableRecord
100
AcDbLinetypeTableRecord
  2
SLDSECTION0
 70
     0
  3

 72
    65
 73
     4
 40
10.16
 49
6.349999999999999
 74
     0
 49
-1.27
 74
     0
 49
1.27
 74
     0
 49
-1.27
 74
     0
  0
LTYPE
  5
3D66
330
5
100
AcDbSymbolTableRecord
100
AcDbLinetypeTableRecord
  2
PHANTOM
 70
     0
  3
______  __  __  ______  __  __  ______  __  __ 
 72
    65
 73
     6
 40
2.5
 49
1.25
 74
     0
 49
-0.25
 74
     0
 49
0.25
 74
     0
 49
-0.25
 74
     0
 49
0.25
 74
     0
 49
-0.25
 74
     0
  0
ENDTAB
  0
TABLE
  2
LAYER
  5
2
330
0
100
AcDbSymbolTable
 70
     9
  0
LAYER
  5
F
330
2
100
AcDbSymbolTableRecord
100
AcDbLayerTableRecord
  2
0
 70
     0
 62
     7
  6
CONTINUOUS
370
    -3
390
33F
  0
LAYER
  5
62
330
2
100
AcDbSymbolTableRecord
100
AcDbLayerTableRecord
  2
VIEWPORT
 70
     0
 62
     7
  6
CONTINUOUS
370
    -3
390
33F
  0
LAYER
  5
65
330
2
100
AcDbSymbolTableRecord
100
AcDbLayerTableRecord
  2
ZUWAKU
 70
     0
 62
     7
  6
CONTINUOUS
370
    -3
390
33F
  0
LAYER
  5
153
330
2
100
AcDbSymbolTableRecord
100
AcDbLayerTableRecord
  2
SEIHIN
 70
     0
 62
     3
  6
CONTINUOUS
370
    -3
390
33F
  0
LAYER
  5
154
330
2
100
AcDbSymbolTableRecord
100
AcDbLayerTableRecord
  2
SUNPOU
 70
     0
 62
     4
  6
CONTINUOUS
370
    -3
390
33F
  0
LAYER
  5
155
330
2
100
AcDbSymbolTableRecord
100
AcDbLayerTableRecord
  2
CENTER L
 70
     0
 62
     1
  6
CENTER
370
    -3
390
33F
  0
LAYER
  5
24D
330
2
100
AcDbSymbolTableRecord
100
AcDbLayerTableRecord
  2
DEFPOINTS
 70
     0
 62
     7
  6
CONTINUOUS
290
     0
370
    -3
390
33F
  0
LAYER
  5
59A
330
2
100
AcDbSymbolTableRecord
100
AcDbLayerTableRecord
  2
moji
 70
     0
 62
     2
  6
CONTINUOUS
370
    -3
390
33F
  0
LAYER
  5
1528
330
2
100
AcDbSymbolTableRecord
100
AcDbLayerTableRecord
  2
NOKITOI
 70
     0
 62
     9
  6
SLDSECTION0
370
    -3
390
33F
  0
ENDTAB
  0
TABLE
  2
STYLE
  5
3
330
0
100
AcDbSymbolTable
 70
     2
  0
STYLE
  5
10
330
3
100
AcDbSymbolTableRecord
100
AcDbTextStyleTableRecord
  2
STANDARD
 70
     0
 40
0.0
 41
1.0
 50
0.0
 71
     0
 42
5.0
  3
TXT
  4
bigfont.shx
  0
STYLE
  5
59B
330
3
100
AcDbSymbolTableRecord
100
AcDbTextStyleTableRecord
  2
ｽﾀｲﾙ1
 70
     0
 40
0.0
 41
1.0
 50
0.0
 71
     0
 42
2.5
  3
MS PGothic.ttf
  4

1001
ACAD
1000
MS PGothic
1071
    32818
  0
ENDTAB
  0
TABLE
  2
VIEW
  5
6
330
0
100
AcDbSymbolTable
 70
     0
  0
ENDTAB
  0
TABLE
  2
UCS
  5
7
330
0
100
AcDbSymbolTable
 70
     0
  0
ENDTAB
  0
TABLE
  2
APPID
  5
9
330
0
100
AcDbSymbolTable
 70
     1
  0
APPID
  5
11
330
9
100
AcDbSymbolTableRecord
100
AcDbRegAppTableRecord
  2
ACAD
 70
     0
  0
ENDTAB
  0
TABLE
  2
DIMSTYLE
  5
A
330
0
100
AcDbSymbolTable
 70
     1
100
AcDbDimStyleTable
 71
     0
  0
DIMSTYLE
105
1D
102
{ACAD_REACTORS
330
6D1D
330
6D29
330
6D2B
330
6D3E
330
6D3F
330
6D44
330
6D48
330
6D9D
330
6DF1
330
6E01
330
6E96
330
6EB7
330
6EC0
330
6F22
330
72B1
102
}
330
A
100
AcDbSymbolTableRecord
100
AcDbDimStyleTableRecord
  2
STANDARD
 70
     0
340
10
  0
ENDTAB
  0
TABLE
  2
BLOCK_RECORD
  5
1
330
0
100
AcDbSymbolTable
 70
    17
  0
BLOCK_RECORD
  5
1A
102
{ACAD_XDICTIONARY
360
385
102
}
330
1
100
AcDbSymbolTableRecord
100
AcDbBlockTableRecord
  2
*MODEL_SPACE
340
342
  0
BLOCK_RECORD
  5
17
102
{ACAD_XDICTIONARY
360
383
102
}
330
1
100
AcDbSymbolTableRecord
100
AcDbBlockTableRecord
  2
*PAPER_SPACE
340
343
  0
BLOCK_RECORD
  5
6D
330
1
100
AcDbSymbolTableRecord
100
AcDbBlockTableRecord
  2
_OPEN
340
0
102
{BLKREFS
331
71F2
331
71F3
331
71E0
331
71E1
331
71E9
331
71EA
331
7228
331
7229
331
7231
331
7232
331
71FB
331
71FC
331
720D
331
720E
331
7204
331
7205
331
7216
331
7217
331
721F
331
7220
331
7243
331
7244
331
724C
331
724D
331
723A
331
723B
331
7255
331
7256
331
730E
331
730F
102
}
  0
BLOCK_RECORD
  5
3A4
330
1
100
AcDbSymbolTableRecord
100
AcDbBlockTableRecord
  2
*X1
340
0
102
{BLKREFS
331
6D8
102
}
  0
BLOCK_RECORD
  5
6F2B
330
1
100
AcDbSymbolTableRecord
100
AcDbBlockTableRecord
  2
*D2
340
0
  0
BLOCK_RECORD
  5
6F37
330
1
100
AcDbSymbolTableRecord
100
AcDbBlockTableRecord
  2
*D3
340
0
  0
BLOCK_RECORD
  5
6F43
330
1
100
AcDbSymbolTableRecord
100
AcDbBlockTableRecord
  2
*D4
340
0
  0
BLOCK_RECORD
  5
6F4F
330
1
100
AcDbSymbolTableRecord
100
AcDbBlockTableRecord
  2
*D5
340
0
  0
BLOCK_RECORD
  5
6F5B
330
1
100
AcDbSymbolTableRecord
100
AcDbBlockTableRecord
  2
*D6
340
0
  0
BLOCK_RECORD
  5
6F67
330
1
100
AcDbSymbolTableRecord
100
AcDbBlockTableRecord
  2
*D7
340
0
  0
BLOCK_RECORD
  5
6F73
330
1
100
AcDbSymbolTableRecord
100
AcDbBlockTableRecord
  2
*D8
340
0
  0
BLOCK_RECORD
  5
6F7F
330
1
100
AcDbSymbolTableRecord
100
AcDbBlockTableRecord
  2
*D9
340
0
  0
BLOCK_RECORD
  5
6F8B
330
1
100
AcDbSymbolTableRecord
100
AcDbBlockTableRecord
  2
*D10
340
0
  0
BLOCK_RECORD
  5
6F97
330
1
100
AcDbSymbolTableRecord
100
AcDbBlockTableRecord
  2
*D11
340
0
  0
BLOCK_RECORD
  5
6FA3
330
1
100
AcDbSymbolTableRecord
100
AcDbBlockTableRecord
  2
*D12
340
0
  0
BLOCK_RECORD
  5
6FAF
330
1
100
AcDbSymbolTableRecord
100
AcDbBlockTableRecord
  2
*D13
340
0
  0
BLOCK_RECORD
  5
6FBB
330
1
100
AcDbSymbolTableRecord
100
AcDbBlockTableRecord
  2
*D14
340
0
  0
BLOCK_RECORD
  5
6FC7
330
1
100
AcDbSymbolTableRecord
100
AcDbBlockTableRecord
  2
*D15
340
0
  0
BLOCK_RECORD
  5
72B2
330
1
100
AcDbSymbolTableRecord
100
AcDbBlockTableRecord
  2
*D16
340
0
  0
ENDTAB
  0
ENDSEC
  0
SECTION
  2
BLOCKS
  0
BLOCK
  5
1B
330
1A
100
AcDbEntity
  8
0
100
AcDbBlockBegin
  2
*MODEL_SPACE
 70
     0
 10
0.0
 20
0.0
 30
0.0
  3
*MODEL_SPACE
  1

  0
ENDBLK
  5
1C
330
1A
100
AcDbEntity
  8
0
100
AcDbBlockEnd
  0
BLOCK
  5
18
330
17
100
AcDbEntity
 67
     1
  8
0
100
AcDbBlockBegin
  2
*PAPER_SPACE
 70
     0
 10
0.0
 20
0.0
 30
0.0
  3
*PAPER_SPACE
  1

  0
ENDBLK
  5
19
330
17
100
AcDbEntity
 67
     1
  8
0
100
AcDbBlockEnd
  0
BLOCK
  5
6E
330
6D
100
AcDbEntity
  8
0
100
AcDbBlockBegin
  2
_OPEN
 70
     0
 10
0.0
 20
0.0
 30
0.0
  3
_OPEN
  1

  0
LINE
  5
6F
330
6D
100
AcDbEntity
  8
0
  6
ByBlock
 62
     0
100
AcDbLine
 10
-1.0
 20
0.1666666666666666
 30
0.0
 11
0.0
 21
0.0
 31
0.0
  0
LINE
  5
70
330
6D
100
AcDbEntity
  8
0
  6
ByBlock
 62
     0
100
AcDbLine
 10
0.0
 20
0.0
 30
0.0
 11
-1.0
 21
-0.1666666666666666
 31
0.0
  0
LINE
  5
71
330
6D
100
AcDbEntity
  8
0
  6
ByBlock
 62
     0
100
AcDbLine
 10
0.0
 20
0.0
 30
0.0
 11
-1.0
 21
0.0
 31
0.0
  0
ENDBLK
  5
72
330
6D
100
AcDbEntity
  8
0
100
AcDbBlockEnd
  0
BLOCK
  5
538
330
3A4
100
AcDbEntity
  8
0
100
AcDbBlockBegin
  2
*X1
 70
     1
 10
0.0
 20
0.0
 30
0.0
  3
*X1
  1

  0
LINE
  5
3A5
330
3A4
100
AcDbEntity
  8
0
 62
     0
100
AcDbLine
 10
66.75047808566091
 20
28.71175535310772
 30
0.0
 11
66.10464715594599
 21
29.35758628282269
 31
0.0
  0
LINE
  5
3A6
330
3A4
100
AcDbEntity
  8
0
 62
     0
100
AcDbLine
 10
66.75047808566091
 20
27.81372974100082
 30
0.0
 11
65.20662154383905
 21
29.35758628282269
 31
0.0
  0
LINE
  5
3A7
330
3A4
100
AcDbEntity
  8
0
 62
     0
100
AcDbLine
 10
66.75047808566086
 20
26.91570412889388
 30
0.0
 11
64.32934413964591
 21
29.33683807490882
 31
0.0
  0
LINE
  5
3A8
330
3A4
100
AcDbEntity
  8
0
 62
     0
100
AcDbLine
 10
66.75047808566091
 20
26.01767851678704
 30
0.0
 11
63.95047808566085
 21
28.81767851678705
 31
0.0
  0
LINE
  5
3A9
330
3A4
100
AcDbEntity
  8
0
 62
     0
100
AcDbLine
 10
66.75047808566091
 20
25.11965290468009
 30
0.0
 11
63.95047808566085
 21
27.91965290468016
 31
0.0
  0
LINE
  5
3AA
330
3A4
100
AcDbEntity
  8
0
 62
     0
100
AcDbLine
 10
66.75047808566086
 20
24.22162729257314
 30
0.0
 11
63.95047808566079
 21
27.02162729257321
 31
0.0
  0
LINE
  5
3AB
330
3A4
100
AcDbEntity
  8
0
 62
     0
100
AcDbLine
 10
61.85047808566082
 20
28.22360168046634
 30
0.0
 11
60.71649348330453
 21
29.35758628282269
 31
0.0
  0
LINE
  5
3AC
330
3A4
100
AcDbEntity
  8
0
 62
     0
100
AcDbLine
 10
66.75047808566091
 20
23.32360168046631
 30
0.0
 11
63.95047808566085
 21
26.12360168046638
 31
0.0
  0
LINE
  5
3AD
330
3A4
100
AcDbEntity
  8
0
 62
     0
100
AcDbLine
 10
61.85047808566082
 20
27.32557606835945
 30
0.0
 11
59.81846787119758
 21
29.35758628282263
 31
0.0
  0
LINE
  5
3AE
330
3A4
100
AcDbEntity
  8
0
 62
     0
100
AcDbLine
 10
66.75047808566086
 20
22.42557606835936
 30
0.0
 11
63.95047808566085
 21
25.22557606835943
 31
0.0
  0
LINE
  5
3AF
330
3A4
100
AcDbEntity
  8
0
 62
     0
100
AcDbLine
 10
61.85047808566082
 20
26.4275504562525
 30
0.0
 11
59.14496712052375
 21
29.13306142138958
 31
0.0
  0
LINE
  5
3B0
330
3A4
100
AcDbEntity
  8
0
 62
     0
100
AcDbLine
 10
66.75047808566086
 20
21.52755045625247
 30
0.0
 11
63.95047808566079
 21
24.32755045625248
 31
0.0
  0
LINE
  5
3B1
330
3A4
100
AcDbEntity
  8
0
 62
     0
100
AcDbLine
 10
61.85047808566094
 20
25.5295248441455
 30
0.0
 11
59.05047808566076
 21
28.32952484414562
 31
0.0
  0
LINE
  5
3B2
330
3A4
100
AcDbEntity
  8
0
 62
     0
100
AcDbLine
 10
66.75047808566091
 20
20.62952484414552
 30
0.0
 11
63.95047808566085
 21
23.42952484414559
 31
0.0
  0
LINE
  5
3B3
330
3A4
100
AcDbEntity
  8
0
 62
     0
100
AcDbLine
 10
61.85047808566088
 20
24.6314992320386
 30
0.0
 11
59.05047808566076
 21
27.43149923203878
 31
0.0
  0
LINE
  5
3B4
330
3A4
100
AcDbEntity
  8
0
 62
     0
100
AcDbLine
 10
66.75047808566086
 20
19.73149923203862
 30
0.0
 11
63.95047808566079
 21
22.53149923203869
 31
0.0
  0
LINE
  5
3B5
330
3A4
100
AcDbEntity
  8
0
 62
     0
100
AcDbLine
 10
61.85047808566088
 20
23.73347361993171
 30
0.0
 11
59.05047808566076
 21
26.53347361993183
 31
0.0
  0
LINE
  5
3B6
330
3A4
100
AcDbEntity
  8
0
 62
     0
100
AcDbLine
 10
66.75047808566086
 20
18.83347361993173
 30
0.0
 11
63.95047808566079
 21
21.6334736199318
 31
0.0
  0
LINE
  5
3B7
330
3A4
100
AcDbEntity
  8
0
 62
     0
100
AcDbLine
 10
61.85047808566082
 20
22.83544800782476
 30
0.0
 11
59.0504780856607
 21
25.63544800782489
 31
0.0
  0
LINE
  5
3B8
330
3A4
100
AcDbEntity
  8
0
 62
     0
100
AcDbLine
 10
66.7504780856608
 20
17.93544800782479
 30
0.0
 11
63.95047808566079
 21
20.73544800782485
 31
0.0
  0
LINE
  5
3B9
330
3A4
100
AcDbEntity
  8
0
 62
     0
100
AcDbLine
 10
61.85047808566088
 20
21.93742239571793
 30
0.0
 11
59.05047808566076
 21
24.73742239571805
 31
0.0
  0
LINE
  5
3BA
330
3A4
100
AcDbEntity
  8
0
 62
     0
100
AcDbLine
 10
55.55047808566081
 20
28.23742239571799
 30
0.0
 11
54.43031419855618
 21
29.35758628282263
 31
0.0
  0
LINE
  5
3BB
330
3A4
100
AcDbEntity
  8
0
 62
     0
100
AcDbLine
 10
66.75047808566086
 20
17.03742239571795
 30
0.0
 11
63.95047808566079
 21
19.83742239571796
 31
0.0
  0
LINE
  5
3BC
330
3A4
100
AcDbEntity
  8
0
 62
     0
100
AcDbLine
 10
61.85047808566088
 20
21.03939678361098
 30
0.0
 11
59.0504780856607
 21
23.8393967836111
 31
0.0
  0
LINE
  5
3BD
330
3A4
100
AcDbEntity
  8
0
 62
     0
100
AcDbLine
 10
55.55047808566076
 20
27.33939678361105
 30
0.0
 11
53.53228858644922
 21
29.35758628282263
 31
0.0
  0
LINE
  5
3BE
330
3A4
100
AcDbEntity
  8
0
 62
     0
100
AcDbLine
 10
66.75047808566086
 20
16.139396783611
 30
0.0
 11
63.95047808566079
 21
18.93939678361107
 31
0.0
  0
LINE
  5
3BF
330
3A4
100
AcDbEntity
  8
0
 62
     0
100
AcDbLine
 10
61.85047808566082
 20
20.14137117150409
 30
0.0
 11
59.05047808566076
 21
22.9413711715041
 31
0.0
  0
LINE
  5
3C0
330
3A4
100
AcDbEntity
  8
0
 62
     0
100
AcDbLine
 10
55.55047808566076
 20
26.44137117150416
 30
0.0
 11
52.85071536233676
 21
29.14113389482816
 31
0.0
  0
LINE
  5
3C1
330
3A4
100
AcDbEntity
  8
0
 62
     0
100
AcDbLine
 10
66.7504780856608
 20
15.24137117150411
 30
0.0
 11
63.95047808566073
 21
18.04137117150412
 31
0.0
  0
LINE
  5
3C2
330
3A4
100
AcDbEntity
  8
0
 62
     0
100
AcDbLine
 10
61.85047808566088
 20
19.24334555939714
 30
0.0
 11
59.05047808566081
 21
22.04334555939721
 31
0.0
  0
LINE
  5
3C3
330
3A4
100
AcDbEntity
  8
0
 62
     0
100
AcDbLine
 10
55.55047808566081
 20
25.54334555939721
 30
0.0
 11
52.7504780856608
 21
28.34334555939722
 31
0.0
  0
LINE
  5
3C4
330
3A4
100
AcDbEntity
  8
0
 62
     0
100
AcDbLine
 10
66.75047808566086
 20
14.34334555939716
 30
0.0
 11
63.95047808566079
 21
17.14334555939723
 31
0.0
  0
LINE
  5
3C5
330
3A4
100
AcDbEntity
  8
0
 62
     0
100
AcDbLine
 10
61.85047808566082
 20
18.34531994729024
 30
0.0
 11
59.05047808566081
 21
21.14531994729031
 31
0.0
  0
LINE
  5
3C6
330
3A4
100
AcDbEntity
  8
0
 62
     0
100
AcDbLine
 10
55.55047808566087
 20
24.64531994729026
 30
0.0
 11
52.7504780856608
 21
27.44531994729033
 31
0.0
  0
LINE
  5
3C7
330
3A4
100
AcDbEntity
  8
0
 62
     0
100
AcDbLine
 10
66.67851273077104
 20
13.51728530218008
 30
0.0
 11
63.95047808566079
 21
16.24531994729034
 31
0.0
  0
LINE
  5
3C8
330
3A4
100
AcDbEntity
  8
0
 62
     0
100
AcDbLine
 10
61.85047808566088
 20
17.44729433518324
 30
0.0
 11
59.05047808566076
 21
20.24729433518337
 31
0.0
  0
LINE
  5
3C9
330
3A4
100
AcDbEntity
  8
0
 62
     0
100
AcDbLine
 10
55.55047808566081
 20
23.74729433518337
 30
0.0
 11
52.75047808566075
 21
26.54729433518338
 31
0.0
  0
LINE
  5
3CA
330
3A4
100
AcDbEntity
  8
0
 62
     0
100
AcDbLine
 10
66.04018613802157
 20
13.25758628282261
 30
0.0
 11
63.95047808566073
 21
15.34729433518345
 31
0.0
  0
LINE
  5
3CB
330
3A4
100
AcDbEntity
  8
0
 62
     0
100
AcDbLine
 10
55.55047808566081
 20
22.84926872307642
 30
0.0
 11
52.75047808566075
 21
25.64926872307649
 31
0.0
  0
LINE
  5
3CC
330
3A4
100
AcDbEntity
  8
0
 62
     0
100
AcDbLine
 10
61.85047808566088
 20
16.54926872307635
 30
0.0
 11
59.05047808566076
 21
19.34926872307647
 31
0.0
  0
LINE
  5
3CD
330
3A4
100
AcDbEntity
  8
0
 62
     0
100
AcDbLine
 10
50.1254780856608
 20
28.27426872307643
 30
0.0
 11
49.04216052591465
 21
29.35758628282252
 31
0.0
  0
LINE
  5
3CE
330
3A4
100
AcDbEntity
  8
0
 62
     0
100
AcDbLine
 10
65.14216052591468
 20
13.2575862828225
 30
0.0
 11
63.95047808566073
 21
14.4492687230765
 31
0.0
  0
LINE
  5
3CF
330
3A4
100
AcDbEntity
  8
0
 62
     0
100
AcDbLine
 10
55.55047808566081
 20
21.95124311096952
 30
0.0
 11
52.75047808566085
 21
24.75124311096954
 31
0.0
  0
LINE
  5
3D0
330
3A4
100
AcDbEntity
  8
0
 62
     0
100
AcDbLine
 10
50.1254780856608
 20
27.37624311096954
 30
0.0
 11
48.14413491380782
 21
29.35758628282258
 31
0.0
  0
LINE
  5
3D1
330
3A4
100
AcDbEntity
  8
0
 62
     0
100
AcDbLine
 10
61.82451978501529
 20
15.6772014116151
 30
0.0
 11
59.05047808566076
 21
18.45124311096958
 31
0.0
  0
LINE
  5
3D2
330
3A4
100
AcDbEntity
  8
0
 62
     0
100
AcDbLine
 10
55.55047808566081
 20
21.05321749886263
 30
0.0
 11
52.75047808566085
 21
23.85321749886259
 31
0.0
  0
LINE
  5
3D3
330
3A4
100
AcDbEntity
  8
0
 62
     0
100
AcDbLine
 10
49.92989753954697
 20
26.67379804497647
 30
0.0
 11
47.24610930170081
 21
29.35758628282263
 31
0.0
  0
LINE
  5
3D4
330
3A4
100
AcDbEntity
  8
0
 62
     0
100
AcDbLine
 10
61.63153448975805
 20
14.97216109476534
 30
0.0
 11
59.05047808566076
 21
17.55321749886269
 31
0.0
  0
LINE
  5
3D5
330
3A4
100
AcDbEntity
  8
0
 62
     0
100
AcDbLine
 10
55.55047808566081
 20
20.15519188675568
 30
0.0
 11
52.7504780856608
 21
22.95519188675569
 31
0.0
  0
LINE
  5
3D6
330
3A4
100
AcDbEntity
  8
0
 62
     0
100
AcDbLine
 10
49.14808368959382
 20
26.55758628282262
 30
0.0
 11
46.34808368959392
 21
29.35758628282252
 31
0.0
  0
LINE
  5
3D7
330
3A4
100
AcDbEntity
  8
0
 62
     0
100
AcDbLine
 10
61.30650261383448
 20
14.39916735858196
 30
0.0
 11
58.97896234650125
 21
16.72670762591525
 31
0.0
  0
LINE
  5
3D8
330
3A4
100
AcDbEntity
  8
0
 62
     0
100
AcDbLine
 10
55.55047808566081
 20
19.25716627464885
 30
0.0
 11
52.75047808566085
 21
22.0571662746488
 31
0.0
  0
LINE
  5
3D9
330
3A4
100
AcDbEntity
  8
0
 62
     0
100
AcDbLine
 10
48.25005807748704
 20
26.55758628282256
 30
0.0
 11
45.5124913483096
 21
29.29515301200007
 31
0.0
  0
LINE
  5
3DA
330
3A4
100
AcDbEntity
  8
0
 62
     0
100
AcDbLine
 10
60.87446081650944
 20
13.93318354380016
 30
0.0
 11
58.57737670803373
 21
16.23026765227587
 31
0.0
  0
LINE
  5
3DB
330
3A4
100
AcDbEntity
  8
0
 62
     0
100
AcDbLine
 10
55.55047808566081
 20
18.3591406625419
 30
0.0
 11
52.7504780856608
 21
21.15914066254185
 31
0.0
  0
LINE
  5
3DC
330
3A4
100
AcDbEntity
  8
0
 62
     0
100
AcDbLine
 10
47.35203246538015
 20
26.55758628282256
 30
0.0
 11
44.8478509237762
 21
29.06176782442645
 31
0.0
  0
LINE
  5
3DD
330
3A4
100
AcDbEntity
  8
0
 62
     0
100
AcDbLine
 10
60.33829847158341
 20
13.5713202766193
 30
0.0
 11
57.85203246538014
 21
16.05758628282257
 31
0.0
  0
LINE
  5
3DE
330
3A4
100
AcDbEntity
  8
0
 62
     0
100
AcDbLine
 10
55.55047808566076
 20
17.46111505043495
 30
0.0
 11
52.7504780856608
 21
20.26111505043496
 31
0.0
  0
LINE
  5
3DF
330
3A4
100
AcDbEntity
  8
0
 62
     0
100
AcDbLine
 10
46.47579668129123
 20
26.53579645480448
 30
0.0
 11
44.30524998656602
 21
28.70634314952969
 31
0.0
  0
LINE
  5
3E0
330
3A4
100
AcDbEntity
  8
0
 62
     0
100
AcDbLine
 10
59.68188591167211
 20
13.32970722442365
 30
0.0
 11
56.95400685327314
 21
16.05758628282262
 31
0.0
  0
LINE
  5
3E1
330
3A4
100
AcDbEntity
  8
0
 62
     0
100
AcDbLine
 10
46.10047808566088
 20
26.01308943832788
 30
0.0
 11
43.86713792752146
 21
28.24642959646729
 31
0.0
  0
LINE
  5
3E2
330
3A4
100
AcDbEntity
  8
0
 62
     0
100
AcDbLine
 10
58.85598124116626
 20
13.25758628282255
 30
0.0
 11
52.7504780856608
 21
19.36308943832801
 31
0.0
  0
LINE
  5
3E3
330
3A4
100
AcDbEntity
  8
0
 62
     0
100
AcDbLine
 10
46.10047808566088
 20
25.1150638262211
 30
0.0
 11
43.53536701516844
 21
27.68017489671354
 31
0.0
  0
LINE
  5
3E4
330
3A4
100
AcDbEntity
  8
0
 62
     0
100
AcDbLine
 10
57.95795562905937
 20
13.25758628282255
 30
0.0
 11
52.7504780856608
 21
18.46506382622118
 31
0.0
  0
LINE
  5
3E5
330
3A4
100
AcDbEntity
  8
0
 62
     0
100
AcDbLine
 10
46.30702236676467
 20
24.01049393301036
 30
0.0
 11
43.33318849580433
 21
26.98432780397064
 31
0.0
  0
LINE
  5
3E6
330
3A4
100
AcDbEntity
  8
0
 62
     0
100
AcDbLine
 10
57.05993001695247
 20
13.25758628282255
 30
0.0
 11
52.7504780856608
 21
17.56703821411423
 31
0.0
  0
LINE
  5
3E7
330
3A4
100
AcDbEntity
  8
0
 62
     0
100
AcDbLine
 10
50.52408178835225
 20
18.89540889931583
 30
0.0
 11
43.30047808566075
 21
26.11901260200733
 31
0.0
  0
LINE
  5
3E8
330
3A4
100
AcDbEntity
  8
0
 62
     0
100
AcDbLine
 10
41.20047808566073
 20
28.21901260200729
 30
0.0
 11
40.06190440484544
 21
29.35758628282263
 31
0.0
  0
LINE
  5
3E9
330
3A4
100
AcDbEntity
  8
0
 62
     0
100
AcDbLine
 10
56.16190440484553
 20
13.25758628282255
 30
0.0
 11
52.75047808566075
 21
16.66901260200728
 31
0.0
  0
LINE
  5
3EA
330
3A4
100
AcDbEntity
  8
0
 62
     0
100
AcDbLine
 10
50.65047808566089
 20
17.87098698990035
 30
0.0
 11
43.30047808566081
 21
25.22098698990044
 31
0.0
  0
LINE
  5
3EB
330
3A4
100
AcDbEntity
  8
0
 62
     0
100
AcDbLine
 10
41.20047808566084
 20
27.32098698990034
 30
0.0
 11
39.16387879273855
 21
29.35758628282269
 31
0.0
  0
LINE
  5
3EC
330
3A4
100
AcDbEntity
  8
0
 62
     0
100
AcDbLine
 10
55.24743091399376
 20
13.2740341615675
 30
0.0
 11
52.76692596440574
 21
15.7545391111555
 31
0.0
  0
LINE
  5
3ED
330
3A4
100
AcDbEntity
  8
0
 62
     0
100
AcDbLine
 10
41.20047808566084
 20
26.42296137779345
 30
0.0
 11
38.49308819788552
 21
29.13035126556872
 31
0.0
  0
LINE
  5
3EE
330
3A4
100
AcDbEntity
  8
0
 62
     0
100
AcDbLine
 10
50.65047808566084
 20
16.97296137779341
 30
0.0
 11
43.3238887535432
 21
24.2995507099111
 31
0.0
  0
LINE
  5
3EF
330
3A4
100
AcDbEntity
  8
0
 62
     0
100
AcDbLine
 10
41.20047808566084
 20
25.5249357656865
 30
0.0
 11
38.40047808566078
 21
28.32493576568657
 31
0.0
  0
LINE
  5
3F0
330
3A4
100
AcDbEntity
  8
0
 62
     0
100
AcDbLine
 10
50.65047808566072
 20
16.07493576568657
 30
0.0
 11
43.64200817138322
 21
23.08340567996413
 31
0.0
  0
LINE
  5
3F1
330
3A4
100
AcDbEntity
  8
0
 62
     0
100
AcDbLine
 10
41.20047808566084
 20
24.62691015357961
 30
0.0
 11
38.40047808566078
 21
27.42691015357962
 31
0.0
  0
LINE
  5
3F2
330
3A4
100
AcDbEntity
  8
0
 62
     0
100
AcDbLine
 10
50.54191626807176
 20
15.2854719711687
 30
0.0
 11
47.84628147903345
 21
17.98110676020701
 31
0.0
  0
LINE
  5
3F3
330
3A4
100
AcDbEntity
  8
0
 62
     0
100
AcDbLine
 10
41.20047808566084
 20
23.72888454147272
 30
0.0
 11
38.40047808566078
 21
26.52888454147279
 31
0.0
  0
LINE
  5
3F4
330
3A4
100
AcDbEntity
  8
0
 62
     0
100
AcDbLine
 10
36.10899118508382
 20
28.82037144204969
 30
0.0
 11
35.57177634431093
 21
29.35758628282263
 31
0.0
  0
LINE
  5
3F5
330
3A4
100
AcDbEntity
  8
0
 62
     0
100
AcDbLine
 10
50.2740405603102
 20
14.65532206682337
 30
0.0
 11
47.85047808566088
 21
17.07888454147268
 31
0.0
  0
LINE
  5
3F6
330
3A4
100
AcDbEntity
  8
0
 62
     0
100
AcDbLine
 10
41.20047808566079
 20
22.83085892936577
 30
0.0
 11
38.40047808566078
 21
25.63085892936584
 31
0.0
  0
LINE
  5
3F7
330
3A4
100
AcDbEntity
  8
0
 62
     0
100
AcDbLine
 10
35.91006352083121
 20
28.12127349419535
 30
0.0
 11
34.67375073220398
 21
29.35758628282263
 31
0.0
  0
LINE
  5
3F8
330
3A4
100
AcDbEntity
  8
0
 62
     0
100
AcDbLine
 10
49.8910537621349
 20
14.14028325289172
 30
0.0
 11
47.75319290277439
 21
16.27814411225222
 31
0.0
  0
LINE
  5
3F9
330
3A4
100
AcDbEntity
  8
0
 62
     0
100
AcDbLine
 10
41.20047808566079
 20
21.93283331725888
 30
0.0
 11
38.40047808566072
 21
24.73283331725889
 31
0.0
  0
LINE
  5
3FA
330
3A4
100
AcDbEntity
  8
0
 62
     0
100
AcDbLine
 10
35.69453737392553
 20
27.43877402899409
 30
0.0
 11
33.78532181045494
 21
29.34798959246473
 31
0.0
  0
LINE
  5
3FB
330
3A4
100
AcDbEntity
  8
0
 62
     0
100
AcDbLine
 10
49.40473479701927
 20
13.72857660590034
 30
0.0
 11
47.07572512009704
 21
16.05758628282262
 31
0.0
  0
LINE
  5
3FC
330
3A4
100
AcDbEntity
  8
0
 62
     0
100
AcDbLine
 10
41.20047808566084
 20
21.03480770515198
 30
0.0
 11
38.40047808566078
 21
23.83480770515205
 31
0.0
  0
LINE
  5
3FD
330
3A4
100
AcDbEntity
  8
0
 62
     0
100
AcDbLine
 10
35.47901122702
 20
26.75627456379283
 30
0.0
 11
33.35101122701996
 21
28.88427456379287
 31
0.0
  0
LINE
  5
3FE
330
3A4
100
AcDbEntity
  8
0
 62
     0
100
AcDbLine
 10
48.8086508485589
 20
13.42663494225388
 30
0.0
 11
46.17769950799015
 21
16.05758628282268
 31
0.0
  0
LINE
  5
3FF
330
3A4
100
AcDbEntity
  8
0
 62
     0
100
AcDbLine
 10
41.20047808566079
 20
20.13678209304509
 30
0.0
 11
38.40047808566072
 21
22.9367820930451
 31
0.0
  0
LINE
  5
400
330
3A4
100
AcDbEntity
  8
0
 62
     0
100
AcDbLine
 10
35.26348508011415
 20
26.07377509859174
 30
0.0
 11
33.13548508011416
 21
28.20177509859172
 31
0.0
  0
LINE
  5
401
330
3A4
100
AcDbEntity
  8
0
 62
     0
100
AcDbLine
 10
48.07097819691143
 20
13.26628198179446
 30
0.0
 11
45.27967389588326
 21
16.05758628282262
 31
0.0
  0
LINE
  5
402
330
3A4
100
AcDbEntity
  8
0
 62
     0
100
AcDbLine
 10
41.20047808566079
 20
19.23875648093815
 30
0.0
 11
38.40047808566078
 21
22.0387564809381
 31
0.0
  0
LINE
  5
403
330
3A4
100
AcDbEntity
  8
0
 62
     0
100
AcDbLine
 10
35.04795893320857
 20
25.39127563339036
 30
0.0
 11
32.91995893320847
 21
27.5192756333904
 31
0.0
  0
LINE
  5
404
330
3A4
100
AcDbEntity
  8
0
 62
     0
100
AcDbLine
 10
47.18164828377638
 20
13.25758628282255
 30
0.0
 11
44.38164828377631
 21
16.05758628282262
 31
0.0
  0
LINE
  5
405
330
3A4
100
AcDbEntity
  8
0
 62
     0
100
AcDbLine
 10
41.20047808566079
 20
18.34073086883125
 30
0.0
 11
38.40047808566083
 21
21.14073086883127
 31
0.0
  0
LINE
  5
406
330
3A4
100
AcDbEntity
  8
0
 62
     0
100
AcDbLine
 10
34.83243278630294
 20
24.70877616818916
 30
0.0
 11
32.70443278630284
 21
26.8367761681892
 31
0.0
  0
LINE
  5
407
330
3A4
100
AcDbEntity
  8
0
 62
     0
100
AcDbLine
 10
46.28362267166949
 20
13.25758628282261
 30
0.0
 11
43.8500109743731
 21
15.691197980119
 31
0.0
  0
LINE
  5
408
330
3A4
100
AcDbEntity
  8
0
 62
     0
100
AcDbLine
 10
34.61690663939731
 20
24.02627670298778
 30
0.0
 11
32.48890663939721
 21
26.15427670298794
 31
0.0
  0
LINE
  5
409
330
3A4
100
AcDbEntity
  8
0
 62
     0
100
AcDbLine
 10
41.20047808566079
 20
17.44270525672436
 30
0.0
 11
38.40047808566083
 21
20.24270525672432
 31
0.0
  0
LINE
  5
40A
330
3A4
100
AcDbEntity
  8
0
 62
     0
100
AcDbLine
 10
30.35047808566082
 20
28.29270525672433
 30
0.0
 11
29.28559705956251
 21
29.35758628282258
 31
0.0
  0
LINE
  5
40B
330
3A4
100
AcDbEntity
  8
0
 62
     0
100
AcDbLine
 10
45.38559705956259
 20
13.25758628282255
 30
0.0
 11
43.82547808566084
 21
14.8177052567243
 31
0.0
  0
LINE
  5
40C
330
3A4
100
AcDbEntity
  8
0
 62
     0
100
AcDbLine
 10
34.40138049249151
 20
23.34377723778669
 30
0.0
 11
32.27338049249158
 21
25.47177723778662
 31
0.0
  0
LINE
  5
40D
330
3A4
100
AcDbEntity
  8
0
 62
     0
100
AcDbLine
 10
41.20047808566079
 20
16.54467964461741
 30
0.0
 11
38.40047808566078
 21
19.34467964461743
 31
0.0
  0
LINE
  5
40E
330
3A4
100
AcDbEntity
  8
0
 62
     0
100
AcDbLine
 10
30.35047808566082
 20
27.39467964461738
 30
0.0
 11
28.38757144745562
 21
29.35758628282258
 31
0.0
  0
LINE
  5
40F
330
3A4
100
AcDbEntity
  8
0
 62
     0
100
AcDbLine
 10
44.48757144745559
 20
13.25758628282261
 30
0.0
 11
43.82547808566079
 21
13.91967964461736
 31
0.0
  0
LINE
  5
410
330
3A4
100
AcDbEntity
  8
0
 62
     0
100
AcDbLine
 10
34.18585434558588
 20
22.66127777258537
 30
0.0
 11
32.05785434558583
 21
24.78927777258542
 31
0.0
  0
LINE
  5
411
330
3A4
100
AcDbEntity
  8
0
 62
     0
100
AcDbLine
 10
30.35047808566076
 20
26.49665403251043
 30
0.0
 11
27.67503315676316
 21
29.17209896140809
 31
0.0
  0
LINE
  5
412
330
3A4
100
AcDbEntity
  8
0
 62
     0
100
AcDbLine
 10
41.20047808566073
 20
15.64665403251052
 30
0.0
 11
38.40047808566078
 21
18.44665403251048
 31
0.0
  0
LINE
  5
413
330
3A4
100
AcDbEntity
  8
0
 62
     0
100
AcDbLine
 10
33.97032819868025
 20
21.97877830738417
 30
0.0
 11
31.84232819868026
 21
24.10677830738416
 31
0.0
  0
LINE
  5
414
330
3A4
100
AcDbEntity
  8
0
 62
     0
100
AcDbLine
 10
30.35047808566082
 20
25.59862842040359
 30
0.0
 11
27.55047808566075
 21
28.39862842040361
 31
0.0
  0
LINE
  5
415
330
3A4
100
AcDbEntity
  8
0
 62
     0
100
AcDbLine
 10
41.20047808566079
 20
14.74862842040363
 30
0.0
 11
38.40047808566078
 21
17.54862842040358
 31
0.0
  0
LINE
  5
416
330
3A4
100
AcDbEntity
  8
0
 62
     0
100
AcDbLine
 10
33.76523968928819
 20
21.28584120466928
 30
0.0
 11
31.62680205177451
 21
23.42427884218295
 31
0.0
  0
LINE
  5
417
330
3A4
100
AcDbEntity
  8
0
 62
     0
100
AcDbLine
 10
30.35047808566082
 20
24.70060280829665
 30
0.0
 11
27.55047808566075
 21
27.50060280829671
 31
0.0
  0
LINE
  5
418
330
3A4
100
AcDbEntity
  8
0
 62
     0
100
AcDbLine
 10
41.20047808566073
 20
13.85060280829668
 30
0.0
 11
38.40047808566078
 21
16.65060280829669
 31
0.0
  0
LINE
  5
419
330
3A4
100
AcDbEntity
  8
0
 62
     0
100
AcDbLine
 10
34.17971304872219
 20
19.97334223312833
 30
0.0
 11
31.33625455608989
 21
22.81680072576063
 31
0.0
  0
LINE
  5
41A
330
3A4
100
AcDbEntity
  8
0
 62
     0
100
AcDbLine
 10
30.35047808566088
 20
23.80257719618964
 30
0.0
 11
27.5504780856607
 21
26.60257719618977
 31
0.0
  0
LINE
  5
41B
330
3A4
100
AcDbEntity
  8
0
 62
     0
100
AcDbLine
 10
40.8614330883284
 20
13.29162219352207
 30
0.0
 11
38.40047808566078
 21
15.75257719618974
 31
0.0
  0
LINE
  5
41C
330
3A4
100
AcDbEntity
  8
0
 62
     0
100
AcDbLine
 10
34.59418640815619
 20
18.6608432615875
 30
0.0
 11
27.55047808566075
 21
25.70455158408293
 31
0.0
  0
LINE
  5
41D
330
3A4
100
AcDbEntity
  8
0
 62
     0
100
AcDbLine
 10
25.10047808566088
 20
28.15455158408281
 30
0.0
 11
23.89744338692111
 21
29.35758628282258
 31
0.0
  0
LINE
  5
41E
330
3A4
100
AcDbEntity
  8
0
 62
     0
100
AcDbLine
 10
39.99744338692113
 20
13.25758628282255
 30
0.0
 11
38.40047808566089
 21
14.8545515840828
 31
0.0
  0
LINE
  5
41F
330
3A4
100
AcDbEntity
  8
0
 62
     0
100
AcDbLine
 10
35.00865976759024
 20
17.34834429004649
 30
0.0
 11
27.55047808566075
 21
24.80652597197599
 31
0.0
  0
LINE
  5
420
330
3A4
100
AcDbEntity
  8
0
 62
     0
100
AcDbLine
 10
25.10047808566088
 20
27.25652597197586
 30
0.0
 11
22.9994177748141
 21
29.35758628282263
 31
0.0
  0
LINE
  5
421
330
3A4
100
AcDbEntity
  8
0
 62
     0
100
AcDbLine
 10
39.09941777481418
 20
13.2575862828225
 30
0.0
 11
38.40047808566083
 21
13.9565259719759
 31
0.0
  0
LINE
  5
422
330
3A4
100
AcDbEntity
  8
0
 62
     0
100
AcDbLine
 10
24.83357139027077
 20
26.62540705525902
 30
0.0
 11
22.13334967205935
 21
29.32562877347038
 31
0.0
  0
LINE
  5
423
330
3A4
100
AcDbEntity
  8
0
 62
     0
100
AcDbLine
 10
35.42313312702418
 20
16.0358453185056
 30
0.0
 11
27.55047808566081
 21
23.90850035986898
 31
0.0
  0
LINE
  5
424
330
3A4
100
AcDbEntity
  8
0
 62
     0
100
AcDbLine
 10
30.68798700800243
 20
19.87296582542046
 30
0.0
 11
27.55047808566081
 21
23.01047474776209
 31
0.0
  0
LINE
  5
425
330
3A4
100
AcDbEntity
  8
0
 62
     0
100
AcDbLine
 10
24.00336655060033
 20
26.55758628282251
 30
0.0
 11
21.39530660247209
 21
29.16564623095081
 31
0.0
  0
LINE
  5
426
330
3A4
100
AcDbEntity
  8
0
 62
     0
100
AcDbLine
 10
35.83760648645824
 20
14.72334634696466
 30
0.0
 11
31.74529879415013
 21
18.81565403927277
 31
0.0
  0
LINE
  5
427
330
3A4
100
AcDbEntity
  8
0
 62
     0
100
AcDbLine
 10
30.35047808566088
 20
19.31244913565512
 30
0.0
 11
27.55047808566081
 21
22.11244913565519
 31
0.0
  0
LINE
  5
428
330
3A4
100
AcDbEntity
  8
0
 62
     0
100
AcDbLine
 10
23.10534093849332
 20
26.55758628282262
 30
0.0
 11
20.75658518664135
 21
28.90634203467459
 31
0.0
  0
LINE
  5
429
330
3A4
100
AcDbEntity
  8
0
 62
     0
100
AcDbLine
 10
36.07264534416884
 20
13.5902818771471
 30
0.0
 11
32.15977215358407
 21
17.50315506773193
 31
0.0
  0
LINE
  5
42A
330
3A4
100
AcDbEntity
  8
0
 62
     0
100
AcDbLine
 10
30.35047808566082
 20
18.41442352354823
 30
0.0
 11
27.55047808566075
 21
21.21442352354824
 31
0.0
  0
LINE
  5
42B
330
3A4
100
AcDbEntity
  8
0
 62
     0
100
AcDbLine
 10
22.26222743594979
 20
26.50267417325926
 30
0.0
 11
20.19783621130682
 21
28.56706539790224
 31
0.0
  0
LINE
  5
42C
330
3A4
100
AcDbEntity
  8
0
 62
     0
100
AcDbLine
 10
35.5073153263865
 20
13.25758628282255
 30
0.0
 11
32.57424551301812
 21
16.19065609619087
 31
0.0
  0
LINE
  5
42D
330
3A4
100
AcDbEntity
  8
0
 62
     0
100
AcDbLine
 10
30.35047808566082
 20
17.51639791144128
 30
0.0
 11
27.55047808566075
 21
20.31639791144135
 31
0.0
  0
LINE
  5
42E
330
3A4
100
AcDbEntity
  8
0
 62
     0
100
AcDbLine
 10
21.6903712431108
 20
26.1765047539913
 30
0.0
 11
19.71018100269503
 21
28.15669499440707
 31
0.0
  0
LINE
  5
42F
330
3A4
100
AcDbEntity
  8
0
 62
     0
100
AcDbLine
 10
34.60928971427955
 20
13.25758628282255
 30
0.0
 11
32.98871887245207
 21
14.87815712465004
 31
0.0
  0
LINE
  5
430
330
3A4
100
AcDbEntity
  8
0
 62
     0
100
AcDbLine
 10
25.43590721845856
 20
21.53294316653671
 30
0.0
 11
23.92583496937481
 21
23.04301541562046
 31
0.0
  0
LINE
  5
431
330
3A4
100
AcDbEntity
  8
0
 62
     0
100
AcDbLine
 10
30.35047808566094
 20
16.61837229933434
 30
0.0
 11
27.55047808566081
 21
19.41837229933446
 31
0.0
  0
LINE
  5
432
330
3A4
100
AcDbEntity
  8
0
 62
     0
100
AcDbLine
 10
21.33424967298185
 20
25.63460071201342
 30
0.0
 11
19.2908149766838
 21
27.67803540831147
 31
0.0
  0
LINE
  5
433
330
3A4
100
AcDbEntity
  8
0
 62
     0
100
AcDbLine
 10
33.66093109796804
 20
13.30791928702723
 30
0.0
 11
33.41057692637673
 21
13.55827345861854
 31
0.0
  0
LINE
  5
434
330
3A4
100
AcDbEntity
  8
0
 62
     0
100
AcDbLine
 10
25.34939355831665
 20
20.72143121457167
 30
0.0
 11
23.11432301740978
 21
22.95650175547854
 31
0.0
  0
LINE
  5
435
330
3A4
100
AcDbEntity
  8
0
 62
     0
100
AcDbLine
 10
21.25047808566091
 20
24.82034668722741
 30
0.0
 11
18.94187595572214
 21
27.12894881716619
 31
0.0
  0
LINE
  5
436
330
3A4
100
AcDbEntity
  8
0
 62
     0
100
AcDbLine
 10
30.35047808566088
 20
15.72034668722739
 30
0.0
 11
27.55047808566075
 21
18.52034668722757
 31
0.0
  0
LINE
  5
437
330
3A4
100
AcDbEntity
  8
0
 62
     0
100
AcDbLine
 10
25.0175379990186
 20
20.15526116176272
 30
0.0
 11
22.54815296460083
 21
22.62464619618049
 31
0.0
  0
LINE
  5
438
330
3A4
100
AcDbEntity
  8
0
 62
     0
100
AcDbLine
 10
21.25047808566091
 20
23.92232107512046
 30
0.0
 11
18.67129624851196
 21
26.50150291226941
 31
0.0
  0
LINE
  5
439
330
3A4
100
AcDbEntity
  8
0
 62
     0
100
AcDbLine
 10
30.35047808566088
 20
14.82232107512049
 30
0.0
 11
27.55047808566081
 21
17.62232107512056
 31
0.0
  0
LINE
  5
43A
330
3A4
100
AcDbEntity
  8
0
 62
     0
100
AcDbLine
 10
21.25047808566091
 20
23.02429546301357
 30
0.0
 11
18.49658237558611
 21
25.77819117308843
 31
0.0
  0
LINE
  5
43B
330
3A4
100
AcDbEntity
  8
0
 62
     0
100
AcDbLine
 10
24.51570455688215
 20
19.75906899179238
 30
0.0
 11
22.15196079463049
 21
22.12281275404405
 31
0.0
  0
LINE
  5
43C
330
3A4
100
AcDbEntity
  8
0
 62
     0
100
AcDbLine
 10
15.82547808566073
 20
28.44929546301375
 30
0.0
 11
14.91718726585185
 21
29.35758628282269
 31
0.0
  0
LINE
  5
43D
330
3A4
100
AcDbEntity
  8
0
 62
     0
100
AcDbLine
 10
30.35047808566094
 20
13.9242954630136
 30
0.0
 11
27.55047808566087
 21
16.72429546301367
 31
0.0
  0
LINE
  5
43E
330
3A4
100
AcDbEntity
  8
0
 62
     0
100
AcDbLine
 10
21.25047808566091
 20
22.12626985090668
 30
0.0
 11
18.45047808566084
 21
24.92626985090675
 31
0.0
  0
LINE
  5
43F
330
3A4
100
AcDbEntity
  8
0
 62
     0
100
AcDbLine
 10
23.81538511445473
 20
19.56136282211287
 30
0.0
 11
21.95425462495097
 21
21.42249331161662
 31
0.0
  0
LINE
  5
440
330
3A4
100
AcDbEntity
  8
0
 62
     0
100
AcDbLine
 10
15.82547808566073
 20
27.55126985090686
 30
0.0
 11
14.0191616537449
 21
29.35758628282263
 31
0.0
  0
LINE
  5
441
330
3A4
100
AcDbEntity
  8
0
 62
     0
100
AcDbLine
 10
30.06257428439022
 20
13.31417365217737
 30
0.0
 11
27.55047808566081
 21
15.82626985090672
 31
0.0
  0
LINE
  5
442
330
3A4
100
AcDbEntity
  8
0
 62
     0
100
AcDbLine
 10
21.25047808566091
 20
21.22824423879973
 30
0.0
 11
18.45047808566084
 21
24.0282442387998
 31
0.0
  0
LINE
  5
443
330
3A4
100
AcDbEntity
  8
0
 62
     0
100
AcDbLine
 10
15.71644411539045
 20
26.76227820907019
 30
0.0
 11
13.12113604163789
 21
29.35758628282269
 31
0.0
  0
LINE
  5
444
330
3A4
100
AcDbEntity
  8
0
 62
     0
100
AcDbLine
 10
29.22113604163809
 20
13.2575862828225
 30
0.0
 11
27.55047808566081
 21
14.92824423879983
 31
0.0
  0
LINE
  5
445
330
3A4
100
AcDbEntity
  8
0
 62
     0
100
AcDbLine
 10
21.25047808566085
 20
20.33021862669284
 30
0.0
 11
18.45047808566079
 21
23.13021862669285
 31
0.0
  0
LINE
  5
446
330
3A4
100
AcDbEntity
  8
0
 62
     0
100
AcDbLine
 10
15.02311042953112
 20
26.55758628282256
 30
0.0
 11
12.223110429531
 21
29.35758628282269
 31
0.0
  0
LINE
  5
447
330
3A4
100
AcDbEntity
  8
0
 62
     0
100
AcDbLine
 10
28.32311042953108
 20
13.25758628282255
 30
0.0
 11
27.55047808566081
 21
14.03021862669288
 31
0.0
  0
LINE
  5
448
330
3A4
100
AcDbEntity
  8
0
 62
     0
100
AcDbLine
 10
21.25047808566091
 20
19.43219301458595
 30
0.0
 11
18.45047808566084
 21
22.23219301458601
 31
0.0
  0
LINE
  5
449
330
3A4
100
AcDbEntity
  8
0
 62
     0
100
AcDbLine
 10
14.12508481742423
 20
26.55758628282256
 30
0.0
 11
11.35995554531933
 21
29.32271555492752
 31
0.0
  0
LINE
  5
44A
330
3A4
100
AcDbEntity
  8
0
 62
     0
100
AcDbLine
 10
25.09787563682391
 20
15.58479546342289
 30
0.0
 11
24.6276872662612
 21
16.05498383398566
 31
0.0
  0
LINE
  5
44B
330
3A4
100
AcDbEntity
  8
0
 62
     0
100
AcDbLine
 10
21.25047808566085
 20
18.53416740247899
 30
0.0
 11
18.45047808566084
 21
21.33416740247906
 31
0.0
  0
LINE
  5
44C
330
3A4
100
AcDbEntity
  8
0
 62
     0
100
AcDbLine
 10
13.22705920531734
 20
26.55758628282256
 30
0.0
 11
10.66682073684086
 21
29.11782475129905
 31
0.0
  0
LINE
  5
44D
330
3A4
100
AcDbEntity
  8
0
 62
     0
100
AcDbLine
 10
25.10047808566082
 20
14.68416740247903
 30
0.0
 11
23.72705920531728
 21
16.05758628282262
 31
0.0
  0
LINE
  5
44E
330
3A4
100
AcDbEntity
  8
0
 62
     0
100
AcDbLine
 10
21.25047808566085
 20
17.6361417903721
 30
0.0
 11
18.4504780856609
 21
20.43614179037206
 31
0.0
  0
LINE
  5
44F
330
3A4
100
AcDbEntity
  8
0
 62
     0
100
AcDbLine
 10
12.32903359321039
 20
26.55758628282251
 30
0.0
 11
10.10257407699362
 21
28.78404579903929
 31
0.0
  0
LINE
  5
450
330
3A4
100
AcDbEntity
  8
0
 62
     0
100
AcDbLine
 10
25.10047808566082
 20
13.78614179037214
 30
0.0
 11
22.82903359321039
 21
16.05758628282251
 31
0.0
  0
LINE
  5
451
330
3A4
100
AcDbEntity
  8
0
 62
     0
100
AcDbLine
 10
11.8187407655958
 20
26.16985349833032
 30
0.0
 11
9.644481264752869
 21
28.34411299917326
 31
0.0
  0
LINE
  5
452
330
3A4
100
AcDbEntity
  8
0
 62
     0
100
AcDbLine
 10
24.71274530116852
 20
13.2758489627576
 30
0.0
 11
18.4504780856609
 21
19.53811617826522
 31
0.0
  0
LINE
  5
453
330
3A4
100
AcDbEntity
  8
0
 62
     0
100
AcDbLine
 10
11.80047808566087
 20
25.29009056615831
 30
0.0
 11
9.291000062283785
 21
27.79956858953539
 31
0.0
  0
LINE
  5
454
330
3A4
100
AcDbEntity
  8
0
 62
     0
100
AcDbLine
 10
23.83298236899662
 20
13.25758628282255
 30
0.0
 11
18.4504780856609
 21
18.64009056615827
 31
0.0
  0
LINE
  5
455
330
3A4
100
AcDbEntity
  8
0
 62
     0
100
AcDbLine
 10
11.86261379379629
 20
24.32992924591587
 30
0.0
 11
9.060119959990061
 21
27.13242307972217
 31
0.0
  0
LINE
  5
456
330
3A4
100
AcDbEntity
  8
0
 62
     0
100
AcDbLine
 10
22.93495675688962
 20
13.25758628282261
 30
0.0
 11
18.45047808566084
 21
17.74206495405133
 31
0.0
  0
LINE
  5
457
330
3A4
100
AcDbEntity
  8
0
 62
     0
100
AcDbLine
 10
16.15485417688353
 20
19.13966325072181
 30
0.0
 11
9.000478085660915
 21
26.29403934194442
 31
0.0
  0
LINE
  5
458
330
3A4
100
AcDbEntity
  8
0
 62
     0
100
AcDbLine
 10
21.98365905772607
 20
13.31085836987927
 30
0.0
 11
18.5037501727175
 21
16.79076725488783
 31
0.0
  0
LINE
  5
459
330
3A4
100
AcDbEntity
  8
0
 62
     0
100
AcDbLine
 10
16.34674869096875
 20
18.04974312452969
 30
0.0
 11
9.000478085660802
 21
25.39601372983764
 31
0.0
  0
LINE
  5
45A
330
3A4
100
AcDbEntity
  8
0
 62
     0
100
AcDbLine
 10
20.60985114512448
 20
13.78664067037391
 30
0.0
 11
18.97953247321209
 21
15.41695934228636
 31
0.0
  0
LINE
  5
45B
330
3A4
100
AcDbEntity
  8
0
 62
     0
100
AcDbLine
 10
16.35047808566088
 20
17.14798811773062
 30
0.0
 11
9.008042533083198
 21
24.49042367030824
 31
0.0
  0
LINE
  5
45C
330
3A4
100
AcDbEntity
  8
0
 62
     0
100
AcDbLine
 10
16.35047808566082
 20
16.24996250562372
 30
0.0
 11
9.231333291407054
 21
23.36910729987744
 31
0.0
  0
LINE
  5
45D
330
3A4
100
AcDbEntity
  8
0
 62
     0
100
AcDbLine
 10
16.27795808952891
 20
15.4244568896488
 30
0.0
 11
13.51456644590985
 21
18.18784853326786
 31
0.0
  0
LINE
  5
45E
330
3A4
100
AcDbEntity
  8
0
 62
     0
100
AcDbLine
 10
16.03602015050006
 20
14.7683692165707
 30
0.0
 11
13.55047808566081
 21
17.25391128140995
 31
0.0
  0
LINE
  5
45F
330
3A4
100
AcDbEntity
  8
0
 62
     0
100
AcDbLine
 10
15.67390090311829
 20
14.23246285184552
 30
0.0
 11
13.51457905336013
 21
16.39178470160368
 31
0.0
  0
LINE
  5
460
330
3A4
100
AcDbEntity
  8
0
 62
     0
100
AcDbLine
 10
15.20767453085142
 20
13.8006636120055
 30
0.0
 11
12.9507518600343
 21
16.05758628282268
 31
0.0
  0
LINE
  5
461
330
3A4
100
AcDbEntity
  8
0
 62
     0
100
AcDbLine
 10
14.6344100831186
 20
13.47590244763142
 30
0.0
 11
12.05272624792735
 21
16.05758628282262
 31
0.0
  0
LINE
  5
462
330
3A4
100
AcDbEntity
  8
0
 62
     0
100
AcDbLine
 10
13.92899749403267
 20
13.28328942461041
 30
0.0
 11
11.15470063582046
 21
16.05758628282262
 31
0.0
  0
LINE
  5
463
330
3A4
100
AcDbEntity
  8
0
 62
     0
100
AcDbLine
 10
13.05667502371363
 20
13.25758628282244
 30
0.0
 11
10.25667502371351
 21
16.05758628282262
 31
0.0
  0
LINE
  5
464
330
3A4
100
AcDbEntity
  8
0
 62
     0
100
AcDbLine
 10
12.15864941160669
 20
13.25758628282255
 30
0.0
 11
9.605325516788809
 21
15.81091017764049
 31
0.0
  0
LINE
  5
465
330
3A4
100
AcDbEntity
  8
0
 62
     0
100
AcDbLine
 10
11.26062379949979
 20
13.25758628282255
 30
0.0
 11
9.525478085660836
 21
14.99273199666151
 31
0.0
  0
LINE
  5
466
330
3A4
100
AcDbEntity
  8
0
 62
     0
100
AcDbLine
 10
10.36259818739284
 20
13.25758628282255
 30
0.0
 11
9.525478085660836
 21
14.09470638455457
 31
0.0
  0
LINE
  5
467
330
3A4
100
AcDbEntity
  8
0
 62
     0
100
AcDbLine
 10
66.34216537032779
 20
13.27071805994012
 30
0.0
 11
66.73734630854358
 21
13.66589899815591
 31
0.0
  0
LINE
  5
468
330
3A4
100
AcDbEntity
  8
0
 62
     0
100
AcDbLine
 10
65.43100798110334
 20
13.2575862828225
 30
0.0
 11
66.75047808566103
 21
14.57705638738019
 31
0.0
  0
LINE
  5
469
330
3A4
100
AcDbEntity
  8
0
 62
     0
100
AcDbLine
 10
64.53298236899644
 20
13.2575862828225
 30
0.0
 11
66.75047808566103
 21
15.47508199948708
 31
0.0
  0
LINE
  5
46A
330
3A4
100
AcDbEntity
  8
0
 62
     0
100
AcDbLine
 10
63.9816756489127
 20
13.6043051748457
 30
0.0
 11
66.75047808566097
 21
16.37310761159403
 31
0.0
  0
LINE
  5
46B
330
3A4
100
AcDbEntity
  8
0
 62
     0
100
AcDbLine
 10
63.9504780856609
 20
14.47113322370086
 30
0.0
 11
66.75047808566097
 21
17.27113322370087
 31
0.0
  0
LINE
  5
46C
330
3A4
100
AcDbEntity
  8
0
 62
     0
100
AcDbLine
 10
63.95047808566096
 20
15.36915883580775
 30
0.0
 11
66.75047808566097
 21
18.16915883580782
 31
0.0
  0
LINE
  5
46D
330
3A4
100
AcDbEntity
  8
0
 62
     0
100
AcDbLine
 10
63.9504780856609
 20
16.2671844479147
 30
0.0
 11
66.75047808566097
 21
19.06718444791477
 31
0.0
  0
LINE
  5
46E
330
3A4
100
AcDbEntity
  8
0
 62
     0
100
AcDbLine
 10
63.9504780856609
 20
17.16521006002159
 30
0.0
 11
66.75047808566097
 21
19.96521006002166
 31
0.0
  0
LINE
  5
46F
330
3A4
100
AcDbEntity
  8
0
 62
     0
100
AcDbLine
 10
60.37704294772618
 20
13.59177492208686
 30
0.0
 11
61.51628944639674
 21
14.73102142075748
 31
0.0
  0
LINE
  5
470
330
3A4
100
AcDbEntity
  8
0
 62
     0
100
AcDbLine
 10
63.9504780856609
 20
18.06323567212848
 30
0.0
 11
66.75047808566097
 21
20.86323567212855
 31
0.0
  0
LINE
  5
471
330
3A4
100
AcDbEntity
  8
0
 62
     0
100
AcDbLine
 10
59.14647478120338
 20
13.25923236767096
 30
0.0
 11
61.8488320008127
 21
15.96158958728023
 31
0.0
  0
LINE
  5
472
330
3A4
100
AcDbEntity
  8
0
 62
     0
100
AcDbLine
 10
63.9504780856609
 20
18.96126128423543
 30
0.0
 11
66.75047808566097
 21
21.76126128423544
 31
0.0
  0
LINE
  5
473
330
3A4
100
AcDbEntity
  8
0
 62
     0
100
AcDbLine
 10
58.24680308424797
 20
13.2575862828225
 30
0.0
 11
61.850478085661
 21
16.86126128423546
 31
0.0
  0
LINE
  5
474
330
3A4
100
AcDbEntity
  8
0
 62
     0
100
AcDbLine
 10
63.9504780856609
 20
19.85928689634232
 30
0.0
 11
66.75047808566091
 21
22.65928689634239
 31
0.0
  0
LINE
  5
475
330
3A4
100
AcDbEntity
  8
0
 62
     0
100
AcDbLine
 10
57.34877747214108
 20
13.2575862828225
 30
0.0
 11
61.85047808566094
 21
17.75928689634241
 31
0.0
  0
LINE
  5
476
330
3A4
100
AcDbEntity
  8
0
 62
     0
100
AcDbLine
 10
63.9504780856609
 20
20.75731250844921
 30
0.0
 11
66.75047808566097
 21
23.55731250844928
 31
0.0
  0
LINE
  5
477
330
3A4
100
AcDbEntity
  8
0
 62
     0
100
AcDbLine
 10
56.45075186003424
 20
13.25758628282255
 30
0.0
 11
61.850478085661
 21
18.6573125084493
 31
0.0
  0
LINE
  5
478
330
3A4
100
AcDbEntity
  8
0
 62
     0
100
AcDbLine
 10
58.94588688357988
 20
16.65074691847513
 30
0.0
 11
61.850478085661
 21
19.5553381205562
 31
0.0
  0
LINE
  5
479
330
3A4
100
AcDbEntity
  8
0
 62
     0
100
AcDbLine
 10
63.9504780856609
 20
21.65533812055611
 30
0.0
 11
66.75047808566097
 21
24.45533812055618
 31
0.0
  0
LINE
  5
47A
330
3A4
100
AcDbEntity
  8
0
 62
     0
100
AcDbLine
 10
55.55272624792724
 20
13.2575862828225
 30
0.0
 11
58.45731745000836
 21
16.16217748490356
 31
0.0
  0
LINE
  5
47B
330
3A4
100
AcDbEntity
  8
0
 62
     0
100
AcDbLine
 10
59.05047808566087
 20
17.65336373266308
 30
0.0
 11
61.85047808566094
 21
20.45336373266315
 31
0.0
  0
LINE
  5
47C
330
3A4
100
AcDbEntity
  8
0
 62
     0
100
AcDbLine
 10
63.95047808566085
 20
22.55336373266306
 30
0.0
 11
66.75047808566091
 21
25.35336373266313
 31
0.0
  0
LINE
  5
47D
330
3A4
100
AcDbEntity
  8
0
 62
     0
100
AcDbLine
 10
54.76665038719755
 20
13.36953603419971
 30
0.0
 11
57.45470063582041
 21
16.05758628282257
 31
0.0
  0
LINE
  5
47E
330
3A4
100
AcDbEntity
  8
0
 62
     0
100
AcDbLine
 10
59.05047808566092
 20
18.55138934477008
 30
0.0
 11
61.85047808566094
 21
21.35138934477004
 31
0.0
  0
LINE
  5
47F
330
3A4
100
AcDbEntity
  8
0
 62
     0
100
AcDbLine
 10
63.95047808566085
 20
23.45138934477
 30
0.0
 11
66.75047808566091
 21
26.25138934477002
 31
0.0
  0
LINE
  5
480
330
3A4
100
AcDbEntity
  8
0
 62
     0
100
AcDbLine
 10
54.1386635199874
 20
13.63957477909656
 30
0.0
 11
56.55755280935784
 21
16.058464068467
 31
0.0
  0
LINE
  5
481
330
3A4
100
AcDbEntity
  8
0
 62
     0
100
AcDbLine
 10
59.05047808566099
 20
19.44941495687698
 30
0.0
 11
61.85047808566094
 21
22.24941495687693
 31
0.0
  0
LINE
  5
482
330
3A4
100
AcDbEntity
  8
0
 62
     0
100
AcDbLine
 10
63.9504780856609
 20
24.34941495687684
 30
0.0
 11
66.75047808566091
 21
27.14941495687691
 31
0.0
  0
LINE
  5
483
330
3A4
100
AcDbEntity
  8
0
 62
     0
100
AcDbLine
 10
53.62540363862234
 20
14.02434050983828
 30
0.0
 11
55.91407422064515
 21
16.31301109186114
 31
0.0
  0
LINE
  5
484
330
3A4
100
AcDbEntity
  8
0
 62
     0
100
AcDbLine
 10
59.05047808566099
 20
20.34744056898387
 30
0.0
 11
61.85047808566094
 21
23.14744056898388
 31
0.0
  0
LINE
  5
485
330
3A4
100
AcDbEntity
  8
0
 62
     0
100
AcDbLine
 10
63.95047808566085
 20
25.24744056898379
 30
0.0
 11
66.75047808566091
 21
28.04744056898385
 31
0.0
  0
LINE
  5
486
330
3A4
100
AcDbEntity
  8
0
 62
     0
100
AcDbLine
 10
53.21543946339722
 20
14.5124019467201
 30
0.0
 11
55.57683594223573
 21
16.87379842555867
 31
0.0
  0
LINE
  5
487
330
3A4
100
AcDbEntity
  8
0
 62
     0
100
AcDbLine
 10
59.05047808566092
 20
21.24546618109082
 30
0.0
 11
61.850478085661
 21
24.04546618109089
 31
0.0
  0
LINE
  5
488
330
3A4
100
AcDbEntity
  8
0
 62
     0
100
AcDbLine
 10
63.95047808566085
 20
26.14546618109068
 30
0.0
 11
66.74032893211045
 21
28.93531702754035
 31
0.0
  0
LINE
  5
489
330
3A4
100
AcDbEntity
  8
0
 62
     0
100
AcDbLine
 10
52.91551458496321
 20
15.11050268039309
 30
0.0
 11
55.55047808566093
 21
17.74546618109076
 31
0.0
  0
LINE
  5
48A
330
3A4
100
AcDbEntity
  8
0
 62
     0
100
AcDbLine
 10
59.05047808566099
 20
22.14349179319765
 30
0.0
 11
61.85047808566105
 21
24.94349179319772
 31
0.0
  0
LINE
  5
48B
330
3A4
100
AcDbEntity
  8
0
 62
     0
100
AcDbLine
 10
63.95047808566085
 20
27.04349179319757
 30
0.0
 11
66.26321458703097
 21
29.3562282945677
 31
0.0
  0
LINE
  5
48C
330
3A4
100
AcDbEntity
  8
0
 62
     0
100
AcDbLine
 10
52.75810105000676
 20
15.85111475754348
 30
0.0
 11
55.55047808566093
 21
18.64349179319765
 31
0.0
  0
LINE
  5
48D
330
3A4
100
AcDbEntity
  8
0
 62
     0
100
AcDbLine
 10
59.05047808566092
 20
23.0415174053046
 30
0.0
 11
61.850478085661
 21
25.84151740530467
 31
0.0
  0
LINE
  5
48E
330
3A4
100
AcDbEntity
  8
0
 62
     0
100
AcDbLine
 10
63.9504780856609
 20
27.94151740530458
 30
0.0
 11
65.3665469631789
 21
29.35758628282258
 31
0.0
  0
LINE
  5
48F
330
3A4
100
AcDbEntity
  8
0
 62
     0
100
AcDbLine
 10
52.75047808566097
 20
16.74151740530459
 30
0.0
 11
55.55047808566098
 21
19.54151740530465
 31
0.0
  0
LINE
  5
490
330
3A4
100
AcDbEntity
  8
0
 62
     0
100
AcDbLine
 10
59.05047808566092
 20
23.93954301741155
 30
0.0
 11
61.850478085661
 21
26.73954301741156
 31
0.0
  0
LINE
  5
491
330
3A4
100
AcDbEntity
  8
0
 62
     0
100
AcDbLine
 10
52.75047808566092
 20
17.63954301741154
 30
0.0
 11
55.55047808566098
 21
20.4395430174116
 31
0.0
  0
LINE
  5
492
330
3A4
100
AcDbEntity
  8
0
 62
     0
100
AcDbLine
 10
63.95052480040835
 20
28.83958973215897
 30
0.0
 11
64.46847463632463
 21
29.3575395680752
 31
0.0
  0
LINE
  5
493
330
3A4
100
AcDbEntity
  8
0
 62
     0
100
AcDbLine
 10
48.42892245494891
 20
13.31798738669948
 30
0.0
 11
50.59007698178408
 21
15.4791419135347
 31
0.0
  0
LINE
  5
494
330
3A4
100
AcDbEntity
  8
0
 62
     0
100
AcDbLine
 10
52.75047808566092
 20
18.53756862951843
 30
0.0
 11
55.55047808566098
 21
21.33756862951849
 31
0.0
  0
LINE
  5
495
330
3A4
100
AcDbEntity
  8
0
 62
     0
100
AcDbLine
 10
59.05047808566092
 20
24.83756862951844
 30
0.0
 11
61.85047808566094
 21
27.63756862951851
 31
0.0
  0
LINE
  5
496
330
3A4
100
AcDbEntity
  8
0
 62
     0
100
AcDbLine
 10
47.47049573896504
 20
13.25758628282261
 30
0.0
 11
50.65047808566089
 21
16.43756862951846
 31
0.0
  0
LINE
  5
497
330
3A4
100
AcDbEntity
  8
0
 62
     0
100
AcDbLine
 10
52.75047808566092
 20
19.43559424162532
 30
0.0
 11
55.55047808566098
 21
22.23559424162539
 31
0.0
  0
LINE
  5
498
330
3A4
100
AcDbEntity
  8
0
 62
     0
100
AcDbLine
 10
59.05047808566092
 20
25.73559424162533
 30
0.0
 11
61.850478085661
 21
28.5355942416254
 31
0.0
  0
LINE
  5
499
330
3A4
100
AcDbEntity
  8
0
 62
     0
100
AcDbLine
 10
46.57247012685814
 20
13.25758628282255
 30
0.0
 11
50.65047808566095
 21
17.3355942416253
 31
0.0
  0
LINE
  5
49A
330
3A4
100
AcDbEntity
  8
0
 62
     0
100
AcDbLine
 10
52.75047808566092
 20
20.33361985373227
 30
0.0
 11
55.55047808566098
 21
23.13361985373228
 31
0.0
  0
LINE
  5
49B
330
3A4
100
AcDbEntity
  8
0
 62
     0
100
AcDbLine
 10
59.05047808566092
 20
26.63361985373223
 30
0.0
 11
61.65674063082684
 21
29.2398823988982
 31
0.0
  0
LINE
  5
49C
330
3A4
100
AcDbEntity
  8
0
 62
     0
100
AcDbLine
 10
45.67444451475125
 20
13.25758628282261
 30
0.0
 11
50.63615948524807
 21
18.21930125331937
 31
0.0
  0
LINE
  5
49D
330
3A4
100
AcDbEntity
  8
0
 62
     0
100
AcDbLine
 10
52.75047808566092
 20
21.23164546583916
 30
0.0
 11
55.55047808566093
 21
24.03164546583923
 31
0.0
  0
LINE
  5
49E
330
3A4
100
AcDbEntity
  8
0
 62
     0
100
AcDbLine
 10
59.05047808566087
 20
27.53164546583917
 30
0.0
 11
60.87641890264433
 21
29.35758628282263
 31
0.0
  0
LINE
  5
49F
330
3A4
100
AcDbEntity
  8
0
 62
     0
100
AcDbLine
 10
44.77641890264431
 20
13.25758628282261
 30
0.0
 11
50.50124711461927
 21
18.98241449479758
 31
0.0
  0
LINE
  5
4A0
330
3A4
100
AcDbEntity
  8
0
 62
     0
100
AcDbLine
 10
52.75047808566092
 20
22.12967107794605
 30
0.0
 11
55.55047808566098
 21
24.92967107794612
 31
0.0
  0
LINE
  5
4A1
330
3A4
100
AcDbEntity
  8
0
 62
     0
100
AcDbLine
 10
47.85047808566105
 20
17.22967107794613
 30
0.0
 11
50.26065965770072
 21
19.63985264998586
 31
0.0
  0
LINE
  5
4A2
330
3A4
100
AcDbEntity
  8
0
 62
     0
100
AcDbLine
 10
59.05047808566092
 20
28.42967107794606
 30
0.0
 11
59.9783932905375
 21
29.35758628282263
 31
0.0
  0
LINE
  5
4A3
330
3A4
100
AcDbEntity
  8
0
 62
     0
100
AcDbLine
 10
44.00664864366854
 20
13.38584163595368
 30
0.0
 11
46.67839329053743
 21
16.05758628282257
 31
0.0
  0
LINE
  5
4A4
330
3A4
100
AcDbEntity
  8
0
 62
     0
100
AcDbLine
 10
47.83060751053364
 20
18.10782611492567
 30
0.0
 11
49.93716035284013
 21
20.21437895723215
 31
0.0
  0
LINE
  5
4A5
330
3A4
100
AcDbEntity
  8
0
 62
     0
100
AcDbLine
 10
52.75047808566092
 20
23.02769669005294
 30
0.0
 11
55.55047808566093
 21
25.82769669005301
 31
0.0
  0
LINE
  5
4A6
330
3A4
100
AcDbEntity
  8
0
 62
     0
100
AcDbLine
 10
43.82547808566096
 20
14.10269669005299
 30
0.0
 11
45.78036767843047
 21
16.05758628282257
 31
0.0
  0
LINE
  5
4A7
330
3A4
100
AcDbEntity
  8
0
 62
     0
100
AcDbLine
 10
47.55622267339475
 20
18.73146688989379
 30
0.0
 11
49.54128923491231
 21
20.71653345141135
 31
0.0
  0
LINE
  5
4A8
330
3A4
100
AcDbEntity
  8
0
 62
     0
100
AcDbLine
 10
52.75047808566085
 20
23.92572230215989
 30
0.0
 11
55.55047808566093
 21
26.72572230215996
 31
0.0
  0
LINE
  5
4A9
330
3A4
100
AcDbEntity
  8
0
 62
     0
100
AcDbLine
 10
43.8254780856609
 20
15.00072230215994
 30
0.0
 11
44.88234206632358
 21
16.05758628282262
 31
0.0
  0
LINE
  5
4AA
330
3A4
100
AcDbEntity
  8
0
 62
     0
100
AcDbLine
 10
52.75047808566092
 20
24.82374791426678
 30
0.0
 11
55.55047808566098
 21
27.6237479142668
 31
0.0
  0
LINE
  5
4AB
330
3A4
100
AcDbEntity
  8
0
 62
     0
100
AcDbLine
 10
47.11494777627769
 20
19.1882176048835
 30
0.0
 11
49.09484676360006
 21
21.16811659220593
 31
0.0
  0
LINE
  5
4AC
330
3A4
100
AcDbEntity
  8
0
 62
     0
100
AcDbLine
 10
46.66593497022421
 20
19.63723041093698
 30
0.0
 11
48.64583395754658
 21
21.6171293982594
 31
0.0
  0
LINE
  5
4AD
330
3A4
100
AcDbEntity
  8
0
 62
     0
100
AcDbLine
 10
52.75047808566085
 20
25.72177352637368
 30
0.0
 11
55.55047808566093
 21
28.52177352637374
 31
0.0
  0
LINE
  5
4AE
330
3A4
100
AcDbEntity
  8
0
 62
     0
100
AcDbLine
 10
40.28629084210973
 20
13.25758628282255
 30
0.0
 11
41.2004780856609
 21
14.17177352637366
 31
0.0
  0
LINE
  5
4AF
330
3A4
100
AcDbEntity
  8
0
 62
     0
100
AcDbLine
 10
46.21692216417073
 20
20.08624321699045
 30
0.0
 11
48.19682115149311
 21
22.06614220431288
 31
0.0
  0
LINE
  5
4B0
330
3A4
100
AcDbEntity
  8
0
 62
     0
100
AcDbLine
 10
52.75047808566085
 20
26.61979913848063
 30
0.0
 11
55.36429717756226
 21
29.23361823038197
 31
0.0
  0
LINE
  5
4B1
330
3A4
100
AcDbEntity
  8
0
 62
     0
100
AcDbLine
 10
39.38826523000278
 20
13.25758628282255
 30
0.0
 11
41.20047808566096
 21
15.06979913848067
 31
0.0
  0
LINE
  5
4B2
330
3A4
100
AcDbEntity
  8
0
 62
     0
100
AcDbLine
 10
45.76790935811726
 20
20.53525602304393
 30
0.0
 11
47.74780834543963
 21
22.51515501036635
 31
0.0
  0
LINE
  5
4B3
330
3A4
100
AcDbEntity
  8
0
 62
     0
100
AcDbLine
 10
52.75047808566085
 20
27.51782475058752
 30
0.0
 11
54.59023961789597
 21
29.35758628282269
 31
0.0
  0
LINE
  5
4B4
330
3A4
100
AcDbEntity
  8
0
 62
     0
100
AcDbLine
 10
38.60185075575788
 20
13.36919742068454
 30
0.0
 11
41.2004780856609
 21
15.96782475058762
 31
0.0
  0
LINE
  5
4B5
330
3A4
100
AcDbEntity
  8
0
 62
     0
100
AcDbLine
 10
45.31889655206384
 20
20.98426882909734
 30
0.0
 11
47.29879553938622
 21
22.96416781641977
 31
0.0
  0
LINE
  5
4B6
330
3A4
100
AcDbEntity
  8
0
 62
     0
100
AcDbLine
 10
52.75047808566085
 20
28.41585036269441
 30
0.0
 11
53.69221400578914
 21
29.35758628282263
 31
0.0
  0
LINE
  5
4B7
330
3A4
100
AcDbEntity
  8
0
 62
     0
100
AcDbLine
 10
38.40047808566095
 20
14.0658503626945
 30
0.0
 11
41.20047808566096
 21
16.86585036269446
 31
0.0
  0
LINE
  5
4B8
330
3A4
100
AcDbEntity
  8
0
 62
     0
100
AcDbLine
 10
44.86988374601037
 20
21.43328163515082
 30
0.0
 11
46.84978273333274
 21
23.41318062247324
 31
0.0
  0
LINE
  5
4B9
330
3A4
100
AcDbEntity
  8
0
 62
     0
100
AcDbLine
 10
38.40047808566095
 20
14.96387597480145
 30
0.0
 11
41.2004780856609
 21
17.7638759748014
 31
0.0
  0
LINE
  5
4BA
330
3A4
100
AcDbEntity
  8
0
 62
     0
100
AcDbLine
 10
44.42289984496904
 20
21.88432334621649
 30
0.0
 11
46.40687337835106
 21
23.86829687959846
 31
0.0
  0
LINE
  5
4BB
330
3A4
100
AcDbEntity
  8
0
 62
     0
100
AcDbLine
 10
38.40047808566095
 20
15.86190158690834
 30
0.0
 11
41.2004780856609
 21
18.66190158690835
 31
0.0
  0
LINE
  5
4BC
330
3A4
100
AcDbEntity
  8
0
 62
     0
100
AcDbLine
 10
49.09616278157511
 20
26.55758628282256
 30
0.0
 11
50.12547808566097
 21
27.58690158690837
 31
0.0
  0
LINE
  5
4BD
330
3A4
100
AcDbEntity
  8
0
 62
     0
100
AcDbLine
 10
35.90782186095072
 20
13.36924536219811
 30
0.0
 11
35.99747422240574
 21
13.45889772365319
 31
0.0
  0
LINE
  5
4BE
330
3A4
100
AcDbEntity
  8
0
 62
     0
100
AcDbLine
 10
44.02489766614706
 20
22.38434677950135
 30
0.0
 11
46.12453194356567
 21
24.48398105691996
 31
0.0
  0
LINE
  5
4BF
330
3A4
100
AcDbEntity
  8
0
 62
     0
100
AcDbLine
 10
38.40047808566095
 20
16.75992719901523
 30
0.0
 11
41.20047808566096
 21
19.55992719901519
 31
0.0
  0
LINE
  5
4C0
330
3A4
100
AcDbEntity
  8
0
 62
     0
100
AcDbLine
 10
48.19813716946834
 20
26.55758628282262
 30
0.0
 11
50.12547808566097
 21
28.48492719901526
 31
0.0
  0
LINE
  5
4C1
330
3A4
100
AcDbEntity
  8
0
 62
     0
100
AcDbLine
 10
34.89813716946827
 20
13.25758628282255
 30
0.0
 11
35.9639162657748
 21
14.32336537912908
 31
0.0
  0
LINE
  5
4C2
330
3A4
100
AcDbEntity
  8
0
 62
     0
100
AcDbLine
 10
43.69906340175037
 20
22.95653812721161
 30
0.0
 11
46.10047808566105
 21
25.35795281112228
 31
0.0
  0
LINE
  5
4C3
330
3A4
100
AcDbEntity
  8
0
 62
     0
100
AcDbLine
 10
38.40047808566095
 20
17.65795281112213
 30
0.0
 11
41.2004780856609
 21
20.45795281112213
 31
0.0
  0
LINE
  5
4C4
330
3A4
100
AcDbEntity
  8
0
 62
     0
100
AcDbLine
 10
47.30011155736133
 20
26.55758628282256
 30
0.0
 11
49.95880915386305
 21
29.21628387932429
 31
0.0
  0
LINE
  5
4C5
330
3A4
100
AcDbEntity
  8
0
 62
     0
100
AcDbLine
 10
34.00011155736126
 20
13.2575862828225
 30
0.0
 11
35.74839011886911
 21
15.00586484433034
 31
0.0
  0
LINE
  5
4C6
330
3A4
100
AcDbEntity
  8
0
 62
     0
100
AcDbLine
 10
38.40047808566089
 20
18.55597842322907
 30
0.0
 11
41.2004780856609
 21
21.35597842322903
 31
0.0
  0
LINE
  5
4C7
330
3A4
100
AcDbEntity
  8
0
 62
     0
100
AcDbLine
 10
43.45568133908028
 20
23.61118167664847
 30
0.0
 11
49.20208594525445
 21
29.35758628282263
 31
0.0
  0
LINE
  5
4C8
330
3A4
100
AcDbEntity
  8
0
 62
     0
100
AcDbLine
 10
33.40809724670629
 20
13.56359758427447
 30
0.0
 11
35.53286397196342
 21
15.6883643095316
 31
0.0
  0
LINE
  5
4C9
330
3A4
100
AcDbEntity
  8
0
 62
     0
100
AcDbLine
 10
38.40047808566089
 20
19.45400403533602
 30
0.0
 11
41.20047808566084
 21
22.25400403533598
 31
0.0
  0
LINE
  5
4CA
330
3A4
100
AcDbEntity
  8
0
 62
     0
100
AcDbLine
 10
43.31697447999459
 20
24.37050042966973
 30
0.0
 11
48.30406033314756
 21
29.35758628282263
 31
0.0
  0
LINE
  5
4CB
330
3A4
100
AcDbEntity
  8
0
 62
     0
100
AcDbLine
 10
33.18933782505769
 20
14.24286377473282
 30
0.0
 11
35.31733782505773
 21
16.37086377473286
 31
0.0
  0
LINE
  5
4CC
330
3A4
100
AcDbEntity
  8
0
 62
     0
100
AcDbLine
 10
38.40047808566095
 20
20.35202964744286
 30
0.0
 11
41.2004780856609
 21
23.15202964744287
 31
0.0
  0
LINE
  5
4CD
330
3A4
100
AcDbEntity
  8
0
 62
     0
100
AcDbLine
 10
43.30047808566092
 20
25.25202964744284
 30
0.0
 11
47.40603472104067
 21
29.35758628282263
 31
0.0
  0
LINE
  5
4CE
330
3A4
100
AcDbEntity
  8
0
 62
     0
100
AcDbLine
 10
32.97381167815206
 20
14.92536323993403
 30
0.0
 11
35.10181167815216
 21
17.05336323993407
 31
0.0
  0
LINE
  5
4CF
330
3A4
100
AcDbEntity
  8
0
 62
     0
100
AcDbLine
 10
38.40047808566089
 20
21.25005525954981
 30
0.0
 11
41.2004780856609
 21
24.05005525954976
 31
0.0
  0
LINE
  5
4D0
330
3A4
100
AcDbEntity
  8
0
 62
     0
100
AcDbLine
 10
43.30047808566098
 20
26.15005525954984
 30
0.0
 11
46.50800910893377
 21
29.35758628282263
 31
0.0
  0
LINE
  5
4D1
330
3A4
100
AcDbEntity
  8
0
 62
     0
100
AcDbLine
 10
32.75828553124631
 20
15.60786270513523
 30
0.0
 11
34.88628553124653
 21
17.73586270513544
 31
0.0
  0
LINE
  5
4D2
330
3A4
100
AcDbEntity
  8
0
 62
     0
100
AcDbLine
 10
38.40047808566089
 20
22.1480808716567
 30
0.0
 11
41.20047808566096
 21
24.94808087165677
 31
0.0
  0
LINE
  5
4D3
330
3A4
100
AcDbEntity
  8
0
 62
     0
100
AcDbLine
 10
32.54275938434068
 20
16.29036217033655
 30
0.0
 11
34.67075938434078
 21
18.41836217033659
 31
0.0
  0
LINE
  5
4D4
330
3A4
100
AcDbEntity
  8
0
 62
     0
100
AcDbLine
 10
43.35379475578213
 20
27.101397541778
 30
0.0
 11
45.55666682670545
 21
29.30426961270132
 31
0.0
  0
LINE
  5
4D5
330
3A4
100
AcDbEntity
  8
0
 62
     0
100
AcDbLine
 10
29.50998349682669
 20
13.25758628282255
 30
0.0
 11
30.35047808566088
 21
14.09808087165674
 31
0.0
  0
LINE
  5
4D6
330
3A4
100
AcDbEntity
  8
0
 62
     0
100
AcDbLine
 10
32.32723323743511
 20
16.97286163553775
 30
0.0
 11
34.45523323743515
 21
19.10086163553785
 31
0.0
  0
LINE
  5
4D7
330
3A4
100
AcDbEntity
  8
0
 62
     0
100
AcDbLine
 10
38.40047808566089
 20
23.04610648376359
 30
0.0
 11
41.20047808566096
 21
25.84610648376366
 31
0.0
  0
LINE
  5
4D8
330
3A4
100
AcDbEntity
  8
0
 62
     0
100
AcDbLine
 10
28.61195788471985
 20
13.2575862828225
 30
0.0
 11
30.35047808566094
 21
14.99610648376363
 31
0.0
  0
LINE
  5
4D9
330
3A4
100
AcDbEntity
  8
0
 62
     0
100
AcDbLine
 10
32.11170709052942
 20
17.65536110073901
 30
0.0
 11
34.23970709052946
 21
19.78336110073911
 31
0.0
  0
LINE
  5
4DA
330
3A4
100
AcDbEntity
  8
0
 62
     0
100
AcDbLine
 10
38.40047808566089
 20
23.94413209587054
 30
0.0
 11
41.20047808566096
 21
26.74413209587055
 31
0.0
  0
LINE
  5
4DB
330
3A4
100
AcDbEntity
  8
0
 62
     0
100
AcDbLine
 10
27.7950820202642
 20
13.33873603047385
 30
0.0
 11
30.35047808566094
 21
15.89413209587053
 31
0.0
  0
LINE
  5
4DC
330
3A4
100
AcDbEntity
  8
0
 62
     0
100
AcDbLine
 10
31.89618094362373
 20
18.33786056594027
 30
0.0
 11
34.02418094362377
 21
20.46586056594037
 31
0.0
  0
LINE
  5
4DD
330
3A4
100
AcDbEntity
  8
0
 62
     0
100
AcDbLine
 10
38.40047808566089
 20
24.84215770797743
 30
0.0
 11
41.2004780856609
 21
27.6421577079775
 31
0.0
  0
LINE
  5
4DE
330
3A4
100
AcDbEntity
  8
0
 62
     0
100
AcDbLine
 10
27.55047808566092
 20
13.99215770797747
 30
0.0
 11
30.35047808566099
 21
16.79215770797753
 31
0.0
  0
LINE
  5
4DF
330
3A4
100
AcDbEntity
  8
0
 62
     0
100
AcDbLine
 10
31.6806547967181
 20
19.02036003114147
 30
0.0
 11
33.80865479671825
 21
21.14836003114163
 31
0.0
  0
LINE
  5
4E0
330
3A4
100
AcDbEntity
  8
0
 62
     0
100
AcDbLine
 10
38.40047808566089
 20
25.74018332008432
 30
0.0
 11
41.20047808566096
 21
28.54018332008439
 31
0.0
  0
LINE
  5
4E1
330
3A4
100
AcDbEntity
  8
0
 62
     0
100
AcDbLine
 10
27.55047808566092
 20
14.89018332008436
 30
0.0
 11
30.35047808566099
 21
17.69018332008442
 31
0.0
  0
LINE
  5
4E2
330
3A4
100
AcDbEntity
  8
0
 62
     0
100
AcDbLine
 10
31.44585600974636
 20
19.68358685627674
 30
0.0
 11
34.07615007767736
 21
22.31388092420769
 31
0.0
  0
LINE
  5
4E3
330
3A4
100
AcDbEntity
  8
0
 62
     0
100
AcDbLine
 10
38.40047808566095
 20
26.63820893219133
 30
0.0
 11
41.00420266316251
 21
29.24193350969284
 31
0.0
  0
LINE
  5
4E4
330
3A4
100
AcDbEntity
  8
0
 62
     0
100
AcDbLine
 10
27.55047808566092
 20
15.7882089321913
 30
0.0
 11
30.35047808566099
 21
18.58820893219132
 31
0.0
  0
LINE
  5
4E5
330
3A4
100
AcDbEntity
  8
0
 62
     0
100
AcDbLine
 10
30.75867063987897
 20
19.8944270985163
 30
0.0
 11
34.49062343711125
 21
23.62637989574858
 31
0.0
  0
LINE
  5
4E6
330
3A4
100
AcDbEntity
  8
0
 62
     0
100
AcDbLine
 10
27.55047808566092
 20
16.6862345442982
 30
0.0
 11
30.36363726996722
 21
19.4993937286045
 31
0.0
  0
LINE
  5
4E7
330
3A4
100
AcDbEntity
  8
0
 62
     0
100
AcDbLine
 10
38.40047808566095
 20
27.53623454429822
 30
0.0
 11
40.2218298241853
 21
29.35758628282263
 31
0.0
  0
LINE
  5
4E8
330
3A4
100
AcDbEntity
  8
0
 62
     0
100
AcDbLine
 10
24.12182982418528
 20
13.25758628282255
 30
0.0
 11
25.10047808566094
 21
14.23623454429827
 31
0.0
  0
LINE
  5
4E9
330
3A4
100
AcDbEntity
  8
0
 62
     0
100
AcDbLine
 10
27.55047808566087
 20
17.58426015640515
 30
0.0
 11
34.90509679654519
 21
24.93887886728947
 31
0.0
  0
LINE
  5
4EA
330
3A4
100
AcDbEntity
  8
0
 62
     0
100
AcDbLine
 10
38.40047808566089
 20
28.43426015640517
 30
0.0
 11
39.3238042120783
 21
29.35758628282258
 31
0.0
  0
LINE
  5
4EB
330
3A4
100
AcDbEntity
  8
0
 62
     0
100
AcDbLine
 10
23.22380421207833
 20
13.25758628282261
 30
0.0
 11
25.10047808566099
 21
15.13426015640527
 31
0.0
  0
LINE
  5
4EC
330
3A4
100
AcDbEntity
  8
0
 62
     0
100
AcDbLine
 10
27.55047808566092
 20
18.48228576851198
 30
0.0
 11
35.3195701559793
 21
26.25137783883042
 31
0.0
  0
LINE
  5
4ED
330
3A4
100
AcDbEntity
  8
0
 62
     0
100
AcDbLine
 10
22.33745922432154
 20
13.26926690717266
 30
0.0
 11
24.95914380205476
 21
15.89095148490582
 31
0.0
  0
LINE
  5
4EE
330
3A4
100
AcDbEntity
  8
0
 62
     0
100
AcDbLine
 10
27.55047808566087
 20
19.38031138061893
 30
0.0
 11
30.87775298786453
 21
22.7075862828226
 31
0.0
  0
LINE
  5
4EF
330
3A4
100
AcDbEntity
  8
0
 62
     0
100
AcDbLine
 10
31.64173582310542
 20
23.47156911806348
 30
0.0
 11
35.73404351541324
 21
27.56387681037131
 31
0.0
  0
LINE
  5
4F0
330
3A4
100
AcDbEntity
  8
0
 62
     0
100
AcDbLine
 10
21.56929870687457
 20
13.39913200183258
 30
0.0
 11
24.2277529878645
 21
16.05758628282257
 31
0.0
  0
LINE
  5
4F1
330
3A4
100
AcDbEntity
  8
0
 62
     0
100
AcDbLine
 10
27.55047808566087
 20
20.27833699272588
 30
0.0
 11
30.3684686563692
 21
23.09632756343416
 31
0.0
  0
LINE
  5
4F2
330
3A4
100
AcDbEntity
  8
0
 62
     0
100
AcDbLine
 10
32.05620918253936
 20
24.78406808960432
 30
0.0
 11
36.10911496721456
 21
28.83697387427957
 31
0.0
  0
LINE
  5
4F3
330
3A4
100
AcDbEntity
  8
0
 62
     0
100
AcDbLine
 10
20.90816445004816
 20
13.63602335711317
 30
0.0
 11
23.32972737575761
 21
16.05758628282257
 31
0.0
  0
LINE
  5
4F4
330
3A4
100
AcDbEntity
  8
0
 62
     0
100
AcDbLine
 10
27.55047808566092
 20
21.17636260483271
 30
0.0
 11
30.35047808566094
 21
23.97636260483278
 31
0.0
  0
LINE
  5
4F5
330
3A4
100
AcDbEntity
  8
0
 62
     0
100
AcDbLine
 10
32.4706825419733
 20
26.09656706114515
 30
0.0
 11
35.71510309464537
 21
29.34098761381722
 31
0.0
  0
LINE
  5
4F6
330
3A4
100
AcDbEntity
  8
0
 62
     0
100
AcDbLine
 10
20.33056116588386
 20
13.95644568505565
 30
0.0
 11
22.44662302437672
 21
16.07250754354856
 31
0.0
  0
LINE
  5
4F7
330
3A4
100
AcDbEntity
  8
0
 62
     0
100
AcDbLine
 10
27.55047808566087
 20
22.07438821693966
 30
0.0
 11
30.35047808566094
 21
24.87438821693973
 31
0.0
  0
LINE
  5
4F8
330
3A4
100
AcDbEntity
  8
0
 62
     0
100
AcDbLine
 10
32.88515590140724
 20
27.40906603268598
 30
0.0
 11
34.83367615154378
 21
29.35758628282258
 31
0.0
  0
LINE
  5
4F9
330
3A4
100
AcDbEntity
  8
0
 62
     0
100
AcDbLine
 10
19.8256061995018
 20
14.34951633078054
 30
0.0
 11
21.81230688335841
 21
16.33621701463715
 31
0.0
  0
LINE
  5
4FA
330
3A4
100
AcDbEntity
  8
0
 62
     0
100
AcDbLine
 10
27.55047808566087
 20
22.97241382904656
 30
0.0
 11
30.35047808566094
 21
25.77241382904662
 31
0.0
  0
LINE
  5
4FB
330
3A4
100
AcDbEntity
  8
0
 62
     0
100
AcDbLine
 10
24.21211221743738
 20
19.63404796082312
 30
0.0
 11
25.37401640766046
 21
20.79595215104621
 31
0.0
  0
LINE
  5
4FC
330
3A4
100
AcDbEntity
  8
0
 62
     0
100
AcDbLine
 10
33.29962926084113
 20
28.72156500422687
 30
0.0
 11
33.93565053943683
 21
29.35758628282258
 31
0.0
  0
LINE
  5
4FD
330
3A4
100
AcDbEntity
  8
0
 62
     0
100
AcDbLine
 10
19.38916912617196
 20
14.8111048695577
 30
0.0
 11
21.40205593208623
 21
16.82399167547197
 31
0.0
  0
LINE
  5
4FE
330
3A4
100
AcDbEntity
  8
0
 62
     0
100
AcDbLine
 10
23.28713937580755
 20
19.60710073130025
 30
0.0
 11
25.40096363718333
 21
21.72092499267597
 31
0.0
  0
LINE
  5
4FF
330
3A4
100
AcDbEntity
  8
0
 62
     0
100
AcDbLine
 10
27.55047808566092
 20
23.87043944115356
 30
0.0
 11
30.35047808566099
 21
26.67043944115363
 31
0.0
  0
LINE
  5
500
330
3A4
100
AcDbEntity
  8
0
 62
     0
100
AcDbLine
 10
19.02214990122899
 20
15.34211125672163
 30
0.0
 11
21.25047808566091
 21
17.57043944115361
 31
0.0
  0
LINE
  5
501
330
3A4
100
AcDbEntity
  8
0
 62
     0
100
AcDbLine
 10
22.67299280638735
 20
19.89097977398682
 30
0.0
 11
25.1170845944967
 21
22.33507156209623
 31
0.0
  0
LINE
  5
502
330
3A4
100
AcDbEntity
  8
0
 62
     0
100
AcDbLine
 10
27.55047808566092
 20
24.76846505326045
 30
0.0
 11
30.35047808566099
 21
27.56846505326052
 31
0.0
  0
LINE
  5
503
330
3A4
100
AcDbEntity
  8
0
 62
     0
100
AcDbLine
 10
18.73083239130426
 20
15.94881935890379
 30
0.0
 11
21.25047808566091
 21
18.46846505326044
 31
0.0
  0
LINE
  5
504
330
3A4
100
AcDbEntity
  8
0
 62
     0
100
AcDbLine
 10
22.23503287939763
 20
20.35104545910411
 30
0.0
 11
24.65701890937947
 21
22.77303148908589
 31
0.0
  0
LINE
  5
505
330
3A4
100
AcDbEntity
  8
0
 62
     0
100
AcDbLine
 10
27.55047808566092
 20
25.6664906653674
 30
0.0
 11
30.35047808566099
 21
28.46649066536741
 31
0.0
  0
LINE
  5
506
330
3A4
100
AcDbEntity
  8
0
 62
     0
100
AcDbLine
 10
18.5296950271296
 20
16.64570760683608
 30
0.0
 11
21.25047808566091
 21
19.36649066536739
 31
0.0
  0
LINE
  5
507
330
3A4
100
AcDbEntity
  8
0
 62
     0
100
AcDbLine
 10
21.97898214698926
 20
20.99302033880263
 30
0.0
 11
24.01504402968089
 21
23.02908222149432
 31
0.0
  0
LINE
  5
508
330
3A4
100
AcDbEntity
  8
0
 62
     0
100
AcDbLine
 10
18.45047808566084
 20
17.46451627747427
 30
0.0
 11
21.25047808566091
 21
20.26451627747428
 31
0.0
  0
LINE
  5
509
330
3A4
100
AcDbEntity
  8
0
 62
     0
100
AcDbLine
 10
27.55047808566092
 20
26.56451627747429
 30
0.0
 11
30.1932279773058
 21
29.20726616911924
 31
0.0
  0
LINE
  5
50A
330
3A4
100
AcDbEntity
  8
0
 62
     0
100
AcDbLine
 10
14.36448132778525
 20
13.37851951959868
 30
0.0
 11
16.22954484888498
 21
15.24358304069841
 31
0.0
  0
LINE
  5
50B
330
3A4
100
AcDbEntity
  8
0
 62
     0
100
AcDbLine
 10
22.09739523047005
 20
22.00945903439031
 30
0.0
 11
22.99860533409327
 21
22.91066913801353
 31
0.0
  0
LINE
  5
50C
330
3A4
100
AcDbEntity
  8
0
 62
     0
100
AcDbLine
 10
18.45047808566084
 20
18.3625418895811
 30
0.0
 11
21.25047808566091
 21
21.16254188958117
 31
0.0
  0
LINE
  5
50D
330
3A4
100
AcDbEntity
  8
0
 62
     0
100
AcDbLine
 10
27.55047808566092
 20
27.46254188958118
 30
0.0
 11
29.44552247890232
 21
29.35758628282258
 31
0.0
  0
LINE
  5
50E
330
3A4
100
AcDbEntity
  8
0
 62
     0
100
AcDbLine
 10
13.34552247890229
 20
13.25758628282255
 30
0.0
 11
16.35047808566105
 21
16.26254188958125
 31
0.0
  0
LINE
  5
50F
330
3A4
100
AcDbEntity
  8
0
 62
     0
100
AcDbLine
 10
18.45047808566084
 20
19.26056750168805
 30
0.0
 11
21.25047808566091
 21
22.06056750168812
 31
0.0
  0
LINE
  5
510
330
3A4
100
AcDbEntity
  8
0
 62
     0
100
AcDbLine
 10
27.55047808566092
 20
28.36056750168808
 30
0.0
 11
28.54749686679543
 21
29.35758628282263
 31
0.0
  0
LINE
  5
511
330
3A4
100
AcDbEntity
  8
0
 62
     0
100
AcDbLine
 10
12.44749686679529
 20
13.2575862828225
 30
0.0
 11
16.35047808566099
 21
17.1605675016882
 31
0.0
  0
LINE
  5
512
330
3A4
100
AcDbEntity
  8
0
 62
     0
100
AcDbLine
 10
18.45047808566084
 20
20.15859311379494
 30
0.0
 11
21.25047808566085
 21
22.95859311379501
 31
0.0
  0
LINE
  5
513
330
3A4
100
AcDbEntity
  8
0
 62
     0
100
AcDbLine
 10
11.54947125468845
 20
13.25758628282261
 30
0.0
 11
16.34653873309974
 21
18.0546537612339
 31
0.0
  0
LINE
  5
514
330
3A4
100
AcDbEntity
  8
0
 62
     0
100
AcDbLine
 10
18.45047808566084
 20
21.05661872590189
 30
0.0
 11
21.25047808566091
 21
23.85661872590196
 31
0.0
  0
LINE
  5
515
330
3A4
100
AcDbEntity
  8
0
 62
     0
100
AcDbLine
 10
23.95144564258163
 20
26.55758628282268
 30
0.0
 11
25.10047808566105
 21
27.7066187259021
 31
0.0
  0
LINE
  5
516
330
3A4
100
AcDbEntity
  8
0
 62
     0
100
AcDbLine
 10
10.6514456425815
 20
13.25758628282255
 30
0.0
 11
16.23687689677842
 21
18.84301753701947
 31
0.0
  0
LINE
  5
517
330
3A4
100
AcDbEntity
  8
0
 62
     0
100
AcDbLine
 10
18.45047808566084
 20
21.95464433800879
 30
0.0
 11
21.25047808566091
 21
24.7546443380088
 31
0.0
  0
LINE
  5
518
330
3A4
100
AcDbEntity
  8
0
 62
     0
100
AcDbLine
 10
13.55047808566092
 20
17.05464433800887
 30
0.0
 11
16.0145381527343
 21
19.51870440508224
 31
0.0
  0
LINE
  5
519
330
3A4
100
AcDbEntity
  8
0
 62
     0
100
AcDbLine
 10
23.05342003047462
 20
26.55758628282256
 30
0.0
 11
25.10047808566105
 21
28.60464433800894
 31
0.0
  0
LINE
  5
51A
330
3A4
100
AcDbEntity
  8
0
 62
     0
100
AcDbLine
 10
9.811145905734576
 20
13.31531215808252
 30
0.0
 11
12.55342003047462
 21
16.05758628282257
 31
0.0
  0
LINE
  5
51B
330
3A4
100
AcDbEntity
  8
0
 62
     0
100
AcDbLine
 10
18.45047808566079
 20
22.85266995011568
 30
0.0
 11
21.41629279144058
 21
25.81848465589547
 31
0.0
  0
LINE
  5
51C
330
3A4
100
AcDbEntity
  8
0
 62
     0
100
AcDbLine
 10
13.54831899405167
 20
17.9505108585065
 30
0.0
 11
15.70610661806227
 21
20.10829848251717
 31
0.0
  0
LINE
  5
51D
330
3A4
100
AcDbEntity
  8
0
 62
     0
100
AcDbLine
 10
21.98957971258812
 20
26.39177157704301
 30
0.0
 11
24.86701067074113
 21
29.26920253519597
 31
0.0
  0
LINE
  5
51E
330
3A4
100
AcDbEntity
  8
0
 62
     0
100
AcDbLine
 10
9.52547808566095
 20
13.92766995011578
 30
0.0
 11
11.65539441836773
 21
16.05758628282257
 31
0.0
  0
LINE
  5
51F
330
3A4
100
AcDbEntity
  8
0
 62
     0
100
AcDbLine
 10
13.32871597455095
 20
18.6289334511128
 30
0.0
 11
15.32386465322338
 21
20.62408212978522
 31
0.0
  0
LINE
  5
520
330
3A4
100
AcDbEntity
  8
0
 62
     0
100
AcDbLine
 10
18.45047808566079
 20
23.75069556222263
 30
0.0
 11
24.05736880626085
 21
29.35758628282269
 31
0.0
  0
LINE
  5
521
330
3A4
100
AcDbEntity
  8
0
 62
     0
100
AcDbLine
 10
9.525478085660893
 20
14.82569556222273
 30
0.0
 11
10.75736880626078
 21
16.05758628282262
 31
0.0
  0
LINE
  5
522
330
3A4
100
AcDbEntity
  8
0
 62
     0
100
AcDbLine
 10
12.90246114624625
 20
19.10070423491492
 30
0.0
 11
14.88236013356862
 21
21.08060322223729
 31
0.0
  0
LINE
  5
523
330
3A4
100
AcDbEntity
  8
0
 62
     0
100
AcDbLine
 10
18.45047808566084
 20
24.64872117432946
 30
0.0
 11
23.15934319415379
 21
29.35758628282247
 31
0.0
  0
LINE
  5
524
330
3A4
100
AcDbEntity
  8
0
 62
     0
100
AcDbLine
 10
9.594430007680671
 20
15.79267309634934
 30
0.0
 11
9.790391272134286
 21
15.98863436080296
 31
0.0
  0
LINE
  5
525
330
3A4
100
AcDbEntity
  8
0
 62
     0
100
AcDbLine
 10
18.47045319981742
 20
25.56672190059299
 30
0.0
 11
22.24134246789043
 21
29.33761116866605
 31
0.0
  0
LINE
  5
526
330
3A4
100
AcDbEntity
  8
0
 62
     0
100
AcDbLine
 10
12.45344834019277
 20
19.5497170409684
 30
0.0
 11
14.43334732751515
 21
21.52961602829077
 31
0.0
  0
LINE
  5
527
330
3A4
100
AcDbEntity
  8
0
 62
     0
100
AcDbLine
 10
18.7699166320832
 20
26.76421094496578
 30
0.0
 11
21.0438534235177
 21
29.03814773640027
 31
0.0
  0
LINE
  5
528
330
3A4
100
AcDbEntity
  8
0
 62
     0
100
AcDbLine
 10
12.0044355341393
 20
19.99872984702187
 30
0.0
 11
13.98433452146167
 21
21.97862883434424
 31
0.0
  0
LINE
  5
529
330
3A4
100
AcDbEntity
  8
0
 62
     0
100
AcDbLine
 10
11.55542272808588
 20
20.44774265307529
 30
0.0
 11
13.5353217154082
 21
22.42764164039755
 31
0.0
  0
LINE
  5
52A
330
3A4
100
AcDbEntity
  8
0
 62
     0
100
AcDbLine
 10
11.10640992203241
 20
20.89675545912876
 30
0.0
 11
13.08630890935472
 21
22.87665444645103
 31
0.0
  0
LINE
  5
52B
330
3A4
100
AcDbEntity
  8
0
 62
     0
100
AcDbLine
 10
10.65739711597893
 20
21.34576826518224
 30
0.0
 11
12.63729610330125
 21
23.3256672525045
 31
0.0
  0
LINE
  5
52C
330
3A4
100
AcDbEntity
  8
0
 62
     0
100
AcDbLine
 10
14.97118952151237
 20
26.55758628282256
 30
0.0
 11
15.82547808566084
 21
27.4118748469711
 31
0.0
  0
LINE
  5
52D
330
3A4
100
AcDbEntity
  8
0
 62
     0
100
AcDbLine
 10
10.20846762395359
 20
21.79486438526385
 30
0.0
 11
12.18853326738605
 21
23.7749300286963
 31
0.0
  0
LINE
  5
52E
330
3A4
100
AcDbEntity
  8
0
 62
     0
100
AcDbLine
 10
14.07316390940548
 20
26.55758628282256
 30
0.0
 11
15.8254780856609
 21
28.30990045907799
 31
0.0
  0
LINE
  5
52F
330
3A4
100
AcDbEntity
  8
0
 62
     0
100
AcDbLine
 10
9.796999699402022
 20
22.28142207281905
 30
0.0
 11
11.85863638609811
 21
24.3430587595152
 31
0.0
  0
LINE
  5
530
330
3A4
100
AcDbEntity
  8
0
 62
     0
100
AcDbLine
 10
13.17513829729853
 20
26.55758628282256
 30
0.0
 11
15.73891918589976
 21
29.12136717142379
 31
0.0
  0
LINE
  5
531
330
3A4
100
AcDbEntity
  8
0
 62
     0
100
AcDbLine
 10
9.456539093139554
 20
22.83898707866353
 30
0.0
 11
11.80047808566098
 21
25.18292607118496
 31
0.0
  0
LINE
  5
532
330
3A4
100
AcDbEntity
  8
0
 62
     0
100
AcDbLine
 10
12.27464603602152
 20
26.55511963365245
 30
0.0
 11
15.0771126851917
 21
29.35758628282263
 31
0.0
  0
LINE
  5
533
330
3A4
100
AcDbEntity
  8
0
 62
     0
100
AcDbLine
 10
9.195845797407457
 20
23.47631939503838
 30
0.0
 11
11.80294473483104
 21
26.08341833246203
 31
0.0
  0
LINE
  5
534
330
3A4
100
AcDbEntity
  8
0
 62
     0
100
AcDbLine
 10
9.034033835159391
 20
24.21253304489721
 30
0.0
 11
14.17908707308481
 21
29.35758628282263
 31
0.0
  0
LINE
  5
535
330
3A4
100
AcDbEntity
  8
0
 62
     0
100
AcDbLine
 10
9.000478085660972
 20
25.07700290750574
 30
0.0
 11
13.2810614609778
 21
29.35758628282258
 31
0.0
  0
LINE
  5
536
330
3A4
100
AcDbEntity
  8
0
 62
     0
100
AcDbLine
 10
9.000478085660972
 20
25.97502851961263
 30
0.0
 11
12.38303584887086
 21
29.35758628282258
 31
0.0
  0
LINE
  5
537
330
3A4
100
AcDbEntity
  8
0
 62
     0
100
AcDbLine
 10
9.020670096099195
 20
26.8932461421578
 30
0.0
 11
11.4648182263258
 21
29.33739427238441
 31
0.0
  0
ENDBLK
  5
539
330
3A4
100
AcDbEntity
  8
0
100
AcDbBlockEnd
  0
BLOCK
  5
6F35
330
6F2B
100
AcDbEntity
  8
0
100
AcDbBlockBegin
  2
*D2
 70
     1
 10
0.0
 20
0.0
 30
0.0
  3
*D2
  1

  0
LINE
  5
71EF
330
6F2B
100
AcDbEntity
  8
SUNPOU
100
AcDbLine
 10
187.2433482290778
 20
307.2032961978029
 30
0.0
 11
187.2433482290778
 21
463.7639429226404
 31
0.0
  0
LINE
  5
71F0
330
6F2B
100
AcDbEntity
  8
SUNPOU
100
AcDbLine
 10
451.6433482291843
 20
282.2032961978012
 30
0.0
 11
451.6433482291843
 21
463.7639429226404
 31
0.0
  0
LINE
  5
71F1
330
6F2B
100
AcDbEntity
  8
SUNPOU
100
AcDbLine
 10
194.2433482290778
 20
460.7639429226404
 30
0.0
 11
444.6433482291843
 21
460.7639429226404
 31
0.0
  0
INSERT
  5
71F2
330
6F2B
100
AcDbEntity
  8
SUNPOU
100
AcDbBlockReference
  2
_OPEN
 10
187.2433482290778
 20
460.7639429226404
 30
0.0
 41
7.0
 42
7.0
 43
7.0
 50
180.0
  0
INSERT
  5
71F3
330
6F2B
100
AcDbEntity
  8
SUNPOU
100
AcDbBlockReference
  2
_OPEN
 10
451.6433482291843
 20
460.7639429226404
 30
0.0
 41
7.0
 42
7.0
 43
7.0
  0
MTEXT
  5
71F4
330
6F2B
100
AcDbEntity
  8
SUNPOU
100
AcDbMText
 10
319.443348229131
 20
465.7639429226405
 30
0.0
 40
6.0
 41
0.0
 71
     5
 72
     5
  1
\A1;264
 73
     1
 44
1.0
1001
ACAD
1000
MTEXTBEGIN
1070
    73
1070
     1
1070
    44
1040
1.0
1070
    74
1070
     0
1000
MTEXTEND
1000
MTEXTBEGIN
1070
    73
1070
     1
1070
    44
1040
1.0
1070
    74
1070
     0
1000
MTEXTEND
1000
MTEXTBEGIN
1070
    73
1070
     1
1070
    44
1040
1.0
1070
    74
1070
     0
1000
MTEXTEND
1000
MTEXTBEGIN
1070
    73
1070
     1
1070
    44
1040
1.0
1070
    74
1070
     0
1000
MTEXTEND
  0
POINT
  5
71F5
330
6F2B
100
AcDbEntity
  8
DEFPOINTS
 62
     0
100
AcDbPoint
 10
187.2433482290778
 20
301.2032961978029
 30
0.0
  0
POINT
  5
71F6
330
6F2B
100
AcDbEntity
  8
DEFPOINTS
 62
     0
100
AcDbPoint
 10
451.6433482291843
 20
276.2032961978012
 30
0.0
  0
POINT
  5
71F7
330
6F2B
100
AcDbEntity
  8
DEFPOINTS
 62
     0
100
AcDbPoint
 10
451.6433482291843
 20
460.7639429226404
 30
0.0
  0
ENDBLK
  5
6F36
330
6F2B
100
AcDbEntity
  8
0
100
AcDbBlockEnd
  0
BLOCK
  5
6F41
330
6F37
100
AcDbEntity
  8
0
100
AcDbBlockBegin
  2
*D3
 70
     1
 10
0.0
 20
0.0
 30
0.0
  3
*D3
  1

  0
LINE
  5
71DD
330
6F37
100
AcDbEntity
  8
SUNPOU
100
AcDbLine
 10
416.1331977924303
 20
282.9645120511932
 30
0.0
 11
416.1331977924303
 21
310.9135962060391
 31
0.0
  0
LINE
  5
71DE
330
6F37
100
AcDbEntity
  8
SUNPOU
100
AcDbLine
 10
451.6433482291845
 20
282.203296197832
 30
0.0
 11
451.6433482291845
 21
310.9135962060391
 31
0.0
  0
LINE
  5
71DF
330
6F37
100
AcDbEntity
  8
SUNPOU
100
AcDbLine
 10
423.1331977924303
 20
307.9135962060391
 30
0.0
 11
444.6433482291845
 21
307.9135962060391
 31
0.0
  0
INSERT
  5
71E0
330
6F37
100
AcDbEntity
  8
SUNPOU
100
AcDbBlockReference
  2
_OPEN
 10
416.1331977924303
 20
307.9135962060391
 30
0.0
 41
7.0
 42
7.0
 43
7.0
 50
180.0
  0
INSERT
  5
71E1
330
6F37
100
AcDbEntity
  8
SUNPOU
100
AcDbBlockReference
  2
_OPEN
 10
451.6433482291845
 20
307.9135962060391
 30
0.0
 41
7.0
 42
7.0
 43
7.0
  0
MTEXT
  5
71E2
330
6F37
100
AcDbEntity
  8
SUNPOU
100
AcDbMText
 10
433.8882730108074
 20
312.9135962060392
 30
0.0
 40
6.0
 41
0.0
 71
     5
 72
     5
  1
\A1;36
 73
     1
 44
1.0
1001
ACAD
1000
MTEXTBEGIN
1070
    73
1070
     1
1070
    44
1040
1.0
1070
    74
1070
     0
1000
MTEXTEND
1000
MTEXTBEGIN
1070
    73
1070
     1
1070
    44
1040
1.0
1070
    74
1070
     0
1000
MTEXTEND
1000
MTEXTBEGIN
1070
    73
1070
     1
1070
    44
1040
1.0
1070
    74
1070
     0
1000
MTEXTEND
1000
MTEXTBEGIN
1070
    73
1070
     1
1070
    44
1040
1.0
1070
    74
1070
     0
1000
MTEXTEND
  0
POINT
  5
71E3
330
6F37
100
AcDbEntity
  8
DEFPOINTS
 62
     0
100
AcDbPoint
 10
416.1331977924303
 20
276.9645120511932
 30
0.0
  0
POINT
  5
71E4
330
6F37
100
AcDbEntity
  8
DEFPOINTS
 62
     0
100
AcDbPoint
 10
451.6433482291845
 20
276.203296197832
 30
0.0
  0
POINT
  5
71E5
330
6F37
100
AcDbEntity
  8
DEFPOINTS
 62
     0
100
AcDbPoint
 10
451.6433482291845
 20
307.9135962060391
 30
0.0
  0
ENDBLK
  5
6F42
330
6F37
100
AcDbEntity
  8
0
100
AcDbBlockEnd
  0
BLOCK
  5
6F4D
330
6F43
100
AcDbEntity
  8
0
100
AcDbBlockBegin
  2
*D4
 70
     1
 10
0.0
 20
0.0
 30
0.0
  3
*D4
  1

  0
LINE
  5
71E6
330
6F43
100
AcDbEntity
  8
SUNPOU
100
AcDbLine
 10
319.4433482291447
 20
414.9520400195716
 30
0.0
 11
319.4433482291447
 21
448.9574524528984
 31
0.0
  0
LINE
  5
71E7
330
6F43
100
AcDbEntity
  8
SUNPOU
100
AcDbLine
 10
451.6433482291845
 20
282.203296197832
 30
0.0
 11
451.6433482291845
 21
448.9574524528984
 31
0.0
  0
LINE
  5
71E8
330
6F43
100
AcDbEntity
  8
SUNPOU
100
AcDbLine
 10
326.4433482291447
 20
445.9574524528984
 30
0.0
 11
444.6433482291845
 21
445.9574524528984
 31
0.0
  0
INSERT
  5
71E9
330
6F43
100
AcDbEntity
  8
SUNPOU
100
AcDbBlockReference
  2
_OPEN
 10
319.4433482291447
 20
445.9574524528984
 30
0.0
 41
7.0
 42
7.0
 43
7.0
 50
180.0
  0
INSERT
  5
71EA
330
6F43
100
AcDbEntity
  8
SUNPOU
100
AcDbBlockReference
  2
_OPEN
 10
451.6433482291845
 20
445.9574524528984
 30
0.0
 41
7.0
 42
7.0
 43
7.0
  0
MTEXT
  5
71EB
330
6F43
100
AcDbEntity
  8
SUNPOU
100
AcDbMText
 10
385.5433482291646
 20
450.9574524528984
 30
0.0
 40
6.0
 41
0.0
 71
     5
 72
     5
  1
\A1;132
 73
     1
 44
1.0
1001
ACAD
1000
MTEXTBEGIN
1070
    73
1070
     1
1070
    44
1040
1.0
1070
    74
1070
     0
1000
MTEXTEND
1000
MTEXTBEGIN
1070
    73
1070
     1
1070
    44
1040
1.0
1070
    74
1070
     0
1000
MTEXTEND
1000
MTEXTBEGIN
1070
    73
1070
     1
1070
    44
1040
1.0
1070
    74
1070
     0
1000
MTEXTEND
1000
MTEXTBEGIN
1070
    73
1070
     1
1070
    44
1040
1.0
1070
    74
1070
     0
1000
MTEXTEND
  0
POINT
  5
71EC
330
6F43
100
AcDbEntity
  8
DEFPOINTS
 62
     0
100
AcDbPoint
 10
319.4433482291447
 20
408.9520400195716
 30
0.0
  0
POINT
  5
71ED
330
6F43
100
AcDbEntity
  8
DEFPOINTS
 62
     0
100
AcDbPoint
 10
451.6433482291845
 20
276.203296197832
 30
0.0
  0
POINT
  5
71EE
330
6F43
100
AcDbEntity
  8
DEFPOINTS
 62
     0
100
AcDbPoint
 10
451.6433482291845
 20
445.9574524528984
 30
0.0
  0
ENDBLK
  5
6F4E
330
6F43
100
AcDbEntity
  8
0
100
AcDbBlockEnd
  0
BLOCK
  5
6F59
330
6F4F
100
AcDbEntity
  8
0
100
AcDbBlockBegin
  2
*D5
 70
     1
 10
0.0
 20
0.0
 30
0.0
  3
*D5
  1

  0
LINE
  5
7225
330
6F4F
100
AcDbEntity
  8
SUNPOU
100
AcDbLine
 10
319.4433482291447
 20
414.9520400195716
 30
0.0
 11
319.4433482291447
 21
448.9574524528984
 31
0.0
  0
LINE
  5
7226
330
6F4F
100
AcDbEntity
  8
SUNPOU
100
AcDbLine
 10
187.2433482290778
 20
307.2032961978029
 30
0.0
 11
187.2433482290778
 21
448.9574524528984
 31
0.0
  0
LINE
  5
7227
330
6F4F
100
AcDbEntity
  8
SUNPOU
100
AcDbLine
 10
312.4433482291447
 20
445.9574524528984
 30
0.0
 11
194.2433482290778
 21
445.9574524528984
 31
0.0
  0
INSERT
  5
7228
330
6F4F
100
AcDbEntity
  8
SUNPOU
100
AcDbBlockReference
  2
_OPEN
 10
319.4433482291447
 20
445.9574524528984
 30
0.0
 41
7.0
 42
7.0
 43
7.0
  0
INSERT
  5
7229
330
6F4F
100
AcDbEntity
  8
SUNPOU
100
AcDbBlockReference
  2
_OPEN
 10
187.2433482290778
 20
445.9574524528984
 30
0.0
 41
7.0
 42
7.0
 43
7.0
 50
180.0
  0
MTEXT
  5
722A
330
6F4F
100
AcDbEntity
  8
SUNPOU
100
AcDbMText
 10
253.3433482291112
 20
450.9574524528984
 30
0.0
 40
6.0
 41
0.0
 71
     5
 72
     5
  1
\A1;132
 73
     1
 44
1.0
1001
ACAD
1000
MTEXTBEGIN
1070
    73
1070
     1
1070
    44
1040
1.0
1070
    74
1070
     0
1000
MTEXTEND
1000
MTEXTBEGIN
1070
    73
1070
     1
1070
    44
1040
1.0
1070
    74
1070
     0
1000
MTEXTEND
1000
MTEXTBEGIN
1070
    73
1070
     1
1070
    44
1040
1.0
1070
    74
1070
     0
1000
MTEXTEND
1000
MTEXTBEGIN
1070
    73
1070
     1
1070
    44
1040
1.0
1070
    74
1070
     0
1000
MTEXTEND
  0
POINT
  5
722B
330
6F4F
100
AcDbEntity
  8
DEFPOINTS
 62
     0
100
AcDbPoint
 10
319.4433482291447
 20
408.9520400195716
 30
0.0
  0
POINT
  5
722C
330
6F4F
100
AcDbEntity
  8
DEFPOINTS
 62
     0
100
AcDbPoint
 10
187.2433482290778
 20
301.2032961978029
 30
0.0
  0
POINT
  5
722D
330
6F4F
100
AcDbEntity
  8
DEFPOINTS
 62
     0
100
AcDbPoint
 10
187.2433482290778
 20
445.9574524528984
 30
0.0
  0
ENDBLK
  5
6F5A
330
6F4F
100
AcDbEntity
  8
0
100
AcDbBlockEnd
  0
BLOCK
  5
6F65
330
6F5B
100
AcDbEntity
  8
0
100
AcDbBlockBegin
  2
*D6
 70
     1
 10
0.0
 20
0.0
 30
0.0
  3
*D6
  1

  0
LINE
  5
722E
330
6F5B
100
AcDbEntity
  8
SUNPOU
100
AcDbLine
 10
231.5311925830199
 20
306.7308876212257
 30
0.0
 11
231.5311925830199
 21
343.2183742137198
 31
0.0
  0
LINE
  5
722F
330
6F5B
100
AcDbEntity
  8
SUNPOU
100
AcDbLine
 10
187.2433482290778
 20
307.2032961978029
 30
0.0
 11
187.2433482290778
 21
343.2183742137198
 31
0.0
  0
LINE
  5
7230
330
6F5B
100
AcDbEntity
  8
SUNPOU
100
AcDbLine
 10
224.5311925830199
 20
340.2183742137198
 30
0.0
 11
194.2433482290778
 21
340.2183742137198
 31
0.0
  0
INSERT
  5
7231
330
6F5B
100
AcDbEntity
  8
SUNPOU
100
AcDbBlockReference
  2
_OPEN
 10
231.5311925830199
 20
340.2183742137198
 30
0.0
 41
7.0
 42
7.0
 43
7.0
  0
INSERT
  5
7232
330
6F5B
100
AcDbEntity
  8
SUNPOU
100
AcDbBlockReference
  2
_OPEN
 10
187.2433482290778
 20
340.2183742137198
 30
0.0
 41
7.0
 42
7.0
 43
7.0
 50
180.0
  0
MTEXT
  5
7233
330
6F5B
100
AcDbEntity
  8
SUNPOU
100
AcDbMText
 10
209.3872704060488
 20
345.2183742137198
 30
0.0
 40
6.0
 41
0.0
 71
     5
 72
     5
  1
\A1;44
 73
     1
 44
1.0
1001
ACAD
1000
MTEXTBEGIN
1070
    73
1070
     1
1070
    44
1040
1.0
1070
    74
1070
     0
1000
MTEXTEND
1000
MTEXTBEGIN
1070
    73
1070
     1
1070
    44
1040
1.0
1070
    74
1070
     0
1000
MTEXTEND
1000
MTEXTBEGIN
1070
    73
1070
     1
1070
    44
1040
1.0
1070
    74
1070
     0
1000
MTEXTEND
1000
MTEXTBEGIN
1070
    73
1070
     1
1070
    44
1040
1.0
1070
    74
1070
     0
1000
MTEXTEND
  0
POINT
  5
7234
330
6F5B
100
AcDbEntity
  8
DEFPOINTS
 62
     0
100
AcDbPoint
 10
231.5311925830199
 20
300.7308876212257
 30
0.0
  0
POINT
  5
7235
330
6F5B
100
AcDbEntity
  8
DEFPOINTS
 62
     0
100
AcDbPoint
 10
187.2433482290778
 20
301.2032961978029
 30
0.0
  0
POINT
  5
7236
330
6F5B
100
AcDbEntity
  8
DEFPOINTS
 62
     0
100
AcDbPoint
 10
187.2433482290778
 20
340.2183742137198
 30
0.0
  0
ENDBLK
  5
6F66
330
6F5B
100
AcDbEntity
  8
0
100
AcDbBlockEnd
  0
BLOCK
  5
6F71
330
6F67
100
AcDbEntity
  8
0
100
AcDbBlockBegin
  2
*D7
 70
     1
 10
0.0
 20
0.0
 30
0.0
  3
*D7
  1

  0
LINE
  5
71F8
330
6F67
100
AcDbEntity
  8
SUNPOU
 62
     4
370
    -2
100
AcDbLine
 10
308.4433482292276
 20
229.4844786198826
 30
0.0
 11
139.2713397422546
 21
229.4844786198826
 31
0.0
  0
LINE
  5
71F9
330
6F67
100
AcDbEntity
  8
SUNPOU
 62
     4
370
    -2
100
AcDbLine
 10
313.4433482292276
 20
399.4844786198827
 30
0.0
 11
139.2713397422546
 21
399.4844786198827
 31
0.0
  0
LINE
  5
71FA
330
6F67
100
AcDbEntity
  8
SUNPOU
 62
     4
370
    -2
100
AcDbLine
 10
142.2713397422546
 20
236.4844786198826
 30
0.0
 11
142.2713397422546
 21
392.4844786198826
 31
0.0
  0
INSERT
  5
71FB
330
6F67
100
AcDbEntity
  8
SUNPOU
 62
     4
370
    -2
100
AcDbBlockReference
  2
_OPEN
 10
142.2713397422546
 20
229.4844786198826
 30
0.0
 41
7.0
 42
7.0
 43
7.0
 50
270.0
  0
INSERT
  5
71FC
330
6F67
100
AcDbEntity
  8
SUNPOU
 62
     4
370
    -2
100
AcDbBlockReference
  2
_OPEN
 10
142.2713397422546
 20
399.4844786198827
 30
0.0
 41
7.0
 42
7.0
 43
7.0
 50
90.0
  0
MTEXT
  5
71FD
330
6F67
100
AcDbEntity
  8
SUNPOU
 62
     4
100
AcDbMText
 10
137.2713397422546
 20
314.4844786198826
 30
0.0
 40
6.0
 41
0.0
 71
     5
 72
     5
  1
\A1;170
 11
0.0000000000000001
 21
1.0
 31
0.0
 73
     1
 44
1.0
1001
ACAD
1000
MTEXTBEGIN
1070
    73
1070
     1
1070
    44
1040
1.0
1070
    74
1070
     0
1000
MTEXTEND
1000
MTEXTBEGIN
1070
    73
1070
     1
1070
    44
1040
1.0
1070
    74
1070
     0
1000
MTEXTEND
1000
MTEXTBEGIN
1070
    73
1070
     1
1070
    44
1040
1.0
1070
    74
1070
     0
1000
MTEXTEND
1000
MTEXTBEGIN
1070
    73
1070
     1
1070
    44
1040
1.0
1070
    74
1070
     0
1000
MTEXTEND
  0
POINT
  5
71FE
330
6F67
100
AcDbEntity
  8
DEFPOINTS
 62
     0
100
AcDbPoint
 10
314.4433482292277
 20
229.4844786198826
 30
0.0
  0
POINT
  5
71FF
330
6F67
100
AcDbEntity
  8
DEFPOINTS
 62
     0
100
AcDbPoint
 10
319.4433482292276
 20
399.4844786198827
 30
0.0
  0
POINT
  5
7200
330
6F67
100
AcDbEntity
  8
DEFPOINTS
 62
     0
100
AcDbPoint
 10
142.2713397422546
 20
399.4844786198827
 30
0.0
  0
ENDBLK
  5
6F72
330
6F67
100
AcDbEntity
  8
0
100
AcDbBlockEnd
  0
BLOCK
  5
6F7D
330
6F73
100
AcDbEntity
  8
0
100
AcDbBlockBegin
  2
*D8
 70
     1
 10
0.0
 20
0.0
 30
0.0
  3
*D8
  1

  0
LINE
  5
720A
330
6F73
100
AcDbEntity
  8
SUNPOU
100
AcDbLine
 10
186.2433482290778
 20
306.2032961978029
 30
0.0
 11
155.1308578945706
 21
306.2032961978029
 31
0.0
  0
LINE
  5
720B
330
6F73
100
AcDbEntity
  8
SUNPOU
100
AcDbLine
 10
185.2433482291446
 20
270.5843786198824
 30
0.0
 11
155.1308578945706
 21
270.5843786198824
 31
0.0
  0
LINE
  5
720C
330
6F73
100
AcDbEntity
  8
SUNPOU
100
AcDbLine
 10
158.1308578945706
 20
299.2032961978029
 30
0.0
 11
158.1308578945706
 21
277.5843786198825
 31
0.0
  0
INSERT
  5
720D
330
6F73
100
AcDbEntity
  8
SUNPOU
100
AcDbBlockReference
  2
_OPEN
 10
158.1308578945706
 20
306.2032961978029
 30
0.0
 41
7.0
 42
7.0
 43
7.0
 50
90.0
  0
INSERT
  5
720E
330
6F73
100
AcDbEntity
  8
SUNPOU
100
AcDbBlockReference
  2
_OPEN
 10
158.1308578945706
 20
270.5843786198824
 30
0.0
 41
7.0
 42
7.0
 43
7.0
 50
270.0
  0
MTEXT
  5
720F
330
6F73
100
AcDbEntity
  8
SUNPOU
100
AcDbMText
 10
153.1308578945706
 20
288.3938374088427
 30
0.0
 40
6.0
 41
0.0
 71
     5
 72
     5
  1
\A1;36
 11
0.0000000000000001
 21
1.0
 31
0.0
 73
     1
 44
1.0
1001
ACAD
1000
MTEXTBEGIN
1070
    73
1070
     1
1070
    44
1040
1.0
1070
    74
1070
     0
1000
MTEXTEND
1000
MTEXTBEGIN
1070
    73
1070
     1
1070
    44
1040
1.0
1070
    74
1070
     0
1000
MTEXTEND
1000
MTEXTBEGIN
1070
    73
1070
     1
1070
    44
1040
1.0
1070
    74
1070
     0
1000
MTEXTEND
1000
MTEXTBEGIN
1070
    73
1070
     1
1070
    44
1040
1.0
1070
    74
1070
     0
1000
MTEXTEND
  0
POINT
  5
7210
330
6F73
100
AcDbEntity
  8
DEFPOINTS
 62
     0
100
AcDbPoint
 10
192.2433482290777
 20
306.2032961978029
 30
0.0
  0
POINT
  5
7211
330
6F73
100
AcDbEntity
  8
DEFPOINTS
 62
     0
100
AcDbPoint
 10
191.2433482291446
 20
270.5843786198824
 30
0.0
  0
POINT
  5
7212
330
6F73
100
AcDbEntity
  8
DEFPOINTS
 62
     0
100
AcDbPoint
 10
158.1308578945706
 20
270.5843786198824
 30
0.0
  0
ENDBLK
  5
6F7E
330
6F73
100
AcDbEntity
  8
0
100
AcDbBlockEnd
  0
BLOCK
  5
6F89
330
6F7F
100
AcDbEntity
  8
0
100
AcDbBlockBegin
  2
*D9
 70
     1
 10
0.0
 20
0.0
 30
0.0
  3
*D9
  1

  0
LINE
  5
7201
330
6F7F
100
AcDbEntity
  8
SUNPOU
100
AcDbLine
 10
237.5311925830199
 20
300.7308876212257
 30
0.0
 11
277.3738125781426
 21
300.7308876212257
 31
0.0
  0
LINE
  5
7202
330
6F7F
100
AcDbEntity
  8
SUNPOU
100
AcDbLine
 10
245.7432473063149
 20
248.4843786198826
 30
0.0
 11
277.3738125781426
 21
248.4843786198826
 31
0.0
  0
LINE
  5
7203
330
6F7F
100
AcDbEntity
  8
SUNPOU
100
AcDbLine
 10
274.3738125781426
 20
293.7308876212257
 30
0.0
 11
274.3738125781426
 21
255.4843786198826
 31
0.0
  0
INSERT
  5
7204
330
6F7F
100
AcDbEntity
  8
SUNPOU
100
AcDbBlockReference
  2
_OPEN
 10
274.3738125781426
 20
300.7308876212257
 30
0.0
 41
7.0
 42
7.0
 43
7.0
 50
90.0
  0
INSERT
  5
7205
330
6F7F
100
AcDbEntity
  8
SUNPOU
100
AcDbBlockReference
  2
_OPEN
 10
274.3738125781426
 20
248.4843786198826
 30
0.0
 41
7.0
 42
7.0
 43
7.0
 50
270.0
  0
MTEXT
  5
7206
330
6F7F
100
AcDbEntity
  8
SUNPOU
100
AcDbMText
 10
269.3738125781425
 20
274.6076331205542
 30
0.0
 40
6.0
 41
0.0
 71
     5
 72
     5
  1
\A1;52
 11
0.0000000000000001
 21
1.0
 31
0.0
 73
     1
 44
1.0
1001
ACAD
1000
MTEXTBEGIN
1070
    73
1070
     1
1070
    44
1040
1.0
1070
    74
1070
     0
1000
MTEXTEND
1000
MTEXTBEGIN
1070
    73
1070
     1
1070
    44
1040
1.0
1070
    74
1070
     0
1000
MTEXTEND
1000
MTEXTBEGIN
1070
    73
1070
     1
1070
    44
1040
1.0
1070
    74
1070
     0
1000
MTEXTEND
1000
MTEXTBEGIN
1070
    73
1070
     1
1070
    44
1040
1.0
1070
    74
1070
     0
1000
MTEXTEND
  0
POINT
  5
7207
330
6F7F
100
AcDbEntity
  8
DEFPOINTS
 62
     0
100
AcDbPoint
 10
231.5311925830199
 20
300.7308876212257
 30
0.0
  0
POINT
  5
7208
330
6F7F
100
AcDbEntity
  8
DEFPOINTS
 62
     0
100
AcDbPoint
 10
239.7432473063149
 20
248.4843786198826
 30
0.0
  0
POINT
  5
7209
330
6F7F
100
AcDbEntity
  8
DEFPOINTS
 62
     0
100
AcDbPoint
 10
274.3738125781426
 20
248.4843786198826
 30
0.0
  0
ENDBLK
  5
6F8A
330
6F7F
100
AcDbEntity
  8
0
100
AcDbBlockEnd
  0
BLOCK
  5
6F95
330
6F8B
100
AcDbEntity
  8
0
100
AcDbBlockBegin
  2
*D10
 70
     1
 10
0.0
 20
0.0
 30
0.0
  3
*D10
  1

  0
LINE
  5
7213
330
6F8B
100
AcDbEntity
  8
SUNPOU
100
AcDbLine
 10
399.0670694175184
 20
248.4843786198827
 30
0.0
 11
372.7393496283791
 21
248.4843786198827
 31
0.0
  0
LINE
  5
7214
330
6F8B
100
AcDbEntity
  8
SUNPOU
100
AcDbLine
 10
410.1331977924303
 20
276.9645120511932
 30
0.0
 11
372.7393496283791
 21
276.9645120511932
 31
0.0
  0
LINE
  5
7215
330
6F8B
100
AcDbEntity
  8
SUNPOU
100
AcDbLine
 10
375.7393496283791
 20
255.4843786198826
 30
0.0
 11
375.7393496283791
 21
269.9645120511932
 31
0.0
  0
INSERT
  5
7216
330
6F8B
100
AcDbEntity
  8
SUNPOU
100
AcDbBlockReference
  2
_OPEN
 10
375.7393496283791
 20
248.4843786198827
 30
0.0
 41
7.0
 42
7.0
 43
7.0
 50
270.0
  0
INSERT
  5
7217
330
6F8B
100
AcDbEntity
  8
SUNPOU
100
AcDbBlockReference
  2
_OPEN
 10
375.7393496283791
 20
276.9645120511932
 30
0.0
 41
7.0
 42
7.0
 43
7.0
 50
90.0
  0
MTEXT
  5
7218
330
6F8B
100
AcDbEntity
  8
SUNPOU
100
AcDbMText
 10
370.7393496283791
 20
262.724445335538
 30
0.0
 40
6.0
 41
0.0
 71
     5
 72
     5
  1
\A1;28
 11
0.0000000000000001
 21
1.0
 31
0.0
 73
     1
 44
1.0
1001
ACAD
1000
MTEXTBEGIN
1070
    73
1070
     1
1070
    44
1040
1.0
1070
    74
1070
     0
1000
MTEXTEND
1000
MTEXTBEGIN
1070
    73
1070
     1
1070
    44
1040
1.0
1070
    74
1070
     0
1000
MTEXTEND
1000
MTEXTBEGIN
1070
    73
1070
     1
1070
    44
1040
1.0
1070
    74
1070
     0
1000
MTEXTEND
1000
MTEXTBEGIN
1070
    73
1070
     1
1070
    44
1040
1.0
1070
    74
1070
     0
1000
MTEXTEND
  0
POINT
  5
7219
330
6F8B
100
AcDbEntity
  8
DEFPOINTS
 62
     0
100
AcDbPoint
 10
405.0670694175185
 20
248.4843786198827
 30
0.0
  0
POINT
  5
721A
330
6F8B
100
AcDbEntity
  8
DEFPOINTS
 62
     0
100
AcDbPoint
 10
416.1331977924303
 20
276.9645120511932
 30
0.0
  0
POINT
  5
721B
330
6F8B
100
AcDbEntity
  8
DEFPOINTS
 62
     0
100
AcDbPoint
 10
375.7393496283791
 20
276.9645120511932
 30
0.0
  0
ENDBLK
  5
6F96
330
6F8B
100
AcDbEntity
  8
0
100
AcDbBlockEnd
  0
BLOCK
  5
6FA1
330
6F97
100
AcDbEntity
  8
0
100
AcDbBlockBegin
  2
*D11
 70
     1
 10
0.0
 20
0.0
 30
0.0
  3
*D11
  1

  0
LINE
  5
721C
330
6F97
100
AcDbEntity
  8
SUNPOU
 62
     4
370
    -2
100
AcDbLine
 10
287.6933482292279
 20
414.9520400195716
 30
0.0
 11
287.6933482292279
 21
434.2346802443647
 31
0.0
  0
LINE
  5
721D
330
6F97
100
AcDbEntity
  8
SUNPOU
 62
     4
370
    -2
100
AcDbLine
 10
351.1933482292281
 20
414.9520400195716
 30
0.0
 11
351.1933482292281
 21
434.2346802443647
 31
0.0
  0
LINE
  5
721E
330
6F97
100
AcDbEntity
  8
SUNPOU
 62
     4
370
    -2
100
AcDbLine
 10
294.6933482292279
 20
431.2346802443648
 30
0.0
 11
344.1933482292281
 21
431.2346802443648
 31
0.0
  0
INSERT
  5
721F
330
6F97
100
AcDbEntity
  8
SUNPOU
 62
     4
370
    -2
100
AcDbBlockReference
  2
_OPEN
 10
287.6933482292279
 20
431.2346802443648
 30
0.0
 41
7.0
 42
7.0
 43
7.0
 50
180.0
  0
INSERT
  5
7220
330
6F97
100
AcDbEntity
  8
SUNPOU
 62
     4
370
    -2
100
AcDbBlockReference
  2
_OPEN
 10
351.1933482292281
 20
431.2346802443648
 30
0.0
 41
7.0
 42
7.0
 43
7.0
  0
MTEXT
  5
7221
330
6F97
100
AcDbEntity
  8
SUNPOU
 62
     4
100
AcDbMText
 10
319.443348229228
 20
436.2346802443648
 30
0.0
 40
6.0
 41
0.0
 71
     5
 72
     5
  1
\A1;64
 73
     1
 44
1.0
1001
ACAD
1000
MTEXTBEGIN
1070
    73
1070
     1
1070
    44
1040
1.0
1070
    74
1070
     0
1000
MTEXTEND
1000
MTEXTBEGIN
1070
    73
1070
     1
1070
    44
1040
1.0
1070
    74
1070
     0
1000
MTEXTEND
1000
MTEXTBEGIN
1070
    73
1070
     1
1070
    44
1040
1.0
1070
    74
1070
     0
1000
MTEXTEND
1000
MTEXTBEGIN
1070
    73
1070
     1
1070
    44
1040
1.0
1070
    74
1070
     0
1000
MTEXTEND
  0
POINT
  5
7222
330
6F97
100
AcDbEntity
  8
DEFPOINTS
 62
     0
100
AcDbPoint
 10
287.6933482292279
 20
408.9520400195716
 30
0.0
  0
POINT
  5
7223
330
6F97
100
AcDbEntity
  8
DEFPOINTS
 62
     0
100
AcDbPoint
 10
351.1933482292281
 20
408.9520400195716
 30
0.0
  0
POINT
  5
7224
330
6F97
100
AcDbEntity
  8
DEFPOINTS
 62
     0
100
AcDbPoint
 10
351.1933482292281
 20
431.2346802443648
 30
0.0
  0
ENDBLK
  5
6FA2
330
6F97
100
AcDbEntity
  8
0
100
AcDbBlockEnd
  0
BLOCK
  5
6FAD
330
6FA3
100
AcDbEntity
  8
0
100
AcDbBlockBegin
  2
*D12
 70
     1
 10
0.0
 20
0.0
 30
0.0
  3
*D12
  1

  0
LINE
  5
7240
330
6FA3
100
AcDbEntity
  8
SUNPOU
100
AcDbLine
 10
660.0206387748769
 20
235.4843786198825
 30
0.0
 11
660.0206387748769
 21
161.3089540800505
 31
0.0
  0
LINE
  5
7241
330
6FA3
100
AcDbEntity
  8
SUNPOU
100
AcDbLine
 10
700.0206387752248
 20
235.4843786198824
 30
0.0
 11
700.0206387752248
 21
161.3089540800505
 31
0.0
  0
LINE
  5
7242
330
6FA3
100
AcDbEntity
  8
SUNPOU
100
AcDbLine
 10
667.0206387748769
 20
164.3089540800505
 30
0.0
 11
693.0206387752248
 21
164.3089540800505
 31
0.0
  0
INSERT
  5
7243
330
6FA3
100
AcDbEntity
  8
SUNPOU
100
AcDbBlockReference
  2
_OPEN
 10
660.0206387748769
 20
164.3089540800505
 30
0.0
 41
7.0
 42
7.0
 43
7.0
 50
180.0
  0
INSERT
  5
7244
330
6FA3
100
AcDbEntity
  8
SUNPOU
100
AcDbBlockReference
  2
_OPEN
 10
700.0206387752248
 20
164.3089540800505
 30
0.0
 41
7.0
 42
7.0
 43
7.0
  0
MTEXT
  5
7245
330
6FA3
100
AcDbEntity
  8
SUNPOU
100
AcDbMText
 10
680.0206387750509
 20
169.3089540800505
 30
0.0
 40
6.0
 41
0.0
 71
     5
 72
     5
  1
\A1;40
 73
     1
 44
1.0
1001
ACAD
1000
MTEXTBEGIN
1070
    73
1070
     1
1070
    44
1040
1.0
1070
    74
1070
     0
1000
MTEXTEND
1000
MTEXTBEGIN
1070
    73
1070
     1
1070
    44
1040
1.0
1070
    74
1070
     0
1000
MTEXTEND
1000
MTEXTBEGIN
1070
    73
1070
     1
1070
    44
1040
1.0
1070
    74
1070
     0
1000
MTEXTEND
1000
MTEXTBEGIN
1070
    73
1070
     1
1070
    44
1040
1.0
1070
    74
1070
     0
1000
MTEXTEND
  0
POINT
  5
7246
330
6FA3
100
AcDbEntity
  8
DEFPOINTS
 62
     0
100
AcDbPoint
 10
660.0206387748769
 20
241.4843786198825
 30
0.0
  0
POINT
  5
7247
330
6FA3
100
AcDbEntity
  8
DEFPOINTS
 62
     0
100
AcDbPoint
 10
700.0206387752248
 20
241.4843786198825
 30
0.0
  0
POINT
  5
7248
330
6FA3
100
AcDbEntity
  8
DEFPOINTS
 62
     0
100
AcDbPoint
 10
700.0206387752248
 20
164.3089540800505
 30
0.0
  0
ENDBLK
  5
6FAE
330
6FA3
100
AcDbEntity
  8
0
100
AcDbBlockEnd
  0
BLOCK
  5
6FB9
330
6FAF
100
AcDbEntity
  8
0
100
AcDbBlockBegin
  2
*D13
 70
     1
 10
0.0
 20
0.0
 30
0.0
  3
*D13
  1

  0
LINE
  5
7249
330
6FAF
100
AcDbEntity
  8
SUNPOU
100
AcDbLine
 10
453.6433482289874
 20
245.5843786198825
 30
0.0
 11
491.709298917882
 21
245.5843786198825
 31
0.0
  0
LINE
  5
724A
330
6FAF
100
AcDbEntity
  8
SUNPOU
100
AcDbLine
 10
444.043348228894
 20
189.7843786198825
 30
0.0
 11
491.709298917882
 21
189.7843786198825
 31
0.0
  0
LINE
  5
724B
330
6FAF
100
AcDbEntity
  8
SUNPOU
100
AcDbLine
 10
488.709298917882
 20
238.5843786198825
 30
0.0
 11
488.709298917882
 21
196.7843786198825
 31
0.0
  0
INSERT
  5
724C
330
6FAF
100
AcDbEntity
  8
SUNPOU
100
AcDbBlockReference
  2
_OPEN
 10
488.709298917882
 20
245.5843786198825
 30
0.0
 41
7.0
 42
7.0
 43
7.0
 50
90.0
  0
INSERT
  5
724D
330
6FAF
100
AcDbEntity
  8
SUNPOU
100
AcDbBlockReference
  2
_OPEN
 10
488.709298917882
 20
189.7843786198825
 30
0.0
 41
7.0
 42
7.0
 43
7.0
 50
270.0
  0
MTEXT
  5
724E
330
6FAF
100
AcDbEntity
  8
SUNPOU
100
AcDbMText
 10
483.7092989178819
 20
217.6843786198826
 30
0.0
 40
6.0
 41
0.0
 71
     5
 72
     5
  1
\A1;56
 11
0.0000000000000001
 21
1.0
 31
0.0
 73
     1
 44
1.0
1001
ACAD
1000
MTEXTBEGIN
1070
    73
1070
     1
1070
    44
1040
1.0
1070
    74
1070
     0
1000
MTEXTEND
1000
MTEXTBEGIN
1070
    73
1070
     1
1070
    44
1040
1.0
1070
    74
1070
     0
1000
MTEXTEND
1000
MTEXTBEGIN
1070
    73
1070
     1
1070
    44
1040
1.0
1070
    74
1070
     0
1000
MTEXTEND
1000
MTEXTBEGIN
1070
    73
1070
     1
1070
    44
1040
1.0
1070
    74
1070
     0
1000
MTEXTEND
  0
POINT
  5
724F
330
6FAF
100
AcDbEntity
  8
DEFPOINTS
 62
     0
100
AcDbPoint
 10
447.6433482289873
 20
245.5843786198825
 30
0.0
  0
POINT
  5
7250
330
6FAF
100
AcDbEntity
  8
DEFPOINTS
 62
     0
100
AcDbPoint
 10
438.043348228894
 20
189.7843786198825
 30
0.0
  0
POINT
  5
7251
330
6FAF
100
AcDbEntity
  8
DEFPOINTS
 62
     0
100
AcDbPoint
 10
488.709298917882
 20
189.7843786198825
 30
0.0
  0
ENDBLK
  5
6FBA
330
6FAF
100
AcDbEntity
  8
0
100
AcDbBlockEnd
  0
BLOCK
  5
6FC5
330
6FBB
100
AcDbEntity
  8
0
100
AcDbBlockBegin
  2
*D14
 70
     1
 10
0.0
 20
0.0
 30
0.0
  3
*D14
  1

  0
LINE
  5
7237
330
6FBB
100
AcDbEntity
  8
SUNPOU
100
AcDbLine
 10
452.6433482291842
 20
281.2032961978012
 30
0.0
 11
491.709298917882
 21
281.2032961978012
 31
0.0
  0
LINE
  5
7238
330
6FBB
100
AcDbEntity
  8
SUNPOU
100
AcDbLine
 10
453.6433646444797
 20
245.5843786199437
 30
0.0
 11
491.709298917882
 21
245.5843786199437
 31
0.0
  0
LINE
  5
7239
330
6FBB
100
AcDbEntity
  8
SUNPOU
100
AcDbLine
 10
488.709298917882
 20
274.2032961978012
 30
0.0
 11
488.709298917882
 21
252.5843786199437
 31
0.0
  0
INSERT
  5
723A
330
6FBB
100
AcDbEntity
  8
SUNPOU
100
AcDbBlockReference
  2
_OPEN
 10
488.709298917882
 20
281.2032961978012
 30
0.0
 41
7.0
 42
7.0
 43
7.0
 50
90.0
  0
INSERT
  5
723B
330
6FBB
100
AcDbEntity
  8
SUNPOU
100
AcDbBlockReference
  2
_OPEN
 10
488.709298917882
 20
245.5843786199437
 30
0.0
 41
7.0
 42
7.0
 43
7.0
 50
270.0
  0
MTEXT
  5
723C
330
6FBB
100
AcDbEntity
  8
SUNPOU
100
AcDbMText
 10
483.7092989178819
 20
263.3938374088725
 30
0.0
 40
6.0
 41
0.0
 71
     5
 72
     5
  1
\A1;36
 11
0.0000000000000001
 21
1.0
 31
0.0
 73
     1
 44
1.0
1001
ACAD
1000
MTEXTBEGIN
1070
    73
1070
     1
1070
    44
1040
1.0
1070
    74
1070
     0
1000
MTEXTEND
1000
MTEXTBEGIN
1070
    73
1070
     1
1070
    44
1040
1.0
1070
    74
1070
     0
1000
MTEXTEND
1000
MTEXTBEGIN
1070
    73
1070
     1
1070
    44
1040
1.0
1070
    74
1070
     0
1000
MTEXTEND
1000
MTEXTBEGIN
1070
    73
1070
     1
1070
    44
1040
1.0
1070
    74
1070
     0
1000
MTEXTEND
  0
POINT
  5
723D
330
6FBB
100
AcDbEntity
  8
DEFPOINTS
 62
     0
100
AcDbPoint
 10
446.6433482291843
 20
281.2032961978012
 30
0.0
  0
POINT
  5
723E
330
6FBB
100
AcDbEntity
  8
DEFPOINTS
 62
     0
100
AcDbPoint
 10
447.6433646444798
 20
245.5843786199437
 30
0.0
  0
POINT
  5
723F
330
6FBB
100
AcDbEntity
  8
DEFPOINTS
 62
     0
100
AcDbPoint
 10
488.709298917882
 20
245.5843786199437
 30
0.0
  0
ENDBLK
  5
6FC6
330
6FBB
100
AcDbEntity
  8
0
100
AcDbBlockEnd
  0
BLOCK
  5
6FD1
330
6FC7
100
AcDbEntity
  8
0
100
AcDbBlockBegin
  2
*D15
 70
     1
 10
0.0
 20
0.0
 30
0.0
  3
*D15
  1

  0
LINE
  5
7252
330
6FC7
100
AcDbEntity
  8
SUNPOU
100
AcDbLine
 10
455.8433482290233
 20
540.5160194736562
 30
0.0
 11
491.709298917882
 21
540.5160194736562
 31
0.0
  0
LINE
  5
7253
330
6FC7
100
AcDbEntity
  8
SUNPOU
100
AcDbLine
 10
455.8433482290233
 20
500.5160194736562
 30
0.0
 11
491.709298917882
 21
500.5160194736562
 31
0.0
  0
LINE
  5
7254
330
6FC7
100
AcDbEntity
  8
SUNPOU
100
AcDbLine
 10
488.709298917882
 20
533.5160194736562
 30
0.0
 11
488.709298917882
 21
507.5160194736562
 31
0.0
  0
INSERT
  5
7255
330
6FC7
100
AcDbEntity
  8
SUNPOU
100
AcDbBlockReference
  2
_OPEN
 10
488.709298917882
 20
540.5160194736562
 30
0.0
 41
7.0
 42
7.0
 43
7.0
 50
90.0
  0
INSERT
  5
7256
330
6FC7
100
AcDbEntity
  8
SUNPOU
100
AcDbBlockReference
  2
_OPEN
 10
488.709298917882
 20
500.5160194736562
 30
0.0
 41
7.0
 42
7.0
 43
7.0
 50
270.0
  0
MTEXT
  5
7257
330
6FC7
100
AcDbEntity
  8
SUNPOU
100
AcDbMText
 10
483.7092989178819
 20
520.5160194736563
 30
0.0
 40
6.0
 41
0.0
 71
     5
 72
     5
  1
\A1;40
 11
0.0000000000000001
 21
1.0
 31
0.0
 73
     1
 44
1.0
1001
ACAD
1000
MTEXTBEGIN
1070
    73
1070
     1
1070
    44
1040
1.0
1070
    74
1070
     0
1000
MTEXTEND
1000
MTEXTBEGIN
1070
    73
1070
     1
1070
    44
1040
1.0
1070
    74
1070
     0
1000
MTEXTEND
1000
MTEXTBEGIN
1070
    73
1070
     1
1070
    44
1040
1.0
1070
    74
1070
     0
1000
MTEXTEND
1000
MTEXTBEGIN
1070
    73
1070
     1
1070
    44
1040
1.0
1070
    74
1070
     0
1000
MTEXTEND
  0
POINT
  5
7258
330
6FC7
100
AcDbEntity
  8
DEFPOINTS
 62
     0
100
AcDbPoint
 10
449.8433482290233
 20
540.5160194736562
 30
0.0
  0
POINT
  5
7259
330
6FC7
100
AcDbEntity
  8
DEFPOINTS
 62
     0
100
AcDbPoint
 10
449.8433482290233
 20
500.5160194736562
 30
0.0
  0
POINT
  5
725A
330
6FC7
100
AcDbEntity
  8
DEFPOINTS
 62
     0
100
AcDbPoint
 10
488.709298917882
 20
500.5160194736562
 30
0.0
  0
ENDBLK
  5
6FD2
330
6FC7
100
AcDbEntity
  8
0
100
AcDbBlockEnd
  0
BLOCK
  5
72BC
330
72B2
100
AcDbEntity
  8
0
100
AcDbBlockBegin
  2
*D16
 70
     1
 10
0.0
 20
0.0
 30
0.0
  3
*D16
  1

  0
LINE
  5
730B
330
72B2
100
AcDbEntity
  8
SUNPOU
100
AcDbLine
 10
669.0203497750112
 20
391.2632596198826
 30
0.0
 11
669.0203497750112
 21
432.6479256185634
 31
0.0
  0
LINE
  5
730C
330
72B2
100
AcDbEntity
  8
SUNPOU
100
AcDbLine
 10
691.020638775011
 20
391.2628973640511
 30
0.0
 11
691.020638775011
 21
432.6479256185634
 31
0.0
  0
LINE
  5
730D
330
72B2
100
AcDbEntity
  8
SUNPOU
100
AcDbLine
 10
676.0203497750112
 20
429.6479256185635
 30
0.0
 11
684.0206387750111
 21
429.6479256185635
 31
0.0
  0
INSERT
  5
730E
330
72B2
100
AcDbEntity
  8
SUNPOU
100
AcDbBlockReference
  2
_OPEN
 10
669.0203497750112
 20
429.6479256185635
 30
0.0
 41
7.0
 42
7.0
 43
7.0
 50
180.0
  0
INSERT
  5
730F
330
72B2
100
AcDbEntity
  8
SUNPOU
100
AcDbBlockReference
  2
_OPEN
 10
691.020638775011
 20
429.6479256185635
 30
0.0
 41
7.0
 42
7.0
 43
7.0
  0
MTEXT
  5
7310
330
72B2
100
AcDbEntity
  8
SUNPOU
100
AcDbMText
 10
680.0204942750111
 20
434.6479256185634
 30
0.0
 40
6.0
 41
0.0
 71
     5
 72
     5
  1
\A1;22
 73
     1
 44
1.0
1001
ACAD
1000
MTEXTBEGIN
1070
    73
1070
     1
1070
    44
1040
1.0
1070
    74
1070
     0
1000
MTEXTEND
1000
MTEXTBEGIN
1070
    73
1070
     1
1070
    44
1040
1.0
1070
    74
1070
     0
1000
MTEXTEND
1000
MTEXTBEGIN
1070
    73
1070
     1
1070
    44
1040
1.0
1070
    74
1070
     0
1000
MTEXTEND
  0
POINT
  5
7311
330
72B2
100
AcDbEntity
  8
DEFPOINTS
 62
     0
100
AcDbPoint
 10
669.0203497750112
 20
385.2632596198826
 30
0.0
  0
POINT
  5
7312
330
72B2
100
AcDbEntity
  8
DEFPOINTS
 62
     0
100
AcDbPoint
 10
691.020638775011
 20
385.2628973640511
 30
0.0
  0
POINT
  5
7313
330
72B2
100
AcDbEntity
  8
DEFPOINTS
 62
     0
100
AcDbPoint
 10
691.020638775011
 20
429.6479256185635
 30
0.0
  0
ENDBLK
  5
72BD
330
72B2
100
AcDbEntity
  8
0
100
AcDbBlockEnd
  0
ENDSEC
  0
SECTION
  2
ENTITIES
  0
LWPOLYLINE
  5
6C0
330
1A
100
AcDbEntity
  8
ZUWAKU
100
AcDbPolyline
 90
        4
 70
     1
 43
0.0
 10
10.85047808566059
 20
564.5825862828226
 10
10.85047808566059
 20
14.58258628282271
 10
806.8504780856606
 20
14.58258628282271
 10
806.8504780856606
 20
564.5825862828226
  0
LWPOLYLINE
  5
6C1
330
1A
100
AcDbEntity
  8
ZUWAKU
100
AcDbPolyline
 90
        4
 70
     1
 43
0.0
 10
10.45047808566073
 20
564.9825862828227
 10
10.45047808566073
 20
14.18258628282274
 10
807.2504780856606
 20
14.18258628282272
 10
807.2504780856606
 20
564.9825862828227
  0
LWPOLYLINE
  5
6C2
330
1A
100
AcDbEntity
  8
ZUWAKU
100
AcDbPolyline
 90
        4
 70
     1
 43
0.0
 10
10.05047808566086
 20
565.3825862828226
 10
10.05047808566086
 20
13.78258628282265
 10
807.6504780856607
 20
13.78258628282271
 10
807.6504780856607
 20
565.3825862828227
  0
LWPOLYLINE
  5
6C3
330
1A
100
AcDbEntity
  8
ZUWAKU
100
AcDbPolyline
 90
        4
 70
     1
 43
0.0
 10
10.65047808566077
 20
564.7825862828227
 10
10.65047808566077
 20
14.38258628282267
 10
807.0504780856609
 20
14.38258628282271
 10
807.0504780856609
 20
564.7825862828227
  0
LWPOLYLINE
  5
6C4
330
1A
100
AcDbEntity
  8
ZUWAKU
100
AcDbPolyline
 90
        4
 70
     1
 43
0.0
 10
10.25047808566068
 20
565.1825862828227
 10
10.25047808566068
 20
13.98258628282269
 10
807.4504780856605
 20
13.98258628282271
 10
807.450478085661
 20
565.1825862828227
  0
LINE
  5
6C5
330
1A
100
AcDbEntity
  8
ZUWAKU
100
AcDbLine
 10
10.05047808566086
 20
43.78258628282265
 30
0.0
 11
807.4504780856605
 21
43.78258628282265
 31
0.0
  0
LINE
  5
6C6
330
1A
100
AcDbEntity
  8
ZUWAKU
100
AcDbLine
 10
10.05047808566086
 20
43.98258628282265
 30
0.0
 11
807.4504780856605
 21
43.98258628282265
 31
0.0
  0
LINE
  5
6C7
330
1A
100
AcDbEntity
  8
ZUWAKU
100
AcDbLine
 10
10.05047808566086
 20
44.18258628282266
 30
0.0
 11
807.4504780856605
 21
44.18258628282266
 31
0.0
  0
LINE
  5
6C8
330
1A
100
AcDbEntity
  8
ZUWAKU
100
AcDbLine
 10
10.05047808566086
 20
44.38258628282265
 30
0.0
 11
807.4504780856605
 21
44.38258628282265
 31
0.0
  0
LINE
  5
6C9
330
1A
100
AcDbEntity
  8
ZUWAKU
100
AcDbLine
 10
10.05047808566086
 20
44.58258628282266
 30
0.0
 11
807.4504780856605
 21
44.58258628282266
 31
0.0
  0
LINE
  5
6CA
330
1A
100
AcDbEntity
  8
ZUWAKU
100
AcDbLine
 10
218.6970793757286
 20
29.18258628282268
 30
0.0
 11
457.474842056652
 21
29.18258628282268
 31
0.0
  0
LINE
  5
6CB
330
1A
100
AcDbEntity
  8
ZUWAKU
100
AcDbLine
 10
218.6970793757286
 20
29.38258628282268
 30
0.0
 11
457.474842056652
 21
29.38258628282268
 31
0.0
  0
LINE
  5
6CC
330
1A
100
AcDbEntity
  8
ZUWAKU
100
AcDbLine
 10
218.6970793757286
 20
28.98258628282269
 30
0.0
 11
457.474842056652
 21
28.98258628282268
 31
0.0
  0
LINE
  5
6D2
330
1A
100
AcDbEntity
  8
ZUWAKU
100
AcDbLine
 10
22.57284175945824
 20
29.44753577648383
 30
0.0
 11
25.48263973410303
 21
26.53773780183917
 31
0.0
  0
LINE
  5
6D3
330
1A
100
AcDbEntity
  8
ZUWAKU
100
AcDbLine
 10
27.46253872142551
 20
28.51763678916148
 30
0.0
 11
24.55274074678072
 21
31.42743476380615
 31
0.0
  0
ARC
  5
6D4
330
1A
100
AcDbEntity
  8
ZUWAKU
100
AcDbCircle
 10
24.66769024044197
 20
33.70758628282265
 30
0.0
 40
0.525
100
AcDbArc
 50
90.0
 51
180.0
  0
LINE
  5
6D5
330
1A
100
AcDbEntity
  8
ZUWAKU
100
AcDbLine
 10
24.14269024044187
 20
37.03258628282265
 30
0.0
 11
27.64269024044188
 21
37.03258628282265
 31
0.0
  0
LINE
  5
6D6
330
1A
100
AcDbEntity
  8
ZUWAKU
100
AcDbLine
 10
22.39269024044188
 20
23.73258628282265
 30
0.0
 11
25.36769024044179
 21
23.73258628282265
 31
0.0
  0
LINE
  5
6D7
330
1A
100
AcDbEntity
  8
ZUWAKU
100
AcDbLine
 10
22.39269024044188
 20
20.93258628282265
 30
0.0
 11
25.89269024044188
 21
20.93258628282265
 31
0.0
  0
INSERT
  5
6D8
330
1A
100
AcDbEntity
  8
ZUWAKU
  6
Continuous
100
AcDbBlockReference
  2
*X1
 10
12.342212154781
 20
7.675000000000004
 30
0.0
1001
ACAD
1000
HATCH
1002
{
1070
    19
1000
ANSI37
1040
0.2
1040
0.0
1000
R14_HATCH_DATA
1000
4E4
1011
13.34221215478101
1021
7.675000000000004
1031
0.0
1011
12.342212154781
1021
8.675000000000004
1031
0.0
1011
12.342212154781
1021
7.675000000000004
1031
1.0
1040
0.0
1010
0.0
1020
0.0
1030
1.0
1000
ANSI37
1070
     0
1070
     0
1071
        8
1071
        7
1070
     1
1070
     1
1071
       24
1040
12.2105285919996
1040
23.75243476380622
1040
-0.1989123673796348
1040
11.80047808566087
1040
24.74238425746728
1040
0.0
1040
11.80047808566087
1040
26.03258628282265
1040
-0.4142135623730912
1040
12.32547808566084
1040
26.55758628282264
1040
0.0
1040
15.30047808566075
1040
26.55758628282264
1040
0.4142135623731546
1040
15.82547808566084
1040
27.08258628282264
1040
0.0
1040
15.82547808566084
1040
28.83258628282265
1040
0.4142135623731586
1040
15.30047808566075
1040
29.35758628282265
1040
0.0
1040
11.80047808566087
1040
29.35758628282265
1040
0.4142135623730928
1040
9.000478085660915
1040
26.55758628282267
1040
0.0
1040
9.000478085660915
1040
24.7423842574674
1040
0.1989123673796619
1040
10.23062960467734
1040
21.7725357764838
1040
0.0
1040
13.14042757932202
1040
18.86273780183914
1040
-0.1989123673796613
1040
13.55047808566087
1040
17.87278830817795
1040
0.0
1040
13.55047808566087
1040
16.58258628282264
1040
-0.4142135623730911
1040
13.02547808566089
1040
16.05758628282264
1040
0.0
1040
10.05047808566098
1040
16.05758628282264
1040
0.4142135623731526
1040
9.525478085660893
1040
15.53258628282265
1040
0.0
1040
9.525478085660893
1040
13.78258628282263
1040
0.4142135623731526
1040
10.05047808566098
1040
13.25758628282265
1040
0.0
1040
13.55047808566087
1040
13.25758628282265
1040
0.4142135623731044
1040
16.35047808566094
1040
16.05758628282262
1040
0.0
1040
16.35047808566094
1040
17.87278830817789
1040
0.1989123673796604
1040
15.12032656664439
1040
20.84263678916144
1040
0.0
1071
        0
1071
        7
1070
     1
1070
     1
1071
       16
1040
21.25047808566091
1040
25.15758628282265
1040
-0.4142135623730935
1040
22.65047808566089
1040
26.55758628282264
1040
0.0
1040
24.57547808566085
1040
26.55758628282264
1040
0.4142135623731546
1040
25.10047808566094
1040
27.08258628282264
1040
0.0
1040
25.10047808566094
1040
28.83258628282265
1040
0.4142135623730951
1040
24.57547808566096
1040
29.35758628282265
1040
0.0
1040
22.65047808566078
1040
29.35758628282261
1040
0.4142135623730892
1040
18.45047808566084
1040
25.15758628282258
1040
0.0
1040
18.45047808566084
1040
17.45758628282267
1040
0.4142135623730969
1040
22.65047808566089
1040
13.25758628282265
1040
0.0
1040
24.57547808566085
1040
13.25758628282265
1040
0.4142135623731526
1040
25.10047808566094
1040
13.78258628282263
1040
0.0
1040
25.10047808566094
1040
15.53258628282265
1040
0.4142135623730891
1040
24.57547808566096
1040
16.05758628282264
1040
0.0
1040
22.65047808566089
1040
16.05758628282264
1040
-0.4142135623730928
1040
21.25047808566091
1040
17.45758628282263
1040
0.0
1071
        0
1071
        7
1070
     1
1070
     1
1071
        2
1040
21.95047808566084
1040
21.30758628282265
1040
1.0
1040
25.45047808566085
1040
21.30758628282265
1040
1.0
1071
        0
1071
        7
1070
     1
1070
     1
1071
       26
1040
35.02312456783886
1040
25.31263347638607
1040
0.0
1040
36.08476420097668
1040
28.67449231465566
1040
0.5069206636600134
1040
35.58413330178132
1040
29.35758628282265
1040
0.0
1040
33.88524392217209
1040
29.35758628282265
1040
0.3272098845218764
1040
33.38461302297673
1040
28.99068025098962
1040
0.0
1040
31.51634314834495
1040
23.07449231465573
1040
-0.3272098845219541
1040
31.01571224914948
1040
22.70758628282264
1040
0.0
1040
30.87547808566103
1040
22.70758628282264
1040
-0.4142135623731526
1040
30.35047808566094
1040
23.23258628282263
1040
0.0
1040
30.35047808566094
1040
28.83258628282265
1040
0.4142135623730951
1040
29.82547808566096
1040
29.35758628282265
1040
0.0
1040
28.07547808566084
1040
29.35758628282265
1040
0.4142135623730871
1040
27.55047808566087
1040
28.83258628282266
1040
0.0
1040
27.55047808566087
1040
13.78258628282263
1040
0.4142135623730891
1040
28.07547808566084
1040
13.25758628282265
1040
0.0
1040
29.82547808566085
1040
13.25758628282265
1040
0.4142135623731526
1040
30.35047808566094
1040
13.78258628282263
1040
0.0
1040
30.35047808566094
1040
19.38258628282266
1040
-0.4142135623731526
1040
30.87547808566103
1040
19.90758628282264
1040
0.0
1040
31.0157122491496
1040
19.90758628282264
1040
-0.3272098845218915
1040
31.51634314834495
1040
19.54068025098957
1040
0.0
1040
33.38461302297673
1040
13.62449231465572
1040
0.3272098845218902
1040
33.88524392217209
1040
13.25758628282265
1040
0.0
1040
35.58413330178132
1040
13.25758628282265
1040
0.5069206636600335
1040
36.08476420097668
1040
13.94068025098965
1040
0.0
1040
33.75837282250301
1040
21.30758628282279
1040
0.0
1071
        0
1071
        7
1070
     1
1070
     1
1071
        8
1040
41.20047808566084
1040
28.83258628282266
1040
0.4142135623731546
1040
40.67547808566075
1040
29.35758628282265
1040
0.0
1040
38.92547808566098
1040
29.35758628282265
1040
0.4142135623731507
1040
38.40047808566089
1040
28.83258628282266
1040
0.0
1040
38.40047808566089
1040
13.78258628282263
1040
0.4142135623731526
1040
38.92547808566098
1040
13.25758628282265
1040
0.0
1040
40.67547808566075
1040
13.25758628282265
1040
0.4142135623731526
1040
41.20047808566084
1040
13.78258628282263
1040
0.0
1071
        0
1071
        7
1070
     1
1070
     1
1071
       24
1040
46.10047808566093
1040
26.03258628282265
1040
-0.4142135623731546
1040
46.62547808566102
1040
26.55758628282264
1040
0.0
1040
49.60047808566094
1040
26.55758628282264
1040
0.4142135623730911
1040
50.12547808566091
1040
27.08258628282264
1040
0.0
1040
50.12547808566091
1040
28.83258628282265
1040
0.4142135623730952
1040
49.60047808566094
1040
29.35758628282265
1040
0.0
1040
46.10047808566093
1040
29.35758628282265
1040
0.4142135623731048
1040
43.30047808566087
1040
26.55758628282267
1040
0.0
1040
43.30047808566087
1040
24.7423842574674
1040
0.1989123673796613
1040
44.53062960467741
1040
21.77253577648385
1040
0.0
1040
47.44042757932208
1040
18.86273780183918
1040
-0.1989123673796402
1040
47.85047808566093
1040
17.87278830817811
1040
0.0
1040
47.85047808566093
1040
16.58258628282264
1040
-0.4142135623730911
1040
47.32547808566096
1040
16.05758628282264
1040
0.0
1040
44.35047808566094
1040
16.05758628282264
1040
0.4142135623731526
1040
43.82547808566084
1040
15.53258628282265
1040
0.0
1040
43.82547808566084
1040
13.78258628282263
1040
0.4142135623730891
1040
44.35047808566082
1040
13.25758628282265
1040
0.0
1040
47.85047808566093
1040
13.25758628282265
1040
0.4142135623730925
1040
50.65047808566089
1040
16.05758628282262
1040
0.0
1040
50.65047808566089
1040
17.87278830817789
1040
0.1989123673796675
1040
49.42032656664435
1040
20.84263678916155
1040
0.0
1040
46.51052859199978
1040
23.75243476380607
1040
-0.1989123673796652
1040
46.10047808566093
1040
24.74238425746723
1040
0.0
1071
        0
1071
        7
1070
     1
1070
     1
1071
       16
1040
55.55047808566087
1040
28.83258628282264
1040
0.414213562373103
1040
55.02547808566089
1040
29.35758628282265
1040
0.0
1040
53.27547808566089
1040
29.35758628282265
1040
0.4142135623730871
1040
52.75047808566092
1040
28.83258628282266
1040
0.0
1040
52.75047808566092
1040
16.05758628282262
1040
0.4142135623730926
1040
55.55047808566087
1040
13.25758628282265
1040
0.0
1040
59.05047808566087
1040
13.25758628282265
1040
0.4142135623731044
1040
61.85047808566094
1040
16.05758628282262
1040
0.0
1040
61.85047808566094
1040
28.83258628282265
1040
0.4142135623730951
1040
61.32547808566096
1040
29.35758628282265
1040
0.0
1040
59.57547808566085
1040
29.35758628282265
1040
0.4142135623730871
1040
59.05047808566087
1040
28.83258628282266
1040
0.0
1040
59.05047808566087
1040
17.10758628282262
1040
-0.414213562373088
1040
58.00047808566091
1040
16.05758628282264
1040
0.0
1040
56.60047808566094
1040
16.05758628282264
1040
-0.4142135623731197
1040
55.55047808566087
1040
17.10758628282262
1040
0.0
1071
        0
1071
        7
1070
     1
1070
     1
1071
        8
1040
66.75047808566091
1040
28.83258628282266
1040
0.4142135623730871
1040
66.22547808566094
1040
29.35758628282265
1040
0.0
1040
64.47547808566094
1040
29.35758628282265
1040
0.4142135623731507
1040
63.95047808566085
1040
28.83258628282266
1040
0.0
1040
63.95047808566085
1040
13.78258628282263
1040
0.4142135623730891
1040
64.47547808566082
1040
13.25758628282265
1040
0.0
1040
66.22547808566094
1040
13.25758628282265
1040
0.4142135623730891
1040
66.75047808566091
1040
13.78258628282263
1040
0.0
1071
        0
1070
     0
1070
     1
1040
0.0
1040
0.2
1070
     0
1070
     2
1040
0.7853981633974483
1040
-903.2340384037992
1040
-7.092413717177286
1040
-0.4490128060534576
1040
0.4490128060534577
1070
     0
1040
2.356194490192344
1040
-903.2340384037992
1040
-7.092413717177286
1040
-0.4490128060534577
1040
-0.4490128060534576
1070
     0
1040
0.057451373970553
1071
        8
1040
13.78812089390305
1040
21.2747599287082
1040
0.0
1040
20.11278093731891
1040
24.95164846527365
1040
0.0
1040
22.8726338165394
1040
21.61946792889336
1040
0.0
1040
28.62232591251688
1040
22.30888392926414
1040
0.0
1040
39.54673794983648
1040
22.76849619680576
1040
0.0
1040
44.6064668260093
1040
25.52616259922985
1040
0.0
1040
54.2659519032801
1040
24.83674419791766
1040
0.0
1040
65.53534555050248
1040
25.29635646545927
1040
0.0
1002
}
  0
ARC
  5
6D9
330
1A
100
AcDbEntity
  8
ZUWAKU
100
AcDbCircle
 10
22.39269024044188
 20
23.20758628282265
 30
0.0
 40
0.525
100
AcDbArc
 50
90.0
 51
180.0
  0
ARC
  5
6DA
330
1A
100
AcDbEntity
  8
ZUWAKU
100
AcDbCircle
 10
22.39269024044188
 20
21.45758628282265
 30
0.0
 40
0.525
100
AcDbArc
 50
180.0
 51
270.0
  0
LINE
  5
6DB
330
1A
100
AcDbEntity
  8
ZUWAKU
100
AcDbLine
 10
21.86769024044179
 20
21.45758628282265
 30
0.0
 11
21.86769024044179
 21
23.20758628282265
 31
0.0
  0
ARC
  5
6DC
330
1A
100
AcDbEntity
  8
ZUWAKU
100
AcDbCircle
 10
25.54269024044197
 20
32.41738425746735
 30
0.0
 40
4.199999999999999
100
AcDbArc
 50
180.0
 51
224.9999999999996
  0
ARC
  5
6DD
330
1A
100
AcDbEntity
  8
ZUWAKU
100
AcDbCircle
 10
25.54269024044197
 20
32.41738425746735
 30
0.0
 40
1.399999999999999
100
AcDbArc
 50
180.0000000000016
 51
224.9999999999993
  0
ARC
  5
6DE
330
1A
100
AcDbEntity
  8
ZUWAKU
100
AcDbCircle
 10
24.14269024044187
 20
34.23258628282265
 30
0.0
 40
2.799999999999999
100
AcDbArc
 50
90.0
 51
180.0
  0
LINE
  5
6DF
330
1A
100
AcDbEntity
  8
ZUWAKU
100
AcDbLine
 10
21.34269024044192
 20
34.23258628282265
 30
0.0
 11
21.34269024044192
 21
32.41738425746731
 31
0.0
  0
LINE
  5
6E0
330
1A
100
AcDbEntity
  8
ZUWAKU
100
AcDbLine
 10
24.14269024044187
 20
33.70758628282265
 30
0.0
 11
24.14269024044187
 21
32.41738425746731
 31
0.0
  0
LINE
  5
6E1
330
1A
100
AcDbEntity
  8
ZUWAKU
100
AcDbLine
 10
89.17710763364903
 20
43.78258628282265
 30
0.0
 11
89.17710763364903
 21
14.58258628282271
 31
0.0
  0
LINE
  5
6E2
330
1A
100
AcDbEntity
  8
ZUWAKU
100
AcDbLine
 10
89.57710763364913
 20
43.78258628282265
 30
0.0
 11
89.57710763364913
 21
14.58258628282271
 31
0.0
  0
LINE
  5
6E3
330
1A
100
AcDbEntity
  8
ZUWAKU
100
AcDbLine
 10
89.37710763364885
 20
43.78258628282265
 30
0.0
 11
89.37710763364931
 21
14.58258628282271
 31
0.0
  0
LINE
  5
6E4
330
1A
100
AcDbEntity
  8
ZUWAKU
100
AcDbLine
 10
56.87284175945842
 20
29.44753577648383
 30
0.0
 11
59.78263973410321
 21
26.53773780183917
 31
0.0
  0
ARC
  5
6E5
330
1A
100
AcDbEntity
  8
ZUWAKU
100
AcDbCircle
 10
58.44269024044206
 20
34.23258628282265
 30
0.0
 40
2.799999999999999
100
AcDbArc
 50
90.0
 51
180.0
  0
LINE
  5
6E6
330
1A
100
AcDbEntity
  8
ZUWAKU
100
AcDbLine
 10
56.69269024044206
 20
20.93258628282265
 30
0.0
 11
60.19269024044206
 21
20.93258628282265
 31
0.0
  0
LINE
  5
6E7
330
1A
100
AcDbEntity
  8
ZUWAKU
100
AcDbLine
 10
56.69269024044206
 20
23.73258628282265
 30
0.0
 11
59.66769024044197
 21
23.73258628282265
 31
0.0
  0
LINE
  5
6E8
330
1A
100
AcDbEntity
  8
ZUWAKU
100
AcDbLine
 10
42.16769024044197
 20
37.03258628282265
 30
0.0
 11
40.41769024044197
 21
37.03258628282265
 31
0.0
  0
LINE
  5
6E9
330
1A
100
AcDbEntity
  8
ZUWAKU
100
AcDbLine
 10
40.41769024044197
 20
20.93258628282265
 30
0.0
 11
42.16769024044197
 21
20.93258628282265
 31
0.0
  0
LINE
  5
6EA
330
1A
100
AcDbEntity
  8
ZUWAKU
100
AcDbLine
 10
39.89269024044188
 20
36.50758628282265
 30
0.0
 11
39.89269024044188
 21
21.45758628282265
 31
0.0
  0
LINE
  5
6EB
330
1A
100
AcDbEntity
  8
ZUWAKU
100
AcDbLine
 10
30.79269024044197
 20
25.13258628282265
 30
0.0
 11
30.79269024044197
 21
32.83258628282261
 31
0.0
  0
LINE
  5
6EC
330
1A
100
AcDbEntity
  8
ZUWAKU
100
AcDbLine
 10
33.59269024044192
 20
32.83258628282265
 30
0.0
 11
33.59269024044192
 21
25.13258628282265
 31
0.0
  0
ARC
  5
6ED
330
1A
100
AcDbEntity
  8
ZUWAKU
100
AcDbCircle
 10
24.49269024044179
 20
25.54778830817795
 30
0.0
 40
4.199999999999999
100
AcDbArc
 50
0.0
 51
44.9999999999996
  0
CIRCLE
  5
6EE
330
1A
100
AcDbEntity
  8
ZUWAKU
100
AcDbCircle
 10
36.04269024044197
 20
28.98258628282265
 30
0.0
 40
1.75
  0
ARC
  5
6EF
330
1A
100
AcDbEntity
  8
ZUWAKU
100
AcDbCircle
 10
34.99269024044179
 20
25.13258628282265
 30
0.0
 40
4.199999999999999
100
AcDbArc
 50
180.0
 51
270.0
  0
LINE
  5
6F0
330
1A
100
AcDbEntity
  8
ZUWAKU
100
AcDbLine
 10
28.69269024044206
 20
23.73258628282265
 30
0.0
 11
28.69269024044206
 21
25.547788308178
 31
0.0
  0
ARC
  5
6F1
330
1A
100
AcDbEntity
  8
ZUWAKU
100
AcDbCircle
 10
25.36769024044179
 20
24.25758628282265
 30
0.0
 40
0.525
100
AcDbArc
 50
270.0
 51
0.0
  0
LINE
  5
6F2
330
1A
100
AcDbEntity
  8
ZUWAKU
100
AcDbLine
 10
25.89269024044188
 20
24.25758628282265
 30
0.0
 11
25.89269024044188
 21
25.547788308178
 31
0.0
  0
ARC
  5
6F3
330
1A
100
AcDbEntity
  8
ZUWAKU
100
AcDbCircle
 10
25.89269024044188
 20
23.73258628282265
 30
0.0
 40
2.799999999999999
100
AcDbArc
 50
270.0
 51
0.0
  0
ARC
  5
6F4
330
1A
100
AcDbEntity
  8
ZUWAKU
100
AcDbCircle
 10
24.49269024044179
 20
25.547788308178
 30
0.0
 40
1.399999999999999
100
AcDbArc
 50
0.0
 51
44.9999999999996
  0
ARC
  5
6F5
330
1A
100
AcDbEntity
  8
ZUWAKU
100
AcDbCircle
 10
40.41769024044197
 20
21.45758628282265
 30
0.0
 40
0.525
100
AcDbArc
 50
180.0
 51
270.0
  0
ARC
  5
6F6
330
1A
100
AcDbEntity
  8
ZUWAKU
100
AcDbCircle
 10
36.91769024044197
 20
23.20758628282265
 30
0.0
 40
0.525
100
AcDbArc
 50
0.0
 51
90.0
  0
ARC
  5
6F7
330
1A
100
AcDbEntity
  8
ZUWAKU
100
AcDbCircle
 10
36.91769024044197
 20
21.45758628282265
 30
0.0
 40
0.525
100
AcDbArc
 50
270.0
 51
0.0
  0
LINE
  5
6F8
330
1A
100
AcDbEntity
  8
ZUWAKU
100
AcDbLine
 10
37.44269024044206
 20
23.20758628282265
 30
0.0
 11
37.44269024044206
 21
21.45758628282265
 31
0.0
  0
ARC
  5
6F9
330
1A
100
AcDbEntity
  8
ZUWAKU
100
AcDbCircle
 10
34.99269024044179
 20
25.13258628282265
 30
0.0
 40
1.399999999999999
100
AcDbArc
 50
180.0
 51
270.0
  0
LINE
  5
6FA
330
1A
100
AcDbEntity
  8
ZUWAKU
100
AcDbLine
 10
36.91769024044197
 20
20.93258628282265
 30
0.0
 11
34.99269024044179
 21
20.93258628282265
 31
0.0
  0
LINE
  5
6FB
330
1A
100
AcDbEntity
  8
ZUWAKU
100
AcDbLine
 10
34.99269024044179
 20
23.73258628282265
 30
0.0
 11
36.91769024044197
 21
23.73258628282265
 31
0.0
  0
ARC
  5
6FC
330
1A
100
AcDbEntity
  8
ZUWAKU
100
AcDbCircle
 10
34.99269024044179
 20
32.83258628282261
 30
0.0
 40
4.199999999999999
100
AcDbArc
 50
90.0
 51
180.0
  0
LINE
  5
6FD
330
1A
100
AcDbEntity
  8
ZUWAKU
100
AcDbLine
 10
28.16769024044197
 20
36.50758628282265
 30
0.0
 11
28.16769024044197
 21
34.75758628282265
 31
0.0
  0
LINE
  5
6FE
330
1A
100
AcDbEntity
  8
ZUWAKU
100
AcDbLine
 10
27.64269024044188
 20
34.23258628282265
 30
0.0
 11
24.66769024044197
 21
34.23258628282265
 31
0.0
  0
ARC
  5
6FF
330
1A
100
AcDbEntity
  8
ZUWAKU
100
AcDbCircle
 10
27.64269024044188
 20
34.75758628282265
 30
0.0
 40
0.525
100
AcDbArc
 50
270.0
 51
0.0
  0
ARC
  5
700
330
1A
100
AcDbEntity
  8
ZUWAKU
100
AcDbCircle
 10
27.64269024044188
 20
36.50758628282265
 30
0.0
 40
0.525
100
AcDbArc
 50
0.0
 51
90.0
  0
LINE
  5
701
330
1A
100
AcDbEntity
  8
ZUWAKU
100
AcDbLine
 10
37.44269024044206
 20
36.50758628282265
 30
0.0
 11
37.44269024044206
 21
34.75758628282265
 31
0.0
  0
ARC
  5
702
330
1A
100
AcDbEntity
  8
ZUWAKU
100
AcDbCircle
 10
36.91769024044197
 20
34.75758628282265
 30
0.0
 40
0.525
100
AcDbArc
 50
270.0
 51
0.0
  0
ARC
  5
703
330
1A
100
AcDbEntity
  8
ZUWAKU
100
AcDbCircle
 10
40.41769024044197
 20
36.50758628282265
 30
0.0
 40
0.525
100
AcDbArc
 50
90.0
 51
180.0
  0
ARC
  5
704
330
1A
100
AcDbEntity
  8
ZUWAKU
100
AcDbCircle
 10
36.91769024044197
 20
36.50758628282265
 30
0.0
 40
0.525
100
AcDbArc
 50
0.0
 51
90.0
  0
ARC
  5
705
330
1A
100
AcDbEntity
  8
ZUWAKU
100
AcDbCircle
 10
34.99269024044179
 20
32.83258628282265
 30
0.0
 40
1.399999999999999
100
AcDbArc
 50
90.0
 51
180.0
  0
LINE
  5
706
330
1A
100
AcDbEntity
  8
ZUWAKU
100
AcDbLine
 10
36.91769024044197
 20
34.23258628282265
 30
0.0
 11
34.99269024044179
 21
34.23258628282265
 31
0.0
  0
LINE
  5
707
330
1A
100
AcDbEntity
  8
ZUWAKU
100
AcDbLine
 10
34.99269024044179
 20
37.03258628282261
 30
0.0
 11
36.91769024044197
 21
37.03258628282265
 31
0.0
  0
ARC
  5
708
330
1A
100
AcDbEntity
  8
ZUWAKU
100
AcDbCircle
 10
43.21769024044215
 20
27.05758628282265
 30
0.0
 40
0.525
100
AcDbArc
 50
90.0
 51
180.0
  0
ARC
  5
709
330
1A
100
AcDbEntity
  8
ZUWAKU
100
AcDbCircle
 10
43.35792440393061
 20
27.05758628282265
 30
0.0
 40
0.525
100
AcDbArc
 50
17.52556837372255
 51
90.0
  0
LINE
  5
70A
330
1A
100
AcDbEntity
  8
ZUWAKU
100
AcDbLine
 10
53.54269024044197
 20
21.45758628282265
 30
0.0
 11
53.54269024044197
 21
36.50758628282265
 31
0.0
  0
LINE
  5
70B
330
1A
100
AcDbEntity
  8
ZUWAKU
100
AcDbLine
 10
50.74269024044179
 20
36.50758628282265
 30
0.0
 11
50.74269024044179
 21
21.45758628282265
 31
0.0
  0
LINE
  5
70C
330
1A
100
AcDbEntity
  8
ZUWAKU
100
AcDbLine
 10
48.42697635575769
 20
21.61568025098962
 30
0.0
 11
46.10058497728414
 21
28.98258628282267
 31
0.0
  0
LINE
  5
70D
330
1A
100
AcDbEntity
  8
ZUWAKU
100
AcDbLine
 10
43.21769024044215
 20
27.58258628282265
 30
0.0
 11
43.35792440393061
 21
27.58258628282265
 31
0.0
  0
ARC
  5
70E
330
1A
100
AcDbEntity
  8
ZUWAKU
100
AcDbCircle
 10
46.22745607695333
 20
21.45758628282265
 30
0.0
 40
0.525
100
AcDbArc
 50
197.5255683737225
 51
270.0
  0
ARC
  5
70F
330
1A
100
AcDbEntity
  8
ZUWAKU
100
AcDbCircle
 10
47.9263454565621
 20
21.45758628282265
 30
0.0
 40
0.525
100
AcDbArc
 50
270.0
 51
17.52556837372255
  0
LINE
  5
710
330
1A
100
AcDbEntity
  8
ZUWAKU
100
AcDbLine
 10
46.22745607695333
 20
20.93258628282265
 30
0.0
 11
47.9263454565621
 21
20.93258628282265
 31
0.0
  0
ARC
  5
711
330
1A
100
AcDbEntity
  8
ZUWAKU
100
AcDbCircle
 10
42.16769024044197
 20
21.45758628282265
 30
0.0
 40
0.525
100
AcDbArc
 50
270.0
 51
0.0
  0
LINE
  5
712
330
1A
100
AcDbEntity
  8
ZUWAKU
100
AcDbLine
 10
45.72682517775774
 20
21.29949231465567
 30
0.0
 11
43.85855530312574
 21
27.21568025098962
 31
0.0
  0
LINE
  5
713
330
1A
100
AcDbEntity
  8
ZUWAKU
100
AcDbLine
 10
42.69269024044206
 20
21.45758628282265
 30
0.0
 11
42.69269024044206
 21
27.05758628282265
 31
0.0
  0
ARC
  5
714
330
1A
100
AcDbEntity
  8
ZUWAKU
100
AcDbCircle
 10
56.69269024044206
 20
23.20758628282265
 30
0.0
 40
0.525
100
AcDbArc
 50
90.0
 51
180.0
  0
ARC
  5
715
330
1A
100
AcDbEntity
  8
ZUWAKU
100
AcDbCircle
 10
53.01769024044188
 20
21.45758628282265
 30
0.0
 40
0.525
100
AcDbArc
 50
270.0
 51
0.0
  0
ARC
  5
716
330
1A
100
AcDbEntity
  8
ZUWAKU
100
AcDbCircle
 10
56.69269024044206
 20
21.45758628282265
 30
0.0
 40
0.525
100
AcDbArc
 50
180.0
 51
270.0
  0
LINE
  5
717
330
1A
100
AcDbEntity
  8
ZUWAKU
100
AcDbLine
 10
56.16769024044197
 20
21.45758628282265
 30
0.0
 11
56.16769024044197
 21
23.20758628282265
 31
0.0
  0
ARC
  5
718
330
1A
100
AcDbEntity
  8
ZUWAKU
100
AcDbCircle
 10
51.26769024044188
 20
21.45758628282265
 30
0.0
 40
0.525
100
AcDbArc
 50
180.0
 51
270.0
  0
LINE
  5
719
330
1A
100
AcDbEntity
  8
ZUWAKU
100
AcDbLine
 10
51.26769024044188
 20
20.93258628282265
 30
0.0
 11
53.01769024044188
 21
20.93258628282265
 31
0.0
  0
LINE
  5
71A
330
1A
100
AcDbEntity
  8
ZUWAKU
100
AcDbLine
 10
47.36533672261976
 20
32.98763347638608
 30
0.0
 11
46.10058497728414
 21
28.98258628282267
 31
0.0
  0
ARC
  5
71B
330
1A
100
AcDbEntity
  8
ZUWAKU
100
AcDbCircle
 10
46.22745607695333
 20
36.50758628282265
 30
0.0
 40
0.525
100
AcDbArc
 50
90.0
 51
162.4744316262773
  0
LINE
  5
71C
330
1A
100
AcDbEntity
  8
ZUWAKU
100
AcDbLine
 10
48.42697635575769
 20
36.34949231465568
 30
0.0
 11
47.36533672261976
 21
32.98763347638608
 31
0.0
  0
ARC
  5
71D
330
1A
100
AcDbEntity
  8
ZUWAKU
100
AcDbCircle
 10
47.9263454565621
 20
36.50758628282265
 30
0.0
 40
0.525
100
AcDbArc
 50
342.4744316262774
 51
90.0
  0
LINE
  5
71E
330
1A
100
AcDbEntity
  8
ZUWAKU
100
AcDbLine
 10
46.22745607695333
 20
37.03258628282265
 30
0.0
 11
47.9263454565621
 21
37.03258628282265
 31
0.0
  0
LINE
  5
71F
330
1A
100
AcDbEntity
  8
ZUWAKU
100
AcDbLine
 10
42.69269024044206
 20
30.90758628282265
 30
0.0
 11
42.69269024044206
 21
36.50758628282265
 31
0.0
  0
ARC
  5
720
330
1A
100
AcDbEntity
  8
ZUWAKU
100
AcDbCircle
 10
43.21769024044215
 20
30.90758628282265
 30
0.0
 40
0.525
100
AcDbArc
 50
180.0
 51
270.0
  0
LINE
  5
721
330
1A
100
AcDbEntity
  8
ZUWAKU
100
AcDbLine
 10
43.35792440393061
 20
30.38258628282265
 30
0.0
 11
43.21769024044215
 21
30.38258628282265
 31
0.0
  0
ARC
  5
722
330
1A
100
AcDbEntity
  8
ZUWAKU
100
AcDbCircle
 10
43.35792440393061
 20
30.90758628282265
 30
0.0
 40
0.525
100
AcDbArc
 50
270.0
 51
342.4744316262774
  0
ARC
  5
723
330
1A
100
AcDbEntity
  8
ZUWAKU
100
AcDbCircle
 10
42.16769024044197
 20
36.50758628282265
 30
0.0
 40
0.525
100
AcDbArc
 50
0.0
 51
90.0
  0
LINE
  5
724
330
1A
100
AcDbEntity
  8
ZUWAKU
100
AcDbLine
 10
45.72682517775774
 20
36.66568025098962
 30
0.0
 11
43.85855530312574
 21
30.74949231465568
 31
0.0
  0
ARC
  5
725
330
1A
100
AcDbEntity
  8
ZUWAKU
100
AcDbCircle
 10
59.84269024044215
 20
32.41738425746735
 30
0.0
 40
4.199999999999999
100
AcDbArc
 50
180.0
 51
224.9999999999996
  0
LINE
  5
726
330
1A
100
AcDbEntity
  8
ZUWAKU
100
AcDbLine
 10
55.64269024044188
 20
34.23258628282265
 30
0.0
 11
55.64269024044188
 21
32.41738425746731
 31
0.0
  0
ARC
  5
727
330
1A
100
AcDbEntity
  8
ZUWAKU
100
AcDbCircle
 10
53.01769024044188
 20
36.50758628282265
 30
0.0
 40
0.525
100
AcDbArc
 50
0.0
 51
90.0
  0
ARC
  5
728
330
1A
100
AcDbEntity
  8
ZUWAKU
100
AcDbCircle
 10
51.26769024044188
 20
36.50758628282265
 30
0.0
 40
0.525
100
AcDbArc
 50
90.0
 51
180.0
  0
LINE
  5
729
330
1A
100
AcDbEntity
  8
ZUWAKU
100
AcDbLine
 10
53.01769024044188
 20
37.03258628282265
 30
0.0
 11
51.26769024044188
 21
37.03258628282265
 31
0.0
  0
ARC
  5
72A
330
1A
100
AcDbEntity
  8
ZUWAKU
100
AcDbCircle
 10
73.66769024044197
 20
36.50758628282265
 30
0.0
 40
0.525
100
AcDbArc
 50
0.0
 51
90.0
  0
ARC
  5
72B
330
1A
100
AcDbEntity
  8
ZUWAKU
100
AcDbCircle
 10
71.39269024044188
 20
23.73258628282265
 30
0.0
 40
2.799999999999999
100
AcDbArc
 50
270.0
 51
0.0
  0
LINE
  5
72C
330
1A
100
AcDbEntity
  8
ZUWAKU
100
AcDbLine
 10
67.89269024044187
 20
24.78258628282265
 30
0.0
 11
67.89269024044187
 21
36.50758628282265
 31
0.0
  0
LINE
  5
72D
330
1A
100
AcDbEntity
  8
ZUWAKU
100
AcDbLine
 10
65.09269024044215
 20
36.50758628282265
 30
0.0
 11
65.09269024044215
 21
23.73258628282265
 31
0.0
  0
LINE
  5
72E
330
1A
100
AcDbEntity
  8
ZUWAKU
100
AcDbLine
 10
71.39269024044188
 20
36.50758628282265
 30
0.0
 11
71.39269024044188
 21
24.78258628282265
 31
0.0
  0
ARC
  5
72F
330
1A
100
AcDbEntity
  8
ZUWAKU
100
AcDbCircle
 10
58.79269024044197
 20
25.54778830817795
 30
0.0
 40
4.199999999999999
100
AcDbArc
 50
0.0
 51
44.9999999999996
  0
ARC
  5
730
330
1A
100
AcDbEntity
  8
ZUWAKU
100
AcDbCircle
 10
67.89269024044187
 20
23.73258628282265
 30
0.0
 40
2.799999999999999
100
AcDbArc
 50
180.0
 51
270.0
  0
LINE
  5
731
330
1A
100
AcDbEntity
  8
ZUWAKU
100
AcDbLine
 10
62.99269024044178
 20
23.73258628282265
 30
0.0
 11
62.99269024044178
 21
25.547788308178
 31
0.0
  0
ARC
  5
732
330
1A
100
AcDbEntity
  8
ZUWAKU
100
AcDbCircle
 10
59.66769024044197
 20
24.25758628282265
 30
0.0
 40
0.525
100
AcDbArc
 50
270.0
 51
0.0
  0
LINE
  5
733
330
1A
100
AcDbEntity
  8
ZUWAKU
100
AcDbLine
 10
60.19269024044206
 20
24.25758628282265
 30
0.0
 11
60.19269024044206
 21
25.547788308178
 31
0.0
  0
ARC
  5
734
330
1A
100
AcDbEntity
  8
ZUWAKU
100
AcDbCircle
 10
60.19269024044206
 20
23.73258628282265
 30
0.0
 40
2.799999999999999
100
AcDbArc
 50
270.0
 51
0.0
  0
ARC
  5
735
330
1A
100
AcDbEntity
  8
ZUWAKU
100
AcDbCircle
 10
58.79269024044197
 20
25.547788308178
 30
0.0
 40
1.399999999999999
100
AcDbArc
 50
0.0
 51
44.9999999999996
  0
ARC
  5
736
330
1A
100
AcDbEntity
  8
ZUWAKU
100
AcDbCircle
 10
70.34269024044215
 20
24.78258628282265
 30
0.0
 40
1.049999999999999
100
AcDbArc
 50
270.0
 51
0.0
  0
ARC
  5
737
330
1A
100
AcDbEntity
  8
ZUWAKU
100
AcDbCircle
 10
68.94269024044206
 20
24.78258628282265
 30
0.0
 40
1.049999999999999
100
AcDbArc
 50
180.0
 51
270.0
  0
LINE
  5
738
330
1A
100
AcDbEntity
  8
ZUWAKU
100
AcDbLine
 10
67.89269024044187
 20
20.93258628282265
 30
0.0
 11
71.39269024044188
 21
20.93258628282265
 31
0.0
  0
LINE
  5
739
330
1A
100
AcDbEntity
  8
ZUWAKU
100
AcDbLine
 10
70.34269024044215
 20
23.73258628282265
 30
0.0
 11
68.94269024044206
 21
23.73258628282265
 31
0.0
  0
LINE
  5
73A
330
1A
100
AcDbEntity
  8
ZUWAKU
100
AcDbLine
 10
67.36769024044178
 20
37.03258628282265
 30
0.0
 11
65.61769024044179
 21
37.03258628282265
 31
0.0
  0
LINE
  5
73B
330
1A
100
AcDbEntity
  8
ZUWAKU
100
AcDbLine
 10
62.46769024044215
 20
36.50758628282265
 30
0.0
 11
62.46769024044215
 21
34.75758628282265
 31
0.0
  0
ARC
  5
73C
330
1A
100
AcDbEntity
  8
ZUWAKU
100
AcDbCircle
 10
61.94269024044206
 20
34.75758628282265
 30
0.0
 40
0.525
100
AcDbArc
 50
270.0
 51
0.0
  0
ARC
  5
73D
330
1A
100
AcDbEntity
  8
ZUWAKU
100
AcDbCircle
 10
61.94269024044206
 20
36.50758628282265
 30
0.0
 40
0.525
100
AcDbArc
 50
0.0
 51
90.0
  0
ARC
  5
73E
330
1A
100
AcDbEntity
  8
ZUWAKU
100
AcDbCircle
 10
65.61769024044179
 20
36.50758628282265
 30
0.0
 40
0.525
100
AcDbArc
 50
90.0
 51
180.0
  0
ARC
  5
73F
330
1A
100
AcDbEntity
  8
ZUWAKU
100
AcDbCircle
 10
59.84269024044215
 20
32.41738425746735
 30
0.0
 40
1.399999999999999
100
AcDbArc
 50
180.0000000000016
 51
224.9999999999993
  0
LINE
  5
740
330
1A
100
AcDbEntity
  8
ZUWAKU
100
AcDbLine
 10
58.44269024044206
 20
33.70758628282265
 30
0.0
 11
58.44269024044206
 21
32.41738425746731
 31
0.0
  0
ARC
  5
741
330
1A
100
AcDbEntity
  8
ZUWAKU
100
AcDbCircle
 10
58.96769024044215
 20
33.70758628282265
 30
0.0
 40
0.525
100
AcDbArc
 50
90.0
 51
180.0
  0
LINE
  5
742
330
1A
100
AcDbEntity
  8
ZUWAKU
100
AcDbLine
 10
61.76253872142524
 20
28.51763678916148
 30
0.0
 11
58.85274074678045
 21
31.42743476380615
 31
0.0
  0
LINE
  5
743
330
1A
100
AcDbEntity
  8
ZUWAKU
100
AcDbLine
 10
61.94269024044206
 20
34.23258628282265
 30
0.0
 11
58.96769024044215
 21
34.23258628282265
 31
0.0
  0
LINE
  5
744
330
1A
100
AcDbEntity
  8
ZUWAKU
100
AcDbLine
 10
58.44269024044206
 20
37.03258628282265
 30
0.0
 11
61.94269024044206
 21
37.03258628282265
 31
0.0
  0
ARC
  5
745
330
1A
100
AcDbEntity
  8
ZUWAKU
100
AcDbCircle
 10
71.91769024044197
 20
36.50758628282265
 30
0.0
 40
0.525
100
AcDbArc
 50
90.0
 51
180.0
  0
LINE
  5
746
330
1A
100
AcDbEntity
  8
ZUWAKU
100
AcDbLine
 10
73.66769024044197
 20
37.03258628282265
 30
0.0
 11
71.91769024044197
 21
37.03258628282265
 31
0.0
  0
ARC
  5
747
330
1A
100
AcDbEntity
  8
ZUWAKU
100
AcDbCircle
 10
67.36769024044178
 20
36.50758628282265
 30
0.0
 40
0.525
100
AcDbArc
 50
0.0
 51
90.0
  0
LINE
  5
748
330
1A
100
AcDbEntity
  8
ZUWAKU
100
AcDbLine
 10
76.29269024044197
 20
36.50758628282265
 30
0.0
 11
76.29269024044197
 21
21.45758628282265
 31
0.0
  0
LINE
  5
749
330
1A
100
AcDbEntity
  8
ZUWAKU
100
AcDbLine
 10
79.09269024044215
 20
21.45758628282265
 30
0.0
 11
79.09269024044215
 21
36.50758628282265
 31
0.0
  0
LINE
  5
74A
330
1A
100
AcDbEntity
  8
ZUWAKU
100
AcDbLine
 10
74.19269024044206
 20
23.73258628282265
 30
0.0
 11
74.19269024044206
 21
36.50758628282265
 31
0.0
  0
ARC
  5
74B
330
1A
100
AcDbEntity
  8
ZUWAKU
100
AcDbCircle
 10
78.56769024044206
 20
21.45758628282265
 30
0.0
 40
0.525
100
AcDbArc
 50
270.0
 51
0.0
  0
ARC
  5
74C
330
1A
100
AcDbEntity
  8
ZUWAKU
100
AcDbCircle
 10
76.81769024044206
 20
21.45758628282265
 30
0.0
 40
0.525
100
AcDbArc
 50
180.0
 51
270.0
  0
LINE
  5
74D
330
1A
100
AcDbEntity
  8
ZUWAKU
100
AcDbLine
 10
76.81769024044206
 20
20.93258628282265
 30
0.0
 11
78.56769024044206
 21
20.93258628282265
 31
0.0
  0
ARC
  5
74E
330
1A
100
AcDbEntity
  8
ZUWAKU
100
AcDbCircle
 10
78.56769024044206
 20
36.50758628282265
 30
0.0
 40
0.525
100
AcDbArc
 50
0.0
 51
90.0
  0
ARC
  5
74F
330
1A
100
AcDbEntity
  8
ZUWAKU
100
AcDbCircle
 10
76.81769024044206
 20
36.50758628282265
 30
0.0
 40
0.525
100
AcDbArc
 50
90.0
 51
180.0
  0
LINE
  5
750
330
1A
100
AcDbEntity
  8
ZUWAKU
100
AcDbLine
 10
78.56769024044206
 20
37.03258628282265
 30
0.0
 11
76.81769024044206
 21
37.03258628282265
 31
0.0
  0
TEXT
  5
751
330
1A
100
AcDbEntity
  8
moji
100
AcDbText
 10
103.0082676738297
 20
26.52376441309741
 30
0.0
 40
6.0
  1
大型　のきとい
 41
0.9
  7
ｽﾀｲﾙ1
100
AcDbText
  0
LINE
  5
757
330
1A
100
AcDbEntity
  8
ZUWAKU
100
AcDbLine
 10
218.4970793757283
 20
43.78258628282265
 30
0.0
 11
218.4970793757288
 21
14.58258628282271
 31
0.0
  0
LINE
  5
758
330
1A
100
AcDbEntity
  8
ZUWAKU
100
AcDbLine
 10
218.6970793757286
 20
43.78258628282265
 30
0.0
 11
218.6970793757286
 21
14.58258628282271
 31
0.0
  0
LINE
  5
759
330
1A
100
AcDbEntity
  8
ZUWAKU
100
AcDbLine
 10
218.2970793757285
 20
43.78258628282265
 30
0.0
 11
218.2970793757285
 21
14.58258628282271
 31
0.0
  0
TEXT
  5
75A
330
1A
100
AcDbEntity
  8
ZUWAKU
100
AcDbText
 10
219.7745243979379
 20
37.83794282120823
 30
0.0
 40
4.0
  1
品名
 41
0.9
  7
ｽﾀｲﾙ1
100
AcDbText
  0
TEXT
  5
75B
330
1A
100
AcDbEntity
  8
ZUWAKU
100
AcDbText
 10
219.7745243979384
 20
23.43794282120826
 30
0.0
 40
4.0
  1
サイズ
 41
0.9
  7
ｽﾀｲﾙ1
100
AcDbText
  0
TEXT
  5
792
330
1A
100
AcDbEntity
  8
ZUWAKU
100
AcDbText
 10
668.254415772963
 20
31.78750734023003
 30
0.0
 40
5.599999999999999
  1
　　．　　．　　
 41
0.9
  7
ｽﾀｲﾙ1
100
AcDbText
  0
LINE
  5
793
330
1A
100
AcDbEntity
  8
ZUWAKU
100
AcDbLine
 10
658.8676805958648
 20
29.38258628282268
 30
0.0
 11
707.2994886342021
 21
29.38258628282268
 31
0.0
  0
LINE
  5
794
330
1A
100
AcDbEntity
  8
ZUWAKU
100
AcDbLine
 10
658.8676805958653
 20
29.18258628282268
 30
0.0
 11
707.2994886342021
 21
29.18258628282268
 31
0.0
  0
LINE
  5
795
330
1A
100
AcDbEntity
  8
ZUWAKU
100
AcDbLine
 10
658.8676805958648
 20
28.98258628282268
 30
0.0
 11
707.2994886342021
 21
28.98258628282268
 31
0.0
  0
LINE
  5
79A
330
1A
100
AcDbEntity
  8
ZUWAKU
100
AcDbLine
 10
515.2496575838017
 20
29.38258628282268
 30
0.0
 11
562.5774338517731
 21
29.38258628282268
 31
0.0
  0
LINE
  5
79B
330
1A
100
AcDbEntity
  8
ZUWAKU
100
AcDbLine
 10
515.2496575838017
 20
29.18258628282268
 30
0.0
 11
562.5774338517731
 21
29.18258628282268
 31
0.0
  0
LINE
  5
79C
330
1A
100
AcDbEntity
  8
ZUWAKU
100
AcDbLine
 10
515.2496575838017
 20
28.98258628282269
 30
0.0
 11
562.5774338517731
 21
28.98258628282269
 31
0.0
  0
TEXT
  5
79D
330
1A
100
AcDbEntity
  8
moji
100
AcDbText
 10
538.0913860579735
 20
16.98750734023007
 30
0.0
 40
5.599999999999999
  1
１/２
 41
0.9
  7
ｽﾀｲﾙ1
100
AcDbText
  0
LINE
  5
79E
330
1A
100
AcDbEntity
  8
ZUWAKU
100
AcDbLine
 10
514.8496575838017
 20
43.78258628282265
 30
0.0
 11
514.8496575838017
 21
14.58258628282271
 31
0.0
  0
LINE
  5
79F
330
1A
100
AcDbEntity
  8
ZUWAKU
100
AcDbLine
 10
515.2496575838017
 20
43.78258628282265
 30
0.0
 11
515.2496575838017
 21
14.58258628282271
 31
0.0
  0
LINE
  5
7A0
330
1A
100
AcDbEntity
  8
ZUWAKU
100
AcDbLine
 10
515.0496575838015
 20
43.78258628282265
 30
0.0
 11
515.0496575838019
 21
14.58258628282271
 31
0.0
  0
LINE
  5
7A1
330
1A
100
AcDbEntity
  8
ZUWAKU
100
AcDbLine
 10
457.474842056652
 20
43.78258628282265
 30
0.0
 11
457.474842056652
 21
14.58258628282271
 31
0.0
  0
LINE
  5
7A2
330
1A
100
AcDbEntity
  8
ZUWAKU
100
AcDbLine
 10
457.8748420566521
 20
43.78258628282265
 30
0.0
 11
457.8748420566521
 21
14.58258628282271
 31
0.0
  0
LINE
  5
7A3
330
1A
100
AcDbEntity
  8
ZUWAKU
100
AcDbLine
 10
457.6748420566518
 20
43.78258628282265
 30
0.0
 11
457.6748420566523
 21
14.58258628282271
 31
0.0
  0
TEXT
  5
7A5
330
1A
100
AcDbEntity
  8
ZUWAKU
100
AcDbText
 10
459.3522870788615
 20
37.83794282120823
 30
0.0
 40
4.0
  1
品番
 41
0.9
  7
ｽﾀｲﾙ1
100
AcDbText
  0
TEXT
  5
7A6
330
1A
100
AcDbEntity
  8
ZUWAKU
100
AcDbText
 10
516.7271026060111
 20
37.83794282120823
 30
0.0
 40
4.0
  1
用紙
 41
0.9
  7
ｽﾀｲﾙ1
100
AcDbText
  0
TEXT
  5
7A7
330
1A
100
AcDbEntity
  8
ZUWAKU
100
AcDbText
 10
516.7271026060116
 20
23.43794282120826
 30
0.0
 40
4.0
  1
縮尺
 41
0.9
  7
ｽﾀｲﾙ1
100
AcDbText
  0
TEXT
  5
7A8
330
1A
100
AcDbEntity
  8
moji
100
AcDbText
 10
538.0913860579735
 20
31.78750734023003
 30
0.0
 40
5.599999999999999
  1
Ａ３
 41
0.9
  7
ｽﾀｲﾙ1
100
AcDbText
  0
LINE
  5
7A9
330
1A
100
AcDbEntity
  8
ZUWAKU
100
AcDbLine
 10
562.9774338517732
 20
43.78258628282265
 30
0.0
 11
562.9774338517732
 21
14.58258628282271
 31
0.0
  0
LINE
  5
7AA
330
1A
100
AcDbEntity
  8
ZUWAKU
100
AcDbLine
 10
658.4676805958651
 20
43.78258628282265
 30
0.0
 11
658.4676805958651
 21
14.58258628282271
 31
0.0
  0
LINE
  5
7AB
330
1A
100
AcDbEntity
  8
ZUWAKU
100
AcDbLine
 10
658.8676805958653
 20
43.78258628282265
 30
0.0
 11
658.8676805958653
 21
14.58258628282271
 31
0.0
  0
LINE
  5
7AC
330
1A
100
AcDbEntity
  8
ZUWAKU
100
AcDbLine
 10
658.667680595865
 20
43.78258628282265
 30
0.0
 11
658.6676805958655
 21
14.58258628282271
 31
0.0
  0
LINE
  5
7AD
330
1A
100
AcDbEntity
  8
ZUWAKU
100
AcDbLine
 10
562.5774338517731
 20
43.78258628282265
 30
0.0
 11
562.5774338517731
 21
14.58258628282271
 31
0.0
  0
LINE
  5
7AE
330
1A
100
AcDbEntity
  8
ZUWAKU
100
AcDbLine
 10
562.7774338517729
 20
43.78258628282265
 30
0.0
 11
562.7774338517733
 21
14.58258628282271
 31
0.0
  0
TEXT
  5
7AF
330
1A
100
AcDbEntity
  8
ZUWAKU
100
AcDbText
 10
660.3451256180747
 20
37.83794282120823
 30
0.0
 40
4.0
  1
DATE
 41
0.9
  7
ｽﾀｲﾙ1
100
AcDbText
  0
LINE
  5
7BB
330
1A
100
AcDbEntity
  8
ZUWAKU
100
AcDbLine
 10
707.899488634202
 20
43.78258628282265
 30
0.0
 11
707.899488634202
 21
14.58258628282271
 31
0.0
  0
LINE
  5
7BC
330
1A
100
AcDbEntity
  8
ZUWAKU
100
AcDbLine
 10
707.6994886342017
 20
43.78258628282265
 30
0.0
 11
707.6994886342022
 21
14.58258628282271
 31
0.0
  0
LINE
  5
7BD
330
1A
100
AcDbEntity
  8
ZUWAKU
100
AcDbLine
 10
707.4994886342019
 20
43.78258628282265
 30
0.0
 11
707.4994886342019
 21
14.58258628282271
 31
0.0
  0
LINE
  5
7BE
330
1A
100
AcDbEntity
  8
ZUWAKU
100
AcDbLine
 10
707.2994886342021
 20
43.78258628282265
 30
0.0
 11
707.2994886342021
 21
14.58258628282271
 31
0.0
  0
TEXT
  5
7BF
330
1A
100
AcDbEntity
  8
ZUWAKU
100
AcDbText
 10
716.9662874865516
 20
25.96456609488598
 30
0.0
 40
6.0
  1
積水化学工業株式会社
 41
0.9
  7
ｽﾀｲﾙ1
100
AcDbText
  0
TEXT
  5
625F
330
1A
100
AcDbEntity
  8
moji
100
AcDbText
 10
249.8685504416682
 20
17.03882846809165
 30
0.0
 40
5.599999999999999
  1
Ｖ５００－Ｌ１７０（３／８インチネジ）
 41
0.9
  7
ｽﾀｲﾙ1
100
AcDbText
  0
DIMENSION
  5
6D1D
330
1A
100
AcDbEntity
  8
SUNPOU
100
AcDbDimension
  2
*D2
 10
451.6433482291843
 20
460.7639429226404
 30
0.0
 11
319.443348229131
 21
465.7639429226405
 31
0.0
 70
    32
 71
     5
 42
-1.0
  3
STANDARD
100
AcDbAlignedDimension
 13
187.2433482290778
 23
301.2032961978029
 33
0.0
 14
451.6433482291843
 24
276.2032961978012
 34
0.0
100
AcDbRotatedDimension
1001
ACAD
1000
DSTYLE
1002
{
1070
    41
1040
7.0
1070
    42
1040
6.0
1070
    43
1040
14.0
1070
    44
1040
3.0
1070
    73
1070
     0
1070
    74
1070
     0
1070
    77
1070
     3
1070
   140
1040
6.0
1070
   141
1040
150.0
1070
   147
1040
2.0
1070
   172
1070
     1
1070
   173
1070
     1
1070
   176
1070
   256
1070
   177
1070
   256
1070
   178
1070
   256
1070
   271
1070
     0
1070
   272
1070
     0
1070
   341
1005
6D
1070
     6
1000
OPEN
1070
     7
1000
OPEN
1070
   371
1070
    -1
1070
   372
1070
    -1
1002
}
  0
LINE
  5
6D1E
330
1A
100
AcDbEntity
  8
NOKITOI
  6
PHANTOM
 48
5.0
100
AcDbLine
 10
435.1403653607937
 20
246.7843786198825
 30
0.0
 11
421.8309958607935
 21
138.0219773198825
 31
0.0
  0
LINE
  5
6D1F
330
1A
100
AcDbEntity
  8
NOKITOI
  6
PHANTOM
 48
5.0
100
AcDbLine
 10
436.0839767607938
 20
271.7843786198825
 30
0.0
 11
419.7465448607938
 21
138.2770537198825
 31
0.0
  0
LINE
  5
6D20
330
1A
100
AcDbEntity
  8
NOKITOI
  6
PHANTOM
 48
5.0
100
AcDbLine
 10
434.302800764178
 20
248.5843786198825
 30
0.0
 11
420.514626849155
 21
135.9092511812827
 31
0.0
  0
LINE
  5
6D21
330
1A
100
AcDbEntity
  8
CENTER L
 48
5.0
100
AcDbLine
 10
458.6433482290399
 20
520.5160194755908
 30
0.0
 11
180.2433482291446
 21
520.5160194736063
 31
0.0
  0
LINE
  5
6D22
330
1A
100
AcDbEntity
  8
SEIHIN
100
AcDbLine
 10
449.8433482290542
 20
532.8160194736563
 30
0.0
 11
319.4433482292665
 21
532.8160194736563
 31
0.0
  0
LINE
  5
6D23
330
1A
100
AcDbEntity
  8
SEIHIN
100
AcDbLine
 10
319.4433482291447
 20
508.2160194736561
 30
0.0
 11
449.8433482291536
 21
508.2160194736561
 31
0.0
  0
LINE
  5
6D24
330
1A
100
AcDbEntity
  8
SEIHIN
100
AcDbLine
 10
449.8433482290233
 20
540.5160194736562
 30
0.0
 11
189.0433482291007
 21
540.5160194736562
 31
0.0
  0
TEXT
  5
6D25
330
1A
100
AcDbEntity
  8
SUNPOU
100
AcDbText
 10
362.7198428476777
 20
397.0226094942869
 30
0.0
 40
5.0
  1
パッキン（アスファルト含浸）
100
AcDbText
  0
LINE
  5
6D26
330
1A
100
AcDbEntity
  8
SEIHIN
100
AcDbLine
 10
447.3371674070376
 20
277.5125992112094
 30
0.0
 11
420.2321340847852
 21
273.7032352035613
 31
0.0
  0
LINE
  5
6D27
330
1A
100
AcDbEntity
  8
SEIHIN
100
AcDbLine
 10
447.5041754004446
 20
276.3242775669825
 30
0.0
 11
420.3991418062801
 21
272.5149135210825
 31
0.0
  0
LINE
  5
6D28
330
1A
100
AcDbEntity
  8
SEIHIN
100
AcDbLine
 10
445.9474827243964
 20
281.1546365415108
 30
0.0
 11
419.7032763013487
 21
277.4662538647806
 31
0.0
  0
DIMENSION
  5
6D29
330
1A
100
AcDbEntity
  8
SUNPOU
100
AcDbDimension
  2
*D3
 10
451.6433482291845
 20
307.9135962060391
 30
0.0
 11
433.8882730108074
 21
312.9135962060392
 31
0.0
 70
    32
 71
     5
 42
-1.0
  3
STANDARD
100
AcDbAlignedDimension
 13
416.1331977924303
 23
276.9645120511932
 33
0.0
 14
451.6433482291845
 24
276.203296197832
 34
0.0
100
AcDbRotatedDimension
1001
ACAD
1000
DSTYLE
1002
{
1070
    41
1040
7.0
1070
    42
1040
6.0
1070
    43
1040
14.0
1070
    44
1040
3.0
1070
    73
1070
     0
1070
    74
1070
     0
1070
    77
1070
     3
1070
   140
1040
6.0
1070
   141
1040
150.0
1070
   147
1040
2.0
1070
   172
1070
     1
1070
   173
1070
     1
1070
   176
1070
   256
1070
   177
1070
   256
1070
   178
1070
   256
1070
   271
1070
     0
1070
   272
1070
     0
1070
   341
1005
6D
1070
     6
1000
OPEN
1070
     7
1000
OPEN
1070
   371
1070
    -1
1070
   372
1070
    -1
1002
}
  0
LEADER
  5
6D2A
330
1A
100
AcDbEntity
  8
SUNPOU
100
AcDbLeader
  3
STANDARD
 76
     3
 10
334.4433592292275
 20
379.0634236198826
 30
0.0
 10
360.2046433691757
 20
395.3473839895733
 30
0.0
 10
443.8727547596827
 20
395.3473839895733
 30
0.0
1001
ACAD
1000
DSTYLE
1002
{
1070
     6
1000
OPEN
1070
    41
1040
7.0
1070
    42
1040
6.0
1070
    43
1040
14.0
1070
    44
1040
3.0
1070
    73
1070
     0
1070
    74
1070
     0
1070
    77
1070
     3
1070
   140
1040
6.0
1070
   141
1040
150.0
1070
   147
1040
2.0
1070
   172
1070
     1
1070
   173
1070
     1
1070
   176
1070
     4
1070
   177
1070
     4
1070
   178
1070
     4
1070
   271
1070
     0
1070
   272
1070
     2
1070
   341
1005
6D
1070
   343
1005
6D
1070
   344
1005
6D
1002
}
  0
DIMENSION
  5
6D2B
330
1A
100
AcDbEntity
  8
SUNPOU
100
AcDbDimension
  2
*D4
 10
451.6433482291845
 20
445.9574524528984
 30
0.0
 11
385.5433482291646
 21
450.9574524528984
 31
0.0
 70
    32
 71
     5
 42
-1.0
  3
STANDARD
100
AcDbAlignedDimension
 13
319.4433482291447
 23
408.9520400195716
 33
0.0
 14
451.6433482291845
 24
276.203296197832
 34
0.0
100
AcDbRotatedDimension
1001
ACAD
1000
DSTYLE
1002
{
1070
    41
1040
7.0
1070
    42
1040
6.0
1070
    43
1040
14.0
1070
    44
1040
3.0
1070
    73
1070
     0
1070
    74
1070
     0
1070
    77
1070
     3
1070
   140
1040
6.0
1070
   141
1040
150.0
1070
   147
1040
2.0
1070
   172
1070
     1
1070
   173
1070
     1
1070
   176
1070
   256
1070
   177
1070
   256
1070
   178
1070
   256
1070
   271
1070
     0
1070
   272
1070
     0
1070
   341
1005
6D
1070
     6
1000
OPEN
1070
     7
1000
OPEN
1070
   371
1070
    -1
1070
   372
1070
    -1
1002
}
  0
LINE
  5
6D2C
330
1A
100
AcDbEntity
  8
SEIHIN
100
AcDbLine
 10
189.0433482291184
 20
500.5160194736562
 30
0.0
 11
449.843348229185
 21
500.5160194736562
 31
0.0
  0
LINE
  5
6D31
330
1A
100
AcDbEntity
  8
SEIHIN
100
AcDbLine
 10
438.6570911865939
 20
101.6464909273058
 30
0.0
 11
430.3334677680153
 21
101.6464909273058
 31
0.0
  0
LINE
  5
6D32
330
1A
100
AcDbEntity
  8
SEIHIN
100
AcDbLine
 10
451.6570911867558
 20
111.3464909273058
 30
0.0
 11
406.2706707457635
 21
111.3464909273058
 31
0.0
  0
LINE
  5
6D33
330
1A
100
AcDbEntity
  8
SEIHIN
100
AcDbLine
 10
332.2570911865382
 20
101.6464909273058
 30
0.0
 11
409.9252988828236
 21
101.6464909273057
 31
0.0
  0
LINE
  5
6D34
330
1A
100
AcDbEntity
  8
SEIHIN
100
AcDbLine
 10
438.6570911865939
 20
81.04649092730586
 30
0.0
 11
430.3334677686272
 21
81.04649092730586
 31
0.0
  0
LINE
  5
6D35
330
1A
100
AcDbEntity
  8
SEIHIN
100
AcDbLine
 10
451.6570911865939
 20
71.34649092730575
 30
0.0
 11
406.2706707457635
 21
71.34649092730581
 31
0.0
  0
LINE
  5
6D36
330
1A
100
AcDbEntity
  8
SEIHIN
100
AcDbLine
 10
332.2570911866851
 20
81.04649092730586
 30
0.0
 11
409.925299020818
 21
81.04649092730587
 31
0.0
  0
LINE
  5
6D38
330
1A
100
AcDbEntity
  8
SEIHIN
100
AcDbLine
 10
440.6570908152941
 20
111.3464909273058
 30
0.0
 11
190.8570911865763
 21
111.3464909273058
 31
0.0
  0
LINE
  5
6D39
330
1A
100
AcDbEntity
  8
SEIHIN
100
AcDbLine
 10
190.857091186594
 20
71.34649092730581
 30
0.0
 11
440.6570908937226
 21
71.34649092730581
 31
0.0
  0
LINE
  5
6D3A
330
1A
100
AcDbEntity
  8
CENTER L
 48
5.0
100
AcDbLine
 10
460.4570911865155
 20
91.34649092829794
 30
0.0
 11
182.0570911866202
 21
91.34649092631343
 31
0.0
  0
TEXT
  5
6D3B
330
1A
100
AcDbEntity
  8
moji
100
AcDbText
 10
250.0126705998484
 20
32.0110586949886
 30
0.0
 40
5.599999999999999
  1
セラミック金具折版（吊）
 41
0.9
  7
ｽﾀｲﾙ1
100
AcDbText
  0
DIMENSION
  5
6D3E
330
1A
100
AcDbEntity
  8
SUNPOU
100
AcDbDimension
  2
*D5
 10
187.2433482290778
 20
445.9574524528984
 30
0.0
 11
253.3433482291112
 21
450.9574524528984
 31
0.0
 70
    32
 71
     5
 42
-1.0
  3
STANDARD
100
AcDbAlignedDimension
 13
319.4433482291447
 23
408.9520400195716
 33
0.0
 14
187.2433482290778
 24
301.2032961978029
 34
0.0
100
AcDbRotatedDimension
1001
ACAD
1000
DSTYLE
1002
{
1070
    41
1040
7.0
1070
    42
1040
6.0
1070
    43
1040
14.0
1070
    44
1040
3.0
1070
    73
1070
     0
1070
    74
1070
     0
1070
    77
1070
     3
1070
   140
1040
6.0
1070
   141
1040
150.0
1070
   147
1040
2.0
1070
   172
1070
     1
1070
   173
1070
     1
1070
   176
1070
   256
1070
   177
1070
   256
1070
   178
1070
   256
1070
   271
1070
     0
1070
   272
1070
     0
1070
   341
1005
6D
1070
     6
1000
OPEN
1070
     7
1000
OPEN
1070
   371
1070
    -1
1070
   372
1070
    -1
1002
}
  0
DIMENSION
  5
6D3F
330
1A
100
AcDbEntity
  8
SUNPOU
100
AcDbDimension
  2
*D6
 10
187.2433482290778
 20
340.2183742137198
 30
0.0
 11
209.3872704060488
 21
345.2183742137198
 31
0.0
 70
    32
 71
     5
 42
-1.0
  3
STANDARD
100
AcDbAlignedDimension
 13
231.5311925830199
 23
300.7308876212257
 33
0.0
 14
187.2433482290778
 24
301.2032961978029
 34
0.0
100
AcDbRotatedDimension
1001
ACAD
1000
DSTYLE
1002
{
1070
    41
1040
7.0
1070
    42
1040
6.0
1070
    43
1040
14.0
1070
    44
1040
3.0
1070
    73
1070
     0
1070
    74
1070
     0
1070
    77
1070
     3
1070
   140
1040
6.0
1070
   141
1040
150.0
1070
   147
1040
2.0
1070
   172
1070
     1
1070
   173
1070
     1
1070
   176
1070
   256
1070
   177
1070
   256
1070
   178
1070
   256
1070
   271
1070
     0
1070
   272
1070
     0
1070
   341
1005
6D
1070
     6
1000
OPEN
1070
     7
1000
OPEN
1070
   371
1070
    -1
1070
   372
1070
    -1
1002
}
  0
LINE
  5
6D40
330
1A
100
AcDbEntity
  8
SEIHIN
100
AcDbLine
 10
314.4433482292277
 20
358.3634236198826
 30
0.0
 11
314.4433482292277
 21
256.4842786198826
 31
0.0
  0
LINE
  5
6D41
330
1A
100
AcDbEntity
  8
SEIHIN
100
AcDbLine
 10
315.4433482292276
 20
358.3634236198826
 30
0.0
 11
315.4433482292276
 21
256.4842786198826
 31
0.0
  0
LINE
  5
6D42
330
1A
100
AcDbEntity
  8
SEIHIN
100
AcDbLine
 10
324.4433482292277
 20
358.3634236198826
 30
0.0
 11
324.4433482292277
 21
256.4842786198826
 31
0.0
  0
LINE
  5
6D43
330
1A
100
AcDbEntity
  8
SEIHIN
100
AcDbLine
 10
323.4433482292276
 20
358.3634236198826
 30
0.0
 11
323.4433482292276
 21
256.4842786198826
 31
0.0
  0
DIMENSION
  5
6D44
330
1A
100
AcDbEntity
  8
SUNPOU
100
AcDbDimension
  2
*D7
 10
142.2713397422546
 20
399.4844786198827
 30
0.0
 11
137.2713397422546
 21
314.4844786198826
 31
0.0
 70
    32
 71
     5
 42
-1.0
  3
STANDARD
100
AcDbAlignedDimension
 13
314.4433482292277
 23
229.4844786198826
 33
0.0
 14
319.4433482292276
 24
399.4844786198827
 34
0.0
 50
90.0
100
AcDbRotatedDimension
1001
ACAD
1000
DSTYLE
1002
{
1070
   140
1040
6.0
1070
    74
1070
     0
1070
   172
1070
     1
1070
    73
1070
     0
1070
   272
1070
     2
1070
    77
1070
     3
1070
   173
1070
     1
1070
   147
1040
2.0
1070
    42
1040
6.0
1070
    44
1040
3.0
1070
    43
1040
14.0
1070
   271
1070
     0
1070
   178
1070
     4
1070
   177
1070
     4
1070
   176
1070
     4
1070
   141
1040
150.0
1070
     7
1000
_OPEN
1070
     6
1000
_OPEN
1070
    41
1040
7.0
1002
}
  0
LINE
  5
6D45
330
1A
100
AcDbEntity
  8
CENTER L
 48
5.0
100
AcDbLine
 10
319.4433482291447
 20
408.9520400195716
 30
0.0
 11
319.4433482292665
 21
216.783564372786
 31
0.0
  0
LINE
  5
6D46
330
1A
100
AcDbEntity
  8
CENTER L
 48
5.0
100
AcDbLine
 10
287.6933482292279
 20
408.9520400195716
 30
0.0
 11
287.6933482293493
 21
216.783564372786
 31
0.0
  0
LINE
  5
6D47
330
1A
100
AcDbEntity
  8
CENTER L
 48
5.0
100
AcDbLine
 10
351.1933482292281
 20
408.9520400195716
 30
0.0
 11
351.1933482293493
 21
216.783564372786
 31
0.0
  0
DIMENSION
  5
6D48
330
1A
100
AcDbEntity
  8
SUNPOU
100
AcDbDimension
  2
*D8
 10
158.1308578945706
 20
270.5843786198824
 30
0.0
 11
153.1308578945706
 21
288.3938374088427
 31
0.0
 70
    32
 71
     5
 42
-1.0
  3
STANDARD
100
AcDbAlignedDimension
 13
192.2433482290777
 23
306.2032961978029
 33
0.0
 14
191.2433482291446
 24
270.5843786198824
 34
0.0
 50
90.0
100
AcDbRotatedDimension
1001
ACAD
1000
DSTYLE
1002
{
1070
    41
1040
7.0
1070
    42
1040
6.0
1070
    43
1040
14.0
1070
    44
1040
3.0
1070
    73
1070
     0
1070
    74
1070
     0
1070
    77
1070
     3
1070
   140
1040
6.0
1070
   141
1040
150.0
1070
   147
1040
2.0
1070
   172
1070
     1
1070
   173
1070
     1
1070
   176
1070
   256
1070
   177
1070
   256
1070
   178
1070
   256
1070
   271
1070
     0
1070
   272
1070
     0
1070
   341
1005
6D
1070
     6
1000
OPEN
1070
     7
1000
OPEN
1070
   371
1070
    -1
1070
   372
1070
    -1
1002
}
  0
LINE
  5
6D4C
330
1A
100
AcDbEntity
  8
SEIHIN
100
AcDbLine
 10
289.5070905042942
 20
96.59649092730582
 30
0.0
 11
310.2570911865743
 21
96.59649092730582
 31
0.0
  0
LINE
  5
6D4D
330
1A
100
AcDbEntity
  8
SEIHIN
100
AcDbLine
 10
289.5070906756941
 20
86.09649092730581
 30
0.0
 11
310.2570911866491
 21
86.09649092730581
 31
0.0
  0
LINE
  5
6D4E
330
1A
100
AcDbEntity
  8
SEIHIN
100
AcDbLine
 10
203.857091186594
 20
81.04649092730586
 30
0.0
 11
212.1806506046592
 21
81.04649092730586
 31
0.0
  0
LINE
  5
6D4F
330
1A
100
AcDbEntity
  8
SEIHIN
100
AcDbLine
 10
203.8570911866151
 20
101.6464909273058
 30
0.0
 11
212.1806506052711
 21
101.6464909273058
 31
0.0
  0
ARC
  5
6D56
330
1A
100
AcDbEntity
  8
SEIHIN
100
AcDbCircle
 10
201.857091186594
 20
73.34649092730581
 30
0.0
 40
2.0
100
AcDbArc
 50
270.0000070884994
 51
0.0
  0
LINE
  5
6D57
330
1A
100
AcDbEntity
  8
SEIHIN
100
AcDbLine
 10
190.857091186594
 20
71.34649092730581
 30
0.0
 11
190.8570911865763
 21
78.54649092730586
 31
0.0
  0
LINE
  5
6D58
330
1A
100
AcDbEntity
  8
SEIHIN
100
AcDbLine
 10
201.8570914339941
 20
71.34649092730581
 30
0.0
 11
190.8570911865763
 21
71.34649092730581
 31
0.0
  0
ARC
  5
6D59
330
1A
100
AcDbEntity
  8
SEIHIN
100
AcDbCircle
 10
201.857091186594
 20
109.3464909273058
 30
0.0
 40
2.0
100
AcDbArc
 50
0.0
 51
89.99999999717301
  0
LINE
  5
6D5A
330
1A
100
AcDbEntity
  8
SEIHIN
100
AcDbLine
 10
189.0570911865941
 20
80.3464909273058
 30
0.0
 11
189.0570911866463
 21
102.3464909273058
 31
0.0
  0
ARC
  5
6D5B
330
1A
100
AcDbEntity
  8
SEIHIN
100
AcDbCircle
 10
190.357091186594
 20
78.54649092730586
 30
0.0
 40
0.5
100
AcDbArc
 50
0.0
 51
90.00000000203229
  0
LINE
  5
6D5C
330
1A
100
AcDbEntity
  8
SEIHIN
100
AcDbLine
 10
193.0396747581939
 20
79.04649092730585
 30
0.0
 11
190.3570911865763
 21
79.04649092730585
 31
0.0
  0
ARC
  5
6D5D
330
1A
100
AcDbEntity
  8
SEIHIN
100
AcDbCircle
 10
190.357091186594
 20
80.3464909273058
 30
0.0
 40
1.3
100
AcDbArc
 50
180.0
 51
269.9999999992183
  0
LINE
  5
6D5E
330
1A
100
AcDbEntity
  8
SEIHIN
100
AcDbLine
 10
190.857091186594
 20
111.3464909273058
 30
0.0
 11
190.8570911865763
 21
104.1464909273058
 31
0.0
  0
ARC
  5
6D5F
330
1A
100
AcDbEntity
  8
SEIHIN
100
AcDbCircle
 10
190.357091186594
 20
104.1464909273058
 30
0.0
 40
0.5
100
AcDbArc
 50
270.0
 51
0.0
  0
LINE
  5
6D60
330
1A
100
AcDbEntity
  8
SEIHIN
100
AcDbLine
 10
190.357091186594
 20
103.6464909273058
 30
0.0
 11
193.039674758221
 21
103.6464909273058
 31
0.0
  0
ARC
  5
6D61
330
1A
100
AcDbEntity
  8
SEIHIN
100
AcDbCircle
 10
190.357091186594
 20
102.3464909273058
 30
0.0
 40
1.3
100
AcDbArc
 50
90.0
 51
180.0
  0
LINE
  5
6D63
330
1A
100
AcDbEntity
  8
SEIHIN
100
AcDbLine
 10
203.857091186594
 20
109.3464909273058
 30
0.0
 11
203.8570911866927
 21
73.34649092730581
 31
0.0
  0
ARC
  5
6D6D
330
1A
100
AcDbEntity
  8
SEIHIN
100
AcDbCircle
 10
289.5070911865941
 20
91.34649092730581
 30
0.0
 40
5.25
100
AcDbArc
 50
90.0
 51
269.9999999987884
  0
LINE
  5
6D6E
330
1A
100
AcDbEntity
  8
CENTER L
 48
5.0
100
AcDbLine
 10
321.257091186804
 20
64.3464909273058
 30
0.0
 11
321.257091186419
 21
118.3464909273058
 31
0.0
  0
LINE
  5
6D6F
330
1A
100
AcDbEntity
  8
SEIHIN
100
AcDbLine
 10
332.2570911865741
 20
96.59649092730582
 30
0.0
 11
353.0070917983623
 21
96.59649092730582
 31
0.0
  0
LINE
  5
6D70
330
1A
100
AcDbEntity
  8
SEIHIN
100
AcDbLine
 10
332.2570911866489
 20
86.09649092730581
 30
0.0
 11
353.0070908763532
 21
86.09649092730581
 31
0.0
  0
LINE
  5
6D71
330
1A
100
AcDbEntity
  8
SEIHIN
100
AcDbLine
 10
331.2573910327578
 20
91.34649092730558
 30
0.0
 11
326.2572411096848
 21
100.00700463953
 31
0.0
  0
LINE
  5
6D72
330
1A
100
AcDbEntity
  8
CENTER L
 48
5.0
100
AcDbLine
 10
321.2570911865939
 20
93.84649092730581
 30
0.0
 11
321.2570911864195
 21
118.3464909273058
 31
0.0
  0
LINE
  5
6D73
330
1A
100
AcDbEntity
  8
SEIHIN
100
AcDbLine
 10
316.2569412635384
 20
100.00700463953
 30
0.0
 11
311.2567913404652
 21
91.34649092730581
 31
0.0
  0
CIRCLE
  5
6D74
330
1A
100
AcDbEntity
  8
SEIHIN
100
AcDbCircle
 10
321.2570911866114
 20
91.34649092730574
 30
0.0
 40
5.000299846146333
  0
LINE
  5
6D75
330
1A
100
AcDbEntity
  8
SEIHIN
100
AcDbLine
 10
310.2570911867148
 20
76.84649092722731
 30
0.0
 11
310.2570911865084
 21
105.8464909272272
 31
0.0
  0
LINE
  5
6D76
330
1A
100
AcDbEntity
  8
SEIHIN
100
AcDbLine
 10
332.2570911867151
 20
76.84649092738414
 30
0.0
 11
332.2570911865081
 21
105.8464909273841
 31
0.0
  0
LINE
  5
6D77
330
1A
100
AcDbEntity
  8
SEIHIN
100
AcDbLine
 10
316.2569412635382
 20
82.68597721508138
 30
0.0
 11
326.2572411096848
 21
82.68597721508138
 31
0.0
  0
LINE
  5
6D78
330
1A
100
AcDbEntity
  8
SEIHIN
100
AcDbLine
 10
332.2570911867149
 20
76.84649092738414
 30
0.0
 11
310.2570911867148
 21
76.84649092722731
 31
0.0
  0
LINE
  5
6D79
330
1A
100
AcDbEntity
  8
SEIHIN
100
AcDbLine
 10
310.2570911866814
 20
81.54649092730585
 30
0.0
 11
332.2570911866812
 21
81.54649092730585
 31
0.0
  0
LINE
  5
6D7A
330
1A
100
AcDbEntity
  8
SEIHIN
100
AcDbLine
 10
311.2567913404652
 20
91.34649092730581
 30
0.0
 11
316.2569412635382
 21
82.68597721508138
 31
0.0
  0
LINE
  5
6D7B
330
1A
100
AcDbEntity
  8
SEIHIN
100
AcDbLine
 10
326.2572411096848
 20
82.68597721508138
 30
0.0
 11
331.2573910327578
 21
91.34649092730558
 31
0.0
  0
CIRCLE
  5
6D7C
330
1A
100
AcDbEntity
  8
SEIHIN
 62
     2
100
AcDbCircle
 10
321.2570911866114
 20
91.34649092730574
 30
0.0
 40
4.000299846146333
  0
LINE
  5
6D7D
330
1A
100
AcDbEntity
  8
SEIHIN
100
AcDbLine
 10
326.2572411096848
 20
100.00700463953
 30
0.0
 11
316.2569412635384
 21
100.00700463953
 31
0.0
  0
LINE
  5
6D7E
330
1A
100
AcDbEntity
  8
SEIHIN
100
AcDbLine
 10
332.2570911865079
 20
105.8464909273841
 30
0.0
 11
310.2570911865082
 21
105.8464909272272
 31
0.0
  0
LINE
  5
6D7F
330
1A
100
AcDbEntity
  8
SEIHIN
100
AcDbLine
 10
310.2570911865416
 20
101.1464909273058
 30
0.0
 11
332.2570911865416
 21
101.1464909273058
 31
0.0
  0
ARC
  5
6D80
330
1A
100
AcDbEntity
  8
SEIHIN
100
AcDbCircle
 10
353.0070911865941
 20
91.34649092730581
 30
0.0
 40
5.25
100
AcDbArc
 50
269.9999966150968
 51
89.99999332601769
  0
LINE
  5
6D8C
330
1A
100
AcDbEntity
  8
NOKITOI
  6
PHANTOM
 48
5.0
100
AcDbLine
 10
227.3553266607934
 20
133.8843786198825
 30
0.0
 11
414.7835662607938
 21
133.8843786198825
 31
0.0
  0
LINE
  5
6D8D
330
1A
100
AcDbEntity
  8
NOKITOI
  6
PHANTOM
 48
5.0
100
AcDbLine
 10
222.8388583607936
 20
131.7843786198825
 30
0.0
 11
419.2997101607936
 21
131.7843786198825
 31
0.0
  0
LINE
  5
6D8E
330
1A
100
AcDbEntity
  8
NOKITOI
  6
PHANTOM
 48
5.0
100
AcDbLine
 10
225.0970925774547
 20
132.8343786198825
 30
0.0
 11
417.0405418385446
 21
132.8343786198825
 31
0.0
  0
LINE
  5
6D8F
330
1A
100
AcDbEntity
  8
SEIHIN
100
AcDbLine
 10
403.7789629184446
 20
242.6843786198825
 30
0.0
 11
240.7197583659879
 21
242.6843786198825
 31
0.0
  0
LINE
  5
6D90
330
1A
100
AcDbEntity
  8
SEIHIN
100
AcDbLine
 10
403.7789629184446
 20
241.4843786198825
 30
0.0
 11
240.7197583659879
 21
241.4843786198825
 31
0.0
  0
LINE
  5
6D91
330
1A
100
AcDbEntity
  8
SEIHIN
100
AcDbLine
 10
405.0670694175185
 20
248.4843786198827
 30
0.0
 11
239.7432473063149
 21
248.4843786198826
 31
0.0
  0
LINE
  5
6D92
330
1A
100
AcDbEntity
  8
NOKITOI
  6
PHANTOM
 48
5.0
100
AcDbLine
 10
203.9834433607936
 20
272.0383016198825
 30
0.0
 11
220.8535328607938
 21
133.5425473198825
 31
0.0
  0
LINE
  5
6D93
330
1A
100
AcDbEntity
  8
NOKITOI
  6
PHANTOM
 48
5.0
100
AcDbLine
 10
203.0537295607934
 20
297.0383016198825
 30
0.0
 11
222.3920127607937
 21
138.2798002198825
 31
0.0
  0
LINE
  5
6D94
330
1A
100
AcDbEntity
  8
NOKITOI
  6
PHANTOM
 48
5.0
100
AcDbLine
 10
204.8219474038394
 20
273.8383016198825
 30
0.0
 11
221.6227728462729
 21
135.9111736984544
 31
0.0
  0
ARC
  5
6D95
330
1A
100
AcDbEntity
  8
NOKITOI
  6
PHANTOM
 48
5.0
100
AcDbCircle
 10
227.3553266607934
 20
138.8843786198825
 30
0.0
 40
4.99999999558399
100
AcDbArc
 50
186.9449520190735
 51
270.0
  0
ARC
  5
6D96
330
1A
100
AcDbEntity
  8
NOKITOI
  6
PHANTOM
 48
5.0
100
AcDbCircle
 10
225.0970925774547
 20
136.3343786198825
 30
0.0
 40
3.5
100
AcDbArc
 50
186.9449526899442
 51
270.0
  0
ARC
  5
6D97
330
1A
100
AcDbEntity
  8
NOKITOI
  6
PHANTOM
 48
5.0
100
AcDbCircle
 10
222.8388583607936
 20
133.7843786198825
 30
0.0
 40
1.999999964826235
100
AcDbArc
 50
186.9449505206508
 51
270.0
  0
ARC
  5
6D98
330
1A
100
AcDbEntity
  8
SEIHIN
100
AcDbCircle
 10
226.2188308940151
 20
295.4185259321367
 30
0.0
 40
6.0
100
AcDbArc
 50
8.000000000185313
 51
81.99999999999922
  0
ARC
  5
6D99
330
1A
100
AcDbEntity
  8
SEIHIN
100
AcDbCircle
 10
240.7197583659447
 20
248.2843786198825
 30
0.0
 40
6.799999999999999
100
AcDbArc
 50
188.000000000001
 51
270.0000000003647
  0
LINE
  5
6D9A
330
1A
100
AcDbEntity
  8
SEIHIN
100
AcDbLine
 10
235.1742571810343
 20
247.5050092544363
 30
0.0
 11
228.3974206452119
 21
295.7247067542518
 31
0.0
  0
LINE
  5
6D9B
330
1A
100
AcDbEntity
  8
SEIHIN
100
AcDbLine
 10
233.9859354985446
 20
247.3380015332826
 30
0.0
 11
227.2090989629366
 21
295.5576990331825
 31
0.0
  0
LINE
  5
6D9C
330
1A
100
AcDbEntity
  8
SEIHIN
100
AcDbLine
 10
238.7529792375737
 20
249.3452055189198
 30
0.0
 11
232.1604393063944
 21
296.2535645379066
 31
0.0
  0
DIMENSION
  5
6D9D
330
1A
100
AcDbEntity
  8
SUNPOU
100
AcDbDimension
  2
*D9
 10
274.3738125781426
 20
248.4843786198826
 30
0.0
 11
269.3738125781425
 21
274.6076331205542
 31
0.0
 70
    32
 71
     5
 42
-1.0
  3
STANDARD
100
AcDbAlignedDimension
 13
231.5311925830199
 23
300.7308876212257
 33
0.0
 14
239.7432473063149
 24
248.4843786198826
 34
0.0
 50
90.0
100
AcDbRotatedDimension
1001
ACAD
1000
DSTYLE
1002
{
1070
    41
1040
7.0
1070
    42
1040
6.0
1070
    43
1040
14.0
1070
    44
1040
3.0
1070
    73
1070
     0
1070
    74
1070
     0
1070
    77
1070
     3
1070
   140
1040
6.0
1070
   141
1040
150.0
1070
   147
1040
2.0
1070
   172
1070
     1
1070
   173
1070
     1
1070
   176
1070
   256
1070
   177
1070
   256
1070
   178
1070
   256
1070
   271
1070
     0
1070
   272
1070
     0
1070
   341
1005
6D
1070
     6
1000
OPEN
1070
     7
1000
OPEN
1070
   371
1070
    -1
1070
   372
1070
    -1
1002
}
  0
LINE
  5
6D9E
330
1A
100
AcDbEntity
  8
NOKITOI
  6
PHANTOM
 48
5.0
100
AcDbLine
 10
193.1537295607938
 20
274.1383016198825
 30
0.0
 11
203.7276435607934
 21
274.1383016198825
 31
0.0
  0
LINE
  5
6D9F
330
1A
100
AcDbEntity
  8
NOKITOI
  6
PHANTOM
 48
5.0
100
AcDbLine
 10
192.8537295607936
 20
273.8383016198825
 30
0.0
 11
204.8219474038394
 21
273.8383016198825
 31
0.0
  0
LINE
  5
6DA0
330
1A
100
AcDbEntity
  8
NOKITOI
  6
PHANTOM
 48
5.0
100
AcDbLine
 10
191.0537295607934
 20
272.0383016198825
 30
0.0
 11
203.9834433607936
 21
272.0383016198825
 31
0.0
  0
LINE
  5
6DA1
330
1A
100
AcDbEntity
  8
NOKITOI
  6
PHANTOM
 48
5.0
100
AcDbLine
 10
193.0537295607934
 20
297.0383016198825
 30
0.0
 11
203.0537295607934
 21
297.0383016198825
 31
0.0
  0
LINE
  5
6DA2
330
1A
100
AcDbEntity
  8
NOKITOI
  6
PHANTOM
 48
5.0
100
AcDbLine
 10
195.1537295607938
 20
295.2383016198826
 30
0.0
 11
201.1940073607936
 21
295.2383016198826
 31
0.0
  0
LINE
  5
6DA3
330
1A
100
AcDbEntity
  8
NOKITOI
  6
PHANTOM
 48
5.0
100
AcDbLine
 10
195.1537295607938
 20
294.9383016198826
 30
0.0
 11
201.1940073607936
 21
294.9383016198826
 31
0.0
  0
LINE
  5
6DA4
330
1A
100
AcDbEntity
  8
SEIHIN
100
AcDbLine
 10
191.2433482291446
 20
270.5843786198826
 30
0.0
 11
202.0433482292432
 21
270.5843786198826
 31
0.0
  0
LINE
  5
6DA5
330
1A
100
AcDbEntity
  8
SEIHIN
100
AcDbLine
 10
191.2433482291446
 20
271.7843786198825
 30
0.0
 11
202.0433482292432
 21
271.7843786198825
 31
0.0
  0
LINE
  5
6DA6
330
1A
100
AcDbEntity
  8
SEIHIN
100
AcDbLine
 10
191.5495290512567
 20
302.5125992112088
 30
0.0
 11
226.5250117160471
 21
297.5971156833681
 31
0.0
  0
LINE
  5
6DA7
330
1A
100
AcDbEntity
  8
SEIHIN
100
AcDbLine
 10
191.3825210578445
 20
301.3242775669825
 30
0.0
 11
226.3580039949015
 21
296.4087940008825
 31
0.0
  0
LINE
  5
6DA8
330
1A
100
AcDbEntity
  8
SEIHIN
100
AcDbLine
 10
192.9392137338793
 20
306.1546365415106
 30
0.0
 11
227.0538694997194
 21
301.3601343445861
 31
0.0
  0
LINE
  5
6DA9
330
1A
100
AcDbEntity
  8
NOKITOI
  6
PHANTOM
 48
5.0
100
AcDbLine
 10
193.1537295607938
 20
292.9383016198825
 30
0.0
 11
193.1537295607938
 21
274.1383016198825
 31
0.0
  0
LINE
  5
6DAA
330
1A
100
AcDbEntity
  8
NOKITOI
  6
PHANTOM
 48
5.0
100
AcDbLine
 10
192.8537295607936
 20
292.9383016198825
 30
0.0
 11
192.8537295607936
 21
273.8383016198825
 31
0.0
  0
LINE
  5
6DAB
330
1A
100
AcDbEntity
  8
NOKITOI
  6
PHANTOM
 48
5.0
100
AcDbLine
 10
191.0537295607934
 20
295.0383016198825
 30
0.0
 11
191.0537295607934
 21
272.0383016198825
 31
0.0
  0
LINE
  5
6DAC
330
1A
100
AcDbEntity
  8
SEIHIN
100
AcDbLine
 10
189.0433482291446
 20
272.7843786198825
 30
0.0
 11
189.0433482291268
 21
300.3340094599773
 31
0.0
  0
LINE
  5
6DAD
330
1A
100
AcDbEntity
  8
SEIHIN
100
AcDbLine
 10
190.2433482291446
 20
272.7843786198825
 30
0.0
 11
190.2433482291969
 21
300.3340093970825
 31
0.0
  0
LINE
  5
6DAE
330
1A
100
AcDbEntity
  8
SEIHIN
100
AcDbLine
 10
187.2433482291446
 20
274.5843786198725
 30
0.0
 11
187.2433482290778
 21
301.2032961977904
 31
0.0
  0
ARC
  5
6DAF
330
1A
100
AcDbEntity
  8
SEIHIN
100
AcDbCircle
 10
191.2433482291446
 20
272.7843786198825
 30
0.0
 40
1.0
100
AcDbArc
 50
180.0
 51
270.0000000029963
  0
ARC
  5
6DB0
330
1A
100
AcDbEntity
  8
SEIHIN
100
AcDbCircle
 10
191.2433482291446
 20
272.7843786198825
 30
0.0
 40
2.2
100
AcDbArc
 50
180.0
 51
270.0000000029963
  0
ARC
  5
6DB1
330
1A
100
AcDbEntity
  8
SEIHIN
100
AcDbCircle
 10
191.2433482291446
 20
274.5843786198826
 30
0.0
 40
4.0
100
AcDbArc
 50
180.0000000001432
 51
270.0
  0
ARC
  5
6DB2
330
1A
100
AcDbEntity
  8
SEIHIN
100
AcDbCircle
 10
191.2433482291446
 20
300.3340094599773
 30
0.0
 40
2.2
100
AcDbArc
 50
81.99999999999922
 51
180.0
  0
ARC
  5
6DB3
330
1A
100
AcDbEntity
  8
SEIHIN
100
AcDbCircle
 10
191.2433482291446
 20
300.3340094599825
 30
0.0
 40
1.0
100
AcDbArc
 50
82.00001575310357
 51
180.0000036065996
  0
ARC
  5
6DB4
330
1A
100
AcDbEntity
  8
SEIHIN
100
AcDbCircle
 10
192.2433482290777
 20
301.2032961978029
 30
0.0
 40
5.0
100
AcDbArc
 50
81.99999999998606
 51
180.0000000001432
  0
ARC
  5
6DB5
330
1A
100
AcDbEntity
  8
NOKITOI
  6
PHANTOM
 48
5.0
100
AcDbCircle
 10
193.0537295607934
 20
295.0383016198825
 30
0.0
 40
2.0
100
AcDbArc
 50
90.0
 51
180.0
  0
ARC
  5
6DB6
330
1A
100
AcDbEntity
  8
NOKITOI
  6
PHANTOM
 48
5.0
100
AcDbCircle
 10
195.1537295607938
 20
292.9383016198825
 30
0.0
 40
2.0
100
AcDbArc
 50
90.0
 51
180.0
  0
ARC
  5
6DB7
330
1A
100
AcDbEntity
  8
NOKITOI
  6
PHANTOM
 48
5.0
100
AcDbCircle
 10
195.1537295607938
 20
292.9383016198825
 30
0.0
 40
2.299999999999999
100
AcDbArc
 50
90.0
 51
180.0
  0
LINE
  5
6DB8
330
1A
100
AcDbEntity
  8
NOKITOI
  6
PHANTOM
 48
5.0
100
AcDbLine
 10
201.1940073607936
 20
294.9383016198826
 30
0.0
 11
203.7276435607934
 21
274.1383016198825
 31
0.0
  0
LINE
  5
6DBC
330
1A
100
AcDbEntity
  8
SEIHIN
100
AcDbLine
 10
202.0433482291446
 20
271.7843786198825
 30
0.0
 11
202.0433482292432
 21
270.5843786198826
 31
0.0
  0
ARC
  5
6DC6
330
1A
100
AcDbEntity
  8
SEIHIN
100
AcDbCircle
 10
226.2188308940151
 20
295.4185259321367
 30
0.0
 40
2.2
100
AcDbArc
 50
8.000000000204259
 51
81.99999999999922
  0
ARC
  5
6DC7
330
1A
100
AcDbEntity
  8
SEIHIN
100
AcDbCircle
 10
226.2188308940447
 20
295.4185259321826
 30
0.0
 40
1.0
100
AcDbArc
 50
8.000000000001076
 51
82.00000000585346
  0
ARC
  5
6DC8
330
1A
100
AcDbEntity
  8
SEIHIN
100
AcDbCircle
 10
240.7197583659447
 20
248.2843786198825
 30
0.0
 40
5.599999999999999
100
AcDbArc
 50
188.000000000001
 51
269.9999999992509
  0
ARC
  5
6DC9
330
1A
100
AcDbEntity
  8
SEIHIN
100
AcDbCircle
 10
249.4433482291444
 20
244.4843786198828
 30
0.0
 40
4.999999999999817
100
AcDbArc
 50
53.13010235415435
 51
126.8698976458456
  0
LINE
  5
6DCA
330
1A
100
AcDbEntity
  8
SEIHIN
100
AcDbLine
 10
241.7566250498978
 20
248.4843786198826
 30
0.0
 11
238.4727712135959
 21
251.3389892085779
 31
0.0
  0
ARC
  5
6DCB
330
1A
100
AcDbEntity
  8
SEIHIN
100
AcDbCircle
 10
239.7432473063149
 20
249.4843786198825
 30
0.0
 40
1.0
100
AcDbArc
 50
188.0000000001581
 51
270.0
  0
LINE
  5
6DCC
330
1A
100
AcDbEntity
  8
NOKITOI
  6
PHANTOM
 48
5.0
100
AcDbLine
 10
421.8309958607935
 20
138.0219773198825
 30
0.0
 11
421.2846011607937
 21
133.5390067198825
 31
0.0
  0
ARC
  5
6DCD
330
1A
100
AcDbEntity
  8
NOKITOI
  6
PHANTOM
 48
5.0
100
AcDbCircle
 10
419.2997101607936
 20
133.7843786198825
 30
0.0
 40
1.999999956398826
100
AcDbArc
 50
270.0
 51
352.952857822653
  0
ARC
  5
6DCE
330
1A
100
AcDbEntity
  8
NOKITOI
  6
PHANTOM
 48
5.0
100
AcDbCircle
 10
414.7835662607938
 20
138.8843786198825
 30
0.0
 40
5.000000005910891
100
AcDbArc
 50
270.0
 51
353.0233417399481
  0
ARC
  5
6DCF
330
1A
100
AcDbEntity
  8
NOKITOI
  6
PHANTOM
 48
5.0
100
AcDbCircle
 10
417.0405418385446
 20
136.3343786198825
 30
0.0
 40
3.5
100
AcDbArc
 50
270.0
 51
353.0233415815437
  0
ARC
  5
6DD0
330
1A
100
AcDbEntity
  8
SEIHIN
100
AcDbCircle
 10
319.4433212292276
 20
241.7340486198826
 30
0.0
 40
7.249670882495079
100
AcDbArc
 50
226.3950018128624
 51
270.0002225484002
  0
LINE
  5
6DD1
330
1A
100
AcDbEntity
  8
SEIHIN
100
AcDbLine
 10
314.4433482292277
 20
229.4844786198826
 30
0.0
 11
324.4433482292277
 21
229.4844786198826
 31
0.0
  0
LINE
  5
6DD2
330
1A
100
AcDbEntity
  8
SEIHIN
100
AcDbLine
 10
311.9433482292277
 20
234.4844786198826
 30
0.0
 11
319.4434482292276
 21
234.4844786198826
 31
0.0
  0
LINE
  5
6DD3
330
1A
100
AcDbEntity
  8
SEIHIN
100
AcDbLine
 10
330.4433482290587
 20
240.9843786198825
 30
0.0
 11
308.4433482290587
 21
240.9843786198825
 31
0.0
  0
LINE
  5
6DD4
330
1A
100
AcDbEntity
  8
SEIHIN
100
AcDbLine
 10
314.4433482292277
 20
234.4843786198826
 30
0.0
 11
314.4433482292277
 21
229.4844786198826
 31
0.0
  0
LINE
  5
6DD5
330
1A
100
AcDbEntity
  8
SEIHIN
100
AcDbLine
 10
314.4433482292277
 20
236.4844786198826
 30
0.0
 11
314.4433482292277
 21
240.9843786198825
 31
0.0
  0
LINE
  5
6DD6
330
1A
100
AcDbEntity
  8
SEIHIN
100
AcDbLine
 10
309.4433482292277
 20
236.4843786198826
 30
0.0
 11
309.4433482292277
 21
240.9843786198825
 31
0.0
  0
LINE
  5
6DD7
330
1A
100
AcDbEntity
  8
SEIHIN
100
AcDbLine
 10
308.4433482290587
 20
240.9843786198825
 30
0.0
 11
308.4433482290587
 21
241.4843786198825
 31
0.0
  0
ARC
  5
6DD8
330
1A
100
AcDbEntity
  8
SEIHIN
100
AcDbCircle
 10
311.9431862292276
 20
237.0468786198826
 30
0.0
 40
2.562635081136893
100
AcDbArc
 50
192.6797294812845
 51
347.3226210809194
  0
LINE
  5
6DD9
330
1A
100
AcDbEntity
  8
SEIHIN
100
AcDbLine
 10
315.4433482292276
 20
234.4843786198826
 30
0.0
 11
315.4433482292276
 21
229.4844786198826
 31
0.0
  0
LINE
  5
6DDA
330
1A
100
AcDbEntity
  8
SEIHIN
100
AcDbLine
 10
324.4433482292277
 20
234.4843786198826
 30
0.0
 11
324.4433482292277
 21
229.4844786198826
 31
0.0
  0
LINE
  5
6DDB
330
1A
100
AcDbEntity
  8
SEIHIN
100
AcDbLine
 10
323.4433482292276
 20
234.4843786198826
 30
0.0
 11
323.4433482292276
 21
229.4844786198826
 31
0.0
  0
LINE
  5
6DDC
330
1A
100
AcDbEntity
  8
SEIHIN
100
AcDbLine
 10
326.9433482292277
 20
234.4843786198826
 30
0.0
 11
319.4431482292277
 21
234.4843786198826
 31
0.0
  0
ARC
  5
6DDD
330
1A
100
AcDbEntity
  8
SEIHIN
100
AcDbCircle
 10
319.4433742292276
 20
241.7339486198826
 30
0.0
 40
7.249670882495079
100
AcDbArc
 50
269.9997887398042
 51
313.6050094753449
  0
LINE
  5
6DDE
330
1A
100
AcDbEntity
  8
SEIHIN
100
AcDbLine
 10
330.4433482290587
 20
240.9843786198825
 30
0.0
 11
330.4433482290587
 21
241.4843786198825
 31
0.0
  0
ARC
  5
6DDF
330
1A
100
AcDbEntity
  8
SEIHIN
100
AcDbCircle
 10
326.9435092292276
 20
237.0468786198826
 30
0.0
 40
2.562656995934785
100
AcDbArc
 50
192.6796051079033
 51
347.3181259813769
  0
LINE
  5
6DE0
330
1A
100
AcDbEntity
  8
SEIHIN
100
AcDbLine
 10
324.4433482292277
 20
236.4843786198826
 30
0.0
 11
324.4433482292277
 21
240.9843786198825
 31
0.0
  0
LINE
  5
6DE1
330
1A
100
AcDbEntity
  8
SEIHIN
100
AcDbLine
 10
329.4433482292276
 20
236.4843786198826
 30
0.0
 11
329.4433482292276
 21
240.9843786198825
 31
0.0
  0
ARC
  5
6DE2
330
1A
100
AcDbEntity
  8
SEIHIN
100
AcDbCircle
 10
319.4433212292276
 20
249.2348076198826
 30
0.0
 40
7.249670882495079
100
AcDbArc
 50
89.9997887397456
 51
133.6050094752909
  0
LINE
  5
6DE3
330
1A
100
AcDbEntity
  8
SEIHIN
100
AcDbLine
 10
309.4433482292277
 20
248.4843786198827
 30
0.0
 11
329.4433482292276
 21
248.4843786198827
 31
0.0
  0
LINE
  5
6DE4
330
1A
100
AcDbEntity
  8
SEIHIN
100
AcDbLine
 10
309.4433482292277
 20
248.4843786198827
 30
0.0
 11
329.4433482292276
 21
248.4843786198827
 31
0.0
  0
LINE
  5
6DE5
330
1A
100
AcDbEntity
  8
SEIHIN
100
AcDbLine
 10
311.9433482292277
 20
256.4842786198826
 30
0.0
 11
319.4434482292276
 21
256.4842786198826
 31
0.0
  0
ARC
  5
6DE6
330
1A
100
AcDbEntity
  8
SEIHIN
100
AcDbCircle
 10
311.9431362292278
 20
253.9218786198826
 30
0.0
 40
2.562684194030247
100
AcDbArc
 50
12.67714418354194
 51
167.3205326235306
  0
LINE
  5
6DE7
330
1A
100
AcDbEntity
  8
SEIHIN
100
AcDbLine
 10
314.4433482292277
 20
254.4843786198827
 30
0.0
 11
314.4433482292277
 21
248.4843786198827
 31
0.0
  0
LINE
  5
6DE8
330
1A
100
AcDbEntity
  8
SEIHIN
100
AcDbLine
 10
309.4433482292277
 20
254.4843786198827
 30
0.0
 11
309.4433482292277
 21
248.4843786198827
 31
0.0
  0
ARC
  5
6DE9
330
1A
100
AcDbEntity
  8
SEIHIN
100
AcDbCircle
 10
326.9435092292276
 20
253.9219786198827
 30
0.0
 40
2.562635081136893
100
AcDbArc
 50
12.67972948128459
 51
167.3226210809193
  0
ARC
  5
6DEA
330
1A
100
AcDbEntity
  8
SEIHIN
100
AcDbCircle
 10
319.4433602292276
 20
249.2347726198826
 30
0.0
 40
7.249704847449203
100
AcDbArc
 50
46.39512430589117
 51
90.00012237830244
  0
LINE
  5
6DEB
330
1A
100
AcDbEntity
  8
SEIHIN
100
AcDbLine
 10
324.4433482292277
 20
254.4843786198827
 30
0.0
 11
324.4433482292277
 21
248.4843786198827
 31
0.0
  0
LINE
  5
6DEC
330
1A
100
AcDbEntity
  8
SEIHIN
100
AcDbLine
 10
329.4433482292276
 20
254.4843786198827
 30
0.0
 11
329.4433482292276
 21
248.4843786198827
 31
0.0
  0
LINE
  5
6DED
330
1A
100
AcDbEntity
  8
SEIHIN
100
AcDbLine
 10
326.9433482292277
 20
256.4843786198827
 30
0.0
 11
319.4431482292277
 21
256.4843786198827
 31
0.0
  0
LINE
  5
6DEE
330
1A
100
AcDbEntity
  8
SEIHIN
100
AcDbLine
 10
410.1688727397447
 20
245.9586416451826
 30
0.0
 11
419.5986222863296
 21
271.8666655956825
 31
0.0
  0
LINE
  5
6DEF
330
1A
100
AcDbEntity
  8
SEIHIN
100
AcDbLine
 10
409.0412415948009
 20
246.3690658171718
 30
0.0
 11
418.4709911412658
 21
272.277089767643
 31
0.0
  0
LINE
  5
6DF0
330
1A
100
AcDbEntity
  8
SEIHIN
100
AcDbLine
 10
406.0067620383067
 20
249.1423584765636
 30
0.0
 11
414.9001591822277
 21
273.5767663122704
 31
0.0
  0
DIMENSION
  5
6DF1
330
1A
100
AcDbEntity
  8
SUNPOU
100
AcDbDimension
  2
*D10
 10
375.7393496283791
 20
276.9645120511932
 30
0.0
 11
370.7393496283791
 21
262.724445335538
 31
0.0
 70
    32
 71
     5
 42
-1.0
  3
STANDARD
100
AcDbAlignedDimension
 13
405.0670694175185
 23
248.4843786198827
 33
0.0
 14
416.1331977924303
 24
276.9645120511932
 34
0.0
 50
90.0
100
AcDbRotatedDimension
1001
ACAD
1000
DSTYLE
1002
{
1070
    41
1040
7.0
1070
    42
1040
6.0
1070
    43
1040
14.0
1070
    44
1040
3.0
1070
    73
1070
     0
1070
    74
1070
     0
1070
    77
1070
     3
1070
   140
1040
6.0
1070
   141
1040
150.0
1070
   147
1040
2.0
1070
   172
1070
     1
1070
   173
1070
     1
1070
   176
1070
   256
1070
   177
1070
   256
1070
   178
1070
   256
1070
   271
1070
     0
1070
   272
1070
     0
1070
   341
1005
6D
1070
     6
1000
OPEN
1070
     7
1000
OPEN
1070
   371
1070
    -1
1070
   372
1070
    -1
1002
}
  0
ARC
  5
6DF2
330
1A
100
AcDbEntity
  8
SEIHIN
100
AcDbCircle
 10
392.4433482291444
 20
244.4843786198829
 30
0.0
 40
4.999999999999817
100
AcDbArc
 50
53.13010235415435
 51
126.8698976458456
  0
ARC
  5
6DF3
330
1A
100
AcDbEntity
  8
SEIHIN
100
AcDbCircle
 10
403.7789629184446
 20
248.2843786198825
 30
0.0
 40
5.599999999999999
100
AcDbArc
 50
270.0
 51
339.9999999994623
  0
ARC
  5
6DF4
330
1A
100
AcDbEntity
  8
SEIHIN
100
AcDbCircle
 10
403.7789629184446
 20
248.2843786198825
 30
0.0
 40
6.799999999999999
100
AcDbArc
 50
270.0
 51
339.9999999999047
  0
LINE
  5
6DF7
330
1A
100
AcDbEntity
  8
SEIHIN
100
AcDbLine
 10
403.4283373022922
 20
248.4843786198827
 30
0.0
 11
406.5672414312721
 21
250.6822629528767
 31
0.0
  0
ARC
  5
6DF8
330
1A
100
AcDbEntity
  8
SEIHIN
100
AcDbCircle
 10
405.0670694175185
 20
249.4843786198827
 30
0.0
 40
1.0
100
AcDbArc
 50
270.0
 51
340.0000000004098
  0
ARC
  5
6DFD
330
1A
100
AcDbEntity
  8
SEIHIN
100
AcDbCircle
 10
420.5383149071206
 20
271.5246454523291
 30
0.0
 40
2.2
100
AcDbArc
 50
97.99999999986264
 51
160.0000000011805
  0
ARC
  5
6DFE
330
1A
100
AcDbEntity
  8
SEIHIN
100
AcDbCircle
 10
420.5383149071447
 20
271.5246454522826
 30
0.0
 40
1.0
100
AcDbArc
 50
98.00000000000078
 51
160.0000000005801
  0
ARC
  5
6DFF
330
1A
100
AcDbEntity
  8
SEIHIN
100
AcDbCircle
 10
420.5383149071206
 20
271.5246454523291
 30
0.0
 40
6.0
100
AcDbArc
 50
98.00000000015208
 51
160.0000000000723
  0
LINE
  5
6E00
330
1A
100
AcDbEntity
  8
CENTER L
 48
5.0
100
AcDbLine
 10
319.4433482290448
 20
547.5160194736562
 30
0.0
 11
319.443348229079
 21
493.5160194736562
 31
0.0
  0
DIMENSION
  5
6E01
330
1A
100
AcDbEntity
  8
SUNPOU
100
AcDbDimension
  2
*D11
 10
351.1933482292281
 20
431.2346802443648
 30
0.0
 11
319.443348229228
 21
436.2346802443648
 31
0.0
 70
    32
 71
     5
 42
-1.0
  3
STANDARD
100
AcDbAlignedDimension
 13
287.6933482292279
 23
408.9520400195716
 33
0.0
 14
351.1933482292281
 24
408.9520400195716
 34
0.0
100
AcDbRotatedDimension
1001
ACAD
1000
DSTYLE
1002
{
1070
   140
1040
6.0
1070
    74
1070
     0
1070
   172
1070
     1
1070
    73
1070
     0
1070
   272
1070
     2
1070
    77
1070
     3
1070
   173
1070
     1
1070
   147
1040
2.0
1070
    42
1040
6.0
1070
    44
1040
3.0
1070
    43
1040
14.0
1070
   271
1070
     0
1070
   178
1070
     4
1070
   177
1070
     4
1070
   176
1070
     4
1070
   141
1040
150.0
1070
     7
1000
_OPEN
1070
     6
1000
_OPEN
1070
    41
1040
7.0
1002
}
  0
LEADER
  5
6E02
330
1A
100
AcDbEntity
  8
SUNPOU
100
AcDbLeader
  3
STANDARD
 76
     3
 10
324.4433482292277
 20
399.4844786198827
 30
0.0
 10
352.3461994317165
 20
424.1502543694183
 30
0.0
 10
402.4255763907838
 20
424.1502543694183
 30
0.0
1001
ACAD
1000
DSTYLE
1002
{
1070
     6
1000
OPEN
1070
    41
1040
7.0
1070
    42
1040
6.0
1070
    43
1040
14.0
1070
    44
1040
3.0
1070
    73
1070
     0
1070
    74
1070
     0
1070
    77
1070
     3
1070
   140
1040
6.0
1070
   141
1040
150.0
1070
   147
1040
2.0
1070
   172
1070
     1
1070
   173
1070
     1
1070
   176
1070
     4
1070
   177
1070
     4
1070
   178
1070
     4
1070
   271
1070
     0
1070
   272
1070
     2
1070
   341
1005
6D
1070
   343
1005
6D
1070
   344
1005
6D
1002
}
  0
LEADER
  5
6E03
330
1A
100
AcDbEntity
  8
SUNPOU
100
AcDbLeader
  3
STANDARD
 76
     3
 10
335.9433462292277
 20
385.2634236198825
 30
0.0
 10
361.7046303691759
 20
413.1580923486238
 30
0.0
 10
378.083241663503
 20
413.1580923486238
 30
0.0
1001
ACAD
1000
DSTYLE
1002
{
1070
     6
1000
OPEN
1070
    41
1040
7.0
1070
    42
1040
6.0
1070
    43
1040
14.0
1070
    44
1040
3.0
1070
    73
1070
     0
1070
    74
1070
     0
1070
    77
1070
     3
1070
   140
1040
6.0
1070
   141
1040
150.0
1070
   147
1040
2.0
1070
   172
1070
     1
1070
   173
1070
     1
1070
   176
1070
     4
1070
   177
1070
     4
1070
   178
1070
     4
1070
   271
1070
     0
1070
   272
1070
     2
1070
   341
1005
6D
1070
   343
1005
6D
1070
   344
1005
6D
1002
}
  0
ARC
  5
6E04
330
1A
100
AcDbEntity
  8
SEIHIN
100
AcDbCircle
 10
326.9435202292277
 20
360.9259236198826
 30
0.0
 40
2.562656995934785
100
AcDbArc
 50
192.6796051079033
 51
347.3181259813769
  0
ARC
  5
6E05
330
1A
100
AcDbEntity
  8
SEIHIN
100
AcDbCircle
 10
319.4433462292276
 20
365.6131286198825
 30
0.0
 40
7.249704847449203
100
AcDbArc
 50
226.3951243058911
 51
270.0001223783024
  0
ARC
  5
6E06
330
1A
100
AcDbEntity
  8
SEIHIN
100
AcDbCircle
 10
319.4434762292276
 20
365.6131306198825
 30
0.0
 40
7.249707053624614
100
AcDbArc
 50
269.9990734195281
 51
313.6037477331426
  0
ARC
  5
6E07
330
1A
100
AcDbEntity
  8
SEIHIN
100
AcDbCircle
 10
311.9431982292276
 20
360.9259236198826
 30
0.0
 40
2.562635081136893
100
AcDbArc
 50
192.6797294812845
 51
347.3226210809194
  0
LINE
  5
6E08
330
1A
100
AcDbEntity
  8
SEIHIN
100
AcDbLine
 10
311.9433592292275
 20
358.3635236198825
 30
0.0
 11
319.4435592292277
 21
358.3635236198825
 31
0.0
  0
LINE
  5
6E09
330
1A
100
AcDbEntity
  8
SEIHIN
100
AcDbLine
 10
326.9433592292275
 20
358.3634236198826
 30
0.0
 11
319.4432592292276
 21
358.3634236198826
 31
0.0
  0
LINE
  5
6E0A
330
1A
100
AcDbEntity
  8
SEIHIN
100
AcDbLine
 10
335.9433592292275
 20
370.0634236198826
 30
0.0
 11
302.9433592292275
 21
370.0634236198826
 31
0.0
  0
LINE
  5
6E0B
330
1A
100
AcDbEntity
  8
SEIHIN
100
AcDbLine
 10
334.4433592292275
 20
374.0634236198826
 30
0.0
 11
304.4433592292275
 21
374.0634236198826
 31
0.0
  0
LINE
  5
6E0C
330
1A
100
AcDbEntity
  8
SEIHIN
100
AcDbLine
 10
335.9433592292275
 20
368.8634236198826
 30
0.0
 11
302.9433592292275
 21
368.8634236198826
 31
0.0
  0
LINE
  5
6E0D
330
1A
100
AcDbEntity
  8
SEIHIN
100
AcDbLine
 10
335.9433462292277
 20
385.2634236198827
 30
0.0
 11
302.9433462292276
 21
385.2634236198827
 31
0.0
  0
LINE
  5
6E0E
330
1A
100
AcDbEntity
  8
SEIHIN
100
AcDbLine
 10
335.9433462292277
 20
384.0634236198826
 30
0.0
 11
302.9433462292276
 21
384.0634236198826
 31
0.0
  0
LINE
  5
6E0F
330
1A
100
AcDbEntity
  8
SEIHIN
100
AcDbLine
 10
334.4433592292275
 20
384.0634236198826
 30
0.0
 11
304.4433592292275
 21
384.0634236198826
 31
0.0
  0
LINE
  5
6E10
330
1A
100
AcDbEntity
  8
SEIHIN
100
AcDbLine
 10
304.4433592292275
 20
384.0634236198826
 30
0.0
 11
304.4433592292275
 21
374.0634236198826
 31
0.0
  0
LINE
  5
6E11
330
1A
100
AcDbEntity
  8
SEIHIN
100
AcDbLine
 10
329.4433592292275
 20
366.3634236198826
 30
0.0
 11
309.4433592292275
 21
366.3634236198826
 31
0.0
  0
LINE
  5
6E12
330
1A
100
AcDbEntity
  8
SEIHIN
100
AcDbLine
 10
314.4634582292276
 20
370.0634236198826
 30
0.0
 11
314.4634582292276
 21
374.0634236198826
 31
0.0
  0
LINE
  5
6E13
330
1A
100
AcDbEntity
  8
SEIHIN
100
AcDbLine
 10
302.9433592292275
 20
370.0634236198826
 30
0.0
 11
302.9433592292275
 21
368.8634236198826
 31
0.0
  0
LINE
  5
6E14
330
1A
100
AcDbEntity
  8
SEIHIN
100
AcDbLine
 10
314.4433592292275
 20
360.3635236198825
 30
0.0
 11
314.4433592292275
 21
366.3634236198826
 31
0.0
  0
LINE
  5
6E15
330
1A
100
AcDbEntity
  8
SEIHIN
100
AcDbLine
 10
309.4433592292275
 20
360.3634236198826
 30
0.0
 11
309.4433592292275
 21
366.3634236198826
 31
0.0
  0
LINE
  5
6E16
330
1A
100
AcDbEntity
  8
SEIHIN
100
AcDbLine
 10
308.4433382292274
 20
368.8634236198826
 30
0.0
 11
309.9433362292277
 21
366.3634236198826
 31
0.0
  0
LINE
  5
6E17
330
1A
100
AcDbEntity
  8
SEIHIN
100
AcDbLine
 10
315.4634582292276
 20
370.0634236198826
 30
0.0
 11
315.4634582292276
 21
374.0634236198826
 31
0.0
  0
LINE
  5
6E18
330
1A
100
AcDbEntity
  8
SEIHIN
100
AcDbLine
 10
324.4634582292276
 20
370.0634236198826
 30
0.0
 11
324.4634582292276
 21
374.0634236198826
 31
0.0
  0
LINE
  5
6E19
330
1A
100
AcDbEntity
  8
SEIHIN
100
AcDbLine
 10
323.4634582292276
 20
370.0634236198826
 30
0.0
 11
323.4634582292276
 21
374.0634236198826
 31
0.0
  0
LINE
  5
6E1A
330
1A
100
AcDbEntity
  8
SEIHIN
100
AcDbLine
 10
324.4433592292275
 20
360.3634236198826
 30
0.0
 11
324.4433592292275
 21
366.3634236198826
 31
0.0
  0
LINE
  5
6E1B
330
1A
100
AcDbEntity
  8
SEIHIN
100
AcDbLine
 10
329.4433592292275
 20
360.3634236198826
 30
0.0
 11
329.4433592292275
 21
366.3634236198826
 31
0.0
  0
LINE
  5
6E1C
330
1A
100
AcDbEntity
  8
SEIHIN
100
AcDbLine
 10
328.9433362292277
 20
366.3634236198826
 30
0.0
 11
330.4433382292275
 21
368.8634236198826
 31
0.0
  0
ARC
  5
6E1D
330
1A
100
AcDbEntity
  8
SEIHIN
100
AcDbCircle
 10
319.4433352292276
 20
388.5138186198827
 30
0.0
 40
7.249704847449203
100
AcDbArc
 50
89.99989775740109
 51
133.6048958298142
  0
LINE
  5
6E1E
330
1A
100
AcDbEntity
  8
SEIHIN
100
AcDbLine
 10
314.4433482292277
 20
399.4844786198827
 30
0.0
 11
324.4433482292277
 21
399.4844786198827
 31
0.0
  0
LINE
  5
6E1F
330
1A
100
AcDbEntity
  8
SEIHIN
100
AcDbLine
 10
311.9433482292277
 20
395.7634236198827
 30
0.0
 11
319.4435482292276
 21
395.7634236198827
 31
0.0
  0
LINE
  5
6E20
330
1A
100
AcDbEntity
  8
SEIHIN
100
AcDbLine
 10
309.4433482292277
 20
387.7634236198827
 30
0.0
 11
329.4433482292276
 21
387.7634236198827
 31
0.0
  0
LINE
  5
6E21
330
1A
100
AcDbEntity
  8
SEIHIN
100
AcDbLine
 10
328.9433232292276
 20
387.7634236198827
 30
0.0
 11
309.9433232292276
 21
387.7634236198827
 31
0.0
  0
ARC
  5
6E22
330
1A
100
AcDbEntity
  8
SEIHIN
100
AcDbCircle
 10
311.9431982292276
 20
393.2009236198826
 30
0.0
 40
2.562646037603808
100
AcDbArc
 50
12.67966100636773
 51
167.3203672336147
  0
LINE
  5
6E23
330
1A
100
AcDbEntity
  8
SEIHIN
100
AcDbLine
 10
302.9433462292276
 20
385.2634236198827
 30
0.0
 11
302.9433462292276
 21
384.0634236198826
 31
0.0
  0
LINE
  5
6E24
330
1A
100
AcDbEntity
  8
SEIHIN
100
AcDbLine
 10
308.4433252292276
 20
385.2634236198827
 30
0.0
 11
309.9433232292276
 21
387.7634236198827
 31
0.0
  0
LINE
  5
6E25
330
1A
100
AcDbEntity
  8
SEIHIN
100
AcDbLine
 10
314.4433482292277
 20
393.7634236198827
 30
0.0
 11
314.4433482292277
 21
387.7634236198827
 31
0.0
  0
LINE
  5
6E26
330
1A
100
AcDbEntity
  8
SEIHIN
100
AcDbLine
 10
309.4433482292277
 20
393.7635236198826
 30
0.0
 11
309.4433482292277
 21
387.7634236198827
 31
0.0
  0
LINE
  5
6E27
330
1A
100
AcDbEntity
  8
SEIHIN
100
AcDbLine
 10
314.4433482292277
 20
395.7634236198827
 30
0.0
 11
314.4433482292277
 21
399.4844786198827
 31
0.0
  0
ARC
  5
6E28
330
1A
100
AcDbEntity
  8
SEIHIN
100
AcDbCircle
 10
326.9435092292276
 20
393.2010236198826
 30
0.0
 40
2.562635081136893
100
AcDbArc
 50
12.67972948128459
 51
167.3226210809193
  0
ARC
  5
6E29
330
1A
100
AcDbEntity
  8
SEIHIN
100
AcDbCircle
 10
319.4433752292277
 20
388.5138526198826
 30
0.0
 40
7.249670882495079
100
AcDbArc
 50
46.39500181286244
 51
90.0002225484002
  0
LINE
  5
6E2A
330
1A
100
AcDbEntity
  8
SEIHIN
100
AcDbLine
 10
328.9433232292276
 20
387.7634236198827
 30
0.0
 11
330.4433252292276
 21
385.2634236198827
 31
0.0
  0
LINE
  5
6E2B
330
1A
100
AcDbEntity
  8
SEIHIN
100
AcDbLine
 10
324.4433482292277
 20
393.7634236198827
 30
0.0
 11
324.4433482292277
 21
387.7634236198827
 31
0.0
  0
LINE
  5
6E2C
330
1A
100
AcDbEntity
  8
SEIHIN
100
AcDbLine
 10
329.4433482292276
 20
393.7634236198827
 30
0.0
 11
329.4433482292276
 21
387.7634236198827
 31
0.0
  0
LINE
  5
6E2D
330
1A
100
AcDbEntity
  8
SEIHIN
100
AcDbLine
 10
326.9433482292277
 20
395.7634236198827
 30
0.0
 11
319.4432482292274
 21
395.7634236198827
 31
0.0
  0
LINE
  5
6E2E
330
1A
100
AcDbEntity
  8
SEIHIN
100
AcDbLine
 10
315.4433482292276
 20
395.7634236198827
 30
0.0
 11
315.4433482292276
 21
399.4844786198827
 31
0.0
  0
LINE
  5
6E2F
330
1A
100
AcDbEntity
  8
SEIHIN
100
AcDbLine
 10
324.4433482292277
 20
395.7634236198827
 30
0.0
 11
324.4433482292277
 21
399.4844786198827
 31
0.0
  0
LINE
  5
6E30
330
1A
100
AcDbEntity
  8
SEIHIN
100
AcDbLine
 10
323.4433482292276
 20
395.7634236198827
 30
0.0
 11
323.4433482292276
 21
399.4844786198827
 31
0.0
  0
LINE
  5
6E31
330
1A
100
AcDbEntity
  8
SEIHIN
100
AcDbLine
 10
334.4433592292275
 20
384.0634236198826
 30
0.0
 11
334.4433592292275
 21
374.0634236198826
 31
0.0
  0
LINE
  5
6E32
330
1A
100
AcDbEntity
  8
SEIHIN
100
AcDbLine
 10
335.9433592292275
 20
370.0634236198826
 30
0.0
 11
335.9433592292275
 21
368.8634236198826
 31
0.0
  0
LINE
  5
6E33
330
1A
100
AcDbEntity
  8
SEIHIN
100
AcDbLine
 10
335.9433462292277
 20
385.2634236198827
 30
0.0
 11
335.9433462292277
 21
384.0634236198826
 31
0.0
  0
TEXT
  5
6E34
330
1A
100
AcDbEntity
  8
SUNPOU
100
AcDbText
 10
343.756267766161
 20
434.8883976919859
 30
0.0
 40
6.0
  1
スライド幅
100
AcDbText
  0
TEXT
  5
6E35
330
1A
100
AcDbEntity
  8
SUNPOU
100
AcDbText
 10
364.2198298476778
 20
414.8333178533373
 30
0.0
 40
5.0
  1
座金
100
AcDbText
  0
TEXT
  5
6E36
330
1A
100
AcDbEntity
  8
SUNPOU
100
AcDbText
 10
354.8613989102184
 20
425.8254798741319
 30
0.0
 40
5.0
  1
Ｗ３／８－Ｌ１７０
100
AcDbText
  0
LINE
  5
6E37
330
1A
100
AcDbEntity
  8
SEIHIN
100
AcDbLine
 10
287.6933475468447
 20
525.7660194736562
 30
0.0
 11
305.7770407644714
 21
525.7660194736562
 31
0.0
  0
LINE
  5
6E38
330
1A
100
AcDbEntity
  8
SEIHIN
100
AcDbLine
 10
287.6933477182447
 20
515.2660194736562
 30
0.0
 11
305.7770407644714
 21
515.2660194736562
 31
0.0
  0
LINE
  5
6E39
330
1A
100
AcDbEntity
  8
SEIHIN
100
AcDbLine
 10
189.0433482290388
 20
532.8160194736563
 30
0.0
 11
319.4433482292665
 21
532.8160194736563
 31
0.0
  0
LINE
  5
6E3A
330
1A
100
AcDbEntity
  8
SEIHIN
100
AcDbLine
 10
319.4433482291447
 20
508.2160194736561
 30
0.0
 11
189.0433482290996
 21
508.216019473656
 31
0.0
  0
LINE
  5
6E3B
330
1A
100
AcDbEntity
  8
SEIHIN
100
AcDbLine
 10
201.0433484765446
 20
500.5160194736562
 30
0.0
 11
189.0433482291187
 21
500.5160194736562
 31
0.0
  0
LINE
  5
6E3C
330
1A
100
AcDbEntity
  8
SEIHIN
100
AcDbLine
 10
187.2433482291185
 20
509.5160194736562
 30
0.0
 11
187.2433482291708
 21
531.5160194736562
 31
0.0
  0
ARC
  5
6E3D
330
1A
100
AcDbEntity
  8
SEIHIN
100
AcDbCircle
 10
188.5433482291184
 20
507.7160194736562
 30
0.0
 40
0.5
100
AcDbArc
 50
0.0
 51
90.00000000203229
  0
ARC
  5
6E3E
330
1A
100
AcDbEntity
  8
SEIHIN
100
AcDbCircle
 10
188.5433482291184
 20
509.5160194736562
 30
0.0
 40
1.3
100
AcDbArc
 50
180.0
 51
269.9999999992183
  0
LINE
  5
6E3F
330
1A
100
AcDbEntity
  8
SEIHIN
100
AcDbLine
 10
189.0433482291184
 20
500.5160194736562
 30
0.0
 11
189.0433482291007
 21
507.7160194736562
 31
0.0
  0
LINE
  5
6E40
330
1A
100
AcDbEntity
  8
SEIHIN
100
AcDbLine
 10
189.0433482291184
 20
540.5160194736562
 30
0.0
 11
189.0433482291007
 21
533.3160194736563
 31
0.0
  0
ARC
  5
6E41
330
1A
100
AcDbEntity
  8
SEIHIN
100
AcDbCircle
 10
188.5433482291184
 20
531.5160194736562
 30
0.0
 40
1.3
100
AcDbArc
 50
90.0
 51
180.0
  0
ARC
  5
6E42
330
1A
100
AcDbEntity
  8
SEIHIN
100
AcDbCircle
 10
188.5433482291184
 20
533.3160194736563
 30
0.0
 40
0.5
100
AcDbArc
 50
270.0
 51
0.0
  0
LINE
  5
6E43
330
1A
100
AcDbEntity
  8
SEIHIN
100
AcDbLine
 10
230.3200502249446
 20
511.2160194736561
 30
0.0
 11
230.3200502248805
 21
529.8160194736563
 31
0.0
  0
LINE
  5
6E44
330
1A
100
AcDbEntity
  8
SEIHIN
100
AcDbLine
 10
228.1666968466434
 20
501.5160194736563
 30
0.0
 11
228.1666968466431
 21
507.2160194736561
 31
0.0
  0
LINE
  5
6E45
330
1A
100
AcDbEntity
  8
SEIHIN
100
AcDbLine
 10
228.1666968466434
 20
533.8160194736563
 30
0.0
 11
228.1666968466434
 21
539.5160194736562
 31
0.0
  0
LINE
  5
6E46
330
1A
100
AcDbEntity
  8
SEIHIN
100
AcDbLine
 10
238.9151454921445
 20
511.2160194736561
 30
0.0
 11
238.9279861301042
 21
529.8160194736563
 31
0.0
  0
CIRCLE
  5
6E47
330
1A
100
AcDbEntity
  8
SEIHIN
100
AcDbCircle
 10
249.4433482292056
 20
520.5160194736562
 30
0.0
 40
3.0
  0
LINE
  5
6E48
330
1A
100
AcDbEntity
  8
SEIHIN
100
AcDbLine
 10
235.8517526342166
 20
501.5160194736563
 30
0.0
 11
235.8517526342166
 21
507.216019473656
 31
0.0
  0
LINE
  5
6E49
330
1A
100
AcDbEntity
  8
SEIHIN
100
AcDbLine
 10
237.7440253104946
 20
514.5160194736562
 30
0.0
 11
241.0278791466123
 21
514.5160194736562
 31
0.0
  0
LINE
  5
6E4A
330
1A
100
AcDbEntity
  8
SEIHIN
100
AcDbLine
 10
237.7440253104946
 20
512.5160194736562
 30
0.0
 11
241.0278791466123
 21
512.5160194736562
 31
0.0
  0
LINE
  5
6E4B
330
1A
100
AcDbEntity
  8
SEIHIN
100
AcDbLine
 10
241.0278791466473
 20
516.5160194736562
 30
0.0
 11
237.7440253104873
 21
516.5160194736562
 31
0.0
  0
LINE
  5
6E4C
330
1A
100
AcDbEntity
  8
SEIHIN
100
AcDbLine
 10
237.7440253104946
 20
512.5160194736562
 30
0.0
 11
237.7440253104873
 21
516.5160194736562
 31
0.0
  0
LINE
  5
6E4D
330
1A
100
AcDbEntity
  8
SEIHIN
100
AcDbLine
 10
241.0278791466473
 20
512.5160194736562
 30
0.0
 11
241.0278791466123
 21
516.5160194736562
 31
0.0
  0
LINE
  5
6E4E
330
1A
100
AcDbEntity
  8
SEIHIN
100
AcDbLine
 10
237.7440253104946
 20
526.5160194736562
 30
0.0
 11
241.0278791466123
 21
526.5160194736562
 31
0.0
  0
LINE
  5
6E4F
330
1A
100
AcDbEntity
  8
SEIHIN
100
AcDbLine
 10
237.7440253104946
 20
528.5160194736562
 30
0.0
 11
241.0278791466123
 21
528.5160194736562
 31
0.0
  0
LINE
  5
6E50
330
1A
100
AcDbEntity
  8
SEIHIN
100
AcDbLine
 10
237.7440253104946
 20
524.5160194736562
 30
0.0
 11
241.0278791466123
 21
524.5160194736562
 31
0.0
  0
LINE
  5
6E51
330
1A
100
AcDbEntity
  8
SEIHIN
100
AcDbLine
 10
237.7440253104946
 20
524.5160194736562
 30
0.0
 11
237.7440253104873
 21
528.5160194736562
 31
0.0
  0
LINE
  5
6E52
330
1A
100
AcDbEntity
  8
SEIHIN
100
AcDbLine
 10
241.0278791466473
 20
524.5160194736562
 30
0.0
 11
241.0278791466123
 21
528.5160194736562
 31
0.0
  0
LINE
  5
6E53
330
1A
100
AcDbEntity
  8
SEIHIN
100
AcDbLine
 10
235.8517526342168
 20
533.8160194736563
 30
0.0
 11
235.8517526342166
 21
539.5160194736562
 31
0.0
  0
ARC
  5
6E54
330
1A
100
AcDbEntity
  8
SEIHIN
100
AcDbCircle
 10
287.6933482291446
 20
520.5160194736562
 30
0.0
 40
5.25
100
AcDbArc
 50
90.00000744649659
 51
269.9999944263899
  0
LINE
  5
6E55
330
1A
100
AcDbEntity
  8
CENTER L
 48
5.0
100
AcDbLine
 10
287.6933482291383
 20
530.7660194736562
 30
0.0
 11
287.693348229151
 21
510.2660194736562
 31
0.0
  0
LINE
  5
6E56
330
1A
100
AcDbEntity
  8
SEIHIN
100
AcDbLine
 10
289.4433482291447
 20
513.2660194736562
 30
0.0
 11
289.4433482292665
 21
500.5160194736562
 31
0.0
  0
LINE
  5
6E57
330
1A
100
AcDbEntity
  8
SEIHIN
100
AcDbLine
 10
289.4433482291447
 20
500.5160194736562
 30
0.0
 11
283.3302038052211
 21
500.5160194736562
 31
0.0
  0
LINE
  5
6E58
330
1A
100
AcDbEntity
  8
SEIHIN
100
AcDbLine
 10
294.4433482291447
 20
500.5160194736562
 30
0.0
 11
290.7311297309218
 21
500.5160194736562
 31
0.0
  0
LINE
  5
6E59
330
1A
100
AcDbEntity
  8
SEIHIN
100
AcDbLine
 10
294.4433482291447
 20
505.5160194736562
 30
0.0
 11
294.4433482292665
 21
500.5160194736562
 31
0.0
  0
ARC
  5
6E5A
330
1A
100
AcDbEntity
  8
SEIHIN
100
AcDbCircle
 10
323.4433482290619
 20
520.5160194736562
 30
0.0
 40
11.0
100
AcDbArc
 50
270.0
 51
90.0
  0
CIRCLE
  5
6E5B
330
1A
100
AcDbEntity
  8
SEIHIN
 62
     2
100
AcDbCircle
 10
319.4433482290619
 20
520.5160194736562
 30
0.0
 40
4.000299846146333
  0
CIRCLE
  5
6E5C
330
1A
100
AcDbEntity
  8
SEIHIN
100
AcDbCircle
 10
319.4433482290619
 20
520.5160194736562
 30
0.0
 40
5.000299846146333
  0
ARC
  5
6E5D
330
1A
100
AcDbEntity
  8
SEIHIN
100
AcDbCircle
 10
321.4433482290619
 20
520.5160194736562
 30
0.0
 40
9.0
100
AcDbArc
 50
270.0
 51
90.0
  0
LINE
  5
6E5E
330
1A
100
AcDbEntity
  8
SEIHIN
100
AcDbLine
 10
329.4436480752083
 20
520.516019473656
 30
0.0
 11
324.4434981521353
 21
529.1765331858804
 31
0.0
  0
ARC
  5
6E5F
330
1A
100
AcDbEntity
  8
SEIHIN
100
AcDbCircle
 10
317.4433482290619
 20
520.5160194736562
 30
0.0
 40
9.0
100
AcDbArc
 50
90.0
 51
270.0
  0
ARC
  5
6E60
330
1A
100
AcDbEntity
  8
SEIHIN
100
AcDbCircle
 10
315.4433482290619
 20
520.5160194736562
 30
0.0
 40
11.0
100
AcDbArc
 50
90.0
 51
270.0
  0
LINE
  5
6E61
330
1A
100
AcDbEntity
  8
SEIHIN
100
AcDbLine
 10
314.4431983059889
 20
529.1765331858804
 30
0.0
 11
309.4430483829157
 21
520.5160194736562
 31
0.0
  0
LINE
  5
6E62
330
1A
100
AcDbEntity
  8
SEIHIN
100
AcDbLine
 10
314.4431983059887
 20
511.8555057614318
 30
0.0
 11
324.4434981521353
 21
511.8555057614318
 31
0.0
  0
LINE
  5
6E63
330
1A
100
AcDbEntity
  8
SEIHIN
100
AcDbLine
 10
299.4433482291447
 20
513.2660194736562
 30
0.0
 11
299.4433482292665
 21
500.5160194736562
 31
0.0
  0
LINE
  5
6E64
330
1A
100
AcDbEntity
  8
SEIHIN
100
AcDbLine
 10
309.4433482291447
 20
513.2660194736562
 30
0.0
 11
309.4433482292665
 21
500.5160194736562
 31
0.0
  0
LINE
  5
6E65
330
1A
100
AcDbEntity
  8
SEIHIN
100
AcDbLine
 10
304.4433482291446
 20
505.5160194736562
 30
0.0
 11
304.4433482292665
 21
500.5160194736562
 31
0.0
  0
LINE
  5
6E66
330
1A
100
AcDbEntity
  8
SEIHIN
100
AcDbLine
 10
314.4433482291447
 20
505.5160194736562
 30
0.0
 11
314.4433482292665
 21
500.5160194736562
 31
0.0
  0
LINE
  5
6E67
330
1A
100
AcDbEntity
  8
SEIHIN
100
AcDbLine
 10
309.4430483829157
 20
520.5160194736562
 30
0.0
 11
314.4431983059887
 21
511.8555057614318
 31
0.0
  0
LINE
  5
6E68
330
1A
100
AcDbEntity
  8
SEIHIN
100
AcDbLine
 10
319.4433482291447
 20
513.2660194736562
 30
0.0
 11
319.4433482292665
 21
503.2160194736561
 31
0.0
  0
LINE
  5
6E69
330
1A
100
AcDbEntity
  8
SEIHIN
100
AcDbLine
 10
329.4433482291446
 20
513.2660194736562
 30
0.0
 11
329.4433482292665
 21
500.5160194736562
 31
0.0
  0
LINE
  5
6E6A
330
1A
100
AcDbEntity
  8
SEIHIN
100
AcDbLine
 10
315.4433482290619
 20
509.5160194736562
 30
0.0
 11
323.4433482290619
 21
509.5160194736562
 31
0.0
  0
LINE
  5
6E6B
330
1A
100
AcDbEntity
  8
SEIHIN
100
AcDbLine
 10
317.8845025023447
 20
500.5160194736562
 30
0.0
 11
321.0021939558073
 21
500.5160194736562
 31
0.0
  0
LINE
  5
6E6C
330
1A
100
AcDbEntity
  8
SEIHIN
100
AcDbLine
 10
319.4433482291447
 20
503.2160194736561
 30
0.0
 11
321.0021939558073
 21
500.5160194736562
 31
0.0
  0
LINE
  5
6E6D
330
1A
100
AcDbEntity
  8
SEIHIN
100
AcDbLine
 10
319.4433482291447
 20
503.2160194736561
 30
0.0
 11
317.884502502261
 21
500.5160194736562
 31
0.0
  0
LINE
  5
6E6E
330
1A
100
AcDbEntity
  8
SEIHIN
100
AcDbLine
 10
324.4433482291447
 20
505.5160194736562
 30
0.0
 11
324.4433482292665
 21
500.5160194736562
 31
0.0
  0
LINE
  5
6E6F
330
1A
100
AcDbEntity
  8
SEIHIN
100
AcDbLine
 10
317.4433482290619
 20
511.5160194736562
 30
0.0
 11
321.4433482290619
 21
511.5160194736562
 31
0.0
  0
LINE
  5
6E70
330
1A
100
AcDbEntity
  8
SEIHIN
100
AcDbLine
 10
324.4434981521353
 20
511.8555057614318
 30
0.0
 11
329.4436480752083
 21
520.516019473656
 31
0.0
  0
LINE
  5
6E71
330
1A
100
AcDbEntity
  8
SEIHIN
100
AcDbLine
 10
324.4434981521353
 20
529.1765331858804
 30
0.0
 11
314.4431983059889
 21
529.1765331858804
 31
0.0
  0
LINE
  5
6E72
330
1A
100
AcDbEntity
  8
SEIHIN
100
AcDbLine
 10
315.4433482290619
 20
531.5160194736562
 30
0.0
 11
323.4433482290619
 21
531.5160194736562
 31
0.0
  0
LINE
  5
6E73
330
1A
100
AcDbEntity
  8
SEIHIN
100
AcDbLine
 10
317.4433482290619
 20
529.5160194736562
 30
0.0
 11
321.4433482290619
 21
529.5160194736562
 31
0.0
  0
ARC
  5
6E74
330
1A
100
AcDbEntity
  8
SEIHIN
100
AcDbCircle
 10
351.1933482291447
 20
520.5160194736562
 30
0.0
 40
5.25
100
AcDbArc
 50
269.9999966150968
 51
89.99999332601769
  0
LINE
  5
6E75
330
1A
100
AcDbEntity
  8
CENTER L
 48
5.0
100
AcDbLine
 10
351.1933482291381
 20
530.7660194736562
 30
0.0
 11
351.193348229151
 21
510.2660194736562
 31
0.0
  0
LINE
  5
6E76
330
1A
100
AcDbEntity
  8
SEIHIN
100
AcDbLine
 10
333.1096556936524
 20
515.2660194736562
 30
0.0
 11
351.1933479189037
 21
515.2660194736562
 31
0.0
  0
LINE
  5
6E77
330
1A
100
AcDbEntity
  8
SEIHIN
100
AcDbLine
 10
339.4433482291447
 20
513.2660194736562
 30
0.0
 11
339.4433482292665
 21
500.5160194736562
 31
0.0
  0
LINE
  5
6E78
330
1A
100
AcDbEntity
  8
SEIHIN
100
AcDbLine
 10
334.4433482291447
 20
505.5160194736562
 30
0.0
 11
334.4433482292665
 21
500.5160194736562
 31
0.0
  0
LINE
  5
6E79
330
1A
100
AcDbEntity
  8
SEIHIN
100
AcDbLine
 10
344.4433482291447
 20
500.5160194736562
 30
0.0
 11
344.4433482292665
 21
505.5160194736562
 31
0.0
  0
LINE
  5
6E7A
330
1A
100
AcDbEntity
  8
SEIHIN
100
AcDbLine
 10
349.4433482291447
 20
513.2660194736562
 30
0.0
 11
349.4433482292665
 21
500.5160194736562
 31
0.0
  0
LINE
  5
6E7B
330
1A
100
AcDbEntity
  8
SEIHIN
100
AcDbLine
 10
333.1096556936524
 20
525.7660194736562
 30
0.0
 11
351.1933488409129
 21
525.7660194736562
 31
0.0
  0
CIRCLE
  5
6E7C
330
1A
100
AcDbEntity
  8
SEIHIN
100
AcDbCircle
 10
392.443348229089
 20
520.5160194736562
 30
0.0
 40
3.0
  0
LINE
  5
6E7D
330
1A
100
AcDbEntity
  8
SEIHIN
100
AcDbLine
 10
417.8882566389233
 20
511.2160194736561
 30
0.0
 11
417.8882566387583
 21
529.8160194736563
 31
0.0
  0
LINE
  5
6E7E
330
1A
100
AcDbEntity
  8
SEIHIN
100
AcDbLine
 10
405.7162862178445
 20
511.2160194736561
 30
0.0
 11
405.737510870546
 21
529.8160194736563
 31
0.0
  0
LINE
  5
6E7F
330
1A
100
AcDbEntity
  8
SEIHIN
100
AcDbLine
 10
407.7001251324291
 20
501.5160194736562
 30
0.0
 11
407.7001251324291
 21
507.2160194736561
 31
0.0
  0
LINE
  5
6E80
330
1A
100
AcDbEntity
  8
SEIHIN
100
AcDbLine
 10
403.764574606391
 20
516.5160194736562
 30
0.0
 11
407.0484284421991
 21
516.5160194736562
 31
0.0
  0
LINE
  5
6E81
330
1A
100
AcDbEntity
  8
SEIHIN
100
AcDbLine
 10
407.0484284425438
 20
512.5160194736562
 30
0.0
 11
403.7645746060745
 21
512.5160194736562
 31
0.0
  0
LINE
  5
6E82
330
1A
100
AcDbEntity
  8
SEIHIN
100
AcDbLine
 10
407.0484284425438
 20
514.5160194736562
 30
0.0
 11
403.7645746060745
 21
514.5160194736562
 31
0.0
  0
LINE
  5
6E83
330
1A
100
AcDbEntity
  8
SEIHIN
100
AcDbLine
 10
403.764574606391
 20
512.5160194736562
 30
0.0
 11
403.7645746060745
 21
516.5160194736562
 31
0.0
  0
LINE
  5
6E84
330
1A
100
AcDbEntity
  8
SEIHIN
100
AcDbLine
 10
407.0484284425438
 20
512.5160194736562
 30
0.0
 11
407.0484284421991
 21
516.5160194736562
 31
0.0
  0
LINE
  5
6E85
330
1A
100
AcDbEntity
  8
SEIHIN
100
AcDbLine
 10
418.9231052983506
 20
501.5160194736563
 30
0.0
 11
418.9231052983506
 21
507.2160194736561
 31
0.0
  0
LINE
  5
6E86
330
1A
100
AcDbEntity
  8
SEIHIN
100
AcDbLine
 10
407.0484284425438
 20
528.5160194736562
 30
0.0
 11
403.7645746060745
 21
528.5160194736562
 31
0.0
  0
LINE
  5
6E87
330
1A
100
AcDbEntity
  8
SEIHIN
100
AcDbLine
 10
407.0484284425438
 20
526.5160194736562
 30
0.0
 11
403.7645746060745
 21
526.5160194736562
 31
0.0
  0
LINE
  5
6E88
330
1A
100
AcDbEntity
  8
SEIHIN
100
AcDbLine
 10
407.0484284425438
 20
524.5160194736562
 30
0.0
 11
403.7645746060745
 21
524.5160194736562
 31
0.0
  0
LINE
  5
6E89
330
1A
100
AcDbEntity
  8
SEIHIN
100
AcDbLine
 10
403.764574606391
 20
524.5160194736562
 30
0.0
 11
403.7645746060745
 21
528.5160194736562
 31
0.0
  0
LINE
  5
6E8A
330
1A
100
AcDbEntity
  8
SEIHIN
100
AcDbLine
 10
407.0484284425438
 20
524.5160194736562
 30
0.0
 11
407.0484284421991
 21
528.5160194736562
 31
0.0
  0
LINE
  5
6E8B
330
1A
100
AcDbEntity
  8
SEIHIN
100
AcDbLine
 10
407.7001251324291
 20
533.8160194736563
 30
0.0
 11
407.7001251324288
 21
539.5160194736562
 31
0.0
  0
LINE
  5
6E8C
330
1A
100
AcDbEntity
  8
SEIHIN
100
AcDbLine
 10
418.9231052983506
 20
533.8160194736563
 30
0.0
 11
418.9231052983505
 21
539.5160194736562
 31
0.0
  0
LINE
  5
6E8D
330
1A
100
AcDbEntity
  8
SEIHIN
100
AcDbLine
 10
684.0206387750111
 20
358.3634236198826
 30
0.0
 11
684.0206387750111
 21
281.9934686252826
 31
0.0
  0
LINE
  5
6E8E
330
1A
100
AcDbEntity
  8
SEIHIN
100
AcDbLine
 10
685.0206387750111
 20
358.3634236198826
 30
0.0
 11
685.0206387750111
 21
281.9934686252826
 31
0.0
  0
LINE
  5
6E8F
330
1A
100
AcDbEntity
  8
SEIHIN
100
AcDbLine
 10
676.0206387750111
 20
358.3634236198826
 30
0.0
 11
676.0206387750111
 21
281.9934686252826
 31
0.0
  0
LINE
  5
6E90
330
1A
100
AcDbEntity
  8
SEIHIN
100
AcDbLine
 10
675.0206387750111
 20
358.3634236198826
 30
0.0
 11
675.0206387750111
 21
281.9934686252826
 31
0.0
  0
LINE
  5
6E91
330
1A
100
AcDbEntity
  8
CENTER L
 48
5.0
100
AcDbLine
 10
680.0206387750111
 20
182.7843786198826
 30
0.0
 11
680.0206387750111
 21
408.5256125784959
 31
0.0
  0
ARC
  5
6E92
330
1A
100
AcDbEntity
  8
SEIHIN
100
AcDbCircle
 10
689.5048819692899
 20
303.2032961978029
 30
0.0
 40
3.0
100
AcDbArc
 50
17.45760312370011
 51
90.00000000271624
  0
ARC
  5
6E93
330
1A
100
AcDbEntity
  8
SEIHIN
100
AcDbCircle
 10
689.5048819692342
 20
278.9934686252826
 30
0.0
 40
3.0
100
AcDbArc
 50
17.45760312370011
 51
90.00000000271624
  0
ARC
  5
6E94
330
1A
100
AcDbEntity
  8
SEIHIN
100
AcDbCircle
 10
693.3206387748769
 20
244.4843786198825
 30
0.0
 40
3.0
100
AcDbArc
 50
180.0
 51
269.9999999986321
  0
LINE
  5
6E95
330
1A
100
AcDbEntity
  8
SEIHIN
100
AcDbLine
 10
660.0206387750763
 20
244.7843786198825
 30
0.0
 11
700.0206387751273
 21
244.7843786198825
 31
0.0
  0
DIMENSION
  5
6E96
330
1A
100
AcDbEntity
  8
SUNPOU
100
AcDbDimension
  2
*D12
 10
700.0206387752248
 20
164.3089540800505
 30
0.0
 11
680.0206387750509
 21
169.3089540800505
 31
0.0
 70
    32
 71
     5
 42
-1.0
  3
STANDARD
100
AcDbAlignedDimension
 13
660.0206387748769
 23
241.4843786198825
 33
0.0
 14
700.0206387752248
 24
241.4843786198825
 34
0.0
100
AcDbRotatedDimension
1001
ACAD
1000
DSTYLE
1002
{
1070
    41
1040
7.0
1070
    42
1040
6.0
1070
    43
1040
14.0
1070
    44
1040
3.0
1070
    73
1070
     0
1070
    74
1070
     0
1070
    77
1070
     3
1070
   140
1040
6.0
1070
   141
1040
150.0
1070
   147
1040
2.0
1070
   172
1070
     1
1070
   173
1070
     1
1070
   176
1070
   256
1070
   177
1070
   256
1070
   178
1070
   256
1070
   271
1070
     0
1070
   272
1070
     0
1070
   341
1005
6D
1070
     6
1000
OPEN
1070
     7
1000
OPEN
1070
   371
1070
    -1
1070
   372
1070
    -1
1002
}
  0
TEXT
  5
6E98
330
1A
100
AcDbEntity
  8
moji
100
AcDbText
 10
471.9614725678964
 20
25.29167614142704
 30
0.0
 40
5.599999999999999
  1
ＬＪ３８
 41
0.9
  7
ｽﾀｲﾙ1
100
AcDbText
  0
LINE
  5
6E99
330
1A
100
AcDbEntity
  8
SEIHIN
100
AcDbLine
 10
451.6570911865939
 20
71.34649092730581
 30
0.0
 11
451.6570911866231
 21
78.54649092730586
 31
0.0
  0
ARC
  5
6E9A
330
1A
100
AcDbEntity
  8
SEIHIN
100
AcDbCircle
 10
440.657091186594
 20
73.34649092730581
 30
0.0
 40
2.0
100
AcDbArc
 50
180.0
 51
269.9999916164967
  0
LINE
  5
6E9B
330
1A
100
AcDbEntity
  8
SEIHIN
100
AcDbLine
 10
440.657090893794
 20
71.34649092730581
 30
0.0
 11
451.6570911863903
 21
71.34649092730581
 31
0.0
  0
LINE
  5
6E9C
330
1A
100
AcDbEntity
  8
SEIHIN
100
AcDbLine
 10
438.6570911865939
 20
101.3464909273058
 30
0.0
 11
438.6570911863907
 21
81.34649092730581
 31
0.0
  0
LINE
  5
6E9D
330
1A
100
AcDbEntity
  8
SEIHIN
100
AcDbLine
 10
439.857091186594
 20
101.3464909273058
 30
0.0
 11
439.8570911863434
 21
81.34649092730581
 31
0.0
  0
LINE
  5
6E9E
330
1A
100
AcDbEntity
  8
SEIHIN
100
AcDbLine
 10
453.4570911865942
 20
80.3464909273058
 30
0.0
 11
453.4570911864368
 21
102.3464909273058
 31
0.0
  0
ARC
  5
6E9F
330
1A
100
AcDbEntity
  8
SEIHIN
100
AcDbCircle
 10
439.8570911865006
 20
80.04649092730586
 30
0.0
 40
1.30000000000001
100
AcDbArc
 50
270.0
 51
90.00000001715731
  0
LINE
  5
6EA0
330
1A
100
AcDbEntity
  8
SEIHIN
100
AcDbLine
 10
438.6570911863907
 20
81.34649092730581
 30
0.0
 11
439.8570911861113
 21
81.34649092730581
 31
0.0
  0
LINE
  5
6EA1
330
1A
100
AcDbEntity
  8
SEIHIN
100
AcDbLine
 10
439.8570911865006
 20
78.7464909273059
 30
0.0
 11
439.1570911861577
 21
78.7464909273059
 31
0.0
  0
LINE
  5
6EA2
330
1A
100
AcDbEntity
  8
SEIHIN
100
AcDbLine
 10
438.6570911865939
 20
78.2464909273059
 30
0.0
 11
438.6570911863907
 21
73.34649092730581
 31
0.0
  0
ARC
  5
6EA3
330
1A
100
AcDbEntity
  8
SEIHIN
100
AcDbCircle
 10
439.157091186446
 20
78.2464909273059
 30
0.0
 40
0.5
100
AcDbArc
 50
90.00000003303787
 51
180.0
  0
LINE
  5
6EA4
330
1A
100
AcDbEntity
  8
SEIHIN
100
AcDbLine
 10
449.474507614894
 20
79.04649092730585
 30
0.0
 11
452.1570911866231
 21
79.04649092730585
 31
0.0
  0
ARC
  5
6EA5
330
1A
100
AcDbEntity
  8
SEIHIN
100
AcDbCircle
 10
452.157091186594
 20
78.54649092730586
 30
0.0
 40
0.5
100
AcDbArc
 50
90.0
 51
180.0
  0
ARC
  5
6EA6
330
1A
100
AcDbEntity
  8
SEIHIN
100
AcDbCircle
 10
452.157091186594
 20
80.3464909273058
 30
0.0
 40
1.3
100
AcDbArc
 50
270.0
 51
0.0
  0
LINE
  5
6EA7
330
1A
100
AcDbEntity
  8
SEIHIN
100
AcDbLine
 10
440.657091186594
 20
111.3464909273058
 30
0.0
 11
451.6570911863903
 21
111.3464909273058
 31
0.0
  0
LINE
  5
6EA8
330
1A
100
AcDbEntity
  8
SEIHIN
100
AcDbLine
 10
438.6570911865939
 20
104.4464909273058
 30
0.0
 11
438.6570911863907
 21
109.3464909273058
 31
0.0
  0
ARC
  5
6EA9
330
1A
100
AcDbEntity
  8
SEIHIN
100
AcDbCircle
 10
439.8570911865006
 20
102.6464909273058
 30
0.0
 40
1.30000000000001
100
AcDbArc
 50
270.0
 51
90.00000001715731
  0
LINE
  5
6EAA
330
1A
100
AcDbEntity
  8
SEIHIN
100
AcDbLine
 10
439.8570911865006
 20
101.3464909273058
 30
0.0
 11
438.6570911863907
 21
101.3464909273058
 31
0.0
  0
LINE
  5
6EAB
330
1A
100
AcDbEntity
  8
SEIHIN
100
AcDbLine
 10
439.8570911865006
 20
103.9464909273058
 30
0.0
 11
439.1570911861577
 21
103.9464909273058
 31
0.0
  0
ARC
  5
6EAC
330
1A
100
AcDbEntity
  8
SEIHIN
100
AcDbCircle
 10
439.157091186446
 20
104.4464909273058
 30
0.0
 40
0.5
100
AcDbArc
 50
180.0
 51
269.9999999669621
  0
ARC
  5
6EAD
330
1A
100
AcDbEntity
  8
SEIHIN
100
AcDbCircle
 10
440.657091186594
 20
109.3464909273058
 30
0.0
 40
2.0
100
AcDbArc
 50
90.00001063699619
 51
180.0
  0
LINE
  5
6EAE
330
1A
100
AcDbEntity
  8
SEIHIN
100
AcDbLine
 10
451.6570911865939
 20
111.3464909273058
 30
0.0
 11
451.6570911866231
 21
104.1464909273058
 31
0.0
  0
LINE
  5
6EAF
330
1A
100
AcDbEntity
  8
SEIHIN
100
AcDbLine
 10
452.157091186594
 20
103.6464909273058
 30
0.0
 11
449.4745076147458
 21
103.6464909273058
 31
0.0
  0
ARC
  5
6EB0
330
1A
100
AcDbEntity
  8
SEIHIN
100
AcDbCircle
 10
452.157091186594
 20
102.3464909273058
 30
0.0
 40
1.3
100
AcDbArc
 50
0.0
 51
89.99999999871679
  0
ARC
  5
6EB1
330
1A
100
AcDbEntity
  8
SEIHIN
100
AcDbCircle
 10
452.157091186594
 20
104.1464909273058
 30
0.0
 40
0.5
100
AcDbArc
 50
180.0
 51
270.000000003335
  0
LINE
  5
6EB5
330
1A
100
AcDbEntity
  8
SEIHIN
100
AcDbLine
 10
438.0433482291445
 20
245.5843786198826
 30
0.0
 11
438.043348228894
 21
189.7843786198825
 31
0.0
  0
LINE
  5
6EB6
330
1A
100
AcDbEntity
  8
SEIHIN
100
AcDbLine
 10
436.8433482291445
 20
246.7843786198825
 30
0.0
 11
436.8433482289413
 21
189.7843786198825
 31
0.0
  0
DIMENSION
  5
6EB7
330
1A
100
AcDbEntity
  8
SUNPOU
100
AcDbDimension
  2
*D13
 10
488.709298917882
 20
189.7843786198825
 30
0.0
 11
483.7092989178819
 21
217.6843786198826
 31
0.0
 70
    32
 71
     5
 42
-1.0
  3
STANDARD
100
AcDbAlignedDimension
 13
447.6433482289873
 23
245.5843786198825
 33
0.0
 14
438.043348228894
 24
189.7843786198825
 34
0.0
 50
90.0
100
AcDbRotatedDimension
1001
ACAD
1000
DSTYLE
1002
{
1070
    41
1040
7.0
1070
    42
1040
6.0
1070
    43
1040
14.0
1070
    44
1040
3.0
1070
    73
1070
     0
1070
    74
1070
     0
1070
    77
1070
     3
1070
   140
1040
6.0
1070
   141
1040
150.0
1070
   147
1040
2.0
1070
   172
1070
     1
1070
   173
1070
     1
1070
   176
1070
   256
1070
   177
1070
   256
1070
   178
1070
   256
1070
   271
1070
     0
1070
   272
1070
     0
1070
   341
1005
6D
1070
     6
1000
OPEN
1070
     7
1000
OPEN
1070
   371
1070
    -1
1070
   372
1070
    -1
1002
}
  0
LINE
  5
6EB8
330
1A
100
AcDbEntity
  8
SEIHIN
100
AcDbLine
 10
438.0433482291445
 20
189.7843786198825
 30
0.0
 11
436.8433482289413
 21
189.7843786198825
 31
0.0
  0
LINE
  5
6EB9
330
1A
100
AcDbEntity
  8
NOKITOI
  6
PHANTOM
 48
5.0
100
AcDbLine
 10
437.9426624607938
 20
269.6843786198825
 30
0.0
 11
435.3973446607936
 21
248.8843786198825
 31
0.0
  0
LINE
  5
6EBA
330
1A
100
AcDbEntity
  8
NOKITOI
  6
PHANTOM
 48
5.0
100
AcDbLine
 10
445.9839767607934
 20
267.6843786198825
 30
0.0
 11
445.9839767607934
 21
248.8843786198825
 31
0.0
  0
LINE
  5
6EBB
330
1A
100
AcDbEntity
  8
NOKITOI
  6
PHANTOM
 48
5.0
100
AcDbLine
 10
446.2839767607936
 20
267.6843786198825
 30
0.0
 11
446.2839767607936
 21
248.5843786198825
 31
0.0
  0
LINE
  5
6EBC
330
1A
100
AcDbEntity
  8
NOKITOI
  6
PHANTOM
 48
5.0
100
AcDbLine
 10
448.0839767607938
 20
269.7843786198825
 30
0.0
 11
448.0839767607938
 21
246.7843786198825
 31
0.0
  0
LINE
  5
6EBD
330
1A
100
AcDbEntity
  8
SEIHIN
100
AcDbLine
 10
448.6433482291447
 20
247.7843786198825
 30
0.0
 11
448.6433482292202
 21
275.3340093970825
 31
0.0
  0
LINE
  5
6EBE
330
1A
100
AcDbEntity
  8
SEIHIN
100
AcDbLine
 10
449.8433482291445
 20
247.7843786198825
 30
0.0
 11
449.8433482289408
 21
275.3340094599774
 31
0.0
  0
LINE
  5
6EBF
330
1A
100
AcDbEntity
  8
SEIHIN
100
AcDbLine
 10
451.6433482293485
 20
249.5843786199071
 30
0.0
 11
451.6433482291843
 21
276.2032961978319
 31
0.0
  0
DIMENSION
  5
6EC0
330
1A
100
AcDbEntity
  8
SUNPOU
100
AcDbDimension
  2
*D14
 10
488.709298917882
 20
245.5843786199437
 30
0.0
 11
483.7092989178819
 21
263.3938374088725
 31
0.0
 70
    32
 71
     5
 42
-1.0
  3
STANDARD
100
AcDbAlignedDimension
 13
446.6433482291843
 23
281.2032961978012
 33
0.0
 14
447.6433646444798
 24
245.5843786199437
 34
0.0
 50
90.0
100
AcDbRotatedDimension
1001
ACAD
1000
DSTYLE
1002
{
1070
    41
1040
7.0
1070
    42
1040
6.0
1070
    43
1040
14.0
1070
    44
1040
3.0
1070
    73
1070
     0
1070
    74
1070
     0
1070
    77
1070
     3
1070
   140
1040
6.0
1070
   141
1040
150.0
1070
   147
1040
2.0
1070
   172
1070
     1
1070
   173
1070
     1
1070
   176
1070
   256
1070
   177
1070
   256
1070
   178
1070
   256
1070
   271
1070
     0
1070
   272
1070
     0
1070
   341
1005
6D
1070
     6
1000
OPEN
1070
     7
1000
OPEN
1070
   371
1070
    -1
1070
   372
1070
    -1
1002
}
  0
LINE
  5
6EC1
330
1A
100
AcDbEntity
  8
SEIHIN
100
AcDbLine
 10
436.8433482291445
 20
246.7843786198825
 30
0.0
 11
436.8433482289413
 21
232.1829397835825
 31
0.0
  0
LINE
  5
6EC2
330
1A
100
AcDbEntity
  8
NOKITOI
  6
PHANTOM
 48
5.0
100
AcDbLine
 10
446.2839767607936
 20
248.5843786198825
 30
0.0
 11
434.302800764178
 21
248.5843786198825
 31
0.0
  0
LINE
  5
6EC3
330
1A
100
AcDbEntity
  8
NOKITOI
  6
PHANTOM
 48
5.0
100
AcDbLine
 10
448.0839767607938
 20
246.7843786198825
 30
0.0
 11
435.1403653607937
 21
246.7843786198825
 31
0.0
  0
LINE
  5
6EC4
330
1A
100
AcDbEntity
  8
SEIHIN
100
AcDbLine
 10
447.6433482293485
 20
245.5843786198826
 30
0.0
 11
436.8433482289413
 21
245.5843786198826
 31
0.0
  0
LINE
  5
6EC5
330
1A
100
AcDbEntity
  8
SEIHIN
100
AcDbLine
 10
447.6433482291447
 20
246.7843786198825
 30
0.0
 11
436.8433482289413
 21
246.7843786198825
 31
0.0
  0
LINE
  5
6EC6
330
1A
100
AcDbEntity
  8
NOKITOI
  6
PHANTOM
 48
5.0
100
AcDbLine
 10
445.9839767607934
 20
248.8843786198825
 30
0.0
 11
435.3973446607936
 21
248.8843786198825
 31
0.0
  0
ARC
  5
6EC8
330
1A
100
AcDbEntity
  8
SEIHIN
100
AcDbCircle
 10
447.6433482291447
 20
247.7843786198825
 30
0.0
 40
2.2
100
AcDbArc
 50
269.9999999959028
 51
0.0
  0
ARC
  5
6EC9
330
1A
100
AcDbEntity
  8
SEIHIN
100
AcDbCircle
 10
447.6433482291447
 20
247.7843786198825
 30
0.0
 40
1.0
100
AcDbArc
 50
270.0
 51
0.0
  0
ARC
  5
6ECA
330
1A
100
AcDbEntity
  8
SEIHIN
100
AcDbCircle
 10
447.6433482293485
 20
249.5843786198826
 30
0.0
 40
4.0
100
AcDbArc
 50
270.0
 51
0.0000000003517439
  0
ARC
  5
6ECB
330
1A
100
AcDbEntity
  8
NOKITOI
  6
PHANTOM
 48
5.0
100
AcDbCircle
 10
443.9839767607934
 20
267.6843786198825
 30
0.0
 40
2.0
100
AcDbArc
 50
0.0
 51
90.0
  0
ARC
  5
6ECC
330
1A
100
AcDbEntity
  8
NOKITOI
  6
PHANTOM
 48
5.0
100
AcDbCircle
 10
443.9839767607934
 20
267.6843786198825
 30
0.0
 40
2.299999999999999
100
AcDbArc
 50
0.0
 51
90.0
  0
ARC
  5
6ECD
330
1A
100
AcDbEntity
  8
NOKITOI
  6
PHANTOM
 48
5.0
100
AcDbCircle
 10
446.0839767607938
 20
269.7843786198825
 30
0.0
 40
2.0
100
AcDbArc
 50
0.0
 51
90.0
  0
ARC
  5
6ECE
330
1A
100
AcDbEntity
  8
SEIHIN
100
AcDbCircle
 10
446.6433482291843
 20
276.2032961978012
 30
0.0
 40
5.0
100
AcDbArc
 50
0.0000000003517439
 51
97.99999999985608
  0
LINE
  5
6ECF
330
1A
100
AcDbEntity
  8
NOKITOI
  6
PHANTOM
 48
5.0
100
AcDbLine
 10
446.0839767607938
 20
271.7843786198825
 30
0.0
 11
436.0839767607938
 21
271.7843786198825
 31
0.0
  0
LINE
  5
6ED0
330
1A
100
AcDbEntity
  8
NOKITOI
  6
PHANTOM
 48
5.0
100
AcDbLine
 10
443.9839767607934
 20
269.6843786198825
 30
0.0
 11
437.9426624607938
 21
269.6843786198825
 31
0.0
  0
LINE
  5
6ED1
330
1A
100
AcDbEntity
  8
NOKITOI
  6
PHANTOM
 48
5.0
100
AcDbLine
 10
443.9839767607934
 20
269.9843786198826
 30
0.0
 11
437.9426624607938
 21
269.9843786198826
 31
0.0
  0
ARC
  5
6ED2
330
1A
100
AcDbEntity
  8
SEIHIN
100
AcDbCircle
 10
447.6433482291447
 20
275.3340094599774
 30
0.0
 40
2.2
100
AcDbArc
 50
0.0
 51
97.99999999986264
  0
ARC
  5
6ED3
330
1A
100
AcDbEntity
  8
SEIHIN
100
AcDbCircle
 10
447.6433482291447
 20
275.3340094599825
 30
0.0
 40
1.0
100
AcDbArc
 50
359.9999963934004
 51
97.99998425941401
  0
LINE
  5
6ED4
330
1A
100
AcDbEntity
  8
SEIHIN
100
AcDbLine
 10
690.0206387751018
 20
244.7843786198825
 30
0.0
 11
690.0206387749204
 21
191.7843786198826
 31
0.0
  0
LINE
  5
6ED5
330
1A
100
AcDbEntity
  8
SEIHIN
100
AcDbLine
 10
670.0206387751018
 20
244.7843786198825
 30
0.0
 11
670.0206387749203
 21
191.7843786198826
 31
0.0
  0
LINE
  5
6ED6
330
1A
100
AcDbEntity
  8
SEIHIN
100
AcDbLine
 10
672.0206387751018
 20
189.7843786198825
 30
0.0
 11
688.0206387749203
 21
189.7843786198825
 31
0.0
  0
ARC
  5
6ED7
330
1A
100
AcDbEntity
  8
SEIHIN
100
AcDbCircle
 10
672.0206387751018
 20
191.7843786198826
 30
0.0
 40
2.0
100
AcDbArc
 50
180.0
 51
269.9999999948019
  0
ARC
  5
6ED8
330
1A
100
AcDbEntity
  8
SEIHIN
100
AcDbCircle
 10
688.0206387751018
 20
191.7843786198826
 30
0.0
 40
2.0
100
AcDbArc
 50
270.0
 51
0.0
  0
LINE
  5
6ED9
330
1A
100
AcDbEntity
  8
SEIHIN
100
AcDbLine
 10
667.7206387750766
 20
246.2881841565825
 30
0.0
 11
667.7206387750807
 21
276.7716229530826
 31
0.0
  0
LINE
  5
6EDA
330
1A
100
AcDbEntity
  8
SEIHIN
100
AcDbLine
 10
692.3206387750765
 20
246.2881841565825
 30
0.0
 11
692.3206387749409
 21
276.7716229530826
 31
0.0
  0
LINE
  5
6EDB
330
1A
100
AcDbEntity
  8
SEIHIN
100
AcDbLine
 10
660.0206387751689
 20
278.1934686252826
 30
0.0
 11
660.0206387749697
 21
241.4843786198825
 31
0.0
  0
ARC
  5
6EDC
330
1A
100
AcDbEntity
  8
SEIHIN
100
AcDbCircle
 10
666.720638774877
 20
244.4843786198825
 30
0.0
 40
3.0
100
AcDbArc
 50
270.0
 51
0.0
  0
LINE
  5
6EDD
330
1A
100
AcDbEntity
  8
SEIHIN
100
AcDbLine
 10
660.0206387748769
 20
241.4843786198825
 30
0.0
 11
666.720638774877
 21
241.4843786198825
 31
0.0
  0
LINE
  5
6EDE
330
1A
100
AcDbEntity
  8
SEIHIN
100
AcDbLine
 10
692.320638775082
 20
281.8345095630944
 30
0.0
 11
692.3206387749967
 21
300.981450525603
 31
0.0
  0
LINE
  5
6EDF
330
1A
100
AcDbEntity
  8
SEIHIN
100
AcDbLine
 10
660.020638775132
 20
302.403296197803
 30
0.0
 11
660.0206387750006
 21
278.1934686252828
 31
0.0
  0
LINE
  5
6EE0
330
1A
100
AcDbEntity
  8
SEIHIN
100
AcDbLine
 10
667.7206387751336
 20
281.8345095635375
 30
0.0
 11
667.7206387751364
 21
300.981450525603
 31
0.0
  0
LINE
  5
6EE1
330
1A
100
AcDbEntity
  8
SEIHIN
100
AcDbLine
 10
670.5363955806765
 20
281.9934686252826
 30
0.0
 11
689.5048819692342
 21
281.9934686252826
 31
0.0
  0
ARC
  5
6EE2
330
1A
100
AcDbEntity
  8
SEIHIN
100
AcDbCircle
 10
666.7206387750766
 20
279.1934686252826
 30
0.0
 40
1.0
100
AcDbArc
 50
270.0
 51
306.2711984372599
  0
LINE
  5
6EE3
330
1A
100
AcDbEntity
  8
SEIHIN
100
AcDbLine
 10
667.7206387751323
 20
270.4980117291029
 30
0.0
 11
667.720638775133
 21
276.1524276870283
 31
0.0
  0
ARC
  5
6EE4
330
1A
100
AcDbEntity
  8
SEIHIN
100
AcDbCircle
 10
670.5363955805341
 20
278.9934686252826
 30
0.0
 40
3.0
100
AcDbArc
 50
90.0
 51
162.5423968764918
  0
LINE
  5
6EE5
330
1A
100
AcDbEntity
  8
SEIHIN
100
AcDbLine
 10
660.0206387750763
 20
278.1934686252826
 30
0.0
 11
666.7206387750807
 21
278.1934686252826
 31
0.0
  0
LINE
  5
6EE6
330
1A
100
AcDbEntity
  8
SEIHIN
100
AcDbLine
 10
667.67457797628
 20
279.8934686252719
 30
0.0
 11
667.3122467533742
 21
278.3872428504438
 31
0.0
  0
LINE
  5
6EE7
330
1A
100
AcDbEntity
  8
SEIHIN
100
AcDbLine
 10
692.3206387751322
 20
270.4980117291029
 30
0.0
 11
692.3206387751072
 21
276.1524276874957
 31
0.0
  0
ARC
  5
6EE8
330
1A
100
AcDbEntity
  8
SEIHIN
100
AcDbCircle
 10
670.5363955805899
 20
303.2032961978029
 30
0.0
 40
3.0
100
AcDbArc
 50
90.0
 51
162.5423968764918
  0
LINE
  5
6EE9
330
1A
100
AcDbEntity
  8
SEIHIN
100
AcDbLine
 10
660.020638775132
 20
302.403296197803
 30
0.0
 11
666.7206387751364
 21
302.403296197803
 31
0.0
  0
LINE
  5
6EEA
330
1A
100
AcDbEntity
  8
SEIHIN
100
AcDbLine
 10
667.6745779763357
 20
304.1032961977922
 30
0.0
 11
667.3122467534299
 21
302.5970704229641
 31
0.0
  0
ARC
  5
6EEB
330
1A
100
AcDbEntity
  8
SEIHIN
100
AcDbCircle
 10
666.7206387751323
 20
303.4032961978029
 30
0.0
 40
1.0
100
AcDbArc
 50
270.0
 51
306.2711984372599
  0
LINE
  5
6EEC
330
1A
100
AcDbEntity
  8
SEIHIN
100
AcDbLine
 10
670.5363955807322
 20
306.2032961978029
 30
0.0
 11
675.0206387750111
 21
306.2032961978029
 31
0.0
  0
LINE
  5
6EED
330
1A
100
AcDbEntity
  8
SEIHIN
100
AcDbLine
 10
685.0206387750111
 20
306.2032961978029
 30
0.0
 11
689.5048819692899
 21
306.2032961978029
 31
0.0
  0
LINE
  5
6EF3
330
1A
100
AcDbEntity
  8
SEIHIN
100
AcDbLine
 10
700.0206387751688
 20
278.1934686252826
 30
0.0
 11
700.0206387752248
 21
241.4843786198825
 31
0.0
  0
LINE
  5
6EF4
330
1A
100
AcDbEntity
  8
SEIHIN
100
AcDbLine
 10
693.3206387748769
 20
241.4843786198825
 30
0.0
 11
700.0206387749279
 21
241.4843786198825
 31
0.0
  0
LINE
  5
6EF5
330
1A
100
AcDbEntity
  8
SEIHIN
100
AcDbLine
 10
700.020638775132
 20
302.403296197803
 30
0.0
 11
700.0206387751688
 21
278.1934686252828
 31
0.0
  0
ARC
  5
6EF6
330
1A
100
AcDbEntity
  8
SEIHIN
100
AcDbCircle
 10
693.3206387750765
 20
279.1934686252826
 30
0.0
 40
1.0
100
AcDbArc
 50
233.7288015579573
 51
269.9999999922356
  0
LINE
  5
6EF7
330
1A
100
AcDbEntity
  8
SEIHIN
100
AcDbLine
 10
700.0206387750763
 20
278.1934686252826
 30
0.0
 11
693.320638774941
 21
278.1934686252826
 31
0.0
  0
LINE
  5
6EF8
330
1A
100
AcDbEntity
  8
SEIHIN
100
AcDbLine
 10
692.3666995734854
 20
279.8934686252814
 30
0.0
 11
692.7290307967118
 21
278.387242850493
 31
0.0
  0
ARC
  5
6EF9
330
1A
100
AcDbEntity
  8
SEIHIN
100
AcDbCircle
 10
693.3206387751322
 20
303.4032961978029
 30
0.0
 40
1.0
100
AcDbArc
 50
233.7288015579573
 51
269.9999999922356
  0
LINE
  5
6EFA
330
1A
100
AcDbEntity
  8
SEIHIN
100
AcDbLine
 10
692.3666995735411
 20
304.1032961978018
 30
0.0
 11
692.7290307967675
 21
302.5970704230134
 31
0.0
  0
LINE
  5
6EFB
330
1A
100
AcDbEntity
  8
SEIHIN
100
AcDbLine
 10
700.020638775132
 20
302.403296197803
 30
0.0
 11
693.3206387749967
 21
302.403296197803
 31
0.0
  0
LINE
  5
6EFC
330
1A
100
AcDbEntity
  8
SEIHIN
100
AcDbLine
 10
695.020967775011
 20
384.0627656198827
 30
0.0
 11
665.020967775011
 21
384.0637536198827
 31
0.0
  0
LINE
  5
6EFD
330
1A
100
AcDbEntity
  8
SEIHIN
100
AcDbLine
 10
695.020638775011
 20
374.0627656198827
 30
0.0
 11
665.020638775011
 21
374.0637536198827
 31
0.0
  0
ARC
  5
6EFE
330
1A
100
AcDbEntity
  8
SEIHIN
100
AcDbCircle
 10
684.350367940028
 20
364.0508965191874
 30
0.0
 40
5.687779919070464
100
AcDbArc
 50
220.4168415688911
 51
319.5793775127738
  0
ARC
  5
6EFF
330
1A
100
AcDbEntity
  8
SEIHIN
100
AcDbCircle
 10
675.6898542278307
 20
364.0511822705583
 30
0.0
 40
5.687779919070464
100
AcDbArc
 50
220.4168415688911
 51
319.5793775127738
  0
LINE
  5
6F00
330
1A
100
AcDbEntity
  8
SEIHIN
100
AcDbLine
 10
675.689666561029
 20
358.3634023545838
 30
0.0
 11
684.3501802732264
 21
358.3631166032129
 31
0.0
  0
LINE
  5
6F01
330
1A
100
AcDbEntity
  8
SEIHIN
100
AcDbLine
 10
665.020967775011
 20
384.0637536198827
 30
0.0
 11
665.020638775011
 21
374.0637536198827
 31
0.0
  0
LINE
  5
6F02
330
1A
100
AcDbEntity
  8
SEIHIN
100
AcDbLine
 10
688.6808984872625
 20
366.3629746889814
 30
0.0
 11
671.3598710627596
 21
366.3635445507839
 31
0.0
  0
LINE
  5
6F03
330
1A
100
AcDbEntity
  8
SEIHIN
100
AcDbLine
 10
691.020638775011
 20
368.8632596198826
 30
0.0
 11
669.0206387750111
 21
368.8632596198826
 31
0.0
  0
LINE
  5
6F04
330
1A
100
AcDbEntity
  8
SEIHIN
100
AcDbLine
 10
691.020638775011
 20
370.0632596198826
 30
0.0
 11
669.0206387750111
 21
370.0632596198826
 31
0.0
  0
LINE
  5
6F05
330
1A
100
AcDbEntity
  8
SEIHIN
100
AcDbLine
 10
675.0206387750111
 20
370.0632596198826
 30
0.0
 11
675.0206387750111
 21
374.0632596198826
 31
0.0
  0
LINE
  5
6F06
330
1A
100
AcDbEntity
  8
SEIHIN
100
AcDbLine
 10
669.0206387750111
 20
370.0632596198826
 30
0.0
 11
669.0206387750111
 21
368.8632596198826
 31
0.0
  0
LINE
  5
6F07
330
1A
100
AcDbEntity
  8
SEIHIN
100
AcDbLine
 10
671.3594756944255
 20
360.3635458777986
 30
0.0
 11
671.3598710627868
 21
366.3635449618215
 31
0.0
  0
LINE
  5
6F08
330
1A
100
AcDbEntity
  8
SEIHIN
100
AcDbLine
 10
671.0203627750113
 20
368.8637196201891
 30
0.0
 11
672.5203617750111
 21
366.3637196201891
 31
0.0
  0
LINE
  5
6F09
330
1A
100
AcDbEntity
  8
SEIHIN
100
AcDbLine
 10
684.0206387750111
 20
370.0632596198826
 30
0.0
 11
684.0206387750111
 21
374.0632596198826
 31
0.0
  0
LINE
  5
6F0A
330
1A
100
AcDbEntity
  8
SEIHIN
100
AcDbLine
 10
685.0206387750111
 20
370.0632596198826
 30
0.0
 11
685.0206387750111
 21
374.0632596198826
 31
0.0
  0
LINE
  5
6F0B
330
1A
100
AcDbEntity
  8
SEIHIN
100
AcDbLine
 10
676.0206387750111
 20
370.0632596198826
 30
0.0
 11
676.0206387750111
 21
374.0632596198826
 31
0.0
  0
LINE
  5
6F0C
330
1A
100
AcDbEntity
  8
SEIHIN
100
AcDbLine
 10
680.0199894066229
 20
360.3632601264278
 30
0.0
 11
680.020384775011
 21
366.3632596198825
 31
0.0
  0
LINE
  5
6F0D
330
1A
100
AcDbEntity
  8
SEIHIN
100
AcDbLine
 10
688.6805031188205
 20
360.3629743750574
 30
0.0
 11
688.6808984872357
 21
366.3629742795494
 31
0.0
  0
LINE
  5
6F0E
330
1A
100
AcDbEntity
  8
SEIHIN
100
AcDbLine
 10
691.020638775011
 20
370.0632596198826
 30
0.0
 11
691.020638775011
 21
368.8632596198826
 31
0.0
  0
LINE
  5
6F0F
330
1A
100
AcDbEntity
  8
SEIHIN
100
AcDbLine
 10
687.5206377750112
 20
366.3632596198826
 30
0.0
 11
689.0206387750111
 21
368.8632596198826
 31
0.0
  0
LINE
  5
6F10
330
1A
100
AcDbEntity
  8
SEIHIN
100
AcDbLine
 10
675.6904477189202
 20
395.763402253826
 30
0.0
 11
684.3509614311444
 21
395.763117322925
 31
0.0
  0
LINE
  5
6F11
330
1A
100
AcDbEntity
  8
SEIHIN
100
AcDbLine
 10
671.3601250627866
 20
387.7635445652598
 30
0.0
 11
688.6811524872355
 21
387.7629747034575
 31
0.0
  0
LINE
  5
6F12
330
1A
100
AcDbEntity
  8
SEIHIN
100
AcDbLine
 10
691.020638775011
 20
384.0628973640511
 30
0.0
 11
669.0203497750112
 21
384.0632596198826
 31
0.0
  0
LINE
  5
6F13
330
1A
100
AcDbEntity
  8
SEIHIN
100
AcDbLine
 10
691.020638775011
 20
385.2628973640511
 30
0.0
 11
669.0203497750112
 21
385.2632596198826
 31
0.0
  0
ARC
  5
6F14
330
1A
100
AcDbEntity
  8
SEIHIN
100
AcDbCircle
 10
675.6902605909608
 20
390.0756223378337
 30
0.0
 40
5.687779919070464
100
AcDbArc
 50
40.41684699691309
 51
139.5793829407961
  0
LINE
  5
6F15
330
1A
100
AcDbEntity
  8
SEIHIN
100
AcDbLine
 10
675.0206387750111
 20
399.4844786198827
 30
0.0
 11
685.0206387750111
 21
399.4844786198827
 31
0.0
  0
LINE
  5
6F16
330
1A
100
AcDbEntity
  8
SEIHIN
100
AcDbLine
 10
669.0203497750112
 20
385.2632596198826
 30
0.0
 11
669.0203497750112
 21
384.0632596198826
 31
0.0
  0
LINE
  5
6F17
330
1A
100
AcDbEntity
  8
SEIHIN
100
AcDbLine
 10
671.0203497750113
 20
385.2627779528951
 30
0.0
 11
672.5203487750111
 21
387.7627779528951
 31
0.0
  0
LINE
  5
6F18
330
1A
100
AcDbEntity
  8
SEIHIN
100
AcDbLine
 10
671.3601250627866
 20
393.7635440717409
 30
0.0
 11
671.3601250627866
 21
387.7635449746918
 31
0.0
  0
LINE
  5
6F19
330
1A
100
AcDbEntity
  8
SEIHIN
100
AcDbLine
 10
675.0206387750111
 20
395.7634246198825
 30
0.0
 11
675.0206387750111
 21
399.4844786198827
 31
0.0
  0
ARC
  5
6F1A
330
1A
100
AcDbEntity
  8
SEIHIN
100
AcDbCircle
 10
684.350774303185
 20
390.0753374069328
 30
0.0
 40
5.687779919070464
100
AcDbArc
 50
40.41684699691309
 51
139.5793829407961
  0
LINE
  5
6F1B
330
1A
100
AcDbEntity
  8
SEIHIN
100
AcDbLine
 10
680.0206387750111
 20
393.7632591408398
 30
0.0
 11
680.0206387750111
 21
387.7632596343586
 31
0.0
  0
LINE
  5
6F1C
330
1A
100
AcDbEntity
  8
SEIHIN
100
AcDbLine
 10
691.020638775011
 20
385.2628973640511
 30
0.0
 11
691.020638775011
 21
384.0628973640511
 31
0.0
  0
LINE
  5
6F1D
330
1A
100
AcDbEntity
  8
SEIHIN
100
AcDbLine
 10
687.5203487750111
 20
387.7632596198826
 30
0.0
 11
689.0203497750112
 21
385.2632596198826
 31
0.0
  0
LINE
  5
6F1E
330
1A
100
AcDbEntity
  8
SEIHIN
100
AcDbLine
 10
688.6811524872357
 20
393.7629742099382
 30
0.0
 11
688.6811524872355
 21
387.7629742924198
 31
0.0
  0
LINE
  5
6F1F
330
1A
100
AcDbEntity
  8
SEIHIN
100
AcDbLine
 10
684.0206387750111
 20
395.7634246198825
 30
0.0
 11
684.0206387750111
 21
399.4844786198827
 31
0.0
  0
LINE
  5
6F20
330
1A
100
AcDbEntity
  8
SEIHIN
100
AcDbLine
 10
676.0206387750111
 20
395.7634246198825
 30
0.0
 11
676.0206387750111
 21
399.4844786198827
 31
0.0
  0
LINE
  5
6F21
330
1A
100
AcDbEntity
  8
SEIHIN
100
AcDbLine
 10
685.0206387750111
 20
395.7634246198825
 30
0.0
 11
685.0206387750111
 21
399.4844786198827
 31
0.0
  0
DIMENSION
  5
6F22
330
1A
100
AcDbEntity
  8
SUNPOU
100
AcDbDimension
  2
*D15
 10
488.709298917882
 20
500.5160194736562
 30
0.0
 11
483.7092989178819
 21
520.5160194736563
 31
0.0
 70
    32
 71
     5
 42
-1.0
  3
STANDARD
100
AcDbAlignedDimension
 13
449.8433482290233
 23
540.5160194736562
 33
0.0
 14
449.8433482290233
 24
500.5160194736562
 34
0.0
 50
90.0
100
AcDbRotatedDimension
1001
ACAD
1000
DSTYLE
1002
{
1070
    41
1040
7.0
1070
    42
1040
6.0
1070
    43
1040
14.0
1070
    44
1040
3.0
1070
    73
1070
     0
1070
    74
1070
     0
1070
    77
1070
     3
1070
   140
1040
6.0
1070
   141
1040
150.0
1070
   147
1040
2.0
1070
   172
1070
     1
1070
   173
1070
     1
1070
   176
1070
   256
1070
   177
1070
   256
1070
   178
1070
   256
1070
   271
1070
     0
1070
   272
1070
     0
1070
   341
1005
6D
1070
     6
1000
OPEN
1070
     7
1000
OPEN
1070
   371
1070
    -1
1070
   372
1070
    -1
1002
}
  0
LINE
  5
6F23
330
1A
100
AcDbEntity
  8
SEIHIN
100
AcDbLine
 10
451.6433482290235
 20
509.5160194736562
 30
0.0
 11
451.6433482288662
 21
531.5160194736562
 31
0.0
  0
ARC
  5
6F24
330
1A
100
AcDbEntity
  8
SEIHIN
100
AcDbCircle
 10
450.3433482290233
 20
509.5160194736562
 30
0.0
 40
1.3
100
AcDbArc
 50
270.0
 51
0.0
  0
ARC
  5
6F25
330
1A
100
AcDbEntity
  8
SEIHIN
100
AcDbCircle
 10
450.3433482290233
 20
507.7160194736562
 30
0.0
 40
0.5
100
AcDbArc
 50
90.0
 51
180.0
  0
LINE
  5
6F26
330
1A
100
AcDbEntity
  8
SEIHIN
100
AcDbLine
 10
449.8433482290233
 20
500.5160194736562
 30
0.0
 11
449.8433482290525
 21
507.7160194736562
 31
0.0
  0
LINE
  5
6F27
330
1A
100
AcDbEntity
  8
SEIHIN
100
AcDbLine
 10
449.8433482290233
 20
540.5160194736562
 30
0.0
 11
449.8433482290525
 21
533.3160194736563
 31
0.0
  0
ARC
  5
6F28
330
1A
100
AcDbEntity
  8
SEIHIN
100
AcDbCircle
 10
450.3433482290233
 20
531.5160194736562
 30
0.0
 40
1.3
100
AcDbArc
 50
0.0
 51
89.99999999871679
  0
ARC
  5
6F29
330
1A
100
AcDbEntity
  8
SEIHIN
100
AcDbCircle
 10
450.3433482290233
 20
533.3160194736563
 30
0.0
 40
0.5
100
AcDbArc
 50
180.0
 51
270.000000003335
  0
LINE
  5
6F2A
330
1A
100
AcDbEntity
  8
SEIHIN
100
AcDbLine
 10
695.020967775011
 20
384.0627656198827
 30
0.0
 11
695.020638775011
 21
374.0627656198827
 31
0.0
  0
DIMENSION
  5
72B1
330
1A
100
AcDbEntity
  8
SUNPOU
100
AcDbDimension
  2
*D16
 10
691.020638775011
 20
429.6479256185635
 30
0.0
 11
680.0204942750111
 21
434.6479256185634
 31
0.0
 70
    32
 71
     5
 42
-1.0
  3
STANDARD
100
AcDbAlignedDimension
 13
669.0203497750112
 23
385.2632596198826
 33
0.0
 14
691.020638775011
 24
385.2628973640511
 34
0.0
100
AcDbRotatedDimension
1001
ACAD
1000
DSTYLE
1002
{
1070
    41
1040
7.0
1070
    42
1040
6.0
1070
    43
1040
14.0
1070
    44
1040
3.0
1070
    73
1070
     0
1070
    74
1070
     0
1070
    77
1070
     3
1070
   140
1040
6.0
1070
   141
1040
150.0
1070
   147
1040
2.0
1070
   172
1070
     1
1070
   173
1070
     1
1070
   176
1070
   256
1070
   177
1070
   256
1070
   178
1070
   256
1070
   271
1070
     0
1070
   272
1070
     0
1070
   341
1005
6D
1070
     6
1000
OPEN
1070
     7
1000
OPEN
1070
   371
1070
    -1
1070
   372
1070
    -1
1002
}
  0
LINE
  5
7515
330
1A
100
AcDbEntity
  8
SEIHIN
100
AcDbLine
 10
208.5433162292433
 20
272.0843786198826
 30
0.0
 11
208.5433162293222
 21
275.0843786198826
 31
0.0
  0
LINE
  5
7516
330
1A
100
AcDbEntity
  8
SEIHIN
100
AcDbLine
 10
209.7590452292434
 20
272.0843786198826
 30
0.0
 11
209.7590452292529
 21
275.0843786198826
 31
0.0
  0
LINE
  5
7517
330
1A
100
AcDbEntity
  8
SEIHIN
100
AcDbLine
 10
210.2590452292433
 20
272.0843786198826
 30
0.0
 11
210.2590452292526
 21
275.0843786198826
 31
0.0
  0
LINE
  5
7518
330
1A
100
AcDbEntity
  8
SEIHIN
100
AcDbLine
 10
211.7590452292434
 20
270.5843786198826
 30
0.0
 11
227.8050199440508
 21
270.5843786198826
 31
0.0
  0
LINE
  5
7519
330
1A
100
AcDbEntity
  8
SEIHIN
100
AcDbLine
 10
210.5433162292433
 20
270.0843786198826
 30
0.0
 11
218.5010741611427
 21
270.0843786198826
 31
0.0
  0
ARC
  5
751A
330
1A
100
AcDbEntity
  8
SEIHIN
100
AcDbCircle
 10
210.5433162292433
 20
272.0843786198831
 30
0.0
 40
2.0
100
AcDbArc
 50
180.0000000000162
 51
270.0000000022602
  0
LINE
  5
751B
330
1A
100
AcDbEntity
  8
SEIHIN
100
AcDbLine
 10
211.6226911380884
 20
270.5843786198826
 30
0.0
 11
211.7590452292529
 21
270.5843786198826
 31
0.0
  0
LINE
  5
751C
330
1A
100
AcDbEntity
  8
SEIHIN
100
AcDbLine
 10
211.4865250837592
 20
270.6093420880282
 30
0.0
 11
211.6226911381414
 21
270.5843786198826
 31
0.0
  0
ARC
  5
751D
330
1A
100
AcDbEntity
  8
SEIHIN
100
AcDbCircle
 10
211.7590452292434
 20
272.0843786198831
 30
0.0
 40
2.0
100
AcDbArc
 50
180.0000000000162
 51
261.5819526537609
  0
ARC
  5
751E
330
1A
100
AcDbEntity
  8
SEIHIN
100
AcDbCircle
 10
211.7590452292434
 20
272.0843786198826
 30
0.0
 40
1.5
100
AcDbArc
 50
179.9999999999967
 51
259.6901715535555
  0
LINE
  5
751F
330
1A
100
AcDbEntity
  8
SEIHIN
100
AcDbLine
 10
229.9962911886292
 20
267.3555833087452
 30
0.0
 11
232.5214799140738
 21
258.558143561043
 31
0.0
  0
LINE
  5
7520
330
1A
100
AcDbEntity
  8
SEIHIN
100
AcDbLine
 10
229.5157231142477
 20
267.2175458698766
 30
0.0
 11
233.0205238439709
 21
255.0072611745769
 31
0.0
  0
LINE
  5
7521
330
1A
100
AcDbEntity
  8
SEIHIN
100
AcDbLine
 10
218.5433162292436
 20
270.5843786198826
 30
0.0
 11
228.4345677116249
 21
268.7710049232234
 31
0.0
  0
LINE
  5
7522
330
1A
100
AcDbEntity
  8
SEIHIN
100
AcDbLine
 10
218.5010741611427
 20
270.0843786198825
 30
0.0
 11
228.3445281731725
 21
268.2790941720652
 31
0.0
  0
ARC
  5
7523
330
1A
100
AcDbEntity
  8
SEIHIN
100
AcDbCircle
 10
227.8050199440503
 20
265.5843786198825
 30
0.0
 40
4.999999892672396
100
AcDbArc
 50
50.39285696194888
 51
89.99999999999349
  0
ARC
  5
7524
330
1A
100
AcDbEntity
  8
SEIHIN
100
AcDbCircle
 10
228.0739162855844
 20
266.8037910179845
 30
0.0
 40
2.0
100
AcDbArc
 50
16.01542568659968
 51
79.61126776609514
  0
ARC
  5
7525
330
1A
100
AcDbEntity
  8
SEIHIN
100
AcDbCircle
 10
228.0739419369639
 20
266.8037016518059
 30
0.0
 40
1.5
100
AcDbArc
 50
16.015425686444
 51
79.60747497741426
  0
LINE
  5
7526
330
1A
100
AcDbEntity
  8
SEIHIN
100
AcDbLine
 10
208.5433162292433
 20
275.0843786198826
 30
0.0
 11
210.2590442292433
 21
275.0843786198826
 31
0.0
  0
LINE
  5
7527
330
1A
100
AcDbEntity
  8
SEIHIN
100
AcDbLine
 10
428.9854517292501
 20
250.5843786198826
 30
0.0
 11
430.3433162292433
 21
250.5843786198826
 31
0.0
  0
ARC
  5
7528
330
1A
100
AcDbEntity
  8
SEIHIN
100
AcDbCircle
 10
428.343316229257
 20
247.5843786198826
 30
0.0
 40
2.0
100
AcDbArc
 50
269.999999999987
 51
359.9999999999869
  0
LINE
  5
7529
330
1A
100
AcDbEntity
  8
SEIHIN
100
AcDbLine
 10
427.4854517293106
 20
246.0843786198826
 30
0.0
 11
409.8814218485733
 21
246.0843786198826
 31
0.0
  0
LINE
  5
752A
330
1A
100
AcDbEntity
  8
SEIHIN
100
AcDbLine
 10
409.0305075196003
 20
244.7645078154426
 30
0.0
 11
419.1832804419884
 21
246.0843786198826
 31
0.0
  0
LINE
  5
752B
330
1A
100
AcDbEntity
  8
SEIHIN
100
AcDbLine
 10
408.662686162507
 20
244.29701181851
 30
0.0
 11
419.1832804419885
 21
245.5843786198826
 31
0.0
  0
LINE
  5
752C
330
1A
100
AcDbEntity
  8
SEIHIN
100
AcDbLine
 10
428.343316229257
 20
245.5843786198826
 30
0.0
 11
419.1832804419885
 21
245.5843786198826
 31
0.0
  0
LINE
  5
752D
330
1A
100
AcDbEntity
  8
SEIHIN
100
AcDbLine
 10
429.4854517293106
 20
247.5843786198826
 30
0.0
 11
429.4854517292501
 21
250.5843786198826
 31
0.0
  0
LINE
  5
752E
330
1A
100
AcDbEntity
  8
SEIHIN
100
AcDbLine
 10
428.9854517293107
 20
247.5843786198826
 30
0.0
 11
428.9854517292501
 21
250.5843786198826
 31
0.0
  0
ARC
  5
752F
330
1A
100
AcDbEntity
  8
SEIHIN
100
AcDbCircle
 10
427.4854517293106
 20
247.5843786198826
 30
0.0
 40
1.5
100
AcDbArc
 50
269.9999999999934
 51
359.9999999999934
  0
ARC
  5
7530
330
1A
100
AcDbEntity
  8
SEIHIN
100
AcDbCircle
 10
427.4854517293106
 20
247.5843786198826
 30
0.0
 40
2.0
100
AcDbArc
 50
269.999999999987
 51
359.9999999999869
  0
LINE
  5
7531
330
1A
100
AcDbEntity
  8
SEIHIN
100
AcDbLine
 10
430.3433162292569
 20
247.5843786198826
 30
0.0
 11
430.3433162292433
 21
250.5843786198826
 31
0.0
  0
LINE
  5
7532
330
1A
100
AcDbEntity
  8
SEIHIN
100
AcDbLine
 10
236.6223511755291
 20
71.34649092646871
 30
0.0
 11
236.6223511755291
 21
78.04649092646865
 31
0.0
  0
LINE
  5
7533
330
1A
100
AcDbEntity
  8
SEIHIN
100
AcDbLine
 10
228.9179677365881
 20
71.34649092646849
 30
0.0
 11
228.9179677365881
 21
78.04649092646842
 31
0.0
  0
ARC
  5
7534
330
1A
100
AcDbEntity
  8
SEIHIN
100
AcDbCircle
 10
236.8873285220018
 20
101.280722479555
 30
0.0
 40
2.597710857760674
100
AcDbArc
 50
111.8064453121159
 51
178.5492386424921
  0
ARC
  5
7535
330
1A
100
AcDbEntity
  8
SEIHIN
100
AcDbCircle
 10
236.8873285220016
 20
81.41225937338241
 30
0.0
 40
2.597710857760671
100
AcDbArc
 50
181.4507602719876
 51
248.193554687884
  0
LINE
  5
7536
330
1A
100
AcDbEntity
  8
SEIHIN
 48
5.0
100
AcDbLine
 10
235.6089238604659
 20
83.13788331554768
 30
0.0
 11
217.9776393632844
 21
79.84649092646883
 31
0.0
  0
LINE
  5
7537
330
1A
100
AcDbEntity
  8
SEIHIN
 48
5.0
100
AcDbLine
 10
243.4692266405282
 20
82.34649092633485
 30
0.0
 11
221.5074759577629
 21
79.84649092646883
 31
0.0
  0
LINE
  5
7538
330
1A
100
AcDbEntity
  8
SEIHIN
 48
5.0
100
AcDbLine
 10
235.6089238604659
 20
99.55509853739908
 30
0.0
 11
217.9776393633328
 21
102.8464909264688
 31
0.0
  0
LINE
  5
7539
330
1A
100
AcDbEntity
  8
SEIHIN
 48
5.0
100
AcDbLine
 10
243.4692266405282
 20
100.3464909266118
 30
0.0
 11
221.5074759578429
 21
102.8464909264688
 31
0.0
  0
ARC
  5
753A
330
1A
100
AcDbEntity
  8
SEIHIN
100
AcDbCircle
 10
240.3570593406433
 20
91.34649092646883
 30
0.0
 40
30.000000154
100
AcDbArc
 50
157.4596896585539
 51
179.9999999530031
  0
LINE
  5
753B
330
1A
100
AcDbEntity
  8
SEIHIN
 48
5.0
100
AcDbLine
 10
212.6487571689114
 20
79.84649092646883
 30
0.0
 11
221.5074759577628
 21
79.84649092646883
 31
0.0
  0
ARC
  5
753C
330
1A
100
AcDbEntity
  8
SEIHIN
100
AcDbCircle
 10
240.3570593406433
 20
91.34649092646883
 30
0.0
 40
30.000000154
100
AcDbArc
 50
179.9999999530031
 51
202.5403103414459
  0
ARC
  5
753D
330
1A
100
AcDbEntity
  8
SEIHIN
100
AcDbCircle
 10
229.1552017410849
 20
81.56699460952687
 30
0.0
 40
2.732336160781798
100
AcDbArc
 50
204.4973153644691
 51
249.9392855662502
  0
ARC
  5
753E
330
1A
100
AcDbEntity
  8
SEIHIN
100
AcDbCircle
 10
227.9179677365882
 20
78.04649092646842
 30
0.0
 40
0.9999999039302407
100
AcDbArc
 50
0.0000000000130276
 51
72.54239341417918
  0
LINE
  5
753F
330
1A
100
AcDbEntity
  8
SEIHIN
 48
5.0
100
AcDbLine
 10
212.6487571689114
 20
102.8464909264688
 30
0.0
 11
221.5074759578431
 21
102.8464909264688
 31
0.0
  0
LINE
  5
7540
330
1A
100
AcDbEntity
  8
SEIHIN
100
AcDbLine
 10
228.9179677365881
 20
111.3464909264685
 30
0.0
 11
228.9179677365881
 21
104.6464909264685
 31
0.0
  0
ARC
  5
7541
330
1A
100
AcDbEntity
  8
SEIHIN
100
AcDbCircle
 10
229.1552017410849
 20
101.1259872434099
 30
0.0
 40
2.732336160781833
100
AcDbArc
 50
110.0607144337497
 51
155.5026846353108
  0
ARC
  5
7542
330
1A
100
AcDbEntity
  8
SEIHIN
100
AcDbCircle
 10
227.9179677365882
 20
104.6464909264685
 30
0.0
 40
0.9999999039302407
100
AcDbArc
 50
287.4576065858208
 51
0.0
  0
LINE
  5
7543
330
1A
100
AcDbEntity
  8
SEIHIN
 48
5.0
100
AcDbLine
 10
256.2570591866433
 20
83.84649095106873
 30
0.0
 11
256.2570591866431
 21
98.84649095106873
 31
0.0
  0
CIRCLE
  5
7544
330
1A
100
AcDbEntity
  8
SEIHIN
100
AcDbCircle
 10
251.2570591866432
 20
91.34649095106885
 30
0.0
 40
3.25
  0
CIRCLE
  5
7545
330
1A
100
AcDbEntity
  8
SEIHIN
100
AcDbCircle
 10
251.2570591866432
 20
91.34649095106885
 30
0.0
 40
2.25
  0
LINE
  5
7546
330
1A
100
AcDbEntity
  8
SEIHIN
 48
5.0
100
AcDbLine
 10
243.4692266191596
 20
82.34649092874757
 30
0.0
 11
254.7570591866433
 21
82.34649095106872
 31
0.0
  0
LINE
  5
7547
330
1A
100
AcDbEntity
  8
SEIHIN
 48
5.0
100
AcDbLine
 10
243.4692266191597
 20
82.34649092874757
 30
0.0
 11
235.6089238604659
 21
83.13788331554768
 31
0.0
  0
ARC
  5
7548
330
1A
100
AcDbEntity
  8
SEIHIN
100
AcDbCircle
 10
235.6223511755291
 20
78.04649092646865
 30
0.0
 40
0.9999999039302407
100
AcDbArc
 50
0.0000000000130276
 51
72.54239341417918
  0
ARC
  5
7549
330
1A
100
AcDbEntity
  8
SEIHIN
 48
5.0
100
AcDbCircle
 10
254.7570591866433
 20
83.84649095106873
 30
0.0
 40
1.5
100
AcDbArc
 50
270.0
 51
0.0
  0
LINE
  5
754A
330
1A
100
AcDbEntity
  8
SEIHIN
 48
5.0
100
AcDbLine
 10
243.4692266217692
 20
100.3464909287473
 30
0.0
 11
254.7570591866431
 21
100.3464909510687
 31
0.0
  0
LINE
  5
754B
330
1A
100
AcDbEntity
  8
SEIHIN
100
AcDbLine
 10
236.6223511755291
 20
111.3464909264688
 30
0.0
 11
236.6223511755291
 21
104.6464909264687
 31
0.0
  0
LINE
  5
754C
330
1A
100
AcDbEntity
  8
SEIHIN
 48
5.0
100
AcDbLine
 10
243.4692266643327
 20
100.3464909287473
 30
0.0
 11
235.6089238604659
 21
99.55509853739908
 31
0.0
  0
ARC
  5
754D
330
1A
100
AcDbEntity
  8
SEIHIN
100
AcDbCircle
 10
235.6223511755291
 20
104.6464909264687
 30
0.0
 40
0.9999999039302407
100
AcDbArc
 50
287.4576065858208
 51
0.0
  0
ARC
  5
754E
330
1A
100
AcDbEntity
  8
SEIHIN
 48
5.0
100
AcDbCircle
 10
254.7570591866431
 20
98.84649095106873
 30
0.0
 40
1.5
100
AcDbArc
 50
0.0
 51
90.0
  0
LINE
  5
754F
330
1A
100
AcDbEntity
  8
SEIHIN
 48
5.0
100
AcDbLine
 10
390.7570591866432
 20
82.34649095106885
 30
0.0
 11
401.1566441102405
 21
82.34649095106885
 31
0.0
  0
LINE
  5
7550
330
1A
100
AcDbEntity
  8
SEIHIN
 48
5.0
100
AcDbLine
 10
390.7570591866434
 20
100.3464909510688
 30
0.0
 11
401.1566441100891
 21
100.3464909510688
 31
0.0
  0
LINE
  5
7551
330
1A
100
AcDbEntity
  8
SEIHIN
 48
5.0
100
AcDbLine
 10
389.2570591866432
 20
83.84649095106885
 30
0.0
 11
389.2570591866434
 21
98.84649095106885
 31
0.0
  0
ARC
  5
7552
330
1A
100
AcDbEntity
  8
SEIHIN
 48
5.0
100
AcDbCircle
 10
390.7570591866432
 20
83.84649095106885
 30
0.0
 40
1.5
100
AcDbArc
 50
179.9999999999983
 51
270.0
  0
CIRCLE
  5
7553
330
1A
100
AcDbEntity
  8
SEIHIN
 48
5.0
100
AcDbCircle
 10
394.2570591866432
 20
91.34649095106885
 30
0.0
 40
2.25
  0
CIRCLE
  5
7554
330
1A
100
AcDbEntity
  8
SEIHIN
 48
5.0
100
AcDbCircle
 10
394.2570591866432
 20
91.34649095106885
 30
0.0
 40
3.25
  0
ARC
  5
7555
330
1A
100
AcDbEntity
  8
SEIHIN
 48
5.0
100
AcDbCircle
 10
390.7570591866434
 20
98.84649095106885
 30
0.0
 40
1.5
100
AcDbArc
 50
90.0
 51
180.0
  0
LINE
  5
7556
330
1A
100
AcDbEntity
  8
SEIHIN
100
AcDbLine
 10
421.6178716111202
 20
71.34649092646883
 30
0.0
 11
421.6178716111202
 21
78.04649092646887
 31
0.0
  0
LINE
  5
7557
330
1A
100
AcDbEntity
  8
SEIHIN
100
AcDbLine
 10
410.3541177318795
 20
71.34649092646883
 30
0.0
 11
410.3541177318795
 21
78.04649092646887
 31
0.0
  0
ARC
  5
7558
330
1A
100
AcDbEntity
  8
SEIHIN
 48
5.0
100
AcDbCircle
 10
402.1570590326431
 20
91.34649092646883
 30
0.0
 40
30.000000154
100
AcDbArc
 50
337.4596896585539
 51
0.0000000469968938
  0
ARC
  5
7559
330
1A
100
AcDbEntity
  8
SEIHIN
 48
5.0
100
AcDbCircle
 10
402.1570590326431
 20
91.34649092646883
 30
0.0
 40
30.000000154
100
AcDbArc
 50
0.0000000469968938
 51
22.54031034144602
  0
LINE
  5
755A
330
1A
100
AcDbEntity
  8
SEIHIN
 48
5.0
100
AcDbLine
 10
401.1566441102371
 20
82.75499041431622
 30
0.0
 11
401.1566441100925
 21
99.93799148782146
 31
0.0
  0
LINE
  5
755B
330
1A
100
AcDbEntity
  8
SEIHIN
 48
5.0
100
AcDbLine
 10
408.4209414666264
 20
83.66256659926527
 30
0.0
 11
408.4209414664672
 21
99.0304153028628
 31
0.0
  0
LINE
  5
755C
330
1A
100
AcDbEntity
  8
SEIHIN
 48
5.0
100
AcDbLine
 10
408.8125702922667
 20
83.13788334022682
 30
0.0
 11
418.0194418728629
 21
79.84649092646883
 31
0.0
  0
LINE
  5
755D
330
1A
100
AcDbEntity
  8
SEIHIN
 48
5.0
100
AcDbLine
 10
401.1566441102405
 20
82.34649095106885
 30
0.0
 11
418.0194418728376
 21
79.84649092647633
 31
0.0
  0
LINE
  5
755E
330
1A
100
AcDbEntity
  8
SEIHIN
 48
5.0
100
AcDbLine
 10
401.5619922553822
 20
82.39713374624852
 30
0.0
 11
408.015593321489
 21
83.20342434083823
 31
0.0
  0
ARC
  5
755F
330
1A
100
AcDbEntity
  8
SEIHIN
100
AcDbCircle
 10
409.8978683461511
 20
80.84982185847206
 30
0.0
 40
2.181092087025118
100
AcDbArc
 50
302.013844349593
 51
332.3426144756152
  0
ARC
  5
7560
330
1A
100
AcDbEntity
  8
SEIHIN
100
AcDbCircle
 10
409.8978683461511
 20
80.84982185847206
 30
0.0
 40
2.181092087025118
100
AcDbArc
 50
302.013844349593
 51
332.3426144756152
  0
ARC
  5
7561
330
1A
100
AcDbEntity
  8
SEIHIN
100
AcDbCircle
 10
411.3541177318794
 20
78.04649092646887
 30
0.0
 40
0.9999999039302407
100
AcDbArc
 50
107.4576065858208
 51
179.9999999999869
  0
LINE
  5
7562
330
1A
100
AcDbEntity
  8
SEIHIN
 48
5.0
100
AcDbLine
 10
411.8297469169064
 20
79.83739513028909
 30
0.0
 11
411.8297469169064
 21
80.76414633336092
 31
0.0
  0
LINE
  5
7563
330
1A
100
AcDbEntity
  8
SEIHIN
 48
5.0
100
AcDbLine
 10
418.0194418728629
 20
79.84649092646883
 30
0.0
 11
429.8653612043749
 21
79.84649092646883
 31
0.0
  0
ARC
  5
7564
330
1A
100
AcDbEntity
  8
SEIHIN
100
AcDbCircle
 10
421.1616222253918
 20
80.84982185847206
 30
0.0
 40
2.181092087025118
100
AcDbArc
 50
302.013844349593
 51
332.3426144756152
  0
ARC
  5
7565
330
1A
100
AcDbEntity
  8
SEIHIN
100
AcDbCircle
 10
421.1616222253918
 20
80.84982185847206
 30
0.0
 40
2.181092087025118
100
AcDbArc
 50
302.013844349593
 51
332.3426144756152
  0
LINE
  5
7566
330
1A
100
AcDbEntity
  8
SEIHIN
 48
5.0
100
AcDbLine
 10
423.0935007961472
 20
79.83739513028909
 30
0.0
 11
423.0935007961472
 21
79.84649092646883
 31
0.0
  0
ARC
  5
7567
330
1A
100
AcDbEntity
  8
SEIHIN
100
AcDbCircle
 10
422.6178716111202
 20
78.04649092646887
 30
0.0
 40
0.9999999039302407
100
AcDbArc
 50
107.4576065858208
 51
179.9999999999869
  0
LINE
  5
7568
330
1A
100
AcDbEntity
  8
SEIHIN
 48
5.0
100
AcDbLine
 10
408.8125702920991
 20
99.55509856190024
 30
0.0
 11
418.0194418922725
 21
102.8464909264688
 31
0.0
  0
LINE
  5
7569
330
1A
100
AcDbEntity
  8
SEIHIN
 48
5.0
100
AcDbLine
 10
401.1566441100891
 20
100.3464909510688
 30
0.0
 11
418.0194418922725
 21
102.8464909264688
 31
0.0
  0
LINE
  5
756A
330
1A
100
AcDbEntity
  8
SEIHIN
100
AcDbLine
 10
410.3541177318795
 20
111.3464909264688
 30
0.0
 11
410.3541177318795
 21
104.6464909264687
 31
0.0
  0
LINE
  5
756B
330
1A
100
AcDbEntity
  8
SEIHIN
 48
5.0
100
AcDbLine
 10
401.5619922552308
 20
100.2958481558885
 30
0.0
 11
408.0155933213212
 21
99.48955756129054
 31
0.0
  0
ARC
  5
756C
330
1A
100
AcDbEntity
  8
SEIHIN
 48
5.0
100
AcDbCircle
 10
409.8978683461509
 20
101.8431599944654
 30
0.0
 40
2.181092087025164
100
AcDbArc
 50
27.65738552438476
 51
57.98615565039605
  0
ARC
  5
756D
330
1A
100
AcDbEntity
  8
SEIHIN
100
AcDbCircle
 10
411.3541177318794
 20
104.6464909264687
 30
0.0
 40
0.9999999039302407
100
AcDbArc
 50
180.0
 51
252.5423934141791
  0
LINE
  5
756E
330
1A
100
AcDbEntity
  8
SEIHIN
 48
5.0
100
AcDbLine
 10
411.8297469169063
 20
101.9288355358255
 30
0.0
 11
411.8297469169064
 21
102.8555867226485
 31
0.0
  0
LINE
  5
756F
330
1A
100
AcDbEntity
  8
SEIHIN
100
AcDbLine
 10
421.6178716111202
 20
111.3464909264688
 30
0.0
 11
421.6178716111202
 21
104.6464909264687
 31
0.0
  0
LINE
  5
7570
330
1A
100
AcDbEntity
  8
SEIHIN
 48
5.0
100
AcDbLine
 10
418.0194418922725
 20
102.8464909264688
 30
0.0
 11
429.8653612237714
 21
102.8464909264688
 31
0.0
  0
ARC
  5
7571
330
1A
100
AcDbEntity
  8
SEIHIN
 48
5.0
100
AcDbCircle
 10
421.1616222253915
 20
101.8431599944654
 30
0.0
 40
2.181092087025164
100
AcDbArc
 50
27.65738552438476
 51
57.98615565039605
  0
LINE
  5
7572
330
1A
100
AcDbEntity
  8
SEIHIN
 48
5.0
100
AcDbLine
 10
423.0935007961472
 20
102.8464909264688
 30
0.0
 11
423.0935007961472
 21
102.8555867226485
 31
0.0
  0
ARC
  5
7573
330
1A
100
AcDbEntity
  8
SEIHIN
100
AcDbCircle
 10
422.6178716111202
 20
104.6464909264687
 30
0.0
 40
0.9999999039302407
100
AcDbArc
 50
180.0
 51
252.5423934141791
  0
LINE
  5
7574
330
1A
100
AcDbEntity
  8
SEIHIN
100
AcDbLine
 10
232.0491162787825
 20
101.6464909273058
 30
0.0
 11
310.2570911865382
 21
101.6464909273058
 31
0.0
  0
LINE
  5
7575
330
1A
100
AcDbEntity
  8
SEIHIN
100
AcDbLine
 10
232.0491162934082
 20
81.04649092730586
 30
0.0
 11
310.2570911866848
 21
81.04649092730586
 31
0.0
  0
LINE
  5
7576
330
1A
100
AcDbEntity
  8
SEIHIN
100
AcDbLine
 10
430.3334677680153
 20
101.6464909273058
 30
0.0
 11
438.6570911863907
 21
101.6464909273058
 31
0.0
  0
LINE
  5
7577
330
1A
100
AcDbEntity
  8
SEIHIN
100
AcDbLine
 10
430.3334677686272
 20
81.04649092730586
 30
0.0
 11
438.6570911863907
 21
81.04649092730586
 31
0.0
  0
VIEWPORT
  5
22
330
17
100
AcDbEntity
 67
     1
  8
0
100
AcDbViewport
 10
313.6808219178082
 20
148.5
 30
0.0
 40
627.3616438356165
 41
297.0
 68
     2
 69
     1
 12
313.6808219178082
 22
148.5
 13
0.0
 23
0.0
 14
1.0
 24
1.0
 15
10.0
 25
10.0
 16
0.0
 26
0.0
 36
1.0
 17
0.0
 27
0.0
 37
0.0
 42
50.0
 43
0.0
 44
0.0
 45
297.0
 50
0.0
 51
0.0
 72
   100
 90
    32768
  1

281
     0
 71
     1
 74
     0
110
0.0
120
0.0
130
0.0
111
1.0
121
0.0
131
0.0
112
0.0
122
1.0
132
0.0
 79
     0
146
0.0
  0
VIEWPORT
  5
64
330
17
100
AcDbEntity
 67
     1
  8
VIEWPORT
100
AcDbViewport
 10
210.0
 20
148.5
 30
0.0
 40
420.0
 41
297.0
 68
     1
 69
     2
 12
420.0
 22
297.0
 13
0.0
 23
0.0
 14
10.0
 24
10.0
 15
0.0
 25
0.0
 16
0.0
 26
0.0
 36
1.0
 17
0.0
 27
0.0
 37
0.0
 42
50.0
 43
0.0
 44
0.0
 45
605.8799999999998
 50
0.0
 51
0.0
 72
   100
 90
    32768
  1

281
     0
 71
     1
 74
     0
110
0.0
120
0.0
130
0.0
111
1.0
121
0.0
131
0.0
112
0.0
122
1.0
132
0.0
 79
     0
146
0.0
  0
ENDSEC
  0
SECTION
  2
OBJECTS
  0
DICTIONARY
  5
C
330
0
100
AcDbDictionary
281
     1
  3
ACAD_GROUP
350
D
  3
ACAD_LAYOUT
350
340
  3
ACAD_MLINESTYLE
350
E
  3
ACAD_PLOTSETTINGS
350
341
  3
ACAD_PLOTSTYLENAME
350
33E
  3
AcDbVariableDictionary
350
11E9
  0
DICTIONARY
  5
385
330
1A
100
AcDbDictionary
280
     1
281
     1
  3
ACAD_LAYOUTSELFREF
360
7663
  0
DICTIONARY
  5
383
330
17
100
AcDbDictionary
280
     1
281
     1
  3
ACAD_LAYOUTSELFREF
360
7662
  0
DICTIONARY
  5
D
102
{ACAD_REACTORS
330
C
102
}
330
C
100
AcDbDictionary
281
     1
  0
DICTIONARY
  5
340
102
{ACAD_REACTORS
330
C
102
}
330
C
100
AcDbDictionary
281
     1
  3
Model
350
342
  3
ﾚｲｱｳﾄ1
350
343
  0
DICTIONARY
  5
E
102
{ACAD_REACTORS
330
C
102
}
330
C
100
AcDbDictionary
281
     1
  3
STANDARD
350
13
  0
DICTIONARY
  5
341
102
{ACAD_REACTORS
330
C
102
}
330
C
100
AcDbDictionary
281
     1
  0
ACDBDICTIONARYWDFLT
  5
33E
102
{ACAD_REACTORS
330
C
102
}
330
C
100
AcDbDictionary
281
     1
  3
Normal
350
33F
100
AcDbDictionaryWithDefault
340
33F
1001
ACAD
1000
TREAT_AS_HARD
1070
     0
1000
TREAT_AS_HARD
1070
     0
1000
TREAT_AS_HARD
1070
     0
1000
TREAT_AS_HARD
1070
     0
1000
TREAT_AS_HARD
1070
     0
1000
TREAT_AS_HARD
1070
     0
1000
TREAT_AS_HARD
1070
     0
1000
TREAT_AS_HARD
1070
     0
1000
TREAT_AS_HARD
1070
     0
1000
TREAT_AS_HARD
1070
     0
1000
TREAT_AS_HARD
1070
     0
1000
TREAT_AS_HARD
1070
     0
1000
TREAT_AS_HARD
1070
     0
1000
TREAT_AS_HARD
1070
     0
1000
TREAT_AS_HARD
1070
     0
  0
DICTIONARY
  5
11E9
102
{ACAD_REACTORS
330
C
102
}
330
C
100
AcDbDictionary
281
     1
  3
SORTENTS
350
11EA
  0
XRECORD
  5
7663
102
{ACAD_REACTORS
330
385
102
}
330
385
100
AcDbXrecord
280
     1
340
1A
  0
XRECORD
  5
7662
102
{ACAD_REACTORS
330
383
102
}
330
383
100
AcDbXrecord
280
     1
340
17
  0
LAYOUT
  5
342
102
{ACAD_REACTORS
330
340
102
}
330
340
100
AcDbPlotSettings
  1

  2
Acrobat Distiller
  4
A3
  6

 40
3.174999952316284
 41
3.174999952316284
 42
3.17498779296875
 43
3.17498779296875
 44
297.0318298339843
 45
420.1583251953125
 46
0.0
 47
0.0
 48
0.0
 49
0.0
140
0.0
141
0.0
142
1.0
143
2.0
 70
 11952
 72
     1
 73
     1
 74
     2
  7
print.ctb
 75
    17
147
0.5
148
0.0
149
0.0
100
AcDbLayout
  1
Model
 70
     1
 71
     0
 10
0.0
 20
0.0
 11
12.0
 21
9.0
 12
0.0
 22
0.0
 32
0.0
 14
0.0
 24
0.0
 34
0.0
 15
0.0
 25
0.0
 35
0.0
146
0.0
 13
0.0
 23
0.0
 33
0.0
 16
1.0
 26
0.0
 36
0.0
 17
0.0
 27
1.0
 37
0.0
 76
     0
330
1A
  0
LAYOUT
  5
343
102
{ACAD_REACTORS
330
340
102
}
330
340
100
AcDbPlotSettings
  1

  2
Acrobat Distiller
  4

  6

 40
0.0
 41
0.0
 42
0.0
 43
0.0
 44
0.0
 45
0.0
 46
0.0
 47
0.0
 48
0.0
 49
0.0
140
0.0
141
0.0
142
1.0
143
1.0
 70
   688
 72
     0
 73
     0
 74
     5
  7
print.ctb
 75
    16
147
1.0
148
0.0
149
0.0
100
AcDbLayout
  1
ﾚｲｱｳﾄ1
 70
     1
 71
     1
 10
0.0
 20
0.0
 11
420.0
 21
297.0
 12
0.0
 22
0.0
 32
0.0
 14
0.0
 24
0.0
 34
0.0
 15
420.0
 25
297.0
 35
0.0
146
0.0
 13
0.0
 23
0.0
 33
0.0
 16
1.0
 26
0.0
 36
0.0
 17
0.0
 27
1.0
 37
0.0
 76
     0
330
17
331
64
  0
MLINESTYLE
  5
13
102
{ACAD_REACTORS
330
E
102
}
330
E
100
AcDbMlineStyle
  2
STANDARD
 70
     0
  3

 62
     0
 51
90.0
 52
90.0
 71
     2
 49
0.5
 62
   256
  6
BYLAYER
 49
-0.5
 62
   256
  6
BYLAYER
  0
ACDBPLACEHOLDER
  5
33F
102
{ACAD_REACTORS
330
33E
102
}
330
33E
  0
DICTIONARYVAR
  5
11EA
102
{ACAD_REACTORS
330
11E9
102
}
330
11E9
100
DictionaryVariables
280
     0
  1
96
  0
ENDSEC
  0
EOF
