  0
SECTION
  2
HEADER
  9
$ACADVER
  1
AC1015
  9
$ACADMAINTVER
 70
    20
  9
$DWGCODEPAGE
  3
ANSI_932
  9
$INSBASE
 10
0.0
 20
0.0
 30
0.0
  9
$EXTMIN
 10
10.05047808566086
 20
13.78258628282265
 30
0.0
  9
$EXTMAX
 10
807.6504780856605
 20
565.3825862828226
 30
0.0
  9
$LIMMIN
 10
0.0
 20
0.0
  9
$LIMMAX
 10
840.0
 20
594.0
  9
$ORTHOMODE
 70
     0
  9
$REGENMODE
 70
     1
  9
$FILLMODE
 70
     1
  9
$QTEXTMODE
 70
     0
  9
$MIRRTEXT
 70
     1
  9
$LTSCALE
 40
2.0
  9
$ATTMODE
 70
     1
  9
$TEXTSIZE
 40
5.0
  9
$TRACEWID
 40
1.0
  9
$TEXTSTYLE
  7
STANDARD
  9
$CLAYER
  8
0
  9
$CELTYPE
  6
BYLAYER
  9
$CECOLOR
 62
   256
  9
$CELTSCALE
 40
1.0
  9
$DISPSILH
 70
     0
  9
$DIMSCALE
 40
1.0
  9
$DIMASZ
 40
7.0
  9
$DIMEXO
 40
6.0
  9
$DIMDLI
 40
14.0
  9
$DIMRND
 40
0.0
  9
$DIMDLE
 40
0.0
  9
$DIMEXE
 40
3.0
  9
$DIMTP
 40
0.0
  9
$DIMTM
 40
0.0
  9
$DIMTXT
 40
6.0
  9
$DIMCEN
 40
150.0
  9
$DIMTSZ
 40
0.0
  9
$DIMTOL
 70
     0
  9
$DIMLIM
 70
     0
  9
$DIMTIH
 70
     0
  9
$DIMTOH
 70
     0
  9
$DIMSE1
 70
     0
  9
$DIMSE2
 70
     0
  9
$DIMTAD
 70
     3
  9
$DIMZIN
 70
     0
  9
$DIMBLK
  1

  9
$DIMASO
 70
     1
  9
$DIMSHO
 70
     1
  9
$DIMPOST
  1

  9
$DIMAPOST
  1

  9
$DIMALT
 70
     0
  9
$DIMALTD
 70
     2
  9
$DIMALTF
 40
25.4
  9
$DIMLFAC
 40
1.0
  9
$DIMTOFL
 70
     1
  9
$DIMTVP
 40
0.0
  9
$DIMTIX
 70
     0
  9
$DIMSOXD
 70
     0
  9
$DIMSAH
 70
     1
  9
$DIMBLK1
  1
OPEN
  9
$DIMBLK2
  1
OPEN
  9
$DIMSTYLE
  2
STANDARD
  9
$DIMCLRD
 70
   256
  9
$DIMCLRE
 70
   256
  9
$DIMCLRT
 70
   256
  9
$DIMTFAC
 40
1.0
  9
$DIMGAP
 40
2.0
  9
$DIMJUST
 70
     0
  9
$DIMSD1
 70
     0
  9
$DIMSD2
 70
     0
  9
$DIMTOLJ
 70
     1
  9
$DIMTZIN
 70
     0
  9
$DIMALTZ
 70
     0
  9
$DIMALTTZ
 70
     0
  9
$DIMUPT
 70
     0
  9
$DIMDEC
 70
     0
  9
$DIMTDEC
 70
     0
  9
$DIMALTU
 70
     2
  9
$DIMALTTD
 70
     2
  9
$DIMTXSTY
  7
STANDARD
  9
$DIMAUNIT
 70
     0
  9
$DIMADEC
 70
     0
  9
$DIMALTRND
 40
0.0
  9
$DIMAZIN
 70
     0
  9
$DIMDSEP
 70
    46
  9
$DIMATFIT
 70
     3
  9
$DIMFRAC
 70
     0
  9
$DIMLDRBLK
  1
OPEN
  9
$DIMLUNIT
 70
     2
  9
$DIMLWD
 70
    -1
  9
$DIMLWE
 70
    -1
  9
$DIMTMOVE
 70
     0
  9
$LUNITS
 70
     2
  9
$LUPREC
 70
     4
  9
$SKETCHINC
 40
1.0
  9
$FILLETRAD
 40
0.5
  9
$AUNITS
 70
     0
  9
$AUPREC
 70
     0
  9
$MENU
  1
.
  9
$ELEVATION
 40
0.0
  9
$PELEVATION
 40
0.0
  9
$THICKNESS
 40
0.0
  9
$LIMCHECK
 70
     0
  9
$CHAMFERA
 40
20.0
  9
$CHAMFERB
 40
20.0
  9
$CHAMFERC
 40
40.0
  9
$CHAMFERD
 40
0.0
  9
$SKPOLY
 70
     0
  9
$TDCREATE
 40
2454866.469916053
  9
$TDUCREATE
 40
2454866.094916053
  9
$TDUPDATE
 40
2457581.445846378
  9
$TDUUPDATE
 40
2457581.070846377
  9
$TDINDWG
 40
0.0573799190
  9
$TDUSRTIMER
 40
0.0573799190
  9
$USRTIMER
 70
     1
  9
$ANGBASE
 50
0.0
  9
$ANGDIR
 70
     0
  9
$PDMODE
 70
     0
  9
$PDSIZE
 40
0.0
  9
$PLINEWID
 40
0.0
  9
$SPLFRAME
 70
     0
  9
$SPLINETYPE
 70
     6
  9
$SPLINESEGS
 70
     8
  9
$HANDSEED
  5
808F
  9
$SURFTAB1
 70
     6
  9
$SURFTAB2
 70
     6
  9
$SURFTYPE
 70
     6
  9
$SURFU
 70
     6
  9
$SURFV
 70
     6
  9
$UCSBASE
  2

  9
$UCSNAME
  2

  9
$UCSORG
 10
0.0
 20
0.0
 30
0.0
  9
$UCSXDIR
 10
1.0
 20
0.0
 30
0.0
  9
$UCSYDIR
 10
0.0
 20
1.0
 30
0.0
  9
$UCSORTHOREF
  2

  9
$UCSORTHOVIEW
 70
     0
  9
$UCSORGTOP
 10
0.0
 20
0.0
 30
0.0
  9
$UCSORGBOTTOM
 10
0.0
 20
0.0
 30
0.0
  9
$UCSORGLEFT
 10
0.0
 20
0.0
 30
0.0
  9
$UCSORGRIGHT
 10
0.0
 20
0.0
 30
0.0
  9
$UCSORGFRONT
 10
0.0
 20
0.0
 30
0.0
  9
$UCSORGBACK
 10
0.0
 20
0.0
 30
0.0
  9
$PUCSBASE
  2

  9
$PUCSNAME
  2

  9
$PUCSORG
 10
0.0
 20
0.0
 30
0.0
  9
$PUCSXDIR
 10
1.0
 20
0.0
 30
0.0
  9
$PUCSYDIR
 10
0.0
 20
1.0
 30
0.0
  9
$PUCSORTHOREF
  2

  9
$PUCSORTHOVIEW
 70
     0
  9
$PUCSORGTOP
 10
0.0
 20
0.0
 30
0.0
  9
$PUCSORGBOTTOM
 10
0.0
 20
0.0
 30
0.0
  9
$PUCSORGLEFT
 10
0.0
 20
0.0
 30
0.0
  9
$PUCSORGRIGHT
 10
0.0
 20
0.0
 30
0.0
  9
$PUCSORGFRONT
 10
0.0
 20
0.0
 30
0.0
  9
$PUCSORGBACK
 10
0.0
 20
0.0
 30
0.0
  9
$USERI1
 70
     0
  9
$USERI2
 70
     0
  9
$USERI3
 70
     0
  9
$USERI4
 70
     0
  9
$USERI5
 70
     0
  9
$USERR1
 40
0.0
  9
$USERR2
 40
0.0
  9
$USERR3
 40
0.0
  9
$USERR4
 40
0.0
  9
$USERR5
 40
0.0
  9
$WORLDVIEW
 70
     1
  9
$SHADEDGE
 70
     3
  9
$SHADEDIF
 70
    70
  9
$TILEMODE
 70
     1
  9
$MAXACTVP
 70
    16
  9
$PINSBASE
 10
0.0
 20
0.0
 30
0.0
  9
$PLIMCHECK
 70
     0
  9
$PEXTMIN
 10
0.0
 20
0.0
 30
0.0
  9
$PEXTMAX
 10
420.0
 20
297.0
 30
0.0
  9
$PLIMMIN
 10
0.0
 20
0.0
  9
$PLIMMAX
 10
420.0
 20
297.0
  9
$UNITMODE
 70
     0
  9
$VISRETAIN
 70
     0
  9
$PLINEGEN
 70
     0
  9
$PSLTSCALE
 70
     1
  9
$TREEDEPTH
 70
  3020
  9
$CMLSTYLE
  2
STANDARD
  9
$CMLJUST
 70
     0
  9
$CMLSCALE
 40
1.0
  9
$PROXYGRAPHICS
 70
     1
  9
$MEASUREMENT
 70
     1
  9
$CELWEIGHT
370
    -1
  9
$ENDCAPS
280
     0
  9
$JOINSTYLE
280
     0
  9
$LWDISPLAY
290
     0
  9
$INSUNITS
 70
     0
  9
$HYPERLINKBASE
  1

  9
$STYLESHEET
  1
PRINT.CTB
  9
$XEDIT
290
     1
  9
$CEPSNTYPE
380
     0
  9
$PSTYLEMODE
290
     1
  9
$FINGERPRINTGUID
  2
{8D6CB018-5425-46D7-BA3D-129D74F567FA}
  9
$VERSIONGUID
  2
{A0561042-C1F8-40A0-843D-AEEB1B7D93DF}
  9
$EXTNAMES
290
     1
  9
$PSVPSCALE
 40
0.0
  9
$OLESTARTUP
290
     0
  0
ENDSEC
  0
SECTION
  2
CLASSES
  0
CLASS
  1
ACDBDICTIONARYWDFLT
  2
AcDbDictionaryWithDefault
  3
ObjectDBX Classes
 90
        0
280
     0
281
     0
  0
CLASS
  1
ACDBPLACEHOLDER
  2
AcDbPlaceHolder
  3
ObjectDBX Classes
 90
        0
280
     0
281
     0
  0
CLASS
  1
LAYOUT
  2
AcDbLayout
  3
ObjectDBX Classes
 90
        0
280
     0
281
     0
  0
CLASS
  1
DICTIONARYVAR
  2
AcDbDictionaryVar
  3
ObjectDBX Classes
 90
        0
280
     0
281
     0
  0
ENDSEC
  0
SECTION
  2
TABLES
  0
TABLE
  2
VPORT
  5
8
330
0
100
AcDbSymbolTable
 70
     2
  0
VPORT
  5
8083
330
8
100
AcDbSymbolTableRecord
100
AcDbViewportTableRecord
  2
*Active
 70
     0
 10
0.0
 20
0.0
 11
1.0
 21
1.0
 12
457.9081177644818
 22
288.2936059343399
 13
0.0
 23
0.0
 14
5.0
 24
5.0
 15
0.0
 25
0.0
 16
0.0
 26
0.0
 36
1.0
 17
0.0
 27
0.0
 37
0.0
 40
584.4553449809613
 41
2.11864406779661
 42
50.0
 43
0.0
 44
0.0
 50
0.0
 51
0.0
 71
     0
 72
   100
 73
     1
 74
     0
 75
     0
 76
     0
 77
     0
 78
     0
281
     0
 65
     1
110
0.0
120
0.0
130
0.0
111
1.0
121
0.0
131
0.0
112
0.0
122
1.0
132
0.0
 79
     0
146
0.0
  0
ENDTAB
  0
TABLE
  2
LTYPE
  5
5
330
0
100
AcDbSymbolTable
 70
     4
  0
LTYPE
  5
14
330
5
100
AcDbSymbolTableRecord
100
AcDbLinetypeTableRecord
  2
BYBLOCK
 70
     0
  3

 72
    65
 73
     0
 40
0.0
  0
LTYPE
  5
15
330
5
100
AcDbSymbolTableRecord
100
AcDbLinetypeTableRecord
  2
BYLAYER
 70
     0
  3

 72
    65
 73
     0
 40
0.0
  0
LTYPE
  5
16
330
5
100
AcDbSymbolTableRecord
100
AcDbLinetypeTableRecord
  2
CONTINUOUS
 70
     0
  3
Solid line
 72
    65
 73
     0
 40
0.0
  0
LTYPE
  5
135
330
5
100
AcDbSymbolTableRecord
100
AcDbLinetypeTableRecord
  2
CENTER
 70
     0
  3
____ _ ____ _ ____ _ ____ _ ____ _ ____ _ ____ 
 72
    65
 73
     4
 40
2.0
 49
1.25
 74
     0
 49
-0.25
 74
     0
 49
0.25
 74
     0
 49
-0.25
 74
     0
  0
LTYPE
  5
1527
330
5
100
AcDbSymbolTableRecord
100
AcDbLinetypeTableRecord
  2
SLDSECTION0
 70
     0
  3

 72
    65
 73
     4
 40
10.16
 49
6.349999999999998
 74
     0
 49
-1.27
 74
     0
 49
1.27
 74
     0
 49
-1.27
 74
     0
  0
LTYPE
  5
3D66
330
5
100
AcDbSymbolTableRecord
100
AcDbLinetypeTableRecord
  2
PHANTOM
 70
     0
  3
______  __  __  ______  __  __  ______  __  __ 
 72
    65
 73
     6
 40
2.5
 49
1.25
 74
     0
 49
-0.25
 74
     0
 49
0.25
 74
     0
 49
-0.25
 74
     0
 49
0.25
 74
     0
 49
-0.25
 74
     0
  0
ENDTAB
  0
TABLE
  2
LAYER
  5
2
330
0
100
AcDbSymbolTable
 70
     9
  0
LAYER
  5
F
330
2
100
AcDbSymbolTableRecord
100
AcDbLayerTableRecord
  2
0
 70
     0
 62
     7
  6
CONTINUOUS
370
    -3
390
33F
  0
LAYER
  5
62
330
2
100
AcDbSymbolTableRecord
100
AcDbLayerTableRecord
  2
VIEWPORT
 70
     0
 62
     7
  6
CONTINUOUS
370
    -3
390
33F
  0
LAYER
  5
65
330
2
100
AcDbSymbolTableRecord
100
AcDbLayerTableRecord
  2
ZUWAKU
 70
     0
 62
     7
  6
CONTINUOUS
370
    -3
390
33F
  0
LAYER
  5
153
330
2
100
AcDbSymbolTableRecord
100
AcDbLayerTableRecord
  2
SEIHIN
 70
     0
 62
     3
  6
CONTINUOUS
370
    -3
390
33F
  0
LAYER
  5
154
330
2
100
AcDbSymbolTableRecord
100
AcDbLayerTableRecord
  2
SUNPOU
 70
     0
 62
     4
  6
CONTINUOUS
370
    -3
390
33F
  0
LAYER
  5
155
330
2
100
AcDbSymbolTableRecord
100
AcDbLayerTableRecord
  2
CENTER L
 70
     0
 62
     1
  6
CENTER
370
    -3
390
33F
  0
LAYER
  5
24D
330
2
100
AcDbSymbolTableRecord
100
AcDbLayerTableRecord
  2
DEFPOINTS
 70
     0
 62
     7
  6
CONTINUOUS
290
     0
370
    -3
390
33F
  0
LAYER
  5
59A
330
2
100
AcDbSymbolTableRecord
100
AcDbLayerTableRecord
  2
moji
 70
     0
 62
     2
  6
CONTINUOUS
370
    -3
390
33F
  0
LAYER
  5
1528
330
2
100
AcDbSymbolTableRecord
100
AcDbLayerTableRecord
  2
NOKITOI
 70
     0
 62
     9
  6
SLDSECTION0
370
    -3
390
33F
  0
ENDTAB
  0
TABLE
  2
STYLE
  5
3
330
0
100
AcDbSymbolTable
 70
     2
  0
STYLE
  5
10
330
3
100
AcDbSymbolTableRecord
100
AcDbTextStyleTableRecord
  2
STANDARD
 70
     0
 40
0.0
 41
1.0
 50
0.0
 71
     0
 42
5.0
  3
TXT
  4
bigfont.shx
  0
STYLE
  5
59B
330
3
100
AcDbSymbolTableRecord
100
AcDbTextStyleTableRecord
  2
ｽﾀｲﾙ1
 70
     0
 40
0.0
 41
1.0
 50
0.0
 71
     0
 42
2.5
  3
MS PGothic.ttf
  4

1001
ACAD
1000
MS PGothic
1071
    32818
  0
ENDTAB
  0
TABLE
  2
VIEW
  5
6
330
0
100
AcDbSymbolTable
 70
     0
  0
ENDTAB
  0
TABLE
  2
UCS
  5
7
330
0
100
AcDbSymbolTable
 70
     0
  0
ENDTAB
  0
TABLE
  2
APPID
  5
9
330
0
100
AcDbSymbolTable
 70
     1
  0
APPID
  5
11
330
9
100
AcDbSymbolTableRecord
100
AcDbRegAppTableRecord
  2
ACAD
 70
     0
  0
ENDTAB
  0
TABLE
  2
DIMSTYLE
  5
A
330
0
100
AcDbSymbolTable
 70
     1
100
AcDbDimStyleTable
 71
     0
  0
DIMSTYLE
105
1D
102
{ACAD_REACTORS
330
6D1D
330
6D29
330
6D2B
330
6D3E
330
6D3F
330
6D44
330
6D48
330
6D9D
330
6DF1
330
6E01
330
6E96
330
6EB7
330
6EC0
330
6F22
330
72B1
102
}
330
A
100
AcDbSymbolTableRecord
100
AcDbDimStyleTableRecord
  2
STANDARD
 70
     0
340
10
  0
ENDTAB
  0
TABLE
  2
BLOCK_RECORD
  5
1
330
0
100
AcDbSymbolTable
 70
    17
  0
BLOCK_RECORD
  5
1A
102
{ACAD_XDICTIONARY
360
385
102
}
330
1
100
AcDbSymbolTableRecord
100
AcDbBlockTableRecord
  2
*MODEL_SPACE
340
342
  0
BLOCK_RECORD
  5
17
102
{ACAD_XDICTIONARY
360
383
102
}
330
1
100
AcDbSymbolTableRecord
100
AcDbBlockTableRecord
  2
*PAPER_SPACE
340
343
  0
BLOCK_RECORD
  5
6D
330
1
100
AcDbSymbolTableRecord
100
AcDbBlockTableRecord
  2
_OPEN
340
0
102
{BLKREFS
331
7F27
331
7F28
331
7F54
331
7F55
331
7F1E
331
7F1F
331
7F15
331
7F16
331
7F30
331
7F31
331
7F0C
331
7F0D
331
7F39
331
7F3A
331
7F42
331
7F43
331
7F4B
331
7F4C
331
7F5D
331
7F5E
331
7BC7
331
7BC8
331
7F03
331
7F04
331
7EFA
331
7EFB
331
7EF1
331
7EF2
331
7C85
331
7C86
102
}
  0
BLOCK_RECORD
  5
3A4
330
1
100
AcDbSymbolTableRecord
100
AcDbBlockTableRecord
  2
*X1
340
0
102
{BLKREFS
331
6D8
102
}
  0
BLOCK_RECORD
  5
6F2B
330
1
100
AcDbSymbolTableRecord
100
AcDbBlockTableRecord
  2
*D2
340
0
  0
BLOCK_RECORD
  5
6F37
330
1
100
AcDbSymbolTableRecord
100
AcDbBlockTableRecord
  2
*D3
340
0
  0
BLOCK_RECORD
  5
6F43
330
1
100
AcDbSymbolTableRecord
100
AcDbBlockTableRecord
  2
*D4
340
0
  0
BLOCK_RECORD
  5
6F4F
330
1
100
AcDbSymbolTableRecord
100
AcDbBlockTableRecord
  2
*D5
340
0
  0
BLOCK_RECORD
  5
6F5B
330
1
100
AcDbSymbolTableRecord
100
AcDbBlockTableRecord
  2
*D6
340
0
  0
BLOCK_RECORD
  5
6F67
330
1
100
AcDbSymbolTableRecord
100
AcDbBlockTableRecord
  2
*D7
340
0
  0
BLOCK_RECORD
  5
6F73
330
1
100
AcDbSymbolTableRecord
100
AcDbBlockTableRecord
  2
*D8
340
0
  0
BLOCK_RECORD
  5
6F7F
330
1
100
AcDbSymbolTableRecord
100
AcDbBlockTableRecord
  2
*D9
340
0
  0
BLOCK_RECORD
  5
6F8B
330
1
100
AcDbSymbolTableRecord
100
AcDbBlockTableRecord
  2
*D10
340
0
  0
BLOCK_RECORD
  5
6F97
330
1
100
AcDbSymbolTableRecord
100
AcDbBlockTableRecord
  2
*D11
340
0
  0
BLOCK_RECORD
  5
6FA3
330
1
100
AcDbSymbolTableRecord
100
AcDbBlockTableRecord
  2
*D12
340
0
  0
BLOCK_RECORD
  5
6FAF
330
1
100
AcDbSymbolTableRecord
100
AcDbBlockTableRecord
  2
*D13
340
0
  0
BLOCK_RECORD
  5
6FBB
330
1
100
AcDbSymbolTableRecord
100
AcDbBlockTableRecord
  2
*D14
340
0
  0
BLOCK_RECORD
  5
6FC7
330
1
100
AcDbSymbolTableRecord
100
AcDbBlockTableRecord
  2
*D15
340
0
  0
BLOCK_RECORD
  5
72B2
330
1
100
AcDbSymbolTableRecord
100
AcDbBlockTableRecord
  2
*D16
340
0
  0
ENDTAB
  0
ENDSEC
  0
SECTION
  2
BLOCKS
  0
BLOCK
  5
1B
330
1A
100
AcDbEntity
  8
0
100
AcDbBlockBegin
  2
*MODEL_SPACE
 70
     0
 10
0.0
 20
0.0
 30
0.0
  3
*MODEL_SPACE
  1

  0
ENDBLK
  5
1C
330
1A
100
AcDbEntity
  8
0
100
AcDbBlockEnd
  0
BLOCK
  5
18
330
17
100
AcDbEntity
 67
     1
  8
0
100
AcDbBlockBegin
  2
*PAPER_SPACE
 70
     0
 10
0.0
 20
0.0
 30
0.0
  3
*PAPER_SPACE
  1

  0
ENDBLK
  5
19
330
17
100
AcDbEntity
 67
     1
  8
0
100
AcDbBlockEnd
  0
BLOCK
  5
6E
330
6D
100
AcDbEntity
  8
0
100
AcDbBlockBegin
  2
_OPEN
 70
     0
 10
0.0
 20
0.0
 30
0.0
  3
_OPEN
  1

  0
LINE
  5
6F
330
6D
100
AcDbEntity
  8
0
  6
ByBlock
 62
     0
100
AcDbLine
 10
-1.0
 20
0.1666666666666666
 30
0.0
 11
0.0
 21
0.0
 31
0.0
  0
LINE
  5
70
330
6D
100
AcDbEntity
  8
0
  6
ByBlock
 62
     0
100
AcDbLine
 10
0.0
 20
0.0
 30
0.0
 11
-1.0
 21
-0.1666666666666666
 31
0.0
  0
LINE
  5
71
330
6D
100
AcDbEntity
  8
0
  6
ByBlock
 62
     0
100
AcDbLine
 10
0.0
 20
0.0
 30
0.0
 11
-1.0
 21
0.0
 31
0.0
  0
ENDBLK
  5
72
330
6D
100
AcDbEntity
  8
0
100
AcDbBlockEnd
  0
BLOCK
  5
538
330
3A4
100
AcDbEntity
  8
0
100
AcDbBlockBegin
  2
*X1
 70
     1
 10
0.0
 20
0.0
 30
0.0
  3
*X1
  1

  0
LINE
  5
3A5
330
3A4
100
AcDbEntity
  8
0
 62
     0
100
AcDbLine
 10
66.7504780856609
 20
28.71175535310772
 30
0.0
 11
66.10464715594599
 21
29.35758628282269
 31
0.0
  0
LINE
  5
3A6
330
3A4
100
AcDbEntity
  8
0
 62
     0
100
AcDbLine
 10
66.7504780856609
 20
27.81372974100082
 30
0.0
 11
65.20662154383905
 21
29.35758628282269
 31
0.0
  0
LINE
  5
3A7
330
3A4
100
AcDbEntity
  8
0
 62
     0
100
AcDbLine
 10
66.75047808566086
 20
26.91570412889388
 30
0.0
 11
64.32934413964591
 21
29.33683807490882
 31
0.0
  0
LINE
  5
3A8
330
3A4
100
AcDbEntity
  8
0
 62
     0
100
AcDbLine
 10
66.7504780856609
 20
26.01767851678704
 30
0.0
 11
63.95047808566085
 21
28.81767851678705
 31
0.0
  0
LINE
  5
3A9
330
3A4
100
AcDbEntity
  8
0
 62
     0
100
AcDbLine
 10
66.7504780856609
 20
25.11965290468009
 30
0.0
 11
63.95047808566085
 21
27.91965290468017
 31
0.0
  0
LINE
  5
3AA
330
3A4
100
AcDbEntity
  8
0
 62
     0
100
AcDbLine
 10
66.75047808566086
 20
24.22162729257314
 30
0.0
 11
63.95047808566079
 21
27.02162729257321
 31
0.0
  0
LINE
  5
3AB
330
3A4
100
AcDbEntity
  8
0
 62
     0
100
AcDbLine
 10
61.85047808566082
 20
28.22360168046634
 30
0.0
 11
60.71649348330453
 21
29.35758628282269
 31
0.0
  0
LINE
  5
3AC
330
3A4
100
AcDbEntity
  8
0
 62
     0
100
AcDbLine
 10
66.7504780856609
 20
23.32360168046631
 30
0.0
 11
63.95047808566085
 21
26.12360168046638
 31
0.0
  0
LINE
  5
3AD
330
3A4
100
AcDbEntity
  8
0
 62
     0
100
AcDbLine
 10
61.85047808566082
 20
27.32557606835945
 30
0.0
 11
59.81846787119757
 21
29.35758628282263
 31
0.0
  0
LINE
  5
3AE
330
3A4
100
AcDbEntity
  8
0
 62
     0
100
AcDbLine
 10
66.75047808566086
 20
22.42557606835936
 30
0.0
 11
63.95047808566085
 21
25.22557606835943
 31
0.0
  0
LINE
  5
3AF
330
3A4
100
AcDbEntity
  8
0
 62
     0
100
AcDbLine
 10
61.85047808566082
 20
26.4275504562525
 30
0.0
 11
59.14496712052375
 21
29.13306142138958
 31
0.0
  0
LINE
  5
3B0
330
3A4
100
AcDbEntity
  8
0
 62
     0
100
AcDbLine
 10
66.75047808566086
 20
21.52755045625247
 30
0.0
 11
63.95047808566079
 21
24.32755045625248
 31
0.0
  0
LINE
  5
3B1
330
3A4
100
AcDbEntity
  8
0
 62
     0
100
AcDbLine
 10
61.85047808566093
 20
25.5295248441455
 30
0.0
 11
59.05047808566076
 21
28.32952484414562
 31
0.0
  0
LINE
  5
3B2
330
3A4
100
AcDbEntity
  8
0
 62
     0
100
AcDbLine
 10
66.7504780856609
 20
20.62952484414552
 30
0.0
 11
63.95047808566085
 21
23.42952484414559
 31
0.0
  0
LINE
  5
3B3
330
3A4
100
AcDbEntity
  8
0
 62
     0
100
AcDbLine
 10
61.85047808566089
 20
24.6314992320386
 30
0.0
 11
59.05047808566076
 21
27.43149923203878
 31
0.0
  0
LINE
  5
3B4
330
3A4
100
AcDbEntity
  8
0
 62
     0
100
AcDbLine
 10
66.75047808566086
 20
19.73149923203862
 30
0.0
 11
63.95047808566079
 21
22.53149923203869
 31
0.0
  0
LINE
  5
3B5
330
3A4
100
AcDbEntity
  8
0
 62
     0
100
AcDbLine
 10
61.85047808566089
 20
23.73347361993171
 30
0.0
 11
59.05047808566076
 21
26.53347361993183
 31
0.0
  0
LINE
  5
3B6
330
3A4
100
AcDbEntity
  8
0
 62
     0
100
AcDbLine
 10
66.75047808566086
 20
18.83347361993173
 30
0.0
 11
63.95047808566079
 21
21.6334736199318
 31
0.0
  0
LINE
  5
3B7
330
3A4
100
AcDbEntity
  8
0
 62
     0
100
AcDbLine
 10
61.85047808566082
 20
22.83544800782476
 30
0.0
 11
59.0504780856607
 21
25.63544800782489
 31
0.0
  0
LINE
  5
3B8
330
3A4
100
AcDbEntity
  8
0
 62
     0
100
AcDbLine
 10
66.7504780856608
 20
17.93544800782479
 30
0.0
 11
63.95047808566079
 21
20.73544800782485
 31
0.0
  0
LINE
  5
3B9
330
3A4
100
AcDbEntity
  8
0
 62
     0
100
AcDbLine
 10
61.85047808566089
 20
21.93742239571793
 30
0.0
 11
59.05047808566076
 21
24.73742239571805
 31
0.0
  0
LINE
  5
3BA
330
3A4
100
AcDbEntity
  8
0
 62
     0
100
AcDbLine
 10
55.55047808566081
 20
28.23742239571799
 30
0.0
 11
54.43031419855618
 21
29.35758628282263
 31
0.0
  0
LINE
  5
3BB
330
3A4
100
AcDbEntity
  8
0
 62
     0
100
AcDbLine
 10
66.75047808566086
 20
17.03742239571795
 30
0.0
 11
63.95047808566079
 21
19.83742239571796
 31
0.0
  0
LINE
  5
3BC
330
3A4
100
AcDbEntity
  8
0
 62
     0
100
AcDbLine
 10
61.85047808566089
 20
21.03939678361098
 30
0.0
 11
59.0504780856607
 21
23.83939678361111
 31
0.0
  0
LINE
  5
3BD
330
3A4
100
AcDbEntity
  8
0
 62
     0
100
AcDbLine
 10
55.55047808566076
 20
27.33939678361105
 30
0.0
 11
53.53228858644921
 21
29.35758628282263
 31
0.0
  0
LINE
  5
3BE
330
3A4
100
AcDbEntity
  8
0
 62
     0
100
AcDbLine
 10
66.75047808566086
 20
16.139396783611
 30
0.0
 11
63.95047808566079
 21
18.93939678361107
 31
0.0
  0
LINE
  5
3BF
330
3A4
100
AcDbEntity
  8
0
 62
     0
100
AcDbLine
 10
61.85047808566082
 20
20.14137117150409
 30
0.0
 11
59.05047808566076
 21
22.9413711715041
 31
0.0
  0
LINE
  5
3C0
330
3A4
100
AcDbEntity
  8
0
 62
     0
100
AcDbLine
 10
55.55047808566076
 20
26.44137117150416
 30
0.0
 11
52.85071536233676
 21
29.14113389482816
 31
0.0
  0
LINE
  5
3C1
330
3A4
100
AcDbEntity
  8
0
 62
     0
100
AcDbLine
 10
66.7504780856608
 20
15.24137117150411
 30
0.0
 11
63.95047808566072
 21
18.04137117150412
 31
0.0
  0
LINE
  5
3C2
330
3A4
100
AcDbEntity
  8
0
 62
     0
100
AcDbLine
 10
61.85047808566089
 20
19.24334555939713
 30
0.0
 11
59.05047808566081
 21
22.04334555939721
 31
0.0
  0
LINE
  5
3C3
330
3A4
100
AcDbEntity
  8
0
 62
     0
100
AcDbLine
 10
55.55047808566081
 20
25.54334555939721
 30
0.0
 11
52.7504780856608
 21
28.34334555939722
 31
0.0
  0
LINE
  5
3C4
330
3A4
100
AcDbEntity
  8
0
 62
     0
100
AcDbLine
 10
66.75047808566086
 20
14.34334555939716
 30
0.0
 11
63.95047808566079
 21
17.14334555939723
 31
0.0
  0
LINE
  5
3C5
330
3A4
100
AcDbEntity
  8
0
 62
     0
100
AcDbLine
 10
61.85047808566082
 20
18.34531994729024
 30
0.0
 11
59.05047808566081
 21
21.14531994729031
 31
0.0
  0
LINE
  5
3C6
330
3A4
100
AcDbEntity
  8
0
 62
     0
100
AcDbLine
 10
55.55047808566087
 20
24.64531994729027
 30
0.0
 11
52.7504780856608
 21
27.44531994729033
 31
0.0
  0
LINE
  5
3C7
330
3A4
100
AcDbEntity
  8
0
 62
     0
100
AcDbLine
 10
66.67851273077103
 20
13.51728530218008
 30
0.0
 11
63.95047808566079
 21
16.24531994729034
 31
0.0
  0
LINE
  5
3C8
330
3A4
100
AcDbEntity
  8
0
 62
     0
100
AcDbLine
 10
61.85047808566089
 20
17.44729433518324
 30
0.0
 11
59.05047808566076
 21
20.24729433518337
 31
0.0
  0
LINE
  5
3C9
330
3A4
100
AcDbEntity
  8
0
 62
     0
100
AcDbLine
 10
55.55047808566081
 20
23.74729433518337
 30
0.0
 11
52.75047808566075
 21
26.54729433518338
 31
0.0
  0
LINE
  5
3CA
330
3A4
100
AcDbEntity
  8
0
 62
     0
100
AcDbLine
 10
66.04018613802157
 20
13.25758628282261
 30
0.0
 11
63.95047808566072
 21
15.34729433518345
 31
0.0
  0
LINE
  5
3CB
330
3A4
100
AcDbEntity
  8
0
 62
     0
100
AcDbLine
 10
55.55047808566081
 20
22.84926872307642
 30
0.0
 11
52.75047808566075
 21
25.64926872307649
 31
0.0
  0
LINE
  5
3CC
330
3A4
100
AcDbEntity
  8
0
 62
     0
100
AcDbLine
 10
61.85047808566089
 20
16.54926872307635
 30
0.0
 11
59.05047808566076
 21
19.34926872307647
 31
0.0
  0
LINE
  5
3CD
330
3A4
100
AcDbEntity
  8
0
 62
     0
100
AcDbLine
 10
50.1254780856608
 20
28.27426872307643
 30
0.0
 11
49.04216052591465
 21
29.35758628282252
 31
0.0
  0
LINE
  5
3CE
330
3A4
100
AcDbEntity
  8
0
 62
     0
100
AcDbLine
 10
65.14216052591468
 20
13.2575862828225
 30
0.0
 11
63.95047808566072
 21
14.4492687230765
 31
0.0
  0
LINE
  5
3CF
330
3A4
100
AcDbEntity
  8
0
 62
     0
100
AcDbLine
 10
55.55047808566081
 20
21.95124311096952
 30
0.0
 11
52.75047808566085
 21
24.75124311096954
 31
0.0
  0
LINE
  5
3D0
330
3A4
100
AcDbEntity
  8
0
 62
     0
100
AcDbLine
 10
50.1254780856608
 20
27.37624311096954
 30
0.0
 11
48.14413491380782
 21
29.35758628282258
 31
0.0
  0
LINE
  5
3D1
330
3A4
100
AcDbEntity
  8
0
 62
     0
100
AcDbLine
 10
61.82451978501529
 20
15.6772014116151
 30
0.0
 11
59.05047808566076
 21
18.45124311096958
 31
0.0
  0
LINE
  5
3D2
330
3A4
100
AcDbEntity
  8
0
 62
     0
100
AcDbLine
 10
55.55047808566081
 20
21.05321749886263
 30
0.0
 11
52.75047808566085
 21
23.85321749886259
 31
0.0
  0
LINE
  5
3D3
330
3A4
100
AcDbEntity
  8
0
 62
     0
100
AcDbLine
 10
49.92989753954696
 20
26.67379804497647
 30
0.0
 11
47.24610930170081
 21
29.35758628282263
 31
0.0
  0
LINE
  5
3D4
330
3A4
100
AcDbEntity
  8
0
 62
     0
100
AcDbLine
 10
61.63153448975805
 20
14.97216109476534
 30
0.0
 11
59.05047808566076
 21
17.55321749886269
 31
0.0
  0
LINE
  5
3D5
330
3A4
100
AcDbEntity
  8
0
 62
     0
100
AcDbLine
 10
55.55047808566081
 20
20.15519188675568
 30
0.0
 11
52.7504780856608
 21
22.95519188675569
 31
0.0
  0
LINE
  5
3D6
330
3A4
100
AcDbEntity
  8
0
 62
     0
100
AcDbLine
 10
49.14808368959382
 20
26.55758628282262
 30
0.0
 11
46.34808368959393
 21
29.35758628282252
 31
0.0
  0
LINE
  5
3D7
330
3A4
100
AcDbEntity
  8
0
 62
     0
100
AcDbLine
 10
61.30650261383447
 20
14.39916735858196
 30
0.0
 11
58.97896234650125
 21
16.72670762591525
 31
0.0
  0
LINE
  5
3D8
330
3A4
100
AcDbEntity
  8
0
 62
     0
100
AcDbLine
 10
55.55047808566081
 20
19.25716627464885
 30
0.0
 11
52.75047808566085
 21
22.0571662746488
 31
0.0
  0
LINE
  5
3D9
330
3A4
100
AcDbEntity
  8
0
 62
     0
100
AcDbLine
 10
48.25005807748704
 20
26.55758628282256
 30
0.0
 11
45.5124913483096
 21
29.29515301200007
 31
0.0
  0
LINE
  5
3DA
330
3A4
100
AcDbEntity
  8
0
 62
     0
100
AcDbLine
 10
60.87446081650944
 20
13.93318354380016
 30
0.0
 11
58.57737670803373
 21
16.23026765227587
 31
0.0
  0
LINE
  5
3DB
330
3A4
100
AcDbEntity
  8
0
 62
     0
100
AcDbLine
 10
55.55047808566081
 20
18.3591406625419
 30
0.0
 11
52.7504780856608
 21
21.15914066254185
 31
0.0
  0
LINE
  5
3DC
330
3A4
100
AcDbEntity
  8
0
 62
     0
100
AcDbLine
 10
47.35203246538014
 20
26.55758628282256
 30
0.0
 11
44.8478509237762
 21
29.06176782442645
 31
0.0
  0
LINE
  5
3DD
330
3A4
100
AcDbEntity
  8
0
 62
     0
100
AcDbLine
 10
60.3382984715834
 20
13.5713202766193
 30
0.0
 11
57.85203246538014
 21
16.05758628282257
 31
0.0
  0
LINE
  5
3DE
330
3A4
100
AcDbEntity
  8
0
 62
     0
100
AcDbLine
 10
55.55047808566076
 20
17.46111505043495
 30
0.0
 11
52.7504780856608
 21
20.26111505043497
 31
0.0
  0
LINE
  5
3DF
330
3A4
100
AcDbEntity
  8
0
 62
     0
100
AcDbLine
 10
46.47579668129123
 20
26.53579645480448
 30
0.0
 11
44.30524998656601
 21
28.70634314952969
 31
0.0
  0
LINE
  5
3E0
330
3A4
100
AcDbEntity
  8
0
 62
     0
100
AcDbLine
 10
59.6818859116721
 20
13.32970722442365
 30
0.0
 11
56.95400685327314
 21
16.05758628282262
 31
0.0
  0
LINE
  5
3E1
330
3A4
100
AcDbEntity
  8
0
 62
     0
100
AcDbLine
 10
46.10047808566089
 20
26.01308943832788
 30
0.0
 11
43.86713792752146
 21
28.24642959646729
 31
0.0
  0
LINE
  5
3E2
330
3A4
100
AcDbEntity
  8
0
 62
     0
100
AcDbLine
 10
58.85598124116626
 20
13.25758628282255
 30
0.0
 11
52.7504780856608
 21
19.36308943832801
 31
0.0
  0
LINE
  5
3E3
330
3A4
100
AcDbEntity
  8
0
 62
     0
100
AcDbLine
 10
46.10047808566089
 20
25.11506382622111
 30
0.0
 11
43.53536701516843
 21
27.68017489671354
 31
0.0
  0
LINE
  5
3E4
330
3A4
100
AcDbEntity
  8
0
 62
     0
100
AcDbLine
 10
57.95795562905937
 20
13.25758628282255
 30
0.0
 11
52.7504780856608
 21
18.46506382622118
 31
0.0
  0
LINE
  5
3E5
330
3A4
100
AcDbEntity
  8
0
 62
     0
100
AcDbLine
 10
46.30702236676467
 20
24.01049393301036
 30
0.0
 11
43.33318849580432
 21
26.98432780397065
 31
0.0
  0
LINE
  5
3E6
330
3A4
100
AcDbEntity
  8
0
 62
     0
100
AcDbLine
 10
57.05993001695246
 20
13.25758628282255
 30
0.0
 11
52.7504780856608
 21
17.56703821411423
 31
0.0
  0
LINE
  5
3E7
330
3A4
100
AcDbEntity
  8
0
 62
     0
100
AcDbLine
 10
50.52408178835225
 20
18.89540889931583
 30
0.0
 11
43.30047808566075
 21
26.11901260200733
 31
0.0
  0
LINE
  5
3E8
330
3A4
100
AcDbEntity
  8
0
 62
     0
100
AcDbLine
 10
41.20047808566073
 20
28.21901260200729
 30
0.0
 11
40.06190440484544
 21
29.35758628282263
 31
0.0
  0
LINE
  5
3E9
330
3A4
100
AcDbEntity
  8
0
 62
     0
100
AcDbLine
 10
56.16190440484554
 20
13.25758628282255
 30
0.0
 11
52.75047808566075
 21
16.66901260200727
 31
0.0
  0
LINE
  5
3EA
330
3A4
100
AcDbEntity
  8
0
 62
     0
100
AcDbLine
 10
50.65047808566088
 20
17.87098698990035
 30
0.0
 11
43.30047808566081
 21
25.22098698990044
 31
0.0
  0
LINE
  5
3EB
330
3A4
100
AcDbEntity
  8
0
 62
     0
100
AcDbLine
 10
41.20047808566083
 20
27.32098698990034
 30
0.0
 11
39.16387879273855
 21
29.35758628282269
 31
0.0
  0
LINE
  5
3EC
330
3A4
100
AcDbEntity
  8
0
 62
     0
100
AcDbLine
 10
55.24743091399376
 20
13.2740341615675
 30
0.0
 11
52.76692596440574
 21
15.7545391111555
 31
0.0
  0
LINE
  5
3ED
330
3A4
100
AcDbEntity
  8
0
 62
     0
100
AcDbLine
 10
41.20047808566083
 20
26.42296137779345
 30
0.0
 11
38.49308819788552
 21
29.13035126556872
 31
0.0
  0
LINE
  5
3EE
330
3A4
100
AcDbEntity
  8
0
 62
     0
100
AcDbLine
 10
50.65047808566084
 20
16.97296137779341
 30
0.0
 11
43.32388875354321
 21
24.2995507099111
 31
0.0
  0
LINE
  5
3EF
330
3A4
100
AcDbEntity
  8
0
 62
     0
100
AcDbLine
 10
41.20047808566083
 20
25.5249357656865
 30
0.0
 11
38.40047808566078
 21
28.32493576568657
 31
0.0
  0
LINE
  5
3F0
330
3A4
100
AcDbEntity
  8
0
 62
     0
100
AcDbLine
 10
50.65047808566071
 20
16.07493576568657
 30
0.0
 11
43.64200817138321
 21
23.08340567996413
 31
0.0
  0
LINE
  5
3F1
330
3A4
100
AcDbEntity
  8
0
 62
     0
100
AcDbLine
 10
41.20047808566083
 20
24.62691015357961
 30
0.0
 11
38.40047808566078
 21
27.42691015357962
 31
0.0
  0
LINE
  5
3F2
330
3A4
100
AcDbEntity
  8
0
 62
     0
100
AcDbLine
 10
50.54191626807176
 20
15.2854719711687
 30
0.0
 11
47.84628147903345
 21
17.98110676020701
 31
0.0
  0
LINE
  5
3F3
330
3A4
100
AcDbEntity
  8
0
 62
     0
100
AcDbLine
 10
41.20047808566083
 20
23.72888454147272
 30
0.0
 11
38.40047808566078
 21
26.52888454147279
 31
0.0
  0
LINE
  5
3F4
330
3A4
100
AcDbEntity
  8
0
 62
     0
100
AcDbLine
 10
36.10899118508382
 20
28.82037144204969
 30
0.0
 11
35.57177634431093
 21
29.35758628282263
 31
0.0
  0
LINE
  5
3F5
330
3A4
100
AcDbEntity
  8
0
 62
     0
100
AcDbLine
 10
50.2740405603102
 20
14.65532206682337
 30
0.0
 11
47.85047808566089
 21
17.07888454147268
 31
0.0
  0
LINE
  5
3F6
330
3A4
100
AcDbEntity
  8
0
 62
     0
100
AcDbLine
 10
41.20047808566079
 20
22.83085892936577
 30
0.0
 11
38.40047808566078
 21
25.63085892936584
 31
0.0
  0
LINE
  5
3F7
330
3A4
100
AcDbEntity
  8
0
 62
     0
100
AcDbLine
 10
35.91006352083122
 20
28.12127349419535
 30
0.0
 11
34.67375073220398
 21
29.35758628282263
 31
0.0
  0
LINE
  5
3F8
330
3A4
100
AcDbEntity
  8
0
 62
     0
100
AcDbLine
 10
49.8910537621349
 20
14.14028325289172
 30
0.0
 11
47.75319290277439
 21
16.27814411225222
 31
0.0
  0
LINE
  5
3F9
330
3A4
100
AcDbEntity
  8
0
 62
     0
100
AcDbLine
 10
41.20047808566079
 20
21.93283331725888
 30
0.0
 11
38.40047808566072
 21
24.73283331725889
 31
0.0
  0
LINE
  5
3FA
330
3A4
100
AcDbEntity
  8
0
 62
     0
100
AcDbLine
 10
35.69453737392553
 20
27.43877402899409
 30
0.0
 11
33.78532181045494
 21
29.34798959246473
 31
0.0
  0
LINE
  5
3FB
330
3A4
100
AcDbEntity
  8
0
 62
     0
100
AcDbLine
 10
49.40473479701927
 20
13.72857660590034
 30
0.0
 11
47.07572512009703
 21
16.05758628282262
 31
0.0
  0
LINE
  5
3FC
330
3A4
100
AcDbEntity
  8
0
 62
     0
100
AcDbLine
 10
41.20047808566083
 20
21.03480770515198
 30
0.0
 11
38.40047808566078
 21
23.83480770515205
 31
0.0
  0
LINE
  5
3FD
330
3A4
100
AcDbEntity
  8
0
 62
     0
100
AcDbLine
 10
35.47901122702
 20
26.75627456379283
 30
0.0
 11
33.35101122701996
 21
28.88427456379287
 31
0.0
  0
LINE
  5
3FE
330
3A4
100
AcDbEntity
  8
0
 62
     0
100
AcDbLine
 10
48.80865084855891
 20
13.42663494225388
 30
0.0
 11
46.17769950799014
 21
16.05758628282268
 31
0.0
  0
LINE
  5
3FF
330
3A4
100
AcDbEntity
  8
0
 62
     0
100
AcDbLine
 10
41.20047808566079
 20
20.13678209304509
 30
0.0
 11
38.40047808566072
 21
22.9367820930451
 31
0.0
  0
LINE
  5
400
330
3A4
100
AcDbEntity
  8
0
 62
     0
100
AcDbLine
 10
35.26348508011415
 20
26.07377509859174
 30
0.0
 11
33.13548508011416
 21
28.20177509859172
 31
0.0
  0
LINE
  5
401
330
3A4
100
AcDbEntity
  8
0
 62
     0
100
AcDbLine
 10
48.07097819691144
 20
13.26628198179446
 30
0.0
 11
45.27967389588325
 21
16.05758628282262
 31
0.0
  0
LINE
  5
402
330
3A4
100
AcDbEntity
  8
0
 62
     0
100
AcDbLine
 10
41.20047808566079
 20
19.23875648093815
 30
0.0
 11
38.40047808566078
 21
22.0387564809381
 31
0.0
  0
LINE
  5
403
330
3A4
100
AcDbEntity
  8
0
 62
     0
100
AcDbLine
 10
35.04795893320857
 20
25.39127563339036
 30
0.0
 11
32.91995893320847
 21
27.5192756333904
 31
0.0
  0
LINE
  5
404
330
3A4
100
AcDbEntity
  8
0
 62
     0
100
AcDbLine
 10
47.18164828377637
 20
13.25758628282255
 30
0.0
 11
44.38164828377631
 21
16.05758628282262
 31
0.0
  0
LINE
  5
405
330
3A4
100
AcDbEntity
  8
0
 62
     0
100
AcDbLine
 10
41.20047808566079
 20
18.34073086883125
 30
0.0
 11
38.40047808566083
 21
21.14073086883127
 31
0.0
  0
LINE
  5
406
330
3A4
100
AcDbEntity
  8
0
 62
     0
100
AcDbLine
 10
34.83243278630295
 20
24.70877616818916
 30
0.0
 11
32.70443278630284
 21
26.8367761681892
 31
0.0
  0
LINE
  5
407
330
3A4
100
AcDbEntity
  8
0
 62
     0
100
AcDbLine
 10
46.28362267166949
 20
13.25758628282261
 30
0.0
 11
43.85001097437309
 21
15.691197980119
 31
0.0
  0
LINE
  5
408
330
3A4
100
AcDbEntity
  8
0
 62
     0
100
AcDbLine
 10
34.61690663939731
 20
24.02627670298778
 30
0.0
 11
32.48890663939722
 21
26.15427670298795
 31
0.0
  0
LINE
  5
409
330
3A4
100
AcDbEntity
  8
0
 62
     0
100
AcDbLine
 10
41.20047808566079
 20
17.44270525672436
 30
0.0
 11
38.40047808566083
 21
20.24270525672432
 31
0.0
  0
LINE
  5
40A
330
3A4
100
AcDbEntity
  8
0
 62
     0
100
AcDbLine
 10
30.35047808566082
 20
28.29270525672433
 30
0.0
 11
29.28559705956251
 21
29.35758628282258
 31
0.0
  0
LINE
  5
40B
330
3A4
100
AcDbEntity
  8
0
 62
     0
100
AcDbLine
 10
45.38559705956259
 20
13.25758628282255
 30
0.0
 11
43.82547808566084
 21
14.8177052567243
 31
0.0
  0
LINE
  5
40C
330
3A4
100
AcDbEntity
  8
0
 62
     0
100
AcDbLine
 10
34.40138049249152
 20
23.34377723778669
 30
0.0
 11
32.27338049249158
 21
25.47177723778662
 31
0.0
  0
LINE
  5
40D
330
3A4
100
AcDbEntity
  8
0
 62
     0
100
AcDbLine
 10
41.20047808566079
 20
16.54467964461741
 30
0.0
 11
38.40047808566078
 21
19.34467964461743
 31
0.0
  0
LINE
  5
40E
330
3A4
100
AcDbEntity
  8
0
 62
     0
100
AcDbLine
 10
30.35047808566082
 20
27.39467964461738
 30
0.0
 11
28.38757144745562
 21
29.35758628282258
 31
0.0
  0
LINE
  5
40F
330
3A4
100
AcDbEntity
  8
0
 62
     0
100
AcDbLine
 10
44.48757144745559
 20
13.25758628282261
 30
0.0
 11
43.82547808566079
 21
13.91967964461736
 31
0.0
  0
LINE
  5
410
330
3A4
100
AcDbEntity
  8
0
 62
     0
100
AcDbLine
 10
34.18585434558588
 20
22.66127777258537
 30
0.0
 11
32.05785434558583
 21
24.78927777258542
 31
0.0
  0
LINE
  5
411
330
3A4
100
AcDbEntity
  8
0
 62
     0
100
AcDbLine
 10
30.35047808566077
 20
26.49665403251043
 30
0.0
 11
27.67503315676316
 21
29.17209896140809
 31
0.0
  0
LINE
  5
412
330
3A4
100
AcDbEntity
  8
0
 62
     0
100
AcDbLine
 10
41.20047808566073
 20
15.64665403251052
 30
0.0
 11
38.40047808566078
 21
18.44665403251048
 31
0.0
  0
LINE
  5
413
330
3A4
100
AcDbEntity
  8
0
 62
     0
100
AcDbLine
 10
33.97032819868025
 20
21.97877830738417
 30
0.0
 11
31.84232819868026
 21
24.10677830738416
 31
0.0
  0
LINE
  5
414
330
3A4
100
AcDbEntity
  8
0
 62
     0
100
AcDbLine
 10
30.35047808566082
 20
25.59862842040359
 30
0.0
 11
27.55047808566075
 21
28.39862842040361
 31
0.0
  0
LINE
  5
415
330
3A4
100
AcDbEntity
  8
0
 62
     0
100
AcDbLine
 10
41.20047808566079
 20
14.74862842040363
 30
0.0
 11
38.40047808566078
 21
17.54862842040358
 31
0.0
  0
LINE
  5
416
330
3A4
100
AcDbEntity
  8
0
 62
     0
100
AcDbLine
 10
33.7652396892882
 20
21.28584120466928
 30
0.0
 11
31.62680205177451
 21
23.42427884218295
 31
0.0
  0
LINE
  5
417
330
3A4
100
AcDbEntity
  8
0
 62
     0
100
AcDbLine
 10
30.35047808566082
 20
24.70060280829665
 30
0.0
 11
27.55047808566075
 21
27.50060280829671
 31
0.0
  0
LINE
  5
418
330
3A4
100
AcDbEntity
  8
0
 62
     0
100
AcDbLine
 10
41.20047808566073
 20
13.85060280829668
 30
0.0
 11
38.40047808566078
 21
16.65060280829669
 31
0.0
  0
LINE
  5
419
330
3A4
100
AcDbEntity
  8
0
 62
     0
100
AcDbLine
 10
34.1797130487222
 20
19.97334223312833
 30
0.0
 11
31.33625455608989
 21
22.81680072576063
 31
0.0
  0
LINE
  5
41A
330
3A4
100
AcDbEntity
  8
0
 62
     0
100
AcDbLine
 10
30.35047808566088
 20
23.80257719618964
 30
0.0
 11
27.5504780856607
 21
26.60257719618977
 31
0.0
  0
LINE
  5
41B
330
3A4
100
AcDbEntity
  8
0
 62
     0
100
AcDbLine
 10
40.8614330883284
 20
13.29162219352207
 30
0.0
 11
38.40047808566078
 21
15.75257719618974
 31
0.0
  0
LINE
  5
41C
330
3A4
100
AcDbEntity
  8
0
 62
     0
100
AcDbLine
 10
34.59418640815619
 20
18.6608432615875
 30
0.0
 11
27.55047808566075
 21
25.70455158408293
 31
0.0
  0
LINE
  5
41D
330
3A4
100
AcDbEntity
  8
0
 62
     0
100
AcDbLine
 10
25.10047808566088
 20
28.15455158408281
 30
0.0
 11
23.89744338692111
 21
29.35758628282258
 31
0.0
  0
LINE
  5
41E
330
3A4
100
AcDbEntity
  8
0
 62
     0
100
AcDbLine
 10
39.99744338692114
 20
13.25758628282255
 30
0.0
 11
38.40047808566089
 21
14.8545515840828
 31
0.0
  0
LINE
  5
41F
330
3A4
100
AcDbEntity
  8
0
 62
     0
100
AcDbLine
 10
35.00865976759024
 20
17.34834429004649
 30
0.0
 11
27.55047808566075
 21
24.80652597197599
 31
0.0
  0
LINE
  5
420
330
3A4
100
AcDbEntity
  8
0
 62
     0
100
AcDbLine
 10
25.10047808566088
 20
27.25652597197586
 30
0.0
 11
22.9994177748141
 21
29.35758628282263
 31
0.0
  0
LINE
  5
421
330
3A4
100
AcDbEntity
  8
0
 62
     0
100
AcDbLine
 10
39.09941777481418
 20
13.2575862828225
 30
0.0
 11
38.40047808566083
 21
13.9565259719759
 31
0.0
  0
LINE
  5
422
330
3A4
100
AcDbEntity
  8
0
 62
     0
100
AcDbLine
 10
24.83357139027077
 20
26.62540705525902
 30
0.0
 11
22.13334967205935
 21
29.32562877347038
 31
0.0
  0
LINE
  5
423
330
3A4
100
AcDbEntity
  8
0
 62
     0
100
AcDbLine
 10
35.42313312702418
 20
16.0358453185056
 30
0.0
 11
27.55047808566081
 21
23.90850035986898
 31
0.0
  0
LINE
  5
424
330
3A4
100
AcDbEntity
  8
0
 62
     0
100
AcDbLine
 10
30.68798700800243
 20
19.87296582542046
 30
0.0
 11
27.55047808566081
 21
23.01047474776209
 31
0.0
  0
LINE
  5
425
330
3A4
100
AcDbEntity
  8
0
 62
     0
100
AcDbLine
 10
24.00336655060033
 20
26.55758628282252
 30
0.0
 11
21.39530660247209
 21
29.16564623095081
 31
0.0
  0
LINE
  5
426
330
3A4
100
AcDbEntity
  8
0
 62
     0
100
AcDbLine
 10
35.83760648645824
 20
14.72334634696466
 30
0.0
 11
31.74529879415013
 21
18.81565403927277
 31
0.0
  0
LINE
  5
427
330
3A4
100
AcDbEntity
  8
0
 62
     0
100
AcDbLine
 10
30.35047808566088
 20
19.31244913565512
 30
0.0
 11
27.55047808566081
 21
22.11244913565519
 31
0.0
  0
LINE
  5
428
330
3A4
100
AcDbEntity
  8
0
 62
     0
100
AcDbLine
 10
23.10534093849332
 20
26.55758628282262
 30
0.0
 11
20.75658518664135
 21
28.90634203467459
 31
0.0
  0
LINE
  5
429
330
3A4
100
AcDbEntity
  8
0
 62
     0
100
AcDbLine
 10
36.07264534416885
 20
13.5902818771471
 30
0.0
 11
32.15977215358407
 21
17.50315506773192
 31
0.0
  0
LINE
  5
42A
330
3A4
100
AcDbEntity
  8
0
 62
     0
100
AcDbLine
 10
30.35047808566082
 20
18.41442352354823
 30
0.0
 11
27.55047808566075
 21
21.21442352354824
 31
0.0
  0
LINE
  5
42B
330
3A4
100
AcDbEntity
  8
0
 62
     0
100
AcDbLine
 10
22.26222743594979
 20
26.50267417325926
 30
0.0
 11
20.19783621130682
 21
28.56706539790224
 31
0.0
  0
LINE
  5
42C
330
3A4
100
AcDbEntity
  8
0
 62
     0
100
AcDbLine
 10
35.5073153263865
 20
13.25758628282255
 30
0.0
 11
32.57424551301812
 21
16.19065609619087
 31
0.0
  0
LINE
  5
42D
330
3A4
100
AcDbEntity
  8
0
 62
     0
100
AcDbLine
 10
30.35047808566082
 20
17.51639791144128
 30
0.0
 11
27.55047808566075
 21
20.31639791144135
 31
0.0
  0
LINE
  5
42E
330
3A4
100
AcDbEntity
  8
0
 62
     0
100
AcDbLine
 10
21.6903712431108
 20
26.1765047539913
 30
0.0
 11
19.71018100269503
 21
28.15669499440707
 31
0.0
  0
LINE
  5
42F
330
3A4
100
AcDbEntity
  8
0
 62
     0
100
AcDbLine
 10
34.60928971427956
 20
13.25758628282255
 30
0.0
 11
32.98871887245207
 21
14.87815712465004
 31
0.0
  0
LINE
  5
430
330
3A4
100
AcDbEntity
  8
0
 62
     0
100
AcDbLine
 10
25.43590721845856
 20
21.53294316653671
 30
0.0
 11
23.92583496937481
 21
23.04301541562046
 31
0.0
  0
LINE
  5
431
330
3A4
100
AcDbEntity
  8
0
 62
     0
100
AcDbLine
 10
30.35047808566094
 20
16.61837229933434
 30
0.0
 11
27.55047808566081
 21
19.41837229933446
 31
0.0
  0
LINE
  5
432
330
3A4
100
AcDbEntity
  8
0
 62
     0
100
AcDbLine
 10
21.33424967298185
 20
25.63460071201342
 30
0.0
 11
19.2908149766838
 21
27.67803540831147
 31
0.0
  0
LINE
  5
433
330
3A4
100
AcDbEntity
  8
0
 62
     0
100
AcDbLine
 10
33.66093109796804
 20
13.30791928702723
 30
0.0
 11
33.41057692637673
 21
13.55827345861854
 31
0.0
  0
LINE
  5
434
330
3A4
100
AcDbEntity
  8
0
 62
     0
100
AcDbLine
 10
25.34939355831665
 20
20.72143121457167
 30
0.0
 11
23.11432301740978
 21
22.95650175547854
 31
0.0
  0
LINE
  5
435
330
3A4
100
AcDbEntity
  8
0
 62
     0
100
AcDbLine
 10
21.25047808566091
 20
24.82034668722741
 30
0.0
 11
18.94187595572214
 21
27.12894881716619
 31
0.0
  0
LINE
  5
436
330
3A4
100
AcDbEntity
  8
0
 62
     0
100
AcDbLine
 10
30.35047808566088
 20
15.72034668722739
 30
0.0
 11
27.55047808566075
 21
18.52034668722757
 31
0.0
  0
LINE
  5
437
330
3A4
100
AcDbEntity
  8
0
 62
     0
100
AcDbLine
 10
25.01753799901861
 20
20.15526116176272
 30
0.0
 11
22.54815296460083
 21
22.62464619618048
 31
0.0
  0
LINE
  5
438
330
3A4
100
AcDbEntity
  8
0
 62
     0
100
AcDbLine
 10
21.25047808566091
 20
23.92232107512046
 30
0.0
 11
18.67129624851196
 21
26.50150291226941
 31
0.0
  0
LINE
  5
439
330
3A4
100
AcDbEntity
  8
0
 62
     0
100
AcDbLine
 10
30.35047808566088
 20
14.82232107512049
 30
0.0
 11
27.55047808566081
 21
17.62232107512056
 31
0.0
  0
LINE
  5
43A
330
3A4
100
AcDbEntity
  8
0
 62
     0
100
AcDbLine
 10
21.25047808566091
 20
23.02429546301357
 30
0.0
 11
18.4965823755861
 21
25.77819117308843
 31
0.0
  0
LINE
  5
43B
330
3A4
100
AcDbEntity
  8
0
 62
     0
100
AcDbLine
 10
24.51570455688215
 20
19.75906899179238
 30
0.0
 11
22.15196079463049
 21
22.12281275404405
 31
0.0
  0
LINE
  5
43C
330
3A4
100
AcDbEntity
  8
0
 62
     0
100
AcDbLine
 10
15.82547808566073
 20
28.44929546301375
 30
0.0
 11
14.91718726585185
 21
29.35758628282269
 31
0.0
  0
LINE
  5
43D
330
3A4
100
AcDbEntity
  8
0
 62
     0
100
AcDbLine
 10
30.35047808566094
 20
13.9242954630136
 30
0.0
 11
27.55047808566088
 21
16.72429546301367
 31
0.0
  0
LINE
  5
43E
330
3A4
100
AcDbEntity
  8
0
 62
     0
100
AcDbLine
 10
21.25047808566091
 20
22.12626985090668
 30
0.0
 11
18.45047808566084
 21
24.92626985090675
 31
0.0
  0
LINE
  5
43F
330
3A4
100
AcDbEntity
  8
0
 62
     0
100
AcDbLine
 10
23.81538511445473
 20
19.56136282211287
 30
0.0
 11
21.95425462495097
 21
21.42249331161662
 31
0.0
  0
LINE
  5
440
330
3A4
100
AcDbEntity
  8
0
 62
     0
100
AcDbLine
 10
15.82547808566073
 20
27.55126985090686
 30
0.0
 11
14.0191616537449
 21
29.35758628282263
 31
0.0
  0
LINE
  5
441
330
3A4
100
AcDbEntity
  8
0
 62
     0
100
AcDbLine
 10
30.06257428439022
 20
13.31417365217737
 30
0.0
 11
27.55047808566081
 21
15.82626985090672
 31
0.0
  0
LINE
  5
442
330
3A4
100
AcDbEntity
  8
0
 62
     0
100
AcDbLine
 10
21.25047808566091
 20
21.22824423879973
 30
0.0
 11
18.45047808566084
 21
24.0282442387998
 31
0.0
  0
LINE
  5
443
330
3A4
100
AcDbEntity
  8
0
 62
     0
100
AcDbLine
 10
15.71644411539045
 20
26.7622782090702
 30
0.0
 11
13.12113604163789
 21
29.35758628282269
 31
0.0
  0
LINE
  5
444
330
3A4
100
AcDbEntity
  8
0
 62
     0
100
AcDbLine
 10
29.22113604163809
 20
13.2575862828225
 30
0.0
 11
27.55047808566081
 21
14.92824423879983
 31
0.0
  0
LINE
  5
445
330
3A4
100
AcDbEntity
  8
0
 62
     0
100
AcDbLine
 10
21.25047808566085
 20
20.33021862669284
 30
0.0
 11
18.45047808566079
 21
23.13021862669285
 31
0.0
  0
LINE
  5
446
330
3A4
100
AcDbEntity
  8
0
 62
     0
100
AcDbLine
 10
15.02311042953112
 20
26.55758628282256
 30
0.0
 11
12.223110429531
 21
29.35758628282269
 31
0.0
  0
LINE
  5
447
330
3A4
100
AcDbEntity
  8
0
 62
     0
100
AcDbLine
 10
28.32311042953108
 20
13.25758628282255
 30
0.0
 11
27.55047808566081
 21
14.03021862669288
 31
0.0
  0
LINE
  5
448
330
3A4
100
AcDbEntity
  8
0
 62
     0
100
AcDbLine
 10
21.25047808566091
 20
19.43219301458595
 30
0.0
 11
18.45047808566084
 21
22.23219301458601
 31
0.0
  0
LINE
  5
449
330
3A4
100
AcDbEntity
  8
0
 62
     0
100
AcDbLine
 10
14.12508481742423
 20
26.55758628282256
 30
0.0
 11
11.35995554531933
 21
29.32271555492752
 31
0.0
  0
LINE
  5
44A
330
3A4
100
AcDbEntity
  8
0
 62
     0
100
AcDbLine
 10
25.09787563682391
 20
15.58479546342289
 30
0.0
 11
24.6276872662612
 21
16.05498383398566
 31
0.0
  0
LINE
  5
44B
330
3A4
100
AcDbEntity
  8
0
 62
     0
100
AcDbLine
 10
21.25047808566085
 20
18.53416740247899
 30
0.0
 11
18.45047808566084
 21
21.33416740247906
 31
0.0
  0
LINE
  5
44C
330
3A4
100
AcDbEntity
  8
0
 62
     0
100
AcDbLine
 10
13.22705920531734
 20
26.55758628282256
 30
0.0
 11
10.66682073684086
 21
29.11782475129906
 31
0.0
  0
LINE
  5
44D
330
3A4
100
AcDbEntity
  8
0
 62
     0
100
AcDbLine
 10
25.10047808566082
 20
14.68416740247903
 30
0.0
 11
23.72705920531728
 21
16.05758628282262
 31
0.0
  0
LINE
  5
44E
330
3A4
100
AcDbEntity
  8
0
 62
     0
100
AcDbLine
 10
21.25047808566085
 20
17.6361417903721
 30
0.0
 11
18.45047808566089
 21
20.43614179037206
 31
0.0
  0
LINE
  5
44F
330
3A4
100
AcDbEntity
  8
0
 62
     0
100
AcDbLine
 10
12.32903359321039
 20
26.55758628282252
 30
0.0
 11
10.10257407699362
 21
28.78404579903929
 31
0.0
  0
LINE
  5
450
330
3A4
100
AcDbEntity
  8
0
 62
     0
100
AcDbLine
 10
25.10047808566082
 20
13.78614179037214
 30
0.0
 11
22.82903359321039
 21
16.05758628282251
 31
0.0
  0
LINE
  5
451
330
3A4
100
AcDbEntity
  8
0
 62
     0
100
AcDbLine
 10
11.8187407655958
 20
26.16985349833032
 30
0.0
 11
9.644481264752867
 21
28.34411299917326
 31
0.0
  0
LINE
  5
452
330
3A4
100
AcDbEntity
  8
0
 62
     0
100
AcDbLine
 10
24.71274530116852
 20
13.2758489627576
 30
0.0
 11
18.45047808566089
 21
19.53811617826522
 31
0.0
  0
LINE
  5
453
330
3A4
100
AcDbEntity
  8
0
 62
     0
100
AcDbLine
 10
11.80047808566087
 20
25.29009056615831
 30
0.0
 11
9.291000062283783
 21
27.79956858953539
 31
0.0
  0
LINE
  5
454
330
3A4
100
AcDbEntity
  8
0
 62
     0
100
AcDbLine
 10
23.83298236899662
 20
13.25758628282255
 30
0.0
 11
18.45047808566089
 21
18.64009056615827
 31
0.0
  0
LINE
  5
455
330
3A4
100
AcDbEntity
  8
0
 62
     0
100
AcDbLine
 10
11.86261379379629
 20
24.32992924591587
 30
0.0
 11
9.060119959990061
 21
27.13242307972217
 31
0.0
  0
LINE
  5
456
330
3A4
100
AcDbEntity
  8
0
 62
     0
100
AcDbLine
 10
22.93495675688962
 20
13.25758628282261
 30
0.0
 11
18.45047808566084
 21
17.74206495405132
 31
0.0
  0
LINE
  5
457
330
3A4
100
AcDbEntity
  8
0
 62
     0
100
AcDbLine
 10
16.15485417688353
 20
19.13966325072181
 30
0.0
 11
9.000478085660914
 21
26.29403934194443
 31
0.0
  0
LINE
  5
458
330
3A4
100
AcDbEntity
  8
0
 62
     0
100
AcDbLine
 10
21.98365905772607
 20
13.31085836987927
 30
0.0
 11
18.5037501727175
 21
16.79076725488783
 31
0.0
  0
LINE
  5
459
330
3A4
100
AcDbEntity
  8
0
 62
     0
100
AcDbLine
 10
16.34674869096875
 20
18.04974312452969
 30
0.0
 11
9.000478085660803
 21
25.39601372983764
 31
0.0
  0
LINE
  5
45A
330
3A4
100
AcDbEntity
  8
0
 62
     0
100
AcDbLine
 10
20.60985114512448
 20
13.78664067037391
 30
0.0
 11
18.97953247321209
 21
15.41695934228636
 31
0.0
  0
LINE
  5
45B
330
3A4
100
AcDbEntity
  8
0
 62
     0
100
AcDbLine
 10
16.35047808566088
 20
17.14798811773062
 30
0.0
 11
9.008042533083196
 21
24.49042367030824
 31
0.0
  0
LINE
  5
45C
330
3A4
100
AcDbEntity
  8
0
 62
     0
100
AcDbLine
 10
16.35047808566082
 20
16.24996250562372
 30
0.0
 11
9.231333291407054
 21
23.36910729987744
 31
0.0
  0
LINE
  5
45D
330
3A4
100
AcDbEntity
  8
0
 62
     0
100
AcDbLine
 10
16.27795808952891
 20
15.4244568896488
 30
0.0
 11
13.51456644590985
 21
18.18784853326786
 31
0.0
  0
LINE
  5
45E
330
3A4
100
AcDbEntity
  8
0
 62
     0
100
AcDbLine
 10
16.03602015050006
 20
14.7683692165707
 30
0.0
 11
13.55047808566081
 21
17.25391128140995
 31
0.0
  0
LINE
  5
45F
330
3A4
100
AcDbEntity
  8
0
 62
     0
100
AcDbLine
 10
15.67390090311829
 20
14.23246285184552
 30
0.0
 11
13.51457905336013
 21
16.39178470160368
 31
0.0
  0
LINE
  5
460
330
3A4
100
AcDbEntity
  8
0
 62
     0
100
AcDbLine
 10
15.20767453085142
 20
13.8006636120055
 30
0.0
 11
12.9507518600343
 21
16.05758628282268
 31
0.0
  0
LINE
  5
461
330
3A4
100
AcDbEntity
  8
0
 62
     0
100
AcDbLine
 10
14.6344100831186
 20
13.47590244763142
 30
0.0
 11
12.05272624792735
 21
16.05758628282262
 31
0.0
  0
LINE
  5
462
330
3A4
100
AcDbEntity
  8
0
 62
     0
100
AcDbLine
 10
13.92899749403267
 20
13.28328942461041
 30
0.0
 11
11.15470063582046
 21
16.05758628282262
 31
0.0
  0
LINE
  5
463
330
3A4
100
AcDbEntity
  8
0
 62
     0
100
AcDbLine
 10
13.05667502371363
 20
13.25758628282244
 30
0.0
 11
10.25667502371351
 21
16.05758628282262
 31
0.0
  0
LINE
  5
464
330
3A4
100
AcDbEntity
  8
0
 62
     0
100
AcDbLine
 10
12.15864941160669
 20
13.25758628282255
 30
0.0
 11
9.605325516788806
 21
15.81091017764049
 31
0.0
  0
LINE
  5
465
330
3A4
100
AcDbEntity
  8
0
 62
     0
100
AcDbLine
 10
11.26062379949979
 20
13.25758628282255
 30
0.0
 11
9.525478085660836
 21
14.99273199666151
 31
0.0
  0
LINE
  5
466
330
3A4
100
AcDbEntity
  8
0
 62
     0
100
AcDbLine
 10
10.36259818739284
 20
13.25758628282255
 30
0.0
 11
9.525478085660836
 21
14.09470638455457
 31
0.0
  0
LINE
  5
467
330
3A4
100
AcDbEntity
  8
0
 62
     0
100
AcDbLine
 10
66.34216537032779
 20
13.27071805994012
 30
0.0
 11
66.73734630854358
 21
13.66589899815591
 31
0.0
  0
LINE
  5
468
330
3A4
100
AcDbEntity
  8
0
 62
     0
100
AcDbLine
 10
65.43100798110335
 20
13.2575862828225
 30
0.0
 11
66.75047808566103
 21
14.57705638738019
 31
0.0
  0
LINE
  5
469
330
3A4
100
AcDbEntity
  8
0
 62
     0
100
AcDbLine
 10
64.53298236899644
 20
13.2575862828225
 30
0.0
 11
66.75047808566103
 21
15.47508199948708
 31
0.0
  0
LINE
  5
46A
330
3A4
100
AcDbEntity
  8
0
 62
     0
100
AcDbLine
 10
63.9816756489127
 20
13.6043051748457
 30
0.0
 11
66.75047808566097
 21
16.37310761159403
 31
0.0
  0
LINE
  5
46B
330
3A4
100
AcDbEntity
  8
0
 62
     0
100
AcDbLine
 10
63.9504780856609
 20
14.47113322370086
 30
0.0
 11
66.75047808566097
 21
17.27113322370087
 31
0.0
  0
LINE
  5
46C
330
3A4
100
AcDbEntity
  8
0
 62
     0
100
AcDbLine
 10
63.95047808566096
 20
15.36915883580775
 30
0.0
 11
66.75047808566097
 21
18.16915883580782
 31
0.0
  0
LINE
  5
46D
330
3A4
100
AcDbEntity
  8
0
 62
     0
100
AcDbLine
 10
63.9504780856609
 20
16.26718444791469
 30
0.0
 11
66.75047808566097
 21
19.06718444791477
 31
0.0
  0
LINE
  5
46E
330
3A4
100
AcDbEntity
  8
0
 62
     0
100
AcDbLine
 10
63.9504780856609
 20
17.16521006002159
 30
0.0
 11
66.75047808566097
 21
19.96521006002166
 31
0.0
  0
LINE
  5
46F
330
3A4
100
AcDbEntity
  8
0
 62
     0
100
AcDbLine
 10
60.37704294772618
 20
13.59177492208686
 30
0.0
 11
61.51628944639674
 21
14.73102142075748
 31
0.0
  0
LINE
  5
470
330
3A4
100
AcDbEntity
  8
0
 62
     0
100
AcDbLine
 10
63.9504780856609
 20
18.06323567212848
 30
0.0
 11
66.75047808566097
 21
20.86323567212855
 31
0.0
  0
LINE
  5
471
330
3A4
100
AcDbEntity
  8
0
 62
     0
100
AcDbLine
 10
59.14647478120339
 20
13.25923236767096
 30
0.0
 11
61.84883200081269
 21
15.96158958728023
 31
0.0
  0
LINE
  5
472
330
3A4
100
AcDbEntity
  8
0
 62
     0
100
AcDbLine
 10
63.9504780856609
 20
18.96126128423543
 30
0.0
 11
66.75047808566097
 21
21.76126128423544
 31
0.0
  0
LINE
  5
473
330
3A4
100
AcDbEntity
  8
0
 62
     0
100
AcDbLine
 10
58.24680308424797
 20
13.2575862828225
 30
0.0
 11
61.850478085661
 21
16.86126128423546
 31
0.0
  0
LINE
  5
474
330
3A4
100
AcDbEntity
  8
0
 62
     0
100
AcDbLine
 10
63.9504780856609
 20
19.85928689634232
 30
0.0
 11
66.7504780856609
 21
22.65928689634239
 31
0.0
  0
LINE
  5
475
330
3A4
100
AcDbEntity
  8
0
 62
     0
100
AcDbLine
 10
57.34877747214107
 20
13.2575862828225
 30
0.0
 11
61.85047808566093
 21
17.75928689634241
 31
0.0
  0
LINE
  5
476
330
3A4
100
AcDbEntity
  8
0
 62
     0
100
AcDbLine
 10
63.9504780856609
 20
20.75731250844921
 30
0.0
 11
66.75047808566097
 21
23.55731250844928
 31
0.0
  0
LINE
  5
477
330
3A4
100
AcDbEntity
  8
0
 62
     0
100
AcDbLine
 10
56.45075186003424
 20
13.25758628282255
 30
0.0
 11
61.850478085661
 21
18.6573125084493
 31
0.0
  0
LINE
  5
478
330
3A4
100
AcDbEntity
  8
0
 62
     0
100
AcDbLine
 10
58.94588688357988
 20
16.65074691847513
 30
0.0
 11
61.850478085661
 21
19.5553381205562
 31
0.0
  0
LINE
  5
479
330
3A4
100
AcDbEntity
  8
0
 62
     0
100
AcDbLine
 10
63.9504780856609
 20
21.65533812055612
 30
0.0
 11
66.75047808566097
 21
24.45533812055618
 31
0.0
  0
LINE
  5
47A
330
3A4
100
AcDbEntity
  8
0
 62
     0
100
AcDbLine
 10
55.55272624792724
 20
13.2575862828225
 30
0.0
 11
58.45731745000836
 21
16.16217748490356
 31
0.0
  0
LINE
  5
47B
330
3A4
100
AcDbEntity
  8
0
 62
     0
100
AcDbLine
 10
59.05047808566087
 20
17.65336373266308
 30
0.0
 11
61.85047808566093
 21
20.45336373266315
 31
0.0
  0
LINE
  5
47C
330
3A4
100
AcDbEntity
  8
0
 62
     0
100
AcDbLine
 10
63.95047808566085
 20
22.55336373266306
 30
0.0
 11
66.7504780856609
 21
25.35336373266313
 31
0.0
  0
LINE
  5
47D
330
3A4
100
AcDbEntity
  8
0
 62
     0
100
AcDbLine
 10
54.76665038719755
 20
13.36953603419971
 30
0.0
 11
57.45470063582041
 21
16.05758628282257
 31
0.0
  0
LINE
  5
47E
330
3A4
100
AcDbEntity
  8
0
 62
     0
100
AcDbLine
 10
59.05047808566092
 20
18.55138934477008
 30
0.0
 11
61.85047808566093
 21
21.35138934477004
 31
0.0
  0
LINE
  5
47F
330
3A4
100
AcDbEntity
  8
0
 62
     0
100
AcDbLine
 10
63.95047808566085
 20
23.45138934477001
 30
0.0
 11
66.7504780856609
 21
26.25138934477002
 31
0.0
  0
LINE
  5
480
330
3A4
100
AcDbEntity
  8
0
 62
     0
100
AcDbLine
 10
54.1386635199874
 20
13.63957477909656
 30
0.0
 11
56.55755280935784
 21
16.058464068467
 31
0.0
  0
LINE
  5
481
330
3A4
100
AcDbEntity
  8
0
 62
     0
100
AcDbLine
 10
59.05047808566099
 20
19.44941495687698
 30
0.0
 11
61.85047808566093
 21
22.24941495687693
 31
0.0
  0
LINE
  5
482
330
3A4
100
AcDbEntity
  8
0
 62
     0
100
AcDbLine
 10
63.9504780856609
 20
24.34941495687684
 30
0.0
 11
66.7504780856609
 21
27.14941495687691
 31
0.0
  0
LINE
  5
483
330
3A4
100
AcDbEntity
  8
0
 62
     0
100
AcDbLine
 10
53.62540363862233
 20
14.02434050983828
 30
0.0
 11
55.91407422064515
 21
16.31301109186114
 31
0.0
  0
LINE
  5
484
330
3A4
100
AcDbEntity
  8
0
 62
     0
100
AcDbLine
 10
59.05047808566099
 20
20.34744056898387
 30
0.0
 11
61.85047808566093
 21
23.14744056898388
 31
0.0
  0
LINE
  5
485
330
3A4
100
AcDbEntity
  8
0
 62
     0
100
AcDbLine
 10
63.95047808566085
 20
25.24744056898379
 30
0.0
 11
66.7504780856609
 21
28.04744056898385
 31
0.0
  0
LINE
  5
486
330
3A4
100
AcDbEntity
  8
0
 62
     0
100
AcDbLine
 10
53.21543946339722
 20
14.5124019467201
 30
0.0
 11
55.57683594223572
 21
16.87379842555866
 31
0.0
  0
LINE
  5
487
330
3A4
100
AcDbEntity
  8
0
 62
     0
100
AcDbLine
 10
59.05047808566092
 20
21.24546618109082
 30
0.0
 11
61.850478085661
 21
24.04546618109089
 31
0.0
  0
LINE
  5
488
330
3A4
100
AcDbEntity
  8
0
 62
     0
100
AcDbLine
 10
63.95047808566085
 20
26.14546618109068
 30
0.0
 11
66.74032893211045
 21
28.93531702754035
 31
0.0
  0
LINE
  5
489
330
3A4
100
AcDbEntity
  8
0
 62
     0
100
AcDbLine
 10
52.91551458496321
 20
15.11050268039309
 30
0.0
 11
55.55047808566094
 21
17.74546618109076
 31
0.0
  0
LINE
  5
48A
330
3A4
100
AcDbEntity
  8
0
 62
     0
100
AcDbLine
 10
59.05047808566099
 20
22.14349179319765
 30
0.0
 11
61.85047808566105
 21
24.94349179319772
 31
0.0
  0
LINE
  5
48B
330
3A4
100
AcDbEntity
  8
0
 62
     0
100
AcDbLine
 10
63.95047808566085
 20
27.04349179319757
 30
0.0
 11
66.26321458703097
 21
29.3562282945677
 31
0.0
  0
LINE
  5
48C
330
3A4
100
AcDbEntity
  8
0
 62
     0
100
AcDbLine
 10
52.75810105000676
 20
15.85111475754348
 30
0.0
 11
55.55047808566094
 21
18.64349179319765
 31
0.0
  0
LINE
  5
48D
330
3A4
100
AcDbEntity
  8
0
 62
     0
100
AcDbLine
 10
59.05047808566092
 20
23.04151740530461
 30
0.0
 11
61.850478085661
 21
25.84151740530467
 31
0.0
  0
LINE
  5
48E
330
3A4
100
AcDbEntity
  8
0
 62
     0
100
AcDbLine
 10
63.9504780856609
 20
27.94151740530458
 30
0.0
 11
65.3665469631789
 21
29.35758628282258
 31
0.0
  0
LINE
  5
48F
330
3A4
100
AcDbEntity
  8
0
 62
     0
100
AcDbLine
 10
52.75047808566097
 20
16.74151740530459
 30
0.0
 11
55.55047808566097
 21
19.54151740530465
 31
0.0
  0
LINE
  5
490
330
3A4
100
AcDbEntity
  8
0
 62
     0
100
AcDbLine
 10
59.05047808566092
 20
23.93954301741155
 30
0.0
 11
61.850478085661
 21
26.73954301741156
 31
0.0
  0
LINE
  5
491
330
3A4
100
AcDbEntity
  8
0
 62
     0
100
AcDbLine
 10
52.75047808566093
 20
17.63954301741154
 30
0.0
 11
55.55047808566097
 21
20.4395430174116
 31
0.0
  0
LINE
  5
492
330
3A4
100
AcDbEntity
  8
0
 62
     0
100
AcDbLine
 10
63.95052480040835
 20
28.83958973215897
 30
0.0
 11
64.46847463632463
 21
29.3575395680752
 31
0.0
  0
LINE
  5
493
330
3A4
100
AcDbEntity
  8
0
 62
     0
100
AcDbLine
 10
48.42892245494891
 20
13.31798738669948
 30
0.0
 11
50.59007698178408
 21
15.4791419135347
 31
0.0
  0
LINE
  5
494
330
3A4
100
AcDbEntity
  8
0
 62
     0
100
AcDbLine
 10
52.75047808566093
 20
18.53756862951843
 30
0.0
 11
55.55047808566097
 21
21.33756862951849
 31
0.0
  0
LINE
  5
495
330
3A4
100
AcDbEntity
  8
0
 62
     0
100
AcDbLine
 10
59.05047808566092
 20
24.83756862951845
 30
0.0
 11
61.85047808566093
 21
27.63756862951852
 31
0.0
  0
LINE
  5
496
330
3A4
100
AcDbEntity
  8
0
 62
     0
100
AcDbLine
 10
47.47049573896503
 20
13.25758628282261
 30
0.0
 11
50.65047808566088
 21
16.43756862951846
 31
0.0
  0
LINE
  5
497
330
3A4
100
AcDbEntity
  8
0
 62
     0
100
AcDbLine
 10
52.75047808566093
 20
19.43559424162532
 30
0.0
 11
55.55047808566097
 21
22.23559424162539
 31
0.0
  0
LINE
  5
498
330
3A4
100
AcDbEntity
  8
0
 62
     0
100
AcDbLine
 10
59.05047808566092
 20
25.73559424162533
 30
0.0
 11
61.850478085661
 21
28.5355942416254
 31
0.0
  0
LINE
  5
499
330
3A4
100
AcDbEntity
  8
0
 62
     0
100
AcDbLine
 10
46.57247012685814
 20
13.25758628282255
 30
0.0
 11
50.65047808566095
 21
17.3355942416253
 31
0.0
  0
LINE
  5
49A
330
3A4
100
AcDbEntity
  8
0
 62
     0
100
AcDbLine
 10
52.75047808566093
 20
20.33361985373227
 30
0.0
 11
55.55047808566097
 21
23.13361985373228
 31
0.0
  0
LINE
  5
49B
330
3A4
100
AcDbEntity
  8
0
 62
     0
100
AcDbLine
 10
59.05047808566092
 20
26.63361985373223
 30
0.0
 11
61.65674063082684
 21
29.2398823988982
 31
0.0
  0
LINE
  5
49C
330
3A4
100
AcDbEntity
  8
0
 62
     0
100
AcDbLine
 10
45.67444451475124
 20
13.25758628282261
 30
0.0
 11
50.63615948524807
 21
18.21930125331937
 31
0.0
  0
LINE
  5
49D
330
3A4
100
AcDbEntity
  8
0
 62
     0
100
AcDbLine
 10
52.75047808566093
 20
21.23164546583916
 30
0.0
 11
55.55047808566094
 21
24.03164546583923
 31
0.0
  0
LINE
  5
49E
330
3A4
100
AcDbEntity
  8
0
 62
     0
100
AcDbLine
 10
59.05047808566087
 20
27.53164546583918
 30
0.0
 11
60.87641890264433
 21
29.35758628282263
 31
0.0
  0
LINE
  5
49F
330
3A4
100
AcDbEntity
  8
0
 62
     0
100
AcDbLine
 10
44.77641890264431
 20
13.25758628282261
 30
0.0
 11
50.50124711461927
 21
18.98241449479758
 31
0.0
  0
LINE
  5
4A0
330
3A4
100
AcDbEntity
  8
0
 62
     0
100
AcDbLine
 10
52.75047808566093
 20
22.12967107794606
 30
0.0
 11
55.55047808566097
 21
24.92967107794612
 31
0.0
  0
LINE
  5
4A1
330
3A4
100
AcDbEntity
  8
0
 62
     0
100
AcDbLine
 10
47.85047808566105
 20
17.22967107794613
 30
0.0
 11
50.26065965770072
 21
19.63985264998586
 31
0.0
  0
LINE
  5
4A2
330
3A4
100
AcDbEntity
  8
0
 62
     0
100
AcDbLine
 10
59.05047808566092
 20
28.42967107794606
 30
0.0
 11
59.9783932905375
 21
29.35758628282263
 31
0.0
  0
LINE
  5
4A3
330
3A4
100
AcDbEntity
  8
0
 62
     0
100
AcDbLine
 10
44.00664864366853
 20
13.38584163595368
 30
0.0
 11
46.67839329053744
 21
16.05758628282257
 31
0.0
  0
LINE
  5
4A4
330
3A4
100
AcDbEntity
  8
0
 62
     0
100
AcDbLine
 10
47.83060751053364
 20
18.10782611492567
 30
0.0
 11
49.93716035284013
 21
20.21437895723215
 31
0.0
  0
LINE
  5
4A5
330
3A4
100
AcDbEntity
  8
0
 62
     0
100
AcDbLine
 10
52.75047808566093
 20
23.02769669005294
 30
0.0
 11
55.55047808566094
 21
25.82769669005301
 31
0.0
  0
LINE
  5
4A6
330
3A4
100
AcDbEntity
  8
0
 62
     0
100
AcDbLine
 10
43.82547808566096
 20
14.10269669005299
 30
0.0
 11
45.78036767843047
 21
16.05758628282257
 31
0.0
  0
LINE
  5
4A7
330
3A4
100
AcDbEntity
  8
0
 62
     0
100
AcDbLine
 10
47.55622267339474
 20
18.73146688989379
 30
0.0
 11
49.54128923491231
 21
20.71653345141135
 31
0.0
  0
LINE
  5
4A8
330
3A4
100
AcDbEntity
  8
0
 62
     0
100
AcDbLine
 10
52.75047808566085
 20
23.92572230215989
 30
0.0
 11
55.55047808566094
 21
26.72572230215996
 31
0.0
  0
LINE
  5
4A9
330
3A4
100
AcDbEntity
  8
0
 62
     0
100
AcDbLine
 10
43.8254780856609
 20
15.00072230215994
 30
0.0
 11
44.88234206632357
 21
16.05758628282262
 31
0.0
  0
LINE
  5
4AA
330
3A4
100
AcDbEntity
  8
0
 62
     0
100
AcDbLine
 10
52.75047808566093
 20
24.82374791426678
 30
0.0
 11
55.55047808566097
 21
27.6237479142668
 31
0.0
  0
LINE
  5
4AB
330
3A4
100
AcDbEntity
  8
0
 62
     0
100
AcDbLine
 10
47.11494777627769
 20
19.1882176048835
 30
0.0
 11
49.09484676360006
 21
21.16811659220593
 31
0.0
  0
LINE
  5
4AC
330
3A4
100
AcDbEntity
  8
0
 62
     0
100
AcDbLine
 10
46.66593497022421
 20
19.63723041093698
 30
0.0
 11
48.64583395754658
 21
21.6171293982594
 31
0.0
  0
LINE
  5
4AD
330
3A4
100
AcDbEntity
  8
0
 62
     0
100
AcDbLine
 10
52.75047808566085
 20
25.72177352637368
 30
0.0
 11
55.55047808566094
 21
28.52177352637374
 31
0.0
  0
LINE
  5
4AE
330
3A4
100
AcDbEntity
  8
0
 62
     0
100
AcDbLine
 10
40.28629084210972
 20
13.25758628282255
 30
0.0
 11
41.2004780856609
 21
14.17177352637366
 31
0.0
  0
LINE
  5
4AF
330
3A4
100
AcDbEntity
  8
0
 62
     0
100
AcDbLine
 10
46.21692216417073
 20
20.08624321699045
 30
0.0
 11
48.19682115149311
 21
22.06614220431288
 31
0.0
  0
LINE
  5
4B0
330
3A4
100
AcDbEntity
  8
0
 62
     0
100
AcDbLine
 10
52.75047808566085
 20
26.61979913848063
 30
0.0
 11
55.36429717756226
 21
29.23361823038197
 31
0.0
  0
LINE
  5
4B1
330
3A4
100
AcDbEntity
  8
0
 62
     0
100
AcDbLine
 10
39.38826523000278
 20
13.25758628282255
 30
0.0
 11
41.20047808566096
 21
15.06979913848067
 31
0.0
  0
LINE
  5
4B2
330
3A4
100
AcDbEntity
  8
0
 62
     0
100
AcDbLine
 10
45.76790935811725
 20
20.53525602304393
 30
0.0
 11
47.74780834543963
 21
22.51515501036635
 31
0.0
  0
LINE
  5
4B3
330
3A4
100
AcDbEntity
  8
0
 62
     0
100
AcDbLine
 10
52.75047808566085
 20
27.51782475058752
 30
0.0
 11
54.59023961789597
 21
29.35758628282269
 31
0.0
  0
LINE
  5
4B4
330
3A4
100
AcDbEntity
  8
0
 62
     0
100
AcDbLine
 10
38.60185075575789
 20
13.36919742068453
 30
0.0
 11
41.2004780856609
 21
15.96782475058762
 31
0.0
  0
LINE
  5
4B5
330
3A4
100
AcDbEntity
  8
0
 62
     0
100
AcDbLine
 10
45.31889655206384
 20
20.98426882909734
 30
0.0
 11
47.29879553938621
 21
22.96416781641977
 31
0.0
  0
LINE
  5
4B6
330
3A4
100
AcDbEntity
  8
0
 62
     0
100
AcDbLine
 10
52.75047808566085
 20
28.41585036269441
 30
0.0
 11
53.69221400578914
 21
29.35758628282263
 31
0.0
  0
LINE
  5
4B7
330
3A4
100
AcDbEntity
  8
0
 62
     0
100
AcDbLine
 10
38.40047808566095
 20
14.0658503626945
 30
0.0
 11
41.20047808566096
 21
16.86585036269446
 31
0.0
  0
LINE
  5
4B8
330
3A4
100
AcDbEntity
  8
0
 62
     0
100
AcDbLine
 10
44.86988374601037
 20
21.43328163515082
 30
0.0
 11
46.84978273333274
 21
23.41318062247324
 31
0.0
  0
LINE
  5
4B9
330
3A4
100
AcDbEntity
  8
0
 62
     0
100
AcDbLine
 10
38.40047808566095
 20
14.96387597480145
 30
0.0
 11
41.2004780856609
 21
17.76387597480139
 31
0.0
  0
LINE
  5
4BA
330
3A4
100
AcDbEntity
  8
0
 62
     0
100
AcDbLine
 10
44.42289984496905
 20
21.88432334621649
 30
0.0
 11
46.40687337835106
 21
23.86829687959846
 31
0.0
  0
LINE
  5
4BB
330
3A4
100
AcDbEntity
  8
0
 62
     0
100
AcDbLine
 10
38.40047808566095
 20
15.86190158690834
 30
0.0
 11
41.2004780856609
 21
18.66190158690835
 31
0.0
  0
LINE
  5
4BC
330
3A4
100
AcDbEntity
  8
0
 62
     0
100
AcDbLine
 10
49.09616278157511
 20
26.55758628282256
 30
0.0
 11
50.12547808566097
 21
27.58690158690837
 31
0.0
  0
LINE
  5
4BD
330
3A4
100
AcDbEntity
  8
0
 62
     0
100
AcDbLine
 10
35.90782186095072
 20
13.36924536219811
 30
0.0
 11
35.99747422240574
 21
13.45889772365319
 31
0.0
  0
LINE
  5
4BE
330
3A4
100
AcDbEntity
  8
0
 62
     0
100
AcDbLine
 10
44.02489766614706
 20
22.38434677950135
 30
0.0
 11
46.12453194356567
 21
24.48398105691997
 31
0.0
  0
LINE
  5
4BF
330
3A4
100
AcDbEntity
  8
0
 62
     0
100
AcDbLine
 10
38.40047808566095
 20
16.75992719901523
 30
0.0
 11
41.20047808566096
 21
19.55992719901519
 31
0.0
  0
LINE
  5
4C0
330
3A4
100
AcDbEntity
  8
0
 62
     0
100
AcDbLine
 10
48.19813716946835
 20
26.55758628282262
 30
0.0
 11
50.12547808566097
 21
28.48492719901526
 31
0.0
  0
LINE
  5
4C1
330
3A4
100
AcDbEntity
  8
0
 62
     0
100
AcDbLine
 10
34.89813716946827
 20
13.25758628282255
 30
0.0
 11
35.9639162657748
 21
14.32336537912908
 31
0.0
  0
LINE
  5
4C2
330
3A4
100
AcDbEntity
  8
0
 62
     0
100
AcDbLine
 10
43.69906340175036
 20
22.95653812721161
 30
0.0
 11
46.10047808566105
 21
25.35795281112228
 31
0.0
  0
LINE
  5
4C3
330
3A4
100
AcDbEntity
  8
0
 62
     0
100
AcDbLine
 10
38.40047808566095
 20
17.65795281112213
 30
0.0
 11
41.2004780856609
 21
20.45795281112213
 31
0.0
  0
LINE
  5
4C4
330
3A4
100
AcDbEntity
  8
0
 62
     0
100
AcDbLine
 10
47.30011155736132
 20
26.55758628282256
 30
0.0
 11
49.95880915386305
 21
29.21628387932429
 31
0.0
  0
LINE
  5
4C5
330
3A4
100
AcDbEntity
  8
0
 62
     0
100
AcDbLine
 10
34.00011155736126
 20
13.2575862828225
 30
0.0
 11
35.74839011886911
 21
15.00586484433034
 31
0.0
  0
LINE
  5
4C6
330
3A4
100
AcDbEntity
  8
0
 62
     0
100
AcDbLine
 10
38.40047808566089
 20
18.55597842322907
 30
0.0
 11
41.2004780856609
 21
21.35597842322903
 31
0.0
  0
LINE
  5
4C7
330
3A4
100
AcDbEntity
  8
0
 62
     0
100
AcDbLine
 10
43.45568133908027
 20
23.61118167664847
 30
0.0
 11
49.20208594525445
 21
29.35758628282263
 31
0.0
  0
LINE
  5
4C8
330
3A4
100
AcDbEntity
  8
0
 62
     0
100
AcDbLine
 10
33.40809724670629
 20
13.56359758427447
 30
0.0
 11
35.53286397196342
 21
15.6883643095316
 31
0.0
  0
LINE
  5
4C9
330
3A4
100
AcDbEntity
  8
0
 62
     0
100
AcDbLine
 10
38.40047808566089
 20
19.45400403533602
 30
0.0
 11
41.20047808566083
 21
22.25400403533598
 31
0.0
  0
LINE
  5
4CA
330
3A4
100
AcDbEntity
  8
0
 62
     0
100
AcDbLine
 10
43.31697447999458
 20
24.37050042966973
 30
0.0
 11
48.30406033314756
 21
29.35758628282263
 31
0.0
  0
LINE
  5
4CB
330
3A4
100
AcDbEntity
  8
0
 62
     0
100
AcDbLine
 10
33.18933782505769
 20
14.24286377473282
 30
0.0
 11
35.31733782505773
 21
16.37086377473286
 31
0.0
  0
LINE
  5
4CC
330
3A4
100
AcDbEntity
  8
0
 62
     0
100
AcDbLine
 10
38.40047808566095
 20
20.35202964744286
 30
0.0
 11
41.2004780856609
 21
23.15202964744287
 31
0.0
  0
LINE
  5
4CD
330
3A4
100
AcDbEntity
  8
0
 62
     0
100
AcDbLine
 10
43.30047808566092
 20
25.25202964744285
 30
0.0
 11
47.40603472104067
 21
29.35758628282263
 31
0.0
  0
LINE
  5
4CE
330
3A4
100
AcDbEntity
  8
0
 62
     0
100
AcDbLine
 10
32.97381167815206
 20
14.92536323993403
 30
0.0
 11
35.10181167815216
 21
17.05336323993407
 31
0.0
  0
LINE
  5
4CF
330
3A4
100
AcDbEntity
  8
0
 62
     0
100
AcDbLine
 10
38.40047808566089
 20
21.25005525954981
 30
0.0
 11
41.2004780856609
 21
24.05005525954976
 31
0.0
  0
LINE
  5
4D0
330
3A4
100
AcDbEntity
  8
0
 62
     0
100
AcDbLine
 10
43.30047808566097
 20
26.15005525954984
 30
0.0
 11
46.50800910893376
 21
29.35758628282263
 31
0.0
  0
LINE
  5
4D1
330
3A4
100
AcDbEntity
  8
0
 62
     0
100
AcDbLine
 10
32.75828553124631
 20
15.60786270513523
 30
0.0
 11
34.88628553124654
 21
17.73586270513544
 31
0.0
  0
LINE
  5
4D2
330
3A4
100
AcDbEntity
  8
0
 62
     0
100
AcDbLine
 10
38.40047808566089
 20
22.1480808716567
 30
0.0
 11
41.20047808566096
 21
24.94808087165677
 31
0.0
  0
LINE
  5
4D3
330
3A4
100
AcDbEntity
  8
0
 62
     0
100
AcDbLine
 10
32.54275938434068
 20
16.29036217033655
 30
0.0
 11
34.67075938434078
 21
18.41836217033659
 31
0.0
  0
LINE
  5
4D4
330
3A4
100
AcDbEntity
  8
0
 62
     0
100
AcDbLine
 10
43.35379475578213
 20
27.101397541778
 30
0.0
 11
45.55666682670545
 21
29.30426961270132
 31
0.0
  0
LINE
  5
4D5
330
3A4
100
AcDbEntity
  8
0
 62
     0
100
AcDbLine
 10
29.50998349682669
 20
13.25758628282255
 30
0.0
 11
30.35047808566088
 21
14.09808087165674
 31
0.0
  0
LINE
  5
4D6
330
3A4
100
AcDbEntity
  8
0
 62
     0
100
AcDbLine
 10
32.32723323743511
 20
16.97286163553775
 30
0.0
 11
34.45523323743515
 21
19.10086163553785
 31
0.0
  0
LINE
  5
4D7
330
3A4
100
AcDbEntity
  8
0
 62
     0
100
AcDbLine
 10
38.40047808566089
 20
23.04610648376359
 30
0.0
 11
41.20047808566096
 21
25.84610648376366
 31
0.0
  0
LINE
  5
4D8
330
3A4
100
AcDbEntity
  8
0
 62
     0
100
AcDbLine
 10
28.61195788471985
 20
13.2575862828225
 30
0.0
 11
30.35047808566094
 21
14.99610648376363
 31
0.0
  0
LINE
  5
4D9
330
3A4
100
AcDbEntity
  8
0
 62
     0
100
AcDbLine
 10
32.11170709052942
 20
17.65536110073901
 30
0.0
 11
34.23970709052947
 21
19.78336110073911
 31
0.0
  0
LINE
  5
4DA
330
3A4
100
AcDbEntity
  8
0
 62
     0
100
AcDbLine
 10
38.40047808566089
 20
23.94413209587054
 30
0.0
 11
41.20047808566096
 21
26.74413209587055
 31
0.0
  0
LINE
  5
4DB
330
3A4
100
AcDbEntity
  8
0
 62
     0
100
AcDbLine
 10
27.7950820202642
 20
13.33873603047385
 30
0.0
 11
30.35047808566094
 21
15.89413209587053
 31
0.0
  0
LINE
  5
4DC
330
3A4
100
AcDbEntity
  8
0
 62
     0
100
AcDbLine
 10
31.89618094362373
 20
18.33786056594027
 30
0.0
 11
34.02418094362377
 21
20.46586056594037
 31
0.0
  0
LINE
  5
4DD
330
3A4
100
AcDbEntity
  8
0
 62
     0
100
AcDbLine
 10
38.40047808566089
 20
24.84215770797743
 30
0.0
 11
41.2004780856609
 21
27.6421577079775
 31
0.0
  0
LINE
  5
4DE
330
3A4
100
AcDbEntity
  8
0
 62
     0
100
AcDbLine
 10
27.55047808566092
 20
13.99215770797747
 30
0.0
 11
30.35047808566099
 21
16.79215770797753
 31
0.0
  0
LINE
  5
4DF
330
3A4
100
AcDbEntity
  8
0
 62
     0
100
AcDbLine
 10
31.6806547967181
 20
19.02036003114147
 30
0.0
 11
33.80865479671825
 21
21.14836003114163
 31
0.0
  0
LINE
  5
4E0
330
3A4
100
AcDbEntity
  8
0
 62
     0
100
AcDbLine
 10
38.40047808566089
 20
25.74018332008432
 30
0.0
 11
41.20047808566096
 21
28.54018332008439
 31
0.0
  0
LINE
  5
4E1
330
3A4
100
AcDbEntity
  8
0
 62
     0
100
AcDbLine
 10
27.55047808566092
 20
14.89018332008436
 30
0.0
 11
30.35047808566099
 21
17.69018332008442
 31
0.0
  0
LINE
  5
4E2
330
3A4
100
AcDbEntity
  8
0
 62
     0
100
AcDbLine
 10
31.44585600974636
 20
19.68358685627674
 30
0.0
 11
34.07615007767736
 21
22.31388092420769
 31
0.0
  0
LINE
  5
4E3
330
3A4
100
AcDbEntity
  8
0
 62
     0
100
AcDbLine
 10
38.40047808566095
 20
26.63820893219133
 30
0.0
 11
41.00420266316251
 21
29.24193350969284
 31
0.0
  0
LINE
  5
4E4
330
3A4
100
AcDbEntity
  8
0
 62
     0
100
AcDbLine
 10
27.55047808566092
 20
15.7882089321913
 30
0.0
 11
30.35047808566099
 21
18.58820893219132
 31
0.0
  0
LINE
  5
4E5
330
3A4
100
AcDbEntity
  8
0
 62
     0
100
AcDbLine
 10
30.75867063987897
 20
19.8944270985163
 30
0.0
 11
34.49062343711125
 21
23.62637989574858
 31
0.0
  0
LINE
  5
4E6
330
3A4
100
AcDbEntity
  8
0
 62
     0
100
AcDbLine
 10
27.55047808566092
 20
16.6862345442982
 30
0.0
 11
30.36363726996722
 21
19.4993937286045
 31
0.0
  0
LINE
  5
4E7
330
3A4
100
AcDbEntity
  8
0
 62
     0
100
AcDbLine
 10
38.40047808566095
 20
27.53623454429822
 30
0.0
 11
40.22182982418529
 21
29.35758628282263
 31
0.0
  0
LINE
  5
4E8
330
3A4
100
AcDbEntity
  8
0
 62
     0
100
AcDbLine
 10
24.12182982418528
 20
13.25758628282255
 30
0.0
 11
25.10047808566094
 21
14.23623454429827
 31
0.0
  0
LINE
  5
4E9
330
3A4
100
AcDbEntity
  8
0
 62
     0
100
AcDbLine
 10
27.55047808566088
 20
17.58426015640515
 30
0.0
 11
34.90509679654519
 21
24.93887886728947
 31
0.0
  0
LINE
  5
4EA
330
3A4
100
AcDbEntity
  8
0
 62
     0
100
AcDbLine
 10
38.40047808566089
 20
28.43426015640517
 30
0.0
 11
39.3238042120783
 21
29.35758628282258
 31
0.0
  0
LINE
  5
4EB
330
3A4
100
AcDbEntity
  8
0
 62
     0
100
AcDbLine
 10
23.22380421207833
 20
13.25758628282261
 30
0.0
 11
25.10047808566099
 21
15.13426015640527
 31
0.0
  0
LINE
  5
4EC
330
3A4
100
AcDbEntity
  8
0
 62
     0
100
AcDbLine
 10
27.55047808566092
 20
18.48228576851198
 30
0.0
 11
35.31957015597929
 21
26.25137783883042
 31
0.0
  0
LINE
  5
4ED
330
3A4
100
AcDbEntity
  8
0
 62
     0
100
AcDbLine
 10
22.33745922432154
 20
13.26926690717266
 30
0.0
 11
24.95914380205476
 21
15.89095148490582
 31
0.0
  0
LINE
  5
4EE
330
3A4
100
AcDbEntity
  8
0
 62
     0
100
AcDbLine
 10
27.55047808566088
 20
19.38031138061893
 30
0.0
 11
30.87775298786453
 21
22.7075862828226
 31
0.0
  0
LINE
  5
4EF
330
3A4
100
AcDbEntity
  8
0
 62
     0
100
AcDbLine
 10
31.64173582310542
 20
23.47156911806348
 30
0.0
 11
35.73404351541324
 21
27.56387681037131
 31
0.0
  0
LINE
  5
4F0
330
3A4
100
AcDbEntity
  8
0
 62
     0
100
AcDbLine
 10
21.56929870687457
 20
13.39913200183258
 30
0.0
 11
24.2277529878645
 21
16.05758628282257
 31
0.0
  0
LINE
  5
4F1
330
3A4
100
AcDbEntity
  8
0
 62
     0
100
AcDbLine
 10
27.55047808566088
 20
20.27833699272588
 30
0.0
 11
30.3684686563692
 21
23.09632756343416
 31
0.0
  0
LINE
  5
4F2
330
3A4
100
AcDbEntity
  8
0
 62
     0
100
AcDbLine
 10
32.05620918253936
 20
24.78406808960432
 30
0.0
 11
36.10911496721456
 21
28.83697387427957
 31
0.0
  0
LINE
  5
4F3
330
3A4
100
AcDbEntity
  8
0
 62
     0
100
AcDbLine
 10
20.90816445004816
 20
13.63602335711317
 30
0.0
 11
23.32972737575761
 21
16.05758628282257
 31
0.0
  0
LINE
  5
4F4
330
3A4
100
AcDbEntity
  8
0
 62
     0
100
AcDbLine
 10
27.55047808566092
 20
21.17636260483271
 30
0.0
 11
30.35047808566094
 21
23.97636260483278
 31
0.0
  0
LINE
  5
4F5
330
3A4
100
AcDbEntity
  8
0
 62
     0
100
AcDbLine
 10
32.4706825419733
 20
26.09656706114515
 30
0.0
 11
35.71510309464537
 21
29.34098761381722
 31
0.0
  0
LINE
  5
4F6
330
3A4
100
AcDbEntity
  8
0
 62
     0
100
AcDbLine
 10
20.33056116588386
 20
13.95644568505565
 30
0.0
 11
22.44662302437672
 21
16.07250754354856
 31
0.0
  0
LINE
  5
4F7
330
3A4
100
AcDbEntity
  8
0
 62
     0
100
AcDbLine
 10
27.55047808566088
 20
22.07438821693966
 30
0.0
 11
30.35047808566094
 21
24.87438821693973
 31
0.0
  0
LINE
  5
4F8
330
3A4
100
AcDbEntity
  8
0
 62
     0
100
AcDbLine
 10
32.88515590140724
 20
27.40906603268598
 30
0.0
 11
34.83367615154378
 21
29.35758628282258
 31
0.0
  0
LINE
  5
4F9
330
3A4
100
AcDbEntity
  8
0
 62
     0
100
AcDbLine
 10
19.8256061995018
 20
14.34951633078054
 30
0.0
 11
21.81230688335841
 21
16.33621701463715
 31
0.0
  0
LINE
  5
4FA
330
3A4
100
AcDbEntity
  8
0
 62
     0
100
AcDbLine
 10
27.55047808566088
 20
22.97241382904656
 30
0.0
 11
30.35047808566094
 21
25.77241382904662
 31
0.0
  0
LINE
  5
4FB
330
3A4
100
AcDbEntity
  8
0
 62
     0
100
AcDbLine
 10
24.21211221743738
 20
19.63404796082312
 30
0.0
 11
25.37401640766046
 21
20.79595215104621
 31
0.0
  0
LINE
  5
4FC
330
3A4
100
AcDbEntity
  8
0
 62
     0
100
AcDbLine
 10
33.29962926084113
 20
28.72156500422687
 30
0.0
 11
33.93565053943683
 21
29.35758628282258
 31
0.0
  0
LINE
  5
4FD
330
3A4
100
AcDbEntity
  8
0
 62
     0
100
AcDbLine
 10
19.38916912617196
 20
14.8111048695577
 30
0.0
 11
21.40205593208623
 21
16.82399167547197
 31
0.0
  0
LINE
  5
4FE
330
3A4
100
AcDbEntity
  8
0
 62
     0
100
AcDbLine
 10
23.28713937580755
 20
19.60710073130025
 30
0.0
 11
25.40096363718333
 21
21.72092499267597
 31
0.0
  0
LINE
  5
4FF
330
3A4
100
AcDbEntity
  8
0
 62
     0
100
AcDbLine
 10
27.55047808566092
 20
23.87043944115356
 30
0.0
 11
30.35047808566099
 21
26.67043944115363
 31
0.0
  0
LINE
  5
500
330
3A4
100
AcDbEntity
  8
0
 62
     0
100
AcDbLine
 10
19.02214990122899
 20
15.34211125672163
 30
0.0
 11
21.25047808566091
 21
17.57043944115361
 31
0.0
  0
LINE
  5
501
330
3A4
100
AcDbEntity
  8
0
 62
     0
100
AcDbLine
 10
22.67299280638735
 20
19.89097977398682
 30
0.0
 11
25.1170845944967
 21
22.33507156209623
 31
0.0
  0
LINE
  5
502
330
3A4
100
AcDbEntity
  8
0
 62
     0
100
AcDbLine
 10
27.55047808566092
 20
24.76846505326045
 30
0.0
 11
30.35047808566099
 21
27.56846505326052
 31
0.0
  0
LINE
  5
503
330
3A4
100
AcDbEntity
  8
0
 62
     0
100
AcDbLine
 10
18.73083239130426
 20
15.94881935890379
 30
0.0
 11
21.25047808566091
 21
18.46846505326044
 31
0.0
  0
LINE
  5
504
330
3A4
100
AcDbEntity
  8
0
 62
     0
100
AcDbLine
 10
22.23503287939763
 20
20.35104545910411
 30
0.0
 11
24.65701890937947
 21
22.77303148908589
 31
0.0
  0
LINE
  5
505
330
3A4
100
AcDbEntity
  8
0
 62
     0
100
AcDbLine
 10
27.55047808566092
 20
25.6664906653674
 30
0.0
 11
30.35047808566099
 21
28.46649066536741
 31
0.0
  0
LINE
  5
506
330
3A4
100
AcDbEntity
  8
0
 62
     0
100
AcDbLine
 10
18.5296950271296
 20
16.64570760683608
 30
0.0
 11
21.25047808566091
 21
19.36649066536739
 31
0.0
  0
LINE
  5
507
330
3A4
100
AcDbEntity
  8
0
 62
     0
100
AcDbLine
 10
21.97898214698926
 20
20.99302033880263
 30
0.0
 11
24.01504402968089
 21
23.02908222149432
 31
0.0
  0
LINE
  5
508
330
3A4
100
AcDbEntity
  8
0
 62
     0
100
AcDbLine
 10
18.45047808566084
 20
17.46451627747427
 30
0.0
 11
21.25047808566091
 21
20.26451627747428
 31
0.0
  0
LINE
  5
509
330
3A4
100
AcDbEntity
  8
0
 62
     0
100
AcDbLine
 10
27.55047808566092
 20
26.56451627747429
 30
0.0
 11
30.1932279773058
 21
29.20726616911924
 31
0.0
  0
LINE
  5
50A
330
3A4
100
AcDbEntity
  8
0
 62
     0
100
AcDbLine
 10
14.36448132778525
 20
13.37851951959868
 30
0.0
 11
16.22954484888498
 21
15.24358304069841
 31
0.0
  0
LINE
  5
50B
330
3A4
100
AcDbEntity
  8
0
 62
     0
100
AcDbLine
 10
22.09739523047005
 20
22.00945903439031
 30
0.0
 11
22.99860533409327
 21
22.91066913801353
 31
0.0
  0
LINE
  5
50C
330
3A4
100
AcDbEntity
  8
0
 62
     0
100
AcDbLine
 10
18.45047808566084
 20
18.3625418895811
 30
0.0
 11
21.25047808566091
 21
21.16254188958118
 31
0.0
  0
LINE
  5
50D
330
3A4
100
AcDbEntity
  8
0
 62
     0
100
AcDbLine
 10
27.55047808566092
 20
27.46254188958118
 30
0.0
 11
29.44552247890232
 21
29.35758628282258
 31
0.0
  0
LINE
  5
50E
330
3A4
100
AcDbEntity
  8
0
 62
     0
100
AcDbLine
 10
13.34552247890229
 20
13.25758628282255
 30
0.0
 11
16.35047808566105
 21
16.26254188958125
 31
0.0
  0
LINE
  5
50F
330
3A4
100
AcDbEntity
  8
0
 62
     0
100
AcDbLine
 10
18.45047808566084
 20
19.26056750168805
 30
0.0
 11
21.25047808566091
 21
22.06056750168812
 31
0.0
  0
LINE
  5
510
330
3A4
100
AcDbEntity
  8
0
 62
     0
100
AcDbLine
 10
27.55047808566092
 20
28.36056750168808
 30
0.0
 11
28.54749686679543
 21
29.35758628282263
 31
0.0
  0
LINE
  5
511
330
3A4
100
AcDbEntity
  8
0
 62
     0
100
AcDbLine
 10
12.44749686679529
 20
13.2575862828225
 30
0.0
 11
16.35047808566099
 21
17.1605675016882
 31
0.0
  0
LINE
  5
512
330
3A4
100
AcDbEntity
  8
0
 62
     0
100
AcDbLine
 10
18.45047808566084
 20
20.15859311379494
 30
0.0
 11
21.25047808566085
 21
22.95859311379501
 31
0.0
  0
LINE
  5
513
330
3A4
100
AcDbEntity
  8
0
 62
     0
100
AcDbLine
 10
11.54947125468845
 20
13.25758628282261
 30
0.0
 11
16.34653873309973
 21
18.0546537612339
 31
0.0
  0
LINE
  5
514
330
3A4
100
AcDbEntity
  8
0
 62
     0
100
AcDbLine
 10
18.45047808566084
 20
21.05661872590189
 30
0.0
 11
21.25047808566091
 21
23.85661872590196
 31
0.0
  0
LINE
  5
515
330
3A4
100
AcDbEntity
  8
0
 62
     0
100
AcDbLine
 10
23.95144564258163
 20
26.55758628282268
 30
0.0
 11
25.10047808566105
 21
27.7066187259021
 31
0.0
  0
LINE
  5
516
330
3A4
100
AcDbEntity
  8
0
 62
     0
100
AcDbLine
 10
10.6514456425815
 20
13.25758628282255
 30
0.0
 11
16.23687689677842
 21
18.84301753701947
 31
0.0
  0
LINE
  5
517
330
3A4
100
AcDbEntity
  8
0
 62
     0
100
AcDbLine
 10
18.45047808566084
 20
21.95464433800879
 30
0.0
 11
21.25047808566091
 21
24.7546443380088
 31
0.0
  0
LINE
  5
518
330
3A4
100
AcDbEntity
  8
0
 62
     0
100
AcDbLine
 10
13.55047808566092
 20
17.05464433800887
 30
0.0
 11
16.0145381527343
 21
19.51870440508224
 31
0.0
  0
LINE
  5
519
330
3A4
100
AcDbEntity
  8
0
 62
     0
100
AcDbLine
 10
23.05342003047462
 20
26.55758628282256
 30
0.0
 11
25.10047808566105
 21
28.60464433800894
 31
0.0
  0
LINE
  5
51A
330
3A4
100
AcDbEntity
  8
0
 62
     0
100
AcDbLine
 10
9.811145905734575
 20
13.31531215808252
 30
0.0
 11
12.55342003047462
 21
16.05758628282257
 31
0.0
  0
LINE
  5
51B
330
3A4
100
AcDbEntity
  8
0
 62
     0
100
AcDbLine
 10
18.45047808566079
 20
22.85266995011568
 30
0.0
 11
21.41629279144058
 21
25.81848465589547
 31
0.0
  0
LINE
  5
51C
330
3A4
100
AcDbEntity
  8
0
 62
     0
100
AcDbLine
 10
13.54831899405167
 20
17.9505108585065
 30
0.0
 11
15.70610661806227
 21
20.10829848251717
 31
0.0
  0
LINE
  5
51D
330
3A4
100
AcDbEntity
  8
0
 62
     0
100
AcDbLine
 10
21.98957971258812
 20
26.39177157704301
 30
0.0
 11
24.86701067074113
 21
29.26920253519597
 31
0.0
  0
LINE
  5
51E
330
3A4
100
AcDbEntity
  8
0
 62
     0
100
AcDbLine
 10
9.525478085660948
 20
13.92766995011578
 30
0.0
 11
11.65539441836773
 21
16.05758628282257
 31
0.0
  0
LINE
  5
51F
330
3A4
100
AcDbEntity
  8
0
 62
     0
100
AcDbLine
 10
13.32871597455095
 20
18.6289334511128
 30
0.0
 11
15.32386465322338
 21
20.62408212978522
 31
0.0
  0
LINE
  5
520
330
3A4
100
AcDbEntity
  8
0
 62
     0
100
AcDbLine
 10
18.45047808566079
 20
23.75069556222263
 30
0.0
 11
24.05736880626085
 21
29.35758628282269
 31
0.0
  0
LINE
  5
521
330
3A4
100
AcDbEntity
  8
0
 62
     0
100
AcDbLine
 10
9.525478085660893
 20
14.82569556222273
 30
0.0
 11
10.75736880626078
 21
16.05758628282262
 31
0.0
  0
LINE
  5
522
330
3A4
100
AcDbEntity
  8
0
 62
     0
100
AcDbLine
 10
12.90246114624625
 20
19.10070423491492
 30
0.0
 11
14.88236013356862
 21
21.08060322223729
 31
0.0
  0
LINE
  5
523
330
3A4
100
AcDbEntity
  8
0
 62
     0
100
AcDbLine
 10
18.45047808566084
 20
24.64872117432947
 30
0.0
 11
23.15934319415379
 21
29.35758628282247
 31
0.0
  0
LINE
  5
524
330
3A4
100
AcDbEntity
  8
0
 62
     0
100
AcDbLine
 10
9.594430007680673
 20
15.79267309634934
 30
0.0
 11
9.790391272134288
 21
15.98863436080296
 31
0.0
  0
LINE
  5
525
330
3A4
100
AcDbEntity
  8
0
 62
     0
100
AcDbLine
 10
18.47045319981742
 20
25.56672190059299
 30
0.0
 11
22.24134246789043
 21
29.33761116866606
 31
0.0
  0
LINE
  5
526
330
3A4
100
AcDbEntity
  8
0
 62
     0
100
AcDbLine
 10
12.45344834019277
 20
19.5497170409684
 30
0.0
 11
14.43334732751515
 21
21.52961602829077
 31
0.0
  0
LINE
  5
527
330
3A4
100
AcDbEntity
  8
0
 62
     0
100
AcDbLine
 10
18.7699166320832
 20
26.76421094496578
 30
0.0
 11
21.0438534235177
 21
29.03814773640027
 31
0.0
  0
LINE
  5
528
330
3A4
100
AcDbEntity
  8
0
 62
     0
100
AcDbLine
 10
12.0044355341393
 20
19.99872984702187
 30
0.0
 11
13.98433452146167
 21
21.97862883434424
 31
0.0
  0
LINE
  5
529
330
3A4
100
AcDbEntity
  8
0
 62
     0
100
AcDbLine
 10
11.55542272808588
 20
20.44774265307529
 30
0.0
 11
13.5353217154082
 21
22.42764164039755
 31
0.0
  0
LINE
  5
52A
330
3A4
100
AcDbEntity
  8
0
 62
     0
100
AcDbLine
 10
11.10640992203241
 20
20.89675545912876
 30
0.0
 11
13.08630890935472
 21
22.87665444645103
 31
0.0
  0
LINE
  5
52B
330
3A4
100
AcDbEntity
  8
0
 62
     0
100
AcDbLine
 10
10.65739711597893
 20
21.34576826518224
 30
0.0
 11
12.63729610330125
 21
23.3256672525045
 31
0.0
  0
LINE
  5
52C
330
3A4
100
AcDbEntity
  8
0
 62
     0
100
AcDbLine
 10
14.97118952151237
 20
26.55758628282256
 30
0.0
 11
15.82547808566084
 21
27.4118748469711
 31
0.0
  0
LINE
  5
52D
330
3A4
100
AcDbEntity
  8
0
 62
     0
100
AcDbLine
 10
10.20846762395359
 20
21.79486438526385
 30
0.0
 11
12.18853326738605
 21
23.7749300286963
 31
0.0
  0
LINE
  5
52E
330
3A4
100
AcDbEntity
  8
0
 62
     0
100
AcDbLine
 10
14.07316390940548
 20
26.55758628282256
 30
0.0
 11
15.8254780856609
 21
28.30990045907799
 31
0.0
  0
LINE
  5
52F
330
3A4
100
AcDbEntity
  8
0
 62
     0
100
AcDbLine
 10
9.796999699402023
 20
22.28142207281905
 30
0.0
 11
11.85863638609811
 21
24.3430587595152
 31
0.0
  0
LINE
  5
530
330
3A4
100
AcDbEntity
  8
0
 62
     0
100
AcDbLine
 10
13.17513829729853
 20
26.55758628282256
 30
0.0
 11
15.73891918589976
 21
29.12136717142379
 31
0.0
  0
LINE
  5
531
330
3A4
100
AcDbEntity
  8
0
 62
     0
100
AcDbLine
 10
9.456539093139554
 20
22.83898707866353
 30
0.0
 11
11.80047808566098
 21
25.18292607118496
 31
0.0
  0
LINE
  5
532
330
3A4
100
AcDbEntity
  8
0
 62
     0
100
AcDbLine
 10
12.27464603602152
 20
26.55511963365245
 30
0.0
 11
15.0771126851917
 21
29.35758628282263
 31
0.0
  0
LINE
  5
533
330
3A4
100
AcDbEntity
  8
0
 62
     0
100
AcDbLine
 10
9.195845797407455
 20
23.47631939503838
 30
0.0
 11
11.80294473483104
 21
26.08341833246203
 31
0.0
  0
LINE
  5
534
330
3A4
100
AcDbEntity
  8
0
 62
     0
100
AcDbLine
 10
9.034033835159393
 20
24.21253304489721
 30
0.0
 11
14.17908707308481
 21
29.35758628282263
 31
0.0
  0
LINE
  5
535
330
3A4
100
AcDbEntity
  8
0
 62
     0
100
AcDbLine
 10
9.000478085660972
 20
25.07700290750574
 30
0.0
 11
13.2810614609778
 21
29.35758628282258
 31
0.0
  0
LINE
  5
536
330
3A4
100
AcDbEntity
  8
0
 62
     0
100
AcDbLine
 10
9.000478085660972
 20
25.97502851961263
 30
0.0
 11
12.38303584887086
 21
29.35758628282258
 31
0.0
  0
LINE
  5
537
330
3A4
100
AcDbEntity
  8
0
 62
     0
100
AcDbLine
 10
9.020670096099195
 20
26.8932461421578
 30
0.0
 11
11.4648182263258
 21
29.33739427238441
 31
0.0
  0
ENDBLK
  5
539
330
3A4
100
AcDbEntity
  8
0
100
AcDbBlockEnd
  0
BLOCK
  5
6F35
330
6F2B
100
AcDbEntity
  8
0
100
AcDbBlockBegin
  2
*D2
 70
     1
 10
0.0
 20
0.0
 30
0.0
  3
*D2
  1

  0
LINE
  5
7F24
330
6F2B
100
AcDbEntity
  8
SUNPOU
100
AcDbLine
 10
145.2065132724139
 20
234.1461929517096
 30
0.0
 11
145.206513272414
 21
490.706839676547
 31
0.0
  0
LINE
  5
7F25
330
6F2B
100
AcDbEntity
  8
SUNPOU
100
AcDbLine
 10
409.6065132725205
 20
209.1461929517079
 30
0.0
 11
409.6065132725205
 21
490.706839676547
 31
0.0
  0
LINE
  5
7F26
330
6F2B
100
AcDbEntity
  8
SUNPOU
100
AcDbLine
 10
152.206513272414
 20
487.706839676547
 30
0.0
 11
402.6065132725205
 21
487.706839676547
 31
0.0
  0
INSERT
  5
7F27
330
6F2B
100
AcDbEntity
  8
SUNPOU
100
AcDbBlockReference
  2
_OPEN
 10
145.206513272414
 20
487.706839676547
 30
0.0
 41
7.0
 42
7.0
 43
7.0
 50
180.0
  0
INSERT
  5
7F28
330
6F2B
100
AcDbEntity
  8
SUNPOU
100
AcDbBlockReference
  2
_OPEN
 10
409.6065132725205
 20
487.706839676547
 30
0.0
 41
7.0
 42
7.0
 43
7.0
  0
MTEXT
  5
7F29
330
6F2B
100
AcDbEntity
  8
SUNPOU
100
AcDbMText
 10
277.4065132724672
 20
492.706839676547
 30
0.0
 40
6.0
 41
0.0
 71
     5
 72
     5
  1
\A1;264
 73
     1
 44
1.0
1001
ACAD
1000
MTEXTBEGIN
1070
    73
1070
     1
1070
    44
1040
1.0
1070
    74
1070
     0
1000
MTEXTEND
  0
POINT
  5
7F2A
330
6F2B
100
AcDbEntity
  8
DEFPOINTS
 62
     0
100
AcDbPoint
 10
145.2065132724139
 20
228.1461929517096
 30
0.0
  0
POINT
  5
7F2B
330
6F2B
100
AcDbEntity
  8
DEFPOINTS
 62
     0
100
AcDbPoint
 10
409.6065132725205
 20
203.1461929517079
 30
0.0
  0
POINT
  5
7F2C
330
6F2B
100
AcDbEntity
  8
DEFPOINTS
 62
     0
100
AcDbPoint
 10
409.6065132725205
 20
487.706839676547
 30
0.0
  0
ENDBLK
  5
6F36
330
6F2B
100
AcDbEntity
  8
0
100
AcDbBlockEnd
  0
BLOCK
  5
6F41
330
6F37
100
AcDbEntity
  8
0
100
AcDbBlockBegin
  2
*D3
 70
     1
 10
0.0
 20
0.0
 30
0.0
  3
*D3
  1

  0
LINE
  5
7F51
330
6F37
100
AcDbEntity
  8
SUNPOU
100
AcDbLine
 10
374.0963628357665
 20
209.9074088050999
 30
0.0
 11
374.0963628357665
 21
237.8564929599459
 31
0.0
  0
LINE
  5
7F52
330
6F37
100
AcDbEntity
  8
SUNPOU
100
AcDbLine
 10
409.6065132725206
 20
209.1461929517387
 30
0.0
 11
409.6065132725206
 21
237.8564929599459
 31
0.0
  0
LINE
  5
7F53
330
6F37
100
AcDbEntity
  8
SUNPOU
100
AcDbLine
 10
381.0963628357665
 20
234.8564929599459
 30
0.0
 11
402.6065132725205
 21
234.8564929599459
 31
0.0
  0
INSERT
  5
7F54
330
6F37
100
AcDbEntity
  8
SUNPOU
100
AcDbBlockReference
  2
_OPEN
 10
374.0963628357665
 20
234.8564929599459
 30
0.0
 41
7.0
 42
7.0
 43
7.0
 50
180.0
  0
INSERT
  5
7F55
330
6F37
100
AcDbEntity
  8
SUNPOU
100
AcDbBlockReference
  2
_OPEN
 10
409.6065132725206
 20
234.8564929599459
 30
0.0
 41
7.0
 42
7.0
 43
7.0
  0
MTEXT
  5
7F56
330
6F37
100
AcDbEntity
  8
SUNPOU
100
AcDbMText
 10
391.8514380541436
 20
239.8564929599459
 30
0.0
 40
6.0
 41
0.0
 71
     5
 72
     5
  1
\A1;36
 73
     1
 44
1.0
1001
ACAD
1000
MTEXTBEGIN
1070
    73
1070
     1
1070
    44
1040
1.0
1070
    74
1070
     0
1000
MTEXTEND
  0
POINT
  5
7F57
330
6F37
100
AcDbEntity
  8
DEFPOINTS
 62
     0
100
AcDbPoint
 10
374.0963628357665
 20
203.9074088050999
 30
0.0
  0
POINT
  5
7F58
330
6F37
100
AcDbEntity
  8
DEFPOINTS
 62
     0
100
AcDbPoint
 10
409.6065132725206
 20
203.1461929517387
 30
0.0
  0
POINT
  5
7F59
330
6F37
100
AcDbEntity
  8
DEFPOINTS
 62
     0
100
AcDbPoint
 10
409.6065132725206
 20
234.8564929599459
 30
0.0
  0
ENDBLK
  5
6F42
330
6F37
100
AcDbEntity
  8
0
100
AcDbBlockEnd
  0
BLOCK
  5
6F4D
330
6F43
100
AcDbEntity
  8
0
100
AcDbBlockBegin
  2
*D4
 70
     1
 10
0.0
 20
0.0
 30
0.0
  3
*D4
  1

  0
LINE
  5
7F1B
330
6F43
100
AcDbEntity
  8
SUNPOU
100
AcDbLine
 10
277.4065132724808
 20
441.8949367734783
 30
0.0
 11
277.4065132724808
 21
475.9003492068051
 31
0.0
  0
LINE
  5
7F1C
330
6F43
100
AcDbEntity
  8
SUNPOU
100
AcDbLine
 10
409.6065132725206
 20
209.1461929517387
 30
0.0
 11
409.6065132725206
 21
475.9003492068051
 31
0.0
  0
LINE
  5
7F1D
330
6F43
100
AcDbEntity
  8
SUNPOU
100
AcDbLine
 10
284.4065132724809
 20
472.9003492068051
 30
0.0
 11
402.6065132725205
 21
472.9003492068051
 31
0.0
  0
INSERT
  5
7F1E
330
6F43
100
AcDbEntity
  8
SUNPOU
100
AcDbBlockReference
  2
_OPEN
 10
277.4065132724808
 20
472.9003492068051
 30
0.0
 41
7.0
 42
7.0
 43
7.0
 50
180.0
  0
INSERT
  5
7F1F
330
6F43
100
AcDbEntity
  8
SUNPOU
100
AcDbBlockReference
  2
_OPEN
 10
409.6065132725206
 20
472.9003492068051
 30
0.0
 41
7.0
 42
7.0
 43
7.0
  0
MTEXT
  5
7F20
330
6F43
100
AcDbEntity
  8
SUNPOU
100
AcDbMText
 10
343.5065132725008
 20
477.9003492068051
 30
0.0
 40
6.0
 41
0.0
 71
     5
 72
     5
  1
\A1;132
 73
     1
 44
1.0
1001
ACAD
1000
MTEXTBEGIN
1070
    73
1070
     1
1070
    44
1040
1.0
1070
    74
1070
     0
1000
MTEXTEND
  0
POINT
  5
7F21
330
6F43
100
AcDbEntity
  8
DEFPOINTS
 62
     0
100
AcDbPoint
 10
277.4065132724808
 20
435.8949367734783
 30
0.0
  0
POINT
  5
7F22
330
6F43
100
AcDbEntity
  8
DEFPOINTS
 62
     0
100
AcDbPoint
 10
409.6065132725206
 20
203.1461929517387
 30
0.0
  0
POINT
  5
7F23
330
6F43
100
AcDbEntity
  8
DEFPOINTS
 62
     0
100
AcDbPoint
 10
409.6065132725206
 20
472.9003492068051
 30
0.0
  0
ENDBLK
  5
6F4E
330
6F43
100
AcDbEntity
  8
0
100
AcDbBlockEnd
  0
BLOCK
  5
6F59
330
6F4F
100
AcDbEntity
  8
0
100
AcDbBlockBegin
  2
*D5
 70
     1
 10
0.0
 20
0.0
 30
0.0
  3
*D5
  1

  0
LINE
  5
7F12
330
6F4F
100
AcDbEntity
  8
SUNPOU
100
AcDbLine
 10
277.4065132724808
 20
441.8949367734783
 30
0.0
 11
277.4065132724808
 21
475.9003492068051
 31
0.0
  0
LINE
  5
7F13
330
6F4F
100
AcDbEntity
  8
SUNPOU
100
AcDbLine
 10
145.2065132724139
 20
234.1461929517096
 30
0.0
 11
145.206513272414
 21
475.9003492068051
 31
0.0
  0
LINE
  5
7F14
330
6F4F
100
AcDbEntity
  8
SUNPOU
100
AcDbLine
 10
270.4065132724808
 20
472.9003492068051
 30
0.0
 11
152.206513272414
 21
472.9003492068051
 31
0.0
  0
INSERT
  5
7F15
330
6F4F
100
AcDbEntity
  8
SUNPOU
100
AcDbBlockReference
  2
_OPEN
 10
277.4065132724808
 20
472.9003492068051
 30
0.0
 41
7.0
 42
7.0
 43
7.0
  0
INSERT
  5
7F16
330
6F4F
100
AcDbEntity
  8
SUNPOU
100
AcDbBlockReference
  2
_OPEN
 10
145.206513272414
 20
472.9003492068051
 30
0.0
 41
7.0
 42
7.0
 43
7.0
 50
180.0
  0
MTEXT
  5
7F17
330
6F4F
100
AcDbEntity
  8
SUNPOU
100
AcDbMText
 10
211.3065132724474
 20
477.9003492068051
 30
0.0
 40
6.0
 41
0.0
 71
     5
 72
     5
  1
\A1;132
 73
     1
 44
1.0
1001
ACAD
1000
MTEXTBEGIN
1070
    73
1070
     1
1070
    44
1040
1.0
1070
    74
1070
     0
1000
MTEXTEND
  0
POINT
  5
7F18
330
6F4F
100
AcDbEntity
  8
DEFPOINTS
 62
     0
100
AcDbPoint
 10
277.4065132724808
 20
435.8949367734783
 30
0.0
  0
POINT
  5
7F19
330
6F4F
100
AcDbEntity
  8
DEFPOINTS
 62
     0
100
AcDbPoint
 10
145.2065132724139
 20
228.1461929517096
 30
0.0
  0
POINT
  5
7F1A
330
6F4F
100
AcDbEntity
  8
DEFPOINTS
 62
     0
100
AcDbPoint
 10
145.206513272414
 20
472.9003492068051
 30
0.0
  0
ENDBLK
  5
6F5A
330
6F4F
100
AcDbEntity
  8
0
100
AcDbBlockEnd
  0
BLOCK
  5
6F65
330
6F5B
100
AcDbEntity
  8
0
100
AcDbBlockBegin
  2
*D6
 70
     1
 10
0.0
 20
0.0
 30
0.0
  3
*D6
  1

  0
LINE
  5
7F2D
330
6F5B
100
AcDbEntity
  8
SUNPOU
100
AcDbLine
 10
189.494357626356
 20
233.6737843751324
 30
0.0
 11
189.494357626356
 21
270.1612709676265
 31
0.0
  0
LINE
  5
7F2E
330
6F5B
100
AcDbEntity
  8
SUNPOU
100
AcDbLine
 10
145.2065132724139
 20
234.1461929517096
 30
0.0
 11
145.2065132724139
 21
270.1612709676265
 31
0.0
  0
LINE
  5
7F2F
330
6F5B
100
AcDbEntity
  8
SUNPOU
100
AcDbLine
 10
182.494357626356
 20
267.1612709676265
 30
0.0
 11
152.2065132724139
 21
267.1612709676265
 31
0.0
  0
INSERT
  5
7F30
330
6F5B
100
AcDbEntity
  8
SUNPOU
100
AcDbBlockReference
  2
_OPEN
 10
189.494357626356
 20
267.1612709676265
 30
0.0
 41
7.0
 42
7.0
 43
7.0
  0
INSERT
  5
7F31
330
6F5B
100
AcDbEntity
  8
SUNPOU
100
AcDbBlockReference
  2
_OPEN
 10
145.2065132724139
 20
267.1612709676265
 30
0.0
 41
7.0
 42
7.0
 43
7.0
 50
180.0
  0
MTEXT
  5
7F32
330
6F5B
100
AcDbEntity
  8
SUNPOU
100
AcDbMText
 10
167.350435449385
 20
272.1612709676265
 30
0.0
 40
6.0
 41
0.0
 71
     5
 72
     5
  1
\A1;44
 73
     1
 44
1.0
1001
ACAD
1000
MTEXTBEGIN
1070
    73
1070
     1
1070
    44
1040
1.0
1070
    74
1070
     0
1000
MTEXTEND
  0
POINT
  5
7F33
330
6F5B
100
AcDbEntity
  8
DEFPOINTS
 62
     0
100
AcDbPoint
 10
189.494357626356
 20
227.6737843751324
 30
0.0
  0
POINT
  5
7F34
330
6F5B
100
AcDbEntity
  8
DEFPOINTS
 62
     0
100
AcDbPoint
 10
145.2065132724139
 20
228.1461929517096
 30
0.0
  0
POINT
  5
7F35
330
6F5B
100
AcDbEntity
  8
DEFPOINTS
 62
     0
100
AcDbPoint
 10
145.2065132724139
 20
267.1612709676265
 30
0.0
  0
ENDBLK
  5
6F66
330
6F5B
100
AcDbEntity
  8
0
100
AcDbBlockEnd
  0
BLOCK
  5
6F71
330
6F67
100
AcDbEntity
  8
0
100
AcDbBlockBegin
  2
*D7
 70
     1
 10
0.0
 20
0.0
 30
0.0
  3
*D7
  1

  0
LINE
  5
7F09
330
6F67
100
AcDbEntity
  8
SUNPOU
 62
     4
370
    -2
100
AcDbLine
 10
266.4065132725638
 20
156.4273753737893
 30
0.0
 11
97.2345047855908
 21
156.4273753737893
 31
0.0
  0
LINE
  5
7F0A
330
6F67
100
AcDbEntity
  8
SUNPOU
 62
     4
370
    -2
100
AcDbLine
 10
271.4065132725638
 20
426.4273753737893
 30
0.0
 11
97.23450478559087
 21
426.4273753737893
 31
0.0
  0
LINE
  5
7F0B
330
6F67
100
AcDbEntity
  8
SUNPOU
 62
     4
370
    -2
100
AcDbLine
 10
100.2345047855907
 20
163.4273753737893
 30
0.0
 11
100.2345047855908
 21
419.4273753737893
 31
0.0
  0
INSERT
  5
7F0C
330
6F67
100
AcDbEntity
  8
SUNPOU
 62
     4
370
    -2
100
AcDbBlockReference
  2
_OPEN
 10
100.2345047855907
 20
156.4273753737893
 30
0.0
 41
7.0
 42
7.0
 43
7.0
 50
270.0
  0
INSERT
  5
7F0D
330
6F67
100
AcDbEntity
  8
SUNPOU
 62
     4
370
    -2
100
AcDbBlockReference
  2
_OPEN
 10
100.2345047855908
 20
426.4273753737893
 30
0.0
 41
7.0
 42
7.0
 43
7.0
 50
90.0
  0
MTEXT
  5
7F0E
330
6F67
100
AcDbEntity
  8
SUNPOU
 62
     4
100
AcDbMText
 10
95.23450478559075
 20
291.4273753737893
 30
0.0
 40
6.0
 41
0.0
 71
     5
 72
     5
  1
\A1;270
 11
0.0000000000000001
 21
1.0
 31
0.0
 73
     1
 44
1.0
1001
ACAD
1000
MTEXTBEGIN
1070
    73
1070
     1
1070
    44
1040
1.0
1070
    74
1070
     0
1000
MTEXTEND
  0
POINT
  5
7F0F
330
6F67
100
AcDbEntity
  8
DEFPOINTS
 62
     0
100
AcDbPoint
 10
272.4065132725638
 20
156.4273753737893
 30
0.0
  0
POINT
  5
7F10
330
6F67
100
AcDbEntity
  8
DEFPOINTS
 62
     0
100
AcDbPoint
 10
277.4065132725638
 20
426.4273753737893
 30
0.0
  0
POINT
  5
7F11
330
6F67
100
AcDbEntity
  8
DEFPOINTS
 62
     0
100
AcDbPoint
 10
100.2345047855908
 20
426.4273753737893
 30
0.0
  0
ENDBLK
  5
6F72
330
6F67
100
AcDbEntity
  8
0
100
AcDbBlockEnd
  0
BLOCK
  5
6F7D
330
6F73
100
AcDbEntity
  8
0
100
AcDbBlockBegin
  2
*D8
 70
     1
 10
0.0
 20
0.0
 30
0.0
  3
*D8
  1

  0
LINE
  5
7F36
330
6F73
100
AcDbEntity
  8
SUNPOU
100
AcDbLine
 10
144.2065132724139
 20
233.1461929517096
 30
0.0
 11
113.0940229379068
 21
233.1461929517096
 31
0.0
  0
LINE
  5
7F37
330
6F73
100
AcDbEntity
  8
SUNPOU
100
AcDbLine
 10
143.2065132724808
 20
197.5272753737892
 30
0.0
 11
113.0940229379068
 21
197.5272753737892
 31
0.0
  0
LINE
  5
7F38
330
6F73
100
AcDbEntity
  8
SUNPOU
100
AcDbLine
 10
116.0940229379068
 20
226.1461929517096
 30
0.0
 11
116.0940229379068
 21
204.5272753737892
 31
0.0
  0
INSERT
  5
7F39
330
6F73
100
AcDbEntity
  8
SUNPOU
100
AcDbBlockReference
  2
_OPEN
 10
116.0940229379068
 20
233.1461929517096
 30
0.0
 41
7.0
 42
7.0
 43
7.0
 50
90.0
  0
INSERT
  5
7F3A
330
6F73
100
AcDbEntity
  8
SUNPOU
100
AcDbBlockReference
  2
_OPEN
 10
116.0940229379068
 20
197.5272753737892
 30
0.0
 41
7.0
 42
7.0
 43
7.0
 50
270.0
  0
MTEXT
  5
7F3B
330
6F73
100
AcDbEntity
  8
SUNPOU
100
AcDbMText
 10
111.0940229379068
 20
215.3367341627494
 30
0.0
 40
6.0
 41
0.0
 71
     5
 72
     5
  1
\A1;36
 11
0.0000000000000001
 21
1.0
 31
0.0
 73
     1
 44
1.0
1001
ACAD
1000
MTEXTBEGIN
1070
    73
1070
     1
1070
    44
1040
1.0
1070
    74
1070
     0
1000
MTEXTEND
  0
POINT
  5
7F3C
330
6F73
100
AcDbEntity
  8
DEFPOINTS
 62
     0
100
AcDbPoint
 10
150.2065132724139
 20
233.1461929517096
 30
0.0
  0
POINT
  5
7F3D
330
6F73
100
AcDbEntity
  8
DEFPOINTS
 62
     0
100
AcDbPoint
 10
149.2065132724808
 20
197.5272753737892
 30
0.0
  0
POINT
  5
7F3E
330
6F73
100
AcDbEntity
  8
DEFPOINTS
 62
     0
100
AcDbPoint
 10
116.0940229379068
 20
197.5272753737892
 30
0.0
  0
ENDBLK
  5
6F7E
330
6F73
100
AcDbEntity
  8
0
100
AcDbBlockEnd
  0
BLOCK
  5
6F89
330
6F7F
100
AcDbEntity
  8
0
100
AcDbBlockBegin
  2
*D9
 70
     1
 10
0.0
 20
0.0
 30
0.0
  3
*D9
  1

  0
LINE
  5
7F3F
330
6F7F
100
AcDbEntity
  8
SUNPOU
100
AcDbLine
 10
195.494357626356
 20
227.6737843751324
 30
0.0
 11
235.3369776214788
 21
227.6737843751324
 31
0.0
  0
LINE
  5
7F40
330
6F7F
100
AcDbEntity
  8
SUNPOU
100
AcDbLine
 10
203.7064123496511
 20
175.4272753737893
 30
0.0
 11
235.3369776214788
 21
175.4272753737893
 31
0.0
  0
LINE
  5
7F41
330
6F7F
100
AcDbEntity
  8
SUNPOU
100
AcDbLine
 10
232.3369776214788
 20
220.6737843751324
 30
0.0
 11
232.3369776214788
 21
182.4272753737893
 31
0.0
  0
INSERT
  5
7F42
330
6F7F
100
AcDbEntity
  8
SUNPOU
100
AcDbBlockReference
  2
_OPEN
 10
232.3369776214788
 20
227.6737843751324
 30
0.0
 41
7.0
 42
7.0
 43
7.0
 50
90.0
  0
INSERT
  5
7F43
330
6F7F
100
AcDbEntity
  8
SUNPOU
100
AcDbBlockReference
  2
_OPEN
 10
232.3369776214788
 20
175.4272753737893
 30
0.0
 41
7.0
 42
7.0
 43
7.0
 50
270.0
  0
MTEXT
  5
7F44
330
6F7F
100
AcDbEntity
  8
SUNPOU
100
AcDbMText
 10
227.3369776214787
 20
201.5505298744609
 30
0.0
 40
6.0
 41
0.0
 71
     5
 72
     5
  1
\A1;52
 11
0.0000000000000001
 21
1.0
 31
0.0
 73
     1
 44
1.0
1001
ACAD
1000
MTEXTBEGIN
1070
    73
1070
     1
1070
    44
1040
1.0
1070
    74
1070
     0
1000
MTEXTEND
  0
POINT
  5
7F45
330
6F7F
100
AcDbEntity
  8
DEFPOINTS
 62
     0
100
AcDbPoint
 10
189.494357626356
 20
227.6737843751324
 30
0.0
  0
POINT
  5
7F46
330
6F7F
100
AcDbEntity
  8
DEFPOINTS
 62
     0
100
AcDbPoint
 10
197.7064123496511
 20
175.4272753737893
 30
0.0
  0
POINT
  5
7F47
330
6F7F
100
AcDbEntity
  8
DEFPOINTS
 62
     0
100
AcDbPoint
 10
232.3369776214788
 20
175.4272753737893
 30
0.0
  0
ENDBLK
  5
6F8A
330
6F7F
100
AcDbEntity
  8
0
100
AcDbBlockEnd
  0
BLOCK
  5
6F95
330
6F8B
100
AcDbEntity
  8
0
100
AcDbBlockBegin
  2
*D10
 70
     1
 10
0.0
 20
0.0
 30
0.0
  3
*D10
  1

  0
LINE
  5
7F48
330
6F8B
100
AcDbEntity
  8
SUNPOU
100
AcDbLine
 10
357.0302344608547
 20
175.4272753737894
 30
0.0
 11
330.7025146717153
 21
175.4272753737894
 31
0.0
  0
LINE
  5
7F49
330
6F8B
100
AcDbEntity
  8
SUNPOU
100
AcDbLine
 10
368.0963628357665
 20
203.9074088050999
 30
0.0
 11
330.7025146717153
 21
203.9074088050999
 31
0.0
  0
LINE
  5
7F4A
330
6F8B
100
AcDbEntity
  8
SUNPOU
100
AcDbLine
 10
333.7025146717153
 20
182.4272753737894
 30
0.0
 11
333.7025146717153
 21
196.9074088050999
 31
0.0
  0
INSERT
  5
7F4B
330
6F8B
100
AcDbEntity
  8
SUNPOU
100
AcDbBlockReference
  2
_OPEN
 10
333.7025146717153
 20
175.4272753737894
 30
0.0
 41
7.0
 42
7.0
 43
7.0
 50
270.0
  0
INSERT
  5
7F4C
330
6F8B
100
AcDbEntity
  8
SUNPOU
100
AcDbBlockReference
  2
_OPEN
 10
333.7025146717153
 20
203.9074088050999
 30
0.0
 41
7.0
 42
7.0
 43
7.0
 50
90.0
  0
MTEXT
  5
7F4D
330
6F8B
100
AcDbEntity
  8
SUNPOU
100
AcDbMText
 10
328.7025146717152
 20
189.6673420894447
 30
0.0
 40
6.0
 41
0.0
 71
     5
 72
     5
  1
\A1;28
 11
0.0000000000000001
 21
1.0
 31
0.0
 73
     1
 44
1.0
1001
ACAD
1000
MTEXTBEGIN
1070
    73
1070
     1
1070
    44
1040
1.0
1070
    74
1070
     0
1000
MTEXTEND
  0
POINT
  5
7F4E
330
6F8B
100
AcDbEntity
  8
DEFPOINTS
 62
     0
100
AcDbPoint
 10
363.0302344608547
 20
175.4272753737894
 30
0.0
  0
POINT
  5
7F4F
330
6F8B
100
AcDbEntity
  8
DEFPOINTS
 62
     0
100
AcDbPoint
 10
374.0963628357665
 20
203.9074088050999
 30
0.0
  0
POINT
  5
7F50
330
6F8B
100
AcDbEntity
  8
DEFPOINTS
 62
     0
100
AcDbPoint
 10
333.7025146717153
 20
203.9074088050999
 30
0.0
  0
ENDBLK
  5
6F96
330
6F8B
100
AcDbEntity
  8
0
100
AcDbBlockEnd
  0
BLOCK
  5
6FA1
330
6F97
100
AcDbEntity
  8
0
100
AcDbBlockBegin
  2
*D11
 70
     1
 10
0.0
 20
0.0
 30
0.0
  3
*D11
  1

  0
LINE
  5
7F5A
330
6F97
100
AcDbEntity
  8
SUNPOU
 62
     4
370
    -2
100
AcDbLine
 10
245.6565132725641
 20
441.8949367734783
 30
0.0
 11
245.6565132725641
 21
461.1775769982714
 31
0.0
  0
LINE
  5
7F5B
330
6F97
100
AcDbEntity
  8
SUNPOU
 62
     4
370
    -2
100
AcDbLine
 10
309.1565132725643
 20
441.8949367734783
 30
0.0
 11
309.1565132725643
 21
461.1775769982714
 31
0.0
  0
LINE
  5
7F5C
330
6F97
100
AcDbEntity
  8
SUNPOU
 62
     4
370
    -2
100
AcDbLine
 10
252.656513272564
 20
458.1775769982715
 30
0.0
 11
302.1565132725643
 21
458.1775769982715
 31
0.0
  0
INSERT
  5
7F5D
330
6F97
100
AcDbEntity
  8
SUNPOU
 62
     4
370
    -2
100
AcDbBlockReference
  2
_OPEN
 10
245.6565132725641
 20
458.1775769982715
 30
0.0
 41
7.0
 42
7.0
 43
7.0
 50
180.0
  0
INSERT
  5
7F5E
330
6F97
100
AcDbEntity
  8
SUNPOU
 62
     4
370
    -2
100
AcDbBlockReference
  2
_OPEN
 10
309.1565132725643
 20
458.1775769982715
 30
0.0
 41
7.0
 42
7.0
 43
7.0
  0
MTEXT
  5
7F5F
330
6F97
100
AcDbEntity
  8
SUNPOU
 62
     4
100
AcDbMText
 10
277.4065132725642
 20
463.1775769982715
 30
0.0
 40
6.0
 41
0.0
 71
     5
 72
     5
  1
\A1;64
 73
     1
 44
1.0
1001
ACAD
1000
MTEXTBEGIN
1070
    73
1070
     1
1070
    44
1040
1.0
1070
    74
1070
     0
1000
MTEXTEND
  0
POINT
  5
7F60
330
6F97
100
AcDbEntity
  8
DEFPOINTS
 62
     0
100
AcDbPoint
 10
245.6565132725641
 20
435.8949367734783
 30
0.0
  0
POINT
  5
7F61
330
6F97
100
AcDbEntity
  8
DEFPOINTS
 62
     0
100
AcDbPoint
 10
309.1565132725643
 20
435.8949367734783
 30
0.0
  0
POINT
  5
7F62
330
6F97
100
AcDbEntity
  8
DEFPOINTS
 62
     0
100
AcDbPoint
 10
309.1565132725643
 20
458.1775769982715
 30
0.0
  0
ENDBLK
  5
6FA2
330
6F97
100
AcDbEntity
  8
0
100
AcDbBlockEnd
  0
BLOCK
  5
6FAD
330
6FA3
100
AcDbEntity
  8
0
100
AcDbBlockBegin
  2
*D12
 70
     1
 10
0.0
 20
0.0
 30
0.0
  3
*D12
  1

  0
LINE
  5
7BC4
330
6FA3
100
AcDbEntity
  8
SUNPOU
100
AcDbLine
 10
617.9838038182131
 20
169.6067186262429
 30
0.0
 11
617.9838038182131
 21
95.43129408641092
 31
0.0
  0
LINE
  5
7BC5
330
6FA3
100
AcDbEntity
  8
SUNPOU
100
AcDbLine
 10
657.9838038185608
 20
169.6067186262428
 30
0.0
 11
657.9838038185608
 21
95.43129408641092
 31
0.0
  0
LINE
  5
7BC6
330
6FA3
100
AcDbEntity
  8
SUNPOU
100
AcDbLine
 10
624.9838038182131
 20
98.4312940864109
 30
0.0
 11
650.983803818561
 21
98.4312940864109
 31
0.0
  0
INSERT
  5
7BC7
330
6FA3
100
AcDbEntity
  8
SUNPOU
100
AcDbBlockReference
  2
_OPEN
 10
617.9838038182131
 20
98.4312940864109
 30
0.0
 41
7.0
 42
7.0
 43
7.0
 50
180.0
  0
INSERT
  5
7BC8
330
6FA3
100
AcDbEntity
  8
SUNPOU
100
AcDbBlockReference
  2
_OPEN
 10
657.9838038185608
 20
98.4312940864109
 30
0.0
 41
7.0
 42
7.0
 43
7.0
  0
MTEXT
  5
7BC9
330
6FA3
100
AcDbEntity
  8
SUNPOU
100
AcDbMText
 10
637.9838038183869
 20
103.4312940864108
 30
0.0
 40
6.0
 41
0.0
 71
     5
 72
     5
  1
\A1;40
 73
     1
 44
1.0
1001
ACAD
1000
MTEXTBEGIN
1070
    73
1070
     1
1070
    44
1040
1.0
1070
    74
1070
     0
1000
MTEXTEND
  0
POINT
  5
7BCA
330
6FA3
100
AcDbEntity
  8
DEFPOINTS
 62
     0
100
AcDbPoint
 10
617.9838038182131
 20
175.6067186262429
 30
0.0
  0
POINT
  5
7BCB
330
6FA3
100
AcDbEntity
  8
DEFPOINTS
 62
     0
100
AcDbPoint
 10
657.9838038185608
 20
175.6067186262428
 30
0.0
  0
POINT
  5
7BCC
330
6FA3
100
AcDbEntity
  8
DEFPOINTS
 62
     0
100
AcDbPoint
 10
657.9838038185608
 20
98.4312940864109
 30
0.0
  0
ENDBLK
  5
6FAE
330
6FA3
100
AcDbEntity
  8
0
100
AcDbBlockEnd
  0
BLOCK
  5
6FB9
330
6FAF
100
AcDbEntity
  8
0
100
AcDbBlockBegin
  2
*D13
 70
     1
 10
0.0
 20
0.0
 30
0.0
  3
*D13
  1

  0
LINE
  5
7F00
330
6FAF
100
AcDbEntity
  8
SUNPOU
100
AcDbLine
 10
411.6065132723234
 20
172.5272753737892
 30
0.0
 11
449.6724639612183
 21
172.5272753737892
 31
0.0
  0
LINE
  5
7F01
330
6FAF
100
AcDbEntity
  8
SUNPOU
100
AcDbLine
 10
402.0065132722302
 20
116.7272753737893
 30
0.0
 11
449.6724639612181
 21
116.7272753737893
 31
0.0
  0
LINE
  5
7F02
330
6FAF
100
AcDbEntity
  8
SUNPOU
100
AcDbLine
 10
446.6724639612182
 20
165.5272753737892
 30
0.0
 11
446.6724639612182
 21
123.7272753737893
 31
0.0
  0
INSERT
  5
7F03
330
6FAF
100
AcDbEntity
  8
SUNPOU
100
AcDbBlockReference
  2
_OPEN
 10
446.6724639612182
 20
172.5272753737892
 30
0.0
 41
7.0
 42
7.0
 43
7.0
 50
90.0
  0
INSERT
  5
7F04
330
6FAF
100
AcDbEntity
  8
SUNPOU
100
AcDbBlockReference
  2
_OPEN
 10
446.6724639612182
 20
116.7272753737893
 30
0.0
 41
7.0
 42
7.0
 43
7.0
 50
270.0
  0
MTEXT
  5
7F05
330
6FAF
100
AcDbEntity
  8
SUNPOU
100
AcDbMText
 10
441.6724639612182
 20
144.6272753737893
 30
0.0
 40
6.0
 41
0.0
 71
     5
 72
     5
  1
\A1;56
 11
0.0000000000000001
 21
1.0
 31
0.0
 73
     1
 44
1.0
1001
ACAD
1000
MTEXTBEGIN
1070
    73
1070
     1
1070
    44
1040
1.0
1070
    74
1070
     0
1000
MTEXTEND
  0
POINT
  5
7F06
330
6FAF
100
AcDbEntity
  8
DEFPOINTS
 62
     0
100
AcDbPoint
 10
405.6065132723236
 20
172.5272753737892
 30
0.0
  0
POINT
  5
7F07
330
6FAF
100
AcDbEntity
  8
DEFPOINTS
 62
     0
100
AcDbPoint
 10
396.0065132722302
 20
116.7272753737893
 30
0.0
  0
POINT
  5
7F08
330
6FAF
100
AcDbEntity
  8
DEFPOINTS
 62
     0
100
AcDbPoint
 10
446.6724639612182
 20
116.7272753737893
 30
0.0
  0
ENDBLK
  5
6FBA
330
6FAF
100
AcDbEntity
  8
0
100
AcDbBlockEnd
  0
BLOCK
  5
6FC5
330
6FBB
100
AcDbEntity
  8
0
100
AcDbBlockBegin
  2
*D14
 70
     1
 10
0.0
 20
0.0
 30
0.0
  3
*D14
  1

  0
LINE
  5
7EF7
330
6FBB
100
AcDbEntity
  8
SUNPOU
100
AcDbLine
 10
410.6065132725205
 20
208.1461929517079
 30
0.0
 11
449.6724639612181
 21
208.1461929517079
 31
0.0
  0
LINE
  5
7EF8
330
6FBB
100
AcDbEntity
  8
SUNPOU
100
AcDbLine
 10
411.606529687816
 20
172.5272753738505
 30
0.0
 11
449.6724639612181
 21
172.5272753738504
 31
0.0
  0
LINE
  5
7EF9
330
6FBB
100
AcDbEntity
  8
SUNPOU
100
AcDbLine
 10
446.6724639612182
 20
201.1461929517079
 30
0.0
 11
446.6724639612182
 21
179.5272753738505
 31
0.0
  0
INSERT
  5
7EFA
330
6FBB
100
AcDbEntity
  8
SUNPOU
100
AcDbBlockReference
  2
_OPEN
 10
446.6724639612182
 20
208.1461929517079
 30
0.0
 41
7.0
 42
7.0
 43
7.0
 50
90.0
  0
INSERT
  5
7EFB
330
6FBB
100
AcDbEntity
  8
SUNPOU
100
AcDbBlockReference
  2
_OPEN
 10
446.6724639612182
 20
172.5272753738505
 30
0.0
 41
7.0
 42
7.0
 43
7.0
 50
270.0
  0
MTEXT
  5
7EFC
330
6FBB
100
AcDbEntity
  8
SUNPOU
100
AcDbMText
 10
441.6724639612182
 20
190.3367341627792
 30
0.0
 40
6.0
 41
0.0
 71
     5
 72
     5
  1
\A1;36
 11
0.0000000000000001
 21
1.0
 31
0.0
 73
     1
 44
1.0
1001
ACAD
1000
MTEXTBEGIN
1070
    73
1070
     1
1070
    44
1040
1.0
1070
    74
1070
     0
1000
MTEXTEND
  0
POINT
  5
7EFD
330
6FBB
100
AcDbEntity
  8
DEFPOINTS
 62
     0
100
AcDbPoint
 10
404.6065132725203
 20
208.1461929517079
 30
0.0
  0
POINT
  5
7EFE
330
6FBB
100
AcDbEntity
  8
DEFPOINTS
 62
     0
100
AcDbPoint
 10
405.6065296878158
 20
172.5272753738505
 30
0.0
  0
POINT
  5
7EFF
330
6FBB
100
AcDbEntity
  8
DEFPOINTS
 62
     0
100
AcDbPoint
 10
446.6724639612182
 20
172.5272753738505
 30
0.0
  0
ENDBLK
  5
6FC6
330
6FBB
100
AcDbEntity
  8
0
100
AcDbBlockEnd
  0
BLOCK
  5
6FD1
330
6FC7
100
AcDbEntity
  8
0
100
AcDbBlockBegin
  2
*D15
 70
     1
 10
0.0
 20
0.0
 30
0.0
  3
*D15
  1

  0
LINE
  5
7EEE
330
6FC7
100
AcDbEntity
  8
SUNPOU
100
AcDbLine
 10
413.8065132723594
 20
548.6818676884263
 30
0.0
 11
449.6724639612181
 21
548.6818676884263
 31
0.0
  0
LINE
  5
7EEF
330
6FC7
100
AcDbEntity
  8
SUNPOU
100
AcDbLine
 10
413.8065132723594
 20
508.6818676884262
 30
0.0
 11
449.6724639612181
 21
508.6818676884262
 31
0.0
  0
LINE
  5
7EF0
330
6FC7
100
AcDbEntity
  8
SUNPOU
100
AcDbLine
 10
446.6724639612182
 20
541.6818676884263
 30
0.0
 11
446.6724639612182
 21
515.6818676884263
 31
0.0
  0
INSERT
  5
7EF1
330
6FC7
100
AcDbEntity
  8
SUNPOU
100
AcDbBlockReference
  2
_OPEN
 10
446.6724639612182
 20
548.6818676884263
 30
0.0
 41
7.0
 42
7.0
 43
7.0
 50
90.0
  0
INSERT
  5
7EF2
330
6FC7
100
AcDbEntity
  8
SUNPOU
100
AcDbBlockReference
  2
_OPEN
 10
446.6724639612182
 20
508.6818676884262
 30
0.0
 41
7.0
 42
7.0
 43
7.0
 50
270.0
  0
MTEXT
  5
7EF3
330
6FC7
100
AcDbEntity
  8
SUNPOU
100
AcDbMText
 10
441.6724639612182
 20
528.6818676884263
 30
0.0
 40
6.0
 41
0.0
 71
     5
 72
     5
  1
\A1;40
 11
0.0000000000000001
 21
1.0
 31
0.0
 73
     1
 44
1.0
1001
ACAD
1000
MTEXTBEGIN
1070
    73
1070
     1
1070
    44
1040
1.0
1070
    74
1070
     0
1000
MTEXTEND
  0
POINT
  5
7EF4
330
6FC7
100
AcDbEntity
  8
DEFPOINTS
 62
     0
100
AcDbPoint
 10
407.8065132723594
 20
548.6818676884263
 30
0.0
  0
POINT
  5
7EF5
330
6FC7
100
AcDbEntity
  8
DEFPOINTS
 62
     0
100
AcDbPoint
 10
407.8065132723594
 20
508.6818676884262
 30
0.0
  0
POINT
  5
7EF6
330
6FC7
100
AcDbEntity
  8
DEFPOINTS
 62
     0
100
AcDbPoint
 10
446.6724639612182
 20
508.6818676884262
 30
0.0
  0
ENDBLK
  5
6FD2
330
6FC7
100
AcDbEntity
  8
0
100
AcDbBlockEnd
  0
BLOCK
  5
72BC
330
72B2
100
AcDbEntity
  8
0
100
AcDbBlockBegin
  2
*D16
 70
     1
 10
0.0
 20
0.0
 30
0.0
  3
*D16
  1

  0
LINE
  5
7C82
330
72B2
100
AcDbEntity
  8
SUNPOU
100
AcDbLine
 10
626.9835148183474
 20
425.3855996262429
 30
0.0
 11
626.9835148183474
 21
466.7702656249239
 31
0.0
  0
LINE
  5
7C83
330
72B2
100
AcDbEntity
  8
SUNPOU
100
AcDbLine
 10
648.9838038183473
 20
425.3852373704114
 30
0.0
 11
648.9838038183473
 21
466.7702656249239
 31
0.0
  0
LINE
  5
7C84
330
72B2
100
AcDbEntity
  8
SUNPOU
100
AcDbLine
 10
633.9835148183474
 20
463.7702656249238
 30
0.0
 11
641.9838038183472
 21
463.7702656249238
 31
0.0
  0
INSERT
  5
7C85
330
72B2
100
AcDbEntity
  8
SUNPOU
100
AcDbBlockReference
  2
_OPEN
 10
626.9835148183474
 20
463.7702656249238
 30
0.0
 41
7.0
 42
7.0
 43
7.0
 50
180.0
  0
INSERT
  5
7C86
330
72B2
100
AcDbEntity
  8
SUNPOU
100
AcDbBlockReference
  2
_OPEN
 10
648.9838038183473
 20
463.7702656249238
 30
0.0
 41
7.0
 42
7.0
 43
7.0
  0
MTEXT
  5
7C87
330
72B2
100
AcDbEntity
  8
SUNPOU
100
AcDbMText
 10
637.9836593183472
 20
468.7702656249237
 30
0.0
 40
6.0
 41
0.0
 71
     5
 72
     5
  1
\A1;22
 73
     1
 44
1.0
1001
ACAD
1000
MTEXTBEGIN
1070
    73
1070
     1
1070
    44
1040
1.0
1070
    74
1070
     0
1000
MTEXTEND
  0
POINT
  5
7C88
330
72B2
100
AcDbEntity
  8
DEFPOINTS
 62
     0
100
AcDbPoint
 10
626.9835148183474
 20
419.3855996262429
 30
0.0
  0
POINT
  5
7C89
330
72B2
100
AcDbEntity
  8
DEFPOINTS
 62
     0
100
AcDbPoint
 10
648.9838038183473
 20
419.3852373704115
 30
0.0
  0
POINT
  5
7C8A
330
72B2
100
AcDbEntity
  8
DEFPOINTS
 62
     0
100
AcDbPoint
 10
648.9838038183473
 20
463.7702656249238
 30
0.0
  0
ENDBLK
  5
72BD
330
72B2
100
AcDbEntity
  8
0
100
AcDbBlockEnd
  0
ENDSEC
  0
SECTION
  2
ENTITIES
  0
LWPOLYLINE
  5
6C0
330
1A
100
AcDbEntity
  8
ZUWAKU
100
AcDbPolyline
 90
        4
 70
     1
 43
0.0
 10
10.85047808566059
 20
564.5825862828226
 10
10.85047808566059
 20
14.58258628282271
 10
806.8504780856606
 20
14.58258628282271
 10
806.8504780856606
 20
564.5825862828226
  0
LWPOLYLINE
  5
6C1
330
1A
100
AcDbEntity
  8
ZUWAKU
100
AcDbPolyline
 90
        4
 70
     1
 43
0.0
 10
10.45047808566073
 20
564.9825862828227
 10
10.45047808566073
 20
14.18258628282274
 10
807.2504780856606
 20
14.18258628282272
 10
807.2504780856606
 20
564.9825862828227
  0
LWPOLYLINE
  5
6C2
330
1A
100
AcDbEntity
  8
ZUWAKU
100
AcDbPolyline
 90
        4
 70
     1
 43
0.0
 10
10.05047808566086
 20
565.3825862828226
 10
10.05047808566086
 20
13.78258628282265
 10
807.6504780856605
 20
13.78258628282271
 10
807.6504780856605
 20
565.3825862828226
  0
LWPOLYLINE
  5
6C3
330
1A
100
AcDbEntity
  8
ZUWAKU
100
AcDbPolyline
 90
        4
 70
     1
 43
0.0
 10
10.65047808566077
 20
564.7825862828227
 10
10.65047808566077
 20
14.38258628282267
 10
807.0504780856609
 20
14.38258628282271
 10
807.0504780856609
 20
564.7825862828227
  0
LWPOLYLINE
  5
6C4
330
1A
100
AcDbEntity
  8
ZUWAKU
100
AcDbPolyline
 90
        4
 70
     1
 43
0.0
 10
10.25047808566068
 20
565.1825862828227
 10
10.25047808566068
 20
13.98258628282269
 10
807.4504780856605
 20
13.98258628282271
 10
807.450478085661
 20
565.1825862828227
  0
LINE
  5
6C5
330
1A
100
AcDbEntity
  8
ZUWAKU
100
AcDbLine
 10
10.05047808566086
 20
43.78258628282265
 30
0.0
 11
807.4504780856605
 21
43.78258628282265
 31
0.0
  0
LINE
  5
6C6
330
1A
100
AcDbEntity
  8
ZUWAKU
100
AcDbLine
 10
10.05047808566086
 20
43.98258628282264
 30
0.0
 11
807.4504780856605
 21
43.98258628282264
 31
0.0
  0
LINE
  5
6C7
330
1A
100
AcDbEntity
  8
ZUWAKU
100
AcDbLine
 10
10.05047808566086
 20
44.18258628282266
 30
0.0
 11
807.4504780856605
 21
44.18258628282266
 31
0.0
  0
LINE
  5
6C8
330
1A
100
AcDbEntity
  8
ZUWAKU
100
AcDbLine
 10
10.05047808566086
 20
44.38258628282265
 30
0.0
 11
807.4504780856605
 21
44.38258628282265
 31
0.0
  0
LINE
  5
6C9
330
1A
100
AcDbEntity
  8
ZUWAKU
100
AcDbLine
 10
10.05047808566086
 20
44.58258628282265
 30
0.0
 11
807.4504780856605
 21
44.58258628282265
 31
0.0
  0
LINE
  5
6CA
330
1A
100
AcDbEntity
  8
ZUWAKU
100
AcDbLine
 10
218.6970793757286
 20
29.18258628282268
 30
0.0
 11
457.4748420566519
 21
29.18258628282268
 31
0.0
  0
LINE
  5
6CB
330
1A
100
AcDbEntity
  8
ZUWAKU
100
AcDbLine
 10
218.6970793757286
 20
29.38258628282268
 30
0.0
 11
457.4748420566519
 21
29.38258628282268
 31
0.0
  0
LINE
  5
6CC
330
1A
100
AcDbEntity
  8
ZUWAKU
100
AcDbLine
 10
218.6970793757286
 20
28.98258628282269
 30
0.0
 11
457.4748420566519
 21
28.98258628282268
 31
0.0
  0
LINE
  5
6D2
330
1A
100
AcDbEntity
  8
ZUWAKU
100
AcDbLine
 10
22.57284175945823
 20
29.44753577648383
 30
0.0
 11
25.48263973410303
 21
26.53773780183917
 31
0.0
  0
LINE
  5
6D3
330
1A
100
AcDbEntity
  8
ZUWAKU
100
AcDbLine
 10
27.46253872142551
 20
28.51763678916148
 30
0.0
 11
24.55274074678072
 21
31.42743476380615
 31
0.0
  0
ARC
  5
6D4
330
1A
100
AcDbEntity
  8
ZUWAKU
100
AcDbCircle
 10
24.66769024044197
 20
33.70758628282265
 30
0.0
 40
0.525
100
AcDbArc
 50
90.0
 51
180.0
  0
LINE
  5
6D5
330
1A
100
AcDbEntity
  8
ZUWAKU
100
AcDbLine
 10
24.14269024044187
 20
37.03258628282265
 30
0.0
 11
27.64269024044188
 21
37.03258628282265
 31
0.0
  0
LINE
  5
6D6
330
1A
100
AcDbEntity
  8
ZUWAKU
100
AcDbLine
 10
22.39269024044188
 20
23.73258628282265
 30
0.0
 11
25.36769024044179
 21
23.73258628282265
 31
0.0
  0
LINE
  5
6D7
330
1A
100
AcDbEntity
  8
ZUWAKU
100
AcDbLine
 10
22.39269024044188
 20
20.93258628282265
 30
0.0
 11
25.89269024044188
 21
20.93258628282265
 31
0.0
  0
INSERT
  5
6D8
330
1A
100
AcDbEntity
  8
ZUWAKU
  6
Continuous
100
AcDbBlockReference
  2
*X1
 10
12.342212154781
 20
7.675000000000003
 30
0.0
1001
ACAD
1000
HATCH
1002
{
1070
    19
1000
ANSI37
1040
0.2
1040
0.0
1000
R14_HATCH_DATA
1000
4E4
1011
13.34221215478101
1021
7.675000000000003
1031
0.0
1011
12.342212154781
1021
8.675000000000004
1031
0.0
1011
12.342212154781
1021
7.675000000000003
1031
1.0
1040
0.0
1010
0.0
1020
0.0
1030
1.0
1000
ANSI37
1070
     0
1070
     0
1071
        8
1071
        7
1070
     1
1070
     1
1071
       24
1040
12.2105285919996
1040
23.75243476380622
1040
-0.1989123673796348
1040
11.80047808566087
1040
24.74238425746728
1040
0.0
1040
11.80047808566087
1040
26.03258628282265
1040
-0.4142135623730912
1040
12.32547808566084
1040
26.55758628282264
1040
0.0
1040
15.30047808566075
1040
26.55758628282264
1040
0.4142135623731546
1040
15.82547808566084
1040
27.08258628282264
1040
0.0
1040
15.82547808566084
1040
28.83258628282265
1040
0.4142135623731586
1040
15.30047808566075
1040
29.35758628282265
1040
0.0
1040
11.80047808566087
1040
29.35758628282265
1040
0.4142135623730928
1040
9.000478085660914
1040
26.55758628282268
1040
0.0
1040
9.000478085660914
1040
24.7423842574674
1040
0.1989123673796619
1040
10.23062960467734
1040
21.77253577648381
1040
0.0
1040
13.14042757932202
1040
18.86273780183914
1040
-0.1989123673796613
1040
13.55047808566087
1040
17.87278830817795
1040
0.0
1040
13.55047808566087
1040
16.58258628282264
1040
-0.4142135623730911
1040
13.02547808566089
1040
16.05758628282264
1040
0.0
1040
10.05047808566098
1040
16.05758628282264
1040
0.4142135623731526
1040
9.525478085660893
1040
15.53258628282265
1040
0.0
1040
9.525478085660893
1040
13.78258628282263
1040
0.4142135623731526
1040
10.05047808566098
1040
13.25758628282265
1040
0.0
1040
13.55047808566087
1040
13.25758628282265
1040
0.4142135623731045
1040
16.35047808566094
1040
16.05758628282262
1040
0.0
1040
16.35047808566094
1040
17.87278830817789
1040
0.1989123673796604
1040
15.12032656664439
1040
20.84263678916144
1040
0.0
1071
        0
1071
        7
1070
     1
1070
     1
1071
       16
1040
21.25047808566091
1040
25.15758628282265
1040
-0.4142135623730935
1040
22.65047808566089
1040
26.55758628282264
1040
0.0
1040
24.57547808566086
1040
26.55758628282264
1040
0.4142135623731546
1040
25.10047808566094
1040
27.08258628282264
1040
0.0
1040
25.10047808566094
1040
28.83258628282265
1040
0.4142135623730951
1040
24.57547808566096
1040
29.35758628282265
1040
0.0
1040
22.65047808566079
1040
29.35758628282261
1040
0.4142135623730893
1040
18.45047808566084
1040
25.15758628282258
1040
0.0
1040
18.45047808566084
1040
17.45758628282267
1040
0.4142135623730969
1040
22.65047808566089
1040
13.25758628282265
1040
0.0
1040
24.57547808566086
1040
13.25758628282265
1040
0.4142135623731526
1040
25.10047808566094
1040
13.78258628282263
1040
0.0
1040
25.10047808566094
1040
15.53258628282265
1040
0.4142135623730891
1040
24.57547808566096
1040
16.05758628282264
1040
0.0
1040
22.65047808566089
1040
16.05758628282264
1040
-0.4142135623730928
1040
21.25047808566091
1040
17.45758628282263
1040
0.0
1071
        0
1071
        7
1070
     1
1070
     1
1071
        2
1040
21.95047808566084
1040
21.30758628282265
1040
1.0
1040
25.45047808566085
1040
21.30758628282265
1040
1.0
1071
        0
1071
        7
1070
     1
1070
     1
1071
       26
1040
35.02312456783886
1040
25.31263347638607
1040
0.0
1040
36.08476420097668
1040
28.67449231465566
1040
0.5069206636600134
1040
35.58413330178132
1040
29.35758628282265
1040
0.0
1040
33.88524392217209
1040
29.35758628282265
1040
0.3272098845218764
1040
33.38461302297673
1040
28.99068025098963
1040
0.0
1040
31.51634314834495
1040
23.07449231465573
1040
-0.3272098845219541
1040
31.01571224914948
1040
22.70758628282264
1040
0.0
1040
30.87547808566103
1040
22.70758628282264
1040
-0.4142135623731526
1040
30.35047808566094
1040
23.23258628282263
1040
0.0
1040
30.35047808566094
1040
28.83258628282265
1040
0.4142135623730951
1040
29.82547808566096
1040
29.35758628282265
1040
0.0
1040
28.07547808566084
1040
29.35758628282265
1040
0.4142135623730871
1040
27.55047808566088
1040
28.83258628282266
1040
0.0
1040
27.55047808566088
1040
13.78258628282263
1040
0.4142135623730891
1040
28.07547808566084
1040
13.25758628282265
1040
0.0
1040
29.82547808566085
1040
13.25758628282265
1040
0.4142135623731526
1040
30.35047808566094
1040
13.78258628282263
1040
0.0
1040
30.35047808566094
1040
19.38258628282266
1040
-0.4142135623731526
1040
30.87547808566103
1040
19.90758628282264
1040
0.0
1040
31.01571224914961
1040
19.90758628282264
1040
-0.3272098845218915
1040
31.51634314834495
1040
19.54068025098957
1040
0.0
1040
33.38461302297673
1040
13.62449231465572
1040
0.3272098845218902
1040
33.88524392217209
1040
13.25758628282265
1040
0.0
1040
35.58413330178132
1040
13.25758628282265
1040
0.5069206636600336
1040
36.08476420097668
1040
13.94068025098965
1040
0.0
1040
33.75837282250301
1040
21.30758628282279
1040
0.0
1071
        0
1071
        7
1070
     1
1070
     1
1071
        8
1040
41.20047808566083
1040
28.83258628282266
1040
0.4142135623731546
1040
40.67547808566074
1040
29.35758628282265
1040
0.0
1040
38.92547808566098
1040
29.35758628282265
1040
0.4142135623731507
1040
38.40047808566089
1040
28.83258628282266
1040
0.0
1040
38.40047808566089
1040
13.78258628282263
1040
0.4142135623731526
1040
38.92547808566098
1040
13.25758628282265
1040
0.0
1040
40.67547808566074
1040
13.25758628282265
1040
0.4142135623731526
1040
41.20047808566083
1040
13.78258628282263
1040
0.0
1071
        0
1071
        7
1070
     1
1070
     1
1071
       24
1040
46.10047808566092
1040
26.03258628282265
1040
-0.4142135623731546
1040
46.62547808566102
1040
26.55758628282264
1040
0.0
1040
49.60047808566093
1040
26.55758628282264
1040
0.4142135623730911
1040
50.12547808566091
1040
27.08258628282264
1040
0.0
1040
50.12547808566091
1040
28.83258628282265
1040
0.4142135623730952
1040
49.60047808566093
1040
29.35758628282265
1040
0.0
1040
46.10047808566092
1040
29.35758628282265
1040
0.4142135623731048
1040
43.30047808566087
1040
26.55758628282268
1040
0.0
1040
43.30047808566087
1040
24.7423842574674
1040
0.1989123673796613
1040
44.5306296046774
1040
21.77253577648385
1040
0.0
1040
47.44042757932208
1040
18.86273780183918
1040
-0.1989123673796402
1040
47.85047808566093
1040
17.87278830817811
1040
0.0
1040
47.85047808566093
1040
16.58258628282264
1040
-0.4142135623730911
1040
47.32547808566096
1040
16.05758628282264
1040
0.0
1040
44.35047808566093
1040
16.05758628282264
1040
0.4142135623731526
1040
43.82547808566084
1040
15.53258628282265
1040
0.0
1040
43.82547808566084
1040
13.78258628282263
1040
0.4142135623730891
1040
44.35047808566081
1040
13.25758628282265
1040
0.0
1040
47.85047808566093
1040
13.25758628282265
1040
0.4142135623730925
1040
50.65047808566088
1040
16.05758628282262
1040
0.0
1040
50.65047808566088
1040
17.87278830817789
1040
0.1989123673796675
1040
49.42032656664435
1040
20.84263678916155
1040
0.0
1040
46.51052859199977
1040
23.75243476380607
1040
-0.1989123673796652
1040
46.10047808566092
1040
24.74238425746723
1040
0.0
1071
        0
1071
        7
1070
     1
1070
     1
1071
       16
1040
55.55047808566087
1040
28.83258628282264
1040
0.414213562373103
1040
55.02547808566088
1040
29.35758628282265
1040
0.0
1040
53.27547808566088
1040
29.35758628282265
1040
0.4142135623730871
1040
52.75047808566093
1040
28.83258628282266
1040
0.0
1040
52.75047808566093
1040
16.05758628282262
1040
0.4142135623730927
1040
55.55047808566087
1040
13.25758628282265
1040
0.0
1040
59.05047808566087
1040
13.25758628282265
1040
0.4142135623731045
1040
61.85047808566093
1040
16.05758628282262
1040
0.0
1040
61.85047808566093
1040
28.83258628282265
1040
0.4142135623730951
1040
61.32547808566096
1040
29.35758628282265
1040
0.0
1040
59.57547808566085
1040
29.35758628282265
1040
0.4142135623730871
1040
59.05047808566087
1040
28.83258628282266
1040
0.0
1040
59.05047808566087
1040
17.10758628282262
1040
-0.4142135623730879
1040
58.00047808566091
1040
16.05758628282264
1040
0.0
1040
56.60047808566093
1040
16.05758628282264
1040
-0.4142135623731197
1040
55.55047808566087
1040
17.10758628282262
1040
0.0
1071
        0
1071
        7
1070
     1
1070
     1
1071
        8
1040
66.7504780856609
1040
28.83258628282266
1040
0.4142135623730871
1040
66.22547808566094
1040
29.35758628282265
1040
0.0
1040
64.47547808566094
1040
29.35758628282265
1040
0.4142135623731507
1040
63.95047808566085
1040
28.83258628282266
1040
0.0
1040
63.95047808566085
1040
13.78258628282263
1040
0.4142135623730891
1040
64.47547808566082
1040
13.25758628282265
1040
0.0
1040
66.22547808566094
1040
13.25758628282265
1040
0.4142135623730891
1040
66.7504780856609
1040
13.78258628282263
1040
0.0
1071
        0
1070
     0
1070
     1
1040
0.0
1040
0.2
1070
     0
1070
     2
1040
0.7853981633974483
1040
-903.2340384037993
1040
-7.092413717177286
1040
-0.4490128060534576
1040
0.4490128060534577
1070
     0
1040
2.356194490192344
1040
-903.2340384037993
1040
-7.092413717177286
1040
-0.4490128060534577
1040
-0.4490128060534576
1070
     0
1040
0.057451373970553
1071
        8
1040
13.78812089390305
1040
21.2747599287082
1040
0.0
1040
20.11278093731891
1040
24.95164846527365
1040
0.0
1040
22.8726338165394
1040
21.61946792889336
1040
0.0
1040
28.62232591251688
1040
22.30888392926414
1040
0.0
1040
39.54673794983648
1040
22.76849619680576
1040
0.0
1040
44.6064668260093
1040
25.52616259922985
1040
0.0
1040
54.2659519032801
1040
24.83674419791766
1040
0.0
1040
65.53534555050247
1040
25.29635646545927
1040
0.0
1002
}
  0
ARC
  5
6D9
330
1A
100
AcDbEntity
  8
ZUWAKU
100
AcDbCircle
 10
22.39269024044188
 20
23.20758628282264
 30
0.0
 40
0.525
100
AcDbArc
 50
90.0
 51
180.0
  0
ARC
  5
6DA
330
1A
100
AcDbEntity
  8
ZUWAKU
100
AcDbCircle
 10
22.39269024044188
 20
21.45758628282265
 30
0.0
 40
0.525
100
AcDbArc
 50
180.0
 51
270.0
  0
LINE
  5
6DB
330
1A
100
AcDbEntity
  8
ZUWAKU
100
AcDbLine
 10
21.86769024044179
 20
21.45758628282265
 30
0.0
 11
21.86769024044179
 21
23.20758628282264
 31
0.0
  0
ARC
  5
6DC
330
1A
100
AcDbEntity
  8
ZUWAKU
100
AcDbCircle
 10
25.54269024044197
 20
32.41738425746735
 30
0.0
 40
4.199999999999998
100
AcDbArc
 50
180.0
 51
224.9999999999996
  0
ARC
  5
6DD
330
1A
100
AcDbEntity
  8
ZUWAKU
100
AcDbCircle
 10
25.54269024044197
 20
32.41738425746735
 30
0.0
 40
1.399999999999999
100
AcDbArc
 50
180.0000000000016
 51
224.9999999999993
  0
ARC
  5
6DE
330
1A
100
AcDbEntity
  8
ZUWAKU
100
AcDbCircle
 10
24.14269024044187
 20
34.23258628282265
 30
0.0
 40
2.799999999999998
100
AcDbArc
 50
90.0
 51
180.0
  0
LINE
  5
6DF
330
1A
100
AcDbEntity
  8
ZUWAKU
100
AcDbLine
 10
21.34269024044192
 20
34.23258628282265
 30
0.0
 11
21.34269024044192
 21
32.4173842574673
 31
0.0
  0
LINE
  5
6E0
330
1A
100
AcDbEntity
  8
ZUWAKU
100
AcDbLine
 10
24.14269024044187
 20
33.70758628282265
 30
0.0
 11
24.14269024044187
 21
32.4173842574673
 31
0.0
  0
LINE
  5
6E1
330
1A
100
AcDbEntity
  8
ZUWAKU
100
AcDbLine
 10
89.17710763364903
 20
43.78258628282265
 30
0.0
 11
89.17710763364903
 21
14.58258628282271
 31
0.0
  0
LINE
  5
6E2
330
1A
100
AcDbEntity
  8
ZUWAKU
100
AcDbLine
 10
89.57710763364913
 20
43.78258628282265
 30
0.0
 11
89.57710763364913
 21
14.58258628282271
 31
0.0
  0
LINE
  5
6E3
330
1A
100
AcDbEntity
  8
ZUWAKU
100
AcDbLine
 10
89.37710763364883
 20
43.78258628282265
 30
0.0
 11
89.37710763364931
 21
14.58258628282271
 31
0.0
  0
LINE
  5
6E4
330
1A
100
AcDbEntity
  8
ZUWAKU
100
AcDbLine
 10
56.87284175945841
 20
29.44753577648383
 30
0.0
 11
59.78263973410321
 21
26.53773780183917
 31
0.0
  0
ARC
  5
6E5
330
1A
100
AcDbEntity
  8
ZUWAKU
100
AcDbCircle
 10
58.44269024044207
 20
34.23258628282265
 30
0.0
 40
2.799999999999998
100
AcDbArc
 50
90.0
 51
180.0
  0
LINE
  5
6E6
330
1A
100
AcDbEntity
  8
ZUWAKU
100
AcDbLine
 10
56.69269024044207
 20
20.93258628282265
 30
0.0
 11
60.19269024044207
 21
20.93258628282265
 31
0.0
  0
LINE
  5
6E7
330
1A
100
AcDbEntity
  8
ZUWAKU
100
AcDbLine
 10
56.69269024044207
 20
23.73258628282265
 30
0.0
 11
59.66769024044197
 21
23.73258628282265
 31
0.0
  0
LINE
  5
6E8
330
1A
100
AcDbEntity
  8
ZUWAKU
100
AcDbLine
 10
42.16769024044197
 20
37.03258628282265
 30
0.0
 11
40.41769024044197
 21
37.03258628282265
 31
0.0
  0
LINE
  5
6E9
330
1A
100
AcDbEntity
  8
ZUWAKU
100
AcDbLine
 10
40.41769024044197
 20
20.93258628282265
 30
0.0
 11
42.16769024044197
 21
20.93258628282265
 31
0.0
  0
LINE
  5
6EA
330
1A
100
AcDbEntity
  8
ZUWAKU
100
AcDbLine
 10
39.89269024044189
 20
36.50758628282265
 30
0.0
 11
39.89269024044189
 21
21.45758628282265
 31
0.0
  0
LINE
  5
6EB
330
1A
100
AcDbEntity
  8
ZUWAKU
100
AcDbLine
 10
30.79269024044197
 20
25.13258628282265
 30
0.0
 11
30.79269024044197
 21
32.83258628282261
 31
0.0
  0
LINE
  5
6EC
330
1A
100
AcDbEntity
  8
ZUWAKU
100
AcDbLine
 10
33.59269024044193
 20
32.83258628282265
 30
0.0
 11
33.59269024044193
 21
25.13258628282265
 31
0.0
  0
ARC
  5
6ED
330
1A
100
AcDbEntity
  8
ZUWAKU
100
AcDbCircle
 10
24.49269024044179
 20
25.54778830817795
 30
0.0
 40
4.199999999999998
100
AcDbArc
 50
0.0
 51
44.9999999999996
  0
CIRCLE
  5
6EE
330
1A
100
AcDbEntity
  8
ZUWAKU
100
AcDbCircle
 10
36.04269024044197
 20
28.98258628282265
 30
0.0
 40
1.75
  0
ARC
  5
6EF
330
1A
100
AcDbEntity
  8
ZUWAKU
100
AcDbCircle
 10
34.99269024044179
 20
25.13258628282265
 30
0.0
 40
4.199999999999998
100
AcDbArc
 50
180.0
 51
270.0
  0
LINE
  5
6F0
330
1A
100
AcDbEntity
  8
ZUWAKU
100
AcDbLine
 10
28.69269024044206
 20
23.73258628282265
 30
0.0
 11
28.69269024044206
 21
25.547788308178
 31
0.0
  0
ARC
  5
6F1
330
1A
100
AcDbEntity
  8
ZUWAKU
100
AcDbCircle
 10
25.36769024044179
 20
24.25758628282265
 30
0.0
 40
0.525
100
AcDbArc
 50
270.0
 51
0.0
  0
LINE
  5
6F2
330
1A
100
AcDbEntity
  8
ZUWAKU
100
AcDbLine
 10
25.89269024044188
 20
24.25758628282265
 30
0.0
 11
25.89269024044188
 21
25.547788308178
 31
0.0
  0
ARC
  5
6F3
330
1A
100
AcDbEntity
  8
ZUWAKU
100
AcDbCircle
 10
25.89269024044188
 20
23.73258628282265
 30
0.0
 40
2.799999999999998
100
AcDbArc
 50
270.0
 51
0.0
  0
ARC
  5
6F4
330
1A
100
AcDbEntity
  8
ZUWAKU
100
AcDbCircle
 10
24.49269024044179
 20
25.547788308178
 30
0.0
 40
1.399999999999999
100
AcDbArc
 50
0.0
 51
44.9999999999996
  0
ARC
  5
6F5
330
1A
100
AcDbEntity
  8
ZUWAKU
100
AcDbCircle
 10
40.41769024044197
 20
21.45758628282265
 30
0.0
 40
0.525
100
AcDbArc
 50
180.0
 51
270.0
  0
ARC
  5
6F6
330
1A
100
AcDbEntity
  8
ZUWAKU
100
AcDbCircle
 10
36.91769024044197
 20
23.20758628282264
 30
0.0
 40
0.525
100
AcDbArc
 50
0.0
 51
90.0
  0
ARC
  5
6F7
330
1A
100
AcDbEntity
  8
ZUWAKU
100
AcDbCircle
 10
36.91769024044197
 20
21.45758628282265
 30
0.0
 40
0.525
100
AcDbArc
 50
270.0
 51
0.0
  0
LINE
  5
6F8
330
1A
100
AcDbEntity
  8
ZUWAKU
100
AcDbLine
 10
37.44269024044206
 20
23.20758628282264
 30
0.0
 11
37.44269024044206
 21
21.45758628282265
 31
0.0
  0
ARC
  5
6F9
330
1A
100
AcDbEntity
  8
ZUWAKU
100
AcDbCircle
 10
34.99269024044179
 20
25.13258628282265
 30
0.0
 40
1.399999999999999
100
AcDbArc
 50
180.0
 51
270.0
  0
LINE
  5
6FA
330
1A
100
AcDbEntity
  8
ZUWAKU
100
AcDbLine
 10
36.91769024044197
 20
20.93258628282265
 30
0.0
 11
34.99269024044179
 21
20.93258628282265
 31
0.0
  0
LINE
  5
6FB
330
1A
100
AcDbEntity
  8
ZUWAKU
100
AcDbLine
 10
34.99269024044179
 20
23.73258628282265
 30
0.0
 11
36.91769024044197
 21
23.73258628282265
 31
0.0
  0
ARC
  5
6FC
330
1A
100
AcDbEntity
  8
ZUWAKU
100
AcDbCircle
 10
34.99269024044179
 20
32.83258628282261
 30
0.0
 40
4.199999999999998
100
AcDbArc
 50
90.0
 51
180.0
  0
LINE
  5
6FD
330
1A
100
AcDbEntity
  8
ZUWAKU
100
AcDbLine
 10
28.16769024044197
 20
36.50758628282265
 30
0.0
 11
28.16769024044197
 21
34.75758628282265
 31
0.0
  0
LINE
  5
6FE
330
1A
100
AcDbEntity
  8
ZUWAKU
100
AcDbLine
 10
27.64269024044188
 20
34.23258628282265
 30
0.0
 11
24.66769024044197
 21
34.23258628282265
 31
0.0
  0
ARC
  5
6FF
330
1A
100
AcDbEntity
  8
ZUWAKU
100
AcDbCircle
 10
27.64269024044188
 20
34.75758628282265
 30
0.0
 40
0.525
100
AcDbArc
 50
270.0
 51
0.0
  0
ARC
  5
700
330
1A
100
AcDbEntity
  8
ZUWAKU
100
AcDbCircle
 10
27.64269024044188
 20
36.50758628282265
 30
0.0
 40
0.525
100
AcDbArc
 50
0.0
 51
90.0
  0
LINE
  5
701
330
1A
100
AcDbEntity
  8
ZUWAKU
100
AcDbLine
 10
37.44269024044206
 20
36.50758628282265
 30
0.0
 11
37.44269024044206
 21
34.75758628282265
 31
0.0
  0
ARC
  5
702
330
1A
100
AcDbEntity
  8
ZUWAKU
100
AcDbCircle
 10
36.91769024044197
 20
34.75758628282265
 30
0.0
 40
0.525
100
AcDbArc
 50
270.0
 51
0.0
  0
ARC
  5
703
330
1A
100
AcDbEntity
  8
ZUWAKU
100
AcDbCircle
 10
40.41769024044197
 20
36.50758628282265
 30
0.0
 40
0.525
100
AcDbArc
 50
90.0
 51
180.0
  0
ARC
  5
704
330
1A
100
AcDbEntity
  8
ZUWAKU
100
AcDbCircle
 10
36.91769024044197
 20
36.50758628282265
 30
0.0
 40
0.525
100
AcDbArc
 50
0.0
 51
90.0
  0
ARC
  5
705
330
1A
100
AcDbEntity
  8
ZUWAKU
100
AcDbCircle
 10
34.99269024044179
 20
32.83258628282265
 30
0.0
 40
1.399999999999999
100
AcDbArc
 50
90.0
 51
180.0
  0
LINE
  5
706
330
1A
100
AcDbEntity
  8
ZUWAKU
100
AcDbLine
 10
36.91769024044197
 20
34.23258628282265
 30
0.0
 11
34.99269024044179
 21
34.23258628282265
 31
0.0
  0
LINE
  5
707
330
1A
100
AcDbEntity
  8
ZUWAKU
100
AcDbLine
 10
34.99269024044179
 20
37.03258628282261
 30
0.0
 11
36.91769024044197
 21
37.03258628282265
 31
0.0
  0
ARC
  5
708
330
1A
100
AcDbEntity
  8
ZUWAKU
100
AcDbCircle
 10
43.21769024044215
 20
27.05758628282265
 30
0.0
 40
0.525
100
AcDbArc
 50
90.0
 51
180.0
  0
ARC
  5
709
330
1A
100
AcDbEntity
  8
ZUWAKU
100
AcDbCircle
 10
43.3579244039306
 20
27.05758628282265
 30
0.0
 40
0.525
100
AcDbArc
 50
17.52556837372255
 51
90.0
  0
LINE
  5
70A
330
1A
100
AcDbEntity
  8
ZUWAKU
100
AcDbLine
 10
53.54269024044197
 20
21.45758628282265
 30
0.0
 11
53.54269024044197
 21
36.50758628282265
 31
0.0
  0
LINE
  5
70B
330
1A
100
AcDbEntity
  8
ZUWAKU
100
AcDbLine
 10
50.74269024044179
 20
36.50758628282265
 30
0.0
 11
50.74269024044179
 21
21.45758628282265
 31
0.0
  0
LINE
  5
70C
330
1A
100
AcDbEntity
  8
ZUWAKU
100
AcDbLine
 10
48.42697635575769
 20
21.61568025098962
 30
0.0
 11
46.10058497728414
 21
28.98258628282267
 31
0.0
  0
LINE
  5
70D
330
1A
100
AcDbEntity
  8
ZUWAKU
100
AcDbLine
 10
43.21769024044215
 20
27.58258628282265
 30
0.0
 11
43.3579244039306
 21
27.58258628282265
 31
0.0
  0
ARC
  5
70E
330
1A
100
AcDbEntity
  8
ZUWAKU
100
AcDbCircle
 10
46.22745607695332
 20
21.45758628282265
 30
0.0
 40
0.525
100
AcDbArc
 50
197.5255683737225
 51
270.0
  0
ARC
  5
70F
330
1A
100
AcDbEntity
  8
ZUWAKU
100
AcDbCircle
 10
47.92634545656209
 20
21.45758628282265
 30
0.0
 40
0.525
100
AcDbArc
 50
270.0
 51
17.52556837372255
  0
LINE
  5
710
330
1A
100
AcDbEntity
  8
ZUWAKU
100
AcDbLine
 10
46.22745607695332
 20
20.93258628282265
 30
0.0
 11
47.92634545656209
 21
20.93258628282265
 31
0.0
  0
ARC
  5
711
330
1A
100
AcDbEntity
  8
ZUWAKU
100
AcDbCircle
 10
42.16769024044197
 20
21.45758628282265
 30
0.0
 40
0.525
100
AcDbArc
 50
270.0
 51
0.0
  0
LINE
  5
712
330
1A
100
AcDbEntity
  8
ZUWAKU
100
AcDbLine
 10
45.72682517775773
 20
21.29949231465567
 30
0.0
 11
43.85855530312574
 21
27.21568025098962
 31
0.0
  0
LINE
  5
713
330
1A
100
AcDbEntity
  8
ZUWAKU
100
AcDbLine
 10
42.69269024044206
 20
21.45758628282265
 30
0.0
 11
42.69269024044206
 21
27.05758628282265
 31
0.0
  0
ARC
  5
714
330
1A
100
AcDbEntity
  8
ZUWAKU
100
AcDbCircle
 10
56.69269024044207
 20
23.20758628282264
 30
0.0
 40
0.525
100
AcDbArc
 50
90.0
 51
180.0
  0
ARC
  5
715
330
1A
100
AcDbEntity
  8
ZUWAKU
100
AcDbCircle
 10
53.01769024044189
 20
21.45758628282265
 30
0.0
 40
0.525
100
AcDbArc
 50
270.0
 51
0.0
  0
ARC
  5
716
330
1A
100
AcDbEntity
  8
ZUWAKU
100
AcDbCircle
 10
56.69269024044207
 20
21.45758628282265
 30
0.0
 40
0.525
100
AcDbArc
 50
180.0
 51
270.0
  0
LINE
  5
717
330
1A
100
AcDbEntity
  8
ZUWAKU
100
AcDbLine
 10
56.16769024044197
 20
21.45758628282265
 30
0.0
 11
56.16769024044197
 21
23.20758628282264
 31
0.0
  0
ARC
  5
718
330
1A
100
AcDbEntity
  8
ZUWAKU
100
AcDbCircle
 10
51.26769024044189
 20
21.45758628282265
 30
0.0
 40
0.525
100
AcDbArc
 50
180.0
 51
270.0
  0
LINE
  5
719
330
1A
100
AcDbEntity
  8
ZUWAKU
100
AcDbLine
 10
51.26769024044189
 20
20.93258628282265
 30
0.0
 11
53.01769024044189
 21
20.93258628282265
 31
0.0
  0
LINE
  5
71A
330
1A
100
AcDbEntity
  8
ZUWAKU
100
AcDbLine
 10
47.36533672261976
 20
32.98763347638608
 30
0.0
 11
46.10058497728414
 21
28.98258628282267
 31
0.0
  0
ARC
  5
71B
330
1A
100
AcDbEntity
  8
ZUWAKU
100
AcDbCircle
 10
46.22745607695332
 20
36.50758628282265
 30
0.0
 40
0.525
100
AcDbArc
 50
90.0
 51
162.4744316262773
  0
LINE
  5
71C
330
1A
100
AcDbEntity
  8
ZUWAKU
100
AcDbLine
 10
48.42697635575769
 20
36.34949231465568
 30
0.0
 11
47.36533672261976
 21
32.98763347638608
 31
0.0
  0
ARC
  5
71D
330
1A
100
AcDbEntity
  8
ZUWAKU
100
AcDbCircle
 10
47.92634545656209
 20
36.50758628282265
 30
0.0
 40
0.525
100
AcDbArc
 50
342.4744316262774
 51
90.0
  0
LINE
  5
71E
330
1A
100
AcDbEntity
  8
ZUWAKU
100
AcDbLine
 10
46.22745607695332
 20
37.03258628282265
 30
0.0
 11
47.92634545656209
 21
37.03258628282265
 31
0.0
  0
LINE
  5
71F
330
1A
100
AcDbEntity
  8
ZUWAKU
100
AcDbLine
 10
42.69269024044206
 20
30.90758628282264
 30
0.0
 11
42.69269024044206
 21
36.50758628282265
 31
0.0
  0
ARC
  5
720
330
1A
100
AcDbEntity
  8
ZUWAKU
100
AcDbCircle
 10
43.21769024044215
 20
30.90758628282264
 30
0.0
 40
0.525
100
AcDbArc
 50
180.0
 51
270.0
  0
LINE
  5
721
330
1A
100
AcDbEntity
  8
ZUWAKU
100
AcDbLine
 10
43.3579244039306
 20
30.38258628282265
 30
0.0
 11
43.21769024044215
 21
30.38258628282265
 31
0.0
  0
ARC
  5
722
330
1A
100
AcDbEntity
  8
ZUWAKU
100
AcDbCircle
 10
43.3579244039306
 20
30.90758628282264
 30
0.0
 40
0.525
100
AcDbArc
 50
270.0
 51
342.4744316262774
  0
ARC
  5
723
330
1A
100
AcDbEntity
  8
ZUWAKU
100
AcDbCircle
 10
42.16769024044197
 20
36.50758628282265
 30
0.0
 40
0.525
100
AcDbArc
 50
0.0
 51
90.0
  0
LINE
  5
724
330
1A
100
AcDbEntity
  8
ZUWAKU
100
AcDbLine
 10
45.72682517775773
 20
36.66568025098962
 30
0.0
 11
43.85855530312574
 21
30.74949231465568
 31
0.0
  0
ARC
  5
725
330
1A
100
AcDbEntity
  8
ZUWAKU
100
AcDbCircle
 10
59.84269024044215
 20
32.41738425746735
 30
0.0
 40
4.199999999999998
100
AcDbArc
 50
180.0
 51
224.9999999999996
  0
LINE
  5
726
330
1A
100
AcDbEntity
  8
ZUWAKU
100
AcDbLine
 10
55.64269024044189
 20
34.23258628282265
 30
0.0
 11
55.64269024044189
 21
32.4173842574673
 31
0.0
  0
ARC
  5
727
330
1A
100
AcDbEntity
  8
ZUWAKU
100
AcDbCircle
 10
53.01769024044189
 20
36.50758628282265
 30
0.0
 40
0.525
100
AcDbArc
 50
0.0
 51
90.0
  0
ARC
  5
728
330
1A
100
AcDbEntity
  8
ZUWAKU
100
AcDbCircle
 10
51.26769024044189
 20
36.50758628282265
 30
0.0
 40
0.525
100
AcDbArc
 50
90.0
 51
180.0
  0
LINE
  5
729
330
1A
100
AcDbEntity
  8
ZUWAKU
100
AcDbLine
 10
53.01769024044189
 20
37.03258628282265
 30
0.0
 11
51.26769024044189
 21
37.03258628282265
 31
0.0
  0
ARC
  5
72A
330
1A
100
AcDbEntity
  8
ZUWAKU
100
AcDbCircle
 10
73.66769024044197
 20
36.50758628282265
 30
0.0
 40
0.525
100
AcDbArc
 50
0.0
 51
90.0
  0
ARC
  5
72B
330
1A
100
AcDbEntity
  8
ZUWAKU
100
AcDbCircle
 10
71.39269024044188
 20
23.73258628282265
 30
0.0
 40
2.799999999999998
100
AcDbArc
 50
270.0
 51
0.0
  0
LINE
  5
72C
330
1A
100
AcDbEntity
  8
ZUWAKU
100
AcDbLine
 10
67.89269024044187
 20
24.78258628282265
 30
0.0
 11
67.89269024044187
 21
36.50758628282265
 31
0.0
  0
LINE
  5
72D
330
1A
100
AcDbEntity
  8
ZUWAKU
100
AcDbLine
 10
65.09269024044215
 20
36.50758628282265
 30
0.0
 11
65.09269024044215
 21
23.73258628282265
 31
0.0
  0
LINE
  5
72E
330
1A
100
AcDbEntity
  8
ZUWAKU
100
AcDbLine
 10
71.39269024044188
 20
36.50758628282265
 30
0.0
 11
71.39269024044188
 21
24.78258628282265
 31
0.0
  0
ARC
  5
72F
330
1A
100
AcDbEntity
  8
ZUWAKU
100
AcDbCircle
 10
58.79269024044197
 20
25.54778830817795
 30
0.0
 40
4.199999999999998
100
AcDbArc
 50
0.0
 51
44.9999999999996
  0
ARC
  5
730
330
1A
100
AcDbEntity
  8
ZUWAKU
100
AcDbCircle
 10
67.89269024044187
 20
23.73258628282265
 30
0.0
 40
2.799999999999998
100
AcDbArc
 50
180.0
 51
270.0
  0
LINE
  5
731
330
1A
100
AcDbEntity
  8
ZUWAKU
100
AcDbLine
 10
62.99269024044178
 20
23.73258628282265
 30
0.0
 11
62.99269024044178
 21
25.547788308178
 31
0.0
  0
ARC
  5
732
330
1A
100
AcDbEntity
  8
ZUWAKU
100
AcDbCircle
 10
59.66769024044197
 20
24.25758628282265
 30
0.0
 40
0.525
100
AcDbArc
 50
270.0
 51
0.0
  0
LINE
  5
733
330
1A
100
AcDbEntity
  8
ZUWAKU
100
AcDbLine
 10
60.19269024044207
 20
24.25758628282265
 30
0.0
 11
60.19269024044207
 21
25.547788308178
 31
0.0
  0
ARC
  5
734
330
1A
100
AcDbEntity
  8
ZUWAKU
100
AcDbCircle
 10
60.19269024044207
 20
23.73258628282265
 30
0.0
 40
2.799999999999998
100
AcDbArc
 50
270.0
 51
0.0
  0
ARC
  5
735
330
1A
100
AcDbEntity
  8
ZUWAKU
100
AcDbCircle
 10
58.79269024044197
 20
25.547788308178
 30
0.0
 40
1.399999999999999
100
AcDbArc
 50
0.0
 51
44.9999999999996
  0
ARC
  5
736
330
1A
100
AcDbEntity
  8
ZUWAKU
100
AcDbCircle
 10
70.34269024044215
 20
24.78258628282265
 30
0.0
 40
1.049999999999998
100
AcDbArc
 50
270.0
 51
0.0
  0
ARC
  5
737
330
1A
100
AcDbEntity
  8
ZUWAKU
100
AcDbCircle
 10
68.94269024044206
 20
24.78258628282265
 30
0.0
 40
1.049999999999998
100
AcDbArc
 50
180.0
 51
270.0
  0
LINE
  5
738
330
1A
100
AcDbEntity
  8
ZUWAKU
100
AcDbLine
 10
67.89269024044187
 20
20.93258628282265
 30
0.0
 11
71.39269024044188
 21
20.93258628282265
 31
0.0
  0
LINE
  5
739
330
1A
100
AcDbEntity
  8
ZUWAKU
100
AcDbLine
 10
70.34269024044215
 20
23.73258628282265
 30
0.0
 11
68.94269024044206
 21
23.73258628282265
 31
0.0
  0
LINE
  5
73A
330
1A
100
AcDbEntity
  8
ZUWAKU
100
AcDbLine
 10
67.36769024044177
 20
37.03258628282265
 30
0.0
 11
65.61769024044179
 21
37.03258628282265
 31
0.0
  0
LINE
  5
73B
330
1A
100
AcDbEntity
  8
ZUWAKU
100
AcDbLine
 10
62.46769024044215
 20
36.50758628282265
 30
0.0
 11
62.46769024044215
 21
34.75758628282265
 31
0.0
  0
ARC
  5
73C
330
1A
100
AcDbEntity
  8
ZUWAKU
100
AcDbCircle
 10
61.94269024044206
 20
34.75758628282265
 30
0.0
 40
0.525
100
AcDbArc
 50
270.0
 51
0.0
  0
ARC
  5
73D
330
1A
100
AcDbEntity
  8
ZUWAKU
100
AcDbCircle
 10
61.94269024044206
 20
36.50758628282265
 30
0.0
 40
0.525
100
AcDbArc
 50
0.0
 51
90.0
  0
ARC
  5
73E
330
1A
100
AcDbEntity
  8
ZUWAKU
100
AcDbCircle
 10
65.61769024044179
 20
36.50758628282265
 30
0.0
 40
0.525
100
AcDbArc
 50
90.0
 51
180.0
  0
ARC
  5
73F
330
1A
100
AcDbEntity
  8
ZUWAKU
100
AcDbCircle
 10
59.84269024044215
 20
32.41738425746735
 30
0.0
 40
1.399999999999999
100
AcDbArc
 50
180.0000000000016
 51
224.9999999999993
  0
LINE
  5
740
330
1A
100
AcDbEntity
  8
ZUWAKU
100
AcDbLine
 10
58.44269024044207
 20
33.70758628282265
 30
0.0
 11
58.44269024044207
 21
32.4173842574673
 31
0.0
  0
ARC
  5
741
330
1A
100
AcDbEntity
  8
ZUWAKU
100
AcDbCircle
 10
58.96769024044215
 20
33.70758628282265
 30
0.0
 40
0.525
100
AcDbArc
 50
90.0
 51
180.0
  0
LINE
  5
742
330
1A
100
AcDbEntity
  8
ZUWAKU
100
AcDbLine
 10
61.76253872142524
 20
28.51763678916148
 30
0.0
 11
58.85274074678045
 21
31.42743476380615
 31
0.0
  0
LINE
  5
743
330
1A
100
AcDbEntity
  8
ZUWAKU
100
AcDbLine
 10
61.94269024044206
 20
34.23258628282265
 30
0.0
 11
58.96769024044215
 21
34.23258628282265
 31
0.0
  0
LINE
  5
744
330
1A
100
AcDbEntity
  8
ZUWAKU
100
AcDbLine
 10
58.44269024044207
 20
37.03258628282265
 30
0.0
 11
61.94269024044206
 21
37.03258628282265
 31
0.0
  0
ARC
  5
745
330
1A
100
AcDbEntity
  8
ZUWAKU
100
AcDbCircle
 10
71.91769024044197
 20
36.50758628282265
 30
0.0
 40
0.525
100
AcDbArc
 50
90.0
 51
180.0
  0
LINE
  5
746
330
1A
100
AcDbEntity
  8
ZUWAKU
100
AcDbLine
 10
73.66769024044197
 20
37.03258628282265
 30
0.0
 11
71.91769024044197
 21
37.03258628282265
 31
0.0
  0
ARC
  5
747
330
1A
100
AcDbEntity
  8
ZUWAKU
100
AcDbCircle
 10
67.36769024044177
 20
36.50758628282265
 30
0.0
 40
0.525
100
AcDbArc
 50
0.0
 51
90.0
  0
LINE
  5
748
330
1A
100
AcDbEntity
  8
ZUWAKU
100
AcDbLine
 10
76.29269024044197
 20
36.50758628282265
 30
0.0
 11
76.29269024044197
 21
21.45758628282265
 31
0.0
  0
LINE
  5
749
330
1A
100
AcDbEntity
  8
ZUWAKU
100
AcDbLine
 10
79.09269024044215
 20
21.45758628282265
 30
0.0
 11
79.09269024044215
 21
36.50758628282265
 31
0.0
  0
LINE
  5
74A
330
1A
100
AcDbEntity
  8
ZUWAKU
100
AcDbLine
 10
74.19269024044206
 20
23.73258628282265
 30
0.0
 11
74.19269024044206
 21
36.50758628282265
 31
0.0
  0
ARC
  5
74B
330
1A
100
AcDbEntity
  8
ZUWAKU
100
AcDbCircle
 10
78.56769024044206
 20
21.45758628282265
 30
0.0
 40
0.525
100
AcDbArc
 50
270.0
 51
0.0
  0
ARC
  5
74C
330
1A
100
AcDbEntity
  8
ZUWAKU
100
AcDbCircle
 10
76.81769024044206
 20
21.45758628282265
 30
0.0
 40
0.525
100
AcDbArc
 50
180.0
 51
270.0
  0
LINE
  5
74D
330
1A
100
AcDbEntity
  8
ZUWAKU
100
AcDbLine
 10
76.81769024044206
 20
20.93258628282265
 30
0.0
 11
78.56769024044206
 21
20.93258628282265
 31
0.0
  0
ARC
  5
74E
330
1A
100
AcDbEntity
  8
ZUWAKU
100
AcDbCircle
 10
78.56769024044206
 20
36.50758628282265
 30
0.0
 40
0.525
100
AcDbArc
 50
0.0
 51
90.0
  0
ARC
  5
74F
330
1A
100
AcDbEntity
  8
ZUWAKU
100
AcDbCircle
 10
76.81769024044206
 20
36.50758628282265
 30
0.0
 40
0.525
100
AcDbArc
 50
90.0
 51
180.0
  0
LINE
  5
750
330
1A
100
AcDbEntity
  8
ZUWAKU
100
AcDbLine
 10
78.56769024044206
 20
37.03258628282265
 30
0.0
 11
76.81769024044206
 21
37.03258628282265
 31
0.0
  0
TEXT
  5
751
330
1A
100
AcDbEntity
  8
moji
100
AcDbText
 10
103.0082676738297
 20
26.52376441309741
 30
0.0
 40
6.0
  1
大型　のきとい
 41
0.9
  7
ｽﾀｲﾙ1
100
AcDbText
  0
LINE
  5
757
330
1A
100
AcDbEntity
  8
ZUWAKU
100
AcDbLine
 10
218.4970793757283
 20
43.78258628282265
 30
0.0
 11
218.4970793757288
 21
14.58258628282271
 31
0.0
  0
LINE
  5
758
330
1A
100
AcDbEntity
  8
ZUWAKU
100
AcDbLine
 10
218.6970793757286
 20
43.78258628282265
 30
0.0
 11
218.6970793757286
 21
14.58258628282271
 31
0.0
  0
LINE
  5
759
330
1A
100
AcDbEntity
  8
ZUWAKU
100
AcDbLine
 10
218.2970793757285
 20
43.78258628282265
 30
0.0
 11
218.2970793757285
 21
14.58258628282271
 31
0.0
  0
TEXT
  5
75A
330
1A
100
AcDbEntity
  8
ZUWAKU
100
AcDbText
 10
219.7745243979379
 20
37.83794282120823
 30
0.0
 40
4.0
  1
品名
 41
0.9
  7
ｽﾀｲﾙ1
100
AcDbText
  0
TEXT
  5
75B
330
1A
100
AcDbEntity
  8
ZUWAKU
100
AcDbText
 10
219.7745243979384
 20
23.43794282120827
 30
0.0
 40
4.0
  1
サイズ
 41
0.9
  7
ｽﾀｲﾙ1
100
AcDbText
  0
TEXT
  5
792
330
1A
100
AcDbEntity
  8
ZUWAKU
100
AcDbText
 10
668.254415772963
 20
31.78750734023003
 30
0.0
 40
5.599999999999998
  1
　　．　　．　　
 41
0.9
  7
ｽﾀｲﾙ1
100
AcDbText
  0
LINE
  5
793
330
1A
100
AcDbEntity
  8
ZUWAKU
100
AcDbLine
 10
658.8676805958647
 20
29.38258628282268
 30
0.0
 11
707.2994886342021
 21
29.38258628282268
 31
0.0
  0
LINE
  5
794
330
1A
100
AcDbEntity
  8
ZUWAKU
100
AcDbLine
 10
658.8676805958653
 20
29.18258628282268
 30
0.0
 11
707.2994886342021
 21
29.18258628282268
 31
0.0
  0
LINE
  5
795
330
1A
100
AcDbEntity
  8
ZUWAKU
100
AcDbLine
 10
658.8676805958647
 20
28.98258628282268
 30
0.0
 11
707.2994886342021
 21
28.98258628282268
 31
0.0
  0
LINE
  5
79A
330
1A
100
AcDbEntity
  8
ZUWAKU
100
AcDbLine
 10
515.2496575838016
 20
29.38258628282268
 30
0.0
 11
562.5774338517731
 21
29.38258628282268
 31
0.0
  0
LINE
  5
79B
330
1A
100
AcDbEntity
  8
ZUWAKU
100
AcDbLine
 10
515.2496575838016
 20
29.18258628282268
 30
0.0
 11
562.5774338517731
 21
29.18258628282268
 31
0.0
  0
LINE
  5
79C
330
1A
100
AcDbEntity
  8
ZUWAKU
100
AcDbLine
 10
515.2496575838016
 20
28.98258628282269
 30
0.0
 11
562.5774338517731
 21
28.98258628282269
 31
0.0
  0
TEXT
  5
79D
330
1A
100
AcDbEntity
  8
moji
100
AcDbText
 10
538.0913860579735
 20
16.98750734023007
 30
0.0
 40
5.599999999999998
  1
１/２
 41
0.9
  7
ｽﾀｲﾙ1
100
AcDbText
  0
LINE
  5
79E
330
1A
100
AcDbEntity
  8
ZUWAKU
100
AcDbLine
 10
514.8496575838017
 20
43.78258628282265
 30
0.0
 11
514.8496575838017
 21
14.58258628282271
 31
0.0
  0
LINE
  5
79F
330
1A
100
AcDbEntity
  8
ZUWAKU
100
AcDbLine
 10
515.2496575838016
 20
43.78258628282265
 30
0.0
 11
515.2496575838016
 21
14.58258628282271
 31
0.0
  0
LINE
  5
7A0
330
1A
100
AcDbEntity
  8
ZUWAKU
100
AcDbLine
 10
515.0496575838015
 20
43.78258628282265
 30
0.0
 11
515.0496575838018
 21
14.58258628282271
 31
0.0
  0
LINE
  5
7A1
330
1A
100
AcDbEntity
  8
ZUWAKU
100
AcDbLine
 10
457.4748420566519
 20
43.78258628282265
 30
0.0
 11
457.4748420566519
 21
14.58258628282271
 31
0.0
  0
LINE
  5
7A2
330
1A
100
AcDbEntity
  8
ZUWAKU
100
AcDbLine
 10
457.8748420566521
 20
43.78258628282265
 30
0.0
 11
457.8748420566521
 21
14.58258628282271
 31
0.0
  0
LINE
  5
7A3
330
1A
100
AcDbEntity
  8
ZUWAKU
100
AcDbLine
 10
457.6748420566517
 20
43.78258628282265
 30
0.0
 11
457.6748420566523
 21
14.58258628282271
 31
0.0
  0
TEXT
  5
7A5
330
1A
100
AcDbEntity
  8
ZUWAKU
100
AcDbText
 10
459.3522870788614
 20
37.83794282120823
 30
0.0
 40
4.0
  1
品番
 41
0.9
  7
ｽﾀｲﾙ1
100
AcDbText
  0
TEXT
  5
7A6
330
1A
100
AcDbEntity
  8
ZUWAKU
100
AcDbText
 10
516.7271026060111
 20
37.83794282120823
 30
0.0
 40
4.0
  1
用紙
 41
0.9
  7
ｽﾀｲﾙ1
100
AcDbText
  0
TEXT
  5
7A7
330
1A
100
AcDbEntity
  8
ZUWAKU
100
AcDbText
 10
516.7271026060116
 20
23.43794282120827
 30
0.0
 40
4.0
  1
縮尺
 41
0.9
  7
ｽﾀｲﾙ1
100
AcDbText
  0
TEXT
  5
7A8
330
1A
100
AcDbEntity
  8
moji
100
AcDbText
 10
538.0913860579735
 20
31.78750734023003
 30
0.0
 40
5.599999999999998
  1
Ａ３
 41
0.9
  7
ｽﾀｲﾙ1
100
AcDbText
  0
LINE
  5
7A9
330
1A
100
AcDbEntity
  8
ZUWAKU
100
AcDbLine
 10
562.9774338517732
 20
43.78258628282265
 30
0.0
 11
562.9774338517732
 21
14.58258628282271
 31
0.0
  0
LINE
  5
7AA
330
1A
100
AcDbEntity
  8
ZUWAKU
100
AcDbLine
 10
658.467680595865
 20
43.78258628282265
 30
0.0
 11
658.467680595865
 21
14.58258628282271
 31
0.0
  0
LINE
  5
7AB
330
1A
100
AcDbEntity
  8
ZUWAKU
100
AcDbLine
 10
658.8676805958653
 20
43.78258628282265
 30
0.0
 11
658.8676805958653
 21
14.58258628282271
 31
0.0
  0
LINE
  5
7AC
330
1A
100
AcDbEntity
  8
ZUWAKU
100
AcDbLine
 10
658.667680595865
 20
43.78258628282265
 30
0.0
 11
658.6676805958655
 21
14.58258628282271
 31
0.0
  0
LINE
  5
7AD
330
1A
100
AcDbEntity
  8
ZUWAKU
100
AcDbLine
 10
562.5774338517731
 20
43.78258628282265
 30
0.0
 11
562.5774338517731
 21
14.58258628282271
 31
0.0
  0
LINE
  5
7AE
330
1A
100
AcDbEntity
  8
ZUWAKU
100
AcDbLine
 10
562.7774338517728
 20
43.78258628282265
 30
0.0
 11
562.7774338517732
 21
14.58258628282271
 31
0.0
  0
TEXT
  5
7AF
330
1A
100
AcDbEntity
  8
ZUWAKU
100
AcDbText
 10
660.3451256180747
 20
37.83794282120823
 30
0.0
 40
4.0
  1
DATE
 41
0.9
  7
ｽﾀｲﾙ1
100
AcDbText
  0
LINE
  5
7BB
330
1A
100
AcDbEntity
  8
ZUWAKU
100
AcDbLine
 10
707.8994886342019
 20
43.78258628282265
 30
0.0
 11
707.8994886342019
 21
14.58258628282271
 31
0.0
  0
LINE
  5
7BC
330
1A
100
AcDbEntity
  8
ZUWAKU
100
AcDbLine
 10
707.6994886342017
 20
43.78258628282265
 30
0.0
 11
707.6994886342022
 21
14.58258628282271
 31
0.0
  0
LINE
  5
7BD
330
1A
100
AcDbEntity
  8
ZUWAKU
100
AcDbLine
 10
707.4994886342018
 20
43.78258628282265
 30
0.0
 11
707.4994886342018
 21
14.58258628282271
 31
0.0
  0
LINE
  5
7BE
330
1A
100
AcDbEntity
  8
ZUWAKU
100
AcDbLine
 10
707.2994886342021
 20
43.78258628282265
 30
0.0
 11
707.2994886342021
 21
14.58258628282271
 31
0.0
  0
TEXT
  5
7BF
330
1A
100
AcDbEntity
  8
ZUWAKU
100
AcDbText
 10
717.0673940400132
 20
26.09411554365294
 30
0.0
 40
6.0
  1
積水化学工業株式会社
 41
0.9
  7
ｽﾀｲﾙ1
100
AcDbText
  0
TEXT
  5
625F
330
1A
100
AcDbEntity
  8
moji
100
AcDbText
 10
249.8685504416682
 20
17.03882846809165
 30
0.0
 40
5.599999999999998
  1
Ｖ５００－Ｌ２７０（３／８インチネジ）
 41
0.9
  7
ｽﾀｲﾙ1
100
AcDbText
  0
DIMENSION
  5
6D1D
330
1A
100
AcDbEntity
  8
SUNPOU
100
AcDbDimension
  2
*D2
 10
409.6065132725205
 20
487.706839676547
 30
0.0
 11
277.4065132724672
 21
492.706839676547
 31
0.0
 70
    32
 71
     5
 42
-1.0
  3
STANDARD
100
AcDbAlignedDimension
 13
145.2065132724139
 23
228.1461929517096
 33
0.0
 14
409.6065132725205
 24
203.1461929517079
 34
0.0
100
AcDbRotatedDimension
1001
ACAD
1000
DSTYLE
1002
{
1070
    41
1040
7.0
1070
    42
1040
6.0
1070
    43
1040
14.0
1070
    44
1040
3.0
1070
    73
1070
     0
1070
    74
1070
     0
1070
    77
1070
     3
1070
   140
1040
6.0
1070
   141
1040
150.0
1070
   147
1040
2.0
1070
   172
1070
     1
1070
   173
1070
     1
1070
   176
1070
   256
1070
   177
1070
   256
1070
   178
1070
   256
1070
   271
1070
     0
1070
   272
1070
     0
1070
   341
1005
6D
1070
     6
1000
OPEN
1070
     7
1000
OPEN
1070
   371
1070
    -1
1070
   372
1070
    -1
1002
}
  0
LINE
  5
6D1E
330
1A
100
AcDbEntity
  8
NOKITOI
  6
PHANTOM
 48
5.0
100
AcDbLine
 10
393.1035304041299
 20
173.7272753737892
 30
0.0
 11
384.8323133718118
 21
106.1359874387471
 31
0.0
  0
LINE
  5
6D1F
330
1A
100
AcDbEntity
  8
NOKITOI
  6
PHANTOM
 48
5.0
100
AcDbLine
 10
394.0471418041298
 20
198.7272753737892
 30
0.0
 11
382.727501941318
 21
106.2246809534607
 31
0.0
  0
LINE
  5
6D20
330
1A
100
AcDbEntity
  8
NOKITOI
  6
PHANTOM
 48
5.0
100
AcDbLine
 10
392.2659658075142
 20
175.5272753737891
 30
0.0
 11
383.7799076404668
 21
106.1803341967823
 31
0.0
  0
LINE
  5
6D21
330
1A
100
AcDbEntity
  8
CENTER L
 48
5.0
100
AcDbLine
 10
416.6065132723761
 20
528.681867690361
 30
0.0
 11
138.2065132724808
 21
528.6818676883764
 31
0.0
  0
LINE
  5
6D22
330
1A
100
AcDbEntity
  8
SEIHIN
100
AcDbLine
 10
407.8065132723905
 20
540.9818676884265
 30
0.0
 11
277.4065132726027
 21
540.9818676884265
 31
0.0
  0
LINE
  5
6D23
330
1A
100
AcDbEntity
  8
SEIHIN
100
AcDbLine
 10
277.4065132724808
 20
516.3818676884264
 30
0.0
 11
407.8065132724898
 21
516.3818676884264
 31
0.0
  0
LINE
  5
6D24
330
1A
100
AcDbEntity
  8
SEIHIN
100
AcDbLine
 10
407.8065132723594
 20
548.6818676884263
 30
0.0
 11
147.0065132724369
 21
548.6818676884263
 31
0.0
  0
TEXT
  5
6D25
330
1A
100
AcDbEntity
  8
SUNPOU
100
AcDbText
 10
320.6830078910138
 20
423.9655062481936
 30
0.0
 40
5.0
  1
パッキン（アスファルト含浸）
100
AcDbText
  0
LINE
  5
6D26
330
1A
100
AcDbEntity
  8
SEIHIN
100
AcDbLine
 10
405.3003324503738
 20
204.4554959651161
 30
0.0
 11
378.1952991281213
 21
200.646131957468
 31
0.0
  0
LINE
  5
6D27
330
1A
100
AcDbEntity
  8
SEIHIN
100
AcDbLine
 10
405.4673404437806
 20
203.2671743208893
 30
0.0
 11
378.3623068496162
 21
199.4578102749892
 31
0.0
  0
LINE
  5
6D28
330
1A
100
AcDbEntity
  8
SEIHIN
100
AcDbLine
 10
403.9106477677326
 20
208.0975332954175
 30
0.0
 11
377.6664413446849
 21
204.4091506186873
 31
0.0
  0
DIMENSION
  5
6D29
330
1A
100
AcDbEntity
  8
SUNPOU
100
AcDbDimension
  2
*D3
 10
409.6065132725206
 20
234.8564929599459
 30
0.0
 11
391.8514380541436
 21
239.8564929599459
 31
0.0
 70
    32
 71
     5
 42
-1.0
  3
STANDARD
100
AcDbAlignedDimension
 13
374.0963628357665
 23
203.9074088050999
 33
0.0
 14
409.6065132725206
 24
203.1461929517387
 34
0.0
100
AcDbRotatedDimension
1001
ACAD
1000
DSTYLE
1002
{
1070
    41
1040
7.0
1070
    42
1040
6.0
1070
    43
1040
14.0
1070
    44
1040
3.0
1070
    73
1070
     0
1070
    74
1070
     0
1070
    77
1070
     3
1070
   140
1040
6.0
1070
   141
1040
150.0
1070
   147
1040
2.0
1070
   172
1070
     1
1070
   173
1070
     1
1070
   176
1070
   256
1070
   177
1070
   256
1070
   178
1070
   256
1070
   271
1070
     0
1070
   272
1070
     0
1070
   341
1005
6D
1070
     6
1000
OPEN
1070
     7
1000
OPEN
1070
   371
1070
    -1
1070
   372
1070
    -1
1002
}
  0
LEADER
  5
6D2A
330
1A
100
AcDbEntity
  8
SUNPOU
100
AcDbLeader
  3
STANDARD
 76
     3
 10
292.4065242725637
 20
406.0063203737892
 30
0.0
 10
318.1678084125119
 20
422.2902807434801
 30
0.0
 10
401.8359198030188
 20
422.2902807434801
 30
0.0
1001
ACAD
1000
DSTYLE
1002
{
1070
     6
1000
OPEN
1070
    41
1040
7.0
1070
    42
1040
6.0
1070
    43
1040
14.0
1070
    44
1040
3.0
1070
    73
1070
     0
1070
    74
1070
     0
1070
    77
1070
     3
1070
   140
1040
6.0
1070
   141
1040
150.0
1070
   147
1040
2.0
1070
   172
1070
     1
1070
   173
1070
     1
1070
   176
1070
     4
1070
   177
1070
     4
1070
   178
1070
     4
1070
   271
1070
     0
1070
   272
1070
     2
1070
   341
1005
6D
1070
   343
1005
6D
1070
   344
1005
6D
1002
}
  0
DIMENSION
  5
6D2B
330
1A
100
AcDbEntity
  8
SUNPOU
100
AcDbDimension
  2
*D4
 10
409.6065132725206
 20
472.9003492068051
 30
0.0
 11
343.5065132725008
 21
477.9003492068051
 31
0.0
 70
    32
 71
     5
 42
-1.0
  3
STANDARD
100
AcDbAlignedDimension
 13
277.4065132724808
 23
435.8949367734783
 33
0.0
 14
409.6065132725206
 24
203.1461929517387
 34
0.0
100
AcDbRotatedDimension
1001
ACAD
1000
DSTYLE
1002
{
1070
    41
1040
7.0
1070
    42
1040
6.0
1070
    43
1040
14.0
1070
    44
1040
3.0
1070
    73
1070
     0
1070
    74
1070
     0
1070
    77
1070
     3
1070
   140
1040
6.0
1070
   141
1040
150.0
1070
   147
1040
2.0
1070
   172
1070
     1
1070
   173
1070
     1
1070
   176
1070
   256
1070
   177
1070
   256
1070
   178
1070
   256
1070
   271
1070
     0
1070
   272
1070
     0
1070
   341
1005
6D
1070
     6
1000
OPEN
1070
     7
1000
OPEN
1070
   371
1070
    -1
1070
   372
1070
    -1
1002
}
  0
LINE
  5
6D2C
330
1A
100
AcDbEntity
  8
SEIHIN
100
AcDbLine
 10
147.0065132724545
 20
508.6818676884262
 30
0.0
 11
407.8065132725212
 21
508.6818676884262
 31
0.0
  0
LINE
  5
6D31
330
1A
100
AcDbEntity
  8
SEIHIN
100
AcDbLine
 10
394.8065132724807
 20
88.71216628013176
 30
0.0
 11
386.4828898543628
 21
88.71216628013176
 31
0.0
  0
LINE
  5
6D32
330
1A
100
AcDbEntity
  8
SEIHIN
100
AcDbLine
 10
407.8065132726425
 20
98.41216628013178
 30
0.0
 11
362.4200928316501
 21
98.41216628013178
 31
0.0
  0
LINE
  5
6D33
330
1A
100
AcDbEntity
  8
SEIHIN
100
AcDbLine
 10
288.4065132724249
 20
88.71216628013176
 30
0.0
 11
366.0747209572698
 21
88.71216628013176
 31
0.0
  0
LINE
  5
6D34
330
1A
100
AcDbEntity
  8
SEIHIN
100
AcDbLine
 10
394.8065132724807
 20
68.11216628013181
 30
0.0
 11
386.482889853751
 21
68.1121662801318
 31
0.0
  0
LINE
  5
6D35
330
1A
100
AcDbEntity
  8
SEIHIN
100
AcDbLine
 10
407.8065132724806
 20
58.41216628013171
 30
0.0
 11
362.4200928316501
 21
58.41216628013177
 31
0.0
  0
LINE
  5
6D36
330
1A
100
AcDbEntity
  8
SEIHIN
100
AcDbLine
 10
288.4065132725718
 20
68.11216628013181
 30
0.0
 11
366.074721117843
 21
68.11216628013183
 31
0.0
  0
LINE
  5
6D38
330
1A
100
AcDbEntity
  8
SEIHIN
100
AcDbLine
 10
396.8065129011808
 20
98.41216628013178
 30
0.0
 11
147.006513272463
 21
98.41216628013178
 31
0.0
  0
LINE
  5
6D39
330
1A
100
AcDbEntity
  8
SEIHIN
100
AcDbLine
 10
147.0065132724807
 20
58.41216628013177
 30
0.0
 11
396.8065129796093
 21
58.41216628013177
 31
0.0
  0
LINE
  5
6D3A
330
1A
100
AcDbEntity
  8
CENTER L
 48
5.0
100
AcDbLine
 10
416.6065132724021
 20
78.4121662811239
 30
0.0
 11
138.2065132725069
 21
78.4121662791394
 31
0.0
  0
TEXT
  5
6D3B
330
1A
100
AcDbEntity
  8
moji
100
AcDbText
 10
250.0126705998484
 20
32.01105869498861
 30
0.0
 40
5.599999999999998
  1
セラミック金具折版（吊）
 41
0.9
  7
ｽﾀｲﾙ1
100
AcDbText
  0
DIMENSION
  5
6D3E
330
1A
100
AcDbEntity
  8
SUNPOU
100
AcDbDimension
  2
*D5
 10
145.206513272414
 20
472.9003492068051
 30
0.0
 11
211.3065132724474
 21
477.9003492068051
 31
0.0
 70
    32
 71
     5
 42
-1.0
  3
STANDARD
100
AcDbAlignedDimension
 13
277.4065132724808
 23
435.8949367734783
 33
0.0
 14
145.2065132724139
 24
228.1461929517096
 34
0.0
100
AcDbRotatedDimension
1001
ACAD
1000
DSTYLE
1002
{
1070
    41
1040
7.0
1070
    42
1040
6.0
1070
    43
1040
14.0
1070
    44
1040
3.0
1070
    73
1070
     0
1070
    74
1070
     0
1070
    77
1070
     3
1070
   140
1040
6.0
1070
   141
1040
150.0
1070
   147
1040
2.0
1070
   172
1070
     1
1070
   173
1070
     1
1070
   176
1070
   256
1070
   177
1070
   256
1070
   178
1070
   256
1070
   271
1070
     0
1070
   272
1070
     0
1070
   341
1005
6D
1070
     6
1000
OPEN
1070
     7
1000
OPEN
1070
   371
1070
    -1
1070
   372
1070
    -1
1002
}
  0
DIMENSION
  5
6D3F
330
1A
100
AcDbEntity
  8
SUNPOU
100
AcDbDimension
  2
*D6
 10
145.2065132724139
 20
267.1612709676265
 30
0.0
 11
167.350435449385
 21
272.1612709676265
 31
0.0
 70
    32
 71
     5
 42
-1.0
  3
STANDARD
100
AcDbAlignedDimension
 13
189.494357626356
 23
227.6737843751324
 33
0.0
 14
145.2065132724139
 24
228.1461929517096
 34
0.0
100
AcDbRotatedDimension
1001
ACAD
1000
DSTYLE
1002
{
1070
    41
1040
7.0
1070
    42
1040
6.0
1070
    43
1040
14.0
1070
    44
1040
3.0
1070
    73
1070
     0
1070
    74
1070
     0
1070
    77
1070
     3
1070
   140
1040
6.0
1070
   141
1040
150.0
1070
   147
1040
2.0
1070
   172
1070
     1
1070
   173
1070
     1
1070
   176
1070
   256
1070
   177
1070
   256
1070
   178
1070
   256
1070
   271
1070
     0
1070
   272
1070
     0
1070
   341
1005
6D
1070
     6
1000
OPEN
1070
     7
1000
OPEN
1070
   371
1070
    -1
1070
   372
1070
    -1
1002
}
  0
LINE
  5
6D40
330
1A
100
AcDbEntity
  8
SEIHIN
100
AcDbLine
 10
272.4065132725638
 20
385.3063203737893
 30
0.0
 11
272.4065132725638
 21
183.4271753737893
 31
0.0
  0
LINE
  5
6D41
330
1A
100
AcDbEntity
  8
SEIHIN
100
AcDbLine
 10
273.4065132725638
 20
385.3063203737893
 30
0.0
 11
273.4065132725638
 21
183.4271753737893
 31
0.0
  0
LINE
  5
6D42
330
1A
100
AcDbEntity
  8
SEIHIN
100
AcDbLine
 10
282.4065132725639
 20
385.3063203737893
 30
0.0
 11
282.4065132725639
 21
183.4271753737893
 31
0.0
  0
LINE
  5
6D43
330
1A
100
AcDbEntity
  8
SEIHIN
100
AcDbLine
 10
281.4065132725638
 20
385.3063203737893
 30
0.0
 11
281.4065132725638
 21
183.4271753737893
 31
0.0
  0
DIMENSION
  5
6D44
330
1A
100
AcDbEntity
  8
SUNPOU
100
AcDbDimension
  2
*D7
 10
100.2345047855908
 20
426.4273753737893
 30
0.0
 11
95.23450478559075
 21
291.4273753737893
 31
0.0
 70
    32
 71
     5
 42
-1.0
  3
STANDARD
100
AcDbAlignedDimension
 13
272.4065132725638
 23
156.4273753737893
 33
0.0
 14
277.4065132725638
 24
426.4273753737893
 34
0.0
 50
90.0
100
AcDbRotatedDimension
1001
ACAD
1000
DSTYLE
1002
{
1070
   140
1040
6.0
1070
    74
1070
     0
1070
   172
1070
     1
1070
    73
1070
     0
1070
   272
1070
     2
1070
    77
1070
     3
1070
   173
1070
     1
1070
   147
1040
2.0
1070
    42
1040
6.0
1070
    44
1040
3.0
1070
    43
1040
14.0
1070
   271
1070
     0
1070
   178
1070
     4
1070
   177
1070
     4
1070
   176
1070
     4
1070
   141
1040
150.0
1070
     7
1000
_OPEN
1070
     6
1000
_OPEN
1070
    41
1040
7.0
1002
}
  0
LINE
  5
6D45
330
1A
100
AcDbEntity
  8
CENTER L
 48
5.0
100
AcDbLine
 10
277.4065132724808
 20
435.8949367734783
 30
0.0
 11
277.4065132726027
 21
143.7264611266927
 31
0.0
  0
LINE
  5
6D46
330
1A
100
AcDbEntity
  8
CENTER L
 48
5.0
100
AcDbLine
 10
245.6565132725641
 20
435.8949367734783
 30
0.0
 11
245.6565132726855
 21
143.7264611266927
 31
0.0
  0
LINE
  5
6D47
330
1A
100
AcDbEntity
  8
CENTER L
 48
5.0
100
AcDbLine
 10
309.1565132725643
 20
435.8949367734783
 30
0.0
 11
309.1565132726855
 21
143.7264611266927
 31
0.0
  0
DIMENSION
  5
6D48
330
1A
100
AcDbEntity
  8
SUNPOU
100
AcDbDimension
  2
*D8
 10
116.0940229379068
 20
197.5272753737892
 30
0.0
 11
111.0940229379068
 21
215.3367341627494
 31
0.0
 70
    32
 71
     5
 42
-1.0
  3
STANDARD
100
AcDbAlignedDimension
 13
150.2065132724139
 23
233.1461929517096
 33
0.0
 14
149.2065132724808
 24
197.5272753737892
 34
0.0
 50
90.0
100
AcDbRotatedDimension
1001
ACAD
1000
DSTYLE
1002
{
1070
    41
1040
7.0
1070
    42
1040
6.0
1070
    43
1040
14.0
1070
    44
1040
3.0
1070
    73
1070
     0
1070
    74
1070
     0
1070
    77
1070
     3
1070
   140
1040
6.0
1070
   141
1040
150.0
1070
   147
1040
2.0
1070
   172
1070
     1
1070
   173
1070
     1
1070
   176
1070
   256
1070
   177
1070
   256
1070
   178
1070
   256
1070
   271
1070
     0
1070
   272
1070
     0
1070
   341
1005
6D
1070
     6
1000
OPEN
1070
     7
1000
OPEN
1070
   371
1070
    -1
1070
   372
1070
    -1
1002
}
  0
LINE
  5
6D4C
330
1A
100
AcDbEntity
  8
SEIHIN
100
AcDbLine
 10
245.6565125901809
 20
83.66216628013177
 30
0.0
 11
266.4065132724611
 21
83.66216628013177
 31
0.0
  0
LINE
  5
6D4D
330
1A
100
AcDbEntity
  8
SEIHIN
100
AcDbLine
 10
245.6565127615808
 20
73.16216628013177
 30
0.0
 11
266.4065132725359
 21
73.16216628013177
 31
0.0
  0
LINE
  5
6D4E
330
1A
100
AcDbEntity
  8
SEIHIN
100
AcDbLine
 10
160.0065132724806
 20
68.11216628013181
 30
0.0
 11
266.4065132725716
 21
68.11216628013181
 31
0.0
  0
LINE
  5
6D4F
330
1A
100
AcDbEntity
  8
SEIHIN
100
AcDbLine
 10
160.0065132725019
 20
88.71216628013176
 30
0.0
 11
266.4065132724249
 21
88.71216628013176
 31
0.0
  0
ARC
  5
6D56
330
1A
100
AcDbEntity
  8
SEIHIN
100
AcDbCircle
 10
158.0065132724806
 20
60.41216628013177
 30
0.0
 40
2.0
100
AcDbArc
 50
270.0000070884994
 51
0.0
  0
LINE
  5
6D57
330
1A
100
AcDbEntity
  8
SEIHIN
100
AcDbLine
 10
147.0065132724807
 20
58.41216628013177
 30
0.0
 11
147.006513272463
 21
65.61216628013181
 31
0.0
  0
LINE
  5
6D58
330
1A
100
AcDbEntity
  8
SEIHIN
100
AcDbLine
 10
158.0065135198808
 20
58.41216628013177
 30
0.0
 11
147.006513272463
 21
58.41216628013177
 31
0.0
  0
ARC
  5
6D59
330
1A
100
AcDbEntity
  8
SEIHIN
100
AcDbCircle
 10
158.0065132724806
 20
96.41216628013175
 30
0.0
 40
2.0
100
AcDbArc
 50
0.0
 51
89.99999999717301
  0
LINE
  5
6D5A
330
1A
100
AcDbEntity
  8
SEIHIN
100
AcDbLine
 10
145.2065132724808
 20
67.41216628013177
 30
0.0
 11
145.2065132725331
 21
89.41216628013178
 31
0.0
  0
ARC
  5
6D5B
330
1A
100
AcDbEntity
  8
SEIHIN
100
AcDbCircle
 10
146.5065132724807
 20
65.61216628013181
 30
0.0
 40
0.5
100
AcDbArc
 50
0.0
 51
90.00000000203229
  0
LINE
  5
6D5C
330
1A
100
AcDbEntity
  8
SEIHIN
100
AcDbLine
 10
149.1890968440807
 20
66.11216628013181
 30
0.0
 11
146.506513272463
 21
66.11216628013181
 31
0.0
  0
ARC
  5
6D5D
330
1A
100
AcDbEntity
  8
SEIHIN
100
AcDbCircle
 10
146.5065132724807
 20
67.41216628013177
 30
0.0
 40
1.3
100
AcDbArc
 50
180.0
 51
269.9999999992183
  0
LINE
  5
6D5E
330
1A
100
AcDbEntity
  8
SEIHIN
100
AcDbLine
 10
147.0065132724807
 20
98.41216628013178
 30
0.0
 11
147.006513272463
 21
91.21216628013176
 31
0.0
  0
ARC
  5
6D5F
330
1A
100
AcDbEntity
  8
SEIHIN
100
AcDbCircle
 10
146.5065132724807
 20
91.21216628013176
 30
0.0
 40
0.5
100
AcDbArc
 50
270.0
 51
0.0
  0
LINE
  5
6D60
330
1A
100
AcDbEntity
  8
SEIHIN
100
AcDbLine
 10
146.5065132724807
 20
90.71216628013178
 30
0.0
 11
149.1890968441077
 21
90.71216628013178
 31
0.0
  0
ARC
  5
6D61
330
1A
100
AcDbEntity
  8
SEIHIN
100
AcDbCircle
 10
146.5065132724807
 20
89.41216628013178
 30
0.0
 40
1.3
100
AcDbArc
 50
90.0
 51
180.0
  0
LINE
  5
6D63
330
1A
100
AcDbEntity
  8
SEIHIN
100
AcDbLine
 10
160.0065132724806
 20
96.41216628013175
 30
0.0
 11
160.0065132725794
 21
60.41216628013177
 31
0.0
  0
ARC
  5
6D6D
330
1A
100
AcDbEntity
  8
SEIHIN
100
AcDbCircle
 10
245.6565132724808
 20
78.41216628013177
 30
0.0
 40
5.25
100
AcDbArc
 50
90.0
 51
269.9999999987884
  0
LINE
  5
6D6E
330
1A
100
AcDbEntity
  8
CENTER L
 48
5.0
100
AcDbLine
 10
277.4065132726907
 20
51.41216628013177
 30
0.0
 11
277.4065132723058
 21
105.4121662801317
 31
0.0
  0
LINE
  5
6D6F
330
1A
100
AcDbEntity
  8
SEIHIN
100
AcDbLine
 10
288.4065132724608
 20
83.66216628013177
 30
0.0
 11
309.156513884249
 21
83.66216628013177
 31
0.0
  0
LINE
  5
6D70
330
1A
100
AcDbEntity
  8
SEIHIN
100
AcDbLine
 10
288.4065132725357
 20
73.16216628013177
 30
0.0
 11
309.1565129622399
 21
73.16216628013177
 31
0.0
  0
LINE
  5
6D71
330
1A
100
AcDbEntity
  8
SEIHIN
100
AcDbLine
 10
287.4068131186445
 20
78.41216628013154
 30
0.0
 11
282.4066631955716
 21
87.07267999235597
 31
0.0
  0
LINE
  5
6D72
330
1A
100
AcDbEntity
  8
CENTER L
 48
5.0
100
AcDbLine
 10
277.4065132724806
 20
80.91216628013176
 30
0.0
 11
277.4065132723062
 21
105.4121662801317
 31
0.0
  0
LINE
  5
6D73
330
1A
100
AcDbEntity
  8
SEIHIN
100
AcDbLine
 10
272.4063633494251
 20
87.07267999235597
 30
0.0
 11
267.406213426352
 21
78.41216628013177
 31
0.0
  0
CIRCLE
  5
6D74
330
1A
100
AcDbEntity
  8
SEIHIN
100
AcDbCircle
 10
277.4065132724981
 20
78.4121662801317
 30
0.0
 40
5.000299846146333
  0
LINE
  5
6D75
330
1A
100
AcDbEntity
  8
SEIHIN
100
AcDbLine
 10
266.4065132726015
 20
63.91216628005327
 30
0.0
 11
266.4065132723951
 21
92.9121662800532
 31
0.0
  0
LINE
  5
6D76
330
1A
100
AcDbEntity
  8
SEIHIN
100
AcDbLine
 10
288.4065132726018
 20
63.9121662802101
 30
0.0
 11
288.4065132723949
 21
92.91216628021008
 31
0.0
  0
LINE
  5
6D77
330
1A
100
AcDbEntity
  8
SEIHIN
100
AcDbLine
 10
272.4063633494249
 20
69.75165256790734
 30
0.0
 11
282.4066631955716
 21
69.75165256790734
 31
0.0
  0
LINE
  5
6D78
330
1A
100
AcDbEntity
  8
SEIHIN
100
AcDbLine
 10
288.4065132726016
 20
63.9121662802101
 30
0.0
 11
266.4065132726015
 21
63.91216628005327
 31
0.0
  0
LINE
  5
6D79
330
1A
100
AcDbEntity
  8
SEIHIN
100
AcDbLine
 10
266.4065132725681
 20
68.61216628013181
 30
0.0
 11
288.4065132725678
 21
68.61216628013181
 31
0.0
  0
LINE
  5
6D7A
330
1A
100
AcDbEntity
  8
SEIHIN
100
AcDbLine
 10
267.406213426352
 20
78.41216628013177
 30
0.0
 11
272.4063633494249
 21
69.75165256790734
 31
0.0
  0
LINE
  5
6D7B
330
1A
100
AcDbEntity
  8
SEIHIN
100
AcDbLine
 10
282.4066631955716
 20
69.75165256790734
 30
0.0
 11
287.4068131186445
 21
78.41216628013154
 31
0.0
  0
CIRCLE
  5
6D7C
330
1A
100
AcDbEntity
  8
SEIHIN
 62
     2
100
AcDbCircle
 10
277.4065132724981
 20
78.4121662801317
 30
0.0
 40
4.000299846146333
  0
LINE
  5
6D7D
330
1A
100
AcDbEntity
  8
SEIHIN
100
AcDbLine
 10
282.4066631955716
 20
87.07267999235597
 30
0.0
 11
272.4063633494251
 21
87.07267999235597
 31
0.0
  0
LINE
  5
6D7E
330
1A
100
AcDbEntity
  8
SEIHIN
100
AcDbLine
 10
288.4065132723947
 20
92.91216628021008
 30
0.0
 11
266.4065132723949
 21
92.9121662800532
 31
0.0
  0
LINE
  5
6D7F
330
1A
100
AcDbEntity
  8
SEIHIN
100
AcDbLine
 10
266.4065132724283
 20
88.21216628013178
 30
0.0
 11
288.4065132724283
 21
88.21216628013178
 31
0.0
  0
ARC
  5
6D80
330
1A
100
AcDbEntity
  8
SEIHIN
100
AcDbCircle
 10
309.1565132724809
 20
78.41216628013177
 30
0.0
 40
5.25
100
AcDbArc
 50
269.9999966150968
 51
89.99999332601769
  0
LINE
  5
6D8F
330
1A
100
AcDbEntity
  8
SEIHIN
100
AcDbLine
 10
361.7421279617808
 20
169.6272753737892
 30
0.0
 11
198.682923409324
 21
169.6272753737892
 31
0.0
  0
LINE
  5
6D90
330
1A
100
AcDbEntity
  8
SEIHIN
100
AcDbLine
 10
361.7421279617808
 20
168.4272753737893
 30
0.0
 11
198.682923409324
 21
168.4272753737893
 31
0.0
  0
LINE
  5
6D91
330
1A
100
AcDbEntity
  8
SEIHIN
100
AcDbLine
 10
363.0302344608547
 20
175.4272753737894
 30
0.0
 11
197.7064123496511
 21
175.4272753737893
 31
0.0
  0
LINE
  5
6D92
330
1A
100
AcDbEntity
  8
NOKITOI
  6
PHANTOM
 48
5.0
100
AcDbLine
 10
161.9466084041298
 20
198.9811983737892
 30
0.0
 11
172.1644361447881
 21
115.0974845233128
 31
0.0
  0
LINE
  5
6D93
330
1A
100
AcDbEntity
  8
NOKITOI
  6
PHANTOM
 48
5.0
100
AcDbLine
 10
161.0168946041296
 20
223.9811983737892
 30
0.0
 11
174.2908728677656
 21
115.0078797520519
 31
0.0
  0
LINE
  5
6D94
330
1A
100
AcDbEntity
  8
NOKITOI
  6
PHANTOM
 48
5.0
100
AcDbLine
 10
162.7851124471756
 20
200.7811983737892
 30
0.0
 11
173.2276545231193
 21
115.0526821369726
 31
0.0
  0
ARC
  5
6D98
330
1A
100
AcDbEntity
  8
SEIHIN
100
AcDbCircle
 10
184.1819959373513
 20
222.3614226860434
 30
0.0
 40
6.0
100
AcDbArc
 50
8.000000000185311
 51
81.99999999999922
  0
ARC
  5
6D99
330
1A
100
AcDbEntity
  8
SEIHIN
100
AcDbCircle
 10
198.6829234092808
 20
175.2272753737892
 30
0.0
 40
6.799999999999998
100
AcDbArc
 50
188.000000000001
 51
270.0000000003647
  0
LINE
  5
6D9A
330
1A
100
AcDbEntity
  8
SEIHIN
100
AcDbLine
 10
193.1374222243705
 20
174.447906008343
 30
0.0
 11
186.3605856885481
 21
222.6676035081585
 31
0.0
  0
LINE
  5
6D9B
330
1A
100
AcDbEntity
  8
SEIHIN
100
AcDbLine
 10
191.9491005418808
 20
174.2808982871893
 30
0.0
 11
185.1722640062728
 21
222.5005957870892
 31
0.0
  0
LINE
  5
6D9C
330
1A
100
AcDbEntity
  8
SEIHIN
100
AcDbLine
 10
196.7161442809099
 20
176.2881022728265
 30
0.0
 11
190.1236043497306
 21
223.1964612918133
 31
0.0
  0
DIMENSION
  5
6D9D
330
1A
100
AcDbEntity
  8
SUNPOU
100
AcDbDimension
  2
*D9
 10
232.3369776214788
 20
175.4272753737893
 30
0.0
 11
227.3369776214787
 21
201.5505298744609
 31
0.0
 70
    32
 71
     5
 42
-1.0
  3
STANDARD
100
AcDbAlignedDimension
 13
189.494357626356
 23
227.6737843751324
 33
0.0
 14
197.7064123496511
 24
175.4272753737893
 34
0.0
 50
90.0
100
AcDbRotatedDimension
1001
ACAD
1000
DSTYLE
1002
{
1070
    41
1040
7.0
1070
    42
1040
6.0
1070
    43
1040
14.0
1070
    44
1040
3.0
1070
    73
1070
     0
1070
    74
1070
     0
1070
    77
1070
     3
1070
   140
1040
6.0
1070
   141
1040
150.0
1070
   147
1040
2.0
1070
   172
1070
     1
1070
   173
1070
     1
1070
   176
1070
   256
1070
   177
1070
   256
1070
   178
1070
   256
1070
   271
1070
     0
1070
   272
1070
     0
1070
   341
1005
6D
1070
     6
1000
OPEN
1070
     7
1000
OPEN
1070
   371
1070
    -1
1070
   372
1070
    -1
1002
}
  0
LINE
  5
6D9E
330
1A
100
AcDbEntity
  8
NOKITOI
  6
PHANTOM
 48
5.0
100
AcDbLine
 10
151.11689460413
 20
201.0811983737891
 30
0.0
 11
161.6908086041296
 21
201.0811983737891
 31
0.0
  0
LINE
  5
6D9F
330
1A
100
AcDbEntity
  8
NOKITOI
  6
PHANTOM
 48
5.0
100
AcDbLine
 10
150.8168946041298
 20
200.7811983737892
 30
0.0
 11
162.7851124471756
 21
200.7811983737892
 31
0.0
  0
LINE
  5
6DA0
330
1A
100
AcDbEntity
  8
NOKITOI
  6
PHANTOM
 48
5.0
100
AcDbLine
 10
149.0168946041296
 20
198.9811983737892
 30
0.0
 11
161.9466084041298
 21
198.9811983737892
 31
0.0
  0
LINE
  5
6DA1
330
1A
100
AcDbEntity
  8
NOKITOI
  6
PHANTOM
 48
5.0
100
AcDbLine
 10
151.0168946041296
 20
223.9811983737892
 30
0.0
 11
161.0168946041296
 21
223.9811983737892
 31
0.0
  0
LINE
  5
6DA2
330
1A
100
AcDbEntity
  8
NOKITOI
  6
PHANTOM
 48
5.0
100
AcDbLine
 10
153.11689460413
 20
222.1811983737893
 30
0.0
 11
159.1571724041298
 21
222.1811983737893
 31
0.0
  0
LINE
  5
6DA3
330
1A
100
AcDbEntity
  8
NOKITOI
  6
PHANTOM
 48
5.0
100
AcDbLine
 10
153.11689460413
 20
221.8811983737893
 30
0.0
 11
159.1571724041298
 21
221.8811983737893
 31
0.0
  0
LINE
  5
6DA4
330
1A
100
AcDbEntity
  8
SEIHIN
100
AcDbLine
 10
149.2065132724808
 20
197.5272753737893
 30
0.0
 11
160.0065132725794
 21
197.5272753737893
 31
0.0
  0
LINE
  5
6DA5
330
1A
100
AcDbEntity
  8
SEIHIN
100
AcDbLine
 10
149.2065132724808
 20
198.7272753737892
 30
0.0
 11
160.0065132725794
 21
198.7272753737892
 31
0.0
  0
LINE
  5
6DA6
330
1A
100
AcDbEntity
  8
SEIHIN
100
AcDbLine
 10
149.5126940945929
 20
229.4554959651155
 30
0.0
 11
184.4881767593833
 21
224.5400124372749
 31
0.0
  0
LINE
  5
6DA7
330
1A
100
AcDbEntity
  8
SEIHIN
100
AcDbLine
 10
149.3456861011807
 20
228.2671743208893
 30
0.0
 11
184.3211690382377
 21
223.3516907547893
 31
0.0
  0
LINE
  5
6DA8
330
1A
100
AcDbEntity
  8
SEIHIN
100
AcDbLine
 10
150.9023787772155
 20
233.0975332954173
 30
0.0
 11
185.0170345430556
 21
228.3030310984929
 31
0.0
  0
LINE
  5
6DA9
330
1A
100
AcDbEntity
  8
NOKITOI
  6
PHANTOM
 48
5.0
100
AcDbLine
 10
151.11689460413
 20
219.8811983737892
 30
0.0
 11
151.11689460413
 21
201.0811983737891
 31
0.0
  0
LINE
  5
6DAA
330
1A
100
AcDbEntity
  8
NOKITOI
  6
PHANTOM
 48
5.0
100
AcDbLine
 10
150.8168946041298
 20
219.8811983737892
 30
0.0
 11
150.8168946041298
 21
200.7811983737892
 31
0.0
  0
LINE
  5
6DAB
330
1A
100
AcDbEntity
  8
NOKITOI
  6
PHANTOM
 48
5.0
100
AcDbLine
 10
149.0168946041296
 20
221.9811983737892
 30
0.0
 11
149.0168946041296
 21
198.9811983737892
 31
0.0
  0
LINE
  5
6DAC
330
1A
100
AcDbEntity
  8
SEIHIN
100
AcDbLine
 10
147.0065132724807
 20
199.7272753737892
 30
0.0
 11
147.006513272463
 21
227.276906213884
 31
0.0
  0
LINE
  5
6DAD
330
1A
100
AcDbEntity
  8
SEIHIN
100
AcDbLine
 10
148.2065132724808
 20
199.7272753737892
 30
0.0
 11
148.2065132725331
 21
227.2769061509892
 31
0.0
  0
LINE
  5
6DAE
330
1A
100
AcDbEntity
  8
SEIHIN
100
AcDbLine
 10
145.2065132724808
 20
201.5272753737793
 30
0.0
 11
145.2065132724139
 21
228.1461929516971
 31
0.0
  0
ARC
  5
6DAF
330
1A
100
AcDbEntity
  8
SEIHIN
100
AcDbCircle
 10
149.2065132724808
 20
199.7272753737892
 30
0.0
 40
1.0
100
AcDbArc
 50
180.0
 51
270.0000000029963
  0
ARC
  5
6DB0
330
1A
100
AcDbEntity
  8
SEIHIN
100
AcDbCircle
 10
149.2065132724808
 20
199.7272753737892
 30
0.0
 40
2.2
100
AcDbArc
 50
180.0
 51
270.0000000029963
  0
ARC
  5
6DB1
330
1A
100
AcDbEntity
  8
SEIHIN
100
AcDbCircle
 10
149.2065132724808
 20
201.5272753737893
 30
0.0
 40
4.0
100
AcDbArc
 50
180.0000000001432
 51
270.0
  0
ARC
  5
6DB2
330
1A
100
AcDbEntity
  8
SEIHIN
100
AcDbCircle
 10
149.2065132724808
 20
227.276906213884
 30
0.0
 40
2.2
100
AcDbArc
 50
81.99999999999922
 51
180.0
  0
ARC
  5
6DB3
330
1A
100
AcDbEntity
  8
SEIHIN
100
AcDbCircle
 10
149.2065132724808
 20
227.2769062138892
 30
0.0
 40
1.0
100
AcDbArc
 50
82.00001575310357
 51
180.0000036065996
  0
ARC
  5
6DB4
330
1A
100
AcDbEntity
  8
SEIHIN
100
AcDbCircle
 10
150.2065132724139
 20
228.1461929517096
 30
0.0
 40
5.0
100
AcDbArc
 50
81.99999999998608
 51
180.0000000001432
  0
ARC
  5
6DB5
330
1A
100
AcDbEntity
  8
NOKITOI
  6
PHANTOM
 48
5.0
100
AcDbCircle
 10
151.0168946041296
 20
221.9811983737892
 30
0.0
 40
2.0
100
AcDbArc
 50
90.0
 51
180.0
  0
ARC
  5
6DB6
330
1A
100
AcDbEntity
  8
NOKITOI
  6
PHANTOM
 48
5.0
100
AcDbCircle
 10
153.11689460413
 20
219.8811983737892
 30
0.0
 40
2.0
100
AcDbArc
 50
90.0
 51
180.0
  0
ARC
  5
6DB7
330
1A
100
AcDbEntity
  8
NOKITOI
  6
PHANTOM
 48
5.0
100
AcDbCircle
 10
153.11689460413
 20
219.8811983737892
 30
0.0
 40
2.299999999999998
100
AcDbArc
 50
90.0
 51
180.0
  0
LINE
  5
6DB8
330
1A
100
AcDbEntity
  8
NOKITOI
  6
PHANTOM
 48
5.0
100
AcDbLine
 10
159.1571724041298
 20
221.8811983737893
 30
0.0
 11
161.6908086041296
 21
201.0811983737891
 31
0.0
  0
LINE
  5
6DBC
330
1A
100
AcDbEntity
  8
SEIHIN
100
AcDbLine
 10
160.0065132724806
 20
198.7272753737892
 30
0.0
 11
160.0065132725794
 21
197.5272753737893
 31
0.0
  0
ARC
  5
6DC6
330
1A
100
AcDbEntity
  8
SEIHIN
100
AcDbCircle
 10
184.1819959373513
 20
222.3614226860434
 30
0.0
 40
2.2
100
AcDbArc
 50
8.000000000204259
 51
81.99999999999922
  0
ARC
  5
6DC7
330
1A
100
AcDbEntity
  8
SEIHIN
100
AcDbCircle
 10
184.1819959373808
 20
222.3614226860894
 30
0.0
 40
1.0
100
AcDbArc
 50
8.000000000001076
 51
82.00000000585346
  0
ARC
  5
6DC8
330
1A
100
AcDbEntity
  8
SEIHIN
100
AcDbCircle
 10
198.6829234092808
 20
175.2272753737892
 30
0.0
 40
5.599999999999998
100
AcDbArc
 50
188.000000000001
 51
269.9999999992509
  0
ARC
  5
6DC9
330
1A
100
AcDbEntity
  8
SEIHIN
100
AcDbCircle
 10
207.4065132724806
 20
171.4272753737895
 30
0.0
 40
4.999999999999816
100
AcDbArc
 50
53.13010235415435
 51
126.8698976458456
  0
LINE
  5
6DCA
330
1A
100
AcDbEntity
  8
SEIHIN
100
AcDbLine
 10
199.7197900932339
 20
175.4272753737893
 30
0.0
 11
196.4359362569321
 21
178.2818859624845
 31
0.0
  0
ARC
  5
6DCB
330
1A
100
AcDbEntity
  8
SEIHIN
100
AcDbCircle
 10
197.7064123496511
 20
176.4272753737893
 30
0.0
 40
1.0
100
AcDbArc
 50
188.0000000001581
 51
270.0
  0
ARC
  5
6DD0
330
1A
100
AcDbEntity
  8
SEIHIN
100
AcDbCircle
 10
277.4064862725638
 20
168.6769453737893
 30
0.0
 40
7.249670882495078
100
AcDbArc
 50
226.3950018128624
 51
270.0002225484002
  0
LINE
  5
6DD1
330
1A
100
AcDbEntity
  8
SEIHIN
100
AcDbLine
 10
272.4065132725638
 20
156.4273753737893
 30
0.0
 11
282.4065132725639
 21
156.4273753737893
 31
0.0
  0
LINE
  5
6DD2
330
1A
100
AcDbEntity
  8
SEIHIN
100
AcDbLine
 10
269.9065132725638
 20
161.4273753737893
 30
0.0
 11
277.4066132725638
 21
161.4273753737893
 31
0.0
  0
LINE
  5
6DD3
330
1A
100
AcDbEntity
  8
SEIHIN
100
AcDbLine
 10
288.4065132723949
 20
167.9272753737893
 30
0.0
 11
266.4065132723949
 21
167.9272753737893
 31
0.0
  0
LINE
  5
6DD4
330
1A
100
AcDbEntity
  8
SEIHIN
100
AcDbLine
 10
272.4065132725638
 20
161.4272753737893
 30
0.0
 11
272.4065132725638
 21
156.4273753737893
 31
0.0
  0
LINE
  5
6DD5
330
1A
100
AcDbEntity
  8
SEIHIN
100
AcDbLine
 10
272.4065132725638
 20
163.4273753737893
 30
0.0
 11
272.4065132725638
 21
167.9272753737893
 31
0.0
  0
LINE
  5
6DD6
330
1A
100
AcDbEntity
  8
SEIHIN
100
AcDbLine
 10
267.4065132725638
 20
163.4272753737893
 30
0.0
 11
267.4065132725638
 21
167.9272753737893
 31
0.0
  0
LINE
  5
6DD7
330
1A
100
AcDbEntity
  8
SEIHIN
100
AcDbLine
 10
266.4065132723949
 20
167.9272753737893
 30
0.0
 11
266.4065132723949
 21
168.4272753737893
 31
0.0
  0
ARC
  5
6DD8
330
1A
100
AcDbEntity
  8
SEIHIN
100
AcDbCircle
 10
269.9063512725638
 20
163.9897753737893
 30
0.0
 40
2.562635081136892
100
AcDbArc
 50
192.6797294812845
 51
347.3226210809194
  0
LINE
  5
6DD9
330
1A
100
AcDbEntity
  8
SEIHIN
100
AcDbLine
 10
273.4065132725638
 20
161.4272753737893
 30
0.0
 11
273.4065132725638
 21
156.4273753737893
 31
0.0
  0
LINE
  5
6DDA
330
1A
100
AcDbEntity
  8
SEIHIN
100
AcDbLine
 10
282.4065132725639
 20
161.4272753737893
 30
0.0
 11
282.4065132725639
 21
156.4273753737893
 31
0.0
  0
LINE
  5
6DDB
330
1A
100
AcDbEntity
  8
SEIHIN
100
AcDbLine
 10
281.4065132725638
 20
161.4272753737893
 30
0.0
 11
281.4065132725638
 21
156.4273753737893
 31
0.0
  0
LINE
  5
6DDC
330
1A
100
AcDbEntity
  8
SEIHIN
100
AcDbLine
 10
284.9065132725638
 20
161.4272753737893
 30
0.0
 11
277.4063132725639
 21
161.4272753737893
 31
0.0
  0
ARC
  5
6DDD
330
1A
100
AcDbEntity
  8
SEIHIN
100
AcDbCircle
 10
277.4065392725638
 20
168.6768453737893
 30
0.0
 40
7.249670882495078
100
AcDbArc
 50
269.9997887398042
 51
313.6050094753449
  0
LINE
  5
6DDE
330
1A
100
AcDbEntity
  8
SEIHIN
100
AcDbLine
 10
288.4065132723949
 20
167.9272753737893
 30
0.0
 11
288.4065132723949
 21
168.4272753737893
 31
0.0
  0
ARC
  5
6DDF
330
1A
100
AcDbEntity
  8
SEIHIN
100
AcDbCircle
 10
284.9066742725637
 20
163.9897753737893
 30
0.0
 40
2.562656995934784
100
AcDbArc
 50
192.6796051079033
 51
347.3181259813769
  0
LINE
  5
6DE0
330
1A
100
AcDbEntity
  8
SEIHIN
100
AcDbLine
 10
282.4065132725639
 20
163.4272753737893
 30
0.0
 11
282.4065132725639
 21
167.9272753737893
 31
0.0
  0
LINE
  5
6DE1
330
1A
100
AcDbEntity
  8
SEIHIN
100
AcDbLine
 10
287.4065132725638
 20
163.4272753737893
 30
0.0
 11
287.4065132725638
 21
167.9272753737893
 31
0.0
  0
ARC
  5
6DE2
330
1A
100
AcDbEntity
  8
SEIHIN
100
AcDbCircle
 10
277.4064862725638
 20
176.1777043737893
 30
0.0
 40
7.249670882495078
100
AcDbArc
 50
89.9997887397456
 51
133.6050094752909
  0
LINE
  5
6DE3
330
1A
100
AcDbEntity
  8
SEIHIN
100
AcDbLine
 10
267.4065132725638
 20
175.4272753737894
 30
0.0
 11
287.4065132725638
 21
175.4272753737894
 31
0.0
  0
LINE
  5
6DE4
330
1A
100
AcDbEntity
  8
SEIHIN
100
AcDbLine
 10
267.4065132725638
 20
175.4272753737894
 30
0.0
 11
287.4065132725638
 21
175.4272753737894
 31
0.0
  0
LINE
  5
6DE5
330
1A
100
AcDbEntity
  8
SEIHIN
100
AcDbLine
 10
269.9065132725638
 20
183.4271753737893
 30
0.0
 11
277.4066132725638
 21
183.4271753737893
 31
0.0
  0
ARC
  5
6DE6
330
1A
100
AcDbEntity
  8
SEIHIN
100
AcDbCircle
 10
269.9063012725639
 20
180.8647753737894
 30
0.0
 40
2.562684194030246
100
AcDbArc
 50
12.67714418354194
 51
167.3205326235306
  0
LINE
  5
6DE7
330
1A
100
AcDbEntity
  8
SEIHIN
100
AcDbLine
 10
272.4065132725638
 20
181.4272753737894
 30
0.0
 11
272.4065132725638
 21
175.4272753737894
 31
0.0
  0
LINE
  5
6DE8
330
1A
100
AcDbEntity
  8
SEIHIN
100
AcDbLine
 10
267.4065132725638
 20
181.4272753737894
 30
0.0
 11
267.4065132725638
 21
175.4272753737894
 31
0.0
  0
ARC
  5
6DE9
330
1A
100
AcDbEntity
  8
SEIHIN
100
AcDbCircle
 10
284.9066742725637
 20
180.8648753737894
 30
0.0
 40
2.562635081136892
100
AcDbArc
 50
12.67972948128459
 51
167.3226210809193
  0
ARC
  5
6DEA
330
1A
100
AcDbEntity
  8
SEIHIN
100
AcDbCircle
 10
277.4065252725638
 20
176.1776693737893
 30
0.0
 40
7.249704847449202
100
AcDbArc
 50
46.39512430589117
 51
90.00012237830244
  0
LINE
  5
6DEB
330
1A
100
AcDbEntity
  8
SEIHIN
100
AcDbLine
 10
282.4065132725639
 20
181.4272753737894
 30
0.0
 11
282.4065132725639
 21
175.4272753737894
 31
0.0
  0
LINE
  5
6DEC
330
1A
100
AcDbEntity
  8
SEIHIN
100
AcDbLine
 10
287.4065132725638
 20
181.4272753737894
 30
0.0
 11
287.4065132725638
 21
175.4272753737894
 31
0.0
  0
LINE
  5
6DED
330
1A
100
AcDbEntity
  8
SEIHIN
100
AcDbLine
 10
284.9065132725638
 20
183.4272753737894
 30
0.0
 11
277.4063132725639
 21
183.4272753737894
 31
0.0
  0
LINE
  5
6DEE
330
1A
100
AcDbEntity
  8
SEIHIN
100
AcDbLine
 10
368.1320377830809
 20
172.9015383990893
 30
0.0
 11
377.5617873296657
 21
198.8095623495892
 31
0.0
  0
LINE
  5
6DEF
330
1A
100
AcDbEntity
  8
SEIHIN
100
AcDbLine
 10
367.0044066381372
 20
173.3119625710784
 30
0.0
 11
376.4341561846019
 21
199.2199865215497
 31
0.0
  0
LINE
  5
6DF0
330
1A
100
AcDbEntity
  8
SEIHIN
100
AcDbLine
 10
363.9699270816428
 20
176.0852552304704
 30
0.0
 11
372.8633242255639
 21
200.5196630661771
 31
0.0
  0
DIMENSION
  5
6DF1
330
1A
100
AcDbEntity
  8
SUNPOU
100
AcDbDimension
  2
*D10
 10
333.7025146717153
 20
203.9074088050999
 30
0.0
 11
328.7025146717152
 21
189.6673420894447
 31
0.0
 70
    32
 71
     5
 42
-1.0
  3
STANDARD
100
AcDbAlignedDimension
 13
363.0302344608547
 23
175.4272753737894
 33
0.0
 14
374.0963628357665
 24
203.9074088050999
 34
0.0
 50
90.0
100
AcDbRotatedDimension
1001
ACAD
1000
DSTYLE
1002
{
1070
    41
1040
7.0
1070
    42
1040
6.0
1070
    43
1040
14.0
1070
    44
1040
3.0
1070
    73
1070
     0
1070
    74
1070
     0
1070
    77
1070
     3
1070
   140
1040
6.0
1070
   141
1040
150.0
1070
   147
1040
2.0
1070
   172
1070
     1
1070
   173
1070
     1
1070
   176
1070
   256
1070
   177
1070
   256
1070
   178
1070
   256
1070
   271
1070
     0
1070
   272
1070
     0
1070
   341
1005
6D
1070
     6
1000
OPEN
1070
     7
1000
OPEN
1070
   371
1070
    -1
1070
   372
1070
    -1
1002
}
  0
ARC
  5
6DF2
330
1A
100
AcDbEntity
  8
SEIHIN
100
AcDbCircle
 10
350.4065132724806
 20
171.4272753737896
 30
0.0
 40
4.999999999999816
100
AcDbArc
 50
53.13010235415435
 51
126.8698976458456
  0
ARC
  5
6DF3
330
1A
100
AcDbEntity
  8
SEIHIN
100
AcDbCircle
 10
361.7421279617808
 20
175.2272753737892
 30
0.0
 40
5.599999999999998
100
AcDbArc
 50
270.0
 51
339.9999999994623
  0
ARC
  5
6DF4
330
1A
100
AcDbEntity
  8
SEIHIN
100
AcDbCircle
 10
361.7421279617808
 20
175.2272753737892
 30
0.0
 40
6.799999999999998
100
AcDbArc
 50
270.0
 51
339.9999999999047
  0
LINE
  5
6DF7
330
1A
100
AcDbEntity
  8
SEIHIN
100
AcDbLine
 10
361.3915023456284
 20
175.4272753737894
 30
0.0
 11
364.5304064746083
 21
177.6251597067834
 31
0.0
  0
ARC
  5
6DF8
330
1A
100
AcDbEntity
  8
SEIHIN
100
AcDbCircle
 10
363.0302344608547
 20
176.4272753737894
 30
0.0
 40
1.0
100
AcDbArc
 50
270.0
 51
340.0000000004098
  0
ARC
  5
6DFD
330
1A
100
AcDbEntity
  8
SEIHIN
100
AcDbCircle
 10
378.5014799504567
 20
198.4675422062359
 30
0.0
 40
2.2
100
AcDbArc
 50
97.99999999986264
 51
160.0000000011805
  0
ARC
  5
6DFE
330
1A
100
AcDbEntity
  8
SEIHIN
100
AcDbCircle
 10
378.5014799504808
 20
198.4675422061893
 30
0.0
 40
1.0
100
AcDbArc
 50
98.00000000000078
 51
160.0000000005801
  0
ARC
  5
6DFF
330
1A
100
AcDbEntity
  8
SEIHIN
100
AcDbCircle
 10
378.5014799504567
 20
198.4675422062359
 30
0.0
 40
6.0
100
AcDbArc
 50
98.00000000015208
 51
160.0000000000723
  0
LINE
  5
6E00
330
1A
100
AcDbEntity
  8
CENTER L
 48
5.0
100
AcDbLine
 10
277.406513272381
 20
555.6818676884263
 30
0.0
 11
277.4065132724151
 21
501.6818676884263
 31
0.0
  0
DIMENSION
  5
6E01
330
1A
100
AcDbEntity
  8
SUNPOU
100
AcDbDimension
  2
*D11
 10
309.1565132725643
 20
458.1775769982715
 30
0.0
 11
277.4065132725642
 21
463.1775769982715
 31
0.0
 70
    32
 71
     5
 42
-1.0
  3
STANDARD
100
AcDbAlignedDimension
 13
245.6565132725641
 23
435.8949367734783
 33
0.0
 14
309.1565132725643
 24
435.8949367734783
 34
0.0
100
AcDbRotatedDimension
1001
ACAD
1000
DSTYLE
1002
{
1070
   140
1040
6.0
1070
    74
1070
     0
1070
   172
1070
     1
1070
    73
1070
     0
1070
   272
1070
     2
1070
    77
1070
     3
1070
   173
1070
     1
1070
   147
1040
2.0
1070
    42
1040
6.0
1070
    44
1040
3.0
1070
    43
1040
14.0
1070
   271
1070
     0
1070
   178
1070
     4
1070
   177
1070
     4
1070
   176
1070
     4
1070
   141
1040
150.0
1070
     7
1000
_OPEN
1070
     6
1000
_OPEN
1070
    41
1040
7.0
1002
}
  0
LEADER
  5
6E02
330
1A
100
AcDbEntity
  8
SUNPOU
100
AcDbLeader
  3
STANDARD
 76
     3
 10
282.4065132725639
 20
426.4273753737893
 30
0.0
 10
310.3093644750527
 20
451.0931511233249
 30
0.0
 10
360.3887414341199
 20
451.0931511233249
 30
0.0
1001
ACAD
1000
DSTYLE
1002
{
1070
     6
1000
OPEN
1070
    41
1040
7.0
1070
    42
1040
6.0
1070
    43
1040
14.0
1070
    44
1040
3.0
1070
    73
1070
     0
1070
    74
1070
     0
1070
    77
1070
     3
1070
   140
1040
6.0
1070
   141
1040
150.0
1070
   147
1040
2.0
1070
   172
1070
     1
1070
   173
1070
     1
1070
   176
1070
     4
1070
   177
1070
     4
1070
   178
1070
     4
1070
   271
1070
     0
1070
   272
1070
     2
1070
   341
1005
6D
1070
   343
1005
6D
1070
   344
1005
6D
1002
}
  0
LEADER
  5
6E03
330
1A
100
AcDbEntity
  8
SUNPOU
100
AcDbLeader
  3
STANDARD
 76
     3
 10
293.9065112725638
 20
412.2063203737893
 30
0.0
 10
319.667795412512
 20
440.1009891025305
 30
0.0
 10
336.0464067068392
 20
440.1009891025305
 30
0.0
1001
ACAD
1000
DSTYLE
1002
{
1070
     6
1000
OPEN
1070
    41
1040
7.0
1070
    42
1040
6.0
1070
    43
1040
14.0
1070
    44
1040
3.0
1070
    73
1070
     0
1070
    74
1070
     0
1070
    77
1070
     3
1070
   140
1040
6.0
1070
   141
1040
150.0
1070
   147
1040
2.0
1070
   172
1070
     1
1070
   173
1070
     1
1070
   176
1070
     4
1070
   177
1070
     4
1070
   178
1070
     4
1070
   271
1070
     0
1070
   272
1070
     2
1070
   341
1005
6D
1070
   343
1005
6D
1070
   344
1005
6D
1002
}
  0
ARC
  5
6E04
330
1A
100
AcDbEntity
  8
SEIHIN
100
AcDbCircle
 10
284.9066852725638
 20
387.8688203737893
 30
0.0
 40
2.562656995934784
100
AcDbArc
 50
192.6796051079033
 51
347.3181259813769
  0
ARC
  5
6E05
330
1A
100
AcDbEntity
  8
SEIHIN
100
AcDbCircle
 10
277.4065112725638
 20
392.5560253737892
 30
0.0
 40
7.249704847449202
100
AcDbArc
 50
226.3951243058911
 51
270.0001223783024
  0
ARC
  5
6E06
330
1A
100
AcDbEntity
  8
SEIHIN
100
AcDbCircle
 10
277.4066412725637
 20
392.5560273737892
 30
0.0
 40
7.249707053624613
100
AcDbArc
 50
269.9990734195281
 51
313.6037477331426
  0
ARC
  5
6E07
330
1A
100
AcDbEntity
  8
SEIHIN
100
AcDbCircle
 10
269.9063632725637
 20
387.8688203737893
 30
0.0
 40
2.562635081136892
100
AcDbArc
 50
192.6797294812845
 51
347.3226210809194
  0
LINE
  5
6E08
330
1A
100
AcDbEntity
  8
SEIHIN
100
AcDbLine
 10
269.9065242725637
 20
385.3064203737893
 30
0.0
 11
277.4067242725639
 21
385.3064203737893
 31
0.0
  0
LINE
  5
6E09
330
1A
100
AcDbEntity
  8
SEIHIN
100
AcDbLine
 10
284.9065242725637
 20
385.3063203737893
 30
0.0
 11
277.4064242725637
 21
385.3063203737893
 31
0.0
  0
LINE
  5
6E0A
330
1A
100
AcDbEntity
  8
SEIHIN
100
AcDbLine
 10
293.9065242725637
 20
397.0063203737893
 30
0.0
 11
260.9065242725638
 21
397.0063203737893
 31
0.0
  0
LINE
  5
6E0B
330
1A
100
AcDbEntity
  8
SEIHIN
100
AcDbLine
 10
292.4065242725637
 20
401.0063203737892
 30
0.0
 11
262.4065242725637
 21
401.0063203737892
 31
0.0
  0
LINE
  5
6E0C
330
1A
100
AcDbEntity
  8
SEIHIN
100
AcDbLine
 10
293.9065242725637
 20
395.8063203737893
 30
0.0
 11
260.9065242725638
 21
395.8063203737893
 31
0.0
  0
LINE
  5
6E0D
330
1A
100
AcDbEntity
  8
SEIHIN
100
AcDbLine
 10
293.9065112725638
 20
412.2063203737893
 30
0.0
 11
260.9065112725638
 21
412.2063203737893
 31
0.0
  0
LINE
  5
6E0E
330
1A
100
AcDbEntity
  8
SEIHIN
100
AcDbLine
 10
293.9065112725638
 20
411.0063203737892
 30
0.0
 11
260.9065112725638
 21
411.0063203737892
 31
0.0
  0
LINE
  5
6E0F
330
1A
100
AcDbEntity
  8
SEIHIN
100
AcDbLine
 10
292.4065242725637
 20
411.0063203737892
 30
0.0
 11
262.4065242725637
 21
411.0063203737892
 31
0.0
  0
LINE
  5
6E10
330
1A
100
AcDbEntity
  8
SEIHIN
100
AcDbLine
 10
262.4065242725637
 20
411.0063203737892
 30
0.0
 11
262.4065242725637
 21
401.0063203737892
 31
0.0
  0
LINE
  5
6E11
330
1A
100
AcDbEntity
  8
SEIHIN
100
AcDbLine
 10
287.4065242725637
 20
393.3063203737893
 30
0.0
 11
267.4065242725637
 21
393.3063203737893
 31
0.0
  0
LINE
  5
6E12
330
1A
100
AcDbEntity
  8
SEIHIN
100
AcDbLine
 10
272.4266232725637
 20
397.0063203737893
 30
0.0
 11
272.4266232725637
 21
401.0063203737892
 31
0.0
  0
LINE
  5
6E13
330
1A
100
AcDbEntity
  8
SEIHIN
100
AcDbLine
 10
260.9065242725638
 20
397.0063203737893
 30
0.0
 11
260.9065242725638
 21
395.8063203737893
 31
0.0
  0
LINE
  5
6E14
330
1A
100
AcDbEntity
  8
SEIHIN
100
AcDbLine
 10
272.4065242725637
 20
387.3064203737893
 30
0.0
 11
272.4065242725637
 21
393.3063203737893
 31
0.0
  0
LINE
  5
6E15
330
1A
100
AcDbEntity
  8
SEIHIN
100
AcDbLine
 10
267.4065242725637
 20
387.3063203737893
 30
0.0
 11
267.4065242725637
 21
393.3063203737893
 31
0.0
  0
LINE
  5
6E16
330
1A
100
AcDbEntity
  8
SEIHIN
100
AcDbLine
 10
266.4065032725636
 20
395.8063203737893
 30
0.0
 11
267.9065012725639
 21
393.3063203737893
 31
0.0
  0
LINE
  5
6E17
330
1A
100
AcDbEntity
  8
SEIHIN
100
AcDbLine
 10
273.4266232725638
 20
397.0063203737893
 30
0.0
 11
273.4266232725638
 21
401.0063203737892
 31
0.0
  0
LINE
  5
6E18
330
1A
100
AcDbEntity
  8
SEIHIN
100
AcDbLine
 10
282.4266232725637
 20
397.0063203737893
 30
0.0
 11
282.4266232725637
 21
401.0063203737892
 31
0.0
  0
LINE
  5
6E19
330
1A
100
AcDbEntity
  8
SEIHIN
100
AcDbLine
 10
281.4266232725638
 20
397.0063203737893
 30
0.0
 11
281.4266232725638
 21
401.0063203737892
 31
0.0
  0
LINE
  5
6E1A
330
1A
100
AcDbEntity
  8
SEIHIN
100
AcDbLine
 10
282.4065242725637
 20
387.3063203737893
 30
0.0
 11
282.4065242725637
 21
393.3063203737893
 31
0.0
  0
LINE
  5
6E1B
330
1A
100
AcDbEntity
  8
SEIHIN
100
AcDbLine
 10
287.4065242725637
 20
387.3063203737893
 30
0.0
 11
287.4065242725637
 21
393.3063203737893
 31
0.0
  0
LINE
  5
6E1C
330
1A
100
AcDbEntity
  8
SEIHIN
100
AcDbLine
 10
286.9065012725638
 20
393.3063203737893
 30
0.0
 11
288.4065032725636
 21
395.8063203737893
 31
0.0
  0
ARC
  5
6E1D
330
1A
100
AcDbEntity
  8
SEIHIN
100
AcDbCircle
 10
277.4065002725639
 20
415.4567153737893
 30
0.0
 40
7.249704847449202
100
AcDbArc
 50
89.99989775740109
 51
133.6048958298142
  0
LINE
  5
6E1E
330
1A
100
AcDbEntity
  8
SEIHIN
100
AcDbLine
 10
272.4065132725638
 20
426.4273753737893
 30
0.0
 11
282.4065132725639
 21
426.4273753737893
 31
0.0
  0
LINE
  5
6E1F
330
1A
100
AcDbEntity
  8
SEIHIN
100
AcDbLine
 10
269.9065132725638
 20
422.7063203737893
 30
0.0
 11
277.4067132725638
 21
422.7063203737893
 31
0.0
  0
LINE
  5
6E20
330
1A
100
AcDbEntity
  8
SEIHIN
100
AcDbLine
 10
267.4065132725638
 20
414.7063203737893
 30
0.0
 11
287.4065132725638
 21
414.7063203737893
 31
0.0
  0
LINE
  5
6E21
330
1A
100
AcDbEntity
  8
SEIHIN
100
AcDbLine
 10
286.9064882725638
 20
414.7063203737893
 30
0.0
 11
267.9064882725638
 21
414.7063203737893
 31
0.0
  0
ARC
  5
6E22
330
1A
100
AcDbEntity
  8
SEIHIN
100
AcDbCircle
 10
269.9063632725637
 20
420.1438203737893
 30
0.0
 40
2.562646037603808
100
AcDbArc
 50
12.67966100636773
 51
167.3203672336147
  0
LINE
  5
6E23
330
1A
100
AcDbEntity
  8
SEIHIN
100
AcDbLine
 10
260.9065112725638
 20
412.2063203737893
 30
0.0
 11
260.9065112725638
 21
411.0063203737892
 31
0.0
  0
LINE
  5
6E24
330
1A
100
AcDbEntity
  8
SEIHIN
100
AcDbLine
 10
266.4064902725638
 20
412.2063203737893
 30
0.0
 11
267.9064882725638
 21
414.7063203737893
 31
0.0
  0
LINE
  5
6E25
330
1A
100
AcDbEntity
  8
SEIHIN
100
AcDbLine
 10
272.4065132725638
 20
420.7063203737892
 30
0.0
 11
272.4065132725638
 21
414.7063203737893
 31
0.0
  0
LINE
  5
6E26
330
1A
100
AcDbEntity
  8
SEIHIN
100
AcDbLine
 10
267.4065132725638
 20
420.7064203737893
 30
0.0
 11
267.4065132725638
 21
414.7063203737893
 31
0.0
  0
LINE
  5
6E27
330
1A
100
AcDbEntity
  8
SEIHIN
100
AcDbLine
 10
272.4065132725638
 20
422.7063203737893
 30
0.0
 11
272.4065132725638
 21
426.4273753737893
 31
0.0
  0
ARC
  5
6E28
330
1A
100
AcDbEntity
  8
SEIHIN
100
AcDbCircle
 10
284.9066742725637
 20
420.1439203737892
 30
0.0
 40
2.562635081136892
100
AcDbArc
 50
12.67972948128459
 51
167.3226210809193
  0
ARC
  5
6E29
330
1A
100
AcDbEntity
  8
SEIHIN
100
AcDbCircle
 10
277.4065402725639
 20
415.4567493737893
 30
0.0
 40
7.249670882495078
100
AcDbArc
 50
46.39500181286243
 51
90.00022254840022
  0
LINE
  5
6E2A
330
1A
100
AcDbEntity
  8
SEIHIN
100
AcDbLine
 10
286.9064882725638
 20
414.7063203737893
 30
0.0
 11
288.4064902725638
 21
412.2063203737893
 31
0.0
  0
LINE
  5
6E2B
330
1A
100
AcDbEntity
  8
SEIHIN
100
AcDbLine
 10
282.4065132725639
 20
420.7063203737892
 30
0.0
 11
282.4065132725639
 21
414.7063203737893
 31
0.0
  0
LINE
  5
6E2C
330
1A
100
AcDbEntity
  8
SEIHIN
100
AcDbLine
 10
287.4065132725638
 20
420.7063203737892
 30
0.0
 11
287.4065132725638
 21
414.7063203737893
 31
0.0
  0
LINE
  5
6E2D
330
1A
100
AcDbEntity
  8
SEIHIN
100
AcDbLine
 10
284.9065132725638
 20
422.7063203737893
 30
0.0
 11
277.4064132725636
 21
422.7063203737893
 31
0.0
  0
LINE
  5
6E2E
330
1A
100
AcDbEntity
  8
SEIHIN
100
AcDbLine
 10
273.4065132725638
 20
422.7063203737893
 30
0.0
 11
273.4065132725638
 21
426.4273753737893
 31
0.0
  0
LINE
  5
6E2F
330
1A
100
AcDbEntity
  8
SEIHIN
100
AcDbLine
 10
282.4065132725639
 20
422.7063203737893
 30
0.0
 11
282.4065132725639
 21
426.4273753737893
 31
0.0
  0
LINE
  5
6E30
330
1A
100
AcDbEntity
  8
SEIHIN
100
AcDbLine
 10
281.4065132725638
 20
422.7063203737893
 30
0.0
 11
281.4065132725638
 21
426.4273753737893
 31
0.0
  0
LINE
  5
6E31
330
1A
100
AcDbEntity
  8
SEIHIN
100
AcDbLine
 10
292.4065242725637
 20
411.0063203737892
 30
0.0
 11
292.4065242725637
 21
401.0063203737892
 31
0.0
  0
LINE
  5
6E32
330
1A
100
AcDbEntity
  8
SEIHIN
100
AcDbLine
 10
293.9065242725637
 20
397.0063203737893
 30
0.0
 11
293.9065242725637
 21
395.8063203737893
 31
0.0
  0
LINE
  5
6E33
330
1A
100
AcDbEntity
  8
SEIHIN
100
AcDbLine
 10
293.9065112725638
 20
412.2063203737893
 30
0.0
 11
293.9065112725638
 21
411.0063203737892
 31
0.0
  0
TEXT
  5
6E34
330
1A
100
AcDbEntity
  8
SUNPOU
100
AcDbText
 10
301.7194328094972
 20
461.8312944458924
 30
0.0
 40
6.0
  1
スライド幅
100
AcDbText
  0
TEXT
  5
6E35
330
1A
100
AcDbEntity
  8
SUNPOU
100
AcDbText
 10
322.182994891014
 20
441.776214607244
 30
0.0
 40
5.0
  1
座金
100
AcDbText
  0
TEXT
  5
6E36
330
1A
100
AcDbEntity
  8
SUNPOU
100
AcDbText
 10
312.8245639535546
 20
452.7683766280386
 30
0.0
 40
5.0
  1
Ｗ３／８－Ｌ２７０
100
AcDbText
  0
LINE
  5
6E37
330
1A
100
AcDbEntity
  8
SEIHIN
100
AcDbLine
 10
245.6565125901809
 20
533.9318676884263
 30
0.0
 11
263.7402058078075
 21
533.9318676884263
 31
0.0
  0
LINE
  5
6E38
330
1A
100
AcDbEntity
  8
SEIHIN
100
AcDbLine
 10
245.6565127615808
 20
523.4318676884263
 30
0.0
 11
263.7402058078075
 21
523.4318676884263
 31
0.0
  0
LINE
  5
6E39
330
1A
100
AcDbEntity
  8
SEIHIN
100
AcDbLine
 10
147.006513272375
 20
540.9818676884265
 30
0.0
 11
277.4065132726027
 21
540.9818676884265
 31
0.0
  0
LINE
  5
6E3A
330
1A
100
AcDbEntity
  8
SEIHIN
100
AcDbLine
 10
277.4065132724808
 20
516.3818676884264
 30
0.0
 11
147.0065132724356
 21
516.3818676884261
 31
0.0
  0
LINE
  5
6E3B
330
1A
100
AcDbEntity
  8
SEIHIN
100
AcDbLine
 10
159.0065135198808
 20
508.6818676884262
 30
0.0
 11
147.0065132724548
 21
508.6818676884262
 31
0.0
  0
LINE
  5
6E3C
330
1A
100
AcDbEntity
  8
SEIHIN
100
AcDbLine
 10
145.2065132724546
 20
517.6818676884263
 30
0.0
 11
145.2065132725069
 21
539.6818676884263
 31
0.0
  0
ARC
  5
6E3D
330
1A
100
AcDbEntity
  8
SEIHIN
100
AcDbCircle
 10
146.5065132724546
 20
515.8818676884264
 30
0.0
 40
0.5
100
AcDbArc
 50
0.0
 51
90.00000000203229
  0
ARC
  5
6E3E
330
1A
100
AcDbEntity
  8
SEIHIN
100
AcDbCircle
 10
146.5065132724546
 20
517.6818676884263
 30
0.0
 40
1.3
100
AcDbArc
 50
180.0
 51
269.9999999992183
  0
LINE
  5
6E3F
330
1A
100
AcDbEntity
  8
SEIHIN
100
AcDbLine
 10
147.0065132724545
 20
508.6818676884262
 30
0.0
 11
147.0065132724369
 21
515.8818676884264
 31
0.0
  0
LINE
  5
6E40
330
1A
100
AcDbEntity
  8
SEIHIN
100
AcDbLine
 10
147.0065132724545
 20
548.6818676884263
 30
0.0
 11
147.0065132724369
 21
541.4818676884265
 31
0.0
  0
ARC
  5
6E41
330
1A
100
AcDbEntity
  8
SEIHIN
100
AcDbCircle
 10
146.5065132724546
 20
539.6818676884263
 30
0.0
 40
1.3
100
AcDbArc
 50
90.0
 51
180.0
  0
ARC
  5
6E42
330
1A
100
AcDbEntity
  8
SEIHIN
100
AcDbCircle
 10
146.5065132724546
 20
541.4818676884265
 30
0.0
 40
0.5
100
AcDbArc
 50
270.0
 51
0.0
  0
LINE
  5
6E43
330
1A
100
AcDbEntity
  8
SEIHIN
100
AcDbLine
 10
188.2832152682808
 20
519.3818676884262
 30
0.0
 11
188.2832152682167
 21
537.9818676884265
 31
0.0
  0
LINE
  5
6E44
330
1A
100
AcDbEntity
  8
SEIHIN
100
AcDbLine
 10
186.1298618899795
 20
509.6818676884264
 30
0.0
 11
186.1298618899793
 21
515.3818676884262
 31
0.0
  0
LINE
  5
6E45
330
1A
100
AcDbEntity
  8
SEIHIN
100
AcDbLine
 10
186.1298618899795
 20
541.9818676884265
 30
0.0
 11
186.1298618899795
 21
547.6818676884263
 31
0.0
  0
LINE
  5
6E46
330
1A
100
AcDbEntity
  8
SEIHIN
100
AcDbLine
 10
196.8783105354807
 20
519.3818676884262
 30
0.0
 11
196.8911511734404
 21
537.9818676884265
 31
0.0
  0
CIRCLE
  5
6E47
330
1A
100
AcDbEntity
  8
SEIHIN
100
AcDbCircle
 10
207.4065132725418
 20
528.6818676884263
 30
0.0
 40
3.0
  0
LINE
  5
6E48
330
1A
100
AcDbEntity
  8
SEIHIN
100
AcDbLine
 10
193.8149176775526
 20
509.6818676884264
 30
0.0
 11
193.8149176775526
 21
515.3818676884261
 31
0.0
  0
LINE
  5
6E49
330
1A
100
AcDbEntity
  8
SEIHIN
100
AcDbLine
 10
195.7071903538308
 20
522.6818676884263
 30
0.0
 11
198.9910441899485
 21
522.6818676884263
 31
0.0
  0
LINE
  5
6E4A
330
1A
100
AcDbEntity
  8
SEIHIN
100
AcDbLine
 10
195.7071903538308
 20
520.6818676884263
 30
0.0
 11
198.9910441899485
 21
520.6818676884263
 31
0.0
  0
LINE
  5
6E4B
330
1A
100
AcDbEntity
  8
SEIHIN
100
AcDbLine
 10
198.9910441899835
 20
524.6818676884263
 30
0.0
 11
195.7071903538235
 21
524.6818676884263
 31
0.0
  0
LINE
  5
6E4C
330
1A
100
AcDbEntity
  8
SEIHIN
100
AcDbLine
 10
195.7071903538308
 20
520.6818676884263
 30
0.0
 11
195.7071903538235
 21
524.6818676884263
 31
0.0
  0
LINE
  5
6E4D
330
1A
100
AcDbEntity
  8
SEIHIN
100
AcDbLine
 10
198.9910441899835
 20
520.6818676884263
 30
0.0
 11
198.9910441899485
 21
524.6818676884263
 31
0.0
  0
LINE
  5
6E4E
330
1A
100
AcDbEntity
  8
SEIHIN
100
AcDbLine
 10
195.7071903538308
 20
534.6818676884263
 30
0.0
 11
198.9910441899485
 21
534.6818676884263
 31
0.0
  0
LINE
  5
6E4F
330
1A
100
AcDbEntity
  8
SEIHIN
100
AcDbLine
 10
195.7071903538308
 20
536.6818676884263
 30
0.0
 11
198.9910441899485
 21
536.6818676884263
 31
0.0
  0
LINE
  5
6E50
330
1A
100
AcDbEntity
  8
SEIHIN
100
AcDbLine
 10
195.7071903538308
 20
532.6818676884263
 30
0.0
 11
198.9910441899485
 21
532.6818676884263
 31
0.0
  0
LINE
  5
6E51
330
1A
100
AcDbEntity
  8
SEIHIN
100
AcDbLine
 10
195.7071903538308
 20
532.6818676884263
 30
0.0
 11
195.7071903538235
 21
536.6818676884263
 31
0.0
  0
LINE
  5
6E52
330
1A
100
AcDbEntity
  8
SEIHIN
100
AcDbLine
 10
198.9910441899835
 20
532.6818676884263
 30
0.0
 11
198.9910441899485
 21
536.6818676884263
 31
0.0
  0
LINE
  5
6E53
330
1A
100
AcDbEntity
  8
SEIHIN
100
AcDbLine
 10
193.814917677553
 20
541.9818676884265
 30
0.0
 11
193.8149176775526
 21
547.6818676884263
 31
0.0
  0
ARC
  5
6E54
330
1A
100
AcDbEntity
  8
SEIHIN
100
AcDbCircle
 10
245.6565132724808
 20
528.6818676884263
 30
0.0
 40
5.25
100
AcDbArc
 50
90.00000744649659
 51
269.9999944263899
  0
LINE
  5
6E55
330
1A
100
AcDbEntity
  8
CENTER L
 48
5.0
100
AcDbLine
 10
245.6565132724745
 20
538.9318676884263
 30
0.0
 11
245.6565132724872
 21
518.4318676884263
 31
0.0
  0
LINE
  5
6E56
330
1A
100
AcDbEntity
  8
SEIHIN
100
AcDbLine
 10
247.4065132724808
 20
521.4318676884263
 30
0.0
 11
247.4065132726027
 21
508.6818676884262
 31
0.0
  0
LINE
  5
6E57
330
1A
100
AcDbEntity
  8
SEIHIN
100
AcDbLine
 10
247.4065132724808
 20
508.6818676884262
 30
0.0
 11
241.2933688485572
 21
508.6818676884262
 31
0.0
  0
LINE
  5
6E58
330
1A
100
AcDbEntity
  8
SEIHIN
100
AcDbLine
 10
252.4065132724808
 20
508.6818676884262
 30
0.0
 11
248.6942947742579
 21
508.6818676884262
 31
0.0
  0
LINE
  5
6E59
330
1A
100
AcDbEntity
  8
SEIHIN
100
AcDbLine
 10
252.4065132724808
 20
513.6818676884263
 30
0.0
 11
252.4065132726027
 21
508.6818676884262
 31
0.0
  0
ARC
  5
6E5A
330
1A
100
AcDbEntity
  8
SEIHIN
100
AcDbCircle
 10
281.4065132723981
 20
528.6818676884263
 30
0.0
 40
11.0
100
AcDbArc
 50
270.0
 51
90.0
  0
CIRCLE
  5
6E5B
330
1A
100
AcDbEntity
  8
SEIHIN
 62
     2
100
AcDbCircle
 10
277.4065132723981
 20
528.6818676884263
 30
0.0
 40
4.000299846146333
  0
CIRCLE
  5
6E5C
330
1A
100
AcDbEntity
  8
SEIHIN
100
AcDbCircle
 10
277.4065132723981
 20
528.6818676884263
 30
0.0
 40
5.000299846146333
  0
ARC
  5
6E5D
330
1A
100
AcDbEntity
  8
SEIHIN
100
AcDbCircle
 10
279.4065132723981
 20
528.6818676884263
 30
0.0
 40
9.0
100
AcDbArc
 50
270.0
 51
90.0
  0
LINE
  5
6E5E
330
1A
100
AcDbEntity
  8
SEIHIN
100
AcDbLine
 10
287.4068131185445
 20
528.6818676884259
 30
0.0
 11
282.4066631954715
 21
537.3423814006505
 31
0.0
  0
ARC
  5
6E5F
330
1A
100
AcDbEntity
  8
SEIHIN
100
AcDbCircle
 10
275.4065132723981
 20
528.6818676884263
 30
0.0
 40
9.0
100
AcDbArc
 50
90.0
 51
270.0
  0
ARC
  5
6E60
330
1A
100
AcDbEntity
  8
SEIHIN
100
AcDbCircle
 10
273.4065132723981
 20
528.6818676884263
 30
0.0
 40
11.0
100
AcDbArc
 50
90.0
 51
270.0
  0
LINE
  5
6E61
330
1A
100
AcDbEntity
  8
SEIHIN
100
AcDbLine
 10
272.4063633493251
 20
537.3423814006505
 30
0.0
 11
267.4062134262519
 21
528.6818676884263
 31
0.0
  0
LINE
  5
6E62
330
1A
100
AcDbEntity
  8
SEIHIN
100
AcDbLine
 10
272.4063633493249
 20
520.0213539762017
 30
0.0
 11
282.4066631954715
 21
520.0213539762017
 31
0.0
  0
LINE
  5
6E63
330
1A
100
AcDbEntity
  8
SEIHIN
100
AcDbLine
 10
257.4065132724808
 20
521.4318676884263
 30
0.0
 11
257.4065132726027
 21
508.6818676884262
 31
0.0
  0
LINE
  5
6E64
330
1A
100
AcDbEntity
  8
SEIHIN
100
AcDbLine
 10
267.4065132724809
 20
521.4318676884263
 30
0.0
 11
267.4065132726027
 21
508.6818676884262
 31
0.0
  0
LINE
  5
6E65
330
1A
100
AcDbEntity
  8
SEIHIN
100
AcDbLine
 10
262.4065132724808
 20
513.6818676884263
 30
0.0
 11
262.4065132726027
 21
508.6818676884262
 31
0.0
  0
LINE
  5
6E66
330
1A
100
AcDbEntity
  8
SEIHIN
100
AcDbLine
 10
272.4065132724808
 20
513.6818676884263
 30
0.0
 11
272.4065132726027
 21
508.6818676884262
 31
0.0
  0
LINE
  5
6E67
330
1A
100
AcDbEntity
  8
SEIHIN
100
AcDbLine
 10
267.4062134262519
 20
528.6818676884263
 30
0.0
 11
272.4063633493249
 21
520.0213539762017
 31
0.0
  0
LINE
  5
6E68
330
1A
100
AcDbEntity
  8
SEIHIN
100
AcDbLine
 10
277.4065132724808
 20
521.4318676884263
 30
0.0
 11
277.4065132726027
 21
511.3818676884262
 31
0.0
  0
LINE
  5
6E69
330
1A
100
AcDbEntity
  8
SEIHIN
100
AcDbLine
 10
287.4065132724808
 20
521.4318676884263
 30
0.0
 11
287.4065132726027
 21
508.6818676884262
 31
0.0
  0
LINE
  5
6E6A
330
1A
100
AcDbEntity
  8
SEIHIN
100
AcDbLine
 10
273.4065132723981
 20
517.6818676884263
 30
0.0
 11
281.4065132723981
 21
517.6818676884263
 31
0.0
  0
LINE
  5
6E6B
330
1A
100
AcDbEntity
  8
SEIHIN
100
AcDbLine
 10
275.8476675456809
 20
508.6818676884262
 30
0.0
 11
278.9653589991435
 21
508.6818676884262
 31
0.0
  0
LINE
  5
6E6C
330
1A
100
AcDbEntity
  8
SEIHIN
100
AcDbLine
 10
277.4065132724808
 20
511.3818676884262
 30
0.0
 11
278.9653589991435
 21
508.6818676884262
 31
0.0
  0
LINE
  5
6E6D
330
1A
100
AcDbEntity
  8
SEIHIN
100
AcDbLine
 10
277.4065132724808
 20
511.3818676884262
 30
0.0
 11
275.8476675455972
 21
508.6818676884262
 31
0.0
  0
LINE
  5
6E6E
330
1A
100
AcDbEntity
  8
SEIHIN
100
AcDbLine
 10
282.4065132724808
 20
513.6818676884263
 30
0.0
 11
282.4065132726027
 21
508.6818676884262
 31
0.0
  0
LINE
  5
6E6F
330
1A
100
AcDbEntity
  8
SEIHIN
100
AcDbLine
 10
275.4065132723981
 20
519.6818676884263
 30
0.0
 11
279.4065132723981
 21
519.6818676884263
 31
0.0
  0
LINE
  5
6E70
330
1A
100
AcDbEntity
  8
SEIHIN
100
AcDbLine
 10
282.4066631954715
 20
520.0213539762017
 30
0.0
 11
287.4068131185445
 21
528.6818676884259
 31
0.0
  0
LINE
  5
6E71
330
1A
100
AcDbEntity
  8
SEIHIN
100
AcDbLine
 10
282.4066631954715
 20
537.3423814006505
 30
0.0
 11
272.4063633493251
 21
537.3423814006505
 31
0.0
  0
LINE
  5
6E72
330
1A
100
AcDbEntity
  8
SEIHIN
100
AcDbLine
 10
273.4065132723981
 20
539.6818676884263
 30
0.0
 11
281.4065132723981
 21
539.6818676884263
 31
0.0
  0
LINE
  5
6E73
330
1A
100
AcDbEntity
  8
SEIHIN
100
AcDbLine
 10
275.4065132723981
 20
537.6818676884263
 30
0.0
 11
279.4065132723981
 21
537.6818676884263
 31
0.0
  0
ARC
  5
6E74
330
1A
100
AcDbEntity
  8
SEIHIN
100
AcDbCircle
 10
309.1565132724809
 20
528.6818676884263
 30
0.0
 40
5.25
100
AcDbArc
 50
269.9999966150968
 51
89.99999332601769
  0
LINE
  5
6E75
330
1A
100
AcDbEntity
  8
CENTER L
 48
5.0
100
AcDbLine
 10
309.1565132724742
 20
538.9318676884263
 30
0.0
 11
309.1565132724872
 21
518.4318676884263
 31
0.0
  0
LINE
  5
6E76
330
1A
100
AcDbEntity
  8
SEIHIN
100
AcDbLine
 10
291.0728207369887
 20
523.4318676884263
 30
0.0
 11
309.1565129622399
 21
523.4318676884263
 31
0.0
  0
LINE
  5
6E77
330
1A
100
AcDbEntity
  8
SEIHIN
100
AcDbLine
 10
297.4065132724808
 20
521.4318676884263
 30
0.0
 11
297.4065132726027
 21
508.6818676884262
 31
0.0
  0
LINE
  5
6E78
330
1A
100
AcDbEntity
  8
SEIHIN
100
AcDbLine
 10
292.4065132724809
 20
513.6818676884263
 30
0.0
 11
292.4065132726027
 21
508.6818676884262
 31
0.0
  0
LINE
  5
6E79
330
1A
100
AcDbEntity
  8
SEIHIN
100
AcDbLine
 10
302.4065132724808
 20
508.6818676884262
 30
0.0
 11
302.4065132726027
 21
513.6818676884263
 31
0.0
  0
LINE
  5
6E7A
330
1A
100
AcDbEntity
  8
SEIHIN
100
AcDbLine
 10
307.4065132724808
 20
521.4318676884263
 30
0.0
 11
307.4065132726027
 21
508.6818676884262
 31
0.0
  0
LINE
  5
6E7B
330
1A
100
AcDbEntity
  8
SEIHIN
100
AcDbLine
 10
291.0728207369887
 20
533.9318676884263
 30
0.0
 11
309.156513884249
 21
533.9318676884263
 31
0.0
  0
CIRCLE
  5
6E7C
330
1A
100
AcDbEntity
  8
SEIHIN
100
AcDbCircle
 10
350.4065132724252
 20
528.6818676884263
 30
0.0
 40
3.0
  0
LINE
  5
6E7D
330
1A
100
AcDbEntity
  8
SEIHIN
100
AcDbLine
 10
375.8514216822595
 20
519.3818676884262
 30
0.0
 11
375.8514216820945
 21
537.9818676884265
 31
0.0
  0
LINE
  5
6E7E
330
1A
100
AcDbEntity
  8
SEIHIN
100
AcDbLine
 10
363.6794512611807
 20
519.3818676884262
 30
0.0
 11
363.7006759138821
 21
537.9818676884265
 31
0.0
  0
LINE
  5
6E7F
330
1A
100
AcDbEntity
  8
SEIHIN
100
AcDbLine
 10
365.6632901757652
 20
509.6818676884263
 30
0.0
 11
365.6632901757652
 21
515.3818676884262
 31
0.0
  0
LINE
  5
6E80
330
1A
100
AcDbEntity
  8
SEIHIN
100
AcDbLine
 10
361.7277396497272
 20
524.6818676884263
 30
0.0
 11
365.0115934855353
 21
524.6818676884263
 31
0.0
  0
LINE
  5
6E81
330
1A
100
AcDbEntity
  8
SEIHIN
100
AcDbLine
 10
365.0115934858799
 20
520.6818676884263
 30
0.0
 11
361.7277396494107
 21
520.6818676884263
 31
0.0
  0
LINE
  5
6E82
330
1A
100
AcDbEntity
  8
SEIHIN
100
AcDbLine
 10
365.0115934858799
 20
522.6818676884263
 30
0.0
 11
361.7277396494107
 21
522.6818676884263
 31
0.0
  0
LINE
  5
6E83
330
1A
100
AcDbEntity
  8
SEIHIN
100
AcDbLine
 10
361.7277396497272
 20
520.6818676884263
 30
0.0
 11
361.7277396494107
 21
524.6818676884263
 31
0.0
  0
LINE
  5
6E84
330
1A
100
AcDbEntity
  8
SEIHIN
100
AcDbLine
 10
365.0115934858799
 20
520.6818676884263
 30
0.0
 11
365.0115934855353
 21
524.6818676884263
 31
0.0
  0
LINE
  5
6E85
330
1A
100
AcDbEntity
  8
SEIHIN
100
AcDbLine
 10
376.8862703416868
 20
509.6818676884264
 30
0.0
 11
376.8862703416868
 21
515.3818676884262
 31
0.0
  0
LINE
  5
6E86
330
1A
100
AcDbEntity
  8
SEIHIN
100
AcDbLine
 10
365.0115934858799
 20
536.6818676884263
 30
0.0
 11
361.7277396494107
 21
536.6818676884263
 31
0.0
  0
LINE
  5
6E87
330
1A
100
AcDbEntity
  8
SEIHIN
100
AcDbLine
 10
365.0115934858799
 20
534.6818676884263
 30
0.0
 11
361.7277396494107
 21
534.6818676884263
 31
0.0
  0
LINE
  5
6E88
330
1A
100
AcDbEntity
  8
SEIHIN
100
AcDbLine
 10
365.0115934858799
 20
532.6818676884263
 30
0.0
 11
361.7277396494107
 21
532.6818676884263
 31
0.0
  0
LINE
  5
6E89
330
1A
100
AcDbEntity
  8
SEIHIN
100
AcDbLine
 10
361.7277396497272
 20
532.6818676884263
 30
0.0
 11
361.7277396494107
 21
536.6818676884263
 31
0.0
  0
LINE
  5
6E8A
330
1A
100
AcDbEntity
  8
SEIHIN
100
AcDbLine
 10
365.0115934858799
 20
532.6818676884263
 30
0.0
 11
365.0115934855353
 21
536.6818676884263
 31
0.0
  0
LINE
  5
6E8B
330
1A
100
AcDbEntity
  8
SEIHIN
100
AcDbLine
 10
365.6632901757652
 20
541.9818676884265
 30
0.0
 11
365.663290175765
 21
547.6818676884263
 31
0.0
  0
LINE
  5
6E8C
330
1A
100
AcDbEntity
  8
SEIHIN
100
AcDbLine
 10
376.8862703416868
 20
541.9818676884265
 30
0.0
 11
376.8862703416866
 21
547.6818676884263
 31
0.0
  0
LINE
  5
6E8D
330
1A
100
AcDbEntity
  8
SEIHIN
100
AcDbLine
 10
641.9838038183472
 20
392.485763626243
 30
0.0
 11
641.9838038183472
 21
216.1158086316429
 31
0.0
  0
LINE
  5
6E8E
330
1A
100
AcDbEntity
  8
SEIHIN
100
AcDbLine
 10
642.9838038183472
 20
392.485763626243
 30
0.0
 11
642.9838038183472
 21
216.1158086316429
 31
0.0
  0
LINE
  5
6E8F
330
1A
100
AcDbEntity
  8
SEIHIN
100
AcDbLine
 10
633.9838038183472
 20
392.485763626243
 30
0.0
 11
633.9838038183472
 21
216.1158086316429
 31
0.0
  0
LINE
  5
6E90
330
1A
100
AcDbEntity
  8
SEIHIN
100
AcDbLine
 10
632.9838038183472
 20
392.485763626243
 30
0.0
 11
632.9838038183472
 21
216.1158086316429
 31
0.0
  0
LINE
  5
6E91
330
1A
100
AcDbEntity
  8
CENTER L
 48
5.0
100
AcDbLine
 10
637.9838038183472
 20
116.906718626243
 30
0.0
 11
637.9838038183472
 21
442.6479525848563
 31
0.0
  0
ARC
  5
6E92
330
1A
100
AcDbEntity
  8
SEIHIN
100
AcDbCircle
 10
647.4680470126261
 20
237.3256362041633
 30
0.0
 40
3.0
100
AcDbArc
 50
17.4576031237001
 51
90.00000000271624
  0
ARC
  5
6E93
330
1A
100
AcDbEntity
  8
SEIHIN
100
AcDbCircle
 10
647.4680470125703
 20
213.115808631643
 30
0.0
 40
3.0
100
AcDbArc
 50
17.4576031237001
 51
90.00000000271624
  0
ARC
  5
6E94
330
1A
100
AcDbEntity
  8
SEIHIN
100
AcDbCircle
 10
651.2838038182129
 20
178.6067186262429
 30
0.0
 40
3.0
100
AcDbArc
 50
180.0
 51
269.9999999986321
  0
LINE
  5
6E95
330
1A
100
AcDbEntity
  8
SEIHIN
100
AcDbLine
 10
617.9838038184125
 20
178.9067186262429
 30
0.0
 11
657.9838038184633
 21
178.9067186262429
 31
0.0
  0
DIMENSION
  5
6E96
330
1A
100
AcDbEntity
  8
SUNPOU
100
AcDbDimension
  2
*D12
 10
657.9838038185608
 20
98.4312940864109
 30
0.0
 11
637.9838038183869
 21
103.4312940864108
 31
0.0
 70
    32
 71
     5
 42
-1.0
  3
STANDARD
100
AcDbAlignedDimension
 13
617.9838038182131
 23
175.6067186262429
 33
0.0
 14
657.9838038185608
 24
175.6067186262428
 34
0.0
100
AcDbRotatedDimension
1001
ACAD
1000
DSTYLE
1002
{
1070
    41
1040
7.0
1070
    42
1040
6.0
1070
    43
1040
14.0
1070
    44
1040
3.0
1070
    73
1070
     0
1070
    74
1070
     0
1070
    77
1070
     3
1070
   140
1040
6.0
1070
   141
1040
150.0
1070
   147
1040
2.0
1070
   172
1070
     1
1070
   173
1070
     1
1070
   176
1070
   256
1070
   177
1070
   256
1070
   178
1070
   256
1070
   271
1070
     0
1070
   272
1070
     0
1070
   341
1005
6D
1070
     6
1000
OPEN
1070
     7
1000
OPEN
1070
   371
1070
    -1
1070
   372
1070
    -1
1002
}
  0
TEXT
  5
6E98
330
1A
100
AcDbEntity
  8
moji
100
AcDbText
 10
471.9614725678964
 20
25.29167614142704
 30
0.0
 40
5.599999999999998
  1
ＬＪ３９
 41
0.9
  7
ｽﾀｲﾙ1
100
AcDbText
  0
LINE
  5
6E99
330
1A
100
AcDbEntity
  8
SEIHIN
100
AcDbLine
 10
407.8065132724806
 20
58.41216628013177
 30
0.0
 11
407.8065132725098
 21
65.61216628013181
 31
0.0
  0
ARC
  5
6E9A
330
1A
100
AcDbEntity
  8
SEIHIN
100
AcDbCircle
 10
396.8065132724807
 20
60.41216628013177
 30
0.0
 40
2.0
100
AcDbArc
 50
180.0
 51
269.9999916164967
  0
LINE
  5
6E9B
330
1A
100
AcDbEntity
  8
SEIHIN
100
AcDbLine
 10
396.8065129796807
 20
58.41216628013177
 30
0.0
 11
407.806513272277
 21
58.41216628013177
 31
0.0
  0
LINE
  5
6E9C
330
1A
100
AcDbEntity
  8
SEIHIN
100
AcDbLine
 10
394.8065132724807
 20
88.41216628013176
 30
0.0
 11
394.8065132722774
 21
68.41216628013177
 31
0.0
  0
LINE
  5
6E9D
330
1A
100
AcDbEntity
  8
SEIHIN
100
AcDbLine
 10
396.0065132724807
 20
88.41216628013176
 30
0.0
 11
396.0065132722302
 21
68.41216628013177
 31
0.0
  0
LINE
  5
6E9E
330
1A
100
AcDbEntity
  8
SEIHIN
100
AcDbLine
 10
409.6065132724808
 20
67.41216628013177
 30
0.0
 11
409.6065132723236
 21
89.41216628013178
 31
0.0
  0
ARC
  5
6E9F
330
1A
100
AcDbEntity
  8
SEIHIN
100
AcDbCircle
 10
396.0065132723873
 20
67.11216628013182
 30
0.0
 40
1.30000000000001
100
AcDbArc
 50
270.0
 51
90.00000001715731
  0
LINE
  5
6EA0
330
1A
100
AcDbEntity
  8
SEIHIN
100
AcDbLine
 10
394.8065132722774
 20
68.41216628013177
 30
0.0
 11
396.006513271998
 21
68.41216628013177
 31
0.0
  0
LINE
  5
6EA1
330
1A
100
AcDbEntity
  8
SEIHIN
100
AcDbLine
 10
396.0065132723873
 20
65.81216628013186
 30
0.0
 11
395.3065132720444
 21
65.81216628013186
 31
0.0
  0
LINE
  5
6EA2
330
1A
100
AcDbEntity
  8
SEIHIN
100
AcDbLine
 10
394.8065132724807
 20
65.31216628013186
 30
0.0
 11
394.8065132722774
 21
60.41216628013177
 31
0.0
  0
ARC
  5
6EA3
330
1A
100
AcDbEntity
  8
SEIHIN
100
AcDbCircle
 10
395.3065132723327
 20
65.31216628013186
 30
0.0
 40
0.5
100
AcDbArc
 50
90.00000003303787
 51
180.0
  0
LINE
  5
6EA4
330
1A
100
AcDbEntity
  8
SEIHIN
100
AcDbLine
 10
405.6239297007807
 20
66.11216628013181
 30
0.0
 11
408.3065132725098
 21
66.11216628013181
 31
0.0
  0
ARC
  5
6EA5
330
1A
100
AcDbEntity
  8
SEIHIN
100
AcDbCircle
 10
408.3065132724806
 20
65.61216628013181
 30
0.0
 40
0.5
100
AcDbArc
 50
90.0
 51
180.0
  0
ARC
  5
6EA6
330
1A
100
AcDbEntity
  8
SEIHIN
100
AcDbCircle
 10
408.3065132724806
 20
67.41216628013177
 30
0.0
 40
1.3
100
AcDbArc
 50
270.0
 51
0.0
  0
LINE
  5
6EA7
330
1A
100
AcDbEntity
  8
SEIHIN
100
AcDbLine
 10
396.8065132724807
 20
98.41216628013178
 30
0.0
 11
407.806513272277
 21
98.41216628013178
 31
0.0
  0
LINE
  5
6EA8
330
1A
100
AcDbEntity
  8
SEIHIN
100
AcDbLine
 10
394.8065132724807
 20
91.51216628013179
 30
0.0
 11
394.8065132722774
 21
96.41216628013175
 31
0.0
  0
ARC
  5
6EA9
330
1A
100
AcDbEntity
  8
SEIHIN
100
AcDbCircle
 10
396.0065132723873
 20
89.71216628013184
 30
0.0
 40
1.30000000000001
100
AcDbArc
 50
270.0
 51
90.00000001715731
  0
LINE
  5
6EAA
330
1A
100
AcDbEntity
  8
SEIHIN
100
AcDbLine
 10
396.0065132723873
 20
88.41216628013176
 30
0.0
 11
394.8065132722774
 21
88.41216628013176
 31
0.0
  0
LINE
  5
6EAB
330
1A
100
AcDbEntity
  8
SEIHIN
100
AcDbLine
 10
396.0065132723873
 20
91.0121662801318
 30
0.0
 11
395.3065132720444
 21
91.0121662801318
 31
0.0
  0
ARC
  5
6EAC
330
1A
100
AcDbEntity
  8
SEIHIN
100
AcDbCircle
 10
395.3065132723327
 20
91.51216628013179
 30
0.0
 40
0.5
100
AcDbArc
 50
180.0
 51
269.9999999669621
  0
ARC
  5
6EAD
330
1A
100
AcDbEntity
  8
SEIHIN
100
AcDbCircle
 10
396.8065132724807
 20
96.41216628013175
 30
0.0
 40
2.0
100
AcDbArc
 50
90.00001063699619
 51
180.0
  0
LINE
  5
6EAE
330
1A
100
AcDbEntity
  8
SEIHIN
100
AcDbLine
 10
407.8065132724806
 20
98.41216628013178
 30
0.0
 11
407.8065132725098
 21
91.21216628013176
 31
0.0
  0
LINE
  5
6EAF
330
1A
100
AcDbEntity
  8
SEIHIN
100
AcDbLine
 10
408.3065132724806
 20
90.71216628013178
 30
0.0
 11
405.6239297006325
 21
90.71216628013178
 31
0.0
  0
ARC
  5
6EB0
330
1A
100
AcDbEntity
  8
SEIHIN
100
AcDbCircle
 10
408.3065132724806
 20
89.41216628013178
 30
0.0
 40
1.3
100
AcDbArc
 50
0.0
 51
89.99999999871679
  0
ARC
  5
6EB1
330
1A
100
AcDbEntity
  8
SEIHIN
100
AcDbCircle
 10
408.3065132724806
 20
91.21216628013176
 30
0.0
 40
0.5
100
AcDbArc
 50
180.0
 51
270.000000003335
  0
LINE
  5
6EB5
330
1A
100
AcDbEntity
  8
SEIHIN
100
AcDbLine
 10
396.0065132724807
 20
172.5272753737893
 30
0.0
 11
396.0065132722302
 21
116.7272753737893
 31
0.0
  0
LINE
  5
6EB6
330
1A
100
AcDbEntity
  8
SEIHIN
100
AcDbLine
 10
394.8065132724807
 20
173.7272753737892
 30
0.0
 11
394.8065132722774
 21
116.7272753737893
 31
0.0
  0
DIMENSION
  5
6EB7
330
1A
100
AcDbEntity
  8
SUNPOU
100
AcDbDimension
  2
*D13
 10
446.6724639612182
 20
116.7272753737893
 30
0.0
 11
441.6724639612182
 21
144.6272753737893
 31
0.0
 70
    32
 71
     5
 42
-1.0
  3
STANDARD
100
AcDbAlignedDimension
 13
405.6065132723236
 23
172.5272753737892
 33
0.0
 14
396.0065132722302
 24
116.7272753737893
 34
0.0
 50
90.0
100
AcDbRotatedDimension
1001
ACAD
1000
DSTYLE
1002
{
1070
    41
1040
7.0
1070
    42
1040
6.0
1070
    43
1040
14.0
1070
    44
1040
3.0
1070
    73
1070
     0
1070
    74
1070
     0
1070
    77
1070
     3
1070
   140
1040
6.0
1070
   141
1040
150.0
1070
   147
1040
2.0
1070
   172
1070
     1
1070
   173
1070
     1
1070
   176
1070
   256
1070
   177
1070
   256
1070
   178
1070
   256
1070
   271
1070
     0
1070
   272
1070
     0
1070
   341
1005
6D
1070
     6
1000
OPEN
1070
     7
1000
OPEN
1070
   371
1070
    -1
1070
   372
1070
    -1
1002
}
  0
LINE
  5
6EB8
330
1A
100
AcDbEntity
  8
SEIHIN
100
AcDbLine
 10
396.0065132724807
 20
116.7272753737893
 30
0.0
 11
394.8065132722774
 21
116.7272753737893
 31
0.0
  0
LINE
  5
6EB9
330
1A
100
AcDbEntity
  8
NOKITOI
  6
PHANTOM
 48
5.0
100
AcDbLine
 10
395.90582750413
 20
196.6272753737893
 30
0.0
 11
393.3605097041297
 21
175.8272753737893
 31
0.0
  0
LINE
  5
6EBA
330
1A
100
AcDbEntity
  8
NOKITOI
  6
PHANTOM
 48
5.0
100
AcDbLine
 10
403.9471418041296
 20
194.6272753737892
 30
0.0
 11
403.9471418041296
 21
175.8272753737893
 31
0.0
  0
LINE
  5
6EBB
330
1A
100
AcDbEntity
  8
NOKITOI
  6
PHANTOM
 48
5.0
100
AcDbLine
 10
404.2471418041298
 20
194.6272753737892
 30
0.0
 11
404.2471418041298
 21
175.5272753737891
 31
0.0
  0
LINE
  5
6EBC
330
1A
100
AcDbEntity
  8
NOKITOI
  6
PHANTOM
 48
5.0
100
AcDbLine
 10
406.0471418041299
 20
196.7272753737892
 30
0.0
 11
406.0471418041299
 21
173.7272753737892
 31
0.0
  0
LINE
  5
6EBD
330
1A
100
AcDbEntity
  8
SEIHIN
100
AcDbLine
 10
406.6065132724808
 20
174.7272753737892
 30
0.0
 11
406.6065132725563
 21
202.2769061509892
 31
0.0
  0
LINE
  5
6EBE
330
1A
100
AcDbEntity
  8
SEIHIN
100
AcDbLine
 10
407.8065132724806
 20
174.7272753737892
 30
0.0
 11
407.806513272277
 21
202.2769062138841
 31
0.0
  0
LINE
  5
6EBF
330
1A
100
AcDbEntity
  8
SEIHIN
100
AcDbLine
 10
409.6065132726846
 20
176.5272753738138
 30
0.0
 11
409.6065132725205
 21
203.1461929517386
 31
0.0
  0
DIMENSION
  5
6EC0
330
1A
100
AcDbEntity
  8
SUNPOU
100
AcDbDimension
  2
*D14
 10
446.6724639612182
 20
172.5272753738505
 30
0.0
 11
441.6724639612182
 21
190.3367341627792
 31
0.0
 70
    32
 71
     5
 42
-1.0
  3
STANDARD
100
AcDbAlignedDimension
 13
404.6065132725203
 23
208.1461929517079
 33
0.0
 14
405.6065296878158
 24
172.5272753738505
 34
0.0
 50
90.0
100
AcDbRotatedDimension
1001
ACAD
1000
DSTYLE
1002
{
1070
    41
1040
7.0
1070
    42
1040
6.0
1070
    43
1040
14.0
1070
    44
1040
3.0
1070
    73
1070
     0
1070
    74
1070
     0
1070
    77
1070
     3
1070
   140
1040
6.0
1070
   141
1040
150.0
1070
   147
1040
2.0
1070
   172
1070
     1
1070
   173
1070
     1
1070
   176
1070
   256
1070
   177
1070
   256
1070
   178
1070
   256
1070
   271
1070
     0
1070
   272
1070
     0
1070
   341
1005
6D
1070
     6
1000
OPEN
1070
     7
1000
OPEN
1070
   371
1070
    -1
1070
   372
1070
    -1
1002
}
  0
LINE
  5
6EC1
330
1A
100
AcDbEntity
  8
SEIHIN
100
AcDbLine
 10
394.8065132724807
 20
173.7272753737892
 30
0.0
 11
394.8065132722774
 21
159.1258365374893
 31
0.0
  0
LINE
  5
6EC2
330
1A
100
AcDbEntity
  8
NOKITOI
  6
PHANTOM
 48
5.0
100
AcDbLine
 10
404.2471418041298
 20
175.5272753737891
 30
0.0
 11
392.2659658075142
 21
175.5272753737891
 31
0.0
  0
LINE
  5
6EC3
330
1A
100
AcDbEntity
  8
NOKITOI
  6
PHANTOM
 48
5.0
100
AcDbLine
 10
406.0471418041299
 20
173.7272753737892
 30
0.0
 11
393.1035304041299
 21
173.7272753737892
 31
0.0
  0
LINE
  5
6EC4
330
1A
100
AcDbEntity
  8
SEIHIN
100
AcDbLine
 10
405.6065132726846
 20
172.5272753737893
 30
0.0
 11
394.8065132722774
 21
172.5272753737893
 31
0.0
  0
LINE
  5
6EC5
330
1A
100
AcDbEntity
  8
SEIHIN
100
AcDbLine
 10
405.6065132724809
 20
173.7272753737892
 30
0.0
 11
394.8065132722774
 21
173.7272753737892
 31
0.0
  0
LINE
  5
6EC6
330
1A
100
AcDbEntity
  8
NOKITOI
  6
PHANTOM
 48
5.0
100
AcDbLine
 10
403.9471418041296
 20
175.8272753737893
 30
0.0
 11
393.3605097041297
 21
175.8272753737893
 31
0.0
  0
ARC
  5
6EC8
330
1A
100
AcDbEntity
  8
SEIHIN
100
AcDbCircle
 10
405.6065132724809
 20
174.7272753737892
 30
0.0
 40
2.2
100
AcDbArc
 50
269.9999999959028
 51
0.0
  0
ARC
  5
6EC9
330
1A
100
AcDbEntity
  8
SEIHIN
100
AcDbCircle
 10
405.6065132724809
 20
174.7272753737892
 30
0.0
 40
1.0
100
AcDbArc
 50
270.0
 51
0.0
  0
ARC
  5
6ECA
330
1A
100
AcDbEntity
  8
SEIHIN
100
AcDbCircle
 10
405.6065132726846
 20
176.5272753737893
 30
0.0
 40
4.0
100
AcDbArc
 50
270.0
 51
0.0000000003517439
  0
ARC
  5
6ECB
330
1A
100
AcDbEntity
  8
NOKITOI
  6
PHANTOM
 48
5.0
100
AcDbCircle
 10
401.9471418041296
 20
194.6272753737892
 30
0.0
 40
2.0
100
AcDbArc
 50
0.0
 51
90.0
  0
ARC
  5
6ECC
330
1A
100
AcDbEntity
  8
NOKITOI
  6
PHANTOM
 48
5.0
100
AcDbCircle
 10
401.9471418041296
 20
194.6272753737892
 30
0.0
 40
2.299999999999998
100
AcDbArc
 50
0.0
 51
90.0
  0
ARC
  5
6ECD
330
1A
100
AcDbEntity
  8
NOKITOI
  6
PHANTOM
 48
5.0
100
AcDbCircle
 10
404.0471418041298
 20
196.7272753737892
 30
0.0
 40
2.0
100
AcDbArc
 50
0.0
 51
90.0
  0
ARC
  5
6ECE
330
1A
100
AcDbEntity
  8
SEIHIN
100
AcDbCircle
 10
404.6065132725203
 20
203.1461929517079
 30
0.0
 40
5.0
100
AcDbArc
 50
0.0000000003517439
 51
97.99999999985608
  0
LINE
  5
6ECF
330
1A
100
AcDbEntity
  8
NOKITOI
  6
PHANTOM
 48
5.0
100
AcDbLine
 10
404.0471418041298
 20
198.7272753737892
 30
0.0
 11
394.0471418041298
 21
198.7272753737892
 31
0.0
  0
LINE
  5
6ED0
330
1A
100
AcDbEntity
  8
NOKITOI
  6
PHANTOM
 48
5.0
100
AcDbLine
 10
401.9471418041296
 20
196.6272753737893
 30
0.0
 11
395.90582750413
 21
196.6272753737893
 31
0.0
  0
LINE
  5
6ED1
330
1A
100
AcDbEntity
  8
NOKITOI
  6
PHANTOM
 48
5.0
100
AcDbLine
 10
401.9471418041296
 20
196.9272753737893
 30
0.0
 11
395.90582750413
 21
196.9272753737893
 31
0.0
  0
ARC
  5
6ED2
330
1A
100
AcDbEntity
  8
SEIHIN
100
AcDbCircle
 10
405.6065132724809
 20
202.2769062138841
 30
0.0
 40
2.2
100
AcDbArc
 50
0.0
 51
97.99999999986264
  0
ARC
  5
6ED3
330
1A
100
AcDbEntity
  8
SEIHIN
100
AcDbCircle
 10
405.6065132724809
 20
202.2769062138892
 30
0.0
 40
1.0
100
AcDbArc
 50
359.9999963934004
 51
97.99998425941401
  0
LINE
  5
6ED4
330
1A
100
AcDbEntity
  8
SEIHIN
100
AcDbLine
 10
647.983803818438
 20
178.9067186262429
 30
0.0
 11
647.9838038182565
 21
125.9067186262429
 31
0.0
  0
LINE
  5
6ED5
330
1A
100
AcDbEntity
  8
SEIHIN
100
AcDbLine
 10
627.9838038184379
 20
178.9067186262429
 30
0.0
 11
627.9838038182565
 21
125.9067186262429
 31
0.0
  0
LINE
  5
6ED6
330
1A
100
AcDbEntity
  8
SEIHIN
100
AcDbLine
 10
629.983803818438
 20
123.9067186262429
 30
0.0
 11
645.9838038182565
 21
123.9067186262429
 31
0.0
  0
ARC
  5
6ED7
330
1A
100
AcDbEntity
  8
SEIHIN
100
AcDbCircle
 10
629.983803818438
 20
125.9067186262429
 30
0.0
 40
2.0
100
AcDbArc
 50
180.0
 51
269.9999999948019
  0
ARC
  5
6ED8
330
1A
100
AcDbEntity
  8
SEIHIN
100
AcDbCircle
 10
645.9838038184378
 20
125.9067186262429
 30
0.0
 40
2.0
100
AcDbArc
 50
270.0
 51
0.0
  0
LINE
  5
6ED9
330
1A
100
AcDbEntity
  8
SEIHIN
100
AcDbLine
 10
625.6838038184127
 20
180.4105241629429
 30
0.0
 11
625.6838038184167
 21
210.893962959443
 31
0.0
  0
LINE
  5
6EDA
330
1A
100
AcDbEntity
  8
SEIHIN
100
AcDbLine
 10
650.2838038184128
 20
180.4105241629429
 30
0.0
 11
650.2838038182773
 21
210.893962959443
 31
0.0
  0
LINE
  5
6EDB
330
1A
100
AcDbEntity
  8
SEIHIN
100
AcDbLine
 10
617.983803818505
 20
212.315808631643
 30
0.0
 11
617.9838038183057
 21
175.6067186262428
 31
0.0
  0
ARC
  5
6EDC
330
1A
100
AcDbEntity
  8
SEIHIN
100
AcDbCircle
 10
624.6838038182131
 20
178.6067186262429
 30
0.0
 40
3.0
100
AcDbArc
 50
270.0
 51
0.0
  0
LINE
  5
6EDD
330
1A
100
AcDbEntity
  8
SEIHIN
100
AcDbLine
 10
617.9838038182131
 20
175.6067186262429
 30
0.0
 11
624.6838038182131
 21
175.6067186262429
 31
0.0
  0
LINE
  5
6EDE
330
1A
100
AcDbEntity
  8
SEIHIN
100
AcDbLine
 10
650.2838038184181
 20
215.9568495694548
 30
0.0
 11
650.2838038183329
 21
235.1037905319634
 31
0.0
  0
LINE
  5
6EDF
330
1A
100
AcDbEntity
  8
SEIHIN
100
AcDbLine
 10
617.9838038184682
 20
236.5256362041634
 30
0.0
 11
617.9838038183366
 21
212.3158086316431
 31
0.0
  0
LINE
  5
6EE0
330
1A
100
AcDbEntity
  8
SEIHIN
100
AcDbLine
 10
625.6838038184699
 20
215.956849569898
 30
0.0
 11
625.6838038184724
 21
235.1037905319634
 31
0.0
  0
LINE
  5
6EE1
330
1A
100
AcDbEntity
  8
SEIHIN
100
AcDbLine
 10
628.4995606240125
 20
216.1158086316429
 30
0.0
 11
647.4680470125703
 21
216.1158086316429
 31
0.0
  0
ARC
  5
6EE2
330
1A
100
AcDbEntity
  8
SEIHIN
100
AcDbCircle
 10
624.6838038184128
 20
213.315808631643
 30
0.0
 40
1.0
100
AcDbArc
 50
270.0
 51
306.2711984372598
  0
LINE
  5
6EE3
330
1A
100
AcDbEntity
  8
SEIHIN
100
AcDbLine
 10
625.6838038184683
 20
204.6203517354633
 30
0.0
 11
625.6838038184691
 21
210.2747676933887
 31
0.0
  0
ARC
  5
6EE4
330
1A
100
AcDbEntity
  8
SEIHIN
100
AcDbCircle
 10
628.4995606238704
 20
213.115808631643
 30
0.0
 40
3.0
100
AcDbArc
 50
90.0
 51
162.5423968764918
  0
LINE
  5
6EE5
330
1A
100
AcDbEntity
  8
SEIHIN
100
AcDbLine
 10
617.9838038184125
 20
212.315808631643
 30
0.0
 11
624.6838038184169
 21
212.315808631643
 31
0.0
  0
LINE
  5
6EE6
330
1A
100
AcDbEntity
  8
SEIHIN
100
AcDbLine
 10
625.637743019616
 20
214.0158086316322
 30
0.0
 11
625.2754117967104
 21
212.5095828568042
 31
0.0
  0
LINE
  5
6EE7
330
1A
100
AcDbEntity
  8
SEIHIN
100
AcDbLine
 10
650.2838038184684
 20
204.6203517354633
 30
0.0
 11
650.2838038184432
 21
210.2747676938562
 31
0.0
  0
ARC
  5
6EE8
330
1A
100
AcDbEntity
  8
SEIHIN
100
AcDbCircle
 10
628.499560623926
 20
237.3256362041633
 30
0.0
 40
3.0
100
AcDbArc
 50
90.0
 51
162.5423968764918
  0
LINE
  5
6EE9
330
1A
100
AcDbEntity
  8
SEIHIN
100
AcDbLine
 10
617.9838038184682
 20
236.5256362041634
 30
0.0
 11
624.6838038184725
 21
236.5256362041634
 31
0.0
  0
LINE
  5
6EEA
330
1A
100
AcDbEntity
  8
SEIHIN
100
AcDbLine
 10
625.6377430196719
 20
238.2256362041526
 30
0.0
 11
625.275411796766
 21
236.7194104293245
 31
0.0
  0
ARC
  5
6EEB
330
1A
100
AcDbEntity
  8
SEIHIN
100
AcDbCircle
 10
624.6838038184685
 20
237.5256362041633
 30
0.0
 40
1.0
100
AcDbArc
 50
270.0
 51
306.2711984372598
  0
LINE
  5
6EEC
330
1A
100
AcDbEntity
  8
SEIHIN
100
AcDbLine
 10
628.4995606240684
 20
240.3256362041633
 30
0.0
 11
632.9838038183472
 21
240.3256362041633
 31
0.0
  0
LINE
  5
6EED
330
1A
100
AcDbEntity
  8
SEIHIN
100
AcDbLine
 10
642.9838038183472
 20
240.3256362041633
 30
0.0
 11
647.4680470126261
 21
240.3256362041633
 31
0.0
  0
LINE
  5
6EF3
330
1A
100
AcDbEntity
  8
SEIHIN
100
AcDbLine
 10
657.9838038185051
 20
212.315808631643
 30
0.0
 11
657.9838038185608
 21
175.6067186262428
 31
0.0
  0
LINE
  5
6EF4
330
1A
100
AcDbEntity
  8
SEIHIN
100
AcDbLine
 10
651.2838038182129
 20
175.6067186262429
 30
0.0
 11
657.983803818264
 21
175.6067186262429
 31
0.0
  0
LINE
  5
6EF5
330
1A
100
AcDbEntity
  8
SEIHIN
100
AcDbLine
 10
657.9838038184682
 20
236.5256362041634
 30
0.0
 11
657.9838038185051
 21
212.3158086316431
 31
0.0
  0
ARC
  5
6EF6
330
1A
100
AcDbEntity
  8
SEIHIN
100
AcDbCircle
 10
651.2838038184128
 20
213.315808631643
 30
0.0
 40
1.0
100
AcDbArc
 50
233.7288015579573
 51
269.9999999922356
  0
LINE
  5
6EF7
330
1A
100
AcDbEntity
  8
SEIHIN
100
AcDbLine
 10
657.9838038184125
 20
212.315808631643
 30
0.0
 11
651.2838038182771
 21
212.315808631643
 31
0.0
  0
LINE
  5
6EF8
330
1A
100
AcDbEntity
  8
SEIHIN
100
AcDbLine
 10
650.3298646168216
 20
214.0158086316418
 30
0.0
 11
650.692195840048
 21
212.5095828568534
 31
0.0
  0
ARC
  5
6EF9
330
1A
100
AcDbEntity
  8
SEIHIN
100
AcDbCircle
 10
651.2838038184684
 20
237.5256362041633
 30
0.0
 40
1.0
100
AcDbArc
 50
233.7288015579573
 51
269.9999999922356
  0
LINE
  5
6EFA
330
1A
100
AcDbEntity
  8
SEIHIN
100
AcDbLine
 10
650.3298646168772
 20
238.2256362041621
 30
0.0
 11
650.6921958401037
 21
236.7194104293738
 31
0.0
  0
LINE
  5
6EFB
330
1A
100
AcDbEntity
  8
SEIHIN
100
AcDbLine
 10
657.9838038184682
 20
236.5256362041634
 30
0.0
 11
651.2838038183327
 21
236.5256362041634
 31
0.0
  0
LINE
  5
6EFC
330
1A
100
AcDbEntity
  8
SEIHIN
100
AcDbLine
 10
652.9841328183472
 20
418.1851056262431
 30
0.0
 11
622.9841328183472
 21
418.1860936262431
 31
0.0
  0
LINE
  5
6EFD
330
1A
100
AcDbEntity
  8
SEIHIN
100
AcDbLine
 10
652.9838038183473
 20
408.1851056262431
 30
0.0
 11
622.9838038183473
 21
408.186093626243
 31
0.0
  0
ARC
  5
6EFE
330
1A
100
AcDbEntity
  8
SEIHIN
100
AcDbCircle
 10
642.3135329833642
 20
398.1732365255478
 30
0.0
 40
5.687779919070464
100
AcDbArc
 50
220.4168415688911
 51
319.5793775127738
  0
ARC
  5
6EFF
330
1A
100
AcDbEntity
  8
SEIHIN
100
AcDbCircle
 10
633.6530192711667
 20
398.1735222769188
 30
0.0
 40
5.687779919070464
100
AcDbArc
 50
220.4168415688911
 51
319.5793775127738
  0
LINE
  5
6F00
330
1A
100
AcDbEntity
  8
SEIHIN
100
AcDbLine
 10
633.6528316043652
 20
392.4857423609442
 30
0.0
 11
642.3133453165625
 21
392.4854566095733
 31
0.0
  0
LINE
  5
6F01
330
1A
100
AcDbEntity
  8
SEIHIN
100
AcDbLine
 10
622.9841328183472
 20
418.1860936262431
 30
0.0
 11
622.9838038183473
 21
408.186093626243
 31
0.0
  0
LINE
  5
6F02
330
1A
100
AcDbEntity
  8
SEIHIN
100
AcDbLine
 10
646.6440635305986
 20
400.4853146953418
 30
0.0
 11
629.3230361060957
 21
400.4858845571441
 31
0.0
  0
LINE
  5
6F03
330
1A
100
AcDbEntity
  8
SEIHIN
100
AcDbLine
 10
648.9838038183473
 20
402.9855996262431
 30
0.0
 11
626.9838038183472
 21
402.9855996262431
 31
0.0
  0
LINE
  5
6F04
330
1A
100
AcDbEntity
  8
SEIHIN
100
AcDbLine
 10
648.9838038183473
 20
404.1855996262428
 30
0.0
 11
626.9838038183472
 21
404.1855996262428
 31
0.0
  0
LINE
  5
6F05
330
1A
100
AcDbEntity
  8
SEIHIN
100
AcDbLine
 10
632.9838038183472
 20
404.1855996262428
 30
0.0
 11
632.9838038183472
 21
408.1855996262429
 31
0.0
  0
LINE
  5
6F06
330
1A
100
AcDbEntity
  8
SEIHIN
100
AcDbLine
 10
626.9838038183472
 20
404.1855996262428
 30
0.0
 11
626.9838038183472
 21
402.9855996262431
 31
0.0
  0
LINE
  5
6F07
330
1A
100
AcDbEntity
  8
SEIHIN
100
AcDbLine
 10
629.3226407377617
 20
394.485885884159
 30
0.0
 11
629.323036106123
 21
400.4858849681818
 31
0.0
  0
LINE
  5
6F08
330
1A
100
AcDbEntity
  8
SEIHIN
100
AcDbLine
 10
628.9835278183475
 20
402.9860596265495
 30
0.0
 11
630.4835268183474
 21
400.4860596265495
 31
0.0
  0
LINE
  5
6F09
330
1A
100
AcDbEntity
  8
SEIHIN
100
AcDbLine
 10
641.9838038183472
 20
404.1855996262428
 30
0.0
 11
641.9838038183472
 21
408.1855996262429
 31
0.0
  0
LINE
  5
6F0A
330
1A
100
AcDbEntity
  8
SEIHIN
100
AcDbLine
 10
642.9838038183472
 20
404.1855996262428
 30
0.0
 11
642.9838038183472
 21
408.1855996262429
 31
0.0
  0
LINE
  5
6F0B
330
1A
100
AcDbEntity
  8
SEIHIN
100
AcDbLine
 10
633.9838038183472
 20
404.1855996262428
 30
0.0
 11
633.9838038183472
 21
408.1855996262429
 31
0.0
  0
LINE
  5
6F0C
330
1A
100
AcDbEntity
  8
SEIHIN
100
AcDbLine
 10
637.9831544499591
 20
394.4856001327881
 30
0.0
 11
637.9835498183472
 21
400.4855996262429
 31
0.0
  0
LINE
  5
6F0D
330
1A
100
AcDbEntity
  8
SEIHIN
100
AcDbLine
 10
646.6436681621567
 20
394.4853143814178
 30
0.0
 11
646.6440635305717
 21
400.4853142859097
 31
0.0
  0
LINE
  5
6F0E
330
1A
100
AcDbEntity
  8
SEIHIN
100
AcDbLine
 10
648.9838038183473
 20
404.1855996262428
 30
0.0
 11
648.9838038183473
 21
402.9855996262431
 31
0.0
  0
LINE
  5
6F0F
330
1A
100
AcDbEntity
  8
SEIHIN
100
AcDbLine
 10
645.4838028183472
 20
400.4855996262429
 30
0.0
 11
646.9838038183472
 21
402.9855996262431
 31
0.0
  0
LINE
  5
6F10
330
1A
100
AcDbEntity
  8
SEIHIN
100
AcDbLine
 10
633.6536127622564
 20
429.8857422601863
 30
0.0
 11
642.3141264744806
 21
429.8854573292853
 31
0.0
  0
LINE
  5
6F11
330
1A
100
AcDbEntity
  8
SEIHIN
100
AcDbLine
 10
629.3232901061227
 20
421.8858845716201
 30
0.0
 11
646.6443175305717
 21
421.8853147098178
 31
0.0
  0
LINE
  5
6F12
330
1A
100
AcDbEntity
  8
SEIHIN
100
AcDbLine
 10
648.9838038183473
 20
418.1852373704114
 30
0.0
 11
626.9835148183474
 21
418.185599626243
 31
0.0
  0
LINE
  5
6F13
330
1A
100
AcDbEntity
  8
SEIHIN
100
AcDbLine
 10
648.9838038183473
 20
419.3852373704115
 30
0.0
 11
626.9835148183474
 21
419.3855996262429
 31
0.0
  0
ARC
  5
6F14
330
1A
100
AcDbEntity
  8
SEIHIN
100
AcDbCircle
 10
633.653425634297
 20
424.1979623441942
 30
0.0
 40
5.687779919070464
100
AcDbArc
 50
40.41684699691309
 51
139.5793829407961
  0
LINE
  5
6F15
330
1A
100
AcDbEntity
  8
SEIHIN
100
AcDbLine
 10
632.9838038183472
 20
433.6068186262429
 30
0.0
 11
642.9838038183472
 21
433.6068186262429
 31
0.0
  0
LINE
  5
6F16
330
1A
100
AcDbEntity
  8
SEIHIN
100
AcDbLine
 10
626.9835148183474
 20
419.3855996262429
 30
0.0
 11
626.9835148183474
 21
418.185599626243
 31
0.0
  0
LINE
  5
6F17
330
1A
100
AcDbEntity
  8
SEIHIN
100
AcDbLine
 10
628.9835148183474
 20
419.3851179592555
 30
0.0
 11
630.4835138183472
 21
421.8851179592553
 31
0.0
  0
LINE
  5
6F18
330
1A
100
AcDbEntity
  8
SEIHIN
100
AcDbLine
 10
629.3232901061227
 20
427.8858840781013
 30
0.0
 11
629.3232901061227
 21
421.8858849810521
 31
0.0
  0
LINE
  5
6F19
330
1A
100
AcDbEntity
  8
SEIHIN
100
AcDbLine
 10
632.9838038183472
 20
429.885764626243
 30
0.0
 11
632.9838038183472
 21
433.6068186262429
 31
0.0
  0
ARC
  5
6F1A
330
1A
100
AcDbEntity
  8
SEIHIN
100
AcDbCircle
 10
642.3139393465212
 20
424.1976774132931
 30
0.0
 40
5.687779919070464
100
AcDbArc
 50
40.41684699691309
 51
139.5793829407961
  0
LINE
  5
6F1B
330
1A
100
AcDbEntity
  8
SEIHIN
100
AcDbLine
 10
637.9838038183472
 20
427.8855991472001
 30
0.0
 11
637.9838038183472
 21
421.885599640719
 31
0.0
  0
LINE
  5
6F1C
330
1A
100
AcDbEntity
  8
SEIHIN
100
AcDbLine
 10
648.9838038183473
 20
419.3852373704115
 30
0.0
 11
648.9838038183473
 21
418.1852373704114
 31
0.0
  0
LINE
  5
6F1D
330
1A
100
AcDbEntity
  8
SEIHIN
100
AcDbLine
 10
645.4835138183471
 20
421.885599626243
 30
0.0
 11
646.9835148183474
 21
419.3855996262429
 31
0.0
  0
LINE
  5
6F1E
330
1A
100
AcDbEntity
  8
SEIHIN
100
AcDbLine
 10
646.6443175305719
 20
427.8853142162986
 30
0.0
 11
646.6443175305717
 21
421.8853142987802
 31
0.0
  0
LINE
  5
6F1F
330
1A
100
AcDbEntity
  8
SEIHIN
100
AcDbLine
 10
641.9838038183472
 20
429.885764626243
 30
0.0
 11
641.9838038183472
 21
433.6068186262429
 31
0.0
  0
LINE
  5
6F20
330
1A
100
AcDbEntity
  8
SEIHIN
100
AcDbLine
 10
633.9838038183472
 20
429.885764626243
 30
0.0
 11
633.9838038183472
 21
433.6068186262429
 31
0.0
  0
LINE
  5
6F21
330
1A
100
AcDbEntity
  8
SEIHIN
100
AcDbLine
 10
642.9838038183472
 20
429.885764626243
 30
0.0
 11
642.9838038183472
 21
433.6068186262429
 31
0.0
  0
DIMENSION
  5
6F22
330
1A
100
AcDbEntity
  8
SUNPOU
100
AcDbDimension
  2
*D15
 10
446.6724639612182
 20
508.6818676884262
 30
0.0
 11
441.6724639612182
 21
528.6818676884263
 31
0.0
 70
    32
 71
     5
 42
-1.0
  3
STANDARD
100
AcDbAlignedDimension
 13
407.8065132723594
 23
548.6818676884263
 33
0.0
 14
407.8065132723594
 24
508.6818676884262
 34
0.0
 50
90.0
100
AcDbRotatedDimension
1001
ACAD
1000
DSTYLE
1002
{
1070
    41
1040
7.0
1070
    42
1040
6.0
1070
    43
1040
14.0
1070
    44
1040
3.0
1070
    73
1070
     0
1070
    74
1070
     0
1070
    77
1070
     3
1070
   140
1040
6.0
1070
   141
1040
150.0
1070
   147
1040
2.0
1070
   172
1070
     1
1070
   173
1070
     1
1070
   176
1070
   256
1070
   177
1070
   256
1070
   178
1070
   256
1070
   271
1070
     0
1070
   272
1070
     0
1070
   341
1005
6D
1070
     6
1000
OPEN
1070
     7
1000
OPEN
1070
   371
1070
    -1
1070
   372
1070
    -1
1002
}
  0
LINE
  5
6F23
330
1A
100
AcDbEntity
  8
SEIHIN
100
AcDbLine
 10
409.6065132723596
 20
517.6818676884263
 30
0.0
 11
409.6065132722022
 21
539.6818676884263
 31
0.0
  0
ARC
  5
6F24
330
1A
100
AcDbEntity
  8
SEIHIN
100
AcDbCircle
 10
408.3065132723594
 20
517.6818676884263
 30
0.0
 40
1.3
100
AcDbArc
 50
270.0
 51
0.0
  0
ARC
  5
6F25
330
1A
100
AcDbEntity
  8
SEIHIN
100
AcDbCircle
 10
408.3065132723594
 20
515.8818676884264
 30
0.0
 40
0.5
100
AcDbArc
 50
90.0
 51
180.0
  0
LINE
  5
6F26
330
1A
100
AcDbEntity
  8
SEIHIN
100
AcDbLine
 10
407.8065132723594
 20
508.6818676884262
 30
0.0
 11
407.8065132723885
 21
515.8818676884264
 31
0.0
  0
LINE
  5
6F27
330
1A
100
AcDbEntity
  8
SEIHIN
100
AcDbLine
 10
407.8065132723594
 20
548.6818676884263
 30
0.0
 11
407.8065132723885
 21
541.4818676884265
 31
0.0
  0
ARC
  5
6F28
330
1A
100
AcDbEntity
  8
SEIHIN
100
AcDbCircle
 10
408.3065132723594
 20
539.6818676884263
 30
0.0
 40
1.3
100
AcDbArc
 50
0.0
 51
89.99999999871679
  0
ARC
  5
6F29
330
1A
100
AcDbEntity
  8
SEIHIN
100
AcDbCircle
 10
408.3065132723594
 20
541.4818676884265
 30
0.0
 40
0.5
100
AcDbArc
 50
180.0
 51
270.000000003335
  0
LINE
  5
6F2A
330
1A
100
AcDbEntity
  8
SEIHIN
100
AcDbLine
 10
652.9841328183472
 20
418.1851056262431
 30
0.0
 11
652.9838038183473
 21
408.1851056262431
 31
0.0
  0
DIMENSION
  5
72B1
330
1A
100
AcDbEntity
  8
SUNPOU
100
AcDbDimension
  2
*D16
 10
648.9838038183473
 20
463.7702656249238
 30
0.0
 11
637.9836593183472
 21
468.7702656249237
 31
0.0
 70
    32
 71
     5
 42
-1.0
  3
STANDARD
100
AcDbAlignedDimension
 13
626.9835148183474
 23
419.3855996262429
 33
0.0
 14
648.9838038183473
 24
419.3852373704115
 34
0.0
100
AcDbRotatedDimension
1001
ACAD
1000
DSTYLE
1002
{
1070
    41
1040
7.0
1070
    42
1040
6.0
1070
    43
1040
14.0
1070
    44
1040
3.0
1070
    73
1070
     0
1070
    74
1070
     0
1070
    77
1070
     3
1070
   140
1040
6.0
1070
   141
1040
150.0
1070
   147
1040
2.0
1070
   172
1070
     1
1070
   173
1070
     1
1070
   176
1070
   256
1070
   177
1070
   256
1070
   178
1070
   256
1070
   271
1070
     0
1070
   272
1070
     0
1070
   341
1005
6D
1070
     6
1000
OPEN
1070
     7
1000
OPEN
1070
   371
1070
    -1
1070
   372
1070
    -1
1002
}
  0
LINE
  5
7E8C
330
1A
100
AcDbEntity
  8
SEIHIN
100
AcDbLine
 10
187.9594562319654
 20
194.2984800626519
 30
0.0
 11
190.48464495741
 21
185.5010403149496
 31
0.0
  0
LINE
  5
7E8D
330
1A
100
AcDbEntity
  8
SEIHIN
100
AcDbLine
 10
187.4788881575839
 20
194.1604426237833
 30
0.0
 11
190.9836888873071
 21
181.9501579284836
 31
0.0
  0
LINE
  5
7E8E
330
1A
100
AcDbEntity
  8
SEIHIN
100
AcDbLine
 10
176.5064812725798
 20
197.5272753737893
 30
0.0
 11
186.397732754961
 21
195.71390167713
 31
0.0
  0
LINE
  5
7E8F
330
1A
100
AcDbEntity
  8
SEIHIN
100
AcDbLine
 10
176.4642392044789
 20
197.0272753737891
 30
0.0
 11
186.3076932165086
 21
195.2219909259719
 31
0.0
  0
LINE
  5
7E90
330
1A
100
AcDbEntity
  8
SEIHIN
100
AcDbLine
 10
169.7222102725796
 20
197.5272753737893
 30
0.0
 11
185.768184987387
 21
197.5272753737893
 31
0.0
  0
ARC
  5
7E91
330
1A
100
AcDbEntity
  8
SEIHIN
100
AcDbCircle
 10
168.5064812725794
 20
199.0272753737898
 30
0.0
 40
2.0
100
AcDbArc
 50
180.0000000000162
 51
270.0000000022602
  0
ARC
  5
7E92
330
1A
100
AcDbEntity
  8
SEIHIN
100
AcDbCircle
 10
169.7222102725796
 20
199.0272753737898
 30
0.0
 40
2.0
100
AcDbArc
 50
180.0000000000162
 51
261.5819526537608
  0
ARC
  5
7E93
330
1A
100
AcDbEntity
  8
SEIHIN
100
AcDbCircle
 10
169.7222102725796
 20
199.0272753737893
 30
0.0
 40
1.5
100
AcDbArc
 50
179.9999999999966
 51
259.6901715535555
  0
LINE
  5
7E94
330
1A
100
AcDbEntity
  8
SEIHIN
100
AcDbLine
 10
168.5064812725794
 20
197.0272753737893
 30
0.0
 11
176.4642392044789
 21
197.0272753737893
 31
0.0
  0
LINE
  5
7E95
330
1A
100
AcDbEntity
  8
SEIHIN
100
AcDbLine
 10
169.5858561814246
 20
197.5272753737893
 30
0.0
 11
169.7222102725891
 21
197.5272753737893
 31
0.0
  0
LINE
  5
7E96
330
1A
100
AcDbEntity
  8
SEIHIN
100
AcDbLine
 10
169.4496901270954
 20
197.5522388419349
 30
0.0
 11
169.5858561814775
 21
197.5272753737893
 31
0.0
  0
LINE
  5
7E97
330
1A
100
AcDbEntity
  8
SEIHIN
100
AcDbLine
 10
166.5064812725795
 20
202.0272753737893
 30
0.0
 11
168.2222092725795
 21
202.0272753737893
 31
0.0
  0
LINE
  5
7E98
330
1A
100
AcDbEntity
  8
SEIHIN
100
AcDbLine
 10
166.5064812725795
 20
199.0272753737893
 30
0.0
 11
166.5064812726583
 21
202.0272753737893
 31
0.0
  0
LINE
  5
7E99
330
1A
100
AcDbEntity
  8
SEIHIN
100
AcDbLine
 10
167.7222102725796
 20
199.0272753737893
 30
0.0
 11
167.7222102725891
 21
202.0272753737893
 31
0.0
  0
LINE
  5
7E9A
330
1A
100
AcDbEntity
  8
SEIHIN
100
AcDbLine
 10
168.2222102725795
 20
199.0272753737893
 30
0.0
 11
168.2222102725888
 21
202.0272753737893
 31
0.0
  0
ARC
  5
7E9B
330
1A
100
AcDbEntity
  8
SEIHIN
100
AcDbCircle
 10
185.7681849873865
 20
192.5272753737893
 30
0.0
 40
4.999999892672396
100
AcDbArc
 50
50.39285696194834
 51
89.99999999999348
  0
ARC
  5
7E9C
330
1A
100
AcDbEntity
  8
SEIHIN
100
AcDbCircle
 10
186.0370813289206
 20
193.7466877718911
 30
0.0
 40
2.0
100
AcDbArc
 50
16.01542568660013
 51
79.61126776609528
  0
ARC
  5
7E9D
330
1A
100
AcDbEntity
  8
SEIHIN
100
AcDbCircle
 10
186.0371069803001
 20
193.7465984057126
 30
0.0
 40
1.5
100
AcDbArc
 50
16.01542568644355
 51
79.60747497741427
  0
LINE
  5
7E9E
330
1A
100
AcDbEntity
  8
SEIHIN
100
AcDbLine
 10
385.4486167726468
 20
173.0272753737893
 30
0.0
 11
367.8445868919094
 21
173.0272753737893
 31
0.0
  0
LINE
  5
7E9F
330
1A
100
AcDbEntity
  8
SEIHIN
100
AcDbLine
 10
366.9936725629364
 20
171.7074045693493
 30
0.0
 11
377.1464454853246
 21
173.0272753737893
 31
0.0
  0
LINE
  5
7EA0
330
1A
100
AcDbEntity
  8
SEIHIN
100
AcDbLine
 10
366.6258512058432
 20
171.2399085724167
 30
0.0
 11
377.1464454853246
 21
172.5272753737893
 31
0.0
  0
LINE
  5
7EA1
330
1A
100
AcDbEntity
  8
SEIHIN
100
AcDbLine
 10
387.4486167726468
 20
174.5272753737893
 30
0.0
 11
387.4486167725862
 21
177.5272753737893
 31
0.0
  0
LINE
  5
7EA2
330
1A
100
AcDbEntity
  8
SEIHIN
100
AcDbLine
 10
386.9486167726468
 20
174.5272753737893
 30
0.0
 11
386.9486167725863
 21
177.5272753737893
 31
0.0
  0
LINE
  5
7EA3
330
1A
100
AcDbEntity
  8
SEIHIN
100
AcDbLine
 10
388.3064812725931
 20
174.5272753737893
 30
0.0
 11
388.3064812725795
 21
177.5272753737893
 31
0.0
  0
LINE
  5
7EA4
330
1A
100
AcDbEntity
  8
SEIHIN
100
AcDbLine
 10
386.3064812725932
 20
172.5272753737893
 30
0.0
 11
377.1464454853246
 21
172.5272753737893
 31
0.0
  0
ARC
  5
7EA5
330
1A
100
AcDbEntity
  8
SEIHIN
100
AcDbCircle
 10
386.3064812725932
 20
174.5272753737893
 30
0.0
 40
2.0
100
AcDbArc
 50
269.999999999987
 51
359.9999999999869
  0
ARC
  5
7EA6
330
1A
100
AcDbEntity
  8
SEIHIN
100
AcDbCircle
 10
385.4486167726468
 20
174.5272753737893
 30
0.0
 40
1.5
100
AcDbArc
 50
269.9999999999934
 51
359.9999999999933
  0
ARC
  5
7EA7
330
1A
100
AcDbEntity
  8
SEIHIN
100
AcDbCircle
 10
385.4486167726468
 20
174.5272753737893
 30
0.0
 40
2.0
100
AcDbArc
 50
269.999999999987
 51
359.9999999999869
  0
LINE
  5
7EA8
330
1A
100
AcDbEntity
  8
SEIHIN
100
AcDbLine
 10
386.9486167725862
 20
177.5272753737893
 30
0.0
 11
388.3064812725795
 21
177.5272753737893
 31
0.0
  0
LINE
  5
7EA9
330
1A
100
AcDbEntity
  8
SEIHIN
100
AcDbLine
 10
192.7717732614159
 20
98.41216628013185
 30
0.0
 11
192.7717732614159
 21
91.71216628013178
 31
0.0
  0
LINE
  5
7EAA
330
1A
100
AcDbEntity
  8
SEIHIN
100
AcDbLine
 10
185.0673898224749
 20
98.41216628013158
 30
0.0
 11
185.0673898224749
 21
91.71216628013157
 31
0.0
  0
LINE
  5
7EAB
330
1A
100
AcDbEntity
  8
SEIHIN
 48
5.0
100
AcDbLine
 10
199.6186487502194
 20
87.41216628241033
 30
0.0
 11
191.7583459463526
 21
86.62077389106206
 31
0.0
  0
LINE
  5
7EAC
330
1A
100
AcDbEntity
  8
SEIHIN
 48
5.0
100
AcDbLine
 10
199.6186487050464
 20
69.41216628241057
 30
0.0
 11
191.7583459463526
 21
70.20355866921068
 31
0.0
  0
LINE
  5
7EAD
330
1A
100
AcDbEntity
  8
SEIHIN
 48
5.0
100
AcDbLine
 10
199.618648726415
 20
69.41216627999785
 30
0.0
 11
177.6568980436496
 21
66.91216628013183
 31
0.0
  0
LINE
  5
7EAE
330
1A
100
AcDbEntity
  8
SEIHIN
 48
5.0
100
AcDbLine
 10
199.618648726415
 20
87.4121662802749
 30
0.0
 11
177.6568980437296
 21
89.91216628013182
 31
0.0
  0
ARC
  5
7EAF
330
1A
100
AcDbEntity
  8
SEIHIN
100
AcDbCircle
 10
196.50648142653
 20
78.41216628013182
 30
0.0
 40
30.000000154
100
AcDbArc
 50
179.9999999530031
 51
202.5403103414459
  0
LINE
  5
7EB0
330
1A
100
AcDbEntity
  8
SEIHIN
 48
5.0
100
AcDbLine
 10
191.7583459463526
 20
70.20355866921068
 30
0.0
 11
174.1270614491712
 21
66.91216628013183
 31
0.0
  0
LINE
  5
7EB1
330
1A
100
AcDbEntity
  8
SEIHIN
 48
5.0
100
AcDbLine
 10
168.7981792547981
 20
66.91216628013183
 30
0.0
 11
177.6568980436494
 21
66.91216628013183
 31
0.0
  0
ARC
  5
7EB2
330
1A
100
AcDbEntity
  8
SEIHIN
100
AcDbCircle
 10
184.0673898224749
 20
65.11216628013143
 30
0.0
 40
0.9999999039302409
100
AcDbArc
 50
0.0000000000130276
 51
72.54239341417918
  0
ARC
  5
7EB3
330
1A
100
AcDbEntity
  8
SEIHIN
100
AcDbCircle
 10
185.3046238269716
 20
68.63266996318987
 30
0.0
 40
2.732336160781798
100
AcDbArc
 50
204.4973153644698
 51
249.9392855662499
  0
LINE
  5
7EB4
330
1A
100
AcDbEntity
  8
SEIHIN
100
AcDbLine
 10
185.0673898224749
 20
58.4121662801315
 30
0.0
 11
185.0673898224749
 21
65.11216628013143
 31
0.0
  0
ARC
  5
7EB5
330
1A
100
AcDbEntity
  8
SEIHIN
100
AcDbCircle
 10
191.7717732614159
 20
65.11216628013165
 30
0.0
 40
0.9999999039302409
100
AcDbArc
 50
0.0000000000130276
 51
72.54239341417918
  0
ARC
  5
7EB6
330
1A
100
AcDbEntity
  8
SEIHIN
100
AcDbCircle
 10
193.0367506078884
 20
68.47793472704541
 30
0.0
 40
2.59771085776067
100
AcDbArc
 50
181.4507602719868
 51
248.193554687884
  0
LINE
  5
7EB7
330
1A
100
AcDbEntity
  8
SEIHIN
100
AcDbLine
 10
192.7717732614159
 20
58.41216628013171
 30
0.0
 11
192.7717732614159
 21
65.11216628013165
 31
0.0
  0
LINE
  5
7EB8
330
1A
100
AcDbEntity
  8
SEIHIN
 48
5.0
100
AcDbLine
 10
191.7583459463526
 20
86.62077389106206
 30
0.0
 11
174.1270614492196
 21
89.91216628013182
 31
0.0
  0
ARC
  5
7EB9
330
1A
100
AcDbEntity
  8
SEIHIN
100
AcDbCircle
 10
196.50648142653
 20
78.41216628013182
 30
0.0
 40
30.000000154
100
AcDbArc
 50
157.4596896585539
 51
179.9999999530031
  0
LINE
  5
7EBA
330
1A
100
AcDbEntity
  8
SEIHIN
 48
5.0
100
AcDbLine
 10
168.7981792547981
 20
89.91216628013182
 30
0.0
 11
177.6568980437298
 21
89.91216628013182
 31
0.0
  0
ARC
  5
7EBB
330
1A
100
AcDbEntity
  8
SEIHIN
100
AcDbCircle
 10
184.0673898224749
 20
91.71216628013157
 30
0.0
 40
0.9999999039302409
100
AcDbArc
 50
287.4576065858208
 51
0.0
  0
ARC
  5
7EBC
330
1A
100
AcDbEntity
  8
SEIHIN
100
AcDbCircle
 10
185.3046238269716
 20
88.191662597073
 30
0.0
 40
2.732336160781832
100
AcDbArc
 50
110.06071443375
 51
155.5026846353115
  0
ARC
  5
7EBD
330
1A
100
AcDbEntity
  8
SEIHIN
100
AcDbCircle
 10
191.7717732614159
 20
91.71216628013178
 30
0.0
 40
0.9999999039302409
100
AcDbArc
 50
287.4576065858208
 51
0.0
  0
ARC
  5
7EBE
330
1A
100
AcDbEntity
  8
SEIHIN
100
AcDbCircle
 10
193.0367506078886
 20
88.34639783321803
 30
0.0
 40
2.597710857760673
100
AcDbArc
 50
111.8064453121159
 51
178.5492386424921
  0
ARC
  5
7EBF
330
1A
100
AcDbEntity
  8
SEIHIN
 48
5.0
100
AcDbCircle
 10
210.9064812725298
 20
85.91216630473173
 30
0.0
 40
1.5
100
AcDbArc
 50
0.0
 51
90.0
  0
ARC
  5
7EC0
330
1A
100
AcDbEntity
  8
SEIHIN
 48
5.0
100
AcDbCircle
 10
210.90648127253
 20
70.91216630473173
 30
0.0
 40
1.5
100
AcDbArc
 50
270.0
 51
0.0
  0
CIRCLE
  5
7EC1
330
1A
100
AcDbEntity
  8
SEIHIN
100
AcDbCircle
 10
207.4064812725299
 20
78.41216630473184
 30
0.0
 40
3.25
  0
LINE
  5
7EC2
330
1A
100
AcDbEntity
  8
SEIHIN
 48
5.0
100
AcDbLine
 10
199.6186487050463
 20
69.41216628241057
 30
0.0
 11
210.90648127253
 21
69.41216630473173
 31
0.0
  0
CIRCLE
  5
7EC3
330
1A
100
AcDbEntity
  8
SEIHIN
100
AcDbCircle
 10
207.4064812725299
 20
78.41216630473184
 30
0.0
 40
2.25
  0
LINE
  5
7EC4
330
1A
100
AcDbEntity
  8
SEIHIN
 48
5.0
100
AcDbLine
 10
199.618648707656
 20
87.41216628241033
 30
0.0
 11
210.9064812725298
 21
87.41216630473173
 31
0.0
  0
LINE
  5
7EC5
330
1A
100
AcDbEntity
  8
SEIHIN
 48
5.0
100
AcDbLine
 10
212.40648127253
 20
70.91216630473173
 30
0.0
 11
212.4064812725298
 21
85.91216630473173
 31
0.0
  0
LINE
  5
7EC6
330
1A
100
AcDbEntity
  8
SEIHIN
100
AcDbLine
 10
366.5035398176152
 20
98.41216628096852
 30
0.0
 11
366.5035398176152
 21
91.71216628096848
 31
0.0
  0
LINE
  5
7EC7
330
1A
100
AcDbEntity
  8
SEIHIN
100
AcDbLine
 10
377.7672936968559
 20
98.41216628096852
 30
0.0
 11
377.7672936968559
 21
91.71216628096848
 31
0.0
  0
LINE
  5
7EC8
330
1A
100
AcDbEntity
  8
SEIHIN
 48
5.0
100
AcDbLine
 10
357.7114143409663
 20
87.36152351038823
 30
0.0
 11
364.1650154070569
 21
86.55523291579021
 31
0.0
  0
LINE
  5
7EC9
330
1A
100
AcDbEntity
  8
SEIHIN
 48
5.0
100
AcDbLine
 10
357.3060661958247
 20
87.41216630556854
 30
0.0
 11
374.1688639780081
 21
89.91216628096852
 31
0.0
  0
LINE
  5
7ECA
330
1A
100
AcDbEntity
  8
SEIHIN
 48
5.0
100
AcDbLine
 10
357.7114143411179
 20
69.4628091007482
 30
0.0
 11
364.1650154072246
 21
70.26909969533789
 31
0.0
  0
LINE
  5
7ECB
330
1A
100
AcDbEntity
  8
SEIHIN
 48
5.0
100
AcDbLine
 10
357.3060661959762
 20
69.41216630556853
 30
0.0
 11
374.1688639585733
 21
66.91216628097603
 31
0.0
  0
LINE
  5
7ECC
330
1A
100
AcDbEntity
  8
SEIHIN
 48
5.0
100
AcDbLine
 10
357.3060661959727
 20
69.82066576881591
 30
0.0
 11
357.306066195828
 21
87.00366684232115
 31
0.0
  0
LINE
  5
7ECD
330
1A
100
AcDbEntity
  8
SEIHIN
 48
5.0
100
AcDbLine
 10
345.4064812723789
 20
70.91216630556854
 30
0.0
 11
345.4064812723792
 21
85.91216630556855
 31
0.0
  0
CIRCLE
  5
7ECE
330
1A
100
AcDbEntity
  8
SEIHIN
 48
5.0
100
AcDbCircle
 10
350.4064812723789
 20
78.41216630556854
 30
0.0
 40
3.25
  0
CIRCLE
  5
7ECF
330
1A
100
AcDbEntity
  8
SEIHIN
 48
5.0
100
AcDbCircle
 10
350.4064812723789
 20
78.41216630556854
 30
0.0
 40
2.25
  0
LINE
  5
7ED0
330
1A
100
AcDbEntity
  8
SEIHIN
 48
5.0
100
AcDbLine
 10
346.9064812723789
 20
69.41216630556853
 30
0.0
 11
357.3060661959762
 21
69.41216630556853
 31
0.0
  0
ARC
  5
7ED1
330
1A
100
AcDbEntity
  8
SEIHIN
 48
5.0
100
AcDbCircle
 10
346.9064812723789
 20
70.91216630556854
 30
0.0
 40
1.5
100
AcDbArc
 50
179.9999999999983
 51
270.0
  0
LINE
  5
7ED2
330
1A
100
AcDbEntity
  8
SEIHIN
 48
5.0
100
AcDbLine
 10
346.906481272379
 20
87.41216630556854
 30
0.0
 11
357.3060661958247
 21
87.41216630556854
 31
0.0
  0
ARC
  5
7ED3
330
1A
100
AcDbEntity
  8
SEIHIN
 48
5.0
100
AcDbCircle
 10
346.906481272379
 20
85.91216630556855
 30
0.0
 40
1.5
100
AcDbArc
 50
90.0
 51
180.0
  0
LINE
  5
7ED4
330
1A
100
AcDbEntity
  8
SEIHIN
 48
5.0
100
AcDbLine
 10
364.9619923780023
 20
70.20355869472651
 30
0.0
 11
374.1688639585985
 21
66.91216628096852
 31
0.0
  0
ARC
  5
7ED5
330
1A
100
AcDbEntity
  8
SEIHIN
 48
5.0
100
AcDbCircle
 10
358.3064811183787
 20
78.41216628096852
 30
0.0
 40
30.000000154
100
AcDbArc
 50
337.4596896585539
 51
0.0000000469968938
  0
LINE
  5
7ED6
330
1A
100
AcDbEntity
  8
SEIHIN
 48
5.0
100
AcDbLine
 10
374.1688639585985
 20
66.91216628096852
 30
0.0
 11
386.0147832901106
 21
66.91216628096852
 31
0.0
  0
ARC
  5
7ED7
330
1A
100
AcDbEntity
  8
SEIHIN
100
AcDbCircle
 10
366.0472904318867
 20
67.91549721297174
 30
0.0
 40
2.181092087025118
100
AcDbArc
 50
302.013844349593
 51
332.3426144756139
  0
ARC
  5
7ED8
330
1A
100
AcDbEntity
  8
SEIHIN
100
AcDbCircle
 10
366.0472904318867
 20
67.91549721297174
 30
0.0
 40
2.181092087025118
100
AcDbArc
 50
302.013844349593
 51
332.3426144756139
  0
ARC
  5
7ED9
330
1A
100
AcDbEntity
  8
SEIHIN
100
AcDbCircle
 10
367.5035398176151
 20
65.11216628096857
 30
0.0
 40
0.9999999039302409
100
AcDbArc
 50
107.4576065858208
 51
179.9999999999869
  0
LINE
  5
7EDA
330
1A
100
AcDbEntity
  8
SEIHIN
100
AcDbLine
 10
366.5035398176152
 20
58.41216628096852
 30
0.0
 11
366.5035398176152
 21
65.11216628096857
 31
0.0
  0
LINE
  5
7EDB
330
1A
100
AcDbEntity
  8
SEIHIN
 48
5.0
100
AcDbLine
 10
367.9791690026422
 20
66.90307048478878
 30
0.0
 11
367.9791690026422
 21
67.82982168786062
 31
0.0
  0
ARC
  5
7EDC
330
1A
100
AcDbEntity
  8
SEIHIN
100
AcDbCircle
 10
377.3110443111274
 20
67.91549721297174
 30
0.0
 40
2.181092087025118
100
AcDbArc
 50
302.013844349593
 51
332.3426144756139
  0
ARC
  5
7EDD
330
1A
100
AcDbEntity
  8
SEIHIN
100
AcDbCircle
 10
377.3110443111274
 20
67.91549721297174
 30
0.0
 40
2.181092087025118
100
AcDbArc
 50
302.013844349593
 51
332.3426144756139
  0
LINE
  5
7EDE
330
1A
100
AcDbEntity
  8
SEIHIN
 48
5.0
100
AcDbLine
 10
379.2429228818828
 20
66.90307048478878
 30
0.0
 11
379.2429228818828
 21
66.91216628096852
 31
0.0
  0
ARC
  5
7EDF
330
1A
100
AcDbEntity
  8
SEIHIN
100
AcDbCircle
 10
378.7672936968558
 20
65.11216628096857
 30
0.0
 40
0.9999999039302409
100
AcDbArc
 50
107.4576065858208
 51
179.9999999999869
  0
LINE
  5
7EE0
330
1A
100
AcDbEntity
  8
SEIHIN
100
AcDbLine
 10
377.7672936968559
 20
58.41216628096852
 30
0.0
 11
377.7672936968559
 21
65.11216628096857
 31
0.0
  0
LINE
  5
7EE1
330
1A
100
AcDbEntity
  8
SEIHIN
 48
5.0
100
AcDbLine
 10
374.1688639780081
 20
89.91216628096852
 30
0.0
 11
386.0147833095071
 21
89.91216628096852
 31
0.0
  0
LINE
  5
7EE2
330
1A
100
AcDbEntity
  8
SEIHIN
 48
5.0
100
AcDbLine
 10
364.570363552362
 20
70.72824195376495
 30
0.0
 11
364.5703635522029
 21
86.09609065736249
 31
0.0
  0
ARC
  5
7EE3
330
1A
100
AcDbEntity
  8
SEIHIN
 48
5.0
100
AcDbCircle
 10
366.0472904318865
 20
88.90883534896518
 30
0.0
 40
2.181092087025163
100
AcDbArc
 50
27.65738552438623
 51
57.98615565039561
  0
LINE
  5
7EE4
330
1A
100
AcDbEntity
  8
SEIHIN
 48
5.0
100
AcDbLine
 10
364.9619923778347
 20
86.62077391639995
 30
0.0
 11
374.1688639780081
 21
89.91216628096852
 31
0.0
  0
ARC
  5
7EE5
330
1A
100
AcDbEntity
  8
SEIHIN
100
AcDbCircle
 10
367.5035398176151
 20
91.71216628096848
 30
0.0
 40
0.9999999039302409
100
AcDbArc
 50
180.0
 51
252.5423934141791
  0
LINE
  5
7EE6
330
1A
100
AcDbEntity
  8
SEIHIN
 48
5.0
100
AcDbLine
 10
367.979169002642
 20
88.99451089032522
 30
0.0
 11
367.9791690026422
 21
89.92126207714823
 31
0.0
  0
ARC
  5
7EE7
330
1A
100
AcDbEntity
  8
SEIHIN
 48
5.0
100
AcDbCircle
 10
358.3064811183787
 20
78.41216628096852
 30
0.0
 40
30.000000154
100
AcDbArc
 50
0.0000000469968938
 51
22.54031034144602
  0
ARC
  5
7EE8
330
1A
100
AcDbEntity
  8
SEIHIN
 48
5.0
100
AcDbCircle
 10
377.3110443111272
 20
88.90883534896518
 30
0.0
 40
2.181092087025163
100
AcDbArc
 50
27.65738552438623
 51
57.98615565039561
  0
LINE
  5
7EE9
330
1A
100
AcDbEntity
  8
SEIHIN
 48
5.0
100
AcDbLine
 10
379.2429228818828
 20
89.91216628096852
 30
0.0
 11
379.2429228818828
 21
89.92126207714823
 31
0.0
  0
ARC
  5
7EEA
330
1A
100
AcDbEntity
  8
SEIHIN
100
AcDbCircle
 10
378.7672936968558
 20
91.71216628096848
 30
0.0
 40
0.9999999039302409
100
AcDbArc
 50
180.0
 51
252.5423934141791
  0
LINE
  5
7EEB
330
1A
100
AcDbEntity
  8
SEIHIN
100
AcDbLine
 10
386.4828898543628
 20
88.71216628013176
 30
0.0
 11
394.8065132722774
 21
88.71216628013176
 31
0.0
  0
LINE
  5
7EEC
330
1A
100
AcDbEntity
  8
SEIHIN
100
AcDbLine
 10
386.482889853751
 20
68.11216628013181
 30
0.0
 11
394.8065132722774
 21
68.11216628013181
 31
0.0
  0
VIEWPORT
  5
22
102
{ACAD_XDICTIONARY
360
8087
102
}
330
17
100
AcDbEntity
 67
     1
  8
0
100
AcDbViewport
 10
313.6808219178082
 20
148.5
 30
0.0
 40
627.3616438356165
 41
297.0
 68
     2
 69
     1
 12
313.6808219178082
 22
148.5
 13
0.0
 23
0.0
 14
1.0
 24
1.0
 15
10.0
 25
10.0
 16
0.0
 26
0.0
 36
1.0
 17
0.0
 27
0.0
 37
0.0
 42
50.0
 43
0.0
 44
0.0
 45
297.0
 50
0.0
 51
0.0
 72
   100
 90
    32768
  1

281
     0
 71
     1
 74
     0
110
0.0
120
0.0
130
0.0
111
1.0
121
0.0
131
0.0
112
0.0
122
1.0
132
0.0
 79
     0
146
0.0
  0
VIEWPORT
  5
64
102
{ACAD_XDICTIONARY
360
8089
102
}
330
17
100
AcDbEntity
 67
     1
  8
VIEWPORT
100
AcDbViewport
 10
210.0
 20
148.5
 30
0.0
 40
420.0
 41
297.0
 68
     1
 69
     2
 12
420.0
 22
297.0
 13
0.0
 23
0.0
 14
10.0
 24
10.0
 15
0.0
 25
0.0
 16
0.0
 26
0.0
 36
1.0
 17
0.0
 27
0.0
 37
0.0
 42
50.0
 43
0.0
 44
0.0
 45
605.8799999999997
 50
0.0
 51
0.0
 72
   100
 90
    32768
  1

281
     0
 71
     1
 74
     0
110
0.0
120
0.0
130
0.0
111
1.0
121
0.0
131
0.0
112
0.0
122
1.0
132
0.0
 79
     0
146
0.0
  0
ENDSEC
  0
SECTION
  2
OBJECTS
  0
DICTIONARY
  5
C
330
0
100
AcDbDictionary
281
     1
  3
ACAD_COLOR
350
807F
  3
ACAD_GROUP
350
D
  3
ACAD_LAYOUT
350
340
  3
ACAD_MATERIAL
350
807E
  3
ACAD_MLINESTYLE
350
E
  3
ACAD_PLOTSETTINGS
350
341
  3
ACAD_PLOTSTYLENAME
350
33E
  3
ACDBHEADERROUNDTRIPXREC
350
8084
  3
AcDbVariableDictionary
350
11E9
  0
DICTIONARY
  5
385
330
1A
100
AcDbDictionary
280
     1
281
     1
  3
ACAD_LAYOUTSELFREF
360
804E
  0
DICTIONARY
  5
383
330
17
100
AcDbDictionary
280
     1
281
     1
  3
ACAD_LAYOUTSELFREF
360
804D
  0
DICTIONARY
  5
8087
330
22
100
AcDbDictionary
280
     1
281
     1
  3
ACAD_XREC_ROUNDTRIP
360
8088
  0
DICTIONARY
  5
8089
330
64
100
AcDbDictionary
280
     1
281
     1
  3
ACAD_XREC_ROUNDTRIP
360
808A
  0
DICTIONARY
  5
807F
102
{ACAD_REACTORS
330
C
102
}
330
C
100
AcDbDictionary
281
     1
  0
DICTIONARY
  5
D
102
{ACAD_REACTORS
330
C
102
}
330
C
100
AcDbDictionary
281
     1
  0
DICTIONARY
  5
340
102
{ACAD_REACTORS
330
C
102
}
330
C
100
AcDbDictionary
281
     1
  3
Model
350
342
  3
ﾚｲｱｳﾄ1
350
343
  0
DICTIONARY
  5
807E
102
{ACAD_REACTORS
330
C
102
}
330
C
100
AcDbDictionary
281
     1
  0
DICTIONARY
  5
E
102
{ACAD_REACTORS
330
C
102
}
330
C
100
AcDbDictionary
281
     1
  3
STANDARD
350
13
  0
DICTIONARY
  5
341
102
{ACAD_REACTORS
330
C
102
}
330
C
100
AcDbDictionary
281
     1
  0
ACDBDICTIONARYWDFLT
  5
33E
102
{ACAD_REACTORS
330
C
102
}
330
C
100
AcDbDictionary
281
     1
  3
Normal
350
33F
100
AcDbDictionaryWithDefault
340
33F
1001
ACAD
1000
TREAT_AS_HARD
1070
     0
1000
TREAT_AS_HARD
1070
     0
1000
TREAT_AS_HARD
1070
     0
1000
TREAT_AS_HARD
1070
     0
1000
TREAT_AS_HARD
1070
     0
1000
TREAT_AS_HARD
1070
     0
1000
TREAT_AS_HARD
1070
     0
1000
TREAT_AS_HARD
1070
     0
1000
TREAT_AS_HARD
1070
     0
1000
TREAT_AS_HARD
1070
     0
1000
TREAT_AS_HARD
1070
     0
1000
TREAT_AS_HARD
1070
     0
1000
TREAT_AS_HARD
1070
     0
1000
TREAT_AS_HARD
1070
     0
1000
TREAT_AS_HARD
1070
     0
  0
DICTIONARY
  5
8084
102
{ACAD_REACTORS
330
C
102
}
330
C
100
AcDbDictionary
281
     1
  3
COLORDICT
350
8086
  3
MATERIALDICT
350
8085
  0
DICTIONARY
  5
11E9
102
{ACAD_REACTORS
330
C
102
}
330
C
100
AcDbDictionary
281
     1
  3
DIMASSOC
350
8081
  3
PROJECTNAME
350
8082
  3
SORTENTS
350
11EA
  0
XRECORD
  5
804E
102
{ACAD_REACTORS
330
385
102
}
330
385
100
AcDbXrecord
280
     1
340
1A
  0
XRECORD
  5
804D
102
{ACAD_REACTORS
330
383
102
}
330
383
100
AcDbXrecord
280
     1
340
17
  0
XRECORD
  5
8088
102
{ACAD_REACTORS
330
8087
102
}
330
8087
100
AcDbXrecord
280
     1
102
SHADEPLOT
 70
     0
  0
XRECORD
  5
808A
102
{ACAD_REACTORS
330
8089
102
}
330
8089
100
AcDbXrecord
280
     1
102
SHADEPLOT
 70
     0
  0
LAYOUT
  5
342
102
{ACAD_XDICTIONARY
360
808B
102
}
102
{ACAD_REACTORS
330
340
102
}
330
340
100
AcDbPlotSettings
  1

  2
Acrobat Distiller
  4
A3
  6

 40
3.174999952316283
 41
3.174999952316283
 42
3.17498779296875
 43
3.17498779296875
 44
297.0318298339843
 45
420.1583251953125
 46
0.0
 47
0.0
 48
0.0
 49
0.0
140
0.0
141
0.0
142
1.0
143
2.0
 70
 11952
 72
     1
 73
     1
 74
     2
  7
print.ctb
 75
    17
147
0.5
148
0.0
149
0.0
100
AcDbLayout
  1
Model
 70
     1
 71
     0
 10
0.0
 20
0.0
 11
12.0
 21
9.0
 12
0.0
 22
0.0
 32
0.0
 14
0.0
 24
0.0
 34
0.0
 15
0.0
 25
0.0
 35
0.0
146
0.0
 13
0.0
 23
0.0
 33
0.0
 16
1.0
 26
0.0
 36
0.0
 17
0.0
 27
1.0
 37
0.0
 76
     0
330
1A
  0
LAYOUT
  5
343
102
{ACAD_XDICTIONARY
360
808D
102
}
102
{ACAD_REACTORS
330
340
102
}
330
340
100
AcDbPlotSettings
  1

  2
Acrobat Distiller
  4

  6

 40
0.0
 41
0.0
 42
0.0
 43
0.0
 44
0.0
 45
0.0
 46
0.0
 47
0.0
 48
0.0
 49
0.0
140
0.0
141
0.0
142
1.0
143
1.0
 70
   688
 72
     0
 73
     0
 74
     5
  7
print.ctb
 75
    16
147
1.0
148
0.0
149
0.0
100
AcDbLayout
  1
ﾚｲｱｳﾄ1
 70
     1
 71
     1
 10
0.0
 20
0.0
 11
420.0
 21
297.0
 12
0.0
 22
0.0
 32
0.0
 14
0.0
 24
0.0
 34
0.0
 15
420.0
 25
297.0
 35
0.0
146
0.0
 13
0.0
 23
0.0
 33
0.0
 16
1.0
 26
0.0
 36
0.0
 17
0.0
 27
1.0
 37
0.0
 76
     0
330
17
331
64
  0
MLINESTYLE
  5
13
102
{ACAD_REACTORS
330
E
102
}
330
E
100
AcDbMlineStyle
  2
STANDARD
 70
     0
  3

 62
     0
 51
90.0
 52
90.0
 71
     2
 49
0.5
 62
   256
  6
BYLAYER
 49
-0.5
 62
   256
  6
BYLAYER
  0
ACDBPLACEHOLDER
  5
33F
102
{ACAD_REACTORS
330
33E
102
}
330
33E
  0
XRECORD
  5
8086
102
{ACAD_REACTORS
330
8084
102
}
330
8084
100
AcDbXrecord
280
     1
340
807F
  0
XRECORD
  5
8085
102
{ACAD_REACTORS
330
8084
102
}
330
8084
100
AcDbXrecord
280
     1
340
807E
  0
DICTIONARYVAR
  5
8081
102
{ACAD_REACTORS
330
11E9
102
}
330
11E9
100
DictionaryVariables
280
     0
  1
1
  0
DICTIONARYVAR
  5
8082
102
{ACAD_REACTORS
330
11E9
102
}
330
11E9
100
DictionaryVariables
280
     0
  1

  0
DICTIONARYVAR
  5
11EA
102
{ACAD_REACTORS
330
11E9
102
}
330
11E9
100
DictionaryVariables
280
     0
  1
96
  0
DICTIONARY
  5
808B
330
342
100
AcDbDictionary
280
     1
281
     1
  3
ACAD_XREC_ROUNDTRIP
360
808C
  0
DICTIONARY
  5
808D
330
343
100
AcDbDictionary
280
     1
281
     1
  3
ACAD_XREC_ROUNDTRIP
360
808E
  0
XRECORD
  5
808C
102
{ACAD_REACTORS
330
808B
102
}
330
808B
100
AcDbXrecord
280
     1
102
SHADEPLOT
 70
     0
102
SHADEPLOTRESLEVEL
 70
     2
102
SHADEPLOTCUSTOMDPI
 70
   300
  0
XRECORD
  5
808E
102
{ACAD_REACTORS
330
808D
102
}
330
808D
100
AcDbXrecord
280
     1
102
SHADEPLOT
 70
     0
102
SHADEPLOTRESLEVEL
 70
     2
102
SHADEPLOTCUSTOMDPI
 70
   300
  0
ENDSEC
  0
EOF
