  0
SECTION
  2
HEADER
  9
$ACADVER
  1
AC1014
  9
$ACADMAINTVER
 70
     9
  9
$DWGCODEPAGE
  3
ANSI_932
  9
$INSBASE
 10
0.0
 20
0.0
 30
0.0
  9
$EXTMIN
 10
-0.025633699850232
 20
-0.0181263027011482
 30
-0.0015258207003583
  9
$EXTMAX
 10
797.6000995177466
 20
551.6452344705855
 30
0.0000000349246037
  9
$LIMMIN
 10
0.0
 20
0.0
  9
$LIMMAX
 10
840.0
 20
594.0
  9
$ORTHOMODE
 70
     1
  9
$REGENMODE
 70
     1
  9
$FILLMODE
 70
     1
  9
$QTEXTMODE
 70
     0
  9
$MIRRTEXT
 70
     1
  9
$DRAGMODE
 70
     2
  9
$LTSCALE
 40
10.0
  9
$OSMODE
 70
    35
  9
$ATTMODE
 70
     1
  9
$TEXTSIZE
 40
5.0
  9
$TRACEWID
 40
1.0
  9
$TEXTSTYLE
  7
STANDARD
  9
$CLAYER
  8
SUNPOU
  9
$CELTYPE
  6
BYLAYER
  9
$CECOLOR
 62
   256
  9
$CELTSCALE
 40
1.0
  9
$DELOBJ
 70
     1
  9
$DISPSILH
 70
     0
  9
$DIMSCALE
 40
1.0
  9
$DIMASZ
 40
3.0
  9
$DIMEXO
 40
6.0
  9
$DIMDLI
 40
14.0
  9
$DIMRND
 40
0.0
  9
$DIMDLE
 40
0.0
  9
$DIMEXE
 40
3.0
  9
$DIMTP
 40
0.0
  9
$DIMTM
 40
0.0
  9
$DIMTXT
 40
6.0
  9
$DIMCEN
 40
10.0
  9
$DIMTSZ
 40
0.0
  9
$DIMTOL
 70
     0
  9
$DIMLIM
 70
     0
  9
$DIMTIH
 70
     0
  9
$DIMTOH
 70
     0
  9
$DIMSE1
 70
     0
  9
$DIMSE2
 70
     0
  9
$DIMTAD
 70
     3
  9
$DIMZIN
 70
     0
  9
$DIMBLK
  1

  9
$DIMASO
 70
     1
  9
$DIMSHO
 70
     1
  9
$DIMPOST
  1

  9
$DIMAPOST
  1

  9
$DIMALT
 70
     0
  9
$DIMALTD
 70
     2
  9
$DIMALTF
 40
25.4
  9
$DIMLFAC
 40
1.0
  9
$DIMTOFL
 70
     1
  9
$DIMTVP
 40
0.0
  9
$DIMTIX
 70
     0
  9
$DIMSOXD
 70
     0
  9
$DIMSAH
 70
     1
  9
$DIMBLK1
  1
OPEN
  9
$DIMBLK2
  1
OPEN
  9
$DIMSTYLE
  2
STANDARD
  9
$DIMCLRD
 70
   256
  9
$DIMCLRE
 70
   256
  9
$DIMCLRT
 70
   256
  9
$DIMTFAC
 40
1.0
  9
$DIMGAP
 40
2.0
  9
$DIMJUST
 70
     0
  9
$DIMSD1
 70
     0
  9
$DIMSD2
 70
     0
  9
$DIMTOLJ
 70
     1
  9
$DIMTZIN
 70
     0
  9
$DIMALTZ
 70
     0
  9
$DIMALTTZ
 70
     0
  9
$DIMFIT
 70
     3
  9
$DIMUPT
 70
     0
  9
$DIMUNIT
 70
     2
  9
$DIMDEC
 70
     0
  9
$DIMTDEC
 70
     0
  9
$DIMALTU
 70
     2
  9
$DIMALTTD
 70
     2
  9
$DIMTXSTY
  7
STANDARD
  9
$DIMAUNIT
 70
     0
  9
$LUNITS
 70
     2
  9
$LUPREC
 70
     4
  9
$SKETCHINC
 40
1.0
  9
$FILLETRAD
 40
20.0
  9
$AUNITS
 70
     0
  9
$AUPREC
 70
     0
  9
$MENU
  1
.
  9
$ELEVATION
 40
0.0
  9
$PELEVATION
 40
0.0
  9
$THICKNESS
 40
0.0
  9
$LIMCHECK
 70
     0
  9
$BLIPMODE
 70
     0
  9
$CHAMFERA
 40
20.0
  9
$CHAMFERB
 40
20.0
  9
$CHAMFERC
 40
40.0
  9
$CHAMFERD
 40
0.0
  9
$SKPOLY
 70
     0
  9
$TDCREATE
 40
2451591.485258449
  9
$TDUPDATE
 40
2453802.488870613
  9
$TDINDWG
 40
0.0529823380
  9
$TDUSRTIMER
 40
0.0529823380
  9
$USRTIMER
 70
     1
  9
$ANGBASE
 50
0.0
  9
$ANGDIR
 70
     0
  9
$PDMODE
 70
     0
  9
$PDSIZE
 40
0.0
  9
$PLINEWID
 40
0.0
  9
$COORDS
 70
     1
  9
$SPLFRAME
 70
     0
  9
$SPLINETYPE
 70
     6
  9
$SPLINESEGS
 70
     8
  9
$ATTDIA
 70
     0
  9
$ATTREQ
 70
     1
  9
$HANDLING
 70
 10241
  9
$HANDSEED
  5
9F9
  9
$SURFTAB1
 70
     6
  9
$SURFTAB2
 70
     6
  9
$SURFTYPE
 70
     6
  9
$SURFU
 70
     6
  9
$SURFV
 70
     6
  9
$UCSNAME
  2

  9
$UCSORG
 10
0.0
 20
0.0
 30
0.0
  9
$UCSXDIR
 10
1.0
 20
0.0
 30
0.0
  9
$UCSYDIR
 10
0.0
 20
1.0
 30
0.0
  9
$PUCSNAME
  2

  9
$PUCSORG
 10
0.0
 20
0.0
 30
0.0
  9
$PUCSXDIR
 10
1.0
 20
0.0
 30
0.0
  9
$PUCSYDIR
 10
0.0
 20
1.0
 30
0.0
  9
$USERI1
 70
     0
  9
$USERI2
 70
     0
  9
$USERI3
 70
     0
  9
$USERI4
 70
     0
  9
$USERI5
 70
     0
  9
$USERR1
 40
0.0
  9
$USERR2
 40
0.0
  9
$USERR3
 40
0.0
  9
$USERR4
 40
0.0
  9
$USERR5
 40
0.0
  9
$WORLDVIEW
 70
     1
  9
$SHADEDGE
 70
     3
  9
$SHADEDIF
 70
    70
  9
$TILEMODE
 70
     1
  9
$MAXACTVP
 70
    16
  9
$PINSBASE
 10
0.0
 20
0.0
 30
0.0
  9
$PLIMCHECK
 70
     0
  9
$PEXTMIN
 10
0.0
 20
0.0
 30
0.0
  9
$PEXTMAX
 10
420.0
 20
297.0
 30
0.0
  9
$PLIMMIN
 10
0.0
 20
0.0
  9
$PLIMMAX
 10
420.0
 20
297.0
  9
$UNITMODE
 70
     0
  9
$VISRETAIN
 70
     0
  9
$PLINEGEN
 70
     0
  9
$PSLTSCALE
 70
     1
  9
$TREEDEPTH
 70
  3020
  9
$PICKSTYLE
 70
     1
  9
$CMLSTYLE
  2
STANDARD
  9
$CMLJUST
 70
     0
  9
$CMLSCALE
 40
1.0
  9
$PROXYGRAPHICS
 70
     1
  9
$MEASUREMENT
 70
     1
  0
ENDSEC
  0
SECTION
  2
CLASSES
  0
CLASS
  1
ACDBDICTIONARYWDFLT
  2
AcDbDictionaryWithDefault
  3
AutoCAD 2000
 90
        0
280
     0
281
     0
  0
CLASS
  1
ACDBPLACEHOLDER
  2
AcDbPlaceHolder
  3
AutoCAD 2000
 90
        0
280
     0
281
     0
  0
CLASS
  1
LAYOUT
  2
AcDbLayout
  3
AutoCAD 2000
 90
        0
280
     0
281
     0
  0
CLASS
  1
LONG_TRANSACTION
  2
AcDbLongTransaction
  3
AutoCAD 2000
 90
        0
280
     0
281
     0
  0
CLASS
  1
LWPOLYLINE
  2
AcDbPolyline
  3
AutoCAD 2000
 90
        0
280
     0
281
     1
  0
CLASS
  1
HATCH
  2
AcDbHatch
  3
AutoCAD 2000
 90
        0
280
     0
281
     1
  0
CLASS
  1
XRECORD
  2
AcDbXrecord
  3
AutoCAD 2000
 90
        0
280
     0
281
     0
  0
CLASS
  1
LONG_TRANSACTION
  2
AcDbLongTransaction
  3
AutoCAD 2000
 90
        0
280
     0
281
     0
  0
CLASS
  1
LWPOLYLINE
  2
AcDbPolyline
  3
AutoCAD 2000
 90
        0
280
     0
281
     1
  0
CLASS
  1
HATCH
  2
AcDbHatch
  3
AutoCAD 2000
 90
        0
280
     0
281
     1
  0
CLASS
  1
XRECORD
  2
AcDbXrecord
  3
AutoCAD 2000
 90
        0
280
     0
281
     0
  0
CLASS
  1
LONG_TRANSACTION
  2
AcDbLongTransaction
  3
AutoCAD 2000
 90
        0
280
     0
281
     0
  0
CLASS
  1
LWPOLYLINE
  2
AcDbPolyline
  3
AutoCAD 2000
 90
        0
280
     0
281
     1
  0
CLASS
  1
HATCH
  2
AcDbHatch
  3
AutoCAD 2000
 90
        0
280
     0
281
     1
  0
CLASS
  1
XRECORD
  2
AcDbXrecord
  3
AutoCAD 2000
 90
        0
280
     0
281
     0
  0
CLASS
  1
LONG_TRANSACTION
  2
AcDbLongTransaction
  3
AutoCAD 2000
 90
        0
280
     0
281
     0
  0
CLASS
  1
LWPOLYLINE
  2
AcDbPolyline
  3
AutoCAD 2000
 90
        0
280
     0
281
     1
  0
CLASS
  1
HATCH
  2
AcDbHatch
  3
AutoCAD 2000
 90
        0
280
     0
281
     1
  0
CLASS
  1
XRECORD
  2
AcDbXrecord
  3
AutoCAD 2000
 90
        0
280
     0
281
     0
  0
CLASS
  1
LONG_TRANSACTION
  2
AcDbLongTransaction
  3
AutoCAD 2000
 90
        0
280
     0
281
     0
  0
CLASS
  1
LWPOLYLINE
  2
AcDbPolyline
  3
AutoCAD 2000
 90
        0
280
     0
281
     1
  0
CLASS
  1
HATCH
  2
AcDbHatch
  3
AutoCAD 2000
 90
        0
280
     0
281
     1
  0
CLASS
  1
XRECORD
  2
AcDbXrecord
  3
AutoCAD 2000
 90
        0
280
     0
281
     0
  0
CLASS
  1
LONG_TRANSACTION
  2
AcDbLongTransaction
  3
AutoCAD 2000
 90
        0
280
     0
281
     0
  0
CLASS
  1
LWPOLYLINE
  2
AcDbPolyline
  3
AutoCAD 2000
 90
        0
280
     0
281
     1
  0
CLASS
  1
HATCH
  2
AcDbHatch
  3
AutoCAD 2000
 90
        0
280
     0
281
     1
  0
CLASS
  1
XRECORD
  2
AcDbXrecord
  3
AutoCAD 2000
 90
        0
280
     0
281
     0
  0
CLASS
  1
LONG_TRANSACTION
  2
AcDbLongTransaction
  3
AutoCAD 2000
 90
        0
280
     0
281
     0
  0
CLASS
  1
LWPOLYLINE
  2
AcDbPolyline
  3
AutoCAD 2000
 90
        0
280
     0
281
     1
  0
CLASS
  1
HATCH
  2
AcDbHatch
  3
AutoCAD 2000
 90
        0
280
     0
281
     1
  0
CLASS
  1
XRECORD
  2
AcDbXrecord
  3
AutoCAD 2000
 90
        0
280
     0
281
     0
  0
CLASS
  1
LONG_TRANSACTION
  2
AcDbLongTransaction
  3
AutoCAD 2000
 90
        0
280
     0
281
     0
  0
CLASS
  1
LWPOLYLINE
  2
AcDbPolyline
  3
AutoCAD 2000
 90
        0
280
     0
281
     1
  0
CLASS
  1
HATCH
  2
AcDbHatch
  3
AutoCAD 2000
 90
        0
280
     0
281
     1
  0
CLASS
  1
XRECORD
  2
AcDbXrecord
  3
AutoCAD 2000
 90
        0
280
     0
281
     0
  0
ENDSEC
  0
SECTION
  2
TABLES
  0
TABLE
  2
VPORT
  5
8
330
0
100
AcDbSymbolTable
 70
     2
  0
VPORT
  5
9C3
330
8
100
AcDbSymbolTableRecord
100
AcDbViewportTableRecord
  2
*ACTIVE
 70
     0
 10
0.0
 20
0.0
 11
1.0
 21
1.0
 12
424.1165144962001
 22
276.4982106655949
 13
0.0
 23
0.0
 14
5.0
 24
5.0
 15
0.0
 25
0.0
 16
0.0
 26
0.0
 36
1.0
 17
0.0
 27
0.0
 37
0.0
 40
615.8761460005628
 41
1.795454545454545
 42
50.0
 43
0.0
 44
0.0
 50
0.0
 51
0.0
 71
     0
 72
   100
 73
     1
 74
     0
 75
     0
 76
     0
 77
     0
 78
     0
  0
ENDTAB
  0
TABLE
  2
LTYPE
  5
5
330
0
100
AcDbSymbolTable
 70
     3
  0
LTYPE
  5
14
330
5
100
AcDbSymbolTableRecord
100
AcDbLinetypeTableRecord
  2
BYBLOCK
 70
     0
  3

 72
    65
 73
     0
 40
0.0
  0
LTYPE
  5
15
330
5
100
AcDbSymbolTableRecord
100
AcDbLinetypeTableRecord
  2
BYLAYER
 70
     0
  3

 72
    65
 73
     0
 40
0.0
  0
LTYPE
  5
16
330
5
100
AcDbSymbolTableRecord
100
AcDbLinetypeTableRecord
  2
CONTINUOUS
 70
     0
  3
Solid line
 72
    65
 73
     0
 40
0.0
  0
LTYPE
  5
115
330
5
100
AcDbSymbolTableRecord
100
AcDbLinetypeTableRecord
  2
PHANTOM
 70
     0
  3
______  __  __  ______  __  __  ______  __  __ 
 72
    65
 73
     6
 40
2.5
 49
1.25
 74
     0
 49
-0.25
 74
     0
 49
0.25
 74
     0
 49
-0.25
 74
     0
 49
0.25
 74
     0
 49
-0.25
 74
     0
  0
LTYPE
  5
135
330
5
100
AcDbSymbolTableRecord
100
AcDbLinetypeTableRecord
  2
CENTER
 70
     0
  3
____ _ ____ _ ____ _ ____ _ ____ _ ____ _ ____ 
 72
    65
 73
     4
 40
2.0
 49
1.25
 74
     0
 49
-0.25
 74
     0
 49
0.25
 74
     0
 49
-0.25
 74
     0
  0
ENDTAB
  0
TABLE
  2
LAYER
  5
2
330
0
100
AcDbSymbolTable
 70
     9
  0
LAYER
  5
F
330
2
100
AcDbSymbolTableRecord
100
AcDbLayerTableRecord
  2
0
 70
     0
 62
     7
  6
CONTINUOUS
  0
LAYER
  5
62
330
2
100
AcDbSymbolTableRecord
100
AcDbLayerTableRecord
  2
VIEWPORT
 70
     0
 62
     7
  6
CONTINUOUS
  0
LAYER
  5
65
330
2
100
AcDbSymbolTableRecord
100
AcDbLayerTableRecord
  2
ZUWAKU
 70
     0
 62
     7
  6
CONTINUOUS
  0
LAYER
  5
17C
330
2
100
AcDbSymbolTableRecord
100
AcDbLayerTableRecord
  2
DEFPOINTS
 70
     0
 62
     7
  6
CONTINUOUS
  0
LAYER
  5
17D
330
2
100
AcDbSymbolTableRecord
100
AcDbLayerTableRecord
  2
SEIHIN
 70
     0
 62
     3
  6
CONTINUOUS
  0
LAYER
  5
17E
330
2
100
AcDbSymbolTableRecord
100
AcDbLayerTableRecord
  2
SUNPOU
 70
     0
 62
     4
  6
CONTINUOUS
  0
LAYER
  5
17F
330
2
100
AcDbSymbolTableRecord
100
AcDbLayerTableRecord
  2
CENTER_L
 70
     0
 62
     1
  6
CENTER
  0
LAYER
  5
180
330
2
100
AcDbSymbolTableRecord
100
AcDbLayerTableRecord
  2
NOKITOI
 70
     0
 62
     8
  6
PHANTOM
  0
LAYER
  5
84E
330
2
100
AcDbSymbolTableRecord
100
AcDbLayerTableRecord
  2
MOJI
 70
     0
 62
     2
  6
CONTINUOUS
  0
ENDTAB
  0
TABLE
  2
STYLE
  5
3
330
0
100
AcDbSymbolTable
 70
     2
  0
STYLE
  5
10
330
3
100
AcDbSymbolTableRecord
100
AcDbTextStyleTableRecord
  2
STANDARD
 70
     0
 40
0.0
 41
1.0
 50
0.0
 71
     0
 42
5.0
  3
TXT
  4
c:\PROGRAM FILES\AUTOCAD LT\ms\bigfont.shx
  0
STYLE
  5
84F
330
3
100
AcDbSymbolTableRecord
100
AcDbTextStyleTableRecord
  2
ｽﾀｲﾙ1
 70
     0
 40
0.0
 41
1.0
 50
0.0
 71
     0
 42
2.5
  3
MS PGothic.ttf
  4

1001
ACAD
1000
MS PGothic
1071
    32818
  0
ENDTAB
  0
TABLE
  2
VIEW
  5
6
330
0
100
AcDbSymbolTable
 70
     0
  0
ENDTAB
  0
TABLE
  2
UCS
  5
7
330
0
100
AcDbSymbolTable
 70
     0
  0
ENDTAB
  0
TABLE
  2
APPID
  5
9
330
0
100
AcDbSymbolTable
 70
     1
  0
APPID
  5
11
330
9
100
AcDbSymbolTableRecord
100
AcDbRegAppTableRecord
  2
ACAD
 70
     0
  0
ENDTAB
  0
TABLE
  2
DIMSTYLE
  5
A
330
0
100
AcDbSymbolTable
 70
     1
  0
DIMSTYLE
105
1D
102
{ACAD_REACTORS
330
3F0
330
402
330
425
330
434
330
44A
330
457
330
464
330
4B1
330
4BF
330
4CC
102
}
330
A
100
AcDbSymbolTableRecord
100
AcDbDimStyleTableRecord
  2
STANDARD
 70
     0
  3

  4

  5

  6

  7

 40
1.0
 41
0.18
 42
0.0625
 43
0.38
 44
0.18
 45
0.0
 46
0.0
 47
0.0
 48
0.0
140
0.18
141
0.09
142
0.0
143
25.4
144
1.0
145
0.0
146
1.0
147
0.09
 71
     0
 72
     0
 73
     1
 74
     1
 75
     0
 76
     0
 77
     0
 78
     0
170
     0
171
     2
172
     0
173
     0
174
     0
175
     0
176
     0
177
     0
178
     0
270
     2
271
     4
272
     4
273
     2
274
     2
340
10
275
     0
280
     0
281
     0
282
     0
283
     1
284
     0
285
     0
286
     0
287
     3
288
     0
  0
ENDTAB
  0
TABLE
  2
BLOCK_RECORD
  5
1
330
0
100
AcDbSymbolTable
 70
    11
  0
BLOCK_RECORD
  5
1A
102
{ACAD_XDICTIONARY
360
506
102
}
330
1
100
AcDbSymbolTableRecord
100
AcDbBlockTableRecord
  2
*MODEL_SPACE
  0
BLOCK_RECORD
  5
17
102
{ACAD_XDICTIONARY
360
504
102
}
330
1
100
AcDbSymbolTableRecord
100
AcDbBlockTableRecord
  2
*PAPER_SPACE
  0
BLOCK_RECORD
  5
6D
330
1
100
AcDbSymbolTableRecord
100
AcDbBlockTableRecord
  2
_OPEN
  0
BLOCK_RECORD
  5
3F1
330
1
100
AcDbSymbolTableRecord
100
AcDbBlockTableRecord
  2
*D1
  0
BLOCK_RECORD
  5
403
330
1
100
AcDbSymbolTableRecord
100
AcDbBlockTableRecord
  2
*D2
  0
BLOCK_RECORD
  5
426
330
1
100
AcDbSymbolTableRecord
100
AcDbBlockTableRecord
  2
*D3
  0
BLOCK_RECORD
  5
435
330
1
100
AcDbSymbolTableRecord
100
AcDbBlockTableRecord
  2
*D4
  0
BLOCK_RECORD
  5
44B
330
1
100
AcDbSymbolTableRecord
100
AcDbBlockTableRecord
  2
*D5
  0
BLOCK_RECORD
  5
458
330
1
100
AcDbSymbolTableRecord
100
AcDbBlockTableRecord
  2
*D6
  0
BLOCK_RECORD
  5
465
330
1
100
AcDbSymbolTableRecord
100
AcDbBlockTableRecord
  2
*D7
  0
BLOCK_RECORD
  5
4B2
330
1
100
AcDbSymbolTableRecord
100
AcDbBlockTableRecord
  2
*D8
  0
BLOCK_RECORD
  5
4C0
330
1
100
AcDbSymbolTableRecord
100
AcDbBlockTableRecord
  2
*D9
  0
BLOCK_RECORD
  5
4CD
330
1
100
AcDbSymbolTableRecord
100
AcDbBlockTableRecord
  2
*D10
  0
ENDTAB
  0
ENDSEC
  0
SECTION
  2
BLOCKS
  0
BLOCK
  5
1B
330
1A
100
AcDbEntity
  8
0
100
AcDbBlockBegin
  2
*MODEL_SPACE
 70
     0
 10
0.0
 20
0.0
 30
0.0
  3
*MODEL_SPACE
  1

  0
ENDBLK
  5
1C
330
1A
100
AcDbEntity
  8
0
100
AcDbBlockEnd
  0
BLOCK
  5
18
330
17
100
AcDbEntity
 67
     1
  8
0
100
AcDbBlockBegin
  2
*PAPER_SPACE
 70
     0
 10
0.0
 20
0.0
 30
0.0
  3
*PAPER_SPACE
  1

  0
ENDBLK
  5
19
330
17
100
AcDbEntity
 67
     1
  8
0
100
AcDbBlockEnd
  0
BLOCK
  5
6E
330
6D
100
AcDbEntity
  8
0
100
AcDbBlockBegin
  2
_OPEN
 70
     0
 10
0.0
 20
0.0
 30
0.0
  3
_OPEN
  1

  0
LINE
  5
6F
330
6D
100
AcDbEntity
  8
0
  6
BYBLOCK
 62
     0
100
AcDbLine
 10
-1.0
 20
0.1666666666666666
 30
0.0
 11
0.0
 21
0.0
 31
0.0
  0
LINE
  5
70
330
6D
100
AcDbEntity
  8
0
  6
BYBLOCK
 62
     0
100
AcDbLine
 10
0.0
 20
0.0
 30
0.0
 11
-1.0
 21
-0.1666666666666666
 31
0.0
  0
LINE
  5
71
330
6D
100
AcDbEntity
  8
0
  6
BYBLOCK
 62
     0
100
AcDbLine
 10
0.0
 20
0.0
 30
0.0
 11
-1.0
 21
0.0
 31
0.0
  0
ENDBLK
  5
72
330
6D
100
AcDbEntity
  8
0
100
AcDbBlockEnd
  0
BLOCK
  5
3FC
330
3F1
100
AcDbEntity
  8
0
100
AcDbBlockBegin
  2
*D1
 70
     1
 10
0.0
 20
0.0
 30
0.0
  3
*D1
  1

  0
LINE
  5
5FB
330
3F1
100
AcDbEntity
  8
SUNPOU
100
AcDbLine
 10
586.2846516852457
 20
287.2031982272525
 30
0.0
 11
618.482084576353
 21
300.2118036569133
 31
0.0
  0
LINE
  5
5FC
330
3F1
100
AcDbEntity
  8
SUNPOU
100
AcDbLine
 10
590.5926269643639
 20
276.5405837221115
 30
0.0
 11
622.7900598554712
 21
289.5491891517725
 31
0.0
  0
LINE
  5
5FD
330
3F1
100
AcDbEntity
  8
SUNPOU
100
AcDbLine
 10
616.8243525986484
 20
296.3064323954204
 30
0.0
 11
618.8846885939782
 21
291.2069211294771
 31
0.0
  0
LINE
  5
5FE
330
3F1
100
AcDbEntity
  8
SUNPOU
100
AcDbLine
 10
620.0085082358724
 20
288.4253695098783
 30
0.0
 11
625.6276064453431
 21
274.5176114118841
 31
0.0
  0
INSERT
  5
5FF
330
3F1
100
AcDbEntity
  8
SUNPOU
100
AcDbBlockReference
  2
_OPEN
 10
615.7005329567542
 20
299.0879840150192
 30
0.0
 41
3.0
 42
3.0
 43
3.0
 50
111.9999971501244
  0
INSERT
  5
600
330
3F1
100
AcDbEntity
  8
SUNPOU
100
AcDbBlockReference
  2
_OPEN
 10
620.0085082358724
 20
288.4253695098783
 30
0.0
 41
3.0
 42
3.0
 43
3.0
 50
291.9999971501244
  0
MTEXT
  5
601
330
3F1
100
AcDbEntity
  8
SUNPOU
100
AcDbMText
 10
628.0158865275527
 20
281.9537473875722
 30
0.0
 40
6.0
 41
0.0
 71
     5
 72
     5
  1
\A1;12
 11
0.3746065472980535
 21
-0.9271838731996103
 31
0.0
1001
ACAD
1000
MTEXTBEGIN
1070
    73
1070
     1
1070
    44
1040
1.0
1070
    74
1070
     0
1000
MTEXTEND
1000
MTEXTBEGIN
1070
    73
1070
     1
1070
    44
1040
1.0
1070
    74
1070
     0
1000
MTEXTEND
1000
MTEXTBEGIN
1070
    73
1070
     1
1070
    44
1040
1.0
1070
    74
1070
     0
1000
MTEXTEND
1000
MTEXTBEGIN
1070
    73
1070
     1
1070
    44
1040
1.0
1070
    74
1070
     0
1000
MTEXTEND
1000
MTEXTBEGIN
1070
    73
1070
     1
1070
    44
1040
1.0
1070
    74
1070
     0
1000
MTEXTEND
1000
MTEXTBEGIN
1070
    73
1070
     1
1070
    44
1040
1.0
1070
    74
1070
     0
1000
MTEXTEND
1000
MTEXTBEGIN
1070
    73
1070
     1
1070
    44
1040
1.0
1070
    74
1070
     0
1000
MTEXTEND
  0
POINT
  5
602
330
3F1
100
AcDbEntity
  8
DEFPOINTS
 62
     0
100
AcDbPoint
 10
580.7215484460479
 20
284.9555589434642
 30
0.0
  0
POINT
  5
603
330
3F1
100
AcDbEntity
  8
DEFPOINTS
 62
     0
100
AcDbPoint
 10
585.0295237251661
 20
274.2929444383232
 30
0.0
  0
POINT
  5
604
330
3F1
100
AcDbEntity
  8
DEFPOINTS
 62
     0
100
AcDbPoint
 10
620.0085082358724
 20
288.4253695098783
 30
0.0
  0
ENDBLK
  5
3FD
330
3F1
100
AcDbEntity
  8
0
100
AcDbBlockEnd
  0
BLOCK
  5
40D
330
403
100
AcDbEntity
  8
0
100
AcDbBlockBegin
  2
*D2
 70
     1
 10
0.0
 20
0.0
 30
0.0
  3
*D2
  1

  0
LINE
  5
5B2
330
403
100
AcDbEntity
  8
SUNPOU
100
AcDbLine
 10
345.741427100908
 20
177.3446393105408
 30
0.0
 11
371.5791354381231
 21
113.3940673721269
 31
0.0
  0
LINE
  5
5B3
330
403
100
AcDbEntity
  8
SUNPOU
100
AcDbLine
 10
586.8092291351668
 20
274.7423539776282
 30
0.0
 11
612.646937472382
 21
210.7917820392143
 31
0.0
  0
LINE
  5
5B4
330
403
100
AcDbEntity
  8
SUNPOU
100
AcDbLine
 10
373.2368672154366
 20
117.2994387186809
 30
0.0
 11
608.7415661258278
 21
212.4495138165278
 31
0.0
  0
INSERT
  5
5B5
330
403
100
AcDbEntity
  8
SUNPOU
100
AcDbBlockReference
  2
_OPEN
 10
370.4553156535029
 20
116.1756189340606
 30
0.0
 41
3.0
 42
3.0
 43
3.0
 50
202.000000090067
  0
INSERT
  5
5B6
330
403
100
AcDbEntity
  8
SUNPOU
100
AcDbBlockReference
  2
_OPEN
 10
611.5231176877617
 20
213.573333601148
 30
0.0
 41
3.0
 42
3.0
 43
3.0
 50
22.000000090067
  0
MTEXT
  5
5B7
330
403
100
AcDbEntity
  8
SUNPOU
100
AcDbMText
 10
489.1161836962651
 20
169.5103955374939
 30
0.0
 40
6.0
 41
0.0
 71
     5
 72
     5
  1
\A1;260
 11
0.9271838539779187
 21
0.3746065948734133
 31
0.0
1001
ACAD
1000
MTEXTBEGIN
1070
    73
1070
     1
1070
    44
1040
1.0
1070
    74
1070
     0
1000
MTEXTEND
1000
MTEXTBEGIN
1070
    73
1070
     1
1070
    44
1040
1.0
1070
    74
1070
     0
1000
MTEXTEND
1000
MTEXTBEGIN
1070
    73
1070
     1
1070
    44
1040
1.0
1070
    74
1070
     0
1000
MTEXTEND
1000
MTEXTBEGIN
1070
    73
1070
     1
1070
    44
1040
1.0
1070
    74
1070
     0
1000
MTEXTEND
1000
MTEXTBEGIN
1070
    73
1070
     1
1070
    44
1040
1.0
1070
    74
1070
     0
1000
MTEXTEND
1000
MTEXTBEGIN
1070
    73
1070
     1
1070
    44
1040
1.0
1070
    74
1070
     0
1000
MTEXTEND
1000
MTEXTBEGIN
1070
    73
1070
     1
1070
    44
1040
1.0
1070
    74
1070
     0
1000
MTEXTEND
  0
POINT
  5
5B8
330
403
100
AcDbEntity
  8
DEFPOINTS
 62
     0
100
AcDbPoint
 10
343.4937875316675
 20
182.9077424344083
 30
0.0
  0
POINT
  5
5B9
330
403
100
AcDbEntity
  8
DEFPOINTS
 62
     0
100
AcDbPoint
 10
584.5615895659263
 20
280.3054571014957
 30
0.0
  0
POINT
  5
5BA
330
403
100
AcDbEntity
  8
DEFPOINTS
 62
     0
100
AcDbPoint
 10
611.5231176877617
 20
213.573333601148
 30
0.0
  0
ENDBLK
  5
40E
330
403
100
AcDbEntity
  8
0
100
AcDbBlockEnd
  0
BLOCK
  5
432
330
426
100
AcDbEntity
  8
0
100
AcDbBlockBegin
  2
*D3
 70
     1
 10
0.0
 20
0.0
 30
0.0
  3
*D3
  1

  0
LINE
  5
605
330
426
100
AcDbEntity
  8
SUNPOU
100
AcDbLine
 10
591.2897494910692
 20
415.817209524638
 30
0.0
 11
624.2980384978118
 21
415.817209524638
 31
0.0
  0
LINE
  5
606
330
426
100
AcDbEntity
  8
SUNPOU
100
AcDbLine
 10
591.2897494910692
 20
410.8172095246381
 30
0.0
 11
624.2980384978118
 21
410.8172095246381
 31
0.0
  0
LINE
  5
607
330
426
100
AcDbEntity
  8
SUNPOU
100
AcDbLine
 10
621.2980384978118
 20
418.8172095246381
 30
0.0
 11
621.2980384978118
 21
421.817209524638
 31
0.0
  0
LINE
  5
608
330
426
100
AcDbEntity
  8
SUNPOU
100
AcDbLine
 10
621.2980384978118
 20
407.817209524638
 30
0.0
 11
621.2980384978118
 21
396.817209524638
 31
0.0
  0
LINE
  5
609
330
426
100
AcDbEntity
  8
SUNPOU
100
AcDbLine
 10
621.2980384978118
 20
415.817209524638
 30
0.0
 11
621.2980384978118
 21
410.8172095246381
 31
0.0
  0
INSERT
  5
60A
330
426
100
AcDbEntity
  8
SUNPOU
100
AcDbBlockReference
  2
_OPEN
 10
621.2980384978118
 20
415.817209524638
 30
0.0
 41
3.0
 42
3.0
 43
3.0
 50
270.0
  0
INSERT
  5
60B
330
426
100
AcDbEntity
  8
SUNPOU
100
AcDbBlockReference
  2
_OPEN
 10
621.2980384978118
 20
410.8172095246381
 30
0.0
 41
3.0
 42
3.0
 43
3.0
 50
90.0
  0
MTEXT
  5
60C
330
426
100
AcDbEntity
  8
SUNPOU
100
AcDbMText
 10
616.2980384978117
 20
400.8172095246381
 30
0.0
 40
6.0
 41
0.0
 71
     5
 72
     5
  1
\A1;5
 11
0.0000000000000001
 21
1.0
 31
0.0
1001
ACAD
1000
MTEXTBEGIN
1070
    73
1070
     1
1070
    44
1040
1.0
1070
    74
1070
     0
1000
MTEXTEND
1000
MTEXTBEGIN
1070
    73
1070
     1
1070
    44
1040
1.0
1070
    74
1070
     0
1000
MTEXTEND
1000
MTEXTBEGIN
1070
    73
1070
     1
1070
    44
1040
1.0
1070
    74
1070
     0
1000
MTEXTEND
1000
MTEXTBEGIN
1070
    73
1070
     1
1070
    44
1040
1.0
1070
    74
1070
     0
1000
MTEXTEND
1000
MTEXTBEGIN
1070
    73
1070
     1
1070
    44
1040
1.0
1070
    74
1070
     0
1000
MTEXTEND
1000
MTEXTBEGIN
1070
    73
1070
     1
1070
    44
1040
1.0
1070
    74
1070
     0
1000
MTEXTEND
1000
MTEXTBEGIN
1070
    73
1070
     1
1070
    44
1040
1.0
1070
    74
1070
     0
1000
MTEXTEND
  0
POINT
  5
60D
330
426
100
AcDbEntity
  8
DEFPOINTS
 62
     0
100
AcDbPoint
 10
585.2897494910691
 20
415.817209524638
 30
0.0
  0
POINT
  5
60E
330
426
100
AcDbEntity
  8
DEFPOINTS
 62
     0
100
AcDbPoint
 10
585.2897494910691
 20
410.8172095246381
 30
0.0
  0
POINT
  5
60F
330
426
100
AcDbEntity
  8
DEFPOINTS
 62
     0
100
AcDbPoint
 10
621.2980384978118
 20
410.8172095246381
 30
0.0
  0
ENDBLK
  5
433
330
426
100
AcDbEntity
  8
0
100
AcDbBlockEnd
  0
BLOCK
  5
43F
330
435
100
AcDbEntity
  8
0
100
AcDbBlockBegin
  2
*D4
 70
     1
 10
0.0
 20
0.0
 30
0.0
  3
*D4
  1

  0
LINE
  5
712
330
435
100
AcDbEntity
  8
SUNPOU
100
AcDbLine
 10
341.7925870120749
 20
233.586185883421
 30
0.0
 11
235.3946534004763
 21
233.5861858834211
 31
0.0
  0
LINE
  5
713
330
435
100
AcDbEntity
  8
SUNPOU
100
AcDbLine
 10
364.5425870120748
 20
163.3861858837495
 30
0.0
 11
235.3946534004762
 21
163.3861858837496
 31
0.0
  0
LINE
  5
714
330
435
100
AcDbEntity
  8
SUNPOU
100
AcDbLine
 10
238.3946534004762
 20
230.5861858834211
 30
0.0
 11
238.3946534004762
 21
166.3861858837496
 31
0.0
  0
INSERT
  5
715
330
435
100
AcDbEntity
  8
SUNPOU
100
AcDbBlockReference
  2
_OPEN
 10
238.3946534004762
 20
233.5861858834211
 30
0.0
 41
3.0
 42
3.0
 43
3.0
 50
90.0
  0
INSERT
  5
716
330
435
100
AcDbEntity
  8
SUNPOU
100
AcDbBlockReference
  2
_OPEN
 10
238.3946534004762
 20
163.3861858837496
 30
0.0
 41
3.0
 42
3.0
 43
3.0
 50
270.0
  0
MTEXT
  5
717
330
435
100
AcDbEntity
  8
SUNPOU
100
AcDbMText
 10
233.3946534004762
 20
198.4861858835854
 30
0.0
 40
6.0
 41
0.0
 71
     5
 72
     5
  1
\A1;H
 11
0.0000000000000001
 21
1.0
 31
0.0
1001
ACAD
1000
MTEXTBEGIN
1070
    73
1070
     1
1070
    44
1040
1.0
1070
    74
1070
     0
1000
MTEXTEND
1000
MTEXTBEGIN
1070
    73
1070
     1
1070
    44
1040
1.0
1070
    74
1070
     0
1000
MTEXTEND
1000
MTEXTBEGIN
1070
    73
1070
     1
1070
    44
1040
1.0
1070
    74
1070
     0
1000
MTEXTEND
1000
MTEXTBEGIN
1070
    73
1070
     1
1070
    44
1040
1.0
1070
    74
1070
     0
1000
MTEXTEND
1000
MTEXTBEGIN
1070
    73
1070
     1
1070
    44
1040
1.0
1070
    74
1070
     0
1000
MTEXTEND
  0
POINT
  5
718
330
435
100
AcDbEntity
  8
DEFPOINTS
 62
     0
100
AcDbPoint
 10
347.7925870120749
 20
233.586185883421
 30
0.0
  0
POINT
  5
719
330
435
100
AcDbEntity
  8
DEFPOINTS
 62
     0
100
AcDbPoint
 10
370.5425870120748
 20
163.3861858837495
 30
0.0
  0
POINT
  5
71A
330
435
100
AcDbEntity
  8
DEFPOINTS
 62
     0
100
AcDbPoint
 10
238.3946534004762
 20
163.3861858837496
 30
0.0
  0
ENDBLK
  5
440
330
435
100
AcDbEntity
  8
0
100
AcDbBlockEnd
  0
BLOCK
  5
455
330
44B
100
AcDbEntity
  8
0
100
AcDbBlockBegin
  2
*D5
 70
     1
 10
0.0
 20
0.0
 30
0.0
  3
*D5
  1

  0
LINE
  5
5C4
330
44B
100
AcDbEntity
  8
SUNPOU
100
AcDbLine
 10
341.7925870120749
 20
233.586185883421
 30
0.0
 11
235.3946534004762
 21
233.5861858834211
 31
0.0
  0
LINE
  5
5C5
330
44B
100
AcDbEntity
  8
SUNPOU
100
AcDbLine
 10
279.092587012075
 20
319.586185883421
 30
0.0
 11
235.3946534004762
 21
319.586185883421
 31
0.0
  0
LINE
  5
5C6
330
44B
100
AcDbEntity
  8
SUNPOU
100
AcDbLine
 10
238.3946534004762
 20
236.5861858834211
 30
0.0
 11
238.3946534004762
 21
316.586185883421
 31
0.0
  0
INSERT
  5
5C7
330
44B
100
AcDbEntity
  8
SUNPOU
100
AcDbBlockReference
  2
_OPEN
 10
238.3946534004762
 20
233.5861858834211
 30
0.0
 41
3.0
 42
3.0
 43
3.0
 50
270.0
  0
INSERT
  5
5C8
330
44B
100
AcDbEntity
  8
SUNPOU
100
AcDbBlockReference
  2
_OPEN
 10
238.3946534004762
 20
319.586185883421
 30
0.0
 41
3.0
 42
3.0
 43
3.0
 50
90.0
  0
MTEXT
  5
5C9
330
44B
100
AcDbEntity
  8
SUNPOU
100
AcDbMText
 10
233.3946534004762
 20
276.5861858834211
 30
0.0
 40
6.0
 41
0.0
 71
     5
 72
     5
  1
\A1;86
 11
0.0000000000000001
 21
1.0
 31
0.0
1001
ACAD
1000
MTEXTBEGIN
1070
    73
1070
     1
1070
    44
1040
1.0
1070
    74
1070
     0
1000
MTEXTEND
1000
MTEXTBEGIN
1070
    73
1070
     1
1070
    44
1040
1.0
1070
    74
1070
     0
1000
MTEXTEND
1000
MTEXTBEGIN
1070
    73
1070
     1
1070
    44
1040
1.0
1070
    74
1070
     0
1000
MTEXTEND
1000
MTEXTBEGIN
1070
    73
1070
     1
1070
    44
1040
1.0
1070
    74
1070
     0
1000
MTEXTEND
1000
MTEXTBEGIN
1070
    73
1070
     1
1070
    44
1040
1.0
1070
    74
1070
     0
1000
MTEXTEND
1000
MTEXTBEGIN
1070
    73
1070
     1
1070
    44
1040
1.0
1070
    74
1070
     0
1000
MTEXTEND
1000
MTEXTBEGIN
1070
    73
1070
     1
1070
    44
1040
1.0
1070
    74
1070
     0
1000
MTEXTEND
  0
POINT
  5
5CA
330
44B
100
AcDbEntity
  8
DEFPOINTS
 62
     0
100
AcDbPoint
 10
347.7925870120749
 20
233.586185883421
 30
0.0
  0
POINT
  5
5CB
330
44B
100
AcDbEntity
  8
DEFPOINTS
 62
     0
100
AcDbPoint
 10
285.092587012075
 20
319.586185883421
 30
0.0
  0
POINT
  5
5CC
330
44B
100
AcDbEntity
  8
DEFPOINTS
 62
     0
100
AcDbPoint
 10
238.3946534004762
 20
319.586185883421
 30
0.0
  0
ENDBLK
  5
456
330
44B
100
AcDbEntity
  8
0
100
AcDbBlockEnd
  0
BLOCK
  5
462
330
458
100
AcDbEntity
  8
0
100
AcDbBlockBegin
  2
*D6
 70
     1
 10
0.0
 20
0.0
 30
0.0
  3
*D6
  1

  0
LINE
  5
5D6
330
458
100
AcDbEntity
  8
SUNPOU
100
AcDbLine
 10
279.092587012075
 20
424.317209524638
 30
0.0
 11
235.3946534004763
 21
424.317209524638
 31
0.0
  0
LINE
  5
5D7
330
458
100
AcDbEntity
  8
SUNPOU
100
AcDbLine
 10
279.092587012075
 20
402.317209524638
 30
0.0
 11
235.3946534004763
 21
402.317209524638
 31
0.0
  0
LINE
  5
5D8
330
458
100
AcDbEntity
  8
SUNPOU
100
AcDbLine
 10
238.3946534004763
 20
421.317209524638
 30
0.0
 11
238.3946534004763
 21
405.317209524638
 31
0.0
  0
INSERT
  5
5D9
330
458
100
AcDbEntity
  8
SUNPOU
100
AcDbBlockReference
  2
_OPEN
 10
238.3946534004763
 20
424.317209524638
 30
0.0
 41
3.0
 42
3.0
 43
3.0
 50
90.0
  0
INSERT
  5
5DA
330
458
100
AcDbEntity
  8
SUNPOU
100
AcDbBlockReference
  2
_OPEN
 10
238.3946534004763
 20
402.317209524638
 30
0.0
 41
3.0
 42
3.0
 43
3.0
 50
270.0
  0
MTEXT
  5
5DB
330
458
100
AcDbEntity
  8
SUNPOU
100
AcDbMText
 10
233.3946534004762
 20
413.317209524638
 30
0.0
 40
6.0
 41
0.0
 71
     5
 72
     5
  1
\A1;22
 11
0.0000000000000001
 21
1.0
 31
0.0
1001
ACAD
1000
MTEXTBEGIN
1070
    73
1070
     1
1070
    44
1040
1.0
1070
    74
1070
     0
1000
MTEXTEND
1000
MTEXTBEGIN
1070
    73
1070
     1
1070
    44
1040
1.0
1070
    74
1070
     0
1000
MTEXTEND
1000
MTEXTBEGIN
1070
    73
1070
     1
1070
    44
1040
1.0
1070
    74
1070
     0
1000
MTEXTEND
1000
MTEXTBEGIN
1070
    73
1070
     1
1070
    44
1040
1.0
1070
    74
1070
     0
1000
MTEXTEND
1000
MTEXTBEGIN
1070
    73
1070
     1
1070
    44
1040
1.0
1070
    74
1070
     0
1000
MTEXTEND
1000
MTEXTBEGIN
1070
    73
1070
     1
1070
    44
1040
1.0
1070
    74
1070
     0
1000
MTEXTEND
1000
MTEXTBEGIN
1070
    73
1070
     1
1070
    44
1040
1.0
1070
    74
1070
     0
1000
MTEXTEND
  0
POINT
  5
5DC
330
458
100
AcDbEntity
  8
DEFPOINTS
 62
     0
100
AcDbPoint
 10
285.092587012075
 20
424.317209524638
 30
0.0
  0
POINT
  5
5DD
330
458
100
AcDbEntity
  8
DEFPOINTS
 62
     0
100
AcDbPoint
 10
285.092587012075
 20
402.317209524638
 30
0.0
  0
POINT
  5
5DE
330
458
100
AcDbEntity
  8
DEFPOINTS
 62
     0
100
AcDbPoint
 10
238.3946534004763
 20
402.317209524638
 30
0.0
  0
ENDBLK
  5
463
330
458
100
AcDbEntity
  8
0
100
AcDbBlockEnd
  0
BLOCK
  5
46F
330
465
100
AcDbEntity
  8
0
100
AcDbBlockBegin
  2
*D7
 70
     1
 10
0.0
 20
0.0
 30
0.0
  3
*D7
  1

  0
LINE
  5
5BB
330
465
100
AcDbEntity
  8
SUNPOU
100
AcDbLine
 10
285.092587012075
 20
325.586185883421
 30
0.0
 11
285.092587012075
 21
358.0470422207702
 31
0.0
  0
LINE
  5
5BC
330
465
100
AcDbEntity
  8
SUNPOU
100
AcDbLine
 10
408.4925870120749
 20
294.797510883421
 30
0.0
 11
408.4925870120749
 21
358.0470422207702
 31
0.0
  0
LINE
  5
5BD
330
465
100
AcDbEntity
  8
SUNPOU
100
AcDbLine
 10
288.092587012075
 20
355.0470422207702
 30
0.0
 11
405.4925870120749
 21
355.0470422207702
 31
0.0
  0
INSERT
  5
5BE
330
465
100
AcDbEntity
  8
SUNPOU
100
AcDbBlockReference
  2
_OPEN
 10
285.092587012075
 20
355.0470422207702
 30
0.0
 41
3.0
 42
3.0
 43
3.0
 50
180.0
  0
INSERT
  5
5BF
330
465
100
AcDbEntity
  8
SUNPOU
100
AcDbBlockReference
  2
_OPEN
 10
408.4925870120749
 20
355.0470422207702
 30
0.0
 41
3.0
 42
3.0
 43
3.0
  0
MTEXT
  5
5C0
330
465
100
AcDbEntity
  8
SUNPOU
100
AcDbMText
 10
346.7925870120749
 20
360.0470422207702
 30
0.0
 40
6.0
 41
0.0
 71
     5
 72
     5
  1
\A1;123
1001
ACAD
1000
MTEXTBEGIN
1070
    73
1070
     1
1070
    44
1040
1.0
1070
    74
1070
     0
1000
MTEXTEND
1000
MTEXTBEGIN
1070
    73
1070
     1
1070
    44
1040
1.0
1070
    74
1070
     0
1000
MTEXTEND
1000
MTEXTBEGIN
1070
    73
1070
     1
1070
    44
1040
1.0
1070
    74
1070
     0
1000
MTEXTEND
1000
MTEXTBEGIN
1070
    73
1070
     1
1070
    44
1040
1.0
1070
    74
1070
     0
1000
MTEXTEND
1000
MTEXTBEGIN
1070
    73
1070
     1
1070
    44
1040
1.0
1070
    74
1070
     0
1000
MTEXTEND
1000
MTEXTBEGIN
1070
    73
1070
     1
1070
    44
1040
1.0
1070
    74
1070
     0
1000
MTEXTEND
1000
MTEXTBEGIN
1070
    73
1070
     1
1070
    44
1040
1.0
1070
    74
1070
     0
1000
MTEXTEND
  0
POINT
  5
5C1
330
465
100
AcDbEntity
  8
DEFPOINTS
 62
     0
100
AcDbPoint
 10
285.092587012075
 20
319.586185883421
 30
0.0
  0
POINT
  5
5C2
330
465
100
AcDbEntity
  8
DEFPOINTS
 62
     0
100
AcDbPoint
 10
408.4925870120749
 20
288.797510883421
 30
0.0
  0
POINT
  5
5C3
330
465
100
AcDbEntity
  8
DEFPOINTS
 62
     0
100
AcDbPoint
 10
408.4925870120749
 20
355.0470422207702
 30
0.0
  0
ENDBLK
  5
470
330
465
100
AcDbEntity
  8
0
100
AcDbBlockEnd
  0
BLOCK
  5
4BD
330
4B2
100
AcDbEntity
  8
0
100
AcDbBlockBegin
  2
*D8
 70
     1
 10
0.0
 20
0.0
 30
0.0
  3
*D8
  1

  0
LINE
  5
5F1
330
4B2
100
AcDbEntity
  8
SUNPOU
100
AcDbLine
 10
570.8881219680015
 20
287.4538051987059
 30
0.0
 11
564.9959158094232
 21
302.0375271334176
 31
0.0
  0
LINE
  5
5F2
330
4B2
100
AcDbEntity
  8
SUNPOU
100
AcDbLine
 10
580.1599605495229
 20
291.1998711643049
 30
0.0
 11
574.2677543909446
 21
305.7835930990166
 31
0.0
  0
LINE
  5
5F3
330
4B2
100
AcDbEntity
  8
SUNPOU
100
AcDbLine
 10
568.9012871559773
 20
300.379795356104
 30
0.0
 11
572.6100226136311
 21
301.8782217524626
 31
0.0
  0
LINE
  5
5F4
330
4B2
100
AcDbEntity
  8
SUNPOU
100
AcDbLine
 10
575.3915741755649
 20
303.0020415370829
 30
0.0
 11
588.3721481312557
 21
308.2465338653107
 31
0.0
  0
INSERT
  5
5F5
330
4B2
100
AcDbEntity
  8
SUNPOU
100
AcDbBlockReference
  2
_OPEN
 10
566.1197355940434
 20
299.2559755714838
 30
0.0
 41
3.0
 42
3.0
 43
3.0
 50
202.0000000900671
  0
INSERT
  5
5F6
330
4B2
100
AcDbEntity
  8
SUNPOU
100
AcDbBlockReference
  2
_OPEN
 10
575.3915741755649
 20
303.0020415370829
 30
0.0
 41
3.0
 42
3.0
 43
3.0
 50
22.0000000900671
  0
MTEXT
  5
5F7
330
4B2
100
AcDbEntity
  8
SUNPOU
100
AcDbMText
 10
581.39960396001
 20
310.8221168633965
 30
0.0
 40
6.0
 41
0.0
 71
     5
 72
     5
  1
\A1;10
 11
0.927183853977918
 21
0.374606594873415
 31
0.0
1001
ACAD
1000
MTEXTBEGIN
1070
    73
1070
     1
1070
    44
1040
1.0
1070
    74
1070
     0
1000
MTEXTEND
1000
MTEXTBEGIN
1070
    73
1070
     1
1070
    44
1040
1.0
1070
    74
1070
     0
1000
MTEXTEND
1000
MTEXTBEGIN
1070
    73
1070
     1
1070
    44
1040
1.0
1070
    74
1070
     0
1000
MTEXTEND
1000
MTEXTBEGIN
1070
    73
1070
     1
1070
    44
1040
1.0
1070
    74
1070
     0
1000
MTEXTEND
1000
MTEXTBEGIN
1070
    73
1070
     1
1070
    44
1040
1.0
1070
    74
1070
     0
1000
MTEXTEND
1000
MTEXTBEGIN
1070
    73
1070
     1
1070
    44
1040
1.0
1070
    74
1070
     0
1000
MTEXTEND
1000
MTEXTBEGIN
1070
    73
1070
     1
1070
    44
1040
1.0
1070
    74
1070
     0
1000
MTEXTEND
  0
POINT
  5
5F8
330
4B2
100
AcDbEntity
  8
DEFPOINTS
 62
     0
100
AcDbPoint
 10
573.135761537242
 20
281.8907020748383
 30
0.0
  0
POINT
  5
5F9
330
4B2
100
AcDbEntity
  8
DEFPOINTS
 62
     0
100
AcDbPoint
 10
582.4076001187633
 20
285.6367680404374
 30
0.0
  0
POINT
  5
5FA
330
4B2
100
AcDbEntity
  8
DEFPOINTS
 62
     0
100
AcDbPoint
 10
575.3915741755649
 20
303.0020415370829
 30
0.0
  0
ENDBLK
  5
4BE
330
4B2
100
AcDbEntity
  8
0
100
AcDbBlockEnd
  0
BLOCK
  5
4CA
330
4C0
100
AcDbEntity
  8
0
100
AcDbBlockBegin
  2
*D9
 70
     1
 10
0.0
 20
0.0
 30
0.0
  3
*D9
  1

  0
LINE
  5
9E7
330
4C0
100
AcDbEntity
  8
SUNPOU
100
AcDbLine
 10
580.1599605495229
 20
291.1998711643049
 30
0.0
 11
574.2677543909445
 21
305.7835930990167
 31
0.0
  0
LINE
  5
9E8
330
4C0
100
AcDbEntity
  8
SUNPOU
100
AcDbLine
 10
540.2910547929662
 20
275.0917876319335
 30
0.0
 11
534.3988486557593
 21
289.6755095137491
 31
0.0
  0
LINE
  5
9E9
330
4C0
100
AcDbEntity
  8
SUNPOU
100
AcDbLine
 10
572.6100226136311
 20
301.8782217524627
 30
0.0
 11
538.3042200023135
 21
288.0177777364356
 31
0.0
  0
INSERT
  5
9EA
330
4C0
100
AcDbEntity
  8
SUNPOU
100
AcDbBlockReference
  2
_OPEN
 10
575.3915741755649
 20
303.0020415370829
 30
0.0
 41
3.0
 42
3.0
 43
3.0
 50
22.00000009006707
  0
INSERT
  5
9EB
330
4C0
100
AcDbEntity
  8
SUNPOU
100
AcDbBlockReference
  2
_OPEN
 10
535.5226684403796
 20
286.8939579518153
 30
0.0
 41
3.0
 42
3.0
 43
3.0
 50
202.0000000900671
  0
MTEXT
  5
9EC
330
4C0
100
AcDbEntity
  8
SUNPOU
100
AcDbMText
 10
553.5840883336052
 20
299.5839190143387
 30
0.0
 40
6.0
 41
0.0
 71
     5
 72
     1
  1
\A1;43
 11
0.927183853977918
 21
0.374606594873415
 31
0.0
  0
POINT
  5
9ED
330
4C0
100
AcDbEntity
  8
DEFPOINTS
 62
     0
100
AcDbPoint
 10
582.4076001187633
 20
285.6367680404374
 30
0.0
  0
POINT
  5
9EE
330
4C0
100
AcDbEntity
  8
DEFPOINTS
 62
     0
100
AcDbPoint
 10
542.5386943622068
 20
269.528684508066
 30
0.0
  0
POINT
  5
9EF
330
4C0
100
AcDbEntity
  8
DEFPOINTS
 62
     0
100
AcDbPoint
 10
535.5226684403796
 20
286.8939579518153
 30
0.0
  0
ENDBLK
  5
4CB
330
4C0
100
AcDbEntity
  8
0
100
AcDbBlockEnd
  0
BLOCK
  5
4D7
330
4CD
100
AcDbEntity
  8
0
100
AcDbBlockBegin
  2
*D10
 70
     1
 10
0.0
 20
0.0
 30
0.0
  3
*D10
  1

  0
LINE
  5
9F0
330
4CD
100
AcDbEntity
  8
SUNPOU
100
AcDbLine
 10
540.2910547929662
 20
275.0917876319335
 30
0.0
 11
534.3988486557593
 21
289.6755095137491
 31
0.0
  0
LINE
  5
9F1
330
4CD
100
AcDbEntity
  8
SUNPOU
100
AcDbLine
 10
509.6939879665417
 20
262.7297703260735
 30
0.0
 11
503.8017818924081
 21
277.313492051777
 31
0.0
  0
LINE
  5
9F2
330
4CD
100
AcDbEntity
  8
SUNPOU
100
AcDbLine
 10
532.7411168784459
 20
285.7701381671951
 30
0.0
 11
507.7071532389621
 21
275.6557602744635
 31
0.0
  0
INSERT
  5
9F3
330
4CD
100
AcDbEntity
  8
SUNPOU
100
AcDbBlockReference
  2
_OPEN
 10
535.5226684403796
 20
286.8939579518153
 30
0.0
 41
3.0
 42
3.0
 43
3.0
 50
22.00000009006707
  0
INSERT
  5
9F4
330
4CD
100
AcDbEntity
  8
SUNPOU
100
AcDbBlockReference
  2
_OPEN
 10
504.9256016770284
 20
274.5319404898433
 30
0.0
 41
3.0
 42
3.0
 43
3.0
 50
202.0000000900671
  0
MTEXT
  5
9F5
330
4CD
100
AcDbEntity
  8
SUNPOU
100
AcDbMText
 10
518.3511020843369
 20
285.348868490719
 30
0.0
 40
6.0
 41
0.0
 71
     5
 72
     1
  1
\A1;33
 11
0.927183853977918
 21
0.374606594873415
 31
0.0
  0
POINT
  5
9F6
330
4CD
100
AcDbEntity
  8
DEFPOINTS
 62
     0
100
AcDbPoint
 10
542.5386943622068
 20
269.528684508066
 30
0.0
  0
POINT
  5
9F7
330
4CD
100
AcDbEntity
  8
DEFPOINTS
 62
     0
100
AcDbPoint
 10
511.9416275357822
 20
257.166667202206
 30
0.0
  0
POINT
  5
9F8
330
4CD
100
AcDbEntity
  8
DEFPOINTS
 62
     0
100
AcDbPoint
 10
504.9256016770284
 20
274.5319404898433
 30
0.0
  0
ENDBLK
  5
4D8
330
4CD
100
AcDbEntity
  8
0
100
AcDbBlockEnd
  0
ENDSEC
  0
SECTION
  2
ENTITIES
  0
LINE
  5
27B
330
1A
100
AcDbEntity
  8
CENTER_L
100
AcDbLine
 10
597.3225380737345
 20
413.317209524638
 30
0.0
 11
276.7492786409634
 21
413.317209524638
 31
0.0
  0
LINE
  5
27D
330
1A
100
AcDbEntity
  8
SEIHIN
100
AcDbLine
 10
392.8025911765664
 20
419.317209524638
 30
0.0
 11
293.9555631907047
 21
419.317209524638
 31
0.0
  0
LINE
  5
27E
330
1A
100
AcDbEntity
  8
SEIHIN
100
AcDbLine
 10
392.8025911765664
 20
407.317209524638
 30
0.0
 11
293.9555631907047
 21
407.317209524638
 31
0.0
  0
LINE
  5
27F
330
1A
100
AcDbEntity
  8
SEIHIN
100
AcDbLine
 10
408.4925870120749
 20
402.317209524638
 30
0.0
 11
285.092587012075
 21
402.317209524638
 31
0.0
  0
LINE
  5
280
330
1A
100
AcDbEntity
  8
SEIHIN
100
AcDbLine
 10
408.4925870120749
 20
424.317209524638
 30
0.0
 11
285.092587012075
 21
424.317209524638
 31
0.0
  0
ARC
  5
281
330
1A
100
AcDbEntity
  8
SEIHIN
100
AcDbCircle
 10
370.5425870120748
 20
191.886185886421
 30
0.0
 40
28.50000000267147
100
AcDbArc
 50
180.0000000201031
 51
320.5000000294782
  0
ARC
  5
282
330
1A
100
AcDbEntity
  8
SEIHIN
100
AcDbCircle
 10
370.5425870120748
 20
191.886185886421
 30
0.0
 40
16.99999999942755
100
AcDbArc
 50
180.0000000337022
 51
320.500000017445
  0
LINE
  5
283
330
1A
100
AcDbEntity
  8
SEIHIN
100
AcDbLine
 10
347.7925870120749
 20
229.386185883421
 30
0.0
 11
386.8710191120749
 21
229.386185883421
 31
0.0
  0
LINE
  5
284
330
1A
100
AcDbEntity
  8
SEIHIN
100
AcDbLine
 10
347.7925870120749
 20
232.386185883421
 30
0.0
 11
385.8001291120749
 21
232.386185883421
 31
0.0
  0
LINE
  5
285
330
1A
100
AcDbEntity
  8
SEIHIN
100
AcDbLine
 10
347.7925870120749
 20
233.586185883421
 30
0.0
 11
385.3717730120749
 21
233.586185883421
 31
0.0
  0
LINE
  5
286
330
1A
100
AcDbEntity
  8
NOKITOI
  6
PHANTOM
 62
     8
100
AcDbLine
 10
338.1060668731806
 20
234.9861858834211
 30
0.0
 11
382.6856668731807
 21
234.9860858834211
 31
0.0
  0
LINE
  5
287
330
1A
100
AcDbEntity
  8
NOKITOI
  6
PHANTOM
 62
     8
100
AcDbLine
 10
382.9354668731807
 20
233.7860858834211
 30
0.0
 11
338.1060668731806
 21
233.7861858834211
 31
0.0
  0
LINE
  5
288
330
1A
100
AcDbEntity
  8
CENTER_L
100
AcDbLine
 10
175.9082625123247
 20
326.586185883421
 30
0.0
 11
175.9082625123247
 21
154.7671154894151
 31
0.0
  0
LINE
  5
289
330
1A
100
AcDbEntity
  8
SEIHIN
100
AcDbLine
 10
285.092587012075
 20
319.586185883421
 30
0.0
 11
285.092587012075
 21
272.586185883421
 31
0.0
  0
LINE
  5
28A
330
1A
100
AcDbEntity
  8
SEIHIN
100
AcDbLine
 10
286.2925870120749
 20
319.586185883421
 30
0.0
 11
286.2925870120749
 21
272.586185883421
 31
0.0
  0
LINE
  5
28C
330
1A
100
AcDbEntity
  8
SEIHIN
100
AcDbLine
 10
178.0082625123247
 20
305.5861858834211
 30
0.0
 11
178.0082625123247
 21
285.086185883421
 31
0.0
  0
LINE
  5
28D
330
1A
100
AcDbEntity
  8
SEIHIN
100
AcDbLine
 10
173.8082625123247
 20
305.5861858834211
 30
0.0
 11
173.8082625123247
 21
285.086185883421
 31
0.0
  0
LINE
  5
28E
330
1A
100
AcDbEntity
  8
SEIHIN
100
AcDbLine
 10
173.4082625123247
 20
229.386185883421
 30
0.0
 11
173.4082625123247
 21
163.3861858837495
 31
0.0
  0
LINE
  5
28F
330
1A
100
AcDbEntity
  8
SEIHIN
100
AcDbLine
 10
178.4082625123247
 20
229.386185883421
 30
0.0
 11
178.4082625123247
 21
163.3861858837495
 31
0.0
  0
LINE
  5
290
330
1A
100
AcDbEntity
  8
CENTER_L
100
AcDbLine
 10
347.7925870126473
 20
191.886185886421
 30
0.0
 11
347.7925870126473
 21
242.4204693551975
 31
0.0
  0
LINE
  5
291
330
1A
100
AcDbEntity
  8
SEIHIN
100
AcDbLine
 10
353.5425870120748
 20
191.886185886421
 30
0.0
 11
353.5425870120748
 21
229.386185883421
 31
0.0
  0
LINE
  5
292
330
1A
100
AcDbEntity
  8
SEIHIN
100
AcDbLine
 10
342.0425870120749
 20
191.886185886421
 30
0.0
 11
342.0425870120749
 21
229.386185883421
 31
0.0
  0
LINE
  5
293
330
1A
100
AcDbEntity
  8
SEIHIN
100
AcDbLine
 10
178.4082625123247
 20
163.3861858837495
 30
0.0
 11
173.4082625123247
 21
163.3861858837495
 31
0.0
  0
LINE
  5
294
330
1A
100
AcDbEntity
  8
SEIHIN
100
AcDbLine
 10
182.9082625123247
 20
232.886185883421
 30
0.0
 11
182.9082625123247
 21
270.386185883421
 31
0.0
  0
LINE
  5
295
330
1A
100
AcDbEntity
  8
SEIHIN
100
AcDbLine
 10
186.9082625123247
 20
285.636185883421
 30
0.0
 11
186.9082625123247
 21
232.386185883421
 31
0.0
  0
LINE
  5
296
330
1A
100
AcDbEntity
  8
SEIHIN
100
AcDbLine
 10
168.9082625123247
 20
232.886185883421
 30
0.0
 11
168.9082625123247
 21
270.386185883421
 31
0.0
  0
LINE
  5
297
330
1A
100
AcDbEntity
  8
SEIHIN
100
AcDbLine
 10
164.9082625123247
 20
285.636185883421
 30
0.0
 11
164.9082625123247
 21
232.386185883421
 31
0.0
  0
LINE
  5
298
330
1A
100
AcDbEntity
  8
SEIHIN
100
AcDbLine
 10
173.0582625123247
 20
229.386185883421
 30
0.0
 11
175.9082625123247
 21
229.386185883421
 31
0.0
  0
LINE
  5
299
330
1A
100
AcDbEntity
  8
SEIHIN
100
AcDbLine
 10
170.4082625123247
 20
229.386185883421
 30
0.0
 11
181.4082625123247
 21
229.386185883421
 31
0.0
  0
LINE
  5
29A
330
1A
100
AcDbEntity
  8
SEIHIN
100
AcDbLine
 10
167.4082625123247
 20
232.386185883421
 30
0.0
 11
164.9082625123247
 21
232.386185883421
 31
0.0
  0
ARC
  5
29B
330
1A
100
AcDbEntity
  8
SEIHIN
100
AcDbCircle
 10
170.4082625123247
 20
230.886185883421
 30
0.0
 40
1.5
100
AcDbArc
 50
180.0
 51
270.0
  0
ARC
  5
29C
330
1A
100
AcDbEntity
  8
SEIHIN
100
AcDbCircle
 10
167.4082625123247
 20
230.886185883421
 30
0.0
 40
1.5
100
AcDbArc
 50
0.0
 51
90.0
  0
LINE
  5
29D
330
1A
100
AcDbEntity
  8
SEIHIN
100
AcDbLine
 10
170.8082625123247
 20
229.386185883421
 30
0.0
 11
173.0582625123247
 21
229.386185883421
 31
0.0
  0
ARC
  5
29E
330
1A
100
AcDbEntity
  8
SEIHIN
100
AcDbCircle
 10
181.4082625123247
 20
230.886185883421
 30
0.0
 40
1.5
100
AcDbArc
 50
270.0
 51
0.0
  0
LINE
  5
29F
330
1A
100
AcDbEntity
  8
SEIHIN
100
AcDbLine
 10
184.4082625123247
 20
232.386185883421
 30
0.0
 11
186.9082625123247
 21
232.386185883421
 31
0.0
  0
ARC
  5
2A0
330
1A
100
AcDbEntity
  8
SEIHIN
100
AcDbCircle
 10
184.4082625123247
 20
230.886185883421
 30
0.0
 40
1.5
100
AcDbArc
 50
90.0
 51
180.0
  0
LINE
  5
2A1
330
1A
100
AcDbEntity
  8
SEIHIN
100
AcDbLine
 10
181.0082625123246
 20
229.386185883421
 30
0.0
 11
175.9082625123247
 21
229.386185883421
 31
0.0
  0
LINE
  5
2A2
330
1A
100
AcDbEntity
  8
SEIHIN
100
AcDbLine
 10
186.9082625123247
 20
270.386185883421
 30
0.0
 11
164.9082625123247
 21
270.386185883421
 31
0.0
  0
ARC
  5
2A3
330
1A
100
AcDbEntity
  8
SEIHIN
100
AcDbCircle
 10
166.8582625123246
 20
285.636185883421
 30
0.0
 40
1.949999999999988
100
AcDbArc
 50
0.0
 51
180.0
  0
ARC
  5
2A4
330
1A
100
AcDbEntity
  8
SEIHIN
100
AcDbCircle
 10
171.3082625123247
 20
285.086185883421
 30
0.0
 40
2.5
100
AcDbArc
 50
180.0
 51
0.0
  0
LINE
  5
2A5
330
1A
100
AcDbEntity
  8
SEIHIN
100
AcDbLine
 10
168.8082625123247
 20
285.636185883421
 30
0.0
 11
168.8082625123247
 21
285.086185883421
 31
0.0
  0
LINE
  5
2A6
330
1A
100
AcDbEntity
  8
SEIHIN
100
AcDbLine
 10
168.8082625123247
 20
285.586185883421
 30
0.0
 11
168.8082625123247
 21
285.586185883421
 31
0.0
  0
LINE
  5
2A7
330
1A
100
AcDbEntity
  8
SEIHIN
100
AcDbLine
 10
173.8082625123247
 20
294.410997883421
 30
0.0
 11
173.8082625123247
 21
294.410997883421
 31
0.0
  0
LINE
  5
2A8
330
1A
100
AcDbEntity
  8
SEIHIN
100
AcDbLine
 10
173.8082625123247
 20
293.4712708834211
 30
0.0
 11
173.8082625123247
 21
293.4712708834211
 31
0.0
  0
ARC
  5
2A9
330
1A
100
AcDbEntity
  8
SEIHIN
100
AcDbCircle
 10
184.9582625123247
 20
285.636185883421
 30
0.0
 40
1.949999999999988
100
AcDbArc
 50
0.0
 51
180.0
  0
ARC
  5
2AA
330
1A
100
AcDbEntity
  8
SEIHIN
100
AcDbCircle
 10
180.5082625123247
 20
285.086185883421
 30
0.0
 40
2.5
100
AcDbArc
 50
180.0
 51
0.0
  0
LINE
  5
2AB
330
1A
100
AcDbEntity
  8
SEIHIN
100
AcDbLine
 10
183.0082625123248
 20
285.586185883421
 30
0.0
 11
183.0082625123248
 21
285.586185883421
 31
0.0
  0
LINE
  5
2AC
330
1A
100
AcDbEntity
  8
SEIHIN
100
AcDbLine
 10
183.0082625123248
 20
285.636185883421
 30
0.0
 11
183.0082625123248
 21
285.086185883421
 31
0.0
  0
LINE
  5
2AD
330
1A
100
AcDbEntity
  8
SEIHIN
100
AcDbLine
 10
178.0082625123247
 20
294.410997883421
 30
0.0
 11
178.0082625123247
 21
294.410997883421
 31
0.0
  0
LINE
  5
2AE
330
1A
100
AcDbEntity
  8
SEIHIN
100
AcDbLine
 10
178.0082625123247
 20
293.4712708834211
 30
0.0
 11
178.0082625123247
 21
293.4712708834211
 31
0.0
  0
ARC
  5
2AF
330
1A
100
AcDbEntity
  8
SEIHIN
100
AcDbCircle
 10
339.106137012075
 20
276.586185883421
 30
0.0
 40
48.19999998338746
100
AcDbArc
 50
190.3515581005718
 51
256.9992792531172
  0
ARC
  5
2B0
330
1A
100
AcDbEntity
  8
SEIHIN
100
AcDbCircle
 10
339.106137012075
 20
276.586185883421
 30
0.0
 40
45.19999999393088
100
AcDbArc
 50
190.0046914399661
 51
256.9987985135613
  0
ARC
  5
2B1
330
1A
100
AcDbEntity
  8
SEIHIN
100
AcDbCircle
 10
339.106137012075
 20
276.586185883421
 30
0.0
 40
43.99999996755491
100
AcDbArc
 50
190.0046914246755
 51
256.9987985386973
  0
ARC
  5
2B2
330
1A
100
AcDbEntity
  8
NOKITOI
  6
PHANTOM
 62
     8
100
AcDbCircle
 10
338.1060729551486
 20
276.7861802587648
 30
0.0
 40
41.79999437547816
100
AcDbArc
 50
184.4742952125247
 51
269.999854592109
  0
ARC
  5
2B3
330
1A
100
AcDbEntity
  8
NOKITOI
  6
PHANTOM
 62
     8
100
AcDbCircle
 10
338.1060506467233
 20
276.7862003597912
 30
0.0
 40
43.00001447645168
100
AcDbArc
 50
186.5249107071177
 51
269.9998883751437
  0
ARC
  5
2BD
330
1A
100
AcDbEntity
  8
SEIHIN
100
AcDbCircle
 10
330.3311720120749
 20
238.586185883421
 30
0.0
 40
5.000000009884356
100
AcDbArc
 50
256.997175988683
 51
270.0
  0
LINE
  5
2BE
330
1A
100
AcDbEntity
  8
SEIHIN
100
AcDbLine
 10
330.3311720120749
 20
229.386185883421
 30
0.0
 11
347.7925870120749
 21
229.386185883421
 31
0.0
  0
LINE
  5
2BF
330
1A
100
AcDbEntity
  8
SEIHIN
100
AcDbLine
 10
330.3311720120749
 20
232.386185883421
 30
0.0
 11
347.7925870120749
 21
232.386185883421
 31
0.0
  0
LINE
  5
2C0
330
1A
100
AcDbEntity
  8
SEIHIN
100
AcDbLine
 10
330.3311720120749
 20
233.586185883421
 30
0.0
 11
347.7925870120749
 21
233.586185883421
 31
0.0
  0
ARC
  5
2C1
330
1A
100
AcDbEntity
  8
SEIHIN
100
AcDbCircle
 10
330.3311720120749
 20
238.586185883421
 30
0.0
 40
9.20000000634241
100
AcDbArc
 50
256.9971761847128
 51
270.0
  0
ARC
  5
2C2
330
1A
100
AcDbEntity
  8
SEIHIN
100
AcDbCircle
 10
330.3311720120749
 20
238.586185883421
 30
0.0
 40
6.20000002439895
100
AcDbArc
 50
256.9971760025683
 51
270.0
  0
LINE
  5
2C4
330
1A
100
AcDbEntity
  8
NOKITOI
  6
PHANTOM
 62
     8
100
AcDbLine
 10
378.6856668731807
 20
234.9860858834211
 30
0.0
 11
358.777566873181
 21
234.9860858834211
 31
0.0
  0
LINE
  5
2C5
330
1A
100
AcDbEntity
  8
NOKITOI
  6
PHANTOM
 62
     8
100
AcDbLine
 10
378.9354668731807
 20
233.7860858834211
 30
0.0
 11
358.777566873181
 21
233.7860858834211
 31
0.0
  0
ARC
  5
2C6
330
1A
100
AcDbEntity
  8
NOKITOI
  6
PHANTOM
 62
     8
100
AcDbCircle
 10
288.2464028323315
 20
274.2861510292779
 30
0.0
 40
1.499965146287778
100
AcDbArc
 50
181.7866280217767
 51
269.9986264296971
  0
ARC
  5
2C7
330
1A
100
AcDbEntity
  8
NOKITOI
  6
PHANTOM
 62
     8
100
AcDbCircle
 10
294.3910584490181
 20
271.7861933984776
 30
0.0
 40
0.9999924849789756
100
AcDbArc
 50
6.528264606673934
 51
89.99951732740965
  0
ARC
  5
2C8
330
1A
100
AcDbEntity
  8
SEIHIN
100
AcDbCircle
 10
292.623882312075
 20
268.386185883421
 30
0.0
 40
3.199999999587582
100
AcDbArc
 50
10.00469134359025
 51
90.0
  0
ARC
  5
2C9
330
1A
100
AcDbEntity
  8
SEIHIN
100
AcDbCircle
 10
292.623882312075
 20
268.386185883421
 30
0.0
 40
2.000000016035531
100
AcDbArc
 50
10.0046904516475
 51
90.0
  0
LINE
  5
2CA
330
1A
100
AcDbEntity
  8
SEIHIN
100
AcDbLine
 10
287.3258660120749
 20
271.586185883421
 30
0.0
 11
287.3258660120749
 21
271.586185883421
 31
0.0
  0
LINE
  5
2CB
330
1A
100
AcDbEntity
  8
SEIHIN
100
AcDbLine
 10
292.623882312075
 20
270.386185883421
 30
0.0
 11
287.2925870120749
 21
270.386185883421
 31
0.0
  0
LINE
  5
2CC
330
1A
100
AcDbEntity
  8
SEIHIN
100
AcDbLine
 10
292.623882312075
 20
271.586185883421
 30
0.0
 11
287.2925870120749
 21
271.586185883421
 31
0.0
  0
ARC
  5
2CD
330
1A
100
AcDbEntity
  8
SEIHIN
100
AcDbCircle
 10
288.7394814120749
 20
267.386185883421
 30
0.0
 40
2.999999985884628
100
AcDbArc
 50
10.3515581974022
 51
90.0
  0
ARC
  5
2CE
330
1A
100
AcDbEntity
  8
SEIHIN
100
AcDbCircle
 10
287.2925870120749
 20
272.586185883421
 30
0.0
 40
2.199999999999988
100
AcDbArc
 50
180.0
 51
270.0
  0
ARC
  5
2CF
330
1A
100
AcDbEntity
  8
SEIHIN
100
AcDbCircle
 10
287.2925870120749
 20
272.586185883421
 30
0.0
 40
1.0
100
AcDbArc
 50
180.0
 51
270.0
  0
ARC
  5
2D0
330
1A
100
AcDbEntity
  8
NOKITOI
  6
PHANTOM
 62
     8
100
AcDbCircle
 10
294.6338606720228
 20
285.7861924185064
 30
0.0
 40
0.4999934649531607
100
AcDbArc
 50
356.9955363203376
 51
89.99928939038076
  0
LINE
  5
2D1
330
1A
100
AcDbEntity
  8
NOKITOI
  6
PHANTOM
 62
     8
100
AcDbLine
 10
290.8287668731809
 20
287.5861858834213
 30
0.0
 11
290.3287668731809
 21
285.0861858834213
 31
0.0
  0
LINE
  5
2D2
330
1A
100
AcDbEntity
  8
NOKITOI
  6
PHANTOM
 62
     8
100
AcDbLine
 10
287.556366873181
 20
286.761185883421
 30
0.0
 11
287.7057668731804
 21
281.9822858834212
 31
0.0
  0
LINE
  5
2D3
330
1A
100
AcDbEntity
  8
NOKITOI
  6
PHANTOM
 62
     8
100
AcDbLine
 10
286.3569668731806
 20
286.7236858834211
 30
0.0
 11
286.7471668731805
 21
274.239385883421
 31
0.0
  0
LINE
  5
2D4
330
1A
100
AcDbEntity
  8
NOKITOI
  6
PHANTOM
 62
     8
100
AcDbLine
 10
295.9349668731811
 20
273.9861858834211
 30
0.0
 11
289.8940668731806
 21
273.9861858834211
 31
0.0
  0
LINE
  5
2D5
330
1A
100
AcDbEntity
  8
NOKITOI
  6
PHANTOM
 62
     8
100
AcDbLine
 10
294.8174668731808
 20
279.7599858834211
 30
0.0
 11
295.1332668731806
 21
285.7598858834211
 31
0.0
  0
LINE
  5
2D6
330
1A
100
AcDbEntity
  8
NOKITOI
  6
PHANTOM
 62
     8
100
AcDbLine
 10
292.269466873181
 20
283.9861858834211
 30
0.0
 11
293.2652668731807
 21
285.0861858834213
 31
0.0
  0
LINE
  5
2D7
330
1A
100
AcDbEntity
  8
NOKITOI
  6
PHANTOM
 62
     8
100
AcDbLine
 10
292.269466873181
 20
283.9861858834211
 30
0.0
 11
291.8075668731808
 21
283.9861858834211
 31
0.0
  0
LINE
  5
2D8
330
1A
100
AcDbEntity
  8
NOKITOI
  6
PHANTOM
 62
     8
100
AcDbLine
 10
290.3287668731809
 20
285.0861858834213
 30
0.0
 11
293.2652668731807
 21
285.0861858834213
 31
0.0
  0
LINE
  5
2D9
330
1A
100
AcDbEntity
  8
NOKITOI
  6
PHANTOM
 62
     8
100
AcDbLine
 10
291.5740668731805
 20
279.8569858834213
 30
0.0
 11
291.9077668731806
 21
282.1931858834212
 31
0.0
  0
LINE
  5
2DA
330
1A
100
AcDbEntity
  8
NOKITOI
  6
PHANTOM
 62
     8
100
AcDbLine
 10
294.3180668731806
 20
279.2861858834211
 30
0.0
 11
292.0689668731806
 21
279.2861858834211
 31
0.0
  0
ARC
  5
2DB
330
1A
100
AcDbEntity
  8
NOKITOI
  6
PHANTOM
 62
     8
100
AcDbCircle
 10
292.0689934737783
 20
279.786155206539
 30
0.0
 40
0.4999693238254178
100
AcDbArc
 50
171.8555038770531
 51
269.9969516090356
  0
LINE
  5
2DC
330
1A
100
AcDbEntity
  8
NOKITOI
  6
PHANTOM
 62
     8
100
AcDbLine
 10
293.6539668731807
 20
280.4861858834211
 30
0.0
 11
292.8760668731811
 21
280.4861858834211
 31
0.0
  0
LINE
  5
2DD
330
1A
100
AcDbEntity
  8
NOKITOI
  6
PHANTOM
 62
     8
100
AcDbLine
 10
292.8760668731811
 20
280.4861858834211
 30
0.0
 11
293.2801668731808
 21
283.314585883421
 31
0.0
  0
ARC
  5
2DE
330
1A
100
AcDbEntity
  8
NOKITOI
  6
PHANTOM
 62
     8
100
AcDbCircle
 10
291.4127810915961
 20
282.2638712491201
 30
0.0
 40
0.5000073448410256
100
AcDbArc
 50
351.872947864124
 51
96.47829282996916
  0
ARC
  5
2DF
330
1A
100
AcDbEntity
  8
NOKITOI
  6
PHANTOM
 62
     8
100
AcDbCircle
 10
291.8076870858499
 20
278.7862446118011
 30
0.0
 40
5.2000412730095
100
AcDbArc
 50
90.0013245430618
 51
142.0757990790551
  0
LINE
  5
2E0
330
1A
100
AcDbEntity
  8
NOKITOI
  6
PHANTOM
 62
     8
100
AcDbLine
 10
293.2801668731808
 20
283.314585883421
 30
0.0
 11
293.8351668731807
 21
283.9276858834212
 31
0.0
  0
LINE
  5
2E1
330
1A
100
AcDbEntity
  8
NOKITOI
  6
PHANTOM
 62
     8
100
AcDbLine
 10
293.6539668731807
 20
280.4861858834211
 30
0.0
 11
293.8351668731807
 21
283.9276858834212
 31
0.0
  0
ARC
  5
2E2
330
1A
100
AcDbEntity
  8
NOKITOI
  6
PHANTOM
 62
     8
100
AcDbCircle
 10
294.3180599861857
 20
279.7861793483356
 30
0.0
 40
0.499993464961963
100
AcDbArc
 50
270.0007892017869
 51
356.997036131742
  0
ARC
  5
2E3
330
1A
100
AcDbEntity
  8
NOKITOI
  6
PHANTOM
 62
     8
100
AcDbCircle
 10
289.8940804453191
 20
275.9861727283347
 30
0.0
 40
1.999986844959662
100
AcDbArc
 50
181.7875531852356
 51
269.9996111843215
  0
LINE
  5
2E4
330
1A
100
AcDbEntity
  8
NOKITOI
  6
PHANTOM
 62
     8
100
AcDbLine
 10
288.2463668731807
 20
272.7861858834211
 30
0.0
 11
294.3910668731805
 21
272.7861858834211
 31
0.0
  0
LINE
  5
2E5
330
1A
100
AcDbEntity
  8
NOKITOI
  6
PHANTOM
 62
     8
100
AcDbLine
 10
287.8950668731804
 20
275.9237858834211
 30
0.0
 11
287.8095668731807
 21
278.6612858834211
 31
0.0
  0
ARC
  5
2E6
330
1A
100
AcDbEntity
  8
NOKITOI
  6
PHANTOM
 62
     8
100
AcDbCircle
 10
295.934979442889
 20
273.4861742586914
 30
0.0
 40
0.5000116248877111
100
AcDbArc
 50
4.474846808342103
 51
90.00144034898383
  0
LINE
  5
2E7
330
1A
100
AcDbEntity
  8
SEIHIN
100
AcDbLine
 10
286.2925870120749
 20
278.182519883421
 30
0.0
 11
286.2925870120749
 21
278.182519883421
 31
0.0
  0
ARC
  5
2E8
330
1A
100
AcDbEntity
  8
NOKITOI
  6
PHANTOM
 62
     8
100
AcDbCircle
 10
291.8076047546274
 20
278.7862296659465
 30
0.0
 40
3.999989731271038
100
AcDbArc
 50
96.47731142013119
 51
181.7899836067311
  0
LINE
  5
2E9
330
1A
100
AcDbEntity
  8
NOKITOI
  6
PHANTOM
 62
     8
100
AcDbLine
 10
291.9120668731807
 20
286.884285883421
 30
0.0
 11
292.1728668731807
 21
288.1881858834211
 31
0.0
  0
ARC
  5
2EA
330
1A
100
AcDbEntity
  8
NOKITOI
  6
PHANTOM
 62
     8
100
AcDbCircle
 10
292.4023596186252
 20
286.7861947332645
 30
0.0
 40
0.5000088498959383
100
AcDbArc
 50
168.6864043304892
 51
270.0008312961442
  0
ARC
  5
2EB
330
1A
100
AcDbEntity
  8
NOKITOI
  6
PHANTOM
 62
     8
100
AcDbCircle
 10
291.6825660901722
 20
288.2861868384228
 30
0.0
 40
0.4999990449987349
100
AcDbArc
 50
348.6967198015447
 51
89.99991027369492
  0
ARC
  5
2EC
330
1A
100
AcDbEntity
  8
NOKITOI
  6
PHANTOM
 62
     8
100
AcDbCircle
 10
288.3559713679787
 20
286.786190520948
 30
0.0
 40
0.7999953624857498
100
AcDbArc
 50
90.00032191805264
 51
181.7911273464193
  0
LINE
  5
2ED
330
1A
100
AcDbEntity
  8
NOKITOI
  6
PHANTOM
 62
     8
100
AcDbLine
 10
288.3559668731805
 20
287.5861858834213
 30
0.0
 11
290.8287668731809
 21
287.5861858834213
 31
0.0
  0
LINE
  5
2EE
330
1A
100
AcDbEntity
  8
NOKITOI
  6
PHANTOM
 62
     8
100
AcDbLine
 10
288.3559668731805
 20
288.7861858834211
 30
0.0
 11
291.6825668731807
 21
288.7861858834211
 31
0.0
  0
LINE
  5
2EF
330
1A
100
AcDbEntity
  8
NOKITOI
  6
PHANTOM
 62
     8
100
AcDbLine
 10
294.6338668731805
 20
286.2861858834211
 30
0.0
 11
292.4023668731806
 21
286.2861858834211
 31
0.0
  0
LINE
  5
2F0
330
1A
100
AcDbEntity
  8
SEIHIN
100
AcDbLine
 10
286.2925870120749
 20
287.586185883421
 30
0.0
 11
285.092587012075
 21
287.586185883421
 31
0.0
  0
ARC
  5
2F1
330
1A
100
AcDbEntity
  8
NOKITOI
  6
PHANTOM
 62
     8
100
AcDbCircle
 10
288.3559796240306
 20
286.7861990385075
 30
0.0
 40
1.999986844954076
100
AcDbArc
 50
90.00036528735451
 51
181.7883072882703
  0
ARC
  5
2F3
330
1A
100
AcDbEntity
  8
SEIHIN
100
AcDbCircle
 10
171.8082625123247
 20
305.5861858834211
 30
0.0
 40
2.0
100
AcDbArc
 50
0.0
 51
90.0
  0
LINE
  5
2F4
330
1A
100
AcDbEntity
  8
SEIHIN
100
AcDbLine
 10
178.9082625123247
 20
319.586185883421
 30
0.0
 11
172.9082625123247
 21
319.586185883421
 31
0.0
  0
LINE
  5
2F5
330
1A
100
AcDbEntity
  8
SEIHIN
100
AcDbLine
 10
169.9082625123247
 20
309.584935883421
 30
0.0
 11
169.9082625123247
 21
316.586185883421
 31
0.0
  0
ARC
  5
2F6
330
1A
100
AcDbEntity
  8
SEIHIN
100
AcDbCircle
 10
171.9082625123247
 20
309.584935883421
 30
0.0
 40
1.999999998843762
100
AcDbArc
 50
180.0
 51
268.5674562607732
  0
LINE
  5
2F7
330
1A
100
AcDbEntity
  8
SEIHIN
100
AcDbLine
 10
171.4082625123247
 20
307.5861858834211
 30
0.0
 11
171.4082625123247
 21
307.5861858834211
 31
0.0
  0
ARC
  5
2F8
330
1A
100
AcDbEntity
  8
SEIHIN
100
AcDbCircle
 10
172.9082625123247
 20
316.586185883421
 30
0.0
 40
3.0
100
AcDbArc
 50
90.0
 51
180.0
  0
LINE
  5
2F9
330
1A
100
AcDbEntity
  8
SEIHIN
100
AcDbLine
 10
181.9082625123247
 20
309.584935883421
 30
0.0
 11
181.9082625123247
 21
316.586185883421
 31
0.0
  0
ARC
  5
2FA
330
1A
100
AcDbEntity
  8
SEIHIN
100
AcDbCircle
 10
179.9082625123247
 20
309.584935883421
 30
0.0
 40
1.99999999884376
100
AcDbArc
 50
271.4325437392202
 51
0.0
  0
ARC
  5
2FB
330
1A
100
AcDbEntity
  8
SEIHIN
100
AcDbCircle
 10
180.0082625123248
 20
305.5861858834211
 30
0.0
 40
2.0
100
AcDbArc
 50
90.0
 51
180.0
  0
ARC
  5
2FC
330
1A
100
AcDbEntity
  8
SEIHIN
100
AcDbCircle
 10
178.9082625123247
 20
316.586185883421
 30
0.0
 40
3.0
100
AcDbArc
 50
0.0
 51
90.0
  0
LINE
  5
2FD
330
1A
100
AcDbEntity
  8
SEIHIN
100
AcDbLine
 10
286.2925870120749
 20
307.5861858834211
 30
0.0
 11
285.092587012075
 21
307.5861858834211
 31
0.0
  0
LINE
  5
2FE
330
1A
100
AcDbEntity
  8
SEIHIN
100
AcDbLine
 10
286.2925870120749
 20
319.586185883421
 30
0.0
 11
285.092587012075
 21
319.586185883421
 31
0.0
  0
ARC
  5
2FF
330
1A
100
AcDbEntity
  8
SEIHIN
100
AcDbCircle
 10
293.9555631907047
 20
416.3172095246379
 30
0.0
 40
3.0
100
AcDbArc
 50
90.0
 51
180.0
  0
LINE
  5
300
330
1A
100
AcDbEntity
  8
SEIHIN
100
AcDbLine
 10
293.9531286028523
 20
419.317209524638
 30
0.0
 11
293.9531286028523
 21
424.317209524638
 31
0.0
  0
LINE
  5
301
330
1A
100
AcDbEntity
  8
SEIHIN
100
AcDbLine
 10
286.2925870120749
 20
424.317209524638
 30
0.0
 11
286.2925870120749
 21
402.317209524638
 31
0.0
  0
LINE
  5
302
330
1A
100
AcDbEntity
  8
SEIHIN
100
AcDbLine
 10
285.092587012075
 20
424.317209524638
 30
0.0
 11
285.092587012075
 21
402.317209524638
 31
0.0
  0
LINE
  5
303
330
1A
100
AcDbEntity
  8
SEIHIN
100
AcDbLine
 10
293.9531286028523
 20
402.317209524638
 30
0.0
 11
293.9531286028523
 21
407.317209524638
 31
0.0
  0
ARC
  5
304
330
1A
100
AcDbEntity
  8
SEIHIN
100
AcDbCircle
 10
293.9555631907047
 20
410.317209524638
 30
0.0
 40
3.0
100
AcDbArc
 50
180.0
 51
270.0
  0
LINE
  5
305
330
1A
100
AcDbEntity
  8
SEIHIN
100
AcDbLine
 10
290.9555631907047
 20
410.317209524638
 30
0.0
 11
290.9555631907047
 21
416.3172095246379
 31
0.0
  0
LINE
  5
306
330
1A
100
AcDbEntity
  8
SEIHIN
100
AcDbLine
 10
286.2925870120749
 20
407.317209524638
 30
0.0
 11
285.092587012075
 21
407.317209524638
 31
0.0
  0
LINE
  5
307
330
1A
100
AcDbEntity
  8
SEIHIN
100
AcDbLine
 10
286.2925870120749
 20
419.317209524638
 30
0.0
 11
285.092587012075
 21
419.317209524638
 31
0.0
  0
LINE
  5
308
330
1A
100
AcDbEntity
  8
SEIHIN
100
AcDbLine
 10
353.7925870120749
 20
410.8172095246381
 30
0.0
 11
341.7925870120749
 21
410.817209524638
 31
0.0
  0
LINE
  5
309
330
1A
100
AcDbEntity
  8
SEIHIN
100
AcDbLine
 10
353.7925870120749
 20
415.817209524638
 30
0.0
 11
341.7925870120749
 21
415.817209524638
 31
0.0
  0
LINE
  5
30A
330
1A
100
AcDbEntity
  8
SEIHIN
100
AcDbLine
 10
341.7925870120749
 20
410.817209524638
 30
0.0
 11
341.7925870120749
 21
415.817209524638
 31
0.0
  0
LINE
  5
30B
330
1A
100
AcDbEntity
  8
SEIHIN
100
AcDbLine
 10
353.7925870120749
 20
410.817209524638
 30
0.0
 11
353.7925870120749
 21
415.817209524638
 31
0.0
  0
LINE
  5
30C
330
1A
100
AcDbEntity
  8
SEIHIN
100
AcDbLine
 10
383.6602050120749
 20
181.072855886421
 30
0.0
 11
405.3316150120749
 21
207.362377886421
 31
0.0
  0
LINE
  5
30D
330
1A
100
AcDbEntity
  8
SEIHIN
100
AcDbLine
 10
392.5338880120749
 20
173.757956886421
 30
0.0
 11
414.2052970070748
 21
200.047478886421
 31
0.0
  0
LINE
  5
30E
330
1A
100
AcDbEntity
  8
CENTER_L
100
AcDbLine
 10
605.7612198680503
 20
288.8706637603285
 30
0.0
 11
427.9139481551907
 21
217.0157014698962
 31
0.0
  0
LINE
  5
30F
330
1A
100
AcDbEntity
  8
SEIHIN
100
AcDbLine
 10
425.7780410070749
 20
222.354318886421
 30
0.0
 11
552.906032446048
 21
273.717360943464
 31
0.0
  0
LINE
  5
310
330
1A
100
AcDbEntity
  8
SEIHIN
100
AcDbLine
 10
430.0860170120749
 20
211.691703886421
 30
0.0
 11
557.2140084460478
 21
263.054746943464
 31
0.0
  0
LINE
  5
311
330
1A
100
AcDbEntity
  8
SEIHIN
100
AcDbLine
 10
395.7464090120749
 20
242.074523883421
 30
0.0
 11
397.766838712075
 21
262.278827583421
 31
0.0
  0
LINE
  5
312
330
1A
100
AcDbEntity
  8
SEIHIN
100
AcDbLine
 10
402.160580612075
 20
264.006769383421
 30
0.0
 11
399.7524590120749
 21
239.925545083421
 31
0.0
  0
LINE
  5
313
330
1A
100
AcDbEntity
  8
SEIHIN
100
AcDbLine
 10
396.8909947120749
 20
241.460529883421
 30
0.0
 11
398.960883312075
 21
262.159423183421
 31
0.0
  0
LINE
  5
314
330
1A
100
AcDbEntity
  8
NOKITOI
  6
PHANTOM
 62
     8
100
AcDbLine
 10
396.1614668731808
 20
273.5359858834211
 30
0.0
 11
393.1684668731804
 21
243.606185883421
 31
0.0
  0
LINE
  5
315
330
1A
100
AcDbEntity
  8
NOKITOI
  6
PHANTOM
 62
     8
100
AcDbLine
 10
397.202466873181
 20
271.8856858834211
 30
0.0
 11
394.3336668731808
 21
243.198285883421
 31
0.0
  0
ARC
  5
316
330
1A
100
AcDbEntity
  8
SEIHIN
100
AcDbCircle
 10
445.0702810120748
 20
174.604349886421
 30
0.0
 40
51.49999999991853
100
AcDbArc
 50
112.0000000218639
 51
140.5000000232731
  0
ARC
  5
317
330
1A
100
AcDbEntity
  8
SEIHIN
100
AcDbCircle
 10
445.0702810120748
 20
174.604349886421
 30
0.0
 40
40.0000000025502
100
AcDbArc
 50
112.0000000191805
 51
140.5000000236617
  0
LINE
  5
318
330
1A
100
AcDbEntity
  8
SEIHIN
100
AcDbLine
 10
385.3717730120749
 20
233.586185883421
 30
0.0
 11
395.7464090120749
 21
242.074523883421
 31
0.0
  0
LINE
  5
319
330
1A
100
AcDbEntity
  8
SEIHIN
100
AcDbLine
 10
386.8710191120749
 20
229.386185883421
 30
0.0
 11
399.7524590120749
 21
239.925545083421
 31
0.0
  0
LINE
  5
31A
330
1A
100
AcDbEntity
  8
SEIHIN
100
AcDbLine
 10
385.8001291120749
 20
232.386185883421
 30
0.0
 11
396.8909947120749
 21
241.460529883421
 31
0.0
  0
LINE
  5
31B
330
1A
100
AcDbEntity
  8
NOKITOI
  6
PHANTOM
 62
     8
100
AcDbLine
 10
392.987566873181
 20
243.2688858834211
 30
0.0
 11
383.0022668731808
 21
235.0990858834209
 31
0.0
  0
LINE
  5
31C
330
1A
100
AcDbEntity
  8
NOKITOI
  6
PHANTOM
 62
     8
100
AcDbLine
 10
393.9718668731807
 20
242.5237858834212
 30
0.0
 11
383.5687668731807
 21
234.0120858834212
 31
0.0
  0
ARC
  5
31D
330
1A
100
AcDbEntity
  8
NOKITOI
  6
PHANTOM
 62
     8
100
AcDbCircle
 10
382.6856732609294
 20
235.4860881634107
 30
0.0
 40
0.5000022800304047
100
AcDbArc
 50
269.9992680212791
 51
309.2854498596055
  0
ARC
  5
31E
330
1A
100
AcDbEntity
  8
NOKITOI
  6
PHANTOM
 62
     8
100
AcDbCircle
 10
382.9354599406033
 20
234.786083408415
 30
0.0
 40
0.9999975250179316
100
AcDbArc
 50
270.0003972084035
 51
309.2946416752297
  0
ARC
  5
31F
330
1A
100
AcDbEntity
  8
NOKITOI
  6
PHANTOM
 62
     8
100
AcDbCircle
 10
392.6709494473025
 20
243.6558533970331
 30
0.0
 40
0.4999904508696396
100
AcDbArc
 50
309.2900846377946
 51
354.2990110749239
  0
ARC
  5
320
330
1A
100
AcDbEntity
  8
NOKITOI
  6
PHANTOM
 62
     8
100
AcDbCircle
 10
393.3386443003119
 20
243.2977438117485
 30
0.0
 40
0.9999908507640039
100
AcDbArc
 50
309.288709223069
 51
354.2862329477532
  0
LINE
  5
321
330
1A
100
AcDbEntity
  8
SEIHIN
100
AcDbLine
 10
408.4925870120749
 20
270.374860883421
 30
0.0
 11
408.4925870120749
 21
288.797510883421
 31
0.0
  0
LINE
  5
322
330
1A
100
AcDbEntity
  8
SEIHIN
100
AcDbLine
 10
407.2925870120749
 20
270.374860883421
 30
0.0
 11
407.2925870120749
 21
288.797510883421
 31
0.0
  0
ARC
  5
323
330
1A
100
AcDbEntity
  8
NOKITOI
  6
PHANTOM
 62
     8
100
AcDbCircle
 10
404.3385840863589
 20
274.2862025665689
 30
0.0
 40
1.500016683246579
100
AcDbArc
 50
269.9993425123344
 51
358.2076423244113
  0
ARC
  5
324
330
1A
100
AcDbEntity
  8
NOKITOI
  6
PHANTOM
 62
     8
100
AcDbCircle
 10
398.1974875230216
 20
271.7862045712703
 30
0.0
 40
0.9999813123640345
100
AcDbArc
 50
90.00118317084911
 51
174.2905900333514
  0
LINE
  5
325
330
1A
100
AcDbEntity
  8
SEIHIN
100
AcDbLine
 10
407.3925871120748
 20
268.4696053834211
 30
0.0
 11
400.4459949120749
 21
264.458988283421
 31
0.0
  0
LINE
  5
326
330
1A
100
AcDbEntity
  8
SEIHIN
100
AcDbLine
 10
406.7925870120749
 20
269.508835883421
 30
0.0
 11
399.8459948120749
 21
265.498218783421
 31
0.0
  0
ARC
  5
327
330
1A
100
AcDbEntity
  8
SEIHIN
100
AcDbCircle
 10
405.1456921120749
 20
263.708258283421
 30
0.0
 40
2.999999957105099
100
AcDbArc
 50
120.0000001084142
 51
174.2894078126911
  0
ARC
  5
328
330
1A
100
AcDbEntity
  8
SEIHIN
100
AcDbCircle
 10
401.9459949120749
 20
261.860912083421
 30
0.0
 40
3.000000006856998
100
AcDbArc
 50
120.0000001084142
 51
174.2894080027292
  0
ARC
  5
329
330
1A
100
AcDbEntity
  8
SEIHIN
100
AcDbCircle
 10
401.9459949120749
 20
261.860912083421
 30
0.0
 40
4.200000021369245
100
AcDbArc
 50
120.0000011534159
 51
174.2894084913981
  0
ARC
  5
32A
330
1A
100
AcDbEntity
  8
SEIHIN
100
AcDbCircle
 10
406.2925870120749
 20
270.374860883421
 30
0.0
 40
0.9999999983612706
100
AcDbArc
 50
300.0000001084142
 51
0.0
  0
ARC
  5
32B
330
1A
100
AcDbEntity
  8
SEIHIN
100
AcDbCircle
 10
406.2925870120749
 20
270.374860883421
 30
0.0
 40
2.200000005055114
100
AcDbArc
 50
299.9999998479836
 51
0.0
  0
LINE
  5
32C
330
1A
100
AcDbEntity
  8
SEIHIN
100
AcDbLine
 10
400.107886012075
 20
290.997510883421
 30
0.0
 11
406.2925870120749
 21
290.997510883421
 31
0.0
  0
LINE
  5
32D
330
1A
100
AcDbEntity
  8
SEIHIN
100
AcDbLine
 10
400.107886012075
 20
289.797510883421
 30
0.0
 11
406.2925870120749
 21
289.797510883421
 31
0.0
  0
ARC
  5
32E
330
1A
100
AcDbEntity
  8
NOKITOI
  6
PHANTOM
 62
     8
100
AcDbCircle
 10
404.2289556361866
 20
286.7861974772382
 30
0.0
 40
1.999988406214315
100
AcDbArc
 50
358.2088726535936
 51
89.99967808195551
  0
LINE
  5
32F
330
1A
100
AcDbEntity
  8
NOKITOI
  6
PHANTOM
 62
     8
100
AcDbLine
 10
406.2279668731807
 20
286.7236858834211
 30
0.0
 11
405.8378668731807
 21
274.2392858834211
 31
0.0
  0
LINE
  5
330
330
1A
100
AcDbEntity
  8
NOKITOI
  6
PHANTOM
 62
     8
100
AcDbLine
 10
401.7562668731807
 20
287.5861858834213
 30
0.0
 11
402.2562668731807
 21
285.0861858834213
 31
0.0
  0
ARC
  5
331
330
1A
100
AcDbEntity
  8
NOKITOI
  6
PHANTOM
 62
     8
100
AcDbCircle
 10
397.951070582676
 20
285.7861897934518
 30
0.0
 40
0.4999960899831856
100
AcDbArc
 50
90.00042508015082
 51
183.0156217414647
  0
LINE
  5
332
330
1A
100
AcDbEntity
  8
NOKITOI
  6
PHANTOM
 62
     8
100
AcDbLine
 10
405.0285668731803
 20
286.761185883421
 30
0.0
 11
404.8792668731807
 21
281.9821858834212
 31
0.0
  0
LINE
  5
333
330
1A
100
AcDbEntity
  8
SEIHIN
100
AcDbLine
 10
399.534310012075
 20
289.616662883421
 30
0.0
 11
392.420219012075
 21
284.635322883421
 31
0.0
  0
LINE
  5
334
330
1A
100
AcDbEntity
  8
SEIHIN
100
AcDbLine
 10
398.846018312075
 20
290.599645383421
 30
0.0
 11
391.7319273120749
 21
285.618305383421
 31
0.0
  0
LINE
  5
335
330
1A
100
AcDbEntity
  8
SEIHIN
100
AcDbLine
 10
391.7319273120749
 20
285.618305383421
 30
0.0
 11
392.420219012075
 21
284.635322883421
 31
0.0
  0
ARC
  5
336
330
1A
100
AcDbEntity
  8
NOKITOI
  6
PHANTOM
 62
     8
100
AcDbCircle
 10
400.7774359462445
 20
278.7862216280849
 30
0.0
 40
3.99998565374706
100
AcDbArc
 50
358.208696659101
 51
83.5242238046835
  0
ARC
  5
337
330
1A
100
AcDbEntity
  8
NOKITOI
  6
PHANTOM
 62
     8
100
AcDbCircle
 10
400.7774490068295
 20
278.786194611801
 30
0.0
 40
5.199991271650611
100
AcDbArc
 50
37.92532860472995
 51
89.9998031407256
  0
ARC
  5
338
330
1A
100
AcDbEntity
  8
NOKITOI
  6
PHANTOM
 62
     8
100
AcDbCircle
 10
402.690904861005
 20
275.9861227039933
 30
0.0
 40
2.000036820932882
100
AcDbArc
 50
269.9989117490344
 51
358.2110591274195
  0
LINE
  5
339
330
1A
100
AcDbEntity
  8
NOKITOI
  6
PHANTOM
 62
     8
100
AcDbLine
 10
404.3385668731807
 20
272.7861858834211
 30
0.0
 11
398.1974668731809
 21
272.7861858834211
 31
0.0
  0
LINE
  5
33A
330
1A
100
AcDbEntity
  8
NOKITOI
  6
PHANTOM
 62
     8
100
AcDbLine
 10
400.3154668731808
 20
283.9861858834211
 30
0.0
 11
399.3196668731807
 21
285.0861858834213
 31
0.0
  0
LINE
  5
33B
330
1A
100
AcDbEntity
  8
NOKITOI
  6
PHANTOM
 62
     8
100
AcDbLine
 10
400.3154668731808
 20
283.9861858834211
 30
0.0
 11
400.7774668731808
 21
283.9861858834211
 31
0.0
  0
LINE
  5
33C
330
1A
100
AcDbEntity
  8
NOKITOI
  6
PHANTOM
 62
     8
100
AcDbLine
 10
401.0109668731806
 20
279.8568858834211
 30
0.0
 11
400.6771668731808
 21
282.1930858834213
 31
0.0
  0
ARC
  5
33D
330
1A
100
AcDbEntity
  8
NOKITOI
  6
PHANTOM
 62
     8
100
AcDbCircle
 10
400.5159770596169
 20
279.7861976281452
 30
0.0
 40
0.5000117448278309
100
AcDbArc
 50
269.9988327478016
 51
8.127314608715551
  0
ARC
  5
33E
330
1A
100
AcDbEntity
  8
NOKITOI
  6
PHANTOM
 62
     8
100
AcDbCircle
 10
398.2668709945873
 20
279.7861819733906
 30
0.0
 40
0.4999960899864752
100
AcDbArc
 50
183.0147243791741
 51
269.9995277178593
  0
LINE
  5
33F
330
1A
100
AcDbEntity
  8
NOKITOI
  6
PHANTOM
 62
     8
100
AcDbLine
 10
398.2668668731808
 20
279.2861858834211
 30
0.0
 11
400.5159668731803
 21
279.2861858834211
 31
0.0
  0
LINE
  5
340
330
1A
100
AcDbEntity
  8
NOKITOI
  6
PHANTOM
 62
     8
100
AcDbLine
 10
398.9309668731807
 20
280.4861858834211
 30
0.0
 11
399.7088668731803
 21
280.4861858834211
 31
0.0
  0
LINE
  5
341
330
1A
100
AcDbEntity
  8
NOKITOI
  6
PHANTOM
 62
     8
100
AcDbLine
 10
399.7088668731803
 20
280.4861858834211
 30
0.0
 11
399.3048668731807
 21
283.314585883421
 31
0.0
  0
LINE
  5
342
330
1A
100
AcDbEntity
  8
NOKITOI
  6
PHANTOM
 62
     8
100
AcDbLine
 10
397.7675668731808
 20
279.7598858834211
 30
0.0
 11
397.4517668731805
 21
285.7598858834211
 31
0.0
  0
LINE
  5
343
330
1A
100
AcDbEntity
  8
NOKITOI
  6
PHANTOM
 62
     8
100
AcDbLine
 10
399.3048668731807
 20
283.314585883421
 30
0.0
 11
398.7498668731804
 21
283.9275858834211
 31
0.0
  0
LINE
  5
344
330
1A
100
AcDbEntity
  8
NOKITOI
  6
PHANTOM
 62
     8
100
AcDbLine
 10
398.9309668731807
 20
280.4861858834211
 30
0.0
 11
398.7498668731804
 21
283.9275858834211
 31
0.0
  0
ARC
  5
345
330
1A
100
AcDbEntity
  8
NOKITOI
  6
PHANTOM
 62
     8
100
AcDbCircle
 10
401.1721962456804
 20
282.263816115916
 30
0.0
 40
0.4999578477751074
100
AcDbArc
 50
83.52609071220751
 51
188.1330561712932
  0
LINE
  5
346
330
1A
100
AcDbEntity
  8
NOKITOI
  6
PHANTOM
 62
     8
100
AcDbLine
 10
402.2562668731807
 20
285.0861858834213
 30
0.0
 11
399.3196668731807
 21
285.0861858834213
 31
0.0
  0
ARC
  5
347
330
1A
100
AcDbEntity
  8
NOKITOI
  6
PHANTOM
 62
     8
100
AcDbCircle
 10
396.6589799441853
 20
273.486197713701
 30
0.0
 40
0.499988169890889
100
AcDbArc
 50
90.00149786226634
 51
174.2966061377162
  0
LINE
  5
348
330
1A
100
AcDbEntity
  8
NOKITOI
  6
PHANTOM
 62
     8
100
AcDbLine
 10
396.6589668731803
 20
273.9861858834211
 30
0.0
 11
402.6908668731807
 21
273.9861858834211
 31
0.0
  0
LINE
  5
349
330
1A
100
AcDbEntity
  8
NOKITOI
  6
PHANTOM
 62
     8
100
AcDbLine
 10
404.6899668731807
 20
275.9235858834212
 30
0.0
 11
404.7754668731804
 21
278.6611858834211
 31
0.0
  0
LINE
  5
34A
330
1A
100
AcDbEntity
  8
NOKITOI
  6
PHANTOM
 62
     8
100
AcDbLine
 10
404.2289668731809
 20
287.5860858834211
 30
0.0
 11
401.7562668731807
 21
287.5861858834213
 31
0.0
  0
LINE
  5
34B
330
1A
100
AcDbEntity
  8
NOKITOI
  6
PHANTOM
 62
     8
100
AcDbLine
 10
404.2289668731809
 20
288.7860858834211
 30
0.0
 11
400.9023668731806
 21
288.7861858834211
 31
0.0
  0
ARC
  5
34C
330
1A
100
AcDbEntity
  8
SEIHIN
100
AcDbCircle
 10
400.107886012075
 20
288.797510883421
 30
0.0
 40
0.9999999714352551
100
AcDbArc
 50
90.0
 51
124.9999997494021
  0
ARC
  5
34D
330
1A
100
AcDbEntity
  8
SEIHIN
100
AcDbCircle
 10
400.107886012075
 20
288.797510883421
 30
0.0
 40
2.199999983850877
100
AcDbArc
 50
90.0
 51
124.999998682272
  0
LINE
  5
34E
330
1A
100
AcDbEntity
  8
NOKITOI
  6
PHANTOM
 62
     8
100
AcDbLine
 10
400.6728668731807
 20
286.8841858834213
 30
0.0
 11
400.4120668731807
 21
288.1881858834211
 31
0.0
  0
ARC
  5
34F
330
1A
100
AcDbEntity
  8
NOKITOI
  6
PHANTOM
 62
     8
100
AcDbCircle
 10
400.1825660901722
 20
286.7861849284194
 30
0.0
 40
0.4999990449987399
100
AcDbArc
 50
270.000089726305
 51
11.30328019845521
  0
ARC
  5
350
330
1A
100
AcDbEntity
  8
NOKITOI
  6
PHANTOM
 62
     8
100
AcDbCircle
 10
400.9023596186252
 20
288.2861770335777
 30
0.0
 40
0.500008849895925
100
AcDbArc
 50
89.99916870385415
 51
191.3135956695126
  0
LINE
  5
351
330
1A
100
AcDbEntity
  8
NOKITOI
  6
PHANTOM
 62
     8
100
AcDbLine
 10
397.9510668731809
 20
286.2861858834211
 30
0.0
 11
400.1825668731807
 21
286.2861858834211
 31
0.0
  0
ARC
  5
352
330
1A
100
AcDbEntity
  8
NOKITOI
  6
PHANTOM
 62
     8
100
AcDbCircle
 10
404.2290108395336
 20
286.7861405209481
 30
0.0
 40
0.7999453636812564
100
AcDbArc
 50
358.2123436447881
 51
90.00314907315425
  0
LINE
  5
353
330
1A
100
AcDbEntity
  8
SEIHIN
100
AcDbLine
 10
395.6654634120749
 20
288.372596883421
 30
0.0
 11
396.3537550120749
 21
287.3896138834211
 31
0.0
  0
LINE
  5
354
330
1A
100
AcDbEntity
  8
SEIHIN
100
AcDbLine
 10
407.2925870120749
 20
278.987116883421
 30
0.0
 11
407.2925870120749
 21
278.987116883421
 31
0.0
  0
ARC
  5
355
330
1A
100
AcDbEntity
  8
SEIHIN
100
AcDbCircle
 10
406.2925870120749
 20
288.797510883421
 30
0.0
 40
1.0
100
AcDbArc
 50
0.0
 51
90.0
  0
ARC
  5
356
330
1A
100
AcDbEntity
  8
SEIHIN
100
AcDbCircle
 10
406.2925870120749
 20
288.797510883421
 30
0.0
 40
2.200000000000017
100
AcDbArc
 50
0.0
 51
90.0
  0
CIRCLE
  5
357
330
1A
100
AcDbEntity
  8
SEIHIN
100
AcDbCircle
 10
514.0956154960479
 20
251.835359943464
 30
0.0
 40
1.79999995
  0
LINE
  5
358
330
1A
100
AcDbEntity
  8
SEIHIN
100
AcDbLine
 10
585.0295234460478
 20
274.292943943464
 30
0.0
 11
557.2140084460478
 21
263.054746943464
 31
0.0
  0
CIRCLE
  5
359
330
1A
100
AcDbEntity
  8
SEIHIN
100
AcDbCircle
 10
544.692682446048
 20
264.197376943464
 30
0.0
 40
1.799999999999982
  0
LINE
  5
35A
330
1A
100
AcDbEntity
  8
SEIHIN
100
AcDbLine
 10
580.7215484460479
 20
284.9555589434641
 30
0.0
 11
552.906032446048
 21
273.717360943464
 31
0.0
  0
ARC
  5
35B
330
1A
100
AcDbEntity
  8
SEIHIN
100
AcDbCircle
 10
575.2897494460479
 20
276.5593949434641
 30
0.0
 40
10.00000003252426
100
AcDbArc
 50
21.99997656101689
 51
57.09963165280178
  0
CIRCLE
  5
35C
330
1A
100
AcDbEntity
  8
SEIHIN
100
AcDbCircle
 10
575.2897494460479
 20
276.5593949434641
 30
0.0
 40
1.800000000000011
  0
ARC
  5
35D
330
1A
100
AcDbEntity
  8
SEIHIN
100
AcDbCircle
 10
575.2897494460479
 20
276.5593949434641
 30
0.0
 40
10.00000004502127
100
AcDbArc
 50
346.9003681337888
 51
21.99997656101689
  0
TEXT
  5
35E
330
1A
100
AcDbEntity
  8
SUNPOU
  6
CONTINUOUS
 62
     4
100
AcDbText
 10
647.0369708874436
 20
293.9509606074467
 30
0.0
 40
6.0
  1
10
100
AcDbText
  0
LINE
  5
35F
330
1A
100
AcDbEntity
  8
SUNPOU
  6
CONTINUOUS
 62
     4
100
AcDbLine
 10
638.4727238426753
 20
301.9259202058544
 30
0.0
 11
658.4727238426751
 21
301.9259202058544
 31
0.0
  0
LINE
  5
360
330
1A
100
AcDbEntity
  8
SUNPOU
  6
CONTINUOUS
 62
     4
100
AcDbLine
 10
658.4727238426751
 20
309.9259202058544
 30
0.0
 11
638.4727238426753
 21
301.9259202058544
 31
0.0
  0
LINE
  5
361
330
1A
100
AcDbEntity
  8
SUNPOU
  6
CONTINUOUS
 62
     4
100
AcDbLine
 10
658.4727238426751
 20
301.9259202058544
 30
0.0
 11
658.4727238426751
 21
309.9259202058544
 31
0.0
  0
TEXT
  5
362
330
1A
100
AcDbEntity
  8
SUNPOU
  6
CONTINUOUS
 62
     4
100
AcDbText
 10
662.7674223110337
 20
303.0837350768828
 30
0.0
 40
6.0
  1
4
100
AcDbText
  0
LINE
  5
363
330
1A
100
AcDbEntity
  8
SEIHIN
100
AcDbLine
 10
585.2897494910691
 20
410.8172095246381
 30
0.0
 11
408.4925870120749
 21
410.8172095246381
 31
0.0
  0
LINE
  5
364
330
1A
100
AcDbEntity
  8
SEIHIN
100
AcDbLine
 10
585.2897494910691
 20
415.817209524638
 30
0.0
 11
408.4925870120749
 21
415.817209524638
 31
0.0
  0
ARC
  5
365
330
1A
100
AcDbEntity
  8
SEIHIN
100
AcDbCircle
 10
409.0792584132187
 20
413.317209524638
 30
0.0
 40
17.34733110114381
100
AcDbArc
 50
140.646489972808
 51
219.3535100271919
  0
LINE
  5
366
330
1A
100
AcDbEntity
  8
SEIHIN
100
AcDbLine
 10
398.8460179028122
 20
402.317209524638
 30
0.0
 11
398.8460179028122
 21
424.317209524638
 31
0.0
  0
LINE
  5
367
330
1A
100
AcDbEntity
  8
SEIHIN
100
AcDbLine
 10
408.4925870120749
 20
402.317209524638
 30
0.0
 11
408.4925870120749
 21
424.317209524638
 31
0.0
  0
LINE
  5
368
330
1A
100
AcDbEntity
  8
CENTER_L
100
AcDbLine
 10
514.0956154960479
 20
422.8172095246381
 30
0.0
 11
514.0956154960479
 21
403.817209524638
 31
0.0
  0
LINE
  5
369
330
1A
100
AcDbEntity
  8
CENTER_L
100
AcDbLine
 10
544.692682446048
 20
422.8172095246381
 30
0.0
 11
544.692682446048
 21
403.817209524638
 31
0.0
  0
LINE
  5
36A
330
1A
100
AcDbEntity
  8
CENTER_L
100
AcDbLine
 10
575.2897494460479
 20
422.8172095246381
 30
0.0
 11
575.2897494460479
 21
403.817209524638
 31
0.0
  0
LINE
  5
36B
330
1A
100
AcDbEntity
  8
SEIHIN
100
AcDbLine
 10
580.7215484460479
 20
415.817209524638
 30
0.0
 11
580.7215484460479
 21
410.8172095246381
 31
0.0
  0
LINE
  5
36C
330
1A
100
AcDbEntity
  8
SEIHIN
100
AcDbLine
 10
585.2897494910691
 20
415.817209524638
 30
0.0
 11
585.2897494910691
 21
410.8172095246381
 31
0.0
  0
DIMENSION
  5
3F0
330
1A
100
AcDbEntity
  8
SUNPOU
100
AcDbDimension
  2
*D1
 10
620.0085082358724
 20
288.4253695098783
 30
0.0
 11
628.0158865275527
 21
281.9537473875722
 31
0.0
 70
    33
  3
STANDARD
100
AcDbAlignedDimension
 13
580.7215484460479
 23
284.9555589434641
 33
0.0
 14
585.0295237251661
 24
274.2929444383232
 34
0.0
1001
ACAD
1000
DSTYLE
1002
{
1070
    41
1040
3.0
1070
    42
1040
6.0
1070
    43
1040
14.0
1070
    44
1040
3.0
1070
    73
1070
     0
1070
    74
1070
     0
1070
    77
1070
     3
1070
   140
1040
6.0
1070
   141
1040
10.0
1070
   147
1040
2.0
1070
   172
1070
     1
1070
   173
1070
     1
1070
   176
1070
   256
1070
   177
1070
   256
1070
   178
1070
   256
1070
   271
1070
     0
1070
   272
1070
     0
1070
   341
1005
6D
1070
     6
1000
OPEN
1070
     7
1000
OPEN
1002
}
  0
LINE
  5
3FE
330
1A
100
AcDbEntity
  8
CENTER_L
100
AcDbLine
 10
571.9932114111618
 20
284.7186128584697
 30
0.0
 11
578.5862874809339
 21
268.4001770284584
 31
0.0
  0
LINE
  5
400
330
1A
100
AcDbEntity
  8
CENTER_L
100
AcDbLine
 10
541.3961444111619
 20
272.3565948584696
 30
0.0
 11
547.989220480934
 21
256.0381590284583
 31
0.0
  0
LINE
  5
401
330
1A
100
AcDbEntity
  8
CENTER_L
100
AcDbLine
 10
510.7990774611618
 20
259.9945778584697
 30
0.0
 11
517.3921535309339
 21
243.6761420284584
 31
0.0
  0
DIMENSION
  5
402
330
1A
100
AcDbEntity
  8
SUNPOU
100
AcDbDimension
  2
*D2
 10
611.5231176877617
 20
213.573333601148
 30
0.0
 11
489.1161836962651
 21
169.5103955374939
 31
0.0
 70
    33
  3
STANDARD
100
AcDbAlignedDimension
 13
343.4937875316675
 23
182.9077424344083
 33
0.0
 14
584.5615895659263
 24
280.3054571014957
 34
0.0
1001
ACAD
1000
DSTYLE
1002
{
1070
    41
1040
3.0
1070
    42
1040
6.0
1070
    43
1040
14.0
1070
    44
1040
3.0
1070
    73
1070
     0
1070
    74
1070
     0
1070
    77
1070
     3
1070
   140
1040
6.0
1070
   141
1040
10.0
1070
   147
1040
2.0
1070
   172
1070
     1
1070
   173
1070
     1
1070
   176
1070
   256
1070
   177
1070
   256
1070
   178
1070
   256
1070
   271
1070
     0
1070
   272
1070
     0
1070
   341
1005
6D
1070
     6
1000
OPEN
1070
     7
1000
OPEN
1002
}
  0
DIMENSION
  5
425
330
1A
100
AcDbEntity
  8
SUNPOU
100
AcDbDimension
  2
*D3
 10
621.2980384978118
 20
410.8172095246381
 30
0.0
 11
616.2980384978117
 21
400.8172095246381
 31
0.0
 70
    32
  3
STANDARD
100
AcDbAlignedDimension
 13
585.2897494910691
 23
415.817209524638
 33
0.0
 14
585.2897494910691
 24
410.8172095246381
 34
0.0
 50
90.0
100
AcDbRotatedDimension
1001
ACAD
1000
DSTYLE
1002
{
1070
    41
1040
3.0
1070
    42
1040
6.0
1070
    43
1040
14.0
1070
    44
1040
3.0
1070
    73
1070
     0
1070
    74
1070
     0
1070
    77
1070
     3
1070
   140
1040
6.0
1070
   141
1040
10.0
1070
   147
1040
2.0
1070
   172
1070
     1
1070
   173
1070
     1
1070
   176
1070
   256
1070
   177
1070
   256
1070
   178
1070
   256
1070
   271
1070
     0
1070
   272
1070
     0
1070
   341
1005
6D
1070
     6
1000
OPEN
1070
     7
1000
OPEN
1002
}
  0
DIMENSION
  5
434
330
1A
100
AcDbEntity
  8
SUNPOU
100
AcDbDimension
  2
*D4
 10
238.3946534004762
 20
163.3861858837496
 30
0.0
 11
233.3946534004762
 21
198.4861858835854
 31
0.0
 70
    32
  1
H
  3
STANDARD
100
AcDbAlignedDimension
 13
347.7925870120749
 23
233.586185883421
 33
0.0
 14
370.5425870120748
 24
163.3861858837495
 34
0.0
 50
90.0
100
AcDbRotatedDimension
1001
ACAD
1000
DSTYLE
1002
{
1070
    41
1040
3.0
1070
    42
1040
6.0
1070
    43
1040
14.0
1070
    44
1040
3.0
1070
    73
1070
     0
1070
    74
1070
     0
1070
    77
1070
     3
1070
   140
1040
6.0
1070
   141
1040
10.0
1070
   147
1040
2.0
1070
   172
1070
     1
1070
   173
1070
     1
1070
   176
1070
   256
1070
   177
1070
   256
1070
   178
1070
   256
1070
   271
1070
     0
1070
   272
1070
     0
1070
   341
1005
6D
1070
     6
1000
OPEN
1070
     7
1000
OPEN
1002
}
  0
DIMENSION
  5
44A
330
1A
100
AcDbEntity
  8
SUNPOU
100
AcDbDimension
  2
*D5
 10
238.3946534004762
 20
319.586185883421
 30
0.0
 11
233.3946534004762
 21
276.5861858834211
 31
0.0
 70
    32
  3
STANDARD
100
AcDbAlignedDimension
 13
347.7925870120749
 23
233.586185883421
 33
0.0
 14
285.092587012075
 24
319.586185883421
 34
0.0
 50
90.0
100
AcDbRotatedDimension
1001
ACAD
1000
DSTYLE
1002
{
1070
    41
1040
3.0
1070
    42
1040
6.0
1070
    43
1040
14.0
1070
    44
1040
3.0
1070
    73
1070
     0
1070
    74
1070
     0
1070
    77
1070
     3
1070
   140
1040
6.0
1070
   141
1040
10.0
1070
   147
1040
2.0
1070
   172
1070
     1
1070
   173
1070
     1
1070
   176
1070
   256
1070
   177
1070
   256
1070
   178
1070
   256
1070
   271
1070
     0
1070
   272
1070
     0
1070
   341
1005
6D
1070
     6
1000
OPEN
1070
     7
1000
OPEN
1002
}
  0
DIMENSION
  5
457
330
1A
100
AcDbEntity
  8
SUNPOU
100
AcDbDimension
  2
*D6
 10
238.3946534004763
 20
402.317209524638
 30
0.0
 11
233.3946534004762
 21
413.317209524638
 31
0.0
 70
    32
  3
STANDARD
100
AcDbAlignedDimension
 13
285.092587012075
 23
424.317209524638
 33
0.0
 14
285.092587012075
 24
402.317209524638
 34
0.0
 50
90.0
100
AcDbRotatedDimension
1001
ACAD
1000
DSTYLE
1002
{
1070
    41
1040
3.0
1070
    42
1040
6.0
1070
    43
1040
14.0
1070
    44
1040
3.0
1070
    73
1070
     0
1070
    74
1070
     0
1070
    77
1070
     3
1070
   140
1040
6.0
1070
   141
1040
10.0
1070
   147
1040
2.0
1070
   172
1070
     1
1070
   173
1070
     1
1070
   176
1070
   256
1070
   177
1070
   256
1070
   178
1070
   256
1070
   271
1070
     0
1070
   272
1070
     0
1070
   341
1005
6D
1070
     6
1000
OPEN
1070
     7
1000
OPEN
1002
}
  0
DIMENSION
  5
464
330
1A
100
AcDbEntity
  8
SUNPOU
100
AcDbDimension
  2
*D7
 10
408.4925870120749
 20
355.0470422207702
 30
0.0
 11
346.7925870120749
 21
360.0470422207702
 31
0.0
 70
    32
  3
STANDARD
100
AcDbAlignedDimension
 13
285.092587012075
 23
319.586185883421
 33
0.0
 14
408.4925870120749
 24
288.797510883421
 34
0.0
100
AcDbRotatedDimension
1001
ACAD
1000
DSTYLE
1002
{
1070
    41
1040
3.0
1070
    42
1040
6.0
1070
    43
1040
14.0
1070
    44
1040
3.0
1070
    73
1070
     0
1070
    74
1070
     0
1070
    77
1070
     3
1070
   140
1040
6.0
1070
   141
1040
10.0
1070
   147
1040
2.0
1070
   172
1070
     1
1070
   173
1070
     1
1070
   176
1070
   256
1070
   177
1070
   256
1070
   178
1070
   256
1070
   271
1070
     0
1070
   272
1070
     0
1070
   341
1005
6D
1070
     6
1000
OPEN
1070
     7
1000
OPEN
1002
}
  0
ARC
  5
49D
330
1A
100
AcDbEntity
  8
CENTER_L
100
AcDbCircle
 10
370.5425870120748
 20
191.886185886421
 30
0.0
 40
22.74999999942755
100
AcDbArc
 50
180.0
 51
320.500000017445
  0
LINE
  5
49F
330
1A
100
AcDbEntity
  8
CENTER_L
100
AcDbLine
 10
388.097046329308
 20
177.4154060746405
 30
0.0
 11
409.768456329308
 21
203.7049280746405
 31
0.0
  0
ARC
  5
4A0
330
1A
100
AcDbEntity
  8
CENTER_L
100
AcDbCircle
 10
445.0702810120748
 20
174.604349886421
 30
0.0
 40
45.75000000255021
100
AcDbArc
 50
112.0000000191805
 51
140.5000000236617
  0
LINE
  5
4B0
330
1A
100
AcDbEntity
  8
CENTER_L
100
AcDbLine
 10
581.2650515310402
 20
288.4646750165014
 30
0.0
 11
587.8581276008124
 21
272.1462391864901
 31
0.0
  0
DIMENSION
  5
4B1
330
1A
100
AcDbEntity
  8
SUNPOU
100
AcDbDimension
  2
*D8
 10
575.3915741755649
 20
303.0020415370829
 30
0.0
 11
581.39960396001
 21
310.8221168633965
 31
0.0
 70
    33
  3
STANDARD
100
AcDbAlignedDimension
 13
573.135761537242
 23
281.8907020748383
 33
0.0
 14
582.4076001187633
 24
285.6367680404374
 34
0.0
1001
ACAD
1000
DSTYLE
1002
{
1070
    41
1040
3.0
1070
    42
1040
6.0
1070
    43
1040
14.0
1070
    44
1040
3.0
1070
    73
1070
     0
1070
    74
1070
     0
1070
    77
1070
     3
1070
   140
1040
6.0
1070
   141
1040
10.0
1070
   147
1040
2.0
1070
   172
1070
     1
1070
   173
1070
     1
1070
   176
1070
   256
1070
   177
1070
   256
1070
   178
1070
   256
1070
   271
1070
     0
1070
   272
1070
     0
1070
   341
1005
6D
1070
     6
1000
OPEN
1070
     7
1000
OPEN
1002
}
  0
DIMENSION
  5
4BF
330
1A
100
AcDbEntity
  8
SUNPOU
100
AcDbDimension
  2
*D9
 10
535.5226684403796
 20
286.8939579518153
 30
0.0
 11
553.5840883336052
 21
299.5839190143387
 31
0.0
 70
    32
  3
STANDARD
100
AcDbAlignedDimension
 13
582.4076001187633
 23
285.6367680404374
 33
0.0
 14
542.5386943622068
 24
269.5286845080659
 34
0.0
 50
202.0000000900671
100
AcDbRotatedDimension
1001
ACAD
1000
DSTYLE
1002
{
1070
   287
1070
     4
1070
   287
1070
     4
1070
   287
1070
     4
1070
   287
1070
     4
1070
   287
1070
     4
1070
   287
1070
     4
1070
   287
1070
     4
1070
   287
1070
     4
1070
   279
1070
     1
1070
    41
1040
3.0
1070
    42
1040
6.0
1070
    43
1040
14.0
1070
    44
1040
3.0
1070
    73
1070
     0
1070
    74
1070
     0
1070
    77
1070
     3
1070
   140
1040
6.0
1070
   141
1040
10.0
1070
   147
1040
2.0
1070
   172
1070
     1
1070
   173
1070
     1
1070
   176
1070
   256
1070
   177
1070
   256
1070
   178
1070
   256
1070
   271
1070
     0
1070
   272
1070
     0
1070
   341
1005
6D
1070
     6
1000
OPEN
1070
     7
1000
OPEN
1002
}
  0
DIMENSION
  5
4CC
330
1A
100
AcDbEntity
  8
SUNPOU
100
AcDbDimension
  2
*D10
 10
504.9256016770284
 20
274.5319404898433
 30
0.0
 11
518.3511020843369
 21
285.348868490719
 31
0.0
 70
    32
  3
STANDARD
100
AcDbAlignedDimension
 13
542.5386943622068
 23
269.5286845080659
 33
0.0
 14
511.9416275357821
 24
257.1666672022059
 34
0.0
 50
202.0000000900671
100
AcDbRotatedDimension
1001
ACAD
1000
DSTYLE
1002
{
1070
   287
1070
     4
1070
   287
1070
     4
1070
   287
1070
     4
1070
   287
1070
     4
1070
   287
1070
     4
1070
   287
1070
     4
1070
   287
1070
     4
1070
   287
1070
     4
1070
   279
1070
     1
1070
    41
1040
3.0
1070
    42
1040
6.0
1070
    43
1040
14.0
1070
    44
1040
3.0
1070
    73
1070
     0
1070
    74
1070
     0
1070
    77
1070
     3
1070
   140
1040
6.0
1070
   141
1040
10.0
1070
   147
1040
2.0
1070
   172
1070
     1
1070
   173
1070
     1
1070
   176
1070
   256
1070
   177
1070
   256
1070
   178
1070
   256
1070
   271
1070
     0
1070
   272
1070
     0
1070
   341
1005
6D
1070
     6
1000
OPEN
1070
     7
1000
OPEN
1002
}
  0
LEADER
  5
4D9
330
1A
100
AcDbEntity
  8
SUNPOU
100
AcDbLeader
  3
STANDARD
 73
     0
 40
6.000000000000001
 41
31.19999999999999
 76
     3
 10
543.7561020400583
 20
262.6602311653688
 30
0.0
 10
534.642553848977
 20
231.3109265532188
 30
0.0
 10
539.822503559882
 20
231.3109265532188
 30
0.0
340
4DA
213
0.0
223
-3.0
233
0.0
1001
ACAD
1000
DSTYLE
1002
{
1070
     6
1000
OPEN
1070
    41
1040
3.0
1070
    42
1040
6.0
1070
    43
1040
14.0
1070
    44
1040
3.0
1070
    73
1070
     0
1070
    74
1070
     0
1070
    77
1070
     0
1070
   140
1040
6.0
1070
   141
1040
10.0
1070
   147
1040
2.0
1070
   172
1070
     1
1070
   173
1070
     1
1070
   176
1070
   256
1070
   177
1070
   256
1070
   178
1070
   256
1070
   271
1070
     0
1070
   272
1070
     0
1070
   341
1005
6D
1070
   343
1005
6D
1070
   344
1005
6D
1002
}
  0
MTEXT
  5
4DA
102
{ACAD_REACTORS
330
4D9
102
}
330
1A
100
AcDbEntity
  8
SUNPOU
100
AcDbMText
 10
541.8225035598821
 20
234.3109265532189
 30
0.0
 40
6.0
 41
0.0
 71
     1
 72
     5
  1
\A1;3-φ3.6
1001
ACAD
1000
MTEXTBEGIN
1070
    73
1070
     1
1070
    44
1040
1.0
1070
    74
1070
     0
1000
MTEXTEND
1000
MTEXTBEGIN
1070
    73
1070
     1
1070
    44
1040
1.0
1070
    74
1070
     0
1000
MTEXTEND
1000
MTEXTBEGIN
1070
    73
1070
     1
1070
    44
1040
1.0
1070
    74
1070
     0
1000
MTEXTEND
1000
MTEXTBEGIN
1070
    73
1070
     1
1070
    44
1040
1.0
1070
    74
1070
     0
1000
MTEXTEND
1000
MTEXTBEGIN
1070
    73
1070
     1
1070
    44
1040
1.0
1070
    74
1070
     0
1000
MTEXTEND
1000
MTEXTBEGIN
1070
    73
1070
     1
1070
    44
1040
1.0
1070
    74
1070
     0
1000
MTEXTEND
1000
MTEXTBEGIN
1070
    73
1070
     1
1070
    44
1040
1.0
1070
    74
1070
     0
1000
MTEXTEND
1000
MTEXTBEGIN
1070
    73
1070
     1
1070
    44
1040
1.0
1070
    74
1070
     0
1000
MTEXTEND
  0
LINE
  5
6FA
330
1A
100
AcDbEntity
  8
SUNPOU
  6
CONTINUOUS
 62
     4
100
AcDbLine
 10
650.5673321355821
 20
161.044543048779
 30
0.0
 11
770.5673021355821
 21
161.044543048779
 31
0.0
  0
LINE
  5
6FB
330
1A
100
AcDbEntity
  8
SUNPOU
  6
CONTINUOUS
 62
     4
100
AcDbLine
 10
650.5673321355821
 20
146.044543048779
 30
0.0
 11
770.5674021355823
 21
146.044543048779
 31
0.0
  0
LINE
  5
6FC
330
1A
100
AcDbEntity
  8
SUNPOU
  6
CONTINUOUS
 62
     4
100
AcDbLine
 10
650.5673321355821
 20
131.0445430487791
 30
0.0
 11
770.5674021355823
 21
131.0445430487791
 31
0.0
  0
LINE
  5
6FD
330
1A
100
AcDbEntity
  8
SUNPOU
  6
CONTINUOUS
 62
     4
100
AcDbLine
 10
650.5673321355821
 20
116.0444830487792
 30
0.0
 11
770.5674021355823
 21
116.0444830487792
 31
0.0
  0
LINE
  5
6FE
330
1A
100
AcDbEntity
  8
SUNPOU
  6
CONTINUOUS
 62
     4
100
AcDbLine
 10
650.5673321355821
 20
101.0444830487792
 30
0.0
 11
770.5674021355823
 21
101.0444830487792
 31
0.0
  0
LINE
  5
6FF
330
1A
100
AcDbEntity
  8
SUNPOU
  6
CONTINUOUS
 62
     4
100
AcDbLine
 10
650.5673321355821
 20
86.04448304877923
 30
0.0
 11
770.5674021355823
 21
86.04448304877923
 31
0.0
  0
LINE
  5
700
330
1A
100
AcDbEntity
  8
SUNPOU
  6
CONTINUOUS
 62
     4
100
AcDbLine
 10
650.5673321355821
 20
71.04448304877917
 30
0.0
 11
770.5674021355823
 21
71.04448304877917
 31
0.0
  0
LINE
  5
701
330
1A
100
AcDbEntity
  8
SUNPOU
  6
CONTINUOUS
 62
     4
100
AcDbLine
 10
650.5673321355821
 20
56.04448304877917
 30
0.0
 11
770.5674021355823
 21
56.04448304877917
 31
0.0
  0
LINE
  5
702
330
1A
100
AcDbEntity
  8
SUNPOU
  6
CONTINUOUS
 62
     4
100
AcDbLine
 10
650.5673321355821
 20
161.044543048779
 30
0.0
 11
650.5673221355822
 21
56.04448304877917
 31
0.0
  0
LINE
  5
703
330
1A
100
AcDbEntity
  8
SUNPOU
  6
CONTINUOUS
 62
     4
100
AcDbLine
 10
770.5673021355821
 20
161.044543048779
 30
0.0
 11
770.5674021355823
 21
56.04448304877917
 31
0.0
  0
LINE
  5
704
330
1A
100
AcDbEntity
  8
SUNPOU
  6
CONTINUOUS
 62
     4
100
AcDbLine
 10
710.5673421355821
 20
56.04448304877917
 30
0.0
 11
710.5673921355823
 21
146.044543048779
 31
0.0
  0
TEXT
  5
705
330
1A
100
AcDbEntity
  8
SUNPOU
 62
     4
100
AcDbText
 10
729.3173021355823
 20
119.5850807231978
 30
0.0
 40
6.0
  1
６６
 41
1.125
100
AcDbText
  0
TEXT
  5
706
330
1A
100
AcDbEntity
  8
SUNPOU
  6
CONTINUOUS
 62
     4
100
AcDbText
 10
669.3172721355821
 20
119.7944730487791
 30
0.0
 40
6.0
  1
＃１
 41
1.73076923076923
 72
     5
 11
687.3172721355821
 21
119.7944730487791
 31
0.0
100
AcDbText
  0
TEXT
  5
707
330
1A
100
AcDbEntity
  8
SUNPOU
 62
     4
100
AcDbText
 10
729.3174021355822
 20
59.58520072319777
 30
0.0
 40
6.0
  1
４６
 41
1.125
100
AcDbText
  0
TEXT
  5
708
330
1A
100
AcDbEntity
  8
SUNPOU
 62
     4
100
AcDbText
 10
729.3173021355823
 20
74.58508072319779
 30
0.0
 40
6.0
  1
５１
 41
1.125
100
AcDbText
  0
TEXT
  5
709
330
1A
100
AcDbEntity
  8
SUNPOU
 62
     4
100
AcDbText
 10
729.3173021355823
 20
89.58508072319778
 30
0.0
 40
6.0
  1
５６
 41
1.125
100
AcDbText
  0
TEXT
  5
70A
330
1A
100
AcDbEntity
  8
SUNPOU
 62
     4
100
AcDbText
 10
729.3173021355823
 20
104.5850807231977
 30
0.0
 40
6.0
  1
６１
 41
1.125
100
AcDbText
  0
TEXT
  5
70F
330
1A
100
AcDbEntity
  8
SUNPOU
  6
CONTINUOUS
 62
     4
100
AcDbText
 10
729.317304992729
 20
134.7944430487792
 30
0.0
 40
6.0
  1
寸法
 41
1.406250000000018
 72
     5
 11
747.3173049927291
 21
134.7944430487792
 31
0.0
100
AcDbText
  0
TEXT
  5
710
330
1A
100
AcDbEntity
  8
SUNPOU
  6
CONTINUOUS
 62
     4
100
AcDbText
 10
692.6090088313592
 20
150.537803716916
 30
0.0
 40
6.0
  1
Ｈ　寸　法
 72
     4
 11
710.2090088313592
 21
153.537803716916
 31
0.0
100
AcDbText
  0
TEXT
  5
711
330
1A
100
AcDbEntity
  8
SUNPOU
  6
CONTINUOUS
 62
     4
100
AcDbText
 10
669.3172249927291
 20
134.7945330487792
 30
0.0
 40
6.0
  1
呼び
 41
1.40625
 72
     5
 11
687.3172249927291
 21
134.7945330487792
 31
0.0
100
AcDbText
  0
TEXT
  5
761
330
1A
100
AcDbEntity
  8
SUNPOU
  6
CONTINUOUS
 62
     4
100
AcDbText
 10
669.3172764212996
 20
104.7944730487791
 30
0.0
 40
6.0
  1
＃２
 41
1.5
 72
     5
 11
687.3172764212996
 21
104.7944730487791
 31
0.0
100
AcDbText
  0
TEXT
  5
762
330
1A
100
AcDbEntity
  8
SUNPOU
  6
CONTINUOUS
 62
     4
100
AcDbText
 10
669.3172764212996
 20
74.79447304877908
 30
0.0
 40
6.0
  1
＃４
 41
1.5
 72
     5
 11
687.3172764212996
 21
74.79447304877908
 31
0.0
100
AcDbText
  0
TEXT
  5
763
330
1A
100
AcDbEntity
  8
SUNPOU
  6
CONTINUOUS
 62
     4
100
AcDbText
 10
669.3172721355821
 20
89.79447304877908
 30
0.0
 40
6.0
  1
＃３
 41
1.5
 72
     5
 11
687.3172721355821
 21
89.79447304877908
 31
0.0
100
AcDbText
  0
TEXT
  5
764
330
1A
100
AcDbEntity
  8
SUNPOU
  6
CONTINUOUS
 62
     4
100
AcDbText
 10
669.3172664212997
 20
59.79447304877908
 30
0.0
 40
6.0
  1
＃５
 41
1.5
 72
     5
 11
687.3172664212996
 21
59.79447304877908
 31
0.0
100
AcDbText
  0
LWPOLYLINE
  5
909
330
1A
100
AcDbEntity
  8
ZUWAKU
100
AcDbPolyline
 90
        4
 70
     1
 43
0.0
 10
0.7999991100541593
 20
550.7999997557194
 10
0.7999991100541593
 20
0.7999997557194547
 10
796.7999991100541
 20
0.7999997557194547
 10
796.7999991100541
 20
550.7999997557194
  0
LWPOLYLINE
  5
90A
330
1A
100
AcDbEntity
  8
ZUWAKU
100
AcDbPolyline
 90
        4
 70
     1
 43
0.0
 10
0.399999110054182
 20
551.1999997557194
 10
0.399999110054182
 20
0.3999997557194774
 10
797.1999991100542
 20
0.3999997557194543
 10
797.1999991100542
 20
551.1999997557194
  0
LWPOLYLINE
  5
90B
330
1A
100
AcDbEntity
  8
ZUWAKU
100
AcDbPolyline
 90
        4
 70
     1
 43
0.0
 10
-0.0000008899457953
 20
551.5999997557194
 10
-0.0000008899457953
 20
-0.0000002442806135
 10
797.5999991100543
 20
-0.000000244280546
 10
797.5999991100543
 20
551.5999997557194
  0
LWPOLYLINE
  5
90C
330
1A
100
AcDbEntity
  8
ZUWAKU
100
AcDbPolyline
 90
        4
 70
     1
 43
0.0
 10
0.5999991100541138
 20
550.9999997557194
 10
0.5999991100541138
 20
0.5999997557194093
 10
796.9999991100544
 20
0.5999997557194554
 10
796.9999991100542
 20
550.9999997557194
  0
LWPOLYLINE
  5
90D
330
1A
100
AcDbEntity
  8
ZUWAKU
100
AcDbPolyline
 90
        4
 70
     1
 43
0.0
 10
0.1999991100541365
 20
551.3999997557195
 10
0.1999991100541365
 20
0.1999997557194319
 10
797.3999991100541
 20
0.199999755719455
 10
797.3999991100543
 20
551.3999997557195
  0
LINE
  5
90E
330
1A
100
AcDbEntity
  8
ZUWAKU
100
AcDbLine
 10
-0.0000008899457953
 20
29.99999975571938
 30
0.0
 11
797.3999991100541
 21
29.99999975571938
 31
0.0
  0
LINE
  5
90F
330
1A
100
AcDbEntity
  8
ZUWAKU
100
AcDbLine
 10
-0.0000008899457953
 20
30.19999975571939
 30
0.0
 11
797.3999991100541
 21
30.19999975571939
 31
0.0
  0
LINE
  5
910
330
1A
100
AcDbEntity
  8
ZUWAKU
100
AcDbLine
 10
-0.0000008899457953
 20
30.39999975571939
 30
0.0
 11
797.3999991100541
 21
30.39999975571939
 31
0.0
  0
LINE
  5
911
330
1A
100
AcDbEntity
  8
ZUWAKU
100
AcDbLine
 10
-0.0000008899457953
 20
30.59999975571939
 30
0.0
 11
797.3999991100541
 21
30.59999975571939
 31
0.0
  0
LINE
  5
912
330
1A
100
AcDbEntity
  8
ZUWAKU
100
AcDbLine
 10
-0.0000008899457953
 20
30.7999997557194
 30
0.0
 11
797.3999991100541
 21
30.7999997557194
 31
0.0
  0
LINE
  5
913
330
1A
100
AcDbEntity
  8
ZUWAKU
100
AcDbLine
 10
208.6466004001222
 20
15.39999975571942
 30
0.0
 11
447.4243630810455
 21
15.39999975571942
 31
0.0
  0
LINE
  5
914
330
1A
100
AcDbEntity
  8
ZUWAKU
100
AcDbLine
 10
208.6466004001222
 20
15.59999975571941
 30
0.0
 11
447.4243630810455
 21
15.59999975571942
 31
0.0
  0
LINE
  5
915
330
1A
100
AcDbEntity
  8
ZUWAKU
100
AcDbLine
 10
208.6466004001222
 20
15.19999975571942
 30
0.0
 11
447.4243630810455
 21
15.19999975571941
 31
0.0
  0
TEXT
  5
916
330
1A
100
AcDbEntity
  8
MOJI
100
AcDbText
 10
92.95778869822333
 20
12.74117788599414
 30
0.0
 40
6.0
  1
新・丸トップＲＶ１０５
 41
0.9
  7
ｽﾀｲﾙ1
100
AcDbText
  0
CIRCLE
  5
917
330
1A
100
AcDbEntity
  8
ZUWAKU
100
AcDbCircle
 10
25.9922112648353
 20
15.19999975571939
 30
0.0
 40
1.75
  0
LINE
  5
918
330
1A
100
AcDbEntity
  8
ZUWAKU
100
AcDbLine
 10
26.8672112648353
 20
7.149999755719392
 30
0.0
 11
24.94221126483535
 21
7.149999755719392
 31
0.0
  0
LINE
  5
919
330
1A
100
AcDbEntity
  8
ZUWAKU
100
AcDbLine
 10
24.94221126483535
 20
9.949999755719389
 30
0.0
 11
26.8672112648353
 21
9.949999755719389
 31
0.0
  0
LINE
  5
91A
330
1A
100
AcDbEntity
  8
ZUWAKU
100
AcDbLine
 10
26.8672112648353
 20
20.44999975571939
 30
0.0
 11
24.94221126483535
 21
20.44999975571939
 31
0.0
  0
LINE
  5
91B
330
1A
100
AcDbEntity
  8
ZUWAKU
100
AcDbLine
 10
24.94221126483535
 20
23.24999975571935
 30
0.0
 11
26.8672112648353
 21
23.24999975571939
 31
0.0
  0
HATCH
  5
91C
330
1A
100
AcDbEntity
  8
ZUWAKU
100
AcDbHatch
 10
0.0
 20
0.0
 30
0.0
210
0.0
220
0.0
230
1.0
  2
ANSI37
 70
     0
 71
     0
 91
        8
 92
        7
 72
     1
 73
     1
 93
       24
 10
14.50226177117406
 20
17.64484823670296
 42
-0.1989123673796348
 10
14.09221126483532
 20
18.63479773036402
 42
0.0
 10
14.09221126483532
 20
19.92499975571939
 42
-0.4142135623730912
 10
14.6172112648353
 20
20.44999975571939
 42
0.0
 10
17.59221126483521
 20
20.44999975571939
 42
0.4142135623731546
 10
18.1172112648353
 20
20.97499975571938
 42
0.0
 10
18.1172112648353
 20
22.72499975571939
 42
0.4142135623731586
 10
17.59221126483521
 20
23.24999975571939
 42
0.0
 10
14.09221126483532
 20
23.24999975571939
 42
0.4142135623730928
 10
11.29221126483537
 20
20.44999975571941
 42
0.0
 10
11.29221126483537
 20
18.63479773036415
 42
0.1989123673796619
 10
12.5223627838518
 20
15.66494924938054
 42
0.0
 10
15.43216075849648
 20
12.75515127473588
 42
-0.1989123673796613
 10
15.84221126483532
 20
11.76520178107469
 42
0.0
 10
15.84221126483532
 20
10.47499975571938
 42
-0.4142135623730911
 10
15.31721126483535
 20
9.949999755719389
 42
0.0
 10
12.34221126483544
 20
9.949999755719389
 42
0.4142135623731526
 10
11.81721126483535
 20
9.424999755719401
 42
0.0
 10
11.81721126483535
 20
7.67499975571938
 42
0.4142135623731526
 10
12.34221126483544
 20
7.149999755719392
 42
0.0
 10
15.84221126483532
 20
7.149999755719392
 42
0.4142135623731044
 10
18.64221126483539
 20
9.949999755719368
 42
0.0
 10
18.64221126483539
 20
11.76520178107464
 42
0.1989123673796604
 10
17.41205974581885
 20
14.73505026205818
 42
0.0
 97
        0
 92
        7
 72
     1
 73
     1
 93
       16
 10
23.54221126483537
 20
19.04999975571939
 42
-0.4142135623730935
 10
24.94221126483535
 20
20.44999975571939
 42
0.0
 10
26.8672112648353
 20
20.44999975571939
 42
0.4142135623731546
 10
27.39221126483539
 20
20.97499975571938
 42
0.0
 10
27.39221126483539
 20
22.72499975571939
 42
0.4142135623730951
 10
26.86721126483542
 20
23.24999975571939
 42
0.0
 10
24.94221126483523
 20
23.24999975571935
 42
0.4142135623730892
 10
20.7422112648353
 20
19.04999975571932
 42
0.0
 10
20.7422112648353
 20
11.34999975571941
 42
0.4142135623730969
 10
24.94221126483535
 20
7.149999755719392
 42
0.0
 10
26.8672112648353
 20
7.149999755719392
 42
0.4142135623731526
 10
27.39221126483539
 20
7.67499975571938
 42
0.0
 10
27.39221126483539
 20
9.424999755719401
 42
0.4142135623730891
 10
26.86721126483542
 20
9.949999755719389
 42
0.0
 10
24.94221126483535
 20
9.949999755719389
 42
-0.4142135623730928
 10
23.54221126483537
 20
11.34999975571937
 42
0.0
 97
        0
 92
        7
 72
     1
 73
     1
 93
        2
 10
24.2422112648353
 20
15.19999975571939
 42
1.0
 10
27.7422112648353
 20
15.19999975571939
 42
1.0
 97
        0
 92
        7
 72
     1
 73
     1
 93
       26
 10
37.31485774701332
 20
19.20504694928281
 42
0.0
 10
38.37649738015113
 20
22.5669057875524
 42
0.5069206636600134
 10
37.87586648095578
 20
23.24999975571939
 42
0.0
 10
36.17697710134655
 20
23.24999975571939
 42
0.3272098845218764
 10
35.67634620215119
 20
22.88309372388636
 42
0.0
 10
33.80807632751941
 20
16.96690578755247
 42
-0.3272098845219541
 10
33.30744542832394
 20
16.59999975571938
 42
0.0
 10
33.16721126483548
 20
16.59999975571938
 42
-0.4142135623731526
 10
32.64221126483539
 20
17.12499975571937
 42
0.0
 10
32.64221126483539
 20
22.72499975571939
 42
0.4142135623730951
 10
32.11721126483542
 20
23.24999975571939
 42
0.0
 10
30.3672112648353
 20
23.24999975571939
 42
0.4142135623730871
 10
29.84221126483532
 20
22.7249997557194
 42
0.0
 10
29.84221126483532
 20
7.67499975571938
 42
0.4142135623730891
 10
30.3672112648353
 20
7.149999755719392
 42
0.0
 10
32.1172112648353
 20
7.149999755719392
 42
0.4142135623731526
 10
32.64221126483539
 20
7.67499975571938
 42
0.0
 10
32.64221126483539
 20
13.2749997557194
 42
-0.4142135623731526
 10
33.16721126483548
 20
13.79999975571939
 42
0.0
 10
33.30744542832405
 20
13.79999975571939
 42
-0.3272098845218915
 10
33.80807632751941
 20
13.43309372388631
 42
0.0
 10
35.67634620215119
 20
7.516905787552463
 42
0.3272098845218902
 10
36.17697710134655
 20
7.149999755719392
 42
0.0
 10
37.87586648095578
 20
7.149999755719392
 42
0.5069206636600335
 10
38.37649738015113
 20
7.833093723886399
 42
0.0
 10
36.05010600167747
 20
15.19999975571952
 42
0.0
 97
        0
 92
        7
 72
     1
 73
     1
 93
        8
 10
43.4922112648353
 20
22.7249997557194
 42
0.4142135623731546
 10
42.96721126483521
 20
23.24999975571939
 42
0.0
 10
41.21721126483544
 20
23.24999975571939
 42
0.4142135623731507
 10
40.69221126483535
 20
22.7249997557194
 42
0.0
 10
40.69221126483535
 20
7.67499975571938
 42
0.4142135623731526
 10
41.21721126483544
 20
7.149999755719392
 42
0.0
 10
42.96721126483521
 20
7.149999755719392
 42
0.4142135623731526
 10
43.4922112648353
 20
7.67499975571938
 42
0.0
 97
        0
 92
        7
 72
     1
 73
     1
 93
       24
 10
48.3922112648354
 20
19.92499975571939
 42
-0.4142135623731546
 10
48.91721126483549
 20
20.44999975571939
 42
0.0
 10
51.89221126483539
 20
20.44999975571939
 42
0.4142135623730911
 10
52.41721126483537
 20
20.97499975571938
 42
0.0
 10
52.41721126483537
 20
22.72499975571939
 42
0.4142135623730952
 10
51.89221126483539
 20
23.24999975571939
 42
0.0
 10
48.3922112648354
 20
23.24999975571939
 42
0.4142135623731048
 10
45.59221126483532
 20
20.44999975571941
 42
0.0
 10
45.59221126483532
 20
18.63479773036415
 42
0.1989123673796613
 10
46.82236278385187
 20
15.66494924938059
 42
0.0
 10
49.73216075849655
 20
12.75515127473592
 42
-0.1989123673796402
 10
50.1422112648354
 20
11.76520178107485
 42
0.0
 10
50.1422112648354
 20
10.47499975571938
 42
-0.4142135623730911
 10
49.61721126483542
 20
9.949999755719389
 42
0.0
 10
46.64221126483539
 20
9.949999755719389
 42
0.4142135623731526
 10
46.1172112648353
 20
9.424999755719401
 42
0.0
 10
46.1172112648353
 20
7.67499975571938
 42
0.4142135623730891
 10
46.64221126483528
 20
7.149999755719392
 42
0.0
 10
50.1422112648354
 20
7.149999755719392
 42
0.4142135623730925
 10
52.94221126483535
 20
9.949999755719368
 42
0.0
 10
52.94221126483535
 20
11.76520178107464
 42
0.1989123673796675
 10
51.7120597458188
 20
14.73505026205829
 42
0.0
 10
48.80226177117425
 20
17.6448482367028
 42
-0.1989123673796652
 10
48.3922112648354
 20
18.63479773036397
 42
0.0
 97
        0
 92
        7
 72
     1
 73
     1
 93
       16
 10
57.84221126483533
 20
22.72499975571938
 42
0.414213562373103
 10
57.31721126483535
 20
23.24999975571939
 42
0.0
 10
55.56721126483535
 20
23.24999975571939
 42
0.4142135623730871
 10
55.04221126483537
 20
22.7249997557194
 42
0.0
 10
55.04221126483537
 20
9.949999755719368
 42
0.4142135623730926
 10
57.84221126483533
 20
7.149999755719392
 42
0.0
 10
61.34221126483533
 20
7.149999755719392
 42
0.4142135623731044
 10
64.14221126483539
 20
9.949999755719368
 42
0.0
 10
64.14221126483539
 20
22.72499975571939
 42
0.4142135623730951
 10
63.61721126483542
 20
23.24999975571939
 42
0.0
 10
61.8672112648353
 20
23.24999975571939
 42
0.4142135623730871
 10
61.34221126483533
 20
22.7249997557194
 42
0.0
 10
61.34221126483533
 20
10.99999975571936
 42
-0.414213562373088
 10
60.29221126483538
 20
9.949999755719389
 42
0.0
 10
58.8922112648354
 20
9.949999755719389
 42
-0.4142135623731197
 10
57.84221126483533
 20
10.99999975571936
 42
0.0
 97
        0
 92
        7
 72
     1
 73
     1
 93
        8
 10
69.04221126483538
 20
22.7249997557194
 42
0.4142135623730871
 10
68.51721126483539
 20
23.24999975571939
 42
0.0
 10
66.76721126483539
 20
23.24999975571939
 42
0.4142135623731507
 10
66.2422112648353
 20
22.7249997557194
 42
0.0
 10
66.2422112648353
 20
7.67499975571938
 42
0.4142135623730891
 10
66.76721126483528
 20
7.149999755719392
 42
0.0
 10
68.51721126483539
 20
7.149999755719392
 42
0.4142135623730891
 10
69.04221126483538
 20
7.67499975571938
 42
0.0
 97
        0
 75
     0
 76
     1
 52
0.0
 41
0.2
 77
     0
 78
     2
 53
45.0
 43
-900.9423052246248
 44
-13.20000024428054
 45
-0.4490128060534576
 46
0.4490128060534577
 79
     0
 53
135.0
 43
-900.9423052246248
 44
-13.20000024428054
 45
-0.4490128060534577
 46
-0.4490128060534576
 79
     0
 47
0.057451373970553
 98
        8
 10
16.07985407307751
 20
15.16717340160494
 10
22.40451411649337
 20
18.84406193817039
 10
25.16436699571386
 20
15.5118814017901
 10
30.91405909169134
 20
16.20129740216088
 10
41.83847112901093
 20
16.6609096697025
 10
46.89820000518375
 20
19.41857607212659
 10
56.55768508245455
 20
18.7291576708144
 10
67.82707872967694
 20
19.18876993835601
  0
ARC
  5
91D
330
1A
100
AcDbEntity
  8
ZUWAKU
100
AcDbCircle
 10
15.4922112648353
 20
18.63479773036409
 30
0.0
 40
4.199999999999999
100
AcDbArc
 50
180.0
 51
225.0
  0
LINE
  5
91E
330
1A
100
AcDbEntity
  8
ZUWAKU
100
AcDbLine
 10
20.7422112648353
 20
11.34999975571939
 30
0.0
 11
20.7422112648353
 21
19.04999975571934
 31
0.0
  0
LINE
  5
91F
330
1A
100
AcDbEntity
  8
ZUWAKU
100
AcDbLine
 10
23.54221126483537
 20
19.04999975571939
 30
0.0
 11
23.54221126483537
 21
11.34999975571939
 31
0.0
  0
ARC
  5
920
330
1A
100
AcDbEntity
  8
ZUWAKU
100
AcDbCircle
 10
15.4922112648353
 20
18.63479773036409
 30
0.0
 40
1.399999999999999
100
AcDbArc
 50
180.0000000000016
 51
224.9999999999988
  0
ARC
  5
921
330
1A
100
AcDbEntity
  8
ZUWAKU
100
AcDbCircle
 10
24.94221126483535
 20
11.34999975571939
 30
0.0
 40
4.199999999999999
100
AcDbArc
 50
180.0
 51
270.0
  0
ARC
  5
922
330
1A
100
AcDbEntity
  8
ZUWAKU
100
AcDbCircle
 10
15.84221126483532
 20
9.949999755719389
 30
0.0
 40
2.799999999999999
100
AcDbArc
 50
270.0
 51
0.0
  0
ARC
  5
923
330
1A
100
AcDbEntity
  8
ZUWAKU
100
AcDbCircle
 10
14.44221126483535
 20
11.76520178107469
 30
0.0
 40
4.199999999999999
100
AcDbArc
 50
0.0
 51
45.0
  0
LINE
  5
924
330
1A
100
AcDbEntity
  8
ZUWAKU
100
AcDbLine
 10
12.5223627838518
 20
15.66494924938057
 30
0.0
 11
15.43216075849648
 21
12.7551512747359
 31
0.0
  0
LINE
  5
925
330
1A
100
AcDbEntity
  8
ZUWAKU
100
AcDbLine
 10
12.34221126483532
 20
9.949999755719389
 30
0.0
 11
15.31721126483535
 21
9.949999755719389
 31
0.0
  0
LINE
  5
926
330
1A
100
AcDbEntity
  8
ZUWAKU
100
AcDbLine
 10
12.34221126483532
 20
7.149999755719392
 30
0.0
 11
15.84221126483532
 21
7.149999755719392
 31
0.0
  0
ARC
  5
927
330
1A
100
AcDbEntity
  8
ZUWAKU
100
AcDbCircle
 10
12.34221126483532
 20
9.42499975571939
 30
0.0
 40
0.525
100
AcDbArc
 50
90.0
 51
180.0
  0
ARC
  5
928
330
1A
100
AcDbEntity
  8
ZUWAKU
100
AcDbCircle
 10
12.34221126483532
 20
7.67499975571939
 30
0.0
 40
0.525
100
AcDbArc
 50
180.0
 51
270.0
  0
LINE
  5
929
330
1A
100
AcDbEntity
  8
ZUWAKU
100
AcDbLine
 10
11.81721126483535
 20
7.67499975571939
 30
0.0
 11
11.81721126483535
 21
9.42499975571939
 31
0.0
  0
ARC
  5
92A
330
1A
100
AcDbEntity
  8
ZUWAKU
100
AcDbCircle
 10
14.44221126483535
 20
11.76520178107473
 30
0.0
 40
1.399999999999999
100
AcDbArc
 50
0.0
 51
45.0
  0
ARC
  5
92B
330
1A
100
AcDbEntity
  8
ZUWAKU
100
AcDbCircle
 10
15.31721126483535
 20
10.47499975571939
 30
0.0
 40
0.525
100
AcDbArc
 50
270.0
 51
0.0
  0
LINE
  5
92C
330
1A
100
AcDbEntity
  8
ZUWAKU
100
AcDbLine
 10
15.84221126483532
 20
10.47499975571939
 30
0.0
 11
15.84221126483532
 21
11.76520178107473
 31
0.0
  0
LINE
  5
92D
330
1A
100
AcDbEntity
  8
ZUWAKU
100
AcDbLine
 10
17.41205974581885
 20
14.73505026205821
 30
0.0
 11
14.50226177117417
 21
17.64484823670289
 31
0.0
  0
ARC
  5
92E
330
1A
100
AcDbEntity
  8
ZUWAKU
100
AcDbCircle
 10
24.94221126483535
 20
11.34999975571939
 30
0.0
 40
1.399999999999999
100
AcDbArc
 50
180.0
 51
270.0
  0
LINE
  5
92F
330
1A
100
AcDbEntity
  8
ZUWAKU
100
AcDbLine
 10
18.64221126483539
 20
9.949999755719389
 30
0.0
 11
18.64221126483539
 21
11.76520178107473
 31
0.0
  0
ARC
  5
930
330
1A
100
AcDbEntity
  8
ZUWAKU
100
AcDbCircle
 10
17.59221126483532
 20
20.97499975571938
 30
0.0
 40
0.525
100
AcDbArc
 50
270.0
 51
0.0
  0
ARC
  5
931
330
1A
100
AcDbEntity
  8
ZUWAKU
100
AcDbCircle
 10
17.59221126483532
 20
22.72499975571939
 30
0.0
 40
0.525
100
AcDbArc
 50
0.0
 51
90.0
  0
ARC
  5
932
330
1A
100
AcDbEntity
  8
ZUWAKU
100
AcDbCircle
 10
14.09221126483532
 20
20.44999975571939
 30
0.0
 40
2.799999999999999
100
AcDbArc
 50
90.0
 51
180.0
  0
LINE
  5
933
330
1A
100
AcDbEntity
  8
ZUWAKU
100
AcDbLine
 10
11.29221126483537
 20
20.44999975571939
 30
0.0
 11
11.29221126483537
 21
18.63479773036404
 31
0.0
  0
LINE
  5
934
330
1A
100
AcDbEntity
  8
ZUWAKU
100
AcDbLine
 10
17.59221126483532
 20
20.44999975571939
 30
0.0
 11
14.6172112648353
 21
20.44999975571939
 31
0.0
  0
LINE
  5
935
330
1A
100
AcDbEntity
  8
ZUWAKU
100
AcDbLine
 10
14.09221126483532
 20
19.92499975571939
 30
0.0
 11
14.09221126483532
 21
18.63479773036404
 31
0.0
  0
ARC
  5
936
330
1A
100
AcDbEntity
  8
ZUWAKU
100
AcDbCircle
 10
14.6172112648353
 20
19.92499975571939
 30
0.0
 40
0.525
100
AcDbArc
 50
90.0
 51
180.0
  0
LINE
  5
937
330
1A
100
AcDbEntity
  8
ZUWAKU
100
AcDbLine
 10
14.09221126483532
 20
23.24999975571939
 30
0.0
 11
17.59221126483532
 21
23.24999975571939
 31
0.0
  0
ARC
  5
938
330
1A
100
AcDbEntity
  8
ZUWAKU
100
AcDbCircle
 10
24.94221126483535
 20
19.04999975571934
 30
0.0
 40
4.199999999999999
100
AcDbArc
 50
90.0
 51
180.0
  0
ARC
  5
939
330
1A
100
AcDbEntity
  8
ZUWAKU
100
AcDbCircle
 10
24.94221126483535
 20
19.04999975571939
 30
0.0
 40
1.399999999999999
100
AcDbArc
 50
90.0
 51
180.0
  0
LINE
  5
93A
330
1A
100
AcDbEntity
  8
ZUWAKU
100
AcDbLine
 10
18.1172112648353
 20
22.72499975571939
 30
0.0
 11
18.1172112648353
 21
20.97499975571938
 31
0.0
  0
LINE
  5
93B
330
1A
100
AcDbEntity
  8
ZUWAKU
100
AcDbLine
 10
35.67634620215119
 20
22.88309372388636
 30
0.0
 11
33.80807632751941
 21
16.96690578755242
 31
0.0
  0
LINE
  5
93C
330
1A
100
AcDbEntity
  8
ZUWAKU
100
AcDbLine
 10
29.84221126483532
 20
22.72499975571939
 30
0.0
 11
29.84221126483532
 21
7.67499975571939
 31
0.0
  0
LINE
  5
93D
330
1A
100
AcDbEntity
  8
ZUWAKU
100
AcDbLine
 10
32.64221126483539
 20
17.12499975571939
 30
0.0
 11
32.64221126483539
 21
22.72499975571939
 31
0.0
  0
LINE
  5
93E
330
1A
100
AcDbEntity
  8
ZUWAKU
100
AcDbLine
 10
57.84221126483533
 20
10.99999975571938
 30
0.0
 11
57.84221126483533
 21
22.72499975571939
 31
0.0
  0
LINE
  5
93F
330
1A
100
AcDbEntity
  8
ZUWAKU
100
AcDbLine
 10
55.04221126483537
 20
22.72499975571939
 30
0.0
 11
55.04221126483537
 21
9.949999755719389
 31
0.0
  0
LINE
  5
940
330
1A
100
AcDbEntity
  8
ZUWAKU
100
AcDbLine
 10
43.4922112648353
 20
7.67499975571939
 30
0.0
 11
43.4922112648353
 21
22.72499975571939
 31
0.0
  0
LINE
  5
941
330
1A
100
AcDbEntity
  8
ZUWAKU
100
AcDbLine
 10
40.69221126483535
 20
22.72499975571939
 30
0.0
 11
40.69221126483535
 21
7.67499975571939
 31
0.0
  0
LINE
  5
942
330
1A
100
AcDbEntity
  8
ZUWAKU
100
AcDbLine
 10
37.31485774701332
 20
19.20504694928281
 30
0.0
 11
36.05010600167747
 21
15.19999975571941
 31
0.0
  0
ARC
  5
943
330
1A
100
AcDbEntity
  8
ZUWAKU
100
AcDbCircle
 10
49.79221126483537
 20
18.63479773036409
 30
0.0
 40
4.199999999999999
100
AcDbArc
 50
180.0
 51
225.0
  0
ARC
  5
944
330
1A
100
AcDbEntity
  8
ZUWAKU
100
AcDbCircle
 10
49.79221126483537
 20
18.63479773036409
 30
0.0
 40
1.399999999999999
100
AcDbArc
 50
180.0000000000016
 51
224.9999999999988
  0
LINE
  5
945
330
1A
100
AcDbEntity
  8
ZUWAKU
100
AcDbLine
 10
66.2422112648353
 20
22.72499975571939
 30
0.0
 11
66.2422112648353
 21
7.67499975571939
 31
0.0
  0
LINE
  5
946
330
1A
100
AcDbEntity
  8
ZUWAKU
100
AcDbLine
 10
69.04221126483538
 20
7.67499975571939
 30
0.0
 11
69.04221126483538
 21
22.72499975571939
 31
0.0
  0
LINE
  5
947
330
1A
100
AcDbEntity
  8
ZUWAKU
100
AcDbLine
 10
61.34221126483533
 20
22.72499975571939
 30
0.0
 11
61.34221126483533
 21
10.99999975571938
 31
0.0
  0
LINE
  5
948
330
1A
100
AcDbEntity
  8
ZUWAKU
100
AcDbLine
 10
64.14221126483539
 20
9.949999755719389
 30
0.0
 11
64.14221126483539
 21
22.72499975571939
 31
0.0
  0
LINE
  5
949
330
1A
100
AcDbEntity
  8
ZUWAKU
100
AcDbLine
 10
79.12662865804259
 20
29.99999975571938
 30
0.0
 11
79.12662865804259
 21
0.7999997557194547
 31
0.0
  0
LINE
  5
94A
330
1A
100
AcDbEntity
  8
ZUWAKU
100
AcDbLine
 10
79.52662865804246
 20
29.99999975571938
 30
0.0
 11
79.52662865804268
 21
0.7999997557194547
 31
0.0
  0
LINE
  5
94B
330
1A
100
AcDbEntity
  8
ZUWAKU
100
AcDbLine
 10
79.32662865804241
 20
29.99999975571938
 30
0.0
 11
79.32662865804264
 21
0.7999997557194547
 31
0.0
  0
LINE
  5
94C
330
1A
100
AcDbEntity
  8
ZUWAKU
100
AcDbLine
 10
57.84221126483533
 20
7.149999755719392
 30
0.0
 11
61.34221126483533
 21
7.149999755719392
 31
0.0
  0
LINE
  5
94D
330
1A
100
AcDbEntity
  8
ZUWAKU
100
AcDbLine
 10
60.29221126483538
 20
9.949999755719389
 30
0.0
 11
58.8922112648354
 21
9.949999755719389
 31
0.0
  0
LINE
  5
94E
330
1A
100
AcDbEntity
  8
ZUWAKU
100
AcDbLine
 10
41.21721126483532
 20
7.149999755719392
 30
0.0
 11
42.96721126483532
 21
7.149999755719392
 31
0.0
  0
LINE
  5
94F
330
1A
100
AcDbEntity
  8
ZUWAKU
100
AcDbLine
 10
35.67634620215119
 20
7.516905787552417
 30
0.0
 11
33.80807632751941
 21
13.43309372388636
 31
0.0
  0
ARC
  5
950
330
1A
100
AcDbEntity
  8
ZUWAKU
100
AcDbCircle
 10
33.16721126483537
 20
13.27499975571939
 30
0.0
 40
0.525
100
AcDbArc
 50
90.0
 51
180.0
  0
ARC
  5
951
330
1A
100
AcDbEntity
  8
ZUWAKU
100
AcDbCircle
 10
33.30744542832405
 20
13.27499975571939
 30
0.0
 40
0.525
100
AcDbArc
 50
17.52556837372303
 51
90.0
  0
ARC
  5
952
330
1A
100
AcDbEntity
  8
ZUWAKU
100
AcDbCircle
 10
30.3672112648353
 20
7.67499975571939
 30
0.0
 40
0.525
100
AcDbArc
 50
180.0
 51
270.0
  0
ARC
  5
953
330
1A
100
AcDbEntity
  8
ZUWAKU
100
AcDbCircle
 10
26.8672112648353
 20
9.42499975571939
 30
0.0
 40
0.525
100
AcDbArc
 50
0.0
 51
90.0
  0
ARC
  5
954
330
1A
100
AcDbEntity
  8
ZUWAKU
100
AcDbCircle
 10
26.8672112648353
 20
7.67499975571939
 30
0.0
 40
0.525
100
AcDbArc
 50
270.0
 51
0.0
  0
LINE
  5
955
330
1A
100
AcDbEntity
  8
ZUWAKU
100
AcDbLine
 10
27.39221126483539
 20
9.42499975571939
 30
0.0
 11
27.39221126483539
 21
7.67499975571939
 31
0.0
  0
LINE
  5
956
330
1A
100
AcDbEntity
  8
ZUWAKU
100
AcDbLine
 10
32.64221126483539
 20
7.67499975571939
 30
0.0
 11
32.64221126483539
 21
13.27499975571939
 31
0.0
  0
ARC
  5
957
330
1A
100
AcDbEntity
  8
ZUWAKU
100
AcDbCircle
 10
32.1172112648353
 20
7.67499975571939
 30
0.0
 40
0.525
100
AcDbArc
 50
270.0
 51
0.0
  0
LINE
  5
958
330
1A
100
AcDbEntity
  8
ZUWAKU
100
AcDbLine
 10
30.3672112648353
 20
7.149999755719392
 30
0.0
 11
32.1172112648353
 21
7.149999755719392
 31
0.0
  0
ARC
  5
959
330
1A
100
AcDbEntity
  8
ZUWAKU
100
AcDbCircle
 10
33.16721126483537
 20
17.12499975571939
 30
0.0
 40
0.525
100
AcDbArc
 50
180.0
 51
270.0
  0
LINE
  5
95A
330
1A
100
AcDbEntity
  8
ZUWAKU
100
AcDbLine
 10
33.16721126483537
 20
13.79999975571939
 30
0.0
 11
33.30744542832405
 21
13.79999975571939
 31
0.0
  0
LINE
  5
95B
330
1A
100
AcDbEntity
  8
ZUWAKU
100
AcDbLine
 10
33.30744542832405
 20
16.59999975571938
 30
0.0
 11
33.16721126483537
 21
16.59999975571938
 31
0.0
  0
ARC
  5
95C
330
1A
100
AcDbEntity
  8
ZUWAKU
100
AcDbCircle
 10
33.30744542832405
 20
17.12499975571939
 30
0.0
 40
0.525
100
AcDbArc
 50
270.0
 51
342.4744316262769
  0
ARC
  5
95D
330
1A
100
AcDbEntity
  8
ZUWAKU
100
AcDbCircle
 10
36.17697710134666
 20
7.67499975571939
 30
0.0
 40
0.525
100
AcDbArc
 50
197.525568373723
 51
270.0
  0
LINE
  5
95E
330
1A
100
AcDbEntity
  8
ZUWAKU
100
AcDbLine
 10
38.37649738015113
 20
7.833093723886364
 30
0.0
 11
36.05010600167747
 21
15.19999975571941
 31
0.0
  0
ARC
  5
95F
330
1A
100
AcDbEntity
  8
ZUWAKU
100
AcDbCircle
 10
37.87586648095566
 20
7.67499975571939
 30
0.0
 40
0.525
100
AcDbArc
 50
270.0
 51
17.52556837372303
  0
LINE
  5
960
330
1A
100
AcDbEntity
  8
ZUWAKU
100
AcDbLine
 10
36.17697710134666
 20
7.149999755719392
 30
0.0
 11
37.87586648095566
 21
7.149999755719392
 31
0.0
  0
ARC
  5
961
330
1A
100
AcDbEntity
  8
ZUWAKU
100
AcDbCircle
 10
41.21721126483532
 20
7.67499975571939
 30
0.0
 40
0.525
100
AcDbArc
 50
180.0
 51
270.0
  0
ARC
  5
962
330
1A
100
AcDbEntity
  8
ZUWAKU
100
AcDbCircle
 10
50.1422112648354
 20
9.949999755719389
 30
0.0
 40
2.799999999999999
100
AcDbArc
 50
270.0
 51
0.0
  0
ARC
  5
963
330
1A
100
AcDbEntity
  8
ZUWAKU
100
AcDbCircle
 10
57.84221126483533
 20
9.949999755719389
 30
0.0
 40
2.799999999999999
100
AcDbArc
 50
180.0
 51
270.0
  0
LINE
  5
964
330
1A
100
AcDbEntity
  8
ZUWAKU
100
AcDbLine
 10
51.71205974581892
 20
14.73505026205821
 30
0.0
 11
48.80226177117413
 21
17.64484823670289
 31
0.0
  0
LINE
  5
965
330
1A
100
AcDbEntity
  8
ZUWAKU
100
AcDbLine
 10
46.82236278385187
 20
15.66494924938057
 30
0.0
 11
49.73216075849655
 21
12.7551512747359
 31
0.0
  0
LINE
  5
966
330
1A
100
AcDbEntity
  8
ZUWAKU
100
AcDbLine
 10
46.64221126483539
 20
7.149999755719392
 30
0.0
 11
50.1422112648354
 21
7.149999755719392
 31
0.0
  0
LINE
  5
967
330
1A
100
AcDbEntity
  8
ZUWAKU
100
AcDbLine
 10
46.64221126483539
 20
9.949999755719389
 30
0.0
 11
49.61721126483531
 21
9.949999755719389
 31
0.0
  0
ARC
  5
968
330
1A
100
AcDbEntity
  8
ZUWAKU
100
AcDbCircle
 10
46.64221126483539
 20
9.42499975571939
 30
0.0
 40
0.525
100
AcDbArc
 50
90.0
 51
180.0
  0
ARC
  5
969
330
1A
100
AcDbEntity
  8
ZUWAKU
100
AcDbCircle
 10
42.96721126483532
 20
7.67499975571939
 30
0.0
 40
0.525
100
AcDbArc
 50
270.0
 51
0.0
  0
ARC
  5
96A
330
1A
100
AcDbEntity
  8
ZUWAKU
100
AcDbCircle
 10
46.64221126483539
 20
7.67499975571939
 30
0.0
 40
0.525
100
AcDbArc
 50
180.0
 51
270.0
  0
LINE
  5
96B
330
1A
100
AcDbEntity
  8
ZUWAKU
100
AcDbLine
 10
46.1172112648353
 20
7.67499975571939
 30
0.0
 11
46.1172112648353
 21
9.42499975571939
 31
0.0
  0
ARC
  5
96C
330
1A
100
AcDbEntity
  8
ZUWAKU
100
AcDbCircle
 10
49.61721126483531
 20
10.47499975571939
 30
0.0
 40
0.525
100
AcDbArc
 50
270.0
 51
0.0
  0
ARC
  5
96D
330
1A
100
AcDbEntity
  8
ZUWAKU
100
AcDbCircle
 10
48.7422112648353
 20
11.76520178107473
 30
0.0
 40
1.399999999999999
100
AcDbArc
 50
0.0
 51
45.0
  0
LINE
  5
96E
330
1A
100
AcDbEntity
  8
ZUWAKU
100
AcDbLine
 10
50.1422112648354
 20
10.47499975571939
 30
0.0
 11
50.1422112648354
 21
11.76520178107473
 31
0.0
  0
ARC
  5
96F
330
1A
100
AcDbEntity
  8
ZUWAKU
100
AcDbCircle
 10
58.8922112648354
 20
10.99999975571938
 30
0.0
 40
1.049999999999999
100
AcDbArc
 50
180.0
 51
270.0
  0
ARC
  5
970
330
1A
100
AcDbEntity
  8
ZUWAKU
100
AcDbCircle
 10
48.7422112648353
 20
11.76520178107469
 30
0.0
 40
4.199999999999999
100
AcDbArc
 50
0.0
 51
45.0
  0
LINE
  5
971
330
1A
100
AcDbEntity
  8
ZUWAKU
100
AcDbLine
 10
52.94221126483535
 20
9.949999755719389
 30
0.0
 11
52.94221126483535
 21
11.76520178107473
 31
0.0
  0
ARC
  5
972
330
1A
100
AcDbEntity
  8
ZUWAKU
100
AcDbCircle
 10
61.34221126483533
 20
9.949999755719389
 30
0.0
 40
2.799999999999999
100
AcDbArc
 50
270.0
 51
0.0
  0
LINE
  5
973
330
1A
100
AcDbEntity
  8
ZUWAKU
100
AcDbLine
 10
66.76721126483539
 20
7.149999755719392
 30
0.0
 11
68.51721126483539
 21
7.149999755719392
 31
0.0
  0
ARC
  5
974
330
1A
100
AcDbEntity
  8
ZUWAKU
100
AcDbCircle
 10
60.29221126483538
 20
10.99999975571938
 30
0.0
 40
1.049999999999999
100
AcDbArc
 50
270.0
 51
0.0
  0
ARC
  5
975
330
1A
100
AcDbEntity
  8
ZUWAKU
100
AcDbCircle
 10
66.76721126483539
 20
7.67499975571939
 30
0.0
 40
0.525
100
AcDbArc
 50
180.0
 51
270.0
  0
ARC
  5
976
330
1A
100
AcDbEntity
  8
ZUWAKU
100
AcDbCircle
 10
68.51721126483539
 20
7.67499975571939
 30
0.0
 40
0.525
100
AcDbArc
 50
270.0
 51
0.0
  0
LINE
  5
977
330
1A
100
AcDbEntity
  8
ZUWAKU
100
AcDbLine
 10
42.96721126483532
 20
23.24999975571939
 30
0.0
 11
41.21721126483532
 21
23.24999975571939
 31
0.0
  0
LINE
  5
978
330
1A
100
AcDbEntity
  8
ZUWAKU
100
AcDbLine
 10
27.39221126483539
 20
22.72499975571939
 30
0.0
 11
27.39221126483539
 21
20.97499975571938
 31
0.0
  0
ARC
  5
979
330
1A
100
AcDbEntity
  8
ZUWAKU
100
AcDbCircle
 10
26.8672112648353
 20
20.97499975571938
 30
0.0
 40
0.525
100
AcDbArc
 50
270.0
 51
0.0
  0
ARC
  5
97A
330
1A
100
AcDbEntity
  8
ZUWAKU
100
AcDbCircle
 10
30.3672112648353
 20
22.72499975571939
 30
0.0
 40
0.525
100
AcDbArc
 50
90.0
 51
180.0
  0
ARC
  5
97B
330
1A
100
AcDbEntity
  8
ZUWAKU
100
AcDbCircle
 10
26.8672112648353
 20
22.72499975571939
 30
0.0
 40
0.525
100
AcDbArc
 50
0.0
 51
90.0
  0
LINE
  5
97C
330
1A
100
AcDbEntity
  8
ZUWAKU
100
AcDbLine
 10
32.1172112648353
 20
23.24999975571939
 30
0.0
 11
30.3672112648353
 21
23.24999975571939
 31
0.0
  0
ARC
  5
97D
330
1A
100
AcDbEntity
  8
ZUWAKU
100
AcDbCircle
 10
32.1172112648353
 20
22.72499975571939
 30
0.0
 40
0.525
100
AcDbArc
 50
0.0
 51
90.0
  0
ARC
  5
97E
330
1A
100
AcDbEntity
  8
ZUWAKU
100
AcDbCircle
 10
36.17697710134666
 20
22.72499975571939
 30
0.0
 40
0.525
100
AcDbArc
 50
90.0
 51
162.4744316262769
  0
LINE
  5
97F
330
1A
100
AcDbEntity
  8
ZUWAKU
100
AcDbLine
 10
38.37649738015113
 20
22.56690578755242
 30
0.0
 11
37.31485774701332
 21
19.20504694928281
 31
0.0
  0
ARC
  5
980
330
1A
100
AcDbEntity
  8
ZUWAKU
100
AcDbCircle
 10
37.87586648095566
 20
22.72499975571939
 30
0.0
 40
0.525
100
AcDbArc
 50
342.4744316262769
 51
90.0
  0
LINE
  5
981
330
1A
100
AcDbEntity
  8
ZUWAKU
100
AcDbLine
 10
36.17697710134666
 20
23.24999975571939
 30
0.0
 11
37.87586648095566
 21
23.24999975571939
 31
0.0
  0
ARC
  5
982
330
1A
100
AcDbEntity
  8
ZUWAKU
100
AcDbCircle
 10
41.21721126483532
 20
22.72499975571939
 30
0.0
 40
0.525
100
AcDbArc
 50
90.0
 51
180.0
  0
LINE
  5
983
330
1A
100
AcDbEntity
  8
ZUWAKU
100
AcDbLine
 10
51.89221126483539
 20
20.44999975571939
 30
0.0
 11
48.91721126483537
 21
20.44999975571939
 31
0.0
  0
LINE
  5
984
330
1A
100
AcDbEntity
  8
ZUWAKU
100
AcDbLine
 10
48.3922112648354
 20
23.24999975571939
 30
0.0
 11
51.89221126483539
 21
23.24999975571939
 31
0.0
  0
ARC
  5
985
330
1A
100
AcDbEntity
  8
ZUWAKU
100
AcDbCircle
 10
48.3922112648354
 20
20.44999975571939
 30
0.0
 40
2.799999999999999
100
AcDbArc
 50
90.0
 51
180.0
  0
LINE
  5
986
330
1A
100
AcDbEntity
  8
ZUWAKU
100
AcDbLine
 10
45.59221126483532
 20
20.44999975571939
 30
0.0
 11
45.59221126483532
 21
18.63479773036404
 31
0.0
  0
ARC
  5
987
330
1A
100
AcDbEntity
  8
ZUWAKU
100
AcDbCircle
 10
42.96721126483532
 20
22.72499975571939
 30
0.0
 40
0.525
100
AcDbArc
 50
0.0
 51
90.0
  0
LINE
  5
988
330
1A
100
AcDbEntity
  8
ZUWAKU
100
AcDbLine
 10
48.3922112648354
 20
19.92499975571939
 30
0.0
 11
48.3922112648354
 21
18.63479773036404
 31
0.0
  0
ARC
  5
989
330
1A
100
AcDbEntity
  8
ZUWAKU
100
AcDbCircle
 10
48.91721126483537
 20
19.92499975571939
 30
0.0
 40
0.525
100
AcDbArc
 50
90.0
 51
180.0
  0
LINE
  5
98A
330
1A
100
AcDbEntity
  8
ZUWAKU
100
AcDbLine
 10
52.41721126483537
 20
22.72499975571939
 30
0.0
 11
52.41721126483537
 21
20.97499975571938
 31
0.0
  0
ARC
  5
98B
330
1A
100
AcDbEntity
  8
ZUWAKU
100
AcDbCircle
 10
51.89221126483539
 20
20.97499975571938
 30
0.0
 40
0.525
100
AcDbArc
 50
270.0
 51
0.0
  0
ARC
  5
98C
330
1A
100
AcDbEntity
  8
ZUWAKU
100
AcDbCircle
 10
51.89221126483539
 20
22.72499975571939
 30
0.0
 40
0.525
100
AcDbArc
 50
0.0
 51
90.0
  0
LINE
  5
98D
330
1A
100
AcDbEntity
  8
ZUWAKU
100
AcDbLine
 10
57.31721126483535
 20
23.24999975571939
 30
0.0
 11
55.56721126483535
 21
23.24999975571939
 31
0.0
  0
ARC
  5
98E
330
1A
100
AcDbEntity
  8
ZUWAKU
100
AcDbCircle
 10
55.56721126483535
 20
22.72499975571939
 30
0.0
 40
0.525
100
AcDbArc
 50
90.0
 51
180.0
  0
ARC
  5
98F
330
1A
100
AcDbEntity
  8
ZUWAKU
100
AcDbCircle
 10
57.31721126483535
 20
22.72499975571939
 30
0.0
 40
0.525
100
AcDbArc
 50
0.0
 51
90.0
  0
LINE
  5
990
330
1A
100
AcDbEntity
  8
ZUWAKU
100
AcDbLine
 10
68.51721126483539
 20
23.24999975571939
 30
0.0
 11
66.76721126483539
 21
23.24999975571939
 31
0.0
  0
ARC
  5
991
330
1A
100
AcDbEntity
  8
ZUWAKU
100
AcDbCircle
 10
61.8672112648353
 20
22.72499975571939
 30
0.0
 40
0.525
100
AcDbArc
 50
90.0
 51
180.0
  0
LINE
  5
992
330
1A
100
AcDbEntity
  8
ZUWAKU
100
AcDbLine
 10
63.6172112648353
 20
23.24999975571939
 30
0.0
 11
61.8672112648353
 21
23.24999975571939
 31
0.0
  0
ARC
  5
993
330
1A
100
AcDbEntity
  8
ZUWAKU
100
AcDbCircle
 10
63.6172112648353
 20
22.72499975571939
 30
0.0
 40
0.525
100
AcDbArc
 50
0.0
 51
90.0
  0
ARC
  5
994
330
1A
100
AcDbEntity
  8
ZUWAKU
100
AcDbCircle
 10
66.76721126483539
 20
22.72499975571939
 30
0.0
 40
0.525
100
AcDbArc
 50
90.0
 51
180.0
  0
ARC
  5
995
330
1A
100
AcDbEntity
  8
ZUWAKU
100
AcDbCircle
 10
68.51721126483539
 20
22.72499975571939
 30
0.0
 40
0.525
100
AcDbArc
 50
0.0
 51
90.0
  0
TEXT
  5
996
330
1A
100
AcDbEntity
  8
MOJI
100
AcDbText
 10
239.8272017909052
 20
18.00492081312677
 30
0.0
 40
5.599999999999999
  1
亜鉛メッキ金具横打鶴首（受）
 41
0.9
  7
ｽﾀｲﾙ1
100
AcDbText
  0
TEXT
  5
997
330
1A
100
AcDbEntity
  8
MOJI
100
AcDbText
 10
239.8272017909052
 20
3.204920813126808
 30
0.0
 40
5.599999999999999
  1
ＲＶ１０５－Ｌ２６０
 41
0.9
  7
ｽﾀｲﾙ1
100
AcDbText
  0
LINE
  5
998
330
1A
100
AcDbEntity
  8
ZUWAKU
100
AcDbLine
 10
208.4466004001219
 20
29.99999975571938
 30
0.0
 11
208.4466004001221
 21
0.7999997557194547
 31
0.0
  0
LINE
  5
999
330
1A
100
AcDbEntity
  8
ZUWAKU
100
AcDbLine
 10
208.6466004001219
 20
29.99999975571938
 30
0.0
 11
208.6466004001222
 21
0.7999997557194547
 31
0.0
  0
LINE
  5
99A
330
1A
100
AcDbEntity
  8
ZUWAKU
100
AcDbLine
 10
208.2466004001221
 20
29.99999975571938
 30
0.0
 11
208.2466004001221
 21
0.7999997557194547
 31
0.0
  0
TEXT
  5
99B
330
1A
100
AcDbEntity
  8
ZUWAKU
100
AcDbText
 10
209.7240454223317
 20
9.655356294105004
 30
0.0
 40
4.0
  1
サイズ
 41
0.9
  7
ｽﾀｲﾙ1
100
AcDbText
  0
TEXT
  5
99C
330
1A
100
AcDbEntity
  8
ZUWAKU
100
AcDbText
 10
209.7240454223315
 20
24.05535629410497
 30
0.0
 40
4.0
  1
品名
 41
0.9
  7
ｽﾀｲﾙ1
100
AcDbText
  0
TEXT
  5
99D
330
1A
100
AcDbEntity
  8
ZUWAKU
100
AcDbText
 10
658.2039367973566
 20
18.00492081312677
 30
0.0
 40
5.599999999999999
  1
　　．　　．　　
 41
0.9
  7
ｽﾀｲﾙ1
100
AcDbText
  0
LINE
  5
99E
330
1A
100
AcDbEntity
  8
ZUWAKU
100
AcDbLine
 10
648.8172016202583
 20
15.59999975571941
 30
0.0
 11
697.2490096585954
 21
15.59999975571941
 31
0.0
  0
LINE
  5
99F
330
1A
100
AcDbEntity
  8
ZUWAKU
100
AcDbLine
 10
648.8172016202586
 20
15.39999975571942
 30
0.0
 11
697.2490096585954
 21
15.39999975571942
 31
0.0
  0
LINE
  5
9A0
330
1A
100
AcDbEntity
  8
ZUWAKU
100
AcDbLine
 10
648.8172016202583
 20
15.19999975571941
 30
0.0
 11
697.2490096585954
 21
15.19999975571942
 31
0.0
  0
LINE
  5
9A1
330
1A
100
AcDbEntity
  8
ZUWAKU
100
AcDbLine
 10
505.199178608195
 20
15.59999975571941
 30
0.0
 11
552.5269548761666
 21
15.59999975571941
 31
0.0
  0
LINE
  5
9A2
330
1A
100
AcDbEntity
  8
ZUWAKU
100
AcDbLine
 10
505.199178608195
 20
15.39999975571942
 30
0.0
 11
552.5269548761666
 21
15.39999975571942
 31
0.0
  0
LINE
  5
9A3
330
1A
100
AcDbEntity
  8
ZUWAKU
100
AcDbLine
 10
505.199178608195
 20
15.19999975571942
 30
0.0
 11
552.5269548761666
 21
15.19999975571942
 31
0.0
  0
LINE
  5
9A4
330
1A
100
AcDbEntity
  8
ZUWAKU
100
AcDbLine
 10
504.7991786081952
 20
29.99999975571938
 30
0.0
 11
504.7991786081952
 21
0.7999997557194547
 31
0.0
  0
LINE
  5
9A5
330
1A
100
AcDbEntity
  8
ZUWAKU
100
AcDbLine
 10
505.199178608195
 20
29.99999975571938
 30
0.0
 11
505.1991786081953
 21
0.7999997557194547
 31
0.0
  0
LINE
  5
9A6
330
1A
100
AcDbEntity
  8
ZUWAKU
100
AcDbLine
 10
504.999178608195
 20
29.99999975571938
 30
0.0
 11
504.9991786081952
 21
0.7999997557194547
 31
0.0
  0
TEXT
  5
9A7
330
1A
100
AcDbEntity
  8
MOJI
100
AcDbText
 10
528.0409070823671
 20
18.00492081312677
 30
0.0
 40
5.599999999999999
  1
Ａ３
 41
0.9
  7
ｽﾀｲﾙ1
100
AcDbText
  0
LINE
  5
9A8
330
1A
100
AcDbEntity
  8
ZUWAKU
100
AcDbLine
 10
447.4243630810455
 20
29.99999975571938
 30
0.0
 11
447.4243630810455
 21
0.7999997557194547
 31
0.0
  0
LINE
  5
9A9
330
1A
100
AcDbEntity
  8
ZUWAKU
100
AcDbLine
 10
447.8243630810454
 20
29.99999975571938
 30
0.0
 11
447.8243630810457
 21
0.7999997557194547
 31
0.0
  0
LINE
  5
9AA
330
1A
100
AcDbEntity
  8
ZUWAKU
100
AcDbLine
 10
447.6243630810454
 20
29.99999975571938
 30
0.0
 11
447.6243630810456
 21
0.7999997557194547
 31
0.0
  0
TEXT
  5
9AB
330
1A
100
AcDbEntity
  8
MOJI
100
AcDbText
 10
464.5946251132932
 20
11.94261747737937
 30
0.0
 40
5.599999999999999
  1
ＬＪ４０Ｇ
 41
0.9
  7
ｽﾀｲﾙ1
100
AcDbText
  0
TEXT
  5
9AC
330
1A
100
AcDbEntity
  8
ZUWAKU
100
AcDbText
 10
506.6766236304049
 20
9.655356294105004
 30
0.0
 40
4.0
  1
縮尺
 41
0.9
  7
ｽﾀｲﾙ1
100
AcDbText
  0
TEXT
  5
9AD
330
1A
100
AcDbEntity
  8
MOJI
100
AcDbText
 10
528.0409070823671
 20
3.204920813126808
 30
0.0
 40
5.599999999999999
  1
１/２
 41
0.9
  7
ｽﾀｲﾙ1
100
AcDbText
  0
TEXT
  5
9AE
330
1A
100
AcDbEntity
  8
ZUWAKU
100
AcDbText
 10
449.3018081032551
 20
24.05535629410497
 30
0.0
 40
4.0
  1
品番
 41
0.9
  7
ｽﾀｲﾙ1
100
AcDbText
  0
TEXT
  5
9AF
330
1A
100
AcDbEntity
  8
ZUWAKU
100
AcDbText
 10
506.6766236304046
 20
24.05535629410497
 30
0.0
 40
4.0
  1
用紙
 41
0.9
  7
ｽﾀｲﾙ1
100
AcDbText
  0
LINE
  5
9B0
330
1A
100
AcDbEntity
  8
ZUWAKU
100
AcDbLine
 10
552.5269548761666
 20
29.99999975571938
 30
0.0
 11
552.5269548761666
 21
0.7999997557194547
 31
0.0
  0
LINE
  5
9B1
330
1A
100
AcDbEntity
  8
ZUWAKU
100
AcDbLine
 10
552.9269548761665
 20
29.99999975571938
 30
0.0
 11
552.9269548761667
 21
0.7999997557194547
 31
0.0
  0
LINE
  5
9B2
330
1A
100
AcDbEntity
  8
ZUWAKU
100
AcDbLine
 10
552.7269548761664
 20
29.99999975571938
 30
0.0
 11
552.7269548761666
 21
0.7999997557194547
 31
0.0
  0
LINE
  5
9B3
330
1A
100
AcDbEntity
  8
ZUWAKU
100
AcDbLine
 10
648.4172016202587
 20
29.99999975571938
 30
0.0
 11
648.4172016202587
 21
0.7999997557194547
 31
0.0
  0
LINE
  5
9B4
330
1A
100
AcDbEntity
  8
ZUWAKU
100
AcDbLine
 10
648.8172016202586
 20
29.99999975571938
 30
0.0
 11
648.8172016202589
 21
0.7999997557194547
 31
0.0
  0
LINE
  5
9B5
330
1A
100
AcDbEntity
  8
ZUWAKU
100
AcDbLine
 10
648.6172016202585
 20
29.99999975571938
 30
0.0
 11
648.6172016202588
 21
0.7999997557194547
 31
0.0
  0
TEXT
  5
9B6
330
1A
100
AcDbEntity
  8
ZUWAKU
100
AcDbText
 10
650.2946466424682
 20
24.05535629410497
 30
0.0
 40
4.0
  1
DATE
 41
0.9
  7
ｽﾀｲﾙ1
100
AcDbText
  0
TEXT
  5
9B7
330
1A
100
AcDbEntity
  8
ZUWAKU
100
AcDbText
 10
708.528083302298
 20
17.55383909140618
 30
0.0
 40
6.0
  1
積水化学工業株式会社
 41
0.9
  7
ｽﾀｲﾙ1
100
AcDbText
  0
LINE
  5
9B8
330
1A
100
AcDbEntity
  8
ZUWAKU
100
AcDbLine
 10
697.8490096585954
 20
29.99999975571938
 30
0.0
 11
697.8490096585955
 21
0.7999997557194547
 31
0.0
  0
LINE
  5
9B9
330
1A
100
AcDbEntity
  8
ZUWAKU
100
AcDbLine
 10
697.6490096585953
 20
29.99999975571938
 30
0.0
 11
697.6490096585955
 21
0.7999997557194547
 31
0.0
  0
LINE
  5
9BA
330
1A
100
AcDbEntity
  8
ZUWAKU
100
AcDbLine
 10
697.4490096585955
 20
29.99999975571938
 30
0.0
 11
697.4490096585955
 21
0.7999997557194547
 31
0.0
  0
LINE
  5
9BB
330
1A
100
AcDbEntity
  8
ZUWAKU
100
AcDbLine
 10
697.2490096585954
 20
29.99999975571938
 30
0.0
 11
697.2490096585954
 21
0.7999997557194547
 31
0.0
  0
TEXT
  5
9BC
330
1A
100
AcDbEntity
  8
ZUWAKU
100
AcDbText
 10
708.528083302298
 20
6.648840069573452
 30
0.0
 40
6.0
  1
建材事業部
 41
0.9
  7
ｽﾀｲﾙ1
100
AcDbText
  0
VIEWPORT
  5
22
330
17
100
AcDbEntity
 67
     1
  8
0
100
AcDbViewport
 10
313.6808219178082
 20
148.5
 30
0.0
 40
627.3616438356165
 41
297.0
 68
     2
 69
     1
1001
ACAD
1000
MVIEW
1002
{
1070
    16
1010
0.0
1020
0.0
1030
0.0
1010
0.0
1020
0.0
1030
1.0
1040
0.0
1040
297.0
1040
313.6808219178082
1040
148.5
1040
50.0
1040
0.0
1040
0.0
1070
     0
1070
   100
1070
     1
1070
     0
1070
     0
1070
     0
1070
     0
1070
     0
1040
0.0
1040
0.0
1040
0.0
1040
1.0
1040
1.0
1040
10.0
1040
10.0
1070
     0
1002
{
1002
}
1002
}
  0
VIEWPORT
  5
64
330
17
100
AcDbEntity
 67
     1
  8
VIEWPORT
100
AcDbViewport
 10
210.0
 20
148.5
 30
0.0
 40
420.0
 41
297.0
 68
     1
 69
     2
1001
ACAD
1000
MVIEW
1002
{
1070
    16
1010
0.0
1020
0.0
1030
0.0
1010
0.0
1020
0.0
1030
1.0
1040
0.0
1040
605.8799999999998
1040
420.0
1040
297.0
1040
50.0
1040
0.0
1040
0.0
1070
     0
1070
   100
1070
     1
1070
     0
1070
     0
1070
     0
1070
     0
1070
     0
1040
0.0
1040
0.0
1040
0.0
1040
10.0
1040
10.0
1040
0.0
1040
0.0
1070
     0
1002
{
1002
}
1002
}
  0
ENDSEC
  0
SECTION
  2
OBJECTS
  0
DICTIONARY
  5
C
330
0
100
AcDbDictionary
  3
ACAD_GROUP
350
D
  3
ACAD_LAYOUT
350
14C
  3
ACAD_MLINESTYLE
350
E
  3
ACAD_PLOTSETTINGS
350
14D
  3
ACAD_PLOTSTYLENAME
350
14A
  3
ACADDIM
350
4A5
  3
ACDBHEADERROUNDTRIPXREC
350
9C4
  0
DICTIONARY
  5
506
330
1A
100
AcDbDictionary
280
     1
  3
ACAD_LAYOUTSELFREF
360
9E6
  0
DICTIONARY
  5
504
330
17
100
AcDbDictionary
280
     1
  3
ACAD_LAYOUTSELFREF
360
9E5
  0
DICTIONARY
  5
D
102
{ACAD_REACTORS
330
C
102
}
330
C
100
AcDbDictionary
  0
DICTIONARY
  5
14C
102
{ACAD_REACTORS
330
C
102
}
330
C
100
AcDbDictionary
  0
DICTIONARY
  5
E
102
{ACAD_REACTORS
330
C
102
}
330
C
100
AcDbDictionary
  3
STANDARD
350
13
  0
DICTIONARY
  5
14D
102
{ACAD_REACTORS
330
C
102
}
330
C
100
AcDbDictionary
  0
ACDBDICTIONARYWDFLT
  5
14A
102
{ACAD_REACTORS
330
C
102
}
330
C
100
AcDbDictionary
281
     1
  3
Normal
350
14B
100
AcDbDictionaryWithDefault
340
14B
1001
ACAD
1000
TREAT_AS_HARD
1070
     0
1000
TREAT_AS_HARD
1070
     0
1000
TREAT_AS_HARD
1070
     0
1000
TREAT_AS_HARD
1070
     0
1000
TREAT_AS_HARD
1070
     0
1000
TREAT_AS_HARD
1070
     0
1000
TREAT_AS_HARD
1070
     0
  0
XRECORD
  5
4A5
102
{ACAD_REACTORS
330
C
102
}
330
C
100
AcDbXrecord
 90
   990106
  3

 60
     0
 61
     0
 62
     1
 63
     3
 64
     0
 65
     0
 66
     0
 67
     3
 68
     1
 69
     0
 70
     0
 71
     0
 72
     0
 40
0.0
170
     0
340
4DA
  0
DICTIONARY
  5
9C4
102
{ACAD_REACTORS
330
C
102
}
330
C
100
AcDbDictionary
  3
TSTACKALIGN
350
9C5
  3
TSTACKSIZE
350
9C6
  3
HYPERLINKBASE
350
9C7
  3
STYLESHEET
350
9C8
  3
LAYOUTDICT
350
9C9
  3
PLOTSETDICT
350
9CA
  3
PLOTSTYLNAMDICT
350
9CB
  3
LWETCUNION
350
9CC
  3
INSUNITS
350
9CD
  3
CEPSNTYPE
350
9CE
  3
FINGERPRINTGUID
350
9CF
  3
VERSIONGUID
350
9D0
  3
PSVPSCALE
350
9D1
  3
DIMSTYLEDATA
350
9D2
  3
PUCSORTHOREF
350
9D3
  3
PUCSORTHOVIEW
350
9D4
  3
PUCSBASE
350
9D5
  3
PUCSORGTOP
350
9D6
  3
PUCSORGBOTTOM
350
9D7
  3
PUCSORGLEFT
350
9D8
  3
PUCSORGRIGHT
350
9D9
  3
PUCSORGFRONT
350
9DA
  3
PUCSORGBACK
350
9DB
  3
UCSORTHOREF
350
9DC
  3
UCSORTHOVIEW
350
9DD
  3
UCSBASE
350
9DE
  3
UCSORGTOP
350
9DF
  3
UCSORGBOTTOM
350
9E0
  3
UCSORGLEFT
350
9E1
  3
UCSORGRIGHT
350
9E2
  3
UCSORGFRONT
350
9E3
  3
UCSORGBACK
350
9E4
  0
XRECORD
  5
9E6
102
{ACAD_REACTORS
330
506
102
}
330
506
100
AcDbXrecord
340
1A
  0
XRECORD
  5
9E5
102
{ACAD_REACTORS
330
504
102
}
330
504
100
AcDbXrecord
340
17
  0
MLINESTYLE
  5
13
102
{ACAD_REACTORS
330
E
102
}
330
E
100
AcDbMlineStyle
  2
STANDARD
 70
     0
  3

 62
     0
 51
90.0
 52
90.0
 71
     2
 49
0.5
 62
   256
  6
BYLAYER
 49
-0.5
 62
   256
  6
BYLAYER
  0
ACDBPLACEHOLDER
  5
14B
102
{ACAD_REACTORS
330
14A
102
}
330
14A
100
AcDbPlaceHolder
280
     0
  0
XRECORD
  5
9C5
102
{ACAD_REACTORS
330
9C4
102
}
330
9C4
100
AcDbXrecord
 90
        1
  0
XRECORD
  5
9C6
102
{ACAD_REACTORS
330
9C4
102
}
330
9C4
100
AcDbXrecord
 90
       70
  0
XRECORD
  5
9C7
102
{ACAD_REACTORS
330
9C4
102
}
330
9C4
100
AcDbXrecord
  1

  0
XRECORD
  5
9C8
102
{ACAD_REACTORS
330
9C4
102
}
330
9C4
100
AcDbXrecord
  1
systemprinter.ctb
  0
XRECORD
  5
9C9
102
{ACAD_REACTORS
330
9C4
102
}
330
9C4
100
AcDbXrecord
340
14C
  0
XRECORD
  5
9CA
102
{ACAD_REACTORS
330
9C4
102
}
330
9C4
100
AcDbXrecord
340
14D
  0
XRECORD
  5
9CB
102
{ACAD_REACTORS
330
9C4
102
}
330
9C4
100
AcDbXrecord
340
14A
  0
XRECORD
  5
9CC
102
{ACAD_REACTORS
330
9C4
102
}
330
9C4
100
AcDbXrecord
 90
    10781
  0
XRECORD
  5
9CD
102
{ACAD_REACTORS
330
9C4
102
}
330
9C4
100
AcDbXrecord
 90
        0
  0
XRECORD
  5
9CE
102
{ACAD_REACTORS
330
9C4
102
}
330
9C4
100
AcDbXrecord
 90
        0
  0
XRECORD
  5
9CF
102
{ACAD_REACTORS
330
9C4
102
}
330
9C4
100
AcDbXrecord
  1
{75772F4A-CE5A-11D3-932C-444553540000}
  0
XRECORD
  5
9D0
102
{ACAD_REACTORS
330
9C4
102
}
330
9C4
100
AcDbXrecord
  1
{EEC07B9C-119F-4F6A-9BA2-BCDF11501070}
  0
XRECORD
  5
9D1
102
{ACAD_REACTORS
330
9C4
102
}
330
9C4
100
AcDbXrecord
 40
0.0
  0
XRECORD
  5
9D2
102
{ACAD_REACTORS
330
9C4
102
}
330
9C4
100
AcDbXrecord
1000
DSTYLE
1002
{
1070
   341
340
6D
1070
   343
340
6D
1070
   344
340
6D
1070
   371
 70
    -1
1070
   372
 70
    -1
1002
}
  0
XRECORD
  5
9D3
102
{ACAD_REACTORS
330
9C4
102
}
330
9C4
100
AcDbXrecord
340
0
  0
XRECORD
  5
9D4
102
{ACAD_REACTORS
330
9C4
102
}
330
9C4
100
AcDbXrecord
 70
     0
  0
XRECORD
  5
9D5
102
{ACAD_REACTORS
330
9C4
102
}
330
9C4
100
AcDbXrecord
340
0
  0
XRECORD
  5
9D6
102
{ACAD_REACTORS
330
9C4
102
}
330
9C4
100
AcDbXrecord
 10
0.0
 20
0.0
 30
0.0
  0
XRECORD
  5
9D7
102
{ACAD_REACTORS
330
9C4
102
}
330
9C4
100
AcDbXrecord
 10
0.0
 20
0.0
 30
0.0
  0
XRECORD
  5
9D8
102
{ACAD_REACTORS
330
9C4
102
}
330
9C4
100
AcDbXrecord
 10
0.0
 20
0.0
 30
0.0
  0
XRECORD
  5
9D9
102
{ACAD_REACTORS
330
9C4
102
}
330
9C4
100
AcDbXrecord
 10
0.0
 20
0.0
 30
0.0
  0
XRECORD
  5
9DA
102
{ACAD_REACTORS
330
9C4
102
}
330
9C4
100
AcDbXrecord
 10
0.0
 20
0.0
 30
0.0
  0
XRECORD
  5
9DB
102
{ACAD_REACTORS
330
9C4
102
}
330
9C4
100
AcDbXrecord
 10
0.0
 20
0.0
 30
0.0
  0
XRECORD
  5
9DC
102
{ACAD_REACTORS
330
9C4
102
}
330
9C4
100
AcDbXrecord
340
0
  0
XRECORD
  5
9DD
102
{ACAD_REACTORS
330
9C4
102
}
330
9C4
100
AcDbXrecord
 70
     0
  0
XRECORD
  5
9DE
102
{ACAD_REACTORS
330
9C4
102
}
330
9C4
100
AcDbXrecord
340
0
  0
XRECORD
  5
9DF
102
{ACAD_REACTORS
330
9C4
102
}
330
9C4
100
AcDbXrecord
 10
0.0
 20
0.0
 30
0.0
  0
XRECORD
  5
9E0
102
{ACAD_REACTORS
330
9C4
102
}
330
9C4
100
AcDbXrecord
 10
0.0
 20
0.0
 30
0.0
  0
XRECORD
  5
9E1
102
{ACAD_REACTORS
330
9C4
102
}
330
9C4
100
AcDbXrecord
 10
0.0
 20
0.0
 30
0.0
  0
XRECORD
  5
9E2
102
{ACAD_REACTORS
330
9C4
102
}
330
9C4
100
AcDbXrecord
 10
0.0
 20
0.0
 30
0.0
  0
XRECORD
  5
9E3
102
{ACAD_REACTORS
330
9C4
102
}
330
9C4
100
AcDbXrecord
 10
0.0
 20
0.0
 30
0.0
  0
XRECORD
  5
9E4
102
{ACAD_REACTORS
330
9C4
102
}
330
9C4
100
AcDbXrecord
 10
0.0
 20
0.0
 30
0.0
  0
ENDSEC
  0
EOF
