  0
SECTION
  2
HEADER
  9
$ACADVER
  1
AC1014
  9
$ACADMAINTVER
 70
     9
  9
$DWGCODEPAGE
  3
ANSI_932
  9
$INSBASE
 10
0.0
 20
0.0
 30
0.0
  9
$EXTMIN
 10
-0.0256328098773793
 20
-0.0181261640759658
 30
-0.0015258207003583
  9
$EXTMAX
 10
797.6000995626677
 20
551.6452344804697
 30
0.0000000349246037
  9
$LIMMIN
 10
0.0
 20
0.0
  9
$LIMMAX
 10
840.0
 20
594.0
  9
$ORTHOMODE
 70
     1
  9
$REGENMODE
 70
     1
  9
$FILLMODE
 70
     1
  9
$QTEXTMODE
 70
     0
  9
$MIRRTEXT
 70
     1
  9
$DRAGMODE
 70
     2
  9
$LTSCALE
 40
10.0
  9
$OSMODE
 70
    35
  9
$ATTMODE
 70
     1
  9
$TEXTSIZE
 40
5.0
  9
$TRACEWID
 40
1.0
  9
$TEXTSTYLE
  7
STANDARD
  9
$CLAYER
  8
CENTER_L
  9
$CELTYPE
  6
BYLAYER
  9
$CECOLOR
 62
   256
  9
$CELTSCALE
 40
1.0
  9
$DELOBJ
 70
     1
  9
$DISPSILH
 70
     0
  9
$DIMSCALE
 40
1.0
  9
$DIMASZ
 40
3.0
  9
$DIMEXO
 40
6.0
  9
$DIMDLI
 40
14.0
  9
$DIMRND
 40
0.0
  9
$DIMDLE
 40
0.0
  9
$DIMEXE
 40
3.0
  9
$DIMTP
 40
0.0
  9
$DIMTM
 40
0.0
  9
$DIMTXT
 40
6.0
  9
$DIMCEN
 40
10.0
  9
$DIMTSZ
 40
0.0
  9
$DIMTOL
 70
     0
  9
$DIMLIM
 70
     0
  9
$DIMTIH
 70
     0
  9
$DIMTOH
 70
     0
  9
$DIMSE1
 70
     0
  9
$DIMSE2
 70
     0
  9
$DIMTAD
 70
     3
  9
$DIMZIN
 70
     0
  9
$DIMBLK
  1

  9
$DIMASO
 70
     1
  9
$DIMSHO
 70
     1
  9
$DIMPOST
  1

  9
$DIMAPOST
  1

  9
$DIMALT
 70
     0
  9
$DIMALTD
 70
     2
  9
$DIMALTF
 40
25.4
  9
$DIMLFAC
 40
1.0
  9
$DIMTOFL
 70
     1
  9
$DIMTVP
 40
0.0
  9
$DIMTIX
 70
     0
  9
$DIMSOXD
 70
     0
  9
$DIMSAH
 70
     1
  9
$DIMBLK1
  1
OPEN
  9
$DIMBLK2
  1
OPEN
  9
$DIMSTYLE
  2
STANDARD
  9
$DIMCLRD
 70
   256
  9
$DIMCLRE
 70
   256
  9
$DIMCLRT
 70
   256
  9
$DIMTFAC
 40
1.0
  9
$DIMGAP
 40
2.0
  9
$DIMJUST
 70
     0
  9
$DIMSD1
 70
     0
  9
$DIMSD2
 70
     0
  9
$DIMTOLJ
 70
     1
  9
$DIMTZIN
 70
     0
  9
$DIMALTZ
 70
     0
  9
$DIMALTTZ
 70
     0
  9
$DIMFIT
 70
     3
  9
$DIMUPT
 70
     0
  9
$DIMUNIT
 70
     2
  9
$DIMDEC
 70
     0
  9
$DIMTDEC
 70
     0
  9
$DIMALTU
 70
     2
  9
$DIMALTTD
 70
     2
  9
$DIMTXSTY
  7
STANDARD
  9
$DIMAUNIT
 70
     0
  9
$LUNITS
 70
     2
  9
$LUPREC
 70
     4
  9
$SKETCHINC
 40
1.0
  9
$FILLETRAD
 40
20.0
  9
$AUNITS
 70
     0
  9
$AUPREC
 70
     0
  9
$MENU
  1
.
  9
$ELEVATION
 40
0.0
  9
$PELEVATION
 40
0.0
  9
$THICKNESS
 40
0.0
  9
$LIMCHECK
 70
     0
  9
$BLIPMODE
 70
     0
  9
$CHAMFERA
 40
20.0
  9
$CHAMFERB
 40
20.0
  9
$CHAMFERC
 40
40.0
  9
$CHAMFERD
 40
0.0
  9
$SKPOLY
 70
     0
  9
$TDCREATE
 40
2451591.485258449
  9
$TDUPDATE
 40
2453802.487130706
  9
$TDINDWG
 40
0.2077259144
  9
$TDUSRTIMER
 40
0.2077259144
  9
$USRTIMER
 70
     1
  9
$ANGBASE
 50
0.0
  9
$ANGDIR
 70
     0
  9
$PDMODE
 70
     0
  9
$PDSIZE
 40
0.0
  9
$PLINEWID
 40
0.0
  9
$COORDS
 70
     1
  9
$SPLFRAME
 70
     0
  9
$SPLINETYPE
 70
     6
  9
$SPLINESEGS
 70
     8
  9
$ATTDIA
 70
     0
  9
$ATTREQ
 70
     1
  9
$HANDLING
 70
 10241
  9
$HANDSEED
  5
BB9
  9
$SURFTAB1
 70
     6
  9
$SURFTAB2
 70
     6
  9
$SURFTYPE
 70
     6
  9
$SURFU
 70
     6
  9
$SURFV
 70
     6
  9
$UCSNAME
  2

  9
$UCSORG
 10
0.0
 20
0.0
 30
0.0
  9
$UCSXDIR
 10
1.0
 20
0.0
 30
0.0
  9
$UCSYDIR
 10
0.0
 20
1.0
 30
0.0
  9
$PUCSNAME
  2

  9
$PUCSORG
 10
0.0
 20
0.0
 30
0.0
  9
$PUCSXDIR
 10
1.0
 20
0.0
 30
0.0
  9
$PUCSYDIR
 10
0.0
 20
1.0
 30
0.0
  9
$USERI1
 70
     0
  9
$USERI2
 70
     0
  9
$USERI3
 70
     0
  9
$USERI4
 70
     0
  9
$USERI5
 70
     0
  9
$USERR1
 40
0.0
  9
$USERR2
 40
0.0
  9
$USERR3
 40
0.0
  9
$USERR4
 40
0.0
  9
$USERR5
 40
0.0
  9
$WORLDVIEW
 70
     1
  9
$SHADEDGE
 70
     3
  9
$SHADEDIF
 70
    70
  9
$TILEMODE
 70
     1
  9
$MAXACTVP
 70
    16
  9
$PINSBASE
 10
0.0
 20
0.0
 30
0.0
  9
$PLIMCHECK
 70
     0
  9
$PEXTMIN
 10
0.0
 20
0.0
 30
0.0
  9
$PEXTMAX
 10
420.0
 20
297.0
 30
0.0
  9
$PLIMMIN
 10
0.0
 20
0.0
  9
$PLIMMAX
 10
420.0
 20
297.0
  9
$UNITMODE
 70
     0
  9
$VISRETAIN
 70
     0
  9
$PLINEGEN
 70
     0
  9
$PSLTSCALE
 70
     1
  9
$TREEDEPTH
 70
  3020
  9
$PICKSTYLE
 70
     1
  9
$CMLSTYLE
  2
STANDARD
  9
$CMLJUST
 70
     0
  9
$CMLSCALE
 40
1.0
  9
$PROXYGRAPHICS
 70
     1
  9
$MEASUREMENT
 70
     1
  0
ENDSEC
  0
SECTION
  2
CLASSES
  0
CLASS
  1
ACDBDICTIONARYWDFLT
  2
AcDbDictionaryWithDefault
  3
AutoCAD 2000
 90
        0
280
     0
281
     0
  0
CLASS
  1
ACDBPLACEHOLDER
  2
AcDbPlaceHolder
  3
AutoCAD 2000
 90
        0
280
     0
281
     0
  0
CLASS
  1
LAYOUT
  2
AcDbLayout
  3
AutoCAD 2000
 90
        0
280
     0
281
     0
  0
CLASS
  1
LONG_TRANSACTION
  2
AcDbLongTransaction
  3
AutoCAD 2000
 90
        0
280
     0
281
     0
  0
CLASS
  1
LWPOLYLINE
  2
AcDbPolyline
  3
AutoCAD 2000
 90
        0
280
     0
281
     1
  0
CLASS
  1
HATCH
  2
AcDbHatch
  3
AutoCAD 2000
 90
        0
280
     0
281
     1
  0
CLASS
  1
XRECORD
  2
AcDbXrecord
  3
AutoCAD 2000
 90
        0
280
     0
281
     0
  0
CLASS
  1
LONG_TRANSACTION
  2
AcDbLongTransaction
  3
AutoCAD 2000
 90
        0
280
     0
281
     0
  0
CLASS
  1
LWPOLYLINE
  2
AcDbPolyline
  3
AutoCAD 2000
 90
        0
280
     0
281
     1
  0
CLASS
  1
HATCH
  2
AcDbHatch
  3
AutoCAD 2000
 90
        0
280
     0
281
     1
  0
CLASS
  1
XRECORD
  2
AcDbXrecord
  3
AutoCAD 2000
 90
        0
280
     0
281
     0
  0
CLASS
  1
LONG_TRANSACTION
  2
AcDbLongTransaction
  3
AutoCAD 2000
 90
        0
280
     0
281
     0
  0
CLASS
  1
LWPOLYLINE
  2
AcDbPolyline
  3
AutoCAD 2000
 90
        0
280
     0
281
     1
  0
CLASS
  1
HATCH
  2
AcDbHatch
  3
AutoCAD 2000
 90
        0
280
     0
281
     1
  0
CLASS
  1
XRECORD
  2
AcDbXrecord
  3
AutoCAD 2000
 90
        0
280
     0
281
     0
  0
CLASS
  1
LONG_TRANSACTION
  2
AcDbLongTransaction
  3
AutoCAD 2000
 90
        0
280
     0
281
     0
  0
CLASS
  1
LWPOLYLINE
  2
AcDbPolyline
  3
AutoCAD 2000
 90
        0
280
     0
281
     1
  0
CLASS
  1
HATCH
  2
AcDbHatch
  3
AutoCAD 2000
 90
        0
280
     0
281
     1
  0
CLASS
  1
XRECORD
  2
AcDbXrecord
  3
AutoCAD 2000
 90
        0
280
     0
281
     0
  0
CLASS
  1
LONG_TRANSACTION
  2
AcDbLongTransaction
  3
AutoCAD 2000
 90
        0
280
     0
281
     0
  0
CLASS
  1
LWPOLYLINE
  2
AcDbPolyline
  3
AutoCAD 2000
 90
        0
280
     0
281
     1
  0
CLASS
  1
HATCH
  2
AcDbHatch
  3
AutoCAD 2000
 90
        0
280
     0
281
     1
  0
CLASS
  1
XRECORD
  2
AcDbXrecord
  3
AutoCAD 2000
 90
        0
280
     0
281
     0
  0
CLASS
  1
LONG_TRANSACTION
  2
AcDbLongTransaction
  3
AutoCAD 2000
 90
        0
280
     0
281
     0
  0
CLASS
  1
LWPOLYLINE
  2
AcDbPolyline
  3
AutoCAD 2000
 90
        0
280
     0
281
     1
  0
CLASS
  1
HATCH
  2
AcDbHatch
  3
AutoCAD 2000
 90
        0
280
     0
281
     1
  0
CLASS
  1
XRECORD
  2
AcDbXrecord
  3
AutoCAD 2000
 90
        0
280
     0
281
     0
  0
ENDSEC
  0
SECTION
  2
TABLES
  0
TABLE
  2
VPORT
  5
8
330
0
100
AcDbSymbolTable
 70
     2
  0
VPORT
  5
B95
330
8
100
AcDbSymbolTableRecord
100
AcDbViewportTableRecord
  2
*ACTIVE
 70
     0
 10
0.0
 20
0.0
 11
1.0
 21
1.0
 12
426.4805869453393
 22
278.704559296096
 13
0.0
 23
0.0
 14
5.0
 24
5.0
 15
0.0
 25
0.0
 16
0.0
 26
0.0
 36
1.0
 17
0.0
 27
0.0
 37
0.0
 40
640.9243077155884
 41
1.795454545454545
 42
50.0
 43
0.0
 44
0.0
 50
0.0
 51
0.0
 71
     0
 72
   100
 73
     1
 74
     0
 75
     0
 76
     0
 77
     0
 78
     0
  0
ENDTAB
  0
TABLE
  2
LTYPE
  5
5
330
0
100
AcDbSymbolTable
 70
     3
  0
LTYPE
  5
14
330
5
100
AcDbSymbolTableRecord
100
AcDbLinetypeTableRecord
  2
BYBLOCK
 70
     0
  3

 72
    65
 73
     0
 40
0.0
  0
LTYPE
  5
15
330
5
100
AcDbSymbolTableRecord
100
AcDbLinetypeTableRecord
  2
BYLAYER
 70
     0
  3

 72
    65
 73
     0
 40
0.0
  0
LTYPE
  5
16
330
5
100
AcDbSymbolTableRecord
100
AcDbLinetypeTableRecord
  2
CONTINUOUS
 70
     0
  3
Solid line
 72
    65
 73
     0
 40
0.0
  0
LTYPE
  5
115
330
5
100
AcDbSymbolTableRecord
100
AcDbLinetypeTableRecord
  2
PHANTOM
 70
     0
  3
______  __  __  ______  __  __  ______  __  __ 
 72
    65
 73
     6
 40
2.5
 49
1.25
 74
     0
 49
-0.25
 74
     0
 49
0.25
 74
     0
 49
-0.25
 74
     0
 49
0.25
 74
     0
 49
-0.25
 74
     0
  0
LTYPE
  5
135
330
5
100
AcDbSymbolTableRecord
100
AcDbLinetypeTableRecord
  2
CENTER
 70
     0
  3
____ _ ____ _ ____ _ ____ _ ____ _ ____ _ ____ 
 72
    65
 73
     4
 40
2.0
 49
1.25
 74
     0
 49
-0.25
 74
     0
 49
0.25
 74
     0
 49
-0.25
 74
     0
  0
ENDTAB
  0
TABLE
  2
LAYER
  5
2
330
0
100
AcDbSymbolTable
 70
     9
  0
LAYER
  5
F
330
2
100
AcDbSymbolTableRecord
100
AcDbLayerTableRecord
  2
0
 70
     0
 62
     7
  6
CONTINUOUS
  0
LAYER
  5
62
330
2
100
AcDbSymbolTableRecord
100
AcDbLayerTableRecord
  2
VIEWPORT
 70
     0
 62
     7
  6
CONTINUOUS
  0
LAYER
  5
65
330
2
100
AcDbSymbolTableRecord
100
AcDbLayerTableRecord
  2
ZUWAKU
 70
     0
 62
     7
  6
CONTINUOUS
  0
LAYER
  5
17C
330
2
100
AcDbSymbolTableRecord
100
AcDbLayerTableRecord
  2
DEFPOINTS
 70
     0
 62
     7
  6
CONTINUOUS
  0
LAYER
  5
17D
330
2
100
AcDbSymbolTableRecord
100
AcDbLayerTableRecord
  2
SEIHIN
 70
     0
 62
     3
  6
CONTINUOUS
  0
LAYER
  5
17E
330
2
100
AcDbSymbolTableRecord
100
AcDbLayerTableRecord
  2
SUNPOU
 70
     0
 62
     4
  6
CONTINUOUS
  0
LAYER
  5
17F
330
2
100
AcDbSymbolTableRecord
100
AcDbLayerTableRecord
  2
CENTER_L
 70
     0
 62
     1
  6
CENTER
  0
LAYER
  5
180
330
2
100
AcDbSymbolTableRecord
100
AcDbLayerTableRecord
  2
NOKITOI
 70
     0
 62
     8
  6
PHANTOM
  0
LAYER
  5
A20
330
2
100
AcDbSymbolTableRecord
100
AcDbLayerTableRecord
  2
MOJI
 70
     0
 62
     2
  6
CONTINUOUS
  0
ENDTAB
  0
TABLE
  2
STYLE
  5
3
330
0
100
AcDbSymbolTable
 70
     2
  0
STYLE
  5
10
330
3
100
AcDbSymbolTableRecord
100
AcDbTextStyleTableRecord
  2
STANDARD
 70
     0
 40
0.0
 41
1.0
 50
0.0
 71
     0
 42
5.0
  3
TXT
  4
c:\PROGRAM FILES\AUTOCAD LT\ms\bigfont.shx
  0
STYLE
  5
A21
330
3
100
AcDbSymbolTableRecord
100
AcDbTextStyleTableRecord
  2
ｽﾀｲﾙ1
 70
     0
 40
0.0
 41
1.0
 50
0.0
 71
     0
 42
2.5
  3
MS PGothic.ttf
  4

1001
ACAD
1000
MS PGothic
1071
    32818
  0
ENDTAB
  0
TABLE
  2
VIEW
  5
6
330
0
100
AcDbSymbolTable
 70
     0
  0
ENDTAB
  0
TABLE
  2
UCS
  5
7
330
0
100
AcDbSymbolTable
 70
     0
  0
ENDTAB
  0
TABLE
  2
APPID
  5
9
330
0
100
AcDbSymbolTable
 70
     1
  0
APPID
  5
11
330
9
100
AcDbSymbolTableRecord
100
AcDbRegAppTableRecord
  2
ACAD
 70
     0
  0
ENDTAB
  0
TABLE
  2
DIMSTYLE
  5
A
330
0
100
AcDbSymbolTable
 70
     1
  0
DIMSTYLE
105
1D
102
{ACAD_REACTORS
330
44A
330
457
330
464
330
76B
330
7D2
330
7E1
330
7EF
330
80E
330
927
102
}
330
A
100
AcDbSymbolTableRecord
100
AcDbDimStyleTableRecord
  2
STANDARD
 70
     0
  3

  4

  5

  6

  7

 40
1.0
 41
0.18
 42
0.0625
 43
0.38
 44
0.18
 45
0.0
 46
0.0
 47
0.0
 48
0.0
140
0.18
141
0.09
142
0.0
143
25.4
144
1.0
145
0.0
146
1.0
147
0.09
 71
     0
 72
     0
 73
     1
 74
     1
 75
     0
 76
     0
 77
     0
 78
     0
170
     0
171
     2
172
     0
173
     0
174
     0
175
     0
176
     0
177
     0
178
     0
270
     2
271
     4
272
     4
273
     2
274
     2
340
10
275
     0
280
     0
281
     0
282
     0
283
     1
284
     0
285
     0
286
     0
287
     3
288
     0
  0
ENDTAB
  0
TABLE
  2
BLOCK_RECORD
  5
1
330
0
100
AcDbSymbolTable
 70
    10
  0
BLOCK_RECORD
  5
1A
102
{ACAD_XDICTIONARY
360
89C
102
}
330
1
100
AcDbSymbolTableRecord
100
AcDbBlockTableRecord
  2
*MODEL_SPACE
  0
BLOCK_RECORD
  5
17
102
{ACAD_XDICTIONARY
360
89A
102
}
330
1
100
AcDbSymbolTableRecord
100
AcDbBlockTableRecord
  2
*PAPER_SPACE
  0
BLOCK_RECORD
  5
6D
330
1
100
AcDbSymbolTableRecord
100
AcDbBlockTableRecord
  2
_OPEN
  0
BLOCK_RECORD
  5
44B
330
1
100
AcDbSymbolTableRecord
100
AcDbBlockTableRecord
  2
*D1
  0
BLOCK_RECORD
  5
458
330
1
100
AcDbSymbolTableRecord
100
AcDbBlockTableRecord
  2
*D2
  0
BLOCK_RECORD
  5
465
330
1
100
AcDbSymbolTableRecord
100
AcDbBlockTableRecord
  2
*D3
  0
BLOCK_RECORD
  5
76C
330
1
100
AcDbSymbolTableRecord
100
AcDbBlockTableRecord
  2
*D4
  0
BLOCK_RECORD
  5
7D3
330
1
100
AcDbSymbolTableRecord
100
AcDbBlockTableRecord
  2
*D5
  0
BLOCK_RECORD
  5
7E2
330
1
100
AcDbSymbolTableRecord
100
AcDbBlockTableRecord
  2
*D6
  0
BLOCK_RECORD
  5
7F0
330
1
100
AcDbSymbolTableRecord
100
AcDbBlockTableRecord
  2
*D7
  0
BLOCK_RECORD
  5
80F
330
1
100
AcDbSymbolTableRecord
100
AcDbBlockTableRecord
  2
*D8
  0
BLOCK_RECORD
  5
928
330
1
100
AcDbSymbolTableRecord
100
AcDbBlockTableRecord
  2
*D9
  0
ENDTAB
  0
ENDSEC
  0
SECTION
  2
BLOCKS
  0
BLOCK
  5
1B
330
1A
100
AcDbEntity
  8
0
100
AcDbBlockBegin
  2
*MODEL_SPACE
 70
     0
 10
0.0
 20
0.0
 30
0.0
  3
*MODEL_SPACE
  1

  0
ENDBLK
  5
1C
330
1A
100
AcDbEntity
  8
0
100
AcDbBlockEnd
  0
BLOCK
  5
18
330
17
100
AcDbEntity
 67
     1
  8
0
100
AcDbBlockBegin
  2
*PAPER_SPACE
 70
     0
 10
0.0
 20
0.0
 30
0.0
  3
*PAPER_SPACE
  1

  0
ENDBLK
  5
19
330
17
100
AcDbEntity
 67
     1
  8
0
100
AcDbBlockEnd
  0
BLOCK
  5
6E
330
6D
100
AcDbEntity
  8
0
100
AcDbBlockBegin
  2
_OPEN
 70
     0
 10
0.0
 20
0.0
 30
0.0
  3
_OPEN
  1

  0
LINE
  5
6F
330
6D
100
AcDbEntity
  8
0
  6
BYBLOCK
 62
     0
100
AcDbLine
 10
-1.0
 20
0.1666666666666666
 30
0.0
 11
0.0
 21
0.0
 31
0.0
  0
LINE
  5
70
330
6D
100
AcDbEntity
  8
0
  6
BYBLOCK
 62
     0
100
AcDbLine
 10
0.0
 20
0.0
 30
0.0
 11
-1.0
 21
-0.1666666666666666
 31
0.0
  0
LINE
  5
71
330
6D
100
AcDbEntity
  8
0
  6
BYBLOCK
 62
     0
100
AcDbLine
 10
0.0
 20
0.0
 30
0.0
 11
-1.0
 21
0.0
 31
0.0
  0
ENDBLK
  5
72
330
6D
100
AcDbEntity
  8
0
100
AcDbBlockEnd
  0
BLOCK
  5
455
330
44B
100
AcDbEntity
  8
0
100
AcDbBlockBegin
  2
*D1
 70
     1
 10
0.0
 20
0.0
 30
0.0
  3
*D1
  1

  0
LINE
  5
8A4
330
44B
100
AcDbEntity
  8
SUNPOU
100
AcDbLine
 10
341.7925870120749
 20
233.586185883421
 30
0.0
 11
235.3946534004762
 21
233.5861858834211
 31
0.0
  0
LINE
  5
8A5
330
44B
100
AcDbEntity
  8
SUNPOU
100
AcDbLine
 10
279.092587012075
 20
319.586185883421
 30
0.0
 11
235.3946534004762
 21
319.586185883421
 31
0.0
  0
LINE
  5
8A6
330
44B
100
AcDbEntity
  8
SUNPOU
100
AcDbLine
 10
238.3946534004762
 20
236.5861858834211
 30
0.0
 11
238.3946534004762
 21
316.586185883421
 31
0.0
  0
INSERT
  5
8A7
330
44B
100
AcDbEntity
  8
SUNPOU
100
AcDbBlockReference
  2
_OPEN
 10
238.3946534004762
 20
233.5861858834211
 30
0.0
 41
3.0
 42
3.0
 43
3.0
 50
270.0
  0
INSERT
  5
8A8
330
44B
100
AcDbEntity
  8
SUNPOU
100
AcDbBlockReference
  2
_OPEN
 10
238.3946534004762
 20
319.586185883421
 30
0.0
 41
3.0
 42
3.0
 43
3.0
 50
90.0
  0
MTEXT
  5
8A9
330
44B
100
AcDbEntity
  8
SUNPOU
100
AcDbMText
 10
233.3946534004762
 20
276.5861858834211
 30
0.0
 40
6.0
 41
0.0
 71
     5
 72
     5
  1
\A1;86
 11
0.0000000000000001
 21
1.0
 31
0.0
1001
ACAD
1000
MTEXTBEGIN
1070
    73
1070
     1
1070
    44
1040
1.0
1070
    74
1070
     0
1000
MTEXTEND
1000
MTEXTBEGIN
1070
    73
1070
     1
1070
    44
1040
1.0
1070
    74
1070
     0
1000
MTEXTEND
1000
MTEXTBEGIN
1070
    73
1070
     1
1070
    44
1040
1.0
1070
    74
1070
     0
1000
MTEXTEND
1000
MTEXTBEGIN
1070
    73
1070
     1
1070
    44
1040
1.0
1070
    74
1070
     0
1000
MTEXTEND
1000
MTEXTBEGIN
1070
    73
1070
     1
1070
    44
1040
1.0
1070
    74
1070
     0
1000
MTEXTEND
  0
POINT
  5
8AA
330
44B
100
AcDbEntity
  8
DEFPOINTS
 62
     0
100
AcDbPoint
 10
347.7925870120749
 20
233.586185883421
 30
0.0
  0
POINT
  5
8AB
330
44B
100
AcDbEntity
  8
DEFPOINTS
 62
     0
100
AcDbPoint
 10
285.092587012075
 20
319.586185883421
 30
0.0
  0
POINT
  5
8AC
330
44B
100
AcDbEntity
  8
DEFPOINTS
 62
     0
100
AcDbPoint
 10
238.3946534004762
 20
319.586185883421
 30
0.0
  0
ENDBLK
  5
456
330
44B
100
AcDbEntity
  8
0
100
AcDbBlockEnd
  0
BLOCK
  5
462
330
458
100
AcDbEntity
  8
0
100
AcDbBlockBegin
  2
*D2
 70
     1
 10
0.0
 20
0.0
 30
0.0
  3
*D2
  1

  0
LINE
  5
8AD
330
458
100
AcDbEntity
  8
SUNPOU
100
AcDbLine
 10
279.092587012075
 20
424.317209524638
 30
0.0
 11
235.3946534004763
 21
424.317209524638
 31
0.0
  0
LINE
  5
8AE
330
458
100
AcDbEntity
  8
SUNPOU
100
AcDbLine
 10
279.092587012075
 20
402.317209524638
 30
0.0
 11
235.3946534004763
 21
402.317209524638
 31
0.0
  0
LINE
  5
8AF
330
458
100
AcDbEntity
  8
SUNPOU
100
AcDbLine
 10
238.3946534004763
 20
421.317209524638
 30
0.0
 11
238.3946534004763
 21
405.317209524638
 31
0.0
  0
INSERT
  5
8B0
330
458
100
AcDbEntity
  8
SUNPOU
100
AcDbBlockReference
  2
_OPEN
 10
238.3946534004763
 20
424.317209524638
 30
0.0
 41
3.0
 42
3.0
 43
3.0
 50
90.0
  0
INSERT
  5
8B1
330
458
100
AcDbEntity
  8
SUNPOU
100
AcDbBlockReference
  2
_OPEN
 10
238.3946534004763
 20
402.317209524638
 30
0.0
 41
3.0
 42
3.0
 43
3.0
 50
270.0
  0
MTEXT
  5
8B2
330
458
100
AcDbEntity
  8
SUNPOU
100
AcDbMText
 10
233.3946534004762
 20
413.317209524638
 30
0.0
 40
6.0
 41
0.0
 71
     5
 72
     5
  1
\A1;22
 11
0.0000000000000001
 21
1.0
 31
0.0
1001
ACAD
1000
MTEXTBEGIN
1070
    73
1070
     1
1070
    44
1040
1.0
1070
    74
1070
     0
1000
MTEXTEND
1000
MTEXTBEGIN
1070
    73
1070
     1
1070
    44
1040
1.0
1070
    74
1070
     0
1000
MTEXTEND
1000
MTEXTBEGIN
1070
    73
1070
     1
1070
    44
1040
1.0
1070
    74
1070
     0
1000
MTEXTEND
1000
MTEXTBEGIN
1070
    73
1070
     1
1070
    44
1040
1.0
1070
    74
1070
     0
1000
MTEXTEND
1000
MTEXTBEGIN
1070
    73
1070
     1
1070
    44
1040
1.0
1070
    74
1070
     0
1000
MTEXTEND
  0
POINT
  5
8B3
330
458
100
AcDbEntity
  8
DEFPOINTS
 62
     0
100
AcDbPoint
 10
285.092587012075
 20
424.317209524638
 30
0.0
  0
POINT
  5
8B4
330
458
100
AcDbEntity
  8
DEFPOINTS
 62
     0
100
AcDbPoint
 10
285.092587012075
 20
402.317209524638
 30
0.0
  0
POINT
  5
8B5
330
458
100
AcDbEntity
  8
DEFPOINTS
 62
     0
100
AcDbPoint
 10
238.3946534004763
 20
402.317209524638
 30
0.0
  0
ENDBLK
  5
463
330
458
100
AcDbEntity
  8
0
100
AcDbBlockEnd
  0
BLOCK
  5
46F
330
465
100
AcDbEntity
  8
0
100
AcDbBlockBegin
  2
*D3
 70
     1
 10
0.0
 20
0.0
 30
0.0
  3
*D3
  1

  0
LINE
  5
8B6
330
465
100
AcDbEntity
  8
SUNPOU
100
AcDbLine
 10
285.092587012075
 20
325.586185883421
 30
0.0
 11
285.092587012075
 21
358.0470422207702
 31
0.0
  0
LINE
  5
8B7
330
465
100
AcDbEntity
  8
SUNPOU
100
AcDbLine
 10
408.4925870120749
 20
294.797510883421
 30
0.0
 11
408.4925870120749
 21
358.0470422207702
 31
0.0
  0
LINE
  5
8B8
330
465
100
AcDbEntity
  8
SUNPOU
100
AcDbLine
 10
288.092587012075
 20
355.0470422207702
 30
0.0
 11
405.4925870120749
 21
355.0470422207702
 31
0.0
  0
INSERT
  5
8B9
330
465
100
AcDbEntity
  8
SUNPOU
100
AcDbBlockReference
  2
_OPEN
 10
285.092587012075
 20
355.0470422207702
 30
0.0
 41
3.0
 42
3.0
 43
3.0
 50
180.0
  0
INSERT
  5
8BA
330
465
100
AcDbEntity
  8
SUNPOU
100
AcDbBlockReference
  2
_OPEN
 10
408.4925870120749
 20
355.0470422207702
 30
0.0
 41
3.0
 42
3.0
 43
3.0
  0
MTEXT
  5
8BB
330
465
100
AcDbEntity
  8
SUNPOU
100
AcDbMText
 10
346.7925870120749
 20
360.0470422207702
 30
0.0
 40
6.0
 41
0.0
 71
     5
 72
     5
  1
\A1;123
1001
ACAD
1000
MTEXTBEGIN
1070
    73
1070
     1
1070
    44
1040
1.0
1070
    74
1070
     0
1000
MTEXTEND
1000
MTEXTBEGIN
1070
    73
1070
     1
1070
    44
1040
1.0
1070
    74
1070
     0
1000
MTEXTEND
1000
MTEXTBEGIN
1070
    73
1070
     1
1070
    44
1040
1.0
1070
    74
1070
     0
1000
MTEXTEND
1000
MTEXTBEGIN
1070
    73
1070
     1
1070
    44
1040
1.0
1070
    74
1070
     0
1000
MTEXTEND
1000
MTEXTBEGIN
1070
    73
1070
     1
1070
    44
1040
1.0
1070
    74
1070
     0
1000
MTEXTEND
  0
POINT
  5
8BC
330
465
100
AcDbEntity
  8
DEFPOINTS
 62
     0
100
AcDbPoint
 10
285.092587012075
 20
319.586185883421
 30
0.0
  0
POINT
  5
8BD
330
465
100
AcDbEntity
  8
DEFPOINTS
 62
     0
100
AcDbPoint
 10
408.4925870120749
 20
288.797510883421
 30
0.0
  0
POINT
  5
8BE
330
465
100
AcDbEntity
  8
DEFPOINTS
 62
     0
100
AcDbPoint
 10
408.4925870120749
 20
355.0470422207702
 30
0.0
  0
ENDBLK
  5
470
330
465
100
AcDbEntity
  8
0
100
AcDbBlockEnd
  0
BLOCK
  5
776
330
76C
100
AcDbEntity
  8
0
100
AcDbBlockBegin
  2
*D4
 70
     1
 10
0.0
 20
0.0
 30
0.0
  3
*D4
  1

  0
LINE
  5
8BF
330
76C
100
AcDbEntity
  8
SUNPOU
100
AcDbLine
 10
587.3526301411784
 20
303.1852017397022
 30
0.0
 11
615.3755718228467
 21
314.5072050794507
 31
0.0
  0
LINE
  5
8C0
330
76C
100
AcDbEntity
  8
SUNPOU
100
AcDbLine
 10
592.2225158411785
 20
291.1318116397022
 30
0.0
 11
620.2454575228467
 21
302.4538149794507
 31
0.0
  0
LINE
  5
8C1
330
76C
100
AcDbEntity
  8
SUNPOU
100
AcDbLine
 10
613.7178400364355
 20
310.6018337367585
 30
0.0
 11
616.3400861801545
 21
304.1115467658619
 31
0.0
  0
INSERT
  5
8C2
330
76C
100
AcDbEntity
  8
SUNPOU
100
AcDbBlockReference
  2
_OPEN
 10
612.594020258295
 20
313.3833853013102
 30
0.0
 41
3.0
 42
3.0
 43
3.0
 50
111.9999999565946
  0
INSERT
  5
8C3
330
76C
100
AcDbEntity
  8
SUNPOU
100
AcDbBlockReference
  2
_OPEN
 10
617.4639059582951
 20
301.3299952013102
 30
0.0
 41
3.0
 42
3.0
 43
3.0
 50
291.9999999565947
  0
MTEXT
  5
8C4
330
76C
100
AcDbEntity
  8
SUNPOU
100
AcDbMText
 10
619.6648823825479
 20
309.2297232148777
 30
0.0
 40
6.0
 41
0.0
 71
     5
 72
     5
  1
\A1;13
 11
0.3746065927135093
 21
-0.9271838548505767
 31
0.0
1001
ACAD
1000
MTEXTBEGIN
1070
    73
1070
     1
1070
    44
1040
1.0
1070
    74
1070
     0
1000
MTEXTEND
1000
MTEXTBEGIN
1070
    73
1070
     1
1070
    44
1040
1.0
1070
    74
1070
     0
1000
MTEXTEND
1000
MTEXTBEGIN
1070
    73
1070
     1
1070
    44
1040
1.0
1070
    74
1070
     0
1000
MTEXTEND
1000
MTEXTBEGIN
1070
    73
1070
     1
1070
    44
1040
1.0
1070
    74
1070
     0
1000
MTEXTEND
1000
MTEXTBEGIN
1070
    73
1070
     1
1070
    44
1040
1.0
1070
    74
1070
     0
1000
MTEXTEND
  0
POINT
  5
8C5
330
76C
100
AcDbEntity
  8
DEFPOINTS
 62
     0
100
AcDbPoint
 10
581.789527012075
 20
300.9375621834211
 30
0.0
  0
POINT
  5
8C6
330
76C
100
AcDbEntity
  8
DEFPOINTS
 62
     0
100
AcDbPoint
 10
586.6594127120751
 20
288.8841720834211
 30
0.0
  0
POINT
  5
8C7
330
76C
100
AcDbEntity
  8
DEFPOINTS
 62
     0
100
AcDbPoint
 10
617.4639059582951
 20
301.3299952013102
 30
0.0
  0
ENDBLK
  5
777
330
76C
100
AcDbEntity
  8
0
100
AcDbBlockEnd
  0
BLOCK
  5
7DF
330
7D3
100
AcDbEntity
  8
0
100
AcDbBlockBegin
  2
*D5
 70
     1
 10
0.0
 20
0.0
 30
0.0
  3
*D5
  1

  0
LINE
  5
8C8
330
7D3
100
AcDbEntity
  8
SUNPOU
100
AcDbLine
 10
592.659412712075
 20
414.9172095246381
 30
0.0
 11
633.0286789340793
 21
414.9172095246381
 31
0.0
  0
LINE
  5
8C9
330
7D3
100
AcDbEntity
  8
SUNPOU
100
AcDbLine
 10
592.659412712075
 20
411.717209524638
 30
0.0
 11
633.0286789340793
 21
411.717209524638
 31
0.0
  0
LINE
  5
8CA
330
7D3
100
AcDbEntity
  8
SUNPOU
100
AcDbLine
 10
630.0286789340794
 20
417.917209524638
 30
0.0
 11
630.0286789340794
 21
420.9172095246381
 31
0.0
  0
LINE
  5
8CB
330
7D3
100
AcDbEntity
  8
SUNPOU
100
AcDbLine
 10
630.0286789340794
 20
408.717209524638
 30
0.0
 11
630.0286789340794
 21
397.717209524638
 31
0.0
  0
LINE
  5
8CC
330
7D3
100
AcDbEntity
  8
SUNPOU
100
AcDbLine
 10
630.0286789340794
 20
414.9172095246381
 30
0.0
 11
630.0286789340794
 21
411.717209524638
 31
0.0
  0
INSERT
  5
8CD
330
7D3
100
AcDbEntity
  8
SUNPOU
100
AcDbBlockReference
  2
_OPEN
 10
630.0286789340794
 20
414.9172095246381
 30
0.0
 41
3.0
 42
3.0
 43
3.0
 50
270.0
  0
INSERT
  5
8CE
330
7D3
100
AcDbEntity
  8
SUNPOU
100
AcDbBlockReference
  2
_OPEN
 10
630.0286789340794
 20
411.717209524638
 30
0.0
 41
3.0
 42
3.0
 43
3.0
 50
90.0
  0
MTEXT
  5
8CF
330
7D3
100
AcDbEntity
  8
SUNPOU
100
AcDbMText
 10
625.0286789340792
 20
401.717209524638
 30
0.0
 40
6.0
 41
0.0
 71
     5
 72
     5
  1
\A1;3
 11
0.0000000000000001
 21
1.0
 31
0.0
1001
ACAD
1000
MTEXTBEGIN
1070
    73
1070
     1
1070
    44
1040
1.0
1070
    74
1070
     0
1000
MTEXTEND
1000
MTEXTBEGIN
1070
    73
1070
     1
1070
    44
1040
1.0
1070
    74
1070
     0
1000
MTEXTEND
1000
MTEXTBEGIN
1070
    73
1070
     1
1070
    44
1040
1.0
1070
    74
1070
     0
1000
MTEXTEND
1000
MTEXTBEGIN
1070
    73
1070
     1
1070
    44
1040
1.0
1070
    74
1070
     0
1000
MTEXTEND
1000
MTEXTBEGIN
1070
    73
1070
     1
1070
    44
1040
1.0
1070
    74
1070
     0
1000
MTEXTEND
  0
POINT
  5
8D0
330
7D3
100
AcDbEntity
  8
DEFPOINTS
 62
     0
100
AcDbPoint
 10
586.6594127120749
 20
414.9172095246381
 30
0.0
  0
POINT
  5
8D1
330
7D3
100
AcDbEntity
  8
DEFPOINTS
 62
     0
100
AcDbPoint
 10
586.6594127120749
 20
411.717209524638
 30
0.0
  0
POINT
  5
8D2
330
7D3
100
AcDbEntity
  8
DEFPOINTS
 62
     0
100
AcDbPoint
 10
630.0286789340794
 20
411.717209524638
 30
0.0
  0
ENDBLK
  5
7E0
330
7D3
100
AcDbEntity
  8
0
100
AcDbBlockEnd
  0
BLOCK
  5
7ED
330
7E2
100
AcDbEntity
  8
0
100
AcDbBlockBegin
  2
*D6
 70
     1
 10
0.0
 20
0.0
 30
0.0
  3
*D6
  1

  0
LINE
  5
8D3
330
7E2
100
AcDbEntity
  8
SUNPOU
100
AcDbLine
 10
570.2700488801817
 20
302.7545993649439
 30
0.0
 11
560.5986535397768
 21
326.6921428177159
 31
0.0
  0
LINE
  5
8D4
330
7E2
100
AcDbEntity
  8
SUNPOU
100
AcDbLine
 10
579.5418874508967
 20
306.500665310546
 30
0.0
 11
569.8704921104917
 21
330.438208763318
 31
0.0
  0
LINE
  5
8D5
330
7E2
100
AcDbEntity
  8
SUNPOU
100
AcDbLine
 10
564.5040248839283
 20
325.0344110347424
 30
0.0
 11
568.2127603275183
 21
326.5328374191665
 31
0.0
  0
LINE
  5
8D6
330
7E2
100
AcDbEntity
  8
SUNPOU
100
AcDbLine
 10
570.9943118910807
 20
327.6566571997555
 30
0.0
 11
583.9748858543723
 21
332.901149509171
 31
0.0
  0
INSERT
  5
8D7
330
7E2
100
AcDbEntity
  8
SUNPOU
100
AcDbBlockReference
  2
_OPEN
 10
561.7224733203658
 20
323.9105912541534
 30
0.0
 41
3.0
 42
3.0
 43
3.0
 50
202.00000000703
  0
INSERT
  5
8D8
330
7E2
100
AcDbEntity
  8
SUNPOU
100
AcDbBlockReference
  2
_OPEN
 10
570.9943118910807
 20
327.6566571997555
 30
0.0
 41
3.0
 42
3.0
 43
3.0
 50
22.00000000703004
  0
MTEXT
  5
8D9
330
7E2
100
AcDbEntity
  8
SUNPOU
100
AcDbMText
 10
577.0023416868593
 20
335.4767325173619
 30
0.0
 40
6.0
 41
0.0
 71
     5
 72
     5
  1
\A1;10
 11
0.927183854520824
 21
0.3746065935296752
 31
0.0
1001
ACAD
1000
MTEXTBEGIN
1070
    73
1070
     1
1070
    44
1040
1.0
1070
    74
1070
     0
1000
MTEXTEND
1000
MTEXTBEGIN
1070
    73
1070
     1
1070
    44
1040
1.0
1070
    74
1070
     0
1000
MTEXTEND
1000
MTEXTBEGIN
1070
    73
1070
     1
1070
    44
1040
1.0
1070
    74
1070
     0
1000
MTEXTEND
1000
MTEXTBEGIN
1070
    73
1070
     1
1070
    44
1040
1.0
1070
    74
1070
     0
1000
MTEXTEND
1000
MTEXTBEGIN
1070
    73
1070
     1
1070
    44
1040
1.0
1070
    74
1070
     0
1000
MTEXTEND
  0
POINT
  5
8DA
330
7E2
100
AcDbEntity
  8
DEFPOINTS
 62
     0
100
AcDbPoint
 10
572.5176884413598
 20
297.1914962378189
 30
0.0
  0
POINT
  5
8DB
330
7E2
100
AcDbEntity
  8
DEFPOINTS
 62
     0
100
AcDbPoint
 10
581.7895270120748
 20
300.9375621834211
 30
0.0
  0
POINT
  5
8DC
330
7E2
100
AcDbEntity
  8
DEFPOINTS
 62
     0
100
AcDbPoint
 10
570.9943118910807
 20
327.6566571997555
 30
0.0
  0
ENDBLK
  5
7EE
330
7E2
100
AcDbEntity
  8
0
100
AcDbBlockEnd
  0
BLOCK
  5
7FA
330
7F0
100
AcDbEntity
  8
0
100
AcDbBlockBegin
  2
*D7
 70
     1
 10
0.0
 20
0.0
 30
0.0
  3
*D7
  1

  0
LINE
  5
8DD
330
7F0
100
AcDbEntity
  8
SUNPOU
100
AcDbLine
 10
509.0759145057504
 20
278.0305642016592
 30
0.0
 11
499.4045191653454
 21
301.9681076544313
 31
0.0
  0
LINE
  5
8DE
330
7F0
100
AcDbEntity
  8
SUNPOU
100
AcDbLine
 10
570.270048880182
 20
302.7545993649439
 30
0.0
 11
560.5986535397769
 21
326.6921428177159
 31
0.0
  0
LINE
  5
8DF
330
7F0
100
AcDbEntity
  8
SUNPOU
100
AcDbLine
 10
503.3098905094969
 20
300.3103758714579
 30
0.0
 11
558.9409217568035
 21
322.7867714735645
 31
0.0
  0
INSERT
  5
8E0
330
7F0
100
AcDbEntity
  8
SUNPOU
100
AcDbBlockReference
  2
_OPEN
 10
500.5283389459344
 20
299.1865560908688
 30
0.0
 41
3.0
 42
3.0
 43
3.0
 50
202.0000000070297
  0
INSERT
  5
8E1
330
7F0
100
AcDbEntity
  8
SUNPOU
100
AcDbBlockReference
  2
_OPEN
 10
561.722473320366
 20
323.9105912541535
 30
0.0
 41
3.0
 42
3.0
 43
3.0
 50
22.00000000702979
  0
MTEXT
  5
8E2
330
7F0
100
AcDbEntity
  8
SUNPOU
100
AcDbMText
 10
529.252373165502
 20
316.1844929451155
 30
0.0
 40
6.0
 41
0.0
 71
     5
 72
     5
  1
\A1;66
 11
0.9271838545208259
 21
0.3746065935296711
 31
0.0
1001
ACAD
1000
MTEXTBEGIN
1070
    73
1070
     1
1070
    44
1040
1.0
1070
    74
1070
     0
1000
MTEXTEND
1000
MTEXTBEGIN
1070
    73
1070
     1
1070
    44
1040
1.0
1070
    74
1070
     0
1000
MTEXTEND
1000
MTEXTBEGIN
1070
    73
1070
     1
1070
    44
1040
1.0
1070
    74
1070
     0
1000
MTEXTEND
1000
MTEXTBEGIN
1070
    73
1070
     1
1070
    44
1040
1.0
1070
    74
1070
     0
1000
MTEXTEND
1000
MTEXTBEGIN
1070
    73
1070
     1
1070
    44
1040
1.0
1070
    74
1070
     0
1000
MTEXTEND
  0
POINT
  5
8E3
330
7F0
100
AcDbEntity
  8
DEFPOINTS
 62
     0
100
AcDbPoint
 10
511.3235540669284
 20
272.4674610745342
 30
0.0
  0
POINT
  5
8E4
330
7F0
100
AcDbEntity
  8
DEFPOINTS
 62
     0
100
AcDbPoint
 10
572.5176884413599
 20
297.1914962378189
 30
0.0
  0
POINT
  5
8E5
330
7F0
100
AcDbEntity
  8
DEFPOINTS
 62
     0
100
AcDbPoint
 10
561.722473320366
 20
323.9105912541535
 30
0.0
  0
ENDBLK
  5
7FB
330
7F0
100
AcDbEntity
  8
0
100
AcDbBlockEnd
  0
BLOCK
  5
819
330
80F
100
AcDbEntity
  8
0
100
AcDbBlockBegin
  2
*D8
 70
     1
 10
0.0
 20
0.0
 30
0.0
  3
*D8
  1

  0
LINE
  5
8E6
330
80F
100
AcDbEntity
  8
SUNPOU
100
AcDbLine
 10
350.0402265738253
 20
193.8230826777978
 30
0.0
 11
371.1784597774858
 21
141.5041195894516
 31
0.0
  0
LINE
  5
8E7
330
80F
100
AcDbEntity
  8
SUNPOU
100
AcDbLine
 10
586.4721094232529
 20
289.347764006296
 30
0.0
 11
607.6103426269134
 21
237.0288009179499
 31
0.0
  0
LINE
  5
8E8
330
80F
100
AcDbEntity
  8
SUNPOU
100
AcDbLine
 10
372.8361915604592
 20
145.409490933603
 30
0.0
 11
603.704971282762
 21
238.6865327009233
 31
0.0
  0
INSERT
  5
8E9
330
80F
100
AcDbEntity
  8
SUNPOU
100
AcDbBlockReference
  2
_OPEN
 10
370.0546399968968
 20
144.285671153014
 30
0.0
 41
3.0
 42
3.0
 43
3.0
 50
202.0000000070298
  0
INSERT
  5
8EA
330
80F
100
AcDbEntity
  8
SUNPOU
100
AcDbBlockReference
  2
_OPEN
 10
606.4865228463244
 20
239.8103524815123
 30
0.0
 41
3.0
 42
3.0
 43
3.0
 50
22.00000000702985
  0
MTEXT
  5
8EB
330
80F
100
AcDbEntity
  8
SUNPOU
100
AcDbMText
 10
486.3975484539624
 20
196.6839310898673
 30
0.0
 40
6.0
 41
0.0
 71
     5
 72
     5
  1
\A1;255
 11
0.9271838545208254
 21
0.3746065935296721
 31
0.0
1001
ACAD
1000
MTEXTBEGIN
1070
    73
1070
     1
1070
    44
1040
1.0
1070
    74
1070
     0
1000
MTEXTEND
1000
MTEXTBEGIN
1070
    73
1070
     1
1070
    44
1040
1.0
1070
    74
1070
     0
1000
MTEXTEND
1000
MTEXTBEGIN
1070
    73
1070
     1
1070
    44
1040
1.0
1070
    74
1070
     0
1000
MTEXTEND
1000
MTEXTBEGIN
1070
    73
1070
     1
1070
    44
1040
1.0
1070
    74
1070
     0
1000
MTEXTEND
1000
MTEXTBEGIN
1070
    73
1070
     1
1070
    44
1040
1.0
1070
    74
1070
     0
1000
MTEXTEND
  0
POINT
  5
8EC
330
80F
100
AcDbEntity
  8
DEFPOINTS
 62
     0
100
AcDbPoint
 10
347.7925870126473
 20
199.3861858049227
 30
0.0
  0
POINT
  5
8ED
330
80F
100
AcDbEntity
  8
DEFPOINTS
 62
     0
100
AcDbPoint
 10
584.2244698620748
 20
294.910867133421
 30
0.0
  0
POINT
  5
8EE
330
80F
100
AcDbEntity
  8
DEFPOINTS
 62
     0
100
AcDbPoint
 10
606.4865228463244
 20
239.8103524815123
 30
0.0
  0
ENDBLK
  5
81A
330
80F
100
AcDbEntity
  8
0
100
AcDbBlockEnd
  0
BLOCK
  5
932
330
928
100
AcDbEntity
  8
0
100
AcDbBlockBegin
  2
*D9
 70
     1
 10
0.0
 20
0.0
 30
0.0
  3
*D9
  1

  0
LINE
  5
96D
330
928
100
AcDbEntity
  8
SUNPOU
100
AcDbLine
 10
341.7925870126473
 20
233.586185883421
 30
0.0
 11
235.3946534004762
 21
233.5861858834211
 31
0.0
  0
LINE
  5
96E
330
928
100
AcDbEntity
  8
SUNPOU
100
AcDbLine
 10
345.108230212075
 20
199.3861858475441
 30
0.0
 11
235.3946534004762
 21
199.3861858475442
 31
0.0
  0
LINE
  5
96F
330
928
100
AcDbEntity
  8
SUNPOU
100
AcDbLine
 10
238.3946534004762
 20
230.5861858834211
 30
0.0
 11
238.3946534004762
 21
202.3861858475442
 31
0.0
  0
INSERT
  5
970
330
928
100
AcDbEntity
  8
SUNPOU
100
AcDbBlockReference
  2
_OPEN
 10
238.3946534004762
 20
233.5861858834211
 30
0.0
 41
3.0
 42
3.0
 43
3.0
 50
90.0
  0
INSERT
  5
971
330
928
100
AcDbEntity
  8
SUNPOU
100
AcDbBlockReference
  2
_OPEN
 10
238.3946534004762
 20
199.3861858475442
 30
0.0
 41
3.0
 42
3.0
 43
3.0
 50
270.0
  0
MTEXT
  5
972
330
928
100
AcDbEntity
  8
SUNPOU
100
AcDbMText
 10
233.3946534004762
 20
216.4861858654826
 30
0.0
 40
6.0
 41
0.0
 71
     5
 72
     5
  1
\A1;H
 11
0.0000000000000001
 21
1.0
 31
0.0
1001
ACAD
1000
MTEXTBEGIN
1070
    73
1070
     1
1070
    44
1040
1.0
1070
    74
1070
     0
1000
MTEXTEND
1000
MTEXTBEGIN
1070
    73
1070
     1
1070
    44
1040
1.0
1070
    74
1070
     0
1000
MTEXTEND
1000
MTEXTBEGIN
1070
    73
1070
     1
1070
    44
1040
1.0
1070
    74
1070
     0
1000
MTEXTEND
1000
MTEXTBEGIN
1070
    73
1070
     1
1070
    44
1040
1.0
1070
    74
1070
     0
1000
MTEXTEND
  0
POINT
  5
973
330
928
100
AcDbEntity
  8
DEFPOINTS
 62
     0
100
AcDbPoint
 10
347.7925870126473
 20
233.586185883421
 30
0.0
  0
POINT
  5
974
330
928
100
AcDbEntity
  8
DEFPOINTS
 62
     0
100
AcDbPoint
 10
351.108230212075
 20
199.3861858475441
 30
0.0
  0
POINT
  5
975
330
928
100
AcDbEntity
  8
DEFPOINTS
 62
     0
100
AcDbPoint
 10
238.3946534004762
 20
199.3861858475442
 30
0.0
  0
ENDBLK
  5
933
330
928
100
AcDbEntity
  8
0
100
AcDbBlockEnd
  0
ENDSEC
  0
SECTION
  2
ENTITIES
  0
LINE
  5
27B
330
1A
100
AcDbEntity
  8
CENTER_L
100
AcDbLine
 10
597.3225380737345
 20
413.317209524638
 30
0.0
 11
276.7492786409634
 21
413.317209524638
 31
0.0
  0
LINE
  5
27D
330
1A
100
AcDbEntity
  8
SEIHIN
100
AcDbLine
 10
392.8025911765664
 20
419.317209524638
 30
0.0
 11
293.9555631907047
 21
419.317209524638
 31
0.0
  0
LINE
  5
27E
330
1A
100
AcDbEntity
  8
SEIHIN
100
AcDbLine
 10
392.8025911765664
 20
407.317209524638
 30
0.0
 11
293.9555631907047
 21
407.317209524638
 31
0.0
  0
LINE
  5
27F
330
1A
100
AcDbEntity
  8
SEIHIN
100
AcDbLine
 10
408.4925870120749
 20
402.317209524638
 30
0.0
 11
285.092587012075
 21
402.317209524638
 31
0.0
  0
LINE
  5
280
330
1A
100
AcDbEntity
  8
SEIHIN
100
AcDbLine
 10
408.4925870120749
 20
424.317209524638
 30
0.0
 11
285.092587012075
 21
424.317209524638
 31
0.0
  0
LINE
  5
283
330
1A
100
AcDbEntity
  8
SEIHIN
100
AcDbLine
 10
347.7925870120749
 20
229.386185883421
 30
0.0
 11
386.8710191120749
 21
229.386185883421
 31
0.0
  0
LINE
  5
284
330
1A
100
AcDbEntity
  8
SEIHIN
100
AcDbLine
 10
347.7925870120749
 20
232.386185883421
 30
0.0
 11
385.8001291120749
 21
232.386185883421
 31
0.0
  0
LINE
  5
285
330
1A
100
AcDbEntity
  8
SEIHIN
100
AcDbLine
 10
347.7925870120749
 20
233.586185883421
 30
0.0
 11
385.3717730120749
 21
233.586185883421
 31
0.0
  0
LINE
  5
286
330
1A
100
AcDbEntity
  8
NOKITOI
  6
PHANTOM
 62
     8
100
AcDbLine
 10
338.1060668731806
 20
234.9861858834211
 30
0.0
 11
382.6856668731807
 21
234.9860858834211
 31
0.0
  0
LINE
  5
287
330
1A
100
AcDbEntity
  8
NOKITOI
  6
PHANTOM
 62
     8
100
AcDbLine
 10
382.9354668731807
 20
233.7860858834211
 30
0.0
 11
338.1060668731806
 21
233.7861858834211
 31
0.0
  0
LINE
  5
288
330
1A
100
AcDbEntity
  8
CENTER_L
100
AcDbLine
 10
175.9082625123247
 20
326.586185883421
 30
0.0
 11
175.9082625123247
 21
192.8861858475442
 31
0.0
  0
LINE
  5
289
330
1A
100
AcDbEntity
  8
SEIHIN
100
AcDbLine
 10
285.092587012075
 20
319.586185883421
 30
0.0
 11
285.092587012075
 21
272.586185883421
 31
0.0
  0
LINE
  5
28A
330
1A
100
AcDbEntity
  8
SEIHIN
100
AcDbLine
 10
286.2925870120749
 20
319.586185883421
 30
0.0
 11
286.2925870120749
 21
272.586185883421
 31
0.0
  0
LINE
  5
28C
330
1A
100
AcDbEntity
  8
SEIHIN
100
AcDbLine
 10
178.0082625123247
 20
305.5861858834211
 30
0.0
 11
178.0082625123247
 21
285.086185883421
 31
0.0
  0
LINE
  5
28D
330
1A
100
AcDbEntity
  8
SEIHIN
100
AcDbLine
 10
173.8082625123247
 20
305.5861858834211
 30
0.0
 11
173.8082625123247
 21
285.086185883421
 31
0.0
  0
LINE
  5
290
330
1A
100
AcDbEntity
  8
CENTER_L
100
AcDbLine
 10
347.7925870126473
 20
191.886185886421
 30
0.0
 11
347.7925870126473
 21
242.4204693551975
 31
0.0
  0
LINE
  5
294
330
1A
100
AcDbEntity
  8
SEIHIN
100
AcDbLine
 10
182.9082625123247
 20
232.886185883421
 30
0.0
 11
182.9082625123247
 21
270.386185883421
 31
0.0
  0
LINE
  5
295
330
1A
100
AcDbEntity
  8
SEIHIN
100
AcDbLine
 10
186.9082625123247
 20
285.636185883421
 30
0.0
 11
186.9082625123247
 21
232.386185883421
 31
0.0
  0
LINE
  5
296
330
1A
100
AcDbEntity
  8
SEIHIN
100
AcDbLine
 10
168.9082625123247
 20
232.886185883421
 30
0.0
 11
168.9082625123247
 21
270.386185883421
 31
0.0
  0
LINE
  5
297
330
1A
100
AcDbEntity
  8
SEIHIN
100
AcDbLine
 10
164.9082625123247
 20
285.636185883421
 30
0.0
 11
164.9082625123247
 21
232.386185883421
 31
0.0
  0
LINE
  5
298
330
1A
100
AcDbEntity
  8
SEIHIN
100
AcDbLine
 10
173.0582625123247
 20
229.386185883421
 30
0.0
 11
175.9082625123247
 21
229.386185883421
 31
0.0
  0
LINE
  5
299
330
1A
100
AcDbEntity
  8
SEIHIN
100
AcDbLine
 10
166.9082625123247
 20
229.386185883421
 30
0.0
 11
184.9082625123247
 21
229.386185883421
 31
0.0
  0
LINE
  5
29A
330
1A
100
AcDbEntity
  8
SEIHIN
100
AcDbLine
 10
167.4082625123247
 20
232.386185883421
 30
0.0
 11
164.9082625123247
 21
232.386185883421
 31
0.0
  0
ARC
  5
29B
330
1A
100
AcDbEntity
  8
SEIHIN
100
AcDbCircle
 10
170.4082625123247
 20
230.886185883421
 30
0.0
 40
1.5
100
AcDbArc
 50
180.0
 51
270.0
  0
ARC
  5
29C
330
1A
100
AcDbEntity
  8
SEIHIN
100
AcDbCircle
 10
167.4082625123247
 20
230.886185883421
 30
0.0
 40
1.5
100
AcDbArc
 50
0.0
 51
90.0
  0
LINE
  5
29D
330
1A
100
AcDbEntity
  8
SEIHIN
100
AcDbLine
 10
170.8082625123247
 20
229.386185883421
 30
0.0
 11
173.0582625123247
 21
229.386185883421
 31
0.0
  0
ARC
  5
29E
330
1A
100
AcDbEntity
  8
SEIHIN
100
AcDbCircle
 10
181.4082625123247
 20
230.886185883421
 30
0.0
 40
1.5
100
AcDbArc
 50
270.0
 51
0.0
  0
LINE
  5
29F
330
1A
100
AcDbEntity
  8
SEIHIN
100
AcDbLine
 10
184.4082625123247
 20
232.386185883421
 30
0.0
 11
186.9082625123247
 21
232.386185883421
 31
0.0
  0
ARC
  5
2A0
330
1A
100
AcDbEntity
  8
SEIHIN
100
AcDbCircle
 10
184.4082625123247
 20
230.886185883421
 30
0.0
 40
1.5
100
AcDbArc
 50
90.0
 51
180.0
  0
LINE
  5
2A1
330
1A
100
AcDbEntity
  8
SEIHIN
100
AcDbLine
 10
181.0082625123246
 20
229.386185883421
 30
0.0
 11
175.9082625123247
 21
229.386185883421
 31
0.0
  0
LINE
  5
2A2
330
1A
100
AcDbEntity
  8
SEIHIN
100
AcDbLine
 10
186.9082625123247
 20
270.386185883421
 30
0.0
 11
164.9082625123247
 21
270.386185883421
 31
0.0
  0
ARC
  5
2A3
330
1A
100
AcDbEntity
  8
SEIHIN
100
AcDbCircle
 10
166.8582625123246
 20
285.636185883421
 30
0.0
 40
1.949999999999988
100
AcDbArc
 50
0.0
 51
180.0
  0
ARC
  5
2A4
330
1A
100
AcDbEntity
  8
SEIHIN
100
AcDbCircle
 10
171.3082625123247
 20
285.086185883421
 30
0.0
 40
2.5
100
AcDbArc
 50
180.0
 51
0.0
  0
LINE
  5
2A5
330
1A
100
AcDbEntity
  8
SEIHIN
100
AcDbLine
 10
168.8082625123247
 20
285.636185883421
 30
0.0
 11
168.8082625123247
 21
285.086185883421
 31
0.0
  0
LINE
  5
2A6
330
1A
100
AcDbEntity
  8
SEIHIN
100
AcDbLine
 10
168.8082625123247
 20
285.586185883421
 30
0.0
 11
168.8082625123247
 21
285.586185883421
 31
0.0
  0
LINE
  5
2A7
330
1A
100
AcDbEntity
  8
SEIHIN
100
AcDbLine
 10
173.8082625123247
 20
294.410997883421
 30
0.0
 11
173.8082625123247
 21
294.410997883421
 31
0.0
  0
LINE
  5
2A8
330
1A
100
AcDbEntity
  8
SEIHIN
100
AcDbLine
 10
173.8082625123247
 20
293.4712708834211
 30
0.0
 11
173.8082625123247
 21
293.4712708834211
 31
0.0
  0
ARC
  5
2A9
330
1A
100
AcDbEntity
  8
SEIHIN
100
AcDbCircle
 10
184.9582625123247
 20
285.636185883421
 30
0.0
 40
1.949999999999988
100
AcDbArc
 50
0.0
 51
180.0
  0
ARC
  5
2AA
330
1A
100
AcDbEntity
  8
SEIHIN
100
AcDbCircle
 10
180.5082625123247
 20
285.086185883421
 30
0.0
 40
2.5
100
AcDbArc
 50
180.0
 51
0.0
  0
LINE
  5
2AB
330
1A
100
AcDbEntity
  8
SEIHIN
100
AcDbLine
 10
183.0082625123248
 20
285.586185883421
 30
0.0
 11
183.0082625123248
 21
285.586185883421
 31
0.0
  0
LINE
  5
2AC
330
1A
100
AcDbEntity
  8
SEIHIN
100
AcDbLine
 10
183.0082625123248
 20
285.636185883421
 30
0.0
 11
183.0082625123248
 21
285.086185883421
 31
0.0
  0
LINE
  5
2AD
330
1A
100
AcDbEntity
  8
SEIHIN
100
AcDbLine
 10
178.0082625123247
 20
294.410997883421
 30
0.0
 11
178.0082625123247
 21
294.410997883421
 31
0.0
  0
LINE
  5
2AE
330
1A
100
AcDbEntity
  8
SEIHIN
100
AcDbLine
 10
178.0082625123247
 20
293.4712708834211
 30
0.0
 11
178.0082625123247
 21
293.4712708834211
 31
0.0
  0
ARC
  5
2AF
330
1A
100
AcDbEntity
  8
SEIHIN
100
AcDbCircle
 10
339.106137012075
 20
276.586185883421
 30
0.0
 40
48.19999998338746
100
AcDbArc
 50
190.3515581005718
 51
256.9992792531172
  0
ARC
  5
2B0
330
1A
100
AcDbEntity
  8
SEIHIN
100
AcDbCircle
 10
339.106137012075
 20
276.586185883421
 30
0.0
 40
45.19999999393088
100
AcDbArc
 50
190.0046914399661
 51
256.9987985135613
  0
ARC
  5
2B1
330
1A
100
AcDbEntity
  8
SEIHIN
100
AcDbCircle
 10
339.106137012075
 20
276.586185883421
 30
0.0
 40
43.99999996755491
100
AcDbArc
 50
190.0046914246755
 51
256.9987985386973
  0
ARC
  5
2B2
330
1A
100
AcDbEntity
  8
NOKITOI
  6
PHANTOM
 62
     8
100
AcDbCircle
 10
338.1060729551486
 20
276.7861802587648
 30
0.0
 40
41.79999437547816
100
AcDbArc
 50
184.4742952125247
 51
269.999854592109
  0
ARC
  5
2B3
330
1A
100
AcDbEntity
  8
NOKITOI
  6
PHANTOM
 62
     8
100
AcDbCircle
 10
338.1060506467233
 20
276.7862003597912
 30
0.0
 40
43.00001447645168
100
AcDbArc
 50
186.5249107071177
 51
269.9998883751437
  0
ARC
  5
2BD
330
1A
100
AcDbEntity
  8
SEIHIN
100
AcDbCircle
 10
330.3311720120749
 20
238.586185883421
 30
0.0
 40
5.000000009884356
100
AcDbArc
 50
256.997175988683
 51
270.0
  0
LINE
  5
2BE
330
1A
100
AcDbEntity
  8
SEIHIN
100
AcDbLine
 10
330.3311720120749
 20
229.386185883421
 30
0.0
 11
347.7925870120749
 21
229.386185883421
 31
0.0
  0
LINE
  5
2BF
330
1A
100
AcDbEntity
  8
SEIHIN
100
AcDbLine
 10
330.3311720120749
 20
232.386185883421
 30
0.0
 11
347.7925870120749
 21
232.386185883421
 31
0.0
  0
LINE
  5
2C0
330
1A
100
AcDbEntity
  8
SEIHIN
100
AcDbLine
 10
330.3311720120749
 20
233.586185883421
 30
0.0
 11
347.7925870120749
 21
233.586185883421
 31
0.0
  0
ARC
  5
2C1
330
1A
100
AcDbEntity
  8
SEIHIN
100
AcDbCircle
 10
330.3311720120749
 20
238.586185883421
 30
0.0
 40
9.20000000634241
100
AcDbArc
 50
256.9971761847128
 51
270.0
  0
ARC
  5
2C2
330
1A
100
AcDbEntity
  8
SEIHIN
100
AcDbCircle
 10
330.3311720120749
 20
238.586185883421
 30
0.0
 40
6.20000002439895
100
AcDbArc
 50
256.9971760025683
 51
270.0
  0
LINE
  5
2C4
330
1A
100
AcDbEntity
  8
NOKITOI
  6
PHANTOM
 62
     8
100
AcDbLine
 10
378.6856668731807
 20
234.9860858834211
 30
0.0
 11
358.777566873181
 21
234.9860858834211
 31
0.0
  0
LINE
  5
2C5
330
1A
100
AcDbEntity
  8
NOKITOI
  6
PHANTOM
 62
     8
100
AcDbLine
 10
378.9354668731807
 20
233.7860858834211
 30
0.0
 11
358.777566873181
 21
233.7860858834211
 31
0.0
  0
ARC
  5
2C6
330
1A
100
AcDbEntity
  8
NOKITOI
  6
PHANTOM
 62
     8
100
AcDbCircle
 10
288.2464028323315
 20
274.2861510292779
 30
0.0
 40
1.499965146287778
100
AcDbArc
 50
181.7866280217767
 51
269.9986264296971
  0
ARC
  5
2C7
330
1A
100
AcDbEntity
  8
NOKITOI
  6
PHANTOM
 62
     8
100
AcDbCircle
 10
294.3910584490181
 20
271.7861933984776
 30
0.0
 40
0.9999924849789756
100
AcDbArc
 50
6.528264606673934
 51
89.99951732740965
  0
ARC
  5
2C8
330
1A
100
AcDbEntity
  8
SEIHIN
100
AcDbCircle
 10
292.623882312075
 20
268.386185883421
 30
0.0
 40
3.199999999587582
100
AcDbArc
 50
10.00469134359025
 51
90.0
  0
ARC
  5
2C9
330
1A
100
AcDbEntity
  8
SEIHIN
100
AcDbCircle
 10
292.623882312075
 20
268.386185883421
 30
0.0
 40
2.000000016035531
100
AcDbArc
 50
10.0046904516475
 51
90.0
  0
LINE
  5
2CA
330
1A
100
AcDbEntity
  8
SEIHIN
100
AcDbLine
 10
287.3258660120749
 20
271.586185883421
 30
0.0
 11
287.3258660120749
 21
271.586185883421
 31
0.0
  0
LINE
  5
2CB
330
1A
100
AcDbEntity
  8
SEIHIN
100
AcDbLine
 10
292.623882312075
 20
270.386185883421
 30
0.0
 11
287.2925870120749
 21
270.386185883421
 31
0.0
  0
LINE
  5
2CC
330
1A
100
AcDbEntity
  8
SEIHIN
100
AcDbLine
 10
292.623882312075
 20
271.586185883421
 30
0.0
 11
287.2925870120749
 21
271.586185883421
 31
0.0
  0
ARC
  5
2CD
330
1A
100
AcDbEntity
  8
SEIHIN
100
AcDbCircle
 10
288.7394814120749
 20
267.386185883421
 30
0.0
 40
2.999999985884628
100
AcDbArc
 50
10.3515581974022
 51
90.0
  0
ARC
  5
2CE
330
1A
100
AcDbEntity
  8
SEIHIN
100
AcDbCircle
 10
287.2925870120749
 20
272.586185883421
 30
0.0
 40
2.199999999999988
100
AcDbArc
 50
180.0
 51
270.0
  0
ARC
  5
2CF
330
1A
100
AcDbEntity
  8
SEIHIN
100
AcDbCircle
 10
287.2925870120749
 20
272.586185883421
 30
0.0
 40
1.0
100
AcDbArc
 50
180.0
 51
270.0
  0
ARC
  5
2D0
330
1A
100
AcDbEntity
  8
NOKITOI
  6
PHANTOM
 62
     8
100
AcDbCircle
 10
294.6338606720228
 20
285.7861924185064
 30
0.0
 40
0.4999934649531607
100
AcDbArc
 50
356.9955363203376
 51
89.99928939038076
  0
LINE
  5
2D1
330
1A
100
AcDbEntity
  8
NOKITOI
  6
PHANTOM
 62
     8
100
AcDbLine
 10
290.8287668731809
 20
287.5861858834213
 30
0.0
 11
290.3287668731809
 21
285.0861858834213
 31
0.0
  0
LINE
  5
2D2
330
1A
100
AcDbEntity
  8
NOKITOI
  6
PHANTOM
 62
     8
100
AcDbLine
 10
287.556366873181
 20
286.761185883421
 30
0.0
 11
287.7057668731804
 21
281.9822858834212
 31
0.0
  0
LINE
  5
2D3
330
1A
100
AcDbEntity
  8
NOKITOI
  6
PHANTOM
 62
     8
100
AcDbLine
 10
286.3569668731806
 20
286.7236858834211
 30
0.0
 11
286.7471668731805
 21
274.239385883421
 31
0.0
  0
LINE
  5
2D4
330
1A
100
AcDbEntity
  8
NOKITOI
  6
PHANTOM
 62
     8
100
AcDbLine
 10
295.9349668731811
 20
273.9861858834211
 30
0.0
 11
289.8940668731806
 21
273.9861858834211
 31
0.0
  0
LINE
  5
2D5
330
1A
100
AcDbEntity
  8
NOKITOI
  6
PHANTOM
 62
     8
100
AcDbLine
 10
294.8174668731808
 20
279.7599858834211
 30
0.0
 11
295.1332668731806
 21
285.7598858834211
 31
0.0
  0
LINE
  5
2D6
330
1A
100
AcDbEntity
  8
NOKITOI
  6
PHANTOM
 62
     8
100
AcDbLine
 10
292.269466873181
 20
283.9861858834211
 30
0.0
 11
293.2652668731807
 21
285.0861858834213
 31
0.0
  0
LINE
  5
2D7
330
1A
100
AcDbEntity
  8
NOKITOI
  6
PHANTOM
 62
     8
100
AcDbLine
 10
292.269466873181
 20
283.9861858834211
 30
0.0
 11
291.8075668731808
 21
283.9861858834211
 31
0.0
  0
LINE
  5
2D8
330
1A
100
AcDbEntity
  8
NOKITOI
  6
PHANTOM
 62
     8
100
AcDbLine
 10
290.3287668731809
 20
285.0861858834213
 30
0.0
 11
293.2652668731807
 21
285.0861858834213
 31
0.0
  0
LINE
  5
2D9
330
1A
100
AcDbEntity
  8
NOKITOI
  6
PHANTOM
 62
     8
100
AcDbLine
 10
291.5740668731805
 20
279.8569858834213
 30
0.0
 11
291.9077668731806
 21
282.1931858834212
 31
0.0
  0
LINE
  5
2DA
330
1A
100
AcDbEntity
  8
NOKITOI
  6
PHANTOM
 62
     8
100
AcDbLine
 10
294.3180668731806
 20
279.2861858834211
 30
0.0
 11
292.0689668731806
 21
279.2861858834211
 31
0.0
  0
ARC
  5
2DB
330
1A
100
AcDbEntity
  8
NOKITOI
  6
PHANTOM
 62
     8
100
AcDbCircle
 10
292.0689934737783
 20
279.786155206539
 30
0.0
 40
0.4999693238254178
100
AcDbArc
 50
171.8555038770531
 51
269.9969516090356
  0
LINE
  5
2DC
330
1A
100
AcDbEntity
  8
NOKITOI
  6
PHANTOM
 62
     8
100
AcDbLine
 10
293.6539668731807
 20
280.4861858834211
 30
0.0
 11
292.8760668731811
 21
280.4861858834211
 31
0.0
  0
LINE
  5
2DD
330
1A
100
AcDbEntity
  8
NOKITOI
  6
PHANTOM
 62
     8
100
AcDbLine
 10
292.8760668731811
 20
280.4861858834211
 30
0.0
 11
293.2801668731808
 21
283.314585883421
 31
0.0
  0
ARC
  5
2DE
330
1A
100
AcDbEntity
  8
NOKITOI
  6
PHANTOM
 62
     8
100
AcDbCircle
 10
291.4127810915961
 20
282.2638712491201
 30
0.0
 40
0.5000073448410256
100
AcDbArc
 50
351.872947864124
 51
96.47829282996916
  0
ARC
  5
2DF
330
1A
100
AcDbEntity
  8
NOKITOI
  6
PHANTOM
 62
     8
100
AcDbCircle
 10
291.8076870858499
 20
278.7862446118011
 30
0.0
 40
5.2000412730095
100
AcDbArc
 50
90.0013245430618
 51
142.0757990790551
  0
LINE
  5
2E0
330
1A
100
AcDbEntity
  8
NOKITOI
  6
PHANTOM
 62
     8
100
AcDbLine
 10
293.2801668731808
 20
283.314585883421
 30
0.0
 11
293.8351668731807
 21
283.9276858834212
 31
0.0
  0
LINE
  5
2E1
330
1A
100
AcDbEntity
  8
NOKITOI
  6
PHANTOM
 62
     8
100
AcDbLine
 10
293.6539668731807
 20
280.4861858834211
 30
0.0
 11
293.8351668731807
 21
283.9276858834212
 31
0.0
  0
ARC
  5
2E2
330
1A
100
AcDbEntity
  8
NOKITOI
  6
PHANTOM
 62
     8
100
AcDbCircle
 10
294.3180599861857
 20
279.7861793483356
 30
0.0
 40
0.499993464961963
100
AcDbArc
 50
270.0007892017869
 51
356.997036131742
  0
ARC
  5
2E3
330
1A
100
AcDbEntity
  8
NOKITOI
  6
PHANTOM
 62
     8
100
AcDbCircle
 10
289.8940804453191
 20
275.9861727283347
 30
0.0
 40
1.999986844959662
100
AcDbArc
 50
181.7875531852356
 51
269.9996111843215
  0
LINE
  5
2E4
330
1A
100
AcDbEntity
  8
NOKITOI
  6
PHANTOM
 62
     8
100
AcDbLine
 10
288.2463668731807
 20
272.7861858834211
 30
0.0
 11
294.3910668731805
 21
272.7861858834211
 31
0.0
  0
LINE
  5
2E5
330
1A
100
AcDbEntity
  8
NOKITOI
  6
PHANTOM
 62
     8
100
AcDbLine
 10
287.8950668731804
 20
275.9237858834211
 30
0.0
 11
287.8095668731807
 21
278.6612858834211
 31
0.0
  0
ARC
  5
2E6
330
1A
100
AcDbEntity
  8
NOKITOI
  6
PHANTOM
 62
     8
100
AcDbCircle
 10
295.934979442889
 20
273.4861742586914
 30
0.0
 40
0.5000116248877111
100
AcDbArc
 50
4.474846808342103
 51
90.00144034898383
  0
LINE
  5
2E7
330
1A
100
AcDbEntity
  8
SEIHIN
100
AcDbLine
 10
286.2925870120749
 20
278.182519883421
 30
0.0
 11
286.2925870120749
 21
278.182519883421
 31
0.0
  0
ARC
  5
2E8
330
1A
100
AcDbEntity
  8
NOKITOI
  6
PHANTOM
 62
     8
100
AcDbCircle
 10
291.8076047546274
 20
278.7862296659465
 30
0.0
 40
3.999989731271038
100
AcDbArc
 50
96.47731142013119
 51
181.7899836067311
  0
LINE
  5
2E9
330
1A
100
AcDbEntity
  8
NOKITOI
  6
PHANTOM
 62
     8
100
AcDbLine
 10
291.9120668731807
 20
286.884285883421
 30
0.0
 11
292.1728668731807
 21
288.1881858834211
 31
0.0
  0
ARC
  5
2EA
330
1A
100
AcDbEntity
  8
NOKITOI
  6
PHANTOM
 62
     8
100
AcDbCircle
 10
292.4023596186252
 20
286.7861947332645
 30
0.0
 40
0.5000088498959383
100
AcDbArc
 50
168.6864043304892
 51
270.0008312961442
  0
ARC
  5
2EB
330
1A
100
AcDbEntity
  8
NOKITOI
  6
PHANTOM
 62
     8
100
AcDbCircle
 10
291.6825660901722
 20
288.2861868384228
 30
0.0
 40
0.4999990449987349
100
AcDbArc
 50
348.6967198015447
 51
89.99991027369492
  0
ARC
  5
2EC
330
1A
100
AcDbEntity
  8
NOKITOI
  6
PHANTOM
 62
     8
100
AcDbCircle
 10
288.3559713679787
 20
286.786190520948
 30
0.0
 40
0.7999953624857498
100
AcDbArc
 50
90.00032191805264
 51
181.7911273464193
  0
LINE
  5
2ED
330
1A
100
AcDbEntity
  8
NOKITOI
  6
PHANTOM
 62
     8
100
AcDbLine
 10
288.3559668731805
 20
287.5861858834213
 30
0.0
 11
290.8287668731809
 21
287.5861858834213
 31
0.0
  0
LINE
  5
2EE
330
1A
100
AcDbEntity
  8
NOKITOI
  6
PHANTOM
 62
     8
100
AcDbLine
 10
288.3559668731805
 20
288.7861858834211
 30
0.0
 11
291.6825668731807
 21
288.7861858834211
 31
0.0
  0
LINE
  5
2EF
330
1A
100
AcDbEntity
  8
NOKITOI
  6
PHANTOM
 62
     8
100
AcDbLine
 10
294.6338668731805
 20
286.2861858834211
 30
0.0
 11
292.4023668731806
 21
286.2861858834211
 31
0.0
  0
LINE
  5
2F0
330
1A
100
AcDbEntity
  8
SEIHIN
100
AcDbLine
 10
286.2925870120749
 20
287.586185883421
 30
0.0
 11
285.092587012075
 21
287.586185883421
 31
0.0
  0
ARC
  5
2F1
330
1A
100
AcDbEntity
  8
NOKITOI
  6
PHANTOM
 62
     8
100
AcDbCircle
 10
288.3559796240306
 20
286.7861990385075
 30
0.0
 40
1.999986844954076
100
AcDbArc
 50
90.00036528735451
 51
181.7883072882703
  0
ARC
  5
2F3
330
1A
100
AcDbEntity
  8
SEIHIN
100
AcDbCircle
 10
171.8082625123247
 20
305.5861858834211
 30
0.0
 40
2.0
100
AcDbArc
 50
0.0
 51
90.0
  0
LINE
  5
2F4
330
1A
100
AcDbEntity
  8
SEIHIN
100
AcDbLine
 10
178.9082625123247
 20
319.586185883421
 30
0.0
 11
172.9082625123247
 21
319.586185883421
 31
0.0
  0
LINE
  5
2F5
330
1A
100
AcDbEntity
  8
SEIHIN
100
AcDbLine
 10
169.9082625123247
 20
309.584935883421
 30
0.0
 11
169.9082625123247
 21
316.586185883421
 31
0.0
  0
ARC
  5
2F6
330
1A
100
AcDbEntity
  8
SEIHIN
100
AcDbCircle
 10
171.9082625123247
 20
309.584935883421
 30
0.0
 40
1.999999998843762
100
AcDbArc
 50
180.0
 51
268.5674562607732
  0
LINE
  5
2F7
330
1A
100
AcDbEntity
  8
SEIHIN
100
AcDbLine
 10
171.4082625123247
 20
307.5861858834211
 30
0.0
 11
171.4082625123247
 21
307.5861858834211
 31
0.0
  0
ARC
  5
2F8
330
1A
100
AcDbEntity
  8
SEIHIN
100
AcDbCircle
 10
172.9082625123247
 20
316.586185883421
 30
0.0
 40
3.0
100
AcDbArc
 50
90.0
 51
180.0
  0
LINE
  5
2F9
330
1A
100
AcDbEntity
  8
SEIHIN
100
AcDbLine
 10
181.9082625123247
 20
309.584935883421
 30
0.0
 11
181.9082625123247
 21
316.586185883421
 31
0.0
  0
ARC
  5
2FA
330
1A
100
AcDbEntity
  8
SEIHIN
100
AcDbCircle
 10
179.9082625123247
 20
309.584935883421
 30
0.0
 40
1.99999999884376
100
AcDbArc
 50
271.4325437392202
 51
0.0
  0
ARC
  5
2FB
330
1A
100
AcDbEntity
  8
SEIHIN
100
AcDbCircle
 10
180.0082625123248
 20
305.5861858834211
 30
0.0
 40
2.0
100
AcDbArc
 50
90.0
 51
180.0
  0
ARC
  5
2FC
330
1A
100
AcDbEntity
  8
SEIHIN
100
AcDbCircle
 10
178.9082625123247
 20
316.586185883421
 30
0.0
 40
3.0
100
AcDbArc
 50
0.0
 51
90.0
  0
LINE
  5
2FD
330
1A
100
AcDbEntity
  8
SEIHIN
100
AcDbLine
 10
286.2925870120749
 20
307.5861858834211
 30
0.0
 11
285.092587012075
 21
307.5861858834211
 31
0.0
  0
LINE
  5
2FE
330
1A
100
AcDbEntity
  8
SEIHIN
100
AcDbLine
 10
286.2925870120749
 20
319.586185883421
 30
0.0
 11
285.092587012075
 21
319.586185883421
 31
0.0
  0
ARC
  5
2FF
330
1A
100
AcDbEntity
  8
SEIHIN
100
AcDbCircle
 10
293.9555631907047
 20
416.3172095246379
 30
0.0
 40
3.0
100
AcDbArc
 50
90.0
 51
180.0
  0
LINE
  5
300
330
1A
100
AcDbEntity
  8
SEIHIN
100
AcDbLine
 10
293.9531286028523
 20
419.317209524638
 30
0.0
 11
293.9531286028523
 21
424.317209524638
 31
0.0
  0
LINE
  5
301
330
1A
100
AcDbEntity
  8
SEIHIN
100
AcDbLine
 10
286.2925870120749
 20
424.317209524638
 30
0.0
 11
286.2925870120749
 21
402.317209524638
 31
0.0
  0
LINE
  5
302
330
1A
100
AcDbEntity
  8
SEIHIN
100
AcDbLine
 10
285.092587012075
 20
424.317209524638
 30
0.0
 11
285.092587012075
 21
402.317209524638
 31
0.0
  0
LINE
  5
303
330
1A
100
AcDbEntity
  8
SEIHIN
100
AcDbLine
 10
293.9531286028523
 20
402.317209524638
 30
0.0
 11
293.9531286028523
 21
407.317209524638
 31
0.0
  0
ARC
  5
304
330
1A
100
AcDbEntity
  8
SEIHIN
100
AcDbCircle
 10
293.9555631907047
 20
410.317209524638
 30
0.0
 40
3.0
100
AcDbArc
 50
180.0
 51
270.0
  0
LINE
  5
305
330
1A
100
AcDbEntity
  8
SEIHIN
100
AcDbLine
 10
290.9555631907047
 20
410.317209524638
 30
0.0
 11
290.9555631907047
 21
416.3172095246379
 31
0.0
  0
LINE
  5
306
330
1A
100
AcDbEntity
  8
SEIHIN
100
AcDbLine
 10
286.2925870120749
 20
407.317209524638
 30
0.0
 11
285.092587012075
 21
407.317209524638
 31
0.0
  0
LINE
  5
307
330
1A
100
AcDbEntity
  8
SEIHIN
100
AcDbLine
 10
286.2925870120749
 20
419.317209524638
 30
0.0
 11
285.092587012075
 21
419.317209524638
 31
0.0
  0
LINE
  5
308
330
1A
100
AcDbEntity
  8
SEIHIN
100
AcDbLine
 10
350.2925870126472
 20
419.3172095240655
 30
0.0
 11
350.2925870126472
 21
407.3172095240655
 31
0.0
  0
LINE
  5
309
330
1A
100
AcDbEntity
  8
SEIHIN
100
AcDbLine
 10
345.2925870126472
 20
419.3172095240655
 30
0.0
 11
345.2925870126472
 21
407.3172095240655
 31
0.0
  0
LINE
  5
30A
330
1A
100
AcDbEntity
  8
SEIHIN
100
AcDbLine
 10
350.2925870126472
 20
407.3172095240655
 30
0.0
 11
345.2925870126472
 21
407.3172095240655
 31
0.0
  0
LINE
  5
30B
330
1A
100
AcDbEntity
  8
SEIHIN
100
AcDbLine
 10
350.2925870126472
 20
419.3172095240655
 30
0.0
 11
345.2925870126472
 21
419.3172095240655
 31
0.0
  0
LINE
  5
311
330
1A
100
AcDbEntity
  8
SEIHIN
100
AcDbLine
 10
395.7464090120749
 20
242.074523883421
 30
0.0
 11
397.766838712075
 21
262.278827583421
 31
0.0
  0
LINE
  5
312
330
1A
100
AcDbEntity
  8
SEIHIN
100
AcDbLine
 10
402.160580612075
 20
264.006769383421
 30
0.0
 11
399.7524590120749
 21
239.925545083421
 31
0.0
  0
LINE
  5
313
330
1A
100
AcDbEntity
  8
SEIHIN
100
AcDbLine
 10
396.8909947120749
 20
241.460529883421
 30
0.0
 11
398.960883312075
 21
262.159423183421
 31
0.0
  0
LINE
  5
314
330
1A
100
AcDbEntity
  8
NOKITOI
  6
PHANTOM
 62
     8
100
AcDbLine
 10
396.1614668731808
 20
273.5359858834211
 30
0.0
 11
393.1684668731804
 21
243.606185883421
 31
0.0
  0
LINE
  5
315
330
1A
100
AcDbEntity
  8
NOKITOI
  6
PHANTOM
 62
     8
100
AcDbLine
 10
397.202466873181
 20
271.8856858834211
 30
0.0
 11
394.3336668731808
 21
243.198285883421
 31
0.0
  0
LINE
  5
318
330
1A
100
AcDbEntity
  8
SEIHIN
100
AcDbLine
 10
385.3717730120749
 20
233.586185883421
 30
0.0
 11
395.7464090120749
 21
242.074523883421
 31
0.0
  0
LINE
  5
319
330
1A
100
AcDbEntity
  8
SEIHIN
100
AcDbLine
 10
386.8710191120749
 20
229.386185883421
 30
0.0
 11
399.7524590120749
 21
239.925545083421
 31
0.0
  0
LINE
  5
31A
330
1A
100
AcDbEntity
  8
SEIHIN
100
AcDbLine
 10
385.8001291120749
 20
232.386185883421
 30
0.0
 11
396.8909947120749
 21
241.460529883421
 31
0.0
  0
LINE
  5
31B
330
1A
100
AcDbEntity
  8
NOKITOI
  6
PHANTOM
 62
     8
100
AcDbLine
 10
392.987566873181
 20
243.2688858834211
 30
0.0
 11
383.0022668731808
 21
235.0990858834209
 31
0.0
  0
LINE
  5
31C
330
1A
100
AcDbEntity
  8
NOKITOI
  6
PHANTOM
 62
     8
100
AcDbLine
 10
393.9718668731807
 20
242.5237858834212
 30
0.0
 11
383.5687668731807
 21
234.0120858834212
 31
0.0
  0
ARC
  5
31D
330
1A
100
AcDbEntity
  8
NOKITOI
  6
PHANTOM
 62
     8
100
AcDbCircle
 10
382.6856732609294
 20
235.4860881634107
 30
0.0
 40
0.5000022800304047
100
AcDbArc
 50
269.9992680212791
 51
309.2854498596055
  0
ARC
  5
31E
330
1A
100
AcDbEntity
  8
NOKITOI
  6
PHANTOM
 62
     8
100
AcDbCircle
 10
382.9354599406033
 20
234.786083408415
 30
0.0
 40
0.9999975250179316
100
AcDbArc
 50
270.0003972084035
 51
309.2946416752297
  0
ARC
  5
31F
330
1A
100
AcDbEntity
  8
NOKITOI
  6
PHANTOM
 62
     8
100
AcDbCircle
 10
392.6709494473025
 20
243.6558533970331
 30
0.0
 40
0.4999904508696396
100
AcDbArc
 50
309.2900846377946
 51
354.2990110749239
  0
ARC
  5
320
330
1A
100
AcDbEntity
  8
NOKITOI
  6
PHANTOM
 62
     8
100
AcDbCircle
 10
393.3386443003119
 20
243.2977438117485
 30
0.0
 40
0.9999908507640039
100
AcDbArc
 50
309.288709223069
 51
354.2862329477532
  0
LINE
  5
321
330
1A
100
AcDbEntity
  8
SEIHIN
100
AcDbLine
 10
408.4925870120749
 20
270.374860883421
 30
0.0
 11
408.4925870120749
 21
288.797510883421
 31
0.0
  0
LINE
  5
322
330
1A
100
AcDbEntity
  8
SEIHIN
100
AcDbLine
 10
407.2925870120749
 20
270.374860883421
 30
0.0
 11
407.2925870120749
 21
288.797510883421
 31
0.0
  0
ARC
  5
323
330
1A
100
AcDbEntity
  8
NOKITOI
  6
PHANTOM
 62
     8
100
AcDbCircle
 10
404.3385840863589
 20
274.2862025665689
 30
0.0
 40
1.500016683246579
100
AcDbArc
 50
269.9993425123344
 51
358.2076423244113
  0
ARC
  5
324
330
1A
100
AcDbEntity
  8
NOKITOI
  6
PHANTOM
 62
     8
100
AcDbCircle
 10
398.1974875230216
 20
271.7862045712703
 30
0.0
 40
0.9999813123640345
100
AcDbArc
 50
90.00118317084911
 51
174.2905900333514
  0
LINE
  5
325
330
1A
100
AcDbEntity
  8
SEIHIN
100
AcDbLine
 10
407.3925871120748
 20
268.4696053834211
 30
0.0
 11
400.4459949120749
 21
264.458988283421
 31
0.0
  0
LINE
  5
326
330
1A
100
AcDbEntity
  8
SEIHIN
100
AcDbLine
 10
406.7925870120749
 20
269.508835883421
 30
0.0
 11
399.8459948120749
 21
265.498218783421
 31
0.0
  0
ARC
  5
327
330
1A
100
AcDbEntity
  8
SEIHIN
100
AcDbCircle
 10
405.1456921120749
 20
263.708258283421
 30
0.0
 40
2.999999957105099
100
AcDbArc
 50
120.0000001084142
 51
174.2894078126911
  0
ARC
  5
328
330
1A
100
AcDbEntity
  8
SEIHIN
100
AcDbCircle
 10
401.9459949120749
 20
261.860912083421
 30
0.0
 40
3.000000006856998
100
AcDbArc
 50
120.0000001084142
 51
174.2894080027292
  0
ARC
  5
329
330
1A
100
AcDbEntity
  8
SEIHIN
100
AcDbCircle
 10
401.9459949120749
 20
261.860912083421
 30
0.0
 40
4.200000021369245
100
AcDbArc
 50
120.0000011534159
 51
174.2894084913981
  0
ARC
  5
32A
330
1A
100
AcDbEntity
  8
SEIHIN
100
AcDbCircle
 10
406.2925870120749
 20
270.374860883421
 30
0.0
 40
0.9999999983612706
100
AcDbArc
 50
300.0000001084142
 51
0.0
  0
ARC
  5
32B
330
1A
100
AcDbEntity
  8
SEIHIN
100
AcDbCircle
 10
406.2925870120749
 20
270.374860883421
 30
0.0
 40
2.200000005055114
100
AcDbArc
 50
299.9999998479836
 51
0.0
  0
LINE
  5
32C
330
1A
100
AcDbEntity
  8
SEIHIN
100
AcDbLine
 10
400.107886012075
 20
290.997510883421
 30
0.0
 11
406.2925870120749
 21
290.997510883421
 31
0.0
  0
LINE
  5
32D
330
1A
100
AcDbEntity
  8
SEIHIN
100
AcDbLine
 10
400.107886012075
 20
289.797510883421
 30
0.0
 11
406.2925870120749
 21
289.797510883421
 31
0.0
  0
ARC
  5
32E
330
1A
100
AcDbEntity
  8
NOKITOI
  6
PHANTOM
 62
     8
100
AcDbCircle
 10
404.2289556361866
 20
286.7861974772382
 30
0.0
 40
1.999988406214315
100
AcDbArc
 50
358.2088726535936
 51
89.99967808195551
  0
LINE
  5
32F
330
1A
100
AcDbEntity
  8
NOKITOI
  6
PHANTOM
 62
     8
100
AcDbLine
 10
406.2279668731807
 20
286.7236858834211
 30
0.0
 11
405.8378668731807
 21
274.2392858834211
 31
0.0
  0
LINE
  5
330
330
1A
100
AcDbEntity
  8
NOKITOI
  6
PHANTOM
 62
     8
100
AcDbLine
 10
401.7562668731807
 20
287.5861858834213
 30
0.0
 11
402.2562668731807
 21
285.0861858834213
 31
0.0
  0
ARC
  5
331
330
1A
100
AcDbEntity
  8
NOKITOI
  6
PHANTOM
 62
     8
100
AcDbCircle
 10
397.951070582676
 20
285.7861897934518
 30
0.0
 40
0.4999960899831856
100
AcDbArc
 50
90.00042508015082
 51
183.0156217414647
  0
LINE
  5
332
330
1A
100
AcDbEntity
  8
NOKITOI
  6
PHANTOM
 62
     8
100
AcDbLine
 10
405.0285668731803
 20
286.761185883421
 30
0.0
 11
404.8792668731807
 21
281.9821858834212
 31
0.0
  0
LINE
  5
333
330
1A
100
AcDbEntity
  8
SEIHIN
100
AcDbLine
 10
399.534310012075
 20
289.616662883421
 30
0.0
 11
392.420219012075
 21
284.635322883421
 31
0.0
  0
LINE
  5
334
330
1A
100
AcDbEntity
  8
SEIHIN
100
AcDbLine
 10
398.846018312075
 20
290.599645383421
 30
0.0
 11
391.7319273120749
 21
285.618305383421
 31
0.0
  0
LINE
  5
335
330
1A
100
AcDbEntity
  8
SEIHIN
100
AcDbLine
 10
391.7319273120749
 20
285.618305383421
 30
0.0
 11
392.420219012075
 21
284.635322883421
 31
0.0
  0
ARC
  5
336
330
1A
100
AcDbEntity
  8
NOKITOI
  6
PHANTOM
 62
     8
100
AcDbCircle
 10
400.7774359462445
 20
278.7862216280849
 30
0.0
 40
3.99998565374706
100
AcDbArc
 50
358.208696659101
 51
83.5242238046835
  0
ARC
  5
337
330
1A
100
AcDbEntity
  8
NOKITOI
  6
PHANTOM
 62
     8
100
AcDbCircle
 10
400.7774490068295
 20
278.786194611801
 30
0.0
 40
5.199991271650611
100
AcDbArc
 50
37.92532860472995
 51
89.9998031407256
  0
ARC
  5
338
330
1A
100
AcDbEntity
  8
NOKITOI
  6
PHANTOM
 62
     8
100
AcDbCircle
 10
402.690904861005
 20
275.9861227039933
 30
0.0
 40
2.000036820932882
100
AcDbArc
 50
269.9989117490344
 51
358.2110591274195
  0
LINE
  5
339
330
1A
100
AcDbEntity
  8
NOKITOI
  6
PHANTOM
 62
     8
100
AcDbLine
 10
404.3385668731807
 20
272.7861858834211
 30
0.0
 11
398.1974668731809
 21
272.7861858834211
 31
0.0
  0
LINE
  5
33A
330
1A
100
AcDbEntity
  8
NOKITOI
  6
PHANTOM
 62
     8
100
AcDbLine
 10
400.3154668731808
 20
283.9861858834211
 30
0.0
 11
399.3196668731807
 21
285.0861858834213
 31
0.0
  0
LINE
  5
33B
330
1A
100
AcDbEntity
  8
NOKITOI
  6
PHANTOM
 62
     8
100
AcDbLine
 10
400.3154668731808
 20
283.9861858834211
 30
0.0
 11
400.7774668731808
 21
283.9861858834211
 31
0.0
  0
LINE
  5
33C
330
1A
100
AcDbEntity
  8
NOKITOI
  6
PHANTOM
 62
     8
100
AcDbLine
 10
401.0109668731806
 20
279.8568858834211
 30
0.0
 11
400.6771668731808
 21
282.1930858834213
 31
0.0
  0
ARC
  5
33D
330
1A
100
AcDbEntity
  8
NOKITOI
  6
PHANTOM
 62
     8
100
AcDbCircle
 10
400.5159770596169
 20
279.7861976281452
 30
0.0
 40
0.5000117448278309
100
AcDbArc
 50
269.9988327478016
 51
8.127314608715551
  0
ARC
  5
33E
330
1A
100
AcDbEntity
  8
NOKITOI
  6
PHANTOM
 62
     8
100
AcDbCircle
 10
398.2668709945873
 20
279.7861819733906
 30
0.0
 40
0.4999960899864752
100
AcDbArc
 50
183.0147243791741
 51
269.9995277178593
  0
LINE
  5
33F
330
1A
100
AcDbEntity
  8
NOKITOI
  6
PHANTOM
 62
     8
100
AcDbLine
 10
398.2668668731808
 20
279.2861858834211
 30
0.0
 11
400.5159668731803
 21
279.2861858834211
 31
0.0
  0
LINE
  5
340
330
1A
100
AcDbEntity
  8
NOKITOI
  6
PHANTOM
 62
     8
100
AcDbLine
 10
398.9309668731807
 20
280.4861858834211
 30
0.0
 11
399.7088668731803
 21
280.4861858834211
 31
0.0
  0
LINE
  5
341
330
1A
100
AcDbEntity
  8
NOKITOI
  6
PHANTOM
 62
     8
100
AcDbLine
 10
399.7088668731803
 20
280.4861858834211
 30
0.0
 11
399.3048668731807
 21
283.314585883421
 31
0.0
  0
LINE
  5
342
330
1A
100
AcDbEntity
  8
NOKITOI
  6
PHANTOM
 62
     8
100
AcDbLine
 10
397.7675668731808
 20
279.7598858834211
 30
0.0
 11
397.4517668731805
 21
285.7598858834211
 31
0.0
  0
LINE
  5
343
330
1A
100
AcDbEntity
  8
NOKITOI
  6
PHANTOM
 62
     8
100
AcDbLine
 10
399.3048668731807
 20
283.314585883421
 30
0.0
 11
398.7498668731804
 21
283.9275858834211
 31
0.0
  0
LINE
  5
344
330
1A
100
AcDbEntity
  8
NOKITOI
  6
PHANTOM
 62
     8
100
AcDbLine
 10
398.9309668731807
 20
280.4861858834211
 30
0.0
 11
398.7498668731804
 21
283.9275858834211
 31
0.0
  0
ARC
  5
345
330
1A
100
AcDbEntity
  8
NOKITOI
  6
PHANTOM
 62
     8
100
AcDbCircle
 10
401.1721962456804
 20
282.263816115916
 30
0.0
 40
0.4999578477751074
100
AcDbArc
 50
83.52609071220751
 51
188.1330561712932
  0
LINE
  5
346
330
1A
100
AcDbEntity
  8
NOKITOI
  6
PHANTOM
 62
     8
100
AcDbLine
 10
402.2562668731807
 20
285.0861858834213
 30
0.0
 11
399.3196668731807
 21
285.0861858834213
 31
0.0
  0
ARC
  5
347
330
1A
100
AcDbEntity
  8
NOKITOI
  6
PHANTOM
 62
     8
100
AcDbCircle
 10
396.6589799441853
 20
273.486197713701
 30
0.0
 40
0.499988169890889
100
AcDbArc
 50
90.00149786226634
 51
174.2966061377162
  0
LINE
  5
348
330
1A
100
AcDbEntity
  8
NOKITOI
  6
PHANTOM
 62
     8
100
AcDbLine
 10
396.6589668731803
 20
273.9861858834211
 30
0.0
 11
402.6908668731807
 21
273.9861858834211
 31
0.0
  0
LINE
  5
349
330
1A
100
AcDbEntity
  8
NOKITOI
  6
PHANTOM
 62
     8
100
AcDbLine
 10
404.6899668731807
 20
275.9235858834212
 30
0.0
 11
404.7754668731804
 21
278.6611858834211
 31
0.0
  0
LINE
  5
34A
330
1A
100
AcDbEntity
  8
NOKITOI
  6
PHANTOM
 62
     8
100
AcDbLine
 10
404.2289668731809
 20
287.5860858834211
 30
0.0
 11
401.7562668731807
 21
287.5861858834213
 31
0.0
  0
LINE
  5
34B
330
1A
100
AcDbEntity
  8
NOKITOI
  6
PHANTOM
 62
     8
100
AcDbLine
 10
404.2289668731809
 20
288.7860858834211
 30
0.0
 11
400.9023668731806
 21
288.7861858834211
 31
0.0
  0
ARC
  5
34C
330
1A
100
AcDbEntity
  8
SEIHIN
100
AcDbCircle
 10
400.107886012075
 20
288.797510883421
 30
0.0
 40
0.9999999714352551
100
AcDbArc
 50
90.0
 51
124.9999997494021
  0
ARC
  5
34D
330
1A
100
AcDbEntity
  8
SEIHIN
100
AcDbCircle
 10
400.107886012075
 20
288.797510883421
 30
0.0
 40
2.199999983850877
100
AcDbArc
 50
90.0
 51
124.999998682272
  0
LINE
  5
34E
330
1A
100
AcDbEntity
  8
NOKITOI
  6
PHANTOM
 62
     8
100
AcDbLine
 10
400.6728668731807
 20
286.8841858834213
 30
0.0
 11
400.4120668731807
 21
288.1881858834211
 31
0.0
  0
ARC
  5
34F
330
1A
100
AcDbEntity
  8
NOKITOI
  6
PHANTOM
 62
     8
100
AcDbCircle
 10
400.1825660901722
 20
286.7861849284194
 30
0.0
 40
0.4999990449987399
100
AcDbArc
 50
270.000089726305
 51
11.30328019845521
  0
ARC
  5
350
330
1A
100
AcDbEntity
  8
NOKITOI
  6
PHANTOM
 62
     8
100
AcDbCircle
 10
400.9023596186252
 20
288.2861770335777
 30
0.0
 40
0.500008849895925
100
AcDbArc
 50
89.99916870385415
 51
191.3135956695126
  0
LINE
  5
351
330
1A
100
AcDbEntity
  8
NOKITOI
  6
PHANTOM
 62
     8
100
AcDbLine
 10
397.9510668731809
 20
286.2861858834211
 30
0.0
 11
400.1825668731807
 21
286.2861858834211
 31
0.0
  0
ARC
  5
352
330
1A
100
AcDbEntity
  8
NOKITOI
  6
PHANTOM
 62
     8
100
AcDbCircle
 10
404.2290108395336
 20
286.7861405209481
 30
0.0
 40
0.7999453636812564
100
AcDbArc
 50
358.2123436447881
 51
90.00314907315425
  0
LINE
  5
353
330
1A
100
AcDbEntity
  8
SEIHIN
100
AcDbLine
 10
395.6654634120749
 20
288.372596883421
 30
0.0
 11
396.3537550120749
 21
287.3896138834211
 31
0.0
  0
LINE
  5
354
330
1A
100
AcDbEntity
  8
SEIHIN
100
AcDbLine
 10
407.2925870120749
 20
278.987116883421
 30
0.0
 11
407.2925870120749
 21
278.987116883421
 31
0.0
  0
ARC
  5
355
330
1A
100
AcDbEntity
  8
SEIHIN
100
AcDbCircle
 10
406.2925870120749
 20
288.797510883421
 30
0.0
 40
1.0
100
AcDbArc
 50
0.0
 51
90.0
  0
ARC
  5
356
330
1A
100
AcDbEntity
  8
SEIHIN
100
AcDbCircle
 10
406.2925870120749
 20
288.797510883421
 30
0.0
 40
2.200000000000017
100
AcDbArc
 50
0.0
 51
90.0
  0
TEXT
  5
35E
330
1A
100
AcDbEntity
  8
SUNPOU
  6
CONTINUOUS
 62
     4
100
AcDbText
 10
666.6082896595782
 20
316.8868761368362
 30
0.0
 40
6.0
  1
10
100
AcDbText
  0
LINE
  5
35F
330
1A
100
AcDbEntity
  8
SUNPOU
  6
CONTINUOUS
 62
     4
100
AcDbLine
 10
658.4727238426751
 20
324.90910897465
 30
0.0
 11
678.4727238426748
 21
324.90910897465
 31
0.0
  0
LINE
  5
360
330
1A
100
AcDbEntity
  8
SUNPOU
  6
CONTINUOUS
 62
     4
100
AcDbLine
 10
678.4727238426748
 20
332.90910897465
 30
0.0
 11
658.4727238426751
 21
324.90910897465
 31
0.0
  0
LINE
  5
361
330
1A
100
AcDbEntity
  8
SUNPOU
  6
CONTINUOUS
 62
     4
100
AcDbLine
 10
678.4727238426748
 20
324.90910897465
 30
0.0
 11
678.4727238426748
 21
332.90910897465
 31
0.0
  0
TEXT
  5
362
330
1A
100
AcDbEntity
  8
SUNPOU
  6
CONTINUOUS
 62
     4
100
AcDbText
 10
682.1920429689193
 20
326.61700897465
 30
0.0
 40
6.0
  1
4
100
AcDbText
  0
ARC
  5
365
330
1A
100
AcDbEntity
  8
SEIHIN
100
AcDbCircle
 10
409.0792584132187
 20
413.317209524638
 30
0.0
 40
17.34733110114381
100
AcDbArc
 50
140.646489972808
 51
219.3535100271919
  0
LINE
  5
366
330
1A
100
AcDbEntity
  8
SEIHIN
100
AcDbLine
 10
398.8460179028122
 20
402.317209524638
 30
0.0
 11
398.8460179028122
 21
424.317209524638
 31
0.0
  0
LINE
  5
367
330
1A
100
AcDbEntity
  8
SEIHIN
100
AcDbLine
 10
408.4925870120749
 20
402.317209524638
 30
0.0
 11
408.4925870120749
 21
424.317209524638
 31
0.0
  0
DIMENSION
  5
44A
330
1A
100
AcDbEntity
  8
SUNPOU
100
AcDbDimension
  2
*D1
 10
238.3946534004762
 20
319.586185883421
 30
0.0
 11
233.3946534004762
 21
276.5861858834211
 31
0.0
 70
    32
  3
STANDARD
100
AcDbAlignedDimension
 13
347.7925870120749
 23
233.586185883421
 33
0.0
 14
285.092587012075
 24
319.586185883421
 34
0.0
 50
90.0
100
AcDbRotatedDimension
1001
ACAD
1000
DSTYLE
1002
{
1070
    41
1040
3.0
1070
    42
1040
6.0
1070
    43
1040
14.0
1070
    44
1040
3.0
1070
    73
1070
     0
1070
    74
1070
     0
1070
    77
1070
     3
1070
   140
1040
6.0
1070
   141
1040
10.0
1070
   147
1040
2.0
1070
   172
1070
     1
1070
   173
1070
     1
1070
   176
1070
   256
1070
   177
1070
   256
1070
   178
1070
   256
1070
   271
1070
     0
1070
   272
1070
     0
1070
   341
1005
6D
1070
     6
1000
OPEN
1070
     7
1000
OPEN
1002
}
  0
DIMENSION
  5
457
330
1A
100
AcDbEntity
  8
SUNPOU
100
AcDbDimension
  2
*D2
 10
238.3946534004763
 20
402.317209524638
 30
0.0
 11
233.3946534004762
 21
413.317209524638
 31
0.0
 70
    32
  3
STANDARD
100
AcDbAlignedDimension
 13
285.092587012075
 23
424.317209524638
 33
0.0
 14
285.092587012075
 24
402.317209524638
 34
0.0
 50
90.0
100
AcDbRotatedDimension
1001
ACAD
1000
DSTYLE
1002
{
1070
    41
1040
3.0
1070
    42
1040
6.0
1070
    43
1040
14.0
1070
    44
1040
3.0
1070
    73
1070
     0
1070
    74
1070
     0
1070
    77
1070
     3
1070
   140
1040
6.0
1070
   141
1040
10.0
1070
   147
1040
2.0
1070
   172
1070
     1
1070
   173
1070
     1
1070
   176
1070
   256
1070
   177
1070
   256
1070
   178
1070
   256
1070
   271
1070
     0
1070
   272
1070
     0
1070
   341
1005
6D
1070
     6
1000
OPEN
1070
     7
1000
OPEN
1002
}
  0
DIMENSION
  5
464
330
1A
100
AcDbEntity
  8
SUNPOU
100
AcDbDimension
  2
*D3
 10
408.4925870120749
 20
355.0470422207702
 30
0.0
 11
346.7925870120749
 21
360.0470422207702
 31
0.0
 70
    32
  3
STANDARD
100
AcDbAlignedDimension
 13
285.092587012075
 23
319.586185883421
 33
0.0
 14
408.4925870120749
 24
288.797510883421
 34
0.0
100
AcDbRotatedDimension
1001
ACAD
1000
DSTYLE
1002
{
1070
    41
1040
3.0
1070
    42
1040
6.0
1070
    43
1040
14.0
1070
    44
1040
3.0
1070
    73
1070
     0
1070
    74
1070
     0
1070
    77
1070
     3
1070
   140
1040
6.0
1070
   141
1040
10.0
1070
   147
1040
2.0
1070
   172
1070
     1
1070
   173
1070
     1
1070
   176
1070
   256
1070
   177
1070
   256
1070
   178
1070
   256
1070
   271
1070
     0
1070
   272
1070
     0
1070
   341
1005
6D
1070
     6
1000
OPEN
1070
     7
1000
OPEN
1002
}
  0
LINE
  5
62A
330
1A
100
AcDbEntity
  8
SEIHIN
100
AcDbLine
 10
382.4449983120749
 20
220.3971445834211
 30
0.0
 11
581.7895270120749
 21
300.9375621834211
 31
0.0
  0
LINE
  5
62B
330
1A
100
AcDbEntity
  8
SEIHIN
100
AcDbLine
 10
387.314884012075
 20
208.3437544834211
 30
0.0
 11
586.6594127120749
 21
288.8841720834211
 31
0.0
  0
LINE
  5
641
330
1A
100
AcDbEntity
  8
SEIHIN
100
AcDbLine
 10
349.3925870120749
 20
229.3861858834211
 30
0.0
 11
349.3925870120749
 21
204.301829083421
 31
0.0
  0
LINE
  5
642
330
1A
100
AcDbEntity
  8
SEIHIN
100
AcDbLine
 10
346.192587012075
 20
229.3861858834211
 30
0.0
 11
346.192587012075
 21
204.301829083421
 31
0.0
  0
ARC
  5
643
330
1A
100
AcDbEntity
  8
SEIHIN
100
AcDbCircle
 10
394.2533854120749
 20
186.388880983421
 30
0.0
 40
36.0000000111769
100
AcDbArc
 50
109.1480806843045
 51
142.3845206505182
  0
ARC
  5
644
330
1A
100
AcDbEntity
  8
SEIHIN
100
AcDbCircle
 10
372.185001912075
 20
241.0100469834211
 30
0.0
 40
36.00000000042166
100
AcDbArc
 50
261.6154792131569
 51
294.8519192276078
  0
ARC
  5
645
330
1A
100
AcDbEntity
  8
SEIHIN
100
AcDbCircle
 10
376.550209012075
 20
237.4147326834211
 30
0.0
 40
31.00000000382353
100
AcDbArc
 50
249.5850480545547
 51
290.3190569527314
  0
LINE
  5
646
330
1A
100
AcDbEntity
  8
SEIHIN
100
AcDbLine
 10
352.9496625120749
 20
199.7441239834211
 30
0.0
 11
366.9356346120749
 21
205.394823583421
 31
0.0
  0
LINE
  5
647
330
1A
100
AcDbEntity
  8
SEIHIN
100
AcDbLine
 10
351.7509214120749
 20
202.711112383421
 30
0.0
 11
365.7368935120749
 21
208.361811883421
 31
0.0
  0
ARC
  5
648
330
1A
100
AcDbEntity
  8
SEIHIN
100
AcDbCircle
 10
351.108230212075
 20
204.301829083421
 30
0.0
 40
4.915643235876865
100
AcDbArc
 50
202.0000005444594
 51
291.9999990271187
  0
ARC
  5
649
330
1A
100
AcDbEntity
  8
SEIHIN
100
AcDbCircle
 10
351.108230212075
 20
204.301829083421
 30
0.0
 40
1.715643201240072
100
AcDbArc
 50
180.0
 51
291.9999979974122
  0
ARC
  5
64A
330
1A
100
AcDbEntity
  8
SEIHIN
100
AcDbCircle
 10
351.108230212075
 20
204.301829083421
 30
0.0
 40
4.915643204124013
100
AcDbArc
 50
180.0
 51
202.0000005444594
  0
LINE
  5
669
330
1A
100
AcDbEntity
  8
SEIHIN
100
AcDbLine
 10
581.7895270120749
 20
300.9375621834211
 30
0.0
 11
586.6594127120749
 21
288.8841720834211
 31
0.0
  0
CIRCLE
  5
66C
330
1A
100
AcDbEntity
  8
SEIHIN
100
AcDbCircle
 10
513.758496912075
 20
266.440766083421
 30
0.0
 40
1.799999999999954
  0
CIRCLE
  5
66D
330
1A
100
AcDbEntity
  8
SEIHIN
100
AcDbCircle
 10
574.952631312075
 20
291.1648011834211
 30
0.0
 40
1.799999999999954
  0
LINE
  5
75C
330
1A
100
AcDbEntity
  8
CENTER_L
100
AcDbLine
 10
340.7925870126473
 20
196.5580022230776
 30
0.0
 11
590.7147568437205
 21
297.5331132881287
 31
0.0
  0
LINE
  5
75D
330
1A
100
AcDbEntity
  8
CENTER_L
100
AcDbLine
 10
578.2491693241604
 20
283.0055832592034
 30
0.0
 11
571.6560932780383
 21
299.3240190987699
 31
0.0
  0
LINE
  5
760
330
1A
100
AcDbEntity
  8
CENTER_L
100
AcDbLine
 10
517.0550349241604
 20
258.2815481592033
 30
0.0
 11
510.4619588780383
 21
274.5999839987698
 31
0.0
  0
LINE
  5
762
330
1A
100
AcDbEntity
  8
SEIHIN
100
AcDbLine
 10
586.6594127120749
 20
414.9172095246381
 30
0.0
 11
408.4925870120749
 21
414.917209524638
 31
0.0
  0
LINE
  5
763
330
1A
100
AcDbEntity
  8
SEIHIN
100
AcDbLine
 10
586.6594127120749
 20
411.717209524638
 30
0.0
 11
408.4925870120749
 21
411.717209524638
 31
0.0
  0
LINE
  5
764
330
1A
100
AcDbEntity
  8
SEIHIN
100
AcDbLine
 10
581.7895270120749
 20
414.9172095246381
 30
0.0
 11
581.7895270120749
 21
411.717209524638
 31
0.0
  0
LINE
  5
765
330
1A
100
AcDbEntity
  8
SEIHIN
100
AcDbLine
 10
586.6594127120749
 20
414.9172095246381
 30
0.0
 11
586.6594127120749
 21
411.717209524638
 31
0.0
  0
LINE
  5
766
330
1A
100
AcDbEntity
  8
CENTER_L
100
AcDbLine
 10
574.952631312075
 20
421.917209524638
 30
0.0
 11
574.952631312075
 21
404.717209524638
 31
0.0
  0
LINE
  5
767
330
1A
100
AcDbEntity
  8
CENTER_L
100
AcDbLine
 10
513.758496912075
 20
421.917209524638
 30
0.0
 11
513.758496912075
 21
404.717209524638
 31
0.0
  0
DIMENSION
  5
76B
330
1A
100
AcDbEntity
  8
SUNPOU
100
AcDbDimension
  2
*D4
 10
617.4639059582951
 20
301.3299952013102
 30
0.0
 11
619.6648823825479
 21
309.2297232148777
 31
0.0
 70
    33
  3
STANDARD
100
AcDbAlignedDimension
 13
581.7895270120749
 23
300.9375621834211
 33
0.0
 14
586.6594127120749
 24
288.8841720834211
 34
0.0
1001
ACAD
1000
DSTYLE
1002
{
1070
    41
1040
3.0
1070
    42
1040
6.0
1070
    43
1040
14.0
1070
    44
1040
3.0
1070
    73
1070
     0
1070
    74
1070
     0
1070
    77
1070
     3
1070
   140
1040
6.0
1070
   141
1040
10.0
1070
   147
1040
2.0
1070
   172
1070
     1
1070
   173
1070
     1
1070
   176
1070
   256
1070
   177
1070
   256
1070
   178
1070
   256
1070
   271
1070
     0
1070
   272
1070
     0
1070
   341
1005
6D
1070
     6
1000
OPEN
1070
     7
1000
OPEN
1002
}
  0
LINE
  5
778
330
1A
100
AcDbEntity
  8
SEIHIN
100
AcDbLine
 10
184.9082625123247
 20
229.386185883421
 30
0.0
 11
184.9082625123247
 21
199.3861858475441
 31
0.0
  0
LINE
  5
779
330
1A
100
AcDbEntity
  8
SEIHIN
100
AcDbLine
 10
166.9082625123247
 20
229.386185883421
 30
0.0
 11
166.9082625123247
 21
199.3861858475441
 31
0.0
  0
LINE
  5
77A
330
1A
100
AcDbEntity
  8
SEIHIN
100
AcDbLine
 10
184.9082625123247
 20
199.3861858475441
 30
0.0
 11
166.9082625123247
 21
199.3861858475441
 31
0.0
  0
DIMENSION
  5
7D2
330
1A
100
AcDbEntity
  8
SUNPOU
100
AcDbDimension
  2
*D5
 10
630.0286789340794
 20
411.717209524638
 30
0.0
 11
625.0286789340792
 21
401.717209524638
 31
0.0
 70
    32
  3
STANDARD
100
AcDbAlignedDimension
 13
586.6594127120749
 23
414.9172095246381
 33
0.0
 14
586.6594127120749
 24
411.717209524638
 34
0.0
 50
90.0
100
AcDbRotatedDimension
1001
ACAD
1000
DSTYLE
1002
{
1070
    41
1040
3.0
1070
    42
1040
6.0
1070
    43
1040
14.0
1070
    44
1040
3.0
1070
    73
1070
     0
1070
    74
1070
     0
1070
    77
1070
     3
1070
   140
1040
6.0
1070
   141
1040
10.0
1070
   147
1040
2.0
1070
   172
1070
     1
1070
   173
1070
     1
1070
   176
1070
   256
1070
   177
1070
   256
1070
   178
1070
   256
1070
   271
1070
     0
1070
   272
1070
     0
1070
   341
1005
6D
1070
     6
1000
OPEN
1070
     7
1000
OPEN
1002
}
  0
DIMENSION
  5
7E1
330
1A
100
AcDbEntity
  8
SUNPOU
100
AcDbDimension
  2
*D6
 10
570.9943118910807
 20
327.6566571997555
 30
0.0
 11
577.0023416868593
 21
335.4767325173619
 31
0.0
 70
    33
  3
STANDARD
100
AcDbAlignedDimension
 13
572.5176884413599
 23
297.1914962378189
 33
0.0
 14
581.7895270120749
 24
300.9375621834211
 34
0.0
1001
ACAD
1000
DSTYLE
1002
{
1070
    41
1040
3.0
1070
    42
1040
6.0
1070
    43
1040
14.0
1070
    44
1040
3.0
1070
    73
1070
     0
1070
    74
1070
     0
1070
    77
1070
     3
1070
   140
1040
6.0
1070
   141
1040
10.0
1070
   147
1040
2.0
1070
   172
1070
     1
1070
   173
1070
     1
1070
   176
1070
   256
1070
   177
1070
   256
1070
   178
1070
   256
1070
   271
1070
     0
1070
   272
1070
     0
1070
   341
1005
6D
1070
     6
1000
OPEN
1070
     7
1000
OPEN
1002
}
  0
DIMENSION
  5
7EF
330
1A
100
AcDbEntity
  8
SUNPOU
100
AcDbDimension
  2
*D7
 10
561.722473320366
 20
323.9105912541535
 30
0.0
 11
531.1254061331505
 21
311.5485736725113
 31
0.0
 70
   161
  3
STANDARD
100
AcDbAlignedDimension
 13
511.3235540669285
 23
272.4674610745343
 33
0.0
 14
572.5176884413599
 24
297.1914962378189
 34
0.0
1001
ACAD
1000
DSTYLE
1002
{
1070
    41
1040
3.0
1070
    42
1040
6.0
1070
    43
1040
14.0
1070
    44
1040
3.0
1070
    73
1070
     0
1070
    74
1070
     0
1070
    77
1070
     3
1070
   140
1040
6.0
1070
   141
1040
10.0
1070
   147
1040
2.0
1070
   172
1070
     1
1070
   173
1070
     1
1070
   176
1070
   256
1070
   177
1070
   256
1070
   178
1070
   256
1070
   271
1070
     0
1070
   272
1070
     0
1070
   341
1005
6D
1070
     6
1000
OPEN
1070
     7
1000
OPEN
1002
}
  0
DIMENSION
  5
80E
330
1A
100
AcDbEntity
  8
SUNPOU
100
AcDbDimension
  2
*D8
 10
606.4865228463244
 20
239.8103524815123
 30
0.0
 11
486.3975484539624
 21
196.6839310898673
 31
0.0
 70
    33
  3
STANDARD
100
AcDbAlignedDimension
 13
347.7925870126473
 23
199.3861858049227
 33
0.0
 14
584.224469862075
 24
294.9108671334211
 34
0.0
1001
ACAD
1000
DSTYLE
1002
{
1070
    41
1040
3.0
1070
    42
1040
6.0
1070
    43
1040
14.0
1070
    44
1040
3.0
1070
    73
1070
     0
1070
    74
1070
     0
1070
    77
1070
     3
1070
   140
1040
6.0
1070
   141
1040
10.0
1070
   147
1040
2.0
1070
   172
1070
     1
1070
   173
1070
     1
1070
   176
1070
   256
1070
   177
1070
   256
1070
   178
1070
   256
1070
   271
1070
     0
1070
   272
1070
     0
1070
   341
1005
6D
1070
     6
1000
OPEN
1070
     7
1000
OPEN
1002
}
  0
LEADER
  5
824
330
1A
100
AcDbEntity
  8
SUNPOU
100
AcDbLeader
  3
STANDARD
 73
     0
 40
6.000000000000001
 41
31.19999999999999
 76
     3
 10
574.4014517809976
 20
289.4512664961384
 30
0.0
 10
553.8372881444133
 20
256.1018217611926
 30
0.0
 10
558.01978831231
 20
256.1018217611926
 30
0.0
340
825
213
0.0
223
-3.0
233
0.0
1001
ACAD
1000
DSTYLE
1002
{
1070
     6
1000
OPEN
1070
    41
1040
3.0
1070
    42
1040
6.0
1070
    43
1040
14.0
1070
    44
1040
3.0
1070
    73
1070
     0
1070
    74
1070
     0
1070
    77
1070
     0
1070
   140
1040
6.0
1070
   141
1040
10.0
1070
   147
1040
2.0
1070
   172
1070
     1
1070
   173
1070
     1
1070
   176
1070
   256
1070
   177
1070
   256
1070
   178
1070
   256
1070
   271
1070
     0
1070
   272
1070
     0
1070
   341
1005
6D
1070
   343
1005
6D
1070
   344
1005
6D
1002
}
  0
MTEXT
  5
825
102
{ACAD_REACTORS
330
824
102
}
330
1A
100
AcDbEntity
  8
SUNPOU
100
AcDbMText
 10
560.01978831231
 20
259.1018217611927
 30
0.0
 40
6.0
 41
0.0
 71
     1
 72
     5
  1
\A1;2-φ3.6
1001
ACAD
1000
MTEXTBEGIN
1070
    73
1070
     1
1070
    44
1040
1.0
1070
    74
1070
     0
1000
MTEXTEND
1000
MTEXTBEGIN
1070
    73
1070
     1
1070
    44
1040
1.0
1070
    74
1070
     0
1000
MTEXTEND
1000
MTEXTBEGIN
1070
    73
1070
     1
1070
    44
1040
1.0
1070
    74
1070
     0
1000
MTEXTEND
1000
MTEXTBEGIN
1070
    73
1070
     1
1070
    44
1040
1.0
1070
    74
1070
     0
1000
MTEXTEND
1000
MTEXTBEGIN
1070
    73
1070
     1
1070
    44
1040
1.0
1070
    74
1070
     0
1000
MTEXTEND
1000
MTEXTBEGIN
1070
    73
1070
     1
1070
    44
1040
1.0
1070
    74
1070
     0
1000
MTEXTEND
  0
LINE
  5
90F
330
1A
100
AcDbEntity
  8
SUNPOU
  6
CONTINUOUS
 62
     4
100
AcDbLine
 10
659.0748287661132
 20
156.7529805603464
 30
0.0
 11
779.0747987661131
 21
156.7529805603464
 31
0.0
  0
LINE
  5
910
330
1A
100
AcDbEntity
  8
SUNPOU
  6
CONTINUOUS
 62
     4
100
AcDbLine
 10
659.0748287661132
 20
141.7529805603464
 30
0.0
 11
779.0748987661133
 21
141.7529805603464
 31
0.0
  0
LINE
  5
911
330
1A
100
AcDbEntity
  8
SUNPOU
  6
CONTINUOUS
 62
     4
100
AcDbLine
 10
659.0748287661132
 20
126.7529805603465
 30
0.0
 11
779.0748987661133
 21
126.7529805603465
 31
0.0
  0
LINE
  5
912
330
1A
100
AcDbEntity
  8
SUNPOU
  6
CONTINUOUS
 62
     4
100
AcDbLine
 10
659.0748287661132
 20
111.7529205603465
 30
0.0
 11
779.0748987661133
 21
111.7529205603465
 31
0.0
  0
LINE
  5
913
330
1A
100
AcDbEntity
  8
SUNPOU
  6
CONTINUOUS
 62
     4
100
AcDbLine
 10
659.0748287661132
 20
96.75292056034658
 30
0.0
 11
779.0748987661133
 21
96.75292056034658
 31
0.0
  0
LINE
  5
914
330
1A
100
AcDbEntity
  8
SUNPOU
  6
CONTINUOUS
 62
     4
100
AcDbLine
 10
659.0748287661132
 20
81.75292056034658
 30
0.0
 11
779.0748987661133
 21
81.75292056034658
 31
0.0
  0
LINE
  5
915
330
1A
100
AcDbEntity
  8
SUNPOU
  6
CONTINUOUS
 62
     4
100
AcDbLine
 10
659.0748287661132
 20
66.75292056034653
 30
0.0
 11
779.0748987661133
 21
66.75292056034653
 31
0.0
  0
LINE
  5
916
330
1A
100
AcDbEntity
  8
SUNPOU
  6
CONTINUOUS
 62
     4
100
AcDbLine
 10
659.0748287661132
 20
51.75292056034653
 30
0.0
 11
779.0748987661133
 21
51.75292056034653
 31
0.0
  0
LINE
  5
917
330
1A
100
AcDbEntity
  8
SUNPOU
  6
CONTINUOUS
 62
     4
100
AcDbLine
 10
659.0748287661132
 20
156.7529805603464
 30
0.0
 11
659.0748187661132
 21
51.75292056034653
 31
0.0
  0
LINE
  5
918
330
1A
100
AcDbEntity
  8
SUNPOU
  6
CONTINUOUS
 62
     4
100
AcDbLine
 10
779.0747987661131
 20
156.7529805603464
 30
0.0
 11
779.0748987661133
 21
51.75292056034653
 31
0.0
  0
LINE
  5
919
330
1A
100
AcDbEntity
  8
SUNPOU
  6
CONTINUOUS
 62
     4
100
AcDbLine
 10
719.0748387661131
 20
51.75292056034653
 30
0.0
 11
719.0748887661133
 21
141.7529805603464
 31
0.0
  0
TEXT
  5
91A
330
1A
100
AcDbEntity
  8
SUNPOU
 62
     4
100
AcDbText
 10
737.8247987661133
 20
115.2935182347651
 30
0.0
 40
6.0
  1
３０
 41
1.125
100
AcDbText
  0
TEXT
  5
91B
330
1A
100
AcDbEntity
  8
SUNPOU
  6
CONTINUOUS
 62
     4
100
AcDbText
 10
677.8247687661131
 20
115.5029105603464
 30
0.0
 40
6.0
  1
＃５
 41
1.5
 72
     5
 11
695.8247687661131
 21
115.5029105603464
 31
0.0
100
AcDbText
  0
TEXT
  5
91C
330
1A
100
AcDbEntity
  8
SUNPOU
 62
     4
100
AcDbText
 10
737.8248987661132
 20
55.29363823476512
 30
0.0
 40
6.0
  1
５０
 41
1.125
100
AcDbText
  0
TEXT
  5
91D
330
1A
100
AcDbEntity
  8
SUNPOU
 62
     4
100
AcDbText
 10
737.8247987661133
 20
70.29351823476514
 30
0.0
 40
6.0
  1
４５
 41
1.125
100
AcDbText
  0
TEXT
  5
91E
330
1A
100
AcDbEntity
  8
SUNPOU
 62
     4
100
AcDbText
 10
737.8247987661133
 20
85.29351823476515
 30
0.0
 40
6.0
  1
４０
 41
1.125
100
AcDbText
  0
TEXT
  5
91F
330
1A
100
AcDbEntity
  8
SUNPOU
 62
     4
100
AcDbText
 10
737.8247987661133
 20
100.2935182347651
 30
0.0
 40
6.0
  1
３５
 41
1.125
100
AcDbText
  0
TEXT
  5
924
330
1A
100
AcDbEntity
  8
SUNPOU
  6
CONTINUOUS
 62
     4
100
AcDbText
 10
737.82480162326
 20
130.5028805603465
 30
0.0
 40
6.0
  1
寸法
 41
1.406250000000017
 72
     5
 11
755.8248016232602
 21
130.5028805603465
 31
0.0
100
AcDbText
  0
TEXT
  5
925
330
1A
100
AcDbEntity
  8
SUNPOU
  6
CONTINUOUS
 62
     4
100
AcDbText
 10
701.1165054618902
 20
146.2462412284833
 30
0.0
 40
6.0
  1
Ｈ　寸　法
 72
     4
 11
718.7165054618902
 21
149.2462412284833
 31
0.0
100
AcDbText
  0
TEXT
  5
926
330
1A
100
AcDbEntity
  8
SUNPOU
  6
CONTINUOUS
 62
     4
100
AcDbText
 10
677.8247216232601
 20
130.5029705603465
 30
0.0
 40
6.0
  1
呼び
 41
1.40625
 72
     5
 11
695.8247216232601
 21
130.5029705603465
 31
0.0
100
AcDbText
  0
DIMENSION
  5
927
330
1A
100
AcDbEntity
  8
SUNPOU
100
AcDbDimension
  2
*D9
 10
238.3946534004762
 20
199.3861858475442
 30
0.0
 11
233.3946534004762
 21
216.4861858654826
 31
0.0
 70
    32
  1
H
  3
STANDARD
100
AcDbAlignedDimension
 13
347.7925870126473
 23
233.586185883421
 33
0.0
 14
351.108230212075
 24
199.3861858475441
 34
0.0
 50
90.0
100
AcDbRotatedDimension
1001
ACAD
1000
DSTYLE
1002
{
1070
    41
1040
3.0
1070
    42
1040
6.0
1070
    43
1040
14.0
1070
    44
1040
3.0
1070
    73
1070
     0
1070
    74
1070
     0
1070
    77
1070
     3
1070
   140
1040
6.0
1070
   141
1040
10.0
1070
   147
1040
2.0
1070
   172
1070
     1
1070
   173
1070
     1
1070
   176
1070
   256
1070
   177
1070
   256
1070
   178
1070
   256
1070
   271
1070
     0
1070
   272
1070
     0
1070
   341
1005
6D
1070
     6
1000
OPEN
1070
     7
1000
OPEN
1002
}
  0
TEXT
  5
97A
330
1A
100
AcDbEntity
  8
SUNPOU
  6
CONTINUOUS
 62
     4
100
AcDbText
 10
677.8247673375425
 20
100.5029105603465
 30
0.0
 40
6.0
  1
＃４
 41
1.5
 72
     5
 11
695.8247673375425
 21
100.5029105603465
 31
0.0
100
AcDbText
  0
TEXT
  5
97B
330
1A
100
AcDbEntity
  8
SUNPOU
  6
CONTINUOUS
 62
     4
100
AcDbText
 10
677.8247730518306
 20
70.50291056034644
 30
0.0
 40
6.0
  1
＃２
 41
1.5
 72
     5
 11
695.8247730518307
 21
70.50291056034644
 31
0.0
100
AcDbText
  0
TEXT
  5
97C
330
1A
100
AcDbEntity
  8
SUNPOU
  6
CONTINUOUS
 62
     4
100
AcDbText
 10
677.8247744804012
 20
85.50291056034643
 30
0.0
 40
6.0
  1
＃３
 41
1.5
 72
     5
 11
695.8247744804013
 21
85.50291056034643
 31
0.0
100
AcDbText
  0
TEXT
  5
97E
330
1A
100
AcDbEntity
  8
SUNPOU
  6
CONTINUOUS
 62
     4
100
AcDbText
 10
677.8247630518307
 20
55.50291056034644
 30
0.0
 40
6.0
  1
＃１
 41
1.73076923076923
 72
     5
 11
695.8247630518306
 21
55.50291056034644
 31
0.0
100
AcDbText
  0
LINE
  5
ADB
330
1A
100
AcDbEntity
  8
ZUWAKU
100
AcDbLine
 10
208.6466016508406
 20
15.19999989434051
 30
0.0
 11
447.4243643317641
 21
15.1999998943405
 31
0.0
  0
LINE
  5
ADC
330
1A
100
AcDbEntity
  8
ZUWAKU
100
AcDbLine
 10
208.6466016508406
 20
15.59999989434051
 30
0.0
 11
447.4243643317641
 21
15.59999989434051
 31
0.0
  0
LINE
  5
ADD
330
1A
100
AcDbEntity
  8
ZUWAKU
100
AcDbLine
 10
208.6466016508406
 20
15.39999989434051
 30
0.0
 11
447.4243643317641
 21
15.39999989434051
 31
0.0
  0
LINE
  5
ADE
330
1A
100
AcDbEntity
  8
ZUWAKU
100
AcDbLine
 10
0.000000360772674
 20
30.79999989434048
 30
0.0
 11
797.4000003607725
 21
30.79999989434048
 31
0.0
  0
LINE
  5
ADF
330
1A
100
AcDbEntity
  8
ZUWAKU
100
AcDbLine
 10
0.000000360772674
 20
30.59999989434048
 30
0.0
 11
797.4000003607725
 21
30.59999989434048
 31
0.0
  0
LINE
  5
AE0
330
1A
100
AcDbEntity
  8
ZUWAKU
100
AcDbLine
 10
0.000000360772674
 20
30.39999989434048
 30
0.0
 11
797.4000003607725
 21
30.39999989434048
 31
0.0
  0
LINE
  5
AE1
330
1A
100
AcDbEntity
  8
ZUWAKU
100
AcDbLine
 10
0.000000360772674
 20
30.19999989434047
 30
0.0
 11
797.4000003607725
 21
30.19999989434047
 31
0.0
  0
LINE
  5
AE2
330
1A
100
AcDbEntity
  8
ZUWAKU
100
AcDbLine
 10
0.000000360772674
 20
29.99999989434047
 30
0.0
 11
797.4000003607725
 21
29.99999989434047
 31
0.0
  0
LWPOLYLINE
  5
AE3
330
1A
100
AcDbEntity
  8
ZUWAKU
100
AcDbPolyline
 90
        4
 70
     1
 43
0.0
 10
0.2000003607726057
 20
551.3999998943405
 10
0.2000003607726057
 20
0.1999998943405217
 10
797.4000003607725
 20
0.1999998943405448
 10
797.4000003607727
 20
551.3999998943405
  0
LWPOLYLINE
  5
AE4
330
1A
100
AcDbEntity
  8
ZUWAKU
100
AcDbPolyline
 90
        4
 70
     1
 43
0.0
 10
0.600000360772583
 20
550.9999998943405
 10
0.600000360772583
 20
0.599999894340499
 10
797.0000003607728
 20
0.5999998943405452
 10
797.0000003607727
 20
550.9999998943405
  0
LWPOLYLINE
  5
AE5
330
1A
100
AcDbEntity
  8
ZUWAKU
100
AcDbPolyline
 90
        4
 70
     1
 43
0.0
 10
0.000000360772674
 20
551.5999998943405
 10
0.000000360772674
 20
-0.0000001056595238
 10
797.6000003607728
 20
-0.0000001056594563
 10
797.6000003607728
 20
551.5999998943406
  0
LWPOLYLINE
  5
AE6
330
1A
100
AcDbEntity
  8
ZUWAKU
100
AcDbPolyline
 90
        4
 70
     1
 43
0.0
 10
0.4000003607726513
 20
551.1999998943405
 10
0.4000003607726513
 20
0.3999998943405671
 10
797.2000003607726
 20
0.399999894340544
 10
797.2000003607726
 20
551.1999998943405
  0
LWPOLYLINE
  5
AE7
330
1A
100
AcDbEntity
  8
ZUWAKU
100
AcDbPolyline
 90
        4
 70
     1
 43
0.0
 10
0.8000003607726284
 20
550.7999998943405
 10
0.8000003607726284
 20
0.7999998943405445
 10
796.8000003607726
 20
0.7999998943405445
 10
796.8000003607726
 20
550.7999998943405
  0
TEXT
  5
AE8
330
1A
100
AcDbEntity
  8
MOJI
100
AcDbText
 10
92.95778994894181
 20
12.74117802461523
 30
0.0
 40
6.0
  1
新・丸トップＲＶ１０５
 41
0.9
  7
ｽﾀｲﾙ1
100
AcDbText
  0
HATCH
  5
AE9
330
1A
100
AcDbEntity
  8
ZUWAKU
100
AcDbHatch
 10
0.0
 20
0.0
 30
0.0
210
0.0
220
0.0
230
1.0
  2
ANSI37
 70
     0
 71
     0
 91
        8
 92
        7
 72
     1
 73
     1
 93
       24
 10
14.50226302189253
 20
17.64484837532406
 42
-0.1989123673796348
 10
14.09221251555379
 20
18.63479786898511
 42
0.0
 10
14.09221251555379
 20
19.92499989434048
 42
-0.4142135623730912
 10
14.61721251555377
 20
20.44999989434047
 42
0.0
 10
17.59221251555368
 20
20.44999989434047
 42
0.4142135623731546
 10
18.11721251555377
 20
20.97499989434047
 42
0.0
 10
18.11721251555377
 20
22.72499989434048
 42
0.4142135623731586
 10
17.59221251555368
 20
23.24999989434048
 42
0.0
 10
14.09221251555379
 20
23.24999989434048
 42
0.4142135623730928
 10
11.29221251555384
 20
20.4499998943405
 42
0.0
 10
11.29221251555384
 20
18.63479786898524
 42
0.1989123673796619
 10
12.52236403457027
 20
15.66494938800163
 42
0.0
 10
15.43216200921494
 20
12.75515141335697
 42
-0.1989123673796613
 10
15.84221251555379
 20
11.76520191969578
 42
0.0
 10
15.84221251555379
 20
10.47499989434047
 42
-0.4142135623730911
 10
15.31721251555381
 20
9.949999894340479
 42
0.0
 10
12.34221251555391
 20
9.949999894340479
 42
0.4142135623731526
 10
11.81721251555382
 20
9.424999894340491
 42
0.0
 10
11.81721251555382
 20
7.674999894340469
 42
0.4142135623731526
 10
12.34221251555391
 20
7.149999894340481
 42
0.0
 10
15.84221251555379
 20
7.149999894340481
 42
0.4142135623731044
 10
18.64221251555386
 20
9.949999894340457
 42
0.0
 10
18.64221251555386
 20
11.76520191969573
 42
0.1989123673796604
 10
17.41206099653732
 20
14.73505040067927
 42
0.0
 97
        0
 92
        7
 72
     1
 73
     1
 93
       16
 10
23.54221251555384
 20
19.04999989434048
 42
-0.4142135623730935
 10
24.94221251555382
 20
20.44999989434047
 42
0.0
 10
26.86721251555377
 20
20.44999989434047
 42
0.4142135623731546
 10
27.39221251555386
 20
20.97499989434047
 42
0.0
 10
27.39221251555386
 20
22.72499989434048
 42
0.4142135623730951
 10
26.86721251555388
 20
23.24999989434048
 42
0.0
 10
24.9422125155537
 20
23.24999989434044
 42
0.4142135623730892
 10
20.74221251555377
 20
19.04999989434041
 42
0.0
 10
20.74221251555377
 20
11.3499998943405
 42
0.4142135623730969
 10
24.94221251555382
 20
7.149999894340481
 42
0.0
 10
26.86721251555377
 20
7.149999894340481
 42
0.4142135623731526
 10
27.39221251555386
 20
7.674999894340469
 42
0.0
 10
27.39221251555386
 20
9.424999894340491
 42
0.4142135623730891
 10
26.86721251555388
 20
9.949999894340479
 42
0.0
 10
24.94221251555382
 20
9.949999894340479
 42
-0.4142135623730928
 10
23.54221251555384
 20
11.34999989434046
 42
0.0
 97
        0
 92
        7
 72
     1
 73
     1
 93
        2
 10
24.24221251555377
 20
15.19999989434047
 42
1.0
 10
27.74221251555377
 20
15.19999989434047
 42
1.0
 97
        0
 92
        7
 72
     1
 73
     1
 93
       26
 10
37.31485899773179
 20
19.2050470879039
 42
0.0
 10
38.3764986308696
 20
22.56690592617349
 42
0.5069206636600134
 10
37.87586773167424
 20
23.24999989434048
 42
0.0
 10
36.17697835206502
 20
23.24999989434048
 42
0.3272098845218764
 10
35.67634745286966
 20
22.88309386250745
 42
0.0
 10
33.80807757823788
 20
16.96690592617356
 42
-0.3272098845219541
 10
33.30744667904241
 20
16.59999989434047
 42
0.0
 10
33.16721251555395
 20
16.59999989434047
 42
-0.4142135623731526
 10
32.64221251555386
 20
17.12499989434046
 42
0.0
 10
32.64221251555386
 20
22.72499989434048
 42
0.4142135623730951
 10
32.11721251555388
 20
23.24999989434048
 42
0.0
 10
30.36721251555377
 20
23.24999989434048
 42
0.4142135623730871
 10
29.84221251555379
 20
22.7249998943405
 42
0.0
 10
29.84221251555379
 20
7.674999894340469
 42
0.4142135623730891
 10
30.36721251555377
 20
7.149999894340481
 42
0.0
 10
32.11721251555377
 20
7.149999894340481
 42
0.4142135623731526
 10
32.64221251555386
 20
7.674999894340469
 42
0.0
 10
32.64221251555386
 20
13.27499989434049
 42
-0.4142135623731526
 10
33.16721251555395
 20
13.79999989434048
 42
0.0
 10
33.30744667904252
 20
13.79999989434048
 42
-0.3272098845218915
 10
33.80807757823788
 20
13.4330938625074
 42
0.0
 10
35.67634745286966
 20
7.516905926173553
 42
0.3272098845218902
 10
36.17697835206502
 20
7.149999894340481
 42
0.0
 10
37.87586773167424
 20
7.149999894340481
 42
0.5069206636600335
 10
38.3764986308696
 20
7.833093862507489
 42
0.0
 10
36.05010725239594
 20
15.19999989434061
 42
0.0
 97
        0
 92
        7
 72
     1
 73
     1
 93
        8
 10
43.49221251555377
 20
22.72499989434049
 42
0.4142135623731546
 10
42.96721251555368
 20
23.24999989434048
 42
0.0
 10
41.21721251555391
 20
23.24999989434048
 42
0.4142135623731507
 10
40.69221251555382
 20
22.7249998943405
 42
0.0
 10
40.69221251555382
 20
7.674999894340469
 42
0.4142135623731526
 10
41.21721251555391
 20
7.149999894340481
 42
0.0
 10
42.96721251555368
 20
7.149999894340481
 42
0.4142135623731526
 10
43.49221251555377
 20
7.674999894340469
 42
0.0
 97
        0
 92
        7
 72
     1
 73
     1
 93
       24
 10
48.39221251555386
 20
19.92499989434048
 42
-0.4142135623731546
 10
48.91721251555395
 20
20.44999989434047
 42
0.0
 10
51.89221251555387
 20
20.44999989434047
 42
0.4142135623730911
 10
52.41721251555384
 20
20.97499989434047
 42
0.0
 10
52.41721251555384
 20
22.72499989434048
 42
0.4142135623730952
 10
51.89221251555387
 20
23.24999989434048
 42
0.0
 10
48.39221251555386
 20
23.24999989434048
 42
0.4142135623731048
 10
45.5922125155538
 20
20.4499998943405
 42
0.0
 10
45.5922125155538
 20
18.63479786898524
 42
0.1989123673796613
 10
46.82236403457034
 20
15.66494938800168
 42
0.0
 10
49.73216200921502
 20
12.75515141335701
 42
-0.1989123673796402
 10
50.14221251555387
 20
11.76520191969594
 42
0.0
 10
50.14221251555387
 20
10.47499989434047
 42
-0.4142135623730911
 10
49.61721251555388
 20
9.949999894340479
 42
0.0
 10
46.64221251555386
 20
9.949999894340479
 42
0.4142135623731526
 10
46.11721251555377
 20
9.424999894340491
 42
0.0
 10
46.11721251555377
 20
7.674999894340469
 42
0.4142135623730891
 10
46.64221251555375
 20
7.149999894340481
 42
0.0
 10
50.14221251555387
 20
7.149999894340481
 42
0.4142135623730925
 10
52.94221251555382
 20
9.949999894340457
 42
0.0
 10
52.94221251555382
 20
11.76520191969573
 42
0.1989123673796675
 10
51.71206099653727
 20
14.73505040067938
 42
0.0
 10
48.80226302189271
 20
17.6448483753239
 42
-0.1989123673796652
 10
48.39221251555386
 20
18.63479786898506
 42
0.0
 97
        0
 92
        7
 72
     1
 73
     1
 93
       16
 10
57.84221251555379
 20
22.72499989434046
 42
0.414213562373103
 10
57.31721251555382
 20
23.24999989434048
 42
0.0
 10
55.56721251555382
 20
23.24999989434048
 42
0.4142135623730871
 10
55.04221251555384
 20
22.7249998943405
 42
0.0
 10
55.04221251555384
 20
9.949999894340457
 42
0.4142135623730926
 10
57.84221251555379
 20
7.149999894340481
 42
0.0
 10
61.3422125155538
 20
7.149999894340481
 42
0.4142135623731044
 10
64.14221251555386
 20
9.949999894340457
 42
0.0
 10
64.14221251555386
 20
22.72499989434048
 42
0.4142135623730951
 10
63.61721251555389
 20
23.24999989434048
 42
0.0
 10
61.86721251555377
 20
23.24999989434048
 42
0.4142135623730871
 10
61.3422125155538
 20
22.7249998943405
 42
0.0
 10
61.3422125155538
 20
10.99999989434045
 42
-0.414213562373088
 10
60.29221251555384
 20
9.949999894340479
 42
0.0
 10
58.89221251555387
 20
9.949999894340479
 42
-0.4142135623731197
 10
57.84221251555379
 20
10.99999989434045
 42
0.0
 97
        0
 92
        7
 72
     1
 73
     1
 93
        8
 10
69.04221251555384
 20
22.7249998943405
 42
0.4142135623730871
 10
68.51721251555386
 20
23.24999989434048
 42
0.0
 10
66.76721251555386
 20
23.24999989434048
 42
0.4142135623731507
 10
66.24221251555377
 20
22.7249998943405
 42
0.0
 10
66.24221251555377
 20
7.674999894340469
 42
0.4142135623730891
 10
66.76721251555375
 20
7.149999894340481
 42
0.0
 10
68.51721251555386
 20
7.149999894340481
 42
0.4142135623730891
 10
69.04221251555384
 20
7.674999894340469
 42
0.0
 97
        0
 75
     0
 76
     1
 52
0.0
 41
0.2
 77
     0
 78
     2
 53
45.0
 43
-900.9423039739063
 44
-13.20000010565945
 45
-0.4490128060534576
 46
0.4490128060534577
 79
     0
 53
135.0
 43
-900.9423039739063
 44
-13.20000010565945
 45
-0.4490128060534577
 46
-0.4490128060534576
 79
     0
 47
0.057451373970553
 98
        8
 10
16.07985532379598
 20
15.16717354022603
 10
22.40451536721184
 20
18.84406207679148
 10
25.16436824643233
 20
15.51188154041119
 10
30.91406034240981
 20
16.20129754078198
 10
41.83847237972941
 20
16.66090980832359
 10
46.89820125590222
 20
19.41857621074768
 10
56.55768633317302
 20
18.72915780943549
 10
67.82707998039541
 20
19.1887700769771
  0
LINE
  5
AEA
330
1A
100
AcDbEntity
  8
ZUWAKU
100
AcDbLine
 10
24.94221251555382
 20
23.24999989434044
 30
0.0
 11
26.86721251555377
 21
23.24999989434048
 31
0.0
  0
LINE
  5
AEB
330
1A
100
AcDbEntity
  8
ZUWAKU
100
AcDbLine
 10
26.86721251555377
 20
20.44999989434047
 30
0.0
 11
24.94221251555382
 21
20.44999989434047
 31
0.0
  0
LINE
  5
AEC
330
1A
100
AcDbEntity
  8
ZUWAKU
100
AcDbLine
 10
24.94221251555382
 20
9.949999894340479
 30
0.0
 11
26.86721251555377
 21
9.949999894340479
 31
0.0
  0
LINE
  5
AED
330
1A
100
AcDbEntity
  8
ZUWAKU
100
AcDbLine
 10
26.86721251555377
 20
7.149999894340481
 30
0.0
 11
24.94221251555382
 21
7.149999894340481
 31
0.0
  0
CIRCLE
  5
AEE
330
1A
100
AcDbEntity
  8
ZUWAKU
100
AcDbCircle
 10
25.99221251555377
 20
15.19999989434047
 30
0.0
 40
1.75
  0
ARC
  5
AEF
330
1A
100
AcDbEntity
  8
ZUWAKU
100
AcDbCircle
 10
15.49221251555377
 20
18.63479786898518
 30
0.0
 40
1.399999999999999
100
AcDbArc
 50
180.0000000000016
 51
224.9999999999988
  0
LINE
  5
AF0
330
1A
100
AcDbEntity
  8
ZUWAKU
100
AcDbLine
 10
23.54221251555384
 20
19.04999989434048
 30
0.0
 11
23.54221251555384
 21
11.34999989434048
 31
0.0
  0
LINE
  5
AF1
330
1A
100
AcDbEntity
  8
ZUWAKU
100
AcDbLine
 10
20.74221251555377
 20
11.34999989434048
 30
0.0
 11
20.74221251555377
 21
19.04999989434043
 31
0.0
  0
ARC
  5
AF2
330
1A
100
AcDbEntity
  8
ZUWAKU
100
AcDbCircle
 10
15.49221251555377
 20
18.63479786898518
 30
0.0
 40
4.199999999999999
100
AcDbArc
 50
180.0
 51
225.0
  0
ARC
  5
AF3
330
1A
100
AcDbEntity
  8
ZUWAKU
100
AcDbCircle
 10
15.84221251555379
 20
9.949999894340479
 30
0.0
 40
2.799999999999999
100
AcDbArc
 50
270.0
 51
0.0
  0
ARC
  5
AF4
330
1A
100
AcDbEntity
  8
ZUWAKU
100
AcDbCircle
 10
24.94221251555382
 20
11.34999989434048
 30
0.0
 40
4.199999999999999
100
AcDbArc
 50
180.0
 51
270.0
  0
ARC
  5
AF5
330
1A
100
AcDbEntity
  8
ZUWAKU
100
AcDbCircle
 10
14.44221251555382
 20
11.76520191969578
 30
0.0
 40
4.199999999999999
100
AcDbArc
 50
0.0
 51
45.0
  0
LINE
  5
AF6
330
1A
100
AcDbEntity
  8
ZUWAKU
100
AcDbLine
 10
17.41206099653732
 20
14.7350504006793
 30
0.0
 11
14.50226302189264
 21
17.64484837532398
 31
0.0
  0
LINE
  5
AF7
330
1A
100
AcDbEntity
  8
ZUWAKU
100
AcDbLine
 10
15.84221251555379
 20
10.47499989434048
 30
0.0
 11
15.84221251555379
 21
11.76520191969582
 31
0.0
  0
ARC
  5
AF8
330
1A
100
AcDbEntity
  8
ZUWAKU
100
AcDbCircle
 10
15.31721251555381
 20
10.47499989434048
 30
0.0
 40
0.525
100
AcDbArc
 50
270.0
 51
0.0
  0
ARC
  5
AF9
330
1A
100
AcDbEntity
  8
ZUWAKU
100
AcDbCircle
 10
14.44221251555382
 20
11.76520191969582
 30
0.0
 40
1.399999999999999
100
AcDbArc
 50
0.0
 51
45.0
  0
LINE
  5
AFA
330
1A
100
AcDbEntity
  8
ZUWAKU
100
AcDbLine
 10
11.81721251555382
 20
7.67499989434048
 30
0.0
 11
11.81721251555382
 21
9.42499989434048
 31
0.0
  0
ARC
  5
AFB
330
1A
100
AcDbEntity
  8
ZUWAKU
100
AcDbCircle
 10
12.34221251555379
 20
7.67499989434048
 30
0.0
 40
0.525
100
AcDbArc
 50
180.0
 51
270.0
  0
ARC
  5
AFC
330
1A
100
AcDbEntity
  8
ZUWAKU
100
AcDbCircle
 10
12.34221251555379
 20
9.42499989434048
 30
0.0
 40
0.525
100
AcDbArc
 50
90.0
 51
180.0
  0
LINE
  5
AFD
330
1A
100
AcDbEntity
  8
ZUWAKU
100
AcDbLine
 10
12.34221251555379
 20
7.149999894340481
 30
0.0
 11
15.84221251555379
 21
7.149999894340481
 31
0.0
  0
LINE
  5
AFE
330
1A
100
AcDbEntity
  8
ZUWAKU
100
AcDbLine
 10
12.34221251555379
 20
9.949999894340479
 30
0.0
 11
15.31721251555381
 21
9.949999894340479
 31
0.0
  0
LINE
  5
AFF
330
1A
100
AcDbEntity
  8
ZUWAKU
100
AcDbLine
 10
12.52236403457027
 20
15.66494938800166
 30
0.0
 11
15.43216200921494
 21
12.75515141335699
 31
0.0
  0
LINE
  5
B00
330
1A
100
AcDbEntity
  8
ZUWAKU
100
AcDbLine
 10
18.64221251555386
 20
9.949999894340479
 30
0.0
 11
18.64221251555386
 21
11.76520191969582
 31
0.0
  0
ARC
  5
B01
330
1A
100
AcDbEntity
  8
ZUWAKU
100
AcDbCircle
 10
24.94221251555382
 20
11.34999989434048
 30
0.0
 40
1.399999999999999
100
AcDbArc
 50
180.0
 51
270.0
  0
ARC
  5
B02
330
1A
100
AcDbEntity
  8
ZUWAKU
100
AcDbCircle
 10
17.59221251555379
 20
22.72499989434047
 30
0.0
 40
0.525
100
AcDbArc
 50
0.0
 51
90.0
  0
ARC
  5
B03
330
1A
100
AcDbEntity
  8
ZUWAKU
100
AcDbCircle
 10
17.59221251555379
 20
20.97499989434048
 30
0.0
 40
0.525
100
AcDbArc
 50
270.0
 51
0.0
  0
LINE
  5
B04
330
1A
100
AcDbEntity
  8
ZUWAKU
100
AcDbLine
 10
14.09221251555379
 20
23.24999989434048
 30
0.0
 11
17.59221251555379
 21
23.24999989434048
 31
0.0
  0
ARC
  5
B05
330
1A
100
AcDbEntity
  8
ZUWAKU
100
AcDbCircle
 10
14.61721251555377
 20
19.92499989434048
 30
0.0
 40
0.525
100
AcDbArc
 50
90.0
 51
180.0
  0
LINE
  5
B06
330
1A
100
AcDbEntity
  8
ZUWAKU
100
AcDbLine
 10
14.09221251555379
 20
19.92499989434048
 30
0.0
 11
14.09221251555379
 21
18.63479786898514
 31
0.0
  0
LINE
  5
B07
330
1A
100
AcDbEntity
  8
ZUWAKU
100
AcDbLine
 10
17.59221251555379
 20
20.44999989434047
 30
0.0
 11
14.61721251555377
 21
20.44999989434047
 31
0.0
  0
LINE
  5
B08
330
1A
100
AcDbEntity
  8
ZUWAKU
100
AcDbLine
 10
11.29221251555384
 20
20.44999989434047
 30
0.0
 11
11.29221251555384
 21
18.63479786898514
 31
0.0
  0
ARC
  5
B09
330
1A
100
AcDbEntity
  8
ZUWAKU
100
AcDbCircle
 10
14.09221251555379
 20
20.44999989434047
 30
0.0
 40
2.799999999999999
100
AcDbArc
 50
90.0
 51
180.0
  0
LINE
  5
B0A
330
1A
100
AcDbEntity
  8
ZUWAKU
100
AcDbLine
 10
18.11721251555377
 20
22.72499989434047
 30
0.0
 11
18.11721251555377
 21
20.97499989434048
 31
0.0
  0
ARC
  5
B0B
330
1A
100
AcDbEntity
  8
ZUWAKU
100
AcDbCircle
 10
24.94221251555382
 20
19.04999989434048
 30
0.0
 40
1.399999999999999
100
AcDbArc
 50
90.0
 51
180.0
  0
ARC
  5
B0C
330
1A
100
AcDbEntity
  8
ZUWAKU
100
AcDbCircle
 10
24.94221251555382
 20
19.04999989434043
 30
0.0
 40
4.199999999999999
100
AcDbArc
 50
90.0
 51
180.0
  0
LINE
  5
B0D
330
1A
100
AcDbEntity
  8
ZUWAKU
100
AcDbLine
 10
79.32662990876088
 20
29.99999989434047
 30
0.0
 11
79.3266299087611
 21
0.7999998943405445
 31
0.0
  0
LINE
  5
B0E
330
1A
100
AcDbEntity
  8
ZUWAKU
100
AcDbLine
 10
79.52662990876092
 20
29.99999989434047
 30
0.0
 11
79.52662990876115
 21
0.7999998943405445
 31
0.0
  0
LINE
  5
B0F
330
1A
100
AcDbEntity
  8
ZUWAKU
100
AcDbLine
 10
79.12662990876106
 20
29.99999989434047
 30
0.0
 11
79.12662990876106
 21
0.7999998943405445
 31
0.0
  0
LINE
  5
B10
330
1A
100
AcDbEntity
  8
ZUWAKU
100
AcDbLine
 10
64.14221251555386
 20
9.949999894340479
 30
0.0
 11
64.14221251555386
 21
22.72499989434047
 31
0.0
  0
LINE
  5
B11
330
1A
100
AcDbEntity
  8
ZUWAKU
100
AcDbLine
 10
61.3422125155538
 20
22.72499989434047
 30
0.0
 11
61.3422125155538
 21
10.99999989434047
 31
0.0
  0
LINE
  5
B12
330
1A
100
AcDbEntity
  8
ZUWAKU
100
AcDbLine
 10
69.04221251555384
 20
7.67499989434048
 30
0.0
 11
69.04221251555384
 21
22.72499989434047
 31
0.0
  0
LINE
  5
B13
330
1A
100
AcDbEntity
  8
ZUWAKU
100
AcDbLine
 10
66.24221251555377
 20
22.72499989434047
 30
0.0
 11
66.24221251555377
 21
7.67499989434048
 31
0.0
  0
ARC
  5
B14
330
1A
100
AcDbEntity
  8
ZUWAKU
100
AcDbCircle
 10
49.79221251555384
 20
18.63479786898518
 30
0.0
 40
1.399999999999999
100
AcDbArc
 50
180.0000000000016
 51
224.9999999999988
  0
ARC
  5
B15
330
1A
100
AcDbEntity
  8
ZUWAKU
100
AcDbCircle
 10
49.79221251555384
 20
18.63479786898518
 30
0.0
 40
4.199999999999999
100
AcDbArc
 50
180.0
 51
225.0
  0
LINE
  5
B16
330
1A
100
AcDbEntity
  8
ZUWAKU
100
AcDbLine
 10
37.31485899773179
 20
19.2050470879039
 30
0.0
 11
36.05010725239594
 21
15.1999998943405
 31
0.0
  0
LINE
  5
B17
330
1A
100
AcDbEntity
  8
ZUWAKU
100
AcDbLine
 10
40.69221251555382
 20
22.72499989434047
 30
0.0
 11
40.69221251555382
 21
7.67499989434048
 31
0.0
  0
LINE
  5
B18
330
1A
100
AcDbEntity
  8
ZUWAKU
100
AcDbLine
 10
43.49221251555377
 20
7.67499989434048
 30
0.0
 11
43.49221251555377
 21
22.72499989434047
 31
0.0
  0
LINE
  5
B19
330
1A
100
AcDbEntity
  8
ZUWAKU
100
AcDbLine
 10
55.04221251555384
 20
22.72499989434047
 30
0.0
 11
55.04221251555384
 21
9.949999894340479
 31
0.0
  0
LINE
  5
B1A
330
1A
100
AcDbEntity
  8
ZUWAKU
100
AcDbLine
 10
57.84221251555379
 20
10.99999989434047
 30
0.0
 11
57.84221251555379
 21
22.72499989434047
 31
0.0
  0
LINE
  5
B1B
330
1A
100
AcDbEntity
  8
ZUWAKU
100
AcDbLine
 10
32.64221251555386
 20
17.12499989434048
 30
0.0
 11
32.64221251555386
 21
22.72499989434047
 31
0.0
  0
LINE
  5
B1C
330
1A
100
AcDbEntity
  8
ZUWAKU
100
AcDbLine
 10
29.84221251555379
 20
22.72499989434047
 30
0.0
 11
29.84221251555379
 21
7.67499989434048
 31
0.0
  0
LINE
  5
B1D
330
1A
100
AcDbEntity
  8
ZUWAKU
100
AcDbLine
 10
35.67634745286966
 20
22.88309386250745
 30
0.0
 11
33.80807757823788
 21
16.96690592617351
 31
0.0
  0
LINE
  5
B1E
330
1A
100
AcDbEntity
  8
ZUWAKU
100
AcDbLine
 10
60.29221251555384
 20
9.949999894340479
 30
0.0
 11
58.89221251555387
 21
9.949999894340479
 31
0.0
  0
LINE
  5
B1F
330
1A
100
AcDbEntity
  8
ZUWAKU
100
AcDbLine
 10
57.84221251555379
 20
7.149999894340481
 30
0.0
 11
61.3422125155538
 21
7.149999894340481
 31
0.0
  0
LINE
  5
B20
330
1A
100
AcDbEntity
  8
ZUWAKU
100
AcDbLine
 10
41.2172125155538
 20
7.149999894340481
 30
0.0
 11
42.96721251555379
 21
7.149999894340481
 31
0.0
  0
LINE
  5
B21
330
1A
100
AcDbEntity
  8
ZUWAKU
100
AcDbLine
 10
35.67634745286966
 20
7.516905926173507
 30
0.0
 11
33.80807757823788
 21
13.43309386250744
 31
0.0
  0
ARC
  5
B22
330
1A
100
AcDbEntity
  8
ZUWAKU
100
AcDbCircle
 10
33.30744667904252
 20
17.12499989434048
 30
0.0
 40
0.525
100
AcDbArc
 50
270.0
 51
342.4744316262769
  0
LINE
  5
B23
330
1A
100
AcDbEntity
  8
ZUWAKU
100
AcDbLine
 10
33.30744667904252
 20
16.59999989434047
 30
0.0
 11
33.16721251555384
 21
16.59999989434047
 31
0.0
  0
LINE
  5
B24
330
1A
100
AcDbEntity
  8
ZUWAKU
100
AcDbLine
 10
33.16721251555384
 20
13.79999989434048
 30
0.0
 11
33.30744667904252
 21
13.79999989434048
 31
0.0
  0
ARC
  5
B25
330
1A
100
AcDbEntity
  8
ZUWAKU
100
AcDbCircle
 10
33.16721251555384
 20
17.12499989434048
 30
0.0
 40
0.525
100
AcDbArc
 50
180.0
 51
270.0
  0
LINE
  5
B26
330
1A
100
AcDbEntity
  8
ZUWAKU
100
AcDbLine
 10
30.36721251555377
 20
7.149999894340481
 30
0.0
 11
32.11721251555377
 21
7.149999894340481
 31
0.0
  0
ARC
  5
B27
330
1A
100
AcDbEntity
  8
ZUWAKU
100
AcDbCircle
 10
32.11721251555377
 20
7.67499989434048
 30
0.0
 40
0.525
100
AcDbArc
 50
270.0
 51
0.0
  0
LINE
  5
B28
330
1A
100
AcDbEntity
  8
ZUWAKU
100
AcDbLine
 10
32.64221251555386
 20
7.67499989434048
 30
0.0
 11
32.64221251555386
 21
13.27499989434048
 31
0.0
  0
LINE
  5
B29
330
1A
100
AcDbEntity
  8
ZUWAKU
100
AcDbLine
 10
27.39221251555386
 20
9.42499989434048
 30
0.0
 11
27.39221251555386
 21
7.67499989434048
 31
0.0
  0
ARC
  5
B2A
330
1A
100
AcDbEntity
  8
ZUWAKU
100
AcDbCircle
 10
26.86721251555377
 20
7.67499989434048
 30
0.0
 40
0.525
100
AcDbArc
 50
270.0
 51
0.0
  0
ARC
  5
B2B
330
1A
100
AcDbEntity
  8
ZUWAKU
100
AcDbCircle
 10
26.86721251555377
 20
9.42499989434048
 30
0.0
 40
0.525
100
AcDbArc
 50
0.0
 51
90.0
  0
ARC
  5
B2C
330
1A
100
AcDbEntity
  8
ZUWAKU
100
AcDbCircle
 10
30.36721251555377
 20
7.67499989434048
 30
0.0
 40
0.525
100
AcDbArc
 50
180.0
 51
270.0
  0
ARC
  5
B2D
330
1A
100
AcDbEntity
  8
ZUWAKU
100
AcDbCircle
 10
33.30744667904252
 20
13.27499989434048
 30
0.0
 40
0.525
100
AcDbArc
 50
17.52556837372303
 51
90.0
  0
ARC
  5
B2E
330
1A
100
AcDbEntity
  8
ZUWAKU
100
AcDbCircle
 10
33.16721251555384
 20
13.27499989434048
 30
0.0
 40
0.525
100
AcDbArc
 50
90.0
 51
180.0
  0
ARC
  5
B2F
330
1A
100
AcDbEntity
  8
ZUWAKU
100
AcDbCircle
 10
41.2172125155538
 20
7.67499989434048
 30
0.0
 40
0.525
100
AcDbArc
 50
180.0
 51
270.0
  0
LINE
  5
B30
330
1A
100
AcDbEntity
  8
ZUWAKU
100
AcDbLine
 10
36.17697835206513
 20
7.149999894340481
 30
0.0
 11
37.87586773167413
 21
7.149999894340481
 31
0.0
  0
ARC
  5
B31
330
1A
100
AcDbEntity
  8
ZUWAKU
100
AcDbCircle
 10
37.87586773167413
 20
7.67499989434048
 30
0.0
 40
0.525
100
AcDbArc
 50
270.0
 51
17.52556837372303
  0
LINE
  5
B32
330
1A
100
AcDbEntity
  8
ZUWAKU
100
AcDbLine
 10
38.3764986308696
 20
7.833093862507453
 30
0.0
 11
36.05010725239594
 21
15.1999998943405
 31
0.0
  0
ARC
  5
B33
330
1A
100
AcDbEntity
  8
ZUWAKU
100
AcDbCircle
 10
36.17697835206513
 20
7.67499989434048
 30
0.0
 40
0.525
100
AcDbArc
 50
197.525568373723
 51
270.0
  0
ARC
  5
B34
330
1A
100
AcDbEntity
  8
ZUWAKU
100
AcDbCircle
 10
57.84221251555379
 20
9.949999894340479
 30
0.0
 40
2.799999999999999
100
AcDbArc
 50
180.0
 51
270.0
  0
ARC
  5
B35
330
1A
100
AcDbEntity
  8
ZUWAKU
100
AcDbCircle
 10
50.14221251555387
 20
9.949999894340479
 30
0.0
 40
2.799999999999999
100
AcDbArc
 50
270.0
 51
0.0
  0
LINE
  5
B36
330
1A
100
AcDbEntity
  8
ZUWAKU
100
AcDbLine
 10
51.71206099653739
 20
14.7350504006793
 30
0.0
 11
48.8022630218926
 21
17.64484837532398
 31
0.0
  0
LINE
  5
B37
330
1A
100
AcDbEntity
  8
ZUWAKU
100
AcDbLine
 10
50.14221251555387
 20
10.47499989434048
 30
0.0
 11
50.14221251555387
 21
11.76520191969582
 31
0.0
  0
ARC
  5
B38
330
1A
100
AcDbEntity
  8
ZUWAKU
100
AcDbCircle
 10
48.74221251555377
 20
11.76520191969582
 30
0.0
 40
1.399999999999999
100
AcDbArc
 50
0.0
 51
45.0
  0
ARC
  5
B39
330
1A
100
AcDbEntity
  8
ZUWAKU
100
AcDbCircle
 10
49.61721251555378
 20
10.47499989434048
 30
0.0
 40
0.525
100
AcDbArc
 50
270.0
 51
0.0
  0
LINE
  5
B3A
330
1A
100
AcDbEntity
  8
ZUWAKU
100
AcDbLine
 10
46.11721251555377
 20
7.67499989434048
 30
0.0
 11
46.11721251555377
 21
9.42499989434048
 31
0.0
  0
ARC
  5
B3B
330
1A
100
AcDbEntity
  8
ZUWAKU
100
AcDbCircle
 10
46.64221251555386
 20
7.67499989434048
 30
0.0
 40
0.525
100
AcDbArc
 50
180.0
 51
270.0
  0
ARC
  5
B3C
330
1A
100
AcDbEntity
  8
ZUWAKU
100
AcDbCircle
 10
42.96721251555379
 20
7.67499989434048
 30
0.0
 40
0.525
100
AcDbArc
 50
270.0
 51
0.0
  0
ARC
  5
B3D
330
1A
100
AcDbEntity
  8
ZUWAKU
100
AcDbCircle
 10
46.64221251555386
 20
9.42499989434048
 30
0.0
 40
0.525
100
AcDbArc
 50
90.0
 51
180.0
  0
LINE
  5
B3E
330
1A
100
AcDbEntity
  8
ZUWAKU
100
AcDbLine
 10
46.64221251555386
 20
9.949999894340479
 30
0.0
 11
49.61721251555378
 21
9.949999894340479
 31
0.0
  0
LINE
  5
B3F
330
1A
100
AcDbEntity
  8
ZUWAKU
100
AcDbLine
 10
46.64221251555386
 20
7.149999894340481
 30
0.0
 11
50.14221251555387
 21
7.149999894340481
 31
0.0
  0
LINE
  5
B40
330
1A
100
AcDbEntity
  8
ZUWAKU
100
AcDbLine
 10
46.82236403457034
 20
15.66494938800166
 30
0.0
 11
49.73216200921502
 21
12.75515141335699
 31
0.0
  0
LINE
  5
B41
330
1A
100
AcDbEntity
  8
ZUWAKU
100
AcDbLine
 10
52.94221251555382
 20
9.949999894340479
 30
0.0
 11
52.94221251555382
 21
11.76520191969582
 31
0.0
  0
ARC
  5
B42
330
1A
100
AcDbEntity
  8
ZUWAKU
100
AcDbCircle
 10
48.74221251555377
 20
11.76520191969578
 30
0.0
 40
4.199999999999999
100
AcDbArc
 50
0.0
 51
45.0
  0
ARC
  5
B43
330
1A
100
AcDbEntity
  8
ZUWAKU
100
AcDbCircle
 10
58.89221251555387
 20
10.99999989434047
 30
0.0
 40
1.049999999999999
100
AcDbArc
 50
180.0
 51
270.0
  0
ARC
  5
B44
330
1A
100
AcDbEntity
  8
ZUWAKU
100
AcDbCircle
 10
61.3422125155538
 20
9.949999894340479
 30
0.0
 40
2.799999999999999
100
AcDbArc
 50
270.0
 51
0.0
  0
LINE
  5
B45
330
1A
100
AcDbEntity
  8
ZUWAKU
100
AcDbLine
 10
66.76721251555386
 20
7.149999894340481
 30
0.0
 11
68.51721251555386
 21
7.149999894340481
 31
0.0
  0
ARC
  5
B46
330
1A
100
AcDbEntity
  8
ZUWAKU
100
AcDbCircle
 10
66.76721251555386
 20
7.67499989434048
 30
0.0
 40
0.525
100
AcDbArc
 50
180.0
 51
270.0
  0
ARC
  5
B47
330
1A
100
AcDbEntity
  8
ZUWAKU
100
AcDbCircle
 10
60.29221251555384
 20
10.99999989434047
 30
0.0
 40
1.049999999999999
100
AcDbArc
 50
270.0
 51
0.0
  0
ARC
  5
B48
330
1A
100
AcDbEntity
  8
ZUWAKU
100
AcDbCircle
 10
68.51721251555386
 20
7.67499989434048
 30
0.0
 40
0.525
100
AcDbArc
 50
270.0
 51
0.0
  0
LINE
  5
B49
330
1A
100
AcDbEntity
  8
ZUWAKU
100
AcDbLine
 10
42.96721251555379
 20
23.24999989434048
 30
0.0
 11
41.2172125155538
 21
23.24999989434048
 31
0.0
  0
ARC
  5
B4A
330
1A
100
AcDbEntity
  8
ZUWAKU
100
AcDbCircle
 10
32.11721251555377
 20
22.72499989434047
 30
0.0
 40
0.525
100
AcDbArc
 50
0.0
 51
90.0
  0
LINE
  5
B4B
330
1A
100
AcDbEntity
  8
ZUWAKU
100
AcDbLine
 10
32.11721251555377
 20
23.24999989434048
 30
0.0
 11
30.36721251555377
 21
23.24999989434048
 31
0.0
  0
ARC
  5
B4C
330
1A
100
AcDbEntity
  8
ZUWAKU
100
AcDbCircle
 10
26.86721251555377
 20
22.72499989434047
 30
0.0
 40
0.525
100
AcDbArc
 50
0.0
 51
90.0
  0
ARC
  5
B4D
330
1A
100
AcDbEntity
  8
ZUWAKU
100
AcDbCircle
 10
30.36721251555377
 20
22.72499989434047
 30
0.0
 40
0.525
100
AcDbArc
 50
90.0
 51
180.0
  0
ARC
  5
B4E
330
1A
100
AcDbEntity
  8
ZUWAKU
100
AcDbCircle
 10
26.86721251555377
 20
20.97499989434048
 30
0.0
 40
0.525
100
AcDbArc
 50
270.0
 51
0.0
  0
LINE
  5
B4F
330
1A
100
AcDbEntity
  8
ZUWAKU
100
AcDbLine
 10
27.39221251555386
 20
22.72499989434047
 30
0.0
 11
27.39221251555386
 21
20.97499989434048
 31
0.0
  0
ARC
  5
B50
330
1A
100
AcDbEntity
  8
ZUWAKU
100
AcDbCircle
 10
41.2172125155538
 20
22.72499989434047
 30
0.0
 40
0.525
100
AcDbArc
 50
90.0
 51
180.0
  0
LINE
  5
B51
330
1A
100
AcDbEntity
  8
ZUWAKU
100
AcDbLine
 10
36.17697835206513
 20
23.24999989434048
 30
0.0
 11
37.87586773167413
 21
23.24999989434048
 31
0.0
  0
ARC
  5
B52
330
1A
100
AcDbEntity
  8
ZUWAKU
100
AcDbCircle
 10
37.87586773167413
 20
22.72499989434047
 30
0.0
 40
0.525
100
AcDbArc
 50
342.4744316262769
 51
90.0
  0
LINE
  5
B53
330
1A
100
AcDbEntity
  8
ZUWAKU
100
AcDbLine
 10
38.3764986308696
 20
22.56690592617351
 30
0.0
 11
37.31485899773179
 21
19.2050470879039
 31
0.0
  0
ARC
  5
B54
330
1A
100
AcDbEntity
  8
ZUWAKU
100
AcDbCircle
 10
36.17697835206513
 20
22.72499989434047
 30
0.0
 40
0.525
100
AcDbArc
 50
90.0
 51
162.4744316262769
  0
LINE
  5
B55
330
1A
100
AcDbEntity
  8
ZUWAKU
100
AcDbLine
 10
48.39221251555386
 20
23.24999989434048
 30
0.0
 11
51.89221251555387
 21
23.24999989434048
 31
0.0
  0
LINE
  5
B56
330
1A
100
AcDbEntity
  8
ZUWAKU
100
AcDbLine
 10
51.89221251555387
 20
20.44999989434047
 30
0.0
 11
48.91721251555384
 21
20.44999989434047
 31
0.0
  0
ARC
  5
B57
330
1A
100
AcDbEntity
  8
ZUWAKU
100
AcDbCircle
 10
48.91721251555384
 20
19.92499989434048
 30
0.0
 40
0.525
100
AcDbArc
 50
90.0
 51
180.0
  0
LINE
  5
B58
330
1A
100
AcDbEntity
  8
ZUWAKU
100
AcDbLine
 10
48.39221251555386
 20
19.92499989434048
 30
0.0
 11
48.39221251555386
 21
18.63479786898514
 31
0.0
  0
ARC
  5
B59
330
1A
100
AcDbEntity
  8
ZUWAKU
100
AcDbCircle
 10
42.96721251555379
 20
22.72499989434047
 30
0.0
 40
0.525
100
AcDbArc
 50
0.0
 51
90.0
  0
LINE
  5
B5A
330
1A
100
AcDbEntity
  8
ZUWAKU
100
AcDbLine
 10
45.5922125155538
 20
20.44999989434047
 30
0.0
 11
45.5922125155538
 21
18.63479786898514
 31
0.0
  0
ARC
  5
B5B
330
1A
100
AcDbEntity
  8
ZUWAKU
100
AcDbCircle
 10
48.39221251555386
 20
20.44999989434047
 30
0.0
 40
2.799999999999999
100
AcDbArc
 50
90.0
 51
180.0
  0
ARC
  5
B5C
330
1A
100
AcDbEntity
  8
ZUWAKU
100
AcDbCircle
 10
57.31721251555382
 20
22.72499989434047
 30
0.0
 40
0.525
100
AcDbArc
 50
0.0
 51
90.0
  0
ARC
  5
B5D
330
1A
100
AcDbEntity
  8
ZUWAKU
100
AcDbCircle
 10
55.56721251555382
 20
22.72499989434047
 30
0.0
 40
0.525
100
AcDbArc
 50
90.0
 51
180.0
  0
LINE
  5
B5E
330
1A
100
AcDbEntity
  8
ZUWAKU
100
AcDbLine
 10
57.31721251555382
 20
23.24999989434048
 30
0.0
 11
55.56721251555382
 21
23.24999989434048
 31
0.0
  0
ARC
  5
B5F
330
1A
100
AcDbEntity
  8
ZUWAKU
100
AcDbCircle
 10
51.89221251555387
 20
22.72499989434047
 30
0.0
 40
0.525
100
AcDbArc
 50
0.0
 51
90.0
  0
ARC
  5
B60
330
1A
100
AcDbEntity
  8
ZUWAKU
100
AcDbCircle
 10
51.89221251555387
 20
20.97499989434048
 30
0.0
 40
0.525
100
AcDbArc
 50
270.0
 51
0.0
  0
LINE
  5
B61
330
1A
100
AcDbEntity
  8
ZUWAKU
100
AcDbLine
 10
52.41721251555384
 20
22.72499989434047
 30
0.0
 11
52.41721251555384
 21
20.97499989434048
 31
0.0
  0
LINE
  5
B62
330
1A
100
AcDbEntity
  8
ZUWAKU
100
AcDbLine
 10
68.51721251555386
 20
23.24999989434048
 30
0.0
 11
66.76721251555386
 21
23.24999989434048
 31
0.0
  0
ARC
  5
B63
330
1A
100
AcDbEntity
  8
ZUWAKU
100
AcDbCircle
 10
66.76721251555386
 20
22.72499989434047
 30
0.0
 40
0.525
100
AcDbArc
 50
90.0
 51
180.0
  0
ARC
  5
B64
330
1A
100
AcDbEntity
  8
ZUWAKU
100
AcDbCircle
 10
63.61721251555377
 20
22.72499989434047
 30
0.0
 40
0.525
100
AcDbArc
 50
0.0
 51
90.0
  0
LINE
  5
B65
330
1A
100
AcDbEntity
  8
ZUWAKU
100
AcDbLine
 10
63.61721251555377
 20
23.24999989434048
 30
0.0
 11
61.86721251555377
 21
23.24999989434048
 31
0.0
  0
ARC
  5
B66
330
1A
100
AcDbEntity
  8
ZUWAKU
100
AcDbCircle
 10
61.86721251555377
 20
22.72499989434047
 30
0.0
 40
0.525
100
AcDbArc
 50
90.0
 51
180.0
  0
ARC
  5
B67
330
1A
100
AcDbEntity
  8
ZUWAKU
100
AcDbCircle
 10
68.51721251555386
 20
22.72499989434047
 30
0.0
 40
0.525
100
AcDbArc
 50
0.0
 51
90.0
  0
TEXT
  5
B68
330
1A
100
AcDbEntity
  8
MOJI
100
AcDbText
 10
239.8272030416237
 20
3.204920951747897
 30
0.0
 40
5.599999999999999
  1
ＲＶ１０５－Ｌ２５５
 41
0.9
  7
ｽﾀｲﾙ1
100
AcDbText
  0
TEXT
  5
B69
330
1A
100
AcDbEntity
  8
MOJI
100
AcDbText
 10
239.8272030416237
 20
18.00492095174786
 30
0.0
 40
5.599999999999999
  1
亜鉛メッキ金具横打瓦下（受）
 41
0.9
  7
ｽﾀｲﾙ1
100
AcDbText
  0
LINE
  5
B6A
330
1A
100
AcDbEntity
  8
ZUWAKU
100
AcDbLine
 10
208.2466016508405
 20
29.99999989434047
 30
0.0
 11
208.2466016508405
 21
0.7999998943405445
 31
0.0
  0
LINE
  5
B6B
330
1A
100
AcDbEntity
  8
ZUWAKU
100
AcDbLine
 10
208.6466016508404
 20
29.99999989434047
 30
0.0
 11
208.6466016508406
 21
0.7999998943405445
 31
0.0
  0
LINE
  5
B6C
330
1A
100
AcDbEntity
  8
ZUWAKU
100
AcDbLine
 10
208.4466016508404
 20
29.99999989434047
 30
0.0
 11
208.4466016508406
 21
0.7999998943405445
 31
0.0
  0
TEXT
  5
B6D
330
1A
100
AcDbEntity
  8
ZUWAKU
100
AcDbText
 10
209.7240466730502
 20
9.655356432726094
 30
0.0
 40
4.0
  1
サイズ
 41
0.9
  7
ｽﾀｲﾙ1
100
AcDbText
  0
TEXT
  5
B6E
330
1A
100
AcDbEntity
  8
ZUWAKU
100
AcDbText
 10
209.7240466730499
 20
24.05535643272605
 30
0.0
 40
4.0
  1
品名
 41
0.9
  7
ｽﾀｲﾙ1
100
AcDbText
  0
LINE
  5
B6F
330
1A
100
AcDbEntity
  8
ZUWAKU
100
AcDbLine
 10
648.8172028709769
 20
15.1999998943405
 30
0.0
 11
697.2490109093139
 21
15.19999989434051
 31
0.0
  0
LINE
  5
B70
330
1A
100
AcDbEntity
  8
ZUWAKU
100
AcDbLine
 10
648.8172028709771
 20
15.39999989434051
 30
0.0
 11
697.2490109093139
 21
15.39999989434051
 31
0.0
  0
LINE
  5
B71
330
1A
100
AcDbEntity
  8
ZUWAKU
100
AcDbLine
 10
648.8172028709769
 20
15.59999989434051
 30
0.0
 11
697.2490109093139
 21
15.59999989434051
 31
0.0
  0
TEXT
  5
B72
330
1A
100
AcDbEntity
  8
ZUWAKU
100
AcDbText
 10
658.203938048075
 20
18.00492095174786
 30
0.0
 40
5.599999999999999
  1
　　．　　．　　
 41
0.9
  7
ｽﾀｲﾙ1
100
AcDbText
  0
LINE
  5
B73
330
1A
100
AcDbEntity
  8
ZUWAKU
100
AcDbLine
 10
505.1991798589135
 20
15.19999989434051
 30
0.0
 11
552.5269561268851
 21
15.19999989434051
 31
0.0
  0
LINE
  5
B74
330
1A
100
AcDbEntity
  8
ZUWAKU
100
AcDbLine
 10
505.1991798589135
 20
15.39999989434051
 30
0.0
 11
552.5269561268851
 21
15.39999989434051
 31
0.0
  0
LINE
  5
B75
330
1A
100
AcDbEntity
  8
ZUWAKU
100
AcDbLine
 10
505.1991798589135
 20
15.59999989434051
 30
0.0
 11
552.5269561268851
 21
15.59999989434051
 31
0.0
  0
TEXT
  5
B76
330
1A
100
AcDbEntity
  8
MOJI
100
AcDbText
 10
464.5946263640117
 20
11.94261761600046
 30
0.0
 40
5.599999999999999
  1
ＬＪ４１Ｇ
 41
0.9
  7
ｽﾀｲﾙ1
100
AcDbText
  0
LINE
  5
B77
330
1A
100
AcDbEntity
  8
ZUWAKU
100
AcDbLine
 10
447.6243643317639
 20
29.99999989434047
 30
0.0
 11
447.6243643317641
 21
0.7999998943405445
 31
0.0
  0
LINE
  5
B78
330
1A
100
AcDbEntity
  8
ZUWAKU
100
AcDbLine
 10
447.8243643317639
 20
29.99999989434047
 30
0.0
 11
447.8243643317641
 21
0.7999998943405445
 31
0.0
  0
LINE
  5
B79
330
1A
100
AcDbEntity
  8
ZUWAKU
100
AcDbLine
 10
447.4243643317641
 20
29.99999989434047
 30
0.0
 11
447.4243643317641
 21
0.7999998943405445
 31
0.0
  0
TEXT
  5
B7A
330
1A
100
AcDbEntity
  8
MOJI
100
AcDbText
 10
528.0409083330855
 20
18.00492095174786
 30
0.0
 40
5.599999999999999
  1
Ａ３
 41
0.9
  7
ｽﾀｲﾙ1
100
AcDbText
  0
LINE
  5
B7B
330
1A
100
AcDbEntity
  8
ZUWAKU
100
AcDbLine
 10
504.9991798589135
 20
29.99999989434047
 30
0.0
 11
504.9991798589137
 21
0.7999998943405445
 31
0.0
  0
LINE
  5
B7C
330
1A
100
AcDbEntity
  8
ZUWAKU
100
AcDbLine
 10
505.1991798589135
 20
29.99999989434047
 30
0.0
 11
505.1991798589138
 21
0.7999998943405445
 31
0.0
  0
LINE
  5
B7D
330
1A
100
AcDbEntity
  8
ZUWAKU
100
AcDbLine
 10
504.7991798589136
 20
29.99999989434047
 30
0.0
 11
504.7991798589136
 21
0.7999998943405445
 31
0.0
  0
TEXT
  5
B7E
330
1A
100
AcDbEntity
  8
ZUWAKU
100
AcDbText
 10
506.6766248811234
 20
9.655356432726094
 30
0.0
 40
4.0
  1
縮尺
 41
0.9
  7
ｽﾀｲﾙ1
100
AcDbText
  0
TEXT
  5
B7F
330
1A
100
AcDbEntity
  8
MOJI
100
AcDbText
 10
528.0409083330855
 20
3.204920951747897
 30
0.0
 40
5.599999999999999
  1
１/２
 41
0.9
  7
ｽﾀｲﾙ1
100
AcDbText
  0
TEXT
  5
B80
330
1A
100
AcDbEntity
  8
ZUWAKU
100
AcDbText
 10
449.3018093539736
 20
24.05535643272605
 30
0.0
 40
4.0
  1
品番
 41
0.9
  7
ｽﾀｲﾙ1
100
AcDbText
  0
TEXT
  5
B81
330
1A
100
AcDbEntity
  8
ZUWAKU
100
AcDbText
 10
506.6766248811232
 20
24.05535643272605
 30
0.0
 40
4.0
  1
用紙
 41
0.9
  7
ｽﾀｲﾙ1
100
AcDbText
  0
LINE
  5
B82
330
1A
100
AcDbEntity
  8
ZUWAKU
100
AcDbLine
 10
648.617202870977
 20
29.99999989434047
 30
0.0
 11
648.6172028709773
 21
0.7999998943405445
 31
0.0
  0
LINE
  5
B83
330
1A
100
AcDbEntity
  8
ZUWAKU
100
AcDbLine
 10
648.8172028709771
 20
29.99999989434047
 30
0.0
 11
648.8172028709773
 21
0.7999998943405445
 31
0.0
  0
LINE
  5
B84
330
1A
100
AcDbEntity
  8
ZUWAKU
100
AcDbLine
 10
648.4172028709772
 20
29.99999989434047
 30
0.0
 11
648.4172028709772
 21
0.7999998943405445
 31
0.0
  0
LINE
  5
B85
330
1A
100
AcDbEntity
  8
ZUWAKU
100
AcDbLine
 10
552.7269561268849
 20
29.99999989434047
 30
0.0
 11
552.7269561268851
 21
0.7999998943405445
 31
0.0
  0
LINE
  5
B86
330
1A
100
AcDbEntity
  8
ZUWAKU
100
AcDbLine
 10
552.926956126885
 20
29.99999989434047
 30
0.0
 11
552.9269561268852
 21
0.7999998943405445
 31
0.0
  0
LINE
  5
B87
330
1A
100
AcDbEntity
  8
ZUWAKU
100
AcDbLine
 10
552.5269561268851
 20
29.99999989434047
 30
0.0
 11
552.5269561268851
 21
0.7999998943405445
 31
0.0
  0
TEXT
  5
B88
330
1A
100
AcDbEntity
  8
ZUWAKU
100
AcDbText
 10
650.2946478931867
 20
24.05535643272605
 30
0.0
 40
4.0
  1
DATE
 41
0.9
  7
ｽﾀｲﾙ1
100
AcDbText
  0
LINE
  5
B89
330
1A
100
AcDbEntity
  8
ZUWAKU
100
AcDbLine
 10
697.2490109093139
 20
29.99999989434047
 30
0.0
 11
697.2490109093139
 21
0.7999998943405445
 31
0.0
  0
LINE
  5
B8A
330
1A
100
AcDbEntity
  8
ZUWAKU
100
AcDbLine
 10
697.449010909314
 20
29.99999989434047
 30
0.0
 11
697.449010909314
 21
0.7999998943405445
 31
0.0
  0
LINE
  5
B8B
330
1A
100
AcDbEntity
  8
ZUWAKU
100
AcDbLine
 10
697.6490109093138
 20
29.99999989434047
 30
0.0
 11
697.649010909314
 21
0.7999998943405445
 31
0.0
  0
LINE
  5
B8C
330
1A
100
AcDbEntity
  8
ZUWAKU
100
AcDbLine
 10
697.8490109093138
 20
29.99999989434047
 30
0.0
 11
697.849010909314
 21
0.7999998943405445
 31
0.0
  0
TEXT
  5
B8D
330
1A
100
AcDbEntity
  8
ZUWAKU
100
AcDbText
 10
708.5280845530165
 20
17.55383923002727
 30
0.0
 40
6.0
  1
積水化学工業株式会社
 41
0.9
  7
ｽﾀｲﾙ1
100
AcDbText
  0
TEXT
  5
B8E
330
1A
100
AcDbEntity
  8
ZUWAKU
100
AcDbText
 10
708.5280845530165
 20
6.648840208194542
 30
0.0
 40
6.0
  1
建材事業部
 41
0.9
  7
ｽﾀｲﾙ1
100
AcDbText
  0
VIEWPORT
  5
22
330
17
100
AcDbEntity
 67
     1
  8
0
100
AcDbViewport
 10
313.6808219178082
 20
148.5
 30
0.0
 40
627.3616438356165
 41
297.0
 68
     2
 69
     1
1001
ACAD
1000
MVIEW
1002
{
1070
    16
1010
0.0
1020
0.0
1030
0.0
1010
0.0
1020
0.0
1030
1.0
1040
0.0
1040
297.0
1040
313.6808219178082
1040
148.5
1040
50.0
1040
0.0
1040
0.0
1070
     0
1070
   100
1070
     1
1070
     0
1070
     0
1070
     0
1070
     0
1070
     0
1040
0.0
1040
0.0
1040
0.0
1040
1.0
1040
1.0
1040
10.0
1040
10.0
1070
     0
1002
{
1002
}
1002
}
  0
VIEWPORT
  5
64
330
17
100
AcDbEntity
 67
     1
  8
VIEWPORT
100
AcDbViewport
 10
210.0
 20
148.5
 30
0.0
 40
420.0
 41
297.0
 68
     1
 69
     2
1001
ACAD
1000
MVIEW
1002
{
1070
    16
1010
0.0
1020
0.0
1030
0.0
1010
0.0
1020
0.0
1030
1.0
1040
0.0
1040
605.8799999999998
1040
420.0
1040
297.0
1040
50.0
1040
0.0
1040
0.0
1070
     0
1070
   100
1070
     1
1070
     0
1070
     0
1070
     0
1070
     0
1070
     0
1040
0.0
1040
0.0
1040
0.0
1040
10.0
1040
10.0
1040
0.0
1040
0.0
1070
     0
1002
{
1002
}
1002
}
  0
ENDSEC
  0
SECTION
  2
OBJECTS
  0
DICTIONARY
  5
C
330
0
100
AcDbDictionary
  3
ACAD_GROUP
350
D
  3
ACAD_LAYOUT
350
14C
  3
ACAD_MLINESTYLE
350
E
  3
ACAD_PLOTSETTINGS
350
14D
  3
ACAD_PLOTSTYLENAME
350
14A
  3
ACADDIM
350
4A5
  3
ACDBHEADERROUNDTRIPXREC
350
B96
  0
DICTIONARY
  5
89C
330
1A
100
AcDbDictionary
280
     1
  3
ACAD_LAYOUTSELFREF
360
BB8
  0
DICTIONARY
  5
89A
330
17
100
AcDbDictionary
280
     1
  3
ACAD_LAYOUTSELFREF
360
BB7
  0
DICTIONARY
  5
D
102
{ACAD_REACTORS
330
C
102
}
330
C
100
AcDbDictionary
  0
DICTIONARY
  5
14C
102
{ACAD_REACTORS
330
C
102
}
330
C
100
AcDbDictionary
  0
DICTIONARY
  5
E
102
{ACAD_REACTORS
330
C
102
}
330
C
100
AcDbDictionary
  3
STANDARD
350
13
  0
DICTIONARY
  5
14D
102
{ACAD_REACTORS
330
C
102
}
330
C
100
AcDbDictionary
  0
ACDBDICTIONARYWDFLT
  5
14A
102
{ACAD_REACTORS
330
C
102
}
330
C
100
AcDbDictionary
281
     1
  3
Normal
350
14B
100
AcDbDictionaryWithDefault
340
14B
1001
ACAD
1000
TREAT_AS_HARD
1070
     0
1000
TREAT_AS_HARD
1070
     0
1000
TREAT_AS_HARD
1070
     0
1000
TREAT_AS_HARD
1070
     0
1000
TREAT_AS_HARD
1070
     0
  0
XRECORD
  5
4A5
102
{ACAD_REACTORS
330
C
102
}
330
C
100
AcDbXrecord
 90
   990106
  3

 60
     0
 61
     0
 62
     1
 63
     3
 64
     0
 65
     0
 66
     0
 67
     3
 68
     1
 69
     0
 70
     0
 71
     0
 72
     0
 40
0.0
170
     0
340
825
  0
DICTIONARY
  5
B96
102
{ACAD_REACTORS
330
C
102
}
330
C
100
AcDbDictionary
  3
TSTACKALIGN
350
B97
  3
TSTACKSIZE
350
B98
  3
HYPERLINKBASE
350
B99
  3
STYLESHEET
350
B9A
  3
LAYOUTDICT
350
B9B
  3
PLOTSETDICT
350
B9C
  3
PLOTSTYLNAMDICT
350
B9D
  3
LWETCUNION
350
B9E
  3
INSUNITS
350
B9F
  3
CEPSNTYPE
350
BA0
  3
FINGERPRINTGUID
350
BA1
  3
VERSIONGUID
350
BA2
  3
PSVPSCALE
350
BA3
  3
DIMSTYLEDATA
350
BA4
  3
PUCSORTHOREF
350
BA5
  3
PUCSORTHOVIEW
350
BA6
  3
PUCSBASE
350
BA7
  3
PUCSORGTOP
350
BA8
  3
PUCSORGBOTTOM
350
BA9
  3
PUCSORGLEFT
350
BAA
  3
PUCSORGRIGHT
350
BAB
  3
PUCSORGFRONT
350
BAC
  3
PUCSORGBACK
350
BAD
  3
UCSORTHOREF
350
BAE
  3
UCSORTHOVIEW
350
BAF
  3
UCSBASE
350
BB0
  3
UCSORGTOP
350
BB1
  3
UCSORGBOTTOM
350
BB2
  3
UCSORGLEFT
350
BB3
  3
UCSORGRIGHT
350
BB4
  3
UCSORGFRONT
350
BB5
  3
UCSORGBACK
350
BB6
  0
XRECORD
  5
BB8
102
{ACAD_REACTORS
330
89C
102
}
330
89C
100
AcDbXrecord
340
1A
  0
XRECORD
  5
BB7
102
{ACAD_REACTORS
330
89A
102
}
330
89A
100
AcDbXrecord
340
17
  0
MLINESTYLE
  5
13
102
{ACAD_REACTORS
330
E
102
}
330
E
100
AcDbMlineStyle
  2
STANDARD
 70
     0
  3

 62
     0
 51
90.0
 52
90.0
 71
     2
 49
0.5
 62
   256
  6
BYLAYER
 49
-0.5
 62
   256
  6
BYLAYER
  0
ACDBPLACEHOLDER
  5
14B
102
{ACAD_REACTORS
330
14A
102
}
330
14A
100
AcDbPlaceHolder
280
     0
  0
XRECORD
  5
B97
102
{ACAD_REACTORS
330
B96
102
}
330
B96
100
AcDbXrecord
 90
        1
  0
XRECORD
  5
B98
102
{ACAD_REACTORS
330
B96
102
}
330
B96
100
AcDbXrecord
 90
       70
  0
XRECORD
  5
B99
102
{ACAD_REACTORS
330
B96
102
}
330
B96
100
AcDbXrecord
  1

  0
XRECORD
  5
B9A
102
{ACAD_REACTORS
330
B96
102
}
330
B96
100
AcDbXrecord
  1
systemprinter.ctb
  0
XRECORD
  5
B9B
102
{ACAD_REACTORS
330
B96
102
}
330
B96
100
AcDbXrecord
340
14C
  0
XRECORD
  5
B9C
102
{ACAD_REACTORS
330
B96
102
}
330
B96
100
AcDbXrecord
340
14D
  0
XRECORD
  5
B9D
102
{ACAD_REACTORS
330
B96
102
}
330
B96
100
AcDbXrecord
340
14A
  0
XRECORD
  5
B9E
102
{ACAD_REACTORS
330
B96
102
}
330
B96
100
AcDbXrecord
 90
    10781
  0
XRECORD
  5
B9F
102
{ACAD_REACTORS
330
B96
102
}
330
B96
100
AcDbXrecord
 90
        0
  0
XRECORD
  5
BA0
102
{ACAD_REACTORS
330
B96
102
}
330
B96
100
AcDbXrecord
 90
        0
  0
XRECORD
  5
BA1
102
{ACAD_REACTORS
330
B96
102
}
330
B96
100
AcDbXrecord
  1
{75772F4A-CE5A-11D3-932C-444553540000}
  0
XRECORD
  5
BA2
102
{ACAD_REACTORS
330
B96
102
}
330
B96
100
AcDbXrecord
  1
{AC16841B-A070-4A97-BB9E-386057A92972}
  0
XRECORD
  5
BA3
102
{ACAD_REACTORS
330
B96
102
}
330
B96
100
AcDbXrecord
 40
0.0
  0
XRECORD
  5
BA4
102
{ACAD_REACTORS
330
B96
102
}
330
B96
100
AcDbXrecord
1000
DSTYLE
1002
{
1070
   341
340
6D
1070
   343
340
6D
1070
   344
340
6D
1070
   371
 70
    -1
1070
   372
 70
    -1
1002
}
  0
XRECORD
  5
BA5
102
{ACAD_REACTORS
330
B96
102
}
330
B96
100
AcDbXrecord
340
0
  0
XRECORD
  5
BA6
102
{ACAD_REACTORS
330
B96
102
}
330
B96
100
AcDbXrecord
 70
     0
  0
XRECORD
  5
BA7
102
{ACAD_REACTORS
330
B96
102
}
330
B96
100
AcDbXrecord
340
0
  0
XRECORD
  5
BA8
102
{ACAD_REACTORS
330
B96
102
}
330
B96
100
AcDbXrecord
 10
0.0
 20
0.0
 30
0.0
  0
XRECORD
  5
BA9
102
{ACAD_REACTORS
330
B96
102
}
330
B96
100
AcDbXrecord
 10
0.0
 20
0.0
 30
0.0
  0
XRECORD
  5
BAA
102
{ACAD_REACTORS
330
B96
102
}
330
B96
100
AcDbXrecord
 10
0.0
 20
0.0
 30
0.0
  0
XRECORD
  5
BAB
102
{ACAD_REACTORS
330
B96
102
}
330
B96
100
AcDbXrecord
 10
0.0
 20
0.0
 30
0.0
  0
XRECORD
  5
BAC
102
{ACAD_REACTORS
330
B96
102
}
330
B96
100
AcDbXrecord
 10
0.0
 20
0.0
 30
0.0
  0
XRECORD
  5
BAD
102
{ACAD_REACTORS
330
B96
102
}
330
B96
100
AcDbXrecord
 10
0.0
 20
0.0
 30
0.0
  0
XRECORD
  5
BAE
102
{ACAD_REACTORS
330
B96
102
}
330
B96
100
AcDbXrecord
340
0
  0
XRECORD
  5
BAF
102
{ACAD_REACTORS
330
B96
102
}
330
B96
100
AcDbXrecord
 70
     0
  0
XRECORD
  5
BB0
102
{ACAD_REACTORS
330
B96
102
}
330
B96
100
AcDbXrecord
340
0
  0
XRECORD
  5
BB1
102
{ACAD_REACTORS
330
B96
102
}
330
B96
100
AcDbXrecord
 10
0.0
 20
0.0
 30
0.0
  0
XRECORD
  5
BB2
102
{ACAD_REACTORS
330
B96
102
}
330
B96
100
AcDbXrecord
 10
0.0
 20
0.0
 30
0.0
  0
XRECORD
  5
BB3
102
{ACAD_REACTORS
330
B96
102
}
330
B96
100
AcDbXrecord
 10
0.0
 20
0.0
 30
0.0
  0
XRECORD
  5
BB4
102
{ACAD_REACTORS
330
B96
102
}
330
B96
100
AcDbXrecord
 10
0.0
 20
0.0
 30
0.0
  0
XRECORD
  5
BB5
102
{ACAD_REACTORS
330
B96
102
}
330
B96
100
AcDbXrecord
 10
0.0
 20
0.0
 30
0.0
  0
XRECORD
  5
BB6
102
{ACAD_REACTORS
330
B96
102
}
330
B96
100
AcDbXrecord
 10
0.0
 20
0.0
 30
0.0
  0
ENDSEC
  0
EOF
