  0
SECTION
  2
HEADER
  9
$ACADVER
  1
AC1014
  9
$ACADMAINTVER
 70
     9
  9
$DWGCODEPAGE
  3
ANSI_932
  9
$INSBASE
 10
0.0
 20
0.0
 30
0.0
  9
$EXTMIN
 10
-0.0243392857410072
 20
-0.0168323174789293
 30
-0.0000000100021362
  9
$EXTMAX
 10
398.8000014119611
 20
275.8000008575609
 30
0.0000000100021363
  9
$LIMMIN
 10
0.0
 20
0.0
  9
$LIMMAX
 10
420.0
 20
297.0
  9
$ORTHOMODE
 70
     1
  9
$REGENMODE
 70
     1
  9
$FILLMODE
 70
     1
  9
$QTEXTMODE
 70
     0
  9
$MIRRTEXT
 70
     1
  9
$DRAGMODE
 70
     2
  9
$LTSCALE
 40
5.0
  9
$OSMODE
 70
    35
  9
$ATTMODE
 70
     1
  9
$TEXTSIZE
 40
3.0
  9
$TRACEWID
 40
1.0
  9
$TEXTSTYLE
  7
STANDARD
  9
$CLAYER
  8
SUNPOU
  9
$CELTYPE
  6
BYLAYER
  9
$CECOLOR
 62
   256
  9
$CELTSCALE
 40
1.0
  9
$DELOBJ
 70
     1
  9
$DISPSILH
 70
     0
  9
$DIMSCALE
 40
1.0
  9
$DIMASZ
 40
3.0
  9
$DIMEXO
 40
3.0
  9
$DIMDLI
 40
7.0
  9
$DIMRND
 40
0.0
  9
$DIMDLE
 40
0.0
  9
$DIMEXE
 40
1.5
  9
$DIMTP
 40
0.0
  9
$DIMTM
 40
0.0
  9
$DIMTXT
 40
3.0
  9
$DIMCEN
 40
3.0
  9
$DIMTSZ
 40
0.0
  9
$DIMTOL
 70
     0
  9
$DIMLIM
 70
     0
  9
$DIMTIH
 70
     0
  9
$DIMTOH
 70
     0
  9
$DIMSE1
 70
     0
  9
$DIMSE2
 70
     0
  9
$DIMTAD
 70
     3
  9
$DIMZIN
 70
     0
  9
$DIMBLK
  1

  9
$DIMASO
 70
     1
  9
$DIMSHO
 70
     1
  9
$DIMPOST
  1

  9
$DIMAPOST
  1

  9
$DIMALT
 70
     0
  9
$DIMALTD
 70
     2
  9
$DIMALTF
 40
25.4
  9
$DIMLFAC
 40
1.0
  9
$DIMTOFL
 70
     1
  9
$DIMTVP
 40
0.0
  9
$DIMTIX
 70
     0
  9
$DIMSOXD
 70
     0
  9
$DIMSAH
 70
     1
  9
$DIMBLK1
  1
OPEN
  9
$DIMBLK2
  1
OPEN
  9
$DIMSTYLE
  2
STANDARD
  9
$DIMCLRD
 70
   256
  9
$DIMCLRE
 70
   256
  9
$DIMCLRT
 70
   256
  9
$DIMTFAC
 40
1.0
  9
$DIMGAP
 40
1.0
  9
$DIMJUST
 70
     0
  9
$DIMSD1
 70
     0
  9
$DIMSD2
 70
     0
  9
$DIMTOLJ
 70
     1
  9
$DIMTZIN
 70
     0
  9
$DIMALTZ
 70
     0
  9
$DIMALTTZ
 70
     0
  9
$DIMFIT
 70
     3
  9
$DIMUPT
 70
     0
  9
$DIMUNIT
 70
     2
  9
$DIMDEC
 70
     0
  9
$DIMTDEC
 70
     0
  9
$DIMALTU
 70
     2
  9
$DIMALTTD
 70
     2
  9
$DIMTXSTY
  7
STANDARD
  9
$DIMAUNIT
 70
     0
  9
$LUNITS
 70
     2
  9
$LUPREC
 70
     4
  9
$SKETCHINC
 40
1.0
  9
$FILLETRAD
 40
2.0
  9
$AUNITS
 70
     0
  9
$AUPREC
 70
     0
  9
$MENU
  1
.
  9
$ELEVATION
 40
0.0
  9
$PELEVATION
 40
0.0
  9
$THICKNESS
 40
0.0
  9
$LIMCHECK
 70
     0
  9
$BLIPMODE
 70
     0
  9
$CHAMFERA
 40
10.0
  9
$CHAMFERB
 40
10.0
  9
$CHAMFERC
 40
20.0
  9
$CHAMFERD
 40
0.0
  9
$SKPOLY
 70
     0
  9
$TDCREATE
 40
2451589.469382176
  9
$TDUPDATE
 40
2453805.467871632
  9
$TDINDWG
 40
0.2550096296
  9
$TDUSRTIMER
 40
0.2550096296
  9
$USRTIMER
 70
     1
  9
$ANGBASE
 50
0.0
  9
$ANGDIR
 70
     0
  9
$PDMODE
 70
     0
  9
$PDSIZE
 40
0.0
  9
$PLINEWID
 40
0.0
  9
$COORDS
 70
     1
  9
$SPLFRAME
 70
     0
  9
$SPLINETYPE
 70
     6
  9
$SPLINESEGS
 70
     8
  9
$ATTDIA
 70
     0
  9
$ATTREQ
 70
     1
  9
$HANDLING
 70
 10241
  9
$HANDSEED
  5
2B2B
  9
$SURFTAB1
 70
     6
  9
$SURFTAB2
 70
     6
  9
$SURFTYPE
 70
     6
  9
$SURFU
 70
     6
  9
$SURFV
 70
     6
  9
$UCSNAME
  2

  9
$UCSORG
 10
0.0
 20
0.0
 30
0.0
  9
$UCSXDIR
 10
1.0
 20
0.0
 30
0.0
  9
$UCSYDIR
 10
0.0
 20
1.0
 30
0.0
  9
$PUCSNAME
  2

  9
$PUCSORG
 10
0.0
 20
0.0
 30
0.0
  9
$PUCSXDIR
 10
1.0
 20
0.0
 30
0.0
  9
$PUCSYDIR
 10
0.0
 20
1.0
 30
0.0
  9
$USERI1
 70
     0
  9
$USERI2
 70
     0
  9
$USERI3
 70
     0
  9
$USERI4
 70
     0
  9
$USERI5
 70
     0
  9
$USERR1
 40
0.0
  9
$USERR2
 40
0.0
  9
$USERR3
 40
0.0
  9
$USERR4
 40
0.0
  9
$USERR5
 40
0.0
  9
$WORLDVIEW
 70
     1
  9
$SHADEDGE
 70
     3
  9
$SHADEDIF
 70
    70
  9
$TILEMODE
 70
     1
  9
$MAXACTVP
 70
    16
  9
$PINSBASE
 10
0.0
 20
0.0
 30
0.0
  9
$PLIMCHECK
 70
     0
  9
$PEXTMIN
 10
0.0
 20
0.0
 30
0.0
  9
$PEXTMAX
 10
420.0
 20
297.0
 30
0.0
  9
$PLIMMIN
 10
0.0
 20
0.0
  9
$PLIMMAX
 10
420.0
 20
297.0
  9
$UNITMODE
 70
     0
  9
$VISRETAIN
 70
     0
  9
$PLINEGEN
 70
     0
  9
$PSLTSCALE
 70
     1
  9
$TREEDEPTH
 70
  3020
  9
$PICKSTYLE
 70
     1
  9
$CMLSTYLE
  2
STANDARD
  9
$CMLJUST
 70
     0
  9
$CMLSCALE
 40
1.0
  9
$PROXYGRAPHICS
 70
     1
  9
$MEASUREMENT
 70
     0
  0
ENDSEC
  0
SECTION
  2
CLASSES
  0
CLASS
  1
ACDBDICTIONARYWDFLT
  2
AcDbDictionaryWithDefault
  3
AutoCAD 2000
 90
        0
280
     0
281
     0
  0
CLASS
  1
ACDBPLACEHOLDER
  2
AcDbPlaceHolder
  3
AutoCAD 2000
 90
        0
280
     0
281
     0
  0
CLASS
  1
LAYOUT
  2
AcDbLayout
  3
AutoCAD 2000
 90
        0
280
     0
281
     0
  0
CLASS
  1
LONG_TRANSACTION
  2
AcDbLongTransaction
  3
AutoCAD 2000
 90
        0
280
     0
281
     0
  0
CLASS
  1
LWPOLYLINE
  2
AcDbPolyline
  3
AutoCAD 2000
 90
        0
280
     0
281
     1
  0
CLASS
  1
HATCH
  2
AcDbHatch
  3
AutoCAD 2000
 90
        0
280
     0
281
     1
  0
CLASS
  1
XRECORD
  2
AcDbXrecord
  3
AutoCAD 2000
 90
        0
280
     0
281
     0
  0
CLASS
  1
LONG_TRANSACTION
  2
AcDbLongTransaction
  3
AutoCAD 2000
 90
        0
280
     0
281
     0
  0
CLASS
  1
LWPOLYLINE
  2
AcDbPolyline
  3
AutoCAD 2000
 90
        0
280
     0
281
     1
  0
CLASS
  1
HATCH
  2
AcDbHatch
  3
AutoCAD 2000
 90
        0
280
     0
281
     1
  0
CLASS
  1
XRECORD
  2
AcDbXrecord
  3
AutoCAD 2000
 90
        0
280
     0
281
     0
  0
CLASS
  1
DICTIONARYVAR
  2
AcDbDictionaryVar
  3
AutoCAD 2000
 90
        0
280
     0
281
     0
  0
CLASS
  1
LONG_TRANSACTION
  2
AcDbLongTransaction
  3
AutoCAD 2000
 90
        0
280
     0
281
     0
  0
CLASS
  1
LWPOLYLINE
  2
AcDbPolyline
  3
AutoCAD 2000
 90
        0
280
     0
281
     1
  0
CLASS
  1
HATCH
  2
AcDbHatch
  3
AutoCAD 2000
 90
        0
280
     0
281
     1
  0
CLASS
  1
XRECORD
  2
AcDbXrecord
  3
AutoCAD 2000
 90
        0
280
     0
281
     0
  0
CLASS
  1
LONG_TRANSACTION
  2
AcDbLongTransaction
  3
AutoCAD 2000
 90
        0
280
     0
281
     0
  0
CLASS
  1
LWPOLYLINE
  2
AcDbPolyline
  3
AutoCAD 2000
 90
        0
280
     0
281
     1
  0
CLASS
  1
HATCH
  2
AcDbHatch
  3
AutoCAD 2000
 90
        0
280
     0
281
     1
  0
CLASS
  1
XRECORD
  2
AcDbXrecord
  3
AutoCAD 2000
 90
        0
280
     0
281
     0
  0
CLASS
  1
LONG_TRANSACTION
  2
AcDbLongTransaction
  3
AutoCAD 2000
 90
        0
280
     0
281
     0
  0
CLASS
  1
LWPOLYLINE
  2
AcDbPolyline
  3
AutoCAD 2000
 90
        0
280
     0
281
     1
  0
CLASS
  1
HATCH
  2
AcDbHatch
  3
AutoCAD 2000
 90
        0
280
     0
281
     1
  0
CLASS
  1
XRECORD
  2
AcDbXrecord
  3
AutoCAD 2000
 90
        0
280
     0
281
     0
  0
CLASS
  1
LONG_TRANSACTION
  2
AcDbLongTransaction
  3
AutoCAD 2000
 90
        0
280
     0
281
     0
  0
CLASS
  1
LWPOLYLINE
  2
AcDbPolyline
  3
AutoCAD 2000
 90
        0
280
     0
281
     1
  0
CLASS
  1
HATCH
  2
AcDbHatch
  3
AutoCAD 2000
 90
        0
280
     0
281
     1
  0
CLASS
  1
XRECORD
  2
AcDbXrecord
  3
AutoCAD 2000
 90
        0
280
     0
281
     0
  0
CLASS
  1
LONG_TRANSACTION
  2
AcDbLongTransaction
  3
AutoCAD 2000
 90
        0
280
     0
281
     0
  0
CLASS
  1
LWPOLYLINE
  2
AcDbPolyline
  3
AutoCAD 2000
 90
        0
280
     0
281
     1
  0
CLASS
  1
HATCH
  2
AcDbHatch
  3
AutoCAD 2000
 90
        0
280
     0
281
     1
  0
CLASS
  1
XRECORD
  2
AcDbXrecord
  3
AutoCAD 2000
 90
        0
280
     0
281
     0
  0
CLASS
  1
LONG_TRANSACTION
  2
AcDbLongTransaction
  3
AutoCAD 2000
 90
        0
280
     0
281
     0
  0
CLASS
  1
LWPOLYLINE
  2
AcDbPolyline
  3
AutoCAD 2000
 90
        0
280
     0
281
     1
  0
CLASS
  1
HATCH
  2
AcDbHatch
  3
AutoCAD 2000
 90
        0
280
     0
281
     1
  0
CLASS
  1
XRECORD
  2
AcDbXrecord
  3
AutoCAD 2000
 90
        0
280
     0
281
     0
  0
CLASS
  1
LONG_TRANSACTION
  2
AcDbLongTransaction
  3
AutoCAD 2000
 90
        0
280
     0
281
     0
  0
CLASS
  1
LWPOLYLINE
  2
AcDbPolyline
  3
AutoCAD 2000
 90
        0
280
     0
281
     1
  0
CLASS
  1
HATCH
  2
AcDbHatch
  3
AutoCAD 2000
 90
        0
280
     0
281
     1
  0
CLASS
  1
XRECORD
  2
AcDbXrecord
  3
AutoCAD 2000
 90
        0
280
     0
281
     0
  0
CLASS
  1
LONG_TRANSACTION
  2
AcDbLongTransaction
  3
AutoCAD 2000
 90
        0
280
     0
281
     0
  0
CLASS
  1
LWPOLYLINE
  2
AcDbPolyline
  3
AutoCAD 2000
 90
        0
280
     0
281
     1
  0
CLASS
  1
HATCH
  2
AcDbHatch
  3
AutoCAD 2000
 90
        0
280
     0
281
     1
  0
CLASS
  1
XRECORD
  2
AcDbXrecord
  3
AutoCAD 2000
 90
        0
280
     0
281
     0
  0
CLASS
  1
LONG_TRANSACTION
  2
AcDbLongTransaction
  3
AutoCAD 2000
 90
        0
280
     0
281
     0
  0
CLASS
  1
LWPOLYLINE
  2
AcDbPolyline
  3
AutoCAD 2000
 90
        0
280
     0
281
     1
  0
CLASS
  1
HATCH
  2
AcDbHatch
  3
AutoCAD 2000
 90
        0
280
     0
281
     1
  0
CLASS
  1
XRECORD
  2
AcDbXrecord
  3
AutoCAD 2000
 90
        0
280
     0
281
     0
  0
CLASS
  1
LONG_TRANSACTION
  2
AcDbLongTransaction
  3
AutoCAD 2000
 90
        0
280
     0
281
     0
  0
CLASS
  1
LWPOLYLINE
  2
AcDbPolyline
  3
AutoCAD 2000
 90
        0
280
     0
281
     1
  0
CLASS
  1
HATCH
  2
AcDbHatch
  3
AutoCAD 2000
 90
        0
280
     0
281
     1
  0
CLASS
  1
XRECORD
  2
AcDbXrecord
  3
AutoCAD 2000
 90
        0
280
     0
281
     0
  0
ENDSEC
  0
SECTION
  2
TABLES
  0
TABLE
  2
VPORT
  5
8
330
0
100
AcDbSymbolTable
 70
     3
  0
VPORT
  5
2AFE
330
8
100
AcDbSymbolTableRecord
100
AcDbViewportTableRecord
  2
*ACTIVE
 70
     0
 10
0.0
 20
0.0
 11
1.0
 21
1.0
 12
231.4401476545008
 22
146.0085456180524
 13
0.0
 23
0.0
 14
5.0
 24
5.0
 15
0.0
 25
0.0
 16
0.0
 26
0.0
 36
1.0
 17
0.0
 27
0.0
 37
0.0
 40
332.8155932393288
 41
1.795454545454545
 42
50.0
 43
0.0
 44
0.0
 50
0.0
 51
0.0
 71
     0
 72
   100
 73
     1
 74
     0
 75
     0
 76
     0
 77
     0
 78
     0
  0
ENDTAB
  0
TABLE
  2
LTYPE
  5
5
330
0
100
AcDbSymbolTable
 70
     3
  0
LTYPE
  5
14
330
5
100
AcDbSymbolTableRecord
100
AcDbLinetypeTableRecord
  2
BYBLOCK
 70
     0
  3

 72
    65
 73
     0
 40
0.0
  0
LTYPE
  5
15
330
5
100
AcDbSymbolTableRecord
100
AcDbLinetypeTableRecord
  2
BYLAYER
 70
     0
  3

 72
    65
 73
     0
 40
0.0
  0
LTYPE
  5
16
330
5
100
AcDbSymbolTableRecord
100
AcDbLinetypeTableRecord
  2
CONTINUOUS
 70
     0
  3
Solid line
 72
    65
 73
     0
 40
0.0
  0
LTYPE
  5
120
330
5
100
AcDbSymbolTableRecord
100
AcDbLinetypeTableRecord
  2
CENTER
 70
     0
  3
____ _ ____ _ ____ _ ____ _ ____ _ ____ _ ____ 
 72
    65
 73
     4
 40
2.0
 49
1.25
 74
     0
 49
-0.25
 74
     0
 49
0.25
 74
     0
 49
-0.25
 74
     0
  0
LTYPE
  5
122
330
5
100
AcDbSymbolTableRecord
100
AcDbLinetypeTableRecord
  2
PHANTOM
 70
     0
  3
______  __  __  ______  __  __  ______  __  __ 
 72
    65
 73
     6
 40
2.5
 49
1.25
 74
     0
 49
-0.25
 74
     0
 49
0.25
 74
     0
 49
-0.25
 74
     0
 49
0.25
 74
     0
 49
-0.25
 74
     0
  0
ENDTAB
  0
TABLE
  2
LAYER
  5
2
330
0
100
AcDbSymbolTable
 70
     9
  0
LAYER
  5
F
330
2
100
AcDbSymbolTableRecord
100
AcDbLayerTableRecord
  2
0
 70
     0
 62
     7
  6
CONTINUOUS
  0
LAYER
  5
62
330
2
100
AcDbSymbolTableRecord
100
AcDbLayerTableRecord
  2
VIEWPORT
 70
     0
 62
     7
  6
CONTINUOUS
  0
LAYER
  5
6B
330
2
100
AcDbSymbolTableRecord
100
AcDbLayerTableRecord
  2
ZUWAKU
 70
     0
 62
     7
  6
CONTINUOUS
  0
LAYER
  5
3EF
330
2
100
AcDbSymbolTableRecord
100
AcDbLayerTableRecord
  2
DEFPOINTS
 70
     0
 62
     7
  6
CONTINUOUS
  0
LAYER
  5
54D
330
2
100
AcDbSymbolTableRecord
100
AcDbLayerTableRecord
  2
SEIHIN
 70
     0
 62
     3
  6
CONTINUOUS
  0
LAYER
  5
54E
330
2
100
AcDbSymbolTableRecord
100
AcDbLayerTableRecord
  2
SUNPOU
 70
     0
 62
     4
  6
CONTINUOUS
  0
LAYER
  5
54F
330
2
100
AcDbSymbolTableRecord
100
AcDbLayerTableRecord
  2
CENTER_L
 70
     0
 62
     1
  6
CENTER
  0
LAYER
  5
550
330
2
100
AcDbSymbolTableRecord
100
AcDbLayerTableRecord
  2
NOKITOI
 70
     0
 62
     8
  6
PHANTOM
  0
LAYER
  5
2988
330
2
100
AcDbSymbolTableRecord
100
AcDbLayerTableRecord
  2
MOJI
 70
     0
 62
     2
  6
CONTINUOUS
  0
ENDTAB
  0
TABLE
  2
STYLE
  5
3
330
0
100
AcDbSymbolTable
 70
     2
  0
STYLE
  5
10
330
3
100
AcDbSymbolTableRecord
100
AcDbTextStyleTableRecord
  2
STANDARD
 70
     0
 40
0.0
 41
1.0
 50
0.0
 71
     0
 42
3.0
  3
TXT
  4
c:\PROGRAM FILES\AUTOCAD LT\ms\bigfont.shx
  0
STYLE
  5
2989
330
3
100
AcDbSymbolTableRecord
100
AcDbTextStyleTableRecord
  2
ｽﾀｲﾙ1
 70
     0
 40
0.0
 41
1.0
 50
0.0
 71
     0
 42
2.5
  3
MS PGothic.ttf
  4

1001
ACAD
1000
MS PGothic
1071
    32818
  0
ENDTAB
  0
TABLE
  2
VIEW
  5
6
330
0
100
AcDbSymbolTable
 70
     0
  0
ENDTAB
  0
TABLE
  2
UCS
  5
7
330
0
100
AcDbSymbolTable
 70
     0
  0
ENDTAB
  0
TABLE
  2
APPID
  5
9
330
0
100
AcDbSymbolTable
 70
     1
  0
APPID
  5
11
330
9
100
AcDbSymbolTableRecord
100
AcDbRegAppTableRecord
  2
ACAD
 70
     0
  0
ENDTAB
  0
TABLE
  2
DIMSTYLE
  5
A
330
0
100
AcDbSymbolTable
 70
     1
  0
DIMSTYLE
105
1D
102
{ACAD_REACTORS
330
2140
330
2156
330
2163
330
21F1
330
24EF
330
2536
102
}
330
A
100
AcDbSymbolTableRecord
100
AcDbDimStyleTableRecord
  2
STANDARD
 70
     0
  3

  4

  5

  6

  7

 40
1.0
 41
0.18
 42
0.0625
 43
0.38
 44
0.18
 45
0.0
 46
0.0
 47
0.0
 48
0.0
140
0.18
141
0.09
142
0.0
143
25.4
144
1.0
145
0.0
146
1.0
147
0.09
 71
     0
 72
     0
 73
     1
 74
     1
 75
     0
 76
     0
 77
     0
 78
     0
170
     0
171
     2
172
     0
173
     0
174
     0
175
     0
176
     0
177
     0
178
     0
270
     2
271
     4
272
     4
273
     2
274
     2
340
10
275
     0
280
     0
281
     0
282
     0
283
     1
284
     0
285
     0
286
     0
287
     3
288
     0
  0
ENDTAB
  0
TABLE
  2
BLOCK_RECORD
  5
1
330
0
100
AcDbSymbolTable
 70
     7
  0
BLOCK_RECORD
  5
1A
102
{ACAD_XDICTIONARY
360
7A2
102
}
330
1
100
AcDbSymbolTableRecord
100
AcDbBlockTableRecord
  2
*MODEL_SPACE
  0
BLOCK_RECORD
  5
17
102
{ACAD_XDICTIONARY
360
7A0
102
}
330
1
100
AcDbSymbolTableRecord
100
AcDbBlockTableRecord
  2
*PAPER_SPACE
  0
BLOCK_RECORD
  5
B2
330
1
100
AcDbSymbolTableRecord
100
AcDbBlockTableRecord
  2
_OPEN
  0
BLOCK_RECORD
  5
2141
330
1
100
AcDbSymbolTableRecord
100
AcDbBlockTableRecord
  2
*D1
  0
BLOCK_RECORD
  5
2157
330
1
100
AcDbSymbolTableRecord
100
AcDbBlockTableRecord
  2
*D2
  0
BLOCK_RECORD
  5
2164
330
1
100
AcDbSymbolTableRecord
100
AcDbBlockTableRecord
  2
*D3
  0
BLOCK_RECORD
  5
21F2
330
1
100
AcDbSymbolTableRecord
100
AcDbBlockTableRecord
  2
*D4
  0
BLOCK_RECORD
  5
24F0
330
1
100
AcDbSymbolTableRecord
100
AcDbBlockTableRecord
  2
*D5
  0
BLOCK_RECORD
  5
2537
330
1
100
AcDbSymbolTableRecord
100
AcDbBlockTableRecord
  2
*D6
  0
ENDTAB
  0
ENDSEC
  0
SECTION
  2
BLOCKS
  0
BLOCK
  5
1B
330
1A
100
AcDbEntity
  8
0
100
AcDbBlockBegin
  2
*MODEL_SPACE
 70
     0
 10
0.0
 20
0.0
 30
0.0
  3
*MODEL_SPACE
  1

  0
ENDBLK
  5
1C
330
1A
100
AcDbEntity
  8
0
100
AcDbBlockEnd
  0
BLOCK
  5
18
330
17
100
AcDbEntity
 67
     1
  8
0
100
AcDbBlockBegin
  2
*PAPER_SPACE
 70
     0
 10
0.0
 20
0.0
 30
0.0
  3
*PAPER_SPACE
  1

  0
ENDBLK
  5
19
330
17
100
AcDbEntity
 67
     1
  8
0
100
AcDbBlockEnd
  0
BLOCK
  5
B3
330
B2
100
AcDbEntity
  8
0
100
AcDbBlockBegin
  2
_OPEN
 70
     0
 10
0.0
 20
0.0
 30
0.0
  3
_OPEN
  1

  0
LINE
  5
B4
330
B2
100
AcDbEntity
  8
0
  6
BYBLOCK
 62
     0
100
AcDbLine
 10
-1.0
 20
0.1666666666666666
 30
0.0
 11
0.0
 21
0.0
 31
0.0
  0
LINE
  5
B5
330
B2
100
AcDbEntity
  8
0
  6
BYBLOCK
 62
     0
100
AcDbLine
 10
0.0
 20
0.0
 30
0.0
 11
-1.0
 21
-0.1666666666666666
 31
0.0
  0
LINE
  5
B6
330
B2
100
AcDbEntity
  8
0
  6
BYBLOCK
 62
     0
100
AcDbLine
 10
0.0
 20
0.0
 30
0.0
 11
-1.0
 21
0.0
 31
0.0
  0
ENDBLK
  5
B7
330
B2
100
AcDbEntity
  8
0
100
AcDbBlockEnd
  0
BLOCK
  5
214B
330
2141
100
AcDbEntity
  8
0
100
AcDbBlockBegin
  2
*D1
 70
     1
 10
0.0
 20
0.0
 30
0.0
  3
*D1
  1

  0
LINE
  5
26BD
330
2141
100
AcDbEntity
  8
SUNPOU
100
AcDbLine
 10
101.3912977641989
 20
195.6713174136313
 30
0.0
 11
101.3912977641989
 21
215.1613841375192
 31
0.0
  0
LINE
  5
26BE
330
2141
100
AcDbEntity
  8
SUNPOU
100
AcDbLine
 10
224.7912977641989
 20
164.8826424136312
 30
0.0
 11
224.7912977641989
 21
215.1613841375192
 31
0.0
  0
LINE
  5
26BF
330
2141
100
AcDbEntity
  8
SUNPOU
100
AcDbLine
 10
104.3912977641989
 20
213.6613841375192
 30
0.0
 11
221.7912977641989
 21
213.6613841375192
 31
0.0
  0
INSERT
  5
26C0
330
2141
100
AcDbEntity
  8
SUNPOU
100
AcDbBlockReference
  2
_OPEN
 10
101.3912977641989
 20
213.6613841375192
 30
0.0
 41
3.0
 42
3.0
 43
3.0
 50
180.0
  0
INSERT
  5
26C1
330
2141
100
AcDbEntity
  8
SUNPOU
100
AcDbBlockReference
  2
_OPEN
 10
224.7912977641989
 20
213.6613841375192
 30
0.0
 41
3.0
 42
3.0
 43
3.0
  0
MTEXT
  5
26C2
330
2141
100
AcDbEntity
  8
SUNPOU
100
AcDbMText
 10
163.0912977641989
 20
216.1613841375192
 30
0.0
 40
3.0
 41
0.0
 71
     5
 72
     5
  1
\A1;123
1001
ACAD
1000
MTEXTBEGIN
1070
    73
1070
     1
1070
    44
1040
1.0
1070
    74
1070
     0
1000
MTEXTEND
1000
MTEXTBEGIN
1070
    73
1070
     1
1070
    44
1040
1.0
1070
    74
1070
     0
1000
MTEXTEND
1000
MTEXTBEGIN
1070
    73
1070
     1
1070
    44
1040
1.0
1070
    74
1070
     0
1000
MTEXTEND
1000
MTEXTBEGIN
1070
    73
1070
     1
1070
    44
1040
1.0
1070
    74
1070
     0
1000
MTEXTEND
1000
MTEXTBEGIN
1070
    73
1070
     1
1070
    44
1040
1.0
1070
    74
1070
     0
1000
MTEXTEND
  0
POINT
  5
26C3
330
2141
100
AcDbEntity
  8
DEFPOINTS
 62
     0
100
AcDbPoint
 10
101.3912977641989
 20
192.6713174136313
 30
0.0
  0
POINT
  5
26C4
330
2141
100
AcDbEntity
  8
DEFPOINTS
 62
     0
100
AcDbPoint
 10
224.7912977641989
 20
161.8826424136312
 30
0.0
  0
POINT
  5
26C5
330
2141
100
AcDbEntity
  8
DEFPOINTS
 62
     0
100
AcDbPoint
 10
224.7912977641989
 20
213.6613841375192
 30
0.0
  0
ENDBLK
  5
214C
330
2141
100
AcDbEntity
  8
0
100
AcDbBlockEnd
  0
BLOCK
  5
2161
330
2157
100
AcDbEntity
  8
0
100
AcDbBlockBegin
  2
*D2
 70
     1
 10
0.0
 20
0.0
 30
0.0
  3
*D2
  1

  0
LINE
  5
26B4
330
2157
100
AcDbEntity
  8
SUNPOU
100
AcDbLine
 10
98.39129776419895
 20
192.6713174136313
 30
0.0
 11
75.23681234219477
 21
192.6713174136313
 31
0.0
  0
LINE
  5
26B5
330
2157
100
AcDbEntity
  8
SUNPOU
100
AcDbLine
 10
161.0912977641988
 20
106.8712958061145
 30
0.0
 11
75.23681234219475
 21
106.8712958061145
 31
0.0
  0
LINE
  5
26B6
330
2157
100
AcDbEntity
  8
SUNPOU
100
AcDbLine
 10
76.73681234219476
 20
189.6713174136313
 30
0.0
 11
76.73681234219476
 21
109.8712958061145
 31
0.0
  0
INSERT
  5
26B7
330
2157
100
AcDbEntity
  8
SUNPOU
100
AcDbBlockReference
  2
_OPEN
 10
76.73681234219476
 20
192.6713174136313
 30
0.0
 41
3.0
 42
3.0
 43
3.0
 50
90.0
  0
INSERT
  5
26B8
330
2157
100
AcDbEntity
  8
SUNPOU
100
AcDbBlockReference
  2
_OPEN
 10
76.73681234219476
 20
106.8712958061145
 30
0.0
 41
3.0
 42
3.0
 43
3.0
 50
270.0
  0
MTEXT
  5
26B9
330
2157
100
AcDbEntity
  8
SUNPOU
100
AcDbMText
 10
74.23681234219474
 20
149.7713066098729
 30
0.0
 40
3.0
 41
0.0
 71
     5
 72
     5
  1
\A1;86
 11
0.0000000000000001
 21
1.0
 31
0.0
1001
ACAD
1000
MTEXTBEGIN
1070
    73
1070
     1
1070
    44
1040
1.0
1070
    74
1070
     0
1000
MTEXTEND
1000
MTEXTBEGIN
1070
    73
1070
     1
1070
    44
1040
1.0
1070
    74
1070
     0
1000
MTEXTEND
1000
MTEXTBEGIN
1070
    73
1070
     1
1070
    44
1040
1.0
1070
    74
1070
     0
1000
MTEXTEND
1000
MTEXTBEGIN
1070
    73
1070
     1
1070
    44
1040
1.0
1070
    74
1070
     0
1000
MTEXTEND
1000
MTEXTBEGIN
1070
    73
1070
     1
1070
    44
1040
1.0
1070
    74
1070
     0
1000
MTEXTEND
  0
POINT
  5
26BA
330
2157
100
AcDbEntity
  8
DEFPOINTS
 62
     0
100
AcDbPoint
 10
101.3912977641989
 20
192.6713174136313
 30
0.0
  0
POINT
  5
26BB
330
2157
100
AcDbEntity
  8
DEFPOINTS
 62
     0
100
AcDbPoint
 10
164.0912977641988
 20
106.8712958061145
 30
0.0
  0
POINT
  5
26BC
330
2157
100
AcDbEntity
  8
DEFPOINTS
 62
     0
100
AcDbPoint
 10
76.73681234219476
 20
106.8712958061145
 30
0.0
  0
ENDBLK
  5
2162
330
2157
100
AcDbEntity
  8
0
100
AcDbBlockEnd
  0
BLOCK
  5
216E
330
2164
100
AcDbEntity
  8
0
100
AcDbBlockBegin
  2
*D3
 70
     1
 10
0.0
 20
0.0
 30
0.0
  3
*D3
  1

  0
LINE
  5
2B22
330
2164
100
AcDbEntity
  8
SUNPOU
100
AcDbLine
 10
161.0912977641988
 20
106.8712958061145
 30
0.0
 11
75.23681234219475
 21
106.8712958061145
 31
0.0
  0
LINE
  5
2B23
330
2164
100
AcDbEntity
  8
SUNPOU
100
AcDbLine
 10
163.9918977641989
 20
57.47135541363128
 30
0.0
 11
75.23681234219473
 21
57.47135541363132
 31
0.0
  0
LINE
  5
2B24
330
2164
100
AcDbEntity
  8
SUNPOU
100
AcDbLine
 10
76.73681234219476
 20
103.8712958061145
 30
0.0
 11
76.73681234219474
 21
60.47135541363132
 31
0.0
  0
INSERT
  5
2B25
330
2164
100
AcDbEntity
  8
SUNPOU
100
AcDbBlockReference
  2
_OPEN
 10
76.73681234219476
 20
106.8712958061145
 30
0.0
 41
3.0
 42
3.0
 43
3.0
 50
90.0
  0
INSERT
  5
2B26
330
2164
100
AcDbEntity
  8
SUNPOU
100
AcDbBlockReference
  2
_OPEN
 10
76.73681234219474
 20
57.47135541363132
 30
0.0
 41
3.0
 42
3.0
 43
3.0
 50
270.0
  0
MTEXT
  5
2B27
330
2164
100
AcDbEntity
  8
SUNPOU
100
AcDbMText
 10
74.23681234219472
 20
82.17132560987295
 30
0.0
 40
3.0
 41
0.0
 71
     5
 72
     1
  1
\A1;H
 11
0.0000000000000001
 21
1.0
 31
0.0
  0
POINT
  5
2B28
330
2164
100
AcDbEntity
  8
DEFPOINTS
 62
     0
100
AcDbPoint
 10
164.0912977641988
 20
106.8712958061145
 30
0.0
  0
POINT
  5
2B29
330
2164
100
AcDbEntity
  8
DEFPOINTS
 62
     0
100
AcDbPoint
 10
166.9918977641989
 20
57.47135541363128
 30
0.0
  0
POINT
  5
2B2A
330
2164
100
AcDbEntity
  8
DEFPOINTS
 62
     0
100
AcDbPoint
 10
76.73681234219474
 20
57.47135541363132
 30
0.0
  0
ENDBLK
  5
216F
330
2164
100
AcDbEntity
  8
0
100
AcDbBlockEnd
  0
BLOCK
  5
21FC
330
21F2
100
AcDbEntity
  8
0
100
AcDbBlockBegin
  2
*D4
 70
     1
 10
0.0
 20
0.0
 30
0.0
  3
*D4
  1

  0
LINE
  5
26C6
330
21F2
100
AcDbEntity
  8
SUNPOU
100
AcDbLine
 10
98.39129776419895
 20
254.8367602931369
 30
0.0
 11
75.23681234219478
 21
254.8367602931369
 31
0.0
  0
LINE
  5
26C7
330
21F2
100
AcDbEntity
  8
SUNPOU
100
AcDbLine
 10
98.39129776419895
 20
232.8367602931369
 30
0.0
 11
75.23681234219478
 21
232.8367602931369
 31
0.0
  0
LINE
  5
26C8
330
21F2
100
AcDbEntity
  8
SUNPOU
100
AcDbLine
 10
76.73681234219478
 20
251.8367602931369
 30
0.0
 11
76.73681234219478
 21
235.8367602931369
 31
0.0
  0
INSERT
  5
26C9
330
21F2
100
AcDbEntity
  8
SUNPOU
100
AcDbBlockReference
  2
_OPEN
 10
76.73681234219478
 20
254.8367602931369
 30
0.0
 41
3.0
 42
3.0
 43
3.0
 50
90.0
  0
INSERT
  5
26CA
330
21F2
100
AcDbEntity
  8
SUNPOU
100
AcDbBlockReference
  2
_OPEN
 10
76.73681234219478
 20
232.8367602931369
 30
0.0
 41
3.0
 42
3.0
 43
3.0
 50
270.0
  0
MTEXT
  5
26CB
330
21F2
100
AcDbEntity
  8
SUNPOU
100
AcDbMText
 10
74.23681234219474
 20
243.8367602931369
 30
0.0
 40
3.0
 41
0.0
 71
     5
 72
     5
  1
\A1;22
 11
0.0000000000000001
 21
1.0
 31
0.0
1001
ACAD
1000
MTEXTBEGIN
1070
    73
1070
     1
1070
    44
1040
1.0
1070
    74
1070
     0
1000
MTEXTEND
1000
MTEXTBEGIN
1070
    73
1070
     1
1070
    44
1040
1.0
1070
    74
1070
     0
1000
MTEXTEND
1000
MTEXTBEGIN
1070
    73
1070
     1
1070
    44
1040
1.0
1070
    74
1070
     0
1000
MTEXTEND
1000
MTEXTBEGIN
1070
    73
1070
     1
1070
    44
1040
1.0
1070
    74
1070
     0
1000
MTEXTEND
1000
MTEXTBEGIN
1070
    73
1070
     1
1070
    44
1040
1.0
1070
    74
1070
     0
1000
MTEXTEND
  0
POINT
  5
26CC
330
21F2
100
AcDbEntity
  8
DEFPOINTS
 62
     0
100
AcDbPoint
 10
101.3912977641989
 20
254.8367602931369
 30
0.0
  0
POINT
  5
26CD
330
21F2
100
AcDbEntity
  8
DEFPOINTS
 62
     0
100
AcDbPoint
 10
101.3912977641989
 20
232.8367602931369
 30
0.0
  0
POINT
  5
26CE
330
21F2
100
AcDbEntity
  8
DEFPOINTS
 62
     0
100
AcDbPoint
 10
76.73681234219478
 20
232.8367602931369
 30
0.0
  0
ENDBLK
  5
21FD
330
21F2
100
AcDbEntity
  8
0
100
AcDbBlockEnd
  0
BLOCK
  5
24FC
330
24F0
100
AcDbEntity
  8
0
100
AcDbBlockBegin
  2
*D5
 70
     1
 10
0.0
 20
0.0
 30
0.0
  3
*D5
  1

  0
LINE
  5
26D8
330
24F0
100
AcDbEntity
  8
SUNPOU
100
AcDbLine
 10
296.0372340070899
 20
114.397861945485
 30
0.0
 11
327.1422575052369
 21
126.9651074151264
 31
0.0
  0
LINE
  5
26D9
330
24F0
100
AcDbEntity
  8
SUNPOU
100
AcDbLine
 10
298.09757030709
 20
109.298350745485
 30
0.0
 11
329.202593805237
 21
121.8655962151264
 31
0.0
  0
LINE
  5
26DA
330
24F0
100
AcDbEntity
  8
SUNPOU
100
AcDbLine
 10
324.6276619295711
 20
129.1847490733321
 30
0.0
 11
323.5038421323207
 21
131.9663006301629
 31
0.0
  0
LINE
  5
26DB
330
24F0
100
AcDbEntity
  8
SUNPOU
100
AcDbLine
 10
328.9356378240719
 20
118.5221347596704
 30
0.0
 11
334.1801302112405
 21
105.5415608277932
 31
0.0
  0
LINE
  5
26DC
330
24F0
100
AcDbEntity
  8
SUNPOU
100
AcDbLine
 10
325.7514817268215
 20
126.4031975165012
 30
0.0
 11
327.8118180268215
 21
121.3036863165012
 31
0.0
  0
INSERT
  5
26DD
330
24F0
100
AcDbEntity
  8
SUNPOU
100
AcDbBlockReference
  2
_OPEN
 10
325.7514817268215
 20
126.4031975165012
 30
0.0
 41
3.0
 42
3.0
 43
3.0
 50
292.0000003502293
  0
INSERT
  5
26DE
330
24F0
100
AcDbEntity
  8
SUNPOU
100
AcDbBlockReference
  2
_OPEN
 10
327.8118180268215
 20
121.3036863165012
 30
0.0
 41
3.0
 42
3.0
 43
3.0
 50
112.0000003502292
  0
MTEXT
  5
26DF
330
24F0
100
AcDbEntity
  8
SUNPOU
100
AcDbMText
 10
334.4377535469738
 20
111.577588513025
 30
0.0
 40
3.0
 41
0.0
 71
     5
 72
     5
  1
\A1;φ5.5
 11
0.3746065990834662
 21
-0.9271838522769469
 31
0.0
1001
ACAD
1000
MTEXTBEGIN
1070
    73
1070
     1
1070
    44
1040
1.0
1070
    74
1070
     0
1000
MTEXTEND
1000
MTEXTBEGIN
1070
    73
1070
     1
1070
    44
1040
1.0
1070
    74
1070
     0
1000
MTEXTEND
1000
MTEXTBEGIN
1070
    73
1070
     1
1070
    44
1040
1.0
1070
    74
1070
     0
1000
MTEXTEND
1000
MTEXTBEGIN
1070
    73
1070
     1
1070
    44
1040
1.0
1070
    74
1070
     0
1000
MTEXTEND
1000
MTEXTBEGIN
1070
    73
1070
     1
1070
    44
1040
1.0
1070
    74
1070
     0
1000
MTEXTEND
  0
POINT
  5
26E0
330
24F0
100
AcDbEntity
  8
DEFPOINTS
 62
     0
100
AcDbPoint
 10
293.2556824502591
 20
113.2740421482346
 30
0.0
  0
POINT
  5
26E1
330
24F0
100
AcDbEntity
  8
DEFPOINTS
 62
     0
100
AcDbPoint
 10
295.3160187502591
 20
108.1745309482346
 30
0.0
  0
POINT
  5
26E2
330
24F0
100
AcDbEntity
  8
DEFPOINTS
 62
     0
100
AcDbPoint
 10
327.8118180268215
 20
121.3036863165012
 30
0.0
  0
ENDBLK
  5
24FD
330
24F0
100
AcDbEntity
  8
0
100
AcDbBlockEnd
  0
BLOCK
  5
2541
330
2537
100
AcDbEntity
  8
0
100
AcDbBlockBegin
  2
*D6
 70
     1
 10
0.0
 20
0.0
 30
0.0
  3
*D6
  1

  0
LINE
  5
26CF
330
2537
100
AcDbEntity
  8
SUNPOU
100
AcDbLine
 10
165.1956755390115
 20
56.46213597988193
 30
0.0
 11
173.1300495255761
 21
36.42228126619325
 31
0.0
  0
LINE
  5
26D0
330
2537
100
AcDbEntity
  8
SUNPOU
100
AcDbLine
 10
304.6620669250717
 20
111.6810247205134
 30
0.0
 11
312.5964409116363
 21
91.64117000682475
 31
0.0
  0
LINE
  5
26D1
330
2537
100
AcDbEntity
  8
SUNPOU
100
AcDbLine
 10
175.3671884658909
 20
38.92132295486646
 30
0.0
 11
309.2549241965088
 21
91.93145614587271
 31
0.0
  0
INSERT
  5
26D2
330
2537
100
AcDbEntity
  8
SUNPOU
100
AcDbBlockReference
  2
_OPEN
 10
172.5778606381697
 20
37.81694518005385
 30
0.0
 41
3.0
 42
3.0
 43
3.0
 50
201.6000845626037
  0
INSERT
  5
26D3
330
2537
100
AcDbEntity
  8
SUNPOU
100
AcDbBlockReference
  2
_OPEN
 10
312.04425202423
 20
93.03583392068535
 30
0.0
 41
3.0
 42
3.0
 43
3.0
 50
21.60008456260379
  0
MTEXT
  5
26D4
330
2537
100
AcDbEntity
  8
SUNPOU
100
AcDbMText
 10
241.390741518856
 20
67.75082940680395
 30
0.0
 40
3.0
 41
0.0
 71
     5
 72
     5
  1
\A1;150
 11
0.9297759425737353
 21
0.3681259249375435
 31
0.0
1001
ACAD
1000
MTEXTBEGIN
1070
    73
1070
     1
1070
    44
1040
1.0
1070
    74
1070
     0
1000
MTEXTEND
1000
MTEXTBEGIN
1070
    73
1070
     1
1070
    44
1040
1.0
1070
    74
1070
     0
1000
MTEXTEND
1000
MTEXTBEGIN
1070
    73
1070
     1
1070
    44
1040
1.0
1070
    74
1070
     0
1000
MTEXTEND
1000
MTEXTBEGIN
1070
    73
1070
     1
1070
    44
1040
1.0
1070
    74
1070
     0
1000
MTEXTEND
1000
MTEXTBEGIN
1070
    73
1070
     1
1070
    44
1040
1.0
1070
    74
1070
     0
1000
MTEXTEND
  0
POINT
  5
26D5
330
2537
100
AcDbEntity
  8
DEFPOINTS
 62
     0
100
AcDbPoint
 10
164.0912977641988
 20
59.25146380760314
 30
0.0
  0
POINT
  5
26D6
330
2537
100
AcDbEntity
  8
DEFPOINTS
 62
     0
100
AcDbPoint
 10
303.557689150259
 20
114.4703525482346
 30
0.0
  0
POINT
  5
26D7
330
2537
100
AcDbEntity
  8
DEFPOINTS
 62
     0
100
AcDbPoint
 10
312.04425202423
 20
93.03583392068535
 30
0.0
  0
ENDBLK
  5
2542
330
2537
100
AcDbEntity
  8
0
100
AcDbBlockEnd
  0
ENDSEC
  0
SECTION
  2
ENTITIES
  0
ARC
  5
5A7
330
1A
100
AcDbEntity
  8
NOKITOI
  6
PHANTOM
 62
     8
100
AcDbCircle
 10
154.4047613988472
 20
149.8713318900014
 30
0.0
 40
43.00001447645168
100
AcDbArc
 50
186.5249107071177
 51
269.9998883751437
  0
ARC
  5
5A8
330
1A
100
AcDbEntity
  8
NOKITOI
  6
PHANTOM
 62
     8
100
AcDbCircle
 10
154.4047837072725
 20
149.871311788975
 30
0.0
 40
41.79999437547816
100
AcDbArc
 50
184.4742952125247
 51
269.999854592109
  0
LINE
  5
5A9
330
1A
100
AcDbEntity
  8
NOKITOI
  6
PHANTOM
 62
     8
100
AcDbLine
 10
104.1937776253043
 20
149.0089174136313
 30
0.0
 11
104.1082776253046
 21
151.7464174136312
 31
0.0
  0
LINE
  5
5AA
330
1A
100
AcDbEntity
  8
NOKITOI
  6
PHANTOM
 62
     8
100
AcDbLine
 10
102.6556776253046
 20
159.8088174136313
 30
0.0
 11
103.0458776253044
 21
147.3245174136312
 31
0.0
  0
LINE
  5
5AB
330
1A
100
AcDbEntity
  8
NOKITOI
  6
PHANTOM
 62
     8
100
AcDbLine
 10
112.233677625305
 20
147.0713174136313
 30
0.0
 11
106.1927776253046
 21
147.0713174136313
 31
0.0
  0
ARC
  5
5AC
330
1A
100
AcDbEntity
  8
NOKITOI
  6
PHANTOM
 62
     8
100
AcDbCircle
 10
110.689769201142
 20
144.8713249286878
 30
0.0
 40
0.9999924849789756
100
AcDbArc
 50
6.528264606673934
 51
89.99951732740965
  0
LINE
  5
5AD
330
1A
100
AcDbEntity
  8
NOKITOI
  6
PHANTOM
 62
     8
100
AcDbLine
 10
104.5450776253046
 20
145.8713174136313
 30
0.0
 11
110.6897776253044
 21
145.8713174136313
 31
0.0
  0
ARC
  5
5AE
330
1A
100
AcDbEntity
  8
NOKITOI
  6
PHANTOM
 62
     8
100
AcDbCircle
 10
106.192791197443
 20
149.0713042585449
 30
0.0
 40
1.999986844959662
100
AcDbArc
 50
181.7875531852356
 51
269.9996111843215
  0
ARC
  5
5AF
330
1A
100
AcDbEntity
  8
NOKITOI
  6
PHANTOM
 62
     8
100
AcDbCircle
 10
104.5451135844554
 20
147.3712825594881
 30
0.0
 40
1.499965146287778
100
AcDbArc
 50
181.7866280217767
 51
269.9986264296971
  0
ARC
  5
5B0
330
1A
100
AcDbEntity
  8
NOKITOI
  6
PHANTOM
 62
     8
100
AcDbCircle
 10
112.2336901950129
 20
146.5713057889016
 30
0.0
 40
0.5000116248877111
100
AcDbArc
 50
4.474846808342103
 51
90.00144034898383
  0
ARC
  5
5B1
330
1A
100
AcDbEntity
  8
NOKITOI
  6
PHANTOM
 62
     8
100
AcDbCircle
 10
104.6546903761545
 20
159.8713305687177
 30
0.0
 40
1.999986844954076
100
AcDbArc
 50
90.00036528735451
 51
181.7883072882703
  0
LINE
  5
5B2
330
1A
100
AcDbEntity
  8
NOKITOI
  6
PHANTOM
 62
     8
100
AcDbLine
 10
110.9325776253044
 20
159.3713174136313
 30
0.0
 11
108.7010776253045
 21
159.3713174136313
 31
0.0
  0
ARC
  5
5B3
330
1A
100
AcDbEntity
  8
NOKITOI
  6
PHANTOM
 62
     8
100
AcDbCircle
 10
110.6167707383096
 20
152.8713108785458
 30
0.0
 40
0.499993464961963
100
AcDbArc
 50
270.0007892017869
 51
356.997036131742
  0
LINE
  5
5B4
330
1A
100
AcDbEntity
  8
NOKITOI
  6
PHANTOM
 62
     8
100
AcDbLine
 10
109.9526776253046
 20
153.5713174136313
 30
0.0
 11
110.1338776253046
 21
157.0128174136314
 31
0.0
  0
LINE
  5
5B5
330
1A
100
AcDbEntity
  8
NOKITOI
  6
PHANTOM
 62
     8
100
AcDbLine
 10
109.5788776253047
 20
156.3997174136312
 30
0.0
 11
110.1338776253046
 21
157.0128174136314
 31
0.0
  0
ARC
  5
5B6
330
1A
100
AcDbEntity
  8
NOKITOI
  6
PHANTOM
 62
     8
100
AcDbCircle
 10
108.1063978379738
 20
151.8713761420113
 30
0.0
 40
5.2000412730095
100
AcDbArc
 50
90.0013245430618
 51
142.0757990790548
  0
LINE
  5
5B7
330
1A
100
AcDbEntity
  8
NOKITOI
  6
PHANTOM
 62
     8
100
AcDbLine
 10
103.855077625305
 20
159.8463174136312
 30
0.0
 11
104.0044776253043
 21
155.0674174136314
 31
0.0
  0
ARC
  5
5B8
330
1A
100
AcDbEntity
  8
NOKITOI
  6
PHANTOM
 62
     8
100
AcDbCircle
 10
108.1063155067513
 20
151.8713611961566
 30
0.0
 40
3.999989731271038
100
AcDbArc
 50
96.47731142013116
 51
181.7899836067311
  0
ARC
  5
5B9
330
1A
100
AcDbEntity
  8
NOKITOI
  6
PHANTOM
 62
     8
100
AcDbCircle
 10
107.71149184372
 20
155.3490027793303
 30
0.0
 40
0.5000073448410256
100
AcDbArc
 50
351.872947864124
 51
96.47829282996921
  0
LINE
  5
5BA
330
1A
100
AcDbEntity
  8
NOKITOI
  6
PHANTOM
 62
     8
100
AcDbLine
 10
109.174777625305
 20
153.5713174136313
 30
0.0
 11
109.5788776253047
 21
156.3997174136312
 31
0.0
  0
LINE
  5
5BB
330
1A
100
AcDbEntity
  8
NOKITOI
  6
PHANTOM
 62
     8
100
AcDbLine
 10
109.9526776253046
 20
153.5713174136313
 30
0.0
 11
109.174777625305
 21
153.5713174136313
 31
0.0
  0
ARC
  5
5BC
330
1A
100
AcDbEntity
  8
NOKITOI
  6
PHANTOM
 62
     8
100
AcDbCircle
 10
108.3677042259023
 20
152.8712867367492
 30
0.0
 40
0.4999693238254178
100
AcDbArc
 50
171.8555038770531
 51
269.9969516090356
  0
LINE
  5
5BD
330
1A
100
AcDbEntity
  8
NOKITOI
  6
PHANTOM
 62
     8
100
AcDbLine
 10
110.6167776253045
 20
152.3713174136313
 30
0.0
 11
108.3676776253045
 21
152.3713174136313
 31
0.0
  0
LINE
  5
5BE
330
1A
100
AcDbEntity
  8
NOKITOI
  6
PHANTOM
 62
     8
100
AcDbLine
 10
107.8727776253044
 20
152.9421174136315
 30
0.0
 11
108.2064776253045
 21
155.2783174136314
 31
0.0
  0
LINE
  5
5BF
330
1A
100
AcDbEntity
  8
NOKITOI
  6
PHANTOM
 62
     8
100
AcDbLine
 10
107.1274776253048
 20
160.6713174136315
 30
0.0
 11
106.6274776253048
 21
158.1713174136315
 31
0.0
  0
LINE
  5
5C0
330
1A
100
AcDbEntity
  8
NOKITOI
  6
PHANTOM
 62
     8
100
AcDbLine
 10
106.6274776253048
 20
158.1713174136315
 30
0.0
 11
109.5639776253046
 21
158.1713174136315
 31
0.0
  0
LINE
  5
5C1
330
1A
100
AcDbEntity
  8
NOKITOI
  6
PHANTOM
 62
     8
100
AcDbLine
 10
104.6546776253044
 20
161.8713174136313
 30
0.0
 11
107.9812776253047
 21
161.8713174136313
 31
0.0
  0
LINE
  5
5C2
330
1A
100
AcDbEntity
  8
NOKITOI
  6
PHANTOM
 62
     8
100
AcDbLine
 10
104.6546776253044
 20
160.6713174136315
 30
0.0
 11
107.1274776253048
 21
160.6713174136315
 31
0.0
  0
ARC
  5
5C3
330
1A
100
AcDbEntity
  8
NOKITOI
  6
PHANTOM
 62
     8
100
AcDbCircle
 10
104.6546821201027
 20
159.8713220511582
 30
0.0
 40
0.7999953624857498
100
AcDbArc
 50
90.00032191805264
 51
181.7911273464193
  0
ARC
  5
5C4
330
1A
100
AcDbEntity
  8
NOKITOI
  6
PHANTOM
 62
     8
100
AcDbCircle
 10
107.9812768422961
 20
161.371318368633
 30
0.0
 40
0.4999990449987349
100
AcDbArc
 50
348.6967198015447
 51
89.99991027369492
  0
ARC
  5
5C5
330
1A
100
AcDbEntity
  8
NOKITOI
  6
PHANTOM
 62
     8
100
AcDbCircle
 10
108.7010703707491
 20
159.8713262634747
 30
0.0
 40
0.5000088498959383
100
AcDbArc
 50
168.6864043304892
 51
270.0008312961442
  0
LINE
  5
5C6
330
1A
100
AcDbEntity
  8
NOKITOI
  6
PHANTOM
 62
     8
100
AcDbLine
 10
108.2107776253046
 20
159.9694174136312
 30
0.0
 11
108.4715776253046
 21
161.2733174136313
 31
0.0
  0
LINE
  5
5C7
330
1A
100
AcDbEntity
  8
NOKITOI
  6
PHANTOM
 62
     8
100
AcDbLine
 10
108.5681776253049
 20
157.0713174136313
 30
0.0
 11
108.1062776253047
 21
157.0713174136313
 31
0.0
  0
LINE
  5
5C8
330
1A
100
AcDbEntity
  8
NOKITOI
  6
PHANTOM
 62
     8
100
AcDbLine
 10
108.5681776253049
 20
157.0713174136313
 30
0.0
 11
109.5639776253046
 21
158.1713174136315
 31
0.0
  0
LINE
  5
5C9
330
1A
100
AcDbEntity
  8
NOKITOI
  6
PHANTOM
 62
     8
100
AcDbLine
 10
111.1161776253047
 20
152.8451174136312
 30
0.0
 11
111.4319776253045
 21
158.8450174136313
 31
0.0
  0
ARC
  5
5CA
330
1A
100
AcDbEntity
  8
NOKITOI
  6
PHANTOM
 62
     8
100
AcDbCircle
 10
110.9325714241467
 20
158.8713239487165
 30
0.0
 40
0.4999934649531607
100
AcDbArc
 50
356.9955363203376
 51
89.99928939038076
  0
LINE
  5
5CB
330
1A
100
AcDbEntity
  8
NOKITOI
  6
PHANTOM
 62
     8
100
AcDbLine
 10
195.2341776253046
 20
106.8712174136313
 30
0.0
 11
175.0762776253049
 21
106.8712174136313
 31
0.0
  0
LINE
  5
5CC
330
1A
100
AcDbEntity
  8
NOKITOI
  6
PHANTOM
 62
     8
100
AcDbLine
 10
194.9843776253046
 20
108.0712174136313
 30
0.0
 11
175.0762776253049
 21
108.0712174136313
 31
0.0
  0
LINE
  5
5CD
330
1A
100
AcDbEntity
  8
NOKITOI
  6
PHANTOM
 62
     8
100
AcDbLine
 10
199.2341776253046
 20
106.8712174136313
 30
0.0
 11
154.4047776253045
 21
106.8713174136313
 31
0.0
  0
LINE
  5
5CE
330
1A
100
AcDbEntity
  8
NOKITOI
  6
PHANTOM
 62
     8
100
AcDbLine
 10
154.4047776253045
 20
108.0713174136313
 30
0.0
 11
198.9843776253046
 21
108.0712174136313
 31
0.0
  0
LINE
  5
5CF
330
1A
100
AcDbEntity
  8
NOKITOI
  6
PHANTOM
 62
     8
100
AcDbLine
 10
220.9886776253046
 20
149.0087174136314
 30
0.0
 11
221.0741776253043
 21
151.7463174136313
 31
0.0
  0
LINE
  5
5D0
330
1A
100
AcDbEntity
  8
NOKITOI
  6
PHANTOM
 62
     8
100
AcDbLine
 10
222.5266776253047
 20
159.8088174136313
 30
0.0
 11
222.1365776253046
 21
147.3244174136312
 31
0.0
  0
LINE
  5
5D1
330
1A
100
AcDbEntity
  8
NOKITOI
  6
PHANTOM
 62
     8
100
AcDbLine
 10
220.6372776253046
 20
145.8713174136313
 30
0.0
 11
214.4961776253048
 21
145.8713174136313
 31
0.0
  0
LINE
  5
5D2
330
1A
100
AcDbEntity
  8
NOKITOI
  6
PHANTOM
 62
     8
100
AcDbLine
 10
212.9576776253042
 20
147.0713174136313
 30
0.0
 11
218.9895776253047
 21
147.0713174136313
 31
0.0
  0
LINE
  5
5D3
330
1A
100
AcDbEntity
  8
NOKITOI
  6
PHANTOM
 62
     8
100
AcDbLine
 10
213.5011776253049
 20
144.9708174136313
 30
0.0
 11
210.6323776253047
 21
116.2834174136313
 31
0.0
  0
LINE
  5
5D4
330
1A
100
AcDbEntity
  8
NOKITOI
  6
PHANTOM
 62
     8
100
AcDbLine
 10
212.4601776253047
 20
146.6211174136313
 30
0.0
 11
209.4671776253044
 21
116.6913174136312
 31
0.0
  0
LINE
  5
5D5
330
1A
100
AcDbEntity
  8
NOKITOI
  6
PHANTOM
 62
     8
100
AcDbLine
 10
210.2705776253046
 20
115.6089174136314
 30
0.0
 11
199.8674776253046
 21
107.0972174136314
 31
0.0
  0
LINE
  5
5D6
330
1A
100
AcDbEntity
  8
NOKITOI
  6
PHANTOM
 62
     8
100
AcDbLine
 10
209.286277625305
 20
116.3540174136313
 30
0.0
 11
199.3009776253047
 21
108.1842174136312
 31
0.0
  0
ARC
  5
5D7
330
1A
100
AcDbEntity
  8
NOKITOI
  6
PHANTOM
 62
     8
100
AcDbCircle
 10
199.2341706927272
 20
107.8712149386252
 30
0.0
 40
0.9999975250179316
100
AcDbArc
 50
270.0003972084035
 51
309.2946416752299
  0
ARC
  5
5D8
330
1A
100
AcDbEntity
  8
NOKITOI
  6
PHANTOM
 62
     8
100
AcDbCircle
 10
198.9843840130533
 20
108.5712196936209
 30
0.0
 40
0.5000022800304047
100
AcDbArc
 50
269.9992680212791
 51
309.2854498596061
  0
ARC
  5
5D9
330
1A
100
AcDbEntity
  8
NOKITOI
  6
PHANTOM
 62
     8
100
AcDbCircle
 10
209.6373550524358
 20
116.3828753419587
 30
0.0
 40
0.9999908507640039
100
AcDbArc
 50
309.288709223069
 51
354.2862329477532
  0
ARC
  5
5DA
330
1A
100
AcDbEntity
  8
NOKITOI
  6
PHANTOM
 62
     8
100
AcDbCircle
 10
208.9696601994264
 20
116.7409849272433
 30
0.0
 40
0.4999904508696396
100
AcDbArc
 50
309.2900846377951
 51
354.2990110749239
  0
ARC
  5
5DB
330
1A
100
AcDbEntity
  8
NOKITOI
  6
PHANTOM
 62
     8
100
AcDbCircle
 10
214.4961982751456
 20
144.8713361014805
 30
0.0
 40
0.9999813123640345
100
AcDbArc
 50
90.00118317084911
 51
174.2905900333514
  0
ARC
  5
5DC
330
1A
100
AcDbEntity
  8
NOKITOI
  6
PHANTOM
 62
     8
100
AcDbCircle
 10
212.9576906963093
 20
146.5713292439112
 30
0.0
 40
0.499988169890889
100
AcDbArc
 50
90.00149786226634
 51
174.2966061377162
  0
ARC
  5
5DD
330
1A
100
AcDbEntity
  8
NOKITOI
  6
PHANTOM
 62
     8
100
AcDbCircle
 10
220.6372948384828
 20
147.3713340967791
 30
0.0
 40
1.500016683246579
100
AcDbArc
 50
269.9993425123344
 51
358.2076423244113
  0
ARC
  5
5DE
330
1A
100
AcDbEntity
  8
NOKITOI
  6
PHANTOM
 62
     8
100
AcDbCircle
 10
218.9896156131289
 20
149.0712542342035
 30
0.0
 40
2.000036820932882
100
AcDbArc
 50
269.9989117490344
 51
358.2110591274195
  0
LINE
  5
5DF
330
1A
100
AcDbEntity
  8
NOKITOI
  6
PHANTOM
 62
     8
100
AcDbLine
 10
220.5276776253048
 20
161.8712174136313
 30
0.0
 11
217.2010776253045
 21
161.8713174136313
 31
0.0
  0
LINE
  5
5E0
330
1A
100
AcDbEntity
  8
NOKITOI
  6
PHANTOM
 62
     8
100
AcDbLine
 10
218.5549776253046
 20
158.1713174136315
 30
0.0
 11
215.6183776253046
 21
158.1713174136315
 31
0.0
  0
ARC
  5
5E1
330
1A
100
AcDbEntity
  8
NOKITOI
  6
PHANTOM
 62
     8
100
AcDbCircle
 10
217.4709069978043
 20
155.3489476461262
 30
0.0
 40
0.4999578477751074
100
AcDbArc
 50
83.52609071220754
 51
188.1330561712932
  0
ARC
  5
5E2
330
1A
100
AcDbEntity
  8
NOKITOI
  6
PHANTOM
 62
     8
100
AcDbCircle
 10
217.0761597589534
 20
151.8713261420112
 30
0.0
 40
5.199991271650611
100
AcDbArc
 50
37.92532860472995
 51
89.9998031407256
  0
LINE
  5
5E3
330
1A
100
AcDbEntity
  8
NOKITOI
  6
PHANTOM
 62
     8
100
AcDbLine
 10
215.2296776253046
 20
153.5713174136313
 30
0.0
 11
215.0485776253044
 21
157.0127174136312
 31
0.0
  0
LINE
  5
5E4
330
1A
100
AcDbEntity
  8
NOKITOI
  6
PHANTOM
 62
     8
100
AcDbLine
 10
215.6035776253047
 20
156.3997174136312
 30
0.0
 11
215.0485776253044
 21
157.0127174136312
 31
0.0
  0
LINE
  5
5E5
330
1A
100
AcDbEntity
  8
NOKITOI
  6
PHANTOM
 62
     8
100
AcDbLine
 10
214.0662776253047
 20
152.8450174136313
 30
0.0
 11
213.7504776253044
 21
158.8450174136313
 31
0.0
  0
LINE
  5
5E6
330
1A
100
AcDbEntity
  8
NOKITOI
  6
PHANTOM
 62
     8
100
AcDbLine
 10
216.0075776253042
 20
153.5713174136313
 30
0.0
 11
215.6035776253047
 21
156.3997174136312
 31
0.0
  0
LINE
  5
5E7
330
1A
100
AcDbEntity
  8
NOKITOI
  6
PHANTOM
 62
     8
100
AcDbLine
 10
215.2296776253046
 20
153.5713174136313
 30
0.0
 11
216.0075776253042
 21
153.5713174136313
 31
0.0
  0
LINE
  5
5E8
330
1A
100
AcDbEntity
  8
NOKITOI
  6
PHANTOM
 62
     8
100
AcDbLine
 10
214.5655776253047
 20
152.3713174136313
 30
0.0
 11
216.8146776253042
 21
152.3713174136313
 31
0.0
  0
ARC
  5
5E9
330
1A
100
AcDbEntity
  8
NOKITOI
  6
PHANTOM
 62
     8
100
AcDbCircle
 10
214.5655817467113
 20
152.8713135036008
 30
0.0
 40
0.4999960899864752
100
AcDbArc
 50
183.0147243791741
 51
269.9995277178593
  0
ARC
  5
5EA
330
1A
100
AcDbEntity
  8
NOKITOI
  6
PHANTOM
 62
     8
100
AcDbCircle
 10
216.8146878117408
 20
152.8713291583554
 30
0.0
 40
0.5000117448278309
100
AcDbArc
 50
269.9988327478016
 51
8.127314608715551
  0
LINE
  5
5EB
330
1A
100
AcDbEntity
  8
NOKITOI
  6
PHANTOM
 62
     8
100
AcDbLine
 10
217.3096776253045
 20
152.9420174136313
 30
0.0
 11
216.9758776253047
 21
155.2782174136314
 31
0.0
  0
LINE
  5
5EC
330
1A
100
AcDbEntity
  8
NOKITOI
  6
PHANTOM
 62
     8
100
AcDbLine
 10
214.2497776253048
 20
159.3713174136313
 30
0.0
 11
216.4812776253047
 21
159.3713174136313
 31
0.0
  0
ARC
  5
5ED
330
1A
100
AcDbEntity
  8
NOKITOI
  6
PHANTOM
 62
     8
100
AcDbCircle
 10
214.2497813347999
 20
158.871321323662
 30
0.0
 40
0.4999960899831856
100
AcDbArc
 50
90.00042508015082
 51
183.0156217414647
  0
ARC
  5
5EE
330
1A
100
AcDbEntity
  8
NOKITOI
  6
PHANTOM
 62
     8
100
AcDbCircle
 10
217.2010703707492
 20
161.3713085637878
 30
0.0
 40
0.500008849895925
100
AcDbArc
 50
89.99916870385415
 51
191.3135956695126
  0
ARC
  5
5EF
330
1A
100
AcDbEntity
  8
NOKITOI
  6
PHANTOM
 62
     8
100
AcDbCircle
 10
216.4812768422961
 20
159.8713164586295
 30
0.0
 40
0.4999990449987399
100
AcDbArc
 50
270.000089726305
 51
11.30328019845521
  0
LINE
  5
5F0
330
1A
100
AcDbEntity
  8
NOKITOI
  6
PHANTOM
 62
     8
100
AcDbLine
 10
216.9715776253046
 20
159.9693174136314
 30
0.0
 11
216.7107776253046
 21
161.2733174136313
 31
0.0
  0
LINE
  5
5F1
330
1A
100
AcDbEntity
  8
NOKITOI
  6
PHANTOM
 62
     8
100
AcDbLine
 10
216.6141776253048
 20
157.0713174136313
 30
0.0
 11
217.0761776253047
 21
157.0713174136313
 31
0.0
  0
LINE
  5
5F2
330
1A
100
AcDbEntity
  8
NOKITOI
  6
PHANTOM
 62
     8
100
AcDbLine
 10
216.6141776253048
 20
157.0713174136313
 30
0.0
 11
215.6183776253046
 21
158.1713174136315
 31
0.0
  0
LINE
  5
5F3
330
1A
100
AcDbEntity
  8
NOKITOI
  6
PHANTOM
 62
     8
100
AcDbLine
 10
221.3272776253042
 20
159.8463174136312
 30
0.0
 11
221.1779776253047
 21
155.0673174136314
 31
0.0
  0
ARC
  5
5F4
330
1A
100
AcDbEntity
  8
NOKITOI
  6
PHANTOM
 62
     8
100
AcDbCircle
 10
217.0761466983685
 20
151.8713531582951
 30
0.0
 40
3.99998565374706
100
AcDbArc
 50
358.208696659101
 51
83.52422380468341
  0
ARC
  5
5F5
330
1A
100
AcDbEntity
  8
NOKITOI
  6
PHANTOM
 62
     8
100
AcDbCircle
 10
220.5276663883104
 20
159.8713290074484
 30
0.0
 40
1.999988406214315
100
AcDbArc
 50
358.2088726535936
 51
89.99967808195551
  0
LINE
  5
5F6
330
1A
100
AcDbEntity
  8
NOKITOI
  6
PHANTOM
 62
     8
100
AcDbLine
 10
220.5276776253048
 20
160.6712174136313
 30
0.0
 11
218.0549776253046
 21
160.6713174136315
 31
0.0
  0
LINE
  5
5F7
330
1A
100
AcDbEntity
  8
NOKITOI
  6
PHANTOM
 62
     8
100
AcDbLine
 10
218.0549776253046
 20
160.6713174136315
 30
0.0
 11
218.5549776253046
 21
158.1713174136315
 31
0.0
  0
ARC
  5
5F8
330
1A
100
AcDbEntity
  8
NOKITOI
  6
PHANTOM
 62
     8
100
AcDbCircle
 10
220.5277215916575
 20
159.8712720511583
 30
0.0
 40
0.7999453636812564
100
AcDbArc
 50
358.2123436447881
 51
90.00314907315425
  0
LINE
  5
9FB
330
1A
100
AcDbEntity
  8
SEIHIN
100
AcDbLine
 10
164.0912977641988
 20
106.6713174136313
 30
0.0
 11
201.6704837641989
 21
106.6713174136313
 31
0.0
  0
LINE
  5
9FC
330
1A
100
AcDbEntity
  8
SEIHIN
100
AcDbLine
 10
164.0912977641988
 20
105.4713174136312
 30
0.0
 11
202.0988398641989
 21
105.4713174136312
 31
0.0
  0
LINE
  5
9FD
330
1A
100
AcDbEntity
  8
SEIHIN
100
AcDbLine
 10
164.0912977641988
 20
102.4713174136312
 30
0.0
 11
203.1697298641988
 21
102.4713174136312
 31
0.0
  0
LINE
  5
A02
330
1A
100
AcDbEntity
  8
SEIHIN
100
AcDbLine
 10
34.97938143704334
 20
102.4713174136312
 30
0.0
 11
45.97938143704334
 21
102.4713174136312
 31
0.0
  0
LINE
  5
A06
330
1A
100
AcDbEntity
  8
SEIHIN
100
AcDbLine
 10
51.47938143704334
 20
143.4713174136312
 30
0.0
 11
29.47938143704334
 21
143.4713174136312
 31
0.0
  0
ARC
  5
A07
330
1A
100
AcDbEntity
  8
SEIHIN
100
AcDbCircle
 10
36.37938143704332
 20
178.6713174136313
 30
0.0
 40
2.0
100
AcDbArc
 50
0.0
 51
90.0
  0
ARC
  5
A08
330
1A
100
AcDbEntity
  8
SEIHIN
100
AcDbCircle
 10
35.87938143704332
 20
158.1713174136313
 30
0.0
 40
2.5
100
AcDbArc
 50
180.0
 51
0.0
  0
LINE
  5
A09
330
1A
100
AcDbEntity
  8
SEIHIN
100
AcDbLine
 10
43.47938143704334
 20
192.6713174136313
 30
0.0
 11
37.47938143704334
 21
192.6713174136313
 31
0.0
  0
LINE
  5
A0C
330
1A
100
AcDbEntity
  8
SEIHIN
100
AcDbLine
 10
33.47938143704334
 20
105.9713174136312
 30
0.0
 11
33.47938143704334
 21
143.4713174136312
 31
0.0
  0
LINE
  5
A11
330
1A
100
AcDbEntity
  8
SEIHIN
100
AcDbLine
 10
31.97938143704334
 20
105.4713174136312
 30
0.0
 11
29.47938143704334
 21
105.4713174136312
 31
0.0
  0
ARC
  5
A16
330
1A
100
AcDbEntity
  8
SEIHIN
100
AcDbCircle
 10
34.97938143704334
 20
103.9713174136312
 30
0.0
 40
1.5
100
AcDbArc
 50
180.0
 51
270.0
  0
ARC
  5
A1B
330
1A
100
AcDbEntity
  8
SEIHIN
100
AcDbCircle
 10
31.97938143704334
 20
103.9713174136312
 30
0.0
 40
1.5
100
AcDbArc
 50
0.0
 51
90.0
  0
ARC
  5
A24
330
1A
100
AcDbEntity
  8
SEIHIN
100
AcDbCircle
 10
31.42938143704327
 20
158.7213174136312
 30
0.0
 40
1.949999999999988
100
AcDbArc
 50
0.0
 51
180.0
  0
LINE
  5
A33
330
1A
100
AcDbEntity
  8
SEIHIN
100
AcDbLine
 10
33.37938143704332
 20
158.7213174136312
 30
0.0
 11
33.37938143704332
 21
158.1713174136313
 31
0.0
  0
LINE
  5
A34
330
1A
100
AcDbEntity
  8
SEIHIN
100
AcDbLine
 10
33.37938143704332
 20
158.6713174136312
 30
0.0
 11
33.37938143704332
 21
158.6713174136312
 31
0.0
  0
LINE
  5
A35
330
1A
100
AcDbEntity
  8
SEIHIN
100
AcDbLine
 10
34.47938143704334
 20
182.6700674136312
 30
0.0
 11
34.47938143704334
 21
189.6713174136313
 31
0.0
  0
ARC
  5
A36
330
1A
100
AcDbEntity
  8
SEIHIN
100
AcDbCircle
 10
36.47938143704334
 20
182.6700674136312
 30
0.0
 40
1.999999998843762
100
AcDbArc
 50
180.0
 51
268.5674562607732
  0
LINE
  5
A37
330
1A
100
AcDbEntity
  8
SEIHIN
100
AcDbLine
 10
35.97938143704334
 20
180.6713174136312
 30
0.0
 11
35.97938143704334
 21
180.6713174136312
 31
0.0
  0
ARC
  5
A38
330
1A
100
AcDbEntity
  8
SEIHIN
100
AcDbCircle
 10
37.47938143704334
 20
189.6713174136313
 30
0.0
 40
3.0
100
AcDbArc
 50
90.0
 51
180.0
  0
ARC
  5
A39
330
1A
100
AcDbEntity
  8
SEIHIN
100
AcDbCircle
 10
155.4048477641989
 20
149.6713174136313
 30
0.0
 40
43.99999996755491
100
AcDbArc
 50
190.0046914246752
 51
256.9987985386973
  0
ARC
  5
A3A
330
1A
100
AcDbEntity
  8
SEIHIN
100
AcDbCircle
 10
155.4048477641989
 20
149.6713174136313
 30
0.0
 40
45.19999999393088
100
AcDbArc
 50
190.0046914399661
 51
256.9987985135611
  0
ARC
  5
A3B
330
1A
100
AcDbEntity
  8
SEIHIN
100
AcDbCircle
 10
155.4048477641989
 20
149.6713174136313
 30
0.0
 40
48.19999998338746
100
AcDbArc
 50
190.3515581005718
 51
256.999279253117
  0
LINE
  5
A3E
330
1A
100
AcDbEntity
  8
SEIHIN
100
AcDbLine
 10
47.47938143704334
 20
105.9713174136312
 30
0.0
 11
47.47938143704334
 21
143.4713174136312
 31
0.0
  0
ARC
  5
A42
330
1A
100
AcDbEntity
  8
SEIHIN
100
AcDbCircle
 10
45.97938143704334
 20
103.9713174136312
 30
0.0
 40
1.5
100
AcDbArc
 50
270.0
 51
0.0
  0
LINE
  5
A47
330
1A
100
AcDbEntity
  8
SEIHIN
100
AcDbLine
 10
48.97938143704334
 20
105.4713174136312
 30
0.0
 11
51.47938143704334
 21
105.4713174136312
 31
0.0
  0
ARC
  5
A49
330
1A
100
AcDbEntity
  8
SEIHIN
100
AcDbCircle
 10
48.97938143704334
 20
103.9713174136312
 30
0.0
 40
1.5
100
AcDbArc
 50
90.0
 51
180.0
  0
ARC
  5
A56
330
1A
100
AcDbEntity
  8
SEIHIN
100
AcDbCircle
 10
146.6298827641988
 20
111.6713174136313
 30
0.0
 40
5.000000009884356
100
AcDbArc
 50
256.997175988683
 51
270.0
  0
LINE
  5
A57
330
1A
100
AcDbEntity
  8
SEIHIN
100
AcDbLine
 10
146.6298827641988
 20
106.6713174136313
 30
0.0
 11
164.0912977641988
 21
106.6713174136313
 31
0.0
  0
LINE
  5
A58
330
1A
100
AcDbEntity
  8
SEIHIN
100
AcDbLine
 10
146.6298827641988
 20
105.4713174136312
 30
0.0
 11
164.0912977641988
 21
105.4713174136312
 31
0.0
  0
LINE
  5
A59
330
1A
100
AcDbEntity
  8
SEIHIN
100
AcDbLine
 10
146.6298827641988
 20
102.4713174136312
 30
0.0
 11
164.0912977641988
 21
102.4713174136312
 31
0.0
  0
ARC
  5
A5A
330
1A
100
AcDbEntity
  8
SEIHIN
100
AcDbCircle
 10
146.6298827641988
 20
111.6713174136313
 30
0.0
 40
6.20000002439895
100
AcDbArc
 50
256.9971760025682
 51
270.0
  0
ARC
  5
A5B
330
1A
100
AcDbEntity
  8
SEIHIN
100
AcDbCircle
 10
146.6298827641988
 20
111.6713174136313
 30
0.0
 40
9.20000000634241
100
AcDbArc
 50
256.9971761847128
 51
270.0
  0
LINE
  5
A5E
330
1A
100
AcDbEntity
  8
SEIHIN
100
AcDbLine
 10
42.57938143704336
 20
178.6713174136313
 30
0.0
 11
42.57938143704336
 21
158.1713174136313
 31
0.0
  0
LINE
  5
A5F
330
1A
100
AcDbEntity
  8
SEIHIN
100
AcDbLine
 10
38.37938143704332
 20
178.6713174136313
 30
0.0
 11
38.37938143704332
 21
158.1713174136313
 31
0.0
  0
ARC
  5
A60
330
1A
100
AcDbEntity
  8
SEIHIN
100
AcDbCircle
 10
49.52938143704329
 20
158.7213174136312
 30
0.0
 40
1.949999999999988
100
AcDbArc
 50
0.0
 51
180.0
  0
LINE
  5
A61
330
1A
100
AcDbEntity
  8
SEIHIN
100
AcDbLine
 10
51.47938143704334
 20
158.7213174136312
 30
0.0
 11
51.47938143704334
 21
105.4713174136312
 31
0.0
  0
ARC
  5
A71
330
1A
100
AcDbEntity
  8
SEIHIN
100
AcDbCircle
 10
45.07938143704336
 20
158.1713174136313
 30
0.0
 40
2.5
100
AcDbArc
 50
180.0
 51
0.0
  0
LINE
  5
A72
330
1A
100
AcDbEntity
  8
SEIHIN
100
AcDbLine
 10
47.57938143704336
 20
158.6713174136312
 30
0.0
 11
47.57938143704336
 21
158.6713174136312
 31
0.0
  0
LINE
  5
A73
330
1A
100
AcDbEntity
  8
SEIHIN
100
AcDbLine
 10
47.57938143704336
 20
158.7213174136312
 30
0.0
 11
47.57938143704336
 21
158.1713174136313
 31
0.0
  0
LINE
  5
A74
330
1A
100
AcDbEntity
  8
SEIHIN
100
AcDbLine
 10
42.57938143704336
 20
167.4961294136312
 30
0.0
 11
42.57938143704336
 21
167.4961294136312
 31
0.0
  0
LINE
  5
A75
330
1A
100
AcDbEntity
  8
SEIHIN
100
AcDbLine
 10
38.37938143704332
 20
167.4961294136312
 30
0.0
 11
38.37938143704332
 21
167.4961294136312
 31
0.0
  0
LINE
  5
A76
330
1A
100
AcDbEntity
  8
SEIHIN
100
AcDbLine
 10
42.57938143704336
 20
166.5564024136313
 30
0.0
 11
42.57938143704336
 21
166.5564024136313
 31
0.0
  0
LINE
  5
A77
330
1A
100
AcDbEntity
  8
SEIHIN
100
AcDbLine
 10
38.37938143704332
 20
166.5564024136313
 30
0.0
 11
38.37938143704332
 21
166.5564024136313
 31
0.0
  0
LINE
  5
A78
330
1A
100
AcDbEntity
  8
SEIHIN
100
AcDbLine
 10
46.47938143704334
 20
182.6700674136312
 30
0.0
 11
46.47938143704334
 21
189.6713174136313
 31
0.0
  0
ARC
  5
A79
330
1A
100
AcDbEntity
  8
SEIHIN
100
AcDbCircle
 10
44.47938143704334
 20
182.6700674136312
 30
0.0
 40
1.99999999884376
100
AcDbArc
 50
271.4325437392202
 51
0.0
  0
ARC
  5
A7A
330
1A
100
AcDbEntity
  8
SEIHIN
100
AcDbCircle
 10
44.57938143704336
 20
178.6713174136313
 30
0.0
 40
2.0
100
AcDbArc
 50
90.0
 51
180.0
  0
ARC
  5
A7B
330
1A
100
AcDbEntity
  8
SEIHIN
100
AcDbCircle
 10
43.47938143704334
 20
189.6713174136313
 30
0.0
 40
3.0
100
AcDbArc
 50
0.0
 51
90.0
  0
LINE
  5
A7C
330
1A
100
AcDbEntity
  8
SEIHIN
100
AcDbLine
 10
102.5912977641988
 20
192.6713174136313
 30
0.0
 11
102.5912977641988
 21
145.6713174136313
 31
0.0
  0
LINE
  5
A7D
330
1A
100
AcDbEntity
  8
SEIHIN
100
AcDbLine
 10
101.3912977641989
 20
192.6713174136313
 30
0.0
 11
101.3912977641989
 21
145.6713174136313
 31
0.0
  0
ARC
  5
A7E
330
1A
100
AcDbEntity
  8
SEIHIN
100
AcDbCircle
 10
105.0381921641988
 20
140.4713174136312
 30
0.0
 40
2.999999985884628
100
AcDbArc
 50
10.35155819740191
 51
90.0
  0
LINE
  5
A7F
330
1A
100
AcDbEntity
  8
SEIHIN
100
AcDbLine
 10
108.9225930641989
 20
144.6713174136313
 30
0.0
 11
103.5912977641988
 21
144.6713174136313
 31
0.0
  0
LINE
  5
A80
330
1A
100
AcDbEntity
  8
SEIHIN
100
AcDbLine
 10
108.9225930641989
 20
143.4713174136312
 30
0.0
 11
103.5912977641988
 21
143.4713174136312
 31
0.0
  0
ARC
  5
A81
330
1A
100
AcDbEntity
  8
SEIHIN
100
AcDbCircle
 10
103.5912977641988
 20
145.6713174136313
 30
0.0
 40
1.0
100
AcDbArc
 50
180.0
 51
270.0
  0
LINE
  5
A82
330
1A
100
AcDbEntity
  8
SEIHIN
100
AcDbLine
 10
103.6245767641988
 20
144.6713174136313
 30
0.0
 11
103.6245767641988
 21
144.6713174136313
 31
0.0
  0
ARC
  5
A83
330
1A
100
AcDbEntity
  8
SEIHIN
100
AcDbCircle
 10
103.5912977641988
 20
145.6713174136313
 30
0.0
 40
2.199999999999988
100
AcDbArc
 50
180.0
 51
270.0
  0
ARC
  5
A84
330
1A
100
AcDbEntity
  8
SEIHIN
100
AcDbCircle
 10
108.9225930641989
 20
141.4713174136312
 30
0.0
 40
3.199999999587582
100
AcDbArc
 50
10.00469134359077
 51
90.0
  0
ARC
  5
A85
330
1A
100
AcDbEntity
  8
SEIHIN
100
AcDbCircle
 10
108.9225930641989
 20
141.4713174136312
 30
0.0
 40
2.000000016035531
100
AcDbArc
 50
10.00469045164722
 51
90.0
  0
LINE
  5
A86
330
1A
100
AcDbEntity
  8
SEIHIN
100
AcDbLine
 10
102.5912977641988
 20
151.2676514136312
 30
0.0
 11
102.5912977641988
 21
151.2676514136312
 31
0.0
  0
LINE
  5
A87
330
1A
100
AcDbEntity
  8
SEIHIN
100
AcDbLine
 10
102.5912977641988
 20
160.6713174136312
 30
0.0
 11
101.3912977641989
 21
160.6713174136312
 31
0.0
  0
LINE
  5
A88
330
1A
100
AcDbEntity
  8
SEIHIN
100
AcDbLine
 10
102.5912977641988
 20
180.6713174136312
 30
0.0
 11
101.3912977641989
 21
180.6713174136312
 31
0.0
  0
LINE
  5
A89
330
1A
100
AcDbEntity
  8
SEIHIN
100
AcDbLine
 10
102.5912977641988
 20
192.6713174136313
 30
0.0
 11
101.3912977641989
 21
192.6713174136313
 31
0.0
  0
LINE
  5
A8D
330
1A
100
AcDbEntity
  8
SEIHIN
100
AcDbLine
 10
213.1897054641989
 20
114.5456614136312
 30
0.0
 11
215.2595940641989
 21
135.2445547136312
 31
0.0
  0
LINE
  5
A8E
330
1A
100
AcDbEntity
  8
SEIHIN
100
AcDbLine
 10
218.4592913641989
 20
137.0919009136312
 30
0.0
 11
216.0511697641989
 21
113.0106766136313
 31
0.0
  0
LINE
  5
A93
330
1A
100
AcDbEntity
  8
SEIHIN
100
AcDbLine
 10
212.0451197641989
 20
115.1596554136313
 30
0.0
 11
214.0655494641989
 21
135.3639591136312
 31
0.0
  0
LINE
  5
A96
330
1A
100
AcDbEntity
  8
SEIHIN
100
AcDbLine
 10
202.0988398641989
 20
105.4713174136312
 30
0.0
 11
213.1897054641989
 21
114.5456614136312
 31
0.0
  0
LINE
  5
A97
330
1A
100
AcDbEntity
  8
SEIHIN
100
AcDbLine
 10
203.1697298641988
 20
102.4713174136312
 30
0.0
 11
216.0511697641989
 21
113.0106766136313
 31
0.0
  0
LINE
  5
A98
330
1A
100
AcDbEntity
  8
SEIHIN
100
AcDbLine
 10
201.6704837641989
 20
106.6713174136313
 30
0.0
 11
212.0451197641989
 21
115.1596554136313
 31
0.0
  0
LINE
  5
AC5
330
1A
100
AcDbEntity
  8
SEIHIN
100
AcDbLine
 10
215.1447290641989
 20
163.6847769136312
 30
0.0
 11
208.0306380641989
 21
158.7034369136312
 31
0.0
  0
LINE
  5
AC6
330
1A
100
AcDbEntity
  8
SEIHIN
100
AcDbLine
 10
223.5912977641989
 20
143.4599924136312
 30
0.0
 11
223.5912977641989
 21
161.8826424136312
 31
0.0
  0
LINE
  5
AC7
330
1A
100
AcDbEntity
  8
SEIHIN
100
AcDbLine
 10
215.8330207641989
 20
162.7017944136312
 30
0.0
 11
208.7189297641989
 21
157.7204544136312
 31
0.0
  0
LINE
  5
AC8
330
1A
100
AcDbEntity
  8
SEIHIN
100
AcDbLine
 10
224.7912977641989
 20
143.4599924136312
 30
0.0
 11
224.7912977641989
 21
161.8826424136312
 31
0.0
  0
LINE
  5
AC9
330
1A
100
AcDbEntity
  8
SEIHIN
100
AcDbLine
 10
223.0912977641988
 20
142.5939674136312
 30
0.0
 11
216.1447055641989
 21
138.5833503136312
 31
0.0
  0
ARC
  5
ACA
330
1A
100
AcDbEntity
  8
SEIHIN
100
AcDbCircle
 10
222.5912977641988
 20
143.4599924136312
 30
0.0
 40
2.200000005055114
100
AcDbArc
 50
299.9999998479836
 51
0.0
  0
LINE
  5
ACB
330
1A
100
AcDbEntity
  8
SEIHIN
100
AcDbLine
 10
223.6912978641988
 20
141.5547369136312
 30
0.0
 11
216.7447056641989
 21
137.5441198136312
 31
0.0
  0
ARC
  5
ACC
330
1A
100
AcDbEntity
  8
SEIHIN
100
AcDbCircle
 10
218.2447056641989
 20
134.9460436136312
 30
0.0
 40
4.200000021369245
100
AcDbArc
 50
120.0000011534159
 51
174.2894084913981
  0
ARC
  5
ACD
330
1A
100
AcDbEntity
  8
SEIHIN
100
AcDbCircle
 10
218.2447056641989
 20
134.9460436136312
 30
0.0
 40
3.000000006856998
100
AcDbArc
 50
120.0000001084146
 51
174.2894080027292
  0
ARC
  5
AD1
330
1A
100
AcDbEntity
  8
SEIHIN
100
AcDbCircle
 10
221.4444028641988
 20
136.7933898136312
 30
0.0
 40
2.999999957105099
100
AcDbArc
 50
120.0000001084146
 51
174.2894078126911
  0
LINE
  5
AD8
330
1A
100
AcDbEntity
  8
SEIHIN
100
AcDbLine
 10
208.0306380641989
 20
158.7034369136312
 30
0.0
 11
208.7189297641989
 21
157.7204544136312
 31
0.0
  0
ARC
  5
AD9
330
1A
100
AcDbEntity
  8
SEIHIN
100
AcDbCircle
 10
222.5912977641988
 20
143.4599924136312
 30
0.0
 40
0.9999999983612706
100
AcDbArc
 50
300.0000001084146
 51
0.0
  0
LINE
  5
ADA
330
1A
100
AcDbEntity
  8
SEIHIN
100
AcDbLine
 10
223.5912977641989
 20
152.0722484136312
 30
0.0
 11
223.5912977641989
 21
152.0722484136312
 31
0.0
  0
LINE
  5
ADB
330
1A
100
AcDbEntity
  8
SEIHIN
100
AcDbLine
 10
216.4065967641989
 20
162.8826424136312
 30
0.0
 11
222.5912977641988
 21
162.8826424136312
 31
0.0
  0
LINE
  5
ADC
330
1A
100
AcDbEntity
  8
SEIHIN
100
AcDbLine
 10
216.4065967641989
 20
164.0826424136312
 30
0.0
 11
222.5912977641988
 21
164.0826424136312
 31
0.0
  0
LINE
  5
ADD
330
1A
100
AcDbEntity
  8
SEIHIN
100
AcDbLine
 10
211.9641741641988
 20
161.4577284136312
 30
0.0
 11
212.6524657641989
 21
160.4747454136312
 31
0.0
  0
ARC
  5
ADE
330
1A
100
AcDbEntity
  8
SEIHIN
100
AcDbCircle
 10
216.4065967641989
 20
161.8826424136312
 30
0.0
 40
2.199999983850877
100
AcDbArc
 50
90.0
 51
124.9999986822715
  0
ARC
  5
ADF
330
1A
100
AcDbEntity
  8
SEIHIN
100
AcDbCircle
 10
216.4065967641989
 20
161.8826424136312
 30
0.0
 40
0.9999999714352551
100
AcDbArc
 50
90.0
 51
124.9999997494021
  0
ARC
  5
AE0
330
1A
100
AcDbEntity
  8
SEIHIN
100
AcDbCircle
 10
222.5912977641988
 20
161.8826424136312
 30
0.0
 40
2.200000000000017
100
AcDbArc
 50
0.0
 51
90.0
  0
ARC
  5
AE1
330
1A
100
AcDbEntity
  8
SEIHIN
100
AcDbCircle
 10
222.5912977641988
 20
161.8826424136312
 30
0.0
 40
1.0
100
AcDbArc
 50
0.0
 51
90.0
  0
LINE
  5
B9C
330
1A
100
AcDbEntity
  8
CENTER_L
100
AcDbLine
 10
164.0912977641988
 20
91.97131741363126
 30
0.0
 11
164.0912977641988
 21
113.6713174136313
 31
0.0
  0
LINE
  5
FEA
330
1A
100
AcDbEntity
  8
CENTER_L
100
AcDbLine
 10
315.9248389561602
 20
243.8367602931369
 30
0.0
 11
94.39129776419894
 21
243.8367602931369
 31
0.0
  0
LINE
  5
FEB
330
1A
100
AcDbEntity
  8
SEIHIN
100
AcDbLine
 10
224.7912977641989
 20
254.8367602931369
 30
0.0
 11
101.3912977641989
 21
254.8367602931369
 31
0.0
  0
LINE
  5
FEC
330
1A
100
AcDbEntity
  8
SEIHIN
100
AcDbLine
 10
224.7912977641989
 20
232.8367602931369
 30
0.0
 11
101.3912977641989
 21
232.8367602931369
 31
0.0
  0
LINE
  5
FED
330
1A
100
AcDbEntity
  8
SEIHIN
100
AcDbLine
 10
101.3912977641989
 20
254.8367602931369
 30
0.0
 11
101.3912977641989
 21
232.8367602931369
 31
0.0
  0
LINE
  5
FEE
330
1A
100
AcDbEntity
  8
SEIHIN
100
AcDbLine
 10
102.5912977641988
 20
254.8367602931369
 30
0.0
 11
102.5912977641988
 21
232.8367602931369
 31
0.0
  0
LINE
  5
FF0
330
1A
100
AcDbEntity
  8
SEIHIN
100
AcDbLine
 10
209.1013019286904
 20
237.8367602931369
 30
0.0
 11
110.2542739428287
 21
237.8367602931369
 31
0.0
  0
LINE
  5
FF1
330
1A
100
AcDbEntity
  8
SEIHIN
100
AcDbLine
 10
102.5912977641988
 20
249.8367602931369
 30
0.0
 11
101.3912977641989
 21
249.8367602931369
 31
0.0
  0
LINE
  5
FF2
330
1A
100
AcDbEntity
  8
SEIHIN
100
AcDbLine
 10
102.5912977641988
 20
237.8367602931369
 30
0.0
 11
101.3912977641989
 21
237.8367602931369
 31
0.0
  0
LINE
  5
FF3
330
1A
100
AcDbEntity
  8
SEIHIN
100
AcDbLine
 10
107.2542739428287
 20
240.8367602931369
 30
0.0
 11
107.2542739428287
 21
246.8367602931369
 31
0.0
  0
LINE
  5
FF5
330
1A
100
AcDbEntity
  8
SEIHIN
100
AcDbLine
 10
224.7912977641989
 20
232.8367602931369
 30
0.0
 11
224.7912977641989
 21
254.8367602931369
 31
0.0
  0
LINE
  5
FF6
330
1A
100
AcDbEntity
  8
SEIHIN
100
AcDbLine
 10
215.1447286549362
 20
232.8367602931369
 30
0.0
 11
215.1447286549362
 21
254.8367602931369
 31
0.0
  0
ARC
  5
FF8
330
1A
100
AcDbEntity
  8
SEIHIN
100
AcDbCircle
 10
225.3779691653427
 20
243.8367602931369
 30
0.0
 40
17.34733110114381
100
AcDbArc
 50
140.6464899728084
 51
219.3535100271917
  0
LINE
  5
FF9
330
1A
100
AcDbEntity
  8
SEIHIN
100
AcDbLine
 10
110.2518393549762
 20
232.8367602931369
 30
0.0
 11
110.2518393549762
 21
237.8367602931369
 31
0.0
  0
LINE
  5
FFA
330
1A
100
AcDbEntity
  8
SEIHIN
100
AcDbLine
 10
110.2518393549762
 20
249.8367602931369
 30
0.0
 11
110.2518393549762
 21
254.8367602931369
 31
0.0
  0
ARC
  5
FFB
330
1A
100
AcDbEntity
  8
SEIHIN
100
AcDbCircle
 10
110.2542739428287
 20
246.8367602931369
 30
0.0
 40
3.0
100
AcDbArc
 50
90.0
 51
180.0
  0
ARC
  5
FFC
330
1A
100
AcDbEntity
  8
SEIHIN
100
AcDbCircle
 10
110.2542739428287
 20
240.8367602931369
 30
0.0
 40
3.0
100
AcDbArc
 50
180.0
 51
270.0
  0
LINE
  5
11F6
330
1A
100
AcDbEntity
  8
SEIHIN
100
AcDbLine
 10
209.1013019286903
 20
249.8367602931369
 30
0.0
 11
110.2542739428287
 21
249.8367602931369
 31
0.0
  0
CIRCLE
  5
1218
330
1A
100
AcDbEntity
  8
SEIHIN
100
AcDbCircle
 10
164.0912977641988
 20
243.8367602931369
 30
0.0
 40
3.5
  0
LINE
  5
1395
330
1A
100
AcDbEntity
  8
CENTER_L
100
AcDbLine
 10
40.47938143704334
 20
199.6713174136313
 30
0.0
 11
40.47938143704334
 21
50.47352238224272
 31
0.0
  0
LINE
  5
13B2
330
1A
100
AcDbEntity
  8
SEIHIN
100
AcDbLine
 10
29.47938143704329
 20
158.7213174136312
 30
0.0
 11
29.47938143704334
 21
105.4713174136312
 31
0.0
  0
LINE
  5
20B2
330
1A
100
AcDbEntity
  8
SEIHIN
100
AcDbLine
 10
45.57938143704325
 20
102.4713174136312
 30
0.0
 11
40.47938143704334
 21
102.4713174136312
 31
0.0
  0
LINE
  5
20B3
330
1A
100
AcDbEntity
  8
SEIHIN
100
AcDbLine
 10
35.37938143704332
 20
102.4713174136312
 30
0.0
 11
37.62938143704332
 21
102.4713174136312
 31
0.0
  0
LINE
  5
20B4
330
1A
100
AcDbEntity
  8
SEIHIN
100
AcDbLine
 10
37.62938143704332
 20
102.4713174136312
 30
0.0
 11
40.47938143704334
 21
102.4713174136312
 31
0.0
  0
LINE
  5
20B5
330
1A
100
AcDbEntity
  8
SEIHIN
100
AcDbLine
 10
45.57938143704325
 20
100.4713174136312
 30
0.0
 11
35.37938143704332
 21
100.4713174136312
 31
0.0
  0
LINE
  5
20B6
330
1A
100
AcDbEntity
  8
SEIHIN
100
AcDbLine
 10
45.57938143704325
 20
100.4713174136312
 30
0.0
 11
43.22938143704334
 21
98.47131741363128
 31
0.0
  0
LINE
  5
20B7
330
1A
100
AcDbEntity
  8
SEIHIN
100
AcDbLine
 10
37.72938143704334
 20
98.47131741363128
 30
0.0
 11
35.37938143704332
 21
100.4713174136312
 31
0.0
  0
LINE
  5
20B9
330
1A
100
AcDbEntity
  8
SEIHIN
100
AcDbLine
 10
43.22938143704334
 20
98.47131741363128
 30
0.0
 11
37.72938143704334
 21
98.47131741363128
 31
0.0
  0
LINE
  5
20BE
330
1A
100
AcDbEntity
  8
SEIHIN
100
AcDbLine
 10
35.37938143704332
 20
100.4713174136312
 30
0.0
 11
35.37938143704332
 21
102.4713174136312
 31
0.0
  0
LINE
  5
20BF
330
1A
100
AcDbEntity
  8
SEIHIN
100
AcDbLine
 10
45.57938143704325
 20
100.4713174136312
 30
0.0
 11
45.57938143704325
 21
102.4713174136312
 31
0.0
  0
LINE
  5
20C0
330
1A
100
AcDbEntity
  8
CENTER_L
  6
CENTER
 62
     1
100
AcDbLine
 10
319.53786605787
 20
120.8619640739121
 30
0.0
 11
160.1437977641988
 21
57.10891741363127
 31
0.0
  0
LINE
  5
20C9
330
1A
100
AcDbEntity
  8
SUNPOU
  6
CONTINUOUS
 62
     4
100
AcDbLine
 10
336.1250544764346
 20
127.4963627597107
 30
0.0
 11
356.1250544764344
 21
127.4963627597107
 31
0.0
  0
LINE
  5
20CA
330
1A
100
AcDbEntity
  8
SUNPOU
  6
CONTINUOUS
 62
     4
100
AcDbLine
 10
356.1250544764344
 20
135.4963627597107
 30
0.0
 11
336.1250544764346
 21
127.4963627597107
 31
0.0
  0
LINE
  5
20CB
330
1A
100
AcDbEntity
  8
SUNPOU
  6
CONTINUOUS
 62
     4
100
AcDbLine
 10
356.1250544764344
 20
127.4963627597107
 30
0.0
 11
356.1250544764344
 21
135.4963627597107
 31
0.0
  0
TEXT
  5
20CC
330
1A
100
AcDbEntity
  8
SUNPOU
  6
CONTINUOUS
 62
     4
100
AcDbText
 10
344.2606202933378
 20
122.4409336180985
 30
0.0
 40
3.0
  1
10
100
AcDbText
  0
TEXT
  5
20CD
330
1A
100
AcDbEntity
  8
SUNPOU
  6
CONTINUOUS
 62
     4
100
AcDbText
 10
358.2724037106136
 20
129.2042627597107
 30
0.0
 40
3.0
  1
4
100
AcDbText
  0
LINE
  5
20CE
330
1A
100
AcDbEntity
  8
CENTER_L
  6
CENTER
 62
     1
100
AcDbLine
 10
164.0912977641988
 20
116.2922174136313
 30
0.0
 11
164.0912977641988
 21
51.79801741363127
 31
0.0
  0
LINE
  5
211D
330
1A
100
AcDbEntity
  8
SEIHIN
100
AcDbLine
 10
161.4918977641989
 20
98.34314720086524
 30
0.0
 11
158.9912977641988
 21
100.4713174136312
 31
0.0
  0
LINE
  5
211E
330
1A
100
AcDbEntity
  8
SEIHIN
100
AcDbLine
 10
158.9912977641988
 20
100.4713174136312
 30
0.0
 11
158.9912977641988
 21
102.4713174136312
 31
0.0
  0
LINE
  5
211F
330
1A
100
AcDbEntity
  8
SEIHIN
100
AcDbLine
 10
169.1912977641987
 20
100.4713174136312
 30
0.0
 11
166.6918977641988
 21
98.34416847746103
 31
0.0
  0
LINE
  5
2120
330
1A
100
AcDbEntity
  8
SEIHIN
100
AcDbLine
 10
169.1912977641987
 20
100.4713174136312
 30
0.0
 11
158.9912977641988
 21
100.4713174136312
 31
0.0
  0
LINE
  5
2121
330
1A
100
AcDbEntity
  8
SEIHIN
100
AcDbLine
 10
169.1912977641987
 20
100.4713174136312
 30
0.0
 11
169.1912977641987
 21
102.4713174136312
 31
0.0
  0
LINE
  5
2123
330
1A
100
AcDbEntity
  8
SEIHIN
100
AcDbLine
 10
161.4918977641989
 20
98.34314720086524
 30
0.0
 11
166.6918977641988
 21
98.34416847746103
 31
0.0
  0
DIMENSION
  5
2140
330
1A
100
AcDbEntity
  8
SUNPOU
100
AcDbDimension
  2
*D1
 10
224.7912977641989
 20
213.6613841375192
 30
0.0
 11
163.0912977641989
 21
216.1613841375192
 31
0.0
 70
    32
  3
STANDARD
100
AcDbAlignedDimension
 13
101.3912977641989
 23
192.6713174136313
 33
0.0
 14
224.7912977641989
 24
161.8826424136312
 34
0.0
100
AcDbRotatedDimension
1001
ACAD
1000
DSTYLE
1002
{
1070
    41
1040
3.0
1070
    42
1040
3.0
1070
    43
1040
7.0
1070
    44
1040
1.5
1070
    73
1070
     0
1070
    74
1070
     0
1070
    77
1070
     3
1070
   140
1040
3.0
1070
   141
1040
3.0
1070
   147
1040
1.0
1070
   172
1070
     1
1070
   173
1070
     1
1070
   176
1070
   256
1070
   177
1070
   256
1070
   178
1070
   256
1070
   271
1070
     0
1070
   272
1070
     0
1070
   341
1005
B2
1070
     6
1000
OPEN
1070
     7
1000
OPEN
1002
}
  0
LINE
  5
214D
330
1A
100
AcDbEntity
  8
SEIHIN
  6
CONTINUOUS
 62
     3
100
AcDbLine
 10
43.22938143704334
 20
60.22352238224272
 30
0.0
 11
43.22938143704334
 21
98.47131741363128
 31
0.0
  0
LINE
  5
214F
330
1A
100
AcDbEntity
  8
SEIHIN
  6
CONTINUOUS
 62
     3
100
AcDbLine
 10
37.72938143704334
 20
60.22352238224272
 30
0.0
 11
37.72938143704334
 21
98.47131741363128
 31
0.0
  0
LINE
  5
2153
330
1A
100
AcDbEntity
  8
SEIHIN
  6
CONTINUOUS
 62
     3
100
AcDbLine
 10
224.7912977641989
 20
241.0869565677477
 30
0.0
 11
292.8740094087198
 21
241.086856765237
 31
0.0
  0
LINE
  5
2154
330
1A
100
AcDbEntity
  8
SEIHIN
  6
CONTINUOUS
 62
     3
100
AcDbLine
 10
224.7912977641989
 20
246.5869565677429
 30
0.0
 11
292.8740094087198
 21
246.5868567651272
 31
0.0
  0
DIMENSION
  5
2156
330
1A
100
AcDbEntity
  8
SUNPOU
100
AcDbDimension
  2
*D2
 10
76.73681234219476
 20
106.8712958061145
 30
0.0
 11
74.23681234219474
 21
149.7713066098729
 31
0.0
 70
    32
  3
STANDARD
100
AcDbAlignedDimension
 13
101.3912977641989
 23
192.6713174136313
 33
0.0
 14
164.0912977641988
 24
106.8712958061145
 34
0.0
 50
90.0
100
AcDbRotatedDimension
1001
ACAD
1000
DSTYLE
1002
{
1070
    41
1040
3.0
1070
    42
1040
3.0
1070
    43
1040
7.0
1070
    44
1040
1.5
1070
    73
1070
     0
1070
    74
1070
     0
1070
    77
1070
     3
1070
   140
1040
3.0
1070
   141
1040
3.0
1070
   147
1040
1.0
1070
   172
1070
     1
1070
   173
1070
     1
1070
   176
1070
   256
1070
   177
1070
   256
1070
   178
1070
   256
1070
   271
1070
     0
1070
   272
1070
     0
1070
   341
1005
B2
1070
     6
1000
OPEN
1070
     7
1000
OPEN
1002
}
  0
DIMENSION
  5
2163
330
1A
100
AcDbEntity
  8
SUNPOU
100
AcDbDimension
  2
*D3
 10
76.73681234219474
 20
57.47135541363132
 30
0.0
 11
74.23681234219472
 21
82.17132560987295
 31
0.0
 70
    32
  1
H
  3
STANDARD
100
AcDbAlignedDimension
 13
164.0912977641988
 23
106.8712958061145
 33
0.0
 14
166.9918977641989
 24
57.47135541363128
 34
0.0
 50
90.0
100
AcDbRotatedDimension
1001
ACAD
1000
DSTYLE
1002
{
1070
   287
1070
     4
1070
   287
1070
     4
1070
   287
1070
     4
1070
   287
1070
     4
1070
   287
1070
     4
1070
   287
1070
     4
1070
   279
1070
     1
1070
    41
1040
3.0
1070
    42
1040
3.0
1070
    43
1040
7.0
1070
    44
1040
1.5
1070
    73
1070
     0
1070
    74
1070
     0
1070
    77
1070
     3
1070
   140
1040
3.0
1070
   141
1040
3.0
1070
   147
1040
1.0
1070
   172
1070
     1
1070
   173
1070
     1
1070
   176
1070
   256
1070
   177
1070
   256
1070
   178
1070
   256
1070
   271
1070
     0
1070
   272
1070
     0
1070
   341
1005
B2
1070
     6
1000
OPEN
1070
     7
1000
OPEN
1002
}
  0
DIMENSION
  5
21F1
330
1A
100
AcDbEntity
  8
SUNPOU
100
AcDbDimension
  2
*D4
 10
76.73681234219478
 20
232.8367602931369
 30
0.0
 11
74.23681234219474
 21
243.8367602931369
 31
0.0
 70
    32
  3
STANDARD
100
AcDbAlignedDimension
 13
101.3912977641989
 23
254.8367602931369
 33
0.0
 14
101.3912977641989
 24
232.8367602931369
 34
0.0
 50
90.0
100
AcDbRotatedDimension
1001
ACAD
1000
DSTYLE
1002
{
1070
    41
1040
3.0
1070
    42
1040
3.0
1070
    43
1040
7.0
1070
    44
1040
1.5
1070
    73
1070
     0
1070
    74
1070
     0
1070
    77
1070
     3
1070
   140
1040
3.0
1070
   141
1040
3.0
1070
   147
1040
1.0
1070
   172
1070
     1
1070
   173
1070
     1
1070
   176
1070
   256
1070
   177
1070
   256
1070
   178
1070
   256
1070
   271
1070
     0
1070
   272
1070
     0
1070
   341
1005
B2
1070
     6
1000
OPEN
1070
     7
1000
OPEN
1002
}
  0
ARC
  5
24DF
330
1A
100
AcDbEntity
  8
SEIHIN
100
AcDbCircle
 10
293.374473250259
 20
111.8390514482346
 30
0.0
 40
1.489455372582914
100
AcDbArc
 50
134.6080484030448
 51
269.3919504036904
  0
LINE
  5
24E0
330
1A
100
AcDbEntity
  8
SEIHIN
100
AcDbLine
 10
292.3284986502591
 20
112.8994355482346
 30
0.0
 11
293.2556824502591
 21
113.2740421482346
 31
0.0
  0
LINE
  5
24E1
330
1A
100
AcDbEntity
  8
SEIHIN
100
AcDbLine
 10
293.2556824502591
 20
113.2740421482346
 30
0.0
 11
303.5576891502591
 21
114.4703525482346
 31
0.0
  0
LINE
  5
24E2
330
1A
100
AcDbEntity
  8
SEIHIN
100
AcDbLine
 10
295.3160187502591
 20
108.1745309482346
 30
0.0
 11
294.3888348502591
 21
107.7999243482346
 31
0.0
  0
ARC
  5
24E3
330
1A
100
AcDbEntity
  8
SEIHIN
100
AcDbCircle
 10
294.2866373502591
 20
109.2416191482346
 30
0.0
 40
1.445312491524636
100
AcDbArc
 50
129.9452524696137
 51
274.0547465406518
  0
LINE
  5
24E4
330
1A
100
AcDbEntity
  8
SEIHIN
100
AcDbLine
 10
303.5576891502591
 20
114.4703525482346
 30
0.0
 11
295.3160187502591
 21
108.1745309482346
 31
0.0
  0
LINE
  5
24E5
330
1A
100
AcDbEntity
  8
SEIHIN
100
AcDbLine
 10
294.3888348502591
 20
107.7999243482346
 30
0.0
 11
171.6514470641988
 21
58.10118721258645
 31
0.0
  0
LINE
  5
24E6
330
1A
100
AcDbEntity
  8
SEIHIN
100
AcDbLine
 10
169.5911109526236
 20
63.20069848871499
 30
0.0
 11
292.3284986502591
 21
112.8994355482346
 31
0.0
  0
ARC
  5
24E9
330
1A
100
AcDbEntity
  8
SEIHIN
100
AcDbCircle
 10
168.8418977641989
 20
65.05506611258645
 30
0.0
 40
7.500000004960519
100
AcDbArc
 50
180.0
 51
292.000000376243
  0
LINE
  5
24EA
330
1A
100
AcDbEntity
  8
SEIHIN
100
AcDbLine
 10
161.3418977641989
 20
65.05533889071497
 30
0.0
 11
161.3418977641989
 21
98.34365783916313
 31
0.0
  0
LINE
  5
24EB
330
1A
100
AcDbEntity
  8
SEIHIN
100
AcDbLine
 10
166.8418977641989
 20
65.05506619720499
 30
0.0
 11
166.8418977641989
 21
98.34365783916313
 31
0.0
  0
ARC
  5
24EE
330
1A
100
AcDbEntity
  8
SEIHIN
100
AcDbCircle
 10
168.8418977641989
 20
65.05506619720499
 30
0.0
 40
2.0
100
AcDbArc
 50
180.0
 51
292.0000000492169
  0
DIMENSION
  5
24EF
330
1A
100
AcDbEntity
  8
SUNPOU
100
AcDbDimension
  2
*D5
 10
327.8118180268215
 20
121.3036863165012
 30
0.0
 11
334.4377535469738
 21
111.577588513025
 31
0.0
 70
    33
  1
φ<>
  3
STANDARD
100
AcDbAlignedDimension
 13
293.2556824502591
 23
113.2740421482346
 33
0.0
 14
295.3160187502591
 24
108.1745309482346
 34
0.0
1001
ACAD
1000
DSTYLE
1002
{
1070
    41
1040
3.0
1070
    42
1040
3.0
1070
    43
1040
7.0
1070
    44
1040
1.5
1070
    73
1070
     0
1070
    74
1070
     0
1070
    77
1070
     3
1070
   140
1040
3.0
1070
   141
1040
3.0
1070
   147
1040
1.0
1070
   172
1070
     1
1070
   173
1070
     1
1070
   176
1070
   256
1070
   177
1070
   256
1070
   178
1070
   256
1070
   271
1070
     1
1070
   272
1070
     0
1070
   341
1005
B2
1070
     6
1000
OPEN
1070
     7
1000
OPEN
1002
}
  0
ELLIPSE
  5
250C
330
1A
100
AcDbEntity
  8
SEIHIN
100
AcDbEllipse
 10
40.47938143704334
 20
60.22352238224272
 30
0.0
 11
-2.75
 21
0.0000000000000071
 31
0.0
210
0.0
220
0.0
230
1.0
 40
0.9999999999999975
 41
0.0000000000000026
 42
3.141592653589795
  0
ELLIPSE
  5
251C
330
1A
100
AcDbEntity
  8
SEIHIN
100
AcDbEllipse
 10
292.8740094087198
 20
245.2118085291321
 30
0.0
 11
1.473648873384945
 21
0.0
 31
0.0
210
0.0
220
0.0
230
1.0
 40
0.9330908202282301
 41
4.712388980384689
 42
7.853981633974482
  0
ELLIPSE
  5
251D
330
1A
100
AcDbEntity
  8
SEIHIN
100
AcDbEllipse
 10
292.8740094087198
 20
242.4617120571417
 30
0.0
 11
1.473648873384945
 21
0.0
 31
0.0
210
0.0
220
0.0
230
-1.0
 40
0.9330908202282301
 41
4.712388980384689
 42
7.853981633974482
  0
LINE
  5
251E
330
1A
100
AcDbEntity
  8
SEIHIN
100
AcDbLine
 10
292.8740094087783
 20
246.5868567651272
 30
0.0
 11
304.5466806813028
 21
243.8367602931369
 31
0.0
  0
LINE
  5
251F
330
1A
100
AcDbEntity
  8
SEIHIN
100
AcDbLine
 10
304.5466806813028
 20
243.8367602931369
 30
0.0
 11
292.8740094087198
 21
241.0866638211465
 31
0.0
  0
DIMENSION
  5
2536
330
1A
100
AcDbEntity
  8
SUNPOU
100
AcDbDimension
  2
*D6
 10
312.04425202423
 20
93.03583392068535
 30
0.0
 11
241.390741518856
 21
67.75082940680395
 31
0.0
 70
    33
  3
STANDARD
100
AcDbAlignedDimension
 13
164.0912977641988
 23
59.25146380760313
 33
0.0
 14
303.5576891502591
 24
114.4703525482346
 34
0.0
1001
ACAD
1000
DSTYLE
1002
{
1070
    41
1040
3.0
1070
    42
1040
3.0
1070
    43
1040
7.0
1070
    44
1040
1.5
1070
    73
1070
     0
1070
    74
1070
     0
1070
    77
1070
     3
1070
   140
1040
3.0
1070
   141
1040
3.0
1070
   147
1040
1.0
1070
   172
1070
     1
1070
   173
1070
     1
1070
   176
1070
   256
1070
   177
1070
   256
1070
   178
1070
   256
1070
   271
1070
     0
1070
   272
1070
     0
1070
   341
1005
B2
1070
     6
1000
OPEN
1070
     7
1000
OPEN
1002
}
  0
LINE
  5
273C
330
1A
100
AcDbEntity
  8
SUNPOU
  6
CONTINUOUS
 62
     4
100
AcDbLine
 10
333.8206730252301
 20
74.91676138557332
 30
0.0
 11
393.82065802523
 21
74.91676138557332
 31
0.0
  0
LINE
  5
273D
330
1A
100
AcDbEntity
  8
SUNPOU
  6
CONTINUOUS
 62
     4
100
AcDbLine
 10
333.8206730252301
 20
67.41676138557332
 30
0.0
 11
393.8207080252301
 21
67.41676138557332
 31
0.0
  0
LINE
  5
273E
330
1A
100
AcDbEntity
  8
SUNPOU
  6
CONTINUOUS
 62
     4
100
AcDbLine
 10
333.8206730252301
 20
59.91676138557338
 30
0.0
 11
393.8207080252301
 21
59.91676138557338
 31
0.0
  0
LINE
  5
273F
330
1A
100
AcDbEntity
  8
SUNPOU
  6
CONTINUOUS
 62
     4
100
AcDbLine
 10
333.8206730252301
 20
52.4167313855734
 30
0.0
 11
393.8207080252301
 21
52.4167313855734
 31
0.0
  0
LINE
  5
2740
330
1A
100
AcDbEntity
  8
SUNPOU
  6
CONTINUOUS
 62
     4
100
AcDbLine
 10
333.8206730252301
 20
44.9167313855734
 30
0.0
 11
393.8207080252301
 21
44.9167313855734
 31
0.0
  0
LINE
  5
2741
330
1A
100
AcDbEntity
  8
SUNPOU
  6
CONTINUOUS
 62
     4
100
AcDbLine
 10
333.8206730252301
 20
37.4167313855734
 30
0.0
 11
393.8207080252301
 21
37.4167313855734
 31
0.0
  0
LINE
  5
2742
330
1A
100
AcDbEntity
  8
SUNPOU
  6
CONTINUOUS
 62
     4
100
AcDbLine
 10
333.8206730252301
 20
29.91673138557337
 30
0.0
 11
393.8207080252301
 21
29.91673138557337
 31
0.0
  0
LINE
  5
2743
330
1A
100
AcDbEntity
  8
SUNPOU
  6
CONTINUOUS
 62
     4
100
AcDbLine
 10
333.8206730252301
 20
22.41673138557337
 30
0.0
 11
393.8207080252301
 21
22.41673138557337
 31
0.0
  0
LINE
  5
2744
330
1A
100
AcDbEntity
  8
SUNPOU
  6
CONTINUOUS
 62
     4
100
AcDbLine
 10
333.8206730252301
 20
74.91676138557332
 30
0.0
 11
333.8206680252301
 21
22.41673138557337
 31
0.0
  0
TEXT
  5
2745
330
1A
100
AcDbEntity
  8
SUNPOU
 62
     4
100
AcDbText
 10
373.1956580252301
 20
54.18703022278268
 30
0.0
 40
3.0
  1
２５
 41
1.125
100
AcDbText
  0
TEXT
  5
2746
330
1A
100
AcDbEntity
  8
SUNPOU
  6
CONTINUOUS
 62
     4
100
AcDbText
 10
343.19564302523
 20
54.29172638557336
 30
0.0
 40
3.0
  1
＃５
 41
1.5
 72
     5
 11
352.19564302523
 21
54.29172638557336
 31
0.0
100
AcDbText
  0
LINE
  5
2747
330
1A
100
AcDbEntity
  8
SUNPOU
  6
CONTINUOUS
 62
     4
100
AcDbLine
 10
393.82065802523
 20
74.91676138557332
 30
0.0
 11
393.8207080252301
 21
22.41673138557337
 31
0.0
  0
LINE
  5
2748
330
1A
100
AcDbEntity
  8
SUNPOU
  6
CONTINUOUS
 62
     4
100
AcDbLine
 10
363.8206780252301
 20
22.41673138557337
 30
0.0
 11
363.8207030252301
 21
67.41676138557332
 31
0.0
  0
TEXT
  5
2749
330
1A
100
AcDbEntity
  8
SUNPOU
 62
     4
100
AcDbText
 10
373.1957080252301
 20
24.18709022278267
 30
0.0
 40
3.0
  1
４５
 41
1.125
100
AcDbText
  0
TEXT
  5
274A
330
1A
100
AcDbEntity
  8
SUNPOU
 62
     4
100
AcDbText
 10
373.1956580252301
 20
31.68703022278268
 30
0.0
 40
3.0
  1
４０
 41
1.125
100
AcDbText
  0
TEXT
  5
274B
330
1A
100
AcDbEntity
  8
SUNPOU
 62
     4
100
AcDbText
 10
373.1956580252301
 20
39.18703022278268
 30
0.0
 40
3.0
  1
３５
 41
1.125
100
AcDbText
  0
TEXT
  5
274C
330
1A
100
AcDbEntity
  8
SUNPOU
 62
     4
100
AcDbText
 10
373.1956580252301
 20
46.68703022278267
 30
0.0
 40
3.0
  1
３０
 41
1.125
100
AcDbText
  0
TEXT
  5
274D
330
1A
100
AcDbEntity
  8
SUNPOU
  6
CONTINUOUS
 62
     4
100
AcDbText
 10
343.195635168086
 20
24.29172638557332
 30
0.0
 40
3.0
  1
＃１
 41
1.73076923076923
 72
     5
 11
352.195635168086
 21
24.29172638557332
 31
0.0
100
AcDbText
  0
TEXT
  5
274E
330
1A
100
AcDbEntity
  8
SUNPOU
  6
CONTINUOUS
 62
     4
100
AcDbText
 10
343.195640168086
 20
31.79172638557332
 30
0.0
 40
3.0
  1
＃２
 41
1.5
 72
     5
 11
352.195640168086
 21
31.79172638557332
 31
0.0
100
AcDbText
  0
TEXT
  5
274F
330
1A
100
AcDbEntity
  8
SUNPOU
  6
CONTINUOUS
 62
     4
100
AcDbText
 10
343.19564302523
 20
39.29172638557332
 30
0.0
 40
3.0
  1
＃３
 41
1.5
 72
     5
 11
352.19564302523
 21
39.29172638557332
 31
0.0
100
AcDbText
  0
TEXT
  5
2750
330
1A
100
AcDbEntity
  8
SUNPOU
  6
CONTINUOUS
 62
     4
100
AcDbText
 10
343.195640168086
 20
46.79172638557335
 30
0.0
 40
3.0
  1
＃４
 41
1.5
 72
     5
 11
352.195640168086
 21
46.79172638557335
 31
0.0
100
AcDbText
  0
TEXT
  5
2751
330
1A
100
AcDbEntity
  8
SUNPOU
  6
CONTINUOUS
 62
     4
100
AcDbText
 10
373.1956594538035
 20
61.7917113855734
 30
0.0
 40
3.0
  1
寸法
 41
1.406250000000018
 72
     5
 11
382.1956594538036
 21
61.7917113855734
 31
0.0
100
AcDbText
  0
TEXT
  5
2752
330
1A
100
AcDbEntity
  8
SUNPOU
  6
CONTINUOUS
 62
     4
100
AcDbText
 10
354.8415113731186
 20
69.66339171964179
 30
0.0
 40
3.0
  1
Ｈ　寸　法
 72
     4
 11
363.6415113731186
 21
71.16339171964179
 31
0.0
100
AcDbText
  0
TEXT
  5
2753
330
1A
100
AcDbEntity
  8
SUNPOU
  6
CONTINUOUS
 62
     4
100
AcDbText
 10
343.1956194538035
 20
61.79175638557339
 30
0.0
 40
3.0
  1
呼び
 41
1.40625
 72
     5
 11
352.1956194538036
 21
61.79175638557339
 31
0.0
100
AcDbText
  0
LWPOLYLINE
  5
2A43
330
1A
100
AcDbEntity
  8
ZUWAKU
100
AcDbPolyline
 90
        4
 70
     1
 43
0.0
 10
0.3999996775634145
 20
275.4000000308041
 10
0.3999996775634145
 20
0.4000000308041649
 10
398.3999996775634
 20
0.4000000308041649
 10
398.3999996775634
 20
275.4000000308041
  0
LWPOLYLINE
  5
2A44
330
1A
100
AcDbEntity
  8
ZUWAKU
100
AcDbPolyline
 90
        4
 70
     1
 43
0.0
 10
0.1999996775634258
 20
275.6000000308041
 10
0.1999996775634258
 20
0.2000000308041763
 10
398.5999996775634
 20
0.2000000308041647
 10
398.5999996775634
 20
275.6000000308041
  0
LWPOLYLINE
  5
2A45
330
1A
100
AcDbEntity
  8
ZUWAKU
100
AcDbPolyline
 90
        4
 70
     1
 43
0.0
 10
-0.0000003224365628
 20
275.8000000308041
 10
-0.0000003224365628
 20
0.0000000308041308
 10
398.7999996775635
 20
0.0000000308041646
 10
398.7999996775635
 20
275.8000000308042
  0
LWPOLYLINE
  5
2A46
330
1A
100
AcDbEntity
  8
ZUWAKU
100
AcDbPolyline
 90
        4
 70
     1
 43
0.0
 10
0.2999996775633917
 20
275.5000000308041
 10
0.2999996775633917
 20
0.3000000308041422
 10
398.4999996775635
 20
0.3000000308041653
 10
398.4999996775634
 20
275.5000000308041
  0
LWPOLYLINE
  5
2A47
330
1A
100
AcDbEntity
  8
ZUWAKU
100
AcDbPolyline
 90
        4
 70
     1
 43
0.0
 10
0.0999996775634031
 20
275.7000000308041
 10
0.0999996775634031
 20
0.1000000308041535
 10
398.6999996775633
 20
0.1000000308041651
 10
398.6999996775634
 20
275.7000000308041
  0
LINE
  5
2A48
330
1A
100
AcDbEntity
  8
ZUWAKU
100
AcDbLine
 10
-0.0000003224365628
 20
15.00000003080413
 30
0.0
 11
398.6999996775633
 21
15.00000003080413
 31
0.0
  0
LINE
  5
2A49
330
1A
100
AcDbEntity
  8
ZUWAKU
100
AcDbLine
 10
-0.0000003224365628
 20
15.10000003080413
 30
0.0
 11
398.6999996775633
 21
15.10000003080413
 31
0.0
  0
LINE
  5
2A4A
330
1A
100
AcDbEntity
  8
ZUWAKU
100
AcDbLine
 10
-0.0000003224365628
 20
15.20000003080413
 30
0.0
 11
398.6999996775633
 21
15.20000003080413
 31
0.0
  0
LINE
  5
2A4B
330
1A
100
AcDbEntity
  8
ZUWAKU
100
AcDbLine
 10
-0.0000003224365628
 20
15.30000003080413
 30
0.0
 11
398.6999996775633
 21
15.30000003080413
 31
0.0
  0
LINE
  5
2A4C
330
1A
100
AcDbEntity
  8
ZUWAKU
100
AcDbLine
 10
-0.0000003224365628
 20
15.40000003080413
 30
0.0
 11
398.6999996775633
 21
15.40000003080413
 31
0.0
  0
LINE
  5
2A4D
330
1A
100
AcDbEntity
  8
ZUWAKU
100
AcDbLine
 10
104.3233003225974
 20
7.700000030804147
 30
0.0
 11
223.7121816630591
 21
7.700000030804147
 31
0.0
  0
LINE
  5
2A4E
330
1A
100
AcDbEntity
  8
ZUWAKU
100
AcDbLine
 10
104.3233003225974
 20
7.800000030804147
 30
0.0
 11
223.7121816630591
 21
7.800000030804151
 31
0.0
  0
LINE
  5
2A4F
330
1A
100
AcDbEntity
  8
ZUWAKU
100
AcDbLine
 10
104.3233003225974
 20
7.600000030804149
 30
0.0
 11
223.7121816630591
 21
7.600000030804146
 31
0.0
  0
TEXT
  5
2A50
330
1A
100
AcDbEntity
  8
MOJI
100
AcDbText
 10
46.478894471648
 20
6.370589095941511
 30
0.0
 40
3.0
  1
新・丸トップＲＶ１０５
 41
0.9
  7
ｽﾀｲﾙ1
100
AcDbText
  0
CIRCLE
  5
2A51
330
1A
100
AcDbEntity
  8
ZUWAKU
100
AcDbCircle
 10
12.99610575495398
 20
7.600000030804132
 30
0.0
 40
0.875
  0
LINE
  5
2A52
330
1A
100
AcDbEntity
  8
ZUWAKU
100
AcDbLine
 10
13.43360575495398
 20
3.575000030804133
 30
0.0
 11
12.47110575495401
 21
3.575000030804133
 31
0.0
  0
LINE
  5
2A53
330
1A
100
AcDbEntity
  8
ZUWAKU
100
AcDbLine
 10
12.47110575495401
 20
4.975000030804132
 30
0.0
 11
13.43360575495398
 21
4.975000030804132
 31
0.0
  0
LINE
  5
2A54
330
1A
100
AcDbEntity
  8
ZUWAKU
100
AcDbLine
 10
13.43360575495398
 20
10.22500003080413
 30
0.0
 11
12.47110575495401
 21
10.22500003080413
 31
0.0
  0
LINE
  5
2A55
330
1A
100
AcDbEntity
  8
ZUWAKU
100
AcDbLine
 10
12.47110575495401
 20
11.62500003080411
 30
0.0
 11
13.43360575495398
 21
11.62500003080413
 31
0.0
  0
HATCH
  5
2A56
330
1A
100
AcDbEntity
  8
ZUWAKU
100
AcDbHatch
 10
0.0
 20
0.0
 30
0.0
210
0.0
220
0.0
230
1.0
  2
ANSI37
 70
     0
 71
     0
 91
        8
 92
        7
 72
     1
 73
     1
 93
       24
 10
7.251131008123365
 20
8.822424271295922
 42
-0.1989123673796348
 10
7.046105754953998
 20
9.317399018126447
 42
0.0
 10
7.046105754953998
 20
9.962500030804136
 42
-0.4142135623730912
 10
7.308605754953987
 20
10.22500003080413
 42
0.0
 10
8.796105754953941
 20
10.22500003080413
 42
0.4142135623731546
 10
9.058605754953987
 20
10.48750003080412
 42
0.0
 10
9.058605754953987
 20
11.36250003080413
 42
0.4142135623731586
 10
8.796105754953941
 20
11.62500003080413
 42
0.0
 10
7.046105754953998
 20
11.62500003080413
 42
0.4142135623730928
 10
5.646105754954021
 20
10.22500003080414
 42
0.0
 10
5.646105754954021
 20
9.317399018126511
 42
0.1989123673796619
 10
6.261181514462236
 20
7.832474777634708
 42
0.0
 10
7.716080501784574
 20
6.377575790312379
 42
-0.1989123673796613
 10
7.921105754953998
 20
5.882601043481786
 42
0.0
 10
7.921105754953998
 20
5.237500030804127
 42
-0.4142135623730911
 10
7.65860575495401
 20
4.975000030804132
 42
0.0
 10
6.171105754954055
 20
4.975000030804132
 42
0.4142135623731526
 10
5.90860575495401
 20
4.712500030804138
 42
0.0
 10
5.90860575495401
 20
3.837500030804127
 42
0.4142135623731526
 10
6.171105754954055
 20
3.575000030804133
 42
0.0
 10
7.921105754953998
 20
3.575000030804133
 42
0.4142135623731044
 10
9.321105754954032
 20
4.975000030804121
 42
0.0
 10
9.321105754954032
 20
5.882601043481757
 42
0.1989123673796604
 10
8.70602999544576
 20
7.367525283973527
 42
0.0
 97
        0
 92
        7
 72
     1
 73
     1
 93
       16
 10
11.77110575495402
 20
9.525000030804136
 42
-0.4142135623730935
 10
12.47110575495401
 20
10.22500003080413
 42
0.0
 10
13.43360575495398
 20
10.22500003080413
 42
0.4142135623731546
 10
13.69610575495403
 20
10.48750003080412
 42
0.0
 10
13.69610575495403
 20
11.36250003080413
 42
0.4142135623730951
 10
13.43360575495404
 20
11.62500003080413
 42
0.0
 10
12.47110575495395
 20
11.62500003080411
 42
0.4142135623730892
 10
10.37110575495398
 20
9.5250000308041
 42
0.0
 10
10.37110575495398
 20
5.675000030804145
 42
0.4142135623730969
 10
12.47110575495401
 20
3.575000030804133
 42
0.0
 10
13.43360575495398
 20
3.575000030804133
 42
0.4142135623731526
 10
13.69610575495403
 20
3.837500030804127
 42
0.0
 10
13.69610575495403
 20
4.712500030804138
 42
0.4142135623730891
 10
13.43360575495404
 20
4.975000030804132
 42
0.0
 10
12.47110575495401
 20
4.975000030804132
 42
-0.4142135623730928
 10
11.77110575495402
 20
5.675000030804126
 42
0.0
 97
        0
 92
        7
 72
     1
 73
     1
 93
        2
 10
12.12110575495398
 20
7.600000030804132
 42
1.0
 10
13.87110575495398
 20
7.600000030804132
 42
1.0
 97
        0
 92
        7
 72
     1
 73
     1
 93
       26
 10
18.65742899604299
 20
9.602523627585846
 42
0.0
 10
19.1882488126119
 20
11.28345304672064
 42
0.5069206636600134
 10
18.93793336301422
 20
11.62500003080413
 42
0.0
 10
18.08848867320961
 20
11.62500003080413
 42
0.3272098845218764
 10
17.83817322361193
 20
11.44154701488761
 42
0.0
 10
16.90403828629604
 20
8.483453046720672
 42
-0.3272098845219541
 10
16.6537228366983
 20
8.300000030804131
 42
0.0
 10
16.58360575495407
 20
8.300000030804131
 42
-0.4142135623731526
 10
16.32110575495403
 20
8.562500030804125
 42
0.0
 10
16.32110575495403
 20
11.36250003080413
 42
0.4142135623730951
 10
16.05860575495404
 20
11.62500003080413
 42
0.0
 10
15.18360575495398
 20
11.62500003080413
 42
0.4142135623730871
 10
14.921105754954
 20
11.36250003080414
 42
0.0
 10
14.921105754954
 20
3.837500030804127
 42
0.4142135623730891
 10
15.18360575495398
 20
3.575000030804133
 42
0.0
 10
16.05860575495398
 20
3.575000030804133
 42
0.4142135623731526
 10
16.32110575495403
 20
3.837500030804127
 42
0.0
 10
16.32110575495403
 20
6.637500030804138
 42
-0.4142135623731526
 10
16.58360575495407
 20
6.900000030804132
 42
0.0
 10
16.65372283669836
 20
6.900000030804132
 42
-0.3272098845218915
 10
16.90403828629604
 20
6.716547014887595
 42
0.0
 10
17.83817322361193
 20
3.758453046720669
 42
0.3272098845218902
 10
18.08848867320961
 20
3.575000030804133
 42
0.0
 10
18.93793336301422
 20
3.575000030804133
 42
0.5069206636600335
 10
19.1882488126119
 20
3.916547014887637
 42
0.0
 10
18.02505312337507
 20
7.600000030804201
 42
0.0
 97
        0
 92
        7
 72
     1
 73
     1
 93
        8
 10
21.74610575495398
 20
11.36250003080413
 42
0.4142135623731546
 10
21.48360575495394
 20
11.62500003080413
 42
0.0
 10
20.60860575495405
 20
11.62500003080413
 42
0.4142135623731507
 10
20.346105754954
 20
11.36250003080414
 42
0.0
 10
20.346105754954
 20
3.837500030804127
 42
0.4142135623731526
 10
20.60860575495405
 20
3.575000030804133
 42
0.0
 10
21.48360575495394
 20
3.575000030804133
 42
0.4142135623731526
 10
21.74610575495398
 20
3.837500030804127
 42
0.0
 97
        0
 92
        7
 72
     1
 73
     1
 93
       24
 10
24.19610575495403
 20
9.962500030804136
 42
-0.4142135623731546
 10
24.45860575495407
 20
10.22500003080413
 42
0.0
 10
25.94610575495403
 20
10.22500003080413
 42
0.4142135623730911
 10
26.20860575495402
 20
10.48750003080412
 42
0.0
 10
26.20860575495402
 20
11.36250003080413
 42
0.4142135623730952
 10
25.94610575495403
 20
11.62500003080413
 42
0.0
 10
24.19610575495403
 20
11.62500003080413
 42
0.4142135623731048
 10
22.796105754954
 20
10.22500003080414
 42
0.0
 10
22.796105754954
 20
9.317399018126511
 42
0.1989123673796613
 10
23.41118151446227
 20
7.832474777634736
 42
0.0
 10
24.8660805017846
 20
6.377575790312402
 42
-0.1989123673796402
 10
25.07110575495403
 20
5.882601043481866
 42
0.0
 10
25.07110575495403
 20
5.237500030804127
 42
-0.4142135623730911
 10
24.80860575495404
 20
4.975000030804132
 42
0.0
 10
23.32110575495403
 20
4.975000030804132
 42
0.4142135623731526
 10
23.05860575495398
 20
4.712500030804138
 42
0.0
 10
23.05860575495398
 20
3.837500030804127
 42
0.4142135623730891
 10
23.32110575495397
 20
3.575000030804133
 42
0.0
 10
25.07110575495403
 20
3.575000030804133
 42
0.4142135623730925
 10
26.47110575495401
 20
4.975000030804121
 42
0.0
 10
26.47110575495401
 20
5.882601043481757
 42
0.1989123673796675
 10
25.85602999544573
 20
7.367525283973584
 42
0.0
 10
24.40113100812345
 20
8.822424271295842
 42
-0.1989123673796652
 10
24.19610575495403
 20
9.317399018126426
 42
0.0
 97
        0
 92
        7
 72
     1
 73
     1
 93
       16
 10
28.92110575495399
 20
11.36250003080412
 42
0.414213562373103
 10
28.65860575495401
 20
11.62500003080413
 42
0.0
 10
27.78360575495401
 20
11.62500003080413
 42
0.4142135623730871
 10
27.52110575495402
 20
11.36250003080414
 42
0.0
 10
27.52110575495402
 20
4.975000030804121
 42
0.4142135623730926
 10
28.92110575495399
 20
3.575000030804133
 42
0.0
 10
30.671105754954
 20
3.575000030804133
 42
0.4142135623731044
 10
32.07110575495403
 20
4.975000030804121
 42
0.0
 10
32.07110575495403
 20
11.36250003080413
 42
0.4142135623730951
 10
31.80860575495404
 20
11.62500003080413
 42
0.0
 10
30.93360575495399
 20
11.62500003080413
 42
0.4142135623730871
 10
30.671105754954
 20
11.36250003080414
 42
0.0
 10
30.671105754954
 20
5.50000003080412
 42
-0.414213562373088
 10
30.14610575495402
 20
4.975000030804132
 42
0.0
 10
29.44610575495403
 20
4.975000030804132
 42
-0.4142135623731197
 10
28.92110575495399
 20
5.50000003080412
 42
0.0
 97
        0
 92
        7
 72
     1
 73
     1
 93
        8
 10
34.52110575495402
 20
11.36250003080414
 42
0.4142135623730871
 10
34.25860575495403
 20
11.62500003080413
 42
0.0
 10
33.38360575495403
 20
11.62500003080413
 42
0.4142135623731507
 10
33.12110575495399
 20
11.36250003080414
 42
0.0
 10
33.12110575495399
 20
3.837500030804127
 42
0.4142135623730891
 10
33.38360575495397
 20
3.575000030804133
 42
0.0
 10
34.25860575495403
 20
3.575000030804133
 42
0.4142135623730891
 10
34.52110575495402
 20
3.837500030804127
 42
0.0
 97
        0
 75
     0
 76
     1
 52
0.0
 41
0.1
 77
     0
 78
     2
 53
45.0
 43
-450.471152489776
 44
-6.599999969195835
 45
-0.2245064030267288
 46
0.2245064030267288
 79
     0
 53
135.0
 43
-450.471152489776
 44
-6.599999969195835
 45
-0.2245064030267288
 46
-0.2245064030267288
 79
     0
 47
0.057451373970553
 98
        8
 10
8.039927159075091
 20
7.583586853746908
 10
11.20225718078302
 20
9.422031122029636
 10
12.58218362039326
 20
7.75594085383949
 10
15.457029668382
 20
8.100648854024882
 10
20.9192356870418
 20
8.33045498779569
 10
23.44910012512821
 20
9.709288189007736
 10
28.27884266376361
 20
9.364578988351638
 10
33.9135394873748
 20
9.594385122122446
  0
ARC
  5
2A57
330
1A
100
AcDbEntity
  8
ZUWAKU
100
AcDbCircle
 10
7.746105754953987
 20
9.317399018126483
 30
0.0
 40
2.099999999999999
100
AcDbArc
 50
180.0
 51
225.0
  0
LINE
  5
2A58
330
1A
100
AcDbEntity
  8
ZUWAKU
100
AcDbLine
 10
10.37110575495398
 20
5.675000030804135
 30
0.0
 11
10.37110575495398
 21
9.525000030804111
 31
0.0
  0
LINE
  5
2A59
330
1A
100
AcDbEntity
  8
ZUWAKU
100
AcDbLine
 10
11.77110575495402
 20
9.525000030804132
 30
0.0
 11
11.77110575495402
 21
5.675000030804135
 31
0.0
  0
ARC
  5
2A5A
330
1A
100
AcDbEntity
  8
ZUWAKU
100
AcDbCircle
 10
7.746105754953987
 20
9.317399018126483
 30
0.0
 40
0.7
100
AcDbArc
 50
180.0000000000016
 51
224.9999999999988
  0
ARC
  5
2A5B
330
1A
100
AcDbEntity
  8
ZUWAKU
100
AcDbCircle
 10
12.47110575495401
 20
5.675000030804135
 30
0.0
 40
2.099999999999999
100
AcDbArc
 50
180.0
 51
270.0
  0
ARC
  5
2A5C
330
1A
100
AcDbEntity
  8
ZUWAKU
100
AcDbCircle
 10
7.921105754953998
 20
4.975000030804132
 30
0.0
 40
1.399999999999999
100
AcDbArc
 50
270.0
 51
0.0
  0
ARC
  5
2A5D
330
1A
100
AcDbEntity
  8
ZUWAKU
100
AcDbCircle
 10
7.22110575495401
 20
5.882601043481784
 30
0.0
 40
2.099999999999999
100
AcDbArc
 50
0.0
 51
45.0
  0
LINE
  5
2A5E
330
1A
100
AcDbEntity
  8
ZUWAKU
100
AcDbLine
 10
6.261181514462236
 20
7.832474777634722
 30
0.0
 11
7.716080501784574
 21
6.377575790312391
 31
0.0
  0
LINE
  5
2A5F
330
1A
100
AcDbEntity
  8
ZUWAKU
100
AcDbLine
 10
6.171105754953998
 20
4.975000030804132
 30
0.0
 11
7.65860575495401
 21
4.975000030804132
 31
0.0
  0
LINE
  5
2A60
330
1A
100
AcDbEntity
  8
ZUWAKU
100
AcDbLine
 10
6.171105754953998
 20
3.575000030804133
 30
0.0
 11
7.921105754953998
 21
3.575000030804133
 31
0.0
  0
ARC
  5
2A61
330
1A
100
AcDbEntity
  8
ZUWAKU
100
AcDbCircle
 10
6.171105754953998
 20
4.712500030804132
 30
0.0
 40
0.2625
100
AcDbArc
 50
90.0
 51
180.0
  0
ARC
  5
2A62
330
1A
100
AcDbEntity
  8
ZUWAKU
100
AcDbCircle
 10
6.171105754953998
 20
3.837500030804132
 30
0.0
 40
0.2625
100
AcDbArc
 50
180.0
 51
270.0
  0
LINE
  5
2A63
330
1A
100
AcDbEntity
  8
ZUWAKU
100
AcDbLine
 10
5.90860575495401
 20
3.837500030804132
 30
0.0
 11
5.90860575495401
 21
4.712500030804132
 31
0.0
  0
ARC
  5
2A64
330
1A
100
AcDbEntity
  8
ZUWAKU
100
AcDbCircle
 10
7.22110575495401
 20
5.882601043481805
 30
0.0
 40
0.7
100
AcDbArc
 50
0.0
 51
45.0
  0
ARC
  5
2A65
330
1A
100
AcDbEntity
  8
ZUWAKU
100
AcDbCircle
 10
7.65860575495401
 20
5.237500030804135
 30
0.0
 40
0.2625
100
AcDbArc
 50
270.0
 51
0.0
  0
LINE
  5
2A66
330
1A
100
AcDbEntity
  8
ZUWAKU
100
AcDbLine
 10
7.921105754953998
 20
5.237500030804135
 30
0.0
 11
7.921105754953998
 21
5.882601043481805
 31
0.0
  0
LINE
  5
2A67
330
1A
100
AcDbEntity
  8
ZUWAKU
100
AcDbLine
 10
8.70602999544576
 20
7.367525283973545
 30
0.0
 11
7.251131008123422
 21
8.822424271295883
 31
0.0
  0
ARC
  5
2A68
330
1A
100
AcDbEntity
  8
ZUWAKU
100
AcDbCircle
 10
12.47110575495401
 20
5.675000030804135
 30
0.0
 40
0.7
100
AcDbArc
 50
180.0
 51
270.0
  0
LINE
  5
2A69
330
1A
100
AcDbEntity
  8
ZUWAKU
100
AcDbLine
 10
9.321105754954032
 20
4.975000030804132
 30
0.0
 11
9.321105754954032
 21
5.882601043481805
 31
0.0
  0
ARC
  5
2A6A
330
1A
100
AcDbEntity
  8
ZUWAKU
100
AcDbCircle
 10
8.796105754953998
 20
10.48750003080413
 30
0.0
 40
0.2625
100
AcDbArc
 50
270.0
 51
0.0
  0
ARC
  5
2A6B
330
1A
100
AcDbEntity
  8
ZUWAKU
100
AcDbCircle
 10
8.796105754953998
 20
11.36250003080413
 30
0.0
 40
0.2625
100
AcDbArc
 50
0.0
 51
90.0
  0
ARC
  5
2A6C
330
1A
100
AcDbEntity
  8
ZUWAKU
100
AcDbCircle
 10
7.046105754953998
 20
10.22500003080413
 30
0.0
 40
1.399999999999999
100
AcDbArc
 50
90.0
 51
180.0
  0
LINE
  5
2A6D
330
1A
100
AcDbEntity
  8
ZUWAKU
100
AcDbLine
 10
5.646105754954021
 20
10.22500003080413
 30
0.0
 11
5.646105754954021
 21
9.317399018126462
 31
0.0
  0
LINE
  5
2A6E
330
1A
100
AcDbEntity
  8
ZUWAKU
100
AcDbLine
 10
8.796105754953998
 20
10.22500003080413
 30
0.0
 11
7.308605754953987
 21
10.22500003080413
 31
0.0
  0
LINE
  5
2A6F
330
1A
100
AcDbEntity
  8
ZUWAKU
100
AcDbLine
 10
7.046105754953998
 20
9.962500030804132
 30
0.0
 11
7.046105754953998
 21
9.317399018126462
 31
0.0
  0
ARC
  5
2A70
330
1A
100
AcDbEntity
  8
ZUWAKU
100
AcDbCircle
 10
7.308605754953987
 20
9.962500030804132
 30
0.0
 40
0.2625
100
AcDbArc
 50
90.0
 51
180.0
  0
LINE
  5
2A71
330
1A
100
AcDbEntity
  8
ZUWAKU
100
AcDbLine
 10
7.046105754953998
 20
11.62500003080413
 30
0.0
 11
8.796105754953998
 21
11.62500003080413
 31
0.0
  0
ARC
  5
2A72
330
1A
100
AcDbEntity
  8
ZUWAKU
100
AcDbCircle
 10
12.47110575495401
 20
9.525000030804111
 30
0.0
 40
2.099999999999999
100
AcDbArc
 50
90.0
 51
180.0
  0
ARC
  5
2A73
330
1A
100
AcDbEntity
  8
ZUWAKU
100
AcDbCircle
 10
12.47110575495401
 20
9.525000030804132
 30
0.0
 40
0.7
100
AcDbArc
 50
90.0
 51
180.0
  0
LINE
  5
2A74
330
1A
100
AcDbEntity
  8
ZUWAKU
100
AcDbLine
 10
9.058605754953987
 20
11.36250003080413
 30
0.0
 11
9.058605754953987
 21
10.48750003080413
 31
0.0
  0
LINE
  5
2A75
330
1A
100
AcDbEntity
  8
ZUWAKU
100
AcDbLine
 10
17.83817322361193
 20
11.44154701488761
 30
0.0
 11
16.90403828629604
 21
8.483453046720647
 31
0.0
  0
LINE
  5
2A76
330
1A
100
AcDbEntity
  8
ZUWAKU
100
AcDbLine
 10
14.921105754954
 20
11.36250003080413
 30
0.0
 11
14.921105754954
 21
3.837500030804132
 31
0.0
  0
LINE
  5
2A77
330
1A
100
AcDbEntity
  8
ZUWAKU
100
AcDbLine
 10
16.32110575495403
 20
8.562500030804134
 30
0.0
 11
16.32110575495403
 21
11.36250003080413
 31
0.0
  0
LINE
  5
2A78
330
1A
100
AcDbEntity
  8
ZUWAKU
100
AcDbLine
 10
28.92110575495399
 20
5.50000003080413
 30
0.0
 11
28.92110575495399
 21
11.36250003080413
 31
0.0
  0
LINE
  5
2A79
330
1A
100
AcDbEntity
  8
ZUWAKU
100
AcDbLine
 10
27.52110575495402
 20
11.36250003080413
 30
0.0
 11
27.52110575495402
 21
4.975000030804132
 31
0.0
  0
LINE
  5
2A7A
330
1A
100
AcDbEntity
  8
ZUWAKU
100
AcDbLine
 10
21.74610575495398
 20
3.837500030804132
 30
0.0
 11
21.74610575495398
 21
11.36250003080413
 31
0.0
  0
LINE
  5
2A7B
330
1A
100
AcDbEntity
  8
ZUWAKU
100
AcDbLine
 10
20.346105754954
 20
11.36250003080413
 30
0.0
 11
20.346105754954
 21
3.837500030804132
 31
0.0
  0
LINE
  5
2A7C
330
1A
100
AcDbEntity
  8
ZUWAKU
100
AcDbLine
 10
18.65742899604299
 20
9.602523627585846
 30
0.0
 11
18.02505312337507
 21
7.600000030804142
 31
0.0
  0
ARC
  5
2A7D
330
1A
100
AcDbEntity
  8
ZUWAKU
100
AcDbCircle
 10
24.89610575495402
 20
9.317399018126483
 30
0.0
 40
2.099999999999999
100
AcDbArc
 50
180.0
 51
225.0
  0
ARC
  5
2A7E
330
1A
100
AcDbEntity
  8
ZUWAKU
100
AcDbCircle
 10
24.89610575495402
 20
9.317399018126483
 30
0.0
 40
0.7
100
AcDbArc
 50
180.0000000000016
 51
224.9999999999988
  0
LINE
  5
2A7F
330
1A
100
AcDbEntity
  8
ZUWAKU
100
AcDbLine
 10
33.12110575495399
 20
11.36250003080413
 30
0.0
 11
33.12110575495399
 21
3.837500030804132
 31
0.0
  0
LINE
  5
2A80
330
1A
100
AcDbEntity
  8
ZUWAKU
100
AcDbLine
 10
34.52110575495402
 20
3.837500030804132
 30
0.0
 11
34.52110575495402
 21
11.36250003080413
 31
0.0
  0
LINE
  5
2A81
330
1A
100
AcDbEntity
  8
ZUWAKU
100
AcDbLine
 10
30.671105754954
 20
11.36250003080413
 30
0.0
 11
30.671105754954
 21
5.50000003080413
 31
0.0
  0
LINE
  5
2A82
330
1A
100
AcDbEntity
  8
ZUWAKU
100
AcDbLine
 10
32.07110575495403
 20
4.975000030804132
 30
0.0
 11
32.07110575495403
 21
11.36250003080413
 31
0.0
  0
LINE
  5
2A83
330
1A
100
AcDbEntity
  8
ZUWAKU
100
AcDbLine
 10
39.56331445155763
 20
15.00000003080413
 30
0.0
 11
39.56331445155763
 21
0.4000000308041649
 31
0.0
  0
LINE
  5
2A84
330
1A
100
AcDbEntity
  8
ZUWAKU
100
AcDbLine
 10
39.76331445155756
 20
15.00000003080413
 30
0.0
 11
39.76331445155767
 21
0.4000000308041649
 31
0.0
  0
LINE
  5
2A85
330
1A
100
AcDbEntity
  8
ZUWAKU
100
AcDbLine
 10
39.66331445155754
 20
15.00000003080413
 30
0.0
 11
39.66331445155765
 21
0.4000000308041649
 31
0.0
  0
LINE
  5
2A86
330
1A
100
AcDbEntity
  8
ZUWAKU
100
AcDbLine
 10
28.92110575495399
 20
3.575000030804133
 30
0.0
 11
30.671105754954
 21
3.575000030804133
 31
0.0
  0
LINE
  5
2A87
330
1A
100
AcDbEntity
  8
ZUWAKU
100
AcDbLine
 10
30.14610575495402
 20
4.975000030804132
 30
0.0
 11
29.44610575495403
 21
4.975000030804132
 31
0.0
  0
LINE
  5
2A88
330
1A
100
AcDbEntity
  8
ZUWAKU
100
AcDbLine
 10
20.608605754954
 20
3.575000030804133
 30
0.0
 11
21.483605754954
 21
3.575000030804133
 31
0.0
  0
LINE
  5
2A89
330
1A
100
AcDbEntity
  8
ZUWAKU
100
AcDbLine
 10
17.83817322361193
 20
3.758453046720646
 30
0.0
 11
16.90403828629604
 21
6.716547014887616
 31
0.0
  0
ARC
  5
2A8A
330
1A
100
AcDbEntity
  8
ZUWAKU
100
AcDbCircle
 10
16.58360575495402
 20
6.637500030804133
 30
0.0
 40
0.2625
100
AcDbArc
 50
90.0
 51
180.0
  0
ARC
  5
2A8B
330
1A
100
AcDbEntity
  8
ZUWAKU
100
AcDbCircle
 10
16.65372283669836
 20
6.637500030804133
 30
0.0
 40
0.2625
100
AcDbArc
 50
17.52556837372303
 51
90.0
  0
ARC
  5
2A8C
330
1A
100
AcDbEntity
  8
ZUWAKU
100
AcDbCircle
 10
15.18360575495398
 20
3.837500030804132
 30
0.0
 40
0.2625
100
AcDbArc
 50
180.0
 51
270.0
  0
ARC
  5
2A8D
330
1A
100
AcDbEntity
  8
ZUWAKU
100
AcDbCircle
 10
13.43360575495398
 20
4.712500030804132
 30
0.0
 40
0.2625
100
AcDbArc
 50
0.0
 51
90.0
  0
ARC
  5
2A8E
330
1A
100
AcDbEntity
  8
ZUWAKU
100
AcDbCircle
 10
13.43360575495398
 20
3.837500030804132
 30
0.0
 40
0.2625
100
AcDbArc
 50
270.0
 51
0.0
  0
LINE
  5
2A8F
330
1A
100
AcDbEntity
  8
ZUWAKU
100
AcDbLine
 10
13.69610575495403
 20
4.712500030804132
 30
0.0
 11
13.69610575495403
 21
3.837500030804132
 31
0.0
  0
LINE
  5
2A90
330
1A
100
AcDbEntity
  8
ZUWAKU
100
AcDbLine
 10
16.32110575495403
 20
3.837500030804132
 30
0.0
 11
16.32110575495403
 21
6.637500030804133
 31
0.0
  0
ARC
  5
2A91
330
1A
100
AcDbEntity
  8
ZUWAKU
100
AcDbCircle
 10
16.05860575495398
 20
3.837500030804132
 30
0.0
 40
0.2625
100
AcDbArc
 50
270.0
 51
0.0
  0
LINE
  5
2A92
330
1A
100
AcDbEntity
  8
ZUWAKU
100
AcDbLine
 10
15.18360575495398
 20
3.575000030804133
 30
0.0
 11
16.05860575495398
 21
3.575000030804133
 31
0.0
  0
ARC
  5
2A93
330
1A
100
AcDbEntity
  8
ZUWAKU
100
AcDbCircle
 10
16.58360575495402
 20
8.562500030804134
 30
0.0
 40
0.2625
100
AcDbArc
 50
180.0
 51
270.0
  0
LINE
  5
2A94
330
1A
100
AcDbEntity
  8
ZUWAKU
100
AcDbLine
 10
16.58360575495402
 20
6.900000030804132
 30
0.0
 11
16.65372283669836
 21
6.900000030804132
 31
0.0
  0
LINE
  5
2A95
330
1A
100
AcDbEntity
  8
ZUWAKU
100
AcDbLine
 10
16.65372283669836
 20
8.300000030804131
 30
0.0
 11
16.58360575495402
 21
8.300000030804131
 31
0.0
  0
ARC
  5
2A96
330
1A
100
AcDbEntity
  8
ZUWAKU
100
AcDbCircle
 10
16.65372283669836
 20
8.562500030804134
 30
0.0
 40
0.2625
100
AcDbArc
 50
270.0
 51
342.4744316262769
  0
ARC
  5
2A97
330
1A
100
AcDbEntity
  8
ZUWAKU
100
AcDbCircle
 10
18.08848867320966
 20
3.837500030804132
 30
0.0
 40
0.2625
100
AcDbArc
 50
197.525568373723
 51
270.0
  0
LINE
  5
2A98
330
1A
100
AcDbEntity
  8
ZUWAKU
100
AcDbLine
 10
19.1882488126119
 20
3.916547014887619
 30
0.0
 11
18.02505312337507
 21
7.600000030804142
 31
0.0
  0
ARC
  5
2A99
330
1A
100
AcDbEntity
  8
ZUWAKU
100
AcDbCircle
 10
18.93793336301416
 20
3.837500030804132
 30
0.0
 40
0.2625
100
AcDbArc
 50
270.0
 51
17.52556837372303
  0
LINE
  5
2A9A
330
1A
100
AcDbEntity
  8
ZUWAKU
100
AcDbLine
 10
18.08848867320966
 20
3.575000030804133
 30
0.0
 11
18.93793336301416
 21
3.575000030804133
 31
0.0
  0
ARC
  5
2A9B
330
1A
100
AcDbEntity
  8
ZUWAKU
100
AcDbCircle
 10
20.608605754954
 20
3.837500030804132
 30
0.0
 40
0.2625
100
AcDbArc
 50
180.0
 51
270.0
  0
ARC
  5
2A9C
330
1A
100
AcDbEntity
  8
ZUWAKU
100
AcDbCircle
 10
25.07110575495403
 20
4.975000030804132
 30
0.0
 40
1.399999999999999
100
AcDbArc
 50
270.0
 51
0.0
  0
ARC
  5
2A9D
330
1A
100
AcDbEntity
  8
ZUWAKU
100
AcDbCircle
 10
28.92110575495399
 20
4.975000030804132
 30
0.0
 40
1.399999999999999
100
AcDbArc
 50
180.0
 51
270.0
  0
LINE
  5
2A9E
330
1A
100
AcDbEntity
  8
ZUWAKU
100
AcDbLine
 10
25.85602999544579
 20
7.367525283973545
 30
0.0
 11
24.4011310081234
 21
8.822424271295883
 31
0.0
  0
LINE
  5
2A9F
330
1A
100
AcDbEntity
  8
ZUWAKU
100
AcDbLine
 10
23.41118151446227
 20
7.832474777634722
 30
0.0
 11
24.8660805017846
 21
6.377575790312391
 31
0.0
  0
LINE
  5
2AA0
330
1A
100
AcDbEntity
  8
ZUWAKU
100
AcDbLine
 10
23.32110575495403
 20
3.575000030804133
 30
0.0
 11
25.07110575495403
 21
3.575000030804133
 31
0.0
  0
LINE
  5
2AA1
330
1A
100
AcDbEntity
  8
ZUWAKU
100
AcDbLine
 10
23.32110575495403
 20
4.975000030804132
 30
0.0
 11
24.80860575495398
 21
4.975000030804132
 31
0.0
  0
ARC
  5
2AA2
330
1A
100
AcDbEntity
  8
ZUWAKU
100
AcDbCircle
 10
23.32110575495403
 20
4.712500030804132
 30
0.0
 40
0.2625
100
AcDbArc
 50
90.0
 51
180.0
  0
ARC
  5
2AA3
330
1A
100
AcDbEntity
  8
ZUWAKU
100
AcDbCircle
 10
21.483605754954
 20
3.837500030804132
 30
0.0
 40
0.2625
100
AcDbArc
 50
270.0
 51
0.0
  0
ARC
  5
2AA4
330
1A
100
AcDbEntity
  8
ZUWAKU
100
AcDbCircle
 10
23.32110575495403
 20
3.837500030804132
 30
0.0
 40
0.2625
100
AcDbArc
 50
180.0
 51
270.0
  0
LINE
  5
2AA5
330
1A
100
AcDbEntity
  8
ZUWAKU
100
AcDbLine
 10
23.05860575495398
 20
3.837500030804132
 30
0.0
 11
23.05860575495398
 21
4.712500030804132
 31
0.0
  0
ARC
  5
2AA6
330
1A
100
AcDbEntity
  8
ZUWAKU
100
AcDbCircle
 10
24.80860575495398
 20
5.237500030804135
 30
0.0
 40
0.2625
100
AcDbArc
 50
270.0
 51
0.0
  0
ARC
  5
2AA7
330
1A
100
AcDbEntity
  8
ZUWAKU
100
AcDbCircle
 10
24.37110575495399
 20
5.882601043481805
 30
0.0
 40
0.7
100
AcDbArc
 50
0.0
 51
45.0
  0
LINE
  5
2AA8
330
1A
100
AcDbEntity
  8
ZUWAKU
100
AcDbLine
 10
25.07110575495403
 20
5.237500030804135
 30
0.0
 11
25.07110575495403
 21
5.882601043481805
 31
0.0
  0
ARC
  5
2AA9
330
1A
100
AcDbEntity
  8
ZUWAKU
100
AcDbCircle
 10
29.44610575495403
 20
5.50000003080413
 30
0.0
 40
0.525
100
AcDbArc
 50
180.0
 51
270.0
  0
ARC
  5
2AAA
330
1A
100
AcDbEntity
  8
ZUWAKU
100
AcDbCircle
 10
24.37110575495399
 20
5.882601043481784
 30
0.0
 40
2.099999999999999
100
AcDbArc
 50
0.0
 51
45.0
  0
LINE
  5
2AAB
330
1A
100
AcDbEntity
  8
ZUWAKU
100
AcDbLine
 10
26.47110575495401
 20
4.975000030804132
 30
0.0
 11
26.47110575495401
 21
5.882601043481805
 31
0.0
  0
ARC
  5
2AAC
330
1A
100
AcDbEntity
  8
ZUWAKU
100
AcDbCircle
 10
30.671105754954
 20
4.975000030804132
 30
0.0
 40
1.399999999999999
100
AcDbArc
 50
270.0
 51
0.0
  0
LINE
  5
2AAD
330
1A
100
AcDbEntity
  8
ZUWAKU
100
AcDbLine
 10
33.38360575495403
 20
3.575000030804133
 30
0.0
 11
34.25860575495403
 21
3.575000030804133
 31
0.0
  0
ARC
  5
2AAE
330
1A
100
AcDbEntity
  8
ZUWAKU
100
AcDbCircle
 10
30.14610575495402
 20
5.50000003080413
 30
0.0
 40
0.525
100
AcDbArc
 50
270.0
 51
0.0
  0
ARC
  5
2AAF
330
1A
100
AcDbEntity
  8
ZUWAKU
100
AcDbCircle
 10
33.38360575495403
 20
3.837500030804132
 30
0.0
 40
0.2625
100
AcDbArc
 50
180.0
 51
270.0
  0
ARC
  5
2AB0
330
1A
100
AcDbEntity
  8
ZUWAKU
100
AcDbCircle
 10
34.25860575495403
 20
3.837500030804132
 30
0.0
 40
0.2625
100
AcDbArc
 50
270.0
 51
0.0
  0
LINE
  5
2AB1
330
1A
100
AcDbEntity
  8
ZUWAKU
100
AcDbLine
 10
21.483605754954
 20
11.62500003080413
 30
0.0
 11
20.608605754954
 21
11.62500003080413
 31
0.0
  0
LINE
  5
2AB2
330
1A
100
AcDbEntity
  8
ZUWAKU
100
AcDbLine
 10
13.69610575495403
 20
11.36250003080413
 30
0.0
 11
13.69610575495403
 21
10.48750003080413
 31
0.0
  0
ARC
  5
2AB3
330
1A
100
AcDbEntity
  8
ZUWAKU
100
AcDbCircle
 10
13.43360575495398
 20
10.48750003080413
 30
0.0
 40
0.2625
100
AcDbArc
 50
270.0
 51
0.0
  0
ARC
  5
2AB4
330
1A
100
AcDbEntity
  8
ZUWAKU
100
AcDbCircle
 10
15.18360575495398
 20
11.36250003080413
 30
0.0
 40
0.2625
100
AcDbArc
 50
90.0
 51
180.0
  0
ARC
  5
2AB5
330
1A
100
AcDbEntity
  8
ZUWAKU
100
AcDbCircle
 10
13.43360575495398
 20
11.36250003080413
 30
0.0
 40
0.2625
100
AcDbArc
 50
0.0
 51
90.0
  0
LINE
  5
2AB6
330
1A
100
AcDbEntity
  8
ZUWAKU
100
AcDbLine
 10
16.05860575495398
 20
11.62500003080413
 30
0.0
 11
15.18360575495398
 21
11.62500003080413
 31
0.0
  0
ARC
  5
2AB7
330
1A
100
AcDbEntity
  8
ZUWAKU
100
AcDbCircle
 10
16.05860575495398
 20
11.36250003080413
 30
0.0
 40
0.2625
100
AcDbArc
 50
0.0
 51
90.0
  0
ARC
  5
2AB8
330
1A
100
AcDbEntity
  8
ZUWAKU
100
AcDbCircle
 10
18.08848867320966
 20
11.36250003080413
 30
0.0
 40
0.2625
100
AcDbArc
 50
90.0
 51
162.4744316262769
  0
LINE
  5
2AB9
330
1A
100
AcDbEntity
  8
ZUWAKU
100
AcDbLine
 10
19.1882488126119
 20
11.28345304672064
 30
0.0
 11
18.65742899604299
 21
9.602523627585846
 31
0.0
  0
ARC
  5
2ABA
330
1A
100
AcDbEntity
  8
ZUWAKU
100
AcDbCircle
 10
18.93793336301416
 20
11.36250003080413
 30
0.0
 40
0.2625
100
AcDbArc
 50
342.4744316262769
 51
90.0
  0
LINE
  5
2ABB
330
1A
100
AcDbEntity
  8
ZUWAKU
100
AcDbLine
 10
18.08848867320966
 20
11.62500003080413
 30
0.0
 11
18.93793336301416
 21
11.62500003080413
 31
0.0
  0
ARC
  5
2ABC
330
1A
100
AcDbEntity
  8
ZUWAKU
100
AcDbCircle
 10
20.608605754954
 20
11.36250003080413
 30
0.0
 40
0.2625
100
AcDbArc
 50
90.0
 51
180.0
  0
LINE
  5
2ABD
330
1A
100
AcDbEntity
  8
ZUWAKU
100
AcDbLine
 10
25.94610575495403
 20
10.22500003080413
 30
0.0
 11
24.45860575495402
 21
10.22500003080413
 31
0.0
  0
LINE
  5
2ABE
330
1A
100
AcDbEntity
  8
ZUWAKU
100
AcDbLine
 10
24.19610575495403
 20
11.62500003080413
 30
0.0
 11
25.94610575495403
 21
11.62500003080413
 31
0.0
  0
ARC
  5
2ABF
330
1A
100
AcDbEntity
  8
ZUWAKU
100
AcDbCircle
 10
24.19610575495403
 20
10.22500003080413
 30
0.0
 40
1.399999999999999
100
AcDbArc
 50
90.0
 51
180.0
  0
LINE
  5
2AC0
330
1A
100
AcDbEntity
  8
ZUWAKU
100
AcDbLine
 10
22.796105754954
 20
10.22500003080413
 30
0.0
 11
22.796105754954
 21
9.317399018126462
 31
0.0
  0
ARC
  5
2AC1
330
1A
100
AcDbEntity
  8
ZUWAKU
100
AcDbCircle
 10
21.483605754954
 20
11.36250003080413
 30
0.0
 40
0.2625
100
AcDbArc
 50
0.0
 51
90.0
  0
LINE
  5
2AC2
330
1A
100
AcDbEntity
  8
ZUWAKU
100
AcDbLine
 10
24.19610575495403
 20
9.962500030804132
 30
0.0
 11
24.19610575495403
 21
9.317399018126462
 31
0.0
  0
ARC
  5
2AC3
330
1A
100
AcDbEntity
  8
ZUWAKU
100
AcDbCircle
 10
24.45860575495402
 20
9.962500030804132
 30
0.0
 40
0.2625
100
AcDbArc
 50
90.0
 51
180.0
  0
LINE
  5
2AC4
330
1A
100
AcDbEntity
  8
ZUWAKU
100
AcDbLine
 10
26.20860575495402
 20
11.36250003080413
 30
0.0
 11
26.20860575495402
 21
10.48750003080413
 31
0.0
  0
ARC
  5
2AC5
330
1A
100
AcDbEntity
  8
ZUWAKU
100
AcDbCircle
 10
25.94610575495403
 20
10.48750003080413
 30
0.0
 40
0.2625
100
AcDbArc
 50
270.0
 51
0.0
  0
ARC
  5
2AC6
330
1A
100
AcDbEntity
  8
ZUWAKU
100
AcDbCircle
 10
25.94610575495403
 20
11.36250003080413
 30
0.0
 40
0.2625
100
AcDbArc
 50
0.0
 51
90.0
  0
LINE
  5
2AC7
330
1A
100
AcDbEntity
  8
ZUWAKU
100
AcDbLine
 10
28.65860575495401
 20
11.62500003080413
 30
0.0
 11
27.78360575495401
 21
11.62500003080413
 31
0.0
  0
ARC
  5
2AC8
330
1A
100
AcDbEntity
  8
ZUWAKU
100
AcDbCircle
 10
27.78360575495401
 20
11.36250003080413
 30
0.0
 40
0.2625
100
AcDbArc
 50
90.0
 51
180.0
  0
ARC
  5
2AC9
330
1A
100
AcDbEntity
  8
ZUWAKU
100
AcDbCircle
 10
28.65860575495401
 20
11.36250003080413
 30
0.0
 40
0.2625
100
AcDbArc
 50
0.0
 51
90.0
  0
LINE
  5
2ACA
330
1A
100
AcDbEntity
  8
ZUWAKU
100
AcDbLine
 10
34.25860575495403
 20
11.62500003080413
 30
0.0
 11
33.38360575495403
 21
11.62500003080413
 31
0.0
  0
ARC
  5
2ACB
330
1A
100
AcDbEntity
  8
ZUWAKU
100
AcDbCircle
 10
30.93360575495399
 20
11.36250003080413
 30
0.0
 40
0.2625
100
AcDbArc
 50
90.0
 51
180.0
  0
LINE
  5
2ACC
330
1A
100
AcDbEntity
  8
ZUWAKU
100
AcDbLine
 10
31.80860575495398
 20
11.62500003080413
 30
0.0
 11
30.93360575495399
 21
11.62500003080413
 31
0.0
  0
ARC
  5
2ACD
330
1A
100
AcDbEntity
  8
ZUWAKU
100
AcDbCircle
 10
31.80860575495398
 20
11.36250003080413
 30
0.0
 40
0.2625
100
AcDbArc
 50
0.0
 51
90.0
  0
ARC
  5
2ACE
330
1A
100
AcDbEntity
  8
ZUWAKU
100
AcDbCircle
 10
33.38360575495403
 20
11.36250003080413
 30
0.0
 40
0.2625
100
AcDbArc
 50
90.0
 51
180.0
  0
ARC
  5
2ACF
330
1A
100
AcDbEntity
  8
ZUWAKU
100
AcDbCircle
 10
34.25860575495403
 20
11.36250003080413
 30
0.0
 40
0.2625
100
AcDbArc
 50
0.0
 51
90.0
  0
TEXT
  5
2AD0
330
1A
100
AcDbEntity
  8
MOJI
100
AcDbText
 10
119.9136010179889
 20
1.602460559507841
 30
0.0
 40
2.799999999999999
  1
ＲＶ１０５－Ｌ１５０
 41
0.9
  7
ｽﾀｲﾙ1
100
AcDbText
  0
TEXT
  5
2AD1
330
1A
100
AcDbEntity
  8
MOJI
100
AcDbText
 10
119.9136010179889
 20
9.002460559507824
 30
0.0
 40
2.799999999999999
  1
亜鉛メッキ金具打込丸足（受）
 41
0.9
  7
ｽﾀｲﾙ1
100
AcDbText
  0
LINE
  5
2AD2
330
1A
100
AcDbEntity
  8
ZUWAKU
100
AcDbLine
 10
104.2233003225973
 20
15.00000003080413
 30
0.0
 11
104.2233003225974
 21
0.4000000308041649
 31
0.0
  0
LINE
  5
2AD3
330
1A
100
AcDbEntity
  8
ZUWAKU
100
AcDbLine
 10
104.3233003225973
 20
15.00000003080413
 30
0.0
 11
104.3233003225974
 21
0.4000000308041649
 31
0.0
  0
LINE
  5
2AD4
330
1A
100
AcDbEntity
  8
ZUWAKU
100
AcDbLine
 10
104.1233003225974
 20
15.00000003080413
 30
0.0
 11
104.1233003225974
 21
0.4000000308041649
 31
0.0
  0
TEXT
  5
2AD5
330
1A
100
AcDbEntity
  8
ZUWAKU
100
AcDbText
 10
104.8620228337022
 20
4.827678299996939
 30
0.0
 40
2.0
  1
サイズ
 41
0.9
  7
ｽﾀｲﾙ1
100
AcDbText
  0
TEXT
  5
2AD6
330
1A
100
AcDbEntity
  8
ZUWAKU
100
AcDbText
 10
104.862022833702
 20
12.02767829999692
 30
0.0
 40
2.0
  1
品名
 41
0.9
  7
ｽﾀｲﾙ1
100
AcDbText
  0
TEXT
  5
2AD7
330
1A
100
AcDbEntity
  8
ZUWAKU
100
AcDbText
 10
329.1019685212146
 20
9.002460559507824
 30
0.0
 40
2.799999999999999
  1
　　．　　．　　
 41
0.9
  7
ｽﾀｲﾙ1
100
AcDbText
  0
LINE
  5
2AD8
330
1A
100
AcDbEntity
  8
ZUWAKU
100
AcDbLine
 10
324.4086009326655
 20
7.800000030804147
 30
0.0
 11
348.624504951834
 21
7.800000030804147
 31
0.0
  0
LINE
  5
2AD9
330
1A
100
AcDbEntity
  8
ZUWAKU
100
AcDbLine
 10
324.4086009326656
 20
7.700000030804149
 30
0.0
 11
348.624504951834
 21
7.700000030804147
 31
0.0
  0
LINE
  5
2ADA
330
1A
100
AcDbEntity
  8
ZUWAKU
100
AcDbLine
 10
324.4086009326655
 20
7.600000030804146
 30
0.0
 11
348.624504951834
 21
7.600000030804148
 31
0.0
  0
LINE
  5
2ADB
330
1A
100
AcDbEntity
  8
ZUWAKU
100
AcDbLine
 10
252.5995894266338
 20
7.800000030804147
 30
0.0
 11
276.2634775606196
 21
7.800000030804147
 31
0.0
  0
LINE
  5
2ADC
330
1A
100
AcDbEntity
  8
ZUWAKU
100
AcDbLine
 10
252.5995894266338
 20
7.700000030804147
 30
0.0
 11
276.2634775606196
 21
7.700000030804147
 31
0.0
  0
LINE
  5
2ADD
330
1A
100
AcDbEntity
  8
ZUWAKU
100
AcDbLine
 10
252.5995894266338
 20
7.600000030804149
 30
0.0
 11
276.2634775606196
 21
7.600000030804149
 31
0.0
  0
LINE
  5
2ADE
330
1A
100
AcDbEntity
  8
ZUWAKU
100
AcDbLine
 10
252.3995894266339
 20
15.00000003080413
 30
0.0
 11
252.3995894266339
 21
0.4000000308041649
 31
0.0
  0
LINE
  5
2ADF
330
1A
100
AcDbEntity
  8
ZUWAKU
100
AcDbLine
 10
252.5995894266338
 20
15.00000003080413
 30
0.0
 11
252.599589426634
 21
0.4000000308041649
 31
0.0
  0
LINE
  5
2AE0
330
1A
100
AcDbEntity
  8
ZUWAKU
100
AcDbLine
 10
252.4995894266338
 20
15.00000003080413
 30
0.0
 11
252.4995894266339
 21
0.4000000308041649
 31
0.0
  0
TEXT
  5
2AE1
330
1A
100
AcDbEntity
  8
MOJI
100
AcDbText
 10
264.0204536637198
 20
9.002460559507824
 30
0.0
 40
2.799999999999999
  1
Ａ３
 41
0.9
  7
ｽﾀｲﾙ1
100
AcDbText
  0
LINE
  5
2AE2
330
1A
100
AcDbEntity
  8
ZUWAKU
100
AcDbLine
 10
223.7121816630591
 20
15.00000003080413
 30
0.0
 11
223.7121816630591
 21
0.4000000308041649
 31
0.0
  0
LINE
  5
2AE3
330
1A
100
AcDbEntity
  8
ZUWAKU
100
AcDbLine
 10
223.912181663059
 20
15.00000003080413
 30
0.0
 11
223.9121816630591
 21
0.4000000308041649
 31
0.0
  0
LINE
  5
2AE4
330
1A
100
AcDbEntity
  8
ZUWAKU
100
AcDbLine
 10
223.812181663059
 20
15.00000003080413
 30
0.0
 11
223.8121816630591
 21
0.4000000308041649
 31
0.0
  0
TEXT
  5
2AE5
330
1A
100
AcDbEntity
  8
MOJI
100
AcDbText
 10
231.2836388385577
 20
5.971308891634123
 30
0.0
 40
2.799999999999999
  1
ＬＪ４２Ｇ
 41
0.9
  7
ｽﾀｲﾙ1
100
AcDbText
  0
TEXT
  5
2AE6
330
1A
100
AcDbEntity
  8
ZUWAKU
100
AcDbText
 10
253.3383119377388
 20
4.827678299996939
 30
0.0
 40
2.0
  1
縮尺
 41
0.9
  7
ｽﾀｲﾙ1
100
AcDbText
  0
TEXT
  5
2AE7
330
1A
100
AcDbEntity
  8
MOJI
100
AcDbText
 10
264.0204536637198
 20
1.602460559507841
 30
0.0
 40
2.799999999999999
  1
１/１
 41
0.9
  7
ｽﾀｲﾙ1
100
AcDbText
  0
TEXT
  5
2AE8
330
1A
100
AcDbEntity
  8
ZUWAKU
100
AcDbText
 10
224.6509041741638
 20
12.02767829999692
 30
0.0
 40
2.0
  1
品番
 41
0.9
  7
ｽﾀｲﾙ1
100
AcDbText
  0
TEXT
  5
2AE9
330
1A
100
AcDbEntity
  8
ZUWAKU
100
AcDbText
 10
253.3383119377386
 20
12.02767829999692
 30
0.0
 40
2.0
  1
用紙
 41
0.9
  7
ｽﾀｲﾙ1
100
AcDbText
  0
LINE
  5
2AEA
330
1A
100
AcDbEntity
  8
ZUWAKU
100
AcDbLine
 10
276.2634775606196
 20
15.00000003080413
 30
0.0
 11
276.2634775606196
 21
0.4000000308041649
 31
0.0
  0
LINE
  5
2AEB
330
1A
100
AcDbEntity
  8
ZUWAKU
100
AcDbLine
 10
276.4634775606196
 20
15.00000003080413
 30
0.0
 11
276.4634775606197
 21
0.4000000308041649
 31
0.0
  0
LINE
  5
2AEC
330
1A
100
AcDbEntity
  8
ZUWAKU
100
AcDbLine
 10
276.3634775606195
 20
15.00000003080413
 30
0.0
 11
276.3634775606196
 21
0.4000000308041649
 31
0.0
  0
LINE
  5
2AED
330
1A
100
AcDbEntity
  8
ZUWAKU
100
AcDbLine
 10
324.2086009326657
 20
15.00000003080413
 30
0.0
 11
324.2086009326657
 21
0.4000000308041649
 31
0.0
  0
LINE
  5
2AEE
330
1A
100
AcDbEntity
  8
ZUWAKU
100
AcDbLine
 10
324.4086009326656
 20
15.00000003080413
 30
0.0
 11
324.4086009326657
 21
0.4000000308041649
 31
0.0
  0
LINE
  5
2AEF
330
1A
100
AcDbEntity
  8
ZUWAKU
100
AcDbLine
 10
324.3086009326656
 20
15.00000003080413
 30
0.0
 11
324.3086009326657
 21
0.4000000308041649
 31
0.0
  0
TEXT
  5
2AF0
330
1A
100
AcDbEntity
  8
ZUWAKU
100
AcDbText
 10
325.1473234437704
 20
12.02767829999692
 30
0.0
 40
2.0
  1
DATE
 41
0.9
  7
ｽﾀｲﾙ1
100
AcDbText
  0
TEXT
  5
2AF1
330
1A
100
AcDbEntity
  8
ZUWAKU
100
AcDbText
 10
354.2640417736853
 20
8.776919698647532
 30
0.0
 40
3.0
  1
積水化学工業株式会社
 41
0.9
  7
ｽﾀｲﾙ1
100
AcDbText
  0
LINE
  5
2AF2
330
1A
100
AcDbEntity
  8
ZUWAKU
100
AcDbLine
 10
348.924504951834
 20
15.00000003080413
 30
0.0
 11
348.9245049518341
 21
0.4000000308041649
 31
0.0
  0
LINE
  5
2AF3
330
1A
100
AcDbEntity
  8
ZUWAKU
100
AcDbLine
 10
348.824504951834
 20
15.00000003080413
 30
0.0
 11
348.8245049518341
 21
0.4000000308041649
 31
0.0
  0
LINE
  5
2AF4
330
1A
100
AcDbEntity
  8
ZUWAKU
100
AcDbLine
 10
348.7245049518341
 20
15.00000003080413
 30
0.0
 11
348.7245049518341
 21
0.4000000308041649
 31
0.0
  0
LINE
  5
2AF5
330
1A
100
AcDbEntity
  8
ZUWAKU
100
AcDbLine
 10
348.624504951834
 20
15.00000003080413
 30
0.0
 11
348.624504951834
 21
0.4000000308041649
 31
0.0
  0
TEXT
  5
2AF6
330
1A
100
AcDbEntity
  8
ZUWAKU
100
AcDbText
 10
354.2640417736853
 20
3.324420187731163
 30
0.0
 40
3.0
  1
建材事業部
 41
0.9
  7
ｽﾀｲﾙ1
100
AcDbText
  0
VIEWPORT
  5
22
330
17
100
AcDbEntity
 67
     1
  8
0
100
AcDbViewport
 10
313.6808219178082
 20
148.5
 30
0.0
 40
627.3616438356165
 41
297.0
 68
     2
 69
     1
1001
ACAD
1000
MVIEW
1002
{
1070
    16
1010
0.0
1020
0.0
1030
0.0
1010
0.0
1020
0.0
1030
1.0
1040
0.0
1040
297.0
1040
313.6808219178082
1040
148.5
1040
50.0
1040
0.0
1040
0.0
1070
     0
1070
   100
1070
     1
1070
     0
1070
     0
1070
     0
1070
     0
1070
     0
1040
0.0
1040
0.0
1040
0.0
1040
1.0
1040
1.0
1040
10.0
1040
10.0
1070
     0
1002
{
1002
}
1002
}
  0
VIEWPORT
  5
64
330
17
100
AcDbEntity
 67
     1
  8
VIEWPORT
100
AcDbViewport
 10
210.0
 20
148.5
 30
0.0
 40
420.0
 41
297.0
 68
     1
 69
     2
1001
ACAD
1000
MVIEW
1002
{
1070
    16
1010
0.0
1020
0.0
1030
0.0
1010
0.0
1020
0.0
1030
1.0
1040
0.0
1040
302.9399999999998
1040
210.0
1040
148.5
1040
50.0
1040
0.0
1040
0.0
1070
     0
1070
   100
1070
     1
1070
     0
1070
     0
1070
     0
1070
     0
1070
     0
1040
0.0
1040
0.0
1040
0.0
1040
5.0
1040
5.0
1040
0.0
1040
0.0
1070
     0
1002
{
1002
}
1002
}
  0
ENDSEC
  0
SECTION
  2
OBJECTS
  0
DICTIONARY
  5
C
330
0
100
AcDbDictionary
  3
ACAD_GROUP
350
D
  3
ACAD_LAYOUT
350
141
  3
ACAD_MLINESTYLE
350
E
  3
ACAD_PLOTSETTINGS
350
142
  3
ACAD_PLOTSTYLENAME
350
13F
  3
ACADDIM
350
1A14
  3
ACDBVARIABLEDICTIONARY
350
120D
  3
ACDBHEADERROUNDTRIPXREC
350
2AFF
  0
DICTIONARY
  5
7A2
330
1A
100
AcDbDictionary
280
     1
  3
ACAD_LAYOUTSELFREF
360
2B21
  0
DICTIONARY
  5
7A0
330
17
100
AcDbDictionary
280
     1
  3
ACAD_LAYOUTSELFREF
360
2B20
  0
DICTIONARY
  5
D
102
{ACAD_REACTORS
330
C
102
}
330
C
100
AcDbDictionary
  0
DICTIONARY
  5
141
102
{ACAD_REACTORS
330
C
102
}
330
C
100
AcDbDictionary
  0
DICTIONARY
  5
E
102
{ACAD_REACTORS
330
C
102
}
330
C
100
AcDbDictionary
  3
STANDARD
350
13
  0
DICTIONARY
  5
142
102
{ACAD_REACTORS
330
C
102
}
330
C
100
AcDbDictionary
  0
ACDBDICTIONARYWDFLT
  5
13F
102
{ACAD_REACTORS
330
C
102
}
330
C
100
AcDbDictionary
281
     1
  3
Normal
350
140
100
AcDbDictionaryWithDefault
340
140
1001
ACAD
1000
TREAT_AS_HARD
1070
     0
1000
TREAT_AS_HARD
1070
     0
1000
TREAT_AS_HARD
1070
     0
1000
TREAT_AS_HARD
1070
     0
1000
TREAT_AS_HARD
1070
     0
1000
TREAT_AS_HARD
1070
     0
1000
TREAT_AS_HARD
1070
     0
1000
TREAT_AS_HARD
1070
     0
1000
TREAT_AS_HARD
1070
     0
1000
TREAT_AS_HARD
1070
     0
1000
TREAT_AS_HARD
1070
     0
  0
XRECORD
  5
1A14
102
{ACAD_REACTORS
330
C
102
}
330
C
100
AcDbXrecord
 90
   990106
  3

 60
     0
 61
     0
 62
     1
 63
     3
 64
     0
 65
     0
 66
     0
 67
     3
 68
     1
 69
     0
 70
     0
 71
     0
 72
     0
 40
0.0
170
     0
340
0
  0
DICTIONARY
  5
120D
102
{ACAD_REACTORS
330
C
102
}
330
C
100
AcDbDictionary
  3
SORTENTS
350
120E
  0
DICTIONARY
  5
2AFF
102
{ACAD_REACTORS
330
C
102
}
330
C
100
AcDbDictionary
  3
TSTACKALIGN
350
2B00
  3
TSTACKSIZE
350
2B01
  3
HYPERLINKBASE
350
2B02
  3
STYLESHEET
350
2B03
  3
LAYOUTDICT
350
2B04
  3
PLOTSETDICT
350
2B05
  3
PLOTSTYLNAMDICT
350
2B06
  3
LWETCUNION
350
2B07
  3
INSUNITS
350
2B08
  3
CEPSNTYPE
350
2B09
  3
FINGERPRINTGUID
350
2B0A
  3
VERSIONGUID
350
2B0B
  3
PSVPSCALE
350
2B0C
  3
DIMSTYLEDATA
350
2B0D
  3
PUCSORTHOREF
350
2B0E
  3
PUCSORTHOVIEW
350
2B0F
  3
PUCSBASE
350
2B10
  3
PUCSORGTOP
350
2B11
  3
PUCSORGBOTTOM
350
2B12
  3
PUCSORGLEFT
350
2B13
  3
PUCSORGRIGHT
350
2B14
  3
PUCSORGFRONT
350
2B15
  3
PUCSORGBACK
350
2B16
  3
UCSORTHOREF
350
2B17
  3
UCSORTHOVIEW
350
2B18
  3
UCSBASE
350
2B19
  3
UCSORGTOP
350
2B1A
  3
UCSORGBOTTOM
350
2B1B
  3
UCSORGLEFT
350
2B1C
  3
UCSORGRIGHT
350
2B1D
  3
UCSORGFRONT
350
2B1E
  3
UCSORGBACK
350
2B1F
  0
XRECORD
  5
2B21
102
{ACAD_REACTORS
330
7A2
102
}
330
7A2
100
AcDbXrecord
340
1A
  0
XRECORD
  5
2B20
102
{ACAD_REACTORS
330
7A0
102
}
330
7A0
100
AcDbXrecord
340
17
  0
MLINESTYLE
  5
13
102
{ACAD_REACTORS
330
E
102
}
330
E
100
AcDbMlineStyle
  2
STANDARD
 70
     0
  3

 62
     0
 51
90.0
 52
90.0
 71
     2
 49
0.5
 62
   256
  6
BYLAYER
 49
-0.5
 62
   256
  6
BYLAYER
  0
ACDBPLACEHOLDER
  5
140
102
{ACAD_REACTORS
330
13F
102
}
330
13F
100
AcDbPlaceHolder
280
     0
  0
DICTIONARYVAR
  5
120E
102
{ACAD_REACTORS
330
120D
102
}
330
120D
100
DictionaryVariables
280
     0
  1
96
  0
XRECORD
  5
2B00
102
{ACAD_REACTORS
330
2AFF
102
}
330
2AFF
100
AcDbXrecord
 90
        1
  0
XRECORD
  5
2B01
102
{ACAD_REACTORS
330
2AFF
102
}
330
2AFF
100
AcDbXrecord
 90
       70
  0
XRECORD
  5
2B02
102
{ACAD_REACTORS
330
2AFF
102
}
330
2AFF
100
AcDbXrecord
  1

  0
XRECORD
  5
2B03
102
{ACAD_REACTORS
330
2AFF
102
}
330
2AFF
100
AcDbXrecord
  1
systemprinter.ctb
  0
XRECORD
  5
2B04
102
{ACAD_REACTORS
330
2AFF
102
}
330
2AFF
100
AcDbXrecord
340
141
  0
XRECORD
  5
2B05
102
{ACAD_REACTORS
330
2AFF
102
}
330
2AFF
100
AcDbXrecord
340
142
  0
XRECORD
  5
2B06
102
{ACAD_REACTORS
330
2AFF
102
}
330
2AFF
100
AcDbXrecord
340
13F
  0
XRECORD
  5
2B07
102
{ACAD_REACTORS
330
2AFF
102
}
330
2AFF
100
AcDbXrecord
 90
    10781
  0
XRECORD
  5
2B08
102
{ACAD_REACTORS
330
2AFF
102
}
330
2AFF
100
AcDbXrecord
 90
        0
  0
XRECORD
  5
2B09
102
{ACAD_REACTORS
330
2AFF
102
}
330
2AFF
100
AcDbXrecord
 90
        0
  0
XRECORD
  5
2B0A
102
{ACAD_REACTORS
330
2AFF
102
}
330
2AFF
100
AcDbXrecord
  1
{4E8D0500-CDD1-11D3-932C-444553540000}
  0
XRECORD
  5
2B0B
102
{ACAD_REACTORS
330
2AFF
102
}
330
2AFF
100
AcDbXrecord
  1
{3D471D0B-5E2D-4EED-984A-A7BC11142CB7}
  0
XRECORD
  5
2B0C
102
{ACAD_REACTORS
330
2AFF
102
}
330
2AFF
100
AcDbXrecord
 40
0.0
  0
XRECORD
  5
2B0D
102
{ACAD_REACTORS
330
2AFF
102
}
330
2AFF
100
AcDbXrecord
1000
DSTYLE
1002
{
1070
   341
340
B2
1070
   343
340
B2
1070
   344
340
B2
1070
   371
 70
    -1
1070
   372
 70
    -1
1002
}
  0
XRECORD
  5
2B0E
102
{ACAD_REACTORS
330
2AFF
102
}
330
2AFF
100
AcDbXrecord
340
0
  0
XRECORD
  5
2B0F
102
{ACAD_REACTORS
330
2AFF
102
}
330
2AFF
100
AcDbXrecord
 70
     0
  0
XRECORD
  5
2B10
102
{ACAD_REACTORS
330
2AFF
102
}
330
2AFF
100
AcDbXrecord
340
0
  0
XRECORD
  5
2B11
102
{ACAD_REACTORS
330
2AFF
102
}
330
2AFF
100
AcDbXrecord
 10
0.0
 20
0.0
 30
0.0
  0
XRECORD
  5
2B12
102
{ACAD_REACTORS
330
2AFF
102
}
330
2AFF
100
AcDbXrecord
 10
0.0
 20
0.0
 30
0.0
  0
XRECORD
  5
2B13
102
{ACAD_REACTORS
330
2AFF
102
}
330
2AFF
100
AcDbXrecord
 10
0.0
 20
0.0
 30
0.0
  0
XRECORD
  5
2B14
102
{ACAD_REACTORS
330
2AFF
102
}
330
2AFF
100
AcDbXrecord
 10
0.0
 20
0.0
 30
0.0
  0
XRECORD
  5
2B15
102
{ACAD_REACTORS
330
2AFF
102
}
330
2AFF
100
AcDbXrecord
 10
0.0
 20
0.0
 30
0.0
  0
XRECORD
  5
2B16
102
{ACAD_REACTORS
330
2AFF
102
}
330
2AFF
100
AcDbXrecord
 10
0.0
 20
0.0
 30
0.0
  0
XRECORD
  5
2B17
102
{ACAD_REACTORS
330
2AFF
102
}
330
2AFF
100
AcDbXrecord
340
0
  0
XRECORD
  5
2B18
102
{ACAD_REACTORS
330
2AFF
102
}
330
2AFF
100
AcDbXrecord
 70
     0
  0
XRECORD
  5
2B19
102
{ACAD_REACTORS
330
2AFF
102
}
330
2AFF
100
AcDbXrecord
340
0
  0
XRECORD
  5
2B1A
102
{ACAD_REACTORS
330
2AFF
102
}
330
2AFF
100
AcDbXrecord
 10
0.0
 20
0.0
 30
0.0
  0
XRECORD
  5
2B1B
102
{ACAD_REACTORS
330
2AFF
102
}
330
2AFF
100
AcDbXrecord
 10
0.0
 20
0.0
 30
0.0
  0
XRECORD
  5
2B1C
102
{ACAD_REACTORS
330
2AFF
102
}
330
2AFF
100
AcDbXrecord
 10
0.0
 20
0.0
 30
0.0
  0
XRECORD
  5
2B1D
102
{ACAD_REACTORS
330
2AFF
102
}
330
2AFF
100
AcDbXrecord
 10
0.0
 20
0.0
 30
0.0
  0
XRECORD
  5
2B1E
102
{ACAD_REACTORS
330
2AFF
102
}
330
2AFF
100
AcDbXrecord
 10
0.0
 20
0.0
 30
0.0
  0
XRECORD
  5
2B1F
102
{ACAD_REACTORS
330
2AFF
102
}
330
2AFF
100
AcDbXrecord
 10
0.0
 20
0.0
 30
0.0
  0
ENDSEC
  0
EOF
