  0
SECTION
  2
HEADER
  9
$ACADVER
  1
AC1014
  9
$ACADMAINTVER
 70
     9
  9
$DWGCODEPAGE
  3
ANSI_932
  9
$INSBASE
 10
0.0
 20
0.0
 30
0.0
  9
$EXTMIN
 10
-0.0128167757670781
 20
-0.0090630292066862
 30
-0.0000000100021362
  9
$EXTMAX
 10
398.8000497626164
 20
275.8226172440017
 30
0.0000000100021363
  9
$LIMMIN
 10
0.0
 20
0.0
  9
$LIMMAX
 10
420.0
 20
297.0
  9
$ORTHOMODE
 70
     1
  9
$REGENMODE
 70
     1
  9
$FILLMODE
 70
     1
  9
$QTEXTMODE
 70
     0
  9
$MIRRTEXT
 70
     1
  9
$DRAGMODE
 70
     2
  9
$LTSCALE
 40
5.0
  9
$OSMODE
 70
    35
  9
$ATTMODE
 70
     1
  9
$TEXTSIZE
 40
3.0
  9
$TRACEWID
 40
1.0
  9
$TEXTSTYLE
  7
STANDARD
  9
$CLAYER
  8
SUNPOU
  9
$CELTYPE
  6
BYLAYER
  9
$CECOLOR
 62
   256
  9
$CELTSCALE
 40
1.0
  9
$DELOBJ
 70
     1
  9
$DISPSILH
 70
     0
  9
$DIMSCALE
 40
1.0
  9
$DIMASZ
 40
3.0
  9
$DIMEXO
 40
3.0
  9
$DIMDLI
 40
7.0
  9
$DIMRND
 40
0.0
  9
$DIMDLE
 40
0.0
  9
$DIMEXE
 40
1.5
  9
$DIMTP
 40
0.0
  9
$DIMTM
 40
0.0
  9
$DIMTXT
 40
3.0
  9
$DIMCEN
 40
3.0
  9
$DIMTSZ
 40
0.0
  9
$DIMTOL
 70
     0
  9
$DIMLIM
 70
     0
  9
$DIMTIH
 70
     0
  9
$DIMTOH
 70
     0
  9
$DIMSE1
 70
     0
  9
$DIMSE2
 70
     0
  9
$DIMTAD
 70
     3
  9
$DIMZIN
 70
     0
  9
$DIMBLK
  1

  9
$DIMASO
 70
     1
  9
$DIMSHO
 70
     1
  9
$DIMPOST
  1

  9
$DIMAPOST
  1

  9
$DIMALT
 70
     0
  9
$DIMALTD
 70
     2
  9
$DIMALTF
 40
25.4
  9
$DIMLFAC
 40
1.0
  9
$DIMTOFL
 70
     1
  9
$DIMTVP
 40
0.0
  9
$DIMTIX
 70
     0
  9
$DIMSOXD
 70
     0
  9
$DIMSAH
 70
     1
  9
$DIMBLK1
  1
OPEN
  9
$DIMBLK2
  1
OPEN
  9
$DIMSTYLE
  2
STANDARD
  9
$DIMCLRD
 70
   256
  9
$DIMCLRE
 70
   256
  9
$DIMCLRT
 70
   256
  9
$DIMTFAC
 40
1.0
  9
$DIMGAP
 40
1.0
  9
$DIMJUST
 70
     0
  9
$DIMSD1
 70
     0
  9
$DIMSD2
 70
     0
  9
$DIMTOLJ
 70
     1
  9
$DIMTZIN
 70
     0
  9
$DIMALTZ
 70
     0
  9
$DIMALTTZ
 70
     0
  9
$DIMFIT
 70
     3
  9
$DIMUPT
 70
     0
  9
$DIMUNIT
 70
     2
  9
$DIMDEC
 70
     0
  9
$DIMTDEC
 70
     0
  9
$DIMALTU
 70
     2
  9
$DIMALTTD
 70
     2
  9
$DIMTXSTY
  7
STANDARD
  9
$DIMAUNIT
 70
     0
  9
$LUNITS
 70
     2
  9
$LUPREC
 70
     4
  9
$SKETCHINC
 40
1.0
  9
$FILLETRAD
 40
2.0
  9
$AUNITS
 70
     0
  9
$AUPREC
 70
     0
  9
$MENU
  1
.
  9
$ELEVATION
 40
0.0
  9
$PELEVATION
 40
0.0
  9
$THICKNESS
 40
0.0
  9
$LIMCHECK
 70
     0
  9
$BLIPMODE
 70
     0
  9
$CHAMFERA
 40
10.0
  9
$CHAMFERB
 40
10.0
  9
$CHAMFERC
 40
20.0
  9
$CHAMFERD
 40
0.0
  9
$SKPOLY
 70
     0
  9
$TDCREATE
 40
2451589.469382176
  9
$TDUPDATE
 40
2453805.469531782
  9
$TDINDWG
 40
0.2469023032
  9
$TDUSRTIMER
 40
0.2469023032
  9
$USRTIMER
 70
     1
  9
$ANGBASE
 50
0.0
  9
$ANGDIR
 70
     0
  9
$PDMODE
 70
     0
  9
$PDSIZE
 40
0.0
  9
$PLINEWID
 40
0.0
  9
$COORDS
 70
     1
  9
$SPLFRAME
 70
     0
  9
$SPLINETYPE
 70
     6
  9
$SPLINESEGS
 70
     8
  9
$ATTDIA
 70
     0
  9
$ATTREQ
 70
     1
  9
$HANDLING
 70
 10241
  9
$HANDSEED
  5
290E
  9
$SURFTAB1
 70
     6
  9
$SURFTAB2
 70
     6
  9
$SURFTYPE
 70
     6
  9
$SURFU
 70
     6
  9
$SURFV
 70
     6
  9
$UCSNAME
  2

  9
$UCSORG
 10
0.0
 20
0.0
 30
0.0
  9
$UCSXDIR
 10
1.0
 20
0.0
 30
0.0
  9
$UCSYDIR
 10
0.0
 20
1.0
 30
0.0
  9
$PUCSNAME
  2

  9
$PUCSORG
 10
0.0
 20
0.0
 30
0.0
  9
$PUCSXDIR
 10
1.0
 20
0.0
 30
0.0
  9
$PUCSYDIR
 10
0.0
 20
1.0
 30
0.0
  9
$USERI1
 70
     0
  9
$USERI2
 70
     0
  9
$USERI3
 70
     0
  9
$USERI4
 70
     0
  9
$USERI5
 70
     0
  9
$USERR1
 40
0.0
  9
$USERR2
 40
0.0
  9
$USERR3
 40
0.0
  9
$USERR4
 40
0.0
  9
$USERR5
 40
0.0
  9
$WORLDVIEW
 70
     1
  9
$SHADEDGE
 70
     3
  9
$SHADEDIF
 70
    70
  9
$TILEMODE
 70
     1
  9
$MAXACTVP
 70
    16
  9
$PINSBASE
 10
0.0
 20
0.0
 30
0.0
  9
$PLIMCHECK
 70
     0
  9
$PEXTMIN
 10
0.0
 20
0.0
 30
0.0
  9
$PEXTMAX
 10
420.0
 20
297.0
 30
0.0
  9
$PLIMMIN
 10
0.0
 20
0.0
  9
$PLIMMAX
 10
420.0
 20
297.0
  9
$UNITMODE
 70
     0
  9
$VISRETAIN
 70
     0
  9
$PLINEGEN
 70
     0
  9
$PSLTSCALE
 70
     1
  9
$TREEDEPTH
 70
  3020
  9
$PICKSTYLE
 70
     1
  9
$CMLSTYLE
  2
STANDARD
  9
$CMLJUST
 70
     0
  9
$CMLSCALE
 40
1.0
  9
$PROXYGRAPHICS
 70
     1
  9
$MEASUREMENT
 70
     0
  0
ENDSEC
  0
SECTION
  2
CLASSES
  0
CLASS
  1
ACDBDICTIONARYWDFLT
  2
AcDbDictionaryWithDefault
  3
AutoCAD 2000
 90
        0
280
     0
281
     0
  0
CLASS
  1
ACDBPLACEHOLDER
  2
AcDbPlaceHolder
  3
AutoCAD 2000
 90
        0
280
     0
281
     0
  0
CLASS
  1
LAYOUT
  2
AcDbLayout
  3
AutoCAD 2000
 90
        0
280
     0
281
     0
  0
CLASS
  1
LONG_TRANSACTION
  2
AcDbLongTransaction
  3
AutoCAD 2000
 90
        0
280
     0
281
     0
  0
CLASS
  1
LWPOLYLINE
  2
AcDbPolyline
  3
AutoCAD 2000
 90
        0
280
     0
281
     1
  0
CLASS
  1
HATCH
  2
AcDbHatch
  3
AutoCAD 2000
 90
        0
280
     0
281
     1
  0
CLASS
  1
XRECORD
  2
AcDbXrecord
  3
AutoCAD 2000
 90
        0
280
     0
281
     0
  0
CLASS
  1
LONG_TRANSACTION
  2
AcDbLongTransaction
  3
AutoCAD 2000
 90
        0
280
     0
281
     0
  0
CLASS
  1
LWPOLYLINE
  2
AcDbPolyline
  3
AutoCAD 2000
 90
        0
280
     0
281
     1
  0
CLASS
  1
HATCH
  2
AcDbHatch
  3
AutoCAD 2000
 90
        0
280
     0
281
     1
  0
CLASS
  1
XRECORD
  2
AcDbXrecord
  3
AutoCAD 2000
 90
        0
280
     0
281
     0
  0
CLASS
  1
DICTIONARYVAR
  2
AcDbDictionaryVar
  3
AutoCAD 2000
 90
        0
280
     0
281
     0
  0
CLASS
  1
LONG_TRANSACTION
  2
AcDbLongTransaction
  3
AutoCAD 2000
 90
        0
280
     0
281
     0
  0
CLASS
  1
LWPOLYLINE
  2
AcDbPolyline
  3
AutoCAD 2000
 90
        0
280
     0
281
     1
  0
CLASS
  1
HATCH
  2
AcDbHatch
  3
AutoCAD 2000
 90
        0
280
     0
281
     1
  0
CLASS
  1
XRECORD
  2
AcDbXrecord
  3
AutoCAD 2000
 90
        0
280
     0
281
     0
  0
CLASS
  1
LONG_TRANSACTION
  2
AcDbLongTransaction
  3
AutoCAD 2000
 90
        0
280
     0
281
     0
  0
CLASS
  1
LWPOLYLINE
  2
AcDbPolyline
  3
AutoCAD 2000
 90
        0
280
     0
281
     1
  0
CLASS
  1
HATCH
  2
AcDbHatch
  3
AutoCAD 2000
 90
        0
280
     0
281
     1
  0
CLASS
  1
XRECORD
  2
AcDbXrecord
  3
AutoCAD 2000
 90
        0
280
     0
281
     0
  0
CLASS
  1
LONG_TRANSACTION
  2
AcDbLongTransaction
  3
AutoCAD 2000
 90
        0
280
     0
281
     0
  0
CLASS
  1
LWPOLYLINE
  2
AcDbPolyline
  3
AutoCAD 2000
 90
        0
280
     0
281
     1
  0
CLASS
  1
HATCH
  2
AcDbHatch
  3
AutoCAD 2000
 90
        0
280
     0
281
     1
  0
CLASS
  1
XRECORD
  2
AcDbXrecord
  3
AutoCAD 2000
 90
        0
280
     0
281
     0
  0
CLASS
  1
LONG_TRANSACTION
  2
AcDbLongTransaction
  3
AutoCAD 2000
 90
        0
280
     0
281
     0
  0
CLASS
  1
LWPOLYLINE
  2
AcDbPolyline
  3
AutoCAD 2000
 90
        0
280
     0
281
     1
  0
CLASS
  1
HATCH
  2
AcDbHatch
  3
AutoCAD 2000
 90
        0
280
     0
281
     1
  0
CLASS
  1
XRECORD
  2
AcDbXrecord
  3
AutoCAD 2000
 90
        0
280
     0
281
     0
  0
CLASS
  1
LONG_TRANSACTION
  2
AcDbLongTransaction
  3
AutoCAD 2000
 90
        0
280
     0
281
     0
  0
CLASS
  1
LWPOLYLINE
  2
AcDbPolyline
  3
AutoCAD 2000
 90
        0
280
     0
281
     1
  0
CLASS
  1
HATCH
  2
AcDbHatch
  3
AutoCAD 2000
 90
        0
280
     0
281
     1
  0
CLASS
  1
XRECORD
  2
AcDbXrecord
  3
AutoCAD 2000
 90
        0
280
     0
281
     0
  0
CLASS
  1
LONG_TRANSACTION
  2
AcDbLongTransaction
  3
AutoCAD 2000
 90
        0
280
     0
281
     0
  0
CLASS
  1
LWPOLYLINE
  2
AcDbPolyline
  3
AutoCAD 2000
 90
        0
280
     0
281
     1
  0
CLASS
  1
HATCH
  2
AcDbHatch
  3
AutoCAD 2000
 90
        0
280
     0
281
     1
  0
CLASS
  1
XRECORD
  2
AcDbXrecord
  3
AutoCAD 2000
 90
        0
280
     0
281
     0
  0
CLASS
  1
LONG_TRANSACTION
  2
AcDbLongTransaction
  3
AutoCAD 2000
 90
        0
280
     0
281
     0
  0
CLASS
  1
LWPOLYLINE
  2
AcDbPolyline
  3
AutoCAD 2000
 90
        0
280
     0
281
     1
  0
CLASS
  1
HATCH
  2
AcDbHatch
  3
AutoCAD 2000
 90
        0
280
     0
281
     1
  0
CLASS
  1
XRECORD
  2
AcDbXrecord
  3
AutoCAD 2000
 90
        0
280
     0
281
     0
  0
CLASS
  1
LONG_TRANSACTION
  2
AcDbLongTransaction
  3
AutoCAD 2000
 90
        0
280
     0
281
     0
  0
CLASS
  1
LWPOLYLINE
  2
AcDbPolyline
  3
AutoCAD 2000
 90
        0
280
     0
281
     1
  0
CLASS
  1
HATCH
  2
AcDbHatch
  3
AutoCAD 2000
 90
        0
280
     0
281
     1
  0
CLASS
  1
XRECORD
  2
AcDbXrecord
  3
AutoCAD 2000
 90
        0
280
     0
281
     0
  0
CLASS
  1
LONG_TRANSACTION
  2
AcDbLongTransaction
  3
AutoCAD 2000
 90
        0
280
     0
281
     0
  0
CLASS
  1
LWPOLYLINE
  2
AcDbPolyline
  3
AutoCAD 2000
 90
        0
280
     0
281
     1
  0
CLASS
  1
HATCH
  2
AcDbHatch
  3
AutoCAD 2000
 90
        0
280
     0
281
     1
  0
CLASS
  1
XRECORD
  2
AcDbXrecord
  3
AutoCAD 2000
 90
        0
280
     0
281
     0
  0
CLASS
  1
LONG_TRANSACTION
  2
AcDbLongTransaction
  3
AutoCAD 2000
 90
        0
280
     0
281
     0
  0
CLASS
  1
LWPOLYLINE
  2
AcDbPolyline
  3
AutoCAD 2000
 90
        0
280
     0
281
     1
  0
CLASS
  1
HATCH
  2
AcDbHatch
  3
AutoCAD 2000
 90
        0
280
     0
281
     1
  0
CLASS
  1
XRECORD
  2
AcDbXrecord
  3
AutoCAD 2000
 90
        0
280
     0
281
     0
  0
ENDSEC
  0
SECTION
  2
TABLES
  0
TABLE
  2
VPORT
  5
8
330
0
100
AcDbSymbolTable
 70
     2
  0
VPORT
  5
28E1
330
8
100
AcDbSymbolTableRecord
100
AcDbViewportTableRecord
  2
*ACTIVE
 70
     0
 10
0.0
 20
0.0
 11
1.0
 21
1.0
 12
233.705674399588
 22
152.8812660936105
 13
0.0
 23
0.0
 14
5.0
 24
5.0
 15
0.0
 25
0.0
 16
0.0
 26
0.0
 36
1.0
 17
0.0
 27
0.0
 37
0.0
 40
325.6738963124705
 41
1.795454545454545
 42
50.0
 43
0.0
 44
0.0
 50
0.0
 51
0.0
 71
     0
 72
   100
 73
     1
 74
     0
 75
     0
 76
     0
 77
     0
 78
     0
  0
ENDTAB
  0
TABLE
  2
LTYPE
  5
5
330
0
100
AcDbSymbolTable
 70
     3
  0
LTYPE
  5
14
330
5
100
AcDbSymbolTableRecord
100
AcDbLinetypeTableRecord
  2
BYBLOCK
 70
     0
  3

 72
    65
 73
     0
 40
0.0
  0
LTYPE
  5
15
330
5
100
AcDbSymbolTableRecord
100
AcDbLinetypeTableRecord
  2
BYLAYER
 70
     0
  3

 72
    65
 73
     0
 40
0.0
  0
LTYPE
  5
16
330
5
100
AcDbSymbolTableRecord
100
AcDbLinetypeTableRecord
  2
CONTINUOUS
 70
     0
  3
Solid line
 72
    65
 73
     0
 40
0.0
  0
LTYPE
  5
120
330
5
100
AcDbSymbolTableRecord
100
AcDbLinetypeTableRecord
  2
CENTER
 70
     0
  3
____ _ ____ _ ____ _ ____ _ ____ _ ____ _ ____ 
 72
    65
 73
     4
 40
2.0
 49
1.25
 74
     0
 49
-0.25
 74
     0
 49
0.25
 74
     0
 49
-0.25
 74
     0
  0
LTYPE
  5
122
330
5
100
AcDbSymbolTableRecord
100
AcDbLinetypeTableRecord
  2
PHANTOM
 70
     0
  3
______  __  __  ______  __  __  ______  __  __ 
 72
    65
 73
     6
 40
2.5
 49
1.25
 74
     0
 49
-0.25
 74
     0
 49
0.25
 74
     0
 49
-0.25
 74
     0
 49
0.25
 74
     0
 49
-0.25
 74
     0
  0
ENDTAB
  0
TABLE
  2
LAYER
  5
2
330
0
100
AcDbSymbolTable
 70
     9
  0
LAYER
  5
F
330
2
100
AcDbSymbolTableRecord
100
AcDbLayerTableRecord
  2
0
 70
     0
 62
     7
  6
CONTINUOUS
  0
LAYER
  5
62
330
2
100
AcDbSymbolTableRecord
100
AcDbLayerTableRecord
  2
VIEWPORT
 70
     0
 62
     7
  6
CONTINUOUS
  0
LAYER
  5
6B
330
2
100
AcDbSymbolTableRecord
100
AcDbLayerTableRecord
  2
ZUWAKU
 70
     0
 62
     7
  6
CONTINUOUS
  0
LAYER
  5
3EF
330
2
100
AcDbSymbolTableRecord
100
AcDbLayerTableRecord
  2
DEFPOINTS
 70
     0
 62
     7
  6
CONTINUOUS
  0
LAYER
  5
54D
330
2
100
AcDbSymbolTableRecord
100
AcDbLayerTableRecord
  2
SEIHIN
 70
     0
 62
     3
  6
CONTINUOUS
  0
LAYER
  5
54E
330
2
100
AcDbSymbolTableRecord
100
AcDbLayerTableRecord
  2
SUNPOU
 70
     0
 62
     4
  6
CONTINUOUS
  0
LAYER
  5
54F
330
2
100
AcDbSymbolTableRecord
100
AcDbLayerTableRecord
  2
CENTER_L
 70
     0
 62
     1
  6
CENTER
  0
LAYER
  5
550
330
2
100
AcDbSymbolTableRecord
100
AcDbLayerTableRecord
  2
NOKITOI
 70
     0
 62
     8
  6
PHANTOM
  0
LAYER
  5
276C
330
2
100
AcDbSymbolTableRecord
100
AcDbLayerTableRecord
  2
MOJI
 70
     0
 62
     2
  6
CONTINUOUS
  0
ENDTAB
  0
TABLE
  2
STYLE
  5
3
330
0
100
AcDbSymbolTable
 70
     2
  0
STYLE
  5
10
330
3
100
AcDbSymbolTableRecord
100
AcDbTextStyleTableRecord
  2
STANDARD
 70
     0
 40
0.0
 41
1.0
 50
0.0
 71
     0
 42
3.0
  3
TXT
  4
c:\PROGRAM FILES\AUTOCAD LT\ms\bigfont.shx
  0
STYLE
  5
276D
330
3
100
AcDbSymbolTableRecord
100
AcDbTextStyleTableRecord
  2
ｽﾀｲﾙ1
 70
     0
 40
0.0
 41
1.0
 50
0.0
 71
     0
 42
2.5
  3
MS PGothic.ttf
  4

1001
ACAD
1000
MS PGothic
1071
    32818
  0
ENDTAB
  0
TABLE
  2
VIEW
  5
6
330
0
100
AcDbSymbolTable
 70
     0
  0
ENDTAB
  0
TABLE
  2
UCS
  5
7
330
0
100
AcDbSymbolTable
 70
     0
  0
ENDTAB
  0
TABLE
  2
APPID
  5
9
330
0
100
AcDbSymbolTable
 70
     1
  0
APPID
  5
11
330
9
100
AcDbSymbolTableRecord
100
AcDbRegAppTableRecord
  2
ACAD
 70
     0
  0
ENDTAB
  0
TABLE
  2
DIMSTYLE
  5
A
330
0
100
AcDbSymbolTable
 70
     1
  0
DIMSTYLE
105
1D
102
{ACAD_REACTORS
330
2140
330
2156
330
2163
330
21F1
330
24EF
330
2536
102
}
330
A
100
AcDbSymbolTableRecord
100
AcDbDimStyleTableRecord
  2
STANDARD
 70
     0
  3

  4

  5

  6

  7

 40
1.0
 41
0.18
 42
0.0625
 43
0.38
 44
0.18
 45
0.0
 46
0.0
 47
0.0
 48
0.0
140
0.18
141
0.09
142
0.0
143
25.4
144
1.0
145
0.0
146
1.0
147
0.09
 71
     0
 72
     0
 73
     1
 74
     1
 75
     0
 76
     0
 77
     0
 78
     0
170
     0
171
     2
172
     0
173
     0
174
     0
175
     0
176
     0
177
     0
178
     0
270
     2
271
     4
272
     4
273
     2
274
     2
340
10
275
     0
280
     0
281
     0
282
     0
283
     1
284
     0
285
     0
286
     0
287
     3
288
     0
  0
ENDTAB
  0
TABLE
  2
BLOCK_RECORD
  5
1
330
0
100
AcDbSymbolTable
 70
     7
  0
BLOCK_RECORD
  5
1A
102
{ACAD_XDICTIONARY
360
7A2
102
}
330
1
100
AcDbSymbolTableRecord
100
AcDbBlockTableRecord
  2
*MODEL_SPACE
  0
BLOCK_RECORD
  5
17
102
{ACAD_XDICTIONARY
360
7A0
102
}
330
1
100
AcDbSymbolTableRecord
100
AcDbBlockTableRecord
  2
*PAPER_SPACE
  0
BLOCK_RECORD
  5
B2
330
1
100
AcDbSymbolTableRecord
100
AcDbBlockTableRecord
  2
_OPEN
  0
BLOCK_RECORD
  5
2141
330
1
100
AcDbSymbolTableRecord
100
AcDbBlockTableRecord
  2
*D1
  0
BLOCK_RECORD
  5
2157
330
1
100
AcDbSymbolTableRecord
100
AcDbBlockTableRecord
  2
*D2
  0
BLOCK_RECORD
  5
2164
330
1
100
AcDbSymbolTableRecord
100
AcDbBlockTableRecord
  2
*D3
  0
BLOCK_RECORD
  5
21F2
330
1
100
AcDbSymbolTableRecord
100
AcDbBlockTableRecord
  2
*D4
  0
BLOCK_RECORD
  5
24F0
330
1
100
AcDbSymbolTableRecord
100
AcDbBlockTableRecord
  2
*D5
  0
BLOCK_RECORD
  5
2537
330
1
100
AcDbSymbolTableRecord
100
AcDbBlockTableRecord
  2
*D6
  0
ENDTAB
  0
ENDSEC
  0
SECTION
  2
BLOCKS
  0
BLOCK
  5
1B
330
1A
100
AcDbEntity
  8
0
100
AcDbBlockBegin
  2
*MODEL_SPACE
 70
     0
 10
0.0
 20
0.0
 30
0.0
  3
*MODEL_SPACE
  1

  0
ENDBLK
  5
1C
330
1A
100
AcDbEntity
  8
0
100
AcDbBlockEnd
  0
BLOCK
  5
18
330
17
100
AcDbEntity
 67
     1
  8
0
100
AcDbBlockBegin
  2
*PAPER_SPACE
 70
     0
 10
0.0
 20
0.0
 30
0.0
  3
*PAPER_SPACE
  1

  0
ENDBLK
  5
19
330
17
100
AcDbEntity
 67
     1
  8
0
100
AcDbBlockEnd
  0
BLOCK
  5
B3
330
B2
100
AcDbEntity
  8
0
100
AcDbBlockBegin
  2
_OPEN
 70
     0
 10
0.0
 20
0.0
 30
0.0
  3
_OPEN
  1

  0
LINE
  5
B4
330
B2
100
AcDbEntity
  8
0
  6
BYBLOCK
 62
     0
100
AcDbLine
 10
-1.0
 20
0.1666666666666666
 30
0.0
 11
0.0
 21
0.0
 31
0.0
  0
LINE
  5
B5
330
B2
100
AcDbEntity
  8
0
  6
BYBLOCK
 62
     0
100
AcDbLine
 10
0.0
 20
0.0
 30
0.0
 11
-1.0
 21
-0.1666666666666666
 31
0.0
  0
LINE
  5
B6
330
B2
100
AcDbEntity
  8
0
  6
BYBLOCK
 62
     0
100
AcDbLine
 10
0.0
 20
0.0
 30
0.0
 11
-1.0
 21
0.0
 31
0.0
  0
ENDBLK
  5
B7
330
B2
100
AcDbEntity
  8
0
100
AcDbBlockEnd
  0
BLOCK
  5
214B
330
2141
100
AcDbEntity
  8
0
100
AcDbBlockBegin
  2
*D1
 70
     1
 10
0.0
 20
0.0
 30
0.0
  3
*D1
  1

  0
LINE
  5
25D7
330
2141
100
AcDbEntity
  8
SUNPOU
100
AcDbLine
 10
101.3912977641989
 20
195.6713174136313
 30
0.0
 11
101.3912977641989
 21
215.1613841375192
 31
0.0
  0
LINE
  5
25D8
330
2141
100
AcDbEntity
  8
SUNPOU
100
AcDbLine
 10
224.7912977641989
 20
164.8826424136312
 30
0.0
 11
224.7912977641989
 21
215.1613841375192
 31
0.0
  0
LINE
  5
25D9
330
2141
100
AcDbEntity
  8
SUNPOU
100
AcDbLine
 10
104.3912977641989
 20
213.6613841375192
 30
0.0
 11
221.7912977641989
 21
213.6613841375192
 31
0.0
  0
INSERT
  5
25DA
330
2141
100
AcDbEntity
  8
SUNPOU
100
AcDbBlockReference
  2
_OPEN
 10
101.3912977641989
 20
213.6613841375192
 30
0.0
 41
3.0
 42
3.0
 43
3.0
 50
180.0
  0
INSERT
  5
25DB
330
2141
100
AcDbEntity
  8
SUNPOU
100
AcDbBlockReference
  2
_OPEN
 10
224.7912977641989
 20
213.6613841375192
 30
0.0
 41
3.0
 42
3.0
 43
3.0
  0
MTEXT
  5
25DC
330
2141
100
AcDbEntity
  8
SUNPOU
100
AcDbMText
 10
163.0912977641989
 20
216.1613841375192
 30
0.0
 40
3.0
 41
0.0
 71
     5
 72
     5
  1
\A1;123
1001
ACAD
1000
MTEXTBEGIN
1070
    73
1070
     1
1070
    44
1040
1.0
1070
    74
1070
     0
1000
MTEXTEND
1000
MTEXTBEGIN
1070
    73
1070
     1
1070
    44
1040
1.0
1070
    74
1070
     0
1000
MTEXTEND
1000
MTEXTBEGIN
1070
    73
1070
     1
1070
    44
1040
1.0
1070
    74
1070
     0
1000
MTEXTEND
1000
MTEXTBEGIN
1070
    73
1070
     1
1070
    44
1040
1.0
1070
    74
1070
     0
1000
MTEXTEND
1000
MTEXTBEGIN
1070
    73
1070
     1
1070
    44
1040
1.0
1070
    74
1070
     0
1000
MTEXTEND
  0
POINT
  5
25DD
330
2141
100
AcDbEntity
  8
DEFPOINTS
 62
     0
100
AcDbPoint
 10
101.3912977641989
 20
192.6713174136313
 30
0.0
  0
POINT
  5
25DE
330
2141
100
AcDbEntity
  8
DEFPOINTS
 62
     0
100
AcDbPoint
 10
224.7912977641989
 20
161.8826424136312
 30
0.0
  0
POINT
  5
25DF
330
2141
100
AcDbEntity
  8
DEFPOINTS
 62
     0
100
AcDbPoint
 10
224.7912977641989
 20
213.6613841375192
 30
0.0
  0
ENDBLK
  5
214C
330
2141
100
AcDbEntity
  8
0
100
AcDbBlockEnd
  0
BLOCK
  5
2161
330
2157
100
AcDbEntity
  8
0
100
AcDbBlockBegin
  2
*D2
 70
     1
 10
0.0
 20
0.0
 30
0.0
  3
*D2
  1

  0
LINE
  5
25CE
330
2157
100
AcDbEntity
  8
SUNPOU
100
AcDbLine
 10
98.39129776419895
 20
192.6713174136313
 30
0.0
 11
75.23681234219477
 21
192.6713174136313
 31
0.0
  0
LINE
  5
25CF
330
2157
100
AcDbEntity
  8
SUNPOU
100
AcDbLine
 10
161.0912977641988
 20
106.8712958061145
 30
0.0
 11
75.23681234219475
 21
106.8712958061145
 31
0.0
  0
LINE
  5
25D0
330
2157
100
AcDbEntity
  8
SUNPOU
100
AcDbLine
 10
76.73681234219476
 20
189.6713174136313
 30
0.0
 11
76.73681234219476
 21
109.8712958061145
 31
0.0
  0
INSERT
  5
25D1
330
2157
100
AcDbEntity
  8
SUNPOU
100
AcDbBlockReference
  2
_OPEN
 10
76.73681234219476
 20
192.6713174136313
 30
0.0
 41
3.0
 42
3.0
 43
3.0
 50
90.0
  0
INSERT
  5
25D2
330
2157
100
AcDbEntity
  8
SUNPOU
100
AcDbBlockReference
  2
_OPEN
 10
76.73681234219476
 20
106.8712958061145
 30
0.0
 41
3.0
 42
3.0
 43
3.0
 50
270.0
  0
MTEXT
  5
25D3
330
2157
100
AcDbEntity
  8
SUNPOU
100
AcDbMText
 10
74.23681234219474
 20
149.7713066098729
 30
0.0
 40
3.0
 41
0.0
 71
     5
 72
     5
  1
\A1;86
 11
0.0000000000000001
 21
1.0
 31
0.0
1001
ACAD
1000
MTEXTBEGIN
1070
    73
1070
     1
1070
    44
1040
1.0
1070
    74
1070
     0
1000
MTEXTEND
1000
MTEXTBEGIN
1070
    73
1070
     1
1070
    44
1040
1.0
1070
    74
1070
     0
1000
MTEXTEND
1000
MTEXTBEGIN
1070
    73
1070
     1
1070
    44
1040
1.0
1070
    74
1070
     0
1000
MTEXTEND
1000
MTEXTBEGIN
1070
    73
1070
     1
1070
    44
1040
1.0
1070
    74
1070
     0
1000
MTEXTEND
1000
MTEXTBEGIN
1070
    73
1070
     1
1070
    44
1040
1.0
1070
    74
1070
     0
1000
MTEXTEND
  0
POINT
  5
25D4
330
2157
100
AcDbEntity
  8
DEFPOINTS
 62
     0
100
AcDbPoint
 10
101.3912977641989
 20
192.6713174136313
 30
0.0
  0
POINT
  5
25D5
330
2157
100
AcDbEntity
  8
DEFPOINTS
 62
     0
100
AcDbPoint
 10
164.0912977641988
 20
106.8712958061145
 30
0.0
  0
POINT
  5
25D6
330
2157
100
AcDbEntity
  8
DEFPOINTS
 62
     0
100
AcDbPoint
 10
76.73681234219476
 20
106.8712958061145
 30
0.0
  0
ENDBLK
  5
2162
330
2157
100
AcDbEntity
  8
0
100
AcDbBlockEnd
  0
BLOCK
  5
216E
330
2164
100
AcDbEntity
  8
0
100
AcDbBlockBegin
  2
*D3
 70
     1
 10
0.0
 20
0.0
 30
0.0
  3
*D3
  1

  0
LINE
  5
2905
330
2164
100
AcDbEntity
  8
SUNPOU
100
AcDbLine
 10
161.0912977641988
 20
106.8712958061145
 30
0.0
 11
75.23681234219475
 21
106.8712958061145
 31
0.0
  0
LINE
  5
2906
330
2164
100
AcDbEntity
  8
SUNPOU
100
AcDbLine
 10
163.9918977641989
 20
57.47135541363128
 30
0.0
 11
75.23681234219473
 21
57.47135541363132
 31
0.0
  0
LINE
  5
2907
330
2164
100
AcDbEntity
  8
SUNPOU
100
AcDbLine
 10
76.73681234219476
 20
103.8712958061145
 30
0.0
 11
76.73681234219474
 21
60.47135541363132
 31
0.0
  0
INSERT
  5
2908
330
2164
100
AcDbEntity
  8
SUNPOU
100
AcDbBlockReference
  2
_OPEN
 10
76.73681234219476
 20
106.8712958061145
 30
0.0
 41
3.0
 42
3.0
 43
3.0
 50
90.0
  0
INSERT
  5
2909
330
2164
100
AcDbEntity
  8
SUNPOU
100
AcDbBlockReference
  2
_OPEN
 10
76.73681234219474
 20
57.47135541363132
 30
0.0
 41
3.0
 42
3.0
 43
3.0
 50
270.0
  0
MTEXT
  5
290A
330
2164
100
AcDbEntity
  8
SUNPOU
100
AcDbMText
 10
74.23681234219472
 20
82.17132560987295
 30
0.0
 40
3.0
 41
0.0
 71
     5
 72
     1
  1
\A1;H
 11
0.0000000000000001
 21
1.0
 31
0.0
  0
POINT
  5
290B
330
2164
100
AcDbEntity
  8
DEFPOINTS
 62
     0
100
AcDbPoint
 10
164.0912977641988
 20
106.8712958061145
 30
0.0
  0
POINT
  5
290C
330
2164
100
AcDbEntity
  8
DEFPOINTS
 62
     0
100
AcDbPoint
 10
166.9918977641989
 20
57.47135541363128
 30
0.0
  0
POINT
  5
290D
330
2164
100
AcDbEntity
  8
DEFPOINTS
 62
     0
100
AcDbPoint
 10
76.73681234219474
 20
57.47135541363132
 30
0.0
  0
ENDBLK
  5
216F
330
2164
100
AcDbEntity
  8
0
100
AcDbBlockEnd
  0
BLOCK
  5
21FC
330
21F2
100
AcDbEntity
  8
0
100
AcDbBlockBegin
  2
*D4
 70
     1
 10
0.0
 20
0.0
 30
0.0
  3
*D4
  1

  0
LINE
  5
25E0
330
21F2
100
AcDbEntity
  8
SUNPOU
100
AcDbLine
 10
98.39129776419895
 20
254.8367602931369
 30
0.0
 11
75.23681234219478
 21
254.8367602931369
 31
0.0
  0
LINE
  5
25E1
330
21F2
100
AcDbEntity
  8
SUNPOU
100
AcDbLine
 10
98.39129776419895
 20
232.8367602931369
 30
0.0
 11
75.23681234219478
 21
232.8367602931369
 31
0.0
  0
LINE
  5
25E2
330
21F2
100
AcDbEntity
  8
SUNPOU
100
AcDbLine
 10
76.73681234219478
 20
251.8367602931369
 30
0.0
 11
76.73681234219478
 21
235.8367602931369
 31
0.0
  0
INSERT
  5
25E3
330
21F2
100
AcDbEntity
  8
SUNPOU
100
AcDbBlockReference
  2
_OPEN
 10
76.73681234219478
 20
254.8367602931369
 30
0.0
 41
3.0
 42
3.0
 43
3.0
 50
90.0
  0
INSERT
  5
25E4
330
21F2
100
AcDbEntity
  8
SUNPOU
100
AcDbBlockReference
  2
_OPEN
 10
76.73681234219478
 20
232.8367602931369
 30
0.0
 41
3.0
 42
3.0
 43
3.0
 50
270.0
  0
MTEXT
  5
25E5
330
21F2
100
AcDbEntity
  8
SUNPOU
100
AcDbMText
 10
74.23681234219474
 20
243.8367602931369
 30
0.0
 40
3.0
 41
0.0
 71
     5
 72
     5
  1
\A1;22
 11
0.0000000000000001
 21
1.0
 31
0.0
1001
ACAD
1000
MTEXTBEGIN
1070
    73
1070
     1
1070
    44
1040
1.0
1070
    74
1070
     0
1000
MTEXTEND
1000
MTEXTBEGIN
1070
    73
1070
     1
1070
    44
1040
1.0
1070
    74
1070
     0
1000
MTEXTEND
1000
MTEXTBEGIN
1070
    73
1070
     1
1070
    44
1040
1.0
1070
    74
1070
     0
1000
MTEXTEND
1000
MTEXTBEGIN
1070
    73
1070
     1
1070
    44
1040
1.0
1070
    74
1070
     0
1000
MTEXTEND
1000
MTEXTBEGIN
1070
    73
1070
     1
1070
    44
1040
1.0
1070
    74
1070
     0
1000
MTEXTEND
  0
POINT
  5
25E6
330
21F2
100
AcDbEntity
  8
DEFPOINTS
 62
     0
100
AcDbPoint
 10
101.3912977641989
 20
254.8367602931369
 30
0.0
  0
POINT
  5
25E7
330
21F2
100
AcDbEntity
  8
DEFPOINTS
 62
     0
100
AcDbPoint
 10
101.3912977641989
 20
232.8367602931369
 30
0.0
  0
POINT
  5
25E8
330
21F2
100
AcDbEntity
  8
DEFPOINTS
 62
     0
100
AcDbPoint
 10
76.73681234219478
 20
232.8367602931369
 30
0.0
  0
ENDBLK
  5
21FD
330
21F2
100
AcDbEntity
  8
0
100
AcDbBlockEnd
  0
BLOCK
  5
24FC
330
24F0
100
AcDbEntity
  8
0
100
AcDbBlockBegin
  2
*D5
 70
     1
 10
0.0
 20
0.0
 30
0.0
  3
*D5
  1

  0
LINE
  5
25F2
330
24F0
100
AcDbEntity
  8
SUNPOU
100
AcDbLine
 10
323.891952037112
 20
125.5389486702754
 30
0.0
 11
354.9969755352591
 21
138.106194139917
 31
0.0
  0
LINE
  5
25F3
330
24F0
100
AcDbEntity
  8
SUNPOU
100
AcDbLine
 10
325.952288337112
 20
120.4394374702755
 30
0.0
 11
357.0573118352592
 21
133.0066829399169
 31
0.0
  0
LINE
  5
25F4
330
24F0
100
AcDbEntity
  8
SUNPOU
100
AcDbLine
 10
352.4823799595933
 20
140.3258357981226
 30
0.0
 11
351.358560162343
 21
143.1073873549534
 31
0.0
  0
LINE
  5
25F5
330
24F0
100
AcDbEntity
  8
SUNPOU
100
AcDbLine
 10
356.7903558540942
 20
129.6632214844609
 30
0.0
 11
362.0348482412627
 21
116.6826475525837
 31
0.0
  0
LINE
  5
25F6
330
24F0
100
AcDbEntity
  8
SUNPOU
100
AcDbLine
 10
353.6061997568438
 20
137.5442842412917
 30
0.0
 11
355.6665360568438
 21
132.4447730412918
 31
0.0
  0
INSERT
  5
25F7
330
24F0
100
AcDbEntity
  8
SUNPOU
100
AcDbBlockReference
  2
_OPEN
 10
353.6061997568438
 20
137.5442842412917
 30
0.0
 41
3.0
 42
3.0
 43
3.0
 50
292.0000003502293
  0
INSERT
  5
25F8
330
24F0
100
AcDbEntity
  8
SUNPOU
100
AcDbBlockReference
  2
_OPEN
 10
355.6665360568438
 20
132.4447730412918
 30
0.0
 41
3.0
 42
3.0
 43
3.0
 50
112.0000003502292
  0
MTEXT
  5
25F9
330
24F0
100
AcDbEntity
  8
SUNPOU
100
AcDbMText
 10
362.292471576996
 20
122.7186752378155
 30
0.0
 40
3.0
 41
0.0
 71
     5
 72
     5
  1
\A1;φ5.5
 11
0.3746065990834662
 21
-0.9271838522769469
 31
0.0
1001
ACAD
1000
MTEXTBEGIN
1070
    73
1070
     1
1070
    44
1040
1.0
1070
    74
1070
     0
1000
MTEXTEND
1000
MTEXTBEGIN
1070
    73
1070
     1
1070
    44
1040
1.0
1070
    74
1070
     0
1000
MTEXTEND
1000
MTEXTBEGIN
1070
    73
1070
     1
1070
    44
1040
1.0
1070
    74
1070
     0
1000
MTEXTEND
1000
MTEXTBEGIN
1070
    73
1070
     1
1070
    44
1040
1.0
1070
    74
1070
     0
1000
MTEXTEND
1000
MTEXTBEGIN
1070
    73
1070
     1
1070
    44
1040
1.0
1070
    74
1070
     0
1000
MTEXTEND
  0
POINT
  5
25FA
330
24F0
100
AcDbEntity
  8
DEFPOINTS
 62
     0
100
AcDbPoint
 10
321.1104004802811
 20
124.415128873025
 30
0.0
  0
POINT
  5
25FB
330
24F0
100
AcDbEntity
  8
DEFPOINTS
 62
     0
100
AcDbPoint
 10
323.1707367802812
 20
119.3156176730251
 30
0.0
  0
POINT
  5
25FC
330
24F0
100
AcDbEntity
  8
DEFPOINTS
 62
     0
100
AcDbPoint
 10
355.6665360568438
 20
132.4447730412918
 30
0.0
  0
ENDBLK
  5
24FD
330
24F0
100
AcDbEntity
  8
0
100
AcDbBlockEnd
  0
BLOCK
  5
2541
330
2537
100
AcDbEntity
  8
0
100
AcDbBlockBegin
  2
*D6
 70
     1
 10
0.0
 20
0.0
 30
0.0
  3
*D6
  1

  0
LINE
  5
25E9
330
2537
100
AcDbEntity
  8
SUNPOU
100
AcDbLine
 10
165.1972973552892
 20
56.46277865066842
 30
0.0
 11
173.1433246765376
 21
36.42753756570805
 31
0.0
  0
LINE
  5
25EA
330
2537
100
AcDbEntity
  8
SUNPOU
100
AcDbLine
 10
332.5184067713716
 20
122.8227541160904
 30
0.0
 11
340.4644340926199
 21
102.78751303113
 31
0.0
  0
LINE
  5
25EB
330
2537
100
AcDbEntity
  8
SUNPOU
100
AcDbLine
 10
175.3790100379271
 20
38.92787973526576
 30
0.0
 11
337.12274914014
 21
103.075856018507
 31
0.0
  0
INSERT
  5
25EC
330
2537
100
AcDbEntity
  8
SUNPOU
100
AcDbBlockReference
  2
_OPEN
 10
172.5903248809924
 20
37.8218801441754
 30
0.0
 41
3.0
 42
3.0
 43
3.0
 50
201.6334022423929
  0
INSERT
  5
25ED
330
2537
100
AcDbEntity
  8
SUNPOU
100
AcDbBlockReference
  2
_OPEN
 10
339.9114342970747
 20
104.1818556095974
 30
0.0
 41
3.0
 42
3.0
 43
3.0
 50
21.63340224239302
  0
MTEXT
  5
25EE
330
2537
100
AcDbEntity
  8
SUNPOU
100
AcDbMText
 10
255.3292132631249
 20
73.325772174332
 30
0.0
 40
3.0
 41
0.0
 71
     5
 72
     5
  1
\A1;180
 11
0.9295617189782349
 21
0.3686665303634556
 31
0.0
1001
ACAD
1000
MTEXTBEGIN
1070
    73
1070
     1
1070
    44
1040
1.0
1070
    74
1070
     0
1000
MTEXTEND
1000
MTEXTBEGIN
1070
    73
1070
     1
1070
    44
1040
1.0
1070
    74
1070
     0
1000
MTEXTEND
1000
MTEXTBEGIN
1070
    73
1070
     1
1070
    44
1040
1.0
1070
    74
1070
     0
1000
MTEXTEND
1000
MTEXTBEGIN
1070
    73
1070
     1
1070
    44
1040
1.0
1070
    74
1070
     0
1000
MTEXTEND
1000
MTEXTBEGIN
1070
    73
1070
     1
1070
    44
1040
1.0
1070
    74
1070
     0
1000
MTEXTEND
  0
POINT
  5
25EF
330
2537
100
AcDbEntity
  8
DEFPOINTS
 62
     0
100
AcDbPoint
 10
164.0912977641988
 20
59.25146380760313
 30
0.0
  0
POINT
  5
25F0
330
2537
100
AcDbEntity
  8
DEFPOINTS
 62
     0
100
AcDbPoint
 10
331.4124071802812
 20
125.6114392730251
 30
0.0
  0
POINT
  5
25F1
330
2537
100
AcDbEntity
  8
DEFPOINTS
 62
     0
100
AcDbPoint
 10
339.9114342970747
 20
104.1818556095974
 30
0.0
  0
ENDBLK
  5
2542
330
2537
100
AcDbEntity
  8
0
100
AcDbBlockEnd
  0
ENDSEC
  0
SECTION
  2
ENTITIES
  0
ARC
  5
5A7
330
1A
100
AcDbEntity
  8
NOKITOI
  6
PHANTOM
 62
     8
100
AcDbCircle
 10
154.4047613988472
 20
149.8713318900014
 30
0.0
 40
43.00001447645168
100
AcDbArc
 50
186.5249107071177
 51
269.9998883751437
  0
ARC
  5
5A8
330
1A
100
AcDbEntity
  8
NOKITOI
  6
PHANTOM
 62
     8
100
AcDbCircle
 10
154.4047837072725
 20
149.871311788975
 30
0.0
 40
41.79999437547816
100
AcDbArc
 50
184.4742952125247
 51
269.999854592109
  0
LINE
  5
5A9
330
1A
100
AcDbEntity
  8
NOKITOI
  6
PHANTOM
 62
     8
100
AcDbLine
 10
104.1937776253043
 20
149.0089174136313
 30
0.0
 11
104.1082776253046
 21
151.7464174136312
 31
0.0
  0
LINE
  5
5AA
330
1A
100
AcDbEntity
  8
NOKITOI
  6
PHANTOM
 62
     8
100
AcDbLine
 10
102.6556776253046
 20
159.8088174136313
 30
0.0
 11
103.0458776253044
 21
147.3245174136312
 31
0.0
  0
LINE
  5
5AB
330
1A
100
AcDbEntity
  8
NOKITOI
  6
PHANTOM
 62
     8
100
AcDbLine
 10
112.233677625305
 20
147.0713174136313
 30
0.0
 11
106.1927776253046
 21
147.0713174136313
 31
0.0
  0
ARC
  5
5AC
330
1A
100
AcDbEntity
  8
NOKITOI
  6
PHANTOM
 62
     8
100
AcDbCircle
 10
110.689769201142
 20
144.8713249286878
 30
0.0
 40
0.9999924849789756
100
AcDbArc
 50
6.528264606673934
 51
89.99951732740965
  0
LINE
  5
5AD
330
1A
100
AcDbEntity
  8
NOKITOI
  6
PHANTOM
 62
     8
100
AcDbLine
 10
104.5450776253046
 20
145.8713174136313
 30
0.0
 11
110.6897776253044
 21
145.8713174136313
 31
0.0
  0
ARC
  5
5AE
330
1A
100
AcDbEntity
  8
NOKITOI
  6
PHANTOM
 62
     8
100
AcDbCircle
 10
106.192791197443
 20
149.0713042585449
 30
0.0
 40
1.999986844959662
100
AcDbArc
 50
181.7875531852356
 51
269.9996111843215
  0
ARC
  5
5AF
330
1A
100
AcDbEntity
  8
NOKITOI
  6
PHANTOM
 62
     8
100
AcDbCircle
 10
104.5451135844554
 20
147.3712825594881
 30
0.0
 40
1.499965146287778
100
AcDbArc
 50
181.7866280217767
 51
269.9986264296971
  0
ARC
  5
5B0
330
1A
100
AcDbEntity
  8
NOKITOI
  6
PHANTOM
 62
     8
100
AcDbCircle
 10
112.2336901950129
 20
146.5713057889016
 30
0.0
 40
0.5000116248877111
100
AcDbArc
 50
4.474846808342103
 51
90.00144034898383
  0
ARC
  5
5B1
330
1A
100
AcDbEntity
  8
NOKITOI
  6
PHANTOM
 62
     8
100
AcDbCircle
 10
104.6546903761545
 20
159.8713305687177
 30
0.0
 40
1.999986844954076
100
AcDbArc
 50
90.00036528735451
 51
181.7883072882703
  0
LINE
  5
5B2
330
1A
100
AcDbEntity
  8
NOKITOI
  6
PHANTOM
 62
     8
100
AcDbLine
 10
110.9325776253044
 20
159.3713174136313
 30
0.0
 11
108.7010776253045
 21
159.3713174136313
 31
0.0
  0
ARC
  5
5B3
330
1A
100
AcDbEntity
  8
NOKITOI
  6
PHANTOM
 62
     8
100
AcDbCircle
 10
110.6167707383096
 20
152.8713108785458
 30
0.0
 40
0.499993464961963
100
AcDbArc
 50
270.0007892017869
 51
356.997036131742
  0
LINE
  5
5B4
330
1A
100
AcDbEntity
  8
NOKITOI
  6
PHANTOM
 62
     8
100
AcDbLine
 10
109.9526776253046
 20
153.5713174136313
 30
0.0
 11
110.1338776253046
 21
157.0128174136314
 31
0.0
  0
LINE
  5
5B5
330
1A
100
AcDbEntity
  8
NOKITOI
  6
PHANTOM
 62
     8
100
AcDbLine
 10
109.5788776253047
 20
156.3997174136312
 30
0.0
 11
110.1338776253046
 21
157.0128174136314
 31
0.0
  0
ARC
  5
5B6
330
1A
100
AcDbEntity
  8
NOKITOI
  6
PHANTOM
 62
     8
100
AcDbCircle
 10
108.1063978379738
 20
151.8713761420113
 30
0.0
 40
5.2000412730095
100
AcDbArc
 50
90.0013245430618
 51
142.0757990790548
  0
LINE
  5
5B7
330
1A
100
AcDbEntity
  8
NOKITOI
  6
PHANTOM
 62
     8
100
AcDbLine
 10
103.855077625305
 20
159.8463174136312
 30
0.0
 11
104.0044776253043
 21
155.0674174136314
 31
0.0
  0
ARC
  5
5B8
330
1A
100
AcDbEntity
  8
NOKITOI
  6
PHANTOM
 62
     8
100
AcDbCircle
 10
108.1063155067513
 20
151.8713611961566
 30
0.0
 40
3.999989731271038
100
AcDbArc
 50
96.47731142013116
 51
181.7899836067311
  0
ARC
  5
5B9
330
1A
100
AcDbEntity
  8
NOKITOI
  6
PHANTOM
 62
     8
100
AcDbCircle
 10
107.71149184372
 20
155.3490027793303
 30
0.0
 40
0.5000073448410256
100
AcDbArc
 50
351.872947864124
 51
96.47829282996921
  0
LINE
  5
5BA
330
1A
100
AcDbEntity
  8
NOKITOI
  6
PHANTOM
 62
     8
100
AcDbLine
 10
109.174777625305
 20
153.5713174136313
 30
0.0
 11
109.5788776253047
 21
156.3997174136312
 31
0.0
  0
LINE
  5
5BB
330
1A
100
AcDbEntity
  8
NOKITOI
  6
PHANTOM
 62
     8
100
AcDbLine
 10
109.9526776253046
 20
153.5713174136313
 30
0.0
 11
109.174777625305
 21
153.5713174136313
 31
0.0
  0
ARC
  5
5BC
330
1A
100
AcDbEntity
  8
NOKITOI
  6
PHANTOM
 62
     8
100
AcDbCircle
 10
108.3677042259023
 20
152.8712867367492
 30
0.0
 40
0.4999693238254178
100
AcDbArc
 50
171.8555038770531
 51
269.9969516090356
  0
LINE
  5
5BD
330
1A
100
AcDbEntity
  8
NOKITOI
  6
PHANTOM
 62
     8
100
AcDbLine
 10
110.6167776253045
 20
152.3713174136313
 30
0.0
 11
108.3676776253045
 21
152.3713174136313
 31
0.0
  0
LINE
  5
5BE
330
1A
100
AcDbEntity
  8
NOKITOI
  6
PHANTOM
 62
     8
100
AcDbLine
 10
107.8727776253044
 20
152.9421174136315
 30
0.0
 11
108.2064776253045
 21
155.2783174136314
 31
0.0
  0
LINE
  5
5BF
330
1A
100
AcDbEntity
  8
NOKITOI
  6
PHANTOM
 62
     8
100
AcDbLine
 10
107.1274776253048
 20
160.6713174136315
 30
0.0
 11
106.6274776253048
 21
158.1713174136315
 31
0.0
  0
LINE
  5
5C0
330
1A
100
AcDbEntity
  8
NOKITOI
  6
PHANTOM
 62
     8
100
AcDbLine
 10
106.6274776253048
 20
158.1713174136315
 30
0.0
 11
109.5639776253046
 21
158.1713174136315
 31
0.0
  0
LINE
  5
5C1
330
1A
100
AcDbEntity
  8
NOKITOI
  6
PHANTOM
 62
     8
100
AcDbLine
 10
104.6546776253044
 20
161.8713174136313
 30
0.0
 11
107.9812776253047
 21
161.8713174136313
 31
0.0
  0
LINE
  5
5C2
330
1A
100
AcDbEntity
  8
NOKITOI
  6
PHANTOM
 62
     8
100
AcDbLine
 10
104.6546776253044
 20
160.6713174136315
 30
0.0
 11
107.1274776253048
 21
160.6713174136315
 31
0.0
  0
ARC
  5
5C3
330
1A
100
AcDbEntity
  8
NOKITOI
  6
PHANTOM
 62
     8
100
AcDbCircle
 10
104.6546821201027
 20
159.8713220511582
 30
0.0
 40
0.7999953624857498
100
AcDbArc
 50
90.00032191805264
 51
181.7911273464193
  0
ARC
  5
5C4
330
1A
100
AcDbEntity
  8
NOKITOI
  6
PHANTOM
 62
     8
100
AcDbCircle
 10
107.9812768422961
 20
161.371318368633
 30
0.0
 40
0.4999990449987349
100
AcDbArc
 50
348.6967198015447
 51
89.99991027369492
  0
ARC
  5
5C5
330
1A
100
AcDbEntity
  8
NOKITOI
  6
PHANTOM
 62
     8
100
AcDbCircle
 10
108.7010703707491
 20
159.8713262634747
 30
0.0
 40
0.5000088498959383
100
AcDbArc
 50
168.6864043304892
 51
270.0008312961442
  0
LINE
  5
5C6
330
1A
100
AcDbEntity
  8
NOKITOI
  6
PHANTOM
 62
     8
100
AcDbLine
 10
108.2107776253046
 20
159.9694174136312
 30
0.0
 11
108.4715776253046
 21
161.2733174136313
 31
0.0
  0
LINE
  5
5C7
330
1A
100
AcDbEntity
  8
NOKITOI
  6
PHANTOM
 62
     8
100
AcDbLine
 10
108.5681776253049
 20
157.0713174136313
 30
0.0
 11
108.1062776253047
 21
157.0713174136313
 31
0.0
  0
LINE
  5
5C8
330
1A
100
AcDbEntity
  8
NOKITOI
  6
PHANTOM
 62
     8
100
AcDbLine
 10
108.5681776253049
 20
157.0713174136313
 30
0.0
 11
109.5639776253046
 21
158.1713174136315
 31
0.0
  0
LINE
  5
5C9
330
1A
100
AcDbEntity
  8
NOKITOI
  6
PHANTOM
 62
     8
100
AcDbLine
 10
111.1161776253047
 20
152.8451174136312
 30
0.0
 11
111.4319776253045
 21
158.8450174136313
 31
0.0
  0
ARC
  5
5CA
330
1A
100
AcDbEntity
  8
NOKITOI
  6
PHANTOM
 62
     8
100
AcDbCircle
 10
110.9325714241467
 20
158.8713239487165
 30
0.0
 40
0.4999934649531607
100
AcDbArc
 50
356.9955363203376
 51
89.99928939038076
  0
LINE
  5
5CB
330
1A
100
AcDbEntity
  8
NOKITOI
  6
PHANTOM
 62
     8
100
AcDbLine
 10
195.2341776253046
 20
106.8712174136313
 30
0.0
 11
175.0762776253049
 21
106.8712174136313
 31
0.0
  0
LINE
  5
5CC
330
1A
100
AcDbEntity
  8
NOKITOI
  6
PHANTOM
 62
     8
100
AcDbLine
 10
194.9843776253046
 20
108.0712174136313
 30
0.0
 11
175.0762776253049
 21
108.0712174136313
 31
0.0
  0
LINE
  5
5CD
330
1A
100
AcDbEntity
  8
NOKITOI
  6
PHANTOM
 62
     8
100
AcDbLine
 10
199.2341776253046
 20
106.8712174136313
 30
0.0
 11
154.4047776253045
 21
106.8713174136313
 31
0.0
  0
LINE
  5
5CE
330
1A
100
AcDbEntity
  8
NOKITOI
  6
PHANTOM
 62
     8
100
AcDbLine
 10
154.4047776253045
 20
108.0713174136313
 30
0.0
 11
198.9843776253046
 21
108.0712174136313
 31
0.0
  0
LINE
  5
5CF
330
1A
100
AcDbEntity
  8
NOKITOI
  6
PHANTOM
 62
     8
100
AcDbLine
 10
220.9886776253046
 20
149.0087174136314
 30
0.0
 11
221.0741776253043
 21
151.7463174136313
 31
0.0
  0
LINE
  5
5D0
330
1A
100
AcDbEntity
  8
NOKITOI
  6
PHANTOM
 62
     8
100
AcDbLine
 10
222.5266776253047
 20
159.8088174136313
 30
0.0
 11
222.1365776253046
 21
147.3244174136312
 31
0.0
  0
LINE
  5
5D1
330
1A
100
AcDbEntity
  8
NOKITOI
  6
PHANTOM
 62
     8
100
AcDbLine
 10
220.6372776253046
 20
145.8713174136313
 30
0.0
 11
214.4961776253048
 21
145.8713174136313
 31
0.0
  0
LINE
  5
5D2
330
1A
100
AcDbEntity
  8
NOKITOI
  6
PHANTOM
 62
     8
100
AcDbLine
 10
212.9576776253042
 20
147.0713174136313
 30
0.0
 11
218.9895776253047
 21
147.0713174136313
 31
0.0
  0
LINE
  5
5D3
330
1A
100
AcDbEntity
  8
NOKITOI
  6
PHANTOM
 62
     8
100
AcDbLine
 10
213.5011776253049
 20
144.9708174136313
 30
0.0
 11
210.6323776253047
 21
116.2834174136313
 31
0.0
  0
LINE
  5
5D4
330
1A
100
AcDbEntity
  8
NOKITOI
  6
PHANTOM
 62
     8
100
AcDbLine
 10
212.4601776253047
 20
146.6211174136313
 30
0.0
 11
209.4671776253044
 21
116.6913174136312
 31
0.0
  0
LINE
  5
5D5
330
1A
100
AcDbEntity
  8
NOKITOI
  6
PHANTOM
 62
     8
100
AcDbLine
 10
210.2705776253046
 20
115.6089174136314
 30
0.0
 11
199.8674776253046
 21
107.0972174136314
 31
0.0
  0
LINE
  5
5D6
330
1A
100
AcDbEntity
  8
NOKITOI
  6
PHANTOM
 62
     8
100
AcDbLine
 10
209.286277625305
 20
116.3540174136313
 30
0.0
 11
199.3009776253047
 21
108.1842174136312
 31
0.0
  0
ARC
  5
5D7
330
1A
100
AcDbEntity
  8
NOKITOI
  6
PHANTOM
 62
     8
100
AcDbCircle
 10
199.2341706927272
 20
107.8712149386252
 30
0.0
 40
0.9999975250179316
100
AcDbArc
 50
270.0003972084035
 51
309.2946416752299
  0
ARC
  5
5D8
330
1A
100
AcDbEntity
  8
NOKITOI
  6
PHANTOM
 62
     8
100
AcDbCircle
 10
198.9843840130533
 20
108.5712196936209
 30
0.0
 40
0.5000022800304047
100
AcDbArc
 50
269.9992680212791
 51
309.2854498596061
  0
ARC
  5
5D9
330
1A
100
AcDbEntity
  8
NOKITOI
  6
PHANTOM
 62
     8
100
AcDbCircle
 10
209.6373550524358
 20
116.3828753419587
 30
0.0
 40
0.9999908507640039
100
AcDbArc
 50
309.288709223069
 51
354.2862329477532
  0
ARC
  5
5DA
330
1A
100
AcDbEntity
  8
NOKITOI
  6
PHANTOM
 62
     8
100
AcDbCircle
 10
208.9696601994264
 20
116.7409849272433
 30
0.0
 40
0.4999904508696396
100
AcDbArc
 50
309.2900846377951
 51
354.2990110749239
  0
ARC
  5
5DB
330
1A
100
AcDbEntity
  8
NOKITOI
  6
PHANTOM
 62
     8
100
AcDbCircle
 10
214.4961982751456
 20
144.8713361014805
 30
0.0
 40
0.9999813123640345
100
AcDbArc
 50
90.00118317084911
 51
174.2905900333514
  0
ARC
  5
5DC
330
1A
100
AcDbEntity
  8
NOKITOI
  6
PHANTOM
 62
     8
100
AcDbCircle
 10
212.9576906963093
 20
146.5713292439112
 30
0.0
 40
0.499988169890889
100
AcDbArc
 50
90.00149786226634
 51
174.2966061377162
  0
ARC
  5
5DD
330
1A
100
AcDbEntity
  8
NOKITOI
  6
PHANTOM
 62
     8
100
AcDbCircle
 10
220.6372948384828
 20
147.3713340967791
 30
0.0
 40
1.500016683246579
100
AcDbArc
 50
269.9993425123344
 51
358.2076423244113
  0
ARC
  5
5DE
330
1A
100
AcDbEntity
  8
NOKITOI
  6
PHANTOM
 62
     8
100
AcDbCircle
 10
218.9896156131289
 20
149.0712542342035
 30
0.0
 40
2.000036820932882
100
AcDbArc
 50
269.9989117490344
 51
358.2110591274195
  0
LINE
  5
5DF
330
1A
100
AcDbEntity
  8
NOKITOI
  6
PHANTOM
 62
     8
100
AcDbLine
 10
220.5276776253048
 20
161.8712174136313
 30
0.0
 11
217.2010776253045
 21
161.8713174136313
 31
0.0
  0
LINE
  5
5E0
330
1A
100
AcDbEntity
  8
NOKITOI
  6
PHANTOM
 62
     8
100
AcDbLine
 10
218.5549776253046
 20
158.1713174136315
 30
0.0
 11
215.6183776253046
 21
158.1713174136315
 31
0.0
  0
ARC
  5
5E1
330
1A
100
AcDbEntity
  8
NOKITOI
  6
PHANTOM
 62
     8
100
AcDbCircle
 10
217.4709069978043
 20
155.3489476461262
 30
0.0
 40
0.4999578477751074
100
AcDbArc
 50
83.52609071220754
 51
188.1330561712932
  0
ARC
  5
5E2
330
1A
100
AcDbEntity
  8
NOKITOI
  6
PHANTOM
 62
     8
100
AcDbCircle
 10
217.0761597589534
 20
151.8713261420112
 30
0.0
 40
5.199991271650611
100
AcDbArc
 50
37.92532860472995
 51
89.9998031407256
  0
LINE
  5
5E3
330
1A
100
AcDbEntity
  8
NOKITOI
  6
PHANTOM
 62
     8
100
AcDbLine
 10
215.2296776253046
 20
153.5713174136313
 30
0.0
 11
215.0485776253044
 21
157.0127174136312
 31
0.0
  0
LINE
  5
5E4
330
1A
100
AcDbEntity
  8
NOKITOI
  6
PHANTOM
 62
     8
100
AcDbLine
 10
215.6035776253047
 20
156.3997174136312
 30
0.0
 11
215.0485776253044
 21
157.0127174136312
 31
0.0
  0
LINE
  5
5E5
330
1A
100
AcDbEntity
  8
NOKITOI
  6
PHANTOM
 62
     8
100
AcDbLine
 10
214.0662776253047
 20
152.8450174136313
 30
0.0
 11
213.7504776253044
 21
158.8450174136313
 31
0.0
  0
LINE
  5
5E6
330
1A
100
AcDbEntity
  8
NOKITOI
  6
PHANTOM
 62
     8
100
AcDbLine
 10
216.0075776253042
 20
153.5713174136313
 30
0.0
 11
215.6035776253047
 21
156.3997174136312
 31
0.0
  0
LINE
  5
5E7
330
1A
100
AcDbEntity
  8
NOKITOI
  6
PHANTOM
 62
     8
100
AcDbLine
 10
215.2296776253046
 20
153.5713174136313
 30
0.0
 11
216.0075776253042
 21
153.5713174136313
 31
0.0
  0
LINE
  5
5E8
330
1A
100
AcDbEntity
  8
NOKITOI
  6
PHANTOM
 62
     8
100
AcDbLine
 10
214.5655776253047
 20
152.3713174136313
 30
0.0
 11
216.8146776253042
 21
152.3713174136313
 31
0.0
  0
ARC
  5
5E9
330
1A
100
AcDbEntity
  8
NOKITOI
  6
PHANTOM
 62
     8
100
AcDbCircle
 10
214.5655817467113
 20
152.8713135036008
 30
0.0
 40
0.4999960899864752
100
AcDbArc
 50
183.0147243791741
 51
269.9995277178593
  0
ARC
  5
5EA
330
1A
100
AcDbEntity
  8
NOKITOI
  6
PHANTOM
 62
     8
100
AcDbCircle
 10
216.8146878117408
 20
152.8713291583554
 30
0.0
 40
0.5000117448278309
100
AcDbArc
 50
269.9988327478016
 51
8.127314608715551
  0
LINE
  5
5EB
330
1A
100
AcDbEntity
  8
NOKITOI
  6
PHANTOM
 62
     8
100
AcDbLine
 10
217.3096776253045
 20
152.9420174136313
 30
0.0
 11
216.9758776253047
 21
155.2782174136314
 31
0.0
  0
LINE
  5
5EC
330
1A
100
AcDbEntity
  8
NOKITOI
  6
PHANTOM
 62
     8
100
AcDbLine
 10
214.2497776253048
 20
159.3713174136313
 30
0.0
 11
216.4812776253047
 21
159.3713174136313
 31
0.0
  0
ARC
  5
5ED
330
1A
100
AcDbEntity
  8
NOKITOI
  6
PHANTOM
 62
     8
100
AcDbCircle
 10
214.2497813347999
 20
158.871321323662
 30
0.0
 40
0.4999960899831856
100
AcDbArc
 50
90.00042508015082
 51
183.0156217414647
  0
ARC
  5
5EE
330
1A
100
AcDbEntity
  8
NOKITOI
  6
PHANTOM
 62
     8
100
AcDbCircle
 10
217.2010703707492
 20
161.3713085637878
 30
0.0
 40
0.500008849895925
100
AcDbArc
 50
89.99916870385415
 51
191.3135956695126
  0
ARC
  5
5EF
330
1A
100
AcDbEntity
  8
NOKITOI
  6
PHANTOM
 62
     8
100
AcDbCircle
 10
216.4812768422961
 20
159.8713164586295
 30
0.0
 40
0.4999990449987399
100
AcDbArc
 50
270.000089726305
 51
11.30328019845521
  0
LINE
  5
5F0
330
1A
100
AcDbEntity
  8
NOKITOI
  6
PHANTOM
 62
     8
100
AcDbLine
 10
216.9715776253046
 20
159.9693174136314
 30
0.0
 11
216.7107776253046
 21
161.2733174136313
 31
0.0
  0
LINE
  5
5F1
330
1A
100
AcDbEntity
  8
NOKITOI
  6
PHANTOM
 62
     8
100
AcDbLine
 10
216.6141776253048
 20
157.0713174136313
 30
0.0
 11
217.0761776253047
 21
157.0713174136313
 31
0.0
  0
LINE
  5
5F2
330
1A
100
AcDbEntity
  8
NOKITOI
  6
PHANTOM
 62
     8
100
AcDbLine
 10
216.6141776253048
 20
157.0713174136313
 30
0.0
 11
215.6183776253046
 21
158.1713174136315
 31
0.0
  0
LINE
  5
5F3
330
1A
100
AcDbEntity
  8
NOKITOI
  6
PHANTOM
 62
     8
100
AcDbLine
 10
221.3272776253042
 20
159.8463174136312
 30
0.0
 11
221.1779776253047
 21
155.0673174136314
 31
0.0
  0
ARC
  5
5F4
330
1A
100
AcDbEntity
  8
NOKITOI
  6
PHANTOM
 62
     8
100
AcDbCircle
 10
217.0761466983685
 20
151.8713531582951
 30
0.0
 40
3.99998565374706
100
AcDbArc
 50
358.208696659101
 51
83.52422380468341
  0
ARC
  5
5F5
330
1A
100
AcDbEntity
  8
NOKITOI
  6
PHANTOM
 62
     8
100
AcDbCircle
 10
220.5276663883104
 20
159.8713290074484
 30
0.0
 40
1.999988406214315
100
AcDbArc
 50
358.2088726535936
 51
89.99967808195551
  0
LINE
  5
5F6
330
1A
100
AcDbEntity
  8
NOKITOI
  6
PHANTOM
 62
     8
100
AcDbLine
 10
220.5276776253048
 20
160.6712174136313
 30
0.0
 11
218.0549776253046
 21
160.6713174136315
 31
0.0
  0
LINE
  5
5F7
330
1A
100
AcDbEntity
  8
NOKITOI
  6
PHANTOM
 62
     8
100
AcDbLine
 10
218.0549776253046
 20
160.6713174136315
 30
0.0
 11
218.5549776253046
 21
158.1713174136315
 31
0.0
  0
ARC
  5
5F8
330
1A
100
AcDbEntity
  8
NOKITOI
  6
PHANTOM
 62
     8
100
AcDbCircle
 10
220.5277215916575
 20
159.8712720511583
 30
0.0
 40
0.7999453636812564
100
AcDbArc
 50
358.2123436447881
 51
90.00314907315425
  0
LINE
  5
9FB
330
1A
100
AcDbEntity
  8
SEIHIN
100
AcDbLine
 10
164.0912977641988
 20
106.6713174136313
 30
0.0
 11
201.6704837641989
 21
106.6713174136313
 31
0.0
  0
LINE
  5
9FC
330
1A
100
AcDbEntity
  8
SEIHIN
100
AcDbLine
 10
164.0912977641988
 20
105.4713174136312
 30
0.0
 11
202.0988398641989
 21
105.4713174136312
 31
0.0
  0
LINE
  5
9FD
330
1A
100
AcDbEntity
  8
SEIHIN
100
AcDbLine
 10
164.0912977641988
 20
102.4713174136312
 30
0.0
 11
203.1697298641988
 21
102.4713174136312
 31
0.0
  0
LINE
  5
A02
330
1A
100
AcDbEntity
  8
SEIHIN
100
AcDbLine
 10
34.97938143704334
 20
102.4713174136312
 30
0.0
 11
45.97938143704334
 21
102.4713174136312
 31
0.0
  0
LINE
  5
A06
330
1A
100
AcDbEntity
  8
SEIHIN
100
AcDbLine
 10
51.47938143704334
 20
143.4713174136312
 30
0.0
 11
29.47938143704334
 21
143.4713174136312
 31
0.0
  0
ARC
  5
A07
330
1A
100
AcDbEntity
  8
SEIHIN
100
AcDbCircle
 10
36.37938143704332
 20
178.6713174136313
 30
0.0
 40
2.0
100
AcDbArc
 50
0.0
 51
90.0
  0
ARC
  5
A08
330
1A
100
AcDbEntity
  8
SEIHIN
100
AcDbCircle
 10
35.87938143704332
 20
158.1713174136313
 30
0.0
 40
2.5
100
AcDbArc
 50
180.0
 51
0.0
  0
LINE
  5
A09
330
1A
100
AcDbEntity
  8
SEIHIN
100
AcDbLine
 10
43.47938143704334
 20
192.6713174136313
 30
0.0
 11
37.47938143704334
 21
192.6713174136313
 31
0.0
  0
LINE
  5
A0C
330
1A
100
AcDbEntity
  8
SEIHIN
100
AcDbLine
 10
33.47938143704334
 20
105.9713174136312
 30
0.0
 11
33.47938143704334
 21
143.4713174136312
 31
0.0
  0
LINE
  5
A11
330
1A
100
AcDbEntity
  8
SEIHIN
100
AcDbLine
 10
31.97938143704334
 20
105.4713174136312
 30
0.0
 11
29.47938143704334
 21
105.4713174136312
 31
0.0
  0
ARC
  5
A16
330
1A
100
AcDbEntity
  8
SEIHIN
100
AcDbCircle
 10
34.97938143704334
 20
103.9713174136312
 30
0.0
 40
1.5
100
AcDbArc
 50
180.0
 51
270.0
  0
ARC
  5
A1B
330
1A
100
AcDbEntity
  8
SEIHIN
100
AcDbCircle
 10
31.97938143704334
 20
103.9713174136312
 30
0.0
 40
1.5
100
AcDbArc
 50
0.0
 51
90.0
  0
ARC
  5
A24
330
1A
100
AcDbEntity
  8
SEIHIN
100
AcDbCircle
 10
31.42938143704327
 20
158.7213174136312
 30
0.0
 40
1.949999999999988
100
AcDbArc
 50
0.0
 51
180.0
  0
LINE
  5
A33
330
1A
100
AcDbEntity
  8
SEIHIN
100
AcDbLine
 10
33.37938143704332
 20
158.7213174136312
 30
0.0
 11
33.37938143704332
 21
158.1713174136313
 31
0.0
  0
LINE
  5
A34
330
1A
100
AcDbEntity
  8
SEIHIN
100
AcDbLine
 10
33.37938143704332
 20
158.6713174136312
 30
0.0
 11
33.37938143704332
 21
158.6713174136312
 31
0.0
  0
LINE
  5
A35
330
1A
100
AcDbEntity
  8
SEIHIN
100
AcDbLine
 10
34.47938143704334
 20
182.6700674136312
 30
0.0
 11
34.47938143704334
 21
189.6713174136313
 31
0.0
  0
ARC
  5
A36
330
1A
100
AcDbEntity
  8
SEIHIN
100
AcDbCircle
 10
36.47938143704334
 20
182.6700674136312
 30
0.0
 40
1.999999998843762
100
AcDbArc
 50
180.0
 51
268.5674562607732
  0
LINE
  5
A37
330
1A
100
AcDbEntity
  8
SEIHIN
100
AcDbLine
 10
35.97938143704334
 20
180.6713174136312
 30
0.0
 11
35.97938143704334
 21
180.6713174136312
 31
0.0
  0
ARC
  5
A38
330
1A
100
AcDbEntity
  8
SEIHIN
100
AcDbCircle
 10
37.47938143704334
 20
189.6713174136313
 30
0.0
 40
3.0
100
AcDbArc
 50
90.0
 51
180.0
  0
ARC
  5
A39
330
1A
100
AcDbEntity
  8
SEIHIN
100
AcDbCircle
 10
155.4048477641989
 20
149.6713174136313
 30
0.0
 40
43.99999996755491
100
AcDbArc
 50
190.0046914246752
 51
256.9987985386973
  0
ARC
  5
A3A
330
1A
100
AcDbEntity
  8
SEIHIN
100
AcDbCircle
 10
155.4048477641989
 20
149.6713174136313
 30
0.0
 40
45.19999999393088
100
AcDbArc
 50
190.0046914399661
 51
256.9987985135611
  0
ARC
  5
A3B
330
1A
100
AcDbEntity
  8
SEIHIN
100
AcDbCircle
 10
155.4048477641989
 20
149.6713174136313
 30
0.0
 40
48.19999998338746
100
AcDbArc
 50
190.3515581005718
 51
256.999279253117
  0
LINE
  5
A3E
330
1A
100
AcDbEntity
  8
SEIHIN
100
AcDbLine
 10
47.47938143704334
 20
105.9713174136312
 30
0.0
 11
47.47938143704334
 21
143.4713174136312
 31
0.0
  0
ARC
  5
A42
330
1A
100
AcDbEntity
  8
SEIHIN
100
AcDbCircle
 10
45.97938143704334
 20
103.9713174136312
 30
0.0
 40
1.5
100
AcDbArc
 50
270.0
 51
0.0
  0
LINE
  5
A47
330
1A
100
AcDbEntity
  8
SEIHIN
100
AcDbLine
 10
48.97938143704334
 20
105.4713174136312
 30
0.0
 11
51.47938143704334
 21
105.4713174136312
 31
0.0
  0
ARC
  5
A49
330
1A
100
AcDbEntity
  8
SEIHIN
100
AcDbCircle
 10
48.97938143704334
 20
103.9713174136312
 30
0.0
 40
1.5
100
AcDbArc
 50
90.0
 51
180.0
  0
ARC
  5
A56
330
1A
100
AcDbEntity
  8
SEIHIN
100
AcDbCircle
 10
146.6298827641988
 20
111.6713174136313
 30
0.0
 40
5.000000009884356
100
AcDbArc
 50
256.997175988683
 51
270.0
  0
LINE
  5
A57
330
1A
100
AcDbEntity
  8
SEIHIN
100
AcDbLine
 10
146.6298827641988
 20
106.6713174136313
 30
0.0
 11
164.0912977641988
 21
106.6713174136313
 31
0.0
  0
LINE
  5
A58
330
1A
100
AcDbEntity
  8
SEIHIN
100
AcDbLine
 10
146.6298827641988
 20
105.4713174136312
 30
0.0
 11
164.0912977641988
 21
105.4713174136312
 31
0.0
  0
LINE
  5
A59
330
1A
100
AcDbEntity
  8
SEIHIN
100
AcDbLine
 10
146.6298827641988
 20
102.4713174136312
 30
0.0
 11
164.0912977641988
 21
102.4713174136312
 31
0.0
  0
ARC
  5
A5A
330
1A
100
AcDbEntity
  8
SEIHIN
100
AcDbCircle
 10
146.6298827641988
 20
111.6713174136313
 30
0.0
 40
6.20000002439895
100
AcDbArc
 50
256.9971760025682
 51
270.0
  0
ARC
  5
A5B
330
1A
100
AcDbEntity
  8
SEIHIN
100
AcDbCircle
 10
146.6298827641988
 20
111.6713174136313
 30
0.0
 40
9.20000000634241
100
AcDbArc
 50
256.9971761847128
 51
270.0
  0
LINE
  5
A5E
330
1A
100
AcDbEntity
  8
SEIHIN
100
AcDbLine
 10
42.57938143704336
 20
178.6713174136313
 30
0.0
 11
42.57938143704336
 21
158.1713174136313
 31
0.0
  0
LINE
  5
A5F
330
1A
100
AcDbEntity
  8
SEIHIN
100
AcDbLine
 10
38.37938143704332
 20
178.6713174136313
 30
0.0
 11
38.37938143704332
 21
158.1713174136313
 31
0.0
  0
ARC
  5
A60
330
1A
100
AcDbEntity
  8
SEIHIN
100
AcDbCircle
 10
49.52938143704329
 20
158.7213174136312
 30
0.0
 40
1.949999999999988
100
AcDbArc
 50
0.0
 51
180.0
  0
LINE
  5
A61
330
1A
100
AcDbEntity
  8
SEIHIN
100
AcDbLine
 10
51.47938143704334
 20
158.7213174136312
 30
0.0
 11
51.47938143704334
 21
105.4713174136312
 31
0.0
  0
ARC
  5
A71
330
1A
100
AcDbEntity
  8
SEIHIN
100
AcDbCircle
 10
45.07938143704336
 20
158.1713174136313
 30
0.0
 40
2.5
100
AcDbArc
 50
180.0
 51
0.0
  0
LINE
  5
A72
330
1A
100
AcDbEntity
  8
SEIHIN
100
AcDbLine
 10
47.57938143704336
 20
158.6713174136312
 30
0.0
 11
47.57938143704336
 21
158.6713174136312
 31
0.0
  0
LINE
  5
A73
330
1A
100
AcDbEntity
  8
SEIHIN
100
AcDbLine
 10
47.57938143704336
 20
158.7213174136312
 30
0.0
 11
47.57938143704336
 21
158.1713174136313
 31
0.0
  0
LINE
  5
A74
330
1A
100
AcDbEntity
  8
SEIHIN
100
AcDbLine
 10
42.57938143704336
 20
167.4961294136312
 30
0.0
 11
42.57938143704336
 21
167.4961294136312
 31
0.0
  0
LINE
  5
A75
330
1A
100
AcDbEntity
  8
SEIHIN
100
AcDbLine
 10
38.37938143704332
 20
167.4961294136312
 30
0.0
 11
38.37938143704332
 21
167.4961294136312
 31
0.0
  0
LINE
  5
A76
330
1A
100
AcDbEntity
  8
SEIHIN
100
AcDbLine
 10
42.57938143704336
 20
166.5564024136313
 30
0.0
 11
42.57938143704336
 21
166.5564024136313
 31
0.0
  0
LINE
  5
A77
330
1A
100
AcDbEntity
  8
SEIHIN
100
AcDbLine
 10
38.37938143704332
 20
166.5564024136313
 30
0.0
 11
38.37938143704332
 21
166.5564024136313
 31
0.0
  0
LINE
  5
A78
330
1A
100
AcDbEntity
  8
SEIHIN
100
AcDbLine
 10
46.47938143704334
 20
182.6700674136312
 30
0.0
 11
46.47938143704334
 21
189.6713174136313
 31
0.0
  0
ARC
  5
A79
330
1A
100
AcDbEntity
  8
SEIHIN
100
AcDbCircle
 10
44.47938143704334
 20
182.6700674136312
 30
0.0
 40
1.99999999884376
100
AcDbArc
 50
271.4325437392202
 51
0.0
  0
ARC
  5
A7A
330
1A
100
AcDbEntity
  8
SEIHIN
100
AcDbCircle
 10
44.57938143704336
 20
178.6713174136313
 30
0.0
 40
2.0
100
AcDbArc
 50
90.0
 51
180.0
  0
ARC
  5
A7B
330
1A
100
AcDbEntity
  8
SEIHIN
100
AcDbCircle
 10
43.47938143704334
 20
189.6713174136313
 30
0.0
 40
3.0
100
AcDbArc
 50
0.0
 51
90.0
  0
LINE
  5
A7C
330
1A
100
AcDbEntity
  8
SEIHIN
100
AcDbLine
 10
102.5912977641988
 20
192.6713174136313
 30
0.0
 11
102.5912977641988
 21
145.6713174136313
 31
0.0
  0
LINE
  5
A7D
330
1A
100
AcDbEntity
  8
SEIHIN
100
AcDbLine
 10
101.3912977641989
 20
192.6713174136313
 30
0.0
 11
101.3912977641989
 21
145.6713174136313
 31
0.0
  0
ARC
  5
A7E
330
1A
100
AcDbEntity
  8
SEIHIN
100
AcDbCircle
 10
105.0381921641988
 20
140.4713174136312
 30
0.0
 40
2.999999985884628
100
AcDbArc
 50
10.35155819740191
 51
90.0
  0
LINE
  5
A7F
330
1A
100
AcDbEntity
  8
SEIHIN
100
AcDbLine
 10
108.9225930641989
 20
144.6713174136313
 30
0.0
 11
103.5912977641988
 21
144.6713174136313
 31
0.0
  0
LINE
  5
A80
330
1A
100
AcDbEntity
  8
SEIHIN
100
AcDbLine
 10
108.9225930641989
 20
143.4713174136312
 30
0.0
 11
103.5912977641988
 21
143.4713174136312
 31
0.0
  0
ARC
  5
A81
330
1A
100
AcDbEntity
  8
SEIHIN
100
AcDbCircle
 10
103.5912977641988
 20
145.6713174136313
 30
0.0
 40
1.0
100
AcDbArc
 50
180.0
 51
270.0
  0
LINE
  5
A82
330
1A
100
AcDbEntity
  8
SEIHIN
100
AcDbLine
 10
103.6245767641988
 20
144.6713174136313
 30
0.0
 11
103.6245767641988
 21
144.6713174136313
 31
0.0
  0
ARC
  5
A83
330
1A
100
AcDbEntity
  8
SEIHIN
100
AcDbCircle
 10
103.5912977641988
 20
145.6713174136313
 30
0.0
 40
2.199999999999988
100
AcDbArc
 50
180.0
 51
270.0
  0
ARC
  5
A84
330
1A
100
AcDbEntity
  8
SEIHIN
100
AcDbCircle
 10
108.9225930641989
 20
141.4713174136312
 30
0.0
 40
3.199999999587582
100
AcDbArc
 50
10.00469134359077
 51
90.0
  0
ARC
  5
A85
330
1A
100
AcDbEntity
  8
SEIHIN
100
AcDbCircle
 10
108.9225930641989
 20
141.4713174136312
 30
0.0
 40
2.000000016035531
100
AcDbArc
 50
10.00469045164722
 51
90.0
  0
LINE
  5
A86
330
1A
100
AcDbEntity
  8
SEIHIN
100
AcDbLine
 10
102.5912977641988
 20
151.2676514136312
 30
0.0
 11
102.5912977641988
 21
151.2676514136312
 31
0.0
  0
LINE
  5
A87
330
1A
100
AcDbEntity
  8
SEIHIN
100
AcDbLine
 10
102.5912977641988
 20
160.6713174136312
 30
0.0
 11
101.3912977641989
 21
160.6713174136312
 31
0.0
  0
LINE
  5
A88
330
1A
100
AcDbEntity
  8
SEIHIN
100
AcDbLine
 10
102.5912977641988
 20
180.6713174136312
 30
0.0
 11
101.3912977641989
 21
180.6713174136312
 31
0.0
  0
LINE
  5
A89
330
1A
100
AcDbEntity
  8
SEIHIN
100
AcDbLine
 10
102.5912977641988
 20
192.6713174136313
 30
0.0
 11
101.3912977641989
 21
192.6713174136313
 31
0.0
  0
LINE
  5
A8D
330
1A
100
AcDbEntity
  8
SEIHIN
100
AcDbLine
 10
213.1897054641989
 20
114.5456614136312
 30
0.0
 11
215.2595940641989
 21
135.2445547136312
 31
0.0
  0
LINE
  5
A8E
330
1A
100
AcDbEntity
  8
SEIHIN
100
AcDbLine
 10
218.4592913641989
 20
137.0919009136312
 30
0.0
 11
216.0511697641989
 21
113.0106766136313
 31
0.0
  0
LINE
  5
A93
330
1A
100
AcDbEntity
  8
SEIHIN
100
AcDbLine
 10
212.0451197641989
 20
115.1596554136313
 30
0.0
 11
214.0655494641989
 21
135.3639591136312
 31
0.0
  0
LINE
  5
A96
330
1A
100
AcDbEntity
  8
SEIHIN
100
AcDbLine
 10
202.0988398641989
 20
105.4713174136312
 30
0.0
 11
213.1897054641989
 21
114.5456614136312
 31
0.0
  0
LINE
  5
A97
330
1A
100
AcDbEntity
  8
SEIHIN
100
AcDbLine
 10
203.1697298641988
 20
102.4713174136312
 30
0.0
 11
216.0511697641989
 21
113.0106766136313
 31
0.0
  0
LINE
  5
A98
330
1A
100
AcDbEntity
  8
SEIHIN
100
AcDbLine
 10
201.6704837641989
 20
106.6713174136313
 30
0.0
 11
212.0451197641989
 21
115.1596554136313
 31
0.0
  0
LINE
  5
AC5
330
1A
100
AcDbEntity
  8
SEIHIN
100
AcDbLine
 10
215.1447290641989
 20
163.6847769136312
 30
0.0
 11
208.0306380641989
 21
158.7034369136312
 31
0.0
  0
LINE
  5
AC6
330
1A
100
AcDbEntity
  8
SEIHIN
100
AcDbLine
 10
223.5912977641989
 20
143.4599924136312
 30
0.0
 11
223.5912977641989
 21
161.8826424136312
 31
0.0
  0
LINE
  5
AC7
330
1A
100
AcDbEntity
  8
SEIHIN
100
AcDbLine
 10
215.8330207641989
 20
162.7017944136312
 30
0.0
 11
208.7189297641989
 21
157.7204544136312
 31
0.0
  0
LINE
  5
AC8
330
1A
100
AcDbEntity
  8
SEIHIN
100
AcDbLine
 10
224.7912977641989
 20
143.4599924136312
 30
0.0
 11
224.7912977641989
 21
161.8826424136312
 31
0.0
  0
LINE
  5
AC9
330
1A
100
AcDbEntity
  8
SEIHIN
100
AcDbLine
 10
223.0912977641988
 20
142.5939674136312
 30
0.0
 11
216.1447055641989
 21
138.5833503136312
 31
0.0
  0
ARC
  5
ACA
330
1A
100
AcDbEntity
  8
SEIHIN
100
AcDbCircle
 10
222.5912977641988
 20
143.4599924136312
 30
0.0
 40
2.200000005055114
100
AcDbArc
 50
299.9999998479836
 51
0.0
  0
LINE
  5
ACB
330
1A
100
AcDbEntity
  8
SEIHIN
100
AcDbLine
 10
223.6912978641988
 20
141.5547369136312
 30
0.0
 11
216.7447056641989
 21
137.5441198136312
 31
0.0
  0
ARC
  5
ACC
330
1A
100
AcDbEntity
  8
SEIHIN
100
AcDbCircle
 10
218.2447056641989
 20
134.9460436136312
 30
0.0
 40
4.200000021369245
100
AcDbArc
 50
120.0000011534159
 51
174.2894084913981
  0
ARC
  5
ACD
330
1A
100
AcDbEntity
  8
SEIHIN
100
AcDbCircle
 10
218.2447056641989
 20
134.9460436136312
 30
0.0
 40
3.000000006856998
100
AcDbArc
 50
120.0000001084146
 51
174.2894080027292
  0
ARC
  5
AD1
330
1A
100
AcDbEntity
  8
SEIHIN
100
AcDbCircle
 10
221.4444028641988
 20
136.7933898136312
 30
0.0
 40
2.999999957105099
100
AcDbArc
 50
120.0000001084146
 51
174.2894078126911
  0
LINE
  5
AD8
330
1A
100
AcDbEntity
  8
SEIHIN
100
AcDbLine
 10
208.0306380641989
 20
158.7034369136312
 30
0.0
 11
208.7189297641989
 21
157.7204544136312
 31
0.0
  0
ARC
  5
AD9
330
1A
100
AcDbEntity
  8
SEIHIN
100
AcDbCircle
 10
222.5912977641988
 20
143.4599924136312
 30
0.0
 40
0.9999999983612706
100
AcDbArc
 50
300.0000001084146
 51
0.0
  0
LINE
  5
ADA
330
1A
100
AcDbEntity
  8
SEIHIN
100
AcDbLine
 10
223.5912977641989
 20
152.0722484136312
 30
0.0
 11
223.5912977641989
 21
152.0722484136312
 31
0.0
  0
LINE
  5
ADB
330
1A
100
AcDbEntity
  8
SEIHIN
100
AcDbLine
 10
216.4065967641989
 20
162.8826424136312
 30
0.0
 11
222.5912977641988
 21
162.8826424136312
 31
0.0
  0
LINE
  5
ADC
330
1A
100
AcDbEntity
  8
SEIHIN
100
AcDbLine
 10
216.4065967641989
 20
164.0826424136312
 30
0.0
 11
222.5912977641988
 21
164.0826424136312
 31
0.0
  0
LINE
  5
ADD
330
1A
100
AcDbEntity
  8
SEIHIN
100
AcDbLine
 10
211.9641741641988
 20
161.4577284136312
 30
0.0
 11
212.6524657641989
 21
160.4747454136312
 31
0.0
  0
ARC
  5
ADE
330
1A
100
AcDbEntity
  8
SEIHIN
100
AcDbCircle
 10
216.4065967641989
 20
161.8826424136312
 30
0.0
 40
2.199999983850877
100
AcDbArc
 50
90.0
 51
124.9999986822715
  0
ARC
  5
ADF
330
1A
100
AcDbEntity
  8
SEIHIN
100
AcDbCircle
 10
216.4065967641989
 20
161.8826424136312
 30
0.0
 40
0.9999999714352551
100
AcDbArc
 50
90.0
 51
124.9999997494021
  0
ARC
  5
AE0
330
1A
100
AcDbEntity
  8
SEIHIN
100
AcDbCircle
 10
222.5912977641988
 20
161.8826424136312
 30
0.0
 40
2.200000000000017
100
AcDbArc
 50
0.0
 51
90.0
  0
ARC
  5
AE1
330
1A
100
AcDbEntity
  8
SEIHIN
100
AcDbCircle
 10
222.5912977641988
 20
161.8826424136312
 30
0.0
 40
1.0
100
AcDbArc
 50
0.0
 51
90.0
  0
LINE
  5
B9C
330
1A
100
AcDbEntity
  8
CENTER_L
100
AcDbLine
 10
164.0912977641988
 20
91.97131741363126
 30
0.0
 11
164.0912977641988
 21
113.6713174136313
 31
0.0
  0
LINE
  5
FEA
330
1A
100
AcDbEntity
  8
CENTER_L
100
AcDbLine
 10
342.7905654551386
 20
243.8367602931369
 30
0.0
 11
94.39129776419894
 21
243.8367602931369
 31
0.0
  0
LINE
  5
FEB
330
1A
100
AcDbEntity
  8
SEIHIN
100
AcDbLine
 10
224.7912977641989
 20
254.8367602931369
 30
0.0
 11
101.3912977641989
 21
254.8367602931369
 31
0.0
  0
LINE
  5
FEC
330
1A
100
AcDbEntity
  8
SEIHIN
100
AcDbLine
 10
224.7912977641989
 20
232.8367602931369
 30
0.0
 11
101.3912977641989
 21
232.8367602931369
 31
0.0
  0
LINE
  5
FED
330
1A
100
AcDbEntity
  8
SEIHIN
100
AcDbLine
 10
101.3912977641989
 20
254.8367602931369
 30
0.0
 11
101.3912977641989
 21
232.8367602931369
 31
0.0
  0
LINE
  5
FEE
330
1A
100
AcDbEntity
  8
SEIHIN
100
AcDbLine
 10
102.5912977641988
 20
254.8367602931369
 30
0.0
 11
102.5912977641988
 21
232.8367602931369
 31
0.0
  0
LINE
  5
FF0
330
1A
100
AcDbEntity
  8
SEIHIN
100
AcDbLine
 10
209.1013019286904
 20
237.8367602931369
 30
0.0
 11
110.2542739428287
 21
237.8367602931369
 31
0.0
  0
LINE
  5
FF1
330
1A
100
AcDbEntity
  8
SEIHIN
100
AcDbLine
 10
102.5912977641988
 20
249.8367602931369
 30
0.0
 11
101.3912977641989
 21
249.8367602931369
 31
0.0
  0
LINE
  5
FF2
330
1A
100
AcDbEntity
  8
SEIHIN
100
AcDbLine
 10
102.5912977641988
 20
237.8367602931369
 30
0.0
 11
101.3912977641989
 21
237.8367602931369
 31
0.0
  0
LINE
  5
FF3
330
1A
100
AcDbEntity
  8
SEIHIN
100
AcDbLine
 10
107.2542739428287
 20
240.8367602931369
 30
0.0
 11
107.2542739428287
 21
246.8367602931369
 31
0.0
  0
LINE
  5
FF5
330
1A
100
AcDbEntity
  8
SEIHIN
100
AcDbLine
 10
224.7912977641989
 20
232.8367602931369
 30
0.0
 11
224.7912977641989
 21
254.8367602931369
 31
0.0
  0
LINE
  5
FF6
330
1A
100
AcDbEntity
  8
SEIHIN
100
AcDbLine
 10
215.1447286549362
 20
232.8367602931369
 30
0.0
 11
215.1447286549362
 21
254.8367602931369
 31
0.0
  0
ARC
  5
FF8
330
1A
100
AcDbEntity
  8
SEIHIN
100
AcDbCircle
 10
225.3779691653427
 20
243.8367602931369
 30
0.0
 40
17.34733110114381
100
AcDbArc
 50
140.6464899728084
 51
219.3535100271917
  0
LINE
  5
FF9
330
1A
100
AcDbEntity
  8
SEIHIN
100
AcDbLine
 10
110.2518393549762
 20
232.8367602931369
 30
0.0
 11
110.2518393549762
 21
237.8367602931369
 31
0.0
  0
LINE
  5
FFA
330
1A
100
AcDbEntity
  8
SEIHIN
100
AcDbLine
 10
110.2518393549762
 20
249.8367602931369
 30
0.0
 11
110.2518393549762
 21
254.8367602931369
 31
0.0
  0
ARC
  5
FFB
330
1A
100
AcDbEntity
  8
SEIHIN
100
AcDbCircle
 10
110.2542739428287
 20
246.8367602931369
 30
0.0
 40
3.0
100
AcDbArc
 50
90.0
 51
180.0
  0
ARC
  5
FFC
330
1A
100
AcDbEntity
  8
SEIHIN
100
AcDbCircle
 10
110.2542739428287
 20
240.8367602931369
 30
0.0
 40
3.0
100
AcDbArc
 50
180.0
 51
270.0
  0
LINE
  5
11F6
330
1A
100
AcDbEntity
  8
SEIHIN
100
AcDbLine
 10
209.1013019286903
 20
249.8367602931369
 30
0.0
 11
110.2542739428287
 21
249.8367602931369
 31
0.0
  0
CIRCLE
  5
1218
330
1A
100
AcDbEntity
  8
SEIHIN
100
AcDbCircle
 10
164.0912977641988
 20
243.8367602931369
 30
0.0
 40
3.5
  0
LINE
  5
1395
330
1A
100
AcDbEntity
  8
CENTER_L
100
AcDbLine
 10
40.47938143704334
 20
199.6713174136313
 30
0.0
 11
40.47938143704334
 21
50.47352238224272
 31
0.0
  0
LINE
  5
13B2
330
1A
100
AcDbEntity
  8
SEIHIN
100
AcDbLine
 10
29.47938143704329
 20
158.7213174136312
 30
0.0
 11
29.47938143704334
 21
105.4713174136312
 31
0.0
  0
LINE
  5
20B2
330
1A
100
AcDbEntity
  8
SEIHIN
100
AcDbLine
 10
45.57938143704325
 20
102.4713174136312
 30
0.0
 11
40.47938143704334
 21
102.4713174136312
 31
0.0
  0
LINE
  5
20B3
330
1A
100
AcDbEntity
  8
SEIHIN
100
AcDbLine
 10
35.37938143704332
 20
102.4713174136312
 30
0.0
 11
37.62938143704332
 21
102.4713174136312
 31
0.0
  0
LINE
  5
20B4
330
1A
100
AcDbEntity
  8
SEIHIN
100
AcDbLine
 10
37.62938143704332
 20
102.4713174136312
 30
0.0
 11
40.47938143704334
 21
102.4713174136312
 31
0.0
  0
LINE
  5
20B5
330
1A
100
AcDbEntity
  8
SEIHIN
100
AcDbLine
 10
45.57938143704325
 20
100.4713174136312
 30
0.0
 11
35.37938143704332
 21
100.4713174136312
 31
0.0
  0
LINE
  5
20B6
330
1A
100
AcDbEntity
  8
SEIHIN
100
AcDbLine
 10
45.57938143704325
 20
100.4713174136312
 30
0.0
 11
43.22938143704334
 21
98.47131741363128
 31
0.0
  0
LINE
  5
20B7
330
1A
100
AcDbEntity
  8
SEIHIN
100
AcDbLine
 10
37.72938143704334
 20
98.47131741363128
 30
0.0
 11
35.37938143704332
 21
100.4713174136312
 31
0.0
  0
LINE
  5
20B9
330
1A
100
AcDbEntity
  8
SEIHIN
100
AcDbLine
 10
43.22938143704334
 20
98.47131741363128
 30
0.0
 11
37.72938143704334
 21
98.47131741363128
 31
0.0
  0
LINE
  5
20BE
330
1A
100
AcDbEntity
  8
SEIHIN
100
AcDbLine
 10
35.37938143704332
 20
100.4713174136312
 30
0.0
 11
35.37938143704332
 21
102.4713174136312
 31
0.0
  0
LINE
  5
20BF
330
1A
100
AcDbEntity
  8
SEIHIN
100
AcDbLine
 10
45.57938143704325
 20
100.4713174136312
 30
0.0
 11
45.57938143704325
 21
102.4713174136312
 31
0.0
  0
LINE
  5
20C0
330
1A
100
AcDbEntity
  8
CENTER_L
  6
CENTER
 62
     1
100
AcDbLine
 10
347.3925840878921
 20
132.0030507987026
 30
0.0
 11
160.1437977641988
 21
57.10891741363127
 31
0.0
  0
LINE
  5
20C9
330
1A
100
AcDbEntity
  8
SUNPOU
  6
CONTINUOUS
 62
     4
100
AcDbLine
 10
363.9797725064567
 20
138.6374494845012
 30
0.0
 11
383.9797725064564
 21
138.6374494845012
 31
0.0
  0
LINE
  5
20CA
330
1A
100
AcDbEntity
  8
SUNPOU
  6
CONTINUOUS
 62
     4
100
AcDbLine
 10
383.9797725064564
 20
146.6374494845012
 30
0.0
 11
363.9797725064567
 21
138.6374494845012
 31
0.0
  0
LINE
  5
20CB
330
1A
100
AcDbEntity
  8
SUNPOU
  6
CONTINUOUS
 62
     4
100
AcDbLine
 10
383.9797725064564
 20
138.6374494845012
 30
0.0
 11
383.9797725064564
 21
146.6374494845012
 31
0.0
  0
TEXT
  5
20CC
330
1A
100
AcDbEntity
  8
SUNPOU
  6
CONTINUOUS
 62
     4
100
AcDbText
 10
372.1153383233598
 20
133.582020342889
 30
0.0
 40
3.0
  1
10
100
AcDbText
  0
TEXT
  5
20CD
330
1A
100
AcDbEntity
  8
SUNPOU
  6
CONTINUOUS
 62
     4
100
AcDbText
 10
386.1271217406357
 20
140.3453494845012
 30
0.0
 40
3.0
  1
4
100
AcDbText
  0
LINE
  5
20CE
330
1A
100
AcDbEntity
  8
CENTER_L
  6
CENTER
 62
     1
100
AcDbLine
 10
164.0912977641988
 20
116.2922174136313
 30
0.0
 11
164.0912977641988
 21
51.79801741363127
 31
0.0
  0
LINE
  5
211D
330
1A
100
AcDbEntity
  8
SEIHIN
100
AcDbLine
 10
161.4918977641989
 20
98.34314720086524
 30
0.0
 11
158.9912977641988
 21
100.4713174136312
 31
0.0
  0
LINE
  5
211E
330
1A
100
AcDbEntity
  8
SEIHIN
100
AcDbLine
 10
158.9912977641988
 20
100.4713174136312
 30
0.0
 11
158.9912977641988
 21
102.4713174136312
 31
0.0
  0
LINE
  5
211F
330
1A
100
AcDbEntity
  8
SEIHIN
100
AcDbLine
 10
169.1912977641987
 20
100.4713174136312
 30
0.0
 11
166.6918977641988
 21
98.34416847746103
 31
0.0
  0
LINE
  5
2120
330
1A
100
AcDbEntity
  8
SEIHIN
100
AcDbLine
 10
169.1912977641987
 20
100.4713174136312
 30
0.0
 11
158.9912977641988
 21
100.4713174136312
 31
0.0
  0
LINE
  5
2121
330
1A
100
AcDbEntity
  8
SEIHIN
100
AcDbLine
 10
169.1912977641987
 20
100.4713174136312
 30
0.0
 11
169.1912977641987
 21
102.4713174136312
 31
0.0
  0
LINE
  5
2123
330
1A
100
AcDbEntity
  8
SEIHIN
100
AcDbLine
 10
161.4918977641989
 20
98.34314720086524
 30
0.0
 11
166.6918977641988
 21
98.34416847746103
 31
0.0
  0
DIMENSION
  5
2140
330
1A
100
AcDbEntity
  8
SUNPOU
100
AcDbDimension
  2
*D1
 10
224.7912977641989
 20
213.6613841375192
 30
0.0
 11
163.0912977641989
 21
216.1613841375192
 31
0.0
 70
    32
  3
STANDARD
100
AcDbAlignedDimension
 13
101.3912977641989
 23
192.6713174136313
 33
0.0
 14
224.7912977641989
 24
161.8826424136312
 34
0.0
100
AcDbRotatedDimension
1001
ACAD
1000
DSTYLE
1002
{
1070
    41
1040
3.0
1070
    42
1040
3.0
1070
    43
1040
7.0
1070
    44
1040
1.5
1070
    73
1070
     0
1070
    74
1070
     0
1070
    77
1070
     3
1070
   140
1040
3.0
1070
   141
1040
3.0
1070
   147
1040
1.0
1070
   172
1070
     1
1070
   173
1070
     1
1070
   176
1070
   256
1070
   177
1070
   256
1070
   178
1070
   256
1070
   271
1070
     0
1070
   272
1070
     0
1070
   341
1005
B2
1070
     6
1000
OPEN
1070
     7
1000
OPEN
1002
}
  0
LINE
  5
214D
330
1A
100
AcDbEntity
  8
SEIHIN
  6
CONTINUOUS
 62
     3
100
AcDbLine
 10
43.22938143704334
 20
60.22352238224272
 30
0.0
 11
43.22938143704334
 21
98.47131741363128
 31
0.0
  0
LINE
  5
214F
330
1A
100
AcDbEntity
  8
SEIHIN
  6
CONTINUOUS
 62
     3
100
AcDbLine
 10
37.72938143704334
 20
60.22352238224272
 30
0.0
 11
37.72938143704334
 21
98.47131741363128
 31
0.0
  0
LINE
  5
2153
330
1A
100
AcDbEntity
  8
SEIHIN
  6
CONTINUOUS
 62
     3
100
AcDbLine
 10
224.7912977641989
 20
241.0869565677477
 30
0.0
 11
319.7397359076982
 21
241.086856765237
 31
0.0
  0
LINE
  5
2154
330
1A
100
AcDbEntity
  8
SEIHIN
  6
CONTINUOUS
 62
     3
100
AcDbLine
 10
224.7912977641989
 20
246.5869565677429
 30
0.0
 11
319.7397359076982
 21
246.5868567651272
 31
0.0
  0
DIMENSION
  5
2156
330
1A
100
AcDbEntity
  8
SUNPOU
100
AcDbDimension
  2
*D2
 10
76.73681234219476
 20
106.8712958061145
 30
0.0
 11
74.23681234219474
 21
149.7713066098729
 31
0.0
 70
    32
  3
STANDARD
100
AcDbAlignedDimension
 13
101.3912977641989
 23
192.6713174136313
 33
0.0
 14
164.0912977641988
 24
106.8712958061145
 34
0.0
 50
90.0
100
AcDbRotatedDimension
1001
ACAD
1000
DSTYLE
1002
{
1070
    41
1040
3.0
1070
    42
1040
3.0
1070
    43
1040
7.0
1070
    44
1040
1.5
1070
    73
1070
     0
1070
    74
1070
     0
1070
    77
1070
     3
1070
   140
1040
3.0
1070
   141
1040
3.0
1070
   147
1040
1.0
1070
   172
1070
     1
1070
   173
1070
     1
1070
   176
1070
   256
1070
   177
1070
   256
1070
   178
1070
   256
1070
   271
1070
     0
1070
   272
1070
     0
1070
   341
1005
B2
1070
     6
1000
OPEN
1070
     7
1000
OPEN
1002
}
  0
DIMENSION
  5
2163
330
1A
100
AcDbEntity
  8
SUNPOU
100
AcDbDimension
  2
*D3
 10
76.73681234219474
 20
57.47135541363132
 30
0.0
 11
74.23681234219472
 21
82.17132560987295
 31
0.0
 70
    32
  1
H
  3
STANDARD
100
AcDbAlignedDimension
 13
164.0912977641988
 23
106.8712958061145
 33
0.0
 14
166.9918977641989
 24
57.47135541363128
 34
0.0
 50
90.0
100
AcDbRotatedDimension
1001
ACAD
1000
DSTYLE
1002
{
1070
   287
1070
     4
1070
   287
1070
     4
1070
   287
1070
     4
1070
   287
1070
     4
1070
   287
1070
     4
1070
   287
1070
     4
1070
   279
1070
     1
1070
    41
1040
3.0
1070
    42
1040
3.0
1070
    43
1040
7.0
1070
    44
1040
1.5
1070
    73
1070
     0
1070
    74
1070
     0
1070
    77
1070
     3
1070
   140
1040
3.0
1070
   141
1040
3.0
1070
   147
1040
1.0
1070
   172
1070
     1
1070
   173
1070
     1
1070
   176
1070
   256
1070
   177
1070
   256
1070
   178
1070
   256
1070
   271
1070
     0
1070
   272
1070
     0
1070
   341
1005
B2
1070
     6
1000
OPEN
1070
     7
1000
OPEN
1002
}
  0
DIMENSION
  5
21F1
330
1A
100
AcDbEntity
  8
SUNPOU
100
AcDbDimension
  2
*D4
 10
76.73681234219478
 20
232.8367602931369
 30
0.0
 11
74.23681234219474
 21
243.8367602931369
 31
0.0
 70
    32
  3
STANDARD
100
AcDbAlignedDimension
 13
101.3912977641989
 23
254.8367602931369
 33
0.0
 14
101.3912977641989
 24
232.8367602931369
 34
0.0
 50
90.0
100
AcDbRotatedDimension
1001
ACAD
1000
DSTYLE
1002
{
1070
    41
1040
3.0
1070
    42
1040
3.0
1070
    43
1040
7.0
1070
    44
1040
1.5
1070
    73
1070
     0
1070
    74
1070
     0
1070
    77
1070
     3
1070
   140
1040
3.0
1070
   141
1040
3.0
1070
   147
1040
1.0
1070
   172
1070
     1
1070
   173
1070
     1
1070
   176
1070
   256
1070
   177
1070
   256
1070
   178
1070
   256
1070
   271
1070
     0
1070
   272
1070
     0
1070
   341
1005
B2
1070
     6
1000
OPEN
1070
     7
1000
OPEN
1002
}
  0
ARC
  5
24DF
330
1A
100
AcDbEntity
  8
SEIHIN
100
AcDbCircle
 10
321.2291912802811
 20
122.9801381730251
 30
0.0
 40
1.489455372582914
100
AcDbArc
 50
134.6080484030448
 51
269.3919504036904
  0
LINE
  5
24E0
330
1A
100
AcDbEntity
  8
SEIHIN
100
AcDbLine
 10
320.1832166802812
 20
124.0405222730251
 30
0.0
 11
321.1104004802812
 21
124.4151288730251
 31
0.0
  0
LINE
  5
24E1
330
1A
100
AcDbEntity
  8
SEIHIN
100
AcDbLine
 10
321.1104004802812
 20
124.4151288730251
 30
0.0
 11
331.4124071802812
 21
125.6114392730251
 31
0.0
  0
LINE
  5
24E2
330
1A
100
AcDbEntity
  8
SEIHIN
100
AcDbLine
 10
323.1707367802812
 20
119.3156176730251
 30
0.0
 11
322.2435528802812
 21
118.9410110730251
 31
0.0
  0
ARC
  5
24E3
330
1A
100
AcDbEntity
  8
SEIHIN
100
AcDbCircle
 10
322.1413553802812
 20
120.3827058730251
 30
0.0
 40
1.445312491524636
100
AcDbArc
 50
129.9452524696137
 51
274.0547465406518
  0
LINE
  5
24E4
330
1A
100
AcDbEntity
  8
SEIHIN
100
AcDbLine
 10
331.4124071802812
 20
125.6114392730251
 30
0.0
 11
323.1707367802812
 21
119.3156176730251
 31
0.0
  0
LINE
  5
24E5
330
1A
100
AcDbEntity
  8
SEIHIN
100
AcDbLine
 10
322.2435528802812
 20
118.9410110730251
 30
0.0
 11
171.6514470641988
 21
58.10118721258645
 31
0.0
  0
LINE
  5
24E6
330
1A
100
AcDbEntity
  8
SEIHIN
100
AcDbLine
 10
169.5911109526236
 20
63.20069848871499
 30
0.0
 11
320.1832166802812
 21
124.0405222730251
 31
0.0
  0
ARC
  5
24E9
330
1A
100
AcDbEntity
  8
SEIHIN
100
AcDbCircle
 10
168.8418977641989
 20
65.05506611258645
 30
0.0
 40
7.500000004960519
100
AcDbArc
 50
180.0
 51
292.000000376243
  0
LINE
  5
24EA
330
1A
100
AcDbEntity
  8
SEIHIN
100
AcDbLine
 10
161.3418977641989
 20
65.05533889071497
 30
0.0
 11
161.3418977641989
 21
98.34365783916313
 31
0.0
  0
LINE
  5
24EB
330
1A
100
AcDbEntity
  8
SEIHIN
100
AcDbLine
 10
166.8418977641989
 20
65.05506619720499
 30
0.0
 11
166.8418977641989
 21
98.34365783916313
 31
0.0
  0
ARC
  5
24EE
330
1A
100
AcDbEntity
  8
SEIHIN
100
AcDbCircle
 10
168.8418977641989
 20
65.05506619720499
 30
0.0
 40
2.0
100
AcDbArc
 50
180.0
 51
292.0000000492169
  0
DIMENSION
  5
24EF
330
1A
100
AcDbEntity
  8
SUNPOU
100
AcDbDimension
  2
*D5
 10
355.6665360568438
 20
132.4447730412918
 30
0.0
 11
362.292471576996
 21
122.7186752378155
 31
0.0
 70
    33
  1
φ<>
  3
STANDARD
100
AcDbAlignedDimension
 13
321.1104004802812
 23
124.4151288730251
 33
0.0
 14
323.1707367802812
 24
119.3156176730251
 34
0.0
1001
ACAD
1000
DSTYLE
1002
{
1070
    41
1040
3.0
1070
    42
1040
3.0
1070
    43
1040
7.0
1070
    44
1040
1.5
1070
    73
1070
     0
1070
    74
1070
     0
1070
    77
1070
     3
1070
   140
1040
3.0
1070
   141
1040
3.0
1070
   147
1040
1.0
1070
   172
1070
     1
1070
   173
1070
     1
1070
   176
1070
   256
1070
   177
1070
   256
1070
   178
1070
   256
1070
   271
1070
     1
1070
   272
1070
     0
1070
   341
1005
B2
1070
     6
1000
OPEN
1070
     7
1000
OPEN
1002
}
  0
ELLIPSE
  5
250C
330
1A
100
AcDbEntity
  8
SEIHIN
100
AcDbEllipse
 10
40.47938143704334
 20
60.22352238224272
 30
0.0
 11
-2.75
 21
0.0000000000000071
 31
0.0
210
0.0
220
0.0
230
1.0
 40
0.9999999999999975
 41
0.0000000000000026
 42
3.141592653589795
  0
ELLIPSE
  5
251C
330
1A
100
AcDbEntity
  8
SEIHIN
100
AcDbEllipse
 10
319.7397359076982
 20
245.2118085291321
 30
0.0
 11
1.473648873384945
 21
0.0
 31
0.0
210
0.0
220
0.0
230
1.0
 40
0.9330908202282301
 41
4.712388980384689
 42
7.853981633974482
  0
ELLIPSE
  5
251D
330
1A
100
AcDbEntity
  8
SEIHIN
100
AcDbEllipse
 10
319.7397359076982
 20
242.4617120571417
 30
0.0
 11
1.473648873384945
 21
0.0
 31
0.0
210
0.0
220
0.0
230
-1.0
 40
0.9330908202282301
 41
4.712388980384689
 42
7.853981633974482
  0
LINE
  5
251E
330
1A
100
AcDbEntity
  8
SEIHIN
100
AcDbLine
 10
319.7397359077567
 20
246.5868567651272
 30
0.0
 11
331.4124071802812
 21
243.8367602931369
 31
0.0
  0
LINE
  5
251F
330
1A
100
AcDbEntity
  8
SEIHIN
100
AcDbLine
 10
331.4124071802812
 20
243.8367602931369
 30
0.0
 11
319.7397359076982
 21
241.0866638211465
 31
0.0
  0
DIMENSION
  5
2536
330
1A
100
AcDbEntity
  8
SUNPOU
100
AcDbDimension
  2
*D6
 10
339.9114342970747
 20
104.1818556095974
 30
0.0
 11
255.3292132631249
 21
73.325772174332
 31
0.0
 70
    33
  3
STANDARD
100
AcDbAlignedDimension
 13
164.0912977641988
 23
59.25146380760313
 33
0.0
 14
331.4124071802812
 24
125.6114392730251
 34
0.0
1001
ACAD
1000
DSTYLE
1002
{
1070
    41
1040
3.0
1070
    42
1040
3.0
1070
    43
1040
7.0
1070
    44
1040
1.5
1070
    73
1070
     0
1070
    74
1070
     0
1070
    77
1070
     3
1070
   140
1040
3.0
1070
   141
1040
3.0
1070
   147
1040
1.0
1070
   172
1070
     1
1070
   173
1070
     1
1070
   176
1070
   256
1070
   177
1070
   256
1070
   178
1070
   256
1070
   271
1070
     0
1070
   272
1070
     0
1070
   341
1005
B2
1070
     6
1000
OPEN
1070
     7
1000
OPEN
1002
}
  0
LINE
  5
268F
330
1A
100
AcDbEntity
  8
SUNPOU
  6
CONTINUOUS
 62
     4
100
AcDbLine
 10
332.6578546902627
 20
75.520286717618
 30
0.0
 11
392.6578396902626
 21
75.520286717618
 31
0.0
  0
LINE
  5
2690
330
1A
100
AcDbEntity
  8
SUNPOU
  6
CONTINUOUS
 62
     4
100
AcDbLine
 10
332.6578546902627
 20
68.020286717618
 30
0.0
 11
392.6578896902627
 21
68.020286717618
 31
0.0
  0
LINE
  5
2691
330
1A
100
AcDbEntity
  8
SUNPOU
  6
CONTINUOUS
 62
     4
100
AcDbLine
 10
332.6578546902627
 20
60.52028671761807
 30
0.0
 11
392.6578896902627
 21
60.52028671761807
 31
0.0
  0
LINE
  5
2692
330
1A
100
AcDbEntity
  8
SUNPOU
  6
CONTINUOUS
 62
     4
100
AcDbLine
 10
332.6578546902627
 20
53.02025671761808
 30
0.0
 11
392.6578896902627
 21
53.02025671761808
 31
0.0
  0
LINE
  5
2693
330
1A
100
AcDbEntity
  8
SUNPOU
  6
CONTINUOUS
 62
     4
100
AcDbLine
 10
332.6578546902627
 20
45.52025671761808
 30
0.0
 11
392.6578896902627
 21
45.52025671761808
 31
0.0
  0
LINE
  5
2694
330
1A
100
AcDbEntity
  8
SUNPOU
  6
CONTINUOUS
 62
     4
100
AcDbLine
 10
332.6578546902627
 20
38.02025671761808
 30
0.0
 11
392.6578896902627
 21
38.02025671761808
 31
0.0
  0
LINE
  5
2695
330
1A
100
AcDbEntity
  8
SUNPOU
  6
CONTINUOUS
 62
     4
100
AcDbLine
 10
332.6578546902627
 20
30.52025671761805
 30
0.0
 11
392.6578896902627
 21
30.52025671761805
 31
0.0
  0
LINE
  5
2696
330
1A
100
AcDbEntity
  8
SUNPOU
  6
CONTINUOUS
 62
     4
100
AcDbLine
 10
332.6578546902627
 20
23.02025671761805
 30
0.0
 11
392.6578896902627
 21
23.02025671761805
 31
0.0
  0
LINE
  5
2697
330
1A
100
AcDbEntity
  8
SUNPOU
  6
CONTINUOUS
 62
     4
100
AcDbLine
 10
332.6578546902627
 20
75.520286717618
 30
0.0
 11
332.6578496902627
 21
23.02025671761805
 31
0.0
  0
TEXT
  5
2698
330
1A
100
AcDbEntity
  8
SUNPOU
 62
     4
100
AcDbText
 10
372.0328396902627
 20
54.79055555482736
 30
0.0
 40
3.0
  1
２５
 41
1.125
100
AcDbText
  0
TEXT
  5
2699
330
1A
100
AcDbEntity
  8
SUNPOU
  6
CONTINUOUS
 62
     4
100
AcDbText
 10
342.0328246902627
 20
54.89525171761804
 30
0.0
 40
3.0
  1
＃５
 41
1.5
 72
     5
 11
351.0328246902627
 21
54.89525171761804
 31
0.0
100
AcDbText
  0
LINE
  5
269A
330
1A
100
AcDbEntity
  8
SUNPOU
  6
CONTINUOUS
 62
     4
100
AcDbLine
 10
392.6578396902626
 20
75.520286717618
 30
0.0
 11
392.6578896902627
 21
23.02025671761805
 31
0.0
  0
LINE
  5
269B
330
1A
100
AcDbEntity
  8
SUNPOU
  6
CONTINUOUS
 62
     4
100
AcDbLine
 10
362.6578596902627
 20
23.02025671761805
 30
0.0
 11
362.6578846902627
 21
68.020286717618
 31
0.0
  0
TEXT
  5
269C
330
1A
100
AcDbEntity
  8
SUNPOU
 62
     4
100
AcDbText
 10
372.0328896902628
 20
24.79061555482735
 30
0.0
 40
3.0
  1
４５
 41
1.125
100
AcDbText
  0
TEXT
  5
269D
330
1A
100
AcDbEntity
  8
SUNPOU
 62
     4
100
AcDbText
 10
372.0328396902627
 20
32.29055555482736
 30
0.0
 40
3.0
  1
４０
 41
1.125
100
AcDbText
  0
TEXT
  5
269E
330
1A
100
AcDbEntity
  8
SUNPOU
 62
     4
100
AcDbText
 10
372.0328396902627
 20
39.79055555482736
 30
0.0
 40
3.0
  1
３５
 41
1.125
100
AcDbText
  0
TEXT
  5
269F
330
1A
100
AcDbEntity
  8
SUNPOU
 62
     4
100
AcDbText
 10
372.0328396902627
 20
47.29055555482736
 30
0.0
 40
3.0
  1
３０
 41
1.125
100
AcDbText
  0
TEXT
  5
26A0
330
1A
100
AcDbEntity
  8
SUNPOU
  6
CONTINUOUS
 62
     4
100
AcDbText
 10
342.0328168331186
 20
24.89525171761801
 30
0.0
 40
3.0
  1
＃１
 41
1.73076923076923
 72
     5
 11
351.0328168331186
 21
24.89525171761801
 31
0.0
100
AcDbText
  0
TEXT
  5
26A1
330
1A
100
AcDbEntity
  8
SUNPOU
  6
CONTINUOUS
 62
     4
100
AcDbText
 10
342.0328218331186
 20
32.39525171761801
 30
0.0
 40
3.0
  1
＃２
 41
1.5
 72
     5
 11
351.0328218331186
 21
32.39525171761801
 31
0.0
100
AcDbText
  0
TEXT
  5
26A2
330
1A
100
AcDbEntity
  8
SUNPOU
  6
CONTINUOUS
 62
     4
100
AcDbText
 10
342.0328246902627
 20
39.89525171761801
 30
0.0
 40
3.0
  1
＃３
 41
1.5
 72
     5
 11
351.0328246902627
 21
39.89525171761801
 31
0.0
100
AcDbText
  0
TEXT
  5
26A3
330
1A
100
AcDbEntity
  8
SUNPOU
  6
CONTINUOUS
 62
     4
100
AcDbText
 10
342.0328218331186
 20
47.39525171761804
 30
0.0
 40
3.0
  1
＃４
 41
1.5
 72
     5
 11
351.0328218331186
 21
47.39525171761804
 31
0.0
100
AcDbText
  0
TEXT
  5
26A4
330
1A
100
AcDbEntity
  8
SUNPOU
  6
CONTINUOUS
 62
     4
100
AcDbText
 10
372.0328411188361
 20
62.39523671761808
 30
0.0
 40
3.0
  1
寸法
 41
1.406250000000018
 72
     5
 11
381.0328411188362
 21
62.39523671761808
 31
0.0
100
AcDbText
  0
TEXT
  5
26A5
330
1A
100
AcDbEntity
  8
SUNPOU
  6
CONTINUOUS
 62
     4
100
AcDbText
 10
353.6786930381512
 20
70.26691705168648
 30
0.0
 40
3.0
  1
Ｈ　寸　法
 72
     4
 11
362.4786930381513
 21
71.76691705168647
 31
0.0
100
AcDbText
  0
TEXT
  5
26A6
330
1A
100
AcDbEntity
  8
SUNPOU
  6
CONTINUOUS
 62
     4
100
AcDbText
 10
342.0328011188362
 20
62.39528171761808
 30
0.0
 40
3.0
  1
呼び
 41
1.40625
 72
     5
 11
351.0328011188362
 21
62.39528171761808
 31
0.0
100
AcDbText
  0
TEXT
  5
2827
330
1A
100
AcDbEntity
  8
MOJI
100
AcDbText
 10
119.9136009696084
 20
9.002460530947871
 30
0.0
 40
2.799999999999999
  1
亜鉛メッキ金具打込丸足（受）
 41
0.9
  7
ｽﾀｲﾙ1
100
AcDbText
  0
LINE
  5
2828
330
1A
100
AcDbEntity
  8
ZUWAKU
100
AcDbLine
 10
104.3233002742168
 20
7.600000002244197
 30
0.0
 11
223.7121816146785
 21
7.600000002244193
 31
0.0
  0
LINE
  5
2829
330
1A
100
AcDbEntity
  8
ZUWAKU
100
AcDbLine
 10
104.3233002742168
 20
7.800000002244194
 30
0.0
 11
223.7121816146785
 21
7.800000002244198
 31
0.0
  0
LINE
  5
282A
330
1A
100
AcDbEntity
  8
ZUWAKU
100
AcDbLine
 10
104.3233002742168
 20
7.700000002244195
 30
0.0
 11
223.7121816146785
 21
7.700000002244195
 31
0.0
  0
LINE
  5
282B
330
1A
100
AcDbEntity
  8
ZUWAKU
100
AcDbLine
 10
-0.0000003708171334
 20
15.40000000224418
 30
0.0
 11
398.6999996291828
 21
15.40000000224418
 31
0.0
  0
LINE
  5
282C
330
1A
100
AcDbEntity
  8
ZUWAKU
100
AcDbLine
 10
-0.0000003708171334
 20
15.30000000224418
 30
0.0
 11
398.6999996291828
 21
15.30000000224418
 31
0.0
  0
LINE
  5
282D
330
1A
100
AcDbEntity
  8
ZUWAKU
100
AcDbLine
 10
-0.0000003708171334
 20
15.20000000224418
 30
0.0
 11
398.6999996291828
 21
15.20000000224418
 31
0.0
  0
LINE
  5
282E
330
1A
100
AcDbEntity
  8
ZUWAKU
100
AcDbLine
 10
-0.0000003708171334
 20
15.10000000224418
 30
0.0
 11
398.6999996291828
 21
15.10000000224418
 31
0.0
  0
LINE
  5
282F
330
1A
100
AcDbEntity
  8
ZUWAKU
100
AcDbLine
 10
-0.0000003708171334
 20
15.00000000224417
 30
0.0
 11
398.6999996291828
 21
15.00000000224417
 31
0.0
  0
LWPOLYLINE
  5
2830
330
1A
100
AcDbEntity
  8
ZUWAKU
100
AcDbPolyline
 90
        4
 70
     1
 43
0.0
 10
0.0999996291828325
 20
275.7000000022442
 10
0.0999996291828325
 20
0.1000000022442009
 10
398.6999996291828
 20
0.1000000022442125
 10
398.6999996291828
 20
275.7000000022442
  0
LWPOLYLINE
  5
2831
330
1A
100
AcDbEntity
  8
ZUWAKU
100
AcDbPolyline
 90
        4
 70
     1
 43
0.0
 10
0.2999996291828211
 20
275.5000000022442
 10
0.2999996291828211
 20
0.3000000022441895
 10
398.499999629183
 20
0.3000000022442126
 10
398.4999996291828
 20
275.5000000022442
  0
LWPOLYLINE
  5
2832
330
1A
100
AcDbEntity
  8
ZUWAKU
100
AcDbPolyline
 90
        4
 70
     1
 43
0.0
 10
-0.0000003708171334
 20
275.8000000022442
 10
-0.0000003708171334
 20
0.0000000022441782
 10
398.7999996291829
 20
0.0000000022442119
 10
398.7999996291829
 20
275.8000000022442
  0
LWPOLYLINE
  5
2833
330
1A
100
AcDbEntity
  8
ZUWAKU
100
AcDbPolyline
 90
        4
 70
     1
 43
0.0
 10
0.1999996291828552
 20
275.6000000022442
 10
0.1999996291828552
 20
0.2000000022442236
 10
398.5999996291829
 20
0.2000000022442121
 10
398.5999996291829
 20
275.6000000022442
  0
LWPOLYLINE
  5
2834
330
1A
100
AcDbEntity
  8
ZUWAKU
100
AcDbPolyline
 90
        4
 70
     1
 43
0.0
 10
0.3999996291828438
 20
275.4000000022442
 10
0.3999996291828438
 20
0.4000000022442123
 10
398.3999996291828
 20
0.4000000022442123
 10
398.3999996291828
 20
275.4000000022442
  0
LINE
  5
2835
330
1A
100
AcDbEntity
  8
ZUWAKU
100
AcDbLine
 10
24.19610570657346
 20
11.62500000224418
 30
0.0
 11
25.94610570657346
 21
11.62500000224418
 31
0.0
  0
LINE
  5
2836
330
1A
100
AcDbEntity
  8
ZUWAKU
100
AcDbLine
 10
25.94610570657346
 20
10.22500000224418
 30
0.0
 11
24.45860570657345
 21
10.22500000224418
 31
0.0
  0
ARC
  5
2837
330
1A
100
AcDbEntity
  8
ZUWAKU
100
AcDbCircle
 10
24.37110570657341
 20
5.882601014921853
 30
0.0
 40
0.7
100
AcDbArc
 50
0.0
 51
45.0
  0
ARC
  5
2838
330
1A
100
AcDbEntity
  8
ZUWAKU
100
AcDbCircle
 10
24.80860570657341
 20
5.237500002244182
 30
0.0
 40
0.2625
100
AcDbArc
 50
270.0
 51
0.0
  0
LINE
  5
2839
330
1A
100
AcDbEntity
  8
ZUWAKU
100
AcDbLine
 10
23.32110570657346
 20
3.575000002244181
 30
0.0
 11
25.07110570657346
 21
3.575000002244181
 31
0.0
  0
LINE
  5
283A
330
1A
100
AcDbEntity
  8
ZUWAKU
100
AcDbLine
 10
25.85602994706522
 20
7.367525255413593
 30
0.0
 11
24.40113095974282
 21
8.82242424273593
 31
0.0
  0
HATCH
  5
283B
330
1A
100
AcDbEntity
  8
ZUWAKU
100
AcDbHatch
 10
0.0
 20
0.0
 30
0.0
210
0.0
220
0.0
230
1.0
  2
ANSI37
 70
     0
 71
     0
 91
        8
 92
        7
 72
     1
 73
     1
 93
       24
 10
7.251130959742795
 20
8.822424242735969
 42
-0.1989123673796348
 10
7.046105706573428
 20
9.317398989566495
 42
0.0
 10
7.046105706573428
 20
9.962500002244183
 42
-0.4142135623730912
 10
7.308605706573416
 20
10.22500000224418
 42
0.0
 10
8.796105706573371
 20
10.22500000224418
 42
0.4142135623731546
 10
9.058605706573416
 20
10.48750000224417
 42
0.0
 10
9.058605706573416
 20
11.36250000224418
 42
0.4142135623731586
 10
8.796105706573371
 20
11.62500000224418
 42
0.0
 10
7.046105706573428
 20
11.62500000224418
 42
0.4142135623730928
 10
5.64610570657345
 20
10.22500000224419
 42
0.0
 10
5.64610570657345
 20
9.317398989566559
 42
0.1989123673796619
 10
6.261181466081666
 20
7.832474749074755
 42
0.0
 10
7.716080453404003
 20
6.377575761752426
 42
-0.1989123673796613
 10
7.921105706573428
 20
5.882601014921833
 42
0.0
 10
7.921105706573428
 20
5.237500002244175
 42
-0.4142135623730911
 10
7.658605706573439
 20
4.975000002244179
 42
0.0
 10
6.171105706573484
 20
4.975000002244179
 42
0.4142135623731526
 10
5.908605706573439
 20
4.712500002244185
 42
0.0
 10
5.908605706573439
 20
3.837500002244174
 42
0.4142135623731526
 10
6.171105706573484
 20
3.575000002244181
 42
0.0
 10
7.921105706573428
 20
3.575000002244181
 42
0.4142135623731044
 10
9.321105706573462
 20
4.975000002244168
 42
0.0
 10
9.321105706573462
 20
5.882601014921805
 42
0.1989123673796604
 10
8.706029947065189
 20
7.367525255413575
 42
0.0
 97
        0
 92
        7
 72
     1
 73
     1
 93
       16
 10
11.77110570657345
 20
9.525000002244183
 42
-0.4142135623730935
 10
12.47110570657343
 20
10.22500000224418
 42
0.0
 10
13.43360570657341
 20
10.22500000224418
 42
0.4142135623731546
 10
13.69610570657346
 20
10.48750000224417
 42
0.0
 10
13.69610570657346
 20
11.36250000224418
 42
0.4142135623730951
 10
13.43360570657347
 20
11.62500000224418
 42
0.0
 10
12.47110570657338
 20
11.62500000224416
 42
0.4142135623730892
 10
10.37110570657341
 20
9.525000002244148
 42
0.0
 10
10.37110570657341
 20
5.675000002244193
 42
0.4142135623730969
 10
12.47110570657343
 20
3.575000002244181
 42
0.0
 10
13.43360570657341
 20
3.575000002244181
 42
0.4142135623731526
 10
13.69610570657346
 20
3.837500002244174
 42
0.0
 10
13.69610570657346
 20
4.712500002244185
 42
0.4142135623730891
 10
13.43360570657347
 20
4.975000002244179
 42
0.0
 10
12.47110570657343
 20
4.975000002244179
 42
-0.4142135623730928
 10
11.77110570657345
 20
5.675000002244173
 42
0.0
 97
        0
 92
        7
 72
     1
 73
     1
 93
        2
 10
12.12110570657341
 20
7.600000002244179
 42
1.0
 10
13.87110570657341
 20
7.600000002244179
 42
1.0
 97
        0
 92
        7
 72
     1
 73
     1
 93
       26
 10
18.65742894766242
 20
9.602523599025893
 42
0.0
 10
19.18824876423133
 20
11.28345301816068
 42
0.5069206636600134
 10
18.93793331463365
 20
11.62500000224418
 42
0.0
 10
18.08848862482903
 20
11.62500000224418
 42
0.3272098845218764
 10
17.83817317523136
 20
11.44154698632766
 42
0.0
 10
16.90403823791547
 20
8.483453018160719
 42
-0.3272098845219541
 10
16.65372278831773
 20
8.300000002244178
 42
0.0
 10
16.5836057065735
 20
8.300000002244178
 42
-0.4142135623731526
 10
16.32110570657346
 20
8.562500002244172
 42
0.0
 10
16.32110570657346
 20
11.36250000224418
 42
0.4142135623730951
 10
16.05860570657347
 20
11.62500000224418
 42
0.0
 10
15.18360570657341
 20
11.62500000224418
 42
0.4142135623730871
 10
14.92110570657342
 20
11.36250000224418
 42
0.0
 10
14.92110570657342
 20
3.837500002244174
 42
0.4142135623730891
 10
15.18360570657341
 20
3.575000002244181
 42
0.0
 10
16.05860570657341
 20
3.575000002244181
 42
0.4142135623731526
 10
16.32110570657346
 20
3.837500002244174
 42
0.0
 10
16.32110570657346
 20
6.637500002244186
 42
-0.4142135623731526
 10
16.5836057065735
 20
6.90000000224418
 42
0.0
 10
16.65372278831779
 20
6.90000000224418
 42
-0.3272098845218915
 10
16.90403823791547
 20
6.716546986327642
 42
0.0
 10
17.83817317523136
 20
3.758453018160716
 42
0.3272098845218902
 10
18.08848862482903
 20
3.575000002244181
 42
0.0
 10
18.93793331463365
 20
3.575000002244181
 42
0.5069206636600335
 10
19.18824876423133
 20
3.916546986327684
 42
0.0
 10
18.0250530749945
 20
7.600000002244248
 42
0.0
 97
        0
 92
        7
 72
     1
 73
     1
 93
        8
 10
21.74610570657341
 20
11.36250000224418
 42
0.4142135623731546
 10
21.48360570657337
 20
11.62500000224418
 42
0.0
 10
20.60860570657348
 20
11.62500000224418
 42
0.4142135623731507
 10
20.34610570657343
 20
11.36250000224418
 42
0.0
 10
20.34610570657343
 20
3.837500002244174
 42
0.4142135623731526
 10
20.60860570657348
 20
3.575000002244181
 42
0.0
 10
21.48360570657337
 20
3.575000002244181
 42
0.4142135623731526
 10
21.74610570657341
 20
3.837500002244174
 42
0.0
 97
        0
 92
        7
 72
     1
 73
     1
 93
       24
 10
24.19610570657346
 20
9.962500002244183
 42
-0.4142135623731546
 10
24.4586057065735
 20
10.22500000224418
 42
0.0
 10
25.94610570657346
 20
10.22500000224418
 42
0.4142135623730911
 10
26.20860570657345
 20
10.48750000224417
 42
0.0
 10
26.20860570657345
 20
11.36250000224418
 42
0.4142135623730952
 10
25.94610570657346
 20
11.62500000224418
 42
0.0
 10
24.19610570657346
 20
11.62500000224418
 42
0.4142135623731048
 10
22.79610570657343
 20
10.22500000224419
 42
0.0
 10
22.79610570657343
 20
9.317398989566559
 42
0.1989123673796613
 10
23.4111814660817
 20
7.832474749074783
 42
0.0
 10
24.86608045340403
 20
6.377575761752449
 42
-0.1989123673796402
 10
25.07110570657346
 20
5.882601014921913
 42
0.0
 10
25.07110570657346
 20
5.237500002244175
 42
-0.4142135623730911
 10
24.80860570657347
 20
4.975000002244179
 42
0.0
 10
23.32110570657346
 20
4.975000002244179
 42
0.4142135623731526
 10
23.05860570657341
 20
4.712500002244185
 42
0.0
 10
23.05860570657341
 20
3.837500002244174
 42
0.4142135623730891
 10
23.3211057065734
 20
3.575000002244181
 42
0.0
 10
25.07110570657346
 20
3.575000002244181
 42
0.4142135623730925
 10
26.47110570657344
 20
4.975000002244168
 42
0.0
 10
26.47110570657344
 20
5.882601014921805
 42
0.1989123673796675
 10
25.85602994706516
 20
7.367525255413632
 42
0.0
 10
24.40113095974288
 20
8.822424242735889
 42
-0.1989123673796652
 10
24.19610570657346
 20
9.317398989566473
 42
0.0
 97
        0
 92
        7
 72
     1
 73
     1
 93
       16
 10
28.92110570657342
 20
11.36250000224417
 42
0.414213562373103
 10
28.65860570657344
 20
11.62500000224418
 42
0.0
 10
27.78360570657344
 20
11.62500000224418
 42
0.4142135623730871
 10
27.52110570657345
 20
11.36250000224418
 42
0.0
 10
27.52110570657345
 20
4.975000002244168
 42
0.4142135623730926
 10
28.92110570657342
 20
3.575000002244181
 42
0.0
 10
30.67110570657343
 20
3.575000002244181
 42
0.4142135623731044
 10
32.07110570657346
 20
4.975000002244168
 42
0.0
 10
32.07110570657346
 20
11.36250000224418
 42
0.4142135623730951
 10
31.80860570657347
 20
11.62500000224418
 42
0.0
 10
30.93360570657341
 20
11.62500000224418
 42
0.4142135623730871
 10
30.67110570657343
 20
11.36250000224418
 42
0.0
 10
30.67110570657343
 20
5.500000002244167
 42
-0.414213562373088
 10
30.14610570657345
 20
4.975000002244179
 42
0.0
 10
29.44610570657346
 20
4.975000002244179
 42
-0.4142135623731197
 10
28.92110570657342
 20
5.500000002244167
 42
0.0
 97
        0
 92
        7
 72
     1
 73
     1
 93
        8
 10
34.52110570657345
 20
11.36250000224418
 42
0.4142135623730871
 10
34.25860570657346
 20
11.62500000224418
 42
0.0
 10
33.38360570657346
 20
11.62500000224418
 42
0.4142135623731507
 10
33.12110570657341
 20
11.36250000224418
 42
0.0
 10
33.12110570657341
 20
3.837500002244174
 42
0.4142135623730891
 10
33.3836057065734
 20
3.575000002244181
 42
0.0
 10
34.25860570657346
 20
3.575000002244181
 42
0.4142135623730891
 10
34.52110570657345
 20
3.837500002244174
 42
0.0
 97
        0
 75
     0
 76
     1
 52
0.0
 41
0.1
 77
     0
 78
     2
 53
45.0
 43
-450.4711525381566
 44
-6.599999997755787
 45
-0.2245064030267288
 46
0.2245064030267288
 79
     0
 53
135.0
 43
-450.4711525381566
 44
-6.599999997755787
 45
-0.2245064030267288
 46
-0.2245064030267288
 79
     0
 47
0.057451373970553
 98
        8
 10
8.03992711069452
 20
7.583586825186955
 10
11.20225713240245
 20
9.422031093469684
 10
12.58218357201269
 20
7.755940825279537
 10
15.45702962000143
 20
8.100648825464929
 10
20.91923563866123
 20
8.330454959235737
 10
23.44910007674763
 20
9.709288160447783
 10
28.27884261538304
 20
9.364578959791685
 10
33.91353943899423
 20
9.594385093562493
  0
ARC
  5
283C
330
1A
100
AcDbEntity
  8
ZUWAKU
100
AcDbCircle
 10
7.221105706573439
 20
5.882601014921831
 30
0.0
 40
2.099999999999999
100
AcDbArc
 50
0.0
 51
45.0
  0
ARC
  5
283D
330
1A
100
AcDbEntity
  8
ZUWAKU
100
AcDbCircle
 10
7.921105706573428
 20
4.975000002244179
 30
0.0
 40
1.399999999999999
100
AcDbArc
 50
270.0
 51
0.0
  0
LINE
  5
283E
330
1A
100
AcDbEntity
  8
ZUWAKU
100
AcDbLine
 10
6.261181466081666
 20
7.832474749074769
 30
0.0
 11
7.716080453404003
 21
6.377575761752439
 31
0.0
  0
LINE
  5
283F
330
1A
100
AcDbEntity
  8
ZUWAKU
100
AcDbLine
 10
9.321105706573462
 20
4.975000002244179
 30
0.0
 11
9.321105706573462
 21
5.882601014921853
 31
0.0
  0
LINE
  5
2840
330
1A
100
AcDbEntity
  8
ZUWAKU
100
AcDbLine
 10
7.921105706573428
 20
5.237500002244182
 30
0.0
 11
7.921105706573428
 21
5.882601014921853
 31
0.0
  0
ARC
  5
2841
330
1A
100
AcDbEntity
  8
ZUWAKU
100
AcDbCircle
 10
7.658605706573439
 20
5.237500002244182
 30
0.0
 40
0.2625
100
AcDbArc
 50
270.0
 51
0.0
  0
ARC
  5
2842
330
1A
100
AcDbEntity
  8
ZUWAKU
100
AcDbCircle
 10
7.221105706573439
 20
5.882601014921853
 30
0.0
 40
0.7
100
AcDbArc
 50
0.0
 51
45.0
  0
LINE
  5
2843
330
1A
100
AcDbEntity
  8
ZUWAKU
100
AcDbLine
 10
5.908605706573439
 20
3.83750000224418
 30
0.0
 11
5.908605706573439
 21
4.71250000224418
 31
0.0
  0
ARC
  5
2844
330
1A
100
AcDbEntity
  8
ZUWAKU
100
AcDbCircle
 10
6.171105706573428
 20
3.83750000224418
 30
0.0
 40
0.2625
100
AcDbArc
 50
180.0
 51
270.0
  0
ARC
  5
2845
330
1A
100
AcDbEntity
  8
ZUWAKU
100
AcDbCircle
 10
6.171105706573428
 20
4.71250000224418
 30
0.0
 40
0.2625
100
AcDbArc
 50
90.0
 51
180.0
  0
LINE
  5
2846
330
1A
100
AcDbEntity
  8
ZUWAKU
100
AcDbLine
 10
6.171105706573428
 20
3.575000002244181
 30
0.0
 11
7.921105706573428
 21
3.575000002244181
 31
0.0
  0
LINE
  5
2847
330
1A
100
AcDbEntity
  8
ZUWAKU
100
AcDbLine
 10
6.171105706573428
 20
4.975000002244179
 30
0.0
 11
7.658605706573439
 21
4.975000002244179
 31
0.0
  0
LINE
  5
2848
330
1A
100
AcDbEntity
  8
ZUWAKU
100
AcDbLine
 10
9.058605706573416
 20
11.36250000224418
 30
0.0
 11
9.058605706573416
 21
10.48750000224417
 31
0.0
  0
LINE
  5
2849
330
1A
100
AcDbEntity
  8
ZUWAKU
100
AcDbLine
 10
7.046105706573428
 20
11.62500000224418
 30
0.0
 11
8.796105706573428
 21
11.62500000224418
 31
0.0
  0
ARC
  5
284A
330
1A
100
AcDbEntity
  8
ZUWAKU
100
AcDbCircle
 10
7.308605706573416
 20
9.96250000224418
 30
0.0
 40
0.2625
100
AcDbArc
 50
90.0
 51
180.0
  0
LINE
  5
284B
330
1A
100
AcDbEntity
  8
ZUWAKU
100
AcDbLine
 10
7.046105706573428
 20
9.96250000224418
 30
0.0
 11
7.046105706573428
 21
9.317398989566509
 31
0.0
  0
LINE
  5
284C
330
1A
100
AcDbEntity
  8
ZUWAKU
100
AcDbLine
 10
8.796105706573428
 20
10.22500000224418
 30
0.0
 11
7.308605706573416
 21
10.22500000224418
 31
0.0
  0
LINE
  5
284D
330
1A
100
AcDbEntity
  8
ZUWAKU
100
AcDbLine
 10
5.64610570657345
 20
10.22500000224418
 30
0.0
 11
5.64610570657345
 21
9.317398989566509
 31
0.0
  0
ARC
  5
284E
330
1A
100
AcDbEntity
  8
ZUWAKU
100
AcDbCircle
 10
7.046105706573428
 20
10.22500000224418
 30
0.0
 40
1.399999999999999
100
AcDbArc
 50
90.0
 51
180.0
  0
ARC
  5
284F
330
1A
100
AcDbEntity
  8
ZUWAKU
100
AcDbCircle
 10
8.796105706573428
 20
11.36250000224418
 30
0.0
 40
0.2625
100
AcDbArc
 50
0.0
 51
90.0
  0
ARC
  5
2850
330
1A
100
AcDbEntity
  8
ZUWAKU
100
AcDbCircle
 10
8.796105706573428
 20
10.48750000224417
 30
0.0
 40
0.2625
100
AcDbArc
 50
270.0
 51
0.0
  0
LINE
  5
2851
330
1A
100
AcDbEntity
  8
ZUWAKU
100
AcDbLine
 10
8.706029947065189
 20
7.367525255413593
 30
0.0
 11
7.251130959742852
 21
8.82242424273593
 31
0.0
  0
ARC
  5
2852
330
1A
100
AcDbEntity
  8
ZUWAKU
100
AcDbCircle
 10
7.746105706573416
 20
9.31739898956653
 30
0.0
 40
0.7
100
AcDbArc
 50
180.0000000000016
 51
224.9999999999988
  0
ARC
  5
2853
330
1A
100
AcDbEntity
  8
ZUWAKU
100
AcDbCircle
 10
7.746105706573416
 20
9.31739898956653
 30
0.0
 40
2.099999999999999
100
AcDbArc
 50
180.0
 51
225.0
  0
LINE
  5
2854
330
1A
100
AcDbEntity
  8
ZUWAKU
100
AcDbLine
 10
23.4111814660817
 20
7.832474749074769
 30
0.0
 11
24.86608045340403
 21
6.377575761752439
 31
0.0
  0
LINE
  5
2855
330
1A
100
AcDbEntity
  8
ZUWAKU
100
AcDbLine
 10
19.18824876423133
 20
3.916546986327666
 30
0.0
 11
18.0250530749945
 21
7.60000000224419
 31
0.0
  0
LINE
  5
2856
330
1A
100
AcDbEntity
  8
ZUWAKU
100
AcDbLine
 10
16.32110570657346
 20
3.83750000224418
 30
0.0
 11
16.32110570657346
 21
6.637500002244181
 31
0.0
  0
LINE
  5
2857
330
1A
100
AcDbEntity
  8
ZUWAKU
100
AcDbLine
 10
17.83817317523136
 20
3.758453018160693
 30
0.0
 11
16.90403823791547
 21
6.716546986327664
 31
0.0
  0
LINE
  5
2858
330
1A
100
AcDbEntity
  8
ZUWAKU
100
AcDbLine
 10
20.34610570657343
 20
11.36250000224418
 30
0.0
 11
20.34610570657343
 21
3.83750000224418
 31
0.0
  0
LINE
  5
2859
330
1A
100
AcDbEntity
  8
ZUWAKU
100
AcDbLine
 10
21.74610570657341
 20
3.83750000224418
 30
0.0
 11
21.74610570657341
 21
11.36250000224418
 31
0.0
  0
LINE
  5
285A
330
1A
100
AcDbEntity
  8
ZUWAKU
100
AcDbLine
 10
14.92110570657342
 20
11.36250000224418
 30
0.0
 11
14.92110570657342
 21
3.83750000224418
 31
0.0
  0
LINE
  5
285B
330
1A
100
AcDbEntity
  8
ZUWAKU
100
AcDbLine
 10
11.77110570657345
 20
9.52500000224418
 30
0.0
 11
11.77110570657345
 21
5.675000002244182
 31
0.0
  0
LINE
  5
285C
330
1A
100
AcDbEntity
  8
ZUWAKU
100
AcDbLine
 10
10.37110570657341
 20
5.675000002244182
 30
0.0
 11
10.37110570657341
 21
9.525000002244158
 31
0.0
  0
LINE
  5
285D
330
1A
100
AcDbEntity
  8
ZUWAKU
100
AcDbLine
 10
15.18360570657341
 20
3.575000002244181
 30
0.0
 11
16.05860570657341
 21
3.575000002244181
 31
0.0
  0
ARC
  5
285E
330
1A
100
AcDbEntity
  8
ZUWAKU
100
AcDbCircle
 10
16.05860570657341
 20
3.83750000224418
 30
0.0
 40
0.2625
100
AcDbArc
 50
270.0
 51
0.0
  0
LINE
  5
285F
330
1A
100
AcDbEntity
  8
ZUWAKU
100
AcDbLine
 10
13.69610570657346
 20
4.71250000224418
 30
0.0
 11
13.69610570657346
 21
3.83750000224418
 31
0.0
  0
ARC
  5
2860
330
1A
100
AcDbEntity
  8
ZUWAKU
100
AcDbCircle
 10
13.43360570657341
 20
3.83750000224418
 30
0.0
 40
0.2625
100
AcDbArc
 50
270.0
 51
0.0
  0
ARC
  5
2861
330
1A
100
AcDbEntity
  8
ZUWAKU
100
AcDbCircle
 10
13.43360570657341
 20
4.71250000224418
 30
0.0
 40
0.2625
100
AcDbArc
 50
0.0
 51
90.0
  0
ARC
  5
2862
330
1A
100
AcDbEntity
  8
ZUWAKU
100
AcDbCircle
 10
15.18360570657341
 20
3.83750000224418
 30
0.0
 40
0.2625
100
AcDbArc
 50
180.0
 51
270.0
  0
ARC
  5
2863
330
1A
100
AcDbEntity
  8
ZUWAKU
100
AcDbCircle
 10
12.47110570657343
 20
5.675000002244182
 30
0.0
 40
0.7
100
AcDbArc
 50
180.0
 51
270.0
  0
ARC
  5
2864
330
1A
100
AcDbEntity
  8
ZUWAKU
100
AcDbCircle
 10
12.47110570657343
 20
5.675000002244182
 30
0.0
 40
2.099999999999999
100
AcDbArc
 50
180.0
 51
270.0
  0
LINE
  5
2865
330
1A
100
AcDbEntity
  8
ZUWAKU
100
AcDbLine
 10
12.47110570657343
 20
4.975000002244179
 30
0.0
 11
13.43360570657341
 21
4.975000002244179
 31
0.0
  0
LINE
  5
2866
330
1A
100
AcDbEntity
  8
ZUWAKU
100
AcDbLine
 10
13.43360570657341
 20
3.575000002244181
 30
0.0
 11
12.47110570657343
 21
3.575000002244181
 31
0.0
  0
LINE
  5
2867
330
1A
100
AcDbEntity
  8
ZUWAKU
100
AcDbLine
 10
23.05860570657341
 20
3.83750000224418
 30
0.0
 11
23.05860570657341
 21
4.71250000224418
 31
0.0
  0
ARC
  5
2868
330
1A
100
AcDbEntity
  8
ZUWAKU
100
AcDbCircle
 10
23.32110570657346
 20
3.83750000224418
 30
0.0
 40
0.2625
100
AcDbArc
 50
180.0
 51
270.0
  0
ARC
  5
2869
330
1A
100
AcDbEntity
  8
ZUWAKU
100
AcDbCircle
 10
21.48360570657342
 20
3.83750000224418
 30
0.0
 40
0.2625
100
AcDbArc
 50
270.0
 51
0.0
  0
ARC
  5
286A
330
1A
100
AcDbEntity
  8
ZUWAKU
100
AcDbCircle
 10
23.32110570657346
 20
4.71250000224418
 30
0.0
 40
0.2625
100
AcDbArc
 50
90.0
 51
180.0
  0
LINE
  5
286B
330
1A
100
AcDbEntity
  8
ZUWAKU
100
AcDbLine
 10
23.32110570657346
 20
4.975000002244179
 30
0.0
 11
24.80860570657341
 21
4.975000002244179
 31
0.0
  0
ARC
  5
286C
330
1A
100
AcDbEntity
  8
ZUWAKU
100
AcDbCircle
 10
20.60860570657343
 20
3.83750000224418
 30
0.0
 40
0.2625
100
AcDbArc
 50
180.0
 51
270.0
  0
LINE
  5
286D
330
1A
100
AcDbEntity
  8
ZUWAKU
100
AcDbLine
 10
18.08848862482909
 20
3.575000002244181
 30
0.0
 11
18.93793331463359
 21
3.575000002244181
 31
0.0
  0
ARC
  5
286E
330
1A
100
AcDbEntity
  8
ZUWAKU
100
AcDbCircle
 10
18.93793331463359
 20
3.83750000224418
 30
0.0
 40
0.2625
100
AcDbArc
 50
270.0
 51
17.52556837372303
  0
ARC
  5
286F
330
1A
100
AcDbEntity
  8
ZUWAKU
100
AcDbCircle
 10
18.08848862482909
 20
3.83750000224418
 30
0.0
 40
0.2625
100
AcDbArc
 50
197.525568373723
 51
270.0
  0
LINE
  5
2870
330
1A
100
AcDbEntity
  8
ZUWAKU
100
AcDbLine
 10
20.60860570657343
 20
3.575000002244181
 30
0.0
 11
21.48360570657342
 21
3.575000002244181
 31
0.0
  0
LINE
  5
2871
330
1A
100
AcDbEntity
  8
ZUWAKU
100
AcDbLine
 10
17.83817317523136
 20
11.44154698632766
 30
0.0
 11
16.90403823791547
 21
8.483453018160695
 31
0.0
  0
ARC
  5
2872
330
1A
100
AcDbEntity
  8
ZUWAKU
100
AcDbCircle
 10
16.05860570657341
 20
11.36250000224418
 30
0.0
 40
0.2625
100
AcDbArc
 50
0.0
 51
90.0
  0
LINE
  5
2873
330
1A
100
AcDbEntity
  8
ZUWAKU
100
AcDbLine
 10
16.05860570657341
 20
11.62500000224418
 30
0.0
 11
15.18360570657341
 21
11.62500000224418
 31
0.0
  0
ARC
  5
2874
330
1A
100
AcDbEntity
  8
ZUWAKU
100
AcDbCircle
 10
13.43360570657341
 20
11.36250000224418
 30
0.0
 40
0.2625
100
AcDbArc
 50
0.0
 51
90.0
  0
ARC
  5
2875
330
1A
100
AcDbEntity
  8
ZUWAKU
100
AcDbCircle
 10
15.18360570657341
 20
11.36250000224418
 30
0.0
 40
0.2625
100
AcDbArc
 50
90.0
 51
180.0
  0
ARC
  5
2876
330
1A
100
AcDbEntity
  8
ZUWAKU
100
AcDbCircle
 10
13.43360570657341
 20
10.48750000224417
 30
0.0
 40
0.2625
100
AcDbArc
 50
270.0
 51
0.0
  0
LINE
  5
2877
330
1A
100
AcDbEntity
  8
ZUWAKU
100
AcDbLine
 10
13.69610570657346
 20
11.36250000224418
 30
0.0
 11
13.69610570657346
 21
10.48750000224417
 31
0.0
  0
ARC
  5
2878
330
1A
100
AcDbEntity
  8
ZUWAKU
100
AcDbCircle
 10
16.65372278831779
 20
8.562500002244181
 30
0.0
 40
0.2625
100
AcDbArc
 50
270.0
 51
342.4744316262769
  0
LINE
  5
2879
330
1A
100
AcDbEntity
  8
ZUWAKU
100
AcDbLine
 10
16.65372278831779
 20
8.300000002244178
 30
0.0
 11
16.58360570657345
 21
8.300000002244178
 31
0.0
  0
LINE
  5
287A
330
1A
100
AcDbEntity
  8
ZUWAKU
100
AcDbLine
 10
16.58360570657345
 20
6.90000000224418
 30
0.0
 11
16.65372278831779
 21
6.90000000224418
 31
0.0
  0
ARC
  5
287B
330
1A
100
AcDbEntity
  8
ZUWAKU
100
AcDbCircle
 10
16.58360570657345
 20
8.562500002244181
 30
0.0
 40
0.2625
100
AcDbArc
 50
180.0
 51
270.0
  0
ARC
  5
287C
330
1A
100
AcDbEntity
  8
ZUWAKU
100
AcDbCircle
 10
16.65372278831779
 20
6.637500002244181
 30
0.0
 40
0.2625
100
AcDbArc
 50
17.52556837372303
 51
90.0
  0
ARC
  5
287D
330
1A
100
AcDbEntity
  8
ZUWAKU
100
AcDbCircle
 10
16.58360570657345
 20
6.637500002244181
 30
0.0
 40
0.2625
100
AcDbArc
 50
90.0
 51
180.0
  0
LINE
  5
287E
330
1A
100
AcDbEntity
  8
ZUWAKU
100
AcDbLine
 10
16.32110570657346
 20
8.562500002244181
 30
0.0
 11
16.32110570657346
 21
11.36250000224418
 31
0.0
  0
ARC
  5
287F
330
1A
100
AcDbEntity
  8
ZUWAKU
100
AcDbCircle
 10
12.47110570657343
 20
9.52500000224418
 30
0.0
 40
0.7
100
AcDbArc
 50
90.0
 51
180.0
  0
ARC
  5
2880
330
1A
100
AcDbEntity
  8
ZUWAKU
100
AcDbCircle
 10
12.47110570657343
 20
9.525000002244158
 30
0.0
 40
2.099999999999999
100
AcDbArc
 50
90.0
 51
180.0
  0
LINE
  5
2881
330
1A
100
AcDbEntity
  8
ZUWAKU
100
AcDbLine
 10
12.47110570657343
 20
11.62500000224416
 30
0.0
 11
13.43360570657341
 21
11.62500000224418
 31
0.0
  0
LINE
  5
2882
330
1A
100
AcDbEntity
  8
ZUWAKU
100
AcDbLine
 10
13.43360570657341
 20
10.22500000224418
 30
0.0
 11
12.47110570657343
 21
10.22500000224418
 31
0.0
  0
CIRCLE
  5
2883
330
1A
100
AcDbEntity
  8
ZUWAKU
100
AcDbCircle
 10
12.99610570657341
 20
7.600000002244179
 30
0.0
 40
0.875
  0
ARC
  5
2884
330
1A
100
AcDbEntity
  8
ZUWAKU
100
AcDbCircle
 10
24.45860570657345
 20
9.96250000224418
 30
0.0
 40
0.2625
100
AcDbArc
 50
90.0
 51
180.0
  0
LINE
  5
2885
330
1A
100
AcDbEntity
  8
ZUWAKU
100
AcDbLine
 10
24.19610570657346
 20
9.96250000224418
 30
0.0
 11
24.19610570657346
 21
9.317398989566509
 31
0.0
  0
ARC
  5
2886
330
1A
100
AcDbEntity
  8
ZUWAKU
100
AcDbCircle
 10
21.48360570657342
 20
11.36250000224418
 30
0.0
 40
0.2625
100
AcDbArc
 50
0.0
 51
90.0
  0
LINE
  5
2887
330
1A
100
AcDbEntity
  8
ZUWAKU
100
AcDbLine
 10
22.79610570657343
 20
10.22500000224418
 30
0.0
 11
22.79610570657343
 21
9.317398989566509
 31
0.0
  0
ARC
  5
2888
330
1A
100
AcDbEntity
  8
ZUWAKU
100
AcDbCircle
 10
24.19610570657346
 20
10.22500000224418
 30
0.0
 40
1.399999999999999
100
AcDbArc
 50
90.0
 51
180.0
  0
ARC
  5
2889
330
1A
100
AcDbEntity
  8
ZUWAKU
100
AcDbCircle
 10
20.60860570657343
 20
11.36250000224418
 30
0.0
 40
0.2625
100
AcDbArc
 50
90.0
 51
180.0
  0
LINE
  5
288A
330
1A
100
AcDbEntity
  8
ZUWAKU
100
AcDbLine
 10
18.08848862482909
 20
11.62500000224418
 30
0.0
 11
18.93793331463359
 21
11.62500000224418
 31
0.0
  0
ARC
  5
288B
330
1A
100
AcDbEntity
  8
ZUWAKU
100
AcDbCircle
 10
18.93793331463359
 20
11.36250000224418
 30
0.0
 40
0.2625
100
AcDbArc
 50
342.4744316262769
 51
90.0
  0
LINE
  5
288C
330
1A
100
AcDbEntity
  8
ZUWAKU
100
AcDbLine
 10
19.18824876423133
 20
11.28345301816069
 30
0.0
 11
18.65742894766242
 21
9.602523599025893
 31
0.0
  0
ARC
  5
288D
330
1A
100
AcDbEntity
  8
ZUWAKU
100
AcDbCircle
 10
18.08848862482909
 20
11.36250000224418
 30
0.0
 40
0.2625
100
AcDbArc
 50
90.0
 51
162.4744316262769
  0
LINE
  5
288E
330
1A
100
AcDbEntity
  8
ZUWAKU
100
AcDbLine
 10
21.48360570657342
 20
11.62500000224418
 30
0.0
 11
20.60860570657343
 21
11.62500000224418
 31
0.0
  0
ARC
  5
288F
330
1A
100
AcDbEntity
  8
ZUWAKU
100
AcDbCircle
 10
24.89610570657345
 20
9.31739898956653
 30
0.0
 40
0.7
100
AcDbArc
 50
180.0000000000016
 51
224.9999999999988
  0
ARC
  5
2890
330
1A
100
AcDbEntity
  8
ZUWAKU
100
AcDbCircle
 10
24.89610570657345
 20
9.31739898956653
 30
0.0
 40
2.099999999999999
100
AcDbArc
 50
180.0
 51
225.0
  0
LINE
  5
2891
330
1A
100
AcDbEntity
  8
ZUWAKU
100
AcDbLine
 10
18.65742894766242
 20
9.602523599025893
 30
0.0
 11
18.0250530749945
 21
7.60000000224419
 31
0.0
  0
TEXT
  5
2892
330
1A
100
AcDbEntity
  8
MOJI
100
AcDbText
 10
46.47889442326743
 20
6.370589067381558
 30
0.0
 40
3.0
  1
新・丸トップＲＶ１０５
 41
0.9
  7
ｽﾀｲﾙ1
100
AcDbText
  0
ARC
  5
2893
330
1A
100
AcDbEntity
  8
ZUWAKU
100
AcDbCircle
 10
24.37110570657341
 20
5.882601014921831
 30
0.0
 40
2.099999999999999
100
AcDbArc
 50
0.0
 51
45.0
  0
LINE
  5
2894
330
1A
100
AcDbEntity
  8
ZUWAKU
100
AcDbLine
 10
39.66331440317697
 20
15.00000000224417
 30
0.0
 11
39.66331440317708
 21
0.4000000022442123
 31
0.0
  0
LINE
  5
2895
330
1A
100
AcDbEntity
  8
ZUWAKU
100
AcDbLine
 10
39.76331440317699
 20
15.00000000224417
 30
0.0
 11
39.7633144031771
 21
0.4000000022442123
 31
0.0
  0
LINE
  5
2896
330
1A
100
AcDbEntity
  8
ZUWAKU
100
AcDbLine
 10
39.56331440317706
 20
15.00000000224417
 30
0.0
 11
39.56331440317706
 21
0.4000000022442123
 31
0.0
  0
LINE
  5
2897
330
1A
100
AcDbEntity
  8
ZUWAKU
100
AcDbLine
 10
32.07110570657346
 20
4.975000002244179
 30
0.0
 11
32.07110570657346
 21
11.36250000224418
 31
0.0
  0
LINE
  5
2898
330
1A
100
AcDbEntity
  8
ZUWAKU
100
AcDbLine
 10
30.67110570657343
 20
11.36250000224418
 30
0.0
 11
30.67110570657343
 21
5.500000002244178
 31
0.0
  0
LINE
  5
2899
330
1A
100
AcDbEntity
  8
ZUWAKU
100
AcDbLine
 10
34.52110570657345
 20
3.83750000224418
 30
0.0
 11
34.52110570657345
 21
11.36250000224418
 31
0.0
  0
LINE
  5
289A
330
1A
100
AcDbEntity
  8
ZUWAKU
100
AcDbLine
 10
33.12110570657341
 20
11.36250000224418
 30
0.0
 11
33.12110570657341
 21
3.83750000224418
 31
0.0
  0
LINE
  5
289B
330
1A
100
AcDbEntity
  8
ZUWAKU
100
AcDbLine
 10
27.52110570657345
 20
11.36250000224418
 30
0.0
 11
27.52110570657345
 21
4.975000002244179
 31
0.0
  0
LINE
  5
289C
330
1A
100
AcDbEntity
  8
ZUWAKU
100
AcDbLine
 10
28.92110570657342
 20
5.500000002244178
 30
0.0
 11
28.92110570657342
 21
11.36250000224418
 31
0.0
  0
ARC
  5
289D
330
1A
100
AcDbEntity
  8
ZUWAKU
100
AcDbCircle
 10
30.14610570657345
 20
5.500000002244178
 30
0.0
 40
0.525
100
AcDbArc
 50
270.0
 51
0.0
  0
ARC
  5
289E
330
1A
100
AcDbEntity
  8
ZUWAKU
100
AcDbCircle
 10
30.67110570657343
 20
4.975000002244179
 30
0.0
 40
1.399999999999999
100
AcDbArc
 50
270.0
 51
0.0
  0
LINE
  5
289F
330
1A
100
AcDbEntity
  8
ZUWAKU
100
AcDbLine
 10
26.47110570657344
 20
4.975000002244179
 30
0.0
 11
26.47110570657344
 21
5.882601014921853
 31
0.0
  0
ARC
  5
28A0
330
1A
100
AcDbEntity
  8
ZUWAKU
100
AcDbCircle
 10
29.44610570657346
 20
5.500000002244178
 30
0.0
 40
0.525
100
AcDbArc
 50
180.0
 51
270.0
  0
LINE
  5
28A1
330
1A
100
AcDbEntity
  8
ZUWAKU
100
AcDbLine
 10
25.07110570657346
 20
5.237500002244182
 30
0.0
 11
25.07110570657346
 21
5.882601014921853
 31
0.0
  0
ARC
  5
28A2
330
1A
100
AcDbEntity
  8
ZUWAKU
100
AcDbCircle
 10
28.92110570657342
 20
4.975000002244179
 30
0.0
 40
1.399999999999999
100
AcDbArc
 50
180.0
 51
270.0
  0
ARC
  5
28A3
330
1A
100
AcDbEntity
  8
ZUWAKU
100
AcDbCircle
 10
25.07110570657346
 20
4.975000002244179
 30
0.0
 40
1.399999999999999
100
AcDbArc
 50
270.0
 51
0.0
  0
LINE
  5
28A4
330
1A
100
AcDbEntity
  8
ZUWAKU
100
AcDbLine
 10
30.14610570657345
 20
4.975000002244179
 30
0.0
 11
29.44610570657346
 21
4.975000002244179
 31
0.0
  0
LINE
  5
28A5
330
1A
100
AcDbEntity
  8
ZUWAKU
100
AcDbLine
 10
28.92110570657342
 20
3.575000002244181
 30
0.0
 11
30.67110570657343
 21
3.575000002244181
 31
0.0
  0
ARC
  5
28A6
330
1A
100
AcDbEntity
  8
ZUWAKU
100
AcDbCircle
 10
34.25860570657346
 20
3.83750000224418
 30
0.0
 40
0.2625
100
AcDbArc
 50
270.0
 51
0.0
  0
ARC
  5
28A7
330
1A
100
AcDbEntity
  8
ZUWAKU
100
AcDbCircle
 10
33.38360570657346
 20
3.83750000224418
 30
0.0
 40
0.2625
100
AcDbArc
 50
180.0
 51
270.0
  0
LINE
  5
28A8
330
1A
100
AcDbEntity
  8
ZUWAKU
100
AcDbLine
 10
33.38360570657346
 20
3.575000002244181
 30
0.0
 11
34.25860570657346
 21
3.575000002244181
 31
0.0
  0
ARC
  5
28A9
330
1A
100
AcDbEntity
  8
ZUWAKU
100
AcDbCircle
 10
31.80860570657341
 20
11.36250000224418
 30
0.0
 40
0.2625
100
AcDbArc
 50
0.0
 51
90.0
  0
LINE
  5
28AA
330
1A
100
AcDbEntity
  8
ZUWAKU
100
AcDbLine
 10
31.80860570657341
 20
11.62500000224418
 30
0.0
 11
30.93360570657341
 21
11.62500000224418
 31
0.0
  0
ARC
  5
28AB
330
1A
100
AcDbEntity
  8
ZUWAKU
100
AcDbCircle
 10
30.93360570657341
 20
11.36250000224418
 30
0.0
 40
0.2625
100
AcDbArc
 50
90.0
 51
180.0
  0
ARC
  5
28AC
330
1A
100
AcDbEntity
  8
ZUWAKU
100
AcDbCircle
 10
28.65860570657344
 20
11.36250000224418
 30
0.0
 40
0.2625
100
AcDbArc
 50
0.0
 51
90.0
  0
ARC
  5
28AD
330
1A
100
AcDbEntity
  8
ZUWAKU
100
AcDbCircle
 10
27.78360570657344
 20
11.36250000224418
 30
0.0
 40
0.2625
100
AcDbArc
 50
90.0
 51
180.0
  0
LINE
  5
28AE
330
1A
100
AcDbEntity
  8
ZUWAKU
100
AcDbLine
 10
28.65860570657344
 20
11.62500000224418
 30
0.0
 11
27.78360570657344
 21
11.62500000224418
 31
0.0
  0
ARC
  5
28AF
330
1A
100
AcDbEntity
  8
ZUWAKU
100
AcDbCircle
 10
25.94610570657346
 20
11.36250000224418
 30
0.0
 40
0.2625
100
AcDbArc
 50
0.0
 51
90.0
  0
ARC
  5
28B0
330
1A
100
AcDbEntity
  8
ZUWAKU
100
AcDbCircle
 10
25.94610570657346
 20
10.48750000224417
 30
0.0
 40
0.2625
100
AcDbArc
 50
270.0
 51
0.0
  0
LINE
  5
28B1
330
1A
100
AcDbEntity
  8
ZUWAKU
100
AcDbLine
 10
26.20860570657345
 20
11.36250000224418
 30
0.0
 11
26.20860570657345
 21
10.48750000224417
 31
0.0
  0
ARC
  5
28B2
330
1A
100
AcDbEntity
  8
ZUWAKU
100
AcDbCircle
 10
34.25860570657346
 20
11.36250000224418
 30
0.0
 40
0.2625
100
AcDbArc
 50
0.0
 51
90.0
  0
ARC
  5
28B3
330
1A
100
AcDbEntity
  8
ZUWAKU
100
AcDbCircle
 10
33.38360570657346
 20
11.36250000224418
 30
0.0
 40
0.2625
100
AcDbArc
 50
90.0
 51
180.0
  0
LINE
  5
28B4
330
1A
100
AcDbEntity
  8
ZUWAKU
100
AcDbLine
 10
34.25860570657346
 20
11.62500000224418
 30
0.0
 11
33.38360570657346
 21
11.62500000224418
 31
0.0
  0
TEXT
  5
28B5
330
1A
100
AcDbEntity
  8
ZUWAKU
100
AcDbText
 10
104.8620227853216
 20
4.827678271436987
 30
0.0
 40
2.0
  1
サイズ
 41
0.9
  7
ｽﾀｲﾙ1
100
AcDbText
  0
LINE
  5
28B6
330
1A
100
AcDbEntity
  8
ZUWAKU
100
AcDbLine
 10
104.1233002742168
 20
15.00000000224417
 30
0.0
 11
104.1233002742168
 21
0.4000000022442123
 31
0.0
  0
LINE
  5
28B7
330
1A
100
AcDbEntity
  8
ZUWAKU
100
AcDbLine
 10
104.3233002742167
 20
15.00000000224417
 30
0.0
 11
104.3233002742168
 21
0.4000000022442123
 31
0.0
  0
LINE
  5
28B8
330
1A
100
AcDbEntity
  8
ZUWAKU
100
AcDbLine
 10
104.2233002742167
 20
15.00000000224417
 30
0.0
 11
104.2233002742168
 21
0.4000000022442123
 31
0.0
  0
TEXT
  5
28B9
330
1A
100
AcDbEntity
  8
ZUWAKU
100
AcDbText
 10
104.8620227853215
 20
12.02767827143697
 30
0.0
 40
2.0
  1
品名
 41
0.9
  7
ｽﾀｲﾙ1
100
AcDbText
  0
TEXT
  5
28BA
330
1A
100
AcDbEntity
  8
MOJI
100
AcDbText
 10
119.9136009696084
 20
1.602460530947888
 30
0.0
 40
2.799999999999999
  1
ＲＶ１０５－Ｌ１８０
 41
0.9
  7
ｽﾀｲﾙ1
100
AcDbText
  0
LINE
  5
28BB
330
1A
100
AcDbEntity
  8
ZUWAKU
100
AcDbLine
 10
252.5995893782533
 20
7.600000002244197
 30
0.0
 11
276.263477512239
 21
7.600000002244197
 31
0.0
  0
LINE
  5
28BC
330
1A
100
AcDbEntity
  8
ZUWAKU
100
AcDbLine
 10
252.5995893782533
 20
7.700000002244195
 30
0.0
 11
276.263477512239
 21
7.700000002244195
 31
0.0
  0
LINE
  5
28BD
330
1A
100
AcDbEntity
  8
ZUWAKU
100
AcDbLine
 10
252.5995893782533
 20
7.800000002244194
 30
0.0
 11
276.263477512239
 21
7.800000002244194
 31
0.0
  0
TEXT
  5
28BE
330
1A
100
AcDbEntity
  8
MOJI
100
AcDbText
 10
231.2836387901771
 20
5.97130886307417
 30
0.0
 40
2.799999999999999
  1
ＬＪ４３Ｇ
 41
0.9
  7
ｽﾀｲﾙ1
100
AcDbText
  0
TEXT
  5
28BF
330
1A
100
AcDbEntity
  8
ZUWAKU
100
AcDbText
 10
224.6509041257833
 20
12.02767827143697
 30
0.0
 40
2.0
  1
品番
 41
0.9
  7
ｽﾀｲﾙ1
100
AcDbText
  0
LINE
  5
28C0
330
1A
100
AcDbEntity
  8
ZUWAKU
100
AcDbLine
 10
223.8121816146784
 20
15.00000000224417
 30
0.0
 11
223.8121816146786
 21
0.4000000022442123
 31
0.0
  0
LINE
  5
28C1
330
1A
100
AcDbEntity
  8
ZUWAKU
100
AcDbLine
 10
223.9121816146785
 20
15.00000000224417
 30
0.0
 11
223.9121816146786
 21
0.4000000022442123
 31
0.0
  0
LINE
  5
28C2
330
1A
100
AcDbEntity
  8
ZUWAKU
100
AcDbLine
 10
223.7121816146785
 20
15.00000000224417
 30
0.0
 11
223.7121816146785
 21
0.4000000022442123
 31
0.0
  0
TEXT
  5
28C3
330
1A
100
AcDbEntity
  8
ZUWAKU
100
AcDbText
 10
253.3383118893582
 20
4.827678271436987
 30
0.0
 40
2.0
  1
縮尺
 41
0.9
  7
ｽﾀｲﾙ1
100
AcDbText
  0
LINE
  5
28C4
330
1A
100
AcDbEntity
  8
ZUWAKU
100
AcDbLine
 10
252.4995893782532
 20
15.00000000224417
 30
0.0
 11
252.4995893782534
 21
0.4000000022442123
 31
0.0
  0
LINE
  5
28C5
330
1A
100
AcDbEntity
  8
ZUWAKU
100
AcDbLine
 10
252.5995893782533
 20
15.00000000224417
 30
0.0
 11
252.5995893782534
 21
0.4000000022442123
 31
0.0
  0
LINE
  5
28C6
330
1A
100
AcDbEntity
  8
ZUWAKU
100
AcDbLine
 10
252.3995893782533
 20
15.00000000224417
 30
0.0
 11
252.3995893782533
 21
0.4000000022442123
 31
0.0
  0
TEXT
  5
28C7
330
1A
100
AcDbEntity
  8
ZUWAKU
100
AcDbText
 10
253.3383118893581
 20
12.02767827143697
 30
0.0
 40
2.0
  1
用紙
 41
0.9
  7
ｽﾀｲﾙ1
100
AcDbText
  0
TEXT
  5
28C8
330
1A
100
AcDbEntity
  8
MOJI
100
AcDbText
 10
264.0204536153393
 20
1.602460530947888
 30
0.0
 40
2.799999999999999
  1
１/１
 41
0.9
  7
ｽﾀｲﾙ1
100
AcDbText
  0
TEXT
  5
28C9
330
1A
100
AcDbEntity
  8
MOJI
100
AcDbText
 10
264.0204536153393
 20
9.002460530947871
 30
0.0
 40
2.799999999999999
  1
Ａ３
 41
0.9
  7
ｽﾀｲﾙ1
100
AcDbText
  0
LINE
  5
28CA
330
1A
100
AcDbEntity
  8
ZUWAKU
100
AcDbLine
 10
324.4086008842849
 20
7.600000002244193
 30
0.0
 11
348.6245049034534
 21
7.600000002244195
 31
0.0
  0
LINE
  5
28CB
330
1A
100
AcDbEntity
  8
ZUWAKU
100
AcDbLine
 10
324.408600884285
 20
7.700000002244197
 30
0.0
 11
348.6245049034534
 21
7.700000002244195
 31
0.0
  0
LINE
  5
28CC
330
1A
100
AcDbEntity
  8
ZUWAKU
100
AcDbLine
 10
324.4086008842849
 20
7.800000002244194
 30
0.0
 11
348.6245049034534
 21
7.800000002244194
 31
0.0
  0
TEXT
  5
28CD
330
1A
100
AcDbEntity
  8
ZUWAKU
100
AcDbText
 10
329.101968472834
 20
9.002460530947871
 30
0.0
 40
2.799999999999999
  1
　　．　　．　　
 41
0.9
  7
ｽﾀｲﾙ1
100
AcDbText
  0
LINE
  5
28CE
330
1A
100
AcDbEntity
  8
ZUWAKU
100
AcDbLine
 10
276.3634775122389
 20
15.00000000224417
 30
0.0
 11
276.3634775122391
 21
0.4000000022442123
 31
0.0
  0
LINE
  5
28CF
330
1A
100
AcDbEntity
  8
ZUWAKU
100
AcDbLine
 10
276.463477512239
 20
15.00000000224417
 30
0.0
 11
276.4634775122391
 21
0.4000000022442123
 31
0.0
  0
LINE
  5
28D0
330
1A
100
AcDbEntity
  8
ZUWAKU
100
AcDbLine
 10
276.263477512239
 20
15.00000000224417
 30
0.0
 11
276.263477512239
 21
0.4000000022442123
 31
0.0
  0
LINE
  5
28D1
330
1A
100
AcDbEntity
  8
ZUWAKU
100
AcDbLine
 10
324.308600884285
 20
15.00000000224417
 30
0.0
 11
324.3086008842851
 21
0.4000000022442123
 31
0.0
  0
LINE
  5
28D2
330
1A
100
AcDbEntity
  8
ZUWAKU
100
AcDbLine
 10
324.408600884285
 20
15.00000000224417
 30
0.0
 11
324.4086008842852
 21
0.4000000022442123
 31
0.0
  0
LINE
  5
28D3
330
1A
100
AcDbEntity
  8
ZUWAKU
100
AcDbLine
 10
324.2086008842851
 20
15.00000000224417
 30
0.0
 11
324.2086008842851
 21
0.4000000022442123
 31
0.0
  0
TEXT
  5
28D4
330
1A
100
AcDbEntity
  8
ZUWAKU
100
AcDbText
 10
325.1473233953898
 20
12.02767827143697
 30
0.0
 40
2.0
  1
DATE
 41
0.9
  7
ｽﾀｲﾙ1
100
AcDbText
  0
TEXT
  5
28D5
330
1A
100
AcDbEntity
  8
ZUWAKU
100
AcDbText
 10
354.2640417253047
 20
3.324420159171211
 30
0.0
 40
3.0
  1
建材事業部
 41
0.9
  7
ｽﾀｲﾙ1
100
AcDbText
  0
TEXT
  5
28D6
330
1A
100
AcDbEntity
  8
ZUWAKU
100
AcDbText
 10
354.2640417253047
 20
8.776919670087579
 30
0.0
 40
3.0
  1
積水化学工業株式会社
 41
0.9
  7
ｽﾀｲﾙ1
100
AcDbText
  0
LINE
  5
28D7
330
1A
100
AcDbEntity
  8
ZUWAKU
100
AcDbLine
 10
348.6245049034534
 20
15.00000000224417
 30
0.0
 11
348.6245049034534
 21
0.4000000022442123
 31
0.0
  0
LINE
  5
28D8
330
1A
100
AcDbEntity
  8
ZUWAKU
100
AcDbLine
 10
348.7245049034535
 20
15.00000000224417
 30
0.0
 11
348.7245049034535
 21
0.4000000022442123
 31
0.0
  0
LINE
  5
28D9
330
1A
100
AcDbEntity
  8
ZUWAKU
100
AcDbLine
 10
348.8245049034534
 20
15.00000000224417
 30
0.0
 11
348.8245049034535
 21
0.4000000022442123
 31
0.0
  0
LINE
  5
28DA
330
1A
100
AcDbEntity
  8
ZUWAKU
100
AcDbLine
 10
348.9245049034534
 20
15.00000000224417
 30
0.0
 11
348.9245049034535
 21
0.4000000022442123
 31
0.0
  0
VIEWPORT
  5
22
330
17
100
AcDbEntity
 67
     1
  8
0
100
AcDbViewport
 10
313.6808219178082
 20
148.5
 30
0.0
 40
627.3616438356165
 41
297.0
 68
     2
 69
     1
1001
ACAD
1000
MVIEW
1002
{
1070
    16
1010
0.0
1020
0.0
1030
0.0
1010
0.0
1020
0.0
1030
1.0
1040
0.0
1040
297.0
1040
313.6808219178082
1040
148.5
1040
50.0
1040
0.0
1040
0.0
1070
     0
1070
   100
1070
     1
1070
     0
1070
     0
1070
     0
1070
     0
1070
     0
1040
0.0
1040
0.0
1040
0.0
1040
1.0
1040
1.0
1040
10.0
1040
10.0
1070
     0
1002
{
1002
}
1002
}
  0
VIEWPORT
  5
64
330
17
100
AcDbEntity
 67
     1
  8
VIEWPORT
100
AcDbViewport
 10
210.0
 20
148.5
 30
0.0
 40
420.0
 41
297.0
 68
     1
 69
     2
1001
ACAD
1000
MVIEW
1002
{
1070
    16
1010
0.0
1020
0.0
1030
0.0
1010
0.0
1020
0.0
1030
1.0
1040
0.0
1040
302.9399999999998
1040
210.0
1040
148.5
1040
50.0
1040
0.0
1040
0.0
1070
     0
1070
   100
1070
     1
1070
     0
1070
     0
1070
     0
1070
     0
1070
     0
1040
0.0
1040
0.0
1040
0.0
1040
5.0
1040
5.0
1040
0.0
1040
0.0
1070
     0
1002
{
1002
}
1002
}
  0
ENDSEC
  0
SECTION
  2
OBJECTS
  0
DICTIONARY
  5
C
330
0
100
AcDbDictionary
  3
ACAD_GROUP
350
D
  3
ACAD_LAYOUT
350
141
  3
ACAD_MLINESTYLE
350
E
  3
ACAD_PLOTSETTINGS
350
142
  3
ACAD_PLOTSTYLENAME
350
13F
  3
ACADDIM
350
1A14
  3
ACDBVARIABLEDICTIONARY
350
120D
  3
ACDBHEADERROUNDTRIPXREC
350
28E2
  0
DICTIONARY
  5
7A2
330
1A
100
AcDbDictionary
280
     1
  3
ACAD_LAYOUTSELFREF
360
2904
  0
DICTIONARY
  5
7A0
330
17
100
AcDbDictionary
280
     1
  3
ACAD_LAYOUTSELFREF
360
2903
  0
DICTIONARY
  5
D
102
{ACAD_REACTORS
330
C
102
}
330
C
100
AcDbDictionary
  0
DICTIONARY
  5
141
102
{ACAD_REACTORS
330
C
102
}
330
C
100
AcDbDictionary
  0
DICTIONARY
  5
E
102
{ACAD_REACTORS
330
C
102
}
330
C
100
AcDbDictionary
  3
STANDARD
350
13
  0
DICTIONARY
  5
142
102
{ACAD_REACTORS
330
C
102
}
330
C
100
AcDbDictionary
  0
ACDBDICTIONARYWDFLT
  5
13F
102
{ACAD_REACTORS
330
C
102
}
330
C
100
AcDbDictionary
281
     1
  3
Normal
350
140
100
AcDbDictionaryWithDefault
340
140
1001
ACAD
1000
TREAT_AS_HARD
1070
     0
1000
TREAT_AS_HARD
1070
     0
1000
TREAT_AS_HARD
1070
     0
1000
TREAT_AS_HARD
1070
     0
1000
TREAT_AS_HARD
1070
     0
1000
TREAT_AS_HARD
1070
     0
1000
TREAT_AS_HARD
1070
     0
1000
TREAT_AS_HARD
1070
     0
1000
TREAT_AS_HARD
1070
     0
1000
TREAT_AS_HARD
1070
     0
1000
TREAT_AS_HARD
1070
     0
  0
XRECORD
  5
1A14
102
{ACAD_REACTORS
330
C
102
}
330
C
100
AcDbXrecord
 90
   990106
  3

 60
     0
 61
     0
 62
     1
 63
     3
 64
     0
 65
     0
 66
     0
 67
     3
 68
     1
 69
     0
 70
     0
 71
     0
 72
     0
 40
0.0
170
     0
340
0
  0
DICTIONARY
  5
120D
102
{ACAD_REACTORS
330
C
102
}
330
C
100
AcDbDictionary
  3
SORTENTS
350
120E
  0
DICTIONARY
  5
28E2
102
{ACAD_REACTORS
330
C
102
}
330
C
100
AcDbDictionary
  3
TSTACKALIGN
350
28E3
  3
TSTACKSIZE
350
28E4
  3
HYPERLINKBASE
350
28E5
  3
STYLESHEET
350
28E6
  3
LAYOUTDICT
350
28E7
  3
PLOTSETDICT
350
28E8
  3
PLOTSTYLNAMDICT
350
28E9
  3
LWETCUNION
350
28EA
  3
INSUNITS
350
28EB
  3
CEPSNTYPE
350
28EC
  3
FINGERPRINTGUID
350
28ED
  3
VERSIONGUID
350
28EE
  3
PSVPSCALE
350
28EF
  3
DIMSTYLEDATA
350
28F0
  3
PUCSORTHOREF
350
28F1
  3
PUCSORTHOVIEW
350
28F2
  3
PUCSBASE
350
28F3
  3
PUCSORGTOP
350
28F4
  3
PUCSORGBOTTOM
350
28F5
  3
PUCSORGLEFT
350
28F6
  3
PUCSORGRIGHT
350
28F7
  3
PUCSORGFRONT
350
28F8
  3
PUCSORGBACK
350
28F9
  3
UCSORTHOREF
350
28FA
  3
UCSORTHOVIEW
350
28FB
  3
UCSBASE
350
28FC
  3
UCSORGTOP
350
28FD
  3
UCSORGBOTTOM
350
28FE
  3
UCSORGLEFT
350
28FF
  3
UCSORGRIGHT
350
2900
  3
UCSORGFRONT
350
2901
  3
UCSORGBACK
350
2902
  0
XRECORD
  5
2904
102
{ACAD_REACTORS
330
7A2
102
}
330
7A2
100
AcDbXrecord
340
1A
  0
XRECORD
  5
2903
102
{ACAD_REACTORS
330
7A0
102
}
330
7A0
100
AcDbXrecord
340
17
  0
MLINESTYLE
  5
13
102
{ACAD_REACTORS
330
E
102
}
330
E
100
AcDbMlineStyle
  2
STANDARD
 70
     0
  3

 62
     0
 51
90.0
 52
90.0
 71
     2
 49
0.5
 62
   256
  6
BYLAYER
 49
-0.5
 62
   256
  6
BYLAYER
  0
ACDBPLACEHOLDER
  5
140
102
{ACAD_REACTORS
330
13F
102
}
330
13F
100
AcDbPlaceHolder
280
     0
  0
DICTIONARYVAR
  5
120E
102
{ACAD_REACTORS
330
120D
102
}
330
120D
100
DictionaryVariables
280
     0
  1
96
  0
XRECORD
  5
28E3
102
{ACAD_REACTORS
330
28E2
102
}
330
28E2
100
AcDbXrecord
 90
        1
  0
XRECORD
  5
28E4
102
{ACAD_REACTORS
330
28E2
102
}
330
28E2
100
AcDbXrecord
 90
       70
  0
XRECORD
  5
28E5
102
{ACAD_REACTORS
330
28E2
102
}
330
28E2
100
AcDbXrecord
  1

  0
XRECORD
  5
28E6
102
{ACAD_REACTORS
330
28E2
102
}
330
28E2
100
AcDbXrecord
  1
systemprinter.ctb
  0
XRECORD
  5
28E7
102
{ACAD_REACTORS
330
28E2
102
}
330
28E2
100
AcDbXrecord
340
141
  0
XRECORD
  5
28E8
102
{ACAD_REACTORS
330
28E2
102
}
330
28E2
100
AcDbXrecord
340
142
  0
XRECORD
  5
28E9
102
{ACAD_REACTORS
330
28E2
102
}
330
28E2
100
AcDbXrecord
340
13F
  0
XRECORD
  5
28EA
102
{ACAD_REACTORS
330
28E2
102
}
330
28E2
100
AcDbXrecord
 90
    10781
  0
XRECORD
  5
28EB
102
{ACAD_REACTORS
330
28E2
102
}
330
28E2
100
AcDbXrecord
 90
        0
  0
XRECORD
  5
28EC
102
{ACAD_REACTORS
330
28E2
102
}
330
28E2
100
AcDbXrecord
 90
        0
  0
XRECORD
  5
28ED
102
{ACAD_REACTORS
330
28E2
102
}
330
28E2
100
AcDbXrecord
  1
{4E8D0500-CDD1-11D3-932C-444553540000}
  0
XRECORD
  5
28EE
102
{ACAD_REACTORS
330
28E2
102
}
330
28E2
100
AcDbXrecord
  1
{C92DA108-EDF2-40B0-AB29-D0A9DDB16BA0}
  0
XRECORD
  5
28EF
102
{ACAD_REACTORS
330
28E2
102
}
330
28E2
100
AcDbXrecord
 40
0.0
  0
XRECORD
  5
28F0
102
{ACAD_REACTORS
330
28E2
102
}
330
28E2
100
AcDbXrecord
1000
DSTYLE
1002
{
1070
   341
340
B2
1070
   343
340
B2
1070
   344
340
B2
1070
   371
 70
    -1
1070
   372
 70
    -1
1002
}
  0
XRECORD
  5
28F1
102
{ACAD_REACTORS
330
28E2
102
}
330
28E2
100
AcDbXrecord
340
0
  0
XRECORD
  5
28F2
102
{ACAD_REACTORS
330
28E2
102
}
330
28E2
100
AcDbXrecord
 70
     0
  0
XRECORD
  5
28F3
102
{ACAD_REACTORS
330
28E2
102
}
330
28E2
100
AcDbXrecord
340
0
  0
XRECORD
  5
28F4
102
{ACAD_REACTORS
330
28E2
102
}
330
28E2
100
AcDbXrecord
 10
0.0
 20
0.0
 30
0.0
  0
XRECORD
  5
28F5
102
{ACAD_REACTORS
330
28E2
102
}
330
28E2
100
AcDbXrecord
 10
0.0
 20
0.0
 30
0.0
  0
XRECORD
  5
28F6
102
{ACAD_REACTORS
330
28E2
102
}
330
28E2
100
AcDbXrecord
 10
0.0
 20
0.0
 30
0.0
  0
XRECORD
  5
28F7
102
{ACAD_REACTORS
330
28E2
102
}
330
28E2
100
AcDbXrecord
 10
0.0
 20
0.0
 30
0.0
  0
XRECORD
  5
28F8
102
{ACAD_REACTORS
330
28E2
102
}
330
28E2
100
AcDbXrecord
 10
0.0
 20
0.0
 30
0.0
  0
XRECORD
  5
28F9
102
{ACAD_REACTORS
330
28E2
102
}
330
28E2
100
AcDbXrecord
 10
0.0
 20
0.0
 30
0.0
  0
XRECORD
  5
28FA
102
{ACAD_REACTORS
330
28E2
102
}
330
28E2
100
AcDbXrecord
340
0
  0
XRECORD
  5
28FB
102
{ACAD_REACTORS
330
28E2
102
}
330
28E2
100
AcDbXrecord
 70
     0
  0
XRECORD
  5
28FC
102
{ACAD_REACTORS
330
28E2
102
}
330
28E2
100
AcDbXrecord
340
0
  0
XRECORD
  5
28FD
102
{ACAD_REACTORS
330
28E2
102
}
330
28E2
100
AcDbXrecord
 10
0.0
 20
0.0
 30
0.0
  0
XRECORD
  5
28FE
102
{ACAD_REACTORS
330
28E2
102
}
330
28E2
100
AcDbXrecord
 10
0.0
 20
0.0
 30
0.0
  0
XRECORD
  5
28FF
102
{ACAD_REACTORS
330
28E2
102
}
330
28E2
100
AcDbXrecord
 10
0.0
 20
0.0
 30
0.0
  0
XRECORD
  5
2900
102
{ACAD_REACTORS
330
28E2
102
}
330
28E2
100
AcDbXrecord
 10
0.0
 20
0.0
 30
0.0
  0
XRECORD
  5
2901
102
{ACAD_REACTORS
330
28E2
102
}
330
28E2
100
AcDbXrecord
 10
0.0
 20
0.0
 30
0.0
  0
XRECORD
  5
2902
102
{ACAD_REACTORS
330
28E2
102
}
330
28E2
100
AcDbXrecord
 10
0.0
 20
0.0
 30
0.0
  0
ENDSEC
  0
EOF
