  0
SECTION
  2
HEADER
  9
$ACADVER
  1
AC1014
  9
$ACADMAINTVER
 70
     9
  9
$DWGCODEPAGE
  3
ANSI_932
  9
$INSBASE
 10
0.0
 20
0.0
 30
0.0
  9
$EXTMIN
 10
-0.0128167757670781
 20
-0.0090630292066862
 30
-0.0015258207003583
  9
$EXTMAX
 10
398.8000497626164
 20
275.8226172440017
 30
0.0000000349246037
  9
$LIMMIN
 10
0.0
 20
0.0
  9
$LIMMAX
 10
420.0
 20
297.0
  9
$ORTHOMODE
 70
     1
  9
$REGENMODE
 70
     1
  9
$FILLMODE
 70
     1
  9
$QTEXTMODE
 70
     0
  9
$MIRRTEXT
 70
     1
  9
$DRAGMODE
 70
     2
  9
$LTSCALE
 40
5.0
  9
$OSMODE
 70
    35
  9
$ATTMODE
 70
     1
  9
$TEXTSIZE
 40
3.0
  9
$TRACEWID
 40
1.0
  9
$TEXTSTYLE
  7
STANDARD
  9
$CLAYER
  8
SEIHIN
  9
$CELTYPE
  6
BYLAYER
  9
$CECOLOR
 62
   256
  9
$CELTSCALE
 40
1.0
  9
$DELOBJ
 70
     1
  9
$DISPSILH
 70
     0
  9
$DIMSCALE
 40
1.0
  9
$DIMASZ
 40
3.0
  9
$DIMEXO
 40
3.0
  9
$DIMDLI
 40
7.0
  9
$DIMRND
 40
0.0
  9
$DIMDLE
 40
0.0
  9
$DIMEXE
 40
1.5
  9
$DIMTP
 40
0.0
  9
$DIMTM
 40
0.0
  9
$DIMTXT
 40
3.0
  9
$DIMCEN
 40
3.0
  9
$DIMTSZ
 40
0.0
  9
$DIMTOL
 70
     0
  9
$DIMLIM
 70
     0
  9
$DIMTIH
 70
     0
  9
$DIMTOH
 70
     0
  9
$DIMSE1
 70
     0
  9
$DIMSE2
 70
     0
  9
$DIMTAD
 70
     3
  9
$DIMZIN
 70
     0
  9
$DIMBLK
  1

  9
$DIMASO
 70
     1
  9
$DIMSHO
 70
     1
  9
$DIMPOST
  1

  9
$DIMAPOST
  1

  9
$DIMALT
 70
     0
  9
$DIMALTD
 70
     2
  9
$DIMALTF
 40
25.4
  9
$DIMLFAC
 40
1.0
  9
$DIMTOFL
 70
     1
  9
$DIMTVP
 40
0.0
  9
$DIMTIX
 70
     0
  9
$DIMSOXD
 70
     0
  9
$DIMSAH
 70
     1
  9
$DIMBLK1
  1
OPEN
  9
$DIMBLK2
  1
OPEN
  9
$DIMSTYLE
  2
STANDARD
  9
$DIMCLRD
 70
   256
  9
$DIMCLRE
 70
   256
  9
$DIMCLRT
 70
   256
  9
$DIMTFAC
 40
1.0
  9
$DIMGAP
 40
1.0
  9
$DIMJUST
 70
     0
  9
$DIMSD1
 70
     0
  9
$DIMSD2
 70
     0
  9
$DIMTOLJ
 70
     1
  9
$DIMTZIN
 70
     0
  9
$DIMALTZ
 70
     0
  9
$DIMALTTZ
 70
     0
  9
$DIMFIT
 70
     3
  9
$DIMUPT
 70
     0
  9
$DIMUNIT
 70
     2
  9
$DIMDEC
 70
     0
  9
$DIMTDEC
 70
     0
  9
$DIMALTU
 70
     2
  9
$DIMALTTD
 70
     2
  9
$DIMTXSTY
  7
STANDARD
  9
$DIMAUNIT
 70
     0
  9
$LUNITS
 70
     2
  9
$LUPREC
 70
     4
  9
$SKETCHINC
 40
1.0
  9
$FILLETRAD
 40
0.5
  9
$AUNITS
 70
     0
  9
$AUPREC
 70
     0
  9
$MENU
  1
.
  9
$ELEVATION
 40
0.0
  9
$PELEVATION
 40
0.0
  9
$THICKNESS
 40
0.0
  9
$LIMCHECK
 70
     0
  9
$BLIPMODE
 70
     0
  9
$CHAMFERA
 40
10.0
  9
$CHAMFERB
 40
10.0
  9
$CHAMFERC
 40
20.0
  9
$CHAMFERD
 40
0.0
  9
$SKPOLY
 70
     0
  9
$TDCREATE
 40
2451589.469382176
  9
$TDUPDATE
 40
2453805.462510301
  9
$TDINDWG
 40
0.2290711343
  9
$TDUSRTIMER
 40
0.2290711343
  9
$USRTIMER
 70
     1
  9
$ANGBASE
 50
0.0
  9
$ANGDIR
 70
     0
  9
$PDMODE
 70
     0
  9
$PDSIZE
 40
0.0
  9
$PLINEWID
 40
0.0
  9
$COORDS
 70
     1
  9
$SPLFRAME
 70
     0
  9
$SPLINETYPE
 70
     6
  9
$SPLINESEGS
 70
     8
  9
$ATTDIA
 70
     0
  9
$ATTREQ
 70
     1
  9
$HANDLING
 70
 10241
  9
$HANDSEED
  5
25BF
  9
$SURFTAB1
 70
     6
  9
$SURFTAB2
 70
     6
  9
$SURFTYPE
 70
     6
  9
$SURFU
 70
     6
  9
$SURFV
 70
     6
  9
$UCSNAME
  2

  9
$UCSORG
 10
0.0
 20
0.0
 30
0.0
  9
$UCSXDIR
 10
1.0
 20
0.0
 30
0.0
  9
$UCSYDIR
 10
0.0
 20
1.0
 30
0.0
  9
$PUCSNAME
  2

  9
$PUCSORG
 10
0.0
 20
0.0
 30
0.0
  9
$PUCSXDIR
 10
1.0
 20
0.0
 30
0.0
  9
$PUCSYDIR
 10
0.0
 20
1.0
 30
0.0
  9
$USERI1
 70
     0
  9
$USERI2
 70
     0
  9
$USERI3
 70
     0
  9
$USERI4
 70
     0
  9
$USERI5
 70
     0
  9
$USERR1
 40
0.0
  9
$USERR2
 40
0.0
  9
$USERR3
 40
0.0
  9
$USERR4
 40
0.0
  9
$USERR5
 40
0.0
  9
$WORLDVIEW
 70
     1
  9
$SHADEDGE
 70
     3
  9
$SHADEDIF
 70
    70
  9
$TILEMODE
 70
     1
  9
$MAXACTVP
 70
    16
  9
$PINSBASE
 10
0.0
 20
0.0
 30
0.0
  9
$PLIMCHECK
 70
     0
  9
$PEXTMIN
 10
0.0
 20
0.0
 30
0.0
  9
$PEXTMAX
 10
420.0
 20
297.0
 30
0.0
  9
$PLIMMIN
 10
0.0
 20
0.0
  9
$PLIMMAX
 10
420.0
 20
297.0
  9
$UNITMODE
 70
     0
  9
$VISRETAIN
 70
     0
  9
$PLINEGEN
 70
     0
  9
$PSLTSCALE
 70
     1
  9
$TREEDEPTH
 70
  3020
  9
$PICKSTYLE
 70
     1
  9
$CMLSTYLE
  2
STANDARD
  9
$CMLJUST
 70
     0
  9
$CMLSCALE
 40
1.0
  9
$PROXYGRAPHICS
 70
     1
  9
$MEASUREMENT
 70
     0
  0
ENDSEC
  0
SECTION
  2
CLASSES
  0
CLASS
  1
ACDBDICTIONARYWDFLT
  2
AcDbDictionaryWithDefault
  3
AutoCAD 2000
 90
        0
280
     0
281
     0
  0
CLASS
  1
ACDBPLACEHOLDER
  2
AcDbPlaceHolder
  3
AutoCAD 2000
 90
        0
280
     0
281
     0
  0
CLASS
  1
LAYOUT
  2
AcDbLayout
  3
AutoCAD 2000
 90
        0
280
     0
281
     0
  0
CLASS
  1
LONG_TRANSACTION
  2
AcDbLongTransaction
  3
AutoCAD 2000
 90
        0
280
     0
281
     0
  0
CLASS
  1
LWPOLYLINE
  2
AcDbPolyline
  3
AutoCAD 2000
 90
        0
280
     0
281
     1
  0
CLASS
  1
HATCH
  2
AcDbHatch
  3
AutoCAD 2000
 90
        0
280
     0
281
     1
  0
CLASS
  1
XRECORD
  2
AcDbXrecord
  3
AutoCAD 2000
 90
        0
280
     0
281
     0
  0
CLASS
  1
LONG_TRANSACTION
  2
AcDbLongTransaction
  3
AutoCAD 2000
 90
        0
280
     0
281
     0
  0
CLASS
  1
LWPOLYLINE
  2
AcDbPolyline
  3
AutoCAD 2000
 90
        0
280
     0
281
     1
  0
CLASS
  1
HATCH
  2
AcDbHatch
  3
AutoCAD 2000
 90
        0
280
     0
281
     1
  0
CLASS
  1
XRECORD
  2
AcDbXrecord
  3
AutoCAD 2000
 90
        0
280
     0
281
     0
  0
CLASS
  1
DICTIONARYVAR
  2
AcDbDictionaryVar
  3
AutoCAD 2000
 90
        0
280
     0
281
     0
  0
CLASS
  1
LONG_TRANSACTION
  2
AcDbLongTransaction
  3
AutoCAD 2000
 90
        0
280
     0
281
     0
  0
CLASS
  1
LWPOLYLINE
  2
AcDbPolyline
  3
AutoCAD 2000
 90
        0
280
     0
281
     1
  0
CLASS
  1
HATCH
  2
AcDbHatch
  3
AutoCAD 2000
 90
        0
280
     0
281
     1
  0
CLASS
  1
XRECORD
  2
AcDbXrecord
  3
AutoCAD 2000
 90
        0
280
     0
281
     0
  0
CLASS
  1
LONG_TRANSACTION
  2
AcDbLongTransaction
  3
AutoCAD 2000
 90
        0
280
     0
281
     0
  0
CLASS
  1
LWPOLYLINE
  2
AcDbPolyline
  3
AutoCAD 2000
 90
        0
280
     0
281
     1
  0
CLASS
  1
HATCH
  2
AcDbHatch
  3
AutoCAD 2000
 90
        0
280
     0
281
     1
  0
CLASS
  1
XRECORD
  2
AcDbXrecord
  3
AutoCAD 2000
 90
        0
280
     0
281
     0
  0
CLASS
  1
LONG_TRANSACTION
  2
AcDbLongTransaction
  3
AutoCAD 2000
 90
        0
280
     0
281
     0
  0
CLASS
  1
LWPOLYLINE
  2
AcDbPolyline
  3
AutoCAD 2000
 90
        0
280
     0
281
     1
  0
CLASS
  1
HATCH
  2
AcDbHatch
  3
AutoCAD 2000
 90
        0
280
     0
281
     1
  0
CLASS
  1
XRECORD
  2
AcDbXrecord
  3
AutoCAD 2000
 90
        0
280
     0
281
     0
  0
CLASS
  1
LONG_TRANSACTION
  2
AcDbLongTransaction
  3
AutoCAD 2000
 90
        0
280
     0
281
     0
  0
CLASS
  1
LWPOLYLINE
  2
AcDbPolyline
  3
AutoCAD 2000
 90
        0
280
     0
281
     1
  0
CLASS
  1
HATCH
  2
AcDbHatch
  3
AutoCAD 2000
 90
        0
280
     0
281
     1
  0
CLASS
  1
XRECORD
  2
AcDbXrecord
  3
AutoCAD 2000
 90
        0
280
     0
281
     0
  0
CLASS
  1
LONG_TRANSACTION
  2
AcDbLongTransaction
  3
AutoCAD 2000
 90
        0
280
     0
281
     0
  0
CLASS
  1
LWPOLYLINE
  2
AcDbPolyline
  3
AutoCAD 2000
 90
        0
280
     0
281
     1
  0
CLASS
  1
HATCH
  2
AcDbHatch
  3
AutoCAD 2000
 90
        0
280
     0
281
     1
  0
CLASS
  1
XRECORD
  2
AcDbXrecord
  3
AutoCAD 2000
 90
        0
280
     0
281
     0
  0
CLASS
  1
LONG_TRANSACTION
  2
AcDbLongTransaction
  3
AutoCAD 2000
 90
        0
280
     0
281
     0
  0
CLASS
  1
LWPOLYLINE
  2
AcDbPolyline
  3
AutoCAD 2000
 90
        0
280
     0
281
     1
  0
CLASS
  1
HATCH
  2
AcDbHatch
  3
AutoCAD 2000
 90
        0
280
     0
281
     1
  0
CLASS
  1
XRECORD
  2
AcDbXrecord
  3
AutoCAD 2000
 90
        0
280
     0
281
     0
  0
CLASS
  1
LONG_TRANSACTION
  2
AcDbLongTransaction
  3
AutoCAD 2000
 90
        0
280
     0
281
     0
  0
CLASS
  1
LWPOLYLINE
  2
AcDbPolyline
  3
AutoCAD 2000
 90
        0
280
     0
281
     1
  0
CLASS
  1
HATCH
  2
AcDbHatch
  3
AutoCAD 2000
 90
        0
280
     0
281
     1
  0
CLASS
  1
XRECORD
  2
AcDbXrecord
  3
AutoCAD 2000
 90
        0
280
     0
281
     0
  0
CLASS
  1
LONG_TRANSACTION
  2
AcDbLongTransaction
  3
AutoCAD 2000
 90
        0
280
     0
281
     0
  0
CLASS
  1
LWPOLYLINE
  2
AcDbPolyline
  3
AutoCAD 2000
 90
        0
280
     0
281
     1
  0
CLASS
  1
HATCH
  2
AcDbHatch
  3
AutoCAD 2000
 90
        0
280
     0
281
     1
  0
CLASS
  1
XRECORD
  2
AcDbXrecord
  3
AutoCAD 2000
 90
        0
280
     0
281
     0
  0
CLASS
  1
LONG_TRANSACTION
  2
AcDbLongTransaction
  3
AutoCAD 2000
 90
        0
280
     0
281
     0
  0
CLASS
  1
LWPOLYLINE
  2
AcDbPolyline
  3
AutoCAD 2000
 90
        0
280
     0
281
     1
  0
CLASS
  1
HATCH
  2
AcDbHatch
  3
AutoCAD 2000
 90
        0
280
     0
281
     1
  0
CLASS
  1
XRECORD
  2
AcDbXrecord
  3
AutoCAD 2000
 90
        0
280
     0
281
     0
  0
ENDSEC
  0
SECTION
  2
TABLES
  0
TABLE
  2
VPORT
  5
8
330
0
100
AcDbSymbolTable
 70
     2
  0
VPORT
  5
2592
330
8
100
AcDbSymbolTableRecord
100
AcDbViewportTableRecord
  2
*ACTIVE
 70
     0
 10
0.0
 20
0.0
 11
1.0
 21
1.0
 12
224.3047771732605
 22
134.8556905220088
 13
0.0
 23
0.0
 14
5.0
 24
5.0
 15
0.0
 25
0.0
 16
0.0
 26
0.0
 36
1.0
 17
0.0
 27
0.0
 37
0.0
 40
338.4228530172176
 41
1.795454545454545
 42
50.0
 43
0.0
 44
0.0
 50
0.0
 51
0.0
 71
     0
 72
   100
 73
     1
 74
     0
 75
     0
 76
     0
 77
     0
 78
     0
  0
ENDTAB
  0
TABLE
  2
LTYPE
  5
5
330
0
100
AcDbSymbolTable
 70
     3
  0
LTYPE
  5
14
330
5
100
AcDbSymbolTableRecord
100
AcDbLinetypeTableRecord
  2
BYBLOCK
 70
     0
  3

 72
    65
 73
     0
 40
0.0
  0
LTYPE
  5
15
330
5
100
AcDbSymbolTableRecord
100
AcDbLinetypeTableRecord
  2
BYLAYER
 70
     0
  3

 72
    65
 73
     0
 40
0.0
  0
LTYPE
  5
16
330
5
100
AcDbSymbolTableRecord
100
AcDbLinetypeTableRecord
  2
CONTINUOUS
 70
     0
  3
Solid line
 72
    65
 73
     0
 40
0.0
  0
LTYPE
  5
120
330
5
100
AcDbSymbolTableRecord
100
AcDbLinetypeTableRecord
  2
CENTER
 70
     0
  3
____ _ ____ _ ____ _ ____ _ ____ _ ____ _ ____ 
 72
    65
 73
     4
 40
2.0
 49
1.25
 74
     0
 49
-0.25
 74
     0
 49
0.25
 74
     0
 49
-0.25
 74
     0
  0
LTYPE
  5
122
330
5
100
AcDbSymbolTableRecord
100
AcDbLinetypeTableRecord
  2
PHANTOM
 70
     0
  3
______  __  __  ______  __  __  ______  __  __ 
 72
    65
 73
     6
 40
2.5
 49
1.25
 74
     0
 49
-0.25
 74
     0
 49
0.25
 74
     0
 49
-0.25
 74
     0
 49
0.25
 74
     0
 49
-0.25
 74
     0
  0
ENDTAB
  0
TABLE
  2
LAYER
  5
2
330
0
100
AcDbSymbolTable
 70
     9
  0
LAYER
  5
F
330
2
100
AcDbSymbolTableRecord
100
AcDbLayerTableRecord
  2
0
 70
     0
 62
     7
  6
CONTINUOUS
  0
LAYER
  5
62
330
2
100
AcDbSymbolTableRecord
100
AcDbLayerTableRecord
  2
VIEWPORT
 70
     0
 62
     7
  6
CONTINUOUS
  0
LAYER
  5
6B
330
2
100
AcDbSymbolTableRecord
100
AcDbLayerTableRecord
  2
ZUWAKU
 70
     0
 62
     7
  6
CONTINUOUS
  0
LAYER
  5
3EF
330
2
100
AcDbSymbolTableRecord
100
AcDbLayerTableRecord
  2
DEFPOINTS
 70
     0
 62
     7
  6
CONTINUOUS
  0
LAYER
  5
54D
330
2
100
AcDbSymbolTableRecord
100
AcDbLayerTableRecord
  2
SEIHIN
 70
     0
 62
     3
  6
CONTINUOUS
  0
LAYER
  5
54E
330
2
100
AcDbSymbolTableRecord
100
AcDbLayerTableRecord
  2
SUNPOU
 70
     0
 62
     4
  6
CONTINUOUS
  0
LAYER
  5
54F
330
2
100
AcDbSymbolTableRecord
100
AcDbLayerTableRecord
  2
CENTER_L
 70
     0
 62
     1
  6
CENTER
  0
LAYER
  5
550
330
2
100
AcDbSymbolTableRecord
100
AcDbLayerTableRecord
  2
NOKITOI
 70
     0
 62
     8
  6
PHANTOM
  0
LAYER
  5
241D
330
2
100
AcDbSymbolTableRecord
100
AcDbLayerTableRecord
  2
MOJI
 70
     0
 62
     2
  6
CONTINUOUS
  0
ENDTAB
  0
TABLE
  2
STYLE
  5
3
330
0
100
AcDbSymbolTable
 70
     2
  0
STYLE
  5
10
330
3
100
AcDbSymbolTableRecord
100
AcDbTextStyleTableRecord
  2
STANDARD
 70
     0
 40
0.0
 41
1.0
 50
0.0
 71
     0
 42
3.0
  3
TXT
  4
c:\PROGRAM FILES\AUTOCAD LT\ms\bigfont.shx
  0
STYLE
  5
241E
330
3
100
AcDbSymbolTableRecord
100
AcDbTextStyleTableRecord
  2
ｽﾀｲﾙ1
 70
     0
 40
0.0
 41
1.0
 50
0.0
 71
     0
 42
2.5
  3
MS PGothic.ttf
  4

1001
ACAD
1000
MS PGothic
1071
    32818
  0
ENDTAB
  0
TABLE
  2
VIEW
  5
6
330
0
100
AcDbSymbolTable
 70
     0
  0
ENDTAB
  0
TABLE
  2
UCS
  5
7
330
0
100
AcDbSymbolTable
 70
     0
  0
ENDTAB
  0
TABLE
  2
APPID
  5
9
330
0
100
AcDbSymbolTable
 70
     1
  0
APPID
  5
11
330
9
100
AcDbSymbolTableRecord
100
AcDbRegAppTableRecord
  2
ACAD
 70
     0
  0
ENDTAB
  0
TABLE
  2
DIMSTYLE
  5
A
330
0
100
AcDbSymbolTable
 70
     1
  0
DIMSTYLE
105
1D
102
{ACAD_REACTORS
330
2140
330
2156
330
2163
330
2179
330
2193
330
21BA
330
21F1
102
}
330
A
100
AcDbSymbolTableRecord
100
AcDbDimStyleTableRecord
  2
STANDARD
 70
     0
  3

  4

  5

  6

  7

 40
1.0
 41
0.18
 42
0.0625
 43
0.38
 44
0.18
 45
0.0
 46
0.0
 47
0.0
 48
0.0
140
0.18
141
0.09
142
0.0
143
25.4
144
1.0
145
0.0
146
1.0
147
0.09
 71
     0
 72
     0
 73
     1
 74
     1
 75
     0
 76
     0
 77
     0
 78
     0
170
     0
171
     2
172
     0
173
     0
174
     0
175
     0
176
     0
177
     0
178
     0
270
     2
271
     4
272
     4
273
     2
274
     2
340
10
275
     0
280
     0
281
     0
282
     0
283
     1
284
     0
285
     0
286
     0
287
     3
288
     0
  0
ENDTAB
  0
TABLE
  2
BLOCK_RECORD
  5
1
330
0
100
AcDbSymbolTable
 70
     8
  0
BLOCK_RECORD
  5
1A
102
{ACAD_XDICTIONARY
360
7A2
102
}
330
1
100
AcDbSymbolTableRecord
100
AcDbBlockTableRecord
  2
*MODEL_SPACE
  0
BLOCK_RECORD
  5
17
102
{ACAD_XDICTIONARY
360
7A0
102
}
330
1
100
AcDbSymbolTableRecord
100
AcDbBlockTableRecord
  2
*PAPER_SPACE
  0
BLOCK_RECORD
  5
B2
330
1
100
AcDbSymbolTableRecord
100
AcDbBlockTableRecord
  2
_OPEN
  0
BLOCK_RECORD
  5
2141
330
1
100
AcDbSymbolTableRecord
100
AcDbBlockTableRecord
  2
*D1
  0
BLOCK_RECORD
  5
2157
330
1
100
AcDbSymbolTableRecord
100
AcDbBlockTableRecord
  2
*D2
  0
BLOCK_RECORD
  5
2164
330
1
100
AcDbSymbolTableRecord
100
AcDbBlockTableRecord
  2
*D3
  0
BLOCK_RECORD
  5
217A
330
1
100
AcDbSymbolTableRecord
100
AcDbBlockTableRecord
  2
*D4
  0
BLOCK_RECORD
  5
2194
330
1
100
AcDbSymbolTableRecord
100
AcDbBlockTableRecord
  2
*D5
  0
BLOCK_RECORD
  5
21BB
330
1
100
AcDbSymbolTableRecord
100
AcDbBlockTableRecord
  2
*D6
  0
BLOCK_RECORD
  5
21F2
330
1
100
AcDbSymbolTableRecord
100
AcDbBlockTableRecord
  2
*D7
  0
ENDTAB
  0
ENDSEC
  0
SECTION
  2
BLOCKS
  0
BLOCK
  5
1B
330
1A
100
AcDbEntity
  8
0
100
AcDbBlockBegin
  2
*MODEL_SPACE
 70
     0
 10
0.0
 20
0.0
 30
0.0
  3
*MODEL_SPACE
  1

  0
ENDBLK
  5
1C
330
1A
100
AcDbEntity
  8
0
100
AcDbBlockEnd
  0
BLOCK
  5
18
330
17
100
AcDbEntity
 67
     1
  8
0
100
AcDbBlockBegin
  2
*PAPER_SPACE
 70
     0
 10
0.0
 20
0.0
 30
0.0
  3
*PAPER_SPACE
  1

  0
ENDBLK
  5
19
330
17
100
AcDbEntity
 67
     1
  8
0
100
AcDbBlockEnd
  0
BLOCK
  5
B3
330
B2
100
AcDbEntity
  8
0
100
AcDbBlockBegin
  2
_OPEN
 70
     0
 10
0.0
 20
0.0
 30
0.0
  3
_OPEN
  1

  0
LINE
  5
B4
330
B2
100
AcDbEntity
  8
0
  6
BYBLOCK
 62
     0
100
AcDbLine
 10
-1.0
 20
0.1666666666666666
 30
0.0
 11
0.0
 21
0.0
 31
0.0
  0
LINE
  5
B5
330
B2
100
AcDbEntity
  8
0
  6
BYBLOCK
 62
     0
100
AcDbLine
 10
0.0
 20
0.0
 30
0.0
 11
-1.0
 21
-0.1666666666666666
 31
0.0
  0
LINE
  5
B6
330
B2
100
AcDbEntity
  8
0
  6
BYBLOCK
 62
     0
100
AcDbLine
 10
0.0
 20
0.0
 30
0.0
 11
-1.0
 21
0.0
 31
0.0
  0
ENDBLK
  5
B7
330
B2
100
AcDbEntity
  8
0
100
AcDbBlockEnd
  0
BLOCK
  5
214B
330
2141
100
AcDbEntity
  8
0
100
AcDbBlockBegin
  2
*D1
 70
     1
 10
0.0
 20
0.0
 30
0.0
  3
*D1
  1

  0
LINE
  5
2323
330
2141
100
AcDbEntity
  8
SUNPOU
100
AcDbLine
 10
121.7101854171983
 20
195.6713174136313
 30
0.0
 11
121.7101854171983
 21
215.1613841375192
 31
0.0
  0
LINE
  5
2324
330
2141
100
AcDbEntity
  8
SUNPOU
100
AcDbLine
 10
245.1101854171983
 20
164.8826424136312
 30
0.0
 11
245.1101854171983
 21
215.1613841375192
 31
0.0
  0
LINE
  5
2325
330
2141
100
AcDbEntity
  8
SUNPOU
100
AcDbLine
 10
124.7101854171983
 20
213.6613841375192
 30
0.0
 11
242.1101854171983
 21
213.6613841375192
 31
0.0
  0
INSERT
  5
2326
330
2141
100
AcDbEntity
  8
SUNPOU
100
AcDbBlockReference
  2
_OPEN
 10
121.7101854171983
 20
213.6613841375192
 30
0.0
 41
3.0
 42
3.0
 43
3.0
 50
180.0
  0
INSERT
  5
2327
330
2141
100
AcDbEntity
  8
SUNPOU
100
AcDbBlockReference
  2
_OPEN
 10
245.1101854171983
 20
213.6613841375192
 30
0.0
 41
3.0
 42
3.0
 43
3.0
  0
MTEXT
  5
2328
330
2141
100
AcDbEntity
  8
SUNPOU
100
AcDbMText
 10
183.4101854171983
 20
216.1613841375192
 30
0.0
 40
3.0
 41
0.0
 71
     5
 72
     5
  1
\A1;123
1001
ACAD
1000
MTEXTBEGIN
1070
    73
1070
     1
1070
    44
1040
1.0
1070
    74
1070
     0
1000
MTEXTEND
1000
MTEXTBEGIN
1070
    73
1070
     1
1070
    44
1040
1.0
1070
    74
1070
     0
1000
MTEXTEND
1000
MTEXTBEGIN
1070
    73
1070
     1
1070
    44
1040
1.0
1070
    74
1070
     0
1000
MTEXTEND
1000
MTEXTBEGIN
1070
    73
1070
     1
1070
    44
1040
1.0
1070
    74
1070
     0
1000
MTEXTEND
  0
POINT
  5
2329
330
2141
100
AcDbEntity
  8
DEFPOINTS
 62
     0
100
AcDbPoint
 10
121.7101854171983
 20
192.6713174136313
 30
0.0
  0
POINT
  5
232A
330
2141
100
AcDbEntity
  8
DEFPOINTS
 62
     0
100
AcDbPoint
 10
245.1101854171983
 20
161.8826424136312
 30
0.0
  0
POINT
  5
232B
330
2141
100
AcDbEntity
  8
DEFPOINTS
 62
     0
100
AcDbPoint
 10
245.1101854171983
 20
213.6613841375192
 30
0.0
  0
ENDBLK
  5
214C
330
2141
100
AcDbEntity
  8
0
100
AcDbBlockEnd
  0
BLOCK
  5
2161
330
2157
100
AcDbEntity
  8
0
100
AcDbBlockBegin
  2
*D2
 70
     1
 10
0.0
 20
0.0
 30
0.0
  3
*D2
  1

  0
LINE
  5
231A
330
2157
100
AcDbEntity
  8
SUNPOU
100
AcDbLine
 10
118.7101854171983
 20
192.6713174136313
 30
0.0
 11
95.55569999519413
 21
192.6713174136313
 31
0.0
  0
LINE
  5
231B
330
2157
100
AcDbEntity
  8
SUNPOU
100
AcDbLine
 10
181.4101854171982
 20
106.8712958061145
 30
0.0
 11
95.55569999519411
 21
106.8712958061145
 31
0.0
  0
LINE
  5
231C
330
2157
100
AcDbEntity
  8
SUNPOU
100
AcDbLine
 10
97.05569999519413
 20
189.6713174136313
 30
0.0
 11
97.05569999519411
 21
109.8712958061145
 31
0.0
  0
INSERT
  5
231D
330
2157
100
AcDbEntity
  8
SUNPOU
100
AcDbBlockReference
  2
_OPEN
 10
97.05569999519413
 20
192.6713174136313
 30
0.0
 41
3.0
 42
3.0
 43
3.0
 50
90.0
  0
INSERT
  5
231E
330
2157
100
AcDbEntity
  8
SUNPOU
100
AcDbBlockReference
  2
_OPEN
 10
97.05569999519411
 20
106.8712958061145
 30
0.0
 41
3.0
 42
3.0
 43
3.0
 50
270.0
  0
MTEXT
  5
231F
330
2157
100
AcDbEntity
  8
SUNPOU
100
AcDbMText
 10
94.5556999951941
 20
149.7713066098729
 30
0.0
 40
3.0
 41
0.0
 71
     5
 72
     5
  1
\A1;86
 11
0.0000000000000001
 21
1.0
 31
0.0
1001
ACAD
1000
MTEXTBEGIN
1070
    73
1070
     1
1070
    44
1040
1.0
1070
    74
1070
     0
1000
MTEXTEND
1000
MTEXTBEGIN
1070
    73
1070
     1
1070
    44
1040
1.0
1070
    74
1070
     0
1000
MTEXTEND
1000
MTEXTBEGIN
1070
    73
1070
     1
1070
    44
1040
1.0
1070
    74
1070
     0
1000
MTEXTEND
1000
MTEXTBEGIN
1070
    73
1070
     1
1070
    44
1040
1.0
1070
    74
1070
     0
1000
MTEXTEND
  0
POINT
  5
2320
330
2157
100
AcDbEntity
  8
DEFPOINTS
 62
     0
100
AcDbPoint
 10
121.7101854171983
 20
192.6713174136313
 30
0.0
  0
POINT
  5
2321
330
2157
100
AcDbEntity
  8
DEFPOINTS
 62
     0
100
AcDbPoint
 10
184.4101854171982
 20
106.8712958061145
 30
0.0
  0
POINT
  5
2322
330
2157
100
AcDbEntity
  8
DEFPOINTS
 62
     0
100
AcDbPoint
 10
97.05569999519411
 20
106.8712958061145
 30
0.0
  0
ENDBLK
  5
2162
330
2157
100
AcDbEntity
  8
0
100
AcDbBlockEnd
  0
BLOCK
  5
216E
330
2164
100
AcDbEntity
  8
0
100
AcDbBlockBegin
  2
*D3
 70
     1
 10
0.0
 20
0.0
 30
0.0
  3
*D3
  1

  0
LINE
  5
25B6
330
2164
100
AcDbEntity
  8
SUNPOU
100
AcDbLine
 10
181.4101854171982
 20
106.8712958061145
 30
0.0
 11
95.55569999519411
 21
106.8712958061145
 31
0.0
  0
LINE
  5
25B7
330
2164
100
AcDbEntity
  8
SUNPOU
100
AcDbLine
 10
184.3107854171982
 20
57.47135541363128
 30
0.0
 11
95.55569999519411
 21
57.47135541363132
 31
0.0
  0
LINE
  5
25B8
330
2164
100
AcDbEntity
  8
SUNPOU
100
AcDbLine
 10
97.05569999519411
 20
103.8712958061145
 30
0.0
 11
97.05569999519411
 21
60.47135541363132
 31
0.0
  0
INSERT
  5
25B9
330
2164
100
AcDbEntity
  8
SUNPOU
100
AcDbBlockReference
  2
_OPEN
 10
97.05569999519411
 20
106.8712958061145
 30
0.0
 41
3.0
 42
3.0
 43
3.0
 50
90.0
  0
INSERT
  5
25BA
330
2164
100
AcDbEntity
  8
SUNPOU
100
AcDbBlockReference
  2
_OPEN
 10
97.05569999519411
 20
57.47135541363132
 30
0.0
 41
3.0
 42
3.0
 43
3.0
 50
270.0
  0
MTEXT
  5
25BB
330
2164
100
AcDbEntity
  8
SUNPOU
100
AcDbMText
 10
94.5556999951941
 20
82.17132560987295
 30
0.0
 40
3.0
 41
0.0
 71
     5
 72
     1
  1
\A1;H
 11
0.0000000000000001
 21
1.0
 31
0.0
  0
POINT
  5
25BC
330
2164
100
AcDbEntity
  8
DEFPOINTS
 62
     0
100
AcDbPoint
 10
184.4101854171982
 20
106.8712958061145
 30
0.0
  0
POINT
  5
25BD
330
2164
100
AcDbEntity
  8
DEFPOINTS
 62
     0
100
AcDbPoint
 10
187.3107854171982
 20
57.47135541363128
 30
0.0
  0
POINT
  5
25BE
330
2164
100
AcDbEntity
  8
DEFPOINTS
 62
     0
100
AcDbPoint
 10
97.05569999519411
 20
57.47135541363132
 30
0.0
  0
ENDBLK
  5
216F
330
2164
100
AcDbEntity
  8
0
100
AcDbBlockEnd
  0
BLOCK
  5
2186
330
217A
100
AcDbEntity
  8
0
100
AcDbBlockBegin
  2
*D4
 70
     1
 10
0.0
 20
0.0
 30
0.0
  3
*D4
  1

  0
LINE
  5
233E
330
217A
100
AcDbEntity
  8
SUNPOU
100
AcDbLine
 10
329.7840130892343
 20
119.6334322356279
 30
0.0
 11
358.8102887080177
 21
131.243100810726
 31
0.0
  0
LINE
  5
233F
330
217A
100
AcDbEntity
  8
SUNPOU
100
AcDbLine
 10
331.7151130892343
 20
114.8053322356279
 30
0.0
 11
360.7413887080177
 21
126.415000810726
 31
0.0
  0
LINE
  5
2340
330
217A
100
AcDbEntity
  8
SUNPOU
100
AcDbLine
 10
356.3034573466408
 20
133.4715075342883
 30
0.0
 11
355.1893549469642
 21
136.2569654576888
 31
0.0
  0
LINE
  5
2341
330
217A
100
AcDbEntity
  8
SUNPOU
100
AcDbLine
 10
360.462762145994
 20
123.0724916874872
 30
0.0
 11
364.5478042781415
 21
112.8591459683519
 31
0.0
  0
LINE
  5
2342
330
217A
100
AcDbEntity
  8
SUNPOU
100
AcDbLine
 10
357.4175597463174
 20
130.6860496108877
 30
0.0
 11
359.3486597463174
 21
125.8579496108878
 31
0.0
  0
INSERT
  5
2343
330
217A
100
AcDbEntity
  8
SUNPOU
100
AcDbBlockReference
  2
_OPEN
 10
357.4175597463174
 20
130.6860496108877
 30
0.0
 41
3.0
 42
3.0
 43
3.0
 50
291.7999772299743
  0
INSERT
  5
2344
330
217A
100
AcDbEntity
  8
SUNPOU
100
AcDbBlockReference
  2
_OPEN
 10
359.3486597463174
 20
125.8579496108878
 30
0.0
 41
3.0
 42
3.0
 43
3.0
 50
111.7999772299743
  0
MTEXT
  5
2345
330
217A
100
AcDbEntity
  8
SUNPOU
100
AcDbMText
 10
365.3835493480732
 20
117.5015085326165
 30
0.0
 40
3.0
 41
0.0
 71
     5
 72
     5
  1
\A1;5.2
 11
0.3713674665588717
 21
-0.9284859744668441
 31
0.0
1001
ACAD
1000
MTEXTBEGIN
1070
    73
1070
     1
1070
    44
1040
1.0
1070
    74
1070
     0
1000
MTEXTEND
1000
MTEXTBEGIN
1070
    73
1070
     1
1070
    44
1040
1.0
1070
    74
1070
     0
1000
MTEXTEND
1000
MTEXTBEGIN
1070
    73
1070
     1
1070
    44
1040
1.0
1070
    74
1070
     0
1000
MTEXTEND
1000
MTEXTBEGIN
1070
    73
1070
     1
1070
    44
1040
1.0
1070
    74
1070
     0
1000
MTEXTEND
  0
POINT
  5
2346
330
217A
100
AcDbEntity
  8
DEFPOINTS
 62
     0
100
AcDbPoint
 10
326.9985551658338
 20
118.5193298359513
 30
0.0
  0
POINT
  5
2347
330
217A
100
AcDbEntity
  8
DEFPOINTS
 62
     0
100
AcDbPoint
 10
328.9296551658338
 20
113.6912298359513
 30
0.0
  0
POINT
  5
2348
330
217A
100
AcDbEntity
  8
DEFPOINTS
 62
     0
100
AcDbPoint
 10
359.3486597463174
 20
125.8579496108878
 30
0.0
  0
ENDBLK
  5
2187
330
217A
100
AcDbEntity
  8
0
100
AcDbBlockEnd
  0
BLOCK
  5
21A0
330
2194
100
AcDbEntity
  8
0
100
AcDbBlockBegin
  2
*D5
 70
     1
 10
0.0
 20
0.0
 30
0.0
  3
*D5
  1

  0
LINE
  5
2349
330
2194
100
AcDbEntity
  8
SUNPOU
100
AcDbLine
 10
329.8911682132267
 20
246.5867602931369
 30
0.0
 11
367.1288090669877
 21
246.5867602931369
 31
0.0
  0
LINE
  5
234A
330
2194
100
AcDbEntity
  8
SUNPOU
100
AcDbLine
 10
329.8912682132267
 20
241.0869602931369
 30
0.0
 11
367.1288090669877
 21
241.0869602931369
 31
0.0
  0
LINE
  5
234B
330
2194
100
AcDbEntity
  8
SUNPOU
100
AcDbLine
 10
365.6288090669877
 20
249.5867602931368
 30
0.0
 11
365.6288090669877
 21
252.5867602931369
 31
0.0
  0
LINE
  5
234C
330
2194
100
AcDbEntity
  8
SUNPOU
100
AcDbLine
 10
365.6288090669877
 20
238.0869602931368
 30
0.0
 11
365.6288090669877
 21
227.0869602931369
 31
0.0
  0
LINE
  5
234D
330
2194
100
AcDbEntity
  8
SUNPOU
100
AcDbLine
 10
365.6288090669877
 20
246.5867602931369
 30
0.0
 11
365.6288090669877
 21
241.0869602931369
 31
0.0
  0
INSERT
  5
234E
330
2194
100
AcDbEntity
  8
SUNPOU
100
AcDbBlockReference
  2
_OPEN
 10
365.6288090669877
 20
246.5867602931369
 30
0.0
 41
3.0
 42
3.0
 43
3.0
 50
270.0
  0
INSERT
  5
234F
330
2194
100
AcDbEntity
  8
SUNPOU
100
AcDbBlockReference
  2
_OPEN
 10
365.6288090669877
 20
241.0869602931369
 30
0.0
 41
3.0
 42
3.0
 43
3.0
 50
90.0
  0
MTEXT
  5
2350
330
2194
100
AcDbEntity
  8
SUNPOU
100
AcDbMText
 10
363.1288090669877
 20
231.0869602931369
 30
0.0
 40
3.0
 41
0.0
 71
     5
 72
     5
  1
\A1;5.5
 11
0.0000000000000001
 21
1.0
 31
0.0
1001
ACAD
1000
MTEXTBEGIN
1070
    73
1070
     1
1070
    44
1040
1.0
1070
    74
1070
     0
1000
MTEXTEND
1000
MTEXTBEGIN
1070
    73
1070
     1
1070
    44
1040
1.0
1070
    74
1070
     0
1000
MTEXTEND
1000
MTEXTBEGIN
1070
    73
1070
     1
1070
    44
1040
1.0
1070
    74
1070
     0
1000
MTEXTEND
1000
MTEXTBEGIN
1070
    73
1070
     1
1070
    44
1040
1.0
1070
    74
1070
     0
1000
MTEXTEND
  0
POINT
  5
2351
330
2194
100
AcDbEntity
  8
DEFPOINTS
 62
     0
100
AcDbPoint
 10
326.8911682132267
 20
246.5867602931369
 30
0.0
  0
POINT
  5
2352
330
2194
100
AcDbEntity
  8
DEFPOINTS
 62
     0
100
AcDbPoint
 10
326.8912682132267
 20
241.0869602931369
 30
0.0
  0
POINT
  5
2353
330
2194
100
AcDbEntity
  8
DEFPOINTS
 62
     0
100
AcDbPoint
 10
365.6288090669877
 20
241.0869602931369
 30
0.0
  0
ENDBLK
  5
21A1
330
2194
100
AcDbEntity
  8
0
100
AcDbBlockEnd
  0
BLOCK
  5
21C5
330
21BB
100
AcDbEntity
  8
0
100
AcDbBlockBegin
  2
*D6
 70
     1
 10
0.0
 20
0.0
 30
0.0
  3
*D6
  1

  0
LINE
  5
2335
330
21BB
100
AcDbEntity
  8
SUNPOU
100
AcDbLine
 10
185.1627696702303
 20
55.75774917784113
 30
0.0
 11
195.2661278932531
 21
30.49753880425243
 31
0.0
  0
LINE
  5
2336
330
21BB
100
AcDbEntity
  8
SUNPOU
100
AcDbLine
 10
343.0053712347786
 20
118.8902537324308
 30
0.0
 11
353.1087294578013
 21
93.63004335884212
 31
0.0
  0
LINE
  5
2337
330
21BB
100
AcDbEntity
  8
SUNPOU
100
AcDbLine
 10
197.4945340571458
 20
33.00437066313827
 30
0.0
 11
349.7662202723571
 21
93.9086691746248
 31
0.0
  0
INSERT
  5
2338
330
21BB
100
AcDbEntity
  8
SUNPOU
100
AcDbBlockReference
  2
_OPEN
 10
194.7090763824773
 20
31.89026764158668
 30
0.0
 41
3.0
 42
3.0
 43
3.0
 50
201.7999900216996
  0
INSERT
  5
2339
330
21BB
100
AcDbEntity
  8
SUNPOU
100
AcDbBlockReference
  2
_OPEN
 10
352.5516779470255
 20
95.02277219617639
 30
0.0
 41
3.0
 42
3.0
 43
3.0
 50
21.79999002169964
  0
MTEXT
  5
233A
330
21BB
100
AcDbEntity
  8
SUNPOU
100
AcDbMText
 10
272.7019579801252
 20
65.77773464777196
 30
0.0
 40
3.0
 41
0.0
 71
     5
 72
     5
  1
\A1;170
 11
0.9284858915561658
 21
0.3713676738505274
 31
0.0
1001
ACAD
1000
MTEXTBEGIN
1070
    73
1070
     1
1070
    44
1040
1.0
1070
    74
1070
     0
1000
MTEXTEND
1000
MTEXTBEGIN
1070
    73
1070
     1
1070
    44
1040
1.0
1070
    74
1070
     0
1000
MTEXTEND
1000
MTEXTBEGIN
1070
    73
1070
     1
1070
    44
1040
1.0
1070
    74
1070
     0
1000
MTEXTEND
1000
MTEXTBEGIN
1070
    73
1070
     1
1070
    44
1040
1.0
1070
    74
1070
     0
1000
MTEXTEND
  0
POINT
  5
233B
330
21BB
100
AcDbEntity
  8
DEFPOINTS
 62
     0
100
AcDbPoint
 10
184.0486666486788
 20
58.54320685250963
 30
0.0
  0
POINT
  5
233C
330
21BB
100
AcDbEntity
  8
DEFPOINTS
 62
     0
100
AcDbPoint
 10
341.891268213227
 20
121.6757114070993
 30
0.0
  0
POINT
  5
233D
330
21BB
100
AcDbEntity
  8
DEFPOINTS
 62
     0
100
AcDbPoint
 10
352.5516779470255
 20
95.02277219617639
 30
0.0
  0
ENDBLK
  5
21C6
330
21BB
100
AcDbEntity
  8
0
100
AcDbBlockEnd
  0
BLOCK
  5
21FC
330
21F2
100
AcDbEntity
  8
0
100
AcDbBlockBegin
  2
*D7
 70
     1
 10
0.0
 20
0.0
 30
0.0
  3
*D7
  1

  0
LINE
  5
232C
330
21F2
100
AcDbEntity
  8
SUNPOU
100
AcDbLine
 10
118.7101854171983
 20
254.8367602931369
 30
0.0
 11
95.55569999519414
 21
254.8367602931369
 31
0.0
  0
LINE
  5
232D
330
21F2
100
AcDbEntity
  8
SUNPOU
100
AcDbLine
 10
118.7101854171983
 20
232.8367602931369
 30
0.0
 11
95.55569999519414
 21
232.8367602931369
 31
0.0
  0
LINE
  5
232E
330
21F2
100
AcDbEntity
  8
SUNPOU
100
AcDbLine
 10
97.05569999519415
 20
251.8367602931369
 30
0.0
 11
97.05569999519415
 21
235.8367602931369
 31
0.0
  0
INSERT
  5
232F
330
21F2
100
AcDbEntity
  8
SUNPOU
100
AcDbBlockReference
  2
_OPEN
 10
97.05569999519415
 20
254.8367602931369
 30
0.0
 41
3.0
 42
3.0
 43
3.0
 50
90.0
  0
INSERT
  5
2330
330
21F2
100
AcDbEntity
  8
SUNPOU
100
AcDbBlockReference
  2
_OPEN
 10
97.05569999519415
 20
232.8367602931369
 30
0.0
 41
3.0
 42
3.0
 43
3.0
 50
270.0
  0
MTEXT
  5
2331
330
21F2
100
AcDbEntity
  8
SUNPOU
100
AcDbMText
 10
94.5556999951941
 20
243.8367602931369
 30
0.0
 40
3.0
 41
0.0
 71
     5
 72
     5
  1
\A1;22
 11
0.0000000000000001
 21
1.0
 31
0.0
1001
ACAD
1000
MTEXTBEGIN
1070
    73
1070
     1
1070
    44
1040
1.0
1070
    74
1070
     0
1000
MTEXTEND
1000
MTEXTBEGIN
1070
    73
1070
     1
1070
    44
1040
1.0
1070
    74
1070
     0
1000
MTEXTEND
1000
MTEXTBEGIN
1070
    73
1070
     1
1070
    44
1040
1.0
1070
    74
1070
     0
1000
MTEXTEND
1000
MTEXTBEGIN
1070
    73
1070
     1
1070
    44
1040
1.0
1070
    74
1070
     0
1000
MTEXTEND
  0
POINT
  5
2332
330
21F2
100
AcDbEntity
  8
DEFPOINTS
 62
     0
100
AcDbPoint
 10
121.7101854171983
 20
254.8367602931369
 30
0.0
  0
POINT
  5
2333
330
21F2
100
AcDbEntity
  8
DEFPOINTS
 62
     0
100
AcDbPoint
 10
121.7101854171983
 20
232.8367602931369
 30
0.0
  0
POINT
  5
2334
330
21F2
100
AcDbEntity
  8
DEFPOINTS
 62
     0
100
AcDbPoint
 10
97.05569999519415
 20
232.8367602931369
 30
0.0
  0
ENDBLK
  5
21FD
330
21F2
100
AcDbEntity
  8
0
100
AcDbBlockEnd
  0
ENDSEC
  0
SECTION
  2
ENTITIES
  0
ARC
  5
5A7
330
1A
100
AcDbEntity
  8
NOKITOI
  6
PHANTOM
 62
     8
100
AcDbCircle
 10
174.7236490518466
 20
149.8713318900014
 30
0.0
 40
43.00001447645168
100
AcDbArc
 50
186.5249107071177
 51
269.9998883751437
  0
ARC
  5
5A8
330
1A
100
AcDbEntity
  8
NOKITOI
  6
PHANTOM
 62
     8
100
AcDbCircle
 10
174.7236713602719
 20
149.871311788975
 30
0.0
 40
41.79999437547816
100
AcDbArc
 50
184.4742952125247
 51
269.999854592109
  0
LINE
  5
5A9
330
1A
100
AcDbEntity
  8
NOKITOI
  6
PHANTOM
 62
     8
100
AcDbLine
 10
124.5126652783037
 20
149.0089174136313
 30
0.0
 11
124.427165278304
 21
151.7464174136312
 31
0.0
  0
LINE
  5
5AA
330
1A
100
AcDbEntity
  8
NOKITOI
  6
PHANTOM
 62
     8
100
AcDbLine
 10
122.9745652783039
 20
159.8088174136313
 30
0.0
 11
123.3647652783038
 21
147.3245174136312
 31
0.0
  0
LINE
  5
5AB
330
1A
100
AcDbEntity
  8
NOKITOI
  6
PHANTOM
 62
     8
100
AcDbLine
 10
132.5525652783044
 20
147.0713174136313
 30
0.0
 11
126.5116652783039
 21
147.0713174136313
 31
0.0
  0
ARC
  5
5AC
330
1A
100
AcDbEntity
  8
NOKITOI
  6
PHANTOM
 62
     8
100
AcDbCircle
 10
131.0086568541414
 20
144.8713249286878
 30
0.0
 40
0.9999924849789756
100
AcDbArc
 50
6.528264606673934
 51
89.99951732740965
  0
LINE
  5
5AD
330
1A
100
AcDbEntity
  8
NOKITOI
  6
PHANTOM
 62
     8
100
AcDbLine
 10
124.8639652783039
 20
145.8713174136313
 30
0.0
 11
131.0086652783038
 21
145.8713174136313
 31
0.0
  0
ARC
  5
5AE
330
1A
100
AcDbEntity
  8
NOKITOI
  6
PHANTOM
 62
     8
100
AcDbCircle
 10
126.5116788504423
 20
149.0713042585449
 30
0.0
 40
1.999986844959662
100
AcDbArc
 50
181.7875531852356
 51
269.9996111843215
  0
ARC
  5
5AF
330
1A
100
AcDbEntity
  8
NOKITOI
  6
PHANTOM
 62
     8
100
AcDbCircle
 10
124.8640012374548
 20
147.3712825594881
 30
0.0
 40
1.499965146287778
100
AcDbArc
 50
181.7866280217767
 51
269.9986264296971
  0
ARC
  5
5B0
330
1A
100
AcDbEntity
  8
NOKITOI
  6
PHANTOM
 62
     8
100
AcDbCircle
 10
132.5525778480123
 20
146.5713057889016
 30
0.0
 40
0.5000116248877111
100
AcDbArc
 50
4.474846808342103
 51
90.00144034898383
  0
ARC
  5
5B1
330
1A
100
AcDbEntity
  8
NOKITOI
  6
PHANTOM
 62
     8
100
AcDbCircle
 10
124.9735780291539
 20
159.8713305687177
 30
0.0
 40
1.999986844954076
100
AcDbArc
 50
90.00036528735451
 51
181.7883072882703
  0
LINE
  5
5B2
330
1A
100
AcDbEntity
  8
NOKITOI
  6
PHANTOM
 62
     8
100
AcDbLine
 10
131.2514652783038
 20
159.3713174136313
 30
0.0
 11
129.0199652783039
 21
159.3713174136313
 31
0.0
  0
ARC
  5
5B3
330
1A
100
AcDbEntity
  8
NOKITOI
  6
PHANTOM
 62
     8
100
AcDbCircle
 10
130.935658391309
 20
152.8713108785458
 30
0.0
 40
0.499993464961963
100
AcDbArc
 50
270.0007892017869
 51
356.997036131742
  0
LINE
  5
5B4
330
1A
100
AcDbEntity
  8
NOKITOI
  6
PHANTOM
 62
     8
100
AcDbLine
 10
130.2715652783039
 20
153.5713174136313
 30
0.0
 11
130.4527652783039
 21
157.0128174136314
 31
0.0
  0
LINE
  5
5B5
330
1A
100
AcDbEntity
  8
NOKITOI
  6
PHANTOM
 62
     8
100
AcDbLine
 10
129.8977652783041
 20
156.3997174136312
 30
0.0
 11
130.4527652783039
 21
157.0128174136314
 31
0.0
  0
ARC
  5
5B6
330
1A
100
AcDbEntity
  8
NOKITOI
  6
PHANTOM
 62
     8
100
AcDbCircle
 10
128.4252854909732
 20
151.8713761420113
 30
0.0
 40
5.2000412730095
100
AcDbArc
 50
90.0013245430618
 51
142.0757990790548
  0
LINE
  5
5B7
330
1A
100
AcDbEntity
  8
NOKITOI
  6
PHANTOM
 62
     8
100
AcDbLine
 10
124.1739652783043
 20
159.8463174136312
 30
0.0
 11
124.3233652783037
 21
155.0674174136314
 31
0.0
  0
ARC
  5
5B8
330
1A
100
AcDbEntity
  8
NOKITOI
  6
PHANTOM
 62
     8
100
AcDbCircle
 10
128.4252031597506
 20
151.8713611961566
 30
0.0
 40
3.999989731271038
100
AcDbArc
 50
96.47731142013116
 51
181.7899836067311
  0
ARC
  5
5B9
330
1A
100
AcDbEntity
  8
NOKITOI
  6
PHANTOM
 62
     8
100
AcDbCircle
 10
128.0303794967194
 20
155.3490027793303
 30
0.0
 40
0.5000073448410256
100
AcDbArc
 50
351.872947864124
 51
96.47829282996921
  0
LINE
  5
5BA
330
1A
100
AcDbEntity
  8
NOKITOI
  6
PHANTOM
 62
     8
100
AcDbLine
 10
129.4936652783044
 20
153.5713174136313
 30
0.0
 11
129.8977652783041
 21
156.3997174136312
 31
0.0
  0
LINE
  5
5BB
330
1A
100
AcDbEntity
  8
NOKITOI
  6
PHANTOM
 62
     8
100
AcDbLine
 10
130.2715652783039
 20
153.5713174136313
 30
0.0
 11
129.4936652783044
 21
153.5713174136313
 31
0.0
  0
ARC
  5
5BC
330
1A
100
AcDbEntity
  8
NOKITOI
  6
PHANTOM
 62
     8
100
AcDbCircle
 10
128.6865918789016
 20
152.8712867367492
 30
0.0
 40
0.4999693238254178
100
AcDbArc
 50
171.8555038770531
 51
269.9969516090356
  0
LINE
  5
5BD
330
1A
100
AcDbEntity
  8
NOKITOI
  6
PHANTOM
 62
     8
100
AcDbLine
 10
130.9356652783039
 20
152.3713174136313
 30
0.0
 11
128.6865652783039
 21
152.3713174136313
 31
0.0
  0
LINE
  5
5BE
330
1A
100
AcDbEntity
  8
NOKITOI
  6
PHANTOM
 62
     8
100
AcDbLine
 10
128.1916652783038
 20
152.9421174136315
 30
0.0
 11
128.5253652783039
 21
155.2783174136314
 31
0.0
  0
LINE
  5
5BF
330
1A
100
AcDbEntity
  8
NOKITOI
  6
PHANTOM
 62
     8
100
AcDbLine
 10
127.4463652783042
 20
160.6713174136315
 30
0.0
 11
126.9463652783042
 21
158.1713174136315
 31
0.0
  0
LINE
  5
5C0
330
1A
100
AcDbEntity
  8
NOKITOI
  6
PHANTOM
 62
     8
100
AcDbLine
 10
126.9463652783042
 20
158.1713174136315
 30
0.0
 11
129.882865278304
 21
158.1713174136315
 31
0.0
  0
LINE
  5
5C1
330
1A
100
AcDbEntity
  8
NOKITOI
  6
PHANTOM
 62
     8
100
AcDbLine
 10
124.9735652783037
 20
161.8713174136313
 30
0.0
 11
128.3001652783041
 21
161.8713174136313
 31
0.0
  0
LINE
  5
5C2
330
1A
100
AcDbEntity
  8
NOKITOI
  6
PHANTOM
 62
     8
100
AcDbLine
 10
124.9735652783037
 20
160.6713174136315
 30
0.0
 11
127.4463652783042
 21
160.6713174136315
 31
0.0
  0
ARC
  5
5C3
330
1A
100
AcDbEntity
  8
NOKITOI
  6
PHANTOM
 62
     8
100
AcDbCircle
 10
124.973569773102
 20
159.8713220511582
 30
0.0
 40
0.7999953624857498
100
AcDbArc
 50
90.00032191805264
 51
181.7911273464193
  0
ARC
  5
5C4
330
1A
100
AcDbEntity
  8
NOKITOI
  6
PHANTOM
 62
     8
100
AcDbCircle
 10
128.3001644952955
 20
161.371318368633
 30
0.0
 40
0.4999990449987349
100
AcDbArc
 50
348.6967198015447
 51
89.99991027369492
  0
ARC
  5
5C5
330
1A
100
AcDbEntity
  8
NOKITOI
  6
PHANTOM
 62
     8
100
AcDbCircle
 10
129.0199580237485
 20
159.8713262634747
 30
0.0
 40
0.5000088498959383
100
AcDbArc
 50
168.6864043304892
 51
270.0008312961442
  0
LINE
  5
5C6
330
1A
100
AcDbEntity
  8
NOKITOI
  6
PHANTOM
 62
     8
100
AcDbLine
 10
128.529665278304
 20
159.9694174136312
 30
0.0
 11
128.790465278304
 21
161.2733174136313
 31
0.0
  0
LINE
  5
5C7
330
1A
100
AcDbEntity
  8
NOKITOI
  6
PHANTOM
 62
     8
100
AcDbLine
 10
128.8870652783043
 20
157.0713174136313
 30
0.0
 11
128.425165278304
 21
157.0713174136313
 31
0.0
  0
LINE
  5
5C8
330
1A
100
AcDbEntity
  8
NOKITOI
  6
PHANTOM
 62
     8
100
AcDbLine
 10
128.8870652783043
 20
157.0713174136313
 30
0.0
 11
129.882865278304
 21
158.1713174136315
 31
0.0
  0
LINE
  5
5C9
330
1A
100
AcDbEntity
  8
NOKITOI
  6
PHANTOM
 62
     8
100
AcDbLine
 10
131.4350652783041
 20
152.8451174136312
 30
0.0
 11
131.7508652783039
 21
158.8450174136313
 31
0.0
  0
ARC
  5
5CA
330
1A
100
AcDbEntity
  8
NOKITOI
  6
PHANTOM
 62
     8
100
AcDbCircle
 10
131.2514590771461
 20
158.8713239487165
 30
0.0
 40
0.4999934649531607
100
AcDbArc
 50
356.9955363203376
 51
89.99928939038076
  0
LINE
  5
5CB
330
1A
100
AcDbEntity
  8
NOKITOI
  6
PHANTOM
 62
     8
100
AcDbLine
 10
215.553065278304
 20
106.8712174136313
 30
0.0
 11
195.3951652783043
 21
106.8712174136313
 31
0.0
  0
LINE
  5
5CC
330
1A
100
AcDbEntity
  8
NOKITOI
  6
PHANTOM
 62
     8
100
AcDbLine
 10
215.303265278304
 20
108.0712174136313
 30
0.0
 11
195.3951652783043
 21
108.0712174136313
 31
0.0
  0
LINE
  5
5CD
330
1A
100
AcDbEntity
  8
NOKITOI
  6
PHANTOM
 62
     8
100
AcDbLine
 10
219.553065278304
 20
106.8712174136313
 30
0.0
 11
174.7236652783039
 21
106.8713174136313
 31
0.0
  0
LINE
  5
5CE
330
1A
100
AcDbEntity
  8
NOKITOI
  6
PHANTOM
 62
     8
100
AcDbLine
 10
174.7236652783039
 20
108.0713174136313
 30
0.0
 11
219.303265278304
 21
108.0712174136313
 31
0.0
  0
LINE
  5
5CF
330
1A
100
AcDbEntity
  8
NOKITOI
  6
PHANTOM
 62
     8
100
AcDbLine
 10
241.307565278304
 20
149.0087174136314
 30
0.0
 11
241.3930652783037
 21
151.7463174136313
 31
0.0
  0
LINE
  5
5D0
330
1A
100
AcDbEntity
  8
NOKITOI
  6
PHANTOM
 62
     8
100
AcDbLine
 10
242.845565278304
 20
159.8088174136313
 30
0.0
 11
242.455465278304
 21
147.3244174136312
 31
0.0
  0
LINE
  5
5D1
330
1A
100
AcDbEntity
  8
NOKITOI
  6
PHANTOM
 62
     8
100
AcDbLine
 10
240.956165278304
 20
145.8713174136313
 30
0.0
 11
234.8150652783042
 21
145.8713174136313
 31
0.0
  0
LINE
  5
5D2
330
1A
100
AcDbEntity
  8
NOKITOI
  6
PHANTOM
 62
     8
100
AcDbLine
 10
233.2765652783036
 20
147.0713174136313
 30
0.0
 11
239.308465278304
 21
147.0713174136313
 31
0.0
  0
LINE
  5
5D3
330
1A
100
AcDbEntity
  8
NOKITOI
  6
PHANTOM
 62
     8
100
AcDbLine
 10
233.8200652783043
 20
144.9708174136313
 30
0.0
 11
230.9512652783041
 21
116.2834174136313
 31
0.0
  0
LINE
  5
5D4
330
1A
100
AcDbEntity
  8
NOKITOI
  6
PHANTOM
 62
     8
100
AcDbLine
 10
232.7790652783041
 20
146.6211174136313
 30
0.0
 11
229.7860652783037
 21
116.6913174136312
 31
0.0
  0
LINE
  5
5D5
330
1A
100
AcDbEntity
  8
NOKITOI
  6
PHANTOM
 62
     8
100
AcDbLine
 10
230.5894652783039
 20
115.6089174136314
 30
0.0
 11
220.1863652783039
 21
107.0972174136314
 31
0.0
  0
LINE
  5
5D6
330
1A
100
AcDbEntity
  8
NOKITOI
  6
PHANTOM
 62
     8
100
AcDbLine
 10
229.6051652783043
 20
116.3540174136313
 30
0.0
 11
219.6198652783041
 21
108.1842174136312
 31
0.0
  0
ARC
  5
5D7
330
1A
100
AcDbEntity
  8
NOKITOI
  6
PHANTOM
 62
     8
100
AcDbCircle
 10
219.5530583457266
 20
107.8712149386252
 30
0.0
 40
0.9999975250179316
100
AcDbArc
 50
270.0003972084035
 51
309.2946416752299
  0
ARC
  5
5D8
330
1A
100
AcDbEntity
  8
NOKITOI
  6
PHANTOM
 62
     8
100
AcDbCircle
 10
219.3032716660527
 20
108.5712196936209
 30
0.0
 40
0.5000022800304047
100
AcDbArc
 50
269.9992680212791
 51
309.2854498596061
  0
ARC
  5
5D9
330
1A
100
AcDbEntity
  8
NOKITOI
  6
PHANTOM
 62
     8
100
AcDbCircle
 10
229.9562427054351
 20
116.3828753419587
 30
0.0
 40
0.9999908507640039
100
AcDbArc
 50
309.288709223069
 51
354.2862329477532
  0
ARC
  5
5DA
330
1A
100
AcDbEntity
  8
NOKITOI
  6
PHANTOM
 62
     8
100
AcDbCircle
 10
229.2885478524258
 20
116.7409849272433
 30
0.0
 40
0.4999904508696396
100
AcDbArc
 50
309.2900846377951
 51
354.2990110749239
  0
ARC
  5
5DB
330
1A
100
AcDbEntity
  8
NOKITOI
  6
PHANTOM
 62
     8
100
AcDbCircle
 10
234.8150859281449
 20
144.8713361014805
 30
0.0
 40
0.9999813123640345
100
AcDbArc
 50
90.00118317084911
 51
174.2905900333514
  0
ARC
  5
5DC
330
1A
100
AcDbEntity
  8
NOKITOI
  6
PHANTOM
 62
     8
100
AcDbCircle
 10
233.2765783493086
 20
146.5713292439112
 30
0.0
 40
0.499988169890889
100
AcDbArc
 50
90.00149786226634
 51
174.2966061377162
  0
ARC
  5
5DD
330
1A
100
AcDbEntity
  8
NOKITOI
  6
PHANTOM
 62
     8
100
AcDbCircle
 10
240.9561824914821
 20
147.3713340967791
 30
0.0
 40
1.500016683246579
100
AcDbArc
 50
269.9993425123344
 51
358.2076423244113
  0
ARC
  5
5DE
330
1A
100
AcDbEntity
  8
NOKITOI
  6
PHANTOM
 62
     8
100
AcDbCircle
 10
239.3085032661283
 20
149.0712542342035
 30
0.0
 40
2.000036820932882
100
AcDbArc
 50
269.9989117490344
 51
358.2110591274195
  0
LINE
  5
5DF
330
1A
100
AcDbEntity
  8
NOKITOI
  6
PHANTOM
 62
     8
100
AcDbLine
 10
240.8465652783042
 20
161.8712174136313
 30
0.0
 11
237.5199652783039
 21
161.8713174136313
 31
0.0
  0
LINE
  5
5E0
330
1A
100
AcDbEntity
  8
NOKITOI
  6
PHANTOM
 62
     8
100
AcDbLine
 10
238.873865278304
 20
158.1713174136315
 30
0.0
 11
235.937265278304
 21
158.1713174136315
 31
0.0
  0
ARC
  5
5E1
330
1A
100
AcDbEntity
  8
NOKITOI
  6
PHANTOM
 62
     8
100
AcDbCircle
 10
237.7897946508037
 20
155.3489476461262
 30
0.0
 40
0.4999578477751074
100
AcDbArc
 50
83.52609071220754
 51
188.1330561712932
  0
ARC
  5
5E2
330
1A
100
AcDbEntity
  8
NOKITOI
  6
PHANTOM
 62
     8
100
AcDbCircle
 10
237.3950474119528
 20
151.8713261420112
 30
0.0
 40
5.199991271650611
100
AcDbArc
 50
37.92532860472995
 51
89.9998031407256
  0
LINE
  5
5E3
330
1A
100
AcDbEntity
  8
NOKITOI
  6
PHANTOM
 62
     8
100
AcDbLine
 10
235.548565278304
 20
153.5713174136313
 30
0.0
 11
235.3674652783038
 21
157.0127174136312
 31
0.0
  0
LINE
  5
5E4
330
1A
100
AcDbEntity
  8
NOKITOI
  6
PHANTOM
 62
     8
100
AcDbLine
 10
235.922465278304
 20
156.3997174136312
 30
0.0
 11
235.3674652783038
 21
157.0127174136312
 31
0.0
  0
LINE
  5
5E5
330
1A
100
AcDbEntity
  8
NOKITOI
  6
PHANTOM
 62
     8
100
AcDbLine
 10
234.3851652783041
 20
152.8450174136313
 30
0.0
 11
234.0693652783038
 21
158.8450174136313
 31
0.0
  0
LINE
  5
5E6
330
1A
100
AcDbEntity
  8
NOKITOI
  6
PHANTOM
 62
     8
100
AcDbLine
 10
236.3264652783036
 20
153.5713174136313
 30
0.0
 11
235.922465278304
 21
156.3997174136312
 31
0.0
  0
LINE
  5
5E7
330
1A
100
AcDbEntity
  8
NOKITOI
  6
PHANTOM
 62
     8
100
AcDbLine
 10
235.548565278304
 20
153.5713174136313
 30
0.0
 11
236.3264652783036
 21
153.5713174136313
 31
0.0
  0
LINE
  5
5E8
330
1A
100
AcDbEntity
  8
NOKITOI
  6
PHANTOM
 62
     8
100
AcDbLine
 10
234.884465278304
 20
152.3713174136313
 30
0.0
 11
237.1335652783036
 21
152.3713174136313
 31
0.0
  0
ARC
  5
5E9
330
1A
100
AcDbEntity
  8
NOKITOI
  6
PHANTOM
 62
     8
100
AcDbCircle
 10
234.8844693997107
 20
152.8713135036008
 30
0.0
 40
0.4999960899864752
100
AcDbArc
 50
183.0147243791741
 51
269.9995277178593
  0
ARC
  5
5EA
330
1A
100
AcDbEntity
  8
NOKITOI
  6
PHANTOM
 62
     8
100
AcDbCircle
 10
237.1335754647402
 20
152.8713291583554
 30
0.0
 40
0.5000117448278309
100
AcDbArc
 50
269.9988327478016
 51
8.127314608715551
  0
LINE
  5
5EB
330
1A
100
AcDbEntity
  8
NOKITOI
  6
PHANTOM
 62
     8
100
AcDbLine
 10
237.6285652783039
 20
152.9420174136313
 30
0.0
 11
237.294765278304
 21
155.2782174136314
 31
0.0
  0
LINE
  5
5EC
330
1A
100
AcDbEntity
  8
NOKITOI
  6
PHANTOM
 62
     8
100
AcDbLine
 10
234.5686652783042
 20
159.3713174136313
 30
0.0
 11
236.800165278304
 21
159.3713174136313
 31
0.0
  0
ARC
  5
5ED
330
1A
100
AcDbEntity
  8
NOKITOI
  6
PHANTOM
 62
     8
100
AcDbCircle
 10
234.5686689877993
 20
158.871321323662
 30
0.0
 40
0.4999960899831856
100
AcDbArc
 50
90.00042508015082
 51
183.0156217414647
  0
ARC
  5
5EE
330
1A
100
AcDbEntity
  8
NOKITOI
  6
PHANTOM
 62
     8
100
AcDbCircle
 10
237.5199580237485
 20
161.3713085637878
 30
0.0
 40
0.500008849895925
100
AcDbArc
 50
89.99916870385415
 51
191.3135956695126
  0
ARC
  5
5EF
330
1A
100
AcDbEntity
  8
NOKITOI
  6
PHANTOM
 62
     8
100
AcDbCircle
 10
236.8001644952955
 20
159.8713164586295
 30
0.0
 40
0.4999990449987399
100
AcDbArc
 50
270.000089726305
 51
11.30328019845521
  0
LINE
  5
5F0
330
1A
100
AcDbEntity
  8
NOKITOI
  6
PHANTOM
 62
     8
100
AcDbLine
 10
237.290465278304
 20
159.9693174136314
 30
0.0
 11
237.029665278304
 21
161.2733174136313
 31
0.0
  0
LINE
  5
5F1
330
1A
100
AcDbEntity
  8
NOKITOI
  6
PHANTOM
 62
     8
100
AcDbLine
 10
236.9330652783041
 20
157.0713174136313
 30
0.0
 11
237.3950652783041
 21
157.0713174136313
 31
0.0
  0
LINE
  5
5F2
330
1A
100
AcDbEntity
  8
NOKITOI
  6
PHANTOM
 62
     8
100
AcDbLine
 10
236.9330652783041
 20
157.0713174136313
 30
0.0
 11
235.937265278304
 21
158.1713174136315
 31
0.0
  0
LINE
  5
5F3
330
1A
100
AcDbEntity
  8
NOKITOI
  6
PHANTOM
 62
     8
100
AcDbLine
 10
241.6461652783036
 20
159.8463174136312
 30
0.0
 11
241.496865278304
 21
155.0673174136314
 31
0.0
  0
ARC
  5
5F4
330
1A
100
AcDbEntity
  8
NOKITOI
  6
PHANTOM
 62
     8
100
AcDbCircle
 10
237.3950343513679
 20
151.8713531582951
 30
0.0
 40
3.99998565374706
100
AcDbArc
 50
358.208696659101
 51
83.52422380468341
  0
ARC
  5
5F5
330
1A
100
AcDbEntity
  8
NOKITOI
  6
PHANTOM
 62
     8
100
AcDbCircle
 10
240.8465540413098
 20
159.8713290074484
 30
0.0
 40
1.999988406214315
100
AcDbArc
 50
358.2088726535936
 51
89.99967808195551
  0
LINE
  5
5F6
330
1A
100
AcDbEntity
  8
NOKITOI
  6
PHANTOM
 62
     8
100
AcDbLine
 10
240.8465652783042
 20
160.6712174136313
 30
0.0
 11
238.373865278304
 21
160.6713174136315
 31
0.0
  0
LINE
  5
5F7
330
1A
100
AcDbEntity
  8
NOKITOI
  6
PHANTOM
 62
     8
100
AcDbLine
 10
238.373865278304
 20
160.6713174136315
 30
0.0
 11
238.873865278304
 21
158.1713174136315
 31
0.0
  0
ARC
  5
5F8
330
1A
100
AcDbEntity
  8
NOKITOI
  6
PHANTOM
 62
     8
100
AcDbCircle
 10
240.8466092446569
 20
159.8712720511583
 30
0.0
 40
0.7999453636812564
100
AcDbArc
 50
358.2123436447881
 51
90.00314907315425
  0
LINE
  5
9FB
330
1A
100
AcDbEntity
  8
SEIHIN
100
AcDbLine
 10
184.4101854171982
 20
106.6713174136313
 30
0.0
 11
221.9893714171983
 21
106.6713174136313
 31
0.0
  0
LINE
  5
9FC
330
1A
100
AcDbEntity
  8
SEIHIN
100
AcDbLine
 10
184.4101854171982
 20
105.4713174136312
 30
0.0
 11
222.4177275171982
 21
105.4713174136312
 31
0.0
  0
LINE
  5
9FD
330
1A
100
AcDbEntity
  8
SEIHIN
100
AcDbLine
 10
184.4101854171982
 20
102.4713174136312
 30
0.0
 11
223.4886175171982
 21
102.4713174136312
 31
0.0
  0
LINE
  5
A02
330
1A
100
AcDbEntity
  8
SEIHIN
100
AcDbLine
 10
44.00999551920825
 20
102.4713174136312
 30
0.0
 11
55.00999551920824
 21
102.4713174136312
 31
0.0
  0
LINE
  5
A06
330
1A
100
AcDbEntity
  8
SEIHIN
100
AcDbLine
 10
60.50999551920824
 20
143.4713174136312
 30
0.0
 11
38.50999551920824
 21
143.4713174136312
 31
0.0
  0
ARC
  5
A07
330
1A
100
AcDbEntity
  8
SEIHIN
100
AcDbCircle
 10
45.40999551920822
 20
178.6713174136313
 30
0.0
 40
2.0
100
AcDbArc
 50
0.0
 51
90.0
  0
ARC
  5
A08
330
1A
100
AcDbEntity
  8
SEIHIN
100
AcDbCircle
 10
44.90999551920822
 20
158.1713174136313
 30
0.0
 40
2.5
100
AcDbArc
 50
180.0
 51
0.0
  0
LINE
  5
A09
330
1A
100
AcDbEntity
  8
SEIHIN
100
AcDbLine
 10
52.50999551920824
 20
192.6713174136313
 30
0.0
 11
46.50999551920825
 21
192.6713174136313
 31
0.0
  0
LINE
  5
A0C
330
1A
100
AcDbEntity
  8
SEIHIN
100
AcDbLine
 10
42.50999551920824
 20
105.9713174136312
 30
0.0
 11
42.50999551920824
 21
143.4713174136312
 31
0.0
  0
LINE
  5
A11
330
1A
100
AcDbEntity
  8
SEIHIN
100
AcDbLine
 10
41.00999551920824
 20
105.4713174136312
 30
0.0
 11
38.50999551920824
 21
105.4713174136312
 31
0.0
  0
ARC
  5
A16
330
1A
100
AcDbEntity
  8
SEIHIN
100
AcDbCircle
 10
44.00999551920825
 20
103.9713174136312
 30
0.0
 40
1.5
100
AcDbArc
 50
180.0
 51
270.0
  0
ARC
  5
A1B
330
1A
100
AcDbEntity
  8
SEIHIN
100
AcDbCircle
 10
41.00999551920824
 20
103.9713174136312
 30
0.0
 40
1.5
100
AcDbArc
 50
0.0
 51
90.0
  0
ARC
  5
A24
330
1A
100
AcDbEntity
  8
SEIHIN
100
AcDbCircle
 10
40.45999551920817
 20
158.7213174136312
 30
0.0
 40
1.949999999999988
100
AcDbArc
 50
0.0
 51
180.0
  0
LINE
  5
A33
330
1A
100
AcDbEntity
  8
SEIHIN
100
AcDbLine
 10
42.40999551920822
 20
158.7213174136312
 30
0.0
 11
42.40999551920822
 21
158.1713174136313
 31
0.0
  0
LINE
  5
A34
330
1A
100
AcDbEntity
  8
SEIHIN
100
AcDbLine
 10
42.40999551920822
 20
158.6713174136312
 30
0.0
 11
42.40999551920822
 21
158.6713174136312
 31
0.0
  0
LINE
  5
A35
330
1A
100
AcDbEntity
  8
SEIHIN
100
AcDbLine
 10
43.50999551920824
 20
182.6700674136312
 30
0.0
 11
43.50999551920824
 21
189.6713174136313
 31
0.0
  0
ARC
  5
A36
330
1A
100
AcDbEntity
  8
SEIHIN
100
AcDbCircle
 10
45.50999551920824
 20
182.6700674136312
 30
0.0
 40
1.999999998843762
100
AcDbArc
 50
180.0
 51
268.5674562607732
  0
LINE
  5
A37
330
1A
100
AcDbEntity
  8
SEIHIN
100
AcDbLine
 10
45.00999551920824
 20
180.6713174136312
 30
0.0
 11
45.00999551920824
 21
180.6713174136312
 31
0.0
  0
ARC
  5
A38
330
1A
100
AcDbEntity
  8
SEIHIN
100
AcDbCircle
 10
46.50999551920825
 20
189.6713174136313
 30
0.0
 40
3.0
100
AcDbArc
 50
90.0
 51
180.0
  0
ARC
  5
A39
330
1A
100
AcDbEntity
  8
SEIHIN
100
AcDbCircle
 10
175.7237354171983
 20
149.6713174136313
 30
0.0
 40
43.99999996755491
100
AcDbArc
 50
190.0046914246752
 51
256.9987985386973
  0
ARC
  5
A3A
330
1A
100
AcDbEntity
  8
SEIHIN
100
AcDbCircle
 10
175.7237354171983
 20
149.6713174136313
 30
0.0
 40
45.19999999393088
100
AcDbArc
 50
190.0046914399661
 51
256.9987985135611
  0
ARC
  5
A3B
330
1A
100
AcDbEntity
  8
SEIHIN
100
AcDbCircle
 10
175.7237354171983
 20
149.6713174136313
 30
0.0
 40
48.19999998338746
100
AcDbArc
 50
190.3515581005718
 51
256.999279253117
  0
LINE
  5
A3E
330
1A
100
AcDbEntity
  8
SEIHIN
100
AcDbLine
 10
56.50999551920825
 20
105.9713174136312
 30
0.0
 11
56.50999551920825
 21
143.4713174136312
 31
0.0
  0
ARC
  5
A42
330
1A
100
AcDbEntity
  8
SEIHIN
100
AcDbCircle
 10
55.00999551920824
 20
103.9713174136312
 30
0.0
 40
1.5
100
AcDbArc
 50
270.0
 51
0.0
  0
LINE
  5
A47
330
1A
100
AcDbEntity
  8
SEIHIN
100
AcDbLine
 10
58.00999551920824
 20
105.4713174136312
 30
0.0
 11
60.50999551920824
 21
105.4713174136312
 31
0.0
  0
ARC
  5
A49
330
1A
100
AcDbEntity
  8
SEIHIN
100
AcDbCircle
 10
58.00999551920824
 20
103.9713174136312
 30
0.0
 40
1.5
100
AcDbArc
 50
90.0
 51
180.0
  0
ARC
  5
A56
330
1A
100
AcDbEntity
  8
SEIHIN
100
AcDbCircle
 10
166.9487704171982
 20
111.6713174136313
 30
0.0
 40
5.000000009884356
100
AcDbArc
 50
256.997175988683
 51
270.0
  0
LINE
  5
A57
330
1A
100
AcDbEntity
  8
SEIHIN
100
AcDbLine
 10
166.9487704171982
 20
106.6713174136313
 30
0.0
 11
184.4101854171982
 21
106.6713174136313
 31
0.0
  0
LINE
  5
A58
330
1A
100
AcDbEntity
  8
SEIHIN
100
AcDbLine
 10
166.9487704171982
 20
105.4713174136312
 30
0.0
 11
184.4101854171982
 21
105.4713174136312
 31
0.0
  0
LINE
  5
A59
330
1A
100
AcDbEntity
  8
SEIHIN
100
AcDbLine
 10
166.9487704171982
 20
102.4713174136312
 30
0.0
 11
184.4101854171982
 21
102.4713174136312
 31
0.0
  0
ARC
  5
A5A
330
1A
100
AcDbEntity
  8
SEIHIN
100
AcDbCircle
 10
166.9487704171982
 20
111.6713174136313
 30
0.0
 40
6.20000002439895
100
AcDbArc
 50
256.9971760025682
 51
270.0
  0
ARC
  5
A5B
330
1A
100
AcDbEntity
  8
SEIHIN
100
AcDbCircle
 10
166.9487704171982
 20
111.6713174136313
 30
0.0
 40
9.20000000634241
100
AcDbArc
 50
256.9971761847128
 51
270.0
  0
LINE
  5
A5E
330
1A
100
AcDbEntity
  8
SEIHIN
100
AcDbLine
 10
51.60999551920827
 20
178.6713174136313
 30
0.0
 11
51.60999551920827
 21
158.1713174136313
 31
0.0
  0
LINE
  5
A5F
330
1A
100
AcDbEntity
  8
SEIHIN
100
AcDbLine
 10
47.40999551920822
 20
178.6713174136313
 30
0.0
 11
47.40999551920822
 21
158.1713174136313
 31
0.0
  0
ARC
  5
A60
330
1A
100
AcDbEntity
  8
SEIHIN
100
AcDbCircle
 10
58.5599955192082
 20
158.7213174136312
 30
0.0
 40
1.949999999999988
100
AcDbArc
 50
0.0
 51
180.0
  0
LINE
  5
A61
330
1A
100
AcDbEntity
  8
SEIHIN
100
AcDbLine
 10
60.50999551920824
 20
158.7213174136312
 30
0.0
 11
60.50999551920824
 21
105.4713174136312
 31
0.0
  0
ARC
  5
A71
330
1A
100
AcDbEntity
  8
SEIHIN
100
AcDbCircle
 10
54.10999551920827
 20
158.1713174136313
 30
0.0
 40
2.5
100
AcDbArc
 50
180.0
 51
0.0
  0
LINE
  5
A72
330
1A
100
AcDbEntity
  8
SEIHIN
100
AcDbLine
 10
56.60999551920827
 20
158.6713174136312
 30
0.0
 11
56.60999551920827
 21
158.6713174136312
 31
0.0
  0
LINE
  5
A73
330
1A
100
AcDbEntity
  8
SEIHIN
100
AcDbLine
 10
56.60999551920827
 20
158.7213174136312
 30
0.0
 11
56.60999551920827
 21
158.1713174136313
 31
0.0
  0
LINE
  5
A74
330
1A
100
AcDbEntity
  8
SEIHIN
100
AcDbLine
 10
51.60999551920827
 20
167.4961294136312
 30
0.0
 11
51.60999551920827
 21
167.4961294136312
 31
0.0
  0
LINE
  5
A75
330
1A
100
AcDbEntity
  8
SEIHIN
100
AcDbLine
 10
47.40999551920822
 20
167.4961294136312
 30
0.0
 11
47.40999551920822
 21
167.4961294136312
 31
0.0
  0
LINE
  5
A76
330
1A
100
AcDbEntity
  8
SEIHIN
100
AcDbLine
 10
51.60999551920827
 20
166.5564024136313
 30
0.0
 11
51.60999551920827
 21
166.5564024136313
 31
0.0
  0
LINE
  5
A77
330
1A
100
AcDbEntity
  8
SEIHIN
100
AcDbLine
 10
47.40999551920822
 20
166.5564024136313
 30
0.0
 11
47.40999551920822
 21
166.5564024136313
 31
0.0
  0
LINE
  5
A78
330
1A
100
AcDbEntity
  8
SEIHIN
100
AcDbLine
 10
55.50999551920824
 20
182.6700674136312
 30
0.0
 11
55.50999551920824
 21
189.6713174136313
 31
0.0
  0
ARC
  5
A79
330
1A
100
AcDbEntity
  8
SEIHIN
100
AcDbCircle
 10
53.50999551920825
 20
182.6700674136312
 30
0.0
 40
1.99999999884376
100
AcDbArc
 50
271.4325437392202
 51
0.0
  0
ARC
  5
A7A
330
1A
100
AcDbEntity
  8
SEIHIN
100
AcDbCircle
 10
53.60999551920826
 20
178.6713174136313
 30
0.0
 40
2.0
100
AcDbArc
 50
90.0
 51
180.0
  0
ARC
  5
A7B
330
1A
100
AcDbEntity
  8
SEIHIN
100
AcDbCircle
 10
52.50999551920824
 20
189.6713174136313
 30
0.0
 40
3.0
100
AcDbArc
 50
0.0
 51
90.0
  0
LINE
  5
A7C
330
1A
100
AcDbEntity
  8
SEIHIN
100
AcDbLine
 10
122.9101854171982
 20
192.6713174136313
 30
0.0
 11
122.9101854171982
 21
145.6713174136313
 31
0.0
  0
LINE
  5
A7D
330
1A
100
AcDbEntity
  8
SEIHIN
100
AcDbLine
 10
121.7101854171983
 20
192.6713174136313
 30
0.0
 11
121.7101854171983
 21
145.6713174136313
 31
0.0
  0
ARC
  5
A7E
330
1A
100
AcDbEntity
  8
SEIHIN
100
AcDbCircle
 10
125.3570798171982
 20
140.4713174136312
 30
0.0
 40
2.999999985884628
100
AcDbArc
 50
10.35155819740191
 51
90.0
  0
LINE
  5
A7F
330
1A
100
AcDbEntity
  8
SEIHIN
100
AcDbLine
 10
129.2414807171983
 20
144.6713174136313
 30
0.0
 11
123.9101854171982
 21
144.6713174136313
 31
0.0
  0
LINE
  5
A80
330
1A
100
AcDbEntity
  8
SEIHIN
100
AcDbLine
 10
129.2414807171983
 20
143.4713174136312
 30
0.0
 11
123.9101854171982
 21
143.4713174136312
 31
0.0
  0
ARC
  5
A81
330
1A
100
AcDbEntity
  8
SEIHIN
100
AcDbCircle
 10
123.9101854171982
 20
145.6713174136313
 30
0.0
 40
1.0
100
AcDbArc
 50
180.0
 51
270.0
  0
LINE
  5
A82
330
1A
100
AcDbEntity
  8
SEIHIN
100
AcDbLine
 10
123.9434644171982
 20
144.6713174136313
 30
0.0
 11
123.9434644171982
 21
144.6713174136313
 31
0.0
  0
ARC
  5
A83
330
1A
100
AcDbEntity
  8
SEIHIN
100
AcDbCircle
 10
123.9101854171982
 20
145.6713174136313
 30
0.0
 40
2.199999999999988
100
AcDbArc
 50
180.0
 51
270.0
  0
ARC
  5
A84
330
1A
100
AcDbEntity
  8
SEIHIN
100
AcDbCircle
 10
129.2414807171983
 20
141.4713174136312
 30
0.0
 40
3.199999999587582
100
AcDbArc
 50
10.00469134359077
 51
90.0
  0
ARC
  5
A85
330
1A
100
AcDbEntity
  8
SEIHIN
100
AcDbCircle
 10
129.2414807171983
 20
141.4713174136312
 30
0.0
 40
2.000000016035531
100
AcDbArc
 50
10.00469045164722
 51
90.0
  0
LINE
  5
A86
330
1A
100
AcDbEntity
  8
SEIHIN
100
AcDbLine
 10
122.9101854171982
 20
151.2676514136312
 30
0.0
 11
122.9101854171982
 21
151.2676514136312
 31
0.0
  0
LINE
  5
A87
330
1A
100
AcDbEntity
  8
SEIHIN
100
AcDbLine
 10
122.9101854171982
 20
160.6713174136312
 30
0.0
 11
121.7101854171983
 21
160.6713174136312
 31
0.0
  0
LINE
  5
A88
330
1A
100
AcDbEntity
  8
SEIHIN
100
AcDbLine
 10
122.9101854171982
 20
180.6713174136312
 30
0.0
 11
121.7101854171983
 21
180.6713174136312
 31
0.0
  0
LINE
  5
A89
330
1A
100
AcDbEntity
  8
SEIHIN
100
AcDbLine
 10
122.9101854171982
 20
192.6713174136313
 30
0.0
 11
121.7101854171983
 21
192.6713174136313
 31
0.0
  0
LINE
  5
A8D
330
1A
100
AcDbEntity
  8
SEIHIN
100
AcDbLine
 10
233.5085931171982
 20
114.5456614136312
 30
0.0
 11
235.5784817171983
 21
135.2445547136312
 31
0.0
  0
LINE
  5
A8E
330
1A
100
AcDbEntity
  8
SEIHIN
100
AcDbLine
 10
238.7781790171983
 20
137.0919009136312
 30
0.0
 11
236.3700574171982
 21
113.0106766136313
 31
0.0
  0
LINE
  5
A93
330
1A
100
AcDbEntity
  8
SEIHIN
100
AcDbLine
 10
232.3640074171982
 20
115.1596554136313
 30
0.0
 11
234.3844371171983
 21
135.3639591136312
 31
0.0
  0
LINE
  5
A96
330
1A
100
AcDbEntity
  8
SEIHIN
100
AcDbLine
 10
222.4177275171982
 20
105.4713174136312
 30
0.0
 11
233.5085931171982
 21
114.5456614136312
 31
0.0
  0
LINE
  5
A97
330
1A
100
AcDbEntity
  8
SEIHIN
100
AcDbLine
 10
223.4886175171982
 20
102.4713174136312
 30
0.0
 11
236.3700574171982
 21
113.0106766136313
 31
0.0
  0
LINE
  5
A98
330
1A
100
AcDbEntity
  8
SEIHIN
100
AcDbLine
 10
221.9893714171983
 20
106.6713174136313
 30
0.0
 11
232.3640074171982
 21
115.1596554136313
 31
0.0
  0
LINE
  5
AC5
330
1A
100
AcDbEntity
  8
SEIHIN
100
AcDbLine
 10
235.4636167171983
 20
163.6847769136312
 30
0.0
 11
228.3495257171982
 21
158.7034369136312
 31
0.0
  0
LINE
  5
AC6
330
1A
100
AcDbEntity
  8
SEIHIN
100
AcDbLine
 10
243.9101854171982
 20
143.4599924136312
 30
0.0
 11
243.9101854171982
 21
161.8826424136312
 31
0.0
  0
LINE
  5
AC7
330
1A
100
AcDbEntity
  8
SEIHIN
100
AcDbLine
 10
236.1519084171983
 20
162.7017944136312
 30
0.0
 11
229.0378174171983
 21
157.7204544136312
 31
0.0
  0
LINE
  5
AC8
330
1A
100
AcDbEntity
  8
SEIHIN
100
AcDbLine
 10
245.1101854171982
 20
143.4599924136312
 30
0.0
 11
245.1101854171982
 21
161.8826424136312
 31
0.0
  0
LINE
  5
AC9
330
1A
100
AcDbEntity
  8
SEIHIN
100
AcDbLine
 10
243.4101854171982
 20
142.5939674136312
 30
0.0
 11
236.4635932171982
 21
138.5833503136312
 31
0.0
  0
ARC
  5
ACA
330
1A
100
AcDbEntity
  8
SEIHIN
100
AcDbCircle
 10
242.9101854171982
 20
143.4599924136312
 30
0.0
 40
2.200000005055114
100
AcDbArc
 50
299.9999998479836
 51
0.0
  0
LINE
  5
ACB
330
1A
100
AcDbEntity
  8
SEIHIN
100
AcDbLine
 10
244.0101855171982
 20
141.5547369136312
 30
0.0
 11
237.0635933171982
 21
137.5441198136312
 31
0.0
  0
ARC
  5
ACC
330
1A
100
AcDbEntity
  8
SEIHIN
100
AcDbCircle
 10
238.5635933171982
 20
134.9460436136312
 30
0.0
 40
4.200000021369245
100
AcDbArc
 50
120.0000011534159
 51
174.2894084913981
  0
ARC
  5
ACD
330
1A
100
AcDbEntity
  8
SEIHIN
100
AcDbCircle
 10
238.5635933171982
 20
134.9460436136312
 30
0.0
 40
3.000000006856998
100
AcDbArc
 50
120.0000001084146
 51
174.2894080027292
  0
ARC
  5
AD1
330
1A
100
AcDbEntity
  8
SEIHIN
100
AcDbCircle
 10
241.7632905171982
 20
136.7933898136312
 30
0.0
 40
2.999999957105099
100
AcDbArc
 50
120.0000001084146
 51
174.2894078126911
  0
LINE
  5
AD8
330
1A
100
AcDbEntity
  8
SEIHIN
100
AcDbLine
 10
228.3495257171982
 20
158.7034369136312
 30
0.0
 11
229.0378174171983
 21
157.7204544136312
 31
0.0
  0
ARC
  5
AD9
330
1A
100
AcDbEntity
  8
SEIHIN
100
AcDbCircle
 10
242.9101854171982
 20
143.4599924136312
 30
0.0
 40
0.9999999983612706
100
AcDbArc
 50
300.0000001084146
 51
0.0
  0
LINE
  5
ADA
330
1A
100
AcDbEntity
  8
SEIHIN
100
AcDbLine
 10
243.9101854171982
 20
152.0722484136312
 30
0.0
 11
243.9101854171982
 21
152.0722484136312
 31
0.0
  0
LINE
  5
ADB
330
1A
100
AcDbEntity
  8
SEIHIN
100
AcDbLine
 10
236.7254844171983
 20
162.8826424136312
 30
0.0
 11
242.9101854171982
 21
162.8826424136312
 31
0.0
  0
LINE
  5
ADC
330
1A
100
AcDbEntity
  8
SEIHIN
100
AcDbLine
 10
236.7254844171983
 20
164.0826424136312
 30
0.0
 11
242.9101854171982
 21
164.0826424136312
 31
0.0
  0
LINE
  5
ADD
330
1A
100
AcDbEntity
  8
SEIHIN
100
AcDbLine
 10
232.2830618171982
 20
161.4577284136312
 30
0.0
 11
232.9713534171983
 21
160.4747454136312
 31
0.0
  0
ARC
  5
ADE
330
1A
100
AcDbEntity
  8
SEIHIN
100
AcDbCircle
 10
236.7254844171983
 20
161.8826424136312
 30
0.0
 40
2.199999983850877
100
AcDbArc
 50
90.0
 51
124.9999986822715
  0
ARC
  5
ADF
330
1A
100
AcDbEntity
  8
SEIHIN
100
AcDbCircle
 10
236.7254844171983
 20
161.8826424136312
 30
0.0
 40
0.9999999714352551
100
AcDbArc
 50
90.0
 51
124.9999997494021
  0
ARC
  5
AE0
330
1A
100
AcDbEntity
  8
SEIHIN
100
AcDbCircle
 10
242.9101854171982
 20
161.8826424136312
 30
0.0
 40
2.200000000000017
100
AcDbArc
 50
0.0
 51
90.0
  0
ARC
  5
AE1
330
1A
100
AcDbEntity
  8
SEIHIN
100
AcDbCircle
 10
242.9101854171982
 20
161.8826424136312
 30
0.0
 40
1.0
100
AcDbArc
 50
0.0
 51
90.0
  0
LINE
  5
B9C
330
1A
100
AcDbEntity
  8
CENTER_L
100
AcDbLine
 10
184.4101854171982
 20
91.97131741363126
 30
0.0
 11
184.4101854171982
 21
113.6713174136313
 31
0.0
  0
LINE
  5
FEA
330
1A
100
AcDbEntity
  8
CENTER_L
100
AcDbLine
 10
350.0038784160369
 20
243.8367602931369
 30
0.0
 11
114.7101854171983
 21
243.8367602931369
 31
0.0
  0
LINE
  5
FEB
330
1A
100
AcDbEntity
  8
SEIHIN
100
AcDbLine
 10
245.1101854171982
 20
254.8367602931369
 30
0.0
 11
121.7101854171983
 21
254.8367602931369
 31
0.0
  0
LINE
  5
FEC
330
1A
100
AcDbEntity
  8
SEIHIN
100
AcDbLine
 10
245.1101854171982
 20
232.8367602931369
 30
0.0
 11
121.7101854171983
 21
232.8367602931369
 31
0.0
  0
LINE
  5
FED
330
1A
100
AcDbEntity
  8
SEIHIN
100
AcDbLine
 10
121.7101854171983
 20
254.8367602931369
 30
0.0
 11
121.7101854171983
 21
232.8367602931369
 31
0.0
  0
LINE
  5
FEE
330
1A
100
AcDbEntity
  8
SEIHIN
100
AcDbLine
 10
122.9101854171982
 20
254.8367602931369
 30
0.0
 11
122.9101854171982
 21
232.8367602931369
 31
0.0
  0
LINE
  5
FF0
330
1A
100
AcDbEntity
  8
SEIHIN
100
AcDbLine
 10
229.4201895816897
 20
237.8367602931369
 30
0.0
 11
130.573161595828
 21
237.8367602931369
 31
0.0
  0
LINE
  5
FF1
330
1A
100
AcDbEntity
  8
SEIHIN
100
AcDbLine
 10
122.9101854171982
 20
249.8367602931369
 30
0.0
 11
121.7101854171983
 21
249.8367602931369
 31
0.0
  0
LINE
  5
FF2
330
1A
100
AcDbEntity
  8
SEIHIN
100
AcDbLine
 10
122.9101854171982
 20
237.8367602931369
 30
0.0
 11
121.7101854171983
 21
237.8367602931369
 31
0.0
  0
LINE
  5
FF3
330
1A
100
AcDbEntity
  8
SEIHIN
100
AcDbLine
 10
127.573161595828
 20
240.8367602931369
 30
0.0
 11
127.573161595828
 21
246.8367602931369
 31
0.0
  0
LINE
  5
FF5
330
1A
100
AcDbEntity
  8
SEIHIN
100
AcDbLine
 10
245.1101854171982
 20
232.8367602931369
 30
0.0
 11
245.1101854171982
 21
254.8367602931369
 31
0.0
  0
LINE
  5
FF6
330
1A
100
AcDbEntity
  8
SEIHIN
100
AcDbLine
 10
235.4636163079355
 20
232.8367602931369
 30
0.0
 11
235.4636163079355
 21
254.8367602931369
 31
0.0
  0
ARC
  5
FF8
330
1A
100
AcDbEntity
  8
SEIHIN
100
AcDbCircle
 10
245.6968568183421
 20
243.8367602931369
 30
0.0
 40
17.34733110114381
100
AcDbArc
 50
140.6464899728084
 51
219.3535100271917
  0
LINE
  5
FF9
330
1A
100
AcDbEntity
  8
SEIHIN
100
AcDbLine
 10
130.5707270079756
 20
232.8367602931369
 30
0.0
 11
130.5707270079756
 21
237.8367602931369
 31
0.0
  0
LINE
  5
FFA
330
1A
100
AcDbEntity
  8
SEIHIN
100
AcDbLine
 10
130.5707270079756
 20
249.8367602931369
 30
0.0
 11
130.5707270079756
 21
254.8367602931369
 31
0.0
  0
ARC
  5
FFB
330
1A
100
AcDbEntity
  8
SEIHIN
100
AcDbCircle
 10
130.573161595828
 20
246.8367602931369
 30
0.0
 40
3.0
100
AcDbArc
 50
90.0
 51
180.0
  0
ARC
  5
FFC
330
1A
100
AcDbEntity
  8
SEIHIN
100
AcDbCircle
 10
130.573161595828
 20
240.8367602931369
 30
0.0
 40
3.0
100
AcDbArc
 50
180.0
 51
270.0
  0
LINE
  5
11F6
330
1A
100
AcDbEntity
  8
SEIHIN
100
AcDbLine
 10
229.4201895816897
 20
249.8367602931369
 30
0.0
 11
130.573161595828
 21
249.8367602931369
 31
0.0
  0
CIRCLE
  5
1218
330
1A
100
AcDbEntity
  8
SEIHIN
100
AcDbCircle
 10
184.4101854171982
 20
243.8367602931369
 30
0.0
 40
3.5
  0
LINE
  5
1395
330
1A
100
AcDbEntity
  8
CENTER_L
100
AcDbLine
 10
49.50999551920824
 20
199.6713174136313
 30
0.0
 11
49.50999551920824
 21
50.47352238224272
 31
0.0
  0
LINE
  5
13B2
330
1A
100
AcDbEntity
  8
SEIHIN
100
AcDbLine
 10
38.50999551920819
 20
158.7213174136312
 30
0.0
 11
38.50999551920824
 21
105.4713174136312
 31
0.0
  0
LINE
  5
1F8B
330
1A
100
AcDbEntity
  8
SUNPOU
  6
CONTINUOUS
 62
     4
100
AcDbLine
 10
332.3501251987535
 20
23.18944805296632
 30
0.0
 11
392.3501601987535
 21
23.18944805296632
 31
0.0
  0
LINE
  5
1F8C
330
1A
100
AcDbEntity
  8
SUNPOU
  6
CONTINUOUS
 62
     4
100
AcDbLine
 10
332.3501251987535
 20
30.68944805296633
 30
0.0
 11
392.3501601987535
 21
30.68944805296633
 31
0.0
  0
LINE
  5
1F8D
330
1A
100
AcDbEntity
  8
SUNPOU
  6
CONTINUOUS
 62
     4
100
AcDbLine
 10
332.3501251987535
 20
38.18944805296635
 30
0.0
 11
392.3501601987535
 21
38.18944805296635
 31
0.0
  0
LINE
  5
1F8E
330
1A
100
AcDbEntity
  8
SUNPOU
  6
CONTINUOUS
 62
     4
100
AcDbLine
 10
332.3501251987535
 20
45.68944805296635
 30
0.0
 11
392.3501601987535
 21
45.68944805296635
 31
0.0
  0
LINE
  5
1F8F
330
1A
100
AcDbEntity
  8
SUNPOU
  6
CONTINUOUS
 62
     4
100
AcDbLine
 10
332.3501251987535
 20
53.18944805296635
 30
0.0
 11
392.3501601987535
 21
53.18944805296635
 31
0.0
  0
LINE
  5
1F90
330
1A
100
AcDbEntity
  8
SUNPOU
  6
CONTINUOUS
 62
     4
100
AcDbLine
 10
332.3501251987535
 20
60.68947805296634
 30
0.0
 11
392.3501601987535
 21
60.68947805296634
 31
0.0
  0
LINE
  5
1F91
330
1A
100
AcDbEntity
  8
SUNPOU
  6
CONTINUOUS
 62
     4
100
AcDbLine
 10
332.3501251987535
 20
68.18947805296628
 30
0.0
 11
392.3501601987535
 21
68.18947805296628
 31
0.0
  0
LINE
  5
1F92
330
1A
100
AcDbEntity
  8
SUNPOU
  6
CONTINUOUS
 62
     4
100
AcDbLine
 10
332.3501251987535
 20
75.68947805296628
 30
0.0
 11
392.3501101987534
 21
75.68947805296628
 31
0.0
  0
TEXT
  5
1F97
330
1A
100
AcDbEntity
  8
SUNPOU
  6
CONTINUOUS
 62
     4
100
AcDbText
 10
341.725071627327
 20
62.56447305296635
 30
0.0
 40
3.0
  1
呼び
 41
1.40625
 72
     5
 11
350.725071627327
 21
62.56447305296635
 31
0.0
100
AcDbText
  0
TEXT
  5
1F98
330
1A
100
AcDbEntity
  8
SUNPOU
  6
CONTINUOUS
 62
     4
100
AcDbText
 10
341.7250951987534
 20
55.06444305296631
 30
0.0
 40
3.0
  1
＃５
 41
1.5
 72
     5
 11
350.7250951987535
 21
55.06444305296631
 31
0.0
100
AcDbText
  0
LINE
  5
1F99
330
1A
100
AcDbEntity
  8
SUNPOU
  6
CONTINUOUS
 62
     4
100
AcDbLine
 10
332.3501251987535
 20
75.68947805296628
 30
0.0
 11
332.3501201987535
 21
23.18944805296632
 31
0.0
  0
TEXT
  5
1FBE
330
1A
100
AcDbEntity
  8
SUNPOU
 62
     4
100
AcDbText
 10
371.7251101987535
 20
54.95974689017564
 30
0.0
 40
3.0
  1
２５
 41
1.125
100
AcDbText
  0
LINE
  5
1FBF
330
1A
100
AcDbEntity
  8
SUNPOU
  6
CONTINUOUS
 62
     4
100
AcDbLine
 10
362.3501301987535
 20
23.18944805296632
 30
0.0
 11
362.3501551987535
 21
68.18947805296628
 31
0.0
  0
LINE
  5
1FC0
330
1A
100
AcDbEntity
  8
SUNPOU
  6
CONTINUOUS
 62
     4
100
AcDbLine
 10
392.3501101987534
 20
75.68947805296628
 30
0.0
 11
392.3501601987535
 21
23.18944805296632
 31
0.0
  0
TEXT
  5
1FC1
330
1A
100
AcDbEntity
  8
SUNPOU
 62
     4
100
AcDbText
 10
371.7251101987535
 20
47.45974689017564
 30
0.0
 40
3.0
  1
３０
 41
1.125
100
AcDbText
  0
TEXT
  5
1FC2
330
1A
100
AcDbEntity
  8
SUNPOU
 62
     4
100
AcDbText
 10
371.7251101987535
 20
39.95974689017563
 30
0.0
 40
3.0
  1
３５
 41
1.125
100
AcDbText
  0
TEXT
  5
1FC3
330
1A
100
AcDbEntity
  8
SUNPOU
 62
     4
100
AcDbText
 10
371.7251101987535
 20
32.45974689017563
 30
0.0
 40
3.0
  1
４０
 41
1.125
100
AcDbText
  0
TEXT
  5
1FC4
330
1A
100
AcDbEntity
  8
SUNPOU
 62
     4
100
AcDbText
 10
371.7251601987535
 20
24.95980689017562
 30
0.0
 40
3.0
  1
４５
 41
1.125
100
AcDbText
  0
TEXT
  5
1FC5
330
1A
100
AcDbEntity
  8
SUNPOU
  6
CONTINUOUS
 62
     4
100
AcDbText
 10
371.7251116273268
 20
62.56442805296635
 30
0.0
 40
3.0
  1
寸法
 41
1.406250000000017
 72
     5
 11
380.725111627327
 21
62.56442805296635
 31
0.0
100
AcDbText
  0
TEXT
  5
1FC6
330
1A
100
AcDbEntity
  8
SUNPOU
  6
CONTINUOUS
 62
     4
100
AcDbText
 10
353.370963546642
 20
70.43610838703475
 30
0.0
 40
3.0
  1
Ｈ　寸　法
 72
     4
 11
362.170963546642
 21
71.93610838703475
 31
0.0
100
AcDbText
  0
LINE
  5
20B2
330
1A
100
AcDbEntity
  8
SEIHIN
100
AcDbLine
 10
54.60999551920815
 20
102.4713174136312
 30
0.0
 11
49.50999551920824
 21
102.4713174136312
 31
0.0
  0
LINE
  5
20B3
330
1A
100
AcDbEntity
  8
SEIHIN
100
AcDbLine
 10
44.40999551920822
 20
102.4713174136312
 30
0.0
 11
46.65999551920822
 21
102.4713174136312
 31
0.0
  0
LINE
  5
20B4
330
1A
100
AcDbEntity
  8
SEIHIN
100
AcDbLine
 10
46.65999551920822
 20
102.4713174136312
 30
0.0
 11
49.50999551920824
 21
102.4713174136312
 31
0.0
  0
LINE
  5
20B5
330
1A
100
AcDbEntity
  8
SEIHIN
100
AcDbLine
 10
54.60999551920815
 20
100.4713174136312
 30
0.0
 11
44.40999551920822
 21
100.4713174136312
 31
0.0
  0
LINE
  5
20B6
330
1A
100
AcDbEntity
  8
SEIHIN
100
AcDbLine
 10
54.60999551920815
 20
100.4713174136312
 30
0.0
 11
52.25999551920825
 21
98.47131741363128
 31
0.0
  0
LINE
  5
20B7
330
1A
100
AcDbEntity
  8
SEIHIN
100
AcDbLine
 10
46.75999551920824
 20
98.47131741363128
 30
0.0
 11
44.40999551920822
 21
100.4713174136312
 31
0.0
  0
LINE
  5
20B9
330
1A
100
AcDbEntity
  8
SEIHIN
100
AcDbLine
 10
52.25999551920825
 20
98.47131741363128
 30
0.0
 11
46.75999551920824
 21
98.47131741363128
 31
0.0
  0
LINE
  5
20BE
330
1A
100
AcDbEntity
  8
SEIHIN
100
AcDbLine
 10
44.40999551920822
 20
100.4713174136312
 30
0.0
 11
44.40999551920822
 21
102.4713174136312
 31
0.0
  0
LINE
  5
20BF
330
1A
100
AcDbEntity
  8
SEIHIN
100
AcDbLine
 10
54.60999551920815
 20
100.4713174136312
 30
0.0
 11
54.60999551920815
 21
102.4713174136312
 31
0.0
  0
LINE
  5
20C0
330
1A
100
AcDbEntity
  8
CENTER_L
  6
CENTER
 62
     1
100
AcDbLine
 10
349.1417539097681
 20
124.575697321692
 30
0.0
 11
180.4626854171982
 21
57.10891741363127
 31
0.0
  0
LINE
  5
20C1
330
1A
100
AcDbEntity
  8
SEIHIN
  6
CONTINUOUS
 62
     3
100
AcDbLine
 10
326.9985551658338
 20
118.5193298359513
 30
0.0
 11
187.6964854171982
 21
62.80251741363128
 31
0.0
  0
LINE
  5
20C2
330
1A
100
AcDbEntity
  8
SEIHIN
  6
CONTINUOUS
 62
     3
100
AcDbLine
 10
189.3532854171981
 20
57.86471741363127
 30
0.0
 11
328.9296551658338
 21
113.6912298359513
 31
0.0
  0
LINE
  5
20C4
330
1A
100
AcDbEntity
  8
SEIHIN
  6
CONTINUOUS
 62
     3
100
AcDbLine
 10
341.8913551658339
 20
121.6757298359514
 30
0.0
 11
328.9296551658338
 21
113.6912298359513
 31
0.0
  0
LINE
  5
20C5
330
1A
100
AcDbEntity
  8
SEIHIN
  6
CONTINUOUS
 62
     3
100
AcDbLine
 10
326.9985551658338
 20
118.5193298359513
 30
0.0
 11
341.8913551658339
 21
121.6757298359514
 31
0.0
  0
LINE
  5
20C7
330
1A
100
AcDbEntity
  8
SEIHIN
  6
CONTINUOUS
 62
     3
100
AcDbLine
 10
327.9640551658339
 20
116.1052298359513
 30
0.0
 11
333.2502551658338
 21
116.3527298359514
 31
0.0
  0
LINE
  5
20C8
330
1A
100
AcDbEntity
  8
SEIHIN
  6
CONTINUOUS
 62
     3
100
AcDbLine
 10
331.9628551658339
 20
119.5715298359514
 30
0.0
 11
327.9640551658339
 21
116.1052298359513
 31
0.0
  0
LINE
  5
20C9
330
1A
100
AcDbEntity
  8
SUNPOU
  6
CONTINUOUS
 62
     4
100
AcDbLine
 10
365.7289423283327
 20
131.2100960074906
 30
0.0
 11
385.7289423283325
 21
131.2100960074906
 31
0.0
  0
LINE
  5
20CA
330
1A
100
AcDbEntity
  8
SUNPOU
  6
CONTINUOUS
 62
     4
100
AcDbLine
 10
385.7289423283325
 20
139.2100960074906
 30
0.0
 11
365.7289423283327
 21
131.2100960074906
 31
0.0
  0
LINE
  5
20CB
330
1A
100
AcDbEntity
  8
SUNPOU
  6
CONTINUOUS
 62
     4
100
AcDbLine
 10
385.7289423283325
 20
131.2100960074906
 30
0.0
 11
385.7289423283325
 21
139.2100960074906
 31
0.0
  0
TEXT
  5
20CC
330
1A
100
AcDbEntity
  8
SUNPOU
  6
CONTINUOUS
 62
     4
100
AcDbText
 10
373.8645081452359
 20
126.1546668658784
 30
0.0
 40
3.0
  1
10
100
AcDbText
  0
TEXT
  5
20CD
330
1A
100
AcDbEntity
  8
SUNPOU
  6
CONTINUOUS
 62
     4
100
AcDbText
 10
387.8762915625118
 20
132.9179960074906
 30
0.0
 40
3.0
  1
4
100
AcDbText
  0
LINE
  5
20CE
330
1A
100
AcDbEntity
  8
CENTER_L
  6
CENTER
 62
     1
100
AcDbLine
 10
184.4101854171982
 20
116.2922174136313
 30
0.0
 11
184.4101854171982
 21
51.79801741363127
 31
0.0
  0
LINE
  5
20CF
330
1A
100
AcDbEntity
  8
SEIHIN
  6
CONTINUOUS
 62
     3
100
AcDbLine
 10
187.0107854171981
 20
98.34416847746103
 30
0.0
 11
187.0107854171982
 21
63.26681741363128
 31
0.0
  0
LINE
  5
20D0
330
1A
100
AcDbEntity
  8
SEIHIN
  6
CONTINUOUS
 62
     3
100
AcDbLine
 10
181.8107854171983
 20
98.34314720086524
 30
0.0
 11
181.8107854171983
 21
62.97131741363128
 31
0.0
  0
ARC
  5
20D2
330
1A
100
AcDbEntity
  8
SEIHIN
  6
CONTINUOUS
 62
     3
100
AcDbCircle
 10
187.3107854171982
 20
62.97131741363128
 30
0.0
 40
5.499962
100
AcDbArc
 50
180.0
 51
291.8000550000006
  0
ARC
  5
20D3
330
1A
100
AcDbEntity
  8
SEIHIN
  6
CONTINUOUS
 62
     3
100
AcDbCircle
 10
187.5107854171982
 20
63.26681741363128
 30
0.0
 40
0.500029
100
AcDbArc
 50
180.0
 51
291.7992820000012
  0
LINE
  5
211D
330
1A
100
AcDbEntity
  8
SEIHIN
100
AcDbLine
 10
181.8107854171983
 20
98.34314720086524
 30
0.0
 11
179.3101854171982
 21
100.4713174136312
 31
0.0
  0
LINE
  5
211E
330
1A
100
AcDbEntity
  8
SEIHIN
100
AcDbLine
 10
179.3101854171982
 20
100.4713174136312
 30
0.0
 11
179.3101854171982
 21
102.4713174136312
 31
0.0
  0
LINE
  5
211F
330
1A
100
AcDbEntity
  8
SEIHIN
100
AcDbLine
 10
189.5101854171981
 20
100.4713174136312
 30
0.0
 11
187.0107854171981
 21
98.34416847746103
 31
0.0
  0
LINE
  5
2120
330
1A
100
AcDbEntity
  8
SEIHIN
100
AcDbLine
 10
189.5101854171981
 20
100.4713174136312
 30
0.0
 11
179.3101854171982
 21
100.4713174136312
 31
0.0
  0
LINE
  5
2121
330
1A
100
AcDbEntity
  8
SEIHIN
100
AcDbLine
 10
189.5101854171981
 20
100.4713174136312
 30
0.0
 11
189.5101854171981
 21
102.4713174136312
 31
0.0
  0
LINE
  5
2123
330
1A
100
AcDbEntity
  8
SEIHIN
100
AcDbLine
 10
181.8107854171983
 20
98.34314720086524
 30
0.0
 11
187.0107854171981
 21
98.34416847746103
 31
0.0
  0
DIMENSION
  5
2140
330
1A
100
AcDbEntity
  8
SUNPOU
100
AcDbDimension
  2
*D1
 10
245.1101854171983
 20
213.6613841375192
 30
0.0
 11
183.4101854171983
 21
216.1613841375192
 31
0.0
 70
    32
  3
STANDARD
100
AcDbAlignedDimension
 13
121.7101854171983
 23
192.6713174136313
 33
0.0
 14
245.1101854171983
 24
161.8826424136312
 34
0.0
100
AcDbRotatedDimension
1001
ACAD
1000
DSTYLE
1002
{
1070
    41
1040
3.0
1070
    42
1040
3.0
1070
    43
1040
7.0
1070
    44
1040
1.5
1070
    73
1070
     0
1070
    74
1070
     0
1070
    77
1070
     3
1070
   140
1040
3.0
1070
   141
1040
3.0
1070
   147
1040
1.0
1070
   172
1070
     1
1070
   173
1070
     1
1070
   176
1070
   256
1070
   177
1070
   256
1070
   178
1070
   256
1070
   271
1070
     0
1070
   272
1070
     0
1070
   341
1005
B2
1070
     6
1000
OPEN
1070
     7
1000
OPEN
1002
}
  0
LINE
  5
214D
330
1A
100
AcDbEntity
  8
SEIHIN
  6
CONTINUOUS
 62
     3
100
AcDbLine
 10
51.90989551920825
 20
57.47352238224272
 30
0.0
 11
51.90989551920825
 21
98.47131741363128
 31
0.0
  0
LINE
  5
214E
330
1A
100
AcDbEntity
  8
SEIHIN
  6
CONTINUOUS
 62
     3
100
AcDbLine
 10
51.90989551920825
 20
57.47352238224272
 30
0.0
 11
47.10989551920818
 21
57.47352238224272
 31
0.0
  0
LINE
  5
214F
330
1A
100
AcDbEntity
  8
SEIHIN
  6
CONTINUOUS
 62
     3
100
AcDbLine
 10
47.10989551920818
 20
57.47352238224272
 30
0.0
 11
47.10989551920818
 21
98.47131741363128
 31
0.0
  0
LINE
  5
2151
330
1A
100
AcDbEntity
  8
SEIHIN
  6
CONTINUOUS
 62
     3
100
AcDbLine
 10
326.8912682132267
 20
241.0869602931369
 30
0.0
 11
341.8912682132268
 21
243.8367602931369
 31
0.0
  0
LINE
  5
2152
330
1A
100
AcDbEntity
  8
SEIHIN
  6
CONTINUOUS
 62
     3
100
AcDbLine
 10
326.8911682132267
 20
246.5867602931369
 30
0.0
 11
341.8911682132266
 21
243.8367602931369
 31
0.0
  0
LINE
  5
2153
330
1A
100
AcDbEntity
  8
SEIHIN
  6
CONTINUOUS
 62
     3
100
AcDbLine
 10
245.1101854171982
 20
241.0869565677477
 30
0.0
 11
326.8912682132267
 21
241.0868602931369
 31
0.0
  0
LINE
  5
2154
330
1A
100
AcDbEntity
  8
SEIHIN
  6
CONTINUOUS
 62
     3
100
AcDbLine
 10
245.1101854171982
 20
246.5869565677429
 30
0.0
 11
326.8911682132267
 21
246.5868602931369
 31
0.0
  0
DIMENSION
  5
2156
330
1A
100
AcDbEntity
  8
SUNPOU
100
AcDbDimension
  2
*D2
 10
97.05569999519411
 20
106.8712958061145
 30
0.0
 11
94.5556999951941
 21
149.7713066098729
 31
0.0
 70
    32
  3
STANDARD
100
AcDbAlignedDimension
 13
121.7101854171983
 23
192.6713174136313
 33
0.0
 14
184.4101854171982
 24
106.8712958061145
 34
0.0
 50
90.0
100
AcDbRotatedDimension
1001
ACAD
1000
DSTYLE
1002
{
1070
    41
1040
3.0
1070
    42
1040
3.0
1070
    43
1040
7.0
1070
    44
1040
1.5
1070
    73
1070
     0
1070
    74
1070
     0
1070
    77
1070
     3
1070
   140
1040
3.0
1070
   141
1040
3.0
1070
   147
1040
1.0
1070
   172
1070
     1
1070
   173
1070
     1
1070
   176
1070
   256
1070
   177
1070
   256
1070
   178
1070
   256
1070
   271
1070
     0
1070
   272
1070
     0
1070
   341
1005
B2
1070
     6
1000
OPEN
1070
     7
1000
OPEN
1002
}
  0
DIMENSION
  5
2163
330
1A
100
AcDbEntity
  8
SUNPOU
100
AcDbDimension
  2
*D3
 10
97.05569999519411
 20
57.47135541363132
 30
0.0
 11
94.5556999951941
 21
82.17132560987295
 31
0.0
 70
    32
  1
H
  3
STANDARD
100
AcDbAlignedDimension
 13
184.4101854171982
 23
106.8712958061145
 33
0.0
 14
187.3107854171982
 24
57.47135541363128
 34
0.0
 50
90.0
100
AcDbRotatedDimension
1001
ACAD
1000
DSTYLE
1002
{
1070
   287
1070
     4
1070
   287
1070
     4
1070
   287
1070
     4
1070
   287
1070
     4
1070
   287
1070
     4
1070
   279
1070
     1
1070
    41
1040
3.0
1070
    42
1040
3.0
1070
    43
1040
7.0
1070
    44
1040
1.5
1070
    73
1070
     0
1070
    74
1070
     0
1070
    77
1070
     3
1070
   140
1040
3.0
1070
   141
1040
3.0
1070
   147
1040
1.0
1070
   172
1070
     1
1070
   173
1070
     1
1070
   176
1070
   256
1070
   177
1070
   256
1070
   178
1070
   256
1070
   271
1070
     0
1070
   272
1070
     0
1070
   341
1005
B2
1070
     6
1000
OPEN
1070
     7
1000
OPEN
1002
}
  0
DIMENSION
  5
2179
330
1A
100
AcDbEntity
  8
SUNPOU
100
AcDbDimension
  2
*D4
 10
359.3486597463174
 20
125.8579496108878
 30
0.0
 11
365.3835493480732
 21
117.5015085326165
 31
0.0
 70
    33
  3
STANDARD
100
AcDbAlignedDimension
 13
326.9985551658338
 23
118.5193298359513
 33
0.0
 14
328.9296551658338
 24
113.6912298359513
 34
0.0
1001
ACAD
1000
DSTYLE
1002
{
1070
    41
1040
3.0
1070
    42
1040
3.0
1070
    43
1040
7.0
1070
    44
1040
1.5
1070
    73
1070
     0
1070
    74
1070
     0
1070
    77
1070
     3
1070
   140
1040
3.0
1070
   141
1040
3.0
1070
   147
1040
1.0
1070
   172
1070
     1
1070
   173
1070
     1
1070
   176
1070
   256
1070
   177
1070
   256
1070
   178
1070
   256
1070
   271
1070
     1
1070
   272
1070
     0
1070
   341
1005
B2
1070
     6
1000
OPEN
1070
     7
1000
OPEN
1002
}
  0
DIMENSION
  5
2193
330
1A
100
AcDbEntity
  8
SUNPOU
100
AcDbDimension
  2
*D5
 10
365.6288090669877
 20
241.0869602931369
 30
0.0
 11
363.1288090669877
 21
231.0869602931369
 31
0.0
 70
    32
  3
STANDARD
100
AcDbAlignedDimension
 13
326.8911682132267
 23
246.5867602931369
 33
0.0
 14
326.8912682132267
 24
241.0869602931369
 34
0.0
 50
90.0
100
AcDbRotatedDimension
1001
ACAD
1000
DSTYLE
1002
{
1070
    41
1040
3.0
1070
    42
1040
3.0
1070
    43
1040
7.0
1070
    44
1040
1.5
1070
    73
1070
     0
1070
    74
1070
     0
1070
    77
1070
     3
1070
   140
1040
3.0
1070
   141
1040
3.0
1070
   147
1040
1.0
1070
   172
1070
     1
1070
   173
1070
     1
1070
   176
1070
   256
1070
   177
1070
   256
1070
   178
1070
   256
1070
   271
1070
     1
1070
   272
1070
     0
1070
   341
1005
B2
1070
     6
1000
OPEN
1070
     7
1000
OPEN
1002
}
  0
DIMENSION
  5
21BA
330
1A
100
AcDbEntity
  8
SUNPOU
100
AcDbDimension
  2
*D6
 10
352.5516779470255
 20
95.02277219617639
 30
0.0
 11
272.7019579801252
 21
65.77773464777196
 31
0.0
 70
    33
  3
STANDARD
100
AcDbAlignedDimension
 13
184.0486666486788
 23
58.54320685250964
 33
0.0
 14
341.891268213227
 24
121.6757114070993
 34
0.0
1001
ACAD
1000
DSTYLE
1002
{
1070
    41
1040
3.0
1070
    42
1040
3.0
1070
    43
1040
7.0
1070
    44
1040
1.5
1070
    73
1070
     0
1070
    74
1070
     0
1070
    77
1070
     3
1070
   140
1040
3.0
1070
   141
1040
3.0
1070
   147
1040
1.0
1070
   172
1070
     1
1070
   173
1070
     1
1070
   176
1070
   256
1070
   177
1070
   256
1070
   178
1070
   256
1070
   271
1070
     0
1070
   272
1070
     0
1070
   341
1005
B2
1070
     6
1000
OPEN
1070
     7
1000
OPEN
1002
}
  0
DIMENSION
  5
21F1
330
1A
100
AcDbEntity
  8
SUNPOU
100
AcDbDimension
  2
*D7
 10
97.05569999519415
 20
232.8367602931369
 30
0.0
 11
94.5556999951941
 21
243.8367602931369
 31
0.0
 70
    32
  3
STANDARD
100
AcDbAlignedDimension
 13
121.7101854171983
 23
254.8367602931369
 33
0.0
 14
121.7101854171983
 24
232.8367602931369
 34
0.0
 50
90.0
100
AcDbRotatedDimension
1001
ACAD
1000
DSTYLE
1002
{
1070
    41
1040
3.0
1070
    42
1040
3.0
1070
    43
1040
7.0
1070
    44
1040
1.5
1070
    73
1070
     0
1070
    74
1070
     0
1070
    77
1070
     3
1070
   140
1040
3.0
1070
   141
1040
3.0
1070
   147
1040
1.0
1070
   172
1070
     1
1070
   173
1070
     1
1070
   176
1070
   256
1070
   177
1070
   256
1070
   178
1070
   256
1070
   271
1070
     0
1070
   272
1070
     0
1070
   341
1005
B2
1070
     6
1000
OPEN
1070
     7
1000
OPEN
1002
}
  0
LINE
  5
2276
330
1A
100
AcDbEntity
  8
SEIHIN
100
AcDbLine
 10
333.3868772031064
 20
245.3958803116589
 30
0.0
 11
329.3881778646014
 21
243.8367602931369
 31
0.0
  0
LINE
  5
2277
330
1A
100
AcDbEntity
  8
SEIHIN
100
AcDbLine
 10
329.3881778646014
 20
243.8367602931369
 30
0.0
 11
333.3868772031064
 21
242.2777353331616
 31
0.0
  0
TEXT
  5
2391
330
1A
100
AcDbEntity
  8
SUNPOU
  6
CONTINUOUS
 62
     4
100
AcDbText
 10
341.7250923416094
 20
47.56444305296631
 30
0.0
 40
3.0
  1
＃４
 41
1.5
 72
     5
 11
350.7250923416094
 21
47.56444305296631
 31
0.0
100
AcDbText
  0
TEXT
  5
2392
330
1A
100
AcDbEntity
  8
SUNPOU
  6
CONTINUOUS
 62
     4
100
AcDbText
 10
341.7250951987534
 20
40.06444305296628
 30
0.0
 40
3.0
  1
＃３
 41
1.5
 72
     5
 11
350.7250951987535
 21
40.06444305296628
 31
0.0
100
AcDbText
  0
TEXT
  5
2393
330
1A
100
AcDbEntity
  8
SUNPOU
  6
CONTINUOUS
 62
     4
100
AcDbText
 10
341.7250923416094
 20
32.56444305296628
 30
0.0
 40
3.0
  1
＃２
 41
1.5
 72
     5
 11
350.7250923416094
 21
32.56444305296628
 31
0.0
100
AcDbText
  0
TEXT
  5
2394
330
1A
100
AcDbEntity
  8
SUNPOU
  6
CONTINUOUS
 62
     4
100
AcDbText
 10
341.7250873416094
 20
25.06444305296628
 30
0.0
 40
3.0
  1
＃１
 41
1.73076923076923
 72
     5
 11
350.7250873416094
 21
25.06444305296628
 31
0.0
100
AcDbText
  0
TEXT
  5
24D8
330
1A
100
AcDbEntity
  8
MOJI
100
AcDbText
 10
119.9136009696084
 20
9.002460530947871
 30
0.0
 40
2.799999999999999
  1
亜鉛メッキ金具打込角足（受）
 41
0.9
  7
ｽﾀｲﾙ1
100
AcDbText
  0
LINE
  5
24D9
330
1A
100
AcDbEntity
  8
ZUWAKU
100
AcDbLine
 10
104.3233002742168
 20
7.600000002244197
 30
0.0
 11
223.7121816146785
 21
7.600000002244193
 31
0.0
  0
LINE
  5
24DA
330
1A
100
AcDbEntity
  8
ZUWAKU
100
AcDbLine
 10
104.3233002742168
 20
7.800000002244194
 30
0.0
 11
223.7121816146785
 21
7.800000002244198
 31
0.0
  0
LINE
  5
24DB
330
1A
100
AcDbEntity
  8
ZUWAKU
100
AcDbLine
 10
104.3233002742168
 20
7.700000002244195
 30
0.0
 11
223.7121816146785
 21
7.700000002244195
 31
0.0
  0
LINE
  5
24DC
330
1A
100
AcDbEntity
  8
ZUWAKU
100
AcDbLine
 10
-0.0000003708171334
 20
15.40000000224418
 30
0.0
 11
398.6999996291828
 21
15.40000000224418
 31
0.0
  0
LINE
  5
24DD
330
1A
100
AcDbEntity
  8
ZUWAKU
100
AcDbLine
 10
-0.0000003708171334
 20
15.30000000224418
 30
0.0
 11
398.6999996291828
 21
15.30000000224418
 31
0.0
  0
LINE
  5
24DE
330
1A
100
AcDbEntity
  8
ZUWAKU
100
AcDbLine
 10
-0.0000003708171334
 20
15.20000000224418
 30
0.0
 11
398.6999996291828
 21
15.20000000224418
 31
0.0
  0
LINE
  5
24DF
330
1A
100
AcDbEntity
  8
ZUWAKU
100
AcDbLine
 10
-0.0000003708171334
 20
15.10000000224418
 30
0.0
 11
398.6999996291828
 21
15.10000000224418
 31
0.0
  0
LINE
  5
24E0
330
1A
100
AcDbEntity
  8
ZUWAKU
100
AcDbLine
 10
-0.0000003708171334
 20
15.00000000224417
 30
0.0
 11
398.6999996291828
 21
15.00000000224417
 31
0.0
  0
LWPOLYLINE
  5
24E1
330
1A
100
AcDbEntity
  8
ZUWAKU
100
AcDbPolyline
 90
        4
 70
     1
 43
0.0
 10
0.0999996291828325
 20
275.7000000022442
 10
0.0999996291828325
 20
0.1000000022442009
 10
398.6999996291828
 20
0.1000000022442125
 10
398.6999996291828
 20
275.7000000022442
  0
LWPOLYLINE
  5
24E2
330
1A
100
AcDbEntity
  8
ZUWAKU
100
AcDbPolyline
 90
        4
 70
     1
 43
0.0
 10
0.2999996291828211
 20
275.5000000022442
 10
0.2999996291828211
 20
0.3000000022441895
 10
398.499999629183
 20
0.3000000022442126
 10
398.4999996291828
 20
275.5000000022442
  0
LWPOLYLINE
  5
24E3
330
1A
100
AcDbEntity
  8
ZUWAKU
100
AcDbPolyline
 90
        4
 70
     1
 43
0.0
 10
-0.0000003708171334
 20
275.8000000022442
 10
-0.0000003708171334
 20
0.0000000022441782
 10
398.7999996291829
 20
0.0000000022442119
 10
398.7999996291829
 20
275.8000000022442
  0
LWPOLYLINE
  5
24E4
330
1A
100
AcDbEntity
  8
ZUWAKU
100
AcDbPolyline
 90
        4
 70
     1
 43
0.0
 10
0.1999996291828552
 20
275.6000000022442
 10
0.1999996291828552
 20
0.2000000022442236
 10
398.5999996291829
 20
0.2000000022442121
 10
398.5999996291829
 20
275.6000000022442
  0
LWPOLYLINE
  5
24E5
330
1A
100
AcDbEntity
  8
ZUWAKU
100
AcDbPolyline
 90
        4
 70
     1
 43
0.0
 10
0.3999996291828438
 20
275.4000000022442
 10
0.3999996291828438
 20
0.4000000022442123
 10
398.3999996291828
 20
0.4000000022442123
 10
398.3999996291828
 20
275.4000000022442
  0
LINE
  5
24E6
330
1A
100
AcDbEntity
  8
ZUWAKU
100
AcDbLine
 10
24.19610570657346
 20
11.62500000224418
 30
0.0
 11
25.94610570657346
 21
11.62500000224418
 31
0.0
  0
LINE
  5
24E7
330
1A
100
AcDbEntity
  8
ZUWAKU
100
AcDbLine
 10
25.94610570657346
 20
10.22500000224418
 30
0.0
 11
24.45860570657345
 21
10.22500000224418
 31
0.0
  0
ARC
  5
24E8
330
1A
100
AcDbEntity
  8
ZUWAKU
100
AcDbCircle
 10
24.37110570657341
 20
5.882601014921853
 30
0.0
 40
0.7
100
AcDbArc
 50
0.0
 51
45.0
  0
ARC
  5
24E9
330
1A
100
AcDbEntity
  8
ZUWAKU
100
AcDbCircle
 10
24.80860570657341
 20
5.237500002244182
 30
0.0
 40
0.2625
100
AcDbArc
 50
270.0
 51
0.0
  0
LINE
  5
24EA
330
1A
100
AcDbEntity
  8
ZUWAKU
100
AcDbLine
 10
23.32110570657346
 20
3.575000002244181
 30
0.0
 11
25.07110570657346
 21
3.575000002244181
 31
0.0
  0
LINE
  5
24EB
330
1A
100
AcDbEntity
  8
ZUWAKU
100
AcDbLine
 10
25.85602994706522
 20
7.367525255413593
 30
0.0
 11
24.40113095974282
 21
8.82242424273593
 31
0.0
  0
HATCH
  5
24EC
330
1A
100
AcDbEntity
  8
ZUWAKU
100
AcDbHatch
 10
0.0
 20
0.0
 30
0.0
210
0.0
220
0.0
230
1.0
  2
ANSI37
 70
     0
 71
     0
 91
        8
 92
        7
 72
     1
 73
     1
 93
       24
 10
7.251130959742795
 20
8.822424242735969
 42
-0.1989123673796348
 10
7.046105706573428
 20
9.317398989566495
 42
0.0
 10
7.046105706573428
 20
9.962500002244183
 42
-0.4142135623730912
 10
7.308605706573416
 20
10.22500000224418
 42
0.0
 10
8.796105706573371
 20
10.22500000224418
 42
0.4142135623731546
 10
9.058605706573416
 20
10.48750000224417
 42
0.0
 10
9.058605706573416
 20
11.36250000224418
 42
0.4142135623731586
 10
8.796105706573371
 20
11.62500000224418
 42
0.0
 10
7.046105706573428
 20
11.62500000224418
 42
0.4142135623730928
 10
5.64610570657345
 20
10.22500000224419
 42
0.0
 10
5.64610570657345
 20
9.317398989566559
 42
0.1989123673796619
 10
6.261181466081666
 20
7.832474749074755
 42
0.0
 10
7.716080453404003
 20
6.377575761752426
 42
-0.1989123673796613
 10
7.921105706573428
 20
5.882601014921833
 42
0.0
 10
7.921105706573428
 20
5.237500002244175
 42
-0.4142135623730911
 10
7.658605706573439
 20
4.975000002244179
 42
0.0
 10
6.171105706573484
 20
4.975000002244179
 42
0.4142135623731526
 10
5.908605706573439
 20
4.712500002244185
 42
0.0
 10
5.908605706573439
 20
3.837500002244174
 42
0.4142135623731526
 10
6.171105706573484
 20
3.575000002244181
 42
0.0
 10
7.921105706573428
 20
3.575000002244181
 42
0.4142135623731044
 10
9.321105706573462
 20
4.975000002244168
 42
0.0
 10
9.321105706573462
 20
5.882601014921805
 42
0.1989123673796604
 10
8.706029947065189
 20
7.367525255413575
 42
0.0
 97
        0
 92
        7
 72
     1
 73
     1
 93
       16
 10
11.77110570657345
 20
9.525000002244183
 42
-0.4142135623730935
 10
12.47110570657343
 20
10.22500000224418
 42
0.0
 10
13.43360570657341
 20
10.22500000224418
 42
0.4142135623731546
 10
13.69610570657346
 20
10.48750000224417
 42
0.0
 10
13.69610570657346
 20
11.36250000224418
 42
0.4142135623730951
 10
13.43360570657347
 20
11.62500000224418
 42
0.0
 10
12.47110570657338
 20
11.62500000224416
 42
0.4142135623730892
 10
10.37110570657341
 20
9.525000002244148
 42
0.0
 10
10.37110570657341
 20
5.675000002244193
 42
0.4142135623730969
 10
12.47110570657343
 20
3.575000002244181
 42
0.0
 10
13.43360570657341
 20
3.575000002244181
 42
0.4142135623731526
 10
13.69610570657346
 20
3.837500002244174
 42
0.0
 10
13.69610570657346
 20
4.712500002244185
 42
0.4142135623730891
 10
13.43360570657347
 20
4.975000002244179
 42
0.0
 10
12.47110570657343
 20
4.975000002244179
 42
-0.4142135623730928
 10
11.77110570657345
 20
5.675000002244173
 42
0.0
 97
        0
 92
        7
 72
     1
 73
     1
 93
        2
 10
12.12110570657341
 20
7.600000002244179
 42
1.0
 10
13.87110570657341
 20
7.600000002244179
 42
1.0
 97
        0
 92
        7
 72
     1
 73
     1
 93
       26
 10
18.65742894766242
 20
9.602523599025893
 42
0.0
 10
19.18824876423133
 20
11.28345301816068
 42
0.5069206636600134
 10
18.93793331463365
 20
11.62500000224418
 42
0.0
 10
18.08848862482903
 20
11.62500000224418
 42
0.3272098845218764
 10
17.83817317523136
 20
11.44154698632766
 42
0.0
 10
16.90403823791547
 20
8.483453018160719
 42
-0.3272098845219541
 10
16.65372278831773
 20
8.300000002244178
 42
0.0
 10
16.5836057065735
 20
8.300000002244178
 42
-0.4142135623731526
 10
16.32110570657346
 20
8.562500002244172
 42
0.0
 10
16.32110570657346
 20
11.36250000224418
 42
0.4142135623730951
 10
16.05860570657347
 20
11.62500000224418
 42
0.0
 10
15.18360570657341
 20
11.62500000224418
 42
0.4142135623730871
 10
14.92110570657342
 20
11.36250000224418
 42
0.0
 10
14.92110570657342
 20
3.837500002244174
 42
0.4142135623730891
 10
15.18360570657341
 20
3.575000002244181
 42
0.0
 10
16.05860570657341
 20
3.575000002244181
 42
0.4142135623731526
 10
16.32110570657346
 20
3.837500002244174
 42
0.0
 10
16.32110570657346
 20
6.637500002244186
 42
-0.4142135623731526
 10
16.5836057065735
 20
6.90000000224418
 42
0.0
 10
16.65372278831779
 20
6.90000000224418
 42
-0.3272098845218915
 10
16.90403823791547
 20
6.716546986327642
 42
0.0
 10
17.83817317523136
 20
3.758453018160716
 42
0.3272098845218902
 10
18.08848862482903
 20
3.575000002244181
 42
0.0
 10
18.93793331463365
 20
3.575000002244181
 42
0.5069206636600335
 10
19.18824876423133
 20
3.916546986327684
 42
0.0
 10
18.0250530749945
 20
7.600000002244248
 42
0.0
 97
        0
 92
        7
 72
     1
 73
     1
 93
        8
 10
21.74610570657341
 20
11.36250000224418
 42
0.4142135623731546
 10
21.48360570657337
 20
11.62500000224418
 42
0.0
 10
20.60860570657348
 20
11.62500000224418
 42
0.4142135623731507
 10
20.34610570657343
 20
11.36250000224418
 42
0.0
 10
20.34610570657343
 20
3.837500002244174
 42
0.4142135623731526
 10
20.60860570657348
 20
3.575000002244181
 42
0.0
 10
21.48360570657337
 20
3.575000002244181
 42
0.4142135623731526
 10
21.74610570657341
 20
3.837500002244174
 42
0.0
 97
        0
 92
        7
 72
     1
 73
     1
 93
       24
 10
24.19610570657346
 20
9.962500002244183
 42
-0.4142135623731546
 10
24.4586057065735
 20
10.22500000224418
 42
0.0
 10
25.94610570657346
 20
10.22500000224418
 42
0.4142135623730911
 10
26.20860570657345
 20
10.48750000224417
 42
0.0
 10
26.20860570657345
 20
11.36250000224418
 42
0.4142135623730952
 10
25.94610570657346
 20
11.62500000224418
 42
0.0
 10
24.19610570657346
 20
11.62500000224418
 42
0.4142135623731048
 10
22.79610570657343
 20
10.22500000224419
 42
0.0
 10
22.79610570657343
 20
9.317398989566559
 42
0.1989123673796613
 10
23.4111814660817
 20
7.832474749074783
 42
0.0
 10
24.86608045340403
 20
6.377575761752449
 42
-0.1989123673796402
 10
25.07110570657346
 20
5.882601014921913
 42
0.0
 10
25.07110570657346
 20
5.237500002244175
 42
-0.4142135623730911
 10
24.80860570657347
 20
4.975000002244179
 42
0.0
 10
23.32110570657346
 20
4.975000002244179
 42
0.4142135623731526
 10
23.05860570657341
 20
4.712500002244185
 42
0.0
 10
23.05860570657341
 20
3.837500002244174
 42
0.4142135623730891
 10
23.3211057065734
 20
3.575000002244181
 42
0.0
 10
25.07110570657346
 20
3.575000002244181
 42
0.4142135623730925
 10
26.47110570657344
 20
4.975000002244168
 42
0.0
 10
26.47110570657344
 20
5.882601014921805
 42
0.1989123673796675
 10
25.85602994706516
 20
7.367525255413632
 42
0.0
 10
24.40113095974288
 20
8.822424242735889
 42
-0.1989123673796652
 10
24.19610570657346
 20
9.317398989566473
 42
0.0
 97
        0
 92
        7
 72
     1
 73
     1
 93
       16
 10
28.92110570657342
 20
11.36250000224417
 42
0.414213562373103
 10
28.65860570657344
 20
11.62500000224418
 42
0.0
 10
27.78360570657344
 20
11.62500000224418
 42
0.4142135623730871
 10
27.52110570657345
 20
11.36250000224418
 42
0.0
 10
27.52110570657345
 20
4.975000002244168
 42
0.4142135623730926
 10
28.92110570657342
 20
3.575000002244181
 42
0.0
 10
30.67110570657343
 20
3.575000002244181
 42
0.4142135623731044
 10
32.07110570657346
 20
4.975000002244168
 42
0.0
 10
32.07110570657346
 20
11.36250000224418
 42
0.4142135623730951
 10
31.80860570657347
 20
11.62500000224418
 42
0.0
 10
30.93360570657341
 20
11.62500000224418
 42
0.4142135623730871
 10
30.67110570657343
 20
11.36250000224418
 42
0.0
 10
30.67110570657343
 20
5.500000002244167
 42
-0.414213562373088
 10
30.14610570657345
 20
4.975000002244179
 42
0.0
 10
29.44610570657346
 20
4.975000002244179
 42
-0.4142135623731197
 10
28.92110570657342
 20
5.500000002244167
 42
0.0
 97
        0
 92
        7
 72
     1
 73
     1
 93
        8
 10
34.52110570657345
 20
11.36250000224418
 42
0.4142135623730871
 10
34.25860570657346
 20
11.62500000224418
 42
0.0
 10
33.38360570657346
 20
11.62500000224418
 42
0.4142135623731507
 10
33.12110570657341
 20
11.36250000224418
 42
0.0
 10
33.12110570657341
 20
3.837500002244174
 42
0.4142135623730891
 10
33.3836057065734
 20
3.575000002244181
 42
0.0
 10
34.25860570657346
 20
3.575000002244181
 42
0.4142135623730891
 10
34.52110570657345
 20
3.837500002244174
 42
0.0
 97
        0
 75
     0
 76
     1
 52
0.0
 41
0.1
 77
     0
 78
     2
 53
45.0
 43
-450.4711525381566
 44
-6.599999997755787
 45
-0.2245064030267288
 46
0.2245064030267288
 79
     0
 53
135.0
 43
-450.4711525381566
 44
-6.599999997755787
 45
-0.2245064030267288
 46
-0.2245064030267288
 79
     0
 47
0.057451373970553
 98
        8
 10
8.03992711069452
 20
7.583586825186955
 10
11.20225713240245
 20
9.422031093469684
 10
12.58218357201269
 20
7.755940825279537
 10
15.45702962000143
 20
8.100648825464929
 10
20.91923563866123
 20
8.330454959235737
 10
23.44910007674763
 20
9.709288160447783
 10
28.27884261538304
 20
9.364578959791685
 10
33.91353943899423
 20
9.594385093562493
  0
ARC
  5
24ED
330
1A
100
AcDbEntity
  8
ZUWAKU
100
AcDbCircle
 10
7.221105706573439
 20
5.882601014921831
 30
0.0
 40
2.099999999999999
100
AcDbArc
 50
0.0
 51
45.0
  0
ARC
  5
24EE
330
1A
100
AcDbEntity
  8
ZUWAKU
100
AcDbCircle
 10
7.921105706573428
 20
4.975000002244179
 30
0.0
 40
1.399999999999999
100
AcDbArc
 50
270.0
 51
0.0
  0
LINE
  5
24EF
330
1A
100
AcDbEntity
  8
ZUWAKU
100
AcDbLine
 10
6.261181466081666
 20
7.832474749074769
 30
0.0
 11
7.716080453404003
 21
6.377575761752439
 31
0.0
  0
LINE
  5
24F0
330
1A
100
AcDbEntity
  8
ZUWAKU
100
AcDbLine
 10
9.321105706573462
 20
4.975000002244179
 30
0.0
 11
9.321105706573462
 21
5.882601014921853
 31
0.0
  0
LINE
  5
24F1
330
1A
100
AcDbEntity
  8
ZUWAKU
100
AcDbLine
 10
7.921105706573428
 20
5.237500002244182
 30
0.0
 11
7.921105706573428
 21
5.882601014921853
 31
0.0
  0
ARC
  5
24F2
330
1A
100
AcDbEntity
  8
ZUWAKU
100
AcDbCircle
 10
7.658605706573439
 20
5.237500002244182
 30
0.0
 40
0.2625
100
AcDbArc
 50
270.0
 51
0.0
  0
ARC
  5
24F3
330
1A
100
AcDbEntity
  8
ZUWAKU
100
AcDbCircle
 10
7.221105706573439
 20
5.882601014921853
 30
0.0
 40
0.7
100
AcDbArc
 50
0.0
 51
45.0
  0
LINE
  5
24F4
330
1A
100
AcDbEntity
  8
ZUWAKU
100
AcDbLine
 10
5.908605706573439
 20
3.83750000224418
 30
0.0
 11
5.908605706573439
 21
4.71250000224418
 31
0.0
  0
ARC
  5
24F5
330
1A
100
AcDbEntity
  8
ZUWAKU
100
AcDbCircle
 10
6.171105706573428
 20
3.83750000224418
 30
0.0
 40
0.2625
100
AcDbArc
 50
180.0
 51
270.0
  0
ARC
  5
24F6
330
1A
100
AcDbEntity
  8
ZUWAKU
100
AcDbCircle
 10
6.171105706573428
 20
4.71250000224418
 30
0.0
 40
0.2625
100
AcDbArc
 50
90.0
 51
180.0
  0
LINE
  5
24F7
330
1A
100
AcDbEntity
  8
ZUWAKU
100
AcDbLine
 10
6.171105706573428
 20
3.575000002244181
 30
0.0
 11
7.921105706573428
 21
3.575000002244181
 31
0.0
  0
LINE
  5
24F8
330
1A
100
AcDbEntity
  8
ZUWAKU
100
AcDbLine
 10
6.171105706573428
 20
4.975000002244179
 30
0.0
 11
7.658605706573439
 21
4.975000002244179
 31
0.0
  0
LINE
  5
24F9
330
1A
100
AcDbEntity
  8
ZUWAKU
100
AcDbLine
 10
9.058605706573416
 20
11.36250000224418
 30
0.0
 11
9.058605706573416
 21
10.48750000224417
 31
0.0
  0
LINE
  5
24FA
330
1A
100
AcDbEntity
  8
ZUWAKU
100
AcDbLine
 10
7.046105706573428
 20
11.62500000224418
 30
0.0
 11
8.796105706573428
 21
11.62500000224418
 31
0.0
  0
ARC
  5
24FB
330
1A
100
AcDbEntity
  8
ZUWAKU
100
AcDbCircle
 10
7.308605706573416
 20
9.96250000224418
 30
0.0
 40
0.2625
100
AcDbArc
 50
90.0
 51
180.0
  0
LINE
  5
24FC
330
1A
100
AcDbEntity
  8
ZUWAKU
100
AcDbLine
 10
7.046105706573428
 20
9.96250000224418
 30
0.0
 11
7.046105706573428
 21
9.317398989566509
 31
0.0
  0
LINE
  5
24FD
330
1A
100
AcDbEntity
  8
ZUWAKU
100
AcDbLine
 10
8.796105706573428
 20
10.22500000224418
 30
0.0
 11
7.308605706573416
 21
10.22500000224418
 31
0.0
  0
LINE
  5
24FE
330
1A
100
AcDbEntity
  8
ZUWAKU
100
AcDbLine
 10
5.64610570657345
 20
10.22500000224418
 30
0.0
 11
5.64610570657345
 21
9.317398989566509
 31
0.0
  0
ARC
  5
24FF
330
1A
100
AcDbEntity
  8
ZUWAKU
100
AcDbCircle
 10
7.046105706573428
 20
10.22500000224418
 30
0.0
 40
1.399999999999999
100
AcDbArc
 50
90.0
 51
180.0
  0
ARC
  5
2500
330
1A
100
AcDbEntity
  8
ZUWAKU
100
AcDbCircle
 10
8.796105706573428
 20
11.36250000224418
 30
0.0
 40
0.2625
100
AcDbArc
 50
0.0
 51
90.0
  0
ARC
  5
2501
330
1A
100
AcDbEntity
  8
ZUWAKU
100
AcDbCircle
 10
8.796105706573428
 20
10.48750000224417
 30
0.0
 40
0.2625
100
AcDbArc
 50
270.0
 51
0.0
  0
LINE
  5
2502
330
1A
100
AcDbEntity
  8
ZUWAKU
100
AcDbLine
 10
8.706029947065189
 20
7.367525255413593
 30
0.0
 11
7.251130959742852
 21
8.82242424273593
 31
0.0
  0
ARC
  5
2503
330
1A
100
AcDbEntity
  8
ZUWAKU
100
AcDbCircle
 10
7.746105706573416
 20
9.31739898956653
 30
0.0
 40
0.7
100
AcDbArc
 50
180.0000000000016
 51
224.9999999999988
  0
ARC
  5
2504
330
1A
100
AcDbEntity
  8
ZUWAKU
100
AcDbCircle
 10
7.746105706573416
 20
9.31739898956653
 30
0.0
 40
2.099999999999999
100
AcDbArc
 50
180.0
 51
225.0
  0
LINE
  5
2505
330
1A
100
AcDbEntity
  8
ZUWAKU
100
AcDbLine
 10
23.4111814660817
 20
7.832474749074769
 30
0.0
 11
24.86608045340403
 21
6.377575761752439
 31
0.0
  0
LINE
  5
2506
330
1A
100
AcDbEntity
  8
ZUWAKU
100
AcDbLine
 10
19.18824876423133
 20
3.916546986327666
 30
0.0
 11
18.0250530749945
 21
7.60000000224419
 31
0.0
  0
LINE
  5
2507
330
1A
100
AcDbEntity
  8
ZUWAKU
100
AcDbLine
 10
16.32110570657346
 20
3.83750000224418
 30
0.0
 11
16.32110570657346
 21
6.637500002244181
 31
0.0
  0
LINE
  5
2508
330
1A
100
AcDbEntity
  8
ZUWAKU
100
AcDbLine
 10
17.83817317523136
 20
3.758453018160693
 30
0.0
 11
16.90403823791547
 21
6.716546986327664
 31
0.0
  0
LINE
  5
2509
330
1A
100
AcDbEntity
  8
ZUWAKU
100
AcDbLine
 10
20.34610570657343
 20
11.36250000224418
 30
0.0
 11
20.34610570657343
 21
3.83750000224418
 31
0.0
  0
LINE
  5
250A
330
1A
100
AcDbEntity
  8
ZUWAKU
100
AcDbLine
 10
21.74610570657341
 20
3.83750000224418
 30
0.0
 11
21.74610570657341
 21
11.36250000224418
 31
0.0
  0
LINE
  5
250B
330
1A
100
AcDbEntity
  8
ZUWAKU
100
AcDbLine
 10
14.92110570657342
 20
11.36250000224418
 30
0.0
 11
14.92110570657342
 21
3.83750000224418
 31
0.0
  0
LINE
  5
250C
330
1A
100
AcDbEntity
  8
ZUWAKU
100
AcDbLine
 10
11.77110570657345
 20
9.52500000224418
 30
0.0
 11
11.77110570657345
 21
5.675000002244182
 31
0.0
  0
LINE
  5
250D
330
1A
100
AcDbEntity
  8
ZUWAKU
100
AcDbLine
 10
10.37110570657341
 20
5.675000002244182
 30
0.0
 11
10.37110570657341
 21
9.525000002244158
 31
0.0
  0
LINE
  5
250E
330
1A
100
AcDbEntity
  8
ZUWAKU
100
AcDbLine
 10
15.18360570657341
 20
3.575000002244181
 30
0.0
 11
16.05860570657341
 21
3.575000002244181
 31
0.0
  0
ARC
  5
250F
330
1A
100
AcDbEntity
  8
ZUWAKU
100
AcDbCircle
 10
16.05860570657341
 20
3.83750000224418
 30
0.0
 40
0.2625
100
AcDbArc
 50
270.0
 51
0.0
  0
LINE
  5
2510
330
1A
100
AcDbEntity
  8
ZUWAKU
100
AcDbLine
 10
13.69610570657346
 20
4.71250000224418
 30
0.0
 11
13.69610570657346
 21
3.83750000224418
 31
0.0
  0
ARC
  5
2511
330
1A
100
AcDbEntity
  8
ZUWAKU
100
AcDbCircle
 10
13.43360570657341
 20
3.83750000224418
 30
0.0
 40
0.2625
100
AcDbArc
 50
270.0
 51
0.0
  0
ARC
  5
2512
330
1A
100
AcDbEntity
  8
ZUWAKU
100
AcDbCircle
 10
13.43360570657341
 20
4.71250000224418
 30
0.0
 40
0.2625
100
AcDbArc
 50
0.0
 51
90.0
  0
ARC
  5
2513
330
1A
100
AcDbEntity
  8
ZUWAKU
100
AcDbCircle
 10
15.18360570657341
 20
3.83750000224418
 30
0.0
 40
0.2625
100
AcDbArc
 50
180.0
 51
270.0
  0
ARC
  5
2514
330
1A
100
AcDbEntity
  8
ZUWAKU
100
AcDbCircle
 10
12.47110570657343
 20
5.675000002244182
 30
0.0
 40
0.7
100
AcDbArc
 50
180.0
 51
270.0
  0
ARC
  5
2515
330
1A
100
AcDbEntity
  8
ZUWAKU
100
AcDbCircle
 10
12.47110570657343
 20
5.675000002244182
 30
0.0
 40
2.099999999999999
100
AcDbArc
 50
180.0
 51
270.0
  0
LINE
  5
2516
330
1A
100
AcDbEntity
  8
ZUWAKU
100
AcDbLine
 10
12.47110570657343
 20
4.975000002244179
 30
0.0
 11
13.43360570657341
 21
4.975000002244179
 31
0.0
  0
LINE
  5
2517
330
1A
100
AcDbEntity
  8
ZUWAKU
100
AcDbLine
 10
13.43360570657341
 20
3.575000002244181
 30
0.0
 11
12.47110570657343
 21
3.575000002244181
 31
0.0
  0
LINE
  5
2518
330
1A
100
AcDbEntity
  8
ZUWAKU
100
AcDbLine
 10
23.05860570657341
 20
3.83750000224418
 30
0.0
 11
23.05860570657341
 21
4.71250000224418
 31
0.0
  0
ARC
  5
2519
330
1A
100
AcDbEntity
  8
ZUWAKU
100
AcDbCircle
 10
23.32110570657346
 20
3.83750000224418
 30
0.0
 40
0.2625
100
AcDbArc
 50
180.0
 51
270.0
  0
ARC
  5
251A
330
1A
100
AcDbEntity
  8
ZUWAKU
100
AcDbCircle
 10
21.48360570657342
 20
3.83750000224418
 30
0.0
 40
0.2625
100
AcDbArc
 50
270.0
 51
0.0
  0
ARC
  5
251B
330
1A
100
AcDbEntity
  8
ZUWAKU
100
AcDbCircle
 10
23.32110570657346
 20
4.71250000224418
 30
0.0
 40
0.2625
100
AcDbArc
 50
90.0
 51
180.0
  0
LINE
  5
251C
330
1A
100
AcDbEntity
  8
ZUWAKU
100
AcDbLine
 10
23.32110570657346
 20
4.975000002244179
 30
0.0
 11
24.80860570657341
 21
4.975000002244179
 31
0.0
  0
ARC
  5
251D
330
1A
100
AcDbEntity
  8
ZUWAKU
100
AcDbCircle
 10
20.60860570657343
 20
3.83750000224418
 30
0.0
 40
0.2625
100
AcDbArc
 50
180.0
 51
270.0
  0
LINE
  5
251E
330
1A
100
AcDbEntity
  8
ZUWAKU
100
AcDbLine
 10
18.08848862482909
 20
3.575000002244181
 30
0.0
 11
18.93793331463359
 21
3.575000002244181
 31
0.0
  0
ARC
  5
251F
330
1A
100
AcDbEntity
  8
ZUWAKU
100
AcDbCircle
 10
18.93793331463359
 20
3.83750000224418
 30
0.0
 40
0.2625
100
AcDbArc
 50
270.0
 51
17.52556837372303
  0
ARC
  5
2520
330
1A
100
AcDbEntity
  8
ZUWAKU
100
AcDbCircle
 10
18.08848862482909
 20
3.83750000224418
 30
0.0
 40
0.2625
100
AcDbArc
 50
197.525568373723
 51
270.0
  0
LINE
  5
2521
330
1A
100
AcDbEntity
  8
ZUWAKU
100
AcDbLine
 10
20.60860570657343
 20
3.575000002244181
 30
0.0
 11
21.48360570657342
 21
3.575000002244181
 31
0.0
  0
LINE
  5
2522
330
1A
100
AcDbEntity
  8
ZUWAKU
100
AcDbLine
 10
17.83817317523136
 20
11.44154698632766
 30
0.0
 11
16.90403823791547
 21
8.483453018160695
 31
0.0
  0
ARC
  5
2523
330
1A
100
AcDbEntity
  8
ZUWAKU
100
AcDbCircle
 10
16.05860570657341
 20
11.36250000224418
 30
0.0
 40
0.2625
100
AcDbArc
 50
0.0
 51
90.0
  0
LINE
  5
2524
330
1A
100
AcDbEntity
  8
ZUWAKU
100
AcDbLine
 10
16.05860570657341
 20
11.62500000224418
 30
0.0
 11
15.18360570657341
 21
11.62500000224418
 31
0.0
  0
ARC
  5
2525
330
1A
100
AcDbEntity
  8
ZUWAKU
100
AcDbCircle
 10
13.43360570657341
 20
11.36250000224418
 30
0.0
 40
0.2625
100
AcDbArc
 50
0.0
 51
90.0
  0
ARC
  5
2526
330
1A
100
AcDbEntity
  8
ZUWAKU
100
AcDbCircle
 10
15.18360570657341
 20
11.36250000224418
 30
0.0
 40
0.2625
100
AcDbArc
 50
90.0
 51
180.0
  0
ARC
  5
2527
330
1A
100
AcDbEntity
  8
ZUWAKU
100
AcDbCircle
 10
13.43360570657341
 20
10.48750000224417
 30
0.0
 40
0.2625
100
AcDbArc
 50
270.0
 51
0.0
  0
LINE
  5
2528
330
1A
100
AcDbEntity
  8
ZUWAKU
100
AcDbLine
 10
13.69610570657346
 20
11.36250000224418
 30
0.0
 11
13.69610570657346
 21
10.48750000224417
 31
0.0
  0
ARC
  5
2529
330
1A
100
AcDbEntity
  8
ZUWAKU
100
AcDbCircle
 10
16.65372278831779
 20
8.562500002244181
 30
0.0
 40
0.2625
100
AcDbArc
 50
270.0
 51
342.4744316262769
  0
LINE
  5
252A
330
1A
100
AcDbEntity
  8
ZUWAKU
100
AcDbLine
 10
16.65372278831779
 20
8.300000002244178
 30
0.0
 11
16.58360570657345
 21
8.300000002244178
 31
0.0
  0
LINE
  5
252B
330
1A
100
AcDbEntity
  8
ZUWAKU
100
AcDbLine
 10
16.58360570657345
 20
6.90000000224418
 30
0.0
 11
16.65372278831779
 21
6.90000000224418
 31
0.0
  0
ARC
  5
252C
330
1A
100
AcDbEntity
  8
ZUWAKU
100
AcDbCircle
 10
16.58360570657345
 20
8.562500002244181
 30
0.0
 40
0.2625
100
AcDbArc
 50
180.0
 51
270.0
  0
ARC
  5
252D
330
1A
100
AcDbEntity
  8
ZUWAKU
100
AcDbCircle
 10
16.65372278831779
 20
6.637500002244181
 30
0.0
 40
0.2625
100
AcDbArc
 50
17.52556837372303
 51
90.0
  0
ARC
  5
252E
330
1A
100
AcDbEntity
  8
ZUWAKU
100
AcDbCircle
 10
16.58360570657345
 20
6.637500002244181
 30
0.0
 40
0.2625
100
AcDbArc
 50
90.0
 51
180.0
  0
LINE
  5
252F
330
1A
100
AcDbEntity
  8
ZUWAKU
100
AcDbLine
 10
16.32110570657346
 20
8.562500002244181
 30
0.0
 11
16.32110570657346
 21
11.36250000224418
 31
0.0
  0
ARC
  5
2530
330
1A
100
AcDbEntity
  8
ZUWAKU
100
AcDbCircle
 10
12.47110570657343
 20
9.52500000224418
 30
0.0
 40
0.7
100
AcDbArc
 50
90.0
 51
180.0
  0
ARC
  5
2531
330
1A
100
AcDbEntity
  8
ZUWAKU
100
AcDbCircle
 10
12.47110570657343
 20
9.525000002244158
 30
0.0
 40
2.099999999999999
100
AcDbArc
 50
90.0
 51
180.0
  0
LINE
  5
2532
330
1A
100
AcDbEntity
  8
ZUWAKU
100
AcDbLine
 10
12.47110570657343
 20
11.62500000224416
 30
0.0
 11
13.43360570657341
 21
11.62500000224418
 31
0.0
  0
LINE
  5
2533
330
1A
100
AcDbEntity
  8
ZUWAKU
100
AcDbLine
 10
13.43360570657341
 20
10.22500000224418
 30
0.0
 11
12.47110570657343
 21
10.22500000224418
 31
0.0
  0
CIRCLE
  5
2534
330
1A
100
AcDbEntity
  8
ZUWAKU
100
AcDbCircle
 10
12.99610570657341
 20
7.600000002244179
 30
0.0
 40
0.875
  0
ARC
  5
2535
330
1A
100
AcDbEntity
  8
ZUWAKU
100
AcDbCircle
 10
24.45860570657345
 20
9.96250000224418
 30
0.0
 40
0.2625
100
AcDbArc
 50
90.0
 51
180.0
  0
LINE
  5
2536
330
1A
100
AcDbEntity
  8
ZUWAKU
100
AcDbLine
 10
24.19610570657346
 20
9.96250000224418
 30
0.0
 11
24.19610570657346
 21
9.317398989566509
 31
0.0
  0
ARC
  5
2537
330
1A
100
AcDbEntity
  8
ZUWAKU
100
AcDbCircle
 10
21.48360570657342
 20
11.36250000224418
 30
0.0
 40
0.2625
100
AcDbArc
 50
0.0
 51
90.0
  0
LINE
  5
2538
330
1A
100
AcDbEntity
  8
ZUWAKU
100
AcDbLine
 10
22.79610570657343
 20
10.22500000224418
 30
0.0
 11
22.79610570657343
 21
9.317398989566509
 31
0.0
  0
ARC
  5
2539
330
1A
100
AcDbEntity
  8
ZUWAKU
100
AcDbCircle
 10
24.19610570657346
 20
10.22500000224418
 30
0.0
 40
1.399999999999999
100
AcDbArc
 50
90.0
 51
180.0
  0
ARC
  5
253A
330
1A
100
AcDbEntity
  8
ZUWAKU
100
AcDbCircle
 10
20.60860570657343
 20
11.36250000224418
 30
0.0
 40
0.2625
100
AcDbArc
 50
90.0
 51
180.0
  0
LINE
  5
253B
330
1A
100
AcDbEntity
  8
ZUWAKU
100
AcDbLine
 10
18.08848862482909
 20
11.62500000224418
 30
0.0
 11
18.93793331463359
 21
11.62500000224418
 31
0.0
  0
ARC
  5
253C
330
1A
100
AcDbEntity
  8
ZUWAKU
100
AcDbCircle
 10
18.93793331463359
 20
11.36250000224418
 30
0.0
 40
0.2625
100
AcDbArc
 50
342.4744316262769
 51
90.0
  0
LINE
  5
253D
330
1A
100
AcDbEntity
  8
ZUWAKU
100
AcDbLine
 10
19.18824876423133
 20
11.28345301816069
 30
0.0
 11
18.65742894766242
 21
9.602523599025893
 31
0.0
  0
ARC
  5
253E
330
1A
100
AcDbEntity
  8
ZUWAKU
100
AcDbCircle
 10
18.08848862482909
 20
11.36250000224418
 30
0.0
 40
0.2625
100
AcDbArc
 50
90.0
 51
162.4744316262769
  0
LINE
  5
253F
330
1A
100
AcDbEntity
  8
ZUWAKU
100
AcDbLine
 10
21.48360570657342
 20
11.62500000224418
 30
0.0
 11
20.60860570657343
 21
11.62500000224418
 31
0.0
  0
ARC
  5
2540
330
1A
100
AcDbEntity
  8
ZUWAKU
100
AcDbCircle
 10
24.89610570657345
 20
9.31739898956653
 30
0.0
 40
0.7
100
AcDbArc
 50
180.0000000000016
 51
224.9999999999988
  0
ARC
  5
2541
330
1A
100
AcDbEntity
  8
ZUWAKU
100
AcDbCircle
 10
24.89610570657345
 20
9.31739898956653
 30
0.0
 40
2.099999999999999
100
AcDbArc
 50
180.0
 51
225.0
  0
LINE
  5
2542
330
1A
100
AcDbEntity
  8
ZUWAKU
100
AcDbLine
 10
18.65742894766242
 20
9.602523599025893
 30
0.0
 11
18.0250530749945
 21
7.60000000224419
 31
0.0
  0
TEXT
  5
2543
330
1A
100
AcDbEntity
  8
MOJI
100
AcDbText
 10
46.47889442326743
 20
6.370589067381558
 30
0.0
 40
3.0
  1
新・丸トップＲＶ１０５
 41
0.9
  7
ｽﾀｲﾙ1
100
AcDbText
  0
ARC
  5
2544
330
1A
100
AcDbEntity
  8
ZUWAKU
100
AcDbCircle
 10
24.37110570657341
 20
5.882601014921831
 30
0.0
 40
2.099999999999999
100
AcDbArc
 50
0.0
 51
45.0
  0
LINE
  5
2545
330
1A
100
AcDbEntity
  8
ZUWAKU
100
AcDbLine
 10
39.66331440317697
 20
15.00000000224417
 30
0.0
 11
39.66331440317708
 21
0.4000000022442123
 31
0.0
  0
LINE
  5
2546
330
1A
100
AcDbEntity
  8
ZUWAKU
100
AcDbLine
 10
39.76331440317699
 20
15.00000000224417
 30
0.0
 11
39.7633144031771
 21
0.4000000022442123
 31
0.0
  0
LINE
  5
2547
330
1A
100
AcDbEntity
  8
ZUWAKU
100
AcDbLine
 10
39.56331440317706
 20
15.00000000224417
 30
0.0
 11
39.56331440317706
 21
0.4000000022442123
 31
0.0
  0
LINE
  5
2548
330
1A
100
AcDbEntity
  8
ZUWAKU
100
AcDbLine
 10
32.07110570657346
 20
4.975000002244179
 30
0.0
 11
32.07110570657346
 21
11.36250000224418
 31
0.0
  0
LINE
  5
2549
330
1A
100
AcDbEntity
  8
ZUWAKU
100
AcDbLine
 10
30.67110570657343
 20
11.36250000224418
 30
0.0
 11
30.67110570657343
 21
5.500000002244178
 31
0.0
  0
LINE
  5
254A
330
1A
100
AcDbEntity
  8
ZUWAKU
100
AcDbLine
 10
34.52110570657345
 20
3.83750000224418
 30
0.0
 11
34.52110570657345
 21
11.36250000224418
 31
0.0
  0
LINE
  5
254B
330
1A
100
AcDbEntity
  8
ZUWAKU
100
AcDbLine
 10
33.12110570657341
 20
11.36250000224418
 30
0.0
 11
33.12110570657341
 21
3.83750000224418
 31
0.0
  0
LINE
  5
254C
330
1A
100
AcDbEntity
  8
ZUWAKU
100
AcDbLine
 10
27.52110570657345
 20
11.36250000224418
 30
0.0
 11
27.52110570657345
 21
4.975000002244179
 31
0.0
  0
LINE
  5
254D
330
1A
100
AcDbEntity
  8
ZUWAKU
100
AcDbLine
 10
28.92110570657342
 20
5.500000002244178
 30
0.0
 11
28.92110570657342
 21
11.36250000224418
 31
0.0
  0
ARC
  5
254E
330
1A
100
AcDbEntity
  8
ZUWAKU
100
AcDbCircle
 10
30.14610570657345
 20
5.500000002244178
 30
0.0
 40
0.525
100
AcDbArc
 50
270.0
 51
0.0
  0
ARC
  5
254F
330
1A
100
AcDbEntity
  8
ZUWAKU
100
AcDbCircle
 10
30.67110570657343
 20
4.975000002244179
 30
0.0
 40
1.399999999999999
100
AcDbArc
 50
270.0
 51
0.0
  0
LINE
  5
2550
330
1A
100
AcDbEntity
  8
ZUWAKU
100
AcDbLine
 10
26.47110570657344
 20
4.975000002244179
 30
0.0
 11
26.47110570657344
 21
5.882601014921853
 31
0.0
  0
ARC
  5
2551
330
1A
100
AcDbEntity
  8
ZUWAKU
100
AcDbCircle
 10
29.44610570657346
 20
5.500000002244178
 30
0.0
 40
0.525
100
AcDbArc
 50
180.0
 51
270.0
  0
LINE
  5
2552
330
1A
100
AcDbEntity
  8
ZUWAKU
100
AcDbLine
 10
25.07110570657346
 20
5.237500002244182
 30
0.0
 11
25.07110570657346
 21
5.882601014921853
 31
0.0
  0
ARC
  5
2553
330
1A
100
AcDbEntity
  8
ZUWAKU
100
AcDbCircle
 10
28.92110570657342
 20
4.975000002244179
 30
0.0
 40
1.399999999999999
100
AcDbArc
 50
180.0
 51
270.0
  0
ARC
  5
2554
330
1A
100
AcDbEntity
  8
ZUWAKU
100
AcDbCircle
 10
25.07110570657346
 20
4.975000002244179
 30
0.0
 40
1.399999999999999
100
AcDbArc
 50
270.0
 51
0.0
  0
LINE
  5
2555
330
1A
100
AcDbEntity
  8
ZUWAKU
100
AcDbLine
 10
30.14610570657345
 20
4.975000002244179
 30
0.0
 11
29.44610570657346
 21
4.975000002244179
 31
0.0
  0
LINE
  5
2556
330
1A
100
AcDbEntity
  8
ZUWAKU
100
AcDbLine
 10
28.92110570657342
 20
3.575000002244181
 30
0.0
 11
30.67110570657343
 21
3.575000002244181
 31
0.0
  0
ARC
  5
2557
330
1A
100
AcDbEntity
  8
ZUWAKU
100
AcDbCircle
 10
34.25860570657346
 20
3.83750000224418
 30
0.0
 40
0.2625
100
AcDbArc
 50
270.0
 51
0.0
  0
ARC
  5
2558
330
1A
100
AcDbEntity
  8
ZUWAKU
100
AcDbCircle
 10
33.38360570657346
 20
3.83750000224418
 30
0.0
 40
0.2625
100
AcDbArc
 50
180.0
 51
270.0
  0
LINE
  5
2559
330
1A
100
AcDbEntity
  8
ZUWAKU
100
AcDbLine
 10
33.38360570657346
 20
3.575000002244181
 30
0.0
 11
34.25860570657346
 21
3.575000002244181
 31
0.0
  0
ARC
  5
255A
330
1A
100
AcDbEntity
  8
ZUWAKU
100
AcDbCircle
 10
31.80860570657341
 20
11.36250000224418
 30
0.0
 40
0.2625
100
AcDbArc
 50
0.0
 51
90.0
  0
LINE
  5
255B
330
1A
100
AcDbEntity
  8
ZUWAKU
100
AcDbLine
 10
31.80860570657341
 20
11.62500000224418
 30
0.0
 11
30.93360570657341
 21
11.62500000224418
 31
0.0
  0
ARC
  5
255C
330
1A
100
AcDbEntity
  8
ZUWAKU
100
AcDbCircle
 10
30.93360570657341
 20
11.36250000224418
 30
0.0
 40
0.2625
100
AcDbArc
 50
90.0
 51
180.0
  0
ARC
  5
255D
330
1A
100
AcDbEntity
  8
ZUWAKU
100
AcDbCircle
 10
28.65860570657344
 20
11.36250000224418
 30
0.0
 40
0.2625
100
AcDbArc
 50
0.0
 51
90.0
  0
ARC
  5
255E
330
1A
100
AcDbEntity
  8
ZUWAKU
100
AcDbCircle
 10
27.78360570657344
 20
11.36250000224418
 30
0.0
 40
0.2625
100
AcDbArc
 50
90.0
 51
180.0
  0
LINE
  5
255F
330
1A
100
AcDbEntity
  8
ZUWAKU
100
AcDbLine
 10
28.65860570657344
 20
11.62500000224418
 30
0.0
 11
27.78360570657344
 21
11.62500000224418
 31
0.0
  0
ARC
  5
2560
330
1A
100
AcDbEntity
  8
ZUWAKU
100
AcDbCircle
 10
25.94610570657346
 20
11.36250000224418
 30
0.0
 40
0.2625
100
AcDbArc
 50
0.0
 51
90.0
  0
ARC
  5
2561
330
1A
100
AcDbEntity
  8
ZUWAKU
100
AcDbCircle
 10
25.94610570657346
 20
10.48750000224417
 30
0.0
 40
0.2625
100
AcDbArc
 50
270.0
 51
0.0
  0
LINE
  5
2562
330
1A
100
AcDbEntity
  8
ZUWAKU
100
AcDbLine
 10
26.20860570657345
 20
11.36250000224418
 30
0.0
 11
26.20860570657345
 21
10.48750000224417
 31
0.0
  0
ARC
  5
2563
330
1A
100
AcDbEntity
  8
ZUWAKU
100
AcDbCircle
 10
34.25860570657346
 20
11.36250000224418
 30
0.0
 40
0.2625
100
AcDbArc
 50
0.0
 51
90.0
  0
ARC
  5
2564
330
1A
100
AcDbEntity
  8
ZUWAKU
100
AcDbCircle
 10
33.38360570657346
 20
11.36250000224418
 30
0.0
 40
0.2625
100
AcDbArc
 50
90.0
 51
180.0
  0
LINE
  5
2565
330
1A
100
AcDbEntity
  8
ZUWAKU
100
AcDbLine
 10
34.25860570657346
 20
11.62500000224418
 30
0.0
 11
33.38360570657346
 21
11.62500000224418
 31
0.0
  0
TEXT
  5
2566
330
1A
100
AcDbEntity
  8
ZUWAKU
100
AcDbText
 10
104.8620227853216
 20
4.827678271436987
 30
0.0
 40
2.0
  1
サイズ
 41
0.9
  7
ｽﾀｲﾙ1
100
AcDbText
  0
LINE
  5
2567
330
1A
100
AcDbEntity
  8
ZUWAKU
100
AcDbLine
 10
104.1233002742168
 20
15.00000000224417
 30
0.0
 11
104.1233002742168
 21
0.4000000022442123
 31
0.0
  0
LINE
  5
2568
330
1A
100
AcDbEntity
  8
ZUWAKU
100
AcDbLine
 10
104.3233002742167
 20
15.00000000224417
 30
0.0
 11
104.3233002742168
 21
0.4000000022442123
 31
0.0
  0
LINE
  5
2569
330
1A
100
AcDbEntity
  8
ZUWAKU
100
AcDbLine
 10
104.2233002742167
 20
15.00000000224417
 30
0.0
 11
104.2233002742168
 21
0.4000000022442123
 31
0.0
  0
TEXT
  5
256A
330
1A
100
AcDbEntity
  8
ZUWAKU
100
AcDbText
 10
104.8620227853215
 20
12.02767827143697
 30
0.0
 40
2.0
  1
品名
 41
0.9
  7
ｽﾀｲﾙ1
100
AcDbText
  0
TEXT
  5
256B
330
1A
100
AcDbEntity
  8
MOJI
100
AcDbText
 10
119.9136009696084
 20
1.602460530947888
 30
0.0
 40
2.799999999999999
  1
ＲＶ１０５－Ｌ１７０
 41
0.9
  7
ｽﾀｲﾙ1
100
AcDbText
  0
LINE
  5
256C
330
1A
100
AcDbEntity
  8
ZUWAKU
100
AcDbLine
 10
252.5995893782533
 20
7.600000002244197
 30
0.0
 11
276.263477512239
 21
7.600000002244197
 31
0.0
  0
LINE
  5
256D
330
1A
100
AcDbEntity
  8
ZUWAKU
100
AcDbLine
 10
252.5995893782533
 20
7.700000002244195
 30
0.0
 11
276.263477512239
 21
7.700000002244195
 31
0.0
  0
LINE
  5
256E
330
1A
100
AcDbEntity
  8
ZUWAKU
100
AcDbLine
 10
252.5995893782533
 20
7.800000002244194
 30
0.0
 11
276.263477512239
 21
7.800000002244194
 31
0.0
  0
TEXT
  5
256F
330
1A
100
AcDbEntity
  8
MOJI
100
AcDbText
 10
231.2836387901771
 20
5.97130886307417
 30
0.0
 40
2.799999999999999
  1
ＬＪ４４Ｇ
 41
0.9
  7
ｽﾀｲﾙ1
100
AcDbText
  0
TEXT
  5
2570
330
1A
100
AcDbEntity
  8
ZUWAKU
100
AcDbText
 10
224.6509041257833
 20
12.02767827143697
 30
0.0
 40
2.0
  1
品番
 41
0.9
  7
ｽﾀｲﾙ1
100
AcDbText
  0
LINE
  5
2571
330
1A
100
AcDbEntity
  8
ZUWAKU
100
AcDbLine
 10
223.8121816146784
 20
15.00000000224417
 30
0.0
 11
223.8121816146786
 21
0.4000000022442123
 31
0.0
  0
LINE
  5
2572
330
1A
100
AcDbEntity
  8
ZUWAKU
100
AcDbLine
 10
223.9121816146785
 20
15.00000000224417
 30
0.0
 11
223.9121816146786
 21
0.4000000022442123
 31
0.0
  0
LINE
  5
2573
330
1A
100
AcDbEntity
  8
ZUWAKU
100
AcDbLine
 10
223.7121816146785
 20
15.00000000224417
 30
0.0
 11
223.7121816146785
 21
0.4000000022442123
 31
0.0
  0
TEXT
  5
2574
330
1A
100
AcDbEntity
  8
ZUWAKU
100
AcDbText
 10
253.3383118893582
 20
4.827678271436987
 30
0.0
 40
2.0
  1
縮尺
 41
0.9
  7
ｽﾀｲﾙ1
100
AcDbText
  0
LINE
  5
2575
330
1A
100
AcDbEntity
  8
ZUWAKU
100
AcDbLine
 10
252.4995893782532
 20
15.00000000224417
 30
0.0
 11
252.4995893782534
 21
0.4000000022442123
 31
0.0
  0
LINE
  5
2576
330
1A
100
AcDbEntity
  8
ZUWAKU
100
AcDbLine
 10
252.5995893782533
 20
15.00000000224417
 30
0.0
 11
252.5995893782534
 21
0.4000000022442123
 31
0.0
  0
LINE
  5
2577
330
1A
100
AcDbEntity
  8
ZUWAKU
100
AcDbLine
 10
252.3995893782533
 20
15.00000000224417
 30
0.0
 11
252.3995893782533
 21
0.4000000022442123
 31
0.0
  0
TEXT
  5
2578
330
1A
100
AcDbEntity
  8
ZUWAKU
100
AcDbText
 10
253.3383118893581
 20
12.02767827143697
 30
0.0
 40
2.0
  1
用紙
 41
0.9
  7
ｽﾀｲﾙ1
100
AcDbText
  0
TEXT
  5
2579
330
1A
100
AcDbEntity
  8
MOJI
100
AcDbText
 10
264.0204536153393
 20
1.602460530947888
 30
0.0
 40
2.799999999999999
  1
１/１
 41
0.9
  7
ｽﾀｲﾙ1
100
AcDbText
  0
TEXT
  5
257A
330
1A
100
AcDbEntity
  8
MOJI
100
AcDbText
 10
264.0204536153393
 20
9.002460530947871
 30
0.0
 40
2.799999999999999
  1
Ａ３
 41
0.9
  7
ｽﾀｲﾙ1
100
AcDbText
  0
LINE
  5
257B
330
1A
100
AcDbEntity
  8
ZUWAKU
100
AcDbLine
 10
324.4086008842849
 20
7.600000002244193
 30
0.0
 11
348.6245049034534
 21
7.600000002244195
 31
0.0
  0
LINE
  5
257C
330
1A
100
AcDbEntity
  8
ZUWAKU
100
AcDbLine
 10
324.408600884285
 20
7.700000002244197
 30
0.0
 11
348.6245049034534
 21
7.700000002244195
 31
0.0
  0
LINE
  5
257D
330
1A
100
AcDbEntity
  8
ZUWAKU
100
AcDbLine
 10
324.4086008842849
 20
7.800000002244194
 30
0.0
 11
348.6245049034534
 21
7.800000002244194
 31
0.0
  0
TEXT
  5
257E
330
1A
100
AcDbEntity
  8
ZUWAKU
100
AcDbText
 10
329.101968472834
 20
9.002460530947871
 30
0.0
 40
2.799999999999999
  1
　　．　　．　　
 41
0.9
  7
ｽﾀｲﾙ1
100
AcDbText
  0
LINE
  5
257F
330
1A
100
AcDbEntity
  8
ZUWAKU
100
AcDbLine
 10
276.3634775122389
 20
15.00000000224417
 30
0.0
 11
276.3634775122391
 21
0.4000000022442123
 31
0.0
  0
LINE
  5
2580
330
1A
100
AcDbEntity
  8
ZUWAKU
100
AcDbLine
 10
276.463477512239
 20
15.00000000224417
 30
0.0
 11
276.4634775122391
 21
0.4000000022442123
 31
0.0
  0
LINE
  5
2581
330
1A
100
AcDbEntity
  8
ZUWAKU
100
AcDbLine
 10
276.263477512239
 20
15.00000000224417
 30
0.0
 11
276.263477512239
 21
0.4000000022442123
 31
0.0
  0
LINE
  5
2582
330
1A
100
AcDbEntity
  8
ZUWAKU
100
AcDbLine
 10
324.308600884285
 20
15.00000000224417
 30
0.0
 11
324.3086008842851
 21
0.4000000022442123
 31
0.0
  0
LINE
  5
2583
330
1A
100
AcDbEntity
  8
ZUWAKU
100
AcDbLine
 10
324.408600884285
 20
15.00000000224417
 30
0.0
 11
324.4086008842852
 21
0.4000000022442123
 31
0.0
  0
LINE
  5
2584
330
1A
100
AcDbEntity
  8
ZUWAKU
100
AcDbLine
 10
324.2086008842851
 20
15.00000000224417
 30
0.0
 11
324.2086008842851
 21
0.4000000022442123
 31
0.0
  0
TEXT
  5
2585
330
1A
100
AcDbEntity
  8
ZUWAKU
100
AcDbText
 10
325.1473233953898
 20
12.02767827143697
 30
0.0
 40
2.0
  1
DATE
 41
0.9
  7
ｽﾀｲﾙ1
100
AcDbText
  0
TEXT
  5
2586
330
1A
100
AcDbEntity
  8
ZUWAKU
100
AcDbText
 10
354.2640417253047
 20
3.324420159171211
 30
0.0
 40
3.0
  1
建材事業部
 41
0.9
  7
ｽﾀｲﾙ1
100
AcDbText
  0
TEXT
  5
2587
330
1A
100
AcDbEntity
  8
ZUWAKU
100
AcDbText
 10
354.2640417253047
 20
8.776919670087579
 30
0.0
 40
3.0
  1
積水化学工業株式会社
 41
0.9
  7
ｽﾀｲﾙ1
100
AcDbText
  0
LINE
  5
2588
330
1A
100
AcDbEntity
  8
ZUWAKU
100
AcDbLine
 10
348.6245049034534
 20
15.00000000224417
 30
0.0
 11
348.6245049034534
 21
0.4000000022442123
 31
0.0
  0
LINE
  5
2589
330
1A
100
AcDbEntity
  8
ZUWAKU
100
AcDbLine
 10
348.7245049034535
 20
15.00000000224417
 30
0.0
 11
348.7245049034535
 21
0.4000000022442123
 31
0.0
  0
LINE
  5
258A
330
1A
100
AcDbEntity
  8
ZUWAKU
100
AcDbLine
 10
348.8245049034534
 20
15.00000000224417
 30
0.0
 11
348.8245049034535
 21
0.4000000022442123
 31
0.0
  0
LINE
  5
258B
330
1A
100
AcDbEntity
  8
ZUWAKU
100
AcDbLine
 10
348.9245049034534
 20
15.00000000224417
 30
0.0
 11
348.9245049034535
 21
0.4000000022442123
 31
0.0
  0
VIEWPORT
  5
22
330
17
100
AcDbEntity
 67
     1
  8
0
100
AcDbViewport
 10
313.6808219178082
 20
148.5
 30
0.0
 40
627.3616438356165
 41
297.0
 68
     2
 69
     1
1001
ACAD
1000
MVIEW
1002
{
1070
    16
1010
0.0
1020
0.0
1030
0.0
1010
0.0
1020
0.0
1030
1.0
1040
0.0
1040
297.0
1040
313.6808219178082
1040
148.5
1040
50.0
1040
0.0
1040
0.0
1070
     0
1070
   100
1070
     1
1070
     0
1070
     0
1070
     0
1070
     0
1070
     0
1040
0.0
1040
0.0
1040
0.0
1040
1.0
1040
1.0
1040
10.0
1040
10.0
1070
     0
1002
{
1002
}
1002
}
  0
VIEWPORT
  5
64
330
17
100
AcDbEntity
 67
     1
  8
VIEWPORT
100
AcDbViewport
 10
210.0
 20
148.5
 30
0.0
 40
420.0
 41
297.0
 68
     1
 69
     2
1001
ACAD
1000
MVIEW
1002
{
1070
    16
1010
0.0
1020
0.0
1030
0.0
1010
0.0
1020
0.0
1030
1.0
1040
0.0
1040
302.9399999999998
1040
210.0
1040
148.5
1040
50.0
1040
0.0
1040
0.0
1070
     0
1070
   100
1070
     1
1070
     0
1070
     0
1070
     0
1070
     0
1070
     0
1040
0.0
1040
0.0
1040
0.0
1040
5.0
1040
5.0
1040
0.0
1040
0.0
1070
     0
1002
{
1002
}
1002
}
  0
ENDSEC
  0
SECTION
  2
OBJECTS
  0
DICTIONARY
  5
C
330
0
100
AcDbDictionary
  3
ACAD_GROUP
350
D
  3
ACAD_LAYOUT
350
141
  3
ACAD_MLINESTYLE
350
E
  3
ACAD_PLOTSETTINGS
350
142
  3
ACAD_PLOTSTYLENAME
350
13F
  3
ACADDIM
350
1A14
  3
ACDBVARIABLEDICTIONARY
350
120D
  3
ACDBHEADERROUNDTRIPXREC
350
2593
  0
DICTIONARY
  5
7A2
330
1A
100
AcDbDictionary
280
     1
  3
ACAD_LAYOUTSELFREF
360
25B5
  0
DICTIONARY
  5
7A0
330
17
100
AcDbDictionary
280
     1
  3
ACAD_LAYOUTSELFREF
360
25B4
  0
DICTIONARY
  5
D
102
{ACAD_REACTORS
330
C
102
}
330
C
100
AcDbDictionary
  0
DICTIONARY
  5
141
102
{ACAD_REACTORS
330
C
102
}
330
C
100
AcDbDictionary
  0
DICTIONARY
  5
E
102
{ACAD_REACTORS
330
C
102
}
330
C
100
AcDbDictionary
  3
STANDARD
350
13
  0
DICTIONARY
  5
142
102
{ACAD_REACTORS
330
C
102
}
330
C
100
AcDbDictionary
  0
ACDBDICTIONARYWDFLT
  5
13F
102
{ACAD_REACTORS
330
C
102
}
330
C
100
AcDbDictionary
281
     1
  3
Normal
350
140
100
AcDbDictionaryWithDefault
340
140
1001
ACAD
1000
TREAT_AS_HARD
1070
     0
1000
TREAT_AS_HARD
1070
     0
1000
TREAT_AS_HARD
1070
     0
1000
TREAT_AS_HARD
1070
     0
1000
TREAT_AS_HARD
1070
     0
1000
TREAT_AS_HARD
1070
     0
1000
TREAT_AS_HARD
1070
     0
1000
TREAT_AS_HARD
1070
     0
1000
TREAT_AS_HARD
1070
     0
1000
TREAT_AS_HARD
1070
     0
  0
XRECORD
  5
1A14
102
{ACAD_REACTORS
330
C
102
}
330
C
100
AcDbXrecord
 90
   990106
  3

 60
     0
 61
     0
 62
     1
 63
     3
 64
     0
 65
     0
 66
     0
 67
     3
 68
     1
 69
     0
 70
     0
 71
     0
 72
     0
 40
0.0
170
     0
340
0
  0
DICTIONARY
  5
120D
102
{ACAD_REACTORS
330
C
102
}
330
C
100
AcDbDictionary
  3
SORTENTS
350
120E
  0
DICTIONARY
  5
2593
102
{ACAD_REACTORS
330
C
102
}
330
C
100
AcDbDictionary
  3
TSTACKALIGN
350
2594
  3
TSTACKSIZE
350
2595
  3
HYPERLINKBASE
350
2596
  3
STYLESHEET
350
2597
  3
LAYOUTDICT
350
2598
  3
PLOTSETDICT
350
2599
  3
PLOTSTYLNAMDICT
350
259A
  3
LWETCUNION
350
259B
  3
INSUNITS
350
259C
  3
CEPSNTYPE
350
259D
  3
FINGERPRINTGUID
350
259E
  3
VERSIONGUID
350
259F
  3
PSVPSCALE
350
25A0
  3
DIMSTYLEDATA
350
25A1
  3
PUCSORTHOREF
350
25A2
  3
PUCSORTHOVIEW
350
25A3
  3
PUCSBASE
350
25A4
  3
PUCSORGTOP
350
25A5
  3
PUCSORGBOTTOM
350
25A6
  3
PUCSORGLEFT
350
25A7
  3
PUCSORGRIGHT
350
25A8
  3
PUCSORGFRONT
350
25A9
  3
PUCSORGBACK
350
25AA
  3
UCSORTHOREF
350
25AB
  3
UCSORTHOVIEW
350
25AC
  3
UCSBASE
350
25AD
  3
UCSORGTOP
350
25AE
  3
UCSORGBOTTOM
350
25AF
  3
UCSORGLEFT
350
25B0
  3
UCSORGRIGHT
350
25B1
  3
UCSORGFRONT
350
25B2
  3
UCSORGBACK
350
25B3
  0
XRECORD
  5
25B5
102
{ACAD_REACTORS
330
7A2
102
}
330
7A2
100
AcDbXrecord
340
1A
  0
XRECORD
  5
25B4
102
{ACAD_REACTORS
330
7A0
102
}
330
7A0
100
AcDbXrecord
340
17
  0
MLINESTYLE
  5
13
102
{ACAD_REACTORS
330
E
102
}
330
E
100
AcDbMlineStyle
  2
STANDARD
 70
     0
  3

 62
     0
 51
90.0
 52
90.0
 71
     2
 49
0.5
 62
   256
  6
BYLAYER
 49
-0.5
 62
   256
  6
BYLAYER
  0
ACDBPLACEHOLDER
  5
140
102
{ACAD_REACTORS
330
13F
102
}
330
13F
100
AcDbPlaceHolder
280
     0
  0
DICTIONARYVAR
  5
120E
102
{ACAD_REACTORS
330
120D
102
}
330
120D
100
DictionaryVariables
280
     0
  1
96
  0
XRECORD
  5
2594
102
{ACAD_REACTORS
330
2593
102
}
330
2593
100
AcDbXrecord
 90
        1
  0
XRECORD
  5
2595
102
{ACAD_REACTORS
330
2593
102
}
330
2593
100
AcDbXrecord
 90
       70
  0
XRECORD
  5
2596
102
{ACAD_REACTORS
330
2593
102
}
330
2593
100
AcDbXrecord
  1

  0
XRECORD
  5
2597
102
{ACAD_REACTORS
330
2593
102
}
330
2593
100
AcDbXrecord
  1
systemprinter.ctb
  0
XRECORD
  5
2598
102
{ACAD_REACTORS
330
2593
102
}
330
2593
100
AcDbXrecord
340
141
  0
XRECORD
  5
2599
102
{ACAD_REACTORS
330
2593
102
}
330
2593
100
AcDbXrecord
340
142
  0
XRECORD
  5
259A
102
{ACAD_REACTORS
330
2593
102
}
330
2593
100
AcDbXrecord
340
13F
  0
XRECORD
  5
259B
102
{ACAD_REACTORS
330
2593
102
}
330
2593
100
AcDbXrecord
 90
    10781
  0
XRECORD
  5
259C
102
{ACAD_REACTORS
330
2593
102
}
330
2593
100
AcDbXrecord
 90
        0
  0
XRECORD
  5
259D
102
{ACAD_REACTORS
330
2593
102
}
330
2593
100
AcDbXrecord
 90
        0
  0
XRECORD
  5
259E
102
{ACAD_REACTORS
330
2593
102
}
330
2593
100
AcDbXrecord
  1
{4E8D0500-CDD1-11D3-932C-444553540000}
  0
XRECORD
  5
259F
102
{ACAD_REACTORS
330
2593
102
}
330
2593
100
AcDbXrecord
  1
{0F2D8356-93F9-4D62-9E16-DAC8863C39D7}
  0
XRECORD
  5
25A0
102
{ACAD_REACTORS
330
2593
102
}
330
2593
100
AcDbXrecord
 40
0.0
  0
XRECORD
  5
25A1
102
{ACAD_REACTORS
330
2593
102
}
330
2593
100
AcDbXrecord
1000
DSTYLE
1002
{
1070
   341
340
B2
1070
   343
340
B2
1070
   344
340
B2
1070
   371
 70
    -1
1070
   372
 70
    -1
1002
}
  0
XRECORD
  5
25A2
102
{ACAD_REACTORS
330
2593
102
}
330
2593
100
AcDbXrecord
340
0
  0
XRECORD
  5
25A3
102
{ACAD_REACTORS
330
2593
102
}
330
2593
100
AcDbXrecord
 70
     0
  0
XRECORD
  5
25A4
102
{ACAD_REACTORS
330
2593
102
}
330
2593
100
AcDbXrecord
340
0
  0
XRECORD
  5
25A5
102
{ACAD_REACTORS
330
2593
102
}
330
2593
100
AcDbXrecord
 10
0.0
 20
0.0
 30
0.0
  0
XRECORD
  5
25A6
102
{ACAD_REACTORS
330
2593
102
}
330
2593
100
AcDbXrecord
 10
0.0
 20
0.0
 30
0.0
  0
XRECORD
  5
25A7
102
{ACAD_REACTORS
330
2593
102
}
330
2593
100
AcDbXrecord
 10
0.0
 20
0.0
 30
0.0
  0
XRECORD
  5
25A8
102
{ACAD_REACTORS
330
2593
102
}
330
2593
100
AcDbXrecord
 10
0.0
 20
0.0
 30
0.0
  0
XRECORD
  5
25A9
102
{ACAD_REACTORS
330
2593
102
}
330
2593
100
AcDbXrecord
 10
0.0
 20
0.0
 30
0.0
  0
XRECORD
  5
25AA
102
{ACAD_REACTORS
330
2593
102
}
330
2593
100
AcDbXrecord
 10
0.0
 20
0.0
 30
0.0
  0
XRECORD
  5
25AB
102
{ACAD_REACTORS
330
2593
102
}
330
2593
100
AcDbXrecord
340
0
  0
XRECORD
  5
25AC
102
{ACAD_REACTORS
330
2593
102
}
330
2593
100
AcDbXrecord
 70
     0
  0
XRECORD
  5
25AD
102
{ACAD_REACTORS
330
2593
102
}
330
2593
100
AcDbXrecord
340
0
  0
XRECORD
  5
25AE
102
{ACAD_REACTORS
330
2593
102
}
330
2593
100
AcDbXrecord
 10
0.0
 20
0.0
 30
0.0
  0
XRECORD
  5
25AF
102
{ACAD_REACTORS
330
2593
102
}
330
2593
100
AcDbXrecord
 10
0.0
 20
0.0
 30
0.0
  0
XRECORD
  5
25B0
102
{ACAD_REACTORS
330
2593
102
}
330
2593
100
AcDbXrecord
 10
0.0
 20
0.0
 30
0.0
  0
XRECORD
  5
25B1
102
{ACAD_REACTORS
330
2593
102
}
330
2593
100
AcDbXrecord
 10
0.0
 20
0.0
 30
0.0
  0
XRECORD
  5
25B2
102
{ACAD_REACTORS
330
2593
102
}
330
2593
100
AcDbXrecord
 10
0.0
 20
0.0
 30
0.0
  0
XRECORD
  5
25B3
102
{ACAD_REACTORS
330
2593
102
}
330
2593
100
AcDbXrecord
 10
0.0
 20
0.0
 30
0.0
  0
ENDSEC
  0
EOF
