  0
SECTION
  2
HEADER
  9
$ACADVER
  1
AC1014
  9
$ACADMAINTVER
 70
     9
  9
$DWGCODEPAGE
  3
ANSI_932
  9
$INSBASE
 10
0.0
 20
0.0
 30
0.0
  9
$EXTMIN
 10
-0.0128167757670781
 20
-0.0090630292066862
 30
-0.0015258207003583
  9
$EXTMAX
 10
398.8000497626164
 20
275.8226172440017
 30
0.0000000349246037
  9
$LIMMIN
 10
0.0
 20
0.0
  9
$LIMMAX
 10
420.0
 20
297.0
  9
$ORTHOMODE
 70
     1
  9
$REGENMODE
 70
     1
  9
$FILLMODE
 70
     1
  9
$QTEXTMODE
 70
     0
  9
$MIRRTEXT
 70
     1
  9
$DRAGMODE
 70
     2
  9
$LTSCALE
 40
5.0
  9
$OSMODE
 70
    35
  9
$ATTMODE
 70
     1
  9
$TEXTSIZE
 40
3.0
  9
$TRACEWID
 40
1.0
  9
$TEXTSTYLE
  7
STANDARD
  9
$CLAYER
  8
SEIHIN
  9
$CELTYPE
  6
BYLAYER
  9
$CECOLOR
 62
   256
  9
$CELTSCALE
 40
1.0
  9
$DELOBJ
 70
     1
  9
$DISPSILH
 70
     0
  9
$DIMSCALE
 40
1.0
  9
$DIMASZ
 40
3.0
  9
$DIMEXO
 40
3.0
  9
$DIMDLI
 40
7.0
  9
$DIMRND
 40
0.0
  9
$DIMDLE
 40
0.0
  9
$DIMEXE
 40
1.5
  9
$DIMTP
 40
0.0
  9
$DIMTM
 40
0.0
  9
$DIMTXT
 40
3.0
  9
$DIMCEN
 40
3.0
  9
$DIMTSZ
 40
0.0
  9
$DIMTOL
 70
     0
  9
$DIMLIM
 70
     0
  9
$DIMTIH
 70
     0
  9
$DIMTOH
 70
     0
  9
$DIMSE1
 70
     0
  9
$DIMSE2
 70
     0
  9
$DIMTAD
 70
     3
  9
$DIMZIN
 70
     0
  9
$DIMBLK
  1

  9
$DIMASO
 70
     1
  9
$DIMSHO
 70
     1
  9
$DIMPOST
  1

  9
$DIMAPOST
  1

  9
$DIMALT
 70
     0
  9
$DIMALTD
 70
     2
  9
$DIMALTF
 40
25.4
  9
$DIMLFAC
 40
1.0
  9
$DIMTOFL
 70
     1
  9
$DIMTVP
 40
0.0
  9
$DIMTIX
 70
     0
  9
$DIMSOXD
 70
     0
  9
$DIMSAH
 70
     1
  9
$DIMBLK1
  1
OPEN
  9
$DIMBLK2
  1
OPEN
  9
$DIMSTYLE
  2
STANDARD
  9
$DIMCLRD
 70
   256
  9
$DIMCLRE
 70
   256
  9
$DIMCLRT
 70
   256
  9
$DIMTFAC
 40
1.0
  9
$DIMGAP
 40
1.0
  9
$DIMJUST
 70
     0
  9
$DIMSD1
 70
     0
  9
$DIMSD2
 70
     0
  9
$DIMTOLJ
 70
     1
  9
$DIMTZIN
 70
     0
  9
$DIMALTZ
 70
     0
  9
$DIMALTTZ
 70
     0
  9
$DIMFIT
 70
     3
  9
$DIMUPT
 70
     0
  9
$DIMUNIT
 70
     2
  9
$DIMDEC
 70
     0
  9
$DIMTDEC
 70
     0
  9
$DIMALTU
 70
     2
  9
$DIMALTTD
 70
     2
  9
$DIMTXSTY
  7
STANDARD
  9
$DIMAUNIT
 70
     0
  9
$LUNITS
 70
     2
  9
$LUPREC
 70
     4
  9
$SKETCHINC
 40
1.0
  9
$FILLETRAD
 40
0.5
  9
$AUNITS
 70
     0
  9
$AUPREC
 70
     0
  9
$MENU
  1
.
  9
$ELEVATION
 40
0.0
  9
$PELEVATION
 40
0.0
  9
$THICKNESS
 40
0.0
  9
$LIMCHECK
 70
     0
  9
$BLIPMODE
 70
     0
  9
$CHAMFERA
 40
10.0
  9
$CHAMFERB
 40
10.0
  9
$CHAMFERC
 40
20.0
  9
$CHAMFERD
 40
0.0
  9
$SKPOLY
 70
     0
  9
$TDCREATE
 40
2451589.469382176
  9
$TDUPDATE
 40
2453805.463897384
  9
$TDINDWG
 40
0.2280999537
  9
$TDUSRTIMER
 40
0.2280999537
  9
$USRTIMER
 70
     1
  9
$ANGBASE
 50
0.0
  9
$ANGDIR
 70
     0
  9
$PDMODE
 70
     0
  9
$PDSIZE
 40
0.0
  9
$PLINEWID
 40
0.0
  9
$COORDS
 70
     1
  9
$SPLFRAME
 70
     0
  9
$SPLINETYPE
 70
     6
  9
$SPLINESEGS
 70
     8
  9
$ATTDIA
 70
     0
  9
$ATTREQ
 70
     1
  9
$HANDLING
 70
 10241
  9
$HANDSEED
  5
26F7
  9
$SURFTAB1
 70
     6
  9
$SURFTAB2
 70
     6
  9
$SURFTYPE
 70
     6
  9
$SURFU
 70
     6
  9
$SURFV
 70
     6
  9
$UCSNAME
  2

  9
$UCSORG
 10
0.0
 20
0.0
 30
0.0
  9
$UCSXDIR
 10
1.0
 20
0.0
 30
0.0
  9
$UCSYDIR
 10
0.0
 20
1.0
 30
0.0
  9
$PUCSNAME
  2

  9
$PUCSORG
 10
0.0
 20
0.0
 30
0.0
  9
$PUCSXDIR
 10
1.0
 20
0.0
 30
0.0
  9
$PUCSYDIR
 10
0.0
 20
1.0
 30
0.0
  9
$USERI1
 70
     0
  9
$USERI2
 70
     0
  9
$USERI3
 70
     0
  9
$USERI4
 70
     0
  9
$USERI5
 70
     0
  9
$USERR1
 40
0.0
  9
$USERR2
 40
0.0
  9
$USERR3
 40
0.0
  9
$USERR4
 40
0.0
  9
$USERR5
 40
0.0
  9
$WORLDVIEW
 70
     1
  9
$SHADEDGE
 70
     3
  9
$SHADEDIF
 70
    70
  9
$TILEMODE
 70
     1
  9
$MAXACTVP
 70
    16
  9
$PINSBASE
 10
0.0
 20
0.0
 30
0.0
  9
$PLIMCHECK
 70
     0
  9
$PEXTMIN
 10
0.0
 20
0.0
 30
0.0
  9
$PEXTMAX
 10
420.0
 20
297.0
 30
0.0
  9
$PLIMMIN
 10
0.0
 20
0.0
  9
$PLIMMAX
 10
420.0
 20
297.0
  9
$UNITMODE
 70
     0
  9
$VISRETAIN
 70
     0
  9
$PLINEGEN
 70
     0
  9
$PSLTSCALE
 70
     1
  9
$TREEDEPTH
 70
  3020
  9
$PICKSTYLE
 70
     1
  9
$CMLSTYLE
  2
STANDARD
  9
$CMLJUST
 70
     0
  9
$CMLSCALE
 40
1.0
  9
$PROXYGRAPHICS
 70
     1
  9
$MEASUREMENT
 70
     0
  0
ENDSEC
  0
SECTION
  2
CLASSES
  0
CLASS
  1
ACDBDICTIONARYWDFLT
  2
AcDbDictionaryWithDefault
  3
AutoCAD 2000
 90
        0
280
     0
281
     0
  0
CLASS
  1
ACDBPLACEHOLDER
  2
AcDbPlaceHolder
  3
AutoCAD 2000
 90
        0
280
     0
281
     0
  0
CLASS
  1
LAYOUT
  2
AcDbLayout
  3
AutoCAD 2000
 90
        0
280
     0
281
     0
  0
CLASS
  1
LONG_TRANSACTION
  2
AcDbLongTransaction
  3
AutoCAD 2000
 90
        0
280
     0
281
     0
  0
CLASS
  1
LWPOLYLINE
  2
AcDbPolyline
  3
AutoCAD 2000
 90
        0
280
     0
281
     1
  0
CLASS
  1
HATCH
  2
AcDbHatch
  3
AutoCAD 2000
 90
        0
280
     0
281
     1
  0
CLASS
  1
XRECORD
  2
AcDbXrecord
  3
AutoCAD 2000
 90
        0
280
     0
281
     0
  0
CLASS
  1
LONG_TRANSACTION
  2
AcDbLongTransaction
  3
AutoCAD 2000
 90
        0
280
     0
281
     0
  0
CLASS
  1
LWPOLYLINE
  2
AcDbPolyline
  3
AutoCAD 2000
 90
        0
280
     0
281
     1
  0
CLASS
  1
HATCH
  2
AcDbHatch
  3
AutoCAD 2000
 90
        0
280
     0
281
     1
  0
CLASS
  1
XRECORD
  2
AcDbXrecord
  3
AutoCAD 2000
 90
        0
280
     0
281
     0
  0
CLASS
  1
DICTIONARYVAR
  2
AcDbDictionaryVar
  3
AutoCAD 2000
 90
        0
280
     0
281
     0
  0
CLASS
  1
LONG_TRANSACTION
  2
AcDbLongTransaction
  3
AutoCAD 2000
 90
        0
280
     0
281
     0
  0
CLASS
  1
LWPOLYLINE
  2
AcDbPolyline
  3
AutoCAD 2000
 90
        0
280
     0
281
     1
  0
CLASS
  1
HATCH
  2
AcDbHatch
  3
AutoCAD 2000
 90
        0
280
     0
281
     1
  0
CLASS
  1
XRECORD
  2
AcDbXrecord
  3
AutoCAD 2000
 90
        0
280
     0
281
     0
  0
CLASS
  1
LONG_TRANSACTION
  2
AcDbLongTransaction
  3
AutoCAD 2000
 90
        0
280
     0
281
     0
  0
CLASS
  1
LWPOLYLINE
  2
AcDbPolyline
  3
AutoCAD 2000
 90
        0
280
     0
281
     1
  0
CLASS
  1
HATCH
  2
AcDbHatch
  3
AutoCAD 2000
 90
        0
280
     0
281
     1
  0
CLASS
  1
XRECORD
  2
AcDbXrecord
  3
AutoCAD 2000
 90
        0
280
     0
281
     0
  0
CLASS
  1
LONG_TRANSACTION
  2
AcDbLongTransaction
  3
AutoCAD 2000
 90
        0
280
     0
281
     0
  0
CLASS
  1
LWPOLYLINE
  2
AcDbPolyline
  3
AutoCAD 2000
 90
        0
280
     0
281
     1
  0
CLASS
  1
HATCH
  2
AcDbHatch
  3
AutoCAD 2000
 90
        0
280
     0
281
     1
  0
CLASS
  1
XRECORD
  2
AcDbXrecord
  3
AutoCAD 2000
 90
        0
280
     0
281
     0
  0
CLASS
  1
LONG_TRANSACTION
  2
AcDbLongTransaction
  3
AutoCAD 2000
 90
        0
280
     0
281
     0
  0
CLASS
  1
LWPOLYLINE
  2
AcDbPolyline
  3
AutoCAD 2000
 90
        0
280
     0
281
     1
  0
CLASS
  1
HATCH
  2
AcDbHatch
  3
AutoCAD 2000
 90
        0
280
     0
281
     1
  0
CLASS
  1
XRECORD
  2
AcDbXrecord
  3
AutoCAD 2000
 90
        0
280
     0
281
     0
  0
CLASS
  1
LONG_TRANSACTION
  2
AcDbLongTransaction
  3
AutoCAD 2000
 90
        0
280
     0
281
     0
  0
CLASS
  1
LWPOLYLINE
  2
AcDbPolyline
  3
AutoCAD 2000
 90
        0
280
     0
281
     1
  0
CLASS
  1
HATCH
  2
AcDbHatch
  3
AutoCAD 2000
 90
        0
280
     0
281
     1
  0
CLASS
  1
XRECORD
  2
AcDbXrecord
  3
AutoCAD 2000
 90
        0
280
     0
281
     0
  0
CLASS
  1
LONG_TRANSACTION
  2
AcDbLongTransaction
  3
AutoCAD 2000
 90
        0
280
     0
281
     0
  0
CLASS
  1
LWPOLYLINE
  2
AcDbPolyline
  3
AutoCAD 2000
 90
        0
280
     0
281
     1
  0
CLASS
  1
HATCH
  2
AcDbHatch
  3
AutoCAD 2000
 90
        0
280
     0
281
     1
  0
CLASS
  1
XRECORD
  2
AcDbXrecord
  3
AutoCAD 2000
 90
        0
280
     0
281
     0
  0
CLASS
  1
LONG_TRANSACTION
  2
AcDbLongTransaction
  3
AutoCAD 2000
 90
        0
280
     0
281
     0
  0
CLASS
  1
LWPOLYLINE
  2
AcDbPolyline
  3
AutoCAD 2000
 90
        0
280
     0
281
     1
  0
CLASS
  1
HATCH
  2
AcDbHatch
  3
AutoCAD 2000
 90
        0
280
     0
281
     1
  0
CLASS
  1
XRECORD
  2
AcDbXrecord
  3
AutoCAD 2000
 90
        0
280
     0
281
     0
  0
CLASS
  1
LONG_TRANSACTION
  2
AcDbLongTransaction
  3
AutoCAD 2000
 90
        0
280
     0
281
     0
  0
CLASS
  1
LWPOLYLINE
  2
AcDbPolyline
  3
AutoCAD 2000
 90
        0
280
     0
281
     1
  0
CLASS
  1
HATCH
  2
AcDbHatch
  3
AutoCAD 2000
 90
        0
280
     0
281
     1
  0
CLASS
  1
XRECORD
  2
AcDbXrecord
  3
AutoCAD 2000
 90
        0
280
     0
281
     0
  0
CLASS
  1
LONG_TRANSACTION
  2
AcDbLongTransaction
  3
AutoCAD 2000
 90
        0
280
     0
281
     0
  0
CLASS
  1
LWPOLYLINE
  2
AcDbPolyline
  3
AutoCAD 2000
 90
        0
280
     0
281
     1
  0
CLASS
  1
HATCH
  2
AcDbHatch
  3
AutoCAD 2000
 90
        0
280
     0
281
     1
  0
CLASS
  1
XRECORD
  2
AcDbXrecord
  3
AutoCAD 2000
 90
        0
280
     0
281
     0
  0
CLASS
  1
LONG_TRANSACTION
  2
AcDbLongTransaction
  3
AutoCAD 2000
 90
        0
280
     0
281
     0
  0
CLASS
  1
LWPOLYLINE
  2
AcDbPolyline
  3
AutoCAD 2000
 90
        0
280
     0
281
     1
  0
CLASS
  1
HATCH
  2
AcDbHatch
  3
AutoCAD 2000
 90
        0
280
     0
281
     1
  0
CLASS
  1
XRECORD
  2
AcDbXrecord
  3
AutoCAD 2000
 90
        0
280
     0
281
     0
  0
ENDSEC
  0
SECTION
  2
TABLES
  0
TABLE
  2
VPORT
  5
8
330
0
100
AcDbSymbolTable
 70
     2
  0
VPORT
  5
26CA
330
8
100
AcDbSymbolTableRecord
100
AcDbViewportTableRecord
  2
*ACTIVE
 70
     0
 10
0.0
 20
0.0
 11
1.0
 21
1.0
 12
224.4033841194115
 22
138.5011881521774
 13
0.0
 23
0.0
 14
5.0
 24
5.0
 15
0.0
 25
0.0
 16
0.0
 26
0.0
 36
1.0
 17
0.0
 27
0.0
 37
0.0
 40
304.6110456387645
 41
1.795454545454545
 42
50.0
 43
0.0
 44
0.0
 50
0.0
 51
0.0
 71
     0
 72
   100
 73
     1
 74
     0
 75
     0
 76
     0
 77
     0
 78
     0
  0
ENDTAB
  0
TABLE
  2
LTYPE
  5
5
330
0
100
AcDbSymbolTable
 70
     3
  0
LTYPE
  5
14
330
5
100
AcDbSymbolTableRecord
100
AcDbLinetypeTableRecord
  2
BYBLOCK
 70
     0
  3

 72
    65
 73
     0
 40
0.0
  0
LTYPE
  5
15
330
5
100
AcDbSymbolTableRecord
100
AcDbLinetypeTableRecord
  2
BYLAYER
 70
     0
  3

 72
    65
 73
     0
 40
0.0
  0
LTYPE
  5
16
330
5
100
AcDbSymbolTableRecord
100
AcDbLinetypeTableRecord
  2
CONTINUOUS
 70
     0
  3
Solid line
 72
    65
 73
     0
 40
0.0
  0
LTYPE
  5
120
330
5
100
AcDbSymbolTableRecord
100
AcDbLinetypeTableRecord
  2
CENTER
 70
     0
  3
____ _ ____ _ ____ _ ____ _ ____ _ ____ _ ____ 
 72
    65
 73
     4
 40
2.0
 49
1.25
 74
     0
 49
-0.25
 74
     0
 49
0.25
 74
     0
 49
-0.25
 74
     0
  0
LTYPE
  5
122
330
5
100
AcDbSymbolTableRecord
100
AcDbLinetypeTableRecord
  2
PHANTOM
 70
     0
  3
______  __  __  ______  __  __  ______  __  __ 
 72
    65
 73
     6
 40
2.5
 49
1.25
 74
     0
 49
-0.25
 74
     0
 49
0.25
 74
     0
 49
-0.25
 74
     0
 49
0.25
 74
     0
 49
-0.25
 74
     0
  0
ENDTAB
  0
TABLE
  2
LAYER
  5
2
330
0
100
AcDbSymbolTable
 70
     9
  0
LAYER
  5
F
330
2
100
AcDbSymbolTableRecord
100
AcDbLayerTableRecord
  2
0
 70
     0
 62
     7
  6
CONTINUOUS
  0
LAYER
  5
62
330
2
100
AcDbSymbolTableRecord
100
AcDbLayerTableRecord
  2
VIEWPORT
 70
     0
 62
     7
  6
CONTINUOUS
  0
LAYER
  5
6B
330
2
100
AcDbSymbolTableRecord
100
AcDbLayerTableRecord
  2
ZUWAKU
 70
     0
 62
     7
  6
CONTINUOUS
  0
LAYER
  5
3EF
330
2
100
AcDbSymbolTableRecord
100
AcDbLayerTableRecord
  2
DEFPOINTS
 70
     0
 62
     7
  6
CONTINUOUS
  0
LAYER
  5
54D
330
2
100
AcDbSymbolTableRecord
100
AcDbLayerTableRecord
  2
SEIHIN
 70
     0
 62
     3
  6
CONTINUOUS
  0
LAYER
  5
54E
330
2
100
AcDbSymbolTableRecord
100
AcDbLayerTableRecord
  2
SUNPOU
 70
     0
 62
     4
  6
CONTINUOUS
  0
LAYER
  5
54F
330
2
100
AcDbSymbolTableRecord
100
AcDbLayerTableRecord
  2
CENTER_L
 70
     0
 62
     1
  6
CENTER
  0
LAYER
  5
550
330
2
100
AcDbSymbolTableRecord
100
AcDbLayerTableRecord
  2
NOKITOI
 70
     0
 62
     8
  6
PHANTOM
  0
LAYER
  5
2555
330
2
100
AcDbSymbolTableRecord
100
AcDbLayerTableRecord
  2
MOJI
 70
     0
 62
     2
  6
CONTINUOUS
  0
ENDTAB
  0
TABLE
  2
STYLE
  5
3
330
0
100
AcDbSymbolTable
 70
     2
  0
STYLE
  5
10
330
3
100
AcDbSymbolTableRecord
100
AcDbTextStyleTableRecord
  2
STANDARD
 70
     0
 40
0.0
 41
1.0
 50
0.0
 71
     0
 42
3.0
  3
TXT
  4
c:\PROGRAM FILES\AUTOCAD LT\ms\bigfont.shx
  0
STYLE
  5
2556
330
3
100
AcDbSymbolTableRecord
100
AcDbTextStyleTableRecord
  2
ｽﾀｲﾙ1
 70
     0
 40
0.0
 41
1.0
 50
0.0
 71
     0
 42
2.5
  3
MS PGothic.ttf
  4

1001
ACAD
1000
MS PGothic
1071
    32818
  0
ENDTAB
  0
TABLE
  2
VIEW
  5
6
330
0
100
AcDbSymbolTable
 70
     0
  0
ENDTAB
  0
TABLE
  2
UCS
  5
7
330
0
100
AcDbSymbolTable
 70
     0
  0
ENDTAB
  0
TABLE
  2
APPID
  5
9
330
0
100
AcDbSymbolTable
 70
     1
  0
APPID
  5
11
330
9
100
AcDbSymbolTableRecord
100
AcDbRegAppTableRecord
  2
ACAD
 70
     0
  0
ENDTAB
  0
TABLE
  2
DIMSTYLE
  5
A
330
0
100
AcDbSymbolTable
 70
     1
  0
DIMSTYLE
105
1D
102
{ACAD_REACTORS
330
2140
330
2156
330
2163
330
2179
330
2193
330
21BA
330
21F1
102
}
330
A
100
AcDbSymbolTableRecord
100
AcDbDimStyleTableRecord
  2
STANDARD
 70
     0
  3

  4

  5

  6

  7

 40
1.0
 41
0.18
 42
0.0625
 43
0.38
 44
0.18
 45
0.0
 46
0.0
 47
0.0
 48
0.0
140
0.18
141
0.09
142
0.0
143
25.4
144
1.0
145
0.0
146
1.0
147
0.09
 71
     0
 72
     0
 73
     1
 74
     1
 75
     0
 76
     0
 77
     0
 78
     0
170
     0
171
     2
172
     0
173
     0
174
     0
175
     0
176
     0
177
     0
178
     0
270
     2
271
     4
272
     4
273
     2
274
     2
340
10
275
     0
280
     0
281
     0
282
     0
283
     1
284
     0
285
     0
286
     0
287
     3
288
     0
  0
ENDTAB
  0
TABLE
  2
BLOCK_RECORD
  5
1
330
0
100
AcDbSymbolTable
 70
     8
  0
BLOCK_RECORD
  5
1A
102
{ACAD_XDICTIONARY
360
7A2
102
}
330
1
100
AcDbSymbolTableRecord
100
AcDbBlockTableRecord
  2
*MODEL_SPACE
  0
BLOCK_RECORD
  5
17
102
{ACAD_XDICTIONARY
360
7A0
102
}
330
1
100
AcDbSymbolTableRecord
100
AcDbBlockTableRecord
  2
*PAPER_SPACE
  0
BLOCK_RECORD
  5
B2
330
1
100
AcDbSymbolTableRecord
100
AcDbBlockTableRecord
  2
_OPEN
  0
BLOCK_RECORD
  5
2141
330
1
100
AcDbSymbolTableRecord
100
AcDbBlockTableRecord
  2
*D1
  0
BLOCK_RECORD
  5
2157
330
1
100
AcDbSymbolTableRecord
100
AcDbBlockTableRecord
  2
*D2
  0
BLOCK_RECORD
  5
2164
330
1
100
AcDbSymbolTableRecord
100
AcDbBlockTableRecord
  2
*D3
  0
BLOCK_RECORD
  5
217A
330
1
100
AcDbSymbolTableRecord
100
AcDbBlockTableRecord
  2
*D4
  0
BLOCK_RECORD
  5
2194
330
1
100
AcDbSymbolTableRecord
100
AcDbBlockTableRecord
  2
*D5
  0
BLOCK_RECORD
  5
21BB
330
1
100
AcDbSymbolTableRecord
100
AcDbBlockTableRecord
  2
*D6
  0
BLOCK_RECORD
  5
21F2
330
1
100
AcDbSymbolTableRecord
100
AcDbBlockTableRecord
  2
*D7
  0
ENDTAB
  0
ENDSEC
  0
SECTION
  2
BLOCKS
  0
BLOCK
  5
1B
330
1A
100
AcDbEntity
  8
0
100
AcDbBlockBegin
  2
*MODEL_SPACE
 70
     0
 10
0.0
 20
0.0
 30
0.0
  3
*MODEL_SPACE
  1

  0
ENDBLK
  5
1C
330
1A
100
AcDbEntity
  8
0
100
AcDbBlockEnd
  0
BLOCK
  5
18
330
17
100
AcDbEntity
 67
     1
  8
0
100
AcDbBlockBegin
  2
*PAPER_SPACE
 70
     0
 10
0.0
 20
0.0
 30
0.0
  3
*PAPER_SPACE
  1

  0
ENDBLK
  5
19
330
17
100
AcDbEntity
 67
     1
  8
0
100
AcDbBlockEnd
  0
BLOCK
  5
B3
330
B2
100
AcDbEntity
  8
0
100
AcDbBlockBegin
  2
_OPEN
 70
     0
 10
0.0
 20
0.0
 30
0.0
  3
_OPEN
  1

  0
LINE
  5
B4
330
B2
100
AcDbEntity
  8
0
  6
BYBLOCK
 62
     0
100
AcDbLine
 10
-1.0
 20
0.1666666666666666
 30
0.0
 11
0.0
 21
0.0
 31
0.0
  0
LINE
  5
B5
330
B2
100
AcDbEntity
  8
0
  6
BYBLOCK
 62
     0
100
AcDbLine
 10
0.0
 20
0.0
 30
0.0
 11
-1.0
 21
-0.1666666666666666
 31
0.0
  0
LINE
  5
B6
330
B2
100
AcDbEntity
  8
0
  6
BYBLOCK
 62
     0
100
AcDbLine
 10
0.0
 20
0.0
 30
0.0
 11
-1.0
 21
0.0
 31
0.0
  0
ENDBLK
  5
B7
330
B2
100
AcDbEntity
  8
0
100
AcDbBlockEnd
  0
BLOCK
  5
214B
330
2141
100
AcDbEntity
  8
0
100
AcDbBlockBegin
  2
*D1
 70
     1
 10
0.0
 20
0.0
 30
0.0
  3
*D1
  1

  0
LINE
  5
23EE
330
2141
100
AcDbEntity
  8
SUNPOU
100
AcDbLine
 10
101.3912977641989
 20
195.6713174136313
 30
0.0
 11
101.3912977641989
 21
215.1613841375192
 31
0.0
  0
LINE
  5
23EF
330
2141
100
AcDbEntity
  8
SUNPOU
100
AcDbLine
 10
224.7912977641989
 20
164.8826424136312
 30
0.0
 11
224.7912977641989
 21
215.1613841375192
 31
0.0
  0
LINE
  5
23F0
330
2141
100
AcDbEntity
  8
SUNPOU
100
AcDbLine
 10
104.3912977641989
 20
213.6613841375192
 30
0.0
 11
221.7912977641989
 21
213.6613841375192
 31
0.0
  0
INSERT
  5
23F1
330
2141
100
AcDbEntity
  8
SUNPOU
100
AcDbBlockReference
  2
_OPEN
 10
101.3912977641989
 20
213.6613841375192
 30
0.0
 41
3.0
 42
3.0
 43
3.0
 50
180.0
  0
INSERT
  5
23F2
330
2141
100
AcDbEntity
  8
SUNPOU
100
AcDbBlockReference
  2
_OPEN
 10
224.7912977641989
 20
213.6613841375192
 30
0.0
 41
3.0
 42
3.0
 43
3.0
  0
MTEXT
  5
23F3
330
2141
100
AcDbEntity
  8
SUNPOU
100
AcDbMText
 10
163.0912977641989
 20
216.1613841375192
 30
0.0
 40
3.0
 41
0.0
 71
     5
 72
     5
  1
\A1;123
1001
ACAD
1000
MTEXTBEGIN
1070
    73
1070
     1
1070
    44
1040
1.0
1070
    74
1070
     0
1000
MTEXTEND
1000
MTEXTBEGIN
1070
    73
1070
     1
1070
    44
1040
1.0
1070
    74
1070
     0
1000
MTEXTEND
1000
MTEXTBEGIN
1070
    73
1070
     1
1070
    44
1040
1.0
1070
    74
1070
     0
1000
MTEXTEND
1000
MTEXTBEGIN
1070
    73
1070
     1
1070
    44
1040
1.0
1070
    74
1070
     0
1000
MTEXTEND
1000
MTEXTBEGIN
1070
    73
1070
     1
1070
    44
1040
1.0
1070
    74
1070
     0
1000
MTEXTEND
  0
POINT
  5
23F4
330
2141
100
AcDbEntity
  8
DEFPOINTS
 62
     0
100
AcDbPoint
 10
101.3912977641989
 20
192.6713174136313
 30
0.0
  0
POINT
  5
23F5
330
2141
100
AcDbEntity
  8
DEFPOINTS
 62
     0
100
AcDbPoint
 10
224.7912977641989
 20
161.8826424136312
 30
0.0
  0
POINT
  5
23F6
330
2141
100
AcDbEntity
  8
DEFPOINTS
 62
     0
100
AcDbPoint
 10
224.7912977641989
 20
213.6613841375192
 30
0.0
  0
ENDBLK
  5
214C
330
2141
100
AcDbEntity
  8
0
100
AcDbBlockEnd
  0
BLOCK
  5
2161
330
2157
100
AcDbEntity
  8
0
100
AcDbBlockBegin
  2
*D2
 70
     1
 10
0.0
 20
0.0
 30
0.0
  3
*D2
  1

  0
LINE
  5
23E5
330
2157
100
AcDbEntity
  8
SUNPOU
100
AcDbLine
 10
98.39129776419895
 20
192.6713174136313
 30
0.0
 11
75.23681234219477
 21
192.6713174136313
 31
0.0
  0
LINE
  5
23E6
330
2157
100
AcDbEntity
  8
SUNPOU
100
AcDbLine
 10
161.0912977641988
 20
106.8712958061145
 30
0.0
 11
75.23681234219475
 21
106.8712958061145
 31
0.0
  0
LINE
  5
23E7
330
2157
100
AcDbEntity
  8
SUNPOU
100
AcDbLine
 10
76.73681234219476
 20
189.6713174136313
 30
0.0
 11
76.73681234219476
 21
109.8712958061145
 31
0.0
  0
INSERT
  5
23E8
330
2157
100
AcDbEntity
  8
SUNPOU
100
AcDbBlockReference
  2
_OPEN
 10
76.73681234219476
 20
192.6713174136313
 30
0.0
 41
3.0
 42
3.0
 43
3.0
 50
90.0
  0
INSERT
  5
23E9
330
2157
100
AcDbEntity
  8
SUNPOU
100
AcDbBlockReference
  2
_OPEN
 10
76.73681234219476
 20
106.8712958061145
 30
0.0
 41
3.0
 42
3.0
 43
3.0
 50
270.0
  0
MTEXT
  5
23EA
330
2157
100
AcDbEntity
  8
SUNPOU
100
AcDbMText
 10
74.23681234219474
 20
149.7713066098729
 30
0.0
 40
3.0
 41
0.0
 71
     5
 72
     5
  1
\A1;86
 11
0.0000000000000001
 21
1.0
 31
0.0
1001
ACAD
1000
MTEXTBEGIN
1070
    73
1070
     1
1070
    44
1040
1.0
1070
    74
1070
     0
1000
MTEXTEND
1000
MTEXTBEGIN
1070
    73
1070
     1
1070
    44
1040
1.0
1070
    74
1070
     0
1000
MTEXTEND
1000
MTEXTBEGIN
1070
    73
1070
     1
1070
    44
1040
1.0
1070
    74
1070
     0
1000
MTEXTEND
1000
MTEXTBEGIN
1070
    73
1070
     1
1070
    44
1040
1.0
1070
    74
1070
     0
1000
MTEXTEND
1000
MTEXTBEGIN
1070
    73
1070
     1
1070
    44
1040
1.0
1070
    74
1070
     0
1000
MTEXTEND
  0
POINT
  5
23EB
330
2157
100
AcDbEntity
  8
DEFPOINTS
 62
     0
100
AcDbPoint
 10
101.3912977641989
 20
192.6713174136313
 30
0.0
  0
POINT
  5
23EC
330
2157
100
AcDbEntity
  8
DEFPOINTS
 62
     0
100
AcDbPoint
 10
164.0912977641988
 20
106.8712958061145
 30
0.0
  0
POINT
  5
23ED
330
2157
100
AcDbEntity
  8
DEFPOINTS
 62
     0
100
AcDbPoint
 10
76.73681234219476
 20
106.8712958061145
 30
0.0
  0
ENDBLK
  5
2162
330
2157
100
AcDbEntity
  8
0
100
AcDbBlockEnd
  0
BLOCK
  5
216E
330
2164
100
AcDbEntity
  8
0
100
AcDbBlockBegin
  2
*D3
 70
     1
 10
0.0
 20
0.0
 30
0.0
  3
*D3
  1

  0
LINE
  5
26EE
330
2164
100
AcDbEntity
  8
SUNPOU
100
AcDbLine
 10
161.0912977641988
 20
106.8712958061145
 30
0.0
 11
75.23681234219475
 21
106.8712958061145
 31
0.0
  0
LINE
  5
26EF
330
2164
100
AcDbEntity
  8
SUNPOU
100
AcDbLine
 10
163.9918977641989
 20
57.47135541363128
 30
0.0
 11
75.23681234219473
 21
57.47135541363132
 31
0.0
  0
LINE
  5
26F0
330
2164
100
AcDbEntity
  8
SUNPOU
100
AcDbLine
 10
76.73681234219476
 20
103.8712958061145
 30
0.0
 11
76.73681234219474
 21
60.47135541363132
 31
0.0
  0
INSERT
  5
26F1
330
2164
100
AcDbEntity
  8
SUNPOU
100
AcDbBlockReference
  2
_OPEN
 10
76.73681234219476
 20
106.8712958061145
 30
0.0
 41
3.0
 42
3.0
 43
3.0
 50
90.0
  0
INSERT
  5
26F2
330
2164
100
AcDbEntity
  8
SUNPOU
100
AcDbBlockReference
  2
_OPEN
 10
76.73681234219474
 20
57.47135541363132
 30
0.0
 41
3.0
 42
3.0
 43
3.0
 50
270.0
  0
MTEXT
  5
26F3
330
2164
100
AcDbEntity
  8
SUNPOU
100
AcDbMText
 10
74.23681234219472
 20
82.17132560987295
 30
0.0
 40
3.0
 41
0.0
 71
     5
 72
     1
  1
\A1;H
 11
0.0000000000000001
 21
1.0
 31
0.0
  0
POINT
  5
26F4
330
2164
100
AcDbEntity
  8
DEFPOINTS
 62
     0
100
AcDbPoint
 10
164.0912977641988
 20
106.8712958061145
 30
0.0
  0
POINT
  5
26F5
330
2164
100
AcDbEntity
  8
DEFPOINTS
 62
     0
100
AcDbPoint
 10
166.9918977641989
 20
57.47135541363128
 30
0.0
  0
POINT
  5
26F6
330
2164
100
AcDbEntity
  8
DEFPOINTS
 62
     0
100
AcDbPoint
 10
76.73681234219474
 20
57.47135541363132
 30
0.0
  0
ENDBLK
  5
216F
330
2164
100
AcDbEntity
  8
0
100
AcDbBlockEnd
  0
BLOCK
  5
2186
330
217A
100
AcDbEntity
  8
0
100
AcDbBlockBegin
  2
*D4
 70
     1
 10
0.0
 20
0.0
 30
0.0
  3
*D4
  1

  0
LINE
  5
2409
330
217A
100
AcDbEntity
  8
SUNPOU
100
AcDbLine
 10
328.0348432673584
 20
127.0607857126385
 30
0.0
 11
357.0611188861418
 21
138.6704542877366
 31
0.0
  0
LINE
  5
240A
330
217A
100
AcDbEntity
  8
SUNPOU
100
AcDbLine
 10
329.9659432673582
 20
122.2326857126385
 30
0.0
 11
358.9922188861417
 21
133.8423542877366
 31
0.0
  0
LINE
  5
240B
330
217A
100
AcDbEntity
  8
SUNPOU
100
AcDbLine
 10
354.5542875247649
 20
140.8988610112989
 30
0.0
 11
353.4401851250883
 21
143.6843189346994
 31
0.0
  0
LINE
  5
240C
330
217A
100
AcDbEntity
  8
SUNPOU
100
AcDbLine
 10
358.7135923241181
 20
130.4998451644978
 30
0.0
 11
362.7986344562657
 21
120.2864994453626
 31
0.0
  0
LINE
  5
240D
330
217A
100
AcDbEntity
  8
SUNPOU
100
AcDbLine
 10
355.6683899244415
 20
138.1134030878984
 30
0.0
 11
357.5994899244415
 21
133.2853030878984
 31
0.0
  0
INSERT
  5
240E
330
217A
100
AcDbEntity
  8
SUNPOU
100
AcDbBlockReference
  2
_OPEN
 10
355.6683899244415
 20
138.1134030878984
 30
0.0
 41
3.0
 42
3.0
 43
3.0
 50
291.7999772299743
  0
INSERT
  5
240F
330
217A
100
AcDbEntity
  8
SUNPOU
100
AcDbBlockReference
  2
_OPEN
 10
357.5994899244415
 20
133.2853030878984
 30
0.0
 41
3.0
 42
3.0
 43
3.0
 50
111.7999772299743
  0
MTEXT
  5
2410
330
217A
100
AcDbEntity
  8
SUNPOU
100
AcDbMText
 10
363.6343795261972
 20
124.9288620096272
 30
0.0
 40
3.0
 41
0.0
 71
     5
 72
     5
  1
\A1;5.2
 11
0.3713674665588717
 21
-0.9284859744668441
 31
0.0
1001
ACAD
1000
MTEXTBEGIN
1070
    73
1070
     1
1070
    44
1040
1.0
1070
    74
1070
     0
1000
MTEXTEND
1000
MTEXTBEGIN
1070
    73
1070
     1
1070
    44
1040
1.0
1070
    74
1070
     0
1000
MTEXTEND
1000
MTEXTBEGIN
1070
    73
1070
     1
1070
    44
1040
1.0
1070
    74
1070
     0
1000
MTEXTEND
1000
MTEXTBEGIN
1070
    73
1070
     1
1070
    44
1040
1.0
1070
    74
1070
     0
1000
MTEXTEND
1000
MTEXTBEGIN
1070
    73
1070
     1
1070
    44
1040
1.0
1070
    74
1070
     0
1000
MTEXTEND
  0
POINT
  5
2411
330
217A
100
AcDbEntity
  8
DEFPOINTS
 62
     0
100
AcDbPoint
 10
325.2493853439578
 20
125.9466833129619
 30
0.0
  0
POINT
  5
2412
330
217A
100
AcDbEntity
  8
DEFPOINTS
 62
     0
100
AcDbPoint
 10
327.1804853439577
 20
121.1185833129618
 30
0.0
  0
POINT
  5
2413
330
217A
100
AcDbEntity
  8
DEFPOINTS
 62
     0
100
AcDbPoint
 10
357.5994899244415
 20
133.2853030878984
 30
0.0
  0
ENDBLK
  5
2187
330
217A
100
AcDbEntity
  8
0
100
AcDbBlockEnd
  0
BLOCK
  5
21A0
330
2194
100
AcDbEntity
  8
0
100
AcDbBlockBegin
  2
*D5
 70
     1
 10
0.0
 20
0.0
 30
0.0
  3
*D5
  1

  0
LINE
  5
2414
330
2194
100
AcDbEntity
  8
SUNPOU
100
AcDbLine
 10
309.5722805602274
 20
246.5867602931369
 30
0.0
 11
346.8099214139883
 21
246.5867602931368
 31
0.0
  0
LINE
  5
2415
330
2194
100
AcDbEntity
  8
SUNPOU
100
AcDbLine
 10
309.5723805602273
 20
241.0869602931369
 30
0.0
 11
346.8099214139883
 21
241.0869602931368
 31
0.0
  0
LINE
  5
2416
330
2194
100
AcDbEntity
  8
SUNPOU
100
AcDbLine
 10
345.3099214139883
 20
249.5867602931368
 30
0.0
 11
345.3099214139883
 21
252.5867602931368
 31
0.0
  0
LINE
  5
2417
330
2194
100
AcDbEntity
  8
SUNPOU
100
AcDbLine
 10
345.3099214139883
 20
238.0869602931368
 30
0.0
 11
345.3099214139883
 21
227.0869602931369
 31
0.0
  0
LINE
  5
2418
330
2194
100
AcDbEntity
  8
SUNPOU
100
AcDbLine
 10
345.3099214139883
 20
246.5867602931368
 30
0.0
 11
345.3099214139883
 21
241.0869602931368
 31
0.0
  0
INSERT
  5
2419
330
2194
100
AcDbEntity
  8
SUNPOU
100
AcDbBlockReference
  2
_OPEN
 10
345.3099214139883
 20
246.5867602931368
 30
0.0
 41
3.0
 42
3.0
 43
3.0
 50
270.0
  0
INSERT
  5
241A
330
2194
100
AcDbEntity
  8
SUNPOU
100
AcDbBlockReference
  2
_OPEN
 10
345.3099214139883
 20
241.0869602931368
 30
0.0
 41
3.0
 42
3.0
 43
3.0
 50
90.0
  0
MTEXT
  5
241B
330
2194
100
AcDbEntity
  8
SUNPOU
100
AcDbMText
 10
342.8099214139883
 20
231.0869602931369
 30
0.0
 40
3.0
 41
0.0
 71
     5
 72
     5
  1
\A1;5.5
 11
0.0000000000000001
 21
1.0
 31
0.0
1001
ACAD
1000
MTEXTBEGIN
1070
    73
1070
     1
1070
    44
1040
1.0
1070
    74
1070
     0
1000
MTEXTEND
1000
MTEXTBEGIN
1070
    73
1070
     1
1070
    44
1040
1.0
1070
    74
1070
     0
1000
MTEXTEND
1000
MTEXTBEGIN
1070
    73
1070
     1
1070
    44
1040
1.0
1070
    74
1070
     0
1000
MTEXTEND
1000
MTEXTBEGIN
1070
    73
1070
     1
1070
    44
1040
1.0
1070
    74
1070
     0
1000
MTEXTEND
1000
MTEXTBEGIN
1070
    73
1070
     1
1070
    44
1040
1.0
1070
    74
1070
     0
1000
MTEXTEND
  0
POINT
  5
241C
330
2194
100
AcDbEntity
  8
DEFPOINTS
 62
     0
100
AcDbPoint
 10
306.5722805602273
 20
246.5867602931369
 30
0.0
  0
POINT
  5
241D
330
2194
100
AcDbEntity
  8
DEFPOINTS
 62
     0
100
AcDbPoint
 10
306.5723805602273
 20
241.0869602931369
 30
0.0
  0
POINT
  5
241E
330
2194
100
AcDbEntity
  8
DEFPOINTS
 62
     0
100
AcDbPoint
 10
345.3099214139883
 20
241.0869602931368
 30
0.0
  0
ENDBLK
  5
21A1
330
2194
100
AcDbEntity
  8
0
100
AcDbBlockEnd
  0
BLOCK
  5
21C5
330
21BB
100
AcDbEntity
  8
0
100
AcDbBlockBegin
  2
*D6
 70
     1
 10
0.0
 20
0.0
 30
0.0
  3
*D6
  1

  0
LINE
  5
2400
330
21BB
100
AcDbEntity
  8
SUNPOU
100
AcDbLine
 10
164.843882017231
 20
55.75774917784113
 30
0.0
 11
174.9472402402538
 21
30.49753880425234
 31
0.0
  0
LINE
  5
2401
330
21BB
100
AcDbEntity
  8
SUNPOU
100
AcDbLine
 10
341.2562014129024
 20
126.3176072094413
 30
0.0
 11
351.3595596359252
 21
101.0573968358525
 31
0.0
  0
LINE
  5
2402
330
21BB
100
AcDbEntity
  8
SUNPOU
100
AcDbLine
 10
177.1756464041465
 20
33.00437066313817
 30
0.0
 11
348.0170504504809
 21
101.3360226516352
 31
0.0
  0
INSERT
  5
2403
330
21BB
100
AcDbEntity
  8
SUNPOU
100
AcDbBlockReference
  2
_OPEN
 10
174.390188729478
 20
31.89026764158659
 30
0.0
 41
3.0
 42
3.0
 43
3.0
 50
201.7999900216996
  0
INSERT
  5
2404
330
21BB
100
AcDbEntity
  8
SUNPOU
100
AcDbBlockReference
  2
_OPEN
 10
350.8025081251494
 20
102.4501256731868
 30
0.0
 41
3.0
 42
3.0
 43
3.0
 50
21.79999002169965
  0
MTEXT
  5
2405
330
21BB
100
AcDbEntity
  8
SUNPOU
100
AcDbMText
 10
261.6679292426874
 20
69.49141138627715
 30
0.0
 40
3.0
 41
0.0
 71
     5
 72
     5
  1
\A1;190
 11
0.928485891556166
 21
0.3713676738505277
 31
0.0
1001
ACAD
1000
MTEXTBEGIN
1070
    73
1070
     1
1070
    44
1040
1.0
1070
    74
1070
     0
1000
MTEXTEND
1000
MTEXTBEGIN
1070
    73
1070
     1
1070
    44
1040
1.0
1070
    74
1070
     0
1000
MTEXTEND
1000
MTEXTBEGIN
1070
    73
1070
     1
1070
    44
1040
1.0
1070
    74
1070
     0
1000
MTEXTEND
1000
MTEXTBEGIN
1070
    73
1070
     1
1070
    44
1040
1.0
1070
    74
1070
     0
1000
MTEXTEND
1000
MTEXTBEGIN
1070
    73
1070
     1
1070
    44
1040
1.0
1070
    74
1070
     0
1000
MTEXTEND
  0
POINT
  5
2406
330
21BB
100
AcDbEntity
  8
DEFPOINTS
 62
     0
100
AcDbPoint
 10
163.7297789956794
 20
58.54320685250963
 30
0.0
  0
POINT
  5
2407
330
21BB
100
AcDbEntity
  8
DEFPOINTS
 62
     0
100
AcDbPoint
 10
340.1420983913508
 20
129.1030648841098
 30
0.0
  0
POINT
  5
2408
330
21BB
100
AcDbEntity
  8
DEFPOINTS
 62
     0
100
AcDbPoint
 10
350.8025081251494
 20
102.4501256731868
 30
0.0
  0
ENDBLK
  5
21C6
330
21BB
100
AcDbEntity
  8
0
100
AcDbBlockEnd
  0
BLOCK
  5
21FC
330
21F2
100
AcDbEntity
  8
0
100
AcDbBlockBegin
  2
*D7
 70
     1
 10
0.0
 20
0.0
 30
0.0
  3
*D7
  1

  0
LINE
  5
23F7
330
21F2
100
AcDbEntity
  8
SUNPOU
100
AcDbLine
 10
98.39129776419895
 20
254.8367602931369
 30
0.0
 11
75.23681234219478
 21
254.8367602931369
 31
0.0
  0
LINE
  5
23F8
330
21F2
100
AcDbEntity
  8
SUNPOU
100
AcDbLine
 10
98.39129776419895
 20
232.8367602931369
 30
0.0
 11
75.23681234219478
 21
232.8367602931369
 31
0.0
  0
LINE
  5
23F9
330
21F2
100
AcDbEntity
  8
SUNPOU
100
AcDbLine
 10
76.73681234219478
 20
251.8367602931369
 30
0.0
 11
76.73681234219478
 21
235.8367602931369
 31
0.0
  0
INSERT
  5
23FA
330
21F2
100
AcDbEntity
  8
SUNPOU
100
AcDbBlockReference
  2
_OPEN
 10
76.73681234219478
 20
254.8367602931369
 30
0.0
 41
3.0
 42
3.0
 43
3.0
 50
90.0
  0
INSERT
  5
23FB
330
21F2
100
AcDbEntity
  8
SUNPOU
100
AcDbBlockReference
  2
_OPEN
 10
76.73681234219478
 20
232.8367602931369
 30
0.0
 41
3.0
 42
3.0
 43
3.0
 50
270.0
  0
MTEXT
  5
23FC
330
21F2
100
AcDbEntity
  8
SUNPOU
100
AcDbMText
 10
74.23681234219474
 20
243.8367602931369
 30
0.0
 40
3.0
 41
0.0
 71
     5
 72
     5
  1
\A1;22
 11
0.0000000000000001
 21
1.0
 31
0.0
1001
ACAD
1000
MTEXTBEGIN
1070
    73
1070
     1
1070
    44
1040
1.0
1070
    74
1070
     0
1000
MTEXTEND
1000
MTEXTBEGIN
1070
    73
1070
     1
1070
    44
1040
1.0
1070
    74
1070
     0
1000
MTEXTEND
1000
MTEXTBEGIN
1070
    73
1070
     1
1070
    44
1040
1.0
1070
    74
1070
     0
1000
MTEXTEND
1000
MTEXTBEGIN
1070
    73
1070
     1
1070
    44
1040
1.0
1070
    74
1070
     0
1000
MTEXTEND
1000
MTEXTBEGIN
1070
    73
1070
     1
1070
    44
1040
1.0
1070
    74
1070
     0
1000
MTEXTEND
  0
POINT
  5
23FD
330
21F2
100
AcDbEntity
  8
DEFPOINTS
 62
     0
100
AcDbPoint
 10
101.3912977641989
 20
254.8367602931369
 30
0.0
  0
POINT
  5
23FE
330
21F2
100
AcDbEntity
  8
DEFPOINTS
 62
     0
100
AcDbPoint
 10
101.3912977641989
 20
232.8367602931369
 30
0.0
  0
POINT
  5
23FF
330
21F2
100
AcDbEntity
  8
DEFPOINTS
 62
     0
100
AcDbPoint
 10
76.73681234219478
 20
232.8367602931369
 30
0.0
  0
ENDBLK
  5
21FD
330
21F2
100
AcDbEntity
  8
0
100
AcDbBlockEnd
  0
ENDSEC
  0
SECTION
  2
ENTITIES
  0
ARC
  5
5A7
330
1A
100
AcDbEntity
  8
NOKITOI
  6
PHANTOM
 62
     8
100
AcDbCircle
 10
154.4047613988472
 20
149.8713318900014
 30
0.0
 40
43.00001447645168
100
AcDbArc
 50
186.5249107071177
 51
269.9998883751437
  0
ARC
  5
5A8
330
1A
100
AcDbEntity
  8
NOKITOI
  6
PHANTOM
 62
     8
100
AcDbCircle
 10
154.4047837072725
 20
149.871311788975
 30
0.0
 40
41.79999437547816
100
AcDbArc
 50
184.4742952125247
 51
269.999854592109
  0
LINE
  5
5A9
330
1A
100
AcDbEntity
  8
NOKITOI
  6
PHANTOM
 62
     8
100
AcDbLine
 10
104.1937776253043
 20
149.0089174136313
 30
0.0
 11
104.1082776253046
 21
151.7464174136312
 31
0.0
  0
LINE
  5
5AA
330
1A
100
AcDbEntity
  8
NOKITOI
  6
PHANTOM
 62
     8
100
AcDbLine
 10
102.6556776253046
 20
159.8088174136313
 30
0.0
 11
103.0458776253044
 21
147.3245174136312
 31
0.0
  0
LINE
  5
5AB
330
1A
100
AcDbEntity
  8
NOKITOI
  6
PHANTOM
 62
     8
100
AcDbLine
 10
112.233677625305
 20
147.0713174136313
 30
0.0
 11
106.1927776253046
 21
147.0713174136313
 31
0.0
  0
ARC
  5
5AC
330
1A
100
AcDbEntity
  8
NOKITOI
  6
PHANTOM
 62
     8
100
AcDbCircle
 10
110.689769201142
 20
144.8713249286878
 30
0.0
 40
0.9999924849789756
100
AcDbArc
 50
6.528264606673934
 51
89.99951732740965
  0
LINE
  5
5AD
330
1A
100
AcDbEntity
  8
NOKITOI
  6
PHANTOM
 62
     8
100
AcDbLine
 10
104.5450776253046
 20
145.8713174136313
 30
0.0
 11
110.6897776253044
 21
145.8713174136313
 31
0.0
  0
ARC
  5
5AE
330
1A
100
AcDbEntity
  8
NOKITOI
  6
PHANTOM
 62
     8
100
AcDbCircle
 10
106.192791197443
 20
149.0713042585449
 30
0.0
 40
1.999986844959662
100
AcDbArc
 50
181.7875531852356
 51
269.9996111843215
  0
ARC
  5
5AF
330
1A
100
AcDbEntity
  8
NOKITOI
  6
PHANTOM
 62
     8
100
AcDbCircle
 10
104.5451135844554
 20
147.3712825594881
 30
0.0
 40
1.499965146287778
100
AcDbArc
 50
181.7866280217767
 51
269.9986264296971
  0
ARC
  5
5B0
330
1A
100
AcDbEntity
  8
NOKITOI
  6
PHANTOM
 62
     8
100
AcDbCircle
 10
112.2336901950129
 20
146.5713057889016
 30
0.0
 40
0.5000116248877111
100
AcDbArc
 50
4.474846808342103
 51
90.00144034898383
  0
ARC
  5
5B1
330
1A
100
AcDbEntity
  8
NOKITOI
  6
PHANTOM
 62
     8
100
AcDbCircle
 10
104.6546903761545
 20
159.8713305687177
 30
0.0
 40
1.999986844954076
100
AcDbArc
 50
90.00036528735451
 51
181.7883072882703
  0
LINE
  5
5B2
330
1A
100
AcDbEntity
  8
NOKITOI
  6
PHANTOM
 62
     8
100
AcDbLine
 10
110.9325776253044
 20
159.3713174136313
 30
0.0
 11
108.7010776253045
 21
159.3713174136313
 31
0.0
  0
ARC
  5
5B3
330
1A
100
AcDbEntity
  8
NOKITOI
  6
PHANTOM
 62
     8
100
AcDbCircle
 10
110.6167707383096
 20
152.8713108785458
 30
0.0
 40
0.499993464961963
100
AcDbArc
 50
270.0007892017869
 51
356.997036131742
  0
LINE
  5
5B4
330
1A
100
AcDbEntity
  8
NOKITOI
  6
PHANTOM
 62
     8
100
AcDbLine
 10
109.9526776253046
 20
153.5713174136313
 30
0.0
 11
110.1338776253046
 21
157.0128174136314
 31
0.0
  0
LINE
  5
5B5
330
1A
100
AcDbEntity
  8
NOKITOI
  6
PHANTOM
 62
     8
100
AcDbLine
 10
109.5788776253047
 20
156.3997174136312
 30
0.0
 11
110.1338776253046
 21
157.0128174136314
 31
0.0
  0
ARC
  5
5B6
330
1A
100
AcDbEntity
  8
NOKITOI
  6
PHANTOM
 62
     8
100
AcDbCircle
 10
108.1063978379738
 20
151.8713761420113
 30
0.0
 40
5.2000412730095
100
AcDbArc
 50
90.0013245430618
 51
142.0757990790548
  0
LINE
  5
5B7
330
1A
100
AcDbEntity
  8
NOKITOI
  6
PHANTOM
 62
     8
100
AcDbLine
 10
103.855077625305
 20
159.8463174136312
 30
0.0
 11
104.0044776253043
 21
155.0674174136314
 31
0.0
  0
ARC
  5
5B8
330
1A
100
AcDbEntity
  8
NOKITOI
  6
PHANTOM
 62
     8
100
AcDbCircle
 10
108.1063155067513
 20
151.8713611961566
 30
0.0
 40
3.999989731271038
100
AcDbArc
 50
96.47731142013116
 51
181.7899836067311
  0
ARC
  5
5B9
330
1A
100
AcDbEntity
  8
NOKITOI
  6
PHANTOM
 62
     8
100
AcDbCircle
 10
107.71149184372
 20
155.3490027793303
 30
0.0
 40
0.5000073448410256
100
AcDbArc
 50
351.872947864124
 51
96.47829282996921
  0
LINE
  5
5BA
330
1A
100
AcDbEntity
  8
NOKITOI
  6
PHANTOM
 62
     8
100
AcDbLine
 10
109.174777625305
 20
153.5713174136313
 30
0.0
 11
109.5788776253047
 21
156.3997174136312
 31
0.0
  0
LINE
  5
5BB
330
1A
100
AcDbEntity
  8
NOKITOI
  6
PHANTOM
 62
     8
100
AcDbLine
 10
109.9526776253046
 20
153.5713174136313
 30
0.0
 11
109.174777625305
 21
153.5713174136313
 31
0.0
  0
ARC
  5
5BC
330
1A
100
AcDbEntity
  8
NOKITOI
  6
PHANTOM
 62
     8
100
AcDbCircle
 10
108.3677042259023
 20
152.8712867367492
 30
0.0
 40
0.4999693238254178
100
AcDbArc
 50
171.8555038770531
 51
269.9969516090356
  0
LINE
  5
5BD
330
1A
100
AcDbEntity
  8
NOKITOI
  6
PHANTOM
 62
     8
100
AcDbLine
 10
110.6167776253045
 20
152.3713174136313
 30
0.0
 11
108.3676776253045
 21
152.3713174136313
 31
0.0
  0
LINE
  5
5BE
330
1A
100
AcDbEntity
  8
NOKITOI
  6
PHANTOM
 62
     8
100
AcDbLine
 10
107.8727776253044
 20
152.9421174136315
 30
0.0
 11
108.2064776253045
 21
155.2783174136314
 31
0.0
  0
LINE
  5
5BF
330
1A
100
AcDbEntity
  8
NOKITOI
  6
PHANTOM
 62
     8
100
AcDbLine
 10
107.1274776253048
 20
160.6713174136315
 30
0.0
 11
106.6274776253048
 21
158.1713174136315
 31
0.0
  0
LINE
  5
5C0
330
1A
100
AcDbEntity
  8
NOKITOI
  6
PHANTOM
 62
     8
100
AcDbLine
 10
106.6274776253048
 20
158.1713174136315
 30
0.0
 11
109.5639776253046
 21
158.1713174136315
 31
0.0
  0
LINE
  5
5C1
330
1A
100
AcDbEntity
  8
NOKITOI
  6
PHANTOM
 62
     8
100
AcDbLine
 10
104.6546776253044
 20
161.8713174136313
 30
0.0
 11
107.9812776253047
 21
161.8713174136313
 31
0.0
  0
LINE
  5
5C2
330
1A
100
AcDbEntity
  8
NOKITOI
  6
PHANTOM
 62
     8
100
AcDbLine
 10
104.6546776253044
 20
160.6713174136315
 30
0.0
 11
107.1274776253048
 21
160.6713174136315
 31
0.0
  0
ARC
  5
5C3
330
1A
100
AcDbEntity
  8
NOKITOI
  6
PHANTOM
 62
     8
100
AcDbCircle
 10
104.6546821201027
 20
159.8713220511582
 30
0.0
 40
0.7999953624857498
100
AcDbArc
 50
90.00032191805264
 51
181.7911273464193
  0
ARC
  5
5C4
330
1A
100
AcDbEntity
  8
NOKITOI
  6
PHANTOM
 62
     8
100
AcDbCircle
 10
107.9812768422961
 20
161.371318368633
 30
0.0
 40
0.4999990449987349
100
AcDbArc
 50
348.6967198015447
 51
89.99991027369492
  0
ARC
  5
5C5
330
1A
100
AcDbEntity
  8
NOKITOI
  6
PHANTOM
 62
     8
100
AcDbCircle
 10
108.7010703707491
 20
159.8713262634747
 30
0.0
 40
0.5000088498959383
100
AcDbArc
 50
168.6864043304892
 51
270.0008312961442
  0
LINE
  5
5C6
330
1A
100
AcDbEntity
  8
NOKITOI
  6
PHANTOM
 62
     8
100
AcDbLine
 10
108.2107776253046
 20
159.9694174136312
 30
0.0
 11
108.4715776253046
 21
161.2733174136313
 31
0.0
  0
LINE
  5
5C7
330
1A
100
AcDbEntity
  8
NOKITOI
  6
PHANTOM
 62
     8
100
AcDbLine
 10
108.5681776253049
 20
157.0713174136313
 30
0.0
 11
108.1062776253047
 21
157.0713174136313
 31
0.0
  0
LINE
  5
5C8
330
1A
100
AcDbEntity
  8
NOKITOI
  6
PHANTOM
 62
     8
100
AcDbLine
 10
108.5681776253049
 20
157.0713174136313
 30
0.0
 11
109.5639776253046
 21
158.1713174136315
 31
0.0
  0
LINE
  5
5C9
330
1A
100
AcDbEntity
  8
NOKITOI
  6
PHANTOM
 62
     8
100
AcDbLine
 10
111.1161776253047
 20
152.8451174136312
 30
0.0
 11
111.4319776253045
 21
158.8450174136313
 31
0.0
  0
ARC
  5
5CA
330
1A
100
AcDbEntity
  8
NOKITOI
  6
PHANTOM
 62
     8
100
AcDbCircle
 10
110.9325714241467
 20
158.8713239487165
 30
0.0
 40
0.4999934649531607
100
AcDbArc
 50
356.9955363203376
 51
89.99928939038076
  0
LINE
  5
5CB
330
1A
100
AcDbEntity
  8
NOKITOI
  6
PHANTOM
 62
     8
100
AcDbLine
 10
195.2341776253046
 20
106.8712174136313
 30
0.0
 11
175.0762776253049
 21
106.8712174136313
 31
0.0
  0
LINE
  5
5CC
330
1A
100
AcDbEntity
  8
NOKITOI
  6
PHANTOM
 62
     8
100
AcDbLine
 10
194.9843776253046
 20
108.0712174136313
 30
0.0
 11
175.0762776253049
 21
108.0712174136313
 31
0.0
  0
LINE
  5
5CD
330
1A
100
AcDbEntity
  8
NOKITOI
  6
PHANTOM
 62
     8
100
AcDbLine
 10
199.2341776253046
 20
106.8712174136313
 30
0.0
 11
154.4047776253045
 21
106.8713174136313
 31
0.0
  0
LINE
  5
5CE
330
1A
100
AcDbEntity
  8
NOKITOI
  6
PHANTOM
 62
     8
100
AcDbLine
 10
154.4047776253045
 20
108.0713174136313
 30
0.0
 11
198.9843776253046
 21
108.0712174136313
 31
0.0
  0
LINE
  5
5CF
330
1A
100
AcDbEntity
  8
NOKITOI
  6
PHANTOM
 62
     8
100
AcDbLine
 10
220.9886776253046
 20
149.0087174136314
 30
0.0
 11
221.0741776253043
 21
151.7463174136313
 31
0.0
  0
LINE
  5
5D0
330
1A
100
AcDbEntity
  8
NOKITOI
  6
PHANTOM
 62
     8
100
AcDbLine
 10
222.5266776253047
 20
159.8088174136313
 30
0.0
 11
222.1365776253046
 21
147.3244174136312
 31
0.0
  0
LINE
  5
5D1
330
1A
100
AcDbEntity
  8
NOKITOI
  6
PHANTOM
 62
     8
100
AcDbLine
 10
220.6372776253046
 20
145.8713174136313
 30
0.0
 11
214.4961776253048
 21
145.8713174136313
 31
0.0
  0
LINE
  5
5D2
330
1A
100
AcDbEntity
  8
NOKITOI
  6
PHANTOM
 62
     8
100
AcDbLine
 10
212.9576776253042
 20
147.0713174136313
 30
0.0
 11
218.9895776253047
 21
147.0713174136313
 31
0.0
  0
LINE
  5
5D3
330
1A
100
AcDbEntity
  8
NOKITOI
  6
PHANTOM
 62
     8
100
AcDbLine
 10
213.5011776253049
 20
144.9708174136313
 30
0.0
 11
210.6323776253047
 21
116.2834174136313
 31
0.0
  0
LINE
  5
5D4
330
1A
100
AcDbEntity
  8
NOKITOI
  6
PHANTOM
 62
     8
100
AcDbLine
 10
212.4601776253047
 20
146.6211174136313
 30
0.0
 11
209.4671776253044
 21
116.6913174136312
 31
0.0
  0
LINE
  5
5D5
330
1A
100
AcDbEntity
  8
NOKITOI
  6
PHANTOM
 62
     8
100
AcDbLine
 10
210.2705776253046
 20
115.6089174136314
 30
0.0
 11
199.8674776253046
 21
107.0972174136314
 31
0.0
  0
LINE
  5
5D6
330
1A
100
AcDbEntity
  8
NOKITOI
  6
PHANTOM
 62
     8
100
AcDbLine
 10
209.286277625305
 20
116.3540174136313
 30
0.0
 11
199.3009776253047
 21
108.1842174136312
 31
0.0
  0
ARC
  5
5D7
330
1A
100
AcDbEntity
  8
NOKITOI
  6
PHANTOM
 62
     8
100
AcDbCircle
 10
199.2341706927272
 20
107.8712149386252
 30
0.0
 40
0.9999975250179316
100
AcDbArc
 50
270.0003972084035
 51
309.2946416752299
  0
ARC
  5
5D8
330
1A
100
AcDbEntity
  8
NOKITOI
  6
PHANTOM
 62
     8
100
AcDbCircle
 10
198.9843840130533
 20
108.5712196936209
 30
0.0
 40
0.5000022800304047
100
AcDbArc
 50
269.9992680212791
 51
309.2854498596061
  0
ARC
  5
5D9
330
1A
100
AcDbEntity
  8
NOKITOI
  6
PHANTOM
 62
     8
100
AcDbCircle
 10
209.6373550524358
 20
116.3828753419587
 30
0.0
 40
0.9999908507640039
100
AcDbArc
 50
309.288709223069
 51
354.2862329477532
  0
ARC
  5
5DA
330
1A
100
AcDbEntity
  8
NOKITOI
  6
PHANTOM
 62
     8
100
AcDbCircle
 10
208.9696601994264
 20
116.7409849272433
 30
0.0
 40
0.4999904508696396
100
AcDbArc
 50
309.2900846377951
 51
354.2990110749239
  0
ARC
  5
5DB
330
1A
100
AcDbEntity
  8
NOKITOI
  6
PHANTOM
 62
     8
100
AcDbCircle
 10
214.4961982751456
 20
144.8713361014805
 30
0.0
 40
0.9999813123640345
100
AcDbArc
 50
90.00118317084911
 51
174.2905900333514
  0
ARC
  5
5DC
330
1A
100
AcDbEntity
  8
NOKITOI
  6
PHANTOM
 62
     8
100
AcDbCircle
 10
212.9576906963093
 20
146.5713292439112
 30
0.0
 40
0.499988169890889
100
AcDbArc
 50
90.00149786226634
 51
174.2966061377162
  0
ARC
  5
5DD
330
1A
100
AcDbEntity
  8
NOKITOI
  6
PHANTOM
 62
     8
100
AcDbCircle
 10
220.6372948384828
 20
147.3713340967791
 30
0.0
 40
1.500016683246579
100
AcDbArc
 50
269.9993425123344
 51
358.2076423244113
  0
ARC
  5
5DE
330
1A
100
AcDbEntity
  8
NOKITOI
  6
PHANTOM
 62
     8
100
AcDbCircle
 10
218.9896156131289
 20
149.0712542342035
 30
0.0
 40
2.000036820932882
100
AcDbArc
 50
269.9989117490344
 51
358.2110591274195
  0
LINE
  5
5DF
330
1A
100
AcDbEntity
  8
NOKITOI
  6
PHANTOM
 62
     8
100
AcDbLine
 10
220.5276776253048
 20
161.8712174136313
 30
0.0
 11
217.2010776253045
 21
161.8713174136313
 31
0.0
  0
LINE
  5
5E0
330
1A
100
AcDbEntity
  8
NOKITOI
  6
PHANTOM
 62
     8
100
AcDbLine
 10
218.5549776253046
 20
158.1713174136315
 30
0.0
 11
215.6183776253046
 21
158.1713174136315
 31
0.0
  0
ARC
  5
5E1
330
1A
100
AcDbEntity
  8
NOKITOI
  6
PHANTOM
 62
     8
100
AcDbCircle
 10
217.4709069978043
 20
155.3489476461262
 30
0.0
 40
0.4999578477751074
100
AcDbArc
 50
83.52609071220754
 51
188.1330561712932
  0
ARC
  5
5E2
330
1A
100
AcDbEntity
  8
NOKITOI
  6
PHANTOM
 62
     8
100
AcDbCircle
 10
217.0761597589534
 20
151.8713261420112
 30
0.0
 40
5.199991271650611
100
AcDbArc
 50
37.92532860472995
 51
89.9998031407256
  0
LINE
  5
5E3
330
1A
100
AcDbEntity
  8
NOKITOI
  6
PHANTOM
 62
     8
100
AcDbLine
 10
215.2296776253046
 20
153.5713174136313
 30
0.0
 11
215.0485776253044
 21
157.0127174136312
 31
0.0
  0
LINE
  5
5E4
330
1A
100
AcDbEntity
  8
NOKITOI
  6
PHANTOM
 62
     8
100
AcDbLine
 10
215.6035776253047
 20
156.3997174136312
 30
0.0
 11
215.0485776253044
 21
157.0127174136312
 31
0.0
  0
LINE
  5
5E5
330
1A
100
AcDbEntity
  8
NOKITOI
  6
PHANTOM
 62
     8
100
AcDbLine
 10
214.0662776253047
 20
152.8450174136313
 30
0.0
 11
213.7504776253044
 21
158.8450174136313
 31
0.0
  0
LINE
  5
5E6
330
1A
100
AcDbEntity
  8
NOKITOI
  6
PHANTOM
 62
     8
100
AcDbLine
 10
216.0075776253042
 20
153.5713174136313
 30
0.0
 11
215.6035776253047
 21
156.3997174136312
 31
0.0
  0
LINE
  5
5E7
330
1A
100
AcDbEntity
  8
NOKITOI
  6
PHANTOM
 62
     8
100
AcDbLine
 10
215.2296776253046
 20
153.5713174136313
 30
0.0
 11
216.0075776253042
 21
153.5713174136313
 31
0.0
  0
LINE
  5
5E8
330
1A
100
AcDbEntity
  8
NOKITOI
  6
PHANTOM
 62
     8
100
AcDbLine
 10
214.5655776253047
 20
152.3713174136313
 30
0.0
 11
216.8146776253042
 21
152.3713174136313
 31
0.0
  0
ARC
  5
5E9
330
1A
100
AcDbEntity
  8
NOKITOI
  6
PHANTOM
 62
     8
100
AcDbCircle
 10
214.5655817467113
 20
152.8713135036008
 30
0.0
 40
0.4999960899864752
100
AcDbArc
 50
183.0147243791741
 51
269.9995277178593
  0
ARC
  5
5EA
330
1A
100
AcDbEntity
  8
NOKITOI
  6
PHANTOM
 62
     8
100
AcDbCircle
 10
216.8146878117408
 20
152.8713291583554
 30
0.0
 40
0.5000117448278309
100
AcDbArc
 50
269.9988327478016
 51
8.127314608715551
  0
LINE
  5
5EB
330
1A
100
AcDbEntity
  8
NOKITOI
  6
PHANTOM
 62
     8
100
AcDbLine
 10
217.3096776253045
 20
152.9420174136313
 30
0.0
 11
216.9758776253047
 21
155.2782174136314
 31
0.0
  0
LINE
  5
5EC
330
1A
100
AcDbEntity
  8
NOKITOI
  6
PHANTOM
 62
     8
100
AcDbLine
 10
214.2497776253048
 20
159.3713174136313
 30
0.0
 11
216.4812776253047
 21
159.3713174136313
 31
0.0
  0
ARC
  5
5ED
330
1A
100
AcDbEntity
  8
NOKITOI
  6
PHANTOM
 62
     8
100
AcDbCircle
 10
214.2497813347999
 20
158.871321323662
 30
0.0
 40
0.4999960899831856
100
AcDbArc
 50
90.00042508015082
 51
183.0156217414647
  0
ARC
  5
5EE
330
1A
100
AcDbEntity
  8
NOKITOI
  6
PHANTOM
 62
     8
100
AcDbCircle
 10
217.2010703707492
 20
161.3713085637878
 30
0.0
 40
0.500008849895925
100
AcDbArc
 50
89.99916870385415
 51
191.3135956695126
  0
ARC
  5
5EF
330
1A
100
AcDbEntity
  8
NOKITOI
  6
PHANTOM
 62
     8
100
AcDbCircle
 10
216.4812768422961
 20
159.8713164586295
 30
0.0
 40
0.4999990449987399
100
AcDbArc
 50
270.000089726305
 51
11.30328019845521
  0
LINE
  5
5F0
330
1A
100
AcDbEntity
  8
NOKITOI
  6
PHANTOM
 62
     8
100
AcDbLine
 10
216.9715776253046
 20
159.9693174136314
 30
0.0
 11
216.7107776253046
 21
161.2733174136313
 31
0.0
  0
LINE
  5
5F1
330
1A
100
AcDbEntity
  8
NOKITOI
  6
PHANTOM
 62
     8
100
AcDbLine
 10
216.6141776253048
 20
157.0713174136313
 30
0.0
 11
217.0761776253047
 21
157.0713174136313
 31
0.0
  0
LINE
  5
5F2
330
1A
100
AcDbEntity
  8
NOKITOI
  6
PHANTOM
 62
     8
100
AcDbLine
 10
216.6141776253048
 20
157.0713174136313
 30
0.0
 11
215.6183776253046
 21
158.1713174136315
 31
0.0
  0
LINE
  5
5F3
330
1A
100
AcDbEntity
  8
NOKITOI
  6
PHANTOM
 62
     8
100
AcDbLine
 10
221.3272776253042
 20
159.8463174136312
 30
0.0
 11
221.1779776253047
 21
155.0673174136314
 31
0.0
  0
ARC
  5
5F4
330
1A
100
AcDbEntity
  8
NOKITOI
  6
PHANTOM
 62
     8
100
AcDbCircle
 10
217.0761466983685
 20
151.8713531582951
 30
0.0
 40
3.99998565374706
100
AcDbArc
 50
358.208696659101
 51
83.52422380468341
  0
ARC
  5
5F5
330
1A
100
AcDbEntity
  8
NOKITOI
  6
PHANTOM
 62
     8
100
AcDbCircle
 10
220.5276663883104
 20
159.8713290074484
 30
0.0
 40
1.999988406214315
100
AcDbArc
 50
358.2088726535936
 51
89.99967808195551
  0
LINE
  5
5F6
330
1A
100
AcDbEntity
  8
NOKITOI
  6
PHANTOM
 62
     8
100
AcDbLine
 10
220.5276776253048
 20
160.6712174136313
 30
0.0
 11
218.0549776253046
 21
160.6713174136315
 31
0.0
  0
LINE
  5
5F7
330
1A
100
AcDbEntity
  8
NOKITOI
  6
PHANTOM
 62
     8
100
AcDbLine
 10
218.0549776253046
 20
160.6713174136315
 30
0.0
 11
218.5549776253046
 21
158.1713174136315
 31
0.0
  0
ARC
  5
5F8
330
1A
100
AcDbEntity
  8
NOKITOI
  6
PHANTOM
 62
     8
100
AcDbCircle
 10
220.5277215916575
 20
159.8712720511583
 30
0.0
 40
0.7999453636812564
100
AcDbArc
 50
358.2123436447881
 51
90.00314907315425
  0
LINE
  5
9FB
330
1A
100
AcDbEntity
  8
SEIHIN
100
AcDbLine
 10
164.0912977641988
 20
106.6713174136313
 30
0.0
 11
201.6704837641989
 21
106.6713174136313
 31
0.0
  0
LINE
  5
9FC
330
1A
100
AcDbEntity
  8
SEIHIN
100
AcDbLine
 10
164.0912977641988
 20
105.4713174136312
 30
0.0
 11
202.0988398641989
 21
105.4713174136312
 31
0.0
  0
LINE
  5
9FD
330
1A
100
AcDbEntity
  8
SEIHIN
100
AcDbLine
 10
164.0912977641988
 20
102.4713174136312
 30
0.0
 11
203.1697298641988
 21
102.4713174136312
 31
0.0
  0
LINE
  5
A02
330
1A
100
AcDbEntity
  8
SEIHIN
100
AcDbLine
 10
34.97938143704334
 20
102.4713174136312
 30
0.0
 11
45.97938143704334
 21
102.4713174136312
 31
0.0
  0
LINE
  5
A06
330
1A
100
AcDbEntity
  8
SEIHIN
100
AcDbLine
 10
51.47938143704334
 20
143.4713174136312
 30
0.0
 11
29.47938143704334
 21
143.4713174136312
 31
0.0
  0
ARC
  5
A07
330
1A
100
AcDbEntity
  8
SEIHIN
100
AcDbCircle
 10
36.37938143704332
 20
178.6713174136313
 30
0.0
 40
2.0
100
AcDbArc
 50
0.0
 51
90.0
  0
ARC
  5
A08
330
1A
100
AcDbEntity
  8
SEIHIN
100
AcDbCircle
 10
35.87938143704332
 20
158.1713174136313
 30
0.0
 40
2.5
100
AcDbArc
 50
180.0
 51
0.0
  0
LINE
  5
A09
330
1A
100
AcDbEntity
  8
SEIHIN
100
AcDbLine
 10
43.47938143704334
 20
192.6713174136313
 30
0.0
 11
37.47938143704334
 21
192.6713174136313
 31
0.0
  0
LINE
  5
A0C
330
1A
100
AcDbEntity
  8
SEIHIN
100
AcDbLine
 10
33.47938143704334
 20
105.9713174136312
 30
0.0
 11
33.47938143704334
 21
143.4713174136312
 31
0.0
  0
LINE
  5
A11
330
1A
100
AcDbEntity
  8
SEIHIN
100
AcDbLine
 10
31.97938143704334
 20
105.4713174136312
 30
0.0
 11
29.47938143704334
 21
105.4713174136312
 31
0.0
  0
ARC
  5
A16
330
1A
100
AcDbEntity
  8
SEIHIN
100
AcDbCircle
 10
34.97938143704334
 20
103.9713174136312
 30
0.0
 40
1.5
100
AcDbArc
 50
180.0
 51
270.0
  0
ARC
  5
A1B
330
1A
100
AcDbEntity
  8
SEIHIN
100
AcDbCircle
 10
31.97938143704334
 20
103.9713174136312
 30
0.0
 40
1.5
100
AcDbArc
 50
0.0
 51
90.0
  0
ARC
  5
A24
330
1A
100
AcDbEntity
  8
SEIHIN
100
AcDbCircle
 10
31.42938143704327
 20
158.7213174136312
 30
0.0
 40
1.949999999999988
100
AcDbArc
 50
0.0
 51
180.0
  0
LINE
  5
A33
330
1A
100
AcDbEntity
  8
SEIHIN
100
AcDbLine
 10
33.37938143704332
 20
158.7213174136312
 30
0.0
 11
33.37938143704332
 21
158.1713174136313
 31
0.0
  0
LINE
  5
A34
330
1A
100
AcDbEntity
  8
SEIHIN
100
AcDbLine
 10
33.37938143704332
 20
158.6713174136312
 30
0.0
 11
33.37938143704332
 21
158.6713174136312
 31
0.0
  0
LINE
  5
A35
330
1A
100
AcDbEntity
  8
SEIHIN
100
AcDbLine
 10
34.47938143704334
 20
182.6700674136312
 30
0.0
 11
34.47938143704334
 21
189.6713174136313
 31
0.0
  0
ARC
  5
A36
330
1A
100
AcDbEntity
  8
SEIHIN
100
AcDbCircle
 10
36.47938143704334
 20
182.6700674136312
 30
0.0
 40
1.999999998843762
100
AcDbArc
 50
180.0
 51
268.5674562607732
  0
LINE
  5
A37
330
1A
100
AcDbEntity
  8
SEIHIN
100
AcDbLine
 10
35.97938143704334
 20
180.6713174136312
 30
0.0
 11
35.97938143704334
 21
180.6713174136312
 31
0.0
  0
ARC
  5
A38
330
1A
100
AcDbEntity
  8
SEIHIN
100
AcDbCircle
 10
37.47938143704334
 20
189.6713174136313
 30
0.0
 40
3.0
100
AcDbArc
 50
90.0
 51
180.0
  0
ARC
  5
A39
330
1A
100
AcDbEntity
  8
SEIHIN
100
AcDbCircle
 10
155.4048477641989
 20
149.6713174136313
 30
0.0
 40
43.99999996755491
100
AcDbArc
 50
190.0046914246752
 51
256.9987985386973
  0
ARC
  5
A3A
330
1A
100
AcDbEntity
  8
SEIHIN
100
AcDbCircle
 10
155.4048477641989
 20
149.6713174136313
 30
0.0
 40
45.19999999393088
100
AcDbArc
 50
190.0046914399661
 51
256.9987985135611
  0
ARC
  5
A3B
330
1A
100
AcDbEntity
  8
SEIHIN
100
AcDbCircle
 10
155.4048477641989
 20
149.6713174136313
 30
0.0
 40
48.19999998338746
100
AcDbArc
 50
190.3515581005718
 51
256.999279253117
  0
LINE
  5
A3E
330
1A
100
AcDbEntity
  8
SEIHIN
100
AcDbLine
 10
47.47938143704334
 20
105.9713174136312
 30
0.0
 11
47.47938143704334
 21
143.4713174136312
 31
0.0
  0
ARC
  5
A42
330
1A
100
AcDbEntity
  8
SEIHIN
100
AcDbCircle
 10
45.97938143704334
 20
103.9713174136312
 30
0.0
 40
1.5
100
AcDbArc
 50
270.0
 51
0.0
  0
LINE
  5
A47
330
1A
100
AcDbEntity
  8
SEIHIN
100
AcDbLine
 10
48.97938143704334
 20
105.4713174136312
 30
0.0
 11
51.47938143704334
 21
105.4713174136312
 31
0.0
  0
ARC
  5
A49
330
1A
100
AcDbEntity
  8
SEIHIN
100
AcDbCircle
 10
48.97938143704334
 20
103.9713174136312
 30
0.0
 40
1.5
100
AcDbArc
 50
90.0
 51
180.0
  0
ARC
  5
A56
330
1A
100
AcDbEntity
  8
SEIHIN
100
AcDbCircle
 10
146.6298827641988
 20
111.6713174136313
 30
0.0
 40
5.000000009884356
100
AcDbArc
 50
256.997175988683
 51
270.0
  0
LINE
  5
A57
330
1A
100
AcDbEntity
  8
SEIHIN
100
AcDbLine
 10
146.6298827641988
 20
106.6713174136313
 30
0.0
 11
164.0912977641988
 21
106.6713174136313
 31
0.0
  0
LINE
  5
A58
330
1A
100
AcDbEntity
  8
SEIHIN
100
AcDbLine
 10
146.6298827641988
 20
105.4713174136312
 30
0.0
 11
164.0912977641988
 21
105.4713174136312
 31
0.0
  0
LINE
  5
A59
330
1A
100
AcDbEntity
  8
SEIHIN
100
AcDbLine
 10
146.6298827641988
 20
102.4713174136312
 30
0.0
 11
164.0912977641988
 21
102.4713174136312
 31
0.0
  0
ARC
  5
A5A
330
1A
100
AcDbEntity
  8
SEIHIN
100
AcDbCircle
 10
146.6298827641988
 20
111.6713174136313
 30
0.0
 40
6.20000002439895
100
AcDbArc
 50
256.9971760025682
 51
270.0
  0
ARC
  5
A5B
330
1A
100
AcDbEntity
  8
SEIHIN
100
AcDbCircle
 10
146.6298827641988
 20
111.6713174136313
 30
0.0
 40
9.20000000634241
100
AcDbArc
 50
256.9971761847128
 51
270.0
  0
LINE
  5
A5E
330
1A
100
AcDbEntity
  8
SEIHIN
100
AcDbLine
 10
42.57938143704336
 20
178.6713174136313
 30
0.0
 11
42.57938143704336
 21
158.1713174136313
 31
0.0
  0
LINE
  5
A5F
330
1A
100
AcDbEntity
  8
SEIHIN
100
AcDbLine
 10
38.37938143704332
 20
178.6713174136313
 30
0.0
 11
38.37938143704332
 21
158.1713174136313
 31
0.0
  0
ARC
  5
A60
330
1A
100
AcDbEntity
  8
SEIHIN
100
AcDbCircle
 10
49.52938143704329
 20
158.7213174136312
 30
0.0
 40
1.949999999999988
100
AcDbArc
 50
0.0
 51
180.0
  0
LINE
  5
A61
330
1A
100
AcDbEntity
  8
SEIHIN
100
AcDbLine
 10
51.47938143704334
 20
158.7213174136312
 30
0.0
 11
51.47938143704334
 21
105.4713174136312
 31
0.0
  0
ARC
  5
A71
330
1A
100
AcDbEntity
  8
SEIHIN
100
AcDbCircle
 10
45.07938143704336
 20
158.1713174136313
 30
0.0
 40
2.5
100
AcDbArc
 50
180.0
 51
0.0
  0
LINE
  5
A72
330
1A
100
AcDbEntity
  8
SEIHIN
100
AcDbLine
 10
47.57938143704336
 20
158.6713174136312
 30
0.0
 11
47.57938143704336
 21
158.6713174136312
 31
0.0
  0
LINE
  5
A73
330
1A
100
AcDbEntity
  8
SEIHIN
100
AcDbLine
 10
47.57938143704336
 20
158.7213174136312
 30
0.0
 11
47.57938143704336
 21
158.1713174136313
 31
0.0
  0
LINE
  5
A74
330
1A
100
AcDbEntity
  8
SEIHIN
100
AcDbLine
 10
42.57938143704336
 20
167.4961294136312
 30
0.0
 11
42.57938143704336
 21
167.4961294136312
 31
0.0
  0
LINE
  5
A75
330
1A
100
AcDbEntity
  8
SEIHIN
100
AcDbLine
 10
38.37938143704332
 20
167.4961294136312
 30
0.0
 11
38.37938143704332
 21
167.4961294136312
 31
0.0
  0
LINE
  5
A76
330
1A
100
AcDbEntity
  8
SEIHIN
100
AcDbLine
 10
42.57938143704336
 20
166.5564024136313
 30
0.0
 11
42.57938143704336
 21
166.5564024136313
 31
0.0
  0
LINE
  5
A77
330
1A
100
AcDbEntity
  8
SEIHIN
100
AcDbLine
 10
38.37938143704332
 20
166.5564024136313
 30
0.0
 11
38.37938143704332
 21
166.5564024136313
 31
0.0
  0
LINE
  5
A78
330
1A
100
AcDbEntity
  8
SEIHIN
100
AcDbLine
 10
46.47938143704334
 20
182.6700674136312
 30
0.0
 11
46.47938143704334
 21
189.6713174136313
 31
0.0
  0
ARC
  5
A79
330
1A
100
AcDbEntity
  8
SEIHIN
100
AcDbCircle
 10
44.47938143704334
 20
182.6700674136312
 30
0.0
 40
1.99999999884376
100
AcDbArc
 50
271.4325437392202
 51
0.0
  0
ARC
  5
A7A
330
1A
100
AcDbEntity
  8
SEIHIN
100
AcDbCircle
 10
44.57938143704336
 20
178.6713174136313
 30
0.0
 40
2.0
100
AcDbArc
 50
90.0
 51
180.0
  0
ARC
  5
A7B
330
1A
100
AcDbEntity
  8
SEIHIN
100
AcDbCircle
 10
43.47938143704334
 20
189.6713174136313
 30
0.0
 40
3.0
100
AcDbArc
 50
0.0
 51
90.0
  0
LINE
  5
A7C
330
1A
100
AcDbEntity
  8
SEIHIN
100
AcDbLine
 10
102.5912977641988
 20
192.6713174136313
 30
0.0
 11
102.5912977641988
 21
145.6713174136313
 31
0.0
  0
LINE
  5
A7D
330
1A
100
AcDbEntity
  8
SEIHIN
100
AcDbLine
 10
101.3912977641989
 20
192.6713174136313
 30
0.0
 11
101.3912977641989
 21
145.6713174136313
 31
0.0
  0
ARC
  5
A7E
330
1A
100
AcDbEntity
  8
SEIHIN
100
AcDbCircle
 10
105.0381921641988
 20
140.4713174136312
 30
0.0
 40
2.999999985884628
100
AcDbArc
 50
10.35155819740191
 51
90.0
  0
LINE
  5
A7F
330
1A
100
AcDbEntity
  8
SEIHIN
100
AcDbLine
 10
108.9225930641989
 20
144.6713174136313
 30
0.0
 11
103.5912977641988
 21
144.6713174136313
 31
0.0
  0
LINE
  5
A80
330
1A
100
AcDbEntity
  8
SEIHIN
100
AcDbLine
 10
108.9225930641989
 20
143.4713174136312
 30
0.0
 11
103.5912977641988
 21
143.4713174136312
 31
0.0
  0
ARC
  5
A81
330
1A
100
AcDbEntity
  8
SEIHIN
100
AcDbCircle
 10
103.5912977641988
 20
145.6713174136313
 30
0.0
 40
1.0
100
AcDbArc
 50
180.0
 51
270.0
  0
LINE
  5
A82
330
1A
100
AcDbEntity
  8
SEIHIN
100
AcDbLine
 10
103.6245767641988
 20
144.6713174136313
 30
0.0
 11
103.6245767641988
 21
144.6713174136313
 31
0.0
  0
ARC
  5
A83
330
1A
100
AcDbEntity
  8
SEIHIN
100
AcDbCircle
 10
103.5912977641988
 20
145.6713174136313
 30
0.0
 40
2.199999999999988
100
AcDbArc
 50
180.0
 51
270.0
  0
ARC
  5
A84
330
1A
100
AcDbEntity
  8
SEIHIN
100
AcDbCircle
 10
108.9225930641989
 20
141.4713174136312
 30
0.0
 40
3.199999999587582
100
AcDbArc
 50
10.00469134359077
 51
90.0
  0
ARC
  5
A85
330
1A
100
AcDbEntity
  8
SEIHIN
100
AcDbCircle
 10
108.9225930641989
 20
141.4713174136312
 30
0.0
 40
2.000000016035531
100
AcDbArc
 50
10.00469045164722
 51
90.0
  0
LINE
  5
A86
330
1A
100
AcDbEntity
  8
SEIHIN
100
AcDbLine
 10
102.5912977641988
 20
151.2676514136312
 30
0.0
 11
102.5912977641988
 21
151.2676514136312
 31
0.0
  0
LINE
  5
A87
330
1A
100
AcDbEntity
  8
SEIHIN
100
AcDbLine
 10
102.5912977641988
 20
160.6713174136312
 30
0.0
 11
101.3912977641989
 21
160.6713174136312
 31
0.0
  0
LINE
  5
A88
330
1A
100
AcDbEntity
  8
SEIHIN
100
AcDbLine
 10
102.5912977641988
 20
180.6713174136312
 30
0.0
 11
101.3912977641989
 21
180.6713174136312
 31
0.0
  0
LINE
  5
A89
330
1A
100
AcDbEntity
  8
SEIHIN
100
AcDbLine
 10
102.5912977641988
 20
192.6713174136313
 30
0.0
 11
101.3912977641989
 21
192.6713174136313
 31
0.0
  0
LINE
  5
A8D
330
1A
100
AcDbEntity
  8
SEIHIN
100
AcDbLine
 10
213.1897054641989
 20
114.5456614136312
 30
0.0
 11
215.2595940641989
 21
135.2445547136312
 31
0.0
  0
LINE
  5
A8E
330
1A
100
AcDbEntity
  8
SEIHIN
100
AcDbLine
 10
218.4592913641989
 20
137.0919009136312
 30
0.0
 11
216.0511697641989
 21
113.0106766136313
 31
0.0
  0
LINE
  5
A93
330
1A
100
AcDbEntity
  8
SEIHIN
100
AcDbLine
 10
212.0451197641989
 20
115.1596554136313
 30
0.0
 11
214.0655494641989
 21
135.3639591136312
 31
0.0
  0
LINE
  5
A96
330
1A
100
AcDbEntity
  8
SEIHIN
100
AcDbLine
 10
202.0988398641989
 20
105.4713174136312
 30
0.0
 11
213.1897054641989
 21
114.5456614136312
 31
0.0
  0
LINE
  5
A97
330
1A
100
AcDbEntity
  8
SEIHIN
100
AcDbLine
 10
203.1697298641988
 20
102.4713174136312
 30
0.0
 11
216.0511697641989
 21
113.0106766136313
 31
0.0
  0
LINE
  5
A98
330
1A
100
AcDbEntity
  8
SEIHIN
100
AcDbLine
 10
201.6704837641989
 20
106.6713174136313
 30
0.0
 11
212.0451197641989
 21
115.1596554136313
 31
0.0
  0
LINE
  5
AC5
330
1A
100
AcDbEntity
  8
SEIHIN
100
AcDbLine
 10
215.1447290641989
 20
163.6847769136312
 30
0.0
 11
208.0306380641989
 21
158.7034369136312
 31
0.0
  0
LINE
  5
AC6
330
1A
100
AcDbEntity
  8
SEIHIN
100
AcDbLine
 10
223.5912977641989
 20
143.4599924136312
 30
0.0
 11
223.5912977641989
 21
161.8826424136312
 31
0.0
  0
LINE
  5
AC7
330
1A
100
AcDbEntity
  8
SEIHIN
100
AcDbLine
 10
215.8330207641989
 20
162.7017944136312
 30
0.0
 11
208.7189297641989
 21
157.7204544136312
 31
0.0
  0
LINE
  5
AC8
330
1A
100
AcDbEntity
  8
SEIHIN
100
AcDbLine
 10
224.7912977641989
 20
143.4599924136312
 30
0.0
 11
224.7912977641989
 21
161.8826424136312
 31
0.0
  0
LINE
  5
AC9
330
1A
100
AcDbEntity
  8
SEIHIN
100
AcDbLine
 10
223.0912977641988
 20
142.5939674136312
 30
0.0
 11
216.1447055641989
 21
138.5833503136312
 31
0.0
  0
ARC
  5
ACA
330
1A
100
AcDbEntity
  8
SEIHIN
100
AcDbCircle
 10
222.5912977641988
 20
143.4599924136312
 30
0.0
 40
2.200000005055114
100
AcDbArc
 50
299.9999998479836
 51
0.0
  0
LINE
  5
ACB
330
1A
100
AcDbEntity
  8
SEIHIN
100
AcDbLine
 10
223.6912978641988
 20
141.5547369136312
 30
0.0
 11
216.7447056641989
 21
137.5441198136312
 31
0.0
  0
ARC
  5
ACC
330
1A
100
AcDbEntity
  8
SEIHIN
100
AcDbCircle
 10
218.2447056641989
 20
134.9460436136312
 30
0.0
 40
4.200000021369245
100
AcDbArc
 50
120.0000011534159
 51
174.2894084913981
  0
ARC
  5
ACD
330
1A
100
AcDbEntity
  8
SEIHIN
100
AcDbCircle
 10
218.2447056641989
 20
134.9460436136312
 30
0.0
 40
3.000000006856998
100
AcDbArc
 50
120.0000001084146
 51
174.2894080027292
  0
ARC
  5
AD1
330
1A
100
AcDbEntity
  8
SEIHIN
100
AcDbCircle
 10
221.4444028641988
 20
136.7933898136312
 30
0.0
 40
2.999999957105099
100
AcDbArc
 50
120.0000001084146
 51
174.2894078126911
  0
LINE
  5
AD8
330
1A
100
AcDbEntity
  8
SEIHIN
100
AcDbLine
 10
208.0306380641989
 20
158.7034369136312
 30
0.0
 11
208.7189297641989
 21
157.7204544136312
 31
0.0
  0
ARC
  5
AD9
330
1A
100
AcDbEntity
  8
SEIHIN
100
AcDbCircle
 10
222.5912977641988
 20
143.4599924136312
 30
0.0
 40
0.9999999983612706
100
AcDbArc
 50
300.0000001084146
 51
0.0
  0
LINE
  5
ADA
330
1A
100
AcDbEntity
  8
SEIHIN
100
AcDbLine
 10
223.5912977641989
 20
152.0722484136312
 30
0.0
 11
223.5912977641989
 21
152.0722484136312
 31
0.0
  0
LINE
  5
ADB
330
1A
100
AcDbEntity
  8
SEIHIN
100
AcDbLine
 10
216.4065967641989
 20
162.8826424136312
 30
0.0
 11
222.5912977641988
 21
162.8826424136312
 31
0.0
  0
LINE
  5
ADC
330
1A
100
AcDbEntity
  8
SEIHIN
100
AcDbLine
 10
216.4065967641989
 20
164.0826424136312
 30
0.0
 11
222.5912977641988
 21
164.0826424136312
 31
0.0
  0
LINE
  5
ADD
330
1A
100
AcDbEntity
  8
SEIHIN
100
AcDbLine
 10
211.9641741641988
 20
161.4577284136312
 30
0.0
 11
212.6524657641989
 21
160.4747454136312
 31
0.0
  0
ARC
  5
ADE
330
1A
100
AcDbEntity
  8
SEIHIN
100
AcDbCircle
 10
216.4065967641989
 20
161.8826424136312
 30
0.0
 40
2.199999983850877
100
AcDbArc
 50
90.0
 51
124.9999986822715
  0
ARC
  5
ADF
330
1A
100
AcDbEntity
  8
SEIHIN
100
AcDbCircle
 10
216.4065967641989
 20
161.8826424136312
 30
0.0
 40
0.9999999714352551
100
AcDbArc
 50
90.0
 51
124.9999997494021
  0
ARC
  5
AE0
330
1A
100
AcDbEntity
  8
SEIHIN
100
AcDbCircle
 10
222.5912977641988
 20
161.8826424136312
 30
0.0
 40
2.200000000000017
100
AcDbArc
 50
0.0
 51
90.0
  0
ARC
  5
AE1
330
1A
100
AcDbEntity
  8
SEIHIN
100
AcDbCircle
 10
222.5912977641988
 20
161.8826424136312
 30
0.0
 40
1.0
100
AcDbArc
 50
0.0
 51
90.0
  0
LINE
  5
B9C
330
1A
100
AcDbEntity
  8
CENTER_L
100
AcDbLine
 10
164.0912977641988
 20
91.97131741363126
 30
0.0
 11
164.0912977641988
 21
113.6713174136313
 31
0.0
  0
LINE
  5
FEA
330
1A
100
AcDbEntity
  8
CENTER_L
100
AcDbLine
 10
329.6849907630376
 20
243.8367602931369
 30
0.0
 11
94.39129776419894
 21
243.8367602931369
 31
0.0
  0
LINE
  5
FEB
330
1A
100
AcDbEntity
  8
SEIHIN
100
AcDbLine
 10
224.7912977641989
 20
254.8367602931369
 30
0.0
 11
101.3912977641989
 21
254.8367602931369
 31
0.0
  0
LINE
  5
FEC
330
1A
100
AcDbEntity
  8
SEIHIN
100
AcDbLine
 10
224.7912977641989
 20
232.8367602931369
 30
0.0
 11
101.3912977641989
 21
232.8367602931369
 31
0.0
  0
LINE
  5
FED
330
1A
100
AcDbEntity
  8
SEIHIN
100
AcDbLine
 10
101.3912977641989
 20
254.8367602931369
 30
0.0
 11
101.3912977641989
 21
232.8367602931369
 31
0.0
  0
LINE
  5
FEE
330
1A
100
AcDbEntity
  8
SEIHIN
100
AcDbLine
 10
102.5912977641988
 20
254.8367602931369
 30
0.0
 11
102.5912977641988
 21
232.8367602931369
 31
0.0
  0
LINE
  5
FF0
330
1A
100
AcDbEntity
  8
SEIHIN
100
AcDbLine
 10
209.1013019286904
 20
237.8367602931369
 30
0.0
 11
110.2542739428287
 21
237.8367602931369
 31
0.0
  0
LINE
  5
FF1
330
1A
100
AcDbEntity
  8
SEIHIN
100
AcDbLine
 10
102.5912977641988
 20
249.8367602931369
 30
0.0
 11
101.3912977641989
 21
249.8367602931369
 31
0.0
  0
LINE
  5
FF2
330
1A
100
AcDbEntity
  8
SEIHIN
100
AcDbLine
 10
102.5912977641988
 20
237.8367602931369
 30
0.0
 11
101.3912977641989
 21
237.8367602931369
 31
0.0
  0
LINE
  5
FF3
330
1A
100
AcDbEntity
  8
SEIHIN
100
AcDbLine
 10
107.2542739428287
 20
240.8367602931369
 30
0.0
 11
107.2542739428287
 21
246.8367602931369
 31
0.0
  0
LINE
  5
FF5
330
1A
100
AcDbEntity
  8
SEIHIN
100
AcDbLine
 10
224.7912977641989
 20
232.8367602931369
 30
0.0
 11
224.7912977641989
 21
254.8367602931369
 31
0.0
  0
LINE
  5
FF6
330
1A
100
AcDbEntity
  8
SEIHIN
100
AcDbLine
 10
215.1447286549362
 20
232.8367602931369
 30
0.0
 11
215.1447286549362
 21
254.8367602931369
 31
0.0
  0
ARC
  5
FF8
330
1A
100
AcDbEntity
  8
SEIHIN
100
AcDbCircle
 10
225.3779691653427
 20
243.8367602931369
 30
0.0
 40
17.34733110114381
100
AcDbArc
 50
140.6464899728084
 51
219.3535100271917
  0
LINE
  5
FF9
330
1A
100
AcDbEntity
  8
SEIHIN
100
AcDbLine
 10
110.2518393549762
 20
232.8367602931369
 30
0.0
 11
110.2518393549762
 21
237.8367602931369
 31
0.0
  0
LINE
  5
FFA
330
1A
100
AcDbEntity
  8
SEIHIN
100
AcDbLine
 10
110.2518393549762
 20
249.8367602931369
 30
0.0
 11
110.2518393549762
 21
254.8367602931369
 31
0.0
  0
ARC
  5
FFB
330
1A
100
AcDbEntity
  8
SEIHIN
100
AcDbCircle
 10
110.2542739428287
 20
246.8367602931369
 30
0.0
 40
3.0
100
AcDbArc
 50
90.0
 51
180.0
  0
ARC
  5
FFC
330
1A
100
AcDbEntity
  8
SEIHIN
100
AcDbCircle
 10
110.2542739428287
 20
240.8367602931369
 30
0.0
 40
3.0
100
AcDbArc
 50
180.0
 51
270.0
  0
LINE
  5
11F6
330
1A
100
AcDbEntity
  8
SEIHIN
100
AcDbLine
 10
209.1013019286903
 20
249.8367602931369
 30
0.0
 11
110.2542739428287
 21
249.8367602931369
 31
0.0
  0
CIRCLE
  5
1218
330
1A
100
AcDbEntity
  8
SEIHIN
100
AcDbCircle
 10
164.0912977641988
 20
243.8367602931369
 30
0.0
 40
3.5
  0
LINE
  5
1395
330
1A
100
AcDbEntity
  8
CENTER_L
100
AcDbLine
 10
40.47938143704334
 20
199.6713174136313
 30
0.0
 11
40.47938143704334
 21
50.47352238224272
 31
0.0
  0
LINE
  5
13B2
330
1A
100
AcDbEntity
  8
SEIHIN
100
AcDbLine
 10
29.47938143704329
 20
158.7213174136312
 30
0.0
 11
29.47938143704334
 21
105.4713174136312
 31
0.0
  0
LINE
  5
20B2
330
1A
100
AcDbEntity
  8
SEIHIN
100
AcDbLine
 10
45.57938143704325
 20
102.4713174136312
 30
0.0
 11
40.47938143704334
 21
102.4713174136312
 31
0.0
  0
LINE
  5
20B3
330
1A
100
AcDbEntity
  8
SEIHIN
100
AcDbLine
 10
35.37938143704332
 20
102.4713174136312
 30
0.0
 11
37.62938143704332
 21
102.4713174136312
 31
0.0
  0
LINE
  5
20B4
330
1A
100
AcDbEntity
  8
SEIHIN
100
AcDbLine
 10
37.62938143704332
 20
102.4713174136312
 30
0.0
 11
40.47938143704334
 21
102.4713174136312
 31
0.0
  0
LINE
  5
20B5
330
1A
100
AcDbEntity
  8
SEIHIN
100
AcDbLine
 10
45.57938143704325
 20
100.4713174136312
 30
0.0
 11
35.37938143704332
 21
100.4713174136312
 31
0.0
  0
LINE
  5
20B6
330
1A
100
AcDbEntity
  8
SEIHIN
100
AcDbLine
 10
45.57938143704325
 20
100.4713174136312
 30
0.0
 11
43.22938143704334
 21
98.47131741363128
 31
0.0
  0
LINE
  5
20B7
330
1A
100
AcDbEntity
  8
SEIHIN
100
AcDbLine
 10
37.72938143704334
 20
98.47131741363128
 30
0.0
 11
35.37938143704332
 21
100.4713174136312
 31
0.0
  0
LINE
  5
20B9
330
1A
100
AcDbEntity
  8
SEIHIN
100
AcDbLine
 10
43.22938143704334
 20
98.47131741363128
 30
0.0
 11
37.72938143704334
 21
98.47131741363128
 31
0.0
  0
LINE
  5
20BE
330
1A
100
AcDbEntity
  8
SEIHIN
100
AcDbLine
 10
35.37938143704332
 20
100.4713174136312
 30
0.0
 11
35.37938143704332
 21
102.4713174136312
 31
0.0
  0
LINE
  5
20BF
330
1A
100
AcDbEntity
  8
SEIHIN
100
AcDbLine
 10
45.57938143704325
 20
100.4713174136312
 30
0.0
 11
45.57938143704325
 21
102.4713174136312
 31
0.0
  0
LINE
  5
20C0
330
1A
100
AcDbEntity
  8
CENTER_L
  6
CENTER
 62
     1
100
AcDbLine
 10
347.3925840878921
 20
132.0030507987026
 30
0.0
 11
160.1437977641988
 21
57.10891741363127
 31
0.0
  0
LINE
  5
20C1
330
1A
100
AcDbEntity
  8
SEIHIN
  6
CONTINUOUS
 62
     3
100
AcDbLine
 10
325.2493853439577
 20
125.9466833129618
 30
0.0
 11
167.3775977641988
 21
62.80251741363128
 31
0.0
  0
LINE
  5
20C2
330
1A
100
AcDbEntity
  8
SEIHIN
  6
CONTINUOUS
 62
     3
100
AcDbLine
 10
169.0343977641988
 20
57.86471741363127
 30
0.0
 11
327.1804853439578
 21
121.1185833129619
 31
0.0
  0
LINE
  5
20C4
330
1A
100
AcDbEntity
  8
SEIHIN
  6
CONTINUOUS
 62
     3
100
AcDbLine
 10
340.1421853439578
 20
129.1030833129619
 30
0.0
 11
327.1804853439578
 21
121.1185833129619
 31
0.0
  0
LINE
  5
20C5
330
1A
100
AcDbEntity
  8
SEIHIN
  6
CONTINUOUS
 62
     3
100
AcDbLine
 10
325.2493853439577
 20
125.9466833129618
 30
0.0
 11
340.1421853439578
 21
129.1030833129619
 31
0.0
  0
LINE
  5
20C7
330
1A
100
AcDbEntity
  8
SEIHIN
  6
CONTINUOUS
 62
     3
100
AcDbLine
 10
326.2148853439577
 20
123.5325833129619
 30
0.0
 11
331.5010853439578
 21
123.7800833129619
 31
0.0
  0
LINE
  5
20C8
330
1A
100
AcDbEntity
  8
SEIHIN
  6
CONTINUOUS
 62
     3
100
AcDbLine
 10
330.2136853439578
 20
126.9988833129619
 30
0.0
 11
326.2148853439577
 21
123.5325833129619
 31
0.0
  0
LINE
  5
20C9
330
1A
100
AcDbEntity
  8
SUNPOU
  6
CONTINUOUS
 62
     4
100
AcDbLine
 10
363.9797725064567
 20
138.6374494845012
 30
0.0
 11
383.9797725064564
 21
138.6374494845012
 31
0.0
  0
LINE
  5
20CA
330
1A
100
AcDbEntity
  8
SUNPOU
  6
CONTINUOUS
 62
     4
100
AcDbLine
 10
383.9797725064564
 20
146.6374494845012
 30
0.0
 11
363.9797725064567
 21
138.6374494845012
 31
0.0
  0
LINE
  5
20CB
330
1A
100
AcDbEntity
  8
SUNPOU
  6
CONTINUOUS
 62
     4
100
AcDbLine
 10
383.9797725064564
 20
138.6374494845012
 30
0.0
 11
383.9797725064564
 21
146.6374494845012
 31
0.0
  0
TEXT
  5
20CC
330
1A
100
AcDbEntity
  8
SUNPOU
  6
CONTINUOUS
 62
     4
100
AcDbText
 10
372.1153383233598
 20
133.582020342889
 30
0.0
 40
3.0
  1
10
100
AcDbText
  0
TEXT
  5
20CD
330
1A
100
AcDbEntity
  8
SUNPOU
  6
CONTINUOUS
 62
     4
100
AcDbText
 10
386.1271217406357
 20
140.3453494845012
 30
0.0
 40
3.0
  1
4
100
AcDbText
  0
LINE
  5
20CE
330
1A
100
AcDbEntity
  8
CENTER_L
  6
CENTER
 62
     1
100
AcDbLine
 10
164.0912977641988
 20
116.2922174136313
 30
0.0
 11
164.0912977641988
 21
51.79801741363127
 31
0.0
  0
LINE
  5
20CF
330
1A
100
AcDbEntity
  8
SEIHIN
  6
CONTINUOUS
 62
     3
100
AcDbLine
 10
166.6918977641988
 20
98.34416847746103
 30
0.0
 11
166.6918977641988
 21
63.26681741363128
 31
0.0
  0
LINE
  5
20D0
330
1A
100
AcDbEntity
  8
SEIHIN
  6
CONTINUOUS
 62
     3
100
AcDbLine
 10
161.4918977641989
 20
98.34314720086524
 30
0.0
 11
161.4918977641989
 21
62.97131741363128
 31
0.0
  0
ARC
  5
20D2
330
1A
100
AcDbEntity
  8
SEIHIN
  6
CONTINUOUS
 62
     3
100
AcDbCircle
 10
166.9918977641989
 20
62.97131741363128
 30
0.0
 40
5.499962
100
AcDbArc
 50
180.0
 51
291.8000550000006
  0
ARC
  5
20D3
330
1A
100
AcDbEntity
  8
SEIHIN
  6
CONTINUOUS
 62
     3
100
AcDbCircle
 10
167.1918977641988
 20
63.26681741363128
 30
0.0
 40
0.500029
100
AcDbArc
 50
180.0
 51
291.7992820000012
  0
LINE
  5
211D
330
1A
100
AcDbEntity
  8
SEIHIN
100
AcDbLine
 10
161.4918977641989
 20
98.34314720086524
 30
0.0
 11
158.9912977641988
 21
100.4713174136312
 31
0.0
  0
LINE
  5
211E
330
1A
100
AcDbEntity
  8
SEIHIN
100
AcDbLine
 10
158.9912977641988
 20
100.4713174136312
 30
0.0
 11
158.9912977641988
 21
102.4713174136312
 31
0.0
  0
LINE
  5
211F
330
1A
100
AcDbEntity
  8
SEIHIN
100
AcDbLine
 10
169.1912977641987
 20
100.4713174136312
 30
0.0
 11
166.6918977641988
 21
98.34416847746103
 31
0.0
  0
LINE
  5
2120
330
1A
100
AcDbEntity
  8
SEIHIN
100
AcDbLine
 10
169.1912977641987
 20
100.4713174136312
 30
0.0
 11
158.9912977641988
 21
100.4713174136312
 31
0.0
  0
LINE
  5
2121
330
1A
100
AcDbEntity
  8
SEIHIN
100
AcDbLine
 10
169.1912977641987
 20
100.4713174136312
 30
0.0
 11
169.1912977641987
 21
102.4713174136312
 31
0.0
  0
LINE
  5
2123
330
1A
100
AcDbEntity
  8
SEIHIN
100
AcDbLine
 10
161.4918977641989
 20
98.34314720086524
 30
0.0
 11
166.6918977641988
 21
98.34416847746103
 31
0.0
  0
DIMENSION
  5
2140
330
1A
100
AcDbEntity
  8
SUNPOU
100
AcDbDimension
  2
*D1
 10
224.7912977641989
 20
213.6613841375192
 30
0.0
 11
163.0912977641989
 21
216.1613841375192
 31
0.0
 70
    32
  3
STANDARD
100
AcDbAlignedDimension
 13
101.3912977641989
 23
192.6713174136313
 33
0.0
 14
224.7912977641989
 24
161.8826424136312
 34
0.0
100
AcDbRotatedDimension
1001
ACAD
1000
DSTYLE
1002
{
1070
    41
1040
3.0
1070
    42
1040
3.0
1070
    43
1040
7.0
1070
    44
1040
1.5
1070
    73
1070
     0
1070
    74
1070
     0
1070
    77
1070
     3
1070
   140
1040
3.0
1070
   141
1040
3.0
1070
   147
1040
1.0
1070
   172
1070
     1
1070
   173
1070
     1
1070
   176
1070
   256
1070
   177
1070
   256
1070
   178
1070
   256
1070
   271
1070
     0
1070
   272
1070
     0
1070
   341
1005
B2
1070
     6
1000
OPEN
1070
     7
1000
OPEN
1002
}
  0
LINE
  5
214D
330
1A
100
AcDbEntity
  8
SEIHIN
  6
CONTINUOUS
 62
     3
100
AcDbLine
 10
42.87928143704334
 20
57.47352238224272
 30
0.0
 11
42.87928143704334
 21
98.47131741363128
 31
0.0
  0
LINE
  5
214E
330
1A
100
AcDbEntity
  8
SEIHIN
  6
CONTINUOUS
 62
     3
100
AcDbLine
 10
42.87928143704334
 20
57.47352238224272
 30
0.0
 11
38.07928143704327
 21
57.47352238224272
 31
0.0
  0
LINE
  5
214F
330
1A
100
AcDbEntity
  8
SEIHIN
  6
CONTINUOUS
 62
     3
100
AcDbLine
 10
38.07928143704327
 20
57.47352238224272
 30
0.0
 11
38.07928143704327
 21
98.47131741363128
 31
0.0
  0
LINE
  5
2151
330
1A
100
AcDbEntity
  8
SEIHIN
  6
CONTINUOUS
 62
     3
100
AcDbLine
 10
306.5723805602273
 20
241.0869602931369
 30
0.0
 11
321.5723805602274
 21
243.8367602931369
 31
0.0
  0
LINE
  5
2152
330
1A
100
AcDbEntity
  8
SEIHIN
  6
CONTINUOUS
 62
     3
100
AcDbLine
 10
306.5722805602273
 20
246.5867602931369
 30
0.0
 11
321.5722805602272
 21
243.8367602931369
 31
0.0
  0
LINE
  5
2153
330
1A
100
AcDbEntity
  8
SEIHIN
  6
CONTINUOUS
 62
     3
100
AcDbLine
 10
224.7912977641989
 20
241.0869565677477
 30
0.0
 11
306.5723805602273
 21
241.0868602931369
 31
0.0
  0
LINE
  5
2154
330
1A
100
AcDbEntity
  8
SEIHIN
  6
CONTINUOUS
 62
     3
100
AcDbLine
 10
224.7912977641989
 20
246.5869565677429
 30
0.0
 11
306.5722805602273
 21
246.5868602931369
 31
0.0
  0
DIMENSION
  5
2156
330
1A
100
AcDbEntity
  8
SUNPOU
100
AcDbDimension
  2
*D2
 10
76.73681234219476
 20
106.8712958061145
 30
0.0
 11
74.23681234219474
 21
149.7713066098729
 31
0.0
 70
    32
  3
STANDARD
100
AcDbAlignedDimension
 13
101.3912977641989
 23
192.6713174136313
 33
0.0
 14
164.0912977641988
 24
106.8712958061145
 34
0.0
 50
90.0
100
AcDbRotatedDimension
1001
ACAD
1000
DSTYLE
1002
{
1070
    41
1040
3.0
1070
    42
1040
3.0
1070
    43
1040
7.0
1070
    44
1040
1.5
1070
    73
1070
     0
1070
    74
1070
     0
1070
    77
1070
     3
1070
   140
1040
3.0
1070
   141
1040
3.0
1070
   147
1040
1.0
1070
   172
1070
     1
1070
   173
1070
     1
1070
   176
1070
   256
1070
   177
1070
   256
1070
   178
1070
   256
1070
   271
1070
     0
1070
   272
1070
     0
1070
   341
1005
B2
1070
     6
1000
OPEN
1070
     7
1000
OPEN
1002
}
  0
DIMENSION
  5
2163
330
1A
100
AcDbEntity
  8
SUNPOU
100
AcDbDimension
  2
*D3
 10
76.73681234219474
 20
57.47135541363132
 30
0.0
 11
74.23681234219472
 21
82.17132560987295
 31
0.0
 70
    32
  1
H
  3
STANDARD
100
AcDbAlignedDimension
 13
164.0912977641988
 23
106.8712958061145
 33
0.0
 14
166.9918977641989
 24
57.47135541363128
 34
0.0
 50
90.0
100
AcDbRotatedDimension
1001
ACAD
1000
DSTYLE
1002
{
1070
   287
1070
     4
1070
   287
1070
     4
1070
   287
1070
     4
1070
   287
1070
     4
1070
   287
1070
     4
1070
   287
1070
     4
1070
   279
1070
     1
1070
    41
1040
3.0
1070
    42
1040
3.0
1070
    43
1040
7.0
1070
    44
1040
1.5
1070
    73
1070
     0
1070
    74
1070
     0
1070
    77
1070
     3
1070
   140
1040
3.0
1070
   141
1040
3.0
1070
   147
1040
1.0
1070
   172
1070
     1
1070
   173
1070
     1
1070
   176
1070
   256
1070
   177
1070
   256
1070
   178
1070
   256
1070
   271
1070
     0
1070
   272
1070
     0
1070
   341
1005
B2
1070
     6
1000
OPEN
1070
     7
1000
OPEN
1002
}
  0
DIMENSION
  5
2179
330
1A
100
AcDbEntity
  8
SUNPOU
100
AcDbDimension
  2
*D4
 10
357.5994899244415
 20
133.2853030878984
 30
0.0
 11
363.6343795261972
 21
124.9288620096272
 31
0.0
 70
    33
  3
STANDARD
100
AcDbAlignedDimension
 13
325.2493853439577
 23
125.9466833129618
 33
0.0
 14
327.1804853439577
 24
121.1185833129619
 34
0.0
1001
ACAD
1000
DSTYLE
1002
{
1070
    41
1040
3.0
1070
    42
1040
3.0
1070
    43
1040
7.0
1070
    44
1040
1.5
1070
    73
1070
     0
1070
    74
1070
     0
1070
    77
1070
     3
1070
   140
1040
3.0
1070
   141
1040
3.0
1070
   147
1040
1.0
1070
   172
1070
     1
1070
   173
1070
     1
1070
   176
1070
   256
1070
   177
1070
   256
1070
   178
1070
   256
1070
   271
1070
     1
1070
   272
1070
     0
1070
   341
1005
B2
1070
     6
1000
OPEN
1070
     7
1000
OPEN
1002
}
  0
DIMENSION
  5
2193
330
1A
100
AcDbEntity
  8
SUNPOU
100
AcDbDimension
  2
*D5
 10
345.3099214139883
 20
241.0869602931368
 30
0.0
 11
342.8099214139883
 21
231.0869602931369
 31
0.0
 70
    32
  3
STANDARD
100
AcDbAlignedDimension
 13
306.5722805602273
 23
246.5867602931369
 33
0.0
 14
306.5723805602273
 24
241.0869602931369
 34
0.0
 50
90.0
100
AcDbRotatedDimension
1001
ACAD
1000
DSTYLE
1002
{
1070
    41
1040
3.0
1070
    42
1040
3.0
1070
    43
1040
7.0
1070
    44
1040
1.5
1070
    73
1070
     0
1070
    74
1070
     0
1070
    77
1070
     3
1070
   140
1040
3.0
1070
   141
1040
3.0
1070
   147
1040
1.0
1070
   172
1070
     1
1070
   173
1070
     1
1070
   176
1070
   256
1070
   177
1070
   256
1070
   178
1070
   256
1070
   271
1070
     1
1070
   272
1070
     0
1070
   341
1005
B2
1070
     6
1000
OPEN
1070
     7
1000
OPEN
1002
}
  0
DIMENSION
  5
21BA
330
1A
100
AcDbEntity
  8
SUNPOU
100
AcDbDimension
  2
*D6
 10
350.8025081251494
 20
102.4501256731868
 30
0.0
 11
261.6679292426874
 21
69.49141138627715
 31
0.0
 70
    33
  3
STANDARD
100
AcDbAlignedDimension
 13
163.7297789956794
 23
58.54320685250964
 33
0.0
 14
340.1420983913509
 24
129.1030648841098
 34
0.0
1001
ACAD
1000
DSTYLE
1002
{
1070
    41
1040
3.0
1070
    42
1040
3.0
1070
    43
1040
7.0
1070
    44
1040
1.5
1070
    73
1070
     0
1070
    74
1070
     0
1070
    77
1070
     3
1070
   140
1040
3.0
1070
   141
1040
3.0
1070
   147
1040
1.0
1070
   172
1070
     1
1070
   173
1070
     1
1070
   176
1070
   256
1070
   177
1070
   256
1070
   178
1070
   256
1070
   271
1070
     0
1070
   272
1070
     0
1070
   341
1005
B2
1070
     6
1000
OPEN
1070
     7
1000
OPEN
1002
}
  0
DIMENSION
  5
21F1
330
1A
100
AcDbEntity
  8
SUNPOU
100
AcDbDimension
  2
*D7
 10
76.73681234219478
 20
232.8367602931369
 30
0.0
 11
74.23681234219474
 21
243.8367602931369
 31
0.0
 70
    32
  3
STANDARD
100
AcDbAlignedDimension
 13
101.3912977641989
 23
254.8367602931369
 33
0.0
 14
101.3912977641989
 24
232.8367602931369
 34
0.0
 50
90.0
100
AcDbRotatedDimension
1001
ACAD
1000
DSTYLE
1002
{
1070
    41
1040
3.0
1070
    42
1040
3.0
1070
    43
1040
7.0
1070
    44
1040
1.5
1070
    73
1070
     0
1070
    74
1070
     0
1070
    77
1070
     3
1070
   140
1040
3.0
1070
   141
1040
3.0
1070
   147
1040
1.0
1070
   172
1070
     1
1070
   173
1070
     1
1070
   176
1070
   256
1070
   177
1070
   256
1070
   178
1070
   256
1070
   271
1070
     0
1070
   272
1070
     0
1070
   341
1005
B2
1070
     6
1000
OPEN
1070
     7
1000
OPEN
1002
}
  0
LINE
  5
2276
330
1A
100
AcDbEntity
  8
SEIHIN
100
AcDbLine
 10
313.067989550107
 20
245.3958803116589
 30
0.0
 11
309.069290211602
 21
243.8367602931369
 31
0.0
  0
LINE
  5
2277
330
1A
100
AcDbEntity
  8
SEIHIN
100
AcDbLine
 10
309.069290211602
 20
243.8367602931369
 30
0.0
 11
313.067989550107
 21
242.2777353331616
 31
0.0
  0
LINE
  5
2478
330
1A
100
AcDbEntity
  8
SUNPOU
  6
CONTINUOUS
 62
     4
100
AcDbLine
 10
331.1313011384406
 20
73.73267711016379
 30
0.0
 11
391.1312861384406
 21
73.73267711016379
 31
0.0
  0
LINE
  5
2479
330
1A
100
AcDbEntity
  8
SUNPOU
  6
CONTINUOUS
 62
     4
100
AcDbLine
 10
331.1313011384406
 20
66.23267711016379
 30
0.0
 11
391.1313361384407
 21
66.23267711016379
 31
0.0
  0
LINE
  5
247A
330
1A
100
AcDbEntity
  8
SUNPOU
  6
CONTINUOUS
 62
     4
100
AcDbLine
 10
331.1313011384406
 20
58.73267711016385
 30
0.0
 11
391.1313361384407
 21
58.73267711016385
 31
0.0
  0
LINE
  5
247B
330
1A
100
AcDbEntity
  8
SUNPOU
  6
CONTINUOUS
 62
     4
100
AcDbLine
 10
331.1313011384406
 20
51.23264711016386
 30
0.0
 11
391.1313361384407
 21
51.23264711016386
 31
0.0
  0
LINE
  5
247C
330
1A
100
AcDbEntity
  8
SUNPOU
  6
CONTINUOUS
 62
     4
100
AcDbLine
 10
331.1313011384406
 20
43.73264711016386
 30
0.0
 11
391.1313361384407
 21
43.73264711016386
 31
0.0
  0
LINE
  5
247D
330
1A
100
AcDbEntity
  8
SUNPOU
  6
CONTINUOUS
 62
     4
100
AcDbLine
 10
331.1313011384406
 20
36.23264711016386
 30
0.0
 11
391.1313361384407
 21
36.23264711016386
 31
0.0
  0
LINE
  5
247E
330
1A
100
AcDbEntity
  8
SUNPOU
  6
CONTINUOUS
 62
     4
100
AcDbLine
 10
331.1313011384406
 20
28.73264711016384
 30
0.0
 11
391.1313361384407
 21
28.73264711016384
 31
0.0
  0
LINE
  5
247F
330
1A
100
AcDbEntity
  8
SUNPOU
  6
CONTINUOUS
 62
     4
100
AcDbLine
 10
331.1313011384406
 20
21.23264711016383
 30
0.0
 11
391.1313361384407
 21
21.23264711016383
 31
0.0
  0
LINE
  5
2480
330
1A
100
AcDbEntity
  8
SUNPOU
  6
CONTINUOUS
 62
     4
100
AcDbLine
 10
331.1313011384406
 20
73.73267711016379
 30
0.0
 11
331.1312961384406
 21
21.23264711016383
 31
0.0
  0
TEXT
  5
2481
330
1A
100
AcDbEntity
  8
SUNPOU
 62
     4
100
AcDbText
 10
370.5062861384407
 20
53.00294594737315
 30
0.0
 40
3.0
  1
２５
 41
1.125
100
AcDbText
  0
TEXT
  5
2482
330
1A
100
AcDbEntity
  8
SUNPOU
  6
CONTINUOUS
 62
     4
100
AcDbText
 10
340.5062711384406
 20
53.10764211016382
 30
0.0
 40
3.0
  1
＃５
 41
1.5
 72
     5
 11
349.5062711384406
 21
53.10764211016382
 31
0.0
100
AcDbText
  0
LINE
  5
2483
330
1A
100
AcDbEntity
  8
SUNPOU
  6
CONTINUOUS
 62
     4
100
AcDbLine
 10
391.1312861384406
 20
73.73267711016379
 30
0.0
 11
391.1313361384407
 21
21.23264711016383
 31
0.0
  0
LINE
  5
2484
330
1A
100
AcDbEntity
  8
SUNPOU
  6
CONTINUOUS
 62
     4
100
AcDbLine
 10
361.1313061384406
 20
21.23264711016383
 30
0.0
 11
361.1313311384407
 21
66.23267711016379
 31
0.0
  0
TEXT
  5
2485
330
1A
100
AcDbEntity
  8
SUNPOU
 62
     4
100
AcDbText
 10
370.5063361384407
 20
23.00300594737314
 30
0.0
 40
3.0
  1
４５
 41
1.125
100
AcDbText
  0
TEXT
  5
2486
330
1A
100
AcDbEntity
  8
SUNPOU
 62
     4
100
AcDbText
 10
370.5062861384407
 20
30.50294594737315
 30
0.0
 40
3.0
  1
４０
 41
1.125
100
AcDbText
  0
TEXT
  5
2487
330
1A
100
AcDbEntity
  8
SUNPOU
 62
     4
100
AcDbText
 10
370.5062861384407
 20
38.00294594737314
 30
0.0
 40
3.0
  1
３５
 41
1.125
100
AcDbText
  0
TEXT
  5
2488
330
1A
100
AcDbEntity
  8
SUNPOU
 62
     4
100
AcDbText
 10
370.5062861384407
 20
45.50294594737315
 30
0.0
 40
3.0
  1
３０
 41
1.125
100
AcDbText
  0
TEXT
  5
2489
330
1A
100
AcDbEntity
  8
SUNPOU
  6
CONTINUOUS
 62
     4
100
AcDbText
 10
340.5062632812966
 20
23.10764211016379
 30
0.0
 40
3.0
  1
＃１
 41
1.73076923076923
 72
     5
 11
349.5062632812965
 21
23.10764211016379
 31
0.0
100
AcDbText
  0
TEXT
  5
248A
330
1A
100
AcDbEntity
  8
SUNPOU
  6
CONTINUOUS
 62
     4
100
AcDbText
 10
340.5062682812965
 20
30.60764211016379
 30
0.0
 40
3.0
  1
＃２
 41
1.5
 72
     5
 11
349.5062682812965
 21
30.60764211016379
 31
0.0
100
AcDbText
  0
TEXT
  5
248B
330
1A
100
AcDbEntity
  8
SUNPOU
  6
CONTINUOUS
 62
     4
100
AcDbText
 10
340.5062711384406
 20
38.10764211016379
 30
0.0
 40
3.0
  1
＃３
 41
1.5
 72
     5
 11
349.5062711384406
 21
38.10764211016379
 31
0.0
100
AcDbText
  0
TEXT
  5
248C
330
1A
100
AcDbEntity
  8
SUNPOU
  6
CONTINUOUS
 62
     4
100
AcDbText
 10
340.5062682812965
 20
45.60764211016382
 30
0.0
 40
3.0
  1
＃４
 41
1.5
 72
     5
 11
349.5062682812965
 21
45.60764211016382
 31
0.0
100
AcDbText
  0
TEXT
  5
248D
330
1A
100
AcDbEntity
  8
SUNPOU
  6
CONTINUOUS
 62
     4
100
AcDbText
 10
370.506287567014
 20
60.60762711016386
 30
0.0
 40
3.0
  1
寸法
 41
1.406250000000017
 72
     5
 11
379.5062875670141
 21
60.60762711016386
 31
0.0
100
AcDbText
  0
TEXT
  5
248E
330
1A
100
AcDbEntity
  8
SUNPOU
  6
CONTINUOUS
 62
     4
100
AcDbText
 10
352.1521394863292
 20
68.47930744423226
 30
0.0
 40
3.0
  1
Ｈ　寸　法
 72
     4
 11
360.9521394863292
 21
69.97930744423226
 31
0.0
100
AcDbText
  0
TEXT
  5
248F
330
1A
100
AcDbEntity
  8
SUNPOU
  6
CONTINUOUS
 62
     4
100
AcDbText
 10
340.5062475670141
 20
60.60767211016386
 30
0.0
 40
3.0
  1
呼び
 41
1.40625
 72
     5
 11
349.5062475670141
 21
60.60767211016386
 31
0.0
100
AcDbText
  0
TEXT
  5
2610
330
1A
100
AcDbEntity
  8
MOJI
100
AcDbText
 10
119.9136009696084
 20
9.002460530947871
 30
0.0
 40
2.799999999999999
  1
亜鉛メッキ金具打込角足（受）
 41
0.9
  7
ｽﾀｲﾙ1
100
AcDbText
  0
LINE
  5
2611
330
1A
100
AcDbEntity
  8
ZUWAKU
100
AcDbLine
 10
104.3233002742168
 20
7.600000002244197
 30
0.0
 11
223.7121816146785
 21
7.600000002244193
 31
0.0
  0
LINE
  5
2612
330
1A
100
AcDbEntity
  8
ZUWAKU
100
AcDbLine
 10
104.3233002742168
 20
7.800000002244194
 30
0.0
 11
223.7121816146785
 21
7.800000002244198
 31
0.0
  0
LINE
  5
2613
330
1A
100
AcDbEntity
  8
ZUWAKU
100
AcDbLine
 10
104.3233002742168
 20
7.700000002244195
 30
0.0
 11
223.7121816146785
 21
7.700000002244195
 31
0.0
  0
LINE
  5
2614
330
1A
100
AcDbEntity
  8
ZUWAKU
100
AcDbLine
 10
-0.0000003708171334
 20
15.40000000224418
 30
0.0
 11
398.6999996291828
 21
15.40000000224418
 31
0.0
  0
LINE
  5
2615
330
1A
100
AcDbEntity
  8
ZUWAKU
100
AcDbLine
 10
-0.0000003708171334
 20
15.30000000224418
 30
0.0
 11
398.6999996291828
 21
15.30000000224418
 31
0.0
  0
LINE
  5
2616
330
1A
100
AcDbEntity
  8
ZUWAKU
100
AcDbLine
 10
-0.0000003708171334
 20
15.20000000224418
 30
0.0
 11
398.6999996291828
 21
15.20000000224418
 31
0.0
  0
LINE
  5
2617
330
1A
100
AcDbEntity
  8
ZUWAKU
100
AcDbLine
 10
-0.0000003708171334
 20
15.10000000224418
 30
0.0
 11
398.6999996291828
 21
15.10000000224418
 31
0.0
  0
LINE
  5
2618
330
1A
100
AcDbEntity
  8
ZUWAKU
100
AcDbLine
 10
-0.0000003708171334
 20
15.00000000224417
 30
0.0
 11
398.6999996291828
 21
15.00000000224417
 31
0.0
  0
LWPOLYLINE
  5
2619
330
1A
100
AcDbEntity
  8
ZUWAKU
100
AcDbPolyline
 90
        4
 70
     1
 43
0.0
 10
0.0999996291828325
 20
275.7000000022442
 10
0.0999996291828325
 20
0.1000000022442009
 10
398.6999996291828
 20
0.1000000022442125
 10
398.6999996291828
 20
275.7000000022442
  0
LWPOLYLINE
  5
261A
330
1A
100
AcDbEntity
  8
ZUWAKU
100
AcDbPolyline
 90
        4
 70
     1
 43
0.0
 10
0.2999996291828211
 20
275.5000000022442
 10
0.2999996291828211
 20
0.3000000022441895
 10
398.499999629183
 20
0.3000000022442126
 10
398.4999996291828
 20
275.5000000022442
  0
LWPOLYLINE
  5
261B
330
1A
100
AcDbEntity
  8
ZUWAKU
100
AcDbPolyline
 90
        4
 70
     1
 43
0.0
 10
-0.0000003708171334
 20
275.8000000022442
 10
-0.0000003708171334
 20
0.0000000022441782
 10
398.7999996291829
 20
0.0000000022442119
 10
398.7999996291829
 20
275.8000000022442
  0
LWPOLYLINE
  5
261C
330
1A
100
AcDbEntity
  8
ZUWAKU
100
AcDbPolyline
 90
        4
 70
     1
 43
0.0
 10
0.1999996291828552
 20
275.6000000022442
 10
0.1999996291828552
 20
0.2000000022442236
 10
398.5999996291829
 20
0.2000000022442121
 10
398.5999996291829
 20
275.6000000022442
  0
LWPOLYLINE
  5
261D
330
1A
100
AcDbEntity
  8
ZUWAKU
100
AcDbPolyline
 90
        4
 70
     1
 43
0.0
 10
0.3999996291828438
 20
275.4000000022442
 10
0.3999996291828438
 20
0.4000000022442123
 10
398.3999996291828
 20
0.4000000022442123
 10
398.3999996291828
 20
275.4000000022442
  0
LINE
  5
261E
330
1A
100
AcDbEntity
  8
ZUWAKU
100
AcDbLine
 10
24.19610570657346
 20
11.62500000224418
 30
0.0
 11
25.94610570657346
 21
11.62500000224418
 31
0.0
  0
LINE
  5
261F
330
1A
100
AcDbEntity
  8
ZUWAKU
100
AcDbLine
 10
25.94610570657346
 20
10.22500000224418
 30
0.0
 11
24.45860570657345
 21
10.22500000224418
 31
0.0
  0
ARC
  5
2620
330
1A
100
AcDbEntity
  8
ZUWAKU
100
AcDbCircle
 10
24.37110570657341
 20
5.882601014921853
 30
0.0
 40
0.7
100
AcDbArc
 50
0.0
 51
45.0
  0
ARC
  5
2621
330
1A
100
AcDbEntity
  8
ZUWAKU
100
AcDbCircle
 10
24.80860570657341
 20
5.237500002244182
 30
0.0
 40
0.2625
100
AcDbArc
 50
270.0
 51
0.0
  0
LINE
  5
2622
330
1A
100
AcDbEntity
  8
ZUWAKU
100
AcDbLine
 10
23.32110570657346
 20
3.575000002244181
 30
0.0
 11
25.07110570657346
 21
3.575000002244181
 31
0.0
  0
LINE
  5
2623
330
1A
100
AcDbEntity
  8
ZUWAKU
100
AcDbLine
 10
25.85602994706522
 20
7.367525255413593
 30
0.0
 11
24.40113095974282
 21
8.82242424273593
 31
0.0
  0
HATCH
  5
2624
330
1A
100
AcDbEntity
  8
ZUWAKU
100
AcDbHatch
 10
0.0
 20
0.0
 30
0.0
210
0.0
220
0.0
230
1.0
  2
ANSI37
 70
     0
 71
     0
 91
        8
 92
        7
 72
     1
 73
     1
 93
       24
 10
7.251130959742795
 20
8.822424242735969
 42
-0.1989123673796348
 10
7.046105706573428
 20
9.317398989566495
 42
0.0
 10
7.046105706573428
 20
9.962500002244183
 42
-0.4142135623730912
 10
7.308605706573416
 20
10.22500000224418
 42
0.0
 10
8.796105706573371
 20
10.22500000224418
 42
0.4142135623731546
 10
9.058605706573416
 20
10.48750000224417
 42
0.0
 10
9.058605706573416
 20
11.36250000224418
 42
0.4142135623731586
 10
8.796105706573371
 20
11.62500000224418
 42
0.0
 10
7.046105706573428
 20
11.62500000224418
 42
0.4142135623730928
 10
5.64610570657345
 20
10.22500000224419
 42
0.0
 10
5.64610570657345
 20
9.317398989566559
 42
0.1989123673796619
 10
6.261181466081666
 20
7.832474749074755
 42
0.0
 10
7.716080453404003
 20
6.377575761752426
 42
-0.1989123673796613
 10
7.921105706573428
 20
5.882601014921833
 42
0.0
 10
7.921105706573428
 20
5.237500002244175
 42
-0.4142135623730911
 10
7.658605706573439
 20
4.975000002244179
 42
0.0
 10
6.171105706573484
 20
4.975000002244179
 42
0.4142135623731526
 10
5.908605706573439
 20
4.712500002244185
 42
0.0
 10
5.908605706573439
 20
3.837500002244174
 42
0.4142135623731526
 10
6.171105706573484
 20
3.575000002244181
 42
0.0
 10
7.921105706573428
 20
3.575000002244181
 42
0.4142135623731044
 10
9.321105706573462
 20
4.975000002244168
 42
0.0
 10
9.321105706573462
 20
5.882601014921805
 42
0.1989123673796604
 10
8.706029947065189
 20
7.367525255413575
 42
0.0
 97
        0
 92
        7
 72
     1
 73
     1
 93
       16
 10
11.77110570657345
 20
9.525000002244183
 42
-0.4142135623730935
 10
12.47110570657343
 20
10.22500000224418
 42
0.0
 10
13.43360570657341
 20
10.22500000224418
 42
0.4142135623731546
 10
13.69610570657346
 20
10.48750000224417
 42
0.0
 10
13.69610570657346
 20
11.36250000224418
 42
0.4142135623730951
 10
13.43360570657347
 20
11.62500000224418
 42
0.0
 10
12.47110570657338
 20
11.62500000224416
 42
0.4142135623730892
 10
10.37110570657341
 20
9.525000002244148
 42
0.0
 10
10.37110570657341
 20
5.675000002244193
 42
0.4142135623730969
 10
12.47110570657343
 20
3.575000002244181
 42
0.0
 10
13.43360570657341
 20
3.575000002244181
 42
0.4142135623731526
 10
13.69610570657346
 20
3.837500002244174
 42
0.0
 10
13.69610570657346
 20
4.712500002244185
 42
0.4142135623730891
 10
13.43360570657347
 20
4.975000002244179
 42
0.0
 10
12.47110570657343
 20
4.975000002244179
 42
-0.4142135623730928
 10
11.77110570657345
 20
5.675000002244173
 42
0.0
 97
        0
 92
        7
 72
     1
 73
     1
 93
        2
 10
12.12110570657341
 20
7.600000002244179
 42
1.0
 10
13.87110570657341
 20
7.600000002244179
 42
1.0
 97
        0
 92
        7
 72
     1
 73
     1
 93
       26
 10
18.65742894766242
 20
9.602523599025893
 42
0.0
 10
19.18824876423133
 20
11.28345301816068
 42
0.5069206636600134
 10
18.93793331463365
 20
11.62500000224418
 42
0.0
 10
18.08848862482903
 20
11.62500000224418
 42
0.3272098845218764
 10
17.83817317523136
 20
11.44154698632766
 42
0.0
 10
16.90403823791547
 20
8.483453018160719
 42
-0.3272098845219541
 10
16.65372278831773
 20
8.300000002244178
 42
0.0
 10
16.5836057065735
 20
8.300000002244178
 42
-0.4142135623731526
 10
16.32110570657346
 20
8.562500002244172
 42
0.0
 10
16.32110570657346
 20
11.36250000224418
 42
0.4142135623730951
 10
16.05860570657347
 20
11.62500000224418
 42
0.0
 10
15.18360570657341
 20
11.62500000224418
 42
0.4142135623730871
 10
14.92110570657342
 20
11.36250000224418
 42
0.0
 10
14.92110570657342
 20
3.837500002244174
 42
0.4142135623730891
 10
15.18360570657341
 20
3.575000002244181
 42
0.0
 10
16.05860570657341
 20
3.575000002244181
 42
0.4142135623731526
 10
16.32110570657346
 20
3.837500002244174
 42
0.0
 10
16.32110570657346
 20
6.637500002244186
 42
-0.4142135623731526
 10
16.5836057065735
 20
6.90000000224418
 42
0.0
 10
16.65372278831779
 20
6.90000000224418
 42
-0.3272098845218915
 10
16.90403823791547
 20
6.716546986327642
 42
0.0
 10
17.83817317523136
 20
3.758453018160716
 42
0.3272098845218902
 10
18.08848862482903
 20
3.575000002244181
 42
0.0
 10
18.93793331463365
 20
3.575000002244181
 42
0.5069206636600335
 10
19.18824876423133
 20
3.916546986327684
 42
0.0
 10
18.0250530749945
 20
7.600000002244248
 42
0.0
 97
        0
 92
        7
 72
     1
 73
     1
 93
        8
 10
21.74610570657341
 20
11.36250000224418
 42
0.4142135623731546
 10
21.48360570657337
 20
11.62500000224418
 42
0.0
 10
20.60860570657348
 20
11.62500000224418
 42
0.4142135623731507
 10
20.34610570657343
 20
11.36250000224418
 42
0.0
 10
20.34610570657343
 20
3.837500002244174
 42
0.4142135623731526
 10
20.60860570657348
 20
3.575000002244181
 42
0.0
 10
21.48360570657337
 20
3.575000002244181
 42
0.4142135623731526
 10
21.74610570657341
 20
3.837500002244174
 42
0.0
 97
        0
 92
        7
 72
     1
 73
     1
 93
       24
 10
24.19610570657346
 20
9.962500002244183
 42
-0.4142135623731546
 10
24.4586057065735
 20
10.22500000224418
 42
0.0
 10
25.94610570657346
 20
10.22500000224418
 42
0.4142135623730911
 10
26.20860570657345
 20
10.48750000224417
 42
0.0
 10
26.20860570657345
 20
11.36250000224418
 42
0.4142135623730952
 10
25.94610570657346
 20
11.62500000224418
 42
0.0
 10
24.19610570657346
 20
11.62500000224418
 42
0.4142135623731048
 10
22.79610570657343
 20
10.22500000224419
 42
0.0
 10
22.79610570657343
 20
9.317398989566559
 42
0.1989123673796613
 10
23.4111814660817
 20
7.832474749074783
 42
0.0
 10
24.86608045340403
 20
6.377575761752449
 42
-0.1989123673796402
 10
25.07110570657346
 20
5.882601014921913
 42
0.0
 10
25.07110570657346
 20
5.237500002244175
 42
-0.4142135623730911
 10
24.80860570657347
 20
4.975000002244179
 42
0.0
 10
23.32110570657346
 20
4.975000002244179
 42
0.4142135623731526
 10
23.05860570657341
 20
4.712500002244185
 42
0.0
 10
23.05860570657341
 20
3.837500002244174
 42
0.4142135623730891
 10
23.3211057065734
 20
3.575000002244181
 42
0.0
 10
25.07110570657346
 20
3.575000002244181
 42
0.4142135623730925
 10
26.47110570657344
 20
4.975000002244168
 42
0.0
 10
26.47110570657344
 20
5.882601014921805
 42
0.1989123673796675
 10
25.85602994706516
 20
7.367525255413632
 42
0.0
 10
24.40113095974288
 20
8.822424242735889
 42
-0.1989123673796652
 10
24.19610570657346
 20
9.317398989566473
 42
0.0
 97
        0
 92
        7
 72
     1
 73
     1
 93
       16
 10
28.92110570657342
 20
11.36250000224417
 42
0.414213562373103
 10
28.65860570657344
 20
11.62500000224418
 42
0.0
 10
27.78360570657344
 20
11.62500000224418
 42
0.4142135623730871
 10
27.52110570657345
 20
11.36250000224418
 42
0.0
 10
27.52110570657345
 20
4.975000002244168
 42
0.4142135623730926
 10
28.92110570657342
 20
3.575000002244181
 42
0.0
 10
30.67110570657343
 20
3.575000002244181
 42
0.4142135623731044
 10
32.07110570657346
 20
4.975000002244168
 42
0.0
 10
32.07110570657346
 20
11.36250000224418
 42
0.4142135623730951
 10
31.80860570657347
 20
11.62500000224418
 42
0.0
 10
30.93360570657341
 20
11.62500000224418
 42
0.4142135623730871
 10
30.67110570657343
 20
11.36250000224418
 42
0.0
 10
30.67110570657343
 20
5.500000002244167
 42
-0.414213562373088
 10
30.14610570657345
 20
4.975000002244179
 42
0.0
 10
29.44610570657346
 20
4.975000002244179
 42
-0.4142135623731197
 10
28.92110570657342
 20
5.500000002244167
 42
0.0
 97
        0
 92
        7
 72
     1
 73
     1
 93
        8
 10
34.52110570657345
 20
11.36250000224418
 42
0.4142135623730871
 10
34.25860570657346
 20
11.62500000224418
 42
0.0
 10
33.38360570657346
 20
11.62500000224418
 42
0.4142135623731507
 10
33.12110570657341
 20
11.36250000224418
 42
0.0
 10
33.12110570657341
 20
3.837500002244174
 42
0.4142135623730891
 10
33.3836057065734
 20
3.575000002244181
 42
0.0
 10
34.25860570657346
 20
3.575000002244181
 42
0.4142135623730891
 10
34.52110570657345
 20
3.837500002244174
 42
0.0
 97
        0
 75
     0
 76
     1
 52
0.0
 41
0.1
 77
     0
 78
     2
 53
45.0
 43
-450.4711525381566
 44
-6.599999997755787
 45
-0.2245064030267288
 46
0.2245064030267288
 79
     0
 53
135.0
 43
-450.4711525381566
 44
-6.599999997755787
 45
-0.2245064030267288
 46
-0.2245064030267288
 79
     0
 47
0.057451373970553
 98
        8
 10
8.03992711069452
 20
7.583586825186955
 10
11.20225713240245
 20
9.422031093469684
 10
12.58218357201269
 20
7.755940825279537
 10
15.45702962000143
 20
8.100648825464929
 10
20.91923563866123
 20
8.330454959235737
 10
23.44910007674763
 20
9.709288160447783
 10
28.27884261538304
 20
9.364578959791685
 10
33.91353943899423
 20
9.594385093562493
  0
ARC
  5
2625
330
1A
100
AcDbEntity
  8
ZUWAKU
100
AcDbCircle
 10
7.221105706573439
 20
5.882601014921831
 30
0.0
 40
2.099999999999999
100
AcDbArc
 50
0.0
 51
45.0
  0
ARC
  5
2626
330
1A
100
AcDbEntity
  8
ZUWAKU
100
AcDbCircle
 10
7.921105706573428
 20
4.975000002244179
 30
0.0
 40
1.399999999999999
100
AcDbArc
 50
270.0
 51
0.0
  0
LINE
  5
2627
330
1A
100
AcDbEntity
  8
ZUWAKU
100
AcDbLine
 10
6.261181466081666
 20
7.832474749074769
 30
0.0
 11
7.716080453404003
 21
6.377575761752439
 31
0.0
  0
LINE
  5
2628
330
1A
100
AcDbEntity
  8
ZUWAKU
100
AcDbLine
 10
9.321105706573462
 20
4.975000002244179
 30
0.0
 11
9.321105706573462
 21
5.882601014921853
 31
0.0
  0
LINE
  5
2629
330
1A
100
AcDbEntity
  8
ZUWAKU
100
AcDbLine
 10
7.921105706573428
 20
5.237500002244182
 30
0.0
 11
7.921105706573428
 21
5.882601014921853
 31
0.0
  0
ARC
  5
262A
330
1A
100
AcDbEntity
  8
ZUWAKU
100
AcDbCircle
 10
7.658605706573439
 20
5.237500002244182
 30
0.0
 40
0.2625
100
AcDbArc
 50
270.0
 51
0.0
  0
ARC
  5
262B
330
1A
100
AcDbEntity
  8
ZUWAKU
100
AcDbCircle
 10
7.221105706573439
 20
5.882601014921853
 30
0.0
 40
0.7
100
AcDbArc
 50
0.0
 51
45.0
  0
LINE
  5
262C
330
1A
100
AcDbEntity
  8
ZUWAKU
100
AcDbLine
 10
5.908605706573439
 20
3.83750000224418
 30
0.0
 11
5.908605706573439
 21
4.71250000224418
 31
0.0
  0
ARC
  5
262D
330
1A
100
AcDbEntity
  8
ZUWAKU
100
AcDbCircle
 10
6.171105706573428
 20
3.83750000224418
 30
0.0
 40
0.2625
100
AcDbArc
 50
180.0
 51
270.0
  0
ARC
  5
262E
330
1A
100
AcDbEntity
  8
ZUWAKU
100
AcDbCircle
 10
6.171105706573428
 20
4.71250000224418
 30
0.0
 40
0.2625
100
AcDbArc
 50
90.0
 51
180.0
  0
LINE
  5
262F
330
1A
100
AcDbEntity
  8
ZUWAKU
100
AcDbLine
 10
6.171105706573428
 20
3.575000002244181
 30
0.0
 11
7.921105706573428
 21
3.575000002244181
 31
0.0
  0
LINE
  5
2630
330
1A
100
AcDbEntity
  8
ZUWAKU
100
AcDbLine
 10
6.171105706573428
 20
4.975000002244179
 30
0.0
 11
7.658605706573439
 21
4.975000002244179
 31
0.0
  0
LINE
  5
2631
330
1A
100
AcDbEntity
  8
ZUWAKU
100
AcDbLine
 10
9.058605706573416
 20
11.36250000224418
 30
0.0
 11
9.058605706573416
 21
10.48750000224417
 31
0.0
  0
LINE
  5
2632
330
1A
100
AcDbEntity
  8
ZUWAKU
100
AcDbLine
 10
7.046105706573428
 20
11.62500000224418
 30
0.0
 11
8.796105706573428
 21
11.62500000224418
 31
0.0
  0
ARC
  5
2633
330
1A
100
AcDbEntity
  8
ZUWAKU
100
AcDbCircle
 10
7.308605706573416
 20
9.96250000224418
 30
0.0
 40
0.2625
100
AcDbArc
 50
90.0
 51
180.0
  0
LINE
  5
2634
330
1A
100
AcDbEntity
  8
ZUWAKU
100
AcDbLine
 10
7.046105706573428
 20
9.96250000224418
 30
0.0
 11
7.046105706573428
 21
9.317398989566509
 31
0.0
  0
LINE
  5
2635
330
1A
100
AcDbEntity
  8
ZUWAKU
100
AcDbLine
 10
8.796105706573428
 20
10.22500000224418
 30
0.0
 11
7.308605706573416
 21
10.22500000224418
 31
0.0
  0
LINE
  5
2636
330
1A
100
AcDbEntity
  8
ZUWAKU
100
AcDbLine
 10
5.64610570657345
 20
10.22500000224418
 30
0.0
 11
5.64610570657345
 21
9.317398989566509
 31
0.0
  0
ARC
  5
2637
330
1A
100
AcDbEntity
  8
ZUWAKU
100
AcDbCircle
 10
7.046105706573428
 20
10.22500000224418
 30
0.0
 40
1.399999999999999
100
AcDbArc
 50
90.0
 51
180.0
  0
ARC
  5
2638
330
1A
100
AcDbEntity
  8
ZUWAKU
100
AcDbCircle
 10
8.796105706573428
 20
11.36250000224418
 30
0.0
 40
0.2625
100
AcDbArc
 50
0.0
 51
90.0
  0
ARC
  5
2639
330
1A
100
AcDbEntity
  8
ZUWAKU
100
AcDbCircle
 10
8.796105706573428
 20
10.48750000224417
 30
0.0
 40
0.2625
100
AcDbArc
 50
270.0
 51
0.0
  0
LINE
  5
263A
330
1A
100
AcDbEntity
  8
ZUWAKU
100
AcDbLine
 10
8.706029947065189
 20
7.367525255413593
 30
0.0
 11
7.251130959742852
 21
8.82242424273593
 31
0.0
  0
ARC
  5
263B
330
1A
100
AcDbEntity
  8
ZUWAKU
100
AcDbCircle
 10
7.746105706573416
 20
9.31739898956653
 30
0.0
 40
0.7
100
AcDbArc
 50
180.0000000000016
 51
224.9999999999988
  0
ARC
  5
263C
330
1A
100
AcDbEntity
  8
ZUWAKU
100
AcDbCircle
 10
7.746105706573416
 20
9.31739898956653
 30
0.0
 40
2.099999999999999
100
AcDbArc
 50
180.0
 51
225.0
  0
LINE
  5
263D
330
1A
100
AcDbEntity
  8
ZUWAKU
100
AcDbLine
 10
23.4111814660817
 20
7.832474749074769
 30
0.0
 11
24.86608045340403
 21
6.377575761752439
 31
0.0
  0
LINE
  5
263E
330
1A
100
AcDbEntity
  8
ZUWAKU
100
AcDbLine
 10
19.18824876423133
 20
3.916546986327666
 30
0.0
 11
18.0250530749945
 21
7.60000000224419
 31
0.0
  0
LINE
  5
263F
330
1A
100
AcDbEntity
  8
ZUWAKU
100
AcDbLine
 10
16.32110570657346
 20
3.83750000224418
 30
0.0
 11
16.32110570657346
 21
6.637500002244181
 31
0.0
  0
LINE
  5
2640
330
1A
100
AcDbEntity
  8
ZUWAKU
100
AcDbLine
 10
17.83817317523136
 20
3.758453018160693
 30
0.0
 11
16.90403823791547
 21
6.716546986327664
 31
0.0
  0
LINE
  5
2641
330
1A
100
AcDbEntity
  8
ZUWAKU
100
AcDbLine
 10
20.34610570657343
 20
11.36250000224418
 30
0.0
 11
20.34610570657343
 21
3.83750000224418
 31
0.0
  0
LINE
  5
2642
330
1A
100
AcDbEntity
  8
ZUWAKU
100
AcDbLine
 10
21.74610570657341
 20
3.83750000224418
 30
0.0
 11
21.74610570657341
 21
11.36250000224418
 31
0.0
  0
LINE
  5
2643
330
1A
100
AcDbEntity
  8
ZUWAKU
100
AcDbLine
 10
14.92110570657342
 20
11.36250000224418
 30
0.0
 11
14.92110570657342
 21
3.83750000224418
 31
0.0
  0
LINE
  5
2644
330
1A
100
AcDbEntity
  8
ZUWAKU
100
AcDbLine
 10
11.77110570657345
 20
9.52500000224418
 30
0.0
 11
11.77110570657345
 21
5.675000002244182
 31
0.0
  0
LINE
  5
2645
330
1A
100
AcDbEntity
  8
ZUWAKU
100
AcDbLine
 10
10.37110570657341
 20
5.675000002244182
 30
0.0
 11
10.37110570657341
 21
9.525000002244158
 31
0.0
  0
LINE
  5
2646
330
1A
100
AcDbEntity
  8
ZUWAKU
100
AcDbLine
 10
15.18360570657341
 20
3.575000002244181
 30
0.0
 11
16.05860570657341
 21
3.575000002244181
 31
0.0
  0
ARC
  5
2647
330
1A
100
AcDbEntity
  8
ZUWAKU
100
AcDbCircle
 10
16.05860570657341
 20
3.83750000224418
 30
0.0
 40
0.2625
100
AcDbArc
 50
270.0
 51
0.0
  0
LINE
  5
2648
330
1A
100
AcDbEntity
  8
ZUWAKU
100
AcDbLine
 10
13.69610570657346
 20
4.71250000224418
 30
0.0
 11
13.69610570657346
 21
3.83750000224418
 31
0.0
  0
ARC
  5
2649
330
1A
100
AcDbEntity
  8
ZUWAKU
100
AcDbCircle
 10
13.43360570657341
 20
3.83750000224418
 30
0.0
 40
0.2625
100
AcDbArc
 50
270.0
 51
0.0
  0
ARC
  5
264A
330
1A
100
AcDbEntity
  8
ZUWAKU
100
AcDbCircle
 10
13.43360570657341
 20
4.71250000224418
 30
0.0
 40
0.2625
100
AcDbArc
 50
0.0
 51
90.0
  0
ARC
  5
264B
330
1A
100
AcDbEntity
  8
ZUWAKU
100
AcDbCircle
 10
15.18360570657341
 20
3.83750000224418
 30
0.0
 40
0.2625
100
AcDbArc
 50
180.0
 51
270.0
  0
ARC
  5
264C
330
1A
100
AcDbEntity
  8
ZUWAKU
100
AcDbCircle
 10
12.47110570657343
 20
5.675000002244182
 30
0.0
 40
0.7
100
AcDbArc
 50
180.0
 51
270.0
  0
ARC
  5
264D
330
1A
100
AcDbEntity
  8
ZUWAKU
100
AcDbCircle
 10
12.47110570657343
 20
5.675000002244182
 30
0.0
 40
2.099999999999999
100
AcDbArc
 50
180.0
 51
270.0
  0
LINE
  5
264E
330
1A
100
AcDbEntity
  8
ZUWAKU
100
AcDbLine
 10
12.47110570657343
 20
4.975000002244179
 30
0.0
 11
13.43360570657341
 21
4.975000002244179
 31
0.0
  0
LINE
  5
264F
330
1A
100
AcDbEntity
  8
ZUWAKU
100
AcDbLine
 10
13.43360570657341
 20
3.575000002244181
 30
0.0
 11
12.47110570657343
 21
3.575000002244181
 31
0.0
  0
LINE
  5
2650
330
1A
100
AcDbEntity
  8
ZUWAKU
100
AcDbLine
 10
23.05860570657341
 20
3.83750000224418
 30
0.0
 11
23.05860570657341
 21
4.71250000224418
 31
0.0
  0
ARC
  5
2651
330
1A
100
AcDbEntity
  8
ZUWAKU
100
AcDbCircle
 10
23.32110570657346
 20
3.83750000224418
 30
0.0
 40
0.2625
100
AcDbArc
 50
180.0
 51
270.0
  0
ARC
  5
2652
330
1A
100
AcDbEntity
  8
ZUWAKU
100
AcDbCircle
 10
21.48360570657342
 20
3.83750000224418
 30
0.0
 40
0.2625
100
AcDbArc
 50
270.0
 51
0.0
  0
ARC
  5
2653
330
1A
100
AcDbEntity
  8
ZUWAKU
100
AcDbCircle
 10
23.32110570657346
 20
4.71250000224418
 30
0.0
 40
0.2625
100
AcDbArc
 50
90.0
 51
180.0
  0
LINE
  5
2654
330
1A
100
AcDbEntity
  8
ZUWAKU
100
AcDbLine
 10
23.32110570657346
 20
4.975000002244179
 30
0.0
 11
24.80860570657341
 21
4.975000002244179
 31
0.0
  0
ARC
  5
2655
330
1A
100
AcDbEntity
  8
ZUWAKU
100
AcDbCircle
 10
20.60860570657343
 20
3.83750000224418
 30
0.0
 40
0.2625
100
AcDbArc
 50
180.0
 51
270.0
  0
LINE
  5
2656
330
1A
100
AcDbEntity
  8
ZUWAKU
100
AcDbLine
 10
18.08848862482909
 20
3.575000002244181
 30
0.0
 11
18.93793331463359
 21
3.575000002244181
 31
0.0
  0
ARC
  5
2657
330
1A
100
AcDbEntity
  8
ZUWAKU
100
AcDbCircle
 10
18.93793331463359
 20
3.83750000224418
 30
0.0
 40
0.2625
100
AcDbArc
 50
270.0
 51
17.52556837372303
  0
ARC
  5
2658
330
1A
100
AcDbEntity
  8
ZUWAKU
100
AcDbCircle
 10
18.08848862482909
 20
3.83750000224418
 30
0.0
 40
0.2625
100
AcDbArc
 50
197.525568373723
 51
270.0
  0
LINE
  5
2659
330
1A
100
AcDbEntity
  8
ZUWAKU
100
AcDbLine
 10
20.60860570657343
 20
3.575000002244181
 30
0.0
 11
21.48360570657342
 21
3.575000002244181
 31
0.0
  0
LINE
  5
265A
330
1A
100
AcDbEntity
  8
ZUWAKU
100
AcDbLine
 10
17.83817317523136
 20
11.44154698632766
 30
0.0
 11
16.90403823791547
 21
8.483453018160695
 31
0.0
  0
ARC
  5
265B
330
1A
100
AcDbEntity
  8
ZUWAKU
100
AcDbCircle
 10
16.05860570657341
 20
11.36250000224418
 30
0.0
 40
0.2625
100
AcDbArc
 50
0.0
 51
90.0
  0
LINE
  5
265C
330
1A
100
AcDbEntity
  8
ZUWAKU
100
AcDbLine
 10
16.05860570657341
 20
11.62500000224418
 30
0.0
 11
15.18360570657341
 21
11.62500000224418
 31
0.0
  0
ARC
  5
265D
330
1A
100
AcDbEntity
  8
ZUWAKU
100
AcDbCircle
 10
13.43360570657341
 20
11.36250000224418
 30
0.0
 40
0.2625
100
AcDbArc
 50
0.0
 51
90.0
  0
ARC
  5
265E
330
1A
100
AcDbEntity
  8
ZUWAKU
100
AcDbCircle
 10
15.18360570657341
 20
11.36250000224418
 30
0.0
 40
0.2625
100
AcDbArc
 50
90.0
 51
180.0
  0
ARC
  5
265F
330
1A
100
AcDbEntity
  8
ZUWAKU
100
AcDbCircle
 10
13.43360570657341
 20
10.48750000224417
 30
0.0
 40
0.2625
100
AcDbArc
 50
270.0
 51
0.0
  0
LINE
  5
2660
330
1A
100
AcDbEntity
  8
ZUWAKU
100
AcDbLine
 10
13.69610570657346
 20
11.36250000224418
 30
0.0
 11
13.69610570657346
 21
10.48750000224417
 31
0.0
  0
ARC
  5
2661
330
1A
100
AcDbEntity
  8
ZUWAKU
100
AcDbCircle
 10
16.65372278831779
 20
8.562500002244181
 30
0.0
 40
0.2625
100
AcDbArc
 50
270.0
 51
342.4744316262769
  0
LINE
  5
2662
330
1A
100
AcDbEntity
  8
ZUWAKU
100
AcDbLine
 10
16.65372278831779
 20
8.300000002244178
 30
0.0
 11
16.58360570657345
 21
8.300000002244178
 31
0.0
  0
LINE
  5
2663
330
1A
100
AcDbEntity
  8
ZUWAKU
100
AcDbLine
 10
16.58360570657345
 20
6.90000000224418
 30
0.0
 11
16.65372278831779
 21
6.90000000224418
 31
0.0
  0
ARC
  5
2664
330
1A
100
AcDbEntity
  8
ZUWAKU
100
AcDbCircle
 10
16.58360570657345
 20
8.562500002244181
 30
0.0
 40
0.2625
100
AcDbArc
 50
180.0
 51
270.0
  0
ARC
  5
2665
330
1A
100
AcDbEntity
  8
ZUWAKU
100
AcDbCircle
 10
16.65372278831779
 20
6.637500002244181
 30
0.0
 40
0.2625
100
AcDbArc
 50
17.52556837372303
 51
90.0
  0
ARC
  5
2666
330
1A
100
AcDbEntity
  8
ZUWAKU
100
AcDbCircle
 10
16.58360570657345
 20
6.637500002244181
 30
0.0
 40
0.2625
100
AcDbArc
 50
90.0
 51
180.0
  0
LINE
  5
2667
330
1A
100
AcDbEntity
  8
ZUWAKU
100
AcDbLine
 10
16.32110570657346
 20
8.562500002244181
 30
0.0
 11
16.32110570657346
 21
11.36250000224418
 31
0.0
  0
ARC
  5
2668
330
1A
100
AcDbEntity
  8
ZUWAKU
100
AcDbCircle
 10
12.47110570657343
 20
9.52500000224418
 30
0.0
 40
0.7
100
AcDbArc
 50
90.0
 51
180.0
  0
ARC
  5
2669
330
1A
100
AcDbEntity
  8
ZUWAKU
100
AcDbCircle
 10
12.47110570657343
 20
9.525000002244158
 30
0.0
 40
2.099999999999999
100
AcDbArc
 50
90.0
 51
180.0
  0
LINE
  5
266A
330
1A
100
AcDbEntity
  8
ZUWAKU
100
AcDbLine
 10
12.47110570657343
 20
11.62500000224416
 30
0.0
 11
13.43360570657341
 21
11.62500000224418
 31
0.0
  0
LINE
  5
266B
330
1A
100
AcDbEntity
  8
ZUWAKU
100
AcDbLine
 10
13.43360570657341
 20
10.22500000224418
 30
0.0
 11
12.47110570657343
 21
10.22500000224418
 31
0.0
  0
CIRCLE
  5
266C
330
1A
100
AcDbEntity
  8
ZUWAKU
100
AcDbCircle
 10
12.99610570657341
 20
7.600000002244179
 30
0.0
 40
0.875
  0
ARC
  5
266D
330
1A
100
AcDbEntity
  8
ZUWAKU
100
AcDbCircle
 10
24.45860570657345
 20
9.96250000224418
 30
0.0
 40
0.2625
100
AcDbArc
 50
90.0
 51
180.0
  0
LINE
  5
266E
330
1A
100
AcDbEntity
  8
ZUWAKU
100
AcDbLine
 10
24.19610570657346
 20
9.96250000224418
 30
0.0
 11
24.19610570657346
 21
9.317398989566509
 31
0.0
  0
ARC
  5
266F
330
1A
100
AcDbEntity
  8
ZUWAKU
100
AcDbCircle
 10
21.48360570657342
 20
11.36250000224418
 30
0.0
 40
0.2625
100
AcDbArc
 50
0.0
 51
90.0
  0
LINE
  5
2670
330
1A
100
AcDbEntity
  8
ZUWAKU
100
AcDbLine
 10
22.79610570657343
 20
10.22500000224418
 30
0.0
 11
22.79610570657343
 21
9.317398989566509
 31
0.0
  0
ARC
  5
2671
330
1A
100
AcDbEntity
  8
ZUWAKU
100
AcDbCircle
 10
24.19610570657346
 20
10.22500000224418
 30
0.0
 40
1.399999999999999
100
AcDbArc
 50
90.0
 51
180.0
  0
ARC
  5
2672
330
1A
100
AcDbEntity
  8
ZUWAKU
100
AcDbCircle
 10
20.60860570657343
 20
11.36250000224418
 30
0.0
 40
0.2625
100
AcDbArc
 50
90.0
 51
180.0
  0
LINE
  5
2673
330
1A
100
AcDbEntity
  8
ZUWAKU
100
AcDbLine
 10
18.08848862482909
 20
11.62500000224418
 30
0.0
 11
18.93793331463359
 21
11.62500000224418
 31
0.0
  0
ARC
  5
2674
330
1A
100
AcDbEntity
  8
ZUWAKU
100
AcDbCircle
 10
18.93793331463359
 20
11.36250000224418
 30
0.0
 40
0.2625
100
AcDbArc
 50
342.4744316262769
 51
90.0
  0
LINE
  5
2675
330
1A
100
AcDbEntity
  8
ZUWAKU
100
AcDbLine
 10
19.18824876423133
 20
11.28345301816069
 30
0.0
 11
18.65742894766242
 21
9.602523599025893
 31
0.0
  0
ARC
  5
2676
330
1A
100
AcDbEntity
  8
ZUWAKU
100
AcDbCircle
 10
18.08848862482909
 20
11.36250000224418
 30
0.0
 40
0.2625
100
AcDbArc
 50
90.0
 51
162.4744316262769
  0
LINE
  5
2677
330
1A
100
AcDbEntity
  8
ZUWAKU
100
AcDbLine
 10
21.48360570657342
 20
11.62500000224418
 30
0.0
 11
20.60860570657343
 21
11.62500000224418
 31
0.0
  0
ARC
  5
2678
330
1A
100
AcDbEntity
  8
ZUWAKU
100
AcDbCircle
 10
24.89610570657345
 20
9.31739898956653
 30
0.0
 40
0.7
100
AcDbArc
 50
180.0000000000016
 51
224.9999999999988
  0
ARC
  5
2679
330
1A
100
AcDbEntity
  8
ZUWAKU
100
AcDbCircle
 10
24.89610570657345
 20
9.31739898956653
 30
0.0
 40
2.099999999999999
100
AcDbArc
 50
180.0
 51
225.0
  0
LINE
  5
267A
330
1A
100
AcDbEntity
  8
ZUWAKU
100
AcDbLine
 10
18.65742894766242
 20
9.602523599025893
 30
0.0
 11
18.0250530749945
 21
7.60000000224419
 31
0.0
  0
TEXT
  5
267B
330
1A
100
AcDbEntity
  8
MOJI
100
AcDbText
 10
46.47889442326743
 20
6.370589067381558
 30
0.0
 40
3.0
  1
新・丸トップＲＶ１０５
 41
0.9
  7
ｽﾀｲﾙ1
100
AcDbText
  0
ARC
  5
267C
330
1A
100
AcDbEntity
  8
ZUWAKU
100
AcDbCircle
 10
24.37110570657341
 20
5.882601014921831
 30
0.0
 40
2.099999999999999
100
AcDbArc
 50
0.0
 51
45.0
  0
LINE
  5
267D
330
1A
100
AcDbEntity
  8
ZUWAKU
100
AcDbLine
 10
39.66331440317697
 20
15.00000000224417
 30
0.0
 11
39.66331440317708
 21
0.4000000022442123
 31
0.0
  0
LINE
  5
267E
330
1A
100
AcDbEntity
  8
ZUWAKU
100
AcDbLine
 10
39.76331440317699
 20
15.00000000224417
 30
0.0
 11
39.7633144031771
 21
0.4000000022442123
 31
0.0
  0
LINE
  5
267F
330
1A
100
AcDbEntity
  8
ZUWAKU
100
AcDbLine
 10
39.56331440317706
 20
15.00000000224417
 30
0.0
 11
39.56331440317706
 21
0.4000000022442123
 31
0.0
  0
LINE
  5
2680
330
1A
100
AcDbEntity
  8
ZUWAKU
100
AcDbLine
 10
32.07110570657346
 20
4.975000002244179
 30
0.0
 11
32.07110570657346
 21
11.36250000224418
 31
0.0
  0
LINE
  5
2681
330
1A
100
AcDbEntity
  8
ZUWAKU
100
AcDbLine
 10
30.67110570657343
 20
11.36250000224418
 30
0.0
 11
30.67110570657343
 21
5.500000002244178
 31
0.0
  0
LINE
  5
2682
330
1A
100
AcDbEntity
  8
ZUWAKU
100
AcDbLine
 10
34.52110570657345
 20
3.83750000224418
 30
0.0
 11
34.52110570657345
 21
11.36250000224418
 31
0.0
  0
LINE
  5
2683
330
1A
100
AcDbEntity
  8
ZUWAKU
100
AcDbLine
 10
33.12110570657341
 20
11.36250000224418
 30
0.0
 11
33.12110570657341
 21
3.83750000224418
 31
0.0
  0
LINE
  5
2684
330
1A
100
AcDbEntity
  8
ZUWAKU
100
AcDbLine
 10
27.52110570657345
 20
11.36250000224418
 30
0.0
 11
27.52110570657345
 21
4.975000002244179
 31
0.0
  0
LINE
  5
2685
330
1A
100
AcDbEntity
  8
ZUWAKU
100
AcDbLine
 10
28.92110570657342
 20
5.500000002244178
 30
0.0
 11
28.92110570657342
 21
11.36250000224418
 31
0.0
  0
ARC
  5
2686
330
1A
100
AcDbEntity
  8
ZUWAKU
100
AcDbCircle
 10
30.14610570657345
 20
5.500000002244178
 30
0.0
 40
0.525
100
AcDbArc
 50
270.0
 51
0.0
  0
ARC
  5
2687
330
1A
100
AcDbEntity
  8
ZUWAKU
100
AcDbCircle
 10
30.67110570657343
 20
4.975000002244179
 30
0.0
 40
1.399999999999999
100
AcDbArc
 50
270.0
 51
0.0
  0
LINE
  5
2688
330
1A
100
AcDbEntity
  8
ZUWAKU
100
AcDbLine
 10
26.47110570657344
 20
4.975000002244179
 30
0.0
 11
26.47110570657344
 21
5.882601014921853
 31
0.0
  0
ARC
  5
2689
330
1A
100
AcDbEntity
  8
ZUWAKU
100
AcDbCircle
 10
29.44610570657346
 20
5.500000002244178
 30
0.0
 40
0.525
100
AcDbArc
 50
180.0
 51
270.0
  0
LINE
  5
268A
330
1A
100
AcDbEntity
  8
ZUWAKU
100
AcDbLine
 10
25.07110570657346
 20
5.237500002244182
 30
0.0
 11
25.07110570657346
 21
5.882601014921853
 31
0.0
  0
ARC
  5
268B
330
1A
100
AcDbEntity
  8
ZUWAKU
100
AcDbCircle
 10
28.92110570657342
 20
4.975000002244179
 30
0.0
 40
1.399999999999999
100
AcDbArc
 50
180.0
 51
270.0
  0
ARC
  5
268C
330
1A
100
AcDbEntity
  8
ZUWAKU
100
AcDbCircle
 10
25.07110570657346
 20
4.975000002244179
 30
0.0
 40
1.399999999999999
100
AcDbArc
 50
270.0
 51
0.0
  0
LINE
  5
268D
330
1A
100
AcDbEntity
  8
ZUWAKU
100
AcDbLine
 10
30.14610570657345
 20
4.975000002244179
 30
0.0
 11
29.44610570657346
 21
4.975000002244179
 31
0.0
  0
LINE
  5
268E
330
1A
100
AcDbEntity
  8
ZUWAKU
100
AcDbLine
 10
28.92110570657342
 20
3.575000002244181
 30
0.0
 11
30.67110570657343
 21
3.575000002244181
 31
0.0
  0
ARC
  5
268F
330
1A
100
AcDbEntity
  8
ZUWAKU
100
AcDbCircle
 10
34.25860570657346
 20
3.83750000224418
 30
0.0
 40
0.2625
100
AcDbArc
 50
270.0
 51
0.0
  0
ARC
  5
2690
330
1A
100
AcDbEntity
  8
ZUWAKU
100
AcDbCircle
 10
33.38360570657346
 20
3.83750000224418
 30
0.0
 40
0.2625
100
AcDbArc
 50
180.0
 51
270.0
  0
LINE
  5
2691
330
1A
100
AcDbEntity
  8
ZUWAKU
100
AcDbLine
 10
33.38360570657346
 20
3.575000002244181
 30
0.0
 11
34.25860570657346
 21
3.575000002244181
 31
0.0
  0
ARC
  5
2692
330
1A
100
AcDbEntity
  8
ZUWAKU
100
AcDbCircle
 10
31.80860570657341
 20
11.36250000224418
 30
0.0
 40
0.2625
100
AcDbArc
 50
0.0
 51
90.0
  0
LINE
  5
2693
330
1A
100
AcDbEntity
  8
ZUWAKU
100
AcDbLine
 10
31.80860570657341
 20
11.62500000224418
 30
0.0
 11
30.93360570657341
 21
11.62500000224418
 31
0.0
  0
ARC
  5
2694
330
1A
100
AcDbEntity
  8
ZUWAKU
100
AcDbCircle
 10
30.93360570657341
 20
11.36250000224418
 30
0.0
 40
0.2625
100
AcDbArc
 50
90.0
 51
180.0
  0
ARC
  5
2695
330
1A
100
AcDbEntity
  8
ZUWAKU
100
AcDbCircle
 10
28.65860570657344
 20
11.36250000224418
 30
0.0
 40
0.2625
100
AcDbArc
 50
0.0
 51
90.0
  0
ARC
  5
2696
330
1A
100
AcDbEntity
  8
ZUWAKU
100
AcDbCircle
 10
27.78360570657344
 20
11.36250000224418
 30
0.0
 40
0.2625
100
AcDbArc
 50
90.0
 51
180.0
  0
LINE
  5
2697
330
1A
100
AcDbEntity
  8
ZUWAKU
100
AcDbLine
 10
28.65860570657344
 20
11.62500000224418
 30
0.0
 11
27.78360570657344
 21
11.62500000224418
 31
0.0
  0
ARC
  5
2698
330
1A
100
AcDbEntity
  8
ZUWAKU
100
AcDbCircle
 10
25.94610570657346
 20
11.36250000224418
 30
0.0
 40
0.2625
100
AcDbArc
 50
0.0
 51
90.0
  0
ARC
  5
2699
330
1A
100
AcDbEntity
  8
ZUWAKU
100
AcDbCircle
 10
25.94610570657346
 20
10.48750000224417
 30
0.0
 40
0.2625
100
AcDbArc
 50
270.0
 51
0.0
  0
LINE
  5
269A
330
1A
100
AcDbEntity
  8
ZUWAKU
100
AcDbLine
 10
26.20860570657345
 20
11.36250000224418
 30
0.0
 11
26.20860570657345
 21
10.48750000224417
 31
0.0
  0
ARC
  5
269B
330
1A
100
AcDbEntity
  8
ZUWAKU
100
AcDbCircle
 10
34.25860570657346
 20
11.36250000224418
 30
0.0
 40
0.2625
100
AcDbArc
 50
0.0
 51
90.0
  0
ARC
  5
269C
330
1A
100
AcDbEntity
  8
ZUWAKU
100
AcDbCircle
 10
33.38360570657346
 20
11.36250000224418
 30
0.0
 40
0.2625
100
AcDbArc
 50
90.0
 51
180.0
  0
LINE
  5
269D
330
1A
100
AcDbEntity
  8
ZUWAKU
100
AcDbLine
 10
34.25860570657346
 20
11.62500000224418
 30
0.0
 11
33.38360570657346
 21
11.62500000224418
 31
0.0
  0
TEXT
  5
269E
330
1A
100
AcDbEntity
  8
ZUWAKU
100
AcDbText
 10
104.8620227853216
 20
4.827678271436987
 30
0.0
 40
2.0
  1
サイズ
 41
0.9
  7
ｽﾀｲﾙ1
100
AcDbText
  0
LINE
  5
269F
330
1A
100
AcDbEntity
  8
ZUWAKU
100
AcDbLine
 10
104.1233002742168
 20
15.00000000224417
 30
0.0
 11
104.1233002742168
 21
0.4000000022442123
 31
0.0
  0
LINE
  5
26A0
330
1A
100
AcDbEntity
  8
ZUWAKU
100
AcDbLine
 10
104.3233002742167
 20
15.00000000224417
 30
0.0
 11
104.3233002742168
 21
0.4000000022442123
 31
0.0
  0
LINE
  5
26A1
330
1A
100
AcDbEntity
  8
ZUWAKU
100
AcDbLine
 10
104.2233002742167
 20
15.00000000224417
 30
0.0
 11
104.2233002742168
 21
0.4000000022442123
 31
0.0
  0
TEXT
  5
26A2
330
1A
100
AcDbEntity
  8
ZUWAKU
100
AcDbText
 10
104.8620227853215
 20
12.02767827143697
 30
0.0
 40
2.0
  1
品名
 41
0.9
  7
ｽﾀｲﾙ1
100
AcDbText
  0
TEXT
  5
26A3
330
1A
100
AcDbEntity
  8
MOJI
100
AcDbText
 10
119.9136009696084
 20
1.602460530947888
 30
0.0
 40
2.799999999999999
  1
ＲＶ１０５－Ｌ１９０
 41
0.9
  7
ｽﾀｲﾙ1
100
AcDbText
  0
LINE
  5
26A4
330
1A
100
AcDbEntity
  8
ZUWAKU
100
AcDbLine
 10
252.5995893782533
 20
7.600000002244197
 30
0.0
 11
276.263477512239
 21
7.600000002244197
 31
0.0
  0
LINE
  5
26A5
330
1A
100
AcDbEntity
  8
ZUWAKU
100
AcDbLine
 10
252.5995893782533
 20
7.700000002244195
 30
0.0
 11
276.263477512239
 21
7.700000002244195
 31
0.0
  0
LINE
  5
26A6
330
1A
100
AcDbEntity
  8
ZUWAKU
100
AcDbLine
 10
252.5995893782533
 20
7.800000002244194
 30
0.0
 11
276.263477512239
 21
7.800000002244194
 31
0.0
  0
TEXT
  5
26A7
330
1A
100
AcDbEntity
  8
MOJI
100
AcDbText
 10
231.2836387901771
 20
5.97130886307417
 30
0.0
 40
2.799999999999999
  1
ＬＪ４５Ｇ
 41
0.9
  7
ｽﾀｲﾙ1
100
AcDbText
  0
TEXT
  5
26A8
330
1A
100
AcDbEntity
  8
ZUWAKU
100
AcDbText
 10
224.6509041257833
 20
12.02767827143697
 30
0.0
 40
2.0
  1
品番
 41
0.9
  7
ｽﾀｲﾙ1
100
AcDbText
  0
LINE
  5
26A9
330
1A
100
AcDbEntity
  8
ZUWAKU
100
AcDbLine
 10
223.8121816146784
 20
15.00000000224417
 30
0.0
 11
223.8121816146786
 21
0.4000000022442123
 31
0.0
  0
LINE
  5
26AA
330
1A
100
AcDbEntity
  8
ZUWAKU
100
AcDbLine
 10
223.9121816146785
 20
15.00000000224417
 30
0.0
 11
223.9121816146786
 21
0.4000000022442123
 31
0.0
  0
LINE
  5
26AB
330
1A
100
AcDbEntity
  8
ZUWAKU
100
AcDbLine
 10
223.7121816146785
 20
15.00000000224417
 30
0.0
 11
223.7121816146785
 21
0.4000000022442123
 31
0.0
  0
TEXT
  5
26AC
330
1A
100
AcDbEntity
  8
ZUWAKU
100
AcDbText
 10
253.3383118893582
 20
4.827678271436987
 30
0.0
 40
2.0
  1
縮尺
 41
0.9
  7
ｽﾀｲﾙ1
100
AcDbText
  0
LINE
  5
26AD
330
1A
100
AcDbEntity
  8
ZUWAKU
100
AcDbLine
 10
252.4995893782532
 20
15.00000000224417
 30
0.0
 11
252.4995893782534
 21
0.4000000022442123
 31
0.0
  0
LINE
  5
26AE
330
1A
100
AcDbEntity
  8
ZUWAKU
100
AcDbLine
 10
252.5995893782533
 20
15.00000000224417
 30
0.0
 11
252.5995893782534
 21
0.4000000022442123
 31
0.0
  0
LINE
  5
26AF
330
1A
100
AcDbEntity
  8
ZUWAKU
100
AcDbLine
 10
252.3995893782533
 20
15.00000000224417
 30
0.0
 11
252.3995893782533
 21
0.4000000022442123
 31
0.0
  0
TEXT
  5
26B0
330
1A
100
AcDbEntity
  8
ZUWAKU
100
AcDbText
 10
253.3383118893581
 20
12.02767827143697
 30
0.0
 40
2.0
  1
用紙
 41
0.9
  7
ｽﾀｲﾙ1
100
AcDbText
  0
TEXT
  5
26B1
330
1A
100
AcDbEntity
  8
MOJI
100
AcDbText
 10
264.0204536153393
 20
1.602460530947888
 30
0.0
 40
2.799999999999999
  1
１/１
 41
0.9
  7
ｽﾀｲﾙ1
100
AcDbText
  0
TEXT
  5
26B2
330
1A
100
AcDbEntity
  8
MOJI
100
AcDbText
 10
264.0204536153393
 20
9.002460530947871
 30
0.0
 40
2.799999999999999
  1
Ａ３
 41
0.9
  7
ｽﾀｲﾙ1
100
AcDbText
  0
LINE
  5
26B3
330
1A
100
AcDbEntity
  8
ZUWAKU
100
AcDbLine
 10
324.4086008842849
 20
7.600000002244193
 30
0.0
 11
348.6245049034534
 21
7.600000002244195
 31
0.0
  0
LINE
  5
26B4
330
1A
100
AcDbEntity
  8
ZUWAKU
100
AcDbLine
 10
324.408600884285
 20
7.700000002244197
 30
0.0
 11
348.6245049034534
 21
7.700000002244195
 31
0.0
  0
LINE
  5
26B5
330
1A
100
AcDbEntity
  8
ZUWAKU
100
AcDbLine
 10
324.4086008842849
 20
7.800000002244194
 30
0.0
 11
348.6245049034534
 21
7.800000002244194
 31
0.0
  0
TEXT
  5
26B6
330
1A
100
AcDbEntity
  8
ZUWAKU
100
AcDbText
 10
329.101968472834
 20
9.002460530947871
 30
0.0
 40
2.799999999999999
  1
　　．　　．　　
 41
0.9
  7
ｽﾀｲﾙ1
100
AcDbText
  0
LINE
  5
26B7
330
1A
100
AcDbEntity
  8
ZUWAKU
100
AcDbLine
 10
276.3634775122389
 20
15.00000000224417
 30
0.0
 11
276.3634775122391
 21
0.4000000022442123
 31
0.0
  0
LINE
  5
26B8
330
1A
100
AcDbEntity
  8
ZUWAKU
100
AcDbLine
 10
276.463477512239
 20
15.00000000224417
 30
0.0
 11
276.4634775122391
 21
0.4000000022442123
 31
0.0
  0
LINE
  5
26B9
330
1A
100
AcDbEntity
  8
ZUWAKU
100
AcDbLine
 10
276.263477512239
 20
15.00000000224417
 30
0.0
 11
276.263477512239
 21
0.4000000022442123
 31
0.0
  0
LINE
  5
26BA
330
1A
100
AcDbEntity
  8
ZUWAKU
100
AcDbLine
 10
324.308600884285
 20
15.00000000224417
 30
0.0
 11
324.3086008842851
 21
0.4000000022442123
 31
0.0
  0
LINE
  5
26BB
330
1A
100
AcDbEntity
  8
ZUWAKU
100
AcDbLine
 10
324.408600884285
 20
15.00000000224417
 30
0.0
 11
324.4086008842852
 21
0.4000000022442123
 31
0.0
  0
LINE
  5
26BC
330
1A
100
AcDbEntity
  8
ZUWAKU
100
AcDbLine
 10
324.2086008842851
 20
15.00000000224417
 30
0.0
 11
324.2086008842851
 21
0.4000000022442123
 31
0.0
  0
TEXT
  5
26BD
330
1A
100
AcDbEntity
  8
ZUWAKU
100
AcDbText
 10
325.1473233953898
 20
12.02767827143697
 30
0.0
 40
2.0
  1
DATE
 41
0.9
  7
ｽﾀｲﾙ1
100
AcDbText
  0
TEXT
  5
26BE
330
1A
100
AcDbEntity
  8
ZUWAKU
100
AcDbText
 10
354.2640417253047
 20
3.324420159171211
 30
0.0
 40
3.0
  1
建材事業部
 41
0.9
  7
ｽﾀｲﾙ1
100
AcDbText
  0
TEXT
  5
26BF
330
1A
100
AcDbEntity
  8
ZUWAKU
100
AcDbText
 10
354.2640417253047
 20
8.776919670087579
 30
0.0
 40
3.0
  1
積水化学工業株式会社
 41
0.9
  7
ｽﾀｲﾙ1
100
AcDbText
  0
LINE
  5
26C0
330
1A
100
AcDbEntity
  8
ZUWAKU
100
AcDbLine
 10
348.6245049034534
 20
15.00000000224417
 30
0.0
 11
348.6245049034534
 21
0.4000000022442123
 31
0.0
  0
LINE
  5
26C1
330
1A
100
AcDbEntity
  8
ZUWAKU
100
AcDbLine
 10
348.7245049034535
 20
15.00000000224417
 30
0.0
 11
348.7245049034535
 21
0.4000000022442123
 31
0.0
  0
LINE
  5
26C2
330
1A
100
AcDbEntity
  8
ZUWAKU
100
AcDbLine
 10
348.8245049034534
 20
15.00000000224417
 30
0.0
 11
348.8245049034535
 21
0.4000000022442123
 31
0.0
  0
LINE
  5
26C3
330
1A
100
AcDbEntity
  8
ZUWAKU
100
AcDbLine
 10
348.9245049034534
 20
15.00000000224417
 30
0.0
 11
348.9245049034535
 21
0.4000000022442123
 31
0.0
  0
VIEWPORT
  5
22
330
17
100
AcDbEntity
 67
     1
  8
0
100
AcDbViewport
 10
313.6808219178082
 20
148.5
 30
0.0
 40
627.3616438356165
 41
297.0
 68
     2
 69
     1
1001
ACAD
1000
MVIEW
1002
{
1070
    16
1010
0.0
1020
0.0
1030
0.0
1010
0.0
1020
0.0
1030
1.0
1040
0.0
1040
297.0
1040
313.6808219178082
1040
148.5
1040
50.0
1040
0.0
1040
0.0
1070
     0
1070
   100
1070
     1
1070
     0
1070
     0
1070
     0
1070
     0
1070
     0
1040
0.0
1040
0.0
1040
0.0
1040
1.0
1040
1.0
1040
10.0
1040
10.0
1070
     0
1002
{
1002
}
1002
}
  0
VIEWPORT
  5
64
330
17
100
AcDbEntity
 67
     1
  8
VIEWPORT
100
AcDbViewport
 10
210.0
 20
148.5
 30
0.0
 40
420.0
 41
297.0
 68
     1
 69
     2
1001
ACAD
1000
MVIEW
1002
{
1070
    16
1010
0.0
1020
0.0
1030
0.0
1010
0.0
1020
0.0
1030
1.0
1040
0.0
1040
302.9399999999998
1040
210.0
1040
148.5
1040
50.0
1040
0.0
1040
0.0
1070
     0
1070
   100
1070
     1
1070
     0
1070
     0
1070
     0
1070
     0
1070
     0
1040
0.0
1040
0.0
1040
0.0
1040
5.0
1040
5.0
1040
0.0
1040
0.0
1070
     0
1002
{
1002
}
1002
}
  0
ENDSEC
  0
SECTION
  2
OBJECTS
  0
DICTIONARY
  5
C
330
0
100
AcDbDictionary
  3
ACAD_GROUP
350
D
  3
ACAD_LAYOUT
350
141
  3
ACAD_MLINESTYLE
350
E
  3
ACAD_PLOTSETTINGS
350
142
  3
ACAD_PLOTSTYLENAME
350
13F
  3
ACADDIM
350
1A14
  3
ACDBVARIABLEDICTIONARY
350
120D
  3
ACDBHEADERROUNDTRIPXREC
350
26CB
  0
DICTIONARY
  5
7A2
330
1A
100
AcDbDictionary
280
     1
  3
ACAD_LAYOUTSELFREF
360
26ED
  0
DICTIONARY
  5
7A0
330
17
100
AcDbDictionary
280
     1
  3
ACAD_LAYOUTSELFREF
360
26EC
  0
DICTIONARY
  5
D
102
{ACAD_REACTORS
330
C
102
}
330
C
100
AcDbDictionary
  0
DICTIONARY
  5
141
102
{ACAD_REACTORS
330
C
102
}
330
C
100
AcDbDictionary
  0
DICTIONARY
  5
E
102
{ACAD_REACTORS
330
C
102
}
330
C
100
AcDbDictionary
  3
STANDARD
350
13
  0
DICTIONARY
  5
142
102
{ACAD_REACTORS
330
C
102
}
330
C
100
AcDbDictionary
  0
ACDBDICTIONARYWDFLT
  5
13F
102
{ACAD_REACTORS
330
C
102
}
330
C
100
AcDbDictionary
281
     1
  3
Normal
350
140
100
AcDbDictionaryWithDefault
340
140
1001
ACAD
1000
TREAT_AS_HARD
1070
     0
1000
TREAT_AS_HARD
1070
     0
1000
TREAT_AS_HARD
1070
     0
1000
TREAT_AS_HARD
1070
     0
1000
TREAT_AS_HARD
1070
     0
1000
TREAT_AS_HARD
1070
     0
1000
TREAT_AS_HARD
1070
     0
1000
TREAT_AS_HARD
1070
     0
1000
TREAT_AS_HARD
1070
     0
1000
TREAT_AS_HARD
1070
     0
1000
TREAT_AS_HARD
1070
     0
  0
XRECORD
  5
1A14
102
{ACAD_REACTORS
330
C
102
}
330
C
100
AcDbXrecord
 90
   990106
  3

 60
     0
 61
     0
 62
     1
 63
     3
 64
     0
 65
     0
 66
     0
 67
     3
 68
     1
 69
     0
 70
     0
 71
     0
 72
     0
 40
0.0
170
     0
340
0
  0
DICTIONARY
  5
120D
102
{ACAD_REACTORS
330
C
102
}
330
C
100
AcDbDictionary
  3
SORTENTS
350
120E
  0
DICTIONARY
  5
26CB
102
{ACAD_REACTORS
330
C
102
}
330
C
100
AcDbDictionary
  3
TSTACKALIGN
350
26CC
  3
TSTACKSIZE
350
26CD
  3
HYPERLINKBASE
350
26CE
  3
STYLESHEET
350
26CF
  3
LAYOUTDICT
350
26D0
  3
PLOTSETDICT
350
26D1
  3
PLOTSTYLNAMDICT
350
26D2
  3
LWETCUNION
350
26D3
  3
INSUNITS
350
26D4
  3
CEPSNTYPE
350
26D5
  3
FINGERPRINTGUID
350
26D6
  3
VERSIONGUID
350
26D7
  3
PSVPSCALE
350
26D8
  3
DIMSTYLEDATA
350
26D9
  3
PUCSORTHOREF
350
26DA
  3
PUCSORTHOVIEW
350
26DB
  3
PUCSBASE
350
26DC
  3
PUCSORGTOP
350
26DD
  3
PUCSORGBOTTOM
350
26DE
  3
PUCSORGLEFT
350
26DF
  3
PUCSORGRIGHT
350
26E0
  3
PUCSORGFRONT
350
26E1
  3
PUCSORGBACK
350
26E2
  3
UCSORTHOREF
350
26E3
  3
UCSORTHOVIEW
350
26E4
  3
UCSBASE
350
26E5
  3
UCSORGTOP
350
26E6
  3
UCSORGBOTTOM
350
26E7
  3
UCSORGLEFT
350
26E8
  3
UCSORGRIGHT
350
26E9
  3
UCSORGFRONT
350
26EA
  3
UCSORGBACK
350
26EB
  0
XRECORD
  5
26ED
102
{ACAD_REACTORS
330
7A2
102
}
330
7A2
100
AcDbXrecord
340
1A
  0
XRECORD
  5
26EC
102
{ACAD_REACTORS
330
7A0
102
}
330
7A0
100
AcDbXrecord
340
17
  0
MLINESTYLE
  5
13
102
{ACAD_REACTORS
330
E
102
}
330
E
100
AcDbMlineStyle
  2
STANDARD
 70
     0
  3

 62
     0
 51
90.0
 52
90.0
 71
     2
 49
0.5
 62
   256
  6
BYLAYER
 49
-0.5
 62
   256
  6
BYLAYER
  0
ACDBPLACEHOLDER
  5
140
102
{ACAD_REACTORS
330
13F
102
}
330
13F
100
AcDbPlaceHolder
280
     0
  0
DICTIONARYVAR
  5
120E
102
{ACAD_REACTORS
330
120D
102
}
330
120D
100
DictionaryVariables
280
     0
  1
96
  0
XRECORD
  5
26CC
102
{ACAD_REACTORS
330
26CB
102
}
330
26CB
100
AcDbXrecord
 90
        1
  0
XRECORD
  5
26CD
102
{ACAD_REACTORS
330
26CB
102
}
330
26CB
100
AcDbXrecord
 90
       70
  0
XRECORD
  5
26CE
102
{ACAD_REACTORS
330
26CB
102
}
330
26CB
100
AcDbXrecord
  1

  0
XRECORD
  5
26CF
102
{ACAD_REACTORS
330
26CB
102
}
330
26CB
100
AcDbXrecord
  1
systemprinter.ctb
  0
XRECORD
  5
26D0
102
{ACAD_REACTORS
330
26CB
102
}
330
26CB
100
AcDbXrecord
340
141
  0
XRECORD
  5
26D1
102
{ACAD_REACTORS
330
26CB
102
}
330
26CB
100
AcDbXrecord
340
142
  0
XRECORD
  5
26D2
102
{ACAD_REACTORS
330
26CB
102
}
330
26CB
100
AcDbXrecord
340
13F
  0
XRECORD
  5
26D3
102
{ACAD_REACTORS
330
26CB
102
}
330
26CB
100
AcDbXrecord
 90
    10781
  0
XRECORD
  5
26D4
102
{ACAD_REACTORS
330
26CB
102
}
330
26CB
100
AcDbXrecord
 90
        0
  0
XRECORD
  5
26D5
102
{ACAD_REACTORS
330
26CB
102
}
330
26CB
100
AcDbXrecord
 90
        0
  0
XRECORD
  5
26D6
102
{ACAD_REACTORS
330
26CB
102
}
330
26CB
100
AcDbXrecord
  1
{4E8D0500-CDD1-11D3-932C-444553540000}
  0
XRECORD
  5
26D7
102
{ACAD_REACTORS
330
26CB
102
}
330
26CB
100
AcDbXrecord
  1
{9B52EEC2-89C8-41C6-8D9B-F912EB9D97B5}
  0
XRECORD
  5
26D8
102
{ACAD_REACTORS
330
26CB
102
}
330
26CB
100
AcDbXrecord
 40
0.0
  0
XRECORD
  5
26D9
102
{ACAD_REACTORS
330
26CB
102
}
330
26CB
100
AcDbXrecord
1000
DSTYLE
1002
{
1070
   341
340
B2
1070
   343
340
B2
1070
   344
340
B2
1070
   371
 70
    -1
1070
   372
 70
    -1
1002
}
  0
XRECORD
  5
26DA
102
{ACAD_REACTORS
330
26CB
102
}
330
26CB
100
AcDbXrecord
340
0
  0
XRECORD
  5
26DB
102
{ACAD_REACTORS
330
26CB
102
}
330
26CB
100
AcDbXrecord
 70
     0
  0
XRECORD
  5
26DC
102
{ACAD_REACTORS
330
26CB
102
}
330
26CB
100
AcDbXrecord
340
0
  0
XRECORD
  5
26DD
102
{ACAD_REACTORS
330
26CB
102
}
330
26CB
100
AcDbXrecord
 10
0.0
 20
0.0
 30
0.0
  0
XRECORD
  5
26DE
102
{ACAD_REACTORS
330
26CB
102
}
330
26CB
100
AcDbXrecord
 10
0.0
 20
0.0
 30
0.0
  0
XRECORD
  5
26DF
102
{ACAD_REACTORS
330
26CB
102
}
330
26CB
100
AcDbXrecord
 10
0.0
 20
0.0
 30
0.0
  0
XRECORD
  5
26E0
102
{ACAD_REACTORS
330
26CB
102
}
330
26CB
100
AcDbXrecord
 10
0.0
 20
0.0
 30
0.0
  0
XRECORD
  5
26E1
102
{ACAD_REACTORS
330
26CB
102
}
330
26CB
100
AcDbXrecord
 10
0.0
 20
0.0
 30
0.0
  0
XRECORD
  5
26E2
102
{ACAD_REACTORS
330
26CB
102
}
330
26CB
100
AcDbXrecord
 10
0.0
 20
0.0
 30
0.0
  0
XRECORD
  5
26E3
102
{ACAD_REACTORS
330
26CB
102
}
330
26CB
100
AcDbXrecord
340
0
  0
XRECORD
  5
26E4
102
{ACAD_REACTORS
330
26CB
102
}
330
26CB
100
AcDbXrecord
 70
     0
  0
XRECORD
  5
26E5
102
{ACAD_REACTORS
330
26CB
102
}
330
26CB
100
AcDbXrecord
340
0
  0
XRECORD
  5
26E6
102
{ACAD_REACTORS
330
26CB
102
}
330
26CB
100
AcDbXrecord
 10
0.0
 20
0.0
 30
0.0
  0
XRECORD
  5
26E7
102
{ACAD_REACTORS
330
26CB
102
}
330
26CB
100
AcDbXrecord
 10
0.0
 20
0.0
 30
0.0
  0
XRECORD
  5
26E8
102
{ACAD_REACTORS
330
26CB
102
}
330
26CB
100
AcDbXrecord
 10
0.0
 20
0.0
 30
0.0
  0
XRECORD
  5
26E9
102
{ACAD_REACTORS
330
26CB
102
}
330
26CB
100
AcDbXrecord
 10
0.0
 20
0.0
 30
0.0
  0
XRECORD
  5
26EA
102
{ACAD_REACTORS
330
26CB
102
}
330
26CB
100
AcDbXrecord
 10
0.0
 20
0.0
 30
0.0
  0
XRECORD
  5
26EB
102
{ACAD_REACTORS
330
26CB
102
}
330
26CB
100
AcDbXrecord
 10
0.0
 20
0.0
 30
0.0
  0
ENDSEC
  0
EOF
