  0
SECTION
  2
HEADER
  9
$ACADVER
  1
AC1014
  9
$ACADMAINTVER
 70
     9
  9
$DWGCODEPAGE
  3
ANSI_932
  9
$INSBASE
 10
0.0
 20
0.0
 30
0.0
  9
$EXTMIN
 10
-0.0128167419908323
 20
-0.0090632967028341
 30
-0.0015258207003583
  9
$EXTMAX
 10
398.8000497643211
 20
275.8226172249287
 30
0.0000000349246037
  9
$LIMMIN
 10
0.0
 20
0.0
  9
$LIMMAX
 10
420.0
 20
297.0
  9
$ORTHOMODE
 70
     0
  9
$REGENMODE
 70
     1
  9
$FILLMODE
 70
     1
  9
$QTEXTMODE
 70
     0
  9
$MIRRTEXT
 70
     1
  9
$DRAGMODE
 70
     2
  9
$LTSCALE
 40
5.0
  9
$OSMODE
 70
    35
  9
$ATTMODE
 70
     1
  9
$TEXTSIZE
 40
3.0
  9
$TRACEWID
 40
1.0
  9
$TEXTSTYLE
  7
STANDARD
  9
$CLAYER
  8
ZUWAKU
  9
$CELTYPE
  6
BYLAYER
  9
$CECOLOR
 62
   256
  9
$CELTSCALE
 40
1.0
  9
$DELOBJ
 70
     1
  9
$DISPSILH
 70
     0
  9
$DIMSCALE
 40
1.0
  9
$DIMASZ
 40
3.0
  9
$DIMEXO
 40
3.0
  9
$DIMDLI
 40
7.0
  9
$DIMRND
 40
0.0
  9
$DIMDLE
 40
0.0
  9
$DIMEXE
 40
1.5
  9
$DIMTP
 40
0.0
  9
$DIMTM
 40
0.0
  9
$DIMTXT
 40
3.0
  9
$DIMCEN
 40
3.0
  9
$DIMTSZ
 40
0.0
  9
$DIMTOL
 70
     0
  9
$DIMLIM
 70
     0
  9
$DIMTIH
 70
     0
  9
$DIMTOH
 70
     0
  9
$DIMSE1
 70
     0
  9
$DIMSE2
 70
     0
  9
$DIMTAD
 70
     3
  9
$DIMZIN
 70
     0
  9
$DIMBLK
  1

  9
$DIMASO
 70
     1
  9
$DIMSHO
 70
     1
  9
$DIMPOST
  1

  9
$DIMAPOST
  1

  9
$DIMALT
 70
     0
  9
$DIMALTD
 70
     2
  9
$DIMALTF
 40
25.4
  9
$DIMLFAC
 40
1.0
  9
$DIMTOFL
 70
     1
  9
$DIMTVP
 40
0.0
  9
$DIMTIX
 70
     0
  9
$DIMSOXD
 70
     0
  9
$DIMSAH
 70
     1
  9
$DIMBLK1
  1
OPEN
  9
$DIMBLK2
  1
OPEN
  9
$DIMSTYLE
  2
STANDARD
  9
$DIMCLRD
 70
   256
  9
$DIMCLRE
 70
   256
  9
$DIMCLRT
 70
   256
  9
$DIMTFAC
 40
1.0
  9
$DIMGAP
 40
1.0
  9
$DIMJUST
 70
     0
  9
$DIMSD1
 70
     0
  9
$DIMSD2
 70
     0
  9
$DIMTOLJ
 70
     1
  9
$DIMTZIN
 70
     0
  9
$DIMALTZ
 70
     0
  9
$DIMALTTZ
 70
     0
  9
$DIMFIT
 70
     3
  9
$DIMUPT
 70
     0
  9
$DIMUNIT
 70
     2
  9
$DIMDEC
 70
     0
  9
$DIMTDEC
 70
     0
  9
$DIMALTU
 70
     2
  9
$DIMALTTD
 70
     2
  9
$DIMTXSTY
  7
STANDARD
  9
$DIMAUNIT
 70
     0
  9
$LUNITS
 70
     2
  9
$LUPREC
 70
     4
  9
$SKETCHINC
 40
1.0
  9
$FILLETRAD
 40
0.5
  9
$AUNITS
 70
     0
  9
$AUPREC
 70
     0
  9
$MENU
  1
.
  9
$ELEVATION
 40
0.0
  9
$PELEVATION
 40
0.0
  9
$THICKNESS
 40
0.0
  9
$LIMCHECK
 70
     0
  9
$BLIPMODE
 70
     0
  9
$CHAMFERA
 40
10.0
  9
$CHAMFERB
 40
10.0
  9
$CHAMFERC
 40
20.0
  9
$CHAMFERD
 40
0.0
  9
$SKPOLY
 70
     0
  9
$TDCREATE
 40
2451589.469382176
  9
$TDUPDATE
 40
2453802.492864398
  9
$TDINDWG
 40
0.1937612153
  9
$TDUSRTIMER
 40
0.1937612153
  9
$USRTIMER
 70
     1
  9
$ANGBASE
 50
0.0
  9
$ANGDIR
 70
     0
  9
$PDMODE
 70
     0
  9
$PDSIZE
 40
0.0
  9
$PLINEWID
 40
0.0
  9
$COORDS
 70
     1
  9
$SPLFRAME
 70
     0
  9
$SPLINETYPE
 70
     6
  9
$SPLINESEGS
 70
     8
  9
$ATTDIA
 70
     0
  9
$ATTREQ
 70
     1
  9
$HANDLING
 70
 10241
  9
$HANDSEED
  5
235D
  9
$SURFTAB1
 70
     6
  9
$SURFTAB2
 70
     6
  9
$SURFTYPE
 70
     6
  9
$SURFU
 70
     6
  9
$SURFV
 70
     6
  9
$UCSNAME
  2

  9
$UCSORG
 10
0.0
 20
0.0
 30
0.0
  9
$UCSXDIR
 10
1.0
 20
0.0
 30
0.0
  9
$UCSYDIR
 10
0.0
 20
1.0
 30
0.0
  9
$PUCSNAME
  2

  9
$PUCSORG
 10
0.0
 20
0.0
 30
0.0
  9
$PUCSXDIR
 10
1.0
 20
0.0
 30
0.0
  9
$PUCSYDIR
 10
0.0
 20
1.0
 30
0.0
  9
$USERI1
 70
     0
  9
$USERI2
 70
     0
  9
$USERI3
 70
     0
  9
$USERI4
 70
     0
  9
$USERI5
 70
     0
  9
$USERR1
 40
0.0
  9
$USERR2
 40
0.0
  9
$USERR3
 40
0.0
  9
$USERR4
 40
0.0
  9
$USERR5
 40
0.0
  9
$WORLDVIEW
 70
     1
  9
$SHADEDGE
 70
     3
  9
$SHADEDIF
 70
    70
  9
$TILEMODE
 70
     1
  9
$MAXACTVP
 70
    16
  9
$PINSBASE
 10
0.0
 20
0.0
 30
0.0
  9
$PLIMCHECK
 70
     0
  9
$PEXTMIN
 10
0.0
 20
0.0
 30
0.0
  9
$PEXTMAX
 10
420.0
 20
297.0
 30
0.0
  9
$PLIMMIN
 10
0.0
 20
0.0
  9
$PLIMMAX
 10
420.0
 20
297.0
  9
$UNITMODE
 70
     0
  9
$VISRETAIN
 70
     0
  9
$PLINEGEN
 70
     0
  9
$PSLTSCALE
 70
     1
  9
$TREEDEPTH
 70
  3020
  9
$PICKSTYLE
 70
     1
  9
$CMLSTYLE
  2
STANDARD
  9
$CMLJUST
 70
     0
  9
$CMLSCALE
 40
1.0
  9
$PROXYGRAPHICS
 70
     1
  9
$MEASUREMENT
 70
     0
  0
ENDSEC
  0
SECTION
  2
CLASSES
  0
CLASS
  1
ACDBDICTIONARYWDFLT
  2
AcDbDictionaryWithDefault
  3
AutoCAD 2000
 90
        0
280
     0
281
     0
  0
CLASS
  1
ACDBPLACEHOLDER
  2
AcDbPlaceHolder
  3
AutoCAD 2000
 90
        0
280
     0
281
     0
  0
CLASS
  1
LAYOUT
  2
AcDbLayout
  3
AutoCAD 2000
 90
        0
280
     0
281
     0
  0
CLASS
  1
LONG_TRANSACTION
  2
AcDbLongTransaction
  3
AutoCAD 2000
 90
        0
280
     0
281
     0
  0
CLASS
  1
LWPOLYLINE
  2
AcDbPolyline
  3
AutoCAD 2000
 90
        0
280
     0
281
     1
  0
CLASS
  1
HATCH
  2
AcDbHatch
  3
AutoCAD 2000
 90
        0
280
     0
281
     1
  0
CLASS
  1
XRECORD
  2
AcDbXrecord
  3
AutoCAD 2000
 90
        0
280
     0
281
     0
  0
CLASS
  1
LONG_TRANSACTION
  2
AcDbLongTransaction
  3
AutoCAD 2000
 90
        0
280
     0
281
     0
  0
CLASS
  1
LWPOLYLINE
  2
AcDbPolyline
  3
AutoCAD 2000
 90
        0
280
     0
281
     1
  0
CLASS
  1
HATCH
  2
AcDbHatch
  3
AutoCAD 2000
 90
        0
280
     0
281
     1
  0
CLASS
  1
XRECORD
  2
AcDbXrecord
  3
AutoCAD 2000
 90
        0
280
     0
281
     0
  0
CLASS
  1
DICTIONARYVAR
  2
AcDbDictionaryVar
  3
AutoCAD 2000
 90
        0
280
     0
281
     0
  0
CLASS
  1
LONG_TRANSACTION
  2
AcDbLongTransaction
  3
AutoCAD 2000
 90
        0
280
     0
281
     0
  0
CLASS
  1
LWPOLYLINE
  2
AcDbPolyline
  3
AutoCAD 2000
 90
        0
280
     0
281
     1
  0
CLASS
  1
HATCH
  2
AcDbHatch
  3
AutoCAD 2000
 90
        0
280
     0
281
     1
  0
CLASS
  1
XRECORD
  2
AcDbXrecord
  3
AutoCAD 2000
 90
        0
280
     0
281
     0
  0
CLASS
  1
LONG_TRANSACTION
  2
AcDbLongTransaction
  3
AutoCAD 2000
 90
        0
280
     0
281
     0
  0
CLASS
  1
LWPOLYLINE
  2
AcDbPolyline
  3
AutoCAD 2000
 90
        0
280
     0
281
     1
  0
CLASS
  1
HATCH
  2
AcDbHatch
  3
AutoCAD 2000
 90
        0
280
     0
281
     1
  0
CLASS
  1
XRECORD
  2
AcDbXrecord
  3
AutoCAD 2000
 90
        0
280
     0
281
     0
  0
CLASS
  1
LONG_TRANSACTION
  2
AcDbLongTransaction
  3
AutoCAD 2000
 90
        0
280
     0
281
     0
  0
CLASS
  1
LWPOLYLINE
  2
AcDbPolyline
  3
AutoCAD 2000
 90
        0
280
     0
281
     1
  0
CLASS
  1
HATCH
  2
AcDbHatch
  3
AutoCAD 2000
 90
        0
280
     0
281
     1
  0
CLASS
  1
XRECORD
  2
AcDbXrecord
  3
AutoCAD 2000
 90
        0
280
     0
281
     0
  0
CLASS
  1
LONG_TRANSACTION
  2
AcDbLongTransaction
  3
AutoCAD 2000
 90
        0
280
     0
281
     0
  0
CLASS
  1
LWPOLYLINE
  2
AcDbPolyline
  3
AutoCAD 2000
 90
        0
280
     0
281
     1
  0
CLASS
  1
HATCH
  2
AcDbHatch
  3
AutoCAD 2000
 90
        0
280
     0
281
     1
  0
CLASS
  1
XRECORD
  2
AcDbXrecord
  3
AutoCAD 2000
 90
        0
280
     0
281
     0
  0
CLASS
  1
LONG_TRANSACTION
  2
AcDbLongTransaction
  3
AutoCAD 2000
 90
        0
280
     0
281
     0
  0
CLASS
  1
LWPOLYLINE
  2
AcDbPolyline
  3
AutoCAD 2000
 90
        0
280
     0
281
     1
  0
CLASS
  1
HATCH
  2
AcDbHatch
  3
AutoCAD 2000
 90
        0
280
     0
281
     1
  0
CLASS
  1
XRECORD
  2
AcDbXrecord
  3
AutoCAD 2000
 90
        0
280
     0
281
     0
  0
CLASS
  1
LONG_TRANSACTION
  2
AcDbLongTransaction
  3
AutoCAD 2000
 90
        0
280
     0
281
     0
  0
CLASS
  1
LWPOLYLINE
  2
AcDbPolyline
  3
AutoCAD 2000
 90
        0
280
     0
281
     1
  0
CLASS
  1
HATCH
  2
AcDbHatch
  3
AutoCAD 2000
 90
        0
280
     0
281
     1
  0
CLASS
  1
XRECORD
  2
AcDbXrecord
  3
AutoCAD 2000
 90
        0
280
     0
281
     0
  0
CLASS
  1
LONG_TRANSACTION
  2
AcDbLongTransaction
  3
AutoCAD 2000
 90
        0
280
     0
281
     0
  0
CLASS
  1
LWPOLYLINE
  2
AcDbPolyline
  3
AutoCAD 2000
 90
        0
280
     0
281
     1
  0
CLASS
  1
HATCH
  2
AcDbHatch
  3
AutoCAD 2000
 90
        0
280
     0
281
     1
  0
CLASS
  1
XRECORD
  2
AcDbXrecord
  3
AutoCAD 2000
 90
        0
280
     0
281
     0
  0
CLASS
  1
LONG_TRANSACTION
  2
AcDbLongTransaction
  3
AutoCAD 2000
 90
        0
280
     0
281
     0
  0
CLASS
  1
LWPOLYLINE
  2
AcDbPolyline
  3
AutoCAD 2000
 90
        0
280
     0
281
     1
  0
CLASS
  1
HATCH
  2
AcDbHatch
  3
AutoCAD 2000
 90
        0
280
     0
281
     1
  0
CLASS
  1
XRECORD
  2
AcDbXrecord
  3
AutoCAD 2000
 90
        0
280
     0
281
     0
  0
ENDSEC
  0
SECTION
  2
TABLES
  0
TABLE
  2
VPORT
  5
8
330
0
100
AcDbSymbolTable
 70
     2
  0
VPORT
  5
2339
330
8
100
AcDbSymbolTableRecord
100
AcDbViewportTableRecord
  2
*ACTIVE
 70
     0
 10
0.0
 20
0.0
 11
1.0
 21
1.0
 12
224.2958157216139
 22
138.9909990637573
 13
0.0
 23
0.0
 14
5.0
 24
5.0
 15
0.0
 25
0.0
 16
0.0
 26
0.0
 36
1.0
 17
0.0
 27
0.0
 37
0.0
 40
314.1511635645305
 41
1.795454545454545
 42
50.0
 43
0.0
 44
0.0
 50
0.0
 51
0.0
 71
     0
 72
   100
 73
     1
 74
     0
 75
     0
 76
     0
 77
     0
 78
     0
  0
ENDTAB
  0
TABLE
  2
LTYPE
  5
5
330
0
100
AcDbSymbolTable
 70
     3
  0
LTYPE
  5
14
330
5
100
AcDbSymbolTableRecord
100
AcDbLinetypeTableRecord
  2
BYBLOCK
 70
     0
  3

 72
    65
 73
     0
 40
0.0
  0
LTYPE
  5
15
330
5
100
AcDbSymbolTableRecord
100
AcDbLinetypeTableRecord
  2
BYLAYER
 70
     0
  3

 72
    65
 73
     0
 40
0.0
  0
LTYPE
  5
16
330
5
100
AcDbSymbolTableRecord
100
AcDbLinetypeTableRecord
  2
CONTINUOUS
 70
     0
  3
Solid line
 72
    65
 73
     0
 40
0.0
  0
LTYPE
  5
120
330
5
100
AcDbSymbolTableRecord
100
AcDbLinetypeTableRecord
  2
CENTER
 70
     0
  3
____ _ ____ _ ____ _ ____ _ ____ _ ____ _ ____ 
 72
    65
 73
     4
 40
2.0
 49
1.25
 74
     0
 49
-0.25
 74
     0
 49
0.25
 74
     0
 49
-0.25
 74
     0
  0
LTYPE
  5
122
330
5
100
AcDbSymbolTableRecord
100
AcDbLinetypeTableRecord
  2
PHANTOM
 70
     0
  3
______  __  __  ______  __  __  ______  __  __ 
 72
    65
 73
     6
 40
2.5
 49
1.25
 74
     0
 49
-0.25
 74
     0
 49
0.25
 74
     0
 49
-0.25
 74
     0
 49
0.25
 74
     0
 49
-0.25
 74
     0
  0
ENDTAB
  0
TABLE
  2
LAYER
  5
2
330
0
100
AcDbSymbolTable
 70
     9
  0
LAYER
  5
F
330
2
100
AcDbSymbolTableRecord
100
AcDbLayerTableRecord
  2
0
 70
     0
 62
     7
  6
CONTINUOUS
  0
LAYER
  5
62
330
2
100
AcDbSymbolTableRecord
100
AcDbLayerTableRecord
  2
VIEWPORT
 70
     0
 62
     7
  6
CONTINUOUS
  0
LAYER
  5
6B
330
2
100
AcDbSymbolTableRecord
100
AcDbLayerTableRecord
  2
ZUWAKU
 70
     0
 62
     7
  6
CONTINUOUS
  0
LAYER
  5
3EF
330
2
100
AcDbSymbolTableRecord
100
AcDbLayerTableRecord
  2
DEFPOINTS
 70
     0
 62
     7
  6
CONTINUOUS
  0
LAYER
  5
54D
330
2
100
AcDbSymbolTableRecord
100
AcDbLayerTableRecord
  2
SEIHIN
 70
     0
 62
     3
  6
CONTINUOUS
  0
LAYER
  5
54E
330
2
100
AcDbSymbolTableRecord
100
AcDbLayerTableRecord
  2
SUNPOU
 70
     0
 62
     4
  6
CONTINUOUS
  0
LAYER
  5
54F
330
2
100
AcDbSymbolTableRecord
100
AcDbLayerTableRecord
  2
CENTER_L
 70
     0
 62
     1
  6
CENTER
  0
LAYER
  5
550
330
2
100
AcDbSymbolTableRecord
100
AcDbLayerTableRecord
  2
NOKITOI
 70
     0
 62
     8
  6
PHANTOM
  0
LAYER
  5
21C4
330
2
100
AcDbSymbolTableRecord
100
AcDbLayerTableRecord
  2
MOJI
 70
     0
 62
     2
  6
CONTINUOUS
  0
ENDTAB
  0
TABLE
  2
STYLE
  5
3
330
0
100
AcDbSymbolTable
 70
     2
  0
STYLE
  5
10
330
3
100
AcDbSymbolTableRecord
100
AcDbTextStyleTableRecord
  2
STANDARD
 70
     0
 40
0.0
 41
1.0
 50
0.0
 71
     0
 42
3.0
  3
TXT
  4
c:\PROGRAM FILES\AUTOCAD LT\ms\bigfont.shx
  0
STYLE
  5
21C5
330
3
100
AcDbSymbolTableRecord
100
AcDbTextStyleTableRecord
  2
ｽﾀｲﾙ1
 70
     0
 40
0.0
 41
1.0
 50
0.0
 71
     0
 42
2.5
  3
MS PGothic.ttf
  4

1001
ACAD
1000
MS PGothic
1071
    32818
  0
ENDTAB
  0
TABLE
  2
VIEW
  5
6
330
0
100
AcDbSymbolTable
 70
     0
  0
ENDTAB
  0
TABLE
  2
UCS
  5
7
330
0
100
AcDbSymbolTable
 70
     0
  0
ENDTAB
  0
TABLE
  2
APPID
  5
9
330
0
100
AcDbSymbolTable
 70
     1
  0
APPID
  5
11
330
9
100
AcDbSymbolTableRecord
100
AcDbRegAppTableRecord
  2
ACAD
 70
     0
  0
ENDTAB
  0
TABLE
  2
DIMSTYLE
  5
A
330
0
100
AcDbSymbolTable
 70
     1
  0
DIMSTYLE
105
1D
102
{ACAD_REACTORS
330
123A
330
1247
330
1256
330
1265
330
1444
330
1AA0
330
1AAD
330
1ABA
330
1AE2
330
1B1C
330
1B89
330
1B9F
102
}
330
A
100
AcDbSymbolTableRecord
100
AcDbDimStyleTableRecord
  2
STANDARD
 70
     0
  3

  4

  5

  6

  7

 40
1.0
 41
0.18
 42
0.0625
 43
0.38
 44
0.18
 45
0.0
 46
0.0
 47
0.0
 48
0.0
140
0.18
141
0.09
142
0.0
143
25.4
144
1.0
145
0.0
146
1.0
147
0.09
 71
     0
 72
     0
 73
     1
 74
     1
 75
     0
 76
     0
 77
     0
 78
     0
170
     0
171
     2
172
     0
173
     0
174
     0
175
     0
176
     0
177
     0
178
     0
270
     2
271
     4
272
     4
273
     2
274
     2
340
10
275
     0
280
     0
281
     0
282
     0
283
     1
284
     0
285
     0
286
     0
287
     3
288
     0
  0
ENDTAB
  0
TABLE
  2
BLOCK_RECORD
  5
1
330
0
100
AcDbSymbolTable
 70
    13
  0
BLOCK_RECORD
  5
1A
102
{ACAD_XDICTIONARY
360
7A2
102
}
330
1
100
AcDbSymbolTableRecord
100
AcDbBlockTableRecord
  2
*MODEL_SPACE
  0
BLOCK_RECORD
  5
17
102
{ACAD_XDICTIONARY
360
7A0
102
}
330
1
100
AcDbSymbolTableRecord
100
AcDbBlockTableRecord
  2
*PAPER_SPACE
  0
BLOCK_RECORD
  5
B2
330
1
100
AcDbSymbolTableRecord
100
AcDbBlockTableRecord
  2
_OPEN
  0
BLOCK_RECORD
  5
123B
330
1
100
AcDbSymbolTableRecord
100
AcDbBlockTableRecord
  2
*D1
  0
BLOCK_RECORD
  5
1248
330
1
100
AcDbSymbolTableRecord
100
AcDbBlockTableRecord
  2
*D2
  0
BLOCK_RECORD
  5
1257
330
1
100
AcDbSymbolTableRecord
100
AcDbBlockTableRecord
  2
*D3
  0
BLOCK_RECORD
  5
1266
330
1
100
AcDbSymbolTableRecord
100
AcDbBlockTableRecord
  2
*D4
  0
BLOCK_RECORD
  5
1445
330
1
100
AcDbSymbolTableRecord
100
AcDbBlockTableRecord
  2
*D5
  0
BLOCK_RECORD
  5
1AA1
330
1
100
AcDbSymbolTableRecord
100
AcDbBlockTableRecord
  2
*D6
  0
BLOCK_RECORD
  5
1AAE
330
1
100
AcDbSymbolTableRecord
100
AcDbBlockTableRecord
  2
*D7
  0
BLOCK_RECORD
  5
1ABB
330
1
100
AcDbSymbolTableRecord
100
AcDbBlockTableRecord
  2
*D8
  0
BLOCK_RECORD
  5
1AE3
330
1
100
AcDbSymbolTableRecord
100
AcDbBlockTableRecord
  2
*D9
  0
BLOCK_RECORD
  5
1B1D
330
1
100
AcDbSymbolTableRecord
100
AcDbBlockTableRecord
  2
*D10
  0
BLOCK_RECORD
  5
1B8A
330
1
100
AcDbSymbolTableRecord
100
AcDbBlockTableRecord
  2
*D11
  0
BLOCK_RECORD
  5
1BA0
330
1
100
AcDbSymbolTableRecord
100
AcDbBlockTableRecord
  2
*D12
  0
ENDTAB
  0
ENDSEC
  0
SECTION
  2
BLOCKS
  0
BLOCK
  5
1B
330
1A
100
AcDbEntity
  8
0
100
AcDbBlockBegin
  2
*MODEL_SPACE
 70
     0
 10
0.0
 20
0.0
 30
0.0
  3
*MODEL_SPACE
  1

  0
ENDBLK
  5
1C
330
1A
100
AcDbEntity
  8
0
100
AcDbBlockEnd
  0
BLOCK
  5
18
330
17
100
AcDbEntity
 67
     1
  8
0
100
AcDbBlockBegin
  2
*PAPER_SPACE
 70
     0
 10
0.0
 20
0.0
 30
0.0
  3
*PAPER_SPACE
  1

  0
ENDBLK
  5
19
330
17
100
AcDbEntity
 67
     1
  8
0
100
AcDbBlockEnd
  0
BLOCK
  5
B3
330
B2
100
AcDbEntity
  8
0
100
AcDbBlockBegin
  2
_OPEN
 70
     0
 10
0.0
 20
0.0
 30
0.0
  3
_OPEN
  1

  0
LINE
  5
B4
330
B2
100
AcDbEntity
  8
0
  6
BYBLOCK
 62
     0
100
AcDbLine
 10
-1.0
 20
0.1666666666666666
 30
0.0
 11
0.0
 21
0.0
 31
0.0
  0
LINE
  5
B5
330
B2
100
AcDbEntity
  8
0
  6
BYBLOCK
 62
     0
100
AcDbLine
 10
0.0
 20
0.0
 30
0.0
 11
-1.0
 21
-0.1666666666666666
 31
0.0
  0
LINE
  5
B6
330
B2
100
AcDbEntity
  8
0
  6
BYBLOCK
 62
     0
100
AcDbLine
 10
0.0
 20
0.0
 30
0.0
 11
-1.0
 21
0.0
 31
0.0
  0
ENDBLK
  5
B7
330
B2
100
AcDbEntity
  8
0
100
AcDbBlockEnd
  0
BLOCK
  5
1245
330
123B
100
AcDbEntity
  8
0
100
AcDbBlockBegin
  2
*D1
 70
     1
 10
0.0
 20
0.0
 30
0.0
  3
*D1
  1

  0
LINE
  5
211B
330
123B
100
AcDbEntity
  8
SUNPOU
100
AcDbLine
 10
368.7737689907718
 20
95.16077636159577
 30
0.0
 11
385.0871845944559
 21
95.14369324273021
 31
0.0
  0
LINE
  5
211C
330
123B
100
AcDbEntity
  8
SUNPOU
100
AcDbLine
 10
368.7554433118646
 20
77.6607859567558
 30
0.0
 11
385.0688589155487
 21
77.64370283789023
 31
0.0
  0
LINE
  5
211D
330
123B
100
AcDbEntity
  8
SUNPOU
100
AcDbLine
 10
383.5840438719426
 20
92.14526566009253
 30
0.0
 11
383.5720012829465
 21
80.64527196548342
 31
0.0
  0
INSERT
  5
211E
330
123B
100
AcDbEntity
  8
SUNPOU
100
AcDbBlockReference
  2
_OPEN
 10
383.5871854168981
 20
95.14526401520795
 30
0.0
 41
3.0
 42
3.0
 43
3.0
 50
89.9400009000004
  0
INSERT
  5
211F
330
123B
100
AcDbEntity
  8
SUNPOU
100
AcDbBlockReference
  2
_OPEN
 10
383.568859737991
 20
77.64527361036797
 30
0.0
 41
3.0
 42
3.0
 43
3.0
 50
269.9400009000003
  0
MTEXT
  5
2120
330
123B
100
AcDbEntity
  8
SUNPOU
100
AcDbMText
 10
381.0780239481817
 20
86.3978867669175
 30
0.0
 40
3.0
 41
0.0
 71
     5
 72
     5
  1
\A1;18
 11
0.0010471816518384
 21
0.9999994517051437
 31
0.0
1001
ACAD
1000
MTEXTBEGIN
1070
    73
1070
     1
1070
    44
1040
1.0
1070
    74
1070
     0
1000
MTEXTEND
1000
MTEXTBEGIN
1070
    73
1070
     1
1070
    44
1040
1.0
1070
    74
1070
     0
1000
MTEXTEND
  0
POINT
  5
2121
330
123B
100
AcDbEntity
  8
DEFPOINTS
 62
     0
100
AcDbPoint
 10
365.7737706356564
 20
95.16391790655129
 30
0.0
  0
POINT
  5
2122
330
123B
100
AcDbEntity
  8
DEFPOINTS
 62
     0
100
AcDbPoint
 10
365.7554449567492
 20
77.66392750171132
 30
0.0
  0
POINT
  5
2123
330
123B
100
AcDbEntity
  8
DEFPOINTS
 62
     0
100
AcDbPoint
 10
383.568859737991
 20
77.64527361036797
 30
0.0
  0
ENDBLK
  5
1246
330
123B
100
AcDbEntity
  8
0
100
AcDbBlockEnd
  0
BLOCK
  5
1254
330
1248
100
AcDbEntity
  8
0
100
AcDbBlockBegin
  2
*D2
 70
     1
 10
0.0
 20
0.0
 30
0.0
  3
*D2
  1

  0
LINE
  5
2124
330
1248
100
AcDbEntity
  8
SUNPOU
100
AcDbLine
 10
318.7737964055148
 20
95.21313544418793
 30
0.0
 11
304.5985060494362
 21
95.22797955629725
 31
0.0
  0
LINE
  5
2125
330
1248
100
AcDbEntity
  8
SUNPOU
100
AcDbLine
 10
318.7664661339519
 20
88.21313928225196
 30
0.0
 11
304.5911757778733
 21
88.22798339436127
 31
0.0
  0
LINE
  5
2126
330
1248
100
AcDbEntity
  8
SUNPOU
100
AcDbLine
 10
306.1016467719494
 20
98.22640713893493
 30
0.0
 11
306.1047883169049
 21
101.2264054940503
 31
0.0
  0
LINE
  5
2127
330
1248
100
AcDbEntity
  8
SUNPOU
100
AcDbLine
 10
306.0880334104755
 20
85.22641426676809
 30
0.0
 11
306.08489186552
 21
82.22641591165265
 31
0.0
  0
LINE
  5
2128
330
1248
100
AcDbEntity
  8
SUNPOU
100
AcDbLine
 10
306.0985052269939
 20
95.22640878381949
 30
0.0
 11
306.0911749554311
 21
88.22641262188351
 31
0.0
  0
INSERT
  5
2129
330
1248
100
AcDbEntity
  8
SUNPOU
100
AcDbBlockReference
  2
_OPEN
 10
306.0985052269939
 20
95.22640878381949
 30
0.0
 41
3.0
 42
3.0
 43
3.0
 50
269.9400009000003
  0
INSERT
  5
212A
330
1248
100
AcDbEntity
  8
SUNPOU
100
AcDbBlockReference
  2
_OPEN
 10
306.0911749554311
 20
88.22641262188351
 30
0.0
 41
3.0
 42
3.0
 43
3.0
 50
89.94000090000039
  0
MTEXT
  5
212B
330
1248
100
AcDbEntity
  8
SUNPOU
100
AcDbMText
 10
303.5948414619496
 20
91.72902865698105
 30
0.0
 40
3.0
 41
0.0
 71
     5
 72
     5
  1
\A1;7
 11
0.0010471816518384
 21
0.9999994517051437
 31
0.0
1001
ACAD
1000
MTEXTBEGIN
1070
    73
1070
     1
1070
    44
1040
1.0
1070
    74
1070
     0
1000
MTEXTEND
1000
MTEXTBEGIN
1070
    73
1070
     1
1070
    44
1040
1.0
1070
    74
1070
     0
1000
MTEXTEND
  0
POINT
  5
212C
330
1248
100
AcDbEntity
  8
DEFPOINTS
 62
     0
100
AcDbPoint
 10
321.7737947606302
 20
95.20999389923241
 30
0.0
  0
POINT
  5
212D
330
1248
100
AcDbEntity
  8
DEFPOINTS
 62
     0
100
AcDbPoint
 10
321.7664644890674
 20
88.20999773729644
 30
0.0
  0
POINT
  5
212E
330
1248
100
AcDbEntity
  8
DEFPOINTS
 62
     0
100
AcDbPoint
 10
306.0911749554311
 20
88.22641262188351
 30
0.0
  0
ENDBLK
  5
1255
330
1248
100
AcDbEntity
  8
0
100
AcDbBlockEnd
  0
BLOCK
  5
1263
330
1257
100
AcDbEntity
  8
0
100
AcDbBlockBegin
  2
*D3
 70
     1
 10
0.0
 20
0.0
 30
0.0
  3
*D3
  1

  0
LINE
  5
212F
330
1257
100
AcDbEntity
  8
SUNPOU
100
AcDbLine
 10
318.7444753192632
 20
67.21315079644394
 30
0.0
 11
304.5691849631856
 21
67.22799490855313
 31
0.0
  0
LINE
  5
2130
330
1257
100
AcDbEntity
  8
SUNPOU
100
AcDbLine
 10
318.7371450477005
 20
60.21315463450793
 30
0.0
 11
304.5618546916228
 21
60.22799874661711
 31
0.0
  0
LINE
  5
2131
330
1257
100
AcDbEntity
  8
SUNPOU
100
AcDbLine
 10
306.0723256856987
 20
70.22642249119082
 30
0.0
 11
306.0754672306543
 21
73.22642084630626
 31
0.0
  0
LINE
  5
2132
330
1257
100
AcDbEntity
  8
SUNPOU
100
AcDbLine
 10
306.058712324225
 20
57.22642961902394
 30
0.0
 11
306.0555707792695
 21
54.22643126390851
 31
0.0
  0
LINE
  5
2133
330
1257
100
AcDbEntity
  8
SUNPOU
100
AcDbLine
 10
306.0691841407432
 20
67.22642413607539
 30
0.0
 11
306.0618538691804
 21
60.22642797413936
 31
0.0
  0
INSERT
  5
2134
330
1257
100
AcDbEntity
  8
SUNPOU
100
AcDbBlockReference
  2
_OPEN
 10
306.0691841407432
 20
67.22642413607539
 30
0.0
 41
3.0
 42
3.0
 43
3.0
 50
269.9400009000008
  0
INSERT
  5
2135
330
1257
100
AcDbEntity
  8
SUNPOU
100
AcDbBlockReference
  2
_OPEN
 10
306.0618538691804
 20
60.22642797413936
 30
0.0
 41
3.0
 42
3.0
 43
3.0
 50
89.9400009000009
  0
MTEXT
  5
2136
330
1257
100
AcDbEntity
  8
SUNPOU
100
AcDbMText
 10
303.565520375699
 20
63.72904400923694
 30
0.0
 40
3.0
 41
0.0
 71
     5
 72
     5
  1
\A1;7
 11
0.0010471816518295
 21
0.9999994517051437
 31
0.0
1001
ACAD
1000
MTEXTBEGIN
1070
    73
1070
     1
1070
    44
1040
1.0
1070
    74
1070
     0
1000
MTEXTEND
1000
MTEXTBEGIN
1070
    73
1070
     1
1070
    44
1040
1.0
1070
    74
1070
     0
1000
MTEXTEND
  0
POINT
  5
2137
330
1257
100
AcDbEntity
  8
DEFPOINTS
 62
     0
100
AcDbPoint
 10
321.7444736743787
 20
67.21000925148846
 30
0.0
  0
POINT
  5
2138
330
1257
100
AcDbEntity
  8
DEFPOINTS
 62
     0
100
AcDbPoint
 10
321.7371434028159
 20
60.21001308955244
 30
0.0
  0
POINT
  5
2139
330
1257
100
AcDbEntity
  8
DEFPOINTS
 62
     0
100
AcDbPoint
 10
306.0618538691804
 20
60.22642797413936
 30
0.0
  0
ENDBLK
  5
1264
330
1257
100
AcDbEntity
  8
0
100
AcDbBlockEnd
  0
BLOCK
  5
1270
330
1266
100
AcDbEntity
  8
0
100
AcDbBlockBegin
  2
*D4
 70
     1
 10
0.0
 20
0.0
 30
0.0
  3
*D4
  1

  0
LINE
  5
213A
330
1266
100
AcDbEntity
  8
SUNPOU
100
AcDbLine
 10
315.7737980503994
 20
95.21627698914349
 30
0.0
 11
295.9045011758532
 21
95.23708376367382
 31
0.0
  0
LINE
  5
213B
330
1266
100
AcDbEntity
  8
SUNPOU
100
AcDbLine
 10
315.7371466925848
 20
60.21629617946349
 30
0.0
 11
295.8678498180386
 21
60.23710295399383
 31
0.0
  0
LINE
  5
213C
330
1266
100
AcDbEntity
  8
SUNPOU
100
AcDbLine
 10
297.4013588084554
 20
92.2355146360806
 30
0.0
 11
297.3709905405519
 21
63.2355305366315
 31
0.0
  0
INSERT
  5
213D
330
1266
100
AcDbEntity
  8
SUNPOU
100
AcDbBlockReference
  2
_OPEN
 10
297.4045003534109
 20
95.23551299119604
 30
0.0
 41
3.0
 42
3.0
 43
3.0
 50
89.9400009
  0
INSERT
  5
213E
330
1266
100
AcDbEntity
  8
SUNPOU
100
AcDbBlockReference
  2
_OPEN
 10
297.3678489955963
 20
60.23553218151607
 30
0.0
 41
3.0
 42
3.0
 43
3.0
 50
269.9400008999999
  0
MTEXT
  5
213F
330
1266
100
AcDbEntity
  8
SUNPOU
100
AcDbMText
 10
294.8861760452408
 20
77.73814054048566
 30
0.0
 40
3.0
 41
0.0
 71
     5
 72
     5
  1
\A1;35
 11
0.0010471816518455
 21
0.9999994517051437
 31
0.0
1001
ACAD
1000
MTEXTBEGIN
1070
    73
1070
     1
1070
    44
1040
1.0
1070
    74
1070
     0
1000
MTEXTEND
1000
MTEXTBEGIN
1070
    73
1070
     1
1070
    44
1040
1.0
1070
    74
1070
     0
1000
MTEXTEND
  0
POINT
  5
2140
330
1266
100
AcDbEntity
  8
DEFPOINTS
 62
     0
100
AcDbPoint
 10
318.7737964055148
 20
95.21313544418793
 30
0.0
  0
POINT
  5
2141
330
1266
100
AcDbEntity
  8
DEFPOINTS
 62
     0
100
AcDbPoint
 10
318.7371450477002
 20
60.21315463450796
 30
0.0
  0
POINT
  5
2142
330
1266
100
AcDbEntity
  8
DEFPOINTS
 62
     0
100
AcDbPoint
 10
297.3678489955963
 20
60.23553218151607
 30
0.0
  0
ENDBLK
  5
1271
330
1266
100
AcDbEntity
  8
0
100
AcDbBlockEnd
  0
BLOCK
  5
144F
330
1445
100
AcDbEntity
  8
0
100
AcDbBlockBegin
  2
*D5
 70
     1
 10
0.0
 20
0.0
 30
0.0
  3
*D5
  1

  0
LINE
  5
2143
330
1445
100
AcDbEntity
  8
SUNPOU
100
AcDbLine
 10
98.71018541719832
 20
239.8519590502171
 30
0.0
 11
83.62070609819307
 21
239.8519590502171
 31
0.0
  0
LINE
  5
2144
330
1445
100
AcDbEntity
  8
SUNPOU
100
AcDbLine
 10
98.71018541719832
 20
217.8519590502172
 30
0.0
 11
83.62070609819305
 21
217.8519590502172
 31
0.0
  0
LINE
  5
2145
330
1445
100
AcDbEntity
  8
SUNPOU
100
AcDbLine
 10
85.12070609819307
 20
236.8519590502172
 30
0.0
 11
85.12070609819305
 21
220.8519590502171
 31
0.0
  0
INSERT
  5
2146
330
1445
100
AcDbEntity
  8
SUNPOU
100
AcDbBlockReference
  2
_OPEN
 10
85.12070609819307
 20
239.8519590502171
 30
0.0
 41
3.0
 42
3.0
 43
3.0
 50
90.0
  0
INSERT
  5
2147
330
1445
100
AcDbEntity
  8
SUNPOU
100
AcDbBlockReference
  2
_OPEN
 10
85.12070609819305
 20
217.8519590502172
 30
0.0
 41
3.0
 42
3.0
 43
3.0
 50
270.0
  0
MTEXT
  5
2148
330
1445
100
AcDbEntity
  8
SUNPOU
100
AcDbMText
 10
82.62070609819302
 20
228.8519590502172
 30
0.0
 40
3.0
 41
0.0
 71
     5
 72
     5
  1
\A1;22
 11
0.0000000000000001
 21
1.0
 31
0.0
1001
ACAD
1000
MTEXTBEGIN
1070
    73
1070
     1
1070
    44
1040
1.0
1070
    74
1070
     0
1000
MTEXTEND
1000
MTEXTBEGIN
1070
    73
1070
     1
1070
    44
1040
1.0
1070
    74
1070
     0
1000
MTEXTEND
  0
POINT
  5
2149
330
1445
100
AcDbEntity
  8
DEFPOINTS
 62
     0
100
AcDbPoint
 10
101.7101854171983
 20
239.8519590502171
 30
0.0
  0
POINT
  5
214A
330
1445
100
AcDbEntity
  8
DEFPOINTS
 62
     0
100
AcDbPoint
 10
101.7101854171983
 20
217.8519590502172
 30
0.0
  0
POINT
  5
214B
330
1445
100
AcDbEntity
  8
DEFPOINTS
 62
     0
100
AcDbPoint
 10
85.12070609819305
 20
217.8519590502172
 30
0.0
  0
ENDBLK
  5
1450
330
1445
100
AcDbEntity
  8
0
100
AcDbBlockEnd
  0
BLOCK
  5
1AAB
330
1AA1
100
AcDbEntity
  8
0
100
AcDbBlockBegin
  2
*D6
 70
     1
 10
0.0
 20
0.0
 30
0.0
  3
*D6
  1

  0
LINE
  5
214C
330
1AA1
100
AcDbEntity
  8
SUNPOU
100
AcDbLine
 10
101.7101854171983
 20
155.3576540069604
 30
0.0
 11
101.7101854171983
 21
177.4482018818096
 31
0.0
  0
LINE
  5
214D
330
1AA1
100
AcDbEntity
  8
SUNPOU
100
AcDbLine
 10
253.9101854171982
 20
98.15765400696037
 30
0.0
 11
253.9101854171982
 21
177.4482018818096
 31
0.0
  0
LINE
  5
214E
330
1AA1
100
AcDbEntity
  8
SUNPOU
100
AcDbLine
 10
104.7101854171983
 20
175.9482018818096
 30
0.0
 11
250.9101854171982
 21
175.9482018818096
 31
0.0
  0
INSERT
  5
214F
330
1AA1
100
AcDbEntity
  8
SUNPOU
100
AcDbBlockReference
  2
_OPEN
 10
101.7101854171983
 20
175.9482018818096
 30
0.0
 41
3.0
 42
3.0
 43
3.0
 50
180.0
  0
INSERT
  5
2150
330
1AA1
100
AcDbEntity
  8
SUNPOU
100
AcDbBlockReference
  2
_OPEN
 10
253.9101854171982
 20
175.9482018818096
 30
0.0
 41
3.0
 42
3.0
 43
3.0
  0
MTEXT
  5
2151
330
1AA1
100
AcDbEntity
  8
SUNPOU
100
AcDbMText
 10
177.8101854171982
 20
178.4482018818096
 30
0.0
 40
3.0
 41
0.0
 71
     5
 72
     5
  1
\A1;152
1001
ACAD
1000
MTEXTBEGIN
1070
    73
1070
     1
1070
    44
1040
1.0
1070
    74
1070
     0
1000
MTEXTEND
1000
MTEXTBEGIN
1070
    73
1070
     1
1070
    44
1040
1.0
1070
    74
1070
     0
1000
MTEXTEND
  0
POINT
  5
2152
330
1AA1
100
AcDbEntity
  8
DEFPOINTS
 62
     0
100
AcDbPoint
 10
101.7101854171983
 20
152.3576540069604
 30
0.0
  0
POINT
  5
2153
330
1AA1
100
AcDbEntity
  8
DEFPOINTS
 62
     0
100
AcDbPoint
 10
253.9101854171982
 20
95.15765400696036
 30
0.0
  0
POINT
  5
2154
330
1AA1
100
AcDbEntity
  8
DEFPOINTS
 62
     0
100
AcDbPoint
 10
253.9101854171982
 20
175.9482018818096
 30
0.0
  0
ENDBLK
  5
1AAC
330
1AA1
100
AcDbEntity
  8
0
100
AcDbBlockEnd
  0
BLOCK
  5
1AB8
330
1AAE
100
AcDbEntity
  8
0
100
AcDbBlockBegin
  2
*D7
 70
     1
 10
0.0
 20
0.0
 30
0.0
  3
*D7
  1

  0
LINE
  5
2155
330
1AAE
100
AcDbEntity
  8
SUNPOU
100
AcDbLine
 10
222.8455652783043
 20
122.4951540069604
 30
0.0
 11
222.8455652783043
 21
144.0060789559056
 31
0.0
  0
LINE
  5
2156
330
1AAE
100
AcDbEntity
  8
SUNPOU
100
AcDbLine
 10
253.9101854171982
 20
97.65765400696036
 30
0.0
 11
253.9101854171982
 21
144.0060789559056
 31
0.0
  0
LINE
  5
2157
330
1AAE
100
AcDbEntity
  8
SUNPOU
100
AcDbLine
 10
225.8455652783043
 20
142.5060789559056
 30
0.0
 11
250.9101854171982
 21
142.5060789559056
 31
0.0
  0
INSERT
  5
2158
330
1AAE
100
AcDbEntity
  8
SUNPOU
100
AcDbBlockReference
  2
_OPEN
 10
222.8455652783043
 20
142.5060789559056
 30
0.0
 41
3.0
 42
3.0
 43
3.0
 50
180.0
  0
INSERT
  5
2159
330
1AAE
100
AcDbEntity
  8
SUNPOU
100
AcDbBlockReference
  2
_OPEN
 10
253.9101854171982
 20
142.5060789559056
 30
0.0
 41
3.0
 42
3.0
 43
3.0
  0
MTEXT
  5
215A
330
1AAE
100
AcDbEntity
  8
SUNPOU
100
AcDbMText
 10
238.3778753477512
 20
145.0060789559056
 30
0.0
 40
3.0
 41
0.0
 71
     5
 72
     5
  1
\A1;31
1001
ACAD
1000
MTEXTBEGIN
1070
    73
1070
     1
1070
    44
1040
1.0
1070
    74
1070
     0
1000
MTEXTEND
1000
MTEXTBEGIN
1070
    73
1070
     1
1070
    44
1040
1.0
1070
    74
1070
     0
1000
MTEXTEND
  0
POINT
  5
215B
330
1AAE
100
AcDbEntity
  8
DEFPOINTS
 62
     0
100
AcDbPoint
 10
222.8455652783043
 20
119.4951540069604
 30
0.0
  0
POINT
  5
215C
330
1AAE
100
AcDbEntity
  8
DEFPOINTS
 62
     0
100
AcDbPoint
 10
253.9101854171982
 20
94.65765400696035
 30
0.0
  0
POINT
  5
215D
330
1AAE
100
AcDbEntity
  8
DEFPOINTS
 62
     0
100
AcDbPoint
 10
253.9101854171982
 20
142.5060789559056
 30
0.0
  0
ENDBLK
  5
1AB9
330
1AAE
100
AcDbEntity
  8
0
100
AcDbBlockEnd
  0
BLOCK
  5
1AC5
330
1ABB
100
AcDbEntity
  8
0
100
AcDbBlockBegin
  2
*D8
 70
     1
 10
0.0
 20
0.0
 30
0.0
  3
*D8
  1

  0
LINE
  5
215E
330
1ABB
100
AcDbEntity
  8
SUNPOU
100
AcDbLine
 10
245.0385270171982
 20
60.15765400696036
 30
0.0
 11
84.83707847894036
 21
60.15765400696039
 31
0.0
  0
LINE
  5
215F
330
1ABB
100
AcDbEntity
  8
SUNPOU
100
AcDbLine
 10
100.9101854171982
 20
104.3576540069603
 30
0.0
 11
84.83707847894038
 21
104.3576540069604
 31
0.0
  0
LINE
  5
2160
330
1ABB
100
AcDbEntity
  8
SUNPOU
100
AcDbLine
 10
86.33707847894037
 20
63.1576540069604
 30
0.0
 11
86.33707847894038
 21
101.3576540069604
 31
0.0
  0
INSERT
  5
2161
330
1ABB
100
AcDbEntity
  8
SUNPOU
100
AcDbBlockReference
  2
_OPEN
 10
86.33707847894037
 20
60.15765400696039
 30
0.0
 41
3.0
 42
3.0
 43
3.0
 50
270.0
  0
INSERT
  5
2162
330
1ABB
100
AcDbEntity
  8
SUNPOU
100
AcDbBlockReference
  2
_OPEN
 10
86.33707847894038
 20
104.3576540069604
 30
0.0
 41
3.0
 42
3.0
 43
3.0
 50
90.0
  0
MTEXT
  5
2163
330
1ABB
100
AcDbEntity
  8
SUNPOU
100
AcDbMText
 10
83.83707847894035
 20
82.25765400696042
 30
0.0
 40
3.0
 41
0.0
 71
     5
 72
     5
  1
\A1;44
 11
0.0000000000000001
 21
1.0
 31
0.0
1001
ACAD
1000
MTEXTBEGIN
1070
    73
1070
     1
1070
    44
1040
1.0
1070
    74
1070
     0
1000
MTEXTEND
1000
MTEXTBEGIN
1070
    73
1070
     1
1070
    44
1040
1.0
1070
    74
1070
     0
1000
MTEXTEND
  0
POINT
  5
2164
330
1ABB
100
AcDbEntity
  8
DEFPOINTS
 62
     0
100
AcDbPoint
 10
248.0385270171982
 20
60.15765400696036
 30
0.0
  0
POINT
  5
2165
330
1ABB
100
AcDbEntity
  8
DEFPOINTS
 62
     0
100
AcDbPoint
 10
103.9101854171982
 20
104.3576540069603
 30
0.0
  0
POINT
  5
2166
330
1ABB
100
AcDbEntity
  8
DEFPOINTS
 62
     0
100
AcDbPoint
 10
86.33707847894038
 20
104.3576540069604
 30
0.0
  0
ENDBLK
  5
1AC6
330
1ABB
100
AcDbEntity
  8
0
100
AcDbBlockEnd
  0
BLOCK
  5
1AED
330
1AE3
100
AcDbEntity
  8
0
100
AcDbBlockBegin
  2
*D9
 70
     1
 10
0.0
 20
0.0
 30
0.0
  3
*D9
  1

  0
LINE
  5
2167
330
1AE3
100
AcDbEntity
  8
SUNPOU
100
AcDbLine
 10
256.9101854171982
 20
256.8519590502172
 30
0.0
 11
276.602080732192
 21
256.8519590502172
 31
0.0
  0
LINE
  5
2168
330
1AE3
100
AcDbEntity
  8
SUNPOU
100
AcDbLine
 10
256.9101854171982
 20
200.8519590502172
 30
0.0
 11
276.602080732192
 21
200.8519590502172
 31
0.0
  0
LINE
  5
2169
330
1AE3
100
AcDbEntity
  8
SUNPOU
100
AcDbLine
 10
275.102080732192
 20
253.8519590502172
 30
0.0
 11
275.102080732192
 21
203.8519590502172
 31
0.0
  0
INSERT
  5
216A
330
1AE3
100
AcDbEntity
  8
SUNPOU
100
AcDbBlockReference
  2
_OPEN
 10
275.102080732192
 20
256.8519590502172
 30
0.0
 41
3.0
 42
3.0
 43
3.0
 50
90.0
  0
INSERT
  5
216B
330
1AE3
100
AcDbEntity
  8
SUNPOU
100
AcDbBlockReference
  2
_OPEN
 10
275.102080732192
 20
200.8519590502172
 30
0.0
 41
3.0
 42
3.0
 43
3.0
 50
270.0
  0
MTEXT
  5
216C
330
1AE3
100
AcDbEntity
  8
SUNPOU
100
AcDbMText
 10
272.6020807321919
 20
228.8519590502172
 30
0.0
 40
3.0
 41
0.0
 71
     5
 72
     5
  1
\A1;56
 11
0.0000000000000001
 21
1.0
 31
0.0
1001
ACAD
1000
MTEXTBEGIN
1070
    73
1070
     1
1070
    44
1040
1.0
1070
    74
1070
     0
1000
MTEXTEND
1000
MTEXTBEGIN
1070
    73
1070
     1
1070
    44
1040
1.0
1070
    74
1070
     0
1000
MTEXTEND
  0
POINT
  5
216D
330
1AE3
100
AcDbEntity
  8
DEFPOINTS
 62
     0
100
AcDbPoint
 10
253.9101854171982
 20
256.8519590502172
 30
0.0
  0
POINT
  5
216E
330
1AE3
100
AcDbEntity
  8
DEFPOINTS
 62
     0
100
AcDbPoint
 10
253.9101854171982
 20
200.8519590502172
 30
0.0
  0
POINT
  5
216F
330
1AE3
100
AcDbEntity
  8
DEFPOINTS
 62
     0
100
AcDbPoint
 10
275.102080732192
 20
200.8519590502172
 30
0.0
  0
ENDBLK
  5
1AEE
330
1AE3
100
AcDbEntity
  8
0
100
AcDbBlockEnd
  0
BLOCK
  5
1B27
330
1B1D
100
AcDbEntity
  8
0
100
AcDbBlockBegin
  2
*D10
 70
     1
 10
0.0
 20
0.0
 30
0.0
  3
*D10
  1

  0
LINE
  5
2170
330
1B1D
100
AcDbEntity
  8
SUNPOU
100
AcDbLine
 10
256.9101854171982
 20
95.15765400696036
 30
0.0
 11
276.6020807321919
 21
95.15765400696036
 31
0.0
  0
LINE
  5
2171
330
1B1D
100
AcDbEntity
  8
SUNPOU
100
AcDbLine
 10
256.8262652171981
 20
60.15765400696036
 30
0.0
 11
276.6020807321919
 21
60.15765400696035
 31
0.0
  0
LINE
  5
2172
330
1B1D
100
AcDbEntity
  8
SUNPOU
100
AcDbLine
 10
275.1020807321919
 20
92.15765400696035
 30
0.0
 11
275.1020807321919
 21
63.15765400696035
 31
0.0
  0
INSERT
  5
2173
330
1B1D
100
AcDbEntity
  8
SUNPOU
100
AcDbBlockReference
  2
_OPEN
 10
275.1020807321919
 20
95.15765400696036
 30
0.0
 41
3.0
 42
3.0
 43
3.0
 50
90.0
  0
INSERT
  5
2174
330
1B1D
100
AcDbEntity
  8
SUNPOU
100
AcDbBlockReference
  2
_OPEN
 10
275.1020807321919
 20
60.15765400696035
 30
0.0
 41
3.0
 42
3.0
 43
3.0
 50
270.0
  0
MTEXT
  5
2175
330
1B1D
100
AcDbEntity
  8
SUNPOU
100
AcDbMText
 10
272.6020807321919
 20
77.65765400696039
 30
0.0
 40
3.0
 41
0.0
 71
     5
 72
     5
  1
\A1;35
 11
0.0000000000000001
 21
1.0
 31
0.0
1001
ACAD
1000
MTEXTBEGIN
1070
    73
1070
     1
1070
    44
1040
1.0
1070
    74
1070
     0
1000
MTEXTEND
1000
MTEXTBEGIN
1070
    73
1070
     1
1070
    44
1040
1.0
1070
    74
1070
     0
1000
MTEXTEND
  0
POINT
  5
2176
330
1B1D
100
AcDbEntity
  8
DEFPOINTS
 62
     0
100
AcDbPoint
 10
253.9101854171982
 20
95.15765400696036
 30
0.0
  0
POINT
  5
2177
330
1B1D
100
AcDbEntity
  8
DEFPOINTS
 62
     0
100
AcDbPoint
 10
253.8262652171981
 20
60.15765400696036
 30
0.0
  0
POINT
  5
2178
330
1B1D
100
AcDbEntity
  8
DEFPOINTS
 62
     0
100
AcDbPoint
 10
275.1020807321919
 20
60.15765400696035
 30
0.0
  0
ENDBLK
  5
1B28
330
1B1D
100
AcDbEntity
  8
0
100
AcDbBlockEnd
  0
BLOCK
  5
1B94
330
1B8A
100
AcDbEntity
  8
0
100
AcDbBlockBegin
  2
*D11
 70
     1
 10
0.0
 20
0.0
 30
0.0
  3
*D11
  1

  0
LINE
  5
2179
330
1B8A
100
AcDbEntity
  8
SUNPOU
100
AcDbLine
 10
321.7727999380609
 20
97.25999442011266
 30
0.0
 11
321.7727999380609
 21
167.9667200155847
 31
0.0
  0
LINE
  5
217A
330
1B8A
100
AcDbEntity
  8
SUNPOU
100
AcDbLine
 10
365.7727758130872
 20
97.21391842743148
 30
0.0
 11
365.7727758130872
 21
167.9667200155847
 31
0.0
  0
LINE
  5
217B
330
1B8A
100
AcDbEntity
  8
SUNPOU
100
AcDbLine
 10
324.772799938061
 20
166.4667200155847
 30
0.0
 11
362.7727758130872
 21
166.4667200155847
 31
0.0
  0
INSERT
  5
217C
330
1B8A
100
AcDbEntity
  8
SUNPOU
100
AcDbBlockReference
  2
_OPEN
 10
321.7727999380609
 20
166.4667200155847
 30
0.0
 41
3.0
 42
3.0
 43
3.0
 50
180.0
  0
INSERT
  5
217D
330
1B8A
100
AcDbEntity
  8
SUNPOU
100
AcDbBlockReference
  2
_OPEN
 10
365.7727758130872
 20
166.4667200155847
 30
0.0
 41
3.0
 42
3.0
 43
3.0
  0
MTEXT
  5
217E
330
1B8A
100
AcDbEntity
  8
SUNPOU
100
AcDbMText
 10
343.772787875574
 20
168.9667200155847
 30
0.0
 40
3.0
 41
0.0
 71
     5
 72
     5
  1
\A1;44
1001
ACAD
1000
MTEXTBEGIN
1070
    73
1070
     1
1070
    44
1040
1.0
1070
    74
1070
     0
1000
MTEXTEND
1000
MTEXTBEGIN
1070
    73
1070
     1
1070
    44
1040
1.0
1070
    74
1070
     0
1000
MTEXTEND
  0
POINT
  5
217F
330
1B8A
100
AcDbEntity
  8
DEFPOINTS
 62
     0
100
AcDbPoint
 10
321.7727999380609
 20
94.25999442011265
 30
0.0
  0
POINT
  5
2180
330
1B8A
100
AcDbEntity
  8
DEFPOINTS
 62
     0
100
AcDbPoint
 10
365.7727758130872
 20
94.21391842743148
 30
0.0
  0
POINT
  5
2181
330
1B8A
100
AcDbEntity
  8
DEFPOINTS
 62
     0
100
AcDbPoint
 10
365.7727758130872
 20
166.4667200155847
 30
0.0
  0
ENDBLK
  5
1B95
330
1B8A
100
AcDbEntity
  8
0
100
AcDbBlockEnd
  0
BLOCK
  5
1BAA
330
1BA0
100
AcDbEntity
  8
0
100
AcDbBlockBegin
  2
*D12
 70
     1
 10
0.0
 20
0.0
 30
0.0
  3
*D12
  1

  0
LINE
  5
2182
330
1BA0
100
AcDbEntity
  8
SUNPOU
100
AcDbLine
 10
315.7706565054438
 20
95.21627863402803
 30
0.0
 11
315.7706565054438
 21
177.4482018818096
 31
0.0
  0
LINE
  5
2183
330
1BA0
100
AcDbEntity
  8
SUNPOU
100
AcDbLine
 10
371.7706258009319
 20
95.15763646152478
 30
0.0
 11
371.7706258009319
 21
177.4482018818096
 31
0.0
  0
LINE
  5
2184
330
1BA0
100
AcDbEntity
  8
SUNPOU
100
AcDbLine
 10
318.7706565054438
 20
175.9482018818096
 30
0.0
 11
368.7706258009319
 21
175.9482018818096
 31
0.0
  0
INSERT
  5
2185
330
1BA0
100
AcDbEntity
  8
SUNPOU
100
AcDbBlockReference
  2
_OPEN
 10
315.7706565054438
 20
175.9482018818096
 30
0.0
 41
3.0
 42
3.0
 43
3.0
 50
180.0
  0
INSERT
  5
2186
330
1BA0
100
AcDbEntity
  8
SUNPOU
100
AcDbBlockReference
  2
_OPEN
 10
371.7706258009319
 20
175.9482018818096
 30
0.0
 41
3.0
 42
3.0
 43
3.0
  0
MTEXT
  5
2187
330
1BA0
100
AcDbEntity
  8
SUNPOU
100
AcDbMText
 10
343.7706411531878
 20
178.4482018818096
 30
0.0
 40
3.0
 41
0.0
 71
     5
 72
     5
  1
\A1;56
1001
ACAD
1000
MTEXTBEGIN
1070
    73
1070
     1
1070
    44
1040
1.0
1070
    74
1070
     0
1000
MTEXTEND
1000
MTEXTBEGIN
1070
    73
1070
     1
1070
    44
1040
1.0
1070
    74
1070
     0
1000
MTEXTEND
  0
POINT
  5
2188
330
1BA0
100
AcDbEntity
  8
DEFPOINTS
 62
     0
100
AcDbPoint
 10
315.7706565054438
 20
92.21627863402805
 30
0.0
  0
POINT
  5
2189
330
1BA0
100
AcDbEntity
  8
DEFPOINTS
 62
     0
100
AcDbPoint
 10
371.7706258009319
 20
92.15763646152479
 30
0.0
  0
POINT
  5
218A
330
1BA0
100
AcDbEntity
  8
DEFPOINTS
 62
     0
100
AcDbPoint
 10
371.7706258009319
 20
175.9482018818096
 30
0.0
  0
ENDBLK
  5
1BAB
330
1BA0
100
AcDbEntity
  8
0
100
AcDbBlockEnd
  0
ENDSEC
  0
SECTION
  2
ENTITIES
  0
ARC
  5
5A7
330
1A
100
AcDbEntity
  8
NOKITOI
  6
PHANTOM
 62
     8
100
AcDbCircle
 10
154.7236490518466
 20
109.5576684833305
 30
0.0
 40
43.00001447645168
100
AcDbArc
 50
186.5249107071177
 51
269.9998883751437
  0
ARC
  5
5A8
330
1A
100
AcDbEntity
  8
NOKITOI
  6
PHANTOM
 62
     8
100
AcDbCircle
 10
154.7236713602719
 20
109.5576483823041
 30
0.0
 40
41.79999437547816
100
AcDbArc
 50
184.4742952125247
 51
269.999854592109
  0
LINE
  5
5A9
330
1A
100
AcDbEntity
  8
NOKITOI
  6
PHANTOM
 62
     8
100
AcDbLine
 10
104.5126652783037
 20
108.6952540069604
 30
0.0
 11
104.427165278304
 21
111.4327540069603
 31
0.0
  0
LINE
  5
5AA
330
1A
100
AcDbEntity
  8
NOKITOI
  6
PHANTOM
 62
     8
100
AcDbLine
 10
102.9745652783039
 20
119.4951540069604
 30
0.0
 11
103.3647652783038
 21
107.0108540069603
 31
0.0
  0
LINE
  5
5AB
330
1A
100
AcDbEntity
  8
NOKITOI
  6
PHANTOM
 62
     8
100
AcDbLine
 10
112.5525652783044
 20
106.7576540069604
 30
0.0
 11
106.511665278304
 21
106.7576540069604
 31
0.0
  0
ARC
  5
5AC
330
1A
100
AcDbEntity
  8
NOKITOI
  6
PHANTOM
 62
     8
100
AcDbCircle
 10
111.0086568541414
 20
104.5576615220169
 30
0.0
 40
0.9999924849789756
100
AcDbArc
 50
6.528264606673934
 51
89.99951732740965
  0
LINE
  5
5AD
330
1A
100
AcDbEntity
  8
NOKITOI
  6
PHANTOM
 62
     8
100
AcDbLine
 10
104.863965278304
 20
105.5576540069603
 30
0.0
 11
111.0086652783038
 21
105.5576540069603
 31
0.0
  0
ARC
  5
5AE
330
1A
100
AcDbEntity
  8
NOKITOI
  6
PHANTOM
 62
     8
100
AcDbCircle
 10
106.5116788504424
 20
108.757640851874
 30
0.0
 40
1.999986844959662
100
AcDbArc
 50
181.7875531852356
 51
269.9996111843215
  0
ARC
  5
5AF
330
1A
100
AcDbEntity
  8
NOKITOI
  6
PHANTOM
 62
     8
100
AcDbCircle
 10
104.8640012374548
 20
107.0576191528171
 30
0.0
 40
1.499965146287778
100
AcDbArc
 50
181.7866280217767
 51
269.9986264296971
  0
ARC
  5
5B0
330
1A
100
AcDbEntity
  8
NOKITOI
  6
PHANTOM
 62
     8
100
AcDbCircle
 10
112.5525778480123
 20
106.2576423822307
 30
0.0
 40
0.5000116248877111
100
AcDbArc
 50
4.474846808342103
 51
90.00144034898383
  0
ARC
  5
5B1
330
1A
100
AcDbEntity
  8
NOKITOI
  6
PHANTOM
 62
     8
100
AcDbCircle
 10
104.9735780291539
 20
119.5576671620468
 30
0.0
 40
1.999986844954076
100
AcDbArc
 50
90.00036528735451
 51
181.7883072882703
  0
LINE
  5
5B2
330
1A
100
AcDbEntity
  8
NOKITOI
  6
PHANTOM
 62
     8
100
AcDbLine
 10
111.2514652783038
 20
119.0576540069604
 30
0.0
 11
109.0199652783039
 21
119.0576540069604
 31
0.0
  0
ARC
  5
5B3
330
1A
100
AcDbEntity
  8
NOKITOI
  6
PHANTOM
 62
     8
100
AcDbCircle
 10
110.935658391309
 20
112.5576474718749
 30
0.0
 40
0.499993464961963
100
AcDbArc
 50
270.0007892017869
 51
356.997036131742
  0
LINE
  5
5B4
330
1A
100
AcDbEntity
  8
NOKITOI
  6
PHANTOM
 62
     8
100
AcDbLine
 10
110.271565278304
 20
113.2576540069604
 30
0.0
 11
110.452765278304
 21
116.6991540069605
 31
0.0
  0
LINE
  5
5B5
330
1A
100
AcDbEntity
  8
NOKITOI
  6
PHANTOM
 62
     8
100
AcDbLine
 10
109.8977652783041
 20
116.0860540069603
 30
0.0
 11
110.452765278304
 21
116.6991540069605
 31
0.0
  0
ARC
  5
5B6
330
1A
100
AcDbEntity
  8
NOKITOI
  6
PHANTOM
 62
     8
100
AcDbCircle
 10
108.4252854909732
 20
111.5577127353404
 30
0.0
 40
5.2000412730095
100
AcDbArc
 50
90.0013245430618
 51
142.0757990790548
  0
LINE
  5
5B7
330
1A
100
AcDbEntity
  8
NOKITOI
  6
PHANTOM
 62
     8
100
AcDbLine
 10
104.1739652783044
 20
119.5326540069603
 30
0.0
 11
104.3233652783037
 21
114.7537540069605
 31
0.0
  0
ARC
  5
5B8
330
1A
100
AcDbEntity
  8
NOKITOI
  6
PHANTOM
 62
     8
100
AcDbCircle
 10
108.4252031597507
 20
111.5576977894857
 30
0.0
 40
3.999989731271038
100
AcDbArc
 50
96.47731142013116
 51
181.7899836067311
  0
ARC
  5
5B9
330
1A
100
AcDbEntity
  8
NOKITOI
  6
PHANTOM
 62
     8
100
AcDbCircle
 10
108.0303794967194
 20
115.0353393726594
 30
0.0
 40
0.5000073448410256
100
AcDbArc
 50
351.872947864124
 51
96.47829282996921
  0
LINE
  5
5BA
330
1A
100
AcDbEntity
  8
NOKITOI
  6
PHANTOM
 62
     8
100
AcDbLine
 10
109.4936652783044
 20
113.2576540069604
 30
0.0
 11
109.8977652783041
 21
116.0860540069603
 31
0.0
  0
LINE
  5
5BB
330
1A
100
AcDbEntity
  8
NOKITOI
  6
PHANTOM
 62
     8
100
AcDbLine
 10
110.271565278304
 20
113.2576540069604
 30
0.0
 11
109.4936652783044
 21
113.2576540069604
 31
0.0
  0
ARC
  5
5BC
330
1A
100
AcDbEntity
  8
NOKITOI
  6
PHANTOM
 62
     8
100
AcDbCircle
 10
108.6865918789017
 20
112.5576233300783
 30
0.0
 40
0.4999693238254178
100
AcDbArc
 50
171.8555038770531
 51
269.9969516090356
  0
LINE
  5
5BD
330
1A
100
AcDbEntity
  8
NOKITOI
  6
PHANTOM
 62
     8
100
AcDbLine
 10
110.9356652783039
 20
112.0576540069604
 30
0.0
 11
108.6865652783039
 21
112.0576540069604
 31
0.0
  0
LINE
  5
5BE
330
1A
100
AcDbEntity
  8
NOKITOI
  6
PHANTOM
 62
     8
100
AcDbLine
 10
108.1916652783038
 20
112.6284540069605
 30
0.0
 11
108.5253652783039
 21
114.9646540069605
 31
0.0
  0
LINE
  5
5BF
330
1A
100
AcDbEntity
  8
NOKITOI
  6
PHANTOM
 62
     8
100
AcDbLine
 10
107.4463652783042
 20
120.3576540069605
 30
0.0
 11
106.9463652783042
 21
117.8576540069605
 31
0.0
  0
LINE
  5
5C0
330
1A
100
AcDbEntity
  8
NOKITOI
  6
PHANTOM
 62
     8
100
AcDbLine
 10
106.9463652783042
 20
117.8576540069605
 30
0.0
 11
109.882865278304
 21
117.8576540069605
 31
0.0
  0
LINE
  5
5C1
330
1A
100
AcDbEntity
  8
NOKITOI
  6
PHANTOM
 62
     8
100
AcDbLine
 10
104.9735652783037
 20
121.5576540069604
 30
0.0
 11
108.3001652783041
 21
121.5576540069604
 31
0.0
  0
LINE
  5
5C2
330
1A
100
AcDbEntity
  8
NOKITOI
  6
PHANTOM
 62
     8
100
AcDbLine
 10
104.9735652783037
 20
120.3576540069605
 30
0.0
 11
107.4463652783042
 21
120.3576540069605
 31
0.0
  0
ARC
  5
5C3
330
1A
100
AcDbEntity
  8
NOKITOI
  6
PHANTOM
 62
     8
100
AcDbCircle
 10
104.9735697731021
 20
119.5576586444873
 30
0.0
 40
0.7999953624857498
100
AcDbArc
 50
90.00032191805264
 51
181.7911273464193
  0
ARC
  5
5C4
330
1A
100
AcDbEntity
  8
NOKITOI
  6
PHANTOM
 62
     8
100
AcDbCircle
 10
108.3001644952955
 20
121.0576549619621
 30
0.0
 40
0.4999990449987349
100
AcDbArc
 50
348.6967198015447
 51
89.99991027369492
  0
ARC
  5
5C5
330
1A
100
AcDbEntity
  8
NOKITOI
  6
PHANTOM
 62
     8
100
AcDbCircle
 10
109.0199580237485
 20
119.5576628568038
 30
0.0
 40
0.5000088498959383
100
AcDbArc
 50
168.6864043304892
 51
270.0008312961442
  0
LINE
  5
5C6
330
1A
100
AcDbEntity
  8
NOKITOI
  6
PHANTOM
 62
     8
100
AcDbLine
 10
108.529665278304
 20
119.6557540069603
 30
0.0
 11
108.790465278304
 21
120.9596540069604
 31
0.0
  0
LINE
  5
5C7
330
1A
100
AcDbEntity
  8
NOKITOI
  6
PHANTOM
 62
     8
100
AcDbLine
 10
108.8870652783043
 20
116.7576540069604
 30
0.0
 11
108.4251652783041
 21
116.7576540069604
 31
0.0
  0
LINE
  5
5C8
330
1A
100
AcDbEntity
  8
NOKITOI
  6
PHANTOM
 62
     8
100
AcDbLine
 10
108.8870652783043
 20
116.7576540069604
 30
0.0
 11
109.882865278304
 21
117.8576540069605
 31
0.0
  0
LINE
  5
5C9
330
1A
100
AcDbEntity
  8
NOKITOI
  6
PHANTOM
 62
     8
100
AcDbLine
 10
111.4350652783041
 20
112.5314540069603
 30
0.0
 11
111.750865278304
 21
118.5313540069604
 31
0.0
  0
ARC
  5
5CA
330
1A
100
AcDbEntity
  8
NOKITOI
  6
PHANTOM
 62
     8
100
AcDbCircle
 10
111.2514590771461
 20
118.5576605420456
 30
0.0
 40
0.4999934649531607
100
AcDbArc
 50
356.9955363203376
 51
89.99928939038076
  0
LINE
  5
5CB
330
1A
100
AcDbEntity
  8
NOKITOI
  6
PHANTOM
 62
     8
100
AcDbLine
 10
195.553065278304
 20
66.55755400696043
 30
0.0
 11
175.3951652783043
 21
66.55755400696043
 31
0.0
  0
LINE
  5
5CC
330
1A
100
AcDbEntity
  8
NOKITOI
  6
PHANTOM
 62
     8
100
AcDbLine
 10
195.303265278304
 20
67.75755400696048
 30
0.0
 11
175.3951652783043
 21
67.75755400696048
 31
0.0
  0
LINE
  5
5CD
330
1A
100
AcDbEntity
  8
NOKITOI
  6
PHANTOM
 62
     8
100
AcDbLine
 10
199.553065278304
 20
66.55755400696043
 30
0.0
 11
154.7236652783039
 21
66.5576540069604
 31
0.0
  0
LINE
  5
5CE
330
1A
100
AcDbEntity
  8
NOKITOI
  6
PHANTOM
 62
     8
100
AcDbLine
 10
154.7236652783039
 20
67.75765400696045
 30
0.0
 11
199.3032652783039
 21
67.75755400696048
 31
0.0
  0
LINE
  5
5CF
330
1A
100
AcDbEntity
  8
NOKITOI
  6
PHANTOM
 62
     8
100
AcDbLine
 10
221.307565278304
 20
108.6950540069604
 30
0.0
 11
221.3930652783037
 21
111.4326540069604
 31
0.0
  0
LINE
  5
5D0
330
1A
100
AcDbEntity
  8
NOKITOI
  6
PHANTOM
 62
     8
100
AcDbLine
 10
222.845565278304
 20
119.4951540069604
 30
0.0
 11
222.4554652783039
 21
107.0107540069603
 31
0.0
  0
LINE
  5
5D1
330
1A
100
AcDbEntity
  8
NOKITOI
  6
PHANTOM
 62
     8
100
AcDbLine
 10
220.956165278304
 20
105.5576540069603
 30
0.0
 11
214.8150652783042
 21
105.5576540069603
 31
0.0
  0
LINE
  5
5D2
330
1A
100
AcDbEntity
  8
NOKITOI
  6
PHANTOM
 62
     8
100
AcDbLine
 10
213.2765652783036
 20
106.7576540069604
 30
0.0
 11
219.308465278304
 21
106.7576540069604
 31
0.0
  0
LINE
  5
5D3
330
1A
100
AcDbEntity
  8
NOKITOI
  6
PHANTOM
 62
     8
100
AcDbLine
 10
213.8200652783043
 20
104.6571540069604
 30
0.0
 11
210.9512652783041
 21
75.96975400696042
 31
0.0
  0
LINE
  5
5D4
330
1A
100
AcDbEntity
  8
NOKITOI
  6
PHANTOM
 62
     8
100
AcDbLine
 10
212.7790652783041
 20
106.3074540069604
 30
0.0
 11
209.7860652783037
 21
76.37765400696034
 31
0.0
  0
LINE
  5
5D5
330
1A
100
AcDbEntity
  8
NOKITOI
  6
PHANTOM
 62
     8
100
AcDbLine
 10
210.589465278304
 20
75.29525400696056
 30
0.0
 11
200.186365278304
 21
66.78355400696054
 31
0.0
  0
LINE
  5
5D6
330
1A
100
AcDbEntity
  8
NOKITOI
  6
PHANTOM
 62
     8
100
AcDbLine
 10
209.6051652783043
 20
76.04035400696043
 30
0.0
 11
199.6198652783041
 21
67.8705540069603
 31
0.0
  0
ARC
  5
5D7
330
1A
100
AcDbEntity
  8
NOKITOI
  6
PHANTOM
 62
     8
100
AcDbCircle
 10
199.5530583457266
 20
67.55755153195432
 30
0.0
 40
0.9999975250179316
100
AcDbArc
 50
270.0003972084035
 51
309.2946416752299
  0
ARC
  5
5D8
330
1A
100
AcDbEntity
  8
NOKITOI
  6
PHANTOM
 62
     8
100
AcDbCircle
 10
199.3032716660527
 20
68.25755628695
 30
0.0
 40
0.5000022800304047
100
AcDbArc
 50
269.9992680212791
 51
309.2854498596061
  0
ARC
  5
5D9
330
1A
100
AcDbEntity
  8
NOKITOI
  6
PHANTOM
 62
     8
100
AcDbCircle
 10
209.9562427054352
 20
76.06921193528783
 30
0.0
 40
0.9999908507640039
100
AcDbArc
 50
309.288709223069
 51
354.2862329477532
  0
ARC
  5
5DA
330
1A
100
AcDbEntity
  8
NOKITOI
  6
PHANTOM
 62
     8
100
AcDbCircle
 10
209.2885478524258
 20
76.42732152057246
 30
0.0
 40
0.4999904508696396
100
AcDbArc
 50
309.2900846377951
 51
354.2990110749239
  0
ARC
  5
5DB
330
1A
100
AcDbEntity
  8
NOKITOI
  6
PHANTOM
 62
     8
100
AcDbCircle
 10
214.8150859281449
 20
104.5576726948096
 30
0.0
 40
0.9999813123640345
100
AcDbArc
 50
90.00118317084911
 51
174.2905900333514
  0
ARC
  5
5DC
330
1A
100
AcDbEntity
  8
NOKITOI
  6
PHANTOM
 62
     8
100
AcDbCircle
 10
213.2765783493086
 20
106.2576658372403
 30
0.0
 40
0.499988169890889
100
AcDbArc
 50
90.00149786226634
 51
174.2966061377162
  0
ARC
  5
5DD
330
1A
100
AcDbEntity
  8
NOKITOI
  6
PHANTOM
 62
     8
100
AcDbCircle
 10
220.9561824914821
 20
107.0576706901082
 30
0.0
 40
1.500016683246579
100
AcDbArc
 50
269.9993425123344
 51
358.2076423244113
  0
ARC
  5
5DE
330
1A
100
AcDbEntity
  8
NOKITOI
  6
PHANTOM
 62
     8
100
AcDbCircle
 10
219.3085032661283
 20
108.7575908275326
 30
0.0
 40
2.000036820932882
100
AcDbArc
 50
269.9989117490344
 51
358.2110591274195
  0
LINE
  5
5DF
330
1A
100
AcDbEntity
  8
NOKITOI
  6
PHANTOM
 62
     8
100
AcDbLine
 10
220.8465652783042
 20
121.5575540069604
 30
0.0
 11
217.5199652783039
 21
121.5576540069604
 31
0.0
  0
LINE
  5
5E0
330
1A
100
AcDbEntity
  8
NOKITOI
  6
PHANTOM
 62
     8
100
AcDbLine
 10
218.873865278304
 20
117.8576540069605
 30
0.0
 11
215.937265278304
 21
117.8576540069605
 31
0.0
  0
ARC
  5
5E1
330
1A
100
AcDbEntity
  8
NOKITOI
  6
PHANTOM
 62
     8
100
AcDbCircle
 10
217.7897946508037
 20
115.0352842394553
 30
0.0
 40
0.4999578477751074
100
AcDbArc
 50
83.52609071220754
 51
188.1330561712932
  0
ARC
  5
5E2
330
1A
100
AcDbEntity
  8
NOKITOI
  6
PHANTOM
 62
     8
100
AcDbCircle
 10
217.3950474119528
 20
111.5576627353403
 30
0.0
 40
5.199991271650611
100
AcDbArc
 50
37.92532860472995
 51
89.9998031407256
  0
LINE
  5
5E3
330
1A
100
AcDbEntity
  8
NOKITOI
  6
PHANTOM
 62
     8
100
AcDbLine
 10
215.548565278304
 20
113.2576540069604
 30
0.0
 11
215.3674652783037
 21
116.6990540069603
 31
0.0
  0
LINE
  5
5E4
330
1A
100
AcDbEntity
  8
NOKITOI
  6
PHANTOM
 62
     8
100
AcDbLine
 10
215.922465278304
 20
116.0860540069603
 30
0.0
 11
215.3674652783037
 21
116.6990540069603
 31
0.0
  0
LINE
  5
5E5
330
1A
100
AcDbEntity
  8
NOKITOI
  6
PHANTOM
 62
     8
100
AcDbLine
 10
214.3851652783041
 20
112.5313540069604
 30
0.0
 11
214.0693652783038
 21
118.5313540069604
 31
0.0
  0
LINE
  5
5E6
330
1A
100
AcDbEntity
  8
NOKITOI
  6
PHANTOM
 62
     8
100
AcDbLine
 10
216.3264652783036
 20
113.2576540069604
 30
0.0
 11
215.922465278304
 21
116.0860540069603
 31
0.0
  0
LINE
  5
5E7
330
1A
100
AcDbEntity
  8
NOKITOI
  6
PHANTOM
 62
     8
100
AcDbLine
 10
215.548565278304
 20
113.2576540069604
 30
0.0
 11
216.3264652783036
 21
113.2576540069604
 31
0.0
  0
LINE
  5
5E8
330
1A
100
AcDbEntity
  8
NOKITOI
  6
PHANTOM
 62
     8
100
AcDbLine
 10
214.884465278304
 20
112.0576540069604
 30
0.0
 11
217.1335652783036
 21
112.0576540069604
 31
0.0
  0
ARC
  5
5E9
330
1A
100
AcDbEntity
  8
NOKITOI
  6
PHANTOM
 62
     8
100
AcDbCircle
 10
214.8844693997106
 20
112.5576500969299
 30
0.0
 40
0.4999960899864752
100
AcDbArc
 50
183.0147243791741
 51
269.9995277178593
  0
ARC
  5
5EA
330
1A
100
AcDbEntity
  8
NOKITOI
  6
PHANTOM
 62
     8
100
AcDbCircle
 10
217.1335754647402
 20
112.5576657516845
 30
0.0
 40
0.5000117448278309
100
AcDbArc
 50
269.9988327478016
 51
8.127314608715551
  0
LINE
  5
5EB
330
1A
100
AcDbEntity
  8
NOKITOI
  6
PHANTOM
 62
     8
100
AcDbLine
 10
217.6285652783039
 20
112.6283540069603
 30
0.0
 11
217.294765278304
 21
114.9645540069605
 31
0.0
  0
LINE
  5
5EC
330
1A
100
AcDbEntity
  8
NOKITOI
  6
PHANTOM
 62
     8
100
AcDbLine
 10
214.5686652783042
 20
119.0576540069604
 30
0.0
 11
216.800165278304
 21
119.0576540069604
 31
0.0
  0
ARC
  5
5ED
330
1A
100
AcDbEntity
  8
NOKITOI
  6
PHANTOM
 62
     8
100
AcDbCircle
 10
214.5686689877993
 20
118.5576579169911
 30
0.0
 40
0.4999960899831856
100
AcDbArc
 50
90.00042508015082
 51
183.0156217414647
  0
ARC
  5
5EE
330
1A
100
AcDbEntity
  8
NOKITOI
  6
PHANTOM
 62
     8
100
AcDbCircle
 10
217.5199580237485
 20
121.0576451571169
 30
0.0
 40
0.500008849895925
100
AcDbArc
 50
89.99916870385415
 51
191.3135956695126
  0
ARC
  5
5EF
330
1A
100
AcDbEntity
  8
NOKITOI
  6
PHANTOM
 62
     8
100
AcDbCircle
 10
216.8001644952955
 20
119.5576530519586
 30
0.0
 40
0.4999990449987399
100
AcDbArc
 50
270.000089726305
 51
11.30328019845521
  0
LINE
  5
5F0
330
1A
100
AcDbEntity
  8
NOKITOI
  6
PHANTOM
 62
     8
100
AcDbLine
 10
217.290465278304
 20
119.6556540069605
 30
0.0
 11
217.029665278304
 21
120.9596540069604
 31
0.0
  0
LINE
  5
5F1
330
1A
100
AcDbEntity
  8
NOKITOI
  6
PHANTOM
 62
     8
100
AcDbLine
 10
216.9330652783041
 20
116.7576540069604
 30
0.0
 11
217.3950652783041
 21
116.7576540069604
 31
0.0
  0
LINE
  5
5F2
330
1A
100
AcDbEntity
  8
NOKITOI
  6
PHANTOM
 62
     8
100
AcDbLine
 10
216.9330652783041
 20
116.7576540069604
 30
0.0
 11
215.937265278304
 21
117.8576540069605
 31
0.0
  0
LINE
  5
5F3
330
1A
100
AcDbEntity
  8
NOKITOI
  6
PHANTOM
 62
     8
100
AcDbLine
 10
221.6461652783036
 20
119.5326540069603
 30
0.0
 11
221.496865278304
 21
114.7536540069605
 31
0.0
  0
ARC
  5
5F4
330
1A
100
AcDbEntity
  8
NOKITOI
  6
PHANTOM
 62
     8
100
AcDbCircle
 10
217.3950343513679
 20
111.5576897516242
 30
0.0
 40
3.99998565374706
100
AcDbArc
 50
358.208696659101
 51
83.52422380468341
  0
ARC
  5
5F5
330
1A
100
AcDbEntity
  8
NOKITOI
  6
PHANTOM
 62
     8
100
AcDbCircle
 10
220.8465540413098
 20
119.5576656007775
 30
0.0
 40
1.999988406214315
100
AcDbArc
 50
358.2088726535936
 51
89.99967808195551
  0
LINE
  5
5F6
330
1A
100
AcDbEntity
  8
NOKITOI
  6
PHANTOM
 62
     8
100
AcDbLine
 10
220.8465652783042
 20
120.3575540069603
 30
0.0
 11
218.373865278304
 21
120.3576540069605
 31
0.0
  0
LINE
  5
5F7
330
1A
100
AcDbEntity
  8
NOKITOI
  6
PHANTOM
 62
     8
100
AcDbLine
 10
218.373865278304
 20
120.3576540069605
 30
0.0
 11
218.873865278304
 21
117.8576540069605
 31
0.0
  0
ARC
  5
5F8
330
1A
100
AcDbEntity
  8
NOKITOI
  6
PHANTOM
 62
     8
100
AcDbCircle
 10
220.8466092446569
 20
119.5576086444874
 30
0.0
 40
0.7999453636812564
100
AcDbArc
 50
358.2123436447881
 51
90.00314907315425
  0
LINE
  5
9FB
330
1A
100
AcDbEntity
  8
SEIHIN
100
AcDbLine
 10
164.4101854171982
 20
66.35765400696039
 30
0.0
 11
201.9893714171983
 21
66.35765400696039
 31
0.0
  0
LINE
  5
9FC
330
1A
100
AcDbEntity
  8
SEIHIN
100
AcDbLine
 10
164.4101854171982
 20
65.15765400696034
 30
0.0
 11
202.4177275171982
 21
65.15765400696034
 31
0.0
  0
LINE
  5
9FD
330
1A
100
AcDbEntity
  8
SEIHIN
100
AcDbLine
 10
164.4101854171982
 20
62.15765400696034
 30
0.0
 11
203.4886175171982
 21
62.15765400696034
 31
0.0
  0
LINE
  5
9FE
330
1A
100
AcDbEntity
  8
SEIHIN
100
AcDbLine
 10
154.4101854171982
 20
59.15765400696034
 30
0.0
 11
216.4101854171982
 21
59.15765400696034
 31
0.0
  0
LINE
  5
9FF
330
1A
100
AcDbEntity
  8
SEIHIN
100
AcDbLine
 10
160.9101854171982
 20
58.65765400696034
 30
0.0
 11
167.9101854171982
 21
58.65765400696034
 31
0.0
  0
LINE
  5
A00
330
1A
100
AcDbEntity
  8
SEIHIN
100
AcDbLine
 10
41.08188446398265
 20
58.65765400696034
 30
0.0
 11
48.08188446398265
 21
58.65765400696034
 31
0.0
  0
LINE
  5
A01
330
1A
100
AcDbEntity
  8
SEIHIN
100
AcDbLine
 10
41.08188446398265
 20
58.65765400696034
 30
0.0
 11
48.08188446398265
 21
58.65765400696034
 31
0.0
  0
LINE
  5
A02
330
1A
100
AcDbEntity
  8
SEIHIN
100
AcDbLine
 10
39.08188446398265
 20
62.15765400696034
 30
0.0
 11
50.08188446398264
 21
62.15765400696034
 31
0.0
  0
LINE
  5
A04
330
1A
100
AcDbEntity
  8
SEIHIN
100
AcDbLine
 10
51.08188446398265
 20
59.15765400696034
 30
0.0
 11
38.08188446398265
 21
59.15765400696034
 31
0.0
  0
LINE
  5
A06
330
1A
100
AcDbEntity
  8
SEIHIN
100
AcDbLine
 10
55.58188446398265
 20
103.1576540069603
 30
0.0
 11
33.58188446398264
 21
103.1576540069603
 31
0.0
  0
ARC
  5
A07
330
1A
100
AcDbEntity
  8
SEIHIN
100
AcDbCircle
 10
40.48188446398262
 20
138.3576540069603
 30
0.0
 40
2.0
100
AcDbArc
 50
0.0
 51
90.0
  0
ARC
  5
A08
330
1A
100
AcDbEntity
  8
SEIHIN
100
AcDbCircle
 10
39.98188446398262
 20
117.8576540069603
 30
0.0
 40
2.5
100
AcDbArc
 50
180.0
 51
0.0
  0
LINE
  5
A09
330
1A
100
AcDbEntity
  8
SEIHIN
100
AcDbLine
 10
47.58188446398264
 20
152.3576540069604
 30
0.0
 11
41.58188446398265
 21
152.3576540069604
 31
0.0
  0
LINE
  5
A0C
330
1A
100
AcDbEntity
  8
SEIHIN
100
AcDbLine
 10
37.58188446398264
 20
65.65765400696034
 30
0.0
 11
37.58188446398264
 21
103.1576540069603
 31
0.0
  0
LINE
  5
A11
330
1A
100
AcDbEntity
  8
SEIHIN
100
AcDbLine
 10
36.08188446398264
 20
65.15765400696034
 30
0.0
 11
33.58188446398264
 21
65.15765400696034
 31
0.0
  0
LINE
  5
A13
330
1A
100
AcDbEntity
  8
SEIHIN
100
AcDbLine
 10
35.78948196398267
 20
61.76239610696035
 30
0.0
 11
35.78948196398267
 21
61.87073790696036
 31
0.0
  0
LINE
  5
A14
330
1A
100
AcDbEntity
  8
SEIHIN
100
AcDbLine
 10
41.08188446398265
 20
59.15765400696034
 30
0.0
 11
41.08188446398265
 21
58.65765400696034
 31
0.0
  0
LINE
  5
A15
330
1A
100
AcDbEntity
  8
SEIHIN
100
AcDbLine
 10
41.08188446398265
 20
59.15765400696034
 30
0.0
 11
41.08188446398265
 21
58.65765400696034
 31
0.0
  0
ARC
  5
A16
330
1A
100
AcDbEntity
  8
SEIHIN
100
AcDbCircle
 10
39.08188446398265
 20
63.65765400696034
 30
0.0
 40
1.5
100
AcDbArc
 50
180.0
 51
270.0
  0
LINE
  5
A17
330
1A
100
AcDbEntity
  8
SEIHIN
100
AcDbLine
 10
35.78948196398267
 20
61.76239610696035
 30
0.0
 11
38.08188446398265
 21
61.76239610696035
 31
0.0
  0
LINE
  5
A18
330
1A
100
AcDbEntity
  8
SEIHIN
100
AcDbLine
 10
35.78948196398267
 20
65.15765400696034
 30
0.0
 11
35.78948196398267
 21
61.76239610696035
 31
0.0
  0
LINE
  5
A19
330
1A
100
AcDbEntity
  8
SEIHIN
100
AcDbLine
 10
38.08188446398265
 20
62.15765400696034
 30
0.0
 11
39.08188446398265
 21
62.15765400696034
 31
0.0
  0
LINE
  5
A1A
330
1A
100
AcDbEntity
  8
SEIHIN
100
AcDbLine
 10
38.08188446398265
 20
59.15765400696034
 30
0.0
 11
38.08188446398265
 21
62.15765400696034
 31
0.0
  0
ARC
  5
A1B
330
1A
100
AcDbEntity
  8
SEIHIN
100
AcDbCircle
 10
36.08188446398264
 20
63.65765400696034
 30
0.0
 40
1.5
100
AcDbArc
 50
0.0
 51
90.0
  0
ARC
  5
A24
330
1A
100
AcDbEntity
  8
SEIHIN
100
AcDbCircle
 10
35.53188446398257
 20
118.4076540069603
 30
0.0
 40
1.949999999999988
100
AcDbArc
 50
0.0
 51
180.0
  0
LINE
  5
A33
330
1A
100
AcDbEntity
  8
SEIHIN
100
AcDbLine
 10
37.48188446398262
 20
118.4076540069603
 30
0.0
 11
37.48188446398262
 21
117.8576540069603
 31
0.0
  0
LINE
  5
A34
330
1A
100
AcDbEntity
  8
SEIHIN
100
AcDbLine
 10
37.48188446398262
 20
118.3576540069603
 30
0.0
 11
37.48188446398262
 21
118.3576540069603
 31
0.0
  0
LINE
  5
A35
330
1A
100
AcDbEntity
  8
SEIHIN
100
AcDbLine
 10
38.58188446398264
 20
142.3564040069603
 30
0.0
 11
38.58188446398264
 21
149.3576540069604
 31
0.0
  0
ARC
  5
A36
330
1A
100
AcDbEntity
  8
SEIHIN
100
AcDbCircle
 10
40.58188446398264
 20
142.3564040069603
 30
0.0
 40
1.999999998843762
100
AcDbArc
 50
180.0
 51
268.5674562607732
  0
LINE
  5
A37
330
1A
100
AcDbEntity
  8
SEIHIN
100
AcDbLine
 10
40.08188446398264
 20
140.3576540069603
 30
0.0
 11
40.08188446398264
 21
140.3576540069603
 31
0.0
  0
ARC
  5
A38
330
1A
100
AcDbEntity
  8
SEIHIN
100
AcDbCircle
 10
41.58188446398265
 20
149.3576540069604
 30
0.0
 40
3.0
100
AcDbArc
 50
90.0
 51
180.0
  0
ARC
  5
A39
330
1A
100
AcDbEntity
  8
SEIHIN
100
AcDbCircle
 10
155.7237354171983
 20
109.3576540069604
 30
0.0
 40
43.99999996755491
100
AcDbArc
 50
190.0046914246752
 51
256.9987985386973
  0
ARC
  5
A3A
330
1A
100
AcDbEntity
  8
SEIHIN
100
AcDbCircle
 10
155.7237354171983
 20
109.3576540069604
 30
0.0
 40
45.19999999393088
100
AcDbArc
 50
190.0046914399661
 51
256.9987985135611
  0
ARC
  5
A3B
330
1A
100
AcDbEntity
  8
SEIHIN
100
AcDbCircle
 10
155.7237354171983
 20
109.3576540069604
 30
0.0
 40
48.19999998338746
100
AcDbArc
 50
190.3515581005718
 51
256.999279253117
  0
LINE
  5
A3E
330
1A
100
AcDbEntity
  8
SEIHIN
100
AcDbLine
 10
51.58188446398265
 20
65.65765400696034
 30
0.0
 11
51.58188446398265
 21
103.1576540069603
 31
0.0
  0
ARC
  5
A42
330
1A
100
AcDbEntity
  8
SEIHIN
100
AcDbCircle
 10
50.08188446398264
 20
63.65765400696034
 30
0.0
 40
1.5
100
AcDbArc
 50
270.0
 51
0.0
  0
LINE
  5
A43
330
1A
100
AcDbEntity
  8
SEIHIN
100
AcDbLine
 10
50.08188446398264
 20
62.15765400696034
 30
0.0
 11
51.08188446398265
 21
62.15765400696034
 31
0.0
  0
LINE
  5
A44
330
1A
100
AcDbEntity
  8
SEIHIN
100
AcDbLine
 10
48.08188446398265
 20
58.65765400696034
 30
0.0
 11
48.08188446398265
 21
59.15765400696034
 31
0.0
  0
LINE
  5
A46
330
1A
100
AcDbEntity
  8
SEIHIN
100
AcDbLine
 10
53.37428696398262
 20
61.87073790696036
 30
0.0
 11
53.37428696398262
 21
61.76239610696035
 31
0.0
  0
LINE
  5
A47
330
1A
100
AcDbEntity
  8
SEIHIN
100
AcDbLine
 10
53.08188446398265
 20
65.15765400696034
 30
0.0
 11
55.58188446398265
 21
65.15765400696034
 31
0.0
  0
ARC
  5
A49
330
1A
100
AcDbEntity
  8
SEIHIN
100
AcDbCircle
 10
53.08188446398265
 20
63.65765400696034
 30
0.0
 40
1.5
100
AcDbArc
 50
90.0
 51
180.0
  0
LINE
  5
A4A
330
1A
100
AcDbEntity
  8
SEIHIN
100
AcDbLine
 10
53.37428696398262
 20
61.76239610696035
 30
0.0
 11
53.37428696398262
 21
65.15765400696034
 31
0.0
  0
LINE
  5
A4B
330
1A
100
AcDbEntity
  8
SEIHIN
100
AcDbLine
 10
51.08188446398265
 20
62.15765400696034
 30
0.0
 11
51.08188446398265
 21
61.76239610696035
 31
0.0
  0
LINE
  5
A4C
330
1A
100
AcDbEntity
  8
SEIHIN
100
AcDbLine
 10
51.08188446398265
 20
61.76239610696035
 30
0.0
 11
53.37428696398262
 21
61.76239610696035
 31
0.0
  0
LINE
  5
A4D
330
1A
100
AcDbEntity
  8
SEIHIN
100
AcDbLine
 10
51.08188446398265
 20
61.76239610696035
 30
0.0
 11
51.08188446398265
 21
59.15765400696034
 31
0.0
  0
ARC
  5
A56
330
1A
100
AcDbEntity
  8
SEIHIN
100
AcDbCircle
 10
146.9487704171982
 20
71.35765400696039
 30
0.0
 40
5.000000009884356
100
AcDbArc
 50
256.997175988683
 51
270.0
  0
LINE
  5
A57
330
1A
100
AcDbEntity
  8
SEIHIN
100
AcDbLine
 10
146.9487704171982
 20
66.35765400696039
 30
0.0
 11
164.4101854171982
 21
66.35765400696039
 31
0.0
  0
LINE
  5
A58
330
1A
100
AcDbEntity
  8
SEIHIN
100
AcDbLine
 10
146.9487704171982
 20
65.15765400696034
 30
0.0
 11
164.4101854171982
 21
65.15765400696034
 31
0.0
  0
LINE
  5
A59
330
1A
100
AcDbEntity
  8
SEIHIN
100
AcDbLine
 10
146.9487704171982
 20
62.15765400696034
 30
0.0
 11
164.4101854171982
 21
62.15765400696034
 31
0.0
  0
ARC
  5
A5A
330
1A
100
AcDbEntity
  8
SEIHIN
100
AcDbCircle
 10
146.9487704171982
 20
71.35765400696039
 30
0.0
 40
6.20000002439895
100
AcDbArc
 50
256.9971760025682
 51
270.0
  0
ARC
  5
A5B
330
1A
100
AcDbEntity
  8
SEIHIN
100
AcDbCircle
 10
146.9487704171982
 20
71.35765400696039
 30
0.0
 40
9.20000000634241
100
AcDbArc
 50
256.9971761847128
 51
270.0
  0
LINE
  5
A5C
330
1A
100
AcDbEntity
  8
SEIHIN
100
AcDbLine
 10
154.4101854171982
 20
62.15765400696034
 30
0.0
 11
154.4101854171982
 21
59.15765400696034
 31
0.0
  0
LINE
  5
A5D
330
1A
100
AcDbEntity
  8
SEIHIN
100
AcDbLine
 10
160.9101854171982
 20
59.15765400696034
 30
0.0
 11
160.9101854171982
 21
58.65765400696034
 31
0.0
  0
LINE
  5
A5E
330
1A
100
AcDbEntity
  8
SEIHIN
100
AcDbLine
 10
46.68188446398267
 20
138.3576540069603
 30
0.0
 11
46.68188446398267
 21
117.8576540069603
 31
0.0
  0
LINE
  5
A5F
330
1A
100
AcDbEntity
  8
SEIHIN
100
AcDbLine
 10
42.48188446398262
 20
138.3576540069603
 30
0.0
 11
42.48188446398262
 21
117.8576540069603
 31
0.0
  0
ARC
  5
A60
330
1A
100
AcDbEntity
  8
SEIHIN
100
AcDbCircle
 10
53.6318844639826
 20
118.4076540069603
 30
0.0
 40
1.949999999999988
100
AcDbArc
 50
0.0
 51
180.0
  0
LINE
  5
A61
330
1A
100
AcDbEntity
  8
SEIHIN
100
AcDbLine
 10
55.58188446398265
 20
118.4076540069603
 30
0.0
 11
55.58188446398265
 21
65.15765400696034
 31
0.0
  0
ARC
  5
A71
330
1A
100
AcDbEntity
  8
SEIHIN
100
AcDbCircle
 10
49.18188446398267
 20
117.8576540069603
 30
0.0
 40
2.5
100
AcDbArc
 50
180.0
 51
0.0
  0
LINE
  5
A72
330
1A
100
AcDbEntity
  8
SEIHIN
100
AcDbLine
 10
51.68188446398267
 20
118.3576540069603
 30
0.0
 11
51.68188446398267
 21
118.3576540069603
 31
0.0
  0
LINE
  5
A73
330
1A
100
AcDbEntity
  8
SEIHIN
100
AcDbLine
 10
51.68188446398267
 20
118.4076540069603
 30
0.0
 11
51.68188446398267
 21
117.8576540069603
 31
0.0
  0
LINE
  5
A74
330
1A
100
AcDbEntity
  8
SEIHIN
100
AcDbLine
 10
46.68188446398267
 20
127.1824660069603
 30
0.0
 11
46.68188446398267
 21
127.1824660069603
 31
0.0
  0
LINE
  5
A75
330
1A
100
AcDbEntity
  8
SEIHIN
100
AcDbLine
 10
42.48188446398262
 20
127.1824660069603
 30
0.0
 11
42.48188446398262
 21
127.1824660069603
 31
0.0
  0
LINE
  5
A76
330
1A
100
AcDbEntity
  8
SEIHIN
100
AcDbLine
 10
46.68188446398267
 20
126.2427390069603
 30
0.0
 11
46.68188446398267
 21
126.2427390069603
 31
0.0
  0
LINE
  5
A77
330
1A
100
AcDbEntity
  8
SEIHIN
100
AcDbLine
 10
42.48188446398262
 20
126.2427390069603
 30
0.0
 11
42.48188446398262
 21
126.2427390069603
 31
0.0
  0
LINE
  5
A78
330
1A
100
AcDbEntity
  8
SEIHIN
100
AcDbLine
 10
50.58188446398265
 20
142.3564040069603
 30
0.0
 11
50.58188446398265
 21
149.3576540069604
 31
0.0
  0
ARC
  5
A79
330
1A
100
AcDbEntity
  8
SEIHIN
100
AcDbCircle
 10
48.58188446398265
 20
142.3564040069603
 30
0.0
 40
1.99999999884376
100
AcDbArc
 50
271.4325437392202
 51
0.0
  0
ARC
  5
A7A
330
1A
100
AcDbEntity
  8
SEIHIN
100
AcDbCircle
 10
48.68188446398267
 20
138.3576540069603
 30
0.0
 40
2.0
100
AcDbArc
 50
90.0
 51
180.0
  0
ARC
  5
A7B
330
1A
100
AcDbEntity
  8
SEIHIN
100
AcDbCircle
 10
47.58188446398264
 20
149.3576540069604
 30
0.0
 40
3.0
100
AcDbArc
 50
0.0
 51
90.0
  0
LINE
  5
A7C
330
1A
100
AcDbEntity
  8
SEIHIN
100
AcDbLine
 10
102.9101854171982
 20
152.3576540069604
 30
0.0
 11
102.9101854171982
 21
105.3576540069603
 31
0.0
  0
LINE
  5
A7D
330
1A
100
AcDbEntity
  8
SEIHIN
100
AcDbLine
 10
101.7101854171983
 20
152.3576540069604
 30
0.0
 11
101.7101854171983
 21
105.3576540069603
 31
0.0
  0
ARC
  5
A7E
330
1A
100
AcDbEntity
  8
SEIHIN
100
AcDbCircle
 10
105.3570798171982
 20
100.1576540069603
 30
0.0
 40
2.999999985884628
100
AcDbArc
 50
10.35155819740191
 51
90.0
  0
LINE
  5
A7F
330
1A
100
AcDbEntity
  8
SEIHIN
100
AcDbLine
 10
109.2414807171983
 20
104.3576540069603
 30
0.0
 11
103.9101854171982
 21
104.3576540069603
 31
0.0
  0
LINE
  5
A80
330
1A
100
AcDbEntity
  8
SEIHIN
100
AcDbLine
 10
109.2414807171983
 20
103.1576540069603
 30
0.0
 11
103.9101854171982
 21
103.1576540069603
 31
0.0
  0
ARC
  5
A81
330
1A
100
AcDbEntity
  8
SEIHIN
100
AcDbCircle
 10
103.9101854171982
 20
105.3576540069603
 30
0.0
 40
1.0
100
AcDbArc
 50
180.0
 51
270.0
  0
LINE
  5
A82
330
1A
100
AcDbEntity
  8
SEIHIN
100
AcDbLine
 10
103.9434644171982
 20
104.3576540069603
 30
0.0
 11
103.9434644171982
 21
104.3576540069603
 31
0.0
  0
ARC
  5
A83
330
1A
100
AcDbEntity
  8
SEIHIN
100
AcDbCircle
 10
103.9101854171982
 20
105.3576540069603
 30
0.0
 40
2.199999999999988
100
AcDbArc
 50
180.0
 51
270.0
  0
ARC
  5
A84
330
1A
100
AcDbEntity
  8
SEIHIN
100
AcDbCircle
 10
109.2414807171983
 20
101.1576540069603
 30
0.0
 40
3.199999999587582
100
AcDbArc
 50
10.00469134359077
 51
90.0
  0
ARC
  5
A85
330
1A
100
AcDbEntity
  8
SEIHIN
100
AcDbCircle
 10
109.2414807171983
 20
101.1576540069603
 30
0.0
 40
2.000000016035531
100
AcDbArc
 50
10.00469045164722
 51
90.0
  0
LINE
  5
A86
330
1A
100
AcDbEntity
  8
SEIHIN
100
AcDbLine
 10
102.9101854171982
 20
110.9539880069603
 30
0.0
 11
102.9101854171982
 21
110.9539880069603
 31
0.0
  0
LINE
  5
A87
330
1A
100
AcDbEntity
  8
SEIHIN
100
AcDbLine
 10
102.9101854171982
 20
120.3576540069603
 30
0.0
 11
101.7101854171983
 21
120.3576540069603
 31
0.0
  0
LINE
  5
A88
330
1A
100
AcDbEntity
  8
SEIHIN
100
AcDbLine
 10
102.9101854171982
 20
140.3576540069603
 30
0.0
 11
101.7101854171983
 21
140.3576540069603
 31
0.0
  0
LINE
  5
A89
330
1A
100
AcDbEntity
  8
SEIHIN
100
AcDbLine
 10
102.9101854171982
 20
152.3576540069604
 30
0.0
 11
101.7101854171983
 21
152.3576540069604
 31
0.0
  0
LINE
  5
A8B
330
1A
100
AcDbEntity
  8
SEIHIN
100
AcDbLine
 10
222.4101854171982
 20
65.15765400696034
 30
0.0
 11
222.4101854171982
 21
94.15765400696036
 31
0.0
  0
LINE
  5
A8D
330
1A
100
AcDbEntity
  8
SEIHIN
100
AcDbLine
 10
213.5085931171983
 20
74.23199800696034
 30
0.0
 11
215.5784817171983
 21
94.93089130696036
 31
0.0
  0
LINE
  5
A8E
330
1A
100
AcDbEntity
  8
SEIHIN
100
AcDbLine
 10
218.7781790171983
 20
96.77823750696036
 30
0.0
 11
216.3700574171982
 21
72.69701320696038
 31
0.0
  0
LINE
  5
A8F
330
1A
100
AcDbEntity
  8
SEIHIN
100
AcDbLine
 10
219.4101854171982
 20
94.15765400696036
 30
0.0
 11
219.4101854171982
 21
65.15765400696034
 31
0.0
  0
LINE
  5
A93
330
1A
100
AcDbEntity
  8
SEIHIN
100
AcDbLine
 10
212.3640074171983
 20
74.84599200696038
 30
0.0
 11
214.3844371171983
 21
95.05029570696036
 31
0.0
  0
LINE
  5
A95
330
1A
100
AcDbEntity
  8
SEIHIN
100
AcDbLine
 10
167.9101854171982
 20
58.65765400696034
 30
0.0
 11
167.9101854171982
 21
59.15765400696034
 31
0.0
  0
LINE
  5
A96
330
1A
100
AcDbEntity
  8
SEIHIN
100
AcDbLine
 10
202.4177275171982
 20
65.15765400696034
 30
0.0
 11
213.5085931171983
 21
74.23199800696034
 31
0.0
  0
LINE
  5
A97
330
1A
100
AcDbEntity
  8
SEIHIN
100
AcDbLine
 10
203.4886175171982
 20
62.15765400696034
 30
0.0
 11
216.3700574171982
 21
72.69701320696038
 31
0.0
  0
LINE
  5
A98
330
1A
100
AcDbEntity
  8
SEIHIN
100
AcDbLine
 10
201.9893714171983
 20
66.35765400696039
 30
0.0
 11
212.3640074171983
 21
74.84599200696038
 31
0.0
  0
LINE
  5
A9B
330
1A
100
AcDbEntity
  8
SEIHIN
100
AcDbLine
 10
216.4101854171982
 20
62.15765400696034
 30
0.0
 11
203.4886175171982
 21
62.15765400696034
 31
0.0
  0
LINE
  5
AC5
330
1A
100
AcDbEntity
  8
SEIHIN
100
AcDbLine
 10
215.4636167171982
 20
123.3711135069603
 30
0.0
 11
208.3495257171982
 21
118.3897735069603
 31
0.0
  0
LINE
  5
AC6
330
1A
100
AcDbEntity
  8
SEIHIN
100
AcDbLine
 10
223.9101854171982
 20
103.1463290069603
 30
0.0
 11
223.9101854171982
 21
121.5689790069603
 31
0.0
  0
LINE
  5
AC7
330
1A
100
AcDbEntity
  8
SEIHIN
100
AcDbLine
 10
216.1519084171983
 20
122.3881310069603
 30
0.0
 11
209.0378174171983
 21
117.4067910069603
 31
0.0
  0
LINE
  5
AC8
330
1A
100
AcDbEntity
  8
SEIHIN
100
AcDbLine
 10
225.1101854171983
 20
103.1463290069603
 30
0.0
 11
225.1101854171983
 21
121.5689790069603
 31
0.0
  0
LINE
  5
AC9
330
1A
100
AcDbEntity
  8
SEIHIN
100
AcDbLine
 10
223.4101854171982
 20
102.2803040069603
 30
0.0
 11
216.4635932171983
 21
98.26968690696039
 31
0.0
  0
ARC
  5
ACA
330
1A
100
AcDbEntity
  8
SEIHIN
100
AcDbCircle
 10
222.9101854171982
 20
103.1463290069603
 30
0.0
 40
2.200000005055114
100
AcDbArc
 50
299.9999998479836
 51
0.0
  0
LINE
  5
ACB
330
1A
100
AcDbEntity
  8
SEIHIN
100
AcDbLine
 10
224.0101855171982
 20
101.2410735069604
 30
0.0
 11
217.0635933171983
 21
97.23045640696035
 31
0.0
  0
ARC
  5
ACC
330
1A
100
AcDbEntity
  8
SEIHIN
100
AcDbCircle
 10
218.5635933171983
 20
94.63238020696037
 30
0.0
 40
4.200000021369245
100
AcDbArc
 50
120.0000011534159
 51
174.2894084913981
  0
ARC
  5
ACD
330
1A
100
AcDbEntity
  8
SEIHIN
100
AcDbCircle
 10
218.5635933171983
 20
94.63238020696037
 30
0.0
 40
3.000000006856998
100
AcDbArc
 50
120.0000001084146
 51
174.2894080027292
  0
ARC
  5
AD1
330
1A
100
AcDbEntity
  8
SEIHIN
100
AcDbCircle
 10
221.7632905171982
 20
96.47972640696039
 30
0.0
 40
2.999999957105099
100
AcDbArc
 50
120.0000001084146
 51
174.2894078126911
  0
LINE
  5
AD8
330
1A
100
AcDbEntity
  8
SEIHIN
100
AcDbLine
 10
208.3495257171982
 20
118.3897735069603
 30
0.0
 11
209.0378174171983
 21
117.4067910069603
 31
0.0
  0
ARC
  5
AD9
330
1A
100
AcDbEntity
  8
SEIHIN
100
AcDbCircle
 10
222.9101854171982
 20
103.1463290069603
 30
0.0
 40
0.9999999983612706
100
AcDbArc
 50
300.0000001084146
 51
0.0
  0
LINE
  5
ADA
330
1A
100
AcDbEntity
  8
SEIHIN
100
AcDbLine
 10
223.9101854171982
 20
111.7585850069603
 30
0.0
 11
223.9101854171982
 21
111.7585850069603
 31
0.0
  0
LINE
  5
ADB
330
1A
100
AcDbEntity
  8
SEIHIN
100
AcDbLine
 10
216.7254844171983
 20
122.5689790069603
 30
0.0
 11
222.9101854171982
 21
122.5689790069603
 31
0.0
  0
LINE
  5
ADC
330
1A
100
AcDbEntity
  8
SEIHIN
100
AcDbLine
 10
216.7254844171983
 20
123.7689790069603
 30
0.0
 11
222.9101854171982
 21
123.7689790069603
 31
0.0
  0
LINE
  5
ADD
330
1A
100
AcDbEntity
  8
SEIHIN
100
AcDbLine
 10
212.2830618171982
 20
121.1440650069603
 30
0.0
 11
212.9713534171983
 21
120.1610820069603
 31
0.0
  0
ARC
  5
ADE
330
1A
100
AcDbEntity
  8
SEIHIN
100
AcDbCircle
 10
216.7254844171983
 20
121.5689790069603
 30
0.0
 40
2.199999983850877
100
AcDbArc
 50
90.0
 51
124.9999986822715
  0
ARC
  5
ADF
330
1A
100
AcDbEntity
  8
SEIHIN
100
AcDbCircle
 10
216.7254844171983
 20
121.5689790069603
 30
0.0
 40
0.9999999714352551
100
AcDbArc
 50
90.0
 51
124.9999997494021
  0
ARC
  5
AE0
330
1A
100
AcDbEntity
  8
SEIHIN
100
AcDbCircle
 10
222.9101854171982
 20
121.5689790069603
 30
0.0
 40
2.200000000000017
100
AcDbArc
 50
0.0
 51
90.0
  0
ARC
  5
AE1
330
1A
100
AcDbEntity
  8
SEIHIN
100
AcDbCircle
 10
222.9101854171982
 20
121.5689790069603
 30
0.0
 40
1.0
100
AcDbArc
 50
0.0
 51
90.0
  0
LINE
  5
B9C
330
1A
100
AcDbEntity
  8
CENTER_L
100
AcDbLine
 10
164.4101854171982
 20
51.65765400696034
 30
0.0
 11
164.4101854171982
 21
73.35765400696039
 31
0.0
  0
LINE
  5
FEA
330
1A
100
AcDbEntity
  8
CENTER_L
100
AcDbLine
 10
260.9101854171981
 20
228.8519590502172
 30
0.0
 11
94.71018541719832
 21
228.8519590502172
 31
0.0
  0
LINE
  5
FEB
330
1A
100
AcDbEntity
  8
SEIHIN
100
AcDbLine
 10
225.1101854171982
 20
239.8519590502171
 30
0.0
 11
101.7101854171983
 21
239.8519590502171
 31
0.0
  0
LINE
  5
FEC
330
1A
100
AcDbEntity
  8
SEIHIN
100
AcDbLine
 10
225.1101854171982
 20
217.8519590502172
 30
0.0
 11
101.7101854171983
 21
217.8519590502172
 31
0.0
  0
LINE
  5
FED
330
1A
100
AcDbEntity
  8
SEIHIN
100
AcDbLine
 10
101.7101854171983
 20
239.8519590502171
 30
0.0
 11
101.7101854171983
 21
217.8519590502172
 31
0.0
  0
LINE
  5
FEE
330
1A
100
AcDbEntity
  8
SEIHIN
100
AcDbLine
 10
102.9101854171982
 20
239.8519590502171
 30
0.0
 11
102.9101854171982
 21
217.8519590502172
 31
0.0
  0
LINE
  5
FF0
330
1A
100
AcDbEntity
  8
SEIHIN
100
AcDbLine
 10
209.4201895816897
 20
222.8519590502171
 30
0.0
 11
110.573161595828
 21
222.8519590502171
 31
0.0
  0
LINE
  5
FF1
330
1A
100
AcDbEntity
  8
SEIHIN
100
AcDbLine
 10
102.9101854171982
 20
234.8519590502172
 30
0.0
 11
101.7101854171983
 21
234.8519590502172
 31
0.0
  0
LINE
  5
FF2
330
1A
100
AcDbEntity
  8
SEIHIN
100
AcDbLine
 10
102.9101854171982
 20
222.8519590502171
 30
0.0
 11
101.7101854171983
 21
222.8519590502171
 31
0.0
  0
LINE
  5
FF3
330
1A
100
AcDbEntity
  8
SEIHIN
100
AcDbLine
 10
107.573161595828
 20
225.8519590502172
 30
0.0
 11
107.573161595828
 21
231.8519590502172
 31
0.0
  0
LINE
  5
FF5
330
1A
100
AcDbEntity
  8
SEIHIN
100
AcDbLine
 10
225.1101854171982
 20
217.8519590502172
 30
0.0
 11
225.1101854171982
 21
239.8519590502171
 31
0.0
  0
LINE
  5
FF6
330
1A
100
AcDbEntity
  8
SEIHIN
100
AcDbLine
 10
215.4636163079355
 20
217.8519590502172
 30
0.0
 11
215.4636163079355
 21
239.8519590502171
 31
0.0
  0
ARC
  5
FF8
330
1A
100
AcDbEntity
  8
SEIHIN
100
AcDbCircle
 10
225.696856818342
 20
228.8519590502172
 30
0.0
 40
17.34733110114381
100
AcDbArc
 50
140.6464899728084
 51
219.3535100271917
  0
LINE
  5
FF9
330
1A
100
AcDbEntity
  8
SEIHIN
100
AcDbLine
 10
110.5707270079756
 20
217.8519590502172
 30
0.0
 11
110.5707270079756
 21
222.8519590502171
 31
0.0
  0
LINE
  5
FFA
330
1A
100
AcDbEntity
  8
SEIHIN
100
AcDbLine
 10
110.5707270079756
 20
234.8519590502172
 30
0.0
 11
110.5707270079756
 21
239.8519590502171
 31
0.0
  0
ARC
  5
FFB
330
1A
100
AcDbEntity
  8
SEIHIN
100
AcDbCircle
 10
110.573161595828
 20
231.8519590502172
 30
0.0
 40
3.0
100
AcDbArc
 50
90.0
 51
180.0
  0
ARC
  5
FFC
330
1A
100
AcDbEntity
  8
SEIHIN
100
AcDbCircle
 10
110.573161595828
 20
225.8519590502172
 30
0.0
 40
3.0
100
AcDbArc
 50
180.0
 51
270.0
  0
LINE
  5
119A
330
1A
100
AcDbEntity
  8
SEIHIN
100
AcDbLine
 10
371.7402575330284
 20
63.15765236207568
 30
0.0
 11
371.7706258009319
 21
92.15763646152479
 31
0.0
  0
LINE
  5
119D
330
1A
100
AcDbEntity
  8
SEIHIN
100
AcDbLine
 10
318.7371450477002
 20
60.21315463450799
 30
0.0
 11
343.7371313403288
 21
60.18697509321197
 31
0.0
  0
LINE
  5
119E
330
1A
100
AcDbEntity
  8
SEIHIN
100
AcDbLine
 10
315.7706565054438
 20
92.21627863402806
 30
0.0
 11
315.7402882375403
 21
63.21629453457894
 31
0.0
  0
CIRCLE
  5
11A8
330
1A
100
AcDbEntity
  8
SEIHIN
100
AcDbCircle
 10
321.7444736743786
 20
67.21000925148842
 30
0.0
 40
2.050000000000068
  0
CIRCLE
  5
11A9
330
1A
100
AcDbEntity
  8
SEIHIN
100
AcDbCircle
 10
321.7554690817229
 20
77.71000349439248
 30
0.0
 40
3.25
  0
LINE
  5
11C1
330
1A
100
AcDbEntity
  8
SEIHIN
100
AcDbLine
 10
318.7737964055148
 20
95.21313544418793
 30
0.0
 11
337.27378626206
 21
95.19376258362887
 31
0.0
  0
CIRCLE
  5
11C8
330
1A
100
AcDbEntity
  8
SEIHIN
100
AcDbCircle
 10
321.7664644890673
 20
88.20999773729644
 30
0.0
 40
2.050000000000068
  0
LINE
  5
11CC
330
1A
100
AcDbEntity
  8
SEIHIN
100
AcDbLine
 10
343.7371313403287
 20
60.18697509321191
 30
0.0
 11
368.7371176329574
 21
60.16079555191573
 31
0.0
  0
CIRCLE
  5
11D1
330
1A
100
AcDbEntity
  8
SEIHIN
100
AcDbCircle
 10
365.7444495494049
 20
67.16393325880734
 30
0.0
 40
2.050000000000068
  0
CIRCLE
  5
11D3
330
1A
100
AcDbEntity
  8
SEIHIN
100
AcDbCircle
 10
365.7554449567492
 20
77.66392750171127
 30
0.0
 40
3.25
  0
LINE
  5
11D6
330
1A
100
AcDbEntity
  8
SEIHIN
100
AcDbLine
 10
350.2737791342267
 20
95.18014922215494
 30
0.0
 11
368.773768990772
 21
95.16077636159577
 31
0.0
  0
CIRCLE
  5
11E3
330
1A
100
AcDbEntity
  8
SEIHIN
100
AcDbCircle
 10
365.7664403640936
 20
88.1639217446153
 30
0.0
 40
2.050000000000068
  0
LINE
  5
11EE
330
1A
100
AcDbEntity
  8
CENTER_L
100
AcDbLine
 10
343.7282302962882
 20
51.68697975371816
 30
0.0
 11
343.8409876760919
 21
159.3639217446152
 31
0.0
  0
ARC
  5
11F2
330
1A
100
AcDbEntity
  8
SEIHIN
100
AcDbCircle
 10
318.7706548605592
 20
92.21313708907251
 30
0.0
 40
3.0
100
AcDbArc
 50
89.94000090000001
 51
179.9400009000001
  0
ARC
  5
11F3
330
1A
100
AcDbEntity
  8
SEIHIN
100
AcDbCircle
 10
318.7402865926557
 20
63.21315298962338
 30
0.0
 40
3.0
100
AcDbArc
 50
179.9400009
 51
269.9400009000003
  0
ARC
  5
11F4
330
1A
100
AcDbEntity
  8
SEIHIN
100
AcDbCircle
 10
368.7706274458165
 20
92.16077800648037
 30
0.0
 40
3.0
100
AcDbArc
 50
359.9400009
 51
89.94000090000001
  0
ARC
  5
11F5
330
1A
100
AcDbEntity
  8
SEIHIN
100
AcDbCircle
 10
368.7402591779129
 20
63.16079390703118
 30
0.0
 40
3.0
100
AcDbArc
 50
269.9400009
 51
359.9400008999999
  0
LINE
  5
11F6
330
1A
100
AcDbEntity
  8
SEIHIN
100
AcDbLine
 10
209.4201895816897
 20
234.8519590502171
 30
0.0
 11
110.573161595828
 21
234.8519590502172
 31
0.0
  0
LINE
  5
11F7
330
1A
100
AcDbEntity
  8
CENTER_L
100
AcDbLine
 10
321.7478770147472
 20
70.46000746953018
 30
0.0
 11
321.7630611486989
 21
84.95999951925474
 31
0.0
  0
LINE
  5
11F8
330
1A
100
AcDbEntity
  8
CENTER_L
100
AcDbLine
 10
329.0054651065853
 20
77.70241142741659
 30
0.0
 11
314.5054730568607
 21
77.71759556136834
 31
0.0
  0
LINE
  5
11FB
330
1A
100
AcDbEntity
  8
CENTER_L
100
AcDbLine
 10
327.8164611718835
 20
88.20366228830279
 30
0.0
 11
315.7164678062512
 21
88.21633318629015
 31
0.0
  0
LINE
  5
11FC
330
1A
100
AcDbEntity
  8
CENTER_L
100
AcDbLine
 10
321.7601290400738
 20
82.16000105448026
 30
0.0
 11
321.7727999380609
 21
94.25999442011265
 31
0.0
  0
LINE
  5
11FD
330
1A
100
AcDbEntity
  8
CENTER_L
100
AcDbLine
 10
327.7944703571948
 20
67.20367380249479
 30
0.0
 11
315.6944769915625
 21
67.21634470048212
 31
0.0
  0
LINE
  5
11FE
330
1A
100
AcDbEntity
  8
CENTER_L
100
AcDbLine
 10
321.7381382253851
 20
61.16001256867227
 30
0.0
 11
321.7508091233723
 21
73.26000593430464
 31
0.0
  0
LINE
  5
11FF
330
1A
100
AcDbEntity
  8
CENTER_L
100
AcDbLine
 10
371.8164370469097
 20
88.15758629562166
 30
0.0
 11
359.7164436812774
 21
88.17025719360897
 31
0.0
  0
LINE
  5
1200
330
1A
100
AcDbEntity
  8
CENTER_L
100
AcDbLine
 10
365.7601049150999
 20
82.1139250617991
 30
0.0
 11
365.7727758130872
 21
94.21391842743148
 31
0.0
  0
LINE
  5
1201
330
1A
100
AcDbEntity
  8
CENTER_L
100
AcDbLine
 10
373.0054409816115
 20
77.65633543473547
 30
0.0
 11
358.5054489318869
 21
77.67151956868722
 31
0.0
  0
LINE
  5
1202
330
1A
100
AcDbEntity
  8
CENTER_L
100
AcDbLine
 10
365.7478528897734
 20
70.41393147684903
 30
0.0
 11
365.7630370237251
 21
84.91392352657362
 31
0.0
  0
LINE
  5
1203
330
1A
100
AcDbEntity
  8
CENTER_L
100
AcDbLine
 10
365.7381141004113
 20
61.11393657599112
 30
0.0
 11
365.7507849983985
 21
73.21392994162351
 31
0.0
  0
LINE
  5
1204
330
1A
100
AcDbEntity
  8
CENTER_L
100
AcDbLine
 10
371.794446232221
 20
67.15759780981364
 30
0.0
 11
359.6944528665887
 21
67.17026870780097
 31
0.0
  0
CIRCLE
  5
1218
330
1A
100
AcDbEntity
  8
SEIHIN
100
AcDbCircle
 10
164.4101854171982
 20
228.8519590502172
 30
0.0
 40
3.5
  0
DIMENSION
  5
123A
330
1A
100
AcDbEntity
  8
SUNPOU
100
AcDbDimension
  2
*D1
 10
383.568859737991
 20
77.64527361036797
 30
0.0
 11
381.0780239481817
 21
86.3978867669175
 31
0.0
 70
    33
  3
STANDARD
100
AcDbAlignedDimension
 13
365.7737706356564
 23
95.16391790655129
 33
0.0
 14
365.7554449567492
 24
77.66392750171132
 34
0.0
1001
ACAD
1000
DSTYLE
1002
{
1070
    41
1040
3.0
1070
    42
1040
3.0
1070
    43
1040
7.0
1070
    44
1040
1.5
1070
    73
1070
     0
1070
    74
1070
     0
1070
    77
1070
     3
1070
   140
1040
3.0
1070
   141
1040
3.0
1070
   147
1040
1.0
1070
   172
1070
     1
1070
   173
1070
     1
1070
   176
1070
   256
1070
   177
1070
   256
1070
   178
1070
   256
1070
   271
1070
     0
1070
   272
1070
     0
1070
   341
1005
B2
1070
     6
1000
OPEN
1070
     7
1000
OPEN
1002
}
  0
DIMENSION
  5
1247
330
1A
100
AcDbEntity
  8
SUNPOU
100
AcDbDimension
  2
*D2
 10
306.0911749554311
 20
88.22641262188351
 30
0.0
 11
303.5948414619496
 21
91.72902865698105
 31
0.0
 70
    33
  3
STANDARD
100
AcDbAlignedDimension
 13
321.7737947606302
 23
95.20999389923241
 33
0.0
 14
321.7664644890674
 24
88.20999773729644
 34
0.0
1001
ACAD
1000
DSTYLE
1002
{
1070
    41
1040
3.0
1070
    42
1040
3.0
1070
    43
1040
7.0
1070
    44
1040
1.5
1070
    73
1070
     0
1070
    74
1070
     0
1070
    77
1070
     3
1070
   140
1040
3.0
1070
   141
1040
3.0
1070
   147
1040
1.0
1070
   172
1070
     1
1070
   173
1070
     1
1070
   176
1070
   256
1070
   177
1070
   256
1070
   178
1070
   256
1070
   271
1070
     0
1070
   272
1070
     0
1070
   341
1005
B2
1070
     6
1000
OPEN
1070
     7
1000
OPEN
1002
}
  0
DIMENSION
  5
1256
330
1A
100
AcDbEntity
  8
SUNPOU
100
AcDbDimension
  2
*D3
 10
306.0618538691804
 20
60.22642797413936
 30
0.0
 11
303.565520375699
 21
63.72904400923694
 31
0.0
 70
    33
  3
STANDARD
100
AcDbAlignedDimension
 13
321.7444736743786
 23
67.21000925148844
 33
0.0
 14
321.7371434028159
 24
60.21001308955243
 34
0.0
1001
ACAD
1000
DSTYLE
1002
{
1070
    41
1040
3.0
1070
    42
1040
3.0
1070
    43
1040
7.0
1070
    44
1040
1.5
1070
    73
1070
     0
1070
    74
1070
     0
1070
    77
1070
     3
1070
   140
1040
3.0
1070
   141
1040
3.0
1070
   147
1040
1.0
1070
   172
1070
     1
1070
   173
1070
     1
1070
   176
1070
   256
1070
   177
1070
   256
1070
   178
1070
   256
1070
   271
1070
     0
1070
   272
1070
     0
1070
   341
1005
B2
1070
     6
1000
OPEN
1070
     7
1000
OPEN
1002
}
  0
DIMENSION
  5
1265
330
1A
100
AcDbEntity
  8
SUNPOU
100
AcDbDimension
  2
*D4
 10
297.3678489955963
 20
60.23553218151607
 30
0.0
 11
294.8861760452408
 21
77.73814054048566
 31
0.0
 70
    33
  3
STANDARD
100
AcDbAlignedDimension
 13
318.7737964055148
 23
95.21313544418793
 33
0.0
 14
318.7371450477002
 24
60.21315463450796
 34
0.0
1001
ACAD
1000
DSTYLE
1002
{
1070
    41
1040
3.0
1070
    42
1040
3.0
1070
    43
1040
7.0
1070
    44
1040
1.5
1070
    73
1070
     0
1070
    74
1070
     0
1070
    77
1070
     3
1070
   140
1040
3.0
1070
   141
1040
3.0
1070
   147
1040
1.0
1070
   172
1070
     1
1070
   173
1070
     1
1070
   176
1070
   256
1070
   177
1070
   256
1070
   178
1070
   256
1070
   271
1070
     0
1070
   272
1070
     0
1070
   341
1005
B2
1070
     6
1000
OPEN
1070
     7
1000
OPEN
1002
}
  0
LINE
  5
128F
330
1A
100
AcDbEntity
  8
SEIHIN
100
AcDbLine
 10
252.9941270171982
 20
235.3519590502171
 30
0.0
 11
225.1101854171982
 21
235.3519590502171
 31
0.0
  0
LINE
  5
1290
330
1A
100
AcDbEntity
  8
SEIHIN
100
AcDbLine
 10
252.9941270171982
 20
222.3519590502172
 30
0.0
 11
225.1101854171982
 21
222.3519590502172
 31
0.0
  0
LINE
  5
1395
330
1A
100
AcDbEntity
  8
CENTER_L
100
AcDbLine
 10
44.58188446398264
 20
159.3576540069604
 30
0.0
 11
44.58188446398264
 21
51.65765400696034
 31
0.0
  0
LINE
  5
13B2
330
1A
100
AcDbEntity
  8
SEIHIN
100
AcDbLine
 10
33.58188446398258
 20
118.4076540069603
 30
0.0
 11
33.58188446398264
 21
65.15765400696034
 31
0.0
  0
DIMENSION
  5
1444
330
1A
100
AcDbEntity
  8
SUNPOU
100
AcDbDimension
  2
*D5
 10
85.12070609819305
 20
217.8519590502172
 30
0.0
 11
82.62070609819302
 21
228.8519590502172
 31
0.0
 70
    32
  3
STANDARD
100
AcDbAlignedDimension
 13
101.7101854171983
 23
239.8519590502171
 33
0.0
 14
101.7101854171983
 24
217.8519590502172
 34
0.0
 50
90.0
100
AcDbRotatedDimension
1001
ACAD
1000
DSTYLE
1002
{
1070
    41
1040
3.0
1070
    42
1040
3.0
1070
    43
1040
7.0
1070
    44
1040
1.5
1070
    73
1070
     0
1070
    74
1070
     0
1070
    77
1070
     3
1070
   140
1040
3.0
1070
   141
1040
3.0
1070
   147
1040
1.0
1070
   172
1070
     1
1070
   173
1070
     1
1070
   176
1070
   256
1070
   177
1070
   256
1070
   178
1070
   256
1070
   271
1070
     0
1070
   272
1070
     0
1070
   341
1005
B2
1070
     6
1000
OPEN
1070
     7
1000
OPEN
1002
}
  0
CIRCLE
  5
1664
330
1A
100
AcDbEntity
  8
SEIHIN
100
AcDbCircle
 10
22.58188446398264
 20
77.65765400696043
 30
0.0
 40
3.25
  0
LINE
  5
1665
330
1A
100
AcDbEntity
  8
SEIHIN
100
AcDbLine
 10
16.58188446398264
 20
92.1576540069604
 30
0.0
 11
16.58188446398264
 21
63.15765400696043
 31
0.0
  0
LINE
  5
166A
330
1A
100
AcDbEntity
  8
SEIHIN
100
AcDbLine
 10
19.58188446398264
 20
60.15765400696043
 30
0.0
 11
38.08188446398265
 21
60.15765400696043
 31
0.0
  0
CIRCLE
  5
166C
330
1A
100
AcDbEntity
  8
SEIHIN
100
AcDbCircle
 10
22.58188446398264
 20
67.15765400696042
 30
0.0
 40
2.049999999999954
  0
ARC
  5
166D
330
1A
100
AcDbEntity
  8
SEIHIN
100
AcDbCircle
 10
33.78948206398263
 20
67.15765400696042
 30
0.0
 40
1.999999969244342
100
AcDbArc
 50
95.95796480057193
 51
264.042035199428
  0
ARC
  5
1677
330
1A
100
AcDbEntity
  8
SEIHIN
100
AcDbCircle
 10
33.78948206398263
 20
88.15765400696042
 30
0.0
 40
1.999999969244342
100
AcDbArc
 50
95.95796480057193
 51
264.042035199428
  0
CIRCLE
  5
1678
330
1A
100
AcDbEntity
  8
SEIHIN
100
AcDbCircle
 10
22.58188446398264
 20
88.15765400696042
 30
0.0
 40
2.049999999999954
  0
LINE
  5
1679
330
1A
100
AcDbEntity
  8
SEIHIN
100
AcDbLine
 10
19.58188446398264
 20
95.15765400696041
 30
0.0
 11
33.58188446398264
 21
95.15765400696043
 31
0.0
  0
CIRCLE
  5
167B
330
1A
100
AcDbEntity
  8
SEIHIN
100
AcDbCircle
 10
66.58188446398265
 20
77.65765400696043
 30
0.0
 40
3.25
  0
LINE
  5
167C
330
1A
100
AcDbEntity
  8
SEIHIN
100
AcDbLine
 10
72.58188446398264
 20
63.15765400696043
 30
0.0
 11
72.58188446398264
 21
92.1576540069604
 31
0.0
  0
LINE
  5
1687
330
1A
100
AcDbEntity
  8
SEIHIN
100
AcDbLine
 10
51.08188446398265
 20
60.15765400696039
 30
0.0
 11
69.58188446398264
 21
60.15765400696043
 31
0.0
  0
LINE
  5
1688
330
1A
100
AcDbEntity
  8
SEIHIN
100
AcDbLine
 10
53.37428696398262
 20
60.15765400696043
 30
0.0
 11
68.58188446398265
 21
60.15765400696043
 31
0.0
  0
CIRCLE
  5
169D
330
1A
100
AcDbEntity
  8
SEIHIN
100
AcDbCircle
 10
66.58188446398265
 20
67.15765400696042
 30
0.0
 40
2.049999999999954
  0
ARC
  5
169E
330
1A
100
AcDbEntity
  8
SEIHIN
100
AcDbCircle
 10
55.37428696398262
 20
67.15765400696042
 30
0.0
 40
1.999999958864467
100
AcDbArc
 50
275.9579619512584
 51
84.04203804874166
  0
ARC
  5
16A9
330
1A
100
AcDbEntity
  8
SEIHIN
100
AcDbCircle
 10
55.37428696398262
 20
88.15765400696042
 30
0.0
 40
1.999999958864467
100
AcDbArc
 50
275.9579619512584
 51
84.04203804874166
  0
CIRCLE
  5
16AA
330
1A
100
AcDbEntity
  8
SEIHIN
100
AcDbCircle
 10
66.58188446398265
 20
88.15765400696042
 30
0.0
 40
2.049999999999954
  0
LINE
  5
16AB
330
1A
100
AcDbEntity
  8
SEIHIN
100
AcDbLine
 10
55.58188446398265
 20
95.15765400696043
 30
0.0
 11
69.58188446398264
 21
95.15765400696041
 31
0.0
  0
LINE
  5
16CD
330
1A
100
AcDbEntity
  8
SEIHIN
100
AcDbLine
 10
222.4101854171982
 20
65.15765400696034
 30
0.0
 11
222.4101854171982
 21
94.15765400696036
 31
0.0
  0
LINE
  5
16CE
330
1A
100
AcDbEntity
  8
SEIHIN
100
AcDbLine
 10
219.4101854171982
 20
94.15765400696036
 30
0.0
 11
219.4101854171982
 21
65.15765400696034
 31
0.0
  0
LINE
  5
16D9
330
1A
100
AcDbEntity
  8
SEIHIN
100
AcDbLine
 10
248.0385270171982
 20
60.15765400696034
 30
0.0
 11
253.9101854171982
 21
60.15765400696034
 31
0.0
  0
LINE
  5
16DA
330
1A
100
AcDbEntity
  8
SEIHIN
100
AcDbLine
 10
252.3253509171981
 20
60.15765400696034
 30
0.0
 11
249.4546068171981
 21
60.15765400696034
 31
0.0
  0
ARC
  5
16E0
330
1A
100
AcDbEntity
  8
SEIHIN
100
AcDbCircle
 10
216.4101854171982
 20
65.15765400696034
 30
0.0
 40
6.0
100
AcDbArc
 50
270.0
 51
0.0
  0
ARC
  5
16E6
330
1A
100
AcDbEntity
  8
SEIHIN
100
AcDbCircle
 10
216.4101854171982
 20
65.15765400696034
 30
0.0
 40
3.0
100
AcDbArc
 50
270.0
 51
0.0
  0
LINE
  5
16ED
330
1A
100
AcDbEntity
  8
SEIHIN
100
AcDbLine
 10
252.3253509171981
 20
60.15765400696034
 30
0.0
 11
253.8262652171981
 21
60.15765400696034
 31
0.0
  0
LINE
  5
16EE
330
1A
100
AcDbEntity
  8
SEIHIN
100
AcDbLine
 10
252.4546068171981
 20
60.15765400696034
 30
0.0
 11
252.3253509171981
 21
60.15765400696034
 31
0.0
  0
LINE
  5
16F7
330
1A
100
AcDbEntity
  8
SEIHIN
100
AcDbLine
 10
252.4092711171981
 20
95.15765400696036
 30
0.0
 11
248.0385270171982
 21
95.15765400696036
 31
0.0
  0
ARC
  5
16F8
330
1A
100
AcDbEntity
  8
SEIHIN
100
AcDbCircle
 10
246.5385270171982
 20
94.15765400696036
 30
0.0
 40
6.000000008331962
100
AcDbArc
 50
9.594068199961029
 51
90.0
  0
ARC
  5
16FF
330
1A
100
AcDbEntity
  8
SEIHIN
100
AcDbCircle
 10
225.4101854171982
 20
94.15765400696036
 30
0.0
 40
3.0
100
AcDbArc
 50
90.0
 51
180.0
  0
ARC
  5
1700
330
1A
100
AcDbEntity
  8
SEIHIN
100
AcDbCircle
 10
225.4101854171982
 20
94.15765400696036
 30
0.0
 40
6.0
100
AcDbArc
 50
90.0
 51
180.0
  0
LINE
  5
1702
330
1A
100
AcDbEntity
  8
SEIHIN
100
AcDbLine
 10
248.0385270171982
 20
95.15765400696036
 30
0.0
 11
248.0385270171982
 21
60.15765400696034
 31
0.0
  0
LINE
  5
170B
330
1A
100
AcDbEntity
  8
SEIHIN
100
AcDbLine
 10
246.4546068171981
 20
97.15765400696035
 30
0.0
 11
225.4101854171982
 21
97.15765400696037
 31
0.0
  0
ARC
  5
170E
330
1A
100
AcDbEntity
  8
SEIHIN
100
AcDbCircle
 10
246.5385270171982
 20
94.15765400696036
 30
0.0
 40
3.000000035474969
100
AcDbArc
 50
19.4712201554088
 51
90.0
  0
LINE
  5
171A
330
1A
100
AcDbEntity
  8
SEIHIN
100
AcDbLine
 10
252.4092711171981
 20
95.15765400696036
 30
0.0
 11
252.4092711171981
 21
94.65765400696035
 31
0.0
  0
LINE
  5
171B
330
1A
100
AcDbEntity
  8
SEIHIN
100
AcDbLine
 10
253.9101854171982
 20
94.65765400696035
 30
0.0
 11
253.9101854171982
 21
95.15765400696036
 31
0.0
  0
LINE
  5
172A
330
1A
100
AcDbEntity
  8
SEIHIN
100
AcDbLine
 10
253.9101854171982
 20
60.15765400696037
 30
0.0
 11
253.9101854171982
 21
94.65765400696035
 31
0.0
  0
LINE
  5
172C
330
1A
100
AcDbEntity
  8
SEIHIN
100
AcDbLine
 10
252.4092711171981
 20
94.65765400696035
 30
0.0
 11
252.4092711171981
 21
60.15765400696037
 31
0.0
  0
LINE
  5
1730
330
1A
100
AcDbEntity
  8
SEIHIN
100
AcDbLine
 10
253.9101854171982
 20
95.15765400696036
 30
0.0
 11
252.4092711171981
 21
95.15765400696036
 31
0.0
  0
LINE
  5
18FC
330
1A
100
AcDbEntity
  8
SEIHIN
100
AcDbLine
 10
225.4115166212009
 20
100.157653859285
 30
0.0
 11
246.5385270171982
 21
100.1576540152923
 31
0.0
  0
LINE
  5
19AB
330
1A
100
AcDbEntity
  8
CENTER_L
100
AcDbLine
 10
259.9675123715771
 20
67.1513147199027
 30
0.0
 11
247.8675190059448
 21
67.16398561789003
 31
0.0
  0
LINE
  5
19AC
330
1A
100
AcDbEntity
  8
CENTER_L
100
AcDbLine
 10
261.1785071209676
 20
77.65005234482451
 30
0.0
 11
246.678515071243
 21
77.66523647877626
 31
0.0
  0
LINE
  5
19AD
330
1A
100
AcDbEntity
  8
CENTER_L
100
AcDbLine
 10
259.9895031862658
 20
88.1513032057107
 30
0.0
 11
247.8895098206335
 21
88.16397410369807
 31
0.0
  0
ARC
  5
19AE
330
1A
100
AcDbEntity
  8
SEIHIN
100
AcDbCircle
 10
19.58188446398264
 20
92.1576540069604
 30
0.0
 40
3.0
100
AcDbArc
 50
90.0
 51
180.0
  0
ARC
  5
19AF
330
1A
100
AcDbEntity
  8
SEIHIN
100
AcDbCircle
 10
19.58188446398264
 20
63.15765400696043
 30
0.0
 40
3.0
100
AcDbArc
 50
180.0
 51
270.0
  0
ARC
  5
19B0
330
1A
100
AcDbEntity
  8
SEIHIN
100
AcDbCircle
 10
69.58188446398264
 20
63.15765400696043
 30
0.0
 40
3.0
100
AcDbArc
 50
270.0
 51
0.0
  0
ARC
  5
19B1
330
1A
100
AcDbEntity
  8
SEIHIN
100
AcDbCircle
 10
69.58188446398264
 20
92.1576540069604
 30
0.0
 40
3.0
100
AcDbArc
 50
0.0
 51
90.0
  0
LINE
  5
19EF
330
1A
100
AcDbEntity
  8
SEIHIN
100
AcDbLine
 10
253.9101854171982
 20
220.8519590502172
 30
0.0
 11
253.9101854171982
 21
200.8519590502172
 31
0.0
  0
LINE
  5
19F0
330
1A
100
AcDbEntity
  8
SEIHIN
100
AcDbLine
 10
252.454606808748
 20
219.8963590502172
 30
0.0
 11
252.454606808748
 21
200.8519590502172
 31
0.0
  0
LINE
  5
19F3
330
1A
100
AcDbEntity
  8
SEIHIN
100
AcDbLine
 10
248.0385270171982
 20
221.3963590502172
 30
0.0
 11
248.0385270171982
 21
222.3519590502172
 31
0.0
  0
LINE
  5
19F5
330
1A
100
AcDbEntity
  8
SEIHIN
100
AcDbLine
 10
253.9101854171982
 20
200.8519590502172
 30
0.0
 11
252.454606808748
 21
200.8519590502172
 31
0.0
  0
LINE
  5
19F6
330
1A
100
AcDbEntity
  8
CENTER_L
100
AcDbLine
 10
260.9101854171981
 20
206.8519590502172
 30
0.0
 11
245.454606808748
 21
206.8519590502172
 31
0.0
  0
LINE
  5
19F7
330
1A
100
AcDbEntity
  8
SEIHIN
100
AcDbLine
 10
252.9101854171982
 20
221.8519590502172
 30
0.0
 11
249.9941270171982
 21
221.8519590502172
 31
0.0
  0
LINE
  5
19F8
330
1A
100
AcDbEntity
  8
SEIHIN
100
AcDbLine
 10
251.954606808748
 20
220.3963590502172
 30
0.0
 11
249.0385270171982
 21
220.3963590502172
 31
0.0
  0
ARC
  5
19FB
330
1A
100
AcDbEntity
  8
SEIHIN
100
AcDbCircle
 10
249.9941270171982
 20
222.3519590502172
 30
0.0
 40
0.5
100
AcDbArc
 50
180.0
 51
270.0
  0
ARC
  5
19FC
330
1A
100
AcDbEntity
  8
SEIHIN
100
AcDbCircle
 10
249.0385270171982
 20
221.3963590502172
 30
0.0
 40
1.0
100
AcDbArc
 50
180.0
 51
270.0
  0
ARC
  5
19FD
330
1A
100
AcDbEntity
  8
SEIHIN
100
AcDbCircle
 10
252.9101854171982
 20
220.8519590502172
 30
0.0
 40
1.0
100
AcDbArc
 50
359.9999999999983
 51
90.0
  0
ARC
  5
19FE
330
1A
100
AcDbEntity
  8
SEIHIN
100
AcDbCircle
 10
251.954606808748
 20
219.8963590502172
 30
0.0
 40
0.5
100
AcDbArc
 50
359.9999999999934
 51
90.0
  0
LINE
  5
1A06
330
1A
100
AcDbEntity
  8
SEIHIN
100
AcDbLine
 10
252.9941270171982
 20
222.3519590502172
 30
0.0
 11
252.9941270171982
 21
235.3519590502171
 31
0.0
  0
LINE
  5
1A07
330
1A
100
AcDbEntity
  8
SEIHIN
100
AcDbLine
 10
252.454606808748
 20
237.8075590502171
 30
0.0
 11
252.454606808748
 21
256.8519590502172
 31
0.0
  0
LINE
  5
1A08
330
1A
100
AcDbEntity
  8
SEIHIN
100
AcDbLine
 10
253.9101854171982
 20
236.8519590502171
 30
0.0
 11
253.9101854171982
 21
256.8519590502172
 31
0.0
  0
LINE
  5
1A09
330
1A
100
AcDbEntity
  8
SEIHIN
100
AcDbLine
 10
253.9101854171982
 20
256.8519590502172
 30
0.0
 11
252.454606808748
 21
256.8519590502172
 31
0.0
  0
LINE
  5
1A0A
330
1A
100
AcDbEntity
  8
SEIHIN
100
AcDbLine
 10
248.0385270171982
 20
236.3075590502171
 30
0.0
 11
248.0385270171982
 21
235.3519590502171
 31
0.0
  0
LINE
  5
1A0B
330
1A
100
AcDbEntity
  8
SEIHIN
100
AcDbLine
 10
252.9101854171982
 20
235.8519590502171
 30
0.0
 11
249.9941270171982
 21
235.8519590502171
 31
0.0
  0
LINE
  5
1A0C
330
1A
100
AcDbEntity
  8
SEIHIN
100
AcDbLine
 10
251.954606808748
 20
237.3075590502171
 30
0.0
 11
249.0385270171982
 21
237.3075590502171
 31
0.0
  0
ARC
  5
1A0D
330
1A
100
AcDbEntity
  8
SEIHIN
100
AcDbCircle
 10
249.0385270171982
 20
236.3075590502171
 30
0.0
 40
1.0
100
AcDbArc
 50
90.00000000000003
 51
180.0
  0
ARC
  5
1A0E
330
1A
100
AcDbEntity
  8
SEIHIN
100
AcDbCircle
 10
249.9941270171982
 20
235.3519590502171
 30
0.0
 40
0.5
100
AcDbArc
 50
90.00000000000003
 51
180.0
  0
ARC
  5
1A0F
330
1A
100
AcDbEntity
  8
SEIHIN
100
AcDbCircle
 10
251.954606808748
 20
237.8075590502171
 30
0.0
 40
0.5
100
AcDbArc
 50
270.0
 51
0.0000000000065278
  0
ARC
  5
1A10
330
1A
100
AcDbEntity
  8
SEIHIN
100
AcDbCircle
 10
252.9101854171982
 20
236.8519590502171
 30
0.0
 40
1.0
100
AcDbArc
 50
270.0
 51
0.0000000000016425
  0
LINE
  5
1A11
330
1A
100
AcDbEntity
  8
CENTER_L
100
AcDbLine
 10
260.9101854171981
 20
250.8519590502172
 30
0.0
 11
245.454606808748
 21
250.8519590502171
 31
0.0
  0
LEADER
  5
1A12
330
1A
100
AcDbEntity
  8
SUNPOU
100
AcDbLeader
  3
STANDARD
 73
     0
 40
3.0
 41
15.59999999999999
 76
     3
 10
320.3762648206249
 20
89.71659817598713
 30
0.0
 10
305.4636405512555
 20
114.7681486393844
 30
0.0
 10
302.8731940659235
 20
114.7681486393844
 30
0.0
340
1A13
213
0.0
223
1.5
233
0.0
1001
ACAD
1000
DSTYLE
1002
{
1070
     6
1000
OPEN
1070
    41
1040
3.0
1070
    42
1040
3.0
1070
    43
1040
7.0
1070
    44
1040
1.5
1070
    73
1070
     0
1070
    74
1070
     0
1070
    77
1070
     0
1070
   140
1040
3.0
1070
   141
1040
3.0
1070
   147
1040
1.0
1070
   172
1070
     1
1070
   173
1070
     1
1070
   176
1070
   256
1070
   177
1070
   256
1070
   178
1070
   256
1070
   271
1070
     0
1070
   272
1070
     0
1070
   341
1005
B2
1070
   343
1005
B2
1070
   344
1005
B2
1002
}
  0
MTEXT
  5
1A13
102
{ACAD_REACTORS
330
1A12
102
}
330
1A
100
AcDbEntity
  8
SUNPOU
100
AcDbMText
 10
301.8731940659236
 20
113.2681486393844
 30
0.0
 40
3.0
 41
0.0
 71
     9
 72
     5
  1
\A1;4-φ4.2
1001
ACAD
1000
MTEXTBEGIN
1070
    73
1070
     1
1070
    44
1040
1.0
1070
    74
1070
     0
1000
MTEXTEND
1000
MTEXTBEGIN
1070
    73
1070
     1
1070
    44
1040
1.0
1070
    74
1070
     0
1000
MTEXTEND
1000
MTEXTBEGIN
1070
    73
1070
     1
1070
    44
1040
1.0
1070
    74
1070
     0
1000
MTEXTEND
1000
MTEXTBEGIN
1070
    73
1070
     1
1070
    44
1040
1.0
1070
    74
1070
     0
1000
MTEXTEND
1000
MTEXTBEGIN
1070
    73
1070
     1
1070
    44
1040
1.0
1070
    74
1070
     0
1000
MTEXTEND
1000
MTEXTBEGIN
1070
    73
1070
     1
1070
    44
1040
1.0
1070
    74
1070
     0
1000
MTEXTEND
  0
LEADER
  5
1A15
330
1A
100
AcDbEntity
  8
SUNPOU
100
AcDbLeader
  3
STANDARD
 73
     0
 40
3.0
 41
15.59999999999999
 76
     3
 10
368.0314523605741
 20
75.34395114456138
 30
0.0
 10
375.6049913520078
 20
65.59060826132281
 30
0.0
 10
378.7932362130873
 20
65.59060826132281
 30
0.0
340
1A16
213
0.0
223
-1.5
233
0.0
1001
ACAD
1000
DSTYLE
1002
{
1070
     6
1000
OPEN
1070
    41
1040
3.0
1070
    42
1040
3.0
1070
    43
1040
7.0
1070
    44
1040
1.5
1070
    73
1070
     0
1070
    74
1070
     0
1070
    77
1070
     0
1070
   140
1040
3.0
1070
   141
1040
3.0
1070
   147
1040
1.0
1070
   172
1070
     1
1070
   173
1070
     1
1070
   176
1070
   256
1070
   177
1070
   256
1070
   178
1070
   256
1070
   271
1070
     0
1070
   272
1070
     0
1070
   341
1005
B2
1070
   343
1005
B2
1070
   344
1005
B2
1002
}
  0
MTEXT
  5
1A16
102
{ACAD_REACTORS
330
1A15
102
}
330
1A
100
AcDbEntity
  8
SUNPOU
100
AcDbMText
 10
379.7932362130873
 20
67.09060826132281
 30
0.0
 40
3.0
 41
0.0
 71
     1
 72
     5
  1
\A1;2-φ6.6
1001
ACAD
1000
MTEXTBEGIN
1070
    73
1070
     1
1070
    44
1040
1.0
1070
    74
1070
     0
1000
MTEXTEND
1000
MTEXTBEGIN
1070
    73
1070
     1
1070
    44
1040
1.0
1070
    74
1070
     0
1000
MTEXTEND
1000
MTEXTBEGIN
1070
    73
1070
     1
1070
    44
1040
1.0
1070
    74
1070
     0
1000
MTEXTEND
1000
MTEXTBEGIN
1070
    73
1070
     1
1070
    44
1040
1.0
1070
    74
1070
     0
1000
MTEXTEND
1000
MTEXTBEGIN
1070
    73
1070
     1
1070
    44
1040
1.0
1070
    74
1070
     0
1000
MTEXTEND
1000
MTEXTBEGIN
1070
    73
1070
     1
1070
    44
1040
1.0
1070
    74
1070
     0
1000
MTEXTEND
  0
LINE
  5
1A18
330
1A
100
AcDbEntity
  8
CENTER_L
100
AcDbLine
 10
22.59263013840103
 20
70.43068638327866
 30
0.0
 11
22.60781427235269
 21
84.93067843300321
 31
0.0
  0
LINE
  5
1A19
330
1A
100
AcDbEntity
  8
CENTER_L
100
AcDbLine
 10
28.66121429553732
 20
88.17434120205126
 30
0.0
 11
16.561220929905
 21
88.18701210003862
 31
0.0
  0
LINE
  5
1A1A
330
1A
100
AcDbEntity
  8
CENTER_L
100
AcDbLine
 10
22.60488216372761
 20
82.13067996822873
 30
0.0
 11
22.61755306171477
 21
94.23067333386113
 31
0.0
  0
LINE
  5
1A1B
330
1A
100
AcDbEntity
  8
CENTER_L
100
AcDbLine
 10
29.85021823023913
 20
77.67309034116506
 30
0.0
 11
15.35022618051454
 21
77.68827447511681
 31
0.0
  0
LINE
  5
1A1C
330
1A
100
AcDbEntity
  8
CENTER_L
100
AcDbLine
 10
22.5828913490389
 20
61.13069148242073
 30
0.0
 11
22.59556224702612
 21
73.2306848480531
 31
0.0
  0
LINE
  5
1A1D
330
1A
100
AcDbEntity
  8
CENTER_L
100
AcDbLine
 10
28.63922348084867
 20
67.17435271624328
 30
0.0
 11
16.53923011521629
 21
67.18702361423061
 31
0.0
  0
LINE
  5
1A2A
330
1A
100
AcDbEntity
  8
CENTER_L
100
AcDbLine
 10
59.31355069772616
 20
77.67309034116506
 30
0.0
 11
73.81354274745075
 21
77.68827447511681
 31
0.0
  0
LINE
  5
1A2B
330
1A
100
AcDbEntity
  8
CENTER_L
100
AcDbLine
 10
60.52454544711662
 20
67.17435271624328
 30
0.0
 11
72.62453881274899
 21
67.18702361423061
 31
0.0
  0
LINE
  5
1A2C
330
1A
100
AcDbEntity
  8
CENTER_L
100
AcDbLine
 10
60.50255463242797
 20
88.17434120205126
 30
0.0
 11
72.60254799806029
 21
88.18701210003862
 31
0.0
  0
LINE
  5
1A2D
330
1A
100
AcDbEntity
  8
CENTER_L
100
AcDbLine
 10
66.55888676423768
 20
82.13067996822873
 30
0.0
 11
66.54621586625052
 21
94.23067333386113
 31
0.0
  0
LINE
  5
1A2E
330
1A
100
AcDbEntity
  8
CENTER_L
100
AcDbLine
 10
66.57113878956426
 20
70.43068638327866
 30
0.0
 11
66.55595465561259
 21
84.93067843300321
 31
0.0
  0
LINE
  5
1A2F
330
1A
100
AcDbEntity
  8
CENTER_L
100
AcDbLine
 10
66.58087757892639
 20
61.13069148242073
 30
0.0
 11
66.56820668093917
 21
73.2306848480531
 31
0.0
  0
LINE
  5
1A35
330
1A
100
AcDbEntity
  8
SEIHIN
100
AcDbLine
 10
252.4092711171981
 20
91.15765400696043
 30
0.0
 11
249.4092711171981
 21
88.16238263668052
 31
0.0
  0
LINE
  5
1A36
330
1A
100
AcDbEntity
  8
SEIHIN
100
AcDbLine
 10
249.4092711171981
 20
88.16238263668052
 30
0.0
 11
252.4092711171981
 21
85.15765400696043
 31
0.0
  0
LINE
  5
1A37
330
1A
100
AcDbEntity
  8
SEIHIN
100
AcDbLine
 10
252.4092711171981
 20
70.15606692391838
 30
0.0
 11
249.4092711171981
 21
67.16079555363847
 31
0.0
  0
LINE
  5
1A38
330
1A
100
AcDbEntity
  8
SEIHIN
100
AcDbLine
 10
249.4092711171981
 20
67.16079555363847
 30
0.0
 11
252.4092711171981
 21
64.15606692391839
 31
0.0
  0
LINE
  5
1A39
330
1A
100
AcDbEntity
  8
SEIHIN
100
AcDbLine
 10
249.4092711171981
 20
88.16238263668052
 30
0.0
 11
252.4092711171981
 21
88.15924109000247
 31
0.0
  0
LINE
  5
1A3A
330
1A
100
AcDbEntity
  8
SEIHIN
100
AcDbLine
 10
249.4092711171981
 20
67.16079555363847
 30
0.0
 11
252.4092711171981
 21
67.15922957580421
 31
0.0
  0
DIMENSION
  5
1AA0
330
1A
100
AcDbEntity
  8
SUNPOU
100
AcDbDimension
  2
*D6
 10
253.9101854171982
 20
175.9482018818096
 30
0.0
 11
177.8101854171982
 21
178.4482018818096
 31
0.0
 70
    32
  3
STANDARD
100
AcDbAlignedDimension
 13
101.7101854171983
 23
152.3576540069604
 33
0.0
 14
253.9101854171982
 24
95.15765400696036
 34
0.0
100
AcDbRotatedDimension
1001
ACAD
1000
DSTYLE
1002
{
1070
    41
1040
3.0
1070
    42
1040
3.0
1070
    43
1040
7.0
1070
    44
1040
1.5
1070
    73
1070
     0
1070
    74
1070
     0
1070
    77
1070
     3
1070
   140
1040
3.0
1070
   141
1040
3.0
1070
   147
1040
1.0
1070
   172
1070
     1
1070
   173
1070
     1
1070
   176
1070
   256
1070
   177
1070
   256
1070
   178
1070
   256
1070
   271
1070
     0
1070
   272
1070
     0
1070
   341
1005
B2
1070
     6
1000
OPEN
1070
     7
1000
OPEN
1002
}
  0
DIMENSION
  5
1AAD
330
1A
100
AcDbEntity
  8
SUNPOU
100
AcDbDimension
  2
*D7
 10
253.9101854171982
 20
142.5060789559056
 30
0.0
 11
238.3778753477512
 21
145.0060789559056
 31
0.0
 70
    32
  3
STANDARD
100
AcDbAlignedDimension
 13
222.8455652783043
 23
119.4951540069604
 33
0.0
 14
253.9101854171982
 24
94.65765400696035
 34
0.0
100
AcDbRotatedDimension
1001
ACAD
1000
DSTYLE
1002
{
1070
    41
1040
3.0
1070
    42
1040
3.0
1070
    43
1040
7.0
1070
    44
1040
1.5
1070
    73
1070
     0
1070
    74
1070
     0
1070
    77
1070
     3
1070
   140
1040
3.0
1070
   141
1040
3.0
1070
   147
1040
1.0
1070
   172
1070
     1
1070
   173
1070
     1
1070
   176
1070
   256
1070
   177
1070
   256
1070
   178
1070
   256
1070
   271
1070
     0
1070
   272
1070
     0
1070
   341
1005
B2
1070
     6
1000
OPEN
1070
     7
1000
OPEN
1002
}
  0
DIMENSION
  5
1ABA
330
1A
100
AcDbEntity
  8
SUNPOU
100
AcDbDimension
  2
*D8
 10
86.33707847894038
 20
104.3576540069604
 30
0.0
 11
83.83707847894035
 21
82.25765400696042
 31
0.0
 70
    32
  3
STANDARD
100
AcDbAlignedDimension
 13
248.0385270171982
 23
60.15765400696036
 33
0.0
 14
103.9101854171982
 24
104.3576540069603
 34
0.0
 50
90.0
100
AcDbRotatedDimension
1001
ACAD
1000
DSTYLE
1002
{
1070
    41
1040
3.0
1070
    42
1040
3.0
1070
    43
1040
7.0
1070
    44
1040
1.5
1070
    73
1070
     0
1070
    74
1070
     0
1070
    77
1070
     3
1070
   140
1040
3.0
1070
   141
1040
3.0
1070
   147
1040
1.0
1070
   172
1070
     1
1070
   173
1070
     1
1070
   176
1070
   256
1070
   177
1070
   256
1070
   178
1070
   256
1070
   271
1070
     0
1070
   272
1070
     0
1070
   341
1005
B2
1070
     6
1000
OPEN
1070
     7
1000
OPEN
1002
}
  0
DIMENSION
  5
1AE2
330
1A
100
AcDbEntity
  8
SUNPOU
100
AcDbDimension
  2
*D9
 10
275.102080732192
 20
200.8519590502172
 30
0.0
 11
272.6020807321919
 21
228.8519590502172
 31
0.0
 70
    32
  3
STANDARD
100
AcDbAlignedDimension
 13
253.9101854171982
 23
256.8519590502172
 33
0.0
 14
253.9101854171982
 24
200.8519590502172
 34
0.0
 50
90.0
100
AcDbRotatedDimension
1001
ACAD
1000
DSTYLE
1002
{
1070
    41
1040
3.0
1070
    42
1040
3.0
1070
    43
1040
7.0
1070
    44
1040
1.5
1070
    73
1070
     0
1070
    74
1070
     0
1070
    77
1070
     3
1070
   140
1040
3.0
1070
   141
1040
3.0
1070
   147
1040
1.0
1070
   172
1070
     1
1070
   173
1070
     1
1070
   176
1070
   256
1070
   177
1070
   256
1070
   178
1070
   256
1070
   271
1070
     0
1070
   272
1070
     0
1070
   341
1005
B2
1070
     6
1000
OPEN
1070
     7
1000
OPEN
1002
}
  0
DIMENSION
  5
1B1C
330
1A
100
AcDbEntity
  8
SUNPOU
100
AcDbDimension
  2
*D10
 10
275.1020807321919
 20
60.15765400696035
 30
0.0
 11
272.6020807321919
 21
77.65765400696039
 31
0.0
 70
    32
  3
STANDARD
100
AcDbAlignedDimension
 13
253.9101854171982
 23
95.15765400696036
 33
0.0
 14
253.8262652171981
 24
60.15765400696036
 34
0.0
 50
90.0
100
AcDbRotatedDimension
1001
ACAD
1000
DSTYLE
1002
{
1070
    41
1040
3.0
1070
    42
1040
3.0
1070
    43
1040
7.0
1070
    44
1040
1.5
1070
    73
1070
     0
1070
    74
1070
     0
1070
    77
1070
     3
1070
   140
1040
3.0
1070
   141
1040
3.0
1070
   147
1040
1.0
1070
   172
1070
     1
1070
   173
1070
     1
1070
   176
1070
   256
1070
   177
1070
   256
1070
   178
1070
   256
1070
   271
1070
     0
1070
   272
1070
     0
1070
   341
1005
B2
1070
     6
1000
OPEN
1070
     7
1000
OPEN
1002
}
  0
LINE
  5
1B3B
330
1A
100
AcDbEntity
  8
SEIHIN
100
AcDbLine
 10
350.2664403640936
 20
59.16392174461524
 30
0.0
 11
337.2664403640936
 21
59.16392174461524
 31
0.0
  0
LINE
  5
1B3C
330
1A
100
AcDbEntity
  8
SEIHIN
100
AcDbLine
 10
340.2664403640936
 20
58.66392174461523
 30
0.0
 11
347.2664403640936
 21
58.66392174461523
 31
0.0
  0
LINE
  5
1B3D
330
1A
100
AcDbEntity
  8
SEIHIN
100
AcDbLine
 10
340.2664403640936
 20
58.66392174461523
 30
0.0
 11
347.2664403640936
 21
58.66392174461523
 31
0.0
  0
LINE
  5
1B3E
330
1A
100
AcDbEntity
  8
SEIHIN
100
AcDbLine
 10
340.2664403640936
 20
59.16392174461524
 30
0.0
 11
340.2664403640936
 21
58.66392174461523
 31
0.0
  0
LINE
  5
1B3F
330
1A
100
AcDbEntity
  8
SEIHIN
100
AcDbLine
 10
340.2664403640936
 20
59.16392174461524
 30
0.0
 11
340.2664403640936
 21
58.66392174461523
 31
0.0
  0
LINE
  5
1B40
330
1A
100
AcDbEntity
  8
SEIHIN
100
AcDbLine
 10
347.2664403640936
 20
58.66392174461523
 30
0.0
 11
347.2664403640936
 21
59.16392174461524
 31
0.0
  0
LINE
  5
1B41
330
1A
100
AcDbEntity
  8
SEIHIN
100
AcDbLine
 10
350.2664403640936
 20
100.1576540152923
 30
0.0
 11
350.2664403640936
 21
59.16392174461524
 31
0.0
  0
LINE
  5
1B42
330
1A
100
AcDbEntity
  8
SEIHIN
100
AcDbLine
 10
337.2664403640936
 20
59.16392174461524
 30
0.0
 11
337.2664403640936
 21
100.1576540152923
 31
0.0
  0
ARC
  5
1B43
330
1A
100
AcDbEntity
  8
SEIHIN
100
AcDbCircle
 10
339.6664403640936
 20
138.3639217446152
 30
0.0
 40
2.0
100
AcDbArc
 50
0.0
 51
90.0
  0
ARC
  5
1B44
330
1A
100
AcDbEntity
  8
SEIHIN
100
AcDbCircle
 10
347.8664403640936
 20
138.3639217446152
 30
0.0
 40
2.0
100
AcDbArc
 50
90.0
 51
180.0
  0
LINE
  5
1B49
330
1A
100
AcDbEntity
  8
SEIHIN
100
AcDbLine
 10
345.8664403640936
 20
138.3639217446152
 30
0.0
 11
345.8664403640936
 21
123.7689790069603
 31
0.0
  0
LINE
  5
1B4A
330
1A
100
AcDbEntity
  8
SEIHIN
100
AcDbLine
 10
341.6664403640936
 20
138.3639217446152
 30
0.0
 11
341.6664403640936
 21
123.7689790069603
 31
0.0
  0
LINE
  5
1B4C
330
1A
100
AcDbEntity
  8
SEIHIN
100
AcDbLine
 10
341.6664403640936
 20
126.2490067446152
 30
0.0
 11
341.6664403640936
 21
126.2490067446152
 31
0.0
  0
LINE
  5
1B4D
330
1A
100
AcDbEntity
  8
SEIHIN
100
AcDbLine
 10
345.8664403640936
 20
126.2490067446152
 30
0.0
 11
345.8664403640936
 21
126.2490067446152
 31
0.0
  0
LINE
  5
1B51
330
1A
100
AcDbEntity
  8
SEIHIN
100
AcDbLine
 10
341.6664403640936
 20
127.1887337446152
 30
0.0
 11
341.6664403640936
 21
127.1887337446152
 31
0.0
  0
LINE
  5
1B52
330
1A
100
AcDbEntity
  8
SEIHIN
100
AcDbLine
 10
345.8664403640936
 20
127.1887337446152
 30
0.0
 11
345.8664403640936
 21
127.1887337446152
 31
0.0
  0
ARC
  5
1B53
330
1A
100
AcDbEntity
  8
SEIHIN
100
AcDbCircle
 10
340.7664403640936
 20
149.3639217446153
 30
0.0
 40
3.0
100
AcDbArc
 50
90.0
 51
180.0
  0
LINE
  5
1B54
330
1A
100
AcDbEntity
  8
SEIHIN
100
AcDbLine
 10
337.7664403640936
 20
142.3626717446152
 30
0.0
 11
337.7664403640936
 21
149.3639217446153
 31
0.0
  0
LINE
  5
1B55
330
1A
100
AcDbEntity
  8
SEIHIN
100
AcDbLine
 10
339.2664403640936
 20
140.3639217446152
 30
0.0
 11
339.2664403640936
 21
140.3639217446152
 31
0.0
  0
ARC
  5
1B56
330
1A
100
AcDbEntity
  8
SEIHIN
100
AcDbCircle
 10
339.7664403640936
 20
142.3626717446152
 30
0.0
 40
1.999999998843762
100
AcDbArc
 50
180.0
 51
268.5674562607732
  0
ARC
  5
1B57
330
1A
100
AcDbEntity
  8
SEIHIN
100
AcDbCircle
 10
346.7664403640936
 20
149.3639217446153
 30
0.0
 40
3.0
100
AcDbArc
 50
0.0
 51
90.0
  0
ARC
  5
1B58
330
1A
100
AcDbEntity
  8
SEIHIN
100
AcDbCircle
 10
347.7664403640936
 20
142.3626717446152
 30
0.0
 40
1.99999999884376
100
AcDbArc
 50
271.4325437392202
 51
0.0
  0
LINE
  5
1B59
330
1A
100
AcDbEntity
  8
SEIHIN
100
AcDbLine
 10
349.7664403640936
 20
142.3626717446152
 30
0.0
 11
349.7664403640936
 21
149.3639217446153
 31
0.0
  0
LINE
  5
1B5A
330
1A
100
AcDbEntity
  8
SEIHIN
100
AcDbLine
 10
346.7664403640936
 20
152.3639217446153
 30
0.0
 11
340.7664403640936
 21
152.3639217446153
 31
0.0
  0
LINE
  5
1B5B
330
1A
100
AcDbEntity
  8
SEIHIN
100
AcDbLine
 10
354.7664403640935
 20
123.7689790069603
 30
0.0
 11
354.7664403640936
 21
95.17544458716754
 31
0.0
  0
LINE
  5
1B5C
330
1A
100
AcDbEntity
  8
SEIHIN
100
AcDbLine
 10
332.7664403640935
 20
123.7689790069604
 30
0.0
 11
332.7664403640935
 21
95.19848259613979
 31
0.0
  0
LINE
  5
1B5D
330
1A
100
AcDbEntity
  8
SEIHIN
100
AcDbLine
 10
337.2789843609389
 20
100.1576540152923
 30
0.0
 11
350.2664403640935
 21
100.1576540152923
 31
0.0
  0
LINE
  5
1B71
330
1A
100
AcDbEntity
  8
SEIHIN
100
AcDbLine
 10
332.7664403640936
 20
123.7689790069603
 30
0.0
 11
354.7664403640935
 21
123.7689790069604
 31
0.0
  0
LINE
  5
1B72
330
1A
100
AcDbEntity
  8
SEIHIN
100
AcDbLine
 10
332.7664403640935
 20
101.2410735069604
 30
0.0
 11
354.7664403640936
 21
101.2410735069604
 31
0.0
  0
LINE
  5
1B73
330
1A
100
AcDbEntity
  8
SEIHIN
100
AcDbLine
 10
334.7664184654455
 20
88.15924109000247
 30
0.0
 11
336.7664195620358
 21
88.15924109000247
 31
0.0
  0
LINE
  5
1B78
330
1A
100
AcDbEntity
  8
SEIHIN
100
AcDbLine
 10
336.7685139264878
 20
90.15924109000248
 30
0.0
 11
334.7664184654454
 21
88.15924109000247
 31
0.0
  0
LINE
  5
1B79
330
1A
100
AcDbEntity
  8
SEIHIN
100
AcDbLine
 10
334.7664184654454
 20
88.15924109000247
 30
0.0
 11
336.7643251975838
 21
86.15924109000248
 31
0.0
  0
LINE
  5
1B7A
330
1A
100
AcDbEntity
  8
SEIHIN
100
AcDbLine
 10
334.7444276266417
 20
67.15922957580421
 30
0.0
 11
336.7423343587801
 21
65.1592295758042
 31
0.0
  0
LINE
  5
1B7B
330
1A
100
AcDbEntity
  8
SEIHIN
100
AcDbLine
 10
334.7444276266418
 20
67.15922957580421
 30
0.0
 11
336.7444287232321
 21
67.15922957580421
 31
0.0
  0
LINE
  5
1B7C
330
1A
100
AcDbEntity
  8
SEIHIN
100
AcDbLine
 10
336.7465230876841
 20
69.1592295758042
 30
0.0
 11
334.7444276266417
 21
67.15922957580421
 31
0.0
  0
LINE
  5
1B7D
330
1A
100
AcDbEntity
  8
SEIHIN
100
AcDbLine
 10
350.7465154115561
 20
69.14456903267842
 30
0.0
 11
352.7444177573343
 21
67.14038030607103
 31
0.0
  0
LINE
  5
1B7E
330
1A
100
AcDbEntity
  8
SEIHIN
100
AcDbLine
 10
352.7444177573343
 20
67.14038030607099
 30
0.0
 11
350.744421047104
 21
67.14456903267842
 31
0.0
  0
LINE
  5
1B7F
330
1A
100
AcDbEntity
  8
SEIHIN
100
AcDbLine
 10
352.7444177573343
 20
67.14038030607103
 30
0.0
 11
350.742326682652
 21
65.14456903267841
 31
0.0
  0
LINE
  5
1B80
330
1A
100
AcDbEntity
  8
SEIHIN
100
AcDbLine
 10
352.7664085961379
 20
88.14039182026929
 30
0.0
 11
350.7643175214556
 21
86.14458054687668
 31
0.0
  0
LINE
  5
1B81
330
1A
100
AcDbEntity
  8
SEIHIN
100
AcDbLine
 10
352.7664085961378
 20
88.14039182026929
 30
0.0
 11
350.7664118859076
 21
88.14458054687667
 31
0.0
  0
LINE
  5
1B82
330
1A
100
AcDbEntity
  8
SEIHIN
100
AcDbLine
 10
350.7685062503596
 20
90.14458054687667
 30
0.0
 11
352.7664085961379
 21
88.14039182026929
 31
0.0
  0
LINE
  5
1B83
330
1A
100
AcDbEntity
  8
SEIHIN
100
AcDbLine
 10
336.7371351783928
 20
60.19430536477483
 30
0.0
 11
336.7371351783928
 21
95.19432455510536
 31
0.0
  0
LINE
  5
1B84
330
1A
100
AcDbEntity
  8
SEIHIN
100
AcDbLine
 10
350.7371275022648
 20
60.17964482164899
 30
0.0
 11
350.7371275022648
 21
95.17966401197947
 31
0.0
  0
LINE
  5
1B87
330
1A
100
AcDbEntity
  8
SEIHIN
100
AcDbLine
 10
252.454606808748
 20
240.3075590502171
 30
0.0
 11
249.4546068087479
 21
237.3075590502171
 31
0.0
  0
LINE
  5
1B88
330
1A
100
AcDbEntity
  8
SEIHIN
100
AcDbLine
 10
252.454606808748
 20
217.3963590502173
 30
0.0
 11
249.4546068087479
 21
220.3963590502172
 31
0.0
  0
DIMENSION
  5
1B89
330
1A
100
AcDbEntity
  8
SUNPOU
100
AcDbDimension
  2
*D11
 10
365.7727758130872
 20
166.4667200155847
 30
0.0
 11
343.772787875574
 21
168.9667200155847
 31
0.0
 70
    32
  3
STANDARD
100
AcDbAlignedDimension
 13
321.7727999380609
 23
94.25999442011265
 33
0.0
 14
365.7727758130872
 24
94.21391842743148
 34
0.0
100
AcDbRotatedDimension
1001
ACAD
1000
DSTYLE
1002
{
1070
    41
1040
3.0
1070
    42
1040
3.0
1070
    43
1040
7.0
1070
    44
1040
1.5
1070
    73
1070
     0
1070
    74
1070
     0
1070
    77
1070
     3
1070
   140
1040
3.0
1070
   141
1040
3.0
1070
   147
1040
1.0
1070
   172
1070
     1
1070
   173
1070
     1
1070
   176
1070
   256
1070
   177
1070
   256
1070
   178
1070
   256
1070
   271
1070
     0
1070
   272
1070
     0
1070
   341
1005
B2
1070
     6
1000
OPEN
1070
     7
1000
OPEN
1002
}
  0
DIMENSION
  5
1B9F
330
1A
100
AcDbEntity
  8
SUNPOU
100
AcDbDimension
  2
*D12
 10
371.7706258009319
 20
175.9482018818096
 30
0.0
 11
343.7706411531878
 21
178.4482018818096
 31
0.0
 70
    32
  3
STANDARD
100
AcDbAlignedDimension
 13
315.7706565054438
 23
92.21627863402805
 33
0.0
 14
371.7706258009319
 24
92.15763646152479
 34
0.0
100
AcDbRotatedDimension
1001
ACAD
1000
DSTYLE
1002
{
1070
    41
1040
3.0
1070
    42
1040
3.0
1070
    43
1040
7.0
1070
    44
1040
1.5
1070
    73
1070
     0
1070
    74
1070
     0
1070
    77
1070
     3
1070
   140
1040
3.0
1070
   141
1040
3.0
1070
   147
1040
1.0
1070
   172
1070
     1
1070
   173
1070
     1
1070
   176
1070
   256
1070
   177
1070
   256
1070
   178
1070
   256
1070
   271
1070
     0
1070
   272
1070
     0
1070
   341
1005
B2
1070
     6
1000
OPEN
1070
     7
1000
OPEN
1002
}
  0
LINE
  5
227F
330
1A
100
AcDbEntity
  8
ZUWAKU
100
AcDbLine
 10
104.3233003079923
 20
7.599999732511943
 30
0.0
 11
223.712181648454
 21
7.599999732511939
 31
0.0
  0
LINE
  5
2280
330
1A
100
AcDbEntity
  8
ZUWAKU
100
AcDbLine
 10
104.3233003079923
 20
7.79999973251194
 30
0.0
 11
223.712181648454
 21
7.799999732511944
 31
0.0
  0
LINE
  5
2281
330
1A
100
AcDbEntity
  8
ZUWAKU
100
AcDbLine
 10
104.3233003079923
 20
7.69999973251194
 30
0.0
 11
223.712181648454
 21
7.69999973251194
 31
0.0
  0
LINE
  5
2282
330
1A
100
AcDbEntity
  8
ZUWAKU
100
AcDbLine
 10
-0.0000003370416835
 20
15.39999973251193
 30
0.0
 11
398.6999996629582
 21
15.39999973251193
 31
0.0
  0
LINE
  5
2283
330
1A
100
AcDbEntity
  8
ZUWAKU
100
AcDbLine
 10
-0.0000003370416835
 20
15.29999973251192
 30
0.0
 11
398.6999996629582
 21
15.29999973251192
 31
0.0
  0
LINE
  5
2284
330
1A
100
AcDbEntity
  8
ZUWAKU
100
AcDbLine
 10
-0.0000003370416835
 20
15.19999973251192
 30
0.0
 11
398.6999996629582
 21
15.19999973251192
 31
0.0
  0
LINE
  5
2285
330
1A
100
AcDbEntity
  8
ZUWAKU
100
AcDbLine
 10
-0.0000003370416835
 20
15.09999973251192
 30
0.0
 11
398.6999996629582
 21
15.09999973251192
 31
0.0
  0
LINE
  5
2286
330
1A
100
AcDbEntity
  8
ZUWAKU
100
AcDbLine
 10
-0.0000003370416835
 20
14.99999973251192
 30
0.0
 11
398.6999996629582
 21
14.99999973251192
 31
0.0
  0
LWPOLYLINE
  5
2287
330
1A
100
AcDbEntity
  8
ZUWAKU
100
AcDbPolyline
 90
        4
 70
     1
 43
0.0
 10
0.0999996629582825
 20
275.6999997325119
 10
0.0999996629582825
 20
0.0999997325119466
 10
398.6999996629582
 20
0.0999997325119582
 10
398.6999996629583
 20
275.6999997325119
  0
LWPOLYLINE
  5
2288
330
1A
100
AcDbEntity
  8
ZUWAKU
100
AcDbPolyline
 90
        4
 70
     1
 43
0.0
 10
0.2999996629582711
 20
275.499999732512
 10
0.2999996629582711
 20
0.2999997325119352
 10
398.4999996629584
 20
0.2999997325119583
 10
398.4999996629582
 20
275.499999732512
  0
LWPOLYLINE
  5
2289
330
1A
100
AcDbEntity
  8
ZUWAKU
100
AcDbPolyline
 90
        4
 70
     1
 43
0.0
 10
-0.0000003370416835
 20
275.7999997325119
 10
-0.0000003370416835
 20
-0.0000002674880761
 10
398.7999996629584
 20
-0.0000002674880424
 10
398.7999996629584
 20
275.799999732512
  0
LWPOLYLINE
  5
228A
330
1A
100
AcDbEntity
  8
ZUWAKU
100
AcDbPolyline
 90
        4
 70
     1
 43
0.0
 10
0.1999996629583052
 20
275.5999997325119
 10
0.1999996629583052
 20
0.1999997325119693
 10
398.5999996629583
 20
0.1999997325119578
 10
398.5999996629583
 20
275.5999997325119
  0
LWPOLYLINE
  5
228B
330
1A
100
AcDbEntity
  8
ZUWAKU
100
AcDbPolyline
 90
        4
 70
     1
 43
0.0
 10
0.3999996629582938
 20
275.3999997325119
 10
0.3999996629582938
 20
0.399999732511958
 10
398.3999996629583
 20
0.399999732511958
 10
398.3999996629583
 20
275.3999997325119
  0
TEXT
  5
228C
330
1A
100
AcDbEntity
  8
MOJI
100
AcDbText
 10
46.47889445704288
 20
6.370588797649304
 30
0.0
 40
3.0
  1
新・丸トップＲＶ１０５
 41
0.9
  7
ｽﾀｲﾙ1
100
AcDbText
  0
HATCH
  5
228D
330
1A
100
AcDbEntity
  8
ZUWAKU
100
AcDbHatch
 10
0.0
 20
0.0
 30
0.0
210
0.0
220
0.0
230
1.0
  2
ANSI37
 70
     0
 71
     0
 91
        8
 92
        7
 72
     1
 73
     1
 93
       24
 10
7.251130993518245
 20
8.822423973003715
 42
-0.1989123673796348
 10
7.046105740348878
 20
9.31739871983424
 42
0.0
 10
7.046105740348878
 20
9.962499732511929
 42
-0.4142135623730912
 10
7.308605740348866
 20
10.22499973251192
 42
0.0
 10
8.796105740348821
 20
10.22499973251192
 42
0.4142135623731546
 10
9.058605740348866
 20
10.48749973251192
 42
0.0
 10
9.058605740348866
 20
11.36249973251192
 42
0.4142135623731586
 10
8.796105740348821
 20
11.62499973251192
 42
0.0
 10
7.046105740348878
 20
11.62499973251192
 42
0.4142135623730928
 10
5.6461057403489
 20
10.22499973251193
 42
0.0
 10
5.6461057403489
 20
9.317398719834304
 42
0.1989123673796619
 10
6.261181499857116
 20
7.832474479342501
 42
0.0
 10
7.716080487179453
 20
6.377575492020172
 42
-0.1989123673796613
 10
7.921105740348878
 20
5.882600745189579
 42
0.0
 10
7.921105740348878
 20
5.237499732511921
 42
-0.4142135623730911
 10
7.658605740348889
 20
4.974999732511925
 42
0.0
 10
6.171105740348934
 20
4.974999732511925
 42
0.4142135623731526
 10
5.908605740348889
 20
4.712499732511931
 42
0.0
 10
5.908605740348889
 20
3.83749973251192
 42
0.4142135623731526
 10
6.171105740348934
 20
3.574999732511926
 42
0.0
 10
7.921105740348878
 20
3.574999732511926
 42
0.4142135623731044
 10
9.321105740348912
 20
4.974999732511914
 42
0.0
 10
9.321105740348912
 20
5.882600745189551
 42
0.1989123673796604
 10
8.706029980840639
 20
7.36752498568132
 42
0.0
 97
        0
 92
        7
 72
     1
 73
     1
 93
       16
 10
11.7711057403489
 20
9.524999732511929
 42
-0.4142135623730935
 10
12.47110574034889
 20
10.22499973251192
 42
0.0
 10
13.43360574034886
 20
10.22499973251192
 42
0.4142135623731546
 10
13.69610574034891
 20
10.48749973251192
 42
0.0
 10
13.69610574034891
 20
11.36249973251192
 42
0.4142135623730951
 10
13.43360574034892
 20
11.62499973251192
 42
0.0
 10
12.47110574034883
 20
11.6249997325119
 42
0.4142135623730892
 10
10.37110574034886
 20
9.524999732511894
 42
0.0
 10
10.37110574034886
 20
5.674999732511938
 42
0.4142135623730969
 10
12.47110574034889
 20
3.574999732511926
 42
0.0
 10
13.43360574034886
 20
3.574999732511926
 42
0.4142135623731526
 10
13.69610574034891
 20
3.83749973251192
 42
0.0
 10
13.69610574034891
 20
4.712499732511931
 42
0.4142135623730891
 10
13.43360574034892
 20
4.974999732511925
 42
0.0
 10
12.47110574034889
 20
4.974999732511925
 42
-0.4142135623730928
 10
11.7711057403489
 20
5.674999732511919
 42
0.0
 97
        0
 92
        7
 72
     1
 73
     1
 93
        2
 10
12.12110574034886
 20
7.599999732511925
 42
1.0
 10
13.87110574034886
 20
7.599999732511925
 42
1.0
 97
        0
 92
        7
 72
     1
 73
     1
 93
       26
 10
18.65742898143787
 20
9.602523329293639
 42
0.0
 10
19.18824879800678
 20
11.28345274842843
 42
0.5069206636600134
 10
18.9379333484091
 20
11.62499973251192
 42
0.0
 10
18.08848865860449
 20
11.62499973251192
 42
0.3272098845218764
 10
17.83817320900681
 20
11.44154671659541
 42
0.0
 10
16.90403827169092
 20
8.483452748428465
 42
-0.3272098845219541
 10
16.65372282209318
 20
8.299999732511924
 42
0.0
 10
16.58360574034895
 20
8.299999732511924
 42
-0.4142135623731526
 10
16.32110574034891
 20
8.562499732511918
 42
0.0
 10
16.32110574034891
 20
11.36249973251192
 42
0.4142135623730951
 10
16.05860574034892
 20
11.62499973251192
 42
0.0
 10
15.18360574034886
 20
11.62499973251192
 42
0.4142135623730871
 10
14.92110574034887
 20
11.36249973251193
 42
0.0
 10
14.92110574034887
 20
3.83749973251192
 42
0.4142135623730891
 10
15.18360574034886
 20
3.574999732511926
 42
0.0
 10
16.05860574034886
 20
3.574999732511926
 42
0.4142135623731526
 10
16.32110574034891
 20
3.83749973251192
 42
0.0
 10
16.32110574034891
 20
6.637499732511932
 42
-0.4142135623731526
 10
16.58360574034895
 20
6.899999732511925
 42
0.0
 10
16.65372282209324
 20
6.899999732511925
 42
-0.3272098845218915
 10
16.90403827169092
 20
6.716546716595388
 42
0.0
 10
17.83817320900681
 20
3.758452748428462
 42
0.3272098845218902
 10
18.08848865860449
 20
3.574999732511926
 42
0.0
 10
18.9379333484091
 20
3.574999732511926
 42
0.5069206636600335
 10
19.18824879800678
 20
3.91654671659543
 42
0.0
 10
18.02505310876995
 20
7.599999732511994
 42
0.0
 97
        0
 92
        7
 72
     1
 73
     1
 93
        8
 10
21.74610574034886
 20
11.36249973251193
 42
0.4142135623731546
 10
21.48360574034882
 20
11.62499973251192
 42
0.0
 10
20.60860574034893
 20
11.62499973251192
 42
0.4142135623731507
 10
20.34610574034889
 20
11.36249973251193
 42
0.0
 10
20.34610574034889
 20
3.83749973251192
 42
0.4142135623731526
 10
20.60860574034893
 20
3.574999732511926
 42
0.0
 10
21.48360574034882
 20
3.574999732511926
 42
0.4142135623731526
 10
21.74610574034886
 20
3.83749973251192
 42
0.0
 97
        0
 92
        7
 72
     1
 73
     1
 93
       24
 10
24.19610574034891
 20
9.962499732511929
 42
-0.4142135623731546
 10
24.45860574034895
 20
10.22499973251192
 42
0.0
 10
25.94610574034891
 20
10.22499973251192
 42
0.4142135623730911
 10
26.2086057403489
 20
10.48749973251192
 42
0.0
 10
26.2086057403489
 20
11.36249973251192
 42
0.4142135623730952
 10
25.94610574034891
 20
11.62499973251192
 42
0.0
 10
24.19610574034891
 20
11.62499973251192
 42
0.4142135623731048
 10
22.79610574034887
 20
10.22499973251193
 42
0.0
 10
22.79610574034887
 20
9.317398719834304
 42
0.1989123673796613
 10
23.41118149985715
 20
7.832474479342529
 42
0.0
 10
24.86608048717949
 20
6.377575492020195
 42
-0.1989123673796402
 10
25.07110574034891
 20
5.882600745189659
 42
0.0
 10
25.07110574034891
 20
5.237499732511921
 42
-0.4142135623730911
 10
24.80860574034892
 20
4.974999732511925
 42
0.0
 10
23.32110574034891
 20
4.974999732511925
 42
0.4142135623731526
 10
23.05860574034886
 20
4.712499732511931
 42
0.0
 10
23.05860574034886
 20
3.83749973251192
 42
0.4142135623730891
 10
23.32110574034885
 20
3.574999732511926
 42
0.0
 10
25.07110574034891
 20
3.574999732511926
 42
0.4142135623730925
 10
26.47110574034889
 20
4.974999732511914
 42
0.0
 10
26.47110574034889
 20
5.882600745189551
 42
0.1989123673796675
 10
25.85602998084061
 20
7.367524985681377
 42
0.0
 10
24.40113099351833
 20
8.822423973003635
 42
-0.1989123673796652
 10
24.19610574034891
 20
9.317398719834219
 42
0.0
 97
        0
 92
        7
 72
     1
 73
     1
 93
       16
 10
28.92110574034887
 20
11.36249973251192
 42
0.414213562373103
 10
28.65860574034888
 20
11.62499973251192
 42
0.0
 10
27.78360574034889
 20
11.62499973251192
 42
0.4142135623730871
 10
27.5211057403489
 20
11.36249973251193
 42
0.0
 10
27.5211057403489
 20
4.974999732511914
 42
0.4142135623730926
 10
28.92110574034887
 20
3.574999732511926
 42
0.0
 10
30.67110574034888
 20
3.574999732511926
 42
0.4142135623731044
 10
32.07110574034891
 20
4.974999732511914
 42
0.0
 10
32.07110574034891
 20
11.36249973251192
 42
0.4142135623730951
 10
31.80860574034892
 20
11.62499973251192
 42
0.0
 10
30.93360574034886
 20
11.62499973251192
 42
0.4142135623730871
 10
30.67110574034888
 20
11.36249973251193
 42
0.0
 10
30.67110574034888
 20
5.499999732511913
 42
-0.414213562373088
 10
30.1461057403489
 20
4.974999732511925
 42
0.0
 10
29.44610574034891
 20
4.974999732511925
 42
-0.4142135623731197
 10
28.92110574034887
 20
5.499999732511913
 42
0.0
 97
        0
 92
        7
 72
     1
 73
     1
 93
        8
 10
34.5211057403489
 20
11.36249973251193
 42
0.4142135623730871
 10
34.25860574034891
 20
11.62499973251192
 42
0.0
 10
33.38360574034891
 20
11.62499973251192
 42
0.4142135623731507
 10
33.12110574034886
 20
11.36249973251193
 42
0.0
 10
33.12110574034886
 20
3.83749973251192
 42
0.4142135623730891
 10
33.38360574034885
 20
3.574999732511926
 42
0.0
 10
34.25860574034891
 20
3.574999732511926
 42
0.4142135623730891
 10
34.5211057403489
 20
3.83749973251192
 42
0.0
 97
        0
 75
     0
 76
     1
 52
0.0
 41
0.1
 77
     0
 78
     2
 53
45.0
 43
-450.4711525043811
 44
-6.600000267488042
 45
-0.2245064030267288
 46
0.2245064030267288
 79
     0
 53
135.0
 43
-450.4711525043811
 44
-6.600000267488042
 45
-0.2245064030267288
 46
-0.2245064030267288
 79
     0
 47
0.057451373970553
 98
        8
 10
8.03992714446997
 20
7.583586555454701
 10
11.2022571661779
 20
9.422030823737429
 10
12.58218360578814
 20
7.755940555547283
 10
15.45702965377688
 20
8.100648555732675
 10
20.91923567243668
 20
8.330454689503483
 10
23.44910011052309
 20
9.709287890715529
 10
28.27884264915849
 20
9.364578690059431
 10
33.91353947276968
 20
9.594384823830239
  0
LINE
  5
228E
330
1A
100
AcDbEntity
  8
ZUWAKU
100
AcDbLine
 10
12.47110574034889
 20
11.6249997325119
 30
0.0
 11
13.43360574034886
 21
11.62499973251192
 31
0.0
  0
LINE
  5
228F
330
1A
100
AcDbEntity
  8
ZUWAKU
100
AcDbLine
 10
13.43360574034886
 20
10.22499973251192
 30
0.0
 11
12.47110574034889
 21
10.22499973251192
 31
0.0
  0
LINE
  5
2290
330
1A
100
AcDbEntity
  8
ZUWAKU
100
AcDbLine
 10
12.47110574034889
 20
4.974999732511925
 30
0.0
 11
13.43360574034886
 21
4.974999732511925
 31
0.0
  0
LINE
  5
2291
330
1A
100
AcDbEntity
  8
ZUWAKU
100
AcDbLine
 10
13.43360574034886
 20
3.574999732511926
 30
0.0
 11
12.47110574034889
 21
3.574999732511926
 31
0.0
  0
CIRCLE
  5
2292
330
1A
100
AcDbEntity
  8
ZUWAKU
100
AcDbCircle
 10
12.99610574034886
 20
7.599999732511925
 30
0.0
 40
0.875
  0
ARC
  5
2293
330
1A
100
AcDbEntity
  8
ZUWAKU
100
AcDbCircle
 10
7.746105740348866
 20
9.317398719834276
 30
0.0
 40
0.7
100
AcDbArc
 50
180.0000000000016
 51
224.9999999999988
  0
LINE
  5
2294
330
1A
100
AcDbEntity
  8
ZUWAKU
100
AcDbLine
 10
11.7711057403489
 20
9.524999732511925
 30
0.0
 11
11.7711057403489
 21
5.674999732511928
 31
0.0
  0
LINE
  5
2295
330
1A
100
AcDbEntity
  8
ZUWAKU
100
AcDbLine
 10
10.37110574034886
 20
5.674999732511928
 30
0.0
 11
10.37110574034886
 21
9.524999732511904
 31
0.0
  0
ARC
  5
2296
330
1A
100
AcDbEntity
  8
ZUWAKU
100
AcDbCircle
 10
7.746105740348866
 20
9.317398719834276
 30
0.0
 40
2.099999999999999
100
AcDbArc
 50
180.0
 51
225.0
  0
ARC
  5
2297
330
1A
100
AcDbEntity
  8
ZUWAKU
100
AcDbCircle
 10
7.921105740348878
 20
4.974999732511925
 30
0.0
 40
1.399999999999999
100
AcDbArc
 50
270.0
 51
0.0
  0
ARC
  5
2298
330
1A
100
AcDbEntity
  8
ZUWAKU
100
AcDbCircle
 10
12.47110574034889
 20
5.674999732511928
 30
0.0
 40
2.099999999999999
100
AcDbArc
 50
180.0
 51
270.0
  0
ARC
  5
2299
330
1A
100
AcDbEntity
  8
ZUWAKU
100
AcDbCircle
 10
7.221105740348889
 20
5.882600745189577
 30
0.0
 40
2.099999999999999
100
AcDbArc
 50
0.0
 51
45.0
  0
LINE
  5
229A
330
1A
100
AcDbEntity
  8
ZUWAKU
100
AcDbLine
 10
8.706029980840639
 20
7.367524985681338
 30
0.0
 11
7.251130993518302
 21
8.822423973003676
 31
0.0
  0
LINE
  5
229B
330
1A
100
AcDbEntity
  8
ZUWAKU
100
AcDbLine
 10
7.921105740348878
 20
5.237499732511928
 30
0.0
 11
7.921105740348878
 21
5.882600745189598
 31
0.0
  0
ARC
  5
229C
330
1A
100
AcDbEntity
  8
ZUWAKU
100
AcDbCircle
 10
7.658605740348889
 20
5.237499732511928
 30
0.0
 40
0.2625
100
AcDbArc
 50
270.0
 51
0.0
  0
ARC
  5
229D
330
1A
100
AcDbEntity
  8
ZUWAKU
100
AcDbCircle
 10
7.221105740348889
 20
5.882600745189598
 30
0.0
 40
0.7
100
AcDbArc
 50
0.0
 51
45.0
  0
LINE
  5
229E
330
1A
100
AcDbEntity
  8
ZUWAKU
100
AcDbLine
 10
5.908605740348889
 20
3.837499732511925
 30
0.0
 11
5.908605740348889
 21
4.712499732511925
 31
0.0
  0
ARC
  5
229F
330
1A
100
AcDbEntity
  8
ZUWAKU
100
AcDbCircle
 10
6.171105740348878
 20
3.837499732511925
 30
0.0
 40
0.2625
100
AcDbArc
 50
180.0
 51
270.0
  0
ARC
  5
22A0
330
1A
100
AcDbEntity
  8
ZUWAKU
100
AcDbCircle
 10
6.171105740348878
 20
4.712499732511925
 30
0.0
 40
0.2625
100
AcDbArc
 50
90.0
 51
180.0
  0
LINE
  5
22A1
330
1A
100
AcDbEntity
  8
ZUWAKU
100
AcDbLine
 10
6.171105740348878
 20
3.574999732511926
 30
0.0
 11
7.921105740348878
 21
3.574999732511926
 31
0.0
  0
LINE
  5
22A2
330
1A
100
AcDbEntity
  8
ZUWAKU
100
AcDbLine
 10
6.171105740348878
 20
4.974999732511925
 30
0.0
 11
7.658605740348889
 21
4.974999732511925
 31
0.0
  0
LINE
  5
22A3
330
1A
100
AcDbEntity
  8
ZUWAKU
100
AcDbLine
 10
6.261181499857116
 20
7.832474479342515
 30
0.0
 11
7.716080487179453
 21
6.377575492020184
 31
0.0
  0
LINE
  5
22A4
330
1A
100
AcDbEntity
  8
ZUWAKU
100
AcDbLine
 10
9.321105740348912
 20
4.974999732511925
 30
0.0
 11
9.321105740348912
 21
5.882600745189598
 31
0.0
  0
ARC
  5
22A5
330
1A
100
AcDbEntity
  8
ZUWAKU
100
AcDbCircle
 10
12.47110574034889
 20
5.674999732511928
 30
0.0
 40
0.7
100
AcDbArc
 50
180.0
 51
270.0
  0
ARC
  5
22A6
330
1A
100
AcDbEntity
  8
ZUWAKU
100
AcDbCircle
 10
8.796105740348878
 20
11.36249973251192
 30
0.0
 40
0.2625
100
AcDbArc
 50
0.0
 51
90.0
  0
ARC
  5
22A7
330
1A
100
AcDbEntity
  8
ZUWAKU
100
AcDbCircle
 10
8.796105740348878
 20
10.48749973251192
 30
0.0
 40
0.2625
100
AcDbArc
 50
270.0
 51
0.0
  0
LINE
  5
22A8
330
1A
100
AcDbEntity
  8
ZUWAKU
100
AcDbLine
 10
7.046105740348878
 20
11.62499973251192
 30
0.0
 11
8.796105740348878
 21
11.62499973251192
 31
0.0
  0
ARC
  5
22A9
330
1A
100
AcDbEntity
  8
ZUWAKU
100
AcDbCircle
 10
7.308605740348866
 20
9.962499732511925
 30
0.0
 40
0.2625
100
AcDbArc
 50
90.0
 51
180.0
  0
LINE
  5
22AA
330
1A
100
AcDbEntity
  8
ZUWAKU
100
AcDbLine
 10
7.046105740348878
 20
9.962499732511925
 30
0.0
 11
7.046105740348878
 21
9.317398719834255
 31
0.0
  0
LINE
  5
22AB
330
1A
100
AcDbEntity
  8
ZUWAKU
100
AcDbLine
 10
8.796105740348878
 20
10.22499973251192
 30
0.0
 11
7.308605740348866
 21
10.22499973251192
 31
0.0
  0
LINE
  5
22AC
330
1A
100
AcDbEntity
  8
ZUWAKU
100
AcDbLine
 10
5.6461057403489
 20
10.22499973251192
 30
0.0
 11
5.6461057403489
 21
9.317398719834255
 31
0.0
  0
ARC
  5
22AD
330
1A
100
AcDbEntity
  8
ZUWAKU
100
AcDbCircle
 10
7.046105740348878
 20
10.22499973251192
 30
0.0
 40
1.399999999999999
100
AcDbArc
 50
90.0
 51
180.0
  0
LINE
  5
22AE
330
1A
100
AcDbEntity
  8
ZUWAKU
100
AcDbLine
 10
9.058605740348866
 20
11.36249973251192
 30
0.0
 11
9.058605740348866
 21
10.48749973251192
 31
0.0
  0
ARC
  5
22AF
330
1A
100
AcDbEntity
  8
ZUWAKU
100
AcDbCircle
 10
12.47110574034889
 20
9.524999732511925
 30
0.0
 40
0.7
100
AcDbArc
 50
90.0
 51
180.0
  0
ARC
  5
22B0
330
1A
100
AcDbEntity
  8
ZUWAKU
100
AcDbCircle
 10
12.47110574034889
 20
9.524999732511904
 30
0.0
 40
2.099999999999999
100
AcDbArc
 50
90.0
 51
180.0
  0
LINE
  5
22B1
330
1A
100
AcDbEntity
  8
ZUWAKU
100
AcDbLine
 10
39.66331443695242
 20
14.99999973251192
 30
0.0
 11
39.66331443695253
 21
0.399999732511958
 31
0.0
  0
LINE
  5
22B2
330
1A
100
AcDbEntity
  8
ZUWAKU
100
AcDbLine
 10
39.76331443695244
 20
14.99999973251192
 30
0.0
 11
39.76331443695255
 21
0.399999732511958
 31
0.0
  0
LINE
  5
22B3
330
1A
100
AcDbEntity
  8
ZUWAKU
100
AcDbLine
 10
39.56331443695251
 20
14.99999973251192
 30
0.0
 11
39.56331443695251
 21
0.399999732511958
 31
0.0
  0
LINE
  5
22B4
330
1A
100
AcDbEntity
  8
ZUWAKU
100
AcDbLine
 10
32.07110574034891
 20
4.974999732511925
 30
0.0
 11
32.07110574034891
 21
11.36249973251192
 31
0.0
  0
LINE
  5
22B5
330
1A
100
AcDbEntity
  8
ZUWAKU
100
AcDbLine
 10
30.67110574034888
 20
11.36249973251192
 30
0.0
 11
30.67110574034888
 21
5.499999732511923
 31
0.0
  0
LINE
  5
22B6
330
1A
100
AcDbEntity
  8
ZUWAKU
100
AcDbLine
 10
34.5211057403489
 20
3.837499732511925
 30
0.0
 11
34.5211057403489
 21
11.36249973251192
 31
0.0
  0
LINE
  5
22B7
330
1A
100
AcDbEntity
  8
ZUWAKU
100
AcDbLine
 10
33.12110574034886
 20
11.36249973251192
 30
0.0
 11
33.12110574034886
 21
3.837499732511925
 31
0.0
  0
ARC
  5
22B8
330
1A
100
AcDbEntity
  8
ZUWAKU
100
AcDbCircle
 10
24.8961057403489
 20
9.317398719834276
 30
0.0
 40
0.7
100
AcDbArc
 50
180.0000000000016
 51
224.9999999999988
  0
ARC
  5
22B9
330
1A
100
AcDbEntity
  8
ZUWAKU
100
AcDbCircle
 10
24.8961057403489
 20
9.317398719834276
 30
0.0
 40
2.099999999999999
100
AcDbArc
 50
180.0
 51
225.0
  0
LINE
  5
22BA
330
1A
100
AcDbEntity
  8
ZUWAKU
100
AcDbLine
 10
18.65742898143787
 20
9.602523329293639
 30
0.0
 11
18.02505310876995
 21
7.599999732511935
 31
0.0
  0
LINE
  5
22BB
330
1A
100
AcDbEntity
  8
ZUWAKU
100
AcDbLine
 10
20.34610574034889
 20
11.36249973251192
 30
0.0
 11
20.34610574034889
 21
3.837499732511925
 31
0.0
  0
LINE
  5
22BC
330
1A
100
AcDbEntity
  8
ZUWAKU
100
AcDbLine
 10
21.74610574034886
 20
3.837499732511925
 30
0.0
 11
21.74610574034886
 21
11.36249973251192
 31
0.0
  0
LINE
  5
22BD
330
1A
100
AcDbEntity
  8
ZUWAKU
100
AcDbLine
 10
27.5211057403489
 20
11.36249973251192
 30
0.0
 11
27.5211057403489
 21
4.974999732511925
 31
0.0
  0
LINE
  5
22BE
330
1A
100
AcDbEntity
  8
ZUWAKU
100
AcDbLine
 10
28.92110574034887
 20
5.499999732511923
 30
0.0
 11
28.92110574034887
 21
11.36249973251192
 31
0.0
  0
LINE
  5
22BF
330
1A
100
AcDbEntity
  8
ZUWAKU
100
AcDbLine
 10
16.32110574034891
 20
8.562499732511927
 30
0.0
 11
16.32110574034891
 21
11.36249973251192
 31
0.0
  0
LINE
  5
22C0
330
1A
100
AcDbEntity
  8
ZUWAKU
100
AcDbLine
 10
14.92110574034887
 20
11.36249973251192
 30
0.0
 11
14.92110574034887
 21
3.837499732511925
 31
0.0
  0
LINE
  5
22C1
330
1A
100
AcDbEntity
  8
ZUWAKU
100
AcDbLine
 10
17.83817320900681
 20
11.44154671659541
 30
0.0
 11
16.90403827169092
 21
8.48345274842844
 31
0.0
  0
LINE
  5
22C2
330
1A
100
AcDbEntity
  8
ZUWAKU
100
AcDbLine
 10
30.1461057403489
 20
4.974999732511925
 30
0.0
 11
29.44610574034891
 21
4.974999732511925
 31
0.0
  0
LINE
  5
22C3
330
1A
100
AcDbEntity
  8
ZUWAKU
100
AcDbLine
 10
28.92110574034887
 20
3.574999732511926
 30
0.0
 11
30.67110574034888
 21
3.574999732511926
 31
0.0
  0
LINE
  5
22C4
330
1A
100
AcDbEntity
  8
ZUWAKU
100
AcDbLine
 10
20.60860574034887
 20
3.574999732511926
 30
0.0
 11
21.48360574034887
 21
3.574999732511926
 31
0.0
  0
LINE
  5
22C5
330
1A
100
AcDbEntity
  8
ZUWAKU
100
AcDbLine
 10
17.83817320900681
 20
3.758452748428439
 30
0.0
 11
16.90403827169092
 21
6.716546716595409
 31
0.0
  0
ARC
  5
22C6
330
1A
100
AcDbEntity
  8
ZUWAKU
100
AcDbCircle
 10
16.65372282209324
 20
8.562499732511927
 30
0.0
 40
0.2625
100
AcDbArc
 50
270.0
 51
342.4744316262769
  0
LINE
  5
22C7
330
1A
100
AcDbEntity
  8
ZUWAKU
100
AcDbLine
 10
16.65372282209324
 20
8.299999732511924
 30
0.0
 11
16.5836057403489
 21
8.299999732511924
 31
0.0
  0
LINE
  5
22C8
330
1A
100
AcDbEntity
  8
ZUWAKU
100
AcDbLine
 10
16.5836057403489
 20
6.899999732511925
 30
0.0
 11
16.65372282209324
 21
6.899999732511925
 31
0.0
  0
ARC
  5
22C9
330
1A
100
AcDbEntity
  8
ZUWAKU
100
AcDbCircle
 10
16.5836057403489
 20
8.562499732511927
 30
0.0
 40
0.2625
100
AcDbArc
 50
180.0
 51
270.0
  0
LINE
  5
22CA
330
1A
100
AcDbEntity
  8
ZUWAKU
100
AcDbLine
 10
15.18360574034886
 20
3.574999732511926
 30
0.0
 11
16.05860574034886
 21
3.574999732511926
 31
0.0
  0
ARC
  5
22CB
330
1A
100
AcDbEntity
  8
ZUWAKU
100
AcDbCircle
 10
16.05860574034886
 20
3.837499732511925
 30
0.0
 40
0.2625
100
AcDbArc
 50
270.0
 51
0.0
  0
LINE
  5
22CC
330
1A
100
AcDbEntity
  8
ZUWAKU
100
AcDbLine
 10
16.32110574034891
 20
3.837499732511925
 30
0.0
 11
16.32110574034891
 21
6.637499732511926
 31
0.0
  0
LINE
  5
22CD
330
1A
100
AcDbEntity
  8
ZUWAKU
100
AcDbLine
 10
13.69610574034891
 20
4.712499732511925
 30
0.0
 11
13.69610574034891
 21
3.837499732511925
 31
0.0
  0
ARC
  5
22CE
330
1A
100
AcDbEntity
  8
ZUWAKU
100
AcDbCircle
 10
13.43360574034886
 20
3.837499732511925
 30
0.0
 40
0.2625
100
AcDbArc
 50
270.0
 51
0.0
  0
ARC
  5
22CF
330
1A
100
AcDbEntity
  8
ZUWAKU
100
AcDbCircle
 10
13.43360574034886
 20
4.712499732511925
 30
0.0
 40
0.2625
100
AcDbArc
 50
0.0
 51
90.0
  0
ARC
  5
22D0
330
1A
100
AcDbEntity
  8
ZUWAKU
100
AcDbCircle
 10
15.18360574034886
 20
3.837499732511925
 30
0.0
 40
0.2625
100
AcDbArc
 50
180.0
 51
270.0
  0
ARC
  5
22D1
330
1A
100
AcDbEntity
  8
ZUWAKU
100
AcDbCircle
 10
16.65372282209324
 20
6.637499732511926
 30
0.0
 40
0.2625
100
AcDbArc
 50
17.52556837372303
 51
90.0
  0
ARC
  5
22D2
330
1A
100
AcDbEntity
  8
ZUWAKU
100
AcDbCircle
 10
16.5836057403489
 20
6.637499732511926
 30
0.0
 40
0.2625
100
AcDbArc
 50
90.0
 51
180.0
  0
ARC
  5
22D3
330
1A
100
AcDbEntity
  8
ZUWAKU
100
AcDbCircle
 10
20.60860574034887
 20
3.837499732511925
 30
0.0
 40
0.2625
100
AcDbArc
 50
180.0
 51
270.0
  0
LINE
  5
22D4
330
1A
100
AcDbEntity
  8
ZUWAKU
100
AcDbLine
 10
18.08848865860454
 20
3.574999732511926
 30
0.0
 11
18.93793334840904
 21
3.574999732511926
 31
0.0
  0
ARC
  5
22D5
330
1A
100
AcDbEntity
  8
ZUWAKU
100
AcDbCircle
 10
18.93793334840904
 20
3.837499732511925
 30
0.0
 40
0.2625
100
AcDbArc
 50
270.0
 51
17.52556837372303
  0
LINE
  5
22D6
330
1A
100
AcDbEntity
  8
ZUWAKU
100
AcDbLine
 10
19.18824879800678
 20
3.916546716595412
 30
0.0
 11
18.02505310876995
 21
7.599999732511935
 31
0.0
  0
ARC
  5
22D7
330
1A
100
AcDbEntity
  8
ZUWAKU
100
AcDbCircle
 10
18.08848865860454
 20
3.837499732511925
 30
0.0
 40
0.2625
100
AcDbArc
 50
197.525568373723
 51
270.0
  0
ARC
  5
22D8
330
1A
100
AcDbEntity
  8
ZUWAKU
100
AcDbCircle
 10
28.92110574034887
 20
4.974999732511925
 30
0.0
 40
1.399999999999999
100
AcDbArc
 50
180.0
 51
270.0
  0
ARC
  5
22D9
330
1A
100
AcDbEntity
  8
ZUWAKU
100
AcDbCircle
 10
25.07110574034891
 20
4.974999732511925
 30
0.0
 40
1.399999999999999
100
AcDbArc
 50
270.0
 51
0.0
  0
LINE
  5
22DA
330
1A
100
AcDbEntity
  8
ZUWAKU
100
AcDbLine
 10
25.85602998084067
 20
7.367524985681338
 30
0.0
 11
24.40113099351828
 21
8.822423973003676
 31
0.0
  0
LINE
  5
22DB
330
1A
100
AcDbEntity
  8
ZUWAKU
100
AcDbLine
 10
25.07110574034891
 20
5.237499732511928
 30
0.0
 11
25.07110574034891
 21
5.882600745189598
 31
0.0
  0
ARC
  5
22DC
330
1A
100
AcDbEntity
  8
ZUWAKU
100
AcDbCircle
 10
24.37110574034886
 20
5.882600745189598
 30
0.0
 40
0.7
100
AcDbArc
 50
0.0
 51
45.0
  0
ARC
  5
22DD
330
1A
100
AcDbEntity
  8
ZUWAKU
100
AcDbCircle
 10
24.80860574034887
 20
5.237499732511928
 30
0.0
 40
0.2625
100
AcDbArc
 50
270.0
 51
0.0
  0
LINE
  5
22DE
330
1A
100
AcDbEntity
  8
ZUWAKU
100
AcDbLine
 10
23.05860574034886
 20
3.837499732511925
 30
0.0
 11
23.05860574034886
 21
4.712499732511925
 31
0.0
  0
ARC
  5
22DF
330
1A
100
AcDbEntity
  8
ZUWAKU
100
AcDbCircle
 10
23.32110574034891
 20
3.837499732511925
 30
0.0
 40
0.2625
100
AcDbArc
 50
180.0
 51
270.0
  0
ARC
  5
22E0
330
1A
100
AcDbEntity
  8
ZUWAKU
100
AcDbCircle
 10
21.48360574034887
 20
3.837499732511925
 30
0.0
 40
0.2625
100
AcDbArc
 50
270.0
 51
0.0
  0
ARC
  5
22E1
330
1A
100
AcDbEntity
  8
ZUWAKU
100
AcDbCircle
 10
23.32110574034891
 20
4.712499732511925
 30
0.0
 40
0.2625
100
AcDbArc
 50
90.0
 51
180.0
  0
LINE
  5
22E2
330
1A
100
AcDbEntity
  8
ZUWAKU
100
AcDbLine
 10
23.32110574034891
 20
4.974999732511925
 30
0.0
 11
24.80860574034887
 21
4.974999732511925
 31
0.0
  0
LINE
  5
22E3
330
1A
100
AcDbEntity
  8
ZUWAKU
100
AcDbLine
 10
23.32110574034891
 20
3.574999732511926
 30
0.0
 11
25.07110574034891
 21
3.574999732511926
 31
0.0
  0
LINE
  5
22E4
330
1A
100
AcDbEntity
  8
ZUWAKU
100
AcDbLine
 10
23.41118149985715
 20
7.832474479342515
 30
0.0
 11
24.86608048717949
 21
6.377575492020184
 31
0.0
  0
LINE
  5
22E5
330
1A
100
AcDbEntity
  8
ZUWAKU
100
AcDbLine
 10
26.47110574034889
 20
4.974999732511925
 30
0.0
 11
26.47110574034889
 21
5.882600745189598
 31
0.0
  0
ARC
  5
22E6
330
1A
100
AcDbEntity
  8
ZUWAKU
100
AcDbCircle
 10
24.37110574034886
 20
5.882600745189577
 30
0.0
 40
2.099999999999999
100
AcDbArc
 50
0.0
 51
45.0
  0
ARC
  5
22E7
330
1A
100
AcDbEntity
  8
ZUWAKU
100
AcDbCircle
 10
29.44610574034891
 20
5.499999732511923
 30
0.0
 40
0.525
100
AcDbArc
 50
180.0
 51
270.0
  0
ARC
  5
22E8
330
1A
100
AcDbEntity
  8
ZUWAKU
100
AcDbCircle
 10
30.67110574034888
 20
4.974999732511925
 30
0.0
 40
1.399999999999999
100
AcDbArc
 50
270.0
 51
0.0
  0
LINE
  5
22E9
330
1A
100
AcDbEntity
  8
ZUWAKU
100
AcDbLine
 10
33.38360574034891
 20
3.574999732511926
 30
0.0
 11
34.25860574034891
 21
3.574999732511926
 31
0.0
  0
ARC
  5
22EA
330
1A
100
AcDbEntity
  8
ZUWAKU
100
AcDbCircle
 10
33.38360574034891
 20
3.837499732511925
 30
0.0
 40
0.2625
100
AcDbArc
 50
180.0
 51
270.0
  0
ARC
  5
22EB
330
1A
100
AcDbEntity
  8
ZUWAKU
100
AcDbCircle
 10
30.1461057403489
 20
5.499999732511923
 30
0.0
 40
0.525
100
AcDbArc
 50
270.0
 51
0.0
  0
ARC
  5
22EC
330
1A
100
AcDbEntity
  8
ZUWAKU
100
AcDbCircle
 10
34.25860574034891
 20
3.837499732511925
 30
0.0
 40
0.2625
100
AcDbArc
 50
270.0
 51
0.0
  0
LINE
  5
22ED
330
1A
100
AcDbEntity
  8
ZUWAKU
100
AcDbLine
 10
21.48360574034887
 20
11.62499973251192
 30
0.0
 11
20.60860574034887
 21
11.62499973251192
 31
0.0
  0
ARC
  5
22EE
330
1A
100
AcDbEntity
  8
ZUWAKU
100
AcDbCircle
 10
16.05860574034886
 20
11.36249973251192
 30
0.0
 40
0.2625
100
AcDbArc
 50
0.0
 51
90.0
  0
LINE
  5
22EF
330
1A
100
AcDbEntity
  8
ZUWAKU
100
AcDbLine
 10
16.05860574034886
 20
11.62499973251192
 30
0.0
 11
15.18360574034886
 21
11.62499973251192
 31
0.0
  0
ARC
  5
22F0
330
1A
100
AcDbEntity
  8
ZUWAKU
100
AcDbCircle
 10
13.43360574034886
 20
11.36249973251192
 30
0.0
 40
0.2625
100
AcDbArc
 50
0.0
 51
90.0
  0
ARC
  5
22F1
330
1A
100
AcDbEntity
  8
ZUWAKU
100
AcDbCircle
 10
15.18360574034886
 20
11.36249973251192
 30
0.0
 40
0.2625
100
AcDbArc
 50
90.0
 51
180.0
  0
ARC
  5
22F2
330
1A
100
AcDbEntity
  8
ZUWAKU
100
AcDbCircle
 10
13.43360574034886
 20
10.48749973251192
 30
0.0
 40
0.2625
100
AcDbArc
 50
270.0
 51
0.0
  0
LINE
  5
22F3
330
1A
100
AcDbEntity
  8
ZUWAKU
100
AcDbLine
 10
13.69610574034891
 20
11.36249973251192
 30
0.0
 11
13.69610574034891
 21
10.48749973251192
 31
0.0
  0
ARC
  5
22F4
330
1A
100
AcDbEntity
  8
ZUWAKU
100
AcDbCircle
 10
20.60860574034887
 20
11.36249973251192
 30
0.0
 40
0.2625
100
AcDbArc
 50
90.0
 51
180.0
  0
LINE
  5
22F5
330
1A
100
AcDbEntity
  8
ZUWAKU
100
AcDbLine
 10
18.08848865860454
 20
11.62499973251192
 30
0.0
 11
18.93793334840904
 21
11.62499973251192
 31
0.0
  0
ARC
  5
22F6
330
1A
100
AcDbEntity
  8
ZUWAKU
100
AcDbCircle
 10
18.93793334840904
 20
11.36249973251192
 30
0.0
 40
0.2625
100
AcDbArc
 50
342.4744316262769
 51
90.0
  0
LINE
  5
22F7
330
1A
100
AcDbEntity
  8
ZUWAKU
100
AcDbLine
 10
19.18824879800678
 20
11.28345274842844
 30
0.0
 11
18.65742898143787
 21
9.602523329293639
 31
0.0
  0
ARC
  5
22F8
330
1A
100
AcDbEntity
  8
ZUWAKU
100
AcDbCircle
 10
18.08848865860454
 20
11.36249973251192
 30
0.0
 40
0.2625
100
AcDbArc
 50
90.0
 51
162.4744316262769
  0
LINE
  5
22F9
330
1A
100
AcDbEntity
  8
ZUWAKU
100
AcDbLine
 10
24.19610574034891
 20
11.62499973251192
 30
0.0
 11
25.94610574034891
 21
11.62499973251192
 31
0.0
  0
LINE
  5
22FA
330
1A
100
AcDbEntity
  8
ZUWAKU
100
AcDbLine
 10
25.94610574034891
 20
10.22499973251192
 30
0.0
 11
24.4586057403489
 21
10.22499973251192
 31
0.0
  0
ARC
  5
22FB
330
1A
100
AcDbEntity
  8
ZUWAKU
100
AcDbCircle
 10
24.4586057403489
 20
9.962499732511925
 30
0.0
 40
0.2625
100
AcDbArc
 50
90.0
 51
180.0
  0
LINE
  5
22FC
330
1A
100
AcDbEntity
  8
ZUWAKU
100
AcDbLine
 10
24.19610574034891
 20
9.962499732511925
 30
0.0
 11
24.19610574034891
 21
9.317398719834255
 31
0.0
  0
ARC
  5
22FD
330
1A
100
AcDbEntity
  8
ZUWAKU
100
AcDbCircle
 10
21.48360574034887
 20
11.36249973251192
 30
0.0
 40
0.2625
100
AcDbArc
 50
0.0
 51
90.0
  0
LINE
  5
22FE
330
1A
100
AcDbEntity
  8
ZUWAKU
100
AcDbLine
 10
22.79610574034887
 20
10.22499973251192
 30
0.0
 11
22.79610574034887
 21
9.317398719834255
 31
0.0
  0
ARC
  5
22FF
330
1A
100
AcDbEntity
  8
ZUWAKU
100
AcDbCircle
 10
24.19610574034891
 20
10.22499973251192
 30
0.0
 40
1.399999999999999
100
AcDbArc
 50
90.0
 51
180.0
  0
ARC
  5
2300
330
1A
100
AcDbEntity
  8
ZUWAKU
100
AcDbCircle
 10
28.65860574034888
 20
11.36249973251192
 30
0.0
 40
0.2625
100
AcDbArc
 50
0.0
 51
90.0
  0
ARC
  5
2301
330
1A
100
AcDbEntity
  8
ZUWAKU
100
AcDbCircle
 10
27.78360574034889
 20
11.36249973251192
 30
0.0
 40
0.2625
100
AcDbArc
 50
90.0
 51
180.0
  0
LINE
  5
2302
330
1A
100
AcDbEntity
  8
ZUWAKU
100
AcDbLine
 10
28.65860574034888
 20
11.62499973251192
 30
0.0
 11
27.78360574034889
 21
11.62499973251192
 31
0.0
  0
ARC
  5
2303
330
1A
100
AcDbEntity
  8
ZUWAKU
100
AcDbCircle
 10
25.94610574034891
 20
11.36249973251192
 30
0.0
 40
0.2625
100
AcDbArc
 50
0.0
 51
90.0
  0
ARC
  5
2304
330
1A
100
AcDbEntity
  8
ZUWAKU
100
AcDbCircle
 10
25.94610574034891
 20
10.48749973251192
 30
0.0
 40
0.2625
100
AcDbArc
 50
270.0
 51
0.0
  0
LINE
  5
2305
330
1A
100
AcDbEntity
  8
ZUWAKU
100
AcDbLine
 10
26.2086057403489
 20
11.36249973251192
 30
0.0
 11
26.2086057403489
 21
10.48749973251192
 31
0.0
  0
LINE
  5
2306
330
1A
100
AcDbEntity
  8
ZUWAKU
100
AcDbLine
 10
34.25860574034891
 20
11.62499973251192
 30
0.0
 11
33.38360574034891
 21
11.62499973251192
 31
0.0
  0
ARC
  5
2307
330
1A
100
AcDbEntity
  8
ZUWAKU
100
AcDbCircle
 10
33.38360574034891
 20
11.36249973251192
 30
0.0
 40
0.2625
100
AcDbArc
 50
90.0
 51
180.0
  0
ARC
  5
2308
330
1A
100
AcDbEntity
  8
ZUWAKU
100
AcDbCircle
 10
31.80860574034886
 20
11.36249973251192
 30
0.0
 40
0.2625
100
AcDbArc
 50
0.0
 51
90.0
  0
LINE
  5
2309
330
1A
100
AcDbEntity
  8
ZUWAKU
100
AcDbLine
 10
31.80860574034886
 20
11.62499973251192
 30
0.0
 11
30.93360574034886
 21
11.62499973251192
 31
0.0
  0
ARC
  5
230A
330
1A
100
AcDbEntity
  8
ZUWAKU
100
AcDbCircle
 10
30.93360574034886
 20
11.36249973251192
 30
0.0
 40
0.2625
100
AcDbArc
 50
90.0
 51
180.0
  0
ARC
  5
230B
330
1A
100
AcDbEntity
  8
ZUWAKU
100
AcDbCircle
 10
34.25860574034891
 20
11.36249973251192
 30
0.0
 40
0.2625
100
AcDbArc
 50
0.0
 51
90.0
  0
TEXT
  5
230C
330
1A
100
AcDbEntity
  8
MOJI
100
AcDbText
 10
119.9136010033838
 20
9.002460261215617
 30
0.0
 40
2.799999999999999
  1
亜鉛メッキ金具正面打（受）
 41
0.9
  7
ｽﾀｲﾙ1
100
AcDbText
  0
TEXT
  5
230D
330
1A
100
AcDbEntity
  8
MOJI
100
AcDbText
 10
119.9136010033838
 20
1.602460261215634
 30
0.0
 40
2.799999999999999
  1
ＲＶ１０５－０－３０
 41
0.9
  7
ｽﾀｲﾙ1
100
AcDbText
  0
LINE
  5
230E
330
1A
100
AcDbEntity
  8
ZUWAKU
100
AcDbLine
 10
104.1233003079922
 20
14.99999973251192
 30
0.0
 11
104.1233003079922
 21
0.399999732511958
 31
0.0
  0
LINE
  5
230F
330
1A
100
AcDbEntity
  8
ZUWAKU
100
AcDbLine
 10
104.3233003079922
 20
14.99999973251192
 30
0.0
 11
104.3233003079923
 21
0.399999732511958
 31
0.0
  0
LINE
  5
2310
330
1A
100
AcDbEntity
  8
ZUWAKU
100
AcDbLine
 10
104.2233003079921
 20
14.99999973251192
 30
0.0
 11
104.2233003079922
 21
0.399999732511958
 31
0.0
  0
TEXT
  5
2311
330
1A
100
AcDbEntity
  8
ZUWAKU
100
AcDbText
 10
104.862022819097
 20
4.827678001704732
 30
0.0
 40
2.0
  1
サイズ
 41
0.9
  7
ｽﾀｲﾙ1
100
AcDbText
  0
TEXT
  5
2312
330
1A
100
AcDbEntity
  8
ZUWAKU
100
AcDbText
 10
104.8620228190969
 20
12.02767800170471
 30
0.0
 40
2.0
  1
品名
 41
0.9
  7
ｽﾀｲﾙ1
100
AcDbText
  0
LINE
  5
2313
330
1A
100
AcDbEntity
  8
ZUWAKU
100
AcDbLine
 10
324.4086009180604
 20
7.599999732511939
 30
0.0
 11
348.6245049372289
 21
7.599999732511941
 31
0.0
  0
LINE
  5
2314
330
1A
100
AcDbEntity
  8
ZUWAKU
100
AcDbLine
 10
324.4086009180605
 20
7.699999732511942
 30
0.0
 11
348.6245049372289
 21
7.69999973251194
 31
0.0
  0
LINE
  5
2315
330
1A
100
AcDbEntity
  8
ZUWAKU
100
AcDbLine
 10
324.4086009180604
 20
7.79999973251194
 30
0.0
 11
348.6245049372289
 21
7.79999973251194
 31
0.0
  0
TEXT
  5
2316
330
1A
100
AcDbEntity
  8
ZUWAKU
100
AcDbText
 10
329.1019685066095
 20
9.002460261215617
 30
0.0
 40
2.799999999999999
  1
　　．　　．　　
 41
0.9
  7
ｽﾀｲﾙ1
100
AcDbText
  0
LINE
  5
2317
330
1A
100
AcDbEntity
  8
ZUWAKU
100
AcDbLine
 10
252.5995894120287
 20
7.599999732511943
 30
0.0
 11
276.2634775460145
 21
7.599999732511943
 31
0.0
  0
LINE
  5
2318
330
1A
100
AcDbEntity
  8
ZUWAKU
100
AcDbLine
 10
252.5995894120287
 20
7.69999973251194
 30
0.0
 11
276.2634775460145
 21
7.69999973251194
 31
0.0
  0
LINE
  5
2319
330
1A
100
AcDbEntity
  8
ZUWAKU
100
AcDbLine
 10
252.5995894120287
 20
7.79999973251194
 30
0.0
 11
276.2634775460145
 21
7.79999973251194
 31
0.0
  0
TEXT
  5
231A
330
1A
100
AcDbEntity
  8
MOJI
100
AcDbText
 10
231.2836388239526
 20
5.971308593341916
 30
0.0
 40
2.799999999999999
  1
ＬＪ４７Ｇ
 41
0.9
  7
ｽﾀｲﾙ1
100
AcDbText
  0
LINE
  5
231B
330
1A
100
AcDbEntity
  8
ZUWAKU
100
AcDbLine
 10
223.8121816484539
 20
14.99999973251192
 30
0.0
 11
223.812181648454
 21
0.399999732511958
 31
0.0
  0
LINE
  5
231C
330
1A
100
AcDbEntity
  8
ZUWAKU
100
AcDbLine
 10
223.9121816484539
 20
14.99999973251192
 30
0.0
 11
223.912181648454
 21
0.399999732511958
 31
0.0
  0
LINE
  5
231D
330
1A
100
AcDbEntity
  8
ZUWAKU
100
AcDbLine
 10
223.712181648454
 20
14.99999973251192
 30
0.0
 11
223.712181648454
 21
0.399999732511958
 31
0.0
  0
TEXT
  5
231E
330
1A
100
AcDbEntity
  8
MOJI
100
AcDbText
 10
264.0204536491147
 20
9.002460261215617
 30
0.0
 40
2.799999999999999
  1
Ａ３
 41
0.9
  7
ｽﾀｲﾙ1
100
AcDbText
  0
LINE
  5
231F
330
1A
100
AcDbEntity
  8
ZUWAKU
100
AcDbLine
 10
252.4995894120287
 20
14.99999973251192
 30
0.0
 11
252.4995894120288
 21
0.399999732511958
 31
0.0
  0
LINE
  5
2320
330
1A
100
AcDbEntity
  8
ZUWAKU
100
AcDbLine
 10
252.5995894120287
 20
14.99999973251192
 30
0.0
 11
252.5995894120288
 21
0.399999732511958
 31
0.0
  0
LINE
  5
2321
330
1A
100
AcDbEntity
  8
ZUWAKU
100
AcDbLine
 10
252.3995894120288
 20
14.99999973251192
 30
0.0
 11
252.3995894120288
 21
0.399999732511958
 31
0.0
  0
TEXT
  5
2322
330
1A
100
AcDbEntity
  8
ZUWAKU
100
AcDbText
 10
253.3383119231336
 20
4.827678001704732
 30
0.0
 40
2.0
  1
縮尺
 41
0.9
  7
ｽﾀｲﾙ1
100
AcDbText
  0
TEXT
  5
2323
330
1A
100
AcDbEntity
  8
MOJI
100
AcDbText
 10
264.0204536491147
 20
1.602460261215634
 30
0.0
 40
2.799999999999999
  1
１/１
 41
0.9
  7
ｽﾀｲﾙ1
100
AcDbText
  0
TEXT
  5
2324
330
1A
100
AcDbEntity
  8
ZUWAKU
100
AcDbText
 10
224.6509041595587
 20
12.02767800170471
 30
0.0
 40
2.0
  1
品番
 41
0.9
  7
ｽﾀｲﾙ1
100
AcDbText
  0
TEXT
  5
2325
330
1A
100
AcDbEntity
  8
ZUWAKU
100
AcDbText
 10
253.3383119231335
 20
12.02767800170471
 30
0.0
 40
2.0
  1
用紙
 41
0.9
  7
ｽﾀｲﾙ1
100
AcDbText
  0
LINE
  5
2326
330
1A
100
AcDbEntity
  8
ZUWAKU
100
AcDbLine
 10
324.3086009180605
 20
14.99999973251192
 30
0.0
 11
324.3086009180606
 21
0.399999732511958
 31
0.0
  0
LINE
  5
2327
330
1A
100
AcDbEntity
  8
ZUWAKU
100
AcDbLine
 10
324.4086009180605
 20
14.99999973251192
 30
0.0
 11
324.4086009180606
 21
0.399999732511958
 31
0.0
  0
LINE
  5
2328
330
1A
100
AcDbEntity
  8
ZUWAKU
100
AcDbLine
 10
324.2086009180606
 20
14.99999973251192
 30
0.0
 11
324.2086009180606
 21
0.399999732511958
 31
0.0
  0
LINE
  5
2329
330
1A
100
AcDbEntity
  8
ZUWAKU
100
AcDbLine
 10
276.3634775460144
 20
14.99999973251192
 30
0.0
 11
276.3634775460145
 21
0.399999732511958
 31
0.0
  0
LINE
  5
232A
330
1A
100
AcDbEntity
  8
ZUWAKU
100
AcDbLine
 10
276.4634775460144
 20
14.99999973251192
 30
0.0
 11
276.4634775460145
 21
0.399999732511958
 31
0.0
  0
LINE
  5
232B
330
1A
100
AcDbEntity
  8
ZUWAKU
100
AcDbLine
 10
276.2634775460145
 20
14.99999973251192
 30
0.0
 11
276.2634775460145
 21
0.399999732511958
 31
0.0
  0
TEXT
  5
232C
330
1A
100
AcDbEntity
  8
ZUWAKU
100
AcDbText
 10
325.1473234291653
 20
12.02767800170471
 30
0.0
 40
2.0
  1
DATE
 41
0.9
  7
ｽﾀｲﾙ1
100
AcDbText
  0
LINE
  5
232D
330
1A
100
AcDbEntity
  8
ZUWAKU
100
AcDbLine
 10
348.6245049372289
 20
14.99999973251192
 30
0.0
 11
348.6245049372289
 21
0.399999732511958
 31
0.0
  0
LINE
  5
232E
330
1A
100
AcDbEntity
  8
ZUWAKU
100
AcDbLine
 10
348.7245049372289
 20
14.99999973251192
 30
0.0
 11
348.7245049372289
 21
0.399999732511958
 31
0.0
  0
LINE
  5
232F
330
1A
100
AcDbEntity
  8
ZUWAKU
100
AcDbLine
 10
348.8245049372288
 20
14.99999973251192
 30
0.0
 11
348.8245049372289
 21
0.399999732511958
 31
0.0
  0
LINE
  5
2330
330
1A
100
AcDbEntity
  8
ZUWAKU
100
AcDbLine
 10
348.9245049372289
 20
14.99999973251192
 30
0.0
 11
348.924504937229
 21
0.399999732511958
 31
0.0
  0
TEXT
  5
2331
330
1A
100
AcDbEntity
  8
ZUWAKU
100
AcDbText
 10
354.2640417590802
 20
8.776919400355325
 30
0.0
 40
3.0
  1
積水化学工業株式会社
 41
0.9
  7
ｽﾀｲﾙ1
100
AcDbText
  0
TEXT
  5
2332
330
1A
100
AcDbEntity
  8
ZUWAKU
100
AcDbText
 10
354.2640417590802
 20
3.324419889438956
 30
0.0
 40
3.0
  1
建材事業部
 41
0.9
  7
ｽﾀｲﾙ1
100
AcDbText
  0
VIEWPORT
  5
22
330
17
100
AcDbEntity
 67
     1
  8
0
100
AcDbViewport
 10
313.6808219178082
 20
148.5
 30
0.0
 40
627.3616438356165
 41
297.0
 68
     2
 69
     1
1001
ACAD
1000
MVIEW
1002
{
1070
    16
1010
0.0
1020
0.0
1030
0.0
1010
0.0
1020
0.0
1030
1.0
1040
0.0
1040
297.0
1040
313.6808219178082
1040
148.5
1040
50.0
1040
0.0
1040
0.0
1070
     0
1070
   100
1070
     1
1070
     0
1070
     0
1070
     0
1070
     0
1070
     0
1040
0.0
1040
0.0
1040
0.0
1040
1.0
1040
1.0
1040
10.0
1040
10.0
1070
     0
1002
{
1002
}
1002
}
  0
VIEWPORT
  5
64
330
17
100
AcDbEntity
 67
     1
  8
VIEWPORT
100
AcDbViewport
 10
210.0
 20
148.5
 30
0.0
 40
420.0
 41
297.0
 68
     1
 69
     2
1001
ACAD
1000
MVIEW
1002
{
1070
    16
1010
0.0
1020
0.0
1030
0.0
1010
0.0
1020
0.0
1030
1.0
1040
0.0
1040
302.9399999999998
1040
210.0
1040
148.5
1040
50.0
1040
0.0
1040
0.0
1070
     0
1070
   100
1070
     1
1070
     0
1070
     0
1070
     0
1070
     0
1070
     0
1040
0.0
1040
0.0
1040
0.0
1040
5.0
1040
5.0
1040
0.0
1040
0.0
1070
     0
1002
{
1002
}
1002
}
  0
ENDSEC
  0
SECTION
  2
OBJECTS
  0
DICTIONARY
  5
C
330
0
100
AcDbDictionary
  3
ACAD_GROUP
350
D
  3
ACAD_LAYOUT
350
141
  3
ACAD_MLINESTYLE
350
E
  3
ACAD_PLOTSETTINGS
350
142
  3
ACAD_PLOTSTYLENAME
350
13F
  3
ACADDIM
350
1A14
  3
ACDBVARIABLEDICTIONARY
350
120D
  3
ACDBHEADERROUNDTRIPXREC
350
233A
  0
DICTIONARY
  5
7A2
330
1A
100
AcDbDictionary
280
     1
  3
ACAD_LAYOUTSELFREF
360
235C
  0
DICTIONARY
  5
7A0
330
17
100
AcDbDictionary
280
     1
  3
ACAD_LAYOUTSELFREF
360
235B
  0
DICTIONARY
  5
D
102
{ACAD_REACTORS
330
C
102
}
330
C
100
AcDbDictionary
  0
DICTIONARY
  5
141
102
{ACAD_REACTORS
330
C
102
}
330
C
100
AcDbDictionary
  0
DICTIONARY
  5
E
102
{ACAD_REACTORS
330
C
102
}
330
C
100
AcDbDictionary
  3
STANDARD
350
13
  0
DICTIONARY
  5
142
102
{ACAD_REACTORS
330
C
102
}
330
C
100
AcDbDictionary
  0
ACDBDICTIONARYWDFLT
  5
13F
102
{ACAD_REACTORS
330
C
102
}
330
C
100
AcDbDictionary
281
     1
  3
Normal
350
140
100
AcDbDictionaryWithDefault
340
140
1001
ACAD
1000
TREAT_AS_HARD
1070
     0
1000
TREAT_AS_HARD
1070
     0
1000
TREAT_AS_HARD
1070
     0
1000
TREAT_AS_HARD
1070
     0
1000
TREAT_AS_HARD
1070
     0
1000
TREAT_AS_HARD
1070
     0
1000
TREAT_AS_HARD
1070
     0
1000
TREAT_AS_HARD
1070
     0
1000
TREAT_AS_HARD
1070
     0
  0
XRECORD
  5
1A14
102
{ACAD_REACTORS
330
C
102
}
330
C
100
AcDbXrecord
 90
   990106
  3

 60
     0
 61
     0
 62
     1
 63
     3
 64
     0
 65
     0
 66
     0
 67
     3
 68
     1
 69
     0
 70
     0
 71
     0
 72
     0
 40
0.0
170
     0
340
1A16
  0
DICTIONARY
  5
120D
102
{ACAD_REACTORS
330
C
102
}
330
C
100
AcDbDictionary
  3
SORTENTS
350
120E
  0
DICTIONARY
  5
233A
102
{ACAD_REACTORS
330
C
102
}
330
C
100
AcDbDictionary
  3
TSTACKALIGN
350
233B
  3
TSTACKSIZE
350
233C
  3
HYPERLINKBASE
350
233D
  3
STYLESHEET
350
233E
  3
LAYOUTDICT
350
233F
  3
PLOTSETDICT
350
2340
  3
PLOTSTYLNAMDICT
350
2341
  3
LWETCUNION
350
2342
  3
INSUNITS
350
2343
  3
CEPSNTYPE
350
2344
  3
FINGERPRINTGUID
350
2345
  3
VERSIONGUID
350
2346
  3
PSVPSCALE
350
2347
  3
DIMSTYLEDATA
350
2348
  3
PUCSORTHOREF
350
2349
  3
PUCSORTHOVIEW
350
234A
  3
PUCSBASE
350
234B
  3
PUCSORGTOP
350
234C
  3
PUCSORGBOTTOM
350
234D
  3
PUCSORGLEFT
350
234E
  3
PUCSORGRIGHT
350
234F
  3
PUCSORGFRONT
350
2350
  3
PUCSORGBACK
350
2351
  3
UCSORTHOREF
350
2352
  3
UCSORTHOVIEW
350
2353
  3
UCSBASE
350
2354
  3
UCSORGTOP
350
2355
  3
UCSORGBOTTOM
350
2356
  3
UCSORGLEFT
350
2357
  3
UCSORGRIGHT
350
2358
  3
UCSORGFRONT
350
2359
  3
UCSORGBACK
350
235A
  0
XRECORD
  5
235C
102
{ACAD_REACTORS
330
7A2
102
}
330
7A2
100
AcDbXrecord
340
1A
  0
XRECORD
  5
235B
102
{ACAD_REACTORS
330
7A0
102
}
330
7A0
100
AcDbXrecord
340
17
  0
MLINESTYLE
  5
13
102
{ACAD_REACTORS
330
E
102
}
330
E
100
AcDbMlineStyle
  2
STANDARD
 70
     0
  3

 62
     0
 51
90.0
 52
90.0
 71
     2
 49
0.5
 62
   256
  6
BYLAYER
 49
-0.5
 62
   256
  6
BYLAYER
  0
ACDBPLACEHOLDER
  5
140
102
{ACAD_REACTORS
330
13F
102
}
330
13F
100
AcDbPlaceHolder
280
     0
  0
DICTIONARYVAR
  5
120E
102
{ACAD_REACTORS
330
120D
102
}
330
120D
100
DictionaryVariables
280
     0
  1
96
  0
XRECORD
  5
233B
102
{ACAD_REACTORS
330
233A
102
}
330
233A
100
AcDbXrecord
 90
        1
  0
XRECORD
  5
233C
102
{ACAD_REACTORS
330
233A
102
}
330
233A
100
AcDbXrecord
 90
       70
  0
XRECORD
  5
233D
102
{ACAD_REACTORS
330
233A
102
}
330
233A
100
AcDbXrecord
  1

  0
XRECORD
  5
233E
102
{ACAD_REACTORS
330
233A
102
}
330
233A
100
AcDbXrecord
  1
systemprinter.ctb
  0
XRECORD
  5
233F
102
{ACAD_REACTORS
330
233A
102
}
330
233A
100
AcDbXrecord
340
141
  0
XRECORD
  5
2340
102
{ACAD_REACTORS
330
233A
102
}
330
233A
100
AcDbXrecord
340
142
  0
XRECORD
  5
2341
102
{ACAD_REACTORS
330
233A
102
}
330
233A
100
AcDbXrecord
340
13F
  0
XRECORD
  5
2342
102
{ACAD_REACTORS
330
233A
102
}
330
233A
100
AcDbXrecord
 90
    10781
  0
XRECORD
  5
2343
102
{ACAD_REACTORS
330
233A
102
}
330
233A
100
AcDbXrecord
 90
        0
  0
XRECORD
  5
2344
102
{ACAD_REACTORS
330
233A
102
}
330
233A
100
AcDbXrecord
 90
        0
  0
XRECORD
  5
2345
102
{ACAD_REACTORS
330
233A
102
}
330
233A
100
AcDbXrecord
  1
{4E8D0500-CDD1-11D3-932C-444553540000}
  0
XRECORD
  5
2346
102
{ACAD_REACTORS
330
233A
102
}
330
233A
100
AcDbXrecord
  1
{5469CB02-A74D-4AC4-858B-7ABAF9ACE0ED}
  0
XRECORD
  5
2347
102
{ACAD_REACTORS
330
233A
102
}
330
233A
100
AcDbXrecord
 40
0.0
  0
XRECORD
  5
2348
102
{ACAD_REACTORS
330
233A
102
}
330
233A
100
AcDbXrecord
1000
DSTYLE
1002
{
1070
   341
340
B2
1070
   343
340
B2
1070
   344
340
B2
1070
   371
 70
    -1
1070
   372
 70
    -1
1002
}
  0
XRECORD
  5
2349
102
{ACAD_REACTORS
330
233A
102
}
330
233A
100
AcDbXrecord
340
0
  0
XRECORD
  5
234A
102
{ACAD_REACTORS
330
233A
102
}
330
233A
100
AcDbXrecord
 70
     0
  0
XRECORD
  5
234B
102
{ACAD_REACTORS
330
233A
102
}
330
233A
100
AcDbXrecord
340
0
  0
XRECORD
  5
234C
102
{ACAD_REACTORS
330
233A
102
}
330
233A
100
AcDbXrecord
 10
0.0
 20
0.0
 30
0.0
  0
XRECORD
  5
234D
102
{ACAD_REACTORS
330
233A
102
}
330
233A
100
AcDbXrecord
 10
0.0
 20
0.0
 30
0.0
  0
XRECORD
  5
234E
102
{ACAD_REACTORS
330
233A
102
}
330
233A
100
AcDbXrecord
 10
0.0
 20
0.0
 30
0.0
  0
XRECORD
  5
234F
102
{ACAD_REACTORS
330
233A
102
}
330
233A
100
AcDbXrecord
 10
0.0
 20
0.0
 30
0.0
  0
XRECORD
  5
2350
102
{ACAD_REACTORS
330
233A
102
}
330
233A
100
AcDbXrecord
 10
0.0
 20
0.0
 30
0.0
  0
XRECORD
  5
2351
102
{ACAD_REACTORS
330
233A
102
}
330
233A
100
AcDbXrecord
 10
0.0
 20
0.0
 30
0.0
  0
XRECORD
  5
2352
102
{ACAD_REACTORS
330
233A
102
}
330
233A
100
AcDbXrecord
340
0
  0
XRECORD
  5
2353
102
{ACAD_REACTORS
330
233A
102
}
330
233A
100
AcDbXrecord
 70
     0
  0
XRECORD
  5
2354
102
{ACAD_REACTORS
330
233A
102
}
330
233A
100
AcDbXrecord
340
0
  0
XRECORD
  5
2355
102
{ACAD_REACTORS
330
233A
102
}
330
233A
100
AcDbXrecord
 10
0.0
 20
0.0
 30
0.0
  0
XRECORD
  5
2356
102
{ACAD_REACTORS
330
233A
102
}
330
233A
100
AcDbXrecord
 10
0.0
 20
0.0
 30
0.0
  0
XRECORD
  5
2357
102
{ACAD_REACTORS
330
233A
102
}
330
233A
100
AcDbXrecord
 10
0.0
 20
0.0
 30
0.0
  0
XRECORD
  5
2358
102
{ACAD_REACTORS
330
233A
102
}
330
233A
100
AcDbXrecord
 10
0.0
 20
0.0
 30
0.0
  0
XRECORD
  5
2359
102
{ACAD_REACTORS
330
233A
102
}
330
233A
100
AcDbXrecord
 10
0.0
 20
0.0
 30
0.0
  0
XRECORD
  5
235A
102
{ACAD_REACTORS
330
233A
102
}
330
233A
100
AcDbXrecord
 10
0.0
 20
0.0
 30
0.0
  0
ENDSEC
  0
EOF
